  0
SECTION
  2
HEADER
  9
$ACADVER
  1
AC1015
  9
$ACADMAINTVER
 70
     6
  9
$DWGCODEPAGE
  3
ANSI_1252
  9
$INSBASE
 10
0.0
 20
0.0
 30
0.0
  9
$EXTMIN
 10
0.0
 20
0.0
 30
0.0
  9
$EXTMAX
 10
297.0
 20
210.0
 30
0.0
  9
$LIMMIN
 10
0.0
 20
0.0
  9
$LIMMAX
 10
297.0
 20
210.0
  9
$ORTHOMODE
 70
     0
  9
$REGENMODE
 70
     1
  9
$FILLMODE
 70
     1
  9
$QTEXTMODE
 70
     0
  9
$MIRRTEXT
 70
     1
  9
$LTSCALE
 40
1.0
  9
$ATTMODE
 70
     1
  9
$TEXTSIZE
 40
2.0
  9
$TRACEWID
 40
1.0
  9
$TEXTSTYLE
  7
Standard
  9
$CLAYER
  8
0
  9
$CELTYPE
  6
ByLayer
  9
$CECOLOR
 62
   256
  9
$CELTSCALE
 40
1.0
  9
$DISPSILH
 70
     0
  9
$DIMSCALE
 40
1.0
  9
$DIMASZ
 40
3.0
  9
$DIMEXO
 40
0.0
  9
$DIMDLI
 40
3.75
  9
$DIMRND
 40
0.0
  9
$DIMDLE
 40
0.0
  9
$DIMEXE
 40
1.0
  9
$DIMTP
 40
0.0
  9
$DIMTM
 40
0.0
  9
$DIMTXT
 40
2.0
  9
$DIMCEN
 40
2.5
  9
$DIMTSZ
 40
0.0
  9
$DIMTOL
 70
     0
  9
$DIMLIM
 70
     0
  9
$DIMTIH
 70
     1
  9
$DIMTOH
 70
     1
  9
$DIMSE1
 70
     0
  9
$DIMSE2
 70
     0
  9
$DIMTAD
 70
     1
  9
$DIMZIN
 70
     0
  9
$DIMBLK
  1

  9
$DIMASO
 70
     1
  9
$DIMSHO
 70
     1
  9
$DIMPOST
  1

  9
$DIMAPOST
  1

  9
$DIMALT
 70
     0
  9
$DIMALTD
 70
     3
  9
$DIMALTF
 40
0.0393700787
  9
$DIMLFAC
 40
2.0
  9
$DIMTOFL
 70
     1
  9
$DIMTVP
 40
0.0
  9
$DIMTIX
 70
     0
  9
$DIMSOXD
 70
     0
  9
$DIMSAH
 70
     0
  9
$DIMBLK1
  1

  9
$DIMBLK2
  1

  9
$DIMSTYLE
  2
ISO-25
  9
$DIMCLRD
 70
     0
  9
$DIMCLRE
 70
     0
  9
$DIMCLRT
 70
     0
  9
$DIMTFAC
 40
1.0
  9
$DIMGAP
 40
1.524
  9
$DIMJUST
 70
     0
  9
$DIMSD1
 70
     0
  9
$DIMSD2
 70
     0
  9
$DIMTOLJ
 70
     0
  9
$DIMTZIN
 70
     0
  9
$DIMALTZ
 70
     0
  9
$DIMALTTZ
 70
     0
  9
$DIMUPT
 70
     0
  9
$DIMDEC
 70
     2
  9
$DIMTDEC
 70
     3
  9
$DIMALTU
 70
     2
  9
$DIMALTTD
 70
     3
  9
$DIMTXSTY
  7
Standard
  9
$DIMAUNIT
 70
     0
  9
$DIMADEC
 70
     2
  9
$DIMALTRND
 40
0.0
  9
$DIMAZIN
 70
     0
  9
$DIMDSEP
 70
    44
  9
$DIMATFIT
 70
     3
  9
$DIMFRAC
 70
     0
  9
$DIMLDRBLK
  1

  9
$DIMLUNIT
 70
     2
  9
$DIMLWD
 70
    -2
  9
$DIMLWE
 70
    -2
  9
$DIMTMOVE
 70
     0
  9
$LUNITS
 70
     2
  9
$LUPREC
 70
     2
  9
$SKETCHINC
 40
1.0
  9
$FILLETRAD
 40
10.0
  9
$AUNITS
 70
     0
  9
$AUPREC
 70
     2
  9
$MENU
  1
.
  9
$ELEVATION
 40
0.0
  9
$PELEVATION
 40
0.0
  9
$THICKNESS
 40
0.0
  9
$LIMCHECK
 70
     0
  9
$CHAMFERA
 40
0.0
  9
$CHAMFERB
 40
0.0
  9
$CHAMFERC
 40
0.0
  9
$CHAMFERD
 40
0.0
  9
$SKPOLY
 70
     0
  9
$TDCREATE
 40
2458166.61986603
  9
$TDUCREATE
 40
2458166.578199363
  9
$TDUPDATE
 40
2458166.619868218
  9
$TDUUPDATE
 40
2458166.578201551
  9
$TDINDWG
 40
0.0000000116
  9
$TDUSRTIMER
 40
0.0000000116
  9
$USRTIMER
 70
     1
  9
$ANGBASE
 50
0.0
  9
$ANGDIR
 70
     0
  9
$PDMODE
 70
     0
  9
$PDSIZE
 40
-1.0
  9
$PLINEWID
 40
0.0
  9
$SPLFRAME
 70
     0
  9
$SPLINETYPE
 70
     6
  9
$SPLINESEGS
 70
     8
  9
$HANDSEED
  5
245
  9
$SURFTAB1
 70
     6
  9
$SURFTAB2
 70
     6
  9
$SURFTYPE
 70
     6
  9
$SURFU
 70
     6
  9
$SURFV
 70
     6
  9
$UCSBASE
  2

  9
$UCSNAME
  2

  9
$UCSORG
 10
0.0
 20
0.0
 30
0.0
  9
$UCSXDIR
 10
1.0
 20
0.0
 30
0.0
  9
$UCSYDIR
 10
0.0
 20
1.0
 30
0.0
  9
$UCSORTHOREF
  2

  9
$UCSORTHOVIEW
 70
     0
  9
$UCSORGTOP
 10
0.0
 20
0.0
 30
0.0
  9
$UCSORGBOTTOM
 10
0.0
 20
0.0
 30
0.0
  9
$UCSORGLEFT
 10
0.0
 20
0.0
 30
0.0
  9
$UCSORGRIGHT
 10
0.0
 20
0.0
 30
0.0
  9
$UCSORGFRONT
 10
0.0
 20
0.0
 30
0.0
  9
$UCSORGBACK
 10
0.0
 20
0.0
 30
0.0
  9
$PUCSBASE
  2

  9
$PUCSNAME
  2

  9
$PUCSORG
 10
0.0
 20
0.0
 30
0.0
  9
$PUCSXDIR
 10
1.0
 20
0.0
 30
0.0
  9
$PUCSYDIR
 10
0.0
 20
1.0
 30
0.0
  9
$PUCSORTHOREF
  2

  9
$PUCSORTHOVIEW
 70
     0
  9
$PUCSORGTOP
 10
0.0
 20
0.0
 30
0.0
  9
$PUCSORGBOTTOM
 10
0.0
 20
0.0
 30
0.0
  9
$PUCSORGLEFT
 10
0.0
 20
0.0
 30
0.0
  9
$PUCSORGRIGHT
 10
0.0
 20
0.0
 30
0.0
  9
$PUCSORGFRONT
 10
0.0
 20
0.0
 30
0.0
  9
$PUCSORGBACK
 10
0.0
 20
0.0
 30
0.0
  9
$USERI1
 70
     0
  9
$USERI2
 70
     0
  9
$USERI3
 70
     0
  9
$USERI4
 70
     0
  9
$USERI5
 70
     0
  9
$USERR1
 40
0.0
  9
$USERR2
 40
0.0
  9
$USERR3
 40
0.0
  9
$USERR4
 40
0.0
  9
$USERR5
 40
0.0
  9
$WORLDVIEW
 70
     1
  9
$SHADEDGE
 70
     3
  9
$SHADEDIF
 70
    70
  9
$TILEMODE
 70
     1
  9
$MAXACTVP
 70
    64
  9
$PINSBASE
 10
0.0
 20
0.0
 30
0.0
  9
$PLIMCHECK
 70
     0
  9
$PEXTMIN
 10
1.0000000000E+20
 20
1.0000000000E+20
 30
1.0000000000E+20
  9
$PEXTMAX
 10
-1.0000000000E+20
 20
-1.0000000000E+20
 30
-1.0000000000E+20
  9
$PLIMMIN
 10
0.0
 20
0.0
  9
$PLIMMAX
 10
420.0
 20
297.0
  9
$UNITMODE
 70
     0
  9
$VISRETAIN
 70
     1
  9
$PLINEGEN
 70
     0
  9
$PSLTSCALE
 70
     1
  9
$TREEDEPTH
 70
  3020
  9
$CMLSTYLE
  2
Standard
  9
$CMLJUST
 70
     0
  9
$CMLSCALE
 40
20.0
  9
$PROXYGRAPHICS
 70
     1
  9
$MEASUREMENT
 70
     1
  9
$CELWEIGHT
370
    -1
  9
$ENDCAPS
280
     0
  9
$JOINSTYLE
280
     0
  9
$LWDISPLAY
290
     1
  9
$INSUNITS
 70
     4
  9
$HYPERLINKBASE
  1

  9
$STYLESHEET
  1

  9
$XEDIT
290
     1
  9
$CEPSNTYPE
380
     0
  9
$PSTYLEMODE
290
     1
  9
$FINGERPRINTGUID
  2
{F6F7B309-95DF-4059-B60D-39AC3BDB2161}
  9
$VERSIONGUID
  2
{FAEB1C32-E019-11D5-929B-00C0DF256EC4}
  9
$EXTNAMES
290
     1
  9
$PSVPSCALE
 40
0.0
  9
$OLESTARTUP
290
     0
  0
ENDSEC
  0
SECTION
  2
CLASSES
  0
CLASS
  1
ACDBDICTIONARYWDFLT
  2
AcDbDictionaryWithDefault
  3
ObjectDBX Classes
 90
        0
280
     0
281
     0
  0
CLASS
  1
VISUALSTYLE
  2
AcDbVisualStyle
  3
ObjectDBX Classes
 90
     4095
280
     0
281
     0
  0
CLASS
  1
MATERIAL
  2
AcDbMaterial
  3
ObjectDBX Classes
 90
     1153
280
     0
281
     0
  0
CLASS
  1
SCALE
  2
AcDbScale
  3
ObjectDBX Classes
 90
     1153
280
     0
281
     0
  0
CLASS
  1
TABLESTYLE
  2
AcDbTableStyle
  3
ObjectDBX Classes
 90
     4095
280
     0
281
     0
  0
CLASS
  1
MLEADERSTYLE
  2
AcDbMLeaderStyle
  3
ACDB_MLEADERSTYLE_CLASS
 90
     4095
280
     0
281
     0
  0
CLASS
  1
SUN
  2
AcDbSun
  3
SCENEOE
 90
     1153
280
     0
281
     0
  0
CLASS
  1
ACDBPLACEHOLDER
  2
AcDbPlaceHolder
  3
ObjectDBX Classes
 90
        0
280
     0
281
     0
  0
CLASS
  1
LAYOUT
  2
AcDbLayout
  3
ObjectDBX Classes
 90
        0
280
     0
281
     0
  0
ENDSEC
  0
SECTION
  2
TABLES
  0
TABLE
  2
VPORT
  5
8
330
0
100
AcDbSymbolTable
 70
     1
  0
VPORT
  5
29
330
8
100
AcDbSymbolTableRecord
100
AcDbViewportTableRecord
  2
*Active
 70
     0
 10
0.0
 20
0.0
 11
1.0
 21
1.0
 12
148.5
 22
105.0
 13
0.0
 23
0.0
 14
10.0
 24
10.0
 15
10.0
 25
10.0
 16
0.0
 26
0.0
 36
1.0
 17
0.0
 27
0.0
 37
0.0
 40
210.0
 41
1.4142857143
 42
50.0
 43
0.0
 44
0.0
 50
0.0
 51
0.0
 71
     0
 72
  2000
 73
     1
 74
     3
 75
     0
 76
     0
 77
     0
 78
     0
281
     0
 65
     1
110
0.0
120
0.0
130
0.0
111
1.0
121
0.0
131
0.0
112
0.0
122
1.0
132
0.0
 79
     0
146
0.0
  0
ENDTAB
  0
TABLE
  2
LTYPE
  5
5
330
0
100
AcDbSymbolTable
 70
     6
  0
LTYPE
  5
14
330
5
100
AcDbSymbolTableRecord
100
AcDbLinetypeTableRecord
  2
ByBlock
 70
     0
  3

 72
    65
 73
     0
 40
0.0
  0
LTYPE
  5
15
330
5
100
AcDbSymbolTableRecord
100
AcDbLinetypeTableRecord
  2
ByLayer
 70
     0
  3

 72
    65
 73
     0
 40
0.0
  0
LTYPE
  5
16
330
5
100
AcDbSymbolTableRecord
100
AcDbLinetypeTableRecord
  2
Continuous
 70
     0
  3
Solid line
 72
    65
 73
     0
 40
0.0
  0
LTYPE
  5
6E
330
5
100
AcDbSymbolTableRecord
100
AcDbLinetypeTableRecord
  2
HIDDEN
 70
     0
  3
Hidden __ __ __ __ __ __ __ __ __ __ __ __ __ __
 72
    65
 73
     2
 40
1.905
 49
1.27
 74
     0
 49
-0.635
 74
     0
  0
LTYPE
  5
6F
330
5
100
AcDbSymbolTableRecord
100
AcDbLinetypeTableRecord
  2
PHANTOM
 70
     0
  3
Phantom ______  __  __  ______  __  __  ______
 72
    65
 73
     6
 40
12.7
 49
6.35
 74
     0
 49
-1.27
 74
     0
 49
1.27
 74
     0
 49
-1.27
 74
     0
 49
1.27
 74
     0
 49
-1.27
 74
     0
  0
LTYPE
  5
70
330
5
100
AcDbSymbolTableRecord
100
AcDbLinetypeTableRecord
  2
CENTER
 70
     0
  3
Center ____ _ ____ _ ____ _ ____ _ ____ _ ____
 72
    65
 73
     4
 40
10.16
 49
6.35
 74
     0
 49
-1.27
 74
     0
 49
1.27
 74
     0
 49
-1.27
 74
     0
  0
LTYPE
  5
71
330
5
100
AcDbSymbolTableRecord
100
AcDbLinetypeTableRecord
  2
CENTERX2
 70
     0
  3
Center (2x) ________  __  ________  __  _____
 72
    65
 73
     4
 40
20.32
 49
12.7
 74
     0
 49
-2.54
 74
     0
 49
2.54
 74
     0
 49
-2.54
 74
     0
  0
LTYPE
  5
72
330
5
100
AcDbSymbolTableRecord
100
AcDbLinetypeTableRecord
  2
DOT2
 70
     0
  3
Dot (.5x) ........................................
 72
    65
 73
     2
 40
0.635
 49
0.0
 74
     0
 49
-0.635
 74
     0
  0
ENDTAB
  0
TABLE
  2
LAYER
  5
2
330
0
100
AcDbSymbolTable
 70
     5
  0
LAYER
  5
10
330
2
100
AcDbSymbolTableRecord
100
AcDbLayerTableRecord
  2
0
 70
     0
 62
     7
  6
Continuous
370
    -3
390
F
  0
LAYER
  5
73
330
2
100
AcDbSymbolTableRecord
100
AcDbLayerTableRecord
  2
FORMAT
 70
     0
 62
     7
  6
Continuous
370
    -3
390
F
  0
LAYER
  5
74
330
2
100
AcDbSymbolTableRecord
100
AcDbLayerTableRecord
  2
VERMASSUNG
 70
     0
 62
     7
  6
Continuous
370
    -3
390
F
  0
LAYER
  5
75
330
2
100
AcDbSymbolTableRecord
100
AcDbLayerTableRecord
  2
KOPF_DÜNN
 70
     0
 62
     7
  6
Continuous
370
    -3
390
F
  0
LAYER
  5
76
330
2
100
AcDbSymbolTableRecord
100
AcDbLayerTableRecord
  2
KOPF_DICK
 70
     0
 62
     7
  6
Continuous
370
    25
390
F
  0
ENDTAB
  0
TABLE
  2
STYLE
  5
3
330
0
100
AcDbSymbolTable
 70
     2
  0
STYLE
  5
11
330
3
100
AcDbSymbolTableRecord
100
AcDbTextStyleTableRecord
  2
Standard
 70
     0
 40
0.0
 41
1.0
 50
0.0
 71
     0
 42
2.0
  3
txt
  4

  0
STYLE
  5
77
330
3
100
AcDbSymbolTableRecord
100
AcDbTextStyleTableRecord
  2
SLDTEXTSTYLE0
 70
     0
 40
0.0
 41
0.7
 50
0.0
 71
     0
 42
2.0
  3
TXT
  4

  0
ENDTAB
  0
TABLE
  2
VIEW
  5
6
330
0
100
AcDbSymbolTable
 70
     0
  0
ENDTAB
  0
TABLE
  2
UCS
  5
7
330
0
100
AcDbSymbolTable
 70
     0
  0
ENDTAB
  0
TABLE
  2
APPID
  5
9
330
0
100
AcDbSymbolTable
 70
     1
  0
APPID
  5
12
330
9
100
AcDbSymbolTableRecord
100
AcDbRegAppTableRecord
  2
ACAD
 70
     0
  0
ENDTAB
  0
TABLE
  2
DIMSTYLE
  5
A
330
0
100
AcDbSymbolTable
 70
     3
100
AcDbDimStyleTable
  0
DIMSTYLE
105
27
330
A
100
AcDbSymbolTableRecord
100
AcDbDimStyleTableRecord
  2
ISO-25
 70
     0
 41
2.5
 42
0.625
 43
3.75
 44
1.25
 73
     0
 74
     0
 77
     1
 78
     8
140
2.5
141
2.5
143
0.0393700787
147
0.625
171
     3
172
     1
178
     0
271
     2
272
     2
274
     3
278
    44
283
     0
284
     8
340
11
  0
DIMSTYLE
105
135
102
{ACAD_REACTORS
330
134
330
140
330
14A
330
154
330
15E
102
}
330
A
100
AcDbSymbolTableRecord
100
AcDbDimStyleTableRecord
  2
SLDDIMSTYLE0
 70
     0
 41
3.0
 44
0.0
 45
0.000000001
 73
     0
 74
     0
 77
     1
 78
    12
 79
     3
140
2.0
147
0.5
173
     1
178
     0
271
     2
272
     3
276
     2
284
    12
340
77
  0
DIMSTYLE
105
169
102
{ACAD_REACTORS
330
168
102
}
330
A
100
AcDbSymbolTableRecord
100
AcDbDimStyleTableRecord
  2
SLDDIMSTYLE1
 70
     0
 41
3.0
 44
0.0
 45
0.000000001
 73
     0
 74
     0
 77
     1
 78
    12
 79
     3
140
2.0
147
0.5
173
     1
178
     0
271
     1
272
     3
276
     2
284
    12
340
77
  0
ENDTAB
  0
TABLE
  2
BLOCK_RECORD
  5
1
330
0
100
AcDbSymbolTable
 70
     7
  0
BLOCK_RECORD
  5
1F
330
1
100
AcDbSymbolTableRecord
100
AcDbBlockTableRecord
  2
*Model_Space
340
22
  0
BLOCK_RECORD
  5
1B
330
1
100
AcDbSymbolTableRecord
100
AcDbBlockTableRecord
  2
*Paper_Space
340
1E
  0
BLOCK_RECORD
  5
23
330
1
100
AcDbSymbolTableRecord
100
AcDbBlockTableRecord
  2
*Paper_Space0
340
26
  0
BLOCK_RECORD
  5
136
330
1
100
AcDbSymbolTableRecord
100
AcDbBlockTableRecord
  2
_D
340
0
  0
BLOCK_RECORD
  5
141
330
1
100
AcDbSymbolTableRecord
100
AcDbBlockTableRecord
  2
_D_1
340
0
  0
BLOCK_RECORD
  5
14B
330
1
100
AcDbSymbolTableRecord
100
AcDbBlockTableRecord
  2
_D_2
340
0
  0
BLOCK_RECORD
  5
155
330
1
100
AcDbSymbolTableRecord
100
AcDbBlockTableRecord
  2
_D_3
340
0
  0
BLOCK_RECORD
  5
15F
330
1
100
AcDbSymbolTableRecord
100
AcDbBlockTableRecord
  2
_D_4
340
0
  0
BLOCK_RECORD
  5
16A
330
1
100
AcDbSymbolTableRecord
100
AcDbBlockTableRecord
  2
_D_5
340
0
  0
ENDTAB
  0
ENDSEC
  0
SECTION
  2
BLOCKS
  0
BLOCK
  5
20
330
1F
100
AcDbEntity
  8
0
100
AcDbBlockBegin
  2
*Model_Space
 70
     0
 10
0.0
 20
0.0
 30
0.0
  3
*Model_Space
  1

  0
ENDBLK
  5
21
330
1F
100
AcDbEntity
  8
0
100
AcDbBlockEnd
  0
BLOCK
  5
1C
330
1B
100
AcDbEntity
 67
     1
  8
0
100
AcDbBlockBegin
  2
*Paper_Space
 70
     0
 10
0.0
 20
0.0
 30
0.0
  3
*Paper_Space
  1

  0
ENDBLK
  5
1D
330
1B
100
AcDbEntity
 67
     1
  8
0
100
AcDbBlockEnd
  0
BLOCK
  5
24
330
23
100
AcDbEntity
  8
0
100
AcDbBlockBegin
  2
*Paper_Space0
 70
     0
 10
0.0
 20
0.0
 30
0.0
  3
*Paper_Space0
  1

  0
ENDBLK
  5
25
330
23
100
AcDbEntity
  8
0
100
AcDbBlockEnd
  0
BLOCK
  5
137
330
136
100
AcDbEntity
  8
0
100
AcDbBlockBegin
  2
_D
 70
     0
 10
0.0
 20
0.0
 30
0.0
  3
_D
  1

  0
SOLID
  5
139
330
136
100
AcDbEntity
  8
VERMASSUNG
100
AcDbTrace
 10
215.7628427009
 20
127.44174143
 30
0.0
 11
215.3128427009
 21
124.44174143
 31
0.0
 12
216.2128427009
 22
124.44174143
 32
0.0
 13
216.2128427009
 23
124.44174143
 33
0.0
  0
SOLID
  5
13A
330
136
100
AcDbEntity
  8
VERMASSUNG
100
AcDbTrace
 10
215.7628427009
 20
105.44174143
 30
0.0
 11
216.2128427009
 21
108.44174143
 31
0.0
 12
215.3128427009
 22
108.44174143
 32
0.0
 13
215.3128427009
 23
108.44174143
 33
0.0
  0
LINE
  5
13B
330
136
100
AcDbEntity
  8
VERMASSUNG
100
AcDbLine
 10
198.3521032035
 20
127.44174143
 30
0.0
 11
216.7628427009
 21
127.44174143
 31
0.0
  0
LINE
  5
13C
330
136
100
AcDbEntity
  8
VERMASSUNG
100
AcDbLine
 10
198.3521032035
 20
105.44174143
 30
0.0
 11
216.7628427009
 21
105.44174143
 31
0.0
  0
LINE
  5
13D
330
136
100
AcDbEntity
  8
VERMASSUNG
100
AcDbLine
 10
215.7628427009
 20
127.44174143
 30
0.0
 11
215.7628427009
 21
105.44174143
 31
0.0
  0
MTEXT
  5
13E
330
136
100
AcDbEntity
  8
VERMASSUNG
100
AcDbMText
 10
213.1847073959
 20
113.2367414727
 30
0.0
 40
2.0
 41
0.0
 71
     1
 72
     1
  1
%%c
  7
SLDTEXTSTYLE0
 11
-7.044195017643634E-15
 21
1.0
 31
0.0
 73
     1
 44
1.0
  0
MTEXT
  5
13F
330
136
100
AcDbEntity
  8
VERMASSUNG
100
AcDbMText
 10
212.9847074447
 20
116.846741487
 30
0.0
 40
2.0
 41
0.0
 71
     1
 72
     1
  1
22
  7
SLDTEXTSTYLE0
 11
-7.044195017643634E-15
 21
1.0
 31
0.0
 73
     1
 44
1.0
  0
ENDBLK
  5
138
330
136
100
AcDbEntity
  8
0
100
AcDbBlockEnd
  0
BLOCK
  5
142
330
141
100
AcDbEntity
  8
0
100
AcDbBlockBegin
  2
_D_1
 70
     0
 10
0.0
 20
0.0
 30
0.0
  3
_D_1
  1

  0
SOLID
  5
144
330
141
100
AcDbEntity
  8
VERMASSUNG
100
AcDbTrace
 10
175.7128100653
 20
125.94174143
 30
0.0
 11
175.2628100653
 21
122.94174143
 31
0.0
 12
176.1628100653
 22
122.94174143
 32
0.0
 13
176.1628100653
 23
122.94174143
 33
0.0
  0
SOLID
  5
145
330
141
100
AcDbEntity
  8
VERMASSUNG
100
AcDbTrace
 10
175.7128100653
 20
106.94174143
 30
0.0
 11
176.1628100653
 21
109.94174143
 31
0.0
 12
175.2628100653
 22
109.94174143
 32
0.0
 13
175.2628100653
 23
109.94174143
 33
0.0
  0
LINE
  5
146
330
141
100
AcDbEntity
  8
VERMASSUNG
100
AcDbLine
 10
175.7128100653
 20
125.94174143
 30
0.0
 11
175.7128100653
 21
139.6544150857
 31
0.0
  0
LINE
  5
147
330
141
100
AcDbEntity
  8
VERMASSUNG
100
AcDbLine
 10
175.7128100653
 20
125.94174143
 30
0.0
 11
175.7128100653
 21
106.94174143
 31
0.0
  0
MTEXT
  5
148
330
141
100
AcDbEntity
  8
VERMASSUNG
100
AcDbMText
 10
173.1346747604
 20
133.6444149574
 30
0.0
 40
2.0
 41
0.0
 71
     1
 72
     1
  1
%%c
  7
SLDTEXTSTYLE0
 11
-7.044195017643634E-15
 21
1.0
 31
0.0
 73
     1
 44
1.0
  0
MTEXT
  5
149
330
141
100
AcDbEntity
  8
VERMASSUNG
100
AcDbMText
 10
172.9346748091
 20
137.2544149717
 30
0.0
 40
2.0
 41
0.0
 71
     1
 72
     1
  1
19
  7
SLDTEXTSTYLE0
 11
-7.044195017643634E-15
 21
1.0
 31
0.0
 73
     1
 44
1.0
  0
ENDBLK
  5
143
330
141
100
AcDbEntity
  8
0
100
AcDbBlockEnd
  0
BLOCK
  5
14C
330
14B
100
AcDbEntity
  8
0
100
AcDbBlockBegin
  2
_D_2
 70
     0
 10
0.0
 20
0.0
 30
0.0
  3
_D_2
  1

  0
SOLID
  5
14E
330
14B
100
AcDbEntity
  8
VERMASSUNG
100
AcDbTrace
 10
156.8521032035
 20
154.676575883
 30
0.0
 11
159.8521032035
 21
154.226575883
 31
0.0
 12
159.8521032035
 22
155.126575883
 32
0.0
 13
159.8521032035
 23
155.126575883
 33
0.0
  0
SOLID
  5
14F
330
14B
100
AcDbEntity
  8
VERMASSUNG
100
AcDbTrace
 10
198.8521032035
 20
154.676575883
 30
0.0
 11
195.8521032035
 21
155.126575883
 31
0.0
 12
195.8521032035
 22
154.226575883
 32
0.0
 13
195.8521032035
 23
154.226575883
 33
0.0
  0
LINE
  5
150
330
14B
100
AcDbEntity
  8
VERMASSUNG
100
AcDbLine
 10
156.8521032035
 20
146.91674143
 30
0.0
 11
156.8521032035
 21
155.676575883
 31
0.0
  0
LINE
  5
151
330
14B
100
AcDbEntity
  8
VERMASSUNG
100
AcDbLine
 10
198.8521032035
 20
124.9235505097
 30
0.0
 11
198.8521032035
 21
155.676575883
 31
0.0
  0
LINE
  5
152
330
14B
100
AcDbEntity
  8
VERMASSUNG
100
AcDbLine
 10
156.8521032035
 20
154.676575883
 30
0.0
 11
198.8521032035
 21
154.676575883
 31
0.0
  0
MTEXT
  5
153
330
14B
100
AcDbEntity
  8
VERMASSUNG
100
AcDbMText
 10
176.3521031905
 20
157.254711479
 30
0.0
 40
2.0
 41
0.0
 71
     1
 72
     1
  1
42
  7
SLDTEXTSTYLE0
 73
     1
 44
1.0
  0
ENDBLK
  5
14D
330
14B
100
AcDbEntity
  8
0
100
AcDbBlockEnd
  0
BLOCK
  5
156
330
155
100
AcDbEntity
  8
0
100
AcDbBlockBegin
  2
_D_3
 70
     0
 10
0.0
 20
0.0
 30
0.0
  3
_D_3
  1

  0
SOLID
  5
158
330
155
100
AcDbEntity
  8
VERMASSUNG
100
AcDbTrace
 10
138.8521032035
 20
162.58808349
 30
0.0
 11
141.8521032035
 21
162.13808349
 31
0.0
 12
141.8521032035
 22
163.03808349
 32
0.0
 13
141.8521032035
 23
163.03808349
 33
0.0
  0
SOLID
  5
159
330
155
100
AcDbEntity
  8
VERMASSUNG
100
AcDbTrace
 10
198.8521032035
 20
162.58808349
 30
0.0
 11
195.8521032035
 21
163.03808349
 31
0.0
 12
195.8521032035
 22
162.13808349
 32
0.0
 13
195.8521032035
 23
162.13808349
 33
0.0
  0
LINE
  5
15A
330
155
100
AcDbEntity
  8
VERMASSUNG
100
AcDbLine
 10
138.8521032035
 20
147.71674143
 30
0.0
 11
138.8521032035
 21
163.58808349
 31
0.0
  0
LINE
  5
15B
330
155
100
AcDbEntity
  8
VERMASSUNG
100
AcDbLine
 10
198.8521032035
 20
124.9235505097
 30
0.0
 11
198.8521032035
 21
163.58808349
 31
0.0
  0
LINE
  5
15C
330
155
100
AcDbEntity
  8
VERMASSUNG
100
AcDbLine
 10
138.8521032035
 20
162.58808349
 30
0.0
 11
198.8521032035
 21
162.58808349
 31
0.0
  0
MTEXT
  5
15D
330
155
100
AcDbEntity
  8
VERMASSUNG
100
AcDbMText
 10
167.4521032534
 20
165.1662190859
 30
0.0
 40
2.0
 41
0.0
 71
     1
 72
     1
  1
60
  7
SLDTEXTSTYLE0
 73
     1
 44
1.0
  0
ENDBLK
  5
157
330
155
100
AcDbEntity
  8
0
100
AcDbBlockEnd
  0
BLOCK
  5
160
330
15F
100
AcDbEntity
  8
0
100
AcDbBlockBegin
  2
_D_4
 70
     0
 10
0.0
 20
0.0
 30
0.0
  3
_D_4
  1

  0
SOLID
  5
162
330
15F
100
AcDbEntity
  8
VERMASSUNG
100
AcDbTrace
 10
98.9021032035
 20
171.4195338419
 30
0.0
 11
101.9021032035
 21
170.9695338419
 31
0.0
 12
101.9021032035
 22
171.8695338419
 32
0.0
 13
101.9021032035
 23
171.8695338419
 33
0.0
  0
SOLID
  5
163
330
15F
100
AcDbEntity
  8
VERMASSUNG
100
AcDbTrace
 10
198.8521032035
 20
171.4195338419
 30
0.0
 11
195.8521032035
 21
171.8695338419
 31
0.0
 12
195.8521032035
 22
170.9695338419
 32
0.0
 13
195.8521032035
 23
170.9695338419
 33
0.0
  0
LINE
  5
164
330
15F
100
AcDbEntity
  8
VERMASSUNG
100
AcDbLine
 10
98.9021032035
 20
138.6448361538
 30
0.0
 11
98.9021032035
 21
172.4195338419
 31
0.0
  0
LINE
  5
165
330
15F
100
AcDbEntity
  8
VERMASSUNG
100
AcDbLine
 10
198.8521032035
 20
124.9235505097
 30
0.0
 11
198.8521032035
 21
172.4195338419
 31
0.0
  0
LINE
  5
166
330
15F
100
AcDbEntity
  8
VERMASSUNG
100
AcDbLine
 10
98.9021032035
 20
171.4195338419
 30
0.0
 11
198.8521032035
 21
171.4195338419
 31
0.0
  0
MTEXT
  5
167
330
15F
100
AcDbEntity
  8
VERMASSUNG
100
AcDbMText
 10
145.7771033473
 20
173.9976694379
 30
0.0
 40
2.0
 41
0.0
 71
     1
 72
     1
  1
99.95
  7
SLDTEXTSTYLE0
 73
     1
 44
1.0
  0
ENDBLK
  5
161
330
15F
100
AcDbEntity
  8
0
100
AcDbBlockEnd
  0
BLOCK
  5
16B
330
16A
100
AcDbEntity
  8
0
100
AcDbBlockBegin
  2
_D_5
 70
     0
 10
0.0
 20
0.0
 30
0.0
  3
_D_5
  1

  0
SOLID
  5
16D
330
16A
100
AcDbEntity
  8
VERMASSUNG
100
AcDbTrace
 10
88.9020782035
 20
147.91674143
 30
0.0
 11
88.4520782035
 21
144.91674143
 31
0.0
 12
89.3520782035
 22
144.91674143
 32
0.0
 13
89.3520782035
 23
144.91674143
 33
0.0
  0
SOLID
  5
16E
330
16A
100
AcDbEntity
  8
VERMASSUNG
100
AcDbTrace
 10
88.9020782035
 20
84.96674143
 30
0.0
 11
89.3520782035
 21
87.96674143
 31
0.0
 12
88.4520782035
 22
87.96674143
 32
0.0
 13
88.4520782035
 23
87.96674143
 33
0.0
  0
LINE
  5
16F
330
16A
100
AcDbEntity
  8
VERMASSUNG
100
AcDbLine
 10
139.0521032035
 20
147.91674143
 30
0.0
 11
87.9020782035
 21
147.91674143
 31
0.0
  0
LINE
  5
170
330
16A
100
AcDbEntity
  8
VERMASSUNG
100
AcDbLine
 10
139.0521032035
 20
84.96674143
 30
0.0
 11
87.9020782035
 21
84.96674143
 31
0.0
  0
LINE
  5
171
330
16A
100
AcDbEntity
  8
VERMASSUNG
100
AcDbLine
 10
88.9020782035
 20
147.91674143
 30
0.0
 11
88.9020782035
 21
84.96674143
 31
0.0
  0
MTEXT
  5
172
330
16A
100
AcDbEntity
  8
VERMASSUNG
100
AcDbMText
 10
86.1239429473
 20
108.3367428116
 30
0.0
 40
2.0
 41
0.0
 71
     1
 72
     1
  1
KM
  7
SLDTEXTSTYLE0
 11
-7.044195017643634E-15
 21
1.0
 31
0.0
 73
     1
 44
1.0
  0
MTEXT
  5
173
330
16A
100
AcDbEntity
  8
VERMASSUNG
100
AcDbMText
 10
86.3239428986
 20
111.7367426238
 30
0.0
 40
2.0
 41
0.0
 71
     1
 72
     1
  1
%%c
  7
SLDTEXTSTYLE0
 11
-7.044195017643634E-15
 21
1.0
 31
0.0
 73
     1
 44
1.0
  0
MTEXT
  5
174
330
16A
100
AcDbEntity
  8
VERMASSUNG
100
AcDbMText
 10
86.1239429473
 20
115.3467426382
 30
0.0
 40
2.0
 41
0.0
 71
     1
 72
     1
  1
63
  7
SLDTEXTSTYLE0
 11
-7.044195017643634E-15
 21
1.0
 31
0.0
 73
     1
 44
1.0
  0
MTEXT
  5
175
330
16A
100
AcDbEntity
  8
VERMASSUNG
100
AcDbMText
 10
86.1239429473
 20
119.3342425383
 30
0.0
 40
2.0
 41
0.0
 71
     1
 72
     1
  1
XMZ
  7
SLDTEXTSTYLE0
 11
-7.044195017643634E-15
 21
1.0
 31
0.0
 73
     1
 44
1.0
  0
ENDBLK
  5
16C
330
16A
100
AcDbEntity
  8
0
100
AcDbBlockEnd
  0
ENDSEC
  0
SECTION
  2
ENTITIES
  0
MTEXT
  5
78
330
1F
100
AcDbEntity
  8
KOPF_DÜNN
100
AcDbMText
 10
13.8892156294
 20
23.8442973028
 30
0.0
 40
3.0
 41
0.0
 71
     1
 72
     1
  1
KY6.E17.K01.060
  7
SLDTEXTSTYLE0
 73
     1
 44
1.0
  0
MTEXT
  5
79
330
1F
100
AcDbEntity
  8
VERMASSUNG
100
AcDbMText
 10
13.9329988022
 20
28.8834360957
 30
0.0
 40
3.0
 41
0.0
 71
     1
 72
     1
  1
Spannzangenfutter ER-MINI_Collet chuck ER-MINI
  7
SLDTEXTSTYLE0
 73
     1
 44
1.0
  0
MTEXT
  5
7A
330
1F
100
AcDbEntity
  8
VERMASSUNG
100
AcDbMText
 10
98.8601118557
 20
13.8365368761
 30
0.0
 40
2.0
 41
0.0
 71
     1
 72
     1
  1
Datum: 16.02.2018
  7
SLDTEXTSTYLE0
 73
     1
 44
1.0
  0
MTEXT
  5
7B
330
1F
100
AcDbEntity
  8
VERMASSUNG
100
AcDbMText
 10
13.933048693
 20
18.0482802738
 30
0.0
 40
2.0
 41
0.0
 71
     1
 72
     1
  1
KM63 XMZ / Ø22 MINI
  7
SLDTEXTSTYLE0
 73
     1
 44
1.0
  0
MTEXT
  5
7C
330
1F
100
AcDbEntity
  8
VERMASSUNG
100
AcDbMText
 10
13.9808475933
 20
13.9090974274
 30
0.0
 40
2.0
 41
0.0
 71
     1
 72
     1
  1
Gewicht: 682g
  7
SLDTEXTSTYLE0
 73
     1
 44
1.0
  0
LINE
  5
7D
330
1F
100
AcDbEntity
  8
0
  6
Continuous
 62
     7
370
    25
100
AcDbLine
 10
181.2521019578
 20
105.4417414896
 30
0.0
 11
198.3521045744
 21
105.4417414896
 31
0.0
  0
LINE
  5
7E
330
1F
100
AcDbEntity
  8
0
  6
Continuous
 62
     7
370
    25
100
AcDbLine
 10
198.3521045744
 20
127.4417413704
 30
0.0
 11
181.2521019578
 21
127.4417413704
 31
0.0
  0
LINE
  5
7F
330
1F
100
AcDbEntity
  8
0
  6
Continuous
 62
     7
370
    25
100
AcDbLine
 10
181.2521019578
 20
127.4417413704
 30
0.0
 11
180.4521033167
 21
126.641741798
 31
0.0
  0
LINE
  5
80
330
1F
100
AcDbEntity
  8
0
  6
Continuous
 62
     7
370
    25
100
AcDbLine
 10
180.4521033167
 20
106.2417410619
 30
0.0
 11
181.2521019578
 21
105.4417414896
 31
0.0
  0
LINE
  5
81
330
1F
100
AcDbEntity
  8
0
  6
Continuous
 62
     7
370
    25
100
AcDbLine
 10
198.3521045744
 20
105.4417414896
 30
0.0
 11
198.8521018624
 21
105.9417415715
 31
0.0
  0
LINE
  5
82
330
1F
100
AcDbEntity
  8
0
  6
Continuous
 62
     7
370
    25
100
AcDbLine
 10
198.8521018624
 20
126.9417412884
 30
0.0
 11
198.3521045744
 21
127.4417413704
 31
0.0
  0
LINE
  5
83
330
1F
100
AcDbEntity
  8
0
  6
Continuous
 62
     7
370
    25
100
AcDbLine
 10
152.0863012969
 20
84.9667413465
 30
0.0
 11
155.8521041274
 21
84.9667413465
 31
0.0
  0
LINE
  5
84
330
1F
100
AcDbEntity
  8
0
  6
Continuous
 62
     7
370
    25
100
AcDbLine
 10
155.8521041274
 20
147.9167415134
 30
0.0
 11
152.0863012969
 21
147.9167415134
 31
0.0
  0
LINE
  5
85
330
1F
100
AcDbEntity
  8
0
  6
Continuous
 62
     7
370
    25
100
AcDbLine
 10
146.8771030753
 20
145.3893369369
 30
0.0
 11
145.4179054685
 21
147.9167415134
 31
0.0
  0
LINE
  5
86
330
1F
100
AcDbEntity
  8
0
  6
Continuous
 62
     7
370
    25
100
AcDbLine
 10
139.0521031984
 20
84.9667413465
 30
0.0
 11
145.4179054685
 21
84.9667413465
 31
0.0
  0
LINE
  5
87
330
1F
100
AcDbEntity
  8
0
  6
Continuous
 62
     7
370
    25
100
AcDbLine
 10
145.4179054685
 20
147.9167415134
 30
0.0
 11
139.0521031984
 21
147.9167415134
 31
0.0
  0
ARC
  5
88
330
1F
100
AcDbEntity
  8
0
  6
Continuous
 62
     7
370
    25
100
AcDbCircle
 10
155.8521032035
 20
85.96674143
 30
0.0
 40
1.0
100
AcDbArc
 50
270.0
 51
0.0
  0
ARC
  5
89
330
1F
100
AcDbEntity
  8
0
  6
Continuous
 62
     7
370
    25
100
AcDbCircle
 10
155.8521032035
 20
146.91674143
 30
0.0
 40
1.0
100
AcDbArc
 50
0.0
 51
90.0
  0
ARC
  5
8A
330
1F
100
AcDbEntity
  8
0
  6
Continuous
 62
     7
370
    25
100
AcDbCircle
 10
139.0521032035
 20
85.16674143
 30
0.0
 40
0.1999999999999886
100
AcDbArc
 50
180.0
 51
270.0
  0
ARC
  5
8B
330
1F
100
AcDbEntity
  8
0
  6
Continuous
 62
     7
370
    25
100
AcDbCircle
 10
139.0521032035
 20
147.71674143
 30
0.0
 40
0.1999999999999886
100
AcDbArc
 50
90.0
 51
180.0
  0
ARC
  5
8C
330
1F
100
AcDbEntity
  8
0
  6
Continuous
 62
     7
370
    25
100
AcDbCircle
 10
138.4231683289
 20
90.89174143
 30
0.0
 40
0.8000000000000081
100
AcDbArc
 50
57.576802718
 51
107.5
  0
ARC
  5
8D
330
1F
100
AcDbEntity
  8
0
  6
Continuous
 62
     7
370
    25
100
AcDbCircle
 10
138.4231683289
 20
141.99174143
 30
0.0
 40
0.8000000000000181
100
AcDbArc
 50
252.5
 51
302.423197282
  0
LINE
  5
8E
330
1F
100
AcDbEntity
  8
0
  6
Continuous
 62
     7
370
    25
100
AcDbLine
 10
137.6919211447
 20
91.5000027351
 30
0.0
 11
138.1826036935
 21
91.6547159038
 31
0.0
  0
LINE
  5
8F
330
1F
100
AcDbEntity
  8
0
  6
Continuous
 62
     7
370
    25
100
AcDbLine
 10
138.1826036935
 20
141.2287669561
 30
0.0
 11
137.6919211447
 21
141.3834801249
 31
0.0
  0
LINE
  5
90
330
1F
100
AcDbEntity
  8
0
  6
Continuous
 62
     7
370
    25
100
AcDbLine
 10
108.4569399803
 20
139.9153581194
 30
0.0
 11
100.4021042585
 21
139.5108623735
 31
0.0
  0
LINE
  5
91
330
1F
100
AcDbEntity
  8
0
  6
Continuous
 62
     7
370
    25
100
AcDbLine
 10
137.6919211447
 20
141.3834801249
 30
0.0
 11
124.3656580895
 21
140.7142615251
 31
0.0
  0
LINE
  5
92
330
1F
100
AcDbEntity
  8
0
  6
Continuous
 62
     7
370
    25
100
AcDbLine
 10
124.3666145578
 20
92.1691729061
 30
0.0
 11
137.6919211447
 21
91.5000027351
 31
0.0
  0
LINE
  5
93
330
1F
100
AcDbEntity
  8
0
  6
Continuous
 62
     7
370
    25
100
AcDbLine
 10
100.4021042585
 20
93.3726204864
 30
0.0
 11
108.4569511562
 21
92.9681228779
 31
0.0
  0
LINE
  5
94
330
1F
100
AcDbEntity
  8
0
  6
Continuous
 62
     7
370
    25
100
AcDbLine
 10
100.4021042585
 20
139.5108623735
 30
0.0
 11
98.902104944
 21
138.6448366872
 31
0.0
  0
LINE
  5
95
330
1F
100
AcDbEntity
  8
0
  6
Continuous
 62
     7
370
    25
100
AcDbLine
 10
98.902104944
 20
94.2386461727
 30
0.0
 11
100.4021042585
 21
93.3726204864
 31
0.0
  0
ARC
  5
96
330
1F
100
AcDbEntity
  8
0
  6
Continuous
 62
     7
370
    25
100
AcDbCircle
 10
159.8521032035
 20
101.1450423884
 30
0.0
 40
3.0
100
AcDbArc
 50
116.3087760771
 51
180.0
  0
ARC
  5
97
330
1F
100
AcDbEntity
  8
0
  6
Continuous
 62
     7
370
    25
100
AcDbCircle
 10
159.8521032035
 20
131.7384404716
 30
0.0
 40
3.000000000000014
100
AcDbArc
 50
180.0
 51
243.6912239229
  0
LINE
  5
98
330
1F
100
AcDbEntity
  8
0
  6
Continuous
 62
     7
370
    25
100
AcDbLine
 10
152.0863012969
 20
147.9167415134
 30
0.0
 11
150.6271032244
 21
145.3893369369
 31
0.0
  0
ARC
  5
99
330
1F
100
AcDbEntity
  8
0
  6
Continuous
 62
     7
370
    25
100
AcDbCircle
 10
171.8187327506
 20
76.94174143
 30
0.0
 40
29.99999999999998
100
AcDbArc
 50
90.0
 51
116.3087760771
  0
ARC
  5
9A
330
1F
100
AcDbEntity
  8
0
  6
Continuous
 62
     7
370
    25
100
AcDbCircle
 10
171.8187327506
 20
155.94174143
 30
0.0
 40
29.99999999999999
100
AcDbArc
 50
243.6912239229
 51
270.0
  0
ARC
  5
9B
330
1F
100
AcDbEntity
  8
0
  6
Continuous
 62
     7
370
    25
100
AcDbCircle
 10
147.8771032035
 20
145.29174143
 30
0.0
 40
1.0
100
AcDbArc
 50
180.0
 51
270.0
  0
LINE
  5
9C
330
1F
100
AcDbEntity
  8
0
  6
Continuous
 62
     7
370
    25
100
AcDbLine
 10
145.4179054685
 20
84.9667413465
 30
0.0
 11
146.8771030753
 21
87.4941459231
 31
0.0
  0
ARC
  5
9D
330
1F
100
AcDbEntity
  8
0
  6
Continuous
 62
     7
370
    25
100
AcDbCircle
 10
147.8771032035
 20
87.59174143
 30
0.0
 40
1.0
100
AcDbArc
 50
90.0
 51
180.0
  0
LINE
  5
9E
330
1F
100
AcDbEntity
  8
0
  6
Continuous
 62
     7
370
    25
100
AcDbLine
 10
149.6271030604
 20
144.2917416177
 30
0.0
 11
147.8771032393
 21
144.2917416177
 31
0.0
  0
LINE
  5
9F
330
1F
100
AcDbEntity
  8
0
  6
Continuous
 62
     7
370
    25
100
AcDbLine
 10
150.6271032244
 20
87.4941459231
 30
0.0
 11
152.0863012969
 21
84.9667413465
 31
0.0
  0
ARC
  5
A0
330
1F
100
AcDbEntity
  8
0
  6
Continuous
 62
     7
370
    25
100
AcDbCircle
 10
149.6271032035
 20
145.29174143
 30
0.0
 40
1.0
100
AcDbArc
 50
270.0
 51
0.0
  0
LINE
  5
A1
330
1F
100
AcDbEntity
  8
0
  6
Continuous
 62
     7
370
    25
100
AcDbLine
 10
147.8771032393
 20
88.5917412422
 30
0.0
 11
149.6271030604
 21
88.5917412422
 31
0.0
  0
ARC
  5
A2
330
1F
100
AcDbEntity
  8
0
  6
Continuous
 62
     7
370
    25
100
AcDbCircle
 10
149.6271032035
 20
87.59174143
 30
0.0
 40
1.0
100
AcDbArc
 50
0.0
 51
90.0
  0
LINE
  5
A3
330
1F
100
AcDbEntity
  8
0
  6
Continuous
 62
     7
370
    25
100
AcDbLine
 10
171.8187318742
 20
106.9417417354
 30
0.0
 11
180.4521033167
 21
106.9417417354
 31
0.0
  0
LINE
  5
A4
330
1F
100
AcDbEntity
  8
0
  6
Continuous
 62
     7
370
    25
100
AcDbLine
 10
180.4521033167
 20
125.9417411245
 30
0.0
 11
171.8187318742
 21
125.9417411245
 31
0.0
  0
LINE
  5
A5
330
1F
100
AcDbEntity
  8
0
  6
Continuous
 62
     7
370
    25
100
AcDbLine
 10
198.3521045744
 20
127.083484859
 30
0.0
 11
198.3521045744
 21
127.4417413704
 31
0.0
  0
LINE
  5
A6
330
1F
100
AcDbEntity
  8
0
  6
Continuous
 62
     7
370
    25
100
AcDbLine
 10
198.3521045744
 20
127.083484859
 30
0.0
 11
192.3654736578
 21
127.083484859
 31
0.0
  0
ELLIPSE
  5
A7
330
1F
100
AcDbEntity
  8
0
  6
Continuous
 62
     7
370
    25
100
AcDbEllipse
 10
222.6521032035
 20
116.44174143
 30
0.0
 11
30.76849813806257
 21
-10.15920873831726
 31
0.0
210
0.0
220
0.0
230
1.0
 40
0.1370842335
 41
3.003989410696787
 42
3.369659684682701
  0
LINE
  5
A8
330
1F
100
AcDbEntity
  8
0
  6
Continuous
 62
     7
370
    25
100
AcDbLine
 10
198.3521045744
 20
125.3842393241
 30
0.0
 11
192.3654736578
 21
125.3842393241
 31
0.0
  0
LINE
  5
A9
330
1F
100
AcDbEntity
  8
0
  6
Continuous
 62
     7
370
    25
100
AcDbLine
 10
198.3521045744
 20
119.3511875651
 30
0.0
 11
198.3521045744
 21
125.3842393241
 31
0.0
  0
LINE
  5
AA
330
1F
100
AcDbEntity
  8
0
  6
Continuous
 62
     7
370
    25
100
AcDbLine
 10
198.3521045744
 20
119.3511875651
 30
0.0
 11
192.3654736578
 21
119.3511875651
 31
0.0
  0
ELLIPSE
  5
AB
330
1F
100
AcDbEntity
  8
0
  6
Continuous
 62
     7
370
    25
100
AcDbEllipse
 10
222.6521032035
 20
116.44174143
 30
0.0
 11
30.79766392078582
 21
-1.067097697014944
 31
0.0
210
0.0
220
0.0
230
1.0
 40
0.3554853609
 41
2.971073984153758
 42
3.336744258139613
  0
LINE
  5
AC
330
1F
100
AcDbEntity
  8
0
  6
Continuous
 62
     7
370
    25
100
AcDbLine
 10
198.3521045744
 20
115.3655764253
 30
0.0
 11
192.3654736578
 21
115.3655764253
 31
0.0
  0
LINE
  5
AD
330
1F
100
AcDbEntity
  8
0
  6
Continuous
 62
     7
370
    25
100
AcDbLine
 10
198.3521045744
 20
108.7094441361
 30
0.0
 11
198.3521045744
 21
115.3655764253
 31
0.0
  0
LINE
  5
AE
330
1F
100
AcDbEntity
  8
0
  6
Continuous
 62
     7
370
    25
100
AcDbLine
 10
198.3521045744
 20
108.7094441361
 30
0.0
 11
192.3654736578
 21
108.7094441361
 31
0.0
  0
ELLIPSE
  5
AF
330
1F
100
AcDbEntity
  8
0
  6
Continuous
 62
     7
370
    25
100
AcDbEllipse
 10
222.6521032035
 20
116.44174143
 30
0.0
 11
30.74990564117994
 21
9.369698322831837
 31
0.0
210
0.0
220
0.0
230
1.0
 40
0.1874055718
 41
2.901715754748513
 42
3.267386028734404
  0
LINE
  5
B0
330
1F
100
AcDbEntity
  8
0
  6
Continuous
 62
     7
370
    25
100
AcDbLine
 10
198.3521045744
 20
106.4230788804
 30
0.0
 11
192.3654736578
 21
106.4230788804
 31
0.0
  0
LINE
  5
B1
330
1F
100
AcDbEntity
  8
0
  6
Continuous
 62
     7
370
    25
100
AcDbLine
 10
198.3521045744
 20
105.4417414896
 30
0.0
 11
198.3521045744
 21
106.4230788804
 31
0.0
  0
LINE
  5
B2
330
1F
100
AcDbEntity
  8
0
  6
Continuous
 62
     7
370
    25
100
AcDbLine
 10
181.2521019578
 20
122.7292468145
 30
0.0
 11
181.2521019578
 21
127.4417413704
 31
0.0
  0
LINE
  5
B3
330
1F
100
AcDbEntity
  8
0
  6
Continuous
 62
     7
370
    25
100
AcDbLine
 10
181.2521019578
 20
105.4417414896
 30
0.0
 11
181.2521019578
 21
122.7292468145
 31
0.0
  0
LINE
  5
B4
330
1F
100
AcDbEntity
  8
0
  6
Continuous
 62
     7
370
    25
100
AcDbLine
 10
180.4521033167
 20
122.271973484
 30
0.0
 11
180.4521033167
 21
126.641741798
 31
0.0
  0
LINE
  5
B5
330
1F
100
AcDbEntity
  8
0
  6
Continuous
 62
     7
370
    25
100
AcDbLine
 10
180.4521033167
 20
106.2417410619
 30
0.0
 11
180.4521033167
 21
122.271973484
 31
0.0
  0
LINE
  5
B6
330
1F
100
AcDbEntity
  8
0
  6
Continuous
 62
     7
370
    25
100
AcDbLine
 10
198.8521018624
 20
115.3224514171
 30
0.0
 11
198.3521045744
 21
115.3655764253
 31
0.0
  0
SPLINE
  5
B7
330
1F
100
AcDbEntity
  8
0
  6
Continuous
 62
     7
370
    25
100
AcDbSpline
210
0.0
220
0.0
230
1.0
 70
     8
 71
     3
 72
     9
 73
     5
 74
     0
 42
0.000000001
 43
0.00000001
 40
0.0
 40
0.0
 40
0.0
 40
0.0
 40
0.6252444119020059
 40
1.0
 40
1.0
 40
1.0
 40
1.0
 10
198.8521018623908
 20
109.1270077347262
 30
0.0
 10
198.7479256126691
 20
109.0399566840432
 30
0.0
 10
198.5813087701374
 20
108.9007294490198
 30
0.0
 10
198.4145851737981
 20
108.76158812488
 30
0.0
 10
198.3521045744021
 20
108.7094441361232
 30
0.0
  0
LINE
  5
B8
330
1F
100
AcDbEntity
  8
0
  6
Continuous
 62
     7
370
    25
100
AcDbLine
 10
198.8521018624
 20
109.1270077347
 30
0.0
 11
198.8521018624
 21
115.3224514171
 31
0.0
  0
LINE
  5
B9
330
1F
100
AcDbEntity
  8
0
  6
Continuous
 62
     7
370
    25
100
AcDbLine
 10
192.3654736578
 20
119.3511875651
 30
0.0
 11
198.8521018624
 21
119.1548663962
 31
0.0
  0
LINE
  5
BA
330
1F
100
AcDbEntity
  8
0
  6
Continuous
 62
     7
370
    25
100
AcDbLine
 10
198.8521018624
 20
119.1548663962
 30
0.0
 11
198.8521018624
 21
115.3224514171
 31
0.0
  0
LINE
  5
BB
330
1F
100
AcDbEntity
  8
0
  6
Continuous
 62
     7
370
    25
100
AcDbLine
 10
198.8521018624
 20
124.9235503681
 30
0.0
 11
198.3521045744
 21
125.3842393241
 31
0.0
  0
LINE
  5
BC
330
1F
100
AcDbEntity
  8
0
  6
Continuous
 62
     7
370
    25
100
AcDbLine
 10
198.8521018624
 20
119.3080626733
 30
0.0
 11
198.3521045744
 21
119.3511875651
 31
0.0
  0
LINE
  5
BD
330
1F
100
AcDbEntity
  8
0
  6
Continuous
 62
     7
370
    25
100
AcDbLine
 10
198.8521018624
 20
119.3080626733
 30
0.0
 11
198.8521018624
 21
124.9235503681
 31
0.0
  0
LINE
  5
BE
330
1F
100
AcDbEntity
  8
0
  6
Continuous
 62
     7
370
    25
100
AcDbLine
 10
198.8521018624
 20
119.1548663962
 30
0.0
 11
198.8521018624
 21
119.3080626733
 31
0.0
  0
LINE
  5
BF
330
1F
100
AcDbEntity
  8
0
  6
Continuous
 62
     7
370
    25
100
AcDbLine
 10
192.3654736578
 20
106.4230788804
 30
0.0
 11
198.8521018624
 21
108.3239818297
 31
0.0
  0
LINE
  5
C0
330
1F
100
AcDbEntity
  8
0
  6
Continuous
 62
     7
370
    25
100
AcDbLine
 10
198.8521018624
 20
109.1270077347
 30
0.0
 11
198.8521018624
 21
108.3239818297
 31
0.0
  0
LINE
  5
C1
330
1F
100
AcDbEntity
  8
0
  6
Continuous
 62
     7
370
    25
100
AcDbLine
 10
192.3654736578
 20
127.083484859
 30
0.0
 11
197.6211690902
 21
125.3842393241
 31
0.0
  0
LINE
  5
C2
330
1F
100
AcDbEntity
  8
0
  6
Continuous
 62
     7
370
    25
100
AcDbLine
 10
198.7472498417
 20
125.0201611153
 30
0.0
 11
198.8521018624
 21
124.9862600423
 31
0.0
  0
LINE
  5
C3
330
1F
100
AcDbEntity
  8
0
  6
Continuous
 62
     7
370
    25
100
AcDbLine
 10
198.8521018624
 20
124.9862600423
 30
0.0
 11
198.8521018624
 21
124.9235503681
 31
0.0
  0
SPLINE
  5
C4
330
1F
100
AcDbEntity
  8
0
  6
Continuous
 62
     7
370
    25
100
AcDbSpline
210
0.0
220
0.0
230
1.0
 70
     8
 71
     3
 72
     9
 73
     5
 74
     0
 42
0.000000001
 43
0.00000001
 40
0.0
 40
0.0
 40
0.0
 40
0.0
 40
0.6252446507060239
 40
0.9999999999999999
 40
0.9999999999999999
 40
0.9999999999999999
 40
0.9999999999999999
 10
198.8521018623908
 20
106.8406420133515
 30
0.0
 10
198.7479256458849
 20
106.7535909094248
 30
0.0
 10
198.581308920115
 20
106.6143636424207
 30
0.0
 10
198.4145851857206
 20
106.4752226948265
 30
0.0
 10
198.3521045744021
 20
106.4230788804097
 30
0.0
  0
LINE
  5
C5
330
1F
100
AcDbEntity
  8
0
  6
Continuous
 62
     7
370
    25
100
AcDbLine
 10
198.8521018624
 20
108.3239818297
 30
0.0
 11
198.8521018624
 21
106.8406420134
 31
0.0
  0
LINE
  5
C6
330
1F
100
AcDbEntity
  8
0
  6
Continuous
 62
     7
370
    25
100
AcDbLine
 10
198.8521018624
 20
105.9417415715
 30
0.0
 11
198.8521018624
 21
106.8406420134
 31
0.0
  0
LINE
  5
C7
330
1F
100
AcDbEntity
  8
0
  6
Continuous
 62
     7
370
    25
100
AcDbLine
 10
198.8521018624
 20
126.6227959029
 30
0.0
 11
198.3521045744
 21
127.083484859
 31
0.0
  0
LINE
  5
C8
330
1F
100
AcDbEntity
  8
0
  6
Continuous
 62
     7
370
    25
100
AcDbLine
 10
198.8521018624
 20
124.9862600423
 30
0.0
 11
198.8521018624
 21
126.6227959029
 31
0.0
  0
LINE
  5
C9
330
1F
100
AcDbEntity
  8
0
  6
Continuous
 62
     7
370
    25
100
AcDbLine
 10
198.8521018624
 20
126.6227959029
 30
0.0
 11
198.8521018624
 21
126.9417412884
 31
0.0
  0
SPLINE
  5
CA
330
1F
100
AcDbEntity
  8
0
  6
Continuous
 62
     7
370
    25
100
AcDbSpline
210
0.0
220
0.0
230
1.0
 70
     8
 71
     3
 72
    25
 73
    21
 74
     0
 42
0.000000001
 43
0.00000001
 40
0.0
 40
0.0
 40
0.0
 40
0.0
 40
0.1250000000000009
 40
0.1250000000000009
 40
0.2500000000000018
 40
0.2500000000000018
 40
0.3750000000000027
 40
0.3750000000000027
 40
0.5000000000000036
 40
0.5000000000000036
 40
0.5625000000000031
 40
0.5625000000000031
 40
0.6250000000000027
 40
0.6875000000000022
 40
0.6875000000000022
 40
0.7500000000000018
 40
0.7500000000000018
 40
0.8750000000000009
 40
0.8750000000000009
 40
1.0
 40
1.0
 40
1.0
 40
1.0
 10
152.0863010080654
 20
145.0894787970234
 30
0.0
 10
152.3275485136208
 20
145.0171741869542
 30
0.0
 10
152.5434775478652
 20
144.9332809009985
 30
0.0
 10
152.9266354597078
 20
144.7406121779844
 30
0.0
 10
153.094087245193
 20
144.6307252899686
 30
0.0
 10
153.3617719015969
 20
144.3942140057962
 30
0.0
 10
153.4654438693177
 20
144.2652508765055
 30
0.0
 10
153.6045752405719
 20
143.9913237965583
 30
0.0
 10
153.6393144805626
 20
143.8492106454248
 30
0.0
 10
153.6397449137818
 20
143.6279570194233
 30
0.0
 10
153.6310101301924
 20
143.5523784390684
 30
0.0
 10
153.5962167270177
 20
143.4020786941923
 30
0.0
 10
153.5443238652886
 20
143.2521133911848
 30
0.0
 10
153.4589456529949
 20
143.103012158965
 30
0.0
 10
153.3564698999303
 20
142.9545250332042
 30
0.0
 10
153.2964085282792
 20
142.8804364757673
 30
0.0
 10
153.0950987058281
 20
142.665274174289
 30
0.0
 10
152.9318751857483
 20
142.5292174604189
 30
0.0
 10
152.5464969854969
 20
142.2743594272666
 30
0.0
 10
152.3275474996711
 20
142.1580641468083
 30
0.0
 10
152.0863010080654
 20
142.0566276301325
 30
0.0
  0
LINE
  5
CB
330
1F
100
AcDbEntity
  8
0
  6
Continuous
 62
     7
370
    25
100
AcDbLine
 10
152.0863012969
 20
145.0894790075
 30
0.0
 11
152.0863012969
 21
147.9167415134
 31
0.0
  0
LINE
  5
CC
330
1F
100
AcDbEntity
  8
0
  6
Continuous
 62
     7
370
    25
100
AcDbLine
 10
152.0863012969
 20
84.9667413465
 30
0.0
 11
152.0863012969
 21
86.9049949876
 31
0.0
  0
SPLINE
  5
CD
330
1F
100
AcDbEntity
  8
0
  6
Continuous
 62
     7
370
    25
100
AcDbSpline
210
0.0
220
0.0
230
1.0
 70
     8
 71
     3
 72
    18
 73
    14
 74
     0
 42
0.000000001
 43
0.00000001
 40
0.0
 40
0.0
 40
0.0
 40
0.0
 40
0.2499999999999999
 40
0.2499999999999999
 40
0.3749999999999998
 40
0.3749999999999998
 40
0.4999999999999996
 40
0.4999999999999996
 40
0.7499999999999997
 40
0.7499999999999997
 40
0.8749999999999998
 40
0.8749999999999998
 40
1.0
 40
1.0
 40
1.0
 40
1.0
 10
155.8521032034953
 20
88.36862150490867
 30
0.0
 10
155.7055156169486
 20
88.17570426479637
 30
0.0
 10
155.5019503670624
 20
87.99658469934093
 30
0.0
 10
155.1329508018117
 20
87.75969961947757
 30
0.0
 10
154.9990280357847
 20
87.68547287053529
 30
0.0
 10
154.7098044158557
 20
87.5456420923534
 30
0.0
 10
154.5535087222632
 20
87.4797158748986
 30
0.0
 10
154.0620363468508
 20
87.29755475233685
 30
0.0
 10
153.7037990439636
 20
87.1958778779573
 30
0.0
 10
153.1226999602177
 20
87.06769185663332
 30
0.0
 10
152.9210577271759
 20
87.02902039814384
 30
0.0
 10
152.5103951945324
 20
86.96069904822754
 30
0.0
 10
152.3005686773209
 20
86.93084316648681
 30
0.0
 10
152.0863010080654
 20
86.90499409699963
 30
0.0
  0
SPLINE
  5
CE
330
1F
100
AcDbEntity
  8
0
  6
Continuous
 62
     7
370
    25
100
AcDbSpline
210
0.0
220
0.0
230
1.0
 70
     8
 71
     3
 72
    18
 73
    14
 74
     0
 42
0.000000001
 43
0.00000001
 40
0.0
 40
0.0
 40
0.0
 40
0.0
 40
0.2500000000000004
 40
0.2500000000000004
 40
0.3750000000000007
 40
0.3750000000000007
 40
0.500000000000001
 40
0.500000000000001
 40
0.6250000000000013
 40
0.6250000000000013
 40
0.7500000000000016
 40
0.7500000000000016
 40
1.0
 40
1.0
 40
1.0
 40
1.0
 10
152.0863010080654
 20
92.25571749967303
 30
0.0
 10
152.515001565887
 20
92.15992329229698
 30
0.0
 10
152.9235696128573
 20
92.0378038461519
 30
0.0
 10
153.5054341122278
 20
91.81683026794713
 30
0.0
 10
153.695321823634
 20
91.73624297619662
 30
0.0
 10
154.0566488342926
 20
91.56561499318862
 30
0.0
 10
154.228363065716
 20
91.47560357607219
 30
0.0
 10
154.5539429160299
 20
91.28680720695701
 30
0.0
 10
154.7078108182079
 20
91.1880219923633
 30
0.0
 10
154.997015006625
 20
90.98194751997853
 30
0.0
 10
155.1329796702486
 20
90.87409622997035
 30
0.0
 10
155.5065035480407
 20
90.54146811041278
 30
0.0
 10
155.7051214223566
 20
90.31282592319558
 30
0.0
 10
155.8521032034953
 20
90.07912483909621
 30
0.0
  0
LINE
  5
CF
330
1F
100
AcDbEntity
  8
0
  6
Continuous
 62
     7
370
    25
100
AcDbLine
 10
152.0863012969
 20
92.2557169876
 30
0.0
 11
152.0863012969
 21
142.0566270433
 31
0.0
  0
LINE
  5
D0
330
1F
100
AcDbEntity
  8
0
  6
Continuous
 62
     7
370
    25
100
AcDbLine
 10
145.4179054685
 20
91.3840158216
 30
0.0
 11
145.4179054685
 21
147.9167415134
 31
0.0
  0
LINE
  5
D1
330
1F
100
AcDbEntity
  8
0
  6
Continuous
 62
     7
370
    25
100
AcDbLine
 10
146.8771030753
 20
142.5364444337
 30
0.0
 11
146.8771030753
 21
145.3893369369
 31
0.0
  0
SPLINE
  5
D2
330
1F
100
AcDbEntity
  8
0
  6
Continuous
 62
     7
370
    25
100
AcDbSpline
210
0.0
220
0.0
230
1.0
 70
     8
 71
     3
 72
    26
 73
    22
 74
     0
 42
0.000000001
 43
0.00000001
 40
0.0
 40
0.0
 40
0.0
 40
0.0
 40
0.1250000000000009
 40
0.1250000000000009
 40
0.2500000000000019
 40
0.2500000000000019
 40
0.3125000000000011
 40
0.3125000000000011
 40
0.3750000000000004
 40
0.3750000000000004
 40
0.4375000000000002
 40
0.4375000000000002
 40
0.5000000000000001
 40
0.5000000000000001
 40
0.5625
 40
0.5625
 40
0.6249999999999999
 40
0.6249999999999999
 40
0.7500000000000001
 40
0.7500000000000001
 40
1.0
 40
1.0
 40
1.0
 40
1.0
 10
146.8771032034953
 20
140.3413869399985
 30
0.0
 10
146.7851982928125
 20
140.5513105466929
 30
0.0
 10
146.6975015165875
 20
140.7600759635723
 30
0.0
 10
146.5332952458202
 20
141.1744105922656
 30
0.0
 10
146.4560248275535
 20
141.3821549779021
 30
0.0
 10
146.3562587212284
 20
141.6793535977189
 30
0.0
 10
146.3256457923261
 20
141.7761029496574
 30
0.0
 10
146.2707769184231
 20
141.9640024497673
 30
0.0
 10
146.2463916974941
 20
142.0558045974973
 30
0.0
 10
146.2067123209957
 20
142.2271470257628
 30
0.0
 10
146.1912462417584
 20
142.3071395602955
 30
0.0
 10
146.1701499066759
 20
142.4543339695073
 30
0.0
 10
146.1646368405159
 20
142.5217158370804
 30
0.0
 10
146.1645698828936
 20
142.6368847874804
 30
0.0
 10
146.169838190243
 20
142.6855506301896
 30
0.0
 10
146.1906807174111
 20
142.7655538236405
 30
0.0
 10
146.2063548306213
 20
142.7966180670084
 30
0.0
 10
146.2656737607989
 20
142.8627727321117
 30
0.0
 10
146.3226935963129
 20
142.8723745993501
 30
0.0
 10
146.5215284849568
 20
142.8273593292432
 30
0.0
 10
146.6927986901889
 20
142.7034332539936
 30
0.0
 10
146.8771032034953
 20
142.5364453105209
 30
0.0
  0
LINE
  5
D3
330
1F
100
AcDbEntity
  8
0
  6
Continuous
 62
     7
370
    25
100
AcDbLine
 10
146.8771030753
 20
92.9881854288
 30
0.0
 11
146.8771030753
 21
140.3413860432
 31
0.0
  0
SPLINE
  5
D4
330
1F
100
AcDbEntity
  8
0
  6
Continuous
 62
     7
370
    25
100
AcDbSpline
210
0.0
220
0.0
230
1.0
 70
     8
 71
     3
 72
     8
 73
     4
 74
     0
 42
0.000000001
 43
0.00000001
 40
0.0
 40
0.0
 40
0.0
 40
0.0
 40
1.0
 40
1.0
 40
1.0
 40
1.0
 10
146.509579537347
 20
92.18520846744906
 30
0.0
 10
146.6273140421766
 20
92.45285214706516
 30
0.0
 10
146.750780155135
 20
92.72181744939766
 30
0.0
 10
146.8771032034953
 20
92.98818457390817
 30
0.0
  0
SPLINE
  5
D5
330
1F
100
AcDbEntity
  8
0
  6
Continuous
 62
     7
370
    25
100
AcDbSpline
210
0.0
220
0.0
230
1.0
 70
     8
 71
     3
 72
     8
 73
     4
 74
     0
 42
0.000000001
 43
0.00000001
 40
0.0
 40
0.0
 40
0.0
 40
0.0
 40
1.0
 40
1.0
 40
1.0
 40
1.0
 10
145.4179053989252
 20
91.38401610833074
 30
0.0
 10
145.7877927796548
 20
91.65840792726276
 30
0.0
 10
146.1531262724163
 20
91.92883423535926
 30
0.0
 10
146.5095795373473
 20
92.18520846744967
 30
0.0
  0
SPLINE
  5
D6
330
1F
100
AcDbEntity
  8
0
  6
Continuous
 62
     7
370
    25
100
AcDbSpline
210
0.0
220
0.0
230
1.0
 70
     8
 71
     3
 72
    27
 73
    23
 74
     0
 42
0.000000001
 43
0.00000001
 40
0.0
 40
0.0
 40
0.0
 40
0.0
 40
0.1250000000000005
 40
0.1250000000000005
 40
0.2500000000000009
 40
0.2500000000000009
 40
0.3750000000000014
 40
0.3750000000000014
 40
0.4375000000000017
 40
0.4375000000000017
 40
0.500000000000002
 40
0.5625000000000022
 40
0.5625000000000022
 40
0.6250000000000024
 40
0.6250000000000024
 40
0.750000000000002
 40
0.750000000000002
 40
0.8125000000000016
 40
0.8125000000000016
 40
0.875000000000001
 40
0.875000000000001
 40
1.0
 40
1.0
 40
1.0
 40
1.0
 10
145.4179053989252
 20
87.41774251541682
 30
0.0
 10
145.1479485049579
 20
87.51762160327914
 30
0.0
 10
144.9042914807407
 20
87.62892686343815
 30
0.0
 10
144.4717063485355
 20
87.87841266911423
 30
0.0
 10
144.2831117813393
 20
88.01735518718144
 30
0.0
 10
143.9806720049785
 20
88.31404822235534
 30
0.0
 10
143.8640887576877
 20
88.47306683171962
 30
0.0
 10
143.7448300852628
 20
88.73009735561388
 30
0.0
 10
143.7146134182312
 20
88.81885016401895
 30
0.0
 10
143.6747168215186
 20
88.99812592090956
 30
0.0
 10
143.6547553780705
 20
89.1802945241521
 30
0.0
 10
143.6741906796585
 20
89.36825724524047
 30
0.0
 10
143.7136435573418
 20
89.55912582220502
 30
0.0
 10
143.743672240765
 20
89.65657500265056
 30
0.0
 10
143.8621472288972
 20
89.94691184944779
 30
0.0
 10
143.978488044006
 20
90.1389980571237
 30
0.0
 10
144.2065244555035
 20
90.4238020067051
 30
0.0
 10
144.2920583749341
 20
90.51867299526845
 30
0.0
 10
144.4783719250697
 20
90.70403406312404
 30
0.0
 10
144.579000613642
 20
90.79451231505645
 30
0.0
 10
144.9022620979779
 20
91.05919277056839
 30
0.0
 10
145.1465427837007
 20
91.22697636002277
 30
0.0
 10
145.4179053989252
 20
91.38401610833074
 30
0.0
  0
LINE
  5
D7
330
1F
100
AcDbEntity
  8
0
  6
Continuous
 62
     7
370
    25
100
AcDbLine
 10
145.4179054685
 20
84.9667413465
 30
0.0
 11
145.4179054685
 21
87.4177420817
 31
0.0
  0
LINE
  5
D8
330
1F
100
AcDbEntity
  8
0
  6
Continuous
 62
     7
370
    25
100
AcDbLine
 10
156.8521024286
 20
116.44174143
 30
0.0
 11
156.8521024286
 21
146.9167413495
 31
0.0
  0
LINE
  5
D9
330
1F
100
AcDbEntity
  8
0
  6
Continuous
 62
     7
370
    25
100
AcDbLine
 10
156.8521024286
 20
85.9667415104
 30
0.0
 11
156.8521024286
 21
116.44174143
 31
0.0
  0
SPLINE
  5
DA
330
1F
100
AcDbEntity
  8
0
  6
Continuous
 62
     7
370
    25
100
AcDbSpline
210
0.0
220
0.0
230
1.0
 70
     8
 71
     3
 72
    14
 73
    10
 74
     0
 42
0.000000001
 43
0.00000001
 40
0.0
 40
0.0
 40
0.0
 40
0.0
 40
0.25
 40
0.25
 40
0.5
 40
0.5
 40
0.75
 40
0.75
 40
1.0
 40
1.0
 40
1.0
 40
1.0
 10
155.8521032034953
 20
90.07912483909621
 30
0.0
 10
155.947170560203
 20
89.92796770824005
 30
0.0
 10
156.0074756700343
 20
89.78651538880489
 30
0.0
 10
156.0877406182209
 20
89.50110717344775
 30
0.0
 10
156.1066573230686
 20
89.35705235951026
 30
0.0
 10
156.1066643047174
 20
89.06726807908613
 30
0.0
 10
156.0880185789175
 20
88.92197536701124
 30
0.0
 10
156.0080599127248
 20
88.63603019197642
 30
0.0
 10
155.9469655582676
 20
88.49346552549953
 30
0.0
 10
155.8521032034954
 20
88.36862150490859
 30
0.0
  0
LINE
  5
DB
330
1F
100
AcDbEntity
  8
0
  6
Continuous
 62
     7
370
    25
100
AcDbLine
 10
138.8521032035
 20
116.44174143
 30
0.0
 11
138.8521032035
 21
147.7167418532
 31
0.0
  0
LINE
  5
DC
330
1F
100
AcDbEntity
  8
0
  6
Continuous
 62
     7
370
    25
100
AcDbLine
 10
138.8521032035
 20
85.1667410068
 30
0.0
 11
138.8521032035
 21
116.44174143
 31
0.0
  0
SPLINE
  5
DD
330
1F
100
AcDbEntity
  8
0
  6
Continuous
 62
     7
370
    25
100
AcDbSpline
210
0.0
220
0.0
230
1.0
 70
     8
 71
     3
 72
    10
 73
     6
 74
     0
 42
0.000000001
 43
0.00000001
 40
0.0
 40
0.0
 40
0.0
 40
0.0
 40
0.5
 40
0.5
 40
1.0
 40
1.0
 40
1.0
 40
1.0
 10
152.0863010080652
 20
142.0566276301323
 30
0.0
 10
151.8515700640961
 20
141.6041882424302
 30
0.0
 10
151.6121867563794
 20
141.1646610690708
 30
0.0
 10
151.1255654050686
 20
140.3055689735291
 30
0.0
 10
150.8782960933668
 20
139.8861119203058
 30
0.0
 10
150.6271032034953
 20
139.4759358637684
 30
0.0
  0
SPLINE
  5
DE
330
1F
100
AcDbEntity
  8
0
  6
Continuous
 62
     7
370
    25
100
AcDbSpline
210
0.0
220
0.0
230
1.0
 70
     8
 71
     3
 72
     8
 73
     4
 74
     0
 42
0.000000001
 43
0.00000001
 40
0.0
 40
0.0
 40
0.0
 40
0.0
 40
1.0
 40
1.0
 40
1.0
 40
1.0
 10
151.0928143285478
 20
92.94902734812563
 30
0.0
 10
151.4190731647601
 20
92.72520361879592
 30
0.0
 10
151.750911573803
 20
92.49263777149254
 30
0.0
 10
152.0863010080654
 20
92.25571749967303
 30
0.0
  0
SPLINE
  5
DF
330
1F
100
AcDbEntity
  8
0
  6
Continuous
 62
     7
370
    25
100
AcDbSpline
210
0.0
220
0.0
230
1.0
 70
     8
 71
     3
 72
     8
 73
     4
 74
     0
 42
0.000000001
 43
0.00000001
 40
0.0
 40
0.0
 40
0.0
 40
0.0
 40
1.0
 40
1.0
 40
1.0
 40
1.0
 10
150.6271032034953
 20
93.7220065268
 30
0.0
 10
150.7835855669964
 20
93.4677862691245
 30
0.0
 10
150.9388118554739
 20
93.21015248277709
 30
0.0
 10
151.0928143285478
 20
92.94902734812563
 30
0.0
  0
LINE
  5
E0
330
1F
100
AcDbEntity
  8
0
  6
Continuous
 62
     7
370
    25
100
AcDbLine
 10
150.6271032244
 20
93.7220061503
 30
0.0
 11
150.6271032244
 21
139.4759359143
 31
0.0
  0
SPLINE
  5
E1
330
1F
100
AcDbEntity
  8
0
  6
Continuous
 62
     7
370
    25
100
AcDbSpline
210
0.0
220
0.0
230
1.0
 70
     8
 71
     3
 72
    14
 73
    10
 74
     0
 42
0.000000001
 43
0.00000001
 40
0.0
 40
0.0
 40
0.0
 40
0.0
 40
0.25
 40
0.25
 40
0.5
 40
0.5
 40
0.75
 40
0.75
 40
1.0
 40
1.0
 40
1.0
 40
1.0
 10
150.6271032034954
 20
139.3907272990156
 30
0.0
 10
150.6271032034955
 20
139.2765552214627
 30
0.0
 10
150.6011737652295
 20
139.1594672167878
 30
0.0
 10
150.5017315079531
 20
138.9383122047698
 30
0.0
 10
150.4294491222323
 20
138.8357378642706
 30
0.0
 10
150.2447117854677
 20
138.6597044587827
 30
0.0
 10
150.1351651491457
 20
138.5892986518023
 30
0.0
 10
149.8918039041424
 20
138.4957327909632
 30
0.0
 10
149.7602927966967
 20
138.4738124709938
 30
0.0
 10
149.6271032034953
 20
138.479875040131
 30
0.0
  0
SPLINE
  5
E2
330
1F
100
AcDbEntity
  8
0
  6
Continuous
 62
     7
370
    25
100
AcDbSpline
210
0.0
220
0.0
230
1.0
 70
     8
 71
     3
 72
    14
 73
    10
 74
     0
 42
0.000000001
 43
0.00000001
 40
0.0
 40
0.0
 40
0.0
 40
0.0
 40
0.25
 40
0.25
 40
0.5
 40
0.5
 40
0.75
 40
0.75
 40
1.0
 40
1.0
 40
1.0
 40
1.0
 10
149.6271032034953
 20
94.71684955908569
 30
0.0
 10
149.7605315107284
 20
94.72234262225601
 30
0.0
 10
149.892306182524
 20
94.70009060319117
 30
0.0
 10
150.1355020693854
 20
94.60665234348482
 30
0.0
 10
150.2464229310982
 20
94.53535687830411
 30
0.0
 10
150.4290692799641
 20
94.36184948139186
 30
0.0
 10
150.5023850193041
 20
94.25829111914564
 30
0.0
 10
150.6010231301395
 20
94.03905300637166
 30
0.0
 10
150.6271032034953
 20
93.92204753066332
 30
0.0
 10
150.6271032034953
 20
93.80742259609755
 30
0.0
  0
SPLINE
  5
E3
330
1F
100
AcDbEntity
  8
0
  6
Continuous
 62
     7
370
    25
100
AcDbSpline
210
0.0
220
0.0
230
1.0
 70
     8
 71
     3
 72
    14
 73
    10
 74
     0
 42
0.000000001
 43
0.00000001
 40
0.0
 40
0.0
 40
0.0
 40
0.0
 40
0.25
 40
0.25
 40
0.5
 40
0.5
 40
0.75
 40
0.75
 40
1.0
 40
1.0
 40
1.0
 40
1.0
 10
147.8771032034953
 20
138.8359343773732
 30
0.0
 10
147.7427524549541
 20
138.887751357451
 30
0.0
 10
147.6195735521607
 20
138.9646985934843
 30
0.0
 10
147.3908231312714
 20
139.1571834268933
 30
0.0
 10
147.2889000392782
 20
139.2700104156733
 30
0.0
 10
147.109474974933
 20
139.522850360246
 30
0.0
 10
147.0330337260285
 20
139.6608660847277
 30
0.0
 10
146.9157457515668
 20
139.9591017914577
 30
0.0
 10
146.8771032034953
 20
140.1171897605082
 30
0.0
 10
146.8771032034953
 20
140.2566220852331
 30
0.0
  0
SPLINE
  5
E4
330
1F
100
AcDbEntity
  8
0
  6
Continuous
 62
     7
370
    25
100
AcDbSpline
210
0.0
220
0.0
230
1.0
 70
     8
 71
     3
 72
    14
 73
    10
 74
     0
 42
0.000000001
 43
0.00000001
 40
0.0
 40
0.0
 40
0.0
 40
0.0
 40
0.25
 40
0.25
 40
0.5
 40
0.5
 40
0.75
 40
0.75
 40
1.0
 40
1.0
 40
1.0
 40
1.0
 10
146.8771032034953
 20
93.07315370066001
 30
0.0
 10
146.8771032034953
 20
93.20389352203101
 30
0.0
 10
146.9125242804276
 20
93.35259123574505
 30
0.0
 10
147.0250499516177
 20
93.62952105129159
 30
0.0
 10
147.1027301378921
 20
93.76283161838052
 30
0.0
 10
147.2827953696144
 20
94.0001716141424
 30
0.0
 10
147.3880754222697
 20
94.10785521413246
 30
0.0
 10
147.6170589566321
 20
94.284427158113
 30
0.0
 10
147.7436721486311
 20
94.3557303105839
 30
0.0
 10
147.8771032034951
 20
94.40050260438082
 30
0.0
  0
SPLINE
  5
E5
330
1F
100
AcDbEntity
  8
0
  6
Continuous
 62
     7
370
    25
100
AcDbSpline
210
0.0
220
0.0
230
1.0
 70
     8
 71
     3
 72
    10
 73
     6
 74
     0
 42
0.000000001
 43
0.00000001
 40
0.0
 40
0.0
 40
0.0
 40
0.0
 40
0.5
 40
0.5
 40
1.0
 40
1.0
 40
1.0
 40
1.0
 10
149.6271032034953
 20
138.4798750401313
 30
0.0
 10
149.3146393012072
 20
138.4940978781548
 30
0.0
 10
149.0117503192094
 20
138.5319170809464
 30
0.0
 10
148.4244071344053
 20
138.6518055069353
 30
0.0
 10
148.1399394738334
 20
138.7345625433364
 30
0.0
 10
147.8771032034953
 20
138.8359343773732
 30
0.0
  0
SPLINE
  5
E6
330
1F
100
AcDbEntity
  8
0
  6
Continuous
 62
     7
370
    25
100
AcDbSpline
210
0.0
220
0.0
230
1.0
 70
     8
 71
     3
 72
    10
 73
     6
 74
     0
 42
0.000000001
 43
0.00000001
 40
0.0
 40
0.0
 40
0.0
 40
0.0
 40
0.5
 40
0.5
 40
1.0
 40
1.0
 40
1.0
 40
1.0
 10
147.8771032034953
 20
94.40050260438012
 30
0.0
 10
148.1476219236106
 20
94.49127415397864
 30
0.0
 10
148.4291970882598
 20
94.56345117947079
 30
0.0
 10
149.0137906592791
 20
94.66994009152421
 30
0.0
 10
149.3191391936996
 20
94.70417109680824
 30
0.0
 10
149.6271032034953
 20
94.71684955908569
 30
0.0
  0
LINE
  5
E7
330
1F
100
AcDbEntity
  8
0
  6
Continuous
 62
     7
370
    25
100
AcDbLine
 10
137.6919211447
 20
116.44174143
 30
0.0
 11
137.6919211447
 21
141.3834801249
 31
0.0
  0
LINE
  5
E8
330
1F
100
AcDbEntity
  8
0
  6
Continuous
 62
     7
370
    25
100
AcDbLine
 10
137.6919211447
 20
91.5000027351
 30
0.0
 11
137.6919211447
 21
116.44174143
 31
0.0
  0
LINE
  5
E9
330
1F
100
AcDbEntity
  8
0
  6
Continuous
 62
     7
370
    25
100
AcDbLine
 10
100.4021042585
 20
105.5369459398
 30
0.0
 11
100.4021042585
 21
93.3726204864
 31
0.0
  0
SPLINE
  5
EA
330
1F
100
AcDbEntity
  8
0
  6
Continuous
 62
     7
370
    25
100
AcDbSpline
210
0.0
220
0.0
230
1.0
 70
     8
 71
     3
 72
     8
 73
     4
 74
     0
 42
0.000000001
 43
0.00000001
 40
0.0
 40
0.0
 40
0.0
 40
0.0
 40
1.0
 40
1.0
 40
1.0
 40
1.0
 10
104.6943512986062
 20
105.5408503960923
 30
0.0
 10
103.2636019335725
 20
105.5391125208124
 30
0.0
 10
101.8328525685389
 20
105.5377504456466
 30
0.0
 10
100.4021032035053
 20
105.5367632895237
 30
0.0
  0
SPLINE
  5
EB
330
1F
100
AcDbEntity
  8
0
  6
Continuous
 62
     7
370
    25
100
AcDbSpline
210
0.0
220
0.0
230
1.0
 70
     8
 71
     3
 72
    23
 73
    19
 74
     0
 42
0.000000001
 43
0.00000001
 40
0.0
 40
0.0
 40
0.0
 40
0.0
 40
0.0521036415646655
 40
0.1035646240875231
 40
0.1544751946670016
 40
0.2049306267396564
 40
0.2550287880763705
 40
0.3048696389063719
 40
0.3545546704541477
 40
0.4041862979471803
 40
0.4538672252097395
 40
0.5036997999422159
 40
0.5901870230737664
 40
0.6742716378215413
 40
0.7565997087206644
 40
0.8378563983706444
 40
0.9187511781358022
 40
1.0
 40
1.0
 40
1.0
 40
1.0
 10
108.2880871179956
 20
107.4609200044652
 30
0.0
 10
108.2465955982827
 20
107.4025842181446
 30
0.0
 10
108.1641243253956
 20
107.2866321733407
 30
0.0
 10
108.0312655679696
 20
107.1208335713223
 30
0.0
 10
107.8927339952029
 20
106.9624696092912
 30
0.0
 10
107.7478344515688
 20
106.8119599756896
 30
0.0
 10
107.5967507913969
 20
106.6691206671749
 30
0.0
 10
107.439435613232
 20
106.5339274496109
 30
0.0
 10
107.2759024550217
 20
106.4063148066794
 30
0.0
 10
107.1061525180291
 20
106.2862277225371
 30
0.0
 10
106.9301784878841
 20
106.1736143290784
 30
0.0
 10
106.7036977899413
 20
106.0428043654267
 30
0.0
 10
106.4245172794312
 20
105.9036822097518
 30
0.0
 10
106.0894180833117
 20
105.770163216423
 30
0.0
 10
105.7486535874077
 20
105.6667151202275
 30
0.0
 10
105.4022555416513
 20
105.5938184961238
 30
0.0
 10
105.050365563126
 20
105.5486237023575
 30
0.0
 10
104.8131953412592
 20
105.5434452672348
 30
0.0
 10
104.6943512986062
 20
105.5408503960923
 30
0.0
  0
SPLINE
  5
EC
330
1F
100
AcDbEntity
  8
0
  6
Continuous
 62
     7
370
    25
100
AcDbSpline
210
0.0
220
0.0
230
1.0
 70
     8
 71
     3
 72
     8
 73
     4
 74
     0
 42
0.000000001
 43
0.00000001
 40
0.0
 40
0.0
 40
0.0
 40
0.0
 40
1.0
 40
1.0
 40
1.0
 40
1.0
 10
112.6970589261456
 20
107.4653407192849
 30
0.0
 10
111.2268842653659
 20
107.4638800988498
 30
0.0
 10
109.7567096045862
 20
107.4627190471908
 30
0.0
 10
108.2865349438065
 20
107.4618571172913
 30
0.0
  0
SPLINE
  5
ED
330
1F
100
AcDbEntity
  8
0
  6
Continuous
 62
     7
370
    25
100
AcDbSpline
210
0.0
220
0.0
230
1.0
 70
     8
 71
     3
 72
    18
 73
    14
 74
     0
 42
0.000000001
 43
0.00000001
 40
0.0
 40
0.0
 40
0.0
 40
0.0
 40
0.0923824559439675
 40
0.1844689291622743
 40
0.2764953616013771
 40
0.3686975365565255
 40
0.4613092840075443
 40
0.5545607518508886
 40
0.6486768051591462
 40
0.7438756050182965
 40
0.8403674044314907
 40
0.9203921078129265
 40
1.0
 40
1.0
 40
1.0
 40
1.0
 10
114.8922877710044
 20
106.9317067055212
 30
0.0
 10
114.8219574674884
 20
106.9321233299516
 30
0.0
 10
114.681522190631
 20
106.9329552439958
 30
0.0
 10
114.4711596641422
 20
106.946564090928
 30
0.0
 10
114.2617160011557
 20
106.9692308482323
 30
0.0
 10
114.0531663310351
 20
107.0018316382854
 30
0.0
 10
113.8455227128081
 20
107.0441341159571
 30
0.0
 10
113.6387845288597
 20
107.09620551819
 30
0.0
 10
113.4329624233084
 20
107.1580542774925
 30
0.0
 10
113.2280307961285
 20
107.2296523403819
 30
0.0
 10
113.0367411292675
 20
107.306154155445
 30
0.0
 10
112.8593885316839
 20
107.3845905822345
 30
0.0
 10
112.7514081881557
 20
107.4383005359335
 30
0.0
 10
112.697558988277
 20
107.4650853926742
 30
0.0
  0
LINE
  5
EE
330
1F
100
AcDbEntity
  8
0
  6
Continuous
 62
     7
370
    25
100
AcDbLine
 10
116.8071614205
 20
106.9332024388
 30
0.0
 11
114.8922877013
 21
106.9317067347
 31
0.0
  0
SPLINE
  5
EF
330
1F
100
AcDbEntity
  8
0
  6
Continuous
 62
     7
370
    25
100
AcDbSpline
210
0.0
220
0.0
230
1.0
 70
     8
 71
     3
 72
    25
 73
    21
 74
     0
 42
0.000000001
 43
0.00000001
 40
0.0
 40
0.0
 40
0.0
 40
0.0
 40
0.0280105225417313
 40
0.0559601148844757
 40
0.0839014045022582
 40
0.1118870776763573
 40
0.1399695827566157
 40
0.1682008401719331
 40
0.1966319670408087
 40
0.2253130233131858
 40
0.2542927850734805
 40
0.3799486436539752
 40
0.5057850221666156
 40
0.6313085886319871
 40
0.7532068238012583
 40
0.803947326795781
 40
0.8535894438557279
 40
0.9025339722396917
 40
0.9511970353793002
 40
1.0
 40
1.0
 40
1.0
 40
1.0
 10
121.7470453566967
 20
112.0670659448963
 30
0.0
 10
121.7470825784305
 20
111.9924459178853
 30
0.0
 10
121.7471569409311
 20
111.8433681819024
 30
0.0
 10
121.7347408902844
 20
111.6207500909414
 30
0.0
 10
121.7131363299306
 20
111.3994256729162
 30
0.0
 10
121.6814508602705
 20
111.1794574070293
 30
0.0
 10
121.6399247219506
 20
110.9608671198003
 30
0.0
 10
121.5884939662207
 20
110.7436851813941
 30
0.0
 10
121.5271800915095
 20
110.5279437615058
 30
0.0
 10
121.4559697560099
 20
110.3136538700504
 30
0.0
 10
121.285133148814
 20
109.8653040970318
 30
0.0
 10
120.947400915377
 20
109.2119732689583
 30
0.0
 10
120.3358462511804
 20
108.4400800583209
 30
0.0
 10
119.5996114160282
 20
107.7959204329256
 30
0.0
 10
118.9131253443779
 20
107.4042792648661
 30
0.0
 10
118.364421198225
 20
107.1855843638978
 30
0.0
 10
117.9823850197193
 20
107.0697283150671
 30
0.0
 10
117.5952189210149
 20
106.9888204095372
 30
0.0
 10
117.2029922522292
 20
106.9395919787391
 30
0.0
 10
116.9392309841148
 20
106.9353341237237
 30
0.0
 10
116.8071610502938
 20
106.9332021403809
 30
0.0
  0
LINE
  5
F0
330
1F
100
AcDbEntity
  8
0
  6
Continuous
 62
     7
370
    25
100
AcDbLine
 10
121.7470453679
 20
120.8164168827
 30
0.0
 11
121.7470453679
 21
112.0670659773
 31
0.0
  0
SPLINE
  5
F1
330
1F
100
AcDbEntity
  8
0
  6
Continuous
 62
     7
370
    25
100
AcDbSpline
210
0.0
220
0.0
230
1.0
 70
     8
 71
     3
 72
    26
 73
    22
 74
     0
 42
0.000000001
 43
0.00000001
 40
0.0
 40
0.0
 40
0.0
 40
0.0
 40
0.0241259796962589
 40
0.048215991227113
 40
0.072320391512163
 40
0.0964895678708021
 40
0.1207736231960618
 40
0.145222071124006
 40
0.1698835501655259
 40
0.1948055644470482
 40
0.2200342569516483
 40
0.2456142191611198
 40
0.3690971486898422
 40
0.4940698769485101
 40
0.6192566784753765
 40
0.7454656653602848
 40
0.7971495824708195
 40
0.848171030839727
 40
0.8988013269227114
 40
0.9493179290486773
 40
1.0
 40
1.0
 40
1.0
 40
1.0
 10
116.8071610502938
 20
125.9502807195491
 30
0.0
 10
116.8724101088431
 20
125.9497069331703
 30
0.0
 10
117.0028109495217
 20
125.9485602158408
 30
0.0
 10
117.1977907678173
 20
125.9364428393479
 30
0.0
 10
117.3919199050805
 20
125.9166843178862
 30
0.0
 10
117.5851812451744
 20
125.8885221356654
 30
0.0
 10
117.7775764236486
 20
125.8521310396171
 30
0.0
 10
117.9691020021497
 20
125.8074299541397
 30
0.0
 10
118.1597575345354
 20
125.7544014827556
 30
0.0
 10
118.3495375336343
 20
125.693010461329
 30
0.0
 10
118.5384561542907
 20
125.6232082548492
 30
0.0
 10
118.9652005674615
 20
125.4456791846347
 30
0.0
 10
119.5996728946426
 20
125.091118581737
 30
0.0
 10
120.3393487469868
 20
124.4489467680482
 30
0.0
 10
120.9460959898215
 20
123.6757814642659
 30
0.0
 10
121.3068878060403
 20
122.968366056008
 30
0.0
 10
121.5090618618072
 20
122.4038586567833
 30
0.0
 10
121.6158853177923
 20
122.0149717952367
 30
0.0
 10
121.6914960340905
 20
121.6204890413685
 30
0.0
 10
121.7386587067817
 20
121.2206829511761
 30
0.0
 10
121.7442467610699
 20
120.9513190717094
 30
0.0
 10
121.7470453566967
 20
120.8164169150336
 30
0.0
  0
LINE
  5
F2
330
1F
100
AcDbEntity
  8
0
  6
Continuous
 62
     7
370
    25
100
AcDbLine
 10
114.8922877013
 20
125.9517761252
 30
0.0
 11
116.8071614205
 21
125.9502804212
 31
0.0
  0
SPLINE
  5
F3
330
1F
100
AcDbEntity
  8
0
  6
Continuous
 62
     7
370
    25
100
AcDbSpline
210
0.0
220
0.0
230
1.0
 70
     8
 71
     3
 72
    14
 73
    10
 74
     0
 42
0.000000001
 43
0.00000001
 40
0.0
 40
0.0
 40
0.0
 40
0.0
 40
0.0789261963166635
 40
0.1582328720536201
 40
0.3308475394596663
 40
0.5000195457656536
 40
0.6670357883622092
 40
0.8332395193691549
 40
0.9999999999999999
 40
0.9999999999999999
 40
0.9999999999999999
 40
0.9999999999999999
 10
112.6960755449298
 20
125.4177291998007
 30
0.0
 10
112.7494710679726
 20
125.4443354490756
 30
0.0
 10
112.8565195177924
 20
125.4976762083395
 30
0.0
 10
113.0855902323588
 20
125.5993056869779
 30
0.0
 10
113.3844629705614
 20
125.713385319351
 30
0.0
 10
113.7566060453658
 20
125.8219917528077
 30
0.0
 10
114.132235844397
 20
125.8983260382539
 30
0.0
 10
114.5114281564227
 20
125.9451434956082
 30
0.0
 10
114.7651931259666
 20
125.9495628049656
 30
0.0
 10
114.8922877710044
 20
125.9517761544089
 30
0.0
  0
SPLINE
  5
F4
330
1F
100
AcDbEntity
  8
0
  6
Continuous
 62
     7
370
    25
100
AcDbSpline
210
0.0
220
0.0
230
1.0
 70
     8
 71
     3
 72
     8
 73
     4
 74
     0
 42
0.000000001
 43
0.00000001
 40
0.0
 40
0.0
 40
0.0
 40
0.0
 40
1.0
 40
1.0
 40
1.0
 40
1.0
 10
107.3037818212876
 20
125.4218513567005
 30
0.0
 10
109.1011185066595
 20
125.4208772502766
 30
0.0
 10
110.8984551920313
 20
125.4194551145269
 30
0.0
 10
112.6957918774032
 20
125.4175841280582
 30
0.0
  0
SPLINE
  5
F5
330
1F
100
AcDbEntity
  8
0
  6
Continuous
 62
     7
370
    25
100
AcDbSpline
210
0.0
220
0.0
230
1.0
 70
     8
 71
     3
 72
    13
 73
     9
 74
     0
 42
0.000000001
 43
0.00000001
 40
0.0
 40
0.0
 40
0.0
 40
0.0
 40
0.1667030582307895
 40
0.3329480818052965
 40
0.4990671507274738
 40
0.6653938523718336
 40
0.8322612710550047
 40
1.0
 40
1.0
 40
1.0
 40
1.0
 10
106.2202776564422
 20
125.5592784062684
 30
0.0
 10
106.2813846991936
 20
125.5584441867368
 30
0.0
 10
106.4034308864967
 20
125.556778039782
 30
0.0
 10
106.5857658317605
 20
125.5447490821292
 30
0.0
 10
106.7670700446342
 20
125.5257596175448
 30
0.0
 10
106.9472689046708
 20
125.4989404033255
 30
0.0
 10
107.1265728828091
 20
125.4651045960783
 30
0.0
 10
107.2446049083806
 20
125.4362791257995
 30
0.0
 10
107.3037745981322
 20
125.4218288600764
 30
0.0
  0
SPLINE
  5
F6
330
1F
100
AcDbEntity
  8
0
  6
Continuous
 62
     7
370
    25
100
AcDbSpline
210
0.0
220
0.0
230
1.0
 70
     8
 71
     3
 72
     8
 73
     4
 74
     0
 42
0.000000001
 43
0.00000001
 40
0.0
 40
0.0
 40
0.0
 40
0.0
 40
1.0
 40
1.0
 40
1.0
 40
1.0
 10
100.402103203508
 20
125.5640681411184
 30
0.0
 10
102.3414946878194
 20
125.5630206886427
 30
0.0
 10
104.2808861721308
 20
125.561424502118
 30
0.0
 10
106.2202776564423
 20
125.5592784062683
 30
0.0
  0
LINE
  5
F7
330
1F
100
AcDbEntity
  8
0
  6
Continuous
 62
     7
370
    25
100
AcDbLine
 10
100.4021042585
 20
125.5640684001
 30
0.0
 11
100.4021042585
 21
139.5108623735
 31
0.0
  0
SPLINE
  5
F8
330
1F
100
AcDbEntity
  8
0
  6
Continuous
 62
     7
370
    25
100
AcDbSpline
210
0.0
220
0.0
230
1.0
 70
     8
 71
     3
 72
    24
 73
    20
 74
     0
 42
0.000000001
 43
0.00000001
 40
0.0
 40
0.0
 40
0.0
 40
0.0
 40
0.0607845451296407
 40
0.1248046360965166
 40
0.1880736642923821
 40
0.2506536944642078
 40
0.3129374270624571
 40
0.3747588850641116
 40
0.4371053349657547
 40
0.4977639019418345
 40
0.5591913128303959
 40
0.6209011577381788
 40
0.6826271159280655
 40
0.7453344255371981
 40
0.8078840402472991
 40
0.8712333803613398
 40
0.9348869687710366
 40
0.9979954054018167
 40
1.0
 40
1.0
 40
1.0
 40
1.0
 10
124.365742839833
 20
140.7125721059246
 30
0.0
 10
124.340031026294
 20
140.7021690158441
 30
0.0
 10
124.2872387659377
 20
140.6808090818508
 30
0.0
 10
123.8140080166841
 20
140.4984024083625
 30
0.0
 10
123.0952028749655
 20
140.2294563558338
 30
0.0
 10
122.1180221306844
 20
139.9013602007666
 30
0.0
 10
120.9340597696218
 20
139.5574897670209
 30
0.0
 10
119.5657574817228
 20
139.239828974748
 30
0.0
 10
118.078046215853
 20
138.9853205263483
 30
0.0
 10
116.508386635538
 20
138.8341061453701
 30
0.0
 10
114.9321441405594
 20
138.800564498745
 30
0.0
 10
113.4128299842301
 20
138.8861366944089
 30
0.0
 10
112.0119557689306
 20
139.0603445130793
 30
0.0
 10
110.7932759745216
 20
139.2899701777499
 30
0.0
 10
109.7877031456208
 20
139.5281876801424
 30
0.0
 10
109.0345218091816
 20
139.7398084397711
 30
0.0
 10
108.5875782481301
 20
139.8722281975029
 30
0.0
 10
108.4039014601858
 20
139.9298956837459
 30
0.0
 10
108.4554390074504
 20
139.9141479287118
 30
0.0
 10
108.4570256620247
 20
139.9136631123228
 30
0.0
  0
SPLINE
  5
F9
330
1F
100
AcDbEntity
  8
0
  6
Continuous
 62
     7
370
    25
100
AcDbSpline
210
0.0
220
0.0
230
1.0
 70
     8
 71
     3
 72
    24
 73
    20
 74
     0
 42
0.000000001
 43
0.00000001
 40
0.0
 40
0.0
 40
0.0
 40
0.0
 40
0.0018911184661179
 40
0.0649665885217893
 40
0.1287875560009952
 40
0.1921372900365662
 40
0.2545996475903032
 40
0.3167128323446347
 40
0.3787563804671794
 40
0.440851011115251
 40
0.501718739255822
 40
0.5623721854420992
 40
0.6248484186975057
 40
0.6868048398220544
 40
0.7491642775858319
 40
0.8116886268192671
 40
0.8748496752066125
 40
0.9387002417378669
 40
1.0
 40
1.0
 40
1.0
 40
1.0
 10
108.4570312499602
 20
92.96972475270464
 30
0.0
 10
108.4555245680919
 20
92.9692669348654
 30
0.0
 10
108.4037647324581
 20
92.95353927754925
 30
0.0
 10
108.5873754470717
 20
93.01111549265443
 30
0.0
 10
109.0352491721044
 20
93.14337189567783
 30
0.0
 10
109.7882747196184
 20
93.3549803054004
 30
0.0
 10
110.7882202198989
 20
93.59269731043604
 30
0.0
 10
112.0067794336986
 20
93.8207377841178
 30
0.0
 10
113.4102897409074
 20
93.99292233234645
 30
0.0
 10
114.9275376251202
 20
94.0810457896389
 30
0.0
 10
116.5017870334507
 20
94.04998439619014
 30
0.0
 10
118.0676205254734
 20
93.89896330466225
 30
0.0
 10
119.5574729428995
 20
93.64462721462276
 30
0.0
 10
120.9291606232273
 20
93.32688755551291
 30
0.0
 10
122.1150578166737
 20
92.98298128482085
 30
0.0
 10
123.0927515731146
 20
92.65510261971045
 30
0.0
 10
123.8119049928949
 20
92.38631819961779
 30
0.0
 10
124.2858442534492
 20
92.20321613458938
 30
0.0
 10
124.3401032193092
 20
92.18122932942599
 30
0.0
 10
124.3666797503431
 20
92.17045999387933
 30
0.0
  0
LINE
  5
FA
330
1F
100
AcDbEntity
  8
0
  6
Continuous
 62
     7
370
    25
100
AcDbLine
 10
121.7470453679
 20
112.0670659773
 30
0.0
 11
120.8521039784
 21
112.2292413681
 31
0.0
  0
LINE
  5
FB
330
1F
100
AcDbEntity
  8
0
  6
Continuous
 62
     7
370
    25
100
AcDbLine
 10
120.8521039784
 20
112.2292413681
 30
0.0
 11
120.8521039784
 21
120.6542414918
 31
0.0
  0
LINE
  5
FC
330
1F
100
AcDbEntity
  8
0
  6
Continuous
 62
     7
370
    25
100
AcDbLine
 10
121.7470453679
 20
120.8164168827
 30
0.0
 11
120.8521039784
 21
120.6542414918
 31
0.0
  0
SPLINE
  5
FD
330
1F
100
AcDbEntity
  8
0
  6
Continuous
 62
     7
370
    25
100
AcDbSpline
210
0.0
220
0.0
230
1.0
 70
     8
 71
     3
 72
    25
 73
    21
 74
     0
 42
0.000000001
 43
0.00000001
 40
0.0
 40
0.0
 40
0.0
 40
0.0
 40
0.028882175310577
 40
0.0583636594005718
 40
0.0884647204305489
 40
0.1192044006616744
 40
0.1506005800085673
 40
0.1826700399669862
 40
0.2154285269576229
 40
0.2488908143379845
 40
0.3610594471224489
 40
0.4984670131067704
 40
0.5822693905007543
 40
0.6661127642783263
 40
0.7499972937224442
 40
0.8007709755049041
 40
0.8511237700832893
 40
0.9010896024531703
 40
0.9507031914125739
 40
1.0
 40
1.0
 40
1.0
 40
1.0
 10
116.8521032034953
 20
108.229241429965
 30
0.0
 10
116.9149036567317
 20
108.2300979139168
 30
0.0
 10
117.0418076805275
 20
108.2318286539704
 30
0.0
 10
117.233162088237
 20
108.2459785193733
 30
0.0
 10
117.4270669009127
 20
108.2691156016937
 30
0.0
 10
117.6229676216402
 20
108.3025267539182
 30
0.0
 10
117.8203052896455
 20
108.3464005759504
 30
0.0
 10
118.0184586314337
 20
108.4011958469198
 30
0.0
 10
118.2167743754468
 20
108.4672648082845
 30
0.0
 10
118.5680953629552
 20
108.6052461405394
 30
0.0
 10
119.0932071332801
 20
108.8852980793825
 30
0.0
 10
119.6301989617647
 20
109.3238886817908
 30
0.0
 10
120.0422586918016
 20
109.7977488033357
 30
0.0
 10
120.3291772798542
 20
110.2294325511555
 30
0.0
 10
120.5276039670631
 20
110.6325557929191
 30
0.0
 10
120.6596898411129
 20
110.9902919537034
 30
0.0
 10
120.7453237209111
 20
111.2930443559912
 30
0.0
 10
120.8064059322629
 20
111.6015326662371
 30
0.0
 10
120.8449068756267
 20
111.9138443763883
 30
0.0
 10
120.8497095547199
 20
112.1243337902844
 30
0.0
 10
120.8521032034953
 20
112.229241429965
 30
0.0
  0
SPLINE
  5
FE
330
1F
100
AcDbEntity
  8
0
  6
Continuous
 62
     7
370
    25
100
AcDbSpline
210
0.0
220
0.0
230
1.0
 70
     8
 71
     3
 72
    25
 73
    21
 74
     0
 42
0.000000001
 43
0.00000001
 40
0.0
 40
0.0
 40
0.0
 40
0.0
 40
0.0274788704224102
 40
0.0560416006852145
 40
0.0856947086354159
 40
0.1164440166540399
 40
0.1482947438683113
 40
0.1812515840471578
 40
0.215318771674954
 40
0.2505001382254747
 40
0.3330514552585835
 40
0.5015081958163852
 40
0.577166306614078
 40
0.6488981303019673
 40
0.7167477700055849
 40
0.7807674423480572
 40
0.8410194131333233
 40
0.8975784849918899
 40
0.9505352047784991
 40
1.0
 40
1.0
 40
1.0
 40
1.0
 10
120.8521032034953
 20
120.654241429965
 30
0.0
 10
120.8513617518872
 20
120.7126058390002
 30
0.0
 10
120.8498496033049
 20
120.831636747298
 30
0.0
 10
120.8373534622342
 20
121.0124177414158
 30
0.0
 10
120.8164338582695
 20
121.1986809596584
 30
0.0
 10
120.7855131167244
 20
121.3898530482083
 30
0.0
 10
120.7439884720746
 20
121.5853599874347
 30
0.0
 10
120.6909882862572
 20
121.7845213395494
 30
0.0
 10
120.6257591064406
 20
121.9865396187061
 30
0.0
 10
120.5131690797001
 20
122.2800732332227
 30
0.0
 10
120.2531486887193
 20
122.8086060590503
 30
0.0
 10
119.842069295563
 20
123.3485453187033
 30
0.0
 10
119.3577347273028
 20
123.7833646681246
 30
0.0
 10
118.9925800226247
 20
124.042771809585
 30
0.0
 10
118.6197449535076
 20
124.2505219642346
 30
0.0
 10
118.2464973911822
 20
124.4102432318719
 30
0.0
 10
117.879208080848
 20
124.5262804841736
 30
0.0
 10
117.5230152780242
 20
124.602487601479
 30
0.0
 10
117.182176576877
 20
124.6464926634689
 30
0.0
 10
116.9595981567779
 20
124.6517178901715
 30
0.0
 10
116.8521032034953
 20
124.654241429965
 30
0.0
  0
LINE
  5
FF
330
1F
100
AcDbEntity
  8
0
  6
Continuous
 62
     7
370
    25
100
AcDbLine
 10
114.8922877013
 20
125.9517761252
 30
0.0
 11
114.9372296035
 21
124.6542416818
 31
0.0
  0
SPLINE
  5
100
330
1F
100
AcDbEntity
  8
0
  6
Continuous
 62
     7
370
    25
100
AcDbSpline
210
0.0
220
0.0
230
1.0
 70
     8
 71
     3
 72
    13
 73
     9
 74
     0
 42
0.000000001
 43
0.00000001
 40
0.0
 40
0.0
 40
0.0
 40
0.0
 40
0.1618542299043787
 40
0.3254858841861265
 40
0.4910085196952338
 40
0.6585318473097415
 40
0.8281616954395596
 40
0.9999999999999999
 40
0.9999999999999999
 40
0.9999999999999999
 40
0.9999999999999999
 10
114.9372299242058
 20
124.654241429965
 30
0.0
 10
114.8780080933905
 20
124.6534825538612
 30
0.0
 10
114.7589140791197
 20
124.6519564679518
 30
0.0
 10
114.5793016031546
 20
124.6394625367071
 30
0.0
 10
114.3982725622365
 20
124.6192302678316
 30
0.0
 10
114.2162665684511
 20
124.5900763226213
 30
0.0
 10
114.0334823244907
 20
124.5527156119609
 30
0.0
 10
113.9128332936301
 20
124.5204719011934
 30
0.0
 10
113.8521186274259
 20
124.5042457771834
 30
0.0
  0
SPLINE
  5
101
330
1F
100
AcDbEntity
  8
0
  6
Continuous
 62
     7
370
    25
100
AcDbSpline
210
0.0
220
0.0
230
1.0
 70
    24
 71
     3
 72
     9
 73
     5
 74
     0
 42
0.000000001
 43
0.00000001
 40
0.0
 40
0.0
 40
0.0
 40
0.0
 40
0.4907282259506014
 40
1.0
 40
1.0
 40
1.0
 40
1.0
 10
113.8521746243374
 20
124.504241429965
 30
0.0
 10
113.7982691661069
 20
124.504241429965
 30
0.0
 10
113.688421280088
 20
124.504241429965
 30
0.0
 10
113.580478803979
 20
124.504241429965
 30
0.0
 10
113.5255067476756
 20
124.504241429965
 30
0.0
  0
SPLINE
  5
102
330
1F
100
AcDbEntity
  8
0
  6
Continuous
 62
     7
370
    25
100
AcDbSpline
210
0.0
220
0.0
230
1.0
 70
     8
 71
     3
 72
    14
 73
    10
 74
     0
 42
0.000000001
 43
0.00000001
 40
0.0
 40
0.0
 40
0.0
 40
0.0
 40
0.0310276388052914
 40
0.0622853718654813
 40
0.1248003166888005
 40
0.2498289731739683
 40
0.4998892603601401
 40
0.7606803622467934
 40
1.0
 40
1.0
 40
1.0
 40
1.0
 10
112.6968423521586
 20
125.4177177791955
 30
0.0
 10
112.7051323776976
 20
125.4081499346401
 30
0.0
 10
112.7217739058111
 20
125.3889432924645
 30
0.0
 10
112.7550237621886
 20
125.3503546644691
 30
0.0
 10
112.8135263077892
 20
125.2828247715618
 30
0.0
 10
112.9310626016395
 20
125.1479872538382
 30
0.0
 10
113.1039901254095
 20
124.9530539040776
 30
0.0
 10
113.3116376475747
 20
124.7247648802927
 30
0.0
 10
113.4554482310793
 20
124.5751952542745
 30
0.0
 10
113.5242663827835
 20
124.5036212090074
 30
0.0
  0
SPLINE
  5
103
330
1F
100
AcDbEntity
  8
0
  6
Continuous
 62
     7
370
    25
100
AcDbSpline
210
0.0
220
0.0
230
1.0
 70
     8
 71
     3
 72
    13
 73
     9
 74
     0
 42
0.000000001
 43
0.00000001
 40
0.0
 40
0.0
 40
0.0
 40
0.0
 40
0.1722587823568594
 40
0.3421398271249483
 40
0.5097456257913412
 40
0.6751828993276895
 40
0.8385626190137785
 40
1.0
 40
1.0
 40
1.0
 40
1.0
 10
113.8521215724055
 20
108.3792362527148
 30
0.0
 10
113.9129849620741
 20
108.3629725250163
 30
0.0
 10
114.0338716265132
 20
108.3306695625372
 30
0.0
 10
114.2169327844784
 20
108.2932819078442
 30
0.0
 10
114.3990354674165
 20
108.2641489729336
 30
0.0
 10
114.5799769157355
 20
108.243962257327
 30
0.0
 10
114.759315919439
 20
108.2315154530251
 30
0.0
 10
114.8781621478588
 20
108.2299964097976
 30
0.0
 10
114.9372299242058
 20
108.229241429965
 30
0.0
  0
LINE
  5
104
330
1F
100
AcDbEntity
  8
0
  6
Continuous
 62
     7
370
    25
100
AcDbLine
 10
114.8922877013
 20
106.9317067347
 30
0.0
 11
114.9372296035
 21
108.2292411781
 31
0.0
  0
SPLINE
  5
105
330
1F
100
AcDbEntity
  8
0
  6
Continuous
 62
     7
370
    25
100
AcDbSpline
210
0.0
220
0.0
230
1.0
 70
     8
 71
     3
 72
    11
 73
     7
 74
     0
 42
0.000000001
 43
0.00000001
 40
0.0
 40
0.0
 40
0.0
 40
0.0
 40
0.2392845094072487
 40
0.5001120454065696
 40
0.7515010915046029
 40
1.0
 40
1.0
 40
1.0
 40
1.0
 10
113.5255349144763
 20
108.3798130023583
 30
0.0
 10
113.4567252814865
 20
108.3082173042458
 30
0.0
 10
113.3129110145979
 20
108.1585800748486
 30
0.0
 10
113.1052092817881
 20
107.9295235463404
 30
0.0
 10
112.8972689700765
 20
107.6970615589872
 30
0.0
 10
112.7643007604367
 20
107.5421925675998
 30
0.0
 10
112.698201038176
 20
107.4652057649255
 30
0.0
  0
SPLINE
  5
106
330
1F
100
AcDbEntity
  8
0
  6
Continuous
 62
     7
370
    25
100
AcDbSpline
210
0.0
220
0.0
230
1.0
 70
    24
 71
     3
 72
     9
 73
     5
 74
     0
 42
0.000000001
 43
0.00000001
 40
0.0
 40
0.0
 40
0.0
 40
0.0
 40
0.5090669353869909
 40
1.0
 40
1.0
 40
1.0
 40
1.0
 10
113.5274830368918
 20
108.379241429965
 30
0.0
 10
113.582110899599
 20
108.379241429965
 30
0.0
 10
113.6894206832635
 20
108.379241429965
 30
0.0
 10
113.7986021915079
 20
108.379241429965
 30
0.0
 10
113.8522030039494
 20
108.379241429965
 30
0.0
  0
LINE
  5
107
330
1F
100
AcDbEntity
  8
0
  6
Continuous
 62
     7
370
    25
100
AcDbLine
 10
107.3036962747
 20
125.4218517176
 30
0.0
 11
107.2782003879
 21
124.524265372
 31
0.0
  0
LINE
  5
108
330
1F
100
AcDbEntity
  8
0
  6
Continuous
 62
     7
370
    25
100
AcDbLine
 10
113.5255047679
 20
124.5042410053
 30
0.0
 11
107.3521026969
 21
124.5042410053
 31
0.0
  0
SPLINE
  5
109
330
1F
100
AcDbEntity
  8
0
  6
Continuous
 62
     7
370
    25
100
AcDbSpline
210
0.0
220
0.0
230
1.0
 70
     8
 71
     3
 72
     8
 73
     4
 74
     0
 42
0.000000001
 43
0.00000001
 40
0.0
 40
0.0
 40
0.0
 40
0.0
 40
1.0
 40
1.0
 40
1.0
 40
1.0
 10
107.3521032035495
 20
124.5042414299498
 30
0.0
 10
107.3275391741208
 20
124.5111648285739
 30
0.0
 10
107.3029088830226
 20
124.5178531323916
 30
0.0
 10
107.2782168419105
 20
124.5243051162724
 30
0.0
  0
LINE
  5
10A
330
1F
100
AcDbEntity
  8
0
  6
Continuous
 62
     7
370
    25
100
AcDbLine
 10
108.1164670735
 20
108.2343187488
 30
0.0
 11
108.2886239141
 21
107.4621489577
 31
0.0
  0
SPLINE
  5
10B
330
1F
100
AcDbEntity
  8
0
  6
Continuous
 62
     7
370
    25
100
AcDbSpline
210
0.0
220
0.0
230
1.0
 70
     8
 71
     3
 72
     8
 73
     4
 74
     0
 42
0.000000001
 43
0.00000001
 40
0.0
 40
0.0
 40
0.0
 40
0.0
 40
1.0
 40
1.0
 40
1.0
 40
1.0
 10
108.1145310468598
 20
108.2349293617878
 30
0.0
 10
108.1447325281796
 20
108.282410258906
 30
0.0
 10
108.173931913032
 20
108.3305285624793
 30
0.0
 10
108.2021032034953
 20
108.3792414299651
 30
0.0
  0
LINE
  5
10C
330
1F
100
AcDbEntity
  8
0
  6
Continuous
 62
     7
370
    25
100
AcDbLine
 10
108.2021040469
 20
108.3792418546
 30
0.0
 11
113.5266763717
 21
108.3792418546
 31
0.0
  0
LINE
  5
10D
330
1F
100
AcDbEntity
  8
0
  6
Continuous
 62
     7
370
    25
100
AcDbLine
 10
116.8521033227
 20
124.6542416818
 30
0.0
 11
114.9372296035
 21
124.6542416818
 31
0.0
  0
LINE
  5
10E
330
1F
100
AcDbEntity
  8
0
  6
Continuous
 62
     7
370
    25
100
AcDbLine
 10
114.9372296035
 20
108.2292411781
 30
0.0
 11
116.8521033227
 21
108.2292411781
 31
0.0
  0
SPLINE
  5
10F
330
1F
100
AcDbEntity
  8
0
  6
Continuous
 62
     7
370
    25
100
AcDbSpline
210
0.0
220
0.0
230
1.0
 70
     8
 71
     3
 72
    23
 73
    19
 74
     0
 42
0.000000001
 43
0.00000001
 40
0.0
 40
0.0
 40
0.0
 40
0.0
 40
0.0449850911475702
 40
0.0909520670695521
 40
0.1379394291160224
 40
0.185983224880271
 40
0.2351171761576849
 40
0.2853728096294421
 40
0.336779587648219
 40
0.3893650370719876
 40
0.4431548745883502
 40
0.4981731273940964
 40
0.5575107590985258
 40
0.6265492281523468
 40
0.7053073139188342
 40
0.7937970253957892
 40
0.8920262116056945
 40
1.0
 40
1.0
 40
1.0
 40
1.0
 10
104.7394461673452
 20
106.381741429965
 30
0.0
 10
104.8022899183113
 20
106.382599233284
 30
0.0
 10
104.9293491040764
 20
106.3843335631033
 30
0.0
 10
105.1210053368034
 20
106.3985206983032
 30
0.0
 10
105.3153725973953
 20
106.4217461814584
 30
0.0
 10
105.5118893056636
 20
106.4553249218005
 30
0.0
 10
105.7099869093791
 20
106.4994688950273
 30
0.0
 10
105.9090348813437
 20
106.554663842552
 30
0.0
 10
106.1083538872287
 20
106.6212807049704
 30
0.0
 10
106.3072195840746
 20
106.6996813817855
 30
0.0
 10
106.5048347234779
 20
106.7901654727364
 30
0.0
 10
106.704081190625
 20
106.894957337528
 30
0.0
 10
106.912909670305
 20
107.0205222739866
 30
0.0
 10
107.1377207664598
 20
107.1760362725272
 30
0.0
 10
107.3794874953955
 20
107.3706053876971
 30
0.0
 10
107.6307022041464
 20
107.6100950551335
 30
0.0
 10
107.8857006883701
 20
107.8979354649214
 30
0.0
 10
108.0360728172588
 20
108.1194038746828
 30
0.0
 10
108.1148119744227
 20
108.2353710825153
 30
0.0
  0
SPLINE
  5
110
330
1F
100
AcDbEntity
  8
0
  6
Continuous
 62
     7
370
    25
100
AcDbSpline
210
0.0
220
0.0
230
1.0
 70
     8
 71
     3
 72
    13
 73
     9
 74
     0
 42
0.000000001
 43
0.00000001
 40
0.0
 40
0.0
 40
0.0
 40
0.0
 40
0.1706320847264856
 40
0.3395984166307211
 40
0.5069574112797959
 40
0.6727691831482615
 40
0.8370955448535085
 40
1.0
 40
1.0
 40
1.0
 40
1.0
 10
107.2782099656356
 20
124.5243069130236
 30
0.0
 10
107.2221560353919
 20
124.5382096591924
 30
0.0
 10
107.110595387304
 20
124.5658794294662
 30
0.0
 10
106.9413496549024
 20
124.5981349463845
 30
0.0
 10
106.7722045659736
 20
124.6234724066991
 30
0.0
 10
106.6032693040031
 20
124.6411852823697
 30
0.0
 10
106.4349410717819
 20
124.6522093393217
 30
0.0
 10
106.3228022546027
 20
124.6535660314823
 30
0.0
 10
106.2669764827847
 20
124.654241429965
 30
0.0
  0
SPLINE
  5
111
330
1F
100
AcDbEntity
  8
0
  6
Continuous
 62
     7
370
    25
100
AcDbSpline
210
0.0
220
0.0
230
1.0
 70
     8
 71
     3
 72
     8
 73
     4
 74
     0
 42
0.000000001
 43
0.00000001
 40
0.0
 40
0.0
 40
0.0
 40
0.0
 40
1.0
 40
1.0
 40
1.0
 40
1.0
 10
99.48844338190979
 20
125.1817431738873
 30
0.0
 10
99.79299665562131
 20
125.3079325205275
 30
0.0
 10
100.0975499293328
 20
125.4353772767917
 30
0.0
 10
100.4021032030443
 20
125.5640681413411
 30
0.0
  0
LINE
  5
112
330
1F
100
AcDbEntity
  8
0
  6
Continuous
 62
     7
370
    25
100
AcDbLine
 10
106.266977787
 20
124.6542416818
 30
0.0
 11
100.4021042585
 21
124.6542416818
 31
0.0
  0
LINE
  5
113
330
1F
100
AcDbEntity
  8
0
  6
Continuous
 62
     7
370
    25
100
AcDbLine
 10
100.4021042585
 20
124.6542416818
 30
0.0
 11
99.4884432852
 21
125.1817427881
 31
0.0
  0
SPLINE
  5
114
330
1F
100
AcDbEntity
  8
0
  6
Continuous
 62
     7
370
    25
100
AcDbSpline
210
0.0
220
0.0
230
1.0
 70
    24
 71
     3
 72
     8
 73
     4
 74
     0
 42
0.000000001
 43
0.00000001
 40
0.0
 40
0.0
 40
0.0
 40
0.0
 40
1.0
 40
1.0
 40
1.0
 40
1.0
 10
98.90210320349527
 20
125.5202668337495
 30
0.0
 10
99.09665033602738
 20
125.407944994412
 30
0.0
 10
99.29211135626578
 20
125.2950955217613
 30
0.0
 10
99.4884433819223
 20
125.1817431738979
 30
0.0
  0
LINE
  5
115
330
1F
100
AcDbEntity
  8
0
  6
Continuous
 62
     7
370
    25
100
AcDbLine
 10
98.902104944
 20
125.5202664367
 30
0.0
 11
98.902104944
 21
138.6448366872
 31
0.0
  0
LINE
  5
116
330
1F
100
AcDbEntity
  8
0
  6
Continuous
 62
     7
370
    25
100
AcDbLine
 10
99.5419682562
 20
105.885143236
 30
0.0
 11
100.4021042585
 21
106.3817411966
 31
0.0
  0
LINE
  5
117
330
1F
100
AcDbEntity
  8
0
  6
Continuous
 62
     7
370
    25
100
AcDbLine
 10
100.4021042585
 20
106.3817411966
 30
0.0
 11
104.7394448518
 21
106.3817411966
 31
0.0
  0
SPLINE
  5
118
330
1F
100
AcDbEntity
  8
0
  6
Continuous
 62
     7
370
    25
100
AcDbSpline
210
0.0
220
0.0
230
1.0
 70
     8
 71
     3
 72
     8
 73
     4
 74
     0
 42
0.000000001
 43
0.00000001
 40
0.0
 40
0.0
 40
0.0
 40
0.0
 40
1.0
 40
1.0
 40
1.0
 40
1.0
 10
100.402103203255
 20
105.5367632894474
 30
0.0
 10
100.115391926382
 20
105.6536642276628
 30
0.0
 10
99.82868064950902
 20
105.7697922487292
 30
0.0
 10
99.54196937263602
 20
105.8851429311918
 30
0.0
  0
SPLINE
  5
119
330
1F
100
AcDbEntity
  8
0
  6
Continuous
 62
     7
370
    25
100
AcDbSpline
210
0.0
220
0.0
230
1.0
 70
     8
 71
     3
 72
     8
 73
     4
 74
     0
 42
0.000000001
 43
0.00000001
 40
0.0
 40
0.0
 40
0.0
 40
0.0
 40
1.0
 40
1.0
 40
1.0
 40
1.0
 10
152.0863010080654
 20
86.90499409699963
 30
0.0
 10
151.7508903826414
 20
87.56326114930904
 30
0.0
 10
151.4190480635315
 20
88.22231758729062
 30
0.0
 10
151.0928143285475
 20
88.88225795871205
 30
0.0
  0
LWPOLYLINE
  5
11A
330
1F
100
AcDbEntity
  8
0
  6
Continuous
 62
     7
370
    25
100
AcDbPolyline
 90
       11
 70
   128
 43
0.0
 10
151.0928138718
 20
88.8822580061
 10
151.8156868964
 20
89.0252327851
 10
152.474158965
 20
89.2318280719
 10
153.0460711196
 20
89.495090612
 10
153.5121738538
 20
89.8061616651
 10
153.8567818328
 20
90.1545713029
 10
154.068298228
 20
90.5285941742
 10
154.1396030783
 20
90.915642523
 10
154.068298228
 20
91.3026908718
 10
153.8567818328
 20
91.676713743
 10
153.842918165
 20
91.6944852404
  0
LINE
  5
11B
330
1F
100
AcDbEntity
  8
0
  6
Continuous
 62
     7
370
    25
100
AcDbLine
 10
98.902104944
 20
94.2386461727
 30
0.0
 11
98.902104944
 21
105.5157164417
 31
0.0
  0
SPLINE
  5
11C
330
1F
100
AcDbEntity
  8
0
  6
Continuous
 62
     7
370
    25
100
AcDbSpline
210
0.0
220
0.0
230
1.0
 70
    24
 71
     3
 72
     8
 73
     4
 74
     0
 42
0.000000001
 43
0.00000001
 40
0.0
 40
0.0
 40
0.0
 40
0.0
 40
1.0
 40
1.0
 40
1.0
 40
1.0
 10
99.54196937264865
 20
105.8851429311866
 30
0.0
 10
99.32730381380891
 20
105.7612057130048
 30
0.0
 10
99.11398910547072
 20
105.6380484087236
 30
0.0
 10
98.90210320349527
 20
105.5157160261806
 30
0.0
  0
ARC
  5
11D
330
1F
100
AcDbEntity
  8
0
  6
Continuous
 62
     7
370
    25
100
AcDbCircle
 10
147.0826871998
 20
90.9088915055
 30
0.0
 40
1.386778252398805
100
AcDbArc
 50
117.5067796727
 51
245.5898588898
  0
SPLINE
  5
11E
330
1F
100
AcDbEntity
  8
0
  6
Continuous
 62
     7
370
    25
100
AcDbSpline
210
0.0
220
0.0
230
1.0
 70
     8
 71
     3
 72
     8
 73
     4
 74
     0
 42
0.000000001
 43
0.00000001
 40
0.0
 40
0.0
 40
0.0
 40
0.0
 40
1.0
 40
1.0
 40
1.0
 40
1.0
 10
146.5095795373472
 20
89.64607683938752
 30
0.0
 10
146.1531262724162
 20
88.90191286620298
 30
0.0
 10
145.7877927796548
 20
88.1591736403134
 30
0.0
 10
145.4179053989252
 20
87.41774251541682
 30
0.0
  0
LINE
  5
11F
330
1F
100
AcDbEntity
  8
0
  6
Continuous
 62
     7
370
    25
100
AcDbLine
 10
146.8771030753
 20
142.5364444337
 30
0.0
 11
146.8771030753
 21
142.4516810409
 31
0.0
  0
SPLINE
  5
120
330
1F
100
AcDbEntity
  8
0
  6
Continuous
 62
     7
370
    25
100
AcDbSpline
210
0.0
220
0.0
230
1.0
 70
     8
 71
     3
 72
    16
 73
    12
 74
     0
 42
0.000000001
 43
0.00000001
 40
0.0
 40
0.0
 40
0.0
 40
0.0
 40
0.1250000000000001
 40
0.1250000000000001
 40
0.2500000000000003
 40
0.2500000000000003
 40
0.5000000000000002
 40
0.5000000000000002
 40
0.7500000000000001
 40
0.7500000000000001
 40
1.0
 40
1.0
 40
1.0
 40
1.0
 10
146.8771032034953
 20
142.4516804557554
 30
0.0
 10
146.8771032034953
 20
142.3823481071103
 30
0.0
 10
146.8868757671349
 20
142.3203515701076
 30
0.0
 10
146.9210718125353
 20
142.2146696921172
 30
0.0
 10
146.9452570042462
 20
142.1705472571984
 30
0.0
 10
147.0329736683425
 20
142.0581406309576
 30
0.0
 10
147.1096838341919
 20
142.0101381247993
 30
0.0
 10
147.2887659344329
 20
141.9453123620867
 30
0.0
 10
147.3896487040527
 20
141.9294090906245
 30
0.0
 10
147.6184602023157
 20
141.9279043502538
 30
0.0
 10
147.7427578107506
 20
141.9425295270296
 30
0.0
 10
147.8771032034953
 20
141.9773164378682
 30
0.0
  0
SPLINE
  5
121
330
1F
100
AcDbEntity
  8
0
  6
Continuous
 62
     7
370
    25
100
AcDbSpline
210
0.0
220
0.0
230
1.0
 70
     8
 71
     3
 72
    10
 73
     6
 74
     0
 42
0.000000001
 43
0.00000001
 40
0.0
 40
0.0
 40
0.0
 40
0.0
 40
0.5
 40
0.5
 40
1.0
 40
1.0
 40
1.0
 40
1.0
 10
147.8771032034953
 20
141.9773164378682
 30
0.0
 10
148.139922717851
 20
142.0453699738009
 30
0.0
 10
148.4182755824587
 20
142.0976835908527
 30
0.0
 10
149.0052721698441
 20
142.1743870424361
 30
0.0
 10
149.3146558597224
 20
142.1984144167306
 30
0.0
 10
149.6271032034953
 20
142.2072442531286
 30
0.0
  0
SPLINE
  5
122
330
1F
100
AcDbEntity
  8
0
  6
Continuous
 62
     7
370
    25
100
AcDbSpline
210
0.0
220
0.0
230
1.0
 70
     8
 71
     3
 72
    14
 73
    10
 74
     0
 42
0.000000001
 43
0.00000001
 40
0.0
 40
0.0
 40
0.0
 40
0.0
 40
0.25
 40
0.25
 40
0.5
 40
0.5
 40
0.75
 40
0.75
 40
1.0
 40
1.0
 40
1.0
 40
1.0
 10
149.6271032034953
 20
142.2072442531286
 30
0.0
 10
149.7603326545186
 20
142.2110093491661
 30
0.0
 10
149.8920340171288
 20
142.2352713660037
 30
0.0
 10
150.1351116753459
 20
142.3215027166472
 30
0.0
 10
150.2460176158945
 20
142.3836588768191
 30
0.0
 10
150.4287146889722
 20
142.5364651038066
 30
0.0
 10
150.5021022184538
 20
142.6284508118648
 30
0.0
 10
150.6009364973721
 20
142.8309201489436
 30
0.0
 10
150.6271032034953
 20
142.9426813773017
 30
0.0
 10
150.6271032034953
 20
143.0572353448277
 30
0.0
  0
LINE
  5
123
330
1F
100
AcDbEntity
  8
0
  6
Continuous
 62
     7
370
    25
100
AcDbLine
 10
150.6271032244
 20
143.0572344295
 30
0.0
 11
150.6271032244
 21
143.1424429945
 31
0.0
  0
SPLINE
  5
124
330
1F
100
AcDbEntity
  8
0
  6
Continuous
 62
     7
370
    25
100
AcDbSpline
210
0.0
220
0.0
230
1.0
 70
     8
 71
     3
 72
    10
 73
     6
 74
     0
 42
0.000000001
 43
0.00000001
 40
0.0
 40
0.0
 40
0.0
 40
0.0
 40
0.5
 40
0.5
 40
1.0
 40
1.0
 40
1.0
 40
1.0
 10
150.6271032034953
 20
143.1424439095799
 30
0.0
 10
150.8782960933668
 20
143.5029501323459
 30
0.0
 10
151.1255654050686
 20
143.8470410122552
 30
0.0
 10
151.6121867563794
 20
144.498502427311
 30
0.0
 10
151.8515700640961
 20
144.8060878671153
 30
0.0
 10
152.0863010080652
 20
145.0894787970232
 30
0.0
  0
SPLINE
  5
125
330
1F
100
AcDbEntity
  8
0
  6
Continuous
 62
     7
370
    25
100
AcDbSpline
210
0.0
220
0.0
230
1.0
 70
     8
 71
     3
 72
     8
 73
     4
 74
     0
 42
0.000000001
 43
0.00000001
 40
0.0
 40
0.0
 40
0.0
 40
0.0
 40
1.0
 40
1.0
 40
1.0
 40
1.0
 10
151.0928143285473
 20
88.88225795871232
 30
0.0
 10
150.9387318613234
 20
89.09840486011001
 30
0.0
 10
150.7835052394792
 20
89.32005756942901
 30
0.0
 10
150.6271032034953
 20
89.54698781426717
 30
0.0
  0
LINE
  5
126
330
1F
100
AcDbEntity
  8
0
  6
Continuous
 62
     7
370
    25
100
AcDbLine
 10
150.6271032244
 20
89.5469876311
 30
0.0
 11
150.6271032244
 21
89.6324048124
 31
0.0
  0
SPLINE
  5
127
330
1F
100
AcDbEntity
  8
0
  6
Continuous
 62
     7
370
    25
100
AcDbSpline
210
0.0
220
0.0
230
1.0
 70
     8
 71
     3
 72
    14
 73
    10
 74
     0
 42
0.000000001
 43
0.00000001
 40
0.0
 40
0.0
 40
0.0
 40
0.0
 40
0.25
 40
0.25
 40
0.5
 40
0.5
 40
0.75
 40
0.75
 40
1.0
 40
1.0
 40
1.0
 40
1.0
 10
150.6271032034953
 20
89.63240388356456
 30
0.0
 10
150.6271032034953
 20
89.74652978776193
 30
0.0
 10
150.6010630467382
 20
89.85923720134566
 30
0.0
 10
150.5022718635369
 20
90.06343296516123
 30
0.0
 10
150.42956421612
 20
90.15583715636323
 30
0.0
 10
150.2457924382534
 20
90.31138988466823
 30
0.0
 10
150.1367224075612
 20
90.37339935130072
 30
0.0
 10
149.8910980591025
 20
90.46128946002602
 30
0.0
 10
149.7605429335151
 20
90.48509771244804
 30
0.0
 10
149.6271032034953
 20
90.48828227807911
 30
0.0
  0
SPLINE
  5
128
330
1F
100
AcDbEntity
  8
0
  6
Continuous
 62
     7
370
    25
100
AcDbSpline
210
0.0
220
0.0
230
1.0
 70
     8
 71
     3
 72
    10
 73
     6
 74
     0
 42
0.000000001
 43
0.00000001
 40
0.0
 40
0.0
 40
0.0
 40
0.0
 40
0.5
 40
0.5
 40
1.0
 40
1.0
 40
1.0
 40
1.0
 10
149.6271032034953
 20
90.4882822780791
 30
0.0
 10
149.3191233448674
 20
90.49563227850783
 30
0.0
 10
149.0191033347439
 20
90.51501511527046
 30
0.0
 10
148.4342919907496
 20
90.5778285707014
 30
0.0
 10
148.1476401844017
 20
90.62176910882226
 30
0.0
 10
147.8771032034953
 20
90.67816714797651
 30
0.0
  0
SPLINE
  5
129
330
1F
100
AcDbEntity
  8
0
  6
Continuous
 62
     7
370
    25
100
AcDbSpline
210
0.0
220
0.0
230
1.0
 70
     8
 71
     3
 72
    16
 73
    12
 74
     0
 42
0.000000001
 43
0.00000001
 40
0.0
 40
0.0
 40
0.0
 40
0.0
 40
0.2499999999999992
 40
0.2499999999999992
 40
0.4999999999999984
 40
0.4999999999999984
 40
0.7499999999999977
 40
0.7499999999999977
 40
0.8749999999999988
 40
0.8749999999999988
 40
1.0
 40
1.0
 40
1.0
 40
1.0
 10
147.8771032034953
 20
90.67816714797651
 30
0.0
 10
147.7433260347499
 20
90.70605527615612
 30
0.0
 10
147.6197475449117
 20
90.71316538941159
 30
0.0
 10
147.3886875976216
 20
90.69408370898385
 30
0.0
 10
147.2843702745803
 20
90.66774230902593
 30
0.0
 10
147.1025430714108
 20
90.57953109064547
 30
0.0
 10
147.0257783050146
 20
90.5185421436572
 30
0.0
 10
146.9402726628846
 20
90.3901133915945
 30
0.0
 10
146.9175220129845
 20
90.34197613795786
 30
0.0
 10
146.8857917387586
 20
90.23261121304542
 30
0.0
 10
146.8771032034953
 20
90.17117736049768
 30
0.0
 10
146.8771032034952
 20
90.1057000363204
 30
0.0
  0
LINE
  5
12A
330
1F
100
AcDbEntity
  8
0
  6
Continuous
 62
     7
370
    25
100
AcDbLine
 10
146.8771030753
 20
90.1056992195
 30
0.0
 11
146.8771030753
 21
90.0207309357
 31
0.0
  0
SPLINE
  5
12B
330
1F
100
AcDbEntity
  8
0
  6
Continuous
 62
     7
370
    25
100
AcDbSpline
210
0.0
220
0.0
230
1.0
 70
     8
 71
     3
 72
     8
 73
     4
 74
     0
 42
0.000000001
 43
0.00000001
 40
0.0
 40
0.0
 40
0.0
 40
0.0
 40
1.0
 40
1.0
 40
1.0
 40
1.0
 10
146.8771032034954
 20
90.02073090956891
 30
0.0
 10
146.7503431904661
 20
89.88266059942187
 30
0.0
 10
146.6274907767345
 20
89.75658154858829
 30
0.0
 10
146.5095795373473
 20
89.64607683938752
 30
0.0
  0
LINE
  5
12C
330
1F
100
AcDbEntity
  8
0
  6
Continuous
 62
     7
370
    25
100
AcDbLine
 10
99.5172993838
 20
125.1650823585
 30
0.0
 11
99.6537679433
 21
125.0862924687
 31
0.0
  0
LINE
  5
12D
330
1F
100
AcDbEntity
  8
0
  6
Continuous
 62
     7
370
    25
100
AcDbLine
 10
99.6537679433
 20
105.9496904097
 30
0.0
 11
99.5785468816
 21
105.9062600441
 31
0.0
  0
LINE
  5
12E
330
1F
100
AcDbEntity
  8
0
  6
Continuous
 62
     7
370
    25
100
AcDbLine
 10
150.6271032244
 20
143.1424429945
 30
0.0
 11
150.6271032244
 21
145.3893369369
 31
0.0
  0
LINE
  5
12F
330
1F
100
AcDbEntity
  8
0
  6
Continuous
 62
     7
370
    25
100
AcDbLine
 10
146.8771030753
 20
87.4941459231
 30
0.0
 11
146.8771030753
 21
90.0207309357
 31
0.0
  0
LINE
  5
130
330
1F
100
AcDbEntity
  8
0
  6
Continuous
 62
     7
370
    25
100
AcDbLine
 10
150.6271032244
 20
87.4941459231
 30
0.0
 11
150.6271032244
 21
89.5469876311
 31
0.0
  0
LINE
  5
131
330
1F
100
AcDbEntity
  8
0
  6
Continuous
 62
     7
370
    25
100
AcDbLine
 10
107.7306760102
 20
107.7887339822
 30
0.0
 11
108.2021040469
 21
108.3792418546
 31
0.0
  0
LINE
  5
132
330
1F
100
AcDbEntity
  8
0
  6
Continuous
 62
     7
370
    25
100
AcDbLine
 10
113.3916588127
 20
124.5042410053
 30
0.0
 11
113.2238326221
 21
124.5042410053
 31
0.0
  0
LINE
  5
133
330
1F
100
AcDbEntity
  8
0
  6
Continuous
 62
     7
370
    25
100
AcDbLine
 10
113.2243243605
 20
108.3792418546
 30
0.0
 11
113.3936350792
 21
108.3792418546
 31
0.0
  0
DIMENSION
  5
134
330
1F
100
AcDbEntity
  8
VERMASSUNG
100
AcDbDimension
  2
_D
 10
215.7628427009
 20
105.44174143
 30
0.0
 11
215.7628427009
 21
116.44174143
 31
0.0
 70
   160
  1
%%c<>
 71
     2
 42
-1.0
  3
SLDDIMSTYLE0
100
AcDbAlignedDimension
 13
198.3521032035
 23
127.44174143
 33
0.0
 14
198.3521032035
 24
105.44174143
 34
0.0
 50
90.0
100
AcDbRotatedDimension
  0
DIMENSION
  5
140
330
1F
100
AcDbEntity
  8
VERMASSUNG
100
AcDbDimension
  2
_D_1
 10
175.7128100653
 20
106.94174143
 30
0.0
 11
175.7128100653
 21
136.6494150215
 31
0.0
 70
   160
  1
%%c<>
 71
     2
 42
-1.0
  3
SLDDIMSTYLE0
100
AcDbAlignedDimension
 13
171.8187327506
 23
125.94174143
 33
0.0
 14
171.8187327506
 24
106.94174143
 34
0.0
 50
90.0
100
AcDbRotatedDimension
  0
DIMENSION
  5
14A
330
1F
100
AcDbEntity
  8
VERMASSUNG
100
AcDbDimension
  2
_D_2
 10
198.8521032035
 20
154.676575883
 30
0.0
 11
177.8521032035
 21
154.676575883
 31
0.0
 70
   160
  1
<>
 71
     2
 42
-1.0
  3
SLDDIMSTYLE0
100
AcDbAlignedDimension
 13
156.8521032035
 23
146.91674143
 33
0.0
 14
198.8521032035
 24
124.9235505097
 34
0.0
100
AcDbRotatedDimension
  0
DIMENSION
  5
154
330
1F
100
AcDbEntity
  8
VERMASSUNG
100
AcDbDimension
  2
_D_3
 10
198.8521032035
 20
162.58808349
 30
0.0
 11
168.8521032035
 21
162.58808349
 31
0.0
 70
   160
  1
<>
 71
     2
 42
-1.0
  3
SLDDIMSTYLE0
100
AcDbAlignedDimension
 13
138.8521032035
 23
147.71674143
 33
0.0
 14
198.8521032035
 24
124.9235505097
 34
0.0
100
AcDbRotatedDimension
  0
DIMENSION
  5
15E
330
1F
100
AcDbEntity
  8
VERMASSUNG
100
AcDbDimension
  2
_D_4
 10
198.8521032035
 20
171.4195338419
 30
0.0
 11
148.8771032035
 21
171.4195338419
 31
0.0
 70
   160
  1
<>
 71
     2
 42
-1.0
  3
SLDDIMSTYLE0
100
AcDbAlignedDimension
 13
98.9021032035
 23
138.6448361538
 33
0.0
 14
198.8521032035
 24
124.9235505097
 34
0.0
100
AcDbRotatedDimension
  0
DIMENSION
  5
168
330
1F
100
AcDbEntity
  8
VERMASSUNG
100
AcDbDimension
  2
_D_5
 10
88.9020782035
 20
84.96674143
 30
0.0
 11
88.9020782035
 21
116.44174143
 31
0.0
 70
   160
  1
KM%%c<> XMZ
 71
     2
 42
-1.0
  3
SLDDIMSTYLE1
100
AcDbAlignedDimension
 13
139.0521032035
 23
147.91674143
 33
0.0
 14
139.0521032035
 24
84.96674143
 34
0.0
 50
90.0
100
AcDbRotatedDimension
  0
LINE
  5
176
330
1F
100
AcDbEntity
  8
VERMASSUNG
  6
CENTERX2
370
    18
100
AcDbLine
 10
200.8521032035
 20
116.44174143
 30
0.0
 11
96.9021032035
 21
116.44174143
 31
0.0
  0
LINE
  5
177
330
1F
100
AcDbEntity
  8
0
  6
Continuous
 62
     7
370
    25
100
AcDbLine
 10
252.6777215416
 20
40.3665198353
 30
0.0
 11
256.5952776962
 21
38.1049628059
 31
0.0
  0
LINE
  5
178
330
1F
100
AcDbEntity
  8
0
  6
Continuous
 62
     7
370
    25
100
AcDbLine
 10
262.0948306268
 20
47.6315002011
 30
0.0
 11
258.1772744723
 21
49.8930572305
 31
0.0
  0
LINE
  5
179
330
1F
100
AcDbEntity
  8
0
  6
Continuous
 62
     7
370
    25
100
AcDbLine
 10
255.4268659209
 20
49.6203980784
 30
0.0
 11
255.1440696588
 21
49.4570894309
 31
0.0
  0
LINE
  5
17A
330
1F
100
AcDbEntity
  8
0
  6
Continuous
 62
     7
370
    25
100
AcDbLine
 10
251.5384110608
 20
43.2112291176
 30
0.0
 11
251.5384107315
 21
42.8846662375
 31
0.0
  0
LINE
  5
17B
330
1F
100
AcDbEntity
  8
0
  6
Continuous
 62
     7
370
    25
100
AcDbLine
 10
261.4738939973
 20
37.1490337752
 30
0.0
 11
261.6506410026
 21
37.2511019651
 31
0.0
  0
SPLINE
  5
17C
330
1F
100
AcDbEntity
  8
0
  6
Continuous
 62
     7
370
    25
100
AcDbSpline
210
0.0
220
0.0
230
1.0
 70
     8
 71
     3
 72
    21
 73
    17
 74
     0
 42
0.000000001
 43
0.00000001
 40
0.0
 40
0.0
 40
0.0
 40
0.0
 40
0.071804629117966
 40
0.1479069435141519
 40
0.2244577028393506
 40
0.3013821108042791
 40
0.3785788184782781
 40
0.4559481096727484
 40
0.5334079349293929
 40
0.6108968774476027
 40
0.6883695491702593
 40
0.7658082161317922
 40
0.8432053953152733
 40
0.920560175339224
 40
0.9978758651878464
 40
1.0
 40
1.0
 40
1.0
 40
1.0
 10
240.9311533404541
 20
35.94106156093337
 30
0.0
 10
241.1738763573754
 20
35.92307518460517
 30
0.0
 10
241.6738499662411
 20
35.88602590268177
 30
0.0
 10
242.4643911651194
 20
35.93791001224812
 30
0.0
 10
243.2904675533386
 20
36.06998064285849
 30
0.0
 10
244.136576329588
 20
36.28991692858308
 30
0.0
 10
244.9965343497451
 20
36.5940972024464
 30
0.0
 10
245.8650293401926
 20
36.98124018471507
 30
0.0
 10
246.7364944683515
 20
37.44857185540544
 30
0.0
 10
247.6055007551375
 20
37.99302092685135
 30
0.0
 10
248.4668949409962
 20
38.61082929299482
 30
0.0
 10
249.3152607920839
 20
39.29855680094778
 30
0.0
 10
250.1470313956958
 20
40.04994064300542
 30
0.0
 10
250.9525458980579
 20
40.86774331345899
 30
0.0
 10
251.4885562555868
 20
41.44356879817156
 30
0.0
 10
251.745168844324
 20
41.7584908141605
 30
0.0
 10
251.7520303868224
 20
41.76691148754607
 30
0.0
  0
SPLINE
  5
17D
330
1F
100
AcDbEntity
  8
0
  6
Continuous
 62
     7
370
    25
100
AcDbSpline
210
0.0
220
0.0
230
1.0
 70
     8
 71
     3
 72
    22
 73
    18
 74
     0
 42
0.000000001
 43
0.00000001
 40
0.0
 40
0.0
 40
0.0
 40
0.0
 40
0.0694001977321326
 40
0.1392334775119246
 40
0.2091093677793081
 40
0.2790338450436795
 40
0.3490106730892529
 40
0.4190398892772351
 40
0.4891153670144755
 40
0.5592214012318408
 40
0.629316402333912
 40
0.6993425872016641
 40
0.7692210126291505
 40
0.8388534340853709
 40
0.9081369285719124
 40
0.9769918706067805
 40
1.0
 40
1.0
 40
1.0
 40
1.0
 10
256.5131297017926
 20
50.02509875978619
 30
0.0
 10
256.6372331154654
 20
50.39324375694034
 30
0.0
 10
256.8862143924853
 20
51.13183110765989
 30
0.0
 10
257.1824100126551
 20
52.23652916580944
 30
0.0
 10
257.4198901416799
 20
53.3324185798834
 30
0.0
 10
257.5909610101317
 20
54.4112273440178
 30
0.0
 10
257.6958106858044
 20
55.46669913245651
 30
0.0
 10
257.733064977361
 20
56.49273510581663
 30
0.0
 10
257.7021774615984
 20
57.48332878725995
 30
0.0
 10
257.6028165135304
 20
58.43253382620103
 30
0.0
 10
257.4350550431372
 20
59.33441607760938
 30
0.0
 10
257.1995621647933
 20
60.18326014252077
 30
0.0
 10
256.8971238876877
 20
60.97285356832236
 30
0.0
 10
256.5309489431245
 20
61.69951377021263
 30
0.0
 10
256.0986478549735
 20
62.35129849293292
 30
0.0
 10
255.7269372764617
 20
62.81753884748193
 30
0.0
 10
255.4815373736089
 20
63.03920456848898
 30
0.0
 10
255.4200742347203
 20
63.09472321718737
 30
0.0
  0
SPLINE
  5
17E
330
1F
100
AcDbEntity
  8
0
  6
Continuous
 62
     7
370
    25
100
AcDbSpline
210
0.0
220
0.0
230
1.0
 70
     8
 71
     3
 72
    10
 73
     6
 74
     0
 42
0.000000001
 43
0.00000001
 40
0.0
 40
0.0
 40
0.0
 40
0.0
 40
0.2675001301944556
 40
0.9644790417704533
 40
0.9999999999999999
 40
0.9999999999999999
 40
0.9999999999999999
 40
0.9999999999999999
 10
239.8822447215634
 20
36.14826317387441
 30
0.0
 10
239.9719887783432
 20
36.12044443406604
 30
0.0
 10
240.2955634316513
 20
36.02014320619694
 30
0.0
 10
240.6487799101413
 20
35.95477933198573
 30
0.0
 10
240.9180935711651
 20
35.94169600775403
 30
0.0
 10
240.9311533404541
 20
35.94106156093337
 30
0.0
  0
LINE
  5
17F
330
1F
100
AcDbEntity
  8
0
  6
Continuous
 62
     7
370
    25
100
AcDbLine
 10
237.2477196367
 20
37.4531433978
 30
0.0
 11
238.5791319957
 21
36.6845354032
 31
0.0
  0
LINE
  5
180
330
1F
100
AcDbEntity
  8
0
  6
Continuous
 62
     7
370
    25
100
AcDbLine
 10
254.3153533102
 20
63.943423797
 30
0.0
 11
252.9839409512
 21
64.7120317916
 31
0.0
  0
LINE
  5
181
330
1F
100
AcDbEntity
  8
0
  6
Continuous
 62
     7
370
    25
100
AcDbLine
 10
232.6394347053
 20
40.1134496625
 30
0.0
 11
234.8900856817
 21
38.8141765096
 31
0.0
  0
LINE
  5
182
330
1F
100
AcDbEntity
  8
0
  6
Continuous
 62
     7
370
    25
100
AcDbLine
 10
250.6263069963
 20
66.0730649034
 30
0.0
 11
248.3756560198
 21
67.3723380563
 31
0.0
  0
LINE
  5
183
330
1F
100
AcDbEntity
  8
0
  6
Continuous
 62
     7
370
    25
100
AcDbLine
 10
249.7174910445
 20
42.9414263324
 30
0.0
 11
251.6662612208
 21
41.8164252559
 31
0.0
  0
LINE
  5
184
330
1F
100
AcDbEntity
  8
0
  6
Continuous
 62
     7
370
    25
100
AcDbLine
 10
256.4158751903
 20
50.0438895859
 30
0.0
 11
254.4671050139
 21
51.1688906624
 31
0.0
  0
SPLINE
  5
185
330
1F
100
AcDbEntity
  8
0
  6
Continuous
 62
     7
370
    25
100
AcDbSpline
210
0.0
220
0.0
230
1.0
 70
     8
 71
     3
 72
    14
 73
    10
 74
     0
 42
0.000000001
 43
0.00000001
 40
0.0
 40
0.0
 40
0.0
 40
0.0
 40
0.0745141146653701
 40
0.2285692569165918
 40
0.3927953009884775
 40
0.5660821138372125
 40
0.7462173347239035
 40
0.9302903409424561
 40
1.0
 40
1.0
 40
1.0
 40
1.0
 10
245.5484313093285
 20
44.01324248418562
 30
0.0
 10
245.6311100366944
 20
44.01831627891033
 30
0.0
 10
245.8847239373856
 20
44.03387995426475
 30
0.0
 10
246.4016340132303
 20
44.01105611127635
 30
0.0
 10
247.085208736919
 20
43.9245176536316
 30
0.0
 10
247.8431155835409
 20
43.75194000261441
 30
0.0
 10
248.6346703749381
 20
43.47912589883663
 30
0.0
 10
249.2707097209181
 20
43.20195731495517
 30
0.0
 10
249.6167082881291
 20
42.99022648629942
 30
0.0
 10
249.711748042434
 20
42.93206773120279
 30
0.0
  0
SPLINE
  5
186
330
1F
100
AcDbEntity
  8
0
  6
Continuous
 62
     7
370
    25
100
AcDbSpline
210
0.0
220
0.0
230
1.0
 70
     8
 71
     3
 72
    14
 73
    10
 74
     0
 42
0.000000001
 43
0.00000001
 40
0.0
 40
0.0
 40
0.0
 40
0.0
 40
0.015578681957393
 40
0.2007491720555177
 40
0.3826686877135198
 40
0.5588544525387668
 40
0.7273388275078934
 40
0.8864849098277917
 40
1.0
 40
1.0
 40
1.0
 40
1.0
 10
254.4683613522157
 20
51.17230160839947
 30
0.0
 10
254.4463475530522
 20
51.1836538306904
 30
0.0
 10
254.1626745203804
 20
51.32994022591485
 30
0.0
 10
253.6628189804532
 20
51.68533469244618
 30
0.0
 10
253.0028027359842
 20
52.22051880759237
 30
0.0
 10
252.4431381993228
 20
52.79066919346048
 30
0.0
 10
251.9914486642743
 20
53.35094358946348
 30
0.0
 10
251.6623695352907
 20
53.84229728625055
 30
0.0
 10
251.517524413189
 20
54.11954329197794
 30
0.0
 10
251.4572220718396
 20
54.23496715322074
 30
0.0
  0
LINE
  5
187
330
1F
100
AcDbEntity
  8
0
  6
Continuous
 62
     7
370
    25
100
AcDbLine
 10
241.5982668296
 20
67.1522199639
 30
0.0
 11
232.401054646
 21
71.7328725738
 31
0.0
  0
LINE
  5
188
330
1F
100
AcDbEntity
  8
0
  6
Continuous
 62
     7
370
    25
100
AcDbLine
 10
220.8747068563
 20
51.7664891181
 30
0.0
 11
229.440806862
 21
46.0925995217
 31
0.0
  0
LINE
  5
189
330
1F
100
AcDbEntity
  8
0
  6
Continuous
 62
     7
370
    25
100
AcDbLine
 10
225.854144298
 20
52.7129789838
 30
0.0
 11
225.854144298
 21
52.3476602788
 31
0.0
  0
LINE
  5
18A
330
1F
100
AcDbEntity
  8
0
  6
Continuous
 62
     7
370
    25
100
AcDbLine
 10
229.7521110584
 20
72.1098409505
 30
0.0
 11
229.1125609496
 21
72.022629195
 31
0.0
  0
ARC
  5
18B
330
1F
100
AcDbEntity
  8
0
  6
Continuous
 62
     7
370
    25
100
AcDbCircle
 10
262.7731939543
 20
44.2817889389
 30
0.0
 40
2.570692559522028
100
AcDbArc
 50
0.7037143879
 51
55.2254060532
  0
LINE
  5
18C
330
1F
100
AcDbEntity
  8
0
  6
Continuous
 62
     7
370
    25
100
AcDbLine
 10
264.2393869086
 20
46.3933614469
 30
0.0
 11
262.1227932498
 21
47.6152449576
 31
0.0
  0
ELLIPSE
  5
18D
330
1F
100
AcDbEntity
  8
0
  6
Continuous
 62
     7
370
    25
100
AcDbEllipse
 10
270.064608818
 20
36.6799643213
 30
0.0
 11
-9.096703821521658
 21
11.2034451414406
 31
0.0
210
0.0
220
0.0
230
1.0
 40
0.1422875476
 41
5.921018261252179
 42
6.286688535237924
  0
LINE
  5
18E
330
1F
100
AcDbEntity
  8
0
  6
Continuous
 62
     7
370
    25
100
AcDbLine
 10
263.0789704055
 20
46.6569225298
 30
0.0
 11
260.9623767467
 21
47.8788060405
 31
0.0
  0
ARC
  5
18F
330
1F
100
AcDbEntity
  8
0
  6
Continuous
 62
     7
370
    25
100
AcDbCircle
 10
263.6248209707
 20
42.1937988393
 30
0.0
 40
4.496379200711569
100
AcDbArc
 50
96.9727807355
 51
134.223123986
  0
LINE
  5
190
330
1F
100
AcDbEntity
  8
0
  6
Continuous
 62
     7
370
    25
100
AcDbLine
 10
260.488801586
 20
45.4160353817
 30
0.0
 11
258.3722079272
 21
46.6379188924
 31
0.0
  0
ELLIPSE
  5
191
330
1F
100
AcDbEntity
  8
0
  6
Continuous
 62
     7
370
    25
100
AcDbEllipse
 10
270.064608818
 20
36.6799643213
 30
0.0
 11
12.64990456530279
 21
-9.264434800649095
 31
0.0
210
0.0
220
0.0
230
1.0
 40
0.3355941499
 41
2.926080317663634
 42
3.291750591649495
  0
LINE
  5
192
330
1F
100
AcDbEntity
  8
0
  6
Continuous
 62
     7
370
    25
100
AcDbLine
 10
259.208539696
 20
43.98320426
 30
0.0
 11
257.0919460372
 21
45.2050877707
 31
0.0
  0
ARC
  5
193
330
1F
100
AcDbEntity
  8
0
  6
Continuous
 62
     7
370
    25
100
AcDbCircle
 10
266.5370799618
 20
38.7113450582
 30
0.0
 40
9.027735146346021
100
AcDbArc
 50
144.2702675815
 51
167.519419608
  0
LINE
  5
194
330
1F
100
AcDbEntity
  8
0
  6
Continuous
 62
     7
370
    25
100
AcDbLine
 10
257.722676424
 20
40.6623171605
 30
0.0
 11
255.6060827652
 21
41.8842006712
 31
0.0
  0
ELLIPSE
  5
195
330
1F
100
AcDbEntity
  8
0
  6
Continuous
 62
     7
370
    25
100
AcDbEllipse
 10
270.064608818
 20
36.6799643213
 30
0.0
 11
14.70157946333472
 21
-4.757099867870534
 31
0.0
210
0.0
220
0.0
230
1.0
 40
0.2945880084
 41
3.03147408055598
 42
3.397144354541844
  0
LINE
  5
196
330
1F
100
AcDbEntity
  8
0
  6
Continuous
 62
     7
370
    25
100
AcDbLine
 10
257.6028312017
 20
38.9659249084
 30
0.0
 11
255.4862375429
 21
40.1878084191
 31
0.0
  0
ARC
  5
197
330
1F
100
AcDbEntity
  8
0
  6
Continuous
 62
     7
370
    25
100
AcDbCircle
 10
260.1733298681
 20
38.9974977026
 30
0.0
 40
2.570692559522028
100
AcDbArc
 50
180.7037143879
 51
235.2254060532
  0
LINE
  5
198
330
1F
100
AcDbEntity
  8
0
  6
Continuous
 62
     7
370
    25
100
AcDbLine
 10
258.7071369139
 20
36.8859251947
 30
0.0
 11
256.5905432551
 21
38.1078087054
 31
0.0
  0
ELLIPSE
  5
199
330
1F
100
AcDbEntity
  8
0
  6
Continuous
 62
     7
370
    25
100
AcDbEllipse
 10
270.064608818
 20
36.6799643213
 30
0.0
 11
13.49507481009408
 21
-1.453250875982526
 31
0.0
210
0.0
220
0.0
230
1.0
 40
0.0287563541
 41
3.200581581844621
 42
3.212506040199845
  0
LINE
  5
19A
330
1F
100
AcDbEntity
  8
0
  6
Continuous
 62
     7
370
    25
100
AcDbLine
 10
259.8675534169
 20
36.6223641117
 30
0.0
 11
259.0283991264
 21
37.1067975722
 31
0.0
  0
ARC
  5
19B
330
1F
100
AcDbEntity
  8
0
  6
Continuous
 62
     7
370
    25
100
AcDbCircle
 10
259.5686735857
 20
40.2469478517
 30
0.0
 40
3.63688554142262
100
AcDbArc
 50
274.7138923855
 51
301.5915593749
  0
LINE
  5
19C
330
1F
100
AcDbEntity
  8
0
  6
Continuous
 62
     7
370
    25
100
AcDbLine
 10
263.7379841265
 20
39.2960823815
 30
0.0
 11
263.2988995758
 21
39.5495604972
 31
0.0
  0
LINE
  5
19D
330
1F
100
AcDbEntity
  8
0
  6
Continuous
 62
     7
370
    25
100
AcDbLine
 10
265.2238473985
 20
42.616969481
 30
0.0
 11
264.6430282646
 21
42.95226923
 31
0.0
  0
LWPOLYLINE
  5
19E
330
1F
100
AcDbEntity
  8
0
  6
Continuous
 62
     7
370
    25
100
AcDbPolyline
 90
       14
 70
   128
 43
0.0
 10
252.2363523354
 20
45.8545817249
 10
252.576785931
 20
46.5389831133
 10
252.9727053587
 20
47.1959561478
 10
253.4164043308
 20
47.8127137978
 10
253.8992471884
 20
48.3772509706
 10
254.4118355136
 20
48.8785800494
 10
254.9441926453
 20
49.3069434967
 10
255.4859567457
 20
49.6540032567
 10
256.0265830252
 20
49.9130042654
 10
256.5555487761
 20
50.0789053621
 10
257.0625583239
 20
50.1484774525
 10
257.5377432967
 20
50.1203666506
 10
257.9718546839
 20
49.9951195989
 10
258.1772744723
 20
49.8930572305
  0
LWPOLYLINE
  5
19F
330
1F
100
AcDbEntity
  8
0
  6
Continuous
 62
     7
370
    25
100
AcDbPolyline
 90
       11
 70
   128
 43
0.0
 10
252.6777215416
 20
40.3665198353
 10
252.3272107334
 20
40.6286185984
 10
252.0306006406
 20
40.9820297335
 10
251.8001074286
 20
41.4161724394
 10
251.6402171026
 20
41.9225963168
 10
251.5540419439
 20
42.491444524
 10
251.5432592654
 20
43.1116451579
 10
251.6080784843
 20
43.7711264447
 10
251.747238817
 20
44.4570528159
 10
251.9580310115
 20
45.1560730549
 10
252.2363523354
 20
45.8545817249
  0
ARC
  5
1A0
330
1F
100
AcDbEntity
  8
0
  6
Continuous
 62
     7
370
    25
100
AcDbCircle
 10
256.8080627693
 20
44.3384656968
 30
0.0
 40
8.627244125373345
100
AcDbArc
 50
324.576602925
 51
347.2130829281
  0
LINE
  5
1A1
330
1F
100
AcDbEntity
  8
0
  6
Continuous
 62
     7
370
    25
100
AcDbLine
 10
263.566813427
 20
39.8494015464
 30
0.0
 11
263.8383278702
 21
39.337994338
 31
0.0
  0
LINE
  5
1A2
330
1F
100
AcDbEntity
  8
0
  6
Continuous
 62
     7
370
    25
100
AcDbLine
 10
262.2865515781
 20
38.4165704485
 30
0.0
 11
263.566813427
 21
39.8494015464
 31
0.0
  0
LINE
  5
1A3
330
1F
100
AcDbEntity
  8
0
  6
Continuous
 62
     7
370
    25
100
AcDbLine
 10
262.2865515781
 20
38.4165704485
 30
0.0
 11
262.5580660626
 21
37.9051632639
 31
0.0
  0
ARC
  5
1A4
330
1F
100
AcDbEntity
  8
0
  6
Continuous
 62
     7
370
    25
100
AcDbCircle
 10
259.5894951984
 20
41.0079196705
 30
0.0
 40
4.294125090718119
100
AcDbArc
 50
277.4620336848
 51
313.7338824892
  0
LINE
  5
1A5
330
1F
100
AcDbEntity
  8
0
  6
Continuous
 62
     7
370
    25
100
AcDbLine
 10
260.5124973345
 20
37.5666638081
 30
0.0
 11
260.1471697687
 21
36.7501609446
 31
0.0
  0
LINE
  5
1A6
330
1F
100
AcDbEntity
  8
0
  6
Continuous
 62
     7
370
    25
100
AcDbLine
 10
259.3520808314
 20
37.8302250812
 30
0.0
 11
260.5124973345
 21
37.5666638081
 31
0.0
  0
LINE
  5
1A7
330
1F
100
AcDbEntity
  8
0
  6
Continuous
 62
     7
370
    25
100
AcDbLine
 10
259.3520808314
 20
37.8302250812
 30
0.0
 11
258.9867532656
 21
37.0137222176
 31
0.0
  0
ARC
  5
1A8
330
1F
100
AcDbEntity
  8
0
  6
Continuous
 62
     7
370
    25
100
AcDbCircle
 10
260.4087445276
 20
39.0095566183
 30
0.0
 40
2.45059464298866
100
AcDbArc
 50
181.3982131244
 51
234.5309037423
  0
LINE
  5
1A9
330
1F
100
AcDbEntity
  8
0
  6
Continuous
 62
     7
370
    25
100
AcDbLine
 10
258.5957213905
 20
39.2548551696
 30
0.0
 11
257.9588795461
 21
38.949759657
 31
0.0
  0
LINE
  5
1AA
330
1F
100
AcDbEntity
  8
0
  6
Continuous
 62
     7
370
    25
100
AcDbLine
 10
258.7155669421
 20
40.9512476119
 30
0.0
 11
258.5957213905
 21
39.2548551696
 31
0.0
  0
LINE
  5
1AB
330
1F
100
AcDbEntity
  8
0
  6
Continuous
 62
     7
370
    25
100
AcDbLine
 10
258.7155669421
 20
40.9512476119
 30
0.0
 11
258.0787247684
 21
40.6461519567
 31
0.0
  0
ARC
  5
1AC
330
1F
100
AcDbEntity
  8
0
  6
Continuous
 62
     7
370
    25
100
AcDbCircle
 10
266.492012526
 20
38.7367200239
 30
0.0
 40
8.627244125373565
100
AcDbArc
 50
144.576602925
 51
167.2130829281
  0
LINE
  5
1AD
330
1F
100
AcDbEntity
  8
0
  6
Continuous
 62
     7
370
    25
100
AcDbLine
 10
259.7332618684
 20
43.2257841743
 30
0.0
 11
259.4617474251
 21
43.7371913826
 31
0.0
  0
LINE
  5
1AE
330
1F
100
AcDbEntity
  8
0
  6
Continuous
 62
     7
370
    25
100
AcDbLine
 10
261.0135237172
 20
44.6586152721
 30
0.0
 11
259.7332618684
 21
43.2257841743
 31
0.0
  0
LINE
  5
1AF
330
1F
100
AcDbEntity
  8
0
  6
Continuous
 62
     7
370
    25
100
AcDbLine
 10
261.0135237172
 20
44.6586152721
 30
0.0
 11
260.7420092328
 21
45.1700224568
 31
0.0
  0
ARC
  5
1B0
330
1F
100
AcDbEntity
  8
0
  6
Continuous
 62
     7
370
    25
100
AcDbCircle
 10
263.710580097
 20
42.0672660501
 30
0.0
 40
4.29412509071835
100
AcDbArc
 50
97.4620336848
 51
133.7338824892
  0
LINE
  5
1B1
330
1F
100
AcDbEntity
  8
0
  6
Continuous
 62
     7
370
    25
100
AcDbLine
 10
262.7875779609
 20
45.5085219125
 30
0.0
 11
263.1529055267
 21
46.3250247761
 31
0.0
  0
LINE
  5
1B2
330
1F
100
AcDbEntity
  8
0
  6
Continuous
 62
     7
370
    25
100
AcDbLine
 10
263.947994464
 20
45.2449606394
 30
0.0
 11
262.7875779609
 21
45.5085219125
 31
0.0
  0
LINE
  5
1B3
330
1F
100
AcDbEntity
  8
0
  6
Continuous
 62
     7
370
    25
100
AcDbLine
 10
263.947994464
 20
45.2449606394
 30
0.0
 11
264.3133220298
 21
46.061463503
 31
0.0
  0
ARC
  5
1B4
330
1F
100
AcDbEntity
  8
0
  6
Continuous
 62
     7
370
    25
100
AcDbCircle
 10
262.8913307677
 20
44.0656291023
 30
0.0
 40
2.450594642988659
100
AcDbArc
 50
1.3982131244
 51
54.5309037423
  0
LINE
  5
1B5
330
1F
100
AcDbEntity
  8
0
  6
Continuous
 62
     7
370
    25
100
AcDbLine
 10
264.7043539048
 20
43.820330551
 30
0.0
 11
265.3411957493
 21
44.1254260637
 31
0.0
  0
LINE
  5
1B6
330
1F
100
AcDbEntity
  8
0
  6
Continuous
 62
     7
370
    25
100
AcDbLine
 10
264.5845083533
 20
42.1239381088
 30
0.0
 11
264.7043539048
 21
43.820330551
 31
0.0
  0
LINE
  5
1B7
330
1F
100
AcDbEntity
  8
0
  6
Continuous
 62
     7
370
    25
100
AcDbLine
 10
264.5845083533
 20
42.1239381088
 30
0.0
 11
265.221350527
 21
42.429033764
 31
0.0
  0
LWPOLYLINE
  5
1B8
330
1F
100
AcDbEntity
  8
0
  6
Continuous
 62
     7
370
    25
100
AcDbPolyline
 90
       35
 70
   128
 43
0.0
 10
259.8078764429
 20
41.9559962566
 10
260.0750408704
 20
42.4758784685
 10
260.3958401261
 20
42.9638086017
 10
260.7593495329
 20
43.403170759
 10
261.1531902237
 20
43.7790027351
 10
261.5639504561
 20
44.0785061583
 10
261.9776423023
 20
44.2914819969
 10
262.3801779621
 20
44.4106773926
 10
262.7578495331
 20
44.4320331577
 10
263.0977958881
 20
44.3548223084
 10
263.3884407201
 20
44.1816742333
 10
263.6198861874
 20
43.9184851119
 10
263.7842508294
 20
43.5742174539
 10
263.8759375117
 20
43.1605951041
 10
263.8918237455
 20
42.6917032927
 10
263.8313685365
 20
42.1835095812
 10
263.6966308241
 20
41.6533199867
 10
263.4921988525
 20
41.1191894641
 10
263.2250344249
 20
40.5993072521
 10
262.9042351692
 20
40.111377119
 10
262.5407257625
 20
39.6720149617
 10
262.1468850716
 20
39.2961829856
 10
261.7361248392
 20
38.9966795623
 10
261.322432993
 20
38.7837037237
 10
260.9198973332
 20
38.6645083281
 10
260.5422257622
 20
38.6431525629
 10
260.2022794073
 20
38.7203634122
 10
259.9116345753
 20
38.8935114874
 10
259.680189108
 20
39.1567006087
 10
259.5158244659
 20
39.5009682668
 10
259.4241377836
 20
39.9145906165
 10
259.4082515498
 20
40.3834824279
 10
259.4687067588
 20
40.8916761395
 10
259.6034444713
 20
41.4218657339
 10
259.8078764429
 20
41.9559962566
  0
LINE
  5
1B9
330
1F
100
AcDbEntity
  8
0
  6
Continuous
 62
     7
370
    25
100
AcDbLine
 10
259.4617474251
 20
43.7371913826
 30
0.0
 11
259.208539696
 21
43.98320426
 31
0.0
  0
LINE
  5
1BA
330
1F
100
AcDbEntity
  8
0
  6
Continuous
 62
     7
370
    25
100
AcDbLine
 10
258.0787247684
 20
40.6461519567
 30
0.0
 11
257.722676424
 21
40.6623171605
 31
0.0
  0
LINE
  5
1BB
330
1F
100
AcDbEntity
  8
0
  6
Continuous
 62
     7
370
    25
100
AcDbLine
 10
258.3722079272
 20
46.6379188924
 30
0.0
 11
261.0135237172
 21
44.6586152721
 31
0.0
  0
LINE
  5
1BC
330
1F
100
AcDbEntity
  8
0
  6
Continuous
 62
     7
370
    25
100
AcDbLine
 10
263.1529055267
 20
46.3250247761
 30
0.0
 11
263.0789704055
 21
46.6569225298
 31
0.0
  0
LINE
  5
1BD
330
1F
100
AcDbEntity
  8
0
  6
Continuous
 62
     7
370
    25
100
AcDbLine
 10
260.7420092328
 20
45.1700224568
 30
0.0
 11
260.488801586
 21
45.4160353817
 31
0.0
  0
LINE
  5
1BE
330
1F
100
AcDbEntity
  8
0
  6
Continuous
 62
     7
370
    25
100
AcDbLine
 10
255.4862375429
 20
40.1878084191
 30
0.0
 11
258.5957213905
 21
39.2548551696
 31
0.0
  0
ARC
  5
1BF
330
1F
100
AcDbEntity
  8
0
  6
Continuous
 62
     7
370
    25
100
AcDbCircle
 10
256.4776164606
 20
44.523568074
 30
0.0
 40
6.431322739273948
100
AcDbArc
 50
301.0071960012
 51
358.9981803433
  0
LWPOLYLINE
  5
1C0
330
1F
100
AcDbEntity
  8
0
  6
Continuous
 62
     7
370
    25
100
AcDbPolyline
 90
       17
 70
   128
 43
0.0
 10
263.0105318261
 20
44.3852578171
 10
263.1947206334
 20
44.1639279618
 10
263.3590852754
 20
43.8196603038
 10
263.4507719578
 20
43.406037954
 10
263.4666581916
 20
42.9371461426
 10
263.4062029825
 20
42.4289524311
 10
263.2714652701
 20
41.8987628366
 10
263.0670332985
 20
41.364632314
 10
262.799868871
 20
40.844750102
 10
262.4790696153
 20
40.3568199689
 10
262.1155602085
 20
39.9174578116
 10
261.7217195177
 20
39.5416258355
 10
261.3109592852
 20
39.2421224123
 10
260.897267439
 20
39.0291465736
 10
260.4947317793
 20
38.909951178
 10
260.1170602083
 20
38.8885954128
 10
259.8643787385
 20
38.9353703375
  0
LINE
  5
1C1
330
1F
100
AcDbEntity
  8
0
  6
Continuous
 62
     7
370
    25
100
AcDbLine
 10
257.9588795461
 20
38.949759657
 30
0.0
 11
257.6028312017
 21
38.9659249084
 31
0.0
  0
SPLINE
  5
1C2
330
1F
100
AcDbEntity
  8
0
  6
Continuous
 62
     7
370
    25
100
AcDbSpline
210
0.0
220
0.0
230
1.0
 70
     8
 71
     3
 72
     9
 73
     5
 74
     0
 42
0.000000001
 43
0.00000001
 40
0.0
 40
0.0
 40
0.0
 40
0.0
 40
0.6252444119020059
 40
1.0
 40
1.0
 40
1.0
 40
1.0
 10
258.9867532655882
 20
37.01372221763242
 30
0.0
 10
258.9284817949937
 20
36.98706761355901
 30
0.0
 10
258.8352838879269
 20
36.94443691816051
 30
0.0
 10
258.7420695193683
 20
36.90187537195368
 30
0.0
 10
258.70713691386
 20
36.88592519467457
 30
0.0
  0
ARC
  5
1C3
330
1F
100
AcDbEntity
  8
0
  6
Continuous
 62
     7
370
    25
100
AcDbCircle
 10
253.6770910013
 20
46.1402767837
 30
0.0
 40
8.258855087696102
100
AcDbArc
 50
313.9155072017
 51
346.0898711778
  0
SPLINE
  5
1C4
330
1F
100
AcDbEntity
  8
0
  6
Continuous
 62
     7
370
    25
100
AcDbSpline
210
0.0
220
0.0
230
1.0
 70
     8
 71
     3
 72
    15
 73
    11
 74
     0
 42
0.000000001
 43
0.00000001
 40
0.0
 40
0.0
 40
0.0
 40
0.0
 40
0.1008714356220301
 40
0.2304371331988271
 40
0.3637046022468872
 40
0.4942311168185874
 40
0.6285325388959686
 40
0.7591653226944888
 40
0.8936329267307812
 40
1.0
 40
1.0
 40
1.0
 40
1.0
 10
262.3331679270544
 20
42.86076538142922
 30
0.0
 10
262.2914187478201
 20
42.71067829904602
 30
0.0
 10
262.196044263291
 20
42.36780980727443
 30
0.0
 10
261.9836089092146
 20
41.81968422026947
 30
0.0
 10
261.7002043439098
 20
41.24176278426039
 30
0.0
 10
261.3593772225954
 20
40.68883544099673
 30
0.0
 10
260.9742637339347
 20
40.18787865677681
 30
0.0
 10
260.5449855997351
 20
39.75104560092766
 30
0.0
 10
260.1176382235394
 20
39.4099415180673
 30
0.0
 10
259.8320007343963
 20
39.25804261483469
 30
0.0
 10
259.7058460457276
 20
39.19095492650665
 30
0.0
  0
ARC
  5
1C5
330
1F
100
AcDbEntity
  8
0
  6
Continuous
 62
     7
370
    25
100
AcDbCircle
 10
258.3755942776
 20
43.9512190682
 30
0.0
 40
4.105055229128812
100
AcDbArc
 50
344.5952057138
 51
6.5886559841
  0
LINE
  5
1C6
330
1F
100
AcDbEntity
  8
0
  6
Continuous
 62
     7
370
    25
100
AcDbLine
 10
262.1227932498
 20
47.6152449576
 30
0.0
 11
262.686085057
 21
46.8837304439
 31
0.0
  0
LINE
  5
1C7
330
1F
100
AcDbEntity
  8
0
  6
Continuous
 62
     7
370
    25
100
AcDbLine
 10
263.1394564015
 20
46.2949630691
 30
0.0
 11
263.947994464
 21
45.2449606394
 31
0.0
  0
LINE
  5
1C8
330
1F
100
AcDbEntity
  8
0
  6
Continuous
 62
     7
370
    25
100
AcDbLine
 10
259.2891753429
 20
37.6896294104
 30
0.0
 11
260.5124973345
 21
37.5666638081
 31
0.0
  0
ARC
  5
1C9
330
1F
100
AcDbEntity
  8
0
  6
Continuous
 62
     7
370
    25
100
AcDbCircle
 10
259.1498196712
 20
43.0640724033
 30
0.0
 40
7.544315732817704
100
AcDbArc
 50
122.0705215495
 51
157.3849183235
  0
ARC
  5
1CA
330
1F
100
AcDbEntity
  8
0
  6
Continuous
 62
     7
370
    25
100
AcDbCircle
 10
258.3572798744
 20
43.0617738157
 30
0.0
 40
6.820506490335525
100
AcDbArc
 50
154.8060654098
 51
178.7443977256
  0
LINE
  5
1CB
330
1F
100
AcDbEntity
  8
0
  6
Continuous
 62
     7
370
    25
100
AcDbLine
 10
264.3133220298
 20
46.061463503
 30
0.0
 11
264.2393869086
 21
46.3933614469
 31
0.0
  0
LINE
  5
1CC
330
1F
100
AcDbEntity
  8
0
  6
Continuous
 62
     7
370
    25
100
AcDbLine
 10
265.3411957493
 20
44.1254260637
 30
0.0
 11
265.3436926208
 21
44.3133617332
 31
0.0
  0
ARC
  5
1CD
330
1F
100
AcDbEntity
  8
0
  6
Continuous
 62
     7
370
    25
100
AcDbCircle
 10
256.3568632904
 20
44.3544635421
 30
0.0
 40
5.819424379109368
100
AcDbArc
 50
302.9892509929
 51
0.0710257489
  0
SPLINE
  5
1CE
330
1F
100
AcDbEntity
  8
0
  6
Continuous
 62
     7
370
    25
100
AcDbSpline
210
0.0
220
0.0
230
1.0
 70
     8
 71
     3
 72
     9
 73
     5
 74
     0
 42
0.000000001
 43
0.00000001
 40
0.0
 40
0.0
 40
0.0
 40
0.0
 40
0.6252446507060239
 40
0.9999999999999999
 40
0.9999999999999999
 40
0.9999999999999999
 40
0.9999999999999999
 10
260.1471697686569
 20
36.75016094455569
 30
0.0
 10
260.0888983166321
 20
36.72350631590568
 30
0.0
 10
259.9957004748611
 20
36.68087559748225
 30
0.0
 10
259.9024860291066
 20
36.63831421679824
 30
0.0
 10
259.8675534169287
 20
36.62236411171357
 30
0.0
  0
LINE
  5
1CF
330
1F
100
AcDbEntity
  8
0
  6
Continuous
 62
     7
370
    25
100
AcDbLine
 10
265.221350527
 20
42.429033764
 30
0.0
 11
265.2238473985
 21
42.616969481
 31
0.0
  0
LINE
  5
1D0
330
1F
100
AcDbEntity
  8
0
  6
Continuous
 62
     7
370
    25
100
AcDbLine
 10
263.8383278702
 20
39.337994338
 30
0.0
 11
263.7379841265
 21
39.2960823815
 31
0.0
  0
ARC
  5
1D1
330
1F
100
AcDbEntity
  8
0
  6
Continuous
 62
     7
370
    25
100
AcDbCircle
 10
241.2442654269
 20
41.3014279772
 30
0.0
 40
5.330035258560605
100
AcDbArc
 50
225.2274973876
 51
254.3068326238
  0
ARC
  5
1D2
330
1F
100
AcDbEntity
  8
0
  6
Continuous
 62
     7
370
    25
100
AcDbCircle
 10
251.658423607
 20
59.3411946625
 30
0.0
 40
5.313722193367572
100
AcDbArc
 50
45.8182125105
 51
74.4648641733
  0
SPLINE
  5
1D3
330
1F
100
AcDbEntity
  8
0
  6
Continuous
 62
     7
370
    25
100
AcDbSpline
210
0.0
220
0.0
230
1.0
 70
     8
 71
     3
 72
    25
 73
    21
 74
     0
 42
0.000000001
 43
0.00000001
 40
0.0
 40
0.0
 40
0.0
 40
0.0
 40
0.1250000000000009
 40
0.1250000000000009
 40
0.2500000000000018
 40
0.2500000000000018
 40
0.3750000000000027
 40
0.3750000000000027
 40
0.5000000000000036
 40
0.5000000000000036
 40
0.5625000000000031
 40
0.5625000000000031
 40
0.6250000000000027
 40
0.6875000000000022
 40
0.6875000000000022
 40
0.7500000000000018
 40
0.7500000000000018
 40
0.8750000000000009
 40
0.8750000000000009
 40
1.0
 40
1.0
 40
1.0
 40
1.0
 10
240.5062915930612
 20
60.11758102640601
 30
0.0
 10
240.5354148913222
 20
60.00639550587683
 30
0.0
 10
240.5478039321815
 20
59.8911532934488
 30
0.0
 10
240.5408264470812
 20
59.65205772561299
 30
0.0
 10
240.5208088592292
 20
59.52728375573773
 30
0.0
 10
240.4505867015159
 20
59.28091484652531
 30
0.0
 10
240.3999360469222
 20
59.15670369916419
 30
0.0
 10
240.2700213032671
 20
58.91307520385404
 30
0.0
 10
240.1923203552778
 20
58.79601810879586
 30
0.0
 10
240.0569467730516
 20
58.62736159094584
 30
0.0
 10
240.0083122757446
 20
58.57199456967367
 30
0.0
 10
239.9068729403625
 20
58.46627475827665
 30
0.0
 10
239.8010029576218
 20
58.36511379965621
 30
0.0
 10
239.6864111652943
 20
58.27293947797941
 30
0.0
 10
239.5673284960761
 20
58.18540263523929
 30
0.0
 10
239.5053704830187
 20
58.1439041657271
 30
0.0
 10
239.3175067794982
 20
58.029783843989
 30
0.0
 10
239.1881293431441
 20
57.96617641287441
 30
0.0
 10
238.9204460900821
 20
57.86490811190018
 30
0.0
 10
238.784574403617
 20
57.82836720367538
 30
0.0
 10
238.6490571368894
 20
57.80719901932531
 30
0.0
  0
LWPOLYLINE
  5
1D4
330
1F
100
AcDbEntity
  8
0
  6
Continuous
 62
     7
370
    25
100
AcDbPolyline
 90
       16
 70
   128
 43
0.0
 10
240.5062917048
 20
60.1175810589
 10
241.3694351254
 20
61.0200256017
 10
242.2588238496
 20
61.8528539583
 10
243.1682268938
 20
62.6102325369
 10
244.0912739101
 20
63.2868549025
 10
245.0214983207
 20
63.8779796054
 10
245.9523835807
 20
64.3794682951
 10
246.8774083708
 20
64.7878072471
 10
247.790092613
 20
65.1001339264
 10
248.6840424164
 20
65.3142621745
 10
249.5529955167
 20
65.4286917104
 10
250.3908643284
 20
65.4426200566
 10
251.1917792443
 20
65.3559508047
 10
251.9501294652
 20
65.1692898097
 10
252.6606021832
 20
64.8839457565
 10
252.9839409512
 20
64.7120317916
  0
LWPOLYLINE
  5
1D5
330
1F
100
AcDbEntity
  8
0
  6
Continuous
 62
     7
370
    25
100
AcDbPolyline
 90
       22
 70
   128
 43
0.0
 10
237.2477196367
 20
37.4531433978
 10
236.6786851568
 20
37.8330058005
 10
236.1058620703
 20
38.3394000781
 10
235.5951449993
 20
38.9336341594
 10
235.1500538641
 20
39.6116107203
 10
234.7736574822
 20
40.3686575691
 10
234.4685498604
 20
41.1995554056
 10
234.2368343898
 20
42.0985775567
 10
234.0801080409
 20
43.0595266704
 10
233.9994514852
 20
44.0757791085
 10
233.9954198758
 20
45.1403293397
 10
234.0680421885
 20
46.2458400351
 10
234.2168166124
 20
47.3846902629
 10
234.440719111
 20
48.5490307164
 10
234.7382047387
 20
49.7308347595
 10
235.107224105
 20
50.9219565061
 10
235.5452332525
 20
52.1141858574
 10
236.0492120961
 20
53.2993032532
 10
236.6156881306
 20
54.4691416481
 10
237.2407555285
 20
55.6156363192
 10
237.9201060917
 20
56.7308841801
 10
238.6490569101
 20
57.8071985309
  0
LWPOLYLINE
  5
1D6
330
1F
100
AcDbEntity
  8
0
  6
Continuous
 62
     7
370
    25
100
AcDbPolyline
 90
       43
 70
   128
 43
0.0
 10
236.0240848365
 20
38.3257730782
 10
235.317350017
 20
38.5929607292
 10
234.6611683667
 20
38.9542505391
 10
234.0599982319
 20
39.4071873156
 10
233.5179239056
 20
39.9486938423
 10
233.0386279687
 20
40.5750914149
 10
232.6253675824
 20
41.2821241772
 10
232.2809494632
 20
42.0649884022
 10
232.0077147371
 20
42.9183659531
 10
231.8075185237
 20
43.8364577461
 10
231.6817213762
 20
44.8130269072
 10
231.6311794023
 20
45.8414392324
 10
231.6562343866
 20
46.9147068078
 10
231.7567157662
 20
48.025537559
 10
231.9319419474
 20
49.1663852271
 10
232.1807222818
 20
50.3294986207
 10
232.5013662857
 20
51.5069753581
 10
232.8916954937
 20
52.6908159544
 10
233.3490579473
 20
53.8729764819
 10
233.8703466333
 20
55.0454263638
 10
234.4520192408
 20
56.2001993233
 10
235.0901245029
 20
57.3294500355
 10
235.780327221
 20
58.4255062167
 10
236.5179372412
 20
59.4809210941
 10
237.2979443568
 20
60.4885247331
 10
238.1150482723
 20
61.4414709936
 10
238.9636981161
 20
62.333285435
 10
239.8381276725
 20
63.1579084698
 10
240.7323965408
 20
63.9097388955
 10
241.64042866
 20
64.5836690629
 10
242.5560549086
 20
65.1751178333
 10
243.4730545519
 20
65.680068954
 10
244.3851973882
 20
66.0950908268
 10
245.286286308
 20
66.4173648784
 10
246.1701993993
 20
66.6446999817
 10
247.0309309006
 20
66.7755530556
 10
247.8626337601
 20
66.8090338615
 10
248.6596566779
 20
66.7449165018
 10
249.4165851012
 20
66.5836349486
 10
250.1282754681
 20
66.3262853212
 10
250.7898940618
 20
65.9746171381
 10
251.3969443406
 20
65.5310186744
 10
251.7163450124
 20
65.238762587
  0
LWPOLYLINE
  5
1D7
330
1F
100
AcDbEntity
  8
0
  6
Continuous
 62
     7
370
    25
100
AcDbPolyline
 90
       13
 70
   128
 43
0.0
 10
238.8436703124
 20
60.2418575395
 10
239.674513442
 20
61.1311506261
 10
240.5334039822
 20
61.9504321066
 10
241.4136493098
 20
62.6933174776
 10
242.308390766
 20
63.3540191667
 10
243.2106567878
 20
63.9273893726
 10
244.1134171399
 20
64.4089604978
 10
245.0096378518
 20
64.7949791445
 10
245.8923355991
 20
65.0824390295
 10
246.7546324608
 20
65.2690996665
 10
247.5898101303
 20
65.3535062549
 10
248.3913608709
 20
65.3350016049
 10
248.6442208886
 20
65.3067441725
  0
SPLINE
  5
1D8
330
1F
100
AcDbEntity
  8
0
  6
Continuous
 62
     7
370
    25
100
AcDbSpline
210
0.0
220
0.0
230
1.0
 70
     8
 71
     3
 72
    26
 73
    22
 74
     0
 42
0.000000001
 43
0.00000001
 40
0.0
 40
0.0
 40
0.0
 40
0.0
 40
0.1250000000000009
 40
0.1250000000000009
 40
0.2500000000000019
 40
0.2500000000000019
 40
0.3125000000000011
 40
0.3125000000000011
 40
0.3750000000000004
 40
0.3750000000000004
 40
0.4375000000000002
 40
0.4375000000000002
 40
0.5000000000000001
 40
0.5000000000000001
 40
0.5625
 40
0.5625
 40
0.6249999999999999
 40
0.6249999999999999
 40
0.7500000000000001
 40
0.7500000000000001
 40
1.0
 40
1.0
 40
1.0
 40
1.0
 10
237.4994771074336
 20
58.56969425328083
 30
0.0
 10
237.4758395112016
 20
58.67927011285382
 30
0.0
 10
237.4582717323199
 20
58.79015937121836
 30
0.0
 10
237.4394591494504
 20
59.0154893310813
 30
0.0
 10
237.438279374683
 20
59.13116624439967
 30
0.0
 10
237.4543773779184
 20
59.30252175425923
 30
0.0
 10
237.4626960950186
 20
59.35932026635339
 30
0.0
 10
237.4864532442756
 20
59.47214647875048
 30
0.0
 10
237.5020756233246
 20
59.52859933241663
 30
0.0
 10
237.5409328357216
 20
59.63718244882523
 30
0.0
 10
237.5641587924241
 20
59.68956240905077
 30
0.0
 10
237.6191574419024
 20
59.79001918432289
 30
0.0
 10
237.6512357089251
 20
59.83829805209432
 30
0.0
 10
237.7216504574601
 20
59.92599502767807
 30
0.0
 10
237.7602288795868
 20
59.96598415565403
 30
0.0
 10
237.843937143183
 20
60.03846283976962
 30
0.0
 10
237.8890658531249
 20
60.07079946414623
 30
0.0
 10
238.028346495315
 20
60.15399923149988
 30
0.0
 10
238.1291355668766
 20
60.19282795413598
 30
0.0
 10
238.4322078381093
 20
60.26824424159116
 30
0.0
 10
238.6407319285944
 20
60.26811409522039
 30
0.0
 10
238.8436703482848
 20
60.24185786589417
 30
0.0
  0
LWPOLYLINE
  5
1D9
330
1F
100
AcDbEntity
  8
0
  6
Continuous
 62
     7
370
    25
100
AcDbPolyline
 90
       19
 70
   128
 43
0.0
 10
234.5624984785
 20
40.9138429632
 10
234.3374678932
 20
41.2266131879
 10
233.9374989106
 20
41.9150658342
 10
233.6082872427
 20
42.6810516793
 10
233.3523274561
 20
43.5187660661
 10
233.1715589643
 20
44.4218595178
 10
233.067352857
 20
45.3834890705
 10
233.0404980705
 20
46.3963663263
 10
233.0911987536
 20
47.4528157716
 10
233.2190696578
 20
48.544830481
 10
233.4231427227
 20
49.6641351408
 10
233.7018703686
 20
50.8022466475
 10
234.0531413019
 20
51.9505404093
 10
234.4742930271
 20
53.1003143189
 10
234.962133579
 20
54.2428537711
 10
235.5129658887
 20
55.3695012427
 10
236.1226161011
 20
56.4717175075
 10
236.7864632095
 20
57.5411496944
 10
237.4994772508
 20
58.5696940222
  0
LINE
  5
1DA
330
1F
100
AcDbEntity
  8
0
  6
Continuous
 62
     7
370
    25
100
AcDbLine
 10
236.0240848365
 20
38.3257730782
 30
0.0
 11
236.1373510345
 21
38.3793029572
 31
0.0
  0
LWPOLYLINE
  5
1DB
330
1F
100
AcDbEntity
  8
0
  6
Continuous
 62
     7
370
    25
100
AcDbPolyline
 90
       27
 70
   128
 43
0.0
 10
229.3794522458
 20
47.4004232533
 10
229.4162451275
 20
48.4624274263
 10
229.5263774768
 20
49.559843467
 10
229.7091176509
 20
50.685369004
 10
229.9632486594
 20
51.8315131167
 10
230.2870800187
 20
52.9906490912
 10
230.6784563125
 20
54.1550628042
 10
231.1347729973
 20
55.3170053832
 10
231.6529928659
 20
56.4687435858
 10
232.2296684378
 20
57.6026141707
 10
232.8609610569
 20
58.7110702841
 10
233.542669868
 20
59.7867354499
 10
234.2702581578
 20
60.8224514765
 10
235.0388836487
 20
61.8113263627
 10
235.8434320839
 20
62.7467780216
 10
236.6785488381
 20
63.6225829472
 10
237.5386761248
 20
64.4329106217
 10
238.4180903693
 20
65.1723709457
 10
239.310939004
 20
65.8360408041
 10
240.21128027
 20
66.4195045323
 10
241.1131225647
 20
66.9188796741
 10
242.0104643251
 20
67.3308415261
 10
242.8973337873
 20
67.6526498927
 10
243.7678288695
 20
67.882162985
 10
244.6161570143
 20
68.0178535765
 10
245.4366721904
 20
68.0588174365
 10
246.194666468
 20
68.0085711601
  0
ARC
  5
1DC
330
1F
100
AcDbEntity
  8
0
  6
Continuous
 62
     7
370
    25
100
AcDbCircle
 10
240.9595436432
 20
47.2259610153
 30
0.0
 40
11.5763574579976
100
AcDbArc
 50
181.3777567308
 51
194.1487271113
  0
SPLINE
  5
1DD
330
1F
100
AcDbEntity
  8
0
  6
Continuous
 62
     7
370
    25
100
AcDbSpline
210
0.0
220
0.0
230
1.0
 70
     8
 71
     3
 72
    10
 73
     6
 74
     0
 42
0.000000001
 43
0.00000001
 40
0.0
 40
0.0
 40
0.0
 40
0.0
 40
0.5
 40
0.5
 40
1.0
 40
1.0
 40
1.0
 40
1.0
 10
238.2261651750649
 20
57.10664097246111
 30
0.0
 10
238.1222006842807
 20
57.17997934553149
 30
0.0
 10
238.0323924078533
 20
57.26721510332489
 30
0.0
 10
237.8803499798546
 20
57.4681456445209
 30
0.0
 10
237.8184443914937
 20
57.58231641071787
 30
0.0
 10
237.7739946869032
 20
57.70533409387797
 30
0.0
  0
SPLINE
  5
1DE
330
1F
100
AcDbEntity
  8
0
  6
Continuous
 62
     7
370
    25
100
AcDbSpline
210
0.0
220
0.0
230
1.0
 70
     8
 71
     3
 72
    14
 73
    10
 74
     0
 42
0.000000001
 43
0.00000001
 40
0.0
 40
0.0
 40
0.0
 40
0.0
 40
0.25
 40
0.25
 40
0.5
 40
0.5
 40
0.75
 40
0.75
 40
1.0
 40
1.0
 40
1.0
 40
1.0
 10
237.7739946869032
 20
57.70533409387796
 30
0.0
 10
237.7512738840381
 20
57.7682155135355
 30
0.0
 10
237.7293593736886
 20
57.83726194300892
 30
0.0
 10
237.6872483196258
 20
57.9849144596277
 30
0.0
 10
237.6677267657128
 20
58.061314246486
 30
0.0
 10
237.629380523539
 20
58.2156465378816
 30
0.0
 10
237.6110209306552
 20
58.29259913421325
 30
0.0
 10
237.5690174860735
 20
58.43798930172923
 30
0.0
 10
237.5452411650605
 20
58.50458020792226
 30
0.0
 10
237.5167796609583
 20
58.5450758231536
 30
0.0
  0
LINE
  5
1DF
330
1F
100
AcDbEntity
  8
0
  6
Continuous
 62
     7
370
    25
100
AcDbLine
 10
237.5167798492
 20
58.5450762149
 30
0.0
 11
237.4994772508
 21
58.5696940222
 31
0.0
  0
LINE
  5
1E0
330
1F
100
AcDbEntity
  8
0
  6
Continuous
 62
     7
370
    25
100
AcDbLine
 10
238.8436703124
 20
60.2418575395
 30
0.0
 11
238.8609729108
 21
60.2172397322
 31
0.0
  0
SPLINE
  5
1E1
330
1F
100
AcDbEntity
  8
0
  6
Continuous
 62
     7
370
    25
100
AcDbSpline
210
0.0
220
0.0
230
1.0
 70
     8
 71
     3
 72
    16
 73
    12
 74
     0
 42
0.000000001
 43
0.00000001
 40
0.0
 40
0.0
 40
0.0
 40
0.0
 40
0.1250000000000001
 40
0.1250000000000001
 40
0.2500000000000003
 40
0.2500000000000003
 40
0.5000000000000002
 40
0.5000000000000002
 40
0.7500000000000001
 40
0.7500000000000001
 40
1.0
 40
1.0
 40
1.0
 40
1.0
 10
238.8609729018095
 20
60.21723943576688
 30
0.0
 10
238.8751253082137
 20
60.1971030999541
 30
0.0
 10
238.8967837126873
 20
60.18030567927666
 30
0.0
 10
238.9492016417226
 20
60.15346015794518
 30
0.0
 10
238.979794520861
 20
60.1432346733842
 30
0.0
 10
239.0788753697185
 20
60.11873423295151
 30
0.0
 10
239.1527579073344
 20
60.11047431055001
 30
0.0
 10
239.3058574997257
 20
60.09928834384509
 30
0.0
 10
239.3839414743733
 20
60.09669167209391
 30
0.0
 10
239.5432851081155
 20
60.0946626712602
 30
0.0
 10
239.621938002947
 20
60.09530025992242
 30
0.0
 10
239.6976904707396
 20
60.09839336073747
 30
0.0
  0
SPLINE
  5
1E2
330
1F
100
AcDbEntity
  8
0
  6
Continuous
 62
     7
370
    25
100
AcDbSpline
210
0.0
220
0.0
230
1.0
 70
     8
 71
     3
 72
    10
 73
     6
 74
     0
 42
0.000000001
 43
0.00000001
 40
0.0
 40
0.0
 40
0.0
 40
0.0
 40
0.5
 40
0.5
 40
1.0
 40
1.0
 40
1.0
 40
1.0
 10
239.6976904707396
 20
60.09839336073747
 30
0.0
 10
239.8458848106404
 20
60.10444438517123
 30
0.0
 10
239.9881092763709
 20
60.09428215495809
 30
0.0
 10
240.2605006667117
 20
60.04323171901802
 30
0.0
 10
240.3906279965803
 20
60.00187061637347
 30
0.0
 10
240.5087033387656
 20
59.94609674842118
 30
0.0
  0
LINE
  5
1E3
330
1F
100
AcDbEntity
  8
0
  6
Continuous
 62
     7
370
    25
100
AcDbLine
 10
251.4226392655
 20
54.2924125676
 30
0.0
 11
251.4460449252
 21
54.2476974348
 31
0.0
  0
ARC
  5
1E4
330
1F
100
AcDbEntity
  8
0
  6
Continuous
 62
     7
370
    25
100
AcDbCircle
 10
223.1970090717
 20
55.2276532831
 30
0.0
 40
4.168062494307624
100
AcDbArc
 50
211.8183542798
 51
236.1399747015
  0
SPLINE
  5
1E5
330
1F
100
AcDbEntity
  8
0
  6
Continuous
 62
     7
370
    25
100
AcDbSpline
210
0.0
220
0.0
230
1.0
 70
     8
 71
     3
 72
     8
 73
     4
 74
     0
 42
0.000000001
 43
0.00000001
 40
0.0
 40
0.0
 40
0.0
 40
0.0
 40
1.0
 40
1.0
 40
1.0
 40
1.0
 10
221.0857496696288
 20
52.10539232918252
 30
0.0
 10
220.6089763778047
 20
52.41348513711516
 30
0.0
 10
220.1321740009598
 20
52.72171458268792
 30
0.0
 10
219.6553415564341
 20
53.03007973890783
 30
0.0
  0
SPLINE
  5
1E6
330
1F
100
AcDbEntity
  8
0
  6
Continuous
 62
     7
370
    25
100
AcDbSpline
210
0.0
220
0.0
230
1.0
 70
     8
 71
     3
 72
    23
 73
    19
 74
     0
 42
0.000000001
 43
0.00000001
 40
0.0
 40
0.0
 40
0.0
 40
0.0
 40
0.0521036415646655
 40
0.1035646240875231
 40
0.1544751946670016
 40
0.2049306267396564
 40
0.2550287880763705
 40
0.3048696389063719
 40
0.3545546704541477
 40
0.4041862979471803
 40
0.4538672252097395
 40
0.5036997999422159
 40
0.5901870230737664
 40
0.6742716378215413
 40
0.7565997087206644
 40
0.8378563983706444
 40
0.9187511781358022
 40
1.0
 40
1.0
 40
1.0
 40
1.0
 10
221.9663144731705
 20
51.93066163106242
 30
0.0
 10
221.9610455342311
 20
51.92074016882763
 30
0.0
 10
221.9505726447323
 20
51.90101961809665
 30
0.0
 10
221.9313263489713
 20
51.87645178914451
 30
0.0
 10
221.9095306086398
 20
51.85576320688531
 30
0.0
 10
221.8848793174356
 20
51.83923227158833
 30
0.0
 10
221.8573828028969
 20
51.82671477201212
 30
0.0
 10
221.8269717488892
 20
51.81818014818972
 30
0.0
 10
221.7936013771158
 20
51.8135702755416
 30
0.0
 10
221.7572254888427
 20
51.8128355324051
 30
0.0
 10
221.7177971172518
 20
51.81593061495643
 30
0.0
 10
221.6649487257012
 20
51.82446639043518
 30
0.0
 10
221.5964097319311
 20
51.84206282928163
 30
0.0
 10
221.5086884999776
 20
51.87369943736701
 30
0.0
 10
221.4139575804839
 20
51.91587909469956
 30
0.0
 10
221.3119233331536
 20
51.96861553042677
 30
0.0
 10
221.2030094199637
 20
52.03093208633817
 30
0.0
 10
221.1248931089769
 20
52.08053614458979
 30
0.0
 10
221.0857496696288
 20
52.10539232918251
 30
0.0
  0
SPLINE
  5
1E7
330
1F
100
AcDbEntity
  8
0
  6
Continuous
 62
     7
370
    25
100
AcDbSpline
210
0.0
220
0.0
230
1.0
 70
     8
 71
     3
 72
     8
 73
     4
 74
     0
 42
0.000000001
 43
0.00000001
 40
0.0
 40
0.0
 40
0.0
 40
0.0
 40
1.0
 40
1.0
 40
1.0
 40
1.0
 10
223.4398174996266
 20
50.98334149450474
 30
0.0
 10
222.9484501875844
 20
51.29921611447272
 30
0.0
 10
222.4570639876574
 20
51.61520213576269
 30
0.0
 10
221.9656582775127
 20
51.93129901660586
 30
0.0
  0
SPLINE
  5
1E8
330
1F
100
AcDbEntity
  8
0
  6
Continuous
 62
     7
370
    25
100
AcDbSpline
210
0.0
220
0.0
230
1.0
 70
     8
 71
     3
 72
    18
 73
    14
 74
     0
 42
0.000000001
 43
0.00000001
 40
0.0
 40
0.0
 40
0.0
 40
0.0
 40
0.0923824559439675
 40
0.1844689291622743
 40
0.2764953616013771
 40
0.3686975365565255
 40
0.4613092840075443
 40
0.5545607518508886
 40
0.6486768051591462
 40
0.7438756050182965
 40
0.8403674044314907
 40
0.9203921078129265
 40
1.0
 40
1.0
 40
1.0
 40
1.0
 10
224.2533816188239
 20
50.33903376996187
 30
0.0
 10
224.2298141047001
 20
50.35430774422785
 30
0.0
 10
224.1827545840476
 20
50.38480675670925
 30
0.0
 10
224.1103567960832
 20
50.43443932932114
 30
0.0
 10
224.0368745871866
 20
50.48676887199032
 30
0.0
 10
223.9621751394411
 20
50.54208655769851
 30
0.0
 10
223.886314349673
 20
50.60032487281208
 30
0.0
 10
223.8093030688868
 20
50.66151778444934
 30
0.0
 10
223.7311709368068
 20
50.72568150103022
 30
0.0
 10
223.6519447021645
 20
50.79283046089635
 30
0.0
 10
223.5766482177559
 20
50.85868137064183
 30
0.0
 10
223.505820909635
 20
50.92221295744962
 30
0.0
 10
223.4619165388283
 20
50.96287370246287
 30
0.0
 10
223.4400216720232
 20
50.98315099103124
 30
0.0
  0
LINE
  5
1E9
330
1F
100
AcDbEntity
  8
0
  6
Continuous
 62
     7
370
    25
100
AcDbLine
 10
224.8930881507
 20
49.9272799635
 30
0.0
 11
224.2533813083
 21
50.3390336311
 31
0.0
  0
SPLINE
  5
1EA
330
1F
100
AcDbEntity
  8
0
  6
Continuous
 62
     7
370
    25
100
AcDbSpline
210
0.0
220
0.0
230
1.0
 70
     8
 71
     3
 72
    25
 73
    21
 74
     0
 42
0.000000001
 43
0.00000001
 40
0.0
 40
0.0
 40
0.0
 40
0.0
 40
0.0280105225417313
 40
0.0559601148844757
 40
0.0839014045022582
 40
0.1118870776763573
 40
0.1399695827566157
 40
0.1682008401719331
 40
0.1966319670408087
 40
0.2253130233131858
 40
0.2542927850734805
 40
0.3799486436539752
 40
0.5057850221666156
 40
0.6313085886319871
 40
0.7532068238012583
 40
0.803947326795781
 40
0.8535894438557279
 40
0.9025339722396917
 40
0.9511970353793002
 40
1.0
 40
1.0
 40
1.0
 40
1.0
 10
225.9954537438141
 20
50.64318595383895
 30
0.0
 10
226.0004018513446
 20
50.61556209273238
 30
0.0
 10
226.0102873029798
 20
50.56037445962865
 30
0.0
 10
226.0218229525825
 20
50.48121375226074
 30
0.0
 10
226.0308960743949
 20
50.40491041316368
 30
0.0
 10
226.0372648831077
 20
50.33171465219469
 30
0.0
 10
226.0409811219177
 20
50.26156718398128
 30
0.0
 10
226.0420177429006
 20
50.1944908974678
 30
0.0
 10
226.040369267674
 20
50.13048698824004
 30
0.0
 10
226.0360231158055
 20
50.06955813497129
 30
0.0
 10
226.0211667912405
 20
49.94767001347397
 30
0.0
 10
225.9760785341745
 20
49.7927691418188
 30
0.0
 10
225.8627190136831
 20
49.66182602347631
 30
0.0
 10
225.7008947916897
 20
49.60594962266195
 30
0.0
 10
225.5268795725561
 20
49.6258236750469
 30
0.0
 10
225.3755186518684
 20
49.67314147740299
 30
0.0
 10
225.2651184191698
 20
49.71805690113852
 30
0.0
 10
225.1479589237211
 20
49.77543263242968
 30
0.0
 10
225.0243932567874
 20
49.84410969688231
 30
0.0
 10
224.9368982066927
 20
49.89952994283532
 30
0.0
 10
224.8930878870112
 20
49.9272798405655
 30
0.0
  0
ARC
  5
1EB
330
1F
100
AcDbEntity
  8
0
  6
Continuous
 62
     7
370
    25
100
AcDbCircle
 10
237.1884749082
 20
52.4292363224
 30
0.0
 40
11.33462419218399
100
AcDbArc
 50
170.9338462887
 51
189.0661537113
  0
SPLINE
  5
1EC
330
1F
100
AcDbEntity
  8
0
  6
Continuous
 62
     7
370
    25
100
AcDbSpline
210
0.0
220
0.0
230
1.0
 70
     8
 71
     3
 72
    26
 73
    22
 74
     0
 42
0.000000001
 43
0.00000001
 40
0.0
 40
0.0
 40
0.0
 40
0.0
 40
0.0241259796962589
 40
0.048215991227113
 40
0.072320391512163
 40
0.0964895678708021
 40
0.1207736231960618
 40
0.145222071124006
 40
0.1698835501655259
 40
0.1948055644470482
 40
0.2200342569516483
 40
0.2456142191611198
 40
0.3690971486898422
 40
0.4940698769485101
 40
0.6192566784753765
 40
0.7454656653602848
 40
0.7971495824708195
 40
0.848171030839727
 40
0.8988013269227114
 40
0.9493179290486773
 40
1.0
 40
1.0
 40
1.0
 40
1.0
 10
224.8930878870112
 20
57.69139023193005
 30
0.0
 10
224.9148061163872
 20
57.67705870853503
 30
0.0
 10
224.9582101965631
 20
57.64841702786609
 30
0.0
 10
225.0215173139242
 20
57.60042472993742
 30
0.0
 10
225.083378881642
 20
57.54882553205184
 30
0.0
 10
225.1436833967784
 20
57.49325073917866
 30
0.0
 10
225.2024732487183
 20
57.43379549855155
 30
0.0
 10
225.2597537671481
 20
57.37043118971411
 30
0.0
 10
225.3155449064744
 20
57.30316241175012
 30
0.0
 10
225.3698661538964
 20
57.2319882977899
 30
0.0
 10
225.4227451291056
 20
57.15689915804148
 30
0.0
 10
225.539539953842
 20
56.97764470934007
 30
0.0
 10
225.7014095117686
 20
56.6673392374966
 30
0.0
 10
225.8645944193001
 20
56.19742544936592
 30
0.0
 10
225.9761058244731
 20
55.6984624154554
 30
0.0
 10
226.0232396625819
 20
55.28957874239921
 30
0.0
 10
226.0383586021154
 20
54.98530678580828
 30
0.0
 10
226.040311741098
 20
54.78405754411393
 30
0.0
 10
226.0338337154589
 20
54.58839762439132
 30
0.0
 10
226.0197067927715
 20
54.39776133649288
 30
0.0
 10
226.0035469010863
 20
54.27617806275311
 30
0.0
 10
225.9954537438141
 20
54.21528702615358
 30
0.0
  0
LINE
  5
1ED
330
1F
100
AcDbEntity
  8
0
  6
Continuous
 62
     7
370
    25
100
AcDbLine
 10
224.2533813083
 20
58.1043650822
 30
0.0
 11
224.8930881507
 21
57.6913901112
 31
0.0
  0
SPLINE
  5
1EE
330
1F
100
AcDbEntity
  8
0
  6
Continuous
 62
     7
370
    25
100
AcDbSpline
210
0.0
220
0.0
230
1.0
 70
     8
 71
     3
 72
    14
 73
    10
 74
     0
 42
0.000000001
 43
0.00000001
 40
0.0
 40
0.0
 40
0.0
 40
0.0
 40
0.0789261963166635
 40
0.1582328720536201
 40
0.3308475394596663
 40
0.5000195457656536
 40
0.6670357883622092
 40
0.8332395193691549
 40
0.9999999999999999
 40
0.9999999999999999
 40
0.9999999999999999
 40
0.9999999999999999
 10
223.4394289029716
 20
58.31294751521604
 30
0.0
 10
223.4611457843073
 20
58.31455067907445
 30
0.0
 10
223.5046842375226
 20
58.31776473516136
 30
0.0
 10
223.5962093561724
 20
58.31858577522802
 30
0.0
 10
223.7131176896069
 20
58.31064979344329
 30
0.0
 10
223.8539380279905
 20
58.28437412456478
 30
0.0
 10
223.991150335803
 20
58.2414165260326
 30
0.0
 10
224.1250810102185
 20
58.18305940122394
 30
0.0
 10
224.2105671021765
 20
58.13062585507481
 30
0.0
 10
224.2533816188239
 20
58.10436524492095
 30
0.0
  0
SPLINE
  5
1EF
330
1F
100
AcDbEntity
  8
0
  6
Continuous
 62
     7
370
    25
100
AcDbSpline
210
0.0
220
0.0
230
1.0
 70
     8
 71
     3
 72
     8
 73
     4
 74
     0
 42
0.000000001
 43
0.00000001
 40
0.0
 40
0.0
 40
0.0
 40
0.0
 40
1.0
 40
1.0
 40
1.0
 40
1.0
 10
221.6371253199682
 20
59.47533892662735
 30
0.0
 10
222.2378835436636
 20
59.08807144346889
 30
0.0
 10
222.8386124065234
 20
58.70060409354602
 30
0.0
 10
223.4393130508696
 20
58.31293720095684
 30
0.0
  0
SPLINE
  5
1F0
330
1F
100
AcDbEntity
  8
0
  6
Continuous
 62
     7
370
    25
100
AcDbSpline
210
0.0
220
0.0
230
1.0
 70
     8
 71
     3
 72
    13
 73
     9
 74
     0
 42
0.000000001
 43
0.00000001
 40
0.0
 40
0.0
 40
0.0
 40
0.0
 40
0.1667030582307895
 40
0.3329480818052965
 40
0.4990671507274738
 40
0.6653938523718336
 40
0.8322612710550047
 40
1.0
 40
1.0
 40
1.0
 40
1.0
 10
221.2952967849338
 20
59.77640370571314
 30
0.0
 10
221.3155979673738
 20
59.76283859903391
 30
0.0
 10
221.3561445525624
 20
59.73574565727107
 30
0.0
 10
221.4152941895501
 20
59.69055108426335
 30
0.0
 10
221.4730657344525
 20
59.64213993578039
 30
0.0
 10
221.5293154719122
 20
59.59010482100994
 30
0.0
 10
221.5842426806583
 20
59.53480685380092
 30
0.0
 10
221.6194633902489
 20
59.49518959864054
 30
0.0
 10
221.6371196021898
 20
59.47532938963962
 30
0.0
  0
SPLINE
  5
1F1
330
1F
100
AcDbEntity
  8
0
  6
Continuous
 62
     7
370
    25
100
AcDbSpline
210
0.0
220
0.0
230
1.0
 70
     8
 71
     3
 72
     8
 73
     4
 74
     0
 42
0.000000001
 43
0.00000001
 40
0.0
 40
0.0
 40
0.0
 40
0.0
 40
1.0
 40
1.0
 40
1.0
 40
1.0
 10
219.3513162691431
 20
61.03112555809261
 30
0.0
 10
219.9993463415434
 20
60.61313024220786
 30
0.0
 10
220.6473393186452
 20
60.19488947979023
 30
0.0
 10
221.2952967849338
 20
59.77640370571314
 30
0.0
  0
LWPOLYLINE
  5
1F2
330
1F
100
AcDbEntity
  8
0
  6
Continuous
 62
     7
370
    25
100
AcDbPolyline
 90
       21
 70
   128
 43
0.0
 10
219.3513169194
 20
61.0311256086
 10
219.698974419
 20
62.0523056755
 10
220.1138251904
 20
63.0695276921
 10
220.5919660402
 20
64.0732227398
 10
221.1289010852
 20
65.0539512343
 10
221.7195786303
 20
66.0024880941
 10
222.3584438528
 20
66.9099117096
 10
223.0394868753
 20
67.7676864487
 10
223.7563023648
 20
68.5677449715
 10
224.5021483072
 20
69.302562465
 10
225.2700088986
 20
69.965225649
 10
226.0526621284
 20
70.54950297
 10
226.8427463912
 20
71.0498990257
 10
227.632830291
 20
71.4617062683
 10
228.4154823683
 20
71.781051341
 10
229.1833411487
 20
72.0049309541
 10
229.9291844569
 20
72.1312397306
 10
230.645996983
 20
72.1587894402
 10
231.3270360543
 20
72.0873203521
 10
231.9658966669
 20
71.917504556
 10
232.401054646
 20
71.7328725738
  0
SPLINE
  5
1F3
330
1F
100
AcDbEntity
  8
0
  6
Continuous
 62
     7
370
    25
100
AcDbSpline
210
0.0
220
0.0
230
1.0
 70
    11
 71
     3
 72
    39
 73
    35
 74
     0
 42
0.000000001
 43
0.00000001
 40
0.0
 40
0.0
 40
0.0
 40
0.0
 40
0.0310664058345684
 40
0.0621048158426028
 40
0.0931361551794319
 40
0.123553829350374
 40
0.1538561545809018
 40
0.1850588072749134
 40
0.2160250992946899
 40
0.2471867223797622
 40
0.2784462884306489
 40
0.3100516090231287
 40
0.3419834369140543
 40
0.3734259894013276
 40
0.404860488678635
 40
0.4368740651833383
 40
0.4685120685924916
 40
0.4998055358633239
 40
0.5309508213228468
 40
0.5618649784438202
 40
0.593041644659302
 40
0.6233742450133318
 40
0.6540913579074815
 40
0.6849496782718557
 40
0.715816064516634
 40
0.7471731804043451
 40
0.7784514311861095
 40
0.8101295911560887
 40
0.8419598919685959
 40
0.8735175891922303
 40
0.9050808037884179
 40
0.9370235169792495
 40
0.9687441590028177
 40
1.0
 40
1.0
 40
1.0
 40
1.0
 10
232.5599017503484
 20
70.03631593343403
 30
0.0
 10
232.8227873705443
 20
70.00778144614394
 30
0.0
 10
233.3496759810275
 20
69.92183895782212
 30
0.0
 10
234.1136880501019
 20
69.72146383775117
 30
0.0
 10
234.8208382381563
 20
69.4744617315315
 30
0.0
 10
235.4337493027503
 20
69.19647985337826
 30
0.0
 10
235.9308806284221
 20
68.90234615604881
 30
0.0
 10
236.290072349496
 20
68.60083962785646
 30
0.0
 10
236.5117916182569
 20
68.29384212295365
 30
0.0
 10
236.5770434956371
 20
67.98333686155149
 30
0.0
 10
236.4901962845228
 20
67.66419237680273
 30
0.0
 10
236.247850696764
 20
67.3348724112299
 30
0.0
 10
235.8679128340378
 20
66.99593168967301
 30
0.0
 10
235.3541068808786
 20
66.65809322526242
 30
0.0
 10
234.7282160699683
 20
66.3321953239531
 30
0.0
 10
234.0147450834788
 20
66.0355484307132
 30
0.0
 10
233.2508426072142
 20
65.77944512227518
 30
0.0
 10
232.4650495243104
 20
65.59041755428507
 30
0.0
 10
231.683512069269
 20
65.48224163223011
 30
0.0
 10
230.9273990845153
 20
65.47457774886209
 30
0.0
 10
230.2250344981243
 20
65.57249978424959
 30
0.0
 10
229.6060141510798
 20
65.79414821775178
 30
0.0
 10
229.0969568860663
 20
66.13001630466219
 30
0.0
 10
228.7240132926338
 20
66.56982687084383
 30
0.0
 10
228.4954113413906
 20
67.08090151136672
 30
0.0
 10
228.4265650346664
 20
67.63208659912561
 30
0.0
 10
228.5111814478912
 20
68.18975852743785
 30
0.0
 10
228.7542902378248
 20
68.71983866835585
 30
0.0
 10
229.136420080642
 20
69.19236301747192
 30
0.0
 10
229.6525556550523
 20
69.57848452836413
 30
0.0
 10
230.2795335155563
 20
69.86210871569757
 30
0.0
 10
230.9954409479171
 20
70.03184593442477
 30
0.0
 10
231.7638843401041
 20
70.0933847691374
 30
0.0
 10
232.2954131194768
 20
70.06502441688156
 30
0.0
 10
232.5599017503484
 20
70.03631593343403
 30
0.0
  0
LINE
  5
1F4
330
1F
100
AcDbEntity
  8
0
  6
Continuous
 62
     7
370
    25
100
AcDbLine
 10
223.3353643373
 20
53.597189316
 30
0.0
 11
223.6494093959
 21
53.4290450889
 31
0.0
  0
LINE
  5
1F5
330
1F
100
AcDbEntity
  8
0
  6
Continuous
 62
     7
370
    25
100
AcDbLine
 10
222.3484063174
 20
54.1669480533
 30
0.0
 11
223.3353643373
 21
53.597189316
 31
0.0
  0
ARC
  5
1F6
330
1F
100
AcDbEntity
  8
0
  6
Continuous
 62
     7
370
    25
100
AcDbCircle
 10
224.5722321177
 20
57.7382437169
 30
0.0
 40
4.462224792518716
100
AcDbArc
 50
267.6359113828
 51
287.0347849962
  0
SPLINE
  5
1F7
330
1F
100
AcDbEntity
  8
0
  6
Continuous
 62
     7
370
    25
100
AcDbSpline
210
0.0
220
0.0
230
1.0
 70
     8
 71
     3
 72
    14
 73
    10
 74
     0
 42
0.000000001
 43
0.00000001
 40
0.0
 40
0.0
 40
0.0
 40
0.0
 40
0.1520927654964334
 40
0.2674857265629534
 40
0.3827932169674477
 40
0.4986859355030901
 40
0.6145509981003119
 40
0.825743267810779
 40
1.0
 40
1.0
 40
1.0
 40
1.0
 10
233.8984077086478
 20
67.03382021809831
 30
0.0
 10
233.6936127673555
 20
67.14620111832872
 30
0.0
 10
233.3334396618878
 20
67.34384554047999
 30
0.0
 10
232.733816493686
 20
67.6079684072821
 30
0.0
 10
232.1546438593034
 20
67.821084801815
 30
0.0
 10
231.5437520438094
 20
67.9918729529009
 30
0.0
 10
230.7546163540332
 20
68.13125170812009
 30
0.0
 10
229.8553430291102
 20
68.15838562279704
 30
0.0
 10
229.2907476794423
 20
67.95039106647936
 30
0.0
 10
229.0355010964769
 20
67.85635929698861
 30
0.0
  0
SPLINE
  5
1F8
330
1F
100
AcDbEntity
  8
0
  6
Continuous
 62
     7
370
    25
100
AcDbSpline
210
0.0
220
0.0
230
1.0
 70
     8
 71
     3
 72
    10
 73
     6
 74
     0
 42
0.000000001
 43
0.00000001
 40
0.0
 40
0.0
 40
0.0
 40
0.0
 40
0.3798174073072795
 40
0.9603711649033085
 40
1.0
 40
1.0
 40
1.0
 40
1.0
 10
235.0382878305073
 20
66.50559329057981
 30
0.0
 10
234.9086352132589
 20
66.5759218524172
 30
0.0
 10
234.5808075975045
 20
66.7537481488383
 30
0.0
 10
234.1728790524943
 20
66.92680099924071
 30
0.0
 10
233.9162462710624
 20
67.02600643148902
 30
0.0
 10
233.8998477808506
 20
67.0323455254294
 30
0.0
  0
SPLINE
  5
1F9
330
1F
100
AcDbEntity
  8
0
  6
Continuous
 62
     7
370
    25
100
AcDbSpline
210
0.0
220
0.0
230
1.0
 70
     8
 71
     3
 72
    25
 73
    21
 74
     0
 42
0.000000001
 43
0.00000001
 40
0.0
 40
0.0
 40
0.0
 40
0.0
 40
0.0472534056539054
 40
0.089573634806592
 40
0.1269632476291658
 40
0.1594267920077607
 40
0.2428508088260168
 40
0.318367244167374
 40
0.3935858659017
 40
0.4205144100182734
 40
0.4483683846680365
 40
0.4771558167110822
 40
0.5451774052591232
 40
0.6363664555512807
 40
0.6968940234725829
 40
0.7498726561364739
 40
0.7959807223703401
 40
0.8771243100716252
 40
0.9543027934106351
 40
0.9999999999999999
 40
0.9999999999999999
 40
0.9999999999999999
 40
0.9999999999999999
 10
232.5050231833462
 20
69.46245803347726
 30
0.0
 10
232.3646190258902
 20
69.47777397372109
 30
0.0
 10
232.0984686701379
 20
69.5068068956689
 30
0.0
 10
231.7256901227506
 20
69.51407478524946
 30
0.0
 10
231.4031292313393
 20
69.50068732219148
 30
0.0
 10
230.9740126583008
 20
69.45472972977059
 30
0.0
 10
230.4663951582448
 20
69.33770906867434
 30
0.0
 10
229.9235855792253
 20
69.09512624020795
 30
0.0
 10
229.5831861340574
 20
68.83777443717064
 30
0.0
 10
229.3765600128141
 20
68.62296542324948
 30
0.0
 10
229.2585758544552
 20
68.47646240474377
 30
0.0
 10
229.1064054876157
 20
68.2467114588335
 30
0.0
 10
228.9397248261104
 20
67.87376883809736
 30
0.0
 10
228.8713632542892
 20
67.41120975603077
 30
0.0
 10
228.9217187161771
 20
66.98287706347006
 30
0.0
 10
229.0271478600282
 20
66.66295016873154
 30
0.0
 10
229.2093471866276
 20
66.32248465382054
 30
0.0
 10
229.5102256117346
 20
65.98653639684613
 30
0.0
 10
229.8999105063232
 20
65.71347709616343
 30
0.0
 10
230.1928294625185
 20
65.6195220252334
 30
0.0
 10
230.301765396575
 20
65.58458033506741
 30
0.0
  0
SPLINE
  5
1FA
330
1F
100
AcDbEntity
  8
0
  6
Continuous
 62
     7
370
    25
100
AcDbSpline
210
0.0
220
0.0
230
1.0
 70
     8
 71
     3
 72
    22
 73
    18
 74
     0
 42
0.000000001
 43
0.00000001
 40
0.0
 40
0.0
 40
0.0
 40
0.0
 40
0.0348562931077237
 40
0.0924900623539491
 40
0.1569277788850789
 40
0.2282085360920659
 40
0.2894089077515647
 40
0.3420696922203051
 40
0.3861903498429299
 40
0.4217735408338573
 40
0.5236918810098915
 40
0.6145479843395962
 40
0.7067593487247504
 40
0.7559111409869668
 40
0.8071360726317764
 40
0.8951475619903156
 40
1.0
 40
1.0
 40
1.0
 40
1.0
 10
235.7687671307305
 20
66.94531394570754
 30
0.0
 10
235.8064030206061
 20
66.98048716811914
 30
0.0
 10
235.906268654355
 20
67.07381819227545
 30
0.0
 10
236.0250927030901
 20
67.22916343187576
 30
0.0
 10
236.1215037716084
 20
67.4178926366781
 30
0.0
 10
236.1527799267503
 20
67.60387152229059
 30
0.0
 10
236.1233746025768
 20
67.77568308362602
 30
0.0
 10
236.0548795793686
 20
67.92248967413681
 30
0.0
 10
235.9670669323542
 20
68.04370059615066
 30
0.0
 10
235.8127757804
 20
68.20928374333411
 30
0.0
 10
235.544949462444
 20
68.41944798568964
 30
0.0
 10
235.0933793229775
 20
68.67489179615168
 30
0.0
 10
234.6458166862542
 20
68.88152849282268
 30
0.0
 10
234.2369229173703
 20
69.04003270946639
 30
0.0
 10
233.8148433175629
 20
69.18254945740118
 30
0.0
 10
233.2365307001838
 20
69.34580602625664
 30
0.0
 10
232.7626521063161
 20
69.42137447617844
 30
0.0
 10
232.5050231833462
 20
69.46245803347726
 30
0.0
  0
LINE
  5
1FB
330
1F
100
AcDbEntity
  8
0
  6
Continuous
 62
     7
370
    25
100
AcDbLine
 10
225.9954534615
 20
54.2152868454
 30
0.0
 11
225.9902153984
 21
54.5113702683
 31
0.0
  0
LINE
  5
1FC
330
1F
100
AcDbEntity
  8
0
  6
Continuous
 62
     7
370
    25
100
AcDbLine
 10
225.9902153984
 20
54.5113702683
 30
0.0
 11
226.0333118681
 21
55.1629751222
 31
0.0
  0
LINE
  5
1FD
330
1F
100
AcDbEntity
  8
0
  6
Continuous
 62
     7
370
    25
100
AcDbLine
 10
225.5106665805
 20
56.9920584858
 30
0.0
 11
225.1992520779
 21
57.3206550553
 31
0.0
  0
SPLINE
  5
1FE
330
1F
100
AcDbEntity
  8
0
  6
Continuous
 62
     7
370
    25
100
AcDbSpline
210
0.0
220
0.0
230
1.0
 70
     8
 71
     3
 72
    20
 73
    16
 74
     0
 42
0.000000001
 43
0.00000001
 40
0.0
 40
0.0
 40
0.0
 40
0.0
 40
0.0208840356930524
 40
0.1453814907232769
 40
0.207457877578707
 40
0.2714500362909257
 40
0.3931455631841341
 40
0.5137637705452784
 40
0.636753113055787
 40
0.699518587041102
 40
0.7644693177495692
 40
0.812314500977215
 40
0.8607030377512609
 40
0.9189076843114311
 40
1.0
 40
1.0
 40
1.0
 40
1.0
 10
228.9020346424861
 20
67.21330975688912
 30
0.0
 10
228.8995159778582
 20
67.26607869967617
 30
0.0
 10
228.8819826225424
 20
67.6334228126162
 30
0.0
 10
229.0435537625131
 20
68.10933119696666
 30
0.0
 10
229.384053812911
 20
68.59916583318444
 30
0.0
 10
229.8393376735297
 20
69.00865532123278
 30
0.0
 10
230.5885960849676
 20
69.35868997422492
 30
0.0
 10
231.664585887249
 20
69.47828587296344
 30
0.0
 10
232.6181157992094
 20
69.3177903286315
 30
0.0
 10
233.3528333347977
 20
69.02039645819222
 30
0.0
 10
233.8256256347321
 20
68.72274390527863
 30
0.0
 10
234.1825979917242
 20
68.35183099612571
 30
0.0
 10
234.3774455830996
 20
67.91950997863646
 30
0.0
 10
234.4064748019593
 20
67.41656855216004
 30
0.0
 10
234.3441011666336
 20
67.0828235566061
 30
0.0
 10
234.3077900910379
 20
66.8885324959682
 30
0.0
  0
SPLINE
  5
1FF
330
1F
100
AcDbEntity
  8
0
  6
Continuous
 62
     7
370
    25
100
AcDbSpline
210
0.0
220
0.0
230
1.0
 70
     8
 71
     3
 72
    10
 73
     6
 74
     0
 42
0.000000001
 43
0.00000001
 40
0.0
 40
0.0
 40
0.0
 40
0.0
 40
0.2949357888650573
 40
0.9797717586393415
 40
1.0
 40
1.0
 40
1.0
 40
1.0
 10
234.3105179470261
 20
66.88729394254584
 30
0.0
 10
234.3933430201948
 20
66.84852865717201
 30
0.0
 10
234.6684865282451
 20
66.71975102740038
 30
0.0
 10
234.9436311926148
 20
66.57843712714384
 30
0.0
 10
235.0922732098469
 20
66.48432905869298
 30
0.0
 10
235.0965377385996
 20
66.48162910499722
 30
0.0
  0
ARC
  5
200
330
1F
100
AcDbEntity
  8
0
  6
Continuous
 62
     7
370
    25
100
AcDbCircle
 10
238.3206265124
 20
52.6740749502
 30
0.0
 40
12.466542917917
100
AcDbArc
 50
171.5249863735
 51
179.8211981812
  0
SPLINE
  5
201
330
1F
100
AcDbEntity
  8
0
  6
Continuous
 62
     7
370
    25
100
AcDbSpline
210
0.0
220
0.0
230
1.0
 70
     8
 71
     3
 72
    14
 73
    10
 74
     0
 42
0.000000001
 43
0.00000001
 40
0.0
 40
0.0
 40
0.0
 40
0.0
 40
0.0003951393068452
 40
0.0003951393068452
 40
0.0003951393068452
 40
0.0008163352168664
 40
0.0008163352168664
 40
0.0008163352168664
 40
0.001237857933722
 40
0.001237857933722
 40
0.001237857933722
 40
0.001237857933722
 10
233.9024402841875
 20
67.03254126471398
 30
0.0
 10
233.9479020984188
 20
67.01810440208894
 30
0.0
 10
233.9927897030398
 20
67.00323854152334
 30
0.0
 10
234.0370733957149
 20
66.98795475391788
 30
0.0
 10
234.0842766879543
 20
66.97166331458018
 30
0.0
 10
234.1308025010134
 20
66.95489383649627
 30
0.0
 10
234.1766134102551
 20
66.93766502570098
 30
0.0
 10
234.2224597982442
 20
66.92042287186933
 30
0.0
 10
234.2675990338166
 20
66.90271716566484
 30
0.0
 10
234.311992591859
 20
66.88457430897404
 30
0.0
  0
LINE
  5
202
330
1F
100
AcDbEntity
  8
0
  6
Continuous
 62
     7
370
    25
100
AcDbLine
 10
225.1992520779
 20
57.3206550553
 30
0.0
 11
224.5593154035
 21
57.7328866954
 31
0.0
  0
LINE
  5
203
330
1F
100
AcDbEntity
  8
0
  6
Continuous
 62
     7
370
    25
100
AcDbLine
 10
224.2533813083
 20
58.1043650822
 30
0.0
 11
224.5593154035
 21
57.7328866954
 31
0.0
  0
SPLINE
  5
204
330
1F
100
AcDbEntity
  8
0
  6
Continuous
 62
     7
370
    25
100
AcDbSpline
210
0.0
220
0.0
230
1.0
 70
     8
 71
     3
 72
    13
 73
     9
 74
     0
 42
0.000000001
 43
0.00000001
 40
0.0
 40
0.0
 40
0.0
 40
0.0
 40
0.1618542299043787
 40
0.3254858841861265
 40
0.4910085196952338
 40
0.6585318473097415
 40
0.8281616954395596
 40
0.9999999999999999
 40
0.9999999999999999
 40
0.9999999999999999
 40
0.9999999999999999
 10
224.5593158151659
 20
57.73288669928407
 30
0.0
 10
224.5397384231462
 20
57.7454496763187
 30
0.0
 10
224.5003686472968
 20
57.77071359243967
 30
0.0
 10
224.4388327075224
 20
57.80340728935642
 30
0.0
 10
224.3752760482717
 20
57.83235336306336
 30
0.0
 10
224.3096579456164
 20
57.85686573052762
 30
0.0
 10
224.2422306765658
 20
57.8773007938789
 30
0.0
 10
224.1963460763707
 20
57.88689744886727
 30
0.0
 10
224.173255396198
 20
57.89172680970125
 30
0.0
  0
SPLINE
  5
205
330
1F
100
AcDbEntity
  8
0
  6
Continuous
 62
     7
370
    25
100
AcDbSpline
210
0.0
220
0.0
230
1.0
 70
     8
 71
     3
 72
     9
 73
     5
 74
     0
 42
0.000000001
 43
0.00000001
 40
0.0
 40
0.0
 40
0.0
 40
0.0
 40
0.4907282259506014
 40
1.0
 40
1.0
 40
1.0
 40
1.0
 10
224.173249568906
 20
57.89169881267024
 30
0.0
 10
224.1491560464282
 20
57.89979434488836
 30
0.0
 10
224.100058559869
 20
57.91629132180964
 30
0.0
 10
224.0493578660488
 20
57.93108499082587
 30
0.0
 10
224.0235374337615
 20
57.93861898889047
 30
0.0
  0
SPLINE
  5
206
330
1F
100
AcDbEntity
  8
0
  6
Continuous
 62
     7
370
    25
100
AcDbSpline
210
0.0
220
0.0
230
1.0
 70
     8
 71
     3
 72
    14
 73
    10
 74
     0
 42
0.000000001
 43
0.00000001
 40
0.0
 40
0.0
 40
0.0
 40
0.0
 40
0.0310276388052914
 40
0.0622853718654813
 40
0.1248003166888005
 40
0.2498289731739683
 40
0.4998892603601401
 40
0.7606803622467934
 40
1.0
 40
1.0
 40
1.0
 40
1.0
 10
223.4395967444729
 20
58.3127267315363
 30
0.0
 10
223.4455889838771
 20
58.30889568788293
 30
0.0
 10
223.4576178998362
 20
58.30120519038552
 30
0.0
 10
223.4816777078849
 20
58.285767300879
 30
0.0
 10
223.5239113805313
 20
58.25869684794814
 30
0.0
 10
223.6084739550437
 20
58.20448482315266
 30
0.0
 10
223.7317609245287
 20
58.12548164127637
 30
0.0
 10
223.8778926309867
 20
58.03187546659995
 30
0.0
 10
223.9762592475257
 20
57.96889239020663
 30
0.0
 10
224.0233309481937
 20
57.93875289142704
 30
0.0
  0
LINE
  5
207
330
1F
100
AcDbEntity
  8
0
  6
Continuous
 62
     7
370
    25
100
AcDbLine
 10
221.6370965892
 20
59.4753574085
 30
0.0
 11
221.9280639434
 21
59.2872788694
 31
0.0
  0
SPLINE
  5
208
330
1F
100
AcDbEntity
  8
0
  6
Continuous
 62
     7
370
    25
100
AcDbSpline
210
0.0
220
0.0
230
1.0
 70
     8
 71
     3
 72
     8
 73
     4
 74
     0
 42
0.000000001
 43
0.00000001
 40
0.0
 40
0.0
 40
0.0
 40
0.0
 40
1.0
 40
1.0
 40
1.0
 40
1.0
 10
221.9594522467684
 20
59.26705633922517
 30
0.0
 10
221.9490097409166
 20
59.27388176412258
 30
0.0
 10
221.9385438080268
 20
59.2806247309091
 30
0.0
 10
221.9280560432103
 20
59.28728381856209
 30
0.0
  0
SPLINE
  5
209
330
1F
100
AcDbEntity
  8
0
  6
Continuous
 62
     7
370
    25
100
AcDbSpline
210
0.0
220
0.0
230
1.0
 70
     8
 71
     3
 72
     8
 73
     4
 74
     0
 42
0.000000001
 43
0.00000001
 40
0.0
 40
0.0
 40
0.0
 40
0.0
 40
1.0
 40
1.0
 40
1.0
 40
1.0
 10
219.1734478679411
 20
61.14531199103649
 30
0.0
 10
219.2324476321122
 20
61.10657132411675
 30
0.0
 10
219.2917351956239
 20
61.06850934681671
 30
0.0
 10
219.3513162691135
 20
61.0311255583557
 30
0.0
  0
SPLINE
  5
20A
330
1F
100
AcDbEntity
  8
0
  6
Continuous
 62
     7
370
    25
100
AcDbSpline
210
0.0
220
0.0
230
1.0
 70
     8
 71
     3
 72
     8
 73
     4
 74
     0
 42
0.000000001
 43
0.00000001
 40
0.0
 40
0.0
 40
0.0
 40
0.0
 40
1.0
 40
1.0
 40
1.0
 40
1.0
 10
219.148598121845
 20
61.50852216897257
 30
0.0
 10
219.1560723339355
 20
61.38756432826184
 30
0.0
 10
219.1643684378255
 20
61.2664924858523
 30
0.0
 10
219.1734478679444
 20
61.1453119910376
 30
0.0
  0
LWPOLYLINE
  5
20B
330
1F
100
AcDbEntity
  8
0
  6
Continuous
 62
     7
370
    25
100
AcDbPolyline
 90
       17
 70
   128
 43
0.0
 10
219.1485984806
 20
61.5085215036
 10
219.504679423
 20
62.5211360668
 10
219.9287280855
 20
63.5279240497
 10
220.4165126611
 20
64.518834431
 10
220.9631615668
 20
65.4839730951
 10
221.5632174443
 20
66.4137039683
 10
222.2106898435
 20
67.2987455928
 10
222.8991135036
 20
68.1302606656
 10
223.6216156896
 20
68.8999470027
 10
224.3709827049
 20
69.6001208035
 10
225.1397327429
 20
70.2237914069
 10
225.9201905911
 20
70.7647317936
 10
226.7045641037
 20
71.2175409841
 10
227.4850219518
 20
71.5776980485
 10
228.2537719899
 20
71.8416073464
 10
229.0031390052
 20
72.0066342851
 10
229.1125609496
 20
72.022629195
  0
SPLINE
  5
20C
330
1F
100
AcDbEntity
  8
0
  6
Continuous
 62
     7
370
    25
100
AcDbSpline
210
0.0
220
0.0
230
1.0
 70
     8
 71
     3
 72
    10
 73
     6
 74
     0
 42
0.000000001
 43
0.00000001
 40
0.0
 40
0.0
 40
0.0
 40
0.0
 40
0.2409818396634726
 40
0.5031433556203718
 40
1.0
 40
1.0
 40
1.0
 40
1.0
 10
225.1992520778837
 20
50.61481343201874
 30
0.0
 10
225.2814979488867
 20
50.56313691009819
 30
0.0
 10
225.4532182062312
 20
50.45524206340681
 30
0.0
 10
225.7309395652581
 20
50.32551935294256
 30
0.0
 10
225.8519168123021
 20
50.34829729404755
 30
0.0
 10
225.9311090532176
 20
50.36320783502629
 30
0.0
  0
LINE
  5
20D
330
1F
100
AcDbEntity
  8
0
  6
Continuous
 62
     7
370
    25
100
AcDbLine
 10
220.4160780217
 20
60.343886165
 30
0.0
 11
219.6541993194
 21
60.8345205727
 31
0.0
  0
LINE
  5
20E
330
1F
100
AcDbEntity
  8
0
  6
Continuous
 62
     7
370
    25
100
AcDbLine
 10
219.6541993194
 20
60.8345205727
 30
0.0
 11
219.1734479991
 21
61.1453119487
 31
0.0
  0
LINE
  5
20F
330
1F
100
AcDbEntity
  8
0
  6
Continuous
 62
     7
370
    25
100
AcDbLine
 10
224.2533813083
 20
50.3390336311
 30
0.0
 11
224.5593154035
 21
51.0270450721
 31
0.0
  0
LINE
  5
210
330
1F
100
AcDbEntity
  8
0
  6
Continuous
 62
     7
370
    25
100
AcDbLine
 10
224.5593154035
 20
51.0270450721
 30
0.0
 11
225.1992520779
 21
50.614813432
 31
0.0
  0
SPLINE
  5
211
330
1F
100
AcDbEntity
  8
0
  6
Continuous
 62
     7
370
    25
100
AcDbSpline
210
0.0
220
0.0
230
1.0
 70
     8
 71
     3
 72
    13
 73
     9
 74
     0
 42
0.000000001
 43
0.00000001
 40
0.0
 40
0.0
 40
0.0
 40
0.0
 40
0.1722587823568594
 40
0.3421398271249483
 40
0.5097456257913412
 40
0.6751828993276895
 40
0.8385626190137785
 40
1.0
 40
1.0
 40
1.0
 40
1.0
 10
224.1732438843927
 20
51.30835477753735
 30
0.0
 10
224.1963954083453
 20
51.29023518660241
 30
0.0
 10
224.2423788890971
 20
51.2542461146652
 30
0.0
 10
224.3099199018117
 20
51.2032461312472
 30
0.0
 10
224.3755795164982
 20
51.15492145105605
 30
0.0
 10
224.4391035877475
 20
51.10949044514825
 30
0.0
 10
224.5005339664658
 20
51.06666487739121
 30
0.0
 10
224.5398001334363
 20
51.04019906021804
 30
0.0
 10
224.5593158151659
 20
51.02704528167234
 30
0.0
  0
SPLINE
  5
212
330
1F
100
AcDbEntity
  8
0
  6
Continuous
 62
     7
370
    25
100
AcDbSpline
210
0.0
220
0.0
230
1.0
 70
     8
 71
     3
 72
    11
 73
     7
 74
     0
 42
0.000000001
 43
0.00000001
 40
0.0
 40
0.0
 40
0.0
 40
0.0
 40
0.2392845094072487
 40
0.5001120454065696
 40
0.7515010915046029
 40
1.0
 40
1.0
 40
1.0
 40
1.0
 10
224.0238634729166
 20
51.35566876975024
 30
0.0
 10
223.9767942409204
 20
51.3273542470416
 30
0.0
 10
223.8784180863268
 20
51.26817601648417
 30
0.0
 10
223.732120864742
 20
51.17498811602585
 30
0.0
 10
223.5842801210871
 20
51.07961620005345
 30
0.0
 10
223.48799365837
 20
51.01508094478723
 30
0.0
 10
223.4401287705121
 20
50.9829998747279
 30
0.0
  0
SPLINE
  5
213
330
1F
100
AcDbEntity
  8
0
  6
Continuous
 62
     7
370
    25
100
AcDbSpline
210
0.0
220
0.0
230
1.0
 70
     8
 71
     3
 72
     9
 73
     5
 74
     0
 42
0.000000001
 43
0.00000001
 40
0.0
 40
0.0
 40
0.0
 40
0.0
 40
0.5090669353869909
 40
1.0
 40
1.0
 40
1.0
 40
1.0
 10
224.0244344765007
 20
51.35496981553846
 30
0.0
 10
224.0500830511247
 20
51.34747710737858
 30
0.0
 10
224.1004665524702
 20
51.33275859466632
 30
0.0
 10
224.1492740639655
 20
51.31636623681415
 30
0.0
 10
224.17323528516
 20
51.30831868633756
 30
0.0
  0
LINE
  5
214
330
1F
100
AcDbEntity
  8
0
  6
Continuous
 62
     7
370
    25
100
AcDbLine
 10
225.8543530566
 20
52.2788483828
 30
0.0
 11
224.1732371003
 21
51.3083607986
 31
0.0
  0
LINE
  5
215
330
1F
100
AcDbEntity
  8
0
  6
Continuous
 62
     7
370
    25
100
AcDbLine
 10
222.166749449
 20
52.4321820972
 30
0.0
 11
221.9664537955
 21
51.931024683
 31
0.0
  0
SPLINE
  5
216
330
1F
100
AcDbEntity
  8
0
  6
Continuous
 62
     7
370
    25
100
AcDbSpline
210
0.0
220
0.0
230
1.0
 70
     8
 71
     3
 72
     8
 73
     4
 74
     0
 42
0.000000001
 43
0.00000001
 40
0.0
 40
0.0
 40
0.0
 40
0.0
 40
1.0
 40
1.0
 40
1.0
 40
1.0
 10
222.1663062783605
 20
52.43296584939981
 30
0.0
 10
222.1924816129298
 20
52.45513322637807
 30
0.0
 10
222.2183026528952
 20
52.47776536746969
 30
0.0
 10
222.2437602066036
 20
52.50085008756098
 30
0.0
  0
LINE
  5
217
330
1F
100
AcDbEntity
  8
0
  6
Continuous
 62
     7
370
    25
100
AcDbLine
 10
222.2437603023
 20
52.5008499719
 30
0.0
 11
224.0240530616
 21
51.3550790868
 31
0.0
  0
LINE
  5
218
330
1F
100
AcDbEntity
  8
0
  6
Continuous
 62
     7
370
    25
100
AcDbLine
 10
225.854144298
 20
52.376898318
 30
0.0
 11
225.7661449711
 21
52.4843893863
 31
0.0
  0
LINE
  5
219
330
1F
100
AcDbEntity
  8
0
  6
Continuous
 62
     7
370
    25
100
AcDbLine
 10
223.9377369744
 20
53.4787618893
 30
0.0
 11
222.2437603023
 21
52.5008499719
 31
0.0
  0
LINE
  5
21A
330
1F
100
AcDbEntity
  8
0
  6
Continuous
 62
     7
370
    25
100
AcDbLine
 10
224.0804310569
 20
53.4574697276
 30
0.0
 11
223.9381571258
 21
53.4782745118
 31
0.0
  0
LINE
  5
21B
330
1F
100
AcDbEntity
  8
0
  6
Continuous
 62
     7
370
    25
100
AcDbLine
 10
225.766218728
 20
52.4842852198
 30
0.0
 11
224.0804310569
 21
53.4574697276
 31
0.0
  0
LINE
  5
21C
330
1F
100
AcDbEntity
  8
0
  6
Continuous
 62
     7
370
    25
100
AcDbLine
 10
225.854144298
 20
52.433521137
 30
0.0
 11
225.7661719714
 21
52.4843121932
 31
0.0
  0
SPLINE
  5
21D
330
1F
100
AcDbEntity
  8
0
  6
Continuous
 62
     7
370
    25
100
AcDbSpline
210
0.0
220
0.0
230
1.0
 70
     8
 71
     3
 72
    19
 73
    15
 74
     0
 42
0.000000001
 43
0.00000001
 40
0.0
 40
0.0
 40
0.0
 40
0.0
 40
0.0637853009079321
 40
0.1289628367584881
 40
0.1955871994206041
 40
0.2637095015301855
 40
0.333377557925683
 40
0.4046360709472339
 40
0.4775268158804485
 40
0.5520888236325457
 40
0.6283585584323447
 40
0.7063700889443321
 40
0.8377041805868246
 40
1.0
 40
1.0
 40
1.0
 40
1.0
 10
221.3822371723992
 20
52.60145393675168
 30
0.0
 10
221.4029265414024
 20
52.58809479674254
 30
0.0
 10
221.4447568640539
 20
52.56108492820369
 30
0.0
 10
221.5052478376441
 20
52.52356296267912
 30
0.0
 10
221.5647320358204
 20
52.48804322158929
 30
0.0
 10
221.6228131952902
 20
52.45506309267267
 30
0.0
 10
221.6793453123771
 20
52.42485665640152
 30
0.0
 10
221.7340903671316
 20
52.39774321643873
 30
0.0
 10
221.7868127447259
 20
52.37401159868728
 30
0.0
 10
221.8372543776601
 20
52.35397134524123
 30
0.0
 10
221.8851372961297
 20
52.33785148370196
 30
0.0
 10
221.9401014505051
 20
52.32357351402027
 30
0.0
 10
222.0029327644667
 20
52.31343495676794
 30
0.0
 10
222.0414402801242
 20
52.31990920808079
 30
0.0
 10
222.0627242453194
 20
52.32348767158992
 30
0.0
  0
LINE
  5
21E
330
1F
100
AcDbEntity
  8
0
  6
Continuous
 62
     7
370
    25
100
AcDbLine
 10
222.087359933
 20
52.3495581259
 30
0.0
 11
222.1550339422
 21
52.4211711859
 31
0.0
  0
SPLINE
  5
21F
330
1F
100
AcDbEntity
  8
0
  6
Continuous
 62
     7
370
    25
100
AcDbSpline
210
0.0
220
0.0
230
1.0
 70
     8
 71
     3
 72
     9
 73
     5
 74
     0
 42
0.000000001
 43
0.00000001
 40
0.0
 40
0.0
 40
0.0
 40
0.0
 40
0.5232016984460688
 40
1.0
 40
1.0
 40
1.0
 40
1.0
 10
223.7715591947136
 20
53.38282966848457
 30
0.0
 10
223.702535032065
 20
53.40787183360106
 30
0.0
 10
223.570608543956
 20
53.45573514366079
 30
0.0
 10
223.3291711311374
 20
53.59333327434746
 30
0.0
 10
223.2140541827739
 20
53.65893982935586
 30
0.0
  0
LINE
  5
220
330
1F
100
AcDbEntity
  8
0
  6
Continuous
 62
     7
370
    25
100
AcDbLine
 10
219.4845529858
 20
53.424829392
 30
0.0
 11
219.9360241001
 21
53.5370933649
 31
0.0
  0
LINE
  5
221
330
1F
100
AcDbEntity
  8
0
  6
Continuous
 62
     7
370
    25
100
AcDbLine
 10
219.9360241001
 20
53.5370933649
 30
0.0
 11
221.3822365719
 21
52.6014540318
 31
0.0
  0
SPLINE
  5
222
330
1F
100
AcDbEntity
  8
0
  6
Continuous
 62
     7
370
    25
100
AcDbSpline
210
0.0
220
0.0
230
1.0
 70
     8
 71
     3
 72
     8
 73
     4
 74
     0
 42
0.000000001
 43
0.00000001
 40
0.0
 40
0.0
 40
0.0
 40
0.0
 40
1.0
 40
1.0
 40
1.0
 40
1.0
 10
219.655341556416
 20
53.03007973896836
 30
0.0
 10
219.5982162874918
 20
53.16186592276423
 30
0.0
 10
219.5412877957741
 20
53.29345014442526
 30
0.0
 10
219.4845536778246
 20
53.42482921132685
 30
0.0
  0
LINE
  5
223
330
1F
100
AcDbEntity
  8
0
  6
Continuous
 62
     7
370
    25
100
AcDbLine
 10
221.2737255592
 20
54.3093319796
 30
0.0
 11
219.9360241001
 21
53.5370933649
 31
0.0
  0
LINE
  5
224
330
1F
100
AcDbEntity
  8
0
  6
Continuous
 62
     7
370
    25
100
AcDbLine
 10
222.256754044
 20
54.2115785767
 30
0.0
 11
221.2737255592
 21
54.3093319796
 31
0.0
  0
LINE
  5
225
330
1F
100
AcDbEntity
  8
0
  6
Continuous
 62
     7
370
    25
100
AcDbLine
 10
223.2140541828
 20
53.6589398294
 30
0.0
 11
222.2567530562
 21
54.2115780065
 31
0.0
  0
SPLINE
  5
226
330
1F
100
AcDbEntity
  8
0
  6
Continuous
 62
     7
370
    25
100
AcDbSpline
210
0.0
220
0.0
230
1.0
 70
     8
 71
     3
 72
     8
 73
     4
 74
     0
 42
0.000000001
 43
0.00000001
 40
0.0
 40
0.0
 40
0.0
 40
0.0
 40
1.0
 40
1.0
 40
1.0
 40
1.0
 10
219.4845536778271
 20
53.42482921132105
 30
0.0
 10
219.481416340077
 20
53.46004551819356
 30
0.0
 10
219.479423936179
 20
53.49568977442126
 30
0.0
 10
219.478642538807
 20
53.53178667641613
 30
0.0
  0
LINE
  5
227
330
1F
100
AcDbEntity
  8
0
  6
Continuous
 62
     7
370
    25
100
AcDbLine
 10
220.2897290139
 20
54.0000163911
 30
0.0
 11
219.4786432073
 21
53.5317865215
 31
0.0
  0
SPLINE
  5
228
330
1F
100
AcDbEntity
  8
0
  6
Continuous
 62
     7
370
    25
100
AcDbSpline
210
0.0
220
0.0
230
1.0
 70
     8
 71
     3
 72
     8
 73
     4
 74
     0
 42
0.000000001
 43
0.00000001
 40
0.0000004089325119
 40
0.0000004089325119
 40
0.0000004089325119
 40
0.0000004089325119
 40
0.0015399868451459
 40
0.0015399868451459
 40
0.0015399868451459
 40
0.0015399868451459
 10
220.2897280712957
 20
54.00001638777224
 30
0.0
 10
220.528204639319
 20
54.0943927735886
 30
0.0
 10
220.7666515969877
 20
54.18882138551881
 30
0.0
 10
221.005060335838
 20
54.28331476848126
 30
0.0
  0
LINE
  5
229
330
1F
100
AcDbEntity
  8
0
  6
Continuous
 62
     7
370
    25
100
AcDbLine
 10
221.0050598148
 20
54.2833149156
 30
0.0
 11
221.0294562546
 21
54.288308942
 31
0.0
  0
LINE
  5
22A
330
1F
100
AcDbEntity
  8
0
  6
Continuous
 62
     7
370
    25
100
AcDbLine
 10
221.2737255592
 20
54.3093319796
 30
0.0
 11
221.0294569132
 21
54.288308942
 31
0.0
  0
SPLINE
  5
22B
330
1F
100
AcDbEntity
  8
0
  6
Continuous
 62
     7
370
    25
100
AcDbSpline
210
0.0
220
0.0
230
1.0
 70
     8
 71
     3
 72
     8
 73
     4
 74
     0
 42
0.000000001
 43
0.00000001
 40
0.0
 40
0.0
 40
0.0
 40
0.0
 40
1.0
 40
1.0
 40
1.0
 40
1.0
 10
222.256752250346
 20
54.21157876106824
 30
0.0
 10
222.2873602844692
 20
54.19663875326212
 30
0.0
 10
222.3179117854412
 20
54.18176179586874
 30
0.0
 10
222.3484057235557
 20
54.16694823218782
 30
0.0
  0
ARC
  5
22C
330
1F
100
AcDbEntity
  8
0
  6
Continuous
 62
     7
370
    25
100
AcDbCircle
 10
223.1122483865
 20
59.7122591326
 30
0.0
 40
6.625640594015551
100
AcDbArc
 50
283.7328304029
 51
294.8489571919
  0
ARC
  5
22D
330
1F
100
AcDbEntity
  8
0
  6
Continuous
 62
     7
370
    18
100
AcDbCircle
 10
257.6768564204
 20
44.378988622
 30
0.0
 40
4.89757477279821
100
AcDbArc
 50
341.9410763837
 51
0.6409474454
  0
LWPOLYLINE
  5
22E
330
1F
100
AcDbEntity
  8
0
  6
Continuous
 62
     7
370
    18
100
AcDbPolyline
 90
       45
 70
   128
 43
0.0
 10
236.0262558931
 20
43.8898686334
 10
236.0630566773
 20
44.9385688877
 10
236.1732068073
 20
46.0225941257
 10
236.3559542254
 20
47.1345398861
 10
236.6100503311
 20
48.266810117
 10
236.933759201
 20
49.4116699332
 10
237.32487076
 20
50.5612998922
 10
237.7807119757
 20
51.7078458039
 10
238.2981699083
 20
52.8434763333
 10
238.8737088323
 20
53.9604328092
 10
239.5033985541
 20
55.0510873972
 10
240.1829361439
 20
56.1079872042
 10
240.9076808386
 20
57.1239147322
 10
241.6726813712
 20
58.0919287504
 10
242.472712191
 20
59.0054179045
 10
243.3023080374
 20
59.8581404477
 10
244.1558022992
 20
60.6442730016
 10
245.0273645528
 20
61.3584451542
 10
245.9110409796
 20
61.9957780014
 10
246.800795443
 20
62.5519185071
 10
247.6905499063
 20
63.0230666383
 10
248.5742263331
 20
63.4060048764
 10
249.4457885867
 20
63.6981170825
 10
250.2992828486
 20
63.8974080279
 10
251.1288786949
 20
64.0025164609
 10
251.9289095148
 20
64.0127232301
 10
252.6939100474
 20
63.9279600263
 10
253.418654742
 20
63.7488049115
 10
254.0981923318
 20
63.4764825055
 10
254.7278820536
 20
63.1128521951
 10
255.3034209777
 20
62.6603988165
 10
255.8208789103
 20
62.1222124992
 10
256.276720126
 20
61.5019696525
 10
256.6678316849
 20
60.8039074875
 10
256.9915405549
 20
60.0327939772
 10
257.2456366606
 20
59.1938968653
 10
257.4283840786
 20
58.2929467826
 10
257.5385342086
 20
57.3360981777
 10
257.5753349928
 20
56.3298872044
 10
257.5385342086
 20
55.2811869501
 10
257.4283840786
 20
54.1971617121
 10
257.2456366606
 20
53.0852159517
 10
256.9915405549
 20
51.9529457208
 10
256.6678316849
 20
50.8080859046
 10
256.4151125958
 20
50.0436801523
  0
LWPOLYLINE
  5
22F
330
1F
100
AcDbEntity
  8
0
  6
Continuous
 62
     7
370
    18
100
AcDbPolyline
 90
       26
 70
   128
 43
0.0
 10
251.6656876286
 20
41.8167561134
 10
251.1288786949
 20
41.2143379333
 10
250.2992828486
 20
40.3616153901
 10
249.4457885867
 20
39.5754828362
 10
248.5742263331
 20
38.8613106836
 10
247.6905499063
 20
38.2239778364
 10
246.800795443
 20
37.6678373306
 10
245.9110409796
 20
37.1966891995
 10
245.0273645528
 20
36.8137509614
 10
244.1558022992
 20
36.5216387553
 10
243.3023080374
 20
36.3223478098
 10
242.472712191
 20
36.2172393769
 10
241.6726813712
 20
36.2070326077
 10
240.9076808386
 20
36.2917958115
 10
240.1829361439
 20
36.4709509263
 10
239.5033985541
 20
36.7432733323
 10
238.8737088323
 20
37.1069036426
 10
238.2981699083
 20
37.5593570212
 10
237.7807119757
 20
38.0975433386
 10
237.32487076
 20
38.7177861853
 10
236.933759201
 20
39.4158483502
 10
236.6100503311
 20
40.1869618606
 10
236.3559542254
 20
41.0258589725
 10
236.1732068073
 20
41.9268090551
 10
236.0630566773
 20
42.8836576601
 10
236.0262558931
 20
43.8898686334
  0
LWPOLYLINE
  5
230
330
1F
100
AcDbEntity
  8
0
  6
Continuous
 62
     7
370
    18
100
AcDbPolyline
 90
       37
 70
   128
 43
0.0
 10
237.4903557508
 20
37.5175889212
 10
237.1795385481
 20
37.8506460791
 10
236.7102123165
 20
38.4716749889
 10
236.3051185406
 20
39.1708240266
 10
235.9669302525
 20
39.943482255
 10
235.697877284
 20
40.7845513217
 10
235.499735071
 20
41.6884836732
 10
235.3738114829
 20
42.6493164925
 10
235.3209356272
 20
43.660710697
 10
235.3414571912
 20
44.7159948318
 10
235.4352405146
 20
45.8082073232
 10
235.6016678826
 20
46.9301434851
 10
235.8396401846
 20
48.0744018352
 10
236.1475881089
 20
49.233433976
 10
236.5234800457
 20
50.3995944043
 10
236.9648372335
 20
51.5651901298
 10
237.4687462713
 20
52.7225316251
 10
238.0318848023
 20
53.8639845348
 10
238.6505373181
 20
54.9820191039
 10
239.3206228186
 20
56.0692603661
 10
240.0377204945
 20
57.1185349094
 10
240.7971000204
 20
58.1229218248
 10
241.5937518484
 20
59.0757945284
 10
242.4224214519
 20
59.9708686677
 10
243.277641265
 20
60.8022380503
 10
244.1537705248
 20
61.5644196978
 10
245.0450290214
 20
62.2523854966
 10
245.9455375989
 20
62.8615962251
 10
246.8493557741
 20
63.3880331565
 10
247.7505213321
 20
63.8282247194
 10
248.6430895091
 20
64.1792660756
 10
249.5211723412
 20
64.4388418354
 10
250.3789769415
 20
64.6052390294
 10
251.2108450956
 20
64.6773608404
 10
252.0112891522
 20
64.6547313535
 10
252.7750282428
 20
64.5374989741
 10
253.0815938821
 20
64.4607874116
  0
LWPOLYLINE
  5
231
330
1F
100
AcDbEntity
  8
0
  6
Continuous
 62
     7
370
    18
100
AcDbPolyline
 90
       28
 70
   128
 43
0.0
 10
241.3925954772
 20
46.9877905342
 10
241.4305552997
 20
47.7483426399
 10
241.5439013463
 20
48.54204547
 10
241.7310425733
 20
49.3577571567
 10
241.9893520467
 20
50.1840269911
 10
242.3152038205
 20
51.0092560682
 10
242.7040233153
 20
51.8218595452
 10
243.1503525141
 20
52.6104306108
 10
243.6479260246
 20
53.3638997945
 10
244.189758665
 20
54.0716893328
 10
244.7682447404
 20
54.7238636359
 10
245.375263409
 20
55.311267683
 10
246.0022933518
 20
55.8256559566
 10
246.6405324837
 20
56.2598067981
 10
247.2810213682
 20
56.6076263541
 10
247.9147690001
 20
56.8642318349
 10
248.532878793
 20
57.026020824
 10
249.1266740525
 20
57.0907227991
 10
249.6878190046
 20
57.0574283159
 10
250.2084363044
 20
56.9266058934
 10
250.6812179191
 20
56.7000914992
 10
251.0995270369
 20
56.3810648714
 10
251.4574914165
 20
55.9740045467
 10
251.7500857049
 20
55.4846245444
 10
251.9732032184
 20
54.9197952717
 10
252.1237109315
 20
54.2874449432
 10
252.199496892
 20
53.596450878
 10
252.2086881977
 20
53.1652366268
  0
LWPOLYLINE
  5
232
330
1F
100
AcDbEntity
  8
0
  6
Continuous
 62
     7
370
    18
100
AcDbPolyline
 90
       15
 70
   128
 43
0.0
 10
246.8890034051
 20
43.9164403913
 10
246.6405324837
 20
43.7749133655
 10
246.0022933518
 20
43.4721689906
 10
245.375263409
 20
43.2626039019
 10
244.7682447404
 20
43.1491591122
 10
244.189758665
 20
43.1334276096
 10
243.6479260246
 20
43.2156304972
 10
243.1503525141
 20
43.394613534
 10
242.7040233153
 20
43.6678638755
 10
242.3152038205
 20
44.0315459195
 10
241.9893520467
 20
44.4805545466
 10
241.7310425733
 20
45.0085866112
 10
241.5439013463
 20
45.6082296362
 10
241.4305552997
 20
46.2710659066
 10
241.3925954772
 20
46.9877905342
  0
LWPOLYLINE
  5
233
330
1F
100
AcDbEntity
  8
0
  6
Continuous
 62
     7
370
    18
100
AcDbPolyline
 90
       30
 70
   128
 43
0.0
 10
229.3794523641
 20
47.3187825124
 10
229.4164796877
 20
48.3875775971
 10
229.5273173382
 20
49.4920120738
 10
229.7112257702
 20
50.6247349022
 10
229.9669820666
 20
51.778208774
 10
230.2928845483
 20
52.9447575465
 10
230.6867633113
 20
54.1166174773
 10
231.1459980068
 20
55.2859902654
 10
231.6675323299
 20
56.4450943808
 10
232.2478950924
 20
57.5862152531
 10
232.8832245894
 20
58.7017592624
 10
233.5692929651
 20
59.7843039269
 10
234.3015338719
 20
60.8266427684
 10
235.0750750682
 20
61.8218413929
 10
235.8847683824
 20
62.7632753208
 10
236.7252256033
 20
63.6446803643
 10
237.5908533831
 20
64.4601910278
 10
238.475891433
 20
65.2043792874
 10
239.3744497309
 20
65.8722943218
 10
240.2805485486
 20
66.4594886616
 10
241.1881580263
 20
66.9620562439
 10
242.0912380554
 20
67.3766539159
 10
242.9837790675
 20
67.7005204184
 10
243.8598408265
 20
67.9315003015
 10
244.713594061
 20
68.0680588327
 10
245.5393565197
 20
68.10928456
 10
246.3316326487
 20
68.0549046126
 10
247.0851511286
 20
67.9052812754
 10
247.7948968135
 20
67.6614091342
 10
248.3756560198
 20
67.3723380563
  0
LWPOLYLINE
  5
234
330
1F
100
AcDbEntity
  8
0
  6
Continuous
 62
     7
370
    18
100
AcDbPolyline
 90
       11
 70
   128
 43
0.0
 10
232.6394347053
 20
40.1134496625
 10
232.2478950924
 20
40.3631832515
 10
231.6675323299
 20
40.8342315411
 10
231.1459980068
 20
41.3911849442
 10
230.6867633113
 20
42.0303366388
 10
230.2928845483
 20
42.7474338299
 10
229.9669820666
 20
43.5377036062
 10
229.7112257702
 20
44.3958875437
 10
229.5273173382
 20
45.3162742162
 10
229.4164796877
 20
46.2927382655
 10
229.3794523641
 20
47.3187825124
  0
LWPOLYLINE
  5
235
330
1F
100
AcDbEntity
  8
0
  6
Continuous
 62
     7
370
    18
100
AcDbPolyline
 90
       17
 70
   128
 43
0.0
 10
248.7335409266
 20
45.1161892942
 10
248.7710552437
 20
45.7159165632
 10
248.8827608559
 20
46.3455603249
 10
249.0661622086
 20
46.991055387
 10
249.3171624966
 20
47.6379825215
 10
249.6301547072
 20
48.2718901328
 10
249.998147238
 20
48.8786182023
 10
250.4129194779
 20
49.4446130107
 10
250.8652061996
 20
49.9572314962
 10
251.3449042602
 20
50.4050221782
 10
251.8412977824
 20
50.7779829096
 10
252.343298276
 20
51.067781626
 10
252.8396917981
 20
51.2679446561
 10
253.3193898588
 20
51.3740015659
 10
253.7716765805
 20
51.3835822139
 10
254.1864488204
 20
51.2964732403
 10
254.4671050139
 20
51.1688906624
  0
ARC
  5
236
330
1F
100
AcDbEntity
  8
0
  6
Continuous
 62
     7
370
    18
100
AcDbCircle
 10
251.0697345748
 20
44.86320638
 30
0.0
 40
2.349851296808898
100
AcDbArc
 50
173.8196086095
 51
234.86820391
  0
LWPOLYLINE
  5
237
330
1F
100
AcDbEntity
  8
0
  6
Continuous
 62
     7
370
    18
100
AcDbPolyline
 90
       15
 70
   128
 43
0.0
 10
234.0035338026
 20
43.9831458847
 10
233.9962931058
 20
44.0179712017
 10
233.8537090002
 20
44.9218971994
 10
233.7867080234
 20
45.8801083074
 10
233.7958084499
 20
46.8851944315
 10
233.8809398156
 20
47.9293831724
 10
234.0414442343
 20
49.0045997117
 10
234.2760803498
 20
50.1025294546
 10
234.5830338719
 20
51.2146818131
 10
234.959930089
 20
52.3324557945
 10
235.4038556004
 20
53.4472086313
 10
235.9113767549
 20
54.5503188975
 10
236.4785692859
 20
55.6332560887
 10
237.1010459697
 20
56.6876452584
 10
237.7739948217
 20
57.7053343159
  0
LWPOLYLINE
  5
238
330
1F
100
AcDbEntity
  8
0
  6
Continuous
 62
     7
370
    18
100
AcDbPolyline
 90
       19
 70
   128
 43
0.0
 10
234.5153295695
 20
41.0532181837
 10
234.3665492187
 20
41.2649910212
 10
233.9682107923
 20
41.9510864598
 10
233.6403524334
 20
42.7143938276
 10
233.3854568547
 20
43.5491310925
 10
233.2054549087
 20
44.4489771056
 10
233.1017097825
 20
45.4071163755
 10
233.0750064613
 20
46.4162918977
 10
233.1255484352
 20
47.4688611672
 10
233.2529517728
 20
48.556851741
 10
233.4562523649
 20
49.6720241179
 10
233.733909876
 20
50.8059315059
 10
234.083822232
 20
51.9499873355
 10
234.5033381326
 20
53.0955256203
 10
234.9892814178
 20
54.2338709174
 10
235.5379708236
 20
55.3564022045
 10
236.145251593
 20
56.4546171359
 10
236.8065237923
 20
57.5201985803
 10
237.5167798492
 20
58.5450762149
  0
LWPOLYLINE
  5
239
330
1F
100
AcDbEntity
  8
0
  6
Continuous
 62
     7
370
    18
100
AcDbPolyline
 90
       22
 70
   128
 43
0.0
 10
242.9339580815
 20
47.1957461852
 10
242.9720917598
 20
47.8896107172
 10
243.0858405063
 20
48.6156313616
 10
243.2732576635
 20
49.3613854744
 10
243.5311371074
 20
50.1141132644
 10
243.8550656019
 20
50.8609349956
 10
244.2395014952
 20
51.5890729398
 10
244.677866586
 20
52.2860681003
 10
245.1626602171
 20
52.9399941759
 10
245.6855875265
 20
53.5396633495
 10
246.2377011991
 20
54.074814204
 10
246.8095543319
 20
54.5362908447
 10
247.3913623527
 20
54.91619683
 10
247.9731703734
 20
55.2080320871
 10
248.5450235062
 20
55.4068030197
 10
249.0971371788
 20
55.509109043
 10
249.6200644882
 20
55.5131988894
 10
250.1048581193
 20
55.4190036261
 10
250.5432232101
 20
55.2281340263
 10
250.9276591034
 20
54.9438563165
 10
251.251587598
 20
54.5710344644
 10
251.4226392655
 20
54.2924125676
  0
LWPOLYLINE
  5
23A
330
1F
100
AcDbEntity
  8
0
  6
Continuous
 62
     7
370
    18
100
AcDbPolyline
 90
       10
 70
   128
 43
0.0
 10
245.5479512304
 20
44.0183273463
 10
245.1626602171
 20
44.0247029081
 10
244.677866586
 20
44.1188981714
 10
244.2395014952
 20
44.3097677713
 10
243.8550656019
 20
44.594045481
 10
243.5311371074
 20
44.9668673331
 10
243.2732576635
 20
45.4218538548
 10
243.0858405063
 20
45.9512207239
 10
242.9720917598
 20
46.545909861
 10
242.9339580815
 20
47.1957461852
  0
ARC
  5
23B
330
1F
100
AcDbEntity
  8
0
  6
Continuous
 62
     7
370
    18
100
AcDbCircle
 10
250.7446923542
 20
50.5529404962
 30
0.0
 40
14.59972304561303
100
AcDbArc
 50
110.1861656722
 51
139.1704809678
  0
LWPOLYLINE
  5
23C
330
1F
100
AcDbEntity
  8
0
  6
Continuous
 62
     7
370
    18
100
AcDbPolyline
 90
       13
 70
   128
 43
0.0
 10
238.8609729108
 20
60.2172397322
 10
239.6888825539
 20
61.1031146232
 10
240.5447126731
 20
61.9192339109
 10
241.4217983041
 20
62.6592412263
 10
242.3133090234
 20
63.3173729015
 10
243.2123019606
 20
63.8885053039
 10
244.1117762116
 20
64.3681892894
 10
245.0047269207
 20
64.7526890282
 10
245.8842001049
 20
65.0390121337
 10
246.7433469835
 20
65.2249265768
 10
247.5754762506
 20
65.3089862999
 10
248.3741083219
 20
65.2905351562
 10
248.4999364211
 20
65.2778928212
  0
LINE
  5
23D
330
1F
100
AcDbEntity
  8
0
  6
Continuous
 62
     7
370
    18
100
AcDbLine
 10
224.8930881507
 20
57.6913901112
 30
0.0
 11
225.1992520779
 21
57.3206550553
 31
0.0
  0
LINE
  5
23E
330
1F
100
AcDbEntity
  8
0
  6
Continuous
 62
     7
370
    18
100
AcDbLine
 10
224.8930881507
 20
49.9272799635
 30
0.0
 11
225.1992520779
 21
50.614813432
 31
0.0
  0
LINE
  5
23F
330
1F
100
AcDbEntity
  8
0
  6
Continuous
 62
     7
370
    18
100
AcDbLine
 10
225.9351623947
 20
51.0396454151
 30
0.0
 11
225.1992593219
 21
50.6148176139
 31
0.0
  0
LINE
  5
240
330
1F
100
AcDbEntity
  8
0
  6
Continuous
 62
     7
370
    18
100
AcDbLine
 10
225.8685868376
 20
51.7828713828
 30
0.0
 11
224.5593154035
 21
51.0270450721
 31
0.0
  0
LINE
  5
241
330
1F
100
AcDbEntity
  8
0
  6
Continuous
 62
     7
370
    18
100
AcDbLine
 10
221.3822365719
 20
52.6014540318
 30
0.0
 11
221.0857492977
 21
52.105392414
 31
0.0
  0
LINE
  5
242
330
1F
100
AcDbEntity
  8
0
  6
Continuous
 62
     7
370
    18
100
AcDbLine
 10
223.2140541828
 20
53.6589398294
 30
0.0
 11
221.382297158
 21
52.6014890074
 31
0.0
  0
LINE
  5
243
330
1F
100
AcDbEntity
  8
0
  6
Continuous
 62
     7
370
    18
100
AcDbLine
 10
223.2140541828
 20
53.6589398294
 30
0.0
 11
223.3353643373
 21
53.597189316
 31
0.0
  0
OLE2FRAME
  5
244
330
1F
100
AcDbEntity
  8
0
100
AcDbOle2Frame
 70
     2
  3
Paintbrush-Bild
 10
13.8511154363
 20
38.264191557
 30
0.0
 11
51.6290888628
 21
31.9806341108
 31
0.0
 71
     2
 72
     0
 73
     1
 90
    12928
310
80552BED0767C5B32B40DDAF6807D121434000000000000000006FFBDDFB85D0
310
4940DDAF6807D121434000000000000000006FFBDDFB85D04940416F4BD60AFB
310
3F4000000000000000002BED0767C5B32B40416F4BD60AFB3F40000000000000
310
0000000000000100000000010000010000000100000000000100000000320000
310
D0CF11E0A1B11AE1000000000000000000000000000000003E000300FEFF0900
310
0600000000000000000000000100000001000000000000000010000002000000
310
01000000FEFFFFFF0000000000000000FFFFFFFFFFFFFFFFFFFFFFFFFFFFFFFF
310
FFFFFFFFFFFFFFFFFFFFFFFFFFFFFFFFFFFFFFFFFFFFFFFFFFFFFFFFFFFFFFFF
310
FFFFFFFFFFFFFFFFFFFFFFFFFFFFFFFFFFFFFFFFFFFFFFFFFFFFFFFFFFFFFFFF
310
FFFFFFFFFFFFFFFFFFFFFFFFFFFFFFFFFFFFFFFFFFFFFFFFFFFFFFFFFFFFFFFF
310
FFFFFFFFFFFFFFFFFFFFFFFFFFFFFFFFFFFFFFFFFFFFFFFFFFFFFFFFFFFFFFFF
310
FFFFFFFFFFFFFFFFFFFFFFFFFFFFFFFFFFFFFFFFFFFFFFFFFFFFFFFFFFFFFFFF
310
FFFFFFFFFFFFFFFFFFFFFFFFFFFFFFFFFFFFFFFFFFFFFFFFFFFFFFFFFFFFFFFF
310
FFFFFFFFFFFFFFFFFFFFFFFFFFFFFFFFFFFFFFFFFFFFFFFFFFFFFFFFFFFFFFFF
310
FFFFFFFFFFFFFFFFFFFFFFFFFFFFFFFFFFFFFFFFFFFFFFFFFFFFFFFFFFFFFFFF
310
FFFFFFFFFFFFFFFFFFFFFFFFFFFFFFFFFFFFFFFFFFFFFFFFFFFFFFFFFFFFFFFF
310
FFFFFFFFFFFFFFFFFFFFFFFFFFFFFFFFFFFFFFFFFFFFFFFFFFFFFFFFFFFFFFFF
310
FFFFFFFFFFFFFFFFFFFFFFFFFFFFFFFFFFFFFFFFFFFFFFFFFFFFFFFFFFFFFFFF
310
FFFFFFFFFFFFFFFFFFFFFFFFFFFFFFFFFFFFFFFFFFFFFFFFFFFFFFFFFFFFFFFF
310
FFFFFFFFFFFFFFFFFFFFFFFFFFFFFFFFFFFFFFFFFFFFFFFFFFFFFFFFFFFFFFFF
310
FDFFFFFFFEFFFFFFFEFFFFFFFEFFFFFF05000000060000000700000008000000
310
090000000A0000000B0000000C0000000D0000000E0000000F00000010000000
310
11000000120000001300000014000000150000001600000017000000FEFFFFFF
310
FFFFFFFFFFFFFFFFFFFFFFFFFFFFFFFFFFFFFFFFFFFFFFFFFFFFFFFFFFFFFFFF
310
FFFFFFFFFFFFFFFFFFFFFFFFFFFFFFFFFFFFFFFFFFFFFFFFFFFFFFFFFFFFFFFF
310
FFFFFFFFFFFFFFFFFFFFFFFFFFFFFFFFFFFFFFFFFFFFFFFFFFFFFFFFFFFFFFFF
310
FFFFFFFFFFFFFFFFFFFFFFFFFFFFFFFFFFFFFFFFFFFFFFFFFFFFFFFFFFFFFFFF
310
FFFFFFFFFFFFFFFFFFFFFFFFFFFFFFFFFFFFFFFFFFFFFFFFFFFFFFFFFFFFFFFF
310
FFFFFFFFFFFFFFFFFFFFFFFFFFFFFFFFFFFFFFFFFFFFFFFFFFFFFFFFFFFFFFFF
310
FFFFFFFFFFFFFFFFFFFFFFFFFFFFFFFFFFFFFFFFFFFFFFFFFFFFFFFFFFFFFFFF
310
FFFFFFFFFFFFFFFFFFFFFFFFFFFFFFFFFFFFFFFFFFFFFFFFFFFFFFFFFFFFFFFF
310
FFFFFFFFFFFFFFFFFFFFFFFFFFFFFFFFFFFFFFFFFFFFFFFFFFFFFFFFFFFFFFFF
310
FFFFFFFFFFFFFFFFFFFFFFFFFFFFFFFFFFFFFFFFFFFFFFFFFFFFFFFFFFFFFFFF
310
FFFFFFFFFFFFFFFFFFFFFFFFFFFFFFFFFFFFFFFFFFFFFFFFFFFFFFFFFFFFFFFF
310
FFFFFFFFFFFFFFFFFFFFFFFFFFFFFFFFFFFFFFFFFFFFFFFFFFFFFFFFFFFFFFFF
310
FFFFFFFFFFFFFFFFFFFFFFFFFFFFFFFFFFFFFFFFFFFFFFFFFFFFFFFFFFFFFFFF
310
52006F006F007400200045006E00740072007900000000000000000000000000
310
0000000000000000000000000000000000000000000000000000000000000000
310
16000500FFFFFFFFFFFFFFFF020000000A00030000000000C000000000000046
310
0000000000000000000000005033EE662DA7D30103000000C000000000000000
310
01004F006C006500000000000000000000000000000000000000000000000000
310
0000000000000000000000000000000000000000000000000000000000000000
310
0A000200FFFFFFFFFFFFFFFFFFFFFFFF00000000000000000000000000000000
310
0000000000000000000000000000000000000000000000001400000000000000
310
010043006F006D0070004F0062006A0000000000000000000000000000000000
310
0000000000000000000000000000000000000000000000000000000000000000
310
120002010100000003000000FFFFFFFF00000000000000000000000000000000
310
0000000000000000000000000000000000000000010000004D00000000000000
310
01004F006C006500310030004E00610074006900760065000000000000000000
310
0000000000000000000000000000000000000000000000000000000000000000
310
1A000200FFFFFFFFFFFFFFFFFFFFFFFF00000000000000000000000000000000
310
0000000000000000000000000000000000000000040000002426000000000000
310
FEFFFFFF02000000FEFFFFFFFFFFFFFFFFFFFFFFFFFFFFFFFFFFFFFFFFFFFFFF
310
FFFFFFFFFFFFFFFFFFFFFFFFFFFFFFFFFFFFFFFFFFFFFFFFFFFFFFFFFFFFFFFF
310
FFFFFFFFFFFFFFFFFFFFFFFFFFFFFFFFFFFFFFFFFFFFFFFFFFFFFFFFFFFFFFFF
310
FFFFFFFFFFFFFFFFFFFFFFFFFFFFFFFFFFFFFFFFFFFFFFFFFFFFFFFFFFFFFFFF
310
FFFFFFFFFFFFFFFFFFFFFFFFFFFFFFFFFFFFFFFFFFFFFFFFFFFFFFFFFFFFFFFF
310
FFFFFFFFFFFFFFFFFFFFFFFFFFFFFFFFFFFFFFFFFFFFFFFFFFFFFFFFFFFFFFFF
310
FFFFFFFFFFFFFFFFFFFFFFFFFFFFFFFFFFFFFFFFFFFFFFFFFFFFFFFFFFFFFFFF
310
FFFFFFFFFFFFFFFFFFFFFFFFFFFFFFFFFFFFFFFFFFFFFFFFFFFFFFFFFFFFFFFF
310
FFFFFFFFFFFFFFFFFFFFFFFFFFFFFFFFFFFFFFFFFFFFFFFFFFFFFFFFFFFFFFFF
310
FFFFFFFFFFFFFFFFFFFFFFFFFFFFFFFFFFFFFFFFFFFFFFFFFFFFFFFFFFFFFFFF
310
FFFFFFFFFFFFFFFFFFFFFFFFFFFFFFFFFFFFFFFFFFFFFFFFFFFFFFFFFFFFFFFF
310
FFFFFFFFFFFFFFFFFFFFFFFFFFFFFFFFFFFFFFFFFFFFFFFFFFFFFFFFFFFFFFFF
310
FFFFFFFFFFFFFFFFFFFFFFFFFFFFFFFFFFFFFFFFFFFFFFFFFFFFFFFFFFFFFFFF
310
FFFFFFFFFFFFFFFFFFFFFFFFFFFFFFFFFFFFFFFFFFFFFFFFFFFFFFFFFFFFFFFF
310
FFFFFFFFFFFFFFFFFFFFFFFFFFFFFFFFFFFFFFFFFFFFFFFFFFFFFFFFFFFFFFFF
310
FFFFFFFFFFFFFFFFFFFFFFFFFFFFFFFFFFFFFFFFFFFFFFFFFFFFFFFFFFFFFFFF
310
0100000200000000000000000000000000000000000000000000000000000000
310
0000000000000000000000000000000000000000000000000000000000000000
310
0100FEFF030A0000FFFFFFFF0A00030000000000C00000000000004607000000
310
5042727573680007000000504272757368000700000050427275736800F439B2
310
7100000000000000000000000000000000000000000000000000000000000000
310
0000000000000000000000000000000000000000000000000000000000000000
310
0000000000000000000000000000000000000000000000000000000000000000
310
0000000000000000000000000000000000000000000000000000000000000000
310
0000000000000000000000000000000000000000000000000000000000000000
310
0000000000000000000000000000000000000000000000000000000000000000
310
0000000000000000000000000000000000000000000000000000000000000000
310
0000000000000000000000000000000000000000000000000000000000000000
310
0000000000000000000000000000000000000000000000000000000000000000
310
0000000000000000000000000000000000000000000000000000000000000000
310
0000000000000000000000000000000000000000000000000000000000000000
310
0000000000000000000000000000000000000000000000000000000000000000
310
20260000424D0E260000000000003E00000028000000B40200006E0000000100
310
01000000000000000000130B0000130B00000200000002000000000000FFFFFF
310
FFFFFFFFFFFFFFFFFFFFFFFFFFFFFFFFFFFFFFFFFFFFFFFFFFFFFFFFFFFFFFFF
310
FFFFFFFFFFFFFFFFFFFFFFFFFFFFFFFFFFFFFFFFFFFFFFFFFFFFFFFFFFFFFFFF
310
FFFFFFFFFFFFFFFFFFFFFFFFFFFFFFFFFFFFFFFFFFFFFFFFF000FFFFFFFFFFFF
310
FFFFFFFFFFFFFFFFFFFFFFFFFFFFFFFFFFFFFFFFFFFFFFFFFFFFFFFFFFFFFFFF
310
FFFFFFFFFFFFFFFFFFFFFFFFFFFFFFFFFFFFFFFFFFFFFFFFFFFFFFFFFFFFFFFF
310
FFFFFFFFFFFFFFFFFFFFFFFFFFFFFFFFF000FFFFFFFFFFFFFFFFFFFFFFFFFFFF
310
FFFFFFFFFFFFFFFFFFFFFFFFFFFFFFFFFFFFFFFFFFFFFFFFFFFFFFFFFFFFFFFF
310
FFFFFFFFFFFFFFFFFFFFFFFFFFFFFFFFFFFFFFFFFFFFFFFFFFFFFFFFFFFFFFFF
310
FFFFFFFFFFFFFFFFF000FFFFFFFFFFFFFFFFFFFFFFFFFFFFFFFFFFFFFFFFFFFF
310
FFFFFFFFFFFFFFFFFFFFFFFFFFFFFFFFFFFFFFFFFFFFFFFFFFFFFFFFFFFFFFFF
310
FFFFFFFFFFFFFFFFFFFFFFFFFFFFFFFFFFFFFFFFFFFFFFFFFFFFFFFFFFFFFFFF
310
F000FFFFFFFFFFFFFFFFFFFFFFFFFFFFFFFFFFFFFFFFFFFFFFFFFFFFFFFFFFFF
310
FFFFFFFFFFFFFFFFFFFFFFFFFFFFFFFFFFFFFFFFFFFFFFFFFFFFFFFFFFFFFFFF
310
FFFFFFFFFFFFFFFFFFFFFFFFFFFFFFFFFFFFFFFFFFFFFFFFF000FFFFFFFFFFFF
310
FFFFFFFFFFFFFFFFFFFFFFFFFFFFFFFFFFFFFFFFFFFFFFFFFFFFFFFFFFFFFFFF
310
FFFFFFFFFFFFFFFFFFFFFFFFFFFFFFFFFFFFFFFFFFFFFFFFFFFFFFFFFFFFFFFF
310
FFFFFFFFFFFFFFFFFFFFFFFFFFFFFFFFF000FFFFFFFFFFFFFFFFFFFFFFFFFFFF
310
FFFFFFFFFFFFFFFFFFFFFFFFFFFFFFFFFFFFFFFFFFFFFFFFFFFFFFFFFFFFFFFF
310
FFFFFFFFFFFFFFFFFFFFFFFFFFFFFFFFFFFFFFFFFFFFFFFFFFFFFFFFFFFFFFFF
310
FFFFFFFFFFFFFFFFF000FFFFFFFFFFFFFFFFFFFFFFFFFFFFFFFFFFFFFFFFFFFF
310
FFFFFFFFFFFFFFFFFFFFFFFFFFFFFFFFFFFFFFFFFFFFFFFFFFFFFFFFFFFFFFFF
310
FFFFFFFFFFFFFFFFFFFFFFFFFFFFFFFFFFFFFFFFFFFFFFFFFFFFFFFFFFFFFFFF
310
F000FFFFFFFFFFFFFFFFFFFFFFFFFFFFFFFFFFFFFFFFFFFFFFFFFFFFFFFFFFFF
310
FFFFFFFFFFFFFFFFFFFFFFFFFFFFFFFFFFFFFFFFFFFFFFFFFFFFFFFFFFFFFFFF
310
FFFFFFFFFFFFFFFFFFFFFFFFFFFFFFFFFFFFFFFFFFFFFFFFF000FFFFFFFFFFFF
310
FFFFFFFFFFFFFFFFFFFFFFFFFFFFFFFFFFFFFFFFFFFFFFFFFFFFFFFFFFFFFFFF
310
FFFFFFFFFFFFFFFFFFFFFFFFFFFFFFFFFFFFFFFFFFFFFFFFFFFFFFFFFFFFFFFF
310
FFFFFFFFFFFFFFFFFFFFFFFFFFFFFFFFF000FFFFFFFFFFFFFFFFFFFFFFFFFFFF
310
FFFFFFFFFFFFFFFFFFFFFFFFFFFFFFFFFFFFFFFFFFFFFFFFFFFFFFFFFFFFFFFF
310
FFFFFFFFFFFFFFFFFFFFFFFFFFFFFFFFFFFFFFFFFFFFFFFFFFFFFFFFFFFFFFFF
310
FFFFFFFFFFFFFFFFF000FFFFFFFFFFFFFFFFFFFFFFFFFFFFFFFFFFFFFFFFFFFF
310
FFFFFFFFFFFFFFFFFFFFFFFFFFFFFFFFFFFFFFFFFFFFFFFFFFFFFFFFFFFFFFFF
310
FFFFFFFFFFFFFFFFFFFFFFFFFFFFFFFFFFFFFFFFFFFFFFFFFFFFFFFFFFFFFFFF
310
F000FFFFFFFFFFFFFFFFFFFFFFFFFFFFFFFFFFFFFFFFFFFFFFFFFFFFFFFFFFFF
310
FFFFFFFFFFFFFFFFFFFFFFFFFFFFFFFFFFFFFFFFFFFFFFFFFFFFFFFFFFFFFFFF
310
FFFFFFFFFFFFFFFFFFFFFFFFFFFFFFFFFFFFFFFFFFFFFFFFF000FFFFFFFFFFFF
310
FFFFFFFFFFFFFFFFFFFFFFFFFFFFFFFFFFFFFFFFFFFFFFFFFFFFFFFFFFFFFFFF
310
FFFFFFFFFFFFFFFFFFFFFFFFFFFFFFFFFFFFFFFFFFFFFFFFFFFFFFFFFFFFFFFF
310
FFFFFFFFFFFFFFFFFFFFFFFFFFFFFFFFF000FFFFFFFFFFFFFFFFFFFFFFFFFFFF
310
FFFFFFFFFFFFFFFFFFFFFFFFFFFFFFFFFFFFFFFFFFFFFFFFFFFFFFFFFFFFFFFF
310
FFFFFFFFFFFFFFFFFFFFFFFFFFFFFFFFFFFFFFFFFFFFFFFFFFFFFFFFFFFFFFFF
310
FFFFFFFFFFFFFFFFF000FFFFFFFFFFFFFFFFFFFFFFFFFFFFFFFFFFFFFFFFFFFF
310
FFFFFFFFFFFFFFFFFFFFFFFFFFFFFFFFFFFFFFFFFFFFFFFFFFFFFFFFFFFFFFFF
310
FFFFFFFFFFFFFFFFFFFFFFFFFFFFFFFFFFFFFFFFFFFFFFFFFFFFFFFFFFFFFFFF
310
F000FFFFFFFFFFFFFFFFFFFFFFFFFFFFFFFFFFFFFFFFFFFFFFFFFFFFFFFFFFFF
310
FFFFFFFFFFFFFFFFFFFFFFFFFFFFFFFFFFFFFFFFFFFFFFFFFFFFFFFFFFFFFFFF
310
FFFFFFFFFFFFFFFFFFFFFFFFFFFFFFFFFFFFFFFFFFFFFFFFF000FFFFFFFFFFFF
310
FFFFFFFFFFFFFFFFFFFFFFFFFFFFFFFFFFFFFFFFFFFFFFFFFFFFFFFFFFFFFFFF
310
FFFFFFFFFFFFFFFFFFFFFFFFFFFFFFFFFFFFFFFFFFFFFFFFFFFFFFFFFFFFFFFF
310
FFFFFFFFFFFFFFFFFFFFFFFFFFFFFFFFF000FFFFFFFFFFFFFFFFFFFFFFFFFFFF
310
FFFFFFFFFFFFFFFFFFFFFFFFFFFFFFFFFFFFFFFFFFFFFFFFFFFFFFFFFFFFFFFF
310
FFFFFFFFFFFFFFFFFFFFFFFFFFFFFFFFFFFFFFFFFFFFFFFFFFFFFFFFFFFFFFFF
310
FFFFFFFFFFFFFFFFF000FFFFF80003FFFFFFFFFFFFFFFFFFFFFFFFFFFFFFFFFF
310
FFFFF00007FFFFFFFFFF00007FFFFFF800000000000000007FFFFFFFFFFFFFFF
310
FFFFFFFC001FFFFFFFFFFFFFFC001FFFFFFFFFFFFFFFFFFFFFFFFFFE0007FFFF
310
F000FFFF8000007FFFFFFFF8000FFFFFC0007FFFFF80007FFFFF0000007FFFFF
310
FFF8000007FFFFF800000000000000007FFFFFF0001FFFFFFFFFFFC00001FFFF
310
FFFFFFFFC00001FFFFFFFF000000000003FFFFE000007FFFF000FFFE0000000F
310
FFFFFFF0000FFFFF80007FFFFF80007FFFFC0000001FFFFFFFC0000001FFFFF8
310
00000000000000007FFFFFF0001FFFFFFFFFFE0000003FFFFFFFFFFE0000003F
310
FFFFFF000000000003FFFF0000000FFFF000FFF800000003FFFFFFF00007FFFF
310
80007FFFFF80007FFFF000000007FFFFFF000000003FFFF80000000000000000
310
7FFFFFF0001FFFFFFFFFF80000000FFFFFFFFFF80000000FFFFFFF0000000000
310
03FFFC00000003FFF000FFE000000000FFFFFFF00007FFFF80003FFFFF80007F
310
FFC000000001FFFFFC000000001FFFF800000000000000007FFFFFF0001FFFFF
310
FFFFE000000003FFFFFFFFE000000003FFFFFF000000000003FFF000000000FF
310
F000FF80000000007FFFFFF00007FFFF80003FFFFF80007FFF8000000000FFFF
310
F80000000007FFF800000000000000007FFFFFF0001FFFFFFFFFC000000001FF
310
FFFFFFC000000001FFFFFF000000000003FFC0000000007FF000FF0000000000
310
3FFFFFE00007FFFF00003FFFFF80007FFE00000000003FFFF00000000003FFF8
310
00000000000000007FFFFFF0001FFFFFFFFF8000000000FFFFFFFF8000000000
310
FFFFFF000000000003FF80000000003FF000FE00000000001FFFFFE00003FFFF
310
00003FFFFF80007FFC00000000001FFFE00000000001FFF8000001FFFE000000
310
7FFFFFF0001FFFFFFFFE00000000003FFFFFFE00000000003FFFFF0000000000
310
03FF00000000001FF000FC00000000000FFFFFE00003FFFF00001FFFFF80007F
310
F800000000001FFFC00000000000FFF8000001FFFE0000007FFFFFF0001FFFFF
310
FFFC00000000001FFFFFFC00000000001FFFFF000000000003FE00000000000F
310
F000F8000000000007FFFFE00003FFFF00001FFFFF80007FF800000000000FFF
310
800000000000FFF8000001FFFE0000007FFFFFF0001FFFFFFFF800000000000F
310
FFFFF800000000000FFFFF000000000003FC000000000007F000F80000000000
310
03FFFFC00003FFFE00001FFFFF80007FF0000000000007FF0000000000007FF8
310
000001FFFE0000007FFFFFF0001FFFFFFFF0000000000007FFFFF00000000000
310
07FFFF000000000003F8000000000003F000F0000000000003FFFFC00001FFFE
310
00001FFFFF80007FE0000000000007FE0000000000003FF8000001FFFE000000
310
7FFFFFF0001FFFFFFFF0000000000007FFFFF0000000000007FFFF0000000000
310
03F800001F800003F000E00001FFF00001FFFFC00001FFFE00000FFFFF80007F
310
E00001FFE00003FE00001FFF00003FF8000001FFFE0000007FFFFFF0001FFFFF
310
FFE000003E000003FFFFE000003E000003FFFF000000000003F00001FFF80001
310
F000E00007FFFC0001FFFFC00001FFFE00000FFFFF80007FC0000FFFFC0003FC
310
0000FFFFC0001FF8000001FFFE0000007FFFFFF0001FFFFFFFC00003FFE00001
310
FFFFC00003FFE00001FFFF0001FFFFFFFFF00007FFFE0001F000E0000FFFFF00
310
00FFFF800001FFFC00000FFFFF80007FC0001FFFFE0001FC0001FFFFE0001FF8
310
000001FFFE0000007FFFFFF0001FFFFFFF80000FFFF80000FFFF80000FFFF800
310
00FFFF0003FFFFFFFFE0000FFFFF8000F000C0003FFFFF8000FFFF800000FFFC
310
000007FFFF80007F80003FFFFF0001FC0003FFFFF0001FF8000001FFFE000000
310
7FFFFFF0001FFFFFFF80003FFFFE0000FFFF80003FFFFE0000FFFF0003FFFFFF
310
FFE0003FFFFF8000F000C0003FFFFF8000FFFF800000FFFC000007FFFF80007F
310
80007FFFFF8001F80007FFFFF8000FF8000001FFFE0000007FFFFFF0001FFFFF
310
FF00007FFFFF00007FFF00007FFFFF00007FFF0003FFFFFFFFE0003FFFFFC000
310
F000C0007FFFFFC000FFFF000000FFFC000007FFFF80007F8000FFFFFF8000F8
310
000FFFFFF8000FF8000001FFFE0000007FFFFFF0001FFFFFFF0000FFFFFF8000
310
7FFF0000FFFFFF80007FFF0003FFFFFFFFC0007FFFFFC00070008000FFFFFFC0
310
00FFFF000000FFF8000007FFFF80007F8000FFFFFF8000F8000FFFFFF8000FF8
310
000001FFFE0000007FFFFFF0001FFFFFFE0001FFFFFFC0003FFE0001FFFFFFC0
310
003FFF0003FFFFFFFFC0007FFFFFE00070008000FFFFFFC0007FFF0000007FF8
310
000003FFFF80007F0001FFFFFF8000F8000FFFFFF8000FF8000001FFFE000000
310
7FFFFFF0001FFFFFFE0001FFFFFFC0003FFE0001FFFFFFC0003FFF0003FFFFFF
310
FFC000FFFFFFE00070008000FFFFFFC0007FFF0000007FF8000003FFFF80007F
310
0001FFFFFF8000F8001FFFFFF8000FF8000001FFFE0000007FFFFFF0001FFFFF
310
FE0003FFFFFFE0003FFE0003FFFFFFE0003FFF0003FFFFFFFFC000FFFFFFE000
310
70008000FFFFFFC0007FFE0000007FF8000003FFFF80007F0001FFFFFF8000F0
310
001FFFFFF8000FF8000001FFFE0000007FFFFFF0001FFFFFFC0003FFFFFFE000
310
1FFC0003FFFFFFE0001FFF0003FFFFFFFFC000FFFFFFC00070008000FFFFFF80
310
007FFE0000007FF0000003FFFF80007F0001FFFFFF0000F0001FFFFFF8000FF8
310
000001FFFE0000007FFFFFF0001FFFFFFC0007FFFFFFF0001FFC0007FFFFFFF0
310
001FFF0003FFFFFFFFC000FFFFFFC00070008001FFFFFF0000FFFE0000003FF0
310
000001FFFF80007F0001FFFFFF0000F8001FFFFFF0000FF8000001FFFE000000
310
7FFFFFF0001FFFFFFC0007FFFFFFF0001FFC0007FFFFFFF0001FFF0003FFFFFF
310
FFC001FFFFFF80007000FFFFFFFFFE0000FFFE0008003FF0008001FFFF80007F
310
FFFFFFFFFC0000FFFFFFFFFFE0000FF8000001FFFE0000007FFFFFF0001FFFFF
310
F8000FFFFFFFF8000FF8000FFFFFFFF8000FFF0003FFFFFFFFFFFFFFFFFF0000
310
7000FFFFFFFFFC0000FFFC0008003FF0008001FFFF80007FFFFFFFFFF80001FF
310
FFFFFFFF80000FF8000001FFFE0000007FFFFFF0001FFFFFF8000FFFFFFFF800
310
0FF8000FFFFFFFF8000FFF0003FFFFFFFFFFFFFFFFFE0000F000FFFFFFFFE000
310
00FFFC000C003FE000C001FFFF80007FFFFFFFFFC00001FFFFFFFFFE00001FF8
310
000001FFFE0000007FFFFFF0001FFFFFF8000FFFFFFFF8000FF8000FFFFFFFF8
310
000FFF0003FFFFFFFFFFFFFFFFF00000F000FFFFFFFE000001FFFC000C001FE0
310
00C000FFFF80007FFFFFFFFE000001FFFFFFFFE000001FF80FFFFFFFFFFFFFC0
310
7FFFFFF0001FFFFFF8000FFFFFFFF8000FF8000FFFFFFFF8000FFF0003FFFFFF
310
FFFFFFFFFF800000F000FFFFFFC0000001FFFC001C001FE001C000FFFF80007F
310
FFFFFF80000003FFFFFFF80000001FF80FFFFFFFFFFFFFC07FFFFFF0001FFFFF
310
F8001FFFFFFFFC000FF8001FFFFFFFFC000FFF0003FFFFFFFFFFFFFFF0000001
310
F000FFFFF800000001FFF8001C001FE001C000FFFF80007FFFFFF800000003FF
310
FFFF800000003FF80FFFFFFFFFFFFFC07FFFFFF0001FFFFFF8001FFFFFFFFC00
310
0FF8001FFFFFFFFC000FFF0003FFFFFFFFFFFFFE00000001F000FFFFC0000000
310
03FFF8001E001FC001E000FFFF80007FFFFF8000000007FFFFFC000000003FF8
310
0FFFFFFFFFFFFFC07FFFFFF0001FFFFFF8001FFFFFFFFC000FF8001FFFFFFFFC
310
000FFF0003FFFFFFFFFFFFE000000003F000FFFE0000000007FFF8001E000FC0
310
01E0007FFF80007FFFFE0000000007FFFFE0000000007FF80FFFFFFFFFFFFFC0
310
7FFFFFF0001FFFFFF0001FFFFFFFFC0007F0001FFFFFFFFC0007FF0003FFFFFF
310
FFFFFF0000000003F000FFF80000000007FFF8001E000FC003E0007FFF80007F
310
FFF0000000000FFFFF8000000000FFF80FFFFFFFFFFFFFC07FFFFFF0001FFFFF
310
F0001FFFFFFFFC0007F0001FFFFFFFFC0007FF0003FFFFFFFFFFFC0000000007
310
F000FFE0000000000FFFF0003E000FC003E0007FFF80007FFFC0000000001FFF
310
FE0000000001FFF80FFFFFFFFFFFFFC07FFFFFF0001FFFFFF0001FFFFFFFFC00
310
07F0001FFFFFFFFC0007FF0003FFFFFFFFFFF0000000000FF000FFC000000000
310
1FFFF0003F000F8003F0003FFF80007FFF80000000003FFFF80000000003FFF8
310
0FFFFFFFFFFFFFC07FFFFFF0001FFFFFF0001FFFFFFFFC0007F0001FFFFFFFFC
310
0007FF0003FFFFFFFFFFE0000000001FF000FF00000000007FFFF0003F000780
310
03F0003FFF80007FFF00000000007FFFF00000000007FFF80FFFFFFFFFFFFFC0
310
7FFFFFF0001FFFFFF0001FFFFFFFFC0007F0001FFFFFFFFC0007FF0003FFFFFF
310
FFFF80000000007FF000FE0000000000FFFFE0003F00078007F0003FFF80007F
310
FE0000000001FFFFE0000000001FFFF80FFFFFFFFFFFFFC07FFFFFF0001FFFFF
310
F0001FFFFFFFFC0007F0001FFFFFFFFC0007FF0003FFFFFFFFFF0000000000FF
310
F000FC0000000003FFFFE0007F00078007F0003FFF80007FFC0000000007FFFF
310
C0000000007FFFF80FFFFFFFFFFFFFC07FFFFFF0001FFFFFF8001FFFFFFFFC00
310
0FF8001FFFFFFFFC000FFF0003FFFFFFFFFE0000000003FFF000FC000000000F
310
FFFFE0007F80070007F8001FFF80007FF8000000001FFFFF8000000001FFFFF8
310
0FFFFFFFFFFFFFC07FFFFFF0001FFFFFF8001FFFFFFFFC000FF8001FFFFFFFFC
310
000FFF0003FFFFFFFFFC000000000FFFF000F8000000007FFFFFE0007F800700
310
07F8001FFF80007FF000000000FFFFFF800000000FFFFFF80FFFFFFFFFFFFFC0
310
7FFFFFF0001FFFFFF8000FFFFFFFF8000FF8000FFFFFFFF8000FFF0003FFFFFF
310
FFFC000000007FFFF000F800000007FFFFFFC0007F8003000FF8001FFF80007F
310
F000000007FFFFFF000000007FFFFFF80FFFFFFFFFFFFFC07FFFFFF0001FFFFF
310
F8000FFFFFFFF8000FF8000FFFFFFFF8000FFF0003FFFFFFFFF80000000FFFFF
310
F000F0000000FFFFFFFFC000FF8003000FF8001FFF80007FE0000000FFFFFFFF
310
0000000FFFFFFFF8000001FFFE0000007FFFFFF0001FFFFFF8000FFFFFFFF800
310
0FF8000FFFFFFFF8000FFF0003FFFFFFFFF8000000FFFFFFF000F000000FFFFF
310
FFFFC000FFC002000FF8000FFF80007FE000001FFFFFFFFE000001FFFFFFFFF8
310
000001FFFE0000007FFFFFF0001FFFFFF8000FFFFFFFF8000FF8000FFFFFFFF8
310
000FFF0003FFFFFFFFF000001FFFFFFFF000E00000FFFFFFFFFFC000FFC00200
310
0FFC000FFF80007FE00001FFFFFFFFFE00001FFFFFFFFFF8000001FFFE000000
310
7FFFFFF0001FFFFFFC000FFFFFFFF8001FFC000FFFFFFFF8001FFF0003FFFFFF
310
FFF00001FFFFFFFFF000E00007FFFFFFFFFF8000FFC000001FFC000FFF80007F
310
C0000FFFFFFFFFFE0000FFFFFFFFFFF8000001FFFE0000007FFFFFF0001FFFFF
310
FC0007FFFFFFF0001FFC0007FFFFFFF0001FFF0003FFFFFFFFF00007FFFFFFFF
310
F000E0001FFFFFFFFFFF8000FFC000001FFC000FFF80007FC0003FFFFFFFFFFE
310
0001FFFFFFFFFFF8000001FFFE0000007FFFFFF0001FFFFFFC0007FFFFFFF000
310
1FFC0007FFFFFFF0001FFF0003FFFFFFFFF0001FFFFFFFFFF000E0003FFFFF00
310
03FF8001FFE000001FFC0007FF80007FC0007FFFFF0007FC0003FFFFF0003FF8
310
000001FFFE0000007FFFFFF0001FFFFFFC0003FFFFFFE0001FFC0003FFFFFFE0
310
001FFF0003FFFFFFFFF0003FFFFFFFFFF000E0003FFFFF0001FF8001FFE00000
310
1FFE0007FF80007FC0007FFFFE0003FC0007FFFFE0003FF8000001FFFE000000
310
7FFFFFF0001FFFFFFE0003FFFFFFE0003FFE0003FFFFFFE0003FFF0003FFFFFF
310
FFF0003FFFFF8001F000E0003FFFFF0001FF0001FFE000001FFE0007FF80007F
310
C0007FFFFE0003FC0007FFFFE0003FF8000001FFFE0000007FFFFFF0001FFFFF
310
FE0001FFFFFFC0003FFE0001FFFFFFC0003FFF0003FFFFFFFFF0003FFFFF0001
310
F000E0003FFFFF0003FF0001FFE000003FFE0007FF80007FC0007FFFFE0003FC
310
0007FFFFE0003FF8000001FFFE0000007FFFFFF0001FFFFFFF0001FFFFFFC000
310
7FFF0001FFFFFFC0007FFF0003FFFFFFFFF0003FFFFF0001F000E0003FFFFE00
310
03FF0003FFF000003FFE0003FF80007FC0007FFFFC0003FE0007FFFFE0003FF8
310
000001FFFE0000007FFFFFF0001FFFFFFF0000FFFFFF80007FFF0000FFFFFF80
310
007FFF0003FFFFFFFFF0003FFFFF0001F000E0003FFFFE0003FF0003FFF00000
310
3FFF0003FF80007FC0007FFFFC0007FE0007FFFFC0003FF8000001FFFE000000
310
7FFFFFF0001FFFFFFF80007FFFFF0000FFFF80007FFFFF0000FFFF0003FFFFFF
310
FFF0003FFFFF0003F000E0003FFFFC0003FE0003FFF000003FFF0003FF80007F
310
E0003FFFF80007FE0003FFFFC0007FF8000001FFFE0000007FFFFFF0001FFFFF
310
FF80003FFFFE0000FFFF80003FFFFE0000FFFF0003FFFFFFFFF0001FFFFE0003
310
F000F0001FFFF80003FE0003FFF000007FFF0001FF80007FE0003FFFF00007FE
310
0001FFFF80007FF8000001FFFE0000007FFFFFF0001FFFFFFFC0000FFFF80001
310
FFFFC0000FFFF80001FFFF0003FFFFFFFFF0001FFFFC0003F000F0000FFFF000
310
07FE0007FFF800007FFF0001FF80007FE0001FFFE00007FF0000FFFE00007FF8
310
000001FFFE0000007FFFFFF0001FFFFFFFC00003FFE00001FFFFC00003FFE000
310
01FFFF0003FFFFFFFFF8000FFFF80003F000F00003FFC00007FC0007FFF80000
310
7FFF8001FF80007FF00007FF80000FFF00007FF80000FFF8000001FFFE000000
310
7F80000000000001FFE000003E000003FFFFE000003E000003FFFF0003FFFFFF
310
FFF80003FFE00007F000F800000000000FFC0007FFF800007FFF8001FF80007F
310
F000000000000FFF000000000000FFF8000001FFFE0000007F80000000000001
310
FFF0000000000007FFFFF0000000000007FFFF0003FFFFFFFFFC00007E000007
310
F000F800000000000FFC0007FFF80000FFFF8000FF80007FF800000000001FFF
310
800000000001FFF8000001FFFE0000007F80000000000001FFF800000000000F
310
FFFFF800000000000FFFFF0003FFFFFFFFFC00000000000FF000FC0000000000
310
1FFC0007FFFC0000FFFF8000FF80007FF800000000003FFFC00000000001FFF8
310
000001FFFE0000007F80000000000001FFF800000000000FFFFFF80000000000
310
0FFFFF0003FFFFFFFFFE00000000001FF000FE00000000003FF8000FFFFC0000
310
FFFF8000FF80007FFC00000000003FFFC00000000003FFF8000001FFFE000000
310
7F80000000000001FFFC00000000001FFFFFFC00000000001FFFFF0003FFFFFF
310
FFFF00000000001FF000FF00000000003FF8000FFFFC0000FFFFC000FF80007F
310
FE00000000007FFFE00000000007FFF8000001FFFE0000007F80000000000001
310
FFFE00000000003FFFFFFE00000000003FFFFF0003FFFFFFFFFF80000000003F
310
F000FF80000000007FF8000FFFFC0001FFFFC0007F80007FFF0000000000FFFF
310
F0000000000FFFF800000000000000007F80000000000001FFFF8000000000FF
310
FFFFFF8000000000FFFFFF0003FFFFFFFFFFC0000000007FF000FFC000000000
310
FFF8000FFFFE0001FFFFC0007F80007FFF8000000001FFFFF8000000001FFFF8
310
00000000000000007F80000000000001FFFFC000000001FFFFFFFFC000000001
310
FFFFFF0003FFFFFFFFFFE000000000FFF000FFE000000003FFF0001FFFFE0001
310
FFFFC0007F80007FFFC000000007FFFFFE000000003FFFF80000000000000000
310
7F80000000000001FFFFE000000003FFFFFFFFE000000003FFFFFF0003FFFFFF
310
FFFFF000000003FFF000FFF80000000FFFF0001FFFFE0001FFFFE0007F80007F
310
FFF00000000FFFFFFF00000000FFFFF800000000000000007F80000000000001
310
FFFFF80000000FFFFFFFFFF80000000FFFFFFF0003FFFFFFFFFFFC0000000FFF
310
F000FFFE0000003FFFF0001FFFFE0003FFFFE0003F80007FFFFC0000003FFFFF
310
FFC0000003FFFFF800000000000000007F80000000000001FFFFFE0000003FFF
310
FFFFFFFE0000003FFFFFFF0003FFFFFFFFFFFF0000003FFFF000FFFF800000FF
310
FFF0001FFFFF0003FFFFE0003F80007FFFFF000001FFFFFFFFF800001FFFFFF8
310
00000000000000007F80000000000001FFFFFFC00001FFFFFFFFFFFFC00001FF
310
FFFFFF0003FFFFFFFFFFFFC00000FFFFF000FFFFF8000FFFFFFFFFFFFFFFFFFF
310
FFFFFFFFFFFFFFFFFFFFF0001FFFFFFFFFFF0000FFFFFFF80000000000000000
310
7FFFFFFFFFFFFFFFFFFFFFFC001FFFFFFFFFFFFFFC001FFFFFFFFFFFFFFFFFFF
310
FFFFFFFC001FFFFFF000FFFFFFFFFFFFFFFFFFFFFFFFFFFFFFFFFFFFFFFFFFFF
310
FFFFFFFFFFFFFFFFFFFFFFFFFFFFFFFFFFFFFFFFFFFFFFFFFFFFFFFFFFFFFFFF
310
FFFFFFFFFFFFFFFFFFFFFFFFFFFFFFFFFFFFFFFFFFFFFFFFFFFFFFFFFFFFFFFF
310
F000FFFFFFFFFFFFFFFFFFFFFFFFFFFFFFFFFFFFFFFFFFFFFFFFFFFFFFFFFFFF
310
FFFFFFFFFFFFFFFFFFFFFFFFFFFFFFFFFFFFFFFFFFFFFFFFFFFFFFFFFFFFFFFF
310
FFFFFFFFFFFFFFFFFFFFFFFFFFFFFFFFFFFFFFFFFFFFFFFFF000FFFFFFFFFFFF
310
FFFFFFFFFFFFFFFFFFFFFFFFFFFFFFFFFFFFFFFFFFFFFFFFFFFFFFFFFFFFFFFF
310
FFFFFFFFFFFFFFFFFFFFFFFFFFFFFFFFFFFFFFFFFFFFFFFFFFFFFFFFFFFFFFFF
310
FFFFFFFFFFFFFFFFFFFFFFFFFFFFFFFFF000FFFFFFFFFFFFFFFFFFFFFFFFFFFF
310
FFFFFFFFFFFFFFFFFFFFFFFFFFFFFFFFFFFFFFFFFFFFFFFFFFFFFFFFFFFFFFFF
310
FFFFFFFFFFFFFFFFFFFFFFFFFFFFFFFFFFFFFFFFFFFFFFFFFFFFFFFFFFFFFFFF
310
FFFFFFFFFFFFFFFFF000FFFFFFFFFFFFFFFFFFFFFFFFFFFFFFFFFFFFFFFFFFFF
310
FFFFFFFFFFFFFFFFFFFFFFFFFFFFFFFFFFFFFFFFFFFFFFFFFFFFFFFFFFFFFFFF
310
FFFFFFFFFFFFFFFFFFFFFFFFFFFFFFFFFFFFFFFFFFFFFFFFFFFFFFFFFFFFFFFF
310
F000FFFFFFFFFFFFFFFFFFFFFFFFFFFFFFFFFFFFFFFFFFFFFFFFFFFFFFFFFFFF
310
FFFFFFFFFFFFFFFFFFFFFFFFFFFFFFFFFFFFFFFFFFFFFFFFFFFFFFFFFFFFFFFF
310
FFFFFFFFFFFFFFFFFFFFFFFFFFFFFFFFFFFFFFFFFFFFFFFFF000FFFFFFFFFFFF
310
FFFFFFFFFFFFFFFFFFFFFFFFFFFFFFFFFFFFFFFFFFFFFFFFFFFFFFFFFFFFFFFF
310
FFFFFFFFFFFFFFFFFFFFFFFFFFFFFFFFFFFFFFFFFFFFFFFFFFFFFFFFFFFFFFFF
310
FFFFFFFFFFFFFFFFFFFFFFFFFFFFFFFFF000FFFFFFFFFFFFFFFFFFFFFFFFFFFF
310
FFFFFFFFFFFFFFFFFFFFFFFFFFFFFFFFFFFFFFFFFFFFFFFFFFFFFFFFFFFFFFFF
310
FFFFFFFFFFFFFFFFFFFFFFFFFFFFFFFFFFFFFFFFFFFFFFFFFFFFFFFFFFFFFFFF
310
FFFFFFFFFFFFFFFFF000FFFFFFFFFFFFFFFFFFFFFFFFFFFFFFFFFFFFFFFFFFFF
310
FFFFFFFFFFFFFFFFFFFFFFFFFFFFFFFFFFFFFFFFFFFFFFFFFFFFFFFFFFFFFFFF
310
FFFFFFFFFFFFFFFFFFFFFFFFFFFFFFFFFFFFFFFFFFFFFFFFFFFFFFFFFFFFFFFF
310
F000FFFFFFFFFFFFFFFFFFFFFFFFFFFFFFFFFFFFFFFFFFFFFFFFFFFFFFFFFFFF
310
FFFFFFFFFFFFFFFFFFFFFFFFFFFFFFFFFFFFFFFFFFFFFFFFFFFFFFFFFFFFFFFF
310
FFFFFFFFFFFFFFFFFFFFFFFFFFFFFFFFFFFFFFFFFFFFFFFFF000FFFFFFFFFFFF
310
FFFFFFFFFFFFFFFFFFFFFFFFFFFFFFFFFFFFFFFFFFFFFFFFFFFFFFFFFFFFFFFF
310
FFFFFFFFFFFFFFFFFFFFFFFFFFFFFFFFFFFFFFFFFFFFFFFFFFFFFFFFFFFFFFFF
310
FFFFFFFFFFFFFFFFFFFFFFFFFFFFFFFFF000FFFFFFFFFFFFFFFFFFFFFFFFFFFF
310
FFFFFFFFFFFFFFFFFFFFFFFFFFFFFFFFFFFFFFFFFFFFFFFFFFFFFFFFFFFFFFFF
310
FFFFFFFFFFFFFFFFFFFFFFFFFFFFFFFFFFFFFFFFFFFFFFFFFFFFFFFFFFFFFFFF
310
FFFFFFFFFFFFFFFFF000FFFFFFFFFFFFFFFFFFFFFFFFFFFFFFFFFFFFFFFFFFFF
310
FFFFFFFFFFFFFFFFFFFFFFFFFFFFFFFFFFFFFFFFFFFFFFFFFFFFFFFFFFFFFFFF
310
FFFFFFFFFFFFFFFFFFFFFFFFFFFFFFFFFFFFFFFFFFFFFFFFFFFFFFFFFFFFFFFF
310
F000FFFFFFFFFFFFFFFFFFFFFFFFFFFFFFFFFFFFFFFFFFFFFFFFFFFFFFFFFFFF
310
FFFFFFFFFFFFFFFFFFFFFFFFFFFFFFFFFFFFFFFFFFFFFFFFFFFFFFFFFFFFFFFF
310
FFFFFFFFFFFFFFFFFFFFFFFFFFFFFFFFFFFFFFFFFFFFFFFFF000FFFFFFFFFFFF
310
FFFFFFFFFFFFFFFFFFFFFFFFFFFFFFFFFFFFFFFFFFFFFFFFFFFFFFFFFFFFFFFF
310
FFFFFFFFFFFFFFFFFFFFFFFFFFFFFFFFFFFFFFFFFFFFFFFFFFFFFFFFFFFFFFFF
310
FFFFFFFFFFFFFFFFFFFFFFFFFFFFFFFFF000FFFFFFFFFFFFFFFFFFFFFFFFFFFF
310
FFFFFFFFFFFFFFFFFFFFFFFFFFFFFFFFFFFFFFFFFFFFFFFFFFFFFFFFFFFFFFFF
310
FFFFFFFFFFFFFFFFFFFFFFFFFFFFFFFFFFFFFFFFFFFFFFFFFFFFFFFFFFFFFFFF
310
FFFFFFFFFFFFFFFFF000FFFFFFFFFFFFFFFFFFFFFFFFFFFFFFFFFFFFFFFFFFFF
310
FFFFFFFFFFFFFFFFFFFFFFFFFFFFFFFFFFFFFFFFFFFFFFFFFFFFFFFFFFFFFFFF
310
FFFFFFFFFFFFFFFFFFFFFFFFFFFFFFFFFFFFFFFFFFFFFFFFFFFFFFFFFFFFFFFF
310
F000FFFFFFFFFFFFFFFFFFFFFFFFFFFFFFFFFFFFFFFFFFFFFFFFFFFFFFFFFFFF
310
FFFFFFFFFFFFFFFFFFFFFFFFFFFFFFFFFFFFFFFFFFFFFFFFFFFFFFFFFFFFFFFF
310
FFFFFFFFFFFFFFFFFFFFFFFFFFFFFFFFFFFFFFFFFFFFFFFFF000FFFFFFFFFFFF
310
FFFFFFFFFFFFFFFFFFFFFFFFFFFFFFFFFFFFFFFFFFFFFFFFFFFFFFFFFFFFFFFF
310
FFFFFFFFFFFFFFFFFFFFFFFFFFFFFFFFFFFFFFFFFFFFFFFFFFFFFFFFFFFFFFFF
310
FFFFFFFFFFFFFFFFFFFFFFFFFFFFFFFFF000FFFFFFFFFFFFFFFFFFFFFFFFFFFF
310
FFFFFFFFFFFFFFFFFFFFFFFFFFFFFFFFFFFFFFFFFFFFFFFFFFFFFFFFFFFFFFFF
310
FFFFFFFFFFFFFFFFFFFFFFFFFFFFFFFFFFFFFFFFFFFFFFFFFFFFFFFFFFFFFFFF
310
FFFFFFFFFFFFFFFFF000FFFFFFFFFFFFFFFFFFFFFFFFFFFFFFFFFFFFFFFFFFFF
310
FFFFFFFFFFFFFFFFFFFFFFFFFFFFFFFFFFFFFFFFFFFFFFFFFFFFFFFFFFFFFFFF
310
FFFFFFFFFFFFFFFFFFFFFFFFFFFFFFFFFFFFFFFFFFFFFFFFFFFFFFFFFFFFFFFF
310
F000FFFFFFFFFFFFFFFFFFFFFFFFFFFFFFFFFFFFFFFFFFFFFFFFFFFFFFFFFFFF
310
FFFFFFFFFFFFFFFFFFFFFFFFFFFFFFFFFFFFFFFFFFFFFFFFFFFFFFFFFFFFFFFF
310
FFFFFFFFFFFFFFFFFFFFFFFFFFFFFFFFFFFFFFFFFFFFFFFFF000FFFFFFFFFFFF
310
FFFFFFFFFFFFFFFFFFFFFFFFFFFFFFFFFFFFFFFFFFFFFFFFFFFFFFFFFFFFFFFF
310
FFFFFFFFFFFFFFFFFFFFFFFFFFFFFFFFFFFFFFFFFFFFFFFFFFFFFFFFFFFFFFFF
310
FFFFFFFFFFFFFFFFFFFFFFFFFFFFFFFFF0000000000000000000000000000000
310
0000000000000000000000000000000000000000000000000000000000000000
310
0000000000000000000000000000000000000000000000000000000000000000
310
0000000000000000000000000000000000000000000000000000000000000000
310
0000000000000000000000000000000000000000000000000000000000000000
310
0000000000000000000000000000000000000000000000000000000000000000
310
0000000000000000000000000000000000000000000000000000000000000000
310
0000000000000000000000000000000000000000000000000000000000000000
310
0000000000000000000000000000000000000000000000000000000000000000
310
0000000000000000000000000000000000000000000000000000000000000000
310
0000000000000000000000000000000000000000000000000000000000000000
310
0000000000000000000000000000000000000000000000000000000000000000
310
0000000000000000000000000000000000000000000000000000000000000000
310
0000000000000000000000000000000000000000000000000000000000000000
310
0000000000000000000000000000000000000000000000000000000000000000
310
0000000000000000000000000000000000000000000000000000000000000000
  1
OLE
  0
ENDSEC
  0
SECTION
  2
OBJECTS
  0
DICTIONARY
  5
C
330
0
100
AcDbDictionary
281
     1
  3
ACAD_GROUP
350
D
  3
ACAD_LAYOUT
350
1A
  3
ACAD_MLINESTYLE
350
17
  3
ACAD_PLOTSETTINGS
350
19
  3
ACAD_PLOTSTYLENAME
350
E
  3
ACAD_SCALELIST
350
47
  0
DICTIONARY
  5
D
102
{ACAD_REACTORS
330
C
102
}
330
C
100
AcDbDictionary
281
     1
  0
DICTIONARY
  5
1A
102
{ACAD_REACTORS
330
C
102
}
330
C
100
AcDbDictionary
281
     1
  3
Layout1
350
1E
  3
Layout2
350
26
  3
Model
350
22
  0
DICTIONARY
  5
17
102
{ACAD_REACTORS
330
C
102
}
330
C
100
AcDbDictionary
281
     1
  3
Standard
350
18
  0
DICTIONARY
  5
19
102
{ACAD_REACTORS
330
C
102
}
330
C
100
AcDbDictionary
281
     1
  0
ACDBDICTIONARYWDFLT
  5
E
102
{ACAD_REACTORS
330
C
102
}
330
C
100
AcDbDictionary
281
     1
  3
Normal
350
F
100
AcDbDictionaryWithDefault
340
F
  0
DICTIONARY
  5
47
102
{ACAD_REACTORS
330
C
102
}
330
C
100
AcDbDictionary
281
     1
  3
A0
350
48
  3
A1
350
49
  3
A2
350
4A
  3
A3
350
4B
  3
A4
350
4C
  3
A5
350
4D
  3
A6
350
4E
  3
A7
350
4F
  3
A8
350
50
  3
A9
350
51
  3
B0
350
52
  3
B1
350
53
  3
B2
350
54
  3
B3
350
55
  3
B4
350
56
  3
B5
350
57
  3
B6
350
58
  3
B7
350
59
  3
B8
350
5A
  3
B9
350
5B
  3
C0
350
5C
  3
C1
350
5D
  3
C2
350
5E
  3
C3
350
5F
  3
C4
350
60
  3
C5
350
61
  3
C6
350
62
  3
C7
350
63
  3
C8
350
64
  3
C9
350
65
  3
D0
350
66
  3
D1
350
67
  3
D2
350
68
  0
LAYOUT
  5
1E
102
{ACAD_REACTORS
330
1A
102
}
330
1A
100
AcDbPlotSettings
  1

  2
none_device
  4

  6

 40
0.0
 41
0.0
 42
0.0
 43
0.0
 44
0.0
 45
0.0
 46
0.0
 47
0.0
 48
0.0
 49
0.0
140
0.0
141
0.0
142
1.0
143
1.0
 70
   688
 72
     1
 73
     0
 74
     5
  7

 75
    16
147
1.0
148
0.0
149
0.0
100
AcDbLayout
  1
Layout1
 70
     1
 71
     1
 10
0.0
 20
0.0
 11
420.0
 21
297.0
 12
0.0
 22
0.0
 32
0.0
 14
1.0000000000E+20
 24
1.0000000000E+20
 34
1.0000000000E+20
 15
-1.0000000000E+20
 25
-1.0000000000E+20
 35
-1.0000000000E+20
146
0.0
 13
0.0
 23
0.0
 33
0.0
 16
1.0
 26
0.0
 36
0.0
 17
0.0
 27
1.0
 37
0.0
 76
     0
330
1B
  0
LAYOUT
  5
26
102
{ACAD_REACTORS
330
1A
102
}
330
1A
100
AcDbPlotSettings
  1

  2
none_device
  4

  6

 40
0.0
 41
0.0
 42
0.0
 43
0.0
 44
0.0
 45
0.0
 46
0.0
 47
0.0
 48
0.0
 49
0.0
140
0.0
141
0.0
142
1.0
143
1.0
 70
   688
 72
     1
 73
     0
 74
     5
  7

 75
    16
147
1.0
148
0.0
149
0.0
100
AcDbLayout
  1
Layout2
 70
     1
 71
     2
 10
0.0
 20
0.0
 11
0.0
 21
0.0
 12
0.0
 22
0.0
 32
0.0
 14
0.0
 24
0.0
 34
0.0
 15
0.0
 25
0.0
 35
0.0
146
0.0
 13
0.0
 23
0.0
 33
0.0
 16
1.0
 26
0.0
 36
0.0
 17
0.0
 27
1.0
 37
0.0
 76
     0
330
23
  0
LAYOUT
  5
22
102
{ACAD_REACTORS
330
1A
102
}
330
1A
100
AcDbPlotSettings
  1

  2
none_device
  4
Letter_(8.50_x_11.00_Inches)
  6

 40
6.35
 41
6.35
 42
6.35000508
 43
6.35000508
 44
215.9
 45
279.4
 46
0.0
 47
0.0
 48
0.0
 49
0.0
140
0.0
141
0.0
142
1.0
143
1.0
 70
  1712
 72
     1
 73
     0
 74
     0
  7

 75
     0
147
1.0
148
0.0
149
0.0
100
AcDbLayout
  1
Model
 70
     1
 71
     0
 10
0.0
 20
0.0
 11
297.0
 21
210.0
 12
0.0
 22
0.0
 32
0.0
 14
0.0
 24
0.0
 34
0.0
 15
297.0
 25
210.0
 35
0.0
146
0.0
 13
0.0
 23
0.0
 33
0.0
 16
1.0
 26
0.0
 36
0.0
 17
0.0
 27
1.0
 37
0.0
 76
     0
330
1F
331
29
  0
MLINESTYLE
  5
18
102
{ACAD_REACTORS
330
17
102
}
330
17
100
AcDbMlineStyle
  2
Standard
 70
     0
  3

 62
   256
 51
90.0
 52
90.0
 71
     2
 49
0.5
 62
   256
  6
BYLAYER
 49
-0.5
 62
   256
  6
BYLAYER
  0
ACDBPLACEHOLDER
  5
F
102
{ACAD_REACTORS
330
E
102
}
330
E
  0
SCALE
  5
48
102
{ACAD_REACTORS
330
47
102
}
330
47
100
AcDbScale
 70
     0
300
1:1
140
1.0
141
1.0
290
     1
  0
SCALE
  5
49
102
{ACAD_REACTORS
330
47
102
}
330
47
100
AcDbScale
 70
     0
300
1:2
140
1.0
141
2.0
290
     0
  0
SCALE
  5
4A
102
{ACAD_REACTORS
330
47
102
}
330
47
100
AcDbScale
 70
     0
300
1:4
140
1.0
141
4.0
290
     0
  0
SCALE
  5
4B
102
{ACAD_REACTORS
330
47
102
}
330
47
100
AcDbScale
 70
     0
300
1:5
140
1.0
141
5.0
290
     0
  0
SCALE
  5
4C
102
{ACAD_REACTORS
330
47
102
}
330
47
100
AcDbScale
 70
     0
300
1:8
140
1.0
141
8.0
290
     0
  0
SCALE
  5
4D
102
{ACAD_REACTORS
330
47
102
}
330
47
100
AcDbScale
 70
     0
300
1:10
140
1.0
141
10.0
290
     0
  0
SCALE
  5
4E
102
{ACAD_REACTORS
330
47
102
}
330
47
100
AcDbScale
 70
     0
300
1:16
140
1.0
141
16.0
290
     0
  0
SCALE
  5
4F
102
{ACAD_REACTORS
330
47
102
}
330
47
100
AcDbScale
 70
     0
300
1:20
140
1.0
141
20.0
290
     0
  0
SCALE
  5
50
102
{ACAD_REACTORS
330
47
102
}
330
47
100
AcDbScale
 70
     0
300
1:30
140
1.0
141
30.0
290
     0
  0
SCALE
  5
51
102
{ACAD_REACTORS
330
47
102
}
330
47
100
AcDbScale
 70
     0
300
1:40
140
1.0
141
40.0
290
     0
  0
SCALE
  5
52
102
{ACAD_REACTORS
330
47
102
}
330
47
100
AcDbScale
 70
     0
300
1:50
140
1.0
141
50.0
290
     0
  0
SCALE
  5
53
102
{ACAD_REACTORS
330
47
102
}
330
47
100
AcDbScale
 70
     0
300
1:100
140
1.0
141
100.0
290
     0
  0
SCALE
  5
54
102
{ACAD_REACTORS
330
47
102
}
330
47
100
AcDbScale
 70
     0
300
2:1
140
2.0
141
1.0
290
     0
  0
SCALE
  5
55
102
{ACAD_REACTORS
330
47
102
}
330
47
100
AcDbScale
 70
     0
300
4:1
140
4.0
141
1.0
290
     0
  0
SCALE
  5
56
102
{ACAD_REACTORS
330
47
102
}
330
47
100
AcDbScale
 70
     0
300
8:1
140
8.0
141
1.0
290
     0
  0
SCALE
  5
57
102
{ACAD_REACTORS
330
47
102
}
330
47
100
AcDbScale
 70
     0
300
10:1
140
10.0
141
1.0
290
     0
  0
SCALE
  5
58
102
{ACAD_REACTORS
330
47
102
}
330
47
100
AcDbScale
 70
     0
300
100:1
140
100.0
141
1.0
290
     0
  0
SCALE
  5
59
102
{ACAD_REACTORS
330
47
102
}
330
47
100
AcDbScale
 70
     0
300
1/128" = 1'-0"
140
0.0078125
141
12.0
290
     0
  0
SCALE
  5
5A
102
{ACAD_REACTORS
330
47
102
}
330
47
100
AcDbScale
 70
     0
300
1/64" = 1'-0"
140
0.015625
141
12.0
290
     0
  0
SCALE
  5
5B
102
{ACAD_REACTORS
330
47
102
}
330
47
100
AcDbScale
 70
     0
300
1/32" = 1'-0"
140
0.03125
141
12.0
290
     0
  0
SCALE
  5
5C
102
{ACAD_REACTORS
330
47
102
}
330
47
100
AcDbScale
 70
     0
300
1/16" = 1'-0"
140
0.0625
141
12.0
290
     0
  0
SCALE
  5
5D
102
{ACAD_REACTORS
330
47
102
}
330
47
100
AcDbScale
 70
     0
300
3/32" = 1'-0"
140
0.09375
141
12.0
290
     0
  0
SCALE
  5
5E
102
{ACAD_REACTORS
330
47
102
}
330
47
100
AcDbScale
 70
     0
300
1/8" = 1'-0"
140
0.125
141
12.0
290
     0
  0
SCALE
  5
5F
102
{ACAD_REACTORS
330
47
102
}
330
47
100
AcDbScale
 70
     0
300
3/16" = 1'-0"
140
0.1875
141
12.0
290
     0
  0
SCALE
  5
60
102
{ACAD_REACTORS
330
47
102
}
330
47
100
AcDbScale
 70
     0
300
1/4" = 1'-0"
140
0.25
141
12.0
290
     0
  0
SCALE
  5
61
102
{ACAD_REACTORS
330
47
102
}
330
47
100
AcDbScale
 70
     0
300
3/8" = 1'-0"
140
0.375
141
12.0
290
     0
  0
SCALE
  5
62
102
{ACAD_REACTORS
330
47
102
}
330
47
100
AcDbScale
 70
     0
300
1/2" = 1'-0"
140
0.5
141
12.0
290
     0
  0
SCALE
  5
63
102
{ACAD_REACTORS
330
47
102
}
330
47
100
AcDbScale
 70
     0
300
3/4" = 1'-0"
140
0.75
141
12.0
290
     0
  0
SCALE
  5
64
102
{ACAD_REACTORS
330
47
102
}
330
47
100
AcDbScale
 70
     0
300
1" = 1'-0"
140
1.0
141
12.0
290
     0
  0
SCALE
  5
65
102
{ACAD_REACTORS
330
47
102
}
330
47
100
AcDbScale
 70
     0
300
1-1/2" = 1'-0"
140
1.5
141
12.0
290
     0
  0
SCALE
  5
66
102
{ACAD_REACTORS
330
47
102
}
330
47
100
AcDbScale
 70
     0
300
3" = 1'-0"
140
3.0
141
12.0
290
     0
  0
SCALE
  5
67
102
{ACAD_REACTORS
330
47
102
}
330
47
100
AcDbScale
 70
     0
300
6" = 1'-0"
140
6.0
141
12.0
290
     0
  0
SCALE
  5
68
102
{ACAD_REACTORS
330
47
102
}
330
47
100
AcDbScale
 70
     0
300
1'-0" = 1'-0"
140
12.0
141
12.0
290
     0
  0
ENDSEC
  0
EOF
