  0
SECTION
  2
HEADER
  9
$ACADVER
  1
AC1015
  9
$ACADMAINTVER
 70
     6
  9
$DWGCODEPAGE
  3
ANSI_1252
  9
$INSBASE
 10
0.0
 20
0.0
 30
0.0
  9
$EXTMIN
 10
0.0
 20
0.0
 30
0.0
  9
$EXTMAX
 10
297.0
 20
210.0
 30
0.0
  9
$LIMMIN
 10
0.0
 20
0.0
  9
$LIMMAX
 10
297.0
 20
210.0
  9
$ORTHOMODE
 70
     0
  9
$REGENMODE
 70
     1
  9
$FILLMODE
 70
     1
  9
$QTEXTMODE
 70
     0
  9
$MIRRTEXT
 70
     1
  9
$LTSCALE
 40
1.0
  9
$ATTMODE
 70
     1
  9
$TEXTSIZE
 40
2.0
  9
$TRACEWID
 40
1.0
  9
$TEXTSTYLE
  7
Standard
  9
$CLAYER
  8
0
  9
$CELTYPE
  6
ByLayer
  9
$CECOLOR
 62
   256
  9
$CELTSCALE
 40
1.0
  9
$DISPSILH
 70
     0
  9
$DIMSCALE
 40
1.0
  9
$DIMASZ
 40
3.0
  9
$DIMEXO
 40
0.0
  9
$DIMDLI
 40
3.75
  9
$DIMRND
 40
0.0
  9
$DIMDLE
 40
0.0
  9
$DIMEXE
 40
1.0
  9
$DIMTP
 40
0.0
  9
$DIMTM
 40
0.0
  9
$DIMTXT
 40
2.0
  9
$DIMCEN
 40
2.5
  9
$DIMTSZ
 40
0.0
  9
$DIMTOL
 70
     0
  9
$DIMLIM
 70
     0
  9
$DIMTIH
 70
     1
  9
$DIMTOH
 70
     1
  9
$DIMSE1
 70
     0
  9
$DIMSE2
 70
     0
  9
$DIMTAD
 70
     1
  9
$DIMZIN
 70
     0
  9
$DIMBLK
  1

  9
$DIMASO
 70
     1
  9
$DIMSHO
 70
     1
  9
$DIMPOST
  1

  9
$DIMAPOST
  1

  9
$DIMALT
 70
     0
  9
$DIMALTD
 70
     3
  9
$DIMALTF
 40
0.0393700787
  9
$DIMLFAC
 40
2.0
  9
$DIMTOFL
 70
     1
  9
$DIMTVP
 40
0.0
  9
$DIMTIX
 70
     0
  9
$DIMSOXD
 70
     0
  9
$DIMSAH
 70
     0
  9
$DIMBLK1
  1

  9
$DIMBLK2
  1

  9
$DIMSTYLE
  2
ISO-25
  9
$DIMCLRD
 70
     0
  9
$DIMCLRE
 70
     0
  9
$DIMCLRT
 70
     0
  9
$DIMTFAC
 40
1.0
  9
$DIMGAP
 40
1.524
  9
$DIMJUST
 70
     0
  9
$DIMSD1
 70
     0
  9
$DIMSD2
 70
     0
  9
$DIMTOLJ
 70
     0
  9
$DIMTZIN
 70
     0
  9
$DIMALTZ
 70
     0
  9
$DIMALTTZ
 70
     0
  9
$DIMUPT
 70
     0
  9
$DIMDEC
 70
     2
  9
$DIMTDEC
 70
     3
  9
$DIMALTU
 70
     2
  9
$DIMALTTD
 70
     3
  9
$DIMTXSTY
  7
Standard
  9
$DIMAUNIT
 70
     0
  9
$DIMADEC
 70
     2
  9
$DIMALTRND
 40
0.0
  9
$DIMAZIN
 70
     0
  9
$DIMDSEP
 70
    44
  9
$DIMATFIT
 70
     3
  9
$DIMFRAC
 70
     0
  9
$DIMLDRBLK
  1

  9
$DIMLUNIT
 70
     2
  9
$DIMLWD
 70
    -2
  9
$DIMLWE
 70
    -2
  9
$DIMTMOVE
 70
     0
  9
$LUNITS
 70
     2
  9
$LUPREC
 70
     2
  9
$SKETCHINC
 40
1.0
  9
$FILLETRAD
 40
10.0
  9
$AUNITS
 70
     0
  9
$AUPREC
 70
     2
  9
$MENU
  1
.
  9
$ELEVATION
 40
0.0
  9
$PELEVATION
 40
0.0
  9
$THICKNESS
 40
0.0
  9
$LIMCHECK
 70
     0
  9
$CHAMFERA
 40
0.0
  9
$CHAMFERB
 40
0.0
  9
$CHAMFERC
 40
0.0
  9
$CHAMFERD
 40
0.0
  9
$SKPOLY
 70
     0
  9
$TDCREATE
 40
2458166.569550972
  9
$TDUCREATE
 40
2458166.527884305
  9
$TDUPDATE
 40
2458166.569553241
  9
$TDUUPDATE
 40
2458166.527886574
  9
$TDINDWG
 40
0.0000000116
  9
$TDUSRTIMER
 40
0.0000000116
  9
$USRTIMER
 70
     1
  9
$ANGBASE
 50
0.0
  9
$ANGDIR
 70
     0
  9
$PDMODE
 70
     0
  9
$PDSIZE
 40
-1.0
  9
$PLINEWID
 40
0.0
  9
$SPLFRAME
 70
     0
  9
$SPLINETYPE
 70
     6
  9
$SPLINESEGS
 70
     8
  9
$HANDSEED
  5
2FF
  9
$SURFTAB1
 70
     6
  9
$SURFTAB2
 70
     6
  9
$SURFTYPE
 70
     6
  9
$SURFU
 70
     6
  9
$SURFV
 70
     6
  9
$UCSBASE
  2

  9
$UCSNAME
  2

  9
$UCSORG
 10
0.0
 20
0.0
 30
0.0
  9
$UCSXDIR
 10
1.0
 20
0.0
 30
0.0
  9
$UCSYDIR
 10
0.0
 20
1.0
 30
0.0
  9
$UCSORTHOREF
  2

  9
$UCSORTHOVIEW
 70
     0
  9
$UCSORGTOP
 10
0.0
 20
0.0
 30
0.0
  9
$UCSORGBOTTOM
 10
0.0
 20
0.0
 30
0.0
  9
$UCSORGLEFT
 10
0.0
 20
0.0
 30
0.0
  9
$UCSORGRIGHT
 10
0.0
 20
0.0
 30
0.0
  9
$UCSORGFRONT
 10
0.0
 20
0.0
 30
0.0
  9
$UCSORGBACK
 10
0.0
 20
0.0
 30
0.0
  9
$PUCSBASE
  2

  9
$PUCSNAME
  2

  9
$PUCSORG
 10
0.0
 20
0.0
 30
0.0
  9
$PUCSXDIR
 10
1.0
 20
0.0
 30
0.0
  9
$PUCSYDIR
 10
0.0
 20
1.0
 30
0.0
  9
$PUCSORTHOREF
  2

  9
$PUCSORTHOVIEW
 70
     0
  9
$PUCSORGTOP
 10
0.0
 20
0.0
 30
0.0
  9
$PUCSORGBOTTOM
 10
0.0
 20
0.0
 30
0.0
  9
$PUCSORGLEFT
 10
0.0
 20
0.0
 30
0.0
  9
$PUCSORGRIGHT
 10
0.0
 20
0.0
 30
0.0
  9
$PUCSORGFRONT
 10
0.0
 20
0.0
 30
0.0
  9
$PUCSORGBACK
 10
0.0
 20
0.0
 30
0.0
  9
$USERI1
 70
     0
  9
$USERI2
 70
     0
  9
$USERI3
 70
     0
  9
$USERI4
 70
     0
  9
$USERI5
 70
     0
  9
$USERR1
 40
0.0
  9
$USERR2
 40
0.0
  9
$USERR3
 40
0.0
  9
$USERR4
 40
0.0
  9
$USERR5
 40
0.0
  9
$WORLDVIEW
 70
     1
  9
$SHADEDGE
 70
     3
  9
$SHADEDIF
 70
    70
  9
$TILEMODE
 70
     1
  9
$MAXACTVP
 70
    64
  9
$PINSBASE
 10
0.0
 20
0.0
 30
0.0
  9
$PLIMCHECK
 70
     0
  9
$PEXTMIN
 10
1.0000000000E+20
 20
1.0000000000E+20
 30
1.0000000000E+20
  9
$PEXTMAX
 10
-1.0000000000E+20
 20
-1.0000000000E+20
 30
-1.0000000000E+20
  9
$PLIMMIN
 10
0.0
 20
0.0
  9
$PLIMMAX
 10
420.0
 20
297.0
  9
$UNITMODE
 70
     0
  9
$VISRETAIN
 70
     1
  9
$PLINEGEN
 70
     0
  9
$PSLTSCALE
 70
     1
  9
$TREEDEPTH
 70
  3020
  9
$CMLSTYLE
  2
Standard
  9
$CMLJUST
 70
     0
  9
$CMLSCALE
 40
20.0
  9
$PROXYGRAPHICS
 70
     1
  9
$MEASUREMENT
 70
     1
  9
$CELWEIGHT
370
    -1
  9
$ENDCAPS
280
     0
  9
$JOINSTYLE
280
     0
  9
$LWDISPLAY
290
     1
  9
$INSUNITS
 70
     4
  9
$HYPERLINKBASE
  1

  9
$STYLESHEET
  1

  9
$XEDIT
290
     1
  9
$CEPSNTYPE
380
     0
  9
$PSTYLEMODE
290
     1
  9
$FINGERPRINTGUID
  2
{FC63A009-381F-4F4F-A034-0D9EA87AAB8E}
  9
$VERSIONGUID
  2
{FAEB1C32-E019-11D5-929B-00C0DF256EC4}
  9
$EXTNAMES
290
     1
  9
$PSVPSCALE
 40
0.0
  9
$OLESTARTUP
290
     0
  0
ENDSEC
  0
SECTION
  2
CLASSES
  0
CLASS
  1
ACDBDICTIONARYWDFLT
  2
AcDbDictionaryWithDefault
  3
ObjectDBX Classes
 90
        0
280
     0
281
     0
  0
CLASS
  1
VISUALSTYLE
  2
AcDbVisualStyle
  3
ObjectDBX Classes
 90
     4095
280
     0
281
     0
  0
CLASS
  1
MATERIAL
  2
AcDbMaterial
  3
ObjectDBX Classes
 90
     1153
280
     0
281
     0
  0
CLASS
  1
SCALE
  2
AcDbScale
  3
ObjectDBX Classes
 90
     1153
280
     0
281
     0
  0
CLASS
  1
TABLESTYLE
  2
AcDbTableStyle
  3
ObjectDBX Classes
 90
     4095
280
     0
281
     0
  0
CLASS
  1
MLEADERSTYLE
  2
AcDbMLeaderStyle
  3
ACDB_MLEADERSTYLE_CLASS
 90
     4095
280
     0
281
     0
  0
CLASS
  1
SUN
  2
AcDbSun
  3
SCENEOE
 90
     1153
280
     0
281
     0
  0
CLASS
  1
ACDBPLACEHOLDER
  2
AcDbPlaceHolder
  3
ObjectDBX Classes
 90
        0
280
     0
281
     0
  0
CLASS
  1
LAYOUT
  2
AcDbLayout
  3
ObjectDBX Classes
 90
        0
280
     0
281
     0
  0
ENDSEC
  0
SECTION
  2
TABLES
  0
TABLE
  2
VPORT
  5
8
330
0
100
AcDbSymbolTable
 70
     1
  0
VPORT
  5
29
330
8
100
AcDbSymbolTableRecord
100
AcDbViewportTableRecord
  2
*Active
 70
     0
 10
0.0
 20
0.0
 11
1.0
 21
1.0
 12
148.5
 22
105.0
 13
0.0
 23
0.0
 14
10.0
 24
10.0
 15
10.0
 25
10.0
 16
0.0
 26
0.0
 36
1.0
 17
0.0
 27
0.0
 37
0.0
 40
210.0
 41
1.4142857143
 42
50.0
 43
0.0
 44
0.0
 50
0.0
 51
0.0
 71
     0
 72
  2000
 73
     1
 74
     3
 75
     0
 76
     0
 77
     0
 78
     0
281
     0
 65
     1
110
0.0
120
0.0
130
0.0
111
1.0
121
0.0
131
0.0
112
0.0
122
1.0
132
0.0
 79
     0
146
0.0
  0
ENDTAB
  0
TABLE
  2
LTYPE
  5
5
330
0
100
AcDbSymbolTable
 70
     6
  0
LTYPE
  5
14
330
5
100
AcDbSymbolTableRecord
100
AcDbLinetypeTableRecord
  2
ByBlock
 70
     0
  3

 72
    65
 73
     0
 40
0.0
  0
LTYPE
  5
15
330
5
100
AcDbSymbolTableRecord
100
AcDbLinetypeTableRecord
  2
ByLayer
 70
     0
  3

 72
    65
 73
     0
 40
0.0
  0
LTYPE
  5
16
330
5
100
AcDbSymbolTableRecord
100
AcDbLinetypeTableRecord
  2
Continuous
 70
     0
  3
Solid line
 72
    65
 73
     0
 40
0.0
  0
LTYPE
  5
6E
330
5
100
AcDbSymbolTableRecord
100
AcDbLinetypeTableRecord
  2
HIDDEN
 70
     0
  3
Hidden __ __ __ __ __ __ __ __ __ __ __ __ __ __
 72
    65
 73
     2
 40
1.905
 49
1.27
 74
     0
 49
-0.635
 74
     0
  0
LTYPE
  5
6F
330
5
100
AcDbSymbolTableRecord
100
AcDbLinetypeTableRecord
  2
PHANTOM
 70
     0
  3
Phantom ______  __  __  ______  __  __  ______
 72
    65
 73
     6
 40
12.7
 49
6.35
 74
     0
 49
-1.27
 74
     0
 49
1.27
 74
     0
 49
-1.27
 74
     0
 49
1.27
 74
     0
 49
-1.27
 74
     0
  0
LTYPE
  5
70
330
5
100
AcDbSymbolTableRecord
100
AcDbLinetypeTableRecord
  2
CENTER
 70
     0
  3
Center ____ _ ____ _ ____ _ ____ _ ____ _ ____
 72
    65
 73
     4
 40
10.16
 49
6.35
 74
     0
 49
-1.27
 74
     0
 49
1.27
 74
     0
 49
-1.27
 74
     0
  0
LTYPE
  5
71
330
5
100
AcDbSymbolTableRecord
100
AcDbLinetypeTableRecord
  2
CENTERX2
 70
     0
  3
Center (2x) ________  __  ________  __  _____
 72
    65
 73
     4
 40
20.32
 49
12.7
 74
     0
 49
-2.54
 74
     0
 49
2.54
 74
     0
 49
-2.54
 74
     0
  0
LTYPE
  5
72
330
5
100
AcDbSymbolTableRecord
100
AcDbLinetypeTableRecord
  2
DOT2
 70
     0
  3
Dot (.5x) ........................................
 72
    65
 73
     2
 40
0.635
 49
0.0
 74
     0
 49
-0.635
 74
     0
  0
ENDTAB
  0
TABLE
  2
LAYER
  5
2
330
0
100
AcDbSymbolTable
 70
     5
  0
LAYER
  5
10
330
2
100
AcDbSymbolTableRecord
100
AcDbLayerTableRecord
  2
0
 70
     0
 62
     7
  6
Continuous
370
    -3
390
F
  0
LAYER
  5
73
330
2
100
AcDbSymbolTableRecord
100
AcDbLayerTableRecord
  2
FORMAT
 70
     0
 62
     7
  6
Continuous
370
    -3
390
F
  0
LAYER
  5
74
330
2
100
AcDbSymbolTableRecord
100
AcDbLayerTableRecord
  2
VERMASSUNG
 70
     0
 62
     7
  6
Continuous
370
    -3
390
F
  0
LAYER
  5
75
330
2
100
AcDbSymbolTableRecord
100
AcDbLayerTableRecord
  2
KOPF_DÜNN
 70
     0
 62
     7
  6
Continuous
370
    -3
390
F
  0
LAYER
  5
76
330
2
100
AcDbSymbolTableRecord
100
AcDbLayerTableRecord
  2
KOPF_DICK
 70
     0
 62
     7
  6
Continuous
370
    25
390
F
  0
ENDTAB
  0
TABLE
  2
STYLE
  5
3
330
0
100
AcDbSymbolTable
 70
     2
  0
STYLE
  5
11
330
3
100
AcDbSymbolTableRecord
100
AcDbTextStyleTableRecord
  2
Standard
 70
     0
 40
0.0
 41
1.0
 50
0.0
 71
     0
 42
2.0
  3
txt
  4

  0
STYLE
  5
77
330
3
100
AcDbSymbolTableRecord
100
AcDbTextStyleTableRecord
  2
SLDTEXTSTYLE0
 70
     0
 40
0.0
 41
0.7
 50
0.0
 71
     0
 42
2.0
  3
TXT
  4

  0
ENDTAB
  0
TABLE
  2
VIEW
  5
6
330
0
100
AcDbSymbolTable
 70
     0
  0
ENDTAB
  0
TABLE
  2
UCS
  5
7
330
0
100
AcDbSymbolTable
 70
     0
  0
ENDTAB
  0
TABLE
  2
APPID
  5
9
330
0
100
AcDbSymbolTable
 70
     1
  0
APPID
  5
12
330
9
100
AcDbSymbolTableRecord
100
AcDbRegAppTableRecord
  2
ACAD
 70
     0
  0
ENDTAB
  0
TABLE
  2
DIMSTYLE
  5
A
330
0
100
AcDbSymbolTable
 70
     3
100
AcDbDimStyleTable
  0
DIMSTYLE
105
27
330
A
100
AcDbSymbolTableRecord
100
AcDbDimStyleTableRecord
  2
ISO-25
 70
     0
 41
2.5
 42
0.625
 43
3.75
 44
1.25
 73
     0
 74
     0
 77
     1
 78
     8
140
2.5
141
2.5
143
0.0393700787
147
0.625
171
     3
172
     1
178
     0
271
     2
272
     2
274
     3
278
    44
283
     0
284
     8
340
11
  0
DIMSTYLE
105
1FC
102
{ACAD_REACTORS
330
1FB
330
206
330
211
330
21B
330
225
102
}
330
A
100
AcDbSymbolTableRecord
100
AcDbDimStyleTableRecord
  2
SLDDIMSTYLE0
 70
     0
 41
3.0
 44
0.0
 45
0.000000001
 73
     0
 74
     0
 77
     1
 78
    12
 79
     3
140
2.0
147
0.5
173
     1
178
     0
271
     2
272
     3
276
     2
284
    12
340
77
  0
DIMSTYLE
105
230
102
{ACAD_REACTORS
330
22F
102
}
330
A
100
AcDbSymbolTableRecord
100
AcDbDimStyleTableRecord
  2
SLDDIMSTYLE1
 70
     0
 41
3.0
 44
0.0
 45
0.000000001
 73
     0
 74
     0
 77
     1
 78
    12
 79
     3
140
2.0
147
0.5
173
     1
178
     0
271
     1
272
     3
276
     2
284
    12
340
77
  0
ENDTAB
  0
TABLE
  2
BLOCK_RECORD
  5
1
330
0
100
AcDbSymbolTable
 70
     7
  0
BLOCK_RECORD
  5
1F
330
1
100
AcDbSymbolTableRecord
100
AcDbBlockTableRecord
  2
*Model_Space
340
22
  0
BLOCK_RECORD
  5
1B
330
1
100
AcDbSymbolTableRecord
100
AcDbBlockTableRecord
  2
*Paper_Space
340
1E
  0
BLOCK_RECORD
  5
23
330
1
100
AcDbSymbolTableRecord
100
AcDbBlockTableRecord
  2
*Paper_Space0
340
26
  0
BLOCK_RECORD
  5
1FD
330
1
100
AcDbSymbolTableRecord
100
AcDbBlockTableRecord
  2
_D
340
0
  0
BLOCK_RECORD
  5
207
330
1
100
AcDbSymbolTableRecord
100
AcDbBlockTableRecord
  2
_D_1
340
0
  0
BLOCK_RECORD
  5
212
330
1
100
AcDbSymbolTableRecord
100
AcDbBlockTableRecord
  2
_D_2
340
0
  0
BLOCK_RECORD
  5
21C
330
1
100
AcDbSymbolTableRecord
100
AcDbBlockTableRecord
  2
_D_3
340
0
  0
BLOCK_RECORD
  5
226
330
1
100
AcDbSymbolTableRecord
100
AcDbBlockTableRecord
  2
_D_4
340
0
  0
BLOCK_RECORD
  5
231
330
1
100
AcDbSymbolTableRecord
100
AcDbBlockTableRecord
  2
_D_5
340
0
  0
ENDTAB
  0
ENDSEC
  0
SECTION
  2
BLOCKS
  0
BLOCK
  5
20
330
1F
100
AcDbEntity
  8
0
100
AcDbBlockBegin
  2
*Model_Space
 70
     0
 10
0.0
 20
0.0
 30
0.0
  3
*Model_Space
  1

  0
ENDBLK
  5
21
330
1F
100
AcDbEntity
  8
0
100
AcDbBlockEnd
  0
BLOCK
  5
1C
330
1B
100
AcDbEntity
 67
     1
  8
0
100
AcDbBlockBegin
  2
*Paper_Space
 70
     0
 10
0.0
 20
0.0
 30
0.0
  3
*Paper_Space
  1

  0
ENDBLK
  5
1D
330
1B
100
AcDbEntity
 67
     1
  8
0
100
AcDbBlockEnd
  0
BLOCK
  5
24
330
23
100
AcDbEntity
  8
0
100
AcDbBlockBegin
  2
*Paper_Space0
 70
     0
 10
0.0
 20
0.0
 30
0.0
  3
*Paper_Space0
  1

  0
ENDBLK
  5
25
330
23
100
AcDbEntity
  8
0
100
AcDbBlockEnd
  0
BLOCK
  5
1FE
330
1FD
100
AcDbEntity
  8
0
100
AcDbBlockBegin
  2
_D
 70
     0
 10
0.0
 20
0.0
 30
0.0
  3
_D
  1

  0
SOLID
  5
200
330
1FD
100
AcDbEntity
  8
VERMASSUNG
100
AcDbTrace
 10
187.7308442728
 20
104.9727171622
 30
0.0
 11
188.1808442728
 21
107.9727171622
 31
0.0
 12
187.2808442728
 22
107.9727171622
 32
0.0
 13
187.2808442728
 23
107.9727171622
 33
0.0
  0
SOLID
  5
201
330
1FD
100
AcDbEntity
  8
VERMASSUNG
100
AcDbTrace
 10
187.7308442728
 20
132.9727171622
 30
0.0
 11
187.2808442728
 21
129.9727171622
 31
0.0
 12
188.1808442728
 22
129.9727171622
 32
0.0
 13
188.1808442728
 23
129.9727171622
 33
0.0
  0
LINE
  5
202
330
1FD
100
AcDbEntity
  8
VERMASSUNG
100
AcDbLine
 10
187.7308442728
 20
104.9727171622
 30
0.0
 11
187.7308442728
 21
132.9727171622
 31
0.0
  0
LINE
  5
203
330
1FD
100
AcDbEntity
  8
VERMASSUNG
100
AcDbLine
 10
187.7308442728
 20
132.9727171622
 30
0.0
 11
187.7308442728
 21
143.374448157
 31
0.0
  0
MTEXT
  5
204
330
1FD
100
AcDbEntity
  8
VERMASSUNG
100
AcDbMText
 10
185.1527089679
 20
136.9644482425
 30
0.0
 40
2.0
 41
0.0
 71
     1
 72
     1
  1
%%c
  7
SLDTEXTSTYLE0
 11
-1.608122649676637E-16
 21
1.0
 31
0.0
 73
     1
 44
1.0
  0
MTEXT
  5
205
330
1FD
100
AcDbEntity
  8
VERMASSUNG
100
AcDbMText
 10
184.9527090166
 20
140.5744482568
 30
0.0
 40
2.0
 41
0.0
 71
     1
 72
     1
  1
28
  7
SLDTEXTSTYLE0
 11
-1.608122649676637E-16
 21
1.0
 31
0.0
 73
     1
 44
1.0
  0
ENDBLK
  5
1FF
330
1FD
100
AcDbEntity
  8
0
100
AcDbBlockEnd
  0
BLOCK
  5
208
330
207
100
AcDbEntity
  8
0
100
AcDbBlockBegin
  2
_D_1
 70
     0
 10
0.0
 20
0.0
 30
0.0
  3
_D_1
  1

  0
SOLID
  5
20A
330
207
100
AcDbEntity
  8
VERMASSUNG
100
AcDbTrace
 10
245.1619729733
 20
132.9727171622
 30
0.0
 11
244.7119729733
 21
129.9727171622
 31
0.0
 12
245.6119729733
 22
129.9727171622
 32
0.0
 13
245.6119729733
 23
129.9727171622
 33
0.0
  0
SOLID
  5
20B
330
207
100
AcDbEntity
  8
VERMASSUNG
100
AcDbTrace
 10
245.1619729733
 20
104.9727171622
 30
0.0
 11
245.6119729733
 21
107.9727171622
 31
0.0
 12
244.7119729733
 22
107.9727171622
 32
0.0
 13
244.7119729733
 23
107.9727171622
 33
0.0
  0
LINE
  5
20C
330
207
100
AcDbEntity
  8
VERMASSUNG
100
AcDbLine
 10
219.1561389038
 20
132.9727171622
 30
0.0
 11
246.1619729733
 21
132.9727171622
 31
0.0
  0
LINE
  5
20D
330
207
100
AcDbEntity
  8
VERMASSUNG
100
AcDbLine
 10
219.1561389038
 20
104.9727171622
 30
0.0
 11
246.1619729733
 21
104.9727171622
 31
0.0
  0
LINE
  5
20E
330
207
100
AcDbEntity
  8
VERMASSUNG
100
AcDbLine
 10
245.1619729733
 20
132.9727171622
 30
0.0
 11
245.1619729733
 21
104.9727171622
 31
0.0
  0
MTEXT
  5
20F
330
207
100
AcDbEntity
  8
VERMASSUNG
100
AcDbMText
 10
242.5838376684
 20
115.767717205
 30
0.0
 40
2.0
 41
0.0
 71
     1
 72
     1
  1
%%c
  7
SLDTEXTSTYLE0
 11
-7.044195017643634E-15
 21
1.0
 31
0.0
 73
     1
 44
1.0
  0
MTEXT
  5
210
330
207
100
AcDbEntity
  8
VERMASSUNG
100
AcDbMText
 10
242.3838377171
 20
119.3777172193
 30
0.0
 40
2.0
 41
0.0
 71
     1
 72
     1
  1
28
  7
SLDTEXTSTYLE0
 11
-7.044195017643634E-15
 21
1.0
 31
0.0
 73
     1
 44
1.0
  0
ENDBLK
  5
209
330
207
100
AcDbEntity
  8
0
100
AcDbBlockEnd
  0
BLOCK
  5
213
330
212
100
AcDbEntity
  8
0
100
AcDbBlockBegin
  2
_D_2
 70
     0
 10
0.0
 20
0.0
 30
0.0
  3
_D_2
  1

  0
SOLID
  5
215
330
212
100
AcDbEntity
  8
VERMASSUNG
100
AcDbTrace
 10
128.6561389038
 20
160.4477171622
 30
0.0
 11
131.6561389038
 21
159.9977171622
 31
0.0
 12
131.6561389038
 22
160.8977171622
 32
0.0
 13
131.6561389038
 23
160.8977171622
 33
0.0
  0
SOLID
  5
216
330
212
100
AcDbEntity
  8
VERMASSUNG
100
AcDbTrace
 10
230.6561389038
 20
160.4477171622
 30
0.0
 11
227.6561389038
 21
160.8977171622
 31
0.0
 12
227.6561389038
 22
159.9977171622
 32
0.0
 13
227.6561389038
 23
159.9977171622
 33
0.0
  0
LINE
  5
217
330
212
100
AcDbEntity
  8
VERMASSUNG
100
AcDbLine
 10
128.6561389038
 20
149.4477171622
 30
0.0
 11
128.6561389038
 21
161.4477171622
 31
0.0
  0
LINE
  5
218
330
212
100
AcDbEntity
  8
VERMASSUNG
100
AcDbLine
 10
230.6561389038
 20
129.9727171622
 30
0.0
 11
230.6561389038
 21
161.4477171622
 31
0.0
  0
LINE
  5
219
330
212
100
AcDbEntity
  8
VERMASSUNG
100
AcDbLine
 10
128.6561389038
 20
160.4477171622
 30
0.0
 11
230.6561389038
 21
160.4477171622
 31
0.0
  0
MTEXT
  5
21A
330
212
100
AcDbEntity
  8
VERMASSUNG
100
AcDbMText
 10
177.7561388717
 20
163.0258527582
 30
0.0
 40
2.0
 41
0.0
 71
     1
 72
     1
  1
102
  7
SLDTEXTSTYLE0
 73
     1
 44
1.0
  0
ENDBLK
  5
214
330
212
100
AcDbEntity
  8
0
100
AcDbBlockEnd
  0
BLOCK
  5
21D
330
21C
100
AcDbEntity
  8
0
100
AcDbBlockBegin
  2
_D_3
 70
     0
 10
0.0
 20
0.0
 30
0.0
  3
_D_3
  1

  0
SOLID
  5
21F
330
21C
100
AcDbEntity
  8
VERMASSUNG
100
AcDbTrace
 10
110.6561389038
 20
168.9118375181
 30
0.0
 11
113.6561389038
 21
168.4618375181
 31
0.0
 12
113.6561389038
 22
169.3618375181
 32
0.0
 13
113.6561389038
 23
169.3618375181
 33
0.0
  0
SOLID
  5
220
330
21C
100
AcDbEntity
  8
VERMASSUNG
100
AcDbTrace
 10
230.6561389038
 20
168.9118375181
 30
0.0
 11
227.6561389038
 21
169.3618375181
 31
0.0
 12
227.6561389038
 22
168.4618375181
 32
0.0
 13
227.6561389038
 23
168.4618375181
 33
0.0
  0
LINE
  5
221
330
21C
100
AcDbEntity
  8
VERMASSUNG
100
AcDbLine
 10
110.6561389038
 20
150.2477171622
 30
0.0
 11
110.6561389038
 21
169.9118375181
 31
0.0
  0
LINE
  5
222
330
21C
100
AcDbEntity
  8
VERMASSUNG
100
AcDbLine
 10
230.6561389038
 20
129.9727171622
 30
0.0
 11
230.6561389038
 21
169.9118375181
 31
0.0
  0
LINE
  5
223
330
21C
100
AcDbEntity
  8
VERMASSUNG
100
AcDbLine
 10
110.6561389038
 20
168.9118375181
 30
0.0
 11
230.6561389038
 21
168.9118375181
 31
0.0
  0
MTEXT
  5
224
330
21C
100
AcDbEntity
  8
VERMASSUNG
100
AcDbMText
 10
168.7561388717
 20
171.489973114
 30
0.0
 40
2.0
 41
0.0
 71
     1
 72
     1
  1
120
  7
SLDTEXTSTYLE0
 73
     1
 44
1.0
  0
ENDBLK
  5
21E
330
21C
100
AcDbEntity
  8
0
100
AcDbBlockEnd
  0
BLOCK
  5
227
330
226
100
AcDbEntity
  8
0
100
AcDbBlockBegin
  2
_D_4
 70
     0
 10
0.0
 20
0.0
 30
0.0
  3
_D_4
  1

  0
SOLID
  5
229
330
226
100
AcDbEntity
  8
VERMASSUNG
100
AcDbTrace
 10
70.7061389038
 20
176.7457262915
 30
0.0
 11
73.7061389038
 21
176.2957262915
 31
0.0
 12
73.7061389038
 22
177.1957262915
 32
0.0
 13
73.7061389038
 23
177.1957262915
 33
0.0
  0
SOLID
  5
22A
330
226
100
AcDbEntity
  8
VERMASSUNG
100
AcDbTrace
 10
230.6561389038
 20
176.7457262915
 30
0.0
 11
227.6561389038
 21
177.1957262915
 31
0.0
 12
227.6561389038
 22
176.2957262915
 32
0.0
 13
227.6561389038
 23
176.2957262915
 33
0.0
  0
LINE
  5
22B
330
226
100
AcDbEntity
  8
VERMASSUNG
100
AcDbLine
 10
70.7061389038
 20
141.175811886
 30
0.0
 11
70.7061389038
 21
177.7457262915
 31
0.0
  0
LINE
  5
22C
330
226
100
AcDbEntity
  8
VERMASSUNG
100
AcDbLine
 10
230.6561389038
 20
129.9727171622
 30
0.0
 11
230.6561389038
 21
177.7457262915
 31
0.0
  0
LINE
  5
22D
330
226
100
AcDbEntity
  8
VERMASSUNG
100
AcDbLine
 10
70.7061389038
 20
176.7457262915
 30
0.0
 11
230.6561389038
 21
176.7457262915
 31
0.0
  0
MTEXT
  5
22E
330
226
100
AcDbEntity
  8
VERMASSUNG
100
AcDbMText
 10
147.0811389656
 20
179.3238618874
 30
0.0
 40
2.0
 41
0.0
 71
     1
 72
     1
  1
159.95
  7
SLDTEXTSTYLE0
 73
     1
 44
1.0
  0
ENDBLK
  5
228
330
226
100
AcDbEntity
  8
0
100
AcDbBlockEnd
  0
BLOCK
  5
232
330
231
100
AcDbEntity
  8
0
100
AcDbBlockBegin
  2
_D_5
 70
     0
 10
0.0
 20
0.0
 30
0.0
  3
_D_5
  1

  0
SOLID
  5
234
330
231
100
AcDbEntity
  8
VERMASSUNG
100
AcDbTrace
 10
57.8385291898
 20
87.4977171622
 30
0.0
 11
58.2885291898
 21
90.4977171622
 31
0.0
 12
57.3885291898
 22
90.4977171622
 32
0.0
 13
57.3885291898
 23
90.4977171622
 33
0.0
  0
SOLID
  5
235
330
231
100
AcDbEntity
  8
VERMASSUNG
100
AcDbTrace
 10
57.8385291898
 20
150.4477171622
 30
0.0
 11
57.3885291898
 21
147.4477171622
 31
0.0
 12
58.2885291898
 22
147.4477171622
 32
0.0
 13
58.2885291898
 23
147.4477171622
 33
0.0
  0
LINE
  5
236
330
231
100
AcDbEntity
  8
VERMASSUNG
100
AcDbLine
 10
110.8561389038
 20
87.4977171622
 30
0.0
 11
56.8385291898
 21
87.4977171622
 31
0.0
  0
LINE
  5
237
330
231
100
AcDbEntity
  8
VERMASSUNG
100
AcDbLine
 10
110.8561389038
 20
150.4477171622
 30
0.0
 11
56.8385291898
 21
150.4477171622
 31
0.0
  0
LINE
  5
238
330
231
100
AcDbEntity
  8
VERMASSUNG
100
AcDbLine
 10
57.8385291898
 20
87.4977171622
 30
0.0
 11
57.8385291898
 21
150.4477171622
 31
0.0
  0
MTEXT
  5
239
330
231
100
AcDbEntity
  8
VERMASSUNG
100
AcDbMText
 10
55.0603939335
 20
110.8677185439
 30
0.0
 40
2.0
 41
0.0
 71
     1
 72
     1
  1
KM
  7
SLDTEXTSTYLE0
 11
6.123233995736766E-17
 21
1.0
 31
0.0
 73
     1
 44
1.0
  0
MTEXT
  5
23A
330
231
100
AcDbEntity
  8
VERMASSUNG
100
AcDbMText
 10
55.2603938848
 20
114.2677183561
 30
0.0
 40
2.0
 41
0.0
 71
     1
 72
     1
  1
%%c
  7
SLDTEXTSTYLE0
 11
6.123233995736766E-17
 21
1.0
 31
0.0
 73
     1
 44
1.0
  0
MTEXT
  5
23B
330
231
100
AcDbEntity
  8
VERMASSUNG
100
AcDbMText
 10
55.0603939335
 20
117.8777183704
 30
0.0
 40
2.0
 41
0.0
 71
     1
 72
     1
  1
63
  7
SLDTEXTSTYLE0
 11
6.123233995736766E-17
 21
1.0
 31
0.0
 73
     1
 44
1.0
  0
MTEXT
  5
23C
330
231
100
AcDbEntity
  8
VERMASSUNG
100
AcDbMText
 10
55.0603939335
 20
121.8652182706
 30
0.0
 40
2.0
 41
0.0
 71
     1
 72
     1
  1
XMZ
  7
SLDTEXTSTYLE0
 11
6.123233995736766E-17
 21
1.0
 31
0.0
 73
     1
 44
1.0
  0
ENDBLK
  5
233
330
231
100
AcDbEntity
  8
0
100
AcDbBlockEnd
  0
ENDSEC
  0
SECTION
  2
ENTITIES
  0
MTEXT
  5
78
330
1F
100
AcDbEntity
  8
KOPF_DÜNN
100
AcDbMText
 10
13.8892156294
 20
23.8442973028
 30
0.0
 40
3.0
 41
0.0
 71
     1
 72
     1
  1
KY6.E16.K01.120
  7
SLDTEXTSTYLE0
 73
     1
 44
1.0
  0
MTEXT
  5
79
330
1F
100
AcDbEntity
  8
VERMASSUNG
100
AcDbMText
 10
13.9329988022
 20
28.8834360957
 30
0.0
 40
3.0
 41
0.0
 71
     1
 72
     1
  1
Spannzangenfutter ER_Collet chuck ER
  7
SLDTEXTSTYLE0
 73
     1
 44
1.0
  0
MTEXT
  5
7A
330
1F
100
AcDbEntity
  8
VERMASSUNG
100
AcDbMText
 10
98.8601118557
 20
13.8365368761
 30
0.0
 40
2.0
 41
0.0
 71
     1
 72
     1
  1
Datum: 16.02.2018
  7
SLDTEXTSTYLE0
 73
     1
 44
1.0
  0
MTEXT
  5
7B
330
1F
100
AcDbEntity
  8
VERMASSUNG
100
AcDbMText
 10
13.933048693
 20
18.0482802738
 30
0.0
 40
2.0
 41
0.0
 71
     1
 72
     1
  1
KM63 XMZ / Ø28
  7
SLDTEXTSTYLE0
 73
     1
 44
1.0
  0
MTEXT
  5
7C
330
1F
100
AcDbEntity
  8
VERMASSUNG
100
AcDbMText
 10
13.9808475933
 20
13.9090974274
 30
0.0
 40
2.0
 41
0.0
 71
     1
 72
     1
  1
Gewicht: 1004g
  7
SLDTEXTSTYLE0
 73
     1
 44
1.0
  0
LINE
  5
7D
330
1F
100
AcDbEntity
  8
0
  6
Continuous
 62
     7
370
    25
100
AcDbLine
 10
213.4561356374
 20
132.9727175944
 30
0.0
 11
212.6561369964
 21
132.1727170907
 31
0.0
  0
LINE
  5
7E
330
1F
100
AcDbEntity
  8
0
  6
Continuous
 62
     7
370
    25
100
AcDbLine
 10
212.6561369964
 20
105.7727172338
 30
0.0
 11
213.4561356374
 21
104.9727167301
 31
0.0
  0
LINE
  5
7F
330
1F
100
AcDbEntity
  8
0
  6
Continuous
 62
     7
370
    25
100
AcDbLine
 10
213.4561356374
 20
104.9727167301
 30
0.0
 11
219.1561352679
 21
104.9727167301
 31
0.0
  0
LINE
  5
80
330
1F
100
AcDbEntity
  8
0
  6
Continuous
 62
     7
370
    25
100
AcDbLine
 10
219.1561352679
 20
132.9727175944
 30
0.0
 11
213.4561356374
 21
132.9727175944
 31
0.0
  0
LINE
  5
81
330
1F
100
AcDbEntity
  8
0
  6
Continuous
 62
     7
370
    25
100
AcDbLine
 10
230.2542146513
 20
106.472716976
 30
0.0
 11
230.6561362216
 21
107.9727172218
 31
0.0
  0
LINE
  5
82
330
1F
100
AcDbEntity
  8
0
  6
Continuous
 62
     7
370
    25
100
AcDbLine
 10
230.6561362216
 20
129.9727171026
 30
0.0
 11
230.2542146513
 21
131.4727173485
 31
0.0
  0
LINE
  5
83
330
1F
100
AcDbEntity
  8
0
  6
Continuous
 62
     7
370
    25
100
AcDbLine
 10
118.6811387756
 20
147.9203126691
 30
0.0
 11
117.2219411687
 21
150.4477172457
 31
0.0
  0
ARC
  5
84
330
1F
100
AcDbEntity
  8
0
  6
Continuous
 62
     7
370
    25
100
AcDbCircle
 10
127.6561389038
 20
88.4977171622
 30
0.0
 40
1.0
100
AcDbArc
 50
270.0
 51
0.0
  0
ARC
  5
85
330
1F
100
AcDbEntity
  8
0
  6
Continuous
 62
     7
370
    25
100
AcDbCircle
 10
127.6561389038
 20
149.4477171622
 30
0.0
 40
1.000000000000028
100
AcDbArc
 50
0.0
 51
90.0
  0
LINE
  5
86
330
1F
100
AcDbEntity
  8
0
  6
Continuous
 62
     7
370
    25
100
AcDbLine
 10
123.8903369972
 20
87.4977170788
 30
0.0
 11
127.6561398276
 21
87.4977170788
 31
0.0
  0
LINE
  5
87
330
1F
100
AcDbEntity
  8
0
  6
Continuous
 62
     7
370
    25
100
AcDbLine
 10
127.6561398276
 20
150.4477172457
 30
0.0
 11
123.8903369972
 21
150.4477172457
 31
0.0
  0
LINE
  5
88
330
1F
100
AcDbEntity
  8
0
  6
Continuous
 62
     7
370
    25
100
AcDbLine
 10
110.8561388987
 20
87.4977170788
 30
0.0
 11
117.2219411687
 21
87.4977170788
 31
0.0
  0
LINE
  5
89
330
1F
100
AcDbEntity
  8
0
  6
Continuous
 62
     7
370
    25
100
AcDbLine
 10
117.2219411687
 20
150.4477172457
 30
0.0
 11
110.8561388987
 21
150.4477172457
 31
0.0
  0
ARC
  5
8A
330
1F
100
AcDbEntity
  8
0
  6
Continuous
 62
     7
370
    25
100
AcDbCircle
 10
110.8561389038
 20
87.6977171622
 30
0.0
 40
0.2000000000000028
100
AcDbArc
 50
180.0
 51
270.0
  0
ARC
  5
8B
330
1F
100
AcDbEntity
  8
0
  6
Continuous
 62
     7
370
    25
100
AcDbCircle
 10
110.8561389038
 20
150.2477171622
 30
0.0
 40
0.2000000000000028
100
AcDbArc
 50
90.0
 51
180.0
  0
ARC
  5
8C
330
1F
100
AcDbEntity
  8
0
  6
Continuous
 62
     7
370
    25
100
AcDbCircle
 10
110.2272040292
 20
93.4227171622
 30
0.0
 40
0.8000000000000158
100
AcDbArc
 50
57.576802718
 51
107.5
  0
ARC
  5
8D
330
1F
100
AcDbEntity
  8
0
  6
Continuous
 62
     7
370
    25
100
AcDbCircle
 10
110.2272040292
 20
144.5227171622
 30
0.0
 40
0.8000000000000139
100
AcDbArc
 50
252.5
 51
302.423197282
  0
LINE
  5
8E
330
1F
100
AcDbEntity
  8
0
  6
Continuous
 62
     7
370
    25
100
AcDbLine
 10
80.2609756806
 20
142.4463338517
 30
0.0
 11
72.2061399588
 21
142.0418381058
 31
0.0
  0
LINE
  5
8F
330
1F
100
AcDbEntity
  8
0
  6
Continuous
 62
     7
370
    25
100
AcDbLine
 10
109.495956845
 20
143.9144558571
 30
0.0
 11
96.1696937897
 21
143.2452372573
 31
0.0
  0
LINE
  5
90
330
1F
100
AcDbEntity
  8
0
  6
Continuous
 62
     7
370
    25
100
AcDbLine
 10
96.170650258
 20
94.7001486383
 30
0.0
 11
109.495956845
 21
94.0309784673
 31
0.0
  0
LINE
  5
91
330
1F
100
AcDbEntity
  8
0
  6
Continuous
 62
     7
370
    25
100
AcDbLine
 10
72.2061399588
 20
95.9035962187
 30
0.0
 11
80.2609868565
 21
95.4990986101
 31
0.0
  0
LINE
  5
92
330
1F
100
AcDbEntity
  8
0
  6
Continuous
 62
     7
370
    25
100
AcDbLine
 10
109.495956845
 20
94.0309784673
 30
0.0
 11
109.9866393938
 21
94.1856916361
 31
0.0
  0
LINE
  5
93
330
1F
100
AcDbEntity
  8
0
  6
Continuous
 62
     7
370
    25
100
AcDbLine
 10
109.9866393938
 20
143.7597426884
 30
0.0
 11
109.495956845
 21
143.9144558571
 31
0.0
  0
LINE
  5
94
330
1F
100
AcDbEntity
  8
0
  6
Continuous
 62
     7
370
    25
100
AcDbLine
 10
72.2061399588
 20
142.0418381058
 30
0.0
 11
70.7061406442
 21
141.1758124195
 31
0.0
  0
LINE
  5
95
330
1F
100
AcDbEntity
  8
0
  6
Continuous
 62
     7
370
    25
100
AcDbLine
 10
70.7061406442
 20
96.7696219049
 30
0.0
 11
72.2061399588
 21
95.9035962187
 31
0.0
  0
ARC
  5
96
330
1F
100
AcDbEntity
  8
0
  6
Continuous
 62
     7
370
    25
100
AcDbCircle
 10
132.6561389038
 20
100.9727171622
 30
0.0
 40
4.000000000000014
100
AcDbArc
 50
90.0
 51
180.0
  0
ARC
  5
97
330
1F
100
AcDbEntity
  8
0
  6
Continuous
 62
     7
370
    25
100
AcDbCircle
 10
132.6561389038
 20
136.9727171622
 30
0.0
 40
4.0
100
AcDbArc
 50
180.0
 51
270.0
  0
ARC
  5
98
330
1F
100
AcDbEntity
  8
0
  6
Continuous
 62
     7
370
    25
100
AcDbCircle
 10
201.6561389038
 20
131.9727171622
 30
0.0
 40
1.0
100
AcDbArc
 50
0.0
 51
90.0
  0
ARC
  5
99
330
1F
100
AcDbEntity
  8
0
  6
Continuous
 62
     7
370
    25
100
AcDbCircle
 10
201.6561389038
 20
105.9727171622
 30
0.0
 40
1.0
100
AcDbArc
 50
270.0
 51
0.0
  0
LINE
  5
9A
330
1F
100
AcDbEntity
  8
0
  6
Continuous
 62
     7
370
    25
100
AcDbLine
 10
201.656137056
 20
132.9727175944
 30
0.0
 11
132.6561387846
 21
132.9727175944
 31
0.0
  0
LINE
  5
9B
330
1F
100
AcDbEntity
  8
0
  6
Continuous
 62
     7
370
    25
100
AcDbLine
 10
132.6561387846
 20
104.9727167301
 30
0.0
 11
201.656137056
 21
104.9727167301
 31
0.0
  0
LINE
  5
9C
330
1F
100
AcDbEntity
  8
0
  6
Continuous
 62
     7
370
    25
100
AcDbLine
 10
123.8903369972
 20
150.4477172457
 30
0.0
 11
122.4311389246
 21
147.9203126691
 31
0.0
  0
ARC
  5
9D
330
1F
100
AcDbEntity
  8
0
  6
Continuous
 62
     7
370
    25
100
AcDbCircle
 10
119.6811389038
 20
147.8227171622
 30
0.0
 40
1.0
100
AcDbArc
 50
180.0
 51
270.0
  0
LINE
  5
9E
330
1F
100
AcDbEntity
  8
0
  6
Continuous
 62
     7
370
    25
100
AcDbLine
 10
117.2219411687
 20
87.4977170788
 30
0.0
 11
118.6811387756
 21
90.0251216553
 31
0.0
  0
ARC
  5
9F
330
1F
100
AcDbEntity
  8
0
  6
Continuous
 62
     7
370
    25
100
AcDbCircle
 10
203.6561389038
 20
130.9727171622
 30
0.0
 40
1.0
100
AcDbArc
 50
180.0
 51
270.0
  0
ARC
  5
A0
330
1F
100
AcDbEntity
  8
0
  6
Continuous
 62
     7
370
    25
100
AcDbCircle
 10
203.6561389038
 20
106.9727171622
 30
0.0
 40
1.0
100
AcDbArc
 50
90.0
 51
180.0
  0
ARC
  5
A1
330
1F
100
AcDbEntity
  8
0
  6
Continuous
 62
     7
370
    25
100
AcDbCircle
 10
119.6811389038
 20
90.1227171622
 30
0.0
 40
1.0
100
AcDbArc
 50
90.0
 51
180.0
  0
LINE
  5
A2
330
1F
100
AcDbEntity
  8
0
  6
Continuous
 62
     7
370
    25
100
AcDbLine
 10
121.4311387607
 20
146.82271735
 30
0.0
 11
119.6811389395
 21
146.82271735
 31
0.0
  0
LINE
  5
A3
330
1F
100
AcDbEntity
  8
0
  6
Continuous
 62
     7
370
    25
100
AcDbLine
 10
122.4311389246
 20
90.0251216553
 30
0.0
 11
123.8903369972
 21
87.4977170788
 31
0.0
  0
ARC
  5
A4
330
1F
100
AcDbEntity
  8
0
  6
Continuous
 62
     7
370
    25
100
AcDbCircle
 10
121.4311389038
 20
147.8227171622
 30
0.0
 40
1.0
100
AcDbArc
 50
270.0
 51
0.0
  0
LINE
  5
A5
330
1F
100
AcDbEntity
  8
0
  6
Continuous
 62
     7
370
    25
100
AcDbLine
 10
212.6561369964
 20
129.9727171026
 30
0.0
 11
203.6561411091
 21
129.9727171026
 31
0.0
  0
LINE
  5
A6
330
1F
100
AcDbEntity
  8
0
  6
Continuous
 62
     7
370
    25
100
AcDbLine
 10
203.6561411091
 20
107.9727172218
 30
0.0
 11
212.6561369964
 21
107.9727172218
 31
0.0
  0
LINE
  5
A7
330
1F
100
AcDbEntity
  8
0
  6
Continuous
 62
     7
370
    25
100
AcDbLine
 10
119.6811389395
 20
91.1227169745
 30
0.0
 11
121.4311387607
 21
91.1227169745
 31
0.0
  0
ARC
  5
A8
330
1F
100
AcDbEntity
  8
0
  6
Continuous
 62
     7
370
    25
100
AcDbCircle
 10
121.4311389038
 20
90.1227171622
 30
0.0
 40
1.0
100
AcDbArc
 50
0.0
 51
90.0
  0
LINE
  5
A9
330
1F
100
AcDbEntity
  8
0
  6
Continuous
 62
     7
370
    25
100
AcDbLine
 10
213.4561356374
 20
118.9727171622
 30
0.0
 11
213.4561356374
 21
132.9727175944
 31
0.0
  0
LINE
  5
AA
330
1F
100
AcDbEntity
  8
0
  6
Continuous
 62
     7
370
    25
100
AcDbLine
 10
213.4561356374
 20
104.9727167301
 30
0.0
 11
213.4561356374
 21
118.9727171622
 31
0.0
  0
LINE
  5
AB
330
1F
100
AcDbEntity
  8
0
  6
Continuous
 62
     7
370
    25
100
AcDbLine
 10
212.6561369964
 20
118.9727171622
 30
0.0
 11
212.6561369964
 21
132.1727170907
 31
0.0
  0
LINE
  5
AC
330
1F
100
AcDbEntity
  8
0
  6
Continuous
 62
     7
370
    25
100
AcDbLine
 10
212.6561369964
 20
105.7727172338
 30
0.0
 11
212.6561369964
 21
118.9727171622
 31
0.0
  0
LWPOLYLINE
  5
AD
330
1F
100
AcDbEntity
  8
0
  6
Continuous
 62
     7
370
    25
100
AcDbPolyline
 90
        6
 70
   128
 43
0.0
 10
220.6561383077
 20
131.4727173485
 10
220.0701054403
 20
132.058747422
 10
219.6249705025
 20
132.5038823597
 10
219.3255242178
 20
132.8033286445
 10
219.1749926874
 20
132.9538620375
 10
219.1561352679
 20
132.9727175944
  0
LINE
  5
AE
330
1F
100
AcDbEntity
  8
0
  6
Continuous
 62
     7
370
    25
100
AcDbLine
 10
229.852293081
 20
131.4727173485
 30
0.0
 11
220.6561383077
 21
131.4727173485
 31
0.0
  0
LINE
  5
AF
330
1F
100
AcDbEntity
  8
0
  6
Continuous
 62
     7
370
    25
100
AcDbLine
 10
229.852293081
 20
130.682799343
 30
0.0
 11
229.852293081
 21
131.4727173485
 31
0.0
  0
LINE
  5
B0
330
1F
100
AcDbEntity
  8
0
  6
Continuous
 62
     7
370
    25
100
AcDbLine
 10
220.6561383077
 20
130.682799343
 30
0.0
 11
229.852293081
 21
130.682799343
 31
0.0
  0
ELLIPSE
  5
B1
330
1F
100
AcDbEntity
  8
0
  6
Continuous
 62
     7
370
    25
100
AcDbEllipse
 10
233.1561389038
 20
118.9727171622
 30
0.0
 11
-12.1243556529821
 21
12.12435565298223
 31
0.0
210
0.0
220
0.0
230
1.0
 40
0.5773502692
 41
0.0564526645894611
 42
0.9907448866071328
  0
LINE
  5
B2
330
1F
100
AcDbEntity
  8
0
  6
Continuous
 62
     7
370
    25
100
AcDbLine
 10
229.852293081
 20
119.7626347602
 30
0.0
 11
220.6561383077
 21
119.7626347602
 31
0.0
  0
LINE
  5
B3
330
1F
100
AcDbEntity
  8
0
  6
Continuous
 62
     7
370
    25
100
AcDbLine
 10
229.852293081
 20
118.1827995642
 30
0.0
 11
229.852293081
 21
119.7626347602
 31
0.0
  0
LINE
  5
B4
330
1F
100
AcDbEntity
  8
0
  6
Continuous
 62
     7
370
    25
100
AcDbLine
 10
220.6561383077
 20
118.1827995642
 30
0.0
 11
229.852293081
 21
118.1827995642
 31
0.0
  0
ELLIPSE
  5
B5
330
1F
100
AcDbEntity
  8
0
  6
Continuous
 62
     7
370
    25
100
AcDbEllipse
 10
233.1561389038
 20
118.9727171622
 30
0.0
 11
12.12435565298205
 21
12.12435565298215
 31
0.0
210
0.0
220
0.0
230
1.0
 40
0.5773502692
 41
2.150847766982649
 42
3.085139989000321
  0
LINE
  5
B6
330
1F
100
AcDbEntity
  8
0
  6
Continuous
 62
     7
370
    25
100
AcDbLine
 10
229.852293081
 20
107.2626349814
 30
0.0
 11
220.6561383077
 21
107.2626349814
 31
0.0
  0
LINE
  5
B7
330
1F
100
AcDbEntity
  8
0
  6
Continuous
 62
     7
370
    25
100
AcDbLine
 10
229.852293081
 20
106.472716976
 30
0.0
 11
229.852293081
 21
107.2626349814
 31
0.0
  0
LINE
  5
B8
330
1F
100
AcDbEntity
  8
0
  6
Continuous
 62
     7
370
    25
100
AcDbLine
 10
220.6561383077
 20
106.472716976
 30
0.0
 11
229.852293081
 21
106.472716976
 31
0.0
  0
LWPOLYLINE
  5
B9
330
1F
100
AcDbEntity
  8
0
  6
Continuous
 62
     7
370
    25
100
AcDbPolyline
 90
        6
 70
   128
 43
0.0
 10
219.1561352679
 20
104.9727167301
 10
219.1749926874
 20
104.9915722869
 10
219.3255242178
 20
105.14210568
 10
219.6249705025
 20
105.4415519647
 10
220.0701054403
 20
105.8866869025
 10
220.6561383077
 20
106.472716976
  0
LINE
  5
BA
330
1F
100
AcDbEntity
  8
0
  6
Continuous
 62
     7
370
    25
100
AcDbLine
 10
230.6561362216
 20
118.9727171622
 30
0.0
 11
230.6561362216
 21
129.9727171026
 31
0.0
  0
LINE
  5
BB
330
1F
100
AcDbEntity
  8
0
  6
Continuous
 62
     7
370
    25
100
AcDbLine
 10
230.6561362216
 20
107.9727172218
 30
0.0
 11
230.6561362216
 21
118.9727171622
 31
0.0
  0
SPLINE
  5
BC
330
1F
100
AcDbEntity
  8
0
  6
Continuous
 62
     7
370
    25
100
AcDbSpline
210
0.0
220
0.0
230
1.0
 70
    24
 71
     3
 72
    10
 73
     6
 74
     0
 42
0.000000001
 43
0.00000001
 40
0.0
 40
0.0
 40
0.0
 40
0.0
 40
0.4602231791774576
 40
0.9203642239480402
 40
1.0
 40
1.0
 40
1.0
 40
1.0
 10
229.8522930809535
 20
106.4727169759647
 30
0.0
 10
229.9528123997907
 20
106.4727169759647
 30
0.0
 10
230.1538330981369
 20
106.4727169759647
 30
0.0
 10
230.2735215900259
 20
106.4727169759647
 30
0.0
 10
230.2451463927376
 20
106.4727169759647
 30
0.0
 10
230.2409600683726
 20
106.4727169759647
 30
0.0
  0
SPLINE
  5
BD
330
1F
100
AcDbEntity
  8
0
  6
Continuous
 62
     7
370
    25
100
AcDbSpline
210
0.0
220
0.0
230
1.0
 70
     8
 71
     3
 72
    11
 73
     7
 74
     0
 42
0.000000001
 43
0.00000001
 40
0.0
 40
0.0
 40
0.0
 40
0.0
 40
0.2481093061171571
 40
0.4961656497377309
 40
0.748055008709158
 40
1.0
 40
1.0
 40
1.0
 40
1.0
 10
229.8522930809535
 20
118.1827995642164
 30
0.0
 10
229.9630376401585
 20
117.2822743268994
 30
0.0
 10
230.1845031185512
 20
115.4814160823173
 30
0.0
 10
230.2879635533225
 20
112.7507647111011
 30
0.0
 10
230.1888812973151
 20
110.0058671741672
 30
0.0
 10
229.9644974117381
 20
108.1771130213937
 30
0.0
 10
229.8522930809535
 20
107.2626349814312
 30
0.0
  0
SPLINE
  5
BE
330
1F
100
AcDbEntity
  8
0
  6
Continuous
 62
     7
370
    25
100
AcDbSpline
210
0.0
220
0.0
230
1.0
 70
     8
 71
     3
 72
    11
 73
     7
 74
     0
 42
0.000000001
 43
0.00000001
 40
0.0
 40
0.0
 40
0.0
 40
0.0
 40
0.2481092256884727
 40
0.4961656538707265
 40
0.748055012760882
 40
1.0
 40
1.0
 40
1.0
 40
1.0
 10
229.8522930809535
 20
130.6827993430273
 30
0.0
 10
229.9630376443094
 20
129.7822742718025
 30
0.0
 10
230.1845032046392
 20
127.981415760591
 30
0.0
 10
230.2879635343235
 20
125.2507648412215
 30
0.0
 10
230.18888130691
 20
122.5058668802108
 30
0.0
 10
229.9644974143473
 20
120.6771127711439
 30
0.0
 10
229.8522930809535
 20
119.7626347602421
 30
0.0
  0
SPLINE
  5
BF
330
1F
100
AcDbEntity
  8
0
  6
Continuous
 62
     7
370
    25
100
AcDbSpline
210
0.0
220
0.0
230
1.0
 70
    24
 71
     3
 72
     9
 73
     5
 74
     0
 42
0.000000001
 43
0.00000001
 40
0.0
 40
0.0
 40
0.0
 40
0.0
 40
0.4961409642681495
 40
0.9999999999999999
 40
0.9999999999999999
 40
0.9999999999999999
 40
0.9999999999999999
 10
230.2526053258456
 20
131.4727173484937
 30
0.0
 10
230.2338609186353
 20
131.4727173484937
 30
0.0
 10
230.1960805123389
 20
131.4727173484937
 30
0.0
 10
229.9674770174521
 20
131.4727173484937
 30
0.0
 10
229.8522930809535
 20
131.4727173484937
 30
0.0
  0
LINE
  5
C0
330
1F
100
AcDbEntity
  8
0
  6
Continuous
 62
     7
370
    25
100
AcDbLine
 10
220.6561383077
 20
118.1827995642
 30
0.0
 11
220.6561383077
 21
107.2626349814
 31
0.0
  0
LINE
  5
C1
330
1F
100
AcDbEntity
  8
0
  6
Continuous
 62
     7
370
    25
100
AcDbLine
 10
220.6561383077
 20
130.682799343
 30
0.0
 11
220.6561383077
 21
119.7626347602
 31
0.0
  0
LINE
  5
C2
330
1F
100
AcDbEntity
  8
0
  6
Continuous
 62
     7
370
    25
100
AcDbLine
 10
117.2219411687
 20
93.9149915539
 30
0.0
 11
117.2219411687
 21
150.4477172457
 31
0.0
  0
LINE
  5
C3
330
1F
100
AcDbEntity
  8
0
  6
Continuous
 62
     7
370
    25
100
AcDbLine
 10
118.6811387756
 20
145.067420166
 30
0.0
 11
118.6811387756
 21
147.9203126691
 31
0.0
  0
SPLINE
  5
C4
330
1F
100
AcDbEntity
  8
0
  6
Continuous
 62
     7
370
    25
100
AcDbSpline
210
0.0
220
0.0
230
1.0
 70
     8
 71
     3
 72
    26
 73
    22
 74
     0
 42
0.000000001
 43
0.00000001
 40
0.0
 40
0.0
 40
0.0
 40
0.0
 40
0.1250000000000009
 40
0.1250000000000009
 40
0.2500000000000019
 40
0.2500000000000019
 40
0.3125000000000011
 40
0.3125000000000011
 40
0.3750000000000004
 40
0.3750000000000004
 40
0.4375000000000002
 40
0.4375000000000002
 40
0.5000000000000001
 40
0.5000000000000001
 40
0.5625
 40
0.5625
 40
0.6249999999999999
 40
0.6249999999999999
 40
0.7500000000000001
 40
0.7500000000000001
 40
1.0
 40
1.0
 40
1.0
 40
1.0
 10
118.6811389037647
 20
142.8723626722627
 30
0.0
 10
118.5892339930818
 20
143.082286278957
 30
0.0
 10
118.5015372168569
 20
143.2910516958365
 30
0.0
 10
118.3373309460896
 20
143.7053863245297
 30
0.0
 10
118.2600605278228
 20
143.9131307101663
 30
0.0
 10
118.1602944214977
 20
144.2103293299831
 30
0.0
 10
118.1296814925954
 20
144.3070786819216
 30
0.0
 10
118.0748126186924
 20
144.4949781820315
 30
0.0
 10
118.0504273977635
 20
144.5867803297615
 30
0.0
 10
118.010748021265
 20
144.758122758027
 30
0.0
 10
117.9952819420277
 20
144.8381152925597
 30
0.0
 10
117.9741856069453
 20
144.9853097017715
 30
0.0
 10
117.9686725407852
 20
145.0526915693445
 30
0.0
 10
117.9686055831629
 20
145.1678605197446
 30
0.0
 10
117.9738738905124
 20
145.2165263624538
 30
0.0
 10
117.9947164176804
 20
145.2965295559047
 30
0.0
 10
118.0103905308907
 20
145.3275937992726
 30
0.0
 10
118.0697094610683
 20
145.3937484643759
 30
0.0
 10
118.1267292965823
 20
145.4033503316143
 30
0.0
 10
118.3255641852261
 20
145.3583350615074
 30
0.0
 10
118.4968343904582
 20
145.2344089862578
 30
0.0
 10
118.6811389037646
 20
145.0674210427851
 30
0.0
  0
LINE
  5
C5
330
1F
100
AcDbEntity
  8
0
  6
Continuous
 62
     7
370
    25
100
AcDbLine
 10
118.6811387756
 20
95.519161161
 30
0.0
 11
118.6811387756
 21
142.8723617755
 31
0.0
  0
SPLINE
  5
C6
330
1F
100
AcDbEntity
  8
0
  6
Continuous
 62
     7
370
    25
100
AcDbSpline
210
0.0
220
0.0
230
1.0
 70
     8
 71
     3
 72
     8
 73
     4
 74
     0
 42
0.000000001
 43
0.00000001
 40
0.0
 40
0.0
 40
0.0
 40
0.0
 40
1.0
 40
1.0
 40
1.0
 40
1.0
 10
118.3136152376163
 20
94.71618419971324
 30
0.0
 10
118.4313497424459
 20
94.98382787932934
 30
0.0
 10
118.5548158554043
 20
95.25279318166184
 30
0.0
 10
118.6811389037646
 20
95.51916030617235
 30
0.0
  0
SPLINE
  5
C7
330
1F
100
AcDbEntity
  8
0
  6
Continuous
 62
     7
370
    25
100
AcDbSpline
210
0.0
220
0.0
230
1.0
 70
     8
 71
     3
 72
     8
 73
     4
 74
     0
 42
0.000000001
 43
0.00000001
 40
0.0
 40
0.0
 40
0.0
 40
0.0
 40
1.0
 40
1.0
 40
1.0
 40
1.0
 10
117.2219410991945
 20
93.91499184059492
 30
0.0
 10
117.5918284799242
 20
94.18938365952695
 30
0.0
 10
117.9571619726856
 20
94.45980996762344
 30
0.0
 10
118.3136152376167
 20
94.71618419971385
 30
0.0
  0
LINE
  5
C8
330
1F
100
AcDbEntity
  8
0
  6
Continuous
 62
     7
370
    25
100
AcDbLine
 10
128.6561381289
 20
118.9727171622
 30
0.0
 11
128.6561381289
 21
149.4477170818
 31
0.0
  0
LINE
  5
C9
330
1F
100
AcDbEntity
  8
0
  6
Continuous
 62
     7
370
    25
100
AcDbLine
 10
128.6561381289
 20
88.4977172427
 30
0.0
 11
128.6561381289
 21
118.9727171622
 31
0.0
  0
SPLINE
  5
CA
330
1F
100
AcDbEntity
  8
0
  6
Continuous
 62
     7
370
    25
100
AcDbSpline
210
0.0
220
0.0
230
1.0
 70
     8
 71
     3
 72
    14
 73
    10
 74
     0
 42
0.000000001
 43
0.00000001
 40
0.0
 40
0.0
 40
0.0
 40
0.0
 40
0.2500000000000013
 40
0.2500000000000013
 40
0.5000000000000026
 40
0.5000000000000026
 40
0.7500000000000012
 40
0.7500000000000012
 40
1.0
 40
1.0
 40
1.0
 40
1.0
 10
127.6561389037646
 20
92.61010057136039
 30
0.0
 10
127.7512062604723
 20
92.45894344050421
 30
0.0
 10
127.8115113703037
 20
92.31749112106907
 30
0.0
 10
127.8917763184903
 20
92.03208290571193
 30
0.0
 10
127.9106930233379
 20
91.88802809177444
 30
0.0
 10
127.9107000049868
 20
91.59824381135032
 30
0.0
 10
127.8920542791868
 20
91.45295109927542
 30
0.0
 10
127.8120956129941
 20
91.1670059242406
 30
0.0
 10
127.7510012585369
 20
91.02444125776371
 30
0.0
 10
127.6561389037647
 20
90.89959723717278
 30
0.0
  0
SPLINE
  5
CB
330
1F
100
AcDbEntity
  8
0
  6
Continuous
 62
     7
370
    25
100
AcDbSpline
210
0.0
220
0.0
230
1.0
 70
     8
 71
     3
 72
    25
 73
    21
 74
     0
 42
0.000000001
 43
0.00000001
 40
0.0
 40
0.0
 40
0.0
 40
0.0
 40
0.1249999999999995
 40
0.1249999999999995
 40
0.2499999999999989
 40
0.2499999999999989
 40
0.3749999999999984
 40
0.3749999999999984
 40
0.4999999999999979
 40
0.4999999999999979
 40
0.562499999999998
 40
0.562499999999998
 40
0.624999999999998
 40
0.6874999999999981
 40
0.6874999999999981
 40
0.7499999999999981
 40
0.7499999999999981
 40
0.8749999999999991
 40
0.8749999999999991
 40
1.0
 40
1.0
 40
1.0
 40
1.0
 10
123.8903367083347
 20
147.6204545292876
 30
0.0
 10
124.1315842138901
 20
147.5481499192184
 30
0.0
 10
124.3475132481346
 20
147.4642566332627
 30
0.0
 10
124.7306711599772
 20
147.2715879102486
 30
0.0
 10
124.8981229454623
 20
147.1617010222328
 30
0.0
 10
125.1658076018662
 20
146.9251897380604
 30
0.0
 10
125.2694795695871
 20
146.7962266087697
 30
0.0
 10
125.4086109408413
 20
146.5222995288225
 30
0.0
 10
125.4433501808319
 20
146.380186377689
 30
0.0
 10
125.4437806140512
 20
146.1589327516874
 30
0.0
 10
125.4350458304617
 20
146.0833541713326
 30
0.0
 10
125.4002524272871
 20
145.9330544264565
 30
0.0
 10
125.348359565558
 20
145.783089123449
 30
0.0
 10
125.2629813532643
 20
145.6339878912291
 30
0.0
 10
125.1605056001997
 20
145.4855007654683
 30
0.0
 10
125.1004442285486
 20
145.4114122080315
 30
0.0
 10
124.8991344060975
 20
145.1962499065532
 30
0.0
 10
124.7359108860176
 20
145.0601931926831
 30
0.0
 10
124.3505326857663
 20
144.8053351595308
 30
0.0
 10
124.1315831999405
 20
144.6890398790725
 30
0.0
 10
123.8903367083347
 20
144.5876033623967
 30
0.0
  0
LINE
  5
CC
330
1F
100
AcDbEntity
  8
0
  6
Continuous
 62
     7
370
    25
100
AcDbLine
 10
123.8903369972
 20
147.6204547398
 30
0.0
 11
123.8903369972
 21
150.4477172457
 31
0.0
  0
LINE
  5
CD
330
1F
100
AcDbEntity
  8
0
  6
Continuous
 62
     7
370
    25
100
AcDbLine
 10
123.8903369972
 20
87.4977170788
 30
0.0
 11
123.8903369972
 21
89.4359707199
 31
0.0
  0
SPLINE
  5
CE
330
1F
100
AcDbEntity
  8
0
  6
Continuous
 62
     7
370
    25
100
AcDbSpline
210
0.0
220
0.0
230
1.0
 70
     8
 71
     3
 72
    18
 73
    14
 74
     0
 42
0.000000001
 43
0.00000001
 40
0.0
 40
0.0
 40
0.0
 40
0.0
 40
0.25
 40
0.25
 40
0.3750000000000006
 40
0.3750000000000006
 40
0.5000000000000011
 40
0.5000000000000011
 40
0.7500000000000003
 40
0.7500000000000003
 40
0.8750000000000002
 40
0.8750000000000002
 40
1.0
 40
1.0
 40
1.0
 40
1.0
 10
127.6561389037646
 20
90.89959723717286
 30
0.0
 10
127.5095513172179
 20
90.70667999706056
 30
0.0
 10
127.3059860673317
 20
90.52756043160512
 30
0.0
 10
126.9369865020811
 20
90.29067535174177
 30
0.0
 10
126.803063736054
 20
90.21644860279947
 30
0.0
 10
126.5138401161251
 20
90.0766178246176
 30
0.0
 10
126.3575444225325
 20
90.01069160716278
 30
0.0
 10
125.8660720471202
 20
89.82853048460103
 30
0.0
 10
125.5078347442329
 20
89.7268536102215
 30
0.0
 10
124.926735660487
 20
89.59866758889751
 30
0.0
 10
124.7250934274453
 20
89.55999613040801
 30
0.0
 10
124.3144308948017
 20
89.49167478049172
 30
0.0
 10
124.1046043775902
 20
89.46181889875099
 30
0.0
 10
123.8903367083347
 20
89.4359698292638
 30
0.0
  0
SPLINE
  5
CF
330
1F
100
AcDbEntity
  8
0
  6
Continuous
 62
     7
370
    25
100
AcDbSpline
210
0.0
220
0.0
230
1.0
 70
     8
 71
     3
 72
    18
 73
    14
 74
     0
 42
0.000000001
 43
0.00000001
 40
0.0
 40
0.0
 40
0.0
 40
0.0
 40
0.2500000000000004
 40
0.2500000000000004
 40
0.3750000000000007
 40
0.3750000000000007
 40
0.500000000000001
 40
0.500000000000001
 40
0.6250000000000013
 40
0.6250000000000013
 40
0.7500000000000016
 40
0.7500000000000016
 40
1.0
 40
1.0
 40
1.0
 40
1.0
 10
123.8903367083347
 20
94.7866932319372
 30
0.0
 10
124.3190372661563
 20
94.69089902456116
 30
0.0
 10
124.7276053131266
 20
94.56877957841608
 30
0.0
 10
125.3094698124971
 20
94.3478060002113
 30
0.0
 10
125.4993575239034
 20
94.2672187084608
 30
0.0
 10
125.860684534562
 20
94.0965907254528
 30
0.0
 10
126.0323987659854
 20
94.00657930833637
 30
0.0
 10
126.3579786162992
 20
93.81778293922119
 30
0.0
 10
126.5118465184773
 20
93.7189977246275
 30
0.0
 10
126.8010507068943
 20
93.51292325224274
 30
0.0
 10
126.9370153705179
 20
93.40507196223453
 30
0.0
 10
127.3105392483101
 20
93.07244384267696
 30
0.0
 10
127.5091571226259
 20
92.84380165545976
 30
0.0
 10
127.6561389037646
 20
92.61010057136039
 30
0.0
  0
LINE
  5
D0
330
1F
100
AcDbEntity
  8
0
  6
Continuous
 62
     7
370
    25
100
AcDbLine
 10
123.8903369972
 20
94.7866927199
 30
0.0
 11
123.8903369972
 21
144.5876027756
 31
0.0
  0
SPLINE
  5
D1
330
1F
100
AcDbEntity
  8
0
  6
Continuous
 62
     7
370
    25
100
AcDbSpline
210
0.0
220
0.0
230
1.0
 70
     8
 71
     3
 72
    27
 73
    23
 74
     0
 42
0.000000001
 43
0.00000001
 40
0.0
 40
0.0
 40
0.0
 40
0.0
 40
0.1250000000000005
 40
0.1250000000000005
 40
0.2500000000000011
 40
0.2500000000000011
 40
0.3750000000000016
 40
0.3750000000000016
 40
0.4375000000000018
 40
0.4375000000000018
 40
0.500000000000002
 40
0.5625000000000022
 40
0.5625000000000022
 40
0.6250000000000026
 40
0.6250000000000026
 40
0.750000000000002
 40
0.750000000000002
 40
0.8125000000000016
 40
0.8125000000000016
 40
0.875000000000001
 40
0.875000000000001
 40
1.0
 40
1.0
 40
1.0
 40
1.0
 10
117.2219410991945
 20
89.948718247681
 30
0.0
 10
116.9519842052272
 20
90.04859733554332
 30
0.0
 10
116.70832718101
 20
90.15990259570233
 30
0.0
 10
116.2757420488048
 20
90.40938840137841
 30
0.0
 10
116.0871474816086
 20
90.54833091944565
 30
0.0
 10
115.7847077052479
 20
90.84502395461952
 30
0.0
 10
115.6681244579571
 20
91.00404256398382
 30
0.0
 10
115.5488657855322
 20
91.26107308787806
 30
0.0
 10
115.5186491185006
 20
91.34982589628315
 30
0.0
 10
115.478752521788
 20
91.52910165317375
 30
0.0
 10
115.4587910783399
 20
91.71127025641628
 30
0.0
 10
115.4782263799278
 20
91.89923297750467
 30
0.0
 10
115.5176792576111
 20
92.0901015544692
 30
0.0
 10
115.5477079410343
 20
92.18755073491472
 30
0.0
 10
115.6661829291666
 20
92.47788758171198
 30
0.0
 10
115.7825237442753
 20
92.66997378938791
 30
0.0
 10
116.0105601557728
 20
92.95477773896928
 30
0.0
 10
116.0960940752034
 20
93.04964872753264
 30
0.0
 10
116.282407625339
 20
93.23500979538822
 30
0.0
 10
116.3830363139114
 20
93.32548804732063
 30
0.0
 10
116.7062977982473
 20
93.59016850283255
 30
0.0
 10
116.9505784839701
 20
93.75795209228696
 30
0.0
 10
117.2219410991945
 20
93.91499184059494
 30
0.0
  0
LINE
  5
D2
330
1F
100
AcDbEntity
  8
0
  6
Continuous
 62
     7
370
    25
100
AcDbLine
 10
117.2219411687
 20
87.4977170788
 30
0.0
 11
117.2219411687
 21
89.9487178139
 31
0.0
  0
LINE
  5
D3
330
1F
100
AcDbEntity
  8
0
  6
Continuous
 62
     7
370
    25
100
AcDbLine
 10
110.6561389038
 20
118.9727171622
 30
0.0
 11
110.6561389038
 21
150.2477175854
 31
0.0
  0
LINE
  5
D4
330
1F
100
AcDbEntity
  8
0
  6
Continuous
 62
     7
370
    25
100
AcDbLine
 10
110.6561389038
 20
87.697716739
 30
0.0
 11
110.6561389038
 21
118.9727171622
 31
0.0
  0
SPLINE
  5
D5
330
1F
100
AcDbEntity
  8
0
  6
Continuous
 62
     7
370
    25
100
AcDbSpline
210
0.0
220
0.0
230
1.0
 70
     8
 71
     3
 72
    10
 73
     6
 74
     0
 42
0.000000001
 43
0.00000001
 40
0.0
 40
0.0
 40
0.0
 40
0.0
 40
0.5
 40
0.5
 40
1.0
 40
1.0
 40
1.0
 40
1.0
 10
123.8903367083346
 20
144.5876033623965
 30
0.0
 10
123.6556057643655
 20
144.1351639746944
 30
0.0
 10
123.4162224566488
 20
143.695636801335
 30
0.0
 10
122.9296011053379
 20
142.8365447057932
 30
0.0
 10
122.6823317936361
 20
142.41708765257
 30
0.0
 10
122.4311389037646
 20
142.0069115960326
 30
0.0
  0
SPLINE
  5
D6
330
1F
100
AcDbEntity
  8
0
  6
Continuous
 62
     7
370
    25
100
AcDbSpline
210
0.0
220
0.0
230
1.0
 70
     8
 71
     3
 72
     8
 73
     4
 74
     0
 42
0.000000001
 43
0.00000001
 40
0.0
 40
0.0
 40
0.0
 40
0.0
 40
1.0
 40
1.0
 40
1.0
 40
1.0
 10
122.8968500288172
 20
95.4800030803898
 30
0.0
 10
123.2231088650294
 20
95.25617935106011
 30
0.0
 10
123.5549472740723
 20
95.02361350375672
 30
0.0
 10
123.8903367083347
 20
94.7866932319372
 30
0.0
  0
SPLINE
  5
D7
330
1F
100
AcDbEntity
  8
0
  6
Continuous
 62
     7
370
    25
100
AcDbSpline
210
0.0
220
0.0
230
1.0
 70
     8
 71
     3
 72
     8
 73
     4
 74
     0
 42
0.000000001
 43
0.00000001
 40
0.0
 40
0.0
 40
0.0
 40
0.0
 40
1.0
 40
1.0
 40
1.0
 40
1.0
 10
122.4311389037646
 20
96.25298225906418
 30
0.0
 10
122.5876212672658
 20
95.99876200138868
 30
0.0
 10
122.7428475557432
 20
95.74112821504127
 30
0.0
 10
122.8968500288172
 20
95.4800030803898
 30
0.0
  0
LINE
  5
D8
330
1F
100
AcDbEntity
  8
0
  6
Continuous
 62
     7
370
    25
100
AcDbLine
 10
122.4311389246
 20
96.2529818825
 30
0.0
 11
122.4311389246
 21
142.0069116466
 31
0.0
  0
SPLINE
  5
D9
330
1F
100
AcDbEntity
  8
0
  6
Continuous
 62
     7
370
    25
100
AcDbSpline
210
0.0
220
0.0
230
1.0
 70
     8
 71
     3
 72
    14
 73
    10
 74
     0
 42
0.000000001
 43
0.00000001
 40
0.0
 40
0.0
 40
0.0
 40
0.0
 40
0.25
 40
0.25
 40
0.5
 40
0.5
 40
0.75
 40
0.75
 40
1.0
 40
1.0
 40
1.0
 40
1.0
 10
122.4311389037648
 20
141.9217030312798
 30
0.0
 10
122.4311389037648
 20
141.8075309537269
 30
0.0
 10
122.4052094654988
 20
141.690442949052
 30
0.0
 10
122.3057672082224
 20
141.469287937034
 30
0.0
 10
122.2334848225016
 20
141.3667135965348
 30
0.0
 10
122.0487474857371
 20
141.1906801910469
 30
0.0
 10
121.939200849415
 20
141.1202743840665
 30
0.0
 10
121.6958396044118
 20
141.0267085232274
 30
0.0
 10
121.564328496966
 20
141.004788203258
 30
0.0
 10
121.4311389037646
 20
141.0108507723952
 30
0.0
  0
SPLINE
  5
DA
330
1F
100
AcDbEntity
  8
0
  6
Continuous
 62
     7
370
    25
100
AcDbSpline
210
0.0
220
0.0
230
1.0
 70
     8
 71
     3
 72
    14
 73
    10
 74
     0
 42
0.000000001
 43
0.00000001
 40
0.0
 40
0.0
 40
0.0
 40
0.0
 40
0.25
 40
0.25
 40
0.5
 40
0.5
 40
0.75
 40
0.75
 40
1.0
 40
1.0
 40
1.0
 40
1.0
 10
121.4311389037646
 20
97.24782529134987
 30
0.0
 10
121.5645672109977
 20
97.2533183545202
 30
0.0
 10
121.6963418827933
 20
97.23106633545537
 30
0.0
 10
121.9395377696547
 20
97.137628075749
 30
0.0
 10
122.0504586313676
 20
97.0663326105683
 30
0.0
 10
122.2331049802334
 20
96.89282521365604
 30
0.0
 10
122.3064207195735
 20
96.78926685140982
 30
0.0
 10
122.4050588304088
 20
96.57002873863586
 30
0.0
 10
122.4311389037646
 20
96.45302326292752
 30
0.0
 10
122.4311389037646
 20
96.33839832836173
 30
0.0
  0
SPLINE
  5
DB
330
1F
100
AcDbEntity
  8
0
  6
Continuous
 62
     7
370
    25
100
AcDbSpline
210
0.0
220
0.0
230
1.0
 70
     8
 71
     3
 72
    14
 73
    10
 74
     0
 42
0.000000001
 43
0.00000001
 40
0.0
 40
0.0
 40
0.0
 40
0.0
 40
0.25
 40
0.25
 40
0.5
 40
0.5
 40
0.75
 40
0.75
 40
1.0
 40
1.0
 40
1.0
 40
1.0
 10
119.6811389037646
 20
141.3669101096374
 30
0.0
 10
119.5467881552235
 20
141.4187270897151
 30
0.0
 10
119.4236092524301
 20
141.4956743257485
 30
0.0
 10
119.1948588315407
 20
141.6881591591575
 30
0.0
 10
119.0929357395476
 20
141.8009861479375
 30
0.0
 10
118.9135106752023
 20
142.0538260925101
 30
0.0
 10
118.8370694262978
 20
142.1918418169919
 30
0.0
 10
118.7197814518361
 20
142.4900775237219
 30
0.0
 10
118.6811389037646
 20
142.6481654927723
 30
0.0
 10
118.6811389037646
 20
142.7875978174973
 30
0.0
  0
SPLINE
  5
DC
330
1F
100
AcDbEntity
  8
0
  6
Continuous
 62
     7
370
    25
100
AcDbSpline
210
0.0
220
0.0
230
1.0
 70
     8
 71
     3
 72
    14
 73
    10
 74
     0
 42
0.000000001
 43
0.00000001
 40
0.0
 40
0.0
 40
0.0
 40
0.0
 40
0.25
 40
0.25
 40
0.5
 40
0.5
 40
0.75
 40
0.75
 40
1.0
 40
1.0
 40
1.0
 40
1.0
 10
118.6811389037646
 20
95.60412943292421
 30
0.0
 10
118.6811389037646
 20
95.73486925429519
 30
0.0
 10
118.7165599806969
 20
95.88356696800923
 30
0.0
 10
118.829085651887
 20
96.16049678355577
 30
0.0
 10
118.9067658381614
 20
96.2938073506447
 30
0.0
 10
119.0868310698837
 20
96.53114734640658
 30
0.0
 10
119.1921111225391
 20
96.63883094639664
 30
0.0
 10
119.4210946569015
 20
96.81540289037719
 30
0.0
 10
119.5477078489005
 20
96.88670604284808
 30
0.0
 10
119.6811389037644
 20
96.931478336645
 30
0.0
  0
SPLINE
  5
DD
330
1F
100
AcDbEntity
  8
0
  6
Continuous
 62
     7
370
    25
100
AcDbSpline
210
0.0
220
0.0
230
1.0
 70
     8
 71
     3
 72
    10
 73
     6
 74
     0
 42
0.000000001
 43
0.00000001
 40
0.0
 40
0.0
 40
0.0
 40
0.0
 40
0.5
 40
0.5
 40
1.0
 40
1.0
 40
1.0
 40
1.0
 10
121.4311389037646
 20
141.0108507723955
 30
0.0
 10
121.1186750014765
 20
141.025073610419
 30
0.0
 10
120.8157860194787
 20
141.0628928132105
 30
0.0
 10
120.2284428346747
 20
141.1827812391995
 30
0.0
 10
119.9439751741027
 20
141.2655382756005
 30
0.0
 10
119.6811389037646
 20
141.3669101096374
 30
0.0
  0
SPLINE
  5
DE
330
1F
100
AcDbEntity
  8
0
  6
Continuous
 62
     7
370
    25
100
AcDbSpline
210
0.0
220
0.0
230
1.0
 70
     8
 71
     3
 72
    10
 73
     6
 74
     0
 42
0.000000001
 43
0.00000001
 40
0.0
 40
0.0
 40
0.0
 40
0.0
 40
0.5
 40
0.5
 40
1.0
 40
1.0
 40
1.0
 40
1.0
 10
119.6811389037646
 20
96.93147833664432
 30
0.0
 10
119.9516576238799
 20
97.02224988624282
 30
0.0
 10
120.2332327885291
 20
97.09442691173497
 30
0.0
 10
120.8178263595484
 20
97.20091582378839
 30
0.0
 10
121.123174893969
 20
97.23514682907242
 30
0.0
 10
121.4311389037646
 20
97.24782529134987
 30
0.0
  0
LINE
  5
DF
330
1F
100
AcDbEntity
  8
0
  6
Continuous
 62
     7
370
    25
100
AcDbLine
 10
109.495956845
 20
118.9727171622
 30
0.0
 11
109.495956845
 21
143.9144558571
 31
0.0
  0
LINE
  5
E0
330
1F
100
AcDbEntity
  8
0
  6
Continuous
 62
     7
370
    25
100
AcDbLine
 10
109.495956845
 20
94.0309784673
 30
0.0
 11
109.495956845
 21
118.9727171622
 31
0.0
  0
LINE
  5
E1
330
1F
100
AcDbEntity
  8
0
  6
Continuous
 62
     7
370
    25
100
AcDbLine
 10
72.2061399588
 20
108.067921672
 30
0.0
 11
72.2061399588
 21
95.9035962187
 31
0.0
  0
SPLINE
  5
E2
330
1F
100
AcDbEntity
  8
0
  6
Continuous
 62
     7
370
    25
100
AcDbSpline
210
0.0
220
0.0
230
1.0
 70
     8
 71
     3
 72
     8
 73
     4
 74
     0
 42
0.000000001
 43
0.00000001
 40
0.0
 40
0.0
 40
0.0
 40
0.0
 40
1.0
 40
1.0
 40
1.0
 40
1.0
 10
76.49838699887555
 20
108.0718261283565
 30
0.0
 10
75.06763763384191
 20
108.0700882530765
 30
0.0
 10
73.63688826880829
 20
108.0687261779108
 30
0.0
 10
72.20613890377466
 20
108.0677390217879
 30
0.0
  0
SPLINE
  5
E3
330
1F
100
AcDbEntity
  8
0
  6
Continuous
 62
     7
370
    25
100
AcDbSpline
210
0.0
220
0.0
230
1.0
 70
     8
 71
     3
 72
    23
 73
    19
 74
     0
 42
0.000000001
 43
0.00000001
 40
0.0
 40
0.0
 40
0.0
 40
0.0
 40
0.0521034701708873
 40
0.1035642834125924
 40
0.1544746865200716
 40
0.2049299526164555
 40
0.2550279491506813
 40
0.3048686360231476
 40
0.3545535041244926
 40
0.4041849683453156
 40
0.453865732172065
 40
0.5036981429684882
 40
0.5902048055422713
 40
0.6743008903363699
 40
0.7566325442071808
 40
0.8378852029928276
 40
0.9187688149246216
 40
1.0
 40
1.0
 40
1.0
 40
1.0
 10
80.09212281826497
 20
109.9918957367294
 30
0.0
 10
80.05063129854629
 20
109.9335599504009
 30
0.0
 10
79.96816002564894
 20
109.8176079055831
 30
0.0
 10
79.83530126819738
 20
109.6518093035641
 30
0.0
 10
79.69676969546003
 20
109.493445341465
 30
0.0
 10
79.55187015167219
 20
109.3429357080664
 30
0.0
 10
79.40078649204311
 20
109.2000963987753
 30
0.0
 10
79.24347131186198
 20
109.0649031840817
 30
0.0
 10
79.07993816115791
 20
108.9372905305003
 30
0.0
 10
78.91018819622344
 20
108.8172034860879
 30
0.0
 10
78.73421427060059
 20
108.7045899441468
 30
0.0
 10
78.50770906870041
 20
108.5737668015561
 30
0.0
 10
78.2284902906886
 20
108.4346225898238
 30
0.0
 10
77.89334788320441
 20
108.3010784512367
 30
0.0
 10
77.55256869798153
 20
108.1976211220288
 30
0.0
 10
77.20618473721169
 20
108.1247313940595
 30
0.0
 10
76.85433717436077
 20
108.0795578273794
 30
0.0
 10
76.61720652626205
 20
108.074407042448
 30
0.0
 10
76.49838699887555
 20
108.0718261283565
 30
0.0
  0
SPLINE
  5
E4
330
1F
100
AcDbEntity
  8
0
  6
Continuous
 62
     7
370
    25
100
AcDbSpline
210
0.0
220
0.0
230
1.0
 70
     8
 71
     3
 72
     8
 73
     4
 74
     0
 42
0.000000001
 43
0.00000001
 40
0.0
 40
0.0
 40
0.0
 40
0.0
 40
1.0
 40
1.0
 40
1.0
 40
1.0
 10
84.50109462640982
 20
109.9963164515491
 30
0.0
 10
83.03091996563184
 20
109.994855831114
 30
0.0
 10
81.56074530485385
 20
109.993694779455
 30
0.0
 10
80.09057064407588
 20
109.9928328495555
 30
0.0
  0
SPLINE
  5
E5
330
1F
100
AcDbEntity
  8
0
  6
Continuous
 62
     7
370
    25
100
AcDbSpline
210
0.0
220
0.0
230
1.0
 70
     8
 71
     3
 72
    18
 73
    14
 74
     0
 42
0.000000001
 43
0.00000001
 40
0.0
 40
0.0
 40
0.0
 40
0.0
 40
0.0923645816212209
 40
0.1844372988306734
 40
0.2764543021124246
 40
0.3686515499666549
 40
0.4612630116274308
 40
0.5545189370672587
 40
0.6486442564301547
 40
0.7438571603366981
 40
0.8403678983476496
 40
0.9203923541260163
 40
1.0
 40
1.0
 40
1.0
 40
1.0
 10
86.69632347127373
 20
109.4626824377853
 30
0.0
 10
86.62600663878703
 20
109.4630931239502
 30
0.0
 10
86.48559516916808
 20
109.4639131985458
 30
0.0
 10
86.27526253412884
 20
109.4775097932152
 30
0.0
 10
86.06583883890367
 20
109.5001682005821
 30
0.0
 10
85.85729910723593
 20
109.5327650279172
 30
0.0
 10
85.64965542861361
 20
109.5750677621564
 30
0.0
 10
85.44290717996851
 20
109.6271436860326
 30
0.0
 10
85.23706498507234
 20
109.6890011749225
 30
0.0
 10
85.0321033008776
 20
109.7606123209887
 30
0.0
 10
84.84079026749036
 20
109.8371242404955
 30
0.0
 10
84.66342420513502
 20
109.9155662586494
 30
0.0
 10
84.55544387950263
 20
109.9692762496112
 30
0.0
 10
84.50159468854841
 20
109.9960611249347
 30
0.0
  0
LINE
  5
E6
330
1F
100
AcDbEntity
  8
0
  6
Continuous
 62
     7
370
    25
100
AcDbLine
 10
88.6111971208
 20
109.464178171
 30
0.0
 11
86.6963234016
 21
109.462682467
 31
0.0
  0
SPLINE
  5
E7
330
1F
100
AcDbEntity
  8
0
  6
Continuous
 62
     7
370
    25
100
AcDbSpline
210
0.0
220
0.0
230
1.0
 70
     8
 71
     3
 72
    25
 73
    21
 74
     0
 42
0.000000001
 43
0.00000001
 40
0.0
 40
0.0
 40
0.0
 40
0.0
 40
0.0280056024288458
 40
0.0559514328347807
 40
0.0838901607643795
 40
0.1118745076912746
 40
0.1399569498912903
 40
0.1681894282721835
 40
0.1966230730105187
 40
0.2253079499155941
 40
0.2542928341277034
 40
0.3799484016849037
 40
0.5057844887501384
 40
0.6313077644955207
 40
0.7532057173414551
 40
0.8039627394925707
 40
0.853612994776574
 40
0.9025574087123944
 40
0.951212440739069
 40
1.0
 40
1.0
 40
1.0
 40
1.0
 10
93.55108105696608
 20
114.5980416771607
 30
0.0
 10
93.5511236120923
 20
114.523434518952
 30
0.0
 10
93.55120863151983
 20
114.3743794357016
 30
0.0
 10
93.53880357478366
 20
114.1517898555738
 30
0.0
 10
93.51720652023225
 20
113.9304843409801
 30
0.0
 10
93.48552461239798
 20
113.7105253520367
 30
0.0
 10
93.44399824422557
 20
113.491934797736
 30
0.0
 10
93.3925634150042
 20
113.2747431170288
 30
0.0
 10
93.33124171058898
 20
113.0589825276934
 30
0.0
 10
93.26001953447924
 20
112.8446642077038
 30
0.0
 10
93.08917369520081
 20
112.3962924577959
 30
0.0
 10
92.75143724576712
 20
111.7429486510387
 30
0.0
 10
92.13988153831153
 20
110.9710563433678
 30
0.0
 10
91.40364812327027
 20
110.3268943322017
 30
0.0
 10
90.71712010227361
 20
109.9352380968641
 30
0.0
 10
90.16835729934037
 20
109.716513854443
 30
0.0
 10
89.78626171389125
 20
109.6006272503488
 30
0.0
 10
89.39909501507515
 20
109.5197174427601
 30
0.0
 10
89.00692668664217
 20
109.4705107219202
 30
0.0
 10
88.74322627823143
 20
109.4662907355406
 30
0.0
 10
88.6111967505632
 20
109.4641778726451
 30
0.0
  0
LINE
  5
E8
330
1F
100
AcDbEntity
  8
0
  6
Continuous
 62
     7
370
    25
100
AcDbLine
 10
93.5510810682
 20
123.3473926149
 30
0.0
 11
93.5510810682
 21
114.5980417095
 31
0.0
  0
SPLINE
  5
E9
330
1F
100
AcDbEntity
  8
0
  6
Continuous
 62
     7
370
    25
100
AcDbSpline
210
0.0
220
0.0
230
1.0
 70
     8
 71
     3
 72
    26
 73
    22
 74
     0
 42
0.000000001
 43
0.00000001
 40
0.0
 40
0.0
 40
0.0
 40
0.0
 40
0.0241214275648271
 40
0.0482078233537316
 40
0.0723095879192913
 40
0.0964771461111189
 40
0.1207606318198071
 40
0.1452095829254162
 40
0.1698726554197787
 40
0.1947973643368331
 40
0.220029857357819
 40
0.2456147249582767
 40
0.369097474400555
 40
0.4940700204039418
 40
0.6192566393622251
 40
0.7454654421861286
 40
0.7971580294157486
 40
0.8481837569726647
 40
0.8988139831107693
 40
0.9493262809200828
 40
1.0
 40
1.0
 40
1.0
 40
1.0
 10
88.6111967505632
 20
128.4812564518134
 30
0.0
 10
88.67643378608402
 20
128.4806880658537
 30
0.0
 10
88.80681311276594
 20
128.4795521194066
 30
0.0
 10
89.00176516411929
 20
128.4674464795755
 30
0.0
 10
89.19587443716773
 20
128.4476965424929
 30
0.0
 10
89.38912388236257
 20
128.4195393977624
 30
0.0
 10
89.5815151155763
 20
128.3831499073239
 30
0.0
 10
89.77304470643162
 20
128.3384469571284
 30
0.0
 10
89.9637122024314
 20
128.285413134083
 30
0.0
 10
90.15351214984506
 20
128.2240133119876
 30
0.0
 10
90.342458598867
 20
128.1541986136201
 30
0.0
 10
90.76922413741657
 20
127.9766599899294
 30
0.0
 10
91.40370893928544
 20
127.6220948779043
 30
0.0
 10
92.1433841346839
 20
126.9799222649504
 30
0.0
 10
92.75013259780296
 20
126.2067575721716
 30
0.0
 10
93.11093141040257
 20
125.499320424867
 30
0.0
 10
93.313119553955
 20
124.9347815006339
 30
0.0
 10
93.4199576611466
 20
124.5458625328055
 30
0.0
 10
93.49556931478392
 20
124.1513791505867
 30
0.0
 10
93.54272161579895
 20
123.7516043741915
 30
0.0
 10
93.54829161465166
 20
123.4822731102902
 30
0.0
 10
93.55108105696608
 20
123.3473926472978
 30
0.0
  0
LINE
  5
EA
330
1F
100
AcDbEntity
  8
0
  6
Continuous
 62
     7
370
    25
100
AcDbLine
 10
86.6963234016
 20
128.4827518575
 30
0.0
 11
88.6111971208
 21
128.4812561534
 31
0.0
  0
SPLINE
  5
EB
330
1F
100
AcDbEntity
  8
0
  6
Continuous
 62
     7
370
    25
100
AcDbSpline
210
0.0
220
0.0
230
1.0
 70
     8
 71
     3
 72
    14
 73
    10
 74
     0
 42
0.000000001
 43
0.00000001
 40
0.0
 40
0.0
 40
0.0
 40
0.0
 40
0.0789259589574188
 40
0.1582323961897878
 40
0.3308776440745743
 40
0.5000645817719692
 40
0.6670803235524686
 40
0.8332687177868867
 40
1.0
 40
1.0
 40
1.0
 40
1.0
 10
84.50011124545934
 20
127.948704932193
 30
0.0
 10
84.553506757079
 20
127.9753112049265
 30
0.0
 10
84.66055518399669
 20
128.0286520112202
 30
0.0
 10
84.88964767031896
 20
128.1302905493319
 30
0.0
 10
85.1885523272446
 20
128.2443850642378
 30
0.0
 10
85.56072766160494
 20
128.3530070982981
 30
0.0
 10
85.9363577797767
 20
128.4293425421817
 30
0.0
 10
86.31551871024271
 20
128.4761488102782
 30
0.0
 10
86.56925063176644
 20
128.4805484697181
 30
0.0
 10
86.69632347127373
 20
128.4827518866731
 30
0.0
  0
SPLINE
  5
EC
330
1F
100
AcDbEntity
  8
0
  6
Continuous
 62
     7
370
    25
100
AcDbSpline
210
0.0
220
0.0
230
1.0
 70
     8
 71
     3
 72
     8
 73
     4
 74
     0
 42
0.000000001
 43
0.00000001
 40
0.0
 40
0.0
 40
0.0
 40
0.0
 40
1.0
 40
1.0
 40
1.0
 40
1.0
 10
79.10781752155697
 20
127.9528270889647
 30
0.0
 10
80.90515420693204
 20
127.9518529825407
 30
0.0
 10
82.70249089230713
 20
127.950430846791
 30
0.0
 10
84.49982757768221
 20
127.9485598603224
 30
0.0
  0
SPLINE
  5
ED
330
1F
100
AcDbEntity
  8
0
  6
Continuous
 62
     7
370
    25
100
AcDbSpline
210
0.0
220
0.0
230
1.0
 70
     8
 71
     3
 72
    13
 73
     9
 74
     0
 42
0.000000001
 43
0.00000001
 40
0.0
 40
0.0
 40
0.0
 40
0.0
 40
0.1666651380049428
 40
0.3328869539367884
 40
0.4989979368983269
 40
0.6653319947692103
 40
0.8322224399023144
 40
1.0
 40
1.0
 40
1.0
 40
1.0
 10
78.02431335671159
 20
128.0902541385326
 30
0.0
 10
78.08540683626863
 20
128.0894245506011
 30
0.0
 10
78.20743128936417
 20
128.0877675814062
 30
0.0
 10
78.38974207401876
 20
128.0757457372743
 30
0.0
 10
78.57103827262645
 20
128.0567586444241
 30
0.0
 10
78.75124532315813
 20
128.0299364678352
 30
0.0
 10
78.93057366881794
 20
127.9960924538611
 30
0.0
 10
79.04862711255325
 20
127.9672593557795
 30
0.0
 10
79.10781029840153
 20
127.9528045923405
 30
0.0
  0
SPLINE
  5
EE
330
1F
100
AcDbEntity
  8
0
  6
Continuous
 62
     7
370
    25
100
AcDbSpline
210
0.0
220
0.0
230
1.0
 70
     8
 71
     3
 72
     8
 73
     4
 74
     0
 42
0.000000001
 43
0.00000001
 40
0.0
 40
0.0
 40
0.0
 40
0.0
 40
1.0
 40
1.0
 40
1.0
 40
1.0
 10
72.20613890377737
 20
128.0950438733826
 30
0.0
 10
74.14553038808879
 20
128.0939964209069
 30
0.0
 10
76.08492187240017
 20
128.0924002343822
 30
0.0
 10
78.02431335671159
 20
128.0902541385325
 30
0.0
  0
LINE
  5
EF
330
1F
100
AcDbEntity
  8
0
  6
Continuous
 62
     7
370
    25
100
AcDbLine
 10
72.2061399588
 20
128.0950441323
 30
0.0
 11
72.2061399588
 21
142.0418381058
 31
0.0
  0
SPLINE
  5
F0
330
1F
100
AcDbEntity
  8
0
  6
Continuous
 62
     7
370
    25
100
AcDbSpline
210
0.0
220
0.0
230
1.0
 70
     8
 71
     3
 72
    24
 73
    20
 74
     0
 42
0.000000001
 43
0.00000001
 40
0.0
 40
0.0
 40
0.0
 40
0.0
 40
0.0607845451296407
 40
0.1248046360965166
 40
0.1880736642923821
 40
0.2506536944642078
 40
0.3129374270624571
 40
0.3747588850641116
 40
0.4371053349657547
 40
0.4977639019418345
 40
0.5591913128303959
 40
0.6209011577381788
 40
0.6826271159280655
 40
0.7453344255371981
 40
0.8078840402472991
 40
0.8712333803613398
 40
0.9348869687710366
 40
0.9979954054018167
 40
1.0
 40
1.0
 40
1.0
 40
1.0
 10
96.16977854010237
 20
143.2435478381888
 30
0.0
 10
96.14406672656334
 20
143.2331447481083
 30
0.0
 10
96.0912744662071
 20
143.211784814115
 30
0.0
 10
95.61804371695345
 20
143.0293781406266
 30
0.0
 10
94.8992385752348
 20
142.760432088098
 30
0.0
 10
93.92205783095372
 20
142.4323359330308
 30
0.0
 10
92.73809546989114
 20
142.0884654992851
 30
0.0
 10
91.36979318199214
 20
141.7708047070121
 30
0.0
 10
89.8820819161223
 20
141.5162962586124
 30
0.0
 10
88.31242233580738
 20
141.3650818776343
 30
0.0
 10
86.73617984082875
 20
141.3315402310092
 30
0.0
 10
85.21686568449944
 20
141.4171124266731
 30
0.0
 10
83.81599146919994
 20
141.5913202453435
 30
0.0
 10
82.5973116747909
 20
141.820945910014
 30
0.0
 10
81.59173884589009
 20
142.0591634124065
 30
0.0
 10
80.838557509451
 20
142.2707841720353
 30
0.0
 10
80.39161394839947
 20
142.4032039297671
 30
0.0
 10
80.20793716045512
 20
142.4608714160101
 30
0.0
 10
80.25947470771973
 20
142.445123660976
 30
0.0
 10
80.26106136229409
 20
142.444638844587
 30
0.0
  0
SPLINE
  5
F1
330
1F
100
AcDbEntity
  8
0
  6
Continuous
 62
     7
370
    25
100
AcDbSpline
210
0.0
220
0.0
230
1.0
 70
     8
 71
     3
 72
    24
 73
    20
 74
     0
 42
0.000000001
 43
0.00000001
 40
0.0
 40
0.0
 40
0.0
 40
0.0
 40
0.0018911184661179
 40
0.0649665885217893
 40
0.1287875560009952
 40
0.1921372900365662
 40
0.2545996475903032
 40
0.3167128323446347
 40
0.3787563804671794
 40
0.440851011115251
 40
0.501718739255822
 40
0.5623721854420992
 40
0.6248484186975057
 40
0.6868048398220544
 40
0.7491642775858319
 40
0.8116886268192671
 40
0.8748496752066125
 40
0.9387002417378669
 40
1.0
 40
1.0
 40
1.0
 40
1.0
 10
80.26106695022953
 20
95.50070048496882
 30
0.0
 10
80.25956026836124
 20
95.50024266712958
 30
0.0
 10
80.20780043272741
 20
95.48451500981344
 30
0.0
 10
80.39141114734103
 20
95.54209122491861
 30
0.0
 10
80.83928487237372
 20
95.67434762794201
 30
0.0
 10
81.5923104198877
 20
95.88595603766458
 30
0.0
 10
82.59225592016828
 20
96.12367304270022
 30
0.0
 10
83.81081513396799
 20
96.35171351638198
 30
0.0
 10
85.2143254411768
 20
96.52389806461063
 30
0.0
 10
86.73157332538949
 20
96.6120215219031
 30
0.0
 10
88.30582273371999
 20
96.58096012845432
 30
0.0
 10
89.8716562257428
 20
96.42993903692643
 30
0.0
 10
91.36150864316883
 20
96.17560294688694
 30
0.0
 10
92.73319632349667
 20
95.85786328777709
 30
0.0
 10
93.91909351694308
 20
95.51395701708503
 30
0.0
 10
94.89678727338391
 20
95.18607835197464
 30
0.0
 10
95.61594069316422
 20
94.91729393188197
 30
0.0
 10
96.08987995371854
 20
94.73419186685356
 30
0.0
 10
96.14413891957855
 20
94.71220506169017
 30
0.0
 10
96.17071545061243
 20
94.70143572614352
 30
0.0
  0
LINE
  5
F2
330
1F
100
AcDbEntity
  8
0
  6
Continuous
 62
     7
370
    25
100
AcDbLine
 10
93.5510810682
 20
114.5980417095
 30
0.0
 11
92.6561396786
 21
114.7602171004
 31
0.0
  0
LINE
  5
F3
330
1F
100
AcDbEntity
  8
0
  6
Continuous
 62
     7
370
    25
100
AcDbLine
 10
92.6561396786
 20
114.7602171004
 30
0.0
 11
92.6561396786
 21
123.1852172241
 31
0.0
  0
LINE
  5
F4
330
1F
100
AcDbEntity
  8
0
  6
Continuous
 62
     7
370
    25
100
AcDbLine
 10
93.5510810682
 20
123.3473926149
 30
0.0
 11
92.6561396786
 21
123.1852172241
 31
0.0
  0
SPLINE
  5
F5
330
1F
100
AcDbEntity
  8
0
  6
Continuous
 62
     7
370
    25
100
AcDbSpline
210
0.0
220
0.0
230
1.0
 70
     8
 71
     3
 72
    25
 73
    21
 74
     0
 42
0.000000001
 43
0.00000001
 40
0.0
 40
0.0
 40
0.0
 40
0.0
 40
0.0288760384309818
 40
0.0583531183777014
 40
0.0884515256329838
 40
0.1191903155196784
 40
0.1505873770354662
 40
0.1826594973229901
 40
0.2154224255051469
 40
0.2488909351380384
 40
0.3610595498745477
 40
0.4984670937677419
 40
0.5822694576837197
 40
0.666112817976859
 40
0.7499973339300893
 40
0.8007710075441729
 40
0.851123794023119
 40
0.901089618357049
 40
0.9507031993384094
 40
0.9999999999999999
 40
0.9999999999999999
 40
0.9999999999999999
 40
0.9999999999999999
 10
88.65613890376461
 20
110.7602171622292
 30
0.0
 10
88.71892621311714
 20
110.7610732920013
 30
0.0
 10
88.84580772091198
 20
110.7628033714947
 30
0.0
 10
89.03713423505131
 20
110.7769485079351
 30
0.0
 10
89.23102271776129
 20
110.8000799281941
 30
0.0
 10
89.42691861380942
 20
110.8334858569077
 30
0.0
 10
89.62426273423603
 20
110.8773565980436
 30
0.0
 10
89.82243340742505
 20
110.9321526102605
 30
0.0
 10
90.02077674071477
 20
110.9982278162182
 30
0.0
 10
90.37211939594323
 20
111.1362156637709
 30
0.0
 10
90.89724288801507
 20
111.4162738342777
 30
0.0
 10
91.43423465285424
 20
111.8548644102318
 30
0.0
 10
91.84629439400845
 20
112.3287245364054
 30
0.0
 10
92.13321297959585
 20
112.7604082832008
 30
0.0
 10
92.33163966741111
 20
113.1635315252122
 30
0.0
 10
92.46372554136086
 20
113.5212676859478
 30
0.0
 10
92.54935942117976
 20
113.8240200882363
 30
0.0
 10
92.61044163252777
 20
114.1325083984795
 30
0.0
 10
92.64894257589565
 20
114.4448201086392
 30
0.0
 10
92.65374525498906
 20
114.6553095225432
 30
0.0
 10
92.65613890376461
 20
114.7602171622292
 30
0.0
  0
SPLINE
  5
F6
330
1F
100
AcDbEntity
  8
0
  6
Continuous
 62
     7
370
    25
100
AcDbSpline
210
0.0
220
0.0
230
1.0
 70
     8
 71
     3
 72
    25
 73
    21
 74
     0
 42
0.000000001
 43
0.00000001
 40
0.0
 40
0.0
 40
0.0
 40
0.0
 40
0.0274788604638201
 40
0.0560415803751256
 40
0.0856946775785594
 40
0.1164439744530354
 40
0.148294690123888
 40
0.1812515183583431
 40
0.215318693639242
 40
0.2505000474389695
 40
0.3330513345487093
 40
0.5015080140592623
 40
0.5771733427895067
 40
0.6489103136088364
 40
0.7167630290815512
 40
0.7807837094912827
 40
0.8410346307228197
 40
0.8975906151550467
 40
0.9505422438476409
 40
1.0
 40
1.0
 40
1.0
 40
1.0
 10
92.65613890376461
 20
123.1852171622292
 30
0.0
 10
92.65539745215648
 20
123.2435815712651
 30
0.0
 10
92.65388530357426
 20
123.3626124795641
 30
0.0
 10
92.6413891625032
 20
123.5433934736835
 30
0.0
 10
92.62046955853857
 20
123.7296566919266
 30
0.0
 10
92.58954881699181
 20
123.9208287804779
 30
0.0
 10
92.54802417234744
 20
124.1163357196997
 30
0.0
 10
92.49502398650799
 20
124.3154970718303
 30
0.0
 10
92.42979480677823
 20
124.5175153509193
 30
0.0
 10
92.31720477955463
 20
124.8110489657977
 30
0.0
 10
92.0571843949061
 20
125.3395817867829
 30
0.0
 10
91.64609584309486
 20
125.8795330535236
 30
0.0
 10
91.16173974074351
 20
126.3143668430181
 30
0.0
 10
90.79655501676064
 20
126.5737869907081
 30
0.0
 10
90.42369871700551
 20
126.7815384640705
 30
0.0
 10
90.05044134774477
 20
126.941253025544
 30
0.0
 10
89.68315528384142
 20
127.0572792691299
 30
0.0
 10
89.32697956796409
 20
127.1334747680301
 30
0.0
 10
88.98617183384557
 20
127.1774703922069
 30
0.0
 10
88.76361895554541
 20
127.1826943132428
 30
0.0
 10
88.65613890376461
 20
127.1852171622292
 30
0.0
  0
LINE
  5
F7
330
1F
100
AcDbEntity
  8
0
  6
Continuous
 62
     7
370
    25
100
AcDbLine
 10
86.6963234016
 20
128.4827518575
 30
0.0
 11
86.7412653038
 21
127.1852174141
 31
0.0
  0
SPLINE
  5
F8
330
1F
100
AcDbEntity
  8
0
  6
Continuous
 62
     7
370
    25
100
AcDbSpline
210
0.0
220
0.0
230
1.0
 70
     8
 71
     3
 72
    13
 73
     9
 74
     0
 42
0.000000001
 43
0.00000001
 40
0.0
 40
0.0
 40
0.0
 40
0.0
 40
0.1618322162072525
 40
0.3254505982599473
 40
0.4909687654993002
 40
0.658496471358869
 40
0.8281395684241731
 40
1.0
 40
1.0
 40
1.0
 40
1.0
 10
86.74126562447516
 20
127.1852171622292
 30
0.0
 10
86.68205191059558
 20
127.1844584915116
 30
0.0
 10
86.56297093241372
 20
127.1829327765168
 30
0.0
 10
86.3833728785239
 20
127.1704413304915
 30
0.0
 10
86.20234844534478
 20
127.1502114619477
 30
0.0
 10
86.02033733485375
 20
127.1210586179705
 30
0.0
 10
85.83753846875925
 20
127.0836964775693
 30
0.0
 10
85.7168768543625
 20
127.0514496235881
 30
0.0
 10
85.65615432769528
 20
127.0352215094476
 30
0.0
  0
SPLINE
  5
F9
330
1F
100
AcDbEntity
  8
0
  6
Continuous
 62
     7
370
    25
100
AcDbSpline
210
0.0
220
0.0
230
1.0
 70
    24
 71
     3
 72
     9
 73
     5
 74
     0
 42
0.000000001
 43
0.00000001
 40
0.0
 40
0.0
 40
0.0
 40
0.0
 40
0.4907162487378146
 40
1.0
 40
1.0
 40
1.0
 40
1.0
 10
85.6562103246067
 20
127.0352171622292
 30
0.0
 10
85.60229165225871
 20
127.0352171622292
 30
0.0
 10
85.4924141568901
 20
127.0352171622292
 30
0.0
 10
85.38444405593116
 20
127.0352171622292
 30
0.0
 10
85.32945663789063
 20
127.0352171622292
 30
0.0
  0
SPLINE
  5
FA
330
1F
100
AcDbEntity
  8
0
  6
Continuous
 62
     7
370
    25
100
AcDbSpline
210
0.0
220
0.0
230
1.0
 70
     8
 71
     3
 72
    14
 73
    10
 74
     0
 42
0.000000001
 43
0.00000001
 40
0.0
 40
0.0
 40
0.0
 40
0.0
 40
0.0310276310582104
 40
0.0622853638091718
 40
0.1248003080249568
 40
0.2498289632719131
 40
0.499889248013546
 40
0.7606946230784146
 40
1.0
 40
1.0
 40
1.0
 40
1.0
 10
84.500878052429
 20
127.9486935114603
 30
0.0
 10
84.5091678091488
 20
127.9391259790673
 30
0.0
 10
84.52580879963287
 20
127.9199199612203
 30
0.0
 10
84.55905757606669
 20
127.8813325795258
 30
0.0
 10
84.61755822797927
 20
127.8138048678493
 30
0.0
 10
84.73509063473685
 20
127.6789716443511
 30
0.0
 10
84.90801672657466
 20
127.4840404955985
 30
0.0
 10
85.11565555534544
 20
127.2557572700158
 30
0.0
 10
85.25946189280968
 20
127.106192991013
 30
0.0
 10
85.32827391025563
 20
127.034625771115
 30
0.0
  0
SPLINE
  5
FB
330
1F
100
AcDbEntity
  8
0
  6
Continuous
 62
     7
370
    25
100
AcDbSpline
210
0.0
220
0.0
230
1.0
 70
     8
 71
     3
 72
    13
 73
     9
 74
     0
 42
0.000000001
 43
0.00000001
 40
0.0
 40
0.0
 40
0.0
 40
0.0
 40
0.1722808990345382
 40
0.3421751863749803
 40
0.5097853608791831
 40
0.6752181677987323
 40
0.8385846213485056
 40
1.0
 40
1.0
 40
1.0
 40
1.0
 10
85.65615727267486
 20
110.910211984979
 30
0.0
 10
85.71702851942625
 20
110.8939462685465
 30
0.0
 10
85.83792776199321
 20
110.8616401650664
 30
0.0
 10
86.02100353622723
 20
110.8242510857499
 30
0.0
 10
86.2031113335659
 20
110.7951192535205
 30
0.0
 10
86.38404817576155
 20
110.7749349352907
 30
0.0
 10
86.56337276424962
 20
110.7624906105778
 30
0.0
 10
86.68220596154056
 20
110.7609719372831
 30
0.0
 10
86.74126562447515
 20
110.7602171622292
 30
0.0
  0
LINE
  5
FC
330
1F
100
AcDbEntity
  8
0
  6
Continuous
 62
     7
370
    25
100
AcDbLine
 10
86.6963234016
 20
109.462682467
 30
0.0
 11
86.7412653038
 21
110.7602169104
 31
0.0
  0
SPLINE
  5
FD
330
1F
100
AcDbEntity
  8
0
  6
Continuous
 62
     7
370
    25
100
AcDbSpline
210
0.0
220
0.0
230
1.0
 70
     8
 71
     3
 72
    11
 73
     7
 74
     0
 42
0.000000001
 43
0.00000001
 40
0.0
 40
0.0
 40
0.0
 40
0.0
 40
0.2392702282197159
 40
0.5001120575631511
 40
0.7515010343525876
 40
0.9999999999999999
 40
0.9999999999999999
 40
0.9999999999999999
 40
0.9999999999999999
 10
85.32954248019391
 20
110.9107599174496
 30
0.0
 10
85.26073898507859
 20
110.8391710499799
 30
0.0
 10
85.11692896004672
 20
110.6895391627395
 30
0.0
 10
84.909235917143
 20
110.4604884847067
 30
0.0
 10
84.70129821619103
 20
110.2280298570496
 30
0.0
 10
84.56833432885658
 20
110.0731658444438
 30
0.0
 10
84.50223673844462
 20
109.99618149719
 30
0.0
  0
SPLINE
  5
FE
330
1F
100
AcDbEntity
  8
0
  6
Continuous
 62
     7
370
    25
100
AcDbSpline
210
0.0
220
0.0
230
1.0
 70
    24
 71
     3
 72
     9
 73
     5
 74
     0
 42
0.000000001
 43
0.00000001
 40
0.0
 40
0.0
 40
0.0
 40
0.0
 40
0.5090786773528881
 40
1.0
 40
1.0
 40
1.0
 40
1.0
 10
85.33143304293188
 20
110.9102171622292
 30
0.0
 10
85.38607621768158
 20
110.9102171622292
 30
0.0
 10
85.49341360418107
 20
110.9102171622292
 30
0.0
 10
85.60262466553245
 20
110.9102171622292
 30
0.0
 10
85.65623870421877
 20
110.9102171622292
 30
0.0
  0
LINE
  5
FF
330
1F
100
AcDbEntity
  8
0
  6
Continuous
 62
     7
370
    25
100
AcDbLine
 10
79.107731975
 20
127.9528274499
 30
0.0
 11
79.0822360882
 21
127.0552411042
 31
0.0
  0
LINE
  5
100
330
1F
100
AcDbEntity
  8
0
  6
Continuous
 62
     7
370
    25
100
AcDbLine
 10
85.3294547864
 20
127.0352167375
 30
0.0
 11
79.1561383971
 21
127.0352167375
 31
0.0
  0
SPLINE
  5
101
330
1F
100
AcDbEntity
  8
0
  6
Continuous
 62
     7
370
    25
100
AcDbSpline
210
0.0
220
0.0
230
1.0
 70
     8
 71
     3
 72
     8
 73
     4
 74
     0
 42
0.000000001
 43
0.00000001
 40
0.0
 40
0.0
 40
0.0
 40
0.0
 40
1.0
 40
1.0
 40
1.0
 40
1.0
 10
79.15613890381879
 20
127.0352171622139
 30
0.0
 10
79.1315748743903
 20
127.042140560838
 30
0.0
 10
79.1069445832922
 20
127.0488288646557
 30
0.0
 10
79.08225254218026
 20
127.0552808485365
 30
0.0
  0
LINE
  5
102
330
1F
100
AcDbEntity
  8
0
  6
Continuous
 62
     7
370
    25
100
AcDbLine
 10
79.9205027738
 20
110.7652944811
 30
0.0
 11
80.0926596144
 21
109.9931246899
 31
0.0
  0
SPLINE
  5
103
330
1F
100
AcDbEntity
  8
0
  6
Continuous
 62
     7
370
    25
100
AcDbSpline
210
0.0
220
0.0
230
1.0
 70
     8
 71
     3
 72
     8
 73
     4
 74
     0
 42
0.000000001
 43
0.00000001
 40
0.0
 40
0.0
 40
0.0
 40
0.0
 40
1.0
 40
1.0
 40
1.0
 40
1.0
 10
79.91856674712913
 20
110.7659050940519
 30
0.0
 10
79.9487682284489
 20
110.8133859911702
 30
0.0
 10
79.9779676133013
 20
110.8615042947435
 30
0.0
 10
80.00613890376465
 20
110.9102171622293
 30
0.0
  0
LINE
  5
104
330
1F
100
AcDbEntity
  8
0
  6
Continuous
 62
     7
370
    25
100
AcDbLine
 10
80.0061397472
 20
110.9102175869
 30
0.0
 11
85.3306263902
 21
110.9102175869
 31
0.0
  0
LINE
  5
105
330
1F
100
AcDbEntity
  8
0
  6
Continuous
 62
     7
370
    25
100
AcDbLine
 10
88.656139023
 20
127.1852174141
 30
0.0
 11
86.7412653038
 21
127.1852174141
 31
0.0
  0
LINE
  5
106
330
1F
100
AcDbEntity
  8
0
  6
Continuous
 62
     7
370
    25
100
AcDbLine
 10
86.7412653038
 20
110.7602169104
 30
0.0
 11
88.656139023
 21
110.7602169104
 31
0.0
  0
SPLINE
  5
107
330
1F
100
AcDbEntity
  8
0
  6
Continuous
 62
     7
370
    25
100
AcDbSpline
210
0.0
220
0.0
230
1.0
 70
     8
 71
     3
 72
    23
 73
    19
 74
     0
 42
0.000000001
 43
0.00000001
 40
0.0
 40
0.0
 40
0.0
 40
0.0
 40
0.0449790193613018
 40
0.0909412379542661
 40
0.137925178640554
 40
0.1859669058321088
 40
0.2351001540430978
 40
0.2853564591224503
 40
0.3367652895402025
 40
0.3893541756722904
 40
0.4431488355270136
 40
0.4981732957798448
 40
0.5575109075886628
 40
0.6265493534858686
 40
0.7053074128284198
 40
0.7937970946100794
 40
0.8920262478506953
 40
1.0
 40
1.0
 40
1.0
 40
1.0
 10
76.5434818676145
 20
108.9127171622292
 30
0.0
 10
76.6063173082103
 20
108.9135747407267
 30
0.0
 10
76.73336171327574
 20
108.9153086435843
 30
0.0
 10
76.92499875562659
 20
108.9294926290521
 30
0.0
 10
77.11935257925236
 20
108.9527139988745
 30
0.0
 10
77.31586162625905
 20
108.9862882794506
 30
0.0
 10
77.51395727653632
 20
109.0304282949873
 30
0.0
 10
77.71300885139374
 20
109.0856206094298
 30
0.0
 10
77.9123367709357
 20
109.1522370026438
 30
0.0
 10
78.11121635421229
 20
109.2306402143004
 30
0.0
 10
78.30884989174535
 20
109.3211306613094
 30
0.0
 10
78.50810977399402
 20
109.425928791534
 30
0.0
 10
78.7169453795924
 20
109.5514980113445
 30
0.0
 10
78.94175646385015
 20
109.7070120031777
 30
0.0
 10
79.18352319668118
 20
109.9015811205576
 30
0.0
 10
79.43473790417809
 20
110.1410707872922
 30
0.0
 10
79.68973638875487
 20
110.4289111972745
 30
0.0
 10
79.84010851756895
 20
110.6503796069792
 30
0.0
 10
79.91884767469206
 20
110.7663468147794
 30
0.0
  0
SPLINE
  5
108
330
1F
100
AcDbEntity
  8
0
  6
Continuous
 62
     7
370
    25
100
AcDbSpline
210
0.0
220
0.0
230
1.0
 70
     8
 71
     3
 72
    13
 73
     9
 74
     0
 42
0.000000001
 43
0.00000001
 40
0.0
 40
0.0
 40
0.0
 40
0.0
 40
0.1706413963301883
 40
0.339613308632062
 40
0.5069741542963633
 40
0.6727840536362794
 40
0.8371048294185514
 40
1.0
 40
1.0
 40
1.0
 40
1.0
 10
79.08224566590533
 20
127.0552826452877
 30
0.0
 10
79.02618866667046
 20
127.069186113315
 30
0.0
 10
78.91462310642802
 20
127.0968570236554
 30
0.0
 10
78.74537169470892
 20
127.1291130645827
 30
0.0
 10
78.57622463465353
 20
127.1544501286641
 30
0.0
 10
78.40729118252051
 20
127.1721621316321
 30
0.0
 10
78.23896858247971
 20
127.1831852817407
 30
0.0
 10
78.12683480243315
 20
127.1845418388029
 30
0.0
 10
78.07101218305408
 20
127.1852171622292
 30
0.0
  0
SPLINE
  5
109
330
1F
100
AcDbEntity
  8
0
  6
Continuous
 62
     7
370
    25
100
AcDbSpline
210
0.0
220
0.0
230
1.0
 70
     8
 71
     3
 72
     8
 73
     4
 74
     0
 42
0.000000001
 43
0.00000001
 40
0.0
 40
0.0
 40
0.0
 40
0.0
 40
1.0
 40
1.0
 40
1.0
 40
1.0
 10
71.29247908218709
 20
127.7127189061548
 30
0.0
 10
71.59703235589596
 20
127.8389082527939
 30
0.0
 10
71.90158562960482
 20
127.966353009057
 30
0.0
 10
72.20613890331369
 20
128.0950438736052
 30
0.0
  0
LINE
  5
10A
330
1F
100
AcDbEntity
  8
0
  6
Continuous
 62
     7
370
    25
100
AcDbLine
 10
78.0710134872
 20
127.1852174141
 30
0.0
 11
72.2061399588
 21
127.1852174141
 31
0.0
  0
LINE
  5
10B
330
1F
100
AcDbEntity
  8
0
  6
Continuous
 62
     7
370
    25
100
AcDbLine
 10
72.2061399588
 20
127.1852174141
 30
0.0
 11
71.2924789855
 21
127.7127185203
 31
0.0
  0
SPLINE
  5
10C
330
1F
100
AcDbEntity
  8
0
  6
Continuous
 62
     7
370
    25
100
AcDbSpline
210
0.0
220
0.0
230
1.0
 70
    24
 71
     3
 72
     8
 73
     4
 74
     0
 42
0.000000001
 43
0.00000001
 40
0.0
 40
0.0
 40
0.0
 40
0.0
 40
1.0
 40
1.0
 40
1.0
 40
1.0
 10
70.70613890376463
 20
128.0512425660137
 30
0.0
 10
70.90068603629751
 20
127.9389207266757
 30
0.0
 10
71.09614705653672
 20
127.8260712540245
 30
0.0
 10
71.29247908219405
 20
127.7127189061607
 30
0.0
  0
LINE
  5
10D
330
1F
100
AcDbEntity
  8
0
  6
Continuous
 62
     7
370
    25
100
AcDbLine
 10
70.7061406442
 20
128.051242169
 30
0.0
 11
70.7061406442
 21
141.1758124195
 31
0.0
  0
LINE
  5
10E
330
1F
100
AcDbEntity
  8
0
  6
Continuous
 62
     7
370
    25
100
AcDbLine
 10
71.3460039565
 20
108.4161189683
 30
0.0
 11
72.2061399588
 21
108.9127169289
 31
0.0
  0
LINE
  5
10F
330
1F
100
AcDbEntity
  8
0
  6
Continuous
 62
     7
370
    25
100
AcDbLine
 10
72.2061399588
 20
108.9127169289
 30
0.0
 11
76.5434805521
 21
108.9127169289
 31
0.0
  0
SPLINE
  5
110
330
1F
100
AcDbEntity
  8
0
  6
Continuous
 62
     7
370
    25
100
AcDbSpline
210
0.0
220
0.0
230
1.0
 70
     8
 71
     3
 72
     8
 73
     4
 74
     0
 42
0.000000001
 43
0.00000001
 40
0.0
 40
0.0
 40
0.0
 40
0.0
 40
1.0
 40
1.0
 40
1.0
 40
1.0
 10
72.20613890352438
 20
108.0677390217116
 30
0.0
 10
71.91942762665138
 20
108.184639959927
 30
0.0
 10
71.63271634977836
 20
108.3007679809934
 30
0.0
 10
71.34600507290537
 20
108.416118663456
 30
0.0
  0
SPLINE
  5
111
330
1F
100
AcDbEntity
  8
0
  6
Continuous
 62
     7
370
    25
100
AcDbSpline
210
0.0
220
0.0
230
1.0
 70
     8
 71
     3
 72
     8
 73
     4
 74
     0
 42
0.000000001
 43
0.00000001
 40
0.0
 40
0.0
 40
0.0
 40
0.0
 40
1.0
 40
1.0
 40
1.0
 40
1.0
 10
123.8903367083347
 20
89.4359698292638
 30
0.0
 10
123.5549260829108
 20
90.09423688157321
 30
0.0
 10
123.2230837638009
 20
90.7532933195548
 30
0.0
 10
122.8968500288169
 20
91.41323369097623
 30
0.0
  0
LWPOLYLINE
  5
112
330
1F
100
AcDbEntity
  8
0
  6
Continuous
 62
     7
370
    25
100
AcDbPolyline
 90
        9
 70
   128
 43
0.0
 10
122.896849572
 20
91.4132337384
 10
123.7345695713
 20
91.5863852315
 10
124.4794674435
 20
91.8446614705
 10
125.0974549198
 20
92.1762458347
 10
125.5602523902
 20
92.565963354
 10
125.846683442
 20
92.9959792011
 10
125.9436387786
 20
93.4466182552
 10
125.846683442
 20
93.8972573094
 10
125.6654666954
 20
94.20162284
  0
LINE
  5
113
330
1F
100
AcDbEntity
  8
0
  6
Continuous
 62
     7
370
    25
100
AcDbLine
 10
70.7061406442
 20
96.7696219049
 30
0.0
 11
70.7061406442
 21
108.0466921739
 31
0.0
  0
SPLINE
  5
114
330
1F
100
AcDbEntity
  8
0
  6
Continuous
 62
     7
370
    25
100
AcDbSpline
210
0.0
220
0.0
230
1.0
 70
    24
 71
     3
 72
     8
 73
     4
 74
     0
 42
0.000000001
 43
0.00000001
 40
0.0
 40
0.0
 40
0.0
 40
0.0
 40
1.0
 40
1.0
 40
1.0
 40
1.0
 10
71.34600507291799
 20
108.4161186634508
 30
0.0
 10
71.13133951407825
 20
108.292181445269
 30
0.0
 10
70.91802480574007
 20
108.1690241409878
 30
0.0
 10
70.70613890376463
 20
108.0466917584448
 30
0.0
  0
ARC
  5
115
330
1F
100
AcDbEntity
  8
0
  6
Continuous
 62
     7
370
    25
100
AcDbCircle
 10
118.8867229001
 20
93.4398672378
 30
0.0
 40
1.386778252398802
100
AcDbArc
 50
117.5067796727
 51
245.5898588898
  0
SPLINE
  5
116
330
1F
100
AcDbEntity
  8
0
  6
Continuous
 62
     7
370
    25
100
AcDbSpline
210
0.0
220
0.0
230
1.0
 70
     8
 71
     3
 72
     8
 73
     4
 74
     0
 42
0.000000001
 43
0.00000001
 40
0.0
 40
0.0
 40
0.0
 40
0.0
 40
1.0
 40
1.0
 40
1.0
 40
1.0
 10
118.3136152376166
 20
92.17705257165171
 30
0.0
 10
117.9571619726856
 20
91.43288859846717
 30
0.0
 10
117.5918284799241
 20
90.6901493725776
 30
0.0
 10
117.2219410991945
 20
89.948718247681
 30
0.0
  0
LINE
  5
117
330
1F
100
AcDbEntity
  8
0
  6
Continuous
 62
     7
370
    25
100
AcDbLine
 10
118.6811387756
 20
145.067420166
 30
0.0
 11
118.6811387756
 21
144.9826567732
 31
0.0
  0
SPLINE
  5
118
330
1F
100
AcDbEntity
  8
0
  6
Continuous
 62
     7
370
    25
100
AcDbSpline
210
0.0
220
0.0
230
1.0
 70
     8
 71
     3
 72
    16
 73
    12
 74
     0
 42
0.000000001
 43
0.00000001
 40
0.0
 40
0.0
 40
0.0
 40
0.0
 40
0.1250000000000001
 40
0.1250000000000001
 40
0.2500000000000003
 40
0.2500000000000003
 40
0.5000000000000002
 40
0.5000000000000002
 40
0.7500000000000001
 40
0.7500000000000001
 40
1.0
 40
1.0
 40
1.0
 40
1.0
 10
118.6811389037646
 20
144.9826561880196
 30
0.0
 10
118.6811389037646
 20
144.9133238393745
 30
0.0
 10
118.6909114674042
 20
144.8513273023718
 30
0.0
 10
118.7251075128047
 20
144.7456454243814
 30
0.0
 10
118.7492927045155
 20
144.7015229894626
 30
0.0
 10
118.8370093686119
 20
144.5891163632218
 30
0.0
 10
118.9137195344612
 20
144.5411138570635
 30
0.0
 10
119.0928016347022
 20
144.4762880943509
 30
0.0
 10
119.193684404322
 20
144.4603848228887
 30
0.0
 10
119.4224959025851
 20
144.458880082518
 30
0.0
 10
119.54679351102
 20
144.4735052592938
 30
0.0
 10
119.6811389037646
 20
144.5082921701324
 30
0.0
  0
SPLINE
  5
119
330
1F
100
AcDbEntity
  8
0
  6
Continuous
 62
     7
370
    25
100
AcDbSpline
210
0.0
220
0.0
230
1.0
 70
     8
 71
     3
 72
    10
 73
     6
 74
     0
 42
0.000000001
 43
0.00000001
 40
0.0
 40
0.0
 40
0.0
 40
0.0
 40
0.5
 40
0.5
 40
1.0
 40
1.0
 40
1.0
 40
1.0
 10
119.6811389037646
 20
144.5082921701324
 30
0.0
 10
119.9439584181203
 20
144.5763457060651
 30
0.0
 10
120.222311282728
 20
144.6286593231169
 30
0.0
 10
120.8093078701134
 20
144.7053627747003
 30
0.0
 10
121.1186915599918
 20
144.7293901489948
 30
0.0
 10
121.4311389037646
 20
144.7382199853928
 30
0.0
  0
SPLINE
  5
11A
330
1F
100
AcDbEntity
  8
0
  6
Continuous
 62
     7
370
    25
100
AcDbSpline
210
0.0
220
0.0
230
1.0
 70
     8
 71
     3
 72
    14
 73
    10
 74
     0
 42
0.000000001
 43
0.00000001
 40
0.0
 40
0.0
 40
0.0
 40
0.0
 40
0.25
 40
0.25
 40
0.5
 40
0.5
 40
0.75
 40
0.75
 40
1.0
 40
1.0
 40
1.0
 40
1.0
 10
121.4311389037646
 20
144.7382199853928
 30
0.0
 10
121.564368354788
 20
144.7419850814302
 30
0.0
 10
121.6960697173981
 20
144.7662470982679
 30
0.0
 10
121.9391473756152
 20
144.8524784489114
 30
0.0
 10
122.0500533161639
 20
144.9146346090833
 30
0.0
 10
122.2327503892415
 20
145.0674408360708
 30
0.0
 10
122.3061379187231
 20
145.1594265441289
 30
0.0
 10
122.4049721976414
 20
145.3618958812078
 30
0.0
 10
122.4311389037646
 20
145.4736571095659
 30
0.0
 10
122.4311389037646
 20
145.5882110770919
 30
0.0
  0
LINE
  5
11B
330
1F
100
AcDbEntity
  8
0
  6
Continuous
 62
     7
370
    25
100
AcDbLine
 10
122.4311389246
 20
145.5882101618
 30
0.0
 11
122.4311389246
 21
145.6734187268
 31
0.0
  0
SPLINE
  5
11C
330
1F
100
AcDbEntity
  8
0
  6
Continuous
 62
     7
370
    25
100
AcDbSpline
210
0.0
220
0.0
230
1.0
 70
     8
 71
     3
 72
    10
 73
     6
 74
     0
 42
0.000000001
 43
0.00000001
 40
0.0
 40
0.0
 40
0.0
 40
0.0
 40
0.5
 40
0.5
 40
1.0
 40
1.0
 40
1.0
 40
1.0
 10
122.4311389037646
 20
145.6734196418441
 30
0.0
 10
122.6823317936361
 20
146.0339258646101
 30
0.0
 10
122.9296011053379
 20
146.3780167445194
 30
0.0
 10
123.4162224566488
 20
147.0294781595752
 30
0.0
 10
123.6556057643655
 20
147.3370635993794
 30
0.0
 10
123.8903367083346
 20
147.6204545292874
 30
0.0
  0
SPLINE
  5
11D
330
1F
100
AcDbEntity
  8
0
  6
Continuous
 62
     7
370
    25
100
AcDbSpline
210
0.0
220
0.0
230
1.0
 70
     8
 71
     3
 72
     8
 73
     4
 74
     0
 42
0.000000001
 43
0.00000001
 40
0.0
 40
0.0
 40
0.0
 40
0.0
 40
1.0
 40
1.0
 40
1.0
 40
1.0
 10
122.8968500288166
 20
91.4132336909765
 30
0.0
 10
122.7427675615928
 20
91.62938059237419
 30
0.0
 10
122.5875409397485
 20
91.85103330169319
 30
0.0
 10
122.4311389037646
 20
92.07796354653135
 30
0.0
  0
LINE
  5
11E
330
1F
100
AcDbEntity
  8
0
  6
Continuous
 62
     7
370
    25
100
AcDbLine
 10
122.4311389246
 20
92.0779633634
 30
0.0
 11
122.4311389246
 21
92.1633805446
 31
0.0
  0
SPLINE
  5
11F
330
1F
100
AcDbEntity
  8
0
  6
Continuous
 62
     7
370
    25
100
AcDbSpline
210
0.0
220
0.0
230
1.0
 70
     8
 71
     3
 72
    14
 73
    10
 74
     0
 42
0.000000001
 43
0.00000001
 40
0.0
 40
0.0
 40
0.0
 40
0.0
 40
0.25
 40
0.25
 40
0.5
 40
0.5
 40
0.75
 40
0.75
 40
1.0
 40
1.0
 40
1.0
 40
1.0
 10
122.4311389037646
 20
92.16337961582876
 30
0.0
 10
122.4311389037646
 20
92.27750552002611
 30
0.0
 10
122.4050987470076
 20
92.39021293360985
 30
0.0
 10
122.3063075638063
 20
92.59440869742541
 30
0.0
 10
122.2335999163893
 20
92.68681288862741
 30
0.0
 10
122.0498281385227
 20
92.84236561693241
 30
0.0
 10
121.9407581078306
 20
92.9043750835649
 30
0.0
 10
121.6951337593719
 20
92.9922651922902
 30
0.0
 10
121.5645786337844
 20
93.01607344471222
 30
0.0
 10
121.4311389037646
 20
93.01925801034331
 30
0.0
  0
SPLINE
  5
120
330
1F
100
AcDbEntity
  8
0
  6
Continuous
 62
     7
370
    25
100
AcDbSpline
210
0.0
220
0.0
230
1.0
 70
     8
 71
     3
 72
    10
 73
     6
 74
     0
 42
0.000000001
 43
0.00000001
 40
0.0
 40
0.0
 40
0.0
 40
0.0
 40
0.5
 40
0.5
 40
1.0
 40
1.0
 40
1.0
 40
1.0
 10
121.4311389037646
 20
93.01925801034328
 30
0.0
 10
121.1231590451368
 20
93.02660801077201
 30
0.0
 10
120.8231390350133
 20
93.04599084753465
 30
0.0
 10
120.2383276910189
 20
93.10880430296558
 30
0.0
 10
119.9516758846711
 20
93.15274484108645
 30
0.0
 10
119.6811389037646
 20
93.20914288024069
 30
0.0
  0
SPLINE
  5
121
330
1F
100
AcDbEntity
  8
0
  6
Continuous
 62
     7
370
    25
100
AcDbSpline
210
0.0
220
0.0
230
1.0
 70
     8
 71
     3
 72
    16
 73
    12
 74
     0
 42
0.000000001
 43
0.00000001
 40
0.0
 40
0.0
 40
0.0
 40
0.0
 40
0.2499999999999992
 40
0.2499999999999992
 40
0.4999999999999984
 40
0.4999999999999984
 40
0.7499999999999977
 40
0.7499999999999977
 40
0.8749999999999988
 40
0.8749999999999988
 40
1.0
 40
1.0
 40
1.0
 40
1.0
 10
119.6811389037646
 20
93.20914288024069
 30
0.0
 10
119.5473617350193
 20
93.23703100842032
 30
0.0
 10
119.423783245181
 20
93.24414112167577
 30
0.0
 10
119.192723297891
 20
93.22505944124804
 30
0.0
 10
119.0884059748497
 20
93.1987180412901
 30
0.0
 10
118.9065787716802
 20
93.11050682290966
 30
0.0
 10
118.8298140052839
 20
93.0495178759214
 30
0.0
 10
118.744308363154
 20
92.92108912385869
 30
0.0
 10
118.7215577132538
 20
92.87295187022204
 30
0.0
 10
118.6898274390279
 20
92.7635869453096
 30
0.0
 10
118.6811389037646
 20
92.70215309276186
 30
0.0
 10
118.6811389037646
 20
92.63667576858458
 30
0.0
  0
LINE
  5
122
330
1F
100
AcDbEntity
  8
0
  6
Continuous
 62
     7
370
    25
100
AcDbLine
 10
118.6811387756
 20
92.6366749518
 30
0.0
 11
118.6811387756
 21
92.551706668
 31
0.0
  0
SPLINE
  5
123
330
1F
100
AcDbEntity
  8
0
  6
Continuous
 62
     7
370
    25
100
AcDbSpline
210
0.0
220
0.0
230
1.0
 70
     8
 71
     3
 72
     8
 73
     4
 74
     0
 42
0.000000001
 43
0.00000001
 40
0.0
 40
0.0
 40
0.0
 40
0.0
 40
1.0
 40
1.0
 40
1.0
 40
1.0
 10
118.6811389037647
 20
92.55170664183309
 30
0.0
 10
118.5543788907355
 20
92.41363633168605
 30
0.0
 10
118.4315264770038
 20
92.28755728085247
 30
0.0
 10
118.3136152376166
 20
92.17705257165171
 30
0.0
  0
LINE
  5
124
330
1F
100
AcDbEntity
  8
0
  6
Continuous
 62
     7
370
    25
100
AcDbLine
 10
71.3213350841
 20
127.6960580908
 30
0.0
 11
71.4578036436
 21
127.617268201
 31
0.0
  0
LINE
  5
125
330
1F
100
AcDbEntity
  8
0
  6
Continuous
 62
     7
370
    25
100
AcDbLine
 10
202.6561390826
 20
131.9727174305
 30
0.0
 11
202.6561390826
 21
105.972716894
 31
0.0
  0
LINE
  5
126
330
1F
100
AcDbEntity
  8
0
  6
Continuous
 62
     7
370
    25
100
AcDbLine
 10
122.4311389246
 20
145.6734187268
 30
0.0
 11
122.4311389246
 21
147.9203126691
 31
0.0
  0
LINE
  5
127
330
1F
100
AcDbEntity
  8
0
  6
Continuous
 62
     7
370
    25
100
AcDbLine
 10
118.6811387756
 20
90.0251216553
 30
0.0
 11
118.6811387756
 21
92.551706668
 31
0.0
  0
LINE
  5
128
330
1F
100
AcDbEntity
  8
0
  6
Continuous
 62
     7
370
    25
100
AcDbLine
 10
122.4311389246
 20
90.0251216553
 30
0.0
 11
122.4311389246
 21
92.0779633634
 31
0.0
  0
LINE
  5
129
330
1F
100
AcDbEntity
  8
0
  6
Continuous
 62
     7
370
    25
100
AcDbLine
 10
85.1464014718
 20
127.0352167375
 30
0.0
 11
85.0276820579
 21
127.0352167375
 31
0.0
  0
LINE
  5
12A
330
1F
100
AcDbEntity
  8
0
  6
Continuous
 62
     7
370
    25
100
AcDbLine
 10
85.0281756588
 20
110.9102175869
 30
0.0
 11
85.1483777383
 21
110.9102175869
 31
0.0
  0
LINE
  5
12B
330
1F
100
AcDbEntity
  8
0
  6
HIDDEN
 62
     7
370
    18
100
AcDbLine
 10
219.6561362812
 20
118.9727171622
 30
0.0
 11
219.6561362812
 21
130.2227176093
 31
0.0
  0
LINE
  5
12C
330
1F
100
AcDbEntity
  8
0
  6
HIDDEN
 62
     7
370
    18
100
AcDbLine
 10
219.6561362812
 20
107.7227167152
 30
0.0
 11
219.6561362812
 21
118.9727171622
 31
0.0
  0
LINE
  5
12D
330
1F
100
AcDbEntity
  8
0
  6
HIDDEN
 62
     7
370
    18
100
AcDbLine
 10
217.5116282174
 20
118.9727171622
 30
0.0
 11
217.5116282174
 21
129.2227174454
 31
0.0
  0
LINE
  5
12E
330
1F
100
AcDbEntity
  8
0
  6
HIDDEN
 62
     7
370
    18
100
AcDbLine
 10
217.5116282174
 20
108.7227168791
 30
0.0
 11
217.5116282174
 21
118.9727171622
 31
0.0
  0
LINE
  5
12F
330
1F
100
AcDbEntity
  8
0
  6
HIDDEN
 62
     7
370
    18
100
AcDbLine
 10
222.6561423608
 20
108.5227172189
 30
0.0
 11
222.6561423608
 21
115.681110492
 31
0.0
  0
LINE
  5
130
330
1F
100
AcDbEntity
  8
0
  6
HIDDEN
 62
     7
370
    18
100
AcDbLine
 10
222.6561423608
 20
122.2643238325
 30
0.0
 11
222.6561423608
 21
129.4227171056
 31
0.0
  0
LINE
  5
131
330
1F
100
AcDbEntity
  8
0
  6
HIDDEN
 62
     7
370
    18
100
AcDbLine
 10
223.5061418482
 20
118.9727171622
 30
0.0
 11
223.5061418482
 21
129.679897178
 31
0.0
  0
LINE
  5
132
330
1F
100
AcDbEntity
  8
0
  6
HIDDEN
 62
     7
370
    18
100
AcDbLine
 10
223.5061418482
 20
108.2655371465
 30
0.0
 11
223.5061418482
 21
118.9727171622
 31
0.0
  0
LINE
  5
133
330
1F
100
AcDbEntity
  8
0
  6
HIDDEN
 62
     7
370
    18
100
AcDbLine
 10
229.4817161032
 20
118.9727171622
 30
0.0
 11
229.4817161032
 21
126.9227176271
 31
0.0
  0
LINE
  5
134
330
1F
100
AcDbEntity
  8
0
  6
HIDDEN
 62
     7
370
    18
100
AcDbLine
 10
229.4817161032
 20
111.0227166973
 30
0.0
 11
229.4817161032
 21
118.9727171622
 31
0.0
  0
LINE
  5
135
330
1F
100
AcDbEntity
  8
0
  6
HIDDEN
 62
     7
370
    18
100
AcDbLine
 10
223.5061418482
 20
128.5727176182
 30
0.0
 11
222.6561423608
 21
128.5727176182
 31
0.0
  0
LINE
  5
136
330
1F
100
AcDbEntity
  8
0
  6
HIDDEN
 62
     7
370
    18
100
AcDbLine
 10
222.6561423608
 20
115.681110492
 30
0.0
 11
222.6561423608
 21
122.2643238325
 31
0.0
  0
LINE
  5
137
330
1F
100
AcDbEntity
  8
0
  6
HIDDEN
 62
     7
370
    18
100
AcDbLine
 10
223.5061418482
 20
109.3727167063
 30
0.0
 11
222.6561423608
 21
109.3727167063
 31
0.0
  0
LINE
  5
138
330
1F
100
AcDbEntity
  8
0
  6
HIDDEN
 62
     7
370
    18
100
AcDbLine
 10
229.6561416456
 20
118.9727171622
 30
0.0
 11
229.6561416456
 21
126.9227176271
 31
0.0
  0
LINE
  5
139
330
1F
100
AcDbEntity
  8
0
  6
HIDDEN
 62
     7
370
    18
100
AcDbLine
 10
229.6561416456
 20
111.0227166973
 30
0.0
 11
229.6561416456
 21
118.9727171622
 31
0.0
  0
SPLINE
  5
13A
330
1F
100
AcDbEntity
  8
0
  6
HIDDEN
 62
     7
370
    18
100
AcDbSpline
210
0.0
220
0.0
230
1.0
 70
     8
 71
     3
 72
    10
 73
     6
 74
     0
 42
0.000000001
 43
0.00000001
 40
0.0
 40
0.0
 40
0.0
 40
0.0
 40
0.5
 40
0.5
 40
1.0
 40
1.0
 40
1.0
 40
1.0
 10
118.3501570963114
 20
120.6177984240649
 30
0.0
 10
118.1732719498879
 20
120.9162487394214
 30
0.0
 10
117.9877225750106
 20
121.1952414435489
 30
0.0
 10
117.609773634963
 20
121.7405607376746
 30
0.0
 10
117.4169870927838
 20
122.005896123496
 30
0.0
 10
117.2219410991945
 20
122.267615247746
 30
0.0
  0
LINE
  5
13B
330
1F
100
AcDbEntity
  8
0
  6
HIDDEN
 62
     7
370
    18
100
AcDbLine
 10
123.8903369972
 20
147.6204547398
 30
0.0
 11
123.8903369972
 21
144.5876027756
 31
0.0
  0
SPLINE
  5
13C
330
1F
100
AcDbEntity
  8
0
  6
HIDDEN
 62
     7
370
    18
100
AcDbSpline
210
0.0
220
0.0
230
1.0
 70
     8
 71
     3
 72
    32
 73
    28
 74
     0
 42
0.000000001
 43
0.00000001
 40
0.0
 40
0.0
 40
0.0
 40
0.0
 40
0.1250000000000004
 40
0.1250000000000004
 40
0.2500000000000009
 40
0.2500000000000009
 40
0.3125000000000009
 40
0.3125000000000009
 40
0.3750000000000009
 40
0.3750000000000009
 40
0.437500000000001
 40
0.437500000000001
 40
0.500000000000001
 40
0.500000000000001
 40
0.5625000000000011
 40
0.5625000000000011
 40
0.6250000000000011
 40
0.6250000000000011
 40
0.6875000000000011
 40
0.6875000000000011
 40
0.750000000000001
 40
0.750000000000001
 40
0.8750000000000004
 40
0.8750000000000004
 40
0.9375000000000002
 40
0.9375000000000002
 40
1.0
 40
1.0
 40
1.0
 40
1.0
 10
123.8903367083347
 20
114.0830098825441
 30
0.0
 10
124.3909337360782
 20
114.2737673943404
 30
0.0
 10
124.8591789553027
 20
114.5271013845001
 30
0.0
 10
125.726525439428
 20
115.1688905799031
 30
0.0
 10
126.1053288336404
 20
115.5424954743191
 30
0.0
 10
126.586117348292
 20
116.1837159188033
 30
0.0
 10
126.7324543927418
 20
116.4132149733557
 30
0.0
 10
126.983735521483
 20
116.8853920436114
 30
0.0
 10
127.0900493221556
 20
117.1293949615508
 30
0.0
 10
127.2632854774497
 20
117.6335891692757
 30
0.0
 10
127.3305544694552
 20
117.8959478132995
 30
0.0
 10
127.4204985540678
 20
118.428087112747
 30
0.0
 10
127.4430252503734
 20
118.6946824450743
 30
0.0
 10
127.4442279601576
 20
119.2289009145657
 30
0.0
 10
127.422738868784
 20
119.4975164604735
 30
0.0
 10
127.3346112740198
 20
120.0316128556342
 30
0.0
 10
127.2690754717987
 20
120.2914975684166
 30
0.0
 10
127.0974412453404
 20
120.7977646499866
 30
0.0
 10
126.9909777308441
 20
121.0448083739706
 30
0.0
 10
126.7384589457607
 20
121.5224786863396
 30
0.0
 10
126.5950073323122
 20
121.7484702790649
 30
0.0
 10
126.116528831466
 20
122.3906624940625
 30
0.0
 10
125.7281139036105
 20
122.7743740981051
 30
0.0
 10
125.0854378544266
 20
123.2513990490755
 30
0.0
 10
124.8603045569174
 20
123.3953157779336
 30
0.0
 10
124.3882655135871
 20
123.6531891322986
 30
0.0
 10
124.1421562735444
 20
123.7664660741678
 30
0.0
 10
123.8903367083347
 20
123.8624244419143
 30
0.0
  0
LINE
  5
13D
330
1F
100
AcDbEntity
  8
0
  6
HIDDEN
 62
     7
370
    18
100
AcDbLine
 10
123.8903369972
 20
94.7866927199
 30
0.0
 11
123.8903369972
 21
89.4359707199
 31
0.0
  0
SPLINE
  5
13E
330
1F
100
AcDbEntity
  8
0
  6
HIDDEN
 62
     7
370
    18
100
AcDbSpline
210
0.0
220
0.0
230
1.0
 70
     8
 71
     3
 72
    22
 73
    18
 74
     0
 42
0.000000001
 43
0.00000001
 40
0.0
 40
0.0
 40
0.0
 40
0.0
 40
0.1249999999999999
 40
0.1249999999999999
 40
0.2499999999999999
 40
0.2499999999999999
 40
0.3749999999999998
 40
0.3749999999999998
 40
0.4999999999999998
 40
0.4999999999999998
 40
0.6249999999999998
 40
0.6249999999999998
 40
0.7499999999999997
 40
0.7499999999999997
 40
0.8749999999999998
 40
0.8749999999999998
 40
1.0
 40
1.0
 40
1.0
 40
1.0
 10
117.2219410991945
 20
122.267615247746
 30
0.0
 10
117.0252031771732
 20
122.0402781011878
 30
0.0
 10
116.8492039365233
 20
121.7988703440581
 30
0.0
 10
116.5396246734985
 20
121.2871128918844
 30
0.0
 10
116.4051130254634
 20
121.0138035596052
 30
0.0
 10
116.1898751277387
 20
120.4541299668389
 30
0.0
 10
116.1081988933677
 20
120.1673826344877
 30
0.0
 10
115.997530057339
 20
119.5798153551001
 30
0.0
 10
115.968796005761
 20
119.275614212545
 30
0.0
 10
115.9684831182184
 20
118.6748752380901
 30
0.0
 10
115.9960171669529
 20
118.3772457394202
 30
0.0
 10
116.1057858330654
 20
117.78739430352
 30
0.0
 10
116.1891457765381
 20
117.4936618549929
 30
0.0
 10
116.4038639006977
 20
116.9344220363043
 30
0.0
 10
116.5354503076919
 20
116.6660317042444
 30
0.0
 10
116.8459787397706
 20
116.1511047792245
 30
0.0
 10
117.0246245901133
 20
115.9058247996686
 30
0.0
 10
117.2219410991945
 20
115.6778190767125
 30
0.0
  0
LINE
  5
13F
330
1F
100
AcDbEntity
  8
0
  6
HIDDEN
 62
     7
370
    18
100
AcDbLine
 10
117.2219411687
 20
93.9149915539
 30
0.0
 11
117.2219411687
 21
89.9487178139
 31
0.0
  0
SPLINE
  5
140
330
1F
100
AcDbEntity
  8
0
  6
HIDDEN
 62
     7
370
    18
100
AcDbSpline
210
0.0
220
0.0
230
1.0
 70
     8
 71
     3
 72
     8
 73
     4
 74
     0
 42
0.000000001
 43
0.00000001
 40
0.0
 40
0.0
 40
0.0
 40
0.0
 40
1.0
 40
1.0
 40
1.0
 40
1.0
 10
84.50000182267591
 20
127.9485596508294
 30
0.0
 10
82.7026071512366
 20
127.9504307113534
 30
0.0
 10
80.90521247979727
 20
127.9518528923776
 30
0.0
 10
79.10781780835796
 20
127.9528270153735
 30
0.0
  0
SPLINE
  5
141
330
1F
100
AcDbEntity
  8
0
  6
HIDDEN
 62
     7
370
    18
100
AcDbSpline
210
0.0
220
0.0
230
1.0
 70
     8
 71
     3
 72
     9
 73
     5
 74
     0
 42
0.000000001
 43
0.00000001
 40
0.0
 40
0.0
 40
0.0
 40
0.0
 40
0.9929996681536533
 40
1.0
 40
1.0
 40
1.0
 40
1.0
 10
84.50125383522881
 20
109.9961459003464
 30
0.0
 10
84.60617441128707
 20
109.9383851564082
 30
0.0
 10
84.71183464403754
 20
109.8802172175955
 30
0.0
 10
84.82706943097823
 20
109.844215161382
 30
0.0
 10
84.82787611272705
 20
109.8439631350414
 30
0.0
  0
SPLINE
  5
142
330
1F
100
AcDbEntity
  8
0
  6
HIDDEN
 62
     7
370
    18
100
AcDbSpline
210
0.0
220
0.0
230
1.0
 70
     8
 71
     3
 72
     8
 73
     4
 74
     0
 42
0.000000001
 43
0.00000001
 40
0.0
 40
0.0
 40
0.0
 40
0.0
 40
1.0
 40
1.0
 40
1.0
 40
1.0
 10
80.09057059356874
 20
109.9928327762898
 30
0.0
 10
81.56068684393306
 20
109.9936946841844
 30
0.0
 10
83.03080309429737
 20
109.9948556902093
 30
0.0
 10
84.5009193446617
 20
109.9963162413285
 30
0.0
  0
LINE
  5
143
330
1F
100
AcDbEntity
  8
0
  6
HIDDEN
 62
     7
370
    18
100
AcDbLine
 10
79.6090945819
 20
109.440460179
 30
0.0
 11
80.0927490213
 21
109.9915162958
 31
0.0
  0
ARC
  5
144
330
1F
100
AcDbEntity
  8
0
  6
HIDDEN
 62
     7
370
    18
100
AcDbCircle
 10
122.6286470993
 20
91.261931261
 30
0.0
 40
4.226589622717566
100
AcDbArc
 50
44.0689324544
 51
86.3617945636
  0
LINE
  5
145
330
1F
100
AcDbEntity
  8
0
  6
HIDDEN
 62
     7
370
    18
100
AcDbLine
 10
118.3136151389
 20
94.7161841504
 30
0.0
 11
118.2462344163
 21
94.669878792
 31
0.0
  0
LWPOLYLINE
  5
146
330
1F
100
AcDbEntity
  8
0
  6
HIDDEN
 62
     7
370
    18
100
AcDbPolyline
 90
       29
 70
   128
 43
0.0
 10
121.7061387592
 20
133.1903891005
 10
122.5378107497
 20
133.2372420766
 10
123.3277790466
 20
133.3754531406
 10
124.0364317068
 20
133.59809139
 10
124.6282341176
 20
133.8939921297
 10
125.0735096851
 20
134.2483184598
 10
125.3499318131
 20
134.6433035396
 10
125.4436386966
 20
135.0591390692
 10
125.3499318131
 20
135.4749745987
 10
125.0735096851
 20
135.8699596785
 10
124.6282341176
 20
136.2242850773
 10
124.0364317068
 20
136.5201867484
 10
123.3277790466
 20
136.7428249978
 10
122.5378107497
 20
136.8810351305
 10
121.7061387592
 20
136.9278881066
 10
120.8744667688
 20
136.8810351305
 10
120.0844984719
 20
136.7428249978
 10
119.3758458116
 20
136.5201867484
 10
118.7840434009
 20
136.2242850773
 10
118.3387678334
 20
135.8699596785
 10
118.0623457053
 20
135.4749745987
 10
117.9686388218
 20
135.0591390692
 10
118.0623457053
 20
134.6433035396
 10
118.3387678334
 20
134.2483184598
 10
118.7840434009
 20
133.8939921297
 10
119.3758458116
 20
133.59809139
 10
120.0844984719
 20
133.3754531406
 10
120.8744667688
 20
133.2372420766
 10
121.7061387592
 20
133.1903891005
  0
LWPOLYLINE
  5
147
330
1F
100
AcDbEntity
  8
0
  6
HIDDEN
 62
     7
370
    18
100
AcDbPolyline
 90
       31
 70
   128
 43
0.0
 10
121.7061387592
 20
98.2560723387
 10
122.5871643269
 20
98.3023721092
 10
123.429685294
 20
98.4392467253
 10
124.1968790286
 20
98.6607170962
 10
124.8552151242
 20
98.9571011923
 10
125.3759213009
 20
99.3154461794
 10
125.7362406918
 20
99.7200909369
 10
125.9204255634
 20
100.1533515118
 10
125.9204255634
 20
100.5962903909
 10
125.7362406918
 20
101.0295509659
 10
125.3759213009
 20
101.4341957234
 10
124.8552151242
 20
101.7925425731
 10
124.1968790286
 20
102.0889266692
 10
123.429685294
 20
102.3103951775
 10
122.5871643269
 20
102.4472716563
 10
121.7061387592
 20
102.4935714267
 10
120.8251131916
 20
102.4472716563
 10
119.9825922244
 20
102.3103951775
 10
119.2153984898
 20
102.0889266692
 10
118.5570623943
 20
101.7925425731
 10
118.0363562175
 20
101.4341957234
 10
117.6760368266
 20
101.0295509659
 10
117.4918524207
 20
100.5962903909
 10
117.4918524207
 20
100.1533515118
 10
117.6760368266
 20
99.7200909369
 10
118.0363562175
 20
99.3154461794
 10
118.5570623943
 20
98.9571011923
 10
119.2153984898
 20
98.6607170962
 10
119.9825922244
 20
98.4392467253
 10
120.8251131916
 20
98.3023721092
 10
121.7061387592
 20
98.2560723387
  0
LINE
  5
148
330
1F
100
AcDbEntity
  8
0
  6
HIDDEN
 62
     7
370
    18
100
AcDbLine
 10
104.6561388516
 20
118.9727171622
 30
0.0
 11
104.6561388516
 21
136.4227163903
 31
0.0
  0
LINE
  5
149
330
1F
100
AcDbEntity
  8
0
  6
HIDDEN
 62
     7
370
    18
100
AcDbLine
 10
104.6561388516
 20
101.5227179341
 30
0.0
 11
104.6561388516
 21
118.9727171622
 31
0.0
  0
LINE
  5
14A
330
1F
100
AcDbEntity
  8
0
  6
HIDDEN
 62
     7
370
    18
100
AcDbLine
 10
101.1561392092
 20
118.9727171622
 30
0.0
 11
101.1561392092
 21
136.6102177017
 31
0.0
  0
LINE
  5
14B
330
1F
100
AcDbEntity
  8
0
  6
HIDDEN
 62
     7
370
    18
100
AcDbLine
 10
101.1561392092
 20
101.3352166228
 30
0.0
 11
101.1561392092
 21
118.9727171622
 31
0.0
  0
LINE
  5
14C
330
1F
100
AcDbEntity
  8
0
  6
HIDDEN
 62
     7
370
    18
100
AcDbLine
 10
71.4578036436
 20
127.617268201
 30
0.0
 11
71.4578036436
 21
137.9082932435
 31
0.0
  0
LINE
  5
14D
330
1F
100
AcDbEntity
  8
0
  6
HIDDEN
 62
     7
370
    18
100
AcDbLine
 10
93.3061395058
 20
114.9099439681
 30
0.0
 11
92.6561396786
 21
114.7602171004
 31
0.0
  0
LINE
  5
14E
330
1F
100
AcDbEntity
  8
0
  6
HIDDEN
 62
     7
370
    18
100
AcDbLine
 10
93.3061395058
 20
123.0354903564
 30
0.0
 11
92.6561396786
 21
123.1852172241
 31
0.0
  0
LINE
  5
14F
330
1F
100
AcDbEntity
  8
0
  6
HIDDEN
 62
     7
370
    18
100
AcDbLine
 10
85.741196222
 20
127.4178552739
 30
0.0
 11
79.2933110365
 21
127.4178552739
 31
0.0
  0
SPLINE
  5
150
330
1F
100
AcDbEntity
  8
0
  6
HIDDEN
 62
     7
370
    18
100
AcDbSpline
210
0.0
220
0.0
230
1.0
 70
     8
 71
     3
 72
    12
 73
     8
 74
     0
 42
0.000000001
 43
0.00000001
 40
0.0
 40
0.0
 40
0.0
 40
0.0
 40
0.2015408865689114
 40
0.4018565913148709
 40
0.6013995300920416
 40
0.8006273830732115
 40
1.0
 40
1.0
 40
1.0
 40
1.0
 10
86.74126562447516
 20
127.5202137445942
 30
0.0
 10
86.67385175471114
 20
127.5195878216646
 30
0.0
 10
86.53943382903901
 20
127.5183397808367
 30
0.0
 10
86.33866900501648
 20
127.5060002429013
 30
0.0
 10
86.13959640198898
 20
127.4857758901348
 30
0.0
 10
85.9420131739495
 20
127.4576579424146
 30
0.0
 10
85.81194009952875
 20
127.4319271330162
 30
0.0
 10
85.74687994231176
 20
127.4190570558519
 30
0.0
  0
LINE
  5
151
330
1F
100
AcDbEntity
  8
0
  6
HIDDEN
 62
     7
370
    18
100
AcDbLine
 10
88.656139023
 20
127.5202141441
 30
0.0
 11
86.7412653038
 21
127.5202141441
 31
0.0
  0
LINE
  5
152
330
1F
100
AcDbEntity
  8
0
  6
HIDDEN
 62
     7
370
    18
100
AcDbLine
 10
86.7412653038
 20
110.4252201803
 30
0.0
 11
88.656139023
 21
110.4252201803
 31
0.0
  0
SPLINE
  5
153
330
1F
100
AcDbEntity
  8
0
  6
HIDDEN
 62
     7
370
    18
100
AcDbSpline
210
0.0
220
0.0
230
1.0
 70
     8
 71
     3
 72
    12
 73
     8
 74
     0
 42
0.000000001
 43
0.00000001
 40
0.0
 40
0.0
 40
0.0
 40
0.0
 40
0.1993047266787485
 40
0.3984909635174912
 40
0.5980263786482755
 40
0.7983761953931292
 40
1.0
 40
1.0
 40
1.0
 40
1.0
 10
85.7400550601633
 20
110.5274127530214
 30
0.0
 10
85.80552590272583
 20
110.5143829933463
 30
0.0
 10
85.93642866439038
 20
110.4883312203962
 30
0.0
 10
86.13532294596618
 20
110.45989076552
 30
0.0
 10
86.33576519645669
 20
110.4394598941142
 30
0.0
 10
86.53796310041588
 20
110.4270308633498
 30
0.0
 10
86.67335508240829
 20
110.4258252813226
 30
0.0
 10
86.74126562447516
 20
110.4252205798642
 30
0.0
  0
LINE
  5
154
330
1F
100
AcDbEntity
  8
0
  6
HIDDEN
 62
     7
370
    18
100
AcDbLine
 10
80.3154692271
 20
110.5275790505
 30
0.0
 11
85.7392721095
 21
110.5275790505
 31
0.0
  0
SPLINE
  5
155
330
1F
100
AcDbEntity
  8
0
  6
HIDDEN
 62
     7
370
    18
100
AcDbSpline
210
0.0
220
0.0
230
1.0
 70
     8
 71
     3
 72
    24
 73
    20
 74
     0
 42
0.000000001
 43
0.00000001
 40
0.0
 40
0.0
 40
0.0
 40
0.0
 40
0.0410168309160251
 40
0.0818356321224298
 40
0.1225576684073127
 40
0.1632849263043688
 40
0.2041193531422725
 40
0.2451620975485173
 40
0.2865127793361656
 40
0.3282688142230838
 40
0.370524814367772
 40
0.4133720798884311
 40
0.456898190125439
 40
0.5011866971564671
 40
0.6001870884229382
 40
0.6987399491827955
 40
0.7976807785240759
 40
0.8978353515390326
 40
1.0
 40
1.0
 40
1.0
 40
1.0
 10
76.54348186761449
 20
108.5899369995663
 30
0.0
 10
76.60650764055049
 20
108.5904646263464
 30
0.0
 10
76.73225489729937
 20
108.5915173325188
 30
0.0
 10
76.92016085446723
 20
108.6026443667379
 30
0.0
 10
77.10672583730324
 20
108.6207928309136
 30
0.0
 10
77.29194972134282
 20
108.6466585205151
 30
0.0
 10
77.47582818032384
 20
108.6800898607324
 30
0.0
 10
77.65835830388848
 20
108.7211720604572
 30
0.0
 10
77.83953734831958
 20
108.7699367151472
 30
0.0
 10
78.0193629562069
 20
108.8264398606429
 30
0.0
 10
78.1978341613187
 20
108.8907404070301
 30
0.0
 10
78.37494742932753
 20
108.9629073274831
 30
0.0
 10
78.55071188007442
 20
109.043011770822
 30
0.0
 10
78.7957504817244
 20
109.166865424852
 30
0.0
 10
79.0999470271528
 20
109.3454971839256
 30
0.0
 10
79.44725431209599
 20
109.5945866227617
 30
0.0
 10
79.76642862839986
 20
109.8741561392415
 30
0.0
 10
80.06034051651997
 20
110.1829817955533
 30
0.0
 10
80.22986460513432
 20
110.4110738363623
 30
0.0
 10
80.31546877458796
 20
110.5262529231342
 30
0.0
  0
LINE
  5
156
330
1F
100
AcDbEntity
  8
0
  6
HIDDEN
 62
     7
370
    18
100
AcDbLine
 10
73.7519417175
 20
108.5899372883
 30
0.0
 11
76.5434805521
 21
108.5899372883
 31
0.0
  0
SPLINE
  5
157
330
1F
100
AcDbEntity
  8
0
  6
HIDDEN
 62
     7
370
    18
100
AcDbSpline
210
0.0
220
0.0
230
1.0
 70
     8
 71
     3
 72
     8
 73
     4
 74
     0
 42
0.000000001
 43
0.00000001
 40
0.0
 40
0.0
 40
0.0
 40
0.0
 40
1.0
 40
1.0
 40
1.0
 40
1.0
 10
73.70613607900587
 20
108.5264840085566
 30
0.0
 10
73.72140410290356
 20
108.5476004789547
 30
0.0
 10
73.73667212680124
 20
108.5687515460074
 30
0.0
 10
73.75194015069891
 20
108.5899369995663
 30
0.0
  0
LINE
  5
158
330
1F
100
AcDbEntity
  8
0
  6
HIDDEN
 62
     7
370
    18
100
AcDbLine
 10
73.7061392733
 20
101.3352166228
 30
0.0
 11
73.7061392733
 21
108.5264844187
 31
0.0
  0
LINE
  5
159
330
1F
100
AcDbEntity
  8
0
  6
HIDDEN
 62
     7
370
    18
100
AcDbLine
 10
76.5434805521
 20
108.590253938
 30
0.0
 11
73.7521689602
 21
108.590253938
 31
0.0
  0
SPLINE
  5
15A
330
1F
100
AcDbEntity
  8
0
  6
HIDDEN
 62
     7
370
    18
100
AcDbSpline
210
0.0
220
0.0
230
1.0
 70
     8
 71
     3
 72
    12
 73
     8
 74
     0
 42
0.000000001
 43
0.00000001
 40
0.0
 40
0.0
 40
0.0
 40
0.0
 40
0.1993047266741326
 40
0.3984909635105993
 40
0.5980263786414289
 40
0.7983761953885984
 40
1.0
 40
1.0
 40
1.0
 40
1.0
 10
85.74005506014615
 20
127.4180215714374
 30
0.0
 10
85.80552590270833
 20
127.4310513311121
 30
0.0
 10
85.93642866437291
 20
127.4571031040616
 30
0.0
 10
86.13532294594991
 20
127.4855435589371
 30
0.0
 10
86.33576519644384
 20
127.5059744303429
 30
0.0
 10
86.53796310040867
 20
127.5184034611076
 30
0.0
 10
86.67335508240565
 20
127.5196090431354
 30
0.0
 10
86.74126562447516
 20
127.5202137445942
 30
0.0
  0
LINE
  5
15B
330
1F
100
AcDbEntity
  8
0
  6
HIDDEN
 62
     7
370
    18
100
AcDbLine
 10
73.7061392733
 20
127.5786201768
 30
0.0
 11
73.7061392733
 21
136.6102177017
 31
0.0
  0
LINE
  5
15C
330
1F
100
AcDbEntity
  8
0
  6
HIDDEN
 62
     7
370
    18
100
AcDbLine
 10
78.0710134872
 20
127.5786201768
 30
0.0
 11
73.7061392733
 21
127.5786201768
 31
0.0
  0
SPLINE
  5
15D
330
1F
100
AcDbEntity
  8
0
  6
HIDDEN
 62
     7
370
    18
100
AcDbSpline
210
0.0
220
0.0
230
1.0
 70
     8
 71
     3
 72
    13
 73
     9
 74
     0
 42
0.000000001
 43
0.00000001
 40
0.0
 40
0.0
 40
0.0
 40
0.0
 40
0.1678178595740704
 40
0.3346374811057408
 40
0.5008598188961295
 40
0.6668901550572077
 40
0.8331351763244331
 40
1.0
 40
1.0
 40
1.0
 40
1.0
 10
79.29331075904165
 20
127.4178306846334
 30
0.0
 10
79.22665369146158
 20
127.4347876653545
 30
0.0
 10
79.09373605534407
 20
127.468600760874
 30
0.0
 10
78.89153715802452
 20
127.5082752512455
 30
0.0
 10
78.68825820124037
 20
127.5396800801433
 30
0.0
 10
78.48363979394188
 20
127.5618671425799
 30
0.0
 10
78.27775652885006
 20
127.5758567709982
 30
0.0
 10
78.14001239640989
 20
127.577697865204
 30
0.0
 10
78.07101218305408
 20
127.5786201251271
 30
0.0
  0
SPLINE
  5
15E
330
1F
100
AcDbEntity
  8
0
  6
HIDDEN
 62
     7
370
    18
100
AcDbSpline
210
0.0
220
0.0
230
1.0
 70
     8
 71
     3
 72
    17
 73
    13
 74
     0
 42
0.000000001
 43
0.00000001
 40
0.0
 40
0.0
 40
0.0
 40
0.0
 40
0.1419339108780398
 40
0.2482241417278534
 40
0.3574213967559435
 40
0.4638182877431284
 40
0.5739043312176207
 40
0.6714445374667359
 40
0.7718767683345822
 40
0.8684788957952867
 40
0.9678221558100077
 40
1.0
 40
1.0
 40
1.0
 40
1.0
 10
85.12376847055329
 20
102.8000491969363
 30
0.0
 10
84.57057685385442
 20
102.7887007956517
 30
0.0
 10
83.60311591786913
 20
102.7688539024643
 30
0.0
 10
82.25495526600936
 20
102.6236996766948
 30
0.0
 10
81.1104528815712
 20
102.4333641107346
 30
0.0
 10
80.06475792864534
 20
102.1917843072045
 30
0.0
 10
79.20060942206807
 20
101.9402562318718
 30
0.0
 10
78.51734073120011
 20
101.7074148095175
 30
0.0
 10
78.0232290816805
 20
101.5195543474768
 30
0.0
 10
77.71018513075936
 20
101.3920525041177
 30
0.0
 10
77.56824863858591
 20
101.3318800779226
 30
0.0
 10
77.59003756201801
 20
101.3410945310699
 30
0.0
 10
77.59536842193974
 20
101.3433489315287
 30
0.0
  0
SPLINE
  5
15F
330
1F
100
AcDbEntity
  8
0
  6
HIDDEN
 62
     7
370
    18
100
AcDbSpline
210
0.0
220
0.0
230
1.0
 70
     8
 71
     3
 72
    10
 73
     6
 74
     0
 42
0.000000001
 43
0.00000001
 40
0.0
 40
0.0
 40
0.0
 40
0.0
 40
0.0016654348296421
 40
0.7369368542096183
 40
1.0
 40
1.0
 40
1.0
 40
1.0
 10
83.47637618270291
 20
102.7396063618437
 30
0.0
 10
83.4772602870428
 20
102.7396964393345
 30
0.0
 10
83.86846687130956
 20
102.7795547523117
 30
0.0
 10
84.42420976391972
 20
102.7940731811143
 30
0.0
 10
84.97196915990764
 20
102.7987970084474
 30
0.0
 10
85.11630485144032
 20
102.8000417463557
 30
0.0
  0
SPLINE
  5
160
330
1F
100
AcDbEntity
  8
0
  6
HIDDEN
 62
     7
370
    18
100
AcDbSpline
210
0.0
220
0.0
230
1.0
 70
     8
 71
     3
 72
    10
 73
     6
 74
     0
 42
0.000000001
 43
0.00000001
 40
0.0
 40
0.0
 40
0.0
 40
0.0
 40
0.0606743504815795
 40
0.9962622526279105
 40
0.9999999999999999
 40
0.9999999999999999
 40
0.9999999999999999
 40
0.9999999999999999
 10
85.1251915314473
 20
102.7984659485594
 30
0.0
 10
85.15623733490796
 20
102.8040717912011
 30
0.0
 10
85.66600401299934
 20
102.8961187496555
 30
0.0
 10
86.19544350223984
 20
102.995647938761
 30
0.0
 10
86.72021726865165
 20
103.0200534098381
 30
0.0
 10
86.72230543878449
 20
103.0201505236403
 30
0.0
  0
SPLINE
  5
161
330
1F
100
AcDbEntity
  8
0
  6
HIDDEN
 62
     7
370
    18
100
AcDbSpline
210
0.0
220
0.0
230
1.0
 70
     8
 71
     3
 72
    18
 73
    14
 74
     0
 42
0.000000001
 43
0.00000001
 40
0.0
 40
0.0
 40
0.0
 40
0.0
 40
0.0966760117513512
 40
0.1957167862068728
 40
0.2944057248724123
 40
0.3931789006510396
 40
0.4927863521263263
 40
0.5924669730119563
 40
0.6939948162573905
 40
0.7928891334494211
 40
0.8917741560295526
 40
0.993368532465871
 40
1.0
 40
1.0
 40
1.0
 40
1.0
 10
96.13173215028418
 20
101.335363771774
 30
0.0
 10
96.10249534541215
 20
101.3479307309625
 30
0.0
 10
96.04330658302064
 20
101.37337204593
 30
0.0
 10
95.55936327038359
 20
101.5699565505496
 30
0.0
 10
94.83425699959889
 20
101.8533389561668
 30
0.0
 10
93.85415447856711
 20
102.191060350187
 30
0.0
 10
92.6686497398448
 20
102.5340249732232
 30
0.0
 10
91.29825466596763
 20
102.8312004307541
 30
0.0
 10
89.81205151885369
 20
103.0411175945457
 30
0.0
 10
88.25608946850487
 20
103.1157544276227
 30
0.0
 10
86.70037819176876
 20
103.0420493313487
 30
0.0
 10
85.67257900790773
 20
102.8973019245606
 30
0.0
 10
85.16127658479628
 20
102.8046339910207
 30
0.0
 10
85.12994686451329
 20
102.7989558242337
 30
0.0
  0
SPLINE
  5
162
330
1F
100
AcDbEntity
  8
0
  6
HIDDEN
 62
     7
370
    18
100
AcDbSpline
210
0.0
220
0.0
230
1.0
 70
     8
 71
     3
 72
    18
 73
    14
 74
     0
 42
0.000000001
 43
0.00000001
 40
0.0
 40
0.0
 40
0.0
 40
0.0
 40
0.0654203085853972
 40
0.1658094549616985
 40
0.2635707374758686
 40
0.3642140327749105
 40
0.4611132884945612
 40
0.5608588280792884
 40
0.6572955132511193
 40
0.7562859026390498
 40
0.8578425239049668
 40
0.9616147590486234
 40
0.9999999999999999
 40
0.9999999999999999
 40
0.9999999999999999
 40
0.9999999999999999
 10
77.59536842193974
 20
136.6020853929297
 30
0.0
 10
77.59535435597216
 20
136.6020775654893
 30
0.0
 10
77.59531870541545
 20
136.6020577266401
 30
0.0
 10
77.7991312819149
 20
136.5163904940814
 30
0.0
 10
78.18165685325604
 20
136.3638246028734
 30
0.0
 10
78.73665502681455
 20
136.1600263636352
 30
0.0
 10
79.45301738256619
 20
135.9276750004648
 30
0.0
 10
80.30005745683007
 20
135.6953188757215
 30
0.0
 10
81.26932719356155
 20
135.4834527363896
 30
0.0
 10
82.3326257026935
 20
135.3120205948741
 30
0.0
 10
83.48217706693066
 20
135.1945552033439
 30
0.0
 10
84.42812679618002
 20
135.1497177667533
 30
0.0
 10
84.98156280156401
 20
135.1463033579869
 30
0.0
 10
85.13100112166775
 20
135.1453814022319
 30
0.0
  0
SPLINE
  5
163
330
1F
100
AcDbEntity
  8
0
  6
HIDDEN
 62
     7
370
    18
100
AcDbSpline
210
0.0
220
0.0
230
1.0
 70
     8
 71
     3
 72
    19
 73
    15
 74
     0
 42
0.000000001
 43
0.00000001
 40
0.0
 40
0.0
 40
0.0
 40
0.0
 40
0.0062680188378557
 40
0.1078327013923793
 40
0.2067630213450158
 40
0.3056838052477782
 40
0.4073151588481499
 40
0.5070055137176899
 40
0.6066208790188182
 40
0.7052847570617292
 40
0.8036634047114345
 40
0.9025313986645669
 40
0.9995030162935613
 40
1.0
 40
1.0
 40
1.0
 40
1.0
 10
85.13628358331097
 20
135.1463183127419
 30
0.0
 10
85.16589330953956
 20
135.1409603686362
 30
0.0
 10
85.6752881995859
 20
135.0487842597613
 30
0.0
 10
86.7008568068083
 20
134.9043588665654
 30
0.0
 10
88.2558782609164
 20
134.8296819849836
 30
0.0
 10
89.81252893665796
 20
134.9033344199138
 30
0.0
 10
91.29908512323316
 20
135.11335046153
 30
0.0
 10
92.6691365027858
 20
135.4106615924894
 30
0.0
 10
93.85356789769067
 20
135.7543826952985
 30
0.0
 10
94.8278089598889
 20
136.0901610394497
 30
0.0
 10
95.5660760293607
 20
136.378469435322
 30
0.0
 10
96.00287682865239
 20
136.5551704609558
 30
0.0
 10
96.18221674316015
 20
136.6314090761061
 30
0.0
 10
96.13156758537423
 20
136.6099990439497
 30
0.0
 10
96.1313093298353
 20
136.609889876105
 30
0.0
  0
SPLINE
  5
164
330
1F
100
AcDbEntity
  8
0
  6
HIDDEN
 62
     7
370
    18
100
AcDbSpline
210
0.0
220
0.0
230
1.0
 70
     8
 71
     3
 72
    25
 73
    21
 74
     0
 42
0.000000001
 43
0.00000001
 40
0.0
 40
0.0
 40
0.0
 40
0.0
 40
0.0269822734731769
 40
0.0539275173136802
 40
0.0808923933113601
 40
0.107933439844806
 40
0.1351067198417023
 40
0.1624674833923036
 40
0.190069854784539
 40
0.2179665520622281
 40
0.2462086451089677
 40
0.3700054907647238
 40
0.4947546150766694
 40
0.621044168917856
 40
0.7446559260931477
 40
0.796706171775715
 40
0.847861451501886
 40
0.898521112282262
 40
0.9490962471824803
 40
1.0
 40
1.0
 40
1.0
 40
1.0
 10
93.30613890376463
 20
123.035490573029
 30
0.0
 10
93.3061249893671
 20
123.1002715383509
 30
0.0
 10
93.30609717966776
 20
123.2297445656134
 30
0.0
 10
93.2944592483592
 20
123.4230114915455
 30
0.0
 10
93.27431947029503
 20
123.6151823715929
 30
0.0
 10
93.24485012557004
 20
123.8061984774208
 30
0.0
 10
93.20627483176902
 20
123.9960482572392
 30
0.0
 10
93.15853432762925
 20
124.1847095708922
 30
0.0
 10
93.1016494114611
 20
124.3721598715993
 30
0.0
 10
93.03560667135496
 20
124.5583940799618
 30
0.0
 10
92.87608912421447
 20
124.9509446837545
 30
0.0
 10
92.55993993634256
 20
125.523102620078
 30
0.0
 10
91.98763199910358
 20
126.1976821519824
 30
0.0
 10
91.29679842110333
 20
126.7607005765254
 30
0.0
 10
90.6517870899959
 20
127.1026824202638
 30
0.0
 10
90.13513836409237
 20
127.2945080588195
 30
0.0
 10
89.77297511295262
 20
127.3969424654065
 30
0.0
 10
89.40542400564244
 20
127.4689080536615
 30
0.0
 10
89.03249207068099
 20
127.5132478302832
 30
0.0
 10
88.78186049851786
 20
127.5178867657534
 30
0.0
 10
88.65613890376461
 20
127.5202137445942
 30
0.0
  0
SPLINE
  5
165
330
1F
100
AcDbEntity
  8
0
  6
HIDDEN
 62
     7
370
    18
100
AcDbSpline
210
0.0
220
0.0
230
1.0
 70
     8
 71
     3
 72
    25
 73
    21
 74
     0
 42
0.000000001
 43
0.00000001
 40
0.0
 40
0.0
 40
0.0
 40
0.0
 40
0.0278040781436522
 40
0.055549721993219
 40
0.0833079149813089
 40
0.1111495445113076
 40
0.1391448641111913
 40
0.1673629793310927
 40
0.1958713754537566
 40
0.2247355016371065
 40
0.2540184217407993
 40
0.3796733112851029
 40
0.5056490307768108
 40
0.6297529978411118
 40
0.7535891429683279
 40
0.8038648317328723
 40
0.8533521433028843
 40
0.9023387809687056
 40
0.9511213072444032
 40
1.0
 40
1.0
 40
1.0
 40
1.0
 10
88.65613890376461
 20
110.4252205798642
 30
0.0
 10
88.7247690047057
 20
110.4257429832367
 30
0.0
 10
88.86188497049842
 20
110.4267866920755
 30
0.0
 10
89.06707146432171
 20
110.4398595075943
 30
0.0
 10
89.27135502054638
 20
110.4613828951642
 30
0.0
 10
89.47473741580214
 20
110.4921971388307
 30
0.0
 10
89.67721314679693
 20
110.5321102491434
 30
0.0
 10
89.87878086966423
 20
110.5812185141383
 30
0.0
 10
90.07943257750304
 20
110.6395474259821
 30
0.0
 10
90.27918663542559
 20
110.7071631639479
 30
0.0
 10
90.69479506979519
 20
110.8679952356816
 30
0.0
 10
91.2975975470226
 20
111.1819810100323
 30
0.0
 10
91.9916531389591
 20
111.7455539120157
 30
0.0
 10
92.55842799692316
 20
112.4212973856173
 30
0.0
 10
92.89601226289024
 20
113.0386780699957
 30
0.0
 10
93.08448769478053
 20
113.5307668869578
 30
0.0
 10
93.18376247488489
 20
113.8684466653017
 30
0.0
 10
93.25410794637851
 20
114.2110785079301
 30
0.0
 10
93.29809695522717
 20
114.5584161186971
 30
0.0
 10
93.30345649508206
 20
114.792690977452
 30
0.0
 10
93.30613890376463
 20
114.9099437514295
 30
0.0
  0
LINE
  5
166
330
1F
100
AcDbEntity
  8
0
  6
HIDDEN
 62
     7
370
    18
100
AcDbLine
 10
93.3061395058
 20
114.9099439681
 30
0.0
 11
93.3061395058
 21
123.0354903564
 31
0.0
  0
LINE
  5
167
330
1F
100
AcDbEntity
  8
0
  6
HIDDEN
 62
     7
370
    18
100
AcDbLine
 10
71.4578036436
 20
108.480666142
 30
0.0
 11
71.3825825819
 21
108.4372357763
 31
0.0
  0
LINE
  5
168
330
1F
100
AcDbEntity
  8
0
  6
HIDDEN
 62
     7
370
    18
100
AcDbLine
 10
71.4578036436
 20
100.037141081
 30
0.0
 11
71.4578036436
 21
108.480666142
 31
0.0
  0
SPLINE
  5
169
330
1F
100
AcDbEntity
  8
0
  6
HIDDEN
 62
     7
370
    18
100
AcDbSpline
210
0.0
220
0.0
230
1.0
 70
     8
 71
     3
 72
     8
 73
     4
 74
     0
 42
0.000000001
 43
0.00000001
 40
0.0
 40
0.0
 40
0.0
 40
0.0
 40
0.0001360402361218
 40
0.0001360402361218
 40
0.0001360402361218
 40
0.0001360402361218
 10
73.64756597987987
 20
127.4917980126451
 30
0.0
 10
73.66727509422608
 20
127.5206760157591
 30
0.0
 10
73.68680096195875
 20
127.5496169242459
 30
0.0
 10
73.70613890376463
 20
127.5786201251271
 30
0.0
  0
SPLINE
  5
16A
330
1F
100
AcDbEntity
  8
0
  6
HIDDEN
 62
     7
370
    18
100
AcDbSpline
210
0.0
220
0.0
230
1.0
 70
     8
 71
     3
 72
     9
 73
     5
 74
     0
 42
0.000000001
 43
0.00000001
 40
0.0
 40
0.0
 40
0.0
 40
0.0
 40
0.5086468810575882
 40
1.0
 40
1.0
 40
1.0
 40
1.0
 10
71.66026246972748
 20
127.5003792355018
 30
0.0
 10
71.99783007185061
 20
127.4989909984511
 30
0.0
 10
72.66148813148773
 20
127.4962617237766
 30
0.0
 10
73.32268433229235
 20
127.4932691453981
 30
0.0
 10
73.64756514779059
 20
127.4917987326781
 30
0.0
  0
SPLINE
  5
16B
330
1F
100
AcDbEntity
  8
0
  6
HIDDEN
 62
     7
370
    18
100
AcDbSpline
210
0.0
220
0.0
230
1.0
 70
     8
 71
     3
 72
     8
 73
     4
 74
     0
 42
0.000000001
 43
0.00000001
 40
0.0
 40
0.0
 40
0.0
 40
0.0
 40
0.0001360401404469
 40
0.0001360401404469
 40
0.0001360401404469
 40
0.0001360401404469
 10
73.70613890376463
 20
127.5786201251271
 30
0.0
 10
73.68680097555881
 20
127.5496169446433
 30
0.0
 10
73.66727512169068
 20
127.5206760564666
 30
0.0
 10
73.64756602146359
 20
127.4917980735741
 30
0.0
  0
SPLINE
  5
16C
330
1F
100
AcDbEntity
  8
0
  6
HIDDEN
 62
     7
370
    18
100
AcDbSpline
210
0.0
220
0.0
230
1.0
 70
     8
 71
     3
 72
     9
 73
     5
 74
     0
 42
0.000000001
 43
0.00000001
 40
0.0
 40
0.0
 40
0.0
 40
0.0
 40
0.4913531182931429
 40
1.0
 40
1.0
 40
1.0
 40
1.0
 10
73.64756518937399
 20
127.4917987936073
 30
0.0
 10
73.32268434971334
 20
127.4932692066862
 30
0.0
 10
72.66148809885978
 20
127.4962617857991
 30
0.0
 10
71.99782998878008
 20
127.4989910611278
 30
0.0
 10
71.66026236056857
 20
127.500379298513
 30
0.0
  0
SPLINE
  5
16D
330
1F
100
AcDbEntity
  8
0
  6
HIDDEN
 62
     7
370
    18
100
AcDbSpline
210
0.0
220
0.0
230
1.0
 70
     8
 71
     3
 72
     8
 73
     4
 74
     0
 42
0.000000001
 43
0.00000001
 40
0.0
 40
0.0
 40
0.0
 40
0.0
 40
1.0
 40
1.0
 40
1.0
 40
1.0
 10
80.2600998009971
 20
110.9102171622294
 30
0.0
 10
80.28910450742468
 20
110.7862794353671
 30
0.0
 10
80.30813702710613
 20
110.6583273051338
 30
0.0
 10
80.31638861929778
 20
110.5272579924423
 30
0.0
  0
SPLINE
  5
16E
330
1F
100
AcDbEntity
  8
0
  6
HIDDEN
 62
     7
370
    18
100
AcDbSpline
210
0.0
220
0.0
230
1.0
 70
     8
 71
     3
 72
     8
 73
     4
 74
     0
 42
0.000000001
 43
0.00000001
 40
0.0
 40
0.0
 40
0.0
 40
0.0
 40
1.0
 40
1.0
 40
1.0
 40
1.0
 10
85.74232111767158
 20
110.5318239211267
 30
0.0
 10
85.47301657613
 20
110.6285326194275
 30
0.0
 10
85.23685384202177
 20
110.7565522110008
 30
0.0
 10
85.02765911298613
 20
110.9100499642674
 30
0.0
  0
SPLINE
  5
16F
330
1F
100
AcDbEntity
  8
0
  6
HIDDEN
 62
     7
370
    18
100
AcDbSpline
210
0.0
220
0.0
230
1.0
 70
     8
 71
     3
 72
     9
 73
     5
 74
     0
 42
0.000000001
 43
0.00000001
 40
0.0
 40
0.0
 40
0.0
 40
0.0
 40
0.5440777527985401
 40
1.0
 40
1.0
 40
1.0
 40
1.0
 10
79.29309009293266
 20
127.4178379318864
 30
0.0
 10
79.2936297980041
 20
127.3483844083546
 30
0.0
 10
79.2946217611356
 20
127.2207307353739
 30
0.0
 10
79.30513457105812
 20
127.0933107625689
 30
0.0
 10
79.30992759498238
 20
127.0352171622292
 30
0.0
  0
SPLINE
  5
170
330
1F
100
AcDbEntity
  8
0
  6
HIDDEN
 62
     7
370
    18
100
AcDbSpline
210
0.0
220
0.0
230
1.0
 70
     8
 71
     3
 72
     8
 73
     4
 74
     0
 42
0.000000001
 43
0.00000001
 40
0.0
 40
0.0
 40
0.0
 40
0.0
 40
1.0
 40
1.0
 40
1.0
 40
1.0
 10
85.02814773412761
 20
127.0353946966683
 30
0.0
 10
85.23761045956111
 20
127.1891470081738
 30
0.0
 10
85.47391265014733
 20
127.3175556313849
 30
0.0
 10
85.7437397418537
 20
127.4143077130349
 30
0.0
  0
SPLINE
  5
171
330
1F
100
AcDbEntity
  8
0
  6
HIDDEN
 62
     7
370
    18
100
AcDbSpline
210
0.0
220
0.0
230
1.0
 70
     8
 71
     3
 72
     8
 73
     4
 74
     0
 42
0.000000001
 43
0.00000001
 40
0.0
 40
0.0
 40
0.0
 40
0.0
 40
1.0
 40
1.0
 40
1.0
 40
1.0
 10
73.64756481863088
 20
127.4917984840382
 30
0.0
 10
73.68096192249773
 20
127.3897135005478
 30
0.0
 10
73.71435642556398
 20
127.2875195564948
 30
0.0
 10
73.74774835615757
 20
127.1852173570123
 30
0.0
  0
SPLINE
  5
172
330
1F
100
AcDbEntity
  8
0
  6
HIDDEN
 62
     7
370
    18
100
AcDbSpline
210
0.0
220
0.0
230
1.0
 70
     8
 71
     3
 72
     9
 73
     5
 74
     0
 42
0.000000001
 43
0.00000001
 40
0.0
 40
0.0
 40
0.0
 40
0.0
 40
0.4897855395478374
 40
1.0
 40
1.0
 40
1.0
 40
1.0
 10
73.70613864899516
 20
108.5264834297537
 30
0.0
 10
73.34908507290766
 20
108.5238468061741
 30
0.0
 10
72.62008524082376
 20
108.5184635856282
 30
0.0
 10
71.88536688384944
 20
108.5135817870259
 30
0.0
 10
71.5105029537615
 20
108.5110910227859
 30
0.0
  0
SPLINE
  5
173
330
1F
100
AcDbEntity
  8
0
  6
HIDDEN
 62
     7
370
    18
100
AcDbSpline
210
0.0
220
0.0
230
1.0
 70
     8
 71
     3
 72
     9
 73
     5
 74
     0
 42
0.000000001
 43
0.00000001
 40
0.0
 40
0.0
 40
0.0
 40
0.0
 40
0.5102144635023922
 40
1.0
 40
1.0
 40
1.0
 40
1.0
 10
71.51050230043572
 20
108.5110906455774
 30
0.0
 10
71.885366344766
 20
108.513581412622
 30
0.0
 10
72.62008492125837
 20
108.5184632166922
 30
0.0
 10
73.34908496933865
 20
108.5238464434141
 30
0.0
 10
73.70613864899441
 20
108.5264830700022
 30
0.0
  0
LINE
  5
174
330
1F
100
AcDbEntity
  8
0
  6
HIDDEN
 62
     7
370
    18
100
AcDbLine
 10
109.5561389097
 20
118.9727171622
 30
0.0
 11
109.5561389097
 21
133.3227169998
 31
0.0
  0
LINE
  5
175
330
1F
100
AcDbEntity
  8
0
  6
HIDDEN
 62
     7
370
    18
100
AcDbLine
 10
109.5561389097
 20
104.6227173247
 30
0.0
 11
109.5561389097
 21
118.9727171622
 31
0.0
  0
SPLINE
  5
176
330
1F
100
AcDbEntity
  8
0
  6
HIDDEN
 62
     7
370
    18
100
AcDbSpline
210
0.0
220
0.0
230
1.0
 70
     8
 71
     3
 72
     8
 73
     4
 74
     0
 42
0.000000001
 43
0.00000001
 40
0.0
 40
0.0
 40
0.0
 40
0.0
 40
1.0
 40
1.0
 40
1.0
 40
1.0
 10
73.83582064652138
 20
108.9127164844927
 30
0.0
 10
73.80787242640186
 20
108.8049001305172
 30
0.0
 10
73.77991233823315
 20
108.6973062803509
 30
0.0
 10
73.75194015069891
 20
108.5899369995663
 30
0.0
  0
SPLINE
  5
177
330
1F
100
AcDbEntity
  8
0
  6
HIDDEN
 62
     7
370
    18
100
AcDbSpline
210
0.0
220
0.0
230
1.0
 70
     8
 71
     3
 72
     8
 73
     4
 74
     0
 42
0.000000001
 43
0.00000001
 40
0.0
 40
0.0
 40
0.0
 40
0.0
 40
1.0
 40
1.0
 40
1.0
 40
1.0
 10
123.8903367083343
 20
123.8624244419155
 30
0.0
 10
123.541935303654
 20
123.4244491155015
 30
0.0
 10
123.1973669184211
 20
122.9813659769167
 30
0.0
 10
122.8589826191003
 20
122.5279749050681
 30
0.0
  0
LINE
  5
178
330
1F
100
AcDbEntity
  8
0
  6
HIDDEN
 62
     7
370
    18
100
AcDbLine
 10
118.6811387756
 20
144.9826567732
 30
0.0
 11
118.6811387756
 21
142.8723617755
 31
0.0
  0
SPLINE
  5
179
330
1F
100
AcDbEntity
  8
0
  6
HIDDEN
 62
     7
370
    18
100
AcDbSpline
210
0.0
220
0.0
230
1.0
 70
     8
 71
     3
 72
    10
 73
     6
 74
     0
 42
0.000000001
 43
0.00000001
 40
0.0
 40
0.0
 40
0.0
 40
0.0
 40
0.5
 40
0.5
 40
1.0
 40
1.0
 40
1.0
 40
1.0
 10
117.2219410991945
 20
115.6778190767125
 30
0.0
 10
117.4169870927838
 20
115.9395382009625
 30
0.0
 10
117.609773634963
 20
116.2048735867839
 30
0.0
 10
117.9877225750106
 20
116.7501928809096
 30
0.0
 10
118.173271949888
 20
117.029185585037
 30
0.0
 10
118.3501570963114
 20
117.3276359003936
 30
0.0
  0
LINE
  5
17A
330
1F
100
AcDbEntity
  8
0
  6
HIDDEN
 62
     7
370
    18
100
AcDbLine
 10
118.6811387756
 20
95.519161161
 30
0.0
 11
118.6811387756
 21
92.6366749518
 31
0.0
  0
SPLINE
  5
17B
330
1F
100
AcDbEntity
  8
0
  6
HIDDEN
 62
     7
370
    18
100
AcDbSpline
210
0.0
220
0.0
230
1.0
 70
     8
 71
     3
 72
     8
 73
     4
 74
     0
 42
0.000000001
 43
0.00000001
 40
0.0
 40
0.0
 40
0.0
 40
0.0
 40
1.0
 40
1.0
 40
1.0
 40
1.0
 10
122.8589826191005
 20
115.41745941939
 30
0.0
 10
123.1973669184213
 20
114.9640683475415
 30
0.0
 10
123.5419353036541
 20
114.5209852089568
 30
0.0
 10
123.8903367083343
 20
114.083009882543
 30
0.0
  0
LINE
  5
17C
330
1F
100
AcDbEntity
  8
0
  6
HIDDEN
 62
     7
370
    18
100
AcDbLine
 10
122.4311389246
 20
145.5882101618
 30
0.0
 11
122.4311389246
 21
142.0069116466
 31
0.0
  0
LINE
  5
17D
330
1F
100
AcDbEntity
  8
0
  6
HIDDEN
 62
     7
370
    18
100
AcDbLine
 10
218.6561417052
 20
129.9727171026
 30
0.0
 11
218.6561417052
 21
107.9727172218
 31
0.0
  0
LINE
  5
17E
330
1F
100
AcDbEntity
  8
0
  6
HIDDEN
 62
     7
370
    18
100
AcDbLine
 10
219.1561352679
 20
129.4727170207
 30
0.0
 11
219.1561352679
 21
108.4727173038
 31
0.0
  0
LINE
  5
17F
330
1F
100
AcDbEntity
  8
0
  6
HIDDEN
 62
     7
370
    18
100
AcDbLine
 10
122.4311389246
 20
96.2529818825
 30
0.0
 11
122.4311389246
 21
92.1633805446
 31
0.0
  0
SPLINE
  5
180
330
1F
100
AcDbEntity
  8
0
  6
HIDDEN
 62
     7
370
    18
100
AcDbSpline
210
0.0
220
0.0
230
1.0
 70
     8
 71
     3
 72
     9
 73
     5
 74
     0
 42
0.000000001
 43
0.00000001
 40
0.0
 40
0.0
 40
0.0
 40
0.0
 40
0.9591152569877138
 40
1.0
 40
1.0
 40
1.0
 40
1.0
 10
83.11236875441445
 20
141.0517174117343
 30
0.0
 10
82.91489250731733
 20
141.0971628768554
 30
0.0
 10
82.70899832967977
 20
141.1445455712606
 30
0.0
 10
82.54071690192622
 20
141.1881235194959
 30
0.0
 10
82.53383675899876
 20
141.1899051927106
 30
0.0
  0
SPLINE
  5
181
330
1F
100
AcDbEntity
  8
0
  6
HIDDEN
 62
     7
370
    18
100
AcDbSpline
210
0.0
220
0.0
230
1.0
 70
     8
 71
     3
 72
    32
 73
    28
 74
     0
 42
0.000000001
 43
0.00000001
 40
0.0
 40
0.0
 40
0.0
 40
0.0
 40
0.0016935382016407
 40
0.0607738036751971
 40
0.0819247567043923
 40
0.1038025866733339
 40
0.1264135982578357
 40
0.160028155262778
 40
0.2017505931983794
 40
0.251581677108395
 40
0.2991228936157874
 40
0.3407348190943467
 40
0.3769502765270905
 40
0.4406842906891845
 40
0.5013039242238192
 40
0.5605605299711148
 40
0.5819092530875223
 40
0.6040574454427825
 40
0.6260053412191184
 40
0.6572584366448582
 40
0.6992472434248639
 40
0.7519664140889825
 40
0.7978704148615533
 40
0.839643622240953
 40
0.8773139476831658
 40
0.9422541059545169
 40
1.0
 40
1.0
 40
1.0
 40
1.0
 10
81.00969011273754
 20
141.6356100998894
 30
0.0
 10
81.00852050530685
 20
141.6360285921241
 30
0.0
 10
80.96654832404667
 20
141.6510464788698
 30
0.0
 10
81.0774138068684
 20
141.609761143513
 30
0.0
 10
81.24566913431785
 20
141.5540783792369
 30
0.0
 10
81.39261114702043
 20
141.5072079889513
 30
0.0
 10
81.60472119357709
 20
141.4426795298081
 30
0.0
 10
81.93150710289402
 20
141.3455456421401
 30
0.0
 10
82.44636823801066
 20
141.207637164444
 30
0.0
 10
83.13939282595081
 20
141.0404832229229
 30
0.0
 10
83.94487732231721
 20
140.8775091720823
 30
0.0
 10
84.75229627983022
 20
140.7518990081386
 30
0.0
 10
85.72934639446612
 20
140.6379817711028
 30
0.0
 10
86.91846872413453
 20
140.5739261463448
 30
0.0
 10
88.32893416497268
 20
140.6046475846211
 30
0.0
 10
89.4064004750614
 20
140.7196699403085
 30
0.0
 10
90.16433718657798
 20
140.8347815182283
 30
0.0
 10
90.63693346576616
 20
140.9180255977901
 30
0.0
 10
91.16649986847558
 20
141.0234620544986
 30
0.0
 10
91.80932481827924
 20
141.1740497515824
 30
0.0
 10
92.60650280916896
 20
141.3849867327397
 30
0.0
 10
93.4040728062054
 20
141.632608408028
 30
0.0
 10
94.08719873103604
 20
141.872177627332
 30
0.0
 10
94.59843233227889
 20
142.0612130181187
 30
0.0
 10
95.06853857646611
 20
142.246514335297
 30
0.0
 10
95.43289145527315
 20
142.4008620143948
 30
0.0
 10
95.47955097284456
 20
142.4235105580742
 30
0.0
 10
95.50151268329991
 20
142.4341707788483
 30
0.0
  0
SPLINE
  5
182
330
1F
100
AcDbEntity
  8
0
  6
HIDDEN
 62
     7
370
    18
100
AcDbSpline
210
0.0
220
0.0
230
1.0
 70
     8
 71
     3
 72
    33
 73
    29
 74
     0
 42
0.000000001
 43
0.00000001
 40
0.0
 40
0.0
 40
0.0
 40
0.0
 40
0.0583085863915512
 40
0.090124271480991
 40
0.123216666389263
 40
0.1509808679204504
 40
0.1810943195433708
 40
0.2135704417800488
 40
0.2484197975000573
 40
0.2889082615041996
 40
0.323312777281223
 40
0.3516321826071821
 40
0.3738672615640029
 40
0.4400541676477597
 40
0.4704121327819292
 40
0.4989595315836122
 40
0.5588734851139799
 40
0.6235813854476708
 40
0.6610627379907994
 40
0.7026469430227484
 40
0.7487911223930317
 40
0.7864935283359908
 40
0.8199128655278481
 40
0.8490502111130239
 40
0.8739084764902972
 40
0.9394619288088739
 40
0.9986425466836428
 40
0.9999999999999999
 40
0.9999999999999999
 40
0.9999999999999999
 40
0.9999999999999999
 10
95.50277090009821
 20
95.51059113071123
 30
0.0
 10
95.48111120562814
 20
95.52100987576746
 30
0.0
 10
95.44763304562767
 20
95.53711353847046
 30
0.0
 10
95.22080392258245
 20
95.63465743626726
 30
0.0
 10
94.98895045170163
 20
95.72935066108548
 30
0.0
 10
94.69990000000368
 20
95.84386254381741
 30
0.0
 10
94.35983701250183
 20
95.97320325339042
 30
0.0
 10
93.93443699279452
 20
96.12655085792295
 30
0.0
 10
93.40007944303518
 20
96.31188272127928
 30
0.0
 10
92.78887435149086
 20
96.50490507389664
 30
0.0
 10
92.15789778711712
 20
96.68002864114521
 30
0.0
 10
91.60482132899514
 20
96.81984518405706
 30
0.0
 10
90.81198646263896
 20
97.0002452106588
 30
0.0
 10
89.94756636551712
 20
97.15287499742558
 30
0.0
 10
89.0060105201321
 20
97.26825963560871
 30
0.0
 10
88.09957037913254
 20
97.34551099065996
 30
0.0
 10
86.92214478196986
 20
97.368120491584
 30
0.0
 10
85.72168940834057
 20
97.30064687539239
 30
0.0
 10
84.73025378197899
 20
97.18808077000962
 30
0.0
 10
83.92614764096739
 20
97.06449335920067
 30
0.0
 10
83.20085044349187
 20
96.9174172863479
 30
0.0
 10
82.6055399729071
 20
96.77502279054035
 30
0.0
 10
82.16161696748618
 20
96.6612834616688
 30
0.0
 10
81.82958417534053
 20
96.56829609360324
 30
0.0
 10
81.44000034613798
 20
96.45276380587447
 30
0.0
 10
81.12630633002321
 20
96.3537732126663
 30
0.0
 10
80.96640042079875
 20
96.29417474496739
 30
0.0
 10
81.00807211202799
 20
96.30912029475547
 30
0.0
 10
81.00900652196778
 20
96.30945542082945
 30
0.0
  0
LINE
  5
183
330
1F
100
AcDbEntity
  8
0
  6
HIDDEN
 62
     7
370
    18
100
AcDbLine
 10
83.0549303659
 20
96.8793596439
 30
0.0
 11
83.1123836556
 21
96.8935511373
 31
0.0
  0
LINE
  5
184
330
1F
100
AcDbEntity
  8
0
  6
HIDDEN
 62
     7
370
    18
100
AcDbLine
 10
201.3677176305
 20
124.4727171324
 30
0.0
 11
201.3677176305
 21
113.472717192
 31
0.0
  0
SPLINE
  5
185
330
1F
100
AcDbEntity
  8
0
  6
HIDDEN
 62
     7
370
    18
100
AcDbSpline
210
0.0
220
0.0
230
1.0
 70
     8
 71
     3
 72
    14
 73
    10
 74
     0
 42
0.000000001
 43
0.00000001
 40
0.0
 40
0.0
 40
0.0
 40
0.0
 40
0.0003951393068452
 40
0.0003951393068452
 40
0.0003951393068452
 40
0.0008163352168663
 40
0.0008163352168663
 40
0.0008163352168663
 40
0.0012378579337219
 40
0.0012378579337219
 40
0.0012378579337219
 40
0.0012378579337219
 10
85.13658277816393
 20
135.147943637969
 30
0.0
 10
85.2650973377926
 20
135.1767940149809
 30
0.0
 10
85.39366566599377
 20
135.2054593057412
 30
0.0
 10
85.52222008515237
 20
135.2339409588417
 30
0.0
 10
85.65925002664173
 20
135.2643003917063
 30
0.0
 10
85.7962895277219
 20
135.2944564395707
 30
0.0
 10
85.93325218927632
 20
135.3244214529464
 30
0.0
 10
86.07032092302543
 20
135.3544096730464
 30
0.0
 10
86.2073393655089
 20
135.3842121067911
 30
0.0
 10
86.34421558308368
 20
135.4138559770087
 30
0.0
  0
LINE
  5
186
330
1F
100
AcDbEntity
  8
0
  6
HIDDEN
 62
     7
370
    18
100
AcDbLine
 10
86.3369353333
 20
135.4153233878
 30
0.0
 11
86.9009033063
 21
135.3477447592
 31
0.0
  0
SPLINE
  5
187
330
1F
100
AcDbEntity
  8
0
  6
HIDDEN
 62
     7
370
    18
100
AcDbSpline
210
0.0
220
0.0
230
1.0
 70
     8
 71
     3
 72
    23
 73
    19
 74
     0
 42
0.000000001
 43
0.00000001
 40
0.0
 40
0.0
 40
0.0
 40
0.0
 40
0.0003774265960734
 40
0.1024555213677495
 40
0.1385437487197158
 40
0.1756808206971708
 40
0.2138907699049126
 40
0.2765111114456902
 40
0.3478248404124784
 40
0.4278758136191723
 40
0.4924301403983817
 40
0.5496964324256434
 40
0.5996836457173244
 40
0.6424063221200795
 40
0.7547009017503682
 40
0.8558422636630375
 40
0.9570107081324964
 40
0.9999999999999999
 40
0.9999999999999999
 40
0.9999999999999999
 40
0.9999999999999999
 10
95.50564961817635
 20
137.0787083469407
 30
0.0
 10
95.50581193005253
 20
137.0787862431122
 30
0.0
 10
95.54987280989235
 20
137.0999317928561
 30
0.0
 10
95.43840535144217
 20
137.0430426169962
 30
0.0
 10
95.27166195010686
 20
136.9639559864547
 30
0.0
 10
95.12704598113314
 20
136.8974981666719
 30
0.0
 10
94.91045249678528
 20
136.801275165441
 30
0.0
 10
94.5757273082572
 20
136.6564542399385
 30
0.0
 10
94.06198102830949
 20
136.4503022285415
 30
0.0
 10
93.44246567515572
 20
136.2178188765316
 30
0.0
 10
92.78287893737233
 20
135.9970111160835
 30
0.0
 10
92.16800774916784
 20
135.8206737035552
 30
0.0
 10
91.59511309361964
 20
135.6760913271314
 30
0.0
 10
90.77413653859124
 20
135.4980414545768
 30
0.0
 10
89.67258885032189
 20
135.3309576532873
 30
0.0
 10
88.25688470306295
 20
135.2507559021662
 30
0.0
 10
87.14884549379387
 20
135.3118171946902
 30
0.0
 10
86.52422868653825
 20
135.3914337719994
 30
0.0
 10
86.33796165075672
 20
135.4151762388722
 30
0.0
  0
SPLINE
  5
188
330
1F
100
AcDbEntity
  8
0
  6
HIDDEN
 62
     7
370
    18
100
AcDbSpline
210
0.0
220
0.0
230
1.0
 70
     8
 71
     3
 72
    14
 73
    10
 74
     0
 42
0.000000001
 43
0.00000001
 40
0.0
 40
0.0
 40
0.0
 40
0.0
 40
0.0003951407686718
 40
0.0003951407686718
 40
0.0003951407686718
 40
0.0008159291550367
 40
0.0008159291550367
 40
0.0008159291550367
 40
0.0012370378119313
 40
0.0012370378119313
 40
0.0012370378119313
 40
0.0012370378119313
 10
86.3464895140293
 20
135.413549286268
 30
0.0
 10
86.2181919749036
 20
135.3857049630445
 30
0.0
 10
86.08976986081467
 20
135.3577225108842
 30
0.0
 10
85.96129871701896
 20
135.3295800562019
 30
0.0
 10
85.82449023022667
 20
135.2996112513329
 30
0.0
 10
85.68760050123967
 20
135.269455486279
 30
0.0
 10
85.5507155822423
 20
135.2391008051817
 30
0.0
 10
85.41372632559934
 20
135.2087229868684
 30
0.0
 10
85.2767158146043
 20
135.1781404221514
 30
0.0
 10
85.13976569448178
 20
135.1473522125
 30
0.0
  0
SPLINE
  5
189
330
1F
100
AcDbEntity
  8
0
  6
HIDDEN
 62
     7
370
    18
100
AcDbSpline
210
0.0
220
0.0
230
1.0
 70
     8
 71
     3
 72
    14
 73
    10
 74
     0
 42
0.000000001
 43
0.00000001
 40
0.0
 40
0.0
 40
0.0
 40
0.0
 40
0.0003951392850831
 40
0.0003951392850831
 40
0.0003951392850831
 40
0.0008159035679249
 40
0.0008159035679249
 40
0.0008159035679249
 40
0.0012369936130997
 40
0.0012369936130997
 40
0.0012369936130997
 40
0.0012369936130997
 10
85.13402285349613
 20
102.7977441652289
 30
0.0
 10
85.26253209160285
 20
102.7688701975155
 30
0.0
 10
85.39109559933186
 20
102.7401819840392
 30
0.0
 10
85.51964597761524
 20
102.7116791400017
 30
0.0
 10
85.65653122527884
 20
102.681328246311
 30
0.0
 10
85.79342687117867
 20
102.651182281282
 30
0.0
 10
85.93024713252773
 20
102.6212304617135
 30
0.0
 10
86.06717312147263
 20
102.5912554969336
 30
0.0
 10
86.20405019343681
 20
102.5614694474884
 30
0.0
 10
86.34078704262396
 20
102.5318469743197
 30
0.0
  0
SPLINE
  5
18A
330
1F
100
AcDbEntity
  8
0
  6
HIDDEN
 62
     7
370
    18
100
AcDbSpline
210
0.0
220
0.0
230
1.0
 70
     8
 71
     3
 72
    21
 73
    17
 74
     0
 42
0.000000001
 43
0.00000001
 40
0.0
 40
0.0
 40
0.0
 40
0.0
 40
0.0432235603570996
 40
0.1443778123843295
 40
0.2455588758278881
 40
0.2817714436538096
 40
0.3192504507509071
 40
0.3580228312145112
 40
0.4167231914966701
 40
0.4882418226537518
 40
0.5726027241224986
 40
0.6527991809636644
 40
0.7242952380189833
 40
0.78713531374843
 40
0.8985863182278712
 40
1.0
 40
1.0
 40
1.0
 40
1.0
 10
86.33532041993512
 20
102.5305821858422
 30
0.0
 10
86.52257277696737
 20
102.5544704866454
 30
0.0
 10
87.14804382675528
 20
102.6342635574394
 30
0.0
 10
88.25684458536371
 20
102.694624714423
 30
0.0
 10
89.33123383473759
 20
102.6333363470503
 30
0.0
 10
90.09374841360724
 20
102.5437042420345
 30
0.0
 10
90.57396576532237
 20
102.4721535637975
 30
0.0
 10
91.13448001147228
 20
102.3712569933922
 30
0.0
 10
91.80675064053892
 20
102.2202386115108
 30
0.0
 10
92.60216254703325
 20
102.0061039569253
 30
0.0
 10
93.3870696340249
 20
101.7487919280812
 30
0.0
 10
94.0636525705378
 20
101.4945070518147
 30
0.0
 10
94.57898851245422
 20
101.2876870658081
 30
0.0
 10
95.05318223548588
 20
101.0829240474762
 30
0.0
 10
95.42740073583798
 20
100.9086942560503
 30
0.0
 10
95.48016124564602
 20
100.8803960347334
 30
0.0
 10
95.50529757824314
 20
100.8669141046778
 30
0.0
  0
SPLINE
  5
18B
330
1F
100
AcDbEntity
  8
0
  6
HIDDEN
 62
     7
370
    18
100
AcDbSpline
210
0.0
220
0.0
230
1.0
 70
     8
 71
     3
 72
     9
 73
     5
 74
     0
 42
0.000000001
 43
0.00000001
 40
0.0
 40
0.0
 40
0.0
 40
0.0
 40
0.5498441221966781
 40
0.9999999999999999
 40
0.9999999999999999
 40
0.9999999999999999
 40
0.9999999999999999
 10
87.5921327837981
 20
102.6344842575566
 30
0.0
 10
87.35706896871775
 20
102.6262408481716
 30
0.0
 10
86.92955905165023
 20
102.6112485820871
 30
0.0
 10
86.51919379716458
 20
102.5553592534011
 30
0.0
 10
86.33446546581162
 20
102.5302003435866
 30
0.0
  0
SPLINE
  5
18C
330
1F
100
AcDbEntity
  8
0
  6
HIDDEN
 62
     7
370
    18
100
AcDbSpline
210
0.0
220
0.0
230
1.0
 70
     8
 71
     3
 72
    14
 73
    10
 74
     0
 42
0.000000001
 43
0.00000001
 40
0.0
 40
0.0
 40
0.0
 40
0.0
 40
0.0003951409592558
 40
0.0003951409592558
 40
0.0003951409592558
 40
0.0008163452836685
 40
0.0008163452836685
 40
0.0008163452836685
 40
0.00123787248147
 40
0.00123787248147
 40
0.00123787248147
 40
0.00123787248147
 10
86.33882695875774
 20
102.5313916386686
 30
0.0
 10
86.21049281786904
 20
102.5590944973658
 30
0.0
 10
86.08203601696503
 20
102.5869424208133
 30
0.0
 10
85.95353317793717
 20
102.6149605325521
 30
0.0
 10
85.81655577256367
 20
102.6448263960497
 30
0.0
 10
85.67950020831846
 20
102.6748911775386
 30
0.0
 10
85.5424539083461
 20
102.7051699128985
 30
0.0
 10
85.40530239711269
 20
102.735471893424
 30
0.0
 10
85.26813387926163
 20
102.76599370101
 30
0.0
 10
85.13103111660168
 20
102.796738472296
 30
0.0
  0
SPLINE
  5
18D
330
1F
100
AcDbEntity
  8
0
  6
HIDDEN
 62
     7
370
    18
100
AcDbSpline
210
0.0
220
0.0
230
1.0
 70
     8
 71
     3
 72
    19
 73
    15
 74
     0
 42
0.000000001
 43
0.00000001
 40
0.0
 40
0.0
 40
0.0
 40
0.0
 40
0.1134645493961918
 40
0.1919963161840012
 40
0.2515505444201591
 40
0.31107808262141
 40
0.4175869144954087
 40
0.5045350883324
 40
0.5939351603039612
 40
0.6822280146474137
 40
0.7730247818024611
 40
0.8620093870294078
 40
0.9537401927202804
 40
1.0
 40
1.0
 40
1.0
 40
1.0
 10
86.33088359918965
 20
135.4161578528659
 30
0.0
 10
86.41075745039693
 20
135.9104274528626
 30
0.0
 10
86.54591407220377
 20
136.7467939030546
 30
0.0
 10
86.49664599491705
 20
137.8702385650043
 30
0.0
 10
86.17533696377245
 20
138.6966293026326
 30
0.0
 10
85.51831586743465
 20
139.4350576247
 30
0.0
 10
84.62096159661118
 20
139.9856139403077
 30
0.0
 10
83.6663283298503
 20
140.4498755035064
 30
0.0
 10
82.85211649941229
 20
140.7975519673041
 30
0.0
 10
82.14775455398185
 20
141.0785702555737
 30
0.0
 10
81.58948505291795
 20
141.2919847015259
 30
0.0
 10
81.2062059749092
 20
141.4350816720914
 30
0.0
 10
81.01413700686173
 20
141.5058243414321
 30
0.0
 10
81.02491552747739
 20
141.5018544760028
 30
0.0
 10
81.02852890577687
 20
141.5005236230866
 30
0.0
  0
SPLINE
  5
18E
330
1F
100
AcDbEntity
  8
0
  6
HIDDEN
 62
     7
370
    18
100
AcDbSpline
210
0.0
220
0.0
230
1.0
 70
     8
 71
     3
 72
    19
 73
    15
 74
     0
 42
0.000000001
 43
0.00000001
 40
0.0
 40
0.0
 40
0.0
 40
0.0
 40
0.0400070613340384
 40
0.1288258725116855
 40
0.2143802324084731
 40
0.3023272226418974
 40
0.3895871334234892
 40
0.4792245965474765
 40
0.5692005270762652
 40
0.6623089444299124
 40
0.7308962992037431
 40
0.8002622924212397
 40
0.8837002515151331
 40
1.0
 40
1.0
 40
1.0
 40
1.0
 10
81.02852890577687
 20
96.44491070137182
 30
0.0
 10
81.0237226753788
 20
96.4431416108583
 30
0.0
 10
81.00824623687322
 20
96.43744500077605
 30
0.0
 10
81.17912295607285
 20
96.50035457545246
 30
0.0
 10
81.52708552435072
 20
96.63002082166116
 30
0.0
 10
82.04543893381548
 20
96.82731243358525
 30
0.0
 10
82.71593015635288
 20
97.09234418147115
 30
0.0
 10
83.51668449975716
 20
97.42919574152944
 30
0.0
 10
84.42869212264479
 20
97.85937248240306
 30
0.0
 10
85.31119761797333
 20
98.37434264275839
 30
0.0
 10
86.05163343879585
 20
99.0473270975719
 30
0.0
 10
86.48582935204549
 20
99.94760918987102
 30
0.0
 10
86.55260783313852
 20
101.1540171107379
 30
0.0
 10
86.41239899388674
 20
102.0236148542992
 30
0.0
 10
86.3307606646098
 20
102.5299488864915
 30
0.0
  0
LINE
  5
18F
330
1F
100
AcDbEntity
  8
0
  6
HIDDEN
 62
     7
370
    18
100
AcDbLine
 10
114.2061389269
 20
118.9727171622
 30
0.0
 11
114.2061389269
 21
124.7227171734
 31
0.0
  0
LINE
  5
190
330
1F
100
AcDbEntity
  8
0
  6
HIDDEN
 62
     7
370
    18
100
AcDbLine
 10
114.2061389269
 20
113.2227171511
 30
0.0
 11
114.2061389269
 21
118.9727171622
 31
0.0
  0
LINE
  5
191
330
1F
100
AcDbEntity
  8
0
  6
HIDDEN
 62
     7
370
    18
100
AcDbLine
 10
113.3811389313
 20
118.9727171622
 30
0.0
 11
113.3811389313
 21
124.7227171734
 31
0.0
  0
LINE
  5
192
330
1F
100
AcDbEntity
  8
0
  6
HIDDEN
 62
     7
370
    18
100
AcDbLine
 10
113.3811389313
 20
113.2227171511
 30
0.0
 11
113.3811389313
 21
118.9727171622
 31
0.0
  0
LINE
  5
193
330
1F
100
AcDbEntity
  8
0
  6
HIDDEN
 62
     7
370
    18
100
AcDbLine
 10
196.5732541153
 20
123.2227173932
 30
0.0
 11
196.5732541153
 21
114.7227169313
 31
0.0
  0
LINE
  5
194
330
1F
100
AcDbEntity
  8
0
  6
HIDDEN
 62
     7
370
    18
100
AcDbLine
 10
197.1561353871
 20
124.4727171324
 30
0.0
 11
197.1561353871
 21
113.472717192
 31
0.0
  0
LINE
  5
195
330
1F
100
AcDbEntity
  8
0
  6
HIDDEN
 62
     7
370
    18
100
AcDbLine
 10
109.9561389287
 20
118.9727171622
 30
0.0
 11
109.9561389287
 21
123.9727170505
 31
0.0
  0
LINE
  5
196
330
1F
100
AcDbEntity
  8
0
  6
HIDDEN
 62
     7
370
    18
100
AcDbLine
 10
109.9561389287
 20
113.972717274
 30
0.0
 11
109.9561389287
 21
118.9727171622
 31
0.0
  0
LINE
  5
197
330
1F
100
AcDbEntity
  8
0
  6
HIDDEN
 62
     7
370
    18
100
AcDbLine
 10
154.0651474365
 20
122.9727173522
 30
0.0
 11
154.0651474365
 21
114.9727169722
 31
0.0
  0
LINE
  5
198
330
1F
100
AcDbEntity
  8
0
  6
HIDDEN
 62
     7
370
    18
100
AcDbLine
 10
154.1561376521
 20
123.2227173932
 30
0.0
 11
154.1561376521
 21
114.7227169313
 31
0.0
  0
SPLINE
  5
199
330
1F
100
AcDbEntity
  8
0
  6
HIDDEN
 62
     7
370
    18
100
AcDbSpline
210
0.0
220
0.0
230
1.0
 70
     8
 71
     3
 72
     8
 73
     4
 74
     0
 42
0.000000001
 43
0.00000001
 40
0.0
 40
0.0
 40
0.0
 40
0.0
 40
1.0
 40
1.0
 40
1.0
 40
1.0
 10
73.75217030017106
 20
108.590254028164
 30
0.0
 10
73.78009235424729
 20
108.6975179289955
 30
0.0
 10
73.8080023171964
 20
108.8050061017255
 30
0.0
 10
73.83590042009628
 20
108.9127164842259
 30
0.0
  0
SPLINE
  5
19A
330
1F
100
AcDbEntity
  8
0
  6
HIDDEN
 62
     7
370
    18
100
AcDbSpline
210
0.0
220
0.0
230
1.0
 70
     8
 71
     3
 72
     8
 73
     4
 74
     0
 42
0.000000001
 43
0.00000001
 40
0.0
 40
0.0
 40
0.0
 40
0.0
 40
1.0
 40
1.0
 40
1.0
 40
1.0
 10
80.31679667071666
 20
110.5267205092638
 30
0.0
 10
80.3073772416024
 20
110.6580580649573
 30
0.0
 10
80.28576171828716
 20
110.7867426602779
 30
0.0
 10
80.25662406042439
 20
110.9102171622292
 30
0.0
  0
SPLINE
  5
19B
330
1F
100
AcDbEntity
  8
0
  6
HIDDEN
 62
     7
370
    18
100
AcDbSpline
210
0.0
220
0.0
230
1.0
 70
     8
 71
     3
 72
     8
 73
     4
 74
     0
 42
0.000000001
 43
0.00000001
 40
0.0
 40
0.0
 40
0.0
 40
0.0
 40
1.0
 40
1.0
 40
1.0
 40
1.0
 10
73.74774831508557
 20
127.1852173570122
 30
0.0
 10
73.71435638432034
 20
127.2875195361228
 30
0.0
 10
73.68096188108365
 20
127.389713459866
 30
0.0
 10
73.64756477704753
 20
127.4917984231091
 30
0.0
  0
SPLINE
  5
19C
330
1F
100
AcDbEntity
  8
0
  6
HIDDEN
 62
     7
370
    18
100
AcDbSpline
210
0.0
220
0.0
230
1.0
 70
     8
 71
     3
 72
     8
 73
     4
 74
     0
 42
0.000000001
 43
0.00000001
 40
0.0
 40
0.0
 40
0.0
 40
0.0
 40
1.0
 40
1.0
 40
1.0
 40
1.0
 10
85.74232111765723
 20
127.4136104033266
 30
0.0
 10
85.47301657612147
 20
127.3169017050263
 30
0.0
 10
85.23685384201792
 20
127.1888821134548
 30
0.0
 10
85.0276591129861
 20
127.035384360191
 30
0.0
  0
SPLINE
  5
19D
330
1F
100
AcDbEntity
  8
0
  6
HIDDEN
 62
     7
370
    18
100
AcDbSpline
210
0.0
220
0.0
230
1.0
 70
     8
 71
     3
 72
     8
 73
     4
 74
     0
 42
0.000000001
 43
0.00000001
 40
0.0
 40
0.0
 40
0.0
 40
0.0
 40
1.0
 40
1.0
 40
1.0
 40
1.0
 10
85.02814773412746
 20
110.9100396277903
 30
0.0
 10
85.23761045955345
 20
110.7562873162903
 30
0.0
 10
85.47391265013052
 20
110.6278786930827
 30
0.0
 10
85.7437397418254
 20
110.5311266114337
 30
0.0
  0
CIRCLE
  5
19E
330
1F
100
AcDbEntity
  8
0
  6
HIDDEN
 62
     7
370
    18
100
AcDbCircle
 10
121.7061389038
 20
118.9727171622
 30
0.0
 40
3.737499999999997
  0
LINE
  5
19F
330
1F
100
AcDbEntity
  8
0
  6
HIDDEN
 62
     7
370
    18
100
AcDbLine
 10
80.0935108432
 20
109.9932438992
 30
0.0
 11
79.9213987061
 21
110.7652600221
 31
0.0
  0
SPLINE
  5
1A0
330
1F
100
AcDbEntity
  8
0
  6
HIDDEN
 62
     7
370
    18
100
AcDbSpline
210
0.0
220
0.0
230
1.0
 70
     8
 71
     3
 72
    11
 73
     7
 74
     0
 42
0.000000001
 43
0.00000001
 40
0.0
 40
0.0
 40
0.0
 40
0.0
 40
0.2392771050932752
 40
0.5001130256943688
 40
0.7515027953436293
 40
1.0
 40
1.0
 40
1.0
 40
1.0
 10
85.3286382160429
 20
127.0346724136451
 30
0.0
 10
85.25981942376907
 20
127.1062190202889
 30
0.0
 10
85.11598128089585
 20
127.255758567388
 30
0.0
 10
84.90824118703036
 20
127.4846701340794
 30
0.0
 10
84.70025760814757
 20
127.7169851333191
 30
0.0
 10
84.567261016215
 20
127.8717560301728
 30
0.0
 10
84.50114750851662
 20
127.9486936924987
 30
0.0
  0
SPLINE
  5
1A1
330
1F
100
AcDbEntity
  8
0
  6
HIDDEN
 62
     7
370
    18
100
AcDbSpline
210
0.0
220
0.0
230
1.0
 70
     8
 71
     3
 72
    14
 73
    10
 74
     0
 42
0.000000001
 43
0.00000001
 40
0.0
 40
0.0
 40
0.0
 40
0.0
 40
0.031029407069852
 40
0.0622870827664419
 40
0.1248019131209296
 40
0.2498303412945997
 40
0.4998901702455407
 40
0.7607014799540492
 40
1.0
 40
1.0
 40
1.0
 40
1.0
 10
84.50196644036522
 20
109.9961817137424
 30
0.0
 10
84.5102544094833
 20
110.0057557751465
 30
0.0
 10
84.52689131837626
 20
110.0249743297824
 30
0.0
 10
84.56013272993602
 20
110.0635850725997
 30
0.0
 10
84.61861903438616
 20
110.1311533256518
 30
0.0
 10
84.73612329384929
 20
110.2660672992237
 30
0.0
 10
84.90901059834854
 20
110.4611181214058
 30
0.0
 10
85.11660287474943
 20
110.689540345986
 30
0.0
 10
85.26038123770805
 20
110.8391969253945
 30
0.0
 10
85.32917802478083
 20
110.9108063916295
 30
0.0
  0
LINE
  5
1A2
330
1F
100
AcDbEntity
  8
0
  6
HIDDEN
 62
     7
370
    18
100
AcDbLine
 10
219.6561362812
 20
107.7227167152
 30
0.0
 11
221.8561362692
 21
107.7227167152
 31
0.0
  0
LINE
  5
1A3
330
1F
100
AcDbEntity
  8
0
  6
HIDDEN
 62
     7
370
    18
100
AcDbLine
 10
221.8561362692
 20
130.2227176093
 30
0.0
 11
219.6561362812
 21
130.2227176093
 31
0.0
  0
LINE
  5
1A4
330
1F
100
AcDbEntity
  8
0
  6
HIDDEN
 62
     7
370
    18
100
AcDbLine
 10
219.6561362812
 20
130.2227176093
 30
0.0
 11
217.5116282174
 21
129.2227174454
 31
0.0
  0
LINE
  5
1A5
330
1F
100
AcDbEntity
  8
0
  6
HIDDEN
 62
     7
370
    18
100
AcDbLine
 10
217.5116282174
 20
108.7227168791
 30
0.0
 11
219.6561362812
 21
107.7227167152
 31
0.0
  0
ARC
  5
1A6
330
1F
100
AcDbEntity
  8
0
  6
HIDDEN
 62
     7
370
    18
100
AcDbCircle
 10
221.8561389038
 20
108.5227171622
 30
0.0
 40
0.7999999999999972
100
AcDbArc
 50
270.0
 51
0.0
  0
ARC
  5
1A7
330
1F
100
AcDbEntity
  8
0
  6
HIDDEN
 62
     7
370
    18
100
AcDbCircle
 10
221.8561389038
 20
129.4227171622
 30
0.0
 40
0.8000000000000114
100
AcDbArc
 50
0.0
 51
90.0
  0
ARC
  5
1A8
330
1F
100
AcDbEntity
  8
0
  6
HIDDEN
 62
     7
370
    18
100
AcDbCircle
 10
223.9061389038
 20
108.2655374491
 30
0.0
 40
0.4000000000000277
100
AcDbArc
 50
180.0
 51
299.99999741
  0
ARC
  5
1A9
330
1F
100
AcDbEntity
  8
0
  6
HIDDEN
 62
     7
370
    18
100
AcDbCircle
 10
223.9061389038
 20
129.6798968754
 30
0.0
 40
0.4000000000000523
100
AcDbArc
 50
60.00000259
 51
180.0
  0
LINE
  5
1AA
330
1F
100
AcDbEntity
  8
0
  6
HIDDEN
 62
     7
370
    18
100
AcDbLine
 10
224.1061371037
 20
107.9191270582
 30
0.0
 11
229.4817161032
 21
111.0227166973
 31
0.0
  0
LINE
  5
1AB
330
1F
100
AcDbEntity
  8
0
  6
HIDDEN
 62
     7
370
    18
100
AcDbLine
 10
229.4817161032
 20
126.9227176271
 30
0.0
 11
224.1061371037
 21
130.0263072662
 31
0.0
  0
LINE
  5
1AC
330
1F
100
AcDbEntity
  8
0
  6
HIDDEN
 62
     7
370
    18
100
AcDbLine
 10
212.6561369964
 20
108.7227168791
 30
0.0
 11
217.5116282174
 21
108.7227168791
 31
0.0
  0
LINE
  5
1AD
330
1F
100
AcDbEntity
  8
0
  6
HIDDEN
 62
     7
370
    18
100
AcDbLine
 10
217.5116282174
 20
129.2227174454
 30
0.0
 11
212.6561369964
 21
129.2227174454
 31
0.0
  0
LINE
  5
1AE
330
1F
100
AcDbEntity
  8
0
  6
HIDDEN
 62
     7
370
    18
100
AcDbLine
 10
230.6561362216
 20
127.9227168597
 30
0.0
 11
229.6561416456
 21
126.9227176271
 31
0.0
  0
LINE
  5
1AF
330
1F
100
AcDbEntity
  8
0
  6
HIDDEN
 62
     7
370
    18
100
AcDbLine
 10
229.6561416456
 20
111.0227166973
 30
0.0
 11
230.6561362216
 21
110.0227174647
 31
0.0
  0
LINE
  5
1B0
330
1F
100
AcDbEntity
  8
0
  6
HIDDEN
 62
     7
370
    18
100
AcDbLine
 10
229.4817161032
 20
111.0227166973
 30
0.0
 11
229.6561416456
 21
111.0227166973
 31
0.0
  0
LINE
  5
1B1
330
1F
100
AcDbEntity
  8
0
  6
HIDDEN
 62
     7
370
    18
100
AcDbLine
 10
229.6561416456
 20
126.9227176271
 30
0.0
 11
229.4817161032
 21
126.9227176271
 31
0.0
  0
LINE
  5
1B2
330
1F
100
AcDbEntity
  8
0
  6
HIDDEN
 62
     7
370
    18
100
AcDbLine
 10
110.6561389038
 20
92.1227171384
 30
0.0
 11
110.990177594
 21
93.1821524464
 31
0.0
  0
LINE
  5
1B3
330
1F
100
AcDbEntity
  8
0
  6
HIDDEN
 62
     7
370
    18
100
AcDbLine
 10
110.990177594
 20
144.7632818781
 30
0.0
 11
110.6561389038
 21
145.8227171861
 31
0.0
  0
ARC
  5
1B4
330
1F
100
AcDbEntity
  8
0
  6
HIDDEN
 62
     7
370
    18
100
AcDbCircle
 10
110.2272040292
 20
93.4227171622
 30
0.0
 40
0.8000000000000139
100
AcDbArc
 50
342.5
 51
0.0
  0
ARC
  5
1B5
330
1F
100
AcDbEntity
  8
0
  6
HIDDEN
 62
     7
370
    18
100
AcDbCircle
 10
110.2272040292
 20
93.4227171622
 30
0.0
 40
0.8000000000000158
100
AcDbArc
 50
0.0
 51
57.576802718
  0
ARC
  5
1B6
330
1F
100
AcDbEntity
  8
0
  6
HIDDEN
 62
     7
370
    18
100
AcDbCircle
 10
110.2272040292
 20
144.5227171622
 30
0.0
 40
0.8000000000000265
100
AcDbArc
 50
346.5625
 51
17.5
  0
ARC
  5
1B7
330
1F
100
AcDbEntity
  8
0
  6
HIDDEN
 62
     7
370
    18
100
AcDbCircle
 10
110.2272040292
 20
144.5227171622
 30
0.0
 40
0.8000000000000265
100
AcDbArc
 50
302.423197282
 51
346.5625
  0
LINE
  5
1B8
330
1F
100
AcDbEntity
  8
0
  6
HIDDEN
 62
     7
370
    18
100
AcDbLine
 10
111.02720404
 20
93.4227167927
 30
0.0
 11
111.02720404
 21
144.5227175318
 31
0.0
  0
LINE
  5
1B9
330
1F
100
AcDbEntity
  8
0
  6
HIDDEN
 62
     7
370
    18
100
AcDbLine
 10
126.6294758984
 20
93.6350769661
 30
0.0
 11
125.1660431021
 21
94.669878792
 31
0.0
  0
LINE
  5
1BA
330
1F
100
AcDbEntity
  8
0
  6
HIDDEN
 62
     7
370
    18
100
AcDbLine
 10
118.2462344163
 20
94.669878792
 30
0.0
 11
116.7980864861
 21
93.6458840333
 31
0.0
  0
LINE
  5
1BB
330
1F
100
AcDbEntity
  8
0
  6
HIDDEN
 62
     7
370
    18
100
AcDbLine
 10
117.9686388218
 20
145.0916494541
 30
0.0
 11
117.9686388218
 21
135.0591390692
 31
0.0
  0
LINE
  5
1BC
330
1F
100
AcDbEntity
  8
0
  6
HIDDEN
 62
     7
370
    18
100
AcDbLine
 10
125.4436386966
 20
135.0591390692
 30
0.0
 11
125.4436386966
 21
146.2275053673
 31
0.0
  0
LINE
  5
1BD
330
1F
100
AcDbEntity
  8
0
  6
HIDDEN
 62
     7
370
    18
100
AcDbLine
 10
125.9436387786
 20
93.4466182552
 30
0.0
 11
125.9436387786
 21
100.3748218827
 31
0.0
  0
LINE
  5
1BE
330
1F
100
AcDbEntity
  8
0
  6
HIDDEN
 62
     7
370
    18
100
AcDbLine
 10
117.4686387399
 20
100.3748218827
 30
0.0
 11
117.4686387399
 21
93.4466182552
 31
0.0
  0
ARC
  5
1BF
330
1F
100
AcDbEntity
  8
0
  6
HIDDEN
 62
     7
370
    18
100
AcDbCircle
 10
103.8561389038
 20
101.5227171622
 30
0.0
 40
0.8000000000000114
100
AcDbArc
 50
270.0
 51
0.0
  0
ARC
  5
1C0
330
1F
100
AcDbEntity
  8
0
  6
HIDDEN
 62
     7
370
    18
100
AcDbCircle
 10
103.8561389038
 20
136.4227171622
 30
0.0
 40
0.8000000000000114
100
AcDbArc
 50
0.0
 51
90.0
  0
LINE
  5
1C1
330
1F
100
AcDbEntity
  8
0
  6
HIDDEN
 62
     7
370
    18
100
AcDbLine
 10
102.4313796529
 20
100.7227174305
 30
0.0
 11
103.8561388136
 21
100.7227174305
 31
0.0
  0
LINE
  5
1C2
330
1F
100
AcDbEntity
  8
0
  6
HIDDEN
 62
     7
370
    18
100
AcDbLine
 10
103.8561388136
 20
137.222716894
 30
0.0
 11
102.4313796529
 21
137.222716894
 31
0.0
  0
ARC
  5
1C3
330
1F
100
AcDbEntity
  8
0
  6
HIDDEN
 62
     7
370
    18
100
AcDbCircle
 10
102.4313793773
 20
101.5227171622
 30
0.0
 40
0.7999999999999873
100
AcDbArc
 50
240.0
 51
270.0
  0
ARC
  5
1C4
330
1F
100
AcDbEntity
  8
0
  6
HIDDEN
 62
     7
370
    18
100
AcDbCircle
 10
102.4313793773
 20
136.4227171622
 30
0.0
 40
0.8000000000000114
100
AcDbArc
 50
90.0
 51
120.0
  0
LINE
  5
1C5
330
1F
100
AcDbEntity
  8
0
  6
HIDDEN
 62
     7
370
    18
100
AcDbLine
 10
102.0313794011
 20
137.1155365668
 30
0.0
 11
101.1561392092
 21
136.6102177017
 31
0.0
  0
LINE
  5
1C6
330
1F
100
AcDbEntity
  8
0
  6
HIDDEN
 62
     7
370
    18
100
AcDbLine
 10
101.1561392092
 20
101.3352166228
 30
0.0
 11
102.0313794011
 21
100.8298977576
 31
0.0
  0
LINE
  5
1C7
330
1F
100
AcDbEntity
  8
0
  6
HIDDEN
 62
     7
370
    18
100
AcDbLine
 10
71.4578036436
 20
137.9082932435
 30
0.0
 11
70.7061406442
 21
139.2102170102
 31
0.0
  0
LINE
  5
1C8
330
1F
100
AcDbEntity
  8
0
  6
HIDDEN
 62
     7
370
    18
100
AcDbLine
 10
96.1317321503
 20
101.3352166228
 30
0.0
 11
101.1561392092
 21
101.3352166228
 31
0.0
  0
LINE
  5
1C9
330
1F
100
AcDbEntity
  8
0
  6
HIDDEN
 62
     7
370
    18
100
AcDbLine
 10
73.7061392733
 20
101.3352166228
 30
0.0
 11
77.5953684219
 21
101.3352166228
 31
0.0
  0
LINE
  5
1CA
330
1F
100
AcDbEntity
  8
0
  6
HIDDEN
 62
     7
370
    18
100
AcDbLine
 10
77.5953684219
 20
136.6102177017
 30
0.0
 11
73.7061392733
 21
136.6102177017
 31
0.0
  0
LINE
  5
1CB
330
1F
100
AcDbEntity
  8
0
  6
HIDDEN
 62
     7
370
    18
100
AcDbLine
 10
101.1561392092
 20
136.6102177017
 30
0.0
 11
96.1313093298
 21
136.6102177017
 31
0.0
  0
LINE
  5
1CC
330
1F
100
AcDbEntity
  8
0
  6
HIDDEN
 62
     7
370
    18
100
AcDbLine
 10
70.7061406442
 20
98.7352173142
 30
0.0
 11
71.4578036436
 21
100.037141081
 31
0.0
  0
LINE
  5
1CD
330
1F
100
AcDbEntity
  8
0
  6
HIDDEN
 62
     7
370
    18
100
AcDbLine
 10
73.7061392733
 20
136.6102177017
 30
0.0
 11
71.4578036436
 21
137.9082932435
 31
0.0
  0
LINE
  5
1CE
330
1F
100
AcDbEntity
  8
0
  6
HIDDEN
 62
     7
370
    18
100
AcDbLine
 10
71.4578036436
 20
100.037141081
 30
0.0
 11
73.7061392733
 21
101.3352166228
 31
0.0
  0
ARC
  5
1CF
330
1F
100
AcDbEntity
  8
0
  6
HIDDEN
 62
     7
370
    18
100
AcDbCircle
 10
108.3561389038
 20
104.6227171622
 30
0.0
 40
1.200000000000003
100
AcDbArc
 50
270.0
 51
0.0
  0
ARC
  5
1D0
330
1F
100
AcDbEntity
  8
0
  6
HIDDEN
 62
     7
370
    18
100
AcDbCircle
 10
108.3561389038
 20
133.3227171622
 30
0.0
 40
1.200000000000017
100
AcDbArc
 50
0.0
 51
90.0
  0
LINE
  5
1D1
330
1F
100
AcDbEntity
  8
0
  6
HIDDEN
 62
     7
370
    18
100
AcDbLine
 10
104.6561388516
 20
103.4227175005
 30
0.0
 11
108.3561388527
 21
103.4227175005
 31
0.0
  0
LINE
  5
1D2
330
1F
100
AcDbEntity
  8
0
  6
HIDDEN
 62
     7
370
    18
100
AcDbLine
 10
108.3561388527
 20
134.522716824
 30
0.0
 11
104.6561388516
 21
134.522716824
 31
0.0
  0
LINE
  5
1D3
330
1F
100
AcDbEntity
  8
0
  6
HIDDEN
 62
     7
370
    18
100
AcDbLine
 10
122.8798929819
 20
102.4106688164
 30
0.0
 11
121.7061387592
 21
102.57984915
 31
0.0
  0
LINE
  5
1D4
330
1F
100
AcDbEntity
  8
0
  6
HIDDEN
 62
     7
370
    18
100
AcDbLine
 10
121.7061387592
 20
102.57984915
 30
0.0
 11
120.5323854679
 21
102.4106688164
 31
0.0
  0
LINE
  5
1D5
330
1F
100
AcDbEntity
  8
0
  6
HIDDEN
 62
     7
370
    18
100
AcDbLine
 10
120.6708815166
 20
133.2635090984
 30
0.0
 11
121.7061387592
 21
133.1142916642
 31
0.0
  0
LINE
  5
1D6
330
1F
100
AcDbEntity
  8
0
  6
HIDDEN
 62
     7
370
    18
100
AcDbLine
 10
121.7061387592
 20
133.1142916642
 30
0.0
 11
122.7413969332
 21
133.2635090984
 31
0.0
  0
LINE
  5
1D7
330
1F
100
AcDbEntity
  8
0
  6
HIDDEN
 62
     7
370
    18
100
AcDbLine
 10
218.6561417052
 20
129.9727171026
 30
0.0
 11
212.6561369964
 21
129.9727171026
 31
0.0
  0
LINE
  5
1D8
330
1F
100
AcDbEntity
  8
0
  6
HIDDEN
 62
     7
370
    18
100
AcDbLine
 10
212.6561369964
 20
107.9727172218
 30
0.0
 11
218.6561417052
 21
107.9727172218
 31
0.0
  0
LINE
  5
1D9
330
1F
100
AcDbEntity
  8
0
  6
HIDDEN
 62
     7
370
    18
100
AcDbLine
 10
218.6561417052
 20
107.9727172218
 30
0.0
 11
219.1561352679
 21
108.4727173038
 31
0.0
  0
LINE
  5
1DA
330
1F
100
AcDbEntity
  8
0
  6
HIDDEN
 62
     7
370
    18
100
AcDbLine
 10
219.1561352679
 20
129.4727170207
 30
0.0
 11
218.6561417052
 21
129.9727171026
 31
0.0
  0
ARC
  5
1DB
330
1F
100
AcDbEntity
  8
0
  6
HIDDEN
 62
     7
370
    18
100
AcDbCircle
 10
218.5561389038
 20
127.4942892049
 30
0.0
 40
0.5999999999999992
100
AcDbArc
 50
278.0
 51
0.0
  0
ARC
  5
1DC
330
1F
100
AcDbEntity
  8
0
  6
HIDDEN
 62
     7
370
    18
100
AcDbCircle
 10
218.5561389038
 20
110.4511451195
 30
0.0
 40
0.5999999999999992
100
AcDbArc
 50
0.0
 51
82.0
  0
LINE
  5
1DD
330
1F
100
AcDbEntity
  8
0
  6
HIDDEN
 62
     7
370
    18
100
AcDbLine
 10
80.2562985786
 20
142.4460954331
 30
0.0
 11
81.0061492243
 21
141.6368729733
 31
0.0
  0
LINE
  5
1DE
330
1F
100
AcDbEntity
  8
0
  6
HIDDEN
 62
     7
370
    18
100
AcDbLine
 10
95.5061702275
 20
142.4362774305
 30
0.0
 11
96.1747490087
 21
143.2454998903
 31
0.0
  0
LINE
  5
1DF
330
1F
100
AcDbEntity
  8
0
  6
HIDDEN
 62
     7
370
    18
100
AcDbLine
 10
96.1744826504
 20
94.6999530606
 30
0.0
 11
95.5061525324
 21
95.5090656243
 31
0.0
  0
LINE
  5
1E0
330
1F
100
AcDbEntity
  8
0
  6
HIDDEN
 62
     7
370
    18
100
AcDbLine
 10
81.0061622628
 20
96.3084421419
 30
0.0
 11
80.2565723875
 21
95.4993295781
 31
0.0
  0
LINE
  5
1E1
330
1F
100
AcDbEntity
  8
0
  6
HIDDEN
 62
     7
370
    18
100
AcDbLine
 10
218.6396461197
 20
126.9001283981
 30
0.0
 11
201.3677176305
 21
124.4727171324
 31
0.0
  0
LINE
  5
1E2
330
1F
100
AcDbEntity
  8
0
  6
HIDDEN
 62
     7
370
    18
100
AcDbLine
 10
201.3677176305
 20
113.472717192
 30
0.0
 11
218.6396461197
 21
111.0453059264
 31
0.0
  0
LINE
  5
1E3
330
1F
100
AcDbEntity
  8
0
  6
HIDDEN
 62
     7
370
    18
100
AcDbLine
 10
96.1320832589
 20
136.6102177017
 30
0.0
 11
95.5061376312
 21
137.0789430402
 31
0.0
  0
LINE
  5
1E4
330
1F
100
AcDbEntity
  8
0
  6
HIDDEN
 62
     7
370
    18
100
AcDbLine
 10
95.5061450818
 20
100.8664894216
 30
0.0
 11
96.1320916408
 21
101.3352147602
 31
0.0
  0
LINE
  5
1E5
330
1F
100
AcDbEntity
  8
0
  6
HIDDEN
 62
     7
370
    18
100
AcDbLine
 10
81.0096323707
 20
141.5137539916
 30
0.0
 11
77.5786418685
 21
136.6137939803
 31
0.0
  0
LINE
  5
1E6
330
1F
100
AcDbEntity
  8
0
  6
HIDDEN
 62
     7
370
    18
100
AcDbLine
 10
77.5786418685
 20
101.3316403441
 30
0.0
 11
81.0096323707
 21
96.4316803329
 31
0.0
  0
LINE
  5
1E7
330
1F
100
AcDbEntity
  8
0
  6
HIDDEN
 62
     7
370
    18
100
AcDbLine
 10
81.0061380484
 20
141.6354238354
 30
0.0
 11
81.0061380484
 21
141.5005236231
 31
0.0
  0
LINE
  5
1E8
330
1F
100
AcDbEntity
  8
0
  6
HIDDEN
 62
     7
370
    18
100
AcDbLine
 10
95.5061385625
 20
137.0786114894
 30
0.0
 11
95.5061385625
 21
142.5383261703
 31
0.0
  0
LINE
  5
1E9
330
1F
100
AcDbEntity
  8
0
  6
HIDDEN
 62
     7
370
    18
100
AcDbLine
 10
81.0061380484
 20
96.4449107014
 30
0.0
 11
81.0061380484
 21
96.3098055981
 31
0.0
  0
LINE
  5
1EA
330
1F
100
AcDbEntity
  8
0
  6
HIDDEN
 62
     7
370
    18
100
AcDbLine
 10
95.5061385625
 20
95.4074825458
 30
0.0
 11
95.5061385625
 21
100.8666477464
 31
0.0
  0
LINE
  5
1EB
330
1F
100
AcDbEntity
  8
0
  6
HIDDEN
 62
     7
370
    18
100
AcDbLine
 10
113.3811389313
 20
113.2227171511
 30
0.0
 11
114.2061389269
 21
113.2227171511
 31
0.0
  0
LINE
  5
1EC
330
1F
100
AcDbEntity
  8
0
  6
HIDDEN
 62
     7
370
    18
100
AcDbLine
 10
114.2061389269
 20
124.7227171734
 30
0.0
 11
113.3811389313
 21
124.7227171734
 31
0.0
  0
LINE
  5
1ED
330
1F
100
AcDbEntity
  8
0
  6
HIDDEN
 62
     7
370
    18
100
AcDbLine
 10
197.1561353871
 20
124.4727171324
 30
0.0
 11
196.5732541153
 21
123.2227173932
 31
0.0
  0
LINE
  5
1EE
330
1F
100
AcDbEntity
  8
0
  6
HIDDEN
 62
     7
370
    18
100
AcDbLine
 10
196.5732541153
 20
114.7227169313
 30
0.0
 11
197.1561353871
 21
113.472717192
 31
0.0
  0
LINE
  5
1EF
330
1F
100
AcDbEntity
  8
0
  6
HIDDEN
 62
     7
370
    18
100
AcDbLine
 10
201.3677176305
 20
124.4727171324
 30
0.0
 11
197.1561353871
 21
124.4727171324
 31
0.0
  0
LINE
  5
1F0
330
1F
100
AcDbEntity
  8
0
  6
HIDDEN
 62
     7
370
    18
100
AcDbLine
 10
197.1561353871
 20
113.472717192
 30
0.0
 11
201.3677176305
 21
113.472717192
 31
0.0
  0
LINE
  5
1F1
330
1F
100
AcDbEntity
  8
0
  6
HIDDEN
 62
     7
370
    18
100
AcDbLine
 10
109.5561389097
 20
113.7417772152
 30
0.0
 11
109.9561389287
 21
113.972717274
 31
0.0
  0
LINE
  5
1F2
330
1F
100
AcDbEntity
  8
0
  6
HIDDEN
 62
     7
370
    18
100
AcDbLine
 10
109.9561389287
 20
123.9727170505
 30
0.0
 11
109.5561389097
 21
124.2036571093
 31
0.0
  0
LINE
  5
1F3
330
1F
100
AcDbEntity
  8
0
  6
HIDDEN
 62
     7
370
    18
100
AcDbLine
 10
109.9561389287
 20
113.972717274
 30
0.0
 11
113.3811389313
 21
113.972717274
 31
0.0
  0
LINE
  5
1F4
330
1F
100
AcDbEntity
  8
0
  6
HIDDEN
 62
     7
370
    18
100
AcDbLine
 10
113.3811389313
 20
123.9727170505
 30
0.0
 11
109.9561389287
 21
123.9727170505
 31
0.0
  0
LINE
  5
1F5
330
1F
100
AcDbEntity
  8
0
  6
HIDDEN
 62
     7
370
    18
100
AcDbLine
 10
154.1561376521
 20
123.2227173932
 30
0.0
 11
154.0651474365
 21
122.9727173522
 31
0.0
  0
LINE
  5
1F6
330
1F
100
AcDbEntity
  8
0
  6
HIDDEN
 62
     7
370
    18
100
AcDbLine
 10
154.0651474365
 20
114.9727169722
 30
0.0
 11
154.1561376521
 21
114.7227169313
 31
0.0
  0
LINE
  5
1F7
330
1F
100
AcDbEntity
  8
0
  6
HIDDEN
 62
     7
370
    18
100
AcDbLine
 10
196.5732541153
 20
123.2227173932
 30
0.0
 11
154.1561376521
 21
123.2227173932
 31
0.0
  0
LINE
  5
1F8
330
1F
100
AcDbEntity
  8
0
  6
HIDDEN
 62
     7
370
    18
100
AcDbLine
 10
154.1561376521
 20
114.7227169313
 30
0.0
 11
196.5732541153
 21
114.7227169313
 31
0.0
  0
LINE
  5
1F9
330
1F
100
AcDbEntity
  8
0
  6
HIDDEN
 62
     7
370
    18
100
AcDbLine
 10
114.2061389269
 20
114.9727169722
 30
0.0
 11
154.0651474365
 21
114.9727169722
 31
0.0
  0
LINE
  5
1FA
330
1F
100
AcDbEntity
  8
0
  6
HIDDEN
 62
     7
370
    18
100
AcDbLine
 10
154.0651474365
 20
122.9727173522
 30
0.0
 11
114.2061389269
 21
122.9727173522
 31
0.0
  0
DIMENSION
  5
1FB
330
1F
100
AcDbEntity
  8
VERMASSUNG
100
AcDbDimension
  2
_D
 10
187.7308442728
 20
132.9727171622
 30
0.0
 11
187.7308442728
 21
140.1694481997
 31
0.0
 70
   160
  1
%%c<>
 71
     2
 42
-1.0
  3
SLDDIMSTYLE0
100
AcDbAlignedDimension
 13
201.6561389038
 23
104.9727171622
 33
0.0
 14
201.6561389038
 24
132.9727171622
 34
0.0
 50
90.0
100
AcDbRotatedDimension
  0
DIMENSION
  5
206
330
1F
100
AcDbEntity
  8
VERMASSUNG
100
AcDbDimension
  2
_D_1
 10
245.1619729733
 20
104.9727171622
 30
0.0
 11
245.1619729733
 21
118.9727171622
 31
0.0
 70
   160
  1
%%c<>
 71
     2
 42
-1.0
  3
SLDDIMSTYLE0
100
AcDbAlignedDimension
 13
219.1561389038
 23
132.9727171622
 33
0.0
 14
219.1561389038
 24
104.9727171622
 34
0.0
 50
90.0
100
AcDbRotatedDimension
  0
DIMENSION
  5
211
330
1F
100
AcDbEntity
  8
VERMASSUNG
100
AcDbDimension
  2
_D_2
 10
230.6561389038
 20
160.4477171622
 30
0.0
 11
179.6561389038
 21
160.4477171622
 31
0.0
 70
   160
  1
<>
 71
     2
 42
-1.0
  3
SLDDIMSTYLE0
100
AcDbAlignedDimension
 13
128.6561389038
 23
149.4477171622
 33
0.0
 14
230.6561389038
 24
129.9727171622
 34
0.0
100
AcDbRotatedDimension
  0
DIMENSION
  5
21B
330
1F
100
AcDbEntity
  8
VERMASSUNG
100
AcDbDimension
  2
_D_3
 10
230.6561389038
 20
168.9118375181
 30
0.0
 11
170.6561389038
 21
168.9118375181
 31
0.0
 70
   160
  1
<>
 71
     2
 42
-1.0
  3
SLDDIMSTYLE0
100
AcDbAlignedDimension
 13
110.6561389038
 23
150.2477171622
 33
0.0
 14
230.6561389038
 24
129.9727171622
 34
0.0
100
AcDbRotatedDimension
  0
DIMENSION
  5
225
330
1F
100
AcDbEntity
  8
VERMASSUNG
100
AcDbDimension
  2
_D_4
 10
230.6561389038
 20
176.7457262915
 30
0.0
 11
150.6811389038
 21
176.7457262915
 31
0.0
 70
   160
  1
<>
 71
     2
 42
-1.0
  3
SLDDIMSTYLE0
100
AcDbAlignedDimension
 13
70.7061389038
 23
141.175811886
 33
0.0
 14
230.6561389038
 24
129.9727171622
 34
0.0
100
AcDbRotatedDimension
  0
DIMENSION
  5
22F
330
1F
100
AcDbEntity
  8
VERMASSUNG
100
AcDbDimension
  2
_D_5
 10
57.8385291898
 20
150.4477171622
 30
0.0
 11
57.8385291898
 21
118.9727171622
 31
0.0
 70
   160
  1
KM%%c<> XMZ
 71
     2
 42
-1.0
  3
SLDDIMSTYLE1
100
AcDbAlignedDimension
 13
110.8561389038
 23
87.4977171622
 33
0.0
 14
110.8561389038
 24
150.4477171622
 34
0.0
 50
90.0
100
AcDbRotatedDimension
  0
LINE
  5
23D
330
1F
100
AcDbEntity
  8
VERMASSUNG
  6
CENTERX2
370
    18
100
AcDbLine
 10
68.7061389038
 20
118.9727171622
 30
0.0
 11
232.6561389038
 21
118.9727171622
 31
0.0
  0
LINE
  5
23E
330
1F
100
AcDbEntity
  8
0
  6
Continuous
 62
     7
370
    25
100
AcDbLine
 10
255.3133987604
 20
32.4025946815
 30
0.0
 11
257.4974168401
 21
31.1417878811
 31
0.0
  0
LINE
  5
23F
330
1F
100
AcDbEntity
  8
0
  6
Continuous
 62
     7
370
    25
100
AcDbLine
 10
264.4968480224
 20
43.2664723571
 30
0.0
 11
262.3128299427
 21
44.5272791575
 31
0.0
  0
LINE
  5
240
330
1F
100
AcDbEntity
  8
0
  6
Continuous
 62
     7
370
    25
100
AcDbLine
 10
258.8123098784
 20
44.1802579864
 30
0.0
 11
258.5295136163
 21
44.0169497191
 31
0.0
  0
LINE
  5
241
330
1F
100
AcDbEntity
  8
0
  6
Continuous
 62
     7
370
    25
100
AcDbLine
 10
253.863367389
 20
35.9340715101
 30
0.0
 11
253.8633667305
 21
35.6075084399
 31
0.0
  0
LINE
  5
242
330
1F
100
AcDbEntity
  8
0
  6
Continuous
 62
     7
370
    25
100
AcDbLine
 10
259.3976517924
 20
44.4781714997
 30
0.0
 11
258.0980695236
 21
45.2284043743
 31
0.0
  0
LINE
  5
243
330
1F
100
AcDbEntity
  8
0
  6
Continuous
 62
     7
370
    25
100
AcDbLine
 10
252.598516593
 20
35.7018669791
 30
0.0
 11
253.8980988617
 21
34.9516341045
 31
0.0
  0
SPLINE
  5
244
330
1F
100
AcDbEntity
  8
0
  6
Continuous
 62
     7
370
    25
100
AcDbSpline
210
0.0
220
0.0
230
1.0
 70
     8
 71
     3
 72
    12
 73
     8
 74
     0
 42
0.000000001
 43
0.00000001
 40
0.0
 40
0.0
 40
0.0
 40
0.0
 40
0.1435885598578888
 40
0.3695292280785821
 40
0.597704953497083
 40
0.8302276969493497
 40
1.0
 40
1.0
 40
1.0
 40
1.0
 10
251.3317863108975
 20
34.72671677373154
 30
0.0
 10
251.4402925387784
 20
34.67398893689879
 30
0.0
 10
251.7195363912847
 20
34.53829235450848
 30
0.0
 10
252.2263346930482
 20
34.44282085799652
 30
0.0
 10
252.8313062536357
 20
34.43177668541108
 30
0.0
 10
253.4063827109778
 20
34.51360506018828
 30
0.0
 10
253.7798561760559
 20
34.64370415907498
 30
0.0
 10
253.9374654999731
 20
34.69860720556985
 30
0.0
  0
SPLINE
  5
245
330
1F
100
AcDbEntity
  8
0
  6
Continuous
 62
     7
370
    25
100
AcDbSpline
210
0.0
220
0.0
230
1.0
 70
     8
 71
     3
 72
    12
 73
     8
 74
     0
 42
0.000000001
 43
0.00000001
 40
0.0
 40
0.0
 40
0.0
 40
0.0
 40
0.2005946962897614
 40
0.4154594159277078
 40
0.6272271753343766
 40
0.8344132174048559
 40
1.0
 40
1.0
 40
1.0
 40
1.0
 10
259.649266666992
 20
44.53645191120476
 30
0.0
 10
259.6037304955952
 20
44.75222831026304
 30
0.0
 10
259.5094187738899
 20
45.19913113661812
 30
0.0
 10
259.2511343152834
 20
45.79084959888051
 30
0.0
 10
258.9044210103359
 20
46.3097897465118
 30
0.0
 10
258.5092822084113
 20
46.71216540714275
 30
0.0
 10
258.2034251962419
 20
46.88789953778721
 30
0.0
 10
258.067562613918
 20
46.96596115430037
 30
0.0
  0
LINE
  5
246
330
1F
100
AcDbEntity
  8
0
  6
Continuous
 62
     7
370
    25
100
AcDbLine
 10
258.1409004352
 20
46.9356827978
 30
0.0
 11
233.7457170954
 21
61.018722374
 31
0.0
  0
LINE
  5
247
330
1F
100
AcDbEntity
  8
0
  6
Continuous
 62
     7
370
    25
100
AcDbLine
 10
226.7462859132
 20
48.894037898
 30
0.0
 11
251.141469253
 21
34.8109983218
 31
0.0
  0
SPLINE
  5
248
330
1F
100
AcDbEntity
  8
0
  6
Continuous
 62
     7
370
    25
100
AcDbSpline
210
0.0
220
0.0
230
1.0
 70
     8
 71
     3
 72
    18
 73
    14
 74
     0
 42
0.000000001
 43
0.00000001
 40
0.0
 40
0.0
 40
0.0
 40
0.0
 40
0.0578049922177963
 40
0.1604698774013174
 40
0.263839575112376
 40
0.3678040690354277
 40
0.4721901417367364
 40
0.5768258748047326
 40
0.6815756553567688
 40
0.7863374155489201
 40
0.8910579401367874
 40
0.9957184493345963
 40
0.9999999999999999
 40
0.9999999999999999
 40
0.9999999999999999
 40
0.9999999999999999
 10
222.9998841591927
 20
41.61217252181435
 30
0.0
 10
223.1625613092554
 20
41.59442815068643
 30
0.0
 10
223.6141621368828
 20
41.54516878829897
 30
0.0
 10
224.3951507239412
 20
41.58826483229414
 30
0.0
 10
225.3326605889515
 20
41.73072570535378
 30
0.0
 10
226.2970639437273
 20
41.98969677864421
 30
0.0
 10
227.2782759721783
 20
42.35674151026721
 30
0.0
 10
228.2688536010369
 20
42.83047254669801
 30
0.0
 10
229.2601719531741
 20
43.40711926762519
 30
0.0
 10
230.2455563877515
 20
44.07882188934698
 30
0.0
 10
231.2128643119379
 20
44.85111406950727
 30
0.0
 10
231.8652649936645
 20
45.4123137490013
 30
0.0
 10
232.1838707778986
 20
45.7350737034371
 30
0.0
 10
232.1963923587206
 20
45.74775854801793
 30
0.0
  0
SPLINE
  5
249
330
1F
100
AcDbEntity
  8
0
  6
Continuous
 62
     7
370
    25
100
AcDbSpline
210
0.0
220
0.0
230
1.0
 70
     8
 71
     3
 72
    18
 73
    14
 74
     0
 42
0.000000001
 43
0.00000001
 40
0.0
 40
0.0
 40
0.0
 40
0.0
 40
0.0450162739312031
 40
0.1430419072664261
 40
0.2411500901649565
 40
0.3393443550804765
 40
0.4376174796863778
 40
0.5359440885994518
 40
0.6342478936068512
 40
0.732417331828821
 40
0.8302965333168114
 40
0.9276983400552187
 40
1.0
 40
1.0
 40
1.0
 40
1.0
 10
239.1885854782698
 20
57.87662127741933
 30
0.0
 10
239.2378219176686
 20
58.06911389308249
 30
0.0
 10
239.3942736535311
 20
58.68077071126428
 30
0.0
 10
239.5690630907355
 20
59.69370726925983
 30
0.0
 10
239.7138834651808
 20
60.90465724964046
 30
0.0
 10
239.7667576445495
 20
62.07834144931286
 30
0.0
 10
239.7325427158793
 20
63.20691044238274
 30
0.0
 10
239.6092488074299
 20
64.28139271029646
 30
0.0
 10
239.3972544680993
 20
65.29289087135564
 30
0.0
 10
239.0983807293462
 20
66.2339035572307
 30
0.0
 10
238.7113462366958
 20
67.09202319709956
 30
0.0
 10
238.2903772228599
 20
67.8089542033505
 30
0.0
 10
237.9637067255329
 20
68.195294319596
 30
0.0
 10
237.8245297265396
 20
68.35989338320829
 30
0.0
  0
SPLINE
  5
24A
330
1F
100
AcDbEntity
  8
0
  6
Continuous
 62
     7
370
    25
100
AcDbSpline
210
0.0
220
0.0
230
1.0
 70
     8
 71
     3
 72
     9
 73
     5
 74
     0
 42
0.000000001
 43
0.00000001
 40
0.0
 40
0.0
 40
0.0
 40
0.0
 40
0.3662526493452264
 40
0.9999999999999999
 40
0.9999999999999999
 40
0.9999999999999999
 40
0.9999999999999999
 10
222.4177439850261
 20
41.69239282792273
 30
0.0
 10
222.486060199777
 20
41.67502152967726
 30
0.0
 10
222.6725877644867
 20
41.62759170691276
 30
0.0
 10
222.8729225314106
 20
41.61815378183075
 30
0.0
 10
222.9998841591927
 20
41.61217252181435
 30
0.0
  0
LINE
  5
24B
330
1F
100
AcDbEntity
  8
0
  6
Continuous
 62
     7
370
    25
100
AcDbLine
 10
219.2787119038
 20
43.1160538605
 30
0.0
 11
220.6101242629
 21
42.347445866
 31
0.0
  0
LINE
  5
24C
330
1F
100
AcDbEntity
  8
0
  6
Continuous
 62
     7
370
    25
100
AcDbLine
 10
236.3463455774
 20
69.6063342598
 30
0.0
 11
235.0149332184
 21
70.3749422543
 31
0.0
  0
LINE
  5
24D
330
1F
100
AcDbEntity
  8
0
  6
Continuous
 62
     7
370
    25
100
AcDbLine
 10
214.6704269725
 20
45.7763601252
 30
0.0
 11
216.9210779489
 21
44.4770869723
 31
0.0
  0
LINE
  5
24E
330
1F
100
AcDbEntity
  8
0
  6
Continuous
 62
     7
370
    25
100
AcDbLine
 10
232.6572992634
 20
71.7359753661
 30
0.0
 11
230.406648287
 21
73.035248519
 31
0.0
  0
LINE
  5
24F
330
1F
100
AcDbEntity
  8
0
  6
Continuous
 62
     7
370
    25
100
AcDbLine
 10
223.6292590967
 20
72.8151304266
 30
0.0
 11
214.4320469131
 21
77.3957830365
 31
0.0
  0
LINE
  5
250
330
1F
100
AcDbEntity
  8
0
  6
Continuous
 62
     7
370
    25
100
AcDbLine
 10
202.9056991235
 20
57.4293995808
 30
0.0
 11
211.4717991292
 21
51.7555099845
 31
0.0
  0
LINE
  5
251
330
1F
100
AcDbEntity
  8
0
  6
Continuous
 62
     7
370
    25
100
AcDbLine
 10
207.8851365652
 20
58.3758894465
 30
0.0
 11
207.8851365652
 21
58.0105707415
 31
0.0
  0
LINE
  5
252
330
1F
100
AcDbEntity
  8
0
  6
Continuous
 62
     7
370
    25
100
AcDbLine
 10
211.7831033255
 20
77.7727514132
 30
0.0
 11
211.1435532168
 21
77.6855396577
 31
0.0
  0
LWPOLYLINE
  5
253
330
1F
100
AcDbEntity
  8
0
  6
Continuous
 62
     7
370
    25
100
AcDbPolyline
 90
       18
 70
   128
 43
0.0
 10
253.8633667305
 20
35.6075084399
 10
253.9115376149
 20
36.4308005328
 10
254.0551118421
 20
37.2936845886
 10
254.2912948787
 20
38.1793655713
 10
254.615490413
 20
39.070605074
 10
255.0213879425
 20
39.9500560094
 10
255.5010869087
 20
40.800600909
 10
256.0452507967
 20
41.605684231
 10
256.643287906
 20
42.349637061
 10
257.2835582978
 20
43.017978141
 10
257.9535997581
 20
43.5976998294
 10
258.6403706568
 20
44.0775178072
 10
259.3305038367
 20
44.4480936919
 10
260.0105666569
 20
44.7022136741
 10
260.667322311
 20
44.8349325292
 10
261.2879881621
 20
44.8436668572
 10
261.8604832934
 20
44.7282459746
 10
262.3128299427
 20
44.5272791575
  0
ARC
  5
254
330
1F
100
AcDbEntity
  8
0
  6
Continuous
 62
     7
370
    25
100
AcDbCircle
 10
257.3470786954
 20
35.2531966872
 30
0.0
 40
3.501683291341794
100
AcDbArc
 50
174.1926877286
 51
234.4951340951
  0
LINE
  5
255
330
1F
100
AcDbEntity
  8
0
  6
Continuous
 62
     7
370
    25
100
AcDbLine
 10
263.5877689821
 20
43.3855962249
 30
0.0
 11
266.8391006826
 21
41.5086423863
 31
0.0
  0
ELLIPSE
  5
256
330
1F
100
AcDbEntity
  8
0
  6
Continuous
 62
     7
370
    25
100
AcDbEllipse
 10
265.7781173011
 20
34.4441263021
 30
0.0
 11
-4.949948582512606
 21
8.573097964383599
 31
0.0
210
0.0
220
0.0
230
1.0
 40
0.5773346305
 41
5.815998564139724
 42
6.750290786157373
  0
LINE
  5
257
330
1F
100
AcDbEntity
  8
0
  6
Continuous
 62
     7
370
    25
100
AcDbLine
 10
262.3809621343
 20
38.9350137836
 30
0.0
 11
259.1296304338
 21
40.8119676222
 31
0.0
  0
ARC
  5
258
330
1F
100
AcDbEntity
  8
0
  6
Continuous
 62
     7
370
    25
100
AcDbCircle
 10
270.9515392937
 20
31.5501328973
 30
0.0
 40
11.31332217125427
100
AcDbArc
 50
139.2500033007
 51
143.1608651255
  0
LINE
  5
259
330
1F
100
AcDbEntity
  8
0
  6
Continuous
 62
     7
370
    25
100
AcDbLine
 10
258.6459066083
 20
40.2102196569
 30
0.0
 11
261.8972383088
 21
38.3332658183
 31
0.0
  0
ELLIPSE
  5
25A
330
1F
100
AcDbEntity
  8
0
  6
Continuous
 62
     7
370
    25
100
AcDbEllipse
 10
265.7781173011
 20
34.4441263021
 30
0.0
 11
9.337344727984544
 21
-2.953626567332549
 31
0.0
210
0.0
220
0.0
230
1.0
 40
0.6979108556
 41
2.629927958799
 42
3.564220180816692
  0
LINE
  5
25B
330
1F
100
AcDbEntity
  8
0
  6
Continuous
 62
     7
370
    25
100
AcDbLine
 10
259.66816887
 20
32.5880713947
 30
0.0
 11
256.4168371695
 21
34.4650252334
 31
0.0
  0
ARC
  5
25C
330
1F
100
AcDbEntity
  8
0
  6
Continuous
 62
     7
370
    25
100
AcDbCircle
 10
266.2580528625
 20
32.2655714163
 30
0.0
 40
6.597770628861162
100
AcDbArc
 50
177.1982576049
 51
182.8017423951
  0
LINE
  5
25D
330
1F
100
AcDbEntity
  8
0
  6
Continuous
 62
     7
370
    25
100
AcDbLine
 10
256.4168371695
 20
33.8200252766
 30
0.0
 11
259.66816887
 21
31.9430714379
 31
0.0
  0
ELLIPSE
  5
25E
330
1F
100
AcDbEntity
  8
0
  6
Continuous
 62
     7
370
    25
100
AcDbEllipse
 10
265.7781173011
 20
34.4441263021
 30
0.0
 11
9.534022478064971
 21
1.784942777066952
 31
0.0
210
0.0
220
0.0
230
1.0
 40
0.4107992443
 41
2.859487928009107
 42
3.793780150026799
  0
LINE
  5
25F
330
1F
100
AcDbEntity
  8
0
  6
Continuous
 62
     7
370
    25
100
AcDbLine
 10
261.8972383088
 20
28.7715058071
 30
0.0
 11
258.6459066083
 21
30.6484596458
 31
0.0
  0
ARC
  5
260
330
1F
100
AcDbEntity
  8
0
  6
Continuous
 62
     7
370
    25
100
AcDbCircle
 10
262.3893751265
 20
31.5488953429
 30
0.0
 40
2.820654406419973
100
AcDbArc
 50
259.951827411
 51
269.8291071526
  0
ARC
  5
261
330
1F
100
AcDbEntity
  8
0
  6
Continuous
 62
     7
370
    25
100
AcDbCircle
 10
258.2685235231
 20
38.6867629719
 30
0.0
 40
11.31332217123923
100
AcDbArc
 50
319.2500033007
 51
323.1608651255
  0
ARC
  5
262
330
1F
100
AcDbEntity
  8
0
  6
Continuous
 62
     7
370
    25
100
AcDbCircle
 10
262.9620099543
 20
37.9713244528
 30
0.0
 40
6.597770628860992
100
AcDbArc
 50
357.1982576049
 51
2.8017423951
  0
ELLIPSE
  5
263
330
1F
100
AcDbEntity
  8
0
  6
Continuous
 62
     7
370
    25
100
AcDbEllipse
 10
265.7781173011
 20
34.4441263021
 30
0.0
 11
-1.667628325045144
 21
8.907403722019604
 31
0.0
210
0.0
220
0.0
230
1.0
 40
0.2183792069
 41
5.892878462603893
 42
6.303409380898999
  0
LINE
  5
264
330
1F
100
AcDbEntity
  8
0
  6
Continuous
 62
     7
370
    25
100
AcDbLine
 10
267.3228245081
 20
41.465390062
 30
0.0
 11
264.0714928076
 21
43.3423439006
 31
0.0
  0
ARC
  5
265
330
1F
100
AcDbEntity
  8
0
  6
Continuous
 62
     7
370
    25
100
AcDbCircle
 10
266.8306876903
 20
38.6880005263
 30
0.0
 40
2.820654406419042
100
AcDbArc
 50
79.951827411
 51
89.8291071526
  0
LWPOLYLINE
  5
266
330
1F
100
AcDbEntity
  8
0
  6
Continuous
 62
     7
370
    25
100
AcDbPolyline
 90
       41
 70
   128
 43
0.0
 10
261.0051456008
 20
32.7092596241
 10
261.0530267257
 20
33.4394439948
 10
261.1954909762
 20
34.2069311269
 10
261.429030615
 20
34.9928229912
 10
261.7478952316
 20
35.7777683429
 10
262.1442328351
 20
36.5424392336
 10
262.6082847837
 20
37.2680067572
 10
263.1286241778
 20
37.9366053855
 10
263.692438787
 20
38.5317715864
 10
264.2858455876
 20
39.0388504988
 10
264.8942328763
 20
39.4453563605
 10
265.502620165
 20
39.7412795108
 10
266.0960269656
 20
39.9193335068
 10
266.6598415748
 20
39.9751337975
 10
267.1801809688
 20
39.9073062457
 10
267.6442329175
 20
39.7175216976
 10
268.040570521
 20
39.4104524636
 10
268.3594351376
 20
38.9936603618
 10
268.5929747764
 20
38.4774076251
 10
268.7354390269
 20
37.8744062155
 10
268.7833201517
 20
37.1995042148
 10
268.7354390269
 20
36.4693198441
 10
268.5929747764
 20
35.701832712
 10
268.3594351376
 20
34.9159408477
 10
268.040570521
 20
34.1309954959
 10
267.6442329175
 20
33.3663246053
 10
267.1801809688
 20
32.6407570817
 10
266.6598415748
 20
31.9721584533
 10
266.0960269656
 20
31.3769922524
 10
265.502620165
 20
30.86991334
 10
264.8942328763
 20
30.4634074784
 10
264.2858455876
 20
30.1674843281
 10
263.692438787
 20
29.989430332
 10
263.1286241778
 20
29.9336300414
 10
262.6082847837
 20
30.0014575931
 10
262.1442328351
 20
30.1912421413
 10
261.7478952316
 20
30.4983113752
 10
261.429030615
 20
30.915103477
 10
261.1954909762
 20
31.4313562138
 10
261.0530267257
 20
32.0343576234
 10
261.0051456008
 20
32.7092596241
  0
SPLINE
  5
267
330
1F
100
AcDbEntity
  8
0
  6
Continuous
 62
     7
370
    25
100
AcDbSpline
210
0.0
220
0.0
230
1.0
 70
     8
 71
     3
 72
     9
 73
     5
 74
     0
 42
0.000000001
 43
0.00000001
 40
0.0
 40
0.0
 40
0.0
 40
0.0
 40
0.4961695431833666
 40
1.0
 40
1.0
 40
1.0
 40
1.0
 10
267.3228245080867
 20
31.90363005087685
 30
0.0
 10
267.7621590004963
 20
32.81297605157456
 30
0.0
 10
268.647611359363
 20
34.64570845764578
 30
0.0
 10
269.2489308654193
 20
36.64268624405619
 30
0.0
 10
269.5518939468483
 20
37.64882447443602
 30
0.0
  0
SPLINE
  5
268
330
1F
100
AcDbEntity
  8
0
  6
Continuous
 62
     7
370
    25
100
AcDbSpline
210
0.0
220
0.0
230
1.0
 70
     8
 71
     3
 72
    10
 73
     6
 74
     0
 42
0.000000001
 43
0.00000001
 40
0.0
 40
0.0
 40
0.0
 40
0.0
 40
0.4601549577656427
 40
0.9264305250801176
 40
1.0
 40
1.0
 40
1.0
 40
1.0
 10
262.3809621343011
 20
28.72825348291911
 30
0.0
 10
263.1285118906928
 20
29.08530589579927
 30
0.0
 10
264.6335547064875
 20
29.80415994433948
 30
0.0
 10
266.0370202692337
 20
30.71734563854296
 30
0.0
 10
266.7429036849244
 20
31.23177608341164
 30
0.0
 10
266.8391006825518
 20
31.30188208559914
 30
0.0
  0
SPLINE
  5
269
330
1F
100
AcDbEntity
  8
0
  6
Continuous
 62
     7
370
    25
100
AcDbSpline
210
0.0
220
0.0
230
1.0
 70
     8
 71
     3
 72
     9
 73
     5
 74
     0
 42
0.000000001
 43
0.00000001
 40
0.0
 40
0.0
 40
0.0
 40
0.0
 40
0.4961695392018298
 40
1.0
 40
1.0
 40
1.0
 40
1.0
 10
259.6681688700046
 20
31.94307143794245
 30
0.0
 10
260.1075033634994
 20
31.37774487767992
 30
0.0
 10
260.9929557316589
 20
30.23836304224531
 30
0.0
 10
261.594275229222
 20
29.2629490754883
 30
0.0
 10
261.8972383087661
 20
28.77150580714815
 30
0.0
  0
SPLINE
  5
26A
330
1F
100
AcDbEntity
  8
0
  6
Continuous
 62
     7
370
    25
100
AcDbSpline
210
0.0
220
0.0
230
1.0
 70
     8
 71
     3
 72
     9
 73
     5
 74
     0
 42
0.000000001
 43
0.00000001
 40
0.0
 40
0.0
 40
0.0
 40
0.0
 40
0.4961695431833666
 40
1.0
 40
1.0
 40
1.0
 40
1.0
 10
261.8972383087661
 20
38.33326581830584
 30
0.0
 10
261.5992764577952
 20
37.34230712888051
 30
0.0
 10
260.9987521913133
 20
35.3450892362476
 30
0.0
 10
260.1139560926059
 20
33.51175900343859
 30
0.0
 10
259.6681688700046
 20
32.58807139474669
 30
0.0
  0
SPLINE
  5
26B
330
1F
100
AcDbEntity
  8
0
  6
Continuous
 62
     7
370
    25
100
AcDbSpline
210
0.0
220
0.0
230
1.0
 70
     8
 71
     3
 72
     9
 73
     5
 74
     0
 42
0.000000001
 43
0.00000001
 40
0.0
 40
0.0
 40
0.0
 40
0.0
 40
0.4961695513446054
 40
1.0
 40
1.0
 40
1.0
 40
1.0
 10
266.8391006825518
 20
41.50864238626359
 30
0.0
 10
266.1724906577249
 20
41.04220392057134
 30
0.0
 10
264.8289780963026
 20
40.10212514220169
 30
0.0
 10
263.2011243949825
 20
39.32603275780978
 30
0.0
 10
262.3809621343011
 20
38.93501378358356
 30
0.0
  0
SPLINE
  5
26C
330
1F
100
AcDbEntity
  8
0
  6
Continuous
 62
     7
370
    25
100
AcDbSpline
210
0.0
220
0.0
230
1.0
 70
     8
 71
     3
 72
     9
 73
     5
 74
     0
 42
0.000000001
 43
0.00000001
 40
0.0
 40
0.0
 40
0.0
 40
0.0
 40
0.4961695392018298
 40
1.0
 40
1.0
 40
1.0
 40
1.0
 10
269.5518939468483
 20
38.29382443124025
 30
0.0
 10
269.2539320940491
 20
38.77753830320404
 30
0.0
 10
268.6534078190636
 20
39.75243465162139
 30
0.0
 10
267.7686117295692
 20
40.89149617156427
 30
0.0
 10
267.3228245080867
 20
41.46539006203456
 30
0.0
  0
LINE
  5
26D
330
1F
100
AcDbEntity
  8
0
  6
Continuous
 62
     7
370
    25
100
AcDbLine
 10
258.6459066083
 20
40.2102196569
 30
0.0
 11
256.4168371695
 21
34.4650252334
 31
0.0
  0
LWPOLYLINE
  5
26E
330
1F
100
AcDbEntity
  8
0
  6
Continuous
 62
     7
370
    25
100
AcDbPolyline
 90
       37
 70
   128
 43
0.0
 10
261.7299301374
 20
33.127668831
 10
261.7780028987
 20
33.7899345793
 10
261.92076086
 20
34.4875815799
 10
262.1538661888
 20
35.199411909
 10
262.4702362388
 20
35.9037972881
 10
262.8602582358
 20
36.579335201
 10
263.3120815069
 20
37.2054996801
 10
263.8119775392
 20
37.7632649467
 10
264.3447574564
 20
38.2356838708
 10
264.8942328763
 20
38.6084019291
 10
265.4437082962
 20
38.8700946868
 10
265.9764882134
 20
39.0128103616
 10
266.4763842457
 20
39.0322127685
 10
266.9282075167
 20
38.9277123343
 10
267.3182295138
 20
38.702484234
 10
267.6345995638
 20
38.3633719396
 10
267.8677048925
 20
37.9206792944
 10
268.0104628539
 20
37.3878571275
 10
268.0585356152
 20
36.7810950079
 10
268.0104628539
 20
36.1188292595
 10
267.8677048925
 20
35.4211822589
 10
267.6345995638
 20
34.7093519299
 10
267.3182295138
 20
34.0049665508
 10
266.9282075167
 20
33.3294286378
 10
266.4763842457
 20
32.7032641588
 10
265.9764882134
 20
32.1454988922
 10
265.4437082962
 20
31.6730799681
 10
264.8942328763
 20
31.3003619097
 10
264.3447574564
 20
31.0386691521
 10
263.8119775392
 20
30.8959534773
 10
263.3120815069
 20
30.8765510703
 10
262.8602582358
 20
30.9810515046
 10
262.4702362388
 20
31.2062796049
 10
262.1538661888
 20
31.5453918993
 10
261.92076086
 20
31.9880845445
 10
261.7780028987
 20
32.5209067113
 10
261.7299301374
 20
33.127668831
  0
ARC
  5
26F
330
1F
100
AcDbEntity
  8
0
  6
Continuous
 62
     7
370
    25
100
AcDbCircle
 10
258.0961691345
 20
38.8788202857
 30
0.0
 40
8.393572671693626
100
AcDbArc
 50
301.7374793199
 51
358.2678993028
  0
LWPOLYLINE
  5
270
330
1F
100
AcDbEntity
  8
0
  6
Continuous
 62
     7
370
    25
100
AcDbPolyline
 90
       19
 70
   128
 43
0.0
 10
266.4663511555
 20
38.6366276877
 10
266.5561815655
 20
38.5798550765
 10
266.8687600455
 20
38.2823222069
 10
267.099958394
 20
37.8796232445
 10
267.241903876
 20
37.3854715474
 10
267.2897622811
 20
36.8166946644
 10
267.241903876
 20
36.1926616431
 10
267.099958394
 20
35.5346231808
 10
266.8687600455
 20
34.8649882872
 10
266.5561815655
 20
34.2065599865
 10
266.1728676674
 20
33.581760954
 10
265.7318715267
 20
33.0118674316
 10
265.2482107568
 20
32.5162868291
 10
264.7383559057
 20
32.1118953264
 10
264.2196694172
 20
31.8124639902
 10
263.7098145662
 20
31.628189612
 10
263.2261537963
 20
31.5653473759
 10
262.7851576555
 20
31.626077592
 10
262.4916741674
 20
31.7515392068
  0
LINE
  5
271
330
1F
100
AcDbEntity
  8
0
  6
Continuous
 62
     7
370
    25
100
AcDbLine
 10
263.5877689821
 20
43.3855962249
 30
0.0
 11
259.1296304338
 21
40.8119676222
 31
0.0
  0
LWPOLYLINE
  5
272
330
1F
100
AcDbEntity
  8
0
  6
Continuous
 62
     7
370
    25
100
AcDbPolyline
 90
       27
 70
   128
 43
0.0
 10
264.7117349746
 20
38.4969638602
 10
264.8000246476
 20
38.5401022974
 10
265.3098794987
 20
38.7243766756
 10
265.7935402686
 20
38.7872189117
 10
266.2345364093
 20
38.7264886956
 10
266.6178503074
 20
38.5442544696
 10
266.9304287874
 20
38.2467215999
 10
267.1616271359
 20
37.8440226376
 10
267.3035726179
 20
37.3498709405
 10
267.351431023
 20
36.7810940575
 10
267.3035726179
 20
36.1570610361
 10
267.1616271359
 20
35.4990225739
 10
266.9304287874
 20
34.8293876803
 10
266.6178503074
 20
34.1709593795
 10
266.2345364093
 20
33.5461603471
 10
265.7935402686
 20
32.9762668247
 10
265.3098794987
 20
32.4806862222
 10
264.8000246476
 20
32.0762947195
 10
264.2813381591
 20
31.7768633832
 10
263.7714833081
 20
31.5925890051
 10
263.2878225382
 20
31.529746769
 10
262.8468263974
 20
31.5904769851
 10
262.4635124994
 20
31.7727112111
 10
262.1509340194
 20
32.0702440807
 10
261.9197356709
 20
32.4729430431
 10
261.7777901888
 20
32.9670947402
 10
261.7351695175
 20
33.3408424028
  0
ARC
  5
273
330
1F
100
AcDbEntity
  8
0
  6
Continuous
 62
     7
370
    25
100
AcDbCircle
 10
258.0803666543
 20
38.8879429114
 30
0.0
 40
8.070466077581319
100
AcDbArc
 50
300.9941167403
 51
359.0112615881
  0
ARC
  5
274
330
1F
100
AcDbEntity
  8
0
  6
Continuous
 62
     7
370
    25
100
AcDbCircle
 10
259.8283635391
 20
38.7481715314
 30
0.0
 40
5.931747172303371
100
AcDbArc
 50
345.5463470205
 51
0.3733308087
  0
ARC
  5
275
330
1F
100
AcDbEntity
  8
0
  6
Continuous
 62
     7
370
    25
100
AcDbCircle
 10
258.85911678
 20
38.7950602155
 30
0.0
 40
7.214714765675675
100
AcDbArc
 50
302.0205390293
 51
359.7529110982
  0
LINE
  5
276
330
1F
100
AcDbEntity
  8
0
  6
Continuous
 62
     7
370
    25
100
AcDbLine
 10
262.6845261689
 20
32.6780060097
 30
0.0
 11
262.0481300768
 21
32.3106223657
 31
0.0
  0
ARC
  5
277
330
1F
100
AcDbEntity
  8
0
  6
Continuous
 62
     7
370
    25
100
AcDbCircle
 10
255.9571267395
 20
40.1136635826
 30
0.0
 40
9.083096155931582
100
AcDbArc
 50
309.6626510373
 51
350.3427250174
  0
LINE
  5
278
330
1F
100
AcDbEntity
  8
0
  6
Continuous
 62
     7
370
    25
100
AcDbLine
 10
256.4168371695
 20
33.8200252766
 30
0.0
 11
258.6459066083
 21
30.6484596458
 31
0.0
  0
ARC
  5
279
330
1F
100
AcDbEntity
  8
0
  6
Continuous
 62
     7
370
    25
100
AcDbCircle
 10
263.9425521334
 20
35.5037755931
 30
0.0
 40
10.08836556070626
100
AcDbArc
 50
122.4499376179
 51
177.5554393515
  0
ARC
  5
27A
330
1F
100
AcDbEntity
  8
0
  6
Continuous
 62
     7
370
    25
100
AcDbCircle
 10
258.3089547302
 20
39.1526374388
 30
0.0
 40
7.504030151112144
100
AcDbArc
 50
302.8913957582
 51
345.4514782663
  0
ARC
  5
27B
330
1F
100
AcDbEntity
  8
0
  6
Continuous
 62
     7
370
    25
100
AcDbCircle
 10
260.1730590964
 20
38.7710752867
 30
0.0
 40
5.604722753207758
100
AcDbArc
 50
344.4400342413
 51
0.1639352591
  0
LINE
  5
27C
330
1F
100
AcDbEntity
  8
0
  6
Continuous
 62
     7
370
    25
100
AcDbLine
 10
262.3840059682
 20
32.8514926288
 30
0.0
 11
261.8846370596
 21
32.5632130941
 31
0.0
  0
ARC
  5
27D
330
1F
100
AcDbEntity
  8
0
  6
Continuous
 62
     7
370
    25
100
AcDbCircle
 10
256.0421388343
 20
40.064586789
 30
0.0
 40
8.56354149910533
100
AcDbArc
 50
311.9391103337
 51
348.0662686253
  0
LINE
  5
27E
330
1F
100
AcDbEntity
  8
0
  6
Continuous
 62
     7
370
    25
100
AcDbLine
 10
258.0980695236
 20
45.2284043743
 30
0.0
 11
258.0026337474
 21
45.2798007537
 31
0.0
  0
LWPOLYLINE
  5
27F
330
1F
100
AcDbEntity
  8
0
  6
Continuous
 62
     7
370
    25
100
AcDbPolyline
 90
        3
 70
   128
 43
0.0
 10
251.141469253
 20
34.8109983218
 10
251.2028014787
 20
34.7768120413
 10
251.3025739351
 20
34.7261872198
  0
LINE
  5
280
330
1F
100
AcDbEntity
  8
0
  6
Continuous
 62
     7
370
    25
100
AcDbLine
 10
258.1409004352
 20
46.9356827978
 30
0.0
 11
258.0807196746
 21
46.9692497635
 31
0.0
  0
ARC
  5
281
330
1F
100
AcDbEntity
  8
0
  6
Continuous
 62
     7
370
    25
100
AcDbCircle
 10
223.3043911214
 20
47.0145441833
 30
0.0
 40
5.386664939910125
100
AcDbArc
 50
220.6505974364
 51
259.3680023668
  0
ARC
  5
282
330
1F
100
AcDbEntity
  8
0
  6
Continuous
 62
     7
370
    25
100
AcDbCircle
 10
233.6542082354
 20
64.9426553312
 30
0.0
 40
5.382877532673066
100
AcDbArc
 50
40.492819469
 51
79.2929753141
  0
SPLINE
  5
283
330
1F
100
AcDbEntity
  8
0
  6
Continuous
 62
     7
370
    25
100
AcDbSpline
210
0.0
220
0.0
230
1.0
 70
     8
 71
     3
 72
    25
 73
    21
 74
     0
 42
0.000000001
 43
0.00000001
 40
0.0
 40
0.0
 40
0.0
 40
0.0
 40
0.1249999999999995
 40
0.1249999999999995
 40
0.2499999999999989
 40
0.2499999999999989
 40
0.3749999999999984
 40
0.3749999999999984
 40
0.4999999999999979
 40
0.4999999999999979
 40
0.562499999999998
 40
0.562499999999998
 40
0.624999999999998
 40
0.6874999999999981
 40
0.6874999999999981
 40
0.7499999999999981
 40
0.7499999999999981
 40
0.8749999999999991
 40
0.8749999999999991
 40
1.0
 40
1.0
 40
1.0
 40
1.0
 10
222.5372838602254
 20
65.78049148913651
 30
0.0
 10
222.5664071584864
 20
65.66930596860733
 30
0.0
 10
222.5787961993457
 20
65.55406375617929
 30
0.0
 10
222.5718187142454
 20
65.3149681883435
 30
0.0
 10
222.5518011263934
 20
65.19019421846824
 30
0.0
 10
222.4815789686801
 20
64.94382530925581
 30
0.0
 10
222.4309283140865
 20
64.81961416189469
 30
0.0
 10
222.3010135704313
 20
64.57598566658454
 30
0.0
 10
222.223312622442
 20
64.45892857152637
 30
0.0
 10
222.0879390402158
 20
64.29027205367633
 30
0.0
 10
222.0393045429088
 20
64.23490503240417
 30
0.0
 10
221.9378652075268
 20
64.12918522100715
 30
0.0
 10
221.831995224786
 20
64.02802426238671
 30
0.0
 10
221.7174034324585
 20
63.93584994070991
 30
0.0
 10
221.5983207632403
 20
63.84831309796979
 30
0.0
 10
221.5363627501829
 20
63.80681462845761
 30
0.0
 10
221.3484990466623
 20
63.6926943067195
 30
0.0
 10
221.2191216103083
 20
63.62908687560491
 30
0.0
 10
220.9514383572463
 20
63.52781857463068
 30
0.0
 10
220.8155666707812
 20
63.49127766640587
 30
0.0
 10
220.6800494040536
 20
63.47010948205581
 30
0.0
  0
LWPOLYLINE
  5
284
330
1F
100
AcDbEntity
  8
0
  6
Continuous
 62
     7
370
    25
100
AcDbPolyline
 90
       14
 70
   128
 43
0.0
 10
222.5372839719
 20
65.7804915217
 10
223.5392703068
 20
66.8192188992
 10
224.575133159
 20
67.7633496894
 10
225.6351454968
 20
68.6040183779
 10
226.7093530497
 20
69.3333301789
 10
227.7876686443
 20
69.9444352664
 10
228.8599665004
 20
70.4315976585
 10
229.9161770607
 20
70.7902408361
 10
230.9463820278
 20
71.0169972835
 10
231.9409077119
 20
71.1097380419
 10
232.890414635
 20
71.0675924971
 10
233.7859864335
 20
70.8909548352
 10
234.619213165
 20
70.5814857457
 10
235.0149332184
 20
70.3749422543
  0
LWPOLYLINE
  5
285
330
1F
100
AcDbEntity
  8
0
  6
Continuous
 62
     7
370
    25
100
AcDbPolyline
 90
       20
 70
   128
 43
0.0
 10
219.2787119038
 20
43.1160538605
 10
219.2373368695
 20
43.1401925537
 10
218.522307682
 20
43.6461165205
 10
217.8869683068
 20
44.2730777893
 10
217.3371876927
 20
45.0152810821
 10
216.8780465105
 20
45.8658695889
 10
216.5137871038
 20
46.8169839078
 10
216.2477746353
 20
47.8598358138
 10
216.0824674514
 20
48.9847896313
 10
216.0193933756
 20
50.1814512219
 10
216.0591339024
 20
51.4387628897
 10
216.2013228813
 20
52.7451079686
 10
216.4446465159
 20
54.0884160278
 10
216.7868558768
 20
55.4562749079
 10
217.2247899502
 20
56.8360462023
 10
217.7544013217
 20
58.2149807503
 10
218.3707970056
 20
59.5803374552
 10
219.0682819088
 20
60.9195007721
 10
219.8404108565
 20
62.2200974337
 10
220.6800491773
 20
63.4701089936
  0
LWPOLYLINE
  5
286
330
1F
100
AcDbEntity
  8
0
  6
Continuous
 62
     7
370
    25
100
AcDbPolyline
 90
       38
 70
   128
 43
0.0
 10
218.0550771036
 20
43.9886835409
 10
217.2513992643
 20
44.3017734634
 10
216.5145985953
 20
44.7373429673
 10
215.8512124681
 20
45.2915279075
 10
215.2671262949
 20
45.9594109589
 10
214.7675234796
 20
46.7350672491
 10
214.3568353681
 20
47.6116145531
 10
214.0387070042
 20
48.5812764159
 10
213.8159595928
 20
49.6354486953
 10
213.6905694257
 20
50.7647787483
 10
213.6636507604
 20
51.9592477044
 10
213.7354400143
 20
53.2082565423
 10
213.9053023505
 20
54.5007248544
 10
214.1717297021
 20
55.8251851444
 10
214.5323585529
 20
57.1698858208
 10
214.9839883764
 20
58.522896662
 10
215.5226132466
 20
59.8722133764
 10
216.1434541059
 20
61.2058644454
 10
216.841002888
 20
62.5120179633
 10
217.6090699331
 20
63.7790839158
 10
218.4408406226
 20
64.9958217799
 10
219.3289366239
 20
66.1514351958
 10
220.2654771349
 20
67.2356719621
 10
221.2421536287
 20
68.2389128126
 10
222.2503004828
 20
69.1522555363
 10
223.2809730164
 20
69.9675972897
 10
224.3250269275
 20
70.6777040296
 10
225.3731990467
 20
71.2762761425
 10
226.4161896554
 20
71.7580012895
 10
227.4447449684
 20
72.1186073454
 10
228.4497395346
 20
72.3548932375
 10
229.4222563321
 20
72.4647637766
 10
230.3536671106
 20
72.4472440984
 10
231.2357084537
 20
72.3024885919
 10
232.0605538892
 20
72.0317829836
 10
232.820886329
 20
71.6375276008
 10
233.5099583262
 20
71.1232219663
 10
233.7473372796
 20
70.9016730497
  0
LWPOLYLINE
  5
287
330
1F
100
AcDbEntity
  8
0
  6
Continuous
 62
     7
370
    25
100
AcDbPolyline
 90
       12
 70
   128
 43
0.0
 10
220.8746625795
 20
65.9047680022
 10
221.7902416188
 20
66.8792498867
 10
222.7389543372
 20
67.7682250665
 10
223.7118573709
 20
68.5633146499
 10
224.6997794589
 20
69.2570234009
 10
225.6934076292
 20
69.8428123077
 10
226.683375321
 20
70.3151578188
 10
227.6603501354
 20
70.669608585
 10
228.6151226157
 20
70.9028230221
 10
229.5386924341
 20
71.0126023358
 10
230.4223531381
 20
70.9979120677
 10
230.6752131557
 20
70.9696546353
  0
SPLINE
  5
288
330
1F
100
AcDbEntity
  8
0
  6
Continuous
 62
     7
370
    25
100
AcDbSpline
210
0.0
220
0.0
230
1.0
 70
     8
 71
     3
 72
    26
 73
    22
 74
     0
 42
0.000000001
 43
0.00000001
 40
0.0
 40
0.0
 40
0.0
 40
0.0
 40
0.1250000000000009
 40
0.1250000000000009
 40
0.2500000000000019
 40
0.2500000000000019
 40
0.3125000000000011
 40
0.3125000000000011
 40
0.3750000000000004
 40
0.3750000000000004
 40
0.4375000000000002
 40
0.4375000000000002
 40
0.5000000000000001
 40
0.5000000000000001
 40
0.5625
 40
0.5625
 40
0.6249999999999999
 40
0.6249999999999999
 40
0.7500000000000001
 40
0.7500000000000001
 40
1.0
 40
1.0
 40
1.0
 40
1.0
 10
219.5304693745978
 20
64.23260471601134
 30
0.0
 10
219.5068317783658
 20
64.34218057558432
 30
0.0
 10
219.4892639994841
 20
64.45306983394886
 30
0.0
 10
219.4704514166146
 20
64.67839979381179
 30
0.0
 10
219.4692716418472
 20
64.79407670713016
 30
0.0
 10
219.4853696450826
 20
64.96543221698974
 30
0.0
 10
219.4936883621828
 20
65.02223072908389
 30
0.0
 10
219.5174455114398
 20
65.13505694148097
 30
0.0
 10
219.5330678904888
 20
65.19150979514714
 30
0.0
 10
219.5719251028858
 20
65.30009291155574
 30
0.0
 10
219.5951510595883
 20
65.35247287178129
 30
0.0
 10
219.6501497090667
 20
65.4529296470534
 30
0.0
 10
219.6822279760893
 20
65.50120851482482
 30
0.0
 10
219.7526427246244
 20
65.58890549040858
 30
0.0
 10
219.791221146751
 20
65.62889461838454
 30
0.0
 10
219.8749294103472
 20
65.70137330250013
 30
0.0
 10
219.9200581202891
 20
65.73370992687674
 30
0.0
 10
220.0593387624792
 20
65.81690969423039
 30
0.0
 10
220.1601278340409
 20
65.85573841686649
 30
0.0
 10
220.4632001052735
 20
65.93115470432164
 30
0.0
 10
220.6717241957586
 20
65.93102455795089
 30
0.0
 10
220.874662615449
 20
65.90476832862467
 30
0.0
  0
LWPOLYLINE
  5
289
330
1F
100
AcDbEntity
  8
0
  6
Continuous
 62
     7
370
    25
100
AcDbPolyline
 90
       17
 70
   128
 43
0.0
 10
216.5934907456
 20
46.5767534259
 10
216.5330666529
 20
46.6564852648
 10
216.0469086822
 20
47.4264117264
 10
215.6547994283
 20
48.3018055661
 10
215.3607217685
 20
49.273774888
 10
215.1676635191
 20
50.3324455615
 10
215.0775851671
 20
51.4670630315
 10
215.0914020894
 20
52.6661015415
 10
215.208974016
 20
53.9173808656
 10
215.4291063473
 20
55.2081896935
 10
215.7495633245
 20
56.5254157634
 10
216.1670891036
 20
57.8556782758
 10
216.6774426581
 20
59.1854632525
 10
217.2754392669
 20
60.5012626975
 10
217.9550045156
 20
61.789709764
 10
218.7092355406
 20
63.0377167729
 10
219.530469518
 20
64.232604485
  0
LINE
  5
28A
330
1F
100
AcDbEntity
  8
0
  6
Continuous
 62
     7
370
    25
100
AcDbLine
 10
218.0550771036
 20
43.9886835409
 30
0.0
 11
218.1767124145
 21
44.0461681474
 31
0.0
  0
LWPOLYLINE
  5
28B
330
1F
100
AcDbEntity
  8
0
  6
Continuous
 62
     7
370
    25
100
AcDbPolyline
 90
       16
 70
   128
 43
0.0
 10
211.8386302704
 20
56.7592138059
 10
211.8479434068
 20
56.802015966
 10
212.1842331111
 20
58.1364891795
 10
212.6115172028
 20
59.4821170697
 10
213.1260400025
 20
60.8270740306
 10
213.7232799437
 20
62.159540992
 10
214.3979890851
 20
63.4678084584
 10
215.1442372336
 20
64.7403784073
 10
215.9554672614
 20
65.9660677064
 10
216.8245491071
 20
67.134105448
 10
217.7438459594
 20
68.2342266701
 10
218.7052784649
 20
69.2567634155
 10
219.700397827
 20
70.1927295166
 10
220.720459233
 20
71.0338994866
 10
221.7564976696
 20
71.7728811843
 10
222.4803543478
 20
72.2223504621
  0
LWPOLYLINE
  5
28C
330
1F
100
AcDbEntity
  8
0
  6
Continuous
 62
     7
370
    25
100
AcDbPolyline
 90
       24
 70
   128
 43
0.0
 10
211.410444513
 20
53.063333716
 10
211.4590312682
 20
54.2870583418
 10
211.6043628215
 20
55.5561248547
 10
211.8451635721
 20
56.8593814713
 10
212.1793162995
 20
58.1853749635
 10
212.6038852121
 20
59.5224524637
 10
213.1151383384
 20
60.8588636495
 10
213.7085837461
 20
62.1828639731
 10
214.3790051043
 20
63.4828173209
 10
215.1205117323
 20
64.7473009523
 10
215.9265866737
 20
65.9652028346
 10
216.7901466237
 20
67.1258185963
 10
217.7036018569
 20
68.2189492411
 10
218.6589253743
 20
69.2349882142
 10
219.6477217213
 20
70.1650075184
 10
220.6613010737
 20
71.0008324228
 10
221.6907562878
 20
71.7351186422
 10
222.7270404438
 20
72.3614138324
 10
223.7610466944
 20
72.8742128114
 10
224.7836879485
 20
73.2690096437
 10
225.7859775431
 20
73.5423350853
 10
226.7591067869
 20
73.6917861395
 10
227.6945244795
 20
73.7160514299
 10
228.459775259
 20
73.6370661997
  0
LWPOLYLINE
  5
28D
330
1F
100
AcDbEntity
  8
0
  6
Continuous
 62
     7
370
    25
100
AcDbPolyline
 90
        3
 70
   128
 43
0.0
 10
211.5628363219
 20
51.0387295555
 10
211.4590312682
 20
51.8957061637
 10
211.4296114509
 20
52.3229093623
  0
SPLINE
  5
28E
330
1F
100
AcDbEntity
  8
0
  6
Continuous
 62
     7
370
    25
100
AcDbSpline
210
0.0
220
0.0
230
1.0
 70
     8
 71
     3
 72
    10
 73
     6
 74
     0
 42
0.000000001
 43
0.00000001
 40
0.0
 40
0.0
 40
0.0
 40
0.0
 40
0.5
 40
0.5
 40
1.0
 40
1.0
 40
1.0
 40
1.0
 10
220.2571574422292
 20
62.76955143519161
 30
0.0
 10
220.1531929514449
 20
62.842889808262
 30
0.0
 10
220.0633846750175
 20
62.9301255660554
 30
0.0
 10
219.9113422470188
 20
63.1310561072514
 30
0.0
 10
219.8494366586579
 20
63.24522687344837
 30
0.0
 10
219.8049869540674
 20
63.36824455660847
 30
0.0
  0
SPLINE
  5
28F
330
1F
100
AcDbEntity
  8
0
  6
Continuous
 62
     7
370
    25
100
AcDbSpline
210
0.0
220
0.0
230
1.0
 70
     8
 71
     3
 72
    14
 73
    10
 74
     0
 42
0.000000001
 43
0.00000001
 40
0.0
 40
0.0
 40
0.0
 40
0.0
 40
0.25
 40
0.25
 40
0.5
 40
0.5
 40
0.75
 40
0.75
 40
1.0
 40
1.0
 40
1.0
 40
1.0
 10
219.8049869540674
 20
63.36824455660846
 30
0.0
 10
219.7822661512023
 20
63.431125976266
 30
0.0
 10
219.7603516408528
 20
63.50017240573942
 30
0.0
 10
219.71824058679
 20
63.6478249223582
 30
0.0
 10
219.698719032877
 20
63.7242247092165
 30
0.0
 10
219.6603727907032
 20
63.8785570006121
 30
0.0
 10
219.6420131978194
 20
63.95550959694375
 30
0.0
 10
219.6000097532378
 20
64.10089976445974
 30
0.0
 10
219.5762334322247
 20
64.16749067065277
 30
0.0
 10
219.5477719281226
 20
64.2079862858841
 30
0.0
  0
LINE
  5
290
330
1F
100
AcDbEntity
  8
0
  6
Continuous
 62
     7
370
    25
100
AcDbLine
 10
219.5477721164
 20
64.2079866776
 30
0.0
 11
219.530469518
 21
64.232604485
 31
0.0
  0
LINE
  5
291
330
1F
100
AcDbEntity
  8
0
  6
Continuous
 62
     7
370
    25
100
AcDbLine
 10
220.8746625795
 20
65.9047680022
 30
0.0
 11
220.8919651779
 21
65.8801501949
 31
0.0
  0
SPLINE
  5
292
330
1F
100
AcDbEntity
  8
0
  6
Continuous
 62
     7
370
    25
100
AcDbSpline
210
0.0
220
0.0
230
1.0
 70
     8
 71
     3
 72
    16
 73
    12
 74
     0
 42
0.000000001
 43
0.00000001
 40
0.0
 40
0.0
 40
0.0
 40
0.0
 40
0.1250000000000001
 40
0.1250000000000001
 40
0.2500000000000003
 40
0.2500000000000003
 40
0.5000000000000002
 40
0.5000000000000002
 40
0.7500000000000001
 40
0.7500000000000001
 40
1.0
 40
1.0
 40
1.0
 40
1.0
 10
220.8919651689737
 20
65.8801498984974
 30
0.0
 10
220.9061175753778
 20
65.86001356268459
 30
0.0
 10
220.9277759798515
 20
65.84321614200717
 30
0.0
 10
220.9801939088868
 20
65.81637062067568
 30
0.0
 10
221.0107867880252
 20
65.8061451361147
 30
0.0
 10
221.1098676368827
 20
65.78164469568202
 30
0.0
 10
221.1837501744986
 20
65.77338477328051
 30
0.0
 10
221.3368497668899
 20
65.7621988065756
 30
0.0
 10
221.4149337415375
 20
65.7596021348244
 30
0.0
 10
221.5742773752796
 20
65.75757313399069
 30
0.0
 10
221.6529302701112
 20
65.75821072265293
 30
0.0
 10
221.7286827379038
 20
65.76130382346797
 30
0.0
  0
SPLINE
  5
293
330
1F
100
AcDbEntity
  8
0
  6
Continuous
 62
     7
370
    25
100
AcDbSpline
210
0.0
220
0.0
230
1.0
 70
     8
 71
     3
 72
    10
 73
     6
 74
     0
 42
0.000000001
 43
0.00000001
 40
0.0
 40
0.0
 40
0.0
 40
0.0
 40
0.5
 40
0.5
 40
1.0
 40
1.0
 40
1.0
 40
1.0
 10
221.7286827379038
 20
65.76130382346797
 30
0.0
 10
221.8768770778046
 20
65.76735484790171
 30
0.0
 10
222.0191015435352
 20
65.7571926176886
 30
0.0
 10
222.2914929338759
 20
65.70614218174852
 30
0.0
 10
222.4216202637445
 20
65.66478107910396
 30
0.0
 10
222.5396956059298
 20
65.60900721115168
 30
0.0
  0
ARC
  5
294
330
1F
100
AcDbEntity
  8
0
  6
Continuous
 62
     7
370
    25
100
AcDbCircle
 10
205.2097355563
 20
60.8729375168
 30
0.0
 40
4.14325203190605
100
AcDbArc
 50
211.7444095219
 51
236.2139194594
  0
SPLINE
  5
295
330
1F
100
AcDbEntity
  8
0
  6
Continuous
 62
     7
370
    25
100
AcDbSpline
210
0.0
220
0.0
230
1.0
 70
     8
 71
     3
 72
     8
 73
     4
 74
     0
 42
0.000000001
 43
0.00000001
 40
0.0
 40
0.0
 40
0.0
 40
0.0
 40
1.0
 40
1.0
 40
1.0
 40
1.0
 10
203.116741936793
 20
57.76830279191302
 30
0.0
 10
202.6399686449689
 20
58.07639559984566
 30
0.0
 10
202.163166268124
 20
58.38462504541842
 30
0.0
 10
201.6863338235983
 20
58.69299020163832
 30
0.0
  0
SPLINE
  5
296
330
1F
100
AcDbEntity
  8
0
  6
Continuous
 62
     7
370
    25
100
AcDbSpline
210
0.0
220
0.0
230
1.0
 70
     8
 71
     3
 72
    23
 73
    19
 74
     0
 42
0.000000001
 43
0.00000001
 40
0.0
 40
0.0
 40
0.0
 40
0.0
 40
0.0521034701708873
 40
0.1035642834125924
 40
0.1544746865200716
 40
0.2049299526164555
 40
0.2550279491506813
 40
0.3048686360231476
 40
0.3545535041244926
 40
0.4041849683453156
 40
0.453865732172065
 40
0.5036981429684882
 40
0.5902048055422713
 40
0.6743008903363699
 40
0.7566325442071808
 40
0.8378852029928276
 40
0.9187688149246216
 40
1.0
 40
1.0
 40
1.0
 40
1.0
 10
203.9973067403346
 20
57.59357209379292
 30
0.0
 10
203.9920378013946
 20
57.58365063155686
 30
0.0
 10
203.9815649118945
 20
57.56393008082362
 30
0.0
 10
203.9623186161248
 20
57.53936225187663
 30
0.0
 10
203.9405228758149
 20
57.51867366959017
 30
0.0
 10
203.9158715845238
 20
57.50214273438867
 30
0.0
 10
203.8883750703026
 20
57.48962523445728
 30
0.0
 10
203.8579640151183
 20
57.48109061195049
 30
0.0
 10
203.82459364772
 20
57.47648073441594
 30
0.0
 10
203.7882177431465
 20
57.47574600949599
 30
0.0
 10
203.7487894325076
 20
57.47884102394672
 30
0.0
 10
203.6959351525482
 20
57.48737802216353
 30
0.0
 10
203.627387359117
 20
57.50497599718759
 30
0.0
 10
203.539656410859
 20
57.53661436915935
 30
0.0
 10
203.4449224584328
 20
57.57879450229109
 30
0.0
 10
203.342891762875
 20
57.63153005435179
 30
0.0
 10
203.2339881035062
 20
57.69384388180896
 30
0.0
 10
203.1558798135977
 20
57.74344770511268
 30
0.0
 10
203.116741936793
 20
57.76830279191302
 30
0.0
  0
SPLINE
  5
297
330
1F
100
AcDbEntity
  8
0
  6
Continuous
 62
     7
370
    25
100
AcDbSpline
210
0.0
220
0.0
230
1.0
 70
     8
 71
     3
 72
     8
 73
     4
 74
     0
 42
0.000000001
 43
0.00000001
 40
0.0
 40
0.0
 40
0.0
 40
0.0
 40
1.0
 40
1.0
 40
1.0
 40
1.0
 10
205.470809766789
 20
56.64625195723634
 30
0.0
 10
204.9794424547475
 20
56.96212657720395
 30
0.0
 10
204.488056254821
 20
57.27811259849356
 30
0.0
 10
203.9966505446769
 20
57.59420947933637
 30
0.0
  0
SPLINE
  5
298
330
1F
100
AcDbEntity
  8
0
  6
Continuous
 62
     7
370
    25
100
AcDbSpline
210
0.0
220
0.0
230
1.0
 70
     8
 71
     3
 72
    18
 73
    14
 74
     0
 42
0.000000001
 43
0.00000001
 40
0.0
 40
0.0
 40
0.0
 40
0.0
 40
0.0923645816212209
 40
0.1844372988306734
 40
0.2764543021124246
 40
0.3686515499666549
 40
0.4612630116274308
 40
0.5545189370672587
 40
0.6486442564301547
 40
0.7438571603366981
 40
0.8403678983476496
 40
0.9203923541260163
 40
1.0
 40
1.0
 40
1.0
 40
1.0
 10
206.2843738859881
 20
56.00194423269237
 30
0.0
 10
206.2608117893316
 20
56.01721341104874
 30
0.0
 10
206.2137620502883
 20
56.04770351842518
 30
0.0
 10
206.1413761365182
 20
56.0973257418163
 30
0.0
 10
206.0679018734176
 20
56.14964831154231
 30
0.0
 10
205.9932063333292
 20
56.20496257831572
 30
0.0
 10
205.9173454535791
 20
56.26320097088627
 30
0.0
 10
205.8403300854762
 20
56.32439747746898
 30
0.0
 10
205.7621898841484
 20
56.3885683003566
 30
0.0
 10
205.6829516137188
 20
56.45572792297988
 30
0.0
 10
205.6076458076323
 20
56.52158711509128
 30
0.0
 10
205.5368131761239
 20
56.58512340793598
 30
0.0
 10
205.4929088057687
 20
56.62578416111798
 30
0.0
 10
205.4710139391887
 20
56.64606145376011
 30
0.0
  0
LINE
  5
299
330
1F
100
AcDbEntity
  8
0
  6
Continuous
 62
     7
370
    25
100
AcDbLine
 10
206.9240804178
 20
55.5901904262
 30
0.0
 11
206.2843735755
 21
56.0019440938
 31
0.0
  0
SPLINE
  5
29A
330
1F
100
AcDbEntity
  8
0
  6
Continuous
 62
     7
370
    25
100
AcDbSpline
210
0.0
220
0.0
230
1.0
 70
     8
 71
     3
 72
    25
 73
    21
 74
     0
 42
0.000000001
 43
0.00000001
 40
0.0
 40
0.0
 40
0.0
 40
0.0
 40
0.0280056024288458
 40
0.0559514328347807
 40
0.0838901607643795
 40
0.1118745076912746
 40
0.1399569498912903
 40
0.1681894282721835
 40
0.1966230730105187
 40
0.2253079499155941
 40
0.2542928341277034
 40
0.3799484016849037
 40
0.5057844887501384
 40
0.6313077644955207
 40
0.7532057173414551
 40
0.8039627394925707
 40
0.853612994776574
 40
0.9025574087123944
 40
0.951212440739069
 40
1.0
 40
1.0
 40
1.0
 40
1.0
 10
208.0264460109784
 20
56.3060964165695
 30
0.0
 10
208.0313950438784
 20
56.27847616650616
 30
0.0
 10
208.0412825470166
 20
56.22329461594943
 30
0.0
 10
208.0528196825571
 20
56.14414191876575
 30
0.0
 10
208.0618936635042
 20
56.06784372944927
 30
0.0
 10
208.0682626341602
 20
55.99465039551784
 30
0.0
 10
208.071978486204
 20
55.92450268881827
 30
0.0
 10
208.073014247121
 20
55.85742359112182
 30
0.0
 10
208.0713645628402
 20
55.79341435372095
 30
0.0
 10
208.0670168505183
 20
55.73247782647748
 30
0.0
 10
208.0521593709463
 20
55.61058383426884
 30
0.0
 10
208.0070710526929
 20
55.45567934946546
 30
0.0
 10
207.8937110649511
 20
55.32473675590209
 30
0.0
 10
207.7318876618544
 20
55.26885927409209
 30
0.0
 10
207.5578605265765
 20
55.28873741980299
 30
0.0
 10
207.4064844291746
 20
55.33605842551719
 30
0.0
 10
207.2960690706161
 20
55.38097689262515
 30
0.0
 10
207.1789098149613
 20
55.4383522307601
 30
0.0
 10
207.0553604153876
 20
55.50702373492452
 30
0.0
 10
206.9678799006685
 20
55.56244298943678
 30
0.0
 10
206.9240801541754
 20
55.590190303296
 30
0.0
  0
ARC
  5
29B
330
1F
100
AcDbEntity
  8
0
  6
Continuous
 62
     7
370
    25
100
AcDbCircle
 10
219.2194671754
 20
58.0921467851
 30
0.0
 40
11.33462419218118
100
AcDbArc
 50
170.9338462887
 51
189.0661537113
  0
SPLINE
  5
29C
330
1F
100
AcDbEntity
  8
0
  6
Continuous
 62
     7
370
    25
100
AcDbSpline
210
0.0
220
0.0
230
1.0
 70
     8
 71
     3
 72
    26
 73
    22
 74
     0
 42
0.000000001
 43
0.00000001
 40
0.0
 40
0.0
 40
0.0
 40
0.0
 40
0.0241214275648271
 40
0.0482078233537316
 40
0.0723095879192913
 40
0.0964771461111189
 40
0.1207606318198071
 40
0.1452095829254162
 40
0.1698726554197787
 40
0.1947973643368331
 40
0.220029857357819
 40
0.2456147249582767
 40
0.369097474400555
 40
0.4940700204039418
 40
0.6192566393622251
 40
0.7454654421861286
 40
0.7971580294157486
 40
0.8481837569726647
 40
0.8988139831107693
 40
0.9493262809200828
 40
1.0
 40
1.0
 40
1.0
 40
1.0
 10
206.9240801541754
 20
63.35430069466057
 30
0.0
 10
206.9457951934752
 20
63.33997444235412
 30
0.0
 10
206.9891937351193
 20
63.31134274389206
 30
0.0
 10
207.0524933628481
 20
63.26336224860071
 30
0.0
 10
207.1143495875252
 20
63.21177157964438
 30
0.0
 10
207.1746508684799
 20
63.15620183192205
 30
0.0
 10
207.2334396104009
 20
63.09674821648904
 30
0.0
 10
207.2907211472695
 20
63.03338209641533
 30
0.0
 10
207.3465154399231
 20
62.9661080703077
 30
0.0
 10
207.4008420064867
 20
62.89492529098693
 30
0.0
 10
207.4537284140395
 20
62.81982398211941
 30
0.0
 10
207.5705288797405
 20
62.64056026601065
 30
0.0
 10
207.7324019748298
 20
62.33024990296632
 30
0.0
 10
207.8955865521609
 20
61.86033586606665
 30
0.0
 10
208.0070984332128
 20
61.3613728582048
 30
0.0
 10
208.0542323601785
 20
60.95247750508416
 30
0.0
 10
208.0693533737476
 20
60.64818812438939
 30
0.0
 10
208.0713091298817
 20
60.44692130481772
 30
0.0
 10
208.0648319660856
 20
60.25126124346395
 30
0.0
 10
208.0507044375703
 20
60.06064162408546
 30
0.0
 10
208.0345407484451
 20
59.93907684440233
 30
0.0
 10
208.0264460109784
 20
59.87819748888408
 30
0.0
  0
LINE
  5
29D
330
1F
100
AcDbEntity
  8
0
  6
Continuous
 62
     7
370
    25
100
AcDbLine
 10
206.2843735755
 20
63.7672755449
 30
0.0
 11
206.9240804178
 21
63.3543005739
 31
0.0
  0
SPLINE
  5
29E
330
1F
100
AcDbEntity
  8
0
  6
Continuous
 62
     7
370
    25
100
AcDbSpline
210
0.0
220
0.0
230
1.0
 70
     8
 71
     3
 72
    14
 73
    10
 74
     0
 42
0.000000001
 43
0.00000001
 40
0.0
 40
0.0
 40
0.0
 40
0.0
 40
0.0789259589574188
 40
0.1582323961897878
 40
0.3308776440745743
 40
0.5000645817719692
 40
0.6670803235524686
 40
0.8332687177868867
 40
1.0
 40
1.0
 40
1.0
 40
1.0
 10
205.4704211702413
 20
63.97585797795357
 30
0.0
 10
205.4921380512423
 20
63.97746115585919
 30
0.0
 10
205.5356765037864
 20
63.9806752401082
 30
0.0
 10
205.6272102324096
 20
63.98149606200248
 30
0.0
 10
205.7441314819293
 20
63.97356058326054
 30
0.0
 10
205.8849650305578
 20
63.94728574127728
 30
0.0
 10
206.0221776794608
 20
63.9043286823337
 30
0.0
 10
206.1560961707393
 20
63.84597276618689
 30
0.0
 10
206.2415681881863
 20
63.79353656285162
 30
0.0
 10
206.2843738859881
 20
63.76727570765146
 30
0.0
  0
SPLINE
  5
29F
330
1F
100
AcDbEntity
  8
0
  6
Continuous
 62
     7
370
    25
100
AcDbSpline
210
0.0
220
0.0
230
1.0
 70
     8
 71
     3
 72
     8
 73
     4
 74
     0
 42
0.000000001
 43
0.00000001
 40
0.0
 40
0.0
 40
0.0
 40
0.0
 40
1.0
 40
1.0
 40
1.0
 40
1.0
 10
203.6681175871324
 20
65.13824938935787
 30
0.0
 10
204.2688758108289
 20
64.7509819061987
 30
0.0
 10
204.8696046736897
 20
64.36351455627513
 30
0.0
 10
205.470305318037
 20
63.97584766368525
 30
0.0
  0
SPLINE
  5
2A0
330
1F
100
AcDbEntity
  8
0
  6
Continuous
 62
     7
370
    25
100
AcDbSpline
210
0.0
220
0.0
230
1.0
 70
     8
 71
     3
 72
    13
 73
     9
 74
     0
 42
0.000000001
 43
0.00000001
 40
0.0
 40
0.0
 40
0.0
 40
0.0
 40
0.1666651380049428
 40
0.3328869539367884
 40
0.4989979368983269
 40
0.6653319947692103
 40
0.8322224399023144
 40
1.0
 40
1.0
 40
1.0
 40
1.0
 10
203.326289052098
 20
65.43931416844364
 30
0.0
 10
203.3465863946564
 20
65.42575427254411
 30
0.0
 10
203.3871270897181
 20
65.39867054948283
 30
0.0
 10
203.4462697088429
 20
65.35348469184783
 30
0.0
 10
203.5040389178319
 20
65.3050764346355
 30
0.0
 10
203.560290938211
 20
65.25303808492528
 30
0.0
 10
203.6152250626082
 20
65.1977308125518
 30
0.0
 10
203.6504518082261
 20
65.15810518472833
 30
0.0
 10
203.668111869354
 20
65.13823985237013
 30
0.0
  0
SPLINE
  5
2A1
330
1F
100
AcDbEntity
  8
0
  6
Continuous
 62
     7
370
    25
100
AcDbSpline
210
0.0
220
0.0
230
1.0
 70
     8
 71
     3
 72
     8
 73
     4
 74
     0
 42
0.000000001
 43
0.00000001
 40
0.0
 40
0.0
 40
0.0
 40
0.0
 40
1.0
 40
1.0
 40
1.0
 40
1.0
 10
201.3823085363073
 20
66.6940360208231
 30
0.0
 10
202.0303386087076
 20
66.27604070493837
 30
0.0
 10
202.6783315858094
 20
65.85779994252073
 30
0.0
 10
203.326289052098
 20
65.43931416844364
 30
0.0
  0
LWPOLYLINE
  5
2A2
330
1F
100
AcDbEntity
  8
0
  6
Continuous
 62
     7
370
    25
100
AcDbPolyline
 90
       19
 70
   128
 43
0.0
 10
201.3823091866
 20
66.6940360713
 10
201.7852014482
 20
67.8610000567
 10
202.2751565865
 20
69.0210044815
 10
202.8461568218
 20
70.1598018775
 10
203.4911879965
 20
71.2634045683
 10
204.2023284787
 20
72.3182591869
 10
204.9708436633
 20
73.3114088354
 10
205.787294632
 20
74.2306554343
 10
206.6416535628
 20
75.0647096169
 10
207.5234268783
 20
75.8033257008
 10
208.4217845259
 20
76.4374333544
 10
209.3256926748
 20
76.9592430983
 10
210.2240493346
 20
77.3623466506
 10
211.1058207567
 20
77.6417933874
 10
211.9601767241
 20
77.7941501933
 10
212.7766240707
 20
77.8175466015
 10
213.5451346456
 20
77.7116946719
 10
214.2562698594
 20
77.4778947313
 10
214.4320469131
 20
77.3957830365
  0
SPLINE
  5
2A3
330
1F
100
AcDbEntity
  8
0
  6
Continuous
 62
     7
370
    25
100
AcDbSpline
210
0.0
220
0.0
230
1.0
 70
    11
 71
     3
 72
    39
 73
    35
 74
     0
 42
0.000000001
 43
0.00000001
 40
0.0
 40
0.0
 40
0.0
 40
0.0
 40
0.0310664058351138
 40
0.0621048158426128
 40
0.0931361551798068
 40
0.1235538293503658
 40
0.1538561545811087
 40
0.1850588072749145
 40
0.2160250992947247
 40
0.2471867223797483
 40
0.2784462884303736
 40
0.3100516090231184
 40
0.3419834369138907
 40
0.3734259894013173
 40
0.4048604886784725
 40
0.4368740651833282
 40
0.4685120685924569
 40
0.4998055358633181
 40
0.5309508213225923
 40
0.561864978443802
 40
0.5930416446592409
 40
0.6233742450133358
 40
0.6540913579076673
 40
0.6849496782718484
 40
0.7158160645167636
 40
0.7471731804043453
 40
0.7784514311865116
 40
0.8101295911560921
 40
0.8419598919688329
 40
0.8735175891922246
 40
0.9050808037885637
 40
0.9370235169792489
 40
0.9687441590031279
 40
0.9999999999999999
 40
0.9999999999999999
 40
0.9999999999999999
 40
0.9999999999999999
 10
214.5908940175127
 20
75.69922639616453
 30
0.0
 10
214.8537796377131
 20
75.67069190887403
 30
0.0
 10
215.3806682481966
 20
75.58474942055226
 30
0.0
 10
216.1446803172735
 20
75.38437430047948
 30
0.0
 10
216.8518305053216
 20
75.13737219426031
 30
0.0
 10
217.4647415699181
 20
74.85939031610701
 30
0.0
 10
217.9618728955885
 20
74.56525661877862
 30
0.0
 10
218.3210646166613
 20
74.26375009058616
 30
0.0
 10
218.542783885418
 20
73.9567525856843
 30
0.0
 10
218.6080357628017
 20
73.64624732428264
 30
0.0
 10
218.5211885516881
 20
73.32710283953404
 30
0.0
 10
218.2788429639295
 20
72.99778287396192
 30
0.0
 10
217.8989051012028
 20
72.65884215240406
 30
0.0
 10
217.3850991480446
 20
72.32100368799401
 30
0.0
 10
216.7592083371337
 20
71.99510578668409
 30
0.0
 10
216.0457373506443
 20
71.69845889344431
 30
0.0
 10
215.2818348743789
 20
71.44235558500525
 30
0.0
 10
214.4960417914769
 20
71.25332801701578
 30
0.0
 10
213.7145043364355
 20
71.14515209496257
 30
0.0
 10
212.9583913516819
 20
71.13748821159265
 30
0.0
 10
212.2560267652869
 20
71.23541024697691
 30
0.0
 10
211.6370064182433
 20
71.45705868048294
 30
0.0
 10
211.1279491532311
 20
71.7929267673946
 30
0.0
 10
210.755005559797
 20
72.23273733357591
 30
0.0
 10
210.5264036085531
 20
72.7438119740976
 30
0.0
 10
210.457557301831
 20
73.29499706185935
 30
0.0
 10
210.5421737150555
 20
73.8526689901707
 30
0.0
 10
210.785282504991
 20
74.38274913108975
 30
0.0
 10
211.167412347809
 20
74.85527348020302
 30
0.0
 10
211.6835479222187
 20
75.24139499109599
 30
0.0
 10
212.310525782721
 20
75.52501917842893
 30
0.0
 10
213.026433215085
 20
75.69475639715576
 30
0.0
 10
213.7948766072709
 20
75.75629523186805
 30
0.0
 10
214.3264053866437
 20
75.72793487961168
 30
0.0
 10
214.5908940175127
 20
75.69922639616453
 30
0.0
  0
LINE
  5
2A4
330
1F
100
AcDbEntity
  8
0
  6
Continuous
 62
     7
370
    25
100
AcDbLine
 10
205.3663566045
 20
59.2600997788
 30
0.0
 11
205.6771099284
 21
59.0937124221
 31
0.0
  0
LINE
  5
2A5
330
1F
100
AcDbEntity
  8
0
  6
Continuous
 62
     7
370
    25
100
AcDbLine
 10
204.3793985845
 20
59.829858516
 30
0.0
 11
205.3663566045
 21
59.2600997788
 31
0.0
  0
ARC
  5
2A6
330
1F
100
AcDbEntity
  8
0
  6
Continuous
 62
     7
370
    25
100
AcDbCircle
 10
206.6003684954
 20
63.4233392801
 30
0.0
 40
4.484274790565371
100
AcDbArc
 50
267.6840627222
 51
286.9866336569
  0
SPLINE
  5
2A7
330
1F
100
AcDbEntity
  8
0
  6
Continuous
 62
     7
370
    25
100
AcDbSpline
210
0.0
220
0.0
230
1.0
 70
     8
 71
     3
 72
    12
 73
     8
 74
     0
 42
0.000000001
 43
0.00000001
 40
0.0
 40
0.0
 40
0.0
 40
0.0
 40
0.1523598330305601
 40
0.3826801306822303
 40
0.6138741683107227
 40
0.8254372814239916
 40
1.0
 40
1.0
 40
1.0
 40
1.0
 10
215.929399975812
 20
72.69673068082881
 30
0.0
 10
215.7244326374303
 20
72.80887708056156
 30
0.0
 10
215.2096189475136
 20
73.0905536750526
 30
0.0
 10
214.1965436202244
 20
73.50671964751969
 30
0.0
 10
212.9891648392653
 20
73.7899612754672
 30
0.0
 10
211.8868343539143
 20
73.820908118208
 30
0.0
 10
211.3218953213834
 20
73.6131807408863
 30
0.0
 10
211.0664933636411
 20
73.51926975971912
 30
0.0
  0
SPLINE
  5
2A8
330
1F
100
AcDbEntity
  8
0
  6
Continuous
 62
     7
370
    25
100
AcDbSpline
210
0.0
220
0.0
230
1.0
 70
     8
 71
     3
 72
    10
 73
     6
 74
     0
 42
0.000000001
 43
0.00000001
 40
0.0
 40
0.0
 40
0.0
 40
0.0
 40
0.3798174073072795
 40
0.9603711649033085
 40
1.0
 40
1.0
 40
1.0
 40
1.0
 10
217.0692800976715
 20
72.16850375331033
 30
0.0
 10
216.9396274804232
 20
72.23883231514769
 30
0.0
 10
216.6117998646687
 20
72.4166586115688
 30
0.0
 10
216.2038713196585
 20
72.5897114619712
 30
0.0
 10
215.9472385382266
 20
72.68891689421952
 30
0.0
 10
215.9308400480149
 20
72.6952559881599
 30
0.0
  0
SPLINE
  5
2A9
330
1F
100
AcDbEntity
  8
0
  6
Continuous
 62
     7
370
    25
100
AcDbSpline
210
0.0
220
0.0
230
1.0
 70
     8
 71
     3
 72
    24
 73
    20
 74
     0
 42
0.000000001
 43
0.00000001
 40
0.0
 40
0.0
 40
0.0
 40
0.0
 40
0.0618840405107654
 40
0.1150097917091882
 40
0.1593831560946264
 40
0.2428115036280618
 40
0.3183318591855066
 40
0.393554385675793
 40
0.4204843277094077
 40
0.4483397483172464
 40
0.4771286747760933
 40
0.5451537944670507
 40
0.6363475785735143
 40
0.6968782886074498
 40
0.7498596715029577
 40
0.7959701313029689
 40
0.8771179313375886
 40
0.9543004211730736
 40
1.0
 40
1.0
 40
1.0
 40
1.0
 10
214.5360154505104
 20
75.12536849620777
 30
0.0
 10
214.3520640044305
 20
75.1442628861732
 30
0.0
 10
214.0101952879788
 20
75.17937759162002
 30
0.0
 10
213.545976750082
 20
75.17288817851703
 30
0.0
 10
213.0365097344731
 20
75.1251637573895
 30
0.0
 10
212.4974099038492
 20
75.00054634588787
 30
0.0
 10
211.9545719251122
 20
74.75805598148882
 30
0.0
 10
211.614178908262
 20
74.50068324907429
 30
0.0
 10
211.4075521998348
 20
74.28587614691196
 30
0.0
 10
211.2895681436022
 20
74.13937279590232
 30
0.0
 10
211.1373977394191
 20
73.90962197157604
 30
0.0
 10
210.9707171008346
 20
73.53667927621397
 30
0.0
 10
210.9023555199992
 20
73.07412022349554
 30
0.0
 10
210.9527109836183
 20
72.64578752529863
 30
0.0
 10
211.0581401271336
 20
72.3258606316533
 30
0.0
 10
211.2403394538196
 20
71.98539511646035
 30
0.0
 10
211.5412178788901
 20
71.64944685960516
 30
0.0
 10
211.9309027734886
 20
71.37638755889017
 30
0.0
 10
212.223821729683
 20
71.28243248796286
 30
0.0
 10
212.3327576637393
 20
71.24749079779791
 30
0.0
  0
SPLINE
  5
2AA
330
1F
100
AcDbEntity
  8
0
  6
Continuous
 62
     7
370
    25
100
AcDbSpline
210
0.0
220
0.0
230
1.0
 70
     8
 71
     3
 72
    22
 73
    18
 74
     0
 42
0.000000001
 43
0.00000001
 40
0.0
 40
0.0
 40
0.0
 40
0.0
 40
0.0230829229495474
 40
0.0814197413172736
 40
0.1466435053443634
 40
0.2187937853049322
 40
0.2807407135074694
 40
0.3340438838333644
 40
0.3787027500442408
 40
0.4147200048053076
 40
0.5178816021977742
 40
0.6098460193591848
 40
0.7031822298123865
 40
0.7529336032719128
 40
0.8047834054338313
 40
0.8938700176266888
 40
1.0
 40
1.0
 40
1.0
 40
1.0
 10
217.8373322432073
 20
72.64462035562202
 30
0.0
 10
217.8617356462939
 20
72.6676195090494
 30
0.0
 10
217.9478130798542
 20
72.74874377250015
 30
0.0
 10
218.0555074970523
 20
72.89203945448513
 30
0.0
 10
218.1526780984329
 20
73.08081395732691
 30
0.0
 10
218.1837289986215
 20
73.26677940888163
 30
0.0
 10
218.1543760769803
 20
73.43859409547221
 30
0.0
 10
218.0858699423739
 20
73.58540002329862
 30
0.0
 10
217.9980595565496
 20
73.70661108019102
 30
0.0
 10
217.8437677676466
 20
73.87219418928288
 30
0.0
 10
217.5759418213428
 20
74.08235845489988
 30
0.0
 10
217.1243715652917
 20
74.33780225416118
 30
0.0
 10
216.6768089586902
 20
74.54443896574392
 30
0.0
 10
216.2679151800246
 20
74.70294315327247
 30
0.0
 10
215.8458322645392
 20
74.84546114636181
 30
0.0
 10
215.2675191308805
 20
75.00871666455791
 30
0.0
 10
214.7936406523367
 20
75.0842853786806
 30
0.0
 10
214.5360154505104
 20
75.12536849620777
 30
0.0
  0
LINE
  5
2AB
330
1F
100
AcDbEntity
  8
0
  6
Continuous
 62
     7
370
    25
100
AcDbLine
 10
208.0264457286
 20
59.8781973081
 30
0.0
 11
208.0212076656
 21
60.174280731
 31
0.0
  0
LINE
  5
2AC
330
1F
100
AcDbEntity
  8
0
  6
Continuous
 62
     7
370
    25
100
AcDbLine
 10
208.0212076656
 20
60.174280731
 30
0.0
 11
208.064307428
 21
60.8259424277
 31
0.0
  0
LINE
  5
2AD
330
1F
100
AcDbEntity
  8
0
  6
Continuous
 62
     7
370
    25
100
AcDbLine
 10
207.634132326
 20
62.55741332
 30
0.0
 11
207.230244345
 21
62.983565518
 31
0.0
  0
SPLINE
  5
2AE
330
1F
100
AcDbEntity
  8
0
  6
Continuous
 62
     7
370
    25
100
AcDbSpline
210
0.0
220
0.0
230
1.0
 70
     8
 71
     3
 72
    19
 73
    15
 74
     0
 42
0.000000001
 43
0.00000001
 40
0.0
 40
0.0
 40
0.0
 40
0.0
 40
0.0210492621018804
 40
0.1455865440207667
 40
0.2712169722633744
 40
0.3929514297049947
 40
0.5136082229787104
 40
0.6366369099308349
 40
0.699422462668311
 40
0.7643939711952468
 40
0.8122544601557282
 40
0.8606584764820763
 40
0.9188817427801165
 40
1.0
 40
1.0
 40
1.0
 40
1.0
 10
210.946770898168
 20
72.87061854874996
 30
0.0
 10
210.9393023231822
 20
72.92537889565537
 30
0.0
 10
210.8876461646105
 20
73.3041270729905
 30
0.0
 10
211.1304170592701
 20
73.91427798180469
 30
0.0
 10
211.7147475266851
 20
74.60365168504426
 30
0.0
 10
212.6208738943253
 20
75.0209512352763
 30
0.0
 10
213.6952200227873
 20
75.14137719296495
 30
0.0
 10
214.6491538918831
 20
74.98067764937736
 30
0.0
 10
215.3838164344523
 20
74.68331155053556
 30
0.0
 10
215.8566196739247
 20
74.38565347313084
 30
0.0
 10
216.2135898440441
 20
74.01474166835351
 30
0.0
 10
216.4084379855524
 20
73.5824203730459
 30
0.0
 10
216.4374670157965
 20
73.07947904182078
 30
0.0
 10
216.3750934141761
 20
72.74573402924558
 30
0.0
 10
216.3387823582021
 20
72.55144295869873
 30
0.0
  0
SPLINE
  5
2AF
330
1F
100
AcDbEntity
  8
0
  6
Continuous
 62
     7
370
    25
100
AcDbSpline
210
0.0
220
0.0
230
1.0
 70
     8
 71
     3
 72
    10
 73
     6
 74
     0
 42
0.000000001
 43
0.00000001
 40
0.0
 40
0.0
 40
0.0
 40
0.0
 40
0.2952118939789638
 40
0.9806889752106586
 40
1.0
 40
1.0
 40
1.0
 40
1.0
 10
216.3415102141903
 20
72.55020440527633
 30
0.0
 10
216.4243338390671
 20
72.51143922748288
 30
0.0
 10
216.6994725359159
 20
72.38266195509142
 30
0.0
 10
216.9744038500185
 20
72.24147695523203
 30
0.0
 10
217.1228689146929
 20
72.14748936083483
 30
0.0
 10
217.1269368217983
 20
72.14491412332758
 30
0.0
  0
ARC
  5
2B0
330
1F
100
AcDbEntity
  8
0
  6
Continuous
 62
     7
370
    25
100
AcDbCircle
 10
220.3516187795
 20
58.3369854129
 30
0.0
 40
12.46654291792345
100
AcDbArc
 50
171.5249863735
 51
179.8211981812
  0
SPLINE
  5
2B1
330
1F
100
AcDbEntity
  8
0
  6
Continuous
 62
     7
370
    25
100
AcDbSpline
210
0.0
220
0.0
230
1.0
 70
     8
 71
     3
 72
    14
 73
    10
 74
     0
 42
0.000000001
 43
0.00000001
 40
0.0
 40
0.0
 40
0.0
 40
0.0
 40
0.0003951393068452
 40
0.0003951393068452
 40
0.0003951393068452
 40
0.0008163352168663
 40
0.0008163352168663
 40
0.0008163352168663
 40
0.0012378579337219
 40
0.0012378579337219
 40
0.0012378579337219
 40
0.0012378579337219
 10
215.9334325513517
 20
72.69545172744448
 30
0.0
 10
215.978894365583
 20
72.68101486481943
 30
0.0
 10
216.0237819702041
 20
72.66614900425384
 30
0.0
 10
216.0680656628791
 20
72.65086521664836
 30
0.0
 10
216.1152689551185
 20
72.63457377731066
 30
0.0
 10
216.1617947681777
 20
72.61780429922676
 30
0.0
 10
216.2076056774193
 20
72.60057548843147
 30
0.0
 10
216.2534520654084
 20
72.58333333459981
 30
0.0
 10
216.2985913009808
 20
72.56562762839533
 30
0.0
 10
216.3429848590232
 20
72.54748477170455
 30
0.0
  0
LINE
  5
2B2
330
1F
100
AcDbEntity
  8
0
  6
Continuous
 62
     7
370
    25
100
AcDbLine
 10
207.230244345
 20
62.983565518
 30
0.0
 11
206.5903076707
 21
63.3957971581
 31
0.0
  0
LINE
  5
2B3
330
1F
100
AcDbEntity
  8
0
  6
Continuous
 62
     7
370
    25
100
AcDbLine
 10
206.2843735755
 20
63.7672755449
 30
0.0
 11
206.5903076707
 21
63.3957971581
 31
0.0
  0
SPLINE
  5
2B4
330
1F
100
AcDbEntity
  8
0
  6
Continuous
 62
     7
370
    25
100
AcDbSpline
210
0.0
220
0.0
230
1.0
 70
     8
 71
     3
 72
    13
 73
     9
 74
     0
 42
0.000000001
 43
0.00000001
 40
0.0
 40
0.0
 40
0.0
 40
0.0
 40
0.1618322162072525
 40
0.3254505982599473
 40
0.4909687654993002
 40
0.658496471358869
 40
0.8281395684241731
 40
1.0
 40
1.0
 40
1.0
 40
1.0
 10
206.5903080823302
 20
63.39579716201457
 30
0.0
 10
206.5707338168158
 20
63.40835871442942
 30
0.0
 10
206.531369241755
 20
63.4336204629508
 30
0.0
 10
206.4698387224315
 20
63.46631241651911
 30
0.0
 10
206.4062837960891
 20
63.49525858969935
 30
0.0
 10
206.3406637025947
 20
63.51977234613756
 30
0.0
 10
206.2732307998678
 20
63.54020954233036
 30
0.0
 10
206.2273413600959
 20
63.54980725685988
 30
0.0
 10
206.2042476633622
 20
63.55463727243175
 30
0.0
  0
SPLINE
  5
2B5
330
1F
100
AcDbEntity
  8
0
  6
Continuous
 62
     7
370
    25
100
AcDbSpline
210
0.0
220
0.0
230
1.0
 70
     8
 71
     3
 72
     9
 73
     5
 74
     0
 42
0.000000001
 43
0.00000001
 40
0.0
 40
0.0
 40
0.0
 40
0.0
 40
0.4907162487378146
 40
1.0
 40
1.0
 40
1.0
 40
1.0
 10
206.2042418360703
 20
63.55460927540074
 30
0.0
 10
206.1801447985292
 20
63.56270817247242
 30
0.0
 10
206.1310389504896
 20
63.57921240907046
 30
0.0
 10
206.0803275097063
 20
63.5940111505727
 30
0.0
 10
206.0545009969123
 20
63.60154790915892
 30
0.0
  0
SPLINE
  5
2B6
330
1F
100
AcDbEntity
  8
0
  6
Continuous
 62
     7
370
    25
100
AcDbSpline
210
0.0
220
0.0
230
1.0
 70
     8
 71
     3
 72
    14
 73
    10
 74
     0
 42
0.000000001
 43
0.00000001
 40
0.0
 40
0.0
 40
0.0
 40
0.0
 40
0.0310276310582104
 40
0.0622853638091718
 40
0.1248003080249568
 40
0.2498289632719131
 40
0.499889248013546
 40
0.7606946230784146
 40
1.0
 40
1.0
 40
1.0
 40
1.0
 10
205.4705890116375
 20
63.97563719426687
 30
0.0
 10
205.4765810563983
 20
63.97180627542801
 30
0.0
 10
205.4886095830746
 20
63.9641160275598
 30
0.0
 10
205.5126686115857
 20
63.94867863770097
 30
0.0
 10
205.5549009199771
 20
63.92160906074558
 30
0.0
 10
205.6394607391452
 20
63.86739878525585
 30
0.0
 10
205.7627466002282
 20
63.78839644663967
 30
0.0
 10
205.908872988105
 20
63.69479311752493
 30
0.0
 10
206.007236630508
 20
63.63181224047848
 30
0.0
 10
206.0543041019174
 20
63.60167559082519
 30
0.0
  0
LINE
  5
2B7
330
1F
100
AcDbEntity
  8
0
  6
Continuous
 62
     7
370
    25
100
AcDbLine
 10
203.6680888564
 20
65.1382678713
 30
0.0
 11
203.9590562105
 21
64.9501893321
 31
0.0
  0
SPLINE
  5
2B8
330
1F
100
AcDbEntity
  8
0
  6
Continuous
 62
     7
370
    25
100
AcDbSpline
210
0.0
220
0.0
230
1.0
 70
     8
 71
     3
 72
     8
 73
     4
 74
     0
 42
0.000000001
 43
0.00000001
 40
0.0
 40
0.0
 40
0.0
 40
0.0
 40
1.0
 40
1.0
 40
1.0
 40
1.0
 10
203.9904445139326
 20
64.92996680195566
 30
0.0
 10
203.9800020080808
 20
64.93679222685303
 30
0.0
 10
203.9695360751911
 20
64.94353519363953
 30
0.0
 10
203.9590483103746
 20
64.95019428129248
 30
0.0
  0
SPLINE
  5
2B9
330
1F
100
AcDbEntity
  8
0
  6
Continuous
 62
     7
370
    25
100
AcDbSpline
210
0.0
220
0.0
230
1.0
 70
     8
 71
     3
 72
     8
 73
     4
 74
     0
 42
0.000000001
 43
0.00000001
 40
0.0
 40
0.0
 40
0.0
 40
0.0
 40
1.0
 40
1.0
 40
1.0
 40
1.0
 10
201.2044401351069
 20
66.80822245376599
 30
0.0
 10
201.2634398992775
 20
66.76948178684661
 30
0.0
 10
201.3227274627887
 20
66.73141980954689
 30
0.0
 10
201.3823085362777
 20
66.6940360210862
 30
0.0
  0
SPLINE
  5
2BA
330
1F
100
AcDbEntity
  8
0
  6
Continuous
 62
     7
370
    25
100
AcDbSpline
210
0.0
220
0.0
230
1.0
 70
     8
 71
     3
 72
     8
 73
     4
 74
     0
 42
0.000000001
 43
0.00000001
 40
0.0
 40
0.0
 40
0.0
 40
0.0
 40
1.0
 40
1.0
 40
1.0
 40
1.0
 10
201.1795903890092
 20
67.17143263170307
 30
0.0
 10
201.1870646010998
 20
67.05047479099186
 30
0.0
 10
201.1953607049898
 20
66.92940294858182
 30
0.0
 10
201.2044401351087
 20
66.8082224537666
 30
0.0
  0
LWPOLYLINE
  5
2BB
330
1F
100
AcDbEntity
  8
0
  6
Continuous
 62
     7
370
    25
100
AcDbPolyline
 90
       15
 70
   128
 43
0.0
 10
201.1795907478
 20
67.1714319663
 10
201.5950421117
 20
68.3356833428
 10
202.0995734742
 20
69.4902289379
 10
202.6865256331
 20
70.6198297001
 10
203.3481508123
 20
71.7095740592
 10
204.075714736
 20
72.7450767782
 10
204.8596135203
 20
73.7126688674
 10
205.6894994555
 20
74.5995781827
 10
206.5544176535
 20
75.3940965248
 10
207.4429506814
 20
76.0857361379
 10
208.3433696145
 20
76.6653671022
 10
209.2437885476
 20
77.1253377095
 10
210.1323215755
 20
77.459576494
 10
210.9972397736
 20
77.6636714473
 10
211.1435532168
 20
77.6855396577
  0
SPLINE
  5
2BC
330
1F
100
AcDbEntity
  8
0
  6
Continuous
 62
     7
370
    25
100
AcDbSpline
210
0.0
220
0.0
230
1.0
 70
     8
 71
     3
 72
    10
 73
     6
 74
     0
 42
0.000000001
 43
0.00000001
 40
0.0
 40
0.0
 40
0.0
 40
0.0
 40
0.2409536028783486
 40
0.5031434696391622
 40
1.0
 40
1.0
 40
1.0
 40
1.0
 10
207.2302443450479
 20
56.27772389474925
 30
0.0
 10
207.3124826974921
 20
56.22605390600339
 30
0.0
 10
207.4842074174876
 20
56.11816003306167
 30
0.0
 10
207.7619240846879
 20
55.98842769443272
 30
0.0
 10
207.8829078058134
 20
56.01120725488475
 30
0.0
 10
207.9621013203818
 20
56.02611829775678
 30
0.0
  0
LINE
  5
2BD
330
1F
100
AcDbEntity
  8
0
  6
Continuous
 62
     7
370
    25
100
AcDbLine
 10
202.4470702889
 20
66.0067966277
 30
0.0
 11
201.6851915865
 21
66.4974310354
 31
0.0
  0
LINE
  5
2BE
330
1F
100
AcDbEntity
  8
0
  6
Continuous
 62
     7
370
    25
100
AcDbLine
 10
201.6851915865
 20
66.4974310354
 30
0.0
 11
201.2044402663
 21
66.8082224114
 31
0.0
  0
LINE
  5
2BF
330
1F
100
AcDbEntity
  8
0
  6
Continuous
 62
     7
370
    25
100
AcDbLine
 10
206.2843735755
 20
56.0019440938
 30
0.0
 11
206.5903076707
 21
56.6899555349
 31
0.0
  0
LINE
  5
2C0
330
1F
100
AcDbEntity
  8
0
  6
Continuous
 62
     7
370
    25
100
AcDbLine
 10
206.5903076707
 20
56.6899555349
 30
0.0
 11
207.230244345
 21
56.2777238947
 31
0.0
  0
SPLINE
  5
2C1
330
1F
100
AcDbEntity
  8
0
  6
Continuous
 62
     7
370
    25
100
AcDbSpline
210
0.0
220
0.0
230
1.0
 70
     8
 71
     3
 72
    13
 73
     9
 74
     0
 42
0.000000001
 43
0.00000001
 40
0.0
 40
0.0
 40
0.0
 40
0.0
 40
0.1722808990345382
 40
0.3421751863749803
 40
0.5097853608791831
 40
0.6752181677987323
 40
0.8385846213485056
 40
1.0
 40
1.0
 40
1.0
 40
1.0
 10
206.2042361515569
 20
56.97126524026786
 30
0.0
 10
206.2273906912769
 20
56.95314337106406
 30
0.0
 10
206.2733790102869
 20
56.91715067537334
 30
0.0
 10
206.3409256553519
 20
56.86614739539013
 30
0.0
 10
206.4065872606346
 20
56.81782222681873
 30
0.0
 10
206.4701095995227
 20
56.77239307985639
 30
0.0
 10
206.5315345605659
 20
56.72957128123426
 30
0.0
 10
206.5707955263991
 20
56.70310793190082
 30
0.0
 10
206.5903080823302
 20
56.68995574440285
 30
0.0
  0
SPLINE
  5
2C2
330
1F
100
AcDbEntity
  8
0
  6
Continuous
 62
     7
370
    25
100
AcDbSpline
210
0.0
220
0.0
230
1.0
 70
     8
 71
     3
 72
    11
 73
     7
 74
     0
 42
0.000000001
 43
0.00000001
 40
0.0
 40
0.0
 40
0.0
 40
0.0
 40
0.2392702282197159
 40
0.5001120575631511
 40
0.7515010343525876
 40
0.9999999999999999
 40
0.9999999999999999
 40
0.9999999999999999
 40
0.9999999999999999
 10
206.0548366482182
 20
57.01856793042232
 30
0.0
 10
206.007771648374
 20
56.99025613412706
 30
0.0
 10
205.9093984655238
 20
56.93108006862203
 30
0.0
 10
205.7631065704713
 20
56.83789408442642
 30
0.0
 10
205.6152677363399
 20
56.74252357674027
 30
0.0
 10
205.5189843890155
 20
56.67799038825856
 30
0.0
 10
205.4711210376761
 20
56.64591033745865
 30
0.0
  0
SPLINE
  5
2C3
330
1F
100
AcDbEntity
  8
0
  6
Continuous
 62
     7
370
    25
100
AcDbSpline
210
0.0
220
0.0
230
1.0
 70
     8
 71
     3
 72
     9
 73
     5
 74
     0
 42
0.000000001
 43
0.00000001
 40
0.0
 40
0.0
 40
0.0
 40
0.0
 40
0.5090786773528881
 40
1.0
 40
1.0
 40
1.0
 40
1.0
 10
206.0553980755493
 20
57.01789870925006
 30
0.0
 10
206.0810526975546
 20
57.01040324173123
 30
0.0
 10
206.1314469158682
 20
56.99567964820379
 30
0.0
 10
206.180262795922
 20
56.97928005771949
 30
0.0
 10
206.2042275523242
 20
56.97122914906806
 30
0.0
  0
LINE
  5
2C4
330
1F
100
AcDbEntity
  8
0
  6
Continuous
 62
     7
370
    25
100
AcDbLine
 10
207.8853453238
 20
57.9417588455
 30
0.0
 11
206.2042293674
 21
56.9712712613
 31
0.0
  0
LINE
  5
2C5
330
1F
100
AcDbEntity
  8
0
  6
Continuous
 62
     7
370
    25
100
AcDbLine
 10
204.1977417162
 20
58.09509256
 30
0.0
 11
203.9974460626
 21
57.5939351457
 31
0.0
  0
SPLINE
  5
2C6
330
1F
100
AcDbEntity
  8
0
  6
Continuous
 62
     7
370
    25
100
AcDbSpline
210
0.0
220
0.0
230
1.0
 70
     8
 71
     3
 72
     8
 73
     4
 74
     0
 42
0.000000001
 43
0.00000001
 40
0.0
 40
0.0
 40
0.0
 40
0.0
 40
1.0
 40
1.0
 40
1.0
 40
1.0
 10
204.1972985455248
 20
58.09587631213031
 30
0.0
 10
204.223473880094
 20
58.11804368910857
 30
0.0
 10
204.2492949200594
 20
58.1406758302002
 30
0.0
 10
204.2747524737678
 20
58.16376055029149
 30
0.0
  0
LINE
  5
2C7
330
1F
100
AcDbEntity
  8
0
  6
Continuous
 62
     7
370
    25
100
AcDbLine
 10
204.2747525695
 20
58.1637604347
 30
0.0
 11
206.0550163528
 21
57.0180077977
 31
0.0
  0
LINE
  5
2C8
330
1F
100
AcDbEntity
  8
0
  6
Continuous
 62
     7
370
    25
100
AcDbLine
 10
207.8851365652
 20
58.0397783671
 30
0.0
 11
207.7970509689
 21
58.1473260808
 31
0.0
  0
LINE
  5
2C9
330
1F
100
AcDbEntity
  8
0
  6
Continuous
 62
     7
370
    25
100
AcDbLine
 10
205.9687292416
 20
59.141672352
 30
0.0
 11
204.2747525695
 21
58.1637604347
 31
0.0
  0
LINE
  5
2CA
330
1F
100
AcDbEntity
  8
0
  6
Continuous
 62
     7
370
    25
100
AcDbLine
 10
206.1114233241
 20
59.1203801903
 30
0.0
 11
205.969149393
 21
59.1411849745
 31
0.0
  0
LINE
  5
2CB
330
1F
100
AcDbEntity
  8
0
  6
Continuous
 62
     7
370
    25
100
AcDbLine
 10
207.7970964085
 20
58.1472618321
 30
0.0
 11
206.1114233241
 21
59.1203801903
 31
0.0
  0
LINE
  5
2CC
330
1F
100
AcDbEntity
  8
0
  6
Continuous
 62
     7
370
    25
100
AcDbLine
 10
207.8851365652
 20
58.0964312204
 30
0.0
 11
207.7970687496
 21
58.1472770278
 31
0.0
  0
SPLINE
  5
2CD
330
1F
100
AcDbEntity
  8
0
  6
Continuous
 62
     7
370
    25
100
AcDbSpline
210
0.0
220
0.0
230
1.0
 70
     8
 71
     3
 72
    19
 73
    15
 74
     0
 42
0.000000001
 43
0.00000001
 40
0.0
 40
0.0
 40
0.0
 40
0.0
 40
0.0637766826508813
 40
0.1289474638452777
 40
0.1955669659461898
 40
0.2636863254298716
 40
0.3333533751622902
 40
0.4046128304764571
 40
0.4775064753260557
 40
0.5520733456010245
 40
0.628349907397713
 40
0.7063702286366437
 40
0.8377042578101805
 40
1.0
 40
1.0
 40
1.0
 40
1.0
 10
203.4132294395634
 20
58.26436439948219
 30
0.0
 10
203.4339168403847
 20
58.25100742380474
 30
0.0
 10
203.4757438492315
 20
58.22400150147293
 30
0.0
 10
203.5362301475529
 20
58.18648338461968
 30
0.0
 10
203.5957111373797
 20
58.15096559706232
 30
0.0
 10
203.6537904900028
 20
58.11798573164049
 30
0.0
 10
203.7103222006621
 20
58.08777824233941
 30
0.0
 10
203.765068189283
 20
58.06066279578005
 30
0.0
 10
203.8177927548658
 20
58.03692861080282
 30
0.0
 10
203.8682377152922
 20
58.01688564570581
 30
0.0
 10
203.916124916402
 20
58.00076333598338
 30
0.0
 10
203.9710921550295
 20
57.98648417417326
 30
0.0
 10
204.0339250585254
 20
57.97634543613118
 30
0.0
 10
204.0724325568651
 20
57.98281967673244
 30
0.0
 10
204.0937165124868
 20
57.98639813432077
 30
0.0
  0
LINE
  5
2CE
330
1F
100
AcDbEntity
  8
0
  6
Continuous
 62
     7
370
    25
100
AcDbLine
 10
204.1183522001
 20
58.0124685886
 30
0.0
 11
204.1971562701
 21
58.0958601923
 31
0.0
  0
SPLINE
  5
2CF
330
1F
100
AcDbEntity
  8
0
  6
Continuous
 62
     7
370
    25
100
AcDbSpline
210
0.0
220
0.0
230
1.0
 70
     8
 71
     3
 72
     9
 73
     5
 74
     0
 42
0.000000001
 43
0.00000001
 40
0.0
 40
0.0
 40
0.0
 40
0.0
 40
0.5232334307013496
 40
1.0
 40
1.0
 40
1.0
 40
1.0
 10
205.8025514618778
 20
59.04574051144651
 30
0.0
 10
205.7335250068485
 20
59.07078575969799
 30
0.0
 10
205.6016021384325
 20
59.11865205948298
 30
0.0
 10
205.360158638893
 20
59.25624877708736
 30
0.0
 10
205.2450464499381
 20
59.32185029208636
 30
0.0
  0
LINE
  5
2D0
330
1F
100
AcDbEntity
  8
0
  6
Continuous
 62
     7
370
    25
100
AcDbLine
 10
201.5155452529
 20
59.0877398547
 30
0.0
 11
201.9670163673
 21
59.2000038276
 31
0.0
  0
LINE
  5
2D1
330
1F
100
AcDbEntity
  8
0
  6
Continuous
 62
     7
370
    25
100
AcDbLine
 10
201.9670163673
 20
59.2000038276
 30
0.0
 11
203.4132288391
 21
58.2643644946
 31
0.0
  0
SPLINE
  5
2D2
330
1F
100
AcDbEntity
  8
0
  6
Continuous
 62
     7
370
    25
100
AcDbSpline
210
0.0
220
0.0
230
1.0
 70
     8
 71
     3
 72
     8
 73
     4
 74
     0
 42
0.000000001
 43
0.00000001
 40
0.0
 40
0.0
 40
0.0
 40
0.0
 40
1.0
 40
1.0
 40
1.0
 40
1.0
 10
201.6863338235802
 20
58.69299020169887
 30
0.0
 10
201.629208554656
 20
58.82477638549474
 30
0.0
 10
201.5722800629383
 20
58.95636060715577
 30
0.0
 10
201.5155459449888
 20
59.08773967405735
 30
0.0
  0
LINE
  5
2D3
330
1F
100
AcDbEntity
  8
0
  6
Continuous
 62
     7
370
    25
100
AcDbLine
 10
203.3047178263
 20
59.9722424423
 30
0.0
 11
201.9670163673
 21
59.2000038276
 31
0.0
  0
LINE
  5
2D4
330
1F
100
AcDbEntity
  8
0
  6
Continuous
 62
     7
370
    25
100
AcDbLine
 10
204.2877463112
 20
59.8744890395
 30
0.0
 11
203.3047178263
 21
59.9722424423
 31
0.0
  0
LINE
  5
2D5
330
1F
100
AcDbEntity
  8
0
  6
Continuous
 62
     7
370
    25
100
AcDbLine
 10
205.2450464499
 20
59.3218502921
 30
0.0
 11
204.2877453234
 21
59.8744884692
 31
0.0
  0
SPLINE
  5
2D6
330
1F
100
AcDbEntity
  8
0
  6
Continuous
 62
     7
370
    25
100
AcDbSpline
210
0.0
220
0.0
230
1.0
 70
     8
 71
     3
 72
     8
 73
     4
 74
     0
 42
0.000000001
 43
0.00000001
 40
0.0
 40
0.0
 40
0.0
 40
0.0
 40
1.0
 40
1.0
 40
1.0
 40
1.0
 10
201.5155459449913
 20
59.08773967405154
 30
0.0
 10
201.5124086072412
 20
59.12295598092406
 30
0.0
 10
201.5104162033433
 20
59.15860023715176
 30
0.0
 10
201.5096348059712
 20
59.19469713914663
 30
0.0
  0
LINE
  5
2D7
330
1F
100
AcDbEntity
  8
0
  6
Continuous
 62
     7
370
    25
100
AcDbLine
 10
202.3207212811
 20
59.6629268538
 30
0.0
 11
201.5096354745
 21
59.1946969843
 31
0.0
  0
SPLINE
  5
2D8
330
1F
100
AcDbEntity
  8
0
  6
Continuous
 62
     7
370
    25
100
AcDbSpline
210
0.0
220
0.0
230
1.0
 70
     8
 71
     3
 72
     8
 73
     4
 74
     0
 42
0.000000001
 43
0.00000001
 40
0.0000004089325119
 40
0.0000004089325119
 40
0.0000004089325119
 40
0.0000004089325119
 40
0.0015399868451459
 40
0.0015399868451459
 40
0.0015399868451459
 40
0.0015399868451459
 10
202.3207203384599
 20
59.66292685050275
 30
0.0
 10
202.5591969064832
 20
59.75730323631911
 30
0.0
 10
202.7976438641519
 20
59.85173184824931
 30
0.0
 10
203.0360526030022
 20
59.94622523121177
 30
0.0
  0
LINE
  5
2D9
330
1F
100
AcDbEntity
  8
0
  6
Continuous
 62
     7
370
    25
100
AcDbLine
 10
203.036052082
 20
59.9462253783
 30
0.0
 11
203.0604485218
 21
59.9512194048
 31
0.0
  0
LINE
  5
2DA
330
1F
100
AcDbEntity
  8
0
  6
Continuous
 62
     7
370
    25
100
AcDbLine
 10
203.3047178263
 20
59.9722424423
 30
0.0
 11
203.0604491803
 21
59.9512194047
 31
0.0
  0
SPLINE
  5
2DB
330
1F
100
AcDbEntity
  8
0
  6
Continuous
 62
     7
370
    25
100
AcDbSpline
210
0.0
220
0.0
230
1.0
 70
     8
 71
     3
 72
     8
 73
     4
 74
     0
 42
0.000000001
 43
0.00000001
 40
0.0
 40
0.0
 40
0.0
 40
0.0
 40
1.0
 40
1.0
 40
1.0
 40
1.0
 10
204.2877445175102
 20
59.87448922379873
 30
0.0
 10
204.3183525516334
 20
59.85954921599262
 30
0.0
 10
204.3489040526053
 20
59.84467225859924
 30
0.0
 10
204.37939799072
 20
59.82985869491831
 30
0.0
  0
ARC
  5
2DC
330
1F
100
AcDbEntity
  8
0
  6
Continuous
 62
     7
370
    25
100
AcDbCircle
 10
205.1684279978
 20
65.303209169
 30
0.0
 40
6.549762100194435
100
AcDbArc
 50
283.6682343678
 51
294.9135532271
  0
ARC
  5
2DD
330
1F
100
AcDbEntity
  8
0
  6
Continuous
 62
     7
370
    18
100
AcDbCircle
 10
257.2687647153
 20
39.4402376493
 30
0.0
 40
8.510604609459428
100
AcDbArc
 50
325.2923944078
 51
355.595807192
  0
LINE
  5
2DE
330
1F
100
AcDbEntity
  8
0
  6
Continuous
 62
     7
370
    18
100
AcDbLine
 10
262.0481300768
 20
32.3106223657
 30
0.0
 11
261.9742967008
 21
32.3532454664
 31
0.0
  0
LINE
  5
2DF
330
1F
100
AcDbEntity
  8
0
  6
Continuous
 62
     7
370
    18
100
AcDbLine
 10
262.6845261689
 20
32.6780060097
 30
0.0
 11
262.3840059682
 21
32.8514926288
 31
0.0
  0
LWPOLYLINE
  5
2E0
330
1F
100
AcDbEntity
  8
0
  6
Continuous
 62
     7
370
    18
100
AcDbPolyline
 90
       17
 70
   128
 43
0.0
 10
255.3482930583
 20
44.9561101177
 10
254.7399057696
 20
44.5496042561
 10
254.146498969
 20
44.0425253437
 10
253.5826843598
 20
43.4473591428
 10
253.0623449657
 20
42.7787605144
 10
252.5982930171
 20
42.0531929908
 10
252.2019554136
 20
41.2885221002
 10
251.883090797
 20
40.5035767484
 10
251.6495511582
 20
39.7176848841
 10
251.5070869077
 20
38.950197752
 10
251.4592057828
 20
38.2200133813
 10
251.5070869077
 20
37.5451113806
 10
251.6495511582
 20
36.942109971
 10
251.883090797
 20
36.4258572343
 10
252.2019554136
 20
36.0090651325
 10
252.5982930171
 20
35.7019958985
 10
252.598516593
 20
35.7018669791
  0
ARC
  5
2E1
330
1F
100
AcDbEntity
  8
0
  6
Continuous
 62
     7
370
    18
100
AcDbCircle
 10
256.9806016621
 20
42.6157486757
 30
0.0
 40
2.853370473263853
100
AcDbArc
 50
69.0112795705
 51
124.8942334559
  0
ARC
  5
2E2
330
1F
100
AcDbEntity
  8
0
  6
Continuous
 62
     7
370
    18
100
AcDbCircle
 10
256.8141083628
 20
39.6189384903
 30
0.0
 40
7.097895909745206
100
AcDbArc
 50
317.0058757863
 51
342.9995012395
  0
LWPOLYLINE
  5
2E3
330
1F
100
AcDbEntity
  8
0
  6
Continuous
 62
     7
370
    18
100
AcDbPolyline
 90
       21
 70
   128
 43
0.0
 10
254.9947389512
 20
45.976753505
 10
254.3255277097
 20
45.5338658905
 10
253.6705795544
 20
44.9872971381
 10
253.0438535299
 20
44.3486961582
 10
252.4587072647
 20
43.631674197
 10
251.9276120278
 20
42.8515133447
 10
251.4618873761
 20
42.0248407257
 10
251.0714593864
 20
41.169275809
 10
250.764649427
 20
40.3030537139
 10
250.5479961864
 20
39.4446359648
 10
250.4261177079
 20
38.6123185803
 10
250.4016112912
 20
37.8238407652
 10
250.4749994911
 20
37.096007738
 10
250.6447179354
 20
36.4443317695
 10
250.9071498974
 20
35.882702638
 10
251.256701371
 20
35.4230897936
 10
251.6859229006
 20
35.0752900284
 10
252.1856659859
 20
34.8467152918
 10
252.7452794928
 20
34.7422372531
 10
253.3528365215
 20
34.7640832864
 10
253.9059161966
 20
34.8842379961
  0
LWPOLYLINE
  5
2E4
330
1F
100
AcDbEntity
  8
0
  6
Continuous
 62
     7
370
    18
100
AcDbPolyline
 90
       11
 70
   128
 43
0.0
 10
259.4599245842
 20
44.5051052754
 10
259.441481716
 20
44.5787358786
 10
259.2248284754
 20
45.1870111206
 10
258.9180185161
 20
45.6989979767
 10
258.5275905263
 20
46.1037843316
 10
258.0618658747
 20
46.3927427134
 10
257.5307706378
 20
46.5597140572
 10
256.9456243725
 20
46.6011405211
 10
256.318898348
 20
46.5161390353
 10
255.6639501927
 20
46.3065207435
 10
254.9947389512
 20
45.976753505
  0
LWPOLYLINE
  5
2E5
330
1F
100
AcDbEntity
  8
0
  6
Continuous
 62
     7
370
    18
100
AcDbPolyline
 90
       18
 70
   128
 43
0.0
 10
254.6411848441
 20
46.5891264195
 10
253.9523131268
 20
46.1358232825
 10
253.2768495402
 20
45.5800922357
 10
252.6279411848
 20
44.9327499626
 10
252.0182183678
 20
44.2063954354
 10
251.4595485553
 20
43.415166732
 10
250.9628054694
 20
42.5744643919
 10
250.5376583547
 20
41.7006518137
 10
250.1923811643
 20
40.8107363539
 10
249.9336953326
 20
39.9220395857
 10
249.7666351033
 20
39.0518586207
 10
249.6944526983
 20
38.21713092
 10
249.7185524639
 20
37.4341030948
 10
249.8384661748
 20
36.7180163627
 10
250.0518589615
 20
36.0828082075
 10
250.3545777131
 20
35.5408420068
 10
250.7407307612
 20
35.1026671693
 10
251.141469253
 20
34.8109983218
  0
ARC
  5
2E6
330
1F
100
AcDbEntity
  8
0
  6
Continuous
 62
     7
370
    18
100
AcDbCircle
 10
256.6986467564
 20
43.7235694269
 30
0.0
 40
3.527685700066192
100
AcDbArc
 50
66.9347651964
 51
125.6782413781
  0
ARC
  5
2E7
330
1F
100
AcDbEntity
  8
0
  6
Continuous
 62
     7
370
    18
100
AcDbCircle
 10
228.7799658482
 20
51.7446399037
 30
0.0
 40
3.501683291341763
100
AcDbArc
 50
174.1926877286
 51
234.4951340951
  0
LWPOLYLINE
  5
2E8
330
1F
100
AcDbEntity
  8
0
  6
Continuous
 62
     7
370
    18
100
AcDbPolyline
 90
       18
 70
   128
 43
0.0
 10
233.7457170954
 20
61.018722374
 10
233.2933704462
 20
61.2196891911
 10
232.7208753149
 20
61.3351100737
 10
232.1002094638
 20
61.3263757457
 10
231.4434538096
 20
61.1936568906
 10
230.7633909894
 20
60.9395369084
 10
230.0732578095
 20
60.5689610237
 10
229.3864869109
 20
60.0891430458
 10
228.7164454506
 20
59.5094213575
 10
228.0761750588
 20
58.8410802775
 10
227.4781379494
 20
58.0971274475
 10
226.9339740614
 20
57.2920441255
 10
226.4542750953
 20
56.4414992259
 10
226.0483775658
 20
55.5620482905
 10
225.7241820314
 20
54.6708087878
 10
225.4879989949
 20
53.7851278051
 10
225.3444247676
 20
52.9222437493
 10
225.2962538832
 20
52.0989516564
  0
LWPOLYLINE
  5
2E9
330
1F
100
AcDbEntity
  8
0
  6
Continuous
 62
     7
370
    18
100
AcDbPolyline
 90
       20
 70
   128
 43
0.0
 10
254.9947389512
 20
45.5684830322
 10
254.3471029037
 20
45.1371934704
 10
253.7146468834
 20
44.6011790919
 10
253.1121951386
 20
43.9730031113
 10
252.5538685924
 20
43.2673900446
 10
252.0527539235
 20
42.5008780189
 10
251.6205969318
 20
41.6914341491
 10
251.2675271842
 20
40.8580309388
 10
251.001819951
 20
40.0202025725
 10
250.8297034169
 20
39.1975869445
 10
250.7552114964
 20
38.4094654863
 10
250.7800909786
 20
37.6743114718
 10
250.9037577347
 20
37.0093556309
 10
251.1233138395
 20
36.4301844573
 10
251.4336130969
 20
35.9503734093
 10
251.8273818829
 20
35.5811684194
 10
252.2953908609
 20
35.3312233757
 10
252.8266703256
 20
35.2063967729
 10
253.4087673651
 20
35.2096146149
 10
253.4440177709
 20
35.2137694232
  0
LWPOLYLINE
  5
2EA
330
1F
100
AcDbEntity
  8
0
  6
Continuous
 62
     7
370
    18
100
AcDbPolyline
 90
        9
 70
   128
 43
0.0
 10
258.9435707015
 20
44.7403070086
 10
258.7219507182
 20
45.1613780457
 10
258.3688809706
 20
45.5871356024
 10
257.9367239789
 20
45.8976216301
 10
257.43560931
 20
46.0855589745
 10
256.8772827638
 20
46.1465419322
 10
256.274831019
 20
46.0791419341
 10
255.6423749987
 20
45.8849381346
 10
254.9947389512
 20
45.5684830322
  0
LWPOLYLINE
  5
2EB
330
1F
100
AcDbEntity
  8
0
  6
Continuous
 62
     7
370
    18
100
AcDbPolyline
 90
       38
 70
   128
 43
0.0
 10
218.0572481602
 20
49.5527790961
 10
218.1060357716
 20
50.7636347698
 10
218.2519580393
 20
52.0198543474
 10
218.493692606
 20
53.3100609529
 10
218.8290504698
 20
54.6225705646
 10
219.2549950819
 20
55.945496862
 10
219.7676680301
 20
57.2668587341
 10
220.3624272342
 20
58.5746895922
 10
221.0338864585
 20
59.8571468729
 10
221.7759647031
 20
61.1026150761
 10
222.5819415214
 20
62.299816027
 10
223.4445179352
 20
63.4379071602
 10
224.3558822896
 20
64.5065811344
 10
225.3077810463
 20
65.4961614533
 10
226.291593693
 20
66.3976844944
 10
227.2984107811
 20
67.2029871441
 10
228.3191144738
 20
67.9047761119
 10
229.3444609464
 20
68.4966960312
 10
230.3651646391
 20
68.9733864623
 10
231.3719817272
 20
69.3305300792
 10
232.355794374
 20
69.564892942
 10
233.3076931307
 20
69.6743515339
 10
234.2190574851
 20
69.6579164458
 10
235.0816338989
 20
69.5157348413
 10
235.8876107171
 20
69.2490949172
 10
236.6296889618
 20
68.8604120181
 10
237.3011481861
 20
68.3532050562
 10
237.8959073901
 20
67.7320685584
 10
238.4085803383
 20
67.0026262729
 10
238.8345249505
 20
66.1714851567
 10
239.1698828142
 20
65.2461714929
 10
239.411617381
 20
64.2350656773
 10
239.5575396487
 20
63.1473243638
 10
239.60632726
 20
61.9927976671
 10
239.5575396487
 20
60.7819419935
 10
239.411617381
 20
59.5257224159
 10
239.1698828142
 20
58.2355158103
 10
239.099279599
 20
57.9281764148
  0
LWPOLYLINE
  5
2EC
330
1F
100
AcDbEntity
  8
0
  6
Continuous
 62
     7
370
    18
100
AcDbPolyline
 90
       21
 70
   128
 43
0.0
 10
232.0998484168
 20
45.8034926992
 10
231.3719817272
 20
45.1478922689
 10
230.3651646391
 20
44.3425896191
 10
229.3444609464
 20
43.6408006513
 10
228.3191144738
 20
43.048880732
 10
227.2984107811
 20
42.5721903009
 10
226.291593693
 20
42.2150466841
 10
225.3077810463
 20
41.9806838212
 10
224.3558822896
 20
41.8712252294
 10
223.4445179352
 20
41.8876603175
 10
222.5819415214
 20
42.0298419219
 10
221.7759647031
 20
42.296481846
 10
221.0338864585
 20
42.6851647451
 10
220.3624272342
 20
43.192371707
 10
219.7676680301
 20
43.8135082049
 10
219.2549950819
 20
44.5429504904
 10
218.8290504698
 20
45.3740916065
 10
218.493692606
 20
46.2994052704
 10
218.2519580393
 20
47.310511086
 10
218.1060357716
 20
48.3982523995
 10
218.0572481602
 20
49.5527790961
  0
LWPOLYLINE
  5
2ED
330
1F
100
AcDbEntity
  8
0
  6
Continuous
 62
     7
370
    18
100
AcDbPolyline
 90
       31
 70
   128
 43
0.0
 10
219.2175482656
 20
43.5054310979
 10
218.8491933707
 20
43.9766952376
 10
218.3702102424
 20
44.7670653103
 10
217.9796274947
 20
45.6554724281
 10
217.6808623151
 20
46.6341471911
 10
217.4765271495
 20
47.6945299643
 10
217.3684086293
 20
48.8273473053
 10
217.3574517657
 20
50.0226913397
 10
217.443753365
 20
51.2701086404
 10
217.6265587349
 20
52.5586899627
 10
217.9042689296
 20
53.877165872
 10
218.2744545782
 20
55.2140047468
 10
218.7338789346
 20
56.5575155343
 10
219.2785235601
 20
57.8959486995
 10
219.9036252023
 20
59.2175977433
 10
220.6037179419
 20
60.5109056636
 10
221.3726773148
 20
61.7645603891
 10
222.2037795817
 20
62.9675981967
 10
223.0897563867
 20
64.1094983841
 10
224.0228583075
 20
65.1802731886
 10
224.9949253191
 20
66.1705586555
 10
225.9974561056
 20
67.0716949558
 10
227.0216828056
 20
67.8757991935
 10
228.0586479378
 20
68.5758409929
 10
229.0992826447
 20
69.1656967933
 10
230.1344858822
 20
69.6402077318
 10
231.1552041864
 20
69.9952249307
 10
232.152510904
 20
70.2276430694
 10
233.117683613
 20
70.3354298688
 10
234.0422814193
 20
70.3176418162
 10
234.6542773673
 20
70.2318171045
  0
LWPOLYLINE
  5
2EE
330
1F
100
AcDbEntity
  8
0
  6
Continuous
 62
     7
370
    18
100
AcDbPolyline
 90
       26
 70
   128
 43
0.0
 10
222.4678269534
 20
52.0989520366
 10
222.5160620459
 20
53.0298872654
 10
222.660037656
 20
54.0024024657
 10
222.8975707088
 20
55.0017548432
 10
223.2250602828
 20
56.0127952695
 10
223.6375422696
 20
57.020197651
 10
224.128763789
 20
58.0086901983
 10
224.691278349
 20
58.9632892592
 10
225.3165584568
 20
59.8695228843
 10
225.9951263398
 20
60.713654581
 10
226.7166947096
 20
61.4828877699
 10
227.4703258829
 20
62.1655618263
 10
228.2445954706
 20
62.751327946
 10
229.0277662546
 20
63.2313061764
 10
229.807966262
 20
63.5982209165
 10
230.5733682598
 20
63.8465106207
 10
231.3123697845
 20
63.9724104349
 10
232.0137680885
 20
63.9740125058
 10
232.6669309708
 20
63.8512923554
 10
233.2619568853
 20
63.6061100546
 10
233.7898260773
 20
63.242183022
 10
234.2425365724
 20
62.7650272655
 10
234.6132250198
 20
62.1818761918
 10
234.8962733762
 20
61.5015701386
 10
235.0873902364
 20
60.7344216707
 10
235.1601600631
 20
60.2021814088
  0
LWPOLYLINE
  5
2EF
330
1F
100
AcDbEntity
  8
0
  6
Continuous
 62
     7
370
    18
100
AcDbPolyline
 90
       13
 70
   128
 43
0.0
 10
228.1607291278
 20
48.0774974556
 10
227.4703258829
 20
47.8081045703
 10
226.7166947096
 20
47.6206545952
 10
225.9951263398
 20
47.5567826773
 10
225.3165584568
 20
47.6174565727
 10
224.691278349
 20
47.8017571521
 10
224.128763789
 20
48.1068907263
 10
223.6375422696
 20
48.5282309795
 10
223.2250602828
 20
49.0593917962
 10
222.8975707088
 20
49.6923208086
 10
222.660037656
 20
50.417423361
 10
222.5160620459
 20
51.2237078601
 10
222.4678269534
 20
52.0989520366
  0
ARC
  5
2F0
330
1F
100
AcDbEntity
  8
0
  6
Continuous
 62
     7
370
    18
100
AcDbCircle
 10
229.3657554221
 20
52.8594691774
 30
0.0
 40
17.9557267814996
100
AcDbArc
 50
167.4561534803
 51
179.6099872796
  0
LWPOLYLINE
  5
2F1
330
1F
100
AcDbEntity
  8
0
  6
Continuous
 62
     7
370
    18
100
AcDbPolyline
 90
       11
 70
   128
 43
0.0
 10
222.4803543478
 20
72.2223504621
 10
222.799408759
 20
72.4031814909
 10
223.8400272903
 20
72.9192600111
 10
224.869208303
 20
73.3165812042
 10
225.8779071821
 20
73.5916545387
 10
226.8572600007
 20
73.7420626218
 10
227.7986592531
 20
73.7664821052
 10
228.6938326322
 20
73.6647002652
 10
229.5349131655
 20
73.4376098628
 10
230.3145086907
 20
73.0872081872
 10
230.406648287
 20
73.035248519
  0
LWPOLYLINE
  5
2F2
330
1F
100
AcDbEntity
  8
0
  6
Continuous
 62
     7
370
    18
100
AcDbPolyline
 90
       10
 70
   128
 43
0.0
 10
214.6704269725
 20
45.7763601252
 10
214.3979890851
 20
45.9449228969
 10
213.7232799437
 20
46.4741877702
 10
213.1260400025
 20
47.1170961732
 10
212.6115172028
 20
47.8679977543
 10
212.1842331111
 20
48.7202939331
 10
211.8479434068
 20
49.6664953186
 10
211.6056029792
 20
50.6982857817
 10
211.459341561
 20
51.8065983137
 10
211.4104446313
 20
52.9816929752
  0
LWPOLYLINE
  5
2F3
330
1F
100
AcDbEntity
  8
0
  6
Continuous
 62
     7
370
    18
100
AcDbPolyline
 90
       13
 70
   128
 43
0.0
 10
216.0345260698
 20
49.6460563474
 10
215.9983120488
 20
49.8274639856
 10
215.8539314337
 20
50.8985373288
 10
215.8127282795
 20
52.0401803476
 10
215.8751359084
 20
53.2403790065
 10
216.0404970929
 20
54.4865030411
 10
216.307072617
 20
55.7654399173
 10
216.6720570811
 20
57.0637306557
 10
217.1316091951
 20
58.3677133306
 10
217.6808932667
 20
59.6636654627
 10
218.3141285921
 20
60.9379494528
 10
219.0246520181
 20
62.1771559235
 10
219.8049870889
 20
63.3682447786
  0
LWPOLYLINE
  5
2F4
330
1F
100
AcDbEntity
  8
0
  6
Continuous
 62
     7
370
    18
100
AcDbPolyline
 90
       16
 70
   128
 43
0.0
 10
216.5463218367
 20
46.7161286465
 10
216.0772998527
 20
47.4629559608
 10
215.6868007401
 20
48.3352963909
 10
215.393946656
 20
49.303810815
 10
215.2017102701
 20
50.3586667394
 10
215.1120435085
 20
51.4891555228
 10
215.1258564795
 20
52.6838003637
 10
215.2430089133
 20
53.9304732232
 10
215.4623114785
 20
55.2165176388
 10
215.7815382945
 20
56.5288781925
 10
216.1974480054
 20
57.8542316883
 10
216.7058186824
 20
59.1791228922
 10
217.3014886535
 20
60.4901012207
 10
217.9784118216
 20
61.7738587605
 10
218.7297149577
 20
63.0173610619
 10
219.5477721164
 20
64.2079866776
  0
ARC
  5
2F5
330
1F
100
AcDbEntity
  8
0
  6
Continuous
 62
     7
370
    18
100
AcDbCircle
 10
232.6309007216
 20
56.4251145772
 30
0.0
 40
14.35349360837048
100
AcDbArc
 50
109.931969941
 51
139.4246766989
  0
LWPOLYLINE
  5
2F6
330
1F
100
AcDbEntity
  8
0
  6
Continuous
 62
     7
370
    18
100
AcDbPolyline
 90
       12
 70
   128
 43
0.0
 10
220.8919651779
 20
65.8801501949
 10
221.8043097758
 20
66.8508857723
 10
222.749638234
 20
67.7364281599
 10
223.7190434086
 20
68.5284338241
 10
224.7033919048
 20
69.2194407957
 10
225.6934095225
 20
69.8029392894
 10
226.679768555
 20
70.2734304653
 10
227.6531756223
 20
70.6264816966
 10
228.6044597923
 20
70.8587675556
 10
229.5246578628
 20
70.9680985125
 10
230.4051005891
 20
70.953445619
 10
230.5309286882
 20
70.940803284
  0
LINE
  5
2F7
330
1F
100
AcDbEntity
  8
0
  6
Continuous
 62
     7
370
    18
100
AcDbLine
 10
206.9240804178
 20
63.3543005739
 30
0.0
 11
207.230244345
 21
62.983565518
 31
0.0
  0
LINE
  5
2F8
330
1F
100
AcDbEntity
  8
0
  6
Continuous
 62
     7
370
    18
100
AcDbLine
 10
206.9240804178
 20
55.5901904262
 30
0.0
 11
207.230244345
 21
56.2777238947
 31
0.0
  0
LINE
  5
2F9
330
1F
100
AcDbEntity
  8
0
  6
Continuous
 62
     7
370
    18
100
AcDbLine
 10
207.9661546618
 20
56.7025558778
 30
0.0
 11
207.230251589
 21
56.2777280766
 31
0.0
  0
LINE
  5
2FA
330
1F
100
AcDbEntity
  8
0
  6
Continuous
 62
     7
370
    18
100
AcDbLine
 10
207.8995791048
 20
57.4457818456
 30
0.0
 11
206.5903076707
 21
56.6899555349
 31
0.0
  0
LINE
  5
2FB
330
1F
100
AcDbEntity
  8
0
  6
Continuous
 62
     7
370
    18
100
AcDbLine
 10
203.4132288391
 20
58.2643644946
 30
0.0
 11
203.1167415649
 21
57.7683028767
 31
0.0
  0
LINE
  5
2FC
330
1F
100
AcDbEntity
  8
0
  6
Continuous
 62
     7
370
    18
100
AcDbLine
 10
205.2450464499
 20
59.3218502921
 30
0.0
 11
203.4132894252
 21
58.2643994702
 31
0.0
  0
LINE
  5
2FD
330
1F
100
AcDbEntity
  8
0
  6
Continuous
 62
     7
370
    18
100
AcDbLine
 10
205.2450464499
 20
59.3218502921
 30
0.0
 11
205.3663566045
 21
59.2600997788
 31
0.0
  0
OLE2FRAME
  5
2FE
330
1F
100
AcDbEntity
  8
0
100
AcDbOle2Frame
 70
     2
  3
Paintbrush-Bild
 10
13.8511154363
 20
38.264191557
 30
0.0
 11
51.6290888628
 21
31.9806341108
 31
0.0
 71
     2
 72
     0
 73
     1
 90
    12928
310
80552BED0767C5B32B40DDAF6807D121434000000000000000006FFBDDFB85D0
310
4940DDAF6807D121434000000000000000006FFBDDFB85D04940416F4BD60AFB
310
3F4000000000000000002BED0767C5B32B40416F4BD60AFB3F40000000000000
310
0000000000000100000000010000010000000100000000000100000000320000
310
D0CF11E0A1B11AE1000000000000000000000000000000003E000300FEFF0900
310
0600000000000000000000000100000001000000000000000010000002000000
310
01000000FEFFFFFF0000000000000000FFFFFFFFFFFFFFFFFFFFFFFFFFFFFFFF
310
FFFFFFFFFFFFFFFFFFFFFFFFFFFFFFFFFFFFFFFFFFFFFFFFFFFFFFFFFFFFFFFF
310
FFFFFFFFFFFFFFFFFFFFFFFFFFFFFFFFFFFFFFFFFFFFFFFFFFFFFFFFFFFFFFFF
310
FFFFFFFFFFFFFFFFFFFFFFFFFFFFFFFFFFFFFFFFFFFFFFFFFFFFFFFFFFFFFFFF
310
FFFFFFFFFFFFFFFFFFFFFFFFFFFFFFFFFFFFFFFFFFFFFFFFFFFFFFFFFFFFFFFF
310
FFFFFFFFFFFFFFFFFFFFFFFFFFFFFFFFFFFFFFFFFFFFFFFFFFFFFFFFFFFFFFFF
310
FFFFFFFFFFFFFFFFFFFFFFFFFFFFFFFFFFFFFFFFFFFFFFFFFFFFFFFFFFFFFFFF
310
FFFFFFFFFFFFFFFFFFFFFFFFFFFFFFFFFFFFFFFFFFFFFFFFFFFFFFFFFFFFFFFF
310
FFFFFFFFFFFFFFFFFFFFFFFFFFFFFFFFFFFFFFFFFFFFFFFFFFFFFFFFFFFFFFFF
310
FFFFFFFFFFFFFFFFFFFFFFFFFFFFFFFFFFFFFFFFFFFFFFFFFFFFFFFFFFFFFFFF
310
FFFFFFFFFFFFFFFFFFFFFFFFFFFFFFFFFFFFFFFFFFFFFFFFFFFFFFFFFFFFFFFF
310
FFFFFFFFFFFFFFFFFFFFFFFFFFFFFFFFFFFFFFFFFFFFFFFFFFFFFFFFFFFFFFFF
310
FFFFFFFFFFFFFFFFFFFFFFFFFFFFFFFFFFFFFFFFFFFFFFFFFFFFFFFFFFFFFFFF
310
FFFFFFFFFFFFFFFFFFFFFFFFFFFFFFFFFFFFFFFFFFFFFFFFFFFFFFFFFFFFFFFF
310
FDFFFFFFFEFFFFFFFEFFFFFFFEFFFFFF05000000060000000700000008000000
310
090000000A0000000B0000000C0000000D0000000E0000000F00000010000000
310
11000000120000001300000014000000150000001600000017000000FEFFFFFF
310
FFFFFFFFFFFFFFFFFFFFFFFFFFFFFFFFFFFFFFFFFFFFFFFFFFFFFFFFFFFFFFFF
310
FFFFFFFFFFFFFFFFFFFFFFFFFFFFFFFFFFFFFFFFFFFFFFFFFFFFFFFFFFFFFFFF
310
FFFFFFFFFFFFFFFFFFFFFFFFFFFFFFFFFFFFFFFFFFFFFFFFFFFFFFFFFFFFFFFF
310
FFFFFFFFFFFFFFFFFFFFFFFFFFFFFFFFFFFFFFFFFFFFFFFFFFFFFFFFFFFFFFFF
310
FFFFFFFFFFFFFFFFFFFFFFFFFFFFFFFFFFFFFFFFFFFFFFFFFFFFFFFFFFFFFFFF
310
FFFFFFFFFFFFFFFFFFFFFFFFFFFFFFFFFFFFFFFFFFFFFFFFFFFFFFFFFFFFFFFF
310
FFFFFFFFFFFFFFFFFFFFFFFFFFFFFFFFFFFFFFFFFFFFFFFFFFFFFFFFFFFFFFFF
310
FFFFFFFFFFFFFFFFFFFFFFFFFFFFFFFFFFFFFFFFFFFFFFFFFFFFFFFFFFFFFFFF
310
FFFFFFFFFFFFFFFFFFFFFFFFFFFFFFFFFFFFFFFFFFFFFFFFFFFFFFFFFFFFFFFF
310
FFFFFFFFFFFFFFFFFFFFFFFFFFFFFFFFFFFFFFFFFFFFFFFFFFFFFFFFFFFFFFFF
310
FFFFFFFFFFFFFFFFFFFFFFFFFFFFFFFFFFFFFFFFFFFFFFFFFFFFFFFFFFFFFFFF
310
FFFFFFFFFFFFFFFFFFFFFFFFFFFFFFFFFFFFFFFFFFFFFFFFFFFFFFFFFFFFFFFF
310
FFFFFFFFFFFFFFFFFFFFFFFFFFFFFFFFFFFFFFFFFFFFFFFFFFFFFFFFFFFFFFFF
310
52006F006F007400200045006E00740072007900000000000000000000000000
310
0000000000000000000000000000000000000000000000000000000000000000
310
16000500FFFFFFFFFFFFFFFF020000000A00030000000000C000000000000046
310
00000000000000000000000070FCC94723A7D30103000000C000000000000000
310
01004F006C006500000000000000000000000000000000000000000000000000
310
0000000000000000000000000000000000000000000000000000000000000000
310
0A000200FFFFFFFFFFFFFFFFFFFFFFFF00000000000000000000000000000000
310
0000000000000000000000000000000000000000000000001400000000000000
310
010043006F006D0070004F0062006A0000000000000000000000000000000000
310
0000000000000000000000000000000000000000000000000000000000000000
310
120002010100000003000000FFFFFFFF00000000000000000000000000000000
310
0000000000000000000000000000000000000000010000004D00000000000000
310
01004F006C006500310030004E00610074006900760065000000000000000000
310
0000000000000000000000000000000000000000000000000000000000000000
310
1A000200FFFFFFFFFFFFFFFFFFFFFFFF00000000000000000000000000000000
310
0000000000000000000000000000000000000000040000002426000000000000
310
FEFFFFFF02000000FEFFFFFFFFFFFFFFFFFFFFFFFFFFFFFFFFFFFFFFFFFFFFFF
310
FFFFFFFFFFFFFFFFFFFFFFFFFFFFFFFFFFFFFFFFFFFFFFFFFFFFFFFFFFFFFFFF
310
FFFFFFFFFFFFFFFFFFFFFFFFFFFFFFFFFFFFFFFFFFFFFFFFFFFFFFFFFFFFFFFF
310
FFFFFFFFFFFFFFFFFFFFFFFFFFFFFFFFFFFFFFFFFFFFFFFFFFFFFFFFFFFFFFFF
310
FFFFFFFFFFFFFFFFFFFFFFFFFFFFFFFFFFFFFFFFFFFFFFFFFFFFFFFFFFFFFFFF
310
FFFFFFFFFFFFFFFFFFFFFFFFFFFFFFFFFFFFFFFFFFFFFFFFFFFFFFFFFFFFFFFF
310
FFFFFFFFFFFFFFFFFFFFFFFFFFFFFFFFFFFFFFFFFFFFFFFFFFFFFFFFFFFFFFFF
310
FFFFFFFFFFFFFFFFFFFFFFFFFFFFFFFFFFFFFFFFFFFFFFFFFFFFFFFFFFFFFFFF
310
FFFFFFFFFFFFFFFFFFFFFFFFFFFFFFFFFFFFFFFFFFFFFFFFFFFFFFFFFFFFFFFF
310
FFFFFFFFFFFFFFFFFFFFFFFFFFFFFFFFFFFFFFFFFFFFFFFFFFFFFFFFFFFFFFFF
310
FFFFFFFFFFFFFFFFFFFFFFFFFFFFFFFFFFFFFFFFFFFFFFFFFFFFFFFFFFFFFFFF
310
FFFFFFFFFFFFFFFFFFFFFFFFFFFFFFFFFFFFFFFFFFFFFFFFFFFFFFFFFFFFFFFF
310
FFFFFFFFFFFFFFFFFFFFFFFFFFFFFFFFFFFFFFFFFFFFFFFFFFFFFFFFFFFFFFFF
310
FFFFFFFFFFFFFFFFFFFFFFFFFFFFFFFFFFFFFFFFFFFFFFFFFFFFFFFFFFFFFFFF
310
FFFFFFFFFFFFFFFFFFFFFFFFFFFFFFFFFFFFFFFFFFFFFFFFFFFFFFFFFFFFFFFF
310
FFFFFFFFFFFFFFFFFFFFFFFFFFFFFFFFFFFFFFFFFFFFFFFFFFFFFFFFFFFFFFFF
310
0100000200000000000000000000000000000000000000000000000000000000
310
0000000000000000000000000000000000000000000000000000000000000000
310
0100FEFF030A0000FFFFFFFF0A00030000000000C00000000000004607000000
310
5042727573680007000000504272757368000700000050427275736800F439B2
310
7100000000000000000000000000000000000000000000000000000000000000
310
0000000000000000000000000000000000000000000000000000000000000000
310
0000000000000000000000000000000000000000000000000000000000000000
310
0000000000000000000000000000000000000000000000000000000000000000
310
0000000000000000000000000000000000000000000000000000000000000000
310
0000000000000000000000000000000000000000000000000000000000000000
310
0000000000000000000000000000000000000000000000000000000000000000
310
0000000000000000000000000000000000000000000000000000000000000000
310
0000000000000000000000000000000000000000000000000000000000000000
310
0000000000000000000000000000000000000000000000000000000000000000
310
0000000000000000000000000000000000000000000000000000000000000000
310
0000000000000000000000000000000000000000000000000000000000000000
310
20260000424D0E260000000000003E00000028000000B40200006E0000000100
310
01000000000000000000130B0000130B00000200000002000000000000FFFFFF
310
FFFFFFFFFFFFFFFFFFFFFFFFFFFFFFFFFFFFFFFFFFFFFFFFFFFFFFFFFFFFFFFF
310
FFFFFFFFFFFFFFFFFFFFFFFFFFFFFFFFFFFFFFFFFFFFFFFFFFFFFFFFFFFFFFFF
310
FFFFFFFFFFFFFFFFFFFFFFFFFFFFFFFFFFFFFFFFFFFFFFFFF000FFFFFFFFFFFF
310
FFFFFFFFFFFFFFFFFFFFFFFFFFFFFFFFFFFFFFFFFFFFFFFFFFFFFFFFFFFFFFFF
310
FFFFFFFFFFFFFFFFFFFFFFFFFFFFFFFFFFFFFFFFFFFFFFFFFFFFFFFFFFFFFFFF
310
FFFFFFFFFFFFFFFFFFFFFFFFFFFFFFFFF000FFFFFFFFFFFFFFFFFFFFFFFFFFFF
310
FFFFFFFFFFFFFFFFFFFFFFFFFFFFFFFFFFFFFFFFFFFFFFFFFFFFFFFFFFFFFFFF
310
FFFFFFFFFFFFFFFFFFFFFFFFFFFFFFFFFFFFFFFFFFFFFFFFFFFFFFFFFFFFFFFF
310
FFFFFFFFFFFFFFFFF000FFFFFFFFFFFFFFFFFFFFFFFFFFFFFFFFFFFFFFFFFFFF
310
FFFFFFFFFFFFFFFFFFFFFFFFFFFFFFFFFFFFFFFFFFFFFFFFFFFFFFFFFFFFFFFF
310
FFFFFFFFFFFFFFFFFFFFFFFFFFFFFFFFFFFFFFFFFFFFFFFFFFFFFFFFFFFFFFFF
310
F000FFFFFFFFFFFFFFFFFFFFFFFFFFFFFFFFFFFFFFFFFFFFFFFFFFFFFFFFFFFF
310
FFFFFFFFFFFFFFFFFFFFFFFFFFFFFFFFFFFFFFFFFFFFFFFFFFFFFFFFFFFFFFFF
310
FFFFFFFFFFFFFFFFFFFFFFFFFFFFFFFFFFFFFFFFFFFFFFFFF000FFFFFFFFFFFF
310
FFFFFFFFFFFFFFFFFFFFFFFFFFFFFFFFFFFFFFFFFFFFFFFFFFFFFFFFFFFFFFFF
310
FFFFFFFFFFFFFFFFFFFFFFFFFFFFFFFFFFFFFFFFFFFFFFFFFFFFFFFFFFFFFFFF
310
FFFFFFFFFFFFFFFFFFFFFFFFFFFFFFFFF000FFFFFFFFFFFFFFFFFFFFFFFFFFFF
310
FFFFFFFFFFFFFFFFFFFFFFFFFFFFFFFFFFFFFFFFFFFFFFFFFFFFFFFFFFFFFFFF
310
FFFFFFFFFFFFFFFFFFFFFFFFFFFFFFFFFFFFFFFFFFFFFFFFFFFFFFFFFFFFFFFF
310
FFFFFFFFFFFFFFFFF000FFFFFFFFFFFFFFFFFFFFFFFFFFFFFFFFFFFFFFFFFFFF
310
FFFFFFFFFFFFFFFFFFFFFFFFFFFFFFFFFFFFFFFFFFFFFFFFFFFFFFFFFFFFFFFF
310
FFFFFFFFFFFFFFFFFFFFFFFFFFFFFFFFFFFFFFFFFFFFFFFFFFFFFFFFFFFFFFFF
310
F000FFFFFFFFFFFFFFFFFFFFFFFFFFFFFFFFFFFFFFFFFFFFFFFFFFFFFFFFFFFF
310
FFFFFFFFFFFFFFFFFFFFFFFFFFFFFFFFFFFFFFFFFFFFFFFFFFFFFFFFFFFFFFFF
310
FFFFFFFFFFFFFFFFFFFFFFFFFFFFFFFFFFFFFFFFFFFFFFFFF000FFFFFFFFFFFF
310
FFFFFFFFFFFFFFFFFFFFFFFFFFFFFFFFFFFFFFFFFFFFFFFFFFFFFFFFFFFFFFFF
310
FFFFFFFFFFFFFFFFFFFFFFFFFFFFFFFFFFFFFFFFFFFFFFFFFFFFFFFFFFFFFFFF
310
FFFFFFFFFFFFFFFFFFFFFFFFFFFFFFFFF000FFFFFFFFFFFFFFFFFFFFFFFFFFFF
310
FFFFFFFFFFFFFFFFFFFFFFFFFFFFFFFFFFFFFFFFFFFFFFFFFFFFFFFFFFFFFFFF
310
FFFFFFFFFFFFFFFFFFFFFFFFFFFFFFFFFFFFFFFFFFFFFFFFFFFFFFFFFFFFFFFF
310
FFFFFFFFFFFFFFFFF000FFFFFFFFFFFFFFFFFFFFFFFFFFFFFFFFFFFFFFFFFFFF
310
FFFFFFFFFFFFFFFFFFFFFFFFFFFFFFFFFFFFFFFFFFFFFFFFFFFFFFFFFFFFFFFF
310
FFFFFFFFFFFFFFFFFFFFFFFFFFFFFFFFFFFFFFFFFFFFFFFFFFFFFFFFFFFFFFFF
310
F000FFFFFFFFFFFFFFFFFFFFFFFFFFFFFFFFFFFFFFFFFFFFFFFFFFFFFFFFFFFF
310
FFFFFFFFFFFFFFFFFFFFFFFFFFFFFFFFFFFFFFFFFFFFFFFFFFFFFFFFFFFFFFFF
310
FFFFFFFFFFFFFFFFFFFFFFFFFFFFFFFFFFFFFFFFFFFFFFFFF000FFFFFFFFFFFF
310
FFFFFFFFFFFFFFFFFFFFFFFFFFFFFFFFFFFFFFFFFFFFFFFFFFFFFFFFFFFFFFFF
310
FFFFFFFFFFFFFFFFFFFFFFFFFFFFFFFFFFFFFFFFFFFFFFFFFFFFFFFFFFFFFFFF
310
FFFFFFFFFFFFFFFFFFFFFFFFFFFFFFFFF000FFFFFFFFFFFFFFFFFFFFFFFFFFFF
310
FFFFFFFFFFFFFFFFFFFFFFFFFFFFFFFFFFFFFFFFFFFFFFFFFFFFFFFFFFFFFFFF
310
FFFFFFFFFFFFFFFFFFFFFFFFFFFFFFFFFFFFFFFFFFFFFFFFFFFFFFFFFFFFFFFF
310
FFFFFFFFFFFFFFFFF000FFFFFFFFFFFFFFFFFFFFFFFFFFFFFFFFFFFFFFFFFFFF
310
FFFFFFFFFFFFFFFFFFFFFFFFFFFFFFFFFFFFFFFFFFFFFFFFFFFFFFFFFFFFFFFF
310
FFFFFFFFFFFFFFFFFFFFFFFFFFFFFFFFFFFFFFFFFFFFFFFFFFFFFFFFFFFFFFFF
310
F000FFFFFFFFFFFFFFFFFFFFFFFFFFFFFFFFFFFFFFFFFFFFFFFFFFFFFFFFFFFF
310
FFFFFFFFFFFFFFFFFFFFFFFFFFFFFFFFFFFFFFFFFFFFFFFFFFFFFFFFFFFFFFFF
310
FFFFFFFFFFFFFFFFFFFFFFFFFFFFFFFFFFFFFFFFFFFFFFFFF000FFFFFFFFFFFF
310
FFFFFFFFFFFFFFFFFFFFFFFFFFFFFFFFFFFFFFFFFFFFFFFFFFFFFFFFFFFFFFFF
310
FFFFFFFFFFFFFFFFFFFFFFFFFFFFFFFFFFFFFFFFFFFFFFFFFFFFFFFFFFFFFFFF
310
FFFFFFFFFFFFFFFFFFFFFFFFFFFFFFFFF000FFFFFFFFFFFFFFFFFFFFFFFFFFFF
310
FFFFFFFFFFFFFFFFFFFFFFFFFFFFFFFFFFFFFFFFFFFFFFFFFFFFFFFFFFFFFFFF
310
FFFFFFFFFFFFFFFFFFFFFFFFFFFFFFFFFFFFFFFFFFFFFFFFFFFFFFFFFFFFFFFF
310
FFFFFFFFFFFFFFFFF000FFFFF80003FFFFFFFFFFFFFFFFFFFFFFFFFFFFFFFFFF
310
FFFFF00007FFFFFFFFFF00007FFFFFF800000000000000007FFFFFFFFFFFFFFF
310
FFFFFFFC001FFFFFFFFFFFFFFC001FFFFFFFFFFFFFFFFFFFFFFFFFFE0007FFFF
310
F000FFFF8000007FFFFFFFF8000FFFFFC0007FFFFF80007FFFFF0000007FFFFF
310
FFF8000007FFFFF800000000000000007FFFFFF0001FFFFFFFFFFFC00001FFFF
310
FFFFFFFFC00001FFFFFFFF000000000003FFFFE000007FFFF000FFFE0000000F
310
FFFFFFF0000FFFFF80007FFFFF80007FFFFC0000001FFFFFFFC0000001FFFFF8
310
00000000000000007FFFFFF0001FFFFFFFFFFE0000003FFFFFFFFFFE0000003F
310
FFFFFF000000000003FFFF0000000FFFF000FFF800000003FFFFFFF00007FFFF
310
80007FFFFF80007FFFF000000007FFFFFF000000003FFFF80000000000000000
310
7FFFFFF0001FFFFFFFFFF80000000FFFFFFFFFF80000000FFFFFFF0000000000
310
03FFFC00000003FFF000FFE000000000FFFFFFF00007FFFF80003FFFFF80007F
310
FFC000000001FFFFFC000000001FFFF800000000000000007FFFFFF0001FFFFF
310
FFFFE000000003FFFFFFFFE000000003FFFFFF000000000003FFF000000000FF
310
F000FF80000000007FFFFFF00007FFFF80003FFFFF80007FFF8000000000FFFF
310
F80000000007FFF800000000000000007FFFFFF0001FFFFFFFFFC000000001FF
310
FFFFFFC000000001FFFFFF000000000003FFC0000000007FF000FF0000000000
310
3FFFFFE00007FFFF00003FFFFF80007FFE00000000003FFFF00000000003FFF8
310
00000000000000007FFFFFF0001FFFFFFFFF8000000000FFFFFFFF8000000000
310
FFFFFF000000000003FF80000000003FF000FE00000000001FFFFFE00003FFFF
310
00003FFFFF80007FFC00000000001FFFE00000000001FFF8000001FFFE000000
310
7FFFFFF0001FFFFFFFFE00000000003FFFFFFE00000000003FFFFF0000000000
310
03FF00000000001FF000FC00000000000FFFFFE00003FFFF00001FFFFF80007F
310
F800000000001FFFC00000000000FFF8000001FFFE0000007FFFFFF0001FFFFF
310
FFFC00000000001FFFFFFC00000000001FFFFF000000000003FE00000000000F
310
F000F8000000000007FFFFE00003FFFF00001FFFFF80007FF800000000000FFF
310
800000000000FFF8000001FFFE0000007FFFFFF0001FFFFFFFF800000000000F
310
FFFFF800000000000FFFFF000000000003FC000000000007F000F80000000000
310
03FFFFC00003FFFE00001FFFFF80007FF0000000000007FF0000000000007FF8
310
000001FFFE0000007FFFFFF0001FFFFFFFF0000000000007FFFFF00000000000
310
07FFFF000000000003F8000000000003F000F0000000000003FFFFC00001FFFE
310
00001FFFFF80007FE0000000000007FE0000000000003FF8000001FFFE000000
310
7FFFFFF0001FFFFFFFF0000000000007FFFFF0000000000007FFFF0000000000
310
03F800001F800003F000E00001FFF00001FFFFC00001FFFE00000FFFFF80007F
310
E00001FFE00003FE00001FFF00003FF8000001FFFE0000007FFFFFF0001FFFFF
310
FFE000003E000003FFFFE000003E000003FFFF000000000003F00001FFF80001
310
F000E00007FFFC0001FFFFC00001FFFE00000FFFFF80007FC0000FFFFC0003FC
310
0000FFFFC0001FF8000001FFFE0000007FFFFFF0001FFFFFFFC00003FFE00001
310
FFFFC00003FFE00001FFFF0001FFFFFFFFF00007FFFE0001F000E0000FFFFF00
310
00FFFF800001FFFC00000FFFFF80007FC0001FFFFE0001FC0001FFFFE0001FF8
310
000001FFFE0000007FFFFFF0001FFFFFFF80000FFFF80000FFFF80000FFFF800
310
00FFFF0003FFFFFFFFE0000FFFFF8000F000C0003FFFFF8000FFFF800000FFFC
310
000007FFFF80007F80003FFFFF0001FC0003FFFFF0001FF8000001FFFE000000
310
7FFFFFF0001FFFFFFF80003FFFFE0000FFFF80003FFFFE0000FFFF0003FFFFFF
310
FFE0003FFFFF8000F000C0003FFFFF8000FFFF800000FFFC000007FFFF80007F
310
80007FFFFF8001F80007FFFFF8000FF8000001FFFE0000007FFFFFF0001FFFFF
310
FF00007FFFFF00007FFF00007FFFFF00007FFF0003FFFFFFFFE0003FFFFFC000
310
F000C0007FFFFFC000FFFF000000FFFC000007FFFF80007F8000FFFFFF8000F8
310
000FFFFFF8000FF8000001FFFE0000007FFFFFF0001FFFFFFF0000FFFFFF8000
310
7FFF0000FFFFFF80007FFF0003FFFFFFFFC0007FFFFFC00070008000FFFFFFC0
310
00FFFF000000FFF8000007FFFF80007F8000FFFFFF8000F8000FFFFFF8000FF8
310
000001FFFE0000007FFFFFF0001FFFFFFE0001FFFFFFC0003FFE0001FFFFFFC0
310
003FFF0003FFFFFFFFC0007FFFFFE00070008000FFFFFFC0007FFF0000007FF8
310
000003FFFF80007F0001FFFFFF8000F8000FFFFFF8000FF8000001FFFE000000
310
7FFFFFF0001FFFFFFE0001FFFFFFC0003FFE0001FFFFFFC0003FFF0003FFFFFF
310
FFC000FFFFFFE00070008000FFFFFFC0007FFF0000007FF8000003FFFF80007F
310
0001FFFFFF8000F8001FFFFFF8000FF8000001FFFE0000007FFFFFF0001FFFFF
310
FE0003FFFFFFE0003FFE0003FFFFFFE0003FFF0003FFFFFFFFC000FFFFFFE000
310
70008000FFFFFFC0007FFE0000007FF8000003FFFF80007F0001FFFFFF8000F0
310
001FFFFFF8000FF8000001FFFE0000007FFFFFF0001FFFFFFC0003FFFFFFE000
310
1FFC0003FFFFFFE0001FFF0003FFFFFFFFC000FFFFFFC00070008000FFFFFF80
310
007FFE0000007FF0000003FFFF80007F0001FFFFFF0000F0001FFFFFF8000FF8
310
000001FFFE0000007FFFFFF0001FFFFFFC0007FFFFFFF0001FFC0007FFFFFFF0
310
001FFF0003FFFFFFFFC000FFFFFFC00070008001FFFFFF0000FFFE0000003FF0
310
000001FFFF80007F0001FFFFFF0000F8001FFFFFF0000FF8000001FFFE000000
310
7FFFFFF0001FFFFFFC0007FFFFFFF0001FFC0007FFFFFFF0001FFF0003FFFFFF
310
FFC001FFFFFF80007000FFFFFFFFFE0000FFFE0008003FF0008001FFFF80007F
310
FFFFFFFFFC0000FFFFFFFFFFE0000FF8000001FFFE0000007FFFFFF0001FFFFF
310
F8000FFFFFFFF8000FF8000FFFFFFFF8000FFF0003FFFFFFFFFFFFFFFFFF0000
310
7000FFFFFFFFFC0000FFFC0008003FF0008001FFFF80007FFFFFFFFFF80001FF
310
FFFFFFFF80000FF8000001FFFE0000007FFFFFF0001FFFFFF8000FFFFFFFF800
310
0FF8000FFFFFFFF8000FFF0003FFFFFFFFFFFFFFFFFE0000F000FFFFFFFFE000
310
00FFFC000C003FE000C001FFFF80007FFFFFFFFFC00001FFFFFFFFFE00001FF8
310
000001FFFE0000007FFFFFF0001FFFFFF8000FFFFFFFF8000FF8000FFFFFFFF8
310
000FFF0003FFFFFFFFFFFFFFFFF00000F000FFFFFFFE000001FFFC000C001FE0
310
00C000FFFF80007FFFFFFFFE000001FFFFFFFFE000001FF80FFFFFFFFFFFFFC0
310
7FFFFFF0001FFFFFF8000FFFFFFFF8000FF8000FFFFFFFF8000FFF0003FFFFFF
310
FFFFFFFFFF800000F000FFFFFFC0000001FFFC001C001FE001C000FFFF80007F
310
FFFFFF80000003FFFFFFF80000001FF80FFFFFFFFFFFFFC07FFFFFF0001FFFFF
310
F8001FFFFFFFFC000FF8001FFFFFFFFC000FFF0003FFFFFFFFFFFFFFF0000001
310
F000FFFFF800000001FFF8001C001FE001C000FFFF80007FFFFFF800000003FF
310
FFFF800000003FF80FFFFFFFFFFFFFC07FFFFFF0001FFFFFF8001FFFFFFFFC00
310
0FF8001FFFFFFFFC000FFF0003FFFFFFFFFFFFFE00000001F000FFFFC0000000
310
03FFF8001E001FC001E000FFFF80007FFFFF8000000007FFFFFC000000003FF8
310
0FFFFFFFFFFFFFC07FFFFFF0001FFFFFF8001FFFFFFFFC000FF8001FFFFFFFFC
310
000FFF0003FFFFFFFFFFFFE000000003F000FFFE0000000007FFF8001E000FC0
310
01E0007FFF80007FFFFE0000000007FFFFE0000000007FF80FFFFFFFFFFFFFC0
310
7FFFFFF0001FFFFFF0001FFFFFFFFC0007F0001FFFFFFFFC0007FF0003FFFFFF
310
FFFFFF0000000003F000FFF80000000007FFF8001E000FC003E0007FFF80007F
310
FFF0000000000FFFFF8000000000FFF80FFFFFFFFFFFFFC07FFFFFF0001FFFFF
310
F0001FFFFFFFFC0007F0001FFFFFFFFC0007FF0003FFFFFFFFFFFC0000000007
310
F000FFE0000000000FFFF0003E000FC003E0007FFF80007FFFC0000000001FFF
310
FE0000000001FFF80FFFFFFFFFFFFFC07FFFFFF0001FFFFFF0001FFFFFFFFC00
310
07F0001FFFFFFFFC0007FF0003FFFFFFFFFFF0000000000FF000FFC000000000
310
1FFFF0003F000F8003F0003FFF80007FFF80000000003FFFF80000000003FFF8
310
0FFFFFFFFFFFFFC07FFFFFF0001FFFFFF0001FFFFFFFFC0007F0001FFFFFFFFC
310
0007FF0003FFFFFFFFFFE0000000001FF000FF00000000007FFFF0003F000780
310
03F0003FFF80007FFF00000000007FFFF00000000007FFF80FFFFFFFFFFFFFC0
310
7FFFFFF0001FFFFFF0001FFFFFFFFC0007F0001FFFFFFFFC0007FF0003FFFFFF
310
FFFF80000000007FF000FE0000000000FFFFE0003F00078007F0003FFF80007F
310
FE0000000001FFFFE0000000001FFFF80FFFFFFFFFFFFFC07FFFFFF0001FFFFF
310
F0001FFFFFFFFC0007F0001FFFFFFFFC0007FF0003FFFFFFFFFF0000000000FF
310
F000FC0000000003FFFFE0007F00078007F0003FFF80007FFC0000000007FFFF
310
C0000000007FFFF80FFFFFFFFFFFFFC07FFFFFF0001FFFFFF8001FFFFFFFFC00
310
0FF8001FFFFFFFFC000FFF0003FFFFFFFFFE0000000003FFF000FC000000000F
310
FFFFE0007F80070007F8001FFF80007FF8000000001FFFFF8000000001FFFFF8
310
0FFFFFFFFFFFFFC07FFFFFF0001FFFFFF8001FFFFFFFFC000FF8001FFFFFFFFC
310
000FFF0003FFFFFFFFFC000000000FFFF000F8000000007FFFFFE0007F800700
310
07F8001FFF80007FF000000000FFFFFF800000000FFFFFF80FFFFFFFFFFFFFC0
310
7FFFFFF0001FFFFFF8000FFFFFFFF8000FF8000FFFFFFFF8000FFF0003FFFFFF
310
FFFC000000007FFFF000F800000007FFFFFFC0007F8003000FF8001FFF80007F
310
F000000007FFFFFF000000007FFFFFF80FFFFFFFFFFFFFC07FFFFFF0001FFFFF
310
F8000FFFFFFFF8000FF8000FFFFFFFF8000FFF0003FFFFFFFFF80000000FFFFF
310
F000F0000000FFFFFFFFC000FF8003000FF8001FFF80007FE0000000FFFFFFFF
310
0000000FFFFFFFF8000001FFFE0000007FFFFFF0001FFFFFF8000FFFFFFFF800
310
0FF8000FFFFFFFF8000FFF0003FFFFFFFFF8000000FFFFFFF000F000000FFFFF
310
FFFFC000FFC002000FF8000FFF80007FE000001FFFFFFFFE000001FFFFFFFFF8
310
000001FFFE0000007FFFFFF0001FFFFFF8000FFFFFFFF8000FF8000FFFFFFFF8
310
000FFF0003FFFFFFFFF000001FFFFFFFF000E00000FFFFFFFFFFC000FFC00200
310
0FFC000FFF80007FE00001FFFFFFFFFE00001FFFFFFFFFF8000001FFFE000000
310
7FFFFFF0001FFFFFFC000FFFFFFFF8001FFC000FFFFFFFF8001FFF0003FFFFFF
310
FFF00001FFFFFFFFF000E00007FFFFFFFFFF8000FFC000001FFC000FFF80007F
310
C0000FFFFFFFFFFE0000FFFFFFFFFFF8000001FFFE0000007FFFFFF0001FFFFF
310
FC0007FFFFFFF0001FFC0007FFFFFFF0001FFF0003FFFFFFFFF00007FFFFFFFF
310
F000E0001FFFFFFFFFFF8000FFC000001FFC000FFF80007FC0003FFFFFFFFFFE
310
0001FFFFFFFFFFF8000001FFFE0000007FFFFFF0001FFFFFFC0007FFFFFFF000
310
1FFC0007FFFFFFF0001FFF0003FFFFFFFFF0001FFFFFFFFFF000E0003FFFFF00
310
03FF8001FFE000001FFC0007FF80007FC0007FFFFF0007FC0003FFFFF0003FF8
310
000001FFFE0000007FFFFFF0001FFFFFFC0003FFFFFFE0001FFC0003FFFFFFE0
310
001FFF0003FFFFFFFFF0003FFFFFFFFFF000E0003FFFFF0001FF8001FFE00000
310
1FFE0007FF80007FC0007FFFFE0003FC0007FFFFE0003FF8000001FFFE000000
310
7FFFFFF0001FFFFFFE0003FFFFFFE0003FFE0003FFFFFFE0003FFF0003FFFFFF
310
FFF0003FFFFF8001F000E0003FFFFF0001FF0001FFE000001FFE0007FF80007F
310
C0007FFFFE0003FC0007FFFFE0003FF8000001FFFE0000007FFFFFF0001FFFFF
310
FE0001FFFFFFC0003FFE0001FFFFFFC0003FFF0003FFFFFFFFF0003FFFFF0001
310
F000E0003FFFFF0003FF0001FFE000003FFE0007FF80007FC0007FFFFE0003FC
310
0007FFFFE0003FF8000001FFFE0000007FFFFFF0001FFFFFFF0001FFFFFFC000
310
7FFF0001FFFFFFC0007FFF0003FFFFFFFFF0003FFFFF0001F000E0003FFFFE00
310
03FF0003FFF000003FFE0003FF80007FC0007FFFFC0003FE0007FFFFE0003FF8
310
000001FFFE0000007FFFFFF0001FFFFFFF0000FFFFFF80007FFF0000FFFFFF80
310
007FFF0003FFFFFFFFF0003FFFFF0001F000E0003FFFFE0003FF0003FFF00000
310
3FFF0003FF80007FC0007FFFFC0007FE0007FFFFC0003FF8000001FFFE000000
310
7FFFFFF0001FFFFFFF80007FFFFF0000FFFF80007FFFFF0000FFFF0003FFFFFF
310
FFF0003FFFFF0003F000E0003FFFFC0003FE0003FFF000003FFF0003FF80007F
310
E0003FFFF80007FE0003FFFFC0007FF8000001FFFE0000007FFFFFF0001FFFFF
310
FF80003FFFFE0000FFFF80003FFFFE0000FFFF0003FFFFFFFFF0001FFFFE0003
310
F000F0001FFFF80003FE0003FFF000007FFF0001FF80007FE0003FFFF00007FE
310
0001FFFF80007FF8000001FFFE0000007FFFFFF0001FFFFFFFC0000FFFF80001
310
FFFFC0000FFFF80001FFFF0003FFFFFFFFF0001FFFFC0003F000F0000FFFF000
310
07FE0007FFF800007FFF0001FF80007FE0001FFFE00007FF0000FFFE00007FF8
310
000001FFFE0000007FFFFFF0001FFFFFFFC00003FFE00001FFFFC00003FFE000
310
01FFFF0003FFFFFFFFF8000FFFF80003F000F00003FFC00007FC0007FFF80000
310
7FFF8001FF80007FF00007FF80000FFF00007FF80000FFF8000001FFFE000000
310
7F80000000000001FFE000003E000003FFFFE000003E000003FFFF0003FFFFFF
310
FFF80003FFE00007F000F800000000000FFC0007FFF800007FFF8001FF80007F
310
F000000000000FFF000000000000FFF8000001FFFE0000007F80000000000001
310
FFF0000000000007FFFFF0000000000007FFFF0003FFFFFFFFFC00007E000007
310
F000F800000000000FFC0007FFF80000FFFF8000FF80007FF800000000001FFF
310
800000000001FFF8000001FFFE0000007F80000000000001FFF800000000000F
310
FFFFF800000000000FFFFF0003FFFFFFFFFC00000000000FF000FC0000000000
310
1FFC0007FFFC0000FFFF8000FF80007FF800000000003FFFC00000000001FFF8
310
000001FFFE0000007F80000000000001FFF800000000000FFFFFF80000000000
310
0FFFFF0003FFFFFFFFFE00000000001FF000FE00000000003FF8000FFFFC0000
310
FFFF8000FF80007FFC00000000003FFFC00000000003FFF8000001FFFE000000
310
7F80000000000001FFFC00000000001FFFFFFC00000000001FFFFF0003FFFFFF
310
FFFF00000000001FF000FF00000000003FF8000FFFFC0000FFFFC000FF80007F
310
FE00000000007FFFE00000000007FFF8000001FFFE0000007F80000000000001
310
FFFE00000000003FFFFFFE00000000003FFFFF0003FFFFFFFFFF80000000003F
310
F000FF80000000007FF8000FFFFC0001FFFFC0007F80007FFF0000000000FFFF
310
F0000000000FFFF800000000000000007F80000000000001FFFF8000000000FF
310
FFFFFF8000000000FFFFFF0003FFFFFFFFFFC0000000007FF000FFC000000000
310
FFF8000FFFFE0001FFFFC0007F80007FFF8000000001FFFFF8000000001FFFF8
310
00000000000000007F80000000000001FFFFC000000001FFFFFFFFC000000001
310
FFFFFF0003FFFFFFFFFFE000000000FFF000FFE000000003FFF0001FFFFE0001
310
FFFFC0007F80007FFFC000000007FFFFFE000000003FFFF80000000000000000
310
7F80000000000001FFFFE000000003FFFFFFFFE000000003FFFFFF0003FFFFFF
310
FFFFF000000003FFF000FFF80000000FFFF0001FFFFE0001FFFFE0007F80007F
310
FFF00000000FFFFFFF00000000FFFFF800000000000000007F80000000000001
310
FFFFF80000000FFFFFFFFFF80000000FFFFFFF0003FFFFFFFFFFFC0000000FFF
310
F000FFFE0000003FFFF0001FFFFE0003FFFFE0003F80007FFFFC0000003FFFFF
310
FFC0000003FFFFF800000000000000007F80000000000001FFFFFE0000003FFF
310
FFFFFFFE0000003FFFFFFF0003FFFFFFFFFFFF0000003FFFF000FFFF800000FF
310
FFF0001FFFFF0003FFFFE0003F80007FFFFF000001FFFFFFFFF800001FFFFFF8
310
00000000000000007F80000000000001FFFFFFC00001FFFFFFFFFFFFC00001FF
310
FFFFFF0003FFFFFFFFFFFFC00000FFFFF000FFFFF8000FFFFFFFFFFFFFFFFFFF
310
FFFFFFFFFFFFFFFFFFFFF0001FFFFFFFFFFF0000FFFFFFF80000000000000000
310
7FFFFFFFFFFFFFFFFFFFFFFC001FFFFFFFFFFFFFFC001FFFFFFFFFFFFFFFFFFF
310
FFFFFFFC001FFFFFF000FFFFFFFFFFFFFFFFFFFFFFFFFFFFFFFFFFFFFFFFFFFF
310
FFFFFFFFFFFFFFFFFFFFFFFFFFFFFFFFFFFFFFFFFFFFFFFFFFFFFFFFFFFFFFFF
310
FFFFFFFFFFFFFFFFFFFFFFFFFFFFFFFFFFFFFFFFFFFFFFFFFFFFFFFFFFFFFFFF
310
F000FFFFFFFFFFFFFFFFFFFFFFFFFFFFFFFFFFFFFFFFFFFFFFFFFFFFFFFFFFFF
310
FFFFFFFFFFFFFFFFFFFFFFFFFFFFFFFFFFFFFFFFFFFFFFFFFFFFFFFFFFFFFFFF
310
FFFFFFFFFFFFFFFFFFFFFFFFFFFFFFFFFFFFFFFFFFFFFFFFF000FFFFFFFFFFFF
310
FFFFFFFFFFFFFFFFFFFFFFFFFFFFFFFFFFFFFFFFFFFFFFFFFFFFFFFFFFFFFFFF
310
FFFFFFFFFFFFFFFFFFFFFFFFFFFFFFFFFFFFFFFFFFFFFFFFFFFFFFFFFFFFFFFF
310
FFFFFFFFFFFFFFFFFFFFFFFFFFFFFFFFF000FFFFFFFFFFFFFFFFFFFFFFFFFFFF
310
FFFFFFFFFFFFFFFFFFFFFFFFFFFFFFFFFFFFFFFFFFFFFFFFFFFFFFFFFFFFFFFF
310
FFFFFFFFFFFFFFFFFFFFFFFFFFFFFFFFFFFFFFFFFFFFFFFFFFFFFFFFFFFFFFFF
310
FFFFFFFFFFFFFFFFF000FFFFFFFFFFFFFFFFFFFFFFFFFFFFFFFFFFFFFFFFFFFF
310
FFFFFFFFFFFFFFFFFFFFFFFFFFFFFFFFFFFFFFFFFFFFFFFFFFFFFFFFFFFFFFFF
310
FFFFFFFFFFFFFFFFFFFFFFFFFFFFFFFFFFFFFFFFFFFFFFFFFFFFFFFFFFFFFFFF
310
F000FFFFFFFFFFFFFFFFFFFFFFFFFFFFFFFFFFFFFFFFFFFFFFFFFFFFFFFFFFFF
310
FFFFFFFFFFFFFFFFFFFFFFFFFFFFFFFFFFFFFFFFFFFFFFFFFFFFFFFFFFFFFFFF
310
FFFFFFFFFFFFFFFFFFFFFFFFFFFFFFFFFFFFFFFFFFFFFFFFF000FFFFFFFFFFFF
310
FFFFFFFFFFFFFFFFFFFFFFFFFFFFFFFFFFFFFFFFFFFFFFFFFFFFFFFFFFFFFFFF
310
FFFFFFFFFFFFFFFFFFFFFFFFFFFFFFFFFFFFFFFFFFFFFFFFFFFFFFFFFFFFFFFF
310
FFFFFFFFFFFFFFFFFFFFFFFFFFFFFFFFF000FFFFFFFFFFFFFFFFFFFFFFFFFFFF
310
FFFFFFFFFFFFFFFFFFFFFFFFFFFFFFFFFFFFFFFFFFFFFFFFFFFFFFFFFFFFFFFF
310
FFFFFFFFFFFFFFFFFFFFFFFFFFFFFFFFFFFFFFFFFFFFFFFFFFFFFFFFFFFFFFFF
310
FFFFFFFFFFFFFFFFF000FFFFFFFFFFFFFFFFFFFFFFFFFFFFFFFFFFFFFFFFFFFF
310
FFFFFFFFFFFFFFFFFFFFFFFFFFFFFFFFFFFFFFFFFFFFFFFFFFFFFFFFFFFFFFFF
310
FFFFFFFFFFFFFFFFFFFFFFFFFFFFFFFFFFFFFFFFFFFFFFFFFFFFFFFFFFFFFFFF
310
F000FFFFFFFFFFFFFFFFFFFFFFFFFFFFFFFFFFFFFFFFFFFFFFFFFFFFFFFFFFFF
310
FFFFFFFFFFFFFFFFFFFFFFFFFFFFFFFFFFFFFFFFFFFFFFFFFFFFFFFFFFFFFFFF
310
FFFFFFFFFFFFFFFFFFFFFFFFFFFFFFFFFFFFFFFFFFFFFFFFF000FFFFFFFFFFFF
310
FFFFFFFFFFFFFFFFFFFFFFFFFFFFFFFFFFFFFFFFFFFFFFFFFFFFFFFFFFFFFFFF
310
FFFFFFFFFFFFFFFFFFFFFFFFFFFFFFFFFFFFFFFFFFFFFFFFFFFFFFFFFFFFFFFF
310
FFFFFFFFFFFFFFFFFFFFFFFFFFFFFFFFF000FFFFFFFFFFFFFFFFFFFFFFFFFFFF
310
FFFFFFFFFFFFFFFFFFFFFFFFFFFFFFFFFFFFFFFFFFFFFFFFFFFFFFFFFFFFFFFF
310
FFFFFFFFFFFFFFFFFFFFFFFFFFFFFFFFFFFFFFFFFFFFFFFFFFFFFFFFFFFFFFFF
310
FFFFFFFFFFFFFFFFF000FFFFFFFFFFFFFFFFFFFFFFFFFFFFFFFFFFFFFFFFFFFF
310
FFFFFFFFFFFFFFFFFFFFFFFFFFFFFFFFFFFFFFFFFFFFFFFFFFFFFFFFFFFFFFFF
310
FFFFFFFFFFFFFFFFFFFFFFFFFFFFFFFFFFFFFFFFFFFFFFFFFFFFFFFFFFFFFFFF
310
F000FFFFFFFFFFFFFFFFFFFFFFFFFFFFFFFFFFFFFFFFFFFFFFFFFFFFFFFFFFFF
310
FFFFFFFFFFFFFFFFFFFFFFFFFFFFFFFFFFFFFFFFFFFFFFFFFFFFFFFFFFFFFFFF
310
FFFFFFFFFFFFFFFFFFFFFFFFFFFFFFFFFFFFFFFFFFFFFFFFF000FFFFFFFFFFFF
310
FFFFFFFFFFFFFFFFFFFFFFFFFFFFFFFFFFFFFFFFFFFFFFFFFFFFFFFFFFFFFFFF
310
FFFFFFFFFFFFFFFFFFFFFFFFFFFFFFFFFFFFFFFFFFFFFFFFFFFFFFFFFFFFFFFF
310
FFFFFFFFFFFFFFFFFFFFFFFFFFFFFFFFF000FFFFFFFFFFFFFFFFFFFFFFFFFFFF
310
FFFFFFFFFFFFFFFFFFFFFFFFFFFFFFFFFFFFFFFFFFFFFFFFFFFFFFFFFFFFFFFF
310
FFFFFFFFFFFFFFFFFFFFFFFFFFFFFFFFFFFFFFFFFFFFFFFFFFFFFFFFFFFFFFFF
310
FFFFFFFFFFFFFFFFF000FFFFFFFFFFFFFFFFFFFFFFFFFFFFFFFFFFFFFFFFFFFF
310
FFFFFFFFFFFFFFFFFFFFFFFFFFFFFFFFFFFFFFFFFFFFFFFFFFFFFFFFFFFFFFFF
310
FFFFFFFFFFFFFFFFFFFFFFFFFFFFFFFFFFFFFFFFFFFFFFFFFFFFFFFFFFFFFFFF
310
F000FFFFFFFFFFFFFFFFFFFFFFFFFFFFFFFFFFFFFFFFFFFFFFFFFFFFFFFFFFFF
310
FFFFFFFFFFFFFFFFFFFFFFFFFFFFFFFFFFFFFFFFFFFFFFFFFFFFFFFFFFFFFFFF
310
FFFFFFFFFFFFFFFFFFFFFFFFFFFFFFFFFFFFFFFFFFFFFFFFF000FFFFFFFFFFFF
310
FFFFFFFFFFFFFFFFFFFFFFFFFFFFFFFFFFFFFFFFFFFFFFFFFFFFFFFFFFFFFFFF
310
FFFFFFFFFFFFFFFFFFFFFFFFFFFFFFFFFFFFFFFFFFFFFFFFFFFFFFFFFFFFFFFF
310
FFFFFFFFFFFFFFFFFFFFFFFFFFFFFFFFF000FFFFFFFFFFFFFFFFFFFFFFFFFFFF
310
FFFFFFFFFFFFFFFFFFFFFFFFFFFFFFFFFFFFFFFFFFFFFFFFFFFFFFFFFFFFFFFF
310
FFFFFFFFFFFFFFFFFFFFFFFFFFFFFFFFFFFFFFFFFFFFFFFFFFFFFFFFFFFFFFFF
310
FFFFFFFFFFFFFFFFF000FFFFFFFFFFFFFFFFFFFFFFFFFFFFFFFFFFFFFFFFFFFF
310
FFFFFFFFFFFFFFFFFFFFFFFFFFFFFFFFFFFFFFFFFFFFFFFFFFFFFFFFFFFFFFFF
310
FFFFFFFFFFFFFFFFFFFFFFFFFFFFFFFFFFFFFFFFFFFFFFFFFFFFFFFFFFFFFFFF
310
F000FFFFFFFFFFFFFFFFFFFFFFFFFFFFFFFFFFFFFFFFFFFFFFFFFFFFFFFFFFFF
310
FFFFFFFFFFFFFFFFFFFFFFFFFFFFFFFFFFFFFFFFFFFFFFFFFFFFFFFFFFFFFFFF
310
FFFFFFFFFFFFFFFFFFFFFFFFFFFFFFFFFFFFFFFFFFFFFFFFF000FFFFFFFFFFFF
310
FFFFFFFFFFFFFFFFFFFFFFFFFFFFFFFFFFFFFFFFFFFFFFFFFFFFFFFFFFFFFFFF
310
FFFFFFFFFFFFFFFFFFFFFFFFFFFFFFFFFFFFFFFFFFFFFFFFFFFFFFFFFFFFFFFF
310
FFFFFFFFFFFFFFFFFFFFFFFFFFFFFFFFF0000000000000000000000000000000
310
0000000000000000000000000000000000000000000000000000000000000000
310
0000000000000000000000000000000000000000000000000000000000000000
310
0000000000000000000000000000000000000000000000000000000000000000
310
0000000000000000000000000000000000000000000000000000000000000000
310
0000000000000000000000000000000000000000000000000000000000000000
310
0000000000000000000000000000000000000000000000000000000000000000
310
0000000000000000000000000000000000000000000000000000000000000000
310
0000000000000000000000000000000000000000000000000000000000000000
310
0000000000000000000000000000000000000000000000000000000000000000
310
0000000000000000000000000000000000000000000000000000000000000000
310
0000000000000000000000000000000000000000000000000000000000000000
310
0000000000000000000000000000000000000000000000000000000000000000
310
0000000000000000000000000000000000000000000000000000000000000000
310
0000000000000000000000000000000000000000000000000000000000000000
310
0000000000000000000000000000000000000000000000000000000000000000
  1
OLE
  0
ENDSEC
  0
SECTION
  2
OBJECTS
  0
DICTIONARY
  5
C
330
0
100
AcDbDictionary
281
     1
  3
ACAD_GROUP
350
D
  3
ACAD_LAYOUT
350
1A
  3
ACAD_MLINESTYLE
350
17
  3
ACAD_PLOTSETTINGS
350
19
  3
ACAD_PLOTSTYLENAME
350
E
  3
ACAD_SCALELIST
350
47
  0
DICTIONARY
  5
D
102
{ACAD_REACTORS
330
C
102
}
330
C
100
AcDbDictionary
281
     1
  0
DICTIONARY
  5
1A
102
{ACAD_REACTORS
330
C
102
}
330
C
100
AcDbDictionary
281
     1
  3
Layout1
350
1E
  3
Layout2
350
26
  3
Model
350
22
  0
DICTIONARY
  5
17
102
{ACAD_REACTORS
330
C
102
}
330
C
100
AcDbDictionary
281
     1
  3
Standard
350
18
  0
DICTIONARY
  5
19
102
{ACAD_REACTORS
330
C
102
}
330
C
100
AcDbDictionary
281
     1
  0
ACDBDICTIONARYWDFLT
  5
E
102
{ACAD_REACTORS
330
C
102
}
330
C
100
AcDbDictionary
281
     1
  3
Normal
350
F
100
AcDbDictionaryWithDefault
340
F
  0
DICTIONARY
  5
47
102
{ACAD_REACTORS
330
C
102
}
330
C
100
AcDbDictionary
281
     1
  3
A0
350
48
  3
A1
350
49
  3
A2
350
4A
  3
A3
350
4B
  3
A4
350
4C
  3
A5
350
4D
  3
A6
350
4E
  3
A7
350
4F
  3
A8
350
50
  3
A9
350
51
  3
B0
350
52
  3
B1
350
53
  3
B2
350
54
  3
B3
350
55
  3
B4
350
56
  3
B5
350
57
  3
B6
350
58
  3
B7
350
59
  3
B8
350
5A
  3
B9
350
5B
  3
C0
350
5C
  3
C1
350
5D
  3
C2
350
5E
  3
C3
350
5F
  3
C4
350
60
  3
C5
350
61
  3
C6
350
62
  3
C7
350
63
  3
C8
350
64
  3
C9
350
65
  3
D0
350
66
  3
D1
350
67
  3
D2
350
68
  0
LAYOUT
  5
1E
102
{ACAD_REACTORS
330
1A
102
}
330
1A
100
AcDbPlotSettings
  1

  2
none_device
  4

  6

 40
0.0
 41
0.0
 42
0.0
 43
0.0
 44
0.0
 45
0.0
 46
0.0
 47
0.0
 48
0.0
 49
0.0
140
0.0
141
0.0
142
1.0
143
1.0
 70
   688
 72
     1
 73
     0
 74
     5
  7

 75
    16
147
1.0
148
0.0
149
0.0
100
AcDbLayout
  1
Layout1
 70
     1
 71
     1
 10
0.0
 20
0.0
 11
420.0
 21
297.0
 12
0.0
 22
0.0
 32
0.0
 14
1.0000000000E+20
 24
1.0000000000E+20
 34
1.0000000000E+20
 15
-1.0000000000E+20
 25
-1.0000000000E+20
 35
-1.0000000000E+20
146
0.0
 13
0.0
 23
0.0
 33
0.0
 16
1.0
 26
0.0
 36
0.0
 17
0.0
 27
1.0
 37
0.0
 76
     0
330
1B
  0
LAYOUT
  5
26
102
{ACAD_REACTORS
330
1A
102
}
330
1A
100
AcDbPlotSettings
  1

  2
none_device
  4

  6

 40
0.0
 41
0.0
 42
0.0
 43
0.0
 44
0.0
 45
0.0
 46
0.0
 47
0.0
 48
0.0
 49
0.0
140
0.0
141
0.0
142
1.0
143
1.0
 70
   688
 72
     1
 73
     0
 74
     5
  7

 75
    16
147
1.0
148
0.0
149
0.0
100
AcDbLayout
  1
Layout2
 70
     1
 71
     2
 10
0.0
 20
0.0
 11
0.0
 21
0.0
 12
0.0
 22
0.0
 32
0.0
 14
0.0
 24
0.0
 34
0.0
 15
0.0
 25
0.0
 35
0.0
146
0.0
 13
0.0
 23
0.0
 33
0.0
 16
1.0
 26
0.0
 36
0.0
 17
0.0
 27
1.0
 37
0.0
 76
     0
330
23
  0
LAYOUT
  5
22
102
{ACAD_REACTORS
330
1A
102
}
330
1A
100
AcDbPlotSettings
  1

  2
none_device
  4
Letter_(8.50_x_11.00_Inches)
  6

 40
6.35
 41
6.35
 42
6.35000508
 43
6.35000508
 44
215.9
 45
279.4
 46
0.0
 47
0.0
 48
0.0
 49
0.0
140
0.0
141
0.0
142
1.0
143
1.0
 70
  1712
 72
     1
 73
     0
 74
     0
  7

 75
     0
147
1.0
148
0.0
149
0.0
100
AcDbLayout
  1
Model
 70
     1
 71
     0
 10
0.0
 20
0.0
 11
297.0
 21
210.0
 12
0.0
 22
0.0
 32
0.0
 14
0.0
 24
0.0
 34
0.0
 15
297.0
 25
210.0
 35
0.0
146
0.0
 13
0.0
 23
0.0
 33
0.0
 16
1.0
 26
0.0
 36
0.0
 17
0.0
 27
1.0
 37
0.0
 76
     0
330
1F
331
29
  0
MLINESTYLE
  5
18
102
{ACAD_REACTORS
330
17
102
}
330
17
100
AcDbMlineStyle
  2
Standard
 70
     0
  3

 62
   256
 51
90.0
 52
90.0
 71
     2
 49
0.5
 62
   256
  6
BYLAYER
 49
-0.5
 62
   256
  6
BYLAYER
  0
ACDBPLACEHOLDER
  5
F
102
{ACAD_REACTORS
330
E
102
}
330
E
  0
SCALE
  5
48
102
{ACAD_REACTORS
330
47
102
}
330
47
100
AcDbScale
 70
     0
300
1:1
140
1.0
141
1.0
290
     1
  0
SCALE
  5
49
102
{ACAD_REACTORS
330
47
102
}
330
47
100
AcDbScale
 70
     0
300
1:2
140
1.0
141
2.0
290
     0
  0
SCALE
  5
4A
102
{ACAD_REACTORS
330
47
102
}
330
47
100
AcDbScale
 70
     0
300
1:4
140
1.0
141
4.0
290
     0
  0
SCALE
  5
4B
102
{ACAD_REACTORS
330
47
102
}
330
47
100
AcDbScale
 70
     0
300
1:5
140
1.0
141
5.0
290
     0
  0
SCALE
  5
4C
102
{ACAD_REACTORS
330
47
102
}
330
47
100
AcDbScale
 70
     0
300
1:8
140
1.0
141
8.0
290
     0
  0
SCALE
  5
4D
102
{ACAD_REACTORS
330
47
102
}
330
47
100
AcDbScale
 70
     0
300
1:10
140
1.0
141
10.0
290
     0
  0
SCALE
  5
4E
102
{ACAD_REACTORS
330
47
102
}
330
47
100
AcDbScale
 70
     0
300
1:16
140
1.0
141
16.0
290
     0
  0
SCALE
  5
4F
102
{ACAD_REACTORS
330
47
102
}
330
47
100
AcDbScale
 70
     0
300
1:20
140
1.0
141
20.0
290
     0
  0
SCALE
  5
50
102
{ACAD_REACTORS
330
47
102
}
330
47
100
AcDbScale
 70
     0
300
1:30
140
1.0
141
30.0
290
     0
  0
SCALE
  5
51
102
{ACAD_REACTORS
330
47
102
}
330
47
100
AcDbScale
 70
     0
300
1:40
140
1.0
141
40.0
290
     0
  0
SCALE
  5
52
102
{ACAD_REACTORS
330
47
102
}
330
47
100
AcDbScale
 70
     0
300
1:50
140
1.0
141
50.0
290
     0
  0
SCALE
  5
53
102
{ACAD_REACTORS
330
47
102
}
330
47
100
AcDbScale
 70
     0
300
1:100
140
1.0
141
100.0
290
     0
  0
SCALE
  5
54
102
{ACAD_REACTORS
330
47
102
}
330
47
100
AcDbScale
 70
     0
300
2:1
140
2.0
141
1.0
290
     0
  0
SCALE
  5
55
102
{ACAD_REACTORS
330
47
102
}
330
47
100
AcDbScale
 70
     0
300
4:1
140
4.0
141
1.0
290
     0
  0
SCALE
  5
56
102
{ACAD_REACTORS
330
47
102
}
330
47
100
AcDbScale
 70
     0
300
8:1
140
8.0
141
1.0
290
     0
  0
SCALE
  5
57
102
{ACAD_REACTORS
330
47
102
}
330
47
100
AcDbScale
 70
     0
300
10:1
140
10.0
141
1.0
290
     0
  0
SCALE
  5
58
102
{ACAD_REACTORS
330
47
102
}
330
47
100
AcDbScale
 70
     0
300
100:1
140
100.0
141
1.0
290
     0
  0
SCALE
  5
59
102
{ACAD_REACTORS
330
47
102
}
330
47
100
AcDbScale
 70
     0
300
1/128" = 1'-0"
140
0.0078125
141
12.0
290
     0
  0
SCALE
  5
5A
102
{ACAD_REACTORS
330
47
102
}
330
47
100
AcDbScale
 70
     0
300
1/64" = 1'-0"
140
0.015625
141
12.0
290
     0
  0
SCALE
  5
5B
102
{ACAD_REACTORS
330
47
102
}
330
47
100
AcDbScale
 70
     0
300
1/32" = 1'-0"
140
0.03125
141
12.0
290
     0
  0
SCALE
  5
5C
102
{ACAD_REACTORS
330
47
102
}
330
47
100
AcDbScale
 70
     0
300
1/16" = 1'-0"
140
0.0625
141
12.0
290
     0
  0
SCALE
  5
5D
102
{ACAD_REACTORS
330
47
102
}
330
47
100
AcDbScale
 70
     0
300
3/32" = 1'-0"
140
0.09375
141
12.0
290
     0
  0
SCALE
  5
5E
102
{ACAD_REACTORS
330
47
102
}
330
47
100
AcDbScale
 70
     0
300
1/8" = 1'-0"
140
0.125
141
12.0
290
     0
  0
SCALE
  5
5F
102
{ACAD_REACTORS
330
47
102
}
330
47
100
AcDbScale
 70
     0
300
3/16" = 1'-0"
140
0.1875
141
12.0
290
     0
  0
SCALE
  5
60
102
{ACAD_REACTORS
330
47
102
}
330
47
100
AcDbScale
 70
     0
300
1/4" = 1'-0"
140
0.25
141
12.0
290
     0
  0
SCALE
  5
61
102
{ACAD_REACTORS
330
47
102
}
330
47
100
AcDbScale
 70
     0
300
3/8" = 1'-0"
140
0.375
141
12.0
290
     0
  0
SCALE
  5
62
102
{ACAD_REACTORS
330
47
102
}
330
47
100
AcDbScale
 70
     0
300
1/2" = 1'-0"
140
0.5
141
12.0
290
     0
  0
SCALE
  5
63
102
{ACAD_REACTORS
330
47
102
}
330
47
100
AcDbScale
 70
     0
300
3/4" = 1'-0"
140
0.75
141
12.0
290
     0
  0
SCALE
  5
64
102
{ACAD_REACTORS
330
47
102
}
330
47
100
AcDbScale
 70
     0
300
1" = 1'-0"
140
1.0
141
12.0
290
     0
  0
SCALE
  5
65
102
{ACAD_REACTORS
330
47
102
}
330
47
100
AcDbScale
 70
     0
300
1-1/2" = 1'-0"
140
1.5
141
12.0
290
     0
  0
SCALE
  5
66
102
{ACAD_REACTORS
330
47
102
}
330
47
100
AcDbScale
 70
     0
300
3" = 1'-0"
140
3.0
141
12.0
290
     0
  0
SCALE
  5
67
102
{ACAD_REACTORS
330
47
102
}
330
47
100
AcDbScale
 70
     0
300
6" = 1'-0"
140
6.0
141
12.0
290
     0
  0
SCALE
  5
68
102
{ACAD_REACTORS
330
47
102
}
330
47
100
AcDbScale
 70
     0
300
1'-0" = 1'-0"
140
12.0
141
12.0
290
     0
  0
ENDSEC
  0
EOF
