  0
SECTION
  2
HEADER
  9
$ACADVER
  1
AC1015
  9
$ACADMAINTVER
 70
     6
  9
$DWGCODEPAGE
  3
ANSI_1252
  9
$INSBASE
 10
0.0
 20
0.0
 30
0.0
  9
$EXTMIN
 10
0.0
 20
0.0
 30
0.0
  9
$EXTMAX
 10
297.0
 20
210.0
 30
0.0
  9
$LIMMIN
 10
0.0
 20
0.0
  9
$LIMMAX
 10
297.0
 20
210.0
  9
$ORTHOMODE
 70
     0
  9
$REGENMODE
 70
     1
  9
$FILLMODE
 70
     1
  9
$QTEXTMODE
 70
     0
  9
$MIRRTEXT
 70
     1
  9
$LTSCALE
 40
1.0
  9
$ATTMODE
 70
     1
  9
$TEXTSIZE
 40
2.0
  9
$TRACEWID
 40
1.0
  9
$TEXTSTYLE
  7
Standard
  9
$CLAYER
  8
0
  9
$CELTYPE
  6
ByLayer
  9
$CECOLOR
 62
   256
  9
$CELTSCALE
 40
1.0
  9
$DISPSILH
 70
     0
  9
$DIMSCALE
 40
1.0
  9
$DIMASZ
 40
3.0
  9
$DIMEXO
 40
0.0
  9
$DIMDLI
 40
3.75
  9
$DIMRND
 40
0.0
  9
$DIMDLE
 40
0.0
  9
$DIMEXE
 40
1.0
  9
$DIMTP
 40
0.0
  9
$DIMTM
 40
0.0
  9
$DIMTXT
 40
2.0
  9
$DIMCEN
 40
2.5
  9
$DIMTSZ
 40
0.0
  9
$DIMTOL
 70
     0
  9
$DIMLIM
 70
     0
  9
$DIMTIH
 70
     1
  9
$DIMTOH
 70
     1
  9
$DIMSE1
 70
     0
  9
$DIMSE2
 70
     0
  9
$DIMTAD
 70
     1
  9
$DIMZIN
 70
     0
  9
$DIMBLK
  1

  9
$DIMASO
 70
     1
  9
$DIMSHO
 70
     1
  9
$DIMPOST
  1

  9
$DIMAPOST
  1

  9
$DIMALT
 70
     0
  9
$DIMALTD
 70
     3
  9
$DIMALTF
 40
0.0393700787
  9
$DIMLFAC
 40
2.0
  9
$DIMTOFL
 70
     1
  9
$DIMTVP
 40
0.0
  9
$DIMTIX
 70
     0
  9
$DIMSOXD
 70
     0
  9
$DIMSAH
 70
     0
  9
$DIMBLK1
  1

  9
$DIMBLK2
  1

  9
$DIMSTYLE
  2
ISO-25
  9
$DIMCLRD
 70
     0
  9
$DIMCLRE
 70
     0
  9
$DIMCLRT
 70
     0
  9
$DIMTFAC
 40
1.0
  9
$DIMGAP
 40
1.524
  9
$DIMJUST
 70
     0
  9
$DIMSD1
 70
     0
  9
$DIMSD2
 70
     0
  9
$DIMTOLJ
 70
     0
  9
$DIMTZIN
 70
     0
  9
$DIMALTZ
 70
     0
  9
$DIMALTTZ
 70
     0
  9
$DIMUPT
 70
     0
  9
$DIMDEC
 70
     2
  9
$DIMTDEC
 70
     3
  9
$DIMALTU
 70
     2
  9
$DIMALTTD
 70
     3
  9
$DIMTXSTY
  7
Standard
  9
$DIMAUNIT
 70
     0
  9
$DIMADEC
 70
     2
  9
$DIMALTRND
 40
0.0
  9
$DIMAZIN
 70
     0
  9
$DIMDSEP
 70
    44
  9
$DIMATFIT
 70
     3
  9
$DIMFRAC
 70
     0
  9
$DIMLDRBLK
  1

  9
$DIMLUNIT
 70
     2
  9
$DIMLWD
 70
    -2
  9
$DIMLWE
 70
    -2
  9
$DIMTMOVE
 70
     0
  9
$LUNITS
 70
     2
  9
$LUPREC
 70
     2
  9
$SKETCHINC
 40
1.0
  9
$FILLETRAD
 40
10.0
  9
$AUNITS
 70
     0
  9
$AUPREC
 70
     2
  9
$MENU
  1
.
  9
$ELEVATION
 40
0.0
  9
$PELEVATION
 40
0.0
  9
$THICKNESS
 40
0.0
  9
$LIMCHECK
 70
     0
  9
$CHAMFERA
 40
0.0
  9
$CHAMFERB
 40
0.0
  9
$CHAMFERC
 40
0.0
  9
$CHAMFERD
 40
0.0
  9
$SKPOLY
 70
     0
  9
$TDCREATE
 40
2458166.61216912
  9
$TDUCREATE
 40
2458166.570502453
  9
$TDUPDATE
 40
2458166.612171262
  9
$TDUUPDATE
 40
2458166.570504595
  9
$TDINDWG
 40
0.0000000116
  9
$TDUSRTIMER
 40
0.0000000116
  9
$USRTIMER
 70
     1
  9
$ANGBASE
 50
0.0
  9
$ANGDIR
 70
     0
  9
$PDMODE
 70
     0
  9
$PDSIZE
 40
-1.0
  9
$PLINEWID
 40
0.0
  9
$SPLFRAME
 70
     0
  9
$SPLINETYPE
 70
     6
  9
$SPLINESEGS
 70
     8
  9
$HANDSEED
  5
247
  9
$SURFTAB1
 70
     6
  9
$SURFTAB2
 70
     6
  9
$SURFTYPE
 70
     6
  9
$SURFU
 70
     6
  9
$SURFV
 70
     6
  9
$UCSBASE
  2

  9
$UCSNAME
  2

  9
$UCSORG
 10
0.0
 20
0.0
 30
0.0
  9
$UCSXDIR
 10
1.0
 20
0.0
 30
0.0
  9
$UCSYDIR
 10
0.0
 20
1.0
 30
0.0
  9
$UCSORTHOREF
  2

  9
$UCSORTHOVIEW
 70
     0
  9
$UCSORGTOP
 10
0.0
 20
0.0
 30
0.0
  9
$UCSORGBOTTOM
 10
0.0
 20
0.0
 30
0.0
  9
$UCSORGLEFT
 10
0.0
 20
0.0
 30
0.0
  9
$UCSORGRIGHT
 10
0.0
 20
0.0
 30
0.0
  9
$UCSORGFRONT
 10
0.0
 20
0.0
 30
0.0
  9
$UCSORGBACK
 10
0.0
 20
0.0
 30
0.0
  9
$PUCSBASE
  2

  9
$PUCSNAME
  2

  9
$PUCSORG
 10
0.0
 20
0.0
 30
0.0
  9
$PUCSXDIR
 10
1.0
 20
0.0
 30
0.0
  9
$PUCSYDIR
 10
0.0
 20
1.0
 30
0.0
  9
$PUCSORTHOREF
  2

  9
$PUCSORTHOVIEW
 70
     0
  9
$PUCSORGTOP
 10
0.0
 20
0.0
 30
0.0
  9
$PUCSORGBOTTOM
 10
0.0
 20
0.0
 30
0.0
  9
$PUCSORGLEFT
 10
0.0
 20
0.0
 30
0.0
  9
$PUCSORGRIGHT
 10
0.0
 20
0.0
 30
0.0
  9
$PUCSORGFRONT
 10
0.0
 20
0.0
 30
0.0
  9
$PUCSORGBACK
 10
0.0
 20
0.0
 30
0.0
  9
$USERI1
 70
     0
  9
$USERI2
 70
     0
  9
$USERI3
 70
     0
  9
$USERI4
 70
     0
  9
$USERI5
 70
     0
  9
$USERR1
 40
0.0
  9
$USERR2
 40
0.0
  9
$USERR3
 40
0.0
  9
$USERR4
 40
0.0
  9
$USERR5
 40
0.0
  9
$WORLDVIEW
 70
     1
  9
$SHADEDGE
 70
     3
  9
$SHADEDIF
 70
    70
  9
$TILEMODE
 70
     1
  9
$MAXACTVP
 70
    64
  9
$PINSBASE
 10
0.0
 20
0.0
 30
0.0
  9
$PLIMCHECK
 70
     0
  9
$PEXTMIN
 10
1.0000000000E+20
 20
1.0000000000E+20
 30
1.0000000000E+20
  9
$PEXTMAX
 10
-1.0000000000E+20
 20
-1.0000000000E+20
 30
-1.0000000000E+20
  9
$PLIMMIN
 10
0.0
 20
0.0
  9
$PLIMMAX
 10
420.0
 20
297.0
  9
$UNITMODE
 70
     0
  9
$VISRETAIN
 70
     1
  9
$PLINEGEN
 70
     0
  9
$PSLTSCALE
 70
     1
  9
$TREEDEPTH
 70
  3020
  9
$CMLSTYLE
  2
Standard
  9
$CMLJUST
 70
     0
  9
$CMLSCALE
 40
20.0
  9
$PROXYGRAPHICS
 70
     1
  9
$MEASUREMENT
 70
     1
  9
$CELWEIGHT
370
    -1
  9
$ENDCAPS
280
     0
  9
$JOINSTYLE
280
     0
  9
$LWDISPLAY
290
     1
  9
$INSUNITS
 70
     4
  9
$HYPERLINKBASE
  1

  9
$STYLESHEET
  1

  9
$XEDIT
290
     1
  9
$CEPSNTYPE
380
     0
  9
$PSTYLEMODE
290
     1
  9
$FINGERPRINTGUID
  2
{3F5E36B2-9D30-4E42-B875-432216B5F710}
  9
$VERSIONGUID
  2
{FAEB1C32-E019-11D5-929B-00C0DF256EC4}
  9
$EXTNAMES
290
     1
  9
$PSVPSCALE
 40
0.0
  9
$OLESTARTUP
290
     0
  0
ENDSEC
  0
SECTION
  2
CLASSES
  0
CLASS
  1
ACDBDICTIONARYWDFLT
  2
AcDbDictionaryWithDefault
  3
ObjectDBX Classes
 90
        0
280
     0
281
     0
  0
CLASS
  1
VISUALSTYLE
  2
AcDbVisualStyle
  3
ObjectDBX Classes
 90
     4095
280
     0
281
     0
  0
CLASS
  1
MATERIAL
  2
AcDbMaterial
  3
ObjectDBX Classes
 90
     1153
280
     0
281
     0
  0
CLASS
  1
SCALE
  2
AcDbScale
  3
ObjectDBX Classes
 90
     1153
280
     0
281
     0
  0
CLASS
  1
TABLESTYLE
  2
AcDbTableStyle
  3
ObjectDBX Classes
 90
     4095
280
     0
281
     0
  0
CLASS
  1
MLEADERSTYLE
  2
AcDbMLeaderStyle
  3
ACDB_MLEADERSTYLE_CLASS
 90
     4095
280
     0
281
     0
  0
CLASS
  1
SUN
  2
AcDbSun
  3
SCENEOE
 90
     1153
280
     0
281
     0
  0
CLASS
  1
ACDBPLACEHOLDER
  2
AcDbPlaceHolder
  3
ObjectDBX Classes
 90
        0
280
     0
281
     0
  0
CLASS
  1
LAYOUT
  2
AcDbLayout
  3
ObjectDBX Classes
 90
        0
280
     0
281
     0
  0
ENDSEC
  0
SECTION
  2
TABLES
  0
TABLE
  2
VPORT
  5
8
330
0
100
AcDbSymbolTable
 70
     1
  0
VPORT
  5
29
330
8
100
AcDbSymbolTableRecord
100
AcDbViewportTableRecord
  2
*Active
 70
     0
 10
0.0
 20
0.0
 11
1.0
 21
1.0
 12
148.5
 22
105.0
 13
0.0
 23
0.0
 14
10.0
 24
10.0
 15
10.0
 25
10.0
 16
0.0
 26
0.0
 36
1.0
 17
0.0
 27
0.0
 37
0.0
 40
210.0
 41
1.4142857143
 42
50.0
 43
0.0
 44
0.0
 50
0.0
 51
0.0
 71
     0
 72
  2000
 73
     1
 74
     3
 75
     0
 76
     0
 77
     0
 78
     0
281
     0
 65
     1
110
0.0
120
0.0
130
0.0
111
1.0
121
0.0
131
0.0
112
0.0
122
1.0
132
0.0
 79
     0
146
0.0
  0
ENDTAB
  0
TABLE
  2
LTYPE
  5
5
330
0
100
AcDbSymbolTable
 70
     6
  0
LTYPE
  5
14
330
5
100
AcDbSymbolTableRecord
100
AcDbLinetypeTableRecord
  2
ByBlock
 70
     0
  3

 72
    65
 73
     0
 40
0.0
  0
LTYPE
  5
15
330
5
100
AcDbSymbolTableRecord
100
AcDbLinetypeTableRecord
  2
ByLayer
 70
     0
  3

 72
    65
 73
     0
 40
0.0
  0
LTYPE
  5
16
330
5
100
AcDbSymbolTableRecord
100
AcDbLinetypeTableRecord
  2
Continuous
 70
     0
  3
Solid line
 72
    65
 73
     0
 40
0.0
  0
LTYPE
  5
6E
330
5
100
AcDbSymbolTableRecord
100
AcDbLinetypeTableRecord
  2
HIDDEN
 70
     0
  3
Hidden __ __ __ __ __ __ __ __ __ __ __ __ __ __
 72
    65
 73
     2
 40
1.905
 49
1.27
 74
     0
 49
-0.635
 74
     0
  0
LTYPE
  5
6F
330
5
100
AcDbSymbolTableRecord
100
AcDbLinetypeTableRecord
  2
PHANTOM
 70
     0
  3
Phantom ______  __  __  ______  __  __  ______
 72
    65
 73
     6
 40
12.7
 49
6.35
 74
     0
 49
-1.27
 74
     0
 49
1.27
 74
     0
 49
-1.27
 74
     0
 49
1.27
 74
     0
 49
-1.27
 74
     0
  0
LTYPE
  5
70
330
5
100
AcDbSymbolTableRecord
100
AcDbLinetypeTableRecord
  2
CENTER
 70
     0
  3
Center ____ _ ____ _ ____ _ ____ _ ____ _ ____
 72
    65
 73
     4
 40
10.16
 49
6.35
 74
     0
 49
-1.27
 74
     0
 49
1.27
 74
     0
 49
-1.27
 74
     0
  0
LTYPE
  5
71
330
5
100
AcDbSymbolTableRecord
100
AcDbLinetypeTableRecord
  2
CENTERX2
 70
     0
  3
Center (2x) ________  __  ________  __  _____
 72
    65
 73
     4
 40
20.32
 49
12.7
 74
     0
 49
-2.54
 74
     0
 49
2.54
 74
     0
 49
-2.54
 74
     0
  0
LTYPE
  5
72
330
5
100
AcDbSymbolTableRecord
100
AcDbLinetypeTableRecord
  2
DOT2
 70
     0
  3
Dot (.5x) ........................................
 72
    65
 73
     2
 40
0.635
 49
0.0
 74
     0
 49
-0.635
 74
     0
  0
ENDTAB
  0
TABLE
  2
LAYER
  5
2
330
0
100
AcDbSymbolTable
 70
     5
  0
LAYER
  5
10
330
2
100
AcDbSymbolTableRecord
100
AcDbLayerTableRecord
  2
0
 70
     0
 62
     7
  6
Continuous
370
    -3
390
F
  0
LAYER
  5
73
330
2
100
AcDbSymbolTableRecord
100
AcDbLayerTableRecord
  2
FORMAT
 70
     0
 62
     7
  6
Continuous
370
    -3
390
F
  0
LAYER
  5
74
330
2
100
AcDbSymbolTableRecord
100
AcDbLayerTableRecord
  2
VERMASSUNG
 70
     0
 62
     7
  6
Continuous
370
    -3
390
F
  0
LAYER
  5
75
330
2
100
AcDbSymbolTableRecord
100
AcDbLayerTableRecord
  2
KOPF_DÜNN
 70
     0
 62
     7
  6
Continuous
370
    -3
390
F
  0
LAYER
  5
76
330
2
100
AcDbSymbolTableRecord
100
AcDbLayerTableRecord
  2
KOPF_DICK
 70
     0
 62
     7
  6
Continuous
370
    25
390
F
  0
ENDTAB
  0
TABLE
  2
STYLE
  5
3
330
0
100
AcDbSymbolTable
 70
     2
  0
STYLE
  5
11
330
3
100
AcDbSymbolTableRecord
100
AcDbTextStyleTableRecord
  2
Standard
 70
     0
 40
0.0
 41
1.0
 50
0.0
 71
     0
 42
2.0
  3
txt
  4

  0
STYLE
  5
77
330
3
100
AcDbSymbolTableRecord
100
AcDbTextStyleTableRecord
  2
SLDTEXTSTYLE0
 70
     0
 40
0.0
 41
0.7
 50
0.0
 71
     0
 42
2.0
  3
TXT
  4

  0
ENDTAB
  0
TABLE
  2
VIEW
  5
6
330
0
100
AcDbSymbolTable
 70
     0
  0
ENDTAB
  0
TABLE
  2
UCS
  5
7
330
0
100
AcDbSymbolTable
 70
     0
  0
ENDTAB
  0
TABLE
  2
APPID
  5
9
330
0
100
AcDbSymbolTable
 70
     1
  0
APPID
  5
12
330
9
100
AcDbSymbolTableRecord
100
AcDbRegAppTableRecord
  2
ACAD
 70
     0
  0
ENDTAB
  0
TABLE
  2
DIMSTYLE
  5
A
330
0
100
AcDbSymbolTable
 70
     3
100
AcDbDimStyleTable
  0
DIMSTYLE
105
27
330
A
100
AcDbSymbolTableRecord
100
AcDbDimStyleTableRecord
  2
ISO-25
 70
     0
 41
2.5
 42
0.625
 43
3.75
 44
1.25
 73
     0
 74
     0
 77
     1
 78
     8
140
2.5
141
2.5
143
0.0393700787
147
0.625
171
     3
172
     1
178
     0
271
     2
272
     2
274
     3
278
    44
283
     0
284
     8
340
11
  0
DIMSTYLE
105
133
102
{ACAD_REACTORS
330
132
330
13E
330
148
330
152
330
15C
102
}
330
A
100
AcDbSymbolTableRecord
100
AcDbDimStyleTableRecord
  2
SLDDIMSTYLE0
 70
     0
 41
3.0
 44
0.0
 45
0.000000001
 73
     0
 74
     0
 77
     1
 78
    12
 79
     3
140
2.0
147
0.5
173
     1
178
     0
271
     2
272
     3
276
     2
284
    12
340
77
  0
DIMSTYLE
105
167
102
{ACAD_REACTORS
330
166
102
}
330
A
100
AcDbSymbolTableRecord
100
AcDbDimStyleTableRecord
  2
SLDDIMSTYLE1
 70
     0
 41
3.0
 44
0.0
 45
0.000000001
 73
     0
 74
     0
 77
     1
 78
    12
 79
     3
140
2.0
147
0.5
173
     1
178
     0
271
     1
272
     3
276
     2
284
    12
340
77
  0
ENDTAB
  0
TABLE
  2
BLOCK_RECORD
  5
1
330
0
100
AcDbSymbolTable
 70
     7
  0
BLOCK_RECORD
  5
1F
330
1
100
AcDbSymbolTableRecord
100
AcDbBlockTableRecord
  2
*Model_Space
340
22
  0
BLOCK_RECORD
  5
1B
330
1
100
AcDbSymbolTableRecord
100
AcDbBlockTableRecord
  2
*Paper_Space
340
1E
  0
BLOCK_RECORD
  5
23
330
1
100
AcDbSymbolTableRecord
100
AcDbBlockTableRecord
  2
*Paper_Space0
340
26
  0
BLOCK_RECORD
  5
134
330
1
100
AcDbSymbolTableRecord
100
AcDbBlockTableRecord
  2
_D
340
0
  0
BLOCK_RECORD
  5
13F
330
1
100
AcDbSymbolTableRecord
100
AcDbBlockTableRecord
  2
_D_1
340
0
  0
BLOCK_RECORD
  5
149
330
1
100
AcDbSymbolTableRecord
100
AcDbBlockTableRecord
  2
_D_2
340
0
  0
BLOCK_RECORD
  5
153
330
1
100
AcDbSymbolTableRecord
100
AcDbBlockTableRecord
  2
_D_3
340
0
  0
BLOCK_RECORD
  5
15D
330
1
100
AcDbSymbolTableRecord
100
AcDbBlockTableRecord
  2
_D_4
340
0
  0
BLOCK_RECORD
  5
168
330
1
100
AcDbSymbolTableRecord
100
AcDbBlockTableRecord
  2
_D_5
340
0
  0
ENDTAB
  0
ENDSEC
  0
SECTION
  2
BLOCKS
  0
BLOCK
  5
20
330
1F
100
AcDbEntity
  8
0
100
AcDbBlockBegin
  2
*Model_Space
 70
     0
 10
0.0
 20
0.0
 30
0.0
  3
*Model_Space
  1

  0
ENDBLK
  5
21
330
1F
100
AcDbEntity
  8
0
100
AcDbBlockEnd
  0
BLOCK
  5
1C
330
1B
100
AcDbEntity
 67
     1
  8
0
100
AcDbBlockBegin
  2
*Paper_Space
 70
     0
 10
0.0
 20
0.0
 30
0.0
  3
*Paper_Space
  1

  0
ENDBLK
  5
1D
330
1B
100
AcDbEntity
 67
     1
  8
0
100
AcDbBlockEnd
  0
BLOCK
  5
24
330
23
100
AcDbEntity
  8
0
100
AcDbBlockBegin
  2
*Paper_Space0
 70
     0
 10
0.0
 20
0.0
 30
0.0
  3
*Paper_Space0
  1

  0
ENDBLK
  5
25
330
23
100
AcDbEntity
  8
0
100
AcDbBlockEnd
  0
BLOCK
  5
135
330
134
100
AcDbEntity
  8
0
100
AcDbBlockBegin
  2
_D
 70
     0
 10
0.0
 20
0.0
 30
0.0
  3
_D
  1

  0
SOLID
  5
137
330
134
100
AcDbEntity
  8
VERMASSUNG
100
AcDbTrace
 10
218.360975113
 20
125.7147616748
 30
0.0
 11
217.910975113
 21
122.7147616748
 31
0.0
 12
218.810975113
 22
122.7147616748
 32
0.0
 13
218.810975113
 23
122.7147616748
 33
0.0
  0
SOLID
  5
138
330
134
100
AcDbEntity
  8
VERMASSUNG
100
AcDbTrace
 10
218.360975113
 20
109.7147616748
 30
0.0
 11
218.810975113
 21
112.7147616748
 31
0.0
 12
217.910975113
 22
112.7147616748
 32
0.0
 13
217.910975113
 23
112.7147616748
 33
0.0
  0
LINE
  5
139
330
134
100
AcDbEntity
  8
VERMASSUNG
100
AcDbLine
 10
201.360975113
 20
125.7147616748
 30
0.0
 11
219.360975113
 21
125.7147616748
 31
0.0
  0
LINE
  5
13A
330
134
100
AcDbEntity
  8
VERMASSUNG
100
AcDbLine
 10
201.360975113
 20
109.7147616748
 30
0.0
 11
219.360975113
 21
109.7147616748
 31
0.0
  0
LINE
  5
13B
330
134
100
AcDbEntity
  8
VERMASSUNG
100
AcDbLine
 10
218.360975113
 20
125.7147616748
 30
0.0
 11
218.360975113
 21
109.7147616748
 31
0.0
  0
MTEXT
  5
13C
330
134
100
AcDbEntity
  8
VERMASSUNG
100
AcDbMText
 10
215.782839808
 20
114.7097616107
 30
0.0
 40
2.0
 41
0.0
 71
     1
 72
     1
  1
%%c
  7
SLDTEXTSTYLE0
 11
-7.044195017643634E-15
 21
1.0
 31
0.0
 73
     1
 44
1.0
  0
MTEXT
  5
13D
330
134
100
AcDbEntity
  8
VERMASSUNG
100
AcDbMText
 10
215.5828398567
 20
118.319761625
 30
0.0
 40
2.0
 41
0.0
 71
     1
 72
     1
  1
16
  7
SLDTEXTSTYLE0
 11
-7.044195017643634E-15
 21
1.0
 31
0.0
 73
     1
 44
1.0
  0
ENDBLK
  5
136
330
134
100
AcDbEntity
  8
0
100
AcDbBlockEnd
  0
BLOCK
  5
140
330
13F
100
AcDbEntity
  8
0
100
AcDbBlockBegin
  2
_D_1
 70
     0
 10
0.0
 20
0.0
 30
0.0
  3
_D_1
  1

  0
SOLID
  5
142
330
13F
100
AcDbEntity
  8
VERMASSUNG
100
AcDbTrace
 10
183.4524261704
 20
109.7147616748
 30
0.0
 11
183.9024261704
 21
112.7147616748
 31
0.0
 12
183.0024261704
 22
112.7147616748
 32
0.0
 13
183.0024261704
 23
112.7147616748
 33
0.0
  0
SOLID
  5
143
330
13F
100
AcDbEntity
  8
VERMASSUNG
100
AcDbTrace
 10
183.4524261704
 20
125.7147616748
 30
0.0
 11
183.0024261704
 21
122.7147616748
 31
0.0
 12
183.9024261704
 22
122.7147616748
 32
0.0
 13
183.9024261704
 23
122.7147616748
 33
0.0
  0
LINE
  5
144
330
13F
100
AcDbEntity
  8
VERMASSUNG
100
AcDbLine
 10
183.4524261704
 20
109.7147616748
 30
0.0
 11
183.4524261704
 21
125.7147616748
 31
0.0
  0
LINE
  5
145
330
13F
100
AcDbEntity
  8
VERMASSUNG
100
AcDbLine
 10
183.4524261704
 20
125.7147616748
 30
0.0
 11
183.4524261704
 21
137.3558846756
 31
0.0
  0
MTEXT
  5
146
330
13F
100
AcDbEntity
  8
VERMASSUNG
100
AcDbMText
 10
180.8742908654
 20
131.3458845473
 30
0.0
 40
2.0
 41
0.0
 71
     1
 72
     1
  1
%%c
  7
SLDTEXTSTYLE0
 11
-1.608122649676637E-16
 21
1.0
 31
0.0
 73
     1
 44
1.0
  0
MTEXT
  5
147
330
13F
100
AcDbEntity
  8
VERMASSUNG
100
AcDbMText
 10
180.6742909142
 20
134.9558845616
 30
0.0
 40
2.0
 41
0.0
 71
     1
 72
     1
  1
16
  7
SLDTEXTSTYLE0
 11
-1.608122649676637E-16
 21
1.0
 31
0.0
 73
     1
 44
1.0
  0
ENDBLK
  5
141
330
13F
100
AcDbEntity
  8
0
100
AcDbBlockEnd
  0
BLOCK
  5
14A
330
149
100
AcDbEntity
  8
0
100
AcDbBlockBegin
  2
_D_2
 70
     0
 10
0.0
 20
0.0
 30
0.0
  3
_D_2
  1

  0
SOLID
  5
14C
330
149
100
AcDbEntity
  8
VERMASSUNG
100
AcDbTrace
 10
166.360975113
 20
153.9811419483
 30
0.0
 11
169.360975113
 21
153.5311419483
 31
0.0
 12
169.360975113
 22
154.4311419483
 32
0.0
 13
169.360975113
 23
154.4311419483
 33
0.0
  0
SOLID
  5
14D
330
149
100
AcDbEntity
  8
VERMASSUNG
100
AcDbTrace
 10
208.360975113
 20
153.9811419483
 30
0.0
 11
205.360975113
 21
154.4311419483
 31
0.0
 12
205.360975113
 22
153.5311419483
 32
0.0
 13
205.360975113
 23
153.5311419483
 33
0.0
  0
LINE
  5
14E
330
149
100
AcDbEntity
  8
VERMASSUNG
100
AcDbLine
 10
166.360975113
 20
148.1897616748
 30
0.0
 11
166.360975113
 21
154.9811419483
 31
0.0
  0
LINE
  5
14F
330
149
100
AcDbEntity
  8
VERMASSUNG
100
AcDbLine
 10
208.360975113
 20
122.9468124824
 30
0.0
 11
208.360975113
 21
154.9811419483
 31
0.0
  0
LINE
  5
150
330
149
100
AcDbEntity
  8
VERMASSUNG
100
AcDbLine
 10
166.360975113
 20
153.9811419483
 30
0.0
 11
208.360975113
 21
153.9811419483
 31
0.0
  0
MTEXT
  5
151
330
149
100
AcDbEntity
  8
VERMASSUNG
100
AcDbMText
 10
185.8609750999
 20
156.5592775443
 30
0.0
 40
2.0
 41
0.0
 71
     1
 72
     1
  1
42
  7
SLDTEXTSTYLE0
 73
     1
 44
1.0
  0
ENDBLK
  5
14B
330
149
100
AcDbEntity
  8
0
100
AcDbBlockEnd
  0
BLOCK
  5
154
330
153
100
AcDbEntity
  8
0
100
AcDbBlockBegin
  2
_D_3
 70
     0
 10
0.0
 20
0.0
 30
0.0
  3
_D_3
  1

  0
SOLID
  5
156
330
153
100
AcDbEntity
  8
VERMASSUNG
100
AcDbTrace
 10
208.360975113
 20
161.6473314899
 30
0.0
 11
205.360975113
 21
162.0973314899
 31
0.0
 12
205.360975113
 22
161.1973314899
 32
0.0
 13
205.360975113
 23
161.1973314899
 33
0.0
  0
SOLID
  5
157
330
153
100
AcDbEntity
  8
VERMASSUNG
100
AcDbTrace
 10
148.360975113
 20
161.6473314899
 30
0.0
 11
151.360975113
 21
161.1973314899
 31
0.0
 12
151.360975113
 22
162.0973314899
 32
0.0
 13
151.360975113
 23
162.0973314899
 33
0.0
  0
LINE
  5
158
330
153
100
AcDbEntity
  8
VERMASSUNG
100
AcDbLine
 10
208.360975113
 20
122.9468124824
 30
0.0
 11
208.360975113
 21
162.6473314899
 31
0.0
  0
LINE
  5
159
330
153
100
AcDbEntity
  8
VERMASSUNG
100
AcDbLine
 10
148.360975113
 20
148.9897616748
 30
0.0
 11
148.360975113
 21
162.6473314899
 31
0.0
  0
LINE
  5
15A
330
153
100
AcDbEntity
  8
VERMASSUNG
100
AcDbLine
 10
208.360975113
 20
161.6473314899
 30
0.0
 11
148.360975113
 21
161.6473314899
 31
0.0
  0
MTEXT
  5
15B
330
153
100
AcDbEntity
  8
VERMASSUNG
100
AcDbMText
 10
176.9609751629
 20
164.2254670859
 30
0.0
 40
2.0
 41
0.0
 71
     1
 72
     1
  1
60
  7
SLDTEXTSTYLE0
 73
     1
 44
1.0
  0
ENDBLK
  5
155
330
153
100
AcDbEntity
  8
0
100
AcDbBlockEnd
  0
BLOCK
  5
15E
330
15D
100
AcDbEntity
  8
0
100
AcDbBlockBegin
  2
_D_4
 70
     0
 10
0.0
 20
0.0
 30
0.0
  3
_D_4
  1

  0
SOLID
  5
160
330
15D
100
AcDbEntity
  8
VERMASSUNG
100
AcDbTrace
 10
108.410975113
 20
169.0765660821
 30
0.0
 11
111.410975113
 21
168.6265660821
 31
0.0
 12
111.410975113
 22
169.5265660821
 32
0.0
 13
111.410975113
 23
169.5265660821
 33
0.0
  0
SOLID
  5
161
330
15D
100
AcDbEntity
  8
VERMASSUNG
100
AcDbTrace
 10
208.360975113
 20
169.0765660821
 30
0.0
 11
205.360975113
 21
169.5265660821
 31
0.0
 12
205.360975113
 22
168.6265660821
 32
0.0
 13
205.360975113
 23
168.6265660821
 33
0.0
  0
LINE
  5
162
330
15D
100
AcDbEntity
  8
VERMASSUNG
100
AcDbLine
 10
108.410975113
 20
139.9178563986
 30
0.0
 11
108.410975113
 21
170.0765660821
 31
0.0
  0
LINE
  5
163
330
15D
100
AcDbEntity
  8
VERMASSUNG
100
AcDbLine
 10
208.360975113
 20
122.9468124824
 30
0.0
 11
208.360975113
 21
170.0765660821
 31
0.0
  0
LINE
  5
164
330
15D
100
AcDbEntity
  8
VERMASSUNG
100
AcDbLine
 10
108.410975113
 20
169.0765660821
 30
0.0
 11
208.360975113
 21
169.0765660821
 31
0.0
  0
MTEXT
  5
165
330
15D
100
AcDbEntity
  8
VERMASSUNG
100
AcDbMText
 10
155.2859752568
 20
171.654701678
 30
0.0
 40
2.0
 41
0.0
 71
     1
 72
     1
  1
99.95
  7
SLDTEXTSTYLE0
 73
     1
 44
1.0
  0
ENDBLK
  5
15F
330
15D
100
AcDbEntity
  8
0
100
AcDbBlockEnd
  0
BLOCK
  5
169
330
168
100
AcDbEntity
  8
0
100
AcDbBlockBegin
  2
_D_5
 70
     0
 10
0.0
 20
0.0
 30
0.0
  3
_D_5
  1

  0
SOLID
  5
16B
330
168
100
AcDbEntity
  8
VERMASSUNG
100
AcDbTrace
 10
98.410950113
 20
86.2397616748
 30
0.0
 11
98.860950113
 21
89.2397616748
 31
0.0
 12
97.960950113
 22
89.2397616748
 32
0.0
 13
97.960950113
 23
89.2397616748
 33
0.0
  0
SOLID
  5
16C
330
168
100
AcDbEntity
  8
VERMASSUNG
100
AcDbTrace
 10
98.410950113
 20
149.1897616748
 30
0.0
 11
97.960950113
 21
146.1897616748
 31
0.0
 12
98.860950113
 22
146.1897616748
 32
0.0
 13
98.860950113
 23
146.1897616748
 33
0.0
  0
LINE
  5
16D
330
168
100
AcDbEntity
  8
VERMASSUNG
100
AcDbLine
 10
148.560975113
 20
86.2397616748
 30
0.0
 11
97.410950113
 21
86.2397616748
 31
0.0
  0
LINE
  5
16E
330
168
100
AcDbEntity
  8
VERMASSUNG
100
AcDbLine
 10
148.560975113
 20
149.1897616748
 30
0.0
 11
97.410950113
 21
149.1897616748
 31
0.0
  0
LINE
  5
16F
330
168
100
AcDbEntity
  8
VERMASSUNG
100
AcDbLine
 10
98.410950113
 20
86.2397616748
 30
0.0
 11
98.410950113
 21
149.1897616748
 31
0.0
  0
MTEXT
  5
170
330
168
100
AcDbEntity
  8
VERMASSUNG
100
AcDbMText
 10
95.6328148567
 20
109.6097630565
 30
0.0
 40
2.0
 41
0.0
 71
     1
 72
     1
  1
KM
  7
SLDTEXTSTYLE0
 11
6.123233995736766E-17
 21
1.0
 31
0.0
 73
     1
 44
1.0
  0
MTEXT
  5
171
330
168
100
AcDbEntity
  8
VERMASSUNG
100
AcDbMText
 10
95.832814808
 20
113.0097628687
 30
0.0
 40
2.0
 41
0.0
 71
     1
 72
     1
  1
%%c
  7
SLDTEXTSTYLE0
 11
6.123233995736766E-17
 21
1.0
 31
0.0
 73
     1
 44
1.0
  0
MTEXT
  5
172
330
168
100
AcDbEntity
  8
VERMASSUNG
100
AcDbMText
 10
95.6328148567
 20
116.619762883
 30
0.0
 40
2.0
 41
0.0
 71
     1
 72
     1
  1
63
  7
SLDTEXTSTYLE0
 11
6.123233995736766E-17
 21
1.0
 31
0.0
 73
     1
 44
1.0
  0
MTEXT
  5
173
330
168
100
AcDbEntity
  8
VERMASSUNG
100
AcDbMText
 10
95.6328148567
 20
120.6072627832
 30
0.0
 40
2.0
 41
0.0
 71
     1
 72
     1
  1
XMZ
  7
SLDTEXTSTYLE0
 11
6.123233995736766E-17
 21
1.0
 31
0.0
 73
     1
 44
1.0
  0
ENDBLK
  5
16A
330
168
100
AcDbEntity
  8
0
100
AcDbBlockEnd
  0
ENDSEC
  0
SECTION
  2
ENTITIES
  0
MTEXT
  5
78
330
1F
100
AcDbEntity
  8
KOPF_DÜNN
100
AcDbMText
 10
13.8892156294
 20
23.8442973028
 30
0.0
 40
3.0
 41
0.0
 71
     1
 72
     1
  1
KY6.E11.K01.060
  7
SLDTEXTSTYLE0
 73
     1
 44
1.0
  0
MTEXT
  5
79
330
1F
100
AcDbEntity
  8
VERMASSUNG
100
AcDbMText
 10
13.9329988022
 20
28.8834360957
 30
0.0
 40
3.0
 41
0.0
 71
     1
 72
     1
  1
Spannzangenfutter ER_Collet chuck ER
  7
SLDTEXTSTYLE0
 73
     1
 44
1.0
  0
MTEXT
  5
7A
330
1F
100
AcDbEntity
  8
VERMASSUNG
100
AcDbMText
 10
98.8601118557
 20
13.8365368761
 30
0.0
 40
2.0
 41
0.0
 71
     1
 72
     1
  1
Datum: 16.02.2018
  7
SLDTEXTSTYLE0
 73
     1
 44
1.0
  0
MTEXT
  5
7B
330
1F
100
AcDbEntity
  8
VERMASSUNG
100
AcDbMText
 10
13.933048693
 20
18.0482802738
 30
0.0
 40
2.0
 41
0.0
 71
     1
 72
     1
  1
KM63 XMZ / Ø16
  7
SLDTEXTSTYLE0
 73
     1
 44
1.0
  0
MTEXT
  5
7C
330
1F
100
AcDbEntity
  8
VERMASSUNG
100
AcDbMText
 10
13.9808475933
 20
13.9090974274
 30
0.0
 40
2.0
 41
0.0
 71
     1
 72
     1
  1
Gewicht: 659g
  7
SLDTEXTSTYLE0
 73
     1
 44
1.0
  0
LINE
  5
7D
330
1F
100
AcDbEntity
  8
0
  6
Continuous
 62
     7
370
    25
100
AcDbLine
 10
197.1609741712
 20
109.7147612948
 30
0.0
 11
201.3609744871
 21
109.7147612948
 31
0.0
  0
LINE
  5
7E
330
1F
100
AcDbEntity
  8
0
  6
Continuous
 62
     7
370
    25
100
AcDbLine
 10
201.3609744871
 20
125.7147620548
 30
0.0
 11
197.1609741712
 21
125.7147620548
 31
0.0
  0
LINE
  5
7F
330
1F
100
AcDbEntity
  8
0
  6
Continuous
 62
     7
370
    25
100
AcDbLine
 10
197.1609741712
 20
125.7147620548
 30
0.0
 11
196.3609755302
 21
124.9147615511
 31
0.0
  0
LINE
  5
80
330
1F
100
AcDbEntity
  8
0
  6
Continuous
 62
     7
370
    25
100
AcDbLine
 10
196.3609755302
 20
110.5147617985
 30
0.0
 11
197.1609741712
 21
109.7147612948
 31
0.0
  0
LINE
  5
81
330
1F
100
AcDbEntity
  8
0
  6
Continuous
 62
     7
370
    25
100
AcDbLine
 10
161.5951732064
 20
86.2397615914
 30
0.0
 11
165.3609760368
 21
86.2397615914
 31
0.0
  0
LINE
  5
82
330
1F
100
AcDbEntity
  8
0
  6
Continuous
 62
     7
370
    25
100
AcDbLine
 10
165.3609760368
 20
149.1897617583
 30
0.0
 11
161.5951732064
 21
149.1897617583
 31
0.0
  0
LINE
  5
83
330
1F
100
AcDbEntity
  8
0
  6
Continuous
 62
     7
370
    25
100
AcDbLine
 10
156.3859749848
 20
146.6623571817
 30
0.0
 11
154.9267773779
 21
149.1897617583
 31
0.0
  0
LINE
  5
84
330
1F
100
AcDbEntity
  8
0
  6
Continuous
 62
     7
370
    25
100
AcDbLine
 10
148.5609751079
 20
86.2397615914
 30
0.0
 11
154.9267773779
 21
86.2397615914
 31
0.0
  0
LINE
  5
85
330
1F
100
AcDbEntity
  8
0
  6
Continuous
 62
     7
370
    25
100
AcDbLine
 10
154.9267773779
 20
149.1897617583
 30
0.0
 11
148.5609751079
 21
149.1897617583
 31
0.0
  0
ARC
  5
86
330
1F
100
AcDbEntity
  8
0
  6
Continuous
 62
     7
370
    25
100
AcDbCircle
 10
148.560975113
 20
86.4397616748
 30
0.0
 40
0.2000000000000171
100
AcDbArc
 50
180.0
 51
270.0
  0
ARC
  5
87
330
1F
100
AcDbEntity
  8
0
  6
Continuous
 62
     7
370
    25
100
AcDbCircle
 10
148.560975113
 20
148.9897616748
 30
0.0
 40
0.1999999999999886
100
AcDbArc
 50
90.0
 51
180.0
  0
ARC
  5
88
330
1F
100
AcDbEntity
  8
0
  6
Continuous
 62
     7
370
    25
100
AcDbCircle
 10
165.360975113
 20
87.2397616748
 30
0.0
 40
1.000000000000014
100
AcDbArc
 50
270.0
 51
0.0
  0
ARC
  5
89
330
1F
100
AcDbEntity
  8
0
  6
Continuous
 62
     7
370
    25
100
AcDbCircle
 10
165.360975113
 20
148.1897616748
 30
0.0
 40
1.0
100
AcDbArc
 50
0.0
 51
90.0
  0
ARC
  5
8A
330
1F
100
AcDbEntity
  8
0
  6
Continuous
 62
     7
370
    25
100
AcDbCircle
 10
147.9320402384
 20
92.1647616748
 30
0.0
 40
0.8000000000000047
100
AcDbArc
 50
57.576802718
 51
107.5
  0
ARC
  5
8B
330
1F
100
AcDbEntity
  8
0
  6
Continuous
 62
     7
370
    25
100
AcDbCircle
 10
147.9320402384
 20
143.2647616748
 30
0.0
 40
0.799999999999991
100
AcDbArc
 50
252.5
 51
302.423197282
  0
LINE
  5
8C
330
1F
100
AcDbEntity
  8
0
  6
Continuous
 62
     7
370
    25
100
AcDbLine
 10
117.9658118898
 20
141.1883783643
 30
0.0
 11
109.910976168
 21
140.7838826184
 31
0.0
  0
LINE
  5
8D
330
1F
100
AcDbEntity
  8
0
  6
Continuous
 62
     7
370
    25
100
AcDbLine
 10
147.2007930541
 20
142.6565003697
 30
0.0
 11
133.8745299989
 21
141.9872817699
 31
0.0
  0
LINE
  5
8E
330
1F
100
AcDbEntity
  8
0
  6
Continuous
 62
     7
370
    25
100
AcDbLine
 10
133.8754864672
 20
93.4421931509
 30
0.0
 11
147.2007930541
 21
92.7730229799
 31
0.0
  0
LINE
  5
8F
330
1F
100
AcDbEntity
  8
0
  6
Continuous
 62
     7
370
    25
100
AcDbLine
 10
109.910976168
 20
94.6456407313
 30
0.0
 11
117.9658230657
 21
94.2411431227
 31
0.0
  0
LINE
  5
90
330
1F
100
AcDbEntity
  8
0
  6
Continuous
 62
     7
370
    25
100
AcDbLine
 10
147.2007930541
 20
92.7730229799
 30
0.0
 11
147.691475603
 21
92.9277361487
 31
0.0
  0
LINE
  5
91
330
1F
100
AcDbEntity
  8
0
  6
Continuous
 62
     7
370
    25
100
AcDbLine
 10
147.691475603
 20
142.501787201
 30
0.0
 11
147.2007930541
 21
142.6565003697
 31
0.0
  0
LINE
  5
92
330
1F
100
AcDbEntity
  8
0
  6
Continuous
 62
     7
370
    25
100
AcDbLine
 10
109.910976168
 20
140.7838826184
 30
0.0
 11
108.4109768534
 21
139.9178569321
 31
0.0
  0
LINE
  5
93
330
1F
100
AcDbEntity
  8
0
  6
Continuous
 62
     7
370
    25
100
AcDbLine
 10
108.4109768534
 20
95.5116664175
 30
0.0
 11
109.910976168
 21
94.6456407313
 31
0.0
  0
LINE
  5
94
330
1F
100
AcDbEntity
  8
0
  6
Continuous
 62
     7
370
    25
100
AcDbLine
 10
161.5951732064
 20
149.1897617583
 30
0.0
 11
160.1359751338
 21
146.6623571817
 31
0.0
  0
ARC
  5
95
330
1F
100
AcDbEntity
  8
0
  6
Continuous
 62
     7
370
    25
100
AcDbCircle
 10
157.385975113
 20
146.5647616748
 30
0.0
 40
1.0
100
AcDbArc
 50
180.0
 51
270.0
  0
LINE
  5
96
330
1F
100
AcDbEntity
  8
0
  6
Continuous
 62
     7
370
    25
100
AcDbLine
 10
154.9267773779
 20
86.2397615914
 30
0.0
 11
156.3859749848
 21
88.7671661679
 31
0.0
  0
ARC
  5
97
330
1F
100
AcDbEntity
  8
0
  6
Continuous
 62
     7
370
    25
100
AcDbCircle
 10
170.360975113
 20
105.7147616748
 30
0.0
 40
4.000000000000014
100
AcDbArc
 50
90.0
 51
180.0
  0
ARC
  5
98
330
1F
100
AcDbEntity
  8
0
  6
Continuous
 62
     7
370
    25
100
AcDbCircle
 10
170.360975113
 20
129.7147616748
 30
0.0
 40
4.0
100
AcDbArc
 50
180.0
 51
270.0
  0
ARC
  5
99
330
1F
100
AcDbEntity
  8
0
  6
Continuous
 62
     7
370
    25
100
AcDbCircle
 10
157.385975113
 20
88.8647616748
 30
0.0
 40
1.0
100
AcDbArc
 50
90.0
 51
180.0
  0
LINE
  5
9A
330
1F
100
AcDbEntity
  8
0
  6
Continuous
 62
     7
370
    25
100
AcDbLine
 10
159.1359749699
 20
145.5647618626
 30
0.0
 11
157.3859751487
 21
145.5647618626
 31
0.0
  0
LINE
  5
9B
330
1F
100
AcDbEntity
  8
0
  6
Continuous
 62
     7
370
    25
100
AcDbLine
 10
160.1359751338
 20
88.7671661679
 30
0.0
 11
161.5951732064
 21
86.2397615914
 31
0.0
  0
ARC
  5
9C
330
1F
100
AcDbEntity
  8
0
  6
Continuous
 62
     7
370
    25
100
AcDbCircle
 10
159.135975113
 20
146.5647616748
 30
0.0
 40
1.0
100
AcDbArc
 50
270.0
 51
0.0
  0
LINE
  5
9D
330
1F
100
AcDbEntity
  8
0
  6
Continuous
 62
     7
370
    25
100
AcDbLine
 10
157.3859751487
 20
89.8647614871
 30
0.0
 11
159.1359749699
 21
89.8647614871
 31
0.0
  0
ARC
  5
9E
330
1F
100
AcDbEntity
  8
0
  6
Continuous
 62
     7
370
    25
100
AcDbCircle
 10
159.135975113
 20
88.8647616748
 30
0.0
 40
1.0
100
AcDbArc
 50
0.0
 51
90.0
  0
ARC
  5
9F
330
1F
100
AcDbEntity
  8
0
  6
Continuous
 62
     7
370
    25
100
AcDbCircle
 10
189.660975113
 20
125.2147616748
 30
0.0
 40
0.5
100
AcDbArc
 50
360.0
 51
90.0
  0
ARC
  5
A0
330
1F
100
AcDbEntity
  8
0
  6
Continuous
 62
     7
370
    25
100
AcDbCircle
 10
189.660975113
 20
110.2147616748
 30
0.0
 40
0.5
100
AcDbArc
 50
270.0
 51
0.0
  0
LINE
  5
A1
330
1F
100
AcDbEntity
  8
0
  6
Continuous
 62
     7
370
    25
100
AcDbLine
 10
189.6609738732
 20
125.7147620548
 30
0.0
 11
170.3609749937
 21
125.7147620548
 31
0.0
  0
LINE
  5
A2
330
1F
100
AcDbEntity
  8
0
  6
Continuous
 62
     7
370
    25
100
AcDbLine
 10
170.3609749937
 20
109.7147612948
 30
0.0
 11
189.6609738732
 21
109.7147612948
 31
0.0
  0
ARC
  5
A3
330
1F
100
AcDbEntity
  8
0
  6
Continuous
 62
     7
370
    25
100
AcDbCircle
 10
190.660975113
 20
124.7147616748
 30
0.0
 40
0.5
100
AcDbArc
 50
180.0
 51
270.0
  0
ARC
  5
A4
330
1F
100
AcDbEntity
  8
0
  6
Continuous
 62
     7
370
    25
100
AcDbCircle
 10
190.660975113
 20
110.7147616748
 30
0.0
 40
0.5
100
AcDbArc
 50
90.0
 51
180.0
  0
LINE
  5
A5
330
1F
100
AcDbEntity
  8
0
  6
Continuous
 62
     7
370
    25
100
AcDbLine
 10
196.3609755302
 20
124.2147618089
 30
0.0
 11
190.6609758997
 21
124.2147618089
 31
0.0
  0
LINE
  5
A6
330
1F
100
AcDbEntity
  8
0
  6
Continuous
 62
     7
370
    25
100
AcDbLine
 10
190.6609758997
 20
111.2147615407
 30
0.0
 11
196.3609755302
 21
111.2147615407
 31
0.0
  0
LWPOLYLINE
  5
A7
330
1F
100
AcDbEntity
  8
0
  6
Continuous
 62
     7
370
    25
100
AcDbPolyline
 90
        6
 70
   128
 43
0.0
 10
203.1392082835
 20
125.4607284558
 10
202.5012299681
 20
125.5518681486
 10
202.003322568
 20
125.6229979102
 10
201.6467675829
 20
125.6739338045
 10
201.4324702585
 20
125.7045482401
 10
201.3609744871
 20
125.7147620548
  0
LINE
  5
A8
330
1F
100
AcDbEntity
  8
0
  6
Continuous
 62
     7
370
    25
100
AcDbLine
 10
207.8609764839
 20
125.4607284558
 30
0.0
 11
203.1392082835
 21
125.4607284558
 31
0.0
  0
LINE
  5
A9
330
1F
100
AcDbEntity
  8
0
  6
Continuous
 62
     7
370
    25
100
AcDbLine
 10
207.8609764839
 20
123.3197957393
 30
0.0
 11
207.8609764839
 21
125.4607284558
 31
0.0
  0
LINE
  5
AA
330
1F
100
AcDbEntity
  8
0
  6
Continuous
 62
     7
370
    25
100
AcDbLine
 10
207.8609764839
 20
123.3197957393
 30
0.0
 11
203.1392082835
 21
123.3197957393
 31
0.0
  0
ELLIPSE
  5
AB
330
1F
100
AcDbEntity
  8
0
  6
Continuous
 62
     7
370
    25
100
AcDbEllipse
 10
257.360975113
 20
117.7147616748
 30
0.0
 11
55.99776858350037
 21
-4.061688888874755
 31
0.0
210
0.0
220
0.0
230
1.0
 40
0.1230802444
 41
2.897839546686395
 42
3.403200056970661
  0
LINE
  5
AC
330
1F
100
AcDbEntity
  8
0
  6
Continuous
 62
     7
370
    25
100
AcDbLine
 10
207.8609764839
 20
119.8556941584
 30
0.0
 11
203.1392082835
 21
119.8556941584
 31
0.0
  0
LINE
  5
AD
330
1F
100
AcDbEntity
  8
0
  6
Continuous
 62
     7
370
    25
100
AcDbLine
 10
207.8609764839
 20
115.5738291912
 30
0.0
 11
207.8609764839
 21
119.8556941584
 31
0.0
  0
LINE
  5
AE
330
1F
100
AcDbEntity
  8
0
  6
Continuous
 62
     7
370
    25
100
AcDbLine
 10
207.8609764839
 20
115.5738291912
 30
0.0
 11
203.1392082835
 21
115.5738291912
 31
0.0
  0
ELLIPSE
  5
AF
330
1F
100
AcDbEntity
  8
0
  6
Continuous
 62
     7
370
    25
100
AcDbEllipse
 10
257.360975113
 20
117.7147616748
 30
0.0
 11
55.99776858350032
 21
4.061688888874784
 31
0.0
210
0.0
220
0.0
230
1.0
 40
0.1230802444
 41
2.879985250209034
 42
3.385345760493302
  0
LINE
  5
B0
330
1F
100
AcDbEntity
  8
0
  6
Continuous
 62
     7
370
    25
100
AcDbLine
 10
207.8609764839
 20
112.1097276103
 30
0.0
 11
203.1392082835
 21
112.1097276103
 31
0.0
  0
LINE
  5
B1
330
1F
100
AcDbEntity
  8
0
  6
Continuous
 62
     7
370
    25
100
AcDbLine
 10
207.8609764839
 20
109.9687948939
 30
0.0
 11
207.8609764839
 21
112.1097276103
 31
0.0
  0
LINE
  5
B2
330
1F
100
AcDbEntity
  8
0
  6
Continuous
 62
     7
370
    25
100
AcDbLine
 10
207.8609764839
 20
109.9687948939
 30
0.0
 11
203.1392082835
 21
109.9687948939
 31
0.0
  0
LWPOLYLINE
  5
B3
330
1F
100
AcDbEntity
  8
0
  6
Continuous
 62
     7
370
    25
100
AcDbPolyline
 90
        6
 70
   128
 43
0.0
 10
201.3609744871
 20
109.7147612948
 10
201.4324702585
 20
109.7249751095
 10
201.6467675829
 20
109.7555895452
 10
202.003322568
 20
109.8065254394
 10
202.5012299681
 20
109.8776552011
 10
203.1392082835
 20
109.9687948939
  0
LINE
  5
B4
330
1F
100
AcDbEntity
  8
0
  6
Continuous
 62
     7
370
    25
100
AcDbLine
 10
197.1609741712
 20
117.7147616748
 30
0.0
 11
197.1609741712
 21
125.7147620548
 31
0.0
  0
LINE
  5
B5
330
1F
100
AcDbEntity
  8
0
  6
Continuous
 62
     7
370
    25
100
AcDbLine
 10
197.1609741712
 20
109.7147612948
 30
0.0
 11
197.1609741712
 21
117.7147616748
 31
0.0
  0
LINE
  5
B6
330
1F
100
AcDbEntity
  8
0
  6
Continuous
 62
     7
370
    25
100
AcDbLine
 10
208.3609737718
 20
119.5969189633
 30
0.0
 11
207.8609764839
 21
119.8556941584
 31
0.0
  0
LINE
  5
B7
330
1F
100
AcDbEntity
  8
0
  6
Continuous
 62
     7
370
    25
100
AcDbLine
 10
208.3609737718
 20
115.8326043863
 30
0.0
 11
208.3609737718
 21
119.5969189633
 31
0.0
  0
LINE
  5
B8
330
1F
100
AcDbEntity
  8
0
  6
Continuous
 62
     7
370
    25
100
AcDbLine
 10
208.3609737718
 20
115.8326043863
 30
0.0
 11
207.8609764839
 21
115.5738291912
 31
0.0
  0
LINE
  5
B9
330
1F
100
AcDbEntity
  8
0
  6
Continuous
 62
     7
370
    25
100
AcDbLine
 10
196.3609755302
 20
117.7147616748
 30
0.0
 11
196.3609755302
 21
124.9147615511
 31
0.0
  0
LINE
  5
BA
330
1F
100
AcDbEntity
  8
0
  6
Continuous
 62
     7
370
    25
100
AcDbLine
 10
196.3609755302
 20
110.5147617985
 30
0.0
 11
196.3609755302
 21
117.7147616748
 31
0.0
  0
LINE
  5
BB
330
1F
100
AcDbEntity
  8
0
  6
Continuous
 62
     7
370
    25
100
AcDbLine
 10
203.1392082835
 20
123.3197957393
 30
0.0
 11
208.3609737718
 21
122.9468126897
 31
0.0
  0
LINE
  5
BC
330
1F
100
AcDbEntity
  8
0
  6
Continuous
 62
     7
370
    25
100
AcDbLine
 10
208.3609737718
 20
122.9468126897
 30
0.0
 11
208.3609737718
 21
119.5969189633
 31
0.0
  0
LINE
  5
BD
330
1F
100
AcDbEntity
  8
0
  6
Continuous
 62
     7
370
    25
100
AcDbLine
 10
208.3609737718
 20
115.8326043863
 30
0.0
 11
208.3609737718
 21
112.4827106599
 31
0.0
  0
LINE
  5
BE
330
1F
100
AcDbEntity
  8
0
  6
Continuous
 62
     7
370
    25
100
AcDbLine
 10
203.1392082835
 20
112.1097276103
 30
0.0
 11
208.3609737718
 21
112.4827106599
 31
0.0
  0
SPLINE
  5
BF
330
1F
100
AcDbEntity
  8
0
  6
Continuous
 62
     7
370
    25
100
AcDbSpline
210
0.0
220
0.0
230
1.0
 70
     8
 71
     3
 72
     9
 73
     5
 74
     0
 42
0.000000001
 43
0.00000001
 40
0.0
 40
0.0
 40
0.0
 40
0.0
 40
0.5084514326184657
 40
0.9999999999999999
 40
0.9999999999999999
 40
0.9999999999999999
 40
0.9999999999999999
 10
208.3609737718498
 20
124.943177599885
 30
0.0
 10
208.2763073579272
 20
125.0309665797108
 30
0.0
 10
208.1097891646622
 20
125.2036260987798
 30
0.0
 10
207.9429741602819
 20
125.3759988679961
 30
0.0
 10
207.8609764838611
 20
125.46072845576
 30
0.0
  0
LINE
  5
C0
330
1F
100
AcDbEntity
  8
0
  6
Continuous
 62
     7
370
    25
100
AcDbLine
 10
208.3609737718
 20
123.0610207771
 30
0.0
 11
207.8609764839
 21
123.3197957393
 31
0.0
  0
LINE
  5
C1
330
1F
100
AcDbEntity
  8
0
  6
Continuous
 62
     7
370
    25
100
AcDbLine
 10
208.3609737718
 20
123.0610207771
 30
0.0
 11
208.3609737718
 21
124.9431775999
 31
0.0
  0
LINE
  5
C2
330
1F
100
AcDbEntity
  8
0
  6
Continuous
 62
     7
370
    25
100
AcDbLine
 10
208.3609737718
 20
122.9468126897
 30
0.0
 11
208.3609737718
 21
123.0610207771
 31
0.0
  0
LINE
  5
C3
330
1F
100
AcDbEntity
  8
0
  6
Continuous
 62
     7
370
    25
100
AcDbLine
 10
208.3609737718
 20
112.3685025726
 30
0.0
 11
207.8609764839
 21
112.1097276103
 31
0.0
  0
SPLINE
  5
C4
330
1F
100
AcDbEntity
  8
0
  6
Continuous
 62
     7
370
    25
100
AcDbSpline
210
0.0
220
0.0
230
1.0
 70
     8
 71
     3
 72
     9
 73
     5
 74
     0
 42
0.000000001
 43
0.00000001
 40
0.0
 40
0.0
 40
0.0
 40
0.0
 40
0.7584115565095673
 40
1.0
 40
1.0
 40
1.0
 40
1.0
 10
208.3609737718498
 20
110.4863457497735
 30
0.0
 10
208.234664185806
 20
110.3554183021884
 30
0.0
 10
208.0681192736675
 20
110.1827845303776
 30
0.0
 10
207.9012823552889
 20
110.0104330256572
 30
0.0
 10
207.8609764838611
 20
109.9687948938985
 30
0.0
  0
LINE
  5
C5
330
1F
100
AcDbEntity
  8
0
  6
Continuous
 62
     7
370
    25
100
AcDbLine
 10
208.3609737718
 20
110.4863457498
 30
0.0
 11
208.3609737718
 21
112.3685025726
 31
0.0
  0
LINE
  5
C6
330
1F
100
AcDbEntity
  8
0
  6
Continuous
 62
     7
370
    25
100
AcDbLine
 10
208.3609737718
 20
112.4827106599
 30
0.0
 11
208.3609737718
 21
112.3685025726
 31
0.0
  0
SPLINE
  5
C7
330
1F
100
AcDbEntity
  8
0
  6
Continuous
 62
     7
370
    25
100
AcDbSpline
210
0.0
220
0.0
230
1.0
 70
     8
 71
     3
 72
    25
 73
    21
 74
     0
 42
0.000000001
 43
0.00000001
 40
0.0
 40
0.0
 40
0.0
 40
0.0
 40
0.1249999999999998
 40
0.1249999999999998
 40
0.2499999999999997
 40
0.2499999999999997
 40
0.3749999999999995
 40
0.3749999999999995
 40
0.4999999999999993
 40
0.4999999999999993
 40
0.5624999999999996
 40
0.5624999999999996
 40
0.6249999999999998
 40
0.6875000000000001
 40
0.6875000000000001
 40
0.7500000000000003
 40
0.7500000000000003
 40
0.8750000000000001
 40
0.8750000000000001
 40
1.0
 40
1.0
 40
1.0
 40
1.0
 10
161.5951729175243
 20
146.3624990418876
 30
0.0
 10
161.8364204230797
 20
146.2901944318184
 30
0.0
 10
162.0523494573242
 20
146.2063011458628
 30
0.0
 10
162.4355073691668
 20
146.0136324228486
 30
0.0
 10
162.602959154652
 20
145.9037455348328
 30
0.0
 10
162.8706438110559
 20
145.6672342506604
 30
0.0
 10
162.9743157787767
 20
145.5382711213698
 30
0.0
 10
163.1134471500309
 20
145.2643440414225
 30
0.0
 10
163.1481863900216
 20
145.122230890289
 30
0.0
 10
163.1486168232408
 20
144.9009772642875
 30
0.0
 10
163.1398820396514
 20
144.8253986839326
 30
0.0
 10
163.1050886364767
 20
144.6750989390565
 30
0.0
 10
163.0531957747476
 20
144.5251336360491
 30
0.0
 10
162.9678175624539
 20
144.3760324038292
 30
0.0
 10
162.8653418093893
 20
144.2275452780684
 30
0.0
 10
162.8052804377382
 20
144.1534567206315
 30
0.0
 10
162.6039706152871
 20
143.9382944191532
 30
0.0
 10
162.4407470952073
 20
143.8022377052831
 30
0.0
 10
162.0553688949559
 20
143.5473796721309
 30
0.0
 10
161.8364194091301
 20
143.4310843916725
 30
0.0
 10
161.5951729175243
 20
143.3296478749967
 30
0.0
  0
LINE
  5
C8
330
1F
100
AcDbEntity
  8
0
  6
Continuous
 62
     7
370
    25
100
AcDbLine
 10
161.5951732064
 20
146.3624992524
 30
0.0
 11
161.5951732064
 21
149.1897617583
 31
0.0
  0
LINE
  5
C9
330
1F
100
AcDbEntity
  8
0
  6
Continuous
 62
     7
370
    25
100
AcDbLine
 10
161.5951732064
 20
86.2397615914
 30
0.0
 11
161.5951732064
 21
88.1780152325
 31
0.0
  0
SPLINE
  5
CA
330
1F
100
AcDbEntity
  8
0
  6
Continuous
 62
     7
370
    25
100
AcDbSpline
210
0.0
220
0.0
230
1.0
 70
     8
 71
     3
 72
    18
 73
    14
 74
     0
 42
0.000000001
 43
0.00000001
 40
0.0
 40
0.0
 40
0.0
 40
0.0
 40
0.25
 40
0.25
 40
0.3750000000000001
 40
0.3750000000000001
 40
0.5000000000000002
 40
0.5000000000000002
 40
0.75
 40
0.75
 40
0.875
 40
0.875
 40
1.0
 40
1.0
 40
1.0
 40
1.0
 10
165.3609751129543
 20
89.64164174977289
 30
0.0
 10
165.2143875264075
 20
89.44872450966058
 30
0.0
 10
165.0108222765214
 20
89.26960494420516
 30
0.0
 10
164.6418227112707
 20
89.0327198643418
 30
0.0
 10
164.5078999452437
 20
88.95849311539949
 30
0.0
 10
164.2186763253147
 20
88.81866233721762
 30
0.0
 10
164.0623806317222
 20
88.75273611976282
 30
0.0
 10
163.5709082563098
 20
88.57057499720106
 30
0.0
 10
163.2126709534225
 20
88.46889812282151
 30
0.0
 10
162.6315718696767
 20
88.34071210149753
 30
0.0
 10
162.4299296366349
 20
88.30204064300804
 30
0.0
 10
162.0192671039913
 20
88.23371929309175
 30
0.0
 10
161.8094405867799
 20
88.20386341135102
 30
0.0
 10
161.5951729175243
 20
88.17801434186384
 30
0.0
  0
SPLINE
  5
CB
330
1F
100
AcDbEntity
  8
0
  6
Continuous
 62
     7
370
    25
100
AcDbSpline
210
0.0
220
0.0
230
1.0
 70
     8
 71
     3
 72
    18
 73
    14
 74
     0
 42
0.000000001
 43
0.00000001
 40
0.0
 40
0.0
 40
0.0
 40
0.0
 40
0.2500000000000013
 40
0.2500000000000013
 40
0.3750000000000015
 40
0.3750000000000015
 40
0.5000000000000017
 40
0.5000000000000017
 40
0.6250000000000018
 40
0.6250000000000018
 40
0.750000000000002
 40
0.750000000000002
 40
1.0
 40
1.0
 40
1.0
 40
1.0
 10
161.5951729175243
 20
93.52873774453724
 30
0.0
 10
162.023873475346
 20
93.4329435371612
 30
0.0
 10
162.4324415223163
 20
93.31082409101612
 30
0.0
 10
163.0143060216868
 20
93.08985051281132
 30
0.0
 10
163.204193733093
 20
93.00926322106082
 30
0.0
 10
163.5655207437516
 20
92.83863523805283
 30
0.0
 10
163.737234975175
 20
92.7486238209364
 30
0.0
 10
164.0628148254889
 20
92.55982745182122
 30
0.0
 10
164.2166827276669
 20
92.46104223722752
 30
0.0
 10
164.5058869160839
 20
92.25496776484273
 30
0.0
 10
164.6418515797076
 20
92.14711647483456
 30
0.0
 10
165.0153754574997
 20
91.81448835527698
 30
0.0
 10
165.2139933318156
 20
91.58584616805977
 30
0.0
 10
165.3609751129543
 20
91.35214508396041
 30
0.0
  0
LINE
  5
CC
330
1F
100
AcDbEntity
  8
0
  6
Continuous
 62
     7
370
    25
100
AcDbLine
 10
161.5951732064
 20
93.5287372325
 30
0.0
 11
161.5951732064
 21
143.3296472882
 31
0.0
  0
LINE
  5
CD
330
1F
100
AcDbEntity
  8
0
  6
Continuous
 62
     7
370
    25
100
AcDbLine
 10
156.3859749848
 20
143.8094646786
 30
0.0
 11
156.3859749848
 21
146.6623571817
 31
0.0
  0
SPLINE
  5
CE
330
1F
100
AcDbEntity
  8
0
  6
Continuous
 62
     7
370
    25
100
AcDbSpline
210
0.0
220
0.0
230
1.0
 70
     8
 71
     3
 72
    26
 73
    22
 74
     0
 42
0.000000001
 43
0.00000001
 40
0.0
 40
0.0
 40
0.0
 40
0.0
 40
0.1250000000000009
 40
0.1250000000000009
 40
0.2500000000000019
 40
0.2500000000000019
 40
0.3125000000000011
 40
0.3125000000000011
 40
0.3750000000000004
 40
0.3750000000000004
 40
0.4375000000000002
 40
0.4375000000000002
 40
0.5000000000000001
 40
0.5000000000000001
 40
0.5625
 40
0.5625
 40
0.6249999999999999
 40
0.6249999999999999
 40
0.7500000000000001
 40
0.7500000000000001
 40
1.0
 40
1.0
 40
1.0
 40
1.0
 10
156.3859751129543
 20
141.6144071848627
 30
0.0
 10
156.2940702022715
 20
141.8243307915571
 30
0.0
 10
156.2063734260465
 20
142.0330962084365
 30
0.0
 10
156.0421671552792
 20
142.4474308371298
 30
0.0
 10
155.9648967370125
 20
142.6551752227663
 30
0.0
 10
155.8651306306874
 20
142.9523738425831
 30
0.0
 10
155.834517701785
 20
143.0491231945216
 30
0.0
 10
155.779648827882
 20
143.2370226946315
 30
0.0
 10
155.7552636069531
 20
143.3288248423615
 30
0.0
 10
155.7155842304547
 20
143.500167270627
 30
0.0
 10
155.7001181512174
 20
143.5801598051597
 30
0.0
 10
155.6790218161349
 20
143.7273542143716
 30
0.0
 10
155.6735087499749
 20
143.7947360819446
 30
0.0
 10
155.6734417923526
 20
143.9099050323446
 30
0.0
 10
155.678710099702
 20
143.9585708750538
 30
0.0
 10
155.6995526268701
 20
144.0385740685047
 30
0.0
 10
155.7152267400803
 20
144.0696383118726
 30
0.0
 10
155.7745456702579
 20
144.1357929769759
 30
0.0
 10
155.8315655057719
 20
144.1453948442144
 30
0.0
 10
156.0304003944158
 20
144.1003795741074
 30
0.0
 10
156.2016705996479
 20
143.9764534988578
 30
0.0
 10
156.3859751129543
 20
143.8094655553852
 30
0.0
  0
LINE
  5
CF
330
1F
100
AcDbEntity
  8
0
  6
Continuous
 62
     7
370
    25
100
AcDbLine
 10
156.3859749848
 20
94.2612056736
 30
0.0
 11
156.3859749848
 21
141.6144062881
 31
0.0
  0
SPLINE
  5
D0
330
1F
100
AcDbEntity
  8
0
  6
Continuous
 62
     7
370
    25
100
AcDbSpline
210
0.0
220
0.0
230
1.0
 70
     8
 71
     3
 72
     8
 73
     4
 74
     0
 42
0.000000001
 43
0.00000001
 40
0.0
 40
0.0
 40
0.0
 40
0.0
 40
1.0
 40
1.0
 40
1.0
 40
1.0
 10
156.0184514468062
 20
93.45822871231381
 30
0.0
 10
156.1361859516357
 20
93.72587239192973
 30
0.0
 10
156.2596520645941
 20
93.99483769426205
 30
0.0
 10
156.3859751129543
 20
94.2612048187724
 30
0.0
  0
SPLINE
  5
D1
330
1F
100
AcDbEntity
  8
0
  6
Continuous
 62
     7
370
    25
100
AcDbSpline
210
0.0
220
0.0
230
1.0
 70
     8
 71
     3
 72
     8
 73
     4
 74
     0
 42
0.000000001
 43
0.00000001
 40
0.0
 40
0.0
 40
0.0
 40
0.0
 40
1.0
 40
1.0
 40
1.0
 40
1.0
 10
154.9267773083842
 20
92.65703635319494
 30
0.0
 10
155.2966646891138
 20
92.93142817212694
 30
0.0
 10
155.6619981818752
 20
93.20185448022342
 30
0.0
 10
156.0184514468062
 20
93.45822871231381
 30
0.0
  0
LINE
  5
D2
330
1F
100
AcDbEntity
  8
0
  6
Continuous
 62
     7
370
    25
100
AcDbLine
 10
154.9267773779
 20
92.6570360665
 30
0.0
 11
154.9267773779
 21
149.1897617583
 31
0.0
  0
SPLINE
  5
D3
330
1F
100
AcDbEntity
  8
0
  6
Continuous
 62
     7
370
    25
100
AcDbSpline
210
0.0
220
0.0
230
1.0
 70
     8
 71
     3
 72
    27
 73
    23
 74
     0
 42
0.000000001
 43
0.00000001
 40
0.0
 40
0.0
 40
0.0
 40
0.0
 40
0.1249999999999996
 40
0.1249999999999996
 40
0.2499999999999992
 40
0.2499999999999992
 40
0.3749999999999988
 40
0.3749999999999988
 40
0.4374999999999988
 40
0.4374999999999988
 40
0.4999999999999989
 40
0.5624999999999989
 40
0.5624999999999989
 40
0.6249999999999989
 40
0.6249999999999989
 40
0.749999999999999
 40
0.749999999999999
 40
0.8124999999999992
 40
0.8124999999999992
 40
0.8749999999999994
 40
0.8749999999999994
 40
1.0
 40
1.0
 40
1.0
 40
1.0
 10
154.9267773083842
 20
88.69076276028103
 30
0.0
 10
154.6568204144169
 20
88.79064184814334
 30
0.0
 10
154.4131633901997
 20
88.90194710830238
 30
0.0
 10
153.9805782579945
 20
89.15143291397845
 30
0.0
 10
153.7919836907982
 20
89.29037543204566
 30
0.0
 10
153.4895439144375
 20
89.58706846721955
 30
0.0
 10
153.3729606671467
 20
89.74608707658382
 30
0.0
 10
153.2537019947218
 20
90.0031176004781
 30
0.0
 10
153.2234853276902
 20
90.09187040888318
 30
0.0
 10
153.1835887309776
 20
90.2711461657738
 30
0.0
 10
153.1636272875295
 20
90.45331476901633
 30
0.0
 10
153.1830625891175
 20
90.6412774901047
 30
0.0
 10
153.2225154668007
 20
90.83214606706923
 30
0.0
 10
153.252544150224
 20
90.92959524751475
 30
0.0
 10
153.3710191383562
 20
91.219932094312
 30
0.0
 10
153.487359953465
 20
91.41201830198793
 30
0.0
 10
153.7153963649625
 20
91.69682225156933
 30
0.0
 10
153.8009302843931
 20
91.79169324013267
 30
0.0
 10
153.9872438345286
 20
91.97705430798827
 30
0.0
 10
154.087872523101
 20
92.06753255992066
 30
0.0
 10
154.4111340074369
 20
92.33221301543259
 30
0.0
 10
154.6554146931597
 20
92.49999660488697
 30
0.0
 10
154.9267773083842
 20
92.65703635319494
 30
0.0
  0
LINE
  5
D4
330
1F
100
AcDbEntity
  8
0
  6
Continuous
 62
     7
370
    25
100
AcDbLine
 10
154.9267773779
 20
86.2397615914
 30
0.0
 11
154.9267773779
 21
88.6907623265
 31
0.0
  0
LINE
  5
D5
330
1F
100
AcDbEntity
  8
0
  6
Continuous
 62
     7
370
    25
100
AcDbLine
 10
148.360975113
 20
117.7147616748
 30
0.0
 11
148.360975113
 21
148.989762098
 31
0.0
  0
LINE
  5
D6
330
1F
100
AcDbEntity
  8
0
  6
Continuous
 62
     7
370
    25
100
AcDbLine
 10
148.360975113
 20
86.4397612516
 30
0.0
 11
148.360975113
 21
117.7147616748
 31
0.0
  0
LINE
  5
D7
330
1F
100
AcDbEntity
  8
0
  6
Continuous
 62
     7
370
    25
100
AcDbLine
 10
166.3609743381
 20
117.7147616748
 30
0.0
 11
166.3609743381
 21
148.1897615944
 31
0.0
  0
LINE
  5
D8
330
1F
100
AcDbEntity
  8
0
  6
Continuous
 62
     7
370
    25
100
AcDbLine
 10
166.3609743381
 20
87.2397617553
 30
0.0
 11
166.3609743381
 21
117.7147616748
 31
0.0
  0
SPLINE
  5
D9
330
1F
100
AcDbEntity
  8
0
  6
Continuous
 62
     7
370
    25
100
AcDbSpline
210
0.0
220
0.0
230
1.0
 70
     8
 71
     3
 72
    14
 73
    10
 74
     0
 42
0.000000001
 43
0.00000001
 40
0.0
 40
0.0
 40
0.0
 40
0.0
 40
0.2499999999999993
 40
0.2499999999999993
 40
0.4999999999999987
 40
0.4999999999999987
 40
0.7499999999999993
 40
0.7499999999999993
 40
1.0
 40
1.0
 40
1.0
 40
1.0
 10
165.3609751129543
 20
91.35214508396041
 30
0.0
 10
165.456042469662
 20
91.20098795310423
 30
0.0
 10
165.5163475794933
 20
91.05953563366907
 30
0.0
 10
165.59661252768
 20
90.77412741831195
 30
0.0
 10
165.6155292325275
 20
90.63007260437448
 30
0.0
 10
165.6155362141764
 20
90.34028832395035
 30
0.0
 10
165.5968904883765
 20
90.19499561187546
 30
0.0
 10
165.5169318221838
 20
89.90905043684063
 30
0.0
 10
165.4558374677266
 20
89.76648577036376
 30
0.0
 10
165.3609751129544
 20
89.64164174977282
 30
0.0
  0
LINE
  5
DA
330
1F
100
AcDbEntity
  8
0
  6
Continuous
 62
     7
370
    25
100
AcDbLine
 10
160.1359751338
 20
94.9950263951
 30
0.0
 11
160.1359751338
 21
140.7489561592
 31
0.0
  0
SPLINE
  5
DB
330
1F
100
AcDbEntity
  8
0
  6
Continuous
 62
     7
370
    25
100
AcDbSpline
210
0.0
220
0.0
230
1.0
 70
     8
 71
     3
 72
    10
 73
     6
 74
     0
 42
0.000000001
 43
0.00000001
 40
0.0
 40
0.0
 40
0.0
 40
0.0
 40
0.5
 40
0.5
 40
1.0
 40
1.0
 40
1.0
 40
1.0
 10
161.5951729175242
 20
143.3296478749965
 30
0.0
 10
161.3604419735551
 20
142.8772084872944
 30
0.0
 10
161.1210586658384
 20
142.437681313935
 30
0.0
 10
160.6344373145276
 20
141.5785892183933
 30
0.0
 10
160.3871680028258
 20
141.1591321651701
 30
0.0
 10
160.1359751129542
 20
140.7489561086326
 30
0.0
  0
SPLINE
  5
DC
330
1F
100
AcDbEntity
  8
0
  6
Continuous
 62
     7
370
    25
100
AcDbSpline
210
0.0
220
0.0
230
1.0
 70
     8
 71
     3
 72
     8
 73
     4
 74
     0
 42
0.000000001
 43
0.00000001
 40
0.0
 40
0.0
 40
0.0
 40
0.0
 40
1.0
 40
1.0
 40
1.0
 40
1.0
 10
160.6016862380068
 20
94.22204759298984
 30
0.0
 10
160.9279450742191
 20
93.99822386366012
 30
0.0
 10
161.259783483262
 20
93.76565801635675
 30
0.0
 10
161.5951729175243
 20
93.52873774453724
 30
0.0
  0
SPLINE
  5
DD
330
1F
100
AcDbEntity
  8
0
  6
Continuous
 62
     7
370
    25
100
AcDbSpline
210
0.0
220
0.0
230
1.0
 70
     8
 71
     3
 72
     8
 73
     4
 74
     0
 42
0.000000001
 43
0.00000001
 40
0.0
 40
0.0
 40
0.0
 40
0.0
 40
1.0
 40
1.0
 40
1.0
 40
1.0
 10
160.1359751129542
 20
94.99502677166421
 30
0.0
 10
160.2924574764554
 20
94.7408065139887
 30
0.0
 10
160.4476837649328
 20
94.4831727276413
 30
0.0
 10
160.6016862380068
 20
94.22204759298982
 30
0.0
  0
SPLINE
  5
DE
330
1F
100
AcDbEntity
  8
0
  6
Continuous
 62
     7
370
    25
100
AcDbSpline
210
0.0
220
0.0
230
1.0
 70
     8
 71
     3
 72
    14
 73
    10
 74
     0
 42
0.000000001
 43
0.00000001
 40
0.0
 40
0.0
 40
0.0
 40
0.0
 40
0.25
 40
0.25
 40
0.5
 40
0.5
 40
0.75
 40
0.75
 40
1.0
 40
1.0
 40
1.0
 40
1.0
 10
160.1359751129544
 20
140.6637475438798
 30
0.0
 10
160.1359751129544
 20
140.549575466327
 30
0.0
 10
160.1100456746885
 20
140.432487461652
 30
0.0
 10
160.0106034174121
 20
140.211332449634
 30
0.0
 10
159.9383210316913
 20
140.1087581091348
 30
0.0
 10
159.7535836949267
 20
139.9327247036469
 30
0.0
 10
159.6440370586047
 20
139.8623188966665
 30
0.0
 10
159.4006758136014
 20
139.7687530358274
 30
0.0
 10
159.2691647061557
 20
139.746832715858
 30
0.0
 10
159.1359751129543
 20
139.7528952849952
 30
0.0
  0
SPLINE
  5
DF
330
1F
100
AcDbEntity
  8
0
  6
Continuous
 62
     7
370
    25
100
AcDbSpline
210
0.0
220
0.0
230
1.0
 70
     8
 71
     3
 72
    14
 73
    10
 74
     0
 42
0.000000001
 43
0.00000001
 40
0.0
 40
0.0
 40
0.0
 40
0.0
 40
0.25
 40
0.25
 40
0.5
 40
0.5
 40
0.75
 40
0.75
 40
1.0
 40
1.0
 40
1.0
 40
1.0
 10
159.1359751129542
 20
95.9898698039499
 30
0.0
 10
159.2694034201874
 20
95.99536286712024
 30
0.0
 10
159.401178091983
 20
95.97311084805538
 30
0.0
 10
159.6443739788444
 20
95.87967258834904
 30
0.0
 10
159.7552948405572
 20
95.80837712316831
 30
0.0
 10
159.9379411894231
 20
95.63486972625608
 30
0.0
 10
160.0112569287631
 20
95.53131136400985
 30
0.0
 10
160.1098950395984
 20
95.31207325123587
 30
0.0
 10
160.1359751129543
 20
95.19506777552753
 30
0.0
 10
160.1359751129542
 20
95.08044284096177
 30
0.0
  0
SPLINE
  5
E0
330
1F
100
AcDbEntity
  8
0
  6
Continuous
 62
     7
370
    25
100
AcDbSpline
210
0.0
220
0.0
230
1.0
 70
     8
 71
     3
 72
    14
 73
    10
 74
     0
 42
0.000000001
 43
0.00000001
 40
0.0
 40
0.0
 40
0.0
 40
0.0
 40
0.25
 40
0.25
 40
0.5
 40
0.5
 40
0.75
 40
0.75
 40
1.0
 40
1.0
 40
1.0
 40
1.0
 10
157.3859751129542
 20
140.1089546222374
 30
0.0
 10
157.2516243644131
 20
140.1607716023152
 30
0.0
 10
157.1284454616197
 20
140.2377188383485
 30
0.0
 10
156.8996950407303
 20
140.4302036717575
 30
0.0
 10
156.7977719487372
 20
140.5430306605375
 30
0.0
 10
156.6183468843919
 20
140.7958706051102
 30
0.0
 10
156.5419056354875
 20
140.9338863295919
 30
0.0
 10
156.4246176610258
 20
141.2321220363219
 30
0.0
 10
156.3859751129542
 20
141.3902100053724
 30
0.0
 10
156.3859751129542
 20
141.5296423300973
 30
0.0
  0
SPLINE
  5
E1
330
1F
100
AcDbEntity
  8
0
  6
Continuous
 62
     7
370
    25
100
AcDbSpline
210
0.0
220
0.0
230
1.0
 70
     8
 71
     3
 72
    14
 73
    10
 74
     0
 42
0.000000001
 43
0.00000001
 40
0.0
 40
0.0
 40
0.0
 40
0.0
 40
0.25
 40
0.25
 40
0.5
 40
0.5
 40
0.75
 40
0.75
 40
1.0
 40
1.0
 40
1.0
 40
1.0
 10
156.3859751129542
 20
94.34617394552423
 30
0.0
 10
156.3859751129542
 20
94.47691376689522
 30
0.0
 10
156.4213961898866
 20
94.62561148060927
 30
0.0
 10
156.5339218610767
 20
94.9025412961558
 30
0.0
 10
156.6116020473511
 20
95.03585186324473
 30
0.0
 10
156.7916672790734
 20
95.27319185900663
 30
0.0
 10
156.8969473317287
 20
95.38087545899666
 30
0.0
 10
157.1259308660912
 20
95.55744740297723
 30
0.0
 10
157.2525440580901
 20
95.6287505554481
 30
0.0
 10
157.385975112954
 20
95.67352284924503
 30
0.0
  0
SPLINE
  5
E2
330
1F
100
AcDbEntity
  8
0
  6
Continuous
 62
     7
370
    25
100
AcDbSpline
210
0.0
220
0.0
230
1.0
 70
     8
 71
     3
 72
    10
 73
     6
 74
     0
 42
0.000000001
 43
0.00000001
 40
0.0
 40
0.0
 40
0.0
 40
0.0
 40
0.5
 40
0.5
 40
1.0
 40
1.0
 40
1.0
 40
1.0
 10
159.1359751129542
 20
139.7528952849956
 30
0.0
 10
158.8235112106661
 20
139.767118123019
 30
0.0
 10
158.5206222286684
 20
139.8049373258106
 30
0.0
 10
157.9332790438643
 20
139.9248257517995
 30
0.0
 10
157.6488113832924
 20
140.0075827882006
 30
0.0
 10
157.3859751129542
 20
140.1089546222374
 30
0.0
  0
SPLINE
  5
E3
330
1F
100
AcDbEntity
  8
0
  6
Continuous
 62
     7
370
    25
100
AcDbSpline
210
0.0
220
0.0
230
1.0
 70
     8
 71
     3
 72
    10
 73
     6
 74
     0
 42
0.000000001
 43
0.00000001
 40
0.0
 40
0.0
 40
0.0
 40
0.0
 40
0.5
 40
0.5
 40
1.0
 40
1.0
 40
1.0
 40
1.0
 10
157.3859751129542
 20
95.67352284924434
 30
0.0
 10
157.6564938330695
 20
95.76429439884285
 30
0.0
 10
157.9380689977187
 20
95.836471424335
 30
0.0
 10
158.5226625687381
 20
95.94296033638842
 30
0.0
 10
158.8280111031586
 20
95.97719134167244
 30
0.0
 10
159.1359751129542
 20
95.9898698039499
 30
0.0
  0
LINE
  5
E4
330
1F
100
AcDbEntity
  8
0
  6
Continuous
 62
     7
370
    25
100
AcDbLine
 10
147.2007930541
 20
117.7147616748
 30
0.0
 11
147.2007930541
 21
142.6565003697
 31
0.0
  0
LINE
  5
E5
330
1F
100
AcDbEntity
  8
0
  6
Continuous
 62
     7
370
    25
100
AcDbLine
 10
147.2007930541
 20
92.7730229799
 30
0.0
 11
147.2007930541
 21
117.7147616748
 31
0.0
  0
LINE
  5
E6
330
1F
100
AcDbEntity
  8
0
  6
Continuous
 62
     7
370
    25
100
AcDbLine
 10
109.910976168
 20
106.8099661846
 30
0.0
 11
109.910976168
 21
94.6456407313
 31
0.0
  0
SPLINE
  5
E7
330
1F
100
AcDbEntity
  8
0
  6
Continuous
 62
     7
370
    25
100
AcDbSpline
210
0.0
220
0.0
230
1.0
 70
     8
 71
     3
 72
     8
 73
     4
 74
     0
 42
0.000000001
 43
0.00000001
 40
0.0
 40
0.0
 40
0.0
 40
0.0
 40
1.0
 40
1.0
 40
1.0
 40
1.0
 10
114.2032232080652
 20
106.8138706409565
 30
0.0
 10
112.7724738430315
 20
106.8121327656766
 30
0.0
 10
111.3417244779979
 20
106.8107706905108
 30
0.0
 10
109.9109751129643
 20
106.8097835343879
 30
0.0
  0
SPLINE
  5
E8
330
1F
100
AcDbEntity
  8
0
  6
Continuous
 62
     7
370
    25
100
AcDbSpline
210
0.0
220
0.0
230
1.0
 70
     8
 71
     3
 72
    23
 73
    19
 74
     0
 42
0.000000001
 43
0.00000001
 40
0.0
 40
0.0
 40
0.0
 40
0.0
 40
0.0521036415675031
 40
0.1035646240925967
 40
0.1544751946736949
 40
0.2049306267473421
 40
0.2550287880844035
 40
0.3048696389141012
 40
0.3545546704609132
 40
0.4041862979523234
 40
0.4538672252126086
 40
0.5036997999421611
 40
0.5901870230746071
 40
0.674271637822954
 40
0.7565997087222995
 40
0.8378563983721267
 40
0.9187511781367398
 40
1.0
 40
1.0
 40
1.0
 40
1.0
 10
117.7969590274546
 20
108.7339402493295
 30
0.0
 10
117.7554675077382
 20
108.6756044630064
 30
0.0
 10
117.6729962348448
 20
108.5596524181984
 30
0.0
 10
117.540137477411
 20
108.3938538161744
 30
0.0
 10
117.4016059046386
 20
108.2354898541393
 30
0.0
 10
117.2567063610012
 20
108.0849802205353
 30
0.0
 10
117.1056227008283
 20
107.9421409120199
 30
0.0
 10
116.9483075226645
 20
107.8069476944567
 30
0.0
 10
116.7847743644577
 20
107.6793350515277
 30
0.0
 10
116.6150244274708
 20
107.5592479673893
 30
0.0
 10
116.4390503973338
 20
107.446634573936
 30
0.0
 10
116.2125696993953
 20
107.3158246102886
 30
0.0
 10
115.9333891888862
 20
107.1767024546164
 30
0.0
 10
115.5982899927643
 20
107.0431834612875
 30
0.0
 10
115.2575254968595
 20
106.9397353650919
 30
0.0
 10
114.911127451104
 20
106.8668387409881
 30
0.0
 10
114.5592374725813
 20
106.8216439472218
 30
0.0
 10
114.3220672507168
 20
106.8164655120991
 30
0.0
 10
114.2032232080652
 20
106.8138706409565
 30
0.0
  0
SPLINE
  5
E9
330
1F
100
AcDbEntity
  8
0
  6
Continuous
 62
     7
370
    25
100
AcDbSpline
210
0.0
220
0.0
230
1.0
 70
     8
 71
     3
 72
     8
 73
     4
 74
     0
 42
0.000000001
 43
0.00000001
 40
0.0
 40
0.0
 40
0.0
 40
0.0
 40
1.0
 40
1.0
 40
1.0
 40
1.0
 10
122.2059308355978
 20
108.7383609641491
 30
0.0
 10
120.7357561748204
 20
108.736900343714
 30
0.0
 10
119.2655815140429
 20
108.7357392920551
 30
0.0
 10
117.7954068532655
 20
108.7348773621555
 30
0.0
  0
SPLINE
  5
EA
330
1F
100
AcDbEntity
  8
0
  6
Continuous
 62
     7
370
    25
100
AcDbSpline
210
0.0
220
0.0
230
1.0
 70
     8
 71
     3
 72
    18
 73
    14
 74
     0
 42
0.000000001
 43
0.00000001
 40
0.0
 40
0.0
 40
0.0
 40
0.0
 40
0.0923824559411628
 40
0.1844689291573508
 40
0.2764953615950219
 40
0.3686975365494161
 40
0.4613092840003458
 40
0.5545607518442569
 40
0.6486768051537182
 40
0.7438756050146744
 40
0.8403674044302629
 40
0.9203921078121001
 40
1.0
 40
1.0
 40
1.0
 40
1.0
 10
124.4011596804634
 20
108.2047269503854
 30
0.0
 10
124.3308293769494
 20
108.2051435748158
 30
0.0
 10
124.1903941000957
 20
108.2059754888601
 30
0.0
 10
123.9800315736115
 20
108.2195843357924
 30
0.0
 10
123.7705879106281
 20
108.2422510930967
 30
0.0
 10
123.5620382405091
 20
108.2748518831499
 30
0.0
 10
123.3543946222821
 20
108.3171543608216
 30
0.0
 10
123.1476564383322
 20
108.3692257630545
 30
0.0
 10
122.9418343327778
 20
108.431074522357
 30
0.0
 10
122.7369027055933
 20
108.5026725852464
 30
0.0
 10
122.545613038728
 20
108.5791744003087
 30
0.0
 10
122.3682604411407
 20
108.6576108270974
 30
0.0
 10
122.2602800976112
 20
108.7113207807963
 30
0.0
 10
122.2064308977318
 20
108.738105637537
 30
0.0
  0
LINE
  5
EB
330
1F
100
AcDbEntity
  8
0
  6
Continuous
 62
     7
370
    25
100
AcDbLine
 10
126.31603333
 20
108.2062226836
 30
0.0
 11
124.4011596108
 21
108.2047269796
 31
0.0
  0
SPLINE
  5
EC
330
1F
100
AcDbEntity
  8
0
  6
Continuous
 62
     7
370
    25
100
AcDbSpline
210
0.0
220
0.0
230
1.0
 70
     8
 71
     3
 72
    25
 73
    21
 74
     0
 42
0.000000001
 43
0.00000001
 40
0.0
 40
0.0
 40
0.0
 40
0.0
 40
0.0280105225426465
 40
0.0559601148860768
 40
0.0839014045043132
 40
0.1118870776786367
 40
0.1399695827588937
 40
0.1682008401739883
 40
0.196631967042422
 40
0.2253130233141467
 40
0.2542927850735845
 40
0.3799486436587335
 40
0.5057850221667067
 40
0.6313085886338298
 40
0.7532068238012468
 40
0.8039473267955921
 40
0.8535894438554446
 40
0.9025339722394071
 40
0.9511970353791085
 40
1.0
 40
1.0
 40
1.0
 40
1.0
 10
131.2559172661557
 20
113.3400861897605
 30
0.0
 10
131.2559544878895
 20
113.2654661627471
 30
0.0
 10
131.2560288503902
 20
113.1163884267599
 30
0.0
 10
131.2436127997437
 20
112.8937703357935
 30
0.0
 10
131.2220082393899
 20
112.6724459177646
 30
0.0
 10
131.1903227697299
 20
112.452477651876
 30
0.0
 10
131.14879663141
 20
112.2338873646469
 30
0.0
 10
131.0973658756801
 20
112.0167054262426
 30
0.0
 10
131.0360520009689
 20
111.8009640063578
 30
0.0
 10
130.9648416654694
 20
111.5866741149078
 30
0.0
 10
130.7940050582641
 20
111.138324341884
 30
0.0
 10
130.45627282483
 20
110.484993513812
 30
0.0
 10
129.8447181606283
 20
109.7131003031723
 30
0.0
 10
129.1084833254791
 20
109.068940677792
 30
0.0
 10
128.4219972538329
 20
108.6772995097286
 30
0.0
 10
127.8732931076853
 20
108.4586046087619
 30
0.0
 10
127.4912569291805
 20
108.3427485599312
 30
0.0
 10
127.104090830476
 20
108.2618406544013
 30
0.0
 10
126.7118641616895
 20
108.2126122236033
 30
0.0
 10
126.4481028935743
 20
108.2083543685879
 30
0.0
 10
126.3160329597528
 20
108.2062223852451
 30
0.0
  0
LINE
  5
ED
330
1F
100
AcDbEntity
  8
0
  6
Continuous
 62
     7
370
    25
100
AcDbLine
 10
131.2559172774
 20
122.0894371275
 30
0.0
 11
131.2559172774
 21
113.3400862221
 31
0.0
  0
SPLINE
  5
EE
330
1F
100
AcDbEntity
  8
0
  6
Continuous
 62
     7
370
    25
100
AcDbSpline
210
0.0
220
0.0
230
1.0
 70
     8
 71
     3
 72
    26
 73
    22
 74
     0
 42
0.000000001
 43
0.00000001
 40
0.0
 40
0.0
 40
0.0
 40
0.0
 40
0.0241259796963635
 40
0.0482159912272988
 40
0.0723203915124065
 40
0.0964895678710797
 40
0.1207736231963513
 40
0.1452220711242836
 40
0.1698835501657706
 40
0.1948055644472379
 40
0.2200342569517627
 40
0.2456142191611387
 40
0.3690971486901655
 40
0.4940698769485187
 40
0.6192566784762451
 40
0.7454656653603225
 40
0.7971495824713707
 40
0.8481710308405392
 40
0.8988013269235234
 40
0.9493179290492194
 40
1.0
 40
1.0
 40
1.0
 40
1.0
 10
126.3160329597528
 20
127.2233009644134
 30
0.0
 10
126.3812820183023
 20
127.2227271780345
 30
0.0
 10
126.5116828589815
 20
127.221580460705
 30
0.0
 10
126.7066626772778
 20
127.2094630842122
 30
0.0
 10
126.9007918145414
 20
127.1897045627505
 30
0.0
 10
127.0940531546356
 20
127.1615423805297
 30
0.0
 10
127.2864483331099
 20
127.1251512844813
 30
0.0
 10
127.4779739116109
 20
127.080450199004
 30
0.0
 10
127.6686294439963
 20
127.0274217276199
 30
0.0
 10
127.8584094430947
 20
126.9660307061933
 30
0.0
 10
128.0473280637505
 20
126.8962284997135
 30
0.0
 10
128.4740724769212
 20
126.718699429498
 30
0.0
 10
129.1085448041019
 20
126.3641388266004
 30
0.0
 10
129.8482206564478
 20
125.7219670129102
 30
0.0
 10
130.4549678992832
 20
124.9488017091292
 30
0.0
 10
130.8157597155016
 20
124.2413863008693
 30
0.0
 10
131.0179337712658
 20
123.6768789016437
 30
0.0
 10
131.1247572272511
 20
123.2879920400951
 30
0.0
 10
131.2003679435493
 20
122.8935092862269
 30
0.0
 10
131.2475306162407
 20
122.4937031960367
 30
0.0
 10
131.2531186705289
 20
122.2243393165722
 30
0.0
 10
131.2559172661557
 20
122.0894371598978
 30
0.0
  0
LINE
  5
EF
330
1F
100
AcDbEntity
  8
0
  6
Continuous
 62
     7
370
    25
100
AcDbLine
 10
124.4011596108
 20
127.2247963701
 30
0.0
 11
126.31603333
 21
127.223300666
 31
0.0
  0
SPLINE
  5
F0
330
1F
100
AcDbEntity
  8
0
  6
Continuous
 62
     7
370
    25
100
AcDbSpline
210
0.0
220
0.0
230
1.0
 70
     8
 71
     3
 72
    14
 73
    10
 74
     0
 42
0.000000001
 43
0.00000001
 40
0.0
 40
0.0
 40
0.0
 40
0.0
 40
0.0789261963172865
 40
0.158232872055133
 40
0.330847539457262
 40
0.5000195457610529
 40
0.6670357883572423
 40
0.8332395193657144
 40
1.0
 40
1.0
 40
1.0
 40
1.0
 10
122.2049474543925
 20
126.6907494446638
 30
0.0
 10
122.2583429774356
 20
126.7173556939391
 30
0.0
 10
122.365391427256
 20
126.770696453204
 30
0.0
 10
122.5944621418195
 20
126.8723259318436
 30
0.0
 10
122.8933348800172
 20
126.9864055642174
 30
0.0
 10
123.2654779548164
 20
127.0950119976733
 30
0.0
 10
123.6411077538466
 20
127.1713462831189
 30
0.0
 10
124.0203000658756
 20
127.2181637404727
 30
0.0
 10
124.274065035423
 20
127.2225830498299
 30
0.0
 10
124.4011596804634
 20
127.2247963992731
 30
0.0
  0
SPLINE
  5
F1
330
1F
100
AcDbEntity
  8
0
  6
Continuous
 62
     7
370
    25
100
AcDbSpline
210
0.0
220
0.0
230
1.0
 70
     8
 71
     3
 72
     8
 73
     4
 74
     0
 42
0.000000001
 43
0.00000001
 40
0.0
 40
0.0
 40
0.0
 40
0.0
 40
1.0
 40
1.0
 40
1.0
 40
1.0
 10
116.8126537307466
 20
126.6948716015647
 30
0.0
 10
118.6099904161205
 20
126.6938974951408
 30
0.0
 10
120.4073271014943
 20
126.6924753593911
 30
0.0
 10
122.2046637868682
 20
126.6906043729225
 30
0.0
  0
SPLINE
  5
F2
330
1F
100
AcDbEntity
  8
0
  6
Continuous
 62
     7
370
    25
100
AcDbSpline
210
0.0
220
0.0
230
1.0
 70
     8
 71
     3
 72
    13
 73
     9
 74
     0
 42
0.000000001
 43
0.00000001
 40
0.0
 40
0.0
 40
0.0
 40
0.0
 40
0.1667030582307992
 40
0.3329480818053035
 40
0.4990671507274896
 40
0.6653938523718403
 40
0.832261271055009
 40
1.0
 40
1.0
 40
1.0
 40
1.0
 10
115.7291495659012
 20
126.8322986511326
 30
0.0
 10
115.7902566086526
 20
126.831464431601
 30
0.0
 10
115.9123027959557
 20
126.8297982846462
 30
0.0
 10
116.0946377412194
 20
126.8177693269934
 30
0.0
 10
116.2759419540931
 20
126.7987798624091
 30
0.0
 10
116.4561408141298
 20
126.7719606481897
 30
0.0
 10
116.6354447922681
 20
126.7381248409426
 30
0.0
 10
116.7534768178395
 20
126.7092993706637
 30
0.0
 10
116.8126465075911
 20
126.6948491049406
 30
0.0
  0
SPLINE
  5
F3
330
1F
100
AcDbEntity
  8
0
  6
Continuous
 62
     7
370
    25
100
AcDbSpline
210
0.0
220
0.0
230
1.0
 70
     8
 71
     3
 72
     8
 73
     4
 74
     0
 42
0.000000001
 43
0.00000001
 40
0.0
 40
0.0
 40
0.0
 40
0.0
 40
1.0
 40
1.0
 40
1.0
 40
1.0
 10
109.910975112967
 20
126.8370883859827
 30
0.0
 10
111.8503665972784
 20
126.836040933507
 30
0.0
 10
113.7897580815898
 20
126.8344447469822
 30
0.0
 10
115.7291495659012
 20
126.8322986511326
 30
0.0
  0
LINE
  5
F4
330
1F
100
AcDbEntity
  8
0
  6
Continuous
 62
     7
370
    25
100
AcDbLine
 10
109.910976168
 20
126.8370886449
 30
0.0
 11
109.910976168
 21
140.7838826184
 31
0.0
  0
SPLINE
  5
F5
330
1F
100
AcDbEntity
  8
0
  6
Continuous
 62
     7
370
    25
100
AcDbSpline
210
0.0
220
0.0
230
1.0
 70
     8
 71
     3
 72
    24
 73
    20
 74
     0
 42
0.000000001
 43
0.00000001
 40
0.0
 40
0.0
 40
0.0
 40
0.0
 40
0.0607845451296407
 40
0.1248046360965166
 40
0.1880736642923821
 40
0.2506536944642078
 40
0.3129374270624571
 40
0.3747588850641116
 40
0.4371053349657547
 40
0.4977639019418345
 40
0.5591913128303959
 40
0.6209011577381788
 40
0.6826271159280655
 40
0.7453344255371981
 40
0.8078840402472991
 40
0.8712333803613398
 40
0.9348869687710366
 40
0.9979954054018167
 40
1.0
 40
1.0
 40
1.0
 40
1.0
 10
133.874614749292
 20
141.9855923507888
 30
0.0
 10
133.848902935753
 20
141.9751892607083
 30
0.0
 10
133.7961106753967
 20
141.9538293267151
 30
0.0
 10
133.3228799261431
 20
141.7714226532267
 30
0.0
 10
132.6040747844244
 20
141.502476600698
 30
0.0
 10
131.6268940401434
 20
141.1743804456308
 30
0.0
 10
130.4429316790808
 20
140.8305100118851
 30
0.0
 10
129.0746293911818
 20
140.5128492196121
 30
0.0
 10
127.586918125312
 20
140.2583407712125
 30
0.0
 10
126.017258544997
 20
140.1071263902343
 30
0.0
 10
124.4410160500184
 20
140.0735847436092
 30
0.0
 10
122.9217018936891
 20
140.1591569392731
 30
0.0
 10
121.5208276783896
 20
140.3333647579436
 30
0.0
 10
120.3021478839805
 20
140.5629904226141
 30
0.0
 10
119.2965750550797
 20
140.8012079250066
 30
0.0
 10
118.5433937186406
 20
141.0128286846354
 30
0.0
 10
118.0964501575891
 20
141.1452484423671
 30
0.0
 10
117.9127733696448
 20
141.2029159286102
 30
0.0
 10
117.9643109169094
 20
141.187168173576
 30
0.0
 10
117.9658975714837
 20
141.186683357187
 30
0.0
  0
SPLINE
  5
F6
330
1F
100
AcDbEntity
  8
0
  6
Continuous
 62
     7
370
    25
100
AcDbSpline
210
0.0
220
0.0
230
1.0
 70
     8
 71
     3
 72
    24
 73
    20
 74
     0
 42
0.000000001
 43
0.00000001
 40
0.0
 40
0.0
 40
0.0
 40
0.0
 40
0.0018911184661179
 40
0.0649665885217893
 40
0.1287875560009952
 40
0.1921372900365662
 40
0.2545996475903032
 40
0.3167128323446347
 40
0.3787563804671794
 40
0.440851011115251
 40
0.501718739255822
 40
0.5623721854420992
 40
0.6248484186975057
 40
0.6868048398220544
 40
0.7491642775858319
 40
0.8116886268192671
 40
0.8748496752066125
 40
0.9387002417378669
 40
1.0
 40
1.0
 40
1.0
 40
1.0
 10
117.9659031594192
 20
94.24274499756885
 30
0.0
 10
117.9643964775509
 20
94.24228717972962
 30
0.0
 10
117.912636641917
 20
94.22655952241347
 30
0.0
 10
118.0962473565307
 20
94.28413573751864
 30
0.0
 10
118.5441210815634
 20
94.41639214054204
 30
0.0
 10
119.2971466290773
 20
94.6280005502646
 30
0.0
 10
120.2970921293579
 20
94.86571755530025
 30
0.0
 10
121.5156513431576
 20
95.09375802898201
 30
0.0
 10
122.9191616503664
 20
95.26594257721067
 30
0.0
 10
124.4364095345791
 20
95.35406603450312
 30
0.0
 10
126.0106589429096
 20
95.32300464105437
 30
0.0
 10
127.5764924349324
 20
95.17198354952647
 30
0.0
 10
129.0663448523585
 20
94.91764745948697
 30
0.0
 10
130.4380325326863
 20
94.59990780037711
 30
0.0
 10
131.6239297261327
 20
94.25600152968508
 30
0.0
 10
132.6016234825735
 20
93.92812286457466
 30
0.0
 10
133.3207769023539
 20
93.659338444482
 30
0.0
 10
133.7947161629082
 20
93.4762363794536
 30
0.0
 10
133.8489751287682
 20
93.4542495742902
 30
0.0
 10
133.8755516598021
 20
93.44348023874355
 30
0.0
  0
LINE
  5
F7
330
1F
100
AcDbEntity
  8
0
  6
Continuous
 62
     7
370
    25
100
AcDbLine
 10
131.2559172774
 20
113.3400862221
 30
0.0
 11
130.3609758878
 21
113.502261613
 31
0.0
  0
LINE
  5
F8
330
1F
100
AcDbEntity
  8
0
  6
Continuous
 62
     7
370
    25
100
AcDbLine
 10
130.3609758878
 20
113.502261613
 30
0.0
 11
130.3609758878
 21
121.9272617367
 31
0.0
  0
LINE
  5
F9
330
1F
100
AcDbEntity
  8
0
  6
Continuous
 62
     7
370
    25
100
AcDbLine
 10
131.2559172774
 20
122.0894371275
 30
0.0
 11
130.3609758878
 21
121.9272617367
 31
0.0
  0
SPLINE
  5
FA
330
1F
100
AcDbEntity
  8
0
  6
Continuous
 62
     7
370
    25
100
AcDbSpline
210
0.0
220
0.0
230
1.0
 70
     8
 71
     3
 72
    25
 73
    21
 74
     0
 42
0.000000001
 43
0.00000001
 40
0.0
 40
0.0
 40
0.0
 40
0.0
 40
0.0288821753110086
 40
0.0583636594013118
 40
0.0884647204314734
 40
0.1192044006626603
 40
0.150600580009491
 40
0.1826700399677263
 40
0.2154285269580574
 40
0.248890814337993
 40
0.361059447124065
 40
0.4984670131067773
 40
0.5822693905007604
 40
0.666112764278331
 40
0.7499972937224478
 40
0.8007709755049082
 40
0.8511237700832938
 40
0.9010896024531745
 40
0.9507031914125761
 40
1.0
 40
1.0
 40
1.0
 40
1.0
 10
126.3609751129543
 20
109.5022616748293
 30
0.0
 10
126.4237755661916
 20
109.503118158781
 30
0.0
 10
126.5506795899891
 20
109.5048488988347
 30
0.0
 10
126.7420339977005
 20
109.5189987642379
 30
0.0
 10
126.9359388103774
 20
109.5421358465588
 30
0.0
 10
127.1318395311052
 20
109.5755469987836
 30
0.0
 10
127.3291771991101
 20
109.619420820816
 30
0.0
 10
127.5273305408971
 20
109.6742160917854
 30
0.0
 10
127.7256462849082
 20
109.7402850531496
 30
0.0
 10
128.076967272418
 20
109.8782663854053
 30
0.0
 10
128.6020790427419
 20
110.1583183242486
 30
0.0
 10
129.1390708712258
 20
110.5969089266575
 30
0.0
 10
129.5511306012606
 20
111.0707690481999
 30
0.0
 10
129.8380491893131
 20
111.5024527960197
 30
0.0
 10
130.0364758765221
 20
111.9055760377833
 30
0.0
 10
130.1685617505719
 20
112.2633121985677
 30
0.0
 10
130.2541956303701
 20
112.5660646008554
 30
0.0
 10
130.3152778417219
 20
112.8745529111013
 30
0.0
 10
130.3537787850856
 20
113.1868646212525
 30
0.0
 10
130.3585814641788
 20
113.3973540351486
 30
0.0
 10
130.3609751129542
 20
113.5022616748292
 30
0.0
  0
SPLINE
  5
FB
330
1F
100
AcDbEntity
  8
0
  6
Continuous
 62
     7
370
    25
100
AcDbSpline
210
0.0
220
0.0
230
1.0
 70
     8
 71
     3
 72
    25
 73
    21
 74
     0
 42
0.000000001
 43
0.00000001
 40
0.0
 40
0.0
 40
0.0
 40
0.0
 40
0.0274788704223154
 40
0.0560416006850518
 40
0.0856947086352136
 40
0.116444016653826
 40
0.1482947438681133
 40
0.1812515840470034
 40
0.2153187716748716
 40
0.2505001382254911
 40
0.333051455250936
 40
0.5015081958163736
 40
0.5771663066143947
 40
0.648898130302521
 40
0.716747770006283
 40
0.7807674423488066
 40
0.84101941313403
 40
0.8975784849924567
 40
0.9505352047788314
 40
1.0
 40
1.0
 40
1.0
 40
1.0
 10
130.3609751129542
 20
121.9272616748293
 30
0.0
 10
130.3602336613461
 20
121.9856260838642
 30
0.0
 10
130.358721512764
 20
122.1046569921617
 30
0.0
 10
130.3462253716933
 20
122.285437986279
 30
0.0
 10
130.3253057677287
 20
122.4717012045214
 30
0.0
 10
130.2943850261837
 20
122.6628732930712
 30
0.0
 10
130.2528603815339
 20
122.8583802322977
 30
0.0
 10
130.1998601957165
 20
123.0575415844126
 30
0.0
 10
130.1346310158998
 20
123.2595598635697
 30
0.0
 10
130.0220409891649
 20
123.5530934780719
 30
0.0
 10
129.7620205981875
 20
124.0816263039006
 30
0.0
 10
129.3509412050333
 20
124.6215655635576
 30
0.0
 10
128.8666066367602
 20
125.0563849129901
 30
0.0
 10
128.5014519320807
 20
125.3157920544512
 30
0.0
 10
128.1286168629625
 20
125.5235422091008
 30
0.0
 10
127.7553693006366
 20
125.6832634767378
 30
0.0
 10
127.3880799903027
 20
125.799300729039
 30
0.0
 10
127.0318871874797
 20
125.8755078463437
 30
0.0
 10
126.691048486334
 20
125.9195129083332
 30
0.0
 10
126.4684700662361
 20
125.9247381350358
 30
0.0
 10
126.3609751129543
 20
125.9272616748293
 30
0.0
  0
LINE
  5
FC
330
1F
100
AcDbEntity
  8
0
  6
Continuous
 62
     7
370
    25
100
AcDbLine
 10
124.4011596108
 20
127.2247963701
 30
0.0
 11
124.4461015129
 21
125.9272619267
 31
0.0
  0
SPLINE
  5
FD
330
1F
100
AcDbEntity
  8
0
  6
Continuous
 62
     7
370
    25
100
AcDbSpline
210
0.0
220
0.0
230
1.0
 70
     8
 71
     3
 72
    13
 73
     9
 74
     0
 42
0.000000001
 43
0.00000001
 40
0.0
 40
0.0
 40
0.0
 40
0.0
 40
0.161854229885178
 40
0.3254858841554281
 40
0.4910085196607404
 40
0.6585318472791263
 40
0.8281616954204583
 40
0.9999999999999999
 40
0.9999999999999999
 40
0.9999999999999999
 40
0.9999999999999999
 10
124.4461018336648
 20
125.9272616748293
 30
0.0
 10
124.3868800028566
 20
125.9265027987256
 30
0.0
 10
124.267785988597
 20
125.9249767128165
 30
0.0
 10
124.0881735126445
 20
125.912482781574
 30
0.0
 10
123.9071444717304
 20
125.8922505127006
 30
0.0
 10
123.7251384779405
 20
125.8630965674912
 30
0.0
 10
123.5423542339676
 20
125.8257358568296
 30
0.0
 10
123.4217052030959
 20
125.7934921460594
 30
0.0
 10
123.3609905368849
 20
125.7772660220477
 30
0.0
  0
SPLINE
  5
FE
330
1F
100
AcDbEntity
  8
0
  6
Continuous
 62
     7
370
    25
100
AcDbSpline
210
0.0
220
0.0
230
1.0
 70
    24
 71
     3
 72
     9
 73
     5
 74
     0
 42
0.000000001
 43
0.00000001
 40
0.0
 40
0.0
 40
0.0
 40
0.0
 40
0.4907282259506175
 40
1.0
 40
1.0
 40
1.0
 40
1.0
 10
123.3610465337963
 20
125.7772616748292
 30
0.0
 10
123.3071410755658
 20
125.7772616748292
 30
0.0
 10
123.1972931895469
 20
125.7772616748292
 30
0.0
 10
123.0893507134379
 20
125.7772616748292
 30
0.0
 10
123.0343786571345
 20
125.7772616748292
 30
0.0
  0
SPLINE
  5
FF
330
1F
100
AcDbEntity
  8
0
  6
Continuous
 62
     7
370
    25
100
AcDbSpline
210
0.0
220
0.0
230
1.0
 70
     8
 71
     3
 72
    14
 73
    10
 74
     0
 42
0.000000001
 43
0.00000001
 40
0.0
 40
0.0
 40
0.0
 40
0.0
 40
0.0310276388071746
 40
0.0622853718672815
 40
0.1248003166904892
 40
0.2498289731753997
 40
0.499889260361071
 40
0.7606803621682141
 40
1.0
 40
1.0
 40
1.0
 40
1.0
 10
122.2057142616183
 20
126.6907380240601
 30
0.0
 10
122.2140042871575
 20
126.6811701795039
 30
0.0
 10
122.230645815271
 20
126.6619635373273
 30
0.0
 10
122.2638956716491
 20
126.6233749093316
 30
0.0
 10
122.3223982172496
 20
126.5558450164244
 30
0.0
 10
122.4399345110993
 20
126.4210074987009
 30
0.0
 10
122.6128620348502
 20
126.226074148967
 30
0.0
 10
122.8205095570033
 20
125.9977851251732
 30
0.0
 10
122.9643201405131
 20
125.8482154991599
 30
0.0
 10
123.0331382922424
 20
125.7766414538716
 30
0.0
  0
SPLINE
  5
100
330
1F
100
AcDbEntity
  8
0
  6
Continuous
 62
     7
370
    25
100
AcDbSpline
210
0.0
220
0.0
230
1.0
 70
     8
 71
     3
 72
    13
 73
     9
 74
     0
 42
0.000000001
 43
0.00000001
 40
0.0
 40
0.0
 40
0.0
 40
0.0
 40
0.172258782378417
 40
0.342139827159501
 40
0.5097456258302661
 40
0.6751828993623331
 40
0.8385626190354498
 40
1.0
 40
1.0
 40
1.0
 40
1.0
 10
123.3609934818645
 20
109.6522564975791
 30
0.0
 10
123.4218568715408
 20
109.6359927698786
 30
0.0
 10
123.5427435359923
 20
109.6036898073963
 30
0.0
 10
123.7258046939718
 20
109.566302152702
 30
0.0
 10
123.9079073769149
 20
109.5371692177925
 30
0.0
 10
124.0888488252293
 20
109.5169825021882
 30
0.0
 10
124.2681878289186
 20
109.5045356978888
 30
0.0
 10
124.3870340573258
 20
109.5030166546616
 30
0.0
 10
124.4461018336648
 20
109.5022616748293
 30
0.0
  0
LINE
  5
101
330
1F
100
AcDbEntity
  8
0
  6
Continuous
 62
     7
370
    25
100
AcDbLine
 10
124.4011596108
 20
108.2047269796
 30
0.0
 11
124.4461015129
 21
109.502261423
 31
0.0
  0
SPLINE
  5
102
330
1F
100
AcDbEntity
  8
0
  6
Continuous
 62
     7
370
    25
100
AcDbSpline
210
0.0
220
0.0
230
1.0
 70
     8
 71
     3
 72
    11
 73
     7
 74
     0
 42
0.000000001
 43
0.00000001
 40
0.0
 40
0.0
 40
0.0
 40
0.0
 40
0.2392845094479887
 40
0.5001120454076898
 40
0.7515010915036774
 40
1.0
 40
1.0
 40
1.0
 40
1.0
 10
123.0344068239352
 20
109.6528332472225
 30
0.0
 10
122.9655971909326
 20
109.5812375490988
 30
0.0
 10
122.8217829240412
 20
109.4316003197033
 30
0.0
 10
122.6140811912347
 20
109.202543791193
 30
0.0
 10
122.4061408795435
 20
108.9700818038444
 30
0.0
 10
122.2731726698979
 20
108.8152128124623
 30
0.0
 10
122.207072947634
 20
108.7382260097901
 30
0.0
  0
SPLINE
  5
103
330
1F
100
AcDbEntity
  8
0
  6
Continuous
 62
     7
370
    25
100
AcDbSpline
210
0.0
220
0.0
230
1.0
 70
    24
 71
     3
 72
     9
 73
     5
 74
     0
 42
0.000000001
 43
0.00000001
 40
0.0
 40
0.0
 40
0.0
 40
0.0
 40
0.5090669353869915
 40
1.0
 40
1.0
 40
1.0
 40
1.0
 10
123.0363549463508
 20
109.6522616748292
 30
0.0
 10
123.0909828090579
 20
109.6522616748292
 30
0.0
 10
123.1982925927225
 20
109.6522616748292
 30
0.0
 10
123.3074741009669
 20
109.6522616748292
 30
0.0
 10
123.3610749134084
 20
109.6522616748292
 30
0.0
  0
LINE
  5
104
330
1F
100
AcDbEntity
  8
0
  6
Continuous
 62
     7
370
    25
100
AcDbLine
 10
116.8125681842
 20
126.6948719625
 30
0.0
 11
116.7870722974
 21
125.7972856168
 31
0.0
  0
LINE
  5
105
330
1F
100
AcDbEntity
  8
0
  6
Continuous
 62
     7
370
    25
100
AcDbLine
 10
123.0343766773
 20
125.7772612501
 30
0.0
 11
116.8609746063
 21
125.7772612501
 31
0.0
  0
SPLINE
  5
106
330
1F
100
AcDbEntity
  8
0
  6
Continuous
 62
     7
370
    25
100
AcDbSpline
210
0.0
220
0.0
230
1.0
 70
     8
 71
     3
 72
     8
 73
     4
 74
     0
 42
0.000000001
 43
0.00000001
 40
0.0
 40
0.0
 40
0.0
 40
0.0
 40
1.0
 40
1.0
 40
1.0
 40
1.0
 10
116.8609751130084
 20
125.777261674814
 30
0.0
 10
116.8364110835798
 20
125.7841850734381
 30
0.0
 10
116.8117807924816
 20
125.7908733772558
 30
0.0
 10
116.7870887513696
 20
125.7973253611366
 30
0.0
  0
LINE
  5
107
330
1F
100
AcDbEntity
  8
0
  6
Continuous
 62
     7
370
    25
100
AcDbLine
 10
117.625338983
 20
109.5073389937
 30
0.0
 11
117.7974958235
 21
108.7351692025
 31
0.0
  0
SPLINE
  5
108
330
1F
100
AcDbEntity
  8
0
  6
Continuous
 62
     7
370
    25
100
AcDbSpline
210
0.0
220
0.0
230
1.0
 70
     8
 71
     3
 72
     8
 73
     4
 74
     0
 42
0.000000001
 43
0.00000001
 40
0.0
 40
0.0
 40
0.0
 40
0.0
 40
1.0
 40
1.0
 40
1.0
 40
1.0
 10
117.6234029563188
 20
109.507949606652
 30
0.0
 10
117.6536044376386
 20
109.5554305037702
 30
0.0
 10
117.6828038224909
 20
109.6035488073435
 30
0.0
 10
117.7109751129543
 20
109.6522616748293
 30
0.0
  0
LINE
  5
109
330
1F
100
AcDbEntity
  8
0
  6
Continuous
 62
     7
370
    25
100
AcDbLine
 10
117.7109759564
 20
109.6522620995
 30
0.0
 11
123.0355482811
 21
109.6522620995
 31
0.0
  0
LINE
  5
10A
330
1F
100
AcDbEntity
  8
0
  6
Continuous
 62
     7
370
    25
100
AcDbLine
 10
126.3609752322
 20
125.9272619267
 30
0.0
 11
124.4461015129
 21
125.9272619267
 31
0.0
  0
LINE
  5
10B
330
1F
100
AcDbEntity
  8
0
  6
Continuous
 62
     7
370
    25
100
AcDbLine
 10
124.4461015129
 20
109.502261423
 30
0.0
 11
126.3609752322
 21
109.502261423
 31
0.0
  0
SPLINE
  5
10C
330
1F
100
AcDbEntity
  8
0
  6
Continuous
 62
     7
370
    25
100
AcDbSpline
210
0.0
220
0.0
230
1.0
 70
     8
 71
     3
 72
    23
 73
    19
 74
     0
 42
0.000000001
 43
0.00000001
 40
0.0
 40
0.0
 40
0.0
 40
0.0
 40
0.0449850911516383
 40
0.0909520670767777
 40
0.1379394291255006
 40
0.1859832248910951
 40
0.2351171761689533
 40
0.2853728096402591
 40
0.3367795876576951
 40
0.3893650370792399
 40
0.4431548745925064
 40
0.498173127394291
 40
0.5575107590849617
 40
0.6265492281305397
 40
0.7053073138942775
 40
0.7937970253739629
 40
0.8920262115920568
 40
1.0
 40
1.0
 40
1.0
 40
1.0
 10
114.2483180768041
 20
107.6547616748292
 30
0.0
 10
114.311161827776
 20
107.6556194781484
 30
0.0
 10
114.4382210135511
 20
107.657353807968
 30
0.0
 10
114.6298772462914
 20
107.67154094317
 30
0.0
 10
114.8242445068925
 20
107.6947664263281
 30
0.0
 10
115.0207612151661
 20
107.7283451666732
 30
0.0
 10
115.218858818883
 20
107.7724891399027
 30
0.0
 10
115.4179067908451
 20
107.8276840874293
 30
0.0
 10
115.617225796724
 20
107.8943009498479
 30
0.0
 10
115.8160914935604
 20
107.9727016266614
 30
0.0
 10
116.0137066329511
 20
108.0631857176079
 30
0.0
 10
116.2129531000723
 20
108.1679775823865
 30
0.0
 10
116.4217815797222
 20
108.2935425188249
 30
0.0
 10
116.6465926758519
 20
108.4490565173421
 30
0.0
 10
116.8883594047836
 20
108.6436256324991
 30
0.0
 10
117.1395741135483
 20
108.8831152999373
 30
0.0
 10
117.3945725978
 20
109.1709557097457
 30
0.0
 10
117.5449447267067
 20
109.3924241195317
 30
0.0
 10
117.6236838838817
 20
109.5083913273795
 30
0.0
  0
SPLINE
  5
10D
330
1F
100
AcDbEntity
  8
0
  6
Continuous
 62
     7
370
    25
100
AcDbSpline
210
0.0
220
0.0
230
1.0
 70
     8
 71
     3
 72
    13
 73
     9
 74
     0
 42
0.000000001
 43
0.00000001
 40
0.0
 40
0.0
 40
0.0
 40
0.0
 40
0.170632084649598
 40
0.3395984165075754
 40
0.5069574111411415
 40
0.6727691830249297
 40
0.8370955447763889
 40
1.0
 40
1.0
 40
1.0
 40
1.0
 10
116.7870818750946
 20
125.7973271578878
 30
0.0
 10
116.7310279448767
 20
125.8112299040505
 30
0.0
 10
116.6194672968304
 20
125.8388996743147
 30
0.0
 10
116.4502215644764
 20
125.8711551912286
 30
0.0
 10
116.281076475564
 20
125.8964926515466
 30
0.0
 10
116.1121412135783
 20
125.9142055272246
 30
0.0
 10
115.9438129813098
 20
125.9252295841842
 30
0.0
 10
115.8316741640881
 20
125.9265862763458
 30
0.0
 10
115.7758483922437
 20
125.9272616748293
 30
0.0
  0
SPLINE
  5
10E
330
1F
100
AcDbEntity
  8
0
  6
Continuous
 62
     7
370
    25
100
AcDbSpline
210
0.0
220
0.0
230
1.0
 70
     8
 71
     3
 72
     8
 73
     4
 74
     0
 42
0.000000001
 43
0.00000001
 40
0.0
 40
0.0
 40
0.0
 40
0.0
 40
1.0
 40
1.0
 40
1.0
 40
1.0
 10
108.9973152913867
 20
126.454763418759
 30
0.0
 10
109.3018685650922
 20
126.5809527653967
 30
0.0
 10
109.6064218387978
 20
126.7083975216585
 30
0.0
 10
109.9109751125033
 20
126.8370883862053
 30
0.0
  0
LINE
  5
10F
330
1F
100
AcDbEntity
  8
0
  6
Continuous
 62
     7
370
    25
100
AcDbLine
 10
115.7758496964
 20
125.9272619267
 30
0.0
 11
109.910976168
 21
125.9272619267
 31
0.0
  0
LINE
  5
110
330
1F
100
AcDbEntity
  8
0
  6
Continuous
 62
     7
370
    25
100
AcDbLine
 10
109.910976168
 20
125.9272619267
 30
0.0
 11
108.9973151946
 21
126.4547630329
 31
0.0
  0
SPLINE
  5
111
330
1F
100
AcDbEntity
  8
0
  6
Continuous
 62
     7
370
    25
100
AcDbSpline
210
0.0
220
0.0
230
1.0
 70
    24
 71
     3
 72
     8
 73
     4
 74
     0
 42
0.000000001
 43
0.00000001
 40
0.0
 40
0.0
 40
0.0
 40
0.0
 40
1.0
 40
1.0
 40
1.0
 40
1.0
 10
108.4109751129543
 20
126.7932870786137
 30
0.0
 10
108.6055222454882
 20
126.6809652392752
 30
0.0
 10
108.8009832657284
 20
126.5681157666234
 30
0.0
 10
108.9973152913867
 20
126.454763418759
 30
0.0
  0
LINE
  5
112
330
1F
100
AcDbEntity
  8
0
  6
Continuous
 62
     7
370
    25
100
AcDbLine
 10
108.4109768534
 20
126.7932866816
 30
0.0
 11
108.4109768534
 21
139.9178569321
 31
0.0
  0
LINE
  5
113
330
1F
100
AcDbEntity
  8
0
  6
Continuous
 62
     7
370
    25
100
AcDbLine
 10
109.0508401657
 20
107.1581634809
 30
0.0
 11
109.910976168
 21
107.6547614415
 31
0.0
  0
LINE
  5
114
330
1F
100
AcDbEntity
  8
0
  6
Continuous
 62
     7
370
    25
100
AcDbLine
 10
109.910976168
 20
107.6547614415
 30
0.0
 11
114.2483167613
 21
107.6547614415
 31
0.0
  0
SPLINE
  5
115
330
1F
100
AcDbEntity
  8
0
  6
Continuous
 62
     7
370
    25
100
AcDbSpline
210
0.0
220
0.0
230
1.0
 70
     8
 71
     3
 72
     8
 73
     4
 74
     0
 42
0.000000001
 43
0.00000001
 40
0.0
 40
0.0
 40
0.0
 40
0.0
 40
1.0
 40
1.0
 40
1.0
 40
1.0
 10
109.910975112714
 20
106.8097835343117
 30
0.0
 10
109.6242638358415
 20
106.9266844725268
 30
0.0
 10
109.337552558969
 20
107.042812493593
 30
0.0
 10
109.0508412820965
 20
107.1581631760554
 30
0.0
  0
SPLINE
  5
116
330
1F
100
AcDbEntity
  8
0
  6
Continuous
 62
     7
370
    25
100
AcDbSpline
210
0.0
220
0.0
230
1.0
 70
     8
 71
     3
 72
     8
 73
     4
 74
     0
 42
0.000000001
 43
0.00000001
 40
0.0
 40
0.0
 40
0.0
 40
0.0
 40
1.0
 40
1.0
 40
1.0
 40
1.0
 10
161.5951729175243
 20
88.17801434186384
 30
0.0
 10
161.2597622921005
 20
88.83628139417307
 30
0.0
 10
160.9279199729907
 20
89.49533783215446
 30
0.0
 10
160.6016862380068
 20
90.15527820357572
 30
0.0
  0
LWPOLYLINE
  5
117
330
1F
100
AcDbEntity
  8
0
  6
Continuous
 62
     7
370
    25
100
AcDbPolyline
 90
       11
 70
   128
 43
0.0
 10
160.6016857812
 20
90.155278251
 10
161.3245588059
 20
90.29825303
 10
161.9830308745
 20
90.5048483167
 10
162.554943029
 20
90.7681108568
 10
163.0210457632
 20
91.07918191
 10
163.3656537423
 20
91.4275915478
 10
163.5771701375
 20
91.8016144191
 10
163.6484749878
 20
92.1886627678
 10
163.5771701375
 20
92.5757111166
 10
163.3656537423
 20
92.9497339879
 10
163.3517900744
 20
92.9675054852
  0
LINE
  5
118
330
1F
100
AcDbEntity
  8
0
  6
Continuous
 62
     7
370
    25
100
AcDbLine
 10
108.4109768534
 20
95.5116664175
 30
0.0
 11
108.4109768534
 21
106.7887366865
 31
0.0
  0
SPLINE
  5
119
330
1F
100
AcDbEntity
  8
0
  6
Continuous
 62
     7
370
    25
100
AcDbSpline
210
0.0
220
0.0
230
1.0
 70
    24
 71
     3
 72
     8
 73
     4
 74
     0
 42
0.000000001
 43
0.00000001
 40
0.0
 40
0.0
 40
0.0
 40
0.0
 40
1.0
 40
1.0
 40
1.0
 40
1.0
 10
109.0508412821076
 20
107.1581631760508
 30
0.0
 10
108.8361757232679
 20
107.034225957869
 30
0.0
 10
108.6228610149297
 20
106.9110686535878
 30
0.0
 10
108.4109751129542
 20
106.7887362710448
 30
0.0
  0
ARC
  5
11A
330
1F
100
AcDbEntity
  8
0
  6
Continuous
 62
     7
370
    25
100
AcDbCircle
 10
156.5915591092
 20
92.1819117504
 30
0.0
 40
1.386778252398815
100
AcDbArc
 50
117.5067796727
 51
245.5898588898
  0
SPLINE
  5
11B
330
1F
100
AcDbEntity
  8
0
  6
Continuous
 62
     7
370
    25
100
AcDbSpline
210
0.0
220
0.0
230
1.0
 70
     8
 71
     3
 72
     8
 73
     4
 74
     0
 42
0.000000001
 43
0.00000001
 40
0.0
 40
0.0
 40
0.0
 40
0.0
 40
1.0
 40
1.0
 40
1.0
 40
1.0
 10
156.0184514468062
 20
90.91909708425172
 30
0.0
 10
155.6619981818752
 20
90.17493311106719
 30
0.0
 10
155.2966646891138
 20
89.43219388517763
 30
0.0
 10
154.9267773083842
 20
88.69076276028103
 30
0.0
  0
LINE
  5
11C
330
1F
100
AcDbEntity
  8
0
  6
Continuous
 62
     7
370
    25
100
AcDbLine
 10
156.3859749848
 20
143.8094646786
 30
0.0
 11
156.3859749848
 21
143.7247012858
 31
0.0
  0
SPLINE
  5
11D
330
1F
100
AcDbEntity
  8
0
  6
Continuous
 62
     7
370
    25
100
AcDbSpline
210
0.0
220
0.0
230
1.0
 70
     8
 71
     3
 72
    16
 73
    12
 74
     0
 42
0.000000001
 43
0.00000001
 40
0.0
 40
0.0
 40
0.0
 40
0.0
 40
0.1250000000000001
 40
0.1250000000000001
 40
0.2500000000000003
 40
0.2500000000000003
 40
0.5000000000000002
 40
0.5000000000000002
 40
0.7500000000000001
 40
0.7500000000000001
 40
1.0
 40
1.0
 40
1.0
 40
1.0
 10
156.3859751129542
 20
143.7247007006196
 30
0.0
 10
156.3859751129542
 20
143.6553683519745
 30
0.0
 10
156.3957476765939
 20
143.5933718149718
 30
0.0
 10
156.4299437219943
 20
143.4876899369814
 30
0.0
 10
156.4541289137052
 20
143.4435675020626
 30
0.0
 10
156.5418455778015
 20
143.3311608758218
 30
0.0
 10
156.6185557436509
 20
143.2831583696636
 30
0.0
 10
156.7976378438918
 20
143.2183326069509
 30
0.0
 10
156.8985206135117
 20
143.2024293354887
 30
0.0
 10
157.1273321117747
 20
143.2009245951181
 30
0.0
 10
157.2516297202096
 20
143.2155497718938
 30
0.0
 10
157.3859751129543
 20
143.2503366827324
 30
0.0
  0
SPLINE
  5
11E
330
1F
100
AcDbEntity
  8
0
  6
Continuous
 62
     7
370
    25
100
AcDbSpline
210
0.0
220
0.0
230
1.0
 70
     8
 71
     3
 72
    10
 73
     6
 74
     0
 42
0.000000001
 43
0.00000001
 40
0.0
 40
0.0
 40
0.0
 40
0.0
 40
0.5
 40
0.5
 40
1.0
 40
1.0
 40
1.0
 40
1.0
 10
157.3859751129542
 20
143.2503366827324
 30
0.0
 10
157.64879462731
 20
143.3183902186651
 30
0.0
 10
157.9271474919177
 20
143.3707038357169
 30
0.0
 10
158.5141440793031
 20
143.4474072873003
 30
0.0
 10
158.8235277691814
 20
143.4714346615948
 30
0.0
 10
159.1359751129542
 20
143.4802644979929
 30
0.0
  0
SPLINE
  5
11F
330
1F
100
AcDbEntity
  8
0
  6
Continuous
 62
     7
370
    25
100
AcDbSpline
210
0.0
220
0.0
230
1.0
 70
     8
 71
     3
 72
    14
 73
    10
 74
     0
 42
0.000000001
 43
0.00000001
 40
0.0
 40
0.0
 40
0.0
 40
0.0
 40
0.25
 40
0.25
 40
0.5
 40
0.5
 40
0.75
 40
0.75
 40
1.0
 40
1.0
 40
1.0
 40
1.0
 10
159.1359751129542
 20
143.4802644979929
 30
0.0
 10
159.2692045639776
 20
143.4840295940303
 30
0.0
 10
159.4009059265878
 20
143.508291610868
 30
0.0
 10
159.6439835848049
 20
143.5945229615114
 30
0.0
 10
159.7548895253535
 20
143.6566791216833
 30
0.0
 10
159.9375865984311
 20
143.8094853486708
 30
0.0
 10
160.0109741279128
 20
143.901471056729
 30
0.0
 10
160.109808406831
 20
144.1039403938078
 30
0.0
 10
160.1359751129543
 20
144.2157016221659
 30
0.0
 10
160.1359751129542
 20
144.3302555896919
 30
0.0
  0
LINE
  5
120
330
1F
100
AcDbEntity
  8
0
  6
Continuous
 62
     7
370
    25
100
AcDbLine
 10
160.1359751338
 20
144.3302546744
 30
0.0
 11
160.1359751338
 21
144.4154632394
 31
0.0
  0
SPLINE
  5
121
330
1F
100
AcDbEntity
  8
0
  6
Continuous
 62
     7
370
    25
100
AcDbSpline
210
0.0
220
0.0
230
1.0
 70
     8
 71
     3
 72
    10
 73
     6
 74
     0
 42
0.000000001
 43
0.00000001
 40
0.0
 40
0.0
 40
0.0
 40
0.0
 40
0.5
 40
0.5
 40
1.0
 40
1.0
 40
1.0
 40
1.0
 10
160.1359751129543
 20
144.4154641544441
 30
0.0
 10
160.3871680028258
 20
144.7759703772101
 30
0.0
 10
160.6344373145276
 20
145.1200612571194
 30
0.0
 10
161.1210586658384
 20
145.7715226721752
 30
0.0
 10
161.3604419735551
 20
146.0791081119795
 30
0.0
 10
161.5951729175242
 20
146.3624990418875
 30
0.0
  0
SPLINE
  5
122
330
1F
100
AcDbEntity
  8
0
  6
Continuous
 62
     7
370
    25
100
AcDbSpline
210
0.0
220
0.0
230
1.0
 70
     8
 71
     3
 72
     8
 73
     4
 74
     0
 42
0.000000001
 43
0.00000001
 40
0.0
 40
0.0
 40
0.0
 40
0.0
 40
1.0
 40
1.0
 40
1.0
 40
1.0
 10
160.6016862380068
 20
90.15527820357572
 30
0.0
 10
160.4476037707828
 20
90.37142510497365
 30
0.0
 10
160.2923771489384
 20
90.59307781429294
 30
0.0
 10
160.1359751129542
 20
90.82000805913137
 30
0.0
  0
LINE
  5
123
330
1F
100
AcDbEntity
  8
0
  6
Continuous
 62
     7
370
    25
100
AcDbLine
 10
160.1359751338
 20
90.820007876
 30
0.0
 11
160.1359751338
 21
90.9054250572
 31
0.0
  0
SPLINE
  5
124
330
1F
100
AcDbEntity
  8
0
  6
Continuous
 62
     7
370
    25
100
AcDbSpline
210
0.0
220
0.0
230
1.0
 70
     8
 71
     3
 72
    14
 73
    10
 74
     0
 42
0.000000001
 43
0.00000001
 40
0.0
 40
0.0
 40
0.0
 40
0.0
 40
0.25
 40
0.25
 40
0.5
 40
0.5
 40
0.75
 40
0.75
 40
1.0
 40
1.0
 40
1.0
 40
1.0
 10
160.1359751129542
 20
90.90542412842878
 30
0.0
 10
160.1359751129542
 20
91.01955003262614
 30
0.0
 10
160.1099349561972
 20
91.13225744620986
 30
0.0
 10
160.0111437729959
 20
91.33645321002544
 30
0.0
 10
159.9384361255789
 20
91.42885740122745
 30
0.0
 10
159.7546643477123
 20
91.58441012953244
 30
0.0
 10
159.6455943170202
 20
91.64641959616493
 30
0.0
 10
159.3999699685615
 20
91.73430970489024
 30
0.0
 10
159.2694148429741
 20
91.75811795731224
 30
0.0
 10
159.1359751129542
 20
91.76130252294332
 30
0.0
  0
SPLINE
  5
125
330
1F
100
AcDbEntity
  8
0
  6
Continuous
 62
     7
370
    25
100
AcDbSpline
210
0.0
220
0.0
230
1.0
 70
     8
 71
     3
 72
    10
 73
     6
 74
     0
 42
0.000000001
 43
0.00000001
 40
0.0
 40
0.0
 40
0.0
 40
0.0
 40
0.5
 40
0.5
 40
1.0
 40
1.0
 40
1.0
 40
1.0
 10
159.1359751129542
 20
91.76130252294331
 30
0.0
 10
158.8279952543264
 20
91.76865252337201
 30
0.0
 10
158.5279752442029
 20
91.78803536013467
 30
0.0
 10
157.9431639002085
 20
91.85084881556561
 30
0.0
 10
157.6565120938607
 20
91.89478935368648
 30
0.0
 10
157.3859751129542
 20
91.95118739284072
 30
0.0
  0
SPLINE
  5
126
330
1F
100
AcDbEntity
  8
0
  6
Continuous
 62
     7
370
    25
100
AcDbSpline
210
0.0
220
0.0
230
1.0
 70
     8
 71
     3
 72
    16
 73
    12
 74
     0
 42
0.000000001
 43
0.00000001
 40
0.0
 40
0.0
 40
0.0
 40
0.0
 40
0.2499999999999992
 40
0.2499999999999992
 40
0.4999999999999984
 40
0.4999999999999984
 40
0.7499999999999977
 40
0.7499999999999977
 40
0.8749999999999988
 40
0.8749999999999988
 40
1.0
 40
1.0
 40
1.0
 40
1.0
 10
157.3859751129542
 20
91.95118739284072
 30
0.0
 10
157.2521979442089
 20
91.97907552102033
 30
0.0
 10
157.1286194543706
 20
91.9861856342758
 30
0.0
 10
156.8975595070806
 20
91.96710395384808
 30
0.0
 10
156.7932421840393
 20
91.94076255389014
 30
0.0
 10
156.6114149808698
 20
91.85255133550967
 30
0.0
 10
156.5346502144736
 20
91.7915623885214
 30
0.0
 10
156.4491445723436
 20
91.66313363645871
 30
0.0
 10
156.4263939224435
 20
91.61499638282207
 30
0.0
 10
156.3946636482175
 20
91.50563145790963
 30
0.0
 10
156.3859751129542
 20
91.4441976053619
 30
0.0
 10
156.3859751129542
 20
91.3787202811846
 30
0.0
  0
LINE
  5
127
330
1F
100
AcDbEntity
  8
0
  6
Continuous
 62
     7
370
    25
100
AcDbLine
 10
156.3859749848
 20
91.3787194644
 30
0.0
 11
156.3859749848
 21
91.2937511806
 31
0.0
  0
SPLINE
  5
128
330
1F
100
AcDbEntity
  8
0
  6
Continuous
 62
     7
370
    25
100
AcDbSpline
210
0.0
220
0.0
230
1.0
 70
     8
 71
     3
 72
     8
 73
     4
 74
     0
 42
0.000000001
 43
0.00000001
 40
0.0
 40
0.0
 40
0.0
 40
0.0
 40
1.0
 40
1.0
 40
1.0
 40
1.0
 10
156.3859751129544
 20
91.29375115443314
 30
0.0
 10
156.2592150999251
 20
91.15568084428608
 30
0.0
 10
156.1363626861935
 20
91.0296017934525
 30
0.0
 10
156.0184514468062
 20
90.91909708425172
 30
0.0
  0
LINE
  5
129
330
1F
100
AcDbEntity
  8
0
  6
Continuous
 62
     7
370
    25
100
AcDbLine
 10
109.0261712933
 20
126.4381026034
 30
0.0
 11
109.1626398528
 21
126.3593127136
 31
0.0
  0
LINE
  5
12A
330
1F
100
AcDbEntity
  8
0
  6
Continuous
 62
     7
370
    25
100
AcDbLine
 10
109.1626398528
 20
107.2227106546
 30
0.0
 11
109.0874187911
 21
107.1792802889
 31
0.0
  0
LINE
  5
12B
330
1F
100
AcDbEntity
  8
0
  6
Continuous
 62
     7
370
    25
100
AcDbLine
 10
160.1359751338
 20
144.4154632394
 30
0.0
 11
160.1359751338
 21
146.6623571817
 31
0.0
  0
LINE
  5
12C
330
1F
100
AcDbEntity
  8
0
  6
Continuous
 62
     7
370
    25
100
AcDbLine
 10
156.3859749848
 20
88.7671661679
 30
0.0
 11
156.3859749848
 21
91.2937511806
 31
0.0
  0
LINE
  5
12D
330
1F
100
AcDbEntity
  8
0
  6
Continuous
 62
     7
370
    25
100
AcDbLine
 10
160.1359751338
 20
88.7671661679
 30
0.0
 11
160.1359751338
 21
90.820007876
 31
0.0
  0
LINE
  5
12E
330
1F
100
AcDbEntity
  8
0
  6
Continuous
 62
     7
370
    25
100
AcDbLine
 10
190.1609748865
 20
125.2147615072
 30
0.0
 11
190.1609748865
 21
110.2147618425
 31
0.0
  0
LINE
  5
12F
330
1F
100
AcDbEntity
  8
0
  6
Continuous
 62
     7
370
    25
100
AcDbLine
 10
117.2395479197
 20
109.0617542271
 30
0.0
 11
117.7109759564
 21
109.6522620995
 31
0.0
  0
LINE
  5
130
330
1F
100
AcDbEntity
  8
0
  6
Continuous
 62
     7
370
    25
100
AcDbLine
 10
122.9005307222
 20
125.7772612501
 30
0.0
 11
122.7327045316
 21
125.7772612501
 31
0.0
  0
LINE
  5
131
330
1F
100
AcDbEntity
  8
0
  6
Continuous
 62
     7
370
    25
100
AcDbLine
 10
122.7331962699
 20
109.6522620995
 30
0.0
 11
122.9025069887
 21
109.6522620995
 31
0.0
  0
DIMENSION
  5
132
330
1F
100
AcDbEntity
  8
VERMASSUNG
100
AcDbDimension
  2
_D
 10
218.360975113
 20
109.7147616748
 30
0.0
 11
218.360975113
 21
117.7147616748
 31
0.0
 70
   160
  1
%%c<>
 71
     2
 42
-1.0
  3
SLDDIMSTYLE0
100
AcDbAlignedDimension
 13
201.360975113
 23
125.7147616748
 33
0.0
 14
201.360975113
 24
109.7147616748
 34
0.0
 50
90.0
100
AcDbRotatedDimension
  0
DIMENSION
  5
13E
330
1F
100
AcDbEntity
  8
VERMASSUNG
100
AcDbDimension
  2
_D_1
 10
183.4524261704
 20
125.7147616748
 30
0.0
 11
183.4524261704
 21
134.3508846115
 31
0.0
 70
   160
  1
%%c<>
 71
     2
 42
-1.0
  3
SLDDIMSTYLE0
100
AcDbAlignedDimension
 13
189.660975113
 23
109.7147616748
 33
0.0
 14
189.660975113
 24
125.7147616748
 34
0.0
 50
90.0
100
AcDbRotatedDimension
  0
DIMENSION
  5
148
330
1F
100
AcDbEntity
  8
VERMASSUNG
100
AcDbDimension
  2
_D_2
 10
208.360975113
 20
153.9811419483
 30
0.0
 11
187.360975113
 21
153.9811419483
 31
0.0
 70
   160
  1
<>
 71
     2
 42
-1.0
  3
SLDDIMSTYLE0
100
AcDbAlignedDimension
 13
166.360975113
 23
148.1897616748
 33
0.0
 14
208.360975113
 24
122.9468124824
 34
0.0
100
AcDbRotatedDimension
  0
DIMENSION
  5
152
330
1F
100
AcDbEntity
  8
VERMASSUNG
100
AcDbDimension
  2
_D_3
 10
148.360975113
 20
161.6473314899
 30
0.0
 11
178.360975113
 21
161.6473314899
 31
0.0
 70
   160
  1
<>
 71
     2
 42
-1.0
  3
SLDDIMSTYLE0
100
AcDbAlignedDimension
 13
208.360975113
 23
122.9468124824
 33
0.0
 14
148.360975113
 24
148.9897616748
 34
0.0
100
AcDbRotatedDimension
  0
DIMENSION
  5
15C
330
1F
100
AcDbEntity
  8
VERMASSUNG
100
AcDbDimension
  2
_D_4
 10
208.360975113
 20
169.0765660821
 30
0.0
 11
158.385975113
 21
169.0765660821
 31
0.0
 70
   160
  1
<>
 71
     2
 42
-1.0
  3
SLDDIMSTYLE0
100
AcDbAlignedDimension
 13
108.410975113
 23
139.9178563986
 33
0.0
 14
208.360975113
 24
122.9468124824
 34
0.0
100
AcDbRotatedDimension
  0
DIMENSION
  5
166
330
1F
100
AcDbEntity
  8
VERMASSUNG
100
AcDbDimension
  2
_D_5
 10
98.410950113
 20
149.1897616748
 30
0.0
 11
98.410950113
 21
117.7147616748
 31
0.0
 70
   160
  1
KM%%c<> XMZ
 71
     2
 42
-1.0
  3
SLDDIMSTYLE1
100
AcDbAlignedDimension
 13
148.560975113
 23
86.2397616748
 33
0.0
 14
148.560975113
 24
149.1897616748
 34
0.0
 50
90.0
100
AcDbRotatedDimension
  0
LINE
  5
174
330
1F
100
AcDbEntity
  8
VERMASSUNG
  6
CENTERX2
370
    18
100
AcDbLine
 10
210.360975113
 20
117.7147616748
 30
0.0
 11
106.410975113
 21
117.7147616748
 31
0.0
  0
LINE
  5
175
330
1F
100
AcDbEntity
  8
0
  6
Continuous
 62
     7
370
    25
100
AcDbLine
 10
240.0452895281
 20
36.4480618541
 30
0.0
 11
243.8283116251
 21
34.2641696829
 31
0.0
  0
LINE
  5
176
330
1F
100
AcDbEntity
  8
0
  6
Continuous
 62
     7
370
    25
100
AcDbLine
 10
247.8279866334
 20
41.1925605676
 30
0.0
 11
244.0449645364
 21
43.3764527388
 31
0.0
  0
LINE
  5
177
330
1F
100
AcDbEntity
  8
0
  6
Continuous
 62
     7
370
    25
100
AcDbLine
 10
242.0446673333
 20
43.1781549403
 30
0.0
 11
241.7618710712
 21
43.014846673
 31
0.0
  0
LINE
  5
178
330
1F
100
AcDbEntity
  8
0
  6
Continuous
 62
     7
370
    25
100
AcDbLine
 10
239.2167004317
 20
38.6060040654
 30
0.0
 11
239.2166997732
 21
38.2794409952
 31
0.0
  0
LINE
  5
179
330
1F
100
AcDbEntity
  8
0
  6
Continuous
 62
     7
370
    25
100
AcDbLine
 10
248.6565752359
 20
39.1570798403
 30
0.0
 11
248.6565763884
 21
39.3611814265
 31
0.0
  0
SPLINE
  5
17A
330
1F
100
AcDbEntity
  8
0
  6
Continuous
 62
     7
370
    25
100
AcDbSpline
210
0.0
220
0.0
230
1.0
 70
     8
 71
     3
 72
    21
 73
    17
 74
     0
 42
0.000000001
 43
0.00000001
 40
0.0
 40
0.0
 40
0.0
 40
0.0
 40
0.0716360047463215
 40
0.1443913822303734
 40
0.2175744613305941
 40
0.2911114611197516
 40
0.3649045112314897
 40
0.4388583192928929
 40
0.5128951516119473
 40
0.5869565293666987
 40
0.6610008865962747
 40
0.7350119325619396
 40
0.8089829863197191
 40
0.8829135371128096
 40
0.9568069946523521
 40
1.0
 40
1.0
 40
1.0
 40
1.0
 10
225.2857461891041
 20
32.02808567486277
 30
0.0
 10
225.5402404101707
 20
32.01035158180585
 30
0.0
 10
226.0532055382453
 20
31.97460628559399
 30
0.0
 10
226.8582899687829
 20
32.03086747998348
 30
0.0
 10
227.6880218731134
 20
32.1677562014388
 30
0.0
 10
228.5375837345447
 20
32.39282755840353
 30
0.0
 10
229.4008021290039
 20
32.70262226624489
 30
0.0
 10
230.2722931624874
 20
33.09574569022991
 30
0.0
 10
231.1464404089447
 20
33.56938382429248
 30
0.0
 10
232.0177903267264
 20
34.1203802851871
 30
0.0
 10
232.8810946044689
 20
34.74500629494333
 30
0.0
 10
233.7311142898385
 20
35.43943058751061
 30
0.0
 10
234.5634578313247
 20
36.19856612684723
 30
0.0
 10
235.3713732157233
 20
37.02048849045513
 30
0.0
 10
236.048770722169
 20
37.76969632658559
 30
0.0
 10
236.4417087867326
 20
38.26278508884045
 30
0.0
 10
236.5866629983936
 20
38.44468472966792
 30
0.0
  0
SPLINE
  5
17B
330
1F
100
AcDbEntity
  8
0
  6
Continuous
 62
     7
370
    25
100
AcDbSpline
210
0.0
220
0.0
230
1.0
 70
     8
 71
     3
 72
    23
 73
    19
 74
     0
 42
0.000000001
 43
0.00000001
 40
0.0
 40
0.0
 40
0.0
 40
0.0
 40
0.0512967661470291
 40
0.1181621096828888
 40
0.1850623621665488
 40
0.2520042955895086
 40
0.3189934518270063
 40
0.3860331611848649
 40
0.4531228947687991
 40
0.520255843997459
 40
0.5874154313874398
 40
0.6545574016081611
 40
0.7216245531199715
 40
0.788537896436546
 40
0.8552010030560956
 40
0.921516005162734
 40
0.9874119544423299
 40
1.0
 40
1.0
 40
1.0
 40
1.0
 10
240.5879313551476
 20
45.37215549921202
 30
0.0
 10
240.6972020737203
 20
45.65650887586492
 30
0.0
 10
240.9489071928328
 20
46.31151692811627
 30
0.0
 10
241.2726117047579
 20
47.34004549259937
 30
0.0
 10
241.5682221301927
 20
48.4491477563265
 30
0.0
 10
241.7977257027458
 20
49.54683825934106
 30
0.0
 10
241.9619245835921
 20
50.62653876060777
 30
0.0
 10
242.0589084252639
 20
51.68204352721285
 30
0.0
 10
242.0879045960031
 20
52.70718491009771
 30
0.0
 10
242.0482464488646
 20
53.69591917100715
 30
0.0
 10
241.9396902631823
 20
54.64225135204079
 30
0.0
 10
241.762346298644
 20
55.5401865424713
 30
0.0
 10
241.5169941084303
 20
56.38400305373541
 30
0.0
 10
241.2044159011298
 20
57.16732025300067
 30
0.0
 10
240.8283127691415
 20
57.88697201227806
 30
0.0
 10
240.3850611532976
 20
58.52907379385969
 30
0.0
 10
240.0311237320197
 20
58.96314259883036
 30
0.0
 10
239.8091232557827
 20
59.15795903642449
 30
0.0
 10
239.7735166061149
 20
59.18920563895666
 30
0.0
  0
SPLINE
  5
17C
330
1F
100
AcDbEntity
  8
0
  6
Continuous
 62
     7
370
    25
100
AcDbSpline
210
0.0
220
0.0
230
1.0
 70
     8
 71
     3
 72
    10
 73
     6
 74
     0
 42
0.000000001
 43
0.00000001
 40
0.0
 40
0.0
 40
0.0
 40
0.0
 40
0.2858607550968715
 40
0.993362110359549
 40
0.9999999999999999
 40
0.9999999999999999
 40
0.9999999999999999
 40
0.9999999999999999
 10
224.2493387206085
 20
32.2338257404667
 30
0.0
 10
224.3443022747445
 20
32.204863537275
 30
0.0
 10
224.67429929204
 20
32.10422028782506
 30
0.0
 10
225.0235646277389
 20
32.04000285927484
 30
0.0
 10
225.283331667074
 20
32.02819542439722
 30
0.0
 10
225.2857461891041
 20
32.02808567486277
 30
0.0
  0
LINE
  5
17D
330
1F
100
AcDbEntity
  8
0
  6
Continuous
 62
     7
370
    25
100
AcDbLine
 10
221.6026068547
 20
33.5418652023
 30
0.0
 11
222.9340192137
 21
32.7732572077
 31
0.0
  0
LINE
  5
17E
330
1F
100
AcDbEntity
  8
0
  6
Continuous
 62
     7
370
    25
100
AcDbLine
 10
238.6702405283
 20
60.0321456015
 30
0.0
 11
237.3388281693
 21
60.8007535961
 31
0.0
  0
LINE
  5
17F
330
1F
100
AcDbEntity
  8
0
  6
Continuous
 62
     7
370
    25
100
AcDbLine
 10
216.9943219233
 20
36.202171467
 30
0.0
 11
219.2449728998
 21
34.9028983141
 31
0.0
  0
LINE
  5
180
330
1F
100
AcDbEntity
  8
0
  6
Continuous
 62
     7
370
    25
100
AcDbLine
 10
234.9811942143
 20
62.1617867079
 30
0.0
 11
232.7305432379
 21
63.4610598608
 31
0.0
  0
LINE
  5
181
330
1F
100
AcDbEntity
  8
0
  6
Continuous
 62
     7
370
    25
100
AcDbLine
 10
242.5039786196
 20
43.4000429769
 30
0.0
 11
241.3718984635
 21
44.0535789401
 31
0.0
  0
LINE
  5
182
330
1F
100
AcDbEntity
  8
0
  6
Continuous
 62
     7
370
    25
100
AcDbLine
 10
238.1221627456
 20
38.4242613106
 30
0.0
 11
239.2542429017
 21
37.7707253474
 31
0.0
  0
SPLINE
  5
183
330
1F
100
AcDbEntity
  8
0
  6
Continuous
 62
     7
370
    25
100
AcDbSpline
210
0.0
220
0.0
230
1.0
 70
     8
 71
     3
 72
    12
 73
     8
 74
     0
 42
0.000000001
 43
0.00000001
 40
0.0
 40
0.0
 40
0.0
 40
0.0
 40
0.1733502536747199
 40
0.4002773344565282
 40
0.6279242151842743
 40
0.8596703177921314
 40
0.9999999999999999
 40
0.9999999999999999
 40
0.9999999999999999
 40
0.9999999999999999
 10
237.3034032491829
 20
38.04596705978113
 30
0.0
 10
237.3836755963747
 20
37.99344052830168
 30
0.0
 10
237.5690298169967
 20
37.872153252609
 30
0.0
 10
237.9117891799945
 20
37.78012586027634
 30
0.0
 10
238.3082840922527
 20
37.7600257333248
 30
0.0
 10
238.6705863274789
 20
37.80729359924391
 30
0.0
 10
238.9004093155075
 20
37.892728479261
 30
0.0
 10
238.9870878584018
 20
37.92495054275325
 30
0.0
  0
SPLINE
  5
184
330
1F
100
AcDbEntity
  8
0
  6
Continuous
 62
     7
370
    25
100
AcDbSpline
210
0.0
220
0.0
230
1.0
 70
     8
 71
     3
 72
    12
 73
     8
 74
     0
 42
0.000000001
 43
0.00000001
 40
0.0
 40
0.0
 40
0.0
 40
0.0
 40
0.0184573175321332
 40
0.2748205690741494
 40
0.5292902243883117
 40
0.7791809290552096
 40
0.9999999999999999
 40
0.9999999999999999
 40
0.9999999999999999
 40
0.9999999999999999
 10
242.2441828111613
 20
43.55001987070992
 30
0.0
 10
242.2429690109344
 20
43.561797007977
 30
0.0
 10
242.2248961101178
 20
43.73715291005583
 30
0.0
 10
242.1232280266656
 20
44.03259323010086
 30
0.0
 10
241.9331834474765
 20
44.41510645407461
 30
0.0
 10
241.6828674902443
 20
44.71732469302309
 30
0.0
 10
241.4748943609184
 20
44.84951691602146
 30
0.0
 10
241.3773301385915
 20
44.91153084770726
 30
0.0
  0
LINE
  5
185
330
1F
100
AcDbEntity
  8
0
  6
Continuous
 62
     7
370
    25
100
AcDbLine
 10
241.3933140016
 20
44.9072180093
 30
0.0
 11
234.5697339593
 21
48.8463869201
 31
0.0
  0
LINE
  5
186
330
1F
100
AcDbEntity
  8
0
  6
Continuous
 62
     7
370
    25
100
AcDbLine
 10
230.570058951
 20
41.9179960354
 30
0.0
 11
237.3936389933
 21
37.9788271246
 31
0.0
  0
LINE
  5
187
330
1F
100
AcDbEntity
  8
0
  6
Continuous
 62
     7
370
    25
100
AcDbLine
 10
225.9531540476
 20
63.2409417684
 30
0.0
 11
216.755941864
 21
67.8215943783
 31
0.0
  0
LINE
  5
188
330
1F
100
AcDbEntity
  8
0
  6
Continuous
 62
     7
370
    25
100
AcDbLine
 10
205.2295940744
 20
47.8552109226
 30
0.0
 11
213.79569408
 21
42.1813213262
 31
0.0
  0
LINE
  5
189
330
1F
100
AcDbEntity
  8
0
  6
Continuous
 62
     7
370
    25
100
AcDbLine
 10
210.2090315161
 20
48.8017007883
 30
0.0
 11
210.2090315161
 21
48.4363820833
 31
0.0
  0
LINE
  5
18A
330
1F
100
AcDbEntity
  8
0
  6
Continuous
 62
     7
370
    25
100
AcDbLine
 10
214.1069982764
 20
68.198562755
 30
0.0
 11
213.4674481677
 21
68.1113509995
 31
0.0
  0
ARC
  5
18B
330
1F
100
AcDbEntity
  8
0
  6
Continuous
 62
     7
370
    25
100
AcDbCircle
 10
247.0559472665
 20
39.7324632009
 30
0.0
 40
1.650822227516304
100
AcDbArc
 50
61.395192019
 51
108.3857674475
  0
LINE
  5
18C
330
1F
100
AcDbEntity
  8
0
  6
Continuous
 62
     7
370
    25
100
AcDbLine
 10
246.535255944
 20
41.2990182027
 30
0.0
 11
244.8658587872
 21
42.2627406679
 31
0.0
  0
ELLIPSE
  5
18D
330
1F
100
AcDbEntity
  8
0
  6
Continuous
 62
     7
370
    25
100
AcDbEllipse
 10
263.329041479
 20
27.6253150213
 30
0.0
 11
19.92169443515297
 21
-14.58783153779479
 31
0.0
210
0.0
220
0.0
230
1.0
 40
0.1212020755
 41
2.835534672962523
 42
3.340895183246783
  0
LINE
  5
18E
330
1F
100
AcDbEntity
  8
0
  6
Continuous
 62
     7
370
    25
100
AcDbLine
 10
245.1210423145
 20
40.4826100521
 30
0.0
 11
243.4516451577
 21
41.4463325173
 31
0.0
  0
ARC
  5
18F
330
1F
100
AcDbEntity
  8
0
  6
Continuous
 62
     7
370
    25
100
AcDbCircle
 10
249.3695897011
 20
35.7249347214
 30
0.0
 40
6.378528783968997
100
AcDbArc
 50
131.7644739846
 51
150.6463845881
  0
LINE
  5
190
330
1F
100
AcDbEntity
  8
0
  6
Continuous
 62
     7
370
    25
100
AcDbLine
 10
243.8099942096
 20
38.8516786219
 30
0.0
 11
242.1405970528
 21
39.8154010872
 31
0.0
  0
ELLIPSE
  5
191
330
1F
100
AcDbEntity
  8
0
  6
Continuous
 62
     7
370
    25
100
AcDbEllipse
 10
263.329041479
 20
27.6253150213
 30
0.0
 11
22.21967583070336
 21
-11.71197111977686
 31
0.0
210
0.0
220
0.0
230
1.0
 40
0.1546547539
 41
2.906771825718408
 42
3.412132336002649
  0
LINE
  5
192
330
1F
100
AcDbEntity
  8
0
  6
Continuous
 62
     7
370
    25
100
AcDbLine
 10
243.1028874772
 20
37.0291844355
 30
0.0
 11
241.4334903203
 21
37.9929069007
 31
0.0
  0
ARC
  5
193
330
1F
100
AcDbEntity
  8
0
  6
Continuous
 62
     7
370
    25
100
AcDbCircle
 10
246.736968961
 20
36.1551050613
 30
0.0
 40
3.737721630061138
100
AcDbArc
 50
166.4759484319
 51
193.5240515681
  0
LINE
  5
194
330
1F
100
AcDbEntity
  8
0
  6
Continuous
 62
     7
370
    25
100
AcDbLine
 10
243.1028874772
 20
35.2810256871
 30
0.0
 11
241.4334903203
 21
36.2447481524
 31
0.0
  0
ELLIPSE
  5
195
330
1F
100
AcDbEntity
  8
0
  6
Continuous
 62
     7
370
    25
100
AcDbEllipse
 10
263.329041479
 20
27.6253150213
 30
0.0
 11
22.28793604744953
 21
-8.523887232869091
 31
0.0
210
0.0
220
0.0
230
1.0
 40
0.057802109
 41
2.974493968776761
 42
3.479854479061125
  0
LINE
  5
196
330
1F
100
AcDbEntity
  8
0
  6
Continuous
 62
     7
370
    25
100
AcDbLine
 10
243.8099942096
 20
34.2749395563
 30
0.0
 11
242.1405970528
 21
35.2386620215
 31
0.0
  0
ARC
  5
197
330
1F
100
AcDbEntity
  8
0
  6
Continuous
 62
     7
370
    25
100
AcDbCircle
 10
244.6003509921
 20
35.7242670497
 30
0.0
 40
1.650822227516261
100
AcDbArc
 50
241.395192019
 51
288.3857674475
  0
LINE
  5
198
330
1F
100
AcDbEntity
  8
0
  6
Continuous
 62
     7
370
    25
100
AcDbLine
 10
246.535255944
 20
34.9741201985
 30
0.0
 11
246.4482503607
 21
35.0243474526
 31
0.0
  0
LINE
  5
199
330
1F
100
AcDbEntity
  8
0
  6
Continuous
 62
     7
370
    25
100
AcDbLine
 10
247.8463040489
 20
36.6050516286
 30
0.0
 11
247.8299984869
 21
36.6144646292
 31
0.0
  0
ARC
  5
19A
330
1F
100
AcDbEntity
  8
0
  6
Continuous
 62
     7
370
    25
100
AcDbCircle
 10
245.6196306371
 20
39.3903238641
 30
0.0
 40
3.037085572971844
100
AcDbArc
 50
359.450208344
 51
14.9868192376
  0
LINE
  5
19B
330
1F
100
AcDbEntity
  8
0
  6
Continuous
 62
     7
370
    25
100
AcDbLine
 10
248.5534107814
 20
40.1757045634
 30
0.0
 11
248.0097980951
 21
40.4895254874
 31
0.0
  0
LWPOLYLINE
  5
19C
330
1F
100
AcDbEntity
  8
0
  6
Continuous
 62
     7
370
    25
100
AcDbPolyline
 90
       16
 70
   128
 43
0.0
 10
239.2166997732
 20
38.2794409952
 10
239.2552759934
 20
38.8393033691
 10
239.3699519705
 20
39.4284330965
 10
239.5575996183
 20
40.0307601791
 10
239.813100564
 20
40.6298548211
 10
240.1294854313
 20
41.2093754241
 10
240.4981239942
 20
41.7535139149
 10
240.9089607722
 20
42.2474276669
 10
241.3507892309
 20
42.6776441828
 10
241.8115573679
 20
43.0324281916
 10
242.2786966967
 20
43.3021019859
 10
242.7394648337
 20
43.4793095444
 10
243.1812932924
 20
43.5592173086
 10
243.5921300703
 20
43.5396456037
 10
243.9607686333
 20
43.4211281381
 10
244.0449645364
 20
43.3764527388
  0
ARC
  5
19D
330
1F
100
AcDbEntity
  8
0
  6
Continuous
 62
     7
370
    25
100
AcDbCircle
 10
241.2345653134
 20
38.0892714399
 30
0.0
 40
2.026806798459709
100
AcDbArc
 50
174.6161796551
 51
234.0716469004
  0
ARC
  5
19E
330
1F
100
AcDbEntity
  8
0
  6
Continuous
 62
     7
370
    25
100
AcDbCircle
 10
245.1489455132
 20
39.108093745
 30
0.0
 40
3.507971779680736
100
AcDbArc
 50
347.3466266641
 51
12.6533733359
  0
LINE
  5
19F
330
1F
100
AcDbEntity
  8
0
  6
Continuous
 62
     7
370
    25
100
AcDbLine
 10
248.5017817151
 20
38.3459181048
 30
0.0
 11
248.5717196358
 21
38.3396646248
 31
0.0
  0
LINE
  5
1A0
330
1F
100
AcDbEntity
  8
0
  6
Continuous
 62
     7
370
    25
100
AcDbLine
 10
247.7946749827
 20
36.5234238233
 30
0.0
 11
248.5017817151
 21
38.3459181048
 31
0.0
  0
LINE
  5
1A1
330
1F
100
AcDbEntity
  8
0
  6
Continuous
 62
     7
370
    25
100
AcDbLine
 10
247.7946749827
 20
36.5234238233
 30
0.0
 11
247.8646129033
 21
36.5171703433
 31
0.0
  0
ARC
  5
1A2
330
1F
100
AcDbEntity
  8
0
  6
Continuous
 62
     7
370
    25
100
AcDbCircle
 10
242.6749248091
 20
39.5088180646
 30
0.0
 40
5.99022692421535
100
AcDbArc
 50
312.3725796781
 51
330.0382702336
  0
LINE
  5
1A3
330
1F
100
AcDbEntity
  8
0
  6
Continuous
 62
     7
370
    25
100
AcDbLine
 10
246.7120316805
 20
35.1766258103
 30
0.0
 11
246.7120316805
 21
35.0833704361
 31
0.0
  0
LINE
  5
1A4
330
1F
100
AcDbEntity
  8
0
  6
Continuous
 62
     7
370
    25
100
AcDbLine
 10
245.297818051
 20
34.3602176597
 30
0.0
 11
246.7120316805
 21
35.1766258103
 31
0.0
  0
LINE
  5
1A5
330
1F
100
AcDbEntity
  8
0
  6
Continuous
 62
     7
370
    25
100
AcDbLine
 10
245.297818051
 20
34.3602176597
 30
0.0
 11
245.297818051
 21
34.2669622855
 31
0.0
  0
ARC
  5
1A6
330
1F
100
AcDbEntity
  8
0
  6
Continuous
 62
     7
370
    25
100
AcDbCircle
 10
244.8489163184
 20
35.7431850924
 30
0.0
 40
1.542966798439697
100
AcDbArc
 50
242.8670909185
 51
286.913890437
  0
LINE
  5
1A7
330
1F
100
AcDbEntity
  8
0
  6
Continuous
 62
     7
370
    25
100
AcDbLine
 10
244.2151747488
 20
34.4570223229
 30
0.0
 11
244.1452368281
 21
34.3700202385
 31
0.0
  0
LINE
  5
1A8
330
1F
100
AcDbEntity
  8
0
  6
Continuous
 62
     7
370
    25
100
AcDbLine
 10
243.5080680163
 20
35.4631085488
 30
0.0
 11
244.2151747488
 21
34.4570223229
 31
0.0
  0
LINE
  5
1A9
330
1F
100
AcDbEntity
  8
0
  6
Continuous
 62
     7
370
    25
100
AcDbLine
 10
243.5080680163
 20
35.4631085488
 30
0.0
 11
243.4381300957
 21
35.3761064644
 31
0.0
  0
ARC
  5
1AA
330
1F
100
AcDbEntity
  8
0
  6
Continuous
 62
     7
370
    25
100
AcDbCircle
 10
246.8609042183
 20
36.1445355846
 30
0.0
 40
3.507971779680735
100
AcDbArc
 50
167.3466266641
 51
192.6533733359
  0
LINE
  5
1AB
330
1F
100
AcDbEntity
  8
0
  6
Continuous
 62
     7
370
    25
100
AcDbLine
 10
243.5080680163
 20
36.9067112249
 30
0.0
 11
243.4381300957
 21
36.9129647049
 31
0.0
  0
LINE
  5
1AC
330
1F
100
AcDbEntity
  8
0
  6
Continuous
 62
     7
370
    25
100
AcDbLine
 10
244.2151747488
 20
38.7292055064
 30
0.0
 11
243.5080680163
 21
36.9067112249
 31
0.0
  0
LINE
  5
1AD
330
1F
100
AcDbEntity
  8
0
  6
Continuous
 62
     7
370
    25
100
AcDbLine
 10
244.2151747488
 20
38.7292055064
 30
0.0
 11
244.1452368281
 21
38.7354589864
 31
0.0
  0
ARC
  5
1AE
330
1F
100
AcDbEntity
  8
0
  6
Continuous
 62
     7
370
    25
100
AcDbCircle
 10
249.3349249224
 20
35.7438112651
 30
0.0
 40
5.990226924215918
100
AcDbArc
 50
132.3725796781
 51
150.0382702336
  0
LINE
  5
1AF
330
1F
100
AcDbEntity
  8
0
  6
Continuous
 62
     7
370
    25
100
AcDbLine
 10
245.297818051
 20
40.0760035193
 30
0.0
 11
245.297818051
 21
40.1692588936
 31
0.0
  0
LINE
  5
1B0
330
1F
100
AcDbEntity
  8
0
  6
Continuous
 62
     7
370
    25
100
AcDbLine
 10
246.7120316805
 20
40.8924116699
 30
0.0
 11
245.297818051
 21
40.0760035193
 31
0.0
  0
LINE
  5
1B1
330
1F
100
AcDbEntity
  8
0
  6
Continuous
 62
     7
370
    25
100
AcDbLine
 10
246.7120316805
 20
40.8924116699
 30
0.0
 11
246.7120316805
 21
40.9856670442
 31
0.0
  0
ARC
  5
1B2
330
1F
100
AcDbEntity
  8
0
  6
Continuous
 62
     7
370
    25
100
AcDbCircle
 10
247.160933413
 20
39.5094442373
 30
0.0
 40
1.542966798439584
100
AcDbArc
 50
62.8670909185
 51
106.913890437
  0
LINE
  5
1B3
330
1F
100
AcDbEntity
  8
0
  6
Continuous
 62
     7
370
    25
100
AcDbLine
 10
247.7946749827
 20
40.7956070068
 30
0.0
 11
247.8646129033
 21
40.8826090912
 31
0.0
  0
LINE
  5
1B4
330
1F
100
AcDbEntity
  8
0
  6
Continuous
 62
     7
370
    25
100
AcDbLine
 10
248.5017817151
 20
39.7895207809
 30
0.0
 11
247.7946749827
 21
40.7956070068
 31
0.0
  0
LINE
  5
1B5
330
1F
100
AcDbEntity
  8
0
  6
Continuous
 62
     7
370
    25
100
AcDbLine
 10
248.5017817151
 20
39.7895207809
 30
0.0
 11
248.5717196358
 21
39.8765228653
 31
0.0
  0
LWPOLYLINE
  5
1B6
330
1F
100
AcDbEntity
  8
0
  6
Continuous
 62
     7
370
    25
100
AcDbPolyline
 90
       34
 70
   128
 43
0.0
 10
243.9366375869
 20
36.4323178337
 10
243.9740141036
 20
36.905899056
 10
244.0847933083
 20
37.405518199
 10
244.2649707564
 20
37.9131173066
 10
244.5080349245
 20
38.4103506322
 10
244.8052004995
 20
38.8792469809
 10
245.1457272792
 20
39.3028590189
 10
245.5173076427
 20
39.6658763134
 10
245.9065117892
 20
39.9551786584
 10
246.2992728375
 20
40.1603096544
 10
246.681395408
 20
40.2738556687
 10
247.0390685052
 20
40.2917124481
 10
247.3593650445
 20
40.2132348955
 10
247.6307085954
 20
40.0412593641
 10
247.843292031
 20
39.7820013243
 10
247.9894321123
 20
39.4448312556
 10
248.0638468185
 20
39.0419351445
 10
248.0638468185
 20
38.5878748721
 10
247.9894321123
 20
38.09906137
 10
247.843292031
 20
37.5931615549
 10
247.6307085954
 20
37.088459905
 10
247.3593650445
 20
36.603197778
 10
247.0390685052
 20
36.1549137127
 10
246.681395408
 20
35.7598099242
 10
246.2992728375
 20
35.4321666096
 10
245.9065117892
 20
35.1838253517
 10
245.5173076427
 20
35.0237621542
 10
245.1457272792
 20
34.9577618929
 10
244.8052004995
 20
34.9882100798
 10
244.5080349245
 20
35.1140063586
 10
244.2649707564
 20
35.3306037693
 10
244.0847933083
 20
35.6301744232
 10
243.9740141036
 20
36.0018906191
 10
243.9366375869
 20
36.4323178337
  0
SPLINE
  5
1B7
330
1F
100
AcDbEntity
  8
0
  6
Continuous
 62
     7
370
    25
100
AcDbSpline
210
0.0
220
0.0
230
1.0
 70
     8
 71
     3
 72
     9
 73
     5
 74
     0
 42
0.000000001
 43
0.00000001
 40
0.0
 40
0.0
 40
0.0
 40
0.0
 40
0.5084514326184657
 40
0.9999999999999999
 40
0.9999999999999999
 40
0.9999999999999999
 40
0.9999999999999999
 10
245.2978180509557
 20
40.16925889358192
 30
0.0
 10
245.267883953244
 20
40.22238112279406
 30
0.0
 10
245.2090108814197
 20
40.32685959567115
 30
0.0
 10
245.1500328710192
 20
40.43128157682003
 30
0.0
 10
245.1210423144998
 20
40.48261005205692
 30
0.0
  0
LINE
  5
1B8
330
1F
100
AcDbEntity
  8
0
  6
Continuous
 62
     7
370
    25
100
AcDbLine
 10
244.1452368281
 20
38.7354589864
 30
0.0
 11
243.8099942096
 21
38.8516786219
 31
0.0
  0
LINE
  5
1B9
330
1F
100
AcDbEntity
  8
0
  6
Continuous
 62
     7
370
    25
100
AcDbLine
 10
241.4334903203
 20
37.9929069007
 30
0.0
 11
243.5080680163
 21
36.9067112249
 31
0.0
  0
LWPOLYLINE
  5
1BA
330
1F
100
AcDbEntity
  8
0
  6
Continuous
 62
     7
370
    25
100
AcDbPolyline
 90
       14
 70
   128
 43
0.0
 10
246.7347252066
 20
40.2880971407
 10
246.7871287212
 20
40.1389062295
 10
246.8615434274
 20
39.7360101184
 10
246.8615434274
 20
39.281949846
 10
246.7871287212
 20
38.7931363439
 10
246.6409886398
 20
38.2872365288
 10
246.4284052043
 20
37.7825348789
 10
246.1570616533
 20
37.2972727519
 10
245.836765114
 20
36.8489886866
 10
245.4790920168
 20
36.4538848981
 10
245.0969694464
 20
36.1262415835
 10
244.7042083981
 20
35.8779003256
 10
244.3150042516
 20
35.7178371281
 10
244.0648380103
 20
35.6632158299
  0
LINE
  5
1BB
330
1F
100
AcDbEntity
  8
0
  6
Continuous
 62
     7
370
    25
100
AcDbLine
 10
243.4381300957
 20
36.9129647049
 30
0.0
 11
243.1028874772
 21
37.0291844355
 31
0.0
  0
LINE
  5
1BC
330
1F
100
AcDbEntity
  8
0
  6
Continuous
 62
     7
370
    25
100
AcDbLine
 10
243.4381300957
 20
35.3761064644
 30
0.0
 11
243.1028874772
 21
35.2810256871
 31
0.0
  0
LINE
  5
1BD
330
1F
100
AcDbEntity
  8
0
  6
Continuous
 62
     7
370
    25
100
AcDbLine
 10
244.8658587872
 20
42.2627406679
 30
0.0
 11
246.7120316805
 21
40.8924116699
 31
0.0
  0
ARC
  5
1BE
330
1F
100
AcDbEntity
  8
0
  6
Continuous
 62
     7
370
    25
100
AcDbCircle
 10
241.9584399599
 20
39.962300771
 30
0.0
 40
4.724273149330078
100
AcDbArc
 50
296.2435563411
 51
3.7618193052
  0
ARC
  5
1BF
330
1F
100
AcDbEntity
  8
0
  6
Continuous
 62
     7
370
    25
100
AcDbCircle
 10
241.8340528914
 20
40.0341078434
 30
0.0
 40
4.521969404898878
100
AcDbArc
 50
298.1336774233
 51
1.8716986861
  0
ARC
  5
1C0
330
1F
100
AcDbEntity
  8
0
  6
Continuous
 62
     7
370
    25
100
AcDbCircle
 10
241.3253869269
 20
40.3277545456
 30
0.0
 40
4.757483797224257
100
AcDbArc
 50
303.3069507427
 51
356.6984241772
  0
LINE
  5
1C1
330
1F
100
AcDbEntity
  8
0
  6
Continuous
 62
     7
370
    25
100
AcDbLine
 10
242.1405970528
 20
35.2386620215
 30
0.0
 11
244.2151747488
 21
34.4570223229
 31
0.0
  0
SPLINE
  5
1C2
330
1F
100
AcDbEntity
  8
0
  6
Continuous
 62
     7
370
    25
100
AcDbSpline
210
0.0
220
0.0
230
1.0
 70
     8
 71
     3
 72
     9
 73
     5
 74
     0
 42
0.000000001
 43
0.00000001
 40
0.0
 40
0.0
 40
0.0
 40
0.0
 40
0.5084514326184657
 40
0.9999999999999999
 40
0.9999999999999999
 40
0.9999999999999999
 40
0.9999999999999999
 10
246.7120316805003
 20
40.98566704418193
 30
0.0
 10
246.6820975827886
 20
41.03878927339407
 30
0.0
 10
246.6232245109643
 20
41.14326774627116
 30
0.0
 10
246.5642465005639
 20
41.24768972742005
 30
0.0
 10
246.5352559440445
 20
41.29901820265693
 30
0.0
  0
LINE
  5
1C3
330
1F
100
AcDbEntity
  8
0
  6
Continuous
 62
     7
370
    25
100
AcDbLine
 10
247.8646129033
 20
40.8826090912
 30
0.0
 11
247.8463040489
 21
41.1817906943
 31
0.0
  0
ARC
  5
1C4
330
1F
100
AcDbEntity
  8
0
  6
Continuous
 62
     7
370
    25
100
AcDbCircle
 10
244.7202215266
 20
38.3679581571
 30
0.0
 40
5.508666834693176
100
AcDbArc
 50
122.48206955
 51
177.5233074198
  0
LINE
  5
1C5
330
1F
100
AcDbEntity
  8
0
  6
Continuous
 62
     7
370
    25
100
AcDbLine
 10
244.1452368281
 20
34.3700202385
 30
0.0
 11
243.8099942096
 21
34.2749395563
 31
0.0
  0
SPLINE
  5
1C6
330
1F
100
AcDbEntity
  8
0
  6
Continuous
 62
     7
370
    25
100
AcDbSpline
210
0.0
220
0.0
230
1.0
 70
     8
 71
     3
 72
     9
 73
     5
 74
     0
 42
0.000000001
 43
0.00000001
 40
0.0
 40
0.0
 40
0.0
 40
0.0
 40
0.7584115565095673
 40
1.0
 40
1.0
 40
1.0
 40
1.0
 10
245.2978180509557
 20
34.26696228548902
 30
0.0
 10
245.2531608685455
 20
34.23928852597614
 30
0.0
 10
245.1942783501729
 20
34.20279942019269
 30
0.0
 10
245.135292592004
 20
34.16648515477453
 30
0.0
 10
245.1210423144998
 20
34.15771204791567
 30
0.0
  0
LINE
  5
1C7
330
1F
100
AcDbEntity
  8
0
  6
Continuous
 62
     7
370
    25
100
AcDbLine
 10
248.5717196358
 20
39.8765228653
 30
0.0
 11
248.5534107814
 21
40.1757045634
 31
0.0
  0
SPLINE
  5
1C8
330
1F
100
AcDbEntity
  8
0
  6
Continuous
 62
     7
370
    25
100
AcDbSpline
210
0.0
220
0.0
230
1.0
 70
     8
 71
     3
 72
     9
 73
     5
 74
     0
 42
0.000000001
 43
0.00000001
 40
0.0
 40
0.0
 40
0.0
 40
0.0
 40
0.7584115565095673
 40
1.0
 40
1.0
 40
1.0
 40
1.0
 10
246.7120316805003
 20
35.08337043608903
 30
0.0
 10
246.6673744980901
 20
35.05569667657616
 30
0.0
 10
246.6084919797175
 20
35.0192075707927
 30
0.0
 10
246.5495062215486
 20
34.98289330537455
 30
0.0
 10
246.5352559440445
 20
34.97412019851568
 30
0.0
  0
LINE
  5
1C9
330
1F
100
AcDbEntity
  8
0
  6
Continuous
 62
     7
370
    25
100
AcDbLine
 10
247.8646129033
 20
36.5171703433
 30
0.0
 11
247.8463040489
 21
36.6050516286
 31
0.0
  0
ARC
  5
1CA
330
1F
100
AcDbEntity
  8
0
  6
Continuous
 62
     7
370
    25
100
AcDbCircle
 10
225.6000381022
 20
37.3916764792
 30
0.0
 40
5.331758125757958
100
AcDbArc
 50
225.1194160465
 51
254.4298414382
  0
ARC
  5
1CB
330
1F
100
AcDbEntity
  8
0
  6
Continuous
 62
     7
370
    25
100
AcDbCircle
 10
236.0067749578
 20
55.4183452971
 30
0.0
 40
5.326571118813324
100
AcDbArc
 50
45.9016732687
 51
74.0077001679
  0
SPLINE
  5
1CC
330
1F
100
AcDbEntity
  8
0
  6
Continuous
 62
     7
370
    25
100
AcDbSpline
210
0.0
220
0.0
230
1.0
 70
     8
 71
     3
 72
    25
 73
    21
 74
     0
 42
0.000000001
 43
0.00000001
 40
0.0
 40
0.0
 40
0.0
 40
0.0
 40
0.1249999999999998
 40
0.1249999999999998
 40
0.2499999999999997
 40
0.2499999999999997
 40
0.3749999999999995
 40
0.3749999999999995
 40
0.4999999999999993
 40
0.4999999999999993
 40
0.5624999999999996
 40
0.5624999999999996
 40
0.6249999999999998
 40
0.6875000000000001
 40
0.6875000000000001
 40
0.7500000000000003
 40
0.7500000000000003
 40
0.8750000000000001
 40
0.8750000000000001
 40
1.0
 40
1.0
 40
1.0
 40
1.0
 10
224.8611788111063
 20
56.20630283091729
 30
0.0
 10
224.8903021093673
 20
56.0951173103881
 30
0.0
 10
224.9026911502266
 20
55.97987509796007
 30
0.0
 10
224.8957136651263
 20
55.74077953012428
 30
0.0
 10
224.8756960772743
 20
55.61600556024901
 30
0.0
 10
224.805473919561
 20
55.36963665103659
 30
0.0
 10
224.7548232649673
 20
55.24542550367546
 30
0.0
 10
224.6249085213122
 20
55.0017970083653
 30
0.0
 10
224.5472075733229
 20
54.88473991330714
 30
0.0
 10
224.4118339910967
 20
54.7160833954571
 30
0.0
 10
224.3631994937897
 20
54.66071637418494
 30
0.0
 10
224.2617601584076
 20
54.55499656278792
 30
0.0
 10
224.1558901756669
 20
54.45383560416748
 30
0.0
 10
224.0412983833394
 20
54.36166128249068
 30
0.0
 10
223.9222157141212
 20
54.27412443975057
 30
0.0
 10
223.8602577010638
 20
54.23262597023837
 30
0.0
 10
223.6723939975432
 20
54.11850564850028
 30
0.0
 10
223.5430165611892
 20
54.05489821738568
 30
0.0
 10
223.2753333081272
 20
53.95362991641145
 30
0.0
 10
223.1394616216621
 20
53.91708900818665
 30
0.0
 10
223.0039443549345
 20
53.89592082383658
 30
0.0
  0
LWPOLYLINE
  5
1CD
330
1F
100
AcDbEntity
  8
0
  6
Continuous
 62
     7
370
    25
100
AcDbPolyline
 90
       16
 70
   128
 43
0.0
 10
224.8611789228
 20
56.2063028634
 10
225.7243223434
 20
57.1087474063
 10
226.6137110676
 20
57.9415757628
 10
227.5231141118
 20
58.6989543414
 10
228.4461611281
 20
59.375576707
 10
229.3763855387
 20
59.9667014099
 10
230.3072707987
 20
60.4681900997
 10
231.2322955888
 20
60.8765290516
 10
232.144979831
 20
61.1888557309
 10
233.0389296345
 20
61.402983979
 10
233.9078827348
 20
61.5174135149
 10
234.7457515464
 20
61.5313418611
 10
235.5466664623
 20
61.4446726092
 10
236.3050166832
 20
61.2580116142
 10
237.0154894013
 20
60.972667561
 10
237.3388281693
 20
60.8007535961
  0
LWPOLYLINE
  5
1CE
330
1F
100
AcDbEntity
  8
0
  6
Continuous
 62
     7
370
    25
100
AcDbPolyline
 90
       22
 70
   128
 43
0.0
 10
221.6026068547
 20
33.5418652023
 10
221.0335723748
 20
33.9217276051
 10
220.4607492883
 20
34.4281218826
 10
219.9500322173
 20
35.0223559639
 10
219.5049410822
 20
35.7003325248
 10
219.1285447003
 20
36.4573793736
 10
218.8234370785
 20
37.2882772101
 10
218.5917216079
 20
38.1872993612
 10
218.434995259
 20
39.1482484749
 10
218.3543387033
 20
40.164500913
 10
218.3503070938
 20
41.2290511442
 10
218.4229294065
 20
42.3345618396
 10
218.5717038305
 20
43.4734120674
 10
218.795606329
 20
44.6377525209
 10
219.0930919567
 20
45.819556564
 10
219.462111323
 20
47.0106783107
 10
219.9001204705
 20
48.2029076619
 10
220.4040993141
 20
49.3880250578
 10
220.9705753486
 20
50.5578634526
 10
221.5956427466
 20
51.7043581237
 10
222.2749933097
 20
52.8196059846
 10
223.0039441281
 20
53.8959203354
  0
LWPOLYLINE
  5
1CF
330
1F
100
AcDbEntity
  8
0
  6
Continuous
 62
     7
370
    25
100
AcDbPolyline
 90
       13
 70
   128
 43
0.0
 10
223.1985575304
 20
56.330579344
 10
224.02940066
 20
57.2198724306
 10
224.8882912002
 20
58.0391539111
 10
225.7685365278
 20
58.7820392821
 10
226.6632779841
 20
59.4427409712
 10
227.5655440059
 20
60.0161111771
 10
228.468304358
 20
60.4976823023
 10
229.3645250698
 20
60.8837009491
 10
230.2472228172
 20
61.1711608341
 10
231.1095196788
 20
61.357821471
 10
231.9446973484
 20
61.4422280594
 10
232.746248089
 20
61.4237234095
 10
232.9991081066
 20
61.3954659771
  0
SPLINE
  5
1D0
330
1F
100
AcDbEntity
  8
0
  6
Continuous
 62
     7
370
    25
100
AcDbSpline
210
0.0
220
0.0
230
1.0
 70
     8
 71
     3
 72
    26
 73
    22
 74
     0
 42
0.000000001
 43
0.00000001
 40
0.0
 40
0.0
 40
0.0
 40
0.0
 40
0.1250000000000009
 40
0.1250000000000009
 40
0.2500000000000019
 40
0.2500000000000019
 40
0.3125000000000011
 40
0.3125000000000011
 40
0.3750000000000004
 40
0.3750000000000004
 40
0.4375000000000002
 40
0.4375000000000002
 40
0.5000000000000001
 40
0.5000000000000001
 40
0.5625
 40
0.5625
 40
0.6249999999999999
 40
0.6249999999999999
 40
0.7500000000000001
 40
0.7500000000000001
 40
1.0
 40
1.0
 40
1.0
 40
1.0
 10
221.8543643254787
 20
54.6584160577921
 30
0.0
 10
221.8307267292467
 20
54.76799191736509
 30
0.0
 10
221.813158950365
 20
54.87888117572963
 30
0.0
 10
221.7943463674955
 20
55.10421113559257
 30
0.0
 10
221.7931665927281
 20
55.21988804891095
 30
0.0
 10
221.8092645959635
 20
55.3912435587705
 30
0.0
 10
221.8175833130637
 20
55.44804207086467
 30
0.0
 10
221.8413404623207
 20
55.56086828326175
 30
0.0
 10
221.8569628413697
 20
55.61732113692791
 30
0.0
 10
221.8958200537667
 20
55.7259042533365
 30
0.0
 10
221.9190460104692
 20
55.77828421356205
 30
0.0
 10
221.9740446599475
 20
55.87874098883417
 30
0.0
 10
222.0061229269702
 20
55.9270198566056
 30
0.0
 10
222.0765376755052
 20
56.01471683218934
 30
0.0
 10
222.1151160976319
 20
56.05470596016531
 30
0.0
 10
222.1988243612281
 20
56.1271846442809
 30
0.0
 10
222.24395307117
 20
56.15952126865751
 30
0.0
 10
222.3832337133601
 20
56.24272103601115
 30
0.0
 10
222.4840227849217
 20
56.28154975864725
 30
0.0
 10
222.7870950561544
 20
56.35696604610243
 30
0.0
 10
222.9956191466395
 20
56.35683589973166
 30
0.0
 10
223.1985575663299
 20
56.33057967040544
 30
0.0
  0
LWPOLYLINE
  5
1D1
330
1F
100
AcDbEntity
  8
0
  6
Continuous
 62
     7
370
    25
100
AcDbPolyline
 90
       19
 70
   128
 43
0.0
 10
218.9173856965
 20
37.0025647677
 10
218.6923551112
 20
37.3153349924
 10
218.2923861287
 20
38.0037876387
 10
217.9631744608
 20
38.7697734838
 10
217.7072146741
 20
39.6074878706
 10
217.5264461823
 20
40.5105813223
 10
217.422240075
 20
41.472210875
 10
217.3953852885
 20
42.4850881309
 10
217.4460859717
 20
43.5415375761
 10
217.5739568759
 20
44.6335522855
 10
217.7780299407
 20
45.7528569454
 10
218.0567575866
 20
46.890968452
 10
218.4080285199
 20
48.0392622138
 10
218.8291802451
 20
49.1890361234
 10
219.317020797
 20
50.3315755756
 10
219.8678531067
 20
51.4582230473
 10
220.4775033192
 20
52.560439312
 10
221.1413504275
 20
53.6298714989
 10
221.8543644689
 20
54.6584158268
  0
LINE
  5
1D2
330
1F
100
AcDbEntity
  8
0
  6
Continuous
 62
     7
370
    25
100
AcDbLine
 10
220.3789720545
 20
34.4144948827
 30
0.0
 11
220.4925918909
 21
34.4681916727
 31
0.0
  0
LWPOLYLINE
  5
1D3
330
1F
100
AcDbEntity
  8
0
  6
Continuous
 62
     7
370
    25
100
AcDbPolyline
 90
       43
 70
   128
 43
0.0
 10
220.3789720545
 20
34.4144948827
 10
219.6722372351
 20
34.6816825337
 10
219.0160555848
 20
35.0429723437
 10
218.41488545
 20
35.4959091201
 10
217.8728111237
 20
36.0374156468
 10
217.3935151868
 20
36.6638132194
 10
216.9802548004
 20
37.3708459818
 10
216.6358366813
 20
38.1537102067
 10
216.3626019551
 20
39.0070877576
 10
216.1624057418
 20
39.9251795506
 10
216.0366085942
 20
40.9017487117
 10
215.9860666203
 20
41.9301610369
 10
216.0111216047
 20
43.0034286123
 10
216.1116029842
 20
44.1142593635
 10
216.2868291655
 20
45.2551070316
 10
216.5356094999
 20
46.4182204252
 10
216.8562535037
 20
47.5956971626
 10
217.2465827118
 20
48.7795377589
 10
217.7039451653
 20
49.9616982864
 10
218.2252338513
 20
51.1341481684
 10
218.8069064589
 20
52.2889211278
 10
219.445011721
 20
53.41817184
 10
220.1352144391
 20
54.5142280213
 10
220.8728244592
 20
55.5696428986
 10
221.6528315748
 20
56.5772465376
 10
222.4699354903
 20
57.5301927981
 10
223.3185853342
 20
58.4220072395
 10
224.1930148906
 20
59.2466302743
 10
225.0872837588
 20
59.9984607
 10
225.995315878
 20
60.6723908674
 10
226.9109421267
 20
61.2638396378
 10
227.8279417699
 20
61.7687907585
 10
228.7400846063
 20
62.1838126313
 10
229.6411735261
 20
62.5060866829
 10
230.5250866173
 20
62.7334217862
 10
231.3858181187
 20
62.8642748601
 10
232.2175209781
 20
62.897755666
 10
233.014543896
 20
62.8336383063
 10
233.7714723193
 20
62.6723567531
 10
234.4831626861
 20
62.4150071257
 10
235.1447812799
 20
62.0633389426
 10
235.7518315586
 20
61.6197404789
 10
236.0712322304
 20
61.3274843915
  0
ARC
  5
1D4
330
1F
100
AcDbEntity
  8
0
  6
Continuous
 62
     7
370
    25
100
AcDbCircle
 10
241.3253681995
 20
40.3277653567
 30
0.0
 40
4.757503116214878
100
AcDbArc
 50
303.3070677384
 51
356.6983071814
  0
LINE
  5
1D5
330
1F
100
AcDbEntity
  8
0
  6
Continuous
 62
     7
370
    25
100
AcDbLine
 10
241.3718984635
 20
44.0535789401
 30
0.0
 11
241.2997479979
 21
44.0916860417
 31
0.0
  0
LWPOLYLINE
  5
1D6
330
1F
100
AcDbEntity
  8
0
  6
Continuous
 62
     7
370
    25
100
AcDbPolyline
 90
       27
 70
   128
 43
0.0
 10
213.7343394639
 20
43.4891450578
 10
213.7721063328
 20
44.5653747385
 10
213.8851481318
 20
45.6778569871
 10
214.0726923881
 20
46.8189920951
 10
214.3334588911
 20
47.9809853428
 10
214.6656662779
 20
49.1558997562
 10
215.0670445457
 20
50.3357084821
 10
215.5348521737
 20
51.512352012
 10
216.0658939039
 20
52.6777940737
 10
216.656541156
 20
53.824072581
 10
217.3027603449
 20
54.9433570458
 10
218.0001372469
 20
56.0280018082
 10
218.7439072924
 20
57.0705985056
 10
219.5289894812
 20
58.0640237883
 10
220.350021944
 20
59.0014925493
 10
221.2013958572
 20
59.8766010765
 10
222.0772949557
 20
60.6833703959
 10
222.9717365273
 20
61.4162897093
 10
223.8786105136
 20
62.0703534151
 10
224.7917219043
 20
62.6410931871
 10
225.704833295
 20
63.1246093863
 10
226.6117072813
 20
63.517600098
 10
227.5061488529
 20
63.8173810415
 10
228.3820479513
 20
64.0219032952
 10
229.2334218645
 20
64.1297701649
 10
230.0544543273
 20
64.140245308
 10
230.6110373769
 20
64.0891635505
  0
ARC
  5
1D7
330
1F
100
AcDbEntity
  8
0
  6
Continuous
 62
     7
370
    25
100
AcDbCircle
 10
225.7230966938
 20
43.3643634656
 30
0.0
 40
11.98653217010549
100
AcDbArc
 50
181.1926642351
 51
192.96539984
  0
SPLINE
  5
1D8
330
1F
100
AcDbEntity
  8
0
  6
Continuous
 62
     7
370
    25
100
AcDbSpline
210
0.0
220
0.0
230
1.0
 70
     8
 71
     3
 72
    10
 73
     6
 74
     0
 42
0.000000001
 43
0.00000001
 40
0.0
 40
0.0
 40
0.0
 40
0.0
 40
0.5
 40
0.5
 40
1.0
 40
1.0
 40
1.0
 40
1.0
 10
222.58105239311
 20
53.19536277697239
 30
0.0
 10
222.4770879023258
 20
53.26870115004277
 30
0.0
 10
222.3872796258984
 20
53.35593690783617
 30
0.0
 10
222.2352371978997
 20
53.55686744903217
 30
0.0
 10
222.1733316095388
 20
53.67103821522914
 30
0.0
 10
222.1288819049483
 20
53.79405589838924
 30
0.0
  0
SPLINE
  5
1D9
330
1F
100
AcDbEntity
  8
0
  6
Continuous
 62
     7
370
    25
100
AcDbSpline
210
0.0
220
0.0
230
1.0
 70
     8
 71
     3
 72
    14
 73
    10
 74
     0
 42
0.000000001
 43
0.00000001
 40
0.0
 40
0.0
 40
0.0
 40
0.0
 40
0.25
 40
0.25
 40
0.5
 40
0.5
 40
0.75
 40
0.75
 40
1.0
 40
1.0
 40
1.0
 40
1.0
 10
222.1288819049483
 20
53.79405589838923
 30
0.0
 10
222.1061611020832
 20
53.85693731804677
 30
0.0
 10
222.0842465917337
 20
53.92598374752019
 30
0.0
 10
222.0421355376709
 20
54.07363626413896
 30
0.0
 10
222.0226139837579
 20
54.15003605099727
 30
0.0
 10
221.9842677415841
 20
54.30436834239287
 30
0.0
 10
221.9659081487003
 20
54.38132093872453
 30
0.0
 10
221.9239047041186
 20
54.5267111062405
 30
0.0
 10
221.9001283831056
 20
54.59330201243353
 30
0.0
 10
221.8716668790034
 20
54.63379762766488
 30
0.0
  0
LINE
  5
1DA
330
1F
100
AcDbEntity
  8
0
  6
Continuous
 62
     7
370
    25
100
AcDbLine
 10
221.8716670673
 20
54.6337980194
 30
0.0
 11
221.8543644689
 21
54.6584158268
 31
0.0
  0
LINE
  5
1DB
330
1F
100
AcDbEntity
  8
0
  6
Continuous
 62
     7
370
    25
100
AcDbLine
 10
223.1985575304
 20
56.330579344
 30
0.0
 11
223.2158601288
 21
56.3059615367
 31
0.0
  0
SPLINE
  5
1DC
330
1F
100
AcDbEntity
  8
0
  6
Continuous
 62
     7
370
    25
100
AcDbSpline
210
0.0
220
0.0
230
1.0
 70
     8
 71
     3
 72
    16
 73
    12
 74
     0
 42
0.000000001
 43
0.00000001
 40
0.0
 40
0.0
 40
0.0
 40
0.0
 40
0.1250000000000001
 40
0.1250000000000001
 40
0.2500000000000003
 40
0.2500000000000003
 40
0.5000000000000002
 40
0.5000000000000002
 40
0.7500000000000001
 40
0.7500000000000001
 40
1.0
 40
1.0
 40
1.0
 40
1.0
 10
223.2158601198546
 20
56.30596124027816
 30
0.0
 10
223.2300125262587
 20
56.28582490446536
 30
0.0
 10
223.2516709307324
 20
56.26902748378794
 30
0.0
 10
223.3040888597677
 20
56.24218196245646
 30
0.0
 10
223.3346817389061
 20
56.23195647789547
 30
0.0
 10
223.4337625877636
 20
56.20745603746278
 30
0.0
 10
223.5076451253795
 20
56.19919611506128
 30
0.0
 10
223.6607447177708
 20
56.18801014835636
 30
0.0
 10
223.7388286924184
 20
56.18541347660518
 30
0.0
 10
223.8981723261606
 20
56.18338447577148
 30
0.0
 10
223.9768252209921
 20
56.1840220644337
 30
0.0
 10
224.0525776887847
 20
56.18711516524874
 30
0.0
  0
SPLINE
  5
1DD
330
1F
100
AcDbEntity
  8
0
  6
Continuous
 62
     7
370
    25
100
AcDbSpline
210
0.0
220
0.0
230
1.0
 70
     8
 71
     3
 72
    10
 73
     6
 74
     0
 42
0.000000001
 43
0.00000001
 40
0.0
 40
0.0
 40
0.0
 40
0.0
 40
0.5
 40
0.5
 40
1.0
 40
1.0
 40
1.0
 40
1.0
 10
224.0525776887847
 20
56.18711516524874
 30
0.0
 10
224.2007720286855
 20
56.1931661896825
 30
0.0
 10
224.342996494416
 20
56.18300395946937
 30
0.0
 10
224.6153878847568
 20
56.13195352352929
 30
0.0
 10
224.7455152146254
 20
56.09059242088474
 30
0.0
 10
224.8635905568107
 20
56.03481855293246
 30
0.0
  0
LWPOLYLINE
  5
1DE
330
1F
100
AcDbEntity
  8
0
  6
Continuous
 62
     7
370
    25
100
AcDbPolyline
 90
        3
 70
   128
 43
0.0
 10
237.3092555696
 20
38.0318361691
 10
237.3125349566
 20
38.0296083706
 10
237.3936389933
 20
37.9788271246
  0
ARC
  5
1DF
330
1F
100
AcDbEntity
  8
0
  6
Continuous
 62
     7
370
    25
100
AcDbCircle
 10
207.5518962897
 20
51.3163750876
 30
0.0
 40
4.168062494307624
100
AcDbArc
 50
211.8183542798
 51
236.1399747015
  0
SPLINE
  5
1E0
330
1F
100
AcDbEntity
  8
0
  6
Continuous
 62
     7
370
    25
100
AcDbSpline
210
0.0
220
0.0
230
1.0
 70
     8
 71
     3
 72
     8
 73
     4
 74
     0
 42
0.000000001
 43
0.00000001
 40
0.0
 40
0.0
 40
0.0
 40
0.0
 40
1.0
 40
1.0
 40
1.0
 40
1.0
 10
205.4406368876739
 20
48.19411413369379
 30
0.0
 10
204.9638635958497
 20
48.50220694162643
 30
0.0
 10
204.4870612190049
 20
48.81043638719918
 30
0.0
 10
204.0102287744792
 20
49.11880154341909
 30
0.0
  0
SPLINE
  5
1E1
330
1F
100
AcDbEntity
  8
0
  6
Continuous
 62
     7
370
    25
100
AcDbSpline
210
0.0
220
0.0
230
1.0
 70
     8
 71
     3
 72
    23
 73
    19
 74
     0
 42
0.000000001
 43
0.00000001
 40
0.0
 40
0.0
 40
0.0
 40
0.0
 40
0.0521036415675031
 40
0.1035646240925967
 40
0.1544751946736949
 40
0.2049306267473421
 40
0.2550287880844035
 40
0.3048696389141012
 40
0.3545546704609132
 40
0.4041862979523234
 40
0.4538672252126086
 40
0.5036997999421611
 40
0.5901870230746071
 40
0.674271637822954
 40
0.7565997087222995
 40
0.8378563983721267
 40
0.9187511781367398
 40
1.0
 40
1.0
 40
1.0
 40
1.0
 10
206.3212016912155
 20
48.01938343557369
 30
0.0
 10
206.3159327522754
 20
48.00946197333887
 30
0.0
 10
206.3054598627751
 20
47.98974142260792
 30
0.0
 10
206.2862135670124
 20
47.96517359365568
 30
0.0
 10
206.2644178266797
 20
47.94448501139646
 30
0.0
 10
206.2397665354748
 20
47.92795407609948
 30
0.0
 10
206.2122700209358
 20
47.91543657652332
 30
0.0
 10
206.1818589669285
 20
47.90690195270093
 30
0.0
 10
206.1484885951559
 20
47.90229208005285
 30
0.0
 10
206.112112706884
 20
47.90155733691638
 30
0.0
 10
206.072684335295
 20
47.90465241946767
 30
0.0
 10
206.019835943745
 20
47.91318819494681
 30
0.0
 10
205.9512969499748
 20
47.93078463379386
 30
0.0
 10
205.8635757180205
 20
47.96242124187973
 30
0.0
 10
205.7688447985265
 20
48.00460089921245
 30
0.0
 10
205.6668105511966
 20
48.05733733493943
 30
0.0
 10
205.5578966380075
 20
48.11965389085026
 30
0.0
 10
205.4797803270215
 20
48.16925794910137
 30
0.0
 10
205.4406368876739
 20
48.19411413369378
 30
0.0
  0
SPLINE
  5
1E2
330
1F
100
AcDbEntity
  8
0
  6
Continuous
 62
     7
370
    25
100
AcDbSpline
210
0.0
220
0.0
230
1.0
 70
     8
 71
     3
 72
     8
 73
     4
 74
     0
 42
0.000000001
 43
0.00000001
 40
0.0
 40
0.0
 40
0.0
 40
0.0
 40
1.0
 40
1.0
 40
1.0
 40
1.0
 10
207.7947047176694
 20
47.07206329901749
 30
0.0
 10
207.303337405628
 20
47.38793791898497
 30
0.0
 10
206.8119512057017
 20
47.70392394027445
 30
0.0
 10
206.3205454955578
 20
48.02002082111713
 30
0.0
  0
SPLINE
  5
1E3
330
1F
100
AcDbEntity
  8
0
  6
Continuous
 62
     7
370
    25
100
AcDbSpline
210
0.0
220
0.0
230
1.0
 70
     8
 71
     3
 72
    18
 73
    14
 74
     0
 42
0.000000001
 43
0.00000001
 40
0.0
 40
0.0
 40
0.0
 40
0.0
 40
0.0923824559411628
 40
0.1844689291573508
 40
0.2764953615950219
 40
0.3686975365494161
 40
0.4613092840003458
 40
0.5545607518442569
 40
0.6486768051537182
 40
0.7438756050146744
 40
0.8403674044302629
 40
0.9203921078121001
 40
1.0
 40
1.0
 40
1.0
 40
1.0
 10
208.608268836869
 20
46.42775557447315
 30
0.0
 10
208.5847013227459
 20
46.44302954873869
 30
0.0
 10
208.5376418020945
 20
46.47352856121932
 30
0.0
 10
208.4652440141317
 20
46.52316113383023
 30
0.0
 10
208.3917618052362
 20
46.57549067649876
 30
0.0
 10
208.3170623574912
 20
46.63080836220664
 30
0.0
 10
208.2412015677231
 20
46.68904667732021
 30
0.0
 10
208.1641902869363
 20
46.75023958895779
 30
0.0
 10
208.0860581548553
 20
46.81440330553934
 30
0.0
 10
208.0068319202115
 20
46.88155226540646
 30
0.0
 10
207.9315354358016
 20
46.94740317515262
 30
0.0
 10
207.8607081276795
 20
47.01093476196094
 30
0.0
 10
207.8168037568724
 20
47.05159550697444
 30
0.0
 10
207.7949088900671
 20
47.07187279554299
 30
0.0
  0
LINE
  5
1E4
330
1F
100
AcDbEntity
  8
0
  6
Continuous
 62
     7
370
    25
100
AcDbLine
 10
209.2479753687
 20
46.016001768
 30
0.0
 11
208.6082685264
 21
46.4277554356
 31
0.0
  0
SPLINE
  5
1E5
330
1F
100
AcDbEntity
  8
0
  6
Continuous
 62
     7
370
    25
100
AcDbSpline
210
0.0
220
0.0
230
1.0
 70
     8
 71
     3
 72
    25
 73
    21
 74
     0
 42
0.000000001
 43
0.00000001
 40
0.0
 40
0.0
 40
0.0
 40
0.0
 40
0.0280105225426465
 40
0.0559601148860768
 40
0.0839014045043132
 40
0.1118870776786367
 40
0.1399695827588937
 40
0.1682008401739883
 40
0.196631967042422
 40
0.2253130233141467
 40
0.2542927850735845
 40
0.3799486436587335
 40
0.5057850221667067
 40
0.6313085886338298
 40
0.7532068238012468
 40
0.8039473267955921
 40
0.8535894438554446
 40
0.9025339722394071
 40
0.9511970353791085
 40
1.0
 40
1.0
 40
1.0
 40
1.0
 10
210.3503409618592
 20
46.73190775835022
 30
0.0
 10
210.3552890693898
 20
46.70428389724273
 30
0.0
 10
210.3651745210254
 20
46.64909626413741
 30
0.0
 10
210.3767101706286
 20
46.56993555676749
 30
0.0
 10
210.3857832924413
 20
46.49363221766911
 30
0.0
 10
210.3921521011543
 20
46.4204364566995
 30
0.0
 10
210.3958683399644
 20
46.35028898848611
 30
0.0
 10
210.3969049609472
 20
46.28321270197333
 30
0.0
 10
210.3952564857203
 20
46.21920879274689
 30
0.0
 10
210.3909103338514
 20
46.15827993948006
 30
0.0
 10
210.3760540092838
 20
46.0363918179829
 30
0.0
 10
210.3309657522187
 20
45.88149094632774
 30
0.0
 10
210.2176062317261
 20
45.75054782798568
 30
0.0
 10
210.0557820097318
 20
45.69467142717568
 30
0.0
 10
209.8817667906001
 20
45.71454547955846
 30
0.0
 10
209.730405869914
 20
45.76186328191394
 30
0.0
 10
209.6200056372156
 20
45.80677870564928
 30
0.0
 10
209.5028461417669
 20
45.86415443694046
 30
0.0
 10
209.379280474833
 20
45.93283150139328
 30
0.0
 10
209.2917854247379
 20
45.98825174734647
 30
0.0
 10
209.2479751050563
 20
46.01600164507676
 30
0.0
  0
ARC
  5
1E6
330
1F
100
AcDbEntity
  8
0
  6
Continuous
 62
     7
370
    25
100
AcDbCircle
 10
221.5433621263
 20
48.5179581269
 30
0.0
 40
11.33462419218399
100
AcDbArc
 50
170.9338462887
 51
189.0661537113
  0
SPLINE
  5
1E7
330
1F
100
AcDbEntity
  8
0
  6
Continuous
 62
     7
370
    25
100
AcDbSpline
210
0.0
220
0.0
230
1.0
 70
     8
 71
     3
 72
    26
 73
    22
 74
     0
 42
0.000000001
 43
0.00000001
 40
0.0
 40
0.0
 40
0.0
 40
0.0
 40
0.0241259796963635
 40
0.0482159912272988
 40
0.0723203915124065
 40
0.0964895678710797
 40
0.1207736231963513
 40
0.1452220711242836
 40
0.1698835501657706
 40
0.1948055644472379
 40
0.2200342569517627
 40
0.2456142191611387
 40
0.3690971486901655
 40
0.4940698769485187
 40
0.6192566784762451
 40
0.7454656653603225
 40
0.7971495824713707
 40
0.8481710308405392
 40
0.8988013269235234
 40
0.9493179290492194
 40
1.0
 40
1.0
 40
1.0
 40
1.0
 10
209.2479751050563
 20
53.78011203644134
 30
0.0
 10
209.2696933344323
 20
53.76578051304626
 30
0.0
 10
209.3130974146084
 20
53.73713883237721
 30
0.0
 10
209.3764045319698
 20
53.6891465344484
 30
0.0
 10
209.4382660996878
 20
53.63754733656273
 30
0.0
 10
209.4985706148243
 20
53.58197254368949
 30
0.0
 10
209.5573604667642
 20
53.52251730306234
 30
0.0
 10
209.6146409851939
 20
53.45915299422494
 30
0.0
 10
209.6704321245201
 20
53.39188421626101
 30
0.0
 10
209.7247533719419
 20
53.32071010230089
 30
0.0
 10
209.7776323471509
 20
53.2456209625526
 30
0.0
 10
209.8944271718872
 20
53.06636651385076
 30
0.0
 10
210.0562967298137
 20
52.75606104200736
 30
0.0
 10
210.2194816373456
 20
52.28614725387568
 30
0.0
 10
210.330993042519
 20
51.78718421996564
 30
0.0
 10
210.3781268806275
 20
51.37830054690863
 30
0.0
 10
210.39324582016
 20
51.07402859031793
 30
0.0
 10
210.3951989591426
 20
50.8727793486226
 30
0.0
 10
210.3887209335034
 20
50.67711942890001
 30
0.0
 10
210.3745940108163
 20
50.48648314100255
 30
0.0
 10
210.3584341191313
 20
50.36489986726374
 30
0.0
 10
210.3503409618592
 20
50.30400883066485
 30
0.0
  0
LINE
  5
1E8
330
1F
100
AcDbEntity
  8
0
  6
Continuous
 62
     7
370
    25
100
AcDbLine
 10
208.6082685264
 20
54.1930868867
 30
0.0
 11
209.2479753687
 21
53.7801119157
 31
0.0
  0
SPLINE
  5
1E9
330
1F
100
AcDbEntity
  8
0
  6
Continuous
 62
     7
370
    25
100
AcDbSpline
210
0.0
220
0.0
230
1.0
 70
     8
 71
     3
 72
    14
 73
    10
 74
     0
 42
0.000000001
 43
0.00000001
 40
0.0
 40
0.0
 40
0.0
 40
0.0
 40
0.0789261963172865
 40
0.158232872055133
 40
0.330847539457262
 40
0.5000195457610529
 40
0.6670357883572423
 40
0.8332395193657144
 40
1.0
 40
1.0
 40
1.0
 40
1.0
 10
207.7943161210177
 20
54.40166931972593
 30
0.0
 10
207.8160330023536
 20
54.40327248358451
 30
0.0
 10
207.8595714555692
 20
54.40648653967175
 30
0.0
 10
207.9510965742182
 20
54.40730757973964
 30
0.0
 10
208.0680049076513
 20
54.39937159795634
 30
0.0
 10
208.2088252460329
 20
54.37309592907853
 30
0.0
 10
208.346037553845
 20
54.33013833054628
 30
0.0
 10
208.4799682282615
 20
54.27178120573665
 30
0.0
 10
208.5654543202207
 20
54.21934765958667
 30
0.0
 10
208.608268836869
 20
54.19308704943222
 30
0.0
  0
SPLINE
  5
1EA
330
1F
100
AcDbEntity
  8
0
  6
Continuous
 62
     7
370
    25
100
AcDbSpline
210
0.0
220
0.0
230
1.0
 70
     8
 71
     3
 72
     8
 73
     4
 74
     0
 42
0.000000001
 43
0.00000001
 40
0.0
 40
0.0
 40
0.0
 40
0.0
 40
1.0
 40
1.0
 40
1.0
 40
1.0
 10
205.9920125380133
 20
55.56406073113863
 30
0.0
 10
206.5927707617094
 20
55.17679324797974
 30
0.0
 10
207.1934996245698
 20
54.78932589805643
 30
0.0
 10
207.7942002689167
 20
54.4016590054668
 30
0.0
  0
SPLINE
  5
1EB
330
1F
100
AcDbEntity
  8
0
  6
Continuous
 62
     7
370
    25
100
AcDbSpline
210
0.0
220
0.0
230
1.0
 70
     8
 71
     3
 72
    13
 73
     9
 74
     0
 42
0.000000001
 43
0.00000001
 40
0.0
 40
0.0
 40
0.0
 40
0.0
 40
0.1667030582307992
 40
0.3329480818053035
 40
0.4990671507274896
 40
0.6653938523718403
 40
0.832261271055009
 40
1.0
 40
1.0
 40
1.0
 40
1.0
 10
205.6501840029789
 20
55.86512551022442
 30
0.0
 10
205.6704851854189
 20
55.85156040354519
 30
0.0
 10
205.7110317706075
 20
55.82446746178234
 30
0.0
 10
205.7701814075951
 20
55.77927288877463
 30
0.0
 10
205.8279529524976
 20
55.73086174029168
 30
0.0
 10
205.8842026899573
 20
55.67882662552122
 30
0.0
 10
205.9391298987034
 20
55.6235286583122
 30
0.0
 10
205.9743506082939
 20
55.58391140315183
 30
0.0
 10
205.9920068202349
 20
55.56405119415091
 30
0.0
  0
SPLINE
  5
1EC
330
1F
100
AcDbEntity
  8
0
  6
Continuous
 62
     7
370
    25
100
AcDbSpline
210
0.0
220
0.0
230
1.0
 70
     8
 71
     3
 72
     8
 73
     4
 74
     0
 42
0.000000001
 43
0.00000001
 40
0.0
 40
0.0
 40
0.0
 40
0.0
 40
1.0
 40
1.0
 40
1.0
 40
1.0
 10
203.7062034871882
 20
57.11984736260388
 30
0.0
 10
204.3542335595884
 20
56.70185204671913
 30
0.0
 10
205.0022265366903
 20
56.2836112843015
 30
0.0
 10
205.6501840029789
 20
55.86512551022442
 30
0.0
  0
LWPOLYLINE
  5
1ED
330
1F
100
AcDbEntity
  8
0
  6
Continuous
 62
     7
370
    25
100
AcDbPolyline
 90
       21
 70
   128
 43
0.0
 10
203.7062041375
 20
57.1198474131
 10
204.0538616371
 20
58.14102748
 10
204.4687124084
 20
59.1582494966
 10
204.9468532582
 20
60.1619445443
 10
205.4837883032
 20
61.1426730388
 10
206.0744658484
 20
62.0912098986
 10
206.7133310708
 20
62.9986335141
 10
207.3943740934
 20
63.8564082532
 10
208.1111895829
 20
64.656466776
 10
208.8570355253
 20
65.3912842695
 10
209.6248961167
 20
66.0539474535
 10
210.4075493464
 20
66.6382247745
 10
211.1976336093
 20
67.1386208302
 10
211.9877175091
 20
67.5504280728
 10
212.7703695863
 20
67.8697731456
 10
213.5382283667
 20
68.0936527586
 10
214.284071675
 20
68.2199615351
 10
215.000884201
 20
68.2475112447
 10
215.6819232723
 20
68.1760421566
 10
216.3207838849
 20
68.0062263605
 10
216.755941864
 20
67.8215943783
  0
SPLINE
  5
1EE
330
1F
100
AcDbEntity
  8
0
  6
Continuous
 62
     7
370
    25
100
AcDbSpline
210
0.0
220
0.0
230
1.0
 70
    11
 71
     3
 72
    39
 73
    35
 74
     0
 42
0.000000001
 43
0.00000001
 40
0.0
 40
0.0
 40
0.0
 40
0.0
 40
0.0310664058348413
 40
0.0621048158426138
 40
0.0931361551796939
 40
0.1235538293503726
 40
0.1538561545809849
 40
0.1850588072749156
 40
0.2160250992946587
 40
0.2471867223797568
 40
0.2784462884304475
 40
0.3100516090231247
 40
0.3419834369138969
 40
0.3734259894013238
 40
0.4048604886787081
 40
0.436874065183343
 40
0.4685120685926471
 40
0.499805535863323
 40
0.5309508213226204
 40
0.5618649784438111
 40
0.5930416446590877
 40
0.623374245013332
 40
0.6540913579072549
 40
0.6849496782718453
 40
0.7158160645166705
 40
0.7471731804043553
 40
0.7784514311866318
 40
0.810129591156098
 40
0.8419598919688388
 40
0.8735175891922303
 40
0.9050808037886594
 40
0.9370235169792582
 40
0.9687441590030581
 40
1.0
 40
1.0
 40
1.0
 40
1.0
 10
216.9147889683936
 20
66.1250377379453
 30
0.0
 10
217.1776745885917
 20
66.0965032506552
 30
0.0
 10
217.7045631990752
 20
66.0105607623336
 30
0.0
 10
218.4685752681512
 20
65.81018564226116
 30
0.0
 10
219.1757254562021
 20
65.56318353604162
 30
0.0
 10
219.7886365207976
 20
65.28520165788852
 30
0.0
 10
220.285767846468
 20
64.9910679605598
 30
0.0
 10
220.6449595675415
 20
64.68956143236758
 30
0.0
 10
220.8666788363003
 20
64.38256392746517
 30
0.0
 10
220.9319307136824
 20
64.07205866606347
 30
0.0
 10
220.8450835025685
 20
63.75291418131464
 30
0.0
 10
220.6027379148102
 20
63.42359421574245
 30
0.0
 10
220.2228000520838
 20
63.08465349418479
 30
0.0
 10
219.708994098924
 20
62.74681502977415
 30
0.0
 10
219.0831032880139
 20
62.42091712846332
 30
0.0
 10
218.3696323015221
 20
62.12427023522383
 30
0.0
 10
217.6057298252578
 20
61.86816692678687
 30
0.0
 10
216.8199367423561
 20
61.67913935879609
 30
0.0
 10
216.0383992873162
 20
61.57096343674284
 30
0.0
 10
215.2822863025637
 20
61.56329955337313
 30
0.0
 10
214.5799217161702
 20
61.66122158875928
 30
0.0
 10
213.9609013691275
 20
61.88287002226178
 30
0.0
 10
213.4518441041138
 20
62.21873810917351
 30
0.0
 10
213.0789005106799
 20
62.65854867535428
 30
0.0
 10
212.8502985594315
 20
63.16962331587692
 30
0.0
 10
212.7814522527122
 20
63.72080840364036
 30
0.0
 10
212.8660686659373
 20
64.27848033195211
 30
0.0
 10
213.1091774558722
 20
64.8085604728711
 30
0.0
 10
213.4913072986899
 20
65.28108482198382
 30
0.0
 10
214.0074428731002
 20
65.66720633287706
 30
0.0
 10
214.6344207336022
 20
65.95083052021019
 30
0.0
 10
215.3503281659659
 20
66.12056773893661
 30
0.0
 10
216.1187715581516
 20
66.18210657364793
 30
0.0
 10
216.650300337524
 20
66.15374622139235
 30
0.0
 10
216.9147889683935
 20
66.1250377379453
 30
0.0
  0
LINE
  5
1EF
330
1F
100
AcDbEntity
  8
0
  6
Continuous
 62
     7
370
    25
100
AcDbLine
 10
207.6902515554
 20
49.6859111206
 30
0.0
 11
208.004296614
 21
49.5177668934
 31
0.0
  0
LINE
  5
1F0
330
1F
100
AcDbEntity
  8
0
  6
Continuous
 62
     7
370
    25
100
AcDbLine
 10
206.7032935354
 20
50.2556698578
 30
0.0
 11
207.6902515554
 21
49.6859111206
 31
0.0
  0
ARC
  5
1F1
330
1F
100
AcDbEntity
  8
0
  6
Continuous
 62
     7
370
    25
100
AcDbCircle
 10
208.9271193358
 20
53.8269655214
 30
0.0
 40
4.462224792518722
100
AcDbArc
 50
267.6359113828
 51
287.0347849962
  0
SPLINE
  5
1F2
330
1F
100
AcDbEntity
  8
0
  6
Continuous
 62
     7
370
    25
100
AcDbSpline
210
0.0
220
0.0
230
1.0
 70
     8
 71
     3
 72
    14
 73
    10
 74
     0
 42
0.000000001
 43
0.00000001
 40
0.0
 40
0.0
 40
0.0
 40
0.0
 40
0.1520927654964334
 40
0.2674857265629534
 40
0.3827932169674477
 40
0.4986859355030901
 40
0.6145509981003119
 40
0.825743267810779
 40
1.0
 40
1.0
 40
1.0
 40
1.0
 10
218.2532949266929
 20
63.12254202260959
 30
0.0
 10
218.0484999854006
 20
63.23492292284
 30
0.0
 10
217.6883268799329
 20
63.43256734499127
 30
0.0
 10
217.0887037117311
 20
63.69669021179337
 30
0.0
 10
216.5095310773485
 20
63.90980660632628
 30
0.0
 10
215.8986392618545
 20
64.08059475741219
 30
0.0
 10
215.1095035720783
 20
64.21997351263137
 30
0.0
 10
214.2102302471553
 20
64.24710742730831
 30
0.0
 10
213.6456348974874
 20
64.03911287099062
 30
0.0
 10
213.390388314522
 20
63.94508110149989
 30
0.0
  0
SPLINE
  5
1F3
330
1F
100
AcDbEntity
  8
0
  6
Continuous
 62
     7
370
    25
100
AcDbSpline
210
0.0
220
0.0
230
1.0
 70
     8
 71
     3
 72
    10
 73
     6
 74
     0
 42
0.000000001
 43
0.00000001
 40
0.0
 40
0.0
 40
0.0
 40
0.0
 40
0.3798174073072795
 40
0.9603711649033085
 40
1.0
 40
1.0
 40
1.0
 40
1.0
 10
219.3931750485524
 20
62.59431509509108
 30
0.0
 10
219.263522431304
 20
62.66464365692846
 30
0.0
 10
218.9356948155496
 20
62.84246995334958
 30
0.0
 10
218.5277662705394
 20
63.01552280375198
 30
0.0
 10
218.2711334891075
 20
63.1147282360003
 30
0.0
 10
218.2547349988957
 20
63.12106732994067
 30
0.0
  0
SPLINE
  5
1F4
330
1F
100
AcDbEntity
  8
0
  6
Continuous
 62
     7
370
    25
100
AcDbSpline
210
0.0
220
0.0
230
1.0
 70
     8
 71
     3
 72
    25
 73
    21
 74
     0
 42
0.000000001
 43
0.00000001
 40
0.0
 40
0.0
 40
0.0
 40
0.0
 40
0.0472534056539054
 40
0.089573634806592
 40
0.1269632476291658
 40
0.1594267920077607
 40
0.2428508088260168
 40
0.318367244167374
 40
0.3935858659017
 40
0.4205144100182734
 40
0.4483683846680365
 40
0.4771558167110822
 40
0.5451774052591232
 40
0.6363664555512807
 40
0.6968940234725829
 40
0.7498726561364739
 40
0.7959807223703401
 40
0.8771243100716252
 40
0.9543027934106351
 40
0.9999999999999999
 40
0.9999999999999999
 40
0.9999999999999999
 40
0.9999999999999999
 10
216.8599104013913
 20
65.55117983798854
 30
0.0
 10
216.7195062439353
 20
65.56649577823235
 30
0.0
 10
216.453355888183
 20
65.59552870018018
 30
0.0
 10
216.0805773407957
 20
65.60279658976073
 30
0.0
 10
215.7580164493844
 20
65.58940912670276
 30
0.0
 10
215.3288998763459
 20
65.54345153428186
 30
0.0
 10
214.8212823762899
 20
65.42643087318561
 30
0.0
 10
214.2784727972704
 20
65.18384804471921
 30
0.0
 10
213.9380733521025
 20
64.92649624168192
 30
0.0
 10
213.7314472308592
 20
64.71168722776076
 30
0.0
 10
213.6134630725003
 20
64.56518420925504
 30
0.0
 10
213.4612927056608
 20
64.33543326334477
 30
0.0
 10
213.2946120441555
 20
63.96249064260863
 30
0.0
 10
213.2262504723342
 20
63.49993156054204
 30
0.0
 10
213.2766059342222
 20
63.07159886798133
 30
0.0
 10
213.3820350780733
 20
62.75167197324281
 30
0.0
 10
213.5642344046726
 20
62.41120645833181
 30
0.0
 10
213.8651128297797
 20
62.07525820135741
 30
0.0
 10
214.2547977243683
 20
61.80219890067471
 30
0.0
 10
214.5477166805636
 20
61.70824382974467
 30
0.0
 10
214.6566526146201
 20
61.67330213957868
 30
0.0
  0
SPLINE
  5
1F5
330
1F
100
AcDbEntity
  8
0
  6
Continuous
 62
     7
370
    25
100
AcDbSpline
210
0.0
220
0.0
230
1.0
 70
     8
 71
     3
 72
    22
 73
    18
 74
     0
 42
0.000000001
 43
0.00000001
 40
0.0
 40
0.0
 40
0.0
 40
0.0
 40
0.0348562931077237
 40
0.0924900623539491
 40
0.1569277788850789
 40
0.2282085360920659
 40
0.2894089077515647
 40
0.3420696922203051
 40
0.3861903498429299
 40
0.4217735408338573
 40
0.5236918810098915
 40
0.6145479843395962
 40
0.7067593487247504
 40
0.7559111409869668
 40
0.8071360726317764
 40
0.8951475619903156
 40
1.0
 40
1.0
 40
1.0
 40
1.0
 10
220.1236543487756
 20
63.03403575021882
 30
0.0
 10
220.1612902386512
 20
63.06920897263041
 30
0.0
 10
220.2611558724001
 20
63.16253999678673
 30
0.0
 10
220.3799799211352
 20
63.31788523638704
 30
0.0
 10
220.4763909896535
 20
63.50661444118938
 30
0.0
 10
220.5076671447954
 20
63.69259332680187
 30
0.0
 10
220.4782618206219
 20
63.8644048881373
 30
0.0
 10
220.4097667974137
 20
64.0112114786481
 30
0.0
 10
220.3219541503993
 20
64.13242240066192
 30
0.0
 10
220.1676629984451
 20
64.29800554784539
 30
0.0
 10
219.899836680489
 20
64.50816979020092
 30
0.0
 10
219.4482665410226
 20
64.76361360066296
 30
0.0
 10
219.0007039042993
 20
64.97025029733396
 30
0.0
 10
218.5918101354154
 20
65.12875451397767
 30
0.0
 10
218.169730535608
 20
65.27127126191246
 30
0.0
 10
217.5914179182289
 20
65.43452783076792
 30
0.0
 10
217.1175393243612
 20
65.51009628068971
 30
0.0
 10
216.8599104013913
 20
65.55117983798854
 30
0.0
  0
LINE
  5
1F6
330
1F
100
AcDbEntity
  8
0
  6
Continuous
 62
     7
370
    25
100
AcDbLine
 10
210.3503406795
 20
50.3040086499
 30
0.0
 11
210.3451026165
 21
50.6000920728
 31
0.0
  0
LINE
  5
1F7
330
1F
100
AcDbEntity
  8
0
  6
Continuous
 62
     7
370
    25
100
AcDbLine
 10
210.3451026165
 20
50.6000920728
 30
0.0
 11
210.3881990862
 21
51.2516978773
 31
0.0
  0
LINE
  5
1F8
330
1F
100
AcDbEntity
  8
0
  6
Continuous
 62
     7
370
    25
100
AcDbLine
 10
209.8655537985
 20
53.0807802903
 30
0.0
 11
209.5541392959
 21
53.4093768598
 31
0.0
  0
SPLINE
  5
1F9
330
1F
100
AcDbEntity
  8
0
  6
Continuous
 62
     7
370
    25
100
AcDbSpline
210
0.0
220
0.0
230
1.0
 70
     8
 71
     3
 72
    20
 73
    16
 74
     0
 42
0.000000001
 43
0.00000001
 40
0.0
 40
0.0
 40
0.0
 40
0.0
 40
0.0208840356930524
 40
0.1453814907232769
 40
0.207457877578707
 40
0.2714500362909257
 40
0.3931455631841341
 40
0.5137637705452784
 40
0.636753113055787
 40
0.699518587041102
 40
0.7644693177495692
 40
0.812314500977215
 40
0.8607030377512609
 40
0.9189076843114311
 40
1.0
 40
1.0
 40
1.0
 40
1.0
 10
213.2569218605312
 20
63.30203156140039
 30
0.0
 10
213.2544031959033
 20
63.35480050418744
 30
0.0
 10
213.2368698405875
 20
63.72214461712748
 30
0.0
 10
213.3984409805582
 20
64.19805300147793
 30
0.0
 10
213.7389410309561
 20
64.68788763769571
 30
0.0
 10
214.1942248915748
 20
65.09737712574405
 30
0.0
 10
214.9434833030127
 20
65.44741177873618
 30
0.0
 10
216.0194731052941
 20
65.5670076774747
 30
0.0
 10
216.9730030172545
 20
65.40651213314277
 30
0.0
 10
217.7077205528428
 20
65.10911826270349
 30
0.0
 10
218.1805128527772
 20
64.8114657097899
 30
0.0
 10
218.5374852097693
 20
64.44055280063698
 30
0.0
 10
218.7323328011447
 20
64.00823178314772
 30
0.0
 10
218.7613620200044
 20
63.50529035667132
 30
0.0
 10
218.6989883846787
 20
63.17154536111737
 30
0.0
 10
218.662677309083
 20
62.97725430047949
 30
0.0
  0
SPLINE
  5
1FA
330
1F
100
AcDbEntity
  8
0
  6
Continuous
 62
     7
370
    25
100
AcDbSpline
210
0.0
220
0.0
230
1.0
 70
     8
 71
     3
 72
    10
 73
     6
 74
     0
 42
0.000000001
 43
0.00000001
 40
0.0
 40
0.0
 40
0.0
 40
0.0
 40
0.2949416031088204
 40
0.9797910734598959
 40
1.0
 40
1.0
 40
1.0
 40
1.0
 10
218.6654051650712
 20
62.9760157470571
 30
0.0
 10
218.7482302036273
 20
62.93725050204656
 30
0.0
 10
219.0233735966954
 20
62.80847300636106
 30
0.0
 10
219.2985138892712
 20
62.6671606648482
 30
0.0
 10
219.4471520625518
 20
62.57305618790917
 30
0.0
 10
219.4514124442991
 20
62.5703588929476
 30
0.0
  0
ARC
  5
1FB
330
1F
100
AcDbEntity
  8
0
  6
Continuous
 62
     7
370
    25
100
AcDbCircle
 10
222.6755137304
 20
48.7627967547
 30
0.0
 40
12.46654291791697
100
AcDbArc
 50
171.5249863735
 51
179.8211981812
  0
SPLINE
  5
1FC
330
1F
100
AcDbEntity
  8
0
  6
Continuous
 62
     7
370
    25
100
AcDbSpline
210
0.0
220
0.0
230
1.0
 70
     8
 71
     3
 72
    14
 73
    10
 74
     0
 42
0.000000001
 43
0.00000001
 40
0.0
 40
0.0
 40
0.0
 40
0.0
 40
0.0003951393068452
 40
0.0003951393068452
 40
0.0003951393068452
 40
0.0008163352168663
 40
0.0008163352168663
 40
0.0008163352168663
 40
0.0012378579337219
 40
0.0012378579337219
 40
0.0012378579337219
 40
0.0012378579337219
 10
218.2573275022326
 20
63.12126306922525
 30
0.0
 10
218.3027893164639
 20
63.10682620660021
 30
0.0
 10
218.3476769210849
 20
63.0919603460346
 30
0.0
 10
218.39196061376
 20
63.07667655842913
 30
0.0
 10
218.4391639059994
 20
63.06038511909144
 30
0.0
 10
218.4856897190585
 20
63.04361564100752
 30
0.0
 10
218.5315006283002
 20
63.02638683021225
 30
0.0
 10
218.5773470162893
 20
63.00914467638059
 30
0.0
 10
218.6224862518617
 20
62.99143897017611
 30
0.0
 10
218.666879809904
 20
62.97329611348532
 30
0.0
  0
LINE
  5
1FD
330
1F
100
AcDbEntity
  8
0
  6
Continuous
 62
     7
370
    25
100
AcDbLine
 10
209.5541392959
 20
53.4093768598
 30
0.0
 11
208.9142026216
 21
53.8216084999
 31
0.0
  0
LINE
  5
1FE
330
1F
100
AcDbEntity
  8
0
  6
Continuous
 62
     7
370
    25
100
AcDbLine
 10
208.6082685264
 20
54.1930868867
 30
0.0
 11
208.9142026216
 21
53.8216084999
 31
0.0
  0
SPLINE
  5
1FF
330
1F
100
AcDbEntity
  8
0
  6
Continuous
 62
     7
370
    25
100
AcDbSpline
210
0.0
220
0.0
230
1.0
 70
     8
 71
     3
 72
    13
 73
     9
 74
     0
 42
0.000000001
 43
0.00000001
 40
0.0
 40
0.0
 40
0.0
 40
0.0
 40
0.161854229885178
 40
0.3254858841554281
 40
0.4910085196607404
 40
0.6585318472791263
 40
0.8281616954204583
 40
0.9999999999999999
 40
0.9999999999999999
 40
0.9999999999999999
 40
0.9999999999999999
 10
208.914203033211
 20
53.82160850379534
 30
0.0
 10
208.8946256411936
 20
53.8341714808285
 30
0.0
 10
208.8552558653478
 20
53.85943539694711
 30
0.0
 10
208.7937199255775
 20
53.89212909386197
 30
0.0
 10
208.7301632663281
 20
53.92107516756886
 30
0.0
 10
208.6645451636714
 20
53.94558753503446
 30
0.0
 10
208.5971178946166
 20
53.96602259838797
 30
0.0
 10
208.551233294418
 20
53.97561925337774
 30
0.0
 10
208.5281426142431
 20
53.98044861421253
 30
0.0
  0
SPLINE
  5
200
330
1F
100
AcDbEntity
  8
0
  6
Continuous
 62
     7
370
    25
100
AcDbSpline
210
0.0
220
0.0
230
1.0
 70
     8
 71
     3
 72
     9
 73
     5
 74
     0
 42
0.000000001
 43
0.00000001
 40
0.0
 40
0.0
 40
0.0
 40
0.0
 40
0.4907282259506175
 40
1.0
 40
1.0
 40
1.0
 40
1.0
 10
208.5281367869511
 20
53.98042061718152
 30
0.0
 10
208.5040432644733
 20
53.98851614939964
 30
0.0
 10
208.4549457779141
 20
54.00501312632092
 30
0.0
 10
208.4042450840939
 20
54.01980679533715
 30
0.0
 10
208.3784246518066
 20
54.02734079340176
 30
0.0
  0
SPLINE
  5
201
330
1F
100
AcDbEntity
  8
0
  6
Continuous
 62
     7
370
    25
100
AcDbSpline
210
0.0
220
0.0
230
1.0
 70
     8
 71
     3
 72
    14
 73
    10
 74
     0
 42
0.000000001
 43
0.00000001
 40
0.0
 40
0.0
 40
0.0
 40
0.0
 40
0.0310276388071746
 40
0.0622853718672815
 40
0.1248003166904892
 40
0.2498289731753997
 40
0.499889260361071
 40
0.7606803621682141
 40
1.0
 40
1.0
 40
1.0
 40
1.0
 10
207.7944839625183
 20
54.40144853604762
 30
0.0
 10
207.8004762019227
 20
54.39761749239398
 30
0.0
 10
207.812505117882
 20
54.38992699489627
 30
0.0
 10
207.8365649259311
 20
54.37448910538959
 30
0.0
 10
207.8787985985774
 20
54.34741865245876
 30
0.0
 10
207.9633611730896
 20
54.29320662766337
 30
0.0
 10
208.0866481425598
 20
54.21420344579735
 30
0.0
 10
208.2327798490138
 20
54.12059727111991
 30
0.0
 10
208.3311464655545
 20
54.05761419472745
 30
0.0
 10
208.3782181662388
 20
54.02747469593832
 30
0.0
  0
LINE
  5
202
330
1F
100
AcDbEntity
  8
0
  6
Continuous
 62
     7
370
    25
100
AcDbLine
 10
205.9919838073
 20
55.5640792131
 30
0.0
 11
206.2829511614
 21
55.3760006739
 31
0.0
  0
SPLINE
  5
203
330
1F
100
AcDbEntity
  8
0
  6
Continuous
 62
     7
370
    25
100
AcDbSpline
210
0.0
220
0.0
230
1.0
 70
     8
 71
     3
 72
     8
 73
     4
 74
     0
 42
0.000000001
 43
0.00000001
 40
0.0
 40
0.0
 40
0.0
 40
0.0
 40
1.0
 40
1.0
 40
1.0
 40
1.0
 10
206.3143394648135
 20
55.35577814373644
 30
0.0
 10
206.3038969589617
 20
55.36260356863384
 30
0.0
 10
206.2934310260719
 20
55.36934653542038
 30
0.0
 10
206.2829432612554
 20
55.37600562307335
 30
0.0
  0
SPLINE
  5
204
330
1F
100
AcDbEntity
  8
0
  6
Continuous
 62
     7
370
    25
100
AcDbSpline
210
0.0
220
0.0
230
1.0
 70
     8
 71
     3
 72
     8
 73
     4
 74
     0
 42
0.000000001
 43
0.00000001
 40
0.0
 40
0.0
 40
0.0
 40
0.0
 40
1.0
 40
1.0
 40
1.0
 40
1.0
 10
203.5283350859897
 20
57.23403379554552
 30
0.0
 10
203.5873348501597
 20
57.19529312862656
 30
0.0
 10
203.6466224136702
 20
57.15723115132727
 30
0.0
 10
203.7062034871586
 20
57.11984736286698
 30
0.0
  0
SPLINE
  5
205
330
1F
100
AcDbEntity
  8
0
  6
Continuous
 62
     7
370
    25
100
AcDbSpline
210
0.0
220
0.0
230
1.0
 70
     8
 71
     3
 72
     8
 73
     4
 74
     0
 42
0.000000001
 43
0.00000001
 40
0.0
 40
0.0
 40
0.0
 40
0.0
 40
1.0
 40
1.0
 40
1.0
 40
1.0
 10
203.5034853398901
 20
57.59724397348384
 30
0.0
 10
203.5109595519807
 20
57.476286132772
 30
0.0
 10
203.5192556558708
 20
57.35521429036135
 30
0.0
 10
203.5283350859897
 20
57.23403379554552
 30
0.0
  0
LWPOLYLINE
  5
206
330
1F
100
AcDbEntity
  8
0
  6
Continuous
 62
     7
370
    25
100
AcDbPolyline
 90
       17
 70
   128
 43
0.0
 10
203.5034856987
 20
57.5972433081
 10
203.8595666411
 20
58.6098578713
 10
204.2836153035
 20
59.6166458542
 10
204.7713998792
 20
60.6075562355
 10
205.3180487849
 20
61.5726948996
 10
205.9181046624
 20
62.5024257728
 10
206.5655770616
 20
63.3874673973
 10
207.2540007217
 20
64.2189824701
 10
207.9765029076
 20
64.9886688072
 10
208.7258699229
 20
65.688842608
 10
209.494619961
 20
66.3125132114
 10
210.2750778091
 20
66.8534535981
 10
211.0594513217
 20
67.3062627886
 10
211.8399091699
 20
67.666419853
 10
212.608659208
 20
67.9303291509
 10
213.3580262232
 20
68.0953560896
 10
213.4674481677
 20
68.1113509995
  0
SPLINE
  5
207
330
1F
100
AcDbEntity
  8
0
  6
Continuous
 62
     7
370
    25
100
AcDbSpline
210
0.0
220
0.0
230
1.0
 70
     8
 71
     3
 72
    10
 73
     6
 74
     0
 42
0.000000001
 43
0.00000001
 40
0.0
 40
0.0
 40
0.0
 40
0.0
 40
0.2409818396634726
 40
0.5031433556203718
 40
1.0
 40
1.0
 40
1.0
 40
1.0
 10
209.5541392959288
 20
46.70353523653002
 30
0.0
 10
209.6363851669318
 20
46.65185871460947
 30
0.0
 10
209.8081054242763
 20
46.54396386791809
 30
0.0
 10
210.0858267833032
 20
46.41424115745384
 30
0.0
 10
210.2068040303472
 20
46.43701909855882
 30
0.0
 10
210.2859962712627
 20
46.45192963953756
 30
0.0
  0
LINE
  5
208
330
1F
100
AcDbEntity
  8
0
  6
Continuous
 62
     7
370
    25
100
AcDbLine
 10
204.7709652398
 20
56.4326079695
 30
0.0
 11
204.0090865374
 21
56.9232423772
 31
0.0
  0
LINE
  5
209
330
1F
100
AcDbEntity
  8
0
  6
Continuous
 62
     7
370
    25
100
AcDbLine
 10
204.0090865374
 20
56.9232423772
 30
0.0
 11
203.5283352172
 21
57.2340337532
 31
0.0
  0
LINE
  5
20A
330
1F
100
AcDbEntity
  8
0
  6
Continuous
 62
     7
370
    25
100
AcDbLine
 10
208.6082685264
 20
46.4277554356
 30
0.0
 11
208.9142026216
 21
47.1157668766
 31
0.0
  0
LINE
  5
20B
330
1F
100
AcDbEntity
  8
0
  6
Continuous
 62
     7
370
    25
100
AcDbLine
 10
208.9142026216
 20
47.1157668766
 30
0.0
 11
209.5541392959
 21
46.7035352365
 31
0.0
  0
SPLINE
  5
20C
330
1F
100
AcDbEntity
  8
0
  6
Continuous
 62
     7
370
    25
100
AcDbSpline
210
0.0
220
0.0
230
1.0
 70
     8
 71
     3
 72
    13
 73
     9
 74
     0
 42
0.000000001
 43
0.00000001
 40
0.0
 40
0.0
 40
0.0
 40
0.0
 40
0.172258782378417
 40
0.342139827159501
 40
0.5097456258302661
 40
0.6751828993623331
 40
0.8385626190354498
 40
1.0
 40
1.0
 40
1.0
 40
1.0
 10
208.5281311024378
 20
47.39707658204863
 30
0.0
 10
208.5512826263929
 20
47.37895699111119
 30
0.0
 10
208.5972661071486
 20
47.34296791916987
 30
0.0
 10
208.6648071198678
 20
47.2919679357482
 30
0.0
 10
208.7304667345561
 20
47.24364325555644
 30
0.0
 10
208.7939908058038
 20
47.19821224965061
 30
0.0
 10
208.8554211845176
 20
47.15538668189771
 30
0.0
 10
208.894687351484
 20
47.12892086472749
 30
0.0
 10
208.914203033211
 20
47.11576708618362
 30
0.0
  0
SPLINE
  5
20D
330
1F
100
AcDbEntity
  8
0
  6
Continuous
 62
     7
370
    25
100
AcDbSpline
210
0.0
220
0.0
230
1.0
 70
     8
 71
     3
 72
    11
 73
     7
 74
     0
 42
0.000000001
 43
0.00000001
 40
0.0
 40
0.0
 40
0.0
 40
0.0
 40
0.2392845094479887
 40
0.5001120454076898
 40
0.7515010915036774
 40
1.0
 40
1.0
 40
1.0
 40
1.0
 10
208.3787506909617
 20
47.44439057426151
 30
0.0
 10
208.3316814589571
 20
47.41607605154872
 30
0.0
 10
208.2333053043625
 20
47.35689782099254
 30
0.0
 10
208.0870080827787
 20
47.26370992053262
 30
0.0
 10
207.9391673391349
 20
47.16833800456016
 30
0.0
 10
207.8428808764159
 20
47.10380274929734
 30
0.0
 10
207.7950159885569
 20
47.07172167923951
 30
0.0
  0
SPLINE
  5
20E
330
1F
100
AcDbEntity
  8
0
  6
Continuous
 62
     7
370
    25
100
AcDbSpline
210
0.0
220
0.0
230
1.0
 70
     8
 71
     3
 72
     9
 73
     5
 74
     0
 42
0.000000001
 43
0.00000001
 40
0.0
 40
0.0
 40
0.0
 40
0.0
 40
0.5090669353869915
 40
1.0
 40
1.0
 40
1.0
 40
1.0
 10
208.3793216945458
 20
47.44369162004974
 30
0.0
 10
208.4049702691698
 20
47.43619891188985
 30
0.0
 10
208.4553537705153
 20
47.4214803991776
 30
0.0
 10
208.5041612820106
 20
47.40508804132543
 30
0.0
 10
208.5281225032051
 20
47.39704049084883
 30
0.0
  0
LINE
  5
20F
330
1F
100
AcDbEntity
  8
0
  6
Continuous
 62
     7
370
    25
100
AcDbLine
 10
210.2092402747
 20
48.3675701873
 30
0.0
 11
208.5281243183
 21
47.3970826031
 31
0.0
  0
LINE
  5
210
330
1F
100
AcDbEntity
  8
0
  6
Continuous
 62
     7
370
    25
100
AcDbLine
 10
206.5216366671
 20
48.5209039018
 30
0.0
 11
206.3213410135
 21
48.0197464875
 31
0.0
  0
SPLINE
  5
211
330
1F
100
AcDbEntity
  8
0
  6
Continuous
 62
     7
370
    25
100
AcDbSpline
210
0.0
220
0.0
230
1.0
 70
     8
 71
     3
 72
     8
 73
     4
 74
     0
 42
0.000000001
 43
0.00000001
 40
0.0
 40
0.0
 40
0.0
 40
0.0
 40
1.0
 40
1.0
 40
1.0
 40
1.0
 10
206.5211934964056
 20
48.52168765391109
 30
0.0
 10
206.5473688309748
 20
48.54385503088935
 30
0.0
 10
206.5731898709403
 20
48.56648717198097
 30
0.0
 10
206.5986474246487
 20
48.58957189207226
 30
0.0
  0
LINE
  5
212
330
1F
100
AcDbEntity
  8
0
  6
Continuous
 62
     7
370
    25
100
AcDbLine
 10
206.5986475204
 20
48.5895717764
 30
0.0
 11
208.3789402797
 21
47.4438008913
 31
0.0
  0
LINE
  5
213
330
1F
100
AcDbEntity
  8
0
  6
Continuous
 62
     7
370
    25
100
AcDbLine
 10
210.2090315161
 20
48.4656201225
 30
0.0
 11
210.1210321891
 21
48.5731111908
 31
0.0
  0
LINE
  5
214
330
1F
100
AcDbEntity
  8
0
  6
Continuous
 62
     7
370
    25
100
AcDbLine
 10
208.2926241924
 20
49.5674836938
 30
0.0
 11
206.5986475204
 21
48.5895717764
 31
0.0
  0
LINE
  5
215
330
1F
100
AcDbEntity
  8
0
  6
Continuous
 62
     7
370
    25
100
AcDbLine
 10
208.435318275
 20
49.5461915321
 30
0.0
 11
208.2930443438
 21
49.5669963163
 31
0.0
  0
LINE
  5
216
330
1F
100
AcDbEntity
  8
0
  6
Continuous
 62
     7
370
    25
100
AcDbLine
 10
210.1211059461
 20
48.5730070244
 30
0.0
 11
208.435318275
 21
49.5461915321
 31
0.0
  0
LINE
  5
217
330
1F
100
AcDbEntity
  8
0
  6
Continuous
 62
     7
370
    25
100
AcDbLine
 10
210.2090315161
 20
48.5222429415
 30
0.0
 11
210.1210591894
 21
48.5730339977
 31
0.0
  0
SPLINE
  5
218
330
1F
100
AcDbEntity
  8
0
  6
Continuous
 62
     7
370
    25
100
AcDbSpline
210
0.0
220
0.0
230
1.0
 70
     8
 71
     3
 72
    19
 73
    15
 74
     0
 42
0.000000001
 43
0.00000001
 40
0.0
 40
0.0
 40
0.0
 40
0.0
 40
0.0637853009127854
 40
0.1289628367668835
 40
0.1955871994312377
 40
0.2637095015417503
 40
0.3333775579368785
 40
0.404636070956767
 40
0.4775268158870349
 40
0.5520888236349092
 40
0.6283585584292241
 40
0.7063700889344752
 40
0.8377041805690577
 40
0.9999999999999999
 40
0.9999999999999999
 40
0.9999999999999999
 40
0.9999999999999999
 10
205.7371243904443
 20
48.69017574126296
 30
0.0
 10
205.7578137594494
 20
48.67681660125264
 30
0.0
 10
205.7996440821042
 20
48.64980673271174
 30
0.0
 10
205.8601350556989
 20
48.61228476718521
 30
0.0
 10
205.9196192538782
 20
48.57676502609455
 30
0.0
 10
205.9777004133499
 20
48.54378489717804
 30
0.0
 10
206.0342325304371
 20
48.5135784609077
 30
0.0
 10
206.0889775851909
 20
48.48646502094618
 30
0.0
 10
206.1416999627832
 20
48.46273340319618
 30
0.0
 10
206.1921415957142
 20
48.44269314975151
 30
0.0
 10
206.2400245141796
 20
48.4265732882132
 30
0.0
 10
206.2949886685497
 20
48.41229531853159
 30
0.0
 10
206.3578199825093
 20
48.40215676127687
 30
0.0
 10
206.3963274981673
 20
48.40863101259013
 30
0.0
 10
206.4176114633645
 20
48.41220947609978
 30
0.0
  0
LINE
  5
219
330
1F
100
AcDbEntity
  8
0
  6
Continuous
 62
     7
370
    25
100
AcDbLine
 10
206.442247151
 20
48.4382799304
 30
0.0
 11
206.5099237945
 21
48.509895653
 31
0.0
  0
SPLINE
  5
21A
330
1F
100
AcDbEntity
  8
0
  6
Continuous
 62
     7
370
    25
100
AcDbSpline
210
0.0
220
0.0
230
1.0
 70
     8
 71
     3
 72
     9
 73
     5
 74
     0
 42
0.000000001
 43
0.00000001
 40
0.0
 40
0.0
 40
0.0
 40
0.0
 40
0.5232016984460688
 40
1.0
 40
1.0
 40
1.0
 40
1.0
 10
208.1264464127587
 20
49.47155147299584
 30
0.0
 10
208.0574222501101
 20
49.49659363811234
 30
0.0
 10
207.9254957620011
 20
49.54445694817206
 30
0.0
 10
207.6840583491825
 20
49.68205507885873
 30
0.0
 10
207.568941400819
 20
49.74766163386713
 30
0.0
  0
LINE
  5
21B
330
1F
100
AcDbEntity
  8
0
  6
Continuous
 62
     7
370
    25
100
AcDbLine
 10
203.8394402038
 20
49.5135511965
 30
0.0
 11
204.2909113182
 21
49.6258151694
 31
0.0
  0
LINE
  5
21C
330
1F
100
AcDbEntity
  8
0
  6
Continuous
 62
     7
370
    25
100
AcDbLine
 10
204.2909113182
 20
49.6258151694
 30
0.0
 11
205.73712379
 21
48.6901758363
 31
0.0
  0
SPLINE
  5
21D
330
1F
100
AcDbEntity
  8
0
  6
Continuous
 62
     7
370
    25
100
AcDbSpline
210
0.0
220
0.0
230
1.0
 70
     8
 71
     3
 72
     8
 73
     4
 74
     0
 42
0.000000001
 43
0.00000001
 40
0.0
 40
0.0
 40
0.0
 40
0.0
 40
1.0
 40
1.0
 40
1.0
 40
1.0
 10
204.0102287744611
 20
49.11880154347964
 30
0.0
 10
203.953103505537
 20
49.25058772727528
 30
0.0
 10
203.8961750138194
 20
49.38217194893607
 30
0.0
 10
203.83944089587
 20
49.51355101583743
 30
0.0
  0
LINE
  5
21E
330
1F
100
AcDbEntity
  8
0
  6
Continuous
 62
     7
370
    25
100
AcDbLine
 10
205.6286127772
 20
50.3980537841
 30
0.0
 11
204.2909113182
 21
49.6258151694
 31
0.0
  0
LINE
  5
21F
330
1F
100
AcDbEntity
  8
0
  6
Continuous
 62
     7
370
    25
100
AcDbLine
 10
206.6116412621
 20
50.3003003813
 30
0.0
 11
205.6286127772
 21
50.3980537841
 31
0.0
  0
LINE
  5
220
330
1F
100
AcDbEntity
  8
0
  6
Continuous
 62
     7
370
    25
100
AcDbLine
 10
207.5689414008
 20
49.7476616339
 30
0.0
 11
206.6116402743
 21
50.300299811
 31
0.0
  0
SPLINE
  5
221
330
1F
100
AcDbEntity
  8
0
  6
Continuous
 62
     7
370
    25
100
AcDbSpline
210
0.0
220
0.0
230
1.0
 70
     8
 71
     3
 72
     8
 73
     4
 74
     0
 42
0.000000001
 43
0.00000001
 40
0.0
 40
0.0
 40
0.0
 40
0.0
 40
1.0
 40
1.0
 40
1.0
 40
1.0
 10
203.8394408958722
 20
49.51355101583232
 30
0.0
 10
203.8363035581221
 20
49.54876732270483
 30
0.0
 10
203.8343111542241
 20
49.58441157893253
 30
0.0
 10
203.8335297568521
 20
49.62050848092741
 30
0.0
  0
LINE
  5
222
330
1F
100
AcDbEntity
  8
0
  6
Continuous
 62
     7
370
    25
100
AcDbLine
 10
204.6446162319
 20
50.0887381956
 30
0.0
 11
203.8335304254
 21
49.620508326
 31
0.0
  0
SPLINE
  5
223
330
1F
100
AcDbEntity
  8
0
  6
Continuous
 62
     7
370
    25
100
AcDbSpline
210
0.0
220
0.0
230
1.0
 70
     8
 71
     3
 72
     8
 73
     4
 74
     0
 42
0.000000001
 43
0.00000001
 40
0.0000004089325119
 40
0.0000004089325119
 40
0.0000004089325119
 40
0.0000004089325119
 40
0.0015399868451459
 40
0.0015399868451459
 40
0.0015399868451459
 40
0.0015399868451459
 10
204.6446152893408
 20
50.08873819228351
 30
0.0
 10
204.8830918573641
 20
50.18311457809988
 30
0.0
 10
205.1215388150327
 20
50.27754319003008
 30
0.0
 10
205.3599475538831
 20
50.37203657299253
 30
0.0
  0
LINE
  5
224
330
1F
100
AcDbEntity
  8
0
  6
Continuous
 62
     7
370
    25
100
AcDbLine
 10
205.3599470328
 20
50.3720367201
 30
0.0
 11
205.3843434727
 21
50.3770307465
 31
0.0
  0
LINE
  5
225
330
1F
100
AcDbEntity
  8
0
  6
Continuous
 62
     7
370
    25
100
AcDbLine
 10
205.6286127772
 20
50.3980537841
 30
0.0
 11
205.3843441312
 21
50.3770307465
 31
0.0
  0
SPLINE
  5
226
330
1F
100
AcDbEntity
  8
0
  6
Continuous
 62
     7
370
    25
100
AcDbSpline
210
0.0
220
0.0
230
1.0
 70
     8
 71
     3
 72
     8
 73
     4
 74
     0
 42
0.000000001
 43
0.00000001
 40
0.0
 40
0.0
 40
0.0
 40
0.0
 40
1.0
 40
1.0
 40
1.0
 40
1.0
 10
206.6116394683911
 20
50.30030056557951
 30
0.0
 10
206.6422475025143
 20
50.28536055777339
 30
0.0
 10
206.6727990034863
 20
50.27048360038001
 30
0.0
 10
206.7032929416008
 20
50.25567003669909
 30
0.0
  0
ARC
  5
227
330
1F
100
AcDbEntity
  8
0
  6
Continuous
 62
     7
370
    25
100
AcDbCircle
 10
207.4671356045
 20
55.8009809371
 30
0.0
 40
6.625640594015547
100
AcDbArc
 50
283.7328304029
 51
294.8489571919
  0
LWPOLYLINE
  5
228
330
1F
100
AcDbEntity
  8
0
  6
Continuous
 62
     7
370
    18
100
AcDbPolyline
 90
       45
 70
   128
 43
0.0
 10
220.3811431111
 20
39.9785904379
 10
220.4189310535
 20
41.0415280808
 10
220.5320294873
 20
42.1406388199
 10
220.7196448664
 20
43.2682129667
 10
220.9804620773
 20
44.4163420206
 10
221.3126510249
 20
45.576972281
 10
221.7138817788
 20
46.7419630211
 10
222.1813397196
 20
47.9031418104
 10
222.7117466129
 20
49.0523647791
 10
223.3013810235
 20
50.1815709896
 10
223.9461086092
 20
51.2828390878
 10
224.6414058276
 20
52.3484450964
 10
225.3823954982
 20
53.3709141228
 10
226.1638810462
 20
54.3430751094
 10
226.9803807471
 20
55.2581079787
 10
227.8261669102
 20
56.1095951516
 10
228.6953072017
 20
56.8915636537
 10
229.5817053106
 20
57.5985283629
 10
230.4791437125
 20
58.2255311455
 10
231.381327586
 20
58.7681738133
 10
232.281928689
 20
59.2226495364
 10
233.1746299743
 20
59.5857708807
 10
234.0531698363
 20
59.8549915484
 10
234.9113860269
 20
60.0284218448
 10
235.7432584616
 20
60.1048457841
 10
236.5429524359
 20
60.0837277875
 10
237.3048584679
 20
59.9652151508
 10
238.023632798
 20
59.7501401316
 10
238.6942332803
 20
59.4400102503
 10
239.3119559314
 20
59.037002013
 10
239.8724681868
 20
58.5439405656
 10
240.3718385359
 20
57.9642863831
 10
240.8065641805
 20
57.3021040881
 10
241.1735960595
 20
56.5620384939
 10
241.4703592639
 20
55.749281142
 10
241.6947727929
 20
54.8695326574
 10
241.8452620668
 20
53.928963774
 10
241.9207714387
 20
52.9341717965
 10
241.9207714387
 20
51.892134592
 10
241.8452620668
 20
50.8101613495
 10
241.6947727929
 20
49.6958412489
 10
241.4703592639
 20
48.5569904188
 10
241.1735960595
 20
47.4015975643
 10
240.8065641805
 20
46.2377659827
 10
240.5076719018
 20
45.4184884201
  0
LWPOLYLINE
  5
229
330
1F
100
AcDbEntity
  8
0
  6
Continuous
 62
     7
370
    18
100
AcDbPolyline
 90
       26
 70
   128
 43
0.0
 10
236.5079968935
 20
38.4900975354
 10
235.7432584616
 20
37.5890559386
 10
234.9113860269
 20
36.7050204088
 10
234.0531698363
 20
35.8875753828
 10
233.1746299743
 20
35.1424555168
 10
232.281928689
 20
34.4748858959
 10
231.381327586
 20
33.8895497185
 10
230.4791437125
 20
33.3905530578
 10
229.5817053106
 20
32.981395517
 10
228.6953072017
 20
32.6649467535
 10
227.8261669102
 20
32.4434272348
 10
226.9803807471
 20
32.3183904898
 10
226.1638810462
 20
32.2907128706
 10
225.3823954982
 20
32.3605898491
 10
224.6414058276
 20
32.5275304123
 10
223.9461086092
 20
32.79036334
 10
223.3013810235
 20
33.1472448125
 10
222.7117466129
 20
33.5956736232
 10
222.1813397196
 20
34.1325018282
 10
221.7138817788
 20
34.7539651671
 10
221.3126510249
 20
35.4557047395
 10
220.9804620773
 20
36.2327978048
 10
220.7196448664
 20
37.0797937167
 10
220.5320294873
 20
37.9907517576
 10
220.4189310535
 20
38.9592818245
 10
220.3811431111
 20
39.9785904379
  0
LWPOLYLINE
  5
22A
330
1F
100
AcDbEntity
  8
0
  6
Continuous
 62
     7
370
    18
100
AcDbPolyline
 90
       36
 70
   128
 43
0.0
 10
221.8377816596
 20
33.613704646
 10
221.501198903
 20
33.9782546098
 10
221.030290189
 20
34.6135119287
 10
220.6255731005
 20
35.3286257088
 10
220.2897891584
 20
36.1187523047
 10
220.0252129755
 20
36.9785393651
 10
219.8336364512
 20
37.9021632871
 10
219.7163575768
 20
38.8833675258
 10
219.6741712157
 20
39.9155059232
 10
219.7073618589
 20
40.991586335
 10
219.8157062599
 20
42.1043207376
 10
219.998469483
 20
43.2461709392
 10
220.2544134646
 20
44.409402673
 10
220.5818042569
 20
45.5861358051
 10
220.9784251992
 20
46.7684008924
 10
221.4415894298
 20
47.9481882313
 10
221.9681596427
 20
49.1175075524
 10
222.5545678439
 20
50.2684370683
 10
223.1968436683
 20
51.3931812663
 10
223.8906347955
 20
52.4841210967
 10
224.6312431688
 20
53.5338675826
 10
225.4136513376
 20
54.5353097259
 10
226.2325593358
 20
55.4816631742
 10
227.082420243
 20
56.3665181259
 10
227.9574777216
 20
57.1838807724
 10
228.8518040479
 20
57.9282150248
 10
229.7593413532
 20
58.5944784894
 10
230.6739422069
 20
59.1781580631
 10
231.5894113515
 20
59.6753008707
 10
232.4995476028
 20
60.0825384534
 10
233.3981860785
 20
60.3971126679
 10
234.2792396048
 20
60.6168919852
 10
235.1367402868
 20
60.7403886442
 10
235.9648791034
 20
60.7667655402
 10
236.758047231
 20
60.6958448709
 10
237.4742887989
 20
60.5387713545
  0
LWPOLYLINE
  5
22B
330
1F
100
AcDbEntity
  8
0
  6
Continuous
 62
     7
370
    18
100
AcDbPolyline
 90
       25
 70
   128
 43
0.0
 10
226.913041937
 20
43.7493753666
 10
226.950897051
 20
44.4242341035
 10
227.0637863969
 20
45.1307562273
 10
227.2496961457
 20
45.8563343554
 10
227.5053078915
 20
46.5880199697
 10
227.8260608845
 20
47.3127564455
 10
228.2062310557
 20
48.0176109372
 10
228.6390340796
 20
48.6900048846
 10
229.1167468755
 20
49.3179396684
 10
229.6308445847
 20
49.8902099073
 10
230.1721530238
 20
50.3966030654
 10
230.7310126206
 20
50.8280830644
 10
231.2974503978
 20
51.1769492642
 10
231.8613583762
 20
51.4369770956
 10
232.4126734814
 20
51.6035261008
 10
232.9415575728
 20
51.6736237099
 10
233.4385728021
 20
51.6460197043
 10
233.894849645
 20
51.5212064131
 10
234.3022461865
 20
51.3014106651
 10
234.653492095
 20
50.9905556103
 10
234.9423195088
 20
50.5941876073
 10
235.1635743292
 20
50.1193803954
 10
235.3133079232
 20
49.574606662
 10
235.3888489052
 20
48.969588059
 10
235.3917698793
 20
48.371835744
  0
LWPOLYLINE
  5
22C
330
1F
100
AcDbEntity
  8
0
  6
Continuous
 62
     7
370
    18
100
AcDbPolyline
 90
       14
 70
   128
 43
0.0
 10
231.392094871
 20
41.4434449069
 10
231.2974503978
 20
41.3839317274
 10
230.7310126206
 20
41.0788027903
 10
230.1721530238
 20
40.8650372333
 10
229.6308445847
 20
40.7464489708
 10
229.1167468755
 20
40.725154629
 10
228.6390340796
 20
40.8015339589
 10
228.2062310557
 20
40.9742241713
 10
227.8260608845
 20
41.2401435264
 10
227.5053078915
 20
41.5945464792
 10
227.2496961457
 20
42.0311090536
 10
227.0637863969
 20
42.5420403547
 10
226.950897051
 20
43.1182232141
 10
226.913041937
 20
43.7493753666
  0
LWPOLYLINE
  5
22D
330
1F
100
AcDbEntity
  8
0
  6
Continuous
 62
     7
370
    18
100
AcDbPolyline
 90
       30
 70
   128
 43
0.0
 10
213.7343395822
 20
43.407504317
 10
213.7713669057
 20
44.4762994017
 10
213.8822045562
 20
45.5807338783
 10
214.0661129882
 20
46.7134567067
 10
214.3218692846
 20
47.8669305785
 10
214.6477717664
 20
49.033479351
 10
215.0416505293
 20
50.2053392818
 10
215.5008852249
 20
51.3747120699
 10
216.022419548
 20
52.5338161853
 10
216.6027823105
 20
53.6749370577
 10
217.2381118075
 20
54.7904810669
 10
217.9241801832
 20
55.8730257314
 10
218.65642109
 20
56.915364573
 10
219.4299622863
 20
57.9105631974
 10
220.2396556005
 20
58.8519971253
 10
221.0801128213
 20
59.7334021688
 10
221.9457406011
 20
60.5489128323
 10
222.830778651
 20
61.2931010919
 10
223.7293369489
 20
61.9610161263
 10
224.6354357667
 20
62.5482104661
 10
225.5430452443
 20
63.0507780484
 10
226.4461252735
 20
63.4653757204
 10
227.3386662856
 20
63.7892422229
 10
228.2147280445
 20
64.0202221061
 10
229.068481279
 20
64.1567806372
 10
229.8942437377
 20
64.1980063645
 10
230.6865198668
 20
64.1436264171
 10
231.4400383466
 20
63.9940030799
 10
232.1497840316
 20
63.7501309387
 10
232.7305432379
 20
63.4610598608
  0
LWPOLYLINE
  5
22E
330
1F
100
AcDbEntity
  8
0
  6
Continuous
 62
     7
370
    18
100
AcDbPolyline
 90
       11
 70
   128
 43
0.0
 10
216.9943219233
 20
36.202171467
 10
216.6027823105
 20
36.451905056
 10
216.022419548
 20
36.9229533456
 10
215.5008852249
 20
37.4799067487
 10
215.0416505293
 20
38.1190584434
 10
214.6477717664
 20
38.8361556344
 10
214.3218692846
 20
39.6264254108
 10
214.0661129882
 20
40.4846093482
 10
213.8822045562
 20
41.4049960207
 10
213.7713669057
 20
42.38146007
 10
213.7343395822
 20
43.407504317
  0
LWPOLYLINE
  5
22F
330
1F
100
AcDbEntity
  8
0
  6
Continuous
 62
     7
370
    18
100
AcDbPolyline
 90
       15
 70
   128
 43
0.0
 10
239.7470306045
 20
43.8926778187
 10
239.336689546
 20
43.6131460188
 10
238.9395371583
 20
43.2573045226
 10
238.5683382566
 20
42.8365905875
 10
238.2350236095
 20
42.3645261679
 10
237.9503060074
 20
41.8562839173
 10
237.723336667
 20
41.3281990981
 10
237.5614104507
 20
40.7972446527
 10
237.4697318356
 20
40.280486092
 10
237.4512476437
 20
39.7945324451
 10
237.5065517175
 20
39.3550025542
 10
237.6338664809
 20
38.9760232417
 10
237.8291002321
 20
38.6697754515
 10
238.0859778652
 20
38.4461020633
 10
238.1221627456
 20
38.4242613106
  0
ARC
  5
230
330
1F
100
AcDbEntity
  8
0
  6
Continuous
 62
     7
370
    18
100
AcDbCircle
 10
240.7091179111
 20
42.5430757648
 30
0.0
 40
1.657418984270127
100
AcDbArc
 50
69.1234677751
 51
125.4838321032
  0
ARC
  5
231
330
1F
100
AcDbEntity
  8
0
  6
Continuous
 62
     7
370
    18
100
AcDbCircle
 10
241.471522007
 20
40.2433924519
 30
0.0
 40
4.486471555722162
100
AcDbArc
 50
303.3405215037
 51
356.6648547039
  0
ARC
  5
232
330
1F
100
AcDbEntity
  8
0
  6
Continuous
 62
     7
370
    18
100
AcDbCircle
 10
241.4096120562
 20
40.2791323159
 30
0.0
 40
4.29643744422822
100
AcDbArc
 50
306.4538397048
 51
353.5515361771
  0
LWPOLYLINE
  5
233
330
1F
100
AcDbEntity
  8
0
  6
Continuous
 62
     7
370
    18
100
AcDbPolyline
 90
       15
 70
   128
 43
0.0
 10
218.3584210207
 20
40.0718676892
 10
218.3511803238
 20
40.1066930063
 10
218.2085962182
 20
41.0106190039
 10
218.1415952414
 20
41.9688301119
 10
218.150695668
 20
42.973916236
 10
218.2358270336
 20
44.0181049769
 10
218.3963314524
 20
45.0933215162
 10
218.6309675678
 20
46.1912512591
 10
218.9379210899
 20
47.3034036176
 10
219.3148173071
 20
48.421177599
 10
219.7587428185
 20
49.5359304358
 10
220.266263973
 20
50.639040702
 10
220.8334565039
 20
51.7219778932
 10
221.4559331877
 20
52.7763670629
 10
222.1288820397
 20
53.7940561204
  0
LWPOLYLINE
  5
234
330
1F
100
AcDbEntity
  8
0
  6
Continuous
 62
     7
370
    18
100
AcDbPolyline
 90
       19
 70
   128
 43
0.0
 10
218.8702167876
 20
37.1419399883
 10
218.7214364367
 20
37.3537128257
 10
218.3230980104
 20
38.0398082643
 10
217.9952396514
 20
38.8031156321
 10
217.7403440727
 20
39.637852897
 10
217.5603421267
 20
40.5376989101
 10
217.4565970006
 20
41.49583818
 10
217.4298936793
 20
42.5050137022
 10
217.4804356532
 20
43.5575829717
 10
217.6078389908
 20
44.6455735455
 10
217.811139583
 20
45.7607459225
 10
218.088797094
 20
46.8946533105
 10
218.43870945
 20
48.03870914
 10
218.8582253506
 20
49.1842474248
 10
219.3441686358
 20
50.3225927219
 10
219.8928580417
 20
51.4451240091
 10
220.500138811
 20
52.5433389404
 10
221.1614110103
 20
53.6089203848
 10
221.8716670673
 20
54.6337980194
  0
LWPOLYLINE
  5
235
330
1F
100
AcDbEntity
  8
0
  6
Continuous
 62
     7
370
    18
100
AcDbPolyline
 90
       18
 70
   128
 43
0.0
 10
239.570253551
 20
44.4029993223
 10
239.1221224509
 20
44.1002542551
 10
238.6868832651
 20
43.7181296733
 10
238.2770570237
 20
43.2676184856
 10
237.9044337726
 20
42.7616813665
 10
237.5797329699
 20
42.21487276
 10
237.3122959049
 20
41.6429237708
 10
237.1098161885
 20
41.0622880975
 10
236.9781188115
 20
40.4896696642
 10
236.9209923803
 20
39.9415415832
 10
236.9400802929
 20
39.4336725281
 10
237.0348336523
 20
38.980673027
 10
237.202526249
 20
38.5955749486
 10
237.4383342444
 20
38.2894570025
 10
237.7354734777
 20
38.0711255103
 10
238.0853962057
 20
37.946861652
 10
238.4780354233
 20
37.9202400724
 10
238.8808759892
 20
37.986265395
  0
LWPOLYLINE
  5
236
330
1F
100
AcDbEntity
  8
0
  6
Continuous
 62
     7
370
    18
100
AcDbPolyline
 90
        9
 70
   128
 43
0.0
 10
242.1306118717
 20
43.615583072
 10
242.0306909135
 20
43.903048609
 10
241.8282111971
 20
44.2499061778
 10
241.5607741321
 20
44.5130789043
 10
241.2360733294
 20
44.6849959437
 10
240.8634500783
 20
44.7607114146
 10
240.4536238369
 20
44.7380472959
 10
240.0183846511
 20
44.61765541
 10
239.570253551
 20
44.4029993223
  0
LWPOLYLINE
  5
237
330
1F
100
AcDbEntity
  8
0
  6
Continuous
 62
     7
370
    18
100
AcDbPolyline
 90
       15
 70
   128
 43
0.0
 10
239.3934764975
 20
44.7091859696
 10
238.9279326986
 20
44.3958868598
 10
238.4750876957
 20
44.0020414184
 10
238.0472939729
 20
43.5383927813
 10
237.6562206096
 20
43.0175878724
 10
237.3125349566
 20
42.4538328011
 10
237.0256120536
 20
41.8625055286
 10
236.8032783727
 20
41.2597358794
 10
236.6515984503
 20
40.6619657276
 10
236.574709757
 20
40.0855007919
 10
236.574709757
 20
39.546065537
 10
236.6515984503
 20
39.058374397
 10
236.8032783727
 20
38.6357301559
 10
237.0256120536
 20
38.2896615105
 10
237.3092555696
 20
38.0318361691
  0
ARC
  5
238
330
1F
100
AcDbEntity
  8
0
  6
Continuous
 62
     7
370
    18
100
AcDbCircle
 10
240.56888648
 20
43.05135279
 30
0.0
 40
2.032240014955065
100
AcDbArc
 50
66.4538734258
 51
125.3367847285
  0
ARC
  5
239
330
1F
100
AcDbEntity
  8
0
  6
Continuous
 62
     7
370
    18
100
AcDbCircle
 10
231.7066825135
 20
43.535383633
 30
0.0
 40
1.976829725516996
100
AcDbArc
 50
173.7855624457
 51
234.9022641098
  0
LWPOLYLINE
  5
23A
330
1F
100
AcDbEntity
  8
0
  6
Continuous
 62
     7
370
    18
100
AcDbPolyline
 90
       16
 70
   128
 43
0.0
 10
234.5697339593
 20
48.8463869201
 10
234.4855380562
 20
48.8910623194
 10
234.1168994932
 20
49.0095797851
 10
233.7060627153
 20
49.0291514899
 10
233.2642342566
 20
48.9492437257
 10
232.8034661196
 20
48.7720361672
 10
232.3363267908
 20
48.5023623729
 10
231.8755586538
 20
48.1475783642
 10
231.4337301951
 20
47.7173618482
 10
231.0228934171
 20
47.2234480962
 10
230.6542548542
 20
46.6793096054
 10
230.337869987
 20
46.0997890025
 10
230.0823690412
 20
45.5006943604
 10
229.8947213935
 20
44.8983672778
 10
229.7800454163
 20
44.3092375504
 10
229.7414691961
 20
43.7493751766
  0
LWPOLYLINE
  5
23B
330
1F
100
AcDbEntity
  8
0
  6
Continuous
 62
     7
370
    18
100
AcDbPolyline
 90
       17
 70
   128
 43
0.0
 10
239.570253551
 20
44.1988642759
 10
239.1404962543
 20
43.9073528011
 10
238.7237969073
 20
43.5378631866
 10
238.3328166457
 20
43.1016220752
 10
237.9794354066
 20
42.6118844322
 10
237.6743903465
 20
42.0835308911
 10
237.4269499855
 20
41.5326149994
 10
237.2446329263
 20
40.9758760262
 10
237.1329786806
 20
40.4302303766
 10
237.0953797405
 20
39.9122571063
 10
237.1329786806
 20
39.4376946484
 10
237.2446329263
 20
39.0209622468
 10
237.4269499855
 20
38.6747220696
 10
237.6743903465
 20
38.4094947376
 10
237.9794354066
 20
38.2333387262
 10
238.3328166457
 20
38.1516063773
 10
238.5949574488
 20
38.1513227947
  0
ARC
  5
23C
330
1F
100
AcDbEntity
  8
0
  6
Continuous
 62
     7
370
    18
100
AcDbCircle
 10
240.5294084439
 20
43.021376455
 30
0.0
 40
1.518701971079224
100
AcDbArc
 50
29.9962031511
 51
129.165479653
  0
ARC
  5
23D
330
1F
100
AcDbEntity
  8
0
  6
Continuous
 62
     7
370
    18
100
AcDbCircle
 10
235.0995795722
 20
46.6416623007
 30
0.0
 40
14.59972304561262
100
AcDbArc
 50
110.1861656722
 51
139.1704809678
  0
LWPOLYLINE
  5
23E
330
1F
100
AcDbEntity
  8
0
  6
Continuous
 62
     7
370
    18
100
AcDbPolyline
 90
       13
 70
   128
 43
0.0
 10
223.2158601288
 20
56.3059615367
 10
224.0437697719
 20
57.1918364277
 10
224.8995998911
 20
58.0079557154
 10
225.7766855222
 20
58.7479630308
 10
226.6681962414
 20
59.406094706
 10
227.5671891787
 20
59.9772271084
 10
228.4666634297
 20
60.4569110939
 10
229.3596141388
 20
60.8414108327
 10
230.2390873229
 20
61.1277339382
 10
231.0982342016
 20
61.3136483813
 10
231.9303634686
 20
61.3977081044
 10
232.72899554
 20
61.3792569608
 10
232.8548236391
 20
61.3666146258
  0
LINE
  5
23F
330
1F
100
AcDbEntity
  8
0
  6
Continuous
 62
     7
370
    18
100
AcDbLine
 10
209.2479753687
 20
53.7801119157
 30
0.0
 11
209.5541392959
 21
53.4093768598
 31
0.0
  0
LINE
  5
240
330
1F
100
AcDbEntity
  8
0
  6
Continuous
 62
     7
370
    18
100
AcDbLine
 10
209.2479753687
 20
46.016001768
 30
0.0
 11
209.5541392959
 21
46.7035352365
 31
0.0
  0
LINE
  5
241
330
1F
100
AcDbEntity
  8
0
  6
Continuous
 62
     7
370
    18
100
AcDbLine
 10
210.2900496127
 20
47.1283672196
 30
0.0
 11
209.5541465399
 21
46.7035394184
 31
0.0
  0
LINE
  5
242
330
1F
100
AcDbEntity
  8
0
  6
Continuous
 62
     7
370
    18
100
AcDbLine
 10
210.2234740557
 20
47.8715931873
 30
0.0
 11
208.9142026216
 21
47.1157668766
 31
0.0
  0
LINE
  5
243
330
1F
100
AcDbEntity
  8
0
  6
Continuous
 62
     7
370
    18
100
AcDbLine
 10
205.73712379
 20
48.6901758363
 30
0.0
 11
205.4406365158
 21
48.1941142185
 31
0.0
  0
LINE
  5
244
330
1F
100
AcDbEntity
  8
0
  6
Continuous
 62
     7
370
    18
100
AcDbLine
 10
207.5689414008
 20
49.7476616339
 30
0.0
 11
205.7371843761
 21
48.690210812
 31
0.0
  0
LINE
  5
245
330
1F
100
AcDbEntity
  8
0
  6
Continuous
 62
     7
370
    18
100
AcDbLine
 10
207.5689414008
 20
49.7476616339
 30
0.0
 11
207.6902515554
 21
49.6859111206
 31
0.0
  0
OLE2FRAME
  5
246
330
1F
100
AcDbEntity
  8
0
100
AcDbOle2Frame
 70
     2
  3
Paintbrush-Bild
 10
13.8511154363
 20
38.264191557
 30
0.0
 11
51.6290888628
 21
31.9806341108
 31
0.0
 71
     2
 72
     0
 73
     1
 90
    12928
310
80552BED0767C5B32B40DDAF6807D121434000000000000000006FFBDDFB85D0
310
4940DDAF6807D121434000000000000000006FFBDDFB85D04940416F4BD60AFB
310
3F4000000000000000002BED0767C5B32B40416F4BD60AFB3F40000000000000
310
0000000000000100000000010000010000000100000000000100000000320000
310
D0CF11E0A1B11AE1000000000000000000000000000000003E000300FEFF0900
310
0600000000000000000000000100000001000000000000000010000002000000
310
01000000FEFFFFFF0000000000000000FFFFFFFFFFFFFFFFFFFFFFFFFFFFFFFF
310
FFFFFFFFFFFFFFFFFFFFFFFFFFFFFFFFFFFFFFFFFFFFFFFFFFFFFFFFFFFFFFFF
310
FFFFFFFFFFFFFFFFFFFFFFFFFFFFFFFFFFFFFFFFFFFFFFFFFFFFFFFFFFFFFFFF
310
FFFFFFFFFFFFFFFFFFFFFFFFFFFFFFFFFFFFFFFFFFFFFFFFFFFFFFFFFFFFFFFF
310
FFFFFFFFFFFFFFFFFFFFFFFFFFFFFFFFFFFFFFFFFFFFFFFFFFFFFFFFFFFFFFFF
310
FFFFFFFFFFFFFFFFFFFFFFFFFFFFFFFFFFFFFFFFFFFFFFFFFFFFFFFFFFFFFFFF
310
FFFFFFFFFFFFFFFFFFFFFFFFFFFFFFFFFFFFFFFFFFFFFFFFFFFFFFFFFFFFFFFF
310
FFFFFFFFFFFFFFFFFFFFFFFFFFFFFFFFFFFFFFFFFFFFFFFFFFFFFFFFFFFFFFFF
310
FFFFFFFFFFFFFFFFFFFFFFFFFFFFFFFFFFFFFFFFFFFFFFFFFFFFFFFFFFFFFFFF
310
FFFFFFFFFFFFFFFFFFFFFFFFFFFFFFFFFFFFFFFFFFFFFFFFFFFFFFFFFFFFFFFF
310
FFFFFFFFFFFFFFFFFFFFFFFFFFFFFFFFFFFFFFFFFFFFFFFFFFFFFFFFFFFFFFFF
310
FFFFFFFFFFFFFFFFFFFFFFFFFFFFFFFFFFFFFFFFFFFFFFFFFFFFFFFFFFFFFFFF
310
FFFFFFFFFFFFFFFFFFFFFFFFFFFFFFFFFFFFFFFFFFFFFFFFFFFFFFFFFFFFFFFF
310
FFFFFFFFFFFFFFFFFFFFFFFFFFFFFFFFFFFFFFFFFFFFFFFFFFFFFFFFFFFFFFFF
310
FDFFFFFFFEFFFFFFFEFFFFFFFEFFFFFF05000000060000000700000008000000
310
090000000A0000000B0000000C0000000D0000000E0000000F00000010000000
310
11000000120000001300000014000000150000001600000017000000FEFFFFFF
310
FFFFFFFFFFFFFFFFFFFFFFFFFFFFFFFFFFFFFFFFFFFFFFFFFFFFFFFFFFFFFFFF
310
FFFFFFFFFFFFFFFFFFFFFFFFFFFFFFFFFFFFFFFFFFFFFFFFFFFFFFFFFFFFFFFF
310
FFFFFFFFFFFFFFFFFFFFFFFFFFFFFFFFFFFFFFFFFFFFFFFFFFFFFFFFFFFFFFFF
310
FFFFFFFFFFFFFFFFFFFFFFFFFFFFFFFFFFFFFFFFFFFFFFFFFFFFFFFFFFFFFFFF
310
FFFFFFFFFFFFFFFFFFFFFFFFFFFFFFFFFFFFFFFFFFFFFFFFFFFFFFFFFFFFFFFF
310
FFFFFFFFFFFFFFFFFFFFFFFFFFFFFFFFFFFFFFFFFFFFFFFFFFFFFFFFFFFFFFFF
310
FFFFFFFFFFFFFFFFFFFFFFFFFFFFFFFFFFFFFFFFFFFFFFFFFFFFFFFFFFFFFFFF
310
FFFFFFFFFFFFFFFFFFFFFFFFFFFFFFFFFFFFFFFFFFFFFFFFFFFFFFFFFFFFFFFF
310
FFFFFFFFFFFFFFFFFFFFFFFFFFFFFFFFFFFFFFFFFFFFFFFFFFFFFFFFFFFFFFFF
310
FFFFFFFFFFFFFFFFFFFFFFFFFFFFFFFFFFFFFFFFFFFFFFFFFFFFFFFFFFFFFFFF
310
FFFFFFFFFFFFFFFFFFFFFFFFFFFFFFFFFFFFFFFFFFFFFFFFFFFFFFFFFFFFFFFF
310
FFFFFFFFFFFFFFFFFFFFFFFFFFFFFFFFFFFFFFFFFFFFFFFFFFFFFFFFFFFFFFFF
310
FFFFFFFFFFFFFFFFFFFFFFFFFFFFFFFFFFFFFFFFFFFFFFFFFFFFFFFFFFFFFFFF
310
52006F006F007400200045006E00740072007900000000000000000000000000
310
0000000000000000000000000000000000000000000000000000000000000000
310
16000500FFFFFFFFFFFFFFFF020000000A00030000000000C000000000000046
310
000000000000000000000000B0818CDA2BA7D30103000000C000000000000000
310
01004F006C006500000000000000000000000000000000000000000000000000
310
0000000000000000000000000000000000000000000000000000000000000000
310
0A000200FFFFFFFFFFFFFFFFFFFFFFFF00000000000000000000000000000000
310
0000000000000000000000000000000000000000000000001400000000000000
310
010043006F006D0070004F0062006A0000000000000000000000000000000000
310
0000000000000000000000000000000000000000000000000000000000000000
310
120002010100000003000000FFFFFFFF00000000000000000000000000000000
310
0000000000000000000000000000000000000000010000004D00000000000000
310
01004F006C006500310030004E00610074006900760065000000000000000000
310
0000000000000000000000000000000000000000000000000000000000000000
310
1A000200FFFFFFFFFFFFFFFFFFFFFFFF00000000000000000000000000000000
310
0000000000000000000000000000000000000000040000002426000000000000
310
FEFFFFFF02000000FEFFFFFFFFFFFFFFFFFFFFFFFFFFFFFFFFFFFFFFFFFFFFFF
310
FFFFFFFFFFFFFFFFFFFFFFFFFFFFFFFFFFFFFFFFFFFFFFFFFFFFFFFFFFFFFFFF
310
FFFFFFFFFFFFFFFFFFFFFFFFFFFFFFFFFFFFFFFFFFFFFFFFFFFFFFFFFFFFFFFF
310
FFFFFFFFFFFFFFFFFFFFFFFFFFFFFFFFFFFFFFFFFFFFFFFFFFFFFFFFFFFFFFFF
310
FFFFFFFFFFFFFFFFFFFFFFFFFFFFFFFFFFFFFFFFFFFFFFFFFFFFFFFFFFFFFFFF
310
FFFFFFFFFFFFFFFFFFFFFFFFFFFFFFFFFFFFFFFFFFFFFFFFFFFFFFFFFFFFFFFF
310
FFFFFFFFFFFFFFFFFFFFFFFFFFFFFFFFFFFFFFFFFFFFFFFFFFFFFFFFFFFFFFFF
310
FFFFFFFFFFFFFFFFFFFFFFFFFFFFFFFFFFFFFFFFFFFFFFFFFFFFFFFFFFFFFFFF
310
FFFFFFFFFFFFFFFFFFFFFFFFFFFFFFFFFFFFFFFFFFFFFFFFFFFFFFFFFFFFFFFF
310
FFFFFFFFFFFFFFFFFFFFFFFFFFFFFFFFFFFFFFFFFFFFFFFFFFFFFFFFFFFFFFFF
310
FFFFFFFFFFFFFFFFFFFFFFFFFFFFFFFFFFFFFFFFFFFFFFFFFFFFFFFFFFFFFFFF
310
FFFFFFFFFFFFFFFFFFFFFFFFFFFFFFFFFFFFFFFFFFFFFFFFFFFFFFFFFFFFFFFF
310
FFFFFFFFFFFFFFFFFFFFFFFFFFFFFFFFFFFFFFFFFFFFFFFFFFFFFFFFFFFFFFFF
310
FFFFFFFFFFFFFFFFFFFFFFFFFFFFFFFFFFFFFFFFFFFFFFFFFFFFFFFFFFFFFFFF
310
FFFFFFFFFFFFFFFFFFFFFFFFFFFFFFFFFFFFFFFFFFFFFFFFFFFFFFFFFFFFFFFF
310
FFFFFFFFFFFFFFFFFFFFFFFFFFFFFFFFFFFFFFFFFFFFFFFFFFFFFFFFFFFFFFFF
310
0100000200000000000000000000000000000000000000000000000000000000
310
0000000000000000000000000000000000000000000000000000000000000000
310
0100FEFF030A0000FFFFFFFF0A00030000000000C00000000000004607000000
310
5042727573680007000000504272757368000700000050427275736800F439B2
310
7100000000000000000000000000000000000000000000000000000000000000
310
0000000000000000000000000000000000000000000000000000000000000000
310
0000000000000000000000000000000000000000000000000000000000000000
310
0000000000000000000000000000000000000000000000000000000000000000
310
0000000000000000000000000000000000000000000000000000000000000000
310
0000000000000000000000000000000000000000000000000000000000000000
310
0000000000000000000000000000000000000000000000000000000000000000
310
0000000000000000000000000000000000000000000000000000000000000000
310
0000000000000000000000000000000000000000000000000000000000000000
310
0000000000000000000000000000000000000000000000000000000000000000
310
0000000000000000000000000000000000000000000000000000000000000000
310
0000000000000000000000000000000000000000000000000000000000000000
310
20260000424D0E260000000000003E00000028000000B40200006E0000000100
310
01000000000000000000130B0000130B00000200000002000000000000FFFFFF
310
FFFFFFFFFFFFFFFFFFFFFFFFFFFFFFFFFFFFFFFFFFFFFFFFFFFFFFFFFFFFFFFF
310
FFFFFFFFFFFFFFFFFFFFFFFFFFFFFFFFFFFFFFFFFFFFFFFFFFFFFFFFFFFFFFFF
310
FFFFFFFFFFFFFFFFFFFFFFFFFFFFFFFFFFFFFFFFFFFFFFFFF000FFFFFFFFFFFF
310
FFFFFFFFFFFFFFFFFFFFFFFFFFFFFFFFFFFFFFFFFFFFFFFFFFFFFFFFFFFFFFFF
310
FFFFFFFFFFFFFFFFFFFFFFFFFFFFFFFFFFFFFFFFFFFFFFFFFFFFFFFFFFFFFFFF
310
FFFFFFFFFFFFFFFFFFFFFFFFFFFFFFFFF000FFFFFFFFFFFFFFFFFFFFFFFFFFFF
310
FFFFFFFFFFFFFFFFFFFFFFFFFFFFFFFFFFFFFFFFFFFFFFFFFFFFFFFFFFFFFFFF
310
FFFFFFFFFFFFFFFFFFFFFFFFFFFFFFFFFFFFFFFFFFFFFFFFFFFFFFFFFFFFFFFF
310
FFFFFFFFFFFFFFFFF000FFFFFFFFFFFFFFFFFFFFFFFFFFFFFFFFFFFFFFFFFFFF
310
FFFFFFFFFFFFFFFFFFFFFFFFFFFFFFFFFFFFFFFFFFFFFFFFFFFFFFFFFFFFFFFF
310
FFFFFFFFFFFFFFFFFFFFFFFFFFFFFFFFFFFFFFFFFFFFFFFFFFFFFFFFFFFFFFFF
310
F000FFFFFFFFFFFFFFFFFFFFFFFFFFFFFFFFFFFFFFFFFFFFFFFFFFFFFFFFFFFF
310
FFFFFFFFFFFFFFFFFFFFFFFFFFFFFFFFFFFFFFFFFFFFFFFFFFFFFFFFFFFFFFFF
310
FFFFFFFFFFFFFFFFFFFFFFFFFFFFFFFFFFFFFFFFFFFFFFFFF000FFFFFFFFFFFF
310
FFFFFFFFFFFFFFFFFFFFFFFFFFFFFFFFFFFFFFFFFFFFFFFFFFFFFFFFFFFFFFFF
310
FFFFFFFFFFFFFFFFFFFFFFFFFFFFFFFFFFFFFFFFFFFFFFFFFFFFFFFFFFFFFFFF
310
FFFFFFFFFFFFFFFFFFFFFFFFFFFFFFFFF000FFFFFFFFFFFFFFFFFFFFFFFFFFFF
310
FFFFFFFFFFFFFFFFFFFFFFFFFFFFFFFFFFFFFFFFFFFFFFFFFFFFFFFFFFFFFFFF
310
FFFFFFFFFFFFFFFFFFFFFFFFFFFFFFFFFFFFFFFFFFFFFFFFFFFFFFFFFFFFFFFF
310
FFFFFFFFFFFFFFFFF000FFFFFFFFFFFFFFFFFFFFFFFFFFFFFFFFFFFFFFFFFFFF
310
FFFFFFFFFFFFFFFFFFFFFFFFFFFFFFFFFFFFFFFFFFFFFFFFFFFFFFFFFFFFFFFF
310
FFFFFFFFFFFFFFFFFFFFFFFFFFFFFFFFFFFFFFFFFFFFFFFFFFFFFFFFFFFFFFFF
310
F000FFFFFFFFFFFFFFFFFFFFFFFFFFFFFFFFFFFFFFFFFFFFFFFFFFFFFFFFFFFF
310
FFFFFFFFFFFFFFFFFFFFFFFFFFFFFFFFFFFFFFFFFFFFFFFFFFFFFFFFFFFFFFFF
310
FFFFFFFFFFFFFFFFFFFFFFFFFFFFFFFFFFFFFFFFFFFFFFFFF000FFFFFFFFFFFF
310
FFFFFFFFFFFFFFFFFFFFFFFFFFFFFFFFFFFFFFFFFFFFFFFFFFFFFFFFFFFFFFFF
310
FFFFFFFFFFFFFFFFFFFFFFFFFFFFFFFFFFFFFFFFFFFFFFFFFFFFFFFFFFFFFFFF
310
FFFFFFFFFFFFFFFFFFFFFFFFFFFFFFFFF000FFFFFFFFFFFFFFFFFFFFFFFFFFFF
310
FFFFFFFFFFFFFFFFFFFFFFFFFFFFFFFFFFFFFFFFFFFFFFFFFFFFFFFFFFFFFFFF
310
FFFFFFFFFFFFFFFFFFFFFFFFFFFFFFFFFFFFFFFFFFFFFFFFFFFFFFFFFFFFFFFF
310
FFFFFFFFFFFFFFFFF000FFFFFFFFFFFFFFFFFFFFFFFFFFFFFFFFFFFFFFFFFFFF
310
FFFFFFFFFFFFFFFFFFFFFFFFFFFFFFFFFFFFFFFFFFFFFFFFFFFFFFFFFFFFFFFF
310
FFFFFFFFFFFFFFFFFFFFFFFFFFFFFFFFFFFFFFFFFFFFFFFFFFFFFFFFFFFFFFFF
310
F000FFFFFFFFFFFFFFFFFFFFFFFFFFFFFFFFFFFFFFFFFFFFFFFFFFFFFFFFFFFF
310
FFFFFFFFFFFFFFFFFFFFFFFFFFFFFFFFFFFFFFFFFFFFFFFFFFFFFFFFFFFFFFFF
310
FFFFFFFFFFFFFFFFFFFFFFFFFFFFFFFFFFFFFFFFFFFFFFFFF000FFFFFFFFFFFF
310
FFFFFFFFFFFFFFFFFFFFFFFFFFFFFFFFFFFFFFFFFFFFFFFFFFFFFFFFFFFFFFFF
310
FFFFFFFFFFFFFFFFFFFFFFFFFFFFFFFFFFFFFFFFFFFFFFFFFFFFFFFFFFFFFFFF
310
FFFFFFFFFFFFFFFFFFFFFFFFFFFFFFFFF000FFFFFFFFFFFFFFFFFFFFFFFFFFFF
310
FFFFFFFFFFFFFFFFFFFFFFFFFFFFFFFFFFFFFFFFFFFFFFFFFFFFFFFFFFFFFFFF
310
FFFFFFFFFFFFFFFFFFFFFFFFFFFFFFFFFFFFFFFFFFFFFFFFFFFFFFFFFFFFFFFF
310
FFFFFFFFFFFFFFFFF000FFFFFFFFFFFFFFFFFFFFFFFFFFFFFFFFFFFFFFFFFFFF
310
FFFFFFFFFFFFFFFFFFFFFFFFFFFFFFFFFFFFFFFFFFFFFFFFFFFFFFFFFFFFFFFF
310
FFFFFFFFFFFFFFFFFFFFFFFFFFFFFFFFFFFFFFFFFFFFFFFFFFFFFFFFFFFFFFFF
310
F000FFFFFFFFFFFFFFFFFFFFFFFFFFFFFFFFFFFFFFFFFFFFFFFFFFFFFFFFFFFF
310
FFFFFFFFFFFFFFFFFFFFFFFFFFFFFFFFFFFFFFFFFFFFFFFFFFFFFFFFFFFFFFFF
310
FFFFFFFFFFFFFFFFFFFFFFFFFFFFFFFFFFFFFFFFFFFFFFFFF000FFFFFFFFFFFF
310
FFFFFFFFFFFFFFFFFFFFFFFFFFFFFFFFFFFFFFFFFFFFFFFFFFFFFFFFFFFFFFFF
310
FFFFFFFFFFFFFFFFFFFFFFFFFFFFFFFFFFFFFFFFFFFFFFFFFFFFFFFFFFFFFFFF
310
FFFFFFFFFFFFFFFFFFFFFFFFFFFFFFFFF000FFFFFFFFFFFFFFFFFFFFFFFFFFFF
310
FFFFFFFFFFFFFFFFFFFFFFFFFFFFFFFFFFFFFFFFFFFFFFFFFFFFFFFFFFFFFFFF
310
FFFFFFFFFFFFFFFFFFFFFFFFFFFFFFFFFFFFFFFFFFFFFFFFFFFFFFFFFFFFFFFF
310
FFFFFFFFFFFFFFFFF000FFFFF80003FFFFFFFFFFFFFFFFFFFFFFFFFFFFFFFFFF
310
FFFFF00007FFFFFFFFFF00007FFFFFF800000000000000007FFFFFFFFFFFFFFF
310
FFFFFFFC001FFFFFFFFFFFFFFC001FFFFFFFFFFFFFFFFFFFFFFFFFFE0007FFFF
310
F000FFFF8000007FFFFFFFF8000FFFFFC0007FFFFF80007FFFFF0000007FFFFF
310
FFF8000007FFFFF800000000000000007FFFFFF0001FFFFFFFFFFFC00001FFFF
310
FFFFFFFFC00001FFFFFFFF000000000003FFFFE000007FFFF000FFFE0000000F
310
FFFFFFF0000FFFFF80007FFFFF80007FFFFC0000001FFFFFFFC0000001FFFFF8
310
00000000000000007FFFFFF0001FFFFFFFFFFE0000003FFFFFFFFFFE0000003F
310
FFFFFF000000000003FFFF0000000FFFF000FFF800000003FFFFFFF00007FFFF
310
80007FFFFF80007FFFF000000007FFFFFF000000003FFFF80000000000000000
310
7FFFFFF0001FFFFFFFFFF80000000FFFFFFFFFF80000000FFFFFFF0000000000
310
03FFFC00000003FFF000FFE000000000FFFFFFF00007FFFF80003FFFFF80007F
310
FFC000000001FFFFFC000000001FFFF800000000000000007FFFFFF0001FFFFF
310
FFFFE000000003FFFFFFFFE000000003FFFFFF000000000003FFF000000000FF
310
F000FF80000000007FFFFFF00007FFFF80003FFFFF80007FFF8000000000FFFF
310
F80000000007FFF800000000000000007FFFFFF0001FFFFFFFFFC000000001FF
310
FFFFFFC000000001FFFFFF000000000003FFC0000000007FF000FF0000000000
310
3FFFFFE00007FFFF00003FFFFF80007FFE00000000003FFFF00000000003FFF8
310
00000000000000007FFFFFF0001FFFFFFFFF8000000000FFFFFFFF8000000000
310
FFFFFF000000000003FF80000000003FF000FE00000000001FFFFFE00003FFFF
310
00003FFFFF80007FFC00000000001FFFE00000000001FFF8000001FFFE000000
310
7FFFFFF0001FFFFFFFFE00000000003FFFFFFE00000000003FFFFF0000000000
310
03FF00000000001FF000FC00000000000FFFFFE00003FFFF00001FFFFF80007F
310
F800000000001FFFC00000000000FFF8000001FFFE0000007FFFFFF0001FFFFF
310
FFFC00000000001FFFFFFC00000000001FFFFF000000000003FE00000000000F
310
F000F8000000000007FFFFE00003FFFF00001FFFFF80007FF800000000000FFF
310
800000000000FFF8000001FFFE0000007FFFFFF0001FFFFFFFF800000000000F
310
FFFFF800000000000FFFFF000000000003FC000000000007F000F80000000000
310
03FFFFC00003FFFE00001FFFFF80007FF0000000000007FF0000000000007FF8
310
000001FFFE0000007FFFFFF0001FFFFFFFF0000000000007FFFFF00000000000
310
07FFFF000000000003F8000000000003F000F0000000000003FFFFC00001FFFE
310
00001FFFFF80007FE0000000000007FE0000000000003FF8000001FFFE000000
310
7FFFFFF0001FFFFFFFF0000000000007FFFFF0000000000007FFFF0000000000
310
03F800001F800003F000E00001FFF00001FFFFC00001FFFE00000FFFFF80007F
310
E00001FFE00003FE00001FFF00003FF8000001FFFE0000007FFFFFF0001FFFFF
310
FFE000003E000003FFFFE000003E000003FFFF000000000003F00001FFF80001
310
F000E00007FFFC0001FFFFC00001FFFE00000FFFFF80007FC0000FFFFC0003FC
310
0000FFFFC0001FF8000001FFFE0000007FFFFFF0001FFFFFFFC00003FFE00001
310
FFFFC00003FFE00001FFFF0001FFFFFFFFF00007FFFE0001F000E0000FFFFF00
310
00FFFF800001FFFC00000FFFFF80007FC0001FFFFE0001FC0001FFFFE0001FF8
310
000001FFFE0000007FFFFFF0001FFFFFFF80000FFFF80000FFFF80000FFFF800
310
00FFFF0003FFFFFFFFE0000FFFFF8000F000C0003FFFFF8000FFFF800000FFFC
310
000007FFFF80007F80003FFFFF0001FC0003FFFFF0001FF8000001FFFE000000
310
7FFFFFF0001FFFFFFF80003FFFFE0000FFFF80003FFFFE0000FFFF0003FFFFFF
310
FFE0003FFFFF8000F000C0003FFFFF8000FFFF800000FFFC000007FFFF80007F
310
80007FFFFF8001F80007FFFFF8000FF8000001FFFE0000007FFFFFF0001FFFFF
310
FF00007FFFFF00007FFF00007FFFFF00007FFF0003FFFFFFFFE0003FFFFFC000
310
F000C0007FFFFFC000FFFF000000FFFC000007FFFF80007F8000FFFFFF8000F8
310
000FFFFFF8000FF8000001FFFE0000007FFFFFF0001FFFFFFF0000FFFFFF8000
310
7FFF0000FFFFFF80007FFF0003FFFFFFFFC0007FFFFFC00070008000FFFFFFC0
310
00FFFF000000FFF8000007FFFF80007F8000FFFFFF8000F8000FFFFFF8000FF8
310
000001FFFE0000007FFFFFF0001FFFFFFE0001FFFFFFC0003FFE0001FFFFFFC0
310
003FFF0003FFFFFFFFC0007FFFFFE00070008000FFFFFFC0007FFF0000007FF8
310
000003FFFF80007F0001FFFFFF8000F8000FFFFFF8000FF8000001FFFE000000
310
7FFFFFF0001FFFFFFE0001FFFFFFC0003FFE0001FFFFFFC0003FFF0003FFFFFF
310
FFC000FFFFFFE00070008000FFFFFFC0007FFF0000007FF8000003FFFF80007F
310
0001FFFFFF8000F8001FFFFFF8000FF8000001FFFE0000007FFFFFF0001FFFFF
310
FE0003FFFFFFE0003FFE0003FFFFFFE0003FFF0003FFFFFFFFC000FFFFFFE000
310
70008000FFFFFFC0007FFE0000007FF8000003FFFF80007F0001FFFFFF8000F0
310
001FFFFFF8000FF8000001FFFE0000007FFFFFF0001FFFFFFC0003FFFFFFE000
310
1FFC0003FFFFFFE0001FFF0003FFFFFFFFC000FFFFFFC00070008000FFFFFF80
310
007FFE0000007FF0000003FFFF80007F0001FFFFFF0000F0001FFFFFF8000FF8
310
000001FFFE0000007FFFFFF0001FFFFFFC0007FFFFFFF0001FFC0007FFFFFFF0
310
001FFF0003FFFFFFFFC000FFFFFFC00070008001FFFFFF0000FFFE0000003FF0
310
000001FFFF80007F0001FFFFFF0000F8001FFFFFF0000FF8000001FFFE000000
310
7FFFFFF0001FFFFFFC0007FFFFFFF0001FFC0007FFFFFFF0001FFF0003FFFFFF
310
FFC001FFFFFF80007000FFFFFFFFFE0000FFFE0008003FF0008001FFFF80007F
310
FFFFFFFFFC0000FFFFFFFFFFE0000FF8000001FFFE0000007FFFFFF0001FFFFF
310
F8000FFFFFFFF8000FF8000FFFFFFFF8000FFF0003FFFFFFFFFFFFFFFFFF0000
310
7000FFFFFFFFFC0000FFFC0008003FF0008001FFFF80007FFFFFFFFFF80001FF
310
FFFFFFFF80000FF8000001FFFE0000007FFFFFF0001FFFFFF8000FFFFFFFF800
310
0FF8000FFFFFFFF8000FFF0003FFFFFFFFFFFFFFFFFE0000F000FFFFFFFFE000
310
00FFFC000C003FE000C001FFFF80007FFFFFFFFFC00001FFFFFFFFFE00001FF8
310
000001FFFE0000007FFFFFF0001FFFFFF8000FFFFFFFF8000FF8000FFFFFFFF8
310
000FFF0003FFFFFFFFFFFFFFFFF00000F000FFFFFFFE000001FFFC000C001FE0
310
00C000FFFF80007FFFFFFFFE000001FFFFFFFFE000001FF80FFFFFFFFFFFFFC0
310
7FFFFFF0001FFFFFF8000FFFFFFFF8000FF8000FFFFFFFF8000FFF0003FFFFFF
310
FFFFFFFFFF800000F000FFFFFFC0000001FFFC001C001FE001C000FFFF80007F
310
FFFFFF80000003FFFFFFF80000001FF80FFFFFFFFFFFFFC07FFFFFF0001FFFFF
310
F8001FFFFFFFFC000FF8001FFFFFFFFC000FFF0003FFFFFFFFFFFFFFF0000001
310
F000FFFFF800000001FFF8001C001FE001C000FFFF80007FFFFFF800000003FF
310
FFFF800000003FF80FFFFFFFFFFFFFC07FFFFFF0001FFFFFF8001FFFFFFFFC00
310
0FF8001FFFFFFFFC000FFF0003FFFFFFFFFFFFFE00000001F000FFFFC0000000
310
03FFF8001E001FC001E000FFFF80007FFFFF8000000007FFFFFC000000003FF8
310
0FFFFFFFFFFFFFC07FFFFFF0001FFFFFF8001FFFFFFFFC000FF8001FFFFFFFFC
310
000FFF0003FFFFFFFFFFFFE000000003F000FFFE0000000007FFF8001E000FC0
310
01E0007FFF80007FFFFE0000000007FFFFE0000000007FF80FFFFFFFFFFFFFC0
310
7FFFFFF0001FFFFFF0001FFFFFFFFC0007F0001FFFFFFFFC0007FF0003FFFFFF
310
FFFFFF0000000003F000FFF80000000007FFF8001E000FC003E0007FFF80007F
310
FFF0000000000FFFFF8000000000FFF80FFFFFFFFFFFFFC07FFFFFF0001FFFFF
310
F0001FFFFFFFFC0007F0001FFFFFFFFC0007FF0003FFFFFFFFFFFC0000000007
310
F000FFE0000000000FFFF0003E000FC003E0007FFF80007FFFC0000000001FFF
310
FE0000000001FFF80FFFFFFFFFFFFFC07FFFFFF0001FFFFFF0001FFFFFFFFC00
310
07F0001FFFFFFFFC0007FF0003FFFFFFFFFFF0000000000FF000FFC000000000
310
1FFFF0003F000F8003F0003FFF80007FFF80000000003FFFF80000000003FFF8
310
0FFFFFFFFFFFFFC07FFFFFF0001FFFFFF0001FFFFFFFFC0007F0001FFFFFFFFC
310
0007FF0003FFFFFFFFFFE0000000001FF000FF00000000007FFFF0003F000780
310
03F0003FFF80007FFF00000000007FFFF00000000007FFF80FFFFFFFFFFFFFC0
310
7FFFFFF0001FFFFFF0001FFFFFFFFC0007F0001FFFFFFFFC0007FF0003FFFFFF
310
FFFF80000000007FF000FE0000000000FFFFE0003F00078007F0003FFF80007F
310
FE0000000001FFFFE0000000001FFFF80FFFFFFFFFFFFFC07FFFFFF0001FFFFF
310
F0001FFFFFFFFC0007F0001FFFFFFFFC0007FF0003FFFFFFFFFF0000000000FF
310
F000FC0000000003FFFFE0007F00078007F0003FFF80007FFC0000000007FFFF
310
C0000000007FFFF80FFFFFFFFFFFFFC07FFFFFF0001FFFFFF8001FFFFFFFFC00
310
0FF8001FFFFFFFFC000FFF0003FFFFFFFFFE0000000003FFF000FC000000000F
310
FFFFE0007F80070007F8001FFF80007FF8000000001FFFFF8000000001FFFFF8
310
0FFFFFFFFFFFFFC07FFFFFF0001FFFFFF8001FFFFFFFFC000FF8001FFFFFFFFC
310
000FFF0003FFFFFFFFFC000000000FFFF000F8000000007FFFFFE0007F800700
310
07F8001FFF80007FF000000000FFFFFF800000000FFFFFF80FFFFFFFFFFFFFC0
310
7FFFFFF0001FFFFFF8000FFFFFFFF8000FF8000FFFFFFFF8000FFF0003FFFFFF
310
FFFC000000007FFFF000F800000007FFFFFFC0007F8003000FF8001FFF80007F
310
F000000007FFFFFF000000007FFFFFF80FFFFFFFFFFFFFC07FFFFFF0001FFFFF
310
F8000FFFFFFFF8000FF8000FFFFFFFF8000FFF0003FFFFFFFFF80000000FFFFF
310
F000F0000000FFFFFFFFC000FF8003000FF8001FFF80007FE0000000FFFFFFFF
310
0000000FFFFFFFF8000001FFFE0000007FFFFFF0001FFFFFF8000FFFFFFFF800
310
0FF8000FFFFFFFF8000FFF0003FFFFFFFFF8000000FFFFFFF000F000000FFFFF
310
FFFFC000FFC002000FF8000FFF80007FE000001FFFFFFFFE000001FFFFFFFFF8
310
000001FFFE0000007FFFFFF0001FFFFFF8000FFFFFFFF8000FF8000FFFFFFFF8
310
000FFF0003FFFFFFFFF000001FFFFFFFF000E00000FFFFFFFFFFC000FFC00200
310
0FFC000FFF80007FE00001FFFFFFFFFE00001FFFFFFFFFF8000001FFFE000000
310
7FFFFFF0001FFFFFFC000FFFFFFFF8001FFC000FFFFFFFF8001FFF0003FFFFFF
310
FFF00001FFFFFFFFF000E00007FFFFFFFFFF8000FFC000001FFC000FFF80007F
310
C0000FFFFFFFFFFE0000FFFFFFFFFFF8000001FFFE0000007FFFFFF0001FFFFF
310
FC0007FFFFFFF0001FFC0007FFFFFFF0001FFF0003FFFFFFFFF00007FFFFFFFF
310
F000E0001FFFFFFFFFFF8000FFC000001FFC000FFF80007FC0003FFFFFFFFFFE
310
0001FFFFFFFFFFF8000001FFFE0000007FFFFFF0001FFFFFFC0007FFFFFFF000
310
1FFC0007FFFFFFF0001FFF0003FFFFFFFFF0001FFFFFFFFFF000E0003FFFFF00
310
03FF8001FFE000001FFC0007FF80007FC0007FFFFF0007FC0003FFFFF0003FF8
310
000001FFFE0000007FFFFFF0001FFFFFFC0003FFFFFFE0001FFC0003FFFFFFE0
310
001FFF0003FFFFFFFFF0003FFFFFFFFFF000E0003FFFFF0001FF8001FFE00000
310
1FFE0007FF80007FC0007FFFFE0003FC0007FFFFE0003FF8000001FFFE000000
310
7FFFFFF0001FFFFFFE0003FFFFFFE0003FFE0003FFFFFFE0003FFF0003FFFFFF
310
FFF0003FFFFF8001F000E0003FFFFF0001FF0001FFE000001FFE0007FF80007F
310
C0007FFFFE0003FC0007FFFFE0003FF8000001FFFE0000007FFFFFF0001FFFFF
310
FE0001FFFFFFC0003FFE0001FFFFFFC0003FFF0003FFFFFFFFF0003FFFFF0001
310
F000E0003FFFFF0003FF0001FFE000003FFE0007FF80007FC0007FFFFE0003FC
310
0007FFFFE0003FF8000001FFFE0000007FFFFFF0001FFFFFFF0001FFFFFFC000
310
7FFF0001FFFFFFC0007FFF0003FFFFFFFFF0003FFFFF0001F000E0003FFFFE00
310
03FF0003FFF000003FFE0003FF80007FC0007FFFFC0003FE0007FFFFE0003FF8
310
000001FFFE0000007FFFFFF0001FFFFFFF0000FFFFFF80007FFF0000FFFFFF80
310
007FFF0003FFFFFFFFF0003FFFFF0001F000E0003FFFFE0003FF0003FFF00000
310
3FFF0003FF80007FC0007FFFFC0007FE0007FFFFC0003FF8000001FFFE000000
310
7FFFFFF0001FFFFFFF80007FFFFF0000FFFF80007FFFFF0000FFFF0003FFFFFF
310
FFF0003FFFFF0003F000E0003FFFFC0003FE0003FFF000003FFF0003FF80007F
310
E0003FFFF80007FE0003FFFFC0007FF8000001FFFE0000007FFFFFF0001FFFFF
310
FF80003FFFFE0000FFFF80003FFFFE0000FFFF0003FFFFFFFFF0001FFFFE0003
310
F000F0001FFFF80003FE0003FFF000007FFF0001FF80007FE0003FFFF00007FE
310
0001FFFF80007FF8000001FFFE0000007FFFFFF0001FFFFFFFC0000FFFF80001
310
FFFFC0000FFFF80001FFFF0003FFFFFFFFF0001FFFFC0003F000F0000FFFF000
310
07FE0007FFF800007FFF0001FF80007FE0001FFFE00007FF0000FFFE00007FF8
310
000001FFFE0000007FFFFFF0001FFFFFFFC00003FFE00001FFFFC00003FFE000
310
01FFFF0003FFFFFFFFF8000FFFF80003F000F00003FFC00007FC0007FFF80000
310
7FFF8001FF80007FF00007FF80000FFF00007FF80000FFF8000001FFFE000000
310
7F80000000000001FFE000003E000003FFFFE000003E000003FFFF0003FFFFFF
310
FFF80003FFE00007F000F800000000000FFC0007FFF800007FFF8001FF80007F
310
F000000000000FFF000000000000FFF8000001FFFE0000007F80000000000001
310
FFF0000000000007FFFFF0000000000007FFFF0003FFFFFFFFFC00007E000007
310
F000F800000000000FFC0007FFF80000FFFF8000FF80007FF800000000001FFF
310
800000000001FFF8000001FFFE0000007F80000000000001FFF800000000000F
310
FFFFF800000000000FFFFF0003FFFFFFFFFC00000000000FF000FC0000000000
310
1FFC0007FFFC0000FFFF8000FF80007FF800000000003FFFC00000000001FFF8
310
000001FFFE0000007F80000000000001FFF800000000000FFFFFF80000000000
310
0FFFFF0003FFFFFFFFFE00000000001FF000FE00000000003FF8000FFFFC0000
310
FFFF8000FF80007FFC00000000003FFFC00000000003FFF8000001FFFE000000
310
7F80000000000001FFFC00000000001FFFFFFC00000000001FFFFF0003FFFFFF
310
FFFF00000000001FF000FF00000000003FF8000FFFFC0000FFFFC000FF80007F
310
FE00000000007FFFE00000000007FFF8000001FFFE0000007F80000000000001
310
FFFE00000000003FFFFFFE00000000003FFFFF0003FFFFFFFFFF80000000003F
310
F000FF80000000007FF8000FFFFC0001FFFFC0007F80007FFF0000000000FFFF
310
F0000000000FFFF800000000000000007F80000000000001FFFF8000000000FF
310
FFFFFF8000000000FFFFFF0003FFFFFFFFFFC0000000007FF000FFC000000000
310
FFF8000FFFFE0001FFFFC0007F80007FFF8000000001FFFFF8000000001FFFF8
310
00000000000000007F80000000000001FFFFC000000001FFFFFFFFC000000001
310
FFFFFF0003FFFFFFFFFFE000000000FFF000FFE000000003FFF0001FFFFE0001
310
FFFFC0007F80007FFFC000000007FFFFFE000000003FFFF80000000000000000
310
7F80000000000001FFFFE000000003FFFFFFFFE000000003FFFFFF0003FFFFFF
310
FFFFF000000003FFF000FFF80000000FFFF0001FFFFE0001FFFFE0007F80007F
310
FFF00000000FFFFFFF00000000FFFFF800000000000000007F80000000000001
310
FFFFF80000000FFFFFFFFFF80000000FFFFFFF0003FFFFFFFFFFFC0000000FFF
310
F000FFFE0000003FFFF0001FFFFE0003FFFFE0003F80007FFFFC0000003FFFFF
310
FFC0000003FFFFF800000000000000007F80000000000001FFFFFE0000003FFF
310
FFFFFFFE0000003FFFFFFF0003FFFFFFFFFFFF0000003FFFF000FFFF800000FF
310
FFF0001FFFFF0003FFFFE0003F80007FFFFF000001FFFFFFFFF800001FFFFFF8
310
00000000000000007F80000000000001FFFFFFC00001FFFFFFFFFFFFC00001FF
310
FFFFFF0003FFFFFFFFFFFFC00000FFFFF000FFFFF8000FFFFFFFFFFFFFFFFFFF
310
FFFFFFFFFFFFFFFFFFFFF0001FFFFFFFFFFF0000FFFFFFF80000000000000000
310
7FFFFFFFFFFFFFFFFFFFFFFC001FFFFFFFFFFFFFFC001FFFFFFFFFFFFFFFFFFF
310
FFFFFFFC001FFFFFF000FFFFFFFFFFFFFFFFFFFFFFFFFFFFFFFFFFFFFFFFFFFF
310
FFFFFFFFFFFFFFFFFFFFFFFFFFFFFFFFFFFFFFFFFFFFFFFFFFFFFFFFFFFFFFFF
310
FFFFFFFFFFFFFFFFFFFFFFFFFFFFFFFFFFFFFFFFFFFFFFFFFFFFFFFFFFFFFFFF
310
F000FFFFFFFFFFFFFFFFFFFFFFFFFFFFFFFFFFFFFFFFFFFFFFFFFFFFFFFFFFFF
310
FFFFFFFFFFFFFFFFFFFFFFFFFFFFFFFFFFFFFFFFFFFFFFFFFFFFFFFFFFFFFFFF
310
FFFFFFFFFFFFFFFFFFFFFFFFFFFFFFFFFFFFFFFFFFFFFFFFF000FFFFFFFFFFFF
310
FFFFFFFFFFFFFFFFFFFFFFFFFFFFFFFFFFFFFFFFFFFFFFFFFFFFFFFFFFFFFFFF
310
FFFFFFFFFFFFFFFFFFFFFFFFFFFFFFFFFFFFFFFFFFFFFFFFFFFFFFFFFFFFFFFF
310
FFFFFFFFFFFFFFFFFFFFFFFFFFFFFFFFF000FFFFFFFFFFFFFFFFFFFFFFFFFFFF
310
FFFFFFFFFFFFFFFFFFFFFFFFFFFFFFFFFFFFFFFFFFFFFFFFFFFFFFFFFFFFFFFF
310
FFFFFFFFFFFFFFFFFFFFFFFFFFFFFFFFFFFFFFFFFFFFFFFFFFFFFFFFFFFFFFFF
310
FFFFFFFFFFFFFFFFF000FFFFFFFFFFFFFFFFFFFFFFFFFFFFFFFFFFFFFFFFFFFF
310
FFFFFFFFFFFFFFFFFFFFFFFFFFFFFFFFFFFFFFFFFFFFFFFFFFFFFFFFFFFFFFFF
310
FFFFFFFFFFFFFFFFFFFFFFFFFFFFFFFFFFFFFFFFFFFFFFFFFFFFFFFFFFFFFFFF
310
F000FFFFFFFFFFFFFFFFFFFFFFFFFFFFFFFFFFFFFFFFFFFFFFFFFFFFFFFFFFFF
310
FFFFFFFFFFFFFFFFFFFFFFFFFFFFFFFFFFFFFFFFFFFFFFFFFFFFFFFFFFFFFFFF
310
FFFFFFFFFFFFFFFFFFFFFFFFFFFFFFFFFFFFFFFFFFFFFFFFF000FFFFFFFFFFFF
310
FFFFFFFFFFFFFFFFFFFFFFFFFFFFFFFFFFFFFFFFFFFFFFFFFFFFFFFFFFFFFFFF
310
FFFFFFFFFFFFFFFFFFFFFFFFFFFFFFFFFFFFFFFFFFFFFFFFFFFFFFFFFFFFFFFF
310
FFFFFFFFFFFFFFFFFFFFFFFFFFFFFFFFF000FFFFFFFFFFFFFFFFFFFFFFFFFFFF
310
FFFFFFFFFFFFFFFFFFFFFFFFFFFFFFFFFFFFFFFFFFFFFFFFFFFFFFFFFFFFFFFF
310
FFFFFFFFFFFFFFFFFFFFFFFFFFFFFFFFFFFFFFFFFFFFFFFFFFFFFFFFFFFFFFFF
310
FFFFFFFFFFFFFFFFF000FFFFFFFFFFFFFFFFFFFFFFFFFFFFFFFFFFFFFFFFFFFF
310
FFFFFFFFFFFFFFFFFFFFFFFFFFFFFFFFFFFFFFFFFFFFFFFFFFFFFFFFFFFFFFFF
310
FFFFFFFFFFFFFFFFFFFFFFFFFFFFFFFFFFFFFFFFFFFFFFFFFFFFFFFFFFFFFFFF
310
F000FFFFFFFFFFFFFFFFFFFFFFFFFFFFFFFFFFFFFFFFFFFFFFFFFFFFFFFFFFFF
310
FFFFFFFFFFFFFFFFFFFFFFFFFFFFFFFFFFFFFFFFFFFFFFFFFFFFFFFFFFFFFFFF
310
FFFFFFFFFFFFFFFFFFFFFFFFFFFFFFFFFFFFFFFFFFFFFFFFF000FFFFFFFFFFFF
310
FFFFFFFFFFFFFFFFFFFFFFFFFFFFFFFFFFFFFFFFFFFFFFFFFFFFFFFFFFFFFFFF
310
FFFFFFFFFFFFFFFFFFFFFFFFFFFFFFFFFFFFFFFFFFFFFFFFFFFFFFFFFFFFFFFF
310
FFFFFFFFFFFFFFFFFFFFFFFFFFFFFFFFF000FFFFFFFFFFFFFFFFFFFFFFFFFFFF
310
FFFFFFFFFFFFFFFFFFFFFFFFFFFFFFFFFFFFFFFFFFFFFFFFFFFFFFFFFFFFFFFF
310
FFFFFFFFFFFFFFFFFFFFFFFFFFFFFFFFFFFFFFFFFFFFFFFFFFFFFFFFFFFFFFFF
310
FFFFFFFFFFFFFFFFF000FFFFFFFFFFFFFFFFFFFFFFFFFFFFFFFFFFFFFFFFFFFF
310
FFFFFFFFFFFFFFFFFFFFFFFFFFFFFFFFFFFFFFFFFFFFFFFFFFFFFFFFFFFFFFFF
310
FFFFFFFFFFFFFFFFFFFFFFFFFFFFFFFFFFFFFFFFFFFFFFFFFFFFFFFFFFFFFFFF
310
F000FFFFFFFFFFFFFFFFFFFFFFFFFFFFFFFFFFFFFFFFFFFFFFFFFFFFFFFFFFFF
310
FFFFFFFFFFFFFFFFFFFFFFFFFFFFFFFFFFFFFFFFFFFFFFFFFFFFFFFFFFFFFFFF
310
FFFFFFFFFFFFFFFFFFFFFFFFFFFFFFFFFFFFFFFFFFFFFFFFF000FFFFFFFFFFFF
310
FFFFFFFFFFFFFFFFFFFFFFFFFFFFFFFFFFFFFFFFFFFFFFFFFFFFFFFFFFFFFFFF
310
FFFFFFFFFFFFFFFFFFFFFFFFFFFFFFFFFFFFFFFFFFFFFFFFFFFFFFFFFFFFFFFF
310
FFFFFFFFFFFFFFFFFFFFFFFFFFFFFFFFF000FFFFFFFFFFFFFFFFFFFFFFFFFFFF
310
FFFFFFFFFFFFFFFFFFFFFFFFFFFFFFFFFFFFFFFFFFFFFFFFFFFFFFFFFFFFFFFF
310
FFFFFFFFFFFFFFFFFFFFFFFFFFFFFFFFFFFFFFFFFFFFFFFFFFFFFFFFFFFFFFFF
310
FFFFFFFFFFFFFFFFF000FFFFFFFFFFFFFFFFFFFFFFFFFFFFFFFFFFFFFFFFFFFF
310
FFFFFFFFFFFFFFFFFFFFFFFFFFFFFFFFFFFFFFFFFFFFFFFFFFFFFFFFFFFFFFFF
310
FFFFFFFFFFFFFFFFFFFFFFFFFFFFFFFFFFFFFFFFFFFFFFFFFFFFFFFFFFFFFFFF
310
F000FFFFFFFFFFFFFFFFFFFFFFFFFFFFFFFFFFFFFFFFFFFFFFFFFFFFFFFFFFFF
310
FFFFFFFFFFFFFFFFFFFFFFFFFFFFFFFFFFFFFFFFFFFFFFFFFFFFFFFFFFFFFFFF
310
FFFFFFFFFFFFFFFFFFFFFFFFFFFFFFFFFFFFFFFFFFFFFFFFF000FFFFFFFFFFFF
310
FFFFFFFFFFFFFFFFFFFFFFFFFFFFFFFFFFFFFFFFFFFFFFFFFFFFFFFFFFFFFFFF
310
FFFFFFFFFFFFFFFFFFFFFFFFFFFFFFFFFFFFFFFFFFFFFFFFFFFFFFFFFFFFFFFF
310
FFFFFFFFFFFFFFFFFFFFFFFFFFFFFFFFF000FFFFFFFFFFFFFFFFFFFFFFFFFFFF
310
FFFFFFFFFFFFFFFFFFFFFFFFFFFFFFFFFFFFFFFFFFFFFFFFFFFFFFFFFFFFFFFF
310
FFFFFFFFFFFFFFFFFFFFFFFFFFFFFFFFFFFFFFFFFFFFFFFFFFFFFFFFFFFFFFFF
310
FFFFFFFFFFFFFFFFF000FFFFFFFFFFFFFFFFFFFFFFFFFFFFFFFFFFFFFFFFFFFF
310
FFFFFFFFFFFFFFFFFFFFFFFFFFFFFFFFFFFFFFFFFFFFFFFFFFFFFFFFFFFFFFFF
310
FFFFFFFFFFFFFFFFFFFFFFFFFFFFFFFFFFFFFFFFFFFFFFFFFFFFFFFFFFFFFFFF
310
F000FFFFFFFFFFFFFFFFFFFFFFFFFFFFFFFFFFFFFFFFFFFFFFFFFFFFFFFFFFFF
310
FFFFFFFFFFFFFFFFFFFFFFFFFFFFFFFFFFFFFFFFFFFFFFFFFFFFFFFFFFFFFFFF
310
FFFFFFFFFFFFFFFFFFFFFFFFFFFFFFFFFFFFFFFFFFFFFFFFF000FFFFFFFFFFFF
310
FFFFFFFFFFFFFFFFFFFFFFFFFFFFFFFFFFFFFFFFFFFFFFFFFFFFFFFFFFFFFFFF
310
FFFFFFFFFFFFFFFFFFFFFFFFFFFFFFFFFFFFFFFFFFFFFFFFFFFFFFFFFFFFFFFF
310
FFFFFFFFFFFFFFFFFFFFFFFFFFFFFFFFF0000000000000000000000000000000
310
0000000000000000000000000000000000000000000000000000000000000000
310
0000000000000000000000000000000000000000000000000000000000000000
310
0000000000000000000000000000000000000000000000000000000000000000
310
0000000000000000000000000000000000000000000000000000000000000000
310
0000000000000000000000000000000000000000000000000000000000000000
310
0000000000000000000000000000000000000000000000000000000000000000
310
0000000000000000000000000000000000000000000000000000000000000000
310
0000000000000000000000000000000000000000000000000000000000000000
310
0000000000000000000000000000000000000000000000000000000000000000
310
0000000000000000000000000000000000000000000000000000000000000000
310
0000000000000000000000000000000000000000000000000000000000000000
310
0000000000000000000000000000000000000000000000000000000000000000
310
0000000000000000000000000000000000000000000000000000000000000000
310
0000000000000000000000000000000000000000000000000000000000000000
310
0000000000000000000000000000000000000000000000000000000000000000
  1
OLE
  0
ENDSEC
  0
SECTION
  2
OBJECTS
  0
DICTIONARY
  5
C
330
0
100
AcDbDictionary
281
     1
  3
ACAD_GROUP
350
D
  3
ACAD_LAYOUT
350
1A
  3
ACAD_MLINESTYLE
350
17
  3
ACAD_PLOTSETTINGS
350
19
  3
ACAD_PLOTSTYLENAME
350
E
  3
ACAD_SCALELIST
350
47
  0
DICTIONARY
  5
D
102
{ACAD_REACTORS
330
C
102
}
330
C
100
AcDbDictionary
281
     1
  0
DICTIONARY
  5
1A
102
{ACAD_REACTORS
330
C
102
}
330
C
100
AcDbDictionary
281
     1
  3
Layout1
350
1E
  3
Layout2
350
26
  3
Model
350
22
  0
DICTIONARY
  5
17
102
{ACAD_REACTORS
330
C
102
}
330
C
100
AcDbDictionary
281
     1
  3
Standard
350
18
  0
DICTIONARY
  5
19
102
{ACAD_REACTORS
330
C
102
}
330
C
100
AcDbDictionary
281
     1
  0
ACDBDICTIONARYWDFLT
  5
E
102
{ACAD_REACTORS
330
C
102
}
330
C
100
AcDbDictionary
281
     1
  3
Normal
350
F
100
AcDbDictionaryWithDefault
340
F
  0
DICTIONARY
  5
47
102
{ACAD_REACTORS
330
C
102
}
330
C
100
AcDbDictionary
281
     1
  3
A0
350
48
  3
A1
350
49
  3
A2
350
4A
  3
A3
350
4B
  3
A4
350
4C
  3
A5
350
4D
  3
A6
350
4E
  3
A7
350
4F
  3
A8
350
50
  3
A9
350
51
  3
B0
350
52
  3
B1
350
53
  3
B2
350
54
  3
B3
350
55
  3
B4
350
56
  3
B5
350
57
  3
B6
350
58
  3
B7
350
59
  3
B8
350
5A
  3
B9
350
5B
  3
C0
350
5C
  3
C1
350
5D
  3
C2
350
5E
  3
C3
350
5F
  3
C4
350
60
  3
C5
350
61
  3
C6
350
62
  3
C7
350
63
  3
C8
350
64
  3
C9
350
65
  3
D0
350
66
  3
D1
350
67
  3
D2
350
68
  0
LAYOUT
  5
1E
102
{ACAD_REACTORS
330
1A
102
}
330
1A
100
AcDbPlotSettings
  1

  2
none_device
  4

  6

 40
0.0
 41
0.0
 42
0.0
 43
0.0
 44
0.0
 45
0.0
 46
0.0
 47
0.0
 48
0.0
 49
0.0
140
0.0
141
0.0
142
1.0
143
1.0
 70
   688
 72
     1
 73
     0
 74
     5
  7

 75
    16
147
1.0
148
0.0
149
0.0
100
AcDbLayout
  1
Layout1
 70
     1
 71
     1
 10
0.0
 20
0.0
 11
420.0
 21
297.0
 12
0.0
 22
0.0
 32
0.0
 14
1.0000000000E+20
 24
1.0000000000E+20
 34
1.0000000000E+20
 15
-1.0000000000E+20
 25
-1.0000000000E+20
 35
-1.0000000000E+20
146
0.0
 13
0.0
 23
0.0
 33
0.0
 16
1.0
 26
0.0
 36
0.0
 17
0.0
 27
1.0
 37
0.0
 76
     0
330
1B
  0
LAYOUT
  5
26
102
{ACAD_REACTORS
330
1A
102
}
330
1A
100
AcDbPlotSettings
  1

  2
none_device
  4

  6

 40
0.0
 41
0.0
 42
0.0
 43
0.0
 44
0.0
 45
0.0
 46
0.0
 47
0.0
 48
0.0
 49
0.0
140
0.0
141
0.0
142
1.0
143
1.0
 70
   688
 72
     1
 73
     0
 74
     5
  7

 75
    16
147
1.0
148
0.0
149
0.0
100
AcDbLayout
  1
Layout2
 70
     1
 71
     2
 10
0.0
 20
0.0
 11
0.0
 21
0.0
 12
0.0
 22
0.0
 32
0.0
 14
0.0
 24
0.0
 34
0.0
 15
0.0
 25
0.0
 35
0.0
146
0.0
 13
0.0
 23
0.0
 33
0.0
 16
1.0
 26
0.0
 36
0.0
 17
0.0
 27
1.0
 37
0.0
 76
     0
330
23
  0
LAYOUT
  5
22
102
{ACAD_REACTORS
330
1A
102
}
330
1A
100
AcDbPlotSettings
  1

  2
none_device
  4
Letter_(8.50_x_11.00_Inches)
  6

 40
6.35
 41
6.35
 42
6.35000508
 43
6.35000508
 44
215.9
 45
279.4
 46
0.0
 47
0.0
 48
0.0
 49
0.0
140
0.0
141
0.0
142
1.0
143
1.0
 70
  1712
 72
     1
 73
     0
 74
     0
  7

 75
     0
147
1.0
148
0.0
149
0.0
100
AcDbLayout
  1
Model
 70
     1
 71
     0
 10
0.0
 20
0.0
 11
297.0
 21
210.0
 12
0.0
 22
0.0
 32
0.0
 14
0.0
 24
0.0
 34
0.0
 15
297.0
 25
210.0
 35
0.0
146
0.0
 13
0.0
 23
0.0
 33
0.0
 16
1.0
 26
0.0
 36
0.0
 17
0.0
 27
1.0
 37
0.0
 76
     0
330
1F
331
29
  0
MLINESTYLE
  5
18
102
{ACAD_REACTORS
330
17
102
}
330
17
100
AcDbMlineStyle
  2
Standard
 70
     0
  3

 62
   256
 51
90.0
 52
90.0
 71
     2
 49
0.5
 62
   256
  6
BYLAYER
 49
-0.5
 62
   256
  6
BYLAYER
  0
ACDBPLACEHOLDER
  5
F
102
{ACAD_REACTORS
330
E
102
}
330
E
  0
SCALE
  5
48
102
{ACAD_REACTORS
330
47
102
}
330
47
100
AcDbScale
 70
     0
300
1:1
140
1.0
141
1.0
290
     1
  0
SCALE
  5
49
102
{ACAD_REACTORS
330
47
102
}
330
47
100
AcDbScale
 70
     0
300
1:2
140
1.0
141
2.0
290
     0
  0
SCALE
  5
4A
102
{ACAD_REACTORS
330
47
102
}
330
47
100
AcDbScale
 70
     0
300
1:4
140
1.0
141
4.0
290
     0
  0
SCALE
  5
4B
102
{ACAD_REACTORS
330
47
102
}
330
47
100
AcDbScale
 70
     0
300
1:5
140
1.0
141
5.0
290
     0
  0
SCALE
  5
4C
102
{ACAD_REACTORS
330
47
102
}
330
47
100
AcDbScale
 70
     0
300
1:8
140
1.0
141
8.0
290
     0
  0
SCALE
  5
4D
102
{ACAD_REACTORS
330
47
102
}
330
47
100
AcDbScale
 70
     0
300
1:10
140
1.0
141
10.0
290
     0
  0
SCALE
  5
4E
102
{ACAD_REACTORS
330
47
102
}
330
47
100
AcDbScale
 70
     0
300
1:16
140
1.0
141
16.0
290
     0
  0
SCALE
  5
4F
102
{ACAD_REACTORS
330
47
102
}
330
47
100
AcDbScale
 70
     0
300
1:20
140
1.0
141
20.0
290
     0
  0
SCALE
  5
50
102
{ACAD_REACTORS
330
47
102
}
330
47
100
AcDbScale
 70
     0
300
1:30
140
1.0
141
30.0
290
     0
  0
SCALE
  5
51
102
{ACAD_REACTORS
330
47
102
}
330
47
100
AcDbScale
 70
     0
300
1:40
140
1.0
141
40.0
290
     0
  0
SCALE
  5
52
102
{ACAD_REACTORS
330
47
102
}
330
47
100
AcDbScale
 70
     0
300
1:50
140
1.0
141
50.0
290
     0
  0
SCALE
  5
53
102
{ACAD_REACTORS
330
47
102
}
330
47
100
AcDbScale
 70
     0
300
1:100
140
1.0
141
100.0
290
     0
  0
SCALE
  5
54
102
{ACAD_REACTORS
330
47
102
}
330
47
100
AcDbScale
 70
     0
300
2:1
140
2.0
141
1.0
290
     0
  0
SCALE
  5
55
102
{ACAD_REACTORS
330
47
102
}
330
47
100
AcDbScale
 70
     0
300
4:1
140
4.0
141
1.0
290
     0
  0
SCALE
  5
56
102
{ACAD_REACTORS
330
47
102
}
330
47
100
AcDbScale
 70
     0
300
8:1
140
8.0
141
1.0
290
     0
  0
SCALE
  5
57
102
{ACAD_REACTORS
330
47
102
}
330
47
100
AcDbScale
 70
     0
300
10:1
140
10.0
141
1.0
290
     0
  0
SCALE
  5
58
102
{ACAD_REACTORS
330
47
102
}
330
47
100
AcDbScale
 70
     0
300
100:1
140
100.0
141
1.0
290
     0
  0
SCALE
  5
59
102
{ACAD_REACTORS
330
47
102
}
330
47
100
AcDbScale
 70
     0
300
1/128" = 1'-0"
140
0.0078125
141
12.0
290
     0
  0
SCALE
  5
5A
102
{ACAD_REACTORS
330
47
102
}
330
47
100
AcDbScale
 70
     0
300
1/64" = 1'-0"
140
0.015625
141
12.0
290
     0
  0
SCALE
  5
5B
102
{ACAD_REACTORS
330
47
102
}
330
47
100
AcDbScale
 70
     0
300
1/32" = 1'-0"
140
0.03125
141
12.0
290
     0
  0
SCALE
  5
5C
102
{ACAD_REACTORS
330
47
102
}
330
47
100
AcDbScale
 70
     0
300
1/16" = 1'-0"
140
0.0625
141
12.0
290
     0
  0
SCALE
  5
5D
102
{ACAD_REACTORS
330
47
102
}
330
47
100
AcDbScale
 70
     0
300
3/32" = 1'-0"
140
0.09375
141
12.0
290
     0
  0
SCALE
  5
5E
102
{ACAD_REACTORS
330
47
102
}
330
47
100
AcDbScale
 70
     0
300
1/8" = 1'-0"
140
0.125
141
12.0
290
     0
  0
SCALE
  5
5F
102
{ACAD_REACTORS
330
47
102
}
330
47
100
AcDbScale
 70
     0
300
3/16" = 1'-0"
140
0.1875
141
12.0
290
     0
  0
SCALE
  5
60
102
{ACAD_REACTORS
330
47
102
}
330
47
100
AcDbScale
 70
     0
300
1/4" = 1'-0"
140
0.25
141
12.0
290
     0
  0
SCALE
  5
61
102
{ACAD_REACTORS
330
47
102
}
330
47
100
AcDbScale
 70
     0
300
3/8" = 1'-0"
140
0.375
141
12.0
290
     0
  0
SCALE
  5
62
102
{ACAD_REACTORS
330
47
102
}
330
47
100
AcDbScale
 70
     0
300
1/2" = 1'-0"
140
0.5
141
12.0
290
     0
  0
SCALE
  5
63
102
{ACAD_REACTORS
330
47
102
}
330
47
100
AcDbScale
 70
     0
300
3/4" = 1'-0"
140
0.75
141
12.0
290
     0
  0
SCALE
  5
64
102
{ACAD_REACTORS
330
47
102
}
330
47
100
AcDbScale
 70
     0
300
1" = 1'-0"
140
1.0
141
12.0
290
     0
  0
SCALE
  5
65
102
{ACAD_REACTORS
330
47
102
}
330
47
100
AcDbScale
 70
     0
300
1-1/2" = 1'-0"
140
1.5
141
12.0
290
     0
  0
SCALE
  5
66
102
{ACAD_REACTORS
330
47
102
}
330
47
100
AcDbScale
 70
     0
300
3" = 1'-0"
140
3.0
141
12.0
290
     0
  0
SCALE
  5
67
102
{ACAD_REACTORS
330
47
102
}
330
47
100
AcDbScale
 70
     0
300
6" = 1'-0"
140
6.0
141
12.0
290
     0
  0
SCALE
  5
68
102
{ACAD_REACTORS
330
47
102
}
330
47
100
AcDbScale
 70
     0
300
1'-0" = 1'-0"
140
12.0
141
12.0
290
     0
  0
ENDSEC
  0
EOF
