  0
SECTION
  2
HEADER
  9
$ACADVER
  1
AC1015
  9
$ACADMAINTVER
 70
     6
  9
$DWGCODEPAGE
  3
ANSI_1252
  9
$INSBASE
 10
0.0
 20
0.0
 30
0.0
  9
$EXTMIN
 10
0.0
 20
0.0
 30
0.0
  9
$EXTMAX
 10
297.0
 20
210.0
 30
0.0
  9
$LIMMIN
 10
0.0
 20
0.0
  9
$LIMMAX
 10
297.0
 20
210.0
  9
$ORTHOMODE
 70
     0
  9
$REGENMODE
 70
     1
  9
$FILLMODE
 70
     1
  9
$QTEXTMODE
 70
     0
  9
$MIRRTEXT
 70
     1
  9
$LTSCALE
 40
1.0
  9
$ATTMODE
 70
     1
  9
$TEXTSIZE
 40
2.0
  9
$TRACEWID
 40
1.0
  9
$TEXTSTYLE
  7
Standard
  9
$CLAYER
  8
0
  9
$CELTYPE
  6
ByLayer
  9
$CECOLOR
 62
   256
  9
$CELTSCALE
 40
1.0
  9
$DISPSILH
 70
     0
  9
$DIMSCALE
 40
1.0
  9
$DIMASZ
 40
3.0
  9
$DIMEXO
 40
0.0
  9
$DIMDLI
 40
3.75
  9
$DIMRND
 40
0.0
  9
$DIMDLE
 40
0.0
  9
$DIMEXE
 40
1.0
  9
$DIMTP
 40
0.0
  9
$DIMTM
 40
0.0
  9
$DIMTXT
 40
2.0
  9
$DIMCEN
 40
2.5
  9
$DIMTSZ
 40
0.0
  9
$DIMTOL
 70
     0
  9
$DIMLIM
 70
     0
  9
$DIMTIH
 70
     1
  9
$DIMTOH
 70
     1
  9
$DIMSE1
 70
     0
  9
$DIMSE2
 70
     0
  9
$DIMTAD
 70
     1
  9
$DIMZIN
 70
     0
  9
$DIMBLK
  1

  9
$DIMASO
 70
     1
  9
$DIMSHO
 70
     1
  9
$DIMPOST
  1

  9
$DIMAPOST
  1

  9
$DIMALT
 70
     0
  9
$DIMALTD
 70
     3
  9
$DIMALTF
 40
0.0393700787
  9
$DIMLFAC
 40
1.0
  9
$DIMTOFL
 70
     1
  9
$DIMTVP
 40
0.0
  9
$DIMTIX
 70
     0
  9
$DIMSOXD
 70
     0
  9
$DIMSAH
 70
     0
  9
$DIMBLK1
  1

  9
$DIMBLK2
  1

  9
$DIMSTYLE
  2
ISO-25
  9
$DIMCLRD
 70
     0
  9
$DIMCLRE
 70
     0
  9
$DIMCLRT
 70
     0
  9
$DIMTFAC
 40
1.0
  9
$DIMGAP
 40
1.524
  9
$DIMJUST
 70
     0
  9
$DIMSD1
 70
     0
  9
$DIMSD2
 70
     0
  9
$DIMTOLJ
 70
     0
  9
$DIMTZIN
 70
     0
  9
$DIMALTZ
 70
     0
  9
$DIMALTTZ
 70
     0
  9
$DIMUPT
 70
     0
  9
$DIMDEC
 70
     2
  9
$DIMTDEC
 70
     3
  9
$DIMALTU
 70
     2
  9
$DIMALTTD
 70
     3
  9
$DIMTXSTY
  7
Standard
  9
$DIMAUNIT
 70
     0
  9
$DIMADEC
 70
     2
  9
$DIMALTRND
 40
0.0
  9
$DIMAZIN
 70
     0
  9
$DIMDSEP
 70
    44
  9
$DIMATFIT
 70
     3
  9
$DIMFRAC
 70
     0
  9
$DIMLDRBLK
  1

  9
$DIMLUNIT
 70
     2
  9
$DIMLWD
 70
    -2
  9
$DIMLWE
 70
    -2
  9
$DIMTMOVE
 70
     0
  9
$LUNITS
 70
     2
  9
$LUPREC
 70
     2
  9
$SKETCHINC
 40
1.0
  9
$FILLETRAD
 40
10.0
  9
$AUNITS
 70
     0
  9
$AUPREC
 70
     2
  9
$MENU
  1
.
  9
$ELEVATION
 40
0.0
  9
$PELEVATION
 40
0.0
  9
$THICKNESS
 40
0.0
  9
$LIMCHECK
 70
     0
  9
$CHAMFERA
 40
10.0
  9
$CHAMFERB
 40
10.0
  9
$CHAMFERC
 40
20.0
  9
$CHAMFERD
 40
0.0
  9
$SKPOLY
 70
     0
  9
$TDCREATE
 40
2455672.397461609
  9
$TDUCREATE
 40
2455672.314128275
  9
$TDUPDATE
 40
2455672.39746162
  9
$TDUUPDATE
 40
2455672.314128287
  9
$TDINDWG
 40
0.0000000116
  9
$TDUSRTIMER
 40
0.0000000116
  9
$USRTIMER
 70
     1
  9
$ANGBASE
 50
0.0
  9
$ANGDIR
 70
     0
  9
$PDMODE
 70
     0
  9
$PDSIZE
 40
-1.0
  9
$PLINEWID
 40
0.0
  9
$SPLFRAME
 70
     0
  9
$SPLINETYPE
 70
     6
  9
$SPLINESEGS
 70
     8
  9
$HANDSEED
  5
1C3
  9
$SURFTAB1
 70
     6
  9
$SURFTAB2
 70
     6
  9
$SURFTYPE
 70
     6
  9
$SURFU
 70
     6
  9
$SURFV
 70
     6
  9
$UCSBASE
  2

  9
$UCSNAME
  2

  9
$UCSORG
 10
0.0
 20
0.0
 30
0.0
  9
$UCSXDIR
 10
1.0
 20
0.0
 30
0.0
  9
$UCSYDIR
 10
0.0
 20
1.0
 30
0.0
  9
$UCSORTHOREF
  2

  9
$UCSORTHOVIEW
 70
     0
  9
$UCSORGTOP
 10
0.0
 20
0.0
 30
0.0
  9
$UCSORGBOTTOM
 10
0.0
 20
0.0
 30
0.0
  9
$UCSORGLEFT
 10
0.0
 20
0.0
 30
0.0
  9
$UCSORGRIGHT
 10
0.0
 20
0.0
 30
0.0
  9
$UCSORGFRONT
 10
0.0
 20
0.0
 30
0.0
  9
$UCSORGBACK
 10
0.0
 20
0.0
 30
0.0
  9
$PUCSBASE
  2

  9
$PUCSNAME
  2

  9
$PUCSORG
 10
0.0
 20
0.0
 30
0.0
  9
$PUCSXDIR
 10
1.0
 20
0.0
 30
0.0
  9
$PUCSYDIR
 10
0.0
 20
1.0
 30
0.0
  9
$PUCSORTHOREF
  2

  9
$PUCSORTHOVIEW
 70
     0
  9
$PUCSORGTOP
 10
0.0
 20
0.0
 30
0.0
  9
$PUCSORGBOTTOM
 10
0.0
 20
0.0
 30
0.0
  9
$PUCSORGLEFT
 10
0.0
 20
0.0
 30
0.0
  9
$PUCSORGRIGHT
 10
0.0
 20
0.0
 30
0.0
  9
$PUCSORGFRONT
 10
0.0
 20
0.0
 30
0.0
  9
$PUCSORGBACK
 10
0.0
 20
0.0
 30
0.0
  9
$USERI1
 70
     0
  9
$USERI2
 70
     0
  9
$USERI3
 70
     0
  9
$USERI4
 70
     0
  9
$USERI5
 70
     0
  9
$USERR1
 40
0.0
  9
$USERR2
 40
0.0
  9
$USERR3
 40
0.0
  9
$USERR4
 40
0.0
  9
$USERR5
 40
0.0
  9
$WORLDVIEW
 70
     1
  9
$SHADEDGE
 70
     3
  9
$SHADEDIF
 70
    70
  9
$TILEMODE
 70
     1
  9
$MAXACTVP
 70
    64
  9
$PINSBASE
 10
0.0
 20
0.0
 30
0.0
  9
$PLIMCHECK
 70
     0
  9
$PEXTMIN
 10
1.0000000000E+20
 20
1.0000000000E+20
 30
1.0000000000E+20
  9
$PEXTMAX
 10
-1.0000000000E+20
 20
-1.0000000000E+20
 30
-1.0000000000E+20
  9
$PLIMMIN
 10
0.0
 20
0.0
  9
$PLIMMAX
 10
420.0
 20
297.0
  9
$UNITMODE
 70
     0
  9
$VISRETAIN
 70
     1
  9
$PLINEGEN
 70
     0
  9
$PSLTSCALE
 70
     1
  9
$TREEDEPTH
 70
  3020
  9
$CMLSTYLE
  2
Standard
  9
$CMLJUST
 70
     0
  9
$CMLSCALE
 40
20.0
  9
$PROXYGRAPHICS
 70
     1
  9
$MEASUREMENT
 70
     1
  9
$CELWEIGHT
370
    -1
  9
$ENDCAPS
280
     0
  9
$JOINSTYLE
280
     0
  9
$LWDISPLAY
290
     1
  9
$INSUNITS
 70
     4
  9
$HYPERLINKBASE
  1

  9
$STYLESHEET
  1

  9
$XEDIT
290
     1
  9
$CEPSNTYPE
380
     0
  9
$PSTYLEMODE
290
     1
  9
$FINGERPRINTGUID
  2
{13CE86E7-B6E5-404B-9779-152ADFBF7499}
  9
$VERSIONGUID
  2
{FAEB1C32-E019-11D5-929B-00C0DF256EC4}
  9
$EXTNAMES
290
     1
  9
$PSVPSCALE
 40
0.0
  9
$OLESTARTUP
290
     0
  0
ENDSEC
  0
SECTION
  2
CLASSES
  0
CLASS
  1
ACDBDICTIONARYWDFLT
  2
AcDbDictionaryWithDefault
  3
ObjectDBX Classes
 90
        0
280
     0
281
     0
  0
CLASS
  1
VISUALSTYLE
  2
AcDbVisualStyle
  3
ObjectDBX Classes
 90
     4095
280
     0
281
     0
  0
CLASS
  1
DICTIONARYVAR
  2
AcDbDictionaryVar
  3
ObjectDBX Classes
 90
        0
280
     0
281
     0
  0
CLASS
  1
ACDBPLACEHOLDER
  2
AcDbPlaceHolder
  3
ObjectDBX Classes
 90
        0
280
     0
281
     0
  0
CLASS
  1
LAYOUT
  2
AcDbLayout
  3
ObjectDBX Classes
 90
        0
280
     0
281
     0
  0
ENDSEC
  0
SECTION
  2
TABLES
  0
TABLE
  2
VPORT
  5
8
330
0
100
AcDbSymbolTable
 70
     1
  0
VPORT
  5
29
330
8
100
AcDbSymbolTableRecord
100
AcDbViewportTableRecord
  2
*Active
 70
     0
 10
0.0
 20
0.0
 11
1.0
 21
1.0
 12
148.5
 22
105.0
 13
0.0
 23
0.0
 14
10.0
 24
10.0
 15
10.0
 25
10.0
 16
0.0
 26
0.0
 36
1.0
 17
0.0
 27
0.0
 37
0.0
 40
210.0
 41
1.4142857143
 42
50.0
 43
0.0
 44
0.0
 50
0.0
 51
0.0
 71
     0
 72
  2000
 73
     1
 74
     3
 75
     0
 76
     0
 77
     0
 78
     0
281
     0
 65
     1
110
0.0
120
0.0
130
0.0
111
1.0
121
0.0
131
0.0
112
0.0
122
1.0
132
0.0
 79
     0
146
0.0
  0
ENDTAB
  0
TABLE
  2
LTYPE
  5
5
330
0
100
AcDbSymbolTable
 70
     6
  0
LTYPE
  5
14
330
5
100
AcDbSymbolTableRecord
100
AcDbLinetypeTableRecord
  2
ByBlock
 70
     0
  3

 72
    65
 73
     0
 40
0.0
  0
LTYPE
  5
15
330
5
100
AcDbSymbolTableRecord
100
AcDbLinetypeTableRecord
  2
ByLayer
 70
     0
  3

 72
    65
 73
     0
 40
0.0
  0
LTYPE
  5
16
330
5
100
AcDbSymbolTableRecord
100
AcDbLinetypeTableRecord
  2
Continuous
 70
     0
  3
Solid line
 72
    65
 73
     0
 40
0.0
  0
LTYPE
  5
3B
330
5
100
AcDbSymbolTableRecord
100
AcDbLinetypeTableRecord
  2
HIDDEN
 70
     0
  3
Hidden __ __ __ __ __ __ __ __ __ __ __ __ __ __
 72
    65
 73
     2
 40
1.905
 49
1.27
 74
     0
 49
-0.635
 74
     0
  0
LTYPE
  5
3C
330
5
100
AcDbSymbolTableRecord
100
AcDbLinetypeTableRecord
  2
PHANTOM
 70
     0
  3
Phantom ______  __  __  ______  __  __  ______
 72
    65
 73
     6
 40
12.7
 49
6.35
 74
     0
 49
-1.27
 74
     0
 49
1.27
 74
     0
 49
-1.27
 74
     0
 49
1.27
 74
     0
 49
-1.27
 74
     0
  0
LTYPE
  5
3D
330
5
100
AcDbSymbolTableRecord
100
AcDbLinetypeTableRecord
  2
CENTER
 70
     0
  3
Center ____ _ ____ _ ____ _ ____ _ ____ _ ____
 72
    65
 73
     4
 40
10.16
 49
6.35
 74
     0
 49
-1.27
 74
     0
 49
1.27
 74
     0
 49
-1.27
 74
     0
  0
LTYPE
  5
3E
330
5
100
AcDbSymbolTableRecord
100
AcDbLinetypeTableRecord
  2
CENTERX2
 70
     0
  3
Center (2x) ________  __  ________  __  _____
 72
    65
 73
     4
 40
20.32
 49
12.7
 74
     0
 49
-2.54
 74
     0
 49
2.54
 74
     0
 49
-2.54
 74
     0
  0
LTYPE
  5
3F
330
5
100
AcDbSymbolTableRecord
100
AcDbLinetypeTableRecord
  2
DOT2
 70
     0
  3
Dot (.5x) ........................................
 72
    65
 73
     2
 40
0.635
 49
0.0
 74
     0
 49
-0.635
 74
     0
  0
ENDTAB
  0
TABLE
  2
LAYER
  5
2
330
0
100
AcDbSymbolTable
 70
     5
  0
LAYER
  5
10
330
2
100
AcDbSymbolTableRecord
100
AcDbLayerTableRecord
  2
0
 70
     0
 62
     7
  6
Continuous
370
    -3
390
F
  0
LAYER
  5
40
330
2
100
AcDbSymbolTableRecord
100
AcDbLayerTableRecord
  2
FORMAT
 70
     0
 62
     7
  6
Continuous
370
    -3
390
F
  0
LAYER
  5
41
330
2
100
AcDbSymbolTableRecord
100
AcDbLayerTableRecord
  2
VERMASSUNG
 70
     0
 62
     7
  6
Continuous
370
    -3
390
F
  0
LAYER
  5
42
330
2
100
AcDbSymbolTableRecord
100
AcDbLayerTableRecord
  2
KOPF_DÜNN
 70
     0
 62
     7
  6
Continuous
370
    -3
390
F
  0
LAYER
  5
43
330
2
100
AcDbSymbolTableRecord
100
AcDbLayerTableRecord
  2
KOPF_DICK
 70
     0
 62
     7
  6
Continuous
370
    15
390
F
  0
ENDTAB
  0
TABLE
  2
STYLE
  5
3
330
0
100
AcDbSymbolTable
 70
     3
  0
STYLE
  5
11
330
3
100
AcDbSymbolTableRecord
100
AcDbTextStyleTableRecord
  2
Standard
 70
     0
 40
0.0
 41
1.0
 50
0.0
 71
     0
 42
2.5
  3
txt
  4

  0
STYLE
  5
44
330
3
100
AcDbSymbolTableRecord
100
AcDbTextStyleTableRecord
  2
SLDTEXTSTYLE0
 70
     0
 40
0.0
 41
0.7
 50
0.0
 71
     0
 42
0.2
  3
TXT
  4

  0
STYLE
  5
48
330
3
100
AcDbSymbolTableRecord
100
AcDbTextStyleTableRecord
  2
SLDTEXTSTYLE1
 70
     0
 40
0.0
 41
0.6473684211
 50
0.0
 71
     0
 42
0.2
  3
TXT
  4

  0
ENDTAB
  0
TABLE
  2
VIEW
  5
6
330
0
100
AcDbSymbolTable
 70
     0
  0
ENDTAB
  0
TABLE
  2
UCS
  5
7
330
0
100
AcDbSymbolTable
 70
     0
  0
ENDTAB
  0
TABLE
  2
APPID
  5
9
330
0
100
AcDbSymbolTable
 70
     1
  0
APPID
  5
12
330
9
100
AcDbSymbolTableRecord
100
AcDbRegAppTableRecord
  2
ACAD
 70
     0
  0
ENDTAB
  0
TABLE
  2
DIMSTYLE
  5
A
330
0
100
AcDbSymbolTable
 70
     2
100
AcDbDimStyleTable
  0
DIMSTYLE
105
27
330
A
100
AcDbSymbolTableRecord
100
AcDbDimStyleTableRecord
  2
ISO-25
 70
     0
 41
2.5
 42
0.625
 43
3.75
 44
1.25
 73
     0
 74
     0
 77
     1
 78
     8
140
2.5
141
2.5
143
0.0393700787
147
0.625
171
     3
172
     1
271
     2
272
     2
274
     3
278
    44
283
     0
284
     8
340
11
  0
DIMSTYLE
105
17B
102
{ACAD_REACTORS
330
17A
330
187
330
191
330
19B
330
1A5
330
1B0
102
}
330
A
100
AcDbSymbolTableRecord
100
AcDbDimStyleTableRecord
  2
SLDDIMSTYLE0
 70
     0
 41
3.0
 44
0.0
 45
0.000000001
 73
     0
 74
     0
 77
     1
 78
    12
140
2.0
147
0.5
173
     1
271
     2
272
     3
284
    12
340
44
  0
ENDTAB
  0
TABLE
  2
BLOCK_RECORD
  5
1
330
0
100
AcDbSymbolTable
 70
     7
  0
BLOCK_RECORD
  5
1F
330
1
100
AcDbSymbolTableRecord
100
AcDbBlockTableRecord
  2
*Model_Space
340
22
  0
BLOCK_RECORD
  5
1B
330
1
100
AcDbSymbolTableRecord
100
AcDbBlockTableRecord
  2
*Paper_Space
340
1E
  0
BLOCK_RECORD
  5
23
330
1
100
AcDbSymbolTableRecord
100
AcDbBlockTableRecord
  2
*Paper_Space0
340
26
  0
BLOCK_RECORD
  5
17C
330
1
100
AcDbSymbolTableRecord
100
AcDbBlockTableRecord
  2
*D1
340
0
  0
BLOCK_RECORD
  5
188
330
1
100
AcDbSymbolTableRecord
100
AcDbBlockTableRecord
  2
*D2
340
0
  0
BLOCK_RECORD
  5
192
330
1
100
AcDbSymbolTableRecord
100
AcDbBlockTableRecord
  2
*D3
340
0
  0
BLOCK_RECORD
  5
19C
330
1
100
AcDbSymbolTableRecord
100
AcDbBlockTableRecord
  2
*D4
340
0
  0
BLOCK_RECORD
  5
1A6
330
1
100
AcDbSymbolTableRecord
100
AcDbBlockTableRecord
  2
*D5
340
0
  0
BLOCK_RECORD
  5
1B1
330
1
100
AcDbSymbolTableRecord
100
AcDbBlockTableRecord
  2
*D6
340
0
  0
ENDTAB
  0
ENDSEC
  0
SECTION
  2
BLOCKS
  0
BLOCK
  5
20
330
1F
100
AcDbEntity
  8
0
100
AcDbBlockBegin
  2
*Model_Space
 70
     0
 10
0.0
 20
0.0
 30
0.0
  3
*Model_Space
  1

  0
ENDBLK
  5
21
330
1F
100
AcDbEntity
  8
0
100
AcDbBlockEnd
  0
BLOCK
  5
1C
330
1B
100
AcDbEntity
 67
     1
  8
0
100
AcDbBlockBegin
  2
*Paper_Space
 70
     0
 10
0.0
 20
0.0
 30
0.0
  3
*Paper_Space
  1

  0
ENDBLK
  5
1D
330
1B
100
AcDbEntity
 67
     1
  8
0
100
AcDbBlockEnd
  0
BLOCK
  5
24
330
23
100
AcDbEntity
  8
0
100
AcDbBlockBegin
  2
*Paper_Space0
 70
     0
 10
0.0
 20
0.0
 30
0.0
  3
*Paper_Space0
  1

  0
ENDBLK
  5
25
330
23
100
AcDbEntity
  8
0
100
AcDbBlockEnd
  0
BLOCK
  5
17D
330
17C
100
AcDbEntity
  8
0
100
AcDbBlockBegin
  2
*D1
 70
     1
 10
0.0
 20
0.0
 30
0.0
  3
*D1
  1

  0
SOLID
  5
17F
330
17C
100
AcDbEntity
  8
VERMASSUNG
100
AcDbTrace
 10
64.8745518465
 20
147.6969609856
 30
0.0
 11
64.4245518465
 21
144.6969609856
 31
0.0
 12
65.3245518465
 22
144.6969609856
 32
0.0
 13
65.3245518465
 23
144.6969609856
 33
0.0
  0
SOLID
  5
180
330
17C
100
AcDbEntity
  8
VERMASSUNG
100
AcDbTrace
 10
64.8745518465
 20
84.6969609856
 30
0.0
 11
65.3245518465
 21
87.6969609856
 31
0.0
 12
64.4245518465
 22
87.6969609856
 32
0.0
 13
64.4245518465
 23
87.6969609856
 33
0.0
  0
LINE
  5
181
330
17C
100
AcDbEntity
  8
VERMASSUNG
100
AcDbLine
 10
103.397169375
 20
147.6969609856
 30
0.0
 11
63.8745518465
 21
147.6969609856
 31
0.0
  0
LINE
  5
182
330
17C
100
AcDbEntity
  8
VERMASSUNG
100
AcDbLine
 10
103.397169375
 20
84.6969609856
 30
0.0
 11
63.8745518465
 21
84.6969609856
 31
0.0
  0
LINE
  5
183
330
17C
100
AcDbEntity
  8
VERMASSUNG
100
AcDbLine
 10
64.8745518465
 20
147.6969609856
 30
0.0
 11
64.8745518465
 21
84.6969609856
 31
0.0
  0
MTEXT
  5
184
330
17C
100
AcDbEntity
  8
VERMASSUNG
100
AcDbMText
 10
62.0964163574
 20
108.6491950424
 30
0.0
 40
2.0
 41
0.0
 71
     1
 72
     1
  1
HSK A
  7
SLDTEXTSTYLE0
 11
-7.044195017643634E-15
 21
1.0
 31
0.0
 73
     1
 44
1.0
  0
MTEXT
  5
185
330
17C
100
AcDbEntity
  8
VERMASSUNG
100
AcDbMText
 10
62.2964163669
 20
116.4491952964
 30
0.0
 40
2.0
 41
0.0
 71
     1
 72
     1
  1
%%c
  7
SLDTEXTSTYLE0
 11
-7.044195017643634E-15
 21
1.0
 31
0.0
 73
     1
 44
1.0
  0
MTEXT
  5
186
330
17C
100
AcDbEntity
  8
VERMASSUNG
100
AcDbMText
 10
62.2964164833
 20
120.0577237531
 30
0.0
 40
2.0
 41
0.0
 71
     1
 72
     1
  1
63
  7
SLDTEXTSTYLE0
 11
-7.044195017643634E-15
 21
1.0
 31
0.0
 73
     1
 44
1.0
  0
ENDBLK
  5
17E
330
17C
100
AcDbEntity
  8
0
100
AcDbBlockEnd
  0
BLOCK
  5
189
330
188
100
AcDbEntity
  8
0
100
AcDbBlockBegin
  2
*D2
 70
     1
 10
0.0
 20
0.0
 30
0.0
  3
*D2
  1

  0
SOLID
  5
18B
330
188
100
AcDbEntity
  8
VERMASSUNG
100
AcDbTrace
 10
213.097169375
 20
158.985515174
 30
0.0
 11
210.097169375
 21
159.435515174
 31
0.0
 12
210.097169375
 22
158.535515174
 32
0.0
 13
210.097169375
 23
158.535515174
 33
0.0
  0
SOLID
  5
18C
330
188
100
AcDbEntity
  8
VERMASSUNG
100
AcDbTrace
 10
129.047169375
 20
158.985515174
 30
0.0
 11
132.047169375
 21
158.535515174
 31
0.0
 12
132.047169375
 22
159.435515174
 32
0.0
 13
132.047169375
 23
159.435515174
 33
0.0
  0
LINE
  5
18D
330
188
100
AcDbEntity
  8
VERMASSUNG
100
AcDbLine
 10
213.097169375
 20
141.3685338609
 30
0.0
 11
213.097169375
 21
159.985515174
 31
0.0
  0
LINE
  5
18E
330
188
100
AcDbEntity
  8
VERMASSUNG
100
AcDbLine
 10
129.047169375
 20
146.0434013094
 30
0.0
 11
129.047169375
 21
159.985515174
 31
0.0
  0
LINE
  5
18F
330
188
100
AcDbEntity
  8
VERMASSUNG
100
AcDbLine
 10
213.097169375
 20
158.985515174
 30
0.0
 11
129.047169375
 21
158.985515174
 31
0.0
  0
MTEXT
  5
190
330
188
100
AcDbEntity
  8
VERMASSUNG
100
AcDbMText
 10
163.8348041205
 20
161.5636505371
 30
0.0
 40
2.0
 41
0.0
 71
     1
 72
     1
  1
84.05
  7
SLDTEXTSTYLE0
 73
     1
 44
1.0
  0
ENDBLK
  5
18A
330
188
100
AcDbEntity
  8
0
100
AcDbBlockEnd
  0
BLOCK
  5
193
330
192
100
AcDbEntity
  8
0
100
AcDbBlockBegin
  2
*D3
 70
     1
 10
0.0
 20
0.0
 30
0.0
  3
*D3
  1

  0
SOLID
  5
195
330
192
100
AcDbEntity
  8
VERMASSUNG
100
AcDbTrace
 10
213.097169375
 20
164.985515174
 30
0.0
 11
210.097169375
 21
165.435515174
 31
0.0
 12
210.097169375
 22
164.535515174
 32
0.0
 13
210.097169375
 23
164.535515174
 33
0.0
  0
SOLID
  5
196
330
192
100
AcDbEntity
  8
VERMASSUNG
100
AcDbTrace
 10
103.097169375
 20
164.985515174
 30
0.0
 11
106.097169375
 21
164.535515174
 31
0.0
 12
106.097169375
 22
165.435515174
 32
0.0
 13
106.097169375
 23
165.435515174
 33
0.0
  0
LINE
  5
197
330
192
100
AcDbEntity
  8
VERMASSUNG
100
AcDbLine
 10
213.097169375
 20
141.3685338609
 30
0.0
 11
213.097169375
 21
165.985515174
 31
0.0
  0
LINE
  5
198
330
192
100
AcDbEntity
  8
VERMASSUNG
100
AcDbLine
 10
103.097169375
 20
147.3969609856
 30
0.0
 11
103.097169375
 21
165.985515174
 31
0.0
  0
LINE
  5
199
330
192
100
AcDbEntity
  8
VERMASSUNG
100
AcDbLine
 10
213.097169375
 20
164.985515174
 30
0.0
 11
103.097169375
 21
164.985515174
 31
0.0
  0
MTEXT
  5
19A
330
192
100
AcDbEntity
  8
VERMASSUNG
100
AcDbMText
 10
154.9593719927
 20
167.5636505371
 30
0.0
 40
2.0
 41
0.0
 71
     1
 72
     1
  1
110
  7
SLDTEXTSTYLE0
 73
     1
 44
1.0
  0
ENDBLK
  5
194
330
192
100
AcDbEntity
  8
0
100
AcDbBlockEnd
  0
BLOCK
  5
19D
330
19C
100
AcDbEntity
  8
0
100
AcDbBlockBegin
  2
*D4
 70
     1
 10
0.0
 20
0.0
 30
0.0
  3
*D4
  1

  0
SOLID
  5
19F
330
19C
100
AcDbEntity
  8
VERMASSUNG
100
AcDbTrace
 10
213.097169375
 20
170.985515174
 30
0.0
 11
210.097169375
 21
171.435515174
 31
0.0
 12
210.097169375
 22
170.535515174
 32
0.0
 13
210.097169375
 23
170.535515174
 33
0.0
  0
SOLID
  5
1A0
330
19C
100
AcDbEntity
  8
VERMASSUNG
100
AcDbTrace
 10
71.197169375
 20
170.985515174
 30
0.0
 11
74.197169375
 21
170.535515174
 31
0.0
 12
74.197169375
 22
171.435515174
 32
0.0
 13
74.197169375
 23
171.435515174
 33
0.0
  0
LINE
  5
1A1
330
19C
100
AcDbEntity
  8
VERMASSUNG
100
AcDbLine
 10
213.097169375
 20
141.3685338609
 30
0.0
 11
213.097169375
 21
171.985515174
 31
0.0
  0
LINE
  5
1A2
330
19C
100
AcDbEntity
  8
VERMASSUNG
100
AcDbLine
 10
71.197169375
 20
135.8876387321
 30
0.0
 11
71.197169375
 21
171.985515174
 31
0.0
  0
LINE
  5
1A3
330
19C
100
AcDbEntity
  8
VERMASSUNG
100
AcDbLine
 10
213.097169375
 20
170.985515174
 30
0.0
 11
71.197169375
 21
170.985515174
 31
0.0
  0
MTEXT
  5
1A4
330
19C
100
AcDbEntity
  8
VERMASSUNG
100
AcDbMText
 10
136.2716050483
 20
173.5636505371
 30
0.0
 40
2.0
 41
0.0
 71
     1
 72
     1
  1
141.9
  7
SLDTEXTSTYLE0
 73
     1
 44
1.0
  0
ENDBLK
  5
19E
330
19C
100
AcDbEntity
  8
0
100
AcDbBlockEnd
  0
BLOCK
  5
1A7
330
1A6
100
AcDbEntity
  8
0
100
AcDbBlockBegin
  2
*D5
 70
     1
 10
0.0
 20
0.0
 30
0.0
  3
*D5
  1

  0
SOLID
  5
1A9
330
1A6
100
AcDbEntity
  8
VERMASSUNG
100
AcDbTrace
 10
220.4622528952
 20
132.1969609856
 30
0.0
 11
220.0122528952
 21
129.1969609856
 31
0.0
 12
220.9122528952
 22
129.1969609856
 32
0.0
 13
220.9122528952
 23
129.1969609856
 33
0.0
  0
SOLID
  5
1AA
330
1A6
100
AcDbEntity
  8
VERMASSUNG
100
AcDbTrace
 10
220.4622528952
 20
100.1969609856
 30
0.0
 11
220.9122528952
 21
103.1969609856
 31
0.0
 12
220.0122528952
 22
103.1969609856
 32
0.0
 13
220.0122528952
 23
103.1969609856
 33
0.0
  0
LINE
  5
1AB
330
1A6
100
AcDbEntity
  8
VERMASSUNG
100
AcDbLine
 10
212.597169375
 20
132.1969609856
 30
0.0
 11
221.4622528952
 21
132.1969609856
 31
0.0
  0
LINE
  5
1AC
330
1A6
100
AcDbEntity
  8
VERMASSUNG
100
AcDbLine
 10
212.597169375
 20
100.1969609856
 30
0.0
 11
221.4622528952
 21
100.1969609856
 31
0.0
  0
LINE
  5
1AD
330
1A6
100
AcDbEntity
  8
VERMASSUNG
100
AcDbLine
 10
220.4622528952
 20
132.1969609856
 30
0.0
 11
220.4622528952
 21
100.1969609856
 31
0.0
  0
MTEXT
  5
1AE
330
1A6
100
AcDbEntity
  8
VERMASSUNG
100
AcDbMText
 10
217.8841174157
 20
112.3684477832
 30
0.0
 40
2.0
 41
0.0
 71
     1
 72
     1
  1
%%c
  7
SLDTEXTSTYLE0
 11
-7.044195017643634E-15
 21
1.0
 31
0.0
 73
     1
 44
1.0
  0
MTEXT
  5
1AF
330
1A6
100
AcDbEntity
  8
VERMASSUNG
100
AcDbMText
 10
217.8841175321
 20
115.9771260064
 30
0.0
 40
2.0
 41
0.0
 71
     1
 72
     1
  1
32
  7
SLDTEXTSTYLE0
 11
-7.044195017643634E-15
 21
1.0
 31
0.0
 73
     1
 44
1.0
  0
ENDBLK
  5
1A8
330
1A6
100
AcDbEntity
  8
0
100
AcDbBlockEnd
  0
BLOCK
  5
1B2
330
1B1
100
AcDbEntity
  8
0
100
AcDbBlockBegin
  2
*D6
 70
     1
 10
0.0
 20
0.0
 30
0.0
  3
*D6
  1

  0
SOLID
  5
1B4
330
1B1
100
AcDbEntity
  8
VERMASSUNG
100
AcDbTrace
 10
226.4622528952
 20
152.1969609856
 30
0.0
 11
226.0122528952
 21
149.1969609856
 31
0.0
 12
226.9122528952
 22
149.1969609856
 32
0.0
 13
226.9122528952
 23
149.1969609856
 33
0.0
  0
SOLID
  5
1B5
330
1B1
100
AcDbEntity
  8
VERMASSUNG
100
AcDbTrace
 10
226.4622528952
 20
80.1969609856
 30
0.0
 11
226.9122528952
 21
83.1969609856
 31
0.0
 12
226.0122528952
 22
83.1969609856
 32
0.0
 13
226.0122528952
 23
83.1969609856
 33
0.0
  0
LINE
  5
1B6
330
1B1
100
AcDbEntity
  8
VERMASSUNG
100
AcDbLine
 10
202.2687422502
 20
152.1969609856
 30
0.0
 11
227.4622528952
 21
152.1969609856
 31
0.0
  0
LINE
  5
1B7
330
1B1
100
AcDbEntity
  8
VERMASSUNG
100
AcDbLine
 10
202.2687422502
 20
80.1969609856
 30
0.0
 11
227.4622528952
 21
80.1969609856
 31
0.0
  0
LINE
  5
1B8
330
1B1
100
AcDbEntity
  8
VERMASSUNG
100
AcDbLine
 10
226.4622528952
 20
152.1969609856
 30
0.0
 11
226.4622528952
 21
80.1969609856
 31
0.0
  0
MTEXT
  5
1B9
330
1B1
100
AcDbEntity
  8
VERMASSUNG
100
AcDbMText
 10
223.8841174157
 20
112.3684477832
 30
0.0
 40
2.0
 41
0.0
 71
     1
 72
     1
  1
%%c
  7
SLDTEXTSTYLE0
 11
-7.044195017643634E-15
 21
1.0
 31
0.0
 73
     1
 44
1.0
  0
MTEXT
  5
1BA
330
1B1
100
AcDbEntity
  8
VERMASSUNG
100
AcDbMText
 10
223.8841175321
 20
115.9771260064
 30
0.0
 40
2.0
 41
0.0
 71
     1
 72
     1
  1
72
  7
SLDTEXTSTYLE0
 11
-7.044195017643634E-15
 21
1.0
 31
0.0
 73
     1
 44
1.0
  0
ENDBLK
  5
1B3
330
1B1
100
AcDbEntity
  8
0
100
AcDbBlockEnd
  0
ENDSEC
  0
SECTION
  2
ENTITIES
  0
MTEXT
  5
45
330
1F
100
AcDbEntity
  8
KOPF_DÜNN
100
AcDbMText
 10
13.8892156294
 20
23.8442973028
 30
0.0
 40
3.0
 41
0.0
 71
     1
 72
     1
  1
HA6.W32.K01.110
  7
SLDTEXTSTYLE0
 73
     1
 44
1.0
  0
MTEXT
  5
46
330
1F
100
AcDbEntity
  8
VERMASSUNG
100
AcDbMText
 10
13.9329988022
 20
28.8834360957
 30
0.0
 40
3.0
 41
0.0
 71
     1
 72
     1
  1
Flächenspannfutter_End mill adapter Weldon ø32
  7
SLDTEXTSTYLE0
 73
     1
 44
1.0
  0
MTEXT
  5
47
330
1F
100
AcDbEntity
  8
VERMASSUNG
100
AcDbMText
 10
98.8601118557
 20
13.8365368179
 30
0.0
 40
2.0
 41
0.0
 71
     1
 72
     1
  1
Datum: 25.04.2006
  7
SLDTEXTSTYLE0
 73
     1
 44
1.0
  0
MTEXT
  5
49
330
1F
100
AcDbEntity
  8
VERMASSUNG
100
AcDbMText
 10
13.933048693
 20
18.0482802738
 30
0.0
 40
2.0
 41
0.0
 71
     1
 72
     1
  1
DIN 69 893 HSK A 63
  7
SLDTEXTSTYLE1
 73
     1
 44
1.0
  0
MTEXT
  5
4A
330
1F
100
AcDbEntity
  8
VERMASSUNG
100
AcDbMText
 10
13.9808475933
 20
13.9090973692
 30
0.0
 40
2.0
 41
0.0
 71
     1
 72
     1
  1
Gewicht: 2549g
  7
SLDTEXTSTYLE0
 73
     1
 44
1.0
  0
LINE
  5
4B
330
1F
100
AcDbEntity
  8
0
  6
Continuous
 62
     7
370
    15
100
AcDbLine
 10
146.097169375
 20
80.1969609856
 30
0.0
 11
202.2687422502
 21
80.1969609856
 31
0.0
  0
LINE
  5
4C
330
1F
100
AcDbEntity
  8
0
  6
Continuous
 62
     7
370
    15
100
AcDbLine
 10
202.2687422502
 20
152.1969609856
 30
0.0
 11
146.097169375
 21
152.1969609856
 31
0.0
  0
ARC
  5
4D
330
1F
100
AcDbEntity
  8
0
  6
Continuous
 62
     7
370
    15
100
AcDbCircle
 10
202.2687422502
 20
82.1969609856
 30
0.0
 40
2.000000000000036
100
AcDbArc
 50
270.0
 51
315.0
  0
ARC
  5
4E
330
1F
100
AcDbEntity
  8
0
  6
Continuous
 62
     7
370
    15
100
AcDbCircle
 10
202.2687422502
 20
150.1969609856
 30
0.0
 40
2.000000000000036
100
AcDbArc
 50
45.0
 51
90.0
  0
ARC
  5
4F
330
1F
100
AcDbEntity
  8
0
  6
Continuous
 62
     7
370
    15
100
AcDbCircle
 10
146.097169375
 20
81.1969609856
 30
0.0
 40
1.000000000000014
100
AcDbArc
 50
180.0
 51
270.0
  0
ARC
  5
50
330
1F
100
AcDbEntity
  8
0
  6
Continuous
 62
     7
370
    15
100
AcDbCircle
 10
146.097169375
 20
151.1969609856
 30
0.0
 40
1.000000000000028
100
AcDbArc
 50
90.0
 51
180.0
  0
LINE
  5
51
330
1F
100
AcDbEntity
  8
0
  6
Continuous
 62
     7
370
    15
100
AcDbLine
 10
203.6829558126
 20
80.7827474233
 30
0.0
 11
212.5113829373
 21
89.611174548
 31
0.0
  0
LINE
  5
52
330
1F
100
AcDbEntity
  8
0
  6
Continuous
 62
     7
370
    15
100
AcDbLine
 10
212.5113829373
 20
142.7827474233
 30
0.0
 11
203.6829558126
 21
151.611174548
 31
0.0
  0
ARC
  5
53
330
1F
100
AcDbEntity
  8
0
  6
Continuous
 62
     7
370
    15
100
AcDbCircle
 10
103.397169375
 20
84.9969609856
 30
0.0
 40
0.3000000000000114
100
AcDbArc
 50
180.0
 51
270.0
  0
ARC
  5
54
330
1F
100
AcDbEntity
  8
0
  6
Continuous
 62
     7
370
    15
100
AcDbCircle
 10
103.397169375
 20
147.3969609856
 30
0.0
 40
0.3000000000000398
100
AcDbArc
 50
90.0
 51
180.0
  0
LINE
  5
55
330
1F
100
AcDbEntity
  8
0
  6
Continuous
 62
     7
370
    15
100
AcDbLine
 10
103.397169375
 20
84.6969609856
 30
0.0
 11
108.047169375
 21
84.6969609856
 31
0.0
  0
LINE
  5
56
330
1F
100
AcDbEntity
  8
0
  6
Continuous
 62
     7
370
    15
100
AcDbLine
 10
108.0751577341
 20
147.6969609856
 30
0.0
 11
103.397169375
 21
147.6969609856
 31
0.0
  0
ARC
  5
57
330
1F
100
AcDbEntity
  8
0
  6
Continuous
 62
     7
370
    15
100
AcDbCircle
 10
144.097169375
 20
89.1969609856
 30
0.0
 40
1.0
100
AcDbArc
 50
0.0
 51
90.0
  0
ARC
  5
58
330
1F
100
AcDbEntity
  8
0
  6
Continuous
 62
     7
370
    15
100
AcDbCircle
 10
144.097169375
 20
143.1969609856
 30
0.0
 40
1.0
100
AcDbArc
 50
270.0
 51
0.0
  0
ARC
  5
59
330
1F
100
AcDbEntity
  8
0
  6
Continuous
 62
     7
370
    15
100
AcDbCircle
 10
130.047169375
 20
89.1969609856
 30
0.0
 40
1.0
100
AcDbArc
 50
90.0
 51
143.1139143113
  0
ARC
  5
5A
330
1F
100
AcDbEntity
  8
0
  6
Continuous
 62
     7
370
    15
100
AcDbCircle
 10
130.047169375
 20
143.1969609856
 30
0.0
 40
1.000000000000001
100
AcDbArc
 50
216.9063257895
 51
270.0
  0
ARC
  5
5B
330
1F
100
AcDbEntity
  8
0
  6
Continuous
 62
     7
370
    15
100
AcDbCircle
 10
211.097169375
 20
91.0253881104
 30
0.0
 40
2.000000000000016
100
AcDbArc
 50
315.0
 51
0.0
  0
ARC
  5
5C
330
1F
100
AcDbEntity
  8
0
  6
Continuous
 62
     7
370
    15
100
AcDbCircle
 10
211.097169375
 20
141.3685338609
 30
0.0
 40
2.0
100
AcDbArc
 50
0.0
 51
45.0
  0
LINE
  5
5D
330
1F
100
AcDbEntity
  8
0
  6
Continuous
 62
     7
370
    15
100
AcDbLine
 10
130.047169375
 20
90.1969609856
 30
0.0
 11
144.097169375
 21
90.1969609856
 31
0.0
  0
LINE
  5
5E
330
1F
100
AcDbEntity
  8
0
  6
Continuous
 62
     7
370
    15
100
AcDbLine
 10
144.097169375
 20
142.1969609856
 30
0.0
 11
130.047169375
 21
142.1969609856
 31
0.0
  0
ARC
  5
5F
330
1F
100
AcDbEntity
  8
0
  6
Continuous
 62
     7
370
    15
100
AcDbCircle
 10
102.5971626223
 20
91.6265233712
 30
0.0
 40
0.6000067526677321
100
AcDbArc
 50
33.5571153394
 51
90.0
  0
ARC
  5
60
330
1F
100
AcDbEntity
  8
0
  6
Continuous
 62
     7
370
    15
100
AcDbCircle
 10
102.5971626223
 20
140.7673986
 30
0.0
 40
0.6000067526677164
100
AcDbArc
 50
270.0
 51
326.4428846606
  0
LINE
  5
61
330
1F
100
AcDbEntity
  8
0
  6
Continuous
 62
     7
370
    15
100
AcDbLine
 10
89.8667471925
 20
139.8547454454
 30
0.0
 11
77.297169375
 21
139.2250070778
 31
0.0
  0
LINE
  5
62
330
1F
100
AcDbEntity
  8
0
  6
Continuous
 62
     7
370
    15
100
AcDbLine
 10
101.097169375
 20
140.4173918473
 30
0.0
 11
98.2785600175
 21
140.2761789537
 31
0.0
  0
LINE
  5
63
330
1F
100
AcDbEntity
  8
0
  6
Continuous
 62
     7
370
    15
100
AcDbLine
 10
98.2787814926
 20
92.1177319216
 30
0.0
 11
101.097169375
 21
91.9765301239
 31
0.0
  0
LINE
  5
64
330
1F
100
AcDbEntity
  8
0
  6
Continuous
 62
     7
370
    15
100
AcDbLine
 10
81.297169375
 20
92.9685140918
 30
0.0
 11
89.8674461442
 21
92.5391415082
 31
0.0
  0
LINE
  5
65
330
1F
100
AcDbEntity
  8
0
  6
Continuous
 62
     7
370
    15
100
AcDbLine
 10
101.097169375
 20
91.9765301239
 30
0.0
 11
101.9538821484
 21
92.2060856197
 31
0.0
  0
LINE
  5
66
330
1F
100
AcDbEntity
  8
0
  6
Continuous
 62
     7
370
    15
100
AcDbLine
 10
101.9538821484
 20
140.1878363516
 30
0.0
 11
101.097169375
 21
140.4173918473
 31
0.0
  0
ARC
  5
67
330
1F
100
AcDbEntity
  8
0
  6
Continuous
 62
     7
370
    15
100
AcDbCircle
 10
102.1091735754
 20
91.6265301239
 30
0.0
 40
0.6000000000000085
100
AcDbArc
 50
90.0
 51
105.0
  0
ARC
  5
68
330
1F
100
AcDbEntity
  8
0
  6
Continuous
 62
     7
370
    15
100
AcDbCircle
 10
102.1091735754
 20
140.7673918473
 30
0.0
 40
0.5999999999999934
100
AcDbArc
 50
255.0
 51
270.0
  0
LINE
  5
69
330
1F
100
AcDbEntity
  8
0
  6
Continuous
 62
     7
370
    15
100
AcDbLine
 10
102.1091735754
 20
92.2265301239
 30
0.0
 11
102.5971626223
 21
92.2265301239
 31
0.0
  0
LINE
  5
6A
330
1F
100
AcDbEntity
  8
0
  6
Continuous
 62
     7
370
    15
100
AcDbLine
 10
102.5971626223
 20
140.1673918473
 30
0.0
 11
102.1091735754
 21
140.1673918473
 31
0.0
  0
LINE
  5
6B
330
1F
100
AcDbEntity
  8
0
  6
Continuous
 62
     7
370
    15
100
AcDbLine
 10
72.480506015
 20
95.3269609856
 30
0.0
 11
79.897169375
 21
95.3269609856
 31
0.0
  0
ARC
  5
6C
330
1F
100
AcDbEntity
  8
0
  6
Continuous
 62
     7
370
    15
100
AcDbCircle
 10
79.897169375
 20
93.9269609856
 30
0.0
 40
1.399999999999997
100
AcDbArc
 50
42.2465410162
 51
90.0
  0
LINE
  5
6D
330
1F
100
AcDbEntity
  8
0
  6
Continuous
 62
     7
370
    15
100
AcDbLine
 10
71.1982018691
 20
96.4759284915
 30
0.0
 11
72.3383328331
 21
95.3357975274
 31
0.0
  0
LINE
  5
6E
330
1F
100
AcDbEntity
  8
0
  6
Continuous
 62
     7
370
    15
100
AcDbLine
 10
72.3383328331
 20
137.0581244438
 30
0.0
 11
71.2070701483
 21
135.926861759
 31
0.0
  0
ARC
  5
6F
330
1F
100
AcDbEntity
  8
0
  6
Continuous
 62
     7
370
    15
100
AcDbCircle
 10
75.897169375
 20
138.4669609856
 30
0.0
 40
1.40000000000004
100
AcDbArc
 50
270.0
 51
301.7485287426
  0
LINE
  5
70
330
1F
100
AcDbEntity
  8
0
  6
Continuous
 62
     7
370
    15
100
AcDbLine
 10
75.897169375
 20
137.0669609856
 30
0.0
 11
72.4714351089
 21
137.0669609856
 31
0.0
  0
SPLINE
  5
71
330
1F
100
AcDbEntity
  8
0
  6
Continuous
 62
     7
370
    15
100
AcDbSpline
210
0.0
220
0.0
230
1.0
 70
    24
 71
     3
 72
    12
 73
     8
 74
     0
 42
0.00000001
 43
0.00000001
 40
0.0
 40
0.0
 40
0.0
 40
0.0
 40
0.216187902230169
 40
0.4397674032120185
 40
0.5934227156934556
 40
0.7522132509270725
 40
1.0
 40
1.0
 40
1.0
 40
1.0
 10
163.7996268556352
 20
121.5338621819379
 30
0.0
 10
163.4077598465174
 20
121.4817513050525
 30
0.0
 10
162.6106276516699
 20
121.3757478480106
 30
0.0
 10
161.438707321342
 20
121.2199046802206
 30
0.0
 10
160.3672645913736
 20
121.0774231268055
 30
0.0
 10
159.2668434554535
 20
120.9310879952382
 30
0.0
 10
158.5272488201035
 20
120.8327359418856
 30
0.0
 10
158.0765061018089
 20
120.7727957127937
 30
0.0
  0
SPLINE
  5
72
330
1F
100
AcDbEntity
  8
0
  6
Continuous
 62
     7
370
    15
100
AcDbSpline
210
0.0
220
0.0
230
1.0
 70
    24
 71
     3
 72
    13
 73
     9
 74
     0
 42
0.00000001
 43
0.00000001
 40
0.0
 40
0.0
 40
0.0
 40
0.0
 40
0.1129015996049093
 40
0.293402252934685
 40
0.4734060012156645
 40
0.6437135255192751
 40
0.8143673562173207
 40
1.0
 40
1.0
 40
1.0
 40
1.0
 10
155.8740486211432
 20
115.435894516482
 30
0.0
 10
155.9521370125889
 20
115.6251149819772
 30
0.0
 10
156.1550686810365
 20
116.1168503610322
 30
0.0
 10
156.5009426161976
 20
116.9549573549416
 30
0.0
 10
156.9061176659995
 20
117.9367602850712
 30
0.0
 10
157.306723308072
 20
118.9074908209359
 30
0.0
 10
157.69938296145
 20
119.858966975301
 30
0.0
 10
157.9473237880334
 20
120.4597666300609
 30
0.0
 10
158.0765061018089
 20
120.7727957127937
 30
0.0
  0
SPLINE
  5
73
330
1F
100
AcDbEntity
  8
0
  6
Continuous
 62
     7
370
    15
100
AcDbSpline
210
0.0
220
0.0
230
1.0
 70
    24
 71
     3
 72
    12
 73
     8
 74
     0
 42
0.00000001
 43
0.00000001
 40
0.0
 40
0.0
 40
0.0
 40
0.0
 40
0.2161879022301701
 40
0.4397674032120246
 40
0.5934227156934605
 40
0.7522132509270799
 40
1.0
 40
1.0
 40
1.0
 40
1.0
 10
159.3947118943038
 20
110.8600597893146
 30
0.0
 10
159.1536490465486
 20
111.1733711356729
 30
0.0
 10
158.6632812624376
 20
111.8107061380644
 30
0.0
 10
157.9423569549613
 20
112.7476973314448
 30
0.0
 10
157.2832429451489
 20
113.6043531775901
 30
0.0
 10
156.6063024357853
 20
114.4841782703743
 30
0.0
 10
156.1513297413927
 20
115.0755099864139
 30
0.0
 10
155.8740486211432
 20
115.435894516482
 30
0.0
  0
SPLINE
  5
74
330
1F
100
AcDbEntity
  8
0
  6
Continuous
 62
     7
370
    15
100
AcDbSpline
210
0.0
220
0.0
230
1.0
 70
    24
 71
     3
 72
    12
 73
     8
 74
     0
 42
0.00000001
 43
0.00000001
 40
0.0
 40
0.0
 40
0.0
 40
0.0
 40
0.2161879022301669
 40
0.4397674032120224
 40
0.593422715693458
 40
0.7522132509270784
 40
1.0
 40
1.0
 40
1.0
 40
1.0
 10
159.3947118943038
 20
110.8600597893146
 30
0.0
 10
159.7865789034217
 20
110.9121706662001
 30
0.0
 10
160.5837110982691
 20
111.0181741232421
 30
0.0
 10
161.7556314285971
 20
111.1740172910319
 30
0.0
 10
162.8270741585655
 20
111.3164988444472
 30
0.0
 10
163.9274952944855
 20
111.4628339760143
 30
0.0
 10
164.6670899298356
 20
111.561186029367
 30
0.0
 10
165.1178326481301
 20
111.6211262584589
 30
0.0
  0
SPLINE
  5
75
330
1F
100
AcDbEntity
  8
0
  6
Continuous
 62
     7
370
    15
100
AcDbSpline
210
0.0
220
0.0
230
1.0
 70
    24
 71
     3
 72
    13
 73
     9
 74
     0
 42
0.00000001
 43
0.00000001
 40
0.0
 40
0.0
 40
0.0
 40
0.0
 40
0.1129015996049109
 40
0.2934022529346881
 40
0.4734060012156678
 40
0.6437135255192817
 40
0.8143673562173301
 40
1.0
 40
1.0
 40
1.0
 40
1.0
 10
165.1178326481301
 20
111.6211262584589
 30
0.0
 10
165.1959210395759
 20
111.8103467239541
 30
0.0
 10
165.3988527080236
 20
112.3020821030091
 30
0.0
 10
165.7447266431846
 20
113.1401890969184
 30
0.0
 10
166.1499016929865
 20
114.121992027048
 30
0.0
 10
166.550507335059
 20
115.0927225629127
 30
0.0
 10
166.943166988437
 20
116.0441987172778
 30
0.0
 10
167.1911078150203
 20
116.6449983720377
 30
0.0
 10
167.3202901287958
 20
116.9580274547705
 30
0.0
  0
SPLINE
  5
76
330
1F
100
AcDbEntity
  8
0
  6
Continuous
 62
     7
370
    15
100
AcDbSpline
210
0.0
220
0.0
230
1.0
 70
    24
 71
     3
 72
    12
 73
     8
 74
     0
 42
0.00000001
 43
0.00000001
 40
0.0
 40
0.0
 40
0.0
 40
0.0
 40
0.2161879022301677
 40
0.4397674032120166
 40
0.5934227156934556
 40
0.7522132509270719
 40
0.9999999999999999
 40
0.9999999999999999
 40
0.9999999999999999
 40
0.9999999999999999
 10
163.7996268556352
 20
121.5338621819379
 30
0.0
 10
164.0406897033905
 20
121.2205508355796
 30
0.0
 10
164.5310574875016
 20
120.5832158331882
 30
0.0
 10
165.2519817949777
 20
119.6462246398078
 30
0.0
 10
165.9110958047902
 20
118.7895687936626
 30
0.0
 10
166.5880363141535
 20
117.909743700878
 30
0.0
 10
167.0430090085463
 20
117.3184119848385
 30
0.0
 10
167.3202901287958
 20
116.9580274547705
 30
0.0
  0
CIRCLE
  5
77
330
1F
100
AcDbEntity
  8
0
  6
Continuous
 62
     7
370
    15
100
AcDbCircle
 10
161.597169375
 20
116.1969609856
 30
0.0
 40
6.499999999999994
  0
ARC
  5
78
330
1F
100
AcDbEntity
  8
0
  6
Continuous
 62
     7
370
    15
100
AcDbCircle
 10
161.597169375
 20
116.1969609856
 30
0.0
 40
9.000000000000009
100
AcDbArc
 50
67.5748093136
 51
115.607750976
  0
ARC
  5
79
330
1F
100
AcDbEntity
  8
0
  6
Continuous
 62
     7
370
    15
100
AcDbCircle
 10
161.597169375
 20
116.1969609856
 30
0.0
 40
9.00000000000001
100
AcDbArc
 50
244.0094008516
 51
295.9892763098
  0
LINE
  5
7A
330
1F
100
AcDbEntity
  8
0
  6
Continuous
 62
     7
370
    15
100
AcDbLine
 10
165.4842218647
 20
124.3142772257
 30
0.0
 11
165.0304608072
 21
124.5163666099
 31
0.0
  0
ARC
  5
7B
330
1F
100
AcDbEntity
  8
0
  6
Continuous
 62
     7
370
    15
100
AcDbCircle
 10
161.597169375
 20
116.1969609856
 30
0.0
 40
5.000000000000118
100
AcDbArc
 50
157.5748093136
 51
217.5748093136
  0
ARC
  5
7C
330
1F
100
AcDbEntity
  8
0
  6
Continuous
 62
     7
370
    15
100
AcDbCircle
 10
161.597169375
 20
116.1969609856
 30
0.0
 40
5.000000000000045
100
AcDbArc
 50
37.5748093136
 51
97.5748093136
  0
ARC
  5
7D
330
1F
100
AcDbEntity
  8
0
  6
Continuous
 62
     7
370
    15
100
AcDbCircle
 10
161.597169375
 20
116.1969609856
 30
0.0
 40
4.999999999999918
100
AcDbArc
 50
337.5748093136
 51
37.5748093136
  0
ARC
  5
7E
330
1F
100
AcDbEntity
  8
0
  6
Continuous
 62
     7
370
    15
100
AcDbCircle
 10
161.597169375
 20
116.1969609856
 30
0.0
 40
4.999999999999963
100
AcDbArc
 50
277.5748093136
 51
337.5748093136
  0
ARC
  5
7F
330
1F
100
AcDbEntity
  8
0
  6
Continuous
 62
     7
370
    15
100
AcDbCircle
 10
161.597169375
 20
116.1969609856
 30
0.0
 40
5.000000000000118
100
AcDbArc
 50
217.5748093136
 51
277.5748093136
  0
ARC
  5
80
330
1F
100
AcDbEntity
  8
0
  6
Continuous
 62
     7
370
    15
100
AcDbCircle
 10
161.597169375
 20
116.1969609856
 30
0.0
 40
5.000000000000091
100
AcDbArc
 50
97.5748093136
 51
157.5748093136
  0
CIRCLE
  5
81
330
1F
100
AcDbEntity
  8
0
  6
Continuous
 62
     7
370
    15
100
AcDbCircle
 10
189.597169375
 20
116.1969609856
 30
0.0
 40
6.500000000000016
  0
ARC
  5
82
330
1F
100
AcDbEntity
  8
0
  6
Continuous
 62
     7
370
    15
100
AcDbCircle
 10
189.597169375
 20
116.1969609856
 30
0.0
 40
9.000000000000012
100
AcDbArc
 50
67.5748093136
 51
115.607750976
  0
ARC
  5
83
330
1F
100
AcDbEntity
  8
0
  6
Continuous
 62
     7
370
    15
100
AcDbCircle
 10
189.597169375
 20
116.1969609856
 30
0.0
 40
9.00000000000103
100
AcDbArc
 50
244.0094008516
 51
295.9892763097
  0
LINE
  5
84
330
1F
100
AcDbEntity
  8
0
  6
Continuous
 62
     7
370
    15
100
AcDbLine
 10
193.4842218647
 20
124.3142772257
 30
0.0
 11
193.0304608072
 21
124.5163666099
 31
0.0
  0
SPLINE
  5
85
330
1F
100
AcDbEntity
  8
0
  6
Continuous
 62
     7
370
    15
100
AcDbSpline
210
0.0
220
0.0
230
1.0
 70
    24
 71
     3
 72
    12
 73
     8
 74
     0
 42
0.00000001
 43
0.00000001
 40
0.0
 40
0.0
 40
0.0
 40
0.0
 40
0.2161879022301681
 40
0.4397674032120178
 40
0.5934227156934563
 40
0.7522132509270723
 40
1.0
 40
1.0
 40
1.0
 40
1.0
 10
191.7996268556352
 20
121.5338621819379
 30
0.0
 10
191.4077598465174
 20
121.4817513050525
 30
0.0
 10
190.6106276516699
 20
121.3757478480106
 30
0.0
 10
189.438707321342
 20
121.2199046802206
 30
0.0
 10
188.3672645913736
 20
121.0774231268055
 30
0.0
 10
187.2668434554535
 20
120.9310879952382
 30
0.0
 10
186.5272488201035
 20
120.8327359418856
 30
0.0
 10
186.0765061018089
 20
120.7727957127937
 30
0.0
  0
SPLINE
  5
86
330
1F
100
AcDbEntity
  8
0
  6
Continuous
 62
     7
370
    15
100
AcDbSpline
210
0.0
220
0.0
230
1.0
 70
    24
 71
     3
 72
    13
 73
     9
 74
     0
 42
0.00000001
 43
0.00000001
 40
0.0
 40
0.0
 40
0.0
 40
0.0
 40
0.1129015996049096
 40
0.2934022529346848
 40
0.4734060012156642
 40
0.6437135255192755
 40
0.8143673562173207
 40
0.9999999999999999
 40
0.9999999999999999
 40
0.9999999999999999
 40
0.9999999999999999
 10
183.8740486211432
 20
115.435894516482
 30
0.0
 10
183.9521370125889
 20
115.6251149819772
 30
0.0
 10
184.1550686810366
 20
116.1168503610322
 30
0.0
 10
184.5009426161976
 20
116.9549573549416
 30
0.0
 10
184.9061176659995
 20
117.9367602850712
 30
0.0
 10
185.306723308072
 20
118.9074908209359
 30
0.0
 10
185.69938296145
 20
119.858966975301
 30
0.0
 10
185.9473237880334
 20
120.4597666300609
 30
0.0
 10
186.0765061018089
 20
120.7727957127937
 30
0.0
  0
SPLINE
  5
87
330
1F
100
AcDbEntity
  8
0
  6
Continuous
 62
     7
370
    15
100
AcDbSpline
210
0.0
220
0.0
230
1.0
 70
    24
 71
     3
 72
    12
 73
     8
 74
     0
 42
0.00000001
 43
0.00000001
 40
0.0
 40
0.0
 40
0.0
 40
0.0
 40
0.2161879022301694
 40
0.4397674032120239
 40
0.5934227156934598
 40
0.7522132509270791
 40
1.0
 40
1.0
 40
1.0
 40
1.0
 10
187.3947118943038
 20
110.8600597893146
 30
0.0
 10
187.1536490465486
 20
111.1733711356729
 30
0.0
 10
186.6632812624376
 20
111.8107061380644
 30
0.0
 10
185.9423569549613
 20
112.7476973314448
 30
0.0
 10
185.2832429451489
 20
113.6043531775901
 30
0.0
 10
184.6063024357853
 20
114.4841782703743
 30
0.0
 10
184.1513297413927
 20
115.0755099864139
 30
0.0
 10
183.8740486211432
 20
115.435894516482
 30
0.0
  0
SPLINE
  5
88
330
1F
100
AcDbEntity
  8
0
  6
Continuous
 62
     7
370
    15
100
AcDbSpline
210
0.0
220
0.0
230
1.0
 70
    24
 71
     3
 72
    12
 73
     8
 74
     0
 42
0.00000001
 43
0.00000001
 40
0.0
 40
0.0
 40
0.0
 40
0.0
 40
0.2161879022301675
 40
0.4397674032120225
 40
0.5934227156934576
 40
0.7522132509270788
 40
0.9999999999999999
 40
0.9999999999999999
 40
0.9999999999999999
 40
0.9999999999999999
 10
187.3947118943038
 20
110.8600597893146
 30
0.0
 10
187.7865789034217
 20
110.9121706662001
 30
0.0
 10
188.5837110982691
 20
111.0181741232421
 30
0.0
 10
189.755631428597
 20
111.1740172910319
 30
0.0
 10
190.8270741585655
 20
111.3164988444472
 30
0.0
 10
191.9274952944855
 20
111.4628339760143
 30
0.0
 10
192.6670899298355
 20
111.561186029367
 30
0.0
 10
193.1178326481301
 20
111.6211262584589
 30
0.0
  0
SPLINE
  5
89
330
1F
100
AcDbEntity
  8
0
  6
Continuous
 62
     7
370
    15
100
AcDbSpline
210
0.0
220
0.0
230
1.0
 70
    24
 71
     3
 72
    13
 73
     9
 74
     0
 42
0.00000001
 43
0.00000001
 40
0.0
 40
0.0
 40
0.0
 40
0.0
 40
0.1129015996049105
 40
0.2934022529346877
 40
0.4734060012156675
 40
0.6437135255192815
 40
0.8143673562173301
 40
1.0
 40
1.0
 40
1.0
 40
1.0
 10
193.1178326481301
 20
111.6211262584589
 30
0.0
 10
193.1959210395759
 20
111.8103467239541
 30
0.0
 10
193.3988527080235
 20
112.3020821030091
 30
0.0
 10
193.7447266431846
 20
113.1401890969184
 30
0.0
 10
194.1499016929865
 20
114.121992027048
 30
0.0
 10
194.550507335059
 20
115.0927225629127
 30
0.0
 10
194.943166988437
 20
116.0441987172778
 30
0.0
 10
195.1911078150204
 20
116.6449983720377
 30
0.0
 10
195.3202901287958
 20
116.9580274547705
 30
0.0
  0
SPLINE
  5
8A
330
1F
100
AcDbEntity
  8
0
  6
Continuous
 62
     7
370
    15
100
AcDbSpline
210
0.0
220
0.0
230
1.0
 70
    24
 71
     3
 72
    12
 73
     8
 74
     0
 42
0.00000001
 43
0.00000001
 40
0.0
 40
0.0
 40
0.0
 40
0.0
 40
0.2161879022301682
 40
0.439767403212017
 40
0.593422715693456
 40
0.7522132509270723
 40
1.0
 40
1.0
 40
1.0
 40
1.0
 10
191.7996268556352
 20
121.5338621819379
 30
0.0
 10
192.0406897033905
 20
121.2205508355796
 30
0.0
 10
192.5310574875016
 20
120.5832158331882
 30
0.0
 10
193.2519817949777
 20
119.6462246398078
 30
0.0
 10
193.9110958047902
 20
118.7895687936626
 30
0.0
 10
194.5880363141535
 20
117.909743700878
 30
0.0
 10
195.0430090085463
 20
117.3184119848385
 30
0.0
 10
195.3202901287958
 20
116.9580274547705
 30
0.0
  0
ARC
  5
8B
330
1F
100
AcDbEntity
  8
0
  6
Continuous
 62
     7
370
    15
100
AcDbCircle
 10
189.597169375
 20
116.1969609856
 30
0.0
 40
5.000000000000037
100
AcDbArc
 50
37.5748093136
 51
97.5748093136
  0
ARC
  5
8C
330
1F
100
AcDbEntity
  8
0
  6
Continuous
 62
     7
370
    15
100
AcDbCircle
 10
189.597169375
 20
116.1969609856
 30
0.0
 40
4.999999999999972
100
AcDbArc
 50
337.5748093136
 51
37.5748093136
  0
ARC
  5
8D
330
1F
100
AcDbEntity
  8
0
  6
Continuous
 62
     7
370
    15
100
AcDbCircle
 10
189.597169375
 20
116.1969609856
 30
0.0
 40
4.999999999999972
100
AcDbArc
 50
277.5748093136
 51
337.5748093136
  0
ARC
  5
8E
330
1F
100
AcDbEntity
  8
0
  6
Continuous
 62
     7
370
    15
100
AcDbCircle
 10
189.597169375
 20
116.1969609856
 30
0.0
 40
5.000000000000051
100
AcDbArc
 50
217.5748093136
 51
277.5748093136
  0
ARC
  5
8F
330
1F
100
AcDbEntity
  8
0
  6
Continuous
 62
     7
370
    15
100
AcDbCircle
 10
189.597169375
 20
116.1969609856
 30
0.0
 40
5.000000000000051
100
AcDbArc
 50
157.5748093136
 51
217.5748093136
  0
ARC
  5
90
330
1F
100
AcDbEntity
  8
0
  6
Continuous
 62
     7
370
    15
100
AcDbCircle
 10
189.597169375
 20
116.1969609856
 30
0.0
 40
5.000000000000037
100
AcDbArc
 50
97.5748093136
 51
157.5748093136
  0
SPLINE
  5
91
330
1F
100
AcDbEntity
  8
0
  6
Continuous
 62
     7
370
    15
100
AcDbSpline
210
0.0
220
0.0
230
1.0
 70
     8
 71
     3
 72
    26
 73
    22
 74
     0
 42
0.00000001
 43
0.00000001
 40
0.0
 40
0.0
 40
0.0
 40
0.0
 40
0.0197300545558097
 40
0.0782365530081806
 40
0.1478632671060046
 40
0.1984787916852562
 40
0.2446081741108576
 40
0.2862553722399588
 40
0.3234262719228039
 40
0.4149149430369082
 40
0.4985885597730436
 40
0.5838961804664815
 40
0.6133763767896936
 40
0.6433730782633628
 40
0.6738948477901469
 40
0.7507658203080896
 40
0.8494522816737943
 40
0.9013660761587715
 40
0.9479612677620132
 40
0.9892404855556931
 40
1.0
 40
1.0
 40
1.0
 40
1.0
 10
165.553043950989
 20
108.1265970488698
 30
0.0
 10
165.6730000752288
 20
108.1822320529512
 30
0.0
 10
166.1486679780311
 20
108.4028442633036
 30
0.0
 10
166.9765055091376
 20
108.9507526041702
 30
0.0
 10
167.889434923751
 20
109.7226371834064
 30
0.0
 10
168.6295610007556
 20
110.5529496910949
 30
0.0
 10
169.1691084235381
 20
111.3055391629126
 30
0.0
 10
169.5878026143637
 20
112.0305811113523
 30
0.0
 10
170.0701749090491
 20
113.066083946393
 30
0.0
 10
170.4845617164213
 20
114.4445421742099
 30
0.0
 10
170.6517520735534
 20
116.2036237798184
 30
0.0
 10
170.5227079276778
 20
117.5460308012773
 30
0.0
 10
170.3052802000974
 20
118.4967126270472
 30
0.0
 10
170.1312373125366
 20
119.0768761761659
 30
0.0
 10
169.8067150496062
 20
119.9409560360257
 30
0.0
 10
169.1674478143922
 20
121.1712131764793
 30
0.0
 10
168.2096915625316
 20
122.3653419701131
 30
0.0
 10
167.2268372087062
 20
123.2433416364378
 30
0.0
 10
166.4625346702514
 20
123.7814006529565
 30
0.0
 10
165.8946115632658
 20
124.1203439803454
 30
0.0
 10
165.5770414611804
 20
124.2646211562255
 30
0.0
 10
165.5113807512913
 20
124.294451866758
 30
0.0
  0
SPLINE
  5
92
330
1F
100
AcDbEntity
  8
0
  6
Continuous
 62
     7
370
    15
100
AcDbSpline
210
0.0
220
0.0
230
1.0
 70
     8
 71
     3
 72
    28
 73
    24
 74
     0
 42
0.00000001
 43
0.00000001
 40
0.0
 40
0.0
 40
0.0
 40
0.0
 40
0.023047874306934
 40
0.0815641394667307
 40
0.1495238475196354
 40
0.2016892079037058
 40
0.2483807121925491
 40
0.2896012142165149
 40
0.3253558266321041
 40
0.4152337216219288
 40
0.4585065568188468
 40
0.5006709085947545
 40
0.5842427256215941
 40
0.6138814751017181
 40
0.6444059211798108
 40
0.6758238907219078
 40
0.7263412312511885
 40
0.784773641197229
 40
0.8511308532503449
 40
0.9044617386141536
 40
0.9515012721137555
 40
0.9922509873724987
 40
1.0
 40
1.0
 40
1.0
 40
1.0
 10
157.6743789487624
 20
124.2820860514147
 30
0.0
 10
157.5341329029459
 20
124.2170872550711
 30
0.0
 10
157.0378160674624
 20
123.987062966517
 30
0.0
 10
156.2014778404196
 20
123.4306569841094
 30
0.0
 10
155.290433057576
 20
122.6569933199337
 30
0.0
 10
154.5492599935109
 20
121.822856811757
 30
0.0
 10
154.006061852123
 20
121.0586837644639
 30
0.0
 10
153.5945948865711
 20
120.3392058180843
 30
0.0
 10
153.1241369407178
 20
119.3236314835103
 30
0.0
 10
152.7929411984967
 20
118.2263985512537
 30
0.0
 10
152.6242526526354
 20
117.0546572304252
 30
0.0
 10
152.5703652721218
 20
115.9137747368074
 30
0.0
 10
152.670299861996
 20
114.8620342069277
 30
0.0
 10
152.8835875981244
 20
113.9174027660981
 30
0.0
 10
153.0595739956929
 20
113.3264707865314
 30
0.0
 10
153.3250925972378
 20
112.6186714090911
 30
0.0
 10
153.735757162615
 20
111.7698675388123
 30
0.0
 10
154.3723664424711
 20
110.7813645571969
 30
0.0
 10
155.1515850578821
 20
109.8780553351702
 30
0.0
 10
155.9841995264365
 20
109.1361398055237
 30
0.0
 10
156.7581806835212
 20
108.5961056076805
 30
0.0
 10
157.3090795252785
 20
108.2689170801081
 30
0.0
 10
157.6050193292799
 20
108.1342707257701
 30
0.0
 10
157.6523038948372
 20
108.1127572480875
 30
0.0
  0
SPLINE
  5
93
330
1F
100
AcDbEntity
  8
0
  6
Continuous
 62
     7
370
    15
100
AcDbSpline
210
0.0
220
0.0
230
1.0
 70
     8
 71
     3
 72
    40
 73
    36
 74
     0
 42
0.00000001
 43
0.00000001
 40
-0.0930034683009698
 40
-0.062047289126425
 40
-0.0308769889452317
 40
0.0
 40
0.0308978270105651
 40
0.0620941141640994
 40
0.0930590259999307
 40
0.1244208409382786
 40
0.1555631887601949
 40
0.1870280199981479
 40
0.2186609418784763
 40
0.2499152441821532
 40
0.2814275834151755
 40
0.312894366436483
 40
0.344304976583142
 40
0.37568262832102
 40
0.4068448608800374
 40
0.4380005868644729
 40
0.4692303377185564
 40
0.4999836346789427
 40
0.5307349584145478
 40
0.562000460013036
 40
0.593172721282066
 40
0.6243426165907078
 40
0.6556953688497565
 40
0.6870849805057431
 40
0.718515413145246
 40
0.7500212931274169
 40
0.7709029107844314
 40
0.7917777813447637
 40
0.8130003910718995
 40
0.8444772917903545
 40
0.8756545195127063
 40
0.90699653169903
 40
0.9379527108735749
 40
0.9691230110547682
 40
0.9999999999999999
 40
1.030897827010565
 40
1.062094114164099
 40
1.093059025999931
 10
163.52863915063
 20
106.3718568477552
 30
0.0
 10
161.5967236691334
 20
106.1820109730784
 30
0.0
 10
159.6643437876536
 20
106.3724133666516
 30
0.0
 10
157.8151823902153
 20
106.9500124023214
 30
0.0
 10
156.1104196157397
 20
107.8726897484107
 30
0.0
 10
154.6314943024408
 20
109.1155613390251
 30
0.0
 10
153.4091579321904
 20
110.6252454643686
 30
0.0
 10
152.5070751671347
 20
112.3578300016671
 30
0.0
 10
151.9332567395644
 20
114.2360687792804
 30
0.0
 10
151.7445326816269
 20
116.1979475017448
 30
0.0
 10
151.9300731745258
 20
118.1565476126957
 30
0.0
 10
152.4983577655518
 20
120.037560289215
 30
0.0
 10
153.4061970364332
 20
121.7678460370973
 30
0.0
 10
154.6291014477743
 20
123.2764084655589
 30
0.0
 10
156.1137017874563
 20
124.5201650801869
 30
0.0
 10
157.8213200048415
 20
125.438542823133
 30
0.0
 10
159.6704020337963
 20
126.0202884093096
 30
0.0
 10
161.597978620112
 20
126.2126249956462
 30
0.0
 10
163.5262411978644
 20
126.0195817171806
 30
0.0
 10
165.3760234640255
 20
125.436655529402
 30
0.0
 10
167.0845736216798
 20
124.5174184316064
 30
0.0
 10
168.5686315956558
 20
123.2729640415215
 30
0.0
 10
169.7902221386835
 20
121.7643968167606
 30
0.0
 10
170.6967852583776
 20
120.0353165758618
 30
0.0
 10
171.2643348298812
 20
118.1556897288237
 30
0.0
 10
171.4288075230682
 20
116.4127597961124
 30
0.0
 10
171.3323730588337
 20
114.892318885172
 30
0.0
 10
171.0769573305137
 20
113.608580869897
 30
0.0
 10
170.5875784402328
 20
112.1648850882749
 30
0.0
 10
169.7839437791593
 20
110.6221452792933
 30
0.0
 10
168.5603196002012
 20
109.1130681826862
 30
0.0
 10
167.0806243082625
 20
107.8708764623343
 30
0.0
 10
165.3767190789351
 20
106.949079991703
 30
0.0
 10
163.52863915063
 20
106.3718568477552
 30
0.0
 10
161.5967236691334
 20
106.1820109730784
 30
0.0
 10
159.6643437876536
 20
106.3724133666516
 30
0.0
  0
SPLINE
  5
94
330
1F
100
AcDbEntity
  8
0
  6
Continuous
 62
     7
370
    15
100
AcDbSpline
210
0.0
220
0.0
230
1.0
 70
     8
 71
     3
 72
    40
 73
    36
 74
     0
 42
0.00000001
 43
0.00000001
 40
-0.0930034683006472
 40
-0.0620472891264121
 40
-0.0308769889449182
 40
0.0
 40
0.0308978270102511
 40
0.0620941141640861
 40
0.0930590259996082
 40
0.1244208409382782
 40
0.1555631887607875
 40
0.1870280199981694
 40
0.2186609418790638
 40
0.2499152441821526
 40
0.2814275834163291
 40
0.3128943664365264
 40
0.3443049765847714
 40
0.3756826283210375
 40
0.4068448608807276
 40
0.4380005868644833
 40
0.4692303377187965
 40
0.499983634678943
 40
0.5307349584147116
 40
0.5620004600130433
 40
0.5931727212822362
 40
0.6243426165907092
 40
0.6556953688497577
 40
0.6870849805057448
 40
0.7185154131439992
 40
0.7500212931273721
 40
0.7709029107821751
 40
0.7917777813425075
 40
0.8130003910718508
 40
0.844477291789032
 40
0.8756545195127067
 40
0.9069965316993528
 40
0.9379527108735879
 40
0.9691230110550818
 40
1.0
 40
1.030897827010251
 40
1.062094114164086
 40
1.093059025999608
 10
191.5286391506225
 20
106.3718568477604
 30
0.0
 10
189.5967236691333
 20
106.1820109730764
 30
0.0
 10
187.6643437876612
 20
106.3724133666568
 30
0.0
 10
185.8151823902274
 20
106.9500124023163
 30
0.0
 10
184.1104196157409
 20
107.8726897484015
 30
0.0
 10
182.631494302439
 20
109.1155613390308
 30
0.0
 10
181.4091579321738
 20
110.6252454643723
 30
0.0
 10
180.5070751671259
 20
112.3578300016896
 30
0.0
 10
179.9332567395717
 20
114.2360687792947
 30
0.0
 10
179.7445326816287
 20
116.1979475017798
 30
0.0
 10
179.9300731745088
 20
118.1565476127238
 30
0.0
 10
180.4983577655744
 20
120.0375602892672
 30
0.0
 10
181.4061970364627
 20
121.7678460371181
 30
0.0
 10
182.629101447805
 20
123.2764084655941
 30
0.0
 10
184.1137017874714
 20
124.5201650801909
 30
0.0
 10
185.821320004858
 20
125.4385428231418
 30
0.0
 10
187.6704020338026
 20
126.0202884093055
 30
0.0
 10
189.59797862012
 20
126.2126249956466
 30
0.0
 10
191.5262411978684
 20
126.0195817171828
 30
0.0
 10
193.3760234640317
 20
125.4366555293995
 30
0.0
 10
195.0845736216807
 20
124.5174184316018
 30
0.0
 10
196.5686315956589
 20
123.2729640415196
 30
0.0
 10
197.7902221386817
 20
121.76439681676
 30
0.0
 10
198.6967852583718
 20
120.0353165758865
 30
0.0
 10
199.2643348298527
 20
118.1556897288444
 30
0.0
 10
199.4288075230624
 20
116.4127597961846
 30
0.0
 10
199.3323730588592
 20
114.8923188852619
 30
0.0
 10
199.0769573305216
 20
113.6085808699902
 30
0.0
 10
198.5875784402666
 20
112.1648850883403
 30
0.0
 10
197.7839437791954
 20
110.622145279302
 30
0.0
 10
196.5603196002116
 20
109.1130681827037
 30
0.0
 10
195.0806243082621
 20
107.8708764623245
 30
0.0
 10
193.3767190789227
 20
106.9490799916981
 30
0.0
 10
191.5286391506225
 20
106.3718568477604
 30
0.0
 10
189.5967236691333
 20
106.1820109730764
 30
0.0
 10
187.6643437876612
 20
106.3724133666568
 30
0.0
  0
SPLINE
  5
95
330
1F
100
AcDbEntity
  8
0
  6
Continuous
 62
     7
370
    15
100
AcDbSpline
210
0.0
220
0.0
230
1.0
 70
     8
 71
     3
 72
    26
 73
    22
 74
     0
 42
0.00000001
 43
0.00000001
 40
0.0
 40
0.0
 40
0.0
 40
0.0
 40
0.0197300545555481
 40
0.0782365530079146
 40
0.1478632671061035
 40
0.1984787916788126
 40
0.2446081741022304
 40
0.2862553722335077
 40
0.3234262719228865
 40
0.4149149430310533
 40
0.4985885597731344
 40
0.5838961804665632
 40
0.6133763767897731
 40
0.6433730782634403
 40
0.6738948477902226
 40
0.7507658203104433
 40
0.8494522816738618
 40
0.9013660761570569
 40
0.9479612677597017
 40
0.9892404855539717
 40
1.0
 40
1.0
 40
1.0
 40
1.0
 10
193.553043950987
 20
108.1265970488686
 30
0.0
 10
193.6730000752252
 20
108.1822320529493
 30
0.0
 10
194.148667978026
 20
108.4028442633007
 30
0.0
 10
194.9765055091335
 20
108.950752604167
 30
0.0
 10
195.889434923716
 20
109.7226371833763
 30
0.0
 10
196.6295610006893
 20
110.5529496910172
 30
0.0
 10
197.1691084234591
 20
111.3055391627903
 30
0.0
 10
197.587802614319
 20
112.0305811112609
 30
0.0
 10
198.0701749090194
 20
113.0660839463143
 30
0.0
 10
198.4845617164131
 20
114.4445421741685
 30
0.0
 10
198.6517520735574
 20
116.2036237797784
 30
0.0
 10
198.5227079276779
 20
117.5460308012773
 30
0.0
 10
198.3052802000974
 20
118.4967126270472
 30
0.0
 10
198.1312373125366
 20
119.0768761761659
 30
0.0
 10
197.8067150496008
 20
119.9409560360401
 30
0.0
 10
197.1674478143833
 20
121.1712131764927
 30
0.0
 10
196.2096915625276
 20
122.3653419701139
 30
0.0
 10
195.2268372087275
 20
123.2433416364195
 30
0.0
 10
194.462534670285
 20
123.781400652935
 30
0.0
 10
193.894611563291
 20
124.1203439803324
 30
0.0
 10
193.5770414611915
 20
124.2646211562193
 30
0.0
 10
193.511380751292
 20
124.2944518667565
 30
0.0
  0
SPLINE
  5
96
330
1F
100
AcDbEntity
  8
0
  6
Continuous
 62
     7
370
    15
100
AcDbSpline
210
0.0
220
0.0
230
1.0
 70
     8
 71
     3
 72
    28
 73
    24
 74
     0
 42
0.00000001
 43
0.00000001
 40
0.0
 40
0.0
 40
0.0
 40
0.0
 40
0.0230478743138947
 40
0.0815641394735998
 40
0.1495238475207516
 40
0.2016892079035969
 40
0.2483807121919849
 40
0.2896012142162672
 40
0.3253558266329449
 40
0.4152337216197547
 40
0.4585065568173247
 40
0.5006709085953212
 40
0.584242725619244
 40
0.6138814750996321
 40
0.6444059211786103
 40
0.6758238907222149
 40
0.7263412312514128
 40
0.784773641197361
 40
0.8511308532503752
 40
0.9044617386131092
 40
0.9515012721123068
 40
0.992250987371316
 40
1.0
 40
1.0
 40
1.0
 40
1.0
 10
185.6743789487884
 20
124.2820860514235
 30
0.0
 10
185.5341329029294
 20
124.2170872550599
 30
0.0
 10
185.037816067404
 20
123.9870629664849
 30
0.0
 10
184.2014778403598
 20
123.4306569840624
 30
0.0
 10
183.2904330575568
 20
122.6569933199104
 30
0.0
 10
182.5492599935226
 20
121.8228568117708
 30
0.0
 10
182.0060618521369
 20
121.0586837644856
 30
0.0
 10
181.594594886579
 20
120.3392058181005
 30
0.0
 10
181.1241369407282
 20
119.3236314835351
 30
0.0
 10
180.7929411985056
 20
118.2263985512867
 30
0.0
 10
180.6242526526377
 20
117.0546572304591
 30
0.0
 10
180.5703652721213
 20
115.9137747368407
 30
0.0
 10
180.670299861992
 20
114.8620342069633
 30
0.0
 10
180.8835875981124
 20
113.9174027661425
 30
0.0
 10
181.0595739956837
 20
113.326470786557
 30
0.0
 10
181.3250925972333
 20
112.6186714091006
 30
0.0
 10
181.735757162615
 20
111.7698675388124
 30
0.0
 10
182.3723664424711
 20
110.781364557197
 30
0.0
 10
183.1515850578778
 20
109.8780553351752
 30
0.0
 10
183.9841995264248
 20
109.1361398055338
 30
0.0
 10
184.7581806835025
 20
108.5961056076923
 30
0.0
 10
185.3090795252661
 20
108.2689170801145
 30
0.0
 10
185.6050193292766
 20
108.1342707257722
 30
0.0
 10
185.6523038948413
 20
108.1127572480863
 30
0.0
  0
LINE
  5
97
330
1F
100
AcDbEntity
  8
0
  6
Continuous
 62
     7
370
    15
100
AcDbLine
 10
145.097169375
 20
81.1969609856
 30
0.0
 11
145.097169375
 21
151.1969609767
 31
0.0
  0
LINE
  5
98
330
1F
100
AcDbEntity
  8
0
  6
Continuous
 62
     7
370
    15
100
AcDbLine
 10
103.097169375
 20
84.9969609856
 30
0.0
 11
103.097169375
 21
147.3969609852
 31
0.0
  0
LINE
  5
99
330
1F
100
AcDbEntity
  8
0
  6
Continuous
 62
     7
370
    15
100
AcDbLine
 10
128.447169375
 20
86.0100432894
 30
0.0
 11
124.4891022065
 21
86.0100432894
 31
0.0
  0
LINE
  5
9A
330
1F
100
AcDbEntity
  8
0
  6
Continuous
 62
     7
370
    15
100
AcDbLine
 10
124.4891022065
 20
86.0100432894
 30
0.0
 11
124.4891022065
 21
136.0469609856
 31
0.0
  0
LINE
  5
9B
330
1F
100
AcDbEntity
  8
0
  6
Continuous
 62
     7
370
    15
100
AcDbLine
 10
124.4891022065
 20
136.0469609856
 30
0.0
 11
128.447169375
 21
136.0469609856
 31
0.0
  0
LINE
  5
9C
330
1F
100
AcDbEntity
  8
0
  6
Continuous
 62
     7
370
    15
100
AcDbLine
 10
129.047169375
 20
86.636683585
 30
0.0
 11
129.047169375
 21
136.0469609856
 31
0.0
  0
SPLINE
  5
9D
330
1F
100
AcDbEntity
  8
0
  6
Continuous
 62
     7
370
    15
100
AcDbSpline
210
0.0
220
0.0
230
1.0
 70
     8
 71
     3
 72
    10
 73
     6
 74
     0
 42
0.00000001
 43
0.00000001
 40
0.0
 40
0.0
 40
0.0
 40
0.0
 40
0.5
 40
0.5
 40
1.0
 40
1.0
 40
1.0
 40
1.0
 10
129.0471693749695
 20
86.63668358503342
 30
0.0
 10
129.0471693749695
 20
86.47679631683977
 30
0.0
 10
128.9858597237336
 20
86.31566906132517
 30
0.0
 10
128.7667600861986
 20
86.08157006297033
 30
0.0
 10
128.6087118798851
 20
86.01004328937911
 30
0.0
 10
128.4471693749695
 20
86.01004328937911
 30
0.0
  0
SPLINE
  5
9E
330
1F
100
AcDbEntity
  8
0
  6
Continuous
 62
     7
370
    15
100
AcDbSpline
210
0.0
220
0.0
230
1.0
 70
    24
 71
     3
 72
    12
 73
     8
 74
     0
 42
0.00000001
 43
0.00000001
 40
0.0
 40
0.0
 40
0.0
 40
0.0
 40
0.250000000000002
 40
0.250000000000002
 40
0.500000000000004
 40
0.500000000000004
 40
1.0
 40
1.0
 40
1.0
 40
1.0
 10
128.4471693749695
 20
136.0469609856263
 30
0.0
 10
128.5374084426566
 20
136.0469609856263
 30
0.0
 10
128.6283065567631
 20
136.0469609856263
 30
0.0
 10
128.7829035932516
 20
136.0469609856263
 30
0.0
 10
128.8478820093597
 20
136.0469609856263
 30
0.0
 10
128.9997170372959
 20
136.0469609856263
 30
0.0
 10
129.0471693749695
 20
136.0469609856263
 30
0.0
 10
129.0471693749695
 20
136.0469609856263
 30
0.0
  0
SPLINE
  5
9F
330
1F
100
AcDbEntity
  8
0
  6
Continuous
 62
     7
370
    15
100
AcDbSpline
210
0.0
220
0.0
230
1.0
 70
     8
 71
     3
 72
     8
 73
     4
 74
     0
 42
0.00000001
 43
0.00000001
 40
0.0
 40
0.0
 40
0.0
 40
0.0
 40
1.0
 40
1.0
 40
1.0
 40
1.0
 10
124.4891022064586
 20
86.01004328937911
 30
0.0
 10
123.9936225457928
 20
86.90556937731247
 30
0.0
 10
123.4995084977507
 20
87.80185379236472
 30
0.0
 10
123.0071693749695
 20
88.69912382657142
 30
0.0
  0
LINE
  5
A0
330
1F
100
AcDbEntity
  8
0
  6
Continuous
 62
     7
370
    15
100
AcDbLine
 10
123.007169375
 20
88.6991238266
 30
0.0
 11
123.007169375
 21
136.0469609856
 31
0.0
  0
SPLINE
  5
A1
330
1F
100
AcDbEntity
  8
0
  6
Continuous
 62
     7
370
    15
100
AcDbSpline
210
0.0
220
0.0
230
1.0
 70
    24
 71
     3
 72
     8
 73
     4
 74
     0
 42
0.00000001
 43
0.00000001
 40
0.0
 40
0.0
 40
0.0
 40
0.0
 40
1.0
 40
1.0
 40
1.0
 40
1.0
 10
123.0071693749695
 20
136.0469609856263
 30
0.0
 10
123.4871213693344
 20
136.0469609856263
 30
0.0
 10
123.982422098308
 20
136.0469609856263
 30
0.0
 10
124.4891022064586
 20
136.0469609856263
 30
0.0
  0
LINE
  5
A2
330
1F
100
AcDbEntity
  8
0
  6
Continuous
 62
     7
370
    15
100
AcDbLine
 10
119.187169375
 20
88.6991238266
 30
0.0
 11
119.187169375
 21
136.0469609856
 31
0.0
  0
SPLINE
  5
A3
330
1F
100
AcDbEntity
  8
0
  6
Continuous
 62
     7
370
    15
100
AcDbSpline
210
0.0
220
0.0
230
1.0
 70
     8
 71
     3
 72
     8
 73
     4
 74
     0
 42
0.00000001
 43
0.00000001
 40
0.0
 40
0.0
 40
0.0
 40
0.0
 40
1.0
 40
1.0
 40
1.0
 40
1.0
 10
119.1871693749695
 20
88.69912382657141
 30
0.0
 10
118.6948302521883
 20
87.80185379236471
 30
0.0
 10
118.2007162041462
 20
86.90556937731247
 30
0.0
 10
117.7052365434805
 20
86.01004328937911
 30
0.0
  0
LINE
  5
A4
330
1F
100
AcDbEntity
  8
0
  6
Continuous
 62
     7
370
    15
100
AcDbLine
 10
117.7052365435
 20
86.0100432894
 30
0.0
 11
117.7052365435
 21
136.0469609856
 31
0.0
  0
SPLINE
  5
A5
330
1F
100
AcDbEntity
  8
0
  6
Continuous
 62
     7
370
    15
100
AcDbSpline
210
0.0
220
0.0
230
1.0
 70
    24
 71
     3
 72
     8
 73
     4
 74
     0
 42
0.00000001
 43
0.00000001
 40
0.0
 40
0.0
 40
0.0
 40
0.0
 40
1.0
 40
1.0
 40
1.0
 40
1.0
 10
117.7052365434804
 20
136.0469609856263
 30
0.0
 10
118.211916651631
 20
136.0469609856263
 30
0.0
 10
118.7072173806046
 20
136.0469609856263
 30
0.0
 10
119.1871693749695
 20
136.0469609856263
 30
0.0
  0
LINE
  5
A6
330
1F
100
AcDbEntity
  8
0
  6
Continuous
 62
     7
370
    15
100
AcDbLine
 10
108.047169375
 20
136.0469609856
 30
0.0
 11
117.7052365435
 21
136.0469609856
 31
0.0
  0
LINE
  5
A7
330
1F
100
AcDbEntity
  8
0
  6
Continuous
 62
     7
370
    15
100
AcDbLine
 10
117.7052365435
 20
86.0100432894
 30
0.0
 11
116.047169375
 21
86.0100432894
 31
0.0
  0
SPLINE
  5
A8
330
1F
100
AcDbEntity
  8
0
  6
Continuous
 62
     7
370
    15
100
AcDbSpline
210
0.0
220
0.0
230
1.0
 70
     8
 71
     3
 72
    28
 73
    24
 74
     0
 42
0.00000001
 43
0.00000001
 40
0.0
 40
0.0
 40
0.0
 40
0.0
 40
0.1249999999999999
 40
0.1249999999999999
 40
0.1874999999999998
 40
0.1874999999999998
 40
0.2499999999999997
 40
0.2499999999999997
 40
0.3749999999999993
 40
0.3749999999999993
 40
0.4374999999999993
 40
0.4374999999999993
 40
0.4999999999999992
 40
0.4999999999999992
 40
0.6249999999999992
 40
0.6249999999999992
 40
0.7499999999999992
 40
0.7499999999999992
 40
0.8124999999999993
 40
0.8124999999999993
 40
0.8749999999999996
 40
0.8749999999999996
 40
1.0
 40
1.0
 40
1.0
 40
1.0
 10
116.0471693749695
 20
86.01004328937911
 30
0.0
 10
115.5154616174766
 20
86.01004328937911
 30
0.0
 10
114.9932230521662
 20
85.99425857542889
 30
0.0
 10
114.2233525658912
 20
85.94926316135269
 30
0.0
 10
113.9689929936999
 20
85.93070816627696
 30
0.0
 10
113.4648714130014
 20
85.88685544383047
 30
0.0
 10
113.2151485955735
 20
85.86151083687827
 30
0.0
 10
112.489558644127
 20
85.77810875912816
 30
0.0
 10
112.0311983825455
 20
85.71224319997707
 30
0.0
 10
111.3807004391516
 20
85.6032728594853
 30
0.0
 10
111.1690183883592
 20
85.56503322371864
 30
0.0
 10
110.7649468992212
 20
85.48727448629928
 30
0.0
 10
110.5724403854003
 20
85.44777352412395
 30
0.0
 10
110.022605414379
 20
85.32886578175793
 30
0.0
 10
109.6926766360702
 20
85.24904810033331
 30
0.0
 10
109.1082053675015
 20
85.09570493853725
 30
0.0
 10
108.8619282294881
 20
85.024371185268
 30
0.0
 10
108.56208543679
 20
84.93042767819338
 30
0.0
 10
108.4736285797178
 20
84.90123388483345
 30
0.0
 10
108.3202672264127
 20
84.84776731057005
 30
0.0
 10
108.2551790121865
 20
84.82340797629487
 30
0.0
 10
108.0995849962457
 20
84.75981783085012
 30
0.0
 10
108.0471693749695
 20
84.72971489576086
 30
0.0
 10
108.0471693749695
 20
84.71283800276395
 30
0.0
  0
LINE
  5
A9
330
1F
100
AcDbEntity
  8
0
  6
Continuous
 62
     7
370
    15
100
AcDbLine
 10
108.047169375
 20
84.7128380028
 30
0.0
 11
108.047169375
 21
84.6969609856
 31
0.0
  0
SPLINE
  5
AA
330
1F
100
AcDbEntity
  8
0
  6
Continuous
 62
     7
370
    15
100
AcDbSpline
210
0.0
220
0.0
230
1.0
 70
     8
 71
     3
 72
    17
 73
    13
 74
     0
 42
0.00000001
 43
0.00000001
 40
0.0
 40
0.0
 40
0.0
 40
0.0
 40
0.1034796923964057
 40
0.210023918880785
 40
0.3134862136955584
 40
0.4198361274354883
 40
0.5254127712915682
 40
0.6339610695419791
 40
0.7409508756305032
 40
0.8511696089308174
 40
0.9558996534551938
 40
0.9999999999999999
 40
0.9999999999999999
 40
0.9999999999999999
 40
0.9999999999999999
 10
116.0471693749695
 20
146.6641564587905
 30
0.0
 10
115.6119210258595
 20
146.6696046553239
 30
0.0
 10
114.7285345192945
 20
146.6806623958357
 30
0.0
 10
113.4477069340658
 20
146.7670207887372
 30
0.0
 10
112.2302903981918
 20
146.894890965275
 30
0.0
 10
111.1224845459452
 20
147.0538362638682
 30
0.0
 10
110.134245741997
 20
147.2283299515838
 30
0.0
 10
109.3095221844655
 20
147.3974958022236
 30
0.0
 10
108.6605686838062
 20
147.545379584752
 30
0.0
 10
108.2435338683445
 20
147.6471701689827
 30
0.0
 10
108.0449371553799
 20
147.6975216915859
 30
0.0
 10
108.0682498768132
 20
147.6916160073636
 30
0.0
 10
108.0751577340507
 20
147.689866077669
 30
0.0
  0
LINE
  5
AB
330
1F
100
AcDbEntity
  8
0
  6
Continuous
 62
     7
370
    15
100
AcDbLine
 10
117.7052365435
 20
146.6641564588
 30
0.0
 11
116.047169375
 21
146.6641564588
 31
0.0
  0
LINE
  5
AC
330
1F
100
AcDbEntity
  8
0
  6
Continuous
 62
     7
370
    15
100
AcDbLine
 10
117.7052365435
 20
140.655650648
 30
0.0
 11
117.7052365435
 21
146.6641564588
 31
0.0
  0
LINE
  5
AD
330
1F
100
AcDbEntity
  8
0
  6
Continuous
 62
     7
370
    15
100
AcDbLine
 10
115.2927897207
 20
140.655650648
 30
0.0
 11
117.7052365435
 21
140.655650648
 31
0.0
  0
SPLINE
  5
AE
330
1F
100
AcDbEntity
  8
0
  6
Continuous
 62
     7
370
    15
100
AcDbSpline
210
0.0
220
0.0
230
1.0
 70
     8
 71
     3
 72
    20
 73
    16
 74
     0
 42
0.00000001
 43
0.00000001
 40
0.0
 40
0.0
 40
0.0
 40
0.0
 40
0.2499999999999995
 40
0.2499999999999995
 40
0.3749999999999996
 40
0.3749999999999996
 40
0.4999999999999997
 40
0.4999999999999997
 40
0.6249999999999998
 40
0.6249999999999998
 40
0.7499999999999998
 40
0.7499999999999998
 40
0.8749999999999999
 40
0.8749999999999999
 40
1.0
 40
1.0
 40
1.0
 40
1.0
 10
108.0471693749695
 20
136.0469609856263
 30
0.0
 10
108.2955431092576
 20
136.7008234139237
 30
0.0
 10
108.6151132016028
 20
137.3046091959208
 30
0.0
 10
109.2374194348075
 20
138.1314479320894
 30
0.0
 10
109.4688436952383
 20
138.3938765700424
 30
0.0
 10
109.990058034888
 20
138.8905392241473
 30
0.0
 10
110.2766785175231
 20
139.1211261031688
 30
0.0
 10
110.8961632588307
 20
139.5376803277515
 30
0.0
 10
111.2304636383176
 20
139.725178129719
 30
0.0
 10
111.9557241109424
 20
140.0565751073554
 30
0.0
 10
112.3376391683329
 20
140.1960790948507
 30
0.0
 10
113.1324273445046
 20
140.4215326023216
 30
0.0
 10
113.5465855387109
 20
140.5081587138653
 30
0.0
 10
114.4121318792923
 20
140.6261395027194
 30
0.0
 10
114.8500194943041
 20
140.6556506479937
 30
0.0
 10
115.2927897206588
 20
140.6556506479937
 30
0.0
  0
SPLINE
  5
AF
330
1F
100
AcDbEntity
  8
0
  6
Continuous
 62
     7
370
    15
100
AcDbSpline
210
0.0
220
0.0
230
1.0
 70
     8
 71
     3
 72
    70
 73
    66
 74
     0
 42
0.00000001
 43
0.00000001
 40
-0.0312500000000001
 40
-0.0312500000000001
 40
0.0
 40
0.0
 40
0.0312499999999999
 40
0.0312499999999999
 40
0.0624999999999998
 40
0.0624999999999998
 40
0.0937499999999997
 40
0.0937499999999997
 40
0.1249999999999996
 40
0.1249999999999996
 40
0.1562499999999994
 40
0.1562499999999994
 40
0.1874999999999993
 40
0.1874999999999993
 40
0.2187499999999992
 40
0.2187499999999992
 40
0.2499999999999991
 40
0.2499999999999991
 40
0.281249999999999
 40
0.281249999999999
 40
0.3124999999999989
 40
0.3124999999999989
 40
0.3437499999999988
 40
0.3437499999999988
 40
0.3749999999999987
 40
0.3749999999999987
 40
0.4062499999999986
 40
0.4062499999999986
 40
0.4374999999999984
 40
0.4374999999999984
 40
0.4687499999999983
 40
0.4687499999999983
 40
0.4999999999999982
 40
0.4999999999999982
 40
0.5312499999999983
 40
0.5312499999999983
 40
0.5624999999999984
 40
0.5624999999999984
 40
0.5937499999999986
 40
0.5937499999999986
 40
0.6249999999999987
 40
0.6249999999999987
 40
0.6562499999999988
 40
0.6562499999999988
 40
0.6874999999999989
 40
0.6874999999999989
 40
0.718749999999999
 40
0.718749999999999
 40
0.7499999999999991
 40
0.7499999999999991
 40
0.7812499999999992
 40
0.7812499999999992
 40
0.8124999999999993
 40
0.8124999999999993
 40
0.8437499999999994
 40
0.8437499999999994
 40
0.8749999999999996
 40
0.8749999999999996
 40
0.9062499999999997
 40
0.9062499999999997
 40
0.9374999999999998
 40
0.9374999999999998
 40
0.9687499999999999
 40
0.9687499999999999
 40
1.0
 40
1.0
 40
1.03125
 40
1.03125
 10
111.3617147136296
 20
126.8178678716096
 30
0.0
 10
110.8326240363094
 20
126.8178678716096
 30
0.0
 10
110.5725533689322
 20
126.8425451663948
 30
0.0
 10
110.0609786890968
 20
126.9390168394367
 30
0.0
 10
109.8068034053566
 20
127.0119977554168
 30
0.0
 10
109.3225327752949
 20
127.2017383583554
 30
0.0
 10
109.0928916834138
 20
127.3175990167492
 30
0.0
 10
108.6582873351803
 20
127.5902168627069
 30
0.0
 10
108.4527215585337
 20
127.7482559447606
 30
0.0
 10
108.0841644179384
 20
128.0917987957313
 30
0.0
 10
107.918683435203
 20
128.278561239833
 30
0.0
 10
107.6262589257679
 20
128.6821044142297
 30
0.0
 10
107.5021579491414
 20
128.8956014106589
 30
0.0
 10
107.3025787523916
 20
129.3349847245814
 30
0.0
 10
107.2256451665334
 20
129.564124711727
 30
0.0
 10
107.122788108013
 20
130.030098834487
 30
0.0
 10
107.0973151985539
 20
130.2629812801632
 30
0.0
 10
107.0970247879861
 20
130.728378815243
 30
0.0
 10
107.1230494217618
 20
130.9632545726374
 30
0.0
 10
107.2251977062538
 20
131.4147477198836
 30
0.0
 10
107.300774153837
 20
131.632794195295
 30
0.0
 10
107.5012716849819
 20
132.0538887203328
 30
0.0
 10
107.6264005264903
 20
132.2558101048511
 30
0.0
 10
107.9157593275119
 20
132.62783958737
 30
0.0
 10
108.0811703145674
 20
132.8004678909504
 30
0.0
 10
108.4541608727152
 20
133.1177858954964
 30
0.0
 10
108.6558939058043
 20
133.257572828998
 30
0.0
 10
109.0887531566322
 20
133.5017490825498
 30
0.0
 10
109.3226716895215
 20
133.6069785935913
 30
0.0
 10
109.8068554246641
 20
133.7751357399665
 30
0.0
 10
110.0561710506197
 20
133.8383866305603
 30
0.0
 10
110.5692035750474
 20
133.9239658396629
 30
0.0
 10
110.834497397952
 20
133.9458380045853
 30
0.0
 10
111.3568320178218
 20
133.9460016542293
 30
0.0
 10
111.6165856803035
 20
133.9249999621333
 30
0.0
 10
112.1331974959487
 20
133.8395976070556
 30
0.0
 10
112.385563536449
 20
133.7755914237686
 30
0.0
 10
112.8670886579819
 20
133.6087769037275
 30
0.0
 10
113.0999393900954
 20
133.5046437403283
 30
0.0
 10
113.5370292385342
 20
133.2586570878333
 30
0.0
 10
113.7383502271913
 20
133.1189072568845
 30
0.0
 10
114.1074362524913
 20
132.8057691871599
 30
0.0
 10
114.276421003543
 20
132.6303130278898
 30
0.0
 10
114.5668770602022
 20
132.2574727637896
 30
0.0
 10
114.6899488715643
 20
132.0593509536787
 30
0.0
 10
114.8912851129863
 20
131.638639610945
 30
0.0
 10
114.9684976589285
 20
131.4166495902775
 30
0.0
 10
115.0707012018286
 20
130.9667846505691
 30
0.0
 10
115.0969295532809
 20
130.7365292374523
 30
0.0
 10
115.097405952598
 20
130.2652132949032
 30
0.0
 10
115.0716635401001
 20
130.0319758791891
 30
0.0
 10
114.9703527637362
 20
129.570299339691
 30
0.0
 10
114.8935201243453
 20
129.3394019525789
 30
0.0
 10
114.6931162851301
 20
128.8971259387873
 30
0.0
 10
114.5704447868381
 20
128.6860635075014
 30
0.0
 10
114.2804974976738
 20
128.2845649967687
 30
0.0
 10
114.1119265183086
 20
128.0936584746927
 30
0.0
 10
113.7436569241954
 20
127.7499331426957
 30
0.0
 10
113.5425950669251
 20
127.5947959564816
 30
0.0
 10
113.1055641483402
 20
127.3197185964019
 30
0.0
 10
112.8734159352106
 20
127.2026023669799
 30
0.0
 10
112.3924056537117
 20
127.0136758819153
 30
0.0
 10
112.1403055708813
 20
126.940600911521
 30
0.0
 10
111.6232360846223
 20
126.8425488523865
 30
0.0
 10
111.3617147136296
 20
126.8178678716096
 30
0.0
 10
110.8326240363094
 20
126.8178678716096
 30
0.0
  0
SPLINE
  5
B0
330
1F
100
AcDbEntity
  8
0
  6
Continuous
 62
     7
370
    15
100
AcDbSpline
210
0.0
220
0.0
230
1.0
 70
     8
 71
     3
 72
    70
 73
    66
 74
     0
 42
0.00000001
 43
0.00000001
 40
-0.0312499999999999
 40
-0.0312499999999999
 40
0.0
 40
0.0
 40
0.0312499999999999
 40
0.0312499999999999
 40
0.0624999999999998
 40
0.0624999999999998
 40
0.0937499999999997
 40
0.0937499999999997
 40
0.1249999999999996
 40
0.1249999999999996
 40
0.1562499999999995
 40
0.1562499999999995
 40
0.1874999999999994
 40
0.1874999999999994
 40
0.2187499999999993
 40
0.2187499999999993
 40
0.2499999999999992
 40
0.2499999999999992
 40
0.2812499999999993
 40
0.2812499999999993
 40
0.3124999999999993
 40
0.3124999999999993
 40
0.3437499999999994
 40
0.3437499999999994
 40
0.3749999999999995
 40
0.3749999999999995
 40
0.4062499999999996
 40
0.4062499999999996
 40
0.4374999999999996
 40
0.4374999999999996
 40
0.4687499999999997
 40
0.4687499999999997
 40
0.4999999999999998
 40
0.4999999999999998
 40
0.5312499999999999
 40
0.5312499999999999
 40
0.5625
 40
0.5625
 40
0.5937500000000001
 40
0.5937500000000001
 40
0.6250000000000002
 40
0.6250000000000002
 40
0.6562500000000004
 40
0.6562500000000004
 40
0.6875000000000006
 40
0.6875000000000006
 40
0.7187500000000007
 40
0.7187500000000007
 40
0.7500000000000008
 40
0.7500000000000008
 40
0.7812500000000007
 40
0.7812500000000007
 40
0.8125000000000006
 40
0.8125000000000006
 40
0.8437500000000004
 40
0.8437500000000004
 40
0.8750000000000003
 40
0.8750000000000003
 40
0.9062500000000003
 40
0.9062500000000003
 40
0.9375000000000002
 40
0.9375000000000002
 40
0.9687500000000001
 40
0.9687500000000001
 40
1.0
 40
1.0
 40
1.03125
 40
1.03125
 10
111.3617147136296
 20
141.2559243804055
 30
0.0
 10
110.8326240363094
 20
141.2559243804055
 30
0.0
 10
110.5725533689322
 20
141.2718248208202
 30
0.0
 10
110.0609786890968
 20
141.3337691709945
 30
0.0
 10
109.8068034053566
 20
141.3805714050858
 30
0.0
 10
109.3225327752949
 20
141.5015483885409
 30
0.0
 10
109.0928916834138
 20
141.5751507163477
 30
0.0
 10
108.6582873351803
 20
141.7469749873258
 30
0.0
 10
108.4527215585337
 20
141.8459784102533
 30
0.0
 10
108.0841644179384
 20
142.0590748241661
 30
0.0
 10
107.918683435203
 20
142.1739745402958
 30
0.0
 10
107.6262589257679
 20
142.419341438986
 30
0.0
 10
107.5021579491414
 20
142.5477813394563
 30
0.0
 10
107.3025787523916
 20
142.8086734875423
 30
0.0
 10
107.2256451665334
 20
142.9430546588817
 30
0.0
 10
107.122788108013
 20
143.212374609988
 30
0.0
 10
107.0973151985539
 20
143.3450558742062
 30
0.0
 10
107.0970247879861
 20
143.6062423483372
 30
0.0
 10
107.1230494217618
 20
143.7360073865019
 30
0.0
 10
107.2251977062538
 20
143.9815900207746
 30
0.0
 10
107.300774153837
 20
144.0982515580835
 30
0.0
 10
107.5012716849819
 20
144.320156748238
 30
0.0
 10
107.6264005264903
 20
144.424768002161
 30
0.0
 10
107.9157593275119
 20
144.6148144137691
 30
0.0
 10
108.0811703145674
 20
144.7015740852187
 30
0.0
 10
108.4541608727152
 20
144.8590784609703
 30
0.0
 10
108.6558939058043
 20
144.9274037257576
 30
0.0
 10
109.0887531566322
 20
145.0456334493767
 30
0.0
 10
109.3226716895215
 20
145.0959283654806
 30
0.0
 10
109.8068554246641
 20
145.1757939023702
 30
0.0
 10
110.0561710506197
 20
145.2055350301698
 30
0.0
 10
110.5692035750474
 20
145.245687771678
 30
0.0
 10
110.834497397952
 20
145.2558860410879
 30
0.0
 10
111.3568320178218
 20
145.2559624994726
 30
0.0
 10
111.6165856803035
 20
145.2461714878636
 30
0.0
 10
112.1331974959487
 20
145.2061046491248
 30
0.0
 10
112.385563536449
 20
145.176007482268
 30
0.0
 10
112.8670886579818
 20
145.0967852724378
 30
0.0
 10
113.0999393900954
 20
145.0470277929744
 30
0.0
 10
113.5370292385342
 20
144.927935850524
 30
0.0
 10
113.7383502271913
 20
144.8596205889768
 30
0.0
 10
114.1074362524913
 20
144.7042196220432
 30
0.0
 10
114.276421003543
 20
144.6160672799763
 30
0.0
 10
114.5668770602022
 20
144.4256278908599
 30
0.0
 10
114.6899488715643
 20
144.3230033131609
 30
0.0
 10
114.8912851129863
 20
144.1013629665528
 30
0.0
 10
114.9684976589286
 20
143.9826088910053
 30
0.0
 10
115.0707012018286
 20
143.7379429520876
 30
0.0
 10
115.0969295532809
 20
143.610786226639
 30
0.0
 10
115.097405952598
 20
143.3463380807835
 30
0.0
 10
115.0716635401001
 20
143.2134374005264
 30
0.0
 10
114.9703527637362
 20
142.9466451270443
 30
0.0
 10
114.8935201243453
 20
142.8112812255757
 30
0.0
 10
114.6931162851301
 20
142.5487014302732
 30
0.0
 10
114.5704447868381
 20
142.4217262705194
 30
0.0
 10
114.2804974976738
 20
142.177646884437
 30
0.0
 10
114.1119265183086
 20
142.0602217596831
 30
0.0
 10
113.7436569241954
 20
141.8470252987347
 30
0.0
 10
113.5425950669251
 20
141.7498511803098
 30
0.0
 10
113.1055641483402
 20
141.5764962930956
 30
0.0
 10
112.8734159352106
 20
141.5020967414389
 30
0.0
 10
112.3924056537117
 20
141.3816438619343
 30
0.0
 10
112.1403055708813
 20
141.3347854866683
 30
0.0
 10
111.6232360846223
 20
141.2718279896845
 30
0.0
 10
111.3617147136296
 20
141.2559243804055
 30
0.0
 10
110.8326240363094
 20
141.2559243804055
 30
0.0
  0
ARC
  5
B1
330
1F
100
AcDbEntity
  8
0
  6
Continuous
 62
     7
370
    15
100
AcDbCircle
 10
111.0943596902
 20
128.1120409128
 30
0.0
 40
4.109279153950261
100
AcDbArc
 50
19.1141868895
 51
159.5565232151
  0
SPLINE
  5
B2
330
1F
100
AcDbEntity
  8
0
  6
Continuous
 62
     7
370
    15
100
AcDbSpline
210
0.0
220
0.0
230
1.0
 70
    24
 71
     3
 72
    14
 73
    10
 74
     0
 42
0.00000001
 43
0.00000001
 40
0.0
 40
0.0
 40
0.0
 40
0.0
 40
0.5
 40
0.5
 40
0.75
 40
0.75
 40
0.875
 40
0.875
 40
1.0
 40
1.0
 40
1.0
 40
1.0
 10
122.9094945726372
 20
89.79696098562628
 30
0.0
 10
122.862709867589
 20
89.79696098562628
 30
0.0
 10
122.8006586708094
 20
89.79696098562628
 30
0.0
 10
122.6572670322588
 20
89.79696098562627
 30
0.0
 10
122.6011233787076
 20
89.79696098562628
 30
0.0
 10
122.4881723565714
 20
89.79696098562627
 30
0.0
 10
122.4451715945333
 20
89.79696098562628
 30
0.0
 10
122.3411088842268
 20
89.79696098562627
 30
0.0
 10
122.2757766458699
 20
89.79696098562627
 30
0.0
 10
122.2071693749695
 20
89.79696098562628
 30
0.0
  0
SPLINE
  5
B3
330
1F
100
AcDbEntity
  8
0
  6
Continuous
 62
     7
370
    15
100
AcDbSpline
210
0.0
220
0.0
230
1.0
 70
    24
 71
     3
 72
    12
 73
     8
 74
     0
 42
0.00000001
 43
0.00000001
 40
0.0
 40
0.0
 40
0.0
 40
0.0
 40
0.5000000000000017
 40
0.5000000000000017
 40
0.7500000000000008
 40
0.7500000000000008
 40
1.0
 40
1.0
 40
1.0
 40
1.0
 10
122.6128718432785
 20
142.5969609856263
 30
0.0
 10
122.5697862936676
 20
142.5969609856263
 30
0.0
 10
122.5206340919183
 20
142.5969609856263
 30
0.0
 10
122.4241614976303
 20
142.5969609856263
 30
0.0
 10
122.3880599124958
 20
142.5969609856263
 30
0.0
 10
122.3049541546345
 20
142.5969609856263
 30
0.0
 10
122.2569575576682
 20
142.5969609856263
 30
0.0
 10
122.2071693749695
 20
142.5969609856263
 30
0.0
  0
SPLINE
  5
B4
330
1F
100
AcDbEntity
  8
0
  6
Continuous
 62
     7
370
    15
100
AcDbSpline
210
0.0
220
0.0
230
1.0
 70
     8
 71
     3
 72
    10
 73
     6
 74
     0
 42
0.00000001
 43
0.00000001
 40
0.0
 40
0.0
 40
0.0
 40
0.0
 40
0.5
 40
0.5
 40
1.0
 40
1.0
 40
1.0
 40
1.0
 10
123.0071693749695
 20
143.316614836662
 30
0.0
 10
123.0071693749695
 20
143.1728447788441
 30
0.0
 10
122.9711203162506
 20
143.0304254163489
 30
0.0
 10
122.8356114554766
 20
142.7805311229916
 30
0.0
 10
122.7357354623804
 20
142.6725007867435
 30
0.0
 10
122.6128718432785
 20
142.5969609856263
 30
0.0
  0
SPLINE
  5
B5
330
1F
100
AcDbEntity
  8
0
  6
Continuous
 62
     7
370
    15
100
AcDbSpline
210
0.0
220
0.0
230
1.0
 70
     8
 71
     3
 72
    10
 73
     6
 74
     0
 42
0.00000001
 43
0.00000001
 40
0.0
 40
0.0
 40
0.0
 40
0.0
 40
0.5
 40
0.5
 40
1.0
 40
1.0
 40
1.0
 40
1.0
 10
122.9810217518094
 20
136.0469609856263
 30
0.0
 10
122.989711394721
 20
136.0938398349444
 30
0.0
 10
122.9962504594715
 20
136.1412623003458
 30
0.0
 10
123.0050090938646
 20
136.2371990989326
 30
0.0
 10
123.0071693749695
 20
136.2851143869431
 30
0.0
 10
123.0071693749695
 20
136.3328276170876
 30
0.0
  0
SPLINE
  5
B6
330
1F
100
AcDbEntity
  8
0
  6
Continuous
 62
     7
370
    15
100
AcDbSpline
210
0.0
220
0.0
230
1.0
 70
     8
 71
     3
 72
    10
 73
     6
 74
     0
 42
0.00000001
 43
0.00000001
 40
0.0
 40
0.0
 40
0.0
 40
0.0
 40
0.5
 40
0.5
 40
1.0
 40
1.0
 40
1.0
 40
1.0
 10
119.5814669066604
 20
142.5969609856263
 30
0.0
 10
119.4599266429919
 20
142.6716871528381
 30
0.0
 10
119.358592282643
 20
142.7806321687548
 30
0.0
 10
119.2229533397546
 20
143.0310626495164
 30
0.0
 10
119.1871693749695
 20
143.1734820116154
 30
0.0
 10
119.1871693749695
 20
143.316614836662
 30
0.0
  0
SPLINE
  5
B7
330
1F
100
AcDbEntity
  8
0
  6
Continuous
 62
     7
370
    15
100
AcDbSpline
210
0.0
220
0.0
230
1.0
 70
    24
 71
     3
 72
    12
 73
     8
 74
     0
 42
0.00000001
 43
0.00000001
 40
0.0
 40
0.0
 40
0.0
 40
0.0
 40
0.2499999999999992
 40
0.2499999999999992
 40
0.4999999999999983
 40
0.4999999999999983
 40
1.0
 40
1.0
 40
1.0
 40
1.0
 10
119.9871693749695
 20
142.5969609856263
 30
0.0
 10
119.9372926926522
 20
142.5969609856263
 30
0.0
 10
119.8892894992484
 20
142.5969609856263
 30
0.0
 10
119.8062413965365
 20
142.5969609856263
 30
0.0
 10
119.7701118170686
 20
142.5969609856263
 30
0.0
 10
119.6741997861244
 20
142.5969609856263
 30
0.0
 10
119.6244411181556
 20
142.5969609856263
 30
0.0
 10
119.5814669066605
 20
142.5969609856263
 30
0.0
  0
SPLINE
  5
B8
330
1F
100
AcDbEntity
  8
0
  6
Continuous
 62
     7
370
    15
100
AcDbSpline
210
0.0
220
0.0
230
1.0
 70
    24
 71
     3
 72
    14
 73
    10
 74
     0
 42
0.00000001
 43
0.00000001
 40
0.0
 40
0.0
 40
0.0
 40
0.0
 40
0.1250000000000012
 40
0.1250000000000012
 40
0.2500000000000024
 40
0.2500000000000024
 40
0.5000000000000013
 40
0.5000000000000013
 40
1.0
 40
1.0
 40
1.0
 40
1.0
 10
119.9871693749695
 20
89.79696098562628
 30
0.0
 10
119.918731527083
 20
89.79696098562628
 30
0.0
 10
119.853181488318
 20
89.79696098562628
 30
0.0
 10
119.74875484891
 20
89.79696098562628
 30
0.0
 10
119.7062102391486
 20
89.79696098562627
 30
0.0
 10
119.5936007786084
 20
89.79696098562627
 30
0.0
 10
119.5380617315889
 20
89.79696098562627
 30
0.0
 10
119.3954500361251
 20
89.79696098562628
 30
0.0
 10
119.3320446811293
 20
89.79696098562627
 30
0.0
 10
119.2848441773018
 20
89.79696098562628
 30
0.0
  0
SPLINE
  5
B9
330
1F
100
AcDbEntity
  8
0
  6
Continuous
 62
     7
370
    15
100
AcDbSpline
210
0.0
220
0.0
230
1.0
 70
     8
 71
     3
 72
    10
 73
     6
 74
     0
 42
0.00000001
 43
0.00000001
 40
0.0
 40
0.0
 40
0.0
 40
0.0
 40
0.5
 40
0.5
 40
1.0
 40
1.0
 40
1.0
 40
1.0
 10
119.1871693749695
 20
136.3328276170876
 30
0.0
 10
119.1871693749695
 20
136.2850561090944
 30
0.0
 10
119.1893306185667
 20
136.2373463870327
 30
0.0
 10
119.1980019924268
 20
136.1420512694844
 30
0.0
 10
119.2045311753828
 20
136.0943587055178
 30
0.0
 10
119.2133169981296
 20
136.0469609856263
 30
0.0
  0
LINE
  5
BA
330
1F
100
AcDbEntity
  8
0
  6
Continuous
 62
     7
370
    15
100
AcDbLine
 10
122.207169375
 20
142.5969609856
 30
0.0
 11
119.987169375
 21
142.5969609856
 31
0.0
  0
LINE
  5
BB
330
1F
100
AcDbEntity
  8
0
  6
Continuous
 62
     7
370
    15
100
AcDbLine
 10
122.207169375
 20
89.7969609856
 30
0.0
 11
119.987169375
 21
89.7969609856
 31
0.0
  0
LINE
  5
BC
330
1F
100
AcDbEntity
  8
0
  6
Continuous
 62
     7
370
    15
100
AcDbLine
 10
129.2471680884
 20
142.5969609856
 30
0.0
 11
129.2343591256
 21
142.5969609856
 31
0.0
  0
LINE
  5
BD
330
1F
100
AcDbEntity
  8
0
  6
Continuous
 62
     7
370
    15
100
AcDbLine
 10
129.2471680311
 20
89.7969609856
 30
0.0
 11
129.2353066236
 21
89.7969609856
 31
0.0
  0
LINE
  5
BE
330
1F
100
AcDbEntity
  8
0
  6
Continuous
 62
     7
370
    15
100
AcDbLine
 10
213.097169375
 20
91.0253881104
 30
0.0
 11
213.097169375
 21
141.3685338454
 31
0.0
  0
LINE
  5
BF
330
1F
100
AcDbEntity
  8
0
  6
Continuous
 62
     7
370
    15
100
AcDbLine
 10
81.297169375
 20
92.9685140918
 30
0.0
 11
81.297169375
 21
94.2332234544
 31
0.0
  0
SPLINE
  5
C0
330
1F
100
AcDbEntity
  8
0
  6
Continuous
 62
     7
370
    15
100
AcDbSpline
210
0.0
220
0.0
230
1.0
 70
     8
 71
     3
 72
    14
 73
    10
 74
     0
 42
0.00000001
 43
0.00000001
 40
0.0
 40
0.0
 40
0.0
 40
0.0
 40
0.25
 40
0.25
 40
0.5
 40
0.5
 40
0.75
 40
0.75
 40
1.0
 40
1.0
 40
1.0
 40
1.0
 10
80.51888225705378
 20
95.36380966206633
 30
0.0
 10
80.57550893225586
 20
95.25611220822947
 30
0.0
 10
80.67003159254558
 20
95.15332262651015
 30
0.0
 10
80.85307656810782
 20
94.95496531428999
 30
0.0
 10
80.94470314506255
 20
94.85890580561176
 30
0.0
 10
81.10355646275575
 20
94.67137676290251
 30
0.0
 10
81.17144707037744
 20
94.57996779011896
 30
0.0
 10
81.26836409608502
 20
94.4015915692088
 30
0.0
 10
81.29716937497008
 20
94.31436966296262
 30
0.0
 10
81.29716937497007
 20
94.23322345442836
 30
0.0
  0
SPLINE
  5
C1
330
1F
100
AcDbEntity
  8
0
  6
Continuous
 62
     7
370
    15
100
AcDbSpline
210
0.0
220
0.0
230
1.0
 70
     8
 71
     3
 72
    14
 73
    10
 74
     0
 42
0.00000001
 43
0.00000001
 40
0.0
 40
0.0
 40
0.0
 40
0.0
 40
0.125
 40
0.125
 40
0.25
 40
0.25
 40
0.5
 40
0.5
 40
1.0
 40
1.0
 40
1.0
 40
1.0
 10
79.89716937496951
 20
95.81049152434565
 30
0.0
 10
79.94571378362666
 20
95.81623983762594
 30
0.0
 10
79.99862913841157
 20
95.8131389489697
 30
0.0
 10
80.09392448339462
 20
95.79094410480738
 30
0.0
 10
80.13417548067957
 20
95.7737118777115
 30
0.0
 10
80.23844549419253
 20
95.71738396125944
 30
0.0
 10
80.28876746934587
 20
95.67319761531365
 30
0.0
 10
80.41645041687123
 20
95.54218971646303
 30
0.0
 10
80.4725358639335
 20
95.45195519623273
 30
0.0
 10
80.51888225705525
 20
95.36380966206686
 30
0.0
  0
SPLINE
  5
C2
330
1F
100
AcDbEntity
  8
0
  6
Continuous
 62
     7
370
    15
100
AcDbSpline
210
0.0
220
0.0
230
1.0
 70
     8
 71
     3
 72
     8
 73
     4
 74
     0
 42
0.00000001
 43
0.00000001
 40
0.0
 40
0.0
 40
0.0
 40
0.0
 40
1.0
 40
1.0
 40
1.0
 40
1.0
 10
77.62864428202323
 20
95.50064623776285
 30
0.0
 10
78.3632213085062
 20
95.61927124883181
 30
0.0
 10
79.12669637790188
 20
95.7192571209681
 30
0.0
 10
79.89716937496951
 20
95.81049152434565
 30
0.0
  0
SPLINE
  5
C3
330
1F
100
AcDbEntity
  8
0
  6
Continuous
 62
     7
370
    15
100
AcDbSpline
210
0.0
220
0.0
230
1.0
 70
     8
 71
     3
 72
    14
 73
    10
 74
     0
 42
0.00000001
 43
0.00000001
 40
0.0
 40
0.0
 40
0.0
 40
0.0
 40
0.5000000000000002
 40
0.5000000000000002
 40
0.7500000000000002
 40
0.7500000000000002
 40
0.8750000000000001
 40
0.8750000000000001
 40
1.0
 40
1.0
 40
1.0
 40
1.0
 10
72.3471693749695
 20
95.32702322023121
 30
0.0
 10
73.23931550552307
 20
95.32630099403056
 30
0.0
 10
74.12929194131665
 20
95.33088720048802
 30
0.0
 10
75.45588710839223
 20
95.35861220487955
 30
0.0
 10
75.89673403689098
 20
95.37121874250373
 30
0.0
 10
76.55317427431339
 20
95.40223489051117
 30
0.0
 10
76.77118793090527
 20
95.41457806313795
 30
0.0
 10
77.20389678458803
 20
95.44760211830122
 30
0.0
 10
77.41917324975283
 20
95.46681928343966
 30
0.0
 10
77.62864428202323
 20
95.50064623776285
 30
0.0
  0
SPLINE
  5
C4
330
1F
100
AcDbEntity
  8
0
  6
Continuous
 62
     7
370
    15
100
AcDbSpline
210
0.0
220
0.0
230
1.0
 70
     8
 71
     3
 72
     8
 73
     4
 74
     0
 42
0.00000001
 43
0.00000001
 40
0.0000005163856711
 40
0.0000005163856711
 40
0.0000005163856711
 40
0.0000005163856711
 40
0.000026289209185
 40
0.000026289209185
 40
0.000026289209185
 40
0.000026289209185
 10
72.3371244445508
 20
95.33700709333908
 30
0.0
 10
72.34045218276228
 20
95.33367284646627
 30
0.0
 10
72.34380063574159
 20
95.33034488918723
 30
0.0
 10
72.34716937496947
 20
95.3270232202312
 30
0.0
  0
SPLINE
  5
C5
330
1F
100
AcDbEntity
  8
0
  6
Continuous
 62
     7
370
    15
100
AcDbSpline
210
0.0
220
0.0
230
1.0
 70
     8
 71
     3
 72
     8
 73
     4
 74
     0
 42
0.00000001
 43
0.00000001
 40
0.0000005099763573
 40
0.0000005099763573
 40
0.0000005099763573
 40
0.0000005099763573
 40
0.0000262827998699
 40
0.0000262827998699
 40
0.0000262827998699
 40
0.0000262827998699
 10
72.34716937496948
 20
137.0668987510213
 30
0.0
 10
72.34380063574176
 20
137.0635770820654
 30
0.0
 10
72.3404521827626
 20
137.0602491247866
 30
0.0
 10
72.33712444455129
 20
137.0569148779139
 30
0.0
  0
SPLINE
  5
C6
330
1F
100
AcDbEntity
  8
0
  6
Continuous
 62
     7
370
    15
100
AcDbSpline
210
0.0
220
0.0
230
1.0
 70
     8
 71
     3
 72
    10
 73
     6
 74
     0
 42
0.00000001
 43
0.00000001
 40
0.0
 40
0.0
 40
0.0
 40
0.0
 40
0.5
 40
0.5
 40
1.0
 40
1.0
 40
1.0
 40
1.0
 10
75.89716937496951
 20
137.020048377454
 30
0.0
 10
75.30958382787892
 20
137.0411138976905
 30
0.0
 10
74.71883743441853
 20
137.0518723835627
 30
0.0
 10
73.53481826911967
 20
137.0652371640983
 30
0.0
 10
72.94140428091421
 20
137.0673798067629
 30
0.0
 10
72.3471693749695
 20
137.0668987510213
 30
0.0
  0
SPLINE
  5
C7
330
1F
100
AcDbEntity
  8
0
  6
Continuous
 62
     7
370
    15
100
AcDbSpline
210
0.0
220
0.0
230
1.0
 70
     8
 71
     3
 72
    18
 73
    14
 74
     0
 42
0.00000001
 43
0.00000001
 40
0.0
 40
0.0
 40
0.0
 40
0.0
 40
0.2500000000000008
 40
0.2500000000000008
 40
0.5000000000000009
 40
0.5000000000000009
 40
0.7500000000000009
 40
0.7500000000000009
 40
0.875000000000001
 40
0.875000000000001
 40
0.9375000000000006
 40
0.9375000000000006
 40
1.0
 40
1.0
 40
1.0
 40
1.0
 10
77.29716937496951
 20
138.0410686579893
 30
0.0
 10
77.29716937496953
 20
137.9578617491321
 30
0.0
 10
77.26132027503125
 20
137.8691250938185
 30
0.0
 10
77.13644853899733
 20
137.6869999032583
 30
0.0
 10
77.04604812134946
 20
137.5918698546317
 30
0.0
 10
76.82380546660727
 20
137.4026883455073
 30
0.0
 10
76.6940406801615
 20
137.3077431774126
 30
0.0
 10
76.45340322285
 20
137.1694644698327
 30
0.0
 10
76.36563592471258
 20
137.1237540365303
 30
0.0
 10
76.21111183750573
 20
137.0659307313088
 30
0.0
 10
76.15450095145098
 20
137.0482159672709
 30
0.0
 10
76.03045692054438
 20
137.023676664038
 30
0.0
 10
75.9627422455261
 20
137.0176975254998
 30
0.0
 10
75.8971693749695
 20
137.020048377454
 30
0.0
  0
LINE
  5
C8
330
1F
100
AcDbEntity
  8
0
  6
Continuous
 62
     7
370
    15
100
AcDbLine
 10
77.297169375
 20
138.041068658
 30
0.0
 11
77.297169375
 21
139.2250070778
 31
0.0
  0
LINE
  5
C9
330
1F
100
AcDbEntity
  8
0
  6
Continuous
 62
     7
370
    15
100
AcDbLine
 10
101.097169375
 20
91.9765301239
 30
0.0
 11
101.097169375
 21
140.4173918473
 31
0.0
  0
SPLINE
  5
CA
330
1F
100
AcDbEntity
  8
0
  6
Continuous
 62
     7
370
    15
100
AcDbSpline
210
0.0
220
0.0
230
1.0
 70
     8
 71
     3
 72
    18
 73
    14
 74
     0
 42
0.00000001
 43
0.00000001
 40
0.0
 40
0.0
 40
0.0
 40
0.0
 40
0.0010671296451833
 40
0.127094779573168
 40
0.2524053457512858
 40
0.3766468878987227
 40
0.4391415999059739
 40
0.5008278021400219
 40
0.5624255708808634
 40
0.6253162439161013
 40
0.749998514470662
 40
0.8752758950341211
 40
1.0
 40
1.0
 40
1.0
 40
1.0
 10
89.86747021504219
 20
92.53962196270993
 30
0.0
 10
89.86655838240368
 20
92.53950718417329
 30
0.0
 10
89.75795942376693
 20
92.52583709930748
 30
0.0
 10
90.14560049141643
 20
92.57675659992299
 30
0.0
 10
91.01156517325195
 20
92.67633977296933
 30
0.0
 10
92.21196909802406
 20
92.74546365611374
 30
0.0
 10
93.2695450125148
 20
92.74941588525118
 30
0.0
 10
94.09667909942019
 20
92.72192694679684
 30
0.0
 10
94.92195096705089
 20
92.6633867703891
 30
0.0
 10
95.97631618705071
 20
92.54986561065358
 30
0.0
 10
97.13815246852599
 20
92.36671478640494
 30
0.0
 10
98.09038724990954
 20
92.16211157677003
 30
0.0
 10
98.21609231071741
 20
92.13282622599395
 30
0.0
 10
98.27880574286263
 20
92.11821595615325
 30
0.0
  0
SPLINE
  5
CB
330
1F
100
AcDbEntity
  8
0
  6
Continuous
 62
     7
370
    15
100
AcDbSpline
210
0.0
220
0.0
230
1.0
 70
     8
 71
     3
 72
    18
 73
    14
 74
     0
 42
0.00000001
 43
0.00000001
 40
0.0
 40
0.0
 40
0.0
 40
0.0
 40
0.1248907792210144
 40
0.2505384020341699
 40
0.3748721840485282
 40
0.4374907653350173
 40
0.4990776265894303
 40
0.5607931536354078
 40
0.6233901338664936
 40
0.7478191038417354
 40
0.8731940995934957
 40
0.9991614644710077
 40
1.0
 40
1.0
 40
1.0
 40
1.0
 10
98.2785869773387
 20
140.2756408345449
 30
0.0
 10
98.21484622462707
 20
140.2609795419469
 30
0.0
 10
98.08697844745056
 20
140.2315681086754
 30
0.0
 10
97.13497922639019
 20
140.0266150046129
 30
0.0
 10
95.9744355211867
 20
139.843351228802
 30
0.0
 10
94.92217106909864
 20
139.730323636553
 30
0.0
 10
94.09794395403074
 20
139.6720599890117
 30
0.0
 10
93.27034018451057
 20
139.6446136010076
 30
0.0
 10
92.21152299202546
 20
139.6485984069367
 30
0.0
 10
91.00930429399072
 20
139.717687883318
 30
0.0
 10
90.1441203543035
 20
139.8173140998749
 30
0.0
 10
89.75797993277298
 20
139.8681301734749
 30
0.0
 10
89.86605147355355
 20
139.8544579934122
 30
0.0
 10
89.86676612347384
 20
139.8543675827238
 30
0.0
  0
SPLINE
  5
CC
330
1F
100
AcDbEntity
  8
0
  6
Continuous
 62
     7
370
    15
100
AcDbSpline
210
0.0
220
0.0
230
1.0
 70
     8
 71
     3
 72
     9
 73
     5
 74
     0
 42
0.00000001
 43
0.00000001
 40
0.0
 40
0.0
 40
0.0
 40
0.0
 40
0.7009329310330151
 40
1.0
 40
1.0
 40
1.0
 40
1.0
 10
71.21795405920496
 20
96.49568068152365
 30
0.0
 10
71.22709333588023
 20
96.47785139598214
 30
0.0
 10
71.24013206793384
 20
96.45241488878986
 30
0.0
 10
71.25529732169916
 20
96.50629474898165
 30
0.0
 10
71.25983274969289
 20
96.52240844084555
 30
0.0
  0
LINE
  5
CD
330
1F
100
AcDbEntity
  8
0
  6
Continuous
 62
     7
370
    15
100
AcDbLine
 10
71.197169375
 20
96.5062832391
 30
0.0
 11
71.197169375
 21
135.8876387321
 31
0.0
  0
SPLINE
  5
CE
330
1F
100
AcDbEntity
  8
0
  6
Continuous
 62
     7
370
    15
100
AcDbSpline
210
0.0
220
0.0
230
1.0
 70
     8
 71
     3
 72
    10
 73
     6
 74
     0
 42
0.00000001
 43
0.00000001
 40
0.0
 40
0.0
 40
0.0
 40
0.0
 40
0.5
 40
0.5
 40
1.0
 40
1.0
 40
1.0
 40
1.0
 10
71.25983274969292
 20
135.871513530407
 30
0.0
 10
71.25092846058415
 20
135.9172550496202
 30
0.0
 10
71.23441308039116
 20
135.9344458890892
 30
0.0
 10
71.20730513432954
 20
135.9341226121535
 30
0.0
 10
71.1971693749695
 20
135.916245069857
 30
0.0
 10
71.1971693749695
 20
135.8876387321044
 30
0.0
  0
SPLINE
  5
CF
330
1F
100
AcDbEntity
  8
0
  6
Continuous
 62
     7
370
    15
100
AcDbSpline
210
0.0
220
0.0
230
1.0
 70
     8
 71
     3
 72
    26
 73
    22
 74
     0
 42
0.00000001
 43
0.00000001
 40
0.0
 40
0.0
 40
0.0
 40
0.0
 40
0.2500000000000165
 40
0.2500000000000165
 40
0.3750000000000256
 40
0.3750000000000256
 40
0.4375000000000291
 40
0.4375000000000291
 40
0.4687500000000291
 40
0.4687500000000291
 40
0.5000000000000292
 40
0.5000000000000292
 40
0.5312500000000293
 40
0.5312500000000293
 40
0.5625000000000293
 40
0.5625000000000293
 40
0.625000000000026
 40
0.625000000000026
 40
0.7500000000000173
 40
0.7500000000000173
 40
1.0
 40
1.0
 40
1.0
 40
1.0
 10
72.02132302107401
 20
136.5870803192241
 30
0.0
 10
71.98272249820555
 20
136.4693056228687
 30
0.0
 10
71.93642549565128
 20
136.3449159367067
 30
0.0
 10
71.84248614721736
 20
136.1396966043533
 30
0.0
 10
71.8071746803039
 20
136.0681237379068
 30
0.0
 10
71.74099470455822
 20
135.9521705053064
 30
0.0
 10
71.71645633789001
 20
135.9115859704961
 30
0.0
 10
71.67308359233621
 20
135.8474442886244
 30
0.0
 10
71.657575190911
 20
135.8255778633393
 30
0.0
 10
71.62253254632398
 20
135.7799835949962
 30
0.0
 10
71.60298225560422
 20
135.7563133040287
 30
0.0
 10
71.5610549752336
 20
135.7116967446888
 30
0.0
 10
71.53840286500196
 20
135.6908167321709
 30
0.0
 10
71.49742915091534
 20
135.65994331842
 30
0.0
 10
71.47982985101991
 20
135.6501044485876
 30
0.0
 10
71.43520286516376
 20
135.6311148328915
 30
0.0
 10
71.41464364251043
 20
135.630790508238
 30
0.0
 10
71.36351820301375
 20
135.6400139491142
 30
0.0
 10
71.34260679002521
 20
135.6612608453312
 30
0.0
 10
71.29115688246429
 20
135.735229724162
 30
0.0
 10
71.27349158315974
 20
135.8013478174767
 30
0.0
 10
71.25983274969292
 20
135.871513530407
 30
0.0
  0
SPLINE
  5
D0
330
1F
100
AcDbEntity
  8
0
  6
Continuous
 62
     7
370
    15
100
AcDbSpline
210
0.0
220
0.0
230
1.0
 70
     8
 71
     3
 72
    10
 73
     6
 74
     0
 42
0.00000001
 43
0.00000001
 40
0.0
 40
0.0
 40
0.0
 40
0.0
 40
0.5
 40
0.5
 40
1.0
 40
1.0
 40
1.0
 40
1.0
 10
72.3371244445513
 20
137.0569148779139
 30
0.0
 10
72.26956518963307
 20
136.9892234851042
 30
0.0
 10
72.20592853429656
 20
136.9145163203505
 30
0.0
 10
72.09570777972469
 20
136.7555501879239
 30
0.0
 10
72.04889148650207
 20
136.6711949219159
 30
0.0
 10
72.021323021074
 20
136.5870803192241
 30
0.0
  0
SPLINE
  5
D1
330
1F
100
AcDbEntity
  8
0
  6
Continuous
 62
     7
370
    15
100
AcDbSpline
210
0.0
220
0.0
230
1.0
 70
     8
 71
     3
 72
    10
 73
     6
 74
     0
 42
0.00000001
 43
0.00000001
 40
0.0
 40
0.0
 40
0.0
 40
0.0
 40
0.5
 40
0.5
 40
1.0
 40
1.0
 40
1.0
 40
1.0
 10
72.02132302107405
 20
95.80684165202831
 30
0.0
 10
72.04880043582726
 20
95.72300485556272
 30
0.0
 10
72.09550906611491
 20
95.6386943679759
 30
0.0
 10
72.20578752885687
 20
95.47957313749305
 30
0.0
 10
72.2696750674685
 20
95.40458839340496
 30
0.0
 10
72.33712444455081
 20
95.3370070933391
 30
0.0
  0
SPLINE
  5
D2
330
1F
100
AcDbEntity
  8
0
  6
Continuous
 62
     7
370
    15
100
AcDbSpline
210
0.0
220
0.0
230
1.0
 70
     8
 71
     3
 72
    24
 73
    20
 74
     0
 42
0.00000001
 43
0.00000001
 40
0.0
 40
0.0
 40
0.0
 40
0.0
 40
0.249999999999999
 40
0.249999999999999
 40
0.3749999999999983
 40
0.3749999999999983
 40
0.4374999999999987
 40
0.4374999999999987
 40
0.4687499999999975
 40
0.4687499999999975
 40
0.4999999999999963
 40
0.4999999999999963
 40
0.5624999999999984
 40
0.5624999999999984
 40
0.6250000000000006
 40
0.6250000000000006
 40
0.7500000000000001
 40
0.7500000000000001
 40
1.0
 40
1.0
 40
1.0
 40
1.0
 10
71.25983274969292
 20
96.52240844084552
 30
0.0
 10
71.27358586836313
 20
96.59305849883582
 30
0.0
 10
71.291358435769
 20
96.65965661160075
 30
0.0
 10
71.34360952732435
 20
96.73375463183395
 30
0.0
 10
71.36464460290593
 20
96.75501243899551
 30
0.0
 10
71.41754501053435
 20
96.76315836514175
 30
0.0
 10
71.43865068341226
 20
96.76221856174597
 30
0.0
 10
71.48470285209024
 20
96.74120257016862
 30
0.0
 10
71.50307332407363
 20
96.73029376406102
 30
0.0
 10
71.54462495913936
 20
96.69765885311364
 30
0.0
 10
71.56719163189626
 20
96.67616687274226
 30
0.0
 10
71.62997264835627
 20
96.60770092915595
 30
0.0
 10
71.66310240932417
 20
96.56162647095086
 30
0.0
 10
71.72002009580919
 20
96.4766185826162
 30
0.0
 10
71.74420612131294
 20
96.43633828143481
 30
0.0
 10
71.8094140716927
 20
96.32140205496887
 30
0.0
 10
71.84413013188396
 20
96.25081906982186
 30
0.0
 10
71.93734540221483
 20
96.04661331074327
 30
0.0
 10
71.98301793757551
 20
95.9237149284159
 30
0.0
 10
72.02132302107404
 20
95.80684165202833
 30
0.0
  0
SPLINE
  5
D3
330
1F
100
AcDbEntity
  8
0
  6
Continuous
 62
     7
370
    15
100
AcDbSpline
210
0.0
220
0.0
230
1.0
 70
     8
 71
     3
 72
    10
 73
     6
 74
     0
 42
0.00000001
 43
0.00000001
 40
0.0
 40
0.0
 40
0.0
 40
0.0
 40
0.5
 40
0.5
 40
1.0
 40
1.0
 40
1.0
 40
1.0
 10
129.0471693749695
 20
146.0434013093902
 30
0.0
 10
129.0471693749695
 20
146.203806575741
 30
0.0
 10
128.9849315438626
 20
146.3628683887296
 30
0.0
 10
128.7657966201201
 20
146.5937808543599
 30
0.0
 10
128.6082079251282
 20
146.6641564587905
 30
0.0
 10
128.4471693749695
 20
146.6641564587905
 30
0.0
  0
SPLINE
  5
D4
330
1F
100
AcDbEntity
  8
0
  6
Continuous
 62
     7
370
    15
100
AcDbSpline
210
0.0
220
0.0
230
1.0
 70
     8
 71
     3
 72
    12
 73
     8
 74
     0
 42
0.00000001
 43
0.00000001
 40
0.0
 40
0.0
 40
0.0
 40
0.0
 40
0.2499999999999987
 40
0.2499999999999987
 40
0.4999999999999973
 40
0.4999999999999973
 40
1.0
 40
1.0
 40
1.0
 40
1.0
 10
128.4471693749695
 20
140.6556506479937
 30
0.0
 10
128.5383690967952
 20
140.6556506479937
 30
0.0
 10
128.6289641059312
 20
140.6274309494058
 30
0.0
 10
128.7823768323778
 20
140.5329879421577
 30
0.0
 10
128.8475856997015
 20
140.4667009654524
 30
0.0
 10
129.0003702290414
 20
140.2410761421641
 30
0.0
 10
129.0471693749695
 20
140.0586498791316
 30
0.0
 10
129.0471693749695
 20
139.8779132468847
 30
0.0
  0
LINE
  5
D5
330
1F
100
AcDbEntity
  8
0
  6
Continuous
 62
     7
370
    15
100
AcDbLine
 10
129.047169375
 20
139.8779132469
 30
0.0
 11
129.047169375
 21
146.0434013094
 31
0.0
  0
LINE
  5
D6
330
1F
100
AcDbEntity
  8
0
  6
Continuous
 62
     7
370
    15
100
AcDbLine
 10
128.447169375
 20
146.6641564588
 30
0.0
 11
124.4891022065
 21
146.6641564588
 31
0.0
  0
LINE
  5
D7
330
1F
100
AcDbEntity
  8
0
  6
Continuous
 62
     7
370
    15
100
AcDbLine
 10
124.4891022065
 20
140.655650648
 30
0.0
 11
128.447169375
 21
140.655650648
 31
0.0
  0
LINE
  5
D8
330
1F
100
AcDbEntity
  8
0
  6
Continuous
 62
     7
370
    15
100
AcDbLine
 10
124.4891022065
 20
140.655650648
 30
0.0
 11
124.4891022065
 21
146.6641564588
 31
0.0
  0
SPLINE
  5
D9
330
1F
100
AcDbEntity
  8
0
  6
Continuous
 62
     7
370
    15
100
AcDbSpline
210
0.0
220
0.0
230
1.0
 70
     8
 71
     3
 72
     8
 73
     4
 74
     0
 42
0.00000001
 43
0.00000001
 40
0.0
 40
0.0
 40
0.0
 40
0.0
 40
1.0
 40
1.0
 40
1.0
 40
1.0
 10
119.1871693749695
 20
144.0021951767979
 30
0.0
 10
118.6944592781237
 20
144.8902141749243
 30
0.0
 10
118.2003765728448
 20
145.7774768106103
 30
0.0
 10
117.7052365434805
 20
146.6641564587905
 30
0.0
  0
LINE
  5
DA
330
1F
100
AcDbEntity
  8
0
  6
Continuous
 62
     7
370
    15
100
AcDbLine
 10
119.187169375
 20
137.2471046532
 30
0.0
 11
119.187169375
 21
144.0021951768
 31
0.0
  0
SPLINE
  5
DB
330
1F
100
AcDbEntity
  8
0
  6
Continuous
 62
     7
370
    15
100
AcDbSpline
210
0.0
220
0.0
230
1.0
 70
     8
 71
     3
 72
     8
 73
     4
 74
     0
 42
0.00000001
 43
0.00000001
 40
0.0
 40
0.0
 40
0.0
 40
0.0
 40
1.0
 40
1.0
 40
1.0
 40
1.0
 10
117.7052365434805
 20
140.6556506479937
 30
0.0
 10
118.2123233852397
 20
139.52450029383
 30
0.0
 10
118.7078912243797
 20
138.3881158830622
 30
0.0
 10
119.1871693749695
 20
137.2471046532096
 30
0.0
  0
LINE
  5
DC
330
1F
100
AcDbEntity
  8
0
  6
Continuous
 62
     7
370
    15
100
AcDbLine
 10
119.187169375
 20
137.2471046532
 30
0.0
 11
119.187169375
 21
136.3328276171
 31
0.0
  0
SPLINE
  5
DD
330
1F
100
AcDbEntity
  8
0
  6
Continuous
 62
     7
370
    15
100
AcDbSpline
210
0.0
220
0.0
230
1.0
 70
     8
 71
     3
 72
     8
 73
     4
 74
     0
 42
0.00000001
 43
0.00000001
 40
0.0
 40
0.0
 40
0.0
 40
0.0
 40
1.0
 40
1.0
 40
1.0
 40
1.0
 10
124.4891022064586
 20
146.6641564587905
 30
0.0
 10
123.9939621770942
 20
145.7774768106103
 30
0.0
 10
123.4998794718153
 20
144.8902141749243
 30
0.0
 10
123.0071693749695
 20
144.0021951767979
 30
0.0
  0
SPLINE
  5
DE
330
1F
100
AcDbEntity
  8
0
  6
Continuous
 62
     7
370
    15
100
AcDbSpline
210
0.0
220
0.0
230
1.0
 70
     8
 71
     3
 72
     8
 73
     4
 74
     0
 42
0.00000001
 43
0.00000001
 40
0.0
 40
0.0
 40
0.0
 40
0.0
 40
1.0
 40
1.0
 40
1.0
 40
1.0
 10
123.0071693749695
 20
137.2471046532096
 30
0.0
 10
123.4864475255593
 20
138.3881158830622
 30
0.0
 10
123.9820153646993
 20
139.52450029383
 30
0.0
 10
124.4891022064586
 20
140.6556506479937
 30
0.0
  0
LINE
  5
DF
330
1F
100
AcDbEntity
  8
0
  6
Continuous
 62
     7
370
    15
100
AcDbLine
 10
123.007169375
 20
137.2471046532
 30
0.0
 11
123.007169375
 21
144.0021951768
 31
0.0
  0
LINE
  5
E0
330
1F
100
AcDbEntity
  8
0
  6
Continuous
 62
     7
370
    15
100
AcDbLine
 10
123.007169375
 20
136.3328276171
 30
0.0
 11
123.007169375
 21
137.2471046532
 31
0.0
  0
LINE
  5
E1
330
1F
100
AcDbEntity
  8
0
  6
Continuous
 62
     7
370
    15
100
AcDbLine
 10
129.047169375
 20
139.8779132469
 30
0.0
 11
129.047169375
 21
136.0469609856
 31
0.0
  0
ARC
  5
E2
330
1F
100
AcDbEntity
  8
0
  6
Continuous
 62
     7
370
    15
100
AcDbCircle
 10
111.0973953551
 20
134.8980529804
 30
0.0
 40
7.253774253418426
100
AcDbArc
 50
70.9722171151
 51
109.0909941607
  0
ARC
  5
E3
330
1F
100
AcDbEntity
  8
0
  6
HIDDEN
 62
     7
370
     0
100
AcDbCircle
 10
161.597169375
 20
116.1969609856
 30
0.0
 40
9.00000000000001
100
AcDbArc
 50
115.607750976
 51
244.0094008516
  0
ARC
  5
E4
330
1F
100
AcDbEntity
  8
0
  6
HIDDEN
 62
     7
370
     0
100
AcDbCircle
 10
161.597169375
 20
116.1969609856
 30
0.0
 40
8.999999999999988
100
AcDbArc
 50
295.9892763098
 51
64.4121358748
  0
LWPOLYLINE
  5
E5
330
1F
100
AcDbEntity
  8
0
  6
HIDDEN
 62
     7
370
     0
100
AcDbPolyline
 90
        3
 70
   128
 43
0.0
 10
165.411937633
 20
125.4407450126
 10
164.1458244889
 20
125.8667260867
 10
163.7324154377
 20
125.9663378466
  0
ARC
  5
E6
330
1F
100
AcDbEntity
  8
0
  6
HIDDEN
 62
     7
370
     0
100
AcDbCircle
 10
161.597169375
 20
116.1969609856
 30
0.0
 40
10.0
100
AcDbArc
 50
268.7116533957
 51
67.5748093136
  0
ARC
  5
E7
330
1F
100
AcDbEntity
  8
0
  6
HIDDEN
 62
     7
370
     0
100
AcDbCircle
 10
161.597169375
 20
116.1969609856
 30
0.0
 40
5.000000000000024
100
AcDbArc
 50
67.5748093136
 51
97.5748093136
  0
ARC
  5
E8
330
1F
100
AcDbEntity
  8
0
  6
HIDDEN
 62
     7
370
     0
100
AcDbCircle
 10
161.597169375
 20
116.1969609856
 30
0.0
 40
4.999999999999995
100
AcDbArc
 50
37.5748093136
 51
67.5748093136
  0
CIRCLE
  5
E9
330
1F
100
AcDbEntity
  8
0
  6
HIDDEN
 62
     7
370
     0
100
AcDbCircle
 10
161.597169375
 20
116.1969609856
 30
0.0
 40
6.999999999999985
  0
ARC
  5
EA
330
1F
100
AcDbEntity
  8
0
  6
HIDDEN
 62
     7
370
     0
100
AcDbCircle
 10
189.597169375
 20
116.1969609856
 30
0.0
 40
8.999999999999993
100
AcDbArc
 50
115.607750976
 51
244.0094008516
  0
ARC
  5
EB
330
1F
100
AcDbEntity
  8
0
  6
HIDDEN
 62
     7
370
     0
100
AcDbCircle
 10
189.597169375
 20
116.1969609856
 30
0.0
 40
9.00000000000103
100
AcDbArc
 50
295.9892763097
 51
64.4121358748
  0
LWPOLYLINE
  5
EC
330
1F
100
AcDbEntity
  8
0
  6
HIDDEN
 62
     7
370
     0
100
AcDbPolyline
 90
        3
 70
   128
 43
0.0
 10
193.411937633
 20
125.4407450126
 10
192.1458244889
 20
125.8667260867
 10
191.7324154377
 20
125.9663378466
  0
ARC
  5
ED
330
1F
100
AcDbEntity
  8
0
  6
HIDDEN
 62
     7
370
     0
100
AcDbCircle
 10
189.597169375
 20
116.1969609856
 30
0.0
 40
10.00000000000001
100
AcDbArc
 50
268.7116533957
 51
67.5748093136
  0
ARC
  5
EE
330
1F
100
AcDbEntity
  8
0
  6
HIDDEN
 62
     7
370
     0
100
AcDbCircle
 10
189.597169375
 20
116.1969609856
 30
0.0
 40
5.000000000000016
100
AcDbArc
 50
67.5748093136
 51
97.5748093136
  0
ARC
  5
EF
330
1F
100
AcDbEntity
  8
0
  6
HIDDEN
 62
     7
370
     0
100
AcDbCircle
 10
189.597169375
 20
116.1969609856
 30
0.0
 40
5.000000000000016
100
AcDbArc
 50
37.5748093136
 51
67.5748093136
  0
CIRCLE
  5
F0
330
1F
100
AcDbEntity
  8
0
  6
HIDDEN
 62
     7
370
     0
100
AcDbCircle
 10
189.597169375
 20
116.1969609856
 30
0.0
 40
6.999999999999996
  0
SPLINE
  5
F1
330
1F
100
AcDbEntity
  8
0
  6
HIDDEN
 62
     7
370
     0
100
AcDbSpline
210
0.0
220
0.0
230
1.0
 70
     8
 71
     3
 72
    12
 73
     8
 74
     0
 42
0.00000001
 43
0.00000001
 40
0.0
 40
0.0
 40
0.0
 40
0.0
 40
0.4181752128611122
 40
0.5636712525968895
 40
0.7121961947457652
 40
0.8637936647585905
 40
1.0
 40
1.0
 40
1.0
 40
1.0
 10
161.5971693749696
 20
107.1969609856263
 30
0.0
 10
162.1712587110869
 20
107.2268506074348
 30
0.0
 10
162.945091413838
 20
107.2671397495127
 30
0.0
 10
163.8950040959438
 20
107.488620168146
 30
0.0
 10
164.4773671790113
 20
107.6642425041635
 30
0.0
 10
165.0376137351636
 20
107.8677634884699
 30
0.0
 10
165.3874704090728
 20
108.04345099331
 30
0.0
 10
165.553043950989
 20
108.1265970488698
 30
0.0
  0
SPLINE
  5
F2
330
1F
100
AcDbEntity
  8
0
  6
HIDDEN
 62
     7
370
     0
100
AcDbSpline
210
0.0
220
0.0
230
1.0
 70
     8
 71
     3
 72
    15
 73
    11
 74
     0
 42
0.00000001
 43
0.00000001
 40
0.0
 40
0.0
 40
0.0
 40
0.0
 40
0.0627473438645754
 40
0.2911200087293369
 40
0.4988993894160336
 40
0.7065755340174315
 40
0.7804537072726035
 40
0.8566478611291296
 40
0.9351784591825156
 40
1.0
 40
1.0
 40
1.0
 40
1.0
 10
165.5113807512913
 20
124.294451866758
 30
0.0
 10
165.3590212131392
 20
124.3673347551057
 30
0.0
 10
164.6521401350716
 20
124.7054792212331
 30
0.0
 10
163.3436175688278
 20
125.0814132889284
 30
0.0
 10
161.5990394506307
 20
125.2513147363878
 30
0.0
 10
160.2692451023792
 20
125.1243682973053
 30
0.0
 10
159.3246508609516
 20
124.9128464874308
 30
0.0
 10
158.7332483704935
 20
124.7350071396063
 30
0.0
 10
158.1748172623242
 20
124.534258256276
 30
0.0
 10
157.830206441545
 20
124.3606079418618
 30
0.0
 10
157.6743789487624
 20
124.2820860514147
 30
0.0
  0
SPLINE
  5
F3
330
1F
100
AcDbEntity
  8
0
  6
HIDDEN
 62
     7
370
     0
100
AcDbSpline
210
0.0
220
0.0
230
1.0
 70
     8
 71
     3
 72
    10
 73
     6
 74
     0
 42
0.00000001
 43
0.00000001
 40
0.0
 40
0.0
 40
0.0
 40
0.0
 40
0.1322270529460682
 40
0.5795657215561972
 40
1.0
 40
1.0
 40
1.0
 40
1.0
 10
157.6523038948372
 20
108.1127572480875
 30
0.0
 10
157.8138800835744
 20
108.0358548909455
 30
0.0
 10
158.5220862964886
 20
107.698783398287
 30
0.0
 10
159.8395022400824
 20
107.2973834007618
 30
0.0
 10
161.0235167056056
 20
107.2297360118887
 30
0.0
 10
161.5971693749696
 20
107.1969609856263
 30
0.0
  0
SPLINE
  5
F4
330
1F
100
AcDbEntity
  8
0
  6
HIDDEN
 62
     7
370
     0
100
AcDbSpline
210
0.0
220
0.0
230
1.0
 70
     8
 71
     3
 72
    17
 73
    13
 74
     0
 42
0.00000001
 43
0.00000001
 40
0.0
 40
0.0
 40
0.0
 40
0.0
 40
0.1053392772264273
 40
0.210681304071259
 40
0.315995083403449
 40
0.4213109085495702
 40
0.5271122414081073
 40
0.6329070426713783
 40
0.7383493350012629
 40
0.843781170585472
 40
0.9472974158014197
 40
1.0
 40
1.0
 40
1.0
 40
1.0
 10
164.5971693749695
 20
106.2993480011779
 30
0.0
 10
164.0378623304655
 20
106.3262301131047
 30
0.0
 10
162.9192336421457
 20
106.3799950386485
 30
0.0
 10
161.2884074314925
 20
106.8004668474686
 30
0.0
 10
159.7536786733875
 20
107.4662726959277
 30
0.0
 10
158.3507747604662
 20
108.3774103941469
 30
0.0
 10
157.1250133547158
 20
109.5150479803276
 30
0.0
 10
156.1057246827409
 20
110.8427529302185
 30
0.0
 10
155.3270953294958
 20
112.3294599637028
 30
0.0
 10
154.8212913331456
 20
113.917317307178
 30
0.0
 10
154.58661894615
 20
115.2972320211727
 30
0.0
 10
154.6219990881181
 20
116.126248532104
 30
0.0
 10
154.6339350686783
 20
116.4059287257984
 30
0.0
  0
LWPOLYLINE
  5
F5
330
1F
100
AcDbEntity
  8
0
  6
HIDDEN
 62
     7
370
     0
100
AcDbPolyline
 90
       31
 70
   128
 43
0.0
 10
154.6408887128
 20
116.7741330147
 10
154.6492013642
 20
117.2142984618
 10
154.9460904892
 20
118.8084556301
 10
155.4953696426
 20
120.3297509623
 10
156.2905565954
 20
121.7432212843
 10
157.304644427
 20
123.0045773493
 10
158.5385065385
 20
124.0982876658
 10
159.9388537908
 20
124.9737261632
 10
161.4884822379
 20
125.6120814151
 10
163.1265720892
 20
125.989041248
 10
164.8010791679
 20
126.0916176317
 10
166.4697919759
 20
125.9228306228
 10
168.0771586922
 20
125.485950089
 10
169.5872777779
 20
124.795123498
 10
170.9635377841
 20
123.8586543935
 10
172.1620732306
 20
122.7062668594
 10
173.1498761508
 20
121.3603239705
 10
173.8980846049
 20
119.8632082024
 10
174.3770101587
 20
118.2764332059
 10
174.5877552185
 20
116.6286793016
 10
174.5240506897
 20
114.9993040871
 10
174.1980343542
 20
113.4038740161
 10
173.617966202
 20
111.8937074571
 10
172.8023072973
 20
110.5020190723
 10
171.7522085229
 20
109.2491043887
 10
170.5094969493
 20
108.1871967778
 10
169.0790682463
 20
107.332755191
 10
167.5225854823
 20
106.724394319
 10
166.0763100836
 20
106.4066987383
 10
164.597169375
 20
106.2993480012
 10
164.597169375
 20
106.2993480012
  0
SPLINE
  5
F6
330
1F
100
AcDbEntity
  8
0
  6
HIDDEN
 62
     7
370
     0
100
AcDbSpline
210
0.0
220
0.0
230
1.0
 70
     8
 71
     3
 72
    12
 73
     8
 74
     0
 42
0.00000001
 43
0.00000001
 40
0.0
 40
0.0
 40
0.0
 40
0.0
 40
0.4181752128631981
 40
0.5636712525988514
 40
0.7121961947471893
 40
0.8637936647590713
 40
1.0
 40
1.0
 40
1.0
 40
1.0
 10
189.5971693749695
 20
107.1969609856263
 30
0.0
 10
190.1712587110895
 20
107.226850607435
 30
0.0
 10
190.9450914138429
 20
107.2671397495132
 30
0.0
 10
191.8950040959498
 20
107.4886201681476
 30
0.0
 10
192.4773671790148
 20
107.6642425041648
 30
0.0
 10
193.0376137351641
 20
107.8677634884703
 30
0.0
 10
193.3874704090715
 20
108.0434509933092
 30
0.0
 10
193.553043950987
 20
108.1265970488686
 30
0.0
  0
SPLINE
  5
F7
330
1F
100
AcDbEntity
  8
0
  6
HIDDEN
 62
     7
370
     0
100
AcDbSpline
210
0.0
220
0.0
230
1.0
 70
     8
 71
     3
 72
    15
 73
    11
 74
     0
 42
0.00000001
 43
0.00000001
 40
0.0
 40
0.0
 40
0.0
 40
0.0
 40
0.0627473438649225
 40
0.2911200087304148
 40
0.4988993894177788
 40
0.7065755340269313
 40
0.7804537072815523
 40
0.8566478611359556
 40
0.9351784591856577
 40
1.0
 40
1.0
 40
1.0
 40
1.0
 10
193.511380751292
 20
124.2944518667565
 30
0.0
 10
193.3590212131396
 20
124.3673347551047
 30
0.0
 10
192.6521401350724
 20
124.705479221234
 30
0.0
 10
191.3436175688276
 20
125.0814132889281
 30
0.0
 10
189.5990394506116
 20
125.2513147363898
 30
0.0
 10
188.2692451023426
 20
125.124368297301
 30
0.0
 10
187.3246508609058
 20
124.9128464874187
 30
0.0
 10
186.7332483704672
 20
124.7350071395966
 30
0.0
 10
186.1748172623226
 20
124.5342582562757
 30
0.0
 10
185.8302064415624
 20
124.3606079418677
 30
0.0
 10
185.6743789487884
 20
124.2820860514235
 30
0.0
  0
SPLINE
  5
F8
330
1F
100
AcDbEntity
  8
0
  6
HIDDEN
 62
     7
370
     0
100
AcDbSpline
210
0.0
220
0.0
230
1.0
 70
     8
 71
     3
 72
    10
 73
     6
 74
     0
 42
0.00000001
 43
0.00000001
 40
0.0
 40
0.0
 40
0.0
 40
0.0
 40
0.1322270529451861
 40
0.5795657215518665
 40
1.0
 40
1.0
 40
1.0
 40
1.0
 10
185.6523038948413
 20
108.1127572480863
 30
0.0
 10
185.8138800835771
 20
108.0358548909447
 30
0.0
 10
186.5220862964848
 20
107.6987833982882
 30
0.0
 10
187.839502240077
 20
107.2973834007632
 30
0.0
 10
189.0235167056003
 20
107.2297360118893
 30
0.0
 10
189.5971693749695
 20
107.1969609856263
 30
0.0
  0
LINE
  5
F9
330
1F
100
AcDbEntity
  8
0
  6
HIDDEN
 62
     7
370
     0
100
AcDbLine
 10
117.7052365435
 20
140.655650648
 30
0.0
 11
117.7052365435
 21
136.0469609856
 31
0.0
  0
ARC
  5
FA
330
1F
100
AcDbEntity
  8
0
  6
HIDDEN
 62
     7
370
     0
100
AcDbCircle
 10
111.3895738172
 20
128.6849802893
 30
0.0
 40
3.669772578114207
100
AcDbArc
 50
265.4298751957
 51
12.1542842674
  0
ARC
  5
FB
330
1F
100
AcDbEntity
  8
0
  6
HIDDEN
 62
     7
370
     0
100
AcDbCircle
 10
110.8234233652
 20
128.6960444025
 30
0.0
 40
3.679366396507297
100
AcDbArc
 50
166.6222003664
 51
274.266766474
  0
LINE
  5
FC
330
1F
100
AcDbEntity
  8
0
  6
HIDDEN
 62
     7
370
     0
100
AcDbLine
 10
91.0923195795
 20
92.6723613628
 30
0.0
 11
90.5581741504
 21
92.6177467633
 31
0.0
  0
LINE
  5
FD
330
1F
100
AcDbEntity
  8
0
  6
HIDDEN
 62
     7
370
     0
100
AcDbLine
 10
90.3205204784
 20
139.8002941661
 30
0.0
 11
91.0922268593
 21
139.7215440156
 31
0.0
  0
SPLINE
  5
FE
330
1F
100
AcDbEntity
  8
0
  6
HIDDEN
 62
     7
370
     0
100
AcDbSpline
210
0.0
220
0.0
230
1.0
 70
     8
 71
     3
 72
    15
 73
    11
 74
     0
 42
0.00000001
 43
0.00000001
 40
0.0
 40
0.0
 40
0.0
 40
0.0
 40
0.1409172169897705
 40
0.2818898291171906
 40
0.4212989265166057
 40
0.5593768372264388
 40
0.6988856205980569
 40
0.8403671979046411
 40
0.981316445467027
 40
1.0
 40
1.0
 40
1.0
 40
1.0
 10
96.85217137657109
 20
96.35943250980982
 30
0.0
 10
96.53612969029854
 20
96.39978632713144
 30
0.0
 10
95.90392208046653
 20
96.48050982502627
 30
0.0
 10
94.66975895878929
 20
96.55706492262854
 30
0.0
 10
93.39903695793078
 20
96.5523888714895
 30
0.0
 10
92.21047755290331
 20
96.4715928597573
 30
0.0
 10
91.21735488012229
 20
96.34719606324553
 30
0.0
 10
90.57794587382567
 20
96.24079252458343
 30
0.0
 10
90.29692576724214
 20
96.18771186390626
 30
0.0
 10
90.36348650493532
 20
96.19996790392051
 30
0.0
 10
90.37127682845356
 20
96.20140236093035
 30
0.0
  0
SPLINE
  5
FF
330
1F
100
AcDbEntity
  8
0
  6
HIDDEN
 62
     7
370
     0
100
AcDbSpline
210
0.0
220
0.0
230
1.0
 70
     8
 71
     3
 72
    15
 73
    11
 74
     0
 42
0.00000001
 43
0.00000001
 40
0.0
 40
0.0
 40
0.0
 40
0.0
 40
0.1201202395113831
 40
0.2584739316900695
 40
0.3987301965958642
 40
0.5404022890432704
 40
0.680739540300365
 40
0.819035606386088
 40
0.9577823106998845
 40
1.0
 40
1.0
 40
1.0
 40
1.0
 10
90.37127682845356
 20
136.1925196103222
 30
0.0
 10
90.39198596492402
 20
136.1884950164686
 30
0.0
 10
90.43654774691181
 20
136.1798349222078
 30
0.0
 10
90.99898735278452
 20
136.0805437955991
 30
0.0
 10
91.89244956510586
 20
135.9566262056178
 30
0.0
 10
93.05142871929804
 20
135.8569157687963
 30
0.0
 10
94.32446559942339
 20
135.8297772797207
 30
0.0
 10
95.558750874067
 20
135.8851161138847
 30
0.0
 10
96.38671367083302
 20
135.9715947128688
 30
0.0
 10
96.76412421549698
 20
136.0225921311587
 30
0.0
 10
96.85217137657112
 20
136.0344894614427
 30
0.0
  0
SPLINE
  5
100
330
1F
100
AcDbEntity
  8
0
  6
HIDDEN
 62
     7
370
     0
100
AcDbSpline
210
0.0
220
0.0
230
1.0
 70
     8
 71
     3
 72
    10
 73
     6
 74
     0
 42
0.00000001
 43
0.00000001
 40
0.0
 40
0.0
 40
0.0
 40
0.0
 40
0.44762344946911
 40
0.8952301383940572
 40
1.0
 40
1.0
 40
1.0
 40
1.0
 10
96.85217137657109
 20
136.0344894614427
 30
0.0
 10
97.09887444971753
 20
136.0640018121108
 30
0.0
 10
97.59227135860836
 20
136.1230254084042
 30
0.0
 10
97.88128411837961
 20
136.1369634734945
 30
0.0
 10
97.82093781598476
 20
136.1330740878611
 30
0.0
 10
97.80949186712205
 20
136.1323363838544
 30
0.0
  0
SPLINE
  5
101
330
1F
100
AcDbEntity
  8
0
  6
HIDDEN
 62
     7
370
     0
100
AcDbSpline
210
0.0
220
0.0
230
1.0
 70
     8
 71
     3
 72
    10
 73
     6
 74
     0
 42
0.00000001
 43
0.00000001
 40
0.0
 40
0.0
 40
0.0
 40
0.0
 40
0.3455735659947693
 40
0.7967277041181153
 40
1.0
 40
1.0
 40
1.0
 40
1.0
 10
97.8094849665021
 20
96.26158605648533
 30
0.0
 10
97.79992522130904
 20
96.26214158320798
 30
0.0
 10
97.77788501167178
 20
96.26342236268263
 30
0.0
 10
97.36090083503024
 20
96.29338279506688
 30
0.0
 10
96.97273889218039
 20
96.3437789047731
 30
0.0
 10
96.85217137657109
 20
96.35943250980982
 30
0.0
  0
LINE
  5
102
330
1F
100
AcDbEntity
  8
0
  6
HIDDEN
 62
     7
370
     0
100
AcDbLine
 10
84.1011439712
 20
99.1969609856
 30
0.0
 11
84.1011439712
 21
133.1969609856
 31
0.0
  0
LWPOLYLINE
  5
103
330
1F
100
AcDbEntity
  8
0
  6
HIDDEN
 62
     7
370
     0
100
AcDbPolyline
 90
       13
 70
   128
 43
0.0
 10
111.097169375
 20
138.1425634003
 10
111.9288161382
 20
138.1862681988
 10
112.7241159473
 20
138.315472485
 10
113.4483103841
 20
138.5245294115
 10
114.0697486769
 20
138.8043021875
 10
114.5612709901
 20
139.1425634003
 10
114.9013954402
 20
139.5245294115
 10
115.0752569564
 20
139.9335064737
 10
115.0752569564
 20
140.3516203268
 10
114.9013954402
 20
140.760597389
 10
114.5612709901
 20
141.1425634003
 10
114.0697486769
 20
141.480824613
 10
113.4623187178
 20
141.7554853285
  0
LWPOLYLINE
  5
104
330
1F
100
AcDbEntity
  8
0
  6
HIDDEN
 62
     7
370
     0
100
AcDbPolyline
 90
       13
 70
   128
 43
0.0
 10
108.724908006
 20
141.7528720661
 10
108.1245900731
 20
141.480824613
 10
107.6330677598
 20
141.1425634003
 10
107.2929433098
 20
140.760597389
 10
107.1190817935
 20
140.3516203268
 10
107.1190817935
 20
139.9335064737
 10
107.2929433098
 20
139.5245294115
 10
107.6330677598
 20
139.1425634003
 10
108.1245900731
 20
138.8043021875
 10
108.7460283658
 20
138.5245294115
 10
109.4702228027
 20
138.315472485
 10
110.2655226117
 20
138.1862681988
 10
111.097169375
 20
138.1425634003
  0
SPLINE
  5
105
330
1F
100
AcDbEntity
  8
0
  6
HIDDEN
 62
     7
370
     0
100
AcDbSpline
210
0.0
220
0.0
230
1.0
 70
     8
 71
     3
 72
    11
 73
     7
 74
     0
 42
0.00000001
 43
0.00000001
 40
0.0
 40
0.0
 40
0.0
 40
0.0
 40
0.0005779865010846
 40
0.0005779865010846
 40
0.0005779865010846
 40
0.0011559733324422
 40
0.0011559733324422
 40
0.0011559733324422
 40
0.0011559733324422
 10
71.1971693749695
 20
118.1968015937862
 30
0.0
 10
71.36383662977546
 20
118.1948179544455
 30
0.0
 10
71.53050305945314
 20
118.1927803474373
 30
0.0
 10
71.69716939790496
 20
118.1906688840312
 30
0.0
 10
71.86383582673136
 20
118.1885574194801
 30
0.0
 10
72.03050220036906
 20
118.186371856324
 30
0.0
 10
72.19716937496949
 20
118.1840892789927
 30
0.0
  0
SPLINE
  5
106
330
1F
100
AcDbEntity
  8
0
  6
HIDDEN
 62
     7
370
     0
100
AcDbSpline
210
0.0
220
0.0
230
1.0
 70
     8
 71
     3
 72
    11
 73
     7
 74
     0
 42
0.00000001
 43
0.00000001
 40
0.0
 40
0.0
 40
0.0
 40
0.0
 40
0.0005782382535738
 40
0.0005782382535738
 40
0.0005782382535738
 40
0.0011564766069467
 40
0.0011564766069467
 40
0.0011564766069467
 40
0.0011564766069467
 10
72.1971693749695
 20
114.2002606834081
 30
0.0
 10
72.03051542100087
 20
114.1998231056464
 30
0.0
 10
71.8638547487989
 20
114.199343040974
 30
0.0
 10
71.69718786013348
 20
114.1988235016047
 30
0.0
 10
71.53052094173744
 20
114.1983039621427
 30
0.0
 10
71.36384781190421
 20
114.1977451331207
 30
0.0
 10
71.19716937496949
 20
114.1971595895376
 30
0.0
  0
LINE
  5
107
330
1F
100
AcDbEntity
  8
0
  6
HIDDEN
 62
     7
370
     0
100
AcDbLine
 10
110.7569953435
 20
99.1969609856
 30
0.0
 11
110.7569953435
 21
133.1969609856
 31
0.0
  0
LINE
  5
108
330
1F
100
AcDbEntity
  8
0
  6
HIDDEN
 62
     7
370
     0
100
AcDbLine
 10
113.047169375
 20
100.4719609856
 30
0.0
 11
113.047169375
 21
131.9219609578
 31
0.0
  0
SPLINE
  5
109
330
1F
100
AcDbEntity
  8
0
  6
HIDDEN
 62
     7
370
     0
100
AcDbSpline
210
0.0
220
0.0
230
1.0
 70
     8
 71
     3
 72
    16
 73
    12
 74
     0
 42
0.00000001
 43
0.00000001
 40
0.0
 40
0.0
 40
0.0
 40
0.0
 40
0.124999999999998
 40
0.124999999999998
 40
0.249999999999996
 40
0.249999999999996
 40
0.4999999999999973
 40
0.4999999999999973
 40
0.7499999999999987
 40
0.7499999999999987
 40
1.0
 40
1.0
 40
1.0
 40
1.0
 10
79.89716937496951
 20
100.3954705495946
 30
0.0
 10
79.99229112963532
 20
100.3954705495946
 30
0.0
 10
80.0856211983634
 20
100.3916547162018
 30
0.0
 10
80.2688829591014
 20
100.376884163472
 30
0.0
 10
80.35976067465842
 20
100.3657261154964
 30
0.0
 10
80.61656237217815
 20
100.3232548453547
 30
0.0
 10
80.77162973705015
 20
100.2822086481519
 30
0.0
 10
81.02537619860476
 20
100.18706253157
 30
0.0
 10
81.12624665027262
 20
100.1322997974884
 30
0.0
 10
81.26149306496747
 20
100.0210386735846
 30
0.0
 10
81.2971693749695
 20
99.96386893625588
 30
0.0
 10
81.2971693749695
 20
99.90944736322216
 30
0.0
  0
SPLINE
  5
10A
330
1F
100
AcDbEntity
  8
0
  6
HIDDEN
 62
     7
370
     0
100
AcDbSpline
210
0.0
220
0.0
230
1.0
 70
     8
 71
     3
 72
     8
 73
     4
 74
     0
 42
0.00000001
 43
0.00000001
 40
0.0
 40
0.0
 40
0.0
 40
0.0
 40
1.0
 40
1.0
 40
1.0
 40
1.0
 10
72.49716937825033
 20
102.5402734956768
 30
0.0
 10
72.49716937825227
 20
101.6563763533599
 30
0.0
 10
72.48368875234284
 20
100.941793108298
 30
0.0
 10
72.48233738415355
 20
100.3954705495946
 30
0.0
  0
LINE
  5
10B
330
1F
100
AcDbEntity
  8
0
  6
HIDDEN
 62
     7
370
     0
100
AcDbLine
 10
72.197169375
 20
106.5961341934
 30
0.0
 11
72.197169375
 21
103.5651837613
 31
0.0
  0
SPLINE
  5
10C
330
1F
100
AcDbEntity
  8
0
  6
HIDDEN
 62
     7
370
     0
100
AcDbSpline
210
0.0
220
0.0
230
1.0
 70
     8
 71
     3
 72
    10
 73
     6
 74
     0
 42
0.00000001
 43
0.00000001
 40
0.0
 40
0.0
 40
0.0
 40
0.0
 40
0.5
 40
0.5
 40
1.0
 40
1.0
 40
1.0
 40
1.0
 10
72.4971693780547
 20
107.9639746099834
 30
0.0
 10
72.49716937805469
 20
107.7219906424121
 30
0.0
 10
72.46901934899438
 20
107.4876482134801
 30
0.0
 10
72.36542943488907
 20
107.032273191264
 30
0.0
 10
72.28880072532402
 20
106.8106686281863
 30
0.0
 10
72.19716937496949
 20
106.5961341934135
 30
0.0
  0
LINE
  5
10D
330
1F
100
AcDbEntity
  8
0
  6
HIDDEN
 62
     7
370
     0
100
AcDbLine
 10
72.4971693781
 20
119.8015946072
 30
0.0
 11
72.4971693781
 21
107.9639746099
 31
0.0
  0
SPLINE
  5
10E
330
1F
100
AcDbEntity
  8
0
  6
HIDDEN
 62
     7
370
     0
100
AcDbSpline
210
0.0
220
0.0
230
1.0
 70
     8
 71
     3
 72
     8
 73
     4
 74
     0
 42
0.00000001
 43
0.00000001
 40
0.0
 40
0.0
 40
0.0
 40
0.0
 40
1.0
 40
1.0
 40
1.0
 40
1.0
 10
72.1971693749695
 20
125.8039003065068
 30
0.0
 10
72.37820084146881
 20
125.3717928208965
 30
0.0
 10
72.49716937806043
 20
124.9176474148569
 30
0.0
 10
72.49716937805472
 20
124.4299473612382
 30
0.0
  0
LINE
  5
10F
330
1F
100
AcDbEntity
  8
0
  6
HIDDEN
 62
     7
370
     0
100
AcDbLine
 10
72.197169375
 20
128.8371032927
 30
0.0
 11
72.197169375
 21
125.8039003065
 31
0.0
  0
SPLINE
  5
110
330
1F
100
AcDbEntity
  8
0
  6
HIDDEN
 62
     7
370
     0
100
AcDbSpline
210
0.0
220
0.0
230
1.0
 70
     8
 71
     3
 72
    10
 73
     6
 74
     0
 42
0.00000001
 43
0.00000001
 40
0.0
 40
0.0
 40
0.0
 40
0.0
 40
0.5
 40
0.5
 40
1.0
 40
1.0
 40
1.0
 40
1.0
 10
72.49716937836189
 20
129.8536484755461
 30
0.0
 10
72.4971693783601
 20
129.689012128941
 30
0.0
 10
72.47001070760508
 20
129.5218569051113
 30
0.0
 10
72.36424571228775
 20
129.1832338973115
 30
0.0
 10
72.28783092398935
 20
129.0109621200174
 30
0.0
 10
72.19716937496952
 20
128.8371032926743
 30
0.0
  0
SPLINE
  5
111
330
1F
100
AcDbEntity
  8
0
  6
HIDDEN
 62
     7
370
     0
100
AcDbSpline
210
0.0
220
0.0
230
1.0
 70
     8
 71
     3
 72
    18
 73
    14
 74
     0
 42
0.00000001
 43
0.00000001
 40
0.0
 40
0.0
 40
0.0
 40
0.0
 40
0.2500000000000033
 40
0.2500000000000033
 40
0.3750000000000029
 40
0.3750000000000029
 40
0.5000000000000026
 40
0.5000000000000026
 40
0.6250000000000022
 40
0.6250000000000022
 40
0.7500000000000018
 40
0.7500000000000018
 40
1.0
 40
1.0
 40
1.0
 40
1.0
 10
77.2971693749695
 20
132.4844746080304
 30
0.0
 10
77.2971693749695
 20
132.4300000874782
 30
0.0
 10
77.26225868357733
 20
132.3736190281257
 30
0.0
 10
77.16024938224427
 20
132.2895421872722
 30
0.0
 10
77.11861302756617
 20
132.2622084832813
 30
0.0
 10
77.02020723207742
 20
132.2092545676823
 30
0.0
 10
76.96266402037314
 20
132.1833672139652
 30
0.0
 10
76.83536584680019
 20
132.1355896691319
 30
0.0
 10
76.76577854204272
 20
132.113641750954
 30
0.0
 10
76.61434429688777
 20
132.0742091860413
 30
0.0
 10
76.53166039379381
 20
132.0566529368155
 30
0.0
 10
76.27554893175576
 20
132.0142141713949
 30
0.0
 10
76.08763392786778
 20
131.998451421658
 30
0.0
 10
75.8971693749695
 20
131.998451421658
 30
0.0
  0
LINE
  5
112
330
1F
100
AcDbEntity
  8
0
  6
HIDDEN
 62
     7
370
     0
100
AcDbLine
 10
75.897169375
 20
131.9984514217
 30
0.0
 11
72.4971693784
 21
131.9984514217
 31
0.0
  0
LINE
  5
113
330
1F
100
AcDbEntity
  8
0
  6
HIDDEN
 62
     7
370
     0
100
AcDbLine
 10
72.4282003883
 20
100.3954705496
 30
0.0
 11
79.897169375
 21
100.3954705496
 31
0.0
  0
SPLINE
  5
114
330
1F
100
AcDbEntity
  8
0
  6
HIDDEN
 62
     7
370
     0
100
AcDbSpline
210
0.0
220
0.0
230
1.0
 70
     8
 71
     3
 72
    22
 73
    18
 74
     0
 42
0.00000001
 43
0.00000001
 40
0.0
 40
0.0
 40
0.0
 40
0.0
 40
0.125
 40
0.125
 40
0.25
 40
0.25
 40
0.5000000000000001
 40
0.5000000000000001
 40
0.5625000000000001
 40
0.5625000000000001
 40
0.6250000000000001
 40
0.6250000000000001
 40
0.75
 40
0.75
 40
0.875
 40
0.875
 40
1.0
 40
1.0
 40
1.0
 40
1.0
 10
72.4282003883274
 20
100.3954705495946
 30
0.0
 10
72.41511799559902
 20
100.6505762597423
 30
0.0
 10
72.40189843215919
 20
100.9437345188462
 30
0.0
 10
72.37945125436508
 20
101.606034984471
 30
0.0
 10
72.36997278734063
 20
101.9763089050824
 30
0.0
 10
72.35077482640412
 20
103.1988657081962
 30
0.0
 10
72.351888599401
 20
104.136004634328
 30
0.0
 10
72.37079939235406
 20
105.455875863843
 30
0.0
 10
72.37542892021305
 20
105.7273777728193
 30
0.0
 10
72.385910139959
 20
106.2857626076216
 30
0.0
 10
72.39170540124343
 20
106.5728854635612
 30
0.0
 10
72.41001462214835
 20
107.4454747179329
 30
0.0
 10
72.42404955642873
 20
108.0459303942888
 30
0.0
 10
72.45350672856557
 20
109.2834048867849
 30
0.0
 10
72.46906241954713
 20
109.9204210434283
 30
0.0
 10
72.49285696954402
 20
111.2319096411129
 30
0.0
 10
72.50087602168938
 20
111.9080322527734
 30
0.0
 10
72.4971693749695
 20
112.5923273640582
 30
0.0
  0
LINE
  5
115
330
1F
100
AcDbEntity
  8
0
  6
HIDDEN
 62
     7
370
     0
100
AcDbLine
 10
72.4971693784
 20
119.8015946072
 30
0.0
 11
72.4971693784
 21
131.9984514217
 31
0.0
  0
SPLINE
  5
116
330
1F
100
AcDbEntity
  8
0
  6
HIDDEN
 62
     7
370
     0
100
AcDbSpline
210
0.0
220
0.0
230
1.0
 70
     8
 71
     3
 72
    10
 73
     6
 74
     0
 42
0.00000001
 43
0.00000001
 40
0.0
 40
0.0
 40
0.0
 40
0.0
 40
0.5
 40
0.5
 40
1.0
 40
1.0
 40
1.0
 40
1.0
 10
72.49716937496949
 20
112.5923273640431
 30
0.0
 10
72.49716937496932
 20
112.8662425121172
 30
0.0
 10
72.47141014510049
 20
113.1371840908468
 30
0.0
 10
72.36820421236708
 20
113.672875172449
 30
0.0
 10
72.29086604849266
 20
113.9386219759707
 30
0.0
 10
72.19716937496949
 20
114.2002606834081
 30
0.0
  0
SPLINE
  5
117
330
1F
100
AcDbEntity
  8
0
  6
HIDDEN
 62
     7
370
     0
100
AcDbSpline
210
0.0
220
0.0
230
1.0
 70
     8
 71
     3
 72
    10
 73
     6
 74
     0
 42
0.00000001
 43
0.00000001
 40
0.0
 40
0.0
 40
0.0
 40
0.0
 40
0.5
 40
0.5
 40
1.0
 40
1.0
 40
1.0
 40
1.0
 10
72.1971693749695
 20
118.1840892789927
 30
0.0
 10
72.29039995636026
 20
118.4479830870625
 30
0.0
 10
72.36542956859684
 20
118.7141633977005
 30
0.0
 10
72.47049666777468
 20
119.252485972658
 30
0.0
 10
72.49716937836072
 20
119.5252340889033
 30
0.0
 10
72.49716937836192
 20
119.8015946071934
 30
0.0
  0
LINE
  5
118
330
1F
100
AcDbEntity
  8
0
  6
HIDDEN
 62
     7
370
     0
100
AcDbLine
 10
72.197169375
 20
114.2002606834
 30
0.0
 11
72.197169375
 21
118.184089279
 31
0.0
  0
LINE
  5
119
330
1F
100
AcDbEntity
  8
0
  6
HIDDEN
 62
     7
370
     0
100
AcDbLine
 10
150.097169375
 20
100.2969609856
 30
0.0
 11
150.097169375
 21
132.0969609829
 31
0.0
  0
LINE
  5
11A
330
1F
100
AcDbEntity
  8
0
  6
HIDDEN
 62
     7
370
     0
100
AcDbLine
 10
156.097169375
 20
123.32086441
 30
0.0
 11
156.097169375
 21
132.1969609856
 31
0.0
  0
LINE
  5
11B
330
1F
100
AcDbEntity
  8
0
  6
HIDDEN
 62
     7
370
     0
100
AcDbLine
 10
156.097169375
 20
123.32086441
 30
0.0
 11
156.097169375
 21
109.0730575612
 31
0.0
  0
LINE
  5
11C
330
1F
100
AcDbEntity
  8
0
  6
HIDDEN
 62
     7
370
     0
100
AcDbLine
 10
156.097169375
 20
100.1969609856
 30
0.0
 11
156.097169375
 21
109.0730575612
 31
0.0
  0
LINE
  5
11D
330
1F
100
AcDbEntity
  8
0
  6
HIDDEN
 62
     7
370
     0
100
AcDbLine
 10
72.347169375
 20
98.2069609856
 30
0.0
 11
72.347169375
 21
95.3270232202
 31
0.0
  0
LINE
  5
11E
330
1F
100
AcDbEntity
  8
0
  6
HIDDEN
 62
     7
370
     0
100
AcDbLine
 10
81.297169375
 20
98.2069609856
 30
0.0
 11
81.297169375
 21
94.2332234544
 31
0.0
  0
LINE
  5
11F
330
1F
100
AcDbEntity
  8
0
  6
HIDDEN
 62
     7
370
     0
100
AcDbLine
 10
72.347169375
 20
134.1869609856
 30
0.0
 11
72.347169375
 21
137.066898751
 31
0.0
  0
LINE
  5
120
330
1F
100
AcDbEntity
  8
0
  6
HIDDEN
 62
     7
370
     0
100
AcDbLine
 10
77.297169375
 20
134.1869609856
 30
0.0
 11
77.297169375
 21
138.041068658
 31
0.0
  0
LINE
  5
121
330
1F
100
AcDbEntity
  8
0
  6
HIDDEN
 62
     7
370
     0
100
AcDbLine
 10
121.897169375
 20
106.6969609856
 30
0.0
 11
121.897169375
 21
125.6969609856
 31
0.0
  0
LINE
  5
122
330
1F
100
AcDbEntity
  8
0
  6
HIDDEN
 62
     7
370
     0
100
AcDbLine
 10
124.897169375
 20
106.6969609856
 30
0.0
 11
124.897169375
 21
125.6969609856
 31
0.0
  0
LINE
  5
123
330
1F
100
AcDbEntity
  8
0
  6
HIDDEN
 62
     7
370
     0
100
AcDbLine
 10
113.547169375
 20
107.6969609856
 30
0.0
 11
113.547169375
 21
124.6969609856
 31
0.0
  0
LINE
  5
124
330
1F
100
AcDbEntity
  8
0
  6
HIDDEN
 62
     7
370
     0
100
AcDbLine
 10
129.047169375
 20
89.7969609856
 30
0.0
 11
122.9094945726
 21
89.7969609856
 31
0.0
  0
LINE
  5
125
330
1F
100
AcDbEntity
  8
0
  6
HIDDEN
 62
     7
370
     0
100
AcDbLine
 10
119.2848441773
 20
89.7969609856
 30
0.0
 11
116.047169375
 21
89.7969609856
 31
0.0
  0
LINE
  5
126
330
1F
100
AcDbEntity
  8
0
  6
HIDDEN
 62
     7
370
     0
100
AcDbLine
 10
108.047169375
 20
84.7128380028
 30
0.0
 11
108.047169375
 21
89.7969609856
 31
0.0
  0
LINE
  5
127
330
1F
100
AcDbEntity
  8
0
  6
HIDDEN
 62
     7
370
     0
100
AcDbLine
 10
116.047169375
 20
89.7969609856
 30
0.0
 11
108.047169375
 21
89.7969609856
 31
0.0
  0
LINE
  5
128
330
1F
100
AcDbEntity
  8
0
  6
HIDDEN
 62
     7
370
     0
100
AcDbLine
 10
129.047169375
 20
142.5969609856
 30
0.0
 11
122.6128718433
 21
142.5969609856
 31
0.0
  0
LINE
  5
129
330
1F
100
AcDbEntity
  8
0
  6
HIDDEN
 62
     7
370
     0
100
AcDbLine
 10
119.5814669067
 20
142.5969609856
 30
0.0
 11
116.047169375
 21
142.5969609856
 31
0.0
  0
LINE
  5
12A
330
1F
100
AcDbEntity
  8
0
  6
HIDDEN
 62
     7
370
     0
100
AcDbLine
 10
116.047169375
 20
142.5969609856
 30
0.0
 11
108.047169375
 21
142.5969609856
 31
0.0
  0
SPLINE
  5
12B
330
1F
100
AcDbEntity
  8
0
  6
HIDDEN
 62
     7
370
     0
100
AcDbSpline
210
0.0
220
0.0
230
1.0
 70
     8
 71
     3
 72
    11
 73
     7
 74
     0
 42
0.00000001
 43
0.00000001
 40
0.0
 40
0.0
 40
0.0
 40
0.0
 40
0.0008203708524183
 40
0.0008203708524183
 40
0.0008203708524183
 40
0.0016409967870154
 40
0.0016409967870154
 40
0.0016409967870154
 40
0.0016409967870154
 10
72.3471693749695
 20
100.3449282349836
 30
0.0
 10
72.15601107467084
 20
100.3037492063644
 30
0.0
 10
71.96458400459865
 20
100.2649952341344
 30
0.0
 10
71.77293838107802
 20
100.2286274748559
 30
0.0
 10
71.58123297599755
 20
100.1922483710898
 30
0.0
 10
71.3892940239386
 20
100.1582541203223
 30
0.0
 10
71.19716937686779
 20
100.1266059949311
 30
0.0
  0
ELLIPSE
  5
12C
330
1F
100
AcDbEntity
  8
0
  6
HIDDEN
 62
     7
370
     0
100
AcDbEllipse
 10
66.9547375064
 20
116.1969609856
 30
0.0
 11
20.19992453367506
 21
-1.421085471520200E-14
 31
0.0
210
0.0
220
0.0
230
1.0
 40
0.8164965809
 41
1.300566354717479
 42
1.359198697209065
  0
LINE
  5
12D
330
1F
100
AcDbEntity
  8
0
  6
HIDDEN
 62
     7
370
     0
100
AcDbLine
 10
72.347169375
 20
98.2069609856
 30
0.0
 11
72.347169375
 21
100.344928235
 31
0.0
  0
LINE
  5
12E
330
1F
100
AcDbEntity
  8
0
  6
HIDDEN
 62
     7
370
     0
100
AcDbLine
 10
72.4282003883
 20
100.3954705496
 30
0.0
 11
72.347169375
 21
100.344928235
 31
0.0
  0
LINE
  5
12F
330
1F
100
AcDbEntity
  8
0
  6
HIDDEN
 62
     7
370
     0
100
AcDbLine
 10
81.297169375
 20
98.2069609856
 30
0.0
 11
81.297169375
 21
99.9094473632
 31
0.0
  0
LINE
  5
130
330
1F
100
AcDbEntity
  8
0
  6
HIDDEN
 62
     7
370
     0
100
AcDbLine
 10
77.297169375
 20
134.1869609856
 30
0.0
 11
77.297169375
 21
132.484474608
 31
0.0
  0
LINE
  5
131
330
1F
100
AcDbEntity
  8
0
  6
HIDDEN
 62
     7
370
     0
100
AcDbLine
 10
72.347169375
 20
134.1869609856
 30
0.0
 11
72.347169375
 21
132.0915854367
 31
0.0
  0
SPLINE
  5
132
330
1F
100
AcDbEntity
  8
0
  6
HIDDEN
 62
     7
370
     0
100
AcDbSpline
210
0.0
220
0.0
230
1.0
 70
     8
 71
     3
 72
     8
 73
     4
 74
     0
 42
0.00000001
 43
0.00000001
 40
0.0
 40
0.0
 40
0.0
 40
0.0
 40
1.0
 40
1.0
 40
1.0
 40
1.0
 10
72.3471693749695
 20
132.0915854366845
 30
0.0
 10
72.39717487391295
 20
132.0605496624655
 30
0.0
 10
72.44717494457709
 20
132.0295050174381
 30
0.0
 10
72.49716937836193
 20
131.998451421658
 30
0.0
  0
SPLINE
  5
133
330
1F
100
AcDbEntity
  8
0
  6
HIDDEN
 62
     7
370
     0
100
AcDbSpline
210
0.0
220
0.0
230
1.0
 70
     8
 71
     3
 72
    20
 73
    16
 74
     0
 42
0.00000001
 43
0.00000001
 40
0.0
 40
0.0
 40
0.0
 40
0.0
 40
0.111952681616744
 40
0.1774704299582533
 40
0.24909040708571
 40
0.3298370711605577
 40
0.3986079515336043
 40
0.4998854509193533
 40
0.613848056083852
 40
0.6790125462589899
 40
0.7495374920122083
 40
0.8296816830025864
 40
0.8981238440573708
 40
0.999532014309631
 40
1.0
 40
1.0
 40
1.0
 40
1.0
 10
97.8459940831961
 20
92.59697142697175
 30
0.0
 10
97.80267255828171
 20
92.61039998282497
 30
0.0
 10
97.73399810098445
 20
92.63168729409409
 30
0.0
 10
97.28883028004684
 20
92.73499542908479
 30
0.0
 10
96.76227259477011
 20
92.8482985330148
 30
0.0
 10
96.07684739468795
 20
92.97123143837716
 30
0.0
 10
95.18353004341573
 20
93.09326588765104
 30
0.0
 10
94.07017063764607
 20
93.21100219866695
 30
0.0
 10
92.95939656188553
 20
93.22297769948895
 30
0.0
 10
92.0746482599813
 20
93.1959194092601
 30
0.0
 10
91.4074516672346
 20
93.14798734468937
 30
0.0
 10
90.86617916685019
 20
93.09169383234784
 30
0.0
 10
90.47859920892179
 20
93.04661092177872
 30
0.0
 10
90.28466268958523
 20
93.00773774730999
 30
0.0
 10
90.34776515033744
 20
93.01844380462667
 30
0.0
 10
90.34805502237262
 20
93.01849298474716
 30
0.0
  0
LINE
  5
134
330
1F
100
AcDbEntity
  8
0
  6
HIDDEN
 62
     7
370
     0
100
AcDbLine
 10
91.2571812602
 20
93.1292991264
 30
0.0
 11
91.441026606
 21
93.1474884721
 31
0.0
  0
LINE
  5
135
330
1F
100
AcDbEntity
  8
0
  6
HIDDEN
 62
     7
370
     0
100
AcDbLine
 10
91.441023906
 20
139.2463640681
 30
0.0
 11
91.2669506042
 21
139.2635735961
 31
0.0
  0
SPLINE
  5
136
330
1F
100
AcDbEntity
  8
0
  6
HIDDEN
 62
     7
370
     0
100
AcDbSpline
210
0.0
220
0.0
230
1.0
 70
     8
 71
     3
 72
    20
 73
    16
 74
     0
 42
0.00000001
 43
0.00000001
 40
0.0
 40
0.0
 40
0.0
 40
0.0
 40
0.0004986038555857
 40
0.101840652046564
 40
0.1702555572414252
 40
0.2503764321040683
 40
0.3209633681201115
 40
0.386187536812918
 40
0.5002603010526392
 40
0.6012281931016331
 40
0.6697712391809711
 40
0.7502425981216415
 40
0.822050784515071
 40
0.8877215367252291
 40
1.0
 40
1.0
 40
1.0
 40
1.0
 10
90.34810628573145
 20
139.3753594040764
 30
0.0
 10
90.3477966308459
 20
139.3754120135117
 30
0.0
 10
90.28454911460976
 20
139.3861575765987
 30
0.0
 10
90.47774946356526
 20
139.3473021656078
 30
0.0
 10
90.86470084690319
 20
139.302277852383
 30
0.0
 10
91.40570662932387
 20
139.2460151068827
 30
0.0
 10
92.07320716806254
 20
139.1980838612582
 30
0.0
 10
92.95903494213908
 20
139.171010419893
 30
0.0
 10
94.06984154687974
 20
139.1828364170412
 30
0.0
 10
95.18191190530018
 20
139.3002854934594
 30
0.0
 10
96.0730122133795
 20
139.421989881337
 30
0.0
 10
96.75849666395241
 20
139.5448109269584
 30
0.0
 10
97.28648456452964
 20
139.6582491787192
 30
0.0
 10
97.73386851793802
 20
139.7619897346089
 30
0.0
 10
97.80267898467946
 20
139.7834125281081
 30
0.0
 10
97.8460954922594
 20
139.7969294089024
 30
0.0
  0
SPLINE
  5
137
330
1F
100
AcDbEntity
  8
0
  6
HIDDEN
 62
     7
370
     0
100
AcDbSpline
210
0.0
220
0.0
230
1.0
 70
     8
 71
     3
 72
     8
 73
     4
 74
     0
 42
0.00000001
 43
0.00000001
 40
0.0
 40
0.0
 40
0.0
 40
0.0
 40
0.0001590976953043
 40
0.0001590976953043
 40
0.0001590976953043
 40
0.0001590976953043
 10
72.48233738415358
 20
100.3954705495946
 30
0.0
 10
72.43728591366056
 20
100.3674916652771
 30
0.0
 10
72.39222987525706
 20
100.3395201349083
 30
0.0
 10
72.34716937496951
 20
100.3115557955621
 30
0.0
  0
SPLINE
  5
138
330
1F
100
AcDbEntity
  8
0
  6
HIDDEN
 62
     7
370
     0
100
AcDbSpline
210
0.0
220
0.0
230
1.0
 70
     8
 71
     3
 72
    11
 73
     7
 74
     0
 42
0.00000001
 43
0.00000001
 40
0.0
 40
0.0
 40
0.0
 40
0.0
 40
0.000821290931147
 40
0.000821290931147
 40
0.000821290931147
 40
0.0016428257243086
 40
0.0016428257243086
 40
0.0016428257243086
 40
0.0016428257243086
 10
72.34716937496948
 20
100.3115557955621
 30
0.0
 10
72.15602435348734
 20
100.2682696067065
 30
0.0
 10
71.96460601781088
 20
100.2273330970661
 30
0.0
 10
71.77295994314974
 20
100.1887313256764
 30
0.0
 10
71.58125686160814
 20
100.1501180718362
 30
0.0
 10
71.38931173832259
 20
100.1138378625469
 30
0.0
 10
71.19716937496939
 20
100.0798709561922
 30
0.0
  0
LINE
  5
139
330
1F
100
AcDbEntity
  8
0
  6
HIDDEN
 62
     7
370
     0
100
AcDbLine
 10
119.187169375
 20
136.3328276171
 30
0.0
 11
119.187169375
 21
136.0469609856
 31
0.0
  0
LINE
  5
13A
330
1F
100
AcDbEntity
  8
0
  6
HIDDEN
 62
     7
370
     0
100
AcDbLine
 10
123.007169375
 20
136.3573723767
 30
0.0
 11
123.007169375
 21
136.0469609856
 31
0.0
  0
LINE
  5
13B
330
1F
100
AcDbEntity
  8
0
  6
HIDDEN
 62
     7
370
     0
100
AcDbLine
 10
124.4891022065
 20
140.655650648
 30
0.0
 11
124.4891022065
 21
136.0469609856
 31
0.0
  0
SPLINE
  5
13C
330
1F
100
AcDbEntity
  8
0
  6
HIDDEN
 62
     7
370
     0
100
AcDbSpline
210
0.0
220
0.0
230
1.0
 70
     8
 71
     3
 72
    24
 73
    20
 74
     0
 42
0.00000001
 43
0.00000001
 40
0.0
 40
0.0
 40
0.0
 40
0.0
 40
0.249999999999999
 40
0.249999999999999
 40
0.3749999999999983
 40
0.3749999999999983
 40
0.4374999999999987
 40
0.4374999999999987
 40
0.4687499999999975
 40
0.4687499999999975
 40
0.4999999999999963
 40
0.4999999999999963
 40
0.5624999999999984
 40
0.5624999999999984
 40
0.6250000000000006
 40
0.6250000000000006
 40
0.7500000000000001
 40
0.7500000000000001
 40
1.0
 40
1.0
 40
1.0
 40
1.0
 10
71.25983274969292
 20
96.52240844084552
 30
0.0
 10
71.27358586836313
 20
96.59305849883582
 30
0.0
 10
71.291358435769
 20
96.65965661160075
 30
0.0
 10
71.34360952732435
 20
96.73375463183395
 30
0.0
 10
71.36464460290593
 20
96.75501243899551
 30
0.0
 10
71.41754501053435
 20
96.76315836514175
 30
0.0
 10
71.43865068341226
 20
96.76221856174597
 30
0.0
 10
71.48470285209024
 20
96.74120257016862
 30
0.0
 10
71.50307332407363
 20
96.73029376406102
 30
0.0
 10
71.54462495913936
 20
96.69765885311364
 30
0.0
 10
71.56719163189626
 20
96.67616687274226
 30
0.0
 10
71.62997264835627
 20
96.60770092915595
 30
0.0
 10
71.66310240932417
 20
96.56162647095086
 30
0.0
 10
71.72002009580919
 20
96.4766185826162
 30
0.0
 10
71.74420612131294
 20
96.43633828143481
 30
0.0
 10
71.8094140716927
 20
96.32140205496887
 30
0.0
 10
71.84413013188396
 20
96.25081906982186
 30
0.0
 10
71.93734540221483
 20
96.04661331074327
 30
0.0
 10
71.98301793757551
 20
95.9237149284159
 30
0.0
 10
72.02132302107404
 20
95.80684165202833
 30
0.0
  0
SPLINE
  5
13D
330
1F
100
AcDbEntity
  8
0
  6
HIDDEN
 62
     7
370
     0
100
AcDbSpline
210
0.0
220
0.0
230
1.0
 70
     8
 71
     3
 72
    11
 73
     7
 74
     0
 42
0.00000001
 43
0.00000001
 40
0.0
 40
0.0
 40
0.0
 40
0.0
 40
0.0005781862223981
 40
0.0005781862223981
 40
0.0005781862223981
 40
0.0011563724723932
 40
0.0011563724723932
 40
0.0011563724723932
 40
0.0011563724723932
 10
72.19716937496979
 20
128.8371032926791
 30
0.0
 10
72.03050882069412
 20
128.9016328040925
 30
0.0
 10
71.8638455237876
 20
128.9661355079312
 30
0.0
 10
71.69717893995731
 20
129.0306219563646
 30
0.0
 10
71.53051234769819
 20
129.0951084080594
 30
0.0
 10
71.36384248207226
 20
129.1595784167872
 30
0.0
 10
71.19716937496948
 20
129.2240341835196
 30
0.0
  0
SPLINE
  5
13E
330
1F
100
AcDbEntity
  8
0
  6
HIDDEN
 62
     7
370
     0
100
AcDbSpline
210
0.0
220
0.0
230
1.0
 70
     8
 71
     3
 72
    11
 73
     7
 74
     0
 42
0.00000001
 43
0.00000001
 40
0.0
 40
0.0
 40
0.0
 40
0.0
 40
0.0005778746105124
 40
0.0005778746105124
 40
0.0005778746105124
 40
0.0011557494857259
 40
0.0011557494857259
 40
0.0011557494857259
 40
0.0011557494857259
 10
71.19716937496946
 20
103.1697391301364
 30
0.0
 10
71.36383625138279
 20
103.2355512568215
 30
0.0
 10
71.53050297094424
 20
103.3014097369505
 30
0.0
 10
71.69716961899289
 20
103.3673173098727
 30
0.0
 10
71.86383634351155
 20
103.4332249130346
 30
0.0
 10
72.03050303793214
 20
103.4991820214149
 30
0.0
 10
72.19716937496949
 20
103.5651837613296
 30
0.0
  0
SPLINE
  5
13F
330
1F
100
AcDbEntity
  8
0
  6
HIDDEN
 62
     7
370
     0
100
AcDbSpline
210
0.0
220
0.0
230
1.0
 70
     8
 71
     3
 72
    11
 73
     7
 74
     0
 42
0.00000001
 43
0.00000001
 40
0.0000000000000006
 40
0.0000000000000006
 40
0.0000000000000006
 40
0.0000000000000006
 40
0.0005780486062825
 40
0.0005780486062825
 40
0.0005780486062825
 40
0.0011560973514241
 40
0.0011560973514241
 40
0.0011560973514241
 40
0.0011560973514241
 10
71.19716937496948
 20
126.1777754873181
 30
0.0
 10
71.36383923101435
 20
126.1154036257711
 30
0.0
 10
71.53050693509861
 20
126.0530497654415
 30
0.0
 10
71.69717323955227
 20
125.9907302052242
 30
0.0
 10
71.86383958024601
 20
125.928410631456
 30
0.0
 10
72.03050453687482
 20
125.8661254271057
 30
0.0
 10
72.1971693749695
 20
125.8039003065068
 30
0.0
  0
SPLINE
  5
140
330
1F
100
AcDbEntity
  8
0
  6
HIDDEN
 62
     7
370
     0
100
AcDbSpline
210
0.0
220
0.0
230
1.0
 70
     8
 71
     3
 72
    11
 73
     7
 74
     0
 42
0.00000001
 43
0.00000001
 40
0.0
 40
0.0
 40
0.0
 40
0.0
 40
0.0005782401583596
 40
0.0005782401583596
 40
0.0005782401583596
 40
0.0011564805961118
 40
0.0011564805961118
 40
0.0011564805961118
 40
0.0011564805961118
 10
72.1971693749695
 20
106.5961341934135
 30
0.0
 10
72.03051842462058
 20
106.5327087353236
 30
0.0
 10
71.8638588320379
 20
106.4693532116384
 30
0.0
 10
71.69719177960934
 20
106.4060556272576
 30
0.0
 10
71.53052464304554
 20
106.3427580109236
 30
0.0
 10
71.36385003559947
 20
106.2795182159512
 30
0.0
 10
71.19716937496943
 20
106.2163182092797
 30
0.0
  0
CIRCLE
  5
141
330
1F
100
AcDbEntity
  8
0
  6
HIDDEN
 62
     7
370
     0
100
AcDbCircle
 10
110.097169375
 20
116.1969609856
 30
0.0
 40
5.0
  0
LINE
  5
142
330
1F
100
AcDbEntity
  8
0
  6
HIDDEN
 62
     7
370
     0
100
AcDbLine
 10
107.097169375
 20
130.4947961354
 30
0.0
 11
107.097169375
 21
128.5909016285
 31
0.0
  0
LINE
  5
143
330
1F
100
AcDbEntity
  8
0
  6
HIDDEN
 62
     7
370
     0
100
AcDbLine
 10
115.097169375
 20
128.5909016285
 30
0.0
 11
115.097169375
 21
130.4975914914
 31
0.0
  0
LINE
  5
144
330
1F
100
AcDbEntity
  8
0
  6
HIDDEN
 62
     7
370
     0
100
AcDbLine
 10
103.097169375
 20
90.8730298396
 30
0.0
 11
103.1913301505
 21
91.5430185709
 31
0.0
  0
LINE
  5
145
330
1F
100
AcDbEntity
  8
0
  6
HIDDEN
 62
     7
370
     0
100
AcDbLine
 10
103.1913301505
 20
140.8509034004
 30
0.0
 11
103.097169375
 21
141.5208921316
 31
0.0
  0
ARC
  5
146
330
1F
100
AcDbEntity
  8
0
  6
HIDDEN
 62
     7
370
     0
100
AcDbCircle
 10
102.5971626223
 20
91.6265233712
 30
0.0
 40
0.6000067526677242
100
AcDbArc
 50
352.0
 51
0.0
  0
ARC
  5
147
330
1F
100
AcDbEntity
  8
0
  6
HIDDEN
 62
     7
370
     0
100
AcDbCircle
 10
102.5971626223
 20
91.6265233712
 30
0.0
 40
0.6000067526677321
100
AcDbArc
 50
0.0
 51
33.5571153394
  0
ARC
  5
148
330
1F
100
AcDbEntity
  8
0
  6
HIDDEN
 62
     7
370
     0
100
AcDbCircle
 10
102.5971626223
 20
140.7673986
 30
0.0
 40
0.6000067526677253
100
AcDbArc
 50
348.75
 51
8.0
  0
LWPOLYLINE
  5
149
330
1F
100
AcDbEntity
  8
0
  6
HIDDEN
 62
     7
370
     0
100
AcDbPolyline
 90
        3
 70
   128
 43
0.0
 10
103.1856404135
 20
140.6503430894
 10
103.1514965805
 20
140.5377859565
 10
103.097169375
 20
140.435734085
  0
LINE
  5
14A
330
1F
100
AcDbEntity
  8
0
  6
HIDDEN
 62
     7
370
     0
100
AcDbLine
 10
103.197169375
 20
91.6265233712
 30
0.0
 11
103.197169375
 21
140.7673986
 31
0.0
  0
LINE
  5
14B
330
1F
100
AcDbEntity
  8
0
  6
HIDDEN
 62
     7
370
     0
100
AcDbLine
 10
86.1796049403
 20
96.1969609856
 30
0.0
 11
90.3712768285
 21
96.1969609856
 31
0.0
  0
LINE
  5
14C
330
1F
100
AcDbEntity
  8
0
  6
HIDDEN
 62
     7
370
     0
100
AcDbLine
 10
90.3712768285
 20
136.1969609856
 30
0.0
 11
86.1796049403
 21
136.1969609856
 31
0.0
  0
ARC
  5
14D
330
1F
100
AcDbEntity
  8
0
  6
HIDDEN
 62
     7
370
     0
100
AcDbCircle
 10
86.1796049403
 20
96.7969609856
 30
0.0
 40
0.6000000000000084
100
AcDbArc
 50
210.0
 51
270.0
  0
ARC
  5
14E
330
1F
100
AcDbEntity
  8
0
  6
HIDDEN
 62
     7
370
     0
100
AcDbCircle
 10
86.1796049403
 20
135.5969609856
 30
0.0
 40
0.6000000000000155
100
AcDbArc
 50
90.0
 51
150.0
  0
ARC
  5
14F
330
1F
100
AcDbEntity
  8
0
  6
HIDDEN
 62
     7
370
     0
100
AcDbCircle
 10
96.8521713766
 20
104.1969609856
 30
0.0
 40
8.00000000000001
100
AcDbArc
 50
276.8864616432
 51
321.3178125465
  0
ARC
  5
150
330
1F
100
AcDbEntity
  8
0
  6
HIDDEN
 62
     7
370
     0
100
AcDbCircle
 10
96.8521713766
 20
128.1969609856
 30
0.0
 40
8.00000000000002
100
AcDbArc
 50
38.6821874535
 51
83.1238259826
  0
LINE
  5
151
330
1F
100
AcDbEntity
  8
0
  6
HIDDEN
 62
     7
370
     0
100
AcDbLine
 10
85.659989698
 20
135.8969609856
 30
0.0
 11
84.1011439712
 21
133.1969609856
 31
0.0
  0
LINE
  5
152
330
1F
100
AcDbEntity
  8
0
  6
HIDDEN
 62
     7
370
     0
100
AcDbLine
 10
84.1011439712
 20
99.1969609856
 30
0.0
 11
85.659989698
 21
96.4969609856
 31
0.0
  0
LINE
  5
153
330
1F
100
AcDbEntity
  8
0
  6
HIDDEN
 62
     7
370
     0
100
AcDbLine
 10
107.097169375
 20
143.4712948448
 30
0.0
 11
107.097169375
 21
140.1425634003
 31
0.0
  0
LINE
  5
154
330
1F
100
AcDbEntity
  8
0
  6
HIDDEN
 62
     7
370
     0
100
AcDbLine
 10
115.097169375
 20
140.1425634003
 30
0.0
 11
115.097169375
 21
143.4766272236
 31
0.0
  0
ARC
  5
155
330
1F
100
AcDbEntity
  8
0
  6
HIDDEN
 62
     7
370
     0
100
AcDbCircle
 10
111.547169375
 20
100.4719609856
 30
0.0
 40
1.5
100
AcDbArc
 50
238.2116693829
 51
0.0
  0
ARC
  5
156
330
1F
100
AcDbEntity
  8
0
  6
HIDDEN
 62
     7
370
     0
100
AcDbCircle
 10
111.547169375
 20
131.9219609856
 30
0.0
 40
1.500000000000001
100
AcDbArc
 50
0.0
 51
121.7883306171
  0
LINE
  5
157
330
1F
100
AcDbEntity
  8
0
  6
HIDDEN
 62
     7
370
     0
100
AcDbLine
 10
103.097169375
 20
99.1969609856
 30
0.0
 11
110.7569953435
 21
99.1969609856
 31
0.0
  0
LINE
  5
158
330
1F
100
AcDbEntity
  8
0
  6
HIDDEN
 62
     7
370
     0
100
AcDbLine
 10
110.7569953435
 20
133.1969609856
 30
0.0
 11
103.097169375
 21
133.1969609856
 31
0.0
  0
LINE
  5
159
330
1F
100
AcDbEntity
  8
0
  6
HIDDEN
 62
     7
370
     0
100
AcDbLine
 10
81.297169375
 20
99.1969609856
 30
0.0
 11
84.1011439712
 21
99.1969609856
 31
0.0
  0
LINE
  5
15A
330
1F
100
AcDbEntity
  8
0
  6
HIDDEN
 62
     7
370
     0
100
AcDbLine
 10
84.1011439712
 20
133.1969609856
 30
0.0
 11
77.297169375
 21
133.1969609856
 31
0.0
  0
ARC
  5
15B
330
1F
100
AcDbEntity
  8
0
  6
HIDDEN
 62
     7
370
     0
100
AcDbCircle
 10
212.597169375
 20
99.6969609856
 30
0.0
 40
0.5
100
AcDbArc
 50
0.0
 51
90.0
  0
ARC
  5
15C
330
1F
100
AcDbEntity
  8
0
  6
HIDDEN
 62
     7
370
     0
100
AcDbCircle
 10
212.597169375
 20
132.6969609856
 30
0.0
 40
0.5
100
AcDbArc
 50
270.0
 51
0.0
  0
ARC
  5
15D
330
1F
100
AcDbEntity
  8
0
  6
HIDDEN
 62
     7
370
     0
100
AcDbCircle
 10
150.497169375
 20
100.2969609856
 30
0.0
 40
0.4000000000000057
100
AcDbArc
 50
180.0
 51
270.0
  0
ARC
  5
15E
330
1F
100
AcDbEntity
  8
0
  6
HIDDEN
 62
     7
370
     0
100
AcDbCircle
 10
150.497169375
 20
132.0969609856
 30
0.0
 40
0.4000000000000057
100
AcDbArc
 50
90.0
 51
180.0
  0
LINE
  5
15F
330
1F
100
AcDbEntity
  8
0
  6
HIDDEN
 62
     7
370
     0
100
AcDbLine
 10
150.497169375
 20
99.8969609856
 30
0.0
 11
155.2023953568
 21
99.8969609856
 31
0.0
  0
LINE
  5
160
330
1F
100
AcDbEntity
  8
0
  6
HIDDEN
 62
     7
370
     0
100
AcDbLine
 10
155.2023953568
 20
132.4969609856
 30
0.0
 11
150.497169375
 21
132.4969609856
 31
0.0
  0
LINE
  5
161
330
1F
100
AcDbEntity
  8
0
  6
HIDDEN
 62
     7
370
     0
100
AcDbLine
 10
156.097169375
 20
100.1969609856
 30
0.0
 11
212.597169375
 21
100.1969609856
 31
0.0
  0
LINE
  5
162
330
1F
100
AcDbEntity
  8
0
  6
HIDDEN
 62
     7
370
     0
100
AcDbLine
 10
212.597169375
 20
132.1969609856
 30
0.0
 11
156.097169375
 21
132.1969609856
 31
0.0
  0
ARC
  5
163
330
1F
100
AcDbEntity
  8
0
  6
HIDDEN
 62
     7
370
     0
100
AcDbCircle
 10
155.2023953568
 20
100.2969609856
 30
0.0
 40
0.3999999999999915
100
AcDbArc
 50
270.0
 51
290.0
  0
ARC
  5
164
330
1F
100
AcDbEntity
  8
0
  6
HIDDEN
 62
     7
370
     0
100
AcDbCircle
 10
155.2023953568
 20
132.0969609856
 30
0.0
 40
0.3999999999999844
100
AcDbArc
 50
70.0
 51
90.0
  0
LINE
  5
165
330
1F
100
AcDbEntity
  8
0
  6
HIDDEN
 62
     7
370
     0
100
AcDbLine
 10
155.3392034142
 20
99.9210839373
 30
0.0
 11
156.097169375
 21
100.1969609856
 31
0.0
  0
LINE
  5
166
330
1F
100
AcDbEntity
  8
0
  6
HIDDEN
 62
     7
370
     0
100
AcDbLine
 10
156.097169375
 20
132.1969609856
 30
0.0
 11
155.3392034142
 21
132.4728380339
 31
0.0
  0
LINE
  5
167
330
1F
100
AcDbEntity
  8
0
  6
HIDDEN
 62
     7
370
     0
100
AcDbLine
 10
121.897169375
 20
106.6969609856
 30
0.0
 11
124.897169375
 21
106.6969609856
 31
0.0
  0
LINE
  5
168
330
1F
100
AcDbEntity
  8
0
  6
HIDDEN
 62
     7
370
     0
100
AcDbLine
 10
124.897169375
 20
125.6969609856
 30
0.0
 11
121.897169375
 21
125.6969609856
 31
0.0
  0
LINE
  5
169
330
1F
100
AcDbEntity
  8
0
  6
HIDDEN
 62
     7
370
     0
100
AcDbLine
 10
113.047169375
 20
107.1969609856
 30
0.0
 11
113.547169375
 21
107.6969609856
 31
0.0
  0
LINE
  5
16A
330
1F
100
AcDbEntity
  8
0
  6
HIDDEN
 62
     7
370
     0
100
AcDbLine
 10
113.547169375
 20
124.6969609856
 30
0.0
 11
113.047169375
 21
125.1969609856
 31
0.0
  0
LINE
  5
16B
330
1F
100
AcDbEntity
  8
0
  6
HIDDEN
 62
     7
370
     0
100
AcDbLine
 10
113.547169375
 20
107.6969609856
 30
0.0
 11
121.897169375
 21
107.6969609856
 31
0.0
  0
LINE
  5
16C
330
1F
100
AcDbEntity
  8
0
  6
HIDDEN
 62
     7
370
     0
100
AcDbLine
 10
121.897169375
 20
124.6969609856
 30
0.0
 11
113.547169375
 21
124.6969609856
 31
0.0
  0
LINE
  5
16D
330
1F
100
AcDbEntity
  8
0
  6
HIDDEN
 62
     7
370
     0
100
AcDbLine
 10
108.047169375
 20
147.6969609856
 30
0.0
 11
108.047169375
 21
142.5969609856
 31
0.0
  0
LINE
  5
16E
330
1F
100
AcDbEntity
  8
0
  6
HIDDEN
 62
     7
370
     0
100
AcDbLine
 10
98.2816072054
 20
92.1175896521
 30
0.0
 11
97.8471750559
 21
92.5966556712
 31
0.0
  0
LINE
  5
16F
330
1F
100
AcDbEntity
  8
0
  6
HIDDEN
 62
     7
370
     0
100
AcDbLine
 10
90.3471717309
 20
93.0183436303
 30
0.0
 11
89.8647379875
 21
92.5392776549
 31
0.0
  0
LINE
  5
170
330
1F
100
AcDbEntity
  8
0
  6
HIDDEN
 62
     7
370
     0
100
AcDbLine
 10
89.8646160593
 20
139.854639026
 30
0.0
 11
90.3471668103
 21
139.375518768
 31
0.0
  0
LINE
  5
171
330
1F
100
AcDbEntity
  8
0
  6
HIDDEN
 62
     7
370
     0
100
AcDbLine
 10
97.847169257
 20
139.7972165457
 30
0.0
 11
98.2817116473
 21
140.2763367963
 31
0.0
  0
LINE
  5
172
330
1F
100
AcDbEntity
  8
0
  6
HIDDEN
 62
     7
370
     0
100
AcDbLine
 10
124.897169375
 20
111.9969609856
 30
0.0
 11
150.097169375
 21
111.9969609856
 31
0.0
  0
LINE
  5
173
330
1F
100
AcDbEntity
  8
0
  6
HIDDEN
 62
     7
370
     0
100
AcDbLine
 10
150.097169375
 20
120.3969609856
 30
0.0
 11
124.897169375
 21
120.3969609856
 31
0.0
  0
LINE
  5
174
330
1F
100
AcDbEntity
  8
0
  6
HIDDEN
 62
     7
370
     0
100
AcDbLine
 10
97.847169375
 20
136.1323613239
 30
0.0
 11
97.847169375
 21
139.7966631241
 31
0.0
  0
LINE
  5
175
330
1F
100
AcDbEntity
  8
0
  6
HIDDEN
 62
     7
370
     0
100
AcDbLine
 10
90.347169375
 20
139.3752635769
 30
0.0
 11
90.347169375
 21
136.1925832176
 31
0.0
  0
LINE
  5
176
330
1F
100
AcDbEntity
  8
0
  6
HIDDEN
 62
     7
370
     0
100
AcDbLine
 10
97.847169375
 20
92.5971395729
 30
0.0
 11
97.847169375
 21
96.2615606474
 31
0.0
  0
LINE
  5
177
330
1F
100
AcDbEntity
  8
0
  6
HIDDEN
 62
     7
370
     0
100
AcDbLine
 10
90.347169375
 20
96.2013387537
 30
0.0
 11
90.347169375
 21
93.0186668679
 31
0.0
  0
LINE
  5
178
330
1F
100
AcDbEntity
  8
VERMASSUNG
100
AcDbLine
 10
203.097169375
 20
150.9353222917
 30
0.0
 11
203.097169375
 21
81.6564982511
 31
0.0
  0
POINT
  5
179
330
1F
100
AcDbEntity
  8
VERMASSUNG
100
AcDbPoint
 10
203.097169375
 20
152.1969609856
 30
0.0
  0
DIMENSION
  5
17A
330
1F
100
AcDbEntity
  8
VERMASSUNG
100
AcDbDimension
  2
*D1
 10
64.8745518465
 20
84.6969609856
 30
0.0
 11
64.8745518465
 21
115.7528375126
 31
0.0
 70
   160
  1
HSK A%%c<>
 71
     2
 42
-1.0
  3
SLDDIMSTYLE0
100
AcDbAlignedDimension
 13
103.397169375
 23
147.6969609856
 33
0.0
 14
103.397169375
 24
84.6969609856
 34
0.0
 50
90.0
100
AcDbRotatedDimension
  0
DIMENSION
  5
187
330
1F
100
AcDbEntity
  8
VERMASSUNG
100
AcDbDimension
  2
*D2
 10
129.047169375
 20
158.985515174
 30
0.0
 11
167.0338799602
 21
158.985515174
 31
0.0
 70
   160
 71
     2
 42
-1.0
  3
SLDDIMSTYLE0
100
AcDbAlignedDimension
 13
213.097169375
 23
141.3685338609
 33
0.0
 14
129.047169375
 24
146.0434013094
 34
0.0
100
AcDbRotatedDimension
  0
DIMENSION
  5
191
330
1F
100
AcDbEntity
  8
VERMASSUNG
100
AcDbDimension
  2
*D3
 10
103.097169375
 20
164.985515174
 30
0.0
 11
156.6592799017
 21
164.985515174
 31
0.0
 70
   160
 71
     2
 42
-1.0
  3
SLDDIMSTYLE0
100
AcDbAlignedDimension
 13
213.097169375
 23
141.3685338609
 33
0.0
 14
103.097169375
 24
147.3969609856
 34
0.0
100
AcDbRotatedDimension
  0
DIMENSION
  5
19B
330
1F
100
AcDbEntity
  8
VERMASSUNG
100
AcDbDimension
  2
*D4
 10
71.197169375
 20
170.985515174
 30
0.0
 11
139.0715216247
 21
170.985515174
 31
0.0
 70
   160
 71
     2
 42
-1.0
  3
SLDDIMSTYLE0
100
AcDbAlignedDimension
 13
213.097169375
 23
141.3685338609
 33
0.0
 14
71.197169375
 24
135.8876387321
 34
0.0
100
AcDbRotatedDimension
  0
DIMENSION
  5
1A5
330
1F
100
AcDbEntity
  8
VERMASSUNG
100
AcDbDimension
  2
*D5
 10
220.4622528952
 20
100.1969609856
 30
0.0
 11
220.4622528952
 21
115.5721650097
 31
0.0
 70
   160
  1
%%c<>
 71
     2
 42
-1.0
  3
SLDDIMSTYLE0
100
AcDbAlignedDimension
 13
212.597169375
 23
132.1969609856
 33
0.0
 14
212.597169375
 24
100.1969609856
 34
0.0
 50
90.0
100
AcDbRotatedDimension
  0
DIMENSION
  5
1B0
330
1F
100
AcDbEntity
  8
VERMASSUNG
100
AcDbDimension
  2
*D6
 10
226.4622528952
 20
80.1969609856
 30
0.0
 11
226.4622528952
 21
115.5721650097
 31
0.0
 70
   160
  1
%%c<>
 71
     2
 42
-1.0
  3
SLDDIMSTYLE0
100
AcDbAlignedDimension
 13
202.2687422502
 23
152.1969609856
 33
0.0
 14
202.2687422502
 24
80.1969609856
 34
0.0
 50
90.0
100
AcDbRotatedDimension
  0
LINE
  5
1BB
330
1F
100
AcDbEntity
  8
VERMASSUNG
  6
CENTERX2
 62
     7
370
     0
100
AcDbLine
 10
115.2927897207
 20
142.5532762717
 30
0.0
 11
115.2927897207
 21
131.947364907
 31
0.0
  0
LINE
  5
1BC
330
1F
100
AcDbEntity
  8
VERMASSUNG
  6
CENTERX2
 62
     7
370
     0
100
AcDbLine
 10
69.0518655326
 20
116.1969609856
 30
0.0
 11
215.003561596
 21
116.1969609856
 31
0.0
  0
OLE2FRAME
  5
1BD
330
1F
100
AcDbEntity
  8
0
100
AcDbOle2Frame
 70
     2
  3
Bitmap Image
 10
13.8511154363
 20
38.264191557
 30
0.0
 11
51.6290888628
 21
31.9806341108
 31
0.0
 71
     2
 72
     0
 73
     1
 90
    12928
310
80552BED0767C5B32B40DDAF6807D121434000000000000000006FFBDDFB85D0
310
4940DDAF6807D121434000000000000000006FFBDDFB85D04940416F4BD60AFB
310
3F4000000000000000002BED0767C5B32B40416F4BD60AFB3F40000000000000
310
0000000000000100000000010000010000000100000000000100000000320000
310
D0CF11E0A1B11AE1000000000000000000000000000000003E000300FEFF0900
310
0600000000000000000000000100000001000000000000000010000002000000
310
01000000FEFFFFFF0000000000000000FFFFFFFFFFFFFFFFFFFFFFFFFFFFFFFF
310
FFFFFFFFFFFFFFFFFFFFFFFFFFFFFFFFFFFFFFFFFFFFFFFFFFFFFFFFFFFFFFFF
310
FFFFFFFFFFFFFFFFFFFFFFFFFFFFFFFFFFFFFFFFFFFFFFFFFFFFFFFFFFFFFFFF
310
FFFFFFFFFFFFFFFFFFFFFFFFFFFFFFFFFFFFFFFFFFFFFFFFFFFFFFFFFFFFFFFF
310
FFFFFFFFFFFFFFFFFFFFFFFFFFFFFFFFFFFFFFFFFFFFFFFFFFFFFFFFFFFFFFFF
310
FFFFFFFFFFFFFFFFFFFFFFFFFFFFFFFFFFFFFFFFFFFFFFFFFFFFFFFFFFFFFFFF
310
FFFFFFFFFFFFFFFFFFFFFFFFFFFFFFFFFFFFFFFFFFFFFFFFFFFFFFFFFFFFFFFF
310
FFFFFFFFFFFFFFFFFFFFFFFFFFFFFFFFFFFFFFFFFFFFFFFFFFFFFFFFFFFFFFFF
310
FFFFFFFFFFFFFFFFFFFFFFFFFFFFFFFFFFFFFFFFFFFFFFFFFFFFFFFFFFFFFFFF
310
FFFFFFFFFFFFFFFFFFFFFFFFFFFFFFFFFFFFFFFFFFFFFFFFFFFFFFFFFFFFFFFF
310
FFFFFFFFFFFFFFFFFFFFFFFFFFFFFFFFFFFFFFFFFFFFFFFFFFFFFFFFFFFFFFFF
310
FFFFFFFFFFFFFFFFFFFFFFFFFFFFFFFFFFFFFFFFFFFFFFFFFFFFFFFFFFFFFFFF
310
FFFFFFFFFFFFFFFFFFFFFFFFFFFFFFFFFFFFFFFFFFFFFFFFFFFFFFFFFFFFFFFF
310
FFFFFFFFFFFFFFFFFFFFFFFFFFFFFFFFFFFFFFFFFFFFFFFFFFFFFFFFFFFFFFFF
310
FDFFFFFFFEFFFFFFFEFFFFFFFEFFFFFF05000000060000000700000008000000
310
090000000A0000000B0000000C0000000D0000000E0000000F00000010000000
310
11000000120000001300000014000000150000001600000017000000FEFFFFFF
310
FFFFFFFFFFFFFFFFFFFFFFFFFFFFFFFFFFFFFFFFFFFFFFFFFFFFFFFFFFFFFFFF
310
FFFFFFFFFFFFFFFFFFFFFFFFFFFFFFFFFFFFFFFFFFFFFFFFFFFFFFFFFFFFFFFF
310
FFFFFFFFFFFFFFFFFFFFFFFFFFFFFFFFFFFFFFFFFFFFFFFFFFFFFFFFFFFFFFFF
310
FFFFFFFFFFFFFFFFFFFFFFFFFFFFFFFFFFFFFFFFFFFFFFFFFFFFFFFFFFFFFFFF
310
FFFFFFFFFFFFFFFFFFFFFFFFFFFFFFFFFFFFFFFFFFFFFFFFFFFFFFFFFFFFFFFF
310
FFFFFFFFFFFFFFFFFFFFFFFFFFFFFFFFFFFFFFFFFFFFFFFFFFFFFFFFFFFFFFFF
310
FFFFFFFFFFFFFFFFFFFFFFFFFFFFFFFFFFFFFFFFFFFFFFFFFFFFFFFFFFFFFFFF
310
FFFFFFFFFFFFFFFFFFFFFFFFFFFFFFFFFFFFFFFFFFFFFFFFFFFFFFFFFFFFFFFF
310
FFFFFFFFFFFFFFFFFFFFFFFFFFFFFFFFFFFFFFFFFFFFFFFFFFFFFFFFFFFFFFFF
310
FFFFFFFFFFFFFFFFFFFFFFFFFFFFFFFFFFFFFFFFFFFFFFFFFFFFFFFFFFFFFFFF
310
FFFFFFFFFFFFFFFFFFFFFFFFFFFFFFFFFFFFFFFFFFFFFFFFFFFFFFFFFFFFFFFF
310
FFFFFFFFFFFFFFFFFFFFFFFFFFFFFFFFFFFFFFFFFFFFFFFFFFFFFFFFFFFFFFFF
310
FFFFFFFFFFFFFFFFFFFFFFFFFFFFFFFFFFFFFFFFFFFFFFFFFFFFFFFFFFFFFFFF
310
52006F006F007400200045006E00740072007900000000000000000000000000
310
0000000000000000000000000000000000000000000000000000000000000000
310
16000500FFFFFFFFFFFFFFFF020000000A00030000000000C000000000000046
310
00000000000000000000000080956C152DFFCB0103000000C000000000000000
310
01004F006C006500000000000000000000000000000000000000000000000000
310
0000000000000000000000000000000000000000000000000000000000000000
310
0A000200FFFFFFFFFFFFFFFFFFFFFFFF00000000000000000000000000000000
310
0000000000000000000000000000000000000000000000001400000000000000
310
010043006F006D0070004F0062006A0000000000000000000000000000000000
310
0000000000000000000000000000000000000000000000000000000000000000
310
120002010100000003000000FFFFFFFF00000000000000000000000000000000
310
0000000000000000000000000000000000000000010000004D00000000000000
310
01004F006C006500310030004E00610074006900760065000000000000000000
310
0000000000000000000000000000000000000000000000000000000000000000
310
1A000200FFFFFFFFFFFFFFFFFFFFFFFF00000000000000000000000000000000
310
0000000000000000000000000000000000000000040000002426000000000000
310
FEFFFFFF02000000FEFFFFFFFFFFFFFFFFFFFFFFFFFFFFFFFFFFFFFFFFFFFFFF
310
FFFFFFFFFFFFFFFFFFFFFFFFFFFFFFFFFFFFFFFFFFFFFFFFFFFFFFFFFFFFFFFF
310
FFFFFFFFFFFFFFFFFFFFFFFFFFFFFFFFFFFFFFFFFFFFFFFFFFFFFFFFFFFFFFFF
310
FFFFFFFFFFFFFFFFFFFFFFFFFFFFFFFFFFFFFFFFFFFFFFFFFFFFFFFFFFFFFFFF
310
FFFFFFFFFFFFFFFFFFFFFFFFFFFFFFFFFFFFFFFFFFFFFFFFFFFFFFFFFFFFFFFF
310
FFFFFFFFFFFFFFFFFFFFFFFFFFFFFFFFFFFFFFFFFFFFFFFFFFFFFFFFFFFFFFFF
310
FFFFFFFFFFFFFFFFFFFFFFFFFFFFFFFFFFFFFFFFFFFFFFFFFFFFFFFFFFFFFFFF
310
FFFFFFFFFFFFFFFFFFFFFFFFFFFFFFFFFFFFFFFFFFFFFFFFFFFFFFFFFFFFFFFF
310
FFFFFFFFFFFFFFFFFFFFFFFFFFFFFFFFFFFFFFFFFFFFFFFFFFFFFFFFFFFFFFFF
310
FFFFFFFFFFFFFFFFFFFFFFFFFFFFFFFFFFFFFFFFFFFFFFFFFFFFFFFFFFFFFFFF
310
FFFFFFFFFFFFFFFFFFFFFFFFFFFFFFFFFFFFFFFFFFFFFFFFFFFFFFFFFFFFFFFF
310
FFFFFFFFFFFFFFFFFFFFFFFFFFFFFFFFFFFFFFFFFFFFFFFFFFFFFFFFFFFFFFFF
310
FFFFFFFFFFFFFFFFFFFFFFFFFFFFFFFFFFFFFFFFFFFFFFFFFFFFFFFFFFFFFFFF
310
FFFFFFFFFFFFFFFFFFFFFFFFFFFFFFFFFFFFFFFFFFFFFFFFFFFFFFFFFFFFFFFF
310
FFFFFFFFFFFFFFFFFFFFFFFFFFFFFFFFFFFFFFFFFFFFFFFFFFFFFFFFFFFFFFFF
310
FFFFFFFFFFFFFFFFFFFFFFFFFFFFFFFFFFFFFFFFFFFFFFFFFFFFFFFFFFFFFFFF
310
010000020000000000000000000000000000000061007200410082005C003105
310
D806250000000000D806250000000000680061007200650064005C003B004300
310
0100FEFF030A0000FFFFFFFF0A00030000000000C00000000000004607000000
310
5042727573680007000000504272757368000700000050427275736800F439B2
310
71000000000000000000000000004100540049002E004100430045005C004300
310
6F00720065002D005300740061007400690063003B0043003A005C0050007200
310
6F006700720061006D002000460069006C006500730020002800780038003600
310
29005C0043006F006D006D006F006E002000460069006C00650073005C004100
310
750074006F006400650073006B0020005300680061007200650064005C003B00
310
43003A005C00500072006F006700720061006D002000460069006C0065007300
310
5C004E006F0072006D0061006E005C004E0070006D005C00420069006E000000
310
43003A005C00500072006F006700720061006D002000460069006C0065007300
310
5C0053006F006C006900640057006F0072006B007300200043006F0072007000
310
5C0053006F006C006900640057006F0072006B00730020002800320029005C00
310
730065007400750070005C0069003300380036005C0073007700610063007400
310
770069007A002E006500780065000000220043003A005C00500072006F006700
310
20260000424D0E260000000000003E00000028000000B40200006E0000000100
310
01000000000000000000130B0000130B00000200000002000000000000FFFFFF
310
FFFFFFFFFFFFFFFFFFFFFFFFFFFFFFFFFFFFFFFFFFFFFFFFFFFFFFFFFFFFFFFF
310
FFFFFFFFFFFFFFFFFFFFFFFFFFFFFFFFFFFFFFFFFFFFFFFFFFFFFFFFFFFFFFFF
310
FFFFFFFFFFFFFFFFFFFFFFFFFFFFFFFFFFFFFFFFFFFFFFFFF000FFFFFFFFFFFF
310
FFFFFFFFFFFFFFFFFFFFFFFFFFFFFFFFFFFFFFFFFFFFFFFFFFFFFFFFFFFFFFFF
310
FFFFFFFFFFFFFFFFFFFFFFFFFFFFFFFFFFFFFFFFFFFFFFFFFFFFFFFFFFFFFFFF
310
FFFFFFFFFFFFFFFFFFFFFFFFFFFFFFFFF000FFFFFFFFFFFFFFFFFFFFFFFFFFFF
310
FFFFFFFFFFFFFFFFFFFFFFFFFFFFFFFFFFFFFFFFFFFFFFFFFFFFFFFFFFFFFFFF
310
FFFFFFFFFFFFFFFFFFFFFFFFFFFFFFFFFFFFFFFFFFFFFFFFFFFFFFFFFFFFFFFF
310
FFFFFFFFFFFFFFFFF000FFFFFFFFFFFFFFFFFFFFFFFFFFFFFFFFFFFFFFFFFFFF
310
FFFFFFFFFFFFFFFFFFFFFFFFFFFFFFFFFFFFFFFFFFFFFFFFFFFFFFFFFFFFFFFF
310
FFFFFFFFFFFFFFFFFFFFFFFFFFFFFFFFFFFFFFFFFFFFFFFFFFFFFFFFFFFFFFFF
310
F000FFFFFFFFFFFFFFFFFFFFFFFFFFFFFFFFFFFFFFFFFFFFFFFFFFFFFFFFFFFF
310
FFFFFFFFFFFFFFFFFFFFFFFFFFFFFFFFFFFFFFFFFFFFFFFFFFFFFFFFFFFFFFFF
310
FFFFFFFFFFFFFFFFFFFFFFFFFFFFFFFFFFFFFFFFFFFFFFFFF000FFFFFFFFFFFF
310
FFFFFFFFFFFFFFFFFFFFFFFFFFFFFFFFFFFFFFFFFFFFFFFFFFFFFFFFFFFFFFFF
310
FFFFFFFFFFFFFFFFFFFFFFFFFFFFFFFFFFFFFFFFFFFFFFFFFFFFFFFFFFFFFFFF
310
FFFFFFFFFFFFFFFFFFFFFFFFFFFFFFFFF000FFFFFFFFFFFFFFFFFFFFFFFFFFFF
310
FFFFFFFFFFFFFFFFFFFFFFFFFFFFFFFFFFFFFFFFFFFFFFFFFFFFFFFFFFFFFFFF
310
FFFFFFFFFFFFFFFFFFFFFFFFFFFFFFFFFFFFFFFFFFFFFFFFFFFFFFFFFFFFFFFF
310
FFFFFFFFFFFFFFFFF000FFFFFFFFFFFFFFFFFFFFFFFFFFFFFFFFFFFFFFFFFFFF
310
FFFFFFFFFFFFFFFFFFFFFFFFFFFFFFFFFFFFFFFFFFFFFFFFFFFFFFFFFFFFFFFF
310
FFFFFFFFFFFFFFFFFFFFFFFFFFFFFFFFFFFFFFFFFFFFFFFFFFFFFFFFFFFFFFFF
310
F000FFFFFFFFFFFFFFFFFFFFFFFFFFFFFFFFFFFFFFFFFFFFFFFFFFFFFFFFFFFF
310
FFFFFFFFFFFFFFFFFFFFFFFFFFFFFFFFFFFFFFFFFFFFFFFFFFFFFFFFFFFFFFFF
310
FFFFFFFFFFFFFFFFFFFFFFFFFFFFFFFFFFFFFFFFFFFFFFFFF000FFFFFFFFFFFF
310
FFFFFFFFFFFFFFFFFFFFFFFFFFFFFFFFFFFFFFFFFFFFFFFFFFFFFFFFFFFFFFFF
310
FFFFFFFFFFFFFFFFFFFFFFFFFFFFFFFFFFFFFFFFFFFFFFFFFFFFFFFFFFFFFFFF
310
FFFFFFFFFFFFFFFFFFFFFFFFFFFFFFFFF000FFFFFFFFFFFFFFFFFFFFFFFFFFFF
310
FFFFFFFFFFFFFFFFFFFFFFFFFFFFFFFFFFFFFFFFFFFFFFFFFFFFFFFFFFFFFFFF
310
FFFFFFFFFFFFFFFFFFFFFFFFFFFFFFFFFFFFFFFFFFFFFFFFFFFFFFFFFFFFFFFF
310
FFFFFFFFFFFFFFFFF000FFFFFFFFFFFFFFFFFFFFFFFFFFFFFFFFFFFFFFFFFFFF
310
FFFFFFFFFFFFFFFFFFFFFFFFFFFFFFFFFFFFFFFFFFFFFFFFFFFFFFFFFFFFFFFF
310
FFFFFFFFFFFFFFFFFFFFFFFFFFFFFFFFFFFFFFFFFFFFFFFFFFFFFFFFFFFFFFFF
310
F000FFFFFFFFFFFFFFFFFFFFFFFFFFFFFFFFFFFFFFFFFFFFFFFFFFFFFFFFFFFF
310
FFFFFFFFFFFFFFFFFFFFFFFFFFFFFFFFFFFFFFFFFFFFFFFFFFFFFFFFFFFFFFFF
310
FFFFFFFFFFFFFFFFFFFFFFFFFFFFFFFFFFFFFFFFFFFFFFFFF000FFFFFFFFFFFF
310
FFFFFFFFFFFFFFFFFFFFFFFFFFFFFFFFFFFFFFFFFFFFFFFFFFFFFFFFFFFFFFFF
310
FFFFFFFFFFFFFFFFFFFFFFFFFFFFFFFFFFFFFFFFFFFFFFFFFFFFFFFFFFFFFFFF
310
FFFFFFFFFFFFFFFFFFFFFFFFFFFFFFFFF000FFFFFFFFFFFFFFFFFFFFFFFFFFFF
310
FFFFFFFFFFFFFFFFFFFFFFFFFFFFFFFFFFFFFFFFFFFFFFFFFFFFFFFFFFFFFFFF
310
FFFFFFFFFFFFFFFFFFFFFFFFFFFFFFFFFFFFFFFFFFFFFFFFFFFFFFFFFFFFFFFF
310
FFFFFFFFFFFFFFFFF000FFFFFFFFFFFFFFFFFFFFFFFFFFFFFFFFFFFFFFFFFFFF
310
FFFFFFFFFFFFFFFFFFFFFFFFFFFFFFFFFFFFFFFFFFFFFFFFFFFFFFFFFFFFFFFF
310
FFFFFFFFFFFFFFFFFFFFFFFFFFFFFFFFFFFFFFFFFFFFFFFFFFFFFFFFFFFFFFFF
310
F000FFFFFFFFFFFFFFFFFFFFFFFFFFFFFFFFFFFFFFFFFFFFFFFFFFFFFFFFFFFF
310
FFFFFFFFFFFFFFFFFFFFFFFFFFFFFFFFFFFFFFFFFFFFFFFFFFFFFFFFFFFFFFFF
310
FFFFFFFFFFFFFFFFFFFFFFFFFFFFFFFFFFFFFFFFFFFFFFFFF000FFFFFFFFFFFF
310
FFFFFFFFFFFFFFFFFFFFFFFFFFFFFFFFFFFFFFFFFFFFFFFFFFFFFFFFFFFFFFFF
310
FFFFFFFFFFFFFFFFFFFFFFFFFFFFFFFFFFFFFFFFFFFFFFFFFFFFFFFFFFFFFFFF
310
FFFFFFFFFFFFFFFFFFFFFFFFFFFFFFFFF000FFFFFFFFFFFFFFFFFFFFFFFFFFFF
310
FFFFFFFFFFFFFFFFFFFFFFFFFFFFFFFFFFFFFFFFFFFFFFFFFFFFFFFFFFFFFFFF
310
FFFFFFFFFFFFFFFFFFFFFFFFFFFFFFFFFFFFFFFFFFFFFFFFFFFFFFFFFFFFFFFF
310
FFFFFFFFFFFFFFFFF000FFFFF80003FFFFFFFFFFFFFFFFFFFFFFFFFFFFFFFFFF
310
FFFFF00007FFFFFFFFFF00007FFFFFF800000000000000007FFFFFFFFFFFFFFF
310
FFFFFFFC001FFFFFFFFFFFFFFC001FFFFFFFFFFFFFFFFFFFFFFFFFFE0007FFFF
310
F000FFFF8000007FFFFFFFF8000FFFFFC0007FFFFF80007FFFFF0000007FFFFF
310
FFF8000007FFFFF800000000000000007FFFFFF0001FFFFFFFFFFFC00001FFFF
310
FFFFFFFFC00001FFFFFFFF000000000003FFFFE000007FFFF000FFFE0000000F
310
FFFFFFF0000FFFFF80007FFFFF80007FFFFC0000001FFFFFFFC0000001FFFFF8
310
00000000000000007FFFFFF0001FFFFFFFFFFE0000003FFFFFFFFFFE0000003F
310
FFFFFF000000000003FFFF0000000FFFF000FFF800000003FFFFFFF00007FFFF
310
80007FFFFF80007FFFF000000007FFFFFF000000003FFFF80000000000000000
310
7FFFFFF0001FFFFFFFFFF80000000FFFFFFFFFF80000000FFFFFFF0000000000
310
03FFFC00000003FFF000FFE000000000FFFFFFF00007FFFF80003FFFFF80007F
310
FFC000000001FFFFFC000000001FFFF800000000000000007FFFFFF0001FFFFF
310
FFFFE000000003FFFFFFFFE000000003FFFFFF000000000003FFF000000000FF
310
F000FF80000000007FFFFFF00007FFFF80003FFFFF80007FFF8000000000FFFF
310
F80000000007FFF800000000000000007FFFFFF0001FFFFFFFFFC000000001FF
310
FFFFFFC000000001FFFFFF000000000003FFC0000000007FF000FF0000000000
310
3FFFFFE00007FFFF00003FFFFF80007FFE00000000003FFFF00000000003FFF8
310
00000000000000007FFFFFF0001FFFFFFFFF8000000000FFFFFFFF8000000000
310
FFFFFF000000000003FF80000000003FF000FE00000000001FFFFFE00003FFFF
310
00003FFFFF80007FFC00000000001FFFE00000000001FFF8000001FFFE000000
310
7FFFFFF0001FFFFFFFFE00000000003FFFFFFE00000000003FFFFF0000000000
310
03FF00000000001FF000FC00000000000FFFFFE00003FFFF00001FFFFF80007F
310
F800000000001FFFC00000000000FFF8000001FFFE0000007FFFFFF0001FFFFF
310
FFFC00000000001FFFFFFC00000000001FFFFF000000000003FE00000000000F
310
F000F8000000000007FFFFE00003FFFF00001FFFFF80007FF800000000000FFF
310
800000000000FFF8000001FFFE0000007FFFFFF0001FFFFFFFF800000000000F
310
FFFFF800000000000FFFFF000000000003FC000000000007F000F80000000000
310
03FFFFC00003FFFE00001FFFFF80007FF0000000000007FF0000000000007FF8
310
000001FFFE0000007FFFFFF0001FFFFFFFF0000000000007FFFFF00000000000
310
07FFFF000000000003F8000000000003F000F0000000000003FFFFC00001FFFE
310
00001FFFFF80007FE0000000000007FE0000000000003FF8000001FFFE000000
310
7FFFFFF0001FFFFFFFF0000000000007FFFFF0000000000007FFFF0000000000
310
03F800001F800003F000E00001FFF00001FFFFC00001FFFE00000FFFFF80007F
310
E00001FFE00003FE00001FFF00003FF8000001FFFE0000007FFFFFF0001FFFFF
310
FFE000003E000003FFFFE000003E000003FFFF000000000003F00001FFF80001
310
F000E00007FFFC0001FFFFC00001FFFE00000FFFFF80007FC0000FFFFC0003FC
310
0000FFFFC0001FF8000001FFFE0000007FFFFFF0001FFFFFFFC00003FFE00001
310
FFFFC00003FFE00001FFFF0001FFFFFFFFF00007FFFE0001F000E0000FFFFF00
310
00FFFF800001FFFC00000FFFFF80007FC0001FFFFE0001FC0001FFFFE0001FF8
310
000001FFFE0000007FFFFFF0001FFFFFFF80000FFFF80000FFFF80000FFFF800
310
00FFFF0003FFFFFFFFE0000FFFFF8000F000C0003FFFFF8000FFFF800000FFFC
310
000007FFFF80007F80003FFFFF0001FC0003FFFFF0001FF8000001FFFE000000
310
7FFFFFF0001FFFFFFF80003FFFFE0000FFFF80003FFFFE0000FFFF0003FFFFFF
310
FFE0003FFFFF8000F000C0003FFFFF8000FFFF800000FFFC000007FFFF80007F
310
80007FFFFF8001F80007FFFFF8000FF8000001FFFE0000007FFFFFF0001FFFFF
310
FF00007FFFFF00007FFF00007FFFFF00007FFF0003FFFFFFFFE0003FFFFFC000
310
F000C0007FFFFFC000FFFF000000FFFC000007FFFF80007F8000FFFFFF8000F8
310
000FFFFFF8000FF8000001FFFE0000007FFFFFF0001FFFFFFF0000FFFFFF8000
310
7FFF0000FFFFFF80007FFF0003FFFFFFFFC0007FFFFFC00070008000FFFFFFC0
310
00FFFF000000FFF8000007FFFF80007F8000FFFFFF8000F8000FFFFFF8000FF8
310
000001FFFE0000007FFFFFF0001FFFFFFE0001FFFFFFC0003FFE0001FFFFFFC0
310
003FFF0003FFFFFFFFC0007FFFFFE00070008000FFFFFFC0007FFF0000007FF8
310
000003FFFF80007F0001FFFFFF8000F8000FFFFFF8000FF8000001FFFE000000
310
7FFFFFF0001FFFFFFE0001FFFFFFC0003FFE0001FFFFFFC0003FFF0003FFFFFF
310
FFC000FFFFFFE00070008000FFFFFFC0007FFF0000007FF8000003FFFF80007F
310
0001FFFFFF8000F8001FFFFFF8000FF8000001FFFE0000007FFFFFF0001FFFFF
310
FE0003FFFFFFE0003FFE0003FFFFFFE0003FFF0003FFFFFFFFC000FFFFFFE000
310
70008000FFFFFFC0007FFE0000007FF8000003FFFF80007F0001FFFFFF8000F0
310
001FFFFFF8000FF8000001FFFE0000007FFFFFF0001FFFFFFC0003FFFFFFE000
310
1FFC0003FFFFFFE0001FFF0003FFFFFFFFC000FFFFFFC00070008000FFFFFF80
310
007FFE0000007FF0000003FFFF80007F0001FFFFFF0000F0001FFFFFF8000FF8
310
000001FFFE0000007FFFFFF0001FFFFFFC0007FFFFFFF0001FFC0007FFFFFFF0
310
001FFF0003FFFFFFFFC000FFFFFFC00070008001FFFFFF0000FFFE0000003FF0
310
000001FFFF80007F0001FFFFFF0000F8001FFFFFF0000FF8000001FFFE000000
310
7FFFFFF0001FFFFFFC0007FFFFFFF0001FFC0007FFFFFFF0001FFF0003FFFFFF
310
FFC001FFFFFF80007000FFFFFFFFFE0000FFFE0008003FF0008001FFFF80007F
310
FFFFFFFFFC0000FFFFFFFFFFE0000FF8000001FFFE0000007FFFFFF0001FFFFF
310
F8000FFFFFFFF8000FF8000FFFFFFFF8000FFF0003FFFFFFFFFFFFFFFFFF0000
310
7000FFFFFFFFFC0000FFFC0008003FF0008001FFFF80007FFFFFFFFFF80001FF
310
FFFFFFFF80000FF8000001FFFE0000007FFFFFF0001FFFFFF8000FFFFFFFF800
310
0FF8000FFFFFFFF8000FFF0003FFFFFFFFFFFFFFFFFE0000F000FFFFFFFFE000
310
00FFFC000C003FE000C001FFFF80007FFFFFFFFFC00001FFFFFFFFFE00001FF8
310
000001FFFE0000007FFFFFF0001FFFFFF8000FFFFFFFF8000FF8000FFFFFFFF8
310
000FFF0003FFFFFFFFFFFFFFFFF00000F000FFFFFFFE000001FFFC000C001FE0
310
00C000FFFF80007FFFFFFFFE000001FFFFFFFFE000001FF80FFFFFFFFFFFFFC0
310
7FFFFFF0001FFFFFF8000FFFFFFFF8000FF8000FFFFFFFF8000FFF0003FFFFFF
310
FFFFFFFFFF800000F000FFFFFFC0000001FFFC001C001FE001C000FFFF80007F
310
FFFFFF80000003FFFFFFF80000001FF80FFFFFFFFFFFFFC07FFFFFF0001FFFFF
310
F8001FFFFFFFFC000FF8001FFFFFFFFC000FFF0003FFFFFFFFFFFFFFF0000001
310
F000FFFFF800000001FFF8001C001FE001C000FFFF80007FFFFFF800000003FF
310
FFFF800000003FF80FFFFFFFFFFFFFC07FFFFFF0001FFFFFF8001FFFFFFFFC00
310
0FF8001FFFFFFFFC000FFF0003FFFFFFFFFFFFFE00000001F000FFFFC0000000
310
03FFF8001E001FC001E000FFFF80007FFFFF8000000007FFFFFC000000003FF8
310
0FFFFFFFFFFFFFC07FFFFFF0001FFFFFF8001FFFFFFFFC000FF8001FFFFFFFFC
310
000FFF0003FFFFFFFFFFFFE000000003F000FFFE0000000007FFF8001E000FC0
310
01E0007FFF80007FFFFE0000000007FFFFE0000000007FF80FFFFFFFFFFFFFC0
310
7FFFFFF0001FFFFFF0001FFFFFFFFC0007F0001FFFFFFFFC0007FF0003FFFFFF
310
FFFFFF0000000003F000FFF80000000007FFF8001E000FC003E0007FFF80007F
310
FFF0000000000FFFFF8000000000FFF80FFFFFFFFFFFFFC07FFFFFF0001FFFFF
310
F0001FFFFFFFFC0007F0001FFFFFFFFC0007FF0003FFFFFFFFFFFC0000000007
310
F000FFE0000000000FFFF0003E000FC003E0007FFF80007FFFC0000000001FFF
310
FE0000000001FFF80FFFFFFFFFFFFFC07FFFFFF0001FFFFFF0001FFFFFFFFC00
310
07F0001FFFFFFFFC0007FF0003FFFFFFFFFFF0000000000FF000FFC000000000
310
1FFFF0003F000F8003F0003FFF80007FFF80000000003FFFF80000000003FFF8
310
0FFFFFFFFFFFFFC07FFFFFF0001FFFFFF0001FFFFFFFFC0007F0001FFFFFFFFC
310
0007FF0003FFFFFFFFFFE0000000001FF000FF00000000007FFFF0003F000780
310
03F0003FFF80007FFF00000000007FFFF00000000007FFF80FFFFFFFFFFFFFC0
310
7FFFFFF0001FFFFFF0001FFFFFFFFC0007F0001FFFFFFFFC0007FF0003FFFFFF
310
FFFF80000000007FF000FE0000000000FFFFE0003F00078007F0003FFF80007F
310
FE0000000001FFFFE0000000001FFFF80FFFFFFFFFFFFFC07FFFFFF0001FFFFF
310
F0001FFFFFFFFC0007F0001FFFFFFFFC0007FF0003FFFFFFFFFF0000000000FF
310
F000FC0000000003FFFFE0007F00078007F0003FFF80007FFC0000000007FFFF
310
C0000000007FFFF80FFFFFFFFFFFFFC07FFFFFF0001FFFFFF8001FFFFFFFFC00
310
0FF8001FFFFFFFFC000FFF0003FFFFFFFFFE0000000003FFF000FC000000000F
310
FFFFE0007F80070007F8001FFF80007FF8000000001FFFFF8000000001FFFFF8
310
0FFFFFFFFFFFFFC07FFFFFF0001FFFFFF8001FFFFFFFFC000FF8001FFFFFFFFC
310
000FFF0003FFFFFFFFFC000000000FFFF000F8000000007FFFFFE0007F800700
310
07F8001FFF80007FF000000000FFFFFF800000000FFFFFF80FFFFFFFFFFFFFC0
310
7FFFFFF0001FFFFFF8000FFFFFFFF8000FF8000FFFFFFFF8000FFF0003FFFFFF
310
FFFC000000007FFFF000F800000007FFFFFFC0007F8003000FF8001FFF80007F
310
F000000007FFFFFF000000007FFFFFF80FFFFFFFFFFFFFC07FFFFFF0001FFFFF
310
F8000FFFFFFFF8000FF8000FFFFFFFF8000FFF0003FFFFFFFFF80000000FFFFF
310
F000F0000000FFFFFFFFC000FF8003000FF8001FFF80007FE0000000FFFFFFFF
310
0000000FFFFFFFF8000001FFFE0000007FFFFFF0001FFFFFF8000FFFFFFFF800
310
0FF8000FFFFFFFF8000FFF0003FFFFFFFFF8000000FFFFFFF000F000000FFFFF
310
FFFFC000FFC002000FF8000FFF80007FE000001FFFFFFFFE000001FFFFFFFFF8
310
000001FFFE0000007FFFFFF0001FFFFFF8000FFFFFFFF8000FF8000FFFFFFFF8
310
000FFF0003FFFFFFFFF000001FFFFFFFF000E00000FFFFFFFFFFC000FFC00200
310
0FFC000FFF80007FE00001FFFFFFFFFE00001FFFFFFFFFF8000001FFFE000000
310
7FFFFFF0001FFFFFFC000FFFFFFFF8001FFC000FFFFFFFF8001FFF0003FFFFFF
310
FFF00001FFFFFFFFF000E00007FFFFFFFFFF8000FFC000001FFC000FFF80007F
310
C0000FFFFFFFFFFE0000FFFFFFFFFFF8000001FFFE0000007FFFFFF0001FFFFF
310
FC0007FFFFFFF0001FFC0007FFFFFFF0001FFF0003FFFFFFFFF00007FFFFFFFF
310
F000E0001FFFFFFFFFFF8000FFC000001FFC000FFF80007FC0003FFFFFFFFFFE
310
0001FFFFFFFFFFF8000001FFFE0000007FFFFFF0001FFFFFFC0007FFFFFFF000
310
1FFC0007FFFFFFF0001FFF0003FFFFFFFFF0001FFFFFFFFFF000E0003FFFFF00
310
03FF8001FFE000001FFC0007FF80007FC0007FFFFF0007FC0003FFFFF0003FF8
310
000001FFFE0000007FFFFFF0001FFFFFFC0003FFFFFFE0001FFC0003FFFFFFE0
310
001FFF0003FFFFFFFFF0003FFFFFFFFFF000E0003FFFFF0001FF8001FFE00000
310
1FFE0007FF80007FC0007FFFFE0003FC0007FFFFE0003FF8000001FFFE000000
310
7FFFFFF0001FFFFFFE0003FFFFFFE0003FFE0003FFFFFFE0003FFF0003FFFFFF
310
FFF0003FFFFF8001F000E0003FFFFF0001FF0001FFE000001FFE0007FF80007F
310
C0007FFFFE0003FC0007FFFFE0003FF8000001FFFE0000007FFFFFF0001FFFFF
310
FE0001FFFFFFC0003FFE0001FFFFFFC0003FFF0003FFFFFFFFF0003FFFFF0001
310
F000E0003FFFFF0003FF0001FFE000003FFE0007FF80007FC0007FFFFE0003FC
310
0007FFFFE0003FF8000001FFFE0000007FFFFFF0001FFFFFFF0001FFFFFFC000
310
7FFF0001FFFFFFC0007FFF0003FFFFFFFFF0003FFFFF0001F000E0003FFFFE00
310
03FF0003FFF000003FFE0003FF80007FC0007FFFFC0003FE0007FFFFE0003FF8
310
000001FFFE0000007FFFFFF0001FFFFFFF0000FFFFFF80007FFF0000FFFFFF80
310
007FFF0003FFFFFFFFF0003FFFFF0001F000E0003FFFFE0003FF0003FFF00000
310
3FFF0003FF80007FC0007FFFFC0007FE0007FFFFC0003FF8000001FFFE000000
310
7FFFFFF0001FFFFFFF80007FFFFF0000FFFF80007FFFFF0000FFFF0003FFFFFF
310
FFF0003FFFFF0003F000E0003FFFFC0003FE0003FFF000003FFF0003FF80007F
310
E0003FFFF80007FE0003FFFFC0007FF8000001FFFE0000007FFFFFF0001FFFFF
310
FF80003FFFFE0000FFFF80003FFFFE0000FFFF0003FFFFFFFFF0001FFFFE0003
310
F000F0001FFFF80003FE0003FFF000007FFF0001FF80007FE0003FFFF00007FE
310
0001FFFF80007FF8000001FFFE0000007FFFFFF0001FFFFFFFC0000FFFF80001
310
FFFFC0000FFFF80001FFFF0003FFFFFFFFF0001FFFFC0003F000F0000FFFF000
310
07FE0007FFF800007FFF0001FF80007FE0001FFFE00007FF0000FFFE00007FF8
310
000001FFFE0000007FFFFFF0001FFFFFFFC00003FFE00001FFFFC00003FFE000
310
01FFFF0003FFFFFFFFF8000FFFF80003F000F00003FFC00007FC0007FFF80000
310
7FFF8001FF80007FF00007FF80000FFF00007FF80000FFF8000001FFFE000000
310
7F80000000000001FFE000003E000003FFFFE000003E000003FFFF0003FFFFFF
310
FFF80003FFE00007F000F800000000000FFC0007FFF800007FFF8001FF80007F
310
F000000000000FFF000000000000FFF8000001FFFE0000007F80000000000001
310
FFF0000000000007FFFFF0000000000007FFFF0003FFFFFFFFFC00007E000007
310
F000F800000000000FFC0007FFF80000FFFF8000FF80007FF800000000001FFF
310
800000000001FFF8000001FFFE0000007F80000000000001FFF800000000000F
310
FFFFF800000000000FFFFF0003FFFFFFFFFC00000000000FF000FC0000000000
310
1FFC0007FFFC0000FFFF8000FF80007FF800000000003FFFC00000000001FFF8
310
000001FFFE0000007F80000000000001FFF800000000000FFFFFF80000000000
310
0FFFFF0003FFFFFFFFFE00000000001FF000FE00000000003FF8000FFFFC0000
310
FFFF8000FF80007FFC00000000003FFFC00000000003FFF8000001FFFE000000
310
7F80000000000001FFFC00000000001FFFFFFC00000000001FFFFF0003FFFFFF
310
FFFF00000000001FF000FF00000000003FF8000FFFFC0000FFFFC000FF80007F
310
FE00000000007FFFE00000000007FFF8000001FFFE0000007F80000000000001
310
FFFE00000000003FFFFFFE00000000003FFFFF0003FFFFFFFFFF80000000003F
310
F000FF80000000007FF8000FFFFC0001FFFFC0007F80007FFF0000000000FFFF
310
F0000000000FFFF800000000000000007F80000000000001FFFF8000000000FF
310
FFFFFF8000000000FFFFFF0003FFFFFFFFFFC0000000007FF000FFC000000000
310
FFF8000FFFFE0001FFFFC0007F80007FFF8000000001FFFFF8000000001FFFF8
310
00000000000000007F80000000000001FFFFC000000001FFFFFFFFC000000001
310
FFFFFF0003FFFFFFFFFFE000000000FFF000FFE000000003FFF0001FFFFE0001
310
FFFFC0007F80007FFFC000000007FFFFFE000000003FFFF80000000000000000
310
7F80000000000001FFFFE000000003FFFFFFFFE000000003FFFFFF0003FFFFFF
310
FFFFF000000003FFF000FFF80000000FFFF0001FFFFE0001FFFFE0007F80007F
310
FFF00000000FFFFFFF00000000FFFFF800000000000000007F80000000000001
310
FFFFF80000000FFFFFFFFFF80000000FFFFFFF0003FFFFFFFFFFFC0000000FFF
310
F000FFFE0000003FFFF0001FFFFE0003FFFFE0003F80007FFFFC0000003FFFFF
310
FFC0000003FFFFF800000000000000007F80000000000001FFFFFE0000003FFF
310
FFFFFFFE0000003FFFFFFF0003FFFFFFFFFFFF0000003FFFF000FFFF800000FF
310
FFF0001FFFFF0003FFFFE0003F80007FFFFF000001FFFFFFFFF800001FFFFFF8
310
00000000000000007F80000000000001FFFFFFC00001FFFFFFFFFFFFC00001FF
310
FFFFFF0003FFFFFFFFFFFFC00000FFFFF000FFFFF8000FFFFFFFFFFFFFFFFFFF
310
FFFFFFFFFFFFFFFFFFFFF0001FFFFFFFFFFF0000FFFFFFF80000000000000000
310
7FFFFFFFFFFFFFFFFFFFFFFC001FFFFFFFFFFFFFFC001FFFFFFFFFFFFFFFFFFF
310
FFFFFFFC001FFFFFF000FFFFFFFFFFFFFFFFFFFFFFFFFFFFFFFFFFFFFFFFFFFF
310
FFFFFFFFFFFFFFFFFFFFFFFFFFFFFFFFFFFFFFFFFFFFFFFFFFFFFFFFFFFFFFFF
310
FFFFFFFFFFFFFFFFFFFFFFFFFFFFFFFFFFFFFFFFFFFFFFFFFFFFFFFFFFFFFFFF
310
F000FFFFFFFFFFFFFFFFFFFFFFFFFFFFFFFFFFFFFFFFFFFFFFFFFFFFFFFFFFFF
310
FFFFFFFFFFFFFFFFFFFFFFFFFFFFFFFFFFFFFFFFFFFFFFFFFFFFFFFFFFFFFFFF
310
FFFFFFFFFFFFFFFFFFFFFFFFFFFFFFFFFFFFFFFFFFFFFFFFF000FFFFFFFFFFFF
310
FFFFFFFFFFFFFFFFFFFFFFFFFFFFFFFFFFFFFFFFFFFFFFFFFFFFFFFFFFFFFFFF
310
FFFFFFFFFFFFFFFFFFFFFFFFFFFFFFFFFFFFFFFFFFFFFFFFFFFFFFFFFFFFFFFF
310
FFFFFFFFFFFFFFFFFFFFFFFFFFFFFFFFF000FFFFFFFFFFFFFFFFFFFFFFFFFFFF
310
FFFFFFFFFFFFFFFFFFFFFFFFFFFFFFFFFFFFFFFFFFFFFFFFFFFFFFFFFFFFFFFF
310
FFFFFFFFFFFFFFFFFFFFFFFFFFFFFFFFFFFFFFFFFFFFFFFFFFFFFFFFFFFFFFFF
310
FFFFFFFFFFFFFFFFF000FFFFFFFFFFFFFFFFFFFFFFFFFFFFFFFFFFFFFFFFFFFF
310
FFFFFFFFFFFFFFFFFFFFFFFFFFFFFFFFFFFFFFFFFFFFFFFFFFFFFFFFFFFFFFFF
310
FFFFFFFFFFFFFFFFFFFFFFFFFFFFFFFFFFFFFFFFFFFFFFFFFFFFFFFFFFFFFFFF
310
F000FFFFFFFFFFFFFFFFFFFFFFFFFFFFFFFFFFFFFFFFFFFFFFFFFFFFFFFFFFFF
310
FFFFFFFFFFFFFFFFFFFFFFFFFFFFFFFFFFFFFFFFFFFFFFFFFFFFFFFFFFFFFFFF
310
FFFFFFFFFFFFFFFFFFFFFFFFFFFFFFFFFFFFFFFFFFFFFFFFF000FFFFFFFFFFFF
310
FFFFFFFFFFFFFFFFFFFFFFFFFFFFFFFFFFFFFFFFFFFFFFFFFFFFFFFFFFFFFFFF
310
FFFFFFFFFFFFFFFFFFFFFFFFFFFFFFFFFFFFFFFFFFFFFFFFFFFFFFFFFFFFFFFF
310
FFFFFFFFFFFFFFFFFFFFFFFFFFFFFFFFF000FFFFFFFFFFFFFFFFFFFFFFFFFFFF
310
FFFFFFFFFFFFFFFFFFFFFFFFFFFFFFFFFFFFFFFFFFFFFFFFFFFFFFFFFFFFFFFF
310
FFFFFFFFFFFFFFFFFFFFFFFFFFFFFFFFFFFFFFFFFFFFFFFFFFFFFFFFFFFFFFFF
310
FFFFFFFFFFFFFFFFF000FFFFFFFFFFFFFFFFFFFFFFFFFFFFFFFFFFFFFFFFFFFF
310
FFFFFFFFFFFFFFFFFFFFFFFFFFFFFFFFFFFFFFFFFFFFFFFFFFFFFFFFFFFFFFFF
310
FFFFFFFFFFFFFFFFFFFFFFFFFFFFFFFFFFFFFFFFFFFFFFFFFFFFFFFFFFFFFFFF
310
F000FFFFFFFFFFFFFFFFFFFFFFFFFFFFFFFFFFFFFFFFFFFFFFFFFFFFFFFFFFFF
310
FFFFFFFFFFFFFFFFFFFFFFFFFFFFFFFFFFFFFFFFFFFFFFFFFFFFFFFFFFFFFFFF
310
FFFFFFFFFFFFFFFFFFFFFFFFFFFFFFFFFFFFFFFFFFFFFFFFF000FFFFFFFFFFFF
310
FFFFFFFFFFFFFFFFFFFFFFFFFFFFFFFFFFFFFFFFFFFFFFFFFFFFFFFFFFFFFFFF
310
FFFFFFFFFFFFFFFFFFFFFFFFFFFFFFFFFFFFFFFFFFFFFFFFFFFFFFFFFFFFFFFF
310
FFFFFFFFFFFFFFFFFFFFFFFFFFFFFFFFF000FFFFFFFFFFFFFFFFFFFFFFFFFFFF
310
FFFFFFFFFFFFFFFFFFFFFFFFFFFFFFFFFFFFFFFFFFFFFFFFFFFFFFFFFFFFFFFF
310
FFFFFFFFFFFFFFFFFFFFFFFFFFFFFFFFFFFFFFFFFFFFFFFFFFFFFFFFFFFFFFFF
310
FFFFFFFFFFFFFFFFF000FFFFFFFFFFFFFFFFFFFFFFFFFFFFFFFFFFFFFFFFFFFF
310
FFFFFFFFFFFFFFFFFFFFFFFFFFFFFFFFFFFFFFFFFFFFFFFFFFFFFFFFFFFFFFFF
310
FFFFFFFFFFFFFFFFFFFFFFFFFFFFFFFFFFFFFFFFFFFFFFFFFFFFFFFFFFFFFFFF
310
F000FFFFFFFFFFFFFFFFFFFFFFFFFFFFFFFFFFFFFFFFFFFFFFFFFFFFFFFFFFFF
310
FFFFFFFFFFFFFFFFFFFFFFFFFFFFFFFFFFFFFFFFFFFFFFFFFFFFFFFFFFFFFFFF
310
FFFFFFFFFFFFFFFFFFFFFFFFFFFFFFFFFFFFFFFFFFFFFFFFF000FFFFFFFFFFFF
310
FFFFFFFFFFFFFFFFFFFFFFFFFFFFFFFFFFFFFFFFFFFFFFFFFFFFFFFFFFFFFFFF
310
FFFFFFFFFFFFFFFFFFFFFFFFFFFFFFFFFFFFFFFFFFFFFFFFFFFFFFFFFFFFFFFF
310
FFFFFFFFFFFFFFFFFFFFFFFFFFFFFFFFF000FFFFFFFFFFFFFFFFFFFFFFFFFFFF
310
FFFFFFFFFFFFFFFFFFFFFFFFFFFFFFFFFFFFFFFFFFFFFFFFFFFFFFFFFFFFFFFF
310
FFFFFFFFFFFFFFFFFFFFFFFFFFFFFFFFFFFFFFFFFFFFFFFFFFFFFFFFFFFFFFFF
310
FFFFFFFFFFFFFFFFF000FFFFFFFFFFFFFFFFFFFFFFFFFFFFFFFFFFFFFFFFFFFF
310
FFFFFFFFFFFFFFFFFFFFFFFFFFFFFFFFFFFFFFFFFFFFFFFFFFFFFFFFFFFFFFFF
310
FFFFFFFFFFFFFFFFFFFFFFFFFFFFFFFFFFFFFFFFFFFFFFFFFFFFFFFFFFFFFFFF
310
F000FFFFFFFFFFFFFFFFFFFFFFFFFFFFFFFFFFFFFFFFFFFFFFFFFFFFFFFFFFFF
310
FFFFFFFFFFFFFFFFFFFFFFFFFFFFFFFFFFFFFFFFFFFFFFFFFFFFFFFFFFFFFFFF
310
FFFFFFFFFFFFFFFFFFFFFFFFFFFFFFFFFFFFFFFFFFFFFFFFF000FFFFFFFFFFFF
310
FFFFFFFFFFFFFFFFFFFFFFFFFFFFFFFFFFFFFFFFFFFFFFFFFFFFFFFFFFFFFFFF
310
FFFFFFFFFFFFFFFFFFFFFFFFFFFFFFFFFFFFFFFFFFFFFFFFFFFFFFFFFFFFFFFF
310
FFFFFFFFFFFFFFFFFFFFFFFFFFFFFFFFF000FFFFFFFFFFFFFFFFFFFFFFFFFFFF
310
FFFFFFFFFFFFFFFFFFFFFFFFFFFFFFFFFFFFFFFFFFFFFFFFFFFFFFFFFFFFFFFF
310
FFFFFFFFFFFFFFFFFFFFFFFFFFFFFFFFFFFFFFFFFFFFFFFFFFFFFFFFFFFFFFFF
310
FFFFFFFFFFFFFFFFF000FFFFFFFFFFFFFFFFFFFFFFFFFFFFFFFFFFFFFFFFFFFF
310
FFFFFFFFFFFFFFFFFFFFFFFFFFFFFFFFFFFFFFFFFFFFFFFFFFFFFFFFFFFFFFFF
310
FFFFFFFFFFFFFFFFFFFFFFFFFFFFFFFFFFFFFFFFFFFFFFFFFFFFFFFFFFFFFFFF
310
F000FFFFFFFFFFFFFFFFFFFFFFFFFFFFFFFFFFFFFFFFFFFFFFFFFFFFFFFFFFFF
310
FFFFFFFFFFFFFFFFFFFFFFFFFFFFFFFFFFFFFFFFFFFFFFFFFFFFFFFFFFFFFFFF
310
FFFFFFFFFFFFFFFFFFFFFFFFFFFFFFFFFFFFFFFFFFFFFFFFF000FFFFFFFFFFFF
310
FFFFFFFFFFFFFFFFFFFFFFFFFFFFFFFFFFFFFFFFFFFFFFFFFFFFFFFFFFFFFFFF
310
FFFFFFFFFFFFFFFFFFFFFFFFFFFFFFFFFFFFFFFFFFFFFFFFFFFFFFFFFFFFFFFF
310
FFFFFFFFFFFFFFFFFFFFFFFFFFFFFFFFF0000000000000000000000000000000
310
00000000C964083E383DAC3DC727CB3D816EAF3D33A0C53DC355DB3D24EA123E
310
C355DB3D88810F3E11B8EB3D88810F3E11B8EB3D89EB123E90D4E23DC727CB3D
310
A292E33D73D2CA3D6F60E43D07B2CA3D882FE53DC8C8CA3D62F1E53D1F15CB3D
310
6398E63DAE91CB3DD318E73DBA35CC3DAD69E73DBDF5CC3D4685E73D3EC4CD3D
310
4685E73D8D16073EAD69E73DCE7D073ED318E73DCFDD073E6398E63DD52F083E
310
62F1E53D1D6E083E882FE53D4894083E6F60E43DA99F083EA292E33D738F083E
310
90D4E23DC964083E9C24D33DC727CB3D90D4E23DC727CB3D90D4E23DC964083E
310
9C24D33DC964083E217FA63DC727CB3D383DAC3DC727CB3D383DAC3DC964083E
310
FA4D9E3DC964083E13B3593E1034CD3DA5CC593E072FCD3D3BE5593E1C20CD3D
310
E4FB593EE307CD3DC10F5A3E49E7CC3D0E205A3E8FBFCC3D2B2C5A3E3D92CC3D
310
A0335A3E1061CC3D25365A3EEC2DCC3D25365A3EB6E1073EA0335A3E24C8073E
310
2B2C5A3E8EAF073E0E205A3EE498073EC10F5A3E0885073EE4FB593EBB74073E
310
3BE5593E9E68073EA5CC593E2961073E13B3593EA45E073E13B3193E7E68CD3D
310
16B5193E943FCD3D0EBB193E3D18CD3DBEC4193EFBF3CC3DC9D1193E34D4CC3D
310
ADE1193E1FBACC3DCDF3193EBEA6CC3D79071A3ECF9ACC3DEE1B1A3EC796CC3D
  1
OLE
  0
ENDSEC
  0
SECTION
  2
OBJECTS
  0
DICTIONARY
  5
C
330
0
100
AcDbDictionary
281
     1
  3
ACAD_GROUP
350
D
  3
ACAD_LAYOUT
350
1A
  3
ACAD_MLEADERSTYLE
350
1BF
  3
ACAD_MLINESTYLE
350
17
  3
ACAD_PLOTSETTINGS
350
19
  3
ACAD_PLOTSTYLENAME
350
E
  3
ACAD_TABLESTYLE
350
1BE
  3
ACAD_VISUALSTYLE
350
2A
  3
AcDbVariableDictionary
350
1C0
  0
DICTIONARY
  5
D
102
{ACAD_REACTORS
330
C
102
}
330
C
100
AcDbDictionary
281
     1
  0
DICTIONARY
  5
1A
102
{ACAD_REACTORS
330
C
102
}
330
C
100
AcDbDictionary
281
     1
  3
Layout1
350
1E
  3
Layout2
350
26
  3
Model
350
22
  0
DICTIONARY
  5
1BF
102
{ACAD_REACTORS
330
C
102
}
330
C
100
AcDbDictionary
281
     1
  0
DICTIONARY
  5
17
102
{ACAD_REACTORS
330
C
102
}
330
C
100
AcDbDictionary
281
     1
  3
Standard
350
18
  0
DICTIONARY
  5
19
102
{ACAD_REACTORS
330
C
102
}
330
C
100
AcDbDictionary
281
     1
  0
ACDBDICTIONARYWDFLT
  5
E
102
{ACAD_REACTORS
330
C
102
}
330
C
100
AcDbDictionary
281
     1
  3
Normal
350
F
100
AcDbDictionaryWithDefault
340
F
  0
DICTIONARY
  5
1BE
102
{ACAD_REACTORS
330
C
102
}
330
C
100
AcDbDictionary
281
     1
  0
DICTIONARY
  5
2A
102
{ACAD_REACTORS
330
C
102
}
330
C
100
AcDbDictionary
281
     1
  3
2dWireframe
350
2F
  3
3D Hidden
350
31
  3
3dWireframe
350
30
  3
Basic
350
32
  3
Brighten
350
36
  3
ColorChange
350
3A
  3
Conceptual
350
34
  3
Dim
350
35
  3
Facepattern
350
39
  3
Flat
350
2B
  3
FlatWithEdges
350
2C
  3
Gouraud
350
2D
  3
GouraudWithEdges
350
2E
  3
Linepattern
350
38
  3
Realistic
350
33
  3
Thicken
350
37
  0
DICTIONARY
  5
1C0
102
{ACAD_REACTORS
330
C
102
}
330
C
100
AcDbDictionary
281
     1
  3
PSOLHEIGHT
350
1C2
  3
PSOLWIDTH
350
1C1
  0
LAYOUT
  5
1E
102
{ACAD_REACTORS
330
1A
102
}
330
1A
100
AcDbPlotSettings
  1

  2
none_device
  4

  6

 40
0.0
 41
0.0
 42
0.0
 43
0.0
 44
0.0
 45
0.0
 46
0.0
 47
0.0
 48
0.0
 49
0.0
140
0.0
141
0.0
142
1.0
143
1.0
 70
   688
 72
     0
 73
     0
 74
     5
  7

 75
    16
147
1.0
148
0.0
149
0.0
100
AcDbLayout
  1
Layout1
 70
     1
 71
     1
 10
0.0
 20
0.0
 11
420.0
 21
297.0
 12
0.0
 22
0.0
 32
0.0
 14
1.0000000000E+20
 24
1.0000000000E+20
 34
1.0000000000E+20
 15
-1.0000000000E+20
 25
-1.0000000000E+20
 35
-1.0000000000E+20
146
0.0
 13
0.0
 23
0.0
 33
0.0
 16
1.0
 26
0.0
 36
0.0
 17
0.0
 27
1.0
 37
0.0
 76
     0
330
1B
  0
LAYOUT
  5
26
102
{ACAD_REACTORS
330
1A
102
}
330
1A
100
AcDbPlotSettings
  1

  2
none_device
  4

  6

 40
0.0
 41
0.0
 42
0.0
 43
0.0
 44
0.0
 45
0.0
 46
0.0
 47
0.0
 48
0.0
 49
0.0
140
0.0
141
0.0
142
1.0
143
1.0
 70
   688
 72
     0
 73
     0
 74
     5
  7

 75
    16
147
1.0
148
0.0
149
0.0
100
AcDbLayout
  1
Layout2
 70
     1
 71
     2
 10
0.0
 20
0.0
 11
0.0
 21
0.0
 12
0.0
 22
0.0
 32
0.0
 14
0.0
 24
0.0
 34
0.0
 15
0.0
 25
0.0
 35
0.0
146
0.0
 13
0.0
 23
0.0
 33
0.0
 16
1.0
 26
0.0
 36
0.0
 17
0.0
 27
1.0
 37
0.0
 76
     0
330
23
  0
LAYOUT
  5
22
102
{ACAD_REACTORS
330
1A
102
}
330
1A
100
AcDbPlotSettings
  1

  2
none_device
  4

  6

 40
0.0
 41
0.0
 42
0.0
 43
0.0
 44
0.0
 45
0.0
 46
0.0
 47
0.0
 48
0.0
 49
0.0
140
0.0
141
0.0
142
1.0
143
1.0
 70
  1712
 72
     0
 73
     0
 74
     0
  7

 75
     0
147
1.0
148
0.0
149
0.0
100
AcDbLayout
  1
Model
 70
     1
 71
     0
 10
0.0
 20
0.0
 11
297.0
 21
210.0
 12
0.0
 22
0.0
 32
0.0
 14
0.0
 24
0.0
 34
0.0
 15
297.0
 25
210.0
 35
0.0
146
0.0
 13
0.0
 23
0.0
 33
0.0
 16
1.0
 26
0.0
 36
0.0
 17
0.0
 27
1.0
 37
0.0
 76
     0
330
1F
331
29
  0
MLINESTYLE
  5
18
102
{ACAD_REACTORS
330
17
102
}
330
17
100
AcDbMlineStyle
  2
Standard
 70
     0
  3

 62
   256
 51
90.0
 52
90.0
 71
     2
 49
0.5
 62
   256
  6
BYLAYER
 49
-0.5
 62
   256
  6
BYLAYER
  0
ACDBPLACEHOLDER
  5
F
102
{ACAD_REACTORS
330
E
102
}
330
E
  0
VISUALSTYLE
  5
2F
102
{ACAD_REACTORS
330
2A
102
}
330
2A
100
AcDbVisualStyle
  2
2dWireframe
 70
     4
 71
     0
 72
     2
 73
     0
 90
        0
 40
-0.6
 41
-30.0
 62
     5
 63
     7
 74
     1
 91
        4
 64
     7
 65
   257
 75
     1
175
     1
 42
1.0
 92
        0
 66
   257
 43
1.0
 76
     1
 77
     6
 78
     2
 67
     7
 79
     5
170
     0
171
     0
290
     0
174
     0
 93
        1
 44
0.0
173
     0
291
     0
 45
0.0
1001
ACAD
1000
AcDbSavedByObjectVersion
1070
     0
  0
VISUALSTYLE
  5
31
102
{ACAD_REACTORS
330
2A
102
}
330
2A
100
AcDbVisualStyle
  2
3D Hidden
 70
     6
 71
     1
 72
     2
 73
     2
 90
        0
 40
-0.6
 41
-30.0
 62
     5
 63
     7
 74
     2
 91
        2
 64
     7
 65
   257
 75
     2
175
     1
 42
40.0
 92
        0
 66
   257
 43
1.0
 76
     1
 77
     6
 78
     2
 67
     7
 79
     3
170
     0
171
     0
290
     0
174
     0
 93
        1
 44
0.0
173
     0
291
     0
 45
0.0
1001
ACAD
1000
AcDbSavedByObjectVersion
1070
     0
  0
VISUALSTYLE
  5
30
102
{ACAD_REACTORS
330
2A
102
}
330
2A
100
AcDbVisualStyle
  2
3dWireframe
 70
     5
 71
     0
 72
     2
 73
     0
 90
        0
 40
-0.6
 41
-30.0
 62
     5
 63
     7
 74
     1
 91
        4
 64
     7
 65
   257
 75
     1
175
     1
 42
1.0
 92
        0
 66
   257
 43
1.0
 76
     1
 77
     6
 78
     2
 67
     7
 79
     5
170
     0
171
     0
290
     0
174
     0
 93
        1
 44
0.0
173
     0
291
     0
 45
0.0
1001
ACAD
1000
AcDbSavedByObjectVersion
1070
     0
  0
VISUALSTYLE
  5
32
102
{ACAD_REACTORS
330
2A
102
}
330
2A
100
AcDbVisualStyle
  2
Basic
 70
     7
 71
     1
 72
     0
 73
     1
 90
        0
 40
-0.6
 41
-30.0
 62
     5
 63
     7
 74
     0
 91
        4
 64
     7
 65
   257
 75
     1
175
     1
 42
1.0
 92
        8
 66
     7
 43
1.0
 76
     1
 77
     6
 78
     2
 67
     7
 79
     5
170
     0
171
     0
290
     0
174
     0
 93
        1
 44
0.0
173
     0
291
     1
 45
0.0
1001
ACAD
1000
AcDbSavedByObjectVersion
1070
     0
  0
VISUALSTYLE
  5
36
102
{ACAD_REACTORS
330
2A
102
}
330
2A
100
AcDbVisualStyle
  2
Brighten
 70
    12
 71
     2
 72
     2
 73
     0
 90
        0
 40
-0.6
 41
-30.0
 62
     5
 63
     7
 74
     1
 91
        4
 64
     7
 65
   257
 75
     1
175
     1
 42
1.0
 92
        8
 66
     7
 43
1.0
 76
     1
 77
     6
 78
     2
 67
     7
 79
     5
170
     0
171
     0
290
     0
174
     0
 93
        1
 44
50.0
173
     0
291
     1
 45
0.0
1001
ACAD
1000
AcDbSavedByObjectVersion
1070
     0
  0
VISUALSTYLE
  5
3A
102
{ACAD_REACTORS
330
2A
102
}
330
2A
100
AcDbVisualStyle
  2
ColorChange
 70
    16
 71
     2
 72
     2
 73
     3
 90
        0
 40
-0.6
 41
-30.0
 62
     5
 63
     8
 74
     1
 91
        4
 64
     7
 65
   257
 75
     1
175
     1
 42
1.0
 92
        8
 66
     8
 43
1.0
 76
     1
 77
     6
 78
     2
 67
     7
 79
     5
170
     0
171
     0
290
     0
174
     0
 93
        1
 44
0.0
173
     0
291
     1
 45
0.0
1001
ACAD
1000
AcDbSavedByObjectVersion
1070
     0
  0
VISUALSTYLE
  5
34
102
{ACAD_REACTORS
330
2A
102
}
330
2A
100
AcDbVisualStyle
  2
Conceptual
 70
     9
 71
     3
 72
     2
 73
     0
 90
        0
 40
-0.6
 41
-30.0
 62
     5
 63
     7
 74
     2
 91
        2
 64
     7
 65
   257
 75
     1
175
     1
 42
40.0
 92
        8
 66
     7
 43
1.0
 76
     1
 77
     6
 78
     2
 67
     7
 79
     3
170
     0
171
     0
290
     0
174
     0
 93
        1
 44
0.0
173
     0
291
     0
 45
0.0
1001
ACAD
1000
AcDbSavedByObjectVersion
1070
     0
  0
VISUALSTYLE
  5
35
102
{ACAD_REACTORS
330
2A
102
}
330
2A
100
AcDbVisualStyle
  2
Dim
 70
    11
 71
     2
 72
     2
 73
     0
 90
        0
 40
-0.6
 41
-30.0
 62
     5
 63
     7
 74
     1
 91
        4
 64
     7
 65
   257
 75
     1
175
     1
 42
1.0
 92
        8
 66
     7
 43
1.0
 76
     1
 77
     6
 78
     2
 67
     7
 79
     5
170
     0
171
     0
290
     0
174
     0
 93
        1
 44
-50.0
173
     0
291
     1
 45
0.0
1001
ACAD
1000
AcDbSavedByObjectVersion
1070
     0
  0
VISUALSTYLE
  5
39
102
{ACAD_REACTORS
330
2A
102
}
330
2A
100
AcDbVisualStyle
  2
Facepattern
 70
    15
 71
     2
 72
     2
 73
     0
 90
        0
 40
-0.6
 41
-30.0
 62
     5
 63
     7
 74
     1
 91
        4
 64
     7
 65
   257
 75
     1
175
     1
 42
1.0
 92
        8
 66
     7
 43
1.0
 76
     1
 77
     6
 78
     2
 67
     7
 79
     5
170
     0
171
     0
290
     0
174
     0
 93
        1
 44
0.0
173
     0
291
     1
 45
0.0
1001
ACAD
1000
AcDbSavedByObjectVersion
1070
     0
  0
VISUALSTYLE
  5
2B
102
{ACAD_REACTORS
330
2A
102
}
330
2A
100
AcDbVisualStyle
  2
Flat
 70
     0
 71
     2
 72
     1
 73
     1
 90
        2
 40
-0.6
 41
30.0
 62
     5
 63
     7
 74
     0
 91
        4
 64
     7
 65
   257
 75
     1
175
     1
 42
1.0
 92
        8
 66
     7
 43
1.0
 76
     1
 77
     6
 78
     2
 67
     7
 79
     5
170
     0
171
     0
290
     0
174
     0
 93
       13
 44
0.0
173
     0
291
     1
 45
0.0
1001
ACAD
1000
AcDbSavedByObjectVersion
1070
     0
  0
VISUALSTYLE
  5
2C
102
{ACAD_REACTORS
330
2A
102
}
330
2A
100
AcDbVisualStyle
  2
FlatWithEdges
 70
     1
 71
     2
 72
     1
 73
     1
 90
        2
 40
-0.6
 41
30.0
 62
     5
 63
     7
 74
     1
 91
        4
 64
     7
 65
   257
 75
     1
175
     1
 42
1.0
 92
        0
 66
   257
 43
1.0
 76
     1
 77
     6
 78
     2
 67
     7
 79
     5
170
     0
171
     0
290
     0
174
     0
 93
       13
 44
0.0
173
     0
291
     1
 45
0.0
1001
ACAD
1000
AcDbSavedByObjectVersion
1070
     0
  0
VISUALSTYLE
  5
2D
102
{ACAD_REACTORS
330
2A
102
}
330
2A
100
AcDbVisualStyle
  2
Gouraud
 70
     2
 71
     2
 72
     2
 73
     1
 90
        2
 40
-0.6
 41
30.0
 62
     5
 63
     7
 74
     0
 91
        4
 64
     7
 65
   257
 75
     1
175
     1
 42
1.0
 92
        0
 66
     7
 43
1.0
 76
     1
 77
     6
 78
     2
 67
     7
 79
     5
170
     0
171
     0
290
     0
174
     0
 93
       13
 44
0.0
173
     0
291
     1
 45
0.0
1001
ACAD
1000
AcDbSavedByObjectVersion
1070
     0
  0
VISUALSTYLE
  5
2E
102
{ACAD_REACTORS
330
2A
102
}
330
2A
100
AcDbVisualStyle
  2
GouraudWithEdges
 70
     3
 71
     2
 72
     2
 73
     1
 90
        2
 40
-0.6
 41
30.0
 62
     5
 63
     7
 74
     1
 91
        4
 64
     7
 65
   257
 75
     1
175
     1
 42
1.0
 92
        0
 66
   257
 43
1.0
 76
     1
 77
     6
 78
     2
 67
     7
 79
     5
170
     0
171
     0
290
     0
174
     0
 93
       13
 44
0.0
173
     0
291
     1
 45
0.0
1001
ACAD
1000
AcDbSavedByObjectVersion
1070
     0
  0
VISUALSTYLE
  5
38
102
{ACAD_REACTORS
330
2A
102
}
330
2A
100
AcDbVisualStyle
  2
Linepattern
 70
    14
 71
     2
 72
     2
 73
     0
 90
        0
 40
-0.6
 41
-30.0
 62
     5
 63
     7
 74
     1
 91
        4
 64
     7
 65
   257
 75
     7
175
     7
 42
1.0
 92
        8
 66
     7
 43
1.0
 76
     1
 77
     6
 78
     2
 67
     7
 79
     5
170
     0
171
     0
290
     0
174
     0
 93
        1
 44
0.0
173
     0
291
     1
 45
0.0
1001
ACAD
1000
AcDbSavedByObjectVersion
1070
     0
  0
VISUALSTYLE
  5
33
102
{ACAD_REACTORS
330
2A
102
}
330
2A
100
AcDbVisualStyle
  2
Realistic
 70
     8
 71
     2
 72
     2
 73
     0
 90
        0
 40
-0.6
 41
-30.0
 62
     5
 63
     7
 74
     1
 91
        0
 64
     7
 65
   257
 75
     1
175
     1
 42
1.0
 92
        8
 66
     8
 43
1.0
 76
     1
 77
     6
 78
     2
 67
     7
 79
     5
170
     0
171
     0
290
     0
174
     0
 93
       13
 44
0.0
173
     0
291
     0
 45
0.0
1001
ACAD
1000
AcDbSavedByObjectVersion
1070
     0
  0
VISUALSTYLE
  5
37
102
{ACAD_REACTORS
330
2A
102
}
330
2A
100
AcDbVisualStyle
  2
Thicken
 70
    13
 71
     2
 72
     2
 73
     0
 90
        0
 40
-0.6
 41
-30.0
 62
     5
 63
     7
 74
     1
 91
        4
 64
     7
 65
   257
 75
     1
175
     1
 42
1.0
 92
       12
 66
     7
 43
1.0
 76
     1
 77
     6
 78
     2
 67
     7
 79
     5
170
     0
171
     0
290
     0
174
     0
 93
        1
 44
0.0
173
     0
291
     1
 45
0.0
1001
ACAD
1000
AcDbSavedByObjectVersion
1070
     0
  0
DICTIONARYVAR
  5
1C2
102
{ACAD_REACTORS
330
1C0
102
}
330
1C0
100
DictionaryVariables
280
     0
  1
80.000000
  0
DICTIONARYVAR
  5
1C1
102
{ACAD_REACTORS
330
1C0
102
}
330
1C0
100
DictionaryVariables
280
     0
  1
5.000000
  0
ENDSEC
  0
EOF
