  0
SECTION
  2
HEADER
  9
$ACADVER
  1
AC1015
  9
$ACADMAINTVER
 70
     6
  9
$DWGCODEPAGE
  3
ANSI_1252
  9
$INSBASE
 10
0.0
 20
0.0
 30
0.0
  9
$EXTMIN
 10
0.0
 20
0.0
 30
0.0
  9
$EXTMAX
 10
297.0
 20
210.0
 30
0.0
  9
$LIMMIN
 10
0.0
 20
0.0
  9
$LIMMAX
 10
297.0
 20
210.0
  9
$ORTHOMODE
 70
     0
  9
$REGENMODE
 70
     1
  9
$FILLMODE
 70
     1
  9
$QTEXTMODE
 70
     0
  9
$MIRRTEXT
 70
     1
  9
$LTSCALE
 40
1.0
  9
$ATTMODE
 70
     1
  9
$TEXTSIZE
 40
2.0
  9
$TRACEWID
 40
1.0
  9
$TEXTSTYLE
  7
Standard
  9
$CLAYER
  8
0
  9
$CELTYPE
  6
ByLayer
  9
$CECOLOR
 62
   256
  9
$CELTSCALE
 40
1.0
  9
$DISPSILH
 70
     0
  9
$DIMSCALE
 40
1.0
  9
$DIMASZ
 40
3.0
  9
$DIMEXO
 40
0.0
  9
$DIMDLI
 40
3.75
  9
$DIMRND
 40
0.0
  9
$DIMDLE
 40
0.0
  9
$DIMEXE
 40
1.0
  9
$DIMTP
 40
0.0
  9
$DIMTM
 40
0.0
  9
$DIMTXT
 40
2.0
  9
$DIMCEN
 40
2.5
  9
$DIMTSZ
 40
0.0
  9
$DIMTOL
 70
     0
  9
$DIMLIM
 70
     0
  9
$DIMTIH
 70
     1
  9
$DIMTOH
 70
     1
  9
$DIMSE1
 70
     0
  9
$DIMSE2
 70
     0
  9
$DIMTAD
 70
     1
  9
$DIMZIN
 70
     0
  9
$DIMBLK
  1

  9
$DIMASO
 70
     1
  9
$DIMSHO
 70
     1
  9
$DIMPOST
  1

  9
$DIMAPOST
  1

  9
$DIMALT
 70
     0
  9
$DIMALTD
 70
     3
  9
$DIMALTF
 40
0.0393700787
  9
$DIMLFAC
 40
1.0
  9
$DIMTOFL
 70
     1
  9
$DIMTVP
 40
0.0
  9
$DIMTIX
 70
     0
  9
$DIMSOXD
 70
     0
  9
$DIMSAH
 70
     0
  9
$DIMBLK1
  1

  9
$DIMBLK2
  1

  9
$DIMSTYLE
  2
ISO-25
  9
$DIMCLRD
 70
     0
  9
$DIMCLRE
 70
     0
  9
$DIMCLRT
 70
     0
  9
$DIMTFAC
 40
1.0
  9
$DIMGAP
 40
1.524
  9
$DIMJUST
 70
     0
  9
$DIMSD1
 70
     0
  9
$DIMSD2
 70
     0
  9
$DIMTOLJ
 70
     0
  9
$DIMTZIN
 70
     0
  9
$DIMALTZ
 70
     0
  9
$DIMALTTZ
 70
     0
  9
$DIMUPT
 70
     0
  9
$DIMDEC
 70
     2
  9
$DIMTDEC
 70
     3
  9
$DIMALTU
 70
     2
  9
$DIMALTTD
 70
     3
  9
$DIMTXSTY
  7
Standard
  9
$DIMAUNIT
 70
     0
  9
$DIMADEC
 70
     2
  9
$DIMALTRND
 40
0.0
  9
$DIMAZIN
 70
     0
  9
$DIMDSEP
 70
    44
  9
$DIMATFIT
 70
     3
  9
$DIMFRAC
 70
     0
  9
$DIMLDRBLK
  1

  9
$DIMLUNIT
 70
     2
  9
$DIMLWD
 70
    -2
  9
$DIMLWE
 70
    -2
  9
$DIMTMOVE
 70
     0
  9
$LUNITS
 70
     2
  9
$LUPREC
 70
     2
  9
$SKETCHINC
 40
1.0
  9
$FILLETRAD
 40
10.0
  9
$AUNITS
 70
     0
  9
$AUPREC
 70
     2
  9
$MENU
  1
.
  9
$ELEVATION
 40
0.0
  9
$PELEVATION
 40
0.0
  9
$THICKNESS
 40
0.0
  9
$LIMCHECK
 70
     0
  9
$CHAMFERA
 40
10.0
  9
$CHAMFERB
 40
10.0
  9
$CHAMFERC
 40
20.0
  9
$CHAMFERD
 40
0.0
  9
$SKPOLY
 70
     0
  9
$TDCREATE
 40
2455673.414066551
  9
$TDUCREATE
 40
2455673.330733218
  9
$TDUPDATE
 40
2455673.414066562
  9
$TDUUPDATE
 40
2455673.330733229
  9
$TDINDWG
 40
0.0000000116
  9
$TDUSRTIMER
 40
0.0000000116
  9
$USRTIMER
 70
     1
  9
$ANGBASE
 50
0.0
  9
$ANGDIR
 70
     0
  9
$PDMODE
 70
     0
  9
$PDSIZE
 40
-1.0
  9
$PLINEWID
 40
0.0
  9
$SPLFRAME
 70
     0
  9
$SPLINETYPE
 70
     6
  9
$SPLINESEGS
 70
     8
  9
$HANDSEED
  5
211
  9
$SURFTAB1
 70
     6
  9
$SURFTAB2
 70
     6
  9
$SURFTYPE
 70
     6
  9
$SURFU
 70
     6
  9
$SURFV
 70
     6
  9
$UCSBASE
  2

  9
$UCSNAME
  2

  9
$UCSORG
 10
0.0
 20
0.0
 30
0.0
  9
$UCSXDIR
 10
1.0
 20
0.0
 30
0.0
  9
$UCSYDIR
 10
0.0
 20
1.0
 30
0.0
  9
$UCSORTHOREF
  2

  9
$UCSORTHOVIEW
 70
     0
  9
$UCSORGTOP
 10
0.0
 20
0.0
 30
0.0
  9
$UCSORGBOTTOM
 10
0.0
 20
0.0
 30
0.0
  9
$UCSORGLEFT
 10
0.0
 20
0.0
 30
0.0
  9
$UCSORGRIGHT
 10
0.0
 20
0.0
 30
0.0
  9
$UCSORGFRONT
 10
0.0
 20
0.0
 30
0.0
  9
$UCSORGBACK
 10
0.0
 20
0.0
 30
0.0
  9
$PUCSBASE
  2

  9
$PUCSNAME
  2

  9
$PUCSORG
 10
0.0
 20
0.0
 30
0.0
  9
$PUCSXDIR
 10
1.0
 20
0.0
 30
0.0
  9
$PUCSYDIR
 10
0.0
 20
1.0
 30
0.0
  9
$PUCSORTHOREF
  2

  9
$PUCSORTHOVIEW
 70
     0
  9
$PUCSORGTOP
 10
0.0
 20
0.0
 30
0.0
  9
$PUCSORGBOTTOM
 10
0.0
 20
0.0
 30
0.0
  9
$PUCSORGLEFT
 10
0.0
 20
0.0
 30
0.0
  9
$PUCSORGRIGHT
 10
0.0
 20
0.0
 30
0.0
  9
$PUCSORGFRONT
 10
0.0
 20
0.0
 30
0.0
  9
$PUCSORGBACK
 10
0.0
 20
0.0
 30
0.0
  9
$USERI1
 70
     0
  9
$USERI2
 70
     0
  9
$USERI3
 70
     0
  9
$USERI4
 70
     0
  9
$USERI5
 70
     0
  9
$USERR1
 40
0.0
  9
$USERR2
 40
0.0
  9
$USERR3
 40
0.0
  9
$USERR4
 40
0.0
  9
$USERR5
 40
0.0
  9
$WORLDVIEW
 70
     1
  9
$SHADEDGE
 70
     3
  9
$SHADEDIF
 70
    70
  9
$TILEMODE
 70
     1
  9
$MAXACTVP
 70
    64
  9
$PINSBASE
 10
0.0
 20
0.0
 30
0.0
  9
$PLIMCHECK
 70
     0
  9
$PEXTMIN
 10
1.0000000000E+20
 20
1.0000000000E+20
 30
1.0000000000E+20
  9
$PEXTMAX
 10
-1.0000000000E+20
 20
-1.0000000000E+20
 30
-1.0000000000E+20
  9
$PLIMMIN
 10
0.0
 20
0.0
  9
$PLIMMAX
 10
420.0
 20
297.0
  9
$UNITMODE
 70
     0
  9
$VISRETAIN
 70
     1
  9
$PLINEGEN
 70
     0
  9
$PSLTSCALE
 70
     1
  9
$TREEDEPTH
 70
  3020
  9
$CMLSTYLE
  2
Standard
  9
$CMLJUST
 70
     0
  9
$CMLSCALE
 40
20.0
  9
$PROXYGRAPHICS
 70
     1
  9
$MEASUREMENT
 70
     1
  9
$CELWEIGHT
370
    -1
  9
$ENDCAPS
280
     0
  9
$JOINSTYLE
280
     0
  9
$LWDISPLAY
290
     1
  9
$INSUNITS
 70
     4
  9
$HYPERLINKBASE
  1

  9
$STYLESHEET
  1

  9
$XEDIT
290
     1
  9
$CEPSNTYPE
380
     0
  9
$PSTYLEMODE
290
     1
  9
$FINGERPRINTGUID
  2
{1CDE7148-BDBB-4F72-BEED-AF94B058080E}
  9
$VERSIONGUID
  2
{FAEB1C32-E019-11D5-929B-00C0DF256EC4}
  9
$EXTNAMES
290
     1
  9
$PSVPSCALE
 40
0.0
  9
$OLESTARTUP
290
     0
  0
ENDSEC
  0
SECTION
  2
CLASSES
  0
CLASS
  1
ACDBDICTIONARYWDFLT
  2
AcDbDictionaryWithDefault
  3
ObjectDBX Classes
 90
        0
280
     0
281
     0
  0
CLASS
  1
VISUALSTYLE
  2
AcDbVisualStyle
  3
ObjectDBX Classes
 90
     4095
280
     0
281
     0
  0
CLASS
  1
DICTIONARYVAR
  2
AcDbDictionaryVar
  3
ObjectDBX Classes
 90
        0
280
     0
281
     0
  0
CLASS
  1
ACDBPLACEHOLDER
  2
AcDbPlaceHolder
  3
ObjectDBX Classes
 90
        0
280
     0
281
     0
  0
CLASS
  1
LAYOUT
  2
AcDbLayout
  3
ObjectDBX Classes
 90
        0
280
     0
281
     0
  0
ENDSEC
  0
SECTION
  2
TABLES
  0
TABLE
  2
VPORT
  5
8
330
0
100
AcDbSymbolTable
 70
     1
  0
VPORT
  5
29
330
8
100
AcDbSymbolTableRecord
100
AcDbViewportTableRecord
  2
*Active
 70
     0
 10
0.0
 20
0.0
 11
1.0
 21
1.0
 12
148.5
 22
105.0
 13
0.0
 23
0.0
 14
10.0
 24
10.0
 15
10.0
 25
10.0
 16
0.0
 26
0.0
 36
1.0
 17
0.0
 27
0.0
 37
0.0
 40
210.0
 41
1.4142857143
 42
50.0
 43
0.0
 44
0.0
 50
0.0
 51
0.0
 71
     0
 72
  2000
 73
     1
 74
     3
 75
     0
 76
     0
 77
     0
 78
     0
281
     0
 65
     1
110
0.0
120
0.0
130
0.0
111
1.0
121
0.0
131
0.0
112
0.0
122
1.0
132
0.0
 79
     0
146
0.0
  0
ENDTAB
  0
TABLE
  2
LTYPE
  5
5
330
0
100
AcDbSymbolTable
 70
     6
  0
LTYPE
  5
14
330
5
100
AcDbSymbolTableRecord
100
AcDbLinetypeTableRecord
  2
ByBlock
 70
     0
  3

 72
    65
 73
     0
 40
0.0
  0
LTYPE
  5
15
330
5
100
AcDbSymbolTableRecord
100
AcDbLinetypeTableRecord
  2
ByLayer
 70
     0
  3

 72
    65
 73
     0
 40
0.0
  0
LTYPE
  5
16
330
5
100
AcDbSymbolTableRecord
100
AcDbLinetypeTableRecord
  2
Continuous
 70
     0
  3
Solid line
 72
    65
 73
     0
 40
0.0
  0
LTYPE
  5
3B
330
5
100
AcDbSymbolTableRecord
100
AcDbLinetypeTableRecord
  2
HIDDEN
 70
     0
  3
Hidden __ __ __ __ __ __ __ __ __ __ __ __ __ __
 72
    65
 73
     2
 40
1.905
 49
1.27
 74
     0
 49
-0.635
 74
     0
  0
LTYPE
  5
3C
330
5
100
AcDbSymbolTableRecord
100
AcDbLinetypeTableRecord
  2
PHANTOM
 70
     0
  3
Phantom ______  __  __  ______  __  __  ______
 72
    65
 73
     6
 40
12.7
 49
6.35
 74
     0
 49
-1.27
 74
     0
 49
1.27
 74
     0
 49
-1.27
 74
     0
 49
1.27
 74
     0
 49
-1.27
 74
     0
  0
LTYPE
  5
3D
330
5
100
AcDbSymbolTableRecord
100
AcDbLinetypeTableRecord
  2
CENTER
 70
     0
  3
Center ____ _ ____ _ ____ _ ____ _ ____ _ ____
 72
    65
 73
     4
 40
10.16
 49
6.35
 74
     0
 49
-1.27
 74
     0
 49
1.27
 74
     0
 49
-1.27
 74
     0
  0
LTYPE
  5
3E
330
5
100
AcDbSymbolTableRecord
100
AcDbLinetypeTableRecord
  2
CENTERX2
 70
     0
  3
Center (2x) ________  __  ________  __  _____
 72
    65
 73
     4
 40
20.32
 49
12.7
 74
     0
 49
-2.54
 74
     0
 49
2.54
 74
     0
 49
-2.54
 74
     0
  0
LTYPE
  5
3F
330
5
100
AcDbSymbolTableRecord
100
AcDbLinetypeTableRecord
  2
DOT2
 70
     0
  3
Dot (.5x) ........................................
 72
    65
 73
     2
 40
0.635
 49
0.0
 74
     0
 49
-0.635
 74
     0
  0
ENDTAB
  0
TABLE
  2
LAYER
  5
2
330
0
100
AcDbSymbolTable
 70
     5
  0
LAYER
  5
10
330
2
100
AcDbSymbolTableRecord
100
AcDbLayerTableRecord
  2
0
 70
     0
 62
     7
  6
Continuous
370
    -3
390
F
  0
LAYER
  5
40
330
2
100
AcDbSymbolTableRecord
100
AcDbLayerTableRecord
  2
FORMAT
 70
     0
 62
     7
  6
Continuous
370
    -3
390
F
  0
LAYER
  5
41
330
2
100
AcDbSymbolTableRecord
100
AcDbLayerTableRecord
  2
VERMASSUNG
 70
     0
 62
     7
  6
Continuous
370
    -3
390
F
  0
LAYER
  5
42
330
2
100
AcDbSymbolTableRecord
100
AcDbLayerTableRecord
  2
KOPF_DÜNN
 70
     0
 62
     7
  6
Continuous
370
    -3
390
F
  0
LAYER
  5
43
330
2
100
AcDbSymbolTableRecord
100
AcDbLayerTableRecord
  2
KOPF_DICK
 70
     0
 62
     7
  6
Continuous
370
    15
390
F
  0
ENDTAB
  0
TABLE
  2
STYLE
  5
3
330
0
100
AcDbSymbolTable
 70
     3
  0
STYLE
  5
11
330
3
100
AcDbSymbolTableRecord
100
AcDbTextStyleTableRecord
  2
Standard
 70
     0
 40
0.0
 41
1.0
 50
0.0
 71
     0
 42
2.5
  3
txt
  4

  0
STYLE
  5
44
330
3
100
AcDbSymbolTableRecord
100
AcDbTextStyleTableRecord
  2
SLDTEXTSTYLE0
 70
     0
 40
0.0
 41
0.7
 50
0.0
 71
     0
 42
0.2
  3
TXT
  4

  0
STYLE
  5
48
330
3
100
AcDbSymbolTableRecord
100
AcDbTextStyleTableRecord
  2
SLDTEXTSTYLE1
 70
     0
 40
0.0
 41
0.6473684211
 50
0.0
 71
     0
 42
0.2
  3
TXT
  4

  0
ENDTAB
  0
TABLE
  2
VIEW
  5
6
330
0
100
AcDbSymbolTable
 70
     0
  0
ENDTAB
  0
TABLE
  2
UCS
  5
7
330
0
100
AcDbSymbolTable
 70
     0
  0
ENDTAB
  0
TABLE
  2
APPID
  5
9
330
0
100
AcDbSymbolTable
 70
     1
  0
APPID
  5
12
330
9
100
AcDbSymbolTableRecord
100
AcDbRegAppTableRecord
  2
ACAD
 70
     0
  0
ENDTAB
  0
TABLE
  2
DIMSTYLE
  5
A
330
0
100
AcDbSymbolTable
 70
     2
100
AcDbDimStyleTable
  0
DIMSTYLE
105
27
330
A
100
AcDbSymbolTableRecord
100
AcDbDimStyleTableRecord
  2
ISO-25
 70
     0
 41
2.5
 42
0.625
 43
3.75
 44
1.25
 73
     0
 74
     0
 77
     1
 78
     8
140
2.5
141
2.5
143
0.0393700787
147
0.625
171
     3
172
     1
271
     2
272
     2
274
     3
278
    44
283
     0
284
     8
340
11
  0
DIMSTYLE
105
1CA
102
{ACAD_REACTORS
330
1C9
330
1D6
330
1E0
330
1EA
330
1F4
330
1FF
102
}
330
A
100
AcDbSymbolTableRecord
100
AcDbDimStyleTableRecord
  2
SLDDIMSTYLE0
 70
     0
 41
3.0
 44
0.0
 45
0.000000001
 73
     0
 74
     0
 77
     1
 78
    12
140
2.0
147
0.5
173
     1
271
     2
272
     3
284
    12
340
44
  0
ENDTAB
  0
TABLE
  2
BLOCK_RECORD
  5
1
330
0
100
AcDbSymbolTable
 70
     7
  0
BLOCK_RECORD
  5
1F
330
1
100
AcDbSymbolTableRecord
100
AcDbBlockTableRecord
  2
*Model_Space
340
22
  0
BLOCK_RECORD
  5
1B
330
1
100
AcDbSymbolTableRecord
100
AcDbBlockTableRecord
  2
*Paper_Space
340
1E
  0
BLOCK_RECORD
  5
23
330
1
100
AcDbSymbolTableRecord
100
AcDbBlockTableRecord
  2
*Paper_Space0
340
26
  0
BLOCK_RECORD
  5
1CB
330
1
100
AcDbSymbolTableRecord
100
AcDbBlockTableRecord
  2
*D1
340
0
  0
BLOCK_RECORD
  5
1D7
330
1
100
AcDbSymbolTableRecord
100
AcDbBlockTableRecord
  2
*D2
340
0
  0
BLOCK_RECORD
  5
1E1
330
1
100
AcDbSymbolTableRecord
100
AcDbBlockTableRecord
  2
*D3
340
0
  0
BLOCK_RECORD
  5
1EB
330
1
100
AcDbSymbolTableRecord
100
AcDbBlockTableRecord
  2
*D4
340
0
  0
BLOCK_RECORD
  5
1F5
330
1
100
AcDbSymbolTableRecord
100
AcDbBlockTableRecord
  2
*D5
340
0
  0
BLOCK_RECORD
  5
200
330
1
100
AcDbSymbolTableRecord
100
AcDbBlockTableRecord
  2
*D6
340
0
  0
ENDTAB
  0
ENDSEC
  0
SECTION
  2
BLOCKS
  0
BLOCK
  5
20
330
1F
100
AcDbEntity
  8
0
100
AcDbBlockBegin
  2
*Model_Space
 70
     0
 10
0.0
 20
0.0
 30
0.0
  3
*Model_Space
  1

  0
ENDBLK
  5
21
330
1F
100
AcDbEntity
  8
0
100
AcDbBlockEnd
  0
BLOCK
  5
1C
330
1B
100
AcDbEntity
 67
     1
  8
0
100
AcDbBlockBegin
  2
*Paper_Space
 70
     0
 10
0.0
 20
0.0
 30
0.0
  3
*Paper_Space
  1

  0
ENDBLK
  5
1D
330
1B
100
AcDbEntity
 67
     1
  8
0
100
AcDbBlockEnd
  0
BLOCK
  5
24
330
23
100
AcDbEntity
  8
0
100
AcDbBlockBegin
  2
*Paper_Space0
 70
     0
 10
0.0
 20
0.0
 30
0.0
  3
*Paper_Space0
  1

  0
ENDBLK
  5
25
330
23
100
AcDbEntity
  8
0
100
AcDbBlockEnd
  0
BLOCK
  5
1CC
330
1CB
100
AcDbEntity
  8
0
100
AcDbBlockBegin
  2
*D1
 70
     1
 10
0.0
 20
0.0
 30
0.0
  3
*D1
  1

  0
SOLID
  5
1CE
330
1CB
100
AcDbEntity
  8
VERMASSUNG
100
AcDbTrace
 10
82.5948942549
 20
139.0763737451
 30
0.0
 11
82.1448942549
 21
136.0763737451
 31
0.0
 12
83.0448942549
 22
136.0763737451
 32
0.0
 13
83.0448942549
 23
136.0763737451
 33
0.0
  0
SOLID
  5
1CF
330
1CB
100
AcDbEntity
  8
VERMASSUNG
100
AcDbTrace
 10
82.5948942549
 20
76.0763737451
 30
0.0
 11
83.0448942549
 21
79.0763737451
 31
0.0
 12
82.1448942549
 22
79.0763737451
 32
0.0
 13
82.1448942549
 23
79.0763737451
 33
0.0
  0
LINE
  5
1D0
330
1CB
100
AcDbEntity
  8
VERMASSUNG
100
AcDbLine
 10
120.4144766684
 20
139.0763737451
 30
0.0
 11
81.5948942549
 21
139.0763737451
 31
0.0
  0
LINE
  5
1D1
330
1CB
100
AcDbEntity
  8
VERMASSUNG
100
AcDbLine
 10
120.4144766684
 20
76.0763737451
 30
0.0
 11
81.5948942549
 21
76.0763737451
 31
0.0
  0
LINE
  5
1D2
330
1CB
100
AcDbEntity
  8
VERMASSUNG
100
AcDbLine
 10
82.5948942549
 20
139.0763737451
 30
0.0
 11
82.5948942549
 21
76.0763737451
 31
0.0
  0
MTEXT
  5
1D3
330
1CB
100
AcDbEntity
  8
VERMASSUNG
100
AcDbMText
 10
79.8167587659
 20
99.8728320333
 30
0.0
 40
2.0
 41
0.0
 71
     1
 72
     1
  1
HSK A 
  7
SLDTEXTSTYLE0
 11
-7.044195017643634E-15
 21
1.0
 31
0.0
 73
     1
 44
1.0
  0
MTEXT
  5
1D4
330
1CB
100
AcDbEntity
  8
VERMASSUNG
100
AcDbMText
 10
80.0167587754
 20
108.8728325772
 30
0.0
 40
2.0
 41
0.0
 71
     1
 72
     1
  1
%%c
  7
SLDTEXTSTYLE0
 11
-7.044195017643634E-15
 21
1.0
 31
0.0
 73
     1
 44
1.0
  0
MTEXT
  5
1D5
330
1CB
100
AcDbEntity
  8
VERMASSUNG
100
AcDbMText
 10
80.0167588918
 20
112.4811592272
 30
0.0
 40
2.0
 41
0.0
 71
     1
 72
     1
  1
63
  7
SLDTEXTSTYLE0
 11
-7.044195017643634E-15
 21
1.0
 31
0.0
 73
     1
 44
1.0
  0
ENDBLK
  5
1CD
330
1CB
100
AcDbEntity
  8
0
100
AcDbBlockEnd
  0
BLOCK
  5
1D8
330
1D7
100
AcDbEntity
  8
0
100
AcDbBlockBegin
  2
*D2
 70
     1
 10
0.0
 20
0.0
 30
0.0
  3
*D2
  1

  0
SOLID
  5
1DA
330
1D7
100
AcDbEntity
  8
VERMASSUNG
100
AcDbTrace
 10
88.2144766684
 20
154.7112676056
 30
0.0
 11
91.2144766684
 21
154.2612676056
 31
0.0
 12
91.2144766684
 22
155.1612676056
 32
0.0
 13
91.2144766684
 23
155.1612676056
 33
0.0
  0
SOLID
  5
1DB
330
1D7
100
AcDbEntity
  8
VERMASSUNG
100
AcDbTrace
 10
200.1144766684
 20
154.7112676056
 30
0.0
 11
197.1144766684
 21
155.1612676056
 31
0.0
 12
197.1144766684
 22
154.2612676056
 32
0.0
 13
197.1144766684
 23
154.2612676056
 33
0.0
  0
LINE
  5
1DC
330
1D7
100
AcDbEntity
  8
VERMASSUNG
100
AcDbLine
 10
88.2144766684
 20
127.2670514916
 30
0.0
 11
88.2144766684
 21
155.7112676056
 31
0.0
  0
LINE
  5
1DD
330
1D7
100
AcDbEntity
  8
VERMASSUNG
100
AcDbLine
 10
200.1144766684
 20
126.3022332235
 30
0.0
 11
200.1144766684
 21
155.7112676056
 31
0.0
  0
LINE
  5
1DE
330
1D7
100
AcDbEntity
  8
VERMASSUNG
100
AcDbLine
 10
88.2144766684
 20
154.7112676056
 30
0.0
 11
200.1144766684
 21
154.7112676056
 31
0.0
  0
MTEXT
  5
1DF
330
1D7
100
AcDbEntity
  8
VERMASSUNG
100
AcDbMText
 10
141.6650898862
 20
157.2894029688
 30
0.0
 40
2.0
 41
0.0
 71
     1
 72
     1
  1
111.9
  7
SLDTEXTSTYLE0
 73
     1
 44
1.0
  0
ENDBLK
  5
1D9
330
1D7
100
AcDbEntity
  8
0
100
AcDbBlockEnd
  0
BLOCK
  5
1E2
330
1E1
100
AcDbEntity
  8
0
100
AcDbBlockBegin
  2
*D3
 70
     1
 10
0.0
 20
0.0
 30
0.0
  3
*D3
  1

  0
SOLID
  5
1E4
330
1E1
100
AcDbEntity
  8
VERMASSUNG
100
AcDbTrace
 10
120.1144766684
 20
148.7112676056
 30
0.0
 11
123.1144766684
 21
148.2612676056
 31
0.0
 12
123.1144766684
 22
149.1612676056
 32
0.0
 13
123.1144766684
 23
149.1612676056
 33
0.0
  0
SOLID
  5
1E5
330
1E1
100
AcDbEntity
  8
VERMASSUNG
100
AcDbTrace
 10
200.1144766684
 20
148.7112676056
 30
0.0
 11
197.1144766684
 21
149.1612676056
 31
0.0
 12
197.1144766684
 22
148.2612676056
 32
0.0
 13
197.1144766684
 23
148.2612676056
 33
0.0
  0
LINE
  5
1E6
330
1E1
100
AcDbEntity
  8
VERMASSUNG
100
AcDbLine
 10
120.1144766684
 20
138.7763737451
 30
0.0
 11
120.1144766684
 21
149.7112676056
 31
0.0
  0
LINE
  5
1E7
330
1E1
100
AcDbEntity
  8
VERMASSUNG
100
AcDbLine
 10
200.1144766684
 20
126.3022332235
 30
0.0
 11
200.1144766684
 21
149.7112676056
 31
0.0
  0
LINE
  5
1E8
330
1E1
100
AcDbEntity
  8
VERMASSUNG
100
AcDbLine
 10
120.1144766684
 20
148.7112676056
 30
0.0
 11
200.1144766684
 21
148.7112676056
 31
0.0
  0
MTEXT
  5
1E9
330
1E1
100
AcDbEntity
  8
VERMASSUNG
100
AcDbMText
 10
158.7150985536
 20
151.2894029688
 30
0.0
 40
2.0
 41
0.0
 71
     1
 72
     1
  1
80
  7
SLDTEXTSTYLE0
 73
     1
 44
1.0
  0
ENDBLK
  5
1E3
330
1E1
100
AcDbEntity
  8
0
100
AcDbBlockEnd
  0
BLOCK
  5
1EC
330
1EB
100
AcDbEntity
  8
0
100
AcDbBlockBegin
  2
*D4
 70
     1
 10
0.0
 20
0.0
 30
0.0
  3
*D4
  1

  0
SOLID
  5
1EE
330
1EB
100
AcDbEntity
  8
VERMASSUNG
100
AcDbTrace
 10
146.0644766684
 20
142.7112676056
 30
0.0
 11
149.0644766684
 21
142.2612676056
 31
0.0
 12
149.0644766684
 22
143.1612676056
 32
0.0
 13
149.0644766684
 23
143.1612676056
 33
0.0
  0
SOLID
  5
1EF
330
1EB
100
AcDbEntity
  8
VERMASSUNG
100
AcDbTrace
 10
200.1144766684
 20
142.7112676056
 30
0.0
 11
197.1144766684
 21
143.1612676056
 31
0.0
 12
197.1144766684
 22
142.2612676056
 32
0.0
 13
197.1144766684
 23
142.2612676056
 33
0.0
  0
LINE
  5
1F0
330
1EB
100
AcDbEntity
  8
VERMASSUNG
100
AcDbLine
 10
146.0644766684
 20
137.4228140689
 30
0.0
 11
146.0644766684
 21
143.7112676056
 31
0.0
  0
LINE
  5
1F1
330
1EB
100
AcDbEntity
  8
VERMASSUNG
100
AcDbLine
 10
200.1144766684
 20
126.3022332235
 30
0.0
 11
200.1144766684
 21
143.7112676056
 31
0.0
  0
LINE
  5
1F2
330
1EB
100
AcDbEntity
  8
VERMASSUNG
100
AcDbLine
 10
146.0644766684
 20
142.7112676056
 30
0.0
 11
200.1144766684
 21
142.7112676056
 31
0.0
  0
MTEXT
  5
1F3
330
1EB
100
AcDbEntity
  8
VERMASSUNG
100
AcDbMText
 10
169.8904008288
 20
145.2894029688
 30
0.0
 40
2.0
 41
0.0
 71
     1
 72
     1
  1
54.05
  7
SLDTEXTSTYLE0
 73
     1
 44
1.0
  0
ENDBLK
  5
1ED
330
1EB
100
AcDbEntity
  8
0
100
AcDbBlockEnd
  0
BLOCK
  5
1F6
330
1F5
100
AcDbEntity
  8
0
100
AcDbBlockBegin
  2
*D5
 70
     1
 10
0.0
 20
0.0
 30
0.0
  3
*D5
  1

  0
SOLID
  5
1F8
330
1F5
100
AcDbEntity
  8
VERMASSUNG
100
AcDbTrace
 10
209.2067185561
 20
117.5763737451
 30
0.0
 11
208.7567185561
 21
114.5763737451
 31
0.0
 12
209.6567185561
 22
114.5763737451
 32
0.0
 13
209.6567185561
 23
114.5763737451
 33
0.0
  0
SOLID
  5
1F9
330
1F5
100
AcDbEntity
  8
VERMASSUNG
100
AcDbTrace
 10
209.2067185561
 20
97.5763737451
 30
0.0
 11
209.6567185561
 21
100.5763737451
 31
0.0
 12
208.7567185561
 22
100.5763737451
 32
0.0
 13
208.7567185561
 23
100.5763737451
 33
0.0
  0
LINE
  5
1FA
330
1F5
100
AcDbEntity
  8
VERMASSUNG
100
AcDbLine
 10
199.8144766684
 20
117.5763737451
 30
0.0
 11
210.2067185561
 21
117.5763737451
 31
0.0
  0
LINE
  5
1FB
330
1F5
100
AcDbEntity
  8
VERMASSUNG
100
AcDbLine
 10
199.8144766684
 20
97.5763737451
 30
0.0
 11
210.2067185561
 21
97.5763737451
 31
0.0
  0
LINE
  5
1FC
330
1F5
100
AcDbEntity
  8
VERMASSUNG
100
AcDbLine
 10
209.2067185561
 20
117.5763737451
 30
0.0
 11
209.2067185561
 21
97.5763737451
 31
0.0
  0
MTEXT
  5
1FD
330
1F5
100
AcDbEntity
  8
VERMASSUNG
100
AcDbMText
 10
206.6285830766
 20
104.3726565187
 30
0.0
 40
2.0
 41
0.0
 71
     1
 72
     1
  1
%%c
  7
SLDTEXTSTYLE0
 11
-7.044195017643634E-15
 21
1.0
 31
0.0
 73
     1
 44
1.0
  0
MTEXT
  5
1FE
330
1F5
100
AcDbEntity
  8
VERMASSUNG
100
AcDbMText
 10
206.628583193
 20
107.9813347419
 30
0.0
 40
2.0
 41
0.0
 71
     1
 72
     1
  1
20
  7
SLDTEXTSTYLE0
 11
-7.044195017643634E-15
 21
1.0
 31
0.0
 73
     1
 44
1.0
  0
ENDBLK
  5
1F7
330
1F5
100
AcDbEntity
  8
0
100
AcDbBlockEnd
  0
BLOCK
  5
201
330
200
100
AcDbEntity
  8
0
100
AcDbBlockBegin
  2
*D6
 70
     1
 10
0.0
 20
0.0
 30
0.0
  3
*D6
  1

  0
SOLID
  5
203
330
200
100
AcDbEntity
  8
VERMASSUNG
100
AcDbTrace
 10
215.2067185561
 20
133.5763737451
 30
0.0
 11
214.7567185561
 21
130.5763737451
 31
0.0
 12
215.6567185561
 22
130.5763737451
 32
0.0
 13
215.6567185561
 23
130.5763737451
 33
0.0
  0
SOLID
  5
204
330
200
100
AcDbEntity
  8
VERMASSUNG
100
AcDbTrace
 10
215.2067185561
 20
81.5763737451
 30
0.0
 11
215.6567185561
 21
84.5763737451
 31
0.0
 12
214.7567185561
 22
84.5763737451
 32
0.0
 13
214.7567185561
 23
84.5763737451
 33
0.0
  0
LINE
  5
205
330
200
100
AcDbEntity
  8
VERMASSUNG
100
AcDbLine
 10
187.2474351454
 20
133.5763737451
 30
0.0
 11
216.2067185561
 21
133.5763737451
 31
0.0
  0
LINE
  5
206
330
200
100
AcDbEntity
  8
VERMASSUNG
100
AcDbLine
 10
187.2474351454
 20
81.5763737451
 30
0.0
 11
216.2067185561
 21
81.5763737451
 31
0.0
  0
LINE
  5
207
330
200
100
AcDbEntity
  8
VERMASSUNG
100
AcDbLine
 10
215.2067185561
 20
133.5763737451
 30
0.0
 11
215.2067185561
 21
81.5763737451
 31
0.0
  0
MTEXT
  5
208
330
200
100
AcDbEntity
  8
VERMASSUNG
100
AcDbMText
 10
212.6285830766
 20
104.3726565187
 30
0.0
 40
2.0
 41
0.0
 71
     1
 72
     1
  1
%%c
  7
SLDTEXTSTYLE0
 11
-7.044195017643634E-15
 21
1.0
 31
0.0
 73
     1
 44
1.0
  0
MTEXT
  5
209
330
200
100
AcDbEntity
  8
VERMASSUNG
100
AcDbMText
 10
212.628583193
 20
107.9813347419
 30
0.0
 40
2.0
 41
0.0
 71
     1
 72
     1
  1
52
  7
SLDTEXTSTYLE0
 11
-7.044195017643634E-15
 21
1.0
 31
0.0
 73
     1
 44
1.0
  0
ENDBLK
  5
202
330
200
100
AcDbEntity
  8
0
100
AcDbBlockEnd
  0
ENDSEC
  0
SECTION
  2
ENTITIES
  0
MTEXT
  5
45
330
1F
100
AcDbEntity
  8
KOPF_DÜNN
100
AcDbMText
 10
13.8892156294
 20
23.8442973028
 30
0.0
 40
3.0
 41
0.0
 71
     1
 72
     1
  1
HA6.W20.K21.080
  7
SLDTEXTSTYLE0
 73
     1
 44
1.0
  0
MTEXT
  5
46
330
1F
100
AcDbEntity
  8
VERMASSUNG
100
AcDbMText
 10
13.9329988022
 20
28.8834360957
 30
0.0
 40
3.0
 41
0.0
 71
     1
 72
     1
  1
Flächenspannfutter_End mill adapter Weldon ø20
  7
SLDTEXTSTYLE0
 73
     1
 44
1.0
  0
MTEXT
  5
47
330
1F
100
AcDbEntity
  8
VERMASSUNG
100
AcDbMText
 10
98.8601118557
 20
13.8365368179
 30
0.0
 40
2.0
 41
0.0
 71
     1
 72
     1
  1
Datum: 09.10.2006
  7
SLDTEXTSTYLE0
 73
     1
 44
1.0
  0
MTEXT
  5
49
330
1F
100
AcDbEntity
  8
VERMASSUNG
100
AcDbMText
 10
13.933048693
 20
18.0482802738
 30
0.0
 40
2.0
 41
0.0
 71
     1
 72
     1
  1
DIN 69 893 HSK A 63
  7
SLDTEXTSTYLE1
 73
     1
 44
1.0
  0
MTEXT
  5
4A
330
1F
100
AcDbEntity
  8
VERMASSUNG
100
AcDbMText
 10
13.9808475933
 20
13.9090973692
 30
0.0
 40
2.0
 41
0.0
 71
     1
 72
     1
  1
Gewicht: 1343g
  7
SLDTEXTSTYLE0
 73
     1
 44
1.0
  0
LINE
  5
4B
330
1F
100
AcDbEntity
  8
0
  6
Continuous
 62
     7
370
    15
100
AcDbLine
 10
120.4144766684
 20
76.0763737451
 30
0.0
 11
125.0644766684
 21
76.0763737451
 31
0.0
  0
LINE
  5
4C
330
1F
100
AcDbEntity
  8
0
  6
Continuous
 62
     7
370
    15
100
AcDbLine
 10
125.0924650275
 20
139.0763737451
 30
0.0
 11
120.4144766684
 21
139.0763737451
 31
0.0
  0
ARC
  5
4D
330
1F
100
AcDbEntity
  8
0
  6
Continuous
 62
     7
370
    15
100
AcDbCircle
 10
120.4144766684
 20
76.3763737451
 30
0.0
 40
0.2999999999999972
100
AcDbArc
 50
180.0
 51
270.0
  0
ARC
  5
4E
330
1F
100
AcDbEntity
  8
0
  6
Continuous
 62
     7
370
    15
100
AcDbCircle
 10
120.4144766684
 20
138.7763737451
 30
0.0
 40
0.3000000000000114
100
AcDbArc
 50
90.0
 51
180.0
  0
ARC
  5
4F
330
1F
100
AcDbEntity
  8
0
  6
Continuous
 62
     7
370
    15
100
AcDbCircle
 10
147.0644766684
 20
80.5763737451
 30
0.0
 40
1.000000000000017
100
AcDbArc
 50
90.0
 51
143.1139143113
  0
ARC
  5
50
330
1F
100
AcDbEntity
  8
0
  6
Continuous
 62
     7
370
    15
100
AcDbCircle
 10
147.0644766684
 20
134.5763737451
 30
0.0
 40
1.0
100
AcDbArc
 50
216.8996843908
 51
270.0
  0
LINE
  5
51
330
1F
100
AcDbEntity
  8
0
  6
Continuous
 62
     7
370
    15
100
AcDbLine
 10
160.563527809
 20
81.5763737451
 30
0.0
 11
187.2474351454
 21
81.5763737451
 31
0.0
  0
LINE
  5
52
330
1F
100
AcDbEntity
  8
0
  6
Continuous
 62
     7
370
    15
100
AcDbLine
 10
147.0644766684
 20
81.5763737451
 30
0.0
 11
153.5751912681
 21
81.5763737451
 31
0.0
  0
LINE
  5
53
330
1F
100
AcDbEntity
  8
0
  6
Continuous
 62
     7
370
    15
100
AcDbLine
 10
153.5668569097
 20
133.5763737451
 30
0.0
 11
147.0644766684
 21
133.5763737451
 31
0.0
  0
LINE
  5
54
330
1F
100
AcDbEntity
  8
0
  6
Continuous
 62
     7
370
    15
100
AcDbLine
 10
187.2474351454
 20
133.5763737451
 30
0.0
 11
160.5534796593
 21
133.5763737451
 31
0.0
  0
LINE
  5
55
330
1F
100
AcDbEntity
  8
0
  6
Continuous
 62
     7
370
    15
100
AcDbLine
 10
187.2474351454
 20
81.5763737451
 30
0.0
 11
198.9597131919
 21
87.0378986927
 31
0.0
  0
LINE
  5
56
330
1F
100
AcDbEntity
  8
0
  6
Continuous
 62
     7
370
    15
100
AcDbLine
 10
198.9597131919
 20
128.1148487976
 30
0.0
 11
187.2474351454
 21
133.5763737451
 31
0.0
  0
ARC
  5
57
330
1F
100
AcDbEntity
  8
0
  6
Continuous
 62
     7
370
    15
100
AcDbCircle
 10
119.6144699158
 20
83.0059361307
 30
0.0
 40
0.6000067526677242
100
AcDbArc
 50
33.5571153394
 51
90.0
  0
ARC
  5
58
330
1F
100
AcDbEntity
  8
0
  6
Continuous
 62
     7
370
    15
100
AcDbCircle
 10
119.6144699158
 20
132.1468113595
 30
0.0
 40
0.6000067526677164
100
AcDbArc
 50
270.0
 51
326.4428846606
  0
LINE
  5
59
330
1F
100
AcDbEntity
  8
0
  6
Continuous
 62
     7
370
    15
100
AcDbLine
 10
118.1144766684
 20
83.3559428834
 30
0.0
 11
118.9711894418
 21
83.5854983792
 31
0.0
  0
LINE
  5
5A
330
1F
100
AcDbEntity
  8
0
  6
Continuous
 62
     7
370
    15
100
AcDbLine
 10
118.9711894418
 20
131.5672491111
 30
0.0
 11
118.1144766684
 21
131.7968046068
 31
0.0
  0
LINE
  5
5B
330
1F
100
AcDbEntity
  8
0
  6
Continuous
 62
     7
370
    15
100
AcDbLine
 10
106.8829678696
 20
131.2341037652
 30
0.0
 11
94.3144766684
 21
130.6044198373
 31
0.0
  0
LINE
  5
5C
330
1F
100
AcDbEntity
  8
0
  6
Continuous
 62
     7
370
    15
100
AcDbLine
 10
118.1144766684
 20
131.7968046068
 30
0.0
 11
115.2974750111
 21
131.6556722593
 31
0.0
  0
LINE
  5
5D
330
1F
100
AcDbEntity
  8
0
  6
Continuous
 62
     7
370
    15
100
AcDbLine
 10
115.2975311011
 20
83.4970724208
 30
0.0
 11
118.1144766684
 21
83.3559428834
 31
0.0
  0
LINE
  5
5E
330
1F
100
AcDbEntity
  8
0
  6
Continuous
 62
     7
370
    15
100
AcDbLine
 10
98.3144766684
 20
84.3479268513
 30
0.0
 11
106.8833703883
 21
83.9186235588
 31
0.0
  0
ARC
  5
5F
330
1F
100
AcDbEntity
  8
0
  6
Continuous
 62
     7
370
    15
100
AcDbCircle
 10
119.1264808689
 20
83.0059428834
 30
0.0
 40
0.6000000000000085
100
AcDbArc
 50
90.0
 51
105.0
  0
ARC
  5
60
330
1F
100
AcDbEntity
  8
0
  6
Continuous
 62
     7
370
    15
100
AcDbCircle
 10
119.1264808689
 20
132.1468046068
 30
0.0
 40
0.5999999999999971
100
AcDbArc
 50
255.0
 51
270.0
  0
LINE
  5
61
330
1F
100
AcDbEntity
  8
0
  6
Continuous
 62
     7
370
    15
100
AcDbLine
 10
119.1264808689
 20
83.6059428834
 30
0.0
 11
119.6144699158
 21
83.6059428834
 31
0.0
  0
LINE
  5
62
330
1F
100
AcDbEntity
  8
0
  6
Continuous
 62
     7
370
    15
100
AcDbLine
 10
119.6144699158
 20
131.5468046068
 30
0.0
 11
119.1264808689
 21
131.5468046068
 31
0.0
  0
ARC
  5
63
330
1F
100
AcDbEntity
  8
0
  6
Continuous
 62
     7
370
    15
100
AcDbCircle
 10
198.1144766684
 20
88.8505142667
 30
0.0
 40
2.000000000000001
100
AcDbArc
 50
295.0
 51
0.0
  0
ARC
  5
64
330
1F
100
AcDbEntity
  8
0
  6
Continuous
 62
     7
370
    15
100
AcDbCircle
 10
198.1144766684
 20
126.3022332235
 30
0.0
 40
2.0
100
AcDbArc
 50
0.0
 51
65.0
  0
LINE
  5
65
330
1F
100
AcDbEntity
  8
0
  6
Continuous
 62
     7
370
    15
100
AcDbLine
 10
89.5088957949
 20
86.7063737451
 30
0.0
 11
96.9144766684
 21
86.7063737451
 31
0.0
  0
ARC
  5
66
330
1F
100
AcDbEntity
  8
0
  6
Continuous
 62
     7
370
    15
100
AcDbCircle
 10
96.9144766684
 20
85.3063737451
 30
0.0
 40
1.399999999999991
100
AcDbArc
 50
42.2465410162
 51
90.0
  0
LINE
  5
67
330
1F
100
AcDbEntity
  8
0
  6
Continuous
 62
     7
370
    15
100
AcDbLine
 10
88.2256371035
 20
87.84521331
 30
0.0
 11
89.3556401266
 21
86.7152102869
 31
0.0
  0
LINE
  5
68
330
1F
100
AcDbEntity
  8
0
  6
Continuous
 62
     7
370
    15
100
AcDbLine
 10
89.3556401266
 20
128.4375372033
 30
0.0
 11
88.2243774418
 21
127.3062745185
 31
0.0
  0
ARC
  5
69
330
1F
100
AcDbEntity
  8
0
  6
Continuous
 62
     7
370
    15
100
AcDbCircle
 10
92.9144766684
 20
129.8463737451
 30
0.0
 40
1.400000000000034
100
AcDbArc
 50
270.0
 51
302.5610026528
  0
LINE
  5
6A
330
1F
100
AcDbEntity
  8
0
  6
Continuous
 62
     7
370
    15
100
AcDbLine
 10
92.9144766684
 20
128.4463737451
 30
0.0
 11
89.4887424023
 21
128.4463737451
 31
0.0
  0
LINE
  5
6B
330
1F
100
AcDbEntity
  8
0
  6
Continuous
 62
     7
370
    15
100
AcDbLine
 10
200.1144766684
 20
95.6328362209
 30
0.0
 11
200.179377604
 21
95.7530167669
 31
0.0
  0
LINE
  5
6C
330
1F
100
AcDbEntity
  8
0
  6
Continuous
 62
     7
370
    15
100
AcDbLine
 10
200.1204878804
 20
119.4013668154
 30
0.0
 11
200.1144766684
 21
119.4124980993
 31
0.0
  0
LINE
  5
6D
330
1F
100
AcDbEntity
  8
0
  6
Continuous
 62
     7
370
    15
100
AcDbLine
 10
178.1491949859
 20
111.4375311343
 30
0.0
 11
173.5379754401
 21
111.7020828941
 31
0.0
  0
LINE
  5
6E
330
1F
100
AcDbEntity
  8
0
  6
Continuous
 62
     7
370
    15
100
AcDbLine
 10
180.2256962142
 20
107.3118219853
 30
0.0
 11
177.6909778967
 21
103.4506645961
 31
0.0
  0
ARC
  5
6F
330
1F
100
AcDbEntity
  8
0
  6
Continuous
 62
     7
370
    15
100
AcDbCircle
 10
175.6144766684
 20
107.5763737451
 30
0.0
 40
7.000000000000001
100
AcDbArc
 50
296.7164647981
 51
119.6094583666
  0
ARC
  5
70
330
1F
100
AcDbEntity
  8
0
  6
Continuous
 62
     7
370
    15
100
AcDbCircle
 10
175.6144766684
 20
107.5763737451
 30
0.0
 40
7.000000000000001
100
AcDbArc
 50
240.4538608566
 51
296.7164647981
  0
LINE
  5
71
330
1F
100
AcDbEntity
  8
0
  6
Continuous
 62
     7
370
    15
100
AcDbLine
 10
173.0797583509
 20
103.7152163559
 30
0.0
 11
171.0032571226
 21
107.8409255049
 31
0.0
  0
LINE
  5
72
330
1F
100
AcDbEntity
  8
0
  6
Continuous
 62
     7
370
    15
100
AcDbLine
 10
171.0032571226
 20
107.8409255049
 30
0.0
 11
173.5379754401
 21
111.7020828941
 31
0.0
  0
LINE
  5
73
330
1F
100
AcDbEntity
  8
0
  6
Continuous
 62
     7
370
    15
100
AcDbLine
 10
173.0797583509
 20
103.7152163559
 30
0.0
 11
177.6909778967
 21
103.4506645961
 31
0.0
  0
LINE
  5
74
330
1F
100
AcDbEntity
  8
0
  6
Continuous
 62
     7
370
    15
100
AcDbLine
 10
180.2256962142
 20
107.3118219853
 30
0.0
 11
178.1491949859
 21
111.4375311343
 31
0.0
  0
LINE
  5
75
330
1F
100
AcDbEntity
  8
0
  6
Continuous
 62
     7
370
    15
100
AcDbLine
 10
125.0644766684
 20
127.4263737451
 30
0.0
 11
134.7225438369
 21
127.4263737451
 31
0.0
  0
LINE
  5
76
330
1F
100
AcDbEntity
  8
0
  6
Continuous
 62
     7
370
    15
100
AcDbLine
 10
134.7225438369
 20
77.3894560489
 30
0.0
 11
134.7225438369
 21
127.4263737451
 31
0.0
  0
LINE
  5
77
330
1F
100
AcDbEntity
  8
0
  6
Continuous
 62
     7
370
    15
100
AcDbLine
 10
134.7225438369
 20
77.3894560489
 30
0.0
 11
133.0644766684
 21
77.3894560489
 31
0.0
  0
SPLINE
  5
78
330
1F
100
AcDbEntity
  8
0
  6
Continuous
 62
     7
370
    15
100
AcDbSpline
210
0.0
220
0.0
230
1.0
 70
     8
 71
     3
 72
    28
 73
    24
 74
     0
 42
0.00000001
 43
0.00000001
 40
0.0
 40
0.0
 40
0.0
 40
0.0
 40
0.1250000000000001
 40
0.1250000000000001
 40
0.1875000000000001
 40
0.1875000000000001
 40
0.2500000000000001
 40
0.2500000000000001
 40
0.3749999999999999
 40
0.3749999999999999
 40
0.4375
 40
0.4375
 40
0.4999999999999999
 40
0.4999999999999999
 40
0.6249999999999999
 40
0.6249999999999999
 40
0.7499999999999997
 40
0.7499999999999997
 40
0.8124999999999998
 40
0.8124999999999998
 40
0.8749999999999998
 40
0.8749999999999998
 40
1.0
 40
1.0
 40
1.0
 40
1.0
 10
133.0644766684192
 20
77.38945604887638
 30
0.0
 10
132.5327689109263
 20
77.3894560488764
 30
0.0
 10
132.0105303456159
 20
77.37367133492617
 30
0.0
 10
131.2406598593409
 20
77.32867592084996
 30
0.0
 10
130.9863002871496
 20
77.31012092577424
 30
0.0
 10
130.4821787064511
 20
77.26626820332773
 30
0.0
 10
130.2324558890231
 20
77.24092359637554
 30
0.0
 10
129.5068659375767
 20
77.15752151862543
 30
0.0
 10
129.0485056759952
 20
77.09165595947434
 30
0.0
 10
128.3980077326013
 20
76.98268561898256
 30
0.0
 10
128.1863256818089
 20
76.9444459832159
 30
0.0
 10
127.7822541926708
 20
76.86668724579654
 30
0.0
 10
127.58974767885
 20
76.8271862836212
 30
0.0
 10
127.0399127078287
 20
76.7082785412552
 30
0.0
 10
126.7099839295199
 20
76.6284608598306
 30
0.0
 10
126.1255126609512
 20
76.47511769803452
 30
0.0
 10
125.8792355229378
 20
76.40378394476527
 30
0.0
 10
125.5793927302397
 20
76.30984043769065
 30
0.0
 10
125.4909358731675
 20
76.28064664433072
 30
0.0
 10
125.3375745198624
 20
76.22718007006732
 30
0.0
 10
125.2724863056361
 20
76.20282073579213
 30
0.0
 10
125.1168922896954
 20
76.13923059034738
 30
0.0
 10
125.0644766684192
 20
76.10912765525813
 30
0.0
 10
125.0644766684192
 20
76.09225076226123
 30
0.0
  0
LINE
  5
79
330
1F
100
AcDbEntity
  8
0
  6
Continuous
 62
     7
370
    15
100
AcDbLine
 10
125.0644766684
 20
76.0922507623
 30
0.0
 11
125.0644766684
 21
76.0763737451
 31
0.0
  0
SPLINE
  5
7A
330
1F
100
AcDbEntity
  8
0
  6
Continuous
 62
     7
370
    15
100
AcDbSpline
210
0.0
220
0.0
230
1.0
 70
     8
 71
     3
 72
    17
 73
    13
 74
     0
 42
0.00000001
 43
0.00000001
 40
0.0
 40
0.0
 40
0.0
 40
0.0
 40
0.1034796923964056
 40
0.210023918880785
 40
0.3134862136955583
 40
0.4198361274354882
 40
0.5254127712915682
 40
0.633961069541979
 40
0.7409508756305031
 40
0.8511696089308174
 40
0.9558996534551937
 40
1.0
 40
1.0
 40
1.0
 40
1.0
 10
133.0644766684192
 20
138.0435692182878
 30
0.0
 10
132.6292283193092
 20
138.0490174148211
 30
0.0
 10
131.7458418127442
 20
138.060075155333
 30
0.0
 10
130.4650142275155
 20
138.1464335482345
 30
0.0
 10
129.2475976916415
 20
138.2743037247723
 30
0.0
 10
128.1397918393949
 20
138.4332490233654
 30
0.0
 10
127.1515530354467
 20
138.607742711081
 30
0.0
 10
126.3268294779152
 20
138.7769085617209
 30
0.0
 10
125.6778759772559
 20
138.9247923442492
 30
0.0
 10
125.2608411617941
 20
139.02658292848
 30
0.0
 10
125.0622444488296
 20
139.0769344510832
 30
0.0
 10
125.0855571702629
 20
139.0710287668608
 30
0.0
 10
125.0924650275004
 20
139.0692788371663
 30
0.0
  0
LINE
  5
7B
330
1F
100
AcDbEntity
  8
0
  6
Continuous
 62
     7
370
    15
100
AcDbLine
 10
134.7225438369
 20
138.0435692183
 30
0.0
 11
133.0644766684
 21
138.0435692183
 31
0.0
  0
LINE
  5
7C
330
1F
100
AcDbEntity
  8
0
  6
Continuous
 62
     7
370
    15
100
AcDbLine
 10
134.7225438369
 20
132.0350634075
 30
0.0
 11
134.7225438369
 21
138.0435692183
 31
0.0
  0
LINE
  5
7D
330
1F
100
AcDbEntity
  8
0
  6
Continuous
 62
     7
370
    15
100
AcDbLine
 10
132.3100970141
 20
132.0350634075
 30
0.0
 11
134.7225438369
 21
132.0350634075
 31
0.0
  0
SPLINE
  5
7E
330
1F
100
AcDbEntity
  8
0
  6
Continuous
 62
     7
370
    15
100
AcDbSpline
210
0.0
220
0.0
230
1.0
 70
     8
 71
     3
 72
    20
 73
    16
 74
     0
 42
0.00000001
 43
0.00000001
 40
0.0
 40
0.0
 40
0.0
 40
0.0
 40
0.2499999999999997
 40
0.2499999999999997
 40
0.3749999999999997
 40
0.3749999999999997
 40
0.4999999999999998
 40
0.4999999999999998
 40
0.6249999999999998
 40
0.6249999999999998
 40
0.7499999999999999
 40
0.7499999999999999
 40
0.8749999999999999
 40
0.8749999999999999
 40
1.0
 40
1.0
 40
1.0
 40
1.0
 10
125.0644766684192
 20
127.4263737451236
 30
0.0
 10
125.3128504027072
 20
128.080236173421
 30
0.0
 10
125.6324204950525
 20
128.6840219554181
 30
0.0
 10
126.2547267282572
 20
129.5108606915867
 30
0.0
 10
126.4861509886879
 20
129.7732893295396
 30
0.0
 10
127.0073653283376
 20
130.2699519836446
 30
0.0
 10
127.2939858109727
 20
130.5005388626661
 30
0.0
 10
127.9134705522803
 20
130.9170930872488
 30
0.0
 10
128.2477709317673
 20
131.1045908892163
 30
0.0
 10
128.9730314043921
 20
131.4359878668527
 30
0.0
 10
129.3549464617826
 20
131.5754918543479
 30
0.0
 10
130.1497346379543
 20
131.8009453618189
 30
0.0
 10
130.5638928321606
 20
131.8875714733625
 30
0.0
 10
131.429439172742
 20
132.0055522622167
 30
0.0
 10
131.8673267877539
 20
132.035063407491
 30
0.0
 10
132.3100970141085
 20
132.035063407491
 30
0.0
  0
SPLINE
  5
7F
330
1F
100
AcDbEntity
  8
0
  6
Continuous
 62
     7
370
    15
100
AcDbSpline
210
0.0
220
0.0
230
1.0
 70
     8
 71
     3
 72
    70
 73
    66
 74
     0
 42
0.00000001
 43
0.00000001
 40
-0.0312500000000001
 40
-0.0312500000000001
 40
0.0
 40
0.0
 40
0.0312499999999999
 40
0.0312499999999999
 40
0.0624999999999998
 40
0.0624999999999998
 40
0.0937499999999997
 40
0.0937499999999997
 40
0.1249999999999996
 40
0.1249999999999996
 40
0.1562499999999994
 40
0.1562499999999994
 40
0.1874999999999993
 40
0.1874999999999993
 40
0.2187499999999992
 40
0.2187499999999992
 40
0.2499999999999991
 40
0.2499999999999991
 40
0.281249999999999
 40
0.281249999999999
 40
0.3124999999999989
 40
0.3124999999999989
 40
0.3437499999999988
 40
0.3437499999999988
 40
0.3749999999999987
 40
0.3749999999999987
 40
0.4062499999999986
 40
0.4062499999999986
 40
0.4374999999999984
 40
0.4374999999999984
 40
0.4687499999999983
 40
0.4687499999999983
 40
0.4999999999999982
 40
0.4999999999999982
 40
0.5312499999999983
 40
0.5312499999999983
 40
0.5624999999999984
 40
0.5624999999999984
 40
0.5937499999999986
 40
0.5937499999999986
 40
0.6249999999999987
 40
0.6249999999999987
 40
0.6562499999999988
 40
0.6562499999999988
 40
0.6874999999999989
 40
0.6874999999999989
 40
0.718749999999999
 40
0.718749999999999
 40
0.7499999999999991
 40
0.7499999999999991
 40
0.7812499999999992
 40
0.7812499999999992
 40
0.8124999999999993
 40
0.8124999999999993
 40
0.8437499999999994
 40
0.8437499999999994
 40
0.8749999999999996
 40
0.8749999999999996
 40
0.9062499999999997
 40
0.9062499999999997
 40
0.9374999999999998
 40
0.9374999999999998
 40
0.9687499999999999
 40
0.9687499999999999
 40
1.0
 40
1.0
 40
1.03125
 40
1.03125
 10
128.3790220070793
 20
118.1972806311069
 30
0.0
 10
127.849931329759
 20
118.1972806311069
 30
0.0
 10
127.5898606623819
 20
118.2219579258921
 30
0.0
 10
127.0782859825465
 20
118.318429598934
 30
0.0
 10
126.8241106988063
 20
118.391410514914
 30
0.0
 10
126.3398400687446
 20
118.5811511178527
 30
0.0
 10
126.1101989768635
 20
118.6970117762464
 30
0.0
 10
125.67559462863
 20
118.9696296222041
 30
0.0
 10
125.4700288519834
 20
119.1276687042579
 30
0.0
 10
125.1014717113881
 20
119.4712115552285
 30
0.0
 10
124.9359907286526
 20
119.6579739993302
 30
0.0
 10
124.6435662192175
 20
120.061517173727
 30
0.0
 10
124.519465242591
 20
120.2750141701562
 30
0.0
 10
124.3198860458413
 20
120.7143974840787
 30
0.0
 10
124.242952459983
 20
120.9435374712243
 30
0.0
 10
124.1400954014627
 20
121.4095115939843
 30
0.0
 10
124.1146224920036
 20
121.6423940396605
 30
0.0
 10
124.1143320814358
 20
122.1077915747403
 30
0.0
 10
124.1403567152115
 20
122.3426673321346
 30
0.0
 10
124.2425049997035
 20
122.7941604793809
 30
0.0
 10
124.3180814472867
 20
123.0122069547923
 30
0.0
 10
124.5185789784316
 20
123.4333014798301
 30
0.0
 10
124.64370781994
 20
123.6352228643484
 30
0.0
 10
124.9330666209616
 20
124.0072523468673
 30
0.0
 10
125.098477608017
 20
124.1798806504477
 30
0.0
 10
125.4714681661649
 20
124.4971986549937
 30
0.0
 10
125.673201199254
 20
124.6369855884953
 30
0.0
 10
126.1060604500818
 20
124.8811618420471
 30
0.0
 10
126.3399789829712
 20
124.9863913530886
 30
0.0
 10
126.8241627181138
 20
125.1545484994637
 30
0.0
 10
127.0734783440693
 20
125.2177993900576
 30
0.0
 10
127.5865108684971
 20
125.3033785991602
 30
0.0
 10
127.8518046914017
 20
125.3252507640826
 30
0.0
 10
128.3741393112714
 20
125.3254144137265
 30
0.0
 10
128.6338929737532
 20
125.3044127216306
 30
0.0
 10
129.1505047893984
 20
125.2190103665529
 30
0.0
 10
129.4028708298987
 20
125.1550041832659
 30
0.0
 10
129.8843959514315
 20
124.9881896632248
 30
0.0
 10
130.1172466835451
 20
124.8840564998256
 30
0.0
 10
130.5543365319838
 20
124.6380698473306
 30
0.0
 10
130.755657520641
 20
124.4983200163818
 30
0.0
 10
131.1247435459409
 20
124.1851819466572
 30
0.0
 10
131.2937282969926
 20
124.0097257873871
 30
0.0
 10
131.5841843536518
 20
123.6368855232869
 30
0.0
 10
131.707256165014
 20
123.4387637131759
 30
0.0
 10
131.908592406436
 20
123.0180523704423
 30
0.0
 10
131.9858049523782
 20
122.7960623497747
 30
0.0
 10
132.0880084952783
 20
122.3461974100664
 30
0.0
 10
132.1142368467306
 20
122.1159419969496
 30
0.0
 10
132.1147132460477
 20
121.6446260544005
 30
0.0
 10
132.0889708335498
 20
121.4113886386864
 30
0.0
 10
131.9876600571859
 20
120.9497120991883
 30
0.0
 10
131.9108274177949
 20
120.7188147120762
 30
0.0
 10
131.7104235785798
 20
120.2765386982845
 30
0.0
 10
131.5877520802877
 20
120.0654762669986
 30
0.0
 10
131.2978047911235
 20
119.663977756266
 30
0.0
 10
131.1292338117583
 20
119.47307123419
 30
0.0
 10
130.7609642176451
 20
119.129345902193
 30
0.0
 10
130.5599023603748
 20
118.9742087159789
 30
0.0
 10
130.1228714417899
 20
118.6991313558991
 30
0.0
 10
129.8907232286602
 20
118.5820151264771
 30
0.0
 10
129.4097129471614
 20
118.3930886414126
 30
0.0
 10
129.157612864331
 20
118.3200136710183
 30
0.0
 10
128.640543378072
 20
118.2219616118838
 30
0.0
 10
128.3790220070793
 20
118.1972806311069
 30
0.0
 10
127.849931329759
 20
118.1972806311069
 30
0.0
  0
SPLINE
  5
80
330
1F
100
AcDbEntity
  8
0
  6
Continuous
 62
     7
370
    15
100
AcDbSpline
210
0.0
220
0.0
230
1.0
 70
     8
 71
     3
 72
    70
 73
    66
 74
     0
 42
0.00000001
 43
0.00000001
 40
-0.0312499999999999
 40
-0.0312499999999999
 40
0.0
 40
0.0
 40
0.0312499999999999
 40
0.0312499999999999
 40
0.0624999999999998
 40
0.0624999999999998
 40
0.0937499999999997
 40
0.0937499999999997
 40
0.1249999999999996
 40
0.1249999999999996
 40
0.1562499999999995
 40
0.1562499999999995
 40
0.1874999999999994
 40
0.1874999999999994
 40
0.2187499999999993
 40
0.2187499999999993
 40
0.2499999999999992
 40
0.2499999999999992
 40
0.2812499999999993
 40
0.2812499999999993
 40
0.3124999999999993
 40
0.3124999999999993
 40
0.3437499999999994
 40
0.3437499999999994
 40
0.3749999999999995
 40
0.3749999999999995
 40
0.4062499999999996
 40
0.4062499999999996
 40
0.4374999999999996
 40
0.4374999999999996
 40
0.4687499999999997
 40
0.4687499999999997
 40
0.4999999999999998
 40
0.4999999999999998
 40
0.5312499999999999
 40
0.5312499999999999
 40
0.5625
 40
0.5625
 40
0.5937500000000001
 40
0.5937500000000001
 40
0.6250000000000002
 40
0.6250000000000002
 40
0.6562500000000004
 40
0.6562500000000004
 40
0.6875000000000006
 40
0.6875000000000006
 40
0.7187500000000007
 40
0.7187500000000007
 40
0.7500000000000008
 40
0.7500000000000008
 40
0.7812500000000007
 40
0.7812500000000007
 40
0.8125000000000006
 40
0.8125000000000006
 40
0.8437500000000004
 40
0.8437500000000004
 40
0.8750000000000003
 40
0.8750000000000003
 40
0.9062500000000003
 40
0.9062500000000003
 40
0.9375000000000002
 40
0.9375000000000002
 40
0.9687500000000001
 40
0.9687500000000001
 40
1.0
 40
1.0
 40
1.03125
 40
1.03125
 10
128.3790220070793
 20
132.6353371399027
 30
0.0
 10
127.849931329759
 20
132.6353371399027
 30
0.0
 10
127.5898606623819
 20
132.6512375803175
 30
0.0
 10
127.0782859825465
 20
132.7131819304918
 30
0.0
 10
126.8241106988063
 20
132.7599841645831
 30
0.0
 10
126.3398400687446
 20
132.8809611480381
 30
0.0
 10
126.1101989768635
 20
132.954563475845
 30
0.0
 10
125.67559462863
 20
133.1263877468231
 30
0.0
 10
125.4700288519834
 20
133.2253911697505
 30
0.0
 10
125.1014717113881
 20
133.4384875836634
 30
0.0
 10
124.9359907286526
 20
133.5533872997931
 30
0.0
 10
124.6435662192175
 20
133.7987541984833
 30
0.0
 10
124.519465242591
 20
133.9271940989536
 30
0.0
 10
124.3198860458413
 20
134.1880862470396
 30
0.0
 10
124.242952459983
 20
134.322467418379
 30
0.0
 10
124.1400954014627
 20
134.5917873694853
 30
0.0
 10
124.1146224920035
 20
134.7244686337034
 30
0.0
 10
124.1143320814358
 20
134.9856551078345
 30
0.0
 10
124.1403567152115
 20
135.1154201459992
 30
0.0
 10
124.2425049997035
 20
135.3610027802719
 30
0.0
 10
124.3180814472867
 20
135.4776643175807
 30
0.0
 10
124.5185789784316
 20
135.6995695077353
 30
0.0
 10
124.64370781994
 20
135.8041807616583
 30
0.0
 10
124.9330666209616
 20
135.9942271732664
 30
0.0
 10
125.098477608017
 20
136.080986844716
 30
0.0
 10
125.4714681661649
 20
136.2384912204676
 30
0.0
 10
125.673201199254
 20
136.3068164852548
 30
0.0
 10
126.1060604500818
 20
136.425046208874
 30
0.0
 10
126.3399789829712
 20
136.4753411249779
 30
0.0
 10
126.8241627181138
 20
136.5552066618675
 30
0.0
 10
127.0734783440693
 20
136.5849477896671
 30
0.0
 10
127.5865108684971
 20
136.6251005311753
 30
0.0
 10
127.8518046914017
 20
136.6352988005852
 30
0.0
 10
128.3741393112714
 20
136.6353752589699
 30
0.0
 10
128.6338929737532
 20
136.6255842473608
 30
0.0
 10
129.1505047893984
 20
136.5855174086221
 30
0.0
 10
129.4028708298987
 20
136.5554202417653
 30
0.0
 10
129.8843959514315
 20
136.4761980319351
 30
0.0
 10
130.1172466835451
 20
136.4264405524717
 30
0.0
 10
130.5543365319838
 20
136.3073486100213
 30
0.0
 10
130.755657520641
 20
136.239033348474
 30
0.0
 10
131.1247435459409
 20
136.0836323815405
 30
0.0
 10
131.2937282969926
 20
135.9954800394736
 30
0.0
 10
131.5841843536518
 20
135.8050406503572
 30
0.0
 10
131.707256165014
 20
135.7024160726581
 30
0.0
 10
131.908592406436
 20
135.48077572605
 30
0.0
 10
131.9858049523782
 20
135.3620216505025
 30
0.0
 10
132.0880084952783
 20
135.1173557115848
 30
0.0
 10
132.1142368467306
 20
134.9901989861363
 30
0.0
 10
132.1147132460477
 20
134.7257508402808
 30
0.0
 10
132.0889708335498
 20
134.5928501600236
 30
0.0
 10
131.9876600571859
 20
134.3260578865415
 30
0.0
 10
131.9108274177949
 20
134.190693985073
 30
0.0
 10
131.7104235785798
 20
133.9281141897704
 30
0.0
 10
131.5877520802877
 20
133.8011390300167
 30
0.0
 10
131.2978047911235
 20
133.5570596439343
 30
0.0
 10
131.1292338117583
 20
133.4396345191804
 30
0.0
 10
130.7609642176451
 20
133.226438058232
 30
0.0
 10
130.5599023603748
 20
133.1292639398071
 30
0.0
 10
130.1228714417899
 20
132.9559090525929
 30
0.0
 10
129.8907232286602
 20
132.8815095009362
 30
0.0
 10
129.4097129471614
 20
132.7610566214315
 30
0.0
 10
129.157612864331
 20
132.7141982461656
 30
0.0
 10
128.640543378072
 20
132.6512407491818
 30
0.0
 10
128.3790220070793
 20
132.6353371399027
 30
0.0
 10
127.849931329759
 20
132.6353371399027
 30
0.0
  0
LINE
  5
81
330
1F
100
AcDbEntity
  8
0
  6
Continuous
 62
     7
370
    15
100
AcDbLine
 10
145.4644766684
 20
77.3894560489
 30
0.0
 11
141.5064094999
 21
77.3894560489
 31
0.0
  0
LINE
  5
82
330
1F
100
AcDbEntity
  8
0
  6
Continuous
 62
     7
370
    15
100
AcDbLine
 10
141.5064094999
 20
77.3894560489
 30
0.0
 11
141.5064094999
 21
127.4263737451
 31
0.0
  0
LINE
  5
83
330
1F
100
AcDbEntity
  8
0
  6
Continuous
 62
     7
370
    15
100
AcDbLine
 10
141.5064094999
 20
127.4263737451
 30
0.0
 11
145.4644766684
 21
127.4263737451
 31
0.0
  0
LINE
  5
84
330
1F
100
AcDbEntity
  8
0
  6
Continuous
 62
     7
370
    15
100
AcDbLine
 10
136.2044766684
 20
80.0785365861
 30
0.0
 11
136.2044766684
 21
127.4263737451
 31
0.0
  0
SPLINE
  5
85
330
1F
100
AcDbEntity
  8
0
  6
Continuous
 62
     7
370
    15
100
AcDbSpline
210
0.0
220
0.0
230
1.0
 70
     8
 71
     3
 72
     8
 73
     4
 74
     0
 42
0.00000001
 43
0.00000001
 40
0.0
 40
0.0
 40
0.0
 40
0.0
 40
1.0
 40
1.0
 40
1.0
 40
1.0
 10
136.2044766684192
 20
80.07853658606868
 30
0.0
 10
135.712137545638
 20
79.18126655186198
 30
0.0
 10
135.2180234975959
 20
78.28498213680973
 30
0.0
 10
134.7225438369301
 20
77.38945604887638
 30
0.0
  0
SPLINE
  5
86
330
1F
100
AcDbEntity
  8
0
  6
Continuous
 62
     7
370
    15
100
AcDbSpline
210
0.0
220
0.0
230
1.0
 70
    24
 71
     3
 72
     8
 73
     4
 74
     0
 42
0.00000001
 43
0.00000001
 40
0.0
 40
0.0
 40
0.0
 40
0.0
 40
1.0
 40
1.0
 40
1.0
 40
1.0
 10
134.7225438369301
 20
127.4263737451236
 30
0.0
 10
135.2292239450807
 20
127.4263737451236
 30
0.0
 10
135.7245246740543
 20
127.4263737451236
 30
0.0
 10
136.2044766684192
 20
127.4263737451236
 30
0.0
  0
LINE
  5
87
330
1F
100
AcDbEntity
  8
0
  6
Continuous
 62
     7
370
    15
100
AcDbLine
 10
120.1144766684
 20
76.3763737451
 30
0.0
 11
120.1144766684
 21
138.7763737391
 31
0.0
  0
LINE
  5
88
330
1F
100
AcDbEntity
  8
0
  6
Continuous
 62
     7
370
    15
100
AcDbLine
 10
146.0644766684
 20
78.0160963445
 30
0.0
 11
146.0644766684
 21
127.4263737451
 31
0.0
  0
SPLINE
  5
89
330
1F
100
AcDbEntity
  8
0
  6
Continuous
 62
     7
370
    15
100
AcDbSpline
210
0.0
220
0.0
230
1.0
 70
     8
 71
     3
 72
    10
 73
     6
 74
     0
 42
0.00000001
 43
0.00000001
 40
0.0
 40
0.0
 40
0.0
 40
0.0
 40
0.5
 40
0.5
 40
1.0
 40
1.0
 40
1.0
 40
1.0
 10
146.0644766684192
 20
78.01609634453071
 30
0.0
 10
146.0644766684192
 20
77.85620907633704
 30
0.0
 10
146.0031670171833
 20
77.69508182082244
 30
0.0
 10
145.7840673796482
 20
77.4609828224676
 30
0.0
 10
145.6260191733348
 20
77.38945604887638
 30
0.0
 10
145.4644766684192
 20
77.38945604887638
 30
0.0
  0
SPLINE
  5
8A
330
1F
100
AcDbEntity
  8
0
  6
Continuous
 62
     7
370
    15
100
AcDbSpline
210
0.0
220
0.0
230
1.0
 70
    24
 71
     3
 72
    12
 73
     8
 74
     0
 42
0.00000001
 43
0.00000001
 40
0.0
 40
0.0
 40
0.0
 40
0.0
 40
0.2500000000000033
 40
0.2500000000000033
 40
0.5000000000000067
 40
0.5000000000000067
 40
1.0
 40
1.0
 40
1.0
 40
1.0
 10
145.4644766684192
 20
127.4263737451236
 30
0.0
 10
145.5547157361062
 20
127.4263737451236
 30
0.0
 10
145.6456138502127
 20
127.4263737451236
 30
0.0
 10
145.8002108867013
 20
127.4263737451236
 30
0.0
 10
145.8651893028093
 20
127.4263737451236
 30
0.0
 10
146.0170243307456
 20
127.4263737451236
 30
0.0
 10
146.0644766684192
 20
127.4263737451236
 30
0.0
 10
146.0644766684192
 20
127.4263737451236
 30
0.0
  0
SPLINE
  5
8B
330
1F
100
AcDbEntity
  8
0
  6
Continuous
 62
     7
370
    15
100
AcDbSpline
210
0.0
220
0.0
230
1.0
 70
     8
 71
     3
 72
     8
 73
     4
 74
     0
 42
0.00000001
 43
0.00000001
 40
0.0
 40
0.0
 40
0.0
 40
0.0
 40
1.0
 40
1.0
 40
1.0
 40
1.0
 10
141.5064094999082
 20
77.38945604887638
 30
0.0
 10
141.0109298392425
 20
78.28498213680975
 30
0.0
 10
140.5168157912003
 20
79.181266551862
 30
0.0
 10
140.0244766684192
 20
80.0785365860687
 30
0.0
  0
LINE
  5
8C
330
1F
100
AcDbEntity
  8
0
  6
Continuous
 62
     7
370
    15
100
AcDbLine
 10
140.0244766684
 20
80.0785365861
 30
0.0
 11
140.0244766684
 21
127.4263737451
 31
0.0
  0
SPLINE
  5
8D
330
1F
100
AcDbEntity
  8
0
  6
Continuous
 62
     7
370
    15
100
AcDbSpline
210
0.0
220
0.0
230
1.0
 70
    24
 71
     3
 72
     8
 73
     4
 74
     0
 42
0.00000001
 43
0.00000001
 40
0.0
 40
0.0
 40
0.0
 40
0.0
 40
1.0
 40
1.0
 40
1.0
 40
1.0
 10
140.0244766684192
 20
127.4263737451236
 30
0.0
 10
140.5044286627841
 20
127.4263737451236
 30
0.0
 10
140.9997293917577
 20
127.4263737451236
 30
0.0
 10
141.5064094999082
 20
127.4263737451236
 30
0.0
  0
ARC
  5
8E
330
1F
100
AcDbEntity
  8
0
  6
Continuous
 62
     7
370
    15
100
AcDbCircle
 10
128.1153130417
 20
119.4728216713
 30
0.0
 40
4.117392050589219
100
AcDbArc
 50
20.6101700589
 51
159.7676371835
  0
SPLINE
  5
8F
330
1F
100
AcDbEntity
  8
0
  6
Continuous
 62
     7
370
    15
100
AcDbSpline
210
0.0
220
0.0
230
1.0
 70
     8
 71
     3
 72
    10
 73
     6
 74
     0
 42
0.00000001
 43
0.00000001
 40
0.0
 40
0.0
 40
0.0
 40
0.0
 40
0.5
 40
0.5
 40
1.0
 40
1.0
 40
1.0
 40
1.0
 10
136.5987742001101
 20
133.9763737451236
 30
0.0
 10
136.4772339364416
 20
134.0510999123353
 30
0.0
 10
136.3758995760927
 20
134.1600449282521
 30
0.0
 10
136.2402606332043
 20
134.4104754090137
 30
0.0
 10
136.2044766684192
 20
134.5528947711126
 30
0.0
 10
136.2044766684192
 20
134.6960275961594
 30
0.0
  0
SPLINE
  5
90
330
1F
100
AcDbEntity
  8
0
  6
Continuous
 62
     7
370
    15
100
AcDbSpline
210
0.0
220
0.0
230
1.0
 70
    24
 71
     3
 72
    12
 73
     8
 74
     0
 42
0.00000001
 43
0.00000001
 40
0.0
 40
0.0
 40
0.0
 40
0.0
 40
0.2500000000000037
 40
0.2500000000000037
 40
0.5000000000000074
 40
0.5000000000000074
 40
1.0
 40
1.0
 40
1.0
 40
1.0
 10
137.0044766684192
 20
133.9763737451236
 30
0.0
 10
136.9545999861017
 20
133.9763737451236
 30
0.0
 10
136.9065967926981
 20
133.9763737451236
 30
0.0
 10
136.8235486899862
 20
133.9763737451236
 30
0.0
 10
136.7874191105183
 20
133.9763737451236
 30
0.0
 10
136.6915070795741
 20
133.9763737451236
 30
0.0
 10
136.6417484116053
 20
133.9763737451236
 30
0.0
 10
136.5987742001101
 20
133.9763737451236
 30
0.0
  0
SPLINE
  5
91
330
1F
100
AcDbEntity
  8
0
  6
Continuous
 62
     7
370
    15
100
AcDbSpline
210
0.0
220
0.0
230
1.0
 70
    24
 71
     3
 72
    14
 73
    10
 74
     0
 42
0.00000001
 43
0.00000001
 40
0.0
 40
0.0
 40
0.0
 40
0.0
 40
0.1249999999999991
 40
0.1249999999999991
 40
0.2499999999999982
 40
0.2499999999999982
 40
0.4999999999999998
 40
0.4999999999999998
 40
1.0
 40
1.0
 40
1.0
 40
1.0
 10
137.0044766684192
 20
81.17637374512354
 30
0.0
 10
136.9360388205327
 20
81.17637374512354
 30
0.0
 10
136.8704887817677
 20
81.17637374512356
 30
0.0
 10
136.7660621423597
 20
81.17637374512356
 30
0.0
 10
136.7235175325983
 20
81.17637374512356
 30
0.0
 10
136.6109080720581
 20
81.17637374512354
 30
0.0
 10
136.5553690250386
 20
81.17637374512354
 30
0.0
 10
136.4127573295748
 20
81.17637374512354
 30
0.0
 10
136.349351974579
 20
81.17637374512354
 30
0.0
 10
136.3021514707515
 20
81.17637374512354
 30
0.0
  0
SPLINE
  5
92
330
1F
100
AcDbEntity
  8
0
  6
Continuous
 62
     7
370
    15
100
AcDbSpline
210
0.0
220
0.0
230
1.0
 70
     8
 71
     3
 72
    10
 73
     6
 74
     0
 42
0.00000001
 43
0.00000001
 40
0.0
 40
0.0
 40
0.0
 40
0.0
 40
0.5
 40
0.5
 40
1.0
 40
1.0
 40
1.0
 40
1.0
 10
136.2044766684192
 20
127.7122403765849
 30
0.0
 10
136.2044766684192
 20
127.6644688685916
 30
0.0
 10
136.2066379120163
 20
127.61675914653
 30
0.0
 10
136.2153092858765
 20
127.5214640289817
 30
0.0
 10
136.2218384688325
 20
127.473771465015
 30
0.0
 10
136.2306242915793
 20
127.4263737451236
 30
0.0
  0
SPLINE
  5
93
330
1F
100
AcDbEntity
  8
0
  6
Continuous
 62
     7
370
    15
100
AcDbSpline
210
0.0
220
0.0
230
1.0
 70
    24
 71
     3
 72
    14
 73
    10
 74
     0
 42
0.00000001
 43
0.00000001
 40
0.0
 40
0.0
 40
0.0
 40
0.0
 40
0.5000000000000013
 40
0.5000000000000013
 40
0.750000000000002
 40
0.750000000000002
 40
0.875000000000001
 40
0.875000000000001
 40
1.0
 40
1.0
 40
1.0
 40
1.0
 10
139.9268018660869
 20
81.17637374512354
 30
0.0
 10
139.8800171610387
 20
81.17637374512354
 30
0.0
 10
139.8179659642591
 20
81.17637374512356
 30
0.0
 10
139.6745743257084
 20
81.17637374512354
 30
0.0
 10
139.6184306721573
 20
81.17637374512354
 30
0.0
 10
139.5054796500211
 20
81.17637374512354
 30
0.0
 10
139.462478887983
 20
81.17637374512354
 30
0.0
 10
139.3584161776765
 20
81.17637374512354
 30
0.0
 10
139.2930839393196
 20
81.17637374512356
 30
0.0
 10
139.2244766684192
 20
81.17637374512354
 30
0.0
  0
SPLINE
  5
94
330
1F
100
AcDbEntity
  8
0
  6
Continuous
 62
     7
370
    15
100
AcDbSpline
210
0.0
220
0.0
230
1.0
 70
    24
 71
     3
 72
    12
 73
     8
 74
     0
 42
0.00000001
 43
0.00000001
 40
0.0
 40
0.0
 40
0.0
 40
0.0
 40
0.5000000000000017
 40
0.5000000000000017
 40
0.7500000000000008
 40
0.7500000000000008
 40
1.0
 40
1.0
 40
1.0
 40
1.0
 10
139.6301791367282
 20
133.9763737451236
 30
0.0
 10
139.5870935871173
 20
133.9763737451236
 30
0.0
 10
139.5379413853679
 20
133.9763737451236
 30
0.0
 10
139.44146879108
 20
133.9763737451236
 30
0.0
 10
139.4053672059454
 20
133.9763737451236
 30
0.0
 10
139.3222614480842
 20
133.9763737451236
 30
0.0
 10
139.2742648511179
 20
133.9763737451236
 30
0.0
 10
139.2244766684192
 20
133.9763737451236
 30
0.0
  0
SPLINE
  5
95
330
1F
100
AcDbEntity
  8
0
  6
Continuous
 62
     7
370
    15
100
AcDbSpline
210
0.0
220
0.0
230
1.0
 70
     8
 71
     3
 72
    10
 73
     6
 74
     0
 42
0.00000001
 43
0.00000001
 40
0.0
 40
0.0
 40
0.0
 40
0.0
 40
0.5
 40
0.5
 40
1.0
 40
1.0
 40
1.0
 40
1.0
 10
140.0244766684192
 20
134.6960275961594
 30
0.0
 10
140.0244766684192
 20
134.5522575383413
 30
0.0
 10
139.9884276097003
 20
134.4098381758461
 30
0.0
 10
139.8529187489263
 20
134.1599438824889
 30
0.0
 10
139.7530427558301
 20
134.0519135462407
 30
0.0
 10
139.6301791367282
 20
133.9763737451235
 30
0.0
  0
SPLINE
  5
96
330
1F
100
AcDbEntity
  8
0
  6
Continuous
 62
     7
370
    15
100
AcDbSpline
210
0.0
220
0.0
230
1.0
 70
     8
 71
     3
 72
    10
 73
     6
 74
     0
 42
0.00000001
 43
0.00000001
 40
0.0
 40
0.0
 40
0.0
 40
0.0
 40
0.5
 40
0.5
 40
1.0
 40
1.0
 40
1.0
 40
1.0
 10
139.9983290452591
 20
127.4263737451236
 30
0.0
 10
140.0070186881707
 20
127.4732525944417
 30
0.0
 10
140.0135577529212
 20
127.520675059843
 30
0.0
 10
140.0223163873142
 20
127.6166118584297
 30
0.0
 10
140.0244766684192
 20
127.6645271464402
 30
0.0
 10
140.0244766684192
 20
127.7122403765847
 30
0.0
  0
LINE
  5
97
330
1F
100
AcDbEntity
  8
0
  6
Continuous
 62
     7
370
    15
100
AcDbLine
 10
139.2244766684
 20
133.9763737451
 30
0.0
 11
137.0044766684
 21
133.9763737451
 31
0.0
  0
LINE
  5
98
330
1F
100
AcDbEntity
  8
0
  6
Continuous
 62
     7
370
    15
100
AcDbLine
 10
139.2244766684
 20
81.1763737451
 30
0.0
 11
137.0044766684
 21
81.1763737451
 31
0.0
  0
LINE
  5
99
330
1F
100
AcDbEntity
  8
0
  6
Continuous
 62
     7
370
    15
100
AcDbLine
 10
146.2644756311
 20
133.9763737451
 30
0.0
 11
146.2205289392
 21
133.9763737451
 31
0.0
  0
LINE
  5
9A
330
1F
100
AcDbEntity
  8
0
  6
Continuous
 62
     7
370
    15
100
AcDbLine
 10
146.2644756022
 20
81.1763737451
 30
0.0
 11
146.2147219384
 21
81.1763737451
 31
0.0
  0
SPLINE
  5
9B
330
1F
100
AcDbEntity
  8
0
  6
Continuous
 62
     7
370
    15
100
AcDbSpline
210
0.0
220
0.0
230
1.0
 70
     8
 71
     3
 72
    39
 73
    35
 74
     0
 42
0.00000001
 43
0.00000001
 40
-0.0929946525438238
 40
-0.0618626808031195
 40
-0.0305913286419742
 40
0.0
 40
0.0306130831485657
 40
0.0619040996444877
 40
0.0930588770304532
 40
0.1241966210416015
 40
0.1553767729372098
 40
0.1869012712537359
 40
0.2186194724877142
 40
0.2499363328596147
 40
0.2812811127863114
 40
0.3130731839310442
 40
0.3446801097600129
 40
0.3759115026471096
 40
0.4070391656933999
 40
0.438144379016195
 40
0.4693729506323189
 40
0.5000120705146811
 40
0.5306484290215199
 40
0.5619148569967974
 40
0.5930393589968929
 40
0.6241824383491305
 40
0.65539257714685
 40
0.6869707191792154
 40
0.7187114716018232
 40
0.7500541986095018
 40
0.7813706634686555
 40
0.813135112532405
 40
0.844687298656952
 40
0.8758891940595692
 40
0.9070053474561762
 40
0.9381373191968805
 40
0.9694086713580258
 40
1.0
 40
1.030613083148566
 40
1.061904099644488
 40
1.093058877030453
 10
177.1451220305531
 20
99.7402818440125
 30
0.0
 10
175.6141147522263
 20
99.58457647803723
 30
0.0
 10
174.082792524016
 20
99.74050517622078
 30
0.0
 10
172.6141095137122
 20
100.2080508397013
 30
0.0
 10
171.2577343908595
 20
100.9414923447504
 30
0.0
 10
170.0821910083394
 20
101.9291668340505
 30
0.0
 10
169.1161959370603
 20
103.1306214868198
 30
0.0
 10
168.399959557515
 20
104.512278470265
 30
0.0
 10
167.9446734166579
 20
106.0112256247778
 30
0.0
 10
167.7937696778658
 20
107.5735462204724
 30
0.0
 10
167.9457540580421
 20
109.1369772928212
 30
0.0
 10
168.4019661645489
 20
110.6387724087479
 30
0.0
 10
169.1188376789727
 20
112.0239316240998
 30
0.0
 10
170.0857240757123
 20
113.2272841996166
 30
0.0
 10
171.2609419010133
 20
114.2150620549588
 30
0.0
 10
172.6155910460799
 20
114.9475957283446
 30
0.0
 10
174.0834911733531
 20
115.4132296876627
 30
0.0
 10
175.6149916230197
 20
115.5679119511164
 30
0.0
 10
177.1470816579951
 20
115.412760392095
 30
0.0
 10
178.6156289981404
 20
114.9462517020056
 30
0.0
 10
179.971221394807
 20
114.2129518438515
 30
0.0
 10
181.1460834235038
 20
113.2243512520801
 30
0.0
 10
182.1119515947619
 20
112.0209567719602
 30
0.0
 10
182.8278671829439
 20
110.6371574173585
 30
0.0
 10
183.283089057949
 20
109.1365058369041
 30
0.0
 10
183.4351736792858
 20
107.574021987608
 30
0.0
 10
183.2844358255373
 20
106.0109197524882
 30
0.0
 10
182.8282960753488
 20
104.5109368733269
 30
0.0
 10
182.1111953756102
 20
103.1279714046698
 30
0.0
 10
181.1442842218774
 20
101.9266225692514
 30
0.0
 10
179.9685120911954
 20
100.939825766375
 30
0.0
 10
178.6128660236231
 20
100.2072783054497
 30
0.0
 10
177.1451220305531
 20
99.7402818440125
 30
0.0
 10
175.6141147522263
 20
99.58457647803723
 30
0.0
 10
174.082792524016
 20
99.74050517622078
 30
0.0
  0
LINE
  5
9C
330
1F
100
AcDbEntity
  8
0
  6
Continuous
 62
     7
370
    15
100
AcDbLine
 10
187.2474351454
 20
81.5763737451
 30
0.0
 11
187.2474351454
 21
133.5763737451
 31
0.0
  0
LINE
  5
9D
330
1F
100
AcDbEntity
  8
0
  6
Continuous
 62
     7
370
    15
100
AcDbLine
 10
154.694779299
 20
133.4722336734
 30
0.0
 11
154.8190743882
 21
133.4633745239
 31
0.0
  0
SPLINE
  5
9E
330
1F
100
AcDbEntity
  8
0
  6
Continuous
 62
     7
370
    15
100
AcDbSpline
210
0.0
220
0.0
230
1.0
 70
     8
 71
     3
 72
    38
 73
    34
 74
     0
 42
0.00000001
 43
0.00000001
 40
0.0
 40
0.0
 40
0.0
 40
0.0
 40
0.0214224730960804
 40
0.0444480239346831
 40
0.0868683424984332
 40
0.13044209699559
 40
0.1744326002225099
 40
0.2195045899568255
 40
0.2434209458091071
 40
0.2919445465604564
 40
0.3165859086338703
 40
0.3427850382776435
 40
0.3959769697062611
 40
0.4230168338038753
 40
0.4508831602022478
 40
0.4789354645392741
 40
0.5075727693091064
 40
0.5364122409522424
 40
0.5648157229123029
 40
0.5934213094139857
 40
0.6226790786322438
 40
0.6521696759038936
 40
0.6798102711671281
 40
0.7076634759509273
 40
0.7362231831931422
 40
0.7650441441056115
 40
0.7905207012671335
 40
0.8425279459161849
 40
0.8691666319023325
 40
0.8919596398285342
 40
0.9384335259492782
 40
0.9621876784685376
 40
1.0
 40
1.0
 40
1.0
 40
1.0
 10
160.5534796592729
 20
133.5751750941992
 30
0.0
 10
160.5561374528398
 20
133.5754641337423
 30
0.0
 10
160.5616519268945
 20
133.5760638421173
 30
0.0
 10
160.5141715507556
 20
133.5709010021347
 30
0.0
 10
160.4149493623696
 20
133.5602678796787
 30
0.0
 10
160.2184082148495
 20
133.5401131965504
 30
0.0
 10
159.9507281315594
 20
133.5145586265955
 30
0.0
 10
159.6711538485536
 20
133.4904355708576
 30
0.0
 10
159.3466629682459
 20
133.4652924573534
 30
0.0
 10
159.0514240269769
 20
133.4451751383964
 30
0.0
 10
158.7285576107335
 20
133.4268004403727
 30
0.0
 10
158.3773137662119
 20
133.4095906251073
 30
0.0
 10
157.9998851847168
 20
133.3959322029775
 30
0.0
 10
157.6068354085997
 20
133.3872227906398
 30
0.0
 10
157.3015656992453
 20
133.3833932300382
 30
0.0
 10
156.9888596371405
 20
133.3825705158584
 30
0.0
 10
156.6730440061505
 20
133.38491829037
 30
0.0
 10
156.3586587396081
 20
133.3904456461361
 30
0.0
 10
156.0493427023962
 20
133.3989643264024
 30
0.0
 10
155.7456942853632
 20
133.4102716377223
 30
0.0
 10
155.4479309989179
 20
133.424200220856
 30
0.0
 10
155.1656626999189
 20
133.4400242023185
 30
0.0
 10
154.9021247054914
 20
133.457047251236
 30
0.0
 10
154.6572961990183
 20
133.4747717101816
 30
0.0
 10
154.4277763682393
 20
133.4930759010103
 30
0.0
 10
154.2256921357153
 20
133.51056593581
 30
0.0
 10
153.9952404767558
 20
133.5318187826591
 30
0.0
 10
153.8130603442903
 20
133.5500253419158
 30
0.0
 10
153.6868839039563
 20
133.5632035127301
 30
0.0
 10
153.5991439905633
 20
133.5725734748068
 30
0.0
 10
153.5603927710903
 20
133.576827206376
 30
0.0
 10
153.5659957234923
 20
133.5761958733557
 30
0.0
 10
153.6082150323108
 20
133.5716439221972
 30
0.0
 10
153.6341448927501
 20
133.5688482473846
 30
0.0
  0
SPLINE
  5
9F
330
1F
100
AcDbEntity
  8
0
  6
Continuous
 62
     7
370
    15
100
AcDbSpline
210
0.0
220
0.0
230
1.0
 70
     8
 71
     3
 72
    66
 73
    62
 74
     0
 42
0.00000001
 43
0.00000001
 40
-0.0312499999999999
 40
-0.0312499999999999
 40
0.0
 40
0.0
 40
0.03125
 40
0.03125
 40
0.0625
 40
0.0625
 40
0.09375
 40
0.09375
 40
0.1250000000000001
 40
0.1250000000000001
 40
0.1562500000000001
 40
0.1562500000000001
 40
0.1875000000000001
 40
0.1875000000000001
 40
0.2187500000000001
 40
0.2187500000000001
 40
0.2500000000000001
 40
0.2500000000000001
 40
0.2812500000000001
 40
0.2812500000000001
 40
0.3125000000000001
 40
0.3125000000000001
 40
0.3437500000000001
 40
0.3437500000000001
 40
0.375
 40
0.375
 40
0.4062499999999999
 40
0.4062499999999999
 40
0.4374999999999999
 40
0.4374999999999999
 40
0.4687499999999999
 40
0.4687499999999999
 40
0.4999999999999999
 40
0.4999999999999999
 40
0.5312499999999999
 40
0.5312499999999999
 40
0.5624999999999999
 40
0.5624999999999999
 40
0.5937499999999999
 40
0.5937499999999999
 40
0.6249999999999999
 40
0.6249999999999999
 40
0.6875
 40
0.6875
 40
0.75
 40
0.75
 40
0.78125
 40
0.78125
 40
0.8125
 40
0.8125
 40
0.84375
 40
0.84375
 40
0.875
 40
0.875
 40
0.9062500000000001
 40
0.9062500000000001
 40
0.9375000000000001
 40
0.9375000000000001
 40
0.9687500000000001
 40
0.9687500000000001
 40
1.0
 40
1.0
 40
1.03125
 40
1.03125
 10
154.5259494421003
 20
109.7602923365844
 30
0.0
 10
154.8636091576748
 20
110.0419448339712
 30
0.0
 10
155.0431396842512
 20
110.164382788831
 30
0.0
 10
155.4217650426129
 20
110.3757687203191
 30
0.0
 10
155.6224310120622
 20
110.4651901751023
 30
0.0
 10
156.0365569689166
 20
110.607396032004
 30
0.0
 10
156.2475092771712
 20
110.6596502086057
 30
0.0
 10
156.6768837821686
 20
110.7280338720896
 30
0.0
 10
156.8974093386252
 20
110.7440210405408
 30
0.0
 10
157.3338969425435
 20
110.7381993810974
 30
0.0
 10
157.5498288988607
 20
110.7168531627256
 30
0.0
 10
157.9770955843464
 20
110.6374683788455
 30
0.0
 10
158.1904527079105
 20
110.5785182648479
 30
0.0
 10
158.598393567882
 20
110.4259614843578
 30
0.0
 10
158.7937514855706
 20
110.3326494712718
 30
0.0
 10
159.1668040279165
 20
110.1109745756214
 30
0.0
 10
159.3461723131947
 20
109.980859087751
 30
0.0
 10
159.6717067073805
 20
109.6929396257911
 30
0.0
 10
159.8191927260852
 20
109.5348949550245
 30
0.0
 10
160.0817926640919
 20
109.1888556326082
 30
0.0
 10
160.1972909170026
 20
108.9988954480436
 30
0.0
 10
160.3811553022777
 20
108.6057131021355
 30
0.0
 10
160.451397504773
 20
108.4006623504463
 30
0.0
 10
160.545192899559
 20
107.9723151124534
 30
0.0
 10
160.5673115273456
 20
107.7528124175809
 30
0.0
 10
160.561053387771
 20
107.3182035283902
 30
0.0
 10
160.5323386379584
 20
107.098018821602
 30
0.0
 10
160.4266259294014
 20
106.6737165038445
 30
0.0
 10
160.3505386005348
 20
106.469784205122
 30
0.0
 10
160.1535338708358
 20
106.0777460724815
 30
0.0
 10
160.0339434905729
 20
105.8931123884985
 30
0.0
 10
159.7616702372834
 20
105.5535722648202
 30
0.0
 10
159.6063961330716
 20
105.3958217838099
 30
0.0
 10
159.2717228977074
 20
105.1156017244155
 30
0.0
 10
159.0924775152747
 20
104.9925166841159
 30
0.0
 10
158.7111993437466
 20
104.7787984830723
 30
0.0
 10
158.5094406468787
 20
104.6888484520325
 30
0.0
 10
158.0982558238815
 20
104.547080607639
 30
0.0
 10
157.8870521381772
 20
104.4941942097118
 30
0.0
 10
157.4533067254599
 20
104.4247100784175
 30
0.0
 10
157.2347145123338
 20
104.4089247464517
 30
0.0
 10
156.5830969419041
 20
104.4169008793156
 30
0.0
 10
156.1438987543479
 20
104.4978307312341
 30
0.0
 10
155.3313601907497
 20
104.8008695878592
 30
0.0
 10
154.9462457602421
 20
105.0277240814556
 30
0.0
 10
154.4596094751949
 20
105.4575135855153
 30
0.0
 10
154.3098469707433
 20
105.6175245560194
 30
0.0
 10
154.0447890731451
 20
105.9672330499353
 30
0.0
 10
153.9323157294048
 20
106.1527101607762
 30
0.0
 10
153.7484112177896
 20
106.5454697071567
 30
0.0
 10
153.6764688125254
 20
106.7559460368767
 30
0.0
 10
153.5835094797077
 20
107.182697744227
 30
0.0
 10
153.5615703648934
 20
107.3988902678313
 30
0.0
 10
153.5679926549076
 20
107.8370521919744
 30
0.0
 10
153.5970433639916
 20
108.0568627021867
 30
0.0
 10
153.7025432086766
 20
108.4794811310994
 30
0.0
 10
153.7802900262807
 20
108.6873576659613
 30
0.0
 10
153.977284259758
 20
109.0780370611544
 30
0.0
 10
154.0957169947519
 20
109.2608505931466
 30
0.0
 10
154.3704365358892
 20
109.6027693765354
 30
0.0
 10
154.5259494421003
 20
109.7602923365844
 30
0.0
 10
154.8636091576748
 20
110.0419448339712
 30
0.0
  0
LINE
  5
A0
330
1F
100
AcDbEntity
  8
0
  6
Continuous
 62
     7
370
    15
100
AcDbLine
 10
154.6947792993
 20
81.6805138169
 30
0.0
 11
154.6243405023
 21
81.6750200737
 31
0.0
  0
SPLINE
  5
A1
330
1F
100
AcDbEntity
  8
0
  6
Continuous
 62
     7
370
    15
100
AcDbSpline
210
0.0
220
0.0
230
1.0
 70
     8
 71
     3
 72
    38
 73
    34
 74
     0
 42
0.00000001
 43
0.00000001
 40
0.0
 40
0.0
 40
0.0
 40
0.0
 40
0.0270795557490061
 40
0.0513398461519408
 40
0.0962403335893708
 40
0.142353712107316
 40
0.1890689780323417
 40
0.2369297605605939
 40
0.2623585884736737
 40
0.3139515878098004
 40
0.3401523310743002
 40
0.3679873566966446
 40
0.395997675356387
 40
0.4245476062790159
 40
0.4532791694139918
 40
0.4828300995353539
 40
0.5125788283127396
 40
0.5429504116585923
 40
0.5735375329426305
 40
0.6035963076009317
 40
0.6338696643917452
 40
0.6648364205546915
 40
0.6960511512412819
 40
0.7252324384308987
 40
0.7546390507488979
 40
0.7847952557840705
 40
0.8152289763002828
 40
0.8420606637433634
 40
0.8968346504072745
 40
0.92489015370438
 40
0.9489008756240697
 40
0.9978521209728809
 40
1.0
 40
1.0
 40
1.0
 40
1.0
 10
153.5751912681146
 20
81.57754154072785
 30
0.0
 10
153.5733662413558
 20
81.57734377611662
 30
0.0
 10
153.5699061922365
 20
81.57696883626132
 30
0.0
 10
153.6237563155267
 20
81.5828151781205
 30
0.0
 10
153.7294760269868
 20
81.59410757172553
 30
0.0
 10
153.9326419917774
 20
81.61482604428575
 30
0.0
 10
154.2069366240468
 20
81.64080217791869
 30
0.0
 10
154.4919595470449
 20
81.66511566734849
 30
0.0
 10
154.8218714127079
 20
81.6903051349242
 30
0.0
 10
155.1214083663601
 20
81.71032406094615
 30
0.0
 10
155.4481685826641
 20
81.72844638529502
 30
0.0
 10
155.7116317708566
 20
81.7409427135338
 30
0.0
 10
155.990945217392
 20
81.75177378709212
 30
0.0
 10
156.2799169888114
 20
81.76036932815377
 30
0.0
 10
156.579078792737
 20
81.76646560410053
 30
0.0
 10
156.8855460555655
 20
81.76974343932986
 30
0.0
 10
157.1989238915039
 20
81.7699811576847
 30
0.0
 10
157.5150203494985
 20
81.76703424390377
 30
0.0
 10
157.8290466346737
 20
81.76092030822032
 30
0.0
 10
158.1373500509139
 20
81.75185585106324
 30
0.0
 10
158.4393413761946
 20
81.74006431107605
 30
0.0
 10
158.7349989443894
 20
81.72571980397555
 30
0.0
 10
159.0145089246136
 20
81.70958747613696
 30
0.0
 10
159.2746921377913
 20
81.6923780621046
 30
0.0
 10
159.5156225564442
 20
81.67459257171741
 30
0.0
 10
159.7408385841575
 20
81.65634118410614
 30
0.0
 10
159.9382180531674
 20
81.63903318091953
 30
0.0
 10
160.1620909326411
 20
81.61816541041838
 30
0.0
 10
160.3370500332106
 20
81.60055114488041
 30
0.0
 10
160.4569917052317
 20
81.58796124249949
 30
0.0
 10
160.5362520695326
 20
81.57947184562244
 30
0.0
 10
160.5710850411564
 20
81.57565315331664
 30
0.0
 10
160.5638326528677
 20
81.5764439548441
 30
0.0
 10
160.5635278090393
 20
81.57647719506173
 30
0.0
  0
SPLINE
  5
A2
330
1F
100
AcDbEntity
  8
0
  6
Continuous
 62
     7
370
    15
100
AcDbSpline
210
0.0
220
0.0
230
1.0
 70
     8
 71
     3
 72
    25
 73
    21
 74
     0
 42
0.00000001
 43
0.00000001
 40
0.0
 40
0.0
 40
0.0
 40
0.0
 40
0.0214830617254413
 40
0.1256309929910791
 40
0.1791279271559432
 40
0.2281195227732402
 40
0.2726121101539435
 40
0.3126145827924338
 40
0.409945086337242
 40
0.4989899449412966
 40
0.5880518918249552
 40
0.6196164301393405
 40
0.6521178645963922
 40
0.6855667602618634
 40
0.7399574406639631
 40
0.8023012871512676
 40
0.872614552390922
 40
0.9276419470060968
 40
0.9771544717506873
 40
1.0
 40
1.0
 40
1.0
 40
1.0
 10
179.0970889746654
 20
101.5275016757935
 30
0.0
 10
179.1910140771236
 20
101.5747502494896
 30
0.0
 10
179.7402795421411
 20
101.8510556153965
 30
0.0
 10
180.4057001287663
 20
102.4373421369719
 30
0.0
 10
181.0809170339931
 20
103.1808529677477
 30
0.0
 10
181.4990741087584
 20
103.7652156027124
 30
0.0
 10
181.826590458891
 20
104.3300617844506
 30
0.0
 10
182.2033331031341
 20
105.1376189692757
 30
0.0
 10
182.5267480579301
 20
106.212125865077
 30
0.0
 10
182.6562462511928
 20
107.5736742319637
 30
0.0
 10
182.5581338865214
 20
108.6115132159866
 30
0.0
 10
182.3922247999823
 20
109.3474242517148
 30
0.0
 10
182.2553766442189
 20
109.8073637614018
 30
0.0
 10
182.0479003448773
 20
110.3607939671032
 30
0.0
 10
181.7268018429358
 20
111.0239255932678
 30
0.0
 10
181.2300779601463
 20
111.7926921411149
 30
0.0
 10
180.6317052285417
 20
112.4876727445239
 30
0.0
 10
179.9938154593582
 20
113.0519866030399
 30
0.0
 10
179.4917606868169
 20
113.4204668969824
 30
0.0
 10
179.1828185125708
 20
113.5924715460865
 30
0.0
 10
179.0852765407085
 20
113.6467783841996
 30
0.0
  0
SPLINE
  5
A3
330
1F
100
AcDbEntity
  8
0
  6
Continuous
 62
     7
370
    15
100
AcDbSpline
210
0.0
220
0.0
230
1.0
 70
     8
 71
     3
 72
    25
 73
    21
 74
     0
 42
0.00000001
 43
0.00000001
 40
0.0
 40
0.0
 40
0.0
 40
0.0
 40
0.0211491801544899
 40
0.1254818460387845
 40
0.1790080145563465
 40
0.2280559433819144
 40
0.2726320012279336
 40
0.3127451057364052
 40
0.4101985368134962
 40
0.4993226354410615
 40
0.5883156877780185
 40
0.6198493170228118
 40
0.6523160284302277
 40
0.6857264575638045
 40
0.7399742318633942
 40
0.8022281304532002
 40
0.8725042868961279
 40
0.9274022098162676
 40
0.9768889353129863
 40
1.0
 40
1.0
 40
1.0
 40
1.0
 10
172.1312710183629
 20
113.6252397851167
 30
0.0
 10
172.0388044481655
 20
113.5787407436852
 30
0.0
 10
171.4901838472497
 20
113.302853663655
 30
0.0
 10
170.8249975365417
 20
112.7171289701313
 30
0.0
 10
170.1487214835859
 20
111.9727881753052
 30
0.0
 10
169.7300062870874
 20
111.3877884001298
 30
0.0
 10
169.4018844888493
 20
110.8218618941037
 30
0.0
 10
169.0246678435109
 20
110.0127958861412
 30
0.0
 10
168.7013218626116
 20
108.9366442380918
 30
0.0
 10
168.5727035461693
 20
107.5743701369889
 30
0.0
 10
168.6715279286016
 20
106.536721998477
 30
0.0
 10
168.8377218809375
 20
105.8015700744544
 30
0.0
 10
168.9746588140396
 20
105.3422054255189
 30
0.0
 10
169.181998389457
 20
104.7898802319045
 30
0.0
 10
169.502659923861
 20
104.1280668420184
 30
0.0
 10
169.9986315084372
 20
103.3604520258136
 30
0.0
 10
170.5960568148455
 20
102.6663800465338
 30
0.0
 10
171.23301490509
 20
102.1024825225478
 30
0.0
 10
171.7353490742072
 20
101.7334976229286
 30
0.0
 10
172.0452602616026
 20
101.5608232829534
 30
0.0
 10
172.1439186020424
 20
101.5058534576894
 30
0.0
  0
CIRCLE
  5
A4
330
1F
100
AcDbEntity
  8
0
  6
Continuous
 62
     7
370
    15
100
AcDbCircle
 10
157.0644766684
 20
107.5763737451
 30
0.0
 40
2.5
  0
LINE
  5
A5
330
1F
100
AcDbEntity
  8
0
  6
Continuous
 62
     7
370
    15
100
AcDbLine
 10
118.1144766684
 20
83.3559428834
 30
0.0
 11
118.1144766684
 21
131.7968046068
 31
0.0
  0
LINE
  5
A6
330
1F
100
AcDbEntity
  8
0
  6
Continuous
 62
     7
370
    15
100
AcDbLine
 10
98.3144766684
 20
84.3479268513
 30
0.0
 11
98.3144766684
 21
85.6126362139
 31
0.0
  0
SPLINE
  5
A7
330
1F
100
AcDbEntity
  8
0
  6
Continuous
 62
     7
370
    15
100
AcDbSpline
210
0.0
220
0.0
230
1.0
 70
     8
 71
     3
 72
    14
 73
    10
 74
     0
 42
0.00000001
 43
0.00000001
 40
0.0
 40
0.0
 40
0.0
 40
0.0
 40
0.25
 40
0.25
 40
0.5
 40
0.5
 40
0.75
 40
0.75
 40
1.0
 40
1.0
 40
1.0
 40
1.0
 10
97.53618955050347
 20
86.7432224215636
 30
0.0
 10
97.59281622570553
 20
86.63552496772674
 30
0.0
 10
97.68733888599526
 20
86.53273538600742
 30
0.0
 10
97.8703838615575
 20
86.33437807378728
 30
0.0
 10
97.96201043851221
 20
86.23831856510903
 30
0.0
 10
98.12086375620542
 20
86.05078952239978
 30
0.0
 10
98.18875436382713
 20
85.95938054961621
 30
0.0
 10
98.2856713895347
 20
85.78100432870608
 30
0.0
 10
98.31447666841974
 20
85.69378242245989
 30
0.0
 10
98.31447666841974
 20
85.61263621392564
 30
0.0
  0
SPLINE
  5
A8
330
1F
100
AcDbEntity
  8
0
  6
Continuous
 62
     7
370
    15
100
AcDbSpline
210
0.0
220
0.0
230
1.0
 70
     8
 71
     3
 72
    14
 73
    10
 74
     0
 42
0.00000001
 43
0.00000001
 40
0.0
 40
0.0
 40
0.0
 40
0.0
 40
0.1249999999999975
 40
0.1249999999999975
 40
0.249999999999995
 40
0.249999999999995
 40
0.4999999999999953
 40
0.4999999999999953
 40
1.0
 40
1.0
 40
1.0
 40
1.0
 10
96.91447666841918
 20
87.18990428384292
 30
0.0
 10
96.96302107707635
 20
87.19565259712321
 30
0.0
 10
97.01593643186125
 20
87.19255170846698
 30
0.0
 10
97.1112317768443
 20
87.17035686430465
 30
0.0
 10
97.15148277412925
 20
87.15312463720879
 30
0.0
 10
97.25575278764222
 20
87.09679672075673
 30
0.0
 10
97.30607476279555
 20
87.05261037481093
 30
0.0
 10
97.43375771032092
 20
86.9216024759603
 30
0.0
 10
97.48984315738318
 20
86.83136795573
 30
0.0
 10
97.53618955050491
 20
86.74322242156413
 30
0.0
  0
SPLINE
  5
A9
330
1F
100
AcDbEntity
  8
0
  6
Continuous
 62
     7
370
    15
100
AcDbSpline
210
0.0
220
0.0
230
1.0
 70
     8
 71
     3
 72
     8
 73
     4
 74
     0
 42
0.00000001
 43
0.00000001
 40
0.0
 40
0.0
 40
0.0
 40
0.0
 40
1.0
 40
1.0
 40
1.0
 40
1.0
 10
94.64595157547295
 20
86.88005899726014
 30
0.0
 10
95.3805286019559
 20
86.99868400832908
 30
0.0
 10
96.14400367135157
 20
87.09866988046535
 30
0.0
 10
96.91447666841918
 20
87.1899042838429
 30
0.0
  0
SPLINE
  5
AA
330
1F
100
AcDbEntity
  8
0
  6
Continuous
 62
     7
370
    15
100
AcDbSpline
210
0.0
220
0.0
230
1.0
 70
     8
 71
     3
 72
    14
 73
    10
 74
     0
 42
0.00000001
 43
0.00000001
 40
0.0
 40
0.0
 40
0.0
 40
0.0
 40
0.500000000000001
 40
0.500000000000001
 40
0.7500000000000004
 40
0.7500000000000004
 40
0.8750000000000003
 40
0.8750000000000003
 40
1.0
 40
1.0
 40
1.0
 40
1.0
 10
89.36447666841917
 20
86.70643597972848
 30
0.0
 10
90.25662279897276
 20
86.70571375352783
 30
0.0
 10
91.14659923476636
 20
86.71029995998529
 30
0.0
 10
92.47319440184195
 20
86.73802496437682
 30
0.0
 10
92.91404133034071
 20
86.75063150200099
 30
0.0
 10
93.57048156776311
 20
86.78164765000845
 30
0.0
 10
93.78849522435499
 20
86.79399082263522
 30
0.0
 10
94.22120407803777
 20
86.8270148777985
 30
0.0
 10
94.43648054320255
 20
86.84623204293695
 30
0.0
 10
94.64595157547296
 20
86.88005899726014
 30
0.0
  0
SPLINE
  5
AB
330
1F
100
AcDbEntity
  8
0
  6
Continuous
 62
     7
370
    15
100
AcDbSpline
210
0.0
220
0.0
230
1.0
 70
     8
 71
     3
 72
     8
 73
     4
 74
     0
 42
0.00000001
 43
0.00000001
 40
0.0000005163856998
 40
0.0000005163856998
 40
0.0000005163856998
 40
0.0000005163856998
 40
0.000026289209185
 40
0.000026289209185
 40
0.000026289209185
 40
0.000026289209185
 10
89.35443173801157
 20
86.71641985282525
 30
0.0
 10
89.3577594762194
 20
86.71308560595614
 30
0.0
 10
89.361107929195
 20
86.70975764868084
 30
0.0
 10
89.36447666841916
 20
86.70643597972847
 30
0.0
  0
SPLINE
  5
AC
330
1F
100
AcDbEntity
  8
0
  6
Continuous
 62
     7
370
    15
100
AcDbSpline
210
0.0
220
0.0
230
1.0
 70
     8
 71
     3
 72
     8
 73
     4
 74
     0
 42
0.00000001
 43
0.00000001
 40
0.0000005099763573
 40
0.0000005099763573
 40
0.0000005099763573
 40
0.0000005099763573
 40
0.0000262827998699
 40
0.0000262827998699
 40
0.0000262827998699
 40
0.0000262827998699
 10
89.36447666841916
 20
128.4463115105186
 30
0.0
 10
89.36110792919142
 20
128.4429898415627
 30
0.0
 10
89.35775947621227
 20
128.4396618842839
 30
0.0
 10
89.35443173800094
 20
128.4363276374112
 30
0.0
  0
SPLINE
  5
AD
330
1F
100
AcDbEntity
  8
0
  6
Continuous
 62
     7
370
    15
100
AcDbSpline
210
0.0
220
0.0
230
1.0
 70
     8
 71
     3
 72
    10
 73
     6
 74
     0
 42
0.00000001
 43
0.00000001
 40
0.0
 40
0.0
 40
0.0
 40
0.0
 40
0.5
 40
0.5
 40
1.0
 40
1.0
 40
1.0
 40
1.0
 10
92.91447666841918
 20
128.3994611369513
 30
0.0
 10
92.3268911213286
 20
128.4205266571877
 30
0.0
 10
91.73614472786821
 20
128.4312851430599
 30
0.0
 10
90.55212556256934
 20
128.4446499235956
 30
0.0
 10
89.95871157436389
 20
128.4467925662602
 30
0.0
 10
89.36447666841917
 20
128.4463115105186
 30
0.0
  0
SPLINE
  5
AE
330
1F
100
AcDbEntity
  8
0
  6
Continuous
 62
     7
370
    15
100
AcDbSpline
210
0.0
220
0.0
230
1.0
 70
     8
 71
     3
 72
    18
 73
    14
 74
     0
 42
0.00000001
 43
0.00000001
 40
0.0
 40
0.0
 40
0.0
 40
0.0
 40
0.2500000000000009
 40
0.2500000000000009
 40
0.500000000000001
 40
0.500000000000001
 40
0.7500000000000011
 40
0.7500000000000011
 40
0.875000000000001
 40
0.875000000000001
 40
0.9375000000000006
 40
0.9375000000000006
 40
1.0
 40
1.0
 40
1.0
 40
1.0
 10
94.31447666841919
 20
129.4204814174865
 30
0.0
 10
94.31447666841919
 20
129.3372745086293
 30
0.0
 10
94.27862756848091
 20
129.2485378533158
 30
0.0
 10
94.153755832447
 20
129.0664126627555
 30
0.0
 10
94.06335541479913
 20
128.9712826141289
 30
0.0
 10
93.84111276005696
 20
128.7821011050046
 30
0.0
 10
93.7113479736112
 20
128.6871559369099
 30
0.0
 10
93.47071051629966
 20
128.5488772293299
 30
0.0
 10
93.38294321816223
 20
128.5031667960276
 30
0.0
 10
93.22841913095542
 20
128.4453434908061
 30
0.0
 10
93.17180824490066
 20
128.4276287267682
 30
0.0
 10
93.04776421399406
 20
128.4030894235353
 30
0.0
 10
92.98004953897578
 20
128.397110284997
 30
0.0
 10
92.91447666841918
 20
128.3994611369513
 30
0.0
  0
LINE
  5
AF
330
1F
100
AcDbEntity
  8
0
  6
Continuous
 62
     7
370
    15
100
AcDbLine
 10
94.3144766684
 20
129.4204814175
 30
0.0
 11
94.3144766684
 21
130.6044198373
 31
0.0
  0
SPLINE
  5
B0
330
1F
100
AcDbEntity
  8
0
  6
Continuous
 62
     7
370
    15
100
AcDbSpline
210
0.0
220
0.0
230
1.0
 70
     8
 71
     3
 72
    24
 73
    20
 74
     0
 42
0.00000001
 43
0.00000001
 40
0.0
 40
0.0
 40
0.0
 40
0.0
 40
0.0010489762969682
 40
0.0637843125639766
 40
0.1272220590447888
 40
0.1903788924487598
 40
0.252674865369363
 40
0.3146354154424954
 40
0.377089199714964
 40
0.4393540298504154
 40
0.5008133242537826
 40
0.562184510458698
 40
0.624843845111553
 40
0.6874304766616532
 40
0.7496743174679398
 40
0.8119848426977657
 40
0.8750960525413161
 40
0.9384412526965076
 40
0.9999999999999999
 40
0.9999999999999999
 40
0.9999999999999999
 40
0.9999999999999999
 10
106.8833825003949
 20
83.91886531654342
 30
0.0
 10
106.8829360402906
 20
83.91880703072451
 30
0.0
 10
106.8557884765969
 20
83.91526288878198
 30
0.0
 10
106.9514002542106
 20
83.92809663346473
 30
0.0
 10
107.184960512105
 20
83.95734331866491
 30
0.0
 10
107.5805148194222
 20
84.00395764172775
 30
0.0
 10
108.1075551232598
 20
84.0541407833871
 30
0.0
 10
108.7510855352496
 20
84.09851724583672
 30
0.0
 10
109.4897593904886
 20
84.12546202677493
 30
0.0
 10
110.2872738959219
 20
84.12893387748171
 30
0.0
 10
111.1138527783647
 20
84.10130663345147
 30
0.0
 10
111.9393757959755
 20
84.04282774447813
 30
0.0
 10
112.7315023439767
 20
83.95738271511807
 30
0.0
 10
113.4640746179825
 20
83.85564847528174
 30
0.0
 10
114.0997148547106
 20
83.74780535330878
 30
0.0
 10
114.62162596172
 20
83.6461751965697
 30
0.0
 10
115.0032547388356
 20
83.56369003989145
 30
0.0
 10
115.2540692090694
 20
83.50754083354184
 30
0.0
 10
115.2831907650537
 20
83.5006913749281
 30
0.0
 10
115.2975432858699
 20
83.49731562819993
 30
0.0
  0
SPLINE
  5
B1
330
1F
100
AcDbEntity
  8
0
  6
Continuous
 62
     7
370
    15
100
AcDbSpline
210
0.0
220
0.0
230
1.0
 70
     8
 71
     3
 72
    24
 73
    20
 74
     0
 42
0.00000001
 43
0.00000001
 40
0.0
 40
0.0
 40
0.0
 40
0.0
 40
0.0614384276250176
 40
0.1250736755369651
 40
0.1884253490729237
 40
0.2508623904037427
 40
0.3129665632511172
 40
0.3753451453465143
 40
0.4377328972324873
 40
0.4990927322917189
 40
0.5605807588447405
 40
0.6229469893028771
 40
0.6854686282025979
 40
0.7475477813740068
 40
0.8098225060804932
 40
0.8730684085990272
 40
0.9364041844536292
 40
0.9991757196257863
 40
1.0
 40
1.0
 40
1.0
 40
1.0
 10
115.2974885150669
 20
131.6554027195809
 30
0.0
 10
115.2828877907635
 20
131.6520346627283
 30
0.0
 10
115.2531642720355
 20
131.6451781192546
 30
0.0
 10
115.0004264563869
 20
131.5888394987286
 30
0.0
 10
114.6174305399373
 20
131.5059824165986
 30
0.0
 10
114.0950749555001
 20
131.4040753866473
 30
0.0
 10
113.4602904775002
 20
131.2962362476035
 30
0.0
 10
112.7300668733276
 20
131.1947692956284
 30
0.0
 10
111.9395982880935
 20
131.1097095819378
 30
0.0
 10
111.1151147732654
 20
131.0515052880514
 30
0.0
 10
110.2880783143819
 20
131.0239218492247
 30
0.0
 10
109.4897540467302
 20
131.0274148267175
 30
0.0
 10
108.749930082441
 20
131.0543707465707
 30
0.0
 10
108.1056758494659
 20
131.0987246885699
 30
0.0
 10
107.5782685942499
 20
131.1489301383277
 30
0.0
 10
107.1836039920997
 20
131.1955399935262
 30
0.0
 10
106.9510747129114
 20
131.2247355860735
 30
0.0
 10
106.8556946803628
 20
131.2375136550147
 30
0.0
 10
106.8826283172638
 20
131.2339593965069
 30
0.0
 10
106.8829774104881
 20
131.2339133289236
 30
0.0
  0
SPLINE
  5
B2
330
1F
100
AcDbEntity
  8
0
  6
Continuous
 62
     7
370
    15
100
AcDbSpline
210
0.0
220
0.0
230
1.0
 70
     8
 71
     3
 72
    10
 73
     6
 74
     0
 42
0.00000001
 43
0.00000001
 40
0.0
 40
0.0
 40
0.0
 40
0.0
 40
0.0840381716606348
 40
0.7011125076933074
 40
1.0
 40
1.0
 40
1.0
 40
1.0
 10
88.22802363095485
 20
87.84759983744021
 30
0.0
 10
88.22869818828977
 20
87.84539421060433
 30
0.0
 10
88.23432587598596
 20
87.8269931372421
 30
0.0
 10
88.2606473561128
 20
87.84122769996527
 30
0.0
 10
88.27308237295752
 20
87.88691347551627
 30
0.0
 10
88.27714004314258
 20
87.90182120034282
 30
0.0
  0
LINE
  5
B3
330
1F
100
AcDbEntity
  8
0
  6
Continuous
 62
     7
370
    15
100
AcDbLine
 10
88.2144766684
 20
87.8856959986
 30
0.0
 11
88.2144766684
 21
127.2670514916
 31
0.0
  0
SPLINE
  5
B4
330
1F
100
AcDbEntity
  8
0
  6
Continuous
 62
     7
370
    15
100
AcDbSpline
210
0.0
220
0.0
230
1.0
 70
     8
 71
     3
 72
    10
 73
     6
 74
     0
 42
0.00000001
 43
0.00000001
 40
0.0
 40
0.0
 40
0.0
 40
0.0
 40
0.5
 40
0.5
 40
1.0
 40
1.0
 40
1.0
 40
1.0
 10
88.27714004314258
 20
127.2509262899043
 30
0.0
 10
88.26823575403384
 20
127.2966678091175
 30
0.0
 10
88.25172037384085
 20
127.3138586485865
 30
0.0
 10
88.22461242777923
 20
127.3135353716507
 30
0.0
 10
88.21447666841918
 20
127.2956578293543
 30
0.0
 10
88.21447666841918
 20
127.2670514916017
 30
0.0
  0
SPLINE
  5
B5
330
1F
100
AcDbEntity
  8
0
  6
Continuous
 62
     7
370
    15
100
AcDbSpline
210
0.0
220
0.0
230
1.0
 70
     8
 71
     3
 72
    26
 73
    22
 74
     0
 42
0.00000001
 43
0.00000001
 40
0.0
 40
0.0
 40
0.0
 40
0.0
 40
0.2500000000000165
 40
0.2500000000000165
 40
0.3750000000000256
 40
0.3750000000000256
 40
0.4375000000000291
 40
0.4375000000000291
 40
0.4687500000000291
 40
0.4687500000000291
 40
0.5000000000000292
 40
0.5000000000000292
 40
0.5312500000000293
 40
0.5312500000000293
 40
0.5625000000000293
 40
0.5625000000000293
 40
0.625000000000026
 40
0.625000000000026
 40
0.7500000000000173
 40
0.7500000000000173
 40
1.0
 40
1.0
 40
1.0
 40
1.0
 10
89.03863031452369
 20
127.9664930787214
 30
0.0
 10
89.00002979165522
 20
127.8487183823659
 30
0.0
 10
88.95373278910095
 20
127.724328696204
 30
0.0
 10
88.85979344066702
 20
127.5191093638505
 30
0.0
 10
88.82448197375358
 20
127.4475364974041
 30
0.0
 10
88.75830199800791
 20
127.3315832648037
 30
0.0
 10
88.73376363133967
 20
127.2909987299934
 30
0.0
 10
88.69039088578589
 20
127.2268570481216
 30
0.0
 10
88.67488248436068
 20
127.2049906228366
 30
0.0
 10
88.63983983977367
 20
127.1593963544934
 30
0.0
 10
88.6202895490539
 20
127.135726063526
 30
0.0
 10
88.57836226868329
 20
127.0911095041861
 30
0.0
 10
88.55571015845165
 20
127.0702294916681
 30
0.0
 10
88.514736444365
 20
127.0393560779173
 30
0.0
 10
88.49713714446958
 20
127.0295172080849
 30
0.0
 10
88.45251015861344
 20
127.0105275923887
 30
0.0
 10
88.4319509359601
 20
127.0102032677353
 30
0.0
 10
88.38082549646343
 20
127.0194267086115
 30
0.0
 10
88.3599140834749
 20
127.0406736048285
 30
0.0
 10
88.30846417591397
 20
127.1146424836593
 30
0.0
 10
88.29079887660941
 20
127.180760576974
 30
0.0
 10
88.27714004314258
 20
127.2509262899043
 30
0.0
  0
SPLINE
  5
B6
330
1F
100
AcDbEntity
  8
0
  6
Continuous
 62
     7
370
    15
100
AcDbSpline
210
0.0
220
0.0
230
1.0
 70
     8
 71
     3
 72
    10
 73
     6
 74
     0
 42
0.00000001
 43
0.00000001
 40
0.0
 40
0.0
 40
0.0
 40
0.0
 40
0.5
 40
0.5
 40
1.0
 40
1.0
 40
1.0
 40
1.0
 10
89.35443173800097
 20
128.4363276374112
 30
0.0
 10
89.28687248308272
 20
128.3686362446014
 30
0.0
 10
89.22323582774624
 20
128.2939290798478
 30
0.0
 10
89.11301507317438
 20
128.1349629474212
 30
0.0
 10
89.06619877995176
 20
128.0506076814132
 30
0.0
 10
89.03863031452369
 20
127.9664930787214
 30
0.0
  0
SPLINE
  5
B7
330
1F
100
AcDbEntity
  8
0
  6
Continuous
 62
     7
370
    15
100
AcDbSpline
210
0.0
220
0.0
230
1.0
 70
     8
 71
     3
 72
    10
 73
     6
 74
     0
 42
0.00000001
 43
0.00000001
 40
0.0
 40
0.0
 40
0.0
 40
0.0
 40
0.5
 40
0.5
 40
1.0
 40
1.0
 40
1.0
 40
1.0
 10
89.03863031452372
 20
87.18625441152558
 30
0.0
 10
89.0661077292777
 20
87.10241761505769
 30
0.0
 10
89.1128163595671
 20
87.01810712746855
 30
0.0
 10
89.22309482231307
 20
86.85898589698185
 30
0.0
 10
89.28698236092697
 20
86.7840011528922
 30
0.0
 10
89.35443173801158
 20
86.71641985282525
 30
0.0
  0
SPLINE
  5
B8
330
1F
100
AcDbEntity
  8
0
  6
Continuous
 62
     7
370
    15
100
AcDbSpline
210
0.0
220
0.0
230
1.0
 70
     8
 71
     3
 72
    24
 73
    20
 74
     0
 42
0.00000001
 43
0.00000001
 40
0.0
 40
0.0
 40
0.0
 40
0.0
 40
0.25
 40
0.25
 40
0.374999999999999
 40
0.374999999999999
 40
0.4374999999999993
 40
0.4374999999999993
 40
0.4687499999999994
 40
0.4687499999999994
 40
0.4999999999999995
 40
0.4999999999999995
 40
0.5624999999999971
 40
0.5624999999999971
 40
0.6249999999999947
 40
0.6249999999999947
 40
0.7499999999999947
 40
0.7499999999999947
 40
1.0
 40
1.0
 40
1.0
 40
1.0
 10
88.27714004314258
 20
87.90182120034282
 30
0.0
 10
88.29089316181282
 20
87.9724712583331
 30
0.0
 10
88.30866572921867
 20
88.03906937109801
 30
0.0
 10
88.36091682077404
 20
88.11316739133122
 30
0.0
 10
88.38195189635559
 20
88.13442519849278
 30
0.0
 10
88.43485230398404
 20
88.14257112463902
 30
0.0
 10
88.45595797686195
 20
88.14163132124325
 30
0.0
 10
88.5020101455399
 20
88.12061532966591
 30
0.0
 10
88.5203806175233
 20
88.10970652355829
 30
0.0
 10
88.56193225258902
 20
88.07707161261091
 30
0.0
 10
88.58449892534593
 20
88.05557963223956
 30
0.0
 10
88.64727994180593
 20
87.98711368865324
 30
0.0
 10
88.68040970277383
 20
87.94103923044814
 30
0.0
 10
88.73732738925885
 20
87.85603134211348
 30
0.0
 10
88.76151341476263
 20
87.81575104093208
 30
0.0
 10
88.82672136514239
 20
87.70081481446616
 30
0.0
 10
88.86143742533362
 20
87.63023182931914
 30
0.0
 10
88.95465269566449
 20
87.42602607024054
 30
0.0
 10
89.00032523102517
 20
87.30312768791318
 30
0.0
 10
89.03863031452372
 20
87.18625441152561
 30
0.0
  0
LINE
  5
B9
330
1F
100
AcDbEntity
  8
0
  6
Continuous
 62
     7
370
    15
100
AcDbLine
 10
200.1144766684
 20
88.8505142667
 30
0.0
 11
200.1144766684
 21
126.3022332206
 31
0.0
  0
SPLINE
  5
BA
330
1F
100
AcDbEntity
  8
0
  6
Continuous
 62
     7
370
    15
100
AcDbSpline
210
0.0
220
0.0
230
1.0
 70
     8
 71
     3
 72
     8
 73
     4
 74
     0
 42
0.00000001
 43
0.00000001
 40
0.0
 40
0.0
 40
0.0
 40
0.0
 40
1.0
 40
1.0
 40
1.0
 40
1.0
 10
136.2044766684192
 20
135.3816079362952
 30
0.0
 10
135.7117665715734
 20
136.2696269344216
 30
0.0
 10
135.2176838662944
 20
137.1568895701076
 30
0.0
 10
134.7225438369301
 20
138.0435692182878
 30
0.0
  0
LINE
  5
BB
330
1F
100
AcDbEntity
  8
0
  6
Continuous
 62
     7
370
    15
100
AcDbLine
 10
136.2044766684
 20
128.6265174127
 30
0.0
 11
136.2044766684
 21
135.3816079363
 31
0.0
  0
SPLINE
  5
BC
330
1F
100
AcDbEntity
  8
0
  6
Continuous
 62
     7
370
    15
100
AcDbSpline
210
0.0
220
0.0
230
1.0
 70
     8
 71
     3
 72
     8
 73
     4
 74
     0
 42
0.00000001
 43
0.00000001
 40
0.0
 40
0.0
 40
0.0
 40
0.0
 40
1.0
 40
1.0
 40
1.0
 40
1.0
 10
134.7225438369301
 20
132.035063407491
 30
0.0
 10
135.2296306786894
 20
130.9039130533273
 30
0.0
 10
135.7251985178293
 20
129.7675286425595
 30
0.0
 10
136.2044766684192
 20
128.6265174127069
 30
0.0
  0
SPLINE
  5
BD
330
1F
100
AcDbEntity
  8
0
  6
Continuous
 62
     7
370
    15
100
AcDbSpline
210
0.0
220
0.0
230
1.0
 70
     8
 71
     3
 72
     8
 73
     4
 74
     0
 42
0.00000001
 43
0.00000001
 40
0.0
 40
0.0
 40
0.0
 40
0.0
 40
1.0
 40
1.0
 40
1.0
 40
1.0
 10
141.5064094999082
 20
138.0435692182878
 30
0.0
 10
141.0112694705439
 20
137.1568895701075
 30
0.0
 10
140.5171867652649
 20
136.2696269344216
 30
0.0
 10
140.0244766684192
 20
135.3816079362951
 30
0.0
  0
LINE
  5
BE
330
1F
100
AcDbEntity
  8
0
  6
Continuous
 62
     7
370
    15
100
AcDbLine
 10
141.5064094999
 20
132.0350634075
 30
0.0
 11
141.5064094999
 21
138.0435692183
 31
0.0
  0
SPLINE
  5
BF
330
1F
100
AcDbEntity
  8
0
  6
Continuous
 62
     7
370
    15
100
AcDbSpline
210
0.0
220
0.0
230
1.0
 70
     8
 71
     3
 72
     8
 73
     4
 74
     0
 42
0.00000001
 43
0.00000001
 40
0.0
 40
0.0
 40
0.0
 40
0.0
 40
1.0
 40
1.0
 40
1.0
 40
1.0
 10
140.0244766684192
 20
128.6265174127069
 30
0.0
 10
140.503754819009
 20
129.7675286425595
 30
0.0
 10
140.999322658149
 20
130.9039130533273
 30
0.0
 10
141.5064094999082
 20
132.035063407491
 30
0.0
  0
LINE
  5
C0
330
1F
100
AcDbEntity
  8
0
  6
Continuous
 62
     7
370
    15
100
AcDbLine
 10
140.0244766684
 20
128.6265174127
 30
0.0
 11
140.0244766684
 21
135.3816079363
 31
0.0
  0
LINE
  5
C1
330
1F
100
AcDbEntity
  8
0
  6
Continuous
 62
     7
370
    15
100
AcDbLine
 10
145.4644766684
 20
138.0435692183
 30
0.0
 11
141.5064094999
 21
138.0435692183
 31
0.0
  0
LINE
  5
C2
330
1F
100
AcDbEntity
  8
0
  6
Continuous
 62
     7
370
    15
100
AcDbLine
 10
141.5064094999
 20
132.0350634075
 30
0.0
 11
145.4644766684
 21
132.0350634075
 31
0.0
  0
SPLINE
  5
C3
330
1F
100
AcDbEntity
  8
0
  6
Continuous
 62
     7
370
    15
100
AcDbSpline
210
0.0
220
0.0
230
1.0
 70
     8
 71
     3
 72
    12
 73
     8
 74
     0
 42
0.00000001
 43
0.00000001
 40
0.0
 40
0.0
 40
0.0
 40
0.0
 40
0.250000000000002
 40
0.250000000000002
 40
0.500000000000004
 40
0.500000000000004
 40
1.0
 40
1.0
 40
1.0
 40
1.0
 10
145.4644766684192
 20
132.035063407491
 30
0.0
 10
145.5556763902448
 20
132.035063407491
 30
0.0
 10
145.6462713993809
 20
132.0068437089031
 30
0.0
 10
145.7996841258275
 20
131.912400701655
 30
0.0
 10
145.8648929931512
 20
131.8461137249497
 30
0.0
 10
146.0176775224911
 20
131.6204889016614
 30
0.0
 10
146.0644766684192
 20
131.4380626386288
 30
0.0
 10
146.0644766684192
 20
131.257326006382
 30
0.0
  0
LINE
  5
C4
330
1F
100
AcDbEntity
  8
0
  6
Continuous
 62
     7
370
    15
100
AcDbLine
 10
140.0244766684
 20
127.7122403766
 30
0.0
 11
140.0244766684
 21
128.6265174127
 31
0.0
  0
LINE
  5
C5
330
1F
100
AcDbEntity
  8
0
  6
Continuous
 62
     7
370
    15
100
AcDbLine
 10
146.0644766684
 20
131.2573260064
 30
0.0
 11
146.0644766684
 21
127.4263737451
 31
0.0
  0
SPLINE
  5
C6
330
1F
100
AcDbEntity
  8
0
  6
Continuous
 62
     7
370
    15
100
AcDbSpline
210
0.0
220
0.0
230
1.0
 70
     8
 71
     3
 72
    10
 73
     6
 74
     0
 42
0.00000001
 43
0.00000001
 40
0.0
 40
0.0
 40
0.0
 40
0.0
 40
0.5
 40
0.5
 40
1.0
 40
1.0
 40
1.0
 40
1.0
 10
146.0644766684192
 20
137.4228140688874
 30
0.0
 10
146.0644766684192
 20
137.5832193352383
 30
0.0
 10
146.0022388373123
 20
137.7422811482269
 30
0.0
 10
145.7831039135697
 20
137.9731936138572
 30
0.0
 10
145.6255152185779
 20
138.0435692182878
 30
0.0
 10
145.4644766684192
 20
138.0435692182878
 30
0.0
  0
LINE
  5
C7
330
1F
100
AcDbEntity
  8
0
  6
Continuous
 62
     7
370
    15
100
AcDbLine
 10
146.0644766684
 20
131.2573260064
 30
0.0
 11
146.0644766684
 21
137.4228140689
 31
0.0
  0
LINE
  5
C8
330
1F
100
AcDbEntity
  8
0
  6
Continuous
 62
     7
370
    15
100
AcDbLine
 10
136.2044766684
 20
128.6265174127
 30
0.0
 11
136.2044766684
 21
127.7122403766
 31
0.0
  0
ARC
  5
C9
330
1F
100
AcDbEntity
  8
0
  6
Continuous
 62
     7
370
    15
100
AcDbCircle
 10
128.1152404468
 20
126.2684176494
 30
0.0
 40
7.262064318614383
100
AcDbArc
 50
70.9641575277
 51
109.2384168944
  0
LINE
  5
CA
330
1F
100
AcDbEntity
  8
0
  6
Continuous
 62
     7
370
    15
100
AcDbLine
 10
200.1853845275
 20
95.7932192748
 30
0.0
 11
200.179377604
 21
95.7530167669
 31
0.0
  0
ARC
  5
CB
330
1F
100
AcDbEntity
  8
0
  6
Continuous
 62
     7
370
    15
100
AcDbCircle
 10
177.7105093751
 20
96.320330481
 30
0.0
 40
22.48105556556557
100
AcDbArc
 50
358.6564680972
 51
4.7462172745
  0
LWPOLYLINE
  5
CC
330
1F
100
AcDbEntity
  8
0
  6
Continuous
 62
     7
370
    15
100
AcDbPolyline
 90
        6
 70
   128
 43
0.0
 10
200.1264948039
 20
118.4988475878
 10
200.1321817875
 20
118.8826152582
 10
200.1321817875
 20
119.182094712
 10
200.1264948039
 20
119.3611643075
 10
200.115806771
 20
119.3982256085
 10
200.1144766684
 20
119.3936707024
  0
LWPOLYLINE
  5
CD
330
1F
100
AcDbEntity
  8
0
  6
Continuous
 62
     7
370
    15
100
AcDbPolyline
 90
        3
 70
   128
 43
0.0
 10
200.1144766684
 20
118.0337587567
 10
200.115806771
 20
118.0770797459
 10
200.1264948039
 20
118.4988475878
  0
ARC
  5
CE
330
1F
100
AcDbEntity
  8
0
  6
HIDDEN
 62
     7
370
     0
100
AcDbCircle
 10
175.6144766684
 20
107.5763737451
 30
0.0
 40
7.0
100
AcDbArc
 50
119.6094583666
 51
240.4538608566
  0
CIRCLE
  5
CF
330
1F
100
AcDbEntity
  8
0
  6
HIDDEN
 62
     7
370
     0
100
AcDbCircle
 10
175.6144766684
 20
107.5763737451
 30
0.0
 40
8.0
  0
CIRCLE
  5
D0
330
1F
100
AcDbEntity
  8
0
  6
HIDDEN
 62
     7
370
     0
100
AcDbCircle
 10
175.6144766684
 20
107.5763737451
 30
0.0
 40
4.0
  0
CIRCLE
  5
D1
330
1F
100
AcDbEntity
  8
0
  6
HIDDEN
 62
     7
370
     0
100
AcDbCircle
 10
175.6144766684
 20
107.5763737451
 30
0.0
 40
5.500000000000013
  0
LINE
  5
D2
330
1F
100
AcDbEntity
  8
0
  6
HIDDEN
 62
     7
370
     0
100
AcDbLine
 10
134.7225438369
 20
132.0350634075
 30
0.0
 11
134.7225438369
 21
127.4263737451
 31
0.0
  0
ARC
  5
D3
330
1F
100
AcDbEntity
  8
0
  6
HIDDEN
 62
     7
370
     0
100
AcDbCircle
 10
128.4002949481
 20
120.0654237112
 30
0.0
 40
3.670281203198798
100
AcDbArc
 50
265.5336451734
 51
13.4990676234
  0
ARC
  5
D4
330
1F
100
AcDbEntity
  8
0
  6
HIDDEN
 62
     7
370
     0
100
AcDbCircle
 10
127.8295366517
 20
120.0676030694
 30
0.0
 40
3.672385698370085
100
AcDbArc
 50
166.9516062505
 51
274.4500461145
  0
SPLINE
  5
D5
330
1F
100
AcDbEntity
  8
0
  6
HIDDEN
 62
     7
370
     0
100
AcDbSpline
210
0.0
220
0.0
230
1.0
 70
     8
 71
     3
 72
     9
 73
     5
 74
     0
 42
0.00000001
 43
0.00000001
 40
0.0
 40
0.0
 40
0.0
 40
0.0
 40
0.6482855298662427
 40
1.0
 40
1.0
 40
1.0
 40
1.0
 10
175.6144766684192
 20
99.67310413680676
 30
0.0
 10
175.1657118779318
 20
99.68645450659164
 30
0.0
 10
174.4734786414749
 20
99.70704785500041
 30
0.0
 10
173.8104369422219
 20
99.89117467256563
 30
0.0
 10
173.5772355822926
 20
99.955934738643
 30
0.0
  0
SPLINE
  5
D6
330
1F
100
AcDbEntity
  8
0
  6
HIDDEN
 62
     7
370
     0
100
AcDbSpline
210
0.0
220
0.0
230
1.0
 70
     8
 71
     3
 72
     9
 73
     5
 74
     0
 42
0.00000001
 43
0.00000001
 40
0.0
 40
0.0
 40
0.0
 40
0.0
 40
0.5258792791280836
 40
1.0
 40
1.0
 40
1.0
 40
1.0
 10
172.6135873414079
 20
100.2629455394836
 30
0.0
 10
172.3237009272171
 20
100.37374168065
 30
0.0
 10
171.772459557389
 20
100.5844290866075
 30
0.0
 10
171.2924490806858
 20
100.921928202713
 30
0.0
 10
171.0648661674452
 20
101.0819435269345
 30
0.0
  0
SPLINE
  5
D7
330
1F
100
AcDbEntity
  8
0
  6
HIDDEN
 62
     7
370
     0
100
AcDbSpline
210
0.0
220
0.0
230
1.0
 70
     8
 71
     3
 72
     9
 73
     5
 74
     0
 42
0.00000001
 43
0.00000001
 40
0.0
 40
0.0
 40
0.0
 40
0.0
 40
0.5371638440121194
 40
1.0
 40
1.0
 40
1.0
 40
1.0
 10
180.071337661052
 20
101.0192188109726
 30
0.0
 10
179.8322509731766
 20
100.8557449907322
 30
0.0
 10
179.3871601679398
 20
100.5514173222512
 30
0.0
 10
178.8786801197336
 20
100.3647530604441
 30
0.0
 10
178.6433371688254
 20
100.278358091049
 30
0.0
  0
SPLINE
  5
D8
330
1F
100
AcDbEntity
  8
0
  6
HIDDEN
 62
     7
370
     0
100
AcDbSpline
210
0.0
220
0.0
230
1.0
 70
     8
 71
     3
 72
     9
 73
     5
 74
     0
 42
0.00000001
 43
0.00000001
 40
0.0
 40
0.0
 40
0.0
 40
0.0
 40
0.3692064615023415
 40
1.0
 40
1.0
 40
1.0
 40
1.0
 10
177.5932299026793
 20
99.93753343509034
 30
0.0
 10
177.3547816541634
 20
99.87486424453226
 30
0.0
 10
176.7089417965793
 20
99.70512401218885
 30
0.0
 10
176.0378175234425
 20
99.68548947561182
 30
0.0
 10
175.6144766684189
 20
99.67310413680762
 30
0.0
  0
SPLINE
  5
D9
330
1F
100
AcDbEntity
  8
0
  6
HIDDEN
 62
     7
370
     0
100
AcDbSpline
210
0.0
220
0.0
230
1.0
 70
     8
 71
     3
 72
    12
 73
     8
 74
     0
 42
0.00000001
 43
0.00000001
 40
0.0
 40
0.0
 40
0.0
 40
0.0
 40
0.3580587489782401
 40
0.4856318002530411
 40
0.6173138142256267
 40
0.7531498424031751
 40
0.9999999999999999
 40
0.9999999999999999
 40
0.9999999999999999
 40
0.9999999999999999
 10
175.6144766684192
 20
100.5763737451235
 30
0.0
 10
176.0533271102386
 20
100.5988555711125
 30
0.0
 10
176.6485359431766
 20
100.6293474656945
 30
0.0
 10
177.3836054760877
 20
100.7983982466578
 30
0.0
 10
177.8444622887839
 20
100.9360134428031
 30
0.0
 10
178.4333900043475
 20
101.1502232438318
 30
0.0
 10
178.8368431649596
 20
101.3795654345133
 30
0.0
 10
179.0970889746654
 20
101.5275016757935
 30
0.0
  0
SPLINE
  5
DA
330
1F
100
AcDbEntity
  8
0
  6
HIDDEN
 62
     7
370
     0
100
AcDbSpline
210
0.0
220
0.0
230
1.0
 70
     8
 71
     3
 72
    16
 73
    12
 74
     0
 42
0.00000001
 43
0.00000001
 40
0.0
 40
0.0
 40
0.0
 40
0.0
 40
0.042830655194394
 40
0.1207697279295973
 40
0.3185712554861908
 40
0.4983556089742128
 40
0.6780322674507014
 40
0.7419956941611996
 40
0.8079942433802367
 40
0.876050629847993
 40
1.0
 40
1.0
 40
1.0
 40
1.0
 10
179.0852765407085
 20
113.6467783841996
 30
0.0
 10
178.9963507779812
 20
113.699407579252
 30
0.0
 10
178.7456065359947
 20
113.8478062796406
 30
0.0
 10
178.0418207361413
 20
114.1644057855551
 30
0.0
 10
176.9769595970952
 20
114.4904348328532
 30
0.0
 10
175.6152940291048
 20
114.6176243803193
 30
0.0
 10
174.580403108164
 20
114.5199037905638
 30
0.0
 10
173.8452138665524
 20
114.3548596700399
 30
0.0
 10
173.3846324753406
 20
114.2166307416954
 30
0.0
 10
172.7956176447384
 20
114.0025874265494
 30
0.0
 10
172.3918945655837
 20
113.7732734725641
 30
0.0
 10
172.1312710183629
 20
113.6252397851167
 30
0.0
  0
SPLINE
  5
DB
330
1F
100
AcDbEntity
  8
0
  6
HIDDEN
 62
     7
370
     0
100
AcDbSpline
210
0.0
220
0.0
230
1.0
 70
     8
 71
     3
 72
    11
 73
     7
 74
     0
 42
0.00000001
 43
0.00000001
 40
0.0
 40
0.0
 40
0.0
 40
0.0
 40
0.0851756350089886
 40
0.2422952175851124
 40
0.6395942588593322
 40
1.0
 40
1.0
 40
1.0
 40
1.0
 10
172.1439186020424
 20
101.5058534576894
 30
0.0
 10
172.2320367769646
 20
101.4536345650234
 30
0.0
 10
172.4827025027171
 20
101.3050898789845
 30
0.0
 10
173.1869427056048
 20
100.9896685418256
 30
0.0
 10
174.2527613569004
 20
100.6494889936147
 30
0.0
 10
175.1755486682516
 20
100.599941321643
 30
0.0
 10
175.6144766684192
 20
100.5763737451235
 30
0.0
  0
LINE
  5
DC
330
1F
100
AcDbEntity
  8
0
  6
HIDDEN
 62
     7
370
     0
100
AcDbLine
 10
108.109626873
 20
84.0517741223
 30
0.0
 11
107.8607620542
 21
84.0285111558
 31
0.0
  0
LINE
  5
DD
330
1F
100
AcDbEntity
  8
0
  6
HIDDEN
 62
     7
370
     0
100
AcDbLine
 10
107.7282012931
 20
131.1364600733
 30
0.0
 11
108.1095341527
 21
131.1009567751
 31
0.0
  0
SPLINE
  5
DE
330
1F
100
AcDbEntity
  8
0
  6
HIDDEN
 62
     7
370
     0
100
AcDbSpline
210
0.0
220
0.0
230
1.0
 70
     8
 71
     3
 72
    22
 73
    18
 74
     0
 42
0.00000001
 43
0.00000001
 40
0.0
 40
0.0
 40
0.0
 40
0.0
 40
0.069470503305567
 40
0.1409377255045835
 40
0.210413548914841
 40
0.2819466223559928
 40
0.3506518733998513
 40
0.4213897814436845
 40
0.4894670043894698
 40
0.5594810940348494
 40
0.6282706827033766
 40
0.6989997382187428
 40
0.7687375408512302
 40
0.8405098102584779
 40
0.9099666189318144
 40
0.9814998892127903
 40
1.0
 40
1.0
 40
1.0
 40
1.0
 10
113.8694786700208
 20
87.73884526930709
 30
0.0
 10
113.7213048155614
 20
87.7585716091164
 30
0.0
 10
113.4206982986503
 20
87.79859126253719
 30
0.0
 10
112.8858034359695
 20
87.85396492606705
 30
0.0
 10
112.3001648833008
 20
87.89842131119485
 30
0.0
 10
111.6859322237274
 20
87.92610628664701
 30
0.0
 10
111.0520155783592
 20
87.93435954011689
 30
0.0
 10
110.4298668777874
 20
87.9223794852364
 30
0.0
 10
109.8238694079267
 20
87.89162873147545
 30
0.0
 10
109.2593804868002
 20
87.84616276072524
 30
0.0
 10
108.7400042492186
 20
87.79008160892565
 30
0.0
 10
108.2871387515371
 20
87.73009144660726
 30
0.0
 10
107.9084236078715
 20
87.67211153224832
 30
0.0
 10
107.6203384867963
 20
87.62319272410183
 30
0.0
 10
107.4378805902437
 20
87.59015736157608
 30
0.0
 10
107.3572226389097
 20
87.57501756532044
 30
0.0
 10
107.3715125176085
 20
87.57768951869343
 30
0.0
 10
107.3744488100806
 20
87.57823855320522
 30
0.0
  0
SPLINE
  5
DF
330
1F
100
AcDbEntity
  8
0
  6
HIDDEN
 62
     7
370
     0
100
AcDbSpline
210
0.0
220
0.0
230
1.0
 70
     8
 71
     3
 72
    22
 73
    18
 74
     0
 42
0.00000001
 43
0.00000001
 40
0.0
 40
0.0
 40
0.0
 40
0.0
 40
0.0499040281125884
 40
0.1203075863893544
 40
0.1885125365560131
 40
0.258644416829719
 40
0.3277839407293157
 40
0.3988873214655099
 40
0.4686969488930336
 40
0.5405663748364754
 40
0.609708789122301
 40
0.6809159691092499
 40
0.7490773369981711
 40
0.8192056085539694
 40
0.8876078379088254
 40
0.9579332867310426
 40
1.0
 40
1.0
 40
1.0
 40
1.0
 10
107.3744488100806
 20
127.5745089370419
 30
0.0
 10
107.3756997441061
 20
127.5742699066462
 30
0.0
 10
107.3787154696704
 20
127.5736936571715
 30
0.0
 10
107.5036087967239
 20
127.550495622348
 30
0.0
 10
107.7280906246014
 20
127.5108155860303
 30
0.0
 10
108.047118786779
 20
127.4586041646311
 30
0.0
 10
108.4546540177756
 20
127.3992743529589
 30
0.0
 10
108.9364405716086
 20
127.3397995764429
 30
0.0
 10
109.4868602534038
 20
127.2861932200809
 30
0.0
 10
110.0797551393521
 20
127.2457193016066
 30
0.0
 10
110.7067077096693
 20
127.2225200532403
 30
0.0
 10
111.3349186834973
 20
127.2195419500254
 30
0.0
 10
111.9591787759743
 20
127.2366762757247
 30
0.0
 10
112.5517970658026
 20
127.2713621314147
 30
0.0
 10
113.1086231493308
 20
127.3203184950785
 30
0.0
 10
113.5464299939636
 20
127.3702186597017
 30
0.0
 10
113.7814967007366
 20
127.4020050486934
 30
0.0
 10
113.8694786700208
 20
127.41390222094
 30
0.0
  0
SPLINE
  5
E0
330
1F
100
AcDbEntity
  8
0
  6
HIDDEN
 62
     7
370
     0
100
AcDbSpline
210
0.0
220
0.0
230
1.0
 70
     8
 71
     3
 72
    12
 73
     8
 74
     0
 42
0.00000001
 43
0.00000001
 40
0.0
 40
0.0
 40
0.0
 40
0.0
 40
0.2208188216103116
 40
0.4480900742980286
 40
0.6689432733876343
 40
0.8961371317007352
 40
1.0
 40
1.0
 40
1.0
 40
1.0
 10
113.8694786700208
 20
127.41390222094
 30
0.0
 10
114.0015218855133
 20
127.4309593087919
 30
0.0
 10
114.2694666821078
 20
127.465571900722
 30
0.0
 10
114.5646226609432
 20
127.4925438379471
 30
0.0
 10
114.76571538284
 20
127.5080535963572
 30
0.0
 10
114.8630472852142
 20
127.514162849884
 30
0.0
 10
114.8543886158137
 20
127.5136175926421
 30
0.0
 10
114.8516721199165
 20
127.5134465283605
 30
0.0
  0
SPLINE
  5
E1
330
1F
100
AcDbEntity
  8
0
  6
HIDDEN
 62
     7
370
     0
100
AcDbSpline
210
0.0
220
0.0
230
1.0
 70
     8
 71
     3
 72
    12
 73
     8
 74
     0
 42
0.00000001
 43
0.00000001
 40
0.0
 40
0.0
 40
0.0
 40
0.0
 40
0.1180999897765186
 40
0.3464923168730383
 40
0.5687549525518864
 40
0.7975156872931217
 40
1.0
 40
1.0
 40
1.0
 40
1.0
 10
114.8516720262528
 20
87.63930096785599
 30
0.0
 10
114.8537946821228
 20
87.63916694453626
 30
0.0
 10
114.8600223198365
 20
87.63877373492923
 30
0.0
 10
114.7553576558356
 20
87.64539698455226
 30
0.0
 10
114.545384038808
 20
87.66180136386708
 30
0.0
 10
114.2499255666127
 20
87.68940307560008
 30
0.0
 10
113.9910361253343
 20
87.72304788127217
 30
0.0
 10
113.8694786700208
 20
87.73884526930709
 30
0.0
  0
LINE
  5
E2
330
1F
100
AcDbEntity
  8
0
  6
HIDDEN
 62
     7
370
     0
100
AcDbLine
 10
101.1184512646
 20
90.5763737451
 30
0.0
 11
101.1184512646
 21
124.5763737451
 31
0.0
  0
LWPOLYLINE
  5
E3
330
1F
100
AcDbEntity
  8
0
  6
HIDDEN
 62
     7
370
     0
100
AcDbPolyline
 90
       15
 70
   128
 43
0.0
 10
128.1144766684
 20
129.5219761598
 10
128.8714816459
 20
129.5581187652
 10
129.6011264911
 20
129.6652402937
 10
130.2770399382
 20
129.8394690941
 10
130.8747927143
 20
130.0745080836
 10
131.3727804766
 20
130.3618623406
 10
131.7530046498
 20
130.6911461338
 10
132.0017229417
 20
131.0504582887
 10
132.1099460252
 20
131.4268123281
 10
132.0737624359
 20
131.8066058363
 10
131.8944799433
 20
132.1761120864
 10
131.5785782836
 20
132.5219761598
 10
131.1374749658
 20
132.8316976277
 10
130.5871126133
 20
133.0940823492
 10
130.4838322802
 20
133.1333539852
  0
LWPOLYLINE
  5
E4
330
1F
100
AcDbEntity
  8
0
  6
HIDDEN
 62
     7
370
     0
100
AcDbPolyline
 90
       15
 70
   128
 43
0.0
 10
125.7223918635
 20
133.1249367243
 10
125.6418407235
 20
133.0940823492
 10
125.091478371
 20
132.8316976277
 10
124.6503750533
 20
132.5219761598
 10
124.3344733936
 20
132.1761120864
 10
124.1551909009
 20
131.8066058363
 10
124.1190073117
 20
131.4268123281
 10
124.2272303951
 20
131.0504582887
 10
124.475948687
 20
130.6911461338
 10
124.8561728602
 20
130.3618623406
 10
125.3541606225
 20
130.0745080836
 10
125.9519133986
 20
129.8394690941
 10
126.6278268458
 20
129.6652402937
 10
127.357471691
 20
129.5581187652
 10
128.1144766684
 20
129.5219761598
  0
SPLINE
  5
E5
330
1F
100
AcDbEntity
  8
0
  6
HIDDEN
 62
     7
370
     0
100
AcDbSpline
210
0.0
220
0.0
230
1.0
 70
     8
 71
     3
 72
     8
 73
     4
 74
     0
 42
0.00000001
 43
0.00000001
 40
0.0
 40
0.0
 40
0.0
 40
0.0
 40
0.0011559732291308
 40
0.0011559732291308
 40
0.0011559732291308
 40
0.0011559732291308
 10
88.21447666841918
 20
109.5762143637562
 30
0.0
 10
88.54781124348649
 20
109.5722470839569
 30
0.0
 10
88.88114243451324
 20
109.5680672013804
 30
0.0
 10
89.21447666841917
 20
109.5635020479726
 30
0.0
  0
SPLINE
  5
E6
330
1F
100
AcDbEntity
  8
0
  6
HIDDEN
 62
     7
370
     0
100
AcDbSpline
210
0.0
220
0.0
230
1.0
 70
     8
 71
     3
 72
    11
 73
     7
 74
     0
 42
0.00000001
 43
0.00000001
 40
0.0
 40
0.0
 40
0.0
 40
0.0
 40
0.0005782382535738
 40
0.0005782382535738
 40
0.0005782382535738
 40
0.0011564766069467
 40
0.0011564766069467
 40
0.0011564766069467
 40
0.0011564766069467
 10
89.21447666841917
 20
105.5796734429053
 30
0.0
 10
89.04782271445055
 20
105.5792358651437
 30
0.0
 10
88.88116204224858
 20
105.5787558004713
 30
0.0
 10
88.71449515358317
 20
105.5782362611019
 30
0.0
 10
88.54782823518711
 20
105.5777167216399
 30
0.0
 10
88.38115510535388
 20
105.577157892618
 30
0.0
 10
88.21447666841917
 20
105.5765723490349
 30
0.0
  0
LINE
  5
E7
330
1F
100
AcDbEntity
  8
0
  6
HIDDEN
 62
     7
370
     0
100
AcDbLine
 10
127.774302637
 20
90.5763737451
 30
0.0
 11
127.774302637
 21
124.5763737451
 31
0.0
  0
LINE
  5
E8
330
1F
100
AcDbEntity
  8
0
  6
HIDDEN
 62
     7
370
     0
100
AcDbLine
 10
130.0644766684
 20
91.8513737451
 30
0.0
 11
130.0644766684
 21
123.3013737436
 31
0.0
  0
SPLINE
  5
E9
330
1F
100
AcDbEntity
  8
0
  6
HIDDEN
 62
     7
370
     0
100
AcDbSpline
210
0.0
220
0.0
230
1.0
 70
     8
 71
     3
 72
    16
 73
    12
 74
     0
 42
0.00000001
 43
0.00000001
 40
0.0
 40
0.0
 40
0.0
 40
0.0
 40
0.124999999999998
 40
0.124999999999998
 40
0.249999999999996
 40
0.249999999999996
 40
0.4999999999999973
 40
0.4999999999999973
 40
0.7499999999999987
 40
0.7499999999999987
 40
1.0
 40
1.0
 40
1.0
 40
1.0
 10
96.91447666841918
 20
91.77488330909189
 30
0.0
 10
97.00959842308501
 20
91.77488330909189
 30
0.0
 10
97.10292849181309
 20
91.77106747569908
 30
0.0
 10
97.28619025255108
 20
91.75629692296927
 30
0.0
 10
97.3770679681081
 20
91.7451388749937
 30
0.0
 10
97.63386966562783
 20
91.70266760485198
 30
0.0
 10
97.78893703049982
 20
91.66162140764918
 30
0.0
 10
98.04268349205445
 20
91.56647529106729
 30
0.0
 10
98.14355394372231
 20
91.5117125569857
 30
0.0
 10
98.27880035841714
 20
91.40045143308184
 30
0.0
 10
98.31447666841918
 20
91.34328169575315
 30
0.0
 10
98.31447666841918
 20
91.28886012271941
 30
0.0
  0
SPLINE
  5
EA
330
1F
100
AcDbEntity
  8
0
  6
HIDDEN
 62
     7
370
     0
100
AcDbSpline
210
0.0
220
0.0
230
1.0
 70
     8
 71
     3
 72
     8
 73
     4
 74
     0
 42
0.00000001
 43
0.00000001
 40
0.0
 40
0.0
 40
0.0
 40
0.0
 40
1.0
 40
1.0
 40
1.0
 40
1.0
 10
89.51447666842023
 20
93.91968625517413
 30
0.0
 10
89.51447666842213
 20
93.03578911285719
 30
0.0
 10
89.50099604251263
 20
92.32120586779526
 30
0.0
 10
89.49964467432156
 20
91.77488330909189
 30
0.0
  0
SPLINE
  5
EB
330
1F
100
AcDbEntity
  8
0
  6
HIDDEN
 62
     7
370
     0
100
AcDbSpline
210
0.0
220
0.0
230
1.0
 70
     8
 71
     3
 72
    10
 73
     6
 74
     0
 42
0.00000001
 43
0.00000001
 40
0.0
 40
0.0
 40
0.0
 40
0.0
 40
0.5
 40
0.5
 40
1.0
 40
1.0
 40
1.0
 40
1.0
 10
89.21447666841917
 20
94.94459651446945
 30
0.0
 10
89.30586778305833
 20
94.76995772792301
 30
0.0
 10
89.37851961609867
 20
94.59635590177658
 30
0.0
 10
89.48601850791896
 20
94.25274248493535
 30
0.0
 10
89.51447666841467
 20
94.0844166594508
 30
0.0
 10
89.51447666842027
 20
93.91968625523361
 30
0.0
  0
LINE
  5
EC
330
1F
100
AcDbEntity
  8
0
  6
HIDDEN
 62
     7
370
     0
100
AcDbLine
 10
89.2144766684
 20
97.9755469604
 30
0.0
 11
89.2144766684
 21
94.9445965145
 31
0.0
  0
SPLINE
  5
ED
330
1F
100
AcDbEntity
  8
0
  6
HIDDEN
 62
     7
370
     0
100
AcDbSpline
210
0.0
220
0.0
230
1.0
 70
     8
 71
     3
 72
    10
 73
     6
 74
     0
 42
0.00000001
 43
0.00000001
 40
0.0
 40
0.0
 40
0.0
 40
0.0
 40
0.5
 40
0.5
 40
1.0
 40
1.0
 40
1.0
 40
1.0
 10
89.51447666838263
 20
99.34338736948071
 30
0.0
 10
89.51447666838263
 20
99.10140340330874
 30
0.0
 10
89.48632663963643
 20
98.86706097568951
 30
0.0
 10
89.38273672666573
 20
98.41168595595471
 30
0.0
 10
89.30610801790407
 20
98.19008139407258
 30
0.0
 10
89.21447666841918
 20
97.97554696036325
 30
0.0
  0
LINE
  5
EE
330
1F
100
AcDbEntity
  8
0
  6
HIDDEN
 62
     7
370
     0
100
AcDbLine
 10
89.5144766684
 20
111.1810073667
 30
0.0
 11
89.5144766684
 21
99.3433873694
 31
0.0
  0
SPLINE
  5
EF
330
1F
100
AcDbEntity
  8
0
  6
HIDDEN
 62
     7
370
     0
100
AcDbSpline
210
0.0
220
0.0
230
1.0
 70
     8
 71
     3
 72
     8
 73
     4
 74
     0
 42
0.00000001
 43
0.00000001
 40
0.0
 40
0.0
 40
0.0
 40
0.0
 40
1.0
 40
1.0
 40
1.0
 40
1.0
 10
89.21447666841918
 20
117.1833130584027
 30
0.0
 10
89.39550813308617
 20
116.7512055749913
 30
0.0
 10
89.51447666838837
 20
116.297060171415
 30
0.0
 10
89.51447666838266
 20
115.8093601207355
 30
0.0
  0
LINE
  5
F0
330
1F
100
AcDbEntity
  8
0
  6
HIDDEN
 62
     7
370
     0
100
AcDbLine
 10
89.2144766684
 20
120.2165160586
 30
0.0
 11
89.2144766684
 21
117.1833130584
 31
0.0
  0
SPLINE
  5
F1
330
1F
100
AcDbEntity
  8
0
  6
HIDDEN
 62
     7
370
     0
100
AcDbSpline
210
0.0
220
0.0
230
1.0
 70
     8
 71
     3
 72
    10
 73
     6
 74
     0
 42
0.00000001
 43
0.00000001
 40
0.0
 40
0.0
 40
0.0
 40
0.0
 40
0.5
 40
0.5
 40
1.0
 40
1.0
 40
1.0
 40
1.0
 10
89.51447666852431
 20
121.2330612350434
 30
0.0
 10
89.51447666852252
 20
121.0684248894502
 30
0.0
 10
89.48731799809764
 20
120.9012696666638
 30
0.0
 10
89.38155300403815
 20
120.5626466610016
 30
0.0
 10
89.30513821651734
 20
120.3903748848449
 30
0.0
 10
89.2144766684192
 20
120.2165160585945
 30
0.0
  0
SPLINE
  5
F2
330
1F
100
AcDbEntity
  8
0
  6
HIDDEN
 62
     7
370
     0
100
AcDbSpline
210
0.0
220
0.0
230
1.0
 70
     8
 71
     3
 72
    18
 73
    14
 74
     0
 42
0.00000001
 43
0.00000001
 40
0.0
 40
0.0
 40
0.0
 40
0.0
 40
0.2500000000000033
 40
0.2500000000000033
 40
0.3750000000000029
 40
0.3750000000000029
 40
0.5000000000000026
 40
0.5000000000000026
 40
0.6250000000000022
 40
0.6250000000000022
 40
0.7500000000000018
 40
0.7500000000000018
 40
1.0
 40
1.0
 40
1.0
 40
1.0
 10
94.31447666841919
 20
123.8638873675277
 30
0.0
 10
94.31447666841918
 20
123.8094128469755
 30
0.0
 10
94.27956597702699
 20
123.753031787623
 30
0.0
 10
94.17755667569395
 20
123.6689549467695
 30
0.0
 10
94.13592032101583
 20
123.6416212427786
 30
0.0
 10
94.0375145255271
 20
123.5886673271796
 30
0.0
 10
93.97997131382283
 20
123.5627799734624
 30
0.0
 10
93.85267314024986
 20
123.5150024286292
 30
0.0
 10
93.7830858354924
 20
123.4930545104513
 30
0.0
 10
93.63165159033744
 20
123.4536219455386
 30
0.0
 10
93.54896768724349
 20
123.4360656963127
 30
0.0
 10
93.29285622520544
 20
123.3936269308922
 30
0.0
 10
93.10494122131746
 20
123.3778641811552
 30
0.0
 10
92.91447666841918
 20
123.3778641811552
 30
0.0
  0
LINE
  5
F3
330
1F
100
AcDbEntity
  8
0
  6
HIDDEN
 62
     7
370
     0
100
AcDbLine
 10
92.9144766684
 20
123.3778641812
 30
0.0
 11
89.5144766685
 21
123.3778641812
 31
0.0
  0
LINE
  5
F4
330
1F
100
AcDbEntity
  8
0
  6
HIDDEN
 62
     7
370
     0
100
AcDbLine
 10
89.4455076818
 20
91.7748833091
 30
0.0
 11
96.9144766684
 21
91.7748833091
 31
0.0
  0
SPLINE
  5
F5
330
1F
100
AcDbEntity
  8
0
  6
HIDDEN
 62
     7
370
     0
100
AcDbSpline
210
0.0
220
0.0
230
1.0
 70
     8
 71
     3
 72
    22
 73
    18
 74
     0
 42
0.00000001
 43
0.00000001
 40
0.0
 40
0.0
 40
0.0
 40
0.0
 40
0.125
 40
0.125
 40
0.2499999999999999
 40
0.2499999999999999
 40
0.5000000000000003
 40
0.5000000000000003
 40
0.5625000000000004
 40
0.5625000000000004
 40
0.6250000000000006
 40
0.6250000000000006
 40
0.7500000000000004
 40
0.7500000000000004
 40
0.8750000000000002
 40
0.8750000000000002
 40
1.0
 40
1.0
 40
1.0
 40
1.0
 10
89.44550768177707
 20
91.77488330909189
 30
0.0
 10
89.43242528904868
 20
92.02998901923957
 30
0.0
 10
89.41920572560886
 20
92.32314727834347
 30
0.0
 10
89.39675854781476
 20
92.98544774396828
 30
0.0
 10
89.3872800807903
 20
93.35572166457966
 30
0.0
 10
89.3680821198538
 20
94.57827846769345
 30
0.0
 10
89.36919589285067
 20
95.51541739382532
 30
0.0
 10
89.38810668580372
 20
96.8352886233403
 30
0.0
 10
89.39273621366272
 20
97.10679053231661
 30
0.0
 10
89.40321743340866
 20
97.66517536711889
 30
0.0
 10
89.40901269469309
 20
97.9522982230585
 30
0.0
 10
89.42732191559801
 20
98.82488747743021
 30
0.0
 10
89.44135684987839
 20
99.42534315378607
 30
0.0
 10
89.47081402201523
 20
100.6628176462821
 30
0.0
 10
89.48636971299678
 20
101.2998338029256
 30
0.0
 10
89.51016426299368
 20
102.6113224006101
 30
0.0
 10
89.51818331513905
 20
103.2874450122707
 30
0.0
 10
89.51447666841916
 20
103.9717401235554
 30
0.0
  0
LINE
  5
F6
330
1F
100
AcDbEntity
  8
0
  6
HIDDEN
 62
     7
370
     0
100
AcDbLine
 10
89.5144766685
 20
111.1810073667
 30
0.0
 11
89.5144766685
 21
123.3778641812
 31
0.0
  0
SPLINE
  5
F7
330
1F
100
AcDbEntity
  8
0
  6
HIDDEN
 62
     7
370
     0
100
AcDbSpline
210
0.0
220
0.0
230
1.0
 70
     8
 71
     3
 72
    10
 73
     6
 74
     0
 42
0.00000001
 43
0.00000001
 40
0.0
 40
0.0
 40
0.0
 40
0.0
 40
0.5
 40
0.5
 40
1.0
 40
1.0
 40
1.0
 40
1.0
 10
89.51447666841916
 20
103.9717401235404
 30
0.0
 10
89.51447666841898
 20
104.2456552716145
 30
0.0
 10
89.48871743855017
 20
104.5165968503441
 30
0.0
 10
89.38551150581677
 20
105.0522879319462
 30
0.0
 10
89.30817334194235
 20
105.318034735468
 30
0.0
 10
89.21447666841918
 20
105.5796734429053
 30
0.0
  0
SPLINE
  5
F8
330
1F
100
AcDbEntity
  8
0
  6
HIDDEN
 62
     7
370
     0
100
AcDbSpline
210
0.0
220
0.0
230
1.0
 70
     8
 71
     3
 72
    10
 73
     6
 74
     0
 42
0.00000001
 43
0.00000001
 40
0.0
 40
0.0
 40
0.0
 40
0.0
 40
0.5
 40
0.5
 40
1.0
 40
1.0
 40
1.0
 40
1.0
 10
89.21447666841917
 20
109.5635020479726
 30
0.0
 10
89.3077072487703
 20
109.8273958545708
 30
0.0
 10
89.38273686029902
 20
110.0935761636692
 30
0.0
 10
89.48780395827852
 20
110.6318987354879
 30
0.0
 10
89.51447666852313
 20
110.9046468501035
 30
0.0
 10
89.5144766685243
 20
111.1810073666907
 30
0.0
  0
LINE
  5
F9
330
1F
100
AcDbEntity
  8
0
  6
HIDDEN
 62
     7
370
     0
100
AcDbLine
 10
89.2144766684
 20
105.5796734429
 30
0.0
 11
89.2144766684
 21
109.563502048
 31
0.0
  0
LWPOLYLINE
  5
FA
330
1F
100
AcDbEntity
  8
0
  6
HIDDEN
 62
     7
370
     0
100
AcDbPolyline
 90
       21
 70
   128
 43
0.0
 10
151.1144766684
 20
93.5049487995
 10
150.6509511769
 20
93.5568612033
 10
150.23279879
 20
93.7075168671
 10
149.9009511769
 20
93.9421685646
 10
149.687891894
 20
94.237846953
 10
149.6144766684
 20
94.5656089713
 10
149.687891894
 20
94.8933709896
 10
149.9009511769
 20
95.189049378
 10
150.23279879
 20
95.4237010755
 10
150.6509511769
 20
95.5743567392
 10
151.1144766684
 20
95.6262691431
 10
151.57800216
 20
95.5743567392
 10
151.9961545469
 20
95.4237010755
 10
152.32800216
 20
95.189049378
 10
152.5410614429
 20
94.8933709896
 10
152.6144766684
 20
94.5656089713
 10
152.5410614429
 20
94.237846953
 10
152.32800216
 20
93.9421685646
 10
151.9961545469
 20
93.7075168671
 10
151.57800216
 20
93.5568612033
 10
151.1144766684
 20
93.5049487995
  0
SPLINE
  5
FB
330
1F
100
AcDbEntity
  8
0
  6
HIDDEN
 62
     7
370
     0
100
AcDbSpline
210
0.0
220
0.0
230
1.0
 70
     8
 71
     3
 72
    14
 73
    10
 74
     0
 42
0.00000001
 43
0.00000001
 40
0.0
 40
0.0
 40
0.0
 40
0.0
 40
0.25
 40
0.25
 40
0.5
 40
0.5
 40
0.75
 40
0.75
 40
1.0
 40
1.0
 40
1.0
 40
1.0
 10
150.1707211695258
 20
94.43882952502067
 30
0.0
 10
150.2059289509791
 20
94.4718210508505
 30
0.0
 10
150.2364640017357
 20
94.51176092491232
 30
0.0
 10
150.2784521162063
 20
94.60974162603686
 30
0.0
 10
150.2885150417375
 20
94.66624713708794
 30
0.0
 10
150.2802647658617
 20
94.79322798503883
 30
0.0
 10
150.2618783553085
 20
94.86249332470557
 30
0.0
 10
150.2070400178404
 20
95.00488839334828
 30
0.0
 10
150.1713026241655
 20
95.07774159284767
 30
0.0
 10
150.1323601328629
 20
95.15193197743804
 30
0.0
  0
SPLINE
  5
FC
330
1F
100
AcDbEntity
  8
0
  6
HIDDEN
 62
     7
370
     0
100
AcDbSpline
210
0.0
220
0.0
230
1.0
 70
     8
 71
     3
 72
    14
 73
    10
 74
     0
 42
0.00000001
 43
0.00000001
 40
0.0
 40
0.0
 40
0.0
 40
0.0
 40
0.25
 40
0.25
 40
0.5
 40
0.5
 40
0.75
 40
0.75
 40
1.0
 40
1.0
 40
1.0
 40
1.0
 10
150.1323601328628
 20
95.15193197743685
 30
0.0
 10
150.101171280505
 20
95.1155736482831
 30
0.0
 10
150.0714820573245
 20
95.0797030249272
 30
0.0
 10
150.0245444036331
 20
94.9972893108076
 30
0.0
 10
150.0078135485797
 20
94.94835212436428
 30
0.0
 10
150.0173706409385
 20
94.81659412509704
 30
0.0
 10
150.0419188981578
 20
94.73909036062072
 30
0.0
 10
150.100467344697
 20
94.58782514351492
 30
0.0
 10
150.1348040204122
 20
94.51271886318531
 30
0.0
 10
150.1707211695257
 20
94.43882952502024
 30
0.0
  0
SPLINE
  5
FD
330
1F
100
AcDbEntity
  8
0
  6
HIDDEN
 62
     7
370
     0
100
AcDbSpline
210
0.0
220
0.0
230
1.0
 70
     8
 71
     3
 72
    48
 73
    44
 74
     0
 42
0.00000001
 43
0.00000001
 40
-0.0624999999999998
 40
-0.0624999999999998
 40
0.0
 40
0.0
 40
0.0312499999999995
 40
0.0312499999999995
 40
0.0624999999999991
 40
0.0624999999999991
 40
0.1249999999999997
 40
0.1249999999999997
 40
0.1875000000000003
 40
0.1875000000000003
 40
0.2500000000000009
 40
0.2500000000000009
 40
0.3125000000000015
 40
0.3125000000000015
 40
0.3437500000000016
 40
0.3437500000000016
 40
0.3750000000000016
 40
0.3750000000000016
 40
0.4062500000000017
 40
0.4062500000000017
 40
0.4375000000000017
 40
0.4375000000000017
 40
0.5000000000000014
 40
0.5000000000000014
 40
0.5625000000000012
 40
0.5625000000000012
 40
0.6250000000000009
 40
0.6250000000000009
 40
0.6875000000000007
 40
0.6875000000000007
 40
0.7500000000000004
 40
0.7500000000000004
 40
0.8125000000000002
 40
0.8125000000000002
 40
0.8437500000000003
 40
0.8437500000000003
 40
0.8750000000000002
 40
0.8750000000000002
 40
0.9062500000000002
 40
0.9062500000000002
 40
0.9375000000000002
 40
0.9375000000000002
 40
1.0
 40
1.0
 40
1.03125
 40
1.03125
 10
152.2452666457707
 20
94.38937290401358
 30
0.0
 10
152.3673344762878
 20
94.39276422923547
 30
0.0
 10
152.4057968062054
 20
94.40121104518175
 30
0.0
 10
152.4759462819718
 20
94.43348590923597
 30
0.0
 10
152.507963414747
 20
94.45775866670179
 30
0.0
 10
152.5866990016647
 20
94.55458132822307
 30
0.0
 10
152.6164274024855
 20
94.65373096595805
 30
0.0
 10
152.6123156484554
 20
94.90265276772777
 30
0.0
 10
152.57826955579
 20
95.0532542148223
 30
0.0
 10
152.4669033972653
 20
95.36216938535081
 30
0.0
 10
152.3905044736746
 20
95.52092926497666
 30
0.0
 10
152.2273312934104
 20
95.82870051181494
 30
0.0
 10
152.1386918273948
 20
95.9794380447251
 30
0.0
 10
152.0294777266659
 20
96.19736325824762
 30
0.0
 10
151.996556178954
 20
96.27051891794007
 30
0.0
 10
151.9521054659541
 20
96.41005556158585
 30
0.0
 10
151.9408726475301
 20
96.47805619695444
 30
0.0
 10
151.947660445954
 20
96.59798970846558
 30
0.0
 10
151.9654074092396
 20
96.65140844312043
 30
0.0
 10
152.0175579357123
 20
96.73955552144997
 30
0.0
 10
152.0519311001795
 20
96.77567770753431
 30
0.0
 10
152.1638777608776
 20
96.86177705788505
 30
0.0
 10
152.249361738031
 20
96.89087407527938
 30
0.0
 10
152.4075132159315
 20
96.89441267071409
 30
0.0
 10
152.4797580913663
 20
96.8684478172339
 30
0.0
 10
152.5854481477513
 20
96.74675075328659
 30
0.0
 10
152.6159471935095
 20
96.64990199405887
 30
0.0
 10
152.6128908175916
 20
96.40075292359161
 30
0.0
 10
152.5789681671972
 20
96.24781760072489
 30
0.0
 10
152.469002739599
 20
95.93493670455862
 30
0.0
 10
152.3938474742062
 20
95.77398078249938
 30
0.0
 10
152.2350875444598
 20
95.46447832029537
 30
0.0
 10
152.148442823818
 20
95.31159985376455
 30
0.0
 10
152.0399726893723
 20
95.09297623827263
 30
0.0
 10
152.0070231227215
 20
95.02082925248745
 30
0.0
 10
151.9582335829612
 20
94.87848124262563
 30
0.0
 10
151.9436419888375
 20
94.81019259070466
 30
0.0
 10
151.943623752006
 20
94.68511182871535
 30
0.0
 10
151.9583059789652
 20
94.63025027323476
 30
0.0
 10
152.0083183549899
 20
94.53830424978732
 30
0.0
 10
152.0423046610206
 20
94.50198568471492
 30
0.0
 10
152.1566022296131
 20
94.4155125957759
 30
0.0
 10
152.2452666457707
 20
94.38937290401358
 30
0.0
 10
152.3673344762878
 20
94.39276422923547
 30
0.0
  0
SPLINE
  5
FE
330
1F
100
AcDbEntity
  8
0
  6
HIDDEN
 62
     7
370
     0
100
AcDbSpline
210
0.0
220
0.0
230
1.0
 70
     8
 71
     3
 72
     8
 73
     4
 74
     0
 42
0.00000001
 43
0.00000001
 40
0.0
 40
0.0
 40
0.0
 40
0.0
 40
1.0
 40
1.0
 40
1.0
 40
1.0
 10
152.3565107076297
 20
100.9293159551323
 30
0.0
 10
152.3153198614083
 20
100.9652246547286
 30
0.0
 10
152.2697771458817
 20
101.0032603613762
 30
0.0
 10
152.2197026502994
 20
101.0456666203964
 30
0.0
  0
SPLINE
  5
FF
330
1F
100
AcDbEntity
  8
0
  6
HIDDEN
 62
     7
370
     0
100
AcDbSpline
210
0.0
220
0.0
230
1.0
 70
     8
 71
     3
 72
    32
 73
    28
 74
     0
 42
0.00000001
 43
0.00000001
 40
0.0
 40
0.0
 40
0.0
 40
0.0
 40
0.062499999999999
 40
0.062499999999999
 40
0.1249999999999981
 40
0.1249999999999981
 40
0.2499999999999989
 40
0.2499999999999989
 40
0.3124999999999986
 40
0.3124999999999986
 40
0.3749999999999984
 40
0.3749999999999984
 40
0.4999999999999981
 40
0.4999999999999981
 40
0.6249999999999978
 40
0.6249999999999978
 40
0.6874999999999982
 40
0.6874999999999982
 40
0.7499999999999986
 40
0.7499999999999986
 40
0.8124999999999989
 40
0.8124999999999989
 40
0.8749999999999992
 40
0.8749999999999992
 40
0.9374999999999997
 40
0.9374999999999997
 40
1.0
 40
1.0
 40
1.0
 40
1.0
 10
152.2197026502994
 20
101.0456666203964
 30
0.0
 10
152.1175100945955
 20
101.1322097585092
 30
0.0
 10
152.0014359067178
 20
101.2061076578954
 30
0.0
 10
151.7417874302595
 20
101.327063708637
 30
0.0
 10
151.6015024592933
 20
101.3721187897575
 30
0.0
 10
151.1633953508949
 20
101.4547958729607
 30
0.0
 10
150.8486658141584
 20
101.4360595831655
 30
0.0
 10
150.4312804639469
 20
101.3054523446213
 30
0.0
 10
150.2985383601139
 20
101.2444592486904
 30
0.0
 10
150.0650340948764
 20
101.0983214192321
 30
0.0
 10
149.9608588814483
 20
101.0111241854685
 30
0.0
 10
149.7080179234636
 20
100.7283035174176
 30
0.0
 10
149.6145407671325
 20
100.506381008698
 30
0.0
 10
149.6144126375705
 20
100.0804180096803
 30
0.0
 10
149.7059870298401
 20
99.88086861551844
 30
0.0
 10
149.9608470514594
 20
99.63880855971455
 30
0.0
 10
150.0632452972795
 20
99.56905593566547
 30
0.0
 10
150.2978151363544
 20
99.45221837474897
 30
0.0
 10
150.4293425853443
 20
99.4057602418573
 30
0.0
 10
150.7079320118153
 20
99.33933655551924
 30
0.0
 10
150.8571249613864
 20
99.31903043754565
 30
0.0
 10
151.1552393258471
 20
99.30601182381487
 30
0.0
 10
151.3082047064229
 20
99.31318597212227
 30
0.0
 10
151.5991751872914
 20
99.35410632728421
 30
0.0
 10
151.7414836579933
 20
99.38845127973734
 30
0.0
 10
151.9993223020556
 20
99.4813391675149
 30
0.0
 10
152.117509002092
 20
99.54049870264016
 30
0.0
 10
152.2197026502994
 20
99.6114591535515
 30
0.0
  0
SPLINE
  5
100
330
1F
100
AcDbEntity
  8
0
  6
HIDDEN
 62
     7
370
     0
100
AcDbSpline
210
0.0
220
0.0
230
1.0
 70
     8
 71
     3
 72
     8
 73
     4
 74
     0
 42
0.00000001
 43
0.00000001
 40
0.0
 40
0.0
 40
0.0
 40
0.0
 40
1.0
 40
1.0
 40
1.0
 40
1.0
 10
152.2197026502994
 20
99.61145915355151
 30
0.0
 10
152.2697771458817
 20
99.64622950227677
 30
0.0
 10
152.3153198614083
 20
99.68978545220962
 30
0.0
 10
152.3565107076297
 20
99.73990312062749
 30
0.0
  0
SPLINE
  5
101
330
1F
100
AcDbEntity
  8
0
  6
HIDDEN
 62
     7
370
     0
100
AcDbSpline
210
0.0
220
0.0
230
1.0
 70
     8
 71
     3
 72
    12
 73
     8
 74
     0
 42
0.00000001
 43
0.00000001
 40
0.0
 40
0.0
 40
0.0
 40
0.0
 40
0.25
 40
0.25
 40
0.5
 40
0.5
 40
1.0
 40
1.0
 40
1.0
 40
1.0
 10
152.3565107076297
 20
99.73990312062749
 30
0.0
 10
152.4401236061728
 20
99.84163648881587
 30
0.0
 10
152.5040139124688
 20
99.94608432468354
 30
0.0
 10
152.5919991187324
 20
100.161975977723
 30
0.0
 10
152.614338913046
 20
100.2701570141429
 30
0.0
 10
152.6147502776188
 20
100.5866295209639
 30
0.0
 10
152.523746523675
 20
100.7835257801059
 30
0.0
 10
152.3565107076297
 20
100.9293159551323
 30
0.0
  0
SPLINE
  5
102
330
1F
100
AcDbEntity
  8
0
  6
HIDDEN
 62
     7
370
     0
100
AcDbSpline
210
0.0
220
0.0
230
1.0
 70
     8
 71
     3
 72
    10
 73
     6
 74
     0
 42
0.00000001
 43
0.00000001
 40
0.0
 40
0.0
 40
0.0
 40
0.0
 40
0.5
 40
0.5
 40
1.0
 40
1.0
 40
1.0
 40
1.0
 10
150.1323601328629
 20
96.75533280729081
 30
0.0
 10
150.2101108871159
 20
96.70245568565589
 30
0.0
 10
150.2756670363171
 20
96.61756628178082
 30
0.0
 10
150.2929564431294
 20
96.37790757315669
 30
0.0
 10
150.2411672673134
 20
96.23431800892465
 30
0.0
 10
150.1707211695258
 20
96.08766278421281
 30
0.0
  0
SPLINE
  5
103
330
1F
100
AcDbEntity
  8
0
  6
HIDDEN
 62
     7
370
     0
100
AcDbSpline
210
0.0
220
0.0
230
1.0
 70
     8
 71
     3
 72
    14
 73
    10
 74
     0
 42
0.00000001
 43
0.00000001
 40
0.0
 40
0.0
 40
0.0
 40
0.0
 40
0.25
 40
0.25
 40
0.5
 40
0.5
 40
0.75
 40
0.75
 40
1.0
 40
1.0
 40
1.0
 40
1.0
 10
150.1707211695258
 20
96.08766278421321
 30
0.0
 10
150.134737718892
 20
96.12049626469597
 30
0.0
 10
150.1003163122928
 20
96.15221602484206
 30
0.0
 10
150.0417177508665
 20
96.22348372114728
 30
0.0
 10
150.0171960717374
 20
96.26389802461446
 30
0.0
 10
150.0079044919593
 20
96.38076720092471
 30
0.0
 10
150.0246505221578
 20
96.45589820744297
 30
0.0
 10
150.0716462262833
 20
96.60545028835172
 30
0.0
 10
150.1012334086789
 20
96.68091536505555
 30
0.0
 10
150.1323601328628
 20
96.75533280729229
 30
0.0
  0
SPLINE
  5
104
330
1F
100
AcDbEntity
  8
0
  6
HIDDEN
 62
     7
370
     0
100
AcDbSpline
210
0.0
220
0.0
230
1.0
 70
     8
 71
     3
 72
    10
 73
     6
 74
     0
 42
0.00000001
 43
0.00000001
 40
0.0
 40
0.0
 40
0.0
 40
0.0
 40
0.5
 40
0.5
 40
1.0
 40
1.0
 40
1.0
 40
1.0
 10
149.6144766684188
 20
95.83405478866594
 30
0.0
 10
149.6144766684188
 20
95.85705180409246
 30
0.0
 10
149.6155326667252
 20
95.87791188636419
 30
0.0
 10
149.6195946110242
 20
95.91556043329572
 30
0.0
 10
149.6226015039664
 20
95.93235143310743
 30
0.0
 10
149.6265156005906
 20
95.94703337705029
 30
0.0
  0
SPLINE
  5
105
330
1F
100
AcDbEntity
  8
0
  6
HIDDEN
 62
     7
370
     0
100
AcDbSpline
210
0.0
220
0.0
230
1.0
 70
     8
 71
     3
 72
    18
 73
    14
 74
     0
 42
0.00000001
 43
0.00000001
 40
0.0
 40
0.0
 40
0.0
 40
0.0
 40
0.0717322440337879
 40
0.1608051315997265
 40
0.2236374241965394
 40
0.2746248093580583
 40
0.3256431149587056
 40
0.3969999524034551
 40
0.511283909101749
 40
0.6318409452773956
 40
0.7748542124877053
 40
0.9085088591211519
 40
1.0
 40
1.0
 40
1.0
 40
1.0
 10
149.6425218054868
 20
95.97634773891404
 30
0.0
 10
149.6474613116908
 20
95.98770789442874
 30
0.0
 10
149.6585344065851
 20
96.01317442384152
 30
0.0
 10
149.6797972280548
 20
96.0108168391597
 30
0.0
 10
149.6943296615781
 20
95.9871747347468
 30
0.0
 10
149.6990721100198
 20
95.9444783638809
 30
0.0
 10
149.6946605887507
 20
95.88086554588189
 30
0.0
 10
149.6780577271208
 20
95.7795624269871
 30
0.0
 10
149.650861015103
 20
95.64386627390891
 30
0.0
 10
149.6232385845266
 20
95.48248960113662
 30
0.0
 10
149.6108248489379
 20
95.33455550964135
 30
0.0
 10
149.6190584280824
 20
95.23045315836423
 30
0.0
 10
149.6354190492982
 20
95.20396029614714
 30
0.0
 10
149.6420674166386
 20
95.19319455091082
 30
0.0
  0
LWPOLYLINE
  5
106
330
1F
100
AcDbEntity
  8
0
  6
HIDDEN
 62
     7
370
     0
100
AcDbPolyline
 90
        9
 70
   128
 43
0.0
 10
149.6501031683
 20
95.1761069977
 10
149.6790760224
 20
95.1734610402
 10
149.6926826001
 20
95.1982180341
 10
149.6976351716
 20
95.2377865935
 10
149.6943177952
 20
95.2953030911
 10
149.681847254
 20
95.3757170105
 10
149.6561898726
 20
95.5067812204
 10
149.6257461586
 20
95.6845299317
 10
149.6144766684
 20
95.8340547887
  0
ARC
  5
107
330
1F
100
AcDbEntity
  8
0
  6
HIDDEN
 62
     7
370
     0
100
AcDbCircle
 10
136.9734123993
 20
95.6643473419
 30
0.0
 40
13.20409613490428
100
AcDbArc
 50
1.8371833019
 51
4.7394539215
  0
ARC
  5
108
330
1F
100
AcDbEntity
  8
0
  6
HIDDEN
 62
     7
370
     0
100
AcDbCircle
 10
166.3531818708
 20
95.6669410028
 30
0.0
 40
16.22899541403432
100
AcDbArc
 50
181.8185228136
 51
184.3399443332
  0
LINE
  5
109
330
1F
100
AcDbEntity
  8
0
  6
HIDDEN
 62
     7
370
     0
100
AcDbLine
 10
89.3644766684
 20
89.5863737451
 30
0.0
 11
89.3644766684
 21
86.7064359797
 31
0.0
  0
LINE
  5
10A
330
1F
100
AcDbEntity
  8
0
  6
HIDDEN
 62
     7
370
     0
100
AcDbLine
 10
149.1144766684
 20
97.6763737451
 30
0.0
 11
149.1144766684
 21
117.4763737324
 31
0.0
  0
SPLINE
  5
10B
330
1F
100
AcDbEntity
  8
0
  6
HIDDEN
 62
     7
370
     0
100
AcDbSpline
210
0.0
220
0.0
230
1.0
 70
     8
 71
     3
 72
    32
 73
    28
 74
     0
 42
0.00000001
 43
0.00000001
 40
0.0
 40
0.0
 40
0.0
 40
0.0
 40
0.0624999999999984
 40
0.0624999999999984
 40
0.1249999999999969
 40
0.1249999999999969
 40
0.2499999999999966
 40
0.2499999999999966
 40
0.3124999999999969
 40
0.3124999999999969
 40
0.3749999999999973
 40
0.3749999999999973
 40
0.4999999999999983
 40
0.4999999999999983
 40
0.6249999999999993
 40
0.6249999999999993
 40
0.6874999999999994
 40
0.6874999999999994
 40
0.7499999999999996
 40
0.7499999999999996
 40
0.8124999999999997
 40
0.8124999999999997
 40
0.8749999999999998
 40
0.8749999999999998
 40
0.9374999999999999
 40
0.9374999999999999
 40
1.0
 40
1.0
 40
1.0
 40
1.0
 10
152.2197026502994
 20
114.1070808698507
 30
0.0
 10
152.1175100945955
 20
114.0205377317379
 30
0.0
 10
152.0014359067178
 20
113.9466398323517
 30
0.0
 10
151.7417874302595
 20
113.8256837816101
 30
0.0
 10
151.6015024592933
 20
113.7806287004896
 30
0.0
 10
151.1633953508949
 20
113.6979516172863
 30
0.0
 10
150.8486658141584
 20
113.7166879070816
 30
0.0
 10
150.4312804639469
 20
113.8472951456258
 30
0.0
 10
150.2985383601139
 20
113.9082882415567
 30
0.0
 10
150.0650340948764
 20
114.0544260710149
 30
0.0
 10
149.9608588814483
 20
114.1416233047786
 30
0.0
 10
149.7080179234636
 20
114.4244439728295
 30
0.0
 10
149.6145407671325
 20
114.6463664815491
 30
0.0
 10
149.6144126375705
 20
115.0723294805668
 30
0.0
 10
149.7059870298401
 20
115.2718788747287
 30
0.0
 10
149.9608470514594
 20
115.5139389305325
 30
0.0
 10
150.0632452972795
 20
115.5836915545816
 30
0.0
 10
150.2978151363544
 20
115.7005291154981
 30
0.0
 10
150.4293425853443
 20
115.7469872483898
 30
0.0
 10
150.7079320118153
 20
115.8134109347279
 30
0.0
 10
150.8571249613864
 20
115.8337170527014
 30
0.0
 10
151.1552393258471
 20
115.8467356664322
 30
0.0
 10
151.3082047064229
 20
115.8395615181248
 30
0.0
 10
151.5991751872914
 20
115.7986411629629
 30
0.0
 10
151.7414836579933
 20
115.7642962105098
 30
0.0
 10
151.9993223020557
 20
115.6714083227322
 30
0.0
 10
152.117509002092
 20
115.6122487876069
 30
0.0
 10
152.2197026502994
 20
115.5412883366956
 30
0.0
  0
SPLINE
  5
10C
330
1F
100
AcDbEntity
  8
0
  6
HIDDEN
 62
     7
370
     0
100
AcDbSpline
210
0.0
220
0.0
230
1.0
 70
     8
 71
     3
 72
     8
 73
     4
 74
     0
 42
0.00000001
 43
0.00000001
 40
0.0
 40
0.0
 40
0.0
 40
0.0
 40
1.0
 40
1.0
 40
1.0
 40
1.0
 10
152.2197026502994
 20
115.5412883366956
 30
0.0
 10
152.2697771458818
 20
115.5065179879703
 30
0.0
 10
152.3153198614083
 20
115.4629620380374
 30
0.0
 10
152.3565107076297
 20
115.4128443696196
 30
0.0
  0
SPLINE
  5
10D
330
1F
100
AcDbEntity
  8
0
  6
HIDDEN
 62
     7
370
     0
100
AcDbSpline
210
0.0
220
0.0
230
1.0
 70
     8
 71
     3
 72
    12
 73
     8
 74
     0
 42
0.00000001
 43
0.00000001
 40
0.0
 40
0.0
 40
0.0
 40
0.0
 40
0.25
 40
0.25
 40
0.5
 40
0.5
 40
1.0
 40
1.0
 40
1.0
 40
1.0
 10
152.3565107076297
 20
115.4128443696196
 30
0.0
 10
152.4401236061728
 20
115.3111110014312
 30
0.0
 10
152.5040139124688
 20
115.2066631655636
 30
0.0
 10
152.5919991187324
 20
114.9907715125241
 30
0.0
 10
152.614338913046
 20
114.8825904761042
 30
0.0
 10
152.6147502776188
 20
114.5661179692832
 30
0.0
 10
152.523746523675
 20
114.3692217101412
 30
0.0
 10
152.3565107076297
 20
114.2234315351148
 30
0.0
  0
LINE
  5
10E
330
1F
100
AcDbEntity
  8
0
  6
HIDDEN
 62
     7
370
     0
100
AcDbLine
 10
153.1144766684
 20
97.5763737451
 30
0.0
 11
153.1144766684
 21
117.5763737451
 31
0.0
  0
LINE
  5
10F
330
1F
100
AcDbEntity
  8
0
  6
HIDDEN
 62
     7
370
     0
100
AcDbLine
 10
98.3144766684
 20
89.5863737451
 30
0.0
 11
98.3144766684
 21
85.6126362139
 31
0.0
  0
LINE
  5
110
330
1F
100
AcDbEntity
  8
0
  6
HIDDEN
 62
     7
370
     0
100
AcDbLine
 10
89.3644766684
 20
125.5663737451
 30
0.0
 11
89.3644766684
 21
128.4463115105
 31
0.0
  0
LINE
  5
111
330
1F
100
AcDbEntity
  8
0
  6
HIDDEN
 62
     7
370
     0
100
AcDbLine
 10
94.3144766684
 20
125.5663737451
 30
0.0
 11
94.3144766684
 21
129.4204814175
 31
0.0
  0
LINE
  5
112
330
1F
100
AcDbEntity
  8
0
  6
HIDDEN
 62
     7
370
     0
100
AcDbLine
 10
141.9144766684
 20
98.0763737451
 30
0.0
 11
141.9144766684
 21
117.0763737451
 31
0.0
  0
LINE
  5
113
330
1F
100
AcDbEntity
  8
0
  6
HIDDEN
 62
     7
370
     0
100
AcDbLine
 10
138.9144766684
 20
98.0763737451
 30
0.0
 11
138.9144766684
 21
117.0763737451
 31
0.0
  0
LINE
  5
114
330
1F
100
AcDbEntity
  8
0
  6
HIDDEN
 62
     7
370
     0
100
AcDbLine
 10
130.5644766684
 20
99.0763737451
 30
0.0
 11
130.5644766684
 21
116.0763737451
 31
0.0
  0
LINE
  5
115
330
1F
100
AcDbEntity
  8
0
  6
HIDDEN
 62
     7
370
     0
100
AcDbLine
 10
146.0644766684
 20
81.1763737451
 30
0.0
 11
139.9268018661
 21
81.1763737451
 31
0.0
  0
LINE
  5
116
330
1F
100
AcDbEntity
  8
0
  6
HIDDEN
 62
     7
370
     0
100
AcDbLine
 10
136.3021514708
 20
81.1763737451
 30
0.0
 11
133.0644766684
 21
81.1763737451
 31
0.0
  0
LINE
  5
117
330
1F
100
AcDbEntity
  8
0
  6
HIDDEN
 62
     7
370
     0
100
AcDbLine
 10
125.0644766684
 20
76.0922507623
 30
0.0
 11
125.0644766684
 21
81.1763737451
 31
0.0
  0
LINE
  5
118
330
1F
100
AcDbEntity
  8
0
  6
HIDDEN
 62
     7
370
     0
100
AcDbLine
 10
133.0644766684
 20
81.1763737451
 30
0.0
 11
125.0644766684
 21
81.1763737451
 31
0.0
  0
LINE
  5
119
330
1F
100
AcDbEntity
  8
0
  6
HIDDEN
 62
     7
370
     0
100
AcDbLine
 10
136.5987742001
 20
133.9763737451
 30
0.0
 11
133.0644766684
 21
133.9763737451
 31
0.0
  0
LINE
  5
11A
330
1F
100
AcDbEntity
  8
0
  6
HIDDEN
 62
     7
370
     0
100
AcDbLine
 10
133.0644766684
 20
133.9763737451
 30
0.0
 11
125.0644766684
 21
133.9763737451
 31
0.0
  0
LINE
  5
11B
330
1F
100
AcDbEntity
  8
0
  6
HIDDEN
 62
     7
370
     0
100
AcDbLine
 10
146.0644766684
 20
133.9763737451
 30
0.0
 11
139.6301791367
 21
133.9763737451
 31
0.0
  0
SPLINE
  5
11C
330
1F
100
AcDbEntity
  8
0
  6
HIDDEN
 62
     7
370
     0
100
AcDbSpline
210
0.0
220
0.0
230
1.0
 70
     8
 71
     3
 72
    11
 73
     7
 74
     0
 42
0.00000001
 43
0.00000001
 40
0.0
 40
0.0
 40
0.0
 40
0.0
 40
0.0008203708524183
 40
0.0008203708524183
 40
0.0008203708524183
 40
0.0016409967870154
 40
0.0016409967870154
 40
0.0016409967870154
 40
0.0016409967870154
 10
89.36447666841917
 20
91.72434099448083
 30
0.0
 10
89.1733183681205
 20
91.68316196586169
 30
0.0
 10
88.98189129804831
 20
91.64440799363169
 30
0.0
 10
88.79024567452767
 20
91.60804023435315
 30
0.0
 10
88.59854026944721
 20
91.5716611305871
 30
0.0
 10
88.40660131738828
 20
91.53766687981957
 30
0.0
 10
88.21447667031748
 20
91.50601875442835
 30
0.0
  0
ELLIPSE
  5
11D
330
1F
100
AcDbEntity
  8
0
  6
HIDDEN
 62
     7
370
     0
100
AcDbEllipse
 10
83.9720448057
 20
107.5763737451
 30
0.0
 11
20.19992452772426
 21
-1.421085471520200E-14
 31
0.0
210
0.0
220
0.0
230
1.0
 40
0.816496581
 41
1.300566354937166
 42
1.359198697442763
  0
SPLINE
  5
11E
330
1F
100
AcDbEntity
  8
0
  6
HIDDEN
 62
     7
370
     0
100
AcDbSpline
210
0.0
220
0.0
230
1.0
 70
     8
 71
     3
 72
     8
 73
     4
 74
     0
 42
0.00000001
 43
0.00000001
 40
0.0
 40
0.0
 40
0.0
 40
0.0
 40
1.0
 40
1.0
 40
1.0
 40
1.0
 10
152.3565107076297
 20
114.2234315351148
 30
0.0
 10
152.3153198614083
 20
114.1875228355185
 30
0.0
 10
152.2697771458818
 20
114.1494871288709
 30
0.0
 10
152.2197026502994
 20
114.1070808698507
 30
0.0
  0
LINE
  5
11F
330
1F
100
AcDbEntity
  8
0
  6
HIDDEN
 62
     7
370
     0
100
AcDbLine
 10
98.3144766684
 20
89.5863737451
 30
0.0
 11
98.3144766684
 21
91.2888601227
 31
0.0
  0
LINE
  5
120
330
1F
100
AcDbEntity
  8
0
  6
HIDDEN
 62
     7
370
     0
100
AcDbLine
 10
89.3644766684
 20
89.5863737451
 30
0.0
 11
89.3644766684
 21
91.7243409945
 31
0.0
  0
LINE
  5
121
330
1F
100
AcDbEntity
  8
0
  6
HIDDEN
 62
     7
370
     0
100
AcDbLine
 10
89.4455076818
 20
91.7748833091
 30
0.0
 11
89.3644766684
 21
91.7243409945
 31
0.0
  0
LINE
  5
122
330
1F
100
AcDbEntity
  8
0
  6
HIDDEN
 62
     7
370
     0
100
AcDbLine
 10
94.3144766684
 20
125.5663737451
 30
0.0
 11
94.3144766684
 21
123.8638873675
 31
0.0
  0
LINE
  5
123
330
1F
100
AcDbEntity
  8
0
  6
HIDDEN
 62
     7
370
     0
100
AcDbLine
 10
89.3644766684
 20
125.5663737451
 30
0.0
 11
89.3644766684
 21
123.4709981941
 31
0.0
  0
SPLINE
  5
124
330
1F
100
AcDbEntity
  8
0
  6
HIDDEN
 62
     7
370
     0
100
AcDbSpline
210
0.0
220
0.0
230
1.0
 70
     8
 71
     3
 72
     8
 73
     4
 74
     0
 42
0.00000001
 43
0.00000001
 40
0.0
 40
0.0
 40
0.0
 40
0.0
 40
1.0
 40
1.0
 40
1.0
 40
1.0
 10
89.36447666841917
 20
123.4709981941221
 30
0.0
 10
89.41448216626662
 20
123.4399624205893
 30
0.0
 10
89.464482235835
 20
123.4089177762484
 30
0.0
 10
89.51447666852432
 20
123.3778641811552
 30
0.0
  0
SPLINE
  5
125
330
1F
100
AcDbEntity
  8
0
  6
HIDDEN
 62
     7
370
     0
100
AcDbSpline
210
0.0
220
0.0
230
1.0
 70
     8
 71
     3
 72
    20
 73
    16
 74
     0
 42
0.00000001
 43
0.00000001
 40
0.0
 40
0.0
 40
0.0
 40
0.0
 40
0.1118535494849179
 40
0.1773730685924756
 40
0.2489949814854543
 40
0.3297438282836502
 40
0.3985165675539052
 40
0.4997968041482328
 40
0.6137624896888147
 40
0.6789287412071094
 40
0.7494555931726334
 40
0.8296019506449644
 40
0.8980459617257948
 40
0.9994568726596122
 40
1.0
 40
1.0
 40
1.0
 40
1.0
 10
114.8630925540088
 20
83.9764399434699
 30
0.0
 10
114.8198003993884
 20
83.98985838485788
 30
0.0
 10
114.7511493610765
 20
84.01113683454209
 30
0.0
 10
114.3061315405891
 20
84.11440945866985
 30
0.0
 10
113.7795818169278
 20
84.22771088624549
 30
0.0
 10
113.0941542491682
 20
84.35064429144302
 30
0.0
 10
112.2008375047609
 20
84.47267860844865
 30
0.0
 10
111.0874779330486
 20
84.59041498150654
 30
0.0
 10
109.9767036774111
 20
84.60239042022681
 30
0.0
 10
109.0919559597579
 20
84.57533224574829
 30
0.0
 10
108.4247571995914
 20
84.52739976958989
 30
0.0
 10
107.8834935785121
 20
84.47110794142316
 30
0.0
 10
107.4958798598666
 20
84.42601862994537
 30
0.0
 10
107.3019718973913
 20
84.38714994201598
 30
0.0
 10
107.3651646716871
 20
84.39787219490044
 30
0.0
 10
107.3655013108631
 20
84.39792931425335
 30
0.0
  0
LINE
  5
126
330
1F
100
AcDbEntity
  8
0
  6
HIDDEN
 62
     7
370
     0
100
AcDbLine
 10
108.2744885808
 20
84.5087118886
 30
0.0
 11
108.4583338939
 21
84.5269012311
 31
0.0
  0
SPLINE
  5
127
330
1F
100
AcDbEntity
  8
0
  6
HIDDEN
 62
     7
370
     0
100
AcDbSpline
210
0.0
220
0.0
230
1.0
 70
     8
 71
     3
 72
    27
 73
    23
 74
     0
 42
0.00000001
 43
0.00000001
 40
0.0
 40
0.0
 40
0.0
 40
0.0
 40
0.0008085620132743
 40
0.0456910729025998
 40
0.1022727378510186
 40
0.1705508272471735
 40
0.2091424989402973
 40
0.2506697374996056
 40
0.3211155140175551
 40
0.3862092476672336
 40
0.4266883970036038
 40
0.4648196494536864
 40
0.5006239657997564
 40
0.545215729606189
 40
0.6017099851214275
 40
0.6701159591381641
 40
0.7088532888090754
 40
0.750582033877325
 40
0.8222466184915082
 40
0.8877860424923878
 40
0.9472597969153607
 40
1.0
 40
1.0
 40
1.0
 40
1.0
 10
107.3651451180543
 20
130.7547878941692
 30
0.0
 10
107.3649227787054
 20
130.7548358230221
 30
0.0
 10
107.3523585928599
 20
130.757544237064
 30
0.0
 10
107.4014352637902
 20
130.74571219976
 30
0.0
 10
107.5465397395876
 20
130.7222680012209
 30
0.0
 10
107.8195919097248
 20
130.688363852861
 30
0.0
 10
108.1481183900064
 20
130.6547950555702
 30
0.0
 10
108.5408461548084
 20
130.6166117172043
 30
0.0
 10
109.0905741302145
 20
130.5776430445761
 30
0.0
 10
109.7165967753775
 20
130.5581819402002
 30
0.0
 10
110.2597882858098
 20
130.5559962623607
 30
0.0
 10
110.7048571826484
 20
130.5645111435406
 30
0.0
 10
111.1713049791058
 20
130.5842945404663
 30
0.0
 10
111.7085456282447
 20
130.6284569259817
 30
0.0
 10
112.3567590590189
 20
130.7008725459947
 30
0.0
 10
112.9422976890662
 20
130.7817746391769
 30
0.0
 10
113.4232673034006
 20
130.8599406276346
 30
0.0
 10
113.8686822010102
 20
130.9447127667293
 30
0.0
 10
114.3071819166877
 20
131.0384958087048
 30
0.0
 10
114.6462071871495
 20
131.1163995760974
 30
0.0
 10
114.8335482185898
 20
131.1665912397081
 30
0.0
 10
114.8540380058584
 20
131.1732576821142
 30
0.0
 10
114.8636681406982
 20
131.1763908888396
 30
0.0
  0
LINE
  5
128
330
1F
100
AcDbEntity
  8
0
  6
HIDDEN
 62
     7
370
     0
100
AcDbLine
 10
159.5644766684
 20
82.1537240143
 30
0.0
 11
154.5644766684
 21
82.1537240143
 31
0.0
  0
LINE
  5
129
330
1F
100
AcDbEntity
  8
0
  6
HIDDEN
 62
     7
370
     0
100
AcDbLine
 10
157.0644766684
 20
132.9990234759
 30
0.0
 11
159.5644766684
 21
132.9990234759
 31
0.0
  0
LINE
  5
12A
330
1F
100
AcDbEntity
  8
0
  6
HIDDEN
 62
     7
370
     0
100
AcDbLine
 10
154.5644766684
 20
132.9990234759
 30
0.0
 11
157.0644766684
 21
132.9990234759
 31
0.0
  0
LINE
  5
12B
330
1F
100
AcDbEntity
  8
0
  6
HIDDEN
 62
     7
370
     0
100
AcDbLine
 10
157.0644766684
 20
121.5763737451
 30
0.0
 11
159.5644766684
 21
121.5763737451
 31
0.0
  0
LINE
  5
12C
330
1F
100
AcDbEntity
  8
0
  6
HIDDEN
 62
     7
370
     0
100
AcDbLine
 10
154.5644766684
 20
121.5763737451
 30
0.0
 11
157.0644766684
 21
121.5763737451
 31
0.0
  0
LINE
  5
12D
330
1F
100
AcDbEntity
  8
0
  6
HIDDEN
 62
     7
370
     0
100
AcDbLine
 10
159.5644766684
 20
93.5763737451
 30
0.0
 11
154.5644766684
 21
93.5763737451
 31
0.0
  0
SPLINE
  5
12E
330
1F
100
AcDbEntity
  8
0
  6
HIDDEN
 62
     7
370
     0
100
AcDbSpline
210
0.0
220
0.0
230
1.0
 70
     8
 71
     3
 72
    30
 73
    26
 74
     0
 42
0.00000001
 43
0.00000001
 40
-0.0625000000000002
 40
-0.0625000000000002
 40
0.0
 40
0.0
 40
0.1249999999999999
 40
0.1249999999999999
 40
0.2499999999999998
 40
0.2499999999999998
 40
0.3124999999999998
 40
0.3124999999999998
 40
0.3749999999999998
 40
0.3749999999999998
 40
0.4374999999999997
 40
0.4374999999999997
 40
0.4999999999999997
 40
0.4999999999999997
 40
0.6249999999999994
 40
0.6249999999999994
 40
0.7499999999999993
 40
0.7499999999999993
 40
0.8124999999999994
 40
0.8124999999999994
 40
0.8749999999999997
 40
0.8749999999999997
 40
0.9374999999999998
 40
0.9374999999999998
 40
1.0
 40
1.0
 40
1.125
 40
1.125
 10
149.641984600582
 20
119.5596730209914
 30
0.0
 10
149.6175406427824
 20
119.716739536503
 30
0.0
 10
149.6106697071926
 20
119.8095665304236
 30
0.0
 10
149.6229876633901
 20
119.9409986028076
 30
0.0
 10
149.6420762356673
 20
119.9795151581275
 30
0.0
 10
149.6733252848697
 20
119.9859794985993
 30
0.0
 10
149.6845128173694
 20
119.9798571811389
 30
0.0
 10
149.6986060564988
 20
119.9366520898079
 30
0.0
 10
149.699431053576
 20
119.8959543635766
 30
0.0
 10
149.686240661739
 20
119.7947675259326
 30
0.0
 10
149.6746221576673
 20
119.7385192525058
 30
0.0
 10
149.6527719179408
 20
119.6290546075469
 30
0.0
 10
149.642346285158
 20
119.5757237441794
 30
0.0
 10
149.6175604715022
 20
119.4223169418844
 30
0.0
 10
149.6106872800875
 20
119.3300429258037
 30
0.0
 10
149.6229886437232
 20
119.1965065293916
 30
0.0
 10
149.6423426599216
 20
119.1523348660369
 30
0.0
 10
149.6749744166299
 20
119.1408565322102
 30
0.0
 10
149.6866020078548
 20
119.146072559901
 30
0.0
 10
149.699594400973
 20
119.1931812235972
 30
0.0
 10
149.6983746257196
 20
119.2379186548653
 30
0.0
 10
149.6841678829708
 20
119.3402161061958
 30
0.0
 10
149.6730642510929
 20
119.3960757730192
 30
0.0
 10
149.6521514373291
 20
119.5053224860518
 30
0.0
 10
149.641984600582
 20
119.5596730209914
 30
0.0
 10
149.6175406427824
 20
119.716739536503
 30
0.0
  0
SPLINE
  5
12F
330
1F
100
AcDbEntity
  8
0
  6
HIDDEN
 62
     7
370
     0
100
AcDbSpline
210
0.0
220
0.0
230
1.0
 70
     8
 71
     3
 72
    10
 73
     6
 74
     0
 42
0.00000001
 43
0.00000001
 40
0.0
 40
0.0
 40
0.0
 40
0.0
 40
0.5
 40
0.5
 40
1.0
 40
1.0
 40
1.0
 40
1.0
 10
150.1323601328629
 20
118.3974146829561
 30
0.0
 10
150.210110887116
 20
118.450291804591
 30
0.0
 10
150.2756670363172
 20
118.5351812084661
 30
0.0
 10
150.2929564431295
 20
118.7748399170903
 30
0.0
 10
150.2411672673135
 20
118.9184294813226
 30
0.0
 10
150.1707211695258
 20
119.0650847060345
 30
0.0
  0
SPLINE
  5
130
330
1F
100
AcDbEntity
  8
0
  6
HIDDEN
 62
     7
370
     0
100
AcDbSpline
210
0.0
220
0.0
230
1.0
 70
     8
 71
     3
 72
    14
 73
    10
 74
     0
 42
0.00000001
 43
0.00000001
 40
0.0
 40
0.0
 40
0.0
 40
0.0
 40
0.25
 40
0.25
 40
0.5
 40
0.5
 40
0.75
 40
0.75
 40
1.0
 40
1.0
 40
1.0
 40
1.0
 10
150.1707211695258
 20
119.0650847060341
 30
0.0
 10
150.134737718892
 20
119.0322512255513
 30
0.0
 10
150.1003163122927
 20
119.0005314654052
 30
0.0
 10
150.0417177508664
 20
118.9292637691
 30
0.0
 10
150.0171960717372
 20
118.8888494656328
 30
0.0
 10
150.0079044919591
 20
118.7719802893225
 30
0.0
 10
150.0246505221577
 20
118.6968492828041
 30
0.0
 10
150.0716462262833
 20
118.5472972018952
 30
0.0
 10
150.1012334086789
 20
118.4718321251914
 30
0.0
 10
150.1323601328629
 20
118.3974146829546
 30
0.0
  0
SPLINE
  5
131
330
1F
100
AcDbEntity
  8
0
  6
HIDDEN
 62
     7
370
     0
100
AcDbSpline
210
0.0
220
0.0
230
1.0
 70
     8
 71
     3
 72
    14
 73
    10
 74
     0
 42
0.00000001
 43
0.00000001
 40
0.0
 40
0.0
 40
0.0
 40
0.0
 40
0.25
 40
0.25
 40
0.5
 40
0.5
 40
0.75
 40
0.75
 40
1.0
 40
1.0
 40
1.0
 40
1.0
 10
150.1707211695258
 20
120.7139179652263
 30
0.0
 10
150.2059289509791
 20
120.6809264393965
 30
0.0
 10
150.2364640017356
 20
120.6409865653346
 30
0.0
 10
150.2784521162062
 20
120.5430058642101
 30
0.0
 10
150.2885150417373
 20
120.4865003531591
 30
0.0
 10
150.2802647658615
 20
120.3595195052082
 30
0.0
 10
150.2618783553083
 20
120.2902541655415
 30
0.0
 10
150.2070400178403
 20
120.1478590968988
 30
0.0
 10
150.1713026241655
 20
120.0750058973995
 30
0.0
 10
150.1323601328629
 20
120.0008155128092
 30
0.0
  0
SPLINE
  5
132
330
1F
100
AcDbEntity
  8
0
  6
HIDDEN
 62
     7
370
     0
100
AcDbSpline
210
0.0
220
0.0
230
1.0
 70
     8
 71
     3
 72
    14
 73
    10
 74
     0
 42
0.00000001
 43
0.00000001
 40
0.0
 40
0.0
 40
0.0
 40
0.0
 40
0.25
 40
0.25
 40
0.5
 40
0.5
 40
0.75
 40
0.75
 40
1.0
 40
1.0
 40
1.0
 40
1.0
 10
150.1323601328629
 20
120.0008155128104
 30
0.0
 10
150.1011712805051
 20
120.0371738419641
 30
0.0
 10
150.0714820573246
 20
120.07304446532
 30
0.0
 10
150.0245444036333
 20
120.1554581794396
 30
0.0
 10
150.0078135485799
 20
120.204395365883
 30
0.0
 10
150.0173706409387
 20
120.3361533651502
 30
0.0
 10
150.041918898158
 20
120.4136571296264
 30
0.0
 10
150.1004673446971
 20
120.5649223467322
 30
0.0
 10
150.1348040204123
 20
120.6400286270617
 30
0.0
 10
150.1707211695258
 20
120.7139179652268
 30
0.0
  0
LWPOLYLINE
  5
133
330
1F
100
AcDbEntity
  8
0
  6
HIDDEN
 62
     7
370
     0
100
AcDbPolyline
 90
       18
 70
   128
 43
0.0
 10
152.5151993952
 20
120.6837532104
 10
152.269031714
 20
120.9814230643
 10
151.9008336138
 20
121.2075241149
 10
151.4495217046
 20
121.3381586658
 10
150.9627972905
 20
121.3595193293
 10
150.4921045919
 20
121.2693483953
 10
150.0871933609
 20
121.077176459
 10
149.7908605931
 20
120.8033150872
 10
149.6344271094
 20
120.4767099921
 10
149.6344271094
 20
120.1318816209
 10
149.7908605931
 20
119.8052765257
 10
150.0871933609
 20
119.531415154
 10
150.4921045919
 20
119.3392432177
 10
150.9627972905
 20
119.2490722836
 10
151.4495217046
 20
119.2704329472
 10
151.9008336138
 20
119.401067498
 10
152.269031714
 20
119.6271685486
 10
152.5151993952
 20
119.9248384026
  0
SPLINE
  5
134
330
1F
100
AcDbEntity
  8
0
  6
HIDDEN
 62
     7
370
     0
100
AcDbSpline
210
0.0
220
0.0
230
1.0
 70
     8
 71
     3
 72
    44
 73
    40
 74
     0
 42
0.00000001
 43
0.00000001
 40
0.0
 40
0.0
 40
0.0
 40
0.0
 40
0.062500000000002
 40
0.062500000000002
 40
0.1250000000000041
 40
0.1250000000000041
 40
0.1875000000000061
 40
0.1875000000000061
 40
0.2187500000000066
 40
0.2187500000000066
 40
0.2500000000000071
 40
0.2500000000000071
 40
0.3125000000000077
 40
0.3125000000000077
 40
0.3750000000000083
 40
0.3750000000000083
 40
0.4375000000000089
 40
0.4375000000000089
 40
0.5000000000000094
 40
0.5000000000000094
 40
0.5312500000000095
 40
0.5312500000000095
 40
0.5625000000000095
 40
0.5625000000000095
 40
0.6250000000000091
 40
0.6250000000000091
 40
0.6875000000000085
 40
0.6875000000000085
 40
0.750000000000008
 40
0.750000000000008
 40
0.7812500000000069
 40
0.7812500000000069
 40
0.8125000000000057
 40
0.8125000000000057
 40
0.8750000000000038
 40
0.8750000000000038
 40
0.937500000000002
 40
0.937500000000002
 40
1.0
 40
1.0
 40
1.0
 40
1.0
 10
152.515199395192
 20
119.9248384026123
 30
0.0
 10
152.4649551031287
 20
119.7893839820473
 30
0.0
 10
152.4014835597224
 20
119.6552605627438
 30
0.0
 10
152.2609315172281
 20
119.3854152763561
 30
0.0
 10
152.186037690389
 20
119.2551273436115
 30
0.0
 10
152.0478236603182
 20
118.9971360072767
 30
0.0
 10
151.9847198005421
 20
118.8695812197358
 30
0.0
 10
151.944185733931
 20
118.6935165674859
 30
0.0
 10
151.9402678106974
 20
118.6369771948284
 30
0.0
 10
151.9534825522058
 20
118.5367898235432
 30
0.0
 10
151.9703284941961
 20
118.492167648117
 30
0.0
 10
152.0392805482155
 20
118.3782897840016
 30
0.0
 10
152.1079671471795
 20
118.3268860436693
 30
0.0
 10
152.2469680118525
 20
118.2645524549038
 30
0.0
 10
152.3191651621765
 20
118.2532293671543
 30
0.0
 10
152.4497704407236
 20
118.2745216876505
 30
0.0
 10
152.5078628973517
 20
118.3075183950051
 30
0.0
 10
152.5906633483103
 20
118.4254420771623
 30
0.0
 10
152.6144850712533
 20
118.5117162025228
 30
0.0
 10
152.6144724634923
 20
118.6713347492288
 30
0.0
 10
152.6086390683705
 20
118.7304890162241
 30
0.0
 10
152.5862399954061
 20
118.8544189628152
 30
0.0
 10
152.5698833400215
 20
118.9190021421846
 30
0.0
 10
152.5072020459226
 20
119.1201378293794
 30
0.0
 10
152.4486056306377
 20
119.259029127824
 30
0.0
 10
152.3180445951618
 20
119.5311375997071
 30
0.0
 10
152.2462946336323
 20
119.6637562672347
 30
0.0
 10
152.1060083971543
 20
119.9259950948001
 30
0.0
 10
152.0381000686609
 20
120.0526918920876
 30
0.0
 10
151.9694411827055
 20
120.2375771516257
 30
0.0
 10
151.9529788271606
 20
120.2972215653452
 30
0.0
 10
151.9402015778369
 20
120.41094240717
 30
0.0
 10
151.9443362430209
 20
120.462246070324
 30
0.0
 10
151.985787637018
 20
120.5999440614406
 30
0.0
 10
152.0492087476329
 20
120.6640534197498
 30
0.0
 10
152.1866486062156
 20
120.7454516115646
 30
0.0
 10
152.2621898260163
 20
120.7639812902327
 30
0.0
 10
152.4016898928717
 20
120.7578671505817
 30
0.0
 10
152.4649466472535
 20
120.7337781483769
 30
0.0
 10
152.515199395192
 20
120.6837532103505
 30
0.0
  0
SPLINE
  5
135
330
1F
100
AcDbEntity
  8
0
  6
HIDDEN
 62
     7
370
     0
100
AcDbSpline
210
0.0
220
0.0
230
1.0
 70
     8
 71
     3
 72
     8
 73
     4
 74
     0
 42
0.00000001
 43
0.00000001
 40
0.0
 40
0.0
 40
0.0
 40
0.0
 40
0.000159097691435
 40
0.000159097691435
 40
0.000159097691435
 40
0.000159097691435
 10
89.49964467432154
 20
91.77488330909189
 30
0.0
 10
89.45459320492219
 20
91.746904425458
 30
0.0
 10
89.4095371676126
 20
91.71893289577244
 30
0.0
 10
89.36447666841917
 20
91.69096855710909
 30
0.0
  0
SPLINE
  5
136
330
1F
100
AcDbEntity
  8
0
  6
HIDDEN
 62
     7
370
     0
100
AcDbSpline
210
0.0
220
0.0
230
1.0
 70
     8
 71
     3
 72
    11
 73
     7
 74
     0
 42
0.00000001
 43
0.00000001
 40
0.0
 40
0.0
 40
0.0
 40
0.0
 40
0.0008212909311356
 40
0.0008212909311356
 40
0.0008212909311356
 40
0.0016428257242859
 40
0.0016428257242859
 40
0.0016428257242859
 40
0.0016428257242859
 10
89.36447666841917
 20
91.69096855710909
 30
0.0
 10
89.17333164693683
 20
91.6476823682793
 30
0.0
 10
88.98191331126026
 20
91.60674585866526
 30
0.0
 10
88.79026723659914
 20
91.56814408730243
 30
0.0
 10
88.59856415505755
 20
91.52953083348908
 30
0.0
 10
88.40661903177214
 20
91.49325062422736
 30
0.0
 10
88.21447666841914
 20
91.45928371790063
 30
0.0
  0
LINE
  5
137
330
1F
100
AcDbEntity
  8
0
  6
HIDDEN
 62
     7
370
     0
100
AcDbLine
 10
136.2044766684
 20
127.7621568725
 30
0.0
 11
136.2044766684
 21
127.4263737451
 31
0.0
  0
LINE
  5
138
330
1F
100
AcDbEntity
  8
0
  6
HIDDEN
 62
     7
370
     0
100
AcDbLine
 10
140.0244766684
 20
127.7621568725
 30
0.0
 11
140.0244766684
 21
127.4263737451
 31
0.0
  0
LINE
  5
139
330
1F
100
AcDbEntity
  8
0
  6
HIDDEN
 62
     7
370
     0
100
AcDbLine
 10
141.5064094999
 20
132.0350634075
 30
0.0
 11
141.5064094999
 21
127.4263737451
 31
0.0
  0
SPLINE
  5
13A
330
1F
100
AcDbEntity
  8
0
  6
HIDDEN
 62
     7
370
     0
100
AcDbSpline
210
0.0
220
0.0
230
1.0
 70
     8
 71
     3
 72
    12
 73
     8
 74
     0
 42
0.00000001
 43
0.00000001
 40
0.0
 40
0.0
 40
0.0
 40
0.0
 40
0.2499999999999992
 40
0.2499999999999992
 40
0.4999999999999984
 40
0.4999999999999984
 40
1.0
 40
1.0
 40
1.0
 40
1.0
 10
152.515199395192
 20
120.6837532103505
 30
0.0
 10
152.4764548509835
 20
120.6560847395505
 30
0.0
 10
152.4484775341006
 20
120.6172487163846
 30
0.0
 10
152.4136131367312
 20
120.5198071321123
 30
0.0
 10
152.4056897929276
 20
120.4599550023974
 30
0.0
 10
152.4057112905398
 20
120.2588231867272
 30
0.0
 10
152.4374705622885
 20
120.0893124521946
 30
0.0
 10
152.515199395192
 20
119.9248384026123
 30
0.0
  0
SPLINE
  5
13B
330
1F
100
AcDbEntity
  8
0
  6
HIDDEN
 62
     7
370
     0
100
AcDbSpline
210
0.0
220
0.0
230
1.0
 70
     8
 71
     3
 72
     8
 73
     4
 74
     0
 42
0.00000001
 43
0.00000001
 40
0.0000000000000004
 40
0.0000000000000004
 40
0.0000000000000004
 40
0.0000000000000004
 40
0.001156372467817
 40
0.001156372467817
 40
0.001156372467817
 40
0.001156372467817
 10
89.21447666841948
 20
120.2165160585993
 30
0.0
 10
88.88115555322221
 20
120.345575084226
 30
0.0
 10
88.54782287241416
 20
120.4745354203947
 30
0.0
 10
88.21447666841917
 20
120.6034469501676
 30
0.0
  0
SPLINE
  5
13C
330
1F
100
AcDbEntity
  8
0
  6
HIDDEN
 62
     7
370
     0
100
AcDbSpline
210
0.0
220
0.0
230
1.0
 70
     8
 71
     3
 72
    11
 73
     7
 74
     0
 42
0.00000001
 43
0.00000001
 40
0.0
 40
0.0
 40
0.0
 40
0.0
 40
0.000577874610501
 40
0.000577874610501
 40
0.000577874610501
 40
0.001155749485703
 40
0.001155749485703
 40
0.001155749485703
 40
0.001155749485703
 10
88.21447666841918
 20
94.54915188267283
 30
0.0
 10
88.38114354483228
 20
94.61496400945585
 30
0.0
 10
88.54781026439359
 20
94.68082248968341
 30
0.0
 10
88.71447691244222
 20
94.74673006270575
 30
0.0
 10
88.88114363696084
 20
94.8126376659678
 30
0.0
 10
89.04781033138153
 20
94.87859477444981
 30
0.0
 10
89.21447666841918
 20
94.94459651446944
 30
0.0
  0
ARC
  5
13D
330
1F
100
AcDbEntity
  8
0
  6
HIDDEN
 62
     7
370
     0
100
AcDbCircle
 10
166.3531818708
 20
119.4858064874
 30
0.0
 40
16.22899541403355
100
AcDbArc
 50
175.6600556668
 51
178.1814771864
  0
SPLINE
  5
13E
330
1F
100
AcDbEntity
  8
0
  6
HIDDEN
 62
     7
370
     0
100
AcDbSpline
210
0.0
220
0.0
230
1.0
 70
     8
 71
     3
 72
    11
 73
     7
 74
     0
 42
0.00000001
 43
0.00000001
 40
0.0000000000000006
 40
0.0000000000000006
 40
0.0000000000000006
 40
0.0000000000000006
 40
0.000578048606266
 40
0.000578048606266
 40
0.000578048606266
 40
0.001156097351391
 40
0.001156097351391
 40
0.001156097351391
 40
0.001156097351391
 10
88.21447666841918
 20
117.5571882384108
 30
0.0
 10
88.38114652446438
 20
117.4948163770056
 30
0.0
 10
88.54781422854882
 20
117.4324625168142
 30
0.0
 10
88.71448053300246
 20
117.3701429567307
 30
0.0
 10
88.88114687369621
 20
117.3078233830963
 30
0.0
 10
89.04781183032482
 20
117.2455381788757
 30
0.0
 10
89.21447666841918
 20
117.1833130584027
 30
0.0
  0
SPLINE
  5
13F
330
1F
100
AcDbEntity
  8
0
  6
HIDDEN
 62
     7
370
     0
100
AcDbSpline
210
0.0
220
0.0
230
1.0
 70
     8
 71
     3
 72
    11
 73
     7
 74
     0
 42
0.00000001
 43
0.00000001
 40
0.0
 40
0.0
 40
0.0
 40
0.0
 40
0.0005782401583357
 40
0.0005782401583357
 40
0.0005782401583357
 40
0.001156480596064
 40
0.001156480596064
 40
0.001156480596064
 40
0.001156480596064
 10
89.21447666841917
 20
97.97554696036323
 30
0.0
 10
89.04782571807046
 20
97.91212150242416
 30
0.0
 10
88.88116612548788
 20
97.84876597889433
 30
0.0
 10
88.71449907305932
 20
97.78546839467299
 30
0.0
 10
88.54783193649551
 20
97.72217077849838
 30
0.0
 10
88.38115732904936
 20
97.6589309836895
 30
0.0
 10
88.21447666841917
 20
97.59573097718524
 30
0.0
  0
ARC
  5
140
330
1F
100
AcDbEntity
  8
0
  6
HIDDEN
 62
     7
370
     0
100
AcDbCircle
 10
136.9734123992
 20
119.4884001484
 30
0.0
 40
13.20409613502394
100
AcDbArc
 50
355.2605460785
 51
358.1628166981
  0
CIRCLE
  5
141
330
1F
100
AcDbEntity
  8
0
  6
HIDDEN
 62
     7
370
     0
100
AcDbCircle
 10
127.1144766684
 20
107.5763737451
 30
0.0
 40
5.0
  0
LWPOLYLINE
  5
142
330
1F
100
AcDbEntity
  8
0
  6
HIDDEN
 62
     7
370
     0
100
AcDbPolyline
 90
       21
 70
   128
 43
0.0
 10
194.6991618276
 20
95.3697246586
 10
194.6875667474
 20
95.320508089
 10
194.6721144394
 20
95.4178671838
 10
194.6543174832
 20
95.6522717565
 10
194.6359179689
 20
96.0007766543
 10
194.6187169691
 20
96.4292677897
 10
194.6043982375
 20
96.8958014647
 10
194.5943633914
 20
97.3547101129
 10
194.5895947113
 20
97.7610725582
 10
194.590558989
 20
98.0751112134
 10
194.5971618342
 20
98.2660857866
 10
194.6087569144
 20
98.3153023562
 10
194.6242092224
 20
98.2179432614
 10
194.6420061786
 20
97.9835386887
 10
194.6604056929
 20
97.6350337909
 10
194.6776066927
 20
97.2065426555
 10
194.6919254243
 20
96.7400089805
 10
194.7019602704
 20
96.2811003323
 10
194.7067289505
 20
95.874737887
 10
194.7057646728
 20
95.5606992319
 10
194.6991618276
 20
95.3697246586
  0
LWPOLYLINE
  5
143
330
1F
100
AcDbEntity
  8
0
  6
HIDDEN
 62
     7
370
     0
100
AcDbPolyline
 90
       17
 70
   128
 43
0.0
 10
194.1825473106
 20
95.8385710723
 10
194.1724471743
 20
95.8129117888
 10
194.1587085008
 20
95.938140474
 10
194.1434228785
 20
96.1951921958
 10
194.1289174049
 20
96.5449331597
 10
194.1174004068
 20
96.9341184743
 10
194.1106252428
 20
97.3034982036
 10
194.1096233702
 20
97.5968376321
 10
194.114547315
 20
97.769478491
 10
194.1246474513
 20
97.7951377745
 10
194.1383861248
 20
97.6699090893
 10
194.1536717471
 20
97.4128573675
 10
194.1681772207
 20
97.0631164036
 10
194.1796942188
 20
96.6739310889
 10
194.1864693828
 20
96.3045513597
 10
194.1874712554
 20
96.0112119312
 10
194.1825473106
 20
95.8385710723
  0
LWPOLYLINE
  5
144
330
1F
100
AcDbEntity
  8
0
  6
HIDDEN
 62
     7
370
     0
100
AcDbPolyline
 90
       21
 70
   128
 43
0.0
 10
200.0330996315
 20
95.5179137247
 10
200.0215045513
 20
95.4686971551
 10
200.0060522433
 20
95.56605625
 10
199.9882552871
 20
95.8004608227
 10
199.9698557728
 20
96.1489657205
 10
199.952654773
 20
96.5774568558
 10
199.9383360414
 20
97.0439905309
 10
199.9283011953
 20
97.502899179
 10
199.9235325152
 20
97.9092616244
 10
199.9244967929
 20
98.2233002795
 10
199.9310996381
 20
98.4142748527
 10
199.9426947183
 20
98.4634914223
 10
199.9581470263
 20
98.3661323275
 10
199.9759439825
 20
98.1317277548
 10
199.9943434968
 20
97.783222857
 10
200.0115444966
 20
97.3547317217
 10
200.0258632282
 20
96.8881980466
 10
200.0358980743
 20
96.4292893984
 10
200.0406667544
 20
96.0229269531
 10
200.0397024767
 20
95.708888298
 10
200.0330996315
 20
95.5179137247
  0
LWPOLYLINE
  5
145
330
1F
100
AcDbEntity
  8
0
  6
HIDDEN
 62
     7
370
     0
100
AcDbPolyline
 90
       12
 70
   128
 43
0.0
 10
200.179377604
 20
95.7530167669
 10
200.1746964946
 20
95.7561579738
 10
200.1602965467
 20
95.8655751072
 10
200.1439215302
 20
96.1082733537
 10
200.1275465137
 20
96.4549797231
 10
200.1131465659
 20
96.8638763103
 10
200.1024585329
 20
97.2856441522
 10
200.0967715494
 20
97.6694118226
 10
200.0967715494
 20
97.9688912764
 10
200.1024585329
 20
98.1479608719
 10
200.1131465659
 20
98.1850221729
 10
200.1144766684
 20
98.1804672668
  0
LINE
  5
146
330
1F
100
AcDbEntity
  8
0
  6
HIDDEN
 62
     7
370
     0
100
AcDbLine
 10
198.1749083196
 20
96.6913333067
 30
0.0
 11
198.1749083196
 21
96.078960871
 31
0.0
  0
LINE
  5
147
330
1F
100
AcDbEntity
  8
0
  6
HIDDEN
 62
     7
370
     0
100
AcDbLine
 10
200.1733663921
 20
96.7468550706
 30
0.0
 11
200.1733663921
 21
96.1344826349
 31
0.0
  0
LINE
  5
148
330
1F
100
AcDbEntity
  8
0
  6
HIDDEN
 62
     7
370
     0
100
AcDbLine
 10
198.1749083196
 20
96.6913333067
 30
0.0
 11
200.1733663921
 21
96.7468550706
 31
0.0
  0
LINE
  5
149
330
1F
100
AcDbEntity
  8
0
  6
HIDDEN
 62
     7
370
     0
100
AcDbLine
 10
198.1749083196
 20
96.6913333067
 30
0.0
 11
198.1454634578
 21
97.5274407451
 31
0.0
  0
LINE
  5
14A
330
1F
100
AcDbEntity
  8
0
  6
HIDDEN
 62
     7
370
     0
100
AcDbLine
 10
200.1733663921
 20
96.7468550706
 30
0.0
 11
200.1439215302
 21
97.582962509
 31
0.0
  0
LINE
  5
14B
330
1F
100
AcDbEntity
  8
0
  6
HIDDEN
 62
     7
370
     0
100
AcDbLine
 10
198.1454634578
 20
97.5274407451
 30
0.0
 11
200.1439215302
 21
97.582962509
 31
0.0
  0
LINE
  5
14C
330
1F
100
AcDbEntity
  8
0
  6
HIDDEN
 62
     7
370
     0
100
AcDbLine
 10
198.1454634578
 20
97.5274407451
 30
0.0
 11
198.1160185959
 21
97.7511757479
 31
0.0
  0
LINE
  5
14D
330
1F
100
AcDbEntity
  8
0
  6
HIDDEN
 62
     7
370
     0
100
AcDbLine
 10
200.1439215302
 20
97.582962509
 30
0.0
 11
200.1144766684
 21
97.8066975118
 31
0.0
  0
LINE
  5
14E
330
1F
100
AcDbEntity
  8
0
  6
HIDDEN
 62
     7
370
     0
100
AcDbLine
 10
198.1454634578
 20
96.3026958737
 30
0.0
 11
200.1439215302
 21
96.3582176376
 31
0.0
  0
LINE
  5
14F
330
1F
100
AcDbEntity
  8
0
  6
HIDDEN
 62
     7
370
     0
100
AcDbLine
 10
198.1749083196
 20
96.078960871
 30
0.0
 11
200.1733663921
 21
96.1344826349
 31
0.0
  0
LINE
  5
150
330
1F
100
AcDbEntity
  8
0
  6
HIDDEN
 62
     7
370
     0
100
AcDbLine
 10
198.1454634578
 20
96.3026958737
 30
0.0
 11
198.1749083196
 21
96.078960871
 31
0.0
  0
LINE
  5
151
330
1F
100
AcDbEntity
  8
0
  6
HIDDEN
 62
     7
370
     0
100
AcDbLine
 10
200.1439215302
 20
96.3582176376
 30
0.0
 11
200.1733663921
 21
96.1344826349
 31
0.0
  0
LINE
  5
152
330
1F
100
AcDbEntity
  8
0
  6
HIDDEN
 62
     7
370
     0
100
AcDbLine
 10
198.1160185959
 20
97.1388033122
 30
0.0
 11
200.1144766684
 21
97.1943250761
 31
0.0
  0
LINE
  5
153
330
1F
100
AcDbEntity
  8
0
  6
HIDDEN
 62
     7
370
     0
100
AcDbLine
 10
198.1160185959
 20
97.7511757479
 30
0.0
 11
200.1144766684
 21
97.8066975118
 31
0.0
  0
LINE
  5
154
330
1F
100
AcDbEntity
  8
0
  6
HIDDEN
 62
     7
370
     0
100
AcDbLine
 10
198.1160185959
 20
97.1388033122
 30
0.0
 11
198.1160185959
 21
97.7511757479
 31
0.0
  0
LINE
  5
155
330
1F
100
AcDbEntity
  8
0
  6
HIDDEN
 62
     7
370
     0
100
AcDbLine
 10
198.1454634578
 20
96.3026958737
 30
0.0
 11
198.1160185959
 21
97.1388033122
 31
0.0
  0
LINE
  5
156
330
1F
100
AcDbEntity
  8
0
  6
HIDDEN
 62
     7
370
     0
100
AcDbLine
 10
200.1439215302
 20
96.3582176376
 30
0.0
 11
200.1144766684
 21
97.1943250761
 31
0.0
  0
LWPOLYLINE
  5
157
330
1F
100
AcDbEntity
  8
0
  6
HIDDEN
 62
     7
370
     0
100
AcDbPolyline
 90
       14
 70
   128
 43
0.0
 10
200.1144766684
 20
119.3936707024
 10
200.1014068231
 20
119.2888084751
 10
200.0850318066
 20
119.0461102286
 10
200.0686567901
 20
118.6994038592
 10
200.0542568422
 20
118.290507272
 10
200.0435688093
 20
117.8687394301
 10
200.0378818257
 20
117.4849717597
 10
200.0378818257
 20
117.1854923058
 10
200.0435688093
 20
117.0064227104
 10
200.0542568422
 20
116.9693614094
 10
200.0686567901
 20
117.0787785428
 10
200.0850318066
 20
117.3214767893
 10
200.1014068231
 20
117.6681831586
 10
200.1144766684
 20
118.0337587567
  0
LWPOLYLINE
  5
158
330
1F
100
AcDbEntity
  8
0
  6
HIDDEN
 62
     7
370
     0
100
AcDbPolyline
 90
       21
 70
   128
 43
0.0
 10
199.9742099079
 20
118.5758096858
 10
199.9808127531
 20
119.0044479849
 10
199.9817770307
 20
119.3531949848
 10
199.9770083507
 20
119.5879128993
 10
199.9669735046
 20
119.6856259035
 10
199.952654773
 20
119.6367691677
 10
199.9354537732
 20
119.4461251297
 10
199.9170542589
 20
119.1323553563
 10
199.8992573027
 20
118.7261738189
 10
199.8838049947
 20
118.2673403965
 10
199.8722099145
 20
117.8007689013
 10
199.8656070693
 20
117.3721306022
 10
199.8646427916
 20
117.0233836023
 10
199.8694114716
 20
116.7886656879
 10
199.8794463178
 20
116.6909526837
 10
199.8937650493
 20
116.7398094194
 10
199.9109660492
 20
116.9304534574
 10
199.9293655635
 20
117.2442232309
 10
199.9471625197
 20
117.6504047683
 10
199.9626148277
 20
118.1092381907
 10
199.9742099079
 20
118.5758096858
  0
LWPOLYLINE
  5
159
330
1F
100
AcDbEntity
  8
0
  6
HIDDEN
 62
     7
370
     0
100
AcDbPolyline
 90
       21
 70
   128
 43
0.0
 10
194.640272104
 20
118.7239987519
 10
194.6468749492
 20
119.152637051
 10
194.6478392268
 20
119.5013840509
 10
194.6430705468
 20
119.7361019654
 10
194.6330357007
 20
119.8338149696
 10
194.6187169691
 20
119.7849582338
 10
194.6015159693
 20
119.5943141958
 10
194.583116455
 20
119.2805444224
 10
194.5653194988
 20
118.874362885
 10
194.5498671908
 20
118.4155294626
 10
194.5382721106
 20
117.9489579675
 10
194.5316692654
 20
117.5203196683
 10
194.5307049877
 20
117.1715726684
 10
194.5354736677
 20
116.936854754
 10
194.5455085139
 20
116.8391417498
 10
194.5598272455
 20
116.8879984855
 10
194.5770282453
 20
117.0786425235
 10
194.5954277596
 20
117.392412297
 10
194.6132247158
 20
117.7985938344
 10
194.6286770238
 20
118.2574272568
 10
194.640272104
 20
118.7239987519
  0
LWPOLYLINE
  5
15A
330
1F
100
AcDbEntity
  8
0
  6
HIDDEN
 62
     7
370
     0
100
AcDbPolyline
 90
       17
 70
   128
 43
0.0
 10
194.123657587
 20
118.6087057288
 10
194.1285815317
 20
118.9585797398
 10
194.1275796591
 20
119.2158576264
 10
194.1208044951
 20
119.3413711625
 10
194.109287497
 20
119.3160120501
 10
194.0947820234
 20
119.1436409841
 10
194.0794964011
 20
118.8504998968
 10
194.0657577276
 20
118.4812168614
 10
194.0556575914
 20
118.0920118725
 10
194.0507336466
 20
117.7421378615
 10
194.0517355192
 20
117.4848599749
 10
194.0585106832
 20
117.3593464388
 10
194.0700276813
 20
117.3847055512
 10
194.0845331549
 20
117.5570766172
 10
194.0998187772
 20
117.8502177045
 10
194.1135574507
 20
118.2195007399
 10
194.123657587
 20
118.6087057288
  0
LINE
  5
15B
330
1F
100
AcDbEntity
  8
0
  6
HIDDEN
 62
     7
370
     0
100
AcDbLine
 10
200.0850318066
 20
118.7961659446
 30
0.0
 11
200.0555869448
 21
117.9600585062
 31
0.0
  0
LINE
  5
15C
330
1F
100
AcDbEntity
  8
0
  6
HIDDEN
 62
     7
370
     0
100
AcDbLine
 10
200.0555869448
 20
117.3476860705
 30
0.0
 11
200.0555869448
 21
117.9600585062
 31
0.0
  0
LINE
  5
15D
330
1F
100
AcDbEntity
  8
0
  6
HIDDEN
 62
     7
370
     0
100
AcDbLine
 10
200.0850318066
 20
117.5714210732
 30
0.0
 11
200.0555869448
 21
117.3476860705
 31
0.0
  0
LINE
  5
15E
330
1F
100
AcDbEntity
  8
0
  6
HIDDEN
 62
     7
370
     0
100
AcDbLine
 10
200.0850318066
 20
117.5714210732
 30
0.0
 11
200.1144766684
 21
118.4075285117
 31
0.0
  0
LINE
  5
15F
330
1F
100
AcDbEntity
  8
0
  6
HIDDEN
 62
     7
370
     0
100
AcDbLine
 10
200.1144766684
 20
119.0199009474
 30
0.0
 11
200.0850318066
 21
118.7961659446
 31
0.0
  0
LINE
  5
160
330
1F
100
AcDbEntity
  8
0
  6
HIDDEN
 62
     7
370
     0
100
AcDbLine
 10
198.0865737341
 20
117.6269428371
 30
0.0
 11
198.1160185959
 21
118.4630502756
 31
0.0
  0
LINE
  5
161
330
1F
100
AcDbEntity
  8
0
  6
HIDDEN
 62
     7
370
     0
100
AcDbLine
 10
198.0865737341
 20
117.6269428371
 30
0.0
 11
198.0571288723
 21
117.4032078344
 31
0.0
  0
LINE
  5
162
330
1F
100
AcDbEntity
  8
0
  6
HIDDEN
 62
     7
370
     0
100
AcDbLine
 10
198.0571288723
 20
117.4032078344
 30
0.0
 11
198.0571288723
 21
118.0155802701
 31
0.0
  0
LINE
  5
163
330
1F
100
AcDbEntity
  8
0
  6
HIDDEN
 62
     7
370
     0
100
AcDbLine
 10
198.1160185959
 20
119.0754227113
 30
0.0
 11
198.0865737341
 21
118.8516877085
 31
0.0
  0
LINE
  5
164
330
1F
100
AcDbEntity
  8
0
  6
HIDDEN
 62
     7
370
     0
100
AcDbLine
 10
198.1160185959
 20
119.0754227113
 30
0.0
 11
198.1160185959
 21
118.4630502756
 31
0.0
  0
LINE
  5
165
330
1F
100
AcDbEntity
  8
0
  6
HIDDEN
 62
     7
370
     0
100
AcDbLine
 10
198.0865737341
 20
118.8516877085
 30
0.0
 11
198.0571288723
 21
118.0155802701
 31
0.0
  0
LINE
  5
166
330
1F
100
AcDbEntity
  8
0
  6
HIDDEN
 62
     7
370
     0
100
AcDbLine
 10
198.0571288723
 20
118.0155802701
 30
0.0
 11
200.0555869448
 21
117.9600585062
 31
0.0
  0
LINE
  5
167
330
1F
100
AcDbEntity
  8
0
  6
HIDDEN
 62
     7
370
     0
100
AcDbLine
 10
198.0865737341
 20
118.8516877085
 30
0.0
 11
200.0850318066
 21
118.7961659446
 31
0.0
  0
LINE
  5
168
330
1F
100
AcDbEntity
  8
0
  6
HIDDEN
 62
     7
370
     0
100
AcDbLine
 10
198.0865737341
 20
117.6269428371
 30
0.0
 11
200.0850318066
 21
117.5714210732
 31
0.0
  0
LINE
  5
169
330
1F
100
AcDbEntity
  8
0
  6
HIDDEN
 62
     7
370
     0
100
AcDbLine
 10
198.0571288723
 20
117.4032078344
 30
0.0
 11
200.0555869448
 21
117.3476860705
 31
0.0
  0
LINE
  5
16A
330
1F
100
AcDbEntity
  8
0
  6
HIDDEN
 62
     7
370
     0
100
AcDbLine
 10
198.1160185959
 20
118.4630502756
 30
0.0
 11
200.1144766684
 21
118.4075285117
 31
0.0
  0
LINE
  5
16B
330
1F
100
AcDbEntity
  8
0
  6
HIDDEN
 62
     7
370
     0
100
AcDbLine
 10
198.1160185959
 20
119.0754227113
 30
0.0
 11
200.1144766684
 21
119.0199009474
 31
0.0
  0
LINE
  5
16C
330
1F
100
AcDbEntity
  8
0
  6
HIDDEN
 62
     7
370
     0
100
AcDbLine
 10
124.1144766684
 20
121.8742088949
 30
0.0
 11
124.1144766684
 21
119.970314388
 31
0.0
  0
LINE
  5
16D
330
1F
100
AcDbEntity
  8
0
  6
HIDDEN
 62
     7
370
     0
100
AcDbLine
 10
132.1144766684
 20
119.970314388
 30
0.0
 11
132.1144766684
 21
121.8770042509
 31
0.0
  0
LINE
  5
16E
330
1F
100
AcDbEntity
  8
0
  6
HIDDEN
 62
     7
370
     0
100
AcDbLine
 10
120.1144766684
 20
82.2524425991
 30
0.0
 11
120.2086374439
 21
82.9224313304
 31
0.0
  0
LINE
  5
16F
330
1F
100
AcDbEntity
  8
0
  6
HIDDEN
 62
     7
370
     0
100
AcDbLine
 10
120.2086374439
 20
132.2303161599
 30
0.0
 11
120.1144766684
 21
132.9003048911
 31
0.0
  0
ARC
  5
170
330
1F
100
AcDbEntity
  8
0
  6
HIDDEN
 62
     7
370
     0
100
AcDbCircle
 10
119.6144699158
 20
83.0059361307
 30
0.0
 40
0.6000067526677363
100
AcDbArc
 50
352.0
 51
0.0
  0
ARC
  5
171
330
1F
100
AcDbEntity
  8
0
  6
HIDDEN
 62
     7
370
     0
100
AcDbCircle
 10
119.6144699158
 20
83.0059361307
 30
0.0
 40
0.6000067526677242
100
AcDbArc
 50
0.0
 51
33.5571153394
  0
ARC
  5
172
330
1F
100
AcDbEntity
  8
0
  6
HIDDEN
 62
     7
370
     0
100
AcDbCircle
 10
119.6144699158
 20
132.1468113595
 30
0.0
 40
0.6000067526677403
100
AcDbArc
 50
348.75
 51
8.0
  0
LWPOLYLINE
  5
173
330
1F
100
AcDbEntity
  8
0
  6
HIDDEN
 62
     7
370
     0
100
AcDbPolyline
 90
        3
 70
   128
 43
0.0
 10
120.2029477069
 20
132.0297558489
 10
120.1688038739
 20
131.917198716
 10
120.1144766684
 20
131.8151468445
  0
LINE
  5
174
330
1F
100
AcDbEntity
  8
0
  6
HIDDEN
 62
     7
370
     0
100
AcDbLine
 10
120.2144766684
 20
83.0059361307
 30
0.0
 11
120.2144766684
 21
132.1468113595
 31
0.0
  0
LINE
  5
175
330
1F
100
AcDbEntity
  8
0
  6
HIDDEN
 62
     7
370
     0
100
AcDbLine
 10
103.1969122337
 20
87.5763737451
 30
0.0
 11
107.3744488101
 21
87.5763737451
 31
0.0
  0
LINE
  5
176
330
1F
100
AcDbEntity
  8
0
  6
HIDDEN
 62
     7
370
     0
100
AcDbLine
 10
107.3744488101
 20
127.5763737451
 30
0.0
 11
103.1969122337
 21
127.5763737451
 31
0.0
  0
ARC
  5
177
330
1F
100
AcDbEntity
  8
0
  6
HIDDEN
 62
     7
370
     0
100
AcDbCircle
 10
103.1969122337
 20
88.1763737451
 30
0.0
 40
0.6000000000000085
100
AcDbArc
 50
210.0
 51
270.0
  0
ARC
  5
178
330
1F
100
AcDbEntity
  8
0
  6
HIDDEN
 62
     7
370
     0
100
AcDbCircle
 10
103.1969122337
 20
126.9763737451
 30
0.0
 40
0.5999999999999962
100
AcDbArc
 50
90.0
 51
150.0
  0
ARC
  5
179
330
1F
100
AcDbEntity
  8
0
  6
HIDDEN
 62
     7
370
     0
100
AcDbCircle
 10
113.86947867
 20
95.5763737451
 30
0.0
 40
7.999999999999988
100
AcDbArc
 50
277.0480948018
 51
321.3178125465
  0
ARC
  5
17A
330
1F
100
AcDbEntity
  8
0
  6
HIDDEN
 62
     7
370
     0
100
AcDbCircle
 10
113.86947867
 20
119.5763737451
 30
0.0
 40
8.0
100
AcDbArc
 50
38.6821874535
 51
82.9418950986
  0
LINE
  5
17B
330
1F
100
AcDbEntity
  8
0
  6
HIDDEN
 62
     7
370
     0
100
AcDbLine
 10
102.6772969914
 20
127.2763737451
 30
0.0
 11
101.1184512646
 21
124.5763737451
 31
0.0
  0
LINE
  5
17C
330
1F
100
AcDbEntity
  8
0
  6
HIDDEN
 62
     7
370
     0
100
AcDbLine
 10
101.1184512646
 20
90.5763737451
 30
0.0
 11
102.6772969914
 21
87.8763737451
 31
0.0
  0
LINE
  5
17D
330
1F
100
AcDbEntity
  8
0
  6
HIDDEN
 62
     7
370
     0
100
AcDbLine
 10
124.1144766684
 20
134.8507076043
 30
0.0
 11
124.1144766684
 21
131.5219761598
 31
0.0
  0
LINE
  5
17E
330
1F
100
AcDbEntity
  8
0
  6
HIDDEN
 62
     7
370
     0
100
AcDbLine
 10
132.1144766684
 20
131.5219761598
 30
0.0
 11
132.1144766684
 21
134.8560399831
 31
0.0
  0
ARC
  5
17F
330
1F
100
AcDbEntity
  8
0
  6
HIDDEN
 62
     7
370
     0
100
AcDbCircle
 10
128.5644766684
 20
91.8513737451
 30
0.0
 40
1.500000000000016
100
AcDbArc
 50
238.2116693829
 51
0.0
  0
ARC
  5
180
330
1F
100
AcDbEntity
  8
0
  6
HIDDEN
 62
     7
370
     0
100
AcDbCircle
 10
128.5644766684
 20
123.3013737451
 30
0.0
 40
1.500000000000004
100
AcDbArc
 50
0.0
 51
121.7883306171
  0
LINE
  5
181
330
1F
100
AcDbEntity
  8
0
  6
HIDDEN
 62
     7
370
     0
100
AcDbLine
 10
98.3144766684
 20
90.5763737451
 30
0.0
 11
101.1184512646
 21
90.5763737451
 31
0.0
  0
LINE
  5
182
330
1F
100
AcDbEntity
  8
0
  6
HIDDEN
 62
     7
370
     0
100
AcDbLine
 10
101.1184512646
 20
124.5763737451
 30
0.0
 11
94.3144766684
 21
124.5763737451
 31
0.0
  0
LINE
  5
183
330
1F
100
AcDbEntity
  8
0
  6
HIDDEN
 62
     7
370
     0
100
AcDbLine
 10
120.1144766684
 20
90.5763737451
 30
0.0
 11
127.774302637
 21
90.5763737451
 31
0.0
  0
LINE
  5
184
330
1F
100
AcDbEntity
  8
0
  6
HIDDEN
 62
     7
370
     0
100
AcDbLine
 10
127.774302637
 20
124.5763737451
 30
0.0
 11
120.1144766684
 21
124.5763737451
 31
0.0
  0
LINE
  5
185
330
1F
100
AcDbEntity
  8
0
  6
HIDDEN
 62
     7
370
     0
100
AcDbLine
 10
152.6144766684
 20
96.5262582411
 30
0.0
 11
152.6144766684
 21
100.374636005
 31
0.0
  0
LINE
  5
186
330
1F
100
AcDbEntity
  8
0
  6
HIDDEN
 62
     7
370
     0
100
AcDbLine
 10
152.6144766684
 20
94.5656089713
 30
0.0
 11
152.6144766684
 21
94.7740620918
 31
0.0
  0
LINE
  5
187
330
1F
100
AcDbEntity
  8
0
  6
HIDDEN
 62
     7
370
     0
100
AcDbLine
 10
149.6144766684
 20
95.3331232711
 30
0.0
 11
149.6144766684
 21
94.5656089713
 31
0.0
  0
LINE
  5
188
330
1F
100
AcDbEntity
  8
0
  6
HIDDEN
 62
     7
370
     0
100
AcDbLine
 10
149.6144766684
 20
100.2941251478
 30
0.0
 11
149.6144766684
 21
95.8340547887
 31
0.0
  0
LINE
  5
189
330
1F
100
AcDbEntity
  8
0
  6
HIDDEN
 62
     7
370
     0
100
AcDbLine
 10
152.3266451994
 20
94.3916337875
 30
0.0
 11
200.1144766684
 21
95.7192897102
 31
0.0
  0
LINE
  5
18A
330
1F
100
AcDbEntity
  8
0
  6
HIDDEN
 62
     7
370
     0
100
AcDbLine
 10
200.1144766684
 20
98.2202543444
 30
0.0
 11
152.3252328868
 21
96.8925591844
 31
0.0
  0
LINE
  5
18B
330
1F
100
AcDbEntity
  8
0
  6
HIDDEN
 62
     7
370
     0
100
AcDbLine
 10
149.6378450514
 20
95.9789784042
 30
0.0
 11
149.4025281348
 21
95.5608774039
 31
0.0
  0
LINE
  5
18C
330
1F
100
AcDbEntity
  8
0
  6
HIDDEN
 62
     7
370
     0
100
AcDbLine
 10
149.4025281348
 20
95.5608774039
 30
0.0
 11
149.6386584059
 21
95.1910056149
 31
0.0
  0
ARC
  5
18D
330
1F
100
AcDbEntity
  8
0
  6
HIDDEN
 62
     7
370
     0
100
AcDbCircle
 10
199.8144766684
 20
97.2763737451
 30
0.0
 40
0.3000000000000114
100
AcDbArc
 50
0.0
 51
90.0
  0
ARC
  5
18E
330
1F
100
AcDbEntity
  8
0
  6
HIDDEN
 62
     7
370
     0
100
AcDbCircle
 10
199.8144766684
 20
117.8763737451
 30
0.0
 40
0.3000000000000114
100
AcDbArc
 50
270.0
 51
0.0
  0
ARC
  5
18F
330
1F
100
AcDbEntity
  8
0
  6
HIDDEN
 62
     7
370
     0
100
AcDbCircle
 10
149.5144766684
 20
97.6763737451
 30
0.0
 40
0.4000000000000057
100
AcDbArc
 50
180.0
 51
270.0
  0
ARC
  5
190
330
1F
100
AcDbEntity
  8
0
  6
HIDDEN
 62
     7
370
     0
100
AcDbCircle
 10
149.5144766684
 20
117.4763737451
 30
0.0
 40
0.4000000000000199
100
AcDbArc
 50
90.0
 51
180.0
  0
LINE
  5
191
330
1F
100
AcDbEntity
  8
0
  6
HIDDEN
 62
     7
370
     0
100
AcDbLine
 10
149.5144766684
 20
97.2763737451
 30
0.0
 11
152.2197026503
 21
97.2763737451
 31
0.0
  0
LINE
  5
192
330
1F
100
AcDbEntity
  8
0
  6
HIDDEN
 62
     7
370
     0
100
AcDbLine
 10
152.2197026503
 20
117.8763737451
 30
0.0
 11
149.5144766684
 21
117.8763737451
 31
0.0
  0
ARC
  5
193
330
1F
100
AcDbEntity
  8
0
  6
HIDDEN
 62
     7
370
     0
100
AcDbCircle
 10
152.2197026503
 20
117.4763737451
 30
0.0
 40
0.4000000000000199
100
AcDbArc
 50
70.0
 51
90.0
  0
LINE
  5
194
330
1F
100
AcDbEntity
  8
0
  6
HIDDEN
 62
     7
370
     0
100
AcDbLine
 10
152.3565107076
 20
97.3004966968
 30
0.0
 11
153.1144766684
 21
97.5763737451
 31
0.0
  0
LINE
  5
195
330
1F
100
AcDbEntity
  8
0
  6
HIDDEN
 62
     7
370
     0
100
AcDbLine
 10
153.1144766684
 20
117.5763737451
 30
0.0
 11
152.3565107076
 21
117.8522507934
 31
0.0
  0
LINE
  5
196
330
1F
100
AcDbEntity
  8
0
  6
HIDDEN
 62
     7
370
     0
100
AcDbLine
 10
153.1144766684
 20
97.5763737451
 30
0.0
 11
199.8144766684
 21
97.5763737451
 31
0.0
  0
LINE
  5
197
330
1F
100
AcDbEntity
  8
0
  6
HIDDEN
 62
     7
370
     0
100
AcDbLine
 10
199.8144766684
 20
117.5763737451
 30
0.0
 11
153.1144766684
 21
117.5763737451
 31
0.0
  0
LINE
  5
198
330
1F
100
AcDbEntity
  8
0
  6
HIDDEN
 62
     7
370
     0
100
AcDbLine
 10
138.9144766684
 20
98.0763737451
 30
0.0
 11
141.9144766684
 21
98.0763737451
 31
0.0
  0
LINE
  5
199
330
1F
100
AcDbEntity
  8
0
  6
HIDDEN
 62
     7
370
     0
100
AcDbLine
 10
141.9144766684
 20
117.0763737451
 30
0.0
 11
138.9144766684
 21
117.0763737451
 31
0.0
  0
LINE
  5
19A
330
1F
100
AcDbEntity
  8
0
  6
HIDDEN
 62
     7
370
     0
100
AcDbLine
 10
130.0644766684
 20
98.5763737451
 30
0.0
 11
130.5644766684
 21
99.0763737451
 31
0.0
  0
LINE
  5
19B
330
1F
100
AcDbEntity
  8
0
  6
HIDDEN
 62
     7
370
     0
100
AcDbLine
 10
130.5644766684
 20
116.0763737451
 30
0.0
 11
130.0644766684
 21
116.5763737451
 31
0.0
  0
LINE
  5
19C
330
1F
100
AcDbEntity
  8
0
  6
HIDDEN
 62
     7
370
     0
100
AcDbLine
 10
130.5644766684
 20
99.0763737451
 30
0.0
 11
138.9144766684
 21
99.0763737451
 31
0.0
  0
LINE
  5
19D
330
1F
100
AcDbEntity
  8
0
  6
HIDDEN
 62
     7
370
     0
100
AcDbLine
 10
138.9144766684
 20
116.0763737451
 30
0.0
 11
130.5644766684
 21
116.0763737451
 31
0.0
  0
LINE
  5
19E
330
1F
100
AcDbEntity
  8
0
  6
HIDDEN
 62
     7
370
     0
100
AcDbLine
 10
125.0644766684
 20
139.0763737451
 30
0.0
 11
125.0644766684
 21
133.9763737451
 31
0.0
  0
ARC
  5
19F
330
1F
100
AcDbEntity
  8
0
  6
HIDDEN
 62
     7
370
     0
100
AcDbCircle
 10
152.2197026503
 20
97.6763737451
 30
0.0
 40
0.4000000000000057
100
AcDbArc
 50
270.0
 51
290.0
  0
LINE
  5
1A0
330
1F
100
AcDbEntity
  8
0
  6
HIDDEN
 62
     7
370
     0
100
AcDbLine
 10
115.2989144989
 20
83.4970024116
 30
0.0
 11
114.8644823494
 21
83.9760684307
 31
0.0
  0
LINE
  5
1A1
330
1F
100
AcDbEntity
  8
0
  6
HIDDEN
 62
     7
370
     0
100
AcDbLine
 10
107.3644790243
 20
84.3977563898
 30
0.0
 11
106.882045281
 21
83.9186904144
 31
0.0
  0
LINE
  5
1A2
330
1F
100
AcDbEntity
  8
0
  6
HIDDEN
 62
     7
370
     0
100
AcDbLine
 10
106.8819233527
 20
131.2340517855
 30
0.0
 11
107.3644741037
 21
130.7549315275
 31
0.0
  0
LINE
  5
1A3
330
1F
100
AcDbEntity
  8
0
  6
HIDDEN
 62
     7
370
     0
100
AcDbLine
 10
114.8644765504
 20
131.1766293052
 30
0.0
 11
115.2990189408
 21
131.6557495558
 31
0.0
  0
LINE
  5
1A4
330
1F
100
AcDbEntity
  8
0
  6
HIDDEN
 62
     7
370
     0
100
AcDbLine
 10
141.9144766684
 20
103.3263737451
 30
0.0
 11
149.1144766684
 21
103.3263737451
 31
0.0
  0
LINE
  5
1A5
330
1F
100
AcDbEntity
  8
0
  6
HIDDEN
 62
     7
370
     0
100
AcDbLine
 10
149.1144766684
 20
111.8263737451
 30
0.0
 11
141.9144766684
 21
111.8263737451
 31
0.0
  0
LINE
  5
1A6
330
1F
100
AcDbEntity
  8
0
  6
HIDDEN
 62
     7
370
     0
100
AcDbLine
 10
114.8644766684
 20
83.9765523324
 30
0.0
 11
114.8644766684
 21
87.6393009191
 31
0.0
  0
LINE
  5
1A7
330
1F
100
AcDbEntity
  8
0
  6
HIDDEN
 62
     7
370
     0
100
AcDbLine
 10
107.3644766684
 20
87.5782359907
 30
0.0
 11
107.3644766684
 21
84.3980796276
 31
0.0
  0
LINE
  5
1A8
330
1F
100
AcDbEntity
  8
0
  6
HIDDEN
 62
     7
370
     0
100
AcDbLine
 10
114.8644766684
 20
127.5134465712
 30
0.0
 11
114.8644766684
 21
131.1763379991
 31
0.0
  0
LINE
  5
1A9
330
1F
100
AcDbEntity
  8
0
  6
HIDDEN
 62
     7
370
     0
100
AcDbLine
 10
107.3644766684
 20
130.7547877483
 30
0.0
 11
107.3644766684
 21
127.5745114995
 31
0.0
  0
LINE
  5
1AA
330
1F
100
AcDbEntity
  8
0
  6
HIDDEN
 62
     7
370
     0
100
AcDbLine
 10
160.5644766684
 20
81.5763737451
 30
0.0
 11
159.5644766684
 21
82.1537240143
 31
0.0
  0
LINE
  5
1AB
330
1F
100
AcDbEntity
  8
0
  6
HIDDEN
 62
     7
370
     0
100
AcDbLine
 10
154.5644766684
 20
82.1537240143
 30
0.0
 11
153.5644766684
 21
81.5763737451
 31
0.0
  0
LINE
  5
1AC
330
1F
100
AcDbEntity
  8
0
  6
HIDDEN
 62
     7
370
     0
100
AcDbLine
 10
153.5644766684
 20
133.5763737451
 30
0.0
 11
154.5644766684
 21
132.9990234759
 31
0.0
  0
LINE
  5
1AD
330
1F
100
AcDbEntity
  8
0
  6
HIDDEN
 62
     7
370
     0
100
AcDbLine
 10
159.5644766684
 20
132.9990234759
 30
0.0
 11
160.5644766684
 21
133.5763737451
 31
0.0
  0
LINE
  5
1AE
330
1F
100
AcDbEntity
  8
0
  6
HIDDEN
 62
     7
370
     0
100
AcDbLine
 10
154.5644766684
 20
132.9990234759
 30
0.0
 11
154.5644766684
 21
121.5763737451
 31
0.0
  0
LINE
  5
1AF
330
1F
100
AcDbEntity
  8
0
  6
HIDDEN
 62
     7
370
     0
100
AcDbLine
 10
159.5644766684
 20
121.5763737451
 30
0.0
 11
159.5644766684
 21
132.9990234759
 31
0.0
  0
LINE
  5
1B0
330
1F
100
AcDbEntity
  8
0
  6
HIDDEN
 62
     7
370
     0
100
AcDbLine
 10
154.5644766684
 20
121.5763737451
 30
0.0
 11
157.0644766684
 21
120.0742221976
 31
0.0
  0
LINE
  5
1B1
330
1F
100
AcDbEntity
  8
0
  6
HIDDEN
 62
     7
370
     0
100
AcDbLine
 10
157.0644766684
 20
120.0742221976
 30
0.0
 11
159.5644766684
 21
121.5763737451
 31
0.0
  0
LINE
  5
1B2
330
1F
100
AcDbEntity
  8
0
  6
HIDDEN
 62
     7
370
     0
100
AcDbLine
 10
159.5644766684
 20
93.5763737451
 30
0.0
 11
157.0644766684
 21
95.0785252927
 31
0.0
  0
LINE
  5
1B3
330
1F
100
AcDbEntity
  8
0
  6
HIDDEN
 62
     7
370
     0
100
AcDbLine
 10
157.0644766684
 20
95.0785252927
 30
0.0
 11
154.5644766684
 21
93.5763737451
 31
0.0
  0
LINE
  5
1B4
330
1F
100
AcDbEntity
  8
0
  6
HIDDEN
 62
     7
370
     0
100
AcDbLine
 10
159.5644766684
 20
82.1537240143
 30
0.0
 11
159.5644766684
 21
93.5763737451
 31
0.0
  0
LINE
  5
1B5
330
1F
100
AcDbEntity
  8
0
  6
HIDDEN
 62
     7
370
     0
100
AcDbLine
 10
154.5644766684
 20
93.5763737451
 30
0.0
 11
154.5644766684
 21
82.1537240143
 31
0.0
  0
LINE
  5
1B6
330
1F
100
AcDbEntity
  8
0
  6
HIDDEN
 62
     7
370
     0
100
AcDbLine
 10
152.6144766684
 20
114.776892954
 30
0.0
 11
152.6144766684
 21
118.6190975615
 31
0.0
  0
LINE
  5
1B7
330
1F
100
AcDbEntity
  8
0
  6
HIDDEN
 62
     7
370
     0
100
AcDbLine
 10
149.6144766684
 20
119.3196829023
 30
0.0
 11
149.6144766684
 21
114.8591666989
 31
0.0
  0
LINE
  5
1B8
330
1F
100
AcDbEntity
  8
0
  6
HIDDEN
 62
     7
370
     0
100
AcDbLine
 10
149.6144766684
 20
120.3042958065
 30
0.0
 11
149.6144766684
 21
119.8193311224
 31
0.0
  0
LINE
  5
1B9
330
1F
100
AcDbEntity
  8
0
  6
HIDDEN
 62
     7
370
     0
100
AcDbLine
 10
152.3256623088
 20
118.2601763755
 30
0.0
 11
200.1144766684
 21
116.9324931458
 31
0.0
  0
LINE
  5
1BA
330
1F
100
AcDbEntity
  8
0
  6
HIDDEN
 62
     7
370
     0
100
AcDbLine
 10
200.1144766684
 20
119.43345778
 30
0.0
 11
152.3253607418
 21
120.7611493879
 31
0.0
  0
LINE
  5
1BB
330
1F
100
AcDbEntity
  8
0
  6
HIDDEN
 62
     7
370
     0
100
AcDbLine
 10
149.6410273539
 20
119.9654525687
 30
0.0
 11
149.4025281348
 21
119.5918700864
 31
0.0
  0
LINE
  5
1BC
330
1F
100
AcDbEntity
  8
0
  6
HIDDEN
 62
     7
370
     0
100
AcDbLine
 10
149.4025281348
 20
119.5918700864
 30
0.0
 11
149.6403973608
 21
119.1692342522
 31
0.0
  0
LINE
  5
1BD
330
1F
100
AcDbEntity
  8
0
  6
HIDDEN
 62
     7
370
     0
100
AcDbLine
 10
194.6053645209
 20
98.3167162149
 30
0.0
 11
194.1200157728
 21
97.8032321098
 31
0.0
  0
LINE
  5
1BE
330
1F
100
AcDbEntity
  8
0
  6
HIDDEN
 62
     7
370
     0
100
AcDbLine
 10
194.1755375202
 20
95.8047746317
 30
0.0
 11
194.688647142
 21
95.3190299977
 31
0.0
  0
LINE
  5
1BF
330
1F
100
AcDbEntity
  8
0
  6
HIDDEN
 62
     7
370
     0
100
AcDbLine
 10
199.9404422568
 20
98.4655157314
 30
0.0
 11
194.6065044529
 21
98.3173266653
 31
0.0
  0
LINE
  5
1C0
330
1F
100
AcDbEntity
  8
0
  6
HIDDEN
 62
     7
370
     0
100
AcDbLine
 10
194.6898192089
 20
95.3184837799
 30
0.0
 11
200.0237570128
 21
95.466672846
 31
0.0
  0
LINE
  5
1C1
330
1F
100
AcDbEntity
  8
0
  6
HIDDEN
 62
     7
370
     0
100
AcDbLine
 10
200.0257110417
 20
95.4684641455
 30
0.0
 11
200.1144766684
 21
95.6328362209
 31
0.0
  0
LINE
  5
1C2
330
1F
100
AcDbEntity
  8
0
  6
HIDDEN
 62
     7
370
     0
100
AcDbLine
 10
200.1117211147
 20
98.1882538295
 30
0.0
 11
199.9424927277
 21
98.4638356862
 31
0.0
  0
LINE
  5
1C3
330
1F
100
AcDbEntity
  8
0
  6
HIDDEN
 62
     7
370
     0
100
AcDbLine
 10
199.883603004
 20
116.6905478961
 30
0.0
 11
200.0528313911
 21
116.9661297528
 31
0.0
  0
LINE
  5
1C4
330
1F
100
AcDbEntity
  8
0
  6
HIDDEN
 62
     7
370
     0
100
AcDbLine
 10
200.1144766684
 20
119.4124980993
 30
0.0
 11
199.9668213181
 21
119.6859194368
 31
0.0
  0
LINE
  5
1C5
330
1F
100
AcDbEntity
  8
0
  6
HIDDEN
 62
     7
370
     0
100
AcDbLine
 10
199.9648672892
 20
119.6877107363
 30
0.0
 11
194.6309294853
 21
119.8358998024
 31
0.0
  0
LINE
  5
1C6
330
1F
100
AcDbEntity
  8
0
  6
HIDDEN
 62
     7
370
     0
100
AcDbLine
 10
194.5476147293
 20
116.837056917
 30
0.0
 11
199.8815525332
 21
116.6888678509
 31
0.0
  0
LINE
  5
1C7
330
1F
100
AcDbEntity
  8
0
  6
HIDDEN
 62
     7
370
     0
100
AcDbLine
 10
194.6297574183
 20
119.8353535846
 30
0.0
 11
194.1166477965
 21
119.3496089506
 31
0.0
  0
LINE
  5
1C8
330
1F
100
AcDbEntity
  8
0
  6
HIDDEN
 62
     7
370
     0
100
AcDbLine
 10
194.0611260491
 20
117.3511514725
 30
0.0
 11
194.5464747972
 21
116.8376673674
 31
0.0
  0
DIMENSION
  5
1C9
330
1F
100
AcDbEntity
  8
VERMASSUNG
100
AcDbDimension
  2
*D1
 10
82.5948942549
 20
76.0763737451
 30
0.0
 11
82.5948942549
 21
107.5763737451
 31
0.0
 70
   160
  1
HSK A %%c<>
 71
     2
 42
-1.0
  3
SLDDIMSTYLE0
100
AcDbAlignedDimension
 13
120.4144766684
 23
139.0763737451
 33
0.0
 14
120.4144766684
 24
76.0763737451
 34
0.0
 50
90.0
100
AcDbRotatedDimension
  0
DIMENSION
  5
1D6
330
1F
100
AcDbEntity
  8
VERMASSUNG
100
AcDbDimension
  2
*D2
 10
200.1144766684
 20
154.7112676056
 30
0.0
 11
144.1644766684
 21
154.7112676056
 31
0.0
 70
   160
 71
     2
 42
-1.0
  3
SLDDIMSTYLE0
100
AcDbAlignedDimension
 13
88.2144766684
 23
127.2670514916
 33
0.0
 14
200.1144766684
 24
126.3022332235
 34
0.0
100
AcDbRotatedDimension
  0
DIMENSION
  5
1E0
330
1F
100
AcDbEntity
  8
VERMASSUNG
100
AcDbDimension
  2
*D3
 10
200.1144766684
 20
148.7112676056
 30
0.0
 11
160.1144766684
 21
148.7112676056
 31
0.0
 70
   160
 71
     2
 42
-1.0
  3
SLDDIMSTYLE0
100
AcDbAlignedDimension
 13
120.1144766684
 23
138.7763737451
 33
0.0
 14
200.1144766684
 24
126.3022332235
 34
0.0
100
AcDbRotatedDimension
  0
DIMENSION
  5
1EA
330
1F
100
AcDbEntity
  8
VERMASSUNG
100
AcDbDimension
  2
*D4
 10
200.1144766684
 20
142.7112676056
 30
0.0
 11
173.0894766684
 21
142.7112676056
 31
0.0
 70
   160
 71
     2
 42
-1.0
  3
SLDDIMSTYLE0
100
AcDbAlignedDimension
 13
146.0644766684
 23
137.4228140689
 33
0.0
 14
200.1144766684
 24
126.3022332235
 34
0.0
100
AcDbRotatedDimension
  0
DIMENSION
  5
1F4
330
1F
100
AcDbEntity
  8
VERMASSUNG
100
AcDbDimension
  2
*D5
 10
209.2067185561
 20
97.5763737451
 30
0.0
 11
209.2067185561
 21
107.5763737451
 31
0.0
 70
   160
  1
%%c<>
 71
     2
 42
-1.0
  3
SLDDIMSTYLE0
100
AcDbAlignedDimension
 13
199.8144766684
 23
117.5763737451
 33
0.0
 14
199.8144766684
 24
97.5763737451
 34
0.0
 50
90.0
100
AcDbRotatedDimension
  0
DIMENSION
  5
1FF
330
1F
100
AcDbEntity
  8
VERMASSUNG
100
AcDbDimension
  2
*D6
 10
215.2067185561
 20
81.5763737451
 30
0.0
 11
215.2067185561
 21
107.5763737451
 31
0.0
 70
   160
  1
%%c<>
 71
     2
 42
-1.0
  3
SLDDIMSTYLE0
100
AcDbAlignedDimension
 13
187.2474351454
 23
133.5763737451
 33
0.0
 14
187.2474351454
 24
81.5763737451
 34
0.0
 50
90.0
100
AcDbRotatedDimension
  0
LINE
  5
20A
330
1F
100
AcDbEntity
  8
VERMASSUNG
  6
CENTERX2
370
     0
100
AcDbLine
 10
85.8412784399
 20
107.5763737451
 30
0.0
 11
202.1080173348
 21
107.5763737451
 31
0.0
  0
OLE2FRAME
  5
20B
330
1F
100
AcDbEntity
  8
0
100
AcDbOle2Frame
 70
     2
  3
Bitmap Image
 10
13.8511154363
 20
38.264191557
 30
0.0
 11
51.6290888628
 21
31.9806341108
 31
0.0
 71
     2
 72
     0
 73
     1
 90
    12928
310
80552BED0767C5B32B40DDAF6807D121434000000000000000006FFBDDFB85D0
310
4940DDAF6807D121434000000000000000006FFBDDFB85D04940416F4BD60AFB
310
3F4000000000000000002BED0767C5B32B40416F4BD60AFB3F40000000000000
310
0000000000000100000000010000010000000100000000000100000000320000
310
D0CF11E0A1B11AE1000000000000000000000000000000003E000300FEFF0900
310
0600000000000000000000000100000001000000000000000010000002000000
310
01000000FEFFFFFF0000000000000000FFFFFFFFFFFFFFFFFFFFFFFFFFFFFFFF
310
FFFFFFFFFFFFFFFFFFFFFFFFFFFFFFFFFFFFFFFFFFFFFFFFFFFFFFFFFFFFFFFF
310
FFFFFFFFFFFFFFFFFFFFFFFFFFFFFFFFFFFFFFFFFFFFFFFFFFFFFFFFFFFFFFFF
310
FFFFFFFFFFFFFFFFFFFFFFFFFFFFFFFFFFFFFFFFFFFFFFFFFFFFFFFFFFFFFFFF
310
FFFFFFFFFFFFFFFFFFFFFFFFFFFFFFFFFFFFFFFFFFFFFFFFFFFFFFFFFFFFFFFF
310
FFFFFFFFFFFFFFFFFFFFFFFFFFFFFFFFFFFFFFFFFFFFFFFFFFFFFFFFFFFFFFFF
310
FFFFFFFFFFFFFFFFFFFFFFFFFFFFFFFFFFFFFFFFFFFFFFFFFFFFFFFFFFFFFFFF
310
FFFFFFFFFFFFFFFFFFFFFFFFFFFFFFFFFFFFFFFFFFFFFFFFFFFFFFFFFFFFFFFF
310
FFFFFFFFFFFFFFFFFFFFFFFFFFFFFFFFFFFFFFFFFFFFFFFFFFFFFFFFFFFFFFFF
310
FFFFFFFFFFFFFFFFFFFFFFFFFFFFFFFFFFFFFFFFFFFFFFFFFFFFFFFFFFFFFFFF
310
FFFFFFFFFFFFFFFFFFFFFFFFFFFFFFFFFFFFFFFFFFFFFFFFFFFFFFFFFFFFFFFF
310
FFFFFFFFFFFFFFFFFFFFFFFFFFFFFFFFFFFFFFFFFFFFFFFFFFFFFFFFFFFFFFFF
310
FFFFFFFFFFFFFFFFFFFFFFFFFFFFFFFFFFFFFFFFFFFFFFFFFFFFFFFFFFFFFFFF
310
FFFFFFFFFFFFFFFFFFFFFFFFFFFFFFFFFFFFFFFFFFFFFFFFFFFFFFFFFFFFFFFF
310
FDFFFFFFFEFFFFFFFEFFFFFFFEFFFFFF05000000060000000700000008000000
310
090000000A0000000B0000000C0000000D0000000E0000000F00000010000000
310
11000000120000001300000014000000150000001600000017000000FEFFFFFF
310
FFFFFFFFFFFFFFFFFFFFFFFFFFFFFFFFFFFFFFFFFFFFFFFFFFFFFFFFFFFFFFFF
310
FFFFFFFFFFFFFFFFFFFFFFFFFFFFFFFFFFFFFFFFFFFFFFFFFFFFFFFFFFFFFFFF
310
FFFFFFFFFFFFFFFFFFFFFFFFFFFFFFFFFFFFFFFFFFFFFFFFFFFFFFFFFFFFFFFF
310
FFFFFFFFFFFFFFFFFFFFFFFFFFFFFFFFFFFFFFFFFFFFFFFFFFFFFFFFFFFFFFFF
310
FFFFFFFFFFFFFFFFFFFFFFFFFFFFFFFFFFFFFFFFFFFFFFFFFFFFFFFFFFFFFFFF
310
FFFFFFFFFFFFFFFFFFFFFFFFFFFFFFFFFFFFFFFFFFFFFFFFFFFFFFFFFFFFFFFF
310
FFFFFFFFFFFFFFFFFFFFFFFFFFFFFFFFFFFFFFFFFFFFFFFFFFFFFFFFFFFFFFFF
310
FFFFFFFFFFFFFFFFFFFFFFFFFFFFFFFFFFFFFFFFFFFFFFFFFFFFFFFFFFFFFFFF
310
FFFFFFFFFFFFFFFFFFFFFFFFFFFFFFFFFFFFFFFFFFFFFFFFFFFFFFFFFFFFFFFF
310
FFFFFFFFFFFFFFFFFFFFFFFFFFFFFFFFFFFFFFFFFFFFFFFFFFFFFFFFFFFFFFFF
310
FFFFFFFFFFFFFFFFFFFFFFFFFFFFFFFFFFFFFFFFFFFFFFFFFFFFFFFFFFFFFFFF
310
FFFFFFFFFFFFFFFFFFFFFFFFFFFFFFFFFFFFFFFFFFFFFFFFFFFFFFFFFFFFFFFF
310
FFFFFFFFFFFFFFFFFFFFFFFFFFFFFFFFFFFFFFFFFFFFFFFFFFFFFFFFFFFFFFFF
310
52006F006F007400200045006E00740072007900000000000000000000000000
310
0000000000000000000000000000000000000000000000000000000000000000
310
16000500FFFFFFFFFFFFFFFF020000000A00030000000000C000000000000046
310
0000000000000000000000002051FE96F9FFCB0103000000C000000000000000
310
01004F006C006500000000000000000000000000000000000000000000000000
310
0000000000000000000000000000000000000000000000000000000000000000
310
0A000200FFFFFFFFFFFFFFFFFFFFFFFF00000000000000000000000000000000
310
0000000000000000000000000000000000000000000000001400000000000000
310
010043006F006D0070004F0062006A0000000000000000000000000000000000
310
0000000000000000000000000000000000000000000000000000000000000000
310
120002010100000003000000FFFFFFFF00000000000000000000000000000000
310
0000000000000000000000000000000000000000010000004D00000000000000
310
01004F006C006500310030004E00610074006900760065000000000000000000
310
0000000000000000000000000000000000000000000000000000000000000000
310
1A000200FFFFFFFFFFFFFFFFFFFFFFFF00000000000000000000000000000000
310
0000000000000000000000000000000000000000040000002426000000000000
310
FEFFFFFF02000000FEFFFFFFFFFFFFFFFFFFFFFFFFFFFFFFFFFFFFFFFFFFFFFF
310
FFFFFFFFFFFFFFFFFFFFFFFFFFFFFFFFFFFFFFFFFFFFFFFFFFFFFFFFFFFFFFFF
310
FFFFFFFFFFFFFFFFFFFFFFFFFFFFFFFFFFFFFFFFFFFFFFFFFFFFFFFFFFFFFFFF
310
FFFFFFFFFFFFFFFFFFFFFFFFFFFFFFFFFFFFFFFFFFFFFFFFFFFFFFFFFFFFFFFF
310
FFFFFFFFFFFFFFFFFFFFFFFFFFFFFFFFFFFFFFFFFFFFFFFFFFFFFFFFFFFFFFFF
310
FFFFFFFFFFFFFFFFFFFFFFFFFFFFFFFFFFFFFFFFFFFFFFFFFFFFFFFFFFFFFFFF
310
FFFFFFFFFFFFFFFFFFFFFFFFFFFFFFFFFFFFFFFFFFFFFFFFFFFFFFFFFFFFFFFF
310
FFFFFFFFFFFFFFFFFFFFFFFFFFFFFFFFFFFFFFFFFFFFFFFFFFFFFFFFFFFFFFFF
310
FFFFFFFFFFFFFFFFFFFFFFFFFFFFFFFFFFFFFFFFFFFFFFFFFFFFFFFFFFFFFFFF
310
FFFFFFFFFFFFFFFFFFFFFFFFFFFFFFFFFFFFFFFFFFFFFFFFFFFFFFFFFFFFFFFF
310
FFFFFFFFFFFFFFFFFFFFFFFFFFFFFFFFFFFFFFFFFFFFFFFFFFFFFFFFFFFFFFFF
310
FFFFFFFFFFFFFFFFFFFFFFFFFFFFFFFFFFFFFFFFFFFFFFFFFFFFFFFFFFFFFFFF
310
FFFFFFFFFFFFFFFFFFFFFFFFFFFFFFFFFFFFFFFFFFFFFFFFFFFFFFFFFFFFFFFF
310
FFFFFFFFFFFFFFFFFFFFFFFFFFFFFFFFFFFFFFFFFFFFFFFFFFFFFFFFFFFFFFFF
310
FFFFFFFFFFFFFFFFFFFFFFFFFFFFFFFFFFFFFFFFFFFFFFFFFFFFFFFFFFFFFFFF
310
FFFFFFFFFFFFFFFFFFFFFFFFFFFFFFFFFFFFFFFFFFFFFFFFFFFFFFFFFFFFFFFF
310
010000020000000000000000000000000000000061007200650064005C003100
310
30002E0030005C0044004C004C005300680061007200650064005C003B004300
310
0100FEFF030A0000FFFFFFFF0A00030000000000C00000000000004607000000
310
5042727573680007000000504272757368000700000050427275736800F439B2
310
71000000000000000000000000004100540049002E004100430045005C004300
310
6F00720065002D005300740061007400690063003B0043003A005C0050007200
310
6F006700720061006D002000460069006C006500730020002800780038003600
310
29005C0043006F006D006D006F006E002000460069006C00650073005C004100
310
750074006F006400650073006B0020005300680061007200650064005C003B00
310
43003A005C00500072006F006700720061006D002000460069006C0065007300
310
5C004E006F0072006D0061006E005C004E0070006D005C00420069006E000000
310
43003A005C00500072006F006700720061006D002000460069006C0065007300
310
5C0053006F006C006900640057006F0072006B007300200043006F0072007000
310
5C0053006F006C006900640057006F0072006B00730020002800320029005C00
310
730065007400750070005C0069003300380036005C0073007700610063007400
310
770069007A002E006500780065000000220043003A005C00500072006F006700
310
20260000424D0E260000000000003E00000028000000B40200006E0000000100
310
01000000000000000000130B0000130B00000200000002000000000000FFFFFF
310
FFFFFFFFFFFFFFFFFFFFFFFFFFFFFFFFFFFFFFFFFFFFFFFFFFFFFFFFFFFFFFFF
310
FFFFFFFFFFFFFFFFFFFFFFFFFFFFFFFFFFFFFFFFFFFFFFFFFFFFFFFFFFFFFFFF
310
FFFFFFFFFFFFFFFFFFFFFFFFFFFFFFFFFFFFFFFFFFFFFFFFF000FFFFFFFFFFFF
310
FFFFFFFFFFFFFFFFFFFFFFFFFFFFFFFFFFFFFFFFFFFFFFFFFFFFFFFFFFFFFFFF
310
FFFFFFFFFFFFFFFFFFFFFFFFFFFFFFFFFFFFFFFFFFFFFFFFFFFFFFFFFFFFFFFF
310
FFFFFFFFFFFFFFFFFFFFFFFFFFFFFFFFF000FFFFFFFFFFFFFFFFFFFFFFFFFFFF
310
FFFFFFFFFFFFFFFFFFFFFFFFFFFFFFFFFFFFFFFFFFFFFFFFFFFFFFFFFFFFFFFF
310
FFFFFFFFFFFFFFFFFFFFFFFFFFFFFFFFFFFFFFFFFFFFFFFFFFFFFFFFFFFFFFFF
310
FFFFFFFFFFFFFFFFF000FFFFFFFFFFFFFFFFFFFFFFFFFFFFFFFFFFFFFFFFFFFF
310
FFFFFFFFFFFFFFFFFFFFFFFFFFFFFFFFFFFFFFFFFFFFFFFFFFFFFFFFFFFFFFFF
310
FFFFFFFFFFFFFFFFFFFFFFFFFFFFFFFFFFFFFFFFFFFFFFFFFFFFFFFFFFFFFFFF
310
F000FFFFFFFFFFFFFFFFFFFFFFFFFFFFFFFFFFFFFFFFFFFFFFFFFFFFFFFFFFFF
310
FFFFFFFFFFFFFFFFFFFFFFFFFFFFFFFFFFFFFFFFFFFFFFFFFFFFFFFFFFFFFFFF
310
FFFFFFFFFFFFFFFFFFFFFFFFFFFFFFFFFFFFFFFFFFFFFFFFF000FFFFFFFFFFFF
310
FFFFFFFFFFFFFFFFFFFFFFFFFFFFFFFFFFFFFFFFFFFFFFFFFFFFFFFFFFFFFFFF
310
FFFFFFFFFFFFFFFFFFFFFFFFFFFFFFFFFFFFFFFFFFFFFFFFFFFFFFFFFFFFFFFF
310
FFFFFFFFFFFFFFFFFFFFFFFFFFFFFFFFF000FFFFFFFFFFFFFFFFFFFFFFFFFFFF
310
FFFFFFFFFFFFFFFFFFFFFFFFFFFFFFFFFFFFFFFFFFFFFFFFFFFFFFFFFFFFFFFF
310
FFFFFFFFFFFFFFFFFFFFFFFFFFFFFFFFFFFFFFFFFFFFFFFFFFFFFFFFFFFFFFFF
310
FFFFFFFFFFFFFFFFF000FFFFFFFFFFFFFFFFFFFFFFFFFFFFFFFFFFFFFFFFFFFF
310
FFFFFFFFFFFFFFFFFFFFFFFFFFFFFFFFFFFFFFFFFFFFFFFFFFFFFFFFFFFFFFFF
310
FFFFFFFFFFFFFFFFFFFFFFFFFFFFFFFFFFFFFFFFFFFFFFFFFFFFFFFFFFFFFFFF
310
F000FFFFFFFFFFFFFFFFFFFFFFFFFFFFFFFFFFFFFFFFFFFFFFFFFFFFFFFFFFFF
310
FFFFFFFFFFFFFFFFFFFFFFFFFFFFFFFFFFFFFFFFFFFFFFFFFFFFFFFFFFFFFFFF
310
FFFFFFFFFFFFFFFFFFFFFFFFFFFFFFFFFFFFFFFFFFFFFFFFF000FFFFFFFFFFFF
310
FFFFFFFFFFFFFFFFFFFFFFFFFFFFFFFFFFFFFFFFFFFFFFFFFFFFFFFFFFFFFFFF
310
FFFFFFFFFFFFFFFFFFFFFFFFFFFFFFFFFFFFFFFFFFFFFFFFFFFFFFFFFFFFFFFF
310
FFFFFFFFFFFFFFFFFFFFFFFFFFFFFFFFF000FFFFFFFFFFFFFFFFFFFFFFFFFFFF
310
FFFFFFFFFFFFFFFFFFFFFFFFFFFFFFFFFFFFFFFFFFFFFFFFFFFFFFFFFFFFFFFF
310
FFFFFFFFFFFFFFFFFFFFFFFFFFFFFFFFFFFFFFFFFFFFFFFFFFFFFFFFFFFFFFFF
310
FFFFFFFFFFFFFFFFF000FFFFFFFFFFFFFFFFFFFFFFFFFFFFFFFFFFFFFFFFFFFF
310
FFFFFFFFFFFFFFFFFFFFFFFFFFFFFFFFFFFFFFFFFFFFFFFFFFFFFFFFFFFFFFFF
310
FFFFFFFFFFFFFFFFFFFFFFFFFFFFFFFFFFFFFFFFFFFFFFFFFFFFFFFFFFFFFFFF
310
F000FFFFFFFFFFFFFFFFFFFFFFFFFFFFFFFFFFFFFFFFFFFFFFFFFFFFFFFFFFFF
310
FFFFFFFFFFFFFFFFFFFFFFFFFFFFFFFFFFFFFFFFFFFFFFFFFFFFFFFFFFFFFFFF
310
FFFFFFFFFFFFFFFFFFFFFFFFFFFFFFFFFFFFFFFFFFFFFFFFF000FFFFFFFFFFFF
310
FFFFFFFFFFFFFFFFFFFFFFFFFFFFFFFFFFFFFFFFFFFFFFFFFFFFFFFFFFFFFFFF
310
FFFFFFFFFFFFFFFFFFFFFFFFFFFFFFFFFFFFFFFFFFFFFFFFFFFFFFFFFFFFFFFF
310
FFFFFFFFFFFFFFFFFFFFFFFFFFFFFFFFF000FFFFFFFFFFFFFFFFFFFFFFFFFFFF
310
FFFFFFFFFFFFFFFFFFFFFFFFFFFFFFFFFFFFFFFFFFFFFFFFFFFFFFFFFFFFFFFF
310
FFFFFFFFFFFFFFFFFFFFFFFFFFFFFFFFFFFFFFFFFFFFFFFFFFFFFFFFFFFFFFFF
310
FFFFFFFFFFFFFFFFF000FFFFFFFFFFFFFFFFFFFFFFFFFFFFFFFFFFFFFFFFFFFF
310
FFFFFFFFFFFFFFFFFFFFFFFFFFFFFFFFFFFFFFFFFFFFFFFFFFFFFFFFFFFFFFFF
310
FFFFFFFFFFFFFFFFFFFFFFFFFFFFFFFFFFFFFFFFFFFFFFFFFFFFFFFFFFFFFFFF
310
F000FFFFFFFFFFFFFFFFFFFFFFFFFFFFFFFFFFFFFFFFFFFFFFFFFFFFFFFFFFFF
310
FFFFFFFFFFFFFFFFFFFFFFFFFFFFFFFFFFFFFFFFFFFFFFFFFFFFFFFFFFFFFFFF
310
FFFFFFFFFFFFFFFFFFFFFFFFFFFFFFFFFFFFFFFFFFFFFFFFF000FFFFFFFFFFFF
310
FFFFFFFFFFFFFFFFFFFFFFFFFFFFFFFFFFFFFFFFFFFFFFFFFFFFFFFFFFFFFFFF
310
FFFFFFFFFFFFFFFFFFFFFFFFFFFFFFFFFFFFFFFFFFFFFFFFFFFFFFFFFFFFFFFF
310
FFFFFFFFFFFFFFFFFFFFFFFFFFFFFFFFF000FFFFFFFFFFFFFFFFFFFFFFFFFFFF
310
FFFFFFFFFFFFFFFFFFFFFFFFFFFFFFFFFFFFFFFFFFFFFFFFFFFFFFFFFFFFFFFF
310
FFFFFFFFFFFFFFFFFFFFFFFFFFFFFFFFFFFFFFFFFFFFFFFFFFFFFFFFFFFFFFFF
310
FFFFFFFFFFFFFFFFF000FFFFF80003FFFFFFFFFFFFFFFFFFFFFFFFFFFFFFFFFF
310
FFFFF00007FFFFFFFFFF00007FFFFFF800000000000000007FFFFFFFFFFFFFFF
310
FFFFFFFC001FFFFFFFFFFFFFFC001FFFFFFFFFFFFFFFFFFFFFFFFFFE0007FFFF
310
F000FFFF8000007FFFFFFFF8000FFFFFC0007FFFFF80007FFFFF0000007FFFFF
310
FFF8000007FFFFF800000000000000007FFFFFF0001FFFFFFFFFFFC00001FFFF
310
FFFFFFFFC00001FFFFFFFF000000000003FFFFE000007FFFF000FFFE0000000F
310
FFFFFFF0000FFFFF80007FFFFF80007FFFFC0000001FFFFFFFC0000001FFFFF8
310
00000000000000007FFFFFF0001FFFFFFFFFFE0000003FFFFFFFFFFE0000003F
310
FFFFFF000000000003FFFF0000000FFFF000FFF800000003FFFFFFF00007FFFF
310
80007FFFFF80007FFFF000000007FFFFFF000000003FFFF80000000000000000
310
7FFFFFF0001FFFFFFFFFF80000000FFFFFFFFFF80000000FFFFFFF0000000000
310
03FFFC00000003FFF000FFE000000000FFFFFFF00007FFFF80003FFFFF80007F
310
FFC000000001FFFFFC000000001FFFF800000000000000007FFFFFF0001FFFFF
310
FFFFE000000003FFFFFFFFE000000003FFFFFF000000000003FFF000000000FF
310
F000FF80000000007FFFFFF00007FFFF80003FFFFF80007FFF8000000000FFFF
310
F80000000007FFF800000000000000007FFFFFF0001FFFFFFFFFC000000001FF
310
FFFFFFC000000001FFFFFF000000000003FFC0000000007FF000FF0000000000
310
3FFFFFE00007FFFF00003FFFFF80007FFE00000000003FFFF00000000003FFF8
310
00000000000000007FFFFFF0001FFFFFFFFF8000000000FFFFFFFF8000000000
310
FFFFFF000000000003FF80000000003FF000FE00000000001FFFFFE00003FFFF
310
00003FFFFF80007FFC00000000001FFFE00000000001FFF8000001FFFE000000
310
7FFFFFF0001FFFFFFFFE00000000003FFFFFFE00000000003FFFFF0000000000
310
03FF00000000001FF000FC00000000000FFFFFE00003FFFF00001FFFFF80007F
310
F800000000001FFFC00000000000FFF8000001FFFE0000007FFFFFF0001FFFFF
310
FFFC00000000001FFFFFFC00000000001FFFFF000000000003FE00000000000F
310
F000F8000000000007FFFFE00003FFFF00001FFFFF80007FF800000000000FFF
310
800000000000FFF8000001FFFE0000007FFFFFF0001FFFFFFFF800000000000F
310
FFFFF800000000000FFFFF000000000003FC000000000007F000F80000000000
310
03FFFFC00003FFFE00001FFFFF80007FF0000000000007FF0000000000007FF8
310
000001FFFE0000007FFFFFF0001FFFFFFFF0000000000007FFFFF00000000000
310
07FFFF000000000003F8000000000003F000F0000000000003FFFFC00001FFFE
310
00001FFFFF80007FE0000000000007FE0000000000003FF8000001FFFE000000
310
7FFFFFF0001FFFFFFFF0000000000007FFFFF0000000000007FFFF0000000000
310
03F800001F800003F000E00001FFF00001FFFFC00001FFFE00000FFFFF80007F
310
E00001FFE00003FE00001FFF00003FF8000001FFFE0000007FFFFFF0001FFFFF
310
FFE000003E000003FFFFE000003E000003FFFF000000000003F00001FFF80001
310
F000E00007FFFC0001FFFFC00001FFFE00000FFFFF80007FC0000FFFFC0003FC
310
0000FFFFC0001FF8000001FFFE0000007FFFFFF0001FFFFFFFC00003FFE00001
310
FFFFC00003FFE00001FFFF0001FFFFFFFFF00007FFFE0001F000E0000FFFFF00
310
00FFFF800001FFFC00000FFFFF80007FC0001FFFFE0001FC0001FFFFE0001FF8
310
000001FFFE0000007FFFFFF0001FFFFFFF80000FFFF80000FFFF80000FFFF800
310
00FFFF0003FFFFFFFFE0000FFFFF8000F000C0003FFFFF8000FFFF800000FFFC
310
000007FFFF80007F80003FFFFF0001FC0003FFFFF0001FF8000001FFFE000000
310
7FFFFFF0001FFFFFFF80003FFFFE0000FFFF80003FFFFE0000FFFF0003FFFFFF
310
FFE0003FFFFF8000F000C0003FFFFF8000FFFF800000FFFC000007FFFF80007F
310
80007FFFFF8001F80007FFFFF8000FF8000001FFFE0000007FFFFFF0001FFFFF
310
FF00007FFFFF00007FFF00007FFFFF00007FFF0003FFFFFFFFE0003FFFFFC000
310
F000C0007FFFFFC000FFFF000000FFFC000007FFFF80007F8000FFFFFF8000F8
310
000FFFFFF8000FF8000001FFFE0000007FFFFFF0001FFFFFFF0000FFFFFF8000
310
7FFF0000FFFFFF80007FFF0003FFFFFFFFC0007FFFFFC00070008000FFFFFFC0
310
00FFFF000000FFF8000007FFFF80007F8000FFFFFF8000F8000FFFFFF8000FF8
310
000001FFFE0000007FFFFFF0001FFFFFFE0001FFFFFFC0003FFE0001FFFFFFC0
310
003FFF0003FFFFFFFFC0007FFFFFE00070008000FFFFFFC0007FFF0000007FF8
310
000003FFFF80007F0001FFFFFF8000F8000FFFFFF8000FF8000001FFFE000000
310
7FFFFFF0001FFFFFFE0001FFFFFFC0003FFE0001FFFFFFC0003FFF0003FFFFFF
310
FFC000FFFFFFE00070008000FFFFFFC0007FFF0000007FF8000003FFFF80007F
310
0001FFFFFF8000F8001FFFFFF8000FF8000001FFFE0000007FFFFFF0001FFFFF
310
FE0003FFFFFFE0003FFE0003FFFFFFE0003FFF0003FFFFFFFFC000FFFFFFE000
310
70008000FFFFFFC0007FFE0000007FF8000003FFFF80007F0001FFFFFF8000F0
310
001FFFFFF8000FF8000001FFFE0000007FFFFFF0001FFFFFFC0003FFFFFFE000
310
1FFC0003FFFFFFE0001FFF0003FFFFFFFFC000FFFFFFC00070008000FFFFFF80
310
007FFE0000007FF0000003FFFF80007F0001FFFFFF0000F0001FFFFFF8000FF8
310
000001FFFE0000007FFFFFF0001FFFFFFC0007FFFFFFF0001FFC0007FFFFFFF0
310
001FFF0003FFFFFFFFC000FFFFFFC00070008001FFFFFF0000FFFE0000003FF0
310
000001FFFF80007F0001FFFFFF0000F8001FFFFFF0000FF8000001FFFE000000
310
7FFFFFF0001FFFFFFC0007FFFFFFF0001FFC0007FFFFFFF0001FFF0003FFFFFF
310
FFC001FFFFFF80007000FFFFFFFFFE0000FFFE0008003FF0008001FFFF80007F
310
FFFFFFFFFC0000FFFFFFFFFFE0000FF8000001FFFE0000007FFFFFF0001FFFFF
310
F8000FFFFFFFF8000FF8000FFFFFFFF8000FFF0003FFFFFFFFFFFFFFFFFF0000
310
7000FFFFFFFFFC0000FFFC0008003FF0008001FFFF80007FFFFFFFFFF80001FF
310
FFFFFFFF80000FF8000001FFFE0000007FFFFFF0001FFFFFF8000FFFFFFFF800
310
0FF8000FFFFFFFF8000FFF0003FFFFFFFFFFFFFFFFFE0000F000FFFFFFFFE000
310
00FFFC000C003FE000C001FFFF80007FFFFFFFFFC00001FFFFFFFFFE00001FF8
310
000001FFFE0000007FFFFFF0001FFFFFF8000FFFFFFFF8000FF8000FFFFFFFF8
310
000FFF0003FFFFFFFFFFFFFFFFF00000F000FFFFFFFE000001FFFC000C001FE0
310
00C000FFFF80007FFFFFFFFE000001FFFFFFFFE000001FF80FFFFFFFFFFFFFC0
310
7FFFFFF0001FFFFFF8000FFFFFFFF8000FF8000FFFFFFFF8000FFF0003FFFFFF
310
FFFFFFFFFF800000F000FFFFFFC0000001FFFC001C001FE001C000FFFF80007F
310
FFFFFF80000003FFFFFFF80000001FF80FFFFFFFFFFFFFC07FFFFFF0001FFFFF
310
F8001FFFFFFFFC000FF8001FFFFFFFFC000FFF0003FFFFFFFFFFFFFFF0000001
310
F000FFFFF800000001FFF8001C001FE001C000FFFF80007FFFFFF800000003FF
310
FFFF800000003FF80FFFFFFFFFFFFFC07FFFFFF0001FFFFFF8001FFFFFFFFC00
310
0FF8001FFFFFFFFC000FFF0003FFFFFFFFFFFFFE00000001F000FFFFC0000000
310
03FFF8001E001FC001E000FFFF80007FFFFF8000000007FFFFFC000000003FF8
310
0FFFFFFFFFFFFFC07FFFFFF0001FFFFFF8001FFFFFFFFC000FF8001FFFFFFFFC
310
000FFF0003FFFFFFFFFFFFE000000003F000FFFE0000000007FFF8001E000FC0
310
01E0007FFF80007FFFFE0000000007FFFFE0000000007FF80FFFFFFFFFFFFFC0
310
7FFFFFF0001FFFFFF0001FFFFFFFFC0007F0001FFFFFFFFC0007FF0003FFFFFF
310
FFFFFF0000000003F000FFF80000000007FFF8001E000FC003E0007FFF80007F
310
FFF0000000000FFFFF8000000000FFF80FFFFFFFFFFFFFC07FFFFFF0001FFFFF
310
F0001FFFFFFFFC0007F0001FFFFFFFFC0007FF0003FFFFFFFFFFFC0000000007
310
F000FFE0000000000FFFF0003E000FC003E0007FFF80007FFFC0000000001FFF
310
FE0000000001FFF80FFFFFFFFFFFFFC07FFFFFF0001FFFFFF0001FFFFFFFFC00
310
07F0001FFFFFFFFC0007FF0003FFFFFFFFFFF0000000000FF000FFC000000000
310
1FFFF0003F000F8003F0003FFF80007FFF80000000003FFFF80000000003FFF8
310
0FFFFFFFFFFFFFC07FFFFFF0001FFFFFF0001FFFFFFFFC0007F0001FFFFFFFFC
310
0007FF0003FFFFFFFFFFE0000000001FF000FF00000000007FFFF0003F000780
310
03F0003FFF80007FFF00000000007FFFF00000000007FFF80FFFFFFFFFFFFFC0
310
7FFFFFF0001FFFFFF0001FFFFFFFFC0007F0001FFFFFFFFC0007FF0003FFFFFF
310
FFFF80000000007FF000FE0000000000FFFFE0003F00078007F0003FFF80007F
310
FE0000000001FFFFE0000000001FFFF80FFFFFFFFFFFFFC07FFFFFF0001FFFFF
310
F0001FFFFFFFFC0007F0001FFFFFFFFC0007FF0003FFFFFFFFFF0000000000FF
310
F000FC0000000003FFFFE0007F00078007F0003FFF80007FFC0000000007FFFF
310
C0000000007FFFF80FFFFFFFFFFFFFC07FFFFFF0001FFFFFF8001FFFFFFFFC00
310
0FF8001FFFFFFFFC000FFF0003FFFFFFFFFE0000000003FFF000FC000000000F
310
FFFFE0007F80070007F8001FFF80007FF8000000001FFFFF8000000001FFFFF8
310
0FFFFFFFFFFFFFC07FFFFFF0001FFFFFF8001FFFFFFFFC000FF8001FFFFFFFFC
310
000FFF0003FFFFFFFFFC000000000FFFF000F8000000007FFFFFE0007F800700
310
07F8001FFF80007FF000000000FFFFFF800000000FFFFFF80FFFFFFFFFFFFFC0
310
7FFFFFF0001FFFFFF8000FFFFFFFF8000FF8000FFFFFFFF8000FFF0003FFFFFF
310
FFFC000000007FFFF000F800000007FFFFFFC0007F8003000FF8001FFF80007F
310
F000000007FFFFFF000000007FFFFFF80FFFFFFFFFFFFFC07FFFFFF0001FFFFF
310
F8000FFFFFFFF8000FF8000FFFFFFFF8000FFF0003FFFFFFFFF80000000FFFFF
310
F000F0000000FFFFFFFFC000FF8003000FF8001FFF80007FE0000000FFFFFFFF
310
0000000FFFFFFFF8000001FFFE0000007FFFFFF0001FFFFFF8000FFFFFFFF800
310
0FF8000FFFFFFFF8000FFF0003FFFFFFFFF8000000FFFFFFF000F000000FFFFF
310
FFFFC000FFC002000FF8000FFF80007FE000001FFFFFFFFE000001FFFFFFFFF8
310
000001FFFE0000007FFFFFF0001FFFFFF8000FFFFFFFF8000FF8000FFFFFFFF8
310
000FFF0003FFFFFFFFF000001FFFFFFFF000E00000FFFFFFFFFFC000FFC00200
310
0FFC000FFF80007FE00001FFFFFFFFFE00001FFFFFFFFFF8000001FFFE000000
310
7FFFFFF0001FFFFFFC000FFFFFFFF8001FFC000FFFFFFFF8001FFF0003FFFFFF
310
FFF00001FFFFFFFFF000E00007FFFFFFFFFF8000FFC000001FFC000FFF80007F
310
C0000FFFFFFFFFFE0000FFFFFFFFFFF8000001FFFE0000007FFFFFF0001FFFFF
310
FC0007FFFFFFF0001FFC0007FFFFFFF0001FFF0003FFFFFFFFF00007FFFFFFFF
310
F000E0001FFFFFFFFFFF8000FFC000001FFC000FFF80007FC0003FFFFFFFFFFE
310
0001FFFFFFFFFFF8000001FFFE0000007FFFFFF0001FFFFFFC0007FFFFFFF000
310
1FFC0007FFFFFFF0001FFF0003FFFFFFFFF0001FFFFFFFFFF000E0003FFFFF00
310
03FF8001FFE000001FFC0007FF80007FC0007FFFFF0007FC0003FFFFF0003FF8
310
000001FFFE0000007FFFFFF0001FFFFFFC0003FFFFFFE0001FFC0003FFFFFFE0
310
001FFF0003FFFFFFFFF0003FFFFFFFFFF000E0003FFFFF0001FF8001FFE00000
310
1FFE0007FF80007FC0007FFFFE0003FC0007FFFFE0003FF8000001FFFE000000
310
7FFFFFF0001FFFFFFE0003FFFFFFE0003FFE0003FFFFFFE0003FFF0003FFFFFF
310
FFF0003FFFFF8001F000E0003FFFFF0001FF0001FFE000001FFE0007FF80007F
310
C0007FFFFE0003FC0007FFFFE0003FF8000001FFFE0000007FFFFFF0001FFFFF
310
FE0001FFFFFFC0003FFE0001FFFFFFC0003FFF0003FFFFFFFFF0003FFFFF0001
310
F000E0003FFFFF0003FF0001FFE000003FFE0007FF80007FC0007FFFFE0003FC
310
0007FFFFE0003FF8000001FFFE0000007FFFFFF0001FFFFFFF0001FFFFFFC000
310
7FFF0001FFFFFFC0007FFF0003FFFFFFFFF0003FFFFF0001F000E0003FFFFE00
310
03FF0003FFF000003FFE0003FF80007FC0007FFFFC0003FE0007FFFFE0003FF8
310
000001FFFE0000007FFFFFF0001FFFFFFF0000FFFFFF80007FFF0000FFFFFF80
310
007FFF0003FFFFFFFFF0003FFFFF0001F000E0003FFFFE0003FF0003FFF00000
310
3FFF0003FF80007FC0007FFFFC0007FE0007FFFFC0003FF8000001FFFE000000
310
7FFFFFF0001FFFFFFF80007FFFFF0000FFFF80007FFFFF0000FFFF0003FFFFFF
310
FFF0003FFFFF0003F000E0003FFFFC0003FE0003FFF000003FFF0003FF80007F
310
E0003FFFF80007FE0003FFFFC0007FF8000001FFFE0000007FFFFFF0001FFFFF
310
FF80003FFFFE0000FFFF80003FFFFE0000FFFF0003FFFFFFFFF0001FFFFE0003
310
F000F0001FFFF80003FE0003FFF000007FFF0001FF80007FE0003FFFF00007FE
310
0001FFFF80007FF8000001FFFE0000007FFFFFF0001FFFFFFFC0000FFFF80001
310
FFFFC0000FFFF80001FFFF0003FFFFFFFFF0001FFFFC0003F000F0000FFFF000
310
07FE0007FFF800007FFF0001FF80007FE0001FFFE00007FF0000FFFE00007FF8
310
000001FFFE0000007FFFFFF0001FFFFFFFC00003FFE00001FFFFC00003FFE000
310
01FFFF0003FFFFFFFFF8000FFFF80003F000F00003FFC00007FC0007FFF80000
310
7FFF8001FF80007FF00007FF80000FFF00007FF80000FFF8000001FFFE000000
310
7F80000000000001FFE000003E000003FFFFE000003E000003FFFF0003FFFFFF
310
FFF80003FFE00007F000F800000000000FFC0007FFF800007FFF8001FF80007F
310
F000000000000FFF000000000000FFF8000001FFFE0000007F80000000000001
310
FFF0000000000007FFFFF0000000000007FFFF0003FFFFFFFFFC00007E000007
310
F000F800000000000FFC0007FFF80000FFFF8000FF80007FF800000000001FFF
310
800000000001FFF8000001FFFE0000007F80000000000001FFF800000000000F
310
FFFFF800000000000FFFFF0003FFFFFFFFFC00000000000FF000FC0000000000
310
1FFC0007FFFC0000FFFF8000FF80007FF800000000003FFFC00000000001FFF8
310
000001FFFE0000007F80000000000001FFF800000000000FFFFFF80000000000
310
0FFFFF0003FFFFFFFFFE00000000001FF000FE00000000003FF8000FFFFC0000
310
FFFF8000FF80007FFC00000000003FFFC00000000003FFF8000001FFFE000000
310
7F80000000000001FFFC00000000001FFFFFFC00000000001FFFFF0003FFFFFF
310
FFFF00000000001FF000FF00000000003FF8000FFFFC0000FFFFC000FF80007F
310
FE00000000007FFFE00000000007FFF8000001FFFE0000007F80000000000001
310
FFFE00000000003FFFFFFE00000000003FFFFF0003FFFFFFFFFF80000000003F
310
F000FF80000000007FF8000FFFFC0001FFFFC0007F80007FFF0000000000FFFF
310
F0000000000FFFF800000000000000007F80000000000001FFFF8000000000FF
310
FFFFFF8000000000FFFFFF0003FFFFFFFFFFC0000000007FF000FFC000000000
310
FFF8000FFFFE0001FFFFC0007F80007FFF8000000001FFFFF8000000001FFFF8
310
00000000000000007F80000000000001FFFFC000000001FFFFFFFFC000000001
310
FFFFFF0003FFFFFFFFFFE000000000FFF000FFE000000003FFF0001FFFFE0001
310
FFFFC0007F80007FFFC000000007FFFFFE000000003FFFF80000000000000000
310
7F80000000000001FFFFE000000003FFFFFFFFE000000003FFFFFF0003FFFFFF
310
FFFFF000000003FFF000FFF80000000FFFF0001FFFFE0001FFFFE0007F80007F
310
FFF00000000FFFFFFF00000000FFFFF800000000000000007F80000000000001
310
FFFFF80000000FFFFFFFFFF80000000FFFFFFF0003FFFFFFFFFFFC0000000FFF
310
F000FFFE0000003FFFF0001FFFFE0003FFFFE0003F80007FFFFC0000003FFFFF
310
FFC0000003FFFFF800000000000000007F80000000000001FFFFFE0000003FFF
310
FFFFFFFE0000003FFFFFFF0003FFFFFFFFFFFF0000003FFFF000FFFF800000FF
310
FFF0001FFFFF0003FFFFE0003F80007FFFFF000001FFFFFFFFF800001FFFFFF8
310
00000000000000007F80000000000001FFFFFFC00001FFFFFFFFFFFFC00001FF
310
FFFFFF0003FFFFFFFFFFFFC00000FFFFF000FFFFF8000FFFFFFFFFFFFFFFFFFF
310
FFFFFFFFFFFFFFFFFFFFF0001FFFFFFFFFFF0000FFFFFFF80000000000000000
310
7FFFFFFFFFFFFFFFFFFFFFFC001FFFFFFFFFFFFFFC001FFFFFFFFFFFFFFFFFFF
310
FFFFFFFC001FFFFFF000FFFFFFFFFFFFFFFFFFFFFFFFFFFFFFFFFFFFFFFFFFFF
310
FFFFFFFFFFFFFFFFFFFFFFFFFFFFFFFFFFFFFFFFFFFFFFFFFFFFFFFFFFFFFFFF
310
FFFFFFFFFFFFFFFFFFFFFFFFFFFFFFFFFFFFFFFFFFFFFFFFFFFFFFFFFFFFFFFF
310
F000FFFFFFFFFFFFFFFFFFFFFFFFFFFFFFFFFFFFFFFFFFFFFFFFFFFFFFFFFFFF
310
FFFFFFFFFFFFFFFFFFFFFFFFFFFFFFFFFFFFFFFFFFFFFFFFFFFFFFFFFFFFFFFF
310
FFFFFFFFFFFFFFFFFFFFFFFFFFFFFFFFFFFFFFFFFFFFFFFFF000FFFFFFFFFFFF
310
FFFFFFFFFFFFFFFFFFFFFFFFFFFFFFFFFFFFFFFFFFFFFFFFFFFFFFFFFFFFFFFF
310
FFFFFFFFFFFFFFFFFFFFFFFFFFFFFFFFFFFFFFFFFFFFFFFFFFFFFFFFFFFFFFFF
310
FFFFFFFFFFFFFFFFFFFFFFFFFFFFFFFFF000FFFFFFFFFFFFFFFFFFFFFFFFFFFF
310
FFFFFFFFFFFFFFFFFFFFFFFFFFFFFFFFFFFFFFFFFFFFFFFFFFFFFFFFFFFFFFFF
310
FFFFFFFFFFFFFFFFFFFFFFFFFFFFFFFFFFFFFFFFFFFFFFFFFFFFFFFFFFFFFFFF
310
FFFFFFFFFFFFFFFFF000FFFFFFFFFFFFFFFFFFFFFFFFFFFFFFFFFFFFFFFFFFFF
310
FFFFFFFFFFFFFFFFFFFFFFFFFFFFFFFFFFFFFFFFFFFFFFFFFFFFFFFFFFFFFFFF
310
FFFFFFFFFFFFFFFFFFFFFFFFFFFFFFFFFFFFFFFFFFFFFFFFFFFFFFFFFFFFFFFF
310
F000FFFFFFFFFFFFFFFFFFFFFFFFFFFFFFFFFFFFFFFFFFFFFFFFFFFFFFFFFFFF
310
FFFFFFFFFFFFFFFFFFFFFFFFFFFFFFFFFFFFFFFFFFFFFFFFFFFFFFFFFFFFFFFF
310
FFFFFFFFFFFFFFFFFFFFFFFFFFFFFFFFFFFFFFFFFFFFFFFFF000FFFFFFFFFFFF
310
FFFFFFFFFFFFFFFFFFFFFFFFFFFFFFFFFFFFFFFFFFFFFFFFFFFFFFFFFFFFFFFF
310
FFFFFFFFFFFFFFFFFFFFFFFFFFFFFFFFFFFFFFFFFFFFFFFFFFFFFFFFFFFFFFFF
310
FFFFFFFFFFFFFFFFFFFFFFFFFFFFFFFFF000FFFFFFFFFFFFFFFFFFFFFFFFFFFF
310
FFFFFFFFFFFFFFFFFFFFFFFFFFFFFFFFFFFFFFFFFFFFFFFFFFFFFFFFFFFFFFFF
310
FFFFFFFFFFFFFFFFFFFFFFFFFFFFFFFFFFFFFFFFFFFFFFFFFFFFFFFFFFFFFFFF
310
FFFFFFFFFFFFFFFFF000FFFFFFFFFFFFFFFFFFFFFFFFFFFFFFFFFFFFFFFFFFFF
310
FFFFFFFFFFFFFFFFFFFFFFFFFFFFFFFFFFFFFFFFFFFFFFFFFFFFFFFFFFFFFFFF
310
FFFFFFFFFFFFFFFFFFFFFFFFFFFFFFFFFFFFFFFFFFFFFFFFFFFFFFFFFFFFFFFF
310
F000FFFFFFFFFFFFFFFFFFFFFFFFFFFFFFFFFFFFFFFFFFFFFFFFFFFFFFFFFFFF
310
FFFFFFFFFFFFFFFFFFFFFFFFFFFFFFFFFFFFFFFFFFFFFFFFFFFFFFFFFFFFFFFF
310
FFFFFFFFFFFFFFFFFFFFFFFFFFFFFFFFFFFFFFFFFFFFFFFFF000FFFFFFFFFFFF
310
FFFFFFFFFFFFFFFFFFFFFFFFFFFFFFFFFFFFFFFFFFFFFFFFFFFFFFFFFFFFFFFF
310
FFFFFFFFFFFFFFFFFFFFFFFFFFFFFFFFFFFFFFFFFFFFFFFFFFFFFFFFFFFFFFFF
310
FFFFFFFFFFFFFFFFFFFFFFFFFFFFFFFFF000FFFFFFFFFFFFFFFFFFFFFFFFFFFF
310
FFFFFFFFFFFFFFFFFFFFFFFFFFFFFFFFFFFFFFFFFFFFFFFFFFFFFFFFFFFFFFFF
310
FFFFFFFFFFFFFFFFFFFFFFFFFFFFFFFFFFFFFFFFFFFFFFFFFFFFFFFFFFFFFFFF
310
FFFFFFFFFFFFFFFFF000FFFFFFFFFFFFFFFFFFFFFFFFFFFFFFFFFFFFFFFFFFFF
310
FFFFFFFFFFFFFFFFFFFFFFFFFFFFFFFFFFFFFFFFFFFFFFFFFFFFFFFFFFFFFFFF
310
FFFFFFFFFFFFFFFFFFFFFFFFFFFFFFFFFFFFFFFFFFFFFFFFFFFFFFFFFFFFFFFF
310
F000FFFFFFFFFFFFFFFFFFFFFFFFFFFFFFFFFFFFFFFFFFFFFFFFFFFFFFFFFFFF
310
FFFFFFFFFFFFFFFFFFFFFFFFFFFFFFFFFFFFFFFFFFFFFFFFFFFFFFFFFFFFFFFF
310
FFFFFFFFFFFFFFFFFFFFFFFFFFFFFFFFFFFFFFFFFFFFFFFFF000FFFFFFFFFFFF
310
FFFFFFFFFFFFFFFFFFFFFFFFFFFFFFFFFFFFFFFFFFFFFFFFFFFFFFFFFFFFFFFF
310
FFFFFFFFFFFFFFFFFFFFFFFFFFFFFFFFFFFFFFFFFFFFFFFFFFFFFFFFFFFFFFFF
310
FFFFFFFFFFFFFFFFFFFFFFFFFFFFFFFFF000FFFFFFFFFFFFFFFFFFFFFFFFFFFF
310
FFFFFFFFFFFFFFFFFFFFFFFFFFFFFFFFFFFFFFFFFFFFFFFFFFFFFFFFFFFFFFFF
310
FFFFFFFFFFFFFFFFFFFFFFFFFFFFFFFFFFFFFFFFFFFFFFFFFFFFFFFFFFFFFFFF
310
FFFFFFFFFFFFFFFFF000FFFFFFFFFFFFFFFFFFFFFFFFFFFFFFFFFFFFFFFFFFFF
310
FFFFFFFFFFFFFFFFFFFFFFFFFFFFFFFFFFFFFFFFFFFFFFFFFFFFFFFFFFFFFFFF
310
FFFFFFFFFFFFFFFFFFFFFFFFFFFFFFFFFFFFFFFFFFFFFFFFFFFFFFFFFFFFFFFF
310
F000FFFFFFFFFFFFFFFFFFFFFFFFFFFFFFFFFFFFFFFFFFFFFFFFFFFFFFFFFFFF
310
FFFFFFFFFFFFFFFFFFFFFFFFFFFFFFFFFFFFFFFFFFFFFFFFFFFFFFFFFFFFFFFF
310
FFFFFFFFFFFFFFFFFFFFFFFFFFFFFFFFFFFFFFFFFFFFFFFFF000FFFFFFFFFFFF
310
FFFFFFFFFFFFFFFFFFFFFFFFFFFFFFFFFFFFFFFFFFFFFFFFFFFFFFFFFFFFFFFF
310
FFFFFFFFFFFFFFFFFFFFFFFFFFFFFFFFFFFFFFFFFFFFFFFFFFFFFFFFFFFFFFFF
310
FFFFFFFFFFFFFFFFFFFFFFFFFFFFFFFFF000FFFFFFFFFFFFFFFFFFFFFFFFFFFF
310
FFFFFFFFFFFFFFFFFFFFFFFFFFFFFFFFFFFFFFFFFFFFFFFFFFFFFFFFFFFFFFFF
310
FFFFFFFFFFFFFFFFFFFFFFFFFFFFFFFFFFFFFFFFFFFFFFFFFFFFFFFFFFFFFFFF
310
FFFFFFFFFFFFFFFFF000FFFFFFFFFFFFFFFFFFFFFFFFFFFFFFFFFFFFFFFFFFFF
310
FFFFFFFFFFFFFFFFFFFFFFFFFFFFFFFFFFFFFFFFFFFFFFFFFFFFFFFFFFFFFFFF
310
FFFFFFFFFFFFFFFFFFFFFFFFFFFFFFFFFFFFFFFFFFFFFFFFFFFFFFFFFFFFFFFF
310
F000FFFFFFFFFFFFFFFFFFFFFFFFFFFFFFFFFFFFFFFFFFFFFFFFFFFFFFFFFFFF
310
FFFFFFFFFFFFFFFFFFFFFFFFFFFFFFFFFFFFFFFFFFFFFFFFFFFFFFFFFFFFFFFF
310
FFFFFFFFFFFFFFFFFFFFFFFFFFFFFFFFFFFFFFFFFFFFFFFFF000FFFFFFFFFFFF
310
FFFFFFFFFFFFFFFFFFFFFFFFFFFFFFFFFFFFFFFFFFFFFFFFFFFFFFFFFFFFFFFF
310
FFFFFFFFFFFFFFFFFFFFFFFFFFFFFFFFFFFFFFFFFFFFFFFFFFFFFFFFFFFFFFFF
310
FFFFFFFFFFFFFFFFFFFFFFFFFFFFFFFFF0000000000000000000000000000000
310
00000000F313FE3D2EB9043EFEB7FE3DAD65043E8E34FF3DC004043EE480FF3D
310
349D033EA697FF3D4D36033E3977FF3D44D7023EE621FF3D1A59C93D1B80B93D
310
3117CF3D1B80B93D3117CF3DE621FF3DF327C13DE621FF3D94FEF53D1B80B93D
310
44D7023E1B80B93D44D7023EE621FF3D94FEF53DE621FF3DF8461C3E8FAFC53D
310
F8461C3E3891CD3DF8461C3E9DABC13DF8461C3EE718C23D8A34193E033EC33D
310
8A34193E9DABC13D8A34193E0267CD3D8A34193EA544C43D84FB1B3E6750C13D
310
CFEA4C3E7A08C43DCFEA4C3EB327C93D25FB1B3E9B6FC63DAA3A193EA090C43D
310
FAFC183E6CB5C33DFAFC183E6CB5C33DE03A193E80F3C23D2B9C4C3E1FD6C73D
310
82AB4C3E1AD3C73D43BA4C3E26CAC73DDCC74C3E9DBBC73DC6D34C3E0EA8C73D
310
8EDD4C3E3890C73DD3E44C3E0775C73D4CE94C3E8557C73DCFEA4C3ED638C73D
310
CFEA4C3E2B69F13D4CE94C3E7C4AF13DD3E44C3EFA2CF13D8EDD4C3EC911F13D
310
C6D34C3EF3F9F03DDCC74C3E64E6F03D43BA4C3EDBD7F03D82AB4C3EE7CEF03D
310
2B9C4C3EE2CBF03D77B1183E8D0AC83D7BB3183EA3E1C73D72B9183E4CBAC73D
310
23C3183E0A96C73D2DD0183E4276C73D11E0183E2E5CC73D32F2183ECD48C73D
310
DE05193EDD3CC73D531A193ED638C73D531A193E2B69F13DDE05193E2365F13D
  1
OLE
  0
ENDSEC
  0
SECTION
  2
OBJECTS
  0
DICTIONARY
  5
C
330
0
100
AcDbDictionary
281
     1
  3
ACAD_GROUP
350
D
  3
ACAD_LAYOUT
350
1A
  3
ACAD_MLEADERSTYLE
350
20D
  3
ACAD_MLINESTYLE
350
17
  3
ACAD_PLOTSETTINGS
350
19
  3
ACAD_PLOTSTYLENAME
350
E
  3
ACAD_TABLESTYLE
350
20C
  3
ACAD_VISUALSTYLE
350
2A
  3
AcDbVariableDictionary
350
20E
  0
DICTIONARY
  5
D
102
{ACAD_REACTORS
330
C
102
}
330
C
100
AcDbDictionary
281
     1
  0
DICTIONARY
  5
1A
102
{ACAD_REACTORS
330
C
102
}
330
C
100
AcDbDictionary
281
     1
  3
Layout1
350
1E
  3
Layout2
350
26
  3
Model
350
22
  0
DICTIONARY
  5
20D
102
{ACAD_REACTORS
330
C
102
}
330
C
100
AcDbDictionary
281
     1
  0
DICTIONARY
  5
17
102
{ACAD_REACTORS
330
C
102
}
330
C
100
AcDbDictionary
281
     1
  3
Standard
350
18
  0
DICTIONARY
  5
19
102
{ACAD_REACTORS
330
C
102
}
330
C
100
AcDbDictionary
281
     1
  0
ACDBDICTIONARYWDFLT
  5
E
102
{ACAD_REACTORS
330
C
102
}
330
C
100
AcDbDictionary
281
     1
  3
Normal
350
F
100
AcDbDictionaryWithDefault
340
F
  0
DICTIONARY
  5
20C
102
{ACAD_REACTORS
330
C
102
}
330
C
100
AcDbDictionary
281
     1
  0
DICTIONARY
  5
2A
102
{ACAD_REACTORS
330
C
102
}
330
C
100
AcDbDictionary
281
     1
  3
2dWireframe
350
2F
  3
3D Hidden
350
31
  3
3dWireframe
350
30
  3
Basic
350
32
  3
Brighten
350
36
  3
ColorChange
350
3A
  3
Conceptual
350
34
  3
Dim
350
35
  3
Facepattern
350
39
  3
Flat
350
2B
  3
FlatWithEdges
350
2C
  3
Gouraud
350
2D
  3
GouraudWithEdges
350
2E
  3
Linepattern
350
38
  3
Realistic
350
33
  3
Thicken
350
37
  0
DICTIONARY
  5
20E
102
{ACAD_REACTORS
330
C
102
}
330
C
100
AcDbDictionary
281
     1
  3
PSOLHEIGHT
350
210
  3
PSOLWIDTH
350
20F
  0
LAYOUT
  5
1E
102
{ACAD_REACTORS
330
1A
102
}
330
1A
100
AcDbPlotSettings
  1

  2
none_device
  4

  6

 40
0.0
 41
0.0
 42
0.0
 43
0.0
 44
0.0
 45
0.0
 46
0.0
 47
0.0
 48
0.0
 49
0.0
140
0.0
141
0.0
142
1.0
143
1.0
 70
   688
 72
     0
 73
     0
 74
     5
  7

 75
    16
147
1.0
148
0.0
149
0.0
100
AcDbLayout
  1
Layout1
 70
     1
 71
     1
 10
0.0
 20
0.0
 11
420.0
 21
297.0
 12
0.0
 22
0.0
 32
0.0
 14
1.0000000000E+20
 24
1.0000000000E+20
 34
1.0000000000E+20
 15
-1.0000000000E+20
 25
-1.0000000000E+20
 35
-1.0000000000E+20
146
0.0
 13
0.0
 23
0.0
 33
0.0
 16
1.0
 26
0.0
 36
0.0
 17
0.0
 27
1.0
 37
0.0
 76
     0
330
1B
  0
LAYOUT
  5
26
102
{ACAD_REACTORS
330
1A
102
}
330
1A
100
AcDbPlotSettings
  1

  2
none_device
  4

  6

 40
0.0
 41
0.0
 42
0.0
 43
0.0
 44
0.0
 45
0.0
 46
0.0
 47
0.0
 48
0.0
 49
0.0
140
0.0
141
0.0
142
1.0
143
1.0
 70
   688
 72
     0
 73
     0
 74
     5
  7

 75
    16
147
1.0
148
0.0
149
0.0
100
AcDbLayout
  1
Layout2
 70
     1
 71
     2
 10
0.0
 20
0.0
 11
0.0
 21
0.0
 12
0.0
 22
0.0
 32
0.0
 14
0.0
 24
0.0
 34
0.0
 15
0.0
 25
0.0
 35
0.0
146
0.0
 13
0.0
 23
0.0
 33
0.0
 16
1.0
 26
0.0
 36
0.0
 17
0.0
 27
1.0
 37
0.0
 76
     0
330
23
  0
LAYOUT
  5
22
102
{ACAD_REACTORS
330
1A
102
}
330
1A
100
AcDbPlotSettings
  1

  2
none_device
  4

  6

 40
0.0
 41
0.0
 42
0.0
 43
0.0
 44
0.0
 45
0.0
 46
0.0
 47
0.0
 48
0.0
 49
0.0
140
0.0
141
0.0
142
1.0
143
1.0
 70
  1712
 72
     0
 73
     0
 74
     0
  7

 75
     0
147
1.0
148
0.0
149
0.0
100
AcDbLayout
  1
Model
 70
     1
 71
     0
 10
0.0
 20
0.0
 11
297.0
 21
210.0
 12
0.0
 22
0.0
 32
0.0
 14
0.0
 24
0.0
 34
0.0
 15
297.0
 25
210.0
 35
0.0
146
0.0
 13
0.0
 23
0.0
 33
0.0
 16
1.0
 26
0.0
 36
0.0
 17
0.0
 27
1.0
 37
0.0
 76
     0
330
1F
331
29
  0
MLINESTYLE
  5
18
102
{ACAD_REACTORS
330
17
102
}
330
17
100
AcDbMlineStyle
  2
Standard
 70
     0
  3

 62
   256
 51
90.0
 52
90.0
 71
     2
 49
0.5
 62
   256
  6
BYLAYER
 49
-0.5
 62
   256
  6
BYLAYER
  0
ACDBPLACEHOLDER
  5
F
102
{ACAD_REACTORS
330
E
102
}
330
E
  0
VISUALSTYLE
  5
2F
102
{ACAD_REACTORS
330
2A
102
}
330
2A
100
AcDbVisualStyle
  2
2dWireframe
 70
     4
 71
     0
 72
     2
 73
     0
 90
        0
 40
-0.6
 41
-30.0
 62
     5
 63
     7
 74
     1
 91
        4
 64
     7
 65
   257
 75
     1
175
     1
 42
1.0
 92
        0
 66
   257
 43
1.0
 76
     1
 77
     6
 78
     2
 67
     7
 79
     5
170
     0
171
     0
290
     0
174
     0
 93
        1
 44
0.0
173
     0
291
     0
 45
0.0
1001
ACAD
1000
AcDbSavedByObjectVersion
1070
     0
  0
VISUALSTYLE
  5
31
102
{ACAD_REACTORS
330
2A
102
}
330
2A
100
AcDbVisualStyle
  2
3D Hidden
 70
     6
 71
     1
 72
     2
 73
     2
 90
        0
 40
-0.6
 41
-30.0
 62
     5
 63
     7
 74
     2
 91
        2
 64
     7
 65
   257
 75
     2
175
     1
 42
40.0
 92
        0
 66
   257
 43
1.0
 76
     1
 77
     6
 78
     2
 67
     7
 79
     3
170
     0
171
     0
290
     0
174
     0
 93
        1
 44
0.0
173
     0
291
     0
 45
0.0
1001
ACAD
1000
AcDbSavedByObjectVersion
1070
     0
  0
VISUALSTYLE
  5
30
102
{ACAD_REACTORS
330
2A
102
}
330
2A
100
AcDbVisualStyle
  2
3dWireframe
 70
     5
 71
     0
 72
     2
 73
     0
 90
        0
 40
-0.6
 41
-30.0
 62
     5
 63
     7
 74
     1
 91
        4
 64
     7
 65
   257
 75
     1
175
     1
 42
1.0
 92
        0
 66
   257
 43
1.0
 76
     1
 77
     6
 78
     2
 67
     7
 79
     5
170
     0
171
     0
290
     0
174
     0
 93
        1
 44
0.0
173
     0
291
     0
 45
0.0
1001
ACAD
1000
AcDbSavedByObjectVersion
1070
     0
  0
VISUALSTYLE
  5
32
102
{ACAD_REACTORS
330
2A
102
}
330
2A
100
AcDbVisualStyle
  2
Basic
 70
     7
 71
     1
 72
     0
 73
     1
 90
        0
 40
-0.6
 41
-30.0
 62
     5
 63
     7
 74
     0
 91
        4
 64
     7
 65
   257
 75
     1
175
     1
 42
1.0
 92
        8
 66
     7
 43
1.0
 76
     1
 77
     6
 78
     2
 67
     7
 79
     5
170
     0
171
     0
290
     0
174
     0
 93
        1
 44
0.0
173
     0
291
     1
 45
0.0
1001
ACAD
1000
AcDbSavedByObjectVersion
1070
     0
  0
VISUALSTYLE
  5
36
102
{ACAD_REACTORS
330
2A
102
}
330
2A
100
AcDbVisualStyle
  2
Brighten
 70
    12
 71
     2
 72
     2
 73
     0
 90
        0
 40
-0.6
 41
-30.0
 62
     5
 63
     7
 74
     1
 91
        4
 64
     7
 65
   257
 75
     1
175
     1
 42
1.0
 92
        8
 66
     7
 43
1.0
 76
     1
 77
     6
 78
     2
 67
     7
 79
     5
170
     0
171
     0
290
     0
174
     0
 93
        1
 44
50.0
173
     0
291
     1
 45
0.0
1001
ACAD
1000
AcDbSavedByObjectVersion
1070
     0
  0
VISUALSTYLE
  5
3A
102
{ACAD_REACTORS
330
2A
102
}
330
2A
100
AcDbVisualStyle
  2
ColorChange
 70
    16
 71
     2
 72
     2
 73
     3
 90
        0
 40
-0.6
 41
-30.0
 62
     5
 63
     8
 74
     1
 91
        4
 64
     7
 65
   257
 75
     1
175
     1
 42
1.0
 92
        8
 66
     8
 43
1.0
 76
     1
 77
     6
 78
     2
 67
     7
 79
     5
170
     0
171
     0
290
     0
174
     0
 93
        1
 44
0.0
173
     0
291
     1
 45
0.0
1001
ACAD
1000
AcDbSavedByObjectVersion
1070
     0
  0
VISUALSTYLE
  5
34
102
{ACAD_REACTORS
330
2A
102
}
330
2A
100
AcDbVisualStyle
  2
Conceptual
 70
     9
 71
     3
 72
     2
 73
     0
 90
        0
 40
-0.6
 41
-30.0
 62
     5
 63
     7
 74
     2
 91
        2
 64
     7
 65
   257
 75
     1
175
     1
 42
40.0
 92
        8
 66
     7
 43
1.0
 76
     1
 77
     6
 78
     2
 67
     7
 79
     3
170
     0
171
     0
290
     0
174
     0
 93
        1
 44
0.0
173
     0
291
     0
 45
0.0
1001
ACAD
1000
AcDbSavedByObjectVersion
1070
     0
  0
VISUALSTYLE
  5
35
102
{ACAD_REACTORS
330
2A
102
}
330
2A
100
AcDbVisualStyle
  2
Dim
 70
    11
 71
     2
 72
     2
 73
     0
 90
        0
 40
-0.6
 41
-30.0
 62
     5
 63
     7
 74
     1
 91
        4
 64
     7
 65
   257
 75
     1
175
     1
 42
1.0
 92
        8
 66
     7
 43
1.0
 76
     1
 77
     6
 78
     2
 67
     7
 79
     5
170
     0
171
     0
290
     0
174
     0
 93
        1
 44
-50.0
173
     0
291
     1
 45
0.0
1001
ACAD
1000
AcDbSavedByObjectVersion
1070
     0
  0
VISUALSTYLE
  5
39
102
{ACAD_REACTORS
330
2A
102
}
330
2A
100
AcDbVisualStyle
  2
Facepattern
 70
    15
 71
     2
 72
     2
 73
     0
 90
        0
 40
-0.6
 41
-30.0
 62
     5
 63
     7
 74
     1
 91
        4
 64
     7
 65
   257
 75
     1
175
     1
 42
1.0
 92
        8
 66
     7
 43
1.0
 76
     1
 77
     6
 78
     2
 67
     7
 79
     5
170
     0
171
     0
290
     0
174
     0
 93
        1
 44
0.0
173
     0
291
     1
 45
0.0
1001
ACAD
1000
AcDbSavedByObjectVersion
1070
     0
  0
VISUALSTYLE
  5
2B
102
{ACAD_REACTORS
330
2A
102
}
330
2A
100
AcDbVisualStyle
  2
Flat
 70
     0
 71
     2
 72
     1
 73
     1
 90
        2
 40
-0.6
 41
30.0
 62
     5
 63
     7
 74
     0
 91
        4
 64
     7
 65
   257
 75
     1
175
     1
 42
1.0
 92
        8
 66
     7
 43
1.0
 76
     1
 77
     6
 78
     2
 67
     7
 79
     5
170
     0
171
     0
290
     0
174
     0
 93
       13
 44
0.0
173
     0
291
     1
 45
0.0
1001
ACAD
1000
AcDbSavedByObjectVersion
1070
     0
  0
VISUALSTYLE
  5
2C
102
{ACAD_REACTORS
330
2A
102
}
330
2A
100
AcDbVisualStyle
  2
FlatWithEdges
 70
     1
 71
     2
 72
     1
 73
     1
 90
        2
 40
-0.6
 41
30.0
 62
     5
 63
     7
 74
     1
 91
        4
 64
     7
 65
   257
 75
     1
175
     1
 42
1.0
 92
        0
 66
   257
 43
1.0
 76
     1
 77
     6
 78
     2
 67
     7
 79
     5
170
     0
171
     0
290
     0
174
     0
 93
       13
 44
0.0
173
     0
291
     1
 45
0.0
1001
ACAD
1000
AcDbSavedByObjectVersion
1070
     0
  0
VISUALSTYLE
  5
2D
102
{ACAD_REACTORS
330
2A
102
}
330
2A
100
AcDbVisualStyle
  2
Gouraud
 70
     2
 71
     2
 72
     2
 73
     1
 90
        2
 40
-0.6
 41
30.0
 62
     5
 63
     7
 74
     0
 91
        4
 64
     7
 65
   257
 75
     1
175
     1
 42
1.0
 92
        0
 66
     7
 43
1.0
 76
     1
 77
     6
 78
     2
 67
     7
 79
     5
170
     0
171
     0
290
     0
174
     0
 93
       13
 44
0.0
173
     0
291
     1
 45
0.0
1001
ACAD
1000
AcDbSavedByObjectVersion
1070
     0
  0
VISUALSTYLE
  5
2E
102
{ACAD_REACTORS
330
2A
102
}
330
2A
100
AcDbVisualStyle
  2
GouraudWithEdges
 70
     3
 71
     2
 72
     2
 73
     1
 90
        2
 40
-0.6
 41
30.0
 62
     5
 63
     7
 74
     1
 91
        4
 64
     7
 65
   257
 75
     1
175
     1
 42
1.0
 92
        0
 66
   257
 43
1.0
 76
     1
 77
     6
 78
     2
 67
     7
 79
     5
170
     0
171
     0
290
     0
174
     0
 93
       13
 44
0.0
173
     0
291
     1
 45
0.0
1001
ACAD
1000
AcDbSavedByObjectVersion
1070
     0
  0
VISUALSTYLE
  5
38
102
{ACAD_REACTORS
330
2A
102
}
330
2A
100
AcDbVisualStyle
  2
Linepattern
 70
    14
 71
     2
 72
     2
 73
     0
 90
        0
 40
-0.6
 41
-30.0
 62
     5
 63
     7
 74
     1
 91
        4
 64
     7
 65
   257
 75
     7
175
     7
 42
1.0
 92
        8
 66
     7
 43
1.0
 76
     1
 77
     6
 78
     2
 67
     7
 79
     5
170
     0
171
     0
290
     0
174
     0
 93
        1
 44
0.0
173
     0
291
     1
 45
0.0
1001
ACAD
1000
AcDbSavedByObjectVersion
1070
     0
  0
VISUALSTYLE
  5
33
102
{ACAD_REACTORS
330
2A
102
}
330
2A
100
AcDbVisualStyle
  2
Realistic
 70
     8
 71
     2
 72
     2
 73
     0
 90
        0
 40
-0.6
 41
-30.0
 62
     5
 63
     7
 74
     1
 91
        0
 64
     7
 65
   257
 75
     1
175
     1
 42
1.0
 92
        8
 66
     8
 43
1.0
 76
     1
 77
     6
 78
     2
 67
     7
 79
     5
170
     0
171
     0
290
     0
174
     0
 93
       13
 44
0.0
173
     0
291
     0
 45
0.0
1001
ACAD
1000
AcDbSavedByObjectVersion
1070
     0
  0
VISUALSTYLE
  5
37
102
{ACAD_REACTORS
330
2A
102
}
330
2A
100
AcDbVisualStyle
  2
Thicken
 70
    13
 71
     2
 72
     2
 73
     0
 90
        0
 40
-0.6
 41
-30.0
 62
     5
 63
     7
 74
     1
 91
        4
 64
     7
 65
   257
 75
     1
175
     1
 42
1.0
 92
       12
 66
     7
 43
1.0
 76
     1
 77
     6
 78
     2
 67
     7
 79
     5
170
     0
171
     0
290
     0
174
     0
 93
        1
 44
0.0
173
     0
291
     1
 45
0.0
1001
ACAD
1000
AcDbSavedByObjectVersion
1070
     0
  0
DICTIONARYVAR
  5
210
102
{ACAD_REACTORS
330
20E
102
}
330
20E
100
DictionaryVariables
280
     0
  1
80.000000
  0
DICTIONARYVAR
  5
20F
102
{ACAD_REACTORS
330
20E
102
}
330
20E
100
DictionaryVariables
280
     0
  1
5.000000
  0
ENDSEC
  0
EOF
