  0
SECTION
  2
HEADER
  9
$ACADVER
  1
AC1015
  9
$ACADMAINTVER
 70
     6
  9
$DWGCODEPAGE
  3
ANSI_1252
  9
$INSBASE
 10
0.0
 20
0.0
 30
0.0
  9
$EXTMIN
 10
0.0
 20
0.0
 30
0.0
  9
$EXTMAX
 10
297.0
 20
210.0
 30
0.0
  9
$LIMMIN
 10
0.0
 20
0.0
  9
$LIMMAX
 10
297.0
 20
210.0
  9
$ORTHOMODE
 70
     0
  9
$REGENMODE
 70
     1
  9
$FILLMODE
 70
     1
  9
$QTEXTMODE
 70
     0
  9
$MIRRTEXT
 70
     1
  9
$LTSCALE
 40
1.0
  9
$ATTMODE
 70
     1
  9
$TEXTSIZE
 40
2.0
  9
$TRACEWID
 40
1.0
  9
$TEXTSTYLE
  7
Standard
  9
$CLAYER
  8
0
  9
$CELTYPE
  6
ByLayer
  9
$CECOLOR
 62
   256
  9
$CELTSCALE
 40
1.0
  9
$DISPSILH
 70
     0
  9
$DIMSCALE
 40
1.0
  9
$DIMASZ
 40
3.0
  9
$DIMEXO
 40
0.0
  9
$DIMDLI
 40
3.75
  9
$DIMRND
 40
0.0
  9
$DIMDLE
 40
0.0
  9
$DIMEXE
 40
1.0
  9
$DIMTP
 40
0.0
  9
$DIMTM
 40
0.0
  9
$DIMTXT
 40
2.0
  9
$DIMCEN
 40
2.5
  9
$DIMTSZ
 40
0.0
  9
$DIMTOL
 70
     0
  9
$DIMLIM
 70
     0
  9
$DIMTIH
 70
     1
  9
$DIMTOH
 70
     1
  9
$DIMSE1
 70
     0
  9
$DIMSE2
 70
     0
  9
$DIMTAD
 70
     1
  9
$DIMZIN
 70
     0
  9
$DIMBLK
  1

  9
$DIMASO
 70
     1
  9
$DIMSHO
 70
     1
  9
$DIMPOST
  1

  9
$DIMAPOST
  1

  9
$DIMALT
 70
     0
  9
$DIMALTD
 70
     3
  9
$DIMALTF
 40
0.0393700787
  9
$DIMLFAC
 40
1.0
  9
$DIMTOFL
 70
     1
  9
$DIMTVP
 40
0.0
  9
$DIMTIX
 70
     0
  9
$DIMSOXD
 70
     0
  9
$DIMSAH
 70
     0
  9
$DIMBLK1
  1

  9
$DIMBLK2
  1

  9
$DIMSTYLE
  2
ISO-25
  9
$DIMCLRD
 70
     0
  9
$DIMCLRE
 70
     0
  9
$DIMCLRT
 70
     0
  9
$DIMTFAC
 40
1.0
  9
$DIMGAP
 40
1.524
  9
$DIMJUST
 70
     0
  9
$DIMSD1
 70
     0
  9
$DIMSD2
 70
     0
  9
$DIMTOLJ
 70
     0
  9
$DIMTZIN
 70
     0
  9
$DIMALTZ
 70
     0
  9
$DIMALTTZ
 70
     0
  9
$DIMUPT
 70
     0
  9
$DIMDEC
 70
     2
  9
$DIMTDEC
 70
     3
  9
$DIMALTU
 70
     2
  9
$DIMALTTD
 70
     3
  9
$DIMTXSTY
  7
Standard
  9
$DIMAUNIT
 70
     0
  9
$DIMADEC
 70
     2
  9
$DIMALTRND
 40
0.0
  9
$DIMAZIN
 70
     0
  9
$DIMDSEP
 70
    44
  9
$DIMATFIT
 70
     3
  9
$DIMFRAC
 70
     0
  9
$DIMLDRBLK
  1

  9
$DIMLUNIT
 70
     2
  9
$DIMLWD
 70
    -2
  9
$DIMLWE
 70
    -2
  9
$DIMTMOVE
 70
     0
  9
$LUNITS
 70
     2
  9
$LUPREC
 70
     2
  9
$SKETCHINC
 40
1.0
  9
$FILLETRAD
 40
10.0
  9
$AUNITS
 70
     0
  9
$AUPREC
 70
     2
  9
$MENU
  1
.
  9
$ELEVATION
 40
0.0
  9
$PELEVATION
 40
0.0
  9
$THICKNESS
 40
0.0
  9
$LIMCHECK
 70
     0
  9
$CHAMFERA
 40
10.0
  9
$CHAMFERB
 40
10.0
  9
$CHAMFERC
 40
20.0
  9
$CHAMFERD
 40
0.0
  9
$SKPOLY
 70
     0
  9
$TDCREATE
 40
2456231.47407397
  9
$TDUCREATE
 40
2456231.432407303
  9
$TDUPDATE
 40
2456231.474075058
  9
$TDUUPDATE
 40
2456231.432408391
  9
$TDINDWG
 40
0.0000000116
  9
$TDUSRTIMER
 40
0.0000000116
  9
$USRTIMER
 70
     1
  9
$ANGBASE
 50
0.0
  9
$ANGDIR
 70
     0
  9
$PDMODE
 70
     0
  9
$PDSIZE
 40
-1.0
  9
$PLINEWID
 40
0.0
  9
$SPLFRAME
 70
     0
  9
$SPLINETYPE
 70
     6
  9
$SPLINESEGS
 70
     8
  9
$HANDSEED
  5
18D
  9
$SURFTAB1
 70
     6
  9
$SURFTAB2
 70
     6
  9
$SURFTYPE
 70
     6
  9
$SURFU
 70
     6
  9
$SURFV
 70
     6
  9
$UCSBASE
  2

  9
$UCSNAME
  2

  9
$UCSORG
 10
0.0
 20
0.0
 30
0.0
  9
$UCSXDIR
 10
1.0
 20
0.0
 30
0.0
  9
$UCSYDIR
 10
0.0
 20
1.0
 30
0.0
  9
$UCSORTHOREF
  2

  9
$UCSORTHOVIEW
 70
     0
  9
$UCSORGTOP
 10
0.0
 20
0.0
 30
0.0
  9
$UCSORGBOTTOM
 10
0.0
 20
0.0
 30
0.0
  9
$UCSORGLEFT
 10
0.0
 20
0.0
 30
0.0
  9
$UCSORGRIGHT
 10
0.0
 20
0.0
 30
0.0
  9
$UCSORGFRONT
 10
0.0
 20
0.0
 30
0.0
  9
$UCSORGBACK
 10
0.0
 20
0.0
 30
0.0
  9
$PUCSBASE
  2

  9
$PUCSNAME
  2

  9
$PUCSORG
 10
0.0
 20
0.0
 30
0.0
  9
$PUCSXDIR
 10
1.0
 20
0.0
 30
0.0
  9
$PUCSYDIR
 10
0.0
 20
1.0
 30
0.0
  9
$PUCSORTHOREF
  2

  9
$PUCSORTHOVIEW
 70
     0
  9
$PUCSORGTOP
 10
0.0
 20
0.0
 30
0.0
  9
$PUCSORGBOTTOM
 10
0.0
 20
0.0
 30
0.0
  9
$PUCSORGLEFT
 10
0.0
 20
0.0
 30
0.0
  9
$PUCSORGRIGHT
 10
0.0
 20
0.0
 30
0.0
  9
$PUCSORGFRONT
 10
0.0
 20
0.0
 30
0.0
  9
$PUCSORGBACK
 10
0.0
 20
0.0
 30
0.0
  9
$USERI1
 70
     0
  9
$USERI2
 70
     0
  9
$USERI3
 70
     0
  9
$USERI4
 70
     0
  9
$USERI5
 70
     0
  9
$USERR1
 40
0.0
  9
$USERR2
 40
0.0
  9
$USERR3
 40
0.0
  9
$USERR4
 40
0.0
  9
$USERR5
 40
0.0
  9
$WORLDVIEW
 70
     1
  9
$SHADEDGE
 70
     3
  9
$SHADEDIF
 70
    70
  9
$TILEMODE
 70
     1
  9
$MAXACTVP
 70
    64
  9
$PINSBASE
 10
0.0
 20
0.0
 30
0.0
  9
$PLIMCHECK
 70
     0
  9
$PEXTMIN
 10
1.0000000000E+20
 20
1.0000000000E+20
 30
1.0000000000E+20
  9
$PEXTMAX
 10
-1.0000000000E+20
 20
-1.0000000000E+20
 30
-1.0000000000E+20
  9
$PLIMMIN
 10
0.0
 20
0.0
  9
$PLIMMAX
 10
420.0
 20
297.0
  9
$UNITMODE
 70
     0
  9
$VISRETAIN
 70
     1
  9
$PLINEGEN
 70
     0
  9
$PSLTSCALE
 70
     1
  9
$TREEDEPTH
 70
  3020
  9
$CMLSTYLE
  2
Standard
  9
$CMLJUST
 70
     0
  9
$CMLSCALE
 40
20.0
  9
$PROXYGRAPHICS
 70
     1
  9
$MEASUREMENT
 70
     1
  9
$CELWEIGHT
370
    -1
  9
$ENDCAPS
280
     0
  9
$JOINSTYLE
280
     0
  9
$LWDISPLAY
290
     1
  9
$INSUNITS
 70
     4
  9
$HYPERLINKBASE
  1

  9
$STYLESHEET
  1

  9
$XEDIT
290
     1
  9
$CEPSNTYPE
380
     0
  9
$PSTYLEMODE
290
     1
  9
$FINGERPRINTGUID
  2
{91888BC0-44DF-4EA2-BDA6-160D57D05811}
  9
$VERSIONGUID
  2
{FAEB1C32-E019-11D5-929B-00C0DF256EC4}
  9
$EXTNAMES
290
     1
  9
$PSVPSCALE
 40
0.0
  9
$OLESTARTUP
290
     0
  0
ENDSEC
  0
SECTION
  2
CLASSES
  0
CLASS
  1
ACDBDICTIONARYWDFLT
  2
AcDbDictionaryWithDefault
  3
ObjectDBX Classes
 90
        0
280
     0
281
     0
  0
CLASS
  1
VISUALSTYLE
  2
AcDbVisualStyle
  3
ObjectDBX Classes
 90
     4095
280
     0
281
     0
  0
CLASS
  1
MATERIAL
  2
AcDbMaterial
  3
ObjectDBX Classes
 90
     1153
280
     0
281
     0
  0
CLASS
  1
ACDBPLACEHOLDER
  2
AcDbPlaceHolder
  3
ObjectDBX Classes
 90
        0
280
     0
281
     0
  0
CLASS
  1
LAYOUT
  2
AcDbLayout
  3
ObjectDBX Classes
 90
        0
280
     0
281
     0
  0
ENDSEC
  0
SECTION
  2
TABLES
  0
TABLE
  2
VPORT
  5
8
330
0
100
AcDbSymbolTable
 70
     1
  0
VPORT
  5
29
330
8
100
AcDbSymbolTableRecord
100
AcDbViewportTableRecord
  2
*Active
 70
     0
 10
0.0
 20
0.0
 11
1.0
 21
1.0
 12
148.5
 22
105.0
 13
0.0
 23
0.0
 14
10.0
 24
10.0
 15
10.0
 25
10.0
 16
0.0
 26
0.0
 36
1.0
 17
0.0
 27
0.0
 37
0.0
 40
210.0
 41
1.4142857143
 42
50.0
 43
0.0
 44
0.0
 50
0.0
 51
0.0
 71
     0
 72
  2000
 73
     1
 74
     3
 75
     0
 76
     0
 77
     0
 78
     0
281
     0
 65
     1
110
0.0
120
0.0
130
0.0
111
1.0
121
0.0
131
0.0
112
0.0
122
1.0
132
0.0
 79
     0
146
0.0
  0
ENDTAB
  0
TABLE
  2
LTYPE
  5
5
330
0
100
AcDbSymbolTable
 70
     6
  0
LTYPE
  5
14
330
5
100
AcDbSymbolTableRecord
100
AcDbLinetypeTableRecord
  2
ByBlock
 70
     0
  3

 72
    65
 73
     0
 40
0.0
  0
LTYPE
  5
15
330
5
100
AcDbSymbolTableRecord
100
AcDbLinetypeTableRecord
  2
ByLayer
 70
     0
  3

 72
    65
 73
     0
 40
0.0
  0
LTYPE
  5
16
330
5
100
AcDbSymbolTableRecord
100
AcDbLinetypeTableRecord
  2
Continuous
 70
     0
  3
Solid line
 72
    65
 73
     0
 40
0.0
  0
LTYPE
  5
3F
330
5
100
AcDbSymbolTableRecord
100
AcDbLinetypeTableRecord
  2
HIDDEN
 70
     0
  3
Hidden __ __ __ __ __ __ __ __ __ __ __ __ __ __
 72
    65
 73
     2
 40
1.905
 49
1.27
 74
     0
 49
-0.635
 74
     0
  0
LTYPE
  5
40
330
5
100
AcDbSymbolTableRecord
100
AcDbLinetypeTableRecord
  2
PHANTOM
 70
     0
  3
Phantom ______  __  __  ______  __  __  ______
 72
    65
 73
     6
 40
12.7
 49
6.35
 74
     0
 49
-1.27
 74
     0
 49
1.27
 74
     0
 49
-1.27
 74
     0
 49
1.27
 74
     0
 49
-1.27
 74
     0
  0
LTYPE
  5
41
330
5
100
AcDbSymbolTableRecord
100
AcDbLinetypeTableRecord
  2
CENTER
 70
     0
  3
Center ____ _ ____ _ ____ _ ____ _ ____ _ ____
 72
    65
 73
     4
 40
10.16
 49
6.35
 74
     0
 49
-1.27
 74
     0
 49
1.27
 74
     0
 49
-1.27
 74
     0
  0
LTYPE
  5
42
330
5
100
AcDbSymbolTableRecord
100
AcDbLinetypeTableRecord
  2
CENTERX2
 70
     0
  3
Center (2x) ________  __  ________  __  _____
 72
    65
 73
     4
 40
20.32
 49
12.7
 74
     0
 49
-2.54
 74
     0
 49
2.54
 74
     0
 49
-2.54
 74
     0
  0
LTYPE
  5
43
330
5
100
AcDbSymbolTableRecord
100
AcDbLinetypeTableRecord
  2
DOT2
 70
     0
  3
Dot (.5x) ........................................
 72
    65
 73
     2
 40
0.635
 49
0.0
 74
     0
 49
-0.635
 74
     0
  0
ENDTAB
  0
TABLE
  2
LAYER
  5
2
330
0
100
AcDbSymbolTable
 70
     5
  0
LAYER
  5
10
330
2
100
AcDbSymbolTableRecord
100
AcDbLayerTableRecord
  2
0
 70
     0
 62
     7
  6
Continuous
370
    -3
390
F
  0
LAYER
  5
44
330
2
100
AcDbSymbolTableRecord
100
AcDbLayerTableRecord
  2
FORMAT
 70
     0
 62
     7
  6
Continuous
370
    -3
390
F
  0
LAYER
  5
45
330
2
100
AcDbSymbolTableRecord
100
AcDbLayerTableRecord
  2
VERMASSUNG
 70
     0
 62
     7
  6
Continuous
370
    -3
390
F
  0
LAYER
  5
46
330
2
100
AcDbSymbolTableRecord
100
AcDbLayerTableRecord
  2
KOPF_DÜNN
 70
     0
 62
     7
  6
Continuous
370
    -3
390
F
  0
LAYER
  5
47
330
2
100
AcDbSymbolTableRecord
100
AcDbLayerTableRecord
  2
KOPF_DICK
 70
     0
 62
     7
  6
Continuous
370
    15
390
F
  0
ENDTAB
  0
TABLE
  2
STYLE
  5
3
330
0
100
AcDbSymbolTable
 70
     3
  0
STYLE
  5
11
330
3
100
AcDbSymbolTableRecord
100
AcDbTextStyleTableRecord
  2
Standard
 70
     0
 40
0.0
 41
1.0
 50
0.0
 71
     0
 42
2.0
  3
txt
  4

  0
STYLE
  5
48
330
3
100
AcDbSymbolTableRecord
100
AcDbTextStyleTableRecord
  2
SLDTEXTSTYLE0
 70
     0
 40
0.0
 41
0.7
 50
0.0
 71
     0
 42
0.2
  3
TXT
  4

  0
STYLE
  5
4C
330
3
100
AcDbSymbolTableRecord
100
AcDbTextStyleTableRecord
  2
SLDTEXTSTYLE1
 70
     0
 40
0.0
 41
0.6473684211
 50
0.0
 71
     0
 42
0.2
  3
TXT
  4

  0
ENDTAB
  0
TABLE
  2
VIEW
  5
6
330
0
100
AcDbSymbolTable
 70
     0
  0
ENDTAB
  0
TABLE
  2
UCS
  5
7
330
0
100
AcDbSymbolTable
 70
     0
  0
ENDTAB
  0
TABLE
  2
APPID
  5
9
330
0
100
AcDbSymbolTable
 70
     1
  0
APPID
  5
12
330
9
100
AcDbSymbolTableRecord
100
AcDbRegAppTableRecord
  2
ACAD
 70
     0
  0
ENDTAB
  0
TABLE
  2
DIMSTYLE
  5
A
330
0
100
AcDbSymbolTable
 70
     2
100
AcDbDimStyleTable
  0
DIMSTYLE
105
27
330
A
100
AcDbSymbolTableRecord
100
AcDbDimStyleTableRecord
  2
ISO-25
 70
     0
 41
2.5
 42
0.625
 43
3.75
 44
1.25
 73
     0
 74
     0
 77
     1
 78
     8
140
2.5
141
2.5
143
0.0393700787
147
0.625
171
     3
172
     1
178
     0
271
     2
272
     2
274
     3
278
    44
283
     0
284
     8
340
11
  0
DIMSTYLE
105
14B
102
{ACAD_REACTORS
330
14A
330
156
330
161
330
16B
330
175
330
17F
102
}
330
A
100
AcDbSymbolTableRecord
100
AcDbDimStyleTableRecord
  2
SLDDIMSTYLE0
 70
     0
 41
3.0
 44
0.0
 45
0.000000001
 73
     0
 74
     0
 77
     1
 78
    12
 79
     3
140
2.0
147
0.5
173
     1
178
     0
271
     2
272
     3
276
     2
284
    12
340
48
  0
ENDTAB
  0
TABLE
  2
BLOCK_RECORD
  5
1
330
0
100
AcDbSymbolTable
 70
     7
  0
BLOCK_RECORD
  5
1F
330
1
100
AcDbSymbolTableRecord
100
AcDbBlockTableRecord
  2
*Model_Space
340
22
  0
BLOCK_RECORD
  5
1B
330
1
100
AcDbSymbolTableRecord
100
AcDbBlockTableRecord
  2
*Paper_Space
340
1E
  0
BLOCK_RECORD
  5
23
330
1
100
AcDbSymbolTableRecord
100
AcDbBlockTableRecord
  2
*Paper_Space0
340
26
  0
BLOCK_RECORD
  5
14C
330
1
100
AcDbSymbolTableRecord
100
AcDbBlockTableRecord
  2
_D
340
0
  0
BLOCK_RECORD
  5
157
330
1
100
AcDbSymbolTableRecord
100
AcDbBlockTableRecord
  2
_D_1
340
0
  0
BLOCK_RECORD
  5
162
330
1
100
AcDbSymbolTableRecord
100
AcDbBlockTableRecord
  2
_D_2
340
0
  0
BLOCK_RECORD
  5
16C
330
1
100
AcDbSymbolTableRecord
100
AcDbBlockTableRecord
  2
_D_3
340
0
  0
BLOCK_RECORD
  5
176
330
1
100
AcDbSymbolTableRecord
100
AcDbBlockTableRecord
  2
_D_4
340
0
  0
BLOCK_RECORD
  5
180
330
1
100
AcDbSymbolTableRecord
100
AcDbBlockTableRecord
  2
_D_5
340
0
  0
ENDTAB
  0
ENDSEC
  0
SECTION
  2
BLOCKS
  0
BLOCK
  5
20
330
1F
100
AcDbEntity
  8
0
100
AcDbBlockBegin
  2
*Model_Space
 70
     0
 10
0.0
 20
0.0
 30
0.0
  3
*Model_Space
  1

  0
ENDBLK
  5
21
330
1F
100
AcDbEntity
  8
0
100
AcDbBlockEnd
  0
BLOCK
  5
1C
330
1B
100
AcDbEntity
 67
     1
  8
0
100
AcDbBlockBegin
  2
*Paper_Space
 70
     0
 10
0.0
 20
0.0
 30
0.0
  3
*Paper_Space
  1

  0
ENDBLK
  5
1D
330
1B
100
AcDbEntity
 67
     1
  8
0
100
AcDbBlockEnd
  0
BLOCK
  5
24
330
23
100
AcDbEntity
  8
0
100
AcDbBlockBegin
  2
*Paper_Space0
 70
     0
 10
0.0
 20
0.0
 30
0.0
  3
*Paper_Space0
  1

  0
ENDBLK
  5
25
330
23
100
AcDbEntity
  8
0
100
AcDbBlockEnd
  0
BLOCK
  5
14D
330
14C
100
AcDbEntity
  8
0
100
AcDbBlockBegin
  2
_D
 70
     0
 10
0.0
 20
0.0
 30
0.0
  3
_D
  1

  0
SOLID
  5
14F
330
14C
100
AcDbEntity
  8
VERMASSUNG
100
AcDbTrace
 10
242.5395533296
 20
118.8291440953
 30
0.0
 11
242.0895533296
 21
115.8291440953
 31
0.0
 12
242.9895533296
 22
115.8291440953
 32
0.0
 13
242.9895533296
 23
115.8291440953
 33
0.0
  0
SOLID
  5
150
330
14C
100
AcDbEntity
  8
VERMASSUNG
100
AcDbTrace
 10
242.5395533296
 20
98.8291440953
 30
0.0
 11
242.9895533296
 21
101.8291440953
 31
0.0
 12
242.0895533296
 22
101.8291440953
 32
0.0
 13
242.0895533296
 23
101.8291440953
 33
0.0
  0
LINE
  5
151
330
14C
100
AcDbEntity
  8
VERMASSUNG
100
AcDbLine
 10
232.2395533296
 20
118.8291440953
 30
0.0
 11
243.5395533296
 21
118.8291440953
 31
0.0
  0
LINE
  5
152
330
14C
100
AcDbEntity
  8
VERMASSUNG
100
AcDbLine
 10
232.2395533296
 20
98.8291440953
 30
0.0
 11
243.5395533296
 21
98.8291440953
 31
0.0
  0
LINE
  5
153
330
14C
100
AcDbEntity
  8
VERMASSUNG
100
AcDbLine
 10
242.5395533296
 20
118.8291440953
 30
0.0
 11
242.5395533296
 21
98.8291440953
 31
0.0
  0
MTEXT
  5
154
330
14C
100
AcDbEntity
  8
VERMASSUNG
100
AcDbMText
 10
239.9614178501
 20
105.6247773466
 30
0.0
 40
2.0
 41
0.0
 71
     1
 72
     1
  1
%%c
  7
SLDTEXTSTYLE0
 11
-7.044195017643634E-15
 21
1.0
 31
0.0
 73
     1
 44
1.0
  0
MTEXT
  5
155
330
14C
100
AcDbEntity
  8
VERMASSUNG
100
AcDbMText
 10
239.9614179665
 20
109.2344058224
 30
0.0
 40
2.0
 41
0.0
 71
     1
 72
     1
  1
20
  7
SLDTEXTSTYLE0
 11
-7.044195017643634E-15
 21
1.0
 31
0.0
 73
     1
 44
1.0
  0
ENDBLK
  5
14E
330
14C
100
AcDbEntity
  8
0
100
AcDbBlockEnd
  0
BLOCK
  5
158
330
157
100
AcDbEntity
  8
0
100
AcDbBlockBegin
  2
_D_1
 70
     0
 10
0.0
 20
0.0
 30
0.0
  3
_D_1
  1

  0
SOLID
  5
15A
330
157
100
AcDbEntity
  8
VERMASSUNG
100
AcDbTrace
 10
248.5395533296
 20
134.8291440953
 30
0.0
 11
248.0895533296
 21
131.8291440953
 31
0.0
 12
248.9895533296
 22
131.8291440953
 32
0.0
 13
248.9895533296
 23
131.8291440953
 33
0.0
  0
SOLID
  5
15B
330
157
100
AcDbEntity
  8
VERMASSUNG
100
AcDbTrace
 10
248.5395533296
 20
82.8291440953
 30
0.0
 11
248.9895533296
 21
85.8291440953
 31
0.0
 12
248.0895533296
 22
85.8291440953
 32
0.0
 13
248.0895533296
 23
85.8291440953
 33
0.0
  0
LINE
  5
15C
330
157
100
AcDbEntity
  8
VERMASSUNG
100
AcDbLine
 10
219.6725118066
 20
134.8291440953
 30
0.0
 11
249.5395533296
 21
134.8291440953
 31
0.0
  0
LINE
  5
15D
330
157
100
AcDbEntity
  8
VERMASSUNG
100
AcDbLine
 10
219.6725118066
 20
82.8291440953
 30
0.0
 11
249.5395533296
 21
82.8291440953
 31
0.0
  0
LINE
  5
15E
330
157
100
AcDbEntity
  8
VERMASSUNG
100
AcDbLine
 10
248.5395533296
 20
134.8291440953
 30
0.0
 11
248.5395533296
 21
82.8291440953
 31
0.0
  0
MTEXT
  5
15F
330
157
100
AcDbEntity
  8
VERMASSUNG
100
AcDbMText
 10
245.9614178501
 20
105.6247773466
 30
0.0
 40
2.0
 41
0.0
 71
     1
 72
     1
  1
%%c
  7
SLDTEXTSTYLE0
 11
-7.044195017643634E-15
 21
1.0
 31
0.0
 73
     1
 44
1.0
  0
MTEXT
  5
160
330
157
100
AcDbEntity
  8
VERMASSUNG
100
AcDbMText
 10
245.9614179665
 20
109.2344058224
 30
0.0
 40
2.0
 41
0.0
 71
     1
 72
     1
  1
52
  7
SLDTEXTSTYLE0
 11
-7.044195017643634E-15
 21
1.0
 31
0.0
 73
     1
 44
1.0
  0
ENDBLK
  5
159
330
157
100
AcDbEntity
  8
0
100
AcDbBlockEnd
  0
BLOCK
  5
163
330
162
100
AcDbEntity
  8
0
100
AcDbBlockBegin
  2
_D_2
 70
     0
 10
0.0
 20
0.0
 30
0.0
  3
_D_2
  1

  0
SOLID
  5
165
330
162
100
AcDbEntity
  8
VERMASSUNG
100
AcDbTrace
 10
128.4895533296
 20
143.1754062839
 30
0.0
 11
131.4895533296
 21
142.7254062839
 31
0.0
 12
131.4895533296
 22
143.6254062839
 32
0.0
 13
131.4895533296
 23
143.6254062839
 33
0.0
  0
SOLID
  5
166
330
162
100
AcDbEntity
  8
VERMASSUNG
100
AcDbTrace
 10
232.5395533296
 20
143.1754062839
 30
0.0
 11
229.5395533296
 21
143.6254062839
 31
0.0
 12
229.5395533296
 22
142.7254062839
 32
0.0
 13
229.5395533296
 23
142.7254062839
 33
0.0
  0
LINE
  5
167
330
162
100
AcDbEntity
  8
VERMASSUNG
100
AcDbLine
 10
128.4895533296
 20
138.6755844191
 30
0.0
 11
128.4895533296
 21
144.1754062839
 31
0.0
  0
LINE
  5
168
330
162
100
AcDbEntity
  8
VERMASSUNG
100
AcDbLine
 10
232.5395533296
 20
127.5550035737
 30
0.0
 11
232.5395533296
 21
144.1754062839
 31
0.0
  0
LINE
  5
169
330
162
100
AcDbEntity
  8
VERMASSUNG
100
AcDbLine
 10
128.4895533296
 20
143.1754062839
 30
0.0
 11
232.5395533296
 21
143.1754062839
 31
0.0
  0
MTEXT
  5
16A
330
162
100
AcDbEntity
  8
VERMASSUNG
100
AcDbMText
 10
176.8148666922
 20
145.753541647
 30
0.0
 40
2.0
 41
0.0
 71
     1
 72
     1
  1
104.05
  7
SLDTEXTSTYLE0
 73
     1
 44
1.0
  0
ENDBLK
  5
164
330
162
100
AcDbEntity
  8
0
100
AcDbBlockEnd
  0
BLOCK
  5
16D
330
16C
100
AcDbEntity
  8
0
100
AcDbBlockBegin
  2
_D_3
 70
     0
 10
0.0
 20
0.0
 30
0.0
  3
_D_3
  1

  0
SOLID
  5
16F
330
16C
100
AcDbEntity
  8
VERMASSUNG
100
AcDbTrace
 10
102.5395533296
 20
149.1754062839
 30
0.0
 11
105.5395533296
 21
148.7254062839
 31
0.0
 12
105.5395533296
 22
149.6254062839
 32
0.0
 13
105.5395533296
 23
149.6254062839
 33
0.0
  0
SOLID
  5
170
330
16C
100
AcDbEntity
  8
VERMASSUNG
100
AcDbTrace
 10
232.5395533296
 20
149.1754062839
 30
0.0
 11
229.5395533296
 21
149.6254062839
 31
0.0
 12
229.5395533296
 22
148.7254062839
 32
0.0
 13
229.5395533296
 23
148.7254062839
 33
0.0
  0
LINE
  5
171
330
16C
100
AcDbEntity
  8
VERMASSUNG
100
AcDbLine
 10
102.5395533296
 20
140.0291440953
 30
0.0
 11
102.5395533296
 21
150.1754062839
 31
0.0
  0
LINE
  5
172
330
16C
100
AcDbEntity
  8
VERMASSUNG
100
AcDbLine
 10
232.5395533296
 20
127.5550035737
 30
0.0
 11
232.5395533296
 21
150.1754062839
 31
0.0
  0
LINE
  5
173
330
16C
100
AcDbEntity
  8
VERMASSUNG
100
AcDbLine
 10
102.5395533296
 20
149.1754062839
 30
0.0
 11
232.5395533296
 21
149.1754062839
 31
0.0
  0
MTEXT
  5
174
330
16C
100
AcDbEntity
  8
VERMASSUNG
100
AcDbMText
 10
165.6398129214
 20
151.753541647
 30
0.0
 40
2.0
 41
0.0
 71
     1
 72
     1
  1
130
  7
SLDTEXTSTYLE0
 73
     1
 44
1.0
  0
ENDBLK
  5
16E
330
16C
100
AcDbEntity
  8
0
100
AcDbBlockEnd
  0
BLOCK
  5
177
330
176
100
AcDbEntity
  8
0
100
AcDbBlockBegin
  2
_D_4
 70
     0
 10
0.0
 20
0.0
 30
0.0
  3
_D_4
  1

  0
SOLID
  5
179
330
176
100
AcDbEntity
  8
VERMASSUNG
100
AcDbTrace
 10
70.6395533296
 20
155.1754062839
 30
0.0
 11
73.6395533296
 21
154.7254062839
 31
0.0
 12
73.6395533296
 22
155.6254062839
 32
0.0
 13
73.6395533296
 23
155.6254062839
 33
0.0
  0
SOLID
  5
17A
330
176
100
AcDbEntity
  8
VERMASSUNG
100
AcDbTrace
 10
232.5395533296
 20
155.1754062839
 30
0.0
 11
229.5395533296
 21
155.6254062839
 31
0.0
 12
229.5395533296
 22
154.7254062839
 32
0.0
 13
229.5395533296
 23
154.7254062839
 33
0.0
  0
LINE
  5
17B
330
176
100
AcDbEntity
  8
VERMASSUNG
100
AcDbLine
 10
70.6395533296
 20
128.5198218418
 30
0.0
 11
70.6395533296
 21
156.1754062839
 31
0.0
  0
LINE
  5
17C
330
176
100
AcDbEntity
  8
VERMASSUNG
100
AcDbLine
 10
232.5395533296
 20
127.5550035737
 30
0.0
 11
232.5395533296
 21
156.1754062839
 31
0.0
  0
LINE
  5
17D
330
176
100
AcDbEntity
  8
VERMASSUNG
100
AcDbLine
 10
70.6395533296
 20
155.1754062839
 30
0.0
 11
232.5395533296
 21
155.1754062839
 31
0.0
  0
MTEXT
  5
17E
330
176
100
AcDbEntity
  8
VERMASSUNG
100
AcDbMText
 10
148.8902424869
 20
157.753541647
 30
0.0
 40
2.0
 41
0.0
 71
     1
 72
     1
  1
161.9
  7
SLDTEXTSTYLE0
 73
     1
 44
1.0
  0
ENDBLK
  5
178
330
176
100
AcDbEntity
  8
0
100
AcDbBlockEnd
  0
BLOCK
  5
181
330
180
100
AcDbEntity
  8
0
100
AcDbBlockBegin
  2
_D_5
 70
     0
 10
0.0
 20
0.0
 30
0.0
  3
_D_5
  1

  0
SOLID
  5
183
330
180
100
AcDbEntity
  8
VERMASSUNG
100
AcDbTrace
 10
65.1871072589
 20
140.3291440953
 30
0.0
 11
64.7371072589
 21
137.3291440953
 31
0.0
 12
65.6371072589
 22
137.3291440953
 32
0.0
 13
65.6371072589
 23
137.3291440953
 33
0.0
  0
SOLID
  5
184
330
180
100
AcDbEntity
  8
VERMASSUNG
100
AcDbTrace
 10
65.1871072589
 20
77.3291440953
 30
0.0
 11
65.6371072589
 21
80.3291440953
 31
0.0
 12
64.7371072589
 22
80.3291440953
 32
0.0
 13
64.7371072589
 23
80.3291440953
 33
0.0
  0
LINE
  5
185
330
180
100
AcDbEntity
  8
VERMASSUNG
100
AcDbLine
 10
102.8395533296
 20
140.3291440953
 30
0.0
 11
64.1871072589
 21
140.3291440953
 31
0.0
  0
LINE
  5
186
330
180
100
AcDbEntity
  8
VERMASSUNG
100
AcDbLine
 10
102.8395533296
 20
77.3291440953
 30
0.0
 11
64.1871072589
 21
77.3291440953
 31
0.0
  0
LINE
  5
187
330
180
100
AcDbEntity
  8
VERMASSUNG
100
AcDbLine
 10
65.1871072589
 20
140.3291440953
 30
0.0
 11
65.1871072589
 21
77.3291440953
 31
0.0
  0
MTEXT
  5
188
330
180
100
AcDbEntity
  8
VERMASSUNG
100
AcDbMText
 10
62.4089717699
 20
101.1255202747
 30
0.0
 40
2.0
 41
0.0
 71
     1
 72
     1
  1
HSK A
  7
SLDTEXTSTYLE0
 11
-7.044195017643634E-15
 21
1.0
 31
0.0
 73
     1
 44
1.0
  0
MTEXT
  5
189
330
180
100
AcDbEntity
  8
VERMASSUNG
100
AcDbMText
 10
62.6089717794
 20
110.1255208186
 30
0.0
 40
2.0
 41
0.0
 71
     1
 72
     1
  1
%%c
  7
SLDTEXTSTYLE0
 11
-7.044195017643634E-15
 21
1.0
 31
0.0
 73
     1
 44
1.0
  0
MTEXT
  5
18A
330
180
100
AcDbEntity
  8
VERMASSUNG
100
AcDbMText
 10
62.6089718958
 20
113.7336628943
 30
0.0
 40
2.0
 41
0.0
 71
     1
 72
     1
  1
63
  7
SLDTEXTSTYLE0
 11
-7.044195017643634E-15
 21
1.0
 31
0.0
 73
     1
 44
1.0
  0
ENDBLK
  5
182
330
180
100
AcDbEntity
  8
0
100
AcDbBlockEnd
  0
ENDSEC
  0
SECTION
  2
ENTITIES
  0
MTEXT
  5
49
330
1F
100
AcDbEntity
  8
KOPF_DÜNN
100
AcDbMText
 10
13.8892156294
 20
23.8442973028
 30
0.0
 40
3.0
 41
0.0
 71
     1
 72
     1
  1
HA6.W20.K01.130
  7
SLDTEXTSTYLE0
 73
     1
 44
1.0
  0
MTEXT
  5
4A
330
1F
100
AcDbEntity
  8
VERMASSUNG
100
AcDbMText
 10
13.9329988022
 20
28.8834360957
 30
0.0
 40
3.0
 41
0.0
 71
     1
 72
     1
  1
Flächenspannfutter_End mill adapter Weldon ø20
  7
SLDTEXTSTYLE0
 73
     1
 44
1.0
  0
MTEXT
  5
4B
330
1F
100
AcDbEntity
  8
VERMASSUNG
100
AcDbMText
 10
98.8601118557
 20
13.8365368179
 30
0.0
 40
2.0
 41
0.0
 71
     1
 72
     1
  1
Datum: 20.04.2011
  7
SLDTEXTSTYLE0
 73
     1
 44
1.0
  0
MTEXT
  5
4D
330
1F
100
AcDbEntity
  8
VERMASSUNG
100
AcDbMText
 10
13.933048693
 20
18.0482802738
 30
0.0
 40
2.0
 41
0.0
 71
     1
 72
     1
  1
DIN 69 893 HSK A 63
  7
SLDTEXTSTYLE1
 73
     1
 44
1.0
  0
MTEXT
  5
4E
330
1F
100
AcDbEntity
  8
VERMASSUNG
100
AcDbMText
 10
13.9808475933
 20
13.9090973692
 30
0.0
 40
2.0
 41
0.0
 71
     1
 72
     1
  1
Gewicht: 2166g
  7
SLDTEXTSTYLE0
 73
     1
 44
1.0
  0
ARC
  5
4F
330
1F
100
AcDbEntity
  8
0
  6
Continuous
 62
     7
370
    15
100
AcDbCircle
 10
102.8395533296
 20
77.6291440953
 30
0.0
 40
0.3000000000000114
100
AcDbArc
 50
180.0
 51
270.0
  0
ARC
  5
50
330
1F
100
AcDbEntity
  8
0
  6
Continuous
 62
     7
370
    15
100
AcDbCircle
 10
102.8395533296
 20
140.0291440953
 30
0.0
 40
0.3000000000000398
100
AcDbArc
 50
90.0
 51
180.0
  0
LINE
  5
51
330
1F
100
AcDbEntity
  8
0
  6
Continuous
 62
     7
370
    15
100
AcDbLine
 10
102.8395533296
 20
77.3291440953
 30
0.0
 11
107.4895533296
 21
77.3291440953
 31
0.0
  0
LINE
  5
52
330
1F
100
AcDbEntity
  8
0
  6
Continuous
 62
     7
370
    15
100
AcDbLine
 10
107.5175416887
 20
140.3291440953
 30
0.0
 11
102.8395533296
 21
140.3291440953
 31
0.0
  0
ARC
  5
53
330
1F
100
AcDbEntity
  8
0
  6
Continuous
 62
     7
370
    15
100
AcDbCircle
 10
128.9895533296
 20
82.3291440953
 30
0.0
 40
0.5
100
AcDbArc
 50
90.0
 51
180.0
  0
ARC
  5
54
330
1F
100
AcDbEntity
  8
0
  6
Continuous
 62
     7
370
    15
100
AcDbCircle
 10
128.9895533296
 20
135.3291440953
 30
0.0
 40
0.5
100
AcDbArc
 50
180.0
 51
270.0
  0
LINE
  5
55
330
1F
100
AcDbEntity
  8
0
  6
Continuous
 62
     7
370
    15
100
AcDbLine
 10
128.9895533296
 20
82.8291440953
 30
0.0
 11
219.6725118066
 21
82.8291440953
 31
0.0
  0
LINE
  5
56
330
1F
100
AcDbEntity
  8
0
  6
Continuous
 62
     7
370
    15
100
AcDbLine
 10
219.6725118066
 20
134.8291440953
 30
0.0
 11
128.9895533296
 21
134.8291440953
 31
0.0
  0
LINE
  5
57
330
1F
100
AcDbEntity
  8
0
  6
Continuous
 62
     7
370
    15
100
AcDbLine
 10
219.6725118066
 20
82.8291440953
 30
0.0
 11
231.3847898531
 21
88.2906690429
 31
0.0
  0
LINE
  5
58
330
1F
100
AcDbEntity
  8
0
  6
Continuous
 62
     7
370
    15
100
AcDbLine
 10
231.3847898531
 20
129.3676191478
 30
0.0
 11
219.6725118066
 21
134.8291440953
 31
0.0
  0
ARC
  5
59
330
1F
100
AcDbEntity
  8
0
  6
Continuous
 62
     7
370
    15
100
AcDbCircle
 10
102.039546577
 20
84.258706481
 30
0.0
 40
0.6000067526677242
100
AcDbArc
 50
33.5571153394
 51
90.0
  0
ARC
  5
5A
330
1F
100
AcDbEntity
  8
0
  6
Continuous
 62
     7
370
    15
100
AcDbCircle
 10
102.039546577
 20
133.3995817097
 30
0.0
 40
0.6000067526677045
100
AcDbArc
 50
270.0
 51
326.4428846606
  0
LINE
  5
5B
330
1F
100
AcDbEntity
  8
0
  6
Continuous
 62
     7
370
    15
100
AcDbLine
 10
89.3091311471
 20
132.4869285551
 30
0.0
 11
76.7395533296
 21
131.8571901875
 31
0.0
  0
LINE
  5
5C
330
1F
100
AcDbEntity
  8
0
  6
Continuous
 62
     7
370
    15
100
AcDbLine
 10
100.5395533296
 20
133.0495749571
 30
0.0
 11
97.7209439721
 21
132.9083620634
 31
0.0
  0
LINE
  5
5D
330
1F
100
AcDbEntity
  8
0
  6
Continuous
 62
     7
370
    15
100
AcDbLine
 10
97.7211654473
 20
84.7499150313
 30
0.0
 11
100.5395533296
 21
84.6087132336
 31
0.0
  0
LINE
  5
5E
330
1F
100
AcDbEntity
  8
0
  6
Continuous
 62
     7
370
    15
100
AcDbLine
 10
80.7395533296
 20
85.6006972016
 30
0.0
 11
89.3098300988
 21
85.1713246179
 31
0.0
  0
LINE
  5
5F
330
1F
100
AcDbEntity
  8
0
  6
Continuous
 62
     7
370
    15
100
AcDbLine
 10
100.5395533296
 20
84.6087132336
 30
0.0
 11
101.396266103
 21
84.8382687294
 31
0.0
  0
LINE
  5
60
330
1F
100
AcDbEntity
  8
0
  6
Continuous
 62
     7
370
    15
100
AcDbLine
 10
101.396266103
 20
132.8200194613
 30
0.0
 11
100.5395533296
 21
133.0495749571
 31
0.0
  0
ARC
  5
61
330
1F
100
AcDbEntity
  8
0
  6
Continuous
 62
     7
370
    15
100
AcDbCircle
 10
101.5515575301
 20
84.2587132336
 30
0.0
 40
0.6000000000000109
100
AcDbArc
 50
90.0
 51
105.0
  0
ARC
  5
62
330
1F
100
AcDbEntity
  8
0
  6
Continuous
 62
     7
370
    15
100
AcDbCircle
 10
101.5515575301
 20
133.3995749571
 30
0.0
 40
0.5999999999999971
100
AcDbArc
 50
255.0
 51
270.0
  0
LINE
  5
63
330
1F
100
AcDbEntity
  8
0
  6
Continuous
 62
     7
370
    15
100
AcDbLine
 10
101.5515575301
 20
84.8587132336
 30
0.0
 11
102.039546577
 21
84.8587132336
 31
0.0
  0
LINE
  5
64
330
1F
100
AcDbEntity
  8
0
  6
Continuous
 62
     7
370
    15
100
AcDbLine
 10
102.039546577
 20
132.7995749571
 30
0.0
 11
101.5515575301
 21
132.7995749571
 31
0.0
  0
ARC
  5
65
330
1F
100
AcDbEntity
  8
0
  6
Continuous
 62
     7
370
    15
100
AcDbCircle
 10
230.5395533296
 20
90.103284617
 30
0.0
 40
2.000000000000013
100
AcDbArc
 50
295.0
 51
0.0
  0
ARC
  5
66
330
1F
100
AcDbEntity
  8
0
  6
Continuous
 62
     7
370
    15
100
AcDbCircle
 10
230.5395533296
 20
127.5550035737
 30
0.0
 40
2.000000000000013
100
AcDbArc
 50
0.0
 51
65.0
  0
LINE
  5
67
330
1F
100
AcDbEntity
  8
0
  6
Continuous
 62
     7
370
    15
100
AcDbLine
 10
71.9228899696
 20
87.9591440953
 30
0.0
 11
79.3395533296
 21
87.9591440953
 31
0.0
  0
ARC
  5
68
330
1F
100
AcDbEntity
  8
0
  6
Continuous
 62
     7
370
    15
100
AcDbCircle
 10
79.3395533296
 20
86.5591440953
 30
0.0
 40
1.399999999999997
100
AcDbArc
 50
42.2465410162
 51
90.0
  0
LINE
  5
69
330
1F
100
AcDbEntity
  8
0
  6
Continuous
 62
     7
370
    15
100
AcDbLine
 10
70.6405858238
 20
89.1081116012
 30
0.0
 11
71.7807167878
 21
87.9679806372
 31
0.0
  0
LINE
  5
6A
330
1F
100
AcDbEntity
  8
0
  6
Continuous
 62
     7
370
    15
100
AcDbLine
 10
71.7807167878
 20
129.6903075535
 30
0.0
 11
70.649454103
 21
128.5590448687
 31
0.0
  0
ARC
  5
6B
330
1F
100
AcDbEntity
  8
0
  6
Continuous
 62
     7
370
    15
100
AcDbCircle
 10
75.3395533296
 20
131.0991440953
 30
0.0
 40
1.400000000000034
100
AcDbArc
 50
270.0
 51
301.7485287426
  0
LINE
  5
6C
330
1F
100
AcDbEntity
  8
0
  6
Continuous
 62
     7
370
    15
100
AcDbLine
 10
75.3395533296
 20
129.6991440953
 30
0.0
 11
71.9138190635
 21
129.6991440953
 31
0.0
  0
LINE
  5
6D
330
1F
100
AcDbEntity
  8
0
  6
Continuous
 62
     7
370
    15
100
AcDbLine
 10
206.2518864242
 20
104.5703202708
 30
0.0
 11
203.4574702546
 21
108.2478971367
 31
0.0
  0
LINE
  5
6E
330
1F
100
AcDbEntity
  8
0
  6
Continuous
 62
     7
370
    15
100
AcDbLine
 10
210.8339694992
 20
105.1515672294
 30
0.0
 11
206.2518864242
 21
104.5703202708
 31
0.0
  0
LINE
  5
6F
330
1F
100
AcDbEntity
  8
0
  6
Continuous
 62
     7
370
    15
100
AcDbLine
 10
210.8339694992
 20
105.1515672294
 30
0.0
 11
212.6216364046
 21
109.410391054
 31
0.0
  0
LINE
  5
70
330
1F
100
AcDbEntity
  8
0
  6
Continuous
 62
     7
370
    15
100
AcDbLine
 10
209.8272202351
 20
113.0879679199
 30
0.0
 11
212.6216364046
 21
109.410391054
 31
0.0
  0
LINE
  5
71
330
1F
100
AcDbEntity
  8
0
  6
Continuous
 62
     7
370
    15
100
AcDbLine
 10
209.8272202351
 20
113.0879679199
 30
0.0
 11
205.2451371601
 21
112.5067209612
 31
0.0
  0
ARC
  5
72
330
1F
100
AcDbEntity
  8
0
  6
Continuous
 62
     7
370
    15
100
AcDbCircle
 10
208.0395533296
 20
108.8291440953
 30
0.0
 40
6.999999999999996
100
AcDbArc
 50
7.2294785656
 51
119.6094583666
  0
ARC
  5
73
330
1F
100
AcDbEntity
  8
0
  6
Continuous
 62
     7
370
    15
100
AcDbCircle
 10
208.0395533296
 20
108.8291440953
 30
0.0
 40
7.000000000000003
100
AcDbArc
 50
240.4538608566
 51
299.5498127807
  0
LINE
  5
74
330
1F
100
AcDbEntity
  8
0
  6
Continuous
 62
     7
370
    15
100
AcDbLine
 10
215.0385760838
 20
108.9461077086
 30
0.0
 11
214.9839039338
 21
109.7100497014
 31
0.0
  0
LINE
  5
75
330
1F
100
AcDbEntity
  8
0
  6
Continuous
 62
     7
370
    15
100
AcDbLine
 10
205.2451371601
 20
112.5067209612
 30
0.0
 11
203.4574702546
 21
108.2478971367
 31
0.0
  0
LINE
  5
76
330
1F
100
AcDbEntity
  8
0
  6
Continuous
 62
     7
370
    15
100
AcDbLine
 10
102.5395533296
 20
77.6291440953
 30
0.0
 11
102.5395533296
 21
140.0291440919
 31
0.0
  0
LINE
  5
77
330
1F
100
AcDbEntity
  8
0
  6
Continuous
 62
     7
370
    15
100
AcDbLine
 10
118.6295533296
 20
81.3313069363
 30
0.0
 11
118.6295533296
 21
128.6791440953
 31
0.0
  0
SPLINE
  5
78
330
1F
100
AcDbEntity
  8
0
  6
Continuous
 62
     7
370
    15
100
AcDbSpline
210
0.0
220
0.0
230
1.0
 70
     8
 71
     3
 72
     8
 73
     4
 74
     0
 42
0.00000001
 43
0.00000001
 12
1.0
 22
0.0
 32
0.0
 13
1.0
 23
0.0
 33
0.0
 40
0.0
 40
0.0
 40
0.0
 40
0.0
 40
1.0
 40
1.0
 40
1.0
 40
1.0
 10
118.6295533296214
 20
81.33130693628642
 30
0.0
 10
118.1372142068402
 20
80.43403690207973
 30
0.0
 10
117.6431001587981
 20
79.53775248702748
 30
0.0
 10
117.1476204981324
 20
78.64222639909413
 30
0.0
  0
LINE
  5
79
330
1F
100
AcDbEntity
  8
0
  6
Continuous
 62
     7
370
    15
100
AcDbLine
 10
117.1476204981
 20
78.6422263991
 30
0.0
 11
117.1476204981
 21
128.6791440953
 31
0.0
  0
SPLINE
  5
7A
330
1F
100
AcDbEntity
  8
0
  6
Continuous
 62
     7
370
    15
100
AcDbSpline
210
0.0
220
0.0
230
1.0
 70
    24
 71
     3
 72
     8
 73
     4
 74
     0
 42
0.00000001
 43
0.00000001
 12
1.0
 22
0.0
 32
0.0
 13
1.0
 23
0.0
 33
0.0
 40
0.0
 40
0.0
 40
0.0
 40
0.0
 40
1.0
 40
1.0
 40
1.0
 40
1.0
 10
117.1476204981324
 20
128.6791440953413
 30
0.0
 10
117.6543006062829
 20
128.6791440953413
 30
0.0
 10
118.1496013352565
 20
128.6791440953413
 30
0.0
 10
118.6295533296214
 20
128.6791440953413
 30
0.0
  0
LINE
  5
7B
330
1F
100
AcDbEntity
  8
0
  6
Continuous
 62
     7
370
    15
100
AcDbLine
 10
127.8895533296
 20
78.6422263991
 30
0.0
 11
123.9314861611
 21
78.6422263991
 31
0.0
  0
LINE
  5
7C
330
1F
100
AcDbEntity
  8
0
  6
Continuous
 62
     7
370
    15
100
AcDbLine
 10
123.9314861611
 20
78.6422263991
 30
0.0
 11
123.9314861611
 21
128.6791440953
 31
0.0
  0
LINE
  5
7D
330
1F
100
AcDbEntity
  8
0
  6
Continuous
 62
     7
370
    15
100
AcDbLine
 10
123.9314861611
 20
128.6791440953
 30
0.0
 11
127.8895533296
 21
128.6791440953
 31
0.0
  0
LINE
  5
7E
330
1F
100
AcDbEntity
  8
0
  6
Continuous
 62
     7
370
    15
100
AcDbLine
 10
107.4895533296
 20
128.6791440953
 30
0.0
 11
117.1476204981
 21
128.6791440953
 31
0.0
  0
LINE
  5
7F
330
1F
100
AcDbEntity
  8
0
  6
Continuous
 62
     7
370
    15
100
AcDbLine
 10
117.1476204981
 20
78.6422263991
 30
0.0
 11
115.4895533296
 21
78.6422263991
 31
0.0
  0
SPLINE
  5
80
330
1F
100
AcDbEntity
  8
0
  6
Continuous
 62
     7
370
    15
100
AcDbSpline
210
0.0
220
0.0
230
1.0
 70
     8
 71
     3
 72
    28
 73
    24
 74
     0
 42
0.00000001
 43
0.00000001
 12
1.0
 22
0.0
 32
0.0
 13
1.0
 23
0.0
 33
0.0
 40
0.0
 40
0.0
 40
0.0
 40
0.0
 40
0.1250000000000001
 40
0.1250000000000001
 40
0.1875000000000001
 40
0.1875000000000001
 40
0.2500000000000001
 40
0.2500000000000001
 40
0.3749999999999999
 40
0.3749999999999999
 40
0.4375
 40
0.4375
 40
0.4999999999999999
 40
0.4999999999999999
 40
0.6249999999999999
 40
0.6249999999999999
 40
0.7499999999999997
 40
0.7499999999999997
 40
0.8124999999999998
 40
0.8124999999999998
 40
0.8749999999999998
 40
0.8749999999999998
 40
1.0
 40
1.0
 40
1.0
 40
1.0
 10
115.4895533296214
 20
78.64222639909413
 30
0.0
 10
114.9578455721285
 20
78.64222639909413
 30
0.0
 10
114.4356070068181
 20
78.62644168514392
 30
0.0
 10
113.6657365205431
 20
78.58144627106772
 30
0.0
 10
113.4113769483518
 20
78.56289127599197
 30
0.0
 10
112.9072553676533
 20
78.51903855354547
 30
0.0
 10
112.6575325502254
 20
78.49369394659328
 30
0.0
 10
111.931942598779
 20
78.41029186884319
 30
0.0
 10
111.4735823371974
 20
78.3444263096921
 30
0.0
 10
110.8230843938035
 20
78.2354559692003
 30
0.0
 10
110.6114023430111
 20
78.19721633343366
 30
0.0
 10
110.2073308538731
 20
78.1194575960143
 30
0.0
 10
110.0148243400522
 20
78.07995663383893
 30
0.0
 10
109.4649893690309
 20
77.96104889147294
 30
0.0
 10
109.1350605907221
 20
77.88123121004834
 30
0.0
 10
108.5505893221534
 20
77.72788804825227
 30
0.0
 10
108.30431218414
 20
77.65655429498302
 30
0.0
 10
108.0044693914419
 20
77.5626107879084
 30
0.0
 10
107.9160125343698
 20
77.53341699454846
 30
0.0
 10
107.7626511810646
 20
77.47995042028505
 30
0.0
 10
107.6975629668384
 20
77.45559108600987
 30
0.0
 10
107.5419689508976
 20
77.39200094056514
 30
0.0
 10
107.4895533296214
 20
77.36189800547588
 30
0.0
 10
107.4895533296214
 20
77.34502111247896
 30
0.0
  0
LINE
  5
81
330
1F
100
AcDbEntity
  8
0
  6
Continuous
 62
     7
370
    15
100
AcDbLine
 10
107.4895533296
 20
77.3450211125
 30
0.0
 11
107.4895533296
 21
77.3291440953
 31
0.0
  0
SPLINE
  5
82
330
1F
100
AcDbEntity
  8
0
  6
Continuous
 62
     7
370
    15
100
AcDbSpline
210
0.0
220
0.0
230
1.0
 70
     8
 71
     3
 72
    17
 73
    13
 74
     0
 42
0.00000001
 43
0.00000001
 12
1.0
 22
0.0
 32
0.0
 13
1.0
 23
0.0
 33
0.0
 40
0.0
 40
0.0
 40
0.0
 40
0.0
 40
0.1034796923964056
 40
0.210023918880785
 40
0.3134862136955583
 40
0.4198361274354882
 40
0.5254127712915682
 40
0.633961069541979
 40
0.7409508756305031
 40
0.8511696089308174
 40
0.9558996534551937
 40
1.0
 40
1.0
 40
1.0
 40
1.0
 10
115.4895533296214
 20
139.2963395685055
 30
0.0
 10
115.0543049805114
 20
139.3017877650389
 30
0.0
 10
114.1709184739464
 20
139.3128455055507
 30
0.0
 10
112.8900908887177
 20
139.3992038984522
 30
0.0
 10
111.6726743528437
 20
139.52707407499
 30
0.0
 10
110.5648685005971
 20
139.6860193735832
 30
0.0
 10
109.5766296966489
 20
139.8605130612988
 30
0.0
 10
108.7519061391174
 20
140.0296789119386
 30
0.0
 10
108.1029526384581
 20
140.177562694467
 30
0.0
 10
107.6859178229964
 20
140.2793532786978
 30
0.0
 10
107.4873211100319
 20
140.3297048013009
 30
0.0
 10
107.5106338314651
 20
140.3237991170786
 30
0.0
 10
107.5175416887027
 20
140.322049187384
 30
0.0
  0
LINE
  5
83
330
1F
100
AcDbEntity
  8
0
  6
Continuous
 62
     7
370
    15
100
AcDbLine
 10
117.1476204981
 20
139.2963395685
 30
0.0
 11
115.4895533296
 21
139.2963395685
 31
0.0
  0
LINE
  5
84
330
1F
100
AcDbEntity
  8
0
  6
Continuous
 62
     7
370
    15
100
AcDbLine
 10
117.1476204981
 20
133.2878337577
 30
0.0
 11
117.1476204981
 21
139.2963395685
 31
0.0
  0
LINE
  5
85
330
1F
100
AcDbEntity
  8
0
  6
Continuous
 62
     7
370
    15
100
AcDbLine
 10
114.7351736753
 20
133.2878337577
 30
0.0
 11
117.1476204981
 21
133.2878337577
 31
0.0
  0
SPLINE
  5
86
330
1F
100
AcDbEntity
  8
0
  6
Continuous
 62
     7
370
    15
100
AcDbSpline
210
0.0
220
0.0
230
1.0
 70
     8
 71
     3
 72
    20
 73
    16
 74
     0
 42
0.00000001
 43
0.00000001
 12
1.0
 22
0.0
 32
0.0
 13
1.0
 23
0.0
 33
0.0
 40
0.0
 40
0.0
 40
0.0
 40
0.0
 40
0.2499999999999997
 40
0.2499999999999997
 40
0.3749999999999997
 40
0.3749999999999997
 40
0.4999999999999998
 40
0.4999999999999998
 40
0.6249999999999998
 40
0.6249999999999998
 40
0.7499999999999999
 40
0.7499999999999999
 40
0.8749999999999999
 40
0.8749999999999999
 40
1.0
 40
1.0
 40
1.0
 40
1.0
 10
107.4895533296214
 20
128.6791440953413
 30
0.0
 10
107.7379270639095
 20
129.3330065236387
 30
0.0
 10
108.0574971562547
 20
129.9367923056358
 30
0.0
 10
108.6798033894594
 20
130.7636310418044
 30
0.0
 10
108.9112276498902
 20
131.0260596797574
 30
0.0
 10
109.4324419895399
 20
131.5227223338623
 30
0.0
 10
109.719062472175
 20
131.7533092128839
 30
0.0
 10
110.3385472134826
 20
132.1698634374665
 30
0.0
 10
110.6728475929695
 20
132.357361239434
 30
0.0
 10
111.3981080655943
 20
132.6887582170704
 30
0.0
 10
111.7800231229848
 20
132.8282622045657
 30
0.0
 10
112.5748112991565
 20
133.0537157120366
 30
0.0
 10
112.9889694933629
 20
133.1403418235803
 30
0.0
 10
113.8545158339443
 20
133.2583226124344
 30
0.0
 10
114.2924034489561
 20
133.2878337577087
 30
0.0
 10
114.7351736753107
 20
133.2878337577087
 30
0.0
  0
SPLINE
  5
87
330
1F
100
AcDbEntity
  8
0
  6
Continuous
 62
     7
370
    15
100
AcDbSpline
210
0.0
220
0.0
230
1.0
 70
     8
 71
     3
 72
    70
 73
    66
 74
     0
 42
0.00000001
 43
0.00000001
 12
1.0
 22
0.0
 32
0.0
 13
1.0
 23
0.0
 33
0.0
 40
-0.0312500000000001
 40
-0.0312500000000001
 40
0.0
 40
0.0
 40
0.0312499999999999
 40
0.0312499999999999
 40
0.0624999999999998
 40
0.0624999999999998
 40
0.0937499999999997
 40
0.0937499999999997
 40
0.1249999999999996
 40
0.1249999999999996
 40
0.1562499999999994
 40
0.1562499999999994
 40
0.1874999999999993
 40
0.1874999999999993
 40
0.2187499999999992
 40
0.2187499999999992
 40
0.2499999999999991
 40
0.2499999999999991
 40
0.281249999999999
 40
0.281249999999999
 40
0.3124999999999989
 40
0.3124999999999989
 40
0.3437499999999988
 40
0.3437499999999988
 40
0.3749999999999987
 40
0.3749999999999987
 40
0.4062499999999986
 40
0.4062499999999986
 40
0.4374999999999984
 40
0.4374999999999984
 40
0.4687499999999983
 40
0.4687499999999983
 40
0.4999999999999982
 40
0.4999999999999982
 40
0.5312499999999983
 40
0.5312499999999983
 40
0.5624999999999984
 40
0.5624999999999984
 40
0.5937499999999986
 40
0.5937499999999986
 40
0.6249999999999987
 40
0.6249999999999987
 40
0.6562499999999988
 40
0.6562499999999988
 40
0.6874999999999989
 40
0.6874999999999989
 40
0.718749999999999
 40
0.718749999999999
 40
0.7499999999999991
 40
0.7499999999999991
 40
0.7812499999999992
 40
0.7812499999999992
 40
0.8124999999999993
 40
0.8124999999999993
 40
0.8437499999999994
 40
0.8437499999999994
 40
0.8749999999999996
 40
0.8749999999999996
 40
0.9062499999999997
 40
0.9062499999999997
 40
0.9374999999999998
 40
0.9374999999999998
 40
0.9687499999999999
 40
0.9687499999999999
 40
1.0
 40
1.0
 40
1.03125
 40
1.03125
 10
110.8040986682816
 20
119.4500509813246
 30
0.0
 10
110.2750079909613
 20
119.4500509813246
 30
0.0
 10
110.0149373235842
 20
119.4747282761098
 30
0.0
 10
109.5033626437488
 20
119.5711999491517
 30
0.0
 10
109.2491873600086
 20
119.6441808651318
 30
0.0
 10
108.7649167299469
 20
119.8339214680704
 30
0.0
 10
108.5352756380657
 20
119.9497821264642
 30
0.0
 10
108.1006712898322
 20
120.2223999724219
 30
0.0
 10
107.8951055131856
 20
120.3804390544756
 30
0.0
 10
107.5265483725904
 20
120.7239819054463
 30
0.0
 10
107.3610673898549
 20
120.910744349548
 30
0.0
 10
107.0686428804198
 20
121.3142875239448
 30
0.0
 10
106.9445419037933
 20
121.5277845203739
 30
0.0
 10
106.7449627070436
 20
121.9671678342964
 30
0.0
 10
106.6680291211853
 20
122.1963078214421
 30
0.0
 10
106.5651720626649
 20
122.6622819442021
 30
0.0
 10
106.5396991532058
 20
122.8951643898782
 30
0.0
 10
106.539408742638
 20
123.360561924958
 30
0.0
 10
106.5654333764138
 20
123.5954376823524
 30
0.0
 10
106.6675816609058
 20
124.0469308295986
 30
0.0
 10
106.7431581084889
 20
124.26497730501
 30
0.0
 10
106.9436556396338
 20
124.6860718300478
 30
0.0
 10
107.0687844811422
 20
124.8879932145662
 30
0.0
 10
107.3581432821638
 20
125.260022697085
 30
0.0
 10
107.5235542692193
 20
125.4326510006654
 30
0.0
 10
107.8965448273671
 20
125.7499690052114
 30
0.0
 10
108.0982778604562
 20
125.889755938713
 30
0.0
 10
108.5311371112841
 20
126.1339321922649
 30
0.0
 10
108.7650556441735
 20
126.2391617033064
 30
0.0
 10
109.2492393793161
 20
126.4073188496815
 30
0.0
 10
109.4985550052716
 20
126.4705697402754
 30
0.0
 10
110.0115875296993
 20
126.5561489493779
 30
0.0
 10
110.2768813526039
 20
126.5780211143003
 30
0.0
 10
110.7992159724737
 20
126.5781847639443
 30
0.0
 10
111.0589696349554
 20
126.5571830718483
 30
0.0
 10
111.5755814506007
 20
126.4717807167706
 30
0.0
 10
111.8279474911009
 20
126.4077745334837
 30
0.0
 10
112.3094726126338
 20
126.2409600134425
 30
0.0
 10
112.5423233447473
 20
126.1368268500433
 30
0.0
 10
112.9794131931861
 20
125.8908401975484
 30
0.0
 10
113.1807341818433
 20
125.7510903665995
 30
0.0
 10
113.5498202071432
 20
125.4379522968749
 30
0.0
 10
113.7188049581949
 20
125.2624961376048
 30
0.0
 10
114.0092610148541
 20
124.8896558735046
 30
0.0
 10
114.1323328262162
 20
124.6915340633937
 30
0.0
 10
114.3336690676382
 20
124.27082272066
 30
0.0
 10
114.4108816135805
 20
124.0488326999925
 30
0.0
 10
114.5130851564805
 20
123.5989677602841
 30
0.0
 10
114.5393135079328
 20
123.3687123471674
 30
0.0
 10
114.5397899072499
 20
122.8973964046183
 30
0.0
 10
114.514047494752
 20
122.6641589889042
 30
0.0
 10
114.4127367183881
 20
122.2024824494061
 30
0.0
 10
114.3359040789972
 20
121.9715850622939
 30
0.0
 10
114.135500239782
 20
121.5293090485023
 30
0.0
 10
114.01282874149
 20
121.3182466172164
 30
0.0
 10
113.7228814523257
 20
120.9167481064837
 30
0.0
 10
113.5543104729605
 20
120.7258415844078
 30
0.0
 10
113.1860408788473
 20
120.3821162524107
 30
0.0
 10
112.984979021577
 20
120.2269790661966
 30
0.0
 10
112.5479481029921
 20
119.9519017061169
 30
0.0
 10
112.3157998898625
 20
119.8347854766949
 30
0.0
 10
111.8347896083636
 20
119.6458589916303
 30
0.0
 10
111.5826895255332
 20
119.5727840212361
 30
0.0
 10
111.0656200392742
 20
119.4747319621015
 30
0.0
 10
110.8040986682816
 20
119.4500509813246
 30
0.0
 10
110.2750079909613
 20
119.4500509813246
 30
0.0
  0
SPLINE
  5
88
330
1F
100
AcDbEntity
  8
0
  6
Continuous
 62
     7
370
    15
100
AcDbSpline
210
0.0
220
0.0
230
1.0
 70
     8
 71
     3
 72
    70
 73
    66
 74
     0
 42
0.00000001
 43
0.00000001
 12
1.0
 22
0.0
 32
0.0
 13
1.0
 23
0.0
 33
0.0
 40
-0.0312499999999999
 40
-0.0312499999999999
 40
0.0
 40
0.0
 40
0.0312499999999999
 40
0.0312499999999999
 40
0.0624999999999998
 40
0.0624999999999998
 40
0.0937499999999997
 40
0.0937499999999997
 40
0.1249999999999996
 40
0.1249999999999996
 40
0.1562499999999995
 40
0.1562499999999995
 40
0.1874999999999994
 40
0.1874999999999994
 40
0.2187499999999993
 40
0.2187499999999993
 40
0.2499999999999992
 40
0.2499999999999992
 40
0.2812499999999993
 40
0.2812499999999993
 40
0.3124999999999993
 40
0.3124999999999993
 40
0.3437499999999994
 40
0.3437499999999994
 40
0.3749999999999995
 40
0.3749999999999995
 40
0.4062499999999996
 40
0.4062499999999996
 40
0.4374999999999996
 40
0.4374999999999996
 40
0.4687499999999997
 40
0.4687499999999997
 40
0.4999999999999998
 40
0.4999999999999998
 40
0.5312499999999999
 40
0.5312499999999999
 40
0.5625
 40
0.5625
 40
0.5937500000000001
 40
0.5937500000000001
 40
0.6250000000000002
 40
0.6250000000000002
 40
0.6562500000000004
 40
0.6562500000000004
 40
0.6875000000000006
 40
0.6875000000000006
 40
0.7187500000000007
 40
0.7187500000000007
 40
0.7500000000000008
 40
0.7500000000000008
 40
0.7812500000000007
 40
0.7812500000000007
 40
0.8125000000000006
 40
0.8125000000000006
 40
0.8437500000000004
 40
0.8437500000000004
 40
0.8750000000000003
 40
0.8750000000000003
 40
0.9062500000000003
 40
0.9062500000000003
 40
0.9375000000000002
 40
0.9375000000000002
 40
0.9687500000000001
 40
0.9687500000000001
 40
1.0
 40
1.0
 40
1.03125
 40
1.03125
 10
110.8040986682816
 20
133.8881074901205
 30
0.0
 10
110.2750079909613
 20
133.8881074901205
 30
0.0
 10
110.0149373235842
 20
133.9040079305352
 30
0.0
 10
109.5033626437488
 20
133.9659522807095
 30
0.0
 10
109.2491873600086
 20
134.0127545148008
 30
0.0
 10
108.7649167299469
 20
134.1337314982559
 30
0.0
 10
108.5352756380657
 20
134.2073338260627
 30
0.0
 10
108.1006712898322
 20
134.3791580970409
 30
0.0
 10
107.8951055131856
 20
134.4781615199682
 30
0.0
 10
107.5265483725904
 20
134.6912579338811
 30
0.0
 10
107.3610673898549
 20
134.8061576500108
 30
0.0
 10
107.0686428804198
 20
135.0515245487011
 30
0.0
 10
106.9445419037933
 20
135.1799644491714
 30
0.0
 10
106.7449627070436
 20
135.4408565972573
 30
0.0
 10
106.6680291211853
 20
135.5752377685968
 30
0.0
 10
106.5651720626649
 20
135.8445577197031
 30
0.0
 10
106.5396991532058
 20
135.9772389839212
 30
0.0
 10
106.539408742638
 20
136.2384254580522
 30
0.0
 10
106.5654333764138
 20
136.368190496217
 30
0.0
 10
106.6675816609058
 20
136.6137731304896
 30
0.0
 10
106.7431581084889
 20
136.7304346677985
 30
0.0
 10
106.9436556396338
 20
136.952339857953
 30
0.0
 10
107.0687844811422
 20
137.0569511118761
 30
0.0
 10
107.3581432821638
 20
137.2469975234841
 30
0.0
 10
107.5235542692193
 20
137.3337571949338
 30
0.0
 10
107.8965448273671
 20
137.4912615706853
 30
0.0
 10
108.0982778604562
 20
137.5595868354726
 30
0.0
 10
108.5311371112841
 20
137.6778165590918
 30
0.0
 10
108.7650556441734
 20
137.7281114751956
 30
0.0
 10
109.2492393793161
 20
137.8079770120852
 30
0.0
 10
109.4985550052716
 20
137.8377181398849
 30
0.0
 10
110.0115875296993
 20
137.8778708813931
 30
0.0
 10
110.2768813526039
 20
137.8880691508029
 30
0.0
 10
110.7992159724737
 20
137.8881456091876
 30
0.0
 10
111.0589696349554
 20
137.8783545975786
 30
0.0
 10
111.5755814506007
 20
137.8382877588398
 30
0.0
 10
111.8279474911009
 20
137.808190591983
 30
0.0
 10
112.3094726126338
 20
137.7289683821528
 30
0.0
 10
112.5423233447473
 20
137.6792109026894
 30
0.0
 10
112.9794131931861
 20
137.560118960239
 30
0.0
 10
113.1807341818433
 20
137.4918036986918
 30
0.0
 10
113.5498202071432
 20
137.3364027317582
 30
0.0
 10
113.7188049581949
 20
137.2482503896913
 30
0.0
 10
114.0092610148541
 20
137.057811000575
 30
0.0
 10
114.1323328262162
 20
136.9551864228759
 30
0.0
 10
114.3336690676382
 20
136.7335460762678
 30
0.0
 10
114.4108816135805
 20
136.6147920007203
 30
0.0
 10
114.5130851564805
 20
136.3701260618026
 30
0.0
 10
114.5393135079328
 20
136.2429693363541
 30
0.0
 10
114.5397899072499
 20
135.9785211904985
 30
0.0
 10
114.514047494752
 20
135.8456205102414
 30
0.0
 10
114.4127367183881
 20
135.5788282367593
 30
0.0
 10
114.3359040789972
 20
135.4434643352907
 30
0.0
 10
114.135500239782
 20
135.1808845399882
 30
0.0
 10
114.01282874149
 20
135.0539093802344
 30
0.0
 10
113.7228814523257
 20
134.809829994152
 30
0.0
 10
113.5543104729605
 20
134.6924048693982
 30
0.0
 10
113.1860408788473
 20
134.4792084084497
 30
0.0
 10
112.984979021577
 20
134.3820342900248
 30
0.0
 10
112.5479481029921
 20
134.2086794028107
 30
0.0
 10
112.3157998898625
 20
134.1342798511539
 30
0.0
 10
111.8347896083636
 20
134.0138269716493
 30
0.0
 10
111.5826895255332
 20
133.9669685963833
 30
0.0
 10
111.0656200392742
 20
133.9040110993996
 30
0.0
 10
110.8040986682816
 20
133.8881074901205
 30
0.0
 10
110.2750079909613
 20
133.8881074901205
 30
0.0
  0
LINE
  5
89
330
1F
100
AcDbEntity
  8
0
  6
Continuous
 62
     7
370
    15
100
AcDbLine
 10
128.4895533296
 20
79.2688666947
 30
0.0
 11
128.4895533296
 21
128.6791440953
 31
0.0
  0
SPLINE
  5
8A
330
1F
100
AcDbEntity
  8
0
  6
Continuous
 62
     7
370
    15
100
AcDbSpline
210
0.0
220
0.0
230
1.0
 70
     8
 71
     3
 72
    10
 73
     6
 74
     0
 42
0.00000001
 43
0.00000001
 12
1.0
 22
0.0
 32
0.0
 13
1.0
 23
0.0
 33
0.0
 40
0.0
 40
0.0
 40
0.0
 40
0.0
 40
0.5
 40
0.5
 40
1.0
 40
1.0
 40
1.0
 40
1.0
 10
128.4895533296214
 20
79.26886669474845
 30
0.0
 10
128.4895533296214
 20
79.10897942655478
 30
0.0
 10
128.4282436783856
 20
78.94785217104018
 30
0.0
 10
128.2091440408505
 20
78.71375317268534
 30
0.0
 10
128.051095834537
 20
78.64222639909413
 30
0.0
 10
127.8895533296214
 20
78.64222639909413
 30
0.0
  0
SPLINE
  5
8B
330
1F
100
AcDbEntity
  8
0
  6
Continuous
 62
     7
370
    15
100
AcDbSpline
210
0.0
220
0.0
230
1.0
 70
    24
 71
     3
 72
    12
 73
     8
 74
     0
 42
0.00000001
 43
0.00000001
 12
1.0
 22
0.0
 32
0.0
 13
1.0
 23
0.0
 33
0.0
 40
0.0
 40
0.0
 40
0.0
 40
0.0
 40
0.2500000000000033
 40
0.2500000000000033
 40
0.5000000000000067
 40
0.5000000000000067
 40
1.0
 40
1.0
 40
1.0
 40
1.0
 10
127.8895533296214
 20
128.6791440953413
 30
0.0
 10
127.9797923973084
 20
128.6791440953413
 30
0.0
 10
128.070690511415
 20
128.6791440953413
 30
0.0
 10
128.2252875479035
 20
128.6791440953413
 30
0.0
 10
128.2902659640116
 20
128.6791440953413
 30
0.0
 10
128.4421009919478
 20
128.6791440953413
 30
0.0
 10
128.4895533296214
 20
128.6791440953413
 30
0.0
 10
128.4895533296214
 20
128.6791440953413
 30
0.0
  0
SPLINE
  5
8C
330
1F
100
AcDbEntity
  8
0
  6
Continuous
 62
     7
370
    15
100
AcDbSpline
210
0.0
220
0.0
230
1.0
 70
     8
 71
     3
 72
     8
 73
     4
 74
     0
 42
0.00000001
 43
0.00000001
 12
1.0
 22
0.0
 32
0.0
 13
1.0
 23
0.0
 33
0.0
 40
0.0
 40
0.0
 40
0.0
 40
0.0
 40
1.0
 40
1.0
 40
1.0
 40
1.0
 10
123.9314861611105
 20
78.64222639909413
 30
0.0
 10
123.4360065004447
 20
79.53775248702749
 30
0.0
 10
122.9418924524026
 20
80.43403690207973
 30
0.0
 10
122.4495533296214
 20
81.33130693628642
 30
0.0
  0
LINE
  5
8D
330
1F
100
AcDbEntity
  8
0
  6
Continuous
 62
     7
370
    15
100
AcDbLine
 10
122.4495533296
 20
81.3313069363
 30
0.0
 11
122.4495533296
 21
128.6791440953
 31
0.0
  0
SPLINE
  5
8E
330
1F
100
AcDbEntity
  8
0
  6
Continuous
 62
     7
370
    15
100
AcDbSpline
210
0.0
220
0.0
230
1.0
 70
    24
 71
     3
 72
     8
 73
     4
 74
     0
 42
0.00000001
 43
0.00000001
 12
1.0
 22
0.0
 32
0.0
 13
1.0
 23
0.0
 33
0.0
 40
0.0
 40
0.0
 40
0.0
 40
0.0
 40
1.0
 40
1.0
 40
1.0
 40
1.0
 10
122.4495533296214
 20
128.6791440953413
 30
0.0
 10
122.9295053239863
 20
128.6791440953413
 30
0.0
 10
123.42480605296
 20
128.6791440953413
 30
0.0
 10
123.9314861611105
 20
128.6791440953413
 30
0.0
  0
ARC
  5
8F
330
1F
100
AcDbEntity
  8
0
  6
Continuous
 62
     7
370
    15
100
AcDbCircle
 10
110.5365481853
 20
120.7273751726
 30
0.0
 40
4.115011572779909
100
AcDbArc
 50
19.3349591234
 51
159.3357509812
  0
SPLINE
  5
90
330
1F
100
AcDbEntity
  8
0
  6
Continuous
 62
     7
370
    15
100
AcDbSpline
210
0.0
220
0.0
230
1.0
 70
     8
 71
     3
 72
    10
 73
     6
 74
     0
 42
0.00000001
 43
0.00000001
 12
1.0
 22
0.0
 32
0.0
 13
1.0
 23
0.0
 33
0.0
 40
0.0
 40
0.0
 40
0.0
 40
0.0
 40
0.5
 40
0.5
 40
1.0
 40
1.0
 40
1.0
 40
1.0
 10
119.0238508613124
 20
135.2291440953413
 30
0.0
 10
118.9023105976439
 20
135.3038702625531
 30
0.0
 10
118.8009762372949
 20
135.4128152784698
 30
0.0
 10
118.6653372944065
 20
135.6632457592314
 30
0.0
 10
118.6295533296214
 20
135.8056651213304
 30
0.0
 10
118.6295533296214
 20
135.9487979463771
 30
0.0
  0
SPLINE
  5
91
330
1F
100
AcDbEntity
  8
0
  6
Continuous
 62
     7
370
    15
100
AcDbSpline
210
0.0
220
0.0
230
1.0
 70
    24
 71
     3
 72
    12
 73
     8
 74
     0
 42
0.00000001
 43
0.00000001
 12
1.0
 22
0.0
 32
0.0
 13
1.0
 23
0.0
 33
0.0
 40
0.0
 40
0.0
 40
0.0
 40
0.0
 40
0.2500000000000037
 40
0.2500000000000037
 40
0.5000000000000074
 40
0.5000000000000074
 40
1.0
 40
1.0
 40
1.0
 40
1.0
 10
119.4295533296214
 20
135.2291440953413
 30
0.0
 10
119.379676647304
 20
135.2291440953413
 30
0.0
 10
119.3316734539004
 20
135.2291440953413
 30
0.0
 10
119.2486253511884
 20
135.2291440953413
 30
0.0
 10
119.2124957717206
 20
135.2291440953413
 30
0.0
 10
119.1165837407763
 20
135.2291440953413
 30
0.0
 10
119.0668250728075
 20
135.2291440953413
 30
0.0
 10
119.0238508613124
 20
135.2291440953413
 30
0.0
  0
SPLINE
  5
92
330
1F
100
AcDbEntity
  8
0
  6
Continuous
 62
     7
370
    15
100
AcDbSpline
210
0.0
220
0.0
230
1.0
 70
    24
 71
     3
 72
    14
 73
    10
 74
     0
 42
0.00000001
 43
0.00000001
 12
1.0
 22
0.0
 32
0.0
 13
1.0
 23
0.0
 33
0.0
 40
0.0
 40
0.0
 40
0.0
 40
0.0
 40
0.1249999999999991
 40
0.1249999999999991
 40
0.2499999999999982
 40
0.2499999999999982
 40
0.4999999999999998
 40
0.4999999999999998
 40
1.0
 40
1.0
 40
1.0
 40
1.0
 10
119.4295533296214
 20
82.4291440953413
 30
0.0
 10
119.361115481735
 20
82.4291440953413
 30
0.0
 10
119.2955654429699
 20
82.4291440953413
 30
0.0
 10
119.191138803562
 20
82.4291440953413
 30
0.0
 10
119.1485941938005
 20
82.4291440953413
 30
0.0
 10
119.0359847332603
 20
82.42914409534129
 30
0.0
 10
118.9804456862408
 20
82.4291440953413
 30
0.0
 10
118.837833990777
 20
82.42914409534129
 30
0.0
 10
118.7744286357812
 20
82.42914409534129
 30
0.0
 10
118.7272281319537
 20
82.4291440953413
 30
0.0
  0
SPLINE
  5
93
330
1F
100
AcDbEntity
  8
0
  6
Continuous
 62
     7
370
    15
100
AcDbSpline
210
0.0
220
0.0
230
1.0
 70
     8
 71
     3
 72
    10
 73
     6
 74
     0
 42
0.00000001
 43
0.00000001
 12
1.0
 22
0.0
 32
0.0
 13
1.0
 23
0.0
 33
0.0
 40
0.0
 40
0.0
 40
0.0
 40
0.0
 40
0.5
 40
0.5
 40
1.0
 40
1.0
 40
1.0
 40
1.0
 10
118.6295533296214
 20
128.9650107268027
 30
0.0
 10
118.6295533296214
 20
128.9172392188094
 30
0.0
 10
118.6317145732186
 20
128.8695294967477
 30
0.0
 10
118.6403859470787
 20
128.7742343791994
 30
0.0
 10
118.6469151300347
 20
128.7265418152328
 30
0.0
 10
118.6557009527816
 20
128.6791440953413
 30
0.0
  0
SPLINE
  5
94
330
1F
100
AcDbEntity
  8
0
  6
Continuous
 62
     7
370
    15
100
AcDbSpline
210
0.0
220
0.0
230
1.0
 70
    24
 71
     3
 72
    14
 73
    10
 74
     0
 42
0.00000001
 43
0.00000001
 12
1.0
 22
0.0
 32
0.0
 13
1.0
 23
0.0
 33
0.0
 40
0.0
 40
0.0
 40
0.0
 40
0.0
 40
0.5000000000000013
 40
0.5000000000000013
 40
0.750000000000002
 40
0.750000000000002
 40
0.875000000000001
 40
0.875000000000001
 40
1.0
 40
1.0
 40
1.0
 40
1.0
 10
122.3518785272891
 20
82.4291440953413
 30
0.0
 10
122.3050938222409
 20
82.42914409534129
 30
0.0
 10
122.2430426254613
 20
82.4291440953413
 30
0.0
 10
122.0996509869107
 20
82.4291440953413
 30
0.0
 10
122.0435073333595
 20
82.42914409534129
 30
0.0
 10
121.9305563112234
 20
82.42914409534129
 30
0.0
 10
121.8875555491852
 20
82.4291440953413
 30
0.0
 10
121.7834928388787
 20
82.42914409534129
 30
0.0
 10
121.7181606005218
 20
82.4291440953413
 30
0.0
 10
121.6495533296214
 20
82.4291440953413
 30
0.0
  0
SPLINE
  5
95
330
1F
100
AcDbEntity
  8
0
  6
Continuous
 62
     7
370
    15
100
AcDbSpline
210
0.0
220
0.0
230
1.0
 70
    24
 71
     3
 72
    12
 73
     8
 74
     0
 42
0.00000001
 43
0.00000001
 12
1.0
 22
0.0
 32
0.0
 13
1.0
 23
0.0
 33
0.0
 40
0.0
 40
0.0
 40
0.0
 40
0.0
 40
0.5000000000000017
 40
0.5000000000000017
 40
0.7500000000000008
 40
0.7500000000000008
 40
1.0
 40
1.0
 40
1.0
 40
1.0
 10
122.0552557979304
 20
135.2291440953413
 30
0.0
 10
122.0121702483195
 20
135.2291440953413
 30
0.0
 10
121.9630180465702
 20
135.2291440953413
 30
0.0
 10
121.8665454522823
 20
135.2291440953413
 30
0.0
 10
121.8304438671477
 20
135.2291440953413
 30
0.0
 10
121.7473381092864
 20
135.2291440953413
 30
0.0
 10
121.6993415123201
 20
135.2291440953413
 30
0.0
 10
121.6495533296214
 20
135.2291440953413
 30
0.0
  0
SPLINE
  5
96
330
1F
100
AcDbEntity
  8
0
  6
Continuous
 62
     7
370
    15
100
AcDbSpline
210
0.0
220
0.0
230
1.0
 70
     8
 71
     3
 72
    10
 73
     6
 74
     0
 42
0.00000001
 43
0.00000001
 12
1.0
 22
0.0
 32
0.0
 13
1.0
 23
0.0
 33
0.0
 40
0.0
 40
0.0
 40
0.0
 40
0.0
 40
0.5
 40
0.5
 40
1.0
 40
1.0
 40
1.0
 40
1.0
 10
122.4495533296214
 20
135.9487979463771
 30
0.0
 10
122.4495533296214
 20
135.8050278885591
 30
0.0
 10
122.4135042709025
 20
135.6626085260639
 30
0.0
 10
122.2779954101285
 20
135.4127142327067
 30
0.0
 10
122.1781194170323
 20
135.3046838964585
 30
0.0
 10
122.0552557979304
 20
135.2291440953413
 30
0.0
  0
SPLINE
  5
97
330
1F
100
AcDbEntity
  8
0
  6
Continuous
 62
     7
370
    15
100
AcDbSpline
210
0.0
220
0.0
230
1.0
 70
     8
 71
     3
 72
    10
 73
     6
 74
     0
 42
0.00000001
 43
0.00000001
 12
1.0
 22
0.0
 32
0.0
 13
1.0
 23
0.0
 33
0.0
 40
0.0
 40
0.0
 40
0.0
 40
0.0
 40
0.5
 40
0.5
 40
1.0
 40
1.0
 40
1.0
 40
1.0
 10
122.4234057064613
 20
128.6791440953413
 30
0.0
 10
122.4320953493729
 20
128.7260229446594
 30
0.0
 10
122.4386344141234
 20
128.7734454100607
 30
0.0
 10
122.4473930485165
 20
128.8693822086474
 30
0.0
 10
122.4495533296214
 20
128.9172974966579
 30
0.0
 10
122.4495533296214
 20
128.9650107268025
 30
0.0
  0
LINE
  5
98
330
1F
100
AcDbEntity
  8
0
  6
Continuous
 62
     7
370
    15
100
AcDbLine
 10
121.6495533296
 20
135.2291440953
 30
0.0
 11
119.4295533296
 21
135.2291440953
 31
0.0
  0
LINE
  5
99
330
1F
100
AcDbEntity
  8
0
  6
Continuous
 62
     7
370
    15
100
AcDbLine
 10
121.6495533296
 20
82.4291440953
 30
0.0
 11
119.4295533296
 21
82.4291440953
 31
0.0
  0
SPLINE
  5
9A
330
1F
100
AcDbEntity
  8
0
  6
Continuous
 62
     7
370
    15
100
AcDbSpline
210
0.0
220
0.0
230
1.0
 70
     8
 71
     3
 72
    23
 73
    19
 74
     0
 42
0.00000001
 43
0.00000001
 12
1.0
 22
0.0
 32
0.0
 13
1.0
 23
0.0
 33
0.0
 40
0.0
 40
0.0
 40
0.0
 40
0.0
 40
0.0214879683668996
 40
0.1256596865814558
 40
0.1959764748594502
 40
0.2582933796576578
 40
0.3126265551746611
 40
0.409979288597376
 40
0.4990444846696784
 40
0.5881267729233984
 40
0.6196985204454293
 40
0.6522073780938608
 40
0.685663913347459
 40
0.7701882124992285
 40
0.8725854580921841
 40
0.9276254207330354
 40
0.9771492539296477
 40
1.0
 40
1.0
 40
1.0
 40
1.0
 10
211.5221656358444
 20
102.7802720259981
 30
0.0
 10
211.6160870020927
 20
102.8275316540636
 30
0.0
 10
212.1653306180805
 20
103.1039016649115
 30
0.0
 10
212.8937373257743
 20
103.74351917052
 30
0.0
 10
213.6543370082843
 20
104.6087380625343
 30
0.0
 10
214.1499708242526
 20
105.3790828159952
 30
0.0
 10
214.6081085859768
 20
106.3223784887223
 30
0.0
 10
214.9517781550094
 20
107.4649109065307
 30
0.0
 10
215.0813359324662
 20
108.8264404292427
 30
0.0
 10
214.9832076206719
 20
109.8642846224446
 30
0.0
 10
214.8173038874651
 20
110.6001936763046
 30
0.0
 10
214.6804441323438
 20
111.060137651793
 30
0.0
 10
214.4211158577103
 20
111.7520331205856
 30
0.0
 10
213.9180562105203
 20
112.7113125323469
 30
0.0
 10
213.1735186234524
 20
113.6370416785782
 30
0.0
 10
212.4189321249706
 20
114.3047445739096
 30
0.0
 10
211.9168334924262
 20
114.6732384403157
 30
0.0
 10
211.6078942485616
 20
114.8452421826125
 30
0.0
 10
211.5103532019093
 20
114.8995487344182
 30
0.0
  0
SPLINE
  5
9B
330
1F
100
AcDbEntity
  8
0
  6
Continuous
 62
     7
370
    15
100
AcDbSpline
210
0.0
220
0.0
230
1.0
 70
     8
 71
     3
 72
    23
 73
    19
 74
     0
 42
0.00000001
 43
0.00000001
 12
1.0
 22
0.0
 32
0.0
 13
1.0
 23
0.0
 33
0.0
 40
0.0
 40
0.0
 40
0.0
 40
0.0
 40
0.0211540010256285
 40
0.1255104490926638
 40
0.1958721589020173
 40
0.2582821670329007
 40
0.3127567227111466
 40
0.4102323678818534
 40
0.4993767819685599
 40
0.588390119891632
 40
0.6199309370929248
 40
0.6524050491491412
 40
0.6858230940481512
 40
0.7701532490330169
 40
0.8724752247922873
 40
0.9273856614549658
 40
0.976883667238184
 40
1.0
 40
1.0
 40
1.0
 40
1.0
 10
204.5563476795905
 20
114.8780101353436
 30
0.0
 10
204.4638847468978
 20
114.831500332579
 30
0.0
 10
203.915285728082
 20
114.5555494037158
 30
0.0
 10
203.1870330066631
 20
113.9164642537592
 30
0.0
 10
202.4252025147512
 20
113.0502142798825
 30
0.0
 10
201.9287807512653
 20
112.2787165626616
 30
0.0
 10
201.4700561957997
 20
111.3337332342746
 30
0.0
 10
201.1264452781994
 20
110.1893998693765
 30
0.0
 10
200.9977671648842
 20
108.8271446415956
 30
0.0
 10
201.0966075040528
 20
107.7894912887628
 30
0.0
 10
201.2627961330938
 20
107.0543413548686
 30
0.0
 10
201.3997445771001
 20
106.5949722172241
 30
0.0
 10
201.658907526559
 20
105.9044449690753
 30
0.0
 10
202.1614044382859
 20
104.9466760931098
 30
0.0
 10
202.9045764893268
 20
104.0224654192263
 30
0.0
 10
203.658051777179
 20
103.355265428739
 30
0.0
 10
204.1604296280517
 20
102.9862667447926
 30
0.0
 10
204.47033786275
 20
102.8135933365697
 30
0.0
 10
204.5689952632367
 20
102.7586238079121
 30
0.0
  0
SPLINE
  5
9C
330
1F
100
AcDbEntity
  8
0
  6
Continuous
 62
     7
370
    15
100
AcDbSpline
210
0.0
220
0.0
230
1.0
 70
     8
 71
     3
 72
    39
 73
    35
 74
     0
 42
0.00000001
 43
0.00000001
 12
1.0
 22
0.0
 32
0.0
 13
1.0
 23
0.0
 33
0.0
 40
-0.0929946525444665
 40
-0.0618626808031082
 40
-0.0305913286417316
 40
0.0
 40
0.0306130831488086
 40
0.0619040996444988
 40
0.0930588770307075
 40
0.1241966210416024
 40
0.1553767729390144
 40
0.1869012712538018
 40
0.2186194724901244
 40
0.2499363328596361
 40
0.2812811127869342
 40
0.3130731839310426
 40
0.3446801097600113
 40
0.3759115026471078
 40
0.4070391656928766
 40
0.4381443790161726
 40
0.4693729506319396
 40
0.5000120705146869
 40
0.530648429021882
 40
0.5619148569968081
 40
0.5930393589966989
 40
0.624182438349114
 40
0.6553925771464895
 40
0.686970719179219
 40
0.7187114716019236
 40
0.7500541986095015
 40
0.7813706634687546
 40
0.8131351125324084
 40
0.8446872986561305
 40
0.8758891940595362
 40
0.9070053474555335
 40
0.9381373191968918
 40
0.9694086713582684
 40
1.0
 40
1.030613083148809
 40
1.061904099644499
 40
1.093058877030707
 10
209.570198691751
 20
100.9930521942322
 30
0.0
 10
208.0391914134207
 20
100.8373468282553
 30
0.0
 10
206.5078691852133
 20
100.9932755264357
 30
0.0
 10
205.0391861749073
 20
101.4608211899225
 30
0.0
 10
203.682811052059
 20
102.1942626949725
 30
0.0
 10
202.5072676695217
 20
103.1819371842942
 30
0.0
 10
201.541272598223
 20
104.3833918370476
 30
0.0
 10
200.8250362186928
 20
105.7650488205469
 30
0.0
 10
200.3697500778703
 20
107.2639959750381
 30
0.0
 10
200.2188463390637
 20
108.8263165707394
 30
0.0
 10
200.3708307192576
 20
110.3897476430474
 30
0.0
 10
200.8270428257528
 20
111.8915427589754
 30
0.0
 10
201.5439143401761
 20
113.2767019743169
 30
0.0
 10
202.5108007369076
 20
114.4800545498293
 30
0.0
 10
203.6860185622131
 20
115.4678324051654
 30
0.0
 10
205.0406677072687
 20
116.2003660785561
 30
0.0
 10
206.5085678345471
 20
116.666000037889
 30
0.0
 10
208.0400682842218
 20
116.8206823013323
 30
0.0
 10
209.5721583192033
 20
116.6655307423136
 30
0.0
 10
211.0407056593459
 20
116.1990220522232
 30
0.0
 10
212.3962980560003
 20
115.4657221940623
 30
0.0
 10
213.5711600846999
 20
114.4771216023046
 30
0.0
 10
214.5370282559677
 20
113.2737271221871
 30
0.0
 10
215.2529438441436
 20
111.8899277675796
 30
0.0
 10
215.7081657191504
 20
110.3892761871201
 30
0.0
 10
215.8602503404881
 20
108.8267923378224
 30
0.0
 10
215.7095124867398
 20
107.2636901027045
 30
0.0
 10
215.2533727365573
 20
105.7637072235545
 30
0.0
 10
214.536272036807
 20
104.3807417549067
 30
0.0
 10
213.569360883096
 20
103.1793929194865
 30
0.0
 10
212.3935887524164
 20
102.1925961165845
 30
0.0
 10
211.0379426848301
 20
101.460048655672
 30
0.0
 10
209.570198691751
 20
100.9930521942322
 30
0.0
 10
208.0391914134207
 20
100.8373468282553
 30
0.0
 10
206.5078691852133
 20
100.9932755264357
 30
0.0
  0
LINE
  5
9D
330
1F
100
AcDbEntity
  8
0
  6
Continuous
 62
     7
370
    15
100
AcDbLine
 10
219.6725118066
 20
82.8291440953
 30
0.0
 11
219.6725118066
 21
134.8291440953
 31
0.0
  0
LINE
  5
9E
330
1F
100
AcDbEntity
  8
0
  6
Continuous
 62
     7
370
    15
100
AcDbLine
 10
80.7395533296
 20
85.6006972016
 30
0.0
 11
80.7395533296
 21
86.8654065641
 31
0.0
  0
SPLINE
  5
9F
330
1F
100
AcDbEntity
  8
0
  6
Continuous
 62
     7
370
    15
100
AcDbSpline
210
0.0
220
0.0
230
1.0
 70
     8
 71
     3
 72
    14
 73
    10
 74
     0
 42
0.00000001
 43
0.00000001
 12
1.0
 22
0.0
 32
0.0
 13
1.0
 23
0.0
 33
0.0
 40
0.0
 40
0.0
 40
0.0
 40
0.0
 40
0.25
 40
0.25
 40
0.5
 40
0.5
 40
0.75
 40
0.75
 40
1.0
 40
1.0
 40
1.0
 40
1.0
 10
79.9612662117057
 20
87.99599277178135
 30
0.0
 10
80.01789288690777
 20
87.88829531794448
 30
0.0
 10
80.1124155471975
 20
87.78550573622516
 30
0.0
 10
80.29546052275974
 20
87.58714842400502
 30
0.0
 10
80.38708709971445
 20
87.49108891532677
 30
0.0
 10
80.54594041740766
 20
87.30355987261753
 30
0.0
 10
80.61383102502937
 20
87.21215089983397
 30
0.0
 10
80.71074805073694
 20
87.03377467892382
 30
0.0
 10
80.73955332962198
 20
86.94655277267763
 30
0.0
 10
80.73955332962198
 20
86.86540656414337
 30
0.0
  0
SPLINE
  5
A0
330
1F
100
AcDbEntity
  8
0
  6
Continuous
 62
     7
370
    15
100
AcDbSpline
210
0.0
220
0.0
230
1.0
 70
     8
 71
     3
 72
    14
 73
    10
 74
     0
 42
0.00000001
 43
0.00000001
 12
1.0
 22
0.0
 32
0.0
 13
1.0
 23
0.0
 33
0.0
 40
0.0
 40
0.0
 40
0.0
 40
0.0
 40
0.1249999999999975
 40
0.1249999999999975
 40
0.249999999999995
 40
0.249999999999995
 40
0.4999999999999953
 40
0.4999999999999953
 40
1.0
 40
1.0
 40
1.0
 40
1.0
 10
79.33955332962142
 20
88.44267463406067
 30
0.0
 10
79.38809773827859
 20
88.44842294734096
 30
0.0
 10
79.44101309306349
 20
88.44532205868472
 30
0.0
 10
79.53630843804655
 20
88.4231272145224
 30
0.0
 10
79.57655943533149
 20
88.40589498742654
 30
0.0
 10
79.68082944884446
 20
88.34956707097447
 30
0.0
 10
79.73115142399779
 20
88.30538072502867
 30
0.0
 10
79.85883437152316
 20
88.17437282617804
 30
0.0
 10
79.91491981858542
 20
88.08413830594775
 30
0.0
 10
79.96126621170716
 20
87.99599277178187
 30
0.0
  0
SPLINE
  5
A1
330
1F
100
AcDbEntity
  8
0
  6
Continuous
 62
     7
370
    15
100
AcDbSpline
210
0.0
220
0.0
230
1.0
 70
     8
 71
     3
 72
     8
 73
     4
 74
     0
 42
0.00000001
 43
0.00000001
 12
1.0
 22
0.0
 32
0.0
 13
1.0
 23
0.0
 33
0.0
 40
0.0
 40
0.0
 40
0.0
 40
0.0
 40
1.0
 40
1.0
 40
1.0
 40
1.0
 10
77.07102823667519
 20
88.13282934747788
 30
0.0
 10
77.80560526315814
 20
88.25145435854684
 30
0.0
 10
78.56908033255381
 20
88.35144023068311
 30
0.0
 10
79.33955332962142
 20
88.44267463406067
 30
0.0
  0
SPLINE
  5
A2
330
1F
100
AcDbEntity
  8
0
  6
Continuous
 62
     7
370
    15
100
AcDbSpline
210
0.0
220
0.0
230
1.0
 70
     8
 71
     3
 72
    14
 73
    10
 74
     0
 42
0.00000001
 43
0.00000001
 12
1.0
 22
0.0
 32
0.0
 13
1.0
 23
0.0
 33
0.0
 40
0.0
 40
0.0
 40
0.0
 40
0.0
 40
0.500000000000001
 40
0.500000000000001
 40
0.7500000000000004
 40
0.7500000000000004
 40
0.8750000000000003
 40
0.8750000000000003
 40
1.0
 40
1.0
 40
1.0
 40
1.0
 10
71.78955332962141
 20
87.95920632994623
 30
0.0
 10
72.681699460175
 20
87.95848410374558
 30
0.0
 10
73.5716758959686
 20
87.96307031020304
 30
0.0
 10
74.89827106304419
 20
87.99079531459456
 30
0.0
 10
75.33911799154295
 20
88.00340185221874
 30
0.0
 10
75.99555822896535
 20
88.0344180002262
 30
0.0
 10
76.21357188555723
 20
88.04676117285297
 30
0.0
 10
76.64628073924001
 20
88.07978522801625
 30
0.0
 10
76.86155720440479
 20
88.09900239315469
 30
0.0
 10
77.0710282366752
 20
88.13282934747788
 30
0.0
  0
SPLINE
  5
A3
330
1F
100
AcDbEntity
  8
0
  6
Continuous
 62
     7
370
    15
100
AcDbSpline
210
0.0
220
0.0
230
1.0
 70
     8
 71
     3
 72
     8
 73
     4
 74
     0
 42
0.00000001
 43
0.00000001
 12
1.0
 22
0.0
 32
0.0
 13
1.0
 23
0.0
 33
0.0
 40
0.0000005163856998
 40
0.0000005163856998
 40
0.0000005163856998
 40
0.0000005163856998
 40
0.000026289209185
 40
0.000026289209185
 40
0.000026289209185
 40
0.000026289209185
 10
71.77950839921381
 20
87.969190203043
 30
0.0
 10
71.78283613742164
 20
87.96585595617388
 30
0.0
 10
71.78618459039724
 20
87.96252799889858
 30
0.0
 10
71.7895533296214
 20
87.95920632994621
 30
0.0
  0
SPLINE
  5
A4
330
1F
100
AcDbEntity
  8
0
  6
Continuous
 62
     7
370
    15
100
AcDbSpline
210
0.0
220
0.0
230
1.0
 70
     8
 71
     3
 72
     8
 73
     4
 74
     0
 42
0.00000001
 43
0.00000001
 12
1.0
 22
0.0
 32
0.0
 13
1.0
 23
0.0
 33
0.0
 40
0.0000005099763573
 40
0.0000005099763573
 40
0.0000005099763573
 40
0.0000005099763573
 40
0.0000262827998699
 40
0.0000262827998699
 40
0.0000262827998699
 40
0.0000262827998699
 10
71.7895533296214
 20
129.6990818607364
 30
0.0
 10
71.78618459039366
 20
129.6957601917805
 30
0.0
 10
71.7828361374145
 20
129.6924322345016
 30
0.0
 10
71.77950839920318
 20
129.6890979876289
 30
0.0
  0
SPLINE
  5
A5
330
1F
100
AcDbEntity
  8
0
  6
Continuous
 62
     7
370
    15
100
AcDbSpline
210
0.0
220
0.0
230
1.0
 70
     8
 71
     3
 72
    10
 73
     6
 74
     0
 42
0.00000001
 43
0.00000001
 12
1.0
 22
0.0
 32
0.0
 13
1.0
 23
0.0
 33
0.0
 40
0.0
 40
0.0
 40
0.0
 40
0.0
 40
0.5
 40
0.5
 40
1.0
 40
1.0
 40
1.0
 40
1.0
 10
75.33955332962142
 20
129.652231487169
 30
0.0
 10
74.75196778253084
 20
129.6732970074055
 30
0.0
 10
74.16122138907045
 20
129.6840554932777
 30
0.0
 10
72.97720222377158
 20
129.6974202738133
 30
0.0
 10
72.38378823556613
 20
129.6995629164779
 30
0.0
 10
71.78955332962141
 20
129.6990818607364
 30
0.0
  0
SPLINE
  5
A6
330
1F
100
AcDbEntity
  8
0
  6
Continuous
 62
     7
370
    15
100
AcDbSpline
210
0.0
220
0.0
230
1.0
 70
     8
 71
     3
 72
    18
 73
    14
 74
     0
 42
0.00000001
 43
0.00000001
 12
1.0
 22
0.0
 32
0.0
 13
1.0
 23
0.0
 33
0.0
 40
0.0
 40
0.0
 40
0.0
 40
0.0
 40
0.2500000000000009
 40
0.2500000000000009
 40
0.500000000000001
 40
0.500000000000001
 40
0.7500000000000011
 40
0.7500000000000011
 40
0.875000000000001
 40
0.875000000000001
 40
0.9375000000000006
 40
0.9375000000000006
 40
1.0
 40
1.0
 40
1.0
 40
1.0
 10
76.73955332962143
 20
130.6732517677043
 30
0.0
 10
76.73955332962143
 20
130.5900448588471
 30
0.0
 10
76.70370422968315
 20
130.5013082035335
 30
0.0
 10
76.57883249364924
 20
130.3191830129733
 30
0.0
 10
76.48843207600137
 20
130.2240529643467
 30
0.0
 10
76.2661894212592
 20
130.0348714552223
 30
0.0
 10
76.13642463481344
 20
129.9399262871276
 30
0.0
 10
75.8957871775019
 20
129.8016475795477
 30
0.0
 10
75.80801987936447
 20
129.7559371462453
 30
0.0
 10
75.65349579215766
 20
129.6981138410238
 30
0.0
 10
75.5968849061029
 20
129.680399076986
 30
0.0
 10
75.4728408751963
 20
129.655859773753
 30
0.0
 10
75.40512620017802
 20
129.6498806352148
 30
0.0
 10
75.33955332962142
 20
129.652231487169
 30
0.0
  0
LINE
  5
A7
330
1F
100
AcDbEntity
  8
0
  6
Continuous
 62
     7
370
    15
100
AcDbLine
 10
76.7395533296
 20
130.6732517677
 30
0.0
 11
76.7395533296
 21
131.8571901875
 31
0.0
  0
LINE
  5
A8
330
1F
100
AcDbEntity
  8
0
  6
Continuous
 62
     7
370
    15
100
AcDbLine
 10
100.5395533296
 20
84.6087132336
 30
0.0
 11
100.5395533296
 21
133.0495749571
 31
0.0
  0
SPLINE
  5
A9
330
1F
100
AcDbEntity
  8
0
  6
Continuous
 62
     7
370
    15
100
AcDbSpline
210
0.0
220
0.0
230
1.0
 70
     8
 71
     3
 72
    18
 73
    14
 74
     0
 42
0.00000001
 43
0.00000001
 12
1.0
 22
0.0
 32
0.0
 13
1.0
 23
0.0
 33
0.0
 40
0.0
 40
0.0
 40
0.0
 40
0.0
 40
0.0010671296451833
 40
0.1270947795731636
 40
0.252405345751277
 40
0.3766468878987097
 40
0.4391415999051428
 40
0.5008278021400407
 40
0.5624255708808511
 40
0.6253162439161145
 40
0.7499985144706707
 40
0.8752758950341254
 40
1.0
 40
1.0
 40
1.0
 40
1.0
 10
89.30985416969409
 20
85.17180507242495
 30
0.0
 10
89.3089423370556
 20
85.1716902938883
 30
0.0
 10
89.20034337841878
 20
85.15802020902237
 30
0.0
 10
89.58798444606843
 20
85.20893970963802
 30
0.0
 10
90.45394912790364
 20
85.30852288268447
 30
0.0
 10
91.65435305267346
 20
85.37764676582816
 30
0.0
 10
92.71192896716218
 20
85.38159899496698
 30
0.0
 10
93.53906305406835
 20
85.35411005651194
 30
0.0
 10
94.36433492170259
 20
85.29556988010415
 30
0.0
 10
95.41870014170257
 20
85.18204872036861
 30
0.0
 10
96.58053642317788
 20
84.99889789611996
 30
0.0
 10
97.53277120456147
 20
84.79429468648505
 30
0.0
 10
97.65847626536933
 20
84.76500933570897
 30
0.0
 10
97.72118969751453
 20
84.75039906586828
 30
0.0
  0
SPLINE
  5
AA
330
1F
100
AcDbEntity
  8
0
  6
Continuous
 62
     7
370
    15
100
AcDbSpline
210
0.0
220
0.0
230
1.0
 70
     8
 71
     3
 72
    18
 73
    14
 74
     0
 42
0.00000001
 43
0.00000001
 12
1.0
 22
0.0
 32
0.0
 13
1.0
 23
0.0
 33
0.0
 40
0.0
 40
0.0
 40
0.0
 40
0.0
 40
0.1248907792210109
 40
0.2505384020341698
 40
0.3748721840485282
 40
0.437490765334968
 40
0.4990776265894272
 40
0.5607931536353509
 40
0.6233901338664932
 40
0.7478191038417344
 40
0.8731940995934958
 40
0.9991614644710078
 40
0.9999999999999999
 40
0.9999999999999999
 40
0.9999999999999999
 40
0.9999999999999999
 10
97.72097093199062
 20
132.9078239442599
 30
0.0
 10
97.657230179279
 20
132.8931626516619
 30
0.0
 10
97.52936240210249
 20
132.8637512183904
 30
0.0
 10
96.5773631810421
 20
132.658798114328
 30
0.0
 10
95.41681947583882
 20
132.475534338517
 30
0.0
 10
94.36455502375071
 20
132.3625067462681
 30
0.0
 10
93.54032790868311
 20
132.3042430987267
 30
0.0
 10
92.71272413916269
 20
132.2767967107225
 30
0.0
 10
91.65390694667764
 20
132.2807815166517
 30
0.0
 10
90.45168824864264
 20
132.3498709930331
 30
0.0
 10
89.58650430895533
 20
132.4494972095897
 30
0.0
 10
89.20036388742511
 20
132.5003132831903
 30
0.0
 10
89.30843542820547
 20
132.4866411031272
 30
0.0
 10
89.30915007812575
 20
132.4865506924388
 30
0.0
  0
SPLINE
  5
AB
330
1F
100
AcDbEntity
  8
0
  6
Continuous
 62
     7
370
    15
100
AcDbSpline
210
0.0
220
0.0
230
1.0
 70
     8
 71
     3
 72
     9
 73
     5
 74
     0
 42
0.00000001
 43
0.00000001
 12
1.0
 22
0.0
 32
0.0
 13
1.0
 23
0.0
 33
0.0
 40
0.0
 40
0.0
 40
0.0
 40
0.0
 40
0.7009329310330167
 40
1.0
 40
1.0
 40
1.0
 40
1.0
 10
70.66033801385687
 20
89.12786379123867
 30
0.0
 10
70.66947729053216
 20
89.11003450569714
 30
0.0
 10
70.68251602258577
 20
89.08459799850486
 30
0.0
 10
70.69768127635108
 20
89.13847785869666
 30
0.0
 10
70.70221670434482
 20
89.15459155056057
 30
0.0
  0
LINE
  5
AC
330
1F
100
AcDbEntity
  8
0
  6
Continuous
 62
     7
370
    15
100
AcDbLine
 10
70.6395533296
 20
89.1384663489
 30
0.0
 11
70.6395533296
 21
128.5198218418
 31
0.0
  0
SPLINE
  5
AD
330
1F
100
AcDbEntity
  8
0
  6
Continuous
 62
     7
370
    15
100
AcDbSpline
210
0.0
220
0.0
230
1.0
 70
     8
 71
     3
 72
    10
 73
     6
 74
     0
 42
0.00000001
 43
0.00000001
 12
1.0
 22
0.0
 32
0.0
 13
1.0
 23
0.0
 33
0.0
 40
0.0
 40
0.0
 40
0.0
 40
0.0
 40
0.5
 40
0.5
 40
1.0
 40
1.0
 40
1.0
 40
1.0
 10
70.70221670434482
 20
128.503696640122
 30
0.0
 10
70.69331241523608
 20
128.5494381593352
 30
0.0
 10
70.6767970350431
 20
128.5666289988042
 30
0.0
 10
70.64968908898148
 20
128.5663057218685
 30
0.0
 10
70.63955332962142
 20
128.5484281795721
 30
0.0
 10
70.63955332962142
 20
128.5198218418195
 30
0.0
  0
SPLINE
  5
AE
330
1F
100
AcDbEntity
  8
0
  6
Continuous
 62
     7
370
    15
100
AcDbSpline
210
0.0
220
0.0
230
1.0
 70
     8
 71
     3
 72
    26
 73
    22
 74
     0
 42
0.00000001
 43
0.00000001
 12
1.0
 22
0.0
 32
0.0
 13
1.0
 23
0.0
 33
0.0
 40
0.0
 40
0.0
 40
0.0
 40
0.0
 40
0.2500000000000165
 40
0.2500000000000165
 40
0.3750000000000256
 40
0.3750000000000256
 40
0.4375000000000291
 40
0.4375000000000291
 40
0.4687500000000291
 40
0.4687500000000291
 40
0.5000000000000292
 40
0.5000000000000292
 40
0.5312500000000293
 40
0.5312500000000293
 40
0.5625000000000293
 40
0.5625000000000293
 40
0.625000000000026
 40
0.625000000000026
 40
0.7500000000000173
 40
0.7500000000000173
 40
1.0
 40
1.0
 40
1.0
 40
1.0
 10
71.46370697572593
 20
129.2192634289391
 30
0.0
 10
71.42510645285746
 20
129.1014887325837
 30
0.0
 10
71.3788094503032
 20
128.9770990464218
 30
0.0
 10
71.28487010186926
 20
128.7718797140683
 30
0.0
 10
71.24955863495582
 20
128.7003068476218
 30
0.0
 10
71.18337865921015
 20
128.5843536150214
 30
0.0
 10
71.15884029254191
 20
128.5437690802111
 30
0.0
 10
71.11546754698813
 20
128.4796273983394
 30
0.0
 10
71.09995914556292
 20
128.4577609730543
 30
0.0
 10
71.06491650097591
 20
128.4121667047112
 30
0.0
 10
71.04536621025613
 20
128.3884964137437
 30
0.0
 10
71.00343892988553
 20
128.3438798544038
 30
0.0
 10
70.98078681965389
 20
128.3229998418859
 30
0.0
 10
70.93981310556724
 20
128.292126428135
 30
0.0
 10
70.92221380567182
 20
128.2822875583026
 30
0.0
 10
70.87758681981568
 20
128.2632979426065
 30
0.0
 10
70.85702759716234
 20
128.262973617953
 30
0.0
 10
70.80590215766567
 20
128.2721970588292
 30
0.0
 10
70.78499074467715
 20
128.2934439550462
 30
0.0
 10
70.73354083711621
 20
128.367412833877
 30
0.0
 10
70.71587553781166
 20
128.4335309271917
 30
0.0
 10
70.70221670434482
 20
128.503696640122
 30
0.0
  0
SPLINE
  5
AF
330
1F
100
AcDbEntity
  8
0
  6
Continuous
 62
     7
370
    15
100
AcDbSpline
210
0.0
220
0.0
230
1.0
 70
     8
 71
     3
 72
    10
 73
     6
 74
     0
 42
0.00000001
 43
0.00000001
 12
1.0
 22
0.0
 32
0.0
 13
1.0
 23
0.0
 33
0.0
 40
0.0
 40
0.0
 40
0.0
 40
0.0
 40
0.5
 40
0.5
 40
1.0
 40
1.0
 40
1.0
 40
1.0
 10
71.77950839920321
 20
129.6890979876289
 30
0.0
 10
71.71194914428496
 20
129.6214065948192
 30
0.0
 10
71.64831248894848
 20
129.5466994300655
 30
0.0
 10
71.53809173437662
 20
129.3877332976389
 30
0.0
 10
71.491275441154
 20
129.3033780316309
 30
0.0
 10
71.46370697572593
 20
129.2192634289391
 30
0.0
  0
SPLINE
  5
B0
330
1F
100
AcDbEntity
  8
0
  6
Continuous
 62
     7
370
    15
100
AcDbSpline
210
0.0
220
0.0
230
1.0
 70
     8
 71
     3
 72
    10
 73
     6
 74
     0
 42
0.00000001
 43
0.00000001
 12
1.0
 22
0.0
 32
0.0
 13
1.0
 23
0.0
 33
0.0
 40
0.0
 40
0.0
 40
0.0
 40
0.0
 40
0.5
 40
0.5
 40
1.0
 40
1.0
 40
1.0
 40
1.0
 10
71.46370697572596
 20
88.43902476174333
 30
0.0
 10
71.49118439047994
 20
88.35518796527545
 30
0.0
 10
71.53789302076935
 20
88.2708774776863
 30
0.0
 10
71.64817148351531
 20
88.1117562471996
 30
0.0
 10
71.71205902212921
 20
88.03677150310995
 30
0.0
 10
71.77950839921382
 20
87.969190203043
 30
0.0
  0
SPLINE
  5
B1
330
1F
100
AcDbEntity
  8
0
  6
Continuous
 62
     7
370
    15
100
AcDbSpline
210
0.0
220
0.0
230
1.0
 70
     8
 71
     3
 72
    24
 73
    20
 74
     0
 42
0.00000001
 43
0.00000001
 12
1.0
 22
0.0
 32
0.0
 13
1.0
 23
0.0
 33
0.0
 40
0.0
 40
0.0
 40
0.0
 40
0.0
 40
0.25
 40
0.25
 40
0.374999999999999
 40
0.374999999999999
 40
0.4374999999999993
 40
0.4374999999999993
 40
0.4687499999999994
 40
0.4687499999999994
 40
0.4999999999999995
 40
0.4999999999999995
 40
0.5624999999999971
 40
0.5624999999999971
 40
0.6249999999999947
 40
0.6249999999999947
 40
0.7499999999999947
 40
0.7499999999999947
 40
1.0
 40
1.0
 40
1.0
 40
1.0
 10
70.70221670434482
 20
89.15459155056055
 30
0.0
 10
70.71596982301506
 20
89.22524160855083
 30
0.0
 10
70.73374239042091
 20
89.29183972131577
 30
0.0
 10
70.78599348197628
 20
89.36593774154896
 30
0.0
 10
70.80702855755783
 20
89.38719554871052
 30
0.0
 10
70.85992896518628
 20
89.39534147485676
 30
0.0
 10
70.8810346380642
 20
89.394401671461
 30
0.0
 10
70.92708680674214
 20
89.37338567988365
 30
0.0
 10
70.94545727872554
 20
89.36247687377603
 30
0.0
 10
70.98700891379126
 20
89.32984196282867
 30
0.0
 10
71.00957558654817
 20
89.30834998245729
 30
0.0
 10
71.07235660300817
 20
89.23988403887098
 30
0.0
 10
71.10548636397607
 20
89.19380958066589
 30
0.0
 10
71.16240405046109
 20
89.10880169233123
 30
0.0
 10
71.18659007596487
 20
89.06852139114984
 30
0.0
 10
71.25179802634463
 20
88.95358516468389
 30
0.0
 10
71.28651408653586
 20
88.88300217953689
 30
0.0
 10
71.37972935686673
 20
88.67879642045828
 30
0.0
 10
71.42540189222741
 20
88.55589803813092
 30
0.0
 10
71.46370697572596
 20
88.43902476174334
 30
0.0
  0
LINE
  5
B2
330
1F
100
AcDbEntity
  8
0
  6
Continuous
 62
     7
370
    15
100
AcDbLine
 10
232.5395533296
 20
90.103284617
 30
0.0
 11
232.5395533296
 21
127.5550035366
 31
0.0
  0
SPLINE
  5
B3
330
1F
100
AcDbEntity
  8
0
  6
Continuous
 62
     7
370
    15
100
AcDbSpline
210
0.0
220
0.0
230
1.0
 70
     8
 71
     3
 72
     8
 73
     4
 74
     0
 42
0.00000001
 43
0.00000001
 12
1.0
 22
0.0
 32
0.0
 13
1.0
 23
0.0
 33
0.0
 40
0.0
 40
0.0
 40
0.0
 40
0.0
 40
1.0
 40
1.0
 40
1.0
 40
1.0
 10
117.1476204981324
 20
133.2878337577087
 30
0.0
 10
117.6547073398916
 20
132.1566834035451
 30
0.0
 10
118.1502751790316
 20
131.0202989927772
 30
0.0
 10
118.6295533296214
 20
129.8792877629247
 30
0.0
  0
LINE
  5
B4
330
1F
100
AcDbEntity
  8
0
  6
Continuous
 62
     7
370
    15
100
AcDbLine
 10
118.6295533296
 20
129.8792877629
 30
0.0
 11
118.6295533296
 21
128.9650107268
 31
0.0
  0
SPLINE
  5
B5
330
1F
100
AcDbEntity
  8
0
  6
Continuous
 62
     7
370
    15
100
AcDbSpline
210
0.0
220
0.0
230
1.0
 70
     8
 71
     3
 72
     8
 73
     4
 74
     0
 42
0.00000001
 43
0.00000001
 12
1.0
 22
0.0
 32
0.0
 13
1.0
 23
0.0
 33
0.0
 40
0.0
 40
0.0
 40
0.0
 40
0.0
 40
1.0
 40
1.0
 40
1.0
 40
1.0
 10
118.6295533296214
 20
136.6343782865129
 30
0.0
 10
118.1368432327756
 20
137.5223972846393
 30
0.0
 10
117.6427605274967
 20
138.4096599203253
 30
0.0
 10
117.1476204981324
 20
139.2963395685055
 30
0.0
  0
LINE
  5
B6
330
1F
100
AcDbEntity
  8
0
  6
Continuous
 62
     7
370
    15
100
AcDbLine
 10
118.6295533296
 20
129.8792877629
 30
0.0
 11
118.6295533296
 21
136.6343782865
 31
0.0
  0
LINE
  5
B7
330
1F
100
AcDbEntity
  8
0
  6
Continuous
 62
     7
370
    15
100
AcDbLine
 10
122.4495533296
 20
128.9650107268
 30
0.0
 11
122.4495533296
 21
129.8792877629
 31
0.0
  0
SPLINE
  5
B8
330
1F
100
AcDbEntity
  8
0
  6
Continuous
 62
     7
370
    15
100
AcDbSpline
210
0.0
220
0.0
230
1.0
 70
     8
 71
     3
 72
     8
 73
     4
 74
     0
 42
0.00000001
 43
0.00000001
 12
1.0
 22
0.0
 32
0.0
 13
1.0
 23
0.0
 33
0.0
 40
0.0
 40
0.0
 40
0.0
 40
0.0
 40
1.0
 40
1.0
 40
1.0
 40
1.0
 10
122.4495533296214
 20
129.8792877629246
 30
0.0
 10
122.9288314802113
 20
131.0202989927772
 30
0.0
 10
123.4243993193512
 20
132.1566834035451
 30
0.0
 10
123.9314861611105
 20
133.2878337577087
 30
0.0
  0
LINE
  5
B9
330
1F
100
AcDbEntity
  8
0
  6
Continuous
 62
     7
370
    15
100
AcDbLine
 10
123.9314861611
 20
133.2878337577
 30
0.0
 11
127.8895533296
 21
133.2878337577
 31
0.0
  0
SPLINE
  5
BA
330
1F
100
AcDbEntity
  8
0
  6
Continuous
 62
     7
370
    15
100
AcDbSpline
210
0.0
220
0.0
230
1.0
 70
     8
 71
     3
 72
    12
 73
     8
 74
     0
 42
0.00000001
 43
0.00000001
 12
1.0
 22
0.0
 32
0.0
 13
1.0
 23
0.0
 33
0.0
 40
0.0
 40
0.0
 40
0.0
 40
0.0
 40
0.250000000000002
 40
0.250000000000002
 40
0.500000000000004
 40
0.500000000000004
 40
1.0
 40
1.0
 40
1.0
 40
1.0
 10
127.8895533296214
 20
133.2878337577087
 30
0.0
 10
127.9807530514471
 20
133.2878337577087
 30
0.0
 10
128.0713480605831
 20
133.2596140591208
 30
0.0
 10
128.2247607870298
 20
133.1651710518728
 30
0.0
 10
128.2899696543534
 20
133.0988840751674
 30
0.0
 10
128.4427541836934
 20
132.8732592518791
 30
0.0
 10
128.4895533296214
 20
132.6908329888466
 30
0.0
 10
128.4895533296214
 20
132.5100963565997
 30
0.0
  0
LINE
  5
BB
330
1F
100
AcDbEntity
  8
0
  6
Continuous
 62
     7
370
    15
100
AcDbLine
 10
128.4895533296
 20
132.5100963566
 30
0.0
 11
128.4895533296
 21
128.6791440953
 31
0.0
  0
LINE
  5
BC
330
1F
100
AcDbEntity
  8
0
  6
Continuous
 62
     7
370
    15
100
AcDbLine
 10
127.8895533296
 20
139.2963395685
 30
0.0
 11
123.9314861611
 21
139.2963395685
 31
0.0
  0
LINE
  5
BD
330
1F
100
AcDbEntity
  8
0
  6
Continuous
 62
     7
370
    15
100
AcDbLine
 10
123.9314861611
 20
133.2878337577
 30
0.0
 11
123.9314861611
 21
139.2963395685
 31
0.0
  0
SPLINE
  5
BE
330
1F
100
AcDbEntity
  8
0
  6
Continuous
 62
     7
370
    15
100
AcDbSpline
210
0.0
220
0.0
230
1.0
 70
     8
 71
     3
 72
    10
 73
     6
 74
     0
 42
0.00000001
 43
0.00000001
 12
1.0
 22
0.0
 32
0.0
 13
1.0
 23
0.0
 33
0.0
 40
0.0
 40
0.0
 40
0.0
 40
0.0
 40
0.5
 40
0.5
 40
1.0
 40
1.0
 40
1.0
 40
1.0
 10
128.4895533296214
 20
138.6755844191052
 30
0.0
 10
128.4895533296214
 20
138.835989685456
 30
0.0
 10
128.4273154985146
 20
138.9950514984446
 30
0.0
 10
128.208180574772
 20
139.2259639640749
 30
0.0
 10
128.0505918797801
 20
139.2963395685055
 30
0.0
 10
127.8895533296214
 20
139.2963395685055
 30
0.0
  0
LINE
  5
BF
330
1F
100
AcDbEntity
  8
0
  6
Continuous
 62
     7
370
    15
100
AcDbLine
 10
128.4895533296
 20
132.5100963566
 30
0.0
 11
128.4895533296
 21
138.6755844191
 31
0.0
  0
SPLINE
  5
C0
330
1F
100
AcDbEntity
  8
0
  6
Continuous
 62
     7
370
    15
100
AcDbSpline
210
0.0
220
0.0
230
1.0
 70
     8
 71
     3
 72
     8
 73
     4
 74
     0
 42
0.00000001
 43
0.00000001
 12
1.0
 22
0.0
 32
0.0
 13
1.0
 23
0.0
 33
0.0
 40
0.0
 40
0.0
 40
0.0
 40
0.0
 40
1.0
 40
1.0
 40
1.0
 40
1.0
 10
123.9314861611105
 20
139.2963395685055
 30
0.0
 10
123.4363461317461
 20
138.4096599203253
 30
0.0
 10
122.9422634264672
 20
137.5223972846393
 30
0.0
 10
122.4495533296214
 20
136.6343782865129
 30
0.0
  0
LINE
  5
C1
330
1F
100
AcDbEntity
  8
0
  6
Continuous
 62
     7
370
    15
100
AcDbLine
 10
122.4495533296
 20
129.8792877629
 30
0.0
 11
122.4495533296
 21
136.6343782865
 31
0.0
  0
ARC
  5
C2
330
1F
100
AcDbEntity
  8
0
  6
Continuous
 62
     7
370
    15
100
AcDbCircle
 10
110.539763435
 20
127.559014462
 30
0.0
 40
7.226579600532403
100
AcDbArc
 50
70.8977090435
 51
109.1655022323
  0
ARC
  5
C3
330
1F
100
AcDbEntity
  8
0
  6
HIDDEN
 62
     7
370
     0
100
AcDbCircle
 10
208.0395533296
 20
108.8291440953
 30
0.0
 40
7.000000000000003
100
AcDbArc
 50
119.6094583666
 51
240.4538608566
  0
ARC
  5
C4
330
1F
100
AcDbEntity
  8
0
  6
HIDDEN
 62
     7
370
     0
100
AcDbCircle
 10
208.0395533296
 20
108.8291440953
 30
0.0
 40
7.0
100
AcDbArc
 50
299.5498127807
 51
0.9574047533
  0
ARC
  5
C5
330
1F
100
AcDbEntity
  8
0
  6
HIDDEN
 62
     7
370
     0
100
AcDbCircle
 10
208.0395533296
 20
108.8291440953
 30
0.0
 40
8.000000000000005
100
AcDbArc
 50
7.2294785656
 51
67.7657099821
  0
ARC
  5
C6
330
1F
100
AcDbEntity
  8
0
  6
HIDDEN
 62
     7
370
     0
100
AcDbCircle
 10
208.0395533296
 20
108.8291440953
 30
0.0
 40
8.000000000000005
100
AcDbArc
 50
261.2937955571
 51
278.6269900754
  0
ARC
  5
C7
330
1F
100
AcDbEntity
  8
0
  6
HIDDEN
 62
     7
370
     0
100
AcDbCircle
 10
208.0395533296
 20
108.8291440953
 30
0.0
 40
7.999999999999989
100
AcDbArc
 50
281.338421643
 51
7.2294785656
  0
CIRCLE
  5
C8
330
1F
100
AcDbEntity
  8
0
  6
HIDDEN
 62
     7
370
     0
100
AcDbCircle
 10
208.0395533296
 20
108.8291440953
 30
0.0
 40
4.000000000000003
  0
CIRCLE
  5
C9
330
1F
100
AcDbEntity
  8
0
  6
HIDDEN
 62
     7
370
     0
100
AcDbCircle
 10
208.0395533296
 20
108.8291440953
 30
0.0
 40
5.499999999999976
  0
LINE
  5
CA
330
1F
100
AcDbEntity
  8
0
  6
HIDDEN
 62
     7
370
     0
100
AcDbLine
 10
117.1476204981
 20
133.2878337577
 30
0.0
 11
117.1476204981
 21
128.6791440953
 31
0.0
  0
ARC
  5
CB
330
1F
100
AcDbEntity
  8
0
  6
HIDDEN
 62
     7
370
     0
100
AcDbCircle
 10
110.8407783447
 20
121.3094394172
 30
0.0
 40
3.662788052458473
100
AcDbArc
 50
265.2827092948
 51
12.3014501683
  0
ARC
  5
CC
330
1F
100
AcDbEntity
  8
0
  6
HIDDEN
 62
     7
370
     0
100
AcDbCircle
 10
110.2574854081
 20
121.321133862
 30
0.0
 40
3.672922165405665
100
AcDbArc
 50
166.4845093491
 51
274.4044574913
  0
SPLINE
  5
CD
330
1F
100
AcDbEntity
  8
0
  6
HIDDEN
 62
     7
370
     0
100
AcDbSpline
210
0.0
220
0.0
230
1.0
 70
     8
 71
     3
 72
    12
 73
     8
 74
     0
 42
0.00000001
 43
0.00000001
 12
1.0
 22
0.0
 32
0.0
 13
1.0
 23
0.0
 33
0.0
 40
0.0
 40
0.0
 40
0.0
 40
0.0
 40
0.3580587489949839
 40
0.4856318002691236
 40
0.617313814237933
 40
0.7531498424086017
 40
1.0
 40
1.0
 40
1.0
 40
1.0
 10
208.0395533296214
 20
101.8291440953413
 30
0.0
 10
208.4784037714583
 20
101.851625921332
 30
0.0
 10
209.0736126044119
 20
101.882117815916
 30
0.0
 10
209.8086821373311
 20
102.0511685968866
 30
0.0
 10
210.2695389500099
 20
102.1887837930294
 30
0.0
 10
210.8584666655497
 20
102.4029935940509
 30
0.0
 10
211.2619198261461
 20
102.6323357847227
 30
0.0
 10
211.5221656358444
 20
102.7802720259981
 30
0.0
  0
SPLINE
  5
CE
330
1F
100
AcDbEntity
  8
0
  6
HIDDEN
 62
     7
370
     0
100
AcDbSpline
210
0.0
220
0.0
230
1.0
 70
     8
 71
     3
 72
    16
 73
    12
 74
     0
 42
0.00000001
 43
0.00000001
 12
1.0
 22
0.0
 32
0.0
 13
1.0
 23
0.0
 33
0.0
 40
0.0
 40
0.0
 40
0.0
 40
0.0
 40
0.0428306551963284
 40
0.1207697279298562
 40
0.3185712554872244
 40
0.4983556089759502
 40
0.678032267452804
 40
0.7419956941635933
 40
0.8079942433830049
 40
0.8760506298512182
 40
1.0
 40
1.0
 40
1.0
 40
1.0
 10
211.5103532019093
 20
114.8995487344182
 30
0.0
 10
211.4214274391782
 20
114.9521779294726
 30
0.0
 10
211.1706831971919
 20
115.1005766298604
 30
0.0
 10
210.4668973973391
 20
115.4171761357744
 30
0.0
 10
209.4020362582973
 20
115.7432051830709
 30
0.0
 10
208.0403706903078
 20
115.8703947305369
 30
0.0
 10
207.0054797693679
 20
115.7726741407817
 30
0.0
 10
206.2702905277565
 20
115.6076300202582
 30
0.0
 10
205.809709136544
 20
115.4694010919134
 30
0.0
 10
205.2206943059491
 20
115.2553577767711
 30
0.0
 10
204.8169712268028
 20
115.0260438227879
 30
0.0
 10
204.5563476795905
 20
114.8780101353436
 30
0.0
  0
SPLINE
  5
CF
330
1F
100
AcDbEntity
  8
0
  6
HIDDEN
 62
     7
370
     0
100
AcDbSpline
210
0.0
220
0.0
230
1.0
 70
     8
 71
     3
 72
    11
 73
     7
 74
     0
 42
0.00000001
 43
0.00000001
 12
1.0
 22
0.0
 32
0.0
 13
1.0
 23
0.0
 33
0.0
 40
0.0
 40
0.0
 40
0.0
 40
0.0
 40
0.0851756349908193
 40
0.2422952175870168
 40
0.6395942588602341
 40
1.0
 40
1.0
 40
1.0
 40
1.0
 10
204.5689952632367
 20
102.7586238079121
 30
0.0
 10
204.6571134381397
 20
102.7064049152562
 30
0.0
 10
204.9077791638934
 20
102.5578602292132
 30
0.0
 10
205.6120193667839
 20
102.2424388920518
 30
0.0
 10
206.6778380181024
 20
101.9022593438322
 30
0.0
 10
207.6006253294538
 20
101.8527116718607
 30
0.0
 10
208.0395533296214
 20
101.8291440953413
 30
0.0
  0
LINE
  5
D0
330
1F
100
AcDbEntity
  8
0
  6
HIDDEN
 62
     7
370
     0
100
AcDbLine
 10
90.5347035342
 20
85.3045444725
 30
0.0
 11
90.0005581051
 21
85.249929873
 31
0.0
  0
LINE
  5
D1
330
1F
100
AcDbEntity
  8
0
  6
HIDDEN
 62
     7
370
     0
100
AcDbLine
 10
89.762904433
 20
132.4324772759
 30
0.0
 11
90.5346108139
 21
132.3537271253
 31
0.0
  0
SPLINE
  5
D2
330
1F
100
AcDbEntity
  8
0
  6
HIDDEN
 62
     7
370
     0
100
AcDbSpline
210
0.0
220
0.0
230
1.0
 70
     8
 71
     3
 72
    10
 73
     6
 74
     0
 42
0.00000001
 43
0.00000001
 12
1.0
 22
0.0
 32
0.0
 13
1.0
 23
0.0
 33
0.0
 40
0.0
 40
0.0
 40
0.0
 40
0.0
 40
0.4474980330246504
 40
0.8949793102011562
 40
1.0
 40
1.0
 40
1.0
 40
1.0
 10
96.29455533122302
 20
128.6666725711578
 30
0.0
 10
96.54126519690858
 20
128.6961852796372
 30
0.0
 10
97.0346756906234
 20
128.7552095915398
 30
0.0
 10
97.32369355660697
 20
128.7691475651128
 30
0.0
 10
97.26328728419352
 20
128.7652546599345
 30
0.0
 10
97.25180513792756
 20
128.7645146886555
 30
0.0
  0
SPLINE
  5
D3
330
1F
100
AcDbEntity
  8
0
  6
HIDDEN
 62
     7
370
     0
100
AcDbSpline
210
0.0
220
0.0
230
1.0
 70
     8
 71
     3
 72
    10
 73
     6
 74
     0
 42
0.00000001
 43
0.00000001
 12
1.0
 22
0.0
 32
0.0
 13
1.0
 23
0.0
 33
0.0
 40
0.0
 40
0.0
 40
0.0
 40
0.0
 40
0.3454371160332159
 40
0.796685321207651
 40
0.9999999999999999
 40
0.9999999999999999
 40
0.9999999999999999
 40
0.9999999999999999
 10
97.25181641961319
 20
88.89377273512585
 30
0.0
 10
97.24225634907374
 20
88.8943283704023
 30
0.0
 10
97.22020785597621
 20
88.89560983799264
 30
0.0
 10
96.80328195072313
 20
88.92556611153343
 30
0.0
 10
96.41512217400665
 20
88.97596206348769
 30
0.0
 10
96.29455533122302
 20
88.99161561952484
 30
0.0
  0
SPLINE
  5
D4
330
1F
100
AcDbEntity
  8
0
  6
HIDDEN
 62
     7
370
     0
100
AcDbSpline
210
0.0
220
0.0
230
1.0
 70
     8
 71
     3
 72
    15
 73
    11
 74
     0
 42
0.00000001
 43
0.00000001
 12
1.0
 22
0.0
 32
0.0
 13
1.0
 23
0.0
 33
0.0
 40
0.0
 40
0.0
 40
0.0
 40
0.0
 40
0.1409172169897704
 40
0.2818898291171903
 40
0.4212989265166057
 40
0.5593768372264385
 40
0.6988856205980568
 40
0.840367197904641
 40
0.9813164454670267
 40
1.0
 40
1.0
 40
1.0
 40
1.0
 10
96.29455533122302
 20
88.99161561952484
 30
0.0
 10
95.97851364495045
 20
89.03196943684647
 30
0.0
 10
95.34630603511845
 20
89.11269293474129
 30
0.0
 10
94.1121429134412
 20
89.18924803234356
 30
0.0
 10
92.8414209125827
 20
89.18457198120451
 30
0.0
 10
91.65286150755523
 20
89.1037759694723
 30
0.0
 10
90.65973883477422
 20
88.97937917296056
 30
0.0
 10
90.02032982847757
 20
88.87297563429844
 30
0.0
 10
89.73930972189406
 20
88.81989497362127
 30
0.0
 10
89.80587045958724
 20
88.83215101363554
 30
0.0
 10
89.81366078310549
 20
88.83358547064536
 30
0.0
  0
SPLINE
  5
D5
330
1F
100
AcDbEntity
  8
0
  6
HIDDEN
 62
     7
370
     0
100
AcDbSpline
210
0.0
220
0.0
230
1.0
 70
     8
 71
     3
 72
    15
 73
    11
 74
     0
 42
0.00000001
 43
0.00000001
 12
1.0
 22
0.0
 32
0.0
 13
1.0
 23
0.0
 33
0.0
 40
0.0
 40
0.0
 40
0.0
 40
0.0
 40
0.1201202395113828
 40
0.2584739316900693
 40
0.3987301965958639
 40
0.54040228904327
 40
0.6807395403003644
 40
0.8190356063860877
 40
0.9577823106998845
 40
1.0
 40
1.0
 40
1.0
 40
1.0
 10
89.81366078310549
 20
128.8247027200372
 30
0.0
 10
89.83436991957593
 20
128.8206781261836
 30
0.0
 10
89.87893170156373
 20
128.8120180319228
 30
0.0
 10
90.44137130743644
 20
128.7127269053141
 30
0.0
 10
91.33483351975777
 20
128.5888093153328
 30
0.0
 10
92.49381267394996
 20
128.4890988785114
 30
0.0
 10
93.7668495540753
 20
128.4619603894357
 30
0.0
 10
95.00113482871892
 20
128.5172992235997
 30
0.0
 10
95.82909762548492
 20
128.6037778225839
 30
0.0
 10
96.2065081701489
 20
128.6547752408737
 30
0.0
 10
96.29455533122304
 20
128.6666725711577
 30
0.0
  0
LINE
  5
D6
330
1F
100
AcDbEntity
  8
0
  6
HIDDEN
 62
     7
370
     0
100
AcDbLine
 10
83.5435279258
 20
91.8291440953
 30
0.0
 11
83.5435279258
 21
125.8291440953
 31
0.0
  0
LWPOLYLINE
  5
D7
330
1F
100
AcDbEntity
  8
0
  6
HIDDEN
 62
     7
370
     0
100
AcDbPolyline
 90
       13
 70
   128
 43
0.0
 10
110.5395533296
 20
130.77474651
 10
111.3994350905
 20
130.8215053986
 10
112.2191097359
 20
130.9595956706
 10
112.9602501904
 20
131.1825603786
 10
113.5882015501
 20
131.4799739404
 10
114.0736015074
 20
131.8379296286
 10
114.3937532997
 20
132.2396898329
 10
114.533686985
 20
132.6664686928
 10
114.4868594198
 20
133.0983105031
 10
114.2554602089
 20
133.5150228207
 10
113.8503093222
 20
133.8971206407
 10
113.290351165
 20
134.2267374938
 10
112.9047026725
 20
134.3876684382
  0
LWPOLYLINE
  5
D8
330
1F
100
AcDbEntity
  8
0
  6
HIDDEN
 62
     7
370
     0
100
AcDbPolyline
 90
       13
 70
   128
 43
0.0
 10
108.1672919607
 20
134.3850551758
 10
107.7887554942
 20
134.2267374938
 10
107.228797337
 20
133.8971206407
 10
106.8236464504
 20
133.5150228207
 10
106.5922472395
 20
133.0983105031
 10
106.5454196742
 20
132.6664686928
 10
106.6853533595
 20
132.2396898329
 10
107.0055051518
 20
131.8379296286
 10
107.4909051091
 20
131.4799739404
 10
108.1188564688
 20
131.1825603786
 10
108.8599969234
 20
130.9595956706
 10
109.6796715688
 20
130.8215053986
 10
110.5395533296
 20
130.77474651
  0
SPLINE
  5
D9
330
1F
100
AcDbEntity
  8
0
  6
HIDDEN
 62
     7
370
     0
100
AcDbSpline
210
0.0
220
0.0
230
1.0
 70
     8
 71
     3
 72
     8
 73
     4
 74
     0
 42
0.00000001
 43
0.00000001
 12
1.0
 22
0.0
 32
0.0
 13
1.0
 23
0.0
 33
0.0
 40
0.0
 40
0.0
 40
0.0
 40
0.0
 40
0.0011559732291308
 40
0.0011559732291308
 40
0.0011559732291308
 40
0.0011559732291308
 10
70.63955332962142
 20
110.828984713974
 30
0.0
 10
70.97288790468873
 20
110.8250174341747
 30
0.0
 10
71.30621909571548
 20
110.8208375515981
 30
0.0
 10
71.6395533296214
 20
110.8162723981903
 30
0.0
  0
SPLINE
  5
DA
330
1F
100
AcDbEntity
  8
0
  6
HIDDEN
 62
     7
370
     0
100
AcDbSpline
210
0.0
220
0.0
230
1.0
 70
     8
 71
     3
 72
    11
 73
     7
 74
     0
 42
0.00000001
 43
0.00000001
 12
1.0
 22
0.0
 32
0.0
 13
1.0
 23
0.0
 33
0.0
 40
0.0
 40
0.0
 40
0.0
 40
0.0
 40
0.0005782382535738
 40
0.0005782382535738
 40
0.0005782382535738
 40
0.0011564766069467
 40
0.0011564766069467
 40
0.0011564766069467
 40
0.0011564766069467
 10
71.6395533296214
 20
106.8324437931231
 30
0.0
 10
71.47289937565279
 20
106.8320062153614
 30
0.0
 10
71.30623870345082
 20
106.831526150689
 30
0.0
 10
71.13957181478541
 20
106.8310066113197
 30
0.0
 10
70.97290489638935
 20
106.8304870718576
 30
0.0
 10
70.80623176655612
 20
106.8299282428358
 30
0.0
 10
70.6395533296214
 20
106.8293426992526
 30
0.0
  0
LINE
  5
DB
330
1F
100
AcDbEntity
  8
0
  6
HIDDEN
 62
     7
370
     0
100
AcDbLine
 10
110.1993792982
 20
91.8291440953
 30
0.0
 11
110.1993792982
 21
125.8291440953
 31
0.0
  0
LINE
  5
DC
330
1F
100
AcDbEntity
  8
0
  6
HIDDEN
 62
     7
370
     0
100
AcDbLine
 10
112.4895533296
 20
93.1041440953
 30
0.0
 11
112.4895533296
 21
124.5541440946
 31
0.0
  0
SPLINE
  5
DD
330
1F
100
AcDbEntity
  8
0
  6
HIDDEN
 62
     7
370
     0
100
AcDbSpline
210
0.0
220
0.0
230
1.0
 70
     8
 71
     3
 72
    16
 73
    12
 74
     0
 42
0.00000001
 43
0.00000001
 12
1.0
 22
0.0
 32
0.0
 13
1.0
 23
0.0
 33
0.0
 40
0.0
 40
0.0
 40
0.0
 40
0.0
 40
0.124999999999998
 40
0.124999999999998
 40
0.249999999999996
 40
0.249999999999996
 40
0.4999999999999973
 40
0.4999999999999973
 40
0.7499999999999987
 40
0.7499999999999987
 40
1.0
 40
1.0
 40
1.0
 40
1.0
 10
79.33955332962142
 20
93.02765365930964
 30
0.0
 10
79.43467508428725
 20
93.02765365930964
 30
0.0
 10
79.52800515301531
 20
93.02383782591683
 30
0.0
 10
79.71126691375332
 20
93.00906727318703
 30
0.0
 10
79.80214462931033
 20
92.99790922521144
 30
0.0
 10
80.05894632683007
 20
92.95543795506973
 30
0.0
 10
80.21401369170206
 20
92.91439175786692
 30
0.0
 10
80.46776015325669
 20
92.81924564128504
 30
0.0
 10
80.56863060492455
 20
92.76448290720346
 30
0.0
 10
80.70387701961938
 20
92.65322178329957
 30
0.0
 10
80.73955332962142
 20
92.5960520459709
 30
0.0
 10
80.73955332962142
 20
92.54163047293717
 30
0.0
  0
SPLINE
  5
DE
330
1F
100
AcDbEntity
  8
0
  6
HIDDEN
 62
     7
370
     0
100
AcDbSpline
210
0.0
220
0.0
230
1.0
 70
     8
 71
     3
 72
     8
 73
     4
 74
     0
 42
0.00000001
 43
0.00000001
 12
1.0
 22
0.0
 32
0.0
 13
1.0
 23
0.0
 33
0.0
 40
0.0
 40
0.0
 40
0.0
 40
0.0
 40
1.0
 40
1.0
 40
1.0
 40
1.0
 10
71.93955332962247
 20
95.17245660539187
 30
0.0
 10
71.93955332962437
 20
94.28855946307493
 30
0.0
 10
71.92607270371487
 20
93.573976218013
 30
0.0
 10
71.9247213355238
 20
93.02765365930965
 30
0.0
  0
LINE
  5
DF
330
1F
100
AcDbEntity
  8
0
  6
HIDDEN
 62
     7
370
     0
100
AcDbLine
 10
71.6395533296
 20
99.2283173106
 30
0.0
 11
71.6395533296
 21
96.1973668647
 31
0.0
  0
SPLINE
  5
E0
330
1F
100
AcDbEntity
  8
0
  6
HIDDEN
 62
     7
370
     0
100
AcDbSpline
210
0.0
220
0.0
230
1.0
 70
     8
 71
     3
 72
    10
 73
     6
 74
     0
 42
0.00000001
 43
0.00000001
 12
1.0
 22
0.0
 32
0.0
 13
1.0
 23
0.0
 33
0.0
 40
0.0
 40
0.0
 40
0.0
 40
0.0
 40
0.5
 40
0.5
 40
1.0
 40
1.0
 40
1.0
 40
1.0
 10
71.93955332958487
 20
100.5961577196985
 30
0.0
 10
71.93955332958487
 20
100.3541737535265
 30
0.0
 10
71.91140330083867
 20
100.1198313259073
 30
0.0
 10
71.80781338786797
 20
99.66445630617244
 30
0.0
 10
71.7311846791063
 20
99.44285174429032
 30
0.0
 10
71.63955332962142
 20
99.22831731058099
 30
0.0
  0
LINE
  5
E1
330
1F
100
AcDbEntity
  8
0
  6
HIDDEN
 62
     7
370
     0
100
AcDbLine
 10
71.9395533296
 20
112.4337777169
 30
0.0
 11
71.9395533296
 21
100.5961577197
 31
0.0
  0
SPLINE
  5
E2
330
1F
100
AcDbEntity
  8
0
  6
HIDDEN
 62
     7
370
     0
100
AcDbSpline
210
0.0
220
0.0
230
1.0
 70
     8
 71
     3
 72
     8
 73
     4
 74
     0
 42
0.00000001
 43
0.00000001
 12
1.0
 22
0.0
 32
0.0
 13
1.0
 23
0.0
 33
0.0
 40
0.0
 40
0.0
 40
0.0
 40
0.0
 40
1.0
 40
1.0
 40
1.0
 40
1.0
 10
71.63955332962142
 20
118.4360834086205
 30
0.0
 10
71.82058479428841
 20
118.0039759252091
 30
0.0
 10
71.93955332959061
 20
117.5498305216327
 30
0.0
 10
71.9395533295849
 20
117.0621304709532
 30
0.0
  0
LINE
  5
E3
330
1F
100
AcDbEntity
  8
0
  6
HIDDEN
 62
     7
370
     0
100
AcDbLine
 10
71.6395533296
 20
121.4692864088
 30
0.0
 11
71.6395533296
 21
118.4360834086
 31
0.0
  0
SPLINE
  5
E4
330
1F
100
AcDbEntity
  8
0
  6
HIDDEN
 62
     7
370
     0
100
AcDbSpline
210
0.0
220
0.0
230
1.0
 70
     8
 71
     3
 72
    10
 73
     6
 74
     0
 42
0.00000001
 43
0.00000001
 12
1.0
 22
0.0
 32
0.0
 13
1.0
 23
0.0
 33
0.0
 40
0.0
 40
0.0
 40
0.0
 40
0.0
 40
0.5
 40
0.5
 40
1.0
 40
1.0
 40
1.0
 40
1.0
 10
71.93955332972655
 20
122.4858315852611
 30
0.0
 10
71.93955332972476
 20
122.3211952396679
 30
0.0
 10
71.91239465929988
 20
122.1540400168815
 30
0.0
 10
71.8066296652404
 20
121.8154170112193
 30
0.0
 10
71.73021487771958
 20
121.6431452350626
 30
0.0
 10
71.63955332962144
 20
121.4692864088122
 30
0.0
  0
SPLINE
  5
E5
330
1F
100
AcDbEntity
  8
0
  6
HIDDEN
 62
     7
370
     0
100
AcDbSpline
210
0.0
220
0.0
230
1.0
 70
     8
 71
     3
 72
    18
 73
    14
 74
     0
 42
0.00000001
 43
0.00000001
 12
1.0
 22
0.0
 32
0.0
 13
1.0
 23
0.0
 33
0.0
 40
0.0
 40
0.0
 40
0.0
 40
0.0
 40
0.2500000000000033
 40
0.2500000000000033
 40
0.3750000000000029
 40
0.3750000000000029
 40
0.5000000000000026
 40
0.5000000000000026
 40
0.6250000000000022
 40
0.6250000000000022
 40
0.7500000000000018
 40
0.7500000000000018
 40
1.0
 40
1.0
 40
1.0
 40
1.0
 10
76.73955332962143
 20
125.1166577177454
 30
0.0
 10
76.73955332962142
 20
125.0621831971932
 30
0.0
 10
76.70464263822923
 20
125.0058021378407
 30
0.0
 10
76.60263333689619
 20
124.9217252969872
 30
0.0
 10
76.56099698221807
 20
124.8943915929963
 30
0.0
 10
76.46259118672934
 20
124.8414376773974
 30
0.0
 10
76.40504797502507
 20
124.8155503236802
 30
0.0
 10
76.2777498014521
 20
124.7677727788469
 30
0.0
 10
76.20816249669464
 20
124.745824860669
 30
0.0
 10
76.05672825153968
 20
124.7063922957563
 30
0.0
 10
75.97404434844573
 20
124.6888360465305
 30
0.0
 10
75.71793288640768
 20
124.6463972811099
 30
0.0
 10
75.5300178825197
 20
124.6306345313729
 30
0.0
 10
75.33955332962142
 20
124.6306345313729
 30
0.0
  0
LINE
  5
E6
330
1F
100
AcDbEntity
  8
0
  6
HIDDEN
 62
     7
370
     0
100
AcDbLine
 10
75.3395533296
 20
124.6306345314
 30
0.0
 11
71.9395533297
 21
124.6306345314
 31
0.0
  0
LINE
  5
E7
330
1F
100
AcDbEntity
  8
0
  6
HIDDEN
 62
     7
370
     0
100
AcDbLine
 10
71.870584343
 20
93.0276536593
 30
0.0
 11
79.3395533296
 21
93.0276536593
 31
0.0
  0
SPLINE
  5
E8
330
1F
100
AcDbEntity
  8
0
  6
HIDDEN
 62
     7
370
     0
100
AcDbSpline
210
0.0
220
0.0
230
1.0
 70
     8
 71
     3
 72
    22
 73
    18
 74
     0
 42
0.00000001
 43
0.00000001
 12
1.0
 22
0.0
 32
0.0
 13
1.0
 23
0.0
 33
0.0
 40
0.0
 40
0.0
 40
0.0
 40
0.0
 40
0.125
 40
0.125
 40
0.2499999999999999
 40
0.2499999999999999
 40
0.5000000000000003
 40
0.5000000000000003
 40
0.5625000000000004
 40
0.5625000000000004
 40
0.6250000000000006
 40
0.6250000000000006
 40
0.7500000000000004
 40
0.7500000000000004
 40
0.8750000000000002
 40
0.8750000000000002
 40
1.0
 40
1.0
 40
1.0
 40
1.0
 10
71.87058434297931
 20
93.02765365930964
 30
0.0
 10
71.85750195025092
 20
93.28275936945731
 30
0.0
 10
71.8442823868111
 20
93.57591762856121
 30
0.0
 10
71.821835209017
 20
94.23821809418602
 30
0.0
 10
71.81235674199255
 20
94.6084920147974
 30
0.0
 10
71.79315878105604
 20
95.83104881791118
 30
0.0
 10
71.79427255405291
 20
96.76818774404306
 30
0.0
 10
71.81318334700596
 20
98.08805897355805
 30
0.0
 10
71.81781287486496
 20
98.35956088253435
 30
0.0
 10
71.8282940946109
 20
98.91794571733664
 30
0.0
 10
71.83408935589533
 20
99.20506857327625
 30
0.0
 10
71.85239857680025
 20
100.077657827648
 30
0.0
 10
71.86643351108063
 20
100.6781135040038
 30
0.0
 10
71.89589068321747
 20
101.9155879964999
 30
0.0
 10
71.91144637419902
 20
102.5526041531433
 30
0.0
 10
71.93524092419592
 20
103.8640927508279
 30
0.0
 10
71.9432599763413
 20
104.5402153624884
 30
0.0
 10
71.9395533296214
 20
105.2245104737732
 30
0.0
  0
LINE
  5
E9
330
1F
100
AcDbEntity
  8
0
  6
HIDDEN
 62
     7
370
     0
100
AcDbLine
 10
71.9395533297
 20
112.4337777169
 30
0.0
 11
71.9395533297
 21
124.6306345314
 31
0.0
  0
SPLINE
  5
EA
330
1F
100
AcDbEntity
  8
0
  6
HIDDEN
 62
     7
370
     0
100
AcDbSpline
210
0.0
220
0.0
230
1.0
 70
     8
 71
     3
 72
    10
 73
     6
 74
     0
 42
0.00000001
 43
0.00000001
 12
1.0
 22
0.0
 32
0.0
 13
1.0
 23
0.0
 33
0.0
 40
0.0
 40
0.0
 40
0.0
 40
0.0
 40
0.5
 40
0.5
 40
1.0
 40
1.0
 40
1.0
 40
1.0
 10
71.9395533296214
 20
105.2245104737581
 30
0.0
 10
71.93955332962122
 20
105.4984256218322
 30
0.0
 10
71.91379409975241
 20
105.7693672005618
 30
0.0
 10
71.810588167019
 20
106.305058282164
 30
0.0
 10
71.73325000314459
 20
106.5708050856857
 30
0.0
 10
71.63955332962142
 20
106.8324437931231
 30
0.0
  0
SPLINE
  5
EB
330
1F
100
AcDbEntity
  8
0
  6
HIDDEN
 62
     7
370
     0
100
AcDbSpline
210
0.0
220
0.0
230
1.0
 70
     8
 71
     3
 72
    10
 73
     6
 74
     0
 42
0.00000001
 43
0.00000001
 12
1.0
 22
0.0
 32
0.0
 13
1.0
 23
0.0
 33
0.0
 40
0.0
 40
0.0
 40
0.0
 40
0.0
 40
0.5
 40
0.5
 40
1.0
 40
1.0
 40
1.0
 40
1.0
 10
71.6395533296214
 20
110.8162723981903
 30
0.0
 10
71.73278390997253
 20
111.0801662047886
 30
0.0
 10
71.80781352150125
 20
111.346346513887
 30
0.0
 10
71.91288061948079
 20
111.8846690857056
 30
0.0
 10
71.93955332972536
 20
112.1574172003213
 30
0.0
 10
71.93955332972654
 20
112.4337777169084
 30
0.0
  0
LINE
  5
EC
330
1F
100
AcDbEntity
  8
0
  6
HIDDEN
 62
     7
370
     0
100
AcDbLine
 10
71.6395533296
 20
106.8324437931
 30
0.0
 11
71.6395533296
 21
110.8162723982
 31
0.0
  0
LINE
  5
ED
330
1F
100
AcDbEntity
  8
0
  6
HIDDEN
 62
     7
370
     0
100
AcDbLine
 10
71.7895533296
 20
90.8391440953
 30
0.0
 11
71.7895533296
 21
87.9592063299
 31
0.0
  0
LINE
  5
EE
330
1F
100
AcDbEntity
  8
0
  6
HIDDEN
 62
     7
370
     0
100
AcDbLine
 10
181.5395533296
 20
98.9291440953
 30
0.0
 11
181.5395533296
 21
118.7291440944
 31
0.0
  0
LINE
  5
EF
330
1F
100
AcDbEntity
  8
0
  6
HIDDEN
 62
     7
370
     0
100
AcDbLine
 10
185.5395533296
 20
98.8291440953
 30
0.0
 11
185.5395533296
 21
118.8291440953
 31
0.0
  0
LINE
  5
F0
330
1F
100
AcDbEntity
  8
0
  6
HIDDEN
 62
     7
370
     0
100
AcDbLine
 10
80.7395533296
 20
90.8391440953
 30
0.0
 11
80.7395533296
 21
86.8654065641
 31
0.0
  0
LINE
  5
F1
330
1F
100
AcDbEntity
  8
0
  6
HIDDEN
 62
     7
370
     0
100
AcDbLine
 10
71.7895533296
 20
126.8191440953
 30
0.0
 11
71.7895533296
 21
129.6990818607
 31
0.0
  0
LINE
  5
F2
330
1F
100
AcDbEntity
  8
0
  6
HIDDEN
 62
     7
370
     0
100
AcDbLine
 10
76.7395533296
 20
126.8191440953
 30
0.0
 11
76.7395533296
 21
130.6732517677
 31
0.0
  0
LINE
  5
F3
330
1F
100
AcDbEntity
  8
0
  6
HIDDEN
 62
     7
370
     0
100
AcDbLine
 10
124.3395533296
 20
99.3291440953
 30
0.0
 11
124.3395533296
 21
118.3291440953
 31
0.0
  0
LINE
  5
F4
330
1F
100
AcDbEntity
  8
0
  6
HIDDEN
 62
     7
370
     0
100
AcDbLine
 10
121.3395533296
 20
99.3291440953
 30
0.0
 11
121.3395533296
 21
118.3291440953
 31
0.0
  0
LINE
  5
F5
330
1F
100
AcDbEntity
  8
0
  6
HIDDEN
 62
     7
370
     0
100
AcDbLine
 10
112.9895533296
 20
100.3291440953
 30
0.0
 11
112.9895533296
 21
117.3291440953
 31
0.0
  0
LINE
  5
F6
330
1F
100
AcDbEntity
  8
0
  6
HIDDEN
 62
     7
370
     0
100
AcDbLine
 10
128.4895533296
 20
82.4291440953
 30
0.0
 11
122.3518785273
 21
82.4291440953
 31
0.0
  0
LINE
  5
F7
330
1F
100
AcDbEntity
  8
0
  6
HIDDEN
 62
     7
370
     0
100
AcDbLine
 10
118.727228132
 20
82.4291440953
 30
0.0
 11
115.4895533296
 21
82.4291440953
 31
0.0
  0
LINE
  5
F8
330
1F
100
AcDbEntity
  8
0
  6
HIDDEN
 62
     7
370
     0
100
AcDbLine
 10
107.4895533296
 20
77.3450211125
 30
0.0
 11
107.4895533296
 21
82.4291440953
 31
0.0
  0
LINE
  5
F9
330
1F
100
AcDbEntity
  8
0
  6
HIDDEN
 62
     7
370
     0
100
AcDbLine
 10
115.4895533296
 20
82.4291440953
 30
0.0
 11
107.4895533296
 21
82.4291440953
 31
0.0
  0
LINE
  5
FA
330
1F
100
AcDbEntity
  8
0
  6
HIDDEN
 62
     7
370
     0
100
AcDbLine
 10
119.0238508613
 20
135.2291440953
 30
0.0
 11
115.4895533296
 21
135.2291440953
 31
0.0
  0
LINE
  5
FB
330
1F
100
AcDbEntity
  8
0
  6
HIDDEN
 62
     7
370
     0
100
AcDbLine
 10
115.4895533296
 20
135.2291440953
 30
0.0
 11
107.4895533296
 21
135.2291440953
 31
0.0
  0
LINE
  5
FC
330
1F
100
AcDbEntity
  8
0
  6
HIDDEN
 62
     7
370
     0
100
AcDbLine
 10
128.4895533296
 20
135.2291440953
 30
0.0
 11
122.0552557979
 21
135.2291440953
 31
0.0
  0
SPLINE
  5
FD
330
1F
100
AcDbEntity
  8
0
  6
HIDDEN
 62
     7
370
     0
100
AcDbSpline
210
0.0
220
0.0
230
1.0
 70
     8
 71
     3
 72
    11
 73
     7
 74
     0
 42
0.00000001
 43
0.00000001
 12
1.0
 22
0.0
 32
0.0
 13
1.0
 23
0.0
 33
0.0
 40
0.0
 40
0.0
 40
0.0
 40
0.0
 40
0.0008203708524183
 40
0.0008203708524183
 40
0.0008203708524183
 40
0.0016409967870154
 40
0.0016409967870154
 40
0.0016409967870154
 40
0.0016409967870154
 10
71.78955332962141
 20
92.97711134469857
 30
0.0
 10
71.59839502932275
 20
92.93593231607944
 30
0.0
 10
71.40696795925055
 20
92.89717834384943
 30
0.0
 10
71.21532233572991
 20
92.86081058457088
 30
0.0
 10
71.02361693064945
 20
92.82443148080485
 30
0.0
 10
70.83167797859052
 20
92.79043723003731
 30
0.0
 10
70.63955333151972
 20
92.7587891046461
 30
0.0
  0
ELLIPSE
  5
FE
330
1F
100
AcDbEntity
  8
0
  6
HIDDEN
 62
     7
370
     0
100
AcDbEllipse
 10
66.3971214669
 20
108.8291440953
 30
0.0
 11
20.19992452772426
 21
-1.421085471520200E-14
 31
0.0
210
0.0
220
0.0
230
1.0
 40
0.816496581
 41
1.300566354937166
 42
1.359198697442763
  0
LINE
  5
FF
330
1F
100
AcDbEntity
  8
0
  6
HIDDEN
 62
     7
370
     0
100
AcDbLine
 10
80.7395533296
 20
90.8391440953
 30
0.0
 11
80.7395533296
 21
92.5416304729
 31
0.0
  0
LINE
  5
100
330
1F
100
AcDbEntity
  8
0
  6
HIDDEN
 62
     7
370
     0
100
AcDbLine
 10
71.7895533296
 20
90.8391440953
 30
0.0
 11
71.7895533296
 21
92.9771113447
 31
0.0
  0
LINE
  5
101
330
1F
100
AcDbEntity
  8
0
  6
HIDDEN
 62
     7
370
     0
100
AcDbLine
 10
71.870584343
 20
93.0276536593
 30
0.0
 11
71.7895533296
 21
92.9771113447
 31
0.0
  0
LINE
  5
102
330
1F
100
AcDbEntity
  8
0
  6
HIDDEN
 62
     7
370
     0
100
AcDbLine
 10
76.7395533296
 20
126.8191440953
 30
0.0
 11
76.7395533296
 21
125.1166577177
 31
0.0
  0
LINE
  5
103
330
1F
100
AcDbEntity
  8
0
  6
HIDDEN
 62
     7
370
     0
100
AcDbLine
 10
71.7895533296
 20
126.8191440953
 30
0.0
 11
71.7895533296
 21
124.7237685443
 31
0.0
  0
SPLINE
  5
104
330
1F
100
AcDbEntity
  8
0
  6
HIDDEN
 62
     7
370
     0
100
AcDbSpline
210
0.0
220
0.0
230
1.0
 70
     8
 71
     3
 72
     8
 73
     4
 74
     0
 42
0.00000001
 43
0.00000001
 12
1.0
 22
0.0
 32
0.0
 13
1.0
 23
0.0
 33
0.0
 40
0.0
 40
0.0
 40
0.0
 40
0.0
 40
1.0
 40
1.0
 40
1.0
 40
1.0
 10
71.78955332962141
 20
124.7237685443398
 30
0.0
 10
71.83955882746886
 20
124.692732770807
 30
0.0
 10
71.88955889703725
 20
124.6616881264662
 30
0.0
 10
71.93955332972656
 20
124.6306345313729
 30
0.0
  0
SPLINE
  5
105
330
1F
100
AcDbEntity
  8
0
  6
HIDDEN
 62
     7
370
     0
100
AcDbSpline
210
0.0
220
0.0
230
1.0
 70
     8
 71
     3
 72
    20
 73
    16
 74
     0
 42
0.00000001
 43
0.00000001
 12
1.0
 22
0.0
 32
0.0
 13
1.0
 23
0.0
 33
0.0
 40
0.0
 40
0.0
 40
0.0
 40
0.0
 40
0.1119595197684142
 40
0.1774767634647507
 40
0.2490961890179794
 40
0.3298422315093885
 40
0.3986125823881415
 40
0.4998893016461092
 40
0.6138510293005034
 40
0.6790150176761197
 40
0.7495394203319945
 40
0.8296829944212418
 40
0.8981246285268906
 40
0.9995320175861913
 40
1.0
 40
1.0
 40
1.0
 40
1.0
 10
97.28839377948428
 20
85.22915033357349
 30
0.0
 10
97.24507004118574
 20
85.24257965161053
 30
0.0
 10
97.17639381900896
 20
85.26386763056651
 30
0.0
 10
96.73121469295867
 20
85.367178442215
 30
0.0
 10
96.2046564092889
 20
85.48048167227687
 30
0.0
 10
95.51923138815974
 20
85.60341454006948
 30
0.0
 10
94.62591399086091
 20
85.72544899925393
 30
0.0
 10
93.51255460372327
 20
85.84318530703854
 30
0.0
 10
92.40178052308767
 20
85.85516080941419
 30
0.0
 10
91.51703222118225
 20
85.82810251928284
 30
0.0
 10
90.84983562654854
 20
85.78017045487503
 30
0.0
 10
90.30856312432131
 20
85.72387694251044
 30
0.0
 10
89.92098316524915
 20
85.67879403187167
 30
0.0
 10
89.72704664518007
 20
85.63992085717175
 30
0.0
 10
89.79014910540978
 20
85.6506269144125
 30
0.0
 10
89.79043897764514
 20
85.650676094567
 30
0.0
  0
LINE
  5
106
330
1F
100
AcDbEntity
  8
0
  6
HIDDEN
 62
     7
370
     0
100
AcDbLine
 10
90.699565242
 20
85.7614822388
 30
0.0
 11
90.8834105551
 21
85.7796715813
 31
0.0
  0
LINE
  5
107
330
1F
100
AcDbEntity
  8
0
  6
HIDDEN
 62
     7
370
     0
100
AcDbLine
 10
90.8834078567
 20
131.8785471781
 30
0.0
 11
90.7093345748
 21
131.8957567042
 31
0.0
  0
SPLINE
  5
108
330
1F
100
AcDbEntity
  8
0
  6
HIDDEN
 62
     7
370
     0
100
AcDbSpline
210
0.0
220
0.0
230
1.0
 70
     8
 71
     3
 72
    20
 73
    16
 74
     0
 42
0.00000001
 43
0.00000001
 12
1.0
 22
0.0
 32
0.0
 13
1.0
 23
0.0
 33
0.0
 40
0.0
 40
0.0
 40
0.0
 40
0.0
 40
0.0004889684280502
 40
0.1018319933926956
 40
0.1702475582150564
 40
0.2503692056770218
 40
0.3209568221796114
 40
0.3861816196721121
 40
0.5002554836817364
 40
0.6012243489302103
 40
0.669768055864141
 40
0.750240190758111
 40
0.8220490693822882
 40
0.8877204546071489
 40
1.0
 40
1.0
 40
1.0
 40
1.0
 10
89.79047236240656
 20
132.0075455495338
 30
0.0
 10
89.79016872140964
 20
132.007597136684
 30
0.0
 10
89.72693280224408
 20
132.0183406162973
 30
0.0
 10
89.92013683603842
 20
131.9794846256387
 30
0.0
 10
90.30708389094629
 20
131.9344611352341
 30
0.0
 10
90.84809081427261
 20
131.8781981731412
 30
0.0
 10
91.51559107573762
 20
131.8302669805471
 30
0.0
 10
92.40141892709099
 20
131.8031935248176
 30
0.0
 10
93.51222549917875
 20
131.8150195283972
 30
0.0
 10
94.62429586520201
 20
131.9324686035525
 30
0.0
 10
95.51539617139996
 20
132.0541729917921
 30
0.0
 10
96.20088062221008
 20
132.1769940373667
 30
0.0
 10
96.72886852174763
 20
132.290432289049
 30
0.0
 10
97.17625247324088
 20
132.3941728446876
 30
0.0
 10
97.24506293959537
 20
132.4155956379649
 30
0.0
 10
97.28847944690855
 20
132.429112518612
 30
0.0
  0
SPLINE
  5
109
330
1F
100
AcDbEntity
  8
0
  6
HIDDEN
 62
     7
370
     0
100
AcDbSpline
210
0.0
220
0.0
230
1.0
 70
     8
 71
     3
 72
     8
 73
     4
 74
     0
 42
0.00000001
 43
0.00000001
 12
1.0
 22
0.0
 32
0.0
 13
1.0
 23
0.0
 33
0.0
 40
0.0
 40
0.0
 40
0.0
 40
0.0
 40
0.000159097691435
 40
0.000159097691435
 40
0.000159097691435
 40
0.000159097691435
 10
71.92472133552378
 20
93.02765365930964
 30
0.0
 10
71.87966986612443
 20
92.99967477567574
 30
0.0
 10
71.83461382881484
 20
92.97170324599018
 30
0.0
 10
71.78955332962141
 20
92.94373890732683
 30
0.0
  0
SPLINE
  5
10A
330
1F
100
AcDbEntity
  8
0
  6
HIDDEN
 62
     7
370
     0
100
AcDbSpline
210
0.0
220
0.0
230
1.0
 70
     8
 71
     3
 72
    11
 73
     7
 74
     0
 42
0.00000001
 43
0.00000001
 12
1.0
 22
0.0
 32
0.0
 13
1.0
 23
0.0
 33
0.0
 40
0.0
 40
0.0
 40
0.0
 40
0.0
 40
0.0008212909311356
 40
0.0008212909311356
 40
0.0008212909311356
 40
0.0016428257242859
 40
0.0016428257242859
 40
0.0016428257242859
 40
0.0016428257242859
 10
71.78955332962141
 20
92.94373890732683
 30
0.0
 10
71.59840830813907
 20
92.90045271849704
 30
0.0
 10
71.4069899724625
 20
92.85951620888301
 30
0.0
 10
71.21534389780138
 20
92.82091443752017
 30
0.0
 10
71.02364081625979
 20
92.78230118370683
 30
0.0
 10
70.83169569297438
 20
92.74602097444509
 30
0.0
 10
70.63955332962138
 20
92.71205406811838
 30
0.0
  0
LINE
  5
10B
330
1F
100
AcDbEntity
  8
0
  6
HIDDEN
 62
     7
370
     0
100
AcDbLine
 10
118.6295533296
 20
128.9733872652
 30
0.0
 11
118.6295533296
 21
128.6791440953
 31
0.0
  0
LINE
  5
10C
330
1F
100
AcDbEntity
  8
0
  6
HIDDEN
 62
     7
370
     0
100
AcDbLine
 10
122.4495533296
 20
128.9733872652
 30
0.0
 11
122.4495533296
 21
128.6791440953
 31
0.0
  0
LINE
  5
10D
330
1F
100
AcDbEntity
  8
0
  6
HIDDEN
 62
     7
370
     0
100
AcDbLine
 10
123.9314861611
 20
133.2878337577
 30
0.0
 11
123.9314861611
 21
128.6791440953
 31
0.0
  0
SPLINE
  5
10E
330
1F
100
AcDbEntity
  8
0
  6
HIDDEN
 62
     7
370
     0
100
AcDbSpline
210
0.0
220
0.0
230
1.0
 70
     8
 71
     3
 72
    24
 73
    20
 74
     0
 42
0.00000001
 43
0.00000001
 12
1.0
 22
0.0
 32
0.0
 13
1.0
 23
0.0
 33
0.0
 40
0.0
 40
0.0
 40
0.0
 40
0.0
 40
0.25
 40
0.25
 40
0.374999999999999
 40
0.374999999999999
 40
0.4374999999999993
 40
0.4374999999999993
 40
0.4687499999999994
 40
0.4687499999999994
 40
0.4999999999999995
 40
0.4999999999999995
 40
0.5624999999999971
 40
0.5624999999999971
 40
0.6249999999999947
 40
0.6249999999999947
 40
0.7499999999999947
 40
0.7499999999999947
 40
1.0
 40
1.0
 40
1.0
 40
1.0
 10
70.70221670434482
 20
89.15459155056055
 30
0.0
 10
70.71596982301506
 20
89.22524160855083
 30
0.0
 10
70.73374239042091
 20
89.29183972131577
 30
0.0
 10
70.78599348197628
 20
89.36593774154896
 30
0.0
 10
70.80702855755783
 20
89.38719554871052
 30
0.0
 10
70.85992896518628
 20
89.39534147485676
 30
0.0
 10
70.8810346380642
 20
89.394401671461
 30
0.0
 10
70.92708680674214
 20
89.37338567988365
 30
0.0
 10
70.94545727872554
 20
89.36247687377603
 30
0.0
 10
70.98700891379126
 20
89.32984196282867
 30
0.0
 10
71.00957558654817
 20
89.30834998245729
 30
0.0
 10
71.07235660300817
 20
89.23988403887098
 30
0.0
 10
71.10548636397607
 20
89.19380958066589
 30
0.0
 10
71.16240405046109
 20
89.10880169233123
 30
0.0
 10
71.18659007596487
 20
89.06852139114984
 30
0.0
 10
71.25179802634463
 20
88.95358516468389
 30
0.0
 10
71.28651408653586
 20
88.88300217953689
 30
0.0
 10
71.37972935686673
 20
88.67879642045828
 30
0.0
 10
71.42540189222741
 20
88.55589803813092
 30
0.0
 10
71.46370697572596
 20
88.43902476174334
 30
0.0
  0
SPLINE
  5
10F
330
1F
100
AcDbEntity
  8
0
  6
HIDDEN
 62
     7
370
     0
100
AcDbSpline
210
0.0
220
0.0
230
1.0
 70
     8
 71
     3
 72
     8
 73
     4
 74
     0
 42
0.00000001
 43
0.00000001
 12
1.0
 22
0.0
 32
0.0
 13
1.0
 23
0.0
 33
0.0
 40
0.0000000000000004
 40
0.0000000000000004
 40
0.0000000000000004
 40
0.0000000000000004
 40
0.001156372467817
 40
0.001156372467817
 40
0.001156372467817
 40
0.001156372467817
 10
71.63955332962172
 20
121.469286408817
 30
0.0
 10
71.30623221442445
 20
121.5983454344438
 30
0.0
 10
70.9728995336164
 20
121.7273057706124
 30
0.0
 10
70.6395533296214
 20
121.8562173003853
 30
0.0
  0
SPLINE
  5
110
330
1F
100
AcDbEntity
  8
0
  6
HIDDEN
 62
     7
370
     0
100
AcDbSpline
210
0.0
220
0.0
230
1.0
 70
     8
 71
     3
 72
    11
 73
     7
 74
     0
 42
0.00000001
 43
0.00000001
 12
1.0
 22
0.0
 32
0.0
 13
1.0
 23
0.0
 33
0.0
 40
0.0
 40
0.0
 40
0.0
 40
0.0
 40
0.000577874610501
 40
0.000577874610501
 40
0.000577874610501
 40
0.001155749485703
 40
0.001155749485703
 40
0.001155749485703
 40
0.001155749485703
 10
70.63955332962142
 20
95.80192223289058
 30
0.0
 10
70.80622020603452
 20
95.86773435967359
 30
0.0
 10
70.97288692559583
 20
95.93359283990115
 30
0.0
 10
71.13955357364446
 20
95.99950041292348
 30
0.0
 10
71.30622029816308
 20
96.06540801618554
 30
0.0
 10
71.47288699258377
 20
96.13136512466755
 30
0.0
 10
71.63955332962142
 20
96.19736686468717
 30
0.0
  0
SPLINE
  5
111
330
1F
100
AcDbEntity
  8
0
  6
HIDDEN
 62
     7
370
     0
100
AcDbSpline
210
0.0
220
0.0
230
1.0
 70
     8
 71
     3
 72
    11
 73
     7
 74
     0
 42
0.00000001
 43
0.00000001
 12
1.0
 22
0.0
 32
0.0
 13
1.0
 23
0.0
 33
0.0
 40
0.0000000000000006
 40
0.0000000000000006
 40
0.0000000000000006
 40
0.0000000000000006
 40
0.000578048606266
 40
0.000578048606266
 40
0.000578048606266
 40
0.001156097351391
 40
0.001156097351391
 40
0.001156097351391
 40
0.001156097351391
 10
70.63955332962142
 20
118.8099585886286
 30
0.0
 10
70.80622318566662
 20
118.7475867272234
 30
0.0
 10
70.97289088975106
 20
118.6852328670319
 30
0.0
 10
71.1395571942047
 20
118.6229133069484
 30
0.0
 10
71.30622353489845
 20
118.5605937333141
 30
0.0
 10
71.47288849152706
 20
118.4983085290934
 30
0.0
 10
71.63955332962142
 20
118.4360834086205
 30
0.0
  0
SPLINE
  5
112
330
1F
100
AcDbEntity
  8
0
  6
HIDDEN
 62
     7
370
     0
100
AcDbSpline
210
0.0
220
0.0
230
1.0
 70
     8
 71
     3
 72
    11
 73
     7
 74
     0
 42
0.00000001
 43
0.00000001
 12
1.0
 22
0.0
 32
0.0
 13
1.0
 23
0.0
 33
0.0
 40
0.0
 40
0.0
 40
0.0
 40
0.0
 40
0.0005782401583357
 40
0.0005782401583357
 40
0.0005782401583357
 40
0.001156480596064
 40
0.001156480596064
 40
0.001156480596064
 40
0.001156480596064
 10
71.6395533296214
 20
99.22831731058098
 30
0.0
 10
71.4729023792727
 20
99.1648918526419
 30
0.0
 10
71.30624278669012
 20
99.10153632911208
 30
0.0
 10
71.13957573426156
 20
99.03823874489073
 30
0.0
 10
70.97290859769775
 20
98.97494112871611
 30
0.0
 10
70.8062339902516
 20
98.91170133390725
 30
0.0
 10
70.6395533296214
 20
98.84850132740299
 30
0.0
  0
CIRCLE
  5
113
330
1F
100
AcDbEntity
  8
0
  6
HIDDEN
 62
     7
370
     0
100
AcDbCircle
 10
109.5395533296
 20
108.8291440953
 30
0.0
 40
5.0
  0
LINE
  5
114
330
1F
100
AcDbEntity
  8
0
  6
HIDDEN
 62
     7
370
     0
100
AcDbLine
 10
106.5395533296
 20
123.1269792451
 30
0.0
 11
106.5395533296
 21
121.2230847382
 31
0.0
  0
LINE
  5
115
330
1F
100
AcDbEntity
  8
0
  6
HIDDEN
 62
     7
370
     0
100
AcDbLine
 10
114.5395533296
 20
121.2230847382
 30
0.0
 11
114.5395533296
 21
123.1297746011
 31
0.0
  0
LINE
  5
116
330
1F
100
AcDbEntity
  8
0
  6
HIDDEN
 62
     7
370
     0
100
AcDbLine
 10
102.5395533296
 20
83.5052129494
 30
0.0
 11
102.6337141051
 21
84.1752016806
 31
0.0
  0
LINE
  5
117
330
1F
100
AcDbEntity
  8
0
  6
HIDDEN
 62
     7
370
     0
100
AcDbLine
 10
102.6337141051
 20
133.4830865101
 30
0.0
 11
102.5395533296
 21
134.1530752413
 31
0.0
  0
ARC
  5
118
330
1F
100
AcDbEntity
  8
0
  6
HIDDEN
 62
     7
370
     0
100
AcDbCircle
 10
102.039546577
 20
84.258706481
 30
0.0
 40
0.6000067526677203
100
AcDbArc
 50
352.0
 51
0.0
  0
ARC
  5
119
330
1F
100
AcDbEntity
  8
0
  6
HIDDEN
 62
     7
370
     0
100
AcDbCircle
 10
102.039546577
 20
84.258706481
 30
0.0
 40
0.6000067526677124
100
AcDbArc
 50
0.0
 51
33.5571153394
  0
ARC
  5
11A
330
1F
100
AcDbEntity
  8
0
  6
HIDDEN
 62
     7
370
     0
100
AcDbCircle
 10
102.039546577
 20
133.3995817097
 30
0.0
 40
0.6000067526677222
100
AcDbArc
 50
348.75
 51
8.0
  0
LWPOLYLINE
  5
11B
330
1F
100
AcDbEntity
  8
0
  6
HIDDEN
 62
     7
370
     0
100
AcDbPolyline
 90
        3
 70
   128
 43
0.0
 10
102.6280243681
 20
133.2825261991
 10
102.5938805351
 20
133.1699690662
 10
102.5395533296
 20
133.0679171947
  0
LINE
  5
11C
330
1F
100
AcDbEntity
  8
0
  6
HIDDEN
 62
     7
370
     0
100
AcDbLine
 10
102.6395533296
 20
84.258706481
 30
0.0
 11
102.6395533296
 21
133.3995817097
 31
0.0
  0
ARC
  5
11D
330
1F
100
AcDbEntity
  8
0
  6
HIDDEN
 62
     7
370
     0
100
AcDbCircle
 10
96.2945553312
 20
96.8291440953
 30
0.0
 40
7.999999999999993
100
AcDbArc
 50
276.8813033455
 51
321.3178125465
  0
ARC
  5
11E
330
1F
100
AcDbEntity
  8
0
  6
HIDDEN
 62
     7
370
     0
100
AcDbCircle
 10
96.2945553312
 20
120.8291440953
 30
0.0
 40
7.999999999999999
100
AcDbArc
 50
38.6821874535
 51
83.1303396552
  0
LINE
  5
11F
330
1F
100
AcDbEntity
  8
0
  6
HIDDEN
 62
     7
370
     0
100
AcDbLine
 10
85.6219888949
 20
88.8291440953
 30
0.0
 11
89.8136607831
 21
88.8291440953
 31
0.0
  0
LINE
  5
120
330
1F
100
AcDbEntity
  8
0
  6
HIDDEN
 62
     7
370
     0
100
AcDbLine
 10
89.8136607831
 20
128.8291440953
 30
0.0
 11
85.6219888949
 21
128.8291440953
 31
0.0
  0
ARC
  5
121
330
1F
100
AcDbEntity
  8
0
  6
HIDDEN
 62
     7
370
     0
100
AcDbCircle
 10
85.6219888949
 20
89.4291440953
 30
0.0
 40
0.5999999999999962
100
AcDbArc
 50
210.0
 51
270.0
  0
ARC
  5
122
330
1F
100
AcDbEntity
  8
0
  6
HIDDEN
 62
     7
370
     0
100
AcDbCircle
 10
85.6219888949
 20
128.2291440953
 30
0.0
 40
0.6000000000000032
100
AcDbArc
 50
90.0
 51
150.0
  0
LINE
  5
123
330
1F
100
AcDbEntity
  8
0
  6
HIDDEN
 62
     7
370
     0
100
AcDbLine
 10
85.1023736526
 20
128.5291440953
 30
0.0
 11
83.5435279258
 21
125.8291440953
 31
0.0
  0
LINE
  5
124
330
1F
100
AcDbEntity
  8
0
  6
HIDDEN
 62
     7
370
     0
100
AcDbLine
 10
83.5435279258
 20
91.8291440953
 30
0.0
 11
85.1023736526
 21
89.1291440953
 31
0.0
  0
LINE
  5
125
330
1F
100
AcDbEntity
  8
0
  6
HIDDEN
 62
     7
370
     0
100
AcDbLine
 10
106.5395533296
 20
136.1034779545
 30
0.0
 11
106.5395533296
 21
132.77474651
 31
0.0
  0
LINE
  5
126
330
1F
100
AcDbEntity
  8
0
  6
HIDDEN
 62
     7
370
     0
100
AcDbLine
 10
114.5395533296
 20
132.77474651
 30
0.0
 11
114.5395533296
 21
136.1088103333
 31
0.0
  0
ARC
  5
127
330
1F
100
AcDbEntity
  8
0
  6
HIDDEN
 62
     7
370
     0
100
AcDbCircle
 10
110.9895533296
 20
93.1041440953
 30
0.0
 40
1.500000000000009
100
AcDbArc
 50
238.2116693829
 51
0.0
  0
ARC
  5
128
330
1F
100
AcDbEntity
  8
0
  6
HIDDEN
 62
     7
370
     0
100
AcDbCircle
 10
110.9895533296
 20
124.5541440953
 30
0.0
 40
1.5
100
AcDbArc
 50
0.0
 51
121.7883306171
  0
LINE
  5
129
330
1F
100
AcDbEntity
  8
0
  6
HIDDEN
 62
     7
370
     0
100
AcDbLine
 10
102.5395533296
 20
91.8291440953
 30
0.0
 11
110.1993792982
 21
91.8291440953
 31
0.0
  0
LINE
  5
12A
330
1F
100
AcDbEntity
  8
0
  6
HIDDEN
 62
     7
370
     0
100
AcDbLine
 10
110.1993792982
 20
125.8291440953
 30
0.0
 11
102.5395533296
 21
125.8291440953
 31
0.0
  0
LINE
  5
12B
330
1F
100
AcDbEntity
  8
0
  6
HIDDEN
 62
     7
370
     0
100
AcDbLine
 10
80.7395533296
 20
91.8291440953
 30
0.0
 11
83.5435279258
 21
91.8291440953
 31
0.0
  0
LINE
  5
12C
330
1F
100
AcDbEntity
  8
0
  6
HIDDEN
 62
     7
370
     0
100
AcDbLine
 10
83.5435279258
 20
125.8291440953
 30
0.0
 11
76.7395533296
 21
125.8291440953
 31
0.0
  0
ARC
  5
12D
330
1F
100
AcDbEntity
  8
0
  6
HIDDEN
 62
     7
370
     0
100
AcDbCircle
 10
184.6447793115
 20
98.9291440953
 30
0.0
 40
0.3999999999999977
100
AcDbArc
 50
270.0
 51
290.0
  0
ARC
  5
12E
330
1F
100
AcDbEntity
  8
0
  6
HIDDEN
 62
     7
370
     0
100
AcDbCircle
 10
184.6447793115
 20
118.7291440953
 30
0.0
 40
0.4000000000000057
100
AcDbArc
 50
70.0
 51
90.0
  0
ARC
  5
12F
330
1F
100
AcDbEntity
  8
0
  6
HIDDEN
 62
     7
370
     0
100
AcDbCircle
 10
232.2395533296
 20
98.5291440953
 30
0.0
 40
0.2999999999999972
100
AcDbArc
 50
0.0
 51
90.0
  0
ARC
  5
130
330
1F
100
AcDbEntity
  8
0
  6
HIDDEN
 62
     7
370
     0
100
AcDbCircle
 10
232.2395533296
 20
119.1291440953
 30
0.0
 40
0.3000000000000114
100
AcDbArc
 50
270.0
 51
0.0
  0
LINE
  5
131
330
1F
100
AcDbEntity
  8
0
  6
HIDDEN
 62
     7
370
     0
100
AcDbLine
 10
181.9395533296
 20
98.5291440953
 30
0.0
 11
184.6447793115
 21
98.5291440953
 31
0.0
  0
LINE
  5
132
330
1F
100
AcDbEntity
  8
0
  6
HIDDEN
 62
     7
370
     0
100
AcDbLine
 10
184.6447793115
 20
119.1291440953
 30
0.0
 11
181.9395533296
 21
119.1291440953
 31
0.0
  0
ARC
  5
133
330
1F
100
AcDbEntity
  8
0
  6
HIDDEN
 62
     7
370
     0
100
AcDbCircle
 10
181.9395533296
 20
98.9291440953
 30
0.0
 40
0.3999999999999915
100
AcDbArc
 50
180.0
 51
270.0
  0
ARC
  5
134
330
1F
100
AcDbEntity
  8
0
  6
HIDDEN
 62
     7
370
     0
100
AcDbCircle
 10
181.9395533296
 20
118.7291440953
 30
0.0
 40
0.4000000000000057
100
AcDbArc
 50
90.0
 51
180.0
  0
LINE
  5
135
330
1F
100
AcDbEntity
  8
0
  6
HIDDEN
 62
     7
370
     0
100
AcDbLine
 10
184.7815873688
 20
98.553267047
 30
0.0
 11
185.5395533296
 21
98.8291440953
 31
0.0
  0
LINE
  5
136
330
1F
100
AcDbEntity
  8
0
  6
HIDDEN
 62
     7
370
     0
100
AcDbLine
 10
185.5395533296
 20
118.8291440953
 30
0.0
 11
184.7815873688
 21
119.1050211437
 31
0.0
  0
LINE
  5
137
330
1F
100
AcDbEntity
  8
0
  6
HIDDEN
 62
     7
370
     0
100
AcDbLine
 10
185.5395533296
 20
98.8291440953
 30
0.0
 11
232.2395533296
 21
98.8291440953
 31
0.0
  0
LINE
  5
138
330
1F
100
AcDbEntity
  8
0
  6
HIDDEN
 62
     7
370
     0
100
AcDbLine
 10
232.2395533296
 20
118.8291440953
 30
0.0
 11
185.5395533296
 21
118.8291440953
 31
0.0
  0
LINE
  5
139
330
1F
100
AcDbEntity
  8
0
  6
HIDDEN
 62
     7
370
     0
100
AcDbLine
 10
121.3395533296
 20
99.3291440953
 30
0.0
 11
124.3395533296
 21
99.3291440953
 31
0.0
  0
LINE
  5
13A
330
1F
100
AcDbEntity
  8
0
  6
HIDDEN
 62
     7
370
     0
100
AcDbLine
 10
124.3395533296
 20
118.3291440953
 30
0.0
 11
121.3395533296
 21
118.3291440953
 31
0.0
  0
LINE
  5
13B
330
1F
100
AcDbEntity
  8
0
  6
HIDDEN
 62
     7
370
     0
100
AcDbLine
 10
112.4895533296
 20
99.8291440953
 30
0.0
 11
112.9895533296
 21
100.3291440953
 31
0.0
  0
LINE
  5
13C
330
1F
100
AcDbEntity
  8
0
  6
HIDDEN
 62
     7
370
     0
100
AcDbLine
 10
112.9895533296
 20
117.3291440953
 30
0.0
 11
112.4895533296
 21
117.8291440953
 31
0.0
  0
LINE
  5
13D
330
1F
100
AcDbEntity
  8
0
  6
HIDDEN
 62
     7
370
     0
100
AcDbLine
 10
112.9895533296
 20
100.3291440953
 30
0.0
 11
121.3395533296
 21
100.3291440953
 31
0.0
  0
LINE
  5
13E
330
1F
100
AcDbEntity
  8
0
  6
HIDDEN
 62
     7
370
     0
100
AcDbLine
 10
121.3395533296
 20
117.3291440953
 30
0.0
 11
112.9895533296
 21
117.3291440953
 31
0.0
  0
LINE
  5
13F
330
1F
100
AcDbEntity
  8
0
  6
HIDDEN
 62
     7
370
     0
100
AcDbLine
 10
107.4895533296
 20
140.3291440953
 30
0.0
 11
107.4895533296
 21
135.2291440953
 31
0.0
  0
LINE
  5
140
330
1F
100
AcDbEntity
  8
0
  6
HIDDEN
 62
     7
370
     0
100
AcDbLine
 10
97.7239911601
 20
84.7497727618
 30
0.0
 11
97.2895590106
 21
85.2288387809
 31
0.0
  0
LINE
  5
141
330
1F
100
AcDbEntity
  8
0
  6
HIDDEN
 62
     7
370
     0
100
AcDbLine
 10
89.7895556855
 20
85.65052674
 30
0.0
 11
89.3071219422
 21
85.1714607646
 31
0.0
  0
LINE
  5
142
330
1F
100
AcDbEntity
  8
0
  6
HIDDEN
 62
     7
370
     0
100
AcDbLine
 10
89.3070000139
 20
132.4868221357
 30
0.0
 11
89.7895507649
 21
132.0077018778
 31
0.0
  0
LINE
  5
143
330
1F
100
AcDbEntity
  8
0
  6
HIDDEN
 62
     7
370
     0
100
AcDbLine
 10
97.2895532116
 20
132.4293996554
 30
0.0
 11
97.724095602
 21
132.908519906
 31
0.0
  0
LINE
  5
144
330
1F
100
AcDbEntity
  8
0
  6
HIDDEN
 62
     7
370
     0
100
AcDbLine
 10
124.3395533296
 20
104.5791440953
 30
0.0
 11
181.5395533296
 21
104.5791440953
 31
0.0
  0
LINE
  5
145
330
1F
100
AcDbEntity
  8
0
  6
HIDDEN
 62
     7
370
     0
100
AcDbLine
 10
181.5395533296
 20
113.0791440953
 30
0.0
 11
124.3395533296
 21
113.0791440953
 31
0.0
  0
LINE
  5
146
330
1F
100
AcDbEntity
  8
0
  6
HIDDEN
 62
     7
370
     0
100
AcDbLine
 10
97.2895533296
 20
85.2293226826
 30
0.0
 11
97.2895533296
 21
88.8937437571
 31
0.0
  0
LINE
  5
147
330
1F
100
AcDbEntity
  8
0
  6
HIDDEN
 62
     7
370
     0
100
AcDbLine
 10
89.7895533296
 20
88.8335218634
 30
0.0
 11
89.7895533296
 21
85.6508499778
 31
0.0
  0
LINE
  5
148
330
1F
100
AcDbEntity
  8
0
  6
HIDDEN
 62
     7
370
     0
100
AcDbLine
 10
97.2895533296
 20
128.7645444336
 30
0.0
 11
97.2895533296
 21
132.4288462338
 31
0.0
  0
LINE
  5
149
330
1F
100
AcDbEntity
  8
0
  6
HIDDEN
 62
     7
370
     0
100
AcDbLine
 10
89.7895533296
 20
132.0074466865
 30
0.0
 11
89.7895533296
 21
128.8247663273
 31
0.0
  0
DIMENSION
  5
14A
330
1F
100
AcDbEntity
  8
VERMASSUNG
100
AcDbDimension
  2
_D
 10
242.5395533296
 20
98.8291440953
 30
0.0
 11
242.5395533296
 21
108.8291440953
 31
0.0
 70
   160
  1
%%c<>
 71
     2
 42
-1.0
  3
SLDDIMSTYLE0
100
AcDbAlignedDimension
 13
232.2395533296
 23
118.8291440953
 33
0.0
 14
232.2395533296
 24
98.8291440953
 34
0.0
 50
90.0
100
AcDbRotatedDimension
  0
DIMENSION
  5
156
330
1F
100
AcDbEntity
  8
VERMASSUNG
100
AcDbDimension
  2
_D_1
 10
248.5395533296
 20
82.8291440953
 30
0.0
 11
248.5395533296
 21
108.8291440953
 31
0.0
 70
   160
  1
%%c<>
 71
     2
 42
-1.0
  3
SLDDIMSTYLE0
100
AcDbAlignedDimension
 13
219.6725118066
 23
134.8291440953
 33
0.0
 14
219.6725118066
 24
82.8291440953
 34
0.0
 50
90.0
100
AcDbRotatedDimension
  0
DIMENSION
  5
161
330
1F
100
AcDbEntity
  8
VERMASSUNG
100
AcDbDimension
  2
_D_2
 10
232.5395533296
 20
143.1754062839
 30
0.0
 11
180.5145533296
 21
143.1754062839
 31
0.0
 70
   160
  1
<>
 71
     2
 42
-1.0
  3
SLDDIMSTYLE0
100
AcDbAlignedDimension
 13
128.4895533296
 23
138.6755844191
 33
0.0
 14
232.5395533296
 24
127.5550035737
 34
0.0
100
AcDbRotatedDimension
  0
DIMENSION
  5
16B
330
1F
100
AcDbEntity
  8
VERMASSUNG
100
AcDbDimension
  2
_D_3
 10
232.5395533296
 20
149.1754062839
 30
0.0
 11
167.5395533296
 21
149.1754062839
 31
0.0
 70
   160
  1
<>
 71
     2
 42
-1.0
  3
SLDDIMSTYLE0
100
AcDbAlignedDimension
 13
102.5395533296
 23
140.0291440953
 33
0.0
 14
232.5395533296
 24
127.5550035737
 34
0.0
100
AcDbRotatedDimension
  0
DIMENSION
  5
175
330
1F
100
AcDbEntity
  8
VERMASSUNG
100
AcDbDimension
  2
_D_4
 10
232.5395533296
 20
155.1754062839
 30
0.0
 11
151.5895533296
 21
155.1754062839
 31
0.0
 70
   160
  1
<>
 71
     2
 42
-1.0
  3
SLDDIMSTYLE0
100
AcDbAlignedDimension
 13
70.6395533296
 23
128.5198218418
 33
0.0
 14
232.5395533296
 24
127.5550035737
 34
0.0
100
AcDbRotatedDimension
  0
DIMENSION
  5
17F
330
1F
100
AcDbEntity
  8
VERMASSUNG
100
AcDbDimension
  2
_D_5
 10
65.1871072589
 20
77.3291440953
 30
0.0
 11
65.1871072589
 21
108.8291440953
 31
0.0
 70
   160
  1
HSK A %%c<>
 71
     2
 42
-1.0
  3
SLDDIMSTYLE0
100
AcDbAlignedDimension
 13
102.8395533296
 23
140.3291440953
 33
0.0
 14
102.8395533296
 24
77.3291440953
 34
0.0
 50
90.0
100
AcDbRotatedDimension
  0
LINE
  5
18B
330
1F
100
AcDbEntity
  8
VERMASSUNG
  6
CENTERX2
370
     0
100
AcDbLine
 10
67.0436619718
 20
108.8291440953
 30
0.0
 11
234.8297941495
 21
108.8291440953
 31
0.0
  0
OLE2FRAME
  5
18C
330
1F
100
AcDbEntity
  8
0
100
AcDbOle2Frame
 70
     2
  3
Paintbrush-Bild
 10
13.8511154363
 20
38.264191557
 30
0.0
 11
51.6290888628
 21
31.9806341108
 31
0.0
 71
     2
 72
     0
 73
     1
 90
    12928
310
80552BED0767C5B32B40DDAF6807D121434000000000000000006FFBDDFB85D0
310
4940DDAF6807D121434000000000000000006FFBDDFB85D04940416F4BD60AFB
310
3F4000000000000000002BED0767C5B32B40416F4BD60AFB3F40000000000000
310
0000000000000100000000010000010000000100000000000100000000320000
310
D0CF11E0A1B11AE1000000000000000000000000000000003E000300FEFF0900
310
0600000000000000000000000100000001000000000000000010000002000000
310
01000000FEFFFFFF0000000000000000FFFFFFFFFFFFFFFFFFFFFFFFFFFFFFFF
310
FFFFFFFFFFFFFFFFFFFFFFFFFFFFFFFFFFFFFFFFFFFFFFFFFFFFFFFFFFFFFFFF
310
FFFFFFFFFFFFFFFFFFFFFFFFFFFFFFFFFFFFFFFFFFFFFFFFFFFFFFFFFFFFFFFF
310
FFFFFFFFFFFFFFFFFFFFFFFFFFFFFFFFFFFFFFFFFFFFFFFFFFFFFFFFFFFFFFFF
310
FFFFFFFFFFFFFFFFFFFFFFFFFFFFFFFFFFFFFFFFFFFFFFFFFFFFFFFFFFFFFFFF
310
FFFFFFFFFFFFFFFFFFFFFFFFFFFFFFFFFFFFFFFFFFFFFFFFFFFFFFFFFFFFFFFF
310
FFFFFFFFFFFFFFFFFFFFFFFFFFFFFFFFFFFFFFFFFFFFFFFFFFFFFFFFFFFFFFFF
310
FFFFFFFFFFFFFFFFFFFFFFFFFFFFFFFFFFFFFFFFFFFFFFFFFFFFFFFFFFFFFFFF
310
FFFFFFFFFFFFFFFFFFFFFFFFFFFFFFFFFFFFFFFFFFFFFFFFFFFFFFFFFFFFFFFF
310
FFFFFFFFFFFFFFFFFFFFFFFFFFFFFFFFFFFFFFFFFFFFFFFFFFFFFFFFFFFFFFFF
310
FFFFFFFFFFFFFFFFFFFFFFFFFFFFFFFFFFFFFFFFFFFFFFFFFFFFFFFFFFFFFFFF
310
FFFFFFFFFFFFFFFFFFFFFFFFFFFFFFFFFFFFFFFFFFFFFFFFFFFFFFFFFFFFFFFF
310
FFFFFFFFFFFFFFFFFFFFFFFFFFFFFFFFFFFFFFFFFFFFFFFFFFFFFFFFFFFFFFFF
310
FFFFFFFFFFFFFFFFFFFFFFFFFFFFFFFFFFFFFFFFFFFFFFFFFFFFFFFFFFFFFFFF
310
FDFFFFFFFEFFFFFFFEFFFFFFFEFFFFFF05000000060000000700000008000000
310
090000000A0000000B0000000C0000000D0000000E0000000F00000010000000
310
11000000120000001300000014000000150000001600000017000000FEFFFFFF
310
FFFFFFFFFFFFFFFFFFFFFFFFFFFFFFFFFFFFFFFFFFFFFFFFFFFFFFFFFFFFFFFF
310
FFFFFFFFFFFFFFFFFFFFFFFFFFFFFFFFFFFFFFFFFFFFFFFFFFFFFFFFFFFFFFFF
310
FFFFFFFFFFFFFFFFFFFFFFFFFFFFFFFFFFFFFFFFFFFFFFFFFFFFFFFFFFFFFFFF
310
FFFFFFFFFFFFFFFFFFFFFFFFFFFFFFFFFFFFFFFFFFFFFFFFFFFFFFFFFFFFFFFF
310
FFFFFFFFFFFFFFFFFFFFFFFFFFFFFFFFFFFFFFFFFFFFFFFFFFFFFFFFFFFFFFFF
310
FFFFFFFFFFFFFFFFFFFFFFFFFFFFFFFFFFFFFFFFFFFFFFFFFFFFFFFFFFFFFFFF
310
FFFFFFFFFFFFFFFFFFFFFFFFFFFFFFFFFFFFFFFFFFFFFFFFFFFFFFFFFFFFFFFF
310
FFFFFFFFFFFFFFFFFFFFFFFFFFFFFFFFFFFFFFFFFFFFFFFFFFFFFFFFFFFFFFFF
310
FFFFFFFFFFFFFFFFFFFFFFFFFFFFFFFFFFFFFFFFFFFFFFFFFFFFFFFFFFFFFFFF
310
FFFFFFFFFFFFFFFFFFFFFFFFFFFFFFFFFFFFFFFFFFFFFFFFFFFFFFFFFFFFFFFF
310
FFFFFFFFFFFFFFFFFFFFFFFFFFFFFFFFFFFFFFFFFFFFFFFFFFFFFFFFFFFFFFFF
310
FFFFFFFFFFFFFFFFFFFFFFFFFFFFFFFFFFFFFFFFFFFFFFFFFFFFFFFFFFFFFFFF
310
FFFFFFFFFFFFFFFFFFFFFFFFFFFFFFFFFFFFFFFFFFFFFFFFFFFFFFFFFFFFFFFF
310
52006F006F007400200045006E00740072007900000000000000000000000000
310
0000000000000000000000000000000000000000000000000000000000000000
310
16000500FFFFFFFFFFFFFFFF020000000A00030000000000C000000000000046
310
00000000000000000000000050507E7D88B6CD0103000000C000000000000000
310
01004F006C006500000000000000000000000000000000000000000000000000
310
0000000000000000000000000000000000000000000000000000000000000000
310
0A000200FFFFFFFFFFFFFFFFFFFFFFFF00000000000000000000000000000000
310
0000000000000000000000000000000000000000000000001400000000000000
310
010043006F006D0070004F0062006A0000000000000000000000000000000000
310
0000000000000000000000000000000000000000000000000000000000000000
310
120002010100000003000000FFFFFFFF00000000000000000000000000000000
310
0000000000000000000000000000000000000000010000004D00000000000000
310
01004F006C006500310030004E00610074006900760065000000000000000000
310
0000000000000000000000000000000000000000000000000000000000000000
310
1A000200FFFFFFFFFFFFFFFFFFFFFFFF00000000000000000000000000000000
310
0000000000000000000000000000000000000000040000002426000000000000
310
FEFFFFFF02000000FEFFFFFFFFFFFFFFFFFFFFFFFFFFFFFFFFFFFFFFFFFFFFFF
310
FFFFFFFFFFFFFFFFFFFFFFFFFFFFFFFFFFFFFFFFFFFFFFFFFFFFFFFFFFFFFFFF
310
FFFFFFFFFFFFFFFFFFFFFFFFFFFFFFFFFFFFFFFFFFFFFFFFFFFFFFFFFFFFFFFF
310
FFFFFFFFFFFFFFFFFFFFFFFFFFFFFFFFFFFFFFFFFFFFFFFFFFFFFFFFFFFFFFFF
310
FFFFFFFFFFFFFFFFFFFFFFFFFFFFFFFFFFFFFFFFFFFFFFFFFFFFFFFFFFFFFFFF
310
FFFFFFFFFFFFFFFFFFFFFFFFFFFFFFFFFFFFFFFFFFFFFFFFFFFFFFFFFFFFFFFF
310
FFFFFFFFFFFFFFFFFFFFFFFFFFFFFFFFFFFFFFFFFFFFFFFFFFFFFFFFFFFFFFFF
310
FFFFFFFFFFFFFFFFFFFFFFFFFFFFFFFFFFFFFFFFFFFFFFFFFFFFFFFFFFFFFFFF
310
FFFFFFFFFFFFFFFFFFFFFFFFFFFFFFFFFFFFFFFFFFFFFFFFFFFFFFFFFFFFFFFF
310
FFFFFFFFFFFFFFFFFFFFFFFFFFFFFFFFFFFFFFFFFFFFFFFFFFFFFFFFFFFFFFFF
310
FFFFFFFFFFFFFFFFFFFFFFFFFFFFFFFFFFFFFFFFFFFFFFFFFFFFFFFFFFFFFFFF
310
FFFFFFFFFFFFFFFFFFFFFFFFFFFFFFFFFFFFFFFFFFFFFFFFFFFFFFFFFFFFFFFF
310
FFFFFFFFFFFFFFFFFFFFFFFFFFFFFFFFFFFFFFFFFFFFFFFFFFFFFFFFFFFFFFFF
310
FFFFFFFFFFFFFFFFFFFFFFFFFFFFFFFFFFFFFFFFFFFFFFFFFFFFFFFFFFFFFFFF
310
FFFFFFFFFFFFFFFFFFFFFFFFFFFFFFFFFFFFFFFFFFFFFFFFFFFFFFFFFFFFFFFF
310
FFFFFFFFFFFFFFFFFFFFFFFFFFFFFFFFFFFFFFFFFFFFFFFFFFFFFFFFFFFFFFFF
310
0100000200000000000000000000000000000000000000000000000000000000
310
0000000000000000000000000000000000000000000000000000000000000000
310
0100FEFF030A0000FFFFFFFF0A00030000000000C00000000000004607000000
310
5042727573680007000000504272757368000700000050427275736800F439B2
310
7100000000000000000000000000000000000000000000000000000000000000
310
0000000000000000000000000000000000000000000000000000000000000000
310
0000000000000000000000000000000000000000000000000000000000000000
310
0000000000000000000000000000000000000000000000000000000000000000
310
0000000000000000000000000000000000000000000000000000000000000000
310
0000000000000000000000000000000000000000000000000000000000000000
310
0000000000000000000000000000000000000000000000000000000000000000
310
0000000000000000000000000000000000000000000000000000000000000000
310
0000000000000000000000000000000000000000000000000000000000000000
310
0000000000000000000000000000000000000000000000000000000000000000
310
0000000000000000000000000000000000000000000000000000000000000000
310
0000000000000000000000000000000000000000000000000000000000000000
310
20260000424D0E260000000000003E00000028000000B40200006E0000000100
310
01000000000000000000130B0000130B00000200000002000000000000FFFFFF
310
FFFFFFFFFFFFFFFFFFFFFFFFFFFFFFFFFFFFFFFFFFFFFFFFFFFFFFFFFFFFFFFF
310
FFFFFFFFFFFFFFFFFFFFFFFFFFFFFFFFFFFFFFFFFFFFFFFFFFFFFFFFFFFFFFFF
310
FFFFFFFFFFFFFFFFFFFFFFFFFFFFFFFFFFFFFFFFFFFFFFFFF000FFFFFFFFFFFF
310
FFFFFFFFFFFFFFFFFFFFFFFFFFFFFFFFFFFFFFFFFFFFFFFFFFFFFFFFFFFFFFFF
310
FFFFFFFFFFFFFFFFFFFFFFFFFFFFFFFFFFFFFFFFFFFFFFFFFFFFFFFFFFFFFFFF
310
FFFFFFFFFFFFFFFFFFFFFFFFFFFFFFFFF000FFFFFFFFFFFFFFFFFFFFFFFFFFFF
310
FFFFFFFFFFFFFFFFFFFFFFFFFFFFFFFFFFFFFFFFFFFFFFFFFFFFFFFFFFFFFFFF
310
FFFFFFFFFFFFFFFFFFFFFFFFFFFFFFFFFFFFFFFFFFFFFFFFFFFFFFFFFFFFFFFF
310
FFFFFFFFFFFFFFFFF000FFFFFFFFFFFFFFFFFFFFFFFFFFFFFFFFFFFFFFFFFFFF
310
FFFFFFFFFFFFFFFFFFFFFFFFFFFFFFFFFFFFFFFFFFFFFFFFFFFFFFFFFFFFFFFF
310
FFFFFFFFFFFFFFFFFFFFFFFFFFFFFFFFFFFFFFFFFFFFFFFFFFFFFFFFFFFFFFFF
310
F000FFFFFFFFFFFFFFFFFFFFFFFFFFFFFFFFFFFFFFFFFFFFFFFFFFFFFFFFFFFF
310
FFFFFFFFFFFFFFFFFFFFFFFFFFFFFFFFFFFFFFFFFFFFFFFFFFFFFFFFFFFFFFFF
310
FFFFFFFFFFFFFFFFFFFFFFFFFFFFFFFFFFFFFFFFFFFFFFFFF000FFFFFFFFFFFF
310
FFFFFFFFFFFFFFFFFFFFFFFFFFFFFFFFFFFFFFFFFFFFFFFFFFFFFFFFFFFFFFFF
310
FFFFFFFFFFFFFFFFFFFFFFFFFFFFFFFFFFFFFFFFFFFFFFFFFFFFFFFFFFFFFFFF
310
FFFFFFFFFFFFFFFFFFFFFFFFFFFFFFFFF000FFFFFFFFFFFFFFFFFFFFFFFFFFFF
310
FFFFFFFFFFFFFFFFFFFFFFFFFFFFFFFFFFFFFFFFFFFFFFFFFFFFFFFFFFFFFFFF
310
FFFFFFFFFFFFFFFFFFFFFFFFFFFFFFFFFFFFFFFFFFFFFFFFFFFFFFFFFFFFFFFF
310
FFFFFFFFFFFFFFFFF000FFFFFFFFFFFFFFFFFFFFFFFFFFFFFFFFFFFFFFFFFFFF
310
FFFFFFFFFFFFFFFFFFFFFFFFFFFFFFFFFFFFFFFFFFFFFFFFFFFFFFFFFFFFFFFF
310
FFFFFFFFFFFFFFFFFFFFFFFFFFFFFFFFFFFFFFFFFFFFFFFFFFFFFFFFFFFFFFFF
310
F000FFFFFFFFFFFFFFFFFFFFFFFFFFFFFFFFFFFFFFFFFFFFFFFFFFFFFFFFFFFF
310
FFFFFFFFFFFFFFFFFFFFFFFFFFFFFFFFFFFFFFFFFFFFFFFFFFFFFFFFFFFFFFFF
310
FFFFFFFFFFFFFFFFFFFFFFFFFFFFFFFFFFFFFFFFFFFFFFFFF000FFFFFFFFFFFF
310
FFFFFFFFFFFFFFFFFFFFFFFFFFFFFFFFFFFFFFFFFFFFFFFFFFFFFFFFFFFFFFFF
310
FFFFFFFFFFFFFFFFFFFFFFFFFFFFFFFFFFFFFFFFFFFFFFFFFFFFFFFFFFFFFFFF
310
FFFFFFFFFFFFFFFFFFFFFFFFFFFFFFFFF000FFFFFFFFFFFFFFFFFFFFFFFFFFFF
310
FFFFFFFFFFFFFFFFFFFFFFFFFFFFFFFFFFFFFFFFFFFFFFFFFFFFFFFFFFFFFFFF
310
FFFFFFFFFFFFFFFFFFFFFFFFFFFFFFFFFFFFFFFFFFFFFFFFFFFFFFFFFFFFFFFF
310
FFFFFFFFFFFFFFFFF000FFFFFFFFFFFFFFFFFFFFFFFFFFFFFFFFFFFFFFFFFFFF
310
FFFFFFFFFFFFFFFFFFFFFFFFFFFFFFFFFFFFFFFFFFFFFFFFFFFFFFFFFFFFFFFF
310
FFFFFFFFFFFFFFFFFFFFFFFFFFFFFFFFFFFFFFFFFFFFFFFFFFFFFFFFFFFFFFFF
310
F000FFFFFFFFFFFFFFFFFFFFFFFFFFFFFFFFFFFFFFFFFFFFFFFFFFFFFFFFFFFF
310
FFFFFFFFFFFFFFFFFFFFFFFFFFFFFFFFFFFFFFFFFFFFFFFFFFFFFFFFFFFFFFFF
310
FFFFFFFFFFFFFFFFFFFFFFFFFFFFFFFFFFFFFFFFFFFFFFFFF000FFFFFFFFFFFF
310
FFFFFFFFFFFFFFFFFFFFFFFFFFFFFFFFFFFFFFFFFFFFFFFFFFFFFFFFFFFFFFFF
310
FFFFFFFFFFFFFFFFFFFFFFFFFFFFFFFFFFFFFFFFFFFFFFFFFFFFFFFFFFFFFFFF
310
FFFFFFFFFFFFFFFFFFFFFFFFFFFFFFFFF000FFFFFFFFFFFFFFFFFFFFFFFFFFFF
310
FFFFFFFFFFFFFFFFFFFFFFFFFFFFFFFFFFFFFFFFFFFFFFFFFFFFFFFFFFFFFFFF
310
FFFFFFFFFFFFFFFFFFFFFFFFFFFFFFFFFFFFFFFFFFFFFFFFFFFFFFFFFFFFFFFF
310
FFFFFFFFFFFFFFFFF000FFFFFFFFFFFFFFFFFFFFFFFFFFFFFFFFFFFFFFFFFFFF
310
FFFFFFFFFFFFFFFFFFFFFFFFFFFFFFFFFFFFFFFFFFFFFFFFFFFFFFFFFFFFFFFF
310
FFFFFFFFFFFFFFFFFFFFFFFFFFFFFFFFFFFFFFFFFFFFFFFFFFFFFFFFFFFFFFFF
310
F000FFFFFFFFFFFFFFFFFFFFFFFFFFFFFFFFFFFFFFFFFFFFFFFFFFFFFFFFFFFF
310
FFFFFFFFFFFFFFFFFFFFFFFFFFFFFFFFFFFFFFFFFFFFFFFFFFFFFFFFFFFFFFFF
310
FFFFFFFFFFFFFFFFFFFFFFFFFFFFFFFFFFFFFFFFFFFFFFFFF000FFFFFFFFFFFF
310
FFFFFFFFFFFFFFFFFFFFFFFFFFFFFFFFFFFFFFFFFFFFFFFFFFFFFFFFFFFFFFFF
310
FFFFFFFFFFFFFFFFFFFFFFFFFFFFFFFFFFFFFFFFFFFFFFFFFFFFFFFFFFFFFFFF
310
FFFFFFFFFFFFFFFFFFFFFFFFFFFFFFFFF000FFFFFFFFFFFFFFFFFFFFFFFFFFFF
310
FFFFFFFFFFFFFFFFFFFFFFFFFFFFFFFFFFFFFFFFFFFFFFFFFFFFFFFFFFFFFFFF
310
FFFFFFFFFFFFFFFFFFFFFFFFFFFFFFFFFFFFFFFFFFFFFFFFFFFFFFFFFFFFFFFF
310
FFFFFFFFFFFFFFFFF000FFFFF80003FFFFFFFFFFFFFFFFFFFFFFFFFFFFFFFFFF
310
FFFFF00007FFFFFFFFFF00007FFFFFF800000000000000007FFFFFFFFFFFFFFF
310
FFFFFFFC001FFFFFFFFFFFFFFC001FFFFFFFFFFFFFFFFFFFFFFFFFFE0007FFFF
310
F000FFFF8000007FFFFFFFF8000FFFFFC0007FFFFF80007FFFFF0000007FFFFF
310
FFF8000007FFFFF800000000000000007FFFFFF0001FFFFFFFFFFFC00001FFFF
310
FFFFFFFFC00001FFFFFFFF000000000003FFFFE000007FFFF000FFFE0000000F
310
FFFFFFF0000FFFFF80007FFFFF80007FFFFC0000001FFFFFFFC0000001FFFFF8
310
00000000000000007FFFFFF0001FFFFFFFFFFE0000003FFFFFFFFFFE0000003F
310
FFFFFF000000000003FFFF0000000FFFF000FFF800000003FFFFFFF00007FFFF
310
80007FFFFF80007FFFF000000007FFFFFF000000003FFFF80000000000000000
310
7FFFFFF0001FFFFFFFFFF80000000FFFFFFFFFF80000000FFFFFFF0000000000
310
03FFFC00000003FFF000FFE000000000FFFFFFF00007FFFF80003FFFFF80007F
310
FFC000000001FFFFFC000000001FFFF800000000000000007FFFFFF0001FFFFF
310
FFFFE000000003FFFFFFFFE000000003FFFFFF000000000003FFF000000000FF
310
F000FF80000000007FFFFFF00007FFFF80003FFFFF80007FFF8000000000FFFF
310
F80000000007FFF800000000000000007FFFFFF0001FFFFFFFFFC000000001FF
310
FFFFFFC000000001FFFFFF000000000003FFC0000000007FF000FF0000000000
310
3FFFFFE00007FFFF00003FFFFF80007FFE00000000003FFFF00000000003FFF8
310
00000000000000007FFFFFF0001FFFFFFFFF8000000000FFFFFFFF8000000000
310
FFFFFF000000000003FF80000000003FF000FE00000000001FFFFFE00003FFFF
310
00003FFFFF80007FFC00000000001FFFE00000000001FFF8000001FFFE000000
310
7FFFFFF0001FFFFFFFFE00000000003FFFFFFE00000000003FFFFF0000000000
310
03FF00000000001FF000FC00000000000FFFFFE00003FFFF00001FFFFF80007F
310
F800000000001FFFC00000000000FFF8000001FFFE0000007FFFFFF0001FFFFF
310
FFFC00000000001FFFFFFC00000000001FFFFF000000000003FE00000000000F
310
F000F8000000000007FFFFE00003FFFF00001FFFFF80007FF800000000000FFF
310
800000000000FFF8000001FFFE0000007FFFFFF0001FFFFFFFF800000000000F
310
FFFFF800000000000FFFFF000000000003FC000000000007F000F80000000000
310
03FFFFC00003FFFE00001FFFFF80007FF0000000000007FF0000000000007FF8
310
000001FFFE0000007FFFFFF0001FFFFFFFF0000000000007FFFFF00000000000
310
07FFFF000000000003F8000000000003F000F0000000000003FFFFC00001FFFE
310
00001FFFFF80007FE0000000000007FE0000000000003FF8000001FFFE000000
310
7FFFFFF0001FFFFFFFF0000000000007FFFFF0000000000007FFFF0000000000
310
03F800001F800003F000E00001FFF00001FFFFC00001FFFE00000FFFFF80007F
310
E00001FFE00003FE00001FFF00003FF8000001FFFE0000007FFFFFF0001FFFFF
310
FFE000003E000003FFFFE000003E000003FFFF000000000003F00001FFF80001
310
F000E00007FFFC0001FFFFC00001FFFE00000FFFFF80007FC0000FFFFC0003FC
310
0000FFFFC0001FF8000001FFFE0000007FFFFFF0001FFFFFFFC00003FFE00001
310
FFFFC00003FFE00001FFFF0001FFFFFFFFF00007FFFE0001F000E0000FFFFF00
310
00FFFF800001FFFC00000FFFFF80007FC0001FFFFE0001FC0001FFFFE0001FF8
310
000001FFFE0000007FFFFFF0001FFFFFFF80000FFFF80000FFFF80000FFFF800
310
00FFFF0003FFFFFFFFE0000FFFFF8000F000C0003FFFFF8000FFFF800000FFFC
310
000007FFFF80007F80003FFFFF0001FC0003FFFFF0001FF8000001FFFE000000
310
7FFFFFF0001FFFFFFF80003FFFFE0000FFFF80003FFFFE0000FFFF0003FFFFFF
310
FFE0003FFFFF8000F000C0003FFFFF8000FFFF800000FFFC000007FFFF80007F
310
80007FFFFF8001F80007FFFFF8000FF8000001FFFE0000007FFFFFF0001FFFFF
310
FF00007FFFFF00007FFF00007FFFFF00007FFF0003FFFFFFFFE0003FFFFFC000
310
F000C0007FFFFFC000FFFF000000FFFC000007FFFF80007F8000FFFFFF8000F8
310
000FFFFFF8000FF8000001FFFE0000007FFFFFF0001FFFFFFF0000FFFFFF8000
310
7FFF0000FFFFFF80007FFF0003FFFFFFFFC0007FFFFFC00070008000FFFFFFC0
310
00FFFF000000FFF8000007FFFF80007F8000FFFFFF8000F8000FFFFFF8000FF8
310
000001FFFE0000007FFFFFF0001FFFFFFE0001FFFFFFC0003FFE0001FFFFFFC0
310
003FFF0003FFFFFFFFC0007FFFFFE00070008000FFFFFFC0007FFF0000007FF8
310
000003FFFF80007F0001FFFFFF8000F8000FFFFFF8000FF8000001FFFE000000
310
7FFFFFF0001FFFFFFE0001FFFFFFC0003FFE0001FFFFFFC0003FFF0003FFFFFF
310
FFC000FFFFFFE00070008000FFFFFFC0007FFF0000007FF8000003FFFF80007F
310
0001FFFFFF8000F8001FFFFFF8000FF8000001FFFE0000007FFFFFF0001FFFFF
310
FE0003FFFFFFE0003FFE0003FFFFFFE0003FFF0003FFFFFFFFC000FFFFFFE000
310
70008000FFFFFFC0007FFE0000007FF8000003FFFF80007F0001FFFFFF8000F0
310
001FFFFFF8000FF8000001FFFE0000007FFFFFF0001FFFFFFC0003FFFFFFE000
310
1FFC0003FFFFFFE0001FFF0003FFFFFFFFC000FFFFFFC00070008000FFFFFF80
310
007FFE0000007FF0000003FFFF80007F0001FFFFFF0000F0001FFFFFF8000FF8
310
000001FFFE0000007FFFFFF0001FFFFFFC0007FFFFFFF0001FFC0007FFFFFFF0
310
001FFF0003FFFFFFFFC000FFFFFFC00070008001FFFFFF0000FFFE0000003FF0
310
000001FFFF80007F0001FFFFFF0000F8001FFFFFF0000FF8000001FFFE000000
310
7FFFFFF0001FFFFFFC0007FFFFFFF0001FFC0007FFFFFFF0001FFF0003FFFFFF
310
FFC001FFFFFF80007000FFFFFFFFFE0000FFFE0008003FF0008001FFFF80007F
310
FFFFFFFFFC0000FFFFFFFFFFE0000FF8000001FFFE0000007FFFFFF0001FFFFF
310
F8000FFFFFFFF8000FF8000FFFFFFFF8000FFF0003FFFFFFFFFFFFFFFFFF0000
310
7000FFFFFFFFFC0000FFFC0008003FF0008001FFFF80007FFFFFFFFFF80001FF
310
FFFFFFFF80000FF8000001FFFE0000007FFFFFF0001FFFFFF8000FFFFFFFF800
310
0FF8000FFFFFFFF8000FFF0003FFFFFFFFFFFFFFFFFE0000F000FFFFFFFFE000
310
00FFFC000C003FE000C001FFFF80007FFFFFFFFFC00001FFFFFFFFFE00001FF8
310
000001FFFE0000007FFFFFF0001FFFFFF8000FFFFFFFF8000FF8000FFFFFFFF8
310
000FFF0003FFFFFFFFFFFFFFFFF00000F000FFFFFFFE000001FFFC000C001FE0
310
00C000FFFF80007FFFFFFFFE000001FFFFFFFFE000001FF80FFFFFFFFFFFFFC0
310
7FFFFFF0001FFFFFF8000FFFFFFFF8000FF8000FFFFFFFF8000FFF0003FFFFFF
310
FFFFFFFFFF800000F000FFFFFFC0000001FFFC001C001FE001C000FFFF80007F
310
FFFFFF80000003FFFFFFF80000001FF80FFFFFFFFFFFFFC07FFFFFF0001FFFFF
310
F8001FFFFFFFFC000FF8001FFFFFFFFC000FFF0003FFFFFFFFFFFFFFF0000001
310
F000FFFFF800000001FFF8001C001FE001C000FFFF80007FFFFFF800000003FF
310
FFFF800000003FF80FFFFFFFFFFFFFC07FFFFFF0001FFFFFF8001FFFFFFFFC00
310
0FF8001FFFFFFFFC000FFF0003FFFFFFFFFFFFFE00000001F000FFFFC0000000
310
03FFF8001E001FC001E000FFFF80007FFFFF8000000007FFFFFC000000003FF8
310
0FFFFFFFFFFFFFC07FFFFFF0001FFFFFF8001FFFFFFFFC000FF8001FFFFFFFFC
310
000FFF0003FFFFFFFFFFFFE000000003F000FFFE0000000007FFF8001E000FC0
310
01E0007FFF80007FFFFE0000000007FFFFE0000000007FF80FFFFFFFFFFFFFC0
310
7FFFFFF0001FFFFFF0001FFFFFFFFC0007F0001FFFFFFFFC0007FF0003FFFFFF
310
FFFFFF0000000003F000FFF80000000007FFF8001E000FC003E0007FFF80007F
310
FFF0000000000FFFFF8000000000FFF80FFFFFFFFFFFFFC07FFFFFF0001FFFFF
310
F0001FFFFFFFFC0007F0001FFFFFFFFC0007FF0003FFFFFFFFFFFC0000000007
310
F000FFE0000000000FFFF0003E000FC003E0007FFF80007FFFC0000000001FFF
310
FE0000000001FFF80FFFFFFFFFFFFFC07FFFFFF0001FFFFFF0001FFFFFFFFC00
310
07F0001FFFFFFFFC0007FF0003FFFFFFFFFFF0000000000FF000FFC000000000
310
1FFFF0003F000F8003F0003FFF80007FFF80000000003FFFF80000000003FFF8
310
0FFFFFFFFFFFFFC07FFFFFF0001FFFFFF0001FFFFFFFFC0007F0001FFFFFFFFC
310
0007FF0003FFFFFFFFFFE0000000001FF000FF00000000007FFFF0003F000780
310
03F0003FFF80007FFF00000000007FFFF00000000007FFF80FFFFFFFFFFFFFC0
310
7FFFFFF0001FFFFFF0001FFFFFFFFC0007F0001FFFFFFFFC0007FF0003FFFFFF
310
FFFF80000000007FF000FE0000000000FFFFE0003F00078007F0003FFF80007F
310
FE0000000001FFFFE0000000001FFFF80FFFFFFFFFFFFFC07FFFFFF0001FFFFF
310
F0001FFFFFFFFC0007F0001FFFFFFFFC0007FF0003FFFFFFFFFF0000000000FF
310
F000FC0000000003FFFFE0007F00078007F0003FFF80007FFC0000000007FFFF
310
C0000000007FFFF80FFFFFFFFFFFFFC07FFFFFF0001FFFFFF8001FFFFFFFFC00
310
0FF8001FFFFFFFFC000FFF0003FFFFFFFFFE0000000003FFF000FC000000000F
310
FFFFE0007F80070007F8001FFF80007FF8000000001FFFFF8000000001FFFFF8
310
0FFFFFFFFFFFFFC07FFFFFF0001FFFFFF8001FFFFFFFFC000FF8001FFFFFFFFC
310
000FFF0003FFFFFFFFFC000000000FFFF000F8000000007FFFFFE0007F800700
310
07F8001FFF80007FF000000000FFFFFF800000000FFFFFF80FFFFFFFFFFFFFC0
310
7FFFFFF0001FFFFFF8000FFFFFFFF8000FF8000FFFFFFFF8000FFF0003FFFFFF
310
FFFC000000007FFFF000F800000007FFFFFFC0007F8003000FF8001FFF80007F
310
F000000007FFFFFF000000007FFFFFF80FFFFFFFFFFFFFC07FFFFFF0001FFFFF
310
F8000FFFFFFFF8000FF8000FFFFFFFF8000FFF0003FFFFFFFFF80000000FFFFF
310
F000F0000000FFFFFFFFC000FF8003000FF8001FFF80007FE0000000FFFFFFFF
310
0000000FFFFFFFF8000001FFFE0000007FFFFFF0001FFFFFF8000FFFFFFFF800
310
0FF8000FFFFFFFF8000FFF0003FFFFFFFFF8000000FFFFFFF000F000000FFFFF
310
FFFFC000FFC002000FF8000FFF80007FE000001FFFFFFFFE000001FFFFFFFFF8
310
000001FFFE0000007FFFFFF0001FFFFFF8000FFFFFFFF8000FF8000FFFFFFFF8
310
000FFF0003FFFFFFFFF000001FFFFFFFF000E00000FFFFFFFFFFC000FFC00200
310
0FFC000FFF80007FE00001FFFFFFFFFE00001FFFFFFFFFF8000001FFFE000000
310
7FFFFFF0001FFFFFFC000FFFFFFFF8001FFC000FFFFFFFF8001FFF0003FFFFFF
310
FFF00001FFFFFFFFF000E00007FFFFFFFFFF8000FFC000001FFC000FFF80007F
310
C0000FFFFFFFFFFE0000FFFFFFFFFFF8000001FFFE0000007FFFFFF0001FFFFF
310
FC0007FFFFFFF0001FFC0007FFFFFFF0001FFF0003FFFFFFFFF00007FFFFFFFF
310
F000E0001FFFFFFFFFFF8000FFC000001FFC000FFF80007FC0003FFFFFFFFFFE
310
0001FFFFFFFFFFF8000001FFFE0000007FFFFFF0001FFFFFFC0007FFFFFFF000
310
1FFC0007FFFFFFF0001FFF0003FFFFFFFFF0001FFFFFFFFFF000E0003FFFFF00
310
03FF8001FFE000001FFC0007FF80007FC0007FFFFF0007FC0003FFFFF0003FF8
310
000001FFFE0000007FFFFFF0001FFFFFFC0003FFFFFFE0001FFC0003FFFFFFE0
310
001FFF0003FFFFFFFFF0003FFFFFFFFFF000E0003FFFFF0001FF8001FFE00000
310
1FFE0007FF80007FC0007FFFFE0003FC0007FFFFE0003FF8000001FFFE000000
310
7FFFFFF0001FFFFFFE0003FFFFFFE0003FFE0003FFFFFFE0003FFF0003FFFFFF
310
FFF0003FFFFF8001F000E0003FFFFF0001FF0001FFE000001FFE0007FF80007F
310
C0007FFFFE0003FC0007FFFFE0003FF8000001FFFE0000007FFFFFF0001FFFFF
310
FE0001FFFFFFC0003FFE0001FFFFFFC0003FFF0003FFFFFFFFF0003FFFFF0001
310
F000E0003FFFFF0003FF0001FFE000003FFE0007FF80007FC0007FFFFE0003FC
310
0007FFFFE0003FF8000001FFFE0000007FFFFFF0001FFFFFFF0001FFFFFFC000
310
7FFF0001FFFFFFC0007FFF0003FFFFFFFFF0003FFFFF0001F000E0003FFFFE00
310
03FF0003FFF000003FFE0003FF80007FC0007FFFFC0003FE0007FFFFE0003FF8
310
000001FFFE0000007FFFFFF0001FFFFFFF0000FFFFFF80007FFF0000FFFFFF80
310
007FFF0003FFFFFFFFF0003FFFFF0001F000E0003FFFFE0003FF0003FFF00000
310
3FFF0003FF80007FC0007FFFFC0007FE0007FFFFC0003FF8000001FFFE000000
310
7FFFFFF0001FFFFFFF80007FFFFF0000FFFF80007FFFFF0000FFFF0003FFFFFF
310
FFF0003FFFFF0003F000E0003FFFFC0003FE0003FFF000003FFF0003FF80007F
310
E0003FFFF80007FE0003FFFFC0007FF8000001FFFE0000007FFFFFF0001FFFFF
310
FF80003FFFFE0000FFFF80003FFFFE0000FFFF0003FFFFFFFFF0001FFFFE0003
310
F000F0001FFFF80003FE0003FFF000007FFF0001FF80007FE0003FFFF00007FE
310
0001FFFF80007FF8000001FFFE0000007FFFFFF0001FFFFFFFC0000FFFF80001
310
FFFFC0000FFFF80001FFFF0003FFFFFFFFF0001FFFFC0003F000F0000FFFF000
310
07FE0007FFF800007FFF0001FF80007FE0001FFFE00007FF0000FFFE00007FF8
310
000001FFFE0000007FFFFFF0001FFFFFFFC00003FFE00001FFFFC00003FFE000
310
01FFFF0003FFFFFFFFF8000FFFF80003F000F00003FFC00007FC0007FFF80000
310
7FFF8001FF80007FF00007FF80000FFF00007FF80000FFF8000001FFFE000000
310
7F80000000000001FFE000003E000003FFFFE000003E000003FFFF0003FFFFFF
310
FFF80003FFE00007F000F800000000000FFC0007FFF800007FFF8001FF80007F
310
F000000000000FFF000000000000FFF8000001FFFE0000007F80000000000001
310
FFF0000000000007FFFFF0000000000007FFFF0003FFFFFFFFFC00007E000007
310
F000F800000000000FFC0007FFF80000FFFF8000FF80007FF800000000001FFF
310
800000000001FFF8000001FFFE0000007F80000000000001FFF800000000000F
310
FFFFF800000000000FFFFF0003FFFFFFFFFC00000000000FF000FC0000000000
310
1FFC0007FFFC0000FFFF8000FF80007FF800000000003FFFC00000000001FFF8
310
000001FFFE0000007F80000000000001FFF800000000000FFFFFF80000000000
310
0FFFFF0003FFFFFFFFFE00000000001FF000FE00000000003FF8000FFFFC0000
310
FFFF8000FF80007FFC00000000003FFFC00000000003FFF8000001FFFE000000
310
7F80000000000001FFFC00000000001FFFFFFC00000000001FFFFF0003FFFFFF
310
FFFF00000000001FF000FF00000000003FF8000FFFFC0000FFFFC000FF80007F
310
FE00000000007FFFE00000000007FFF8000001FFFE0000007F80000000000001
310
FFFE00000000003FFFFFFE00000000003FFFFF0003FFFFFFFFFF80000000003F
310
F000FF80000000007FF8000FFFFC0001FFFFC0007F80007FFF0000000000FFFF
310
F0000000000FFFF800000000000000007F80000000000001FFFF8000000000FF
310
FFFFFF8000000000FFFFFF0003FFFFFFFFFFC0000000007FF000FFC000000000
310
FFF8000FFFFE0001FFFFC0007F80007FFF8000000001FFFFF8000000001FFFF8
310
00000000000000007F80000000000001FFFFC000000001FFFFFFFFC000000001
310
FFFFFF0003FFFFFFFFFFE000000000FFF000FFE000000003FFF0001FFFFE0001
310
FFFFC0007F80007FFFC000000007FFFFFE000000003FFFF80000000000000000
310
7F80000000000001FFFFE000000003FFFFFFFFE000000003FFFFFF0003FFFFFF
310
FFFFF000000003FFF000FFF80000000FFFF0001FFFFE0001FFFFE0007F80007F
310
FFF00000000FFFFFFF00000000FFFFF800000000000000007F80000000000001
310
FFFFF80000000FFFFFFFFFF80000000FFFFFFF0003FFFFFFFFFFFC0000000FFF
310
F000FFFE0000003FFFF0001FFFFE0003FFFFE0003F80007FFFFC0000003FFFFF
310
FFC0000003FFFFF800000000000000007F80000000000001FFFFFE0000003FFF
310
FFFFFFFE0000003FFFFFFF0003FFFFFFFFFFFF0000003FFFF000FFFF800000FF
310
FFF0001FFFFF0003FFFFE0003F80007FFFFF000001FFFFFFFFF800001FFFFFF8
310
00000000000000007F80000000000001FFFFFFC00001FFFFFFFFFFFFC00001FF
310
FFFFFF0003FFFFFFFFFFFFC00000FFFFF000FFFFF8000FFFFFFFFFFFFFFFFFFF
310
FFFFFFFFFFFFFFFFFFFFF0001FFFFFFFFFFF0000FFFFFFF80000000000000000
310
7FFFFFFFFFFFFFFFFFFFFFFC001FFFFFFFFFFFFFFC001FFFFFFFFFFFFFFFFFFF
310
FFFFFFFC001FFFFFF000FFFFFFFFFFFFFFFFFFFFFFFFFFFFFFFFFFFFFFFFFFFF
310
FFFFFFFFFFFFFFFFFFFFFFFFFFFFFFFFFFFFFFFFFFFFFFFFFFFFFFFFFFFFFFFF
310
FFFFFFFFFFFFFFFFFFFFFFFFFFFFFFFFFFFFFFFFFFFFFFFFFFFFFFFFFFFFFFFF
310
F000FFFFFFFFFFFFFFFFFFFFFFFFFFFFFFFFFFFFFFFFFFFFFFFFFFFFFFFFFFFF
310
FFFFFFFFFFFFFFFFFFFFFFFFFFFFFFFFFFFFFFFFFFFFFFFFFFFFFFFFFFFFFFFF
310
FFFFFFFFFFFFFFFFFFFFFFFFFFFFFFFFFFFFFFFFFFFFFFFFF000FFFFFFFFFFFF
310
FFFFFFFFFFFFFFFFFFFFFFFFFFFFFFFFFFFFFFFFFFFFFFFFFFFFFFFFFFFFFFFF
310
FFFFFFFFFFFFFFFFFFFFFFFFFFFFFFFFFFFFFFFFFFFFFFFFFFFFFFFFFFFFFFFF
310
FFFFFFFFFFFFFFFFFFFFFFFFFFFFFFFFF000FFFFFFFFFFFFFFFFFFFFFFFFFFFF
310
FFFFFFFFFFFFFFFFFFFFFFFFFFFFFFFFFFFFFFFFFFFFFFFFFFFFFFFFFFFFFFFF
310
FFFFFFFFFFFFFFFFFFFFFFFFFFFFFFFFFFFFFFFFFFFFFFFFFFFFFFFFFFFFFFFF
310
FFFFFFFFFFFFFFFFF000FFFFFFFFFFFFFFFFFFFFFFFFFFFFFFFFFFFFFFFFFFFF
310
FFFFFFFFFFFFFFFFFFFFFFFFFFFFFFFFFFFFFFFFFFFFFFFFFFFFFFFFFFFFFFFF
310
FFFFFFFFFFFFFFFFFFFFFFFFFFFFFFFFFFFFFFFFFFFFFFFFFFFFFFFFFFFFFFFF
310
F000FFFFFFFFFFFFFFFFFFFFFFFFFFFFFFFFFFFFFFFFFFFFFFFFFFFFFFFFFFFF
310
FFFFFFFFFFFFFFFFFFFFFFFFFFFFFFFFFFFFFFFFFFFFFFFFFFFFFFFFFFFFFFFF
310
FFFFFFFFFFFFFFFFFFFFFFFFFFFFFFFFFFFFFFFFFFFFFFFFF000FFFFFFFFFFFF
310
FFFFFFFFFFFFFFFFFFFFFFFFFFFFFFFFFFFFFFFFFFFFFFFFFFFFFFFFFFFFFFFF
310
FFFFFFFFFFFFFFFFFFFFFFFFFFFFFFFFFFFFFFFFFFFFFFFFFFFFFFFFFFFFFFFF
310
FFFFFFFFFFFFFFFFFFFFFFFFFFFFFFFFF000FFFFFFFFFFFFFFFFFFFFFFFFFFFF
310
FFFFFFFFFFFFFFFFFFFFFFFFFFFFFFFFFFFFFFFFFFFFFFFFFFFFFFFFFFFFFFFF
310
FFFFFFFFFFFFFFFFFFFFFFFFFFFFFFFFFFFFFFFFFFFFFFFFFFFFFFFFFFFFFFFF
310
FFFFFFFFFFFFFFFFF000FFFFFFFFFFFFFFFFFFFFFFFFFFFFFFFFFFFFFFFFFFFF
310
FFFFFFFFFFFFFFFFFFFFFFFFFFFFFFFFFFFFFFFFFFFFFFFFFFFFFFFFFFFFFFFF
310
FFFFFFFFFFFFFFFFFFFFFFFFFFFFFFFFFFFFFFFFFFFFFFFFFFFFFFFFFFFFFFFF
310
F000FFFFFFFFFFFFFFFFFFFFFFFFFFFFFFFFFFFFFFFFFFFFFFFFFFFFFFFFFFFF
310
FFFFFFFFFFFFFFFFFFFFFFFFFFFFFFFFFFFFFFFFFFFFFFFFFFFFFFFFFFFFFFFF
310
FFFFFFFFFFFFFFFFFFFFFFFFFFFFFFFFFFFFFFFFFFFFFFFFF000FFFFFFFFFFFF
310
FFFFFFFFFFFFFFFFFFFFFFFFFFFFFFFFFFFFFFFFFFFFFFFFFFFFFFFFFFFFFFFF
310
FFFFFFFFFFFFFFFFFFFFFFFFFFFFFFFFFFFFFFFFFFFFFFFFFFFFFFFFFFFFFFFF
310
FFFFFFFFFFFFFFFFFFFFFFFFFFFFFFFFF000FFFFFFFFFFFFFFFFFFFFFFFFFFFF
310
FFFFFFFFFFFFFFFFFFFFFFFFFFFFFFFFFFFFFFFFFFFFFFFFFFFFFFFFFFFFFFFF
310
FFFFFFFFFFFFFFFFFFFFFFFFFFFFFFFFFFFFFFFFFFFFFFFFFFFFFFFFFFFFFFFF
310
FFFFFFFFFFFFFFFFF000FFFFFFFFFFFFFFFFFFFFFFFFFFFFFFFFFFFFFFFFFFFF
310
FFFFFFFFFFFFFFFFFFFFFFFFFFFFFFFFFFFFFFFFFFFFFFFFFFFFFFFFFFFFFFFF
310
FFFFFFFFFFFFFFFFFFFFFFFFFFFFFFFFFFFFFFFFFFFFFFFFFFFFFFFFFFFFFFFF
310
F000FFFFFFFFFFFFFFFFFFFFFFFFFFFFFFFFFFFFFFFFFFFFFFFFFFFFFFFFFFFF
310
FFFFFFFFFFFFFFFFFFFFFFFFFFFFFFFFFFFFFFFFFFFFFFFFFFFFFFFFFFFFFFFF
310
FFFFFFFFFFFFFFFFFFFFFFFFFFFFFFFFFFFFFFFFFFFFFFFFF000FFFFFFFFFFFF
310
FFFFFFFFFFFFFFFFFFFFFFFFFFFFFFFFFFFFFFFFFFFFFFFFFFFFFFFFFFFFFFFF
310
FFFFFFFFFFFFFFFFFFFFFFFFFFFFFFFFFFFFFFFFFFFFFFFFFFFFFFFFFFFFFFFF
310
FFFFFFFFFFFFFFFFFFFFFFFFFFFFFFFFF000FFFFFFFFFFFFFFFFFFFFFFFFFFFF
310
FFFFFFFFFFFFFFFFFFFFFFFFFFFFFFFFFFFFFFFFFFFFFFFFFFFFFFFFFFFFFFFF
310
FFFFFFFFFFFFFFFFFFFFFFFFFFFFFFFFFFFFFFFFFFFFFFFFFFFFFFFFFFFFFFFF
310
FFFFFFFFFFFFFFFFF000FFFFFFFFFFFFFFFFFFFFFFFFFFFFFFFFFFFFFFFFFFFF
310
FFFFFFFFFFFFFFFFFFFFFFFFFFFFFFFFFFFFFFFFFFFFFFFFFFFFFFFFFFFFFFFF
310
FFFFFFFFFFFFFFFFFFFFFFFFFFFFFFFFFFFFFFFFFFFFFFFFFFFFFFFFFFFFFFFF
310
F000FFFFFFFFFFFFFFFFFFFFFFFFFFFFFFFFFFFFFFFFFFFFFFFFFFFFFFFFFFFF
310
FFFFFFFFFFFFFFFFFFFFFFFFFFFFFFFFFFFFFFFFFFFFFFFFFFFFFFFFFFFFFFFF
310
FFFFFFFFFFFFFFFFFFFFFFFFFFFFFFFFFFFFFFFFFFFFFFFFF000FFFFFFFFFFFF
310
FFFFFFFFFFFFFFFFFFFFFFFFFFFFFFFFFFFFFFFFFFFFFFFFFFFFFFFFFFFFFFFF
310
FFFFFFFFFFFFFFFFFFFFFFFFFFFFFFFFFFFFFFFFFFFFFFFFFFFFFFFFFFFFFFFF
310
FFFFFFFFFFFFFFFFFFFFFFFFFFFFFFFFF000FFFFFFFFFFFFFFFFFFFFFFFFFFFF
310
FFFFFFFFFFFFFFFFFFFFFFFFFFFFFFFFFFFFFFFFFFFFFFFFFFFFFFFFFFFFFFFF
310
FFFFFFFFFFFFFFFFFFFFFFFFFFFFFFFFFFFFFFFFFFFFFFFFFFFFFFFFFFFFFFFF
310
FFFFFFFFFFFFFFFFF000FFFFFFFFFFFFFFFFFFFFFFFFFFFFFFFFFFFFFFFFFFFF
310
FFFFFFFFFFFFFFFFFFFFFFFFFFFFFFFFFFFFFFFFFFFFFFFFFFFFFFFFFFFFFFFF
310
FFFFFFFFFFFFFFFFFFFFFFFFFFFFFFFFFFFFFFFFFFFFFFFFFFFFFFFFFFFFFFFF
310
F000FFFFFFFFFFFFFFFFFFFFFFFFFFFFFFFFFFFFFFFFFFFFFFFFFFFFFFFFFFFF
310
FFFFFFFFFFFFFFFFFFFFFFFFFFFFFFFFFFFFFFFFFFFFFFFFFFFFFFFFFFFFFFFF
310
FFFFFFFFFFFFFFFFFFFFFFFFFFFFFFFFFFFFFFFFFFFFFFFFF000FFFFFFFFFFFF
310
FFFFFFFFFFFFFFFFFFFFFFFFFFFFFFFFFFFFFFFFFFFFFFFFFFFFFFFFFFFFFFFF
310
FFFFFFFFFFFFFFFFFFFFFFFFFFFFFFFFFFFFFFFFFFFFFFFFFFFFFFFFFFFFFFFF
310
FFFFFFFFFFFFFFFFFFFFFFFFFFFFFFFFF0000000000000000000000000000000
310
0000000000000000000000000000000000000000000000000000000000000000
310
0000000000000000000000000000000000000000000000000000000000000000
310
0000000000000000000000000000000000000000000000000000000000000000
310
0000000000000000000000000000000000000000000000000000000000000000
310
0000000000000000000000000000000000000000000000000000000000000000
310
0000000000000000000000000000000000000000000000000000000000000000
310
0000000000000000000000000000000000000000000000000000000000000000
310
0000000000000000000000000000000000000000000000000000000000000000
310
0000000000000000000000000000000000000000000000000000000000000000
310
0000000000000000000000000000000000000000000000000000000000000000
310
0000000000000000000000000000000000000000000000000000000000000000
310
0000000000000000000000000000000000000000000000000000000000000000
310
0000000000000000000000000000000000000000000000000000000000000000
310
0000000000000000000000000000000000000000000000000000000000000000
310
0000000000000000000000000000000000000000000000000000000000000000
  1
OLE
  0
ENDSEC
  0
SECTION
  2
OBJECTS
  0
DICTIONARY
  5
C
330
0
100
AcDbDictionary
281
     1
  3
ACAD_GROUP
350
D
  3
ACAD_LAYOUT
350
1A
  3
ACAD_MLINESTYLE
350
17
  3
ACAD_PLOTSETTINGS
350
19
  3
ACAD_PLOTSTYLENAME
350
E
  0
DICTIONARY
  5
D
102
{ACAD_REACTORS
330
C
102
}
330
C
100
AcDbDictionary
281
     1
  0
DICTIONARY
  5
1A
102
{ACAD_REACTORS
330
C
102
}
330
C
100
AcDbDictionary
281
     1
  3
Layout1
350
1E
  3
Layout2
350
26
  3
Model
350
22
  0
DICTIONARY
  5
17
102
{ACAD_REACTORS
330
C
102
}
330
C
100
AcDbDictionary
281
     1
  3
Standard
350
18
  0
DICTIONARY
  5
19
102
{ACAD_REACTORS
330
C
102
}
330
C
100
AcDbDictionary
281
     1
  0
ACDBDICTIONARYWDFLT
  5
E
102
{ACAD_REACTORS
330
C
102
}
330
C
100
AcDbDictionary
281
     1
  3
Normal
350
F
100
AcDbDictionaryWithDefault
340
F
  0
LAYOUT
  5
1E
102
{ACAD_REACTORS
330
1A
102
}
330
1A
100
AcDbPlotSettings
  1

  2
none_device
  4

  6

 40
0.0
 41
0.0
 42
0.0
 43
0.0
 44
0.0
 45
0.0
 46
0.0
 47
0.0
 48
0.0
 49
0.0
140
0.0
141
0.0
142
1.0
143
1.0
 70
   688
 72
     0
 73
     0
 74
     5
  7

 75
    16
147
1.0
148
0.0
149
0.0
100
AcDbLayout
  1
Layout1
 70
     1
 71
     1
 10
0.0
 20
0.0
 11
420.0
 21
297.0
 12
0.0
 22
0.0
 32
0.0
 14
1.0000000000E+20
 24
1.0000000000E+20
 34
1.0000000000E+20
 15
-1.0000000000E+20
 25
-1.0000000000E+20
 35
-1.0000000000E+20
146
0.0
 13
0.0
 23
0.0
 33
0.0
 16
1.0
 26
0.0
 36
0.0
 17
0.0
 27
1.0
 37
0.0
 76
     0
330
1B
  0
LAYOUT
  5
26
102
{ACAD_REACTORS
330
1A
102
}
330
1A
100
AcDbPlotSettings
  1

  2
none_device
  4

  6

 40
0.0
 41
0.0
 42
0.0
 43
0.0
 44
0.0
 45
0.0
 46
0.0
 47
0.0
 48
0.0
 49
0.0
140
0.0
141
0.0
142
1.0
143
1.0
 70
   688
 72
     0
 73
     0
 74
     5
  7

 75
    16
147
1.0
148
0.0
149
0.0
100
AcDbLayout
  1
Layout2
 70
     1
 71
     2
 10
0.0
 20
0.0
 11
0.0
 21
0.0
 12
0.0
 22
0.0
 32
0.0
 14
0.0
 24
0.0
 34
0.0
 15
0.0
 25
0.0
 35
0.0
146
0.0
 13
0.0
 23
0.0
 33
0.0
 16
1.0
 26
0.0
 36
0.0
 17
0.0
 27
1.0
 37
0.0
 76
     0
330
23
  0
LAYOUT
  5
22
102
{ACAD_REACTORS
330
1A
102
}
330
1A
100
AcDbPlotSettings
  1

  2
none_device
  4

  6

 40
0.0
 41
0.0
 42
0.0
 43
0.0
 44
0.0
 45
0.0
 46
0.0
 47
0.0
 48
0.0
 49
0.0
140
0.0
141
0.0
142
1.0
143
1.0
 70
  1712
 72
     0
 73
     0
 74
     0
  7

 75
     0
147
1.0
148
0.0
149
0.0
100
AcDbLayout
  1
Model
 70
     1
 71
     0
 10
0.0
 20
0.0
 11
297.0
 21
210.0
 12
0.0
 22
0.0
 32
0.0
 14
0.0
 24
0.0
 34
0.0
 15
297.0
 25
210.0
 35
0.0
146
0.0
 13
0.0
 23
0.0
 33
0.0
 16
1.0
 26
0.0
 36
0.0
 17
0.0
 27
1.0
 37
0.0
 76
     0
330
1F
331
29
  0
MLINESTYLE
  5
18
102
{ACAD_REACTORS
330
17
102
}
330
17
100
AcDbMlineStyle
  2
Standard
 70
     0
  3

 62
   256
 51
90.0
 52
90.0
 71
     2
 49
0.5
 62
   256
  6
BYLAYER
 49
-0.5
 62
   256
  6
BYLAYER
  0
ACDBPLACEHOLDER
  5
F
102
{ACAD_REACTORS
330
E
102
}
330
E
  0
ENDSEC
  0
EOF
