  0
SECTION
  2
HEADER
  9
$ACADVER
  1
AC1015
  9
$ACADMAINTVER
 70
     6
  9
$DWGCODEPAGE
  3
ANSI_1252
  9
$INSBASE
 10
0.0
 20
0.0
 30
0.0
  9
$EXTMIN
 10
0.0
 20
0.0
 30
0.0
  9
$EXTMAX
 10
297.0
 20
210.0
 30
0.0
  9
$LIMMIN
 10
0.0
 20
0.0
  9
$LIMMAX
 10
297.0
 20
210.0
  9
$ORTHOMODE
 70
     0
  9
$REGENMODE
 70
     1
  9
$FILLMODE
 70
     1
  9
$QTEXTMODE
 70
     0
  9
$MIRRTEXT
 70
     1
  9
$LTSCALE
 40
1.0
  9
$ATTMODE
 70
     1
  9
$TEXTSIZE
 40
2.0
  9
$TRACEWID
 40
1.0
  9
$TEXTSTYLE
  7
Standard
  9
$CLAYER
  8
0
  9
$CELTYPE
  6
ByLayer
  9
$CECOLOR
 62
   256
  9
$CELTSCALE
 40
1.0
  9
$DISPSILH
 70
     0
  9
$DIMSCALE
 40
1.0
  9
$DIMASZ
 40
3.0
  9
$DIMEXO
 40
0.0
  9
$DIMDLI
 40
3.75
  9
$DIMRND
 40
0.0
  9
$DIMDLE
 40
0.0
  9
$DIMEXE
 40
1.0
  9
$DIMTP
 40
0.0
  9
$DIMTM
 40
0.0
  9
$DIMTXT
 40
2.0
  9
$DIMCEN
 40
2.5
  9
$DIMTSZ
 40
0.0
  9
$DIMTOL
 70
     0
  9
$DIMLIM
 70
     0
  9
$DIMTIH
 70
     1
  9
$DIMTOH
 70
     1
  9
$DIMSE1
 70
     0
  9
$DIMSE2
 70
     0
  9
$DIMTAD
 70
     1
  9
$DIMZIN
 70
     0
  9
$DIMBLK
  1

  9
$DIMASO
 70
     1
  9
$DIMSHO
 70
     1
  9
$DIMPOST
  1

  9
$DIMAPOST
  1

  9
$DIMALT
 70
     0
  9
$DIMALTD
 70
     3
  9
$DIMALTF
 40
0.0393700787
  9
$DIMLFAC
 40
1.0
  9
$DIMTOFL
 70
     1
  9
$DIMTVP
 40
0.0
  9
$DIMTIX
 70
     0
  9
$DIMSOXD
 70
     0
  9
$DIMSAH
 70
     0
  9
$DIMBLK1
  1

  9
$DIMBLK2
  1

  9
$DIMSTYLE
  2
ISO-25
  9
$DIMCLRD
 70
     0
  9
$DIMCLRE
 70
     0
  9
$DIMCLRT
 70
     0
  9
$DIMTFAC
 40
1.0
  9
$DIMGAP
 40
1.524
  9
$DIMJUST
 70
     0
  9
$DIMSD1
 70
     0
  9
$DIMSD2
 70
     0
  9
$DIMTOLJ
 70
     0
  9
$DIMTZIN
 70
     0
  9
$DIMALTZ
 70
     0
  9
$DIMALTTZ
 70
     0
  9
$DIMUPT
 70
     0
  9
$DIMDEC
 70
     2
  9
$DIMTDEC
 70
     3
  9
$DIMALTU
 70
     2
  9
$DIMALTTD
 70
     3
  9
$DIMTXSTY
  7
Standard
  9
$DIMAUNIT
 70
     0
  9
$DIMADEC
 70
     2
  9
$DIMALTRND
 40
0.0
  9
$DIMAZIN
 70
     0
  9
$DIMDSEP
 70
    44
  9
$DIMATFIT
 70
     3
  9
$DIMFRAC
 70
     0
  9
$DIMLDRBLK
  1

  9
$DIMLUNIT
 70
     2
  9
$DIMLWD
 70
    -2
  9
$DIMLWE
 70
    -2
  9
$DIMTMOVE
 70
     0
  9
$LUNITS
 70
     2
  9
$LUPREC
 70
     2
  9
$SKETCHINC
 40
1.0
  9
$FILLETRAD
 40
10.0
  9
$AUNITS
 70
     0
  9
$AUPREC
 70
     2
  9
$MENU
  1
.
  9
$ELEVATION
 40
0.0
  9
$PELEVATION
 40
0.0
  9
$THICKNESS
 40
0.0
  9
$LIMCHECK
 70
     0
  9
$CHAMFERA
 40
10.0
  9
$CHAMFERB
 40
10.0
  9
$CHAMFERC
 40
20.0
  9
$CHAMFERD
 40
0.0
  9
$SKPOLY
 70
     0
  9
$TDCREATE
 40
2455672.392904317
  9
$TDUCREATE
 40
2455672.309570984
  9
$TDUPDATE
 40
2455672.392904329
  9
$TDUUPDATE
 40
2455672.309570995
  9
$TDINDWG
 40
0.0000000116
  9
$TDUSRTIMER
 40
0.0000000116
  9
$USRTIMER
 70
     1
  9
$ANGBASE
 50
0.0
  9
$ANGDIR
 70
     0
  9
$PDMODE
 70
     0
  9
$PDSIZE
 40
-1.0
  9
$PLINEWID
 40
0.0
  9
$SPLFRAME
 70
     0
  9
$SPLINETYPE
 70
     6
  9
$SPLINESEGS
 70
     8
  9
$HANDSEED
  5
196
  9
$SURFTAB1
 70
     6
  9
$SURFTAB2
 70
     6
  9
$SURFTYPE
 70
     6
  9
$SURFU
 70
     6
  9
$SURFV
 70
     6
  9
$UCSBASE
  2

  9
$UCSNAME
  2

  9
$UCSORG
 10
0.0
 20
0.0
 30
0.0
  9
$UCSXDIR
 10
1.0
 20
0.0
 30
0.0
  9
$UCSYDIR
 10
0.0
 20
1.0
 30
0.0
  9
$UCSORTHOREF
  2

  9
$UCSORTHOVIEW
 70
     0
  9
$UCSORGTOP
 10
0.0
 20
0.0
 30
0.0
  9
$UCSORGBOTTOM
 10
0.0
 20
0.0
 30
0.0
  9
$UCSORGLEFT
 10
0.0
 20
0.0
 30
0.0
  9
$UCSORGRIGHT
 10
0.0
 20
0.0
 30
0.0
  9
$UCSORGFRONT
 10
0.0
 20
0.0
 30
0.0
  9
$UCSORGBACK
 10
0.0
 20
0.0
 30
0.0
  9
$PUCSBASE
  2

  9
$PUCSNAME
  2

  9
$PUCSORG
 10
0.0
 20
0.0
 30
0.0
  9
$PUCSXDIR
 10
1.0
 20
0.0
 30
0.0
  9
$PUCSYDIR
 10
0.0
 20
1.0
 30
0.0
  9
$PUCSORTHOREF
  2

  9
$PUCSORTHOVIEW
 70
     0
  9
$PUCSORGTOP
 10
0.0
 20
0.0
 30
0.0
  9
$PUCSORGBOTTOM
 10
0.0
 20
0.0
 30
0.0
  9
$PUCSORGLEFT
 10
0.0
 20
0.0
 30
0.0
  9
$PUCSORGRIGHT
 10
0.0
 20
0.0
 30
0.0
  9
$PUCSORGFRONT
 10
0.0
 20
0.0
 30
0.0
  9
$PUCSORGBACK
 10
0.0
 20
0.0
 30
0.0
  9
$USERI1
 70
     0
  9
$USERI2
 70
     0
  9
$USERI3
 70
     0
  9
$USERI4
 70
     0
  9
$USERI5
 70
     0
  9
$USERR1
 40
0.0
  9
$USERR2
 40
0.0
  9
$USERR3
 40
0.0
  9
$USERR4
 40
0.0
  9
$USERR5
 40
0.0
  9
$WORLDVIEW
 70
     1
  9
$SHADEDGE
 70
     3
  9
$SHADEDIF
 70
    70
  9
$TILEMODE
 70
     1
  9
$MAXACTVP
 70
    64
  9
$PINSBASE
 10
0.0
 20
0.0
 30
0.0
  9
$PLIMCHECK
 70
     0
  9
$PEXTMIN
 10
1.0000000000E+20
 20
1.0000000000E+20
 30
1.0000000000E+20
  9
$PEXTMAX
 10
-1.0000000000E+20
 20
-1.0000000000E+20
 30
-1.0000000000E+20
  9
$PLIMMIN
 10
0.0
 20
0.0
  9
$PLIMMAX
 10
420.0
 20
297.0
  9
$UNITMODE
 70
     0
  9
$VISRETAIN
 70
     1
  9
$PLINEGEN
 70
     0
  9
$PSLTSCALE
 70
     1
  9
$TREEDEPTH
 70
  3020
  9
$CMLSTYLE
  2
Standard
  9
$CMLJUST
 70
     0
  9
$CMLSCALE
 40
20.0
  9
$PROXYGRAPHICS
 70
     1
  9
$MEASUREMENT
 70
     1
  9
$CELWEIGHT
370
    -1
  9
$ENDCAPS
280
     0
  9
$JOINSTYLE
280
     0
  9
$LWDISPLAY
290
     1
  9
$INSUNITS
 70
     4
  9
$HYPERLINKBASE
  1

  9
$STYLESHEET
  1

  9
$XEDIT
290
     1
  9
$CEPSNTYPE
380
     0
  9
$PSTYLEMODE
290
     1
  9
$FINGERPRINTGUID
  2
{4FCD8C47-70CC-4B9E-B0ED-15AD6A19ECCF}
  9
$VERSIONGUID
  2
{FAEB1C32-E019-11D5-929B-00C0DF256EC4}
  9
$EXTNAMES
290
     1
  9
$PSVPSCALE
 40
0.0
  9
$OLESTARTUP
290
     0
  0
ENDSEC
  0
SECTION
  2
CLASSES
  0
CLASS
  1
ACDBDICTIONARYWDFLT
  2
AcDbDictionaryWithDefault
  3
ObjectDBX Classes
 90
        0
280
     0
281
     0
  0
CLASS
  1
VISUALSTYLE
  2
AcDbVisualStyle
  3
ObjectDBX Classes
 90
     4095
280
     0
281
     0
  0
CLASS
  1
DICTIONARYVAR
  2
AcDbDictionaryVar
  3
ObjectDBX Classes
 90
        0
280
     0
281
     0
  0
CLASS
  1
ACDBPLACEHOLDER
  2
AcDbPlaceHolder
  3
ObjectDBX Classes
 90
        0
280
     0
281
     0
  0
CLASS
  1
LAYOUT
  2
AcDbLayout
  3
ObjectDBX Classes
 90
        0
280
     0
281
     0
  0
ENDSEC
  0
SECTION
  2
TABLES
  0
TABLE
  2
VPORT
  5
8
330
0
100
AcDbSymbolTable
 70
     1
  0
VPORT
  5
29
330
8
100
AcDbSymbolTableRecord
100
AcDbViewportTableRecord
  2
*Active
 70
     0
 10
0.0
 20
0.0
 11
1.0
 21
1.0
 12
148.5
 22
105.0
 13
0.0
 23
0.0
 14
10.0
 24
10.0
 15
10.0
 25
10.0
 16
0.0
 26
0.0
 36
1.0
 17
0.0
 27
0.0
 37
0.0
 40
210.0
 41
1.4142857143
 42
50.0
 43
0.0
 44
0.0
 50
0.0
 51
0.0
 71
     0
 72
  2000
 73
     1
 74
     3
 75
     0
 76
     0
 77
     0
 78
     0
281
     0
 65
     1
110
0.0
120
0.0
130
0.0
111
1.0
121
0.0
131
0.0
112
0.0
122
1.0
132
0.0
 79
     0
146
0.0
  0
ENDTAB
  0
TABLE
  2
LTYPE
  5
5
330
0
100
AcDbSymbolTable
 70
     6
  0
LTYPE
  5
14
330
5
100
AcDbSymbolTableRecord
100
AcDbLinetypeTableRecord
  2
ByBlock
 70
     0
  3

 72
    65
 73
     0
 40
0.0
  0
LTYPE
  5
15
330
5
100
AcDbSymbolTableRecord
100
AcDbLinetypeTableRecord
  2
ByLayer
 70
     0
  3

 72
    65
 73
     0
 40
0.0
  0
LTYPE
  5
16
330
5
100
AcDbSymbolTableRecord
100
AcDbLinetypeTableRecord
  2
Continuous
 70
     0
  3
Solid line
 72
    65
 73
     0
 40
0.0
  0
LTYPE
  5
3B
330
5
100
AcDbSymbolTableRecord
100
AcDbLinetypeTableRecord
  2
HIDDEN
 70
     0
  3
Hidden __ __ __ __ __ __ __ __ __ __ __ __ __ __
 72
    65
 73
     2
 40
1.905
 49
1.27
 74
     0
 49
-0.635
 74
     0
  0
LTYPE
  5
3C
330
5
100
AcDbSymbolTableRecord
100
AcDbLinetypeTableRecord
  2
PHANTOM
 70
     0
  3
Phantom ______  __  __  ______  __  __  ______
 72
    65
 73
     6
 40
12.7
 49
6.35
 74
     0
 49
-1.27
 74
     0
 49
1.27
 74
     0
 49
-1.27
 74
     0
 49
1.27
 74
     0
 49
-1.27
 74
     0
  0
LTYPE
  5
3D
330
5
100
AcDbSymbolTableRecord
100
AcDbLinetypeTableRecord
  2
CENTER
 70
     0
  3
Center ____ _ ____ _ ____ _ ____ _ ____ _ ____
 72
    65
 73
     4
 40
10.16
 49
6.35
 74
     0
 49
-1.27
 74
     0
 49
1.27
 74
     0
 49
-1.27
 74
     0
  0
LTYPE
  5
3E
330
5
100
AcDbSymbolTableRecord
100
AcDbLinetypeTableRecord
  2
CENTERX2
 70
     0
  3
Center (2x) ________  __  ________  __  _____
 72
    65
 73
     4
 40
20.32
 49
12.7
 74
     0
 49
-2.54
 74
     0
 49
2.54
 74
     0
 49
-2.54
 74
     0
  0
LTYPE
  5
3F
330
5
100
AcDbSymbolTableRecord
100
AcDbLinetypeTableRecord
  2
DOT2
 70
     0
  3
Dot (.5x) ........................................
 72
    65
 73
     2
 40
0.635
 49
0.0
 74
     0
 49
-0.635
 74
     0
  0
ENDTAB
  0
TABLE
  2
LAYER
  5
2
330
0
100
AcDbSymbolTable
 70
     5
  0
LAYER
  5
10
330
2
100
AcDbSymbolTableRecord
100
AcDbLayerTableRecord
  2
0
 70
     0
 62
     7
  6
Continuous
370
    -3
390
F
  0
LAYER
  5
40
330
2
100
AcDbSymbolTableRecord
100
AcDbLayerTableRecord
  2
FORMAT
 70
     0
 62
     7
  6
Continuous
370
    -3
390
F
  0
LAYER
  5
41
330
2
100
AcDbSymbolTableRecord
100
AcDbLayerTableRecord
  2
VERMASSUNG
 70
     0
 62
     7
  6
Continuous
370
    -3
390
F
  0
LAYER
  5
42
330
2
100
AcDbSymbolTableRecord
100
AcDbLayerTableRecord
  2
KOPF_DÜNN
 70
     0
 62
     7
  6
Continuous
370
    -3
390
F
  0
LAYER
  5
43
330
2
100
AcDbSymbolTableRecord
100
AcDbLayerTableRecord
  2
KOPF_DICK
 70
     0
 62
     7
  6
Continuous
370
    15
390
F
  0
ENDTAB
  0
TABLE
  2
STYLE
  5
3
330
0
100
AcDbSymbolTable
 70
     3
  0
STYLE
  5
11
330
3
100
AcDbSymbolTableRecord
100
AcDbTextStyleTableRecord
  2
Standard
 70
     0
 40
0.0
 41
1.0
 50
0.0
 71
     0
 42
2.5
  3
txt
  4

  0
STYLE
  5
44
330
3
100
AcDbSymbolTableRecord
100
AcDbTextStyleTableRecord
  2
SLDTEXTSTYLE0
 70
     0
 40
0.0
 41
0.7
 50
0.0
 71
     0
 42
0.2
  3
TXT
  4

  0
STYLE
  5
48
330
3
100
AcDbSymbolTableRecord
100
AcDbTextStyleTableRecord
  2
SLDTEXTSTYLE1
 70
     0
 40
0.0
 41
0.6473684211
 50
0.0
 71
     0
 42
0.2
  3
TXT
  4

  0
ENDTAB
  0
TABLE
  2
VIEW
  5
6
330
0
100
AcDbSymbolTable
 70
     0
  0
ENDTAB
  0
TABLE
  2
UCS
  5
7
330
0
100
AcDbSymbolTable
 70
     0
  0
ENDTAB
  0
TABLE
  2
APPID
  5
9
330
0
100
AcDbSymbolTable
 70
     1
  0
APPID
  5
12
330
9
100
AcDbSymbolTableRecord
100
AcDbRegAppTableRecord
  2
ACAD
 70
     0
  0
ENDTAB
  0
TABLE
  2
DIMSTYLE
  5
A
330
0
100
AcDbSymbolTable
 70
     2
100
AcDbDimStyleTable
  0
DIMSTYLE
105
27
330
A
100
AcDbSymbolTableRecord
100
AcDbDimStyleTableRecord
  2
ISO-25
 70
     0
 41
2.5
 42
0.625
 43
3.75
 44
1.25
 73
     0
 74
     0
 77
     1
 78
     8
140
2.5
141
2.5
143
0.0393700787
147
0.625
171
     3
172
     1
271
     2
272
     2
274
     3
278
    44
283
     0
284
     8
340
11
  0
DIMSTYLE
105
14E
102
{ACAD_REACTORS
330
14D
330
15A
330
164
330
16E
330
178
330
183
102
}
330
A
100
AcDbSymbolTableRecord
100
AcDbDimStyleTableRecord
  2
SLDDIMSTYLE0
 70
     0
 41
3.0
 44
0.0
 45
0.000000001
 73
     0
 74
     0
 77
     1
 78
    12
140
2.0
147
0.5
173
     1
271
     2
272
     3
284
    12
340
44
  0
ENDTAB
  0
TABLE
  2
BLOCK_RECORD
  5
1
330
0
100
AcDbSymbolTable
 70
     7
  0
BLOCK_RECORD
  5
1F
330
1
100
AcDbSymbolTableRecord
100
AcDbBlockTableRecord
  2
*Model_Space
340
22
  0
BLOCK_RECORD
  5
1B
330
1
100
AcDbSymbolTableRecord
100
AcDbBlockTableRecord
  2
*Paper_Space
340
1E
  0
BLOCK_RECORD
  5
23
330
1
100
AcDbSymbolTableRecord
100
AcDbBlockTableRecord
  2
*Paper_Space0
340
26
  0
BLOCK_RECORD
  5
14F
330
1
100
AcDbSymbolTableRecord
100
AcDbBlockTableRecord
  2
*D1
340
0
  0
BLOCK_RECORD
  5
15B
330
1
100
AcDbSymbolTableRecord
100
AcDbBlockTableRecord
  2
*D2
340
0
  0
BLOCK_RECORD
  5
165
330
1
100
AcDbSymbolTableRecord
100
AcDbBlockTableRecord
  2
*D3
340
0
  0
BLOCK_RECORD
  5
16F
330
1
100
AcDbSymbolTableRecord
100
AcDbBlockTableRecord
  2
*D4
340
0
  0
BLOCK_RECORD
  5
179
330
1
100
AcDbSymbolTableRecord
100
AcDbBlockTableRecord
  2
*D5
340
0
  0
BLOCK_RECORD
  5
184
330
1
100
AcDbSymbolTableRecord
100
AcDbBlockTableRecord
  2
*D6
340
0
  0
ENDTAB
  0
ENDSEC
  0
SECTION
  2
BLOCKS
  0
BLOCK
  5
20
330
1F
100
AcDbEntity
  8
0
100
AcDbBlockBegin
  2
*Model_Space
 70
     0
 10
0.0
 20
0.0
 30
0.0
  3
*Model_Space
  1

  0
ENDBLK
  5
21
330
1F
100
AcDbEntity
  8
0
100
AcDbBlockEnd
  0
BLOCK
  5
1C
330
1B
100
AcDbEntity
 67
     1
  8
0
100
AcDbBlockBegin
  2
*Paper_Space
 70
     0
 10
0.0
 20
0.0
 30
0.0
  3
*Paper_Space
  1

  0
ENDBLK
  5
1D
330
1B
100
AcDbEntity
 67
     1
  8
0
100
AcDbBlockEnd
  0
BLOCK
  5
24
330
23
100
AcDbEntity
  8
0
100
AcDbBlockBegin
  2
*Paper_Space0
 70
     0
 10
0.0
 20
0.0
 30
0.0
  3
*Paper_Space0
  1

  0
ENDBLK
  5
25
330
23
100
AcDbEntity
  8
0
100
AcDbBlockEnd
  0
BLOCK
  5
150
330
14F
100
AcDbEntity
  8
0
100
AcDbBlockBegin
  2
*D1
 70
     1
 10
0.0
 20
0.0
 30
0.0
  3
*D1
  1

  0
SOLID
  5
152
330
14F
100
AcDbEntity
  8
VERMASSUNG
100
AcDbTrace
 10
84.080846014
 20
142.1956491979
 30
0.0
 11
83.630846014
 21
139.1956491979
 31
0.0
 12
84.530846014
 22
139.1956491979
 32
0.0
 13
84.530846014
 23
139.1956491979
 33
0.0
  0
SOLID
  5
153
330
14F
100
AcDbEntity
  8
VERMASSUNG
100
AcDbTrace
 10
84.080846014
 20
79.1956491979
 30
0.0
 11
84.530846014
 21
82.1956491979
 31
0.0
 12
83.630846014
 22
82.1956491979
 32
0.0
 13
83.630846014
 23
82.1956491979
 33
0.0
  0
LINE
  5
154
330
14F
100
AcDbEntity
  8
VERMASSUNG
100
AcDbLine
 10
122.6034635425
 20
142.1956491979
 30
0.0
 11
83.080846014
 21
142.1956491979
 31
0.0
  0
LINE
  5
155
330
14F
100
AcDbEntity
  8
VERMASSUNG
100
AcDbLine
 10
122.6034635425
 20
79.1956491979
 30
0.0
 11
83.080846014
 21
79.1956491979
 31
0.0
  0
LINE
  5
156
330
14F
100
AcDbEntity
  8
VERMASSUNG
100
AcDbLine
 10
84.080846014
 20
142.1956491979
 30
0.0
 11
84.080846014
 21
79.1956491979
 31
0.0
  0
MTEXT
  5
157
330
14F
100
AcDbEntity
  8
VERMASSUNG
100
AcDbMText
 10
81.3027105249
 20
103.1478832547
 30
0.0
 40
2.0
 41
0.0
 71
     1
 72
     1
  1
HSK A
  7
SLDTEXTSTYLE0
 11
-7.044195017643634E-15
 21
1.0
 31
0.0
 73
     1
 44
1.0
  0
MTEXT
  5
158
330
14F
100
AcDbEntity
  8
VERMASSUNG
100
AcDbMText
 10
81.5027105344
 20
110.9478835087
 30
0.0
 40
2.0
 41
0.0
 71
     1
 72
     1
  1
%%c
  7
SLDTEXTSTYLE0
 11
-7.044195017643634E-15
 21
1.0
 31
0.0
 73
     1
 44
1.0
  0
MTEXT
  5
159
330
14F
100
AcDbEntity
  8
VERMASSUNG
100
AcDbMText
 10
81.5027106508
 20
114.5564119654
 30
0.0
 40
2.0
 41
0.0
 71
     1
 72
     1
  1
63
  7
SLDTEXTSTYLE0
 11
-7.044195017643634E-15
 21
1.0
 31
0.0
 73
     1
 44
1.0
  0
ENDBLK
  5
151
330
14F
100
AcDbEntity
  8
0
100
AcDbBlockEnd
  0
BLOCK
  5
15C
330
15B
100
AcDbEntity
  8
0
100
AcDbBlockBegin
  2
*D2
 70
     1
 10
0.0
 20
0.0
 30
0.0
  3
*D2
  1

  0
SOLID
  5
15E
330
15B
100
AcDbEntity
  8
VERMASSUNG
100
AcDbTrace
 10
202.3034635425
 20
148.3461298285
 30
0.0
 11
199.3034635425
 21
148.7961298285
 31
0.0
 12
199.3034635425
 22
147.8961298285
 32
0.0
 13
199.3034635425
 23
147.8961298285
 33
0.0
  0
SOLID
  5
15F
330
15B
100
AcDbEntity
  8
VERMASSUNG
100
AcDbTrace
 10
148.2534635425
 20
148.3461298285
 30
0.0
 11
151.2534635425
 21
147.8961298285
 31
0.0
 12
151.2534635425
 22
148.7961298285
 32
0.0
 13
151.2534635425
 23
148.7961298285
 33
0.0
  0
LINE
  5
160
330
15B
100
AcDbEntity
  8
VERMASSUNG
100
AcDbLine
 10
202.3034635425
 20
129.4215086763
 30
0.0
 11
202.3034635425
 21
149.3461298285
 31
0.0
  0
LINE
  5
161
330
15B
100
AcDbEntity
  8
VERMASSUNG
100
AcDbLine
 10
148.2534635425
 20
140.5420895217
 30
0.0
 11
148.2534635425
 21
149.3461298285
 31
0.0
  0
LINE
  5
162
330
15B
100
AcDbEntity
  8
VERMASSUNG
100
AcDbLine
 10
202.3034635425
 20
148.3461298285
 30
0.0
 11
148.2534635425
 21
148.3461298285
 31
0.0
  0
MTEXT
  5
163
330
15B
100
AcDbEntity
  8
VERMASSUNG
100
AcDbMText
 10
170.459938087
 20
150.9242651916
 30
0.0
 40
2.0
 41
0.0
 71
     1
 72
     1
  1
54.05
  7
SLDTEXTSTYLE0
 73
     1
 44
1.0
  0
ENDBLK
  5
15D
330
15B
100
AcDbEntity
  8
0
100
AcDbBlockEnd
  0
BLOCK
  5
166
330
165
100
AcDbEntity
  8
0
100
AcDbBlockBegin
  2
*D3
 70
     1
 10
0.0
 20
0.0
 30
0.0
  3
*D3
  1

  0
SOLID
  5
168
330
165
100
AcDbEntity
  8
VERMASSUNG
100
AcDbTrace
 10
202.3034635425
 20
154.3461298285
 30
0.0
 11
199.3034635425
 21
154.7961298285
 31
0.0
 12
199.3034635425
 22
153.8961298285
 32
0.0
 13
199.3034635425
 23
153.8961298285
 33
0.0
  0
SOLID
  5
169
330
165
100
AcDbEntity
  8
VERMASSUNG
100
AcDbTrace
 10
122.3034635425
 20
154.3461298285
 30
0.0
 11
125.3034635425
 21
153.8961298285
 31
0.0
 12
125.3034635425
 22
154.7961298285
 32
0.0
 13
125.3034635425
 23
154.7961298285
 33
0.0
  0
LINE
  5
16A
330
165
100
AcDbEntity
  8
VERMASSUNG
100
AcDbLine
 10
202.3034635425
 20
129.4215086763
 30
0.0
 11
202.3034635425
 21
155.3461298285
 31
0.0
  0
LINE
  5
16B
330
165
100
AcDbEntity
  8
VERMASSUNG
100
AcDbLine
 10
122.3034635425
 20
141.8956491979
 30
0.0
 11
122.3034635425
 21
155.3461298285
 31
0.0
  0
LINE
  5
16C
330
165
100
AcDbEntity
  8
VERMASSUNG
100
AcDbLine
 10
202.3034635425
 20
154.3461298285
 30
0.0
 11
122.3034635425
 21
154.3461298285
 31
0.0
  0
MTEXT
  5
16D
330
165
100
AcDbEntity
  8
VERMASSUNG
100
AcDbMText
 10
159.8583476289
 20
156.9242651916
 30
0.0
 40
2.0
 41
0.0
 71
     1
 72
     1
  1
80
  7
SLDTEXTSTYLE0
 73
     1
 44
1.0
  0
ENDBLK
  5
167
330
165
100
AcDbEntity
  8
0
100
AcDbBlockEnd
  0
BLOCK
  5
170
330
16F
100
AcDbEntity
  8
0
100
AcDbBlockBegin
  2
*D4
 70
     1
 10
0.0
 20
0.0
 30
0.0
  3
*D4
  1

  0
SOLID
  5
172
330
16F
100
AcDbEntity
  8
VERMASSUNG
100
AcDbTrace
 10
202.3034635425
 20
160.3461298285
 30
0.0
 11
199.3034635425
 21
160.7961298285
 31
0.0
 12
199.3034635425
 22
159.8961298285
 32
0.0
 13
199.3034635425
 23
159.8961298285
 33
0.0
  0
SOLID
  5
173
330
16F
100
AcDbEntity
  8
VERMASSUNG
100
AcDbTrace
 10
90.4034635425
 20
160.3461298285
 30
0.0
 11
93.4034635425
 21
159.8961298285
 31
0.0
 12
93.4034635425
 22
160.7961298285
 32
0.0
 13
93.4034635425
 23
160.7961298285
 33
0.0
  0
LINE
  5
174
330
16F
100
AcDbEntity
  8
VERMASSUNG
100
AcDbLine
 10
202.3034635425
 20
129.4215086763
 30
0.0
 11
202.3034635425
 21
161.3461298285
 31
0.0
  0
LINE
  5
175
330
16F
100
AcDbEntity
  8
VERMASSUNG
100
AcDbLine
 10
90.4034635425
 20
130.3863269444
 30
0.0
 11
90.4034635425
 21
161.3461298285
 31
0.0
  0
LINE
  5
176
330
16F
100
AcDbEntity
  8
VERMASSUNG
100
AcDbLine
 10
202.3034635425
 20
160.3461298285
 30
0.0
 11
90.4034635425
 21
160.3461298285
 31
0.0
  0
MTEXT
  5
177
330
16F
100
AcDbEntity
  8
VERMASSUNG
100
AcDbMText
 10
141.4286716633
 20
162.9242651916
 30
0.0
 40
2.0
 41
0.0
 71
     1
 72
     1
  1
111.9
  7
SLDTEXTSTYLE0
 73
     1
 44
1.0
  0
ENDBLK
  5
171
330
16F
100
AcDbEntity
  8
0
100
AcDbBlockEnd
  0
BLOCK
  5
17A
330
179
100
AcDbEntity
  8
0
100
AcDbBlockBegin
  2
*D5
 70
     1
 10
0.0
 20
0.0
 30
0.0
  3
*D5
  1

  0
SOLID
  5
17C
330
179
100
AcDbEntity
  8
VERMASSUNG
100
AcDbTrace
 10
210.0379305936
 20
120.6956491979
 30
0.0
 11
209.5879305936
 21
117.6956491979
 31
0.0
 12
210.4879305936
 22
117.6956491979
 32
0.0
 13
210.4879305936
 23
117.6956491979
 33
0.0
  0
SOLID
  5
17D
330
179
100
AcDbEntity
  8
VERMASSUNG
100
AcDbTrace
 10
210.0379305936
 20
100.6956491979
 30
0.0
 11
210.4879305936
 21
103.6956491979
 31
0.0
 12
209.5879305936
 22
103.6956491979
 32
0.0
 13
209.5879305936
 23
103.6956491979
 33
0.0
  0
LINE
  5
17E
330
179
100
AcDbEntity
  8
VERMASSUNG
100
AcDbLine
 10
202.0034635425
 20
120.6956491979
 30
0.0
 11
211.0379305936
 21
120.6956491979
 31
0.0
  0
LINE
  5
17F
330
179
100
AcDbEntity
  8
VERMASSUNG
100
AcDbLine
 10
202.0034635425
 20
100.6956491979
 30
0.0
 11
211.0379305936
 21
100.6956491979
 31
0.0
  0
LINE
  5
180
330
179
100
AcDbEntity
  8
VERMASSUNG
100
AcDbLine
 10
210.0379305936
 20
120.6956491979
 30
0.0
 11
210.0379305936
 21
100.6956491979
 31
0.0
  0
MTEXT
  5
181
330
179
100
AcDbEntity
  8
VERMASSUNG
100
AcDbMText
 10
207.459795114
 20
107.0381502798
 30
0.0
 40
2.0
 41
0.0
 71
     1
 72
     1
  1
%%c
  7
SLDTEXTSTYLE0
 11
-7.044195017643634E-15
 21
1.0
 31
0.0
 73
     1
 44
1.0
  0
MTEXT
  5
182
330
179
100
AcDbEntity
  8
VERMASSUNG
100
AcDbMText
 10
207.4597952305
 20
110.646828503
 30
0.0
 40
2.0
 41
0.0
 71
     1
 72
     1
  1
20
  7
SLDTEXTSTYLE0
 11
-7.044195017643634E-15
 21
1.0
 31
0.0
 73
     1
 44
1.0
  0
ENDBLK
  5
17B
330
179
100
AcDbEntity
  8
0
100
AcDbBlockEnd
  0
BLOCK
  5
185
330
184
100
AcDbEntity
  8
0
100
AcDbBlockBegin
  2
*D6
 70
     1
 10
0.0
 20
0.0
 30
0.0
  3
*D6
  1

  0
SOLID
  5
187
330
184
100
AcDbEntity
  8
VERMASSUNG
100
AcDbTrace
 10
216.0379305936
 20
136.6956491979
 30
0.0
 11
215.5879305936
 21
133.6956491979
 31
0.0
 12
216.4879305936
 22
133.6956491979
 32
0.0
 13
216.4879305936
 23
133.6956491979
 33
0.0
  0
SOLID
  5
188
330
184
100
AcDbEntity
  8
VERMASSUNG
100
AcDbTrace
 10
216.0379305936
 20
84.6956491979
 30
0.0
 11
216.4879305936
 21
87.6956491979
 31
0.0
 12
215.5879305936
 22
87.6956491979
 32
0.0
 13
215.5879305936
 23
87.6956491979
 33
0.0
  0
LINE
  5
189
330
184
100
AcDbEntity
  8
VERMASSUNG
100
AcDbLine
 10
189.4364220194
 20
136.6956491979
 30
0.0
 11
217.0379305936
 21
136.6956491979
 31
0.0
  0
LINE
  5
18A
330
184
100
AcDbEntity
  8
VERMASSUNG
100
AcDbLine
 10
189.4364220194
 20
84.6956491979
 30
0.0
 11
217.0379305936
 21
84.6956491979
 31
0.0
  0
LINE
  5
18B
330
184
100
AcDbEntity
  8
VERMASSUNG
100
AcDbLine
 10
216.0379305936
 20
136.6956491979
 30
0.0
 11
216.0379305936
 21
84.6956491979
 31
0.0
  0
MTEXT
  5
18C
330
184
100
AcDbEntity
  8
VERMASSUNG
100
AcDbMText
 10
213.459795114
 20
107.0381502798
 30
0.0
 40
2.0
 41
0.0
 71
     1
 72
     1
  1
%%c
  7
SLDTEXTSTYLE0
 11
-7.044195017643634E-15
 21
1.0
 31
0.0
 73
     1
 44
1.0
  0
MTEXT
  5
18D
330
184
100
AcDbEntity
  8
VERMASSUNG
100
AcDbMText
 10
213.4597952305
 20
110.646828503
 30
0.0
 40
2.0
 41
0.0
 71
     1
 72
     1
  1
52
  7
SLDTEXTSTYLE0
 11
-7.044195017643634E-15
 21
1.0
 31
0.0
 73
     1
 44
1.0
  0
ENDBLK
  5
186
330
184
100
AcDbEntity
  8
0
100
AcDbBlockEnd
  0
ENDSEC
  0
SECTION
  2
ENTITIES
  0
MTEXT
  5
45
330
1F
100
AcDbEntity
  8
KOPF_DÜNN
100
AcDbMText
 10
13.8892156294
 20
23.8442973028
 30
0.0
 40
3.0
 41
0.0
 71
     1
 72
     1
  1
HA6.W20.K01.080
  7
SLDTEXTSTYLE0
 73
     1
 44
1.0
  0
MTEXT
  5
46
330
1F
100
AcDbEntity
  8
VERMASSUNG
100
AcDbMText
 10
13.9329988022
 20
28.8834360957
 30
0.0
 40
3.0
 41
0.0
 71
     1
 72
     1
  1
Fläcenspannfutter_End mill adapter Weldon ø20
  7
SLDTEXTSTYLE0
 73
     1
 44
1.0
  0
MTEXT
  5
47
330
1F
100
AcDbEntity
  8
VERMASSUNG
100
AcDbMText
 10
98.8601118557
 20
13.8365368179
 30
0.0
 40
2.0
 41
0.0
 71
     1
 72
     1
  1
Datum: 25.04.2006
  7
SLDTEXTSTYLE0
 73
     1
 44
1.0
  0
MTEXT
  5
49
330
1F
100
AcDbEntity
  8
VERMASSUNG
100
AcDbMText
 10
13.933048693
 20
18.0482802738
 30
0.0
 40
2.0
 41
0.0
 71
     1
 72
     1
  1
DIN 69 893 HSK A 63
  7
SLDTEXTSTYLE1
 73
     1
 44
1.0
  0
MTEXT
  5
4A
330
1F
100
AcDbEntity
  8
VERMASSUNG
100
AcDbMText
 10
13.9808475933
 20
13.9090973692
 30
0.0
 40
2.0
 41
0.0
 71
     1
 72
     1
  1
Gewicht: 1355g
  7
SLDTEXTSTYLE0
 73
     1
 44
1.0
  0
LINE
  5
4B
330
1F
100
AcDbEntity
  8
0
  6
Continuous
 62
     7
370
    15
100
AcDbLine
 10
122.6034635567
 20
79.1956486913
 30
0.0
 11
127.2534635157
 21
79.1956486913
 31
0.0
  0
LINE
  5
4C
330
1F
100
AcDbEntity
  8
0
  6
Continuous
 62
     7
370
    15
100
AcDbLine
 10
127.2814520873
 20
142.1956497045
 30
0.0
 11
122.6034635567
 21
142.1956497045
 31
0.0
  0
ARC
  5
4D
330
1F
100
AcDbEntity
  8
0
  6
Continuous
 62
     7
370
    15
100
AcDbCircle
 10
122.6034635425
 20
79.4956491979
 30
0.0
 40
0.3000000000000114
100
AcDbArc
 50
180.0
 51
270.0
  0
ARC
  5
4E
330
1F
100
AcDbEntity
  8
0
  6
Continuous
 62
     7
370
    15
100
AcDbCircle
 10
122.6034635425
 20
141.8956491979
 30
0.0
 40
0.3000000000000114
100
AcDbArc
 50
90.0
 51
180.0
  0
ARC
  5
4F
330
1F
100
AcDbEntity
  8
0
  6
Continuous
 62
     7
370
    15
100
AcDbCircle
 10
149.2534635425
 20
83.6956491979
 30
0.0
 40
1.000000000000008
100
AcDbArc
 50
90.0
 51
143.1139143113
  0
ARC
  5
50
330
1F
100
AcDbEntity
  8
0
  6
Continuous
 62
     7
370
    15
100
AcDbCircle
 10
149.2534635425
 20
137.6956491979
 30
0.0
 40
1.000000000000026
100
AcDbArc
 50
216.8996843908
 51
270.0
  0
LINE
  5
51
330
1F
100
AcDbEntity
  8
0
  6
Continuous
 62
     7
370
    15
100
AcDbLine
 10
149.2534633964
 20
84.6956486615
 30
0.0
 11
189.4364208222
 21
84.6956486615
 31
0.0
  0
LINE
  5
52
330
1F
100
AcDbEntity
  8
0
  6
Continuous
 62
     7
370
    15
100
AcDbLine
 10
189.4364208222
 20
136.6956497344
 30
0.0
 11
149.2534633964
 21
136.6956497344
 31
0.0
  0
LINE
  5
53
330
1F
100
AcDbEntity
  8
0
  6
Continuous
 62
     7
370
    15
100
AcDbLine
 10
189.4364208222
 20
84.6956486615
 30
0.0
 11
201.1487037182
 21
90.1571738335
 31
0.0
  0
LINE
  5
54
330
1F
100
AcDbEntity
  8
0
  6
Continuous
 62
     7
370
    15
100
AcDbLine
 10
201.1487037182
 20
131.2341245624
 30
0.0
 11
189.4364208222
 21
136.6956497344
 31
0.0
  0
ARC
  5
55
330
1F
100
AcDbEntity
  8
0
  6
Continuous
 62
     7
370
    15
100
AcDbCircle
 10
121.8034567898
 20
86.1252115835
 30
0.0
 40
0.6000067526677242
100
AcDbArc
 50
33.5571153394
 51
90.0
  0
ARC
  5
56
330
1F
100
AcDbEntity
  8
0
  6
Continuous
 62
     7
370
    15
100
AcDbCircle
 10
121.8034567898
 20
135.2660868123
 30
0.0
 40
0.6000067526677242
100
AcDbArc
 50
270.0
 51
326.4428846606
  0
LINE
  5
57
330
1F
100
AcDbEntity
  8
0
  6
Continuous
 62
     7
370
    15
100
AcDbLine
 10
120.3034634475
 20
86.4752179744
 30
0.0
 11
121.1601763737
 21
86.7047740879
 31
0.0
  0
LINE
  5
58
330
1F
100
AcDbEntity
  8
0
  6
Continuous
 62
     7
370
    15
100
AcDbLine
 10
121.1601763737
 20
134.6865243079
 30
0.0
 11
120.3034634475
 21
134.9160804214
 31
0.0
  0
LINE
  5
59
330
1F
100
AcDbEntity
  8
0
  6
Continuous
 62
     7
370
    15
100
AcDbLine
 10
109.0719551087
 20
134.3533790471
 30
0.0
 11
96.5034626663
 21
133.7236950906
 31
0.0
  0
LINE
  5
5A
330
1F
100
AcDbEntity
  8
0
  6
Continuous
 62
     7
370
    15
100
AcDbLine
 10
120.3034634475
 20
134.9160804214
 30
0.0
 11
117.4864620209
 21
134.7749477985
 31
0.0
  0
LINE
  5
5B
330
1F
100
AcDbEntity
  8
0
  6
Continuous
 62
     7
370
    15
100
AcDbLine
 10
117.4865179002
 20
86.6163487347
 30
0.0
 11
120.3034634475
 21
86.4752179744
 31
0.0
  0
LINE
  5
5C
330
1F
100
AcDbEntity
  8
0
  6
Continuous
 62
     7
370
    15
100
AcDbLine
 10
100.5034633219
 20
87.4672031762
 30
0.0
 11
109.07235744
 21
87.0378988596
 31
0.0
  0
ARC
  5
5D
330
1F
100
AcDbEntity
  8
0
  6
Continuous
 62
     7
370
    15
100
AcDbCircle
 10
121.3154677429
 20
86.1252183362
 30
0.0
 40
0.6000000000000071
100
AcDbArc
 50
90.0
 51
105.0
  0
ARC
  5
5E
330
1F
100
AcDbEntity
  8
0
  6
Continuous
 62
     7
370
    15
100
AcDbCircle
 10
121.3154677429
 20
135.2660800596
 30
0.0
 40
0.5999999999999943
100
AcDbArc
 50
255.0
 51
270.0
  0
LINE
  5
5F
330
1F
100
AcDbEntity
  8
0
  6
Continuous
 62
     7
370
    15
100
AcDbLine
 10
121.3154677773
 20
86.725218481
 30
0.0
 11
121.8034567666
 21
86.725218481
 31
0.0
  0
LINE
  5
60
330
1F
100
AcDbEntity
  8
0
  6
Continuous
 62
     7
370
    15
100
AcDbLine
 10
121.8034567666
 20
134.6660799148
 30
0.0
 11
121.3154677773
 21
134.6660799148
 31
0.0
  0
ARC
  5
61
330
1F
100
AcDbEntity
  8
0
  6
Continuous
 62
     7
370
    15
100
AcDbCircle
 10
200.3034635425
 20
91.9697897195
 30
0.0
 40
2.0
100
AcDbArc
 50
295.0
 51
0.0
  0
ARC
  5
62
330
1F
100
AcDbEntity
  8
0
  6
Continuous
 62
     7
370
    15
100
AcDbCircle
 10
200.3034635425
 20
129.4215086763
 30
0.0
 40
2.0
100
AcDbArc
 50
0.0
 51
65.0
  0
LINE
  5
63
330
1F
100
AcDbEntity
  8
0
  6
Continuous
 62
     7
370
    15
100
AcDbLine
 10
91.6868001461
 20
89.8256490739
 30
0.0
 11
99.1034638375
 21
89.8256490739
 31
0.0
  0
ARC
  5
64
330
1F
100
AcDbEntity
  8
0
  6
Continuous
 62
     7
370
    15
100
AcDbCircle
 10
99.1034635425
 20
88.4256491979
 30
0.0
 40
1.400000000000006
100
AcDbArc
 50
42.2465410162
 51
90.0
  0
LINE
  5
65
330
1F
100
AcDbEntity
  8
0
  6
Continuous
 62
     7
370
    15
100
AcDbLine
 10
90.4044956207
 20
90.9746161463
 30
0.0
 11
91.5446263045
 21
89.8344854625
 31
0.0
  0
LINE
  5
66
330
1F
100
AcDbEntity
  8
0
  6
Continuous
 62
     7
370
    15
100
AcDbLine
 10
91.5446263045
 20
131.5568129333
 30
0.0
 11
90.4133655369
 21
130.4255503031
 31
0.0
  0
ARC
  5
67
330
1F
100
AcDbEntity
  8
0
  6
Continuous
 62
     7
370
    15
100
AcDbCircle
 10
95.1034635425
 20
132.9656491979
 30
0.0
 40
1.400000000000008
100
AcDbArc
 50
270.0
 51
301.7485287426
  0
LINE
  5
68
330
1F
100
AcDbEntity
  8
0
  6
Continuous
 62
     7
370
    15
100
AcDbLine
 10
95.1034631819
 20
131.5656493219
 30
0.0
 11
91.6943513096
 21
131.5656493219
 31
0.0
  0
ARC
  5
69
330
1F
100
AcDbEntity
  8
0
  6
Continuous
 62
     7
370
    15
100
AcDbCircle
 10
177.8034635425
 20
110.6956491979
 30
0.0
 40
7.000000000000022
100
AcDbArc
 50
67.5748093136
 51
119.6094583666
  0
ARC
  5
6A
330
1F
100
AcDbEntity
  8
0
  6
Continuous
 62
     7
370
    15
100
AcDbCircle
 10
177.8034635425
 20
110.6956491979
 30
0.0
 40
6.999999999999991
100
AcDbArc
 50
240.4538608566
 51
299.5498127807
  0
LINE
  5
6B
330
1F
100
AcDbEntity
  8
0
  6
Continuous
 62
     7
370
    15
100
AcDbLine
 10
181.260999316
 20
116.7821453685
 30
0.0
 11
180.4738007724
 21
117.1662982354
 31
0.0
  0
LINE
  5
6C
330
1F
100
AcDbEntity
  8
0
  6
Continuous
 62
     7
370
    15
100
AcDbLine
 10
182.3819615185
 20
111.3045023788
 30
0.0
 11
180.6199923396
 21
107.0349815103
 31
0.0
  0
LINE
  5
6D
330
1F
100
AcDbEntity
  8
0
  6
Continuous
 62
     7
370
    15
100
AcDbLine
 10
182.3819615185
 20
111.3045023788
 30
0.0
 11
179.5654297114
 21
114.96516995
 31
0.0
  0
LINE
  5
6E
330
1F
100
AcDbEntity
  8
0
  6
Continuous
 62
     7
370
    15
100
AcDbLine
 10
174.9869324505
 20
114.3563168856
 30
0.0
 11
173.2249669969
 21
110.086796017
 31
0.0
  0
LINE
  5
6F
330
1F
100
AcDbEntity
  8
0
  6
Continuous
 62
     7
370
    15
100
AcDbLine
 10
174.9869324505
 20
114.3563168856
 30
0.0
 11
179.5654297114
 21
114.96516995
 31
0.0
  0
LINE
  5
70
330
1F
100
AcDbEntity
  8
0
  6
Continuous
 62
     7
370
    15
100
AcDbLine
 10
180.6199923396
 20
107.0349815103
 30
0.0
 11
176.0414988041
 21
106.4261284458
 31
0.0
  0
LINE
  5
71
330
1F
100
AcDbEntity
  8
0
  6
Continuous
 62
     7
370
    15
100
AcDbLine
 10
173.2249669969
 20
110.086796017
 30
0.0
 11
176.0414988041
 21
106.4261284458
 31
0.0
  0
LINE
  5
72
330
1F
100
AcDbEntity
  8
0
  6
Continuous
 62
     7
370
    15
100
AcDbLine
 10
147.6534642518
 20
80.5087315651
 30
0.0
 11
143.6953954637
 21
80.5087315651
 31
0.0
  0
LINE
  5
73
330
1F
100
AcDbEntity
  8
0
  6
Continuous
 62
     7
370
    15
100
AcDbLine
 10
143.6953954637
 20
80.5087315651
 30
0.0
 11
143.6953954637
 21
130.545649937
 31
0.0
  0
LINE
  5
74
330
1F
100
AcDbEntity
  8
0
  6
Continuous
 62
     7
370
    15
100
AcDbLine
 10
143.6953954637
 20
130.545649937
 30
0.0
 11
147.6534642518
 21
130.545649937
 31
0.0
  0
LINE
  5
75
330
1F
100
AcDbEntity
  8
0
  6
Continuous
 62
     7
370
    15
100
AcDbLine
 10
148.2534632325
 20
81.1353719594
 30
0.0
 11
148.2534632325
 21
130.545649937
 31
0.0
  0
SPLINE
  5
76
330
1F
100
AcDbEntity
  8
0
  6
Continuous
 62
     7
370
    15
100
AcDbSpline
210
0.0
220
0.0
230
1.0
 70
     8
 71
     3
 72
    10
 73
     6
 74
     0
 42
0.00000001
 43
0.00000001
 40
0.0
 40
0.0
 40
0.0
 40
0.0
 40
0.5
 40
0.5
 40
1.0
 40
1.0
 40
1.0
 40
1.0
 10
148.2534635424767
 20
81.1353717973157
 30
0.0
 10
148.2534635424767
 20
80.97548452912204
 30
0.0
 10
148.1921538912409
 20
80.81435727360743
 30
0.0
 10
147.9730542537058
 20
80.5802582752526
 30
0.0
 10
147.8150060473923
 20
80.50873150166137
 30
0.0
 10
147.6534635424767
 20
80.50873150166137
 30
0.0
  0
SPLINE
  5
77
330
1F
100
AcDbEntity
  8
0
  6
Continuous
 62
     7
370
    15
100
AcDbSpline
210
0.0
220
0.0
230
1.0
 70
    24
 71
     3
 72
    12
 73
     8
 74
     0
 42
0.00000001
 43
0.00000001
 40
0.0
 40
0.0
 40
0.0
 40
0.0
 40
0.250000000000002
 40
0.250000000000002
 40
0.500000000000004
 40
0.500000000000004
 40
1.0
 40
1.0
 40
1.0
 40
1.0
 10
147.6534635424767
 20
130.5456491979085
 30
0.0
 10
147.7437026101638
 20
130.5456491979086
 30
0.0
 10
147.8346007242703
 20
130.5456491979086
 30
0.0
 10
147.9891977607588
 20
130.5456491979085
 30
0.0
 10
148.0541761768669
 20
130.5456491979086
 30
0.0
 10
148.2060112048032
 20
130.5456491979086
 30
0.0
 10
148.2534635424767
 20
130.5456491979086
 30
0.0
 10
148.2534635424767
 20
130.5456491979085
 30
0.0
  0
LINE
  5
78
330
1F
100
AcDbEntity
  8
0
  6
Continuous
 62
     7
370
    15
100
AcDbLine
 10
127.2534635157
 20
130.545649937
 30
0.0
 11
136.9115310028
 21
130.545649937
 31
0.0
  0
LINE
  5
79
330
1F
100
AcDbEntity
  8
0
  6
Continuous
 62
     7
370
    15
100
AcDbLine
 10
136.9115310028
 20
80.5087315651
 30
0.0
 11
136.9115310028
 21
130.545649937
 31
0.0
  0
LINE
  5
7A
330
1F
100
AcDbEntity
  8
0
  6
Continuous
 62
     7
370
    15
100
AcDbLine
 10
136.9115310028
 20
80.5087315651
 30
0.0
 11
135.2534638956
 21
80.5087315651
 31
0.0
  0
SPLINE
  5
7B
330
1F
100
AcDbEntity
  8
0
  6
Continuous
 62
     7
370
    15
100
AcDbSpline
210
0.0
220
0.0
230
1.0
 70
     8
 71
     3
 72
    28
 73
    24
 74
     0
 42
0.00000001
 43
0.00000001
 40
0.0
 40
0.0
 40
0.0
 40
0.0
 40
0.1249999999999999
 40
0.1249999999999999
 40
0.1874999999999998
 40
0.1874999999999998
 40
0.2499999999999997
 40
0.2499999999999997
 40
0.3749999999999993
 40
0.3749999999999993
 40
0.4374999999999993
 40
0.4374999999999993
 40
0.4999999999999992
 40
0.4999999999999992
 40
0.6249999999999992
 40
0.6249999999999992
 40
0.7499999999999992
 40
0.7499999999999992
 40
0.8124999999999993
 40
0.8124999999999993
 40
0.8749999999999996
 40
0.8749999999999996
 40
1.0
 40
1.0
 40
1.0
 40
1.0
 10
135.2534635424767
 20
80.50873150166137
 30
0.0
 10
134.7217557849838
 20
80.50873150166137
 30
0.0
 10
134.1995172196735
 20
80.49294678771116
 30
0.0
 10
133.4296467333985
 20
80.44795137363496
 30
0.0
 10
133.1752871612071
 20
80.42939637855923
 30
0.0
 10
132.6711655805086
 20
80.38554365611273
 30
0.0
 10
132.4214427630807
 20
80.36019904916053
 30
0.0
 10
131.6958528116343
 20
80.27679697141042
 30
0.0
 10
131.2374925500528
 20
80.21093141225934
 30
0.0
 10
130.5869946066589
 20
80.10196107176756
 30
0.0
 10
130.3753125558664
 20
80.0637214360009
 30
0.0
 10
129.9712410667284
 20
79.98596269858155
 30
0.0
 10
129.7787345529076
 20
79.9464617364062
 30
0.0
 10
129.2288995818863
 20
79.82755399404019
 30
0.0
 10
128.8989708035775
 20
79.74773631261557
 30
0.0
 10
128.3144995350088
 20
79.59439315081953
 30
0.0
 10
128.0682223969953
 20
79.52305939755027
 30
0.0
 10
127.7683796042973
 20
79.42911589047564
 30
0.0
 10
127.6799227472251
 20
79.39992209711572
 30
0.0
 10
127.52656139392
 20
79.34645552285231
 30
0.0
 10
127.4614731796937
 20
79.32209618857713
 30
0.0
 10
127.3058791637529
 20
79.2585060431324
 30
0.0
 10
127.2534635424767
 20
79.22840310804314
 30
0.0
 10
127.2534635424767
 20
79.2115262150462
 30
0.0
  0
LINE
  5
7C
330
1F
100
AcDbEntity
  8
0
  6
Continuous
 62
     7
370
    15
100
AcDbLine
 10
127.2534635157
 20
79.2115258785
 30
0.0
 11
127.2534635157
 21
79.1956486913
 31
0.0
  0
SPLINE
  5
7D
330
1F
100
AcDbEntity
  8
0
  6
Continuous
 62
     7
370
    15
100
AcDbSpline
210
0.0
220
0.0
230
1.0
 70
     8
 71
     3
 72
    17
 73
    13
 74
     0
 42
0.00000001
 43
0.00000001
 40
0.0
 40
0.0
 40
0.0
 40
0.0
 40
0.1034797280380778
 40
0.2100239090909901
 40
0.3134862262879433
 40
0.4198361712144981
 40
0.5254127947779869
 40
0.6339610881168427
 40
0.7409508662120068
 40
0.8511696072047016
 40
0.9558996557845765
 40
1.0
 40
1.0
 40
1.0
 40
1.0
 10
135.2534638956343
 20
141.162844634267
 30
0.0
 10
134.8182154039084
 20
141.1682926259047
 30
0.0
 10
133.9348289533314
 20
141.1793499462333
 30
0.0
 10
132.6540010911086
 20
141.2657087066083
 30
0.0
 10
131.4365848956667
 20
141.3935798497413
 30
0.0
 10
130.3287782793409
 20
141.5525242570598
 30
0.0
 10
129.340539800012
 20
141.7270188300444
 30
0.0
 10
128.5158167001962
 20
141.8961852632313
 30
0.0
 10
127.8668630426976
 20
142.0440660716989
 30
0.0
 10
127.4498277392179
 20
142.1458568232215
 30
0.0
 10
127.2512309963399
 20
142.196213722856
 30
0.0
 10
127.2745441133279
 20
142.1903041178805
 30
0.0
 10
127.2814520873283
 20
142.1885530265295
 30
0.0
  0
LINE
  5
7E
330
1F
100
AcDbEntity
  8
0
  6
Continuous
 62
     7
370
    15
100
AcDbLine
 10
136.9115310028
 20
141.1628446343
 30
0.0
 11
135.2534638956
 21
141.1628446343
 31
0.0
  0
LINE
  5
7F
330
1F
100
AcDbEntity
  8
0
  6
Continuous
 62
     7
370
    15
100
AcDbLine
 10
136.9115310028
 20
135.154338813
 30
0.0
 11
136.9115310028
 21
141.1628446343
 31
0.0
  0
LINE
  5
80
330
1F
100
AcDbEntity
  8
0
  6
Continuous
 62
     7
370
    15
100
AcDbLine
 10
134.4990842283
 20
135.154338813
 30
0.0
 11
136.9115310028
 21
135.154338813
 31
0.0
  0
SPLINE
  5
81
330
1F
100
AcDbEntity
  8
0
  6
Continuous
 62
     7
370
    15
100
AcDbSpline
210
0.0
220
0.0
230
1.0
 70
     8
 71
     3
 72
    20
 73
    16
 74
     0
 42
0.00000001
 43
0.00000001
 40
0.0
 40
0.0
 40
0.0
 40
0.0
 40
0.2499999999999995
 40
0.2499999999999995
 40
0.3749999999999996
 40
0.3749999999999996
 40
0.4999999999999997
 40
0.4999999999999997
 40
0.6249999999999998
 40
0.6249999999999998
 40
0.7499999999999998
 40
0.7499999999999998
 40
0.8749999999999999
 40
0.8749999999999999
 40
1.0
 40
1.0
 40
1.0
 40
1.0
 10
127.2534635424767
 20
130.5456491979085
 30
0.0
 10
127.5018372767648
 20
131.1995116262059
 30
0.0
 10
127.8214073691101
 20
131.8032974082031
 30
0.0
 10
128.4437136023147
 20
132.6301361443717
 30
0.0
 10
128.6751378627455
 20
132.8925647823246
 30
0.0
 10
129.1963522023952
 20
133.3892274364296
 30
0.0
 10
129.4829726850303
 20
133.6198143154511
 30
0.0
 10
130.1024574263379
 20
134.0363685400337
 30
0.0
 10
130.4367578058249
 20
134.2238663420013
 30
0.0
 10
131.1620182784496
 20
134.5552633196376
 30
0.0
 10
131.5439333358401
 20
134.694767307133
 30
0.0
 10
132.3387215120118
 20
134.9202208146039
 30
0.0
 10
132.7528797062182
 20
135.0068469261475
 30
0.0
 10
133.6184260467996
 20
135.1248277150017
 30
0.0
 10
134.0563136618114
 20
135.154338860276
 30
0.0
 10
134.499083888166
 20
135.154338860276
 30
0.0
  0
SPLINE
  5
82
330
1F
100
AcDbEntity
  8
0
  6
Continuous
 62
     7
370
    15
100
AcDbSpline
210
0.0
220
0.0
230
1.0
 70
     8
 71
     3
 72
    70
 73
    66
 74
     0
 42
0.00000001
 43
0.00000001
 40
-0.0312500000000001
 40
-0.0312500000000001
 40
0.0
 40
0.0
 40
0.0312499999999999
 40
0.0312499999999999
 40
0.0624999999999998
 40
0.0624999999999998
 40
0.0937499999999997
 40
0.0937499999999997
 40
0.1249999999999996
 40
0.1249999999999996
 40
0.1562499999999994
 40
0.1562499999999994
 40
0.1874999999999993
 40
0.1874999999999993
 40
0.2187499999999992
 40
0.2187499999999992
 40
0.2499999999999991
 40
0.2499999999999991
 40
0.281249999999999
 40
0.281249999999999
 40
0.3124999999999989
 40
0.3124999999999989
 40
0.3437499999999988
 40
0.3437499999999988
 40
0.3749999999999987
 40
0.3749999999999987
 40
0.4062499999999986
 40
0.4062499999999986
 40
0.4374999999999984
 40
0.4374999999999984
 40
0.4687499999999983
 40
0.4687499999999983
 40
0.4999999999999982
 40
0.4999999999999982
 40
0.5312499999999983
 40
0.5312499999999983
 40
0.5624999999999984
 40
0.5624999999999984
 40
0.5937499999999986
 40
0.5937499999999986
 40
0.6249999999999987
 40
0.6249999999999987
 40
0.6562499999999988
 40
0.6562499999999988
 40
0.6874999999999989
 40
0.6874999999999989
 40
0.718749999999999
 40
0.718749999999999
 40
0.7499999999999991
 40
0.7499999999999991
 40
0.7812499999999992
 40
0.7812499999999992
 40
0.8124999999999993
 40
0.8124999999999993
 40
0.8437499999999994
 40
0.8437499999999994
 40
0.8749999999999996
 40
0.8749999999999996
 40
0.9062499999999997
 40
0.9062499999999997
 40
0.9374999999999998
 40
0.9374999999999998
 40
0.9687499999999999
 40
0.9687499999999999
 40
1.0
 40
1.0
 40
1.03125
 40
1.03125
 10
130.5680088811369
 20
121.3165560838919
 30
0.0
 10
130.0389182038166
 20
121.3165560838919
 30
0.0
 10
129.7788475364395
 20
121.3412333786771
 30
0.0
 10
129.2672728566041
 20
121.437705051719
 30
0.0
 10
129.0130975728639
 20
121.510685967699
 30
0.0
 10
128.5288269428022
 20
121.7004265706377
 30
0.0
 10
128.299185850921
 20
121.8162872290314
 30
0.0
 10
127.8645815026875
 20
122.0889050749891
 30
0.0
 10
127.6590157260409
 20
122.2469441570429
 30
0.0
 10
127.2904585854457
 20
122.5904870080135
 30
0.0
 10
127.1249776027102
 20
122.7772494521152
 30
0.0
 10
126.8325530932751
 20
123.180792626512
 30
0.0
 10
126.7084521166486
 20
123.3942896229412
 30
0.0
 10
126.5088729198989
 20
123.8336729368637
 30
0.0
 10
126.4319393340406
 20
124.0628129240093
 30
0.0
 10
126.3290822755202
 20
124.5287870467693
 30
0.0
 10
126.3036093660611
 20
124.7616694924455
 30
0.0
 10
126.3033189554934
 20
125.2270670275253
 30
0.0
 10
126.3293435892691
 20
125.4619427849197
 30
0.0
 10
126.4314918737611
 20
125.9134359321659
 30
0.0
 10
126.5070683213443
 20
126.1314824075773
 30
0.0
 10
126.7075658524892
 20
126.5525769326151
 30
0.0
 10
126.8326946939976
 20
126.7544983171334
 30
0.0
 10
127.1220534950191
 20
127.1265277996523
 30
0.0
 10
127.2874644820746
 20
127.2991561032327
 30
0.0
 10
127.6604550402224
 20
127.6164741077787
 30
0.0
 10
127.8621880733115
 20
127.7562610412803
 30
0.0
 10
128.2950473241394
 20
128.0004372948321
 30
0.0
 10
128.5289658570288
 20
128.1056668058736
 30
0.0
 10
129.0131495921714
 20
128.2738239522487
 30
0.0
 10
129.2624652181269
 20
128.3370748428426
 30
0.0
 10
129.7754977425546
 20
128.4226540519452
 30
0.0
 10
130.0407915654593
 20
128.4445262168676
 30
0.0
 10
130.563126185329
 20
128.4446898665115
 30
0.0
 10
130.8228798478108
 20
128.4236881744156
 30
0.0
 10
131.339491663456
 20
128.3382858193379
 30
0.0
 10
131.5918577039563
 20
128.2742796360509
 30
0.0
 10
132.0733828254891
 20
128.1074651160097
 30
0.0
 10
132.3062335576027
 20
128.0033319526106
 30
0.0
 10
132.7433234060414
 20
127.7573453001156
 30
0.0
 10
132.9446443946986
 20
127.6175954691668
 30
0.0
 10
133.3137304199985
 20
127.3044573994422
 30
0.0
 10
133.4827151710502
 20
127.1290012401721
 30
0.0
 10
133.7731712277094
 20
126.7561609760719
 30
0.0
 10
133.8962430390715
 20
126.5580391659609
 30
0.0
 10
134.0975792804935
 20
126.1373278232273
 30
0.0
 10
134.1747918264358
 20
125.9153378025597
 30
0.0
 10
134.2769953693359
 20
125.4654728628514
 30
0.0
 10
134.3032237207882
 20
125.2352174497346
 30
0.0
 10
134.3037001201053
 20
124.7639015071855
 30
0.0
 10
134.2779577076073
 20
124.5306640914714
 30
0.0
 10
134.1766469312435
 20
124.0689875519733
 30
0.0
 10
134.0998142918525
 20
123.8380901648612
 30
0.0
 10
133.8994104526373
 20
123.3958141510695
 30
0.0
 10
133.7767389543453
 20
123.1847517197836
 30
0.0
 10
133.486791665181
 20
122.783253209051
 30
0.0
 10
133.3182206858158
 20
122.592346686975
 30
0.0
 10
132.9499510917026
 20
122.248621354978
 30
0.0
 10
132.7488892344323
 20
122.0934841687639
 30
0.0
 10
132.3118583158474
 20
121.8184068086841
 30
0.0
 10
132.0797101027178
 20
121.7012905792621
 30
0.0
 10
131.5986998212189
 20
121.5123640941976
 30
0.0
 10
131.3465997383885
 20
121.4392891238033
 30
0.0
 10
130.8295302521295
 20
121.3412370646688
 30
0.0
 10
130.5680088811369
 20
121.3165560838919
 30
0.0
 10
130.0389182038166
 20
121.3165560838919
 30
0.0
  0
SPLINE
  5
83
330
1F
100
AcDbEntity
  8
0
  6
Continuous
 62
     7
370
    15
100
AcDbSpline
210
0.0
220
0.0
230
1.0
 70
     8
 71
     3
 72
    70
 73
    66
 74
     0
 42
0.00000001
 43
0.00000001
 40
-0.0312499999999999
 40
-0.0312499999999999
 40
0.0
 40
0.0
 40
0.0312499999999999
 40
0.0312499999999999
 40
0.0624999999999998
 40
0.0624999999999998
 40
0.0937499999999997
 40
0.0937499999999997
 40
0.1249999999999996
 40
0.1249999999999996
 40
0.1562499999999995
 40
0.1562499999999995
 40
0.1874999999999994
 40
0.1874999999999994
 40
0.2187499999999993
 40
0.2187499999999993
 40
0.2499999999999992
 40
0.2499999999999992
 40
0.2812499999999993
 40
0.2812499999999993
 40
0.3124999999999993
 40
0.3124999999999993
 40
0.3437499999999994
 40
0.3437499999999994
 40
0.3749999999999995
 40
0.3749999999999995
 40
0.4062499999999996
 40
0.4062499999999996
 40
0.4374999999999996
 40
0.4374999999999996
 40
0.4687499999999997
 40
0.4687499999999997
 40
0.4999999999999998
 40
0.4999999999999998
 40
0.5312499999999999
 40
0.5312499999999999
 40
0.5625
 40
0.5625
 40
0.5937500000000001
 40
0.5937500000000001
 40
0.6250000000000002
 40
0.6250000000000002
 40
0.6562500000000004
 40
0.6562500000000004
 40
0.6875000000000006
 40
0.6875000000000006
 40
0.7187500000000007
 40
0.7187500000000007
 40
0.7500000000000008
 40
0.7500000000000008
 40
0.7812500000000007
 40
0.7812500000000007
 40
0.8125000000000006
 40
0.8125000000000006
 40
0.8437500000000004
 40
0.8437500000000004
 40
0.8750000000000003
 40
0.8750000000000003
 40
0.9062500000000003
 40
0.9062500000000003
 40
0.9375000000000002
 40
0.9375000000000002
 40
0.9687500000000001
 40
0.9687500000000001
 40
1.0
 40
1.0
 40
1.03125
 40
1.03125
 10
130.5680088811369
 20
135.7546125926877
 30
0.0
 10
130.0389182038166
 20
135.7546125926877
 30
0.0
 10
129.7788475364395
 20
135.7705130331025
 30
0.0
 10
129.2672728566041
 20
135.8324573832768
 30
0.0
 10
129.0130975728639
 20
135.879259617368
 30
0.0
 10
128.5288269428022
 20
136.0002366008231
 30
0.0
 10
128.299185850921
 20
136.07383892863
 30
0.0
 10
127.8645815026875
 20
136.2456631996081
 30
0.0
 10
127.6590157260409
 20
136.3446666225355
 30
0.0
 10
127.2904585854457
 20
136.5577630364484
 30
0.0
 10
127.1249776027102
 20
136.672662752578
 30
0.0
 10
126.8325530932751
 20
136.9180296512683
 30
0.0
 10
126.7084521166486
 20
137.0464695517386
 30
0.0
 10
126.5088729198989
 20
137.3073616998246
 30
0.0
 10
126.4319393340406
 20
137.441742871164
 30
0.0
 10
126.3290822755202
 20
137.7110628222703
 30
0.0
 10
126.3036093660611
 20
137.8437440864884
 30
0.0
 10
126.3033189554934
 20
138.1049305606195
 30
0.0
 10
126.3293435892691
 20
138.2346955987842
 30
0.0
 10
126.4314918737611
 20
138.4802782330569
 30
0.0
 10
126.5070683213443
 20
138.5969397703657
 30
0.0
 10
126.7075658524892
 20
138.8188449605203
 30
0.0
 10
126.8326946939976
 20
138.9234562144433
 30
0.0
 10
127.1220534950191
 20
139.1135026260514
 30
0.0
 10
127.2874644820746
 20
139.200262297501
 30
0.0
 10
127.6604550402224
 20
139.3577666732526
 30
0.0
 10
127.8621880733115
 20
139.4260919380398
 30
0.0
 10
128.2950473241394
 20
139.544321661659
 30
0.0
 10
128.5289658570288
 20
139.5946165777629
 30
0.0
 10
129.0131495921714
 20
139.6744821146525
 30
0.0
 10
129.2624652181269
 20
139.7042232424521
 30
0.0
 10
129.7754977425546
 20
139.7443759839603
 30
0.0
 10
130.0407915654593
 20
139.7545742533702
 30
0.0
 10
130.563126185329
 20
139.7546507117549
 30
0.0
 10
130.8228798478108
 20
139.7448597001458
 30
0.0
 10
131.339491663456
 20
139.7047928614071
 30
0.0
 10
131.5918577039563
 20
139.6746956945503
 30
0.0
 10
132.0733828254891
 20
139.5954734847201
 30
0.0
 10
132.3062335576027
 20
139.5457160052567
 30
0.0
 10
132.7433234060414
 20
139.4266240628063
 30
0.0
 10
132.9446443946986
 20
139.358308801259
 30
0.0
 10
133.3137304199985
 20
139.2029078343255
 30
0.0
 10
133.4827151710502
 20
139.1147554922586
 30
0.0
 10
133.7731712277094
 20
138.9243161031422
 30
0.0
 10
133.8962430390715
 20
138.8216915254432
 30
0.0
 10
134.0975792804935
 20
138.600051178835
 30
0.0
 10
134.1747918264358
 20
138.4812971032875
 30
0.0
 10
134.2769953693359
 20
138.2366311643698
 30
0.0
 10
134.3032237207882
 20
138.1094744389213
 30
0.0
 10
134.3037001201053
 20
137.8450262930658
 30
0.0
 10
134.2779577076073
 20
137.7121256128086
 30
0.0
 10
134.1766469312435
 20
137.4453333393265
 30
0.0
 10
134.0998142918525
 20
137.309969437858
 30
0.0
 10
133.8994104526373
 20
137.0473896425554
 30
0.0
 10
133.7767389543453
 20
136.9204144828016
 30
0.0
 10
133.486791665181
 20
136.6763350967192
 30
0.0
 10
133.3182206858158
 20
136.5589099719654
 30
0.0
 10
132.9499510917026
 20
136.345713511017
 30
0.0
 10
132.7488892344323
 20
136.2485393925921
 30
0.0
 10
132.3118583158474
 20
136.0751845053779
 30
0.0
 10
132.0797101027178
 20
136.0007849537212
 30
0.0
 10
131.5986998212189
 20
135.8803320742166
 30
0.0
 10
131.3465997383885
 20
135.8334736989505
 30
0.0
 10
130.8295302521295
 20
135.7705162019668
 30
0.0
 10
130.5680088811369
 20
135.7546125926877
 30
0.0
 10
130.0389182038166
 20
135.7546125926877
 30
0.0
  0
LINE
  5
84
330
1F
100
AcDbEntity
  8
0
  6
Continuous
 62
     7
370
    15
100
AcDbLine
 10
122.3034635425
 20
79.4956500443
 30
0.0
 11
122.3034635425
 21
141.8956483515
 31
0.0
  0
SPLINE
  5
85
330
1F
100
AcDbEntity
  8
0
  6
Continuous
 62
     7
370
    15
100
AcDbSpline
210
0.0
220
0.0
230
1.0
 70
     8
 71
     3
 72
     8
 73
     4
 74
     0
 42
0.00000001
 43
0.00000001
 40
0.0
 40
0.0
 40
0.0
 40
0.0
 40
1.0
 40
1.0
 40
1.0
 40
1.0
 10
143.6953963739658
 20
80.50873150166137
 30
0.0
 10
143.1999167133001
 20
81.40425758959474
 30
0.0
 10
142.7058026652579
 20
82.300542004647
 30
0.0
 10
142.2134635424767
 20
83.1978120388537
 30
0.0
  0
LINE
  5
86
330
1F
100
AcDbEntity
  8
0
  6
Continuous
 62
     7
370
    15
100
AcDbLine
 10
142.2134638071
 20
83.1978118779
 30
0.0
 11
142.2134638071
 21
130.545649937
 31
0.0
  0
SPLINE
  5
87
330
1F
100
AcDbEntity
  8
0
  6
Continuous
 62
     7
370
    15
100
AcDbSpline
210
0.0
220
0.0
230
1.0
 70
    24
 71
     3
 72
     8
 73
     4
 74
     0
 42
0.00000001
 43
0.00000001
 40
0.0
 40
0.0
 40
0.0
 40
0.0
 40
1.0
 40
1.0
 40
1.0
 40
1.0
 10
142.2134635424767
 20
130.5456491979085
 30
0.0
 10
142.6934155368417
 20
130.5456491979085
 30
0.0
 10
143.1887162658153
 20
130.5456491979085
 30
0.0
 10
143.6953963739658
 20
130.5456491979085
 30
0.0
  0
LINE
  5
88
330
1F
100
AcDbEntity
  8
0
  6
Continuous
 62
     7
370
    15
100
AcDbLine
 10
138.3934635908
 20
83.1978118779
 30
0.0
 11
138.3934635908
 21
130.545649937
 31
0.0
  0
SPLINE
  5
89
330
1F
100
AcDbEntity
  8
0
  6
Continuous
 62
     7
370
    15
100
AcDbSpline
210
0.0
220
0.0
230
1.0
 70
     8
 71
     3
 72
     8
 73
     4
 74
     0
 42
0.00000001
 43
0.00000001
 40
0.0
 40
0.0
 40
0.0
 40
0.0
 40
1.0
 40
1.0
 40
1.0
 40
1.0
 10
138.3934635424768
 20
83.19781203885368
 30
0.0
 10
137.9011244196956
 20
82.30054200464699
 30
0.0
 10
137.4070103716534
 20
81.40425758959474
 30
0.0
 10
136.9115307109877
 20
80.50873150166137
 30
0.0
  0
SPLINE
  5
8A
330
1F
100
AcDbEntity
  8
0
  6
Continuous
 62
     7
370
    15
100
AcDbSpline
210
0.0
220
0.0
230
1.0
 70
    24
 71
     3
 72
     8
 73
     4
 74
     0
 42
0.00000001
 43
0.00000001
 40
0.0
 40
0.0
 40
0.0
 40
0.0
 40
1.0
 40
1.0
 40
1.0
 40
1.0
 10
136.9115307109876
 20
130.5456491979085
 30
0.0
 10
137.4182108191382
 20
130.5456491979085
 30
0.0
 10
137.9135115481118
 20
130.5456491979085
 30
0.0
 10
138.3934635424768
 20
130.5456491979085
 30
0.0
  0
ARC
  5
8B
330
1F
100
AcDbEntity
  8
0
  6
Continuous
 62
     7
370
    15
100
AcDbCircle
 10
130.3043104511
 20
122.5920061094
 30
0.0
 40
4.117467637020121
100
AcDbArc
 50
20.6241183064
 51
159.7585519937
  0
SPLINE
  5
8C
330
1F
100
AcDbEntity
  8
0
  6
Continuous
 62
     7
370
    15
100
AcDbSpline
210
0.0
220
0.0
230
1.0
 70
     8
 71
     3
 72
    10
 73
     6
 74
     0
 42
0.00000001
 43
0.00000001
 40
0.0
 40
0.0
 40
0.0
 40
0.0
 40
0.5
 40
0.5
 40
1.0
 40
1.0
 40
1.0
 40
1.0
 10
138.7877610741677
 20
137.0956491979085
 30
0.0
 10
138.6662208104992
 20
137.1703753651203
 30
0.0
 10
138.5648864501503
 20
137.2793203810371
 30
0.0
 10
138.4292475072618
 20
137.5297508617987
 30
0.0
 10
138.3934635424768
 20
137.6721702238976
 30
0.0
 10
138.3934635424768
 20
137.8153030489443
 30
0.0
  0
SPLINE
  5
8D
330
1F
100
AcDbEntity
  8
0
  6
Continuous
 62
     7
370
    15
100
AcDbSpline
210
0.0
220
0.0
230
1.0
 70
    24
 71
     3
 72
    12
 73
     8
 74
     0
 42
0.00000001
 43
0.00000001
 40
0.0
 40
0.0
 40
0.0
 40
0.0
 40
0.2499999999999992
 40
0.2499999999999992
 40
0.4999999999999983
 40
0.4999999999999983
 40
1.0
 40
1.0
 40
1.0
 40
1.0
 10
139.1934635424767
 20
137.0956491979085
 30
0.0
 10
139.1435868601594
 20
137.0956491979085
 30
0.0
 10
139.0955836667557
 20
137.0956491979085
 30
0.0
 10
139.0125355640437
 20
137.0956491979085
 30
0.0
 10
138.9764059845759
 20
137.0956491979085
 30
0.0
 10
138.8804939536317
 20
137.0956491979086
 30
0.0
 10
138.8307352856629
 20
137.0956491979085
 30
0.0
 10
138.7877610741677
 20
137.0956491979085
 30
0.0
  0
SPLINE
  5
8E
330
1F
100
AcDbEntity
  8
0
  6
Continuous
 62
     7
370
    15
100
AcDbSpline
210
0.0
220
0.0
230
1.0
 70
    24
 71
     3
 72
    14
 73
    10
 74
     0
 42
0.00000001
 43
0.00000001
 40
0.0
 40
0.0
 40
0.0
 40
0.0
 40
0.1250000000000012
 40
0.1250000000000012
 40
0.2500000000000024
 40
0.2500000000000024
 40
0.5000000000000013
 40
0.5000000000000013
 40
1.0
 40
1.0
 40
1.0
 40
1.0
 10
139.1934635424767
 20
84.29564919790855
 30
0.0
 10
139.1250256945903
 20
84.29564919790855
 30
0.0
 10
139.0594756558253
 20
84.29564919790855
 30
0.0
 10
138.9550490164173
 20
84.29564919790855
 30
0.0
 10
138.9125044066559
 20
84.29564919790853
 30
0.0
 10
138.7998949461156
 20
84.29564919790853
 30
0.0
 10
138.7443558990961
 20
84.29564919790853
 30
0.0
 10
138.6017442036324
 20
84.29564919790855
 30
0.0
 10
138.5383388486366
 20
84.29564919790853
 30
0.0
 10
138.491138344809
 20
84.29564919790855
 30
0.0
  0
SPLINE
  5
8F
330
1F
100
AcDbEntity
  8
0
  6
Continuous
 62
     7
370
    15
100
AcDbSpline
210
0.0
220
0.0
230
1.0
 70
     8
 71
     3
 72
    10
 73
     6
 74
     0
 42
0.00000001
 43
0.00000001
 40
0.0
 40
0.0
 40
0.0
 40
0.0
 40
0.5
 40
0.5
 40
1.0
 40
1.0
 40
1.0
 40
1.0
 10
138.3934635424768
 20
130.8315158293699
 30
0.0
 10
138.3934635424768
 20
130.7837443213766
 30
0.0
 10
138.3956247860739
 20
130.736034599315
 30
0.0
 10
138.4042961599341
 20
130.6407394817667
 30
0.0
 10
138.41082534289
 20
130.5930469178001
 30
0.0
 10
138.4196111656369
 20
130.5456491979085
 30
0.0
  0
SPLINE
  5
90
330
1F
100
AcDbEntity
  8
0
  6
Continuous
 62
     7
370
    15
100
AcDbSpline
210
0.0
220
0.0
230
1.0
 70
    24
 71
     3
 72
    14
 73
    10
 74
     0
 42
0.00000001
 43
0.00000001
 40
0.0
 40
0.0
 40
0.0
 40
0.0
 40
0.5
 40
0.5
 40
0.75
 40
0.75
 40
0.875
 40
0.875
 40
1.0
 40
1.0
 40
1.0
 40
1.0
 10
142.1157887401445
 20
84.29564919790855
 30
0.0
 10
142.0690040350962
 20
84.29564919790855
 30
0.0
 10
142.0069528383166
 20
84.29564919790855
 30
0.0
 10
141.863561199766
 20
84.29564919790853
 30
0.0
 10
141.8074175462149
 20
84.29564919790855
 30
0.0
 10
141.6944665240787
 20
84.29564919790853
 30
0.0
 10
141.6514657620405
 20
84.29564919790855
 30
0.0
 10
141.5474030517341
 20
84.29564919790853
 30
0.0
 10
141.4820708133772
 20
84.29564919790853
 30
0.0
 10
141.4134635424767
 20
84.29564919790855
 30
0.0
  0
SPLINE
  5
91
330
1F
100
AcDbEntity
  8
0
  6
Continuous
 62
     7
370
    15
100
AcDbSpline
210
0.0
220
0.0
230
1.0
 70
    24
 71
     3
 72
    12
 73
     8
 74
     0
 42
0.00000001
 43
0.00000001
 40
0.0
 40
0.0
 40
0.0
 40
0.0
 40
0.5000000000000017
 40
0.5000000000000017
 40
0.7500000000000008
 40
0.7500000000000008
 40
1.0
 40
1.0
 40
1.0
 40
1.0
 10
141.8191660107858
 20
137.0956491979085
 30
0.0
 10
141.7760804611748
 20
137.0956491979085
 30
0.0
 10
141.7269282594255
 20
137.0956491979085
 30
0.0
 10
141.6304556651376
 20
137.0956491979085
 30
0.0
 10
141.594354080003
 20
137.0956491979085
 30
0.0
 10
141.5112483221417
 20
137.0956491979085
 30
0.0
 10
141.4632517251754
 20
137.0956491979085
 30
0.0
 10
141.4134635424767
 20
137.0956491979085
 30
0.0
  0
SPLINE
  5
92
330
1F
100
AcDbEntity
  8
0
  6
Continuous
 62
     7
370
    15
100
AcDbSpline
210
0.0
220
0.0
230
1.0
 70
     8
 71
     3
 72
    10
 73
     6
 74
     0
 42
0.00000001
 43
0.00000001
 40
0.0
 40
0.0
 40
0.0
 40
0.0
 40
0.5
 40
0.5
 40
1.0
 40
1.0
 40
1.0
 40
1.0
 10
142.2134635424767
 20
137.8153030489443
 30
0.0
 10
142.2134635424767
 20
137.6715329911263
 30
0.0
 10
142.1774144837579
 20
137.5291136286312
 30
0.0
 10
142.0419056229838
 20
137.2792193352739
 30
0.0
 10
141.9420296298877
 20
137.1711889990257
 30
0.0
 10
141.8191660107858
 20
137.0956491979085
 30
0.0
  0
SPLINE
  5
93
330
1F
100
AcDbEntity
  8
0
  6
Continuous
 62
     7
370
    15
100
AcDbSpline
210
0.0
220
0.0
230
1.0
 70
     8
 71
     3
 72
    10
 73
     6
 74
     0
 42
0.00000001
 43
0.00000001
 40
0.0
 40
0.0
 40
0.0
 40
0.0
 40
0.5
 40
0.5
 40
1.0
 40
1.0
 40
1.0
 40
1.0
 10
142.1873159193166
 20
130.5456491979085
 30
0.0
 10
142.1960055622283
 20
130.5925280472267
 30
0.0
 10
142.2025446269788
 20
130.639950512628
 30
0.0
 10
142.2113032613718
 20
130.7358873112148
 30
0.0
 10
142.2134635424767
 20
130.7838025992253
 30
0.0
 10
142.2134635424767
 20
130.8315158293699
 30
0.0
  0
LINE
  5
94
330
1F
100
AcDbEntity
  8
0
  6
Continuous
 62
     7
370
    15
100
AcDbLine
 10
141.4134633035
 20
137.0956490549
 30
0.0
 11
139.1934640944
 21
137.0956490549
 31
0.0
  0
LINE
  5
95
330
1F
100
AcDbEntity
  8
0
  6
Continuous
 62
     7
370
    15
100
AcDbLine
 10
141.4134633035
 20
84.295649341
 30
0.0
 11
139.1934640944
 21
84.295649341
 31
0.0
  0
LINE
  5
96
330
1F
100
AcDbEntity
  8
0
  6
Continuous
 62
     7
370
    15
100
AcDbLine
 10
148.4534628928
 20
137.0956490549
 30
0.0
 11
148.4094280988
 21
137.0956490549
 31
0.0
  0
LINE
  5
97
330
1F
100
AcDbEntity
  8
0
  6
Continuous
 62
     7
370
    15
100
AcDbLine
 10
148.4534628928
 20
84.295649341
 30
0.0
 11
148.4039109439
 21
84.295649341
 31
0.0
  0
SPLINE
  5
98
330
1F
100
AcDbEntity
  8
0
  6
Continuous
 62
     7
370
    15
100
AcDbSpline
210
0.0
220
0.0
230
1.0
 70
     8
 71
     3
 72
    39
 73
    35
 74
     0
 42
0.00000001
 43
0.00000001
 40
-0.0929944364862874
 40
-0.0618624647521123
 40
-0.0305961334938708
 40
0.0
 40
0.0306082790833781
 40
0.0619043158723718
 40
0.0930590932518027
 40
0.1241968372569188
 40
0.1553769891456306
 40
0.1869014874563719
 40
0.218619688683373
 40
0.2499365490495468
 40
0.281281328969318
 40
0.3130734001082072
 40
0.3446803259302155
 40
0.3759117188116082
 40
0.4070393818513459
 40
0.4381445951681189
 40
0.4693731667776929
 40
0.5000122866541266
 40
0.5306486451555071
 40
0.5619150731237773
 40
0.5930395751187666
 40
0.6241826544635272
 40
0.6553927932566969
 40
0.6869709352809669
 40
0.7187116876984159
 40
0.7500544146984695
 40
0.7813708795525917
 40
0.8131353286086863
 40
0.8446875147281183
 40
0.8758894101231337
 40
0.9070055635137126
 40
0.9381375352478877
 40
0.9694038665061292
 40
1.0
 40
1.030608279083378
 40
1.061904315872372
 40
1.093059093251803
 10
179.3341724106496
 20
102.8596505465629
 30
0.0
 10
177.8032668757225
 20
102.7038519044176
 30
0.0
 10
176.2718428761847
 20
102.8596873479318
 30
0.0
 10
174.8031751619488
 20
103.3273068326469
 30
0.0
 10
173.4467196583772
 20
104.0607624829836
 30
0.0
 10
172.2711783132675
 20
105.0484437121444
 30
0.0
 10
171.3051826942145
 20
106.2498965528346
 30
0.0
 10
170.5889464632812
 20
107.6315540279024
 30
0.0
 10
170.133660282313
 20
109.1305010497769
 30
0.0
 10
169.9827565541622
 20
110.6928216806443
 30
0.0
 10
170.1347409314964
 20
112.2562527435775
 30
0.0
 10
170.5909530387625
 20
113.7580478620552
 30
0.0
 10
171.3078245529743
 20
115.1432070767386
 30
0.0
 10
172.2747109497722
 20
116.3465596524291
 30
0.0
 10
173.449928775066
 20
117.3343375077283
 30
0.0
 10
174.8045779201305
 20
118.0668711811285
 30
0.0
 10
176.2724780474055
 20
118.5325051404511
 30
0.0
 10
177.8039784970848
 20
118.6871874038988
 30
0.0
 10
179.336068532067
 20
118.5320358448904
 30
0.0
 10
180.8046158722269
 20
118.0655271547742
 30
0.0
 10
182.1602082688761
 20
117.3322272966326
 30
0.0
 10
183.335070297605
 20
116.3436267047924
 30
0.0
 10
184.3009384688025
 20
115.1402322248698
 30
0.0
 10
185.0168540571842
 20
113.7564328695578
 30
0.0
 10
185.4720759313832
 20
112.2557812916791
 30
0.0
 10
185.6241605555827
 20
110.6932974329393
 30
0.0
 10
185.4734226912055
 20
109.1301952330637
 30
0.0
 10
185.0172829811643
 20
107.6302122209015
 30
0.0
 10
184.3001821325473
 20
106.2472472450251
 30
0.0
 10
183.3332715270971
 20
105.0458965948114
 30
0.0
 10
182.1574973600336
 20
104.0591065324533
 30
0.0
 10
180.8019316857278
 20
103.3265732081343
 30
0.0
 10
179.3341724106496
 20
102.8596505465629
 30
0.0
 10
177.8032668757225
 20
102.7038519044176
 30
0.0
 10
176.2718428761847
 20
102.8596873479318
 30
0.0
  0
LINE
  5
99
330
1F
100
AcDbEntity
  8
0
  6
Continuous
 62
     7
370
    15
100
AcDbLine
 10
189.4364208222
 20
84.6956486615
 30
0.0
 11
189.4364208222
 21
136.6956497344
 31
0.0
  0
SPLINE
  5
9A
330
1F
100
AcDbEntity
  8
0
  6
Continuous
 62
     7
370
    15
100
AcDbSpline
210
0.0
220
0.0
230
1.0
 70
     8
 71
     3
 72
    25
 73
    21
 74
     0
 42
0.00000001
 43
0.00000001
 40
0.0
 40
0.0
 40
0.0
 40
0.0
 40
0.0214832174106997
 40
0.1256311106808659
 40
0.179128080795089
 40
0.2281196912451622
 40
0.2726122000478938
 40
0.312614651008333
 40
0.4099451777226737
 40
0.4989900396035994
 40
0.58805199775335
 40
0.6196165142320467
 40
0.6521179487123383
 40
0.6855668857986492
 40
0.7399575579507308
 40
0.8023013165960563
 40
0.8726145920562388
 40
0.9276420900432286
 40
0.9771545273707047
 40
0.9999999999999999
 40
0.9999999999999999
 40
0.9999999999999999
 40
0.9999999999999999
 10
181.2860742449914
 20
104.646777062329
 30
0.0
 10
181.3800002180075
 20
104.6940256083473
 30
0.0
 10
181.9292673080441
 20
104.9703290688978
 30
0.0
 10
182.5946873857498
 20
105.556618549212
 30
0.0
 10
183.2699048305836
 20
106.3001284580495
 30
0.0
 10
183.6880627059557
 20
106.8844904712144
 30
0.0
 10
184.015577119605
 20
107.4493374837943
 30
0.0
 10
184.3923173787241
 20
108.2568949288194
 30
0.0
 10
184.7157344039915
 20
109.3314010169439
 30
0.0
 10
184.8452349259012
 20
110.6929499024808
 30
0.0
 10
184.7471179449869
 20
111.7307882637402
 30
0.0
 10
184.5812128002217
 20
112.4666998900141
 30
0.0
 10
184.4443645582838
 20
112.9266396755009
 30
0.0
 10
184.2368853667818
 20
113.48006879934
 30
0.0
 10
183.9157875663466
 20
114.1432005169149
 30
0.0
 10
183.4190667827904
 20
114.9119683284291
 30
0.0
 10
182.8206929282146
 20
115.6069487069709
 30
0.0
 10
182.1828023457749
 20
116.1712613138374
 30
0.0
 10
181.6807477014285
 20
116.5397418189053
 30
0.0
 10
181.3718066480584
 20
116.7117469968529
 30
0.0
 10
181.2742650747452
 20
116.7660539770745
 30
0.0
  0
SPLINE
  5
9B
330
1F
100
AcDbEntity
  8
0
  6
Continuous
 62
     7
370
    15
100
AcDbSpline
210
0.0
220
0.0
230
1.0
 70
     8
 71
     3
 72
    25
 73
    21
 74
     0
 42
0.00000001
 43
0.00000001
 40
0.0
 40
0.0
 40
0.0
 40
0.0
 40
0.021149170548675
 40
0.1254818703228556
 40
0.1790080189863946
 40
0.22805603815413
 40
0.2726320765730174
 40
0.3127450898752918
 40
0.4101985617056009
 40
0.4993226497880435
 40
0.5883156967586134
 40
0.6198493265834686
 40
0.652316052642251
 40
0.685726480763226
 40
0.7399741954223987
 40
0.802228075893844
 40
0.8725042740533249
 40
0.927402272583216
 40
0.9768888696443999
 40
0.9999999999999999
 40
0.9999999999999999
 40
0.9999999999999999
 40
0.9999999999999999
 10
174.3202582240258
 20
116.7445152798914
 30
0.0
 10
174.227791759238
 20
116.6980161876178
 30
0.0
 10
173.679171428383
 20
116.4221286272343
 30
0.0
 10
173.0139838382111
 20
115.8364056265806
 30
0.0
 10
172.3377092826871
 20
115.0920623266744
 30
0.0
 10
171.918991468729
 20
114.5070646447346
 30
0.0
 10
171.5908688625678
 20
113.9411379464817
 30
0.0
 10
171.2136588591668
 20
113.1320695501643
 30
0.0
 10
170.8903059047526
 20
112.0559206453076
 30
0.0
 10
170.7616924846672
 20
110.6936453690438
 30
0.0
 10
170.8605147637364
 20
109.65599742541
 30
0.0
 10
171.0267089225024
 20
108.9208454123621
 30
0.0
 10
171.1636466342913
 20
108.4614808713798
 30
0.0
 10
171.3709867376459
 20
107.9091559924893
 30
0.0
 10
171.6916459349242
 20
107.2473419671121
 30
0.0
 10
172.1876175050311
 20
106.4797272542145
 30
0.0
 10
172.7850431134383
 20
105.7856550166617
 30
0.0
 10
173.4220035205933
 20
105.2217598285892
 30
0.0
 10
173.9243352947382
 20
104.852771686226
 30
0.0
 10
174.2342467828027
 20
104.6800985731496
 30
0.0
 10
174.3329055845891
 20
104.6251289347433
 30
0.0
  0
LINE
  5
9C
330
1F
100
AcDbEntity
  8
0
  6
Continuous
 62
     7
370
    15
100
AcDbLine
 10
120.3034634475
 20
86.4752179744
 30
0.0
 11
120.3034634475
 21
134.9160804214
 31
0.0
  0
LINE
  5
9D
330
1F
100
AcDbEntity
  8
0
  6
Continuous
 62
     7
370
    15
100
AcDbLine
 10
100.5034633219
 20
87.4672031762
 30
0.0
 11
100.5034633219
 21
88.7319112929
 31
0.0
  0
SPLINE
  5
9E
330
1F
100
AcDbEntity
  8
0
  6
Continuous
 62
     7
370
    15
100
AcDbSpline
210
0.0
220
0.0
230
1.0
 70
     8
 71
     3
 72
    14
 73
    10
 74
     0
 42
0.00000001
 43
0.00000001
 40
0.0
 40
0.0
 40
0.0
 40
0.0
 40
0.25
 40
0.25
 40
0.5
 40
0.5
 40
0.75
 40
0.75
 40
1.0
 40
1.0
 40
1.0
 40
1.0
 10
99.72517642456103
 20
89.86249787434859
 30
0.0
 10
99.78180309976311
 20
89.75480042051173
 30
0.0
 10
99.87632576005282
 20
89.65201083879242
 30
0.0
 10
100.0593707356151
 20
89.45365352657227
 30
0.0
 10
100.1509973125698
 20
89.35759401789402
 30
0.0
 10
100.309850630263
 20
89.17006497518477
 30
0.0
 10
100.3777412378847
 20
89.07865600240122
 30
0.0
 10
100.4746582635923
 20
88.90027978149107
 30
0.0
 10
100.5034635424773
 20
88.8130578752449
 30
0.0
 10
100.5034635424773
 20
88.73191166671063
 30
0.0
  0
SPLINE
  5
9F
330
1F
100
AcDbEntity
  8
0
  6
Continuous
 62
     7
370
    15
100
AcDbSpline
210
0.0
220
0.0
230
1.0
 70
     8
 71
     3
 72
    14
 73
    10
 74
     0
 42
0.00000001
 43
0.00000001
 40
0.0
 40
0.0
 40
0.0
 40
0.0
 40
0.125
 40
0.125
 40
0.25
 40
0.25
 40
0.5
 40
0.5
 40
1.0
 40
1.0
 40
1.0
 40
1.0
 10
99.10346354247675
 20
90.30917973662791
 30
0.0
 10
99.15200795113391
 20
90.3149280499082
 30
0.0
 10
99.20492330591883
 20
90.31182716125197
 30
0.0
 10
99.30021865090185
 20
90.28963231708964
 30
0.0
 10
99.34046964818681
 20
90.27240008999378
 30
0.0
 10
99.44473966169977
 20
90.21607217354172
 30
0.0
 10
99.49506163685311
 20
90.17188582759591
 30
0.0
 10
99.62274458437848
 20
90.04087792874529
 30
0.0
 10
99.67883003144075
 20
89.95064340851499
 30
0.0
 10
99.72517642456249
 20
89.86249787434912
 30
0.0
  0
SPLINE
  5
A0
330
1F
100
AcDbEntity
  8
0
  6
Continuous
 62
     7
370
    15
100
AcDbSpline
210
0.0
220
0.0
230
1.0
 70
     8
 71
     3
 72
     8
 73
     4
 74
     0
 42
0.00000001
 43
0.00000001
 40
0.0
 40
0.0
 40
0.0
 40
0.0
 40
1.0
 40
1.0
 40
1.0
 40
1.0
 10
96.83493844953048
 20
89.99933445004511
 30
0.0
 10
97.56951547601345
 20
90.11795946111407
 30
0.0
 10
98.33299054540912
 20
90.21794533325037
 30
0.0
 10
99.10346354247675
 20
90.30917973662791
 30
0.0
  0
SPLINE
  5
A1
330
1F
100
AcDbEntity
  8
0
  6
Continuous
 62
     7
370
    15
100
AcDbSpline
210
0.0
220
0.0
230
1.0
 70
     8
 71
     3
 72
    14
 73
    10
 74
     0
 42
0.00000001
 43
0.00000001
 40
0.0
 40
0.0
 40
0.0
 40
0.0
 40
0.5000000000000002
 40
0.5000000000000002
 40
0.7500000000000002
 40
0.7500000000000002
 40
0.8750000000000001
 40
0.8750000000000001
 40
1.0
 40
1.0
 40
1.0
 40
1.0
 10
91.55346354247675
 20
89.82571143251347
 30
0.0
 10
92.4456096730303
 20
89.82498920631282
 30
0.0
 10
93.33558610882389
 20
89.82957541277028
 30
0.0
 10
94.66218127589948
 20
89.85730041716182
 30
0.0
 10
95.10302820439821
 20
89.869906954786
 30
0.0
 10
95.75946844182063
 20
89.90092310279343
 30
0.0
 10
95.97748209841252
 20
89.91326627542021
 30
0.0
 10
96.41019095209528
 20
89.9462903305835
 30
0.0
 10
96.62546741726008
 20
89.96550749572194
 30
0.0
 10
96.83493844953048
 20
89.99933445004511
 30
0.0
  0
SPLINE
  5
A2
330
1F
100
AcDbEntity
  8
0
  6
Continuous
 62
     7
370
    15
100
AcDbSpline
210
0.0
220
0.0
230
1.0
 70
     8
 71
     3
 72
     8
 73
     4
 74
     0
 42
0.00000001
 43
0.00000001
 40
0.0000005163856711
 40
0.0000005163856711
 40
0.0000005163856711
 40
0.0000005163856711
 40
0.000026289209185
 40
0.000026289209185
 40
0.000026289209185
 40
0.000026289209185
 10
91.54341861205805
 20
89.83569530562136
 30
0.0
 10
91.54674635026952
 20
89.83236105874853
 30
0.0
 10
91.55009480324883
 20
89.8290331014695
 30
0.0
 10
91.55346354247672
 20
89.82571143251346
 30
0.0
  0
SPLINE
  5
A3
330
1F
100
AcDbEntity
  8
0
  6
Continuous
 62
     7
370
    15
100
AcDbSpline
210
0.0
220
0.0
230
1.0
 70
     8
 71
     3
 72
     8
 73
     4
 74
     0
 42
0.00000001
 43
0.00000001
 40
0.0000005099763573
 40
0.0000005099763573
 40
0.0000005099763573
 40
0.0000005099763573
 40
0.0000262827998699
 40
0.0000262827998699
 40
0.0000262827998699
 40
0.0000262827998699
 10
91.55346354247673
 20
131.5655869633036
 30
0.0
 10
91.550094803249
 20
131.5622652943477
 30
0.0
 10
91.54674635026986
 20
131.5589373370689
 30
0.0
 10
91.54341861205853
 20
131.5556030901962
 30
0.0
  0
SPLINE
  5
A4
330
1F
100
AcDbEntity
  8
0
  6
Continuous
 62
     7
370
    15
100
AcDbSpline
210
0.0
220
0.0
230
1.0
 70
     8
 71
     3
 72
    10
 73
     6
 74
     0
 42
0.00000001
 43
0.00000001
 40
0.0
 40
0.0
 40
0.0
 40
0.0
 40
0.5
 40
0.5
 40
1.0
 40
1.0
 40
1.0
 40
1.0
 10
95.10346354247676
 20
131.5187365897363
 30
0.0
 10
94.51587799538616
 20
131.5398021099727
 30
0.0
 10
93.92513160192577
 20
131.5505605958449
 30
0.0
 10
92.74111243662692
 20
131.5639253763806
 30
0.0
 10
92.14769844842145
 20
131.5660680190452
 30
0.0
 10
91.55346354247675
 20
131.5655869633036
 30
0.0
  0
SPLINE
  5
A5
330
1F
100
AcDbEntity
  8
0
  6
Continuous
 62
     7
370
    15
100
AcDbSpline
210
0.0
220
0.0
230
1.0
 70
     8
 71
     3
 72
    18
 73
    14
 74
     0
 42
0.00000001
 43
0.00000001
 40
0.0
 40
0.0
 40
0.0
 40
0.0
 40
0.2500000000000008
 40
0.2500000000000008
 40
0.5000000000000009
 40
0.5000000000000009
 40
0.7500000000000009
 40
0.7500000000000009
 40
0.875000000000001
 40
0.875000000000001
 40
0.9375000000000006
 40
0.9375000000000006
 40
1.0
 40
1.0
 40
1.0
 40
1.0
 10
96.50346354247675
 20
132.5397568702715
 30
0.0
 10
96.50346354247677
 20
132.4565499614143
 30
0.0
 10
96.4676144425385
 20
132.3678133061007
 30
0.0
 10
96.34274270650457
 20
132.1856881155406
 30
0.0
 10
96.25234228885671
 20
132.0905580669139
 30
0.0
 10
96.03009963411452
 20
131.9013765577896
 30
0.0
 10
95.90033484766874
 20
131.8064313896949
 30
0.0
 10
95.65969739035725
 20
131.6681526821149
 30
0.0
 10
95.57193009221982
 20
131.6224422488125
 30
0.0
 10
95.41740600501298
 20
131.5646189435911
 30
0.0
 10
95.36079511895824
 20
131.5469041795532
 30
0.0
 10
95.23675108805163
 20
131.5223648763203
 30
0.0
 10
95.16903641303334
 20
131.516385737782
 30
0.0
 10
95.10346354247675
 20
131.5187365897363
 30
0.0
  0
LINE
  5
A6
330
1F
100
AcDbEntity
  8
0
  6
Continuous
 62
     7
370
    15
100
AcDbLine
 10
96.5034626663
 20
132.5397568556
 30
0.0
 11
96.5034626663
 21
133.7236950906
 31
0.0
  0
SPLINE
  5
A7
330
1F
100
AcDbEntity
  8
0
  6
Continuous
 62
     7
370
    15
100
AcDbSpline
210
0.0
220
0.0
230
1.0
 70
     8
 71
     3
 72
    24
 73
    20
 74
     0
 42
0.00000001
 43
0.00000001
 40
0.0
 40
0.0
 40
0.0
 40
0.0
 40
0.0010489815523775
 40
0.0637843212772741
 40
0.1272220630088516
 40
0.1903789073370505
 40
0.2526748662763491
 40
0.3146354150030102
 40
0.3770891884518245
 40
0.4393540587943444
 40
0.5008133488401828
 40
0.5621845177353679
 40
0.6248438462901906
 40
0.6874304788646655
 40
0.7496743245911356
 40
0.811984857412469
 40
0.8750960476811308
 40
0.9384412548145236
 40
1.0
 40
1.0
 40
1.0
 40
1.0
 10
109.0723695472036
 20
87.03814100346197
 30
0.0
 10
109.0719228814529
 20
87.0380823584955
 30
0.0
 10
109.0447629455293
 20
87.03451639551481
 30
0.0
 10
109.1403928686611
 20
87.04738100499002
 30
0.0
 10
109.3739460446816
 20
87.07661548733007
 30
0.0
 10
109.769501996916
 20
87.1232346980715
 30
0.0
 10
110.2965419972861
 20
87.17341549749666
 30
0.0
 10
110.9400724391223
 20
87.21779417093971
 30
0.0
 10
111.678746273392
 20
87.2447373674505
 30
0.0
 10
112.4762609435109
 20
87.24820911575263
 30
0.0
 10
113.3028399932755
 20
87.22058366945922
 30
0.0
 10
114.1283628146942
 20
87.16210252648057
 30
0.0
 10
114.9204892856098
 20
87.076659463082
 30
0.0
 10
115.6530616644471
 20
86.97492429458947
 30
0.0
 10
116.2887018462679
 20
86.86708064354156
 30
0.0
 10
116.8106127768141
 20
86.76544924826672
 30
0.0
 10
117.192241614453
 20
86.68296728397422
 30
0.0
 10
117.4430562903864
 20
86.6268151764673
 30
0.0
 10
117.4721776060937
 20
86.61996632555444
 30
0.0
 10
117.4865300074373
 20
86.61659087857832
 30
0.0
  0
SPLINE
  5
A8
330
1F
100
AcDbEntity
  8
0
  6
Continuous
 62
     7
370
    15
100
AcDbSpline
210
0.0
220
0.0
230
1.0
 70
     8
 71
     3
 72
    24
 73
    20
 74
     0
 42
0.00000001
 43
0.00000001
 40
0.0
 40
0.0
 40
0.0
 40
0.0
 40
0.061438429114026
 40
0.1250736777967296
 40
0.1884253375120635
 40
0.2508623992448768
 40
0.3129665476325514
 40
0.3753451442328022
 40
0.4377328732174486
 40
0.499092717251918
 40
0.560580729454827
 40
0.622946985474185
 40
0.6854686070210457
 40
0.7475477863222202
 40
0.8098225081553685
 40
0.873068419947611
 40
0.936404185690527
 40
0.9991757203144552
 40
1.0
 40
1.0
 40
1.0
 40
1.0
 10
117.4864755250667
 20
134.7746777149164
 30
0.0
 10
117.4718747166145
 20
134.7713095570434
 30
0.0
 10
117.4421510267635
 20
134.764452807959
 30
0.0
 10
117.1894130267776
 20
134.7081149880629
 30
0.0
 10
116.8064177277564
 20
134.6252571751777
 30
0.0
 10
116.2840617708735
 20
134.5233504269566
 30
0.0
 10
115.6492774261718
 20
134.4155118570676
 30
0.0
 10
114.9190536895577
 20
134.3140456038386
 30
0.0
 10
114.1285855946466
 20
134.2289835252714
 30
0.0
 10
113.3041018671888
 20
134.1707821683148
 30
0.0
 10
112.4770654867088
 20
134.1431977206302
 30
0.0
 10
111.6787410277183
 20
134.1466916491644
 30
0.0
 10
110.9389172767187
 20
134.173645307838
 30
0.0
 10
110.2946624052591
 20
134.2180008084514
 30
0.0
 10
109.7672555481615
 20
134.2682059921742
 30
0.0
 10
109.3725903078485
 20
134.3148134522194
 30
0.0
 10
109.1400616222603
 20
134.3440166290578
 30
0.0
 10
109.044682393594
 20
134.356774767775
 30
0.0
 10
109.0716153379208
 20
134.3532349378562
 30
0.0
 10
109.0719644218837
 20
134.3531890573226
 30
0.0
  0
SPLINE
  5
A9
330
1F
100
AcDbEntity
  8
0
  6
Continuous
 62
     7
370
    15
100
AcDbSpline
210
0.0
220
0.0
230
1.0
 70
     8
 71
     3
 72
     9
 73
     5
 74
     0
 42
0.00000001
 43
0.00000001
 40
0.0
 40
0.0
 40
0.0
 40
0.0
 40
0.7009339503679092
 40
0.9999999999999999
 40
0.9999999999999999
 40
0.9999999999999999
 40
0.9999999999999999
 10
90.42424710990534
 20
90.99436949810614
 30
0.0
 10
90.43338778085516
 20
90.97654021434525
 30
0.0
 10
90.44642848311398
 20
90.95110374668444
 30
0.0
 10
90.46159194638226
 20
91.004983106158
 30
0.0
 10
90.46612682344065
 20
91.02109659335245
 30
0.0
  0
LINE
  5
AA
330
1F
100
AcDbEntity
  8
0
  6
Continuous
 62
     7
370
    15
100
AcDbLine
 10
90.4034637153
 20
91.0049716743
 30
0.0
 11
90.4034637153
 21
130.3863267215
 31
0.0
  0
SPLINE
  5
AB
330
1F
100
AcDbEntity
  8
0
  6
Continuous
 62
     7
370
    15
100
AcDbSpline
210
0.0
220
0.0
230
1.0
 70
     8
 71
     3
 72
    10
 73
     6
 74
     0
 42
0.00000001
 43
0.00000001
 40
0.0
 40
0.0
 40
0.0
 40
0.0
 40
0.5
 40
0.5
 40
1.0
 40
1.0
 40
1.0
 40
1.0
 10
90.46612691720016
 20
130.3702017426893
 30
0.0
 10
90.45722262809139
 20
130.4159432619024
 30
0.0
 10
90.4407072478984
 20
130.4331341013715
 30
0.0
 10
90.41359930183678
 20
130.4328108244358
 30
0.0
 10
90.40346354247674
 20
130.4149332821393
 30
0.0
 10
90.40346354247674
 20
130.3863269443867
 30
0.0
  0
SPLINE
  5
AC
330
1F
100
AcDbEntity
  8
0
  6
Continuous
 62
     7
370
    15
100
AcDbSpline
210
0.0
220
0.0
230
1.0
 70
     8
 71
     3
 72
    26
 73
    22
 74
     0
 42
0.00000001
 43
0.00000001
 40
0.0
 40
0.0
 40
0.0
 40
0.0
 40
0.2500000000000165
 40
0.2500000000000165
 40
0.3750000000000256
 40
0.3750000000000256
 40
0.4375000000000291
 40
0.4375000000000291
 40
0.4687500000000291
 40
0.4687500000000291
 40
0.5000000000000292
 40
0.5000000000000292
 40
0.5312500000000293
 40
0.5312500000000293
 40
0.5625000000000293
 40
0.5625000000000293
 40
0.625000000000026
 40
0.625000000000026
 40
0.7500000000000173
 40
0.7500000000000173
 40
1.0
 40
1.0
 40
1.0
 40
1.0
 10
91.22761718858126
 20
131.0857685315064
 30
0.0
 10
91.18901666571278
 20
130.967993835151
 30
0.0
 10
91.14271966315853
 20
130.843604148989
 30
0.0
 10
91.04878031472461
 20
130.6383848166355
 30
0.0
 10
91.01346884781114
 20
130.5668119501891
 30
0.0
 10
90.94728887206546
 20
130.4508587175886
 30
0.0
 10
90.92275050539725
 20
130.4102741827784
 30
0.0
 10
90.87937775984345
 20
130.3461325009067
 30
0.0
 10
90.86386935841826
 20
130.3242660756216
 30
0.0
 10
90.82882671383122
 20
130.2786718072784
 30
0.0
 10
90.80927642311146
 20
130.255001516311
 30
0.0
 10
90.76734914274084
 20
130.210384956971
 30
0.0
 10
90.74469703250921
 20
130.1895049444531
 30
0.0
 10
90.70372331842258
 20
130.1586315307023
 30
0.0
 10
90.68612401852715
 20
130.1487926608699
 30
0.0
 10
90.64149703267101
 20
130.1298030451737
 30
0.0
 10
90.62093781001768
 20
130.1294787205203
 30
0.0
 10
90.569812370521
 20
130.1387021613965
 30
0.0
 10
90.54890095753245
 20
130.1599490576135
 30
0.0
 10
90.49745104997153
 20
130.2339179364442
 30
0.0
 10
90.47978575066698
 20
130.300036029759
 30
0.0
 10
90.46612691720016
 20
130.3702017426893
 30
0.0
  0
SPLINE
  5
AD
330
1F
100
AcDbEntity
  8
0
  6
Continuous
 62
     7
370
    15
100
AcDbSpline
210
0.0
220
0.0
230
1.0
 70
     8
 71
     3
 72
    10
 73
     6
 74
     0
 42
0.00000001
 43
0.00000001
 40
0.0
 40
0.0
 40
0.0
 40
0.0
 40
0.5
 40
0.5
 40
1.0
 40
1.0
 40
1.0
 40
1.0
 10
91.54341861205855
 20
131.5556030901962
 30
0.0
 10
91.47585935714031
 20
131.4879116973864
 30
0.0
 10
91.41222270180381
 20
131.4132045326328
 30
0.0
 10
91.30200194723194
 20
131.2542384002062
 30
0.0
 10
91.25518565400932
 20
131.1698831341982
 30
0.0
 10
91.22761718858125
 20
131.0857685315064
 30
0.0
  0
SPLINE
  5
AE
330
1F
100
AcDbEntity
  8
0
  6
Continuous
 62
     7
370
    15
100
AcDbSpline
210
0.0
220
0.0
230
1.0
 70
     8
 71
     3
 72
    10
 73
     6
 74
     0
 42
0.00000001
 43
0.00000001
 40
0.0
 40
0.0
 40
0.0
 40
0.0
 40
0.5
 40
0.5
 40
1.0
 40
1.0
 40
1.0
 40
1.0
 10
91.2276171885813
 20
90.30552986431057
 30
0.0
 10
91.2550946033345
 20
90.22169306784498
 30
0.0
 10
91.30180323362215
 20
90.13738258025816
 30
0.0
 10
91.41208169636411
 20
89.97826134977531
 30
0.0
 10
91.47596923497574
 20
89.90327660568722
 30
0.0
 10
91.54341861205806
 20
89.83569530562137
 30
0.0
  0
SPLINE
  5
AF
330
1F
100
AcDbEntity
  8
0
  6
Continuous
 62
     7
370
    15
100
AcDbSpline
210
0.0
220
0.0
230
1.0
 70
     8
 71
     3
 72
    24
 73
    20
 74
     0
 42
0.00000001
 43
0.00000001
 40
0.0
 40
0.0
 40
0.0
 40
0.0
 40
0.249999999999999
 40
0.249999999999999
 40
0.3749999999999983
 40
0.3749999999999983
 40
0.4374999999999987
 40
0.4374999999999987
 40
0.4687499999999975
 40
0.4687499999999975
 40
0.4999999999999963
 40
0.4999999999999963
 40
0.5624999999999984
 40
0.5624999999999984
 40
0.6250000000000006
 40
0.6250000000000006
 40
0.7500000000000001
 40
0.7500000000000001
 40
1.0
 40
1.0
 40
1.0
 40
1.0
 10
90.46612691720016
 20
91.0210966531278
 30
0.0
 10
90.47988003587038
 20
91.09174671111808
 30
0.0
 10
90.49765260327625
 20
91.15834482388301
 30
0.0
 10
90.5499036948316
 20
91.23244284411622
 30
0.0
 10
90.57093877041316
 20
91.25370065127777
 30
0.0
 10
90.62383917804159
 20
91.26184657742402
 30
0.0
 10
90.6449448509195
 20
91.26090677402823
 30
0.0
 10
90.69099701959749
 20
91.23989078245089
 30
0.0
 10
90.70936749158088
 20
91.22898197634329
 30
0.0
 10
90.7509191266466
 20
91.19634706539591
 30
0.0
 10
90.7734857994035
 20
91.17485508502453
 30
0.0
 10
90.83626681586351
 20
91.10638914143821
 30
0.0
 10
90.8693965768314
 20
91.06031468323313
 30
0.0
 10
90.92631426331643
 20
90.97530679489846
 30
0.0
 10
90.95050028882018
 20
90.93502649371709
 30
0.0
 10
91.01570823919994
 20
90.82009026725115
 30
0.0
 10
91.0504242993912
 20
90.74950728210412
 30
0.0
 10
91.14363956972207
 20
90.54530152302553
 30
0.0
 10
91.18931210508276
 20
90.42240314069818
 30
0.0
 10
91.22761718858129
 20
90.30552986431059
 30
0.0
  0
LINE
  5
B0
330
1F
100
AcDbEntity
  8
0
  6
Continuous
 62
     7
370
    15
100
AcDbLine
 10
202.3034617543
 20
91.9697901966
 30
0.0
 11
202.3034617543
 21
129.4215081992
 31
0.0
  0
SPLINE
  5
B1
330
1F
100
AcDbEntity
  8
0
  6
Continuous
 62
     7
370
    15
100
AcDbSpline
210
0.0
220
0.0
230
1.0
 70
     8
 71
     3
 72
     8
 73
     4
 74
     0
 42
0.00000001
 43
0.00000001
 40
0.0
 40
0.0
 40
0.0
 40
0.0
 40
1.0
 40
1.0
 40
1.0
 40
1.0
 10
136.9115307109877
 20
135.154338860276
 30
0.0
 10
137.418617552747
 20
134.0231885061123
 30
0.0
 10
137.9141853918869
 20
132.8868040953445
 30
0.0
 10
138.3934635424768
 20
131.7457928654919
 30
0.0
  0
LINE
  5
B2
330
1F
100
AcDbEntity
  8
0
  6
Continuous
 62
     7
370
    15
100
AcDbLine
 10
138.3934635908
 20
131.7457931848
 30
0.0
 11
138.3934635908
 21
130.831515676
 31
0.0
  0
SPLINE
  5
B3
330
1F
100
AcDbEntity
  8
0
  6
Continuous
 62
     7
370
    15
100
AcDbSpline
210
0.0
220
0.0
230
1.0
 70
     8
 71
     3
 72
     8
 73
     4
 74
     0
 42
0.00000001
 43
0.00000001
 40
0.0
 40
0.0
 40
0.0
 40
0.0
 40
1.0
 40
1.0
 40
1.0
 40
1.0
 10
143.6953963739658
 20
141.1628446710728
 30
0.0
 10
143.2002563446015
 20
140.2761650228925
 30
0.0
 10
142.7061736393225
 20
139.3889023872065
 30
0.0
 10
142.2134635424767
 20
138.5008833890801
 30
0.0
  0
LINE
  5
B4
330
1F
100
AcDbEntity
  8
0
  6
Continuous
 62
     7
370
    15
100
AcDbLine
 10
143.6953954637
 20
135.154338813
 30
0.0
 11
143.6953954637
 21
141.1628446343
 31
0.0
  0
SPLINE
  5
B5
330
1F
100
AcDbEntity
  8
0
  6
Continuous
 62
     7
370
    15
100
AcDbSpline
210
0.0
220
0.0
230
1.0
 70
     8
 71
     3
 72
     8
 73
     4
 74
     0
 42
0.00000001
 43
0.00000001
 40
0.0
 40
0.0
 40
0.0
 40
0.0
 40
1.0
 40
1.0
 40
1.0
 40
1.0
 10
142.2134635424767
 20
131.7457928654919
 30
0.0
 10
142.6927416930666
 20
132.8868040953445
 30
0.0
 10
143.1883095322065
 20
134.0231885061123
 30
0.0
 10
143.6953963739658
 20
135.154338860276
 30
0.0
  0
LINE
  5
B6
330
1F
100
AcDbEntity
  8
0
  6
Continuous
 62
     7
370
    15
100
AcDbLine
 10
142.2134638071
 20
131.7457931848
 30
0.0
 11
142.2134638071
 21
138.5008825721
 31
0.0
  0
SPLINE
  5
B7
330
1F
100
AcDbEntity
  8
0
  6
Continuous
 62
     7
370
    15
100
AcDbSpline
210
0.0
220
0.0
230
1.0
 70
     8
 71
     3
 72
     8
 73
     4
 74
     0
 42
0.00000001
 43
0.00000001
 40
0.0
 40
0.0
 40
0.0
 40
0.0
 40
1.0
 40
1.0
 40
1.0
 40
1.0
 10
138.3934635424768
 20
138.5008833890801
 30
0.0
 10
137.900753445631
 20
139.3889023872065
 30
0.0
 10
137.406670740352
 20
140.2761650228925
 30
0.0
 10
136.9115307109877
 20
141.1628446710728
 30
0.0
  0
LINE
  5
B8
330
1F
100
AcDbEntity
  8
0
  6
Continuous
 62
     7
370
    15
100
AcDbLine
 10
138.3934635908
 20
131.7457931848
 30
0.0
 11
138.3934635908
 21
138.5008825721
 31
0.0
  0
LINE
  5
B9
330
1F
100
AcDbEntity
  8
0
  6
Continuous
 62
     7
370
    15
100
AcDbLine
 10
147.6534642518
 20
141.1628446343
 30
0.0
 11
143.6953954637
 21
141.1628446343
 31
0.0
  0
LINE
  5
BA
330
1F
100
AcDbEntity
  8
0
  6
Continuous
 62
     7
370
    15
100
AcDbLine
 10
143.6953954637
 20
135.154338813
 30
0.0
 11
147.6534642518
 21
135.154338813
 31
0.0
  0
SPLINE
  5
BB
330
1F
100
AcDbEntity
  8
0
  6
Continuous
 62
     7
370
    15
100
AcDbSpline
210
0.0
220
0.0
230
1.0
 70
     8
 71
     3
 72
    12
 73
     8
 74
     0
 42
0.00000001
 43
0.00000001
 40
0.0
 40
0.0
 40
0.0
 40
0.0
 40
0.2499999999999987
 40
0.2499999999999987
 40
0.4999999999999973
 40
0.4999999999999973
 40
1.0
 40
1.0
 40
1.0
 40
1.0
 10
147.6534635424767
 20
135.154338860276
 30
0.0
 10
147.7446632643024
 20
135.154338860276
 30
0.0
 10
147.8352582734384
 20
135.1261191616881
 30
0.0
 10
147.9886709998851
 20
135.03167615444
 30
0.0
 10
148.0538798672087
 20
134.9653891777347
 30
0.0
 10
148.2066643965487
 20
134.7397643544464
 30
0.0
 10
148.2534635424767
 20
134.5573380914138
 30
0.0
 10
148.2534635424767
 20
134.376601459167
 30
0.0
  0
LINE
  5
BC
330
1F
100
AcDbEntity
  8
0
  6
Continuous
 62
     7
370
    15
100
AcDbLine
 10
142.2134638071
 20
130.831515676
 30
0.0
 11
142.2134638071
 21
131.7457931848
 31
0.0
  0
LINE
  5
BD
330
1F
100
AcDbEntity
  8
0
  6
Continuous
 62
     7
370
    15
100
AcDbLine
 10
148.2534632325
 20
134.3766006442
 30
0.0
 11
148.2534632325
 21
130.545649937
 31
0.0
  0
SPLINE
  5
BE
330
1F
100
AcDbEntity
  8
0
  6
Continuous
 62
     7
370
    15
100
AcDbSpline
210
0.0
220
0.0
230
1.0
 70
     8
 71
     3
 72
    10
 73
     6
 74
     0
 42
0.00000001
 43
0.00000001
 40
0.0
 40
0.0
 40
0.0
 40
0.0
 40
0.5
 40
0.5
 40
1.0
 40
1.0
 40
1.0
 40
1.0
 10
148.2534635424767
 20
140.5420895216725
 30
0.0
 10
148.2534635424767
 20
140.7024947880233
 30
0.0
 10
148.1912257113699
 20
140.8615566010118
 30
0.0
 10
147.9720907876273
 20
141.0924690666422
 30
0.0
 10
147.8145020926355
 20
141.1628446710728
 30
0.0
 10
147.6534635424767
 20
141.1628446710728
 30
0.0
  0
LINE
  5
BF
330
1F
100
AcDbEntity
  8
0
  6
Continuous
 62
     7
370
    15
100
AcDbLine
 10
148.2534632325
 20
134.3766006442
 30
0.0
 11
148.2534632325
 21
140.5420901986
 31
0.0
  0
ARC
  5
C0
330
1F
100
AcDbEntity
  8
0
  6
Continuous
 62
     7
370
    15
100
AcDbCircle
 10
130.3042383136
 20
129.3878204689
 30
0.0
 40
7.261939159703479
100
AcDbArc
 50
70.9635650583
 51
109.2417726031
  0
ARC
  5
C1
330
1F
100
AcDbEntity
  8
0
  6
HIDDEN
 62
     7
370
     0
100
AcDbCircle
 10
177.8034635425
 20
110.6956491979
 30
0.0
 40
6.999999999999991
100
AcDbArc
 50
119.6094583666
 51
240.4538608566
  0
ARC
  5
C2
330
1F
100
AcDbEntity
  8
0
  6
HIDDEN
 62
     7
370
     0
100
AcDbCircle
 10
177.8034635425
 20
110.6956491979
 30
0.0
 40
7.000000000000417
100
AcDbArc
 50
299.5498127807
 51
60.400526554
  0
ARC
  5
C3
330
1F
100
AcDbEntity
  8
0
  6
HIDDEN
 62
     7
370
     0
100
AcDbCircle
 10
177.8034635425
 20
110.6956491979
 30
0.0
 40
8.000000000000018
100
AcDbArc
 50
67.5748093136
 51
89.2673037507
  0
ARC
  5
C4
330
1F
100
AcDbEntity
  8
0
  6
HIDDEN
 62
     7
370
     0
100
AcDbCircle
 10
177.8034635425
 20
110.6956491979
 30
0.0
 40
8.000000000000018
100
AcDbArc
 50
90.8979680306
 51
67.5748093136
  0
CIRCLE
  5
C5
330
1F
100
AcDbEntity
  8
0
  6
HIDDEN
 62
     7
370
     0
100
AcDbCircle
 10
177.8034635425
 20
110.6956491979
 30
0.0
 40
4.00000000000002
  0
CIRCLE
  5
C6
330
1F
100
AcDbEntity
  8
0
  6
HIDDEN
 62
     7
370
     0
100
AcDbCircle
 10
177.8034635425
 20
110.6956491979
 30
0.0
 40
5.500000000000009
  0
LINE
  5
C7
330
1F
100
AcDbEntity
  8
0
  6
HIDDEN
 62
     7
370
     0
100
AcDbLine
 10
136.9115310028
 20
135.154338813
 30
0.0
 11
136.9115310028
 21
130.545649937
 31
0.0
  0
ARC
  5
C8
330
1F
100
AcDbEntity
  8
0
  6
HIDDEN
 62
     7
370
     0
100
AcDbCircle
 10
130.5893127745
 20
123.1846242848
 30
0.0
 40
3.670208515060735
100
AcDbArc
 50
265.5330778166
 51
13.514570574
  0
ARC
  5
C9
330
1F
100
AcDbEntity
  8
0
  6
HIDDEN
 62
     7
370
     0
100
AcDbCircle
 10
130.0185036389
 20
123.1868310932
 30
0.0
 40
3.67233956759774
100
AcDbArc
 50
166.9419077272
 51
274.4504192863
  0
SPLINE
  5
CA
330
1F
100
AcDbEntity
  8
0
  6
HIDDEN
 62
     7
370
     0
100
AcDbSpline
210
0.0
220
0.0
230
1.0
 70
     8
 71
     3
 72
     9
 73
     5
 74
     0
 42
0.00000001
 43
0.00000001
 40
0.0
 40
0.0
 40
0.0
 40
0.0
 40
0.6482082003134025
 40
1.0
 40
1.0
 40
1.0
 40
1.0
 10
177.8034642577325
 20
102.7923797058188
 30
0.0
 10
177.3546997863814
 20
102.8057327183708
 30
0.0
 10
176.6623844606356
 20
102.8263326005468
 30
0.0
 10
175.9992640920779
 20
103.0104858133644
 30
0.0
 10
175.7659837842141
 20
103.0752694035195
 30
0.0
  0
LINE
  5
CB
330
1F
100
AcDbEntity
  8
0
  6
HIDDEN
 62
     7
370
     0
100
AcDbLine
 10
174.8025752843
 20
103.3822212169
 30
0.0
 11
174.0080081165
 21
103.7257302353
 31
0.0
  0
LINE
  5
CC
330
1F
100
AcDbEntity
  8
0
  6
HIDDEN
 62
     7
370
     0
100
AcDbLine
 10
174.0374714375
 20
117.684483322
 30
0.0
 11
174.7643836081
 21
117.9901876288
 31
0.0
  0
SPLINE
  5
CD
330
1F
100
AcDbEntity
  8
0
  6
HIDDEN
 62
     7
370
     0
100
AcDbSpline
210
0.0
220
0.0
230
1.0
 70
     8
 71
     3
 72
     9
 73
     5
 74
     0
 42
0.00000001
 43
0.00000001
 40
0.0
 40
0.0
 40
0.0
 40
0.0
 40
0.5414596183876123
 40
1.0
 40
1.0
 40
1.0
 40
1.0
 10
180.7916090130959
 20
118.0178213665508
 30
0.0
 10
181.109102141009
 20
117.893994722279
 30
0.0
 10
181.6954674342484
 20
117.6653042713816
 30
0.0
 10
182.2035573003282
 20
117.3003392751849
 30
0.0
 10
182.4365370214139
 20
117.1329880865537
 30
0.0
  0
SPLINE
  5
CE
330
1F
100
AcDbEntity
  8
0
  6
HIDDEN
 62
     7
370
     0
100
AcDbSpline
210
0.0
220
0.0
230
1.0
 70
     8
 71
     3
 72
     9
 73
     5
 74
     0
 42
0.00000001
 43
0.00000001
 40
0.0
 40
0.0
 40
0.0
 40
0.0
 40
0.5444278574235438
 40
1.0
 40
1.0
 40
1.0
 40
1.0
 10
182.2821572661553
 20
104.1520426782094
 30
0.0
 10
182.0360582421619
 20
103.9835594100637
 30
0.0
 10
181.5840258550646
 20
103.6740909178688
 30
0.0
 10
181.0675944654351
 20
103.4841606247726
 30
0.0
 10
180.8323227107678
 20
103.3976336742066
 30
0.0
  0
SPLINE
  5
CF
330
1F
100
AcDbEntity
  8
0
  6
HIDDEN
 62
     7
370
     0
100
AcDbSpline
210
0.0
220
0.0
230
1.0
 70
     8
 71
     3
 72
     9
 73
     5
 74
     0
 42
0.00000001
 43
0.00000001
 40
0.0
 40
0.0
 40
0.0
 40
0.0
 40
0.3691390369631736
 40
1.0
 40
1.0
 40
1.0
 40
1.0
 10
179.7820069134389
 20
103.0567602986716
 30
0.0
 10
179.5436277587976
 20
102.9941105810518
 30
0.0
 10
178.897857112045
 20
102.8243920973735
 30
0.0
 10
178.2268049015152
 20
102.8047629614261
 30
0.0
 10
177.8034642577325
 20
102.7923797058188
 30
0.0
  0
SPLINE
  5
D0
330
1F
100
AcDbEntity
  8
0
  6
HIDDEN
 62
     7
370
     0
100
AcDbSpline
210
0.0
220
0.0
230
1.0
 70
     8
 71
     3
 72
    12
 73
     8
 74
     0
 42
0.00000001
 43
0.00000001
 40
0.0
 40
0.0
 40
0.0
 40
0.0
 40
0.3580589402156573
 40
0.4856320088491969
 40
0.6173137754582256
 40
0.7531504730882002
 40
1.0
 40
1.0
 40
1.0
 40
1.0
 10
177.8034642577325
 20
103.6956489818417
 30
0.0
 10
178.2423146624945
 20
103.7181311127575
 30
0.0
 10
178.8375233829372
 20
103.7486234177206
 30
0.0
 10
179.5725925597424
 20
103.9176731774987
 30
0.0
 10
180.033449551916
 20
104.0552893981833
 30
0.0
 10
180.6223770758637
 20
104.2694972553127
 30
0.0
 10
181.0258295617727
 20
104.4988405207421
 30
0.0
 10
181.2860742449914
 20
104.646777062329
 30
0.0
  0
SPLINE
  5
D1
330
1F
100
AcDbEntity
  8
0
  6
HIDDEN
 62
     7
370
     0
100
AcDbSpline
210
0.0
220
0.0
230
1.0
 70
     8
 71
     3
 72
    16
 73
    12
 74
     0
 42
0.00000001
 43
0.00000001
 40
0.0
 40
0.0
 40
0.0
 40
0.0
 40
0.0428307765262021
 40
0.1207698785180496
 40
0.3185713015524463
 40
0.4983556796703672
 40
0.6780325592961197
 40
0.7419957575563982
 40
0.8079944851882203
 40
0.8760509174700435
 40
1.0
 40
1.0
 40
1.0
 40
1.0
 10
181.2742650747452
 20
116.7660539770745
 30
0.0
 10
181.1853389063869
 20
116.8186830399448
 30
0.0
 10
180.9345939183023
 20
116.9670811322717
 30
0.0
 10
180.230808502709
 20
117.2836818525903
 30
0.0
 10
179.1659467936971
 20
117.6097103113474
 30
0.0
 10
177.8042808150262
 20
117.7368994167473
 30
0.0
 10
176.7693896812023
 20
117.6391794638139
 30
0.0
 10
176.034199804018
 20
117.4741348684461
 30
0.0
 10
175.5736182974745
 20
117.3359064241654
 30
0.0
 10
174.9846035020641
 20
117.121863181609
 30
0.0
 10
174.5808810742352
 20
116.8925489739918
 30
0.0
 10
174.3202582240258
 20
116.7445152798914
 30
0.0
  0
SPLINE
  5
D2
330
1F
100
AcDbEntity
  8
0
  6
HIDDEN
 62
     7
370
     0
100
AcDbSpline
210
0.0
220
0.0
230
1.0
 70
     8
 71
     3
 72
    11
 73
     7
 74
     0
 42
0.00000001
 43
0.00000001
 40
0.0
 40
0.0
 40
0.0
 40
0.0
 40
0.0851757192176745
 40
0.2422949557211061
 40
0.639594223414922
 40
1.0
 40
1.0
 40
1.0
 40
1.0
 10
174.3329055845891
 20
104.6251289347433
 30
0.0
 10
174.4210239859771
 20
104.5729100754324
 30
0.0
 10
174.6716898372154
 20
104.4243657916768
 30
0.0
 10
175.3759290469436
 20
104.1089433128765
 30
0.0
 10
176.4417485562952
 20
103.7687648410896
 30
0.0
 10
177.364536205426
 20
103.7192167512803
 30
0.0
 10
177.8034642577325
 20
103.6956489818417
 30
0.0
  0
LINE
  5
D3
330
1F
100
AcDbEntity
  8
0
  6
HIDDEN
 62
     7
370
     0
100
AcDbLine
 10
110.2986140415
 20
87.1710500481
 30
0.0
 11
110.0469557807
 21
87.1475285651
 31
0.0
  0
LINE
  5
D4
330
1F
100
AcDbEntity
  8
0
  6
HIDDEN
 62
     7
370
     0
100
AcDbLine
 10
109.924264276
 20
134.255079812
 30
0.0
 11
110.2985209093
 21
134.2202315839
 31
0.0
  0
SPLINE
  5
D5
330
1F
100
AcDbEntity
  8
0
  6
HIDDEN
 62
     7
370
     0
100
AcDbSpline
210
0.0
220
0.0
230
1.0
 70
     8
 71
     3
 72
    15
 73
    11
 74
     0
 42
0.00000001
 43
0.00000001
 40
0.0
 40
0.0
 40
0.0
 40
0.0
 40
0.1409172263352446
 40
0.281889861653346
 40
0.4212989542022905
 40
0.5593768841673977
 40
0.6988856533029646
 40
0.840367202775075
 40
0.9813164473602943
 40
1.0
 40
1.0
 40
1.0
 40
1.0
 10
116.0584655828928
 20
90.85812073073019
 30
0.0
 10
115.7424238632801
 20
90.89847405250488
 30
0.0
 10
115.1102161557117
 20
90.97919656307471
 30
0.0
 10
113.8760529833975
 20
91.05575450945747
 30
0.0
 10
112.6053308595818
 20
91.05107644144253
 30
0.0
 10
111.4167713930453
 20
90.97027997621932
 30
0.0
 10
110.4236487137549
 20
90.84588542936508
 30
0.0
 10
109.7842401824412
 20
90.73947848260386
 30
0.0
 10
109.5032201940878
 20
90.6864014232943
 30
0.0
 10
109.5697807625766
 20
90.69865591525621
 30
0.0
 10
109.5775710657392
 20
90.70009019097914
 30
0.0
  0
SPLINE
  5
D6
330
1F
100
AcDbEntity
  8
0
  6
HIDDEN
 62
     7
370
     0
100
AcDbSpline
210
0.0
220
0.0
230
1.0
 70
     8
 71
     3
 72
    15
 73
    11
 74
     0
 42
0.00000001
 43
0.00000001
 40
0.0
 40
0.0
 40
0.0
 40
0.0
 40
0.1201202497733958
 40
0.2584739452442804
 40
0.3987302041697883
 40
0.5404022600041716
 40
0.680739511736143
 40
0.8190355942651634
 40
0.9577823154231621
 40
1.0
 40
1.0
 40
1.0
 40
1.0
 10
109.5775710657392
 20
130.6912082048379
 30
0.0
 10
109.5982803145427
 20
130.6871837007637
 30
0.0
 10
109.6428423367777
 20
130.6785237999751
 30
0.0
 10
110.2052818065062
 20
130.5792308812639
 30
0.0
 10
111.0987440619534
 20
130.4553148695526
 30
0.0
 10
112.2577228858056
 20
130.3556034940189
 30
0.0
 10
113.5307597546253
 20
130.3284664363209
 30
0.0
 10
114.7650451013524
 20
130.383803798451
 30
0.0
 10
115.5930081790483
 20
130.4702835342423
 30
0.0
 10
115.9704184916946
 20
130.5212804533795
 30
0.0
 10
116.0584655828928
 20
130.5331776650869
 30
0.0
  0
SPLINE
  5
D7
330
1F
100
AcDbEntity
  8
0
  6
HIDDEN
 62
     7
370
     0
100
AcDbSpline
210
0.0
220
0.0
230
1.0
 70
     8
 71
     3
 72
    10
 73
     6
 74
     0
 42
0.00000001
 43
0.00000001
 40
0.0
 40
0.0
 40
0.0
 40
0.0
 40
0.4475765645034734
 40
0.8951364709208242
 40
1.0
 40
1.0
 40
1.0
 40
1.0
 10
116.0584655828928
 20
130.5331776650869
 30
0.0
 10
116.305171116048
 20
130.5626893434515
 30
0.0
 10
116.7985730003718
 20
130.621711601803
 30
0.0
 10
117.0875875545525
 20
130.6356548055079
 30
0.0
 10
117.0272189311503
 20
130.631761466159
 30
0.0
 10
117.0157594844852
 20
130.631022414776
 30
0.0
  0
SPLINE
  5
D8
330
1F
100
AcDbEntity
  8
0
  6
HIDDEN
 62
     7
370
     0
100
AcDbSpline
210
0.0
220
0.0
230
1.0
 70
     8
 71
     3
 72
    10
 73
     6
 74
     0
 42
0.00000001
 43
0.00000001
 40
0.0
 40
0.0
 40
0.0
 40
0.0
 40
0.3454688819333812
 40
0.7966952282103242
 40
1.0
 40
1.0
 40
1.0
 40
1.0
 10
117.0157389953886
 20
90.76027784368624
 30
0.0
 10
117.006178855822
 20
90.76083270141883
 30
0.0
 10
116.9841319567464
 20
90.76211227399689
 30
0.0
 10
116.5671926679252
 20
90.79207169325646
 30
0.0
 10
116.1790325178377
 20
90.84246728856333
 30
0.0
 10
116.0584655828928
 20
90.85812073073019
 30
0.0
  0
LINE
  5
D9
330
1F
100
AcDbEntity
  8
0
  6
HIDDEN
 62
     7
370
     0
100
AcDbLine
 10
103.3074390382
 20
93.695648274
 30
0.0
 11
103.3074390382
 21
127.6956501218
 31
0.0
  0
LWPOLYLINE
  5
DA
330
1F
100
AcDbEntity
  8
0
  6
HIDDEN
 62
     7
370
     0
100
AcDbPolyline
 90
       15
 70
   128
 43
0.0
 10
130.3034639225
 20
132.6412523898
 10
131.0604680568
 20
132.6773932936
 10
131.7901136592
 20
132.7845158788
 10
132.4660266057
 20
132.9587439807
 10
133.0637792364
 20
133.1937837215
 10
133.5617676616
 20
133.481137714
 10
133.9419912785
 20
133.8104217114
 10
134.190709354
 20
134.1697334113
 10
134.2989327625
 20
134.5460883143
 10
134.2627490178
 20
134.9258816602
 10
134.0834666282
 20
135.295387617
 10
133.7675648049
 20
135.6412510189
 10
133.3264615625
 20
135.9509735169
 10
132.776099281
 20
136.2133568885
 10
132.672860311
 20
136.2526139977
  0
LWPOLYLINE
  5
DB
330
1F
100
AcDbEntity
  8
0
  6
HIDDEN
 62
     7
370
     0
100
AcDbPolyline
 90
       15
 70
   128
 43
0.0
 10
127.9110294074
 20
136.2440812202
 10
127.8308276326
 20
136.2133568885
 10
127.2804653511
 20
135.9509735169
 10
126.8393621087
 20
135.6412510189
 10
126.5234602854
 20
135.295387617
 10
126.3441778958
 20
134.9258816602
 10
126.3079941511
 20
134.5460883143
 10
126.4162170939
 20
134.1697334113
 10
126.664935635
 20
133.8104217114
 10
127.0451597177
 20
133.481137714
 10
127.5431476772
 20
133.1937837215
 10
128.1409003079
 20
132.9587439807
 10
128.81681372
 20
132.7845158788
 10
129.5464583911
 20
132.6773932936
 10
130.3034639225
 20
132.6412523898
  0
SPLINE
  5
DC
330
1F
100
AcDbEntity
  8
0
  6
HIDDEN
 62
     7
370
     0
100
AcDbSpline
210
0.0
220
0.0
230
1.0
 70
     8
 71
     3
 72
    11
 73
     7
 74
     0
 42
0.00000001
 43
0.00000001
 40
0.0
 40
0.0
 40
0.0
 40
0.0
 40
0.0005779865010846
 40
0.0005779865010846
 40
0.0005779865010846
 40
0.0011559733324422
 40
0.0011559733324422
 40
0.0011559733324422
 40
0.0011559733324422
 10
90.40346354247674
 20
112.6954898060685
 30
0.0
 10
90.57013079728272
 20
112.6935061667278
 30
0.0
 10
90.73679722696038
 20
112.6914685597195
 30
0.0
 10
90.90346356541221
 20
112.6893570963134
 30
0.0
 10
91.07012999423861
 20
112.6872456317624
 30
0.0
 10
91.2367963678763
 20
112.6850600686063
 30
0.0
 10
91.40346354247673
 20
112.682777491275
 30
0.0
  0
SPLINE
  5
DD
330
1F
100
AcDbEntity
  8
0
  6
HIDDEN
 62
     7
370
     0
100
AcDbSpline
210
0.0
220
0.0
230
1.0
 70
     8
 71
     3
 72
    11
 73
     7
 74
     0
 42
0.00000001
 43
0.00000001
 40
0.0
 40
0.0
 40
0.0
 40
0.0
 40
0.0005782382535738
 40
0.0005782382535738
 40
0.0005782382535738
 40
0.0011564766069467
 40
0.0011564766069467
 40
0.0011564766069467
 40
0.0011564766069467
 10
91.40346354247674
 20
108.6989488956903
 30
0.0
 10
91.23680958850812
 20
108.6985113179287
 30
0.0
 10
91.07014891630615
 20
108.6980312532563
 30
0.0
 10
90.90348202764073
 20
108.697511713887
 30
0.0
 10
90.73681510924469
 20
108.6969921744249
 30
0.0
 10
90.57014197941145
 20
108.696433345403
 30
0.0
 10
90.40346354247673
 20
108.6958478018199
 30
0.0
  0
LINE
  5
DE
330
1F
100
AcDbEntity
  8
0
  6
HIDDEN
 62
     7
370
     0
100
AcDbLine
 10
129.9632895045
 20
93.695648274
 30
0.0
 11
129.9632895045
 21
127.6956501218
 31
0.0
  0
LINE
  5
DF
330
1F
100
AcDbEntity
  8
0
  6
HIDDEN
 62
     7
370
     0
100
AcDbLine
 10
132.2534634039
 20
94.9706493678
 30
0.0
 11
132.2534634039
 21
126.420649028
 31
0.0
  0
SPLINE
  5
E0
330
1F
100
AcDbEntity
  8
0
  6
HIDDEN
 62
     7
370
     0
100
AcDbSpline
210
0.0
220
0.0
230
1.0
 70
     8
 71
     3
 72
    16
 73
    12
 74
     0
 42
0.00000001
 43
0.00000001
 40
0.0
 40
0.0
 40
0.0
 40
0.0
 40
0.124999999999998
 40
0.124999999999998
 40
0.249999999999996
 40
0.249999999999996
 40
0.4999999999999973
 40
0.4999999999999973
 40
0.7499999999999987
 40
0.7499999999999987
 40
1.0
 40
1.0
 40
1.0
 40
1.0
 10
99.10346354247675
 20
94.89415876187688
 30
0.0
 10
99.19858529714257
 20
94.89415876187688
 30
0.0
 10
99.29191536587065
 20
94.89034292848409
 30
0.0
 10
99.47517712660866
 20
94.87557237575427
 30
0.0
 10
99.56605484216566
 20
94.8644143277787
 30
0.0
 10
99.82285653968539
 20
94.82194305763697
 30
0.0
 10
99.9779239045574
 20
94.78089686043417
 30
0.0
 10
100.231670366112
 20
94.68575074385228
 30
0.0
 10
100.3325408177799
 20
94.63098800977072
 30
0.0
 10
100.4677872324747
 20
94.51972688586682
 30
0.0
 10
100.5034635424768
 20
94.46255714853814
 30
0.0
 10
100.5034635424768
 20
94.40813557550443
 30
0.0
  0
SPLINE
  5
E1
330
1F
100
AcDbEntity
  8
0
  6
HIDDEN
 62
     7
370
     0
100
AcDbSpline
210
0.0
220
0.0
230
1.0
 70
     8
 71
     3
 72
     8
 73
     4
 74
     0
 42
0.00000001
 43
0.00000001
 40
0.0
 40
0.0
 40
0.0
 40
0.0
 40
1.0
 40
1.0
 40
1.0
 40
1.0
 10
91.70346354575757
 20
97.03896170795912
 30
0.0
 10
91.7034635457595
 20
96.15506456564218
 30
0.0
 10
91.68998291985008
 20
95.44048132058022
 30
0.0
 10
91.68863155166079
 20
94.89415876187687
 30
0.0
  0
SPLINE
  5
E2
330
1F
100
AcDbEntity
  8
0
  6
HIDDEN
 62
     7
370
     0
100
AcDbSpline
210
0.0
220
0.0
230
1.0
 70
     8
 71
     3
 72
    10
 73
     6
 74
     0
 42
0.00000001
 43
0.00000001
 40
0.0
 40
0.0
 40
0.0
 40
0.0
 40
0.5
 40
0.5
 40
1.0
 40
1.0
 40
1.0
 40
1.0
 10
91.40346354247673
 20
98.0638719736119
 30
0.0
 10
91.49485465815899
 20
97.88923318600261
 30
0.0
 10
91.56750649188449
 20
97.71563135875563
 30
0.0
 10
91.6750053848801
 20
97.37201793976602
 30
0.0
 10
91.70346354575197
 20
97.20369211324297
 30
0.0
 10
91.70346354575759
 20
97.03896170801859
 30
0.0
  0
LINE
  5
E3
330
1F
100
AcDbEntity
  8
0
  6
HIDDEN
 62
     7
370
     0
100
AcDbLine
 10
91.4034638792
 20
101.0948226588
 30
0.0
 11
91.4034638792
 21
98.0638715239
 31
0.0
  0
SPLINE
  5
E4
330
1F
100
AcDbEntity
  8
0
  6
HIDDEN
 62
     7
370
     0
100
AcDbSpline
210
0.0
220
0.0
230
1.0
 70
     8
 71
     3
 72
    10
 73
     6
 74
     0
 42
0.00000001
 43
0.00000001
 40
0.0
 40
0.0
 40
0.0
 40
0.0
 40
0.5
 40
0.5
 40
1.0
 40
1.0
 40
1.0
 40
1.0
 10
91.70346354556196
 20
102.4626628222657
 30
0.0
 10
91.70346354556195
 20
102.2206788546944
 30
0.0
 10
91.67531351650163
 20
101.9863364257623
 30
0.0
 10
91.5717236023963
 20
101.5309614035463
 30
0.0
 10
91.49509489283126
 20
101.3093568404686
 30
0.0
 10
91.40346354247673
 20
101.0948224056958
 30
0.0
  0
LINE
  5
E5
330
1F
100
AcDbEntity
  8
0
  6
HIDDEN
 62
     7
370
     0
100
AcDbLine
 10
91.7034633696
 20
114.3002829315
 30
0.0
 11
91.7034633696
 21
102.4626626434
 31
0.0
  0
SPLINE
  5
E6
330
1F
100
AcDbEntity
  8
0
  6
HIDDEN
 62
     7
370
     0
100
AcDbSpline
210
0.0
220
0.0
230
1.0
 70
     8
 71
     3
 72
     8
 73
     4
 74
     0
 42
0.00000001
 43
0.00000001
 40
0.0
 40
0.0
 40
0.0
 40
0.0
 40
1.0
 40
1.0
 40
1.0
 40
1.0
 10
91.40346354247674
 20
120.3025885187891
 30
0.0
 10
91.58449500897606
 20
119.8704810331788
 30
0.0
 10
91.70346354556767
 20
119.4163356271392
 30
0.0
 10
91.70346354556197
 20
118.9286355735205
 30
0.0
  0
LINE
  5
E7
330
1F
100
AcDbEntity
  8
0
  6
HIDDEN
 62
     7
370
     0
100
AcDbLine
 10
91.4034638792
 20
123.3357910799
 30
0.0
 11
91.4034638792
 21
120.3025889384
 31
0.0
  0
SPLINE
  5
E8
330
1F
100
AcDbEntity
  8
0
  6
HIDDEN
 62
     7
370
     0
100
AcDbSpline
210
0.0
220
0.0
230
1.0
 70
     8
 71
     3
 72
    10
 73
     6
 74
     0
 42
0.00000001
 43
0.00000001
 40
0.0
 40
0.0
 40
0.0
 40
0.0
 40
0.5
 40
0.5
 40
1.0
 40
1.0
 40
1.0
 40
1.0
 10
91.70346354586913
 20
124.3523366878284
 30
0.0
 10
91.70346354586734
 20
124.1877003412232
 30
0.0
 10
91.67630487511234
 20
124.0205451173936
 30
0.0
 10
91.57053987979499
 20
123.6819221095937
 30
0.0
 10
91.49412509149658
 20
123.5096503322997
 30
0.0
 10
91.40346354247676
 20
123.3357915049566
 30
0.0
  0
SPLINE
  5
E9
330
1F
100
AcDbEntity
  8
0
  6
HIDDEN
 62
     7
370
     0
100
AcDbSpline
210
0.0
220
0.0
230
1.0
 70
     8
 71
     3
 72
    18
 73
    14
 74
     0
 42
0.00000001
 43
0.00000001
 40
0.0
 40
0.0
 40
0.0
 40
0.0
 40
0.2500000000000033
 40
0.2500000000000033
 40
0.3750000000000029
 40
0.3750000000000029
 40
0.5000000000000026
 40
0.5000000000000026
 40
0.6250000000000022
 40
0.6250000000000022
 40
0.7500000000000018
 40
0.7500000000000018
 40
1.0
 40
1.0
 40
1.0
 40
1.0
 10
96.50346354247674
 20
126.9831628203127
 30
0.0
 10
96.50346354247674
 20
126.9286882997605
 30
0.0
 10
96.46855285108458
 20
126.872307240408
 30
0.0
 10
96.36654354975153
 20
126.7882303995545
 30
0.0
 10
96.32490719507342
 20
126.7608966955636
 30
0.0
 10
96.22650139958466
 20
126.7079427799646
 30
0.0
 10
96.16895818788038
 20
126.6820554262474
 30
0.0
 10
96.04166001430742
 20
126.6342778814142
 30
0.0
 10
95.97207270954996
 20
126.6123299632363
 30
0.0
 10
95.820638464395
 20
126.5728973983236
 30
0.0
 10
95.73795456130107
 20
126.5553411490977
 30
0.0
 10
95.48184309926302
 20
126.5129023836772
 30
0.0
 10
95.29392809537502
 20
126.4971396339402
 30
0.0
 10
95.10346354247675
 20
126.4971396339402
 30
0.0
  0
LINE
  5
EA
330
1F
100
AcDbEntity
  8
0
  6
HIDDEN
 62
     7
370
     0
100
AcDbLine
 10
95.1034631819
 20
126.4971404137
 30
0.0
 11
91.7034633696
 21
126.4971404137
 31
0.0
  0
LINE
  5
EB
330
1F
100
AcDbEntity
  8
0
  6
HIDDEN
 62
     7
370
     0
100
AcDbLine
 10
91.6344952077
 20
94.8941579821
 30
0.0
 11
99.1034638375
 21
94.8941579821
 31
0.0
  0
SPLINE
  5
EC
330
1F
100
AcDbEntity
  8
0
  6
HIDDEN
 62
     7
370
     0
100
AcDbSpline
210
0.0
220
0.0
230
1.0
 70
     8
 71
     3
 72
    22
 73
    18
 74
     0
 42
0.00000001
 43
0.00000001
 40
0.0
 40
0.0
 40
0.0
 40
0.0
 40
0.125
 40
0.125
 40
0.25
 40
0.25
 40
0.5000000000000001
 40
0.5000000000000001
 40
0.5625000000000001
 40
0.5625000000000001
 40
0.6250000000000001
 40
0.6250000000000001
 40
0.75
 40
0.75
 40
0.875
 40
0.875
 40
1.0
 40
1.0
 40
1.0
 40
1.0
 10
91.63449455583464
 20
94.89415876187688
 30
0.0
 10
91.62141216310627
 20
95.14926447202456
 30
0.0
 10
91.60819259966644
 20
95.44242273112846
 30
0.0
 10
91.58574542187233
 20
96.10472319675327
 30
0.0
 10
91.57626695484787
 20
96.47499711736465
 30
0.0
 10
91.55706899391136
 20
97.69755392047844
 30
0.0
 10
91.55818276690823
 20
98.6346928466103
 30
0.0
 10
91.5770935598613
 20
99.9545640761253
 30
0.0
 10
91.58172308772029
 20
100.2260659851016
 30
0.0
 10
91.59220430746625
 20
100.7844508199039
 30
0.0
 10
91.59799956875067
 20
101.0715736758435
 30
0.0
 10
91.6163087896556
 20
101.9441629302152
 30
0.0
 10
91.63034372393597
 20
102.5446186065711
 30
0.0
 10
91.65980089607281
 20
103.7820930990671
 30
0.0
 10
91.67535658705438
 20
104.4191092557106
 30
0.0
 10
91.69915113705126
 20
105.7305978533951
 30
0.0
 10
91.70717018919662
 20
106.4067204650556
 30
0.0
 10
91.70346354247674
 20
107.0910155763404
 30
0.0
  0
LINE
  5
ED
330
1F
100
AcDbEntity
  8
0
  6
HIDDEN
 62
     7
370
     0
100
AcDbLine
 10
91.7034633696
 20
114.3002829315
 30
0.0
 11
91.7034633696
 21
126.4971404137
 31
0.0
  0
SPLINE
  5
EE
330
1F
100
AcDbEntity
  8
0
  6
HIDDEN
 62
     7
370
     0
100
AcDbSpline
210
0.0
220
0.0
230
1.0
 70
     8
 71
     3
 72
    10
 73
     6
 74
     0
 42
0.00000001
 43
0.00000001
 40
0.0
 40
0.0
 40
0.0
 40
0.0
 40
0.5
 40
0.5
 40
1.0
 40
1.0
 40
1.0
 40
1.0
 10
91.70346354247673
 20
107.0910155763254
 30
0.0
 10
91.70346354247657
 20
107.3649307243995
 30
0.0
 10
91.67770431260773
 20
107.6358723031291
 30
0.0
 10
91.57449837987431
 20
108.1715633847312
 30
0.0
 10
91.49716021599991
 20
108.437310188253
 30
0.0
 10
91.40346354247673
 20
108.6989488956903
 30
0.0
  0
SPLINE
  5
EF
330
1F
100
AcDbEntity
  8
0
  6
HIDDEN
 62
     7
370
     0
100
AcDbSpline
210
0.0
220
0.0
230
1.0
 70
     8
 71
     3
 72
    10
 73
     6
 74
     0
 42
0.00000001
 43
0.00000001
 40
0.0
 40
0.0
 40
0.0
 40
0.0
 40
0.5
 40
0.5
 40
1.0
 40
1.0
 40
1.0
 40
1.0
 10
91.40346354247674
 20
112.682777491275
 30
0.0
 10
91.4966941238675
 20
112.9466712993448
 30
0.0
 10
91.57172373610408
 20
113.2128516099828
 30
0.0
 10
91.67679083528192
 20
113.7511741849403
 30
0.0
 10
91.70346354586796
 20
114.0239223011856
 30
0.0
 10
91.70346354586916
 20
114.3002828194757
 30
0.0
  0
LINE
  5
F0
330
1F
100
AcDbEntity
  8
0
  6
HIDDEN
 62
     7
370
     0
100
AcDbLine
 10
91.4034638792
 20
108.6989490116
 30
0.0
 11
91.4034638792
 21
112.6827774836
 31
0.0
  0
LINE
  5
F1
330
1F
100
AcDbEntity
  8
0
  6
HIDDEN
 62
     7
370
     0
100
AcDbLine
 10
91.5534626931
 20
92.7056486519
 30
0.0
 11
91.5534626931
 21
89.8257105412
 31
0.0
  0
LINE
  5
F2
330
1F
100
AcDbEntity
  8
0
  6
HIDDEN
 62
     7
370
     0
100
AcDbLine
 10
151.303462708
 20
100.7956492516
 30
0.0
 11
151.303462708
 21
120.5956491443
 31
0.0
  0
LINE
  5
F3
330
1F
100
AcDbEntity
  8
0
  6
HIDDEN
 62
     7
370
     0
100
AcDbLine
 10
155.3034633637
 20
100.6956494214
 30
0.0
 11
155.3034633637
 21
120.6956489744
 31
0.0
  0
LINE
  5
F4
330
1F
100
AcDbEntity
  8
0
  6
HIDDEN
 62
     7
370
     0
100
AcDbLine
 10
100.5034633219
 20
92.7056486519
 30
0.0
 11
100.5034633219
 21
88.7319112929
 31
0.0
  0
LINE
  5
F5
330
1F
100
AcDbEntity
  8
0
  6
HIDDEN
 62
     7
370
     0
100
AcDbLine
 10
91.5534626931
 20
128.6856497439
 30
0.0
 11
91.5534626931
 21
131.5655878546
 31
0.0
  0
LINE
  5
F6
330
1F
100
AcDbEntity
  8
0
  6
HIDDEN
 62
     7
370
     0
100
AcDbLine
 10
96.5034626663
 20
128.6856497439
 30
0.0
 11
96.5034626663
 21
132.5397568556
 31
0.0
  0
LINE
  5
F7
330
1F
100
AcDbEntity
  8
0
  6
HIDDEN
 62
     7
370
     0
100
AcDbLine
 10
141.1034632713
 20
101.1956495034
 30
0.0
 11
141.1034632713
 21
120.1956488924
 31
0.0
  0
LINE
  5
F8
330
1F
100
AcDbEntity
  8
0
  6
HIDDEN
 62
     7
370
     0
100
AcDbLine
 10
144.103463763
 20
101.1956495034
 30
0.0
 11
144.103463763
 21
120.1956488924
 31
0.0
  0
LINE
  5
F9
330
1F
100
AcDbEntity
  8
0
  6
HIDDEN
 62
     7
370
     0
100
AcDbLine
 10
132.7534634859
 20
102.195648736
 30
0.0
 11
132.7534634859
 21
119.1956496598
 31
0.0
  0
LINE
  5
FA
330
1F
100
AcDbEntity
  8
0
  6
HIDDEN
 62
     7
370
     0
100
AcDbLine
 10
148.2534632325
 20
84.295649341
 30
0.0
 11
142.1157885581
 21
84.295649341
 31
0.0
  0
LINE
  5
FB
330
1F
100
AcDbEntity
  8
0
  6
HIDDEN
 62
     7
370
     0
100
AcDbLine
 10
138.4911388397
 20
84.295649341
 30
0.0
 11
135.2534638956
 21
84.295649341
 31
0.0
  0
LINE
  5
FC
330
1F
100
AcDbEntity
  8
0
  6
HIDDEN
 62
     7
370
     0
100
AcDbLine
 10
127.2534635157
 20
79.2115258785
 30
0.0
 11
127.2534635157
 21
84.295649341
 31
0.0
  0
LINE
  5
FD
330
1F
100
AcDbEntity
  8
0
  6
HIDDEN
 62
     7
370
     0
100
AcDbLine
 10
135.2534638956
 20
84.295649341
 30
0.0
 11
127.2534635157
 21
84.295649341
 31
0.0
  0
LINE
  5
FE
330
1F
100
AcDbEntity
  8
0
  6
HIDDEN
 62
     7
370
     0
100
AcDbLine
 10
135.2534638956
 20
137.0956490549
 30
0.0
 11
127.2534635157
 21
137.0956490549
 31
0.0
  0
LINE
  5
FF
330
1F
100
AcDbEntity
  8
0
  6
HIDDEN
 62
     7
370
     0
100
AcDbLine
 10
138.7877613545
 20
137.0956490549
 30
0.0
 11
135.2534638956
 21
137.0956490549
 31
0.0
  0
LINE
  5
100
330
1F
100
AcDbEntity
  8
0
  6
HIDDEN
 62
     7
370
     0
100
AcDbLine
 10
148.2534632325
 20
137.0956490549
 30
0.0
 11
141.8191660434
 21
137.0956490549
 31
0.0
  0
SPLINE
  5
101
330
1F
100
AcDbEntity
  8
0
  6
HIDDEN
 62
     7
370
     0
100
AcDbSpline
210
0.0
220
0.0
230
1.0
 70
     8
 71
     3
 72
    11
 73
     7
 74
     0
 42
0.00000001
 43
0.00000001
 40
0.0
 40
0.0
 40
0.0
 40
0.0
 40
0.0008203708524183
 40
0.0008203708524183
 40
0.0008203708524183
 40
0.0016409967870154
 40
0.0016409967870154
 40
0.0016409967870154
 40
0.0016409967870154
 10
91.55346354247675
 20
94.84361644726583
 30
0.0
 10
91.36230524217808
 20
94.80243741864669
 30
0.0
 10
91.1708781721059
 20
94.76368344641668
 30
0.0
 10
90.97923254858527
 20
94.72731568713814
 30
0.0
 10
90.7875271435048
 20
94.6909365833721
 30
0.0
 10
90.59558819144586
 20
94.65694233260454
 30
0.0
 10
90.40346354437503
 20
94.62529420721334
 30
0.0
  0
ELLIPSE
  5
102
330
1F
100
AcDbEntity
  8
0
  6
HIDDEN
 62
     7
370
     0
100
AcDbEllipse
 10
86.1610316739
 20
110.6956491979
 30
0.0
 11
20.19992453367506
 21
-1.421085471520200E-14
 31
0.0
210
0.0
220
0.0
230
1.0
 40
0.8164965809
 41
1.300566354717478
 42
1.359198697209065
  0
LINE
  5
103
330
1F
100
AcDbEntity
  8
0
  6
HIDDEN
 62
     7
370
     0
100
AcDbLine
 10
100.5034633219
 20
92.7056486519
 30
0.0
 11
100.5034633219
 21
94.4081361206
 31
0.0
  0
LINE
  5
104
330
1F
100
AcDbEntity
  8
0
  6
HIDDEN
 62
     7
370
     0
100
AcDbLine
 10
91.5534626931
 20
92.7056486519
 30
0.0
 11
91.5534626931
 21
94.8436169686
 31
0.0
  0
LINE
  5
105
330
1F
100
AcDbEntity
  8
0
  6
HIDDEN
 62
     7
370
     0
100
AcDbLine
 10
91.6344952077
 20
94.8941579821
 30
0.0
 11
91.5534626931
 21
94.8436169686
 31
0.0
  0
LINE
  5
106
330
1F
100
AcDbEntity
  8
0
  6
HIDDEN
 62
     7
370
     0
100
AcDbLine
 10
96.5034626663
 20
128.6856497439
 30
0.0
 11
96.5034626663
 21
126.9831622752
 31
0.0
  0
LINE
  5
107
330
1F
100
AcDbEntity
  8
0
  6
HIDDEN
 62
     7
370
     0
100
AcDbLine
 10
91.5534626931
 20
128.6856497439
 30
0.0
 11
91.5534626931
 21
126.5902745338
 31
0.0
  0
SPLINE
  5
108
330
1F
100
AcDbEntity
  8
0
  6
HIDDEN
 62
     7
370
     0
100
AcDbSpline
210
0.0
220
0.0
230
1.0
 70
     8
 71
     3
 72
     8
 73
     4
 74
     0
 42
0.00000001
 43
0.00000001
 40
0.0
 40
0.0
 40
0.0
 40
0.0
 40
1.0
 40
1.0
 40
1.0
 40
1.0
 10
91.55346354247675
 20
126.5902736489667
 30
0.0
 10
91.6034690414202
 20
126.5592378747477
 30
0.0
 10
91.65346911208432
 20
126.5281932297204
 30
0.0
 10
91.70346354586917
 20
126.4971396339402
 30
0.0
  0
SPLINE
  5
109
330
1F
100
AcDbEntity
  8
0
  6
HIDDEN
 62
     7
370
     0
100
AcDbSpline
210
0.0
220
0.0
230
1.0
 70
     8
 71
     3
 72
    20
 73
    16
 74
     0
 42
0.00000001
 43
0.00000001
 40
0.0
 40
0.0
 40
0.0
 40
0.0
 40
0.1118532751676574
 40
0.1773727996867736
 40
0.2489947105137334
 40
0.3297435705434892
 40
0.3985162980320196
 40
0.4997965447706521
 40
0.613762252866019
 40
0.6789284839908694
 40
0.749455343084578
 40
0.8296017155328829
 40
0.8980457330006051
 40
0.9994566396976663
 40
1.0
 40
1.0
 40
1.0
 40
1.0
 10
117.0520787365888
 20
87.0957153650247
 30
0.0
 10
117.0087865924045
 20
87.10913305500156
 30
0.0
 10
116.9401355063553
 20
87.13041033305139
 30
0.0
 10
116.4951186696209
 20
87.23368686925531
 30
0.0
 10
115.9685685550949
 20
87.34698532640209
 30
0.0
 10
115.2831410036228
 20
87.46992051482312
 30
0.0
 10
114.3898244753885
 20
87.59195504990903
 30
0.0
 10
113.2764646720548
 20
87.70969081477797
 30
0.0
 10
112.1656902438934
 20
87.72166438409077
 30
0.0
 10
111.2809428471963
 20
87.69460952970731
 30
0.0
 10
110.613743334165
 20
87.64667398460982
 30
0.0
 10
110.0724821385582
 20
87.59038702648351
 30
0.0
 10
109.684859186316
 20
87.54527674852919
 30
0.0
 10
109.4909814614883
 20
87.50648551843689
 30
0.0
 10
109.5541515736899
 20
87.51714720169656
 30
0.0
 10
109.5544882357274
 20
87.51720402261843
 30
0.0
  0
LINE
  5
10A
330
1F
100
AcDbEntity
  8
0
  6
HIDDEN
 62
     7
370
     0
100
AcDbLine
 10
110.4634758324
 20
87.6279867055
 30
0.0
 11
110.6473207712
 21
87.646177298
 31
0.0
  0
SPLINE
  5
10B
330
1F
100
AcDbEntity
  8
0
  6
HIDDEN
 62
     7
370
     0
100
AcDbSpline
210
0.0
220
0.0
230
1.0
 70
     8
 71
     3
 72
    27
 73
    23
 74
     0
 42
0.00000001
 43
0.00000001
 40
0.0
 40
0.0
 40
0.0
 40
0.0
 40
0.0008086712591869
 40
0.0456911834610217
 40
0.1022728485874025
 40
0.1705509376464067
 40
0.2091425948588652
 40
0.2506698340784129
 40
0.3211155926765004
 40
0.3862093443739516
 40
0.4266885161495899
 40
0.4648197780056701
 40
0.5006240417998917
 40
0.5452158716962395
 40
0.6017101231772332
 40
0.6701160578659416
 40
0.7088534256377248
 40
0.7505821482908256
 40
0.8222467570140622
 40
0.8877861676511027
 40
0.9472599271540103
 40
1.0
 40
1.0
 40
1.0
 40
1.0
 10
109.5541324705039
 20
133.8740627082311
 30
0.0
 10
109.5539100075788
 20
133.8741107309104
 30
0.0
 10
109.5413405064274
 20
133.8768240869522
 30
0.0
 10
109.5904252793833
 20
133.8649830480147
 30
0.0
 10
109.7355261005402
 20
133.8415467914263
 30
0.0
 10
110.0085792540408
 20
133.807637796932
 30
0.0
 10
110.337104955157
 20
133.7740701809254
 30
0.0
 10
110.7298329521335
 20
133.7358871529709
 30
0.0
 10
111.2795607540746
 20
133.6969190662997
 30
0.0
 10
111.9055833844597
 20
133.6774574381212
 30
0.0
 10
112.4487752251045
 20
133.6752722819414
 30
0.0
 10
112.8938439744081
 20
133.6837870032337
 30
0.0
 10
113.3602918287775
 20
133.7035705533759
 30
0.0
 10
113.8975327550976
 20
133.7477304352716
 30
0.0
 10
114.545745720846
 20
133.8201502696066
 30
0.0
 10
115.1312848810204
 20
133.901047932337
 30
0.0
 10
115.612253946784
 20
133.9792172760459
 30
0.0
 10
116.0576692007468
 20
134.0639878812969
 30
0.0
 10
116.4961690053206
 20
134.1577726020684
 30
0.0
 10
116.8351939434591
 20
134.2356748511204
 30
0.0
 10
117.0225348730928
 20
134.2858658362326
 30
0.0
 10
117.0430246450144
 20
134.2925332097313
 30
0.0
 10
117.0526547596012
 20
134.2956668498241
 30
0.0
  0
SPLINE
  5
10C
330
1F
100
AcDbEntity
  8
0
  6
HIDDEN
 62
     7
370
     0
100
AcDbSpline
210
0.0
220
0.0
230
1.0
 70
     8
 71
     3
 72
     8
 73
     4
 74
     0
 42
0.00000001
 43
0.00000001
 40
0.0
 40
0.0
 40
0.0
 40
0.0
 40
0.0001590976953043
 40
0.0001590976953043
 40
0.0001590976953043
 40
0.0001590976953043
 10
91.68863155166082
 20
94.89415876187688
 30
0.0
 10
91.6435800811678
 20
94.86617987755939
 30
0.0
 10
91.59852404276431
 20
94.8382083471906
 30
0.0
 10
91.55346354247676
 20
94.81024400784436
 30
0.0
  0
SPLINE
  5
10D
330
1F
100
AcDbEntity
  8
0
  6
HIDDEN
 62
     7
370
     0
100
AcDbSpline
210
0.0
220
0.0
230
1.0
 70
     8
 71
     3
 72
    11
 73
     7
 74
     0
 42
0.00000001
 43
0.00000001
 40
0.0
 40
0.0
 40
0.0
 40
0.0
 40
0.000821290931147
 40
0.000821290931147
 40
0.000821290931147
 40
0.0016428257243086
 40
0.0016428257243086
 40
0.0016428257243086
 40
0.0016428257243086
 10
91.55346354247673
 20
94.81024400784435
 30
0.0
 10
91.36231852099458
 20
94.76695781898876
 30
0.0
 10
91.17090018531812
 20
94.72602130934837
 30
0.0
 10
90.979254110657
 20
94.68741953795866
 30
0.0
 10
90.78755102911539
 20
94.64880628411842
 30
0.0
 10
90.59560590582984
 20
94.61252607482922
 30
0.0
 10
90.40346354247663
 20
94.57855916847447
 30
0.0
  0
LINE
  5
10E
330
1F
100
AcDbEntity
  8
0
  6
HIDDEN
 62
     7
370
     0
100
AcDbLine
 10
138.3934635908
 20
130.831515676
 30
0.0
 11
138.3934635908
 21
130.545649937
 31
0.0
  0
LINE
  5
10F
330
1F
100
AcDbEntity
  8
0
  6
HIDDEN
 62
     7
370
     0
100
AcDbLine
 10
142.2134638071
 20
130.831515676
 30
0.0
 11
142.2134638071
 21
130.545649937
 31
0.0
  0
LINE
  5
110
330
1F
100
AcDbEntity
  8
0
  6
HIDDEN
 62
     7
370
     0
100
AcDbLine
 10
143.6953954637
 20
135.154338813
 30
0.0
 11
143.6953954637
 21
130.545649937
 31
0.0
  0
SPLINE
  5
111
330
1F
100
AcDbEntity
  8
0
  6
HIDDEN
 62
     7
370
     0
100
AcDbSpline
210
0.0
220
0.0
230
1.0
 70
     8
 71
     3
 72
    24
 73
    20
 74
     0
 42
0.00000001
 43
0.00000001
 40
0.0
 40
0.0
 40
0.0
 40
0.0
 40
0.249999999999999
 40
0.249999999999999
 40
0.3749999999999983
 40
0.3749999999999983
 40
0.4374999999999987
 40
0.4374999999999987
 40
0.4687499999999975
 40
0.4687499999999975
 40
0.4999999999999963
 40
0.4999999999999963
 40
0.5624999999999984
 40
0.5624999999999984
 40
0.6250000000000006
 40
0.6250000000000006
 40
0.7500000000000001
 40
0.7500000000000001
 40
1.0
 40
1.0
 40
1.0
 40
1.0
 10
90.46612691720016
 20
91.0210966531278
 30
0.0
 10
90.47988003587038
 20
91.09174671111808
 30
0.0
 10
90.49765260327625
 20
91.15834482388301
 30
0.0
 10
90.5499036948316
 20
91.23244284411622
 30
0.0
 10
90.57093877041316
 20
91.25370065127777
 30
0.0
 10
90.62383917804159
 20
91.26184657742402
 30
0.0
 10
90.6449448509195
 20
91.26090677402823
 30
0.0
 10
90.69099701959749
 20
91.23989078245089
 30
0.0
 10
90.70936749158088
 20
91.22898197634329
 30
0.0
 10
90.7509191266466
 20
91.19634706539591
 30
0.0
 10
90.7734857994035
 20
91.17485508502453
 30
0.0
 10
90.83626681586351
 20
91.10638914143821
 30
0.0
 10
90.8693965768314
 20
91.06031468323313
 30
0.0
 10
90.92631426331643
 20
90.97530679489846
 30
0.0
 10
90.95050028882018
 20
90.93502649371709
 30
0.0
 10
91.01570823919994
 20
90.82009026725115
 30
0.0
 10
91.0504242993912
 20
90.74950728210412
 30
0.0
 10
91.14363956972207
 20
90.54530152302553
 30
0.0
 10
91.18931210508276
 20
90.42240314069818
 30
0.0
 10
91.22761718858129
 20
90.30552986431059
 30
0.0
  0
SPLINE
  5
112
330
1F
100
AcDbEntity
  8
0
  6
HIDDEN
 62
     7
370
     0
100
AcDbSpline
210
0.0
220
0.0
230
1.0
 70
     8
 71
     3
 72
    11
 73
     7
 74
     0
 42
0.00000001
 43
0.00000001
 40
0.0
 40
0.0
 40
0.0
 40
0.0
 40
0.0005781862223981
 40
0.0005781862223981
 40
0.0005781862223981
 40
0.0011563724723932
 40
0.0011563724723932
 40
0.0011563724723932
 40
0.0011563724723932
 10
91.40346354247703
 20
123.3357915049613
 30
0.0
 10
91.23680298820136
 20
123.4003210163747
 30
0.0
 10
91.07013969129486
 20
123.4648237202134
 30
0.0
 10
90.90347310746455
 20
123.5293101686469
 30
0.0
 10
90.73680651520544
 20
123.5937966203416
 30
0.0
 10
90.5701366495795
 20
123.6582666290695
 30
0.0
 10
90.40346354247671
 20
123.7227223958019
 30
0.0
  0
SPLINE
  5
113
330
1F
100
AcDbEntity
  8
0
  6
HIDDEN
 62
     7
370
     0
100
AcDbSpline
210
0.0
220
0.0
230
1.0
 70
     8
 71
     3
 72
    11
 73
     7
 74
     0
 42
0.00000001
 43
0.00000001
 40
0.0
 40
0.0
 40
0.0
 40
0.0
 40
0.0005778746105124
 40
0.0005778746105124
 40
0.0005778746105124
 40
0.0011557494857259
 40
0.0011557494857259
 40
0.0011557494857259
 40
0.0011557494857259
 10
90.4034635424767
 20
97.6684273424187
 30
0.0
 10
90.57013041889003
 20
97.73423946910376
 30
0.0
 10
90.73679713845148
 20
97.80009794923274
 30
0.0
 10
90.90346378650013
 20
97.86600552215495
 30
0.0
 10
91.07013051101879
 20
97.93191312531688
 30
0.0
 10
91.23679720543939
 20
97.99787023369716
 30
0.0
 10
91.40346354247673
 20
98.06387197361191
 30
0.0
  0
SPLINE
  5
114
330
1F
100
AcDbEntity
  8
0
  6
HIDDEN
 62
     7
370
     0
100
AcDbSpline
210
0.0
220
0.0
230
1.0
 70
     8
 71
     3
 72
    11
 73
     7
 74
     0
 42
0.00000001
 43
0.00000001
 40
0.0000000000000006
 40
0.0000000000000006
 40
0.0000000000000006
 40
0.0000000000000006
 40
0.0005780486062825
 40
0.0005780486062825
 40
0.0005780486062825
 40
0.0011560973514241
 40
0.0011560973514241
 40
0.0011560973514241
 40
0.0011560973514241
 10
90.40346354247671
 20
120.6764636996003
 30
0.0
 10
90.5701333985216
 20
120.6140918380533
 30
0.0
 10
90.73680110260587
 20
120.5517379777238
 30
0.0
 10
90.90346740705951
 20
120.4894184175065
 30
0.0
 10
91.07013374775325
 20
120.4270988437383
 30
0.0
 10
91.23679870438207
 20
120.364813639388
 30
0.0
 10
91.40346354247674
 20
120.3025885187891
 30
0.0
  0
SPLINE
  5
115
330
1F
100
AcDbEntity
  8
0
  6
HIDDEN
 62
     7
370
     0
100
AcDbSpline
210
0.0
220
0.0
230
1.0
 70
     8
 71
     3
 72
    11
 73
     7
 74
     0
 42
0.00000001
 43
0.00000001
 40
0.0
 40
0.0
 40
0.0
 40
0.0
 40
0.0005782401583596
 40
0.0005782401583596
 40
0.0005782401583596
 40
0.0011564805961118
 40
0.0011564805961118
 40
0.0011564805961118
 40
0.0011564805961118
 10
91.40346354247674
 20
101.0948224056958
 30
0.0
 10
91.23681259212782
 20
101.0313969476059
 30
0.0
 10
91.07015299954514
 20
100.9680414239207
 30
0.0
 10
90.90348594711658
 20
100.9047438395399
 30
0.0
 10
90.73681881055278
 20
100.8414462232058
 30
0.0
 10
90.57014420310672
 20
100.7782064282335
 30
0.0
 10
90.40346354247667
 20
100.715006421562
 30
0.0
  0
CIRCLE
  5
116
330
1F
100
AcDbEntity
  8
0
  6
HIDDEN
 62
     7
370
     0
100
AcDbCircle
 10
129.3034635425
 20
110.6956491979
 30
0.0
 40
5.0
  0
LINE
  5
117
330
1F
100
AcDbEntity
  8
0
  6
HIDDEN
 62
     7
370
     0
100
AcDbLine
 10
126.3034637325
 20
124.9934847268
 30
0.0
 11
126.3034637325
 21
123.0895894381
 31
0.0
  0
LINE
  5
118
330
1F
100
AcDbEntity
  8
0
  6
HIDDEN
 62
     7
370
     0
100
AcDbLine
 10
134.3034636468
 20
123.0895894381
 30
0.0
 11
134.3034636468
 21
124.9962796258
 31
0.0
  0
LINE
  5
119
330
1F
100
AcDbEntity
  8
0
  6
HIDDEN
 62
     7
370
     0
100
AcDbLine
 10
122.3034635425
 20
85.3717180701
 30
0.0
 11
122.3976243148
 21
86.0417059424
 31
0.0
  0
LINE
  5
11A
330
1F
100
AcDbEntity
  8
0
  6
HIDDEN
 62
     7
370
     0
100
AcDbLine
 10
122.3976243148
 20
135.3495924535
 30
0.0
 11
122.3034635425
 21
136.0195803257
 31
0.0
  0
ARC
  5
11B
330
1F
100
AcDbEntity
  8
0
  6
HIDDEN
 62
     7
370
     0
100
AcDbCircle
 10
121.8034567898
 20
86.1252115835
 30
0.0
 40
0.60000675266771
100
AcDbArc
 50
352.0
 51
0.0
  0
ARC
  5
11C
330
1F
100
AcDbEntity
  8
0
  6
HIDDEN
 62
     7
370
     0
100
AcDbCircle
 10
121.8034567898
 20
86.1252115835
 30
0.0
 40
0.6000067526677242
100
AcDbArc
 50
0.0
 51
33.5571153394
  0
ARC
  5
11D
330
1F
100
AcDbEntity
  8
0
  6
HIDDEN
 62
     7
370
     0
100
AcDbCircle
 10
121.8034567898
 20
135.2660868123
 30
0.0
 40
0.6000067526677169
100
AcDbArc
 50
348.75
 51
8.0
  0
LWPOLYLINE
  5
11E
330
1F
100
AcDbEntity
  8
0
  6
HIDDEN
 62
     7
370
     0
100
AcDbPolyline
 90
        3
 70
   128
 43
0.0
 10
122.3919345814
 20
135.149032137
 10
122.3577907497
 20
135.0364743533
 10
122.3034635425
 20
134.9344218882
  0
LINE
  5
11F
330
1F
100
AcDbEntity
  8
0
  6
HIDDEN
 62
     7
370
     0
100
AcDbLine
 10
122.40346354
 20
86.1252120497
 30
0.0
 11
122.40346354
 21
135.2660863461
 31
0.0
  0
LINE
  5
120
330
1F
100
AcDbEntity
  8
0
  6
HIDDEN
 62
     7
370
     0
100
AcDbLine
 10
105.3858995676
 20
90.6956496449
 30
0.0
 11
109.5775710657
 21
90.6956496449
 31
0.0
  0
LINE
  5
121
330
1F
100
AcDbEntity
  8
0
  6
HIDDEN
 62
     7
370
     0
100
AcDbLine
 10
109.5775710657
 20
130.6956487509
 30
0.0
 11
105.3858995676
 21
130.6956487509
 31
0.0
  0
ARC
  5
122
330
1F
100
AcDbEntity
  8
0
  6
HIDDEN
 62
     7
370
     0
100
AcDbCircle
 10
116.0584655441
 20
98.6956491979
 30
0.0
 40
8.000000000000025
100
AcDbArc
 50
276.8737622725
 51
321.3178125465
  0
ARC
  5
123
330
1F
100
AcDbEntity
  8
0
  6
HIDDEN
 62
     7
370
     0
100
AcDbCircle
 10
116.0584655441
 20
122.6956491979
 30
0.0
 40
8.000000000000025
100
AcDbArc
 50
38.6821874535
 51
83.1187603686
  0
ARC
  5
124
330
1F
100
AcDbEntity
  8
0
  6
HIDDEN
 62
     7
370
     0
100
AcDbCircle
 10
105.3858991078
 20
91.2956491979
 30
0.0
 40
0.6000000000000085
100
AcDbArc
 50
210.0
 51
270.0
  0
ARC
  5
125
330
1F
100
AcDbEntity
  8
0
  6
HIDDEN
 62
     7
370
     0
100
AcDbCircle
 10
105.3858991078
 20
130.0956491979
 30
0.0
 40
0.5999999999999943
100
AcDbArc
 50
90.0
 51
150.0
  0
LINE
  5
126
330
1F
100
AcDbEntity
  8
0
  6
HIDDEN
 62
     7
370
     0
100
AcDbLine
 10
104.8662830383
 20
130.3956492605
 30
0.0
 11
103.3074390382
 21
127.6956501218
 31
0.0
  0
LINE
  5
127
330
1F
100
AcDbEntity
  8
0
  6
HIDDEN
 62
     7
370
     0
100
AcDbLine
 10
103.3074390382
 20
93.695648274
 30
0.0
 11
104.8662830383
 21
90.9956491353
 31
0.0
  0
LINE
  5
128
330
1F
100
AcDbEntity
  8
0
  6
HIDDEN
 62
     7
370
     0
100
AcDbLine
 10
126.3034637325
 20
137.9699821385
 30
0.0
 11
126.3034637325
 21
134.6412508549
 31
0.0
  0
LINE
  5
129
330
1F
100
AcDbEntity
  8
0
  6
HIDDEN
 62
     7
370
     0
100
AcDbLine
 10
134.3034636468
 20
134.6412508549
 30
0.0
 11
134.3034636468
 21
137.9753148915
 31
0.0
  0
ARC
  5
12A
330
1F
100
AcDbEntity
  8
0
  6
HIDDEN
 62
     7
370
     0
100
AcDbCircle
 10
130.7534635425
 20
94.9706491979
 30
0.0
 40
1.500000000000001
100
AcDbArc
 50
238.2116693829
 51
0.0
  0
ARC
  5
12B
330
1F
100
AcDbEntity
  8
0
  6
HIDDEN
 62
     7
370
     0
100
AcDbCircle
 10
130.7534635425
 20
126.4206491979
 30
0.0
 40
1.500000000000001
100
AcDbArc
 50
0.0
 51
121.7883306171
  0
LINE
  5
12C
330
1F
100
AcDbEntity
  8
0
  6
HIDDEN
 62
     7
370
     0
100
AcDbLine
 10
100.5034633219
 20
93.695648274
 30
0.0
 11
103.3074390382
 21
93.695648274
 31
0.0
  0
LINE
  5
12D
330
1F
100
AcDbEntity
  8
0
  6
HIDDEN
 62
     7
370
     0
100
AcDbLine
 10
103.3074390382
 20
127.6956501218
 30
0.0
 11
96.5034626663
 21
127.6956501218
 31
0.0
  0
LINE
  5
12E
330
1F
100
AcDbEntity
  8
0
  6
HIDDEN
 62
     7
370
     0
100
AcDbLine
 10
122.3034635425
 20
93.695648274
 30
0.0
 11
129.9632895045
 21
93.695648274
 31
0.0
  0
LINE
  5
12F
330
1F
100
AcDbEntity
  8
0
  6
HIDDEN
 62
     7
370
     0
100
AcDbLine
 10
129.9632895045
 20
127.6956501218
 30
0.0
 11
122.3034635425
 21
127.6956501218
 31
0.0
  0
ARC
  5
130
330
1F
100
AcDbEntity
  8
0
  6
HIDDEN
 62
     7
370
     0
100
AcDbCircle
 10
202.0034635425
 20
100.3956491979
 30
0.0
 40
0.2999999999999972
100
AcDbArc
 50
0.0
 51
90.0
  0
ARC
  5
131
330
1F
100
AcDbEntity
  8
0
  6
HIDDEN
 62
     7
370
     0
100
AcDbCircle
 10
202.0034635425
 20
120.9956491979
 30
0.0
 40
0.2999999999999972
100
AcDbArc
 50
270.0
 51
0.0
  0
LINE
  5
132
330
1F
100
AcDbEntity
  8
0
  6
HIDDEN
 62
     7
370
     0
100
AcDbLine
 10
151.7034638912
 20
100.3956489997
 30
0.0
 11
154.4086896122
 21
100.3956489997
 31
0.0
  0
LINE
  5
133
330
1F
100
AcDbEntity
  8
0
  6
HIDDEN
 62
     7
370
     0
100
AcDbLine
 10
154.4086896122
 20
120.9956493961
 30
0.0
 11
151.7034638912
 21
120.9956493961
 31
0.0
  0
ARC
  5
134
330
1F
100
AcDbEntity
  8
0
  6
HIDDEN
 62
     7
370
     0
100
AcDbCircle
 10
151.7034635425
 20
100.7956491979
 30
0.0
 40
0.4000000000000057
100
AcDbArc
 50
180.0
 51
270.0
  0
ARC
  5
135
330
1F
100
AcDbEntity
  8
0
  6
HIDDEN
 62
     7
370
     0
100
AcDbCircle
 10
151.7034635425
 20
120.5956491979
 30
0.0
 40
0.4000000000000057
100
AcDbArc
 50
90.0
 51
180.0
  0
ARC
  5
136
330
1F
100
AcDbEntity
  8
0
  6
HIDDEN
 62
     7
370
     0
100
AcDbCircle
 10
154.4086895244
 20
100.7956491979
 30
0.0
 40
0.3999999999999807
100
AcDbArc
 50
270.0
 51
290.0
  0
ARC
  5
137
330
1F
100
AcDbEntity
  8
0
  6
HIDDEN
 62
     7
370
     0
100
AcDbCircle
 10
154.4086895244
 20
120.5956491979
 30
0.0
 40
0.3999999999999807
100
AcDbArc
 50
70.0
 51
90.0
  0
LINE
  5
138
330
1F
100
AcDbEntity
  8
0
  6
HIDDEN
 62
     7
370
     0
100
AcDbLine
 10
154.5454971731
 20
100.4197721171
 30
0.0
 11
155.3034633637
 21
100.6956494214
 31
0.0
  0
LINE
  5
139
330
1F
100
AcDbEntity
  8
0
  6
HIDDEN
 62
     7
370
     0
100
AcDbLine
 10
155.3034633637
 20
120.6956489744
 30
0.0
 11
154.5454971731
 21
120.9715262788
 31
0.0
  0
LINE
  5
13A
330
1F
100
AcDbEntity
  8
0
  6
HIDDEN
 62
     7
370
     0
100
AcDbLine
 10
155.3034633637
 20
100.6956494214
 30
0.0
 11
202.0034641266
 21
100.6956494214
 31
0.0
  0
LINE
  5
13B
330
1F
100
AcDbEntity
  8
0
  6
HIDDEN
 62
     7
370
     0
100
AcDbLine
 10
202.0034641266
 20
120.6956489744
 30
0.0
 11
155.3034633637
 21
120.6956489744
 31
0.0
  0
LINE
  5
13C
330
1F
100
AcDbEntity
  8
0
  6
HIDDEN
 62
     7
370
     0
100
AcDbLine
 10
141.1034632713
 20
101.1956495034
 30
0.0
 11
144.103463763
 21
101.1956495034
 31
0.0
  0
LINE
  5
13D
330
1F
100
AcDbEntity
  8
0
  6
HIDDEN
 62
     7
370
     0
100
AcDbLine
 10
144.103463763
 20
120.1956488924
 30
0.0
 11
141.1034632713
 21
120.1956488924
 31
0.0
  0
LINE
  5
13E
330
1F
100
AcDbEntity
  8
0
  6
HIDDEN
 62
     7
370
     0
100
AcDbLine
 10
132.2534634039
 20
101.6956495853
 30
0.0
 11
132.7534634859
 21
102.195648736
 31
0.0
  0
LINE
  5
13F
330
1F
100
AcDbEntity
  8
0
  6
HIDDEN
 62
     7
370
     0
100
AcDbLine
 10
132.7534634859
 20
119.1956496598
 30
0.0
 11
132.2534634039
 21
119.6956488105
 31
0.0
  0
LINE
  5
140
330
1F
100
AcDbEntity
  8
0
  6
HIDDEN
 62
     7
370
     0
100
AcDbLine
 10
132.7534634859
 20
102.195648736
 30
0.0
 11
141.1034632713
 21
102.195648736
 31
0.0
  0
LINE
  5
141
330
1F
100
AcDbEntity
  8
0
  6
HIDDEN
 62
     7
370
     0
100
AcDbLine
 10
141.1034632713
 20
119.1956496598
 30
0.0
 11
132.7534634859
 21
119.1956496598
 31
0.0
  0
LINE
  5
142
330
1F
100
AcDbEntity
  8
0
  6
HIDDEN
 62
     7
370
     0
100
AcDbLine
 10
127.2534635157
 20
142.1956497045
 30
0.0
 11
127.2534635157
 21
137.0956490549
 31
0.0
  0
LINE
  5
143
330
1F
100
AcDbEntity
  8
0
  6
HIDDEN
 62
     7
370
     0
100
AcDbLine
 10
117.4879013799
 20
86.6162779542
 30
0.0
 11
117.0534692012
 21
87.0953446986
 31
0.0
  0
LINE
  5
144
330
1F
100
AcDbEntity
  8
0
  6
HIDDEN
 62
     7
370
     0
100
AcDbLine
 10
109.5534656435
 20
87.5170326593
 30
0.0
 11
109.071032168
 21
87.0379659148
 31
0.0
  0
LINE
  5
145
330
1F
100
AcDbEntity
  8
0
  6
HIDDEN
 62
     7
370
     0
100
AcDbLine
 10
109.0709101647
 20
134.3533268931
 30
0.0
 11
109.5534609869
 21
133.8742061319
 31
0.0
  0
LINE
  5
146
330
1F
100
AcDbEntity
  8
0
  6
HIDDEN
 62
     7
370
     0
100
AcDbLine
 10
117.0534636133
 20
134.2959052684
 30
0.0
 11
117.4880056881
 21
134.7750241669
 31
0.0
  0
LINE
  5
147
330
1F
100
AcDbEntity
  8
0
  6
HIDDEN
 62
     7
370
     0
100
AcDbLine
 10
144.103463763
 20
106.4956493477
 30
0.0
 11
151.303462708
 21
106.4956493477
 31
0.0
  0
LINE
  5
148
330
1F
100
AcDbEntity
  8
0
  6
HIDDEN
 62
     7
370
     0
100
AcDbLine
 10
151.303462708
 20
114.8956490482
 30
0.0
 11
144.103463763
 21
114.8956490482
 31
0.0
  0
LINE
  5
149
330
1F
100
AcDbEntity
  8
0
  6
HIDDEN
 62
     7
370
     0
100
AcDbLine
 10
117.0534636133
 20
87.0958271237
 30
0.0
 11
117.0534636133
 21
90.7602480414
 31
0.0
  0
LINE
  5
14A
330
1F
100
AcDbEntity
  8
0
  6
HIDDEN
 62
     7
370
     0
100
AcDbLine
 10
109.5534637809
 20
90.700026861
 30
0.0
 11
109.5534637809
 21
87.5173548969
 31
0.0
  0
LINE
  5
14B
330
1F
100
AcDbEntity
  8
0
  6
HIDDEN
 62
     7
370
     0
100
AcDbLine
 10
117.0534636133
 20
130.6310503545
 30
0.0
 11
117.0534636133
 21
134.2956128331
 31
0.0
  0
LINE
  5
14C
330
1F
100
AcDbEntity
  8
0
  6
HIDDEN
 62
     7
370
     0
100
AcDbLine
 10
109.5534637809
 20
133.8740627082
 30
0.0
 11
109.5534637809
 21
130.6912715348
 31
0.0
  0
DIMENSION
  5
14D
330
1F
100
AcDbEntity
  8
VERMASSUNG
100
AcDbDimension
  2
*D1
 10
84.080846014
 20
79.1956491979
 30
0.0
 11
84.080846014
 21
110.2515257249
 31
0.0
 70
   160
  1
HSK A%%c<>
 71
     2
 42
-1.0
  3
SLDDIMSTYLE0
100
AcDbAlignedDimension
 13
122.6034635425
 23
142.1956491979
 33
0.0
 14
122.6034635425
 24
79.1956491979
 34
0.0
 50
90.0
100
AcDbRotatedDimension
  0
DIMENSION
  5
15A
330
1F
100
AcDbEntity
  8
VERMASSUNG
100
AcDbDimension
  2
*D2
 10
148.2534635425
 20
148.3461298285
 30
0.0
 11
173.6590139266
 21
148.3461298285
 31
0.0
 70
   160
 71
     2
 42
-1.0
  3
SLDDIMSTYLE0
100
AcDbAlignedDimension
 13
202.3034635425
 23
129.4215086763
 33
0.0
 14
148.2534635425
 24
140.5420895217
 34
0.0
100
AcDbRotatedDimension
  0
DIMENSION
  5
164
330
1F
100
AcDbEntity
  8
VERMASSUNG
100
AcDbDimension
  2
*D3
 10
122.3034635425
 20
154.3461298285
 30
0.0
 11
161.2577257437
 21
154.3461298285
 31
0.0
 70
   160
 71
     2
 42
-1.0
  3
SLDDIMSTYLE0
100
AcDbAlignedDimension
 13
202.3034635425
 23
129.4215086763
 33
0.0
 14
122.3034635425
 24
141.8956491979
 34
0.0
100
AcDbRotatedDimension
  0
DIMENSION
  5
16E
330
1F
100
AcDbEntity
  8
VERMASSUNG
100
AcDbDimension
  2
*D4
 10
90.4034635425
 20
160.3461298285
 30
0.0
 11
143.9280584455
 21
160.3461298285
 31
0.0
 70
   160
 71
     2
 42
-1.0
  3
SLDDIMSTYLE0
100
AcDbAlignedDimension
 13
202.3034635425
 23
129.4215086763
 33
0.0
 14
90.4034635425
 24
130.3863269444
 34
0.0
100
AcDbRotatedDimension
  0
DIMENSION
  5
178
330
1F
100
AcDbEntity
  8
VERMASSUNG
100
AcDbDimension
  2
*D5
 10
210.0379305936
 20
100.6956491979
 30
0.0
 11
210.0379305936
 21
110.2418675063
 31
0.0
 70
   160
  1
%%c<>
 71
     2
 42
-1.0
  3
SLDDIMSTYLE0
100
AcDbAlignedDimension
 13
202.0034635425
 23
120.6956491979
 33
0.0
 14
202.0034635425
 24
100.6956491979
 34
0.0
 50
90.0
100
AcDbRotatedDimension
  0
DIMENSION
  5
183
330
1F
100
AcDbEntity
  8
VERMASSUNG
100
AcDbDimension
  2
*D6
 10
216.0379305936
 20
84.6956491979
 30
0.0
 11
216.0379305936
 21
110.2418675063
 31
0.0
 70
   160
  1
%%c<>
 71
     2
 42
-1.0
  3
SLDDIMSTYLE0
100
AcDbAlignedDimension
 13
189.4364220194
 23
136.6956491979
 33
0.0
 14
189.4364220194
 24
84.6956491979
 34
0.0
 50
90.0
100
AcDbRotatedDimension
  0
LINE
  5
18E
330
1F
100
AcDbEntity
  8
VERMASSUNG
  6
CENTERX2
 62
     7
370
     0
100
AcDbLine
 10
134.4990838882
 20
137.051964484
 30
0.0
 11
134.4990838882
 21
126.4460531193
 31
0.0
  0
LINE
  5
18F
330
1F
100
AcDbEntity
  8
VERMASSUNG
  6
CENTERX2
 62
     7
370
     0
100
AcDbLine
 10
88.2581597001
 20
110.6956491979
 30
0.0
 11
203.3227516162
 21
110.6956491979
 31
0.0
  0
OLE2FRAME
  5
190
330
1F
100
AcDbEntity
  8
0
100
AcDbOle2Frame
 70
     2
  3
Bitmap Image
 10
13.8511154363
 20
38.264191557
 30
0.0
 11
51.6290888628
 21
31.9806341108
 31
0.0
 71
     2
 72
     0
 73
     1
 90
    12928
310
80552BED0767C5B32B40DDAF6807D121434000000000000000006FFBDDFB85D0
310
4940DDAF6807D121434000000000000000006FFBDDFB85D04940416F4BD60AFB
310
3F4000000000000000002BED0767C5B32B40416F4BD60AFB3F40000000000000
310
0000000000000100000000010000010000000100000000000100000000320000
310
D0CF11E0A1B11AE1000000000000000000000000000000003E000300FEFF0900
310
0600000000000000000000000100000001000000000000000010000002000000
310
01000000FEFFFFFF0000000000000000FFFFFFFFFFFFFFFFFFFFFFFFFFFFFFFF
310
FFFFFFFFFFFFFFFFFFFFFFFFFFFFFFFFFFFFFFFFFFFFFFFFFFFFFFFFFFFFFFFF
310
FFFFFFFFFFFFFFFFFFFFFFFFFFFFFFFFFFFFFFFFFFFFFFFFFFFFFFFFFFFFFFFF
310
FFFFFFFFFFFFFFFFFFFFFFFFFFFFFFFFFFFFFFFFFFFFFFFFFFFFFFFFFFFFFFFF
310
FFFFFFFFFFFFFFFFFFFFFFFFFFFFFFFFFFFFFFFFFFFFFFFFFFFFFFFFFFFFFFFF
310
FFFFFFFFFFFFFFFFFFFFFFFFFFFFFFFFFFFFFFFFFFFFFFFFFFFFFFFFFFFFFFFF
310
FFFFFFFFFFFFFFFFFFFFFFFFFFFFFFFFFFFFFFFFFFFFFFFFFFFFFFFFFFFFFFFF
310
FFFFFFFFFFFFFFFFFFFFFFFFFFFFFFFFFFFFFFFFFFFFFFFFFFFFFFFFFFFFFFFF
310
FFFFFFFFFFFFFFFFFFFFFFFFFFFFFFFFFFFFFFFFFFFFFFFFFFFFFFFFFFFFFFFF
310
FFFFFFFFFFFFFFFFFFFFFFFFFFFFFFFFFFFFFFFFFFFFFFFFFFFFFFFFFFFFFFFF
310
FFFFFFFFFFFFFFFFFFFFFFFFFFFFFFFFFFFFFFFFFFFFFFFFFFFFFFFFFFFFFFFF
310
FFFFFFFFFFFFFFFFFFFFFFFFFFFFFFFFFFFFFFFFFFFFFFFFFFFFFFFFFFFFFFFF
310
FFFFFFFFFFFFFFFFFFFFFFFFFFFFFFFFFFFFFFFFFFFFFFFFFFFFFFFFFFFFFFFF
310
FFFFFFFFFFFFFFFFFFFFFFFFFFFFFFFFFFFFFFFFFFFFFFFFFFFFFFFFFFFFFFFF
310
FDFFFFFFFEFFFFFFFEFFFFFFFEFFFFFF05000000060000000700000008000000
310
090000000A0000000B0000000C0000000D0000000E0000000F00000010000000
310
11000000120000001300000014000000150000001600000017000000FEFFFFFF
310
FFFFFFFFFFFFFFFFFFFFFFFFFFFFFFFFFFFFFFFFFFFFFFFFFFFFFFFFFFFFFFFF
310
FFFFFFFFFFFFFFFFFFFFFFFFFFFFFFFFFFFFFFFFFFFFFFFFFFFFFFFFFFFFFFFF
310
FFFFFFFFFFFFFFFFFFFFFFFFFFFFFFFFFFFFFFFFFFFFFFFFFFFFFFFFFFFFFFFF
310
FFFFFFFFFFFFFFFFFFFFFFFFFFFFFFFFFFFFFFFFFFFFFFFFFFFFFFFFFFFFFFFF
310
FFFFFFFFFFFFFFFFFFFFFFFFFFFFFFFFFFFFFFFFFFFFFFFFFFFFFFFFFFFFFFFF
310
FFFFFFFFFFFFFFFFFFFFFFFFFFFFFFFFFFFFFFFFFFFFFFFFFFFFFFFFFFFFFFFF
310
FFFFFFFFFFFFFFFFFFFFFFFFFFFFFFFFFFFFFFFFFFFFFFFFFFFFFFFFFFFFFFFF
310
FFFFFFFFFFFFFFFFFFFFFFFFFFFFFFFFFFFFFFFFFFFFFFFFFFFFFFFFFFFFFFFF
310
FFFFFFFFFFFFFFFFFFFFFFFFFFFFFFFFFFFFFFFFFFFFFFFFFFFFFFFFFFFFFFFF
310
FFFFFFFFFFFFFFFFFFFFFFFFFFFFFFFFFFFFFFFFFFFFFFFFFFFFFFFFFFFFFFFF
310
FFFFFFFFFFFFFFFFFFFFFFFFFFFFFFFFFFFFFFFFFFFFFFFFFFFFFFFFFFFFFFFF
310
FFFFFFFFFFFFFFFFFFFFFFFFFFFFFFFFFFFFFFFFFFFFFFFFFFFFFFFFFFFFFFFF
310
FFFFFFFFFFFFFFFFFFFFFFFFFFFFFFFFFFFFFFFFFFFFFFFFFFFFFFFFFFFFFFFF
310
52006F006F007400200045006E00740072007900000000000000000000000000
310
0000000000000000000000000000000000000000000000000000000000000000
310
16000500FFFFFFFFFFFFFFFF020000000A00030000000000C000000000000046
310
00000000000000000000000030EEB32A2CFFCB0103000000C000000000000000
310
01004F006C006500000000000000000000000000000000000000000000000000
310
0000000000000000000000000000000000000000000000000000000000000000
310
0A000200FFFFFFFFFFFFFFFFFFFFFFFF00000000000000000000000000000000
310
0000000000000000000000000000000000000000000000001400000000000000
310
010043006F006D0070004F0062006A0000000000000000000000000000000000
310
0000000000000000000000000000000000000000000000000000000000000000
310
120002010100000003000000FFFFFFFF00000000000000000000000000000000
310
0000000000000000000000000000000000000000010000004D00000000000000
310
01004F006C006500310030004E00610074006900760065000000000000000000
310
0000000000000000000000000000000000000000000000000000000000000000
310
1A000200FFFFFFFFFFFFFFFFFFFFFFFF00000000000000000000000000000000
310
0000000000000000000000000000000000000000040000002426000000000000
310
FEFFFFFF02000000FEFFFFFFFFFFFFFFFFFFFFFFFFFFFFFFFFFFFFFFFFFFFFFF
310
FFFFFFFFFFFFFFFFFFFFFFFFFFFFFFFFFFFFFFFFFFFFFFFFFFFFFFFFFFFFFFFF
310
FFFFFFFFFFFFFFFFFFFFFFFFFFFFFFFFFFFFFFFFFFFFFFFFFFFFFFFFFFFFFFFF
310
FFFFFFFFFFFFFFFFFFFFFFFFFFFFFFFFFFFFFFFFFFFFFFFFFFFFFFFFFFFFFFFF
310
FFFFFFFFFFFFFFFFFFFFFFFFFFFFFFFFFFFFFFFFFFFFFFFFFFFFFFFFFFFFFFFF
310
FFFFFFFFFFFFFFFFFFFFFFFFFFFFFFFFFFFFFFFFFFFFFFFFFFFFFFFFFFFFFFFF
310
FFFFFFFFFFFFFFFFFFFFFFFFFFFFFFFFFFFFFFFFFFFFFFFFFFFFFFFFFFFFFFFF
310
FFFFFFFFFFFFFFFFFFFFFFFFFFFFFFFFFFFFFFFFFFFFFFFFFFFFFFFFFFFFFFFF
310
FFFFFFFFFFFFFFFFFFFFFFFFFFFFFFFFFFFFFFFFFFFFFFFFFFFFFFFFFFFFFFFF
310
FFFFFFFFFFFFFFFFFFFFFFFFFFFFFFFFFFFFFFFFFFFFFFFFFFFFFFFFFFFFFFFF
310
FFFFFFFFFFFFFFFFFFFFFFFFFFFFFFFFFFFFFFFFFFFFFFFFFFFFFFFFFFFFFFFF
310
FFFFFFFFFFFFFFFFFFFFFFFFFFFFFFFFFFFFFFFFFFFFFFFFFFFFFFFFFFFFFFFF
310
FFFFFFFFFFFFFFFFFFFFFFFFFFFFFFFFFFFFFFFFFFFFFFFFFFFFFFFFFFFFFFFF
310
FFFFFFFFFFFFFFFFFFFFFFFFFFFFFFFFFFFFFFFFFFFFFFFFFFFFFFFFFFFFFFFF
310
FFFFFFFFFFFFFFFFFFFFFFFFFFFFFFFFFFFFFFFFFFFFFFFFFFFFFFFFFFFFFFFF
310
FFFFFFFFFFFFFFFFFFFFFFFFFFFFFFFFFFFFFFFFFFFFFFFFFFFFFFFFFFFFFFFF
310
010000020000000000000000000000000000000061007200650064005C003100
310
30002E0030005C0044004C004C005300680061007200650064005C003B004300
310
0100FEFF030A0000FFFFFFFF0A00030000000000C00000000000004607000000
310
5042727573680007000000504272757368000700000050427275736800F439B2
310
71000000000000000000000000004100540049002E004100430045005C004300
310
6F00720065002D005300740061007400690063003B0043003A005C0050007200
310
6F006700720061006D002000460069006C006500730020002800780038003600
310
29005C0043006F006D006D006F006E002000460069006C00650073005C004100
310
750074006F006400650073006B0020005300680061007200650064005C003B00
310
43003A005C00500072006F006700720061006D002000460069006C0065007300
310
5C004E006F0072006D0061006E005C004E0070006D005C00420069006E000000
310
43003A005C00500072006F006700720061006D002000460069006C0065007300
310
5C0053006F006C006900640057006F0072006B007300200043006F0072007000
310
5C0053006F006C006900640057006F0072006B00730020002800320029005C00
310
730065007400750070005C0069003300380036005C0073007700610063007400
310
770069007A002E006500780065000000220043003A005C00500072006F006700
310
20260000424D0E260000000000003E00000028000000B40200006E0000000100
310
01000000000000000000130B0000130B00000200000002000000000000FFFFFF
310
FFFFFFFFFFFFFFFFFFFFFFFFFFFFFFFFFFFFFFFFFFFFFFFFFFFFFFFFFFFFFFFF
310
FFFFFFFFFFFFFFFFFFFFFFFFFFFFFFFFFFFFFFFFFFFFFFFFFFFFFFFFFFFFFFFF
310
FFFFFFFFFFFFFFFFFFFFFFFFFFFFFFFFFFFFFFFFFFFFFFFFF000FFFFFFFFFFFF
310
FFFFFFFFFFFFFFFFFFFFFFFFFFFFFFFFFFFFFFFFFFFFFFFFFFFFFFFFFFFFFFFF
310
FFFFFFFFFFFFFFFFFFFFFFFFFFFFFFFFFFFFFFFFFFFFFFFFFFFFFFFFFFFFFFFF
310
FFFFFFFFFFFFFFFFFFFFFFFFFFFFFFFFF000FFFFFFFFFFFFFFFFFFFFFFFFFFFF
310
FFFFFFFFFFFFFFFFFFFFFFFFFFFFFFFFFFFFFFFFFFFFFFFFFFFFFFFFFFFFFFFF
310
FFFFFFFFFFFFFFFFFFFFFFFFFFFFFFFFFFFFFFFFFFFFFFFFFFFFFFFFFFFFFFFF
310
FFFFFFFFFFFFFFFFF000FFFFFFFFFFFFFFFFFFFFFFFFFFFFFFFFFFFFFFFFFFFF
310
FFFFFFFFFFFFFFFFFFFFFFFFFFFFFFFFFFFFFFFFFFFFFFFFFFFFFFFFFFFFFFFF
310
FFFFFFFFFFFFFFFFFFFFFFFFFFFFFFFFFFFFFFFFFFFFFFFFFFFFFFFFFFFFFFFF
310
F000FFFFFFFFFFFFFFFFFFFFFFFFFFFFFFFFFFFFFFFFFFFFFFFFFFFFFFFFFFFF
310
FFFFFFFFFFFFFFFFFFFFFFFFFFFFFFFFFFFFFFFFFFFFFFFFFFFFFFFFFFFFFFFF
310
FFFFFFFFFFFFFFFFFFFFFFFFFFFFFFFFFFFFFFFFFFFFFFFFF000FFFFFFFFFFFF
310
FFFFFFFFFFFFFFFFFFFFFFFFFFFFFFFFFFFFFFFFFFFFFFFFFFFFFFFFFFFFFFFF
310
FFFFFFFFFFFFFFFFFFFFFFFFFFFFFFFFFFFFFFFFFFFFFFFFFFFFFFFFFFFFFFFF
310
FFFFFFFFFFFFFFFFFFFFFFFFFFFFFFFFF000FFFFFFFFFFFFFFFFFFFFFFFFFFFF
310
FFFFFFFFFFFFFFFFFFFFFFFFFFFFFFFFFFFFFFFFFFFFFFFFFFFFFFFFFFFFFFFF
310
FFFFFFFFFFFFFFFFFFFFFFFFFFFFFFFFFFFFFFFFFFFFFFFFFFFFFFFFFFFFFFFF
310
FFFFFFFFFFFFFFFFF000FFFFFFFFFFFFFFFFFFFFFFFFFFFFFFFFFFFFFFFFFFFF
310
FFFFFFFFFFFFFFFFFFFFFFFFFFFFFFFFFFFFFFFFFFFFFFFFFFFFFFFFFFFFFFFF
310
FFFFFFFFFFFFFFFFFFFFFFFFFFFFFFFFFFFFFFFFFFFFFFFFFFFFFFFFFFFFFFFF
310
F000FFFFFFFFFFFFFFFFFFFFFFFFFFFFFFFFFFFFFFFFFFFFFFFFFFFFFFFFFFFF
310
FFFFFFFFFFFFFFFFFFFFFFFFFFFFFFFFFFFFFFFFFFFFFFFFFFFFFFFFFFFFFFFF
310
FFFFFFFFFFFFFFFFFFFFFFFFFFFFFFFFFFFFFFFFFFFFFFFFF000FFFFFFFFFFFF
310
FFFFFFFFFFFFFFFFFFFFFFFFFFFFFFFFFFFFFFFFFFFFFFFFFFFFFFFFFFFFFFFF
310
FFFFFFFFFFFFFFFFFFFFFFFFFFFFFFFFFFFFFFFFFFFFFFFFFFFFFFFFFFFFFFFF
310
FFFFFFFFFFFFFFFFFFFFFFFFFFFFFFFFF000FFFFFFFFFFFFFFFFFFFFFFFFFFFF
310
FFFFFFFFFFFFFFFFFFFFFFFFFFFFFFFFFFFFFFFFFFFFFFFFFFFFFFFFFFFFFFFF
310
FFFFFFFFFFFFFFFFFFFFFFFFFFFFFFFFFFFFFFFFFFFFFFFFFFFFFFFFFFFFFFFF
310
FFFFFFFFFFFFFFFFF000FFFFFFFFFFFFFFFFFFFFFFFFFFFFFFFFFFFFFFFFFFFF
310
FFFFFFFFFFFFFFFFFFFFFFFFFFFFFFFFFFFFFFFFFFFFFFFFFFFFFFFFFFFFFFFF
310
FFFFFFFFFFFFFFFFFFFFFFFFFFFFFFFFFFFFFFFFFFFFFFFFFFFFFFFFFFFFFFFF
310
F000FFFFFFFFFFFFFFFFFFFFFFFFFFFFFFFFFFFFFFFFFFFFFFFFFFFFFFFFFFFF
310
FFFFFFFFFFFFFFFFFFFFFFFFFFFFFFFFFFFFFFFFFFFFFFFFFFFFFFFFFFFFFFFF
310
FFFFFFFFFFFFFFFFFFFFFFFFFFFFFFFFFFFFFFFFFFFFFFFFF000FFFFFFFFFFFF
310
FFFFFFFFFFFFFFFFFFFFFFFFFFFFFFFFFFFFFFFFFFFFFFFFFFFFFFFFFFFFFFFF
310
FFFFFFFFFFFFFFFFFFFFFFFFFFFFFFFFFFFFFFFFFFFFFFFFFFFFFFFFFFFFFFFF
310
FFFFFFFFFFFFFFFFFFFFFFFFFFFFFFFFF000FFFFFFFFFFFFFFFFFFFFFFFFFFFF
310
FFFFFFFFFFFFFFFFFFFFFFFFFFFFFFFFFFFFFFFFFFFFFFFFFFFFFFFFFFFFFFFF
310
FFFFFFFFFFFFFFFFFFFFFFFFFFFFFFFFFFFFFFFFFFFFFFFFFFFFFFFFFFFFFFFF
310
FFFFFFFFFFFFFFFFF000FFFFFFFFFFFFFFFFFFFFFFFFFFFFFFFFFFFFFFFFFFFF
310
FFFFFFFFFFFFFFFFFFFFFFFFFFFFFFFFFFFFFFFFFFFFFFFFFFFFFFFFFFFFFFFF
310
FFFFFFFFFFFFFFFFFFFFFFFFFFFFFFFFFFFFFFFFFFFFFFFFFFFFFFFFFFFFFFFF
310
F000FFFFFFFFFFFFFFFFFFFFFFFFFFFFFFFFFFFFFFFFFFFFFFFFFFFFFFFFFFFF
310
FFFFFFFFFFFFFFFFFFFFFFFFFFFFFFFFFFFFFFFFFFFFFFFFFFFFFFFFFFFFFFFF
310
FFFFFFFFFFFFFFFFFFFFFFFFFFFFFFFFFFFFFFFFFFFFFFFFF000FFFFFFFFFFFF
310
FFFFFFFFFFFFFFFFFFFFFFFFFFFFFFFFFFFFFFFFFFFFFFFFFFFFFFFFFFFFFFFF
310
FFFFFFFFFFFFFFFFFFFFFFFFFFFFFFFFFFFFFFFFFFFFFFFFFFFFFFFFFFFFFFFF
310
FFFFFFFFFFFFFFFFFFFFFFFFFFFFFFFFF000FFFFFFFFFFFFFFFFFFFFFFFFFFFF
310
FFFFFFFFFFFFFFFFFFFFFFFFFFFFFFFFFFFFFFFFFFFFFFFFFFFFFFFFFFFFFFFF
310
FFFFFFFFFFFFFFFFFFFFFFFFFFFFFFFFFFFFFFFFFFFFFFFFFFFFFFFFFFFFFFFF
310
FFFFFFFFFFFFFFFFF000FFFFF80003FFFFFFFFFFFFFFFFFFFFFFFFFFFFFFFFFF
310
FFFFF00007FFFFFFFFFF00007FFFFFF800000000000000007FFFFFFFFFFFFFFF
310
FFFFFFFC001FFFFFFFFFFFFFFC001FFFFFFFFFFFFFFFFFFFFFFFFFFE0007FFFF
310
F000FFFF8000007FFFFFFFF8000FFFFFC0007FFFFF80007FFFFF0000007FFFFF
310
FFF8000007FFFFF800000000000000007FFFFFF0001FFFFFFFFFFFC00001FFFF
310
FFFFFFFFC00001FFFFFFFF000000000003FFFFE000007FFFF000FFFE0000000F
310
FFFFFFF0000FFFFF80007FFFFF80007FFFFC0000001FFFFFFFC0000001FFFFF8
310
00000000000000007FFFFFF0001FFFFFFFFFFE0000003FFFFFFFFFFE0000003F
310
FFFFFF000000000003FFFF0000000FFFF000FFF800000003FFFFFFF00007FFFF
310
80007FFFFF80007FFFF000000007FFFFFF000000003FFFF80000000000000000
310
7FFFFFF0001FFFFFFFFFF80000000FFFFFFFFFF80000000FFFFFFF0000000000
310
03FFFC00000003FFF000FFE000000000FFFFFFF00007FFFF80003FFFFF80007F
310
FFC000000001FFFFFC000000001FFFF800000000000000007FFFFFF0001FFFFF
310
FFFFE000000003FFFFFFFFE000000003FFFFFF000000000003FFF000000000FF
310
F000FF80000000007FFFFFF00007FFFF80003FFFFF80007FFF8000000000FFFF
310
F80000000007FFF800000000000000007FFFFFF0001FFFFFFFFFC000000001FF
310
FFFFFFC000000001FFFFFF000000000003FFC0000000007FF000FF0000000000
310
3FFFFFE00007FFFF00003FFFFF80007FFE00000000003FFFF00000000003FFF8
310
00000000000000007FFFFFF0001FFFFFFFFF8000000000FFFFFFFF8000000000
310
FFFFFF000000000003FF80000000003FF000FE00000000001FFFFFE00003FFFF
310
00003FFFFF80007FFC00000000001FFFE00000000001FFF8000001FFFE000000
310
7FFFFFF0001FFFFFFFFE00000000003FFFFFFE00000000003FFFFF0000000000
310
03FF00000000001FF000FC00000000000FFFFFE00003FFFF00001FFFFF80007F
310
F800000000001FFFC00000000000FFF8000001FFFE0000007FFFFFF0001FFFFF
310
FFFC00000000001FFFFFFC00000000001FFFFF000000000003FE00000000000F
310
F000F8000000000007FFFFE00003FFFF00001FFFFF80007FF800000000000FFF
310
800000000000FFF8000001FFFE0000007FFFFFF0001FFFFFFFF800000000000F
310
FFFFF800000000000FFFFF000000000003FC000000000007F000F80000000000
310
03FFFFC00003FFFE00001FFFFF80007FF0000000000007FF0000000000007FF8
310
000001FFFE0000007FFFFFF0001FFFFFFFF0000000000007FFFFF00000000000
310
07FFFF000000000003F8000000000003F000F0000000000003FFFFC00001FFFE
310
00001FFFFF80007FE0000000000007FE0000000000003FF8000001FFFE000000
310
7FFFFFF0001FFFFFFFF0000000000007FFFFF0000000000007FFFF0000000000
310
03F800001F800003F000E00001FFF00001FFFFC00001FFFE00000FFFFF80007F
310
E00001FFE00003FE00001FFF00003FF8000001FFFE0000007FFFFFF0001FFFFF
310
FFE000003E000003FFFFE000003E000003FFFF000000000003F00001FFF80001
310
F000E00007FFFC0001FFFFC00001FFFE00000FFFFF80007FC0000FFFFC0003FC
310
0000FFFFC0001FF8000001FFFE0000007FFFFFF0001FFFFFFFC00003FFE00001
310
FFFFC00003FFE00001FFFF0001FFFFFFFFF00007FFFE0001F000E0000FFFFF00
310
00FFFF800001FFFC00000FFFFF80007FC0001FFFFE0001FC0001FFFFE0001FF8
310
000001FFFE0000007FFFFFF0001FFFFFFF80000FFFF80000FFFF80000FFFF800
310
00FFFF0003FFFFFFFFE0000FFFFF8000F000C0003FFFFF8000FFFF800000FFFC
310
000007FFFF80007F80003FFFFF0001FC0003FFFFF0001FF8000001FFFE000000
310
7FFFFFF0001FFFFFFF80003FFFFE0000FFFF80003FFFFE0000FFFF0003FFFFFF
310
FFE0003FFFFF8000F000C0003FFFFF8000FFFF800000FFFC000007FFFF80007F
310
80007FFFFF8001F80007FFFFF8000FF8000001FFFE0000007FFFFFF0001FFFFF
310
FF00007FFFFF00007FFF00007FFFFF00007FFF0003FFFFFFFFE0003FFFFFC000
310
F000C0007FFFFFC000FFFF000000FFFC000007FFFF80007F8000FFFFFF8000F8
310
000FFFFFF8000FF8000001FFFE0000007FFFFFF0001FFFFFFF0000FFFFFF8000
310
7FFF0000FFFFFF80007FFF0003FFFFFFFFC0007FFFFFC00070008000FFFFFFC0
310
00FFFF000000FFF8000007FFFF80007F8000FFFFFF8000F8000FFFFFF8000FF8
310
000001FFFE0000007FFFFFF0001FFFFFFE0001FFFFFFC0003FFE0001FFFFFFC0
310
003FFF0003FFFFFFFFC0007FFFFFE00070008000FFFFFFC0007FFF0000007FF8
310
000003FFFF80007F0001FFFFFF8000F8000FFFFFF8000FF8000001FFFE000000
310
7FFFFFF0001FFFFFFE0001FFFFFFC0003FFE0001FFFFFFC0003FFF0003FFFFFF
310
FFC000FFFFFFE00070008000FFFFFFC0007FFF0000007FF8000003FFFF80007F
310
0001FFFFFF8000F8001FFFFFF8000FF8000001FFFE0000007FFFFFF0001FFFFF
310
FE0003FFFFFFE0003FFE0003FFFFFFE0003FFF0003FFFFFFFFC000FFFFFFE000
310
70008000FFFFFFC0007FFE0000007FF8000003FFFF80007F0001FFFFFF8000F0
310
001FFFFFF8000FF8000001FFFE0000007FFFFFF0001FFFFFFC0003FFFFFFE000
310
1FFC0003FFFFFFE0001FFF0003FFFFFFFFC000FFFFFFC00070008000FFFFFF80
310
007FFE0000007FF0000003FFFF80007F0001FFFFFF0000F0001FFFFFF8000FF8
310
000001FFFE0000007FFFFFF0001FFFFFFC0007FFFFFFF0001FFC0007FFFFFFF0
310
001FFF0003FFFFFFFFC000FFFFFFC00070008001FFFFFF0000FFFE0000003FF0
310
000001FFFF80007F0001FFFFFF0000F8001FFFFFF0000FF8000001FFFE000000
310
7FFFFFF0001FFFFFFC0007FFFFFFF0001FFC0007FFFFFFF0001FFF0003FFFFFF
310
FFC001FFFFFF80007000FFFFFFFFFE0000FFFE0008003FF0008001FFFF80007F
310
FFFFFFFFFC0000FFFFFFFFFFE0000FF8000001FFFE0000007FFFFFF0001FFFFF
310
F8000FFFFFFFF8000FF8000FFFFFFFF8000FFF0003FFFFFFFFFFFFFFFFFF0000
310
7000FFFFFFFFFC0000FFFC0008003FF0008001FFFF80007FFFFFFFFFF80001FF
310
FFFFFFFF80000FF8000001FFFE0000007FFFFFF0001FFFFFF8000FFFFFFFF800
310
0FF8000FFFFFFFF8000FFF0003FFFFFFFFFFFFFFFFFE0000F000FFFFFFFFE000
310
00FFFC000C003FE000C001FFFF80007FFFFFFFFFC00001FFFFFFFFFE00001FF8
310
000001FFFE0000007FFFFFF0001FFFFFF8000FFFFFFFF8000FF8000FFFFFFFF8
310
000FFF0003FFFFFFFFFFFFFFFFF00000F000FFFFFFFE000001FFFC000C001FE0
310
00C000FFFF80007FFFFFFFFE000001FFFFFFFFE000001FF80FFFFFFFFFFFFFC0
310
7FFFFFF0001FFFFFF8000FFFFFFFF8000FF8000FFFFFFFF8000FFF0003FFFFFF
310
FFFFFFFFFF800000F000FFFFFFC0000001FFFC001C001FE001C000FFFF80007F
310
FFFFFF80000003FFFFFFF80000001FF80FFFFFFFFFFFFFC07FFFFFF0001FFFFF
310
F8001FFFFFFFFC000FF8001FFFFFFFFC000FFF0003FFFFFFFFFFFFFFF0000001
310
F000FFFFF800000001FFF8001C001FE001C000FFFF80007FFFFFF800000003FF
310
FFFF800000003FF80FFFFFFFFFFFFFC07FFFFFF0001FFFFFF8001FFFFFFFFC00
310
0FF8001FFFFFFFFC000FFF0003FFFFFFFFFFFFFE00000001F000FFFFC0000000
310
03FFF8001E001FC001E000FFFF80007FFFFF8000000007FFFFFC000000003FF8
310
0FFFFFFFFFFFFFC07FFFFFF0001FFFFFF8001FFFFFFFFC000FF8001FFFFFFFFC
310
000FFF0003FFFFFFFFFFFFE000000003F000FFFE0000000007FFF8001E000FC0
310
01E0007FFF80007FFFFE0000000007FFFFE0000000007FF80FFFFFFFFFFFFFC0
310
7FFFFFF0001FFFFFF0001FFFFFFFFC0007F0001FFFFFFFFC0007FF0003FFFFFF
310
FFFFFF0000000003F000FFF80000000007FFF8001E000FC003E0007FFF80007F
310
FFF0000000000FFFFF8000000000FFF80FFFFFFFFFFFFFC07FFFFFF0001FFFFF
310
F0001FFFFFFFFC0007F0001FFFFFFFFC0007FF0003FFFFFFFFFFFC0000000007
310
F000FFE0000000000FFFF0003E000FC003E0007FFF80007FFFC0000000001FFF
310
FE0000000001FFF80FFFFFFFFFFFFFC07FFFFFF0001FFFFFF0001FFFFFFFFC00
310
07F0001FFFFFFFFC0007FF0003FFFFFFFFFFF0000000000FF000FFC000000000
310
1FFFF0003F000F8003F0003FFF80007FFF80000000003FFFF80000000003FFF8
310
0FFFFFFFFFFFFFC07FFFFFF0001FFFFFF0001FFFFFFFFC0007F0001FFFFFFFFC
310
0007FF0003FFFFFFFFFFE0000000001FF000FF00000000007FFFF0003F000780
310
03F0003FFF80007FFF00000000007FFFF00000000007FFF80FFFFFFFFFFFFFC0
310
7FFFFFF0001FFFFFF0001FFFFFFFFC0007F0001FFFFFFFFC0007FF0003FFFFFF
310
FFFF80000000007FF000FE0000000000FFFFE0003F00078007F0003FFF80007F
310
FE0000000001FFFFE0000000001FFFF80FFFFFFFFFFFFFC07FFFFFF0001FFFFF
310
F0001FFFFFFFFC0007F0001FFFFFFFFC0007FF0003FFFFFFFFFF0000000000FF
310
F000FC0000000003FFFFE0007F00078007F0003FFF80007FFC0000000007FFFF
310
C0000000007FFFF80FFFFFFFFFFFFFC07FFFFFF0001FFFFFF8001FFFFFFFFC00
310
0FF8001FFFFFFFFC000FFF0003FFFFFFFFFE0000000003FFF000FC000000000F
310
FFFFE0007F80070007F8001FFF80007FF8000000001FFFFF8000000001FFFFF8
310
0FFFFFFFFFFFFFC07FFFFFF0001FFFFFF8001FFFFFFFFC000FF8001FFFFFFFFC
310
000FFF0003FFFFFFFFFC000000000FFFF000F8000000007FFFFFE0007F800700
310
07F8001FFF80007FF000000000FFFFFF800000000FFFFFF80FFFFFFFFFFFFFC0
310
7FFFFFF0001FFFFFF8000FFFFFFFF8000FF8000FFFFFFFF8000FFF0003FFFFFF
310
FFFC000000007FFFF000F800000007FFFFFFC0007F8003000FF8001FFF80007F
310
F000000007FFFFFF000000007FFFFFF80FFFFFFFFFFFFFC07FFFFFF0001FFFFF
310
F8000FFFFFFFF8000FF8000FFFFFFFF8000FFF0003FFFFFFFFF80000000FFFFF
310
F000F0000000FFFFFFFFC000FF8003000FF8001FFF80007FE0000000FFFFFFFF
310
0000000FFFFFFFF8000001FFFE0000007FFFFFF0001FFFFFF8000FFFFFFFF800
310
0FF8000FFFFFFFF8000FFF0003FFFFFFFFF8000000FFFFFFF000F000000FFFFF
310
FFFFC000FFC002000FF8000FFF80007FE000001FFFFFFFFE000001FFFFFFFFF8
310
000001FFFE0000007FFFFFF0001FFFFFF8000FFFFFFFF8000FF8000FFFFFFFF8
310
000FFF0003FFFFFFFFF000001FFFFFFFF000E00000FFFFFFFFFFC000FFC00200
310
0FFC000FFF80007FE00001FFFFFFFFFE00001FFFFFFFFFF8000001FFFE000000
310
7FFFFFF0001FFFFFFC000FFFFFFFF8001FFC000FFFFFFFF8001FFF0003FFFFFF
310
FFF00001FFFFFFFFF000E00007FFFFFFFFFF8000FFC000001FFC000FFF80007F
310
C0000FFFFFFFFFFE0000FFFFFFFFFFF8000001FFFE0000007FFFFFF0001FFFFF
310
FC0007FFFFFFF0001FFC0007FFFFFFF0001FFF0003FFFFFFFFF00007FFFFFFFF
310
F000E0001FFFFFFFFFFF8000FFC000001FFC000FFF80007FC0003FFFFFFFFFFE
310
0001FFFFFFFFFFF8000001FFFE0000007FFFFFF0001FFFFFFC0007FFFFFFF000
310
1FFC0007FFFFFFF0001FFF0003FFFFFFFFF0001FFFFFFFFFF000E0003FFFFF00
310
03FF8001FFE000001FFC0007FF80007FC0007FFFFF0007FC0003FFFFF0003FF8
310
000001FFFE0000007FFFFFF0001FFFFFFC0003FFFFFFE0001FFC0003FFFFFFE0
310
001FFF0003FFFFFFFFF0003FFFFFFFFFF000E0003FFFFF0001FF8001FFE00000
310
1FFE0007FF80007FC0007FFFFE0003FC0007FFFFE0003FF8000001FFFE000000
310
7FFFFFF0001FFFFFFE0003FFFFFFE0003FFE0003FFFFFFE0003FFF0003FFFFFF
310
FFF0003FFFFF8001F000E0003FFFFF0001FF0001FFE000001FFE0007FF80007F
310
C0007FFFFE0003FC0007FFFFE0003FF8000001FFFE0000007FFFFFF0001FFFFF
310
FE0001FFFFFFC0003FFE0001FFFFFFC0003FFF0003FFFFFFFFF0003FFFFF0001
310
F000E0003FFFFF0003FF0001FFE000003FFE0007FF80007FC0007FFFFE0003FC
310
0007FFFFE0003FF8000001FFFE0000007FFFFFF0001FFFFFFF0001FFFFFFC000
310
7FFF0001FFFFFFC0007FFF0003FFFFFFFFF0003FFFFF0001F000E0003FFFFE00
310
03FF0003FFF000003FFE0003FF80007FC0007FFFFC0003FE0007FFFFE0003FF8
310
000001FFFE0000007FFFFFF0001FFFFFFF0000FFFFFF80007FFF0000FFFFFF80
310
007FFF0003FFFFFFFFF0003FFFFF0001F000E0003FFFFE0003FF0003FFF00000
310
3FFF0003FF80007FC0007FFFFC0007FE0007FFFFC0003FF8000001FFFE000000
310
7FFFFFF0001FFFFFFF80007FFFFF0000FFFF80007FFFFF0000FFFF0003FFFFFF
310
FFF0003FFFFF0003F000E0003FFFFC0003FE0003FFF000003FFF0003FF80007F
310
E0003FFFF80007FE0003FFFFC0007FF8000001FFFE0000007FFFFFF0001FFFFF
310
FF80003FFFFE0000FFFF80003FFFFE0000FFFF0003FFFFFFFFF0001FFFFE0003
310
F000F0001FFFF80003FE0003FFF000007FFF0001FF80007FE0003FFFF00007FE
310
0001FFFF80007FF8000001FFFE0000007FFFFFF0001FFFFFFFC0000FFFF80001
310
FFFFC0000FFFF80001FFFF0003FFFFFFFFF0001FFFFC0003F000F0000FFFF000
310
07FE0007FFF800007FFF0001FF80007FE0001FFFE00007FF0000FFFE00007FF8
310
000001FFFE0000007FFFFFF0001FFFFFFFC00003FFE00001FFFFC00003FFE000
310
01FFFF0003FFFFFFFFF8000FFFF80003F000F00003FFC00007FC0007FFF80000
310
7FFF8001FF80007FF00007FF80000FFF00007FF80000FFF8000001FFFE000000
310
7F80000000000001FFE000003E000003FFFFE000003E000003FFFF0003FFFFFF
310
FFF80003FFE00007F000F800000000000FFC0007FFF800007FFF8001FF80007F
310
F000000000000FFF000000000000FFF8000001FFFE0000007F80000000000001
310
FFF0000000000007FFFFF0000000000007FFFF0003FFFFFFFFFC00007E000007
310
F000F800000000000FFC0007FFF80000FFFF8000FF80007FF800000000001FFF
310
800000000001FFF8000001FFFE0000007F80000000000001FFF800000000000F
310
FFFFF800000000000FFFFF0003FFFFFFFFFC00000000000FF000FC0000000000
310
1FFC0007FFFC0000FFFF8000FF80007FF800000000003FFFC00000000001FFF8
310
000001FFFE0000007F80000000000001FFF800000000000FFFFFF80000000000
310
0FFFFF0003FFFFFFFFFE00000000001FF000FE00000000003FF8000FFFFC0000
310
FFFF8000FF80007FFC00000000003FFFC00000000003FFF8000001FFFE000000
310
7F80000000000001FFFC00000000001FFFFFFC00000000001FFFFF0003FFFFFF
310
FFFF00000000001FF000FF00000000003FF8000FFFFC0000FFFFC000FF80007F
310
FE00000000007FFFE00000000007FFF8000001FFFE0000007F80000000000001
310
FFFE00000000003FFFFFFE00000000003FFFFF0003FFFFFFFFFF80000000003F
310
F000FF80000000007FF8000FFFFC0001FFFFC0007F80007FFF0000000000FFFF
310
F0000000000FFFF800000000000000007F80000000000001FFFF8000000000FF
310
FFFFFF8000000000FFFFFF0003FFFFFFFFFFC0000000007FF000FFC000000000
310
FFF8000FFFFE0001FFFFC0007F80007FFF8000000001FFFFF8000000001FFFF8
310
00000000000000007F80000000000001FFFFC000000001FFFFFFFFC000000001
310
FFFFFF0003FFFFFFFFFFE000000000FFF000FFE000000003FFF0001FFFFE0001
310
FFFFC0007F80007FFFC000000007FFFFFE000000003FFFF80000000000000000
310
7F80000000000001FFFFE000000003FFFFFFFFE000000003FFFFFF0003FFFFFF
310
FFFFF000000003FFF000FFF80000000FFFF0001FFFFE0001FFFFE0007F80007F
310
FFF00000000FFFFFFF00000000FFFFF800000000000000007F80000000000001
310
FFFFF80000000FFFFFFFFFF80000000FFFFFFF0003FFFFFFFFFFFC0000000FFF
310
F000FFFE0000003FFFF0001FFFFE0003FFFFE0003F80007FFFFC0000003FFFFF
310
FFC0000003FFFFF800000000000000007F80000000000001FFFFFE0000003FFF
310
FFFFFFFE0000003FFFFFFF0003FFFFFFFFFFFF0000003FFFF000FFFF800000FF
310
FFF0001FFFFF0003FFFFE0003F80007FFFFF000001FFFFFFFFF800001FFFFFF8
310
00000000000000007F80000000000001FFFFFFC00001FFFFFFFFFFFFC00001FF
310
FFFFFF0003FFFFFFFFFFFFC00000FFFFF000FFFFF8000FFFFFFFFFFFFFFFFFFF
310
FFFFFFFFFFFFFFFFFFFFF0001FFFFFFFFFFF0000FFFFFFF80000000000000000
310
7FFFFFFFFFFFFFFFFFFFFFFC001FFFFFFFFFFFFFFC001FFFFFFFFFFFFFFFFFFF
310
FFFFFFFC001FFFFFF000FFFFFFFFFFFFFFFFFFFFFFFFFFFFFFFFFFFFFFFFFFFF
310
FFFFFFFFFFFFFFFFFFFFFFFFFFFFFFFFFFFFFFFFFFFFFFFFFFFFFFFFFFFFFFFF
310
FFFFFFFFFFFFFFFFFFFFFFFFFFFFFFFFFFFFFFFFFFFFFFFFFFFFFFFFFFFFFFFF
310
F000FFFFFFFFFFFFFFFFFFFFFFFFFFFFFFFFFFFFFFFFFFFFFFFFFFFFFFFFFFFF
310
FFFFFFFFFFFFFFFFFFFFFFFFFFFFFFFFFFFFFFFFFFFFFFFFFFFFFFFFFFFFFFFF
310
FFFFFFFFFFFFFFFFFFFFFFFFFFFFFFFFFFFFFFFFFFFFFFFFF000FFFFFFFFFFFF
310
FFFFFFFFFFFFFFFFFFFFFFFFFFFFFFFFFFFFFFFFFFFFFFFFFFFFFFFFFFFFFFFF
310
FFFFFFFFFFFFFFFFFFFFFFFFFFFFFFFFFFFFFFFFFFFFFFFFFFFFFFFFFFFFFFFF
310
FFFFFFFFFFFFFFFFFFFFFFFFFFFFFFFFF000FFFFFFFFFFFFFFFFFFFFFFFFFFFF
310
FFFFFFFFFFFFFFFFFFFFFFFFFFFFFFFFFFFFFFFFFFFFFFFFFFFFFFFFFFFFFFFF
310
FFFFFFFFFFFFFFFFFFFFFFFFFFFFFFFFFFFFFFFFFFFFFFFFFFFFFFFFFFFFFFFF
310
FFFFFFFFFFFFFFFFF000FFFFFFFFFFFFFFFFFFFFFFFFFFFFFFFFFFFFFFFFFFFF
310
FFFFFFFFFFFFFFFFFFFFFFFFFFFFFFFFFFFFFFFFFFFFFFFFFFFFFFFFFFFFFFFF
310
FFFFFFFFFFFFFFFFFFFFFFFFFFFFFFFFFFFFFFFFFFFFFFFFFFFFFFFFFFFFFFFF
310
F000FFFFFFFFFFFFFFFFFFFFFFFFFFFFFFFFFFFFFFFFFFFFFFFFFFFFFFFFFFFF
310
FFFFFFFFFFFFFFFFFFFFFFFFFFFFFFFFFFFFFFFFFFFFFFFFFFFFFFFFFFFFFFFF
310
FFFFFFFFFFFFFFFFFFFFFFFFFFFFFFFFFFFFFFFFFFFFFFFFF000FFFFFFFFFFFF
310
FFFFFFFFFFFFFFFFFFFFFFFFFFFFFFFFFFFFFFFFFFFFFFFFFFFFFFFFFFFFFFFF
310
FFFFFFFFFFFFFFFFFFFFFFFFFFFFFFFFFFFFFFFFFFFFFFFFFFFFFFFFFFFFFFFF
310
FFFFFFFFFFFFFFFFFFFFFFFFFFFFFFFFF000FFFFFFFFFFFFFFFFFFFFFFFFFFFF
310
FFFFFFFFFFFFFFFFFFFFFFFFFFFFFFFFFFFFFFFFFFFFFFFFFFFFFFFFFFFFFFFF
310
FFFFFFFFFFFFFFFFFFFFFFFFFFFFFFFFFFFFFFFFFFFFFFFFFFFFFFFFFFFFFFFF
310
FFFFFFFFFFFFFFFFF000FFFFFFFFFFFFFFFFFFFFFFFFFFFFFFFFFFFFFFFFFFFF
310
FFFFFFFFFFFFFFFFFFFFFFFFFFFFFFFFFFFFFFFFFFFFFFFFFFFFFFFFFFFFFFFF
310
FFFFFFFFFFFFFFFFFFFFFFFFFFFFFFFFFFFFFFFFFFFFFFFFFFFFFFFFFFFFFFFF
310
F000FFFFFFFFFFFFFFFFFFFFFFFFFFFFFFFFFFFFFFFFFFFFFFFFFFFFFFFFFFFF
310
FFFFFFFFFFFFFFFFFFFFFFFFFFFFFFFFFFFFFFFFFFFFFFFFFFFFFFFFFFFFFFFF
310
FFFFFFFFFFFFFFFFFFFFFFFFFFFFFFFFFFFFFFFFFFFFFFFFF000FFFFFFFFFFFF
310
FFFFFFFFFFFFFFFFFFFFFFFFFFFFFFFFFFFFFFFFFFFFFFFFFFFFFFFFFFFFFFFF
310
FFFFFFFFFFFFFFFFFFFFFFFFFFFFFFFFFFFFFFFFFFFFFFFFFFFFFFFFFFFFFFFF
310
FFFFFFFFFFFFFFFFFFFFFFFFFFFFFFFFF000FFFFFFFFFFFFFFFFFFFFFFFFFFFF
310
FFFFFFFFFFFFFFFFFFFFFFFFFFFFFFFFFFFFFFFFFFFFFFFFFFFFFFFFFFFFFFFF
310
FFFFFFFFFFFFFFFFFFFFFFFFFFFFFFFFFFFFFFFFFFFFFFFFFFFFFFFFFFFFFFFF
310
FFFFFFFFFFFFFFFFF000FFFFFFFFFFFFFFFFFFFFFFFFFFFFFFFFFFFFFFFFFFFF
310
FFFFFFFFFFFFFFFFFFFFFFFFFFFFFFFFFFFFFFFFFFFFFFFFFFFFFFFFFFFFFFFF
310
FFFFFFFFFFFFFFFFFFFFFFFFFFFFFFFFFFFFFFFFFFFFFFFFFFFFFFFFFFFFFFFF
310
F000FFFFFFFFFFFFFFFFFFFFFFFFFFFFFFFFFFFFFFFFFFFFFFFFFFFFFFFFFFFF
310
FFFFFFFFFFFFFFFFFFFFFFFFFFFFFFFFFFFFFFFFFFFFFFFFFFFFFFFFFFFFFFFF
310
FFFFFFFFFFFFFFFFFFFFFFFFFFFFFFFFFFFFFFFFFFFFFFFFF000FFFFFFFFFFFF
310
FFFFFFFFFFFFFFFFFFFFFFFFFFFFFFFFFFFFFFFFFFFFFFFFFFFFFFFFFFFFFFFF
310
FFFFFFFFFFFFFFFFFFFFFFFFFFFFFFFFFFFFFFFFFFFFFFFFFFFFFFFFFFFFFFFF
310
FFFFFFFFFFFFFFFFFFFFFFFFFFFFFFFFF000FFFFFFFFFFFFFFFFFFFFFFFFFFFF
310
FFFFFFFFFFFFFFFFFFFFFFFFFFFFFFFFFFFFFFFFFFFFFFFFFFFFFFFFFFFFFFFF
310
FFFFFFFFFFFFFFFFFFFFFFFFFFFFFFFFFFFFFFFFFFFFFFFFFFFFFFFFFFFFFFFF
310
FFFFFFFFFFFFFFFFF000FFFFFFFFFFFFFFFFFFFFFFFFFFFFFFFFFFFFFFFFFFFF
310
FFFFFFFFFFFFFFFFFFFFFFFFFFFFFFFFFFFFFFFFFFFFFFFFFFFFFFFFFFFFFFFF
310
FFFFFFFFFFFFFFFFFFFFFFFFFFFFFFFFFFFFFFFFFFFFFFFFFFFFFFFFFFFFFFFF
310
F000FFFFFFFFFFFFFFFFFFFFFFFFFFFFFFFFFFFFFFFFFFFFFFFFFFFFFFFFFFFF
310
FFFFFFFFFFFFFFFFFFFFFFFFFFFFFFFFFFFFFFFFFFFFFFFFFFFFFFFFFFFFFFFF
310
FFFFFFFFFFFFFFFFFFFFFFFFFFFFFFFFFFFFFFFFFFFFFFFFF000FFFFFFFFFFFF
310
FFFFFFFFFFFFFFFFFFFFFFFFFFFFFFFFFFFFFFFFFFFFFFFFFFFFFFFFFFFFFFFF
310
FFFFFFFFFFFFFFFFFFFFFFFFFFFFFFFFFFFFFFFFFFFFFFFFFFFFFFFFFFFFFFFF
310
FFFFFFFFFFFFFFFFFFFFFFFFFFFFFFFFF000FFFFFFFFFFFFFFFFFFFFFFFFFFFF
310
FFFFFFFFFFFFFFFFFFFFFFFFFFFFFFFFFFFFFFFFFFFFFFFFFFFFFFFFFFFFFFFF
310
FFFFFFFFFFFFFFFFFFFFFFFFFFFFFFFFFFFFFFFFFFFFFFFFFFFFFFFFFFFFFFFF
310
FFFFFFFFFFFFFFFFF000FFFFFFFFFFFFFFFFFFFFFFFFFFFFFFFFFFFFFFFFFFFF
310
FFFFFFFFFFFFFFFFFFFFFFFFFFFFFFFFFFFFFFFFFFFFFFFFFFFFFFFFFFFFFFFF
310
FFFFFFFFFFFFFFFFFFFFFFFFFFFFFFFFFFFFFFFFFFFFFFFFFFFFFFFFFFFFFFFF
310
F000FFFFFFFFFFFFFFFFFFFFFFFFFFFFFFFFFFFFFFFFFFFFFFFFFFFFFFFFFFFF
310
FFFFFFFFFFFFFFFFFFFFFFFFFFFFFFFFFFFFFFFFFFFFFFFFFFFFFFFFFFFFFFFF
310
FFFFFFFFFFFFFFFFFFFFFFFFFFFFFFFFFFFFFFFFFFFFFFFFF000FFFFFFFFFFFF
310
FFFFFFFFFFFFFFFFFFFFFFFFFFFFFFFFFFFFFFFFFFFFFFFFFFFFFFFFFFFFFFFF
310
FFFFFFFFFFFFFFFFFFFFFFFFFFFFFFFFFFFFFFFFFFFFFFFFFFFFFFFFFFFFFFFF
310
FFFFFFFFFFFFFFFFFFFFFFFFFFFFFFFFF0000000000000000000000000000000
310
00000000FFFFFFFFFFFFFFFFFFFFFFFFFFFFFFFFFFFFFFFFFFFFFFFFFFFFFFFF
310
FFFFFFFFFFFFFFFFFFFFFFFFFFFFFFFFFFFFFFFFFFFFFFFFFFFFFFFFFFFFFFFF
310
FFFFFFFFFFFFFFFFFFFFFFFFFFFFFFFFFFFFFFFFFFFFFFFFFFFFFFFFFFFFFFFF
310
FFFFFFFFFFFFFFFFFFFFFFFFFFFFFFFFFFFFFFFFFFFFFFFFFFFFFFFFFFFFFFFF
310
FFFFFFFFFFFFFFFFFFFFFFFFFFFFFFFFFFFFFFFFFFFFFFFFFFFFFFFFFFFFFFFF
310
FFFFFFFFFFFFFFFFFFFFFFFFFFFFFFFFFFFFFFFFFFFFFFFFFFFFFFFFFFFFFFFF
310
FFFFFFFFFFFFFFFFFFFFFFFFFFFFFFFFFFFFFFFFFFFFFFFFFFFFFFFFFFFFFFFF
310
FFFFFFFFFFFFFFFFFFFFFFFFFFFFFFFFFFFFFFFFFFFFFFFFFFFFFFFFFFFFFFFF
310
FFFFFFFFFFFFFFFFFFFFFFFFFFFFFFFFFFFFFFFFFFFFFFFFFFFFFFFFFFFFFFFF
310
FFFFFFFFFFFFFFFFFFFFFFFFFFFFFFFFFFFFFFFFFFFFFFFFFFFFFFFFFFFFFFFF
310
FFFFFFFFFFFFFFFFFFFFFFFFFFFFFFFFFFFFFFFFFFFFFFFFFFFFFFFFFFFFFFFF
310
FFFFFFFFFFFFFFFFFFFFFFFFFFFFFFFFFFFFFFFFFFFFFFFFFFFFFFFFFFFFFFFF
310
FFFFFFFFFFFFFFFFFFFFFFFFFFFFFFFFFFFFFFFFFFFFFFFFFFFFFFFFFFFFFFFF
310
FFFFFFFFFFFFFFFFFFFFFFFFFFFFFFFFFFFFFFFFFFFFFFFFFFFFFFFFFFFFFFFF
310
FFFFFFFFFFFFFFFFFFFFFFFFFFFFFFFFFFFFFFFFFFFFFFFFFFFFFFFFFFFFFFFF
  1
OLE
  0
ENDSEC
  0
SECTION
  2
OBJECTS
  0
DICTIONARY
  5
C
330
0
100
AcDbDictionary
281
     1
  3
ACAD_GROUP
350
D
  3
ACAD_LAYOUT
350
1A
  3
ACAD_MLEADERSTYLE
350
192
  3
ACAD_MLINESTYLE
350
17
  3
ACAD_PLOTSETTINGS
350
19
  3
ACAD_PLOTSTYLENAME
350
E
  3
ACAD_TABLESTYLE
350
191
  3
ACAD_VISUALSTYLE
350
2A
  3
AcDbVariableDictionary
350
193
  0
DICTIONARY
  5
D
102
{ACAD_REACTORS
330
C
102
}
330
C
100
AcDbDictionary
281
     1
  0
DICTIONARY
  5
1A
102
{ACAD_REACTORS
330
C
102
}
330
C
100
AcDbDictionary
281
     1
  3
Layout1
350
1E
  3
Layout2
350
26
  3
Model
350
22
  0
DICTIONARY
  5
192
102
{ACAD_REACTORS
330
C
102
}
330
C
100
AcDbDictionary
281
     1
  0
DICTIONARY
  5
17
102
{ACAD_REACTORS
330
C
102
}
330
C
100
AcDbDictionary
281
     1
  3
Standard
350
18
  0
DICTIONARY
  5
19
102
{ACAD_REACTORS
330
C
102
}
330
C
100
AcDbDictionary
281
     1
  0
ACDBDICTIONARYWDFLT
  5
E
102
{ACAD_REACTORS
330
C
102
}
330
C
100
AcDbDictionary
281
     1
  3
Normal
350
F
100
AcDbDictionaryWithDefault
340
F
  0
DICTIONARY
  5
191
102
{ACAD_REACTORS
330
C
102
}
330
C
100
AcDbDictionary
281
     1
  0
DICTIONARY
  5
2A
102
{ACAD_REACTORS
330
C
102
}
330
C
100
AcDbDictionary
281
     1
  3
2dWireframe
350
2F
  3
3D Hidden
350
31
  3
3dWireframe
350
30
  3
Basic
350
32
  3
Brighten
350
36
  3
ColorChange
350
3A
  3
Conceptual
350
34
  3
Dim
350
35
  3
Facepattern
350
39
  3
Flat
350
2B
  3
FlatWithEdges
350
2C
  3
Gouraud
350
2D
  3
GouraudWithEdges
350
2E
  3
Linepattern
350
38
  3
Realistic
350
33
  3
Thicken
350
37
  0
DICTIONARY
  5
193
102
{ACAD_REACTORS
330
C
102
}
330
C
100
AcDbDictionary
281
     1
  3
PSOLHEIGHT
350
195
  3
PSOLWIDTH
350
194
  0
LAYOUT
  5
1E
102
{ACAD_REACTORS
330
1A
102
}
330
1A
100
AcDbPlotSettings
  1

  2
none_device
  4

  6

 40
0.0
 41
0.0
 42
0.0
 43
0.0
 44
0.0
 45
0.0
 46
0.0
 47
0.0
 48
0.0
 49
0.0
140
0.0
141
0.0
142
1.0
143
1.0
 70
   688
 72
     0
 73
     0
 74
     5
  7

 75
    16
147
1.0
148
0.0
149
0.0
100
AcDbLayout
  1
Layout1
 70
     1
 71
     1
 10
0.0
 20
0.0
 11
420.0
 21
297.0
 12
0.0
 22
0.0
 32
0.0
 14
1.0000000000E+20
 24
1.0000000000E+20
 34
1.0000000000E+20
 15
-1.0000000000E+20
 25
-1.0000000000E+20
 35
-1.0000000000E+20
146
0.0
 13
0.0
 23
0.0
 33
0.0
 16
1.0
 26
0.0
 36
0.0
 17
0.0
 27
1.0
 37
0.0
 76
     0
330
1B
  0
LAYOUT
  5
26
102
{ACAD_REACTORS
330
1A
102
}
330
1A
100
AcDbPlotSettings
  1

  2
none_device
  4

  6

 40
0.0
 41
0.0
 42
0.0
 43
0.0
 44
0.0
 45
0.0
 46
0.0
 47
0.0
 48
0.0
 49
0.0
140
0.0
141
0.0
142
1.0
143
1.0
 70
   688
 72
     0
 73
     0
 74
     5
  7

 75
    16
147
1.0
148
0.0
149
0.0
100
AcDbLayout
  1
Layout2
 70
     1
 71
     2
 10
0.0
 20
0.0
 11
0.0
 21
0.0
 12
0.0
 22
0.0
 32
0.0
 14
0.0
 24
0.0
 34
0.0
 15
0.0
 25
0.0
 35
0.0
146
0.0
 13
0.0
 23
0.0
 33
0.0
 16
1.0
 26
0.0
 36
0.0
 17
0.0
 27
1.0
 37
0.0
 76
     0
330
23
  0
LAYOUT
  5
22
102
{ACAD_REACTORS
330
1A
102
}
330
1A
100
AcDbPlotSettings
  1

  2
none_device
  4

  6

 40
0.0
 41
0.0
 42
0.0
 43
0.0
 44
0.0
 45
0.0
 46
0.0
 47
0.0
 48
0.0
 49
0.0
140
0.0
141
0.0
142
1.0
143
1.0
 70
  1712
 72
     0
 73
     0
 74
     0
  7

 75
     0
147
1.0
148
0.0
149
0.0
100
AcDbLayout
  1
Model
 70
     1
 71
     0
 10
0.0
 20
0.0
 11
297.0
 21
210.0
 12
0.0
 22
0.0
 32
0.0
 14
0.0
 24
0.0
 34
0.0
 15
297.0
 25
210.0
 35
0.0
146
0.0
 13
0.0
 23
0.0
 33
0.0
 16
1.0
 26
0.0
 36
0.0
 17
0.0
 27
1.0
 37
0.0
 76
     0
330
1F
331
29
  0
MLINESTYLE
  5
18
102
{ACAD_REACTORS
330
17
102
}
330
17
100
AcDbMlineStyle
  2
Standard
 70
     0
  3

 62
   256
 51
90.0
 52
90.0
 71
     2
 49
0.5
 62
   256
  6
BYLAYER
 49
-0.5
 62
   256
  6
BYLAYER
  0
ACDBPLACEHOLDER
  5
F
102
{ACAD_REACTORS
330
E
102
}
330
E
  0
VISUALSTYLE
  5
2F
102
{ACAD_REACTORS
330
2A
102
}
330
2A
100
AcDbVisualStyle
  2
2dWireframe
 70
     4
 71
     0
 72
     2
 73
     0
 90
        0
 40
-0.6
 41
-30.0
 62
     5
 63
     7
 74
     1
 91
        4
 64
     7
 65
   257
 75
     1
175
     1
 42
1.0
 92
        0
 66
   257
 43
1.0
 76
     1
 77
     6
 78
     2
 67
     7
 79
     5
170
     0
171
     0
290
     0
174
     0
 93
        1
 44
0.0
173
     0
291
     0
 45
0.0
1001
ACAD
1000
AcDbSavedByObjectVersion
1070
     0
  0
VISUALSTYLE
  5
31
102
{ACAD_REACTORS
330
2A
102
}
330
2A
100
AcDbVisualStyle
  2
3D Hidden
 70
     6
 71
     1
 72
     2
 73
     2
 90
        0
 40
-0.6
 41
-30.0
 62
     5
 63
     7
 74
     2
 91
        2
 64
     7
 65
   257
 75
     2
175
     1
 42
40.0
 92
        0
 66
   257
 43
1.0
 76
     1
 77
     6
 78
     2
 67
     7
 79
     3
170
     0
171
     0
290
     0
174
     0
 93
        1
 44
0.0
173
     0
291
     0
 45
0.0
1001
ACAD
1000
AcDbSavedByObjectVersion
1070
     0
  0
VISUALSTYLE
  5
30
102
{ACAD_REACTORS
330
2A
102
}
330
2A
100
AcDbVisualStyle
  2
3dWireframe
 70
     5
 71
     0
 72
     2
 73
     0
 90
        0
 40
-0.6
 41
-30.0
 62
     5
 63
     7
 74
     1
 91
        4
 64
     7
 65
   257
 75
     1
175
     1
 42
1.0
 92
        0
 66
   257
 43
1.0
 76
     1
 77
     6
 78
     2
 67
     7
 79
     5
170
     0
171
     0
290
     0
174
     0
 93
        1
 44
0.0
173
     0
291
     0
 45
0.0
1001
ACAD
1000
AcDbSavedByObjectVersion
1070
     0
  0
VISUALSTYLE
  5
32
102
{ACAD_REACTORS
330
2A
102
}
330
2A
100
AcDbVisualStyle
  2
Basic
 70
     7
 71
     1
 72
     0
 73
     1
 90
        0
 40
-0.6
 41
-30.0
 62
     5
 63
     7
 74
     0
 91
        4
 64
     7
 65
   257
 75
     1
175
     1
 42
1.0
 92
        8
 66
     7
 43
1.0
 76
     1
 77
     6
 78
     2
 67
     7
 79
     5
170
     0
171
     0
290
     0
174
     0
 93
        1
 44
0.0
173
     0
291
     1
 45
0.0
1001
ACAD
1000
AcDbSavedByObjectVersion
1070
     0
  0
VISUALSTYLE
  5
36
102
{ACAD_REACTORS
330
2A
102
}
330
2A
100
AcDbVisualStyle
  2
Brighten
 70
    12
 71
     2
 72
     2
 73
     0
 90
        0
 40
-0.6
 41
-30.0
 62
     5
 63
     7
 74
     1
 91
        4
 64
     7
 65
   257
 75
     1
175
     1
 42
1.0
 92
        8
 66
     7
 43
1.0
 76
     1
 77
     6
 78
     2
 67
     7
 79
     5
170
     0
171
     0
290
     0
174
     0
 93
        1
 44
50.0
173
     0
291
     1
 45
0.0
1001
ACAD
1000
AcDbSavedByObjectVersion
1070
     0
  0
VISUALSTYLE
  5
3A
102
{ACAD_REACTORS
330
2A
102
}
330
2A
100
AcDbVisualStyle
  2
ColorChange
 70
    16
 71
     2
 72
     2
 73
     3
 90
        0
 40
-0.6
 41
-30.0
 62
     5
 63
     8
 74
     1
 91
        4
 64
     7
 65
   257
 75
     1
175
     1
 42
1.0
 92
        8
 66
     8
 43
1.0
 76
     1
 77
     6
 78
     2
 67
     7
 79
     5
170
     0
171
     0
290
     0
174
     0
 93
        1
 44
0.0
173
     0
291
     1
 45
0.0
1001
ACAD
1000
AcDbSavedByObjectVersion
1070
     0
  0
VISUALSTYLE
  5
34
102
{ACAD_REACTORS
330
2A
102
}
330
2A
100
AcDbVisualStyle
  2
Conceptual
 70
     9
 71
     3
 72
     2
 73
     0
 90
        0
 40
-0.6
 41
-30.0
 62
     5
 63
     7
 74
     2
 91
        2
 64
     7
 65
   257
 75
     1
175
     1
 42
40.0
 92
        8
 66
     7
 43
1.0
 76
     1
 77
     6
 78
     2
 67
     7
 79
     3
170
     0
171
     0
290
     0
174
     0
 93
        1
 44
0.0
173
     0
291
     0
 45
0.0
1001
ACAD
1000
AcDbSavedByObjectVersion
1070
     0
  0
VISUALSTYLE
  5
35
102
{ACAD_REACTORS
330
2A
102
}
330
2A
100
AcDbVisualStyle
  2
Dim
 70
    11
 71
     2
 72
     2
 73
     0
 90
        0
 40
-0.6
 41
-30.0
 62
     5
 63
     7
 74
     1
 91
        4
 64
     7
 65
   257
 75
     1
175
     1
 42
1.0
 92
        8
 66
     7
 43
1.0
 76
     1
 77
     6
 78
     2
 67
     7
 79
     5
170
     0
171
     0
290
     0
174
     0
 93
        1
 44
-50.0
173
     0
291
     1
 45
0.0
1001
ACAD
1000
AcDbSavedByObjectVersion
1070
     0
  0
VISUALSTYLE
  5
39
102
{ACAD_REACTORS
330
2A
102
}
330
2A
100
AcDbVisualStyle
  2
Facepattern
 70
    15
 71
     2
 72
     2
 73
     0
 90
        0
 40
-0.6
 41
-30.0
 62
     5
 63
     7
 74
     1
 91
        4
 64
     7
 65
   257
 75
     1
175
     1
 42
1.0
 92
        8
 66
     7
 43
1.0
 76
     1
 77
     6
 78
     2
 67
     7
 79
     5
170
     0
171
     0
290
     0
174
     0
 93
        1
 44
0.0
173
     0
291
     1
 45
0.0
1001
ACAD
1000
AcDbSavedByObjectVersion
1070
     0
  0
VISUALSTYLE
  5
2B
102
{ACAD_REACTORS
330
2A
102
}
330
2A
100
AcDbVisualStyle
  2
Flat
 70
     0
 71
     2
 72
     1
 73
     1
 90
        2
 40
-0.6
 41
30.0
 62
     5
 63
     7
 74
     0
 91
        4
 64
     7
 65
   257
 75
     1
175
     1
 42
1.0
 92
        8
 66
     7
 43
1.0
 76
     1
 77
     6
 78
     2
 67
     7
 79
     5
170
     0
171
     0
290
     0
174
     0
 93
       13
 44
0.0
173
     0
291
     1
 45
0.0
1001
ACAD
1000
AcDbSavedByObjectVersion
1070
     0
  0
VISUALSTYLE
  5
2C
102
{ACAD_REACTORS
330
2A
102
}
330
2A
100
AcDbVisualStyle
  2
FlatWithEdges
 70
     1
 71
     2
 72
     1
 73
     1
 90
        2
 40
-0.6
 41
30.0
 62
     5
 63
     7
 74
     1
 91
        4
 64
     7
 65
   257
 75
     1
175
     1
 42
1.0
 92
        0
 66
   257
 43
1.0
 76
     1
 77
     6
 78
     2
 67
     7
 79
     5
170
     0
171
     0
290
     0
174
     0
 93
       13
 44
0.0
173
     0
291
     1
 45
0.0
1001
ACAD
1000
AcDbSavedByObjectVersion
1070
     0
  0
VISUALSTYLE
  5
2D
102
{ACAD_REACTORS
330
2A
102
}
330
2A
100
AcDbVisualStyle
  2
Gouraud
 70
     2
 71
     2
 72
     2
 73
     1
 90
        2
 40
-0.6
 41
30.0
 62
     5
 63
     7
 74
     0
 91
        4
 64
     7
 65
   257
 75
     1
175
     1
 42
1.0
 92
        0
 66
     7
 43
1.0
 76
     1
 77
     6
 78
     2
 67
     7
 79
     5
170
     0
171
     0
290
     0
174
     0
 93
       13
 44
0.0
173
     0
291
     1
 45
0.0
1001
ACAD
1000
AcDbSavedByObjectVersion
1070
     0
  0
VISUALSTYLE
  5
2E
102
{ACAD_REACTORS
330
2A
102
}
330
2A
100
AcDbVisualStyle
  2
GouraudWithEdges
 70
     3
 71
     2
 72
     2
 73
     1
 90
        2
 40
-0.6
 41
30.0
 62
     5
 63
     7
 74
     1
 91
        4
 64
     7
 65
   257
 75
     1
175
     1
 42
1.0
 92
        0
 66
   257
 43
1.0
 76
     1
 77
     6
 78
     2
 67
     7
 79
     5
170
     0
171
     0
290
     0
174
     0
 93
       13
 44
0.0
173
     0
291
     1
 45
0.0
1001
ACAD
1000
AcDbSavedByObjectVersion
1070
     0
  0
VISUALSTYLE
  5
38
102
{ACAD_REACTORS
330
2A
102
}
330
2A
100
AcDbVisualStyle
  2
Linepattern
 70
    14
 71
     2
 72
     2
 73
     0
 90
        0
 40
-0.6
 41
-30.0
 62
     5
 63
     7
 74
     1
 91
        4
 64
     7
 65
   257
 75
     7
175
     7
 42
1.0
 92
        8
 66
     7
 43
1.0
 76
     1
 77
     6
 78
     2
 67
     7
 79
     5
170
     0
171
     0
290
     0
174
     0
 93
        1
 44
0.0
173
     0
291
     1
 45
0.0
1001
ACAD
1000
AcDbSavedByObjectVersion
1070
     0
  0
VISUALSTYLE
  5
33
102
{ACAD_REACTORS
330
2A
102
}
330
2A
100
AcDbVisualStyle
  2
Realistic
 70
     8
 71
     2
 72
     2
 73
     0
 90
        0
 40
-0.6
 41
-30.0
 62
     5
 63
     7
 74
     1
 91
        0
 64
     7
 65
   257
 75
     1
175
     1
 42
1.0
 92
        8
 66
     8
 43
1.0
 76
     1
 77
     6
 78
     2
 67
     7
 79
     5
170
     0
171
     0
290
     0
174
     0
 93
       13
 44
0.0
173
     0
291
     0
 45
0.0
1001
ACAD
1000
AcDbSavedByObjectVersion
1070
     0
  0
VISUALSTYLE
  5
37
102
{ACAD_REACTORS
330
2A
102
}
330
2A
100
AcDbVisualStyle
  2
Thicken
 70
    13
 71
     2
 72
     2
 73
     0
 90
        0
 40
-0.6
 41
-30.0
 62
     5
 63
     7
 74
     1
 91
        4
 64
     7
 65
   257
 75
     1
175
     1
 42
1.0
 92
       12
 66
     7
 43
1.0
 76
     1
 77
     6
 78
     2
 67
     7
 79
     5
170
     0
171
     0
290
     0
174
     0
 93
        1
 44
0.0
173
     0
291
     1
 45
0.0
1001
ACAD
1000
AcDbSavedByObjectVersion
1070
     0
  0
DICTIONARYVAR
  5
195
102
{ACAD_REACTORS
330
193
102
}
330
193
100
DictionaryVariables
280
     0
  1
80.000000
  0
DICTIONARYVAR
  5
194
102
{ACAD_REACTORS
330
193
102
}
330
193
100
DictionaryVariables
280
     0
  1
5.000000
  0
ENDSEC
  0
EOF
