  0
SECTION
  2
HEADER
  9
$ACADVER
  1
AC1015
  9
$ACADMAINTVER
 70
     6
  9
$DWGCODEPAGE
  3
ANSI_1252
  9
$INSBASE
 10
0.0
 20
0.0
 30
0.0
  9
$EXTMIN
 10
0.0
 20
0.0
 30
0.0
  9
$EXTMAX
 10
297.0
 20
210.0
 30
0.0
  9
$LIMMIN
 10
0.0
 20
0.0
  9
$LIMMAX
 10
297.0
 20
210.0
  9
$ORTHOMODE
 70
     0
  9
$REGENMODE
 70
     1
  9
$FILLMODE
 70
     1
  9
$QTEXTMODE
 70
     0
  9
$MIRRTEXT
 70
     1
  9
$LTSCALE
 40
1.0
  9
$ATTMODE
 70
     1
  9
$TEXTSIZE
 40
2.0
  9
$TRACEWID
 40
1.0
  9
$TEXTSTYLE
  7
Standard
  9
$CLAYER
  8
0
  9
$CELTYPE
  6
ByLayer
  9
$CECOLOR
 62
   256
  9
$CELTSCALE
 40
1.0
  9
$DISPSILH
 70
     0
  9
$DIMSCALE
 40
1.0
  9
$DIMASZ
 40
3.0
  9
$DIMEXO
 40
0.0
  9
$DIMDLI
 40
3.75
  9
$DIMRND
 40
0.0
  9
$DIMDLE
 40
0.0
  9
$DIMEXE
 40
1.0
  9
$DIMTP
 40
0.0
  9
$DIMTM
 40
0.0
  9
$DIMTXT
 40
2.0
  9
$DIMCEN
 40
2.5
  9
$DIMTSZ
 40
0.0
  9
$DIMTOL
 70
     0
  9
$DIMLIM
 70
     0
  9
$DIMTIH
 70
     1
  9
$DIMTOH
 70
     1
  9
$DIMSE1
 70
     0
  9
$DIMSE2
 70
     0
  9
$DIMTAD
 70
     1
  9
$DIMZIN
 70
     0
  9
$DIMBLK
  1

  9
$DIMASO
 70
     1
  9
$DIMSHO
 70
     1
  9
$DIMPOST
  1

  9
$DIMAPOST
  1

  9
$DIMALT
 70
     0
  9
$DIMALTD
 70
     3
  9
$DIMALTF
 40
0.0393700787
  9
$DIMLFAC
 40
1.0
  9
$DIMTOFL
 70
     1
  9
$DIMTVP
 40
0.0
  9
$DIMTIX
 70
     0
  9
$DIMSOXD
 70
     0
  9
$DIMSAH
 70
     0
  9
$DIMBLK1
  1

  9
$DIMBLK2
  1

  9
$DIMSTYLE
  2
ISO-25
  9
$DIMCLRD
 70
     0
  9
$DIMCLRE
 70
     0
  9
$DIMCLRT
 70
     0
  9
$DIMTFAC
 40
1.0
  9
$DIMGAP
 40
1.524
  9
$DIMJUST
 70
     0
  9
$DIMSD1
 70
     0
  9
$DIMSD2
 70
     0
  9
$DIMTOLJ
 70
     0
  9
$DIMTZIN
 70
     0
  9
$DIMALTZ
 70
     0
  9
$DIMALTTZ
 70
     0
  9
$DIMUPT
 70
     0
  9
$DIMDEC
 70
     2
  9
$DIMTDEC
 70
     3
  9
$DIMALTU
 70
     2
  9
$DIMALTTD
 70
     3
  9
$DIMTXSTY
  7
Standard
  9
$DIMAUNIT
 70
     0
  9
$DIMADEC
 70
     2
  9
$DIMALTRND
 40
0.0
  9
$DIMAZIN
 70
     0
  9
$DIMDSEP
 70
    44
  9
$DIMATFIT
 70
     3
  9
$DIMFRAC
 70
     0
  9
$DIMLDRBLK
  1

  9
$DIMLUNIT
 70
     2
  9
$DIMLWD
 70
    -2
  9
$DIMLWE
 70
    -2
  9
$DIMTMOVE
 70
     0
  9
$LUNITS
 70
     2
  9
$LUPREC
 70
     2
  9
$SKETCHINC
 40
1.0
  9
$FILLETRAD
 40
10.0
  9
$AUNITS
 70
     0
  9
$AUPREC
 70
     2
  9
$MENU
  1
.
  9
$ELEVATION
 40
0.0
  9
$PELEVATION
 40
0.0
  9
$THICKNESS
 40
0.0
  9
$LIMCHECK
 70
     0
  9
$CHAMFERA
 40
10.0
  9
$CHAMFERB
 40
10.0
  9
$CHAMFERC
 40
20.0
  9
$CHAMFERD
 40
0.0
  9
$SKPOLY
 70
     0
  9
$TDCREATE
 40
2456231.466189271
  9
$TDUCREATE
 40
2456231.424522604
  9
$TDUPDATE
 40
2456231.466190347
  9
$TDUUPDATE
 40
2456231.42452368
  9
$TDINDWG
 40
0.0000000116
  9
$TDUSRTIMER
 40
0.0000000116
  9
$USRTIMER
 70
     1
  9
$ANGBASE
 50
0.0
  9
$ANGDIR
 70
     0
  9
$PDMODE
 70
     0
  9
$PDSIZE
 40
-1.0
  9
$PLINEWID
 40
0.0
  9
$SPLFRAME
 70
     0
  9
$SPLINETYPE
 70
     6
  9
$SPLINESEGS
 70
     8
  9
$HANDSEED
  5
18D
  9
$SURFTAB1
 70
     6
  9
$SURFTAB2
 70
     6
  9
$SURFTYPE
 70
     6
  9
$SURFU
 70
     6
  9
$SURFV
 70
     6
  9
$UCSBASE
  2

  9
$UCSNAME
  2

  9
$UCSORG
 10
0.0
 20
0.0
 30
0.0
  9
$UCSXDIR
 10
1.0
 20
0.0
 30
0.0
  9
$UCSYDIR
 10
0.0
 20
1.0
 30
0.0
  9
$UCSORTHOREF
  2

  9
$UCSORTHOVIEW
 70
     0
  9
$UCSORGTOP
 10
0.0
 20
0.0
 30
0.0
  9
$UCSORGBOTTOM
 10
0.0
 20
0.0
 30
0.0
  9
$UCSORGLEFT
 10
0.0
 20
0.0
 30
0.0
  9
$UCSORGRIGHT
 10
0.0
 20
0.0
 30
0.0
  9
$UCSORGFRONT
 10
0.0
 20
0.0
 30
0.0
  9
$UCSORGBACK
 10
0.0
 20
0.0
 30
0.0
  9
$PUCSBASE
  2

  9
$PUCSNAME
  2

  9
$PUCSORG
 10
0.0
 20
0.0
 30
0.0
  9
$PUCSXDIR
 10
1.0
 20
0.0
 30
0.0
  9
$PUCSYDIR
 10
0.0
 20
1.0
 30
0.0
  9
$PUCSORTHOREF
  2

  9
$PUCSORTHOVIEW
 70
     0
  9
$PUCSORGTOP
 10
0.0
 20
0.0
 30
0.0
  9
$PUCSORGBOTTOM
 10
0.0
 20
0.0
 30
0.0
  9
$PUCSORGLEFT
 10
0.0
 20
0.0
 30
0.0
  9
$PUCSORGRIGHT
 10
0.0
 20
0.0
 30
0.0
  9
$PUCSORGFRONT
 10
0.0
 20
0.0
 30
0.0
  9
$PUCSORGBACK
 10
0.0
 20
0.0
 30
0.0
  9
$USERI1
 70
     0
  9
$USERI2
 70
     0
  9
$USERI3
 70
     0
  9
$USERI4
 70
     0
  9
$USERI5
 70
     0
  9
$USERR1
 40
0.0
  9
$USERR2
 40
0.0
  9
$USERR3
 40
0.0
  9
$USERR4
 40
0.0
  9
$USERR5
 40
0.0
  9
$WORLDVIEW
 70
     1
  9
$SHADEDGE
 70
     3
  9
$SHADEDIF
 70
    70
  9
$TILEMODE
 70
     1
  9
$MAXACTVP
 70
    64
  9
$PINSBASE
 10
0.0
 20
0.0
 30
0.0
  9
$PLIMCHECK
 70
     0
  9
$PEXTMIN
 10
1.0000000000E+20
 20
1.0000000000E+20
 30
1.0000000000E+20
  9
$PEXTMAX
 10
-1.0000000000E+20
 20
-1.0000000000E+20
 30
-1.0000000000E+20
  9
$PLIMMIN
 10
0.0
 20
0.0
  9
$PLIMMAX
 10
420.0
 20
297.0
  9
$UNITMODE
 70
     0
  9
$VISRETAIN
 70
     1
  9
$PLINEGEN
 70
     0
  9
$PSLTSCALE
 70
     1
  9
$TREEDEPTH
 70
  3020
  9
$CMLSTYLE
  2
Standard
  9
$CMLJUST
 70
     0
  9
$CMLSCALE
 40
20.0
  9
$PROXYGRAPHICS
 70
     1
  9
$MEASUREMENT
 70
     1
  9
$CELWEIGHT
370
    -1
  9
$ENDCAPS
280
     0
  9
$JOINSTYLE
280
     0
  9
$LWDISPLAY
290
     1
  9
$INSUNITS
 70
     4
  9
$HYPERLINKBASE
  1

  9
$STYLESHEET
  1

  9
$XEDIT
290
     1
  9
$CEPSNTYPE
380
     0
  9
$PSTYLEMODE
290
     1
  9
$FINGERPRINTGUID
  2
{40843CFE-FADB-4D70-9B30-1B3020CDA8A6}
  9
$VERSIONGUID
  2
{FAEB1C32-E019-11D5-929B-00C0DF256EC4}
  9
$EXTNAMES
290
     1
  9
$PSVPSCALE
 40
0.0
  9
$OLESTARTUP
290
     0
  0
ENDSEC
  0
SECTION
  2
CLASSES
  0
CLASS
  1
ACDBDICTIONARYWDFLT
  2
AcDbDictionaryWithDefault
  3
ObjectDBX Classes
 90
        0
280
     0
281
     0
  0
CLASS
  1
VISUALSTYLE
  2
AcDbVisualStyle
  3
ObjectDBX Classes
 90
     4095
280
     0
281
     0
  0
CLASS
  1
MATERIAL
  2
AcDbMaterial
  3
ObjectDBX Classes
 90
     1153
280
     0
281
     0
  0
CLASS
  1
ACDBPLACEHOLDER
  2
AcDbPlaceHolder
  3
ObjectDBX Classes
 90
        0
280
     0
281
     0
  0
CLASS
  1
LAYOUT
  2
AcDbLayout
  3
ObjectDBX Classes
 90
        0
280
     0
281
     0
  0
ENDSEC
  0
SECTION
  2
TABLES
  0
TABLE
  2
VPORT
  5
8
330
0
100
AcDbSymbolTable
 70
     1
  0
VPORT
  5
29
330
8
100
AcDbSymbolTableRecord
100
AcDbViewportTableRecord
  2
*Active
 70
     0
 10
0.0
 20
0.0
 11
1.0
 21
1.0
 12
148.5
 22
105.0
 13
0.0
 23
0.0
 14
10.0
 24
10.0
 15
10.0
 25
10.0
 16
0.0
 26
0.0
 36
1.0
 17
0.0
 27
0.0
 37
0.0
 40
210.0
 41
1.4142857143
 42
50.0
 43
0.0
 44
0.0
 50
0.0
 51
0.0
 71
     0
 72
  2000
 73
     1
 74
     3
 75
     0
 76
     0
 77
     0
 78
     0
281
     0
 65
     1
110
0.0
120
0.0
130
0.0
111
1.0
121
0.0
131
0.0
112
0.0
122
1.0
132
0.0
 79
     0
146
0.0
  0
ENDTAB
  0
TABLE
  2
LTYPE
  5
5
330
0
100
AcDbSymbolTable
 70
     6
  0
LTYPE
  5
14
330
5
100
AcDbSymbolTableRecord
100
AcDbLinetypeTableRecord
  2
ByBlock
 70
     0
  3

 72
    65
 73
     0
 40
0.0
  0
LTYPE
  5
15
330
5
100
AcDbSymbolTableRecord
100
AcDbLinetypeTableRecord
  2
ByLayer
 70
     0
  3

 72
    65
 73
     0
 40
0.0
  0
LTYPE
  5
16
330
5
100
AcDbSymbolTableRecord
100
AcDbLinetypeTableRecord
  2
Continuous
 70
     0
  3
Solid line
 72
    65
 73
     0
 40
0.0
  0
LTYPE
  5
3F
330
5
100
AcDbSymbolTableRecord
100
AcDbLinetypeTableRecord
  2
HIDDEN
 70
     0
  3
Hidden __ __ __ __ __ __ __ __ __ __ __ __ __ __
 72
    65
 73
     2
 40
1.905
 49
1.27
 74
     0
 49
-0.635
 74
     0
  0
LTYPE
  5
40
330
5
100
AcDbSymbolTableRecord
100
AcDbLinetypeTableRecord
  2
PHANTOM
 70
     0
  3
Phantom ______  __  __  ______  __  __  ______
 72
    65
 73
     6
 40
12.7
 49
6.35
 74
     0
 49
-1.27
 74
     0
 49
1.27
 74
     0
 49
-1.27
 74
     0
 49
1.27
 74
     0
 49
-1.27
 74
     0
  0
LTYPE
  5
41
330
5
100
AcDbSymbolTableRecord
100
AcDbLinetypeTableRecord
  2
CENTER
 70
     0
  3
Center ____ _ ____ _ ____ _ ____ _ ____ _ ____
 72
    65
 73
     4
 40
10.16
 49
6.35
 74
     0
 49
-1.27
 74
     0
 49
1.27
 74
     0
 49
-1.27
 74
     0
  0
LTYPE
  5
42
330
5
100
AcDbSymbolTableRecord
100
AcDbLinetypeTableRecord
  2
CENTERX2
 70
     0
  3
Center (2x) ________  __  ________  __  _____
 72
    65
 73
     4
 40
20.32
 49
12.7
 74
     0
 49
-2.54
 74
     0
 49
2.54
 74
     0
 49
-2.54
 74
     0
  0
LTYPE
  5
43
330
5
100
AcDbSymbolTableRecord
100
AcDbLinetypeTableRecord
  2
DOT2
 70
     0
  3
Dot (.5x) ........................................
 72
    65
 73
     2
 40
0.635
 49
0.0
 74
     0
 49
-0.635
 74
     0
  0
ENDTAB
  0
TABLE
  2
LAYER
  5
2
330
0
100
AcDbSymbolTable
 70
     5
  0
LAYER
  5
10
330
2
100
AcDbSymbolTableRecord
100
AcDbLayerTableRecord
  2
0
 70
     0
 62
     7
  6
Continuous
370
    -3
390
F
  0
LAYER
  5
44
330
2
100
AcDbSymbolTableRecord
100
AcDbLayerTableRecord
  2
FORMAT
 70
     0
 62
     7
  6
Continuous
370
    -3
390
F
  0
LAYER
  5
45
330
2
100
AcDbSymbolTableRecord
100
AcDbLayerTableRecord
  2
VERMASSUNG
 70
     0
 62
     7
  6
Continuous
370
    -3
390
F
  0
LAYER
  5
46
330
2
100
AcDbSymbolTableRecord
100
AcDbLayerTableRecord
  2
KOPF_DÜNN
 70
     0
 62
     7
  6
Continuous
370
    -3
390
F
  0
LAYER
  5
47
330
2
100
AcDbSymbolTableRecord
100
AcDbLayerTableRecord
  2
KOPF_DICK
 70
     0
 62
     7
  6
Continuous
370
    15
390
F
  0
ENDTAB
  0
TABLE
  2
STYLE
  5
3
330
0
100
AcDbSymbolTable
 70
     3
  0
STYLE
  5
11
330
3
100
AcDbSymbolTableRecord
100
AcDbTextStyleTableRecord
  2
Standard
 70
     0
 40
0.0
 41
1.0
 50
0.0
 71
     0
 42
2.0
  3
txt
  4

  0
STYLE
  5
48
330
3
100
AcDbSymbolTableRecord
100
AcDbTextStyleTableRecord
  2
SLDTEXTSTYLE0
 70
     0
 40
0.0
 41
0.7
 50
0.0
 71
     0
 42
0.2
  3
TXT
  4

  0
STYLE
  5
4C
330
3
100
AcDbSymbolTableRecord
100
AcDbTextStyleTableRecord
  2
SLDTEXTSTYLE1
 70
     0
 40
0.0
 41
0.6473684211
 50
0.0
 71
     0
 42
0.2
  3
TXT
  4

  0
ENDTAB
  0
TABLE
  2
VIEW
  5
6
330
0
100
AcDbSymbolTable
 70
     0
  0
ENDTAB
  0
TABLE
  2
UCS
  5
7
330
0
100
AcDbSymbolTable
 70
     0
  0
ENDTAB
  0
TABLE
  2
APPID
  5
9
330
0
100
AcDbSymbolTable
 70
     1
  0
APPID
  5
12
330
9
100
AcDbSymbolTableRecord
100
AcDbRegAppTableRecord
  2
ACAD
 70
     0
  0
ENDTAB
  0
TABLE
  2
DIMSTYLE
  5
A
330
0
100
AcDbSymbolTable
 70
     2
100
AcDbDimStyleTable
  0
DIMSTYLE
105
27
330
A
100
AcDbSymbolTableRecord
100
AcDbDimStyleTableRecord
  2
ISO-25
 70
     0
 41
2.5
 42
0.625
 43
3.75
 44
1.25
 73
     0
 74
     0
 77
     1
 78
     8
140
2.5
141
2.5
143
0.0393700787
147
0.625
171
     3
172
     1
178
     0
271
     2
272
     2
274
     3
278
    44
283
     0
284
     8
340
11
  0
DIMSTYLE
105
14B
102
{ACAD_REACTORS
330
14A
330
156
330
161
330
16B
330
175
330
17F
102
}
330
A
100
AcDbSymbolTableRecord
100
AcDbDimStyleTableRecord
  2
SLDDIMSTYLE0
 70
     0
 41
3.0
 44
0.0
 45
0.000000001
 73
     0
 74
     0
 77
     1
 78
    12
 79
     3
140
2.0
147
0.5
173
     1
178
     0
271
     2
272
     3
276
     2
284
    12
340
48
  0
ENDTAB
  0
TABLE
  2
BLOCK_RECORD
  5
1
330
0
100
AcDbSymbolTable
 70
     7
  0
BLOCK_RECORD
  5
1F
330
1
100
AcDbSymbolTableRecord
100
AcDbBlockTableRecord
  2
*Model_Space
340
22
  0
BLOCK_RECORD
  5
1B
330
1
100
AcDbSymbolTableRecord
100
AcDbBlockTableRecord
  2
*Paper_Space
340
1E
  0
BLOCK_RECORD
  5
23
330
1
100
AcDbSymbolTableRecord
100
AcDbBlockTableRecord
  2
*Paper_Space0
340
26
  0
BLOCK_RECORD
  5
14C
330
1
100
AcDbSymbolTableRecord
100
AcDbBlockTableRecord
  2
_D
340
0
  0
BLOCK_RECORD
  5
157
330
1
100
AcDbSymbolTableRecord
100
AcDbBlockTableRecord
  2
_D_1
340
0
  0
BLOCK_RECORD
  5
162
330
1
100
AcDbSymbolTableRecord
100
AcDbBlockTableRecord
  2
_D_2
340
0
  0
BLOCK_RECORD
  5
16C
330
1
100
AcDbSymbolTableRecord
100
AcDbBlockTableRecord
  2
_D_3
340
0
  0
BLOCK_RECORD
  5
176
330
1
100
AcDbSymbolTableRecord
100
AcDbBlockTableRecord
  2
_D_4
340
0
  0
BLOCK_RECORD
  5
180
330
1
100
AcDbSymbolTableRecord
100
AcDbBlockTableRecord
  2
_D_5
340
0
  0
ENDTAB
  0
ENDSEC
  0
SECTION
  2
BLOCKS
  0
BLOCK
  5
20
330
1F
100
AcDbEntity
  8
0
100
AcDbBlockBegin
  2
*Model_Space
 70
     0
 10
0.0
 20
0.0
 30
0.0
  3
*Model_Space
  1

  0
ENDBLK
  5
21
330
1F
100
AcDbEntity
  8
0
100
AcDbBlockEnd
  0
BLOCK
  5
1C
330
1B
100
AcDbEntity
 67
     1
  8
0
100
AcDbBlockBegin
  2
*Paper_Space
 70
     0
 10
0.0
 20
0.0
 30
0.0
  3
*Paper_Space
  1

  0
ENDBLK
  5
1D
330
1B
100
AcDbEntity
 67
     1
  8
0
100
AcDbBlockEnd
  0
BLOCK
  5
24
330
23
100
AcDbEntity
  8
0
100
AcDbBlockBegin
  2
*Paper_Space0
 70
     0
 10
0.0
 20
0.0
 30
0.0
  3
*Paper_Space0
  1

  0
ENDBLK
  5
25
330
23
100
AcDbEntity
  8
0
100
AcDbBlockEnd
  0
BLOCK
  5
14D
330
14C
100
AcDbEntity
  8
0
100
AcDbBlockBegin
  2
_D
 70
     0
 10
0.0
 20
0.0
 30
0.0
  3
_D
  1

  0
SOLID
  5
14F
330
14C
100
AcDbEntity
  8
VERMASSUNG
100
AcDbTrace
 10
243.235761347
 20
121.2384615385
 30
0.0
 11
242.785761347
 21
118.2384615385
 31
0.0
 12
243.685761347
 22
118.2384615385
 32
0.0
 13
243.685761347
 23
118.2384615385
 33
0.0
  0
SOLID
  5
150
330
14C
100
AcDbEntity
  8
VERMASSUNG
100
AcDbTrace
 10
243.235761347
 20
105.2384615385
 30
0.0
 11
243.685761347
 21
108.2384615385
 31
0.0
 12
242.785761347
 22
108.2384615385
 32
0.0
 13
242.785761347
 23
108.2384615385
 33
0.0
  0
LINE
  5
151
330
14C
100
AcDbEntity
  8
VERMASSUNG
100
AcDbLine
 10
232.935761347
 20
121.2384615385
 30
0.0
 11
244.235761347
 21
121.2384615385
 31
0.0
  0
LINE
  5
152
330
14C
100
AcDbEntity
  8
VERMASSUNG
100
AcDbLine
 10
232.935761347
 20
105.2384615385
 30
0.0
 11
244.235761347
 21
105.2384615385
 31
0.0
  0
LINE
  5
153
330
14C
100
AcDbEntity
  8
VERMASSUNG
100
AcDbLine
 10
243.235761347
 20
121.2384615385
 30
0.0
 11
243.235761347
 21
105.2384615385
 31
0.0
  0
MTEXT
  5
154
330
14C
100
AcDbEntity
  8
VERMASSUNG
100
AcDbMText
 10
240.6576258674
 20
110.2351627102
 30
0.0
 40
2.0
 41
0.0
 71
     1
 72
     1
  1
%%c
  7
SLDTEXTSTYLE0
 11
-7.044195017643634E-15
 21
1.0
 31
0.0
 73
     1
 44
1.0
  0
MTEXT
  5
155
330
14C
100
AcDbEntity
  8
VERMASSUNG
100
AcDbMText
 10
240.6576259838
 20
113.8419952743
 30
0.0
 40
2.0
 41
0.0
 71
     1
 72
     1
  1
16
  7
SLDTEXTSTYLE0
 11
-7.044195017643634E-15
 21
1.0
 31
0.0
 73
     1
 44
1.0
  0
ENDBLK
  5
14E
330
14C
100
AcDbEntity
  8
0
100
AcDbBlockEnd
  0
BLOCK
  5
158
330
157
100
AcDbEntity
  8
0
100
AcDbBlockBegin
  2
_D_1
 70
     0
 10
0.0
 20
0.0
 30
0.0
  3
_D_1
  1

  0
SOLID
  5
15A
330
157
100
AcDbEntity
  8
VERMASSUNG
100
AcDbTrace
 10
249.235761347
 20
137.2384615385
 30
0.0
 11
248.785761347
 21
134.2384615385
 31
0.0
 12
249.685761347
 22
134.2384615385
 32
0.0
 13
249.685761347
 23
134.2384615385
 33
0.0
  0
SOLID
  5
15B
330
157
100
AcDbEntity
  8
VERMASSUNG
100
AcDbTrace
 10
249.235761347
 20
89.2384615385
 30
0.0
 11
249.685761347
 21
92.2384615385
 31
0.0
 12
248.785761347
 22
92.2384615385
 32
0.0
 13
248.785761347
 23
92.2384615385
 33
0.0
  0
LINE
  5
15C
330
157
100
AcDbEntity
  8
VERMASSUNG
100
AcDbLine
 10
220.3687198239
 20
137.2384615385
 30
0.0
 11
250.235761347
 21
137.2384615385
 31
0.0
  0
LINE
  5
15D
330
157
100
AcDbEntity
  8
VERMASSUNG
100
AcDbLine
 10
220.3687198239
 20
89.2384615385
 30
0.0
 11
250.235761347
 21
89.2384615385
 31
0.0
  0
LINE
  5
15E
330
157
100
AcDbEntity
  8
VERMASSUNG
100
AcDbLine
 10
249.235761347
 20
137.2384615385
 30
0.0
 11
249.235761347
 21
89.2384615385
 31
0.0
  0
MTEXT
  5
15F
330
157
100
AcDbEntity
  8
VERMASSUNG
100
AcDbMText
 10
246.6576258674
 20
109.9351920736
 30
0.0
 40
2.0
 41
0.0
 71
     1
 72
     1
  1
%%c
  7
SLDTEXTSTYLE0
 11
-7.044195017643634E-15
 21
1.0
 31
0.0
 73
     1
 44
1.0
  0
MTEXT
  5
160
330
157
100
AcDbEntity
  8
VERMASSUNG
100
AcDbMText
 10
246.6576259838
 20
113.5420246377
 30
0.0
 40
2.0
 41
0.0
 71
     1
 72
     1
  1
48
  7
SLDTEXTSTYLE0
 11
-7.044195017643634E-15
 21
1.0
 31
0.0
 73
     1
 44
1.0
  0
ENDBLK
  5
159
330
157
100
AcDbEntity
  8
0
100
AcDbBlockEnd
  0
BLOCK
  5
163
330
162
100
AcDbEntity
  8
0
100
AcDbBlockBegin
  2
_D_2
 70
     0
 10
0.0
 20
0.0
 30
0.0
  3
_D_2
  1

  0
SOLID
  5
165
330
162
100
AcDbEntity
  8
VERMASSUNG
100
AcDbTrace
 10
129.185761347
 20
147.3526543879
 30
0.0
 11
132.185761347
 21
146.9026543879
 31
0.0
 12
132.185761347
 22
147.8026543879
 32
0.0
 13
132.185761347
 23
147.8026543879
 33
0.0
  0
SOLID
  5
166
330
162
100
AcDbEntity
  8
VERMASSUNG
100
AcDbTrace
 10
233.235761347
 20
147.3526543879
 30
0.0
 11
230.235761347
 21
147.8026543879
 31
0.0
 12
230.235761347
 22
146.9026543879
 32
0.0
 13
230.235761347
 23
146.9026543879
 33
0.0
  0
LINE
  5
167
330
162
100
AcDbEntity
  8
VERMASSUNG
100
AcDbLine
 10
129.185761347
 20
143.0849018622
 30
0.0
 11
129.185761347
 21
148.3526543879
 31
0.0
  0
LINE
  5
168
330
162
100
AcDbEntity
  8
VERMASSUNG
100
AcDbLine
 10
233.235761347
 20
129.9643210168
 30
0.0
 11
233.235761347
 21
148.3526543879
 31
0.0
  0
LINE
  5
169
330
162
100
AcDbEntity
  8
VERMASSUNG
100
AcDbLine
 10
129.185761347
 20
147.3526543879
 30
0.0
 11
233.235761347
 21
147.3526543879
 31
0.0
  0
MTEXT
  5
16A
330
162
100
AcDbEntity
  8
VERMASSUNG
100
AcDbMText
 10
177.5123209837
 20
149.930789751
 30
0.0
 40
2.0
 41
0.0
 71
     1
 72
     1
  1
104.05
  7
SLDTEXTSTYLE0
 73
     1
 44
1.0
  0
ENDBLK
  5
164
330
162
100
AcDbEntity
  8
0
100
AcDbBlockEnd
  0
BLOCK
  5
16D
330
16C
100
AcDbEntity
  8
0
100
AcDbBlockBegin
  2
_D_3
 70
     0
 10
0.0
 20
0.0
 30
0.0
  3
_D_3
  1

  0
SOLID
  5
16F
330
16C
100
AcDbEntity
  8
VERMASSUNG
100
AcDbTrace
 10
103.235761347
 20
153.3526543879
 30
0.0
 11
106.235761347
 21
152.9026543879
 31
0.0
 12
106.235761347
 22
153.8026543879
 32
0.0
 13
106.235761347
 23
153.8026543879
 33
0.0
  0
SOLID
  5
170
330
16C
100
AcDbEntity
  8
VERMASSUNG
100
AcDbTrace
 10
233.235761347
 20
153.3526543879
 30
0.0
 11
230.235761347
 21
153.8026543879
 31
0.0
 12
230.235761347
 22
152.9026543879
 32
0.0
 13
230.235761347
 23
152.9026543879
 33
0.0
  0
LINE
  5
171
330
16C
100
AcDbEntity
  8
VERMASSUNG
100
AcDbLine
 10
103.235761347
 20
144.4384615385
 30
0.0
 11
103.235761347
 21
154.3526543879
 31
0.0
  0
LINE
  5
172
330
16C
100
AcDbEntity
  8
VERMASSUNG
100
AcDbLine
 10
233.235761347
 20
129.9643210168
 30
0.0
 11
233.235761347
 21
154.3526543879
 31
0.0
  0
LINE
  5
173
330
16C
100
AcDbEntity
  8
VERMASSUNG
100
AcDbLine
 10
103.235761347
 20
153.3526543879
 30
0.0
 11
233.235761347
 21
153.3526543879
 31
0.0
  0
MTEXT
  5
174
330
16C
100
AcDbEntity
  8
VERMASSUNG
100
AcDbMText
 10
166.337144803
 20
155.930789751
 30
0.0
 40
2.0
 41
0.0
 71
     1
 72
     1
  1
130
  7
SLDTEXTSTYLE0
 73
     1
 44
1.0
  0
ENDBLK
  5
16E
330
16C
100
AcDbEntity
  8
0
100
AcDbBlockEnd
  0
BLOCK
  5
177
330
176
100
AcDbEntity
  8
0
100
AcDbBlockBegin
  2
_D_4
 70
     0
 10
0.0
 20
0.0
 30
0.0
  3
_D_4
  1

  0
SOLID
  5
179
330
176
100
AcDbEntity
  8
VERMASSUNG
100
AcDbTrace
 10
71.335761347
 20
159.3526543879
 30
0.0
 11
74.335761347
 21
158.9026543879
 31
0.0
 12
74.335761347
 22
159.8026543879
 32
0.0
 13
74.335761347
 23
159.8026543879
 33
0.0
  0
SOLID
  5
17A
330
176
100
AcDbEntity
  8
VERMASSUNG
100
AcDbTrace
 10
233.235761347
 20
159.3526543879
 30
0.0
 11
230.235761347
 21
159.8026543879
 31
0.0
 12
230.235761347
 22
158.9026543879
 32
0.0
 13
230.235761347
 23
158.9026543879
 33
0.0
  0
LINE
  5
17B
330
176
100
AcDbEntity
  8
VERMASSUNG
100
AcDbLine
 10
71.335761347
 20
132.9291392849
 30
0.0
 11
71.335761347
 21
160.3526543879
 31
0.0
  0
LINE
  5
17C
330
176
100
AcDbEntity
  8
VERMASSUNG
100
AcDbLine
 10
233.235761347
 20
129.9643210168
 30
0.0
 11
233.235761347
 21
160.3526543879
 31
0.0
  0
LINE
  5
17D
330
176
100
AcDbEntity
  8
VERMASSUNG
100
AcDbLine
 10
71.335761347
 20
159.3526543879
 30
0.0
 11
233.235761347
 21
159.3526543879
 31
0.0
  0
MTEXT
  5
17E
330
176
100
AcDbEntity
  8
VERMASSUNG
100
AcDbMText
 10
149.5860256179
 20
161.930789751
 30
0.0
 40
2.0
 41
0.0
 71
     1
 72
     1
  1
161.9
  7
SLDTEXTSTYLE0
 73
     1
 44
1.0
  0
ENDBLK
  5
178
330
176
100
AcDbEntity
  8
0
100
AcDbBlockEnd
  0
BLOCK
  5
181
330
180
100
AcDbEntity
  8
0
100
AcDbBlockBegin
  2
_D_5
 70
     0
 10
0.0
 20
0.0
 30
0.0
  3
_D_5
  1

  0
SOLID
  5
183
330
180
100
AcDbEntity
  8
VERMASSUNG
100
AcDbTrace
 10
64.4908992416
 20
144.7384615385
 30
0.0
 11
64.0408992416
 21
141.7384615385
 31
0.0
 12
64.9408992416
 22
141.7384615385
 32
0.0
 13
64.9408992416
 23
141.7384615385
 33
0.0
  0
SOLID
  5
184
330
180
100
AcDbEntity
  8
VERMASSUNG
100
AcDbTrace
 10
64.4908992416
 20
81.7384615385
 30
0.0
 11
64.9408992416
 21
84.7384615385
 31
0.0
 12
64.0408992416
 22
84.7384615385
 32
0.0
 13
64.0408992416
 23
84.7384615385
 33
0.0
  0
LINE
  5
185
330
180
100
AcDbEntity
  8
VERMASSUNG
100
AcDbLine
 10
103.535761347
 20
144.7384615385
 30
0.0
 11
63.4908992416
 21
144.7384615385
 31
0.0
  0
LINE
  5
186
330
180
100
AcDbEntity
  8
VERMASSUNG
100
AcDbLine
 10
103.535761347
 20
81.7384615385
 30
0.0
 11
63.4908992416
 21
81.7384615385
 31
0.0
  0
LINE
  5
187
330
180
100
AcDbEntity
  8
VERMASSUNG
100
AcDbLine
 10
64.4908992416
 20
144.7384615385
 30
0.0
 11
64.4908992416
 21
81.7384615385
 31
0.0
  0
MTEXT
  5
188
330
180
100
AcDbEntity
  8
VERMASSUNG
100
AcDbMText
 10
61.7127637526
 20
105.5344252499
 30
0.0
 40
2.0
 41
0.0
 71
     1
 72
     1
  1
HSK A
  7
SLDTEXTSTYLE0
 11
-7.044195017643634E-15
 21
1.0
 31
0.0
 73
     1
 44
1.0
  0
MTEXT
  5
189
330
180
100
AcDbEntity
  8
VERMASSUNG
100
AcDbMText
 10
61.9127637621
 20
114.5344257938
 30
0.0
 40
2.0
 41
0.0
 71
     1
 72
     1
  1
%%c
  7
SLDTEXTSTYLE0
 11
-7.044195017643634E-15
 21
1.0
 31
0.0
 73
     1
 44
1.0
  0
MTEXT
  5
18A
330
180
100
AcDbEntity
  8
VERMASSUNG
100
AcDbMText
 10
61.9127638785
 20
118.1439693734
 30
0.0
 40
2.0
 41
0.0
 71
     1
 72
     1
  1
63
  7
SLDTEXTSTYLE0
 11
-7.044195017643634E-15
 21
1.0
 31
0.0
 73
     1
 44
1.0
  0
ENDBLK
  5
182
330
180
100
AcDbEntity
  8
0
100
AcDbBlockEnd
  0
ENDSEC
  0
SECTION
  2
ENTITIES
  0
MTEXT
  5
49
330
1F
100
AcDbEntity
  8
KOPF_DÜNN
100
AcDbMText
 10
13.8892156294
 20
23.8442973028
 30
0.0
 40
3.0
 41
0.0
 71
     1
 72
     1
  1
HA6.W16.K01.130
  7
SLDTEXTSTYLE0
 73
     1
 44
1.0
  0
MTEXT
  5
4A
330
1F
100
AcDbEntity
  8
VERMASSUNG
100
AcDbMText
 10
13.9329988022
 20
28.8834360957
 30
0.0
 40
3.0
 41
0.0
 71
     1
 72
     1
  1
Flächenspannfutter_End mill adapter Weldon ø16
  7
SLDTEXTSTYLE0
 73
     1
 44
1.0
  0
MTEXT
  5
4B
330
1F
100
AcDbEntity
  8
VERMASSUNG
100
AcDbMText
 10
98.8601118557
 20
13.8365368179
 30
0.0
 40
2.0
 41
0.0
 71
     1
 72
     1
  1
Datum: 20.04.2011
  7
SLDTEXTSTYLE0
 73
     1
 44
1.0
  0
MTEXT
  5
4D
330
1F
100
AcDbEntity
  8
VERMASSUNG
100
AcDbMText
 10
13.933048693
 20
18.0482802738
 30
0.0
 40
2.0
 41
0.0
 71
     1
 72
     1
  1
DIN 69 893 HSK A 63
  7
SLDTEXTSTYLE1
 73
     1
 44
1.0
  0
MTEXT
  5
4E
330
1F
100
AcDbEntity
  8
VERMASSUNG
100
AcDbMText
 10
13.9808475933
 20
13.9090973692
 30
0.0
 40
2.0
 41
0.0
 71
     1
 72
     1
  1
Gewicht: 1981g
  7
SLDTEXTSTYLE0
 73
     1
 44
1.0
  0
LINE
  5
4F
330
1F
100
AcDbEntity
  8
0
  6
Continuous
 62
     7
370
    15
100
AcDbLine
 10
103.535761347
 20
81.7384615385
 30
0.0
 11
108.185761347
 21
81.7384615385
 31
0.0
  0
LINE
  5
50
330
1F
100
AcDbEntity
  8
0
  6
Continuous
 62
     7
370
    15
100
AcDbLine
 10
108.213749706
 20
144.7384615385
 30
0.0
 11
103.535761347
 21
144.7384615385
 31
0.0
  0
ARC
  5
51
330
1F
100
AcDbEntity
  8
0
  6
Continuous
 62
     7
370
    15
100
AcDbCircle
 10
103.535761347
 20
82.0384615385
 30
0.0
 40
0.3000000000000114
100
AcDbArc
 50
180.0
 51
270.0
  0
ARC
  5
52
330
1F
100
AcDbEntity
  8
0
  6
Continuous
 62
     7
370
    15
100
AcDbCircle
 10
103.535761347
 20
144.4384615385
 30
0.0
 40
0.3000000000000114
100
AcDbArc
 50
90.0
 51
180.0
  0
ARC
  5
53
330
1F
100
AcDbEntity
  8
0
  6
Continuous
 62
     7
370
    15
100
AcDbCircle
 10
131.185761347
 20
86.187952193
 30
0.0
 40
2.000000000000019
100
AcDbArc
 50
94.8123490719
 51
160.9900915671
  0
ARC
  5
54
330
1F
100
AcDbEntity
  8
0
  6
Continuous
 62
     7
370
    15
100
AcDbCircle
 10
131.185761347
 20
140.2889708839
 30
0.0
 40
2.000000000000019
100
AcDbArc
 50
198.7098898235
 51
265.1876509281
  0
ARC
  5
55
330
1F
100
AcDbEntity
  8
0
  6
Continuous
 62
     7
370
    15
100
AcDbCircle
 10
156.185761347
 20
-210.7615384615
 30
0.0
 40
300.0
100
AcDbArc
 50
90.0
 51
94.8123490719
  0
ARC
  5
56
330
1F
100
AcDbEntity
  8
0
  6
Continuous
 62
     7
370
    15
100
AcDbCircle
 10
156.185761347
 20
437.2384615385
 30
0.0
 40
300.0
100
AcDbArc
 50
265.1876509281
 51
270.0
  0
ARC
  5
57
330
1F
100
AcDbEntity
  8
0
  6
Continuous
 62
     7
370
    15
100
AcDbCircle
 10
102.7357545943
 20
88.6680239241
 30
0.0
 40
0.6000067526677242
100
AcDbArc
 50
33.5571153394
 51
90.0
  0
ARC
  5
58
330
1F
100
AcDbEntity
  8
0
  6
Continuous
 62
     7
370
    15
100
AcDbCircle
 10
102.7357545943
 20
137.8088991529
 30
0.0
 40
0.6000067526677242
100
AcDbArc
 50
270.0
 51
326.4428846606
  0
LINE
  5
59
330
1F
100
AcDbEntity
  8
0
  6
Continuous
 62
     7
370
    15
100
AcDbLine
 10
90.0053391645
 20
136.8962459983
 30
0.0
 11
77.435761347
 21
136.2665076306
 31
0.0
  0
LINE
  5
5A
330
1F
100
AcDbEntity
  8
0
  6
Continuous
 62
     7
370
    15
100
AcDbLine
 10
101.235761347
 20
137.4588924002
 30
0.0
 11
98.4171519894
 21
137.3176795065
 31
0.0
  0
LINE
  5
5B
330
1F
100
AcDbEntity
  8
0
  6
Continuous
 62
     7
370
    15
100
AcDbLine
 10
98.4173734646
 20
89.1592324745
 30
0.0
 11
101.235761347
 21
89.0180306767
 31
0.0
  0
LINE
  5
5C
330
1F
100
AcDbEntity
  8
0
  6
Continuous
 62
     7
370
    15
100
AcDbLine
 10
81.435761347
 20
90.0100146447
 30
0.0
 11
90.0060381162
 21
89.580642061
 31
0.0
  0
LINE
  5
5D
330
1F
100
AcDbEntity
  8
0
  6
Continuous
 62
     7
370
    15
100
AcDbLine
 10
101.235761347
 20
89.0180306767
 30
0.0
 11
102.0924741203
 21
89.2475861725
 31
0.0
  0
LINE
  5
5E
330
1F
100
AcDbEntity
  8
0
  6
Continuous
 62
     7
370
    15
100
AcDbLine
 10
102.0924741203
 20
137.2293369044
 30
0.0
 11
101.235761347
 21
137.4588924002
 31
0.0
  0
LINE
  5
5F
330
1F
100
AcDbEntity
  8
0
  6
Continuous
 62
     7
370
    15
100
AcDbLine
 10
156.185761347
 20
89.2384615385
 30
0.0
 11
220.3687198239
 21
89.2384615385
 31
0.0
  0
LINE
  5
60
330
1F
100
AcDbEntity
  8
0
  6
Continuous
 62
     7
370
    15
100
AcDbLine
 10
220.3687198239
 20
137.2384615385
 30
0.0
 11
156.185761347
 21
137.2384615385
 31
0.0
  0
LINE
  5
61
330
1F
100
AcDbEntity
  8
0
  6
Continuous
 62
     7
370
    15
100
AcDbLine
 10
220.3687198239
 20
89.2384615385
 30
0.0
 11
232.0809978704
 21
94.699986486
 31
0.0
  0
LINE
  5
62
330
1F
100
AcDbEntity
  8
0
  6
Continuous
 62
     7
370
    15
100
AcDbLine
 10
232.0809978704
 20
131.7769365909
 30
0.0
 11
220.3687198239
 21
137.2384615385
 31
0.0
  0
ARC
  5
63
330
1F
100
AcDbEntity
  8
0
  6
Continuous
 62
     7
370
    15
100
AcDbCircle
 10
102.2477655474
 20
88.6680306767
 30
0.0
 40
0.6000000000000085
100
AcDbArc
 50
90.0
 51
105.0
  0
ARC
  5
64
330
1F
100
AcDbEntity
  8
0
  6
Continuous
 62
     7
370
    15
100
AcDbCircle
 10
102.2477655474
 20
137.8088924002
 30
0.0
 40
0.6000000000000227
100
AcDbArc
 50
255.0
 51
270.0
  0
LINE
  5
65
330
1F
100
AcDbEntity
  8
0
  6
Continuous
 62
     7
370
    15
100
AcDbLine
 10
102.2477655474
 20
89.2680306767
 30
0.0
 11
102.7357545943
 21
89.2680306767
 31
0.0
  0
LINE
  5
66
330
1F
100
AcDbEntity
  8
0
  6
Continuous
 62
     7
370
    15
100
AcDbLine
 10
102.7357545943
 20
137.2088924002
 30
0.0
 11
102.2477655474
 21
137.2088924002
 31
0.0
  0
ARC
  5
67
330
1F
100
AcDbEntity
  8
0
  6
Continuous
 62
     7
370
    15
100
AcDbCircle
 10
231.235761347
 20
96.5126020601
 30
0.0
 40
2.000000000000001
100
AcDbArc
 50
295.0
 51
0.0
  0
ARC
  5
68
330
1F
100
AcDbEntity
  8
0
  6
Continuous
 62
     7
370
    15
100
AcDbCircle
 10
231.235761347
 20
129.9643210168
 30
0.0
 40
2.000000000000001
100
AcDbArc
 50
0.0
 51
65.0
  0
LINE
  5
69
330
1F
100
AcDbEntity
  8
0
  6
Continuous
 62
     7
370
    15
100
AcDbLine
 10
72.6190979869
 20
92.3684615385
 30
0.0
 11
80.035761347
 21
92.3684615385
 31
0.0
  0
ARC
  5
6A
330
1F
100
AcDbEntity
  8
0
  6
Continuous
 62
     7
370
    15
100
AcDbCircle
 10
80.035761347
 20
90.9684615385
 30
0.0
 40
1.399999999999997
100
AcDbArc
 50
42.2465410162
 51
90.0
  0
LINE
  5
6B
330
1F
100
AcDbEntity
  8
0
  6
Continuous
 62
     7
370
    15
100
AcDbLine
 10
71.3367938411
 20
93.5174290443
 30
0.0
 11
72.4769248051
 21
92.3772980803
 31
0.0
  0
LINE
  5
6C
330
1F
100
AcDbEntity
  8
0
  6
Continuous
 62
     7
370
    15
100
AcDbLine
 10
72.4769248051
 20
134.0996249966
 30
0.0
 11
71.3456621203
 21
132.9683623118
 31
0.0
  0
ARC
  5
6D
330
1F
100
AcDbEntity
  8
0
  6
Continuous
 62
     7
370
    15
100
AcDbCircle
 10
76.035761347
 20
135.5084615385
 30
0.0
 40
1.399999999999984
100
AcDbArc
 50
270.0
 51
301.7485287426
  0
LINE
  5
6E
330
1F
100
AcDbEntity
  8
0
  6
Continuous
 62
     7
370
    15
100
AcDbLine
 10
76.035761347
 20
134.1084615385
 30
0.0
 11
72.6100270808
 21
134.1084615385
 31
0.0
  0
ARC
  5
6F
330
1F
100
AcDbEntity
  8
0
  6
Continuous
 62
     7
370
    15
100
AcDbCircle
 10
209.735761347
 20
113.2384615385
 30
0.0
 40
6.000000000002246
100
AcDbArc
 50
352.8267459968
 51
111.9262314796
  0
ARC
  5
70
330
1F
100
AcDbEntity
  8
0
  6
Continuous
 62
     7
370
    15
100
AcDbCircle
 10
209.735761347
 20
113.2384615385
 30
0.0
 40
6.000000000000004
100
AcDbArc
 50
248.1667758049
 51
352.8267459968
  0
LINE
  5
71
330
1F
100
AcDbEntity
  8
0
  6
Continuous
 62
     7
370
    15
100
AcDbLine
 10
208.3918774141
 20
116.431262186
 30
0.0
 11
206.2987729105
 21
113.6710242367
 31
0.0
  0
LINE
  5
72
330
1F
100
AcDbEntity
  8
0
  6
Continuous
 62
     7
370
    15
100
AcDbLine
 10
211.8288658505
 20
115.9986994878
 30
0.0
 11
213.1727497834
 21
112.8058988403
 31
0.0
  0
LINE
  5
73
330
1F
100
AcDbEntity
  8
0
  6
Continuous
 62
     7
370
    15
100
AcDbLine
 10
211.8288658505
 20
115.9986994878
 30
0.0
 11
208.3918774141
 21
116.431262186
 31
0.0
  0
LINE
  5
74
330
1F
100
AcDbEntity
  8
0
  6
Continuous
 62
     7
370
    15
100
AcDbLine
 10
211.0796452798
 20
110.0456608909
 30
0.0
 11
207.6426568434
 21
110.4782235891
 31
0.0
  0
LINE
  5
75
330
1F
100
AcDbEntity
  8
0
  6
Continuous
 62
     7
370
    15
100
AcDbLine
 10
211.0796452798
 20
110.0456608909
 30
0.0
 11
213.1727497834
 21
112.8058988403
 31
0.0
  0
LINE
  5
76
330
1F
100
AcDbEntity
  8
0
  6
Continuous
 62
     7
370
    15
100
AcDbLine
 10
207.6426568434
 20
110.4782235891
 30
0.0
 11
206.2987729105
 21
113.6710242367
 31
0.0
  0
LINE
  5
77
330
1F
100
AcDbEntity
  8
0
  6
Continuous
 62
     7
370
    15
100
AcDbLine
 10
108.185761347
 20
133.0884615385
 30
0.0
 11
117.8438285155
 21
133.0884615385
 31
0.0
  0
LINE
  5
78
330
1F
100
AcDbEntity
  8
0
  6
Continuous
 62
     7
370
    15
100
AcDbLine
 10
117.8438285155
 20
83.0515438422
 30
0.0
 11
117.8438285155
 21
133.0884615385
 31
0.0
  0
LINE
  5
79
330
1F
100
AcDbEntity
  8
0
  6
Continuous
 62
     7
370
    15
100
AcDbLine
 10
117.8438285155
 20
83.0515438422
 30
0.0
 11
116.185761347
 21
83.0515438422
 31
0.0
  0
SPLINE
  5
7A
330
1F
100
AcDbEntity
  8
0
  6
Continuous
 62
     7
370
    15
100
AcDbSpline
210
0.0
220
0.0
230
1.0
 70
     8
 71
     3
 72
    28
 73
    24
 74
     0
 42
0.00000001
 43
0.00000001
 12
1.0
 22
0.0
 32
0.0
 13
1.0
 23
0.0
 33
0.0
 40
0.0
 40
0.0
 40
0.0
 40
0.0
 40
0.1250000000000001
 40
0.1250000000000001
 40
0.1875000000000001
 40
0.1875000000000001
 40
0.2500000000000001
 40
0.2500000000000001
 40
0.3749999999999999
 40
0.3749999999999999
 40
0.4375
 40
0.4375
 40
0.4999999999999999
 40
0.4999999999999999
 40
0.6249999999999999
 40
0.6249999999999999
 40
0.7499999999999997
 40
0.7499999999999997
 40
0.8124999999999998
 40
0.8124999999999998
 40
0.8749999999999998
 40
0.8749999999999998
 40
1.0
 40
1.0
 40
1.0
 40
1.0
 10
116.1857613469562
 20
83.05154384221439
 30
0.0
 10
115.6540535894633
 20
83.05154384221439
 30
0.0
 10
115.1318150241529
 20
83.03575912826417
 30
0.0
 10
114.3619445378779
 20
82.99076371418798
 30
0.0
 10
114.1075849656866
 20
82.97220871911223
 30
0.0
 10
113.6034633849881
 20
82.92835599666573
 30
0.0
 10
113.3537405675602
 20
82.90301138971354
 30
0.0
 10
112.6281506161138
 20
82.81960931196345
 30
0.0
 10
112.1697903545322
 20
82.75374375281235
 30
0.0
 10
111.5192924111383
 20
82.64477341232056
 30
0.0
 10
111.3076103603459
 20
82.60653377655392
 30
0.0
 10
110.9035388712079
 20
82.52877503913456
 30
0.0
 10
110.711032357387
 20
82.48927407695919
 30
0.0
 10
110.1611973863657
 20
82.3703663345932
 30
0.0
 10
109.8312686080569
 20
82.2905486531686
 30
0.0
 10
109.2467973394882
 20
82.13720549137253
 30
0.0
 10
109.0005202014748
 20
82.06587173810328
 30
0.0
 10
108.7006774087767
 20
81.97192823102866
 30
0.0
 10
108.6122205517046
 20
81.94273443766872
 30
0.0
 10
108.4588591983994
 20
81.88926786340531
 30
0.0
 10
108.3937709841732
 20
81.86490852913013
 30
0.0
 10
108.2381769682324
 20
81.8013183836854
 30
0.0
 10
108.1857613469562
 20
81.77121544859614
 30
0.0
 10
108.1857613469562
 20
81.75433855559922
 30
0.0
  0
LINE
  5
7B
330
1F
100
AcDbEntity
  8
0
  6
Continuous
 62
     7
370
    15
100
AcDbLine
 10
108.185761347
 20
81.7543385556
 30
0.0
 11
108.185761347
 21
81.7384615385
 31
0.0
  0
SPLINE
  5
7C
330
1F
100
AcDbEntity
  8
0
  6
Continuous
 62
     7
370
    15
100
AcDbSpline
210
0.0
220
0.0
230
1.0
 70
     8
 71
     3
 72
    17
 73
    13
 74
     0
 42
0.00000001
 43
0.00000001
 12
1.0
 22
0.0
 32
0.0
 13
1.0
 23
0.0
 33
0.0
 40
0.0
 40
0.0
 40
0.0
 40
0.0
 40
0.1034796923964056
 40
0.210023918880785
 40
0.3134862136955583
 40
0.4198361274354882
 40
0.5254127712915682
 40
0.633961069541979
 40
0.7409508756305031
 40
0.8511696089308174
 40
0.9558996534551937
 40
1.0
 40
1.0
 40
1.0
 40
1.0
 10
116.1857613469562
 20
143.7056570116258
 30
0.0
 10
115.7505129978462
 20
143.7111052081591
 30
0.0
 10
114.8671264912812
 20
143.722162948671
 30
0.0
 10
113.5862989060525
 20
143.8085213415725
 30
0.0
 10
112.3688823701785
 20
143.9363915181103
 30
0.0
 10
111.2610765179319
 20
144.0953368167035
 30
0.0
 10
110.2728377139837
 20
144.269830504419
 30
0.0
 10
109.4481141564522
 20
144.4389963550589
 30
0.0
 10
108.7991606557929
 20
144.5868801375873
 30
0.0
 10
108.3821258403312
 20
144.688670721818
 30
0.0
 10
108.1835291273666
 20
144.7390222444212
 30
0.0
 10
108.2068418487999
 20
144.7331165601988
 30
0.0
 10
108.2137497060374
 20
144.7313666305042
 30
0.0
  0
LINE
  5
7D
330
1F
100
AcDbEntity
  8
0
  6
Continuous
 62
     7
370
    15
100
AcDbLine
 10
117.8438285155
 20
143.7056570116
 30
0.0
 11
116.185761347
 21
143.7056570116
 31
0.0
  0
LINE
  5
7E
330
1F
100
AcDbEntity
  8
0
  6
Continuous
 62
     7
370
    15
100
AcDbLine
 10
117.8438285155
 20
137.6971512008
 30
0.0
 11
117.8438285155
 21
143.7056570116
 31
0.0
  0
LINE
  5
7F
330
1F
100
AcDbEntity
  8
0
  6
Continuous
 62
     7
370
    15
100
AcDbLine
 10
115.4313816926
 20
137.6971512008
 30
0.0
 11
117.8438285155
 21
137.6971512008
 31
0.0
  0
SPLINE
  5
80
330
1F
100
AcDbEntity
  8
0
  6
Continuous
 62
     7
370
    15
100
AcDbSpline
210
0.0
220
0.0
230
1.0
 70
     8
 71
     3
 72
    20
 73
    16
 74
     0
 42
0.00000001
 43
0.00000001
 12
1.0
 22
0.0
 32
0.0
 13
1.0
 23
0.0
 33
0.0
 40
0.0
 40
0.0
 40
0.0
 40
0.0
 40
0.2499999999999997
 40
0.2499999999999997
 40
0.3749999999999997
 40
0.3749999999999997
 40
0.4999999999999998
 40
0.4999999999999998
 40
0.6249999999999998
 40
0.6249999999999998
 40
0.7499999999999999
 40
0.7499999999999999
 40
0.8749999999999999
 40
0.8749999999999999
 40
1.0
 40
1.0
 40
1.0
 40
1.0
 10
108.1857613469562
 20
133.0884615384616
 30
0.0
 10
108.4341350812443
 20
133.742323966759
 30
0.0
 10
108.7537051735895
 20
134.3461097487561
 30
0.0
 10
109.3760114067942
 20
135.1729484849247
 30
0.0
 10
109.607435667225
 20
135.4353771228776
 30
0.0
 10
110.1286500068747
 20
135.9320397769826
 30
0.0
 10
110.4152704895098
 20
136.1626266560041
 30
0.0
 10
111.0347552308174
 20
136.5791808805868
 30
0.0
 10
111.3690556103043
 20
136.7666786825543
 30
0.0
 10
112.0943160829291
 20
137.0980756601907
 30
0.0
 10
112.4762311403196
 20
137.2375796476859
 30
0.0
 10
113.2710193164913
 20
137.4630331551569
 30
0.0
 10
113.6851775106977
 20
137.5496592667005
 30
0.0
 10
114.550723851279
 20
137.6676400555546
 30
0.0
 10
114.9886114662909
 20
137.697151200829
 30
0.0
 10
115.4313816926455
 20
137.697151200829
 30
0.0
  0
SPLINE
  5
81
330
1F
100
AcDbEntity
  8
0
  6
Continuous
 62
     7
370
    15
100
AcDbSpline
210
0.0
220
0.0
230
1.0
 70
     8
 71
     3
 72
    70
 73
    66
 74
     0
 42
0.00000001
 43
0.00000001
 12
1.0
 22
0.0
 32
0.0
 13
1.0
 23
0.0
 33
0.0
 40
-0.0312500000000001
 40
-0.0312500000000001
 40
0.0
 40
0.0
 40
0.0312499999999999
 40
0.0312499999999999
 40
0.0624999999999998
 40
0.0624999999999998
 40
0.0937499999999997
 40
0.0937499999999997
 40
0.1249999999999996
 40
0.1249999999999996
 40
0.1562499999999994
 40
0.1562499999999994
 40
0.1874999999999993
 40
0.1874999999999993
 40
0.2187499999999992
 40
0.2187499999999992
 40
0.2499999999999991
 40
0.2499999999999991
 40
0.281249999999999
 40
0.281249999999999
 40
0.3124999999999989
 40
0.3124999999999989
 40
0.3437499999999988
 40
0.3437499999999988
 40
0.3749999999999987
 40
0.3749999999999987
 40
0.4062499999999986
 40
0.4062499999999986
 40
0.4374999999999984
 40
0.4374999999999984
 40
0.4687499999999983
 40
0.4687499999999983
 40
0.4999999999999982
 40
0.4999999999999982
 40
0.5312499999999983
 40
0.5312499999999983
 40
0.5624999999999984
 40
0.5624999999999984
 40
0.5937499999999986
 40
0.5937499999999986
 40
0.6249999999999987
 40
0.6249999999999987
 40
0.6562499999999988
 40
0.6562499999999988
 40
0.6874999999999989
 40
0.6874999999999989
 40
0.718749999999999
 40
0.718749999999999
 40
0.7499999999999991
 40
0.7499999999999991
 40
0.7812499999999992
 40
0.7812499999999992
 40
0.8124999999999993
 40
0.8124999999999993
 40
0.8437499999999994
 40
0.8437499999999994
 40
0.8749999999999996
 40
0.8749999999999996
 40
0.9062499999999997
 40
0.9062499999999997
 40
0.9374999999999998
 40
0.9374999999999998
 40
0.9687499999999999
 40
0.9687499999999999
 40
1.0
 40
1.0
 40
1.03125
 40
1.03125
 10
111.5003066856164
 20
123.8593684244449
 30
0.0
 10
110.9712160082961
 20
123.8593684244449
 30
0.0
 10
110.711145340919
 20
123.8840457192301
 30
0.0
 10
110.1995706610835
 20
123.980517392272
 30
0.0
 10
109.9453953773433
 20
124.053498308252
 30
0.0
 10
109.4611247472816
 20
124.2432389111907
 30
0.0
 10
109.2314836554005
 20
124.3590995695844
 30
0.0
 10
108.796879307167
 20
124.6317174155421
 30
0.0
 10
108.5913135305204
 20
124.7897564975959
 30
0.0
 10
108.2227563899252
 20
125.1332993485665
 30
0.0
 10
108.0572754071897
 20
125.3200617926682
 30
0.0
 10
107.7648508977546
 20
125.723604967065
 30
0.0
 10
107.6407499211281
 20
125.9371019634942
 30
0.0
 10
107.4411707243783
 20
126.3764852774167
 30
0.0
 10
107.3642371385201
 20
126.6056252645623
 30
0.0
 10
107.2613800799997
 20
127.0715993873223
 30
0.0
 10
107.2359071705406
 20
127.3044818329985
 30
0.0
 10
107.2356167599728
 20
127.7698793680783
 30
0.0
 10
107.2616413937485
 20
128.0047551254727
 30
0.0
 10
107.3637896782405
 20
128.4562482727189
 30
0.0
 10
107.4393661258237
 20
128.6742947481303
 30
0.0
 10
107.6398636569686
 20
129.0953892731681
 30
0.0
 10
107.764992498477
 20
129.2973106576864
 30
0.0
 10
108.0543512994986
 20
129.6693401402053
 30
0.0
 10
108.2197622865541
 20
129.8419684437857
 30
0.0
 10
108.5927528447019
 20
130.1592864483317
 30
0.0
 10
108.794485877791
 20
130.2990733818333
 30
0.0
 10
109.2273451286189
 20
130.5432496353851
 30
0.0
 10
109.4612636615082
 20
130.6484791464266
 30
0.0
 10
109.9454473966508
 20
130.8166362928017
 30
0.0
 10
110.1947630226064
 20
130.8798871833956
 30
0.0
 10
110.7077955470341
 20
130.9654663924982
 30
0.0
 10
110.9730893699387
 20
130.9873385574206
 30
0.0
 10
111.4954239898085
 20
130.9875022070646
 30
0.0
 10
111.7551776522902
 20
130.9665005149685
 30
0.0
 10
112.2717894679354
 20
130.8810981598909
 30
0.0
 10
112.5241555084357
 20
130.8170919766039
 30
0.0
 10
113.0056806299686
 20
130.6502774565627
 30
0.0
 10
113.2385313620821
 20
130.5461442931636
 30
0.0
 10
113.6756212105209
 20
130.3001576406686
 30
0.0
 10
113.8769421991781
 20
130.1604078097198
 30
0.0
 10
114.246028224478
 20
129.8472697399952
 30
0.0
 10
114.4150129755296
 20
129.6718135807251
 30
0.0
 10
114.7054690321889
 20
129.2989733166249
 30
0.0
 10
114.828540843551
 20
129.1008515065139
 30
0.0
 10
115.029877084973
 20
128.6801401637803
 30
0.0
 10
115.1070896309153
 20
128.4581501431127
 30
0.0
 10
115.2092931738153
 20
128.0082852034044
 30
0.0
 10
115.2355215252676
 20
127.7780297902876
 30
0.0
 10
115.2359979245847
 20
127.3067138477385
 30
0.0
 10
115.2102555120868
 20
127.0734764320244
 30
0.0
 10
115.1089447357229
 20
126.6117998925263
 30
0.0
 10
115.032112096332
 20
126.3809025054142
 30
0.0
 10
114.8317082571168
 20
125.9386264916225
 30
0.0
 10
114.7090367588248
 20
125.7275640603366
 30
0.0
 10
114.4190894696605
 20
125.326065549604
 30
0.0
 10
114.2505184902953
 20
125.1351590275281
 30
0.0
 10
113.8822488961821
 20
124.791433695531
 30
0.0
 10
113.6811870389118
 20
124.6362965093169
 30
0.0
 10
113.2441561203269
 20
124.3612191492371
 30
0.0
 10
113.0120079071973
 20
124.2441029198151
 30
0.0
 10
112.5309976256984
 20
124.0551764347506
 30
0.0
 10
112.278897542868
 20
123.9821014643563
 30
0.0
 10
111.761828056609
 20
123.8840494052218
 30
0.0
 10
111.5003066856164
 20
123.8593684244449
 30
0.0
 10
110.9712160082961
 20
123.8593684244449
 30
0.0
  0
SPLINE
  5
82
330
1F
100
AcDbEntity
  8
0
  6
Continuous
 62
     7
370
    15
100
AcDbSpline
210
0.0
220
0.0
230
1.0
 70
     8
 71
     3
 72
    70
 73
    66
 74
     0
 42
0.00000001
 43
0.00000001
 12
1.0
 22
0.0
 32
0.0
 13
1.0
 23
0.0
 33
0.0
 40
-0.0312499999999999
 40
-0.0312499999999999
 40
0.0
 40
0.0
 40
0.0312499999999999
 40
0.0312499999999999
 40
0.0624999999999998
 40
0.0624999999999998
 40
0.0937499999999997
 40
0.0937499999999997
 40
0.1249999999999996
 40
0.1249999999999996
 40
0.1562499999999995
 40
0.1562499999999995
 40
0.1874999999999994
 40
0.1874999999999994
 40
0.2187499999999993
 40
0.2187499999999993
 40
0.2499999999999992
 40
0.2499999999999992
 40
0.2812499999999993
 40
0.2812499999999993
 40
0.3124999999999993
 40
0.3124999999999993
 40
0.3437499999999994
 40
0.3437499999999994
 40
0.3749999999999995
 40
0.3749999999999995
 40
0.4062499999999996
 40
0.4062499999999996
 40
0.4374999999999996
 40
0.4374999999999996
 40
0.4687499999999997
 40
0.4687499999999997
 40
0.4999999999999998
 40
0.4999999999999998
 40
0.5312499999999999
 40
0.5312499999999999
 40
0.5625
 40
0.5625
 40
0.5937500000000001
 40
0.5937500000000001
 40
0.6250000000000002
 40
0.6250000000000002
 40
0.6562500000000004
 40
0.6562500000000004
 40
0.6875000000000006
 40
0.6875000000000006
 40
0.7187500000000007
 40
0.7187500000000007
 40
0.7500000000000008
 40
0.7500000000000008
 40
0.7812500000000007
 40
0.7812500000000007
 40
0.8125000000000006
 40
0.8125000000000006
 40
0.8437500000000004
 40
0.8437500000000004
 40
0.8750000000000003
 40
0.8750000000000003
 40
0.9062500000000003
 40
0.9062500000000003
 40
0.9375000000000002
 40
0.9375000000000002
 40
0.9687500000000001
 40
0.9687500000000001
 40
1.0
 40
1.0
 40
1.03125
 40
1.03125
 10
111.5003066856164
 20
138.2974249332407
 30
0.0
 10
110.9712160082961
 20
138.2974249332407
 30
0.0
 10
110.711145340919
 20
138.3133253736555
 30
0.0
 10
110.1995706610835
 20
138.3752697238298
 30
0.0
 10
109.9453953773433
 20
138.422071957921
 30
0.0
 10
109.4611247472816
 20
138.5430489413762
 30
0.0
 10
109.2314836554005
 20
138.616651269183
 30
0.0
 10
108.796879307167
 20
138.7884755401611
 30
0.0
 10
108.5913135305204
 20
138.8874789630885
 30
0.0
 10
108.2227563899252
 20
139.1005753770013
 30
0.0
 10
108.0572754071897
 20
139.215475093131
 30
0.0
 10
107.7648508977546
 20
139.4608419918213
 30
0.0
 10
107.6407499211281
 20
139.5892818922916
 30
0.0
 10
107.4411707243783
 20
139.8501740403776
 30
0.0
 10
107.3642371385201
 20
139.984555211717
 30
0.0
 10
107.2613800799997
 20
140.2538751628233
 30
0.0
 10
107.2359071705406
 20
140.3865564270415
 30
0.0
 10
107.2356167599728
 20
140.6477429011725
 30
0.0
 10
107.2616413937485
 20
140.7775079393372
 30
0.0
 10
107.3637896782405
 20
141.0230905736099
 30
0.0
 10
107.4393661258237
 20
141.1397521109187
 30
0.0
 10
107.6398636569686
 20
141.3616573010733
 30
0.0
 10
107.764992498477
 20
141.4662685549963
 30
0.0
 10
108.0543512994986
 20
141.6563149666044
 30
0.0
 10
108.2197622865541
 20
141.743074638054
 30
0.0
 10
108.5927528447019
 20
141.9005790138056
 30
0.0
 10
108.794485877791
 20
141.9689042785928
 30
0.0
 10
109.2273451286189
 20
142.087134002212
 30
0.0
 10
109.4612636615082
 20
142.1374289183159
 30
0.0
 10
109.9454473966508
 20
142.2172944552055
 30
0.0
 10
110.1947630226064
 20
142.2470355830051
 30
0.0
 10
110.7077955470341
 20
142.2871883245133
 30
0.0
 10
110.9730893699387
 20
142.2973865939232
 30
0.0
 10
111.4954239898085
 20
142.2974630523079
 30
0.0
 10
111.7551776522902
 20
142.2876720406989
 30
0.0
 10
112.2717894679354
 20
142.2476052019601
 30
0.0
 10
112.5241555084357
 20
142.2175080351033
 30
0.0
 10
113.0056806299686
 20
142.138285825273
 30
0.0
 10
113.2385313620821
 20
142.0885283458097
 30
0.0
 10
113.6756212105209
 20
141.9694364033593
 30
0.0
 10
113.8769421991781
 20
141.901121141812
 30
0.0
 10
114.246028224478
 20
141.7457201748785
 30
0.0
 10
114.4150129755297
 20
141.6575678328116
 30
0.0
 10
114.7054690321889
 20
141.4671284436952
 30
0.0
 10
114.828540843551
 20
141.3645038659962
 30
0.0
 10
115.029877084973
 20
141.142863519388
 30
0.0
 10
115.1070896309153
 20
141.0241094438406
 30
0.0
 10
115.2092931738153
 20
140.7794435049229
 30
0.0
 10
115.2355215252676
 20
140.6522867794743
 30
0.0
 10
115.2359979245848
 20
140.3878386336187
 30
0.0
 10
115.2102555120868
 20
140.2549379533616
 30
0.0
 10
115.1089447357229
 20
139.9881456798796
 30
0.0
 10
115.032112096332
 20
139.852781778411
 30
0.0
 10
114.8317082571168
 20
139.5902019831084
 30
0.0
 10
114.7090367588248
 20
139.4632268233547
 30
0.0
 10
114.4190894696605
 20
139.2191474372722
 30
0.0
 10
114.2505184902953
 20
139.1017223125184
 30
0.0
 10
113.8822488961821
 20
138.88852585157
 30
0.0
 10
113.6811870389118
 20
138.7913517331451
 30
0.0
 10
113.2441561203269
 20
138.6179968459309
 30
0.0
 10
113.0120079071973
 20
138.5435972942742
 30
0.0
 10
112.5309976256984
 20
138.4231444147696
 30
0.0
 10
112.278897542868
 20
138.3762860395036
 30
0.0
 10
111.761828056609
 20
138.3133285425198
 30
0.0
 10
111.5003066856164
 20
138.2974249332407
 30
0.0
 10
110.9712160082961
 20
138.2974249332407
 30
0.0
  0
LINE
  5
83
330
1F
100
AcDbEntity
  8
0
  6
Continuous
 62
     7
370
    15
100
AcDbLine
 10
128.585761347
 20
83.0515438422
 30
0.0
 11
124.6276941784
 21
83.0515438422
 31
0.0
  0
LINE
  5
84
330
1F
100
AcDbEntity
  8
0
  6
Continuous
 62
     7
370
    15
100
AcDbLine
 10
124.6276941784
 20
83.0515438422
 30
0.0
 11
124.6276941784
 21
133.0884615385
 31
0.0
  0
LINE
  5
85
330
1F
100
AcDbEntity
  8
0
  6
Continuous
 62
     7
370
    15
100
AcDbLine
 10
124.6276941784
 20
133.0884615385
 30
0.0
 11
128.585761347
 21
133.0884615385
 31
0.0
  0
SPLINE
  5
86
330
1F
100
AcDbEntity
  8
0
  6
Continuous
 62
     7
370
    15
100
AcDbSpline
210
0.0
220
0.0
230
1.0
 70
     8
 71
     3
 72
     8
 73
     4
 74
     0
 42
0.00000001
 43
0.00000001
 12
1.0
 22
0.0
 32
0.0
 13
1.0
 23
0.0
 33
0.0
 40
0.0
 40
0.0
 40
0.0
 40
0.0
 40
1.0
 40
1.0
 40
1.0
 40
1.0
 10
124.6276941784453
 20
83.05154384221439
 30
0.0
 10
124.1322145177795
 20
83.94706993014775
 30
0.0
 10
123.6381004697374
 20
84.8433543452
 30
0.0
 10
123.1457613469562
 20
85.7406243794067
 30
0.0
  0
LINE
  5
87
330
1F
100
AcDbEntity
  8
0
  6
Continuous
 62
     7
370
    15
100
AcDbLine
 10
123.145761347
 20
85.7406243794
 30
0.0
 11
123.145761347
 21
133.0884615385
 31
0.0
  0
SPLINE
  5
88
330
1F
100
AcDbEntity
  8
0
  6
Continuous
 62
     7
370
    15
100
AcDbSpline
210
0.0
220
0.0
230
1.0
 70
    24
 71
     3
 72
     8
 73
     4
 74
     0
 42
0.00000001
 43
0.00000001
 12
1.0
 22
0.0
 32
0.0
 13
1.0
 23
0.0
 33
0.0
 40
0.0
 40
0.0
 40
0.0
 40
0.0
 40
1.0
 40
1.0
 40
1.0
 40
1.0
 10
123.1457613469562
 20
133.0884615384616
 30
0.0
 10
123.6257133413211
 20
133.0884615384616
 30
0.0
 10
124.1210140702947
 20
133.0884615384616
 30
0.0
 10
124.6276941784453
 20
133.0884615384616
 30
0.0
  0
LINE
  5
89
330
1F
100
AcDbEntity
  8
0
  6
Continuous
 62
     7
370
    15
100
AcDbLine
 10
103.235761347
 20
82.0384615385
 30
0.0
 11
103.235761347
 21
144.438461535
 31
0.0
  0
LINE
  5
8A
330
1F
100
AcDbEntity
  8
0
  6
Continuous
 62
     7
370
    15
100
AcDbLine
 10
119.325761347
 20
85.7406243794
 30
0.0
 11
119.325761347
 21
133.0884615385
 31
0.0
  0
SPLINE
  5
8B
330
1F
100
AcDbEntity
  8
0
  6
Continuous
 62
     7
370
    15
100
AcDbSpline
210
0.0
220
0.0
230
1.0
 70
     8
 71
     3
 72
     8
 73
     4
 74
     0
 42
0.00000001
 43
0.00000001
 12
1.0
 22
0.0
 32
0.0
 13
1.0
 23
0.0
 33
0.0
 40
0.0
 40
0.0
 40
0.0
 40
0.0
 40
1.0
 40
1.0
 40
1.0
 40
1.0
 10
119.3257613469562
 20
85.74062437940668
 30
0.0
 10
118.833422224175
 20
84.84335434519998
 30
0.0
 10
118.3393081761329
 20
83.94706993014775
 30
0.0
 10
117.8438285154672
 20
83.05154384221439
 30
0.0
  0
SPLINE
  5
8C
330
1F
100
AcDbEntity
  8
0
  6
Continuous
 62
     7
370
    15
100
AcDbSpline
210
0.0
220
0.0
230
1.0
 70
    24
 71
     3
 72
     8
 73
     4
 74
     0
 42
0.00000001
 43
0.00000001
 12
1.0
 22
0.0
 32
0.0
 13
1.0
 23
0.0
 33
0.0
 40
0.0
 40
0.0
 40
0.0
 40
0.0
 40
1.0
 40
1.0
 40
1.0
 40
1.0
 10
117.8438285154671
 20
133.0884615384616
 30
0.0
 10
118.3505086236177
 20
133.0884615384616
 30
0.0
 10
118.8458093525913
 20
133.0884615384616
 30
0.0
 10
119.3257613469562
 20
133.0884615384616
 30
0.0
  0
LINE
  5
8D
330
1F
100
AcDbEntity
  8
0
  6
Continuous
 62
     7
370
    15
100
AcDbLine
 10
129.185761347
 20
83.6781841379
 30
0.0
 11
129.185761347
 21
133.0884615385
 31
0.0
  0
SPLINE
  5
8E
330
1F
100
AcDbEntity
  8
0
  6
Continuous
 62
     7
370
    15
100
AcDbSpline
210
0.0
220
0.0
230
1.0
 70
     8
 71
     3
 72
    10
 73
     6
 74
     0
 42
0.00000001
 43
0.00000001
 12
1.0
 22
0.0
 32
0.0
 13
1.0
 23
0.0
 33
0.0
 40
0.0
 40
0.0
 40
0.0
 40
0.0
 40
0.5
 40
0.5
 40
1.0
 40
1.0
 40
1.0
 40
1.0
 10
129.1857613469562
 20
83.67818413786871
 30
0.0
 10
129.1857613469562
 20
83.51829686967504
 30
0.0
 10
129.1244516957204
 20
83.35716961416044
 30
0.0
 10
128.9053520581853
 20
83.1230706158056
 30
0.0
 10
128.7473038518718
 20
83.05154384221439
 30
0.0
 10
128.5857613469562
 20
83.05154384221439
 30
0.0
  0
SPLINE
  5
8F
330
1F
100
AcDbEntity
  8
0
  6
Continuous
 62
     7
370
    15
100
AcDbSpline
210
0.0
220
0.0
230
1.0
 70
    24
 71
     3
 72
    12
 73
     8
 74
     0
 42
0.00000001
 43
0.00000001
 12
1.0
 22
0.0
 32
0.0
 13
1.0
 23
0.0
 33
0.0
 40
0.0
 40
0.0
 40
0.0
 40
0.0
 40
0.2500000000000033
 40
0.2500000000000033
 40
0.5000000000000067
 40
0.5000000000000067
 40
1.0
 40
1.0
 40
1.0
 40
1.0
 10
128.5857613469562
 20
133.0884615384616
 30
0.0
 10
128.6760004146433
 20
133.0884615384616
 30
0.0
 10
128.7668985287497
 20
133.0884615384616
 30
0.0
 10
128.9214955652383
 20
133.0884615384616
 30
0.0
 10
128.9864739813464
 20
133.0884615384616
 30
0.0
 10
129.1383090092826
 20
133.0884615384616
 30
0.0
 10
129.1857613469562
 20
133.0884615384616
 30
0.0
 10
129.1857613469562
 20
133.0884615384616
 30
0.0
  0
ARC
  5
90
330
1F
100
AcDbEntity
  8
0
  6
Continuous
 62
     7
370
    15
100
AcDbCircle
 10
111.2327562027
 20
125.1366926158
 30
0.0
 40
4.115011572779912
100
AcDbArc
 50
19.3349591234
 51
159.3357509812
  0
SPLINE
  5
91
330
1F
100
AcDbEntity
  8
0
  6
Continuous
 62
     7
370
    15
100
AcDbSpline
210
0.0
220
0.0
230
1.0
 70
    24
 71
     3
 72
    14
 73
    10
 74
     0
 42
0.00000001
 43
0.00000001
 12
1.0
 22
0.0
 32
0.0
 13
1.0
 23
0.0
 33
0.0
 40
0.0
 40
0.0
 40
0.0
 40
0.0
 40
0.4999999999999984
 40
0.4999999999999984
 40
0.7499999999999992
 40
0.7499999999999992
 40
0.8749999999999996
 40
0.8749999999999996
 40
1.0
 40
1.0
 40
1.0
 40
1.0
 10
123.0480865446239
 20
86.83846153846156
 30
0.0
 10
123.0013018395757
 20
86.83846153846156
 30
0.0
 10
122.9392506427961
 20
86.83846153846156
 30
0.0
 10
122.7958590042455
 20
86.83846153846154
 30
0.0
 10
122.7397153506943
 20
86.83846153846156
 30
0.0
 10
122.6267643285582
 20
86.83846153846156
 30
0.0
 10
122.58376356652
 20
86.83846153846156
 30
0.0
 10
122.4797008562135
 20
86.83846153846156
 30
0.0
 10
122.4143686178566
 20
86.83846153846156
 30
0.0
 10
122.3457613469562
 20
86.83846153846156
 30
0.0
  0
SPLINE
  5
92
330
1F
100
AcDbEntity
  8
0
  6
Continuous
 62
     7
370
    15
100
AcDbSpline
210
0.0
220
0.0
230
1.0
 70
    24
 71
     3
 72
    12
 73
     8
 74
     0
 42
0.00000001
 43
0.00000001
 12
1.0
 22
0.0
 32
0.0
 13
1.0
 23
0.0
 33
0.0
 40
0.0
 40
0.0
 40
0.0
 40
0.0
 40
0.5000000000000017
 40
0.5000000000000017
 40
0.7500000000000008
 40
0.7500000000000008
 40
1.0
 40
1.0
 40
1.0
 40
1.0
 10
122.7514638152652
 20
139.6384615384615
 30
0.0
 10
122.7083782656543
 20
139.6384615384615
 30
0.0
 10
122.659226063905
 20
139.6384615384615
 30
0.0
 10
122.562753469617
 20
139.6384615384615
 30
0.0
 10
122.5266518844825
 20
139.6384615384615
 30
0.0
 10
122.4435461266212
 20
139.6384615384615
 30
0.0
 10
122.3955495296549
 20
139.6384615384615
 30
0.0
 10
122.3457613469562
 20
139.6384615384615
 30
0.0
  0
SPLINE
  5
93
330
1F
100
AcDbEntity
  8
0
  6
Continuous
 62
     7
370
    15
100
AcDbSpline
210
0.0
220
0.0
230
1.0
 70
     8
 71
     3
 72
    10
 73
     6
 74
     0
 42
0.00000001
 43
0.00000001
 12
1.0
 22
0.0
 32
0.0
 13
1.0
 23
0.0
 33
0.0
 40
0.0
 40
0.0
 40
0.0
 40
0.0
 40
0.5
 40
0.5
 40
1.0
 40
1.0
 40
1.0
 40
1.0
 10
123.1457613469562
 20
140.3581153894973
 30
0.0
 10
123.1457613469562
 20
140.2143453316793
 30
0.0
 10
123.1097122882373
 20
140.0719259691842
 30
0.0
 10
122.9742034274633
 20
139.8220316758269
 30
0.0
 10
122.8743274343671
 20
139.7140013395787
 30
0.0
 10
122.7514638152652
 20
139.6384615384615
 30
0.0
  0
SPLINE
  5
94
330
1F
100
AcDbEntity
  8
0
  6
Continuous
 62
     7
370
    15
100
AcDbSpline
210
0.0
220
0.0
230
1.0
 70
     8
 71
     3
 72
    10
 73
     6
 74
     0
 42
0.00000001
 43
0.00000001
 12
1.0
 22
0.0
 32
0.0
 13
1.0
 23
0.0
 33
0.0
 40
0.0
 40
0.0
 40
0.0
 40
0.0
 40
0.5
 40
0.5
 40
1.0
 40
1.0
 40
1.0
 40
1.0
 10
123.1196137237961
 20
133.0884615384616
 30
0.0
 10
123.1283033667077
 20
133.1353403877797
 30
0.0
 10
123.1348424314583
 20
133.182762853181
 30
0.0
 10
123.1436010658513
 20
133.2786996517678
 30
0.0
 10
123.1457613469562
 20
133.3266149397784
 30
0.0
 10
123.1457613469562
 20
133.3743281699229
 30
0.0
  0
SPLINE
  5
95
330
1F
100
AcDbEntity
  8
0
  6
Continuous
 62
     7
370
    15
100
AcDbSpline
210
0.0
220
0.0
230
1.0
 70
     8
 71
     3
 72
    10
 73
     6
 74
     0
 42
0.00000001
 43
0.00000001
 12
1.0
 22
0.0
 32
0.0
 13
1.0
 23
0.0
 33
0.0
 40
0.0
 40
0.0
 40
0.0
 40
0.0
 40
0.5
 40
0.5
 40
1.0
 40
1.0
 40
1.0
 40
1.0
 10
119.7200588786472
 20
139.6384615384615
 30
0.0
 10
119.5985186149787
 20
139.7131877056733
 30
0.0
 10
119.4971842546297
 20
139.8221327215901
 30
0.0
 10
119.3615453117413
 20
140.0725632023517
 30
0.0
 10
119.3257613469562
 20
140.2149825644507
 30
0.0
 10
119.3257613469562
 20
140.3581153894973
 30
0.0
  0
SPLINE
  5
96
330
1F
100
AcDbEntity
  8
0
  6
Continuous
 62
     7
370
    15
100
AcDbSpline
210
0.0
220
0.0
230
1.0
 70
    24
 71
     3
 72
    12
 73
     8
 74
     0
 42
0.00000001
 43
0.00000001
 12
1.0
 22
0.0
 32
0.0
 13
1.0
 23
0.0
 33
0.0
 40
0.0
 40
0.0
 40
0.0
 40
0.0
 40
0.2500000000000037
 40
0.2500000000000037
 40
0.5000000000000074
 40
0.5000000000000074
 40
1.0
 40
1.0
 40
1.0
 40
1.0
 10
120.1257613469562
 20
139.6384615384615
 30
0.0
 10
120.0758846646387
 20
139.6384615384615
 30
0.0
 10
120.0278814712352
 20
139.6384615384615
 30
0.0
 10
119.9448333685232
 20
139.6384615384615
 30
0.0
 10
119.9087037890553
 20
139.6384615384615
 30
0.0
 10
119.8127917581111
 20
139.6384615384615
 30
0.0
 10
119.7630330901423
 20
139.6384615384615
 30
0.0
 10
119.7200588786472
 20
139.6384615384615
 30
0.0
  0
SPLINE
  5
97
330
1F
100
AcDbEntity
  8
0
  6
Continuous
 62
     7
370
    15
100
AcDbSpline
210
0.0
220
0.0
230
1.0
 70
    24
 71
     3
 72
    14
 73
    10
 74
     0
 42
0.00000001
 43
0.00000001
 12
1.0
 22
0.0
 32
0.0
 13
1.0
 23
0.0
 33
0.0
 40
0.0
 40
0.0
 40
0.0
 40
0.0
 40
0.1249999999999991
 40
0.1249999999999991
 40
0.2499999999999982
 40
0.2499999999999982
 40
0.4999999999999998
 40
0.4999999999999998
 40
1.0
 40
1.0
 40
1.0
 40
1.0
 10
120.1257613469562
 20
86.83846153846156
 30
0.0
 10
120.0573234990698
 20
86.83846153846156
 30
0.0
 10
119.9917734603047
 20
86.83846153846156
 30
0.0
 10
119.8873468208967
 20
86.83846153846156
 30
0.0
 10
119.8448022111353
 20
86.83846153846156
 30
0.0
 10
119.7321927505951
 20
86.83846153846154
 30
0.0
 10
119.6766537035756
 20
86.83846153846156
 30
0.0
 10
119.5340420081118
 20
86.83846153846154
 30
0.0
 10
119.470636653116
 20
86.83846153846154
 30
0.0
 10
119.4234361492885
 20
86.83846153846156
 30
0.0
  0
SPLINE
  5
98
330
1F
100
AcDbEntity
  8
0
  6
Continuous
 62
     7
370
    15
100
AcDbSpline
210
0.0
220
0.0
230
1.0
 70
     8
 71
     3
 72
    10
 73
     6
 74
     0
 42
0.00000001
 43
0.00000001
 12
1.0
 22
0.0
 32
0.0
 13
1.0
 23
0.0
 33
0.0
 40
0.0
 40
0.0
 40
0.0
 40
0.0
 40
0.5
 40
0.5
 40
1.0
 40
1.0
 40
1.0
 40
1.0
 10
119.3257613469562
 20
133.3743281699229
 30
0.0
 10
119.3257613469562
 20
133.3265566619296
 30
0.0
 10
119.3279225905534
 20
133.278846939868
 30
0.0
 10
119.3365939644135
 20
133.1835518223197
 30
0.0
 10
119.3431231473695
 20
133.135859258353
 30
0.0
 10
119.3519089701163
 20
133.0884615384616
 30
0.0
  0
LINE
  5
99
330
1F
100
AcDbEntity
  8
0
  6
Continuous
 62
     7
370
    15
100
AcDbLine
 10
122.345761347
 20
139.6384615385
 30
0.0
 11
120.125761347
 21
139.6384615385
 31
0.0
  0
LINE
  5
9A
330
1F
100
AcDbEntity
  8
0
  6
Continuous
 62
     7
370
    15
100
AcDbLine
 10
122.345761347
 20
86.8384615385
 30
0.0
 11
120.125761347
 21
86.8384615385
 31
0.0
  0
LINE
  5
9B
330
1F
100
AcDbEntity
  8
0
  6
Continuous
 62
     7
370
    15
100
AcDbLine
 10
81.435761347
 20
90.0100146447
 30
0.0
 11
81.435761347
 21
91.2747240073
 31
0.0
  0
SPLINE
  5
9C
330
1F
100
AcDbEntity
  8
0
  6
Continuous
 62
     7
370
    15
100
AcDbSpline
210
0.0
220
0.0
230
1.0
 70
     8
 71
     3
 72
    14
 73
    10
 74
     0
 42
0.00000001
 43
0.00000001
 12
1.0
 22
0.0
 32
0.0
 13
1.0
 23
0.0
 33
0.0
 40
0.0
 40
0.0
 40
0.0
 40
0.0
 40
0.25
 40
0.25
 40
0.5
 40
0.5
 40
0.75
 40
0.75
 40
1.0
 40
1.0
 40
1.0
 40
1.0
 10
80.65747422904049
 20
92.4053102149016
 30
0.0
 10
80.71410090424257
 20
92.29761276106474
 30
0.0
 10
80.8086235645323
 20
92.19482317934542
 30
0.0
 10
80.99166854009452
 20
91.99646586712528
 30
0.0
 10
81.08329511704926
 20
91.90040635844703
 30
0.0
 10
81.24214843474245
 20
91.71287731573779
 30
0.0
 10
81.31003904236414
 20
91.62146834295423
 30
0.0
 10
81.40695606807174
 20
91.44309212204408
 30
0.0
 10
81.4357613469568
 20
91.35587021579789
 30
0.0
 10
81.43576134695678
 20
91.27472400726363
 30
0.0
  0
SPLINE
  5
9D
330
1F
100
AcDbEntity
  8
0
  6
Continuous
 62
     7
370
    15
100
AcDbSpline
210
0.0
220
0.0
230
1.0
 70
     8
 71
     3
 72
    14
 73
    10
 74
     0
 42
0.00000001
 43
0.00000001
 12
1.0
 22
0.0
 32
0.0
 13
1.0
 23
0.0
 33
0.0
 40
0.0
 40
0.0
 40
0.0
 40
0.0
 40
0.1249999999999975
 40
0.1249999999999975
 40
0.249999999999995
 40
0.249999999999995
 40
0.4999999999999953
 40
0.4999999999999953
 40
1.0
 40
1.0
 40
1.0
 40
1.0
 10
80.0357613469562
 20
92.85199207718092
 30
0.0
 10
80.08430575561337
 20
92.85774039046122
 30
0.0
 10
80.13722111039829
 20
92.85463950180498
 30
0.0
 10
80.23251645538132
 20
92.83244465764265
 30
0.0
 10
80.27276745266627
 20
92.8152124305468
 30
0.0
 10
80.37703746617925
 20
92.75888451409473
 30
0.0
 10
80.42735944133257
 20
92.71469816814893
 30
0.0
 10
80.55504238885796
 20
92.5836902692983
 30
0.0
 10
80.61112783592021
 20
92.493455749068
 30
0.0
 10
80.65747422904195
 20
92.40531021490213
 30
0.0
  0
SPLINE
  5
9E
330
1F
100
AcDbEntity
  8
0
  6
Continuous
 62
     7
370
    15
100
AcDbSpline
210
0.0
220
0.0
230
1.0
 70
     8
 71
     3
 72
     8
 73
     4
 74
     0
 42
0.00000001
 43
0.00000001
 12
1.0
 22
0.0
 32
0.0
 13
1.0
 23
0.0
 33
0.0
 40
0.0
 40
0.0
 40
0.0
 40
0.0
 40
1.0
 40
1.0
 40
1.0
 40
1.0
 10
77.76723625400999
 20
92.54214679059814
 30
0.0
 10
78.50181328049294
 20
92.6607718016671
 30
0.0
 10
79.2652883498886
 20
92.76075767380337
 30
0.0
 10
80.03576134695622
 20
92.85199207718092
 30
0.0
  0
SPLINE
  5
9F
330
1F
100
AcDbEntity
  8
0
  6
Continuous
 62
     7
370
    15
100
AcDbSpline
210
0.0
220
0.0
230
1.0
 70
     8
 71
     3
 72
    14
 73
    10
 74
     0
 42
0.00000001
 43
0.00000001
 12
1.0
 22
0.0
 32
0.0
 13
1.0
 23
0.0
 33
0.0
 40
0.0
 40
0.0
 40
0.0
 40
0.0
 40
0.500000000000001
 40
0.500000000000001
 40
0.7500000000000004
 40
0.7500000000000004
 40
0.8750000000000003
 40
0.8750000000000003
 40
1.0
 40
1.0
 40
1.0
 40
1.0
 10
72.48576134695621
 20
92.36852377306649
 30
0.0
 10
73.3779074775098
 20
92.36780154686583
 30
0.0
 10
74.26788391330338
 20
92.3723877533233
 30
0.0
 10
75.594479080379
 20
92.40011275771482
 30
0.0
 10
76.03532600887772
 20
92.412719295339
 30
0.0
 10
76.69176624630015
 20
92.44373544334645
 30
0.0
 10
76.90977990289203
 20
92.45607861597323
 30
0.0
 10
77.34248875657481
 20
92.48910267113651
 30
0.0
 10
77.5577652217396
 20
92.50831983627495
 30
0.0
 10
77.76723625401
 20
92.54214679059814
 30
0.0
  0
SPLINE
  5
A0
330
1F
100
AcDbEntity
  8
0
  6
Continuous
 62
     7
370
    15
100
AcDbSpline
210
0.0
220
0.0
230
1.0
 70
     8
 71
     3
 72
     8
 73
     4
 74
     0
 42
0.00000001
 43
0.00000001
 12
1.0
 22
0.0
 32
0.0
 13
1.0
 23
0.0
 33
0.0
 40
0.0000005163856712
 40
0.0000005163856712
 40
0.0000005163856712
 40
0.0000005163856712
 40
0.000026289209185
 40
0.000026289209185
 40
0.000026289209185
 40
0.000026289209185
 10
72.47571641653752
 20
92.37850764617436
 30
0.0
 10
72.479044154749
 20
92.37517339930153
 30
0.0
 10
72.48239260772829
 20
92.3718454420225
 30
0.0
 10
72.48576134695618
 20
92.36852377306647
 30
0.0
  0
SPLINE
  5
A1
330
1F
100
AcDbEntity
  8
0
  6
Continuous
 62
     7
370
    15
100
AcDbSpline
210
0.0
220
0.0
230
1.0
 70
     8
 71
     3
 72
     8
 73
     4
 74
     0
 42
0.00000001
 43
0.00000001
 12
1.0
 22
0.0
 32
0.0
 13
1.0
 23
0.0
 33
0.0
 40
0.0000005099763573
 40
0.0000005099763573
 40
0.0000005099763573
 40
0.0000005099763573
 40
0.0000262827998699
 40
0.0000262827998699
 40
0.0000262827998699
 40
0.0000262827998699
 10
72.4857613469562
 20
134.1083993038566
 30
0.0
 10
72.48239260772846
 20
134.1050776349008
 30
0.0
 10
72.47904415474932
 20
134.1017496776219
 30
0.0
 10
72.47571641653799
 20
134.0984154307492
 30
0.0
  0
SPLINE
  5
A2
330
1F
100
AcDbEntity
  8
0
  6
Continuous
 62
     7
370
    15
100
AcDbSpline
210
0.0
220
0.0
230
1.0
 70
     8
 71
     3
 72
    10
 73
     6
 74
     0
 42
0.00000001
 43
0.00000001
 12
1.0
 22
0.0
 32
0.0
 13
1.0
 23
0.0
 33
0.0
 40
0.0
 40
0.0
 40
0.0
 40
0.0
 40
0.5
 40
0.5
 40
1.0
 40
1.0
 40
1.0
 40
1.0
 10
76.03576134695622
 20
134.0615489302893
 30
0.0
 10
75.44817579986562
 20
134.0826144505257
 30
0.0
 10
74.85742940640523
 20
134.0933729363979
 30
0.0
 10
73.67341024110638
 20
134.1067377169336
 30
0.0
 10
73.07999625290091
 20
134.1088803595982
 30
0.0
 10
72.48576134695621
 20
134.1083993038566
 30
0.0
  0
SPLINE
  5
A3
330
1F
100
AcDbEntity
  8
0
  6
Continuous
 62
     7
370
    15
100
AcDbSpline
210
0.0
220
0.0
230
1.0
 70
     8
 71
     3
 72
    18
 73
    14
 74
     0
 42
0.00000001
 43
0.00000001
 12
1.0
 22
0.0
 32
0.0
 13
1.0
 23
0.0
 33
0.0
 40
0.0
 40
0.0
 40
0.0
 40
0.0
 40
0.2500000000000009
 40
0.2500000000000009
 40
0.500000000000001
 40
0.500000000000001
 40
0.7500000000000011
 40
0.7500000000000011
 40
0.875000000000001
 40
0.875000000000001
 40
0.9375000000000006
 40
0.9375000000000006
 40
1.0
 40
1.0
 40
1.0
 40
1.0
 10
77.43576134695621
 20
135.0825692108245
 30
0.0
 10
77.43576134695623
 20
134.9993623019674
 30
0.0
 10
77.39991224701795
 20
134.9106256466538
 30
0.0
 10
77.27504051098403
 20
134.7285004560935
 30
0.0
 10
77.18464009333616
 20
134.6333704074669
 30
0.0
 10
76.96239743859398
 20
134.4441888983426
 30
0.0
 10
76.8326326521482
 20
134.3492437302479
 30
0.0
 10
76.5919951948367
 20
134.210965022668
 30
0.0
 10
76.50422789669925
 20
134.1652545893656
 30
0.0
 10
76.34970380949245
 20
134.1074312841441
 30
0.0
 10
76.2930929234377
 20
134.0897165201062
 30
0.0
 10
76.1690488925311
 20
134.0651772168733
 30
0.0
 10
76.1013342175128
 20
134.059198078335
 30
0.0
 10
76.0357613469562
 20
134.0615489302893
 30
0.0
  0
LINE
  5
A4
330
1F
100
AcDbEntity
  8
0
  6
Continuous
 62
     7
370
    15
100
AcDbLine
 10
77.435761347
 20
135.0825692108
 30
0.0
 11
77.435761347
 21
136.2665076306
 31
0.0
  0
LINE
  5
A5
330
1F
100
AcDbEntity
  8
0
  6
Continuous
 62
     7
370
    15
100
AcDbLine
 10
101.235761347
 20
89.0180306767
 30
0.0
 11
101.235761347
 21
137.4588924002
 31
0.0
  0
SPLINE
  5
A6
330
1F
100
AcDbEntity
  8
0
  6
Continuous
 62
     7
370
    15
100
AcDbSpline
210
0.0
220
0.0
230
1.0
 70
     8
 71
     3
 72
    18
 73
    14
 74
     0
 42
0.00000001
 43
0.00000001
 12
1.0
 22
0.0
 32
0.0
 13
1.0
 23
0.0
 33
0.0
 40
0.0
 40
0.0
 40
0.0
 40
0.0
 40
0.0010671296451833
 40
0.1270947795731636
 40
0.252405345751277
 40
0.3766468878987096
 40
0.4391415999051428
 40
0.5008278021400407
 40
0.562425570880851
 40
0.6253162439161144
 40
0.7499985144706706
 40
0.8752758950341252
 40
0.9999999999999999
 40
0.9999999999999999
 40
0.9999999999999999
 40
0.9999999999999999
 10
90.00606218702889
 20
89.5811225155452
 30
0.0
 10
90.00515035439038
 20
89.58100773700858
 30
0.0
 10
89.89655139575342
 20
89.56733765214268
 30
0.0
 10
90.28419246340329
 20
89.61825715275825
 30
0.0
 10
91.15015714523841
 20
89.71784032580474
 30
0.0
 10
92.35056107000824
 20
89.7869642089484
 30
0.0
 10
93.40813698449698
 20
89.79091643808724
 30
0.0
 10
94.23527107140315
 20
89.7634274996322
 30
0.0
 10
95.0605429390374
 20
89.70488732322441
 30
0.0
 10
96.11490815903737
 20
89.59136616348887
 30
0.0
 10
97.27674444051269
 20
89.40821533924021
 30
0.0
 10
98.22897922189625
 20
89.2036121296053
 30
0.0
 10
98.35468428270414
 20
89.17432677882923
 30
0.0
 10
98.41739771484933
 20
89.15971650898854
 30
0.0
  0
SPLINE
  5
A7
330
1F
100
AcDbEntity
  8
0
  6
Continuous
 62
     7
370
    15
100
AcDbSpline
210
0.0
220
0.0
230
1.0
 70
     8
 71
     3
 72
    18
 73
    14
 74
     0
 42
0.00000001
 43
0.00000001
 12
1.0
 22
0.0
 32
0.0
 13
1.0
 23
0.0
 33
0.0
 40
0.0
 40
0.0
 40
0.0
 40
0.0
 40
0.1248907792210109
 40
0.2505384020341698
 40
0.3748721840485282
 40
0.437490765334968
 40
0.4990776265894272
 40
0.5607931536353509
 40
0.6233901338664932
 40
0.7478191038417344
 40
0.8731940995934958
 40
0.9991614644710078
 40
0.9999999999999999
 40
0.9999999999999999
 40
0.9999999999999999
 40
0.9999999999999999
 10
98.41717894932542
 20
137.3171413873802
 30
0.0
 10
98.35343819661377
 20
137.3024800947821
 30
0.0
 10
98.22557041943729
 20
137.2730686615106
 30
0.0
 10
97.27357119837689
 20
137.0681155574482
 30
0.0
 10
96.11302749317363
 20
136.8848517816372
 30
0.0
 10
95.06076304108551
 20
136.7718241893884
 30
0.0
 10
94.23653592601791
 20
136.713560541847
 30
0.0
 10
93.40893215649749
 20
136.6861141538428
 30
0.0
 10
92.35011496401242
 20
136.690098959772
 30
0.0
 10
91.14789626597742
 20
136.7591884361534
 30
0.0
 10
90.28271232629012
 20
136.85881465271
 30
0.0
 10
89.8965719047599
 20
136.9096307263106
 30
0.0
 10
90.00464344554027
 20
136.8959585462474
 30
0.0
 10
90.00535809546056
 20
136.8958681355591
 30
0.0
  0
SPLINE
  5
A8
330
1F
100
AcDbEntity
  8
0
  6
Continuous
 62
     7
370
    15
100
AcDbSpline
210
0.0
220
0.0
230
1.0
 70
     8
 71
     3
 72
    39
 73
    35
 74
     0
 42
0.00000001
 43
0.00000001
 12
1.0
 22
0.0
 32
0.0
 13
1.0
 23
0.0
 33
0.0
 40
-0.0929035514944622
 40
-0.0617844675329866
 40
-0.0305606518839248
 40
0.0
 40
0.030583354499619
 40
0.0618207632592419
 40
0.0929574073292506
 40
0.1240731578172557
 40
0.1552546267388183
 40
0.1868126884168644
 40
0.2185638838482476
 40
0.2499315075259918
 40
0.2813251124612507
 40
0.3131464055675007
 40
0.3447816985844739
 40
0.3760142222481873
 40
0.4071224531652388
 40
0.4382110606589165
 40
0.4693931316497312
 40
0.5000117158875058
 40
0.5306249294242072
 40
0.561845447469491
 40
0.5929501996331623
 40
0.6240749381357381
 40
0.6552854313493163
 40
0.6868966152746185
 40
0.7186677897632614
 40
0.7500607090514106
 40
0.781425117384431
 40
0.8132188904409234
 40
0.844799703796902
 40
0.8760022562479393
 40
0.9070964485055377
 40
0.9382155324670133
 40
0.9694393481160751
 40
0.9999999999999999
 40
1.030583354499619
 40
1.061820763259242
 40
1.092957407329251
 10
211.0700005105162
 20
106.3855711464639
 30
0.0
 10
209.7354299367624
 20
106.2495467372822
 30
0.0
 10
208.4006834841601
 20
106.3857837360882
 30
0.0
 10
207.120045124572
 20
106.794454755722
 30
0.0
 10
205.9371129142171
 20
107.4359101564089
 30
0.0
 10
204.9114961768135
 20
108.3000735963323
 30
0.0
 10
204.0688758794169
 20
109.3513345086541
 30
0.0
 10
203.4445111837048
 20
110.5598923359262
 30
0.0
 10
203.047756914267
 20
111.8704291601053
 30
0.0
 10
202.9163394763198
 20
113.2357727092872
 30
0.0
 10
203.0486065218943
 20
114.6020336747747
 30
0.0
 10
203.4459494160988
 20
115.9149569432695
 30
0.0
 10
204.0706972149528
 20
117.1265212474455
 30
0.0
 10
204.9139932428693
 20
118.1794761502738
 30
0.0
 10
205.9392581328496
 20
119.0438932924195
 30
0.0
 10
207.1207262909613
 20
119.6848052234451
 30
0.0
 10
208.4008941018247
 20
120.0920045206172
 30
0.0
 10
209.7361493300096
 20
120.2271568596369
 30
0.0
 10
211.071924746113
 20
120.0915913374466
 30
0.0
 10
212.3525928966306
 20
119.6836629242266
 30
0.0
 10
213.5348757354182
 20
119.0421170710494
 30
0.0
 10
214.5598579940596
 20
118.1770779867452
 30
0.0
 10
215.402373843497
 20
117.1240809246122
 30
0.0
 10
216.0263252839199
 20
115.9136419457733
 30
0.0
 10
216.4228622849245
 20
114.6016253370306
 30
0.0
 10
216.5551695177309
 20
113.2361851618761
 30
0.0
 10
216.4238807964768
 20
111.8702432350923
 30
0.0
 10
216.0265097550462
 20
110.5589377320692
 30
0.0
 10
215.4015010092771
 20
109.3493257181733
 30
0.0
 10
214.5581845064367
 20
108.2981731419348
 30
0.0
 10
213.5323526926331
 20
107.4346861222935
 30
0.0
 10
212.3499243778917
 20
106.7939232531021
 30
0.0
 10
211.0700005105162
 20
106.3855711464639
 30
0.0
 10
209.7354299367624
 20
106.2495467372822
 30
0.0
 10
208.4006834841601
 20
106.3857837360882
 30
0.0
  0
LINE
  5
A9
330
1F
100
AcDbEntity
  8
0
  6
Continuous
 62
     7
370
    15
100
AcDbLine
 10
220.3687198239
 20
89.2384615385
 30
0.0
 11
220.3687198239
 21
137.2384615385
 31
0.0
  0
SPLINE
  5
AA
330
1F
100
AcDbEntity
  8
0
  6
Continuous
 62
     7
370
    15
100
AcDbSpline
210
0.0
220
0.0
230
1.0
 70
     8
 71
     3
 72
    24
 73
    20
 74
     0
 42
0.00000001
 43
0.00000001
 12
1.0
 22
0.0
 32
0.0
 13
1.0
 23
0.0
 33
0.0
 40
0.0
 40
0.0
 40
0.0
 40
0.0
 40
0.0032795251617008
 40
0.076680973781173
 40
0.1688953781257478
 40
0.2312672181745324
 40
0.2865067143756076
 40
0.3346267172789559
 40
0.4209210321742886
 40
0.4998576978769279
 40
0.5788062465960089
 40
0.6210879483949203
 40
0.6652520227512049
 40
0.7401298191275111
 40
0.830952231390763
 40
0.89478338948347
 40
0.95004169936639
 40
0.996735771033267
 40
1.0
 40
1.0
 40
1.0
 40
1.0
 10
211.9948961671701
 20
107.6816015515739
 30
0.0
 10
212.0094717222732
 20
107.6870290489568
 30
0.0
 10
212.3502734248369
 20
107.8139333305221
 30
0.0
 10
213.0549189617901
 20
108.2014733709645
 30
0.0
 10
213.9014943629542
 20
108.8720975502869
 30
0.0
 10
214.5482710921652
 20
109.6233676750003
 30
0.0
 10
214.9740777261391
 20
110.2820767375974
 30
0.0
 10
215.3662638416103
 20
111.09106155768
 30
0.0
 10
215.6606280041438
 20
112.0696575975235
 30
0.0
 10
215.7714995561091
 20
113.2359836186154
 30
0.0
 10
215.68114895836
 20
114.1930299309283
 30
0.0
 10
215.4949031046971
 20
114.9586497451214
 30
0.0
 10
215.2382090645251
 20
115.6813816648447
 30
0.0
 10
214.7755266982228
 20
116.5655562972601
 30
0.0
 10
214.0911162971068
 20
117.41190735744
 30
0.0
 10
213.341610848724
 20
118.0632899415545
 30
0.0
 10
212.6759228635267
 20
118.4725632080006
 30
0.0
 10
212.2385825285823
 20
118.7200912799297
 30
0.0
 10
212.0108189493609
 20
118.7871302459323
 30
0.0
 10
211.9959370886204
 20
118.7915105097113
 30
0.0
  0
SPLINE
  5
AB
330
1F
100
AcDbEntity
  8
0
  6
Continuous
 62
     7
370
    15
100
AcDbSpline
210
0.0
220
0.0
230
1.0
 70
     8
 71
     3
 72
    24
 73
    20
 74
     0
 42
0.00000001
 43
0.00000001
 12
1.0
 22
0.0
 32
0.0
 13
1.0
 23
0.0
 33
0.0
 40
0.0
 40
0.0
 40
0.0
 40
0.0
 40
0.0029929557847798
 40
0.0719711902950566
 40
0.1590902059487854
 40
0.2179401206431667
 40
0.2701040531702422
 40
0.3155942003280419
 40
0.3970646837774704
 40
0.4715635916625424
 40
0.5459508680199788
 40
0.585781691613644
 40
0.6273810766391164
 40
0.6978270119434467
 40
0.7834031696638974
 40
0.8434514187445751
 40
0.8955828049191408
 40
0.9398058452261375
 40
1.0
 40
1.0
 40
1.0
 40
1.0
 10
207.4752694068001
 20
118.7948160359145
 30
0.0
 10
207.4611630298989
 20
118.7895618657
 30
0.0
 10
207.1219489521326
 20
118.6632155674116
 30
0.0
 10
206.4180004188824
 20
118.2762974073453
 30
0.0
 10
205.5712156230229
 20
117.6061054187499
 30
0.0
 10
204.9234007588394
 20
116.8538194047834
 30
0.0
 10
204.4969583793419
 20
116.1941068086517
 30
0.0
 10
204.1043252033168
 20
115.3836592135996
 30
0.0
 10
203.8100674086279
 20
114.4035020488488
 30
0.0
 10
203.7000182502761
 20
113.2365258073693
 30
0.0
 10
203.7910844096257
 20
112.2796839401922
 30
0.0
 10
203.9776617224889
 20
111.5148808555501
 30
0.0
 10
204.234315604654
 20
110.7934001129221
 30
0.0
 10
204.696725568784
 20
109.9109313060505
 30
0.0
 10
205.3793793770513
 20
109.0645920914527
 30
0.0
 10
206.1295588239389
 20
108.4174911356469
 30
0.0
 10
206.7910714035176
 20
107.9968086832233
 30
0.0
 10
207.4961115942805
 20
107.643699985439
 30
0.0
 10
208.0080341814964
 20
107.5128901702456
 30
0.0
 10
208.3031459916083
 20
107.4374812660359
 30
0.0
  0
SPLINE
  5
AC
330
1F
100
AcDbEntity
  8
0
  6
Continuous
 62
     7
370
    15
100
AcDbSpline
210
0.0
220
0.0
230
1.0
 70
     8
 71
     3
 72
     9
 73
     5
 74
     0
 42
0.00000001
 43
0.00000001
 12
1.0
 22
0.0
 32
0.0
 13
1.0
 23
0.0
 33
0.0
 40
0.0
 40
0.0
 40
0.0
 40
0.0
 40
0.7009329310330151
 40
1.0
 40
1.0
 40
1.0
 40
1.0
 10
71.35654603119167
 20
93.53718123435893
 30
0.0
 10
71.36568530786694
 20
93.51935194881742
 30
0.0
 10
71.37872403992054
 20
93.49391544162513
 30
0.0
 10
71.39388929368587
 20
93.54779530181692
 30
0.0
 10
71.39842472167959
 20
93.56390899368083
 30
0.0
  0
LINE
  5
AD
330
1F
100
AcDbEntity
  8
0
  6
Continuous
 62
     7
370
    15
100
AcDbLine
 10
71.335761347
 20
93.547783792
 30
0.0
 11
71.335761347
 21
132.9291392849
 31
0.0
  0
SPLINE
  5
AE
330
1F
100
AcDbEntity
  8
0
  6
Continuous
 62
     7
370
    15
100
AcDbSpline
210
0.0
220
0.0
230
1.0
 70
     8
 71
     3
 72
    10
 73
     6
 74
     0
 42
0.00000001
 43
0.00000001
 12
1.0
 22
0.0
 32
0.0
 13
1.0
 23
0.0
 33
0.0
 40
0.0
 40
0.0
 40
0.0
 40
0.0
 40
0.5
 40
0.5
 40
1.0
 40
1.0
 40
1.0
 40
1.0
 10
71.39842472167962
 20
132.9130140832423
 30
0.0
 10
71.38952043257085
 20
132.9587556024555
 30
0.0
 10
71.37300505237786
 20
132.9759464419245
 30
0.0
 10
71.34589710631626
 20
132.9756231649887
 30
0.0
 10
71.33576134695622
 20
132.9577456226923
 30
0.0
 10
71.33576134695622
 20
132.9291392849397
 30
0.0
  0
SPLINE
  5
AF
330
1F
100
AcDbEntity
  8
0
  6
Continuous
 62
     7
370
    15
100
AcDbSpline
210
0.0
220
0.0
230
1.0
 70
     8
 71
     3
 72
    26
 73
    22
 74
     0
 42
0.00000001
 43
0.00000001
 12
1.0
 22
0.0
 32
0.0
 13
1.0
 23
0.0
 33
0.0
 40
0.0
 40
0.0
 40
0.0
 40
0.0
 40
0.2500000000000165
 40
0.2500000000000165
 40
0.3750000000000256
 40
0.3750000000000256
 40
0.4375000000000291
 40
0.4375000000000291
 40
0.4687500000000291
 40
0.4687500000000291
 40
0.5000000000000292
 40
0.5000000000000292
 40
0.5312500000000293
 40
0.5312500000000293
 40
0.5625000000000293
 40
0.5625000000000293
 40
0.625000000000026
 40
0.625000000000026
 40
0.7500000000000173
 40
0.7500000000000173
 40
1.0
 40
1.0
 40
1.0
 40
1.0
 10
72.15991499306072
 20
133.6285808720594
 30
0.0
 10
72.12131447019225
 20
133.5108061757039
 30
0.0
 10
72.07501746763799
 20
133.386416489542
 30
0.0
 10
71.98107811920407
 20
133.1811971571885
 30
0.0
 10
71.9457666522906
 20
133.1096242907421
 30
0.0
 10
71.87958667654493
 20
132.9936710581416
 30
0.0
 10
71.85504830987671
 20
132.9530865233314
 30
0.0
 10
71.81167556432291
 20
132.8889448414596
 30
0.0
 10
71.79616716289772
 20
132.8670784161746
 30
0.0
 10
71.76112451831068
 20
132.8214841478314
 30
0.0
 10
71.74157422759092
 20
132.797813856864
 30
0.0
 10
71.6996469472203
 20
132.7531972975241
 30
0.0
 10
71.67699483698867
 20
132.7323172850061
 30
0.0
 10
71.63602112290205
 20
132.7014438712553
 30
0.0
 10
71.61842182300663
 20
132.6916050014229
 30
0.0
 10
71.57379483715047
 20
132.6726153857267
 30
0.0
 10
71.55323561449714
 20
132.6722910610733
 30
0.0
 10
71.50211017500047
 20
132.6815145019495
 30
0.0
 10
71.48119876201193
 20
132.7027613981665
 30
0.0
 10
71.42974885445099
 20
132.7767302769972
 30
0.0
 10
71.41208355514644
 20
132.842848370312
 30
0.0
 10
71.39842472167962
 20
132.9130140832423
 30
0.0
  0
SPLINE
  5
B0
330
1F
100
AcDbEntity
  8
0
  6
Continuous
 62
     7
370
    15
100
AcDbSpline
210
0.0
220
0.0
230
1.0
 70
     8
 71
     3
 72
    10
 73
     6
 74
     0
 42
0.00000001
 43
0.00000001
 12
1.0
 22
0.0
 32
0.0
 13
1.0
 23
0.0
 33
0.0
 40
0.0
 40
0.0
 40
0.0
 40
0.0
 40
0.5
 40
0.5
 40
1.0
 40
1.0
 40
1.0
 40
1.0
 10
72.47571641653802
 20
134.0984154307492
 30
0.0
 10
72.40815716161977
 20
134.0307240379394
 30
0.0
 10
72.34452050628327
 20
133.9560168731858
 30
0.0
 10
72.2342997517114
 20
133.7970507407592
 30
0.0
 10
72.18748345848879
 20
133.7126954747512
 30
0.0
 10
72.15991499306071
 20
133.6285808720594
 30
0.0
  0
SPLINE
  5
B1
330
1F
100
AcDbEntity
  8
0
  6
Continuous
 62
     7
370
    15
100
AcDbSpline
210
0.0
220
0.0
230
1.0
 70
     8
 71
     3
 72
    10
 73
     6
 74
     0
 42
0.00000001
 43
0.00000001
 12
1.0
 22
0.0
 32
0.0
 13
1.0
 23
0.0
 33
0.0
 40
0.0
 40
0.0
 40
0.0
 40
0.0
 40
0.5
 40
0.5
 40
1.0
 40
1.0
 40
1.0
 40
1.0
 10
72.15991499306077
 20
92.84834220486358
 30
0.0
 10
72.18739240781396
 20
92.764505408398
 30
0.0
 10
72.23410103810163
 20
92.68019492081116
 30
0.0
 10
72.34437950084357
 20
92.52107369032831
 30
0.0
 10
72.40826703945521
 20
92.44608894624022
 30
0.0
 10
72.47571641653755
 20
92.37850764617436
 30
0.0
  0
SPLINE
  5
B2
330
1F
100
AcDbEntity
  8
0
  6
Continuous
 62
     7
370
    15
100
AcDbSpline
210
0.0
220
0.0
230
1.0
 70
     8
 71
     3
 72
    24
 73
    20
 74
     0
 42
0.00000001
 43
0.00000001
 12
1.0
 22
0.0
 32
0.0
 13
1.0
 23
0.0
 33
0.0
 40
0.0
 40
0.0
 40
0.0
 40
0.0
 40
0.25
 40
0.25
 40
0.374999999999999
 40
0.374999999999999
 40
0.4374999999999993
 40
0.4374999999999993
 40
0.4687499999999994
 40
0.4687499999999994
 40
0.4999999999999995
 40
0.4999999999999995
 40
0.5624999999999971
 40
0.5624999999999971
 40
0.6249999999999947
 40
0.6249999999999947
 40
0.7499999999999947
 40
0.7499999999999947
 40
1.0
 40
1.0
 40
1.0
 40
1.0
 10
71.39842472167962
 20
93.56390899368081
 30
0.0
 10
71.41217784034984
 20
93.63455905167109
 30
0.0
 10
71.42995040775571
 20
93.70115716443603
 30
0.0
 10
71.48220149931106
 20
93.77525518466922
 30
0.0
 10
71.50323657489263
 20
93.79651299183078
 30
0.0
 10
71.55613698252105
 20
93.80465891797702
 30
0.0
 10
71.57724265539898
 20
93.80371911458126
 30
0.0
 10
71.62329482407695
 20
93.78270312300391
 30
0.0
 10
71.64166529606034
 20
93.77179431689629
 30
0.0
 10
71.68321693112603
 20
93.73915940594893
 30
0.0
 10
71.70578360388295
 20
93.71766742557755
 30
0.0
 10
71.76856462034297
 20
93.64920148199124
 30
0.0
 10
71.80169438131087
 20
93.60312702378614
 30
0.0
 10
71.85861206779587
 20
93.51811913545149
 30
0.0
 10
71.88279809329964
 20
93.4778388342701
 30
0.0
 10
71.9480060436794
 20
93.36290260780414
 30
0.0
 10
71.98272210387064
 20
93.29231962265715
 30
0.0
 10
72.07593737420154
 20
93.08811386357854
 30
0.0
 10
72.12160990956221
 20
92.96521548125118
 30
0.0
 10
72.15991499306075
 20
92.8483422048636
 30
0.0
  0
SPLINE
  5
B3
330
1F
100
AcDbEntity
  8
0
  6
Continuous
 62
     7
370
    15
100
AcDbSpline
210
0.0
220
0.0
230
1.0
 70
     8
 71
     3
 72
     8
 73
     4
 74
     0
 42
0.00000001
 43
0.00000001
 12
1.0
 22
0.0
 32
0.0
 13
1.0
 23
0.0
 33
0.0
 40
0.0
 40
0.0
 40
0.0
 40
0.0
 40
1.0
 40
1.0
 40
1.0
 40
1.0
 10
124.6276941784453
 20
143.7056570116258
 30
0.0
 10
124.1325541490809
 20
142.8189773634455
 30
0.0
 10
123.638471443802
 20
141.9317147277595
 30
0.0
 10
123.1457613469562
 20
141.0436957296332
 30
0.0
  0
LINE
  5
B4
330
1F
100
AcDbEntity
  8
0
  6
Continuous
 62
     7
370
    15
100
AcDbLine
 10
124.6276941784
 20
137.6971512008
 30
0.0
 11
124.6276941784
 21
143.7056570116
 31
0.0
  0
SPLINE
  5
B5
330
1F
100
AcDbEntity
  8
0
  6
Continuous
 62
     7
370
    15
100
AcDbSpline
210
0.0
220
0.0
230
1.0
 70
     8
 71
     3
 72
     8
 73
     4
 74
     0
 42
0.00000001
 43
0.00000001
 12
1.0
 22
0.0
 32
0.0
 13
1.0
 23
0.0
 33
0.0
 40
0.0
 40
0.0
 40
0.0
 40
0.0
 40
1.0
 40
1.0
 40
1.0
 40
1.0
 10
123.1457613469562
 20
134.2886052060449
 30
0.0
 10
123.6250394975461
 20
135.4296164358975
 30
0.0
 10
124.120607336686
 20
136.5660008466653
 30
0.0
 10
124.6276941784453
 20
137.697151200829
 30
0.0
  0
LINE
  5
B6
330
1F
100
AcDbEntity
  8
0
  6
Continuous
 62
     7
370
    15
100
AcDbLine
 10
123.145761347
 20
134.288605206
 30
0.0
 11
123.145761347
 21
141.0436957296
 31
0.0
  0
LINE
  5
B7
330
1F
100
AcDbEntity
  8
0
  6
Continuous
 62
     7
370
    15
100
AcDbLine
 10
128.585761347
 20
143.7056570116
 30
0.0
 11
124.6276941784
 21
143.7056570116
 31
0.0
  0
LINE
  5
B8
330
1F
100
AcDbEntity
  8
0
  6
Continuous
 62
     7
370
    15
100
AcDbLine
 10
124.6276941784
 20
137.6971512008
 30
0.0
 11
128.585761347
 21
137.6971512008
 31
0.0
  0
SPLINE
  5
B9
330
1F
100
AcDbEntity
  8
0
  6
Continuous
 62
     7
370
    15
100
AcDbSpline
210
0.0
220
0.0
230
1.0
 70
     8
 71
     3
 72
    10
 73
     6
 74
     0
 42
0.00000001
 43
0.00000001
 12
1.0
 22
0.0
 32
0.0
 13
1.0
 23
0.0
 33
0.0
 40
0.0
 40
0.0
 40
0.0
 40
0.0
 40
0.5
 40
0.5
 40
1.0
 40
1.0
 40
1.0
 40
1.0
 10
129.1857613469562
 20
143.0849018622255
 30
0.0
 10
129.1857613469562
 20
143.2453071285763
 30
0.0
 10
129.1235235158493
 20
143.4043689415649
 30
0.0
 10
128.9043885921068
 20
143.6352814071952
 30
0.0
 10
128.7467998971149
 20
143.7056570116258
 30
0.0
 10
128.5857613469562
 20
143.7056570116258
 30
0.0
  0
SPLINE
  5
BA
330
1F
100
AcDbEntity
  8
0
  6
Continuous
 62
     7
370
    15
100
AcDbSpline
210
0.0
220
0.0
230
1.0
 70
     8
 71
     3
 72
    12
 73
     8
 74
     0
 42
0.00000001
 43
0.00000001
 12
1.0
 22
0.0
 32
0.0
 13
1.0
 23
0.0
 33
0.0
 40
0.0
 40
0.0
 40
0.0
 40
0.0
 40
0.25
 40
0.25
 40
0.5
 40
0.5
 40
1.0
 40
1.0
 40
1.0
 40
1.0
 10
128.5857613469562
 20
137.697151200829
 30
0.0
 10
128.6769610687819
 20
137.697151200829
 30
0.0
 10
128.7675560779179
 20
137.6689315022411
 30
0.0
 10
128.9209688043645
 20
137.574488494993
 30
0.0
 10
128.9861776716882
 20
137.5082015182877
 30
0.0
 10
129.1389622010281
 20
137.2825766949994
 30
0.0
 10
129.1857613469562
 20
137.1001504319668
 30
0.0
 10
129.1857613469562
 20
136.9194137997199
 30
0.0
  0
LINE
  5
BB
330
1F
100
AcDbEntity
  8
0
  6
Continuous
 62
     7
370
    15
100
AcDbLine
 10
129.185761347
 20
136.9194137997
 30
0.0
 11
129.185761347
 21
143.0849018622
 31
0.0
  0
SPLINE
  5
BC
330
1F
100
AcDbEntity
  8
0
  6
Continuous
 62
     7
370
    15
100
AcDbSpline
210
0.0
220
0.0
230
1.0
 70
     8
 71
     3
 72
     8
 73
     4
 74
     0
 42
0.00000001
 43
0.00000001
 12
1.0
 22
0.0
 32
0.0
 13
1.0
 23
0.0
 33
0.0
 40
0.0
 40
0.0
 40
0.0
 40
0.0
 40
1.0
 40
1.0
 40
1.0
 40
1.0
 10
117.8438285154672
 20
137.697151200829
 30
0.0
 10
118.3509153572264
 20
136.5660008466653
 30
0.0
 10
118.8464831963664
 20
135.4296164358975
 30
0.0
 10
119.3257613469562
 20
134.2886052060449
 30
0.0
  0
LINE
  5
BD
330
1F
100
AcDbEntity
  8
0
  6
Continuous
 62
     7
370
    15
100
AcDbLine
 10
119.325761347
 20
134.288605206
 30
0.0
 11
119.325761347
 21
133.3743281699
 31
0.0
  0
SPLINE
  5
BE
330
1F
100
AcDbEntity
  8
0
  6
Continuous
 62
     7
370
    15
100
AcDbSpline
210
0.0
220
0.0
230
1.0
 70
     8
 71
     3
 72
     8
 73
     4
 74
     0
 42
0.00000001
 43
0.00000001
 12
1.0
 22
0.0
 32
0.0
 13
1.0
 23
0.0
 33
0.0
 40
0.0
 40
0.0
 40
0.0
 40
0.0
 40
1.0
 40
1.0
 40
1.0
 40
1.0
 10
119.3257613469562
 20
141.0436957296332
 30
0.0
 10
118.8330512501105
 20
141.9317147277596
 30
0.0
 10
118.3389685448315
 20
142.8189773634455
 30
0.0
 10
117.8438285154672
 20
143.7056570116258
 30
0.0
  0
LINE
  5
BF
330
1F
100
AcDbEntity
  8
0
  6
Continuous
 62
     7
370
    15
100
AcDbLine
 10
119.325761347
 20
134.288605206
 30
0.0
 11
119.325761347
 21
141.0436957296
 31
0.0
  0
LINE
  5
C0
330
1F
100
AcDbEntity
  8
0
  6
Continuous
 62
     7
370
    15
100
AcDbLine
 10
123.145761347
 20
133.3743281699
 30
0.0
 11
123.145761347
 21
134.288605206
 31
0.0
  0
LINE
  5
C1
330
1F
100
AcDbEntity
  8
0
  6
Continuous
 62
     7
370
    15
100
AcDbLine
 10
129.185761347
 20
136.9194137997
 30
0.0
 11
129.185761347
 21
133.0884615385
 31
0.0
  0
ARC
  5
C2
330
1F
100
AcDbEntity
  8
0
  6
Continuous
 62
     7
370
    15
100
AcDbCircle
 10
111.2359714523
 20
131.9683319052
 30
0.0
 40
7.22657960053222
100
AcDbArc
 50
70.8977090435
 51
109.1655022323
  0
LINE
  5
C3
330
1F
100
AcDbEntity
  8
0
  6
Continuous
 62
     7
370
    15
100
AcDbLine
 10
233.235761347
 20
96.5126020601
 30
0.0
 11
233.235761347
 21
129.9643210017
 31
0.0
  0
ARC
  5
C4
330
1F
100
AcDbEntity
  8
0
  6
HIDDEN
 62
     7
370
     0
100
AcDbCircle
 10
209.735761347
 20
113.2384615385
 30
0.0
 40
6.000000000002246
100
AcDbArc
 50
111.9262314796
 51
248.1667758049
  0
ARC
  5
C5
330
1F
100
AcDbEntity
  8
0
  6
HIDDEN
 62
     7
370
     0
100
AcDbCircle
 10
209.735761347
 20
113.2384615385
 30
0.0
 40
6.999999999999997
100
AcDbArc
 50
352.8267459968
 51
76.4918054383
  0
ARC
  5
C6
330
1F
100
AcDbEntity
  8
0
  6
HIDDEN
 62
     7
370
     0
100
AcDbCircle
 10
209.735761347
 20
113.2384615385
 30
0.0
 40
7.000000000000002
100
AcDbArc
 50
263.8423772014
 51
278.8217858108
  0
ARC
  5
C7
330
1F
100
AcDbEntity
  8
0
  6
HIDDEN
 62
     7
370
     0
100
AcDbCircle
 10
209.735761347
 20
113.2384615385
 30
0.0
 40
6.999999999999995
100
AcDbArc
 50
283.1763105214
 51
352.8267459968
  0
CIRCLE
  5
C8
330
1F
100
AcDbEntity
  8
0
  6
HIDDEN
 62
     7
370
     0
100
AcDbCircle
 10
209.735761347
 20
113.2384615385
 30
0.0
 40
5.000000000000019
  0
CIRCLE
  5
C9
330
1F
100
AcDbEntity
  8
0
  6
HIDDEN
 62
     7
370
     0
100
AcDbCircle
 10
209.735761347
 20
113.2384615385
 30
0.0
 40
3.750000000000012
  0
LINE
  5
CA
330
1F
100
AcDbEntity
  8
0
  6
HIDDEN
 62
     7
370
     0
100
AcDbLine
 10
117.8438285155
 20
137.6971512008
 30
0.0
 11
117.8438285155
 21
133.0884615385
 31
0.0
  0
ARC
  5
CB
330
1F
100
AcDbEntity
  8
0
  6
HIDDEN
 62
     7
370
     0
100
AcDbCircle
 10
111.536986362
 20
125.7187568603
 30
0.0
 40
3.66278805245847
100
AcDbArc
 50
265.2827092948
 51
12.3014501683
  0
ARC
  5
CC
330
1F
100
AcDbEntity
  8
0
  6
HIDDEN
 62
     7
370
     0
100
AcDbCircle
 10
110.9536934254
 20
125.7304513051
 30
0.0
 40
3.672922165405652
100
AcDbArc
 50
166.4845093491
 51
274.4044574913
  0
LINE
  5
CD
330
1F
100
AcDbEntity
  8
0
  6
HIDDEN
 62
     7
370
     0
100
AcDbLine
 10
91.2309115515
 20
89.7138619156
 30
0.0
 11
90.6967661224
 21
89.6592473161
 31
0.0
  0
LINE
  5
CE
330
1F
100
AcDbEntity
  8
0
  6
HIDDEN
 62
     7
370
     0
100
AcDbLine
 10
90.4591124504
 20
136.841794719
 30
0.0
 11
91.2308188312
 21
136.7630445684
 31
0.0
  0
SPLINE
  5
CF
330
1F
100
AcDbEntity
  8
0
  6
HIDDEN
 62
     7
370
     0
100
AcDbSpline
210
0.0
220
0.0
230
1.0
 70
     8
 71
     3
 72
    11
 73
     7
 74
     0
 42
0.00000001
 43
0.00000001
 12
1.0
 22
0.0
 32
0.0
 13
1.0
 23
0.0
 33
0.0
 40
0.0
 40
0.0
 40
0.0
 40
0.0
 40
0.4851688718409364
 40
0.6579720722651714
 40
0.836305665303203
 40
1.0
 40
1.0
 40
1.0
 40
1.0
 10
209.7357613469562
 20
107.2384615384616
 30
0.0
 10
210.1119108415161
 20
107.2575235697796
 30
0.0
 10
210.622033969321
 20
107.2833749484971
 30
0.0
 10
211.2514875264548
 20
107.4292383209921
 30
0.0
 10
211.6327429762841
 20
107.5398738039779
 30
0.0
 10
211.8776728807057
 20
107.6357265109157
 30
0.0
 10
211.99489616717
 20
107.6816015515739
 30
0.0
  0
SPLINE
  5
D0
330
1F
100
AcDbEntity
  8
0
  6
HIDDEN
 62
     7
370
     0
100
AcDbSpline
210
0.0
220
0.0
230
1.0
 70
     8
 71
     3
 72
    13
 73
     9
 74
     0
 42
0.00000001
 43
0.00000001
 12
1.0
 22
0.0
 32
0.0
 13
1.0
 23
0.0
 33
0.0
 40
0.0
 40
0.0
 40
0.0
 40
0.0
 40
0.2569182589783983
 40
0.4997811136844814
 40
0.7424861379854035
 40
0.8288498517979299
 40
0.9179398046855305
 40
1.0
 40
1.0
 40
1.0
 40
1.0
 10
211.9959370886204
 20
118.7915105097113
 30
0.0
 10
211.6209876468936
 20
118.9218346642482
 30
0.0
 10
210.8916013809788
 20
119.1753532399753
 30
0.0
 10
209.7354783714073
 20
119.271214540263
 30
0.0
 10
208.8493316273315
 20
119.1907460843157
 30
0.0
 10
208.2195574644685
 20
119.0480026609382
 30
0.0
 10
207.8380481691253
 20
118.936702064179
 30
0.0
 10
207.5928384431946
 20
118.8407983407054
 30
0.0
 10
207.4752694068001
 20
118.7948160359145
 30
0.0
  0
SPLINE
  5
D1
330
1F
100
AcDbEntity
  8
0
  6
HIDDEN
 62
     7
370
     0
100
AcDbSpline
210
0.0
220
0.0
230
1.0
 70
     8
 71
     3
 72
     9
 73
     5
 74
     0
 42
0.00000001
 43
0.00000001
 12
1.0
 22
0.0
 32
0.0
 13
1.0
 23
0.0
 33
0.0
 40
0.0
 40
0.0
 40
0.0
 40
0.0
 40
0.2250320172194171
 40
1.0
 40
1.0
 40
1.0
 40
1.0
 10
208.3031459916083
 20
107.4374812660359
 30
0.0
 10
208.4066208641217
 20
107.4039832229129
 30
0.0
 10
208.8664437541801
 20
107.2551242137063
 30
0.0
 10
209.356208978798
 20
107.245736621701
 30
0.0
 10
209.7357613469562
 20
107.2384615384616
 30
0.0
  0
SPLINE
  5
D2
330
1F
100
AcDbEntity
  8
0
  6
HIDDEN
 62
     7
370
     0
100
AcDbSpline
210
0.0
220
0.0
230
1.0
 70
     8
 71
     3
 72
    15
 73
    11
 74
     0
 42
0.00000001
 43
0.00000001
 12
1.0
 22
0.0
 32
0.0
 13
1.0
 23
0.0
 33
0.0
 40
0.0
 40
0.0
 40
0.0
 40
0.0
 40
0.1409172169897704
 40
0.2818898291171903
 40
0.4212989265166057
 40
0.5593768372264385
 40
0.6988856205980568
 40
0.840367197904641
 40
0.9813164454670267
 40
1.0
 40
1.0
 40
1.0
 40
1.0
 10
96.9907633485578
 20
93.4009330626451
 30
0.0
 10
96.67472166228525
 20
93.44128687996673
 30
0.0
 10
96.04251405245323
 20
93.52201037786155
 30
0.0
 10
94.808350930776
 20
93.59856547546381
 30
0.0
 10
93.53762892991749
 20
93.59388942432477
 30
0.0
 10
92.34906952489003
 20
93.51309341259255
 30
0.0
 10
91.35594685210899
 20
93.38869661608082
 30
0.0
 10
90.71653784581238
 20
93.2822930774187
 30
0.0
 10
90.43551773922886
 20
93.22921241674153
 30
0.0
 10
90.50207847692202
 20
93.2414684567558
 30
0.0
 10
90.50986880044026
 20
93.24290291376562
 30
0.0
  0
SPLINE
  5
D3
330
1F
100
AcDbEntity
  8
0
  6
HIDDEN
 62
     7
370
     0
100
AcDbSpline
210
0.0
220
0.0
230
1.0
 70
     8
 71
     3
 72
    15
 73
    11
 74
     0
 42
0.00000001
 43
0.00000001
 12
1.0
 22
0.0
 32
0.0
 13
1.0
 23
0.0
 33
0.0
 40
0.0
 40
0.0
 40
0.0
 40
0.0
 40
0.1201202395113828
 40
0.2584739316900693
 40
0.3987301965958639
 40
0.54040228904327
 40
0.6807395403003644
 40
0.8190356063860877
 40
0.9577823106998845
 40
1.0
 40
1.0
 40
1.0
 40
1.0
 10
90.50986880044026
 20
133.2340201631575
 30
0.0
 10
90.53057793691075
 20
133.2299955693038
 30
0.0
 10
90.57513971889853
 20
133.221335475043
 30
0.0
 10
91.13757932477124
 20
133.1220443484343
 30
0.0
 10
92.03104153709258
 20
132.9981267584531
 30
0.0
 10
93.19002069128474
 20
132.8984163216316
 30
0.0
 10
94.4630575714101
 20
132.871277832556
 30
0.0
 10
95.69734284605369
 20
132.9266166667199
 30
0.0
 10
96.52530564281972
 20
133.0130952657041
 30
0.0
 10
96.90271618748368
 20
133.064092683994
 30
0.0
 10
96.99076334855783
 20
133.075990014278
 30
0.0
  0
SPLINE
  5
D4
330
1F
100
AcDbEntity
  8
0
  6
HIDDEN
 62
     7
370
     0
100
AcDbSpline
210
0.0
220
0.0
230
1.0
 70
     8
 71
     3
 72
    10
 73
     6
 74
     0
 42
0.00000001
 43
0.00000001
 12
1.0
 22
0.0
 32
0.0
 13
1.0
 23
0.0
 33
0.0
 40
0.0
 40
0.0
 40
0.0
 40
0.0
 40
0.4474980330246504
 40
0.8949793102011562
 40
1.0
 40
1.0
 40
1.0
 40
1.0
 10
96.9907633485578
 20
133.075990014278
 30
0.0
 10
97.2374732142434
 20
133.1055027227574
 30
0.0
 10
97.73088370795818
 20
133.1645270346601
 30
0.0
 10
98.01990157394178
 20
133.178465008233
 30
0.0
 10
97.9594953015283
 20
133.1745721030548
 30
0.0
 10
97.94801315526236
 20
133.1738321317758
 30
0.0
  0
SPLINE
  5
D5
330
1F
100
AcDbEntity
  8
0
  6
HIDDEN
 62
     7
370
     0
100
AcDbSpline
210
0.0
220
0.0
230
1.0
 70
     8
 71
     3
 72
    10
 73
     6
 74
     0
 42
0.00000001
 43
0.00000001
 12
1.0
 22
0.0
 32
0.0
 13
1.0
 23
0.0
 33
0.0
 40
0.0
 40
0.0
 40
0.0
 40
0.0
 40
0.3454371160332159
 40
0.796685321207651
 40
0.9999999999999999
 40
0.9999999999999999
 40
0.9999999999999999
 40
0.9999999999999999
 10
97.94802443694799
 20
93.30309017824611
 30
0.0
 10
97.93846436640852
 20
93.30364581352256
 30
0.0
 10
97.916415873311
 20
93.3049272811129
 30
0.0
 10
97.49948996805793
 20
93.33488355465369
 30
0.0
 10
97.11133019134144
 20
93.38527950660794
 30
0.0
 10
96.9907633485578
 20
93.4009330626451
 30
0.0
  0
LINE
  5
D6
330
1F
100
AcDbEntity
  8
0
  6
HIDDEN
 62
     7
370
     0
100
AcDbLine
 10
84.2397359432
 20
96.2384615385
 30
0.0
 11
84.2397359432
 21
130.2384615385
 31
0.0
  0
LWPOLYLINE
  5
D7
330
1F
100
AcDbEntity
  8
0
  6
HIDDEN
 62
     7
370
     0
100
AcDbPolyline
 90
       13
 70
   128
 43
0.0
 10
111.235761347
 20
135.1840639531
 10
112.0956431078
 20
135.2308228417
 10
112.9153177532
 20
135.3689131138
 10
113.6564582077
 20
135.5918778217
 10
114.2844095675
 20
135.8892913835
 10
114.7698095247
 20
136.2472470717
 10
115.089961317
 20
136.649007276
 10
115.2298950024
 20
137.0757861359
 10
115.1830674371
 20
137.5076279462
 10
114.9516682262
 20
137.9243402638
 10
114.5465173396
 20
138.3064380838
 10
113.9865591824
 20
138.6360549369
 10
113.6009106898
 20
138.7969858813
  0
LWPOLYLINE
  5
D8
330
1F
100
AcDbEntity
  8
0
  6
HIDDEN
 62
     7
370
     0
100
AcDbPolyline
 90
       13
 70
   128
 43
0.0
 10
108.863499978
 20
138.794372619
 10
108.4849635115
 20
138.6360549369
 10
107.9250053543
 20
138.3064380838
 10
107.5198544677
 20
137.9243402638
 10
107.2884552568
 20
137.5076279462
 10
107.2416276916
 20
137.0757861359
 10
107.3815613769
 20
136.649007276
 10
107.7017131692
 20
136.2472470717
 10
108.1871131264
 20
135.8892913835
 10
108.8150644862
 20
135.5918778217
 10
109.5562049407
 20
135.3689131138
 10
110.3758795861
 20
135.2308228417
 10
111.235761347
 20
135.1840639531
  0
SPLINE
  5
D9
330
1F
100
AcDbEntity
  8
0
  6
HIDDEN
 62
     7
370
     0
100
AcDbSpline
210
0.0
220
0.0
230
1.0
 70
     8
 71
     3
 72
     8
 73
     4
 74
     0
 42
0.00000001
 43
0.00000001
 12
1.0
 22
0.0
 32
0.0
 13
1.0
 23
0.0
 33
0.0
 40
0.0
 40
0.0
 40
0.0
 40
0.0
 40
0.0011559732291308
 40
0.0011559732291308
 40
0.0011559732291308
 40
0.0011559732291308
 10
71.33576134695622
 20
115.2383021570942
 30
0.0
 10
71.66909592202353
 20
115.2343348772949
 30
0.0
 10
72.00242711305027
 20
115.2301549947184
 30
0.0
 10
72.33576134695622
 20
115.2255898413106
 30
0.0
  0
SPLINE
  5
DA
330
1F
100
AcDbEntity
  8
0
  6
HIDDEN
 62
     7
370
     0
100
AcDbSpline
210
0.0
220
0.0
230
1.0
 70
     8
 71
     3
 72
    11
 73
     7
 74
     0
 42
0.00000001
 43
0.00000001
 12
1.0
 22
0.0
 32
0.0
 13
1.0
 23
0.0
 33
0.0
 40
0.0
 40
0.0
 40
0.0
 40
0.0
 40
0.0005782382535738
 40
0.0005782382535738
 40
0.0005782382535738
 40
0.0011564766069467
 40
0.0011564766069467
 40
0.0011564766069467
 40
0.0011564766069467
 10
72.3357613469562
 20
111.2417612362433
 30
0.0
 10
72.16910739298758
 20
111.2413236584816
 30
0.0
 10
72.00244672078563
 20
111.2408435938093
 30
0.0
 10
71.83577983212022
 20
111.2403240544399
 30
0.0
 10
71.66911291372416
 20
111.2398045149779
 30
0.0
 10
71.50243978389092
 20
111.239245685956
 30
0.0
 10
71.3357613469562
 20
111.2386601423729
 30
0.0
  0
LINE
  5
DB
330
1F
100
AcDbEntity
  8
0
  6
HIDDEN
 62
     7
370
     0
100
AcDbLine
 10
110.8955873155
 20
96.2384615385
 30
0.0
 11
110.8955873155
 21
130.2384615385
 31
0.0
  0
LINE
  5
DC
330
1F
100
AcDbEntity
  8
0
  6
HIDDEN
 62
     7
370
     0
100
AcDbLine
 10
113.185761347
 20
97.5134615385
 30
0.0
 11
113.185761347
 21
128.9634615378
 31
0.0
  0
SPLINE
  5
DD
330
1F
100
AcDbEntity
  8
0
  6
HIDDEN
 62
     7
370
     0
100
AcDbSpline
210
0.0
220
0.0
230
1.0
 70
     8
 71
     3
 72
    16
 73
    12
 74
     0
 42
0.00000001
 43
0.00000001
 12
1.0
 22
0.0
 32
0.0
 13
1.0
 23
0.0
 33
0.0
 40
0.0
 40
0.0
 40
0.0
 40
0.0
 40
0.124999999999998
 40
0.124999999999998
 40
0.249999999999996
 40
0.249999999999996
 40
0.4999999999999973
 40
0.4999999999999973
 40
0.7499999999999987
 40
0.7499999999999987
 40
1.0
 40
1.0
 40
1.0
 40
1.0
 10
80.0357613469562
 20
97.4369711024299
 30
0.0
 10
80.13088310162203
 20
97.4369711024299
 30
0.0
 10
80.22421317035011
 20
97.43315526903709
 30
0.0
 10
80.40747493108812
 20
97.41838471630729
 30
0.0
 10
80.49835264664512
 20
97.4072266683317
 30
0.0
 10
80.75515434416486
 20
97.36475539818998
 30
0.0
 10
80.91022170903686
 20
97.32370920098718
 30
0.0
 10
81.16396817059147
 20
97.2285630844053
 30
0.0
 10
81.26483862225933
 20
97.17380035032372
 30
0.0
 10
81.40008503695417
 20
97.06253922641983
 30
0.0
 10
81.43576134695621
 20
97.00536948909115
 30
0.0
 10
81.43576134695621
 20
96.95094791605743
 30
0.0
  0
SPLINE
  5
DE
330
1F
100
AcDbEntity
  8
0
  6
HIDDEN
 62
     7
370
     0
100
AcDbSpline
210
0.0
220
0.0
230
1.0
 70
     8
 71
     3
 72
     8
 73
     4
 74
     0
 42
0.00000001
 43
0.00000001
 12
1.0
 22
0.0
 32
0.0
 13
1.0
 23
0.0
 33
0.0
 40
0.0
 40
0.0
 40
0.0
 40
0.0
 40
1.0
 40
1.0
 40
1.0
 40
1.0
 10
72.63576134695727
 20
99.58177404851213
 30
0.0
 10
72.63576134695917
 20
98.69787690619519
 30
0.0
 10
72.62228072104966
 20
97.98329366113326
 30
0.0
 10
72.62092935285858
 20
97.43697110242991
 30
0.0
  0
LINE
  5
DF
330
1F
100
AcDbEntity
  8
0
  6
HIDDEN
 62
     7
370
     0
100
AcDbLine
 10
72.335761347
 20
103.6376347537
 30
0.0
 11
72.335761347
 21
100.6066843078
 31
0.0
  0
SPLINE
  5
E0
330
1F
100
AcDbEntity
  8
0
  6
HIDDEN
 62
     7
370
     0
100
AcDbSpline
210
0.0
220
0.0
230
1.0
 70
     8
 71
     3
 72
    10
 73
     6
 74
     0
 42
0.00000001
 43
0.00000001
 12
1.0
 22
0.0
 32
0.0
 13
1.0
 23
0.0
 33
0.0
 40
0.0
 40
0.0
 40
0.0
 40
0.0
 40
0.5
 40
0.5
 40
1.0
 40
1.0
 40
1.0
 40
1.0
 10
72.63576134691965
 20
105.0054751628187
 30
0.0
 10
72.63576134691965
 20
104.7634911966467
 30
0.0
 10
72.60761131817348
 20
104.5291487690275
 30
0.0
 10
72.50402140520278
 20
104.0737737492927
 30
0.0
 10
72.42739269644109
 20
103.8521691874106
 30
0.0
 10
72.33576134695622
 20
103.6376347537012
 30
0.0
  0
LINE
  5
E1
330
1F
100
AcDbEntity
  8
0
  6
HIDDEN
 62
     7
370
     0
100
AcDbLine
 10
72.6357613469
 20
116.84309516
 30
0.0
 11
72.6357613469
 21
105.0054751628
 31
0.0
  0
SPLINE
  5
E2
330
1F
100
AcDbEntity
  8
0
  6
HIDDEN
 62
     7
370
     0
100
AcDbSpline
210
0.0
220
0.0
230
1.0
 70
     8
 71
     3
 72
     8
 73
     4
 74
     0
 42
0.00000001
 43
0.00000001
 12
1.0
 22
0.0
 32
0.0
 13
1.0
 23
0.0
 33
0.0
 40
0.0
 40
0.0
 40
0.0
 40
0.0
 40
1.0
 40
1.0
 40
1.0
 40
1.0
 10
72.33576134695622
 20
122.8454008517407
 30
0.0
 10
72.51679281162318
 20
122.4132933683293
 30
0.0
 10
72.63576134692539
 20
121.959147964753
 30
0.0
 10
72.63576134691968
 20
121.4714479140735
 30
0.0
  0
LINE
  5
E3
330
1F
100
AcDbEntity
  8
0
  6
HIDDEN
 62
     7
370
     0
100
AcDbLine
 10
72.335761347
 20
125.8786038519
 30
0.0
 11
72.335761347
 21
122.8454008517
 31
0.0
  0
SPLINE
  5
E4
330
1F
100
AcDbEntity
  8
0
  6
HIDDEN
 62
     7
370
     0
100
AcDbSpline
210
0.0
220
0.0
230
1.0
 70
     8
 71
     3
 72
    10
 73
     6
 74
     0
 42
0.00000001
 43
0.00000001
 12
1.0
 22
0.0
 32
0.0
 13
1.0
 23
0.0
 33
0.0
 40
0.0
 40
0.0
 40
0.0
 40
0.0
 40
0.5
 40
0.5
 40
1.0
 40
1.0
 40
1.0
 40
1.0
 10
72.63576134706135
 20
126.8951490283814
 30
0.0
 10
72.63576134705956
 20
126.7305126827888
 30
0.0
 10
72.6086026766349
 20
126.563357460003
 30
0.0
 10
72.50283768257617
 20
126.2247344543422
 30
0.0
 10
72.42642289505402
 20
126.0524626781822
 30
0.0
 10
72.33576134695622
 20
125.8786038519325
 30
0.0
  0
SPLINE
  5
E5
330
1F
100
AcDbEntity
  8
0
  6
HIDDEN
 62
     7
370
     0
100
AcDbSpline
210
0.0
220
0.0
230
1.0
 70
     8
 71
     3
 72
    18
 73
    14
 74
     0
 42
0.00000001
 43
0.00000001
 12
1.0
 22
0.0
 32
0.0
 13
1.0
 23
0.0
 33
0.0
 40
0.0
 40
0.0
 40
0.0
 40
0.0
 40
0.2500000000000033
 40
0.2500000000000033
 40
0.3750000000000029
 40
0.3750000000000029
 40
0.5000000000000026
 40
0.5000000000000026
 40
0.6250000000000022
 40
0.6250000000000022
 40
0.7500000000000018
 40
0.7500000000000018
 40
1.0
 40
1.0
 40
1.0
 40
1.0
 10
77.43576134695621
 20
129.5259751608657
 30
0.0
 10
77.43576134695621
 20
129.4715006403135
 30
0.0
 10
77.40085065556404
 20
129.415119580961
 30
0.0
 10
77.29884135423099
 20
129.3310427401075
 30
0.0
 10
77.25720499955288
 20
129.3037090361166
 30
0.0
 10
77.15879920406412
 20
129.2507551205176
 30
0.0
 10
77.10125599235984
 20
129.2248677668005
 30
0.0
 10
76.9739578187869
 20
129.1770902219672
 30
0.0
 10
76.90437051402942
 20
129.1551423037893
 30
0.0
 10
76.75293626887448
 20
129.1157097388766
 30
0.0
 10
76.67025236578053
 20
129.0981534896507
 30
0.0
 10
76.41414090374248
 20
129.0557147242302
 30
0.0
 10
76.2262258998545
 20
129.0399519744932
 30
0.0
 10
76.0357613469562
 20
129.0399519744932
 30
0.0
  0
LINE
  5
E6
330
1F
100
AcDbEntity
  8
0
  6
HIDDEN
 62
     7
370
     0
100
AcDbLine
 10
76.035761347
 20
129.0399519745
 30
0.0
 11
72.6357613471
 21
129.0399519745
 31
0.0
  0
LINE
  5
E7
330
1F
100
AcDbEntity
  8
0
  6
HIDDEN
 62
     7
370
     0
100
AcDbLine
 10
72.5667923603
 20
97.4369711024
 30
0.0
 11
80.035761347
 21
97.4369711024
 31
0.0
  0
SPLINE
  5
E8
330
1F
100
AcDbEntity
  8
0
  6
HIDDEN
 62
     7
370
     0
100
AcDbSpline
210
0.0
220
0.0
230
1.0
 70
     8
 71
     3
 72
    22
 73
    18
 74
     0
 42
0.00000001
 43
0.00000001
 12
1.0
 22
0.0
 32
0.0
 13
1.0
 23
0.0
 33
0.0
 40
0.0
 40
0.0
 40
0.0
 40
0.0
 40
0.125
 40
0.125
 40
0.2499999999999999
 40
0.2499999999999999
 40
0.5000000000000003
 40
0.5000000000000003
 40
0.5625000000000004
 40
0.5625000000000004
 40
0.6250000000000006
 40
0.6250000000000006
 40
0.7500000000000004
 40
0.7500000000000004
 40
0.8750000000000002
 40
0.8750000000000002
 40
1.0
 40
1.0
 40
1.0
 40
1.0
 10
72.5667923603141
 20
97.4369711024299
 30
0.0
 10
72.5537099675857
 20
97.69207681257757
 30
0.0
 10
72.5404904041459
 20
97.98523507168147
 30
0.0
 10
72.5180432263518
 20
98.64753553730628
 30
0.0
 10
72.50856475932733
 20
99.01780945791766
 30
0.0
 10
72.48936679839082
 20
100.2403662610314
 30
0.0
 10
72.49048057138769
 20
101.1775051871633
 30
0.0
 10
72.50939136434074
 20
102.4973764166783
 30
0.0
 10
72.51402089219974
 20
102.7688783256546
 30
0.0
 10
72.5245021119457
 20
103.3272631604569
 30
0.0
 10
72.53029737323011
 20
103.6143860163965
 30
0.0
 10
72.54860659413504
 20
104.4869752707682
 30
0.0
 10
72.56264152841544
 20
105.0874309471241
 30
0.0
 10
72.59209870055226
 20
106.3249054396201
 30
0.0
 10
72.60765439153381
 20
106.9619215962636
 30
0.0
 10
72.63144894153072
 20
108.2734101939482
 30
0.0
 10
72.63946799367608
 20
108.9495328056087
 30
0.0
 10
72.6357613469562
 20
109.6338279168935
 30
0.0
  0
LINE
  5
E9
330
1F
100
AcDbEntity
  8
0
  6
HIDDEN
 62
     7
370
     0
100
AcDbLine
 10
72.6357613471
 20
116.84309516
 30
0.0
 11
72.6357613471
 21
129.0399519745
 31
0.0
  0
SPLINE
  5
EA
330
1F
100
AcDbEntity
  8
0
  6
HIDDEN
 62
     7
370
     0
100
AcDbSpline
210
0.0
220
0.0
230
1.0
 70
     8
 71
     3
 72
    10
 73
     6
 74
     0
 42
0.00000001
 43
0.00000001
 12
1.0
 22
0.0
 32
0.0
 13
1.0
 23
0.0
 33
0.0
 40
0.0
 40
0.0
 40
0.0
 40
0.0
 40
0.5
 40
0.5
 40
1.0
 40
1.0
 40
1.0
 40
1.0
 10
72.63576134695619
 20
109.6338279168784
 30
0.0
 10
72.63576134695602
 20
109.9077430649525
 30
0.0
 10
72.6100021170872
 20
110.1786846436821
 30
0.0
 10
72.50679618435379
 20
110.7143757252842
 30
0.0
 10
72.42945802047939
 20
110.980122528806
 30
0.0
 10
72.33576134695622
 20
111.2417612362433
 30
0.0
  0
SPLINE
  5
EB
330
1F
100
AcDbEntity
  8
0
  6
HIDDEN
 62
     7
370
     0
100
AcDbSpline
210
0.0
220
0.0
230
1.0
 70
     8
 71
     3
 72
    10
 73
     6
 74
     0
 42
0.00000001
 43
0.00000001
 12
1.0
 22
0.0
 32
0.0
 13
1.0
 23
0.0
 33
0.0
 40
0.0
 40
0.0
 40
0.0
 40
0.0
 40
0.5
 40
0.5
 40
1.0
 40
1.0
 40
1.0
 40
1.0
 10
72.33576134695622
 20
115.2255898413106
 30
0.0
 10
72.42899192730731
 20
115.4894836479088
 30
0.0
 10
72.50402153883603
 20
115.7556639570072
 30
0.0
 10
72.60908863681557
 20
116.2939865288259
 30
0.0
 10
72.63576134706015
 20
116.5667346434415
 30
0.0
 10
72.63576134706133
 20
116.8430951600287
 30
0.0
  0
LINE
  5
EC
330
1F
100
AcDbEntity
  8
0
  6
HIDDEN
 62
     7
370
     0
100
AcDbLine
 10
72.335761347
 20
111.2417612362
 30
0.0
 11
72.335761347
 21
115.2255898413
 31
0.0
  0
LINE
  5
ED
330
1F
100
AcDbEntity
  8
0
  6
HIDDEN
 62
     7
370
     0
100
AcDbLine
 10
72.485761347
 20
95.2484615385
 30
0.0
 11
72.485761347
 21
92.3685237731
 31
0.0
  0
LINE
  5
EE
330
1F
100
AcDbEntity
  8
0
  6
HIDDEN
 62
     7
370
     0
100
AcDbLine
 10
81.435761347
 20
95.2484615385
 30
0.0
 11
81.435761347
 21
91.2747240073
 31
0.0
  0
LINE
  5
EF
330
1F
100
AcDbEntity
  8
0
  6
HIDDEN
 62
     7
370
     0
100
AcDbLine
 10
72.485761347
 20
131.2284615385
 30
0.0
 11
72.485761347
 21
134.1083993039
 31
0.0
  0
LINE
  5
F0
330
1F
100
AcDbEntity
  8
0
  6
HIDDEN
 62
     7
370
     0
100
AcDbLine
 10
77.435761347
 20
131.2284615385
 30
0.0
 11
77.435761347
 21
135.0825692108
 31
0.0
  0
LINE
  5
F1
330
1F
100
AcDbEntity
  8
0
  6
HIDDEN
 62
     7
370
     0
100
AcDbLine
 10
125.035761347
 20
103.7384615385
 30
0.0
 11
125.035761347
 21
122.7384615385
 31
0.0
  0
LINE
  5
F2
330
1F
100
AcDbEntity
  8
0
  6
HIDDEN
 62
     7
370
     0
100
AcDbLine
 10
122.035761347
 20
103.7384615385
 30
0.0
 11
122.035761347
 21
122.7384615385
 31
0.0
  0
LINE
  5
F3
330
1F
100
AcDbEntity
  8
0
  6
HIDDEN
 62
     7
370
     0
100
AcDbLine
 10
113.685761347
 20
104.7384615385
 30
0.0
 11
113.685761347
 21
121.7384615385
 31
0.0
  0
LINE
  5
F4
330
1F
100
AcDbEntity
  8
0
  6
HIDDEN
 62
     7
370
     0
100
AcDbLine
 10
129.185761347
 20
86.8384615385
 30
0.0
 11
123.0480865446
 21
86.8384615385
 31
0.0
  0
LINE
  5
F5
330
1F
100
AcDbEntity
  8
0
  6
HIDDEN
 62
     7
370
     0
100
AcDbLine
 10
108.185761347
 20
81.7543385556
 30
0.0
 11
108.185761347
 21
86.8384615385
 31
0.0
  0
LINE
  5
F6
330
1F
100
AcDbEntity
  8
0
  6
HIDDEN
 62
     7
370
     0
100
AcDbLine
 10
116.185761347
 20
86.8384615385
 30
0.0
 11
108.185761347
 21
86.8384615385
 31
0.0
  0
LINE
  5
F7
330
1F
100
AcDbEntity
  8
0
  6
HIDDEN
 62
     7
370
     0
100
AcDbLine
 10
119.4234361493
 20
86.8384615385
 30
0.0
 11
116.185761347
 21
86.8384615385
 31
0.0
  0
LINE
  5
F8
330
1F
100
AcDbEntity
  8
0
  6
HIDDEN
 62
     7
370
     0
100
AcDbLine
 10
184.235761347
 20
105.3384615385
 30
0.0
 11
184.235761347
 21
121.1384613423
 31
0.0
  0
LINE
  5
F9
330
1F
100
AcDbEntity
  8
0
  6
HIDDEN
 62
     7
370
     0
100
AcDbLine
 10
188.235761347
 20
105.2384615385
 30
0.0
 11
188.235761347
 21
121.2384615385
 31
0.0
  0
LINE
  5
FA
330
1F
100
AcDbEntity
  8
0
  6
HIDDEN
 62
     7
370
     0
100
AcDbLine
 10
116.185761347
 20
139.6384615385
 30
0.0
 11
108.185761347
 21
139.6384615385
 31
0.0
  0
LINE
  5
FB
330
1F
100
AcDbEntity
  8
0
  6
HIDDEN
 62
     7
370
     0
100
AcDbLine
 10
129.185761347
 20
139.6384615385
 30
0.0
 11
122.7514638153
 21
139.6384615385
 31
0.0
  0
LINE
  5
FC
330
1F
100
AcDbEntity
  8
0
  6
HIDDEN
 62
     7
370
     0
100
AcDbLine
 10
119.7200588786
 20
139.6384615385
 30
0.0
 11
116.185761347
 21
139.6384615385
 31
0.0
  0
SPLINE
  5
FD
330
1F
100
AcDbEntity
  8
0
  6
HIDDEN
 62
     7
370
     0
100
AcDbSpline
210
0.0
220
0.0
230
1.0
 70
     8
 71
     3
 72
    11
 73
     7
 74
     0
 42
0.00000001
 43
0.00000001
 12
1.0
 22
0.0
 32
0.0
 13
1.0
 23
0.0
 33
0.0
 40
0.0
 40
0.0
 40
0.0
 40
0.0
 40
0.0008203708524183
 40
0.0008203708524183
 40
0.0008203708524183
 40
0.0016409967870154
 40
0.0016409967870154
 40
0.0016409967870154
 40
0.0016409967870154
 10
72.48576134695621
 20
97.38642878781883
 30
0.0
 10
72.29460304665756
 20
97.3452497591997
 30
0.0
 10
72.10317597658535
 20
97.30649578696969
 30
0.0
 10
71.91153035306472
 20
97.27012802769114
 30
0.0
 10
71.71982494798426
 20
97.2337489239251
 30
0.0
 10
71.52788599592532
 20
97.19975467315757
 30
0.0
 10
71.3357613488545
 20
97.16810654776636
 30
0.0
  0
ELLIPSE
  5
FE
330
1F
100
AcDbEntity
  8
0
  6
HIDDEN
 62
     7
370
     0
100
AcDbEllipse
 10
67.0933294842
 20
113.2384615385
 30
0.0
 11
20.19992452772428
 21
-1.421085471520200E-14
 31
0.0
210
0.0
220
0.0
230
1.0
 40
0.816496581
 41
1.300566354937166
 42
1.359198697442763
  0
LINE
  5
FF
330
1F
100
AcDbEntity
  8
0
  6
HIDDEN
 62
     7
370
     0
100
AcDbLine
 10
72.485761347
 20
95.2484615385
 30
0.0
 11
72.485761347
 21
97.3864287878
 31
0.0
  0
LINE
  5
100
330
1F
100
AcDbEntity
  8
0
  6
HIDDEN
 62
     7
370
     0
100
AcDbLine
 10
72.5667923603
 20
97.4369711024
 30
0.0
 11
72.485761347
 21
97.3864287878
 31
0.0
  0
LINE
  5
101
330
1F
100
AcDbEntity
  8
0
  6
HIDDEN
 62
     7
370
     0
100
AcDbLine
 10
81.435761347
 20
95.2484615385
 30
0.0
 11
81.435761347
 21
96.9509479161
 31
0.0
  0
LINE
  5
102
330
1F
100
AcDbEntity
  8
0
  6
HIDDEN
 62
     7
370
     0
100
AcDbLine
 10
72.485761347
 20
131.2284615385
 30
0.0
 11
72.485761347
 21
129.1330859875
 31
0.0
  0
SPLINE
  5
103
330
1F
100
AcDbEntity
  8
0
  6
HIDDEN
 62
     7
370
     0
100
AcDbSpline
210
0.0
220
0.0
230
1.0
 70
     8
 71
     3
 72
     8
 73
     4
 74
     0
 42
0.00000001
 43
0.00000001
 12
1.0
 22
0.0
 32
0.0
 13
1.0
 23
0.0
 33
0.0
 40
0.0
 40
0.0
 40
0.0
 40
0.0
 40
1.0
 40
1.0
 40
1.0
 40
1.0
 10
72.48576134695621
 20
129.1330859874601
 30
0.0
 10
72.53576684480366
 20
129.1020502139273
 30
0.0
 10
72.58576691437203
 20
129.0710055695864
 30
0.0
 10
72.63576134706136
 20
129.0399519744932
 30
0.0
  0
LINE
  5
104
330
1F
100
AcDbEntity
  8
0
  6
HIDDEN
 62
     7
370
     0
100
AcDbLine
 10
77.435761347
 20
131.2284615385
 30
0.0
 11
77.435761347
 21
129.5259751609
 31
0.0
  0
SPLINE
  5
105
330
1F
100
AcDbEntity
  8
0
  6
HIDDEN
 62
     7
370
     0
100
AcDbSpline
210
0.0
220
0.0
230
1.0
 70
     8
 71
     3
 72
    20
 73
    16
 74
     0
 42
0.00000001
 43
0.00000001
 12
1.0
 22
0.0
 32
0.0
 13
1.0
 23
0.0
 33
0.0
 40
0.0
 40
0.0
 40
0.0
 40
0.0
 40
0.1119595197684142
 40
0.1774767634647507
 40
0.2490961890179794
 40
0.3298422315093885
 40
0.3986125823881415
 40
0.4998893016461092
 40
0.6138510293005034
 40
0.6790150176761197
 40
0.7495394203319945
 40
0.8296829944212418
 40
0.8981246285268906
 40
0.9995320175861913
 40
1.0
 40
1.0
 40
1.0
 40
1.0
 10
97.98460179681908
 20
89.63846777669374
 30
0.0
 10
97.94127805852051
 20
89.65189709473078
 30
0.0
 10
97.87260183634375
 20
89.67318507368677
 30
0.0
 10
97.42742271029346
 20
89.77649588533527
 30
0.0
 10
96.90086442662368
 20
89.88979911539712
 30
0.0
 10
96.21543940549452
 20
90.01273198318974
 30
0.0
 10
95.3221220081957
 20
90.13476644237419
 30
0.0
 10
94.20876262105807
 20
90.2525027501588
 30
0.0
 10
93.09798854042245
 20
90.26447825253445
 30
0.0
 10
92.21324023851705
 20
90.2374199624031
 30
0.0
 10
91.54604364388332
 20
90.18948789799529
 30
0.0
 10
91.00477114165612
 20
90.1331943856307
 30
0.0
 10
90.61719118258397
 20
90.08811147499193
 30
0.0
 10
90.42325466251485
 20
90.049238300292
 30
0.0
 10
90.48635712274458
 20
90.05994435753276
 30
0.0
 10
90.48664699497992
 20
90.05999353768726
 30
0.0
  0
LINE
  5
106
330
1F
100
AcDbEntity
  8
0
  6
HIDDEN
 62
     7
370
     0
100
AcDbLine
 10
91.3957732593
 20
90.1707996819
 30
0.0
 11
91.5796185724
 21
90.1889890244
 31
0.0
  0
LINE
  5
107
330
1F
100
AcDbEntity
  8
0
  6
HIDDEN
 62
     7
370
     0
100
AcDbLine
 10
91.579615874
 20
136.2878646213
 30
0.0
 11
91.4055425921
 21
136.3050741473
 31
0.0
  0
SPLINE
  5
108
330
1F
100
AcDbEntity
  8
0
  6
HIDDEN
 62
     7
370
     0
100
AcDbSpline
210
0.0
220
0.0
230
1.0
 70
     8
 71
     3
 72
    20
 73
    16
 74
     0
 42
0.00000001
 43
0.00000001
 12
1.0
 22
0.0
 32
0.0
 13
1.0
 23
0.0
 33
0.0
 40
0.0
 40
0.0
 40
0.0
 40
0.0
 40
0.0004889684280502
 40
0.1018319933926956
 40
0.1702475582150564
 40
0.2503692056770218
 40
0.3209568221796114
 40
0.3861816196721121
 40
0.5002554836817364
 40
0.6012243489302103
 40
0.669768055864141
 40
0.750240190758111
 40
0.8220490693822882
 40
0.8877204546071489
 40
1.0
 40
1.0
 40
1.0
 40
1.0
 10
90.48668037974133
 20
136.416862992654
 30
0.0
 10
90.48637673874444
 20
136.4169145798042
 30
0.0
 10
90.42314081957886
 20
136.4276580594176
 30
0.0
 10
90.61634485337319
 20
136.388802068759
 30
0.0
 10
91.00329190828107
 20
136.3437785783544
 30
0.0
 10
91.54429883160739
 20
136.2875156162615
 30
0.0
 10
92.21179909307241
 20
136.2395844236673
 30
0.0
 10
93.09762694442577
 20
136.2125109679379
 30
0.0
 10
94.20843351651355
 20
136.2243369715175
 30
0.0
 10
95.32050388253681
 20
136.3417860466728
 30
0.0
 10
96.21160418873473
 20
136.4634904349124
 30
0.0
 10
96.89708863954488
 20
136.586311480487
 30
0.0
 10
97.42507653908241
 20
136.6997497321692
 30
0.0
 10
97.87246049057568
 20
136.8034902878078
 30
0.0
 10
97.94127095693014
 20
136.8249130810851
 30
0.0
 10
97.98468746424332
 20
136.8384299617323
 30
0.0
  0
SPLINE
  5
109
330
1F
100
AcDbEntity
  8
0
  6
HIDDEN
 62
     7
370
     0
100
AcDbSpline
210
0.0
220
0.0
230
1.0
 70
     8
 71
     3
 72
     8
 73
     4
 74
     0
 42
0.00000001
 43
0.00000001
 12
1.0
 22
0.0
 32
0.0
 13
1.0
 23
0.0
 33
0.0
 40
0.0
 40
0.0
 40
0.0
 40
0.0
 40
0.000159097691435
 40
0.000159097691435
 40
0.000159097691435
 40
0.000159097691435
 10
72.62092935285858
 20
97.4369711024299
 30
0.0
 10
72.57587788345921
 20
97.408992218796
 30
0.0
 10
72.53082184614964
 20
97.38102068911044
 30
0.0
 10
72.48576134695621
 20
97.35305635044709
 30
0.0
  0
SPLINE
  5
10A
330
1F
100
AcDbEntity
  8
0
  6
HIDDEN
 62
     7
370
     0
100
AcDbSpline
210
0.0
220
0.0
230
1.0
 70
     8
 71
     3
 72
    11
 73
     7
 74
     0
 42
0.00000001
 43
0.00000001
 12
1.0
 22
0.0
 32
0.0
 13
1.0
 23
0.0
 33
0.0
 40
0.0
 40
0.0
 40
0.0
 40
0.0
 40
0.0008212909311356
 40
0.0008212909311356
 40
0.0008212909311356
 40
0.0016428257242859
 40
0.0016428257242859
 40
0.0016428257242859
 40
0.0016428257242859
 10
72.48576134695621
 20
97.35305635044709
 30
0.0
 10
72.29461632547385
 20
97.3097701616173
 30
0.0
 10
72.1031979897973
 20
97.26883365200327
 30
0.0
 10
71.91155191513617
 20
97.23023188064043
 30
0.0
 10
71.71984883359455
 20
97.1916186268271
 30
0.0
 10
71.52790371030915
 20
97.15533841756535
 30
0.0
 10
71.33576134695619
 20
97.12137151123864
 30
0.0
  0
LINE
  5
10B
330
1F
100
AcDbEntity
  8
0
  6
HIDDEN
 62
     7
370
     0
100
AcDbLine
 10
119.325761347
 20
133.3743281699
 30
0.0
 11
119.325761347
 21
133.0884615385
 31
0.0
  0
LINE
  5
10C
330
1F
100
AcDbEntity
  8
0
  6
HIDDEN
 62
     7
370
     0
100
AcDbLine
 10
123.145761347
 20
133.3827047084
 30
0.0
 11
123.145761347
 21
133.0884615385
 31
0.0
  0
LINE
  5
10D
330
1F
100
AcDbEntity
  8
0
  6
HIDDEN
 62
     7
370
     0
100
AcDbLine
 10
124.6276941784
 20
137.6971512008
 30
0.0
 11
124.6276941784
 21
133.0884615385
 31
0.0
  0
SPLINE
  5
10E
330
1F
100
AcDbEntity
  8
0
  6
HIDDEN
 62
     7
370
     0
100
AcDbSpline
210
0.0
220
0.0
230
1.0
 70
     8
 71
     3
 72
    24
 73
    20
 74
     0
 42
0.00000001
 43
0.00000001
 12
1.0
 22
0.0
 32
0.0
 13
1.0
 23
0.0
 33
0.0
 40
0.0
 40
0.0
 40
0.0
 40
0.0
 40
0.25
 40
0.25
 40
0.374999999999999
 40
0.374999999999999
 40
0.4374999999999993
 40
0.4374999999999993
 40
0.4687499999999994
 40
0.4687499999999994
 40
0.4999999999999995
 40
0.4999999999999995
 40
0.5624999999999971
 40
0.5624999999999971
 40
0.6249999999999947
 40
0.6249999999999947
 40
0.7499999999999947
 40
0.7499999999999947
 40
1.0
 40
1.0
 40
1.0
 40
1.0
 10
71.39842472167962
 20
93.56390899368081
 30
0.0
 10
71.41217784034984
 20
93.63455905167109
 30
0.0
 10
71.42995040775571
 20
93.70115716443603
 30
0.0
 10
71.48220149931106
 20
93.77525518466922
 30
0.0
 10
71.50323657489263
 20
93.79651299183078
 30
0.0
 10
71.55613698252105
 20
93.80465891797702
 30
0.0
 10
71.57724265539898
 20
93.80371911458126
 30
0.0
 10
71.62329482407695
 20
93.78270312300391
 30
0.0
 10
71.64166529606034
 20
93.77179431689629
 30
0.0
 10
71.68321693112603
 20
93.73915940594893
 30
0.0
 10
71.70578360388295
 20
93.71766742557755
 30
0.0
 10
71.76856462034297
 20
93.64920148199124
 30
0.0
 10
71.80169438131087
 20
93.60312702378614
 30
0.0
 10
71.85861206779587
 20
93.51811913545149
 30
0.0
 10
71.88279809329964
 20
93.4778388342701
 30
0.0
 10
71.9480060436794
 20
93.36290260780414
 30
0.0
 10
71.98272210387064
 20
93.29231962265715
 30
0.0
 10
72.07593737420154
 20
93.08811386357854
 30
0.0
 10
72.12160990956221
 20
92.96521548125118
 30
0.0
 10
72.15991499306075
 20
92.8483422048636
 30
0.0
  0
SPLINE
  5
10F
330
1F
100
AcDbEntity
  8
0
  6
HIDDEN
 62
     7
370
     0
100
AcDbSpline
210
0.0
220
0.0
230
1.0
 70
     8
 71
     3
 72
     8
 73
     4
 74
     0
 42
0.00000001
 43
0.00000001
 12
1.0
 22
0.0
 32
0.0
 13
1.0
 23
0.0
 33
0.0
 40
0.0
 40
0.0
 40
0.0
 40
0.0
 40
0.001156372467817
 40
0.001156372467817
 40
0.001156372467817
 40
0.001156372467817
 10
72.3357613469565
 20
125.8786038519372
 30
0.0
 10
72.00244023175925
 20
126.007662877564
 30
0.0
 10
71.66910755095118
 20
126.1366232137327
 30
0.0
 10
71.3357613469562
 20
126.2655347435056
 30
0.0
  0
SPLINE
  5
110
330
1F
100
AcDbEntity
  8
0
  6
HIDDEN
 62
     7
370
     0
100
AcDbSpline
210
0.0
220
0.0
230
1.0
 70
     8
 71
     3
 72
    11
 73
     7
 74
     0
 42
0.00000001
 43
0.00000001
 12
1.0
 22
0.0
 32
0.0
 13
1.0
 23
0.0
 33
0.0
 40
0.0
 40
0.0
 40
0.0
 40
0.0
 40
0.000577874610501
 40
0.000577874610501
 40
0.000577874610501
 40
0.001155749485703
 40
0.001155749485703
 40
0.001155749485703
 40
0.001155749485703
 10
71.33576134695622
 20
100.2112396760109
 30
0.0
 10
71.50242822336932
 20
100.2770518027939
 30
0.0
 10
71.66909494293061
 20
100.3429102830214
 30
0.0
 10
71.83576159097923
 20
100.4088178560437
 30
0.0
 10
72.00242831549785
 20
100.4747254593058
 30
0.0
 10
72.16909500991855
 20
100.5406825677878
 30
0.0
 10
72.33576134695622
 20
100.6066843078074
 30
0.0
  0
SPLINE
  5
111
330
1F
100
AcDbEntity
  8
0
  6
HIDDEN
 62
     7
370
     0
100
AcDbSpline
210
0.0
220
0.0
230
1.0
 70
     8
 71
     3
 72
    11
 73
     7
 74
     0
 42
0.00000001
 43
0.00000001
 12
1.0
 22
0.0
 32
0.0
 13
1.0
 23
0.0
 33
0.0
 40
0.0000000000000006
 40
0.0000000000000006
 40
0.0000000000000006
 40
0.0000000000000006
 40
0.000578048606266
 40
0.000578048606266
 40
0.000578048606266
 40
0.001156097351391
 40
0.001156097351391
 40
0.001156097351391
 40
0.001156097351391
 10
71.33576134695622
 20
123.2192760317488
 30
0.0
 10
71.50243120300141
 20
123.1569041703437
 30
0.0
 10
71.66909890708584
 20
123.0945503101522
 30
0.0
 10
71.8357652115395
 20
123.0322307500687
 30
0.0
 10
72.00243155223323
 20
122.9699111764343
 30
0.0
 10
72.16909650886186
 20
122.9076259722137
 30
0.0
 10
72.33576134695622
 20
122.8454008517407
 30
0.0
  0
SPLINE
  5
112
330
1F
100
AcDbEntity
  8
0
  6
HIDDEN
 62
     7
370
     0
100
AcDbSpline
210
0.0
220
0.0
230
1.0
 70
     8
 71
     3
 72
    11
 73
     7
 74
     0
 42
0.00000001
 43
0.00000001
 12
1.0
 22
0.0
 32
0.0
 13
1.0
 23
0.0
 33
0.0
 40
0.0
 40
0.0
 40
0.0
 40
0.0
 40
0.0005782401583357
 40
0.0005782401583357
 40
0.0005782401583357
 40
0.001156480596064
 40
0.001156480596064
 40
0.001156480596064
 40
0.001156480596064
 10
72.33576134695622
 20
103.6376347537012
 30
0.0
 10
72.16911039660748
 20
103.5742092957622
 30
0.0
 10
72.0024508040249
 20
103.5108537722323
 30
0.0
 10
71.83578375159635
 20
103.447556188011
 30
0.0
 10
71.66911661503254
 20
103.3842585718364
 30
0.0
 10
71.50244200758641
 20
103.3210187770275
 30
0.0
 10
71.3357613469562
 20
103.2578187705232
 30
0.0
  0
CIRCLE
  5
113
330
1F
100
AcDbEntity
  8
0
  6
HIDDEN
 62
     7
370
     0
100
AcDbCircle
 10
110.235761347
 20
113.2384615385
 30
0.0
 40
5.0
  0
LINE
  5
114
330
1F
100
AcDbEntity
  8
0
  6
HIDDEN
 62
     7
370
     0
100
AcDbLine
 10
107.235761347
 20
127.5362966882
 30
0.0
 11
107.235761347
 21
125.6324021814
 31
0.0
  0
LINE
  5
115
330
1F
100
AcDbEntity
  8
0
  6
HIDDEN
 62
     7
370
     0
100
AcDbLine
 10
115.235761347
 20
125.6324021814
 30
0.0
 11
115.235761347
 21
127.5390920442
 31
0.0
  0
LINE
  5
116
330
1F
100
AcDbEntity
  8
0
  6
HIDDEN
 62
     7
370
     0
100
AcDbLine
 10
103.235761347
 20
87.9145303925
 30
0.0
 11
103.3299221225
 21
88.5845191237
 31
0.0
  0
LINE
  5
117
330
1F
100
AcDbEntity
  8
0
  6
HIDDEN
 62
     7
370
     0
100
AcDbLine
 10
103.3299221225
 20
137.8924039532
 30
0.0
 11
103.235761347
 21
138.5623926844
 31
0.0
  0
ARC
  5
118
330
1F
100
AcDbEntity
  8
0
  6
HIDDEN
 62
     7
370
     0
100
AcDbCircle
 10
102.7357545943
 20
88.6680239241
 30
0.0
 40
0.6000067526677242
100
AcDbArc
 50
352.0
 51
0.0
  0
ARC
  5
119
330
1F
100
AcDbEntity
  8
0
  6
HIDDEN
 62
     7
370
     0
100
AcDbCircle
 10
102.7357545943
 20
88.6680239241
 30
0.0
 40
0.6000067526677242
100
AcDbArc
 50
0.0
 51
33.5571153394
  0
ARC
  5
11A
330
1F
100
AcDbEntity
  8
0
  6
HIDDEN
 62
     7
370
     0
100
AcDbCircle
 10
102.7357545943
 20
137.8088991529
 30
0.0
 40
0.6000067526677169
100
AcDbArc
 50
348.75
 51
8.0
  0
LWPOLYLINE
  5
11B
330
1F
100
AcDbEntity
  8
0
  6
HIDDEN
 62
     7
370
     0
100
AcDbPolyline
 90
        3
 70
   128
 43
0.0
 10
103.3242323854
 20
137.6918436423
 10
103.2900885524
 20
137.5792865093
 10
103.235761347
 20
137.4772346378
  0
LINE
  5
11C
330
1F
100
AcDbEntity
  8
0
  6
HIDDEN
 62
     7
370
     0
100
AcDbLine
 10
103.335761347
 20
88.6680239241
 30
0.0
 11
103.335761347
 21
137.8088991529
 31
0.0
  0
ARC
  5
11D
330
1F
100
AcDbEntity
  8
0
  6
HIDDEN
 62
     7
370
     0
100
AcDbCircle
 10
86.3181969123
 20
93.8384615385
 30
0.0
 40
0.5999999999999962
100
AcDbArc
 50
210.0
 51
270.0
  0
ARC
  5
11E
330
1F
100
AcDbEntity
  8
0
  6
HIDDEN
 62
     7
370
     0
100
AcDbCircle
 10
86.3181969123
 20
132.6384615385
 30
0.0
 40
0.5999999999999943
100
AcDbArc
 50
90.0
 51
150.0
  0
LINE
  5
11F
330
1F
100
AcDbEntity
  8
0
  6
HIDDEN
 62
     7
370
     0
100
AcDbLine
 10
86.3181969123
 20
93.2384615385
 30
0.0
 11
90.5098688004
 21
93.2384615385
 31
0.0
  0
LINE
  5
120
330
1F
100
AcDbEntity
  8
0
  6
HIDDEN
 62
     7
370
     0
100
AcDbLine
 10
90.5098688004
 20
133.2384615385
 30
0.0
 11
86.3181969123
 21
133.2384615385
 31
0.0
  0
ARC
  5
121
330
1F
100
AcDbEntity
  8
0
  6
HIDDEN
 62
     7
370
     0
100
AcDbCircle
 10
96.9907633486
 20
101.2384615385
 30
0.0
 40
8.000000000000004
100
AcDbArc
 50
276.8813033455
 51
321.3178125465
  0
ARC
  5
122
330
1F
100
AcDbEntity
  8
0
  6
HIDDEN
 62
     7
370
     0
100
AcDbCircle
 10
96.9907633486
 20
125.2384615385
 30
0.0
 40
8.000000000000012
100
AcDbArc
 50
38.6821874535
 51
83.1303396552
  0
LINE
  5
123
330
1F
100
AcDbEntity
  8
0
  6
HIDDEN
 62
     7
370
     0
100
AcDbLine
 10
85.79858167
 20
132.9384615385
 30
0.0
 11
84.2397359432
 21
130.2384615385
 31
0.0
  0
LINE
  5
124
330
1F
100
AcDbEntity
  8
0
  6
HIDDEN
 62
     7
370
     0
100
AcDbLine
 10
84.2397359432
 20
96.2384615385
 30
0.0
 11
85.79858167
 21
93.5384615385
 31
0.0
  0
LINE
  5
125
330
1F
100
AcDbEntity
  8
0
  6
HIDDEN
 62
     7
370
     0
100
AcDbLine
 10
107.235761347
 20
140.5127953977
 30
0.0
 11
107.235761347
 21
137.1840639531
 31
0.0
  0
LINE
  5
126
330
1F
100
AcDbEntity
  8
0
  6
HIDDEN
 62
     7
370
     0
100
AcDbLine
 10
115.235761347
 20
137.1840639531
 30
0.0
 11
115.235761347
 21
140.5181277764
 31
0.0
  0
ARC
  5
127
330
1F
100
AcDbEntity
  8
0
  6
HIDDEN
 62
     7
370
     0
100
AcDbCircle
 10
111.685761347
 20
97.5134615385
 30
0.0
 40
1.500000000000001
100
AcDbArc
 50
238.2116693829
 51
0.0
  0
ARC
  5
128
330
1F
100
AcDbEntity
  8
0
  6
HIDDEN
 62
     7
370
     0
100
AcDbCircle
 10
111.685761347
 20
128.9634615385
 30
0.0
 40
1.500000000000001
100
AcDbArc
 50
0.0
 51
121.7883306171
  0
LINE
  5
129
330
1F
100
AcDbEntity
  8
0
  6
HIDDEN
 62
     7
370
     0
100
AcDbLine
 10
81.435761347
 20
96.2384615385
 30
0.0
 11
84.2397359432
 21
96.2384615385
 31
0.0
  0
LINE
  5
12A
330
1F
100
AcDbEntity
  8
0
  6
HIDDEN
 62
     7
370
     0
100
AcDbLine
 10
84.2397359432
 20
130.2384615385
 30
0.0
 11
77.435761347
 21
130.2384615385
 31
0.0
  0
LINE
  5
12B
330
1F
100
AcDbEntity
  8
0
  6
HIDDEN
 62
     7
370
     0
100
AcDbLine
 10
103.235761347
 20
96.2384615385
 30
0.0
 11
110.8955873155
 21
96.2384615385
 31
0.0
  0
LINE
  5
12C
330
1F
100
AcDbEntity
  8
0
  6
HIDDEN
 62
     7
370
     0
100
AcDbLine
 10
110.8955873155
 20
130.2384615385
 30
0.0
 11
103.235761347
 21
130.2384615385
 31
0.0
  0
LINE
  5
12D
330
1F
100
AcDbEntity
  8
0
  6
HIDDEN
 62
     7
370
     0
100
AcDbLine
 10
122.035761347
 20
103.7384615385
 30
0.0
 11
125.035761347
 21
103.7384615385
 31
0.0
  0
LINE
  5
12E
330
1F
100
AcDbEntity
  8
0
  6
HIDDEN
 62
     7
370
     0
100
AcDbLine
 10
125.035761347
 20
122.7384615385
 30
0.0
 11
122.035761347
 21
122.7384615385
 31
0.0
  0
LINE
  5
12F
330
1F
100
AcDbEntity
  8
0
  6
HIDDEN
 62
     7
370
     0
100
AcDbLine
 10
113.185761347
 20
104.2384615385
 30
0.0
 11
113.685761347
 21
104.7384615385
 31
0.0
  0
LINE
  5
130
330
1F
100
AcDbEntity
  8
0
  6
HIDDEN
 62
     7
370
     0
100
AcDbLine
 10
113.685761347
 20
121.7384615385
 30
0.0
 11
113.185761347
 21
122.2384615385
 31
0.0
  0
LINE
  5
131
330
1F
100
AcDbEntity
  8
0
  6
HIDDEN
 62
     7
370
     0
100
AcDbLine
 10
113.685761347
 20
104.7384615385
 30
0.0
 11
122.035761347
 21
104.7384615385
 31
0.0
  0
LINE
  5
132
330
1F
100
AcDbEntity
  8
0
  6
HIDDEN
 62
     7
370
     0
100
AcDbLine
 10
122.035761347
 20
121.7384615385
 30
0.0
 11
113.685761347
 21
121.7384615385
 31
0.0
  0
ARC
  5
133
330
1F
100
AcDbEntity
  8
0
  6
HIDDEN
 62
     7
370
     0
100
AcDbCircle
 10
184.635761347
 20
105.3384615385
 30
0.0
 40
0.4000000000000057
100
AcDbArc
 50
180.0
 51
270.0
  0
ARC
  5
134
330
1F
100
AcDbEntity
  8
0
  6
HIDDEN
 62
     7
370
     0
100
AcDbCircle
 10
184.635761347
 20
121.1384615385
 30
0.0
 40
0.4000000000000057
100
AcDbArc
 50
90.0
 51
180.0
  0
LINE
  5
135
330
1F
100
AcDbEntity
  8
0
  6
HIDDEN
 62
     7
370
     0
100
AcDbLine
 10
184.635761347
 20
104.9384615385
 30
0.0
 11
187.3409873288
 21
104.9384615385
 31
0.0
  0
LINE
  5
136
330
1F
100
AcDbEntity
  8
0
  6
HIDDEN
 62
     7
370
     0
100
AcDbLine
 10
187.3409873288
 20
121.5384615385
 30
0.0
 11
184.635761347
 21
121.5384615385
 31
0.0
  0
ARC
  5
137
330
1F
100
AcDbEntity
  8
0
  6
HIDDEN
 62
     7
370
     0
100
AcDbCircle
 10
187.3409873288
 20
105.3384615385
 30
0.0
 40
0.4000000000000111
100
AcDbArc
 50
270.0
 51
290.0
  0
ARC
  5
138
330
1F
100
AcDbEntity
  8
0
  6
HIDDEN
 62
     7
370
     0
100
AcDbCircle
 10
187.3409873288
 20
121.1384615385
 30
0.0
 40
0.4000000000000111
100
AcDbArc
 50
70.0
 51
90.0
  0
ARC
  5
139
330
1F
100
AcDbEntity
  8
0
  6
HIDDEN
 62
     7
370
     0
100
AcDbCircle
 10
232.935761347
 20
104.9384615385
 30
0.0
 40
0.3000000000000114
100
AcDbArc
 50
0.0
 51
90.0
  0
ARC
  5
13A
330
1F
100
AcDbEntity
  8
0
  6
HIDDEN
 62
     7
370
     0
100
AcDbCircle
 10
232.935761347
 20
121.5384615385
 30
0.0
 40
0.3000000000000114
100
AcDbArc
 50
270.0
 51
0.0
  0
LINE
  5
13B
330
1F
100
AcDbEntity
  8
0
  6
HIDDEN
 62
     7
370
     0
100
AcDbLine
 10
187.4777953862
 20
104.9625844901
 30
0.0
 11
188.235761347
 21
105.2384615385
 31
0.0
  0
LINE
  5
13C
330
1F
100
AcDbEntity
  8
0
  6
HIDDEN
 62
     7
370
     0
100
AcDbLine
 10
188.235761347
 20
121.2384615385
 30
0.0
 11
187.4777953862
 21
121.5143385868
 31
0.0
  0
LINE
  5
13D
330
1F
100
AcDbEntity
  8
0
  6
HIDDEN
 62
     7
370
     0
100
AcDbLine
 10
108.185761347
 20
144.7384615385
 30
0.0
 11
108.185761347
 21
139.6384615385
 31
0.0
  0
LINE
  5
13E
330
1F
100
AcDbEntity
  8
0
  6
HIDDEN
 62
     7
370
     0
100
AcDbLine
 10
188.235761347
 20
105.2384615385
 30
0.0
 11
232.935761347
 21
105.2384615385
 31
0.0
  0
LINE
  5
13F
330
1F
100
AcDbEntity
  8
0
  6
HIDDEN
 62
     7
370
     0
100
AcDbLine
 10
232.935761347
 20
121.2384615385
 30
0.0
 11
188.235761347
 21
121.2384615385
 31
0.0
  0
LINE
  5
140
330
1F
100
AcDbEntity
  8
0
  6
HIDDEN
 62
     7
370
     0
100
AcDbLine
 10
98.4201991774
 20
89.1590902049
 30
0.0
 11
97.9857670279
 21
89.638156224
 31
0.0
  0
LINE
  5
141
330
1F
100
AcDbEntity
  8
0
  6
HIDDEN
 62
     7
370
     0
100
AcDbLine
 10
90.4857637029
 20
90.0598441831
 30
0.0
 11
90.0033299595
 21
89.5807782077
 31
0.0
  0
LINE
  5
142
330
1F
100
AcDbEntity
  8
0
  6
HIDDEN
 62
     7
370
     0
100
AcDbLine
 10
90.0032080313
 20
136.8961395788
 30
0.0
 11
90.4857587823
 21
136.4170193209
 31
0.0
  0
LINE
  5
143
330
1F
100
AcDbEntity
  8
0
  6
HIDDEN
 62
     7
370
     0
100
AcDbLine
 10
97.985761229
 20
136.8387170986
 30
0.0
 11
98.4203036193
 21
137.3178373491
 31
0.0
  0
LINE
  5
144
330
1F
100
AcDbEntity
  8
0
  6
HIDDEN
 62
     7
370
     0
100
AcDbLine
 10
125.035761347
 20
108.9884615385
 30
0.0
 11
184.235761347
 21
108.9884615385
 31
0.0
  0
LINE
  5
145
330
1F
100
AcDbEntity
  8
0
  6
HIDDEN
 62
     7
370
     0
100
AcDbLine
 10
184.235761347
 20
117.4884615385
 30
0.0
 11
125.035761347
 21
117.4884615385
 31
0.0
  0
LINE
  5
146
330
1F
100
AcDbEntity
  8
0
  6
HIDDEN
 62
     7
370
     0
100
AcDbLine
 10
97.985761347
 20
89.6386401257
 30
0.0
 11
97.985761347
 21
93.3030612002
 31
0.0
  0
LINE
  5
147
330
1F
100
AcDbEntity
  8
0
  6
HIDDEN
 62
     7
370
     0
100
AcDbLine
 10
90.485761347
 20
93.2428393065
 30
0.0
 11
90.485761347
 21
90.0601674209
 31
0.0
  0
LINE
  5
148
330
1F
100
AcDbEntity
  8
0
  6
HIDDEN
 62
     7
370
     0
100
AcDbLine
 10
97.985761347
 20
133.1738618767
 30
0.0
 11
97.985761347
 21
136.8381636769
 31
0.0
  0
LINE
  5
149
330
1F
100
AcDbEntity
  8
0
  6
HIDDEN
 62
     7
370
     0
100
AcDbLine
 10
90.485761347
 20
136.4167641296
 30
0.0
 11
90.485761347
 21
133.2340837704
 31
0.0
  0
DIMENSION
  5
14A
330
1F
100
AcDbEntity
  8
VERMASSUNG
100
AcDbDimension
  2
_D
 10
243.235761347
 20
105.2384615385
 30
0.0
 11
243.235761347
 21
113.2384615385
 31
0.0
 70
   160
  1
%%c<>
 71
     2
 42
-1.0
  3
SLDDIMSTYLE0
100
AcDbAlignedDimension
 13
232.935761347
 23
121.2384615385
 33
0.0
 14
232.935761347
 24
105.2384615385
 34
0.0
 50
90.0
100
AcDbRotatedDimension
  0
DIMENSION
  5
156
330
1F
100
AcDbEntity
  8
VERMASSUNG
100
AcDbDimension
  2
_D_1
 10
249.235761347
 20
89.2384615385
 30
0.0
 11
249.235761347
 21
113.2384615385
 31
0.0
 70
   160
  1
%%c<>
 71
     2
 42
-1.0
  3
SLDDIMSTYLE0
100
AcDbAlignedDimension
 13
220.3687198239
 23
137.2384615385
 33
0.0
 14
220.3687198239
 24
89.2384615385
 34
0.0
 50
90.0
100
AcDbRotatedDimension
  0
DIMENSION
  5
161
330
1F
100
AcDbEntity
  8
VERMASSUNG
100
AcDbDimension
  2
_D_2
 10
233.235761347
 20
147.3526543879
 30
0.0
 11
181.210761347
 21
147.3526543879
 31
0.0
 70
   160
  1
<>
 71
     2
 42
-1.0
  3
SLDDIMSTYLE0
100
AcDbAlignedDimension
 13
129.185761347
 23
143.0849018622
 33
0.0
 14
233.235761347
 24
129.9643210168
 34
0.0
100
AcDbRotatedDimension
  0
DIMENSION
  5
16B
330
1F
100
AcDbEntity
  8
VERMASSUNG
100
AcDbDimension
  2
_D_3
 10
233.235761347
 20
153.3526543879
 30
0.0
 11
168.235761347
 21
153.3526543879
 31
0.0
 70
   160
  1
<>
 71
     2
 42
-1.0
  3
SLDDIMSTYLE0
100
AcDbAlignedDimension
 13
103.235761347
 23
144.4384615385
 33
0.0
 14
233.235761347
 24
129.9643210168
 34
0.0
100
AcDbRotatedDimension
  0
DIMENSION
  5
175
330
1F
100
AcDbEntity
  8
VERMASSUNG
100
AcDbDimension
  2
_D_4
 10
233.235761347
 20
159.3526543879
 30
0.0
 11
152.285761347
 21
159.3526543879
 31
0.0
 70
   160
  1
<>
 71
     2
 42
-1.0
  3
SLDDIMSTYLE0
100
AcDbAlignedDimension
 13
71.335761347
 23
132.9291392849
 33
0.0
 14
233.235761347
 24
129.9643210168
 34
0.0
100
AcDbRotatedDimension
  0
DIMENSION
  5
17F
330
1F
100
AcDbEntity
  8
VERMASSUNG
100
AcDbDimension
  2
_D_5
 10
64.4908992416
 20
81.7384615385
 30
0.0
 11
64.4908992416
 21
113.2384615385
 31
0.0
 70
   160
  1
HSK A %%c<>
 71
     2
 42
-1.0
  3
SLDDIMSTYLE0
100
AcDbAlignedDimension
 13
103.535761347
 23
144.7384615385
 33
0.0
 14
103.535761347
 24
81.7384615385
 34
0.0
 50
90.0
100
AcDbRotatedDimension
  0
LINE
  5
18B
330
1F
100
AcDbEntity
  8
VERMASSUNG
  6
CENTERX2
370
     0
100
AcDbLine
 10
67.5078006501
 20
113.2384615385
 30
0.0
 11
236.2222101842
 21
113.2384615385
 31
0.0
  0
OLE2FRAME
  5
18C
330
1F
100
AcDbEntity
  8
0
100
AcDbOle2Frame
 70
     2
  3
Paintbrush-Bild
 10
13.8511154363
 20
38.264191557
 30
0.0
 11
51.6290888628
 21
31.9806341108
 31
0.0
 71
     2
 72
     0
 73
     1
 90
    12928
310
80552BED0767C5B32B40DDAF6807D121434000000000000000006FFBDDFB85D0
310
4940DDAF6807D121434000000000000000006FFBDDFB85D04940416F4BD60AFB
310
3F4000000000000000002BED0767C5B32B40416F4BD60AFB3F40000000000000
310
0000000000000100000000010000010000000100000000000100000000320000
310
D0CF11E0A1B11AE1000000000000000000000000000000003E000300FEFF0900
310
0600000000000000000000000100000001000000000000000010000002000000
310
01000000FEFFFFFF0000000000000000FFFFFFFFFFFFFFFFFFFFFFFFFFFFFFFF
310
FFFFFFFFFFFFFFFFFFFFFFFFFFFFFFFFFFFFFFFFFFFFFFFFFFFFFFFFFFFFFFFF
310
FFFFFFFFFFFFFFFFFFFFFFFFFFFFFFFFFFFFFFFFFFFFFFFFFFFFFFFFFFFFFFFF
310
FFFFFFFFFFFFFFFFFFFFFFFFFFFFFFFFFFFFFFFFFFFFFFFFFFFFFFFFFFFFFFFF
310
FFFFFFFFFFFFFFFFFFFFFFFFFFFFFFFFFFFFFFFFFFFFFFFFFFFFFFFFFFFFFFFF
310
FFFFFFFFFFFFFFFFFFFFFFFFFFFFFFFFFFFFFFFFFFFFFFFFFFFFFFFFFFFFFFFF
310
FFFFFFFFFFFFFFFFFFFFFFFFFFFFFFFFFFFFFFFFFFFFFFFFFFFFFFFFFFFFFFFF
310
FFFFFFFFFFFFFFFFFFFFFFFFFFFFFFFFFFFFFFFFFFFFFFFFFFFFFFFFFFFFFFFF
310
FFFFFFFFFFFFFFFFFFFFFFFFFFFFFFFFFFFFFFFFFFFFFFFFFFFFFFFFFFFFFFFF
310
FFFFFFFFFFFFFFFFFFFFFFFFFFFFFFFFFFFFFFFFFFFFFFFFFFFFFFFFFFFFFFFF
310
FFFFFFFFFFFFFFFFFFFFFFFFFFFFFFFFFFFFFFFFFFFFFFFFFFFFFFFFFFFFFFFF
310
FFFFFFFFFFFFFFFFFFFFFFFFFFFFFFFFFFFFFFFFFFFFFFFFFFFFFFFFFFFFFFFF
310
FFFFFFFFFFFFFFFFFFFFFFFFFFFFFFFFFFFFFFFFFFFFFFFFFFFFFFFFFFFFFFFF
310
FFFFFFFFFFFFFFFFFFFFFFFFFFFFFFFFFFFFFFFFFFFFFFFFFFFFFFFFFFFFFFFF
310
FDFFFFFFFEFFFFFFFEFFFFFFFEFFFFFF05000000060000000700000008000000
310
090000000A0000000B0000000C0000000D0000000E0000000F00000010000000
310
11000000120000001300000014000000150000001600000017000000FEFFFFFF
310
FFFFFFFFFFFFFFFFFFFFFFFFFFFFFFFFFFFFFFFFFFFFFFFFFFFFFFFFFFFFFFFF
310
FFFFFFFFFFFFFFFFFFFFFFFFFFFFFFFFFFFFFFFFFFFFFFFFFFFFFFFFFFFFFFFF
310
FFFFFFFFFFFFFFFFFFFFFFFFFFFFFFFFFFFFFFFFFFFFFFFFFFFFFFFFFFFFFFFF
310
FFFFFFFFFFFFFFFFFFFFFFFFFFFFFFFFFFFFFFFFFFFFFFFFFFFFFFFFFFFFFFFF
310
FFFFFFFFFFFFFFFFFFFFFFFFFFFFFFFFFFFFFFFFFFFFFFFFFFFFFFFFFFFFFFFF
310
FFFFFFFFFFFFFFFFFFFFFFFFFFFFFFFFFFFFFFFFFFFFFFFFFFFFFFFFFFFFFFFF
310
FFFFFFFFFFFFFFFFFFFFFFFFFFFFFFFFFFFFFFFFFFFFFFFFFFFFFFFFFFFFFFFF
310
FFFFFFFFFFFFFFFFFFFFFFFFFFFFFFFFFFFFFFFFFFFFFFFFFFFFFFFFFFFFFFFF
310
FFFFFFFFFFFFFFFFFFFFFFFFFFFFFFFFFFFFFFFFFFFFFFFFFFFFFFFFFFFFFFFF
310
FFFFFFFFFFFFFFFFFFFFFFFFFFFFFFFFFFFFFFFFFFFFFFFFFFFFFFFFFFFFFFFF
310
FFFFFFFFFFFFFFFFFFFFFFFFFFFFFFFFFFFFFFFFFFFFFFFFFFFFFFFFFFFFFFFF
310
FFFFFFFFFFFFFFFFFFFFFFFFFFFFFFFFFFFFFFFFFFFFFFFFFFFFFFFFFFFFFFFF
310
FFFFFFFFFFFFFFFFFFFFFFFFFFFFFFFFFFFFFFFFFFFFFFFFFFFFFFFFFFFFFFFF
310
52006F006F007400200045006E00740072007900000000000000000000000000
310
0000000000000000000000000000000000000000000000000000000000000000
310
16000500FFFFFFFFFFFFFFFF020000000A00030000000000C000000000000046
310
000000000000000000000000E07D71E786B6CD0103000000C000000000000000
310
01004F006C006500000000000000000000000000000000000000000000000000
310
0000000000000000000000000000000000000000000000000000000000000000
310
0A000200FFFFFFFFFFFFFFFFFFFFFFFF00000000000000000000000000000000
310
0000000000000000000000000000000000000000000000001400000000000000
310
010043006F006D0070004F0062006A0000000000000000000000000000000000
310
0000000000000000000000000000000000000000000000000000000000000000
310
120002010100000003000000FFFFFFFF00000000000000000000000000000000
310
0000000000000000000000000000000000000000010000004D00000000000000
310
01004F006C006500310030004E00610074006900760065000000000000000000
310
0000000000000000000000000000000000000000000000000000000000000000
310
1A000200FFFFFFFFFFFFFFFFFFFFFFFF00000000000000000000000000000000
310
0000000000000000000000000000000000000000040000002426000000000000
310
FEFFFFFF02000000FEFFFFFFFFFFFFFFFFFFFFFFFFFFFFFFFFFFFFFFFFFFFFFF
310
FFFFFFFFFFFFFFFFFFFFFFFFFFFFFFFFFFFFFFFFFFFFFFFFFFFFFFFFFFFFFFFF
310
FFFFFFFFFFFFFFFFFFFFFFFFFFFFFFFFFFFFFFFFFFFFFFFFFFFFFFFFFFFFFFFF
310
FFFFFFFFFFFFFFFFFFFFFFFFFFFFFFFFFFFFFFFFFFFFFFFFFFFFFFFFFFFFFFFF
310
FFFFFFFFFFFFFFFFFFFFFFFFFFFFFFFFFFFFFFFFFFFFFFFFFFFFFFFFFFFFFFFF
310
FFFFFFFFFFFFFFFFFFFFFFFFFFFFFFFFFFFFFFFFFFFFFFFFFFFFFFFFFFFFFFFF
310
FFFFFFFFFFFFFFFFFFFFFFFFFFFFFFFFFFFFFFFFFFFFFFFFFFFFFFFFFFFFFFFF
310
FFFFFFFFFFFFFFFFFFFFFFFFFFFFFFFFFFFFFFFFFFFFFFFFFFFFFFFFFFFFFFFF
310
FFFFFFFFFFFFFFFFFFFFFFFFFFFFFFFFFFFFFFFFFFFFFFFFFFFFFFFFFFFFFFFF
310
FFFFFFFFFFFFFFFFFFFFFFFFFFFFFFFFFFFFFFFFFFFFFFFFFFFFFFFFFFFFFFFF
310
FFFFFFFFFFFFFFFFFFFFFFFFFFFFFFFFFFFFFFFFFFFFFFFFFFFFFFFFFFFFFFFF
310
FFFFFFFFFFFFFFFFFFFFFFFFFFFFFFFFFFFFFFFFFFFFFFFFFFFFFFFFFFFFFFFF
310
FFFFFFFFFFFFFFFFFFFFFFFFFFFFFFFFFFFFFFFFFFFFFFFFFFFFFFFFFFFFFFFF
310
FFFFFFFFFFFFFFFFFFFFFFFFFFFFFFFFFFFFFFFFFFFFFFFFFFFFFFFFFFFFFFFF
310
FFFFFFFFFFFFFFFFFFFFFFFFFFFFFFFFFFFFFFFFFFFFFFFFFFFFFFFFFFFFFFFF
310
FFFFFFFFFFFFFFFFFFFFFFFFFFFFFFFFFFFFFFFFFFFFFFFFFFFFFFFFFFFFFFFF
310
0100000200000000000000000000000000000000000000000000000000000000
310
0000000000000000000000000000000000000000000000000000000000000000
310
0100FEFF030A0000FFFFFFFF0A00030000000000C00000000000004607000000
310
5042727573680007000000504272757368000700000050427275736800F439B2
310
7100000000000000000000000000000000000000000000000000000000000000
310
0000000000000000000000000000000000000000000000000000000000000000
310
0000000000000000000000000000000000000000000000000000000000000000
310
0000000000000000000000000000000000000000000000000000000000000000
310
0000000000000000000000000000000000000000000000000000000000000000
310
0000000000000000000000000000000000000000000000000000000000000000
310
0000000000000000000000000000000000000000000000000000000000000000
310
0000000000000000000000000000000000000000000000000000000000000000
310
0000000000000000000000000000000000000000000000000000000000000000
310
0000000000000000000000000000000000000000000000000000000000000000
310
0000000000000000000000000000000000000000000000000000000000000000
310
0000000000000000000000000000000000000000000000000000000000000000
310
20260000424D0E260000000000003E00000028000000B40200006E0000000100
310
01000000000000000000130B0000130B00000200000002000000000000FFFFFF
310
FFFFFFFFFFFFFFFFFFFFFFFFFFFFFFFFFFFFFFFFFFFFFFFFFFFFFFFFFFFFFFFF
310
FFFFFFFFFFFFFFFFFFFFFFFFFFFFFFFFFFFFFFFFFFFFFFFFFFFFFFFFFFFFFFFF
310
FFFFFFFFFFFFFFFFFFFFFFFFFFFFFFFFFFFFFFFFFFFFFFFFF000FFFFFFFFFFFF
310
FFFFFFFFFFFFFFFFFFFFFFFFFFFFFFFFFFFFFFFFFFFFFFFFFFFFFFFFFFFFFFFF
310
FFFFFFFFFFFFFFFFFFFFFFFFFFFFFFFFFFFFFFFFFFFFFFFFFFFFFFFFFFFFFFFF
310
FFFFFFFFFFFFFFFFFFFFFFFFFFFFFFFFF000FFFFFFFFFFFFFFFFFFFFFFFFFFFF
310
FFFFFFFFFFFFFFFFFFFFFFFFFFFFFFFFFFFFFFFFFFFFFFFFFFFFFFFFFFFFFFFF
310
FFFFFFFFFFFFFFFFFFFFFFFFFFFFFFFFFFFFFFFFFFFFFFFFFFFFFFFFFFFFFFFF
310
FFFFFFFFFFFFFFFFF000FFFFFFFFFFFFFFFFFFFFFFFFFFFFFFFFFFFFFFFFFFFF
310
FFFFFFFFFFFFFFFFFFFFFFFFFFFFFFFFFFFFFFFFFFFFFFFFFFFFFFFFFFFFFFFF
310
FFFFFFFFFFFFFFFFFFFFFFFFFFFFFFFFFFFFFFFFFFFFFFFFFFFFFFFFFFFFFFFF
310
F000FFFFFFFFFFFFFFFFFFFFFFFFFFFFFFFFFFFFFFFFFFFFFFFFFFFFFFFFFFFF
310
FFFFFFFFFFFFFFFFFFFFFFFFFFFFFFFFFFFFFFFFFFFFFFFFFFFFFFFFFFFFFFFF
310
FFFFFFFFFFFFFFFFFFFFFFFFFFFFFFFFFFFFFFFFFFFFFFFFF000FFFFFFFFFFFF
310
FFFFFFFFFFFFFFFFFFFFFFFFFFFFFFFFFFFFFFFFFFFFFFFFFFFFFFFFFFFFFFFF
310
FFFFFFFFFFFFFFFFFFFFFFFFFFFFFFFFFFFFFFFFFFFFFFFFFFFFFFFFFFFFFFFF
310
FFFFFFFFFFFFFFFFFFFFFFFFFFFFFFFFF000FFFFFFFFFFFFFFFFFFFFFFFFFFFF
310
FFFFFFFFFFFFFFFFFFFFFFFFFFFFFFFFFFFFFFFFFFFFFFFFFFFFFFFFFFFFFFFF
310
FFFFFFFFFFFFFFFFFFFFFFFFFFFFFFFFFFFFFFFFFFFFFFFFFFFFFFFFFFFFFFFF
310
FFFFFFFFFFFFFFFFF000FFFFFFFFFFFFFFFFFFFFFFFFFFFFFFFFFFFFFFFFFFFF
310
FFFFFFFFFFFFFFFFFFFFFFFFFFFFFFFFFFFFFFFFFFFFFFFFFFFFFFFFFFFFFFFF
310
FFFFFFFFFFFFFFFFFFFFFFFFFFFFFFFFFFFFFFFFFFFFFFFFFFFFFFFFFFFFFFFF
310
F000FFFFFFFFFFFFFFFFFFFFFFFFFFFFFFFFFFFFFFFFFFFFFFFFFFFFFFFFFFFF
310
FFFFFFFFFFFFFFFFFFFFFFFFFFFFFFFFFFFFFFFFFFFFFFFFFFFFFFFFFFFFFFFF
310
FFFFFFFFFFFFFFFFFFFFFFFFFFFFFFFFFFFFFFFFFFFFFFFFF000FFFFFFFFFFFF
310
FFFFFFFFFFFFFFFFFFFFFFFFFFFFFFFFFFFFFFFFFFFFFFFFFFFFFFFFFFFFFFFF
310
FFFFFFFFFFFFFFFFFFFFFFFFFFFFFFFFFFFFFFFFFFFFFFFFFFFFFFFFFFFFFFFF
310
FFFFFFFFFFFFFFFFFFFFFFFFFFFFFFFFF000FFFFFFFFFFFFFFFFFFFFFFFFFFFF
310
FFFFFFFFFFFFFFFFFFFFFFFFFFFFFFFFFFFFFFFFFFFFFFFFFFFFFFFFFFFFFFFF
310
FFFFFFFFFFFFFFFFFFFFFFFFFFFFFFFFFFFFFFFFFFFFFFFFFFFFFFFFFFFFFFFF
310
FFFFFFFFFFFFFFFFF000FFFFFFFFFFFFFFFFFFFFFFFFFFFFFFFFFFFFFFFFFFFF
310
FFFFFFFFFFFFFFFFFFFFFFFFFFFFFFFFFFFFFFFFFFFFFFFFFFFFFFFFFFFFFFFF
310
FFFFFFFFFFFFFFFFFFFFFFFFFFFFFFFFFFFFFFFFFFFFFFFFFFFFFFFFFFFFFFFF
310
F000FFFFFFFFFFFFFFFFFFFFFFFFFFFFFFFFFFFFFFFFFFFFFFFFFFFFFFFFFFFF
310
FFFFFFFFFFFFFFFFFFFFFFFFFFFFFFFFFFFFFFFFFFFFFFFFFFFFFFFFFFFFFFFF
310
FFFFFFFFFFFFFFFFFFFFFFFFFFFFFFFFFFFFFFFFFFFFFFFFF000FFFFFFFFFFFF
310
FFFFFFFFFFFFFFFFFFFFFFFFFFFFFFFFFFFFFFFFFFFFFFFFFFFFFFFFFFFFFFFF
310
FFFFFFFFFFFFFFFFFFFFFFFFFFFFFFFFFFFFFFFFFFFFFFFFFFFFFFFFFFFFFFFF
310
FFFFFFFFFFFFFFFFFFFFFFFFFFFFFFFFF000FFFFFFFFFFFFFFFFFFFFFFFFFFFF
310
FFFFFFFFFFFFFFFFFFFFFFFFFFFFFFFFFFFFFFFFFFFFFFFFFFFFFFFFFFFFFFFF
310
FFFFFFFFFFFFFFFFFFFFFFFFFFFFFFFFFFFFFFFFFFFFFFFFFFFFFFFFFFFFFFFF
310
FFFFFFFFFFFFFFFFF000FFFFFFFFFFFFFFFFFFFFFFFFFFFFFFFFFFFFFFFFFFFF
310
FFFFFFFFFFFFFFFFFFFFFFFFFFFFFFFFFFFFFFFFFFFFFFFFFFFFFFFFFFFFFFFF
310
FFFFFFFFFFFFFFFFFFFFFFFFFFFFFFFFFFFFFFFFFFFFFFFFFFFFFFFFFFFFFFFF
310
F000FFFFFFFFFFFFFFFFFFFFFFFFFFFFFFFFFFFFFFFFFFFFFFFFFFFFFFFFFFFF
310
FFFFFFFFFFFFFFFFFFFFFFFFFFFFFFFFFFFFFFFFFFFFFFFFFFFFFFFFFFFFFFFF
310
FFFFFFFFFFFFFFFFFFFFFFFFFFFFFFFFFFFFFFFFFFFFFFFFF000FFFFFFFFFFFF
310
FFFFFFFFFFFFFFFFFFFFFFFFFFFFFFFFFFFFFFFFFFFFFFFFFFFFFFFFFFFFFFFF
310
FFFFFFFFFFFFFFFFFFFFFFFFFFFFFFFFFFFFFFFFFFFFFFFFFFFFFFFFFFFFFFFF
310
FFFFFFFFFFFFFFFFFFFFFFFFFFFFFFFFF000FFFFFFFFFFFFFFFFFFFFFFFFFFFF
310
FFFFFFFFFFFFFFFFFFFFFFFFFFFFFFFFFFFFFFFFFFFFFFFFFFFFFFFFFFFFFFFF
310
FFFFFFFFFFFFFFFFFFFFFFFFFFFFFFFFFFFFFFFFFFFFFFFFFFFFFFFFFFFFFFFF
310
FFFFFFFFFFFFFFFFF000FFFFF80003FFFFFFFFFFFFFFFFFFFFFFFFFFFFFFFFFF
310
FFFFF00007FFFFFFFFFF00007FFFFFF800000000000000007FFFFFFFFFFFFFFF
310
FFFFFFFC001FFFFFFFFFFFFFFC001FFFFFFFFFFFFFFFFFFFFFFFFFFE0007FFFF
310
F000FFFF8000007FFFFFFFF8000FFFFFC0007FFFFF80007FFFFF0000007FFFFF
310
FFF8000007FFFFF800000000000000007FFFFFF0001FFFFFFFFFFFC00001FFFF
310
FFFFFFFFC00001FFFFFFFF000000000003FFFFE000007FFFF000FFFE0000000F
310
FFFFFFF0000FFFFF80007FFFFF80007FFFFC0000001FFFFFFFC0000001FFFFF8
310
00000000000000007FFFFFF0001FFFFFFFFFFE0000003FFFFFFFFFFE0000003F
310
FFFFFF000000000003FFFF0000000FFFF000FFF800000003FFFFFFF00007FFFF
310
80007FFFFF80007FFFF000000007FFFFFF000000003FFFF80000000000000000
310
7FFFFFF0001FFFFFFFFFF80000000FFFFFFFFFF80000000FFFFFFF0000000000
310
03FFFC00000003FFF000FFE000000000FFFFFFF00007FFFF80003FFFFF80007F
310
FFC000000001FFFFFC000000001FFFF800000000000000007FFFFFF0001FFFFF
310
FFFFE000000003FFFFFFFFE000000003FFFFFF000000000003FFF000000000FF
310
F000FF80000000007FFFFFF00007FFFF80003FFFFF80007FFF8000000000FFFF
310
F80000000007FFF800000000000000007FFFFFF0001FFFFFFFFFC000000001FF
310
FFFFFFC000000001FFFFFF000000000003FFC0000000007FF000FF0000000000
310
3FFFFFE00007FFFF00003FFFFF80007FFE00000000003FFFF00000000003FFF8
310
00000000000000007FFFFFF0001FFFFFFFFF8000000000FFFFFFFF8000000000
310
FFFFFF000000000003FF80000000003FF000FE00000000001FFFFFE00003FFFF
310
00003FFFFF80007FFC00000000001FFFE00000000001FFF8000001FFFE000000
310
7FFFFFF0001FFFFFFFFE00000000003FFFFFFE00000000003FFFFF0000000000
310
03FF00000000001FF000FC00000000000FFFFFE00003FFFF00001FFFFF80007F
310
F800000000001FFFC00000000000FFF8000001FFFE0000007FFFFFF0001FFFFF
310
FFFC00000000001FFFFFFC00000000001FFFFF000000000003FE00000000000F
310
F000F8000000000007FFFFE00003FFFF00001FFFFF80007FF800000000000FFF
310
800000000000FFF8000001FFFE0000007FFFFFF0001FFFFFFFF800000000000F
310
FFFFF800000000000FFFFF000000000003FC000000000007F000F80000000000
310
03FFFFC00003FFFE00001FFFFF80007FF0000000000007FF0000000000007FF8
310
000001FFFE0000007FFFFFF0001FFFFFFFF0000000000007FFFFF00000000000
310
07FFFF000000000003F8000000000003F000F0000000000003FFFFC00001FFFE
310
00001FFFFF80007FE0000000000007FE0000000000003FF8000001FFFE000000
310
7FFFFFF0001FFFFFFFF0000000000007FFFFF0000000000007FFFF0000000000
310
03F800001F800003F000E00001FFF00001FFFFC00001FFFE00000FFFFF80007F
310
E00001FFE00003FE00001FFF00003FF8000001FFFE0000007FFFFFF0001FFFFF
310
FFE000003E000003FFFFE000003E000003FFFF000000000003F00001FFF80001
310
F000E00007FFFC0001FFFFC00001FFFE00000FFFFF80007FC0000FFFFC0003FC
310
0000FFFFC0001FF8000001FFFE0000007FFFFFF0001FFFFFFFC00003FFE00001
310
FFFFC00003FFE00001FFFF0001FFFFFFFFF00007FFFE0001F000E0000FFFFF00
310
00FFFF800001FFFC00000FFFFF80007FC0001FFFFE0001FC0001FFFFE0001FF8
310
000001FFFE0000007FFFFFF0001FFFFFFF80000FFFF80000FFFF80000FFFF800
310
00FFFF0003FFFFFFFFE0000FFFFF8000F000C0003FFFFF8000FFFF800000FFFC
310
000007FFFF80007F80003FFFFF0001FC0003FFFFF0001FF8000001FFFE000000
310
7FFFFFF0001FFFFFFF80003FFFFE0000FFFF80003FFFFE0000FFFF0003FFFFFF
310
FFE0003FFFFF8000F000C0003FFFFF8000FFFF800000FFFC000007FFFF80007F
310
80007FFFFF8001F80007FFFFF8000FF8000001FFFE0000007FFFFFF0001FFFFF
310
FF00007FFFFF00007FFF00007FFFFF00007FFF0003FFFFFFFFE0003FFFFFC000
310
F000C0007FFFFFC000FFFF000000FFFC000007FFFF80007F8000FFFFFF8000F8
310
000FFFFFF8000FF8000001FFFE0000007FFFFFF0001FFFFFFF0000FFFFFF8000
310
7FFF0000FFFFFF80007FFF0003FFFFFFFFC0007FFFFFC00070008000FFFFFFC0
310
00FFFF000000FFF8000007FFFF80007F8000FFFFFF8000F8000FFFFFF8000FF8
310
000001FFFE0000007FFFFFF0001FFFFFFE0001FFFFFFC0003FFE0001FFFFFFC0
310
003FFF0003FFFFFFFFC0007FFFFFE00070008000FFFFFFC0007FFF0000007FF8
310
000003FFFF80007F0001FFFFFF8000F8000FFFFFF8000FF8000001FFFE000000
310
7FFFFFF0001FFFFFFE0001FFFFFFC0003FFE0001FFFFFFC0003FFF0003FFFFFF
310
FFC000FFFFFFE00070008000FFFFFFC0007FFF0000007FF8000003FFFF80007F
310
0001FFFFFF8000F8001FFFFFF8000FF8000001FFFE0000007FFFFFF0001FFFFF
310
FE0003FFFFFFE0003FFE0003FFFFFFE0003FFF0003FFFFFFFFC000FFFFFFE000
310
70008000FFFFFFC0007FFE0000007FF8000003FFFF80007F0001FFFFFF8000F0
310
001FFFFFF8000FF8000001FFFE0000007FFFFFF0001FFFFFFC0003FFFFFFE000
310
1FFC0003FFFFFFE0001FFF0003FFFFFFFFC000FFFFFFC00070008000FFFFFF80
310
007FFE0000007FF0000003FFFF80007F0001FFFFFF0000F0001FFFFFF8000FF8
310
000001FFFE0000007FFFFFF0001FFFFFFC0007FFFFFFF0001FFC0007FFFFFFF0
310
001FFF0003FFFFFFFFC000FFFFFFC00070008001FFFFFF0000FFFE0000003FF0
310
000001FFFF80007F0001FFFFFF0000F8001FFFFFF0000FF8000001FFFE000000
310
7FFFFFF0001FFFFFFC0007FFFFFFF0001FFC0007FFFFFFF0001FFF0003FFFFFF
310
FFC001FFFFFF80007000FFFFFFFFFE0000FFFE0008003FF0008001FFFF80007F
310
FFFFFFFFFC0000FFFFFFFFFFE0000FF8000001FFFE0000007FFFFFF0001FFFFF
310
F8000FFFFFFFF8000FF8000FFFFFFFF8000FFF0003FFFFFFFFFFFFFFFFFF0000
310
7000FFFFFFFFFC0000FFFC0008003FF0008001FFFF80007FFFFFFFFFF80001FF
310
FFFFFFFF80000FF8000001FFFE0000007FFFFFF0001FFFFFF8000FFFFFFFF800
310
0FF8000FFFFFFFF8000FFF0003FFFFFFFFFFFFFFFFFE0000F000FFFFFFFFE000
310
00FFFC000C003FE000C001FFFF80007FFFFFFFFFC00001FFFFFFFFFE00001FF8
310
000001FFFE0000007FFFFFF0001FFFFFF8000FFFFFFFF8000FF8000FFFFFFFF8
310
000FFF0003FFFFFFFFFFFFFFFFF00000F000FFFFFFFE000001FFFC000C001FE0
310
00C000FFFF80007FFFFFFFFE000001FFFFFFFFE000001FF80FFFFFFFFFFFFFC0
310
7FFFFFF0001FFFFFF8000FFFFFFFF8000FF8000FFFFFFFF8000FFF0003FFFFFF
310
FFFFFFFFFF800000F000FFFFFFC0000001FFFC001C001FE001C000FFFF80007F
310
FFFFFF80000003FFFFFFF80000001FF80FFFFFFFFFFFFFC07FFFFFF0001FFFFF
310
F8001FFFFFFFFC000FF8001FFFFFFFFC000FFF0003FFFFFFFFFFFFFFF0000001
310
F000FFFFF800000001FFF8001C001FE001C000FFFF80007FFFFFF800000003FF
310
FFFF800000003FF80FFFFFFFFFFFFFC07FFFFFF0001FFFFFF8001FFFFFFFFC00
310
0FF8001FFFFFFFFC000FFF0003FFFFFFFFFFFFFE00000001F000FFFFC0000000
310
03FFF8001E001FC001E000FFFF80007FFFFF8000000007FFFFFC000000003FF8
310
0FFFFFFFFFFFFFC07FFFFFF0001FFFFFF8001FFFFFFFFC000FF8001FFFFFFFFC
310
000FFF0003FFFFFFFFFFFFE000000003F000FFFE0000000007FFF8001E000FC0
310
01E0007FFF80007FFFFE0000000007FFFFE0000000007FF80FFFFFFFFFFFFFC0
310
7FFFFFF0001FFFFFF0001FFFFFFFFC0007F0001FFFFFFFFC0007FF0003FFFFFF
310
FFFFFF0000000003F000FFF80000000007FFF8001E000FC003E0007FFF80007F
310
FFF0000000000FFFFF8000000000FFF80FFFFFFFFFFFFFC07FFFFFF0001FFFFF
310
F0001FFFFFFFFC0007F0001FFFFFFFFC0007FF0003FFFFFFFFFFFC0000000007
310
F000FFE0000000000FFFF0003E000FC003E0007FFF80007FFFC0000000001FFF
310
FE0000000001FFF80FFFFFFFFFFFFFC07FFFFFF0001FFFFFF0001FFFFFFFFC00
310
07F0001FFFFFFFFC0007FF0003FFFFFFFFFFF0000000000FF000FFC000000000
310
1FFFF0003F000F8003F0003FFF80007FFF80000000003FFFF80000000003FFF8
310
0FFFFFFFFFFFFFC07FFFFFF0001FFFFFF0001FFFFFFFFC0007F0001FFFFFFFFC
310
0007FF0003FFFFFFFFFFE0000000001FF000FF00000000007FFFF0003F000780
310
03F0003FFF80007FFF00000000007FFFF00000000007FFF80FFFFFFFFFFFFFC0
310
7FFFFFF0001FFFFFF0001FFFFFFFFC0007F0001FFFFFFFFC0007FF0003FFFFFF
310
FFFF80000000007FF000FE0000000000FFFFE0003F00078007F0003FFF80007F
310
FE0000000001FFFFE0000000001FFFF80FFFFFFFFFFFFFC07FFFFFF0001FFFFF
310
F0001FFFFFFFFC0007F0001FFFFFFFFC0007FF0003FFFFFFFFFF0000000000FF
310
F000FC0000000003FFFFE0007F00078007F0003FFF80007FFC0000000007FFFF
310
C0000000007FFFF80FFFFFFFFFFFFFC07FFFFFF0001FFFFFF8001FFFFFFFFC00
310
0FF8001FFFFFFFFC000FFF0003FFFFFFFFFE0000000003FFF000FC000000000F
310
FFFFE0007F80070007F8001FFF80007FF8000000001FFFFF8000000001FFFFF8
310
0FFFFFFFFFFFFFC07FFFFFF0001FFFFFF8001FFFFFFFFC000FF8001FFFFFFFFC
310
000FFF0003FFFFFFFFFC000000000FFFF000F8000000007FFFFFE0007F800700
310
07F8001FFF80007FF000000000FFFFFF800000000FFFFFF80FFFFFFFFFFFFFC0
310
7FFFFFF0001FFFFFF8000FFFFFFFF8000FF8000FFFFFFFF8000FFF0003FFFFFF
310
FFFC000000007FFFF000F800000007FFFFFFC0007F8003000FF8001FFF80007F
310
F000000007FFFFFF000000007FFFFFF80FFFFFFFFFFFFFC07FFFFFF0001FFFFF
310
F8000FFFFFFFF8000FF8000FFFFFFFF8000FFF0003FFFFFFFFF80000000FFFFF
310
F000F0000000FFFFFFFFC000FF8003000FF8001FFF80007FE0000000FFFFFFFF
310
0000000FFFFFFFF8000001FFFE0000007FFFFFF0001FFFFFF8000FFFFFFFF800
310
0FF8000FFFFFFFF8000FFF0003FFFFFFFFF8000000FFFFFFF000F000000FFFFF
310
FFFFC000FFC002000FF8000FFF80007FE000001FFFFFFFFE000001FFFFFFFFF8
310
000001FFFE0000007FFFFFF0001FFFFFF8000FFFFFFFF8000FF8000FFFFFFFF8
310
000FFF0003FFFFFFFFF000001FFFFFFFF000E00000FFFFFFFFFFC000FFC00200
310
0FFC000FFF80007FE00001FFFFFFFFFE00001FFFFFFFFFF8000001FFFE000000
310
7FFFFFF0001FFFFFFC000FFFFFFFF8001FFC000FFFFFFFF8001FFF0003FFFFFF
310
FFF00001FFFFFFFFF000E00007FFFFFFFFFF8000FFC000001FFC000FFF80007F
310
C0000FFFFFFFFFFE0000FFFFFFFFFFF8000001FFFE0000007FFFFFF0001FFFFF
310
FC0007FFFFFFF0001FFC0007FFFFFFF0001FFF0003FFFFFFFFF00007FFFFFFFF
310
F000E0001FFFFFFFFFFF8000FFC000001FFC000FFF80007FC0003FFFFFFFFFFE
310
0001FFFFFFFFFFF8000001FFFE0000007FFFFFF0001FFFFFFC0007FFFFFFF000
310
1FFC0007FFFFFFF0001FFF0003FFFFFFFFF0001FFFFFFFFFF000E0003FFFFF00
310
03FF8001FFE000001FFC0007FF80007FC0007FFFFF0007FC0003FFFFF0003FF8
310
000001FFFE0000007FFFFFF0001FFFFFFC0003FFFFFFE0001FFC0003FFFFFFE0
310
001FFF0003FFFFFFFFF0003FFFFFFFFFF000E0003FFFFF0001FF8001FFE00000
310
1FFE0007FF80007FC0007FFFFE0003FC0007FFFFE0003FF8000001FFFE000000
310
7FFFFFF0001FFFFFFE0003FFFFFFE0003FFE0003FFFFFFE0003FFF0003FFFFFF
310
FFF0003FFFFF8001F000E0003FFFFF0001FF0001FFE000001FFE0007FF80007F
310
C0007FFFFE0003FC0007FFFFE0003FF8000001FFFE0000007FFFFFF0001FFFFF
310
FE0001FFFFFFC0003FFE0001FFFFFFC0003FFF0003FFFFFFFFF0003FFFFF0001
310
F000E0003FFFFF0003FF0001FFE000003FFE0007FF80007FC0007FFFFE0003FC
310
0007FFFFE0003FF8000001FFFE0000007FFFFFF0001FFFFFFF0001FFFFFFC000
310
7FFF0001FFFFFFC0007FFF0003FFFFFFFFF0003FFFFF0001F000E0003FFFFE00
310
03FF0003FFF000003FFE0003FF80007FC0007FFFFC0003FE0007FFFFE0003FF8
310
000001FFFE0000007FFFFFF0001FFFFFFF0000FFFFFF80007FFF0000FFFFFF80
310
007FFF0003FFFFFFFFF0003FFFFF0001F000E0003FFFFE0003FF0003FFF00000
310
3FFF0003FF80007FC0007FFFFC0007FE0007FFFFC0003FF8000001FFFE000000
310
7FFFFFF0001FFFFFFF80007FFFFF0000FFFF80007FFFFF0000FFFF0003FFFFFF
310
FFF0003FFFFF0003F000E0003FFFFC0003FE0003FFF000003FFF0003FF80007F
310
E0003FFFF80007FE0003FFFFC0007FF8000001FFFE0000007FFFFFF0001FFFFF
310
FF80003FFFFE0000FFFF80003FFFFE0000FFFF0003FFFFFFFFF0001FFFFE0003
310
F000F0001FFFF80003FE0003FFF000007FFF0001FF80007FE0003FFFF00007FE
310
0001FFFF80007FF8000001FFFE0000007FFFFFF0001FFFFFFFC0000FFFF80001
310
FFFFC0000FFFF80001FFFF0003FFFFFFFFF0001FFFFC0003F000F0000FFFF000
310
07FE0007FFF800007FFF0001FF80007FE0001FFFE00007FF0000FFFE00007FF8
310
000001FFFE0000007FFFFFF0001FFFFFFFC00003FFE00001FFFFC00003FFE000
310
01FFFF0003FFFFFFFFF8000FFFF80003F000F00003FFC00007FC0007FFF80000
310
7FFF8001FF80007FF00007FF80000FFF00007FF80000FFF8000001FFFE000000
310
7F80000000000001FFE000003E000003FFFFE000003E000003FFFF0003FFFFFF
310
FFF80003FFE00007F000F800000000000FFC0007FFF800007FFF8001FF80007F
310
F000000000000FFF000000000000FFF8000001FFFE0000007F80000000000001
310
FFF0000000000007FFFFF0000000000007FFFF0003FFFFFFFFFC00007E000007
310
F000F800000000000FFC0007FFF80000FFFF8000FF80007FF800000000001FFF
310
800000000001FFF8000001FFFE0000007F80000000000001FFF800000000000F
310
FFFFF800000000000FFFFF0003FFFFFFFFFC00000000000FF000FC0000000000
310
1FFC0007FFFC0000FFFF8000FF80007FF800000000003FFFC00000000001FFF8
310
000001FFFE0000007F80000000000001FFF800000000000FFFFFF80000000000
310
0FFFFF0003FFFFFFFFFE00000000001FF000FE00000000003FF8000FFFFC0000
310
FFFF8000FF80007FFC00000000003FFFC00000000003FFF8000001FFFE000000
310
7F80000000000001FFFC00000000001FFFFFFC00000000001FFFFF0003FFFFFF
310
FFFF00000000001FF000FF00000000003FF8000FFFFC0000FFFFC000FF80007F
310
FE00000000007FFFE00000000007FFF8000001FFFE0000007F80000000000001
310
FFFE00000000003FFFFFFE00000000003FFFFF0003FFFFFFFFFF80000000003F
310
F000FF80000000007FF8000FFFFC0001FFFFC0007F80007FFF0000000000FFFF
310
F0000000000FFFF800000000000000007F80000000000001FFFF8000000000FF
310
FFFFFF8000000000FFFFFF0003FFFFFFFFFFC0000000007FF000FFC000000000
310
FFF8000FFFFE0001FFFFC0007F80007FFF8000000001FFFFF8000000001FFFF8
310
00000000000000007F80000000000001FFFFC000000001FFFFFFFFC000000001
310
FFFFFF0003FFFFFFFFFFE000000000FFF000FFE000000003FFF0001FFFFE0001
310
FFFFC0007F80007FFFC000000007FFFFFE000000003FFFF80000000000000000
310
7F80000000000001FFFFE000000003FFFFFFFFE000000003FFFFFF0003FFFFFF
310
FFFFF000000003FFF000FFF80000000FFFF0001FFFFE0001FFFFE0007F80007F
310
FFF00000000FFFFFFF00000000FFFFF800000000000000007F80000000000001
310
FFFFF80000000FFFFFFFFFF80000000FFFFFFF0003FFFFFFFFFFFC0000000FFF
310
F000FFFE0000003FFFF0001FFFFE0003FFFFE0003F80007FFFFC0000003FFFFF
310
FFC0000003FFFFF800000000000000007F80000000000001FFFFFE0000003FFF
310
FFFFFFFE0000003FFFFFFF0003FFFFFFFFFFFF0000003FFFF000FFFF800000FF
310
FFF0001FFFFF0003FFFFE0003F80007FFFFF000001FFFFFFFFF800001FFFFFF8
310
00000000000000007F80000000000001FFFFFFC00001FFFFFFFFFFFFC00001FF
310
FFFFFF0003FFFFFFFFFFFFC00000FFFFF000FFFFF8000FFFFFFFFFFFFFFFFFFF
310
FFFFFFFFFFFFFFFFFFFFF0001FFFFFFFFFFF0000FFFFFFF80000000000000000
310
7FFFFFFFFFFFFFFFFFFFFFFC001FFFFFFFFFFFFFFC001FFFFFFFFFFFFFFFFFFF
310
FFFFFFFC001FFFFFF000FFFFFFFFFFFFFFFFFFFFFFFFFFFFFFFFFFFFFFFFFFFF
310
FFFFFFFFFFFFFFFFFFFFFFFFFFFFFFFFFFFFFFFFFFFFFFFFFFFFFFFFFFFFFFFF
310
FFFFFFFFFFFFFFFFFFFFFFFFFFFFFFFFFFFFFFFFFFFFFFFFFFFFFFFFFFFFFFFF
310
F000FFFFFFFFFFFFFFFFFFFFFFFFFFFFFFFFFFFFFFFFFFFFFFFFFFFFFFFFFFFF
310
FFFFFFFFFFFFFFFFFFFFFFFFFFFFFFFFFFFFFFFFFFFFFFFFFFFFFFFFFFFFFFFF
310
FFFFFFFFFFFFFFFFFFFFFFFFFFFFFFFFFFFFFFFFFFFFFFFFF000FFFFFFFFFFFF
310
FFFFFFFFFFFFFFFFFFFFFFFFFFFFFFFFFFFFFFFFFFFFFFFFFFFFFFFFFFFFFFFF
310
FFFFFFFFFFFFFFFFFFFFFFFFFFFFFFFFFFFFFFFFFFFFFFFFFFFFFFFFFFFFFFFF
310
FFFFFFFFFFFFFFFFFFFFFFFFFFFFFFFFF000FFFFFFFFFFFFFFFFFFFFFFFFFFFF
310
FFFFFFFFFFFFFFFFFFFFFFFFFFFFFFFFFFFFFFFFFFFFFFFFFFFFFFFFFFFFFFFF
310
FFFFFFFFFFFFFFFFFFFFFFFFFFFFFFFFFFFFFFFFFFFFFFFFFFFFFFFFFFFFFFFF
310
FFFFFFFFFFFFFFFFF000FFFFFFFFFFFFFFFFFFFFFFFFFFFFFFFFFFFFFFFFFFFF
310
FFFFFFFFFFFFFFFFFFFFFFFFFFFFFFFFFFFFFFFFFFFFFFFFFFFFFFFFFFFFFFFF
310
FFFFFFFFFFFFFFFFFFFFFFFFFFFFFFFFFFFFFFFFFFFFFFFFFFFFFFFFFFFFFFFF
310
F000FFFFFFFFFFFFFFFFFFFFFFFFFFFFFFFFFFFFFFFFFFFFFFFFFFFFFFFFFFFF
310
FFFFFFFFFFFFFFFFFFFFFFFFFFFFFFFFFFFFFFFFFFFFFFFFFFFFFFFFFFFFFFFF
310
FFFFFFFFFFFFFFFFFFFFFFFFFFFFFFFFFFFFFFFFFFFFFFFFF000FFFFFFFFFFFF
310
FFFFFFFFFFFFFFFFFFFFFFFFFFFFFFFFFFFFFFFFFFFFFFFFFFFFFFFFFFFFFFFF
310
FFFFFFFFFFFFFFFFFFFFFFFFFFFFFFFFFFFFFFFFFFFFFFFFFFFFFFFFFFFFFFFF
310
FFFFFFFFFFFFFFFFFFFFFFFFFFFFFFFFF000FFFFFFFFFFFFFFFFFFFFFFFFFFFF
310
FFFFFFFFFFFFFFFFFFFFFFFFFFFFFFFFFFFFFFFFFFFFFFFFFFFFFFFFFFFFFFFF
310
FFFFFFFFFFFFFFFFFFFFFFFFFFFFFFFFFFFFFFFFFFFFFFFFFFFFFFFFFFFFFFFF
310
FFFFFFFFFFFFFFFFF000FFFFFFFFFFFFFFFFFFFFFFFFFFFFFFFFFFFFFFFFFFFF
310
FFFFFFFFFFFFFFFFFFFFFFFFFFFFFFFFFFFFFFFFFFFFFFFFFFFFFFFFFFFFFFFF
310
FFFFFFFFFFFFFFFFFFFFFFFFFFFFFFFFFFFFFFFFFFFFFFFFFFFFFFFFFFFFFFFF
310
F000FFFFFFFFFFFFFFFFFFFFFFFFFFFFFFFFFFFFFFFFFFFFFFFFFFFFFFFFFFFF
310
FFFFFFFFFFFFFFFFFFFFFFFFFFFFFFFFFFFFFFFFFFFFFFFFFFFFFFFFFFFFFFFF
310
FFFFFFFFFFFFFFFFFFFFFFFFFFFFFFFFFFFFFFFFFFFFFFFFF000FFFFFFFFFFFF
310
FFFFFFFFFFFFFFFFFFFFFFFFFFFFFFFFFFFFFFFFFFFFFFFFFFFFFFFFFFFFFFFF
310
FFFFFFFFFFFFFFFFFFFFFFFFFFFFFFFFFFFFFFFFFFFFFFFFFFFFFFFFFFFFFFFF
310
FFFFFFFFFFFFFFFFFFFFFFFFFFFFFFFFF000FFFFFFFFFFFFFFFFFFFFFFFFFFFF
310
FFFFFFFFFFFFFFFFFFFFFFFFFFFFFFFFFFFFFFFFFFFFFFFFFFFFFFFFFFFFFFFF
310
FFFFFFFFFFFFFFFFFFFFFFFFFFFFFFFFFFFFFFFFFFFFFFFFFFFFFFFFFFFFFFFF
310
FFFFFFFFFFFFFFFFF000FFFFFFFFFFFFFFFFFFFFFFFFFFFFFFFFFFFFFFFFFFFF
310
FFFFFFFFFFFFFFFFFFFFFFFFFFFFFFFFFFFFFFFFFFFFFFFFFFFFFFFFFFFFFFFF
310
FFFFFFFFFFFFFFFFFFFFFFFFFFFFFFFFFFFFFFFFFFFFFFFFFFFFFFFFFFFFFFFF
310
F000FFFFFFFFFFFFFFFFFFFFFFFFFFFFFFFFFFFFFFFFFFFFFFFFFFFFFFFFFFFF
310
FFFFFFFFFFFFFFFFFFFFFFFFFFFFFFFFFFFFFFFFFFFFFFFFFFFFFFFFFFFFFFFF
310
FFFFFFFFFFFFFFFFFFFFFFFFFFFFFFFFFFFFFFFFFFFFFFFFF000FFFFFFFFFFFF
310
FFFFFFFFFFFFFFFFFFFFFFFFFFFFFFFFFFFFFFFFFFFFFFFFFFFFFFFFFFFFFFFF
310
FFFFFFFFFFFFFFFFFFFFFFFFFFFFFFFFFFFFFFFFFFFFFFFFFFFFFFFFFFFFFFFF
310
FFFFFFFFFFFFFFFFFFFFFFFFFFFFFFFFF000FFFFFFFFFFFFFFFFFFFFFFFFFFFF
310
FFFFFFFFFFFFFFFFFFFFFFFFFFFFFFFFFFFFFFFFFFFFFFFFFFFFFFFFFFFFFFFF
310
FFFFFFFFFFFFFFFFFFFFFFFFFFFFFFFFFFFFFFFFFFFFFFFFFFFFFFFFFFFFFFFF
310
FFFFFFFFFFFFFFFFF000FFFFFFFFFFFFFFFFFFFFFFFFFFFFFFFFFFFFFFFFFFFF
310
FFFFFFFFFFFFFFFFFFFFFFFFFFFFFFFFFFFFFFFFFFFFFFFFFFFFFFFFFFFFFFFF
310
FFFFFFFFFFFFFFFFFFFFFFFFFFFFFFFFFFFFFFFFFFFFFFFFFFFFFFFFFFFFFFFF
310
F000FFFFFFFFFFFFFFFFFFFFFFFFFFFFFFFFFFFFFFFFFFFFFFFFFFFFFFFFFFFF
310
FFFFFFFFFFFFFFFFFFFFFFFFFFFFFFFFFFFFFFFFFFFFFFFFFFFFFFFFFFFFFFFF
310
FFFFFFFFFFFFFFFFFFFFFFFFFFFFFFFFFFFFFFFFFFFFFFFFF000FFFFFFFFFFFF
310
FFFFFFFFFFFFFFFFFFFFFFFFFFFFFFFFFFFFFFFFFFFFFFFFFFFFFFFFFFFFFFFF
310
FFFFFFFFFFFFFFFFFFFFFFFFFFFFFFFFFFFFFFFFFFFFFFFFFFFFFFFFFFFFFFFF
310
FFFFFFFFFFFFFFFFFFFFFFFFFFFFFFFFF000FFFFFFFFFFFFFFFFFFFFFFFFFFFF
310
FFFFFFFFFFFFFFFFFFFFFFFFFFFFFFFFFFFFFFFFFFFFFFFFFFFFFFFFFFFFFFFF
310
FFFFFFFFFFFFFFFFFFFFFFFFFFFFFFFFFFFFFFFFFFFFFFFFFFFFFFFFFFFFFFFF
310
FFFFFFFFFFFFFFFFF000FFFFFFFFFFFFFFFFFFFFFFFFFFFFFFFFFFFFFFFFFFFF
310
FFFFFFFFFFFFFFFFFFFFFFFFFFFFFFFFFFFFFFFFFFFFFFFFFFFFFFFFFFFFFFFF
310
FFFFFFFFFFFFFFFFFFFFFFFFFFFFFFFFFFFFFFFFFFFFFFFFFFFFFFFFFFFFFFFF
310
F000FFFFFFFFFFFFFFFFFFFFFFFFFFFFFFFFFFFFFFFFFFFFFFFFFFFFFFFFFFFF
310
FFFFFFFFFFFFFFFFFFFFFFFFFFFFFFFFFFFFFFFFFFFFFFFFFFFFFFFFFFFFFFFF
310
FFFFFFFFFFFFFFFFFFFFFFFFFFFFFFFFFFFFFFFFFFFFFFFFF000FFFFFFFFFFFF
310
FFFFFFFFFFFFFFFFFFFFFFFFFFFFFFFFFFFFFFFFFFFFFFFFFFFFFFFFFFFFFFFF
310
FFFFFFFFFFFFFFFFFFFFFFFFFFFFFFFFFFFFFFFFFFFFFFFFFFFFFFFFFFFFFFFF
310
FFFFFFFFFFFFFFFFFFFFFFFFFFFFFFFFF0000000000000000000000000000000
310
0000000000000000000000000000000000000000000000000000000000000000
310
0000000000000000000000000000000000000000000000000000000000000000
310
0000000000000000000000000000000000000000000000000000000000000000
310
0000000000000000000000000000000000000000000000000000000000000000
310
0000000000000000000000000000000000000000000000000000000000000000
310
0000000000000000000000000000000000000000000000000000000000000000
310
0000000000000000000000000000000000000000000000000000000000000000
310
0000000000000000000000000000000000000000000000000000000000000000
310
0000000000000000000000000000000000000000000000000000000000000000
310
0000000000000000000000000000000000000000000000000000000000000000
310
0000000000000000000000000000000000000000000000000000000000000000
310
0000000000000000000000000000000000000000000000000000000000000000
310
0000000000000000000000000000000000000000000000000000000000000000
310
0000000000000000000000000000000000000000000000000000000000000000
310
0000000000000000000000000000000000000000000000000000000000000000
  1
OLE
  0
ENDSEC
  0
SECTION
  2
OBJECTS
  0
DICTIONARY
  5
C
330
0
100
AcDbDictionary
281
     1
  3
ACAD_GROUP
350
D
  3
ACAD_LAYOUT
350
1A
  3
ACAD_MLINESTYLE
350
17
  3
ACAD_PLOTSETTINGS
350
19
  3
ACAD_PLOTSTYLENAME
350
E
  0
DICTIONARY
  5
D
102
{ACAD_REACTORS
330
C
102
}
330
C
100
AcDbDictionary
281
     1
  0
DICTIONARY
  5
1A
102
{ACAD_REACTORS
330
C
102
}
330
C
100
AcDbDictionary
281
     1
  3
Layout1
350
1E
  3
Layout2
350
26
  3
Model
350
22
  0
DICTIONARY
  5
17
102
{ACAD_REACTORS
330
C
102
}
330
C
100
AcDbDictionary
281
     1
  3
Standard
350
18
  0
DICTIONARY
  5
19
102
{ACAD_REACTORS
330
C
102
}
330
C
100
AcDbDictionary
281
     1
  0
ACDBDICTIONARYWDFLT
  5
E
102
{ACAD_REACTORS
330
C
102
}
330
C
100
AcDbDictionary
281
     1
  3
Normal
350
F
100
AcDbDictionaryWithDefault
340
F
  0
LAYOUT
  5
1E
102
{ACAD_REACTORS
330
1A
102
}
330
1A
100
AcDbPlotSettings
  1

  2
none_device
  4

  6

 40
0.0
 41
0.0
 42
0.0
 43
0.0
 44
0.0
 45
0.0
 46
0.0
 47
0.0
 48
0.0
 49
0.0
140
0.0
141
0.0
142
1.0
143
1.0
 70
   688
 72
     0
 73
     0
 74
     5
  7

 75
    16
147
1.0
148
0.0
149
0.0
100
AcDbLayout
  1
Layout1
 70
     1
 71
     1
 10
0.0
 20
0.0
 11
420.0
 21
297.0
 12
0.0
 22
0.0
 32
0.0
 14
1.0000000000E+20
 24
1.0000000000E+20
 34
1.0000000000E+20
 15
-1.0000000000E+20
 25
-1.0000000000E+20
 35
-1.0000000000E+20
146
0.0
 13
0.0
 23
0.0
 33
0.0
 16
1.0
 26
0.0
 36
0.0
 17
0.0
 27
1.0
 37
0.0
 76
     0
330
1B
  0
LAYOUT
  5
26
102
{ACAD_REACTORS
330
1A
102
}
330
1A
100
AcDbPlotSettings
  1

  2
none_device
  4

  6

 40
0.0
 41
0.0
 42
0.0
 43
0.0
 44
0.0
 45
0.0
 46
0.0
 47
0.0
 48
0.0
 49
0.0
140
0.0
141
0.0
142
1.0
143
1.0
 70
   688
 72
     0
 73
     0
 74
     5
  7

 75
    16
147
1.0
148
0.0
149
0.0
100
AcDbLayout
  1
Layout2
 70
     1
 71
     2
 10
0.0
 20
0.0
 11
0.0
 21
0.0
 12
0.0
 22
0.0
 32
0.0
 14
0.0
 24
0.0
 34
0.0
 15
0.0
 25
0.0
 35
0.0
146
0.0
 13
0.0
 23
0.0
 33
0.0
 16
1.0
 26
0.0
 36
0.0
 17
0.0
 27
1.0
 37
0.0
 76
     0
330
23
  0
LAYOUT
  5
22
102
{ACAD_REACTORS
330
1A
102
}
330
1A
100
AcDbPlotSettings
  1

  2
none_device
  4

  6

 40
0.0
 41
0.0
 42
0.0
 43
0.0
 44
0.0
 45
0.0
 46
0.0
 47
0.0
 48
0.0
 49
0.0
140
0.0
141
0.0
142
1.0
143
1.0
 70
  1712
 72
     0
 73
     0
 74
     0
  7

 75
     0
147
1.0
148
0.0
149
0.0
100
AcDbLayout
  1
Model
 70
     1
 71
     0
 10
0.0
 20
0.0
 11
297.0
 21
210.0
 12
0.0
 22
0.0
 32
0.0
 14
0.0
 24
0.0
 34
0.0
 15
297.0
 25
210.0
 35
0.0
146
0.0
 13
0.0
 23
0.0
 33
0.0
 16
1.0
 26
0.0
 36
0.0
 17
0.0
 27
1.0
 37
0.0
 76
     0
330
1F
331
29
  0
MLINESTYLE
  5
18
102
{ACAD_REACTORS
330
17
102
}
330
17
100
AcDbMlineStyle
  2
Standard
 70
     0
  3

 62
   256
 51
90.0
 52
90.0
 71
     2
 49
0.5
 62
   256
  6
BYLAYER
 49
-0.5
 62
   256
  6
BYLAYER
  0
ACDBPLACEHOLDER
  5
F
102
{ACAD_REACTORS
330
E
102
}
330
E
  0
ENDSEC
  0
EOF
