  0
SECTION
  2
HEADER
  9
$ACADVER
  1
AC1015
  9
$ACADMAINTVER
 70
     6
  9
$DWGCODEPAGE
  3
ANSI_1252
  9
$INSBASE
 10
0.0
 20
0.0
 30
0.0
  9
$EXTMIN
 10
0.0
 20
0.0
 30
0.0
  9
$EXTMAX
 10
297.0
 20
210.0
 30
0.0
  9
$LIMMIN
 10
0.0
 20
0.0
  9
$LIMMAX
 10
297.0
 20
210.0
  9
$ORTHOMODE
 70
     0
  9
$REGENMODE
 70
     1
  9
$FILLMODE
 70
     1
  9
$QTEXTMODE
 70
     0
  9
$MIRRTEXT
 70
     1
  9
$LTSCALE
 40
1.0
  9
$ATTMODE
 70
     1
  9
$TEXTSIZE
 40
2.0
  9
$TRACEWID
 40
1.0
  9
$TEXTSTYLE
  7
Standard
  9
$CLAYER
  8
0
  9
$CELTYPE
  6
ByLayer
  9
$CECOLOR
 62
   256
  9
$CELTSCALE
 40
1.0
  9
$DISPSILH
 70
     0
  9
$DIMSCALE
 40
1.0
  9
$DIMASZ
 40
3.0
  9
$DIMEXO
 40
0.0
  9
$DIMDLI
 40
3.75
  9
$DIMRND
 40
0.0
  9
$DIMDLE
 40
0.0
  9
$DIMEXE
 40
1.0
  9
$DIMTP
 40
0.0
  9
$DIMTM
 40
0.0
  9
$DIMTXT
 40
2.0
  9
$DIMCEN
 40
2.5
  9
$DIMTSZ
 40
0.0
  9
$DIMTOL
 70
     0
  9
$DIMLIM
 70
     0
  9
$DIMTIH
 70
     1
  9
$DIMTOH
 70
     1
  9
$DIMSE1
 70
     0
  9
$DIMSE2
 70
     0
  9
$DIMTAD
 70
     1
  9
$DIMZIN
 70
     0
  9
$DIMBLK
  1

  9
$DIMASO
 70
     1
  9
$DIMSHO
 70
     1
  9
$DIMPOST
  1

  9
$DIMAPOST
  1

  9
$DIMALT
 70
     0
  9
$DIMALTD
 70
     3
  9
$DIMALTF
 40
0.0393700787
  9
$DIMLFAC
 40
1.0
  9
$DIMTOFL
 70
     1
  9
$DIMTVP
 40
0.0
  9
$DIMTIX
 70
     0
  9
$DIMSOXD
 70
     0
  9
$DIMSAH
 70
     0
  9
$DIMBLK1
  1

  9
$DIMBLK2
  1

  9
$DIMSTYLE
  2
ISO-25
  9
$DIMCLRD
 70
     0
  9
$DIMCLRE
 70
     0
  9
$DIMCLRT
 70
     0
  9
$DIMTFAC
 40
1.0
  9
$DIMGAP
 40
1.524
  9
$DIMJUST
 70
     0
  9
$DIMSD1
 70
     0
  9
$DIMSD2
 70
     0
  9
$DIMTOLJ
 70
     0
  9
$DIMTZIN
 70
     0
  9
$DIMALTZ
 70
     0
  9
$DIMALTTZ
 70
     0
  9
$DIMUPT
 70
     0
  9
$DIMDEC
 70
     2
  9
$DIMTDEC
 70
     3
  9
$DIMALTU
 70
     2
  9
$DIMALTTD
 70
     3
  9
$DIMTXSTY
  7
Standard
  9
$DIMAUNIT
 70
     0
  9
$DIMADEC
 70
     2
  9
$DIMALTRND
 40
0.0
  9
$DIMAZIN
 70
     0
  9
$DIMDSEP
 70
    44
  9
$DIMATFIT
 70
     3
  9
$DIMFRAC
 70
     0
  9
$DIMLDRBLK
  1

  9
$DIMLUNIT
 70
     2
  9
$DIMLWD
 70
    -2
  9
$DIMLWE
 70
    -2
  9
$DIMTMOVE
 70
     0
  9
$LUNITS
 70
     2
  9
$LUPREC
 70
     2
  9
$SKETCHINC
 40
1.0
  9
$FILLETRAD
 40
10.0
  9
$AUNITS
 70
     0
  9
$AUPREC
 70
     2
  9
$MENU
  1
.
  9
$ELEVATION
 40
0.0
  9
$PELEVATION
 40
0.0
  9
$THICKNESS
 40
0.0
  9
$LIMCHECK
 70
     0
  9
$CHAMFERA
 40
10.0
  9
$CHAMFERB
 40
10.0
  9
$CHAMFERC
 40
20.0
  9
$CHAMFERD
 40
0.0
  9
$SKPOLY
 70
     0
  9
$TDCREATE
 40
2456231.461572049
  9
$TDUCREATE
 40
2456231.419905382
  9
$TDUPDATE
 40
2456231.461572951
  9
$TDUUPDATE
 40
2456231.419906285
  9
$TDINDWG
 40
0.0000000116
  9
$TDUSRTIMER
 40
0.0000000116
  9
$USRTIMER
 70
     1
  9
$ANGBASE
 50
0.0
  9
$ANGDIR
 70
     0
  9
$PDMODE
 70
     0
  9
$PDSIZE
 40
-1.0
  9
$PLINEWID
 40
0.0
  9
$SPLFRAME
 70
     0
  9
$SPLINETYPE
 70
     6
  9
$SPLINESEGS
 70
     8
  9
$HANDSEED
  5
186
  9
$SURFTAB1
 70
     6
  9
$SURFTAB2
 70
     6
  9
$SURFTYPE
 70
     6
  9
$SURFU
 70
     6
  9
$SURFV
 70
     6
  9
$UCSBASE
  2

  9
$UCSNAME
  2

  9
$UCSORG
 10
0.0
 20
0.0
 30
0.0
  9
$UCSXDIR
 10
1.0
 20
0.0
 30
0.0
  9
$UCSYDIR
 10
0.0
 20
1.0
 30
0.0
  9
$UCSORTHOREF
  2

  9
$UCSORTHOVIEW
 70
     0
  9
$UCSORGTOP
 10
0.0
 20
0.0
 30
0.0
  9
$UCSORGBOTTOM
 10
0.0
 20
0.0
 30
0.0
  9
$UCSORGLEFT
 10
0.0
 20
0.0
 30
0.0
  9
$UCSORGRIGHT
 10
0.0
 20
0.0
 30
0.0
  9
$UCSORGFRONT
 10
0.0
 20
0.0
 30
0.0
  9
$UCSORGBACK
 10
0.0
 20
0.0
 30
0.0
  9
$PUCSBASE
  2

  9
$PUCSNAME
  2

  9
$PUCSORG
 10
0.0
 20
0.0
 30
0.0
  9
$PUCSXDIR
 10
1.0
 20
0.0
 30
0.0
  9
$PUCSYDIR
 10
0.0
 20
1.0
 30
0.0
  9
$PUCSORTHOREF
  2

  9
$PUCSORTHOVIEW
 70
     0
  9
$PUCSORGTOP
 10
0.0
 20
0.0
 30
0.0
  9
$PUCSORGBOTTOM
 10
0.0
 20
0.0
 30
0.0
  9
$PUCSORGLEFT
 10
0.0
 20
0.0
 30
0.0
  9
$PUCSORGRIGHT
 10
0.0
 20
0.0
 30
0.0
  9
$PUCSORGFRONT
 10
0.0
 20
0.0
 30
0.0
  9
$PUCSORGBACK
 10
0.0
 20
0.0
 30
0.0
  9
$USERI1
 70
     0
  9
$USERI2
 70
     0
  9
$USERI3
 70
     0
  9
$USERI4
 70
     0
  9
$USERI5
 70
     0
  9
$USERR1
 40
0.0
  9
$USERR2
 40
0.0
  9
$USERR3
 40
0.0
  9
$USERR4
 40
0.0
  9
$USERR5
 40
0.0
  9
$WORLDVIEW
 70
     1
  9
$SHADEDGE
 70
     3
  9
$SHADEDIF
 70
    70
  9
$TILEMODE
 70
     1
  9
$MAXACTVP
 70
    64
  9
$PINSBASE
 10
0.0
 20
0.0
 30
0.0
  9
$PLIMCHECK
 70
     0
  9
$PEXTMIN
 10
1.0000000000E+20
 20
1.0000000000E+20
 30
1.0000000000E+20
  9
$PEXTMAX
 10
-1.0000000000E+20
 20
-1.0000000000E+20
 30
-1.0000000000E+20
  9
$PLIMMIN
 10
0.0
 20
0.0
  9
$PLIMMAX
 10
420.0
 20
297.0
  9
$UNITMODE
 70
     0
  9
$VISRETAIN
 70
     1
  9
$PLINEGEN
 70
     0
  9
$PSLTSCALE
 70
     1
  9
$TREEDEPTH
 70
  3020
  9
$CMLSTYLE
  2
Standard
  9
$CMLJUST
 70
     0
  9
$CMLSCALE
 40
20.0
  9
$PROXYGRAPHICS
 70
     1
  9
$MEASUREMENT
 70
     1
  9
$CELWEIGHT
370
    -1
  9
$ENDCAPS
280
     0
  9
$JOINSTYLE
280
     0
  9
$LWDISPLAY
290
     1
  9
$INSUNITS
 70
     4
  9
$HYPERLINKBASE
  1

  9
$STYLESHEET
  1

  9
$XEDIT
290
     1
  9
$CEPSNTYPE
380
     0
  9
$PSTYLEMODE
290
     1
  9
$FINGERPRINTGUID
  2
{9427C66E-C890-489F-B425-3E20BB5447EB}
  9
$VERSIONGUID
  2
{FAEB1C32-E019-11D5-929B-00C0DF256EC4}
  9
$EXTNAMES
290
     1
  9
$PSVPSCALE
 40
0.0
  9
$OLESTARTUP
290
     0
  0
ENDSEC
  0
SECTION
  2
CLASSES
  0
CLASS
  1
ACDBDICTIONARYWDFLT
  2
AcDbDictionaryWithDefault
  3
ObjectDBX Classes
 90
        0
280
     0
281
     0
  0
CLASS
  1
VISUALSTYLE
  2
AcDbVisualStyle
  3
ObjectDBX Classes
 90
     4095
280
     0
281
     0
  0
CLASS
  1
MATERIAL
  2
AcDbMaterial
  3
ObjectDBX Classes
 90
     1153
280
     0
281
     0
  0
CLASS
  1
ACDBPLACEHOLDER
  2
AcDbPlaceHolder
  3
ObjectDBX Classes
 90
        0
280
     0
281
     0
  0
CLASS
  1
LAYOUT
  2
AcDbLayout
  3
ObjectDBX Classes
 90
        0
280
     0
281
     0
  0
ENDSEC
  0
SECTION
  2
TABLES
  0
TABLE
  2
VPORT
  5
8
330
0
100
AcDbSymbolTable
 70
     1
  0
VPORT
  5
29
330
8
100
AcDbSymbolTableRecord
100
AcDbViewportTableRecord
  2
*Active
 70
     0
 10
0.0
 20
0.0
 11
1.0
 21
1.0
 12
148.5
 22
105.0
 13
0.0
 23
0.0
 14
10.0
 24
10.0
 15
10.0
 25
10.0
 16
0.0
 26
0.0
 36
1.0
 17
0.0
 27
0.0
 37
0.0
 40
210.0
 41
1.4142857143
 42
50.0
 43
0.0
 44
0.0
 50
0.0
 51
0.0
 71
     0
 72
  2000
 73
     1
 74
     3
 75
     0
 76
     0
 77
     0
 78
     0
281
     0
 65
     1
110
0.0
120
0.0
130
0.0
111
1.0
121
0.0
131
0.0
112
0.0
122
1.0
132
0.0
 79
     0
146
0.0
  0
ENDTAB
  0
TABLE
  2
LTYPE
  5
5
330
0
100
AcDbSymbolTable
 70
     6
  0
LTYPE
  5
14
330
5
100
AcDbSymbolTableRecord
100
AcDbLinetypeTableRecord
  2
ByBlock
 70
     0
  3

 72
    65
 73
     0
 40
0.0
  0
LTYPE
  5
15
330
5
100
AcDbSymbolTableRecord
100
AcDbLinetypeTableRecord
  2
ByLayer
 70
     0
  3

 72
    65
 73
     0
 40
0.0
  0
LTYPE
  5
16
330
5
100
AcDbSymbolTableRecord
100
AcDbLinetypeTableRecord
  2
Continuous
 70
     0
  3
Solid line
 72
    65
 73
     0
 40
0.0
  0
LTYPE
  5
3F
330
5
100
AcDbSymbolTableRecord
100
AcDbLinetypeTableRecord
  2
HIDDEN
 70
     0
  3
Hidden __ __ __ __ __ __ __ __ __ __ __ __ __ __
 72
    65
 73
     2
 40
1.905
 49
1.27
 74
     0
 49
-0.635
 74
     0
  0
LTYPE
  5
40
330
5
100
AcDbSymbolTableRecord
100
AcDbLinetypeTableRecord
  2
PHANTOM
 70
     0
  3
Phantom ______  __  __  ______  __  __  ______
 72
    65
 73
     6
 40
12.7
 49
6.35
 74
     0
 49
-1.27
 74
     0
 49
1.27
 74
     0
 49
-1.27
 74
     0
 49
1.27
 74
     0
 49
-1.27
 74
     0
  0
LTYPE
  5
41
330
5
100
AcDbSymbolTableRecord
100
AcDbLinetypeTableRecord
  2
CENTER
 70
     0
  3
Center ____ _ ____ _ ____ _ ____ _ ____ _ ____
 72
    65
 73
     4
 40
10.16
 49
6.35
 74
     0
 49
-1.27
 74
     0
 49
1.27
 74
     0
 49
-1.27
 74
     0
  0
LTYPE
  5
42
330
5
100
AcDbSymbolTableRecord
100
AcDbLinetypeTableRecord
  2
CENTERX2
 70
     0
  3
Center (2x) ________  __  ________  __  _____
 72
    65
 73
     4
 40
20.32
 49
12.7
 74
     0
 49
-2.54
 74
     0
 49
2.54
 74
     0
 49
-2.54
 74
     0
  0
LTYPE
  5
43
330
5
100
AcDbSymbolTableRecord
100
AcDbLinetypeTableRecord
  2
DOT2
 70
     0
  3
Dot (.5x) ........................................
 72
    65
 73
     2
 40
0.635
 49
0.0
 74
     0
 49
-0.635
 74
     0
  0
ENDTAB
  0
TABLE
  2
LAYER
  5
2
330
0
100
AcDbSymbolTable
 70
     5
  0
LAYER
  5
10
330
2
100
AcDbSymbolTableRecord
100
AcDbLayerTableRecord
  2
0
 70
     0
 62
     7
  6
Continuous
370
    -3
390
F
  0
LAYER
  5
44
330
2
100
AcDbSymbolTableRecord
100
AcDbLayerTableRecord
  2
FORMAT
 70
     0
 62
     7
  6
Continuous
370
    -3
390
F
  0
LAYER
  5
45
330
2
100
AcDbSymbolTableRecord
100
AcDbLayerTableRecord
  2
VERMASSUNG
 70
     0
 62
     7
  6
Continuous
370
    -3
390
F
  0
LAYER
  5
46
330
2
100
AcDbSymbolTableRecord
100
AcDbLayerTableRecord
  2
KOPF_DÜNN
 70
     0
 62
     7
  6
Continuous
370
    -3
390
F
  0
LAYER
  5
47
330
2
100
AcDbSymbolTableRecord
100
AcDbLayerTableRecord
  2
KOPF_DICK
 70
     0
 62
     7
  6
Continuous
370
    15
390
F
  0
ENDTAB
  0
TABLE
  2
STYLE
  5
3
330
0
100
AcDbSymbolTable
 70
     3
  0
STYLE
  5
11
330
3
100
AcDbSymbolTableRecord
100
AcDbTextStyleTableRecord
  2
Standard
 70
     0
 40
0.0
 41
1.0
 50
0.0
 71
     0
 42
2.0
  3
txt
  4

  0
STYLE
  5
48
330
3
100
AcDbSymbolTableRecord
100
AcDbTextStyleTableRecord
  2
SLDTEXTSTYLE0
 70
     0
 40
0.0
 41
0.7
 50
0.0
 71
     0
 42
0.2
  3
TXT
  4

  0
STYLE
  5
4C
330
3
100
AcDbSymbolTableRecord
100
AcDbTextStyleTableRecord
  2
SLDTEXTSTYLE1
 70
     0
 40
0.0
 41
0.6473684211
 50
0.0
 71
     0
 42
0.2
  3
TXT
  4

  0
ENDTAB
  0
TABLE
  2
VIEW
  5
6
330
0
100
AcDbSymbolTable
 70
     0
  0
ENDTAB
  0
TABLE
  2
UCS
  5
7
330
0
100
AcDbSymbolTable
 70
     0
  0
ENDTAB
  0
TABLE
  2
APPID
  5
9
330
0
100
AcDbSymbolTable
 70
     1
  0
APPID
  5
12
330
9
100
AcDbSymbolTableRecord
100
AcDbRegAppTableRecord
  2
ACAD
 70
     0
  0
ENDTAB
  0
TABLE
  2
DIMSTYLE
  5
A
330
0
100
AcDbSymbolTable
 70
     2
100
AcDbDimStyleTable
  0
DIMSTYLE
105
27
330
A
100
AcDbSymbolTableRecord
100
AcDbDimStyleTableRecord
  2
ISO-25
 70
     0
 41
2.5
 42
0.625
 43
3.75
 44
1.25
 73
     0
 74
     0
 77
     1
 78
     8
140
2.5
141
2.5
143
0.0393700787
147
0.625
171
     3
172
     1
178
     0
271
     2
272
     2
274
     3
278
    44
283
     0
284
     8
340
11
  0
DIMSTYLE
105
144
102
{ACAD_REACTORS
330
143
330
14F
330
15A
330
164
330
16E
330
178
102
}
330
A
100
AcDbSymbolTableRecord
100
AcDbDimStyleTableRecord
  2
SLDDIMSTYLE0
 70
     0
 41
3.0
 44
0.0
 45
0.000000001
 73
     0
 74
     0
 77
     1
 78
    12
 79
     3
140
2.0
147
0.5
173
     1
178
     0
271
     2
272
     3
276
     2
284
    12
340
48
  0
ENDTAB
  0
TABLE
  2
BLOCK_RECORD
  5
1
330
0
100
AcDbSymbolTable
 70
     7
  0
BLOCK_RECORD
  5
1F
330
1
100
AcDbSymbolTableRecord
100
AcDbBlockTableRecord
  2
*Model_Space
340
22
  0
BLOCK_RECORD
  5
1B
330
1
100
AcDbSymbolTableRecord
100
AcDbBlockTableRecord
  2
*Paper_Space
340
1E
  0
BLOCK_RECORD
  5
23
330
1
100
AcDbSymbolTableRecord
100
AcDbBlockTableRecord
  2
*Paper_Space0
340
26
  0
BLOCK_RECORD
  5
145
330
1
100
AcDbSymbolTableRecord
100
AcDbBlockTableRecord
  2
_D
340
0
  0
BLOCK_RECORD
  5
150
330
1
100
AcDbSymbolTableRecord
100
AcDbBlockTableRecord
  2
_D_1
340
0
  0
BLOCK_RECORD
  5
15B
330
1
100
AcDbSymbolTableRecord
100
AcDbBlockTableRecord
  2
_D_2
340
0
  0
BLOCK_RECORD
  5
165
330
1
100
AcDbSymbolTableRecord
100
AcDbBlockTableRecord
  2
_D_3
340
0
  0
BLOCK_RECORD
  5
16F
330
1
100
AcDbSymbolTableRecord
100
AcDbBlockTableRecord
  2
_D_4
340
0
  0
BLOCK_RECORD
  5
179
330
1
100
AcDbSymbolTableRecord
100
AcDbBlockTableRecord
  2
_D_5
340
0
  0
ENDTAB
  0
ENDSEC
  0
SECTION
  2
BLOCKS
  0
BLOCK
  5
20
330
1F
100
AcDbEntity
  8
0
100
AcDbBlockBegin
  2
*Model_Space
 70
     0
 10
0.0
 20
0.0
 30
0.0
  3
*Model_Space
  1

  0
ENDBLK
  5
21
330
1F
100
AcDbEntity
  8
0
100
AcDbBlockEnd
  0
BLOCK
  5
1C
330
1B
100
AcDbEntity
 67
     1
  8
0
100
AcDbBlockBegin
  2
*Paper_Space
 70
     0
 10
0.0
 20
0.0
 30
0.0
  3
*Paper_Space
  1

  0
ENDBLK
  5
1D
330
1B
100
AcDbEntity
 67
     1
  8
0
100
AcDbBlockEnd
  0
BLOCK
  5
24
330
23
100
AcDbEntity
  8
0
100
AcDbBlockBegin
  2
*Paper_Space0
 70
     0
 10
0.0
 20
0.0
 30
0.0
  3
*Paper_Space0
  1

  0
ENDBLK
  5
25
330
23
100
AcDbEntity
  8
0
100
AcDbBlockEnd
  0
BLOCK
  5
146
330
145
100
AcDbEntity
  8
0
100
AcDbBlockBegin
  2
_D
 70
     0
 10
0.0
 20
0.0
 30
0.0
  3
_D
  1

  0
SOLID
  5
148
330
145
100
AcDbEntity
  8
VERMASSUNG
100
AcDbTrace
 10
240.1673889491
 20
121.8629469122
 30
0.0
 11
239.7173889491
 21
118.8629469122
 31
0.0
 12
240.6173889491
 22
118.8629469122
 32
0.0
 13
240.6173889491
 23
118.8629469122
 33
0.0
  0
SOLID
  5
149
330
145
100
AcDbEntity
  8
VERMASSUNG
100
AcDbTrace
 10
240.1673889491
 20
107.8629469122
 30
0.0
 11
240.6173889491
 21
110.8629469122
 31
0.0
 12
239.7173889491
 22
110.8629469122
 32
0.0
 13
239.7173889491
 23
110.8629469122
 33
0.0
  0
LINE
  5
14A
330
145
100
AcDbEntity
  8
VERMASSUNG
100
AcDbLine
 10
232.7036920078
 20
121.8629469122
 30
0.0
 11
241.1673889491
 21
121.8629469122
 31
0.0
  0
LINE
  5
14B
330
145
100
AcDbEntity
  8
VERMASSUNG
100
AcDbLine
 10
232.7036920078
 20
107.8629469122
 30
0.0
 11
241.1673889491
 21
107.8629469122
 31
0.0
  0
LINE
  5
14C
330
145
100
AcDbEntity
  8
VERMASSUNG
100
AcDbLine
 10
240.1673889491
 20
121.8629469122
 30
0.0
 11
240.1673889491
 21
107.8629469122
 31
0.0
  0
MTEXT
  5
14D
330
145
100
AcDbEntity
  8
VERMASSUNG
100
AcDbMText
 10
237.5892534695
 20
111.7595913447
 30
0.0
 40
2.0
 41
0.0
 71
     1
 72
     1
  1
%%c
  7
SLDTEXTSTYLE0
 11
-7.044195017643634E-15
 21
1.0
 31
0.0
 73
     1
 44
1.0
  0
MTEXT
  5
14E
330
145
100
AcDbEntity
  8
VERMASSUNG
100
AcDbMText
 10
237.589253586
 20
115.3667858162
 30
0.0
 40
2.0
 41
0.0
 71
     1
 72
     1
  1
14
  7
SLDTEXTSTYLE0
 11
-7.044195017643634E-15
 21
1.0
 31
0.0
 73
     1
 44
1.0
  0
ENDBLK
  5
147
330
145
100
AcDbEntity
  8
0
100
AcDbBlockEnd
  0
BLOCK
  5
151
330
150
100
AcDbEntity
  8
0
100
AcDbBlockBegin
  2
_D_1
 70
     0
 10
0.0
 20
0.0
 30
0.0
  3
_D_1
  1

  0
SOLID
  5
153
330
150
100
AcDbEntity
  8
VERMASSUNG
100
AcDbTrace
 10
246.1673889491
 20
137.3629469122
 30
0.0
 11
245.7173889491
 21
134.3629469122
 31
0.0
 12
246.6173889491
 22
134.3629469122
 32
0.0
 13
246.6173889491
 23
134.3629469122
 33
0.0
  0
SOLID
  5
154
330
150
100
AcDbEntity
  8
VERMASSUNG
100
AcDbTrace
 10
246.1673889491
 20
92.3629469122
 30
0.0
 11
246.6173889491
 21
95.3629469122
 31
0.0
 12
245.7173889491
 22
95.3629469122
 32
0.0
 13
245.7173889491
 23
95.3629469122
 33
0.0
  0
LINE
  5
155
330
150
100
AcDbEntity
  8
VERMASSUNG
100
AcDbLine
 10
219.0643970245
 20
137.3629469122
 30
0.0
 11
247.1673889491
 21
137.3629469122
 31
0.0
  0
LINE
  5
156
330
150
100
AcDbEntity
  8
VERMASSUNG
100
AcDbLine
 10
219.0643970245
 20
92.3629469122
 30
0.0
 11
247.1673889491
 21
92.3629469122
 31
0.0
  0
LINE
  5
157
330
150
100
AcDbEntity
  8
VERMASSUNG
100
AcDbLine
 10
246.1673889491
 20
137.3629469122
 30
0.0
 11
246.1673889491
 21
92.3629469122
 31
0.0
  0
MTEXT
  5
158
330
150
100
AcDbEntity
  8
VERMASSUNG
100
AcDbMText
 10
243.5892534695
 20
111.5595161857
 30
0.0
 40
2.0
 41
0.0
 71
     1
 72
     1
  1
%%c
  7
SLDTEXTSTYLE0
 11
-7.044195017643634E-15
 21
1.0
 31
0.0
 73
     1
 44
1.0
  0
MTEXT
  5
159
330
150
100
AcDbEntity
  8
VERMASSUNG
100
AcDbMText
 10
243.589253586
 20
115.1667106572
 30
0.0
 40
2.0
 41
0.0
 71
     1
 72
     1
  1
45
  7
SLDTEXTSTYLE0
 11
-7.044195017643634E-15
 21
1.0
 31
0.0
 73
     1
 44
1.0
  0
ENDBLK
  5
152
330
150
100
AcDbEntity
  8
0
100
AcDbBlockEnd
  0
BLOCK
  5
15C
330
15B
100
AcDbEntity
  8
0
100
AcDbBlockBegin
  2
_D_2
 70
     0
 10
0.0
 20
0.0
 30
0.0
  3
_D_2
  1

  0
SOLID
  5
15E
330
15B
100
AcDbEntity
  8
VERMASSUNG
100
AcDbTrace
 10
128.9536920078
 20
148.9367280607
 30
0.0
 11
131.9536920078
 21
148.4867280607
 31
0.0
 12
131.9536920078
 22
149.3867280607
 32
0.0
 13
131.9536920078
 23
149.3867280607
 33
0.0
  0
SOLID
  5
15F
330
15B
100
AcDbEntity
  8
VERMASSUNG
100
AcDbTrace
 10
233.0036920078
 20
148.9367280607
 30
0.0
 11
230.0036920078
 21
149.3867280607
 31
0.0
 12
230.0036920078
 22
148.4867280607
 32
0.0
 13
230.0036920078
 23
148.4867280607
 33
0.0
  0
LINE
  5
160
330
15B
100
AcDbEntity
  8
VERMASSUNG
100
AcDbLine
 10
128.9536920078
 20
144.709387236
 30
0.0
 11
128.9536920078
 21
149.9367280607
 31
0.0
  0
LINE
  5
161
330
15B
100
AcDbEntity
  8
VERMASSUNG
100
AcDbLine
 10
233.0036920078
 20
129.5888063906
 30
0.0
 11
233.0036920078
 21
149.9367280607
 31
0.0
  0
LINE
  5
162
330
15B
100
AcDbEntity
  8
VERMASSUNG
100
AcDbLine
 10
128.9536920078
 20
148.9367280607
 30
0.0
 11
233.0036920078
 21
148.9367280607
 31
0.0
  0
MTEXT
  5
163
330
15B
100
AcDbEntity
  8
VERMASSUNG
100
AcDbMText
 10
177.2794921713
 20
151.5148634238
 30
0.0
 40
2.0
 41
0.0
 71
     1
 72
     1
  1
104.05
  7
SLDTEXTSTYLE0
 73
     1
 44
1.0
  0
ENDBLK
  5
15D
330
15B
100
AcDbEntity
  8
0
100
AcDbBlockEnd
  0
BLOCK
  5
166
330
165
100
AcDbEntity
  8
0
100
AcDbBlockBegin
  2
_D_3
 70
     0
 10
0.0
 20
0.0
 30
0.0
  3
_D_3
  1

  0
SOLID
  5
168
330
165
100
AcDbEntity
  8
VERMASSUNG
100
AcDbTrace
 10
103.0036920078
 20
154.9367280607
 30
0.0
 11
106.0036920078
 21
154.4867280607
 31
0.0
 12
106.0036920078
 22
155.3867280607
 32
0.0
 13
106.0036920078
 23
155.3867280607
 33
0.0
  0
SOLID
  5
169
330
165
100
AcDbEntity
  8
VERMASSUNG
100
AcDbTrace
 10
233.0036920078
 20
154.9367280607
 30
0.0
 11
230.0036920078
 21
155.3867280607
 31
0.0
 12
230.0036920078
 22
154.4867280607
 32
0.0
 13
230.0036920078
 23
154.4867280607
 33
0.0
  0
LINE
  5
16A
330
165
100
AcDbEntity
  8
VERMASSUNG
100
AcDbLine
 10
103.0036920078
 20
146.0629469122
 30
0.0
 11
103.0036920078
 21
155.9367280607
 31
0.0
  0
LINE
  5
16B
330
165
100
AcDbEntity
  8
VERMASSUNG
100
AcDbLine
 10
233.0036920078
 20
129.5888063906
 30
0.0
 11
233.0036920078
 21
155.9367280607
 31
0.0
  0
LINE
  5
16C
330
165
100
AcDbEntity
  8
VERMASSUNG
100
AcDbLine
 10
103.0036920078
 20
154.9367280607
 30
0.0
 11
233.0036920078
 21
154.9367280607
 31
0.0
  0
MTEXT
  5
16D
330
165
100
AcDbEntity
  8
VERMASSUNG
100
AcDbMText
 10
166.1037081992
 20
157.5148634238
 30
0.0
 40
2.0
 41
0.0
 71
     1
 72
     1
  1
130
  7
SLDTEXTSTYLE0
 73
     1
 44
1.0
  0
ENDBLK
  5
167
330
165
100
AcDbEntity
  8
0
100
AcDbBlockEnd
  0
BLOCK
  5
170
330
16F
100
AcDbEntity
  8
0
100
AcDbBlockBegin
  2
_D_4
 70
     0
 10
0.0
 20
0.0
 30
0.0
  3
_D_4
  1

  0
SOLID
  5
172
330
16F
100
AcDbEntity
  8
VERMASSUNG
100
AcDbTrace
 10
71.1036920078
 20
160.9367280607
 30
0.0
 11
74.1036920078
 21
160.4867280607
 31
0.0
 12
74.1036920078
 22
161.3867280607
 32
0.0
 13
74.1036920078
 23
161.3867280607
 33
0.0
  0
SOLID
  5
173
330
16F
100
AcDbEntity
  8
VERMASSUNG
100
AcDbTrace
 10
233.0036920078
 20
160.9367280607
 30
0.0
 11
230.0036920078
 21
161.3867280607
 31
0.0
 12
230.0036920078
 22
160.4867280607
 32
0.0
 13
230.0036920078
 23
160.4867280607
 33
0.0
  0
LINE
  5
174
330
16F
100
AcDbEntity
  8
VERMASSUNG
100
AcDbLine
 10
71.1036920078
 20
134.5536246587
 30
0.0
 11
71.1036920078
 21
161.9367280607
 31
0.0
  0
LINE
  5
175
330
16F
100
AcDbEntity
  8
VERMASSUNG
100
AcDbLine
 10
233.0036920078
 20
129.5888063906
 30
0.0
 11
233.0036920078
 21
161.9367280607
 31
0.0
  0
LINE
  5
176
330
16F
100
AcDbEntity
  8
VERMASSUNG
100
AcDbLine
 10
71.1036920078
 20
160.9367280607
 30
0.0
 11
233.0036920078
 21
160.9367280607
 31
0.0
  0
MTEXT
  5
177
330
16F
100
AcDbEntity
  8
VERMASSUNG
100
AcDbMText
 10
149.354867966
 20
163.5148634238
 30
0.0
 40
2.0
 41
0.0
 71
     1
 72
     1
  1
161.9
  7
SLDTEXTSTYLE0
 73
     1
 44
1.0
  0
ENDBLK
  5
171
330
16F
100
AcDbEntity
  8
0
100
AcDbBlockEnd
  0
BLOCK
  5
17A
330
179
100
AcDbEntity
  8
0
100
AcDbBlockBegin
  2
_D_5
 70
     0
 10
0.0
 20
0.0
 30
0.0
  3
_D_5
  1

  0
SOLID
  5
17C
330
179
100
AcDbEntity
  8
VERMASSUNG
100
AcDbTrace
 10
65.8833152763
 20
146.3629469122
 30
0.0
 11
65.4333152763
 21
143.3629469122
 31
0.0
 12
66.3333152763
 22
143.3629469122
 32
0.0
 13
66.3333152763
 23
143.3629469122
 33
0.0
  0
SOLID
  5
17D
330
179
100
AcDbEntity
  8
VERMASSUNG
100
AcDbTrace
 10
65.8833152763
 20
83.3629469122
 30
0.0
 11
66.3333152763
 21
86.3629469122
 31
0.0
 12
65.4333152763
 22
86.3629469122
 32
0.0
 13
65.4333152763
 23
86.3629469122
 33
0.0
  0
LINE
  5
17E
330
179
100
AcDbEntity
  8
VERMASSUNG
100
AcDbLine
 10
103.3036920078
 20
146.3629469122
 30
0.0
 11
64.8833152763
 21
146.3629469122
 31
0.0
  0
LINE
  5
17F
330
179
100
AcDbEntity
  8
VERMASSUNG
100
AcDbLine
 10
103.3036920078
 20
83.3629469122
 30
0.0
 11
64.8833152763
 21
83.3629469122
 31
0.0
  0
LINE
  5
180
330
179
100
AcDbEntity
  8
VERMASSUNG
100
AcDbLine
 10
65.8833152763
 20
146.3629469122
 30
0.0
 11
65.8833152763
 21
83.3629469122
 31
0.0
  0
MTEXT
  5
181
330
179
100
AcDbEntity
  8
VERMASSUNG
100
AcDbMText
 10
63.1051797872
 20
107.1593230916
 30
0.0
 40
2.0
 41
0.0
 71
     1
 72
     1
  1
HSK A
  7
SLDTEXTSTYLE0
 11
-7.044195017643634E-15
 21
1.0
 31
0.0
 73
     1
 44
1.0
  0
MTEXT
  5
182
330
179
100
AcDbEntity
  8
VERMASSUNG
100
AcDbMText
 10
63.3051797967
 20
116.1593236355
 30
0.0
 40
2.0
 41
0.0
 71
     1
 72
     1
  1
%%c
  7
SLDTEXTSTYLE0
 11
-7.044195017643634E-15
 21
1.0
 31
0.0
 73
     1
 44
1.0
  0
MTEXT
  5
183
330
179
100
AcDbEntity
  8
VERMASSUNG
100
AcDbMText
 10
63.3051799131
 20
119.7684393129
 30
0.0
 40
2.0
 41
0.0
 71
     1
 72
     1
  1
63
  7
SLDTEXTSTYLE0
 11
-7.044195017643634E-15
 21
1.0
 31
0.0
 73
     1
 44
1.0
  0
ENDBLK
  5
17B
330
179
100
AcDbEntity
  8
0
100
AcDbBlockEnd
  0
ENDSEC
  0
SECTION
  2
ENTITIES
  0
MTEXT
  5
49
330
1F
100
AcDbEntity
  8
KOPF_DÜNN
100
AcDbMText
 10
13.8892156294
 20
23.8442973028
 30
0.0
 40
3.0
 41
0.0
 71
     1
 72
     1
  1
HA6.W14.K01.130
  7
SLDTEXTSTYLE0
 73
     1
 44
1.0
  0
MTEXT
  5
4A
330
1F
100
AcDbEntity
  8
VERMASSUNG
100
AcDbMText
 10
13.9329988022
 20
28.8834360957
 30
0.0
 40
3.0
 41
0.0
 71
     1
 72
     1
  1
Flächenspannfutter_End mill adapter Weldon ø14
  7
SLDTEXTSTYLE0
 73
     1
 44
1.0
  0
MTEXT
  5
4B
330
1F
100
AcDbEntity
  8
VERMASSUNG
100
AcDbMText
 10
98.8601118557
 20
13.8365368179
 30
0.0
 40
2.0
 41
0.0
 71
     1
 72
     1
  1
Datum: 20.04.2011
  7
SLDTEXTSTYLE0
 73
     1
 44
1.0
  0
MTEXT
  5
4D
330
1F
100
AcDbEntity
  8
VERMASSUNG
100
AcDbMText
 10
13.933048693
 20
18.0482802738
 30
0.0
 40
2.0
 41
0.0
 71
     1
 72
     1
  1
DIN 69 893 HSK A 63
  7
SLDTEXTSTYLE1
 73
     1
 44
1.0
  0
MTEXT
  5
4E
330
1F
100
AcDbEntity
  8
VERMASSUNG
100
AcDbMText
 10
13.9808475933
 20
13.9090973692
 30
0.0
 40
2.0
 41
0.0
 71
     1
 72
     1
  1
Gewicht: 1838g
  7
SLDTEXTSTYLE0
 73
     1
 44
1.0
  0
LINE
  5
4F
330
1F
100
AcDbEntity
  8
0
  6
Continuous
 62
     7
370
    15
100
AcDbLine
 10
103.3036920078
 20
83.3629469122
 30
0.0
 11
107.9536920078
 21
83.3629469122
 31
0.0
  0
LINE
  5
50
330
1F
100
AcDbEntity
  8
0
  6
Continuous
 62
     7
370
    15
100
AcDbLine
 10
107.9816803669
 20
146.3629469122
 30
0.0
 11
103.3036920078
 21
146.3629469122
 31
0.0
  0
ARC
  5
51
330
1F
100
AcDbEntity
  8
0
  6
Continuous
 62
     7
370
    15
100
AcDbCircle
 10
103.3036920078
 20
83.6629469122
 30
0.0
 40
0.3000000000000114
100
AcDbArc
 50
180.0
 51
270.0
  0
ARC
  5
52
330
1F
100
AcDbEntity
  8
0
  6
Continuous
 62
     7
370
    15
100
AcDbCircle
 10
103.3036920078
 20
146.0629469122
 30
0.0
 40
0.3000000000000114
100
AcDbArc
 50
90.0
 51
180.0
  0
ARC
  5
53
330
1F
100
AcDbEntity
  8
0
  6
Continuous
 62
     7
370
    15
100
AcDbCircle
 10
130.9536920078
 20
87.6842372276
 30
0.0
 40
2.000000000000001
100
AcDbArc
 50
102.2316336591
 51
157.0847599004
  0
ARC
  5
54
330
1F
100
AcDbEntity
  8
0
  6
Continuous
 62
     7
370
    15
100
AcDbCircle
 10
130.9536920078
 20
142.0416565969
 30
0.0
 40
1.999999999999987
100
AcDbArc
 50
202.8684727581
 51
257.7683663409
  0
ARC
  5
55
330
1F
100
AcDbEntity
  8
0
  6
Continuous
 62
     7
370
    15
100
AcDbCircle
 10
155.9536920078
 20
-27.6370530878
 30
0.0
 40
120.0
100
AcDbArc
 50
90.0
 51
102.2316336591
  0
ARC
  5
56
330
1F
100
AcDbEntity
  8
0
  6
Continuous
 62
     7
370
    15
100
AcDbCircle
 10
155.9536920078
 20
257.3629469122
 30
0.0
 40
120.0
100
AcDbArc
 50
257.7683663409
 51
270.0
  0
ARC
  5
57
330
1F
100
AcDbEntity
  8
0
  6
Continuous
 62
     7
370
    15
100
AcDbCircle
 10
102.5036852552
 20
90.2925092979
 30
0.0
 40
0.6000067526677242
100
AcDbArc
 50
33.5571153394
 51
90.0
  0
ARC
  5
58
330
1F
100
AcDbEntity
  8
0
  6
Continuous
 62
     7
370
    15
100
AcDbCircle
 10
102.5036852552
 20
139.4333845266
 30
0.0
 40
0.6000067526677164
100
AcDbArc
 50
270.0
 51
326.4428846606
  0
LINE
  5
59
330
1F
100
AcDbEntity
  8
0
  6
Continuous
 62
     7
370
    15
100
AcDbLine
 10
89.7732698254
 20
138.520731372
 30
0.0
 11
77.2036920078
 21
137.8909930044
 31
0.0
  0
LINE
  5
5A
330
1F
100
AcDbEntity
  8
0
  6
Continuous
 62
     7
370
    15
100
AcDbLine
 10
101.0036920078
 20
139.083377774
 30
0.0
 11
98.1850826503
 21
138.9421648803
 31
0.0
  0
LINE
  5
5B
330
1F
100
AcDbEntity
  8
0
  6
Continuous
 62
     7
370
    15
100
AcDbLine
 10
98.1853041255
 20
90.7837178482
 30
0.0
 11
101.0036920078
 21
90.6425160505
 31
0.0
  0
LINE
  5
5C
330
1F
100
AcDbEntity
  8
0
  6
Continuous
 62
     7
370
    15
100
AcDbLine
 10
81.2036920078
 20
91.6345000185
 30
0.0
 11
89.7739687771
 21
91.2051274348
 31
0.0
  0
LINE
  5
5D
330
1F
100
AcDbEntity
  8
0
  6
Continuous
 62
     7
370
    15
100
AcDbLine
 10
101.0036920078
 20
90.6425160505
 30
0.0
 11
101.8604047812
 21
90.8720715463
 31
0.0
  0
LINE
  5
5E
330
1F
100
AcDbEntity
  8
0
  6
Continuous
 62
     7
370
    15
100
AcDbLine
 10
101.8604047812
 20
138.8538222782
 30
0.0
 11
101.0036920078
 21
139.083377774
 31
0.0
  0
ARC
  5
5F
330
1F
100
AcDbEntity
  8
0
  6
Continuous
 62
     7
370
    15
100
AcDbCircle
 10
102.0156962083
 20
90.2925160505
 30
0.0
 40
0.6000000000000085
100
AcDbArc
 50
90.0
 51
105.0
  0
ARC
  5
60
330
1F
100
AcDbEntity
  8
0
  6
Continuous
 62
     7
370
    15
100
AcDbCircle
 10
102.0156962083
 20
139.433377774
 30
0.0
 40
0.5999999999999934
100
AcDbArc
 50
255.0
 51
270.0
  0
LINE
  5
61
330
1F
100
AcDbEntity
  8
0
  6
Continuous
 62
     7
370
    15
100
AcDbLine
 10
102.0156962083
 20
90.8925160505
 30
0.0
 11
102.5036852552
 21
90.8925160505
 31
0.0
  0
LINE
  5
62
330
1F
100
AcDbEntity
  8
0
  6
Continuous
 62
     7
370
    15
100
AcDbLine
 10
102.5036852552
 20
138.833377774
 30
0.0
 11
102.0156962083
 21
138.833377774
 31
0.0
  0
LINE
  5
63
330
1F
100
AcDbEntity
  8
0
  6
Continuous
 62
     7
370
    15
100
AcDbLine
 10
155.9536920078
 20
92.3629469122
 30
0.0
 11
219.0643970245
 21
92.3629469122
 31
0.0
  0
LINE
  5
64
330
1F
100
AcDbEntity
  8
0
  6
Continuous
 62
     7
370
    15
100
AcDbLine
 10
219.0643970245
 20
137.3629469122
 30
0.0
 11
155.9536920078
 21
137.3629469122
 31
0.0
  0
LINE
  5
65
330
1F
100
AcDbEntity
  8
0
  6
Continuous
 62
     7
370
    15
100
AcDbLine
 10
219.0643970245
 20
92.3629469122
 30
0.0
 11
231.8489285313
 21
98.3244718598
 31
0.0
  0
LINE
  5
66
330
1F
100
AcDbEntity
  8
0
  6
Continuous
 62
     7
370
    15
100
AcDbLine
 10
231.8489285313
 20
131.4014219647
 30
0.0
 11
219.0643970245
 21
137.3629469122
 31
0.0
  0
ARC
  5
67
330
1F
100
AcDbEntity
  8
0
  6
Continuous
 62
     7
370
    15
100
AcDbCircle
 10
231.0036920078
 20
100.1370874339
 30
0.0
 40
2.000000000000001
100
AcDbArc
 50
295.0
 51
0.0
  0
ARC
  5
68
330
1F
100
AcDbEntity
  8
0
  6
Continuous
 62
     7
370
    15
100
AcDbCircle
 10
231.0036920078
 20
129.5888063906
 30
0.0
 40
2.000000000000001
100
AcDbArc
 50
0.0
 51
65.0
  0
LINE
  5
69
330
1F
100
AcDbEntity
  8
0
  6
Continuous
 62
     7
370
    15
100
AcDbLine
 10
72.3870286478
 20
93.9929469122
 30
0.0
 11
79.8036920078
 21
93.9929469122
 31
0.0
  0
ARC
  5
6A
330
1F
100
AcDbEntity
  8
0
  6
Continuous
 62
     7
370
    15
100
AcDbCircle
 10
79.8036920078
 20
92.5929469122
 30
0.0
 40
1.399999999999997
100
AcDbArc
 50
42.2465410162
 51
90.0
  0
LINE
  5
6B
330
1F
100
AcDbEntity
  8
0
  6
Continuous
 62
     7
370
    15
100
AcDbLine
 10
71.104724502
 20
95.1419144181
 30
0.0
 11
72.244855466
 21
94.0017834541
 31
0.0
  0
LINE
  5
6C
330
1F
100
AcDbEntity
  8
0
  6
Continuous
 62
     7
370
    15
100
AcDbLine
 10
72.244855466
 20
135.7241103704
 30
0.0
 11
71.1135927812
 21
134.5928476856
 31
0.0
  0
ARC
  5
6D
330
1F
100
AcDbEntity
  8
0
  6
Continuous
 62
     7
370
    15
100
AcDbCircle
 10
75.8036920078
 20
137.1329469122
 30
0.0
 40
1.40000000000004
100
AcDbArc
 50
270.0
 51
301.7485287426
  0
LINE
  5
6E
330
1F
100
AcDbEntity
  8
0
  6
Continuous
 62
     7
370
    15
100
AcDbLine
 10
75.8036920078
 20
135.7329469122
 30
0.0
 11
72.3779577417
 21
135.7329469122
 31
0.0
  0
LINE
  5
6F
330
1F
100
AcDbEntity
  8
0
  6
Continuous
 62
     7
370
    15
100
AcDbLine
 10
209.4509390774
 20
117.9595512358
 30
0.0
 11
207.5455775329
 21
115.0665255904
 31
0.0
  0
LINE
  5
70
330
1F
100
AcDbEntity
  8
0
  6
Continuous
 62
     7
370
    15
100
AcDbLine
 10
212.9090535523
 20
117.7559725576
 30
0.0
 11
214.4618064828
 21
114.6593682341
 31
0.0
  0
LINE
  5
71
330
1F
100
AcDbEntity
  8
0
  6
Continuous
 62
     7
370
    15
100
AcDbLine
 10
212.9090535523
 20
117.7559725576
 30
0.0
 11
209.4509390774
 21
117.9595512358
 31
0.0
  0
CIRCLE
  5
72
330
1F
100
AcDbEntity
  8
0
  6
Continuous
 62
     7
370
    15
100
AcDbCircle
 10
211.0036920078
 20
114.8629469122
 30
0.0
 40
5.100000000000007
  0
LINE
  5
73
330
1F
100
AcDbEntity
  8
0
  6
Continuous
 62
     7
370
    15
100
AcDbLine
 10
212.5564449383
 20
111.7663425887
 30
0.0
 11
214.4618064828
 21
114.6593682341
 31
0.0
  0
LINE
  5
74
330
1F
100
AcDbEntity
  8
0
  6
Continuous
 62
     7
370
    15
100
AcDbLine
 10
209.0983304634
 20
111.9699212668
 30
0.0
 11
207.5455775329
 21
115.0665255904
 31
0.0
  0
LINE
  5
75
330
1F
100
AcDbEntity
  8
0
  6
Continuous
 62
     7
370
    15
100
AcDbLine
 10
212.5564449383
 20
111.7663425887
 30
0.0
 11
209.0983304634
 21
111.9699212668
 31
0.0
  0
LINE
  5
76
330
1F
100
AcDbEntity
  8
0
  6
Continuous
 62
     7
370
    15
100
AcDbLine
 10
107.9536920078
 20
134.7129469122
 30
0.0
 11
117.6117591764
 21
134.7129469122
 31
0.0
  0
LINE
  5
77
330
1F
100
AcDbEntity
  8
0
  6
Continuous
 62
     7
370
    15
100
AcDbLine
 10
117.6117591764
 20
84.676029216
 30
0.0
 11
117.6117591764
 21
134.7129469122
 31
0.0
  0
LINE
  5
78
330
1F
100
AcDbEntity
  8
0
  6
Continuous
 62
     7
370
    15
100
AcDbLine
 10
117.6117591764
 20
84.676029216
 30
0.0
 11
115.9536920078
 21
84.676029216
 31
0.0
  0
SPLINE
  5
79
330
1F
100
AcDbEntity
  8
0
  6
Continuous
 62
     7
370
    15
100
AcDbSpline
210
0.0
220
0.0
230
1.0
 70
     8
 71
     3
 72
    28
 73
    24
 74
     0
 42
0.00000001
 43
0.00000001
 12
1.0
 22
0.0
 32
0.0
 13
1.0
 23
0.0
 33
0.0
 40
0.0
 40
0.0
 40
0.0
 40
0.0
 40
0.1250000000000001
 40
0.1250000000000001
 40
0.1875000000000001
 40
0.1875000000000001
 40
0.2500000000000001
 40
0.2500000000000001
 40
0.3749999999999999
 40
0.3749999999999999
 40
0.4375
 40
0.4375
 40
0.4999999999999999
 40
0.4999999999999999
 40
0.6249999999999999
 40
0.6249999999999999
 40
0.7499999999999997
 40
0.7499999999999997
 40
0.8124999999999998
 40
0.8124999999999998
 40
0.8749999999999998
 40
0.8749999999999998
 40
1.0
 40
1.0
 40
1.0
 40
1.0
 10
115.9536920078446
 20
84.67602921599554
 30
0.0
 10
115.4219842503516
 20
84.67602921599554
 30
0.0
 10
114.8997456850413
 20
84.66024450204533
 30
0.0
 10
114.1298751987663
 20
84.61524908796913
 30
0.0
 10
113.875515626575
 20
84.59669409289339
 30
0.0
 10
113.3713940458765
 20
84.55284137044688
 30
0.0
 10
113.1216712284485
 20
84.5274967634947
 30
0.0
 10
112.3960812770021
 20
84.4440946857446
 30
0.0
 10
111.9377210154206
 20
84.37822912659351
 30
0.0
 10
111.2872230720267
 20
84.26925878610172
 30
0.0
 10
111.0755410212342
 20
84.23101915033507
 30
0.0
 10
110.6714695320963
 20
84.15326041291571
 30
0.0
 10
110.4789630182754
 20
84.11375945074035
 30
0.0
 10
109.9291280472541
 20
83.99485170837436
 30
0.0
 10
109.5991992689453
 20
83.91503402694974
 30
0.0
 10
109.0147280003766
 20
83.76169086515368
 30
0.0
 10
108.7684508623632
 20
83.69035711188444
 30
0.0
 10
108.4686080696651
 20
83.59641360480981
 30
0.0
 10
108.3801512125929
 20
83.56721981144987
 30
0.0
 10
108.2267898592878
 20
83.51375323718646
 30
0.0
 10
108.1617016450616
 20
83.48939390291129
 30
0.0
 10
108.0061076291208
 20
83.42580375746655
 30
0.0
 10
107.9536920078446
 20
83.3957008223773
 30
0.0
 10
107.9536920078446
 20
83.37882392938037
 30
0.0
  0
LINE
  5
7A
330
1F
100
AcDbEntity
  8
0
  6
Continuous
 62
     7
370
    15
100
AcDbLine
 10
107.9536920078
 20
83.3788239294
 30
0.0
 11
107.9536920078
 21
83.3629469122
 31
0.0
  0
SPLINE
  5
7B
330
1F
100
AcDbEntity
  8
0
  6
Continuous
 62
     7
370
    15
100
AcDbSpline
210
0.0
220
0.0
230
1.0
 70
     8
 71
     3
 72
    17
 73
    13
 74
     0
 42
0.00000001
 43
0.00000001
 12
1.0
 22
0.0
 32
0.0
 13
1.0
 23
0.0
 33
0.0
 40
0.0
 40
0.0
 40
0.0
 40
0.0
 40
0.1034796923964056
 40
0.210023918880785
 40
0.3134862136955583
 40
0.4198361274354882
 40
0.5254127712915682
 40
0.633961069541979
 40
0.7409508756305031
 40
0.8511696089308174
 40
0.9558996534551937
 40
1.0
 40
1.0
 40
1.0
 40
1.0
 10
115.9536920078446
 20
145.330142385407
 30
0.0
 10
115.5184436587345
 20
145.3355905819403
 30
0.0
 10
114.6350571521696
 20
145.3466483224521
 30
0.0
 10
113.3542295669409
 20
145.4330067153537
 30
0.0
 10
112.1368130310669
 20
145.5608768918914
 30
0.0
 10
111.0290071788203
 20
145.7198221904846
 30
0.0
 10
110.0407683748721
 20
145.8943158782002
 30
0.0
 10
109.2160448173406
 20
146.06348172884
 30
0.0
 10
108.5670913166813
 20
146.2113655113684
 30
0.0
 10
108.1500565012195
 20
146.3131560955992
 30
0.0
 10
107.951459788255
 20
146.3635076182024
 30
0.0
 10
107.9747725096883
 20
146.35760193398
 30
0.0
 10
107.9816803669258
 20
146.3558520042854
 30
0.0
  0
LINE
  5
7C
330
1F
100
AcDbEntity
  8
0
  6
Continuous
 62
     7
370
    15
100
AcDbLine
 10
117.6117591764
 20
145.3301423854
 30
0.0
 11
115.9536920078
 21
145.3301423854
 31
0.0
  0
LINE
  5
7D
330
1F
100
AcDbEntity
  8
0
  6
Continuous
 62
     7
370
    15
100
AcDbLine
 10
117.6117591764
 20
139.3216365746
 30
0.0
 11
117.6117591764
 21
145.3301423854
 31
0.0
  0
LINE
  5
7E
330
1F
100
AcDbEntity
  8
0
  6
Continuous
 62
     7
370
    15
100
AcDbLine
 10
115.1993123535
 20
139.3216365746
 30
0.0
 11
117.6117591764
 21
139.3216365746
 31
0.0
  0
SPLINE
  5
7F
330
1F
100
AcDbEntity
  8
0
  6
Continuous
 62
     7
370
    15
100
AcDbSpline
210
0.0
220
0.0
230
1.0
 70
     8
 71
     3
 72
    20
 73
    16
 74
     0
 42
0.00000001
 43
0.00000001
 12
1.0
 22
0.0
 32
0.0
 13
1.0
 23
0.0
 33
0.0
 40
0.0
 40
0.0
 40
0.0
 40
0.0
 40
0.2499999999999997
 40
0.2499999999999997
 40
0.3749999999999997
 40
0.3749999999999997
 40
0.4999999999999998
 40
0.4999999999999998
 40
0.6249999999999998
 40
0.6249999999999998
 40
0.7499999999999999
 40
0.7499999999999999
 40
0.8749999999999999
 40
0.8749999999999999
 40
1.0
 40
1.0
 40
1.0
 40
1.0
 10
107.9536920078446
 20
134.7129469122427
 30
0.0
 10
108.2020657421326
 20
135.3668093405401
 30
0.0
 10
108.5216358344779
 20
135.9705951225372
 30
0.0
 10
109.1439420676826
 20
136.7974338587059
 30
0.0
 10
109.3753663281133
 20
137.0598624966588
 30
0.0
 10
109.8965806677631
 20
137.5565251507637
 30
0.0
 10
110.1832011503981
 20
137.7871120297853
 30
0.0
 10
110.8026858917057
 20
138.2036662543679
 30
0.0
 10
111.1369862711927
 20
138.3911640563354
 30
0.0
 10
111.8622467438175
 20
138.7225610339718
 30
0.0
 10
112.244161801208
 20
138.8620650214671
 30
0.0
 10
113.0389499773796
 20
139.0875185289381
 30
0.0
 10
113.453108171586
 20
139.1741446404817
 30
0.0
 10
114.3186545121674
 20
139.2921254293358
 30
0.0
 10
114.7565421271792
 20
139.3216365746102
 30
0.0
 10
115.1993123535339
 20
139.3216365746102
 30
0.0
  0
SPLINE
  5
80
330
1F
100
AcDbEntity
  8
0
  6
Continuous
 62
     7
370
    15
100
AcDbSpline
210
0.0
220
0.0
230
1.0
 70
     8
 71
     3
 72
    70
 73
    66
 74
     0
 42
0.00000001
 43
0.00000001
 12
1.0
 22
0.0
 32
0.0
 13
1.0
 23
0.0
 33
0.0
 40
-0.0312500000000001
 40
-0.0312500000000001
 40
0.0
 40
0.0
 40
0.0312499999999999
 40
0.0312499999999999
 40
0.0624999999999998
 40
0.0624999999999998
 40
0.0937499999999997
 40
0.0937499999999997
 40
0.1249999999999996
 40
0.1249999999999996
 40
0.1562499999999994
 40
0.1562499999999994
 40
0.1874999999999993
 40
0.1874999999999993
 40
0.2187499999999992
 40
0.2187499999999992
 40
0.2499999999999991
 40
0.2499999999999991
 40
0.281249999999999
 40
0.281249999999999
 40
0.3124999999999989
 40
0.3124999999999989
 40
0.3437499999999988
 40
0.3437499999999988
 40
0.3749999999999987
 40
0.3749999999999987
 40
0.4062499999999986
 40
0.4062499999999986
 40
0.4374999999999984
 40
0.4374999999999984
 40
0.4687499999999983
 40
0.4687499999999983
 40
0.4999999999999982
 40
0.4999999999999982
 40
0.5312499999999983
 40
0.5312499999999983
 40
0.5624999999999984
 40
0.5624999999999984
 40
0.5937499999999986
 40
0.5937499999999986
 40
0.6249999999999987
 40
0.6249999999999987
 40
0.6562499999999988
 40
0.6562499999999988
 40
0.6874999999999989
 40
0.6874999999999989
 40
0.718749999999999
 40
0.718749999999999
 40
0.7499999999999991
 40
0.7499999999999991
 40
0.7812499999999992
 40
0.7812499999999992
 40
0.8124999999999993
 40
0.8124999999999993
 40
0.8437499999999994
 40
0.8437499999999994
 40
0.8749999999999996
 40
0.8749999999999996
 40
0.9062499999999997
 40
0.9062499999999997
 40
0.9374999999999998
 40
0.9374999999999998
 40
0.9687499999999999
 40
0.9687499999999999
 40
1.0
 40
1.0
 40
1.03125
 40
1.03125
 10
111.2682373465047
 20
125.4838537982261
 30
0.0
 10
110.7391466691844
 20
125.4838537982261
 30
0.0
 10
110.4790760018073
 20
125.5085310930112
 30
0.0
 10
109.9675013219719
 20
125.6050027660532
 30
0.0
 10
109.7133260382317
 20
125.6779836820332
 30
0.0
 10
109.22905540817
 20
125.8677242849718
 30
0.0
 10
108.9994143162889
 20
125.9835849433656
 30
0.0
 10
108.5648099680554
 20
126.2562027893233
 30
0.0
 10
108.3592441914088
 20
126.414241871377
 30
0.0
 10
107.9906870508135
 20
126.7577847223477
 30
0.0
 10
107.825206068078
 20
126.9445471664494
 30
0.0
 10
107.5327815586429
 20
127.3480903408462
 30
0.0
 10
107.4086805820164
 20
127.5615873372754
 30
0.0
 10
107.2091013852667
 20
128.0009706511978
 30
0.0
 10
107.1321677994084
 20
128.2301106383435
 30
0.0
 10
107.0293107408881
 20
128.6960847611035
 30
0.0
 10
107.0038378314289
 20
128.9289672067796
 30
0.0
 10
107.0035474208612
 20
129.3943647418594
 30
0.0
 10
107.0295720546369
 20
129.6292404992538
 30
0.0
 10
107.1317203391289
 20
130.0807336465001
 30
0.0
 10
107.2072967867121
 20
130.2987801219114
 30
0.0
 10
107.407794317857
 20
130.7198746469492
 30
0.0
 10
107.5329231593654
 20
130.9217960314676
 30
0.0
 10
107.822281960387
 20
131.2938255139865
 30
0.0
 10
107.9876929474424
 20
131.4664538175668
 30
0.0
 10
108.3606835055903
 20
131.7837718221128
 30
0.0
 10
108.5624165386794
 20
131.9235587556145
 30
0.0
 10
108.9952757895072
 20
132.1677350091663
 30
0.0
 10
109.2291943223966
 20
132.2729645202078
 30
0.0
 10
109.7133780575392
 20
132.4411216665829
 30
0.0
 10
109.9626936834947
 20
132.5043725571768
 30
0.0
 10
110.4757262079225
 20
132.5899517662794
 30
0.0
 10
110.7410200308271
 20
132.6118239312017
 30
0.0
 10
111.2633546506968
 20
132.6119875808457
 30
0.0
 10
111.5231083131786
 20
132.5909858887497
 30
0.0
 10
112.0397201288238
 20
132.505583533672
 30
0.0
 10
112.2920861693241
 20
132.4415773503851
 30
0.0
 10
112.7736112908569
 20
132.2747628303439
 30
0.0
 10
113.0064620229705
 20
132.1706296669448
 30
0.0
 10
113.4435518714093
 20
131.9246430144498
 30
0.0
 10
113.6448728600664
 20
131.7848931835009
 30
0.0
 10
114.0139588853663
 20
131.4717551137763
 30
0.0
 10
114.182943636418
 20
131.2962989545062
 30
0.0
 10
114.4733996930772
 20
130.923458690406
 30
0.0
 10
114.5964715044394
 20
130.7253368802951
 30
0.0
 10
114.7978077458614
 20
130.3046255375614
 30
0.0
 10
114.8750202918036
 20
130.0826355168939
 30
0.0
 10
114.9772238347037
 20
129.6327705771855
 30
0.0
 10
115.003452186156
 20
129.4025151640687
 30
0.0
 10
115.0039285854731
 20
128.9311992215197
 30
0.0
 10
114.9781861729751
 20
128.6979618058056
 30
0.0
 10
114.8768753966113
 20
128.2362852663075
 30
0.0
 10
114.8000427572203
 20
128.0053878791954
 30
0.0
 10
114.5996389180052
 20
127.5631118654037
 30
0.0
 10
114.4769674197131
 20
127.3520494341178
 30
0.0
 10
114.1870201305489
 20
126.9505509233851
 30
0.0
 10
114.0184491511837
 20
126.7596444013092
 30
0.0
 10
113.6501795570705
 20
126.4159190693121
 30
0.0
 10
113.4491176998002
 20
126.260781883098
 30
0.0
 10
113.0120867812152
 20
125.9857045230183
 30
0.0
 10
112.7799385680856
 20
125.8685882935963
 30
0.0
 10
112.2989282865868
 20
125.6796618085318
 30
0.0
 10
112.0468282037564
 20
125.6065868381375
 30
0.0
 10
111.5297587174973
 20
125.508534779003
 30
0.0
 10
111.2682373465047
 20
125.4838537982261
 30
0.0
 10
110.7391466691844
 20
125.4838537982261
 30
0.0
  0
SPLINE
  5
81
330
1F
100
AcDbEntity
  8
0
  6
Continuous
 62
     7
370
    15
100
AcDbSpline
210
0.0
220
0.0
230
1.0
 70
     8
 71
     3
 72
    70
 73
    66
 74
     0
 42
0.00000001
 43
0.00000001
 12
1.0
 22
0.0
 32
0.0
 13
1.0
 23
0.0
 33
0.0
 40
-0.0312499999999999
 40
-0.0312499999999999
 40
0.0
 40
0.0
 40
0.0312499999999999
 40
0.0312499999999999
 40
0.0624999999999998
 40
0.0624999999999998
 40
0.0937499999999997
 40
0.0937499999999997
 40
0.1249999999999996
 40
0.1249999999999996
 40
0.1562499999999995
 40
0.1562499999999995
 40
0.1874999999999994
 40
0.1874999999999994
 40
0.2187499999999993
 40
0.2187499999999993
 40
0.2499999999999992
 40
0.2499999999999992
 40
0.2812499999999993
 40
0.2812499999999993
 40
0.3124999999999993
 40
0.3124999999999993
 40
0.3437499999999994
 40
0.3437499999999994
 40
0.3749999999999995
 40
0.3749999999999995
 40
0.4062499999999996
 40
0.4062499999999996
 40
0.4374999999999996
 40
0.4374999999999996
 40
0.4687499999999997
 40
0.4687499999999997
 40
0.4999999999999998
 40
0.4999999999999998
 40
0.5312499999999999
 40
0.5312499999999999
 40
0.5625
 40
0.5625
 40
0.5937500000000001
 40
0.5937500000000001
 40
0.6250000000000002
 40
0.6250000000000002
 40
0.6562500000000004
 40
0.6562500000000004
 40
0.6875000000000006
 40
0.6875000000000006
 40
0.7187500000000007
 40
0.7187500000000007
 40
0.7500000000000008
 40
0.7500000000000008
 40
0.7812500000000007
 40
0.7812500000000007
 40
0.8125000000000006
 40
0.8125000000000006
 40
0.8437500000000004
 40
0.8437500000000004
 40
0.8750000000000003
 40
0.8750000000000003
 40
0.9062500000000003
 40
0.9062500000000003
 40
0.9375000000000002
 40
0.9375000000000002
 40
0.9687500000000001
 40
0.9687500000000001
 40
1.0
 40
1.0
 40
1.03125
 40
1.03125
 10
111.2682373465047
 20
139.9219103070219
 30
0.0
 10
110.7391466691844
 20
139.9219103070219
 30
0.0
 10
110.4790760018073
 20
139.9378107474367
 30
0.0
 10
109.9675013219719
 20
139.9997550976109
 30
0.0
 10
109.7133260382317
 20
140.0465573317022
 30
0.0
 10
109.22905540817
 20
140.1675343151573
 30
0.0
 10
108.9994143162889
 20
140.2411366429641
 30
0.0
 10
108.5648099680554
 20
140.4129609139423
 30
0.0
 10
108.3592441914088
 20
140.5119643368697
 30
0.0
 10
107.9906870508135
 20
140.7250607507825
 30
0.0
 10
107.825206068078
 20
140.8399604669122
 30
0.0
 10
107.5327815586429
 20
141.0853273656025
 30
0.0
 10
107.4086805820164
 20
141.2137672660728
 30
0.0
 10
107.2091013852667
 20
141.4746594141587
 30
0.0
 10
107.1321677994084
 20
141.6090405854982
 30
0.0
 10
107.0293107408881
 20
141.8783605366045
 30
0.0
 10
107.0038378314289
 20
142.0110418008226
 30
0.0
 10
107.0035474208612
 20
142.2722282749536
 30
0.0
 10
107.0295720546369
 20
142.4019933131184
 30
0.0
 10
107.1317203391289
 20
142.647575947391
 30
0.0
 10
107.2072967867121
 20
142.7642374846999
 30
0.0
 10
107.407794317857
 20
142.9861426748544
 30
0.0
 10
107.5329231593654
 20
143.0907539287774
 30
0.0
 10
107.822281960387
 20
143.2808003403855
 30
0.0
 10
107.9876929474424
 20
143.3675600118352
 30
0.0
 10
108.3606835055903
 20
143.5250643875868
 30
0.0
 10
108.5624165386794
 20
143.593389652374
 30
0.0
 10
108.9952757895072
 20
143.7116193759932
 30
0.0
 10
109.2291943223966
 20
143.761914292097
 30
0.0
 10
109.7133780575392
 20
143.8417798289866
 30
0.0
 10
109.9626936834947
 20
143.8715209567863
 30
0.0
 10
110.4757262079224
 20
143.9116736982945
 30
0.0
 10
110.7410200308271
 20
143.9218719677043
 30
0.0
 10
111.2633546506968
 20
143.921948426089
 30
0.0
 10
111.5231083131786
 20
143.91215741448
 30
0.0
 10
112.0397201288238
 20
143.8720905757413
 30
0.0
 10
112.2920861693241
 20
143.8419934088844
 30
0.0
 10
112.7736112908569
 20
143.7627711990542
 30
0.0
 10
113.0064620229705
 20
143.7130137195909
 30
0.0
 10
113.4435518714093
 20
143.5939217771405
 30
0.0
 10
113.6448728600664
 20
143.5256065155932
 30
0.0
 10
114.0139588853663
 20
143.3702055486596
 30
0.0
 10
114.182943636418
 20
143.2820532065927
 30
0.0
 10
114.4733996930772
 20
143.0916138174764
 30
0.0
 10
114.5964715044394
 20
142.9889892397773
 30
0.0
 10
114.7978077458614
 20
142.7673488931692
 30
0.0
 10
114.8750202918036
 20
142.6485948176217
 30
0.0
 10
114.9772238347037
 20
142.403928878704
 30
0.0
 10
115.003452186156
 20
142.2767721532555
 30
0.0
 10
115.0039285854731
 20
142.0123240073999
 30
0.0
 10
114.9781861729751
 20
141.8794233271428
 30
0.0
 10
114.8768753966113
 20
141.6126310536607
 30
0.0
 10
114.8000427572203
 20
141.4772671521921
 30
0.0
 10
114.5996389180052
 20
141.2146873568896
 30
0.0
 10
114.4769674197131
 20
141.0877121971358
 30
0.0
 10
114.1870201305489
 20
140.8436328110534
 30
0.0
 10
114.0184491511836
 20
140.7262076862996
 30
0.0
 10
113.6501795570705
 20
140.5130112253511
 30
0.0
 10
113.4491176998002
 20
140.4158371069262
 30
0.0
 10
113.0120867812152
 20
140.2424822197121
 30
0.0
 10
112.7799385680856
 20
140.1680826680553
 30
0.0
 10
112.2989282865868
 20
140.0476297885507
 30
0.0
 10
112.0468282037564
 20
140.0007714132847
 30
0.0
 10
111.5297587174973
 20
139.937813916301
 30
0.0
 10
111.2682373465047
 20
139.9219103070219
 30
0.0
 10
110.7391466691844
 20
139.9219103070219
 30
0.0
  0
LINE
  5
82
330
1F
100
AcDbEntity
  8
0
  6
Continuous
 62
     7
370
    15
100
AcDbLine
 10
128.3536920078
 20
84.676029216
 30
0.0
 11
124.3956248393
 21
84.676029216
 31
0.0
  0
LINE
  5
83
330
1F
100
AcDbEntity
  8
0
  6
Continuous
 62
     7
370
    15
100
AcDbLine
 10
124.3956248393
 20
84.676029216
 30
0.0
 11
124.3956248393
 21
134.7129469122
 31
0.0
  0
LINE
  5
84
330
1F
100
AcDbEntity
  8
0
  6
Continuous
 62
     7
370
    15
100
AcDbLine
 10
124.3956248393
 20
134.7129469122
 30
0.0
 11
128.3536920078
 21
134.7129469122
 31
0.0
  0
SPLINE
  5
85
330
1F
100
AcDbEntity
  8
0
  6
Continuous
 62
     7
370
    15
100
AcDbSpline
210
0.0
220
0.0
230
1.0
 70
     8
 71
     3
 72
     8
 73
     4
 74
     0
 42
0.00000001
 43
0.00000001
 12
1.0
 22
0.0
 32
0.0
 13
1.0
 23
0.0
 33
0.0
 40
0.0
 40
0.0
 40
0.0
 40
0.0
 40
1.0
 40
1.0
 40
1.0
 40
1.0
 10
124.3956248393336
 20
84.67602921599554
 30
0.0
 10
123.9001451786679
 20
85.5715553039289
 30
0.0
 10
123.4060311306258
 20
86.46783971898115
 30
0.0
 10
122.9136920078446
 20
87.36510975318785
 30
0.0
  0
LINE
  5
86
330
1F
100
AcDbEntity
  8
0
  6
Continuous
 62
     7
370
    15
100
AcDbLine
 10
122.9136920078
 20
87.3651097532
 30
0.0
 11
122.9136920078
 21
134.7129469122
 31
0.0
  0
SPLINE
  5
87
330
1F
100
AcDbEntity
  8
0
  6
Continuous
 62
     7
370
    15
100
AcDbSpline
210
0.0
220
0.0
230
1.0
 70
    24
 71
     3
 72
     8
 73
     4
 74
     0
 42
0.00000001
 43
0.00000001
 12
1.0
 22
0.0
 32
0.0
 13
1.0
 23
0.0
 33
0.0
 40
0.0
 40
0.0
 40
0.0
 40
0.0
 40
1.0
 40
1.0
 40
1.0
 40
1.0
 10
122.9136920078446
 20
134.7129469122427
 30
0.0
 10
123.3936440022095
 20
134.7129469122427
 30
0.0
 10
123.8889447311831
 20
134.7129469122427
 30
0.0
 10
124.3956248393336
 20
134.7129469122427
 30
0.0
  0
LINE
  5
88
330
1F
100
AcDbEntity
  8
0
  6
Continuous
 62
     7
370
    15
100
AcDbLine
 10
103.0036920078
 20
83.6629469122
 30
0.0
 11
103.0036920078
 21
146.0629469088
 31
0.0
  0
LINE
  5
89
330
1F
100
AcDbEntity
  8
0
  6
Continuous
 62
     7
370
    15
100
AcDbLine
 10
119.0936920078
 20
87.3651097532
 30
0.0
 11
119.0936920078
 21
134.7129469122
 31
0.0
  0
SPLINE
  5
8A
330
1F
100
AcDbEntity
  8
0
  6
Continuous
 62
     7
370
    15
100
AcDbSpline
210
0.0
220
0.0
230
1.0
 70
     8
 71
     3
 72
     8
 73
     4
 74
     0
 42
0.00000001
 43
0.00000001
 12
1.0
 22
0.0
 32
0.0
 13
1.0
 23
0.0
 33
0.0
 40
0.0
 40
0.0
 40
0.0
 40
0.0
 40
1.0
 40
1.0
 40
1.0
 40
1.0
 10
119.0936920078446
 20
87.36510975318784
 30
0.0
 10
118.6013528850634
 20
86.46783971898114
 30
0.0
 10
118.1072388370213
 20
85.5715553039289
 30
0.0
 10
117.6117591763555
 20
84.67602921599554
 30
0.0
  0
SPLINE
  5
8B
330
1F
100
AcDbEntity
  8
0
  6
Continuous
 62
     7
370
    15
100
AcDbSpline
210
0.0
220
0.0
230
1.0
 70
    24
 71
     3
 72
     8
 73
     4
 74
     0
 42
0.00000001
 43
0.00000001
 12
1.0
 22
0.0
 32
0.0
 13
1.0
 23
0.0
 33
0.0
 40
0.0
 40
0.0
 40
0.0
 40
0.0
 40
1.0
 40
1.0
 40
1.0
 40
1.0
 10
117.6117591763555
 20
134.7129469122427
 30
0.0
 10
118.1184392845061
 20
134.7129469122427
 30
0.0
 10
118.6137400134797
 20
134.7129469122427
 30
0.0
 10
119.0936920078446
 20
134.7129469122427
 30
0.0
  0
LINE
  5
8C
330
1F
100
AcDbEntity
  8
0
  6
Continuous
 62
     7
370
    15
100
AcDbLine
 10
128.9536920078
 20
85.3026695116
 30
0.0
 11
128.9536920078
 21
134.7129469122
 31
0.0
  0
SPLINE
  5
8D
330
1F
100
AcDbEntity
  8
0
  6
Continuous
 62
     7
370
    15
100
AcDbSpline
210
0.0
220
0.0
230
1.0
 70
     8
 71
     3
 72
    10
 73
     6
 74
     0
 42
0.00000001
 43
0.00000001
 12
1.0
 22
0.0
 32
0.0
 13
1.0
 23
0.0
 33
0.0
 40
0.0
 40
0.0
 40
0.0
 40
0.0
 40
0.5
 40
0.5
 40
1.0
 40
1.0
 40
1.0
 40
1.0
 10
128.9536920078446
 20
85.30266951164985
 30
0.0
 10
128.9536920078446
 20
85.1427822434562
 30
0.0
 10
128.8923823566087
 20
84.9816549879416
 30
0.0
 10
128.6732827190736
 20
84.74755598958676
 30
0.0
 10
128.5152345127602
 20
84.67602921599554
 30
0.0
 10
128.3536920078446
 20
84.67602921599554
 30
0.0
  0
SPLINE
  5
8E
330
1F
100
AcDbEntity
  8
0
  6
Continuous
 62
     7
370
    15
100
AcDbSpline
210
0.0
220
0.0
230
1.0
 70
    24
 71
     3
 72
    12
 73
     8
 74
     0
 42
0.00000001
 43
0.00000001
 12
1.0
 22
0.0
 32
0.0
 13
1.0
 23
0.0
 33
0.0
 40
0.0
 40
0.0
 40
0.0
 40
0.0
 40
0.2500000000000033
 40
0.2500000000000033
 40
0.5000000000000067
 40
0.5000000000000067
 40
1.0
 40
1.0
 40
1.0
 40
1.0
 10
128.3536920078446
 20
134.7129469122427
 30
0.0
 10
128.4439310755316
 20
134.7129469122427
 30
0.0
 10
128.5348291896381
 20
134.7129469122427
 30
0.0
 10
128.6894262261266
 20
134.7129469122427
 30
0.0
 10
128.7544046422348
 20
134.7129469122427
 30
0.0
 10
128.906239670171
 20
134.7129469122427
 30
0.0
 10
128.9536920078446
 20
134.7129469122427
 30
0.0
 10
128.9536920078446
 20
134.7129469122427
 30
0.0
  0
ARC
  5
8F
330
1F
100
AcDbEntity
  8
0
  6
Continuous
 62
     7
370
    15
100
AcDbCircle
 10
111.0006868636
 20
126.7611779895
 30
0.0
 40
4.11501157277988
100
AcDbArc
 50
19.3349591234
 51
159.3357509812
  0
SPLINE
  5
90
330
1F
100
AcDbEntity
  8
0
  6
Continuous
 62
     7
370
    15
100
AcDbSpline
210
0.0
220
0.0
230
1.0
 70
    24
 71
     3
 72
    14
 73
    10
 74
     0
 42
0.00000001
 43
0.00000001
 12
1.0
 22
0.0
 32
0.0
 13
1.0
 23
0.0
 33
0.0
 40
0.0
 40
0.0
 40
0.0
 40
0.0
 40
0.4999999999999984
 40
0.4999999999999984
 40
0.7499999999999992
 40
0.7499999999999992
 40
0.8749999999999996
 40
0.8749999999999996
 40
1.0
 40
1.0
 40
1.0
 40
1.0
 10
122.8160172055123
 20
88.46294691224271
 30
0.0
 10
122.7692325004641
 20
88.46294691224271
 30
0.0
 10
122.7071813036845
 20
88.46294691224271
 30
0.0
 10
122.5637896651339
 20
88.4629469122427
 30
0.0
 10
122.5076460115827
 20
88.46294691224271
 30
0.0
 10
122.3946949894465
 20
88.46294691224271
 30
0.0
 10
122.3516942274084
 20
88.46294691224271
 30
0.0
 10
122.2476315171019
 20
88.46294691224271
 30
0.0
 10
122.182299278745
 20
88.46294691224271
 30
0.0
 10
122.1136920078446
 20
88.46294691224271
 30
0.0
  0
SPLINE
  5
91
330
1F
100
AcDbEntity
  8
0
  6
Continuous
 62
     7
370
    15
100
AcDbSpline
210
0.0
220
0.0
230
1.0
 70
    24
 71
     3
 72
    12
 73
     8
 74
     0
 42
0.00000001
 43
0.00000001
 12
1.0
 22
0.0
 32
0.0
 13
1.0
 23
0.0
 33
0.0
 40
0.0
 40
0.0
 40
0.0
 40
0.0
 40
0.5000000000000017
 40
0.5000000000000017
 40
0.7500000000000008
 40
0.7500000000000008
 40
1.0
 40
1.0
 40
1.0
 40
1.0
 10
122.5193944761536
 20
141.2629469122427
 30
0.0
 10
122.4763089265427
 20
141.2629469122427
 30
0.0
 10
122.4271567247933
 20
141.2629469122427
 30
0.0
 10
122.3306841305054
 20
141.2629469122427
 30
0.0
 10
122.2945825453708
 20
141.2629469122427
 30
0.0
 10
122.2114767875096
 20
141.2629469122427
 30
0.0
 10
122.1634801905433
 20
141.2629469122427
 30
0.0
 10
122.1136920078446
 20
141.2629469122427
 30
0.0
  0
SPLINE
  5
92
330
1F
100
AcDbEntity
  8
0
  6
Continuous
 62
     7
370
    15
100
AcDbSpline
210
0.0
220
0.0
230
1.0
 70
     8
 71
     3
 72
    10
 73
     6
 74
     0
 42
0.00000001
 43
0.00000001
 12
1.0
 22
0.0
 32
0.0
 13
1.0
 23
0.0
 33
0.0
 40
0.0
 40
0.0
 40
0.0
 40
0.0
 40
0.5
 40
0.5
 40
1.0
 40
1.0
 40
1.0
 40
1.0
 10
122.9136920078446
 20
141.9826007632785
 30
0.0
 10
122.9136920078446
 20
141.8388307054605
 30
0.0
 10
122.8776429491257
 20
141.6964113429653
 30
0.0
 10
122.7421340883517
 20
141.4465170496081
 30
0.0
 10
122.6422580952555
 20
141.3384867133599
 30
0.0
 10
122.5193944761536
 20
141.2629469122427
 30
0.0
  0
SPLINE
  5
93
330
1F
100
AcDbEntity
  8
0
  6
Continuous
 62
     7
370
    15
100
AcDbSpline
210
0.0
220
0.0
230
1.0
 70
     8
 71
     3
 72
    10
 73
     6
 74
     0
 42
0.00000001
 43
0.00000001
 12
1.0
 22
0.0
 32
0.0
 13
1.0
 23
0.0
 33
0.0
 40
0.0
 40
0.0
 40
0.0
 40
0.0
 40
0.5
 40
0.5
 40
1.0
 40
1.0
 40
1.0
 40
1.0
 10
122.8875443846844
 20
134.7129469122427
 30
0.0
 10
122.8962340275961
 20
134.7598257615609
 30
0.0
 10
122.9027730923466
 20
134.8072482269622
 30
0.0
 10
122.9115317267396
 20
134.903185025549
 30
0.0
 10
122.9136920078446
 20
134.9511003135595
 30
0.0
 10
122.9136920078446
 20
134.9988135437041
 30
0.0
  0
SPLINE
  5
94
330
1F
100
AcDbEntity
  8
0
  6
Continuous
 62
     7
370
    15
100
AcDbSpline
210
0.0
220
0.0
230
1.0
 70
     8
 71
     3
 72
    10
 73
     6
 74
     0
 42
0.00000001
 43
0.00000001
 12
1.0
 22
0.0
 32
0.0
 13
1.0
 23
0.0
 33
0.0
 40
0.0
 40
0.0
 40
0.0
 40
0.0
 40
0.5
 40
0.5
 40
1.0
 40
1.0
 40
1.0
 40
1.0
 10
119.4879895395355
 20
141.2629469122427
 30
0.0
 10
119.366449275867
 20
141.3376730794545
 30
0.0
 10
119.2651149155181
 20
141.4466180953712
 30
0.0
 10
119.1294759726296
 20
141.6970485761329
 30
0.0
 10
119.0936920078446
 20
141.8394679382318
 30
0.0
 10
119.0936920078446
 20
141.9826007632785
 30
0.0
  0
SPLINE
  5
95
330
1F
100
AcDbEntity
  8
0
  6
Continuous
 62
     7
370
    15
100
AcDbSpline
210
0.0
220
0.0
230
1.0
 70
    24
 71
     3
 72
    12
 73
     8
 74
     0
 42
0.00000001
 43
0.00000001
 12
1.0
 22
0.0
 32
0.0
 13
1.0
 23
0.0
 33
0.0
 40
0.0
 40
0.0
 40
0.0
 40
0.0
 40
0.2500000000000037
 40
0.2500000000000037
 40
0.5000000000000074
 40
0.5000000000000074
 40
1.0
 40
1.0
 40
1.0
 40
1.0
 10
119.8936920078446
 20
141.2629469122427
 30
0.0
 10
119.8438153255271
 20
141.2629469122427
 30
0.0
 10
119.7958121321235
 20
141.2629469122427
 30
0.0
 10
119.7127640294116
 20
141.2629469122427
 30
0.0
 10
119.6766344499437
 20
141.2629469122427
 30
0.0
 10
119.5807224189995
 20
141.2629469122427
 30
0.0
 10
119.5309637510307
 20
141.2629469122427
 30
0.0
 10
119.4879895395355
 20
141.2629469122427
 30
0.0
  0
SPLINE
  5
96
330
1F
100
AcDbEntity
  8
0
  6
Continuous
 62
     7
370
    15
100
AcDbSpline
210
0.0
220
0.0
230
1.0
 70
    24
 71
     3
 72
    14
 73
    10
 74
     0
 42
0.00000001
 43
0.00000001
 12
1.0
 22
0.0
 32
0.0
 13
1.0
 23
0.0
 33
0.0
 40
0.0
 40
0.0
 40
0.0
 40
0.0
 40
0.1249999999999991
 40
0.1249999999999991
 40
0.2499999999999982
 40
0.2499999999999982
 40
0.4999999999999998
 40
0.4999999999999998
 40
1.0
 40
1.0
 40
1.0
 40
1.0
 10
119.8936920078446
 20
88.46294691224271
 30
0.0
 10
119.8252541599581
 20
88.46294691224271
 30
0.0
 10
119.7597041211931
 20
88.46294691224271
 30
0.0
 10
119.6552774817851
 20
88.46294691224271
 30
0.0
 10
119.6127328720237
 20
88.46294691224271
 30
0.0
 10
119.5001234114834
 20
88.4629469122427
 30
0.0
 10
119.4445843644639
 20
88.46294691224271
 30
0.0
 10
119.3019726690002
 20
88.4629469122427
 30
0.0
 10
119.2385673140044
 20
88.4629469122427
 30
0.0
 10
119.1913668101769
 20
88.46294691224271
 30
0.0
  0
SPLINE
  5
97
330
1F
100
AcDbEntity
  8
0
  6
Continuous
 62
     7
370
    15
100
AcDbSpline
210
0.0
220
0.0
230
1.0
 70
     8
 71
     3
 72
    10
 73
     6
 74
     0
 42
0.00000001
 43
0.00000001
 12
1.0
 22
0.0
 32
0.0
 13
1.0
 23
0.0
 33
0.0
 40
0.0
 40
0.0
 40
0.0
 40
0.0
 40
0.5
 40
0.5
 40
1.0
 40
1.0
 40
1.0
 40
1.0
 10
119.0936920078446
 20
134.9988135437041
 30
0.0
 10
119.0936920078446
 20
134.9510420357108
 30
0.0
 10
119.0958532514417
 20
134.9033323136491
 30
0.0
 10
119.1045246253019
 20
134.8080371961009
 30
0.0
 10
119.1110538082579
 20
134.7603446321342
 30
0.0
 10
119.1198396310047
 20
134.7129469122427
 30
0.0
  0
LINE
  5
98
330
1F
100
AcDbEntity
  8
0
  6
Continuous
 62
     7
370
    15
100
AcDbLine
 10
122.1136920078
 20
141.2629469122
 30
0.0
 11
119.8936920078
 21
141.2629469122
 31
0.0
  0
LINE
  5
99
330
1F
100
AcDbEntity
  8
0
  6
Continuous
 62
     7
370
    15
100
AcDbLine
 10
122.1136920078
 20
88.4629469122
 30
0.0
 11
119.8936920078
 21
88.4629469122
 31
0.0
  0
LINE
  5
9A
330
1F
100
AcDbEntity
  8
0
  6
Continuous
 62
     7
370
    15
100
AcDbLine
 10
81.2036920078
 20
91.6345000185
 30
0.0
 11
81.2036920078
 21
92.899209381
 31
0.0
  0
SPLINE
  5
9B
330
1F
100
AcDbEntity
  8
0
  6
Continuous
 62
     7
370
    15
100
AcDbSpline
210
0.0
220
0.0
230
1.0
 70
     8
 71
     3
 72
    14
 73
    10
 74
     0
 42
0.00000001
 43
0.00000001
 12
1.0
 22
0.0
 32
0.0
 13
1.0
 23
0.0
 33
0.0
 40
0.0
 40
0.0
 40
0.0
 40
0.0
 40
0.25
 40
0.25
 40
0.5
 40
0.5
 40
0.75
 40
0.75
 40
1.0
 40
1.0
 40
1.0
 40
1.0
 10
80.42540488992886
 20
94.02979558868276
 30
0.0
 10
80.48203156513094
 20
93.9220981348459
 30
0.0
 10
80.57655422542067
 20
93.81930855312658
 30
0.0
 10
80.7595992009829
 20
93.62095124090642
 30
0.0
 10
80.85122577793763
 20
93.52489173222818
 30
0.0
 10
81.01007909563081
 20
93.33736268951894
 30
0.0
 10
81.0779697032525
 20
93.24595371673539
 30
0.0
 10
81.1748867289601
 20
93.06757749582523
 30
0.0
 10
81.20369200784516
 20
92.98035558957905
 30
0.0
 10
81.20369200784515
 20
92.89920938104478
 30
0.0
  0
SPLINE
  5
9C
330
1F
100
AcDbEntity
  8
0
  6
Continuous
 62
     7
370
    15
100
AcDbSpline
210
0.0
220
0.0
230
1.0
 70
     8
 71
     3
 72
    14
 73
    10
 74
     0
 42
0.00000001
 43
0.00000001
 12
1.0
 22
0.0
 32
0.0
 13
1.0
 23
0.0
 33
0.0
 40
0.0
 40
0.0
 40
0.0
 40
0.0
 40
0.1249999999999975
 40
0.1249999999999975
 40
0.249999999999995
 40
0.249999999999995
 40
0.4999999999999953
 40
0.4999999999999953
 40
1.0
 40
1.0
 40
1.0
 40
1.0
 10
79.80369200784457
 20
94.47647745096208
 30
0.0
 10
79.85223641650174
 20
94.48222576424237
 30
0.0
 10
79.90515177128665
 20
94.47912487558612
 30
0.0
 10
80.0004471162697
 20
94.45693003142381
 30
0.0
 10
80.04069811355464
 20
94.43969780432793
 30
0.0
 10
80.14496812706761
 20
94.38336988787587
 30
0.0
 10
80.19529010222094
 20
94.33918354193008
 30
0.0
 10
80.32297304974632
 20
94.20817564307946
 30
0.0
 10
80.37905849680858
 20
94.11794112284916
 30
0.0
 10
80.42540488993033
 20
94.02979558868329
 30
0.0
  0
SPLINE
  5
9D
330
1F
100
AcDbEntity
  8
0
  6
Continuous
 62
     7
370
    15
100
AcDbSpline
210
0.0
220
0.0
230
1.0
 70
     8
 71
     3
 72
     8
 73
     4
 74
     0
 42
0.00000001
 43
0.00000001
 12
1.0
 22
0.0
 32
0.0
 13
1.0
 23
0.0
 33
0.0
 40
0.0
 40
0.0
 40
0.0
 40
0.0
 40
1.0
 40
1.0
 40
1.0
 40
1.0
 10
77.53516691489835
 20
94.1666321643793
 30
0.0
 10
78.26974394138131
 20
94.28525717544825
 30
0.0
 10
79.03321901077697
 20
94.38524304758452
 30
0.0
 10
79.80369200784459
 20
94.47647745096208
 30
0.0
  0
SPLINE
  5
9E
330
1F
100
AcDbEntity
  8
0
  6
Continuous
 62
     7
370
    15
100
AcDbSpline
210
0.0
220
0.0
230
1.0
 70
     8
 71
     3
 72
    14
 73
    10
 74
     0
 42
0.00000001
 43
0.00000001
 12
1.0
 22
0.0
 32
0.0
 13
1.0
 23
0.0
 33
0.0
 40
0.0
 40
0.0
 40
0.0
 40
0.0
 40
0.500000000000001
 40
0.500000000000001
 40
0.7500000000000004
 40
0.7500000000000004
 40
0.8750000000000003
 40
0.8750000000000003
 40
1.0
 40
1.0
 40
1.0
 40
1.0
 10
72.25369200784458
 20
93.99300914684764
 30
0.0
 10
73.14583813839816
 20
93.99228692064699
 30
0.0
 10
74.03581457419176
 20
93.99687312710445
 30
0.0
 10
75.36240974126737
 20
94.02459813149598
 30
0.0
 10
75.80325666976609
 20
94.03720466912016
 30
0.0
 10
76.45969690718852
 20
94.06822081712761
 30
0.0
 10
76.6777105637804
 20
94.08056398975438
 30
0.0
 10
77.11041941746318
 20
94.11358804491766
 30
0.0
 10
77.32569588262797
 20
94.13280521005609
 30
0.0
 10
77.53516691489837
 20
94.1666321643793
 30
0.0
  0
SPLINE
  5
9F
330
1F
100
AcDbEntity
  8
0
  6
Continuous
 62
     7
370
    15
100
AcDbSpline
210
0.0
220
0.0
230
1.0
 70
     8
 71
     3
 72
     8
 73
     4
 74
     0
 42
0.00000001
 43
0.00000001
 12
1.0
 22
0.0
 32
0.0
 13
1.0
 23
0.0
 33
0.0
 40
0.0000005163856712
 40
0.0000005163856712
 40
0.0000005163856712
 40
0.0000005163856712
 40
0.000026289209185
 40
0.000026289209185
 40
0.000026289209185
 40
0.000026289209185
 10
72.24364707742589
 20
94.0029930199555
 30
0.0
 10
72.24697481563737
 20
93.99965877308269
 30
0.0
 10
72.25032326861667
 20
93.99633081580366
 30
0.0
 10
72.25369200784455
 20
93.99300914684763
 30
0.0
  0
SPLINE
  5
A0
330
1F
100
AcDbEntity
  8
0
  6
Continuous
 62
     7
370
    15
100
AcDbSpline
210
0.0
220
0.0
230
1.0
 70
     8
 71
     3
 72
     8
 73
     4
 74
     0
 42
0.00000001
 43
0.00000001
 12
1.0
 22
0.0
 32
0.0
 13
1.0
 23
0.0
 33
0.0
 40
0.0000005099763573
 40
0.0000005099763573
 40
0.0000005099763573
 40
0.0000005099763573
 40
0.0000262827998699
 40
0.0000262827998699
 40
0.0000262827998699
 40
0.0000262827998699
 10
72.25369200784456
 20
135.7328846776378
 30
0.0
 10
72.25032326861682
 20
135.7295630086819
 30
0.0
 10
72.24697481563769
 20
135.726235051403
 30
0.0
 10
72.24364707742636
 20
135.7229008045304
 30
0.0
  0
SPLINE
  5
A1
330
1F
100
AcDbEntity
  8
0
  6
Continuous
 62
     7
370
    15
100
AcDbSpline
210
0.0
220
0.0
230
1.0
 70
     8
 71
     3
 72
    10
 73
     6
 74
     0
 42
0.00000001
 43
0.00000001
 12
1.0
 22
0.0
 32
0.0
 13
1.0
 23
0.0
 33
0.0
 40
0.0
 40
0.0
 40
0.0
 40
0.0
 40
0.5
 40
0.5
 40
1.0
 40
1.0
 40
1.0
 40
1.0
 10
75.80369200784459
 20
135.6860343040705
 30
0.0
 10
75.21610646075399
 20
135.7070998243069
 30
0.0
 10
74.6253600672936
 20
135.7178583101791
 30
0.0
 10
73.44134090199475
 20
135.7312230907148
 30
0.0
 10
72.8479269137893
 20
135.7333657333793
 30
0.0
 10
72.25369200784458
 20
135.7328846776378
 30
0.0
  0
SPLINE
  5
A2
330
1F
100
AcDbEntity
  8
0
  6
Continuous
 62
     7
370
    15
100
AcDbSpline
210
0.0
220
0.0
230
1.0
 70
     8
 71
     3
 72
    18
 73
    14
 74
     0
 42
0.00000001
 43
0.00000001
 12
1.0
 22
0.0
 32
0.0
 13
1.0
 23
0.0
 33
0.0
 40
0.0
 40
0.0
 40
0.0
 40
0.0
 40
0.2500000000000009
 40
0.2500000000000009
 40
0.500000000000001
 40
0.500000000000001
 40
0.7500000000000011
 40
0.7500000000000011
 40
0.875000000000001
 40
0.875000000000001
 40
0.9375000000000006
 40
0.9375000000000006
 40
1.0
 40
1.0
 40
1.0
 40
1.0
 10
77.2036920078446
 20
136.7070545846057
 30
0.0
 10
77.20369200784461
 20
136.6238476757485
 30
0.0
 10
77.16784290790632
 20
136.5351110204349
 30
0.0
 10
77.0429711718724
 20
136.3529858298747
 30
0.0
 10
76.95257075422452
 20
136.2578557812481
 30
0.0
 10
76.73032809948235
 20
136.0686742721237
 30
0.0
 10
76.60056331303657
 20
135.973729104029
 30
0.0
 10
76.35992585572507
 20
135.8354503964491
 30
0.0
 10
76.27215855758762
 20
135.7897399631467
 30
0.0
 10
76.11763447038082
 20
135.7319166579252
 30
0.0
 10
76.06102358432607
 20
135.7142018938874
 30
0.0
 10
75.93697955341946
 20
135.6896625906545
 30
0.0
 10
75.86926487840118
 20
135.6836834521162
 30
0.0
 10
75.80369200784457
 20
135.6860343040705
 30
0.0
  0
LINE
  5
A3
330
1F
100
AcDbEntity
  8
0
  6
Continuous
 62
     7
370
    15
100
AcDbLine
 10
77.2036920078
 20
136.7070545846
 30
0.0
 11
77.2036920078
 21
137.8909930044
 31
0.0
  0
LINE
  5
A4
330
1F
100
AcDbEntity
  8
0
  6
Continuous
 62
     7
370
    15
100
AcDbLine
 10
101.0036920078
 20
90.6425160505
 30
0.0
 11
101.0036920078
 21
139.083377774
 31
0.0
  0
SPLINE
  5
A5
330
1F
100
AcDbEntity
  8
0
  6
Continuous
 62
     7
370
    15
100
AcDbSpline
210
0.0
220
0.0
230
1.0
 70
     8
 71
     3
 72
    18
 73
    14
 74
     0
 42
0.00000001
 43
0.00000001
 12
1.0
 22
0.0
 32
0.0
 13
1.0
 23
0.0
 33
0.0
 40
0.0
 40
0.0
 40
0.0
 40
0.0
 40
0.0010671296451833
 40
0.1270947795731636
 40
0.252405345751277
 40
0.3766468878987096
 40
0.4391415999051428
 40
0.5008278021400407
 40
0.562425570880851
 40
0.6253162439161144
 40
0.7499985144706706
 40
0.8752758950341252
 40
0.9999999999999999
 40
0.9999999999999999
 40
0.9999999999999999
 40
0.9999999999999999
 10
89.77399284791726
 20
91.20560788932636
 30
0.0
 10
89.77308101527875
 20
91.20549311078972
 30
0.0
 10
89.66448205664179
 20
91.19182302592384
 30
0.0
 10
90.05212312429165
 20
91.2427425265394
 30
0.0
 10
90.91808780612679
 20
91.34232569958588
 30
0.0
 10
92.11849173089662
 20
91.41144958272956
 30
0.0
 10
93.17606764538534
 20
91.41540181186839
 30
0.0
 10
94.00320173229152
 20
91.38791287341336
 30
0.0
 10
94.82847359992577
 20
91.32937269700557
 30
0.0
 10
95.88283881992574
 20
91.21585153727003
 30
0.0
 10
97.04467510140105
 20
91.03270071302137
 30
0.0
 10
97.99690988278464
 20
90.82809750338646
 30
0.0
 10
98.12261494359251
 20
90.79881215261038
 30
0.0
 10
98.18532837573771
 20
90.78420188276968
 30
0.0
  0
SPLINE
  5
A6
330
1F
100
AcDbEntity
  8
0
  6
Continuous
 62
     7
370
    15
100
AcDbSpline
210
0.0
220
0.0
230
1.0
 70
     8
 71
     3
 72
    18
 73
    14
 74
     0
 42
0.00000001
 43
0.00000001
 12
1.0
 22
0.0
 32
0.0
 13
1.0
 23
0.0
 33
0.0
 40
0.0
 40
0.0
 40
0.0
 40
0.0
 40
0.1248907792210109
 40
0.2505384020341698
 40
0.3748721840485282
 40
0.437490765334968
 40
0.4990776265894272
 40
0.5607931536353509
 40
0.6233901338664932
 40
0.7478191038417344
 40
0.8731940995934958
 40
0.9991614644710078
 40
0.9999999999999999
 40
0.9999999999999999
 40
0.9999999999999999
 40
0.9999999999999999
 10
98.18510961021379
 20
138.9416267611614
 30
0.0
 10
98.12136885750213
 20
138.9269654685633
 30
0.0
 10
97.99350108032566
 20
138.8975540352918
 30
0.0
 10
97.04150185926525
 20
138.6926009312294
 30
0.0
 10
95.880958154062
 20
138.5093371554184
 30
0.0
 10
94.82869370197388
 20
138.3963095631695
 30
0.0
 10
94.00446658690628
 20
138.3380459156282
 30
0.0
 10
93.17686281738585
 20
138.3105995276239
 30
0.0
 10
92.11804562490079
 20
138.3145843335531
 30
0.0
 10
90.9158269268658
 20
138.3836738099345
 30
0.0
 10
90.05064298717849
 20
138.4833000264912
 30
0.0
 10
89.66450256564828
 20
138.5341161000918
 30
0.0
 10
89.77257410642864
 20
138.5204439200286
 30
0.0
 10
89.77328875634893
 20
138.5203535093402
 30
0.0
  0
SPLINE
  5
A7
330
1F
100
AcDbEntity
  8
0
  6
Continuous
 62
     7
370
    15
100
AcDbSpline
210
0.0
220
0.0
230
1.0
 70
     8
 71
     3
 72
     9
 73
     5
 74
     0
 42
0.00000001
 43
0.00000001
 12
1.0
 22
0.0
 32
0.0
 13
1.0
 23
0.0
 33
0.0
 40
0.0
 40
0.0
 40
0.0
 40
0.0
 40
0.7009329310330151
 40
1.0
 40
1.0
 40
1.0
 40
1.0
 10
71.12447669208004
 20
95.16166660814008
 30
0.0
 10
71.13361596875531
 20
95.14383732259857
 30
0.0
 10
71.14665470080891
 20
95.11840081540629
 30
0.0
 10
71.16181995457424
 20
95.17228067559807
 30
0.0
 10
71.16635538256796
 20
95.18839436746198
 30
0.0
  0
LINE
  5
A8
330
1F
100
AcDbEntity
  8
0
  6
Continuous
 62
     7
370
    15
100
AcDbLine
 10
71.1036920078
 20
95.1722691658
 30
0.0
 11
71.1036920078
 21
134.5536246587
 31
0.0
  0
SPLINE
  5
A9
330
1F
100
AcDbEntity
  8
0
  6
Continuous
 62
     7
370
    15
100
AcDbSpline
210
0.0
220
0.0
230
1.0
 70
     8
 71
     3
 72
    10
 73
     6
 74
     0
 42
0.00000001
 43
0.00000001
 12
1.0
 22
0.0
 32
0.0
 13
1.0
 23
0.0
 33
0.0
 40
0.0
 40
0.0
 40
0.0
 40
0.0
 40
0.5
 40
0.5
 40
1.0
 40
1.0
 40
1.0
 40
1.0
 10
71.16635538256799
 20
134.5374994570234
 30
0.0
 10
71.15745109345923
 20
134.5832409762366
 30
0.0
 10
71.14093571326624
 20
134.6004318157056
 30
0.0
 10
71.11382776720463
 20
134.6001085387699
 30
0.0
 10
71.10369200784459
 20
134.5822309964735
 30
0.0
 10
71.10369200784459
 20
134.5536246587208
 30
0.0
  0
SPLINE
  5
AA
330
1F
100
AcDbEntity
  8
0
  6
Continuous
 62
     7
370
    15
100
AcDbSpline
210
0.0
220
0.0
230
1.0
 70
     8
 71
     3
 72
    26
 73
    22
 74
     0
 42
0.00000001
 43
0.00000001
 12
1.0
 22
0.0
 32
0.0
 13
1.0
 23
0.0
 33
0.0
 40
0.0
 40
0.0
 40
0.0
 40
0.0
 40
0.2500000000000165
 40
0.2500000000000165
 40
0.3750000000000256
 40
0.3750000000000256
 40
0.4375000000000291
 40
0.4375000000000291
 40
0.4687500000000291
 40
0.4687500000000291
 40
0.5000000000000292
 40
0.5000000000000292
 40
0.5312500000000293
 40
0.5312500000000293
 40
0.5625000000000293
 40
0.5625000000000293
 40
0.625000000000026
 40
0.625000000000026
 40
0.7500000000000173
 40
0.7500000000000173
 40
1.0
 40
1.0
 40
1.0
 40
1.0
 10
71.92784565394909
 20
135.2530662458406
 30
0.0
 10
71.88924513108063
 20
135.1352915494851
 30
0.0
 10
71.84294812852636
 20
135.0109018633232
 30
0.0
 10
71.74900878009244
 20
134.8056825309697
 30
0.0
 10
71.71369731317897
 20
134.7341096645233
 30
0.0
 10
71.6475173374333
 20
134.6181564319228
 30
0.0
 10
71.62297897076509
 20
134.5775718971126
 30
0.0
 10
71.57960622521128
 20
134.5134302152408
 30
0.0
 10
71.56409782378608
 20
134.4915637899558
 30
0.0
 10
71.52905517919905
 20
134.4459695216126
 30
0.0
 10
71.50950488847928
 20
134.4222992306451
 30
0.0
 10
71.46757760810868
 20
134.3776826713052
 30
0.0
 10
71.44492549787704
 20
134.3568026587873
 30
0.0
 10
71.40395178379042
 20
134.3259292450365
 30
0.0
 10
71.386352483895
 20
134.3160903752041
 30
0.0
 10
71.34172549803884
 20
134.2971007595079
 30
0.0
 10
71.32116627538551
 20
134.2967764348545
 30
0.0
 10
71.27004083588884
 20
134.3059998757307
 30
0.0
 10
71.2491294229003
 20
134.3272467719476
 30
0.0
 10
71.19767951533937
 20
134.4012156507784
 30
0.0
 10
71.18001421603482
 20
134.4673337440931
 30
0.0
 10
71.16635538256799
 20
134.5374994570234
 30
0.0
  0
SPLINE
  5
AB
330
1F
100
AcDbEntity
  8
0
  6
Continuous
 62
     7
370
    15
100
AcDbSpline
210
0.0
220
0.0
230
1.0
 70
     8
 71
     3
 72
    10
 73
     6
 74
     0
 42
0.00000001
 43
0.00000001
 12
1.0
 22
0.0
 32
0.0
 13
1.0
 23
0.0
 33
0.0
 40
0.0
 40
0.0
 40
0.0
 40
0.0
 40
0.5
 40
0.5
 40
1.0
 40
1.0
 40
1.0
 40
1.0
 10
72.24364707742639
 20
135.7229008045304
 30
0.0
 10
72.17608782250815
 20
135.6552094117206
 30
0.0
 10
72.11245116717164
 20
135.580502246967
 30
0.0
 10
72.00223041259977
 20
135.4215361145403
 30
0.0
 10
71.95541411937715
 20
135.3371808485323
 30
0.0
 10
71.92784565394908
 20
135.2530662458406
 30
0.0
  0
SPLINE
  5
AC
330
1F
100
AcDbEntity
  8
0
  6
Continuous
 62
     7
370
    15
100
AcDbSpline
210
0.0
220
0.0
230
1.0
 70
     8
 71
     3
 72
    10
 73
     6
 74
     0
 42
0.00000001
 43
0.00000001
 12
1.0
 22
0.0
 32
0.0
 13
1.0
 23
0.0
 33
0.0
 40
0.0
 40
0.0
 40
0.0
 40
0.0
 40
0.5
 40
0.5
 40
1.0
 40
1.0
 40
1.0
 40
1.0
 10
71.92784565394913
 20
94.47282757864474
 30
0.0
 10
71.95532306870234
 20
94.38899078217915
 30
0.0
 10
72.00203169899
 20
94.30468029459232
 30
0.0
 10
72.11231016173194
 20
94.14555906410946
 30
0.0
 10
72.1761977003436
 20
94.07057432002138
 30
0.0
 10
72.24364707742592
 20
94.0029930199555
 30
0.0
  0
SPLINE
  5
AD
330
1F
100
AcDbEntity
  8
0
  6
Continuous
 62
     7
370
    15
100
AcDbSpline
210
0.0
220
0.0
230
1.0
 70
     8
 71
     3
 72
    24
 73
    20
 74
     0
 42
0.00000001
 43
0.00000001
 12
1.0
 22
0.0
 32
0.0
 13
1.0
 23
0.0
 33
0.0
 40
0.0
 40
0.0
 40
0.0
 40
0.0
 40
0.25
 40
0.25
 40
0.374999999999999
 40
0.374999999999999
 40
0.4374999999999993
 40
0.4374999999999993
 40
0.4687499999999994
 40
0.4687499999999994
 40
0.4999999999999995
 40
0.4999999999999995
 40
0.5624999999999971
 40
0.5624999999999971
 40
0.6249999999999947
 40
0.6249999999999947
 40
0.7499999999999947
 40
0.7499999999999947
 40
1.0
 40
1.0
 40
1.0
 40
1.0
 10
71.16635538256799
 20
95.18839436746195
 30
0.0
 10
71.18010850123821
 20
95.25904442545225
 30
0.0
 10
71.19788106864408
 20
95.32564253821718
 30
0.0
 10
71.25013216019943
 20
95.39974055845038
 30
0.0
 10
71.27116723578101
 20
95.42099836561194
 30
0.0
 10
71.32406764340942
 20
95.42914429175818
 30
0.0
 10
71.34517331628734
 20
95.42820448836241
 30
0.0
 10
71.39122548496532
 20
95.40718849678507
 30
0.0
 10
71.4095959569487
 20
95.39627969067745
 30
0.0
 10
71.45114759201441
 20
95.36364477973008
 30
0.0
 10
71.47371426477132
 20
95.3421527993587
 30
0.0
 10
71.53649528123134
 20
95.2736868557724
 30
0.0
 10
71.56962504219925
 20
95.2276123975673
 30
0.0
 10
71.62654272868424
 20
95.14260450923264
 30
0.0
 10
71.65072875418801
 20
95.10232420805126
 30
0.0
 10
71.71593670456777
 20
94.9873879815853
 30
0.0
 10
71.75065276475902
 20
94.9168049964383
 30
0.0
 10
71.84386803508991
 20
94.7125992373597
 30
0.0
 10
71.88954057045058
 20
94.58970085503233
 30
0.0
 10
71.92784565394912
 20
94.47282757864475
 30
0.0
  0
SPLINE
  5
AE
330
1F
100
AcDbEntity
  8
0
  6
Continuous
 62
     7
370
    15
100
AcDbSpline
210
0.0
220
0.0
230
1.0
 70
     8
 71
     3
 72
    39
 73
    35
 74
     0
 42
0.00000001
 43
0.00000001
 12
1.0
 22
0.0
 32
0.0
 13
1.0
 23
0.0
 33
0.0
 40
-0.0928098421164368
 40
-0.0617034306059383
 40
-0.0305299624236133
 40
0.0
 40
0.0305538645808961
 40
0.0617342229577063
 40
0.0928524521272973
 40
0.1239442732030576
 40
0.1551263163319007
 40
0.1867203328768944
 40
0.2185055218178531
 40
0.2499267493270717
 40
0.2813715591321073
 40
0.3132224564732247
 40
0.3448874983147984
 40
0.3761203570732636
 40
0.4072073710858732
 40
0.4382796783015913
 40
0.4694125787358518
 40
0.5000112827606737
 40
0.5306014508051079
 40
0.5617732316877377
 40
0.5928577352007562
 40
0.6239624052471515
 40
0.6551724327569473
 40
0.6868187306052448
 40
0.7186212033227687
 40
0.75006716695972
 40
0.7814821074169611
 40
0.8133060958935152
 40
0.8449172376387104
 40
0.8761199144779178
 40
0.9071901578835632
 40
0.9382965693940617
 40
0.9694700375763867
 40
1.0
 40
1.030553864580896
 40
1.061734222957706
 40
1.092852452127297
 10
212.1666428189021
 20
108.8692653119917
 30
0.0
 10
211.0033854391193
 20
108.7504525056164
 30
0.0
 10
209.8400725651702
 20
108.8694850991163
 30
0.0
 10
208.7234338783718
 20
109.2266999052013
 30
0.0
 10
207.6917676656607
 20
109.7877627992118
 30
0.0
 10
206.7969019851381
 20
110.5439772664601
 30
0.0
 10
206.0618675979134
 20
111.4639832553419
 30
0.0
 10
205.5176194994378
 20
112.5212792375289
 30
0.0
 10
205.1719056853773
 20
113.6671810729976
 30
0.0
 10
205.057478148546
 20
114.8604085234281
 30
0.0
 10
205.1725566132282
 20
116.0543837564505
 30
0.0
 10
205.5185742773285
 20
117.2022590966725
 30
0.0
 10
206.0629960941551
 20
118.262116610151
 30
0.0
 10
206.7985212982571
 20
119.1836262994577
 30
0.0
 10
207.6930209324567
 20
119.9402180842998
 30
0.0
 10
208.7234577625301
 20
120.5010434559267
 30
0.0
 10
209.839888337102
 20
120.8571676057176
 30
0.0
 10
211.0039710606108
 20
120.9752569511048
 30
0.0
 10
212.168511970154
 20
120.8568151307148
 30
0.0
 10
213.2853070503241
 20
120.5000950301898
 30
0.0
 10
214.3164375969247
 20
119.9387535546332
 30
0.0
 10
215.2107127683174
 20
119.1817160042494
 30
0.0
 10
215.945665988618
 20
118.2601641541082
 30
0.0
 10
216.4894376025247
 20
117.2012247195733
 30
0.0
 10
216.8348177070043
 20
116.0540434772092
 30
0.0
 10
216.9498902534943
 20
114.8607696243302
 30
0.0
 10
216.8355568899395
 20
113.6670924067813
 30
0.0
 10
216.4894219827445
 20
112.5206501421721
 30
0.0
 10
215.9447107052673
 20
111.4625185513581
 30
0.0
 10
215.2091731430491
 20
110.5426197825073
 30
0.0
 10
214.3141106938547
 20
109.7868993423217
 30
0.0
 10
213.2827583137363
 20
109.2263551230877
 30
0.0
 10
212.1666428189021
 20
108.8692653119917
 30
0.0
 10
211.0033854391193
 20
108.7504525056164
 30
0.0
 10
209.8400725651702
 20
108.8694850991163
 30
0.0
  0
LINE
  5
AF
330
1F
100
AcDbEntity
  8
0
  6
Continuous
 62
     7
370
    15
100
AcDbLine
 10
219.0643970245
 20
92.3629469122
 30
0.0
 11
219.0643970245
 21
137.3629469122
 31
0.0
  0
SPLINE
  5
B0
330
1F
100
AcDbEntity
  8
0
  6
Continuous
 62
     7
370
    15
100
AcDbSpline
210
0.0
220
0.0
230
1.0
 70
     8
 71
     3
 72
     8
 73
     4
 74
     0
 42
0.00000001
 43
0.00000001
 12
1.0
 22
0.0
 32
0.0
 13
1.0
 23
0.0
 33
0.0
 40
0.0
 40
0.0
 40
0.0
 40
0.0
 40
1.0
 40
1.0
 40
1.0
 40
1.0
 10
124.3956248393336
 20
145.330142385407
 30
0.0
 10
123.9004848099693
 20
144.4434627372267
 30
0.0
 10
123.4064021046903
 20
143.5562001015407
 30
0.0
 10
122.9136920078446
 20
142.6681811034143
 30
0.0
  0
LINE
  5
B1
330
1F
100
AcDbEntity
  8
0
  6
Continuous
 62
     7
370
    15
100
AcDbLine
 10
124.3956248393
 20
139.3216365746
 30
0.0
 11
124.3956248393
 21
145.3301423854
 31
0.0
  0
SPLINE
  5
B2
330
1F
100
AcDbEntity
  8
0
  6
Continuous
 62
     7
370
    15
100
AcDbSpline
210
0.0
220
0.0
230
1.0
 70
     8
 71
     3
 72
     8
 73
     4
 74
     0
 42
0.00000001
 43
0.00000001
 12
1.0
 22
0.0
 32
0.0
 13
1.0
 23
0.0
 33
0.0
 40
0.0
 40
0.0
 40
0.0
 40
0.0
 40
1.0
 40
1.0
 40
1.0
 40
1.0
 10
122.9136920078446
 20
135.913090579826
 30
0.0
 10
123.3929701584344
 20
137.0541018096786
 30
0.0
 10
123.8885379975743
 20
138.1904862204465
 30
0.0
 10
124.3956248393336
 20
139.3216365746101
 30
0.0
  0
LINE
  5
B3
330
1F
100
AcDbEntity
  8
0
  6
Continuous
 62
     7
370
    15
100
AcDbLine
 10
122.9136920078
 20
135.9130905798
 30
0.0
 11
122.9136920078
 21
142.6681811034
 31
0.0
  0
LINE
  5
B4
330
1F
100
AcDbEntity
  8
0
  6
Continuous
 62
     7
370
    15
100
AcDbLine
 10
128.3536920078
 20
145.3301423854
 30
0.0
 11
124.3956248393
 21
145.3301423854
 31
0.0
  0
LINE
  5
B5
330
1F
100
AcDbEntity
  8
0
  6
Continuous
 62
     7
370
    15
100
AcDbLine
 10
124.3956248393
 20
139.3216365746
 30
0.0
 11
128.3536920078
 21
139.3216365746
 31
0.0
  0
SPLINE
  5
B6
330
1F
100
AcDbEntity
  8
0
  6
Continuous
 62
     7
370
    15
100
AcDbSpline
210
0.0
220
0.0
230
1.0
 70
     8
 71
     3
 72
    10
 73
     6
 74
     0
 42
0.00000001
 43
0.00000001
 12
1.0
 22
0.0
 32
0.0
 13
1.0
 23
0.0
 33
0.0
 40
0.0
 40
0.0
 40
0.0
 40
0.0
 40
0.5
 40
0.5
 40
1.0
 40
1.0
 40
1.0
 40
1.0
 10
128.9536920078446
 20
144.7093872360066
 30
0.0
 10
128.9536920078446
 20
144.8697925023574
 30
0.0
 10
128.8914541767377
 20
145.028854315346
 30
0.0
 10
128.6723192529952
 20
145.2597667809763
 30
0.0
 10
128.5147305580033
 20
145.330142385407
 30
0.0
 10
128.3536920078446
 20
145.330142385407
 30
0.0
  0
SPLINE
  5
B7
330
1F
100
AcDbEntity
  8
0
  6
Continuous
 62
     7
370
    15
100
AcDbSpline
210
0.0
220
0.0
230
1.0
 70
     8
 71
     3
 72
    12
 73
     8
 74
     0
 42
0.00000001
 43
0.00000001
 12
1.0
 22
0.0
 32
0.0
 13
1.0
 23
0.0
 33
0.0
 40
0.0
 40
0.0
 40
0.0
 40
0.0
 40
0.25
 40
0.25
 40
0.5
 40
0.5
 40
1.0
 40
1.0
 40
1.0
 40
1.0
 10
128.3536920078446
 20
139.3216365746102
 30
0.0
 10
128.4448917296702
 20
139.3216365746102
 30
0.0
 10
128.5354867388063
 20
139.2934168760223
 30
0.0
 10
128.6888994652529
 20
139.1989738687742
 30
0.0
 10
128.7541083325766
 20
139.1326868920688
 30
0.0
 10
128.9068928619165
 20
138.9070620687805
 30
0.0
 10
128.9536920078446
 20
138.724635805748
 30
0.0
 10
128.9536920078446
 20
138.5438991735011
 30
0.0
  0
LINE
  5
B8
330
1F
100
AcDbEntity
  8
0
  6
Continuous
 62
     7
370
    15
100
AcDbLine
 10
128.9536920078
 20
138.5438991735
 30
0.0
 11
128.9536920078
 21
144.709387236
 31
0.0
  0
SPLINE
  5
B9
330
1F
100
AcDbEntity
  8
0
  6
Continuous
 62
     7
370
    15
100
AcDbSpline
210
0.0
220
0.0
230
1.0
 70
     8
 71
     3
 72
     8
 73
     4
 74
     0
 42
0.00000001
 43
0.00000001
 12
1.0
 22
0.0
 32
0.0
 13
1.0
 23
0.0
 33
0.0
 40
0.0
 40
0.0
 40
0.0
 40
0.0
 40
1.0
 40
1.0
 40
1.0
 40
1.0
 10
117.6117591763555
 20
139.3216365746101
 30
0.0
 10
118.1188460181148
 20
138.1904862204465
 30
0.0
 10
118.6144138572547
 20
137.0541018096786
 30
0.0
 10
119.0936920078446
 20
135.913090579826
 30
0.0
  0
LINE
  5
BA
330
1F
100
AcDbEntity
  8
0
  6
Continuous
 62
     7
370
    15
100
AcDbLine
 10
119.0936920078
 20
135.9130905798
 30
0.0
 11
119.0936920078
 21
134.9988135437
 31
0.0
  0
SPLINE
  5
BB
330
1F
100
AcDbEntity
  8
0
  6
Continuous
 62
     7
370
    15
100
AcDbSpline
210
0.0
220
0.0
230
1.0
 70
     8
 71
     3
 72
     8
 73
     4
 74
     0
 42
0.00000001
 43
0.00000001
 12
1.0
 22
0.0
 32
0.0
 13
1.0
 23
0.0
 33
0.0
 40
0.0
 40
0.0
 40
0.0
 40
0.0
 40
1.0
 40
1.0
 40
1.0
 40
1.0
 10
119.0936920078446
 20
142.6681811034143
 30
0.0
 10
118.6009819109988
 20
143.5562001015407
 30
0.0
 10
118.1068992057198
 20
144.4434627372267
 30
0.0
 10
117.6117591763555
 20
145.330142385407
 30
0.0
  0
LINE
  5
BC
330
1F
100
AcDbEntity
  8
0
  6
Continuous
 62
     7
370
    15
100
AcDbLine
 10
119.0936920078
 20
135.9130905798
 30
0.0
 11
119.0936920078
 21
142.6681811034
 31
0.0
  0
LINE
  5
BD
330
1F
100
AcDbEntity
  8
0
  6
Continuous
 62
     7
370
    15
100
AcDbLine
 10
122.9136920078
 20
134.9988135437
 30
0.0
 11
122.9136920078
 21
135.9130905798
 31
0.0
  0
LINE
  5
BE
330
1F
100
AcDbEntity
  8
0
  6
Continuous
 62
     7
370
    15
100
AcDbLine
 10
128.9536920078
 20
138.5438991735
 30
0.0
 11
128.9536920078
 21
134.7129469122
 31
0.0
  0
ARC
  5
BF
330
1F
100
AcDbEntity
  8
0
  6
Continuous
 62
     7
370
    15
100
AcDbCircle
 10
111.0039021132
 20
133.592817279
 30
0.0
 40
7.226579600531778
100
AcDbArc
 50
70.8977090435
 51
109.1655022323
  0
LINE
  5
C0
330
1F
100
AcDbEntity
  8
0
  6
Continuous
 62
     7
370
    15
100
AcDbLine
 10
233.0036920078
 20
100.1370874339
 30
0.0
 11
233.0036920078
 21
129.58880639
 31
0.0
  0
CIRCLE
  5
C1
330
1F
100
AcDbEntity
  8
0
  6
HIDDEN
 62
     7
370
     0
100
AcDbCircle
 10
211.0036920078
 20
114.8629469122
 30
0.0
 40
6.0
  0
CIRCLE
  5
C2
330
1F
100
AcDbEntity
  8
0
  6
HIDDEN
 62
     7
370
     0
100
AcDbCircle
 10
211.0036920078
 20
114.8629469122
 30
0.0
 40
2.749999999999999
  0
CIRCLE
  5
C3
330
1F
100
AcDbEntity
  8
0
  6
HIDDEN
 62
     7
370
     0
100
AcDbCircle
 10
211.0036920078
 20
114.8629469122
 30
0.0
 40
3.99999999999999
  0
LINE
  5
C4
330
1F
100
AcDbEntity
  8
0
  6
HIDDEN
 62
     7
370
     0
100
AcDbLine
 10
117.6117591764
 20
139.3216365746
 30
0.0
 11
117.6117591764
 21
134.7129469122
 31
0.0
  0
ARC
  5
C5
330
1F
100
AcDbEntity
  8
0
  6
HIDDEN
 62
     7
370
     0
100
AcDbCircle
 10
111.3049170229
 20
127.3432422341
 30
0.0
 40
3.66278805245844
100
AcDbArc
 50
265.2827092948
 51
12.3014501683
  0
ARC
  5
C6
330
1F
100
AcDbEntity
  8
0
  6
HIDDEN
 62
     7
370
     0
100
AcDbCircle
 10
110.7216240863
 20
127.3549366789
 30
0.0
 40
3.672922165405652
100
AcDbArc
 50
166.4845093491
 51
274.4044574913
  0
LINE
  5
C7
330
1F
100
AcDbEntity
  8
0
  6
HIDDEN
 62
     7
370
     0
100
AcDbLine
 10
90.9988422124
 20
91.3383472894
 30
0.0
 11
90.4646967833
 21
91.2837326899
 31
0.0
  0
LINE
  5
C8
330
1F
100
AcDbEntity
  8
0
  6
HIDDEN
 62
     7
370
     0
100
AcDbLine
 10
90.2270431112
 20
138.4662800928
 30
0.0
 11
90.9987494921
 21
138.3875299422
 31
0.0
  0
SPLINE
  5
C9
330
1F
100
AcDbEntity
  8
0
  6
HIDDEN
 62
     7
370
     0
100
AcDbSpline
210
0.0
220
0.0
230
1.0
 70
     8
 71
     3
 72
    90
 73
    86
 74
     0
 42
0.00000001
 43
0.00000001
 12
1.0
 22
0.0
 32
0.0
 13
1.0
 23
0.0
 33
0.0
 40
-0.0312499999999998
 40
-0.0312499999999998
 40
0.0
 40
0.0
 40
0.0312500000000004
 40
0.0312500000000004
 40
0.046875
 40
0.046875
 40
0.0624999999999997
 40
0.0624999999999997
 40
0.09375
 40
0.09375
 40
0.1250000000000003
 40
0.1250000000000003
 40
0.1562500000000006
 40
0.1562500000000006
 40
0.1718750000000007
 40
0.1718750000000007
 40
0.1875000000000009
 40
0.1875000000000009
 40
0.2187500000000012
 40
0.2187500000000012
 40
0.2500000000000015
 40
0.2500000000000015
 40
0.2656250000000016
 40
0.2656250000000016
 40
0.2812500000000018
 40
0.2812500000000018
 40
0.3125000000000021
 40
0.3125000000000021
 40
0.3281250000000025
 40
0.3281250000000025
 40
0.3437500000000029
 40
0.3437500000000029
 40
0.3593750000000033
 40
0.3593750000000033
 40
0.3750000000000038
 40
0.3750000000000038
 40
0.4062500000000038
 40
0.4062500000000038
 40
0.4375000000000039
 40
0.4375000000000039
 40
0.4687500000000039
 40
0.4687500000000039
 40
0.4843750000000039
 40
0.4843750000000039
 40
0.500000000000004
 40
0.500000000000004
 40
0.531250000000004
 40
0.531250000000004
 40
0.5625000000000041
 40
0.5625000000000041
 40
0.5781250000000037
 40
0.5781250000000037
 40
0.5937500000000031
 40
0.5937500000000031
 40
0.6250000000000031
 40
0.6250000000000031
 40
0.656250000000003
 40
0.656250000000003
 40
0.687500000000003
 40
0.687500000000003
 40
0.7031250000000028
 40
0.7031250000000028
 40
0.7187500000000024
 40
0.7187500000000024
 40
0.7500000000000022
 40
0.7500000000000022
 40
0.7812500000000019
 40
0.7812500000000019
 40
0.8125000000000017
 40
0.8125000000000017
 40
0.8437500000000013
 40
0.8437500000000013
 40
0.8593750000000012
 40
0.8593750000000012
 40
0.8750000000000011
 40
0.8750000000000011
 40
0.890625000000001
 40
0.890625000000001
 40
0.9062500000000008
 40
0.9062500000000008
 40
0.9375000000000006
 40
0.9375000000000006
 40
0.9687500000000002
 40
0.9687500000000002
 40
1.0
 40
1.0
 40
1.03125
 40
1.03125
 10
211.3830134747143
 20
109.2573532637334
 30
0.0
 10
210.6243705409748
 20
109.2573532637334
 30
0.0
 10
210.251132486655
 20
109.2920635732902
 30
0.0
 10
209.7000409089749
 20
109.3943208730516
 30
0.0
 10
209.5178150297722
 20
109.4368348278661
 30
0.0
 10
209.1563698367311
 20
109.5391593155719
 30
0.0
 10
208.9763175294544
 20
109.5993529978796
 30
0.0
 10
208.4511214330222
 20
109.803020411542
 30
0.0
 10
208.1184254183063
 20
109.9696739198315
 30
0.0
 10
207.4875826801924
 20
110.3650830550206
 30
0.0
 10
207.1869114901694
 20
110.5968314974615
 30
0.0
 10
206.6452337981078
 20
111.1075896277892
 30
0.0
 10
206.4016775730441
 20
111.3873234803886
 30
0.0
 10
206.0781709945658
 20
111.8449055230081
 30
0.0
 10
205.9768405253239
 20
112.0048181724735
 30
0.0
 10
205.7925180227973
 20
112.331674311099
 30
0.0
 10
205.7092609638253
 20
112.4987602419053
 30
0.0
 10
205.4856847830866
 20
113.0108497835129
 30
0.0
 10
205.371274606287
 20
113.3665700564204
 30
0.0
 10
205.2155582435776
 20
114.1085326503049
 30
0.0
 10
205.1770567543321
 20
114.4818522926559
 30
0.0
 10
205.1763651487348
 20
115.0433719788042
 30
0.0
 10
205.1856993824873
 20
115.2309085528603
 30
0.0
 10
205.2240264714841
 20
115.6067278926441
 30
0.0
 10
205.2531346982504
 20
115.7946964568313
 30
0.0
 10
205.3678540620181
 20
116.3463131433019
 30
0.0
 10
205.480930173154
 20
116.7023194607111
 30
0.0
 10
205.7052961456351
 20
117.2189313080524
 30
0.0
 10
205.7897231704994
 20
117.3888204493835
 30
0.0
 10
205.9734563065469
 20
117.7155028311504
 30
0.0
 10
206.0730486592107
 20
117.8731393312
 30
0.0
 10
206.2873047504564
 20
118.1773681245126
 30
0.0
 10
206.4019695280413
 20
118.3239595110527
 30
0.0
 10
206.6464482942966
 20
118.6061323469499
 30
0.0
 10
206.7770121762881
 20
118.7423871707733
 30
0.0
 10
207.1859844364465
 20
119.1285297218231
 30
0.0
 10
207.4804458480207
 20
119.3557038807723
 30
0.0
 10
208.1115645436746
 20
119.7525392083168
 30
0.0
 10
208.4515548096798
 20
119.9229609301375
 30
0.0
 10
209.1487171205424
 20
120.1934764814135
 30
0.0
 10
209.5079332353916
 20
120.295548141758
 30
0.0
 10
210.0628090288586
 20
120.3990708026827
 30
0.0
 10
210.2513058345451
 20
120.4252708288196
 30
0.0
 10
210.6264955763568
 20
120.4598641497729
 30
0.0
 10
210.8138391643659
 20
120.4684562058239
 30
0.0
 10
211.3751324132069
 20
120.468707411708
 30
0.0
 10
211.7483514833419
 20
120.4350970849362
 30
0.0
 10
212.4927585475375
 20
120.2973657626937
 30
0.0
 10
212.8536913914486
 20
120.1949699841483
 30
0.0
 10
213.374970968128
 20
119.9933511344998
 30
0.0
 10
213.5455734839665
 20
119.9180412473823
 30
0.0
 10
213.8803290033355
 20
119.7507526584309
 30
0.0
 10
214.0453552237366
 20
119.6581843885271
 30
0.0
 10
214.5219712563591
 20
119.3594644188959
 30
0.0
 10
214.8160225129543
 20
119.1326742496561
 30
0.0
 10
215.3572736961974
 20
118.6234764551033
 30
0.0
 10
215.6066725982493
 20
118.3373088483571
 30
0.0
 10
216.0371249502547
 20
117.7282475538429
 30
0.0
 10
216.2201480853866
 20
117.404752514264
 30
0.0
 10
216.4454729187565
 20
116.8901146598892
 30
0.0
 10
216.5126384123574
 20
116.7124975972306
 30
0.0
 10
216.6274218860596
 20
116.3538078866372
 30
0.0
 10
216.6752288601438
 20
116.1726784054133
 30
0.0
 10
216.7905288613639
 20
115.6240331562415
 30
0.0
 10
216.8302093073607
 20
115.250858467378
 30
0.0
 10
216.83136301434
 20
114.4916877987495
 30
0.0
 10
216.7929072204056
 20
114.1187639838641
 30
0.0
 10
216.6411379184467
 20
113.3856507799426
 30
0.0
 10
216.5257163149987
 20
113.0217468641734
 30
0.0
 10
216.2274335968182
 20
112.3351975665834
 30
0.0
 10
216.0449911038579
 20
112.0102918979292
 30
0.0
 10
215.7213427613781
 20
111.5501157077807
 30
0.0
 10
215.6048344574567
 20
111.4012098998666
 30
0.0
 10
215.3601016285158
 20
111.1188540551011
 30
0.0
 10
215.2313114071043
 20
110.9845310104893
 30
0.0
 10
214.9611574955628
 20
110.7291853977183
 30
0.0
 10
214.8197931932069
 20
110.6081636742146
 30
0.0
 10
214.5243960714656
 20
110.379404601176
 30
0.0
 10
214.3694937437599
 20
110.2711593738101
 30
0.0
 10
213.8929808838989
 20
109.9716350625734
 30
0.0
 10
213.5597884452582
 20
109.804778950133
 30
0.0
 10
212.8632572880979
 20
109.5338925264027
 30
0.0
 10
212.4966415078826
 20
109.4296666234754
 30
0.0
 10
211.757546381364
 20
109.2920852309408
 30
0.0
 10
211.3830134747143
 20
109.2573532637334
 30
0.0
 10
210.6243705409748
 20
109.2573532637334
 30
0.0
  0
SPLINE
  5
CA
330
1F
100
AcDbEntity
  8
0
  6
HIDDEN
 62
     7
370
     0
100
AcDbSpline
210
0.0
220
0.0
230
1.0
 70
     8
 71
     3
 72
    47
 73
    43
 74
     0
 42
0.00000001
 43
0.00000001
 12
1.0
 22
0.0
 32
0.0
 13
1.0
 23
0.0
 33
0.0
 40
-0.0754949989692525
 40
-0.0624612121562983
 40
-0.0297328214064508
 40
0.0
 40
0.0297242095430297
 40
0.0624299019453935
 40
0.0902097647779118
 40
0.1249852930172195
 40
0.146639132127359
 40
0.1670192907607373
 40
0.1861310717633495
 40
0.2039809867678277
 40
0.220577111826379
 40
0.2359295815784271
 40
0.2500512891535197
 40
0.2849026059679097
 40
0.3264789802143451
 40
0.3748710591760501
 40
0.3932245645775634
 40
0.4097806282254562
 40
0.4245404603337671
 40
0.4375060314395654
 40
0.4702107541788693
 40
0.4999892667314522
 40
0.5297467782422691
 40
0.5624402498405137
 40
0.5901193917548845
 40
0.6249672064517506
 40
0.6466372316112272
 40
0.6670357476803188
 40
0.68616805339786
 40
0.7040406516309565
 40
0.7206616024882946
 40
0.736041013492687
 40
0.7501917330340059
 40
0.7849807220980746
 40
0.8265111602618054
 40
0.874873859723948
 40
0.8931741800647994
 40
0.9097174713228641
 40
0.9245050010307475
 40
0.9375387878437017
 40
0.9702671785935492
 40
1.0
 40
1.02972420954303
 40
1.062429901945394
 40
1.090209764777912
 10
210.0083276492922
 20
109.8014929412189
 30
0.0
 10
211.0035743217448
 20
109.7076984536523
 30
0.0
 10
211.9987291120576
 20
109.8014763001416
 30
0.0
 10
212.9339182407398
 20
110.0819410460048
 30
0.0
 10
213.8408393780496
 20
110.5553956803893
 30
0.0
 10
214.5461306890191
 20
111.1220410579005
 30
0.0
 10
215.0857377176947
 20
111.7398492661852
 30
0.0
 10
215.4483980840374
 20
112.2852314153168
 30
0.0
 10
215.7232264567624
 20
112.8357023092888
 30
0.0
 10
215.919089740715
 20
113.3771857367445
 30
0.0
 10
216.0459228943467
 20
113.8983175095381
 30
0.0
 10
216.1142922343174
 20
114.3905769248958
 30
0.0
 10
216.1456261390036
 20
115.0841582770281
 30
0.0
 10
216.0377048772493
 20
116.0630986462043
 30
0.0
 10
215.5720887018476
 20
117.3342621789963
 30
0.0
 10
214.8753373396128
 20
118.2810618413597
 30
0.0
 10
214.2124245758474
 20
118.8721151360013
 30
0.0
 10
213.7802967692844
 20
119.1803947617145
 30
0.0
 10
213.3695764587418
 20
119.4164282311188
 30
0.0
 10
212.7825994928849
 20
119.6891759932051
 30
0.0
 10
212.0001187079684
 20
119.9242151880082
 30
0.0
 10
211.0042769498678
 20
120.0182762316932
 30
0.0
 10
210.0083870492267
 20
119.9243884841445
 30
0.0
 10
209.0740488513518
 20
119.6440634313206
 30
0.0
 10
208.1674630935105
 20
119.1710733202284
 30
0.0
 10
207.4620438292447
 20
118.6047244979692
 30
0.0
 10
206.9216335182674
 20
117.9860687145213
 30
0.0
 10
206.5586655499501
 20
117.4401624531343
 30
0.0
 10
206.2836334622273
 20
116.8890400685702
 30
0.0
 10
206.0876883764702
 20
116.3467986306912
 30
0.0
 10
205.960906578363
 20
115.8248234427999
 30
0.0
 10
205.8927264903853
 20
115.3316556294393
 30
0.0
 10
205.8619532932029
 20
114.6381155374911
 30
0.0
 10
205.9704604850971
 20
113.6601359889691
 30
0.0
 10
206.4359960009297
 20
112.3905869246453
 30
0.0
 10
207.1319925532497
 20
111.4450302681102
 30
0.0
 10
207.7940348888732
 20
110.8545685186748
 30
0.0
 10
208.2257192811504
 20
110.5463700350876
 30
0.0
 10
208.6371460190782
 20
110.3097592872847
 30
0.0
 10
209.2252985256439
 20
110.0364572550817
 30
0.0
 10
210.0083276492922
 20
109.8014929412189
 30
0.0
 10
211.0035743217448
 20
109.7076984536523
 30
0.0
 10
211.9987291120576
 20
109.8014763001416
 30
0.0
  0
SPLINE
  5
CB
330
1F
100
AcDbEntity
  8
0
  6
HIDDEN
 62
     7
370
     0
100
AcDbSpline
210
0.0
220
0.0
230
1.0
 70
     8
 71
     3
 72
    15
 73
    11
 74
     0
 42
0.00000001
 43
0.00000001
 12
1.0
 22
0.0
 32
0.0
 13
1.0
 23
0.0
 33
0.0
 40
0.0
 40
0.0
 40
0.0
 40
0.0
 40
0.1409172169897704
 40
0.2818898291171903
 40
0.4212989265166057
 40
0.5593768372264385
 40
0.6988856205980568
 40
0.840367197904641
 40
0.9813164454670267
 40
1.0
 40
1.0
 40
1.0
 40
1.0
 10
96.75869400944617
 20
95.02541843642624
 30
0.0
 10
96.44265232317362
 20
95.06577225374788
 30
0.0
 10
95.8104447133416
 20
95.1464957516427
 30
0.0
 10
94.57628159166437
 20
95.22305084924497
 30
0.0
 10
93.30555959080586
 20
95.21837479810593
 30
0.0
 10
92.1170001857784
 20
95.13757878637371
 30
0.0
 10
91.12387751299735
 20
95.01318198986198
 30
0.0
 10
90.48446850670075
 20
94.90677845119986
 30
0.0
 10
90.20344840011722
 20
94.85369779052269
 30
0.0
 10
90.2700091378104
 20
94.86595383053695
 30
0.0
 10
90.27779946132864
 20
94.86738828754677
 30
0.0
  0
SPLINE
  5
CC
330
1F
100
AcDbEntity
  8
0
  6
HIDDEN
 62
     7
370
     0
100
AcDbSpline
210
0.0
220
0.0
230
1.0
 70
     8
 71
     3
 72
    15
 73
    11
 74
     0
 42
0.00000001
 43
0.00000001
 12
1.0
 22
0.0
 32
0.0
 13
1.0
 23
0.0
 33
0.0
 40
0.0
 40
0.0
 40
0.0
 40
0.0
 40
0.1201202395113828
 40
0.2584739316900693
 40
0.3987301965958639
 40
0.54040228904327
 40
0.6807395403003644
 40
0.8190356063860877
 40
0.9577823106998845
 40
1.0
 40
1.0
 40
1.0
 40
1.0
 10
90.27779946132864
 20
134.8585055369386
 30
0.0
 10
90.29850859779911
 20
134.854480943085
 30
0.0
 10
90.3430703797869
 20
134.8458208488242
 30
0.0
 10
90.9055099856596
 20
134.7465297222155
 30
0.0
 10
91.79897219798094
 20
134.6226121322342
 30
0.0
 10
92.95795135217313
 20
134.5229016954128
 30
0.0
 10
94.23098823229847
 20
134.4957632063372
 30
0.0
 10
95.46527350694205
 20
134.5511020405011
 30
0.0
 10
96.29323630370808
 20
134.6375806394852
 30
0.0
 10
96.67064684837206
 20
134.6885780577751
 30
0.0
 10
96.7586940094462
 20
134.7004753880591
 30
0.0
  0
SPLINE
  5
CD
330
1F
100
AcDbEntity
  8
0
  6
HIDDEN
 62
     7
370
     0
100
AcDbSpline
210
0.0
220
0.0
230
1.0
 70
     8
 71
     3
 72
    10
 73
     6
 74
     0
 42
0.00000001
 43
0.00000001
 12
1.0
 22
0.0
 32
0.0
 13
1.0
 23
0.0
 33
0.0
 40
0.0
 40
0.0
 40
0.0
 40
0.0
 40
0.4474980330246504
 40
0.8949793102011562
 40
1.0
 40
1.0
 40
1.0
 40
1.0
 10
96.75869400944617
 20
134.7004753880592
 30
0.0
 10
97.00540387513176
 20
134.7299880965386
 30
0.0
 10
97.49881436884655
 20
134.7890124084412
 30
0.0
 10
97.78783223483015
 20
134.8029503820142
 30
0.0
 10
97.72742596241667
 20
134.7990574768359
 30
0.0
 10
97.71594381615073
 20
134.7983175055569
 30
0.0
  0
SPLINE
  5
CE
330
1F
100
AcDbEntity
  8
0
  6
HIDDEN
 62
     7
370
     0
100
AcDbSpline
210
0.0
220
0.0
230
1.0
 70
     8
 71
     3
 72
    10
 73
     6
 74
     0
 42
0.00000001
 43
0.00000001
 12
1.0
 22
0.0
 32
0.0
 13
1.0
 23
0.0
 33
0.0
 40
0.0
 40
0.0
 40
0.0
 40
0.0
 40
0.3454371160332159
 40
0.796685321207651
 40
0.9999999999999999
 40
0.9999999999999999
 40
0.9999999999999999
 40
0.9999999999999999
 10
97.71595509783636
 20
94.92757555202726
 30
0.0
 10
97.7063950272969
 20
94.92813118730372
 30
0.0
 10
97.68434653419936
 20
94.92941265489405
 30
0.0
 10
97.26742062894631
 20
94.95936892843484
 30
0.0
 10
96.8792608522298
 20
95.00976488038908
 30
0.0
 10
96.75869400944617
 20
95.02541843642624
 30
0.0
  0
LINE
  5
CF
330
1F
100
AcDbEntity
  8
0
  6
HIDDEN
 62
     7
370
     0
100
AcDbLine
 10
84.0076666041
 20
97.8629469122
 30
0.0
 11
84.0076666041
 21
131.8629469122
 31
0.0
  0
LWPOLYLINE
  5
D0
330
1F
100
AcDbEntity
  8
0
  6
HIDDEN
 62
     7
370
     0
100
AcDbPolyline
 90
       13
 70
   128
 43
0.0
 10
111.0036920078
 20
136.8085493269
 10
111.8635737687
 20
136.8553082155
 10
112.6832484141
 20
136.9933984875
 10
113.4243888686
 20
137.2163631955
 10
114.0523402284
 20
137.5137767573
 10
114.5377401856
 20
137.8717324455
 10
114.8578919779
 20
138.2734926498
 10
114.9978256632
 20
138.7002715097
 10
114.950998098
 20
139.13211332
 10
114.7195988871
 20
139.5488256376
 10
114.3144480005
 20
139.9309234576
 10
113.7544898433
 20
140.2605403107
 10
113.3688413507
 20
140.4214712551
  0
LWPOLYLINE
  5
D1
330
1F
100
AcDbEntity
  8
0
  6
HIDDEN
 62
     7
370
     0
100
AcDbPolyline
 90
       13
 70
   128
 43
0.0
 10
108.6314306389
 20
140.4188579927
 10
108.2528941724
 20
140.2605403107
 10
107.6929360152
 20
139.9309234576
 10
107.2877851286
 20
139.5488256376
 10
107.0563859177
 20
139.13211332
 10
107.0095583524
 20
138.7002715097
 10
107.1494920378
 20
138.2734926498
 10
107.4696438301
 20
137.8717324455
 10
107.9550437873
 20
137.5137767573
 10
108.5829951471
 20
137.2163631955
 10
109.3241356016
 20
136.9933984875
 10
110.143810247
 20
136.8553082155
 10
111.0036920078
 20
136.8085493269
  0
SPLINE
  5
D2
330
1F
100
AcDbEntity
  8
0
  6
HIDDEN
 62
     7
370
     0
100
AcDbSpline
210
0.0
220
0.0
230
1.0
 70
     8
 71
     3
 72
     8
 73
     4
 74
     0
 42
0.00000001
 43
0.00000001
 12
1.0
 22
0.0
 32
0.0
 13
1.0
 23
0.0
 33
0.0
 40
0.0
 40
0.0
 40
0.0
 40
0.0
 40
0.0011559732291308
 40
0.0011559732291308
 40
0.0011559732291308
 40
0.0011559732291308
 10
71.10369200784459
 20
116.8627875308754
 30
0.0
 10
71.4370265829119
 20
116.8588202510761
 30
0.0
 10
71.77035777393864
 20
116.8546403684995
 30
0.0
 10
72.10369200784459
 20
116.8500752150917
 30
0.0
  0
SPLINE
  5
D3
330
1F
100
AcDbEntity
  8
0
  6
HIDDEN
 62
     7
370
     0
100
AcDbSpline
210
0.0
220
0.0
230
1.0
 70
     8
 71
     3
 72
    11
 73
     7
 74
     0
 42
0.00000001
 43
0.00000001
 12
1.0
 22
0.0
 32
0.0
 13
1.0
 23
0.0
 33
0.0
 40
0.0
 40
0.0
 40
0.0
 40
0.0
 40
0.0005782382535738
 40
0.0005782382535738
 40
0.0005782382535738
 40
0.0011564766069467
 40
0.0011564766069467
 40
0.0011564766069467
 40
0.0011564766069467
 10
72.10369200784457
 20
112.8662466100244
 30
0.0
 10
71.93703805387595
 20
112.8658090322628
 30
0.0
 10
71.770377381674
 20
112.8653289675904
 30
0.0
 10
71.60371049300859
 20
112.8648094282211
 30
0.0
 10
71.43704357461253
 20
112.8642898887591
 30
0.0
 10
71.2703704447793
 20
112.8637310597371
 30
0.0
 10
71.10369200784457
 20
112.863145516154
 30
0.0
  0
LINE
  5
D4
330
1F
100
AcDbEntity
  8
0
  6
HIDDEN
 62
     7
370
     0
100
AcDbLine
 10
110.6635179764
 20
97.8629469122
 30
0.0
 11
110.6635179764
 21
131.8629469122
 31
0.0
  0
LINE
  5
D5
330
1F
100
AcDbEntity
  8
0
  6
HIDDEN
 62
     7
370
     0
100
AcDbLine
 10
112.9536920078
 20
99.1379469122
 30
0.0
 11
112.9536920078
 21
130.5879469115
 31
0.0
  0
SPLINE
  5
D6
330
1F
100
AcDbEntity
  8
0
  6
HIDDEN
 62
     7
370
     0
100
AcDbSpline
210
0.0
220
0.0
230
1.0
 70
     8
 71
     3
 72
    16
 73
    12
 74
     0
 42
0.00000001
 43
0.00000001
 12
1.0
 22
0.0
 32
0.0
 13
1.0
 23
0.0
 33
0.0
 40
0.0
 40
0.0
 40
0.0
 40
0.0
 40
0.124999999999998
 40
0.124999999999998
 40
0.249999999999996
 40
0.249999999999996
 40
0.4999999999999973
 40
0.4999999999999973
 40
0.7499999999999987
 40
0.7499999999999987
 40
1.0
 40
1.0
 40
1.0
 40
1.0
 10
79.80369200784457
 20
99.06145647621105
 30
0.0
 10
79.8988137625104
 20
99.06145647621105
 30
0.0
 10
79.99214383123848
 20
99.05764064281824
 30
0.0
 10
80.17540559197649
 20
99.04287009008844
 30
0.0
 10
80.2662833075335
 20
99.03171204211286
 30
0.0
 10
80.52308500505323
 20
98.98924077197113
 30
0.0
 10
80.67815236992523
 20
98.94819457476834
 30
0.0
 10
80.93189883147984
 20
98.85304845818645
 30
0.0
 10
81.0327692831477
 20
98.79828572410487
 30
0.0
 10
81.16801569784255
 20
98.68702460020098
 30
0.0
 10
81.20369200784458
 20
98.6298548628723
 30
0.0
 10
81.20369200784458
 20
98.57543328983859
 30
0.0
  0
SPLINE
  5
D7
330
1F
100
AcDbEntity
  8
0
  6
HIDDEN
 62
     7
370
     0
100
AcDbSpline
210
0.0
220
0.0
230
1.0
 70
     8
 71
     3
 72
     8
 73
     4
 74
     0
 42
0.00000001
 43
0.00000001
 12
1.0
 22
0.0
 32
0.0
 13
1.0
 23
0.0
 33
0.0
 40
0.0
 40
0.0
 40
0.0
 40
0.0
 40
1.0
 40
1.0
 40
1.0
 40
1.0
 10
72.40369200784563
 20
101.2062594222933
 30
0.0
 10
72.40369200784755
 20
100.3223622799763
 30
0.0
 10
72.39021138193803
 20
99.60777903491442
 30
0.0
 10
72.38886001374695
 20
99.06145647621106
 30
0.0
  0
LINE
  5
D8
330
1F
100
AcDbEntity
  8
0
  6
HIDDEN
 62
     7
370
     0
100
AcDbLine
 10
72.1036920078
 20
105.2621201275
 30
0.0
 11
72.1036920078
 21
102.2311696816
 31
0.0
  0
SPLINE
  5
D9
330
1F
100
AcDbEntity
  8
0
  6
HIDDEN
 62
     7
370
     0
100
AcDbSpline
210
0.0
220
0.0
230
1.0
 70
     8
 71
     3
 72
    10
 73
     6
 74
     0
 42
0.00000001
 43
0.00000001
 12
1.0
 22
0.0
 32
0.0
 13
1.0
 23
0.0
 33
0.0
 40
0.0
 40
0.0
 40
0.0
 40
0.0
 40
0.5
 40
0.5
 40
1.0
 40
1.0
 40
1.0
 40
1.0
 10
72.40369200780802
 20
106.6299605365999
 30
0.0
 10
72.40369200780802
 20
106.3879765704279
 30
0.0
 10
72.37554197906185
 20
106.1536341428087
 30
0.0
 10
72.27195206609115
 20
105.6982591230738
 30
0.0
 10
72.19532335732946
 20
105.4766545611917
 30
0.0
 10
72.10369200784459
 20
105.2621201274824
 30
0.0
  0
LINE
  5
DA
330
1F
100
AcDbEntity
  8
0
  6
HIDDEN
 62
     7
370
     0
100
AcDbLine
 10
72.4036920078
 20
118.4675805338
 30
0.0
 11
72.4036920078
 21
106.6299605366
 31
0.0
  0
SPLINE
  5
DB
330
1F
100
AcDbEntity
  8
0
  6
HIDDEN
 62
     7
370
     0
100
AcDbSpline
210
0.0
220
0.0
230
1.0
 70
     8
 71
     3
 72
     8
 73
     4
 74
     0
 42
0.00000001
 43
0.00000001
 12
1.0
 22
0.0
 32
0.0
 13
1.0
 23
0.0
 33
0.0
 40
0.0
 40
0.0
 40
0.0
 40
0.0
 40
1.0
 40
1.0
 40
1.0
 40
1.0
 10
72.10369200784459
 20
124.4698862255219
 30
0.0
 10
72.28472347251156
 20
124.0377787421105
 30
0.0
 10
72.40369200781377
 20
123.5836333385341
 30
0.0
 10
72.40369200780805
 20
123.0959332878546
 30
0.0
  0
LINE
  5
DC
330
1F
100
AcDbEntity
  8
0
  6
HIDDEN
 62
     7
370
     0
100
AcDbLine
 10
72.1036920078
 20
127.5030892257
 30
0.0
 11
72.1036920078
 21
124.4698862255
 31
0.0
  0
SPLINE
  5
DD
330
1F
100
AcDbEntity
  8
0
  6
HIDDEN
 62
     7
370
     0
100
AcDbSpline
210
0.0
220
0.0
230
1.0
 70
     8
 71
     3
 72
    10
 73
     6
 74
     0
 42
0.00000001
 43
0.00000001
 12
1.0
 22
0.0
 32
0.0
 13
1.0
 23
0.0
 33
0.0
 40
0.0
 40
0.0
 40
0.0
 40
0.0
 40
0.5
 40
0.5
 40
1.0
 40
1.0
 40
1.0
 40
1.0
 10
72.40369200794972
 20
128.5196344021626
 30
0.0
 10
72.40369200794792
 20
128.3549980565699
 30
0.0
 10
72.37653333752328
 20
128.1878428337842
 30
0.0
 10
72.27076834346455
 20
127.8492198281233
 30
0.0
 10
72.1943535559424
 20
127.6769480519634
 30
0.0
 10
72.10369200784459
 20
127.5030892257136
 30
0.0
  0
SPLINE
  5
DE
330
1F
100
AcDbEntity
  8
0
  6
HIDDEN
 62
     7
370
     0
100
AcDbSpline
210
0.0
220
0.0
230
1.0
 70
     8
 71
     3
 72
    18
 73
    14
 74
     0
 42
0.00000001
 43
0.00000001
 12
1.0
 22
0.0
 32
0.0
 13
1.0
 23
0.0
 33
0.0
 40
0.0
 40
0.0
 40
0.0
 40
0.0
 40
0.2500000000000033
 40
0.2500000000000033
 40
0.3750000000000029
 40
0.3750000000000029
 40
0.5000000000000026
 40
0.5000000000000026
 40
0.6250000000000022
 40
0.6250000000000022
 40
0.7500000000000018
 40
0.7500000000000018
 40
1.0
 40
1.0
 40
1.0
 40
1.0
 10
77.20369200784458
 20
131.1504605346468
 30
0.0
 10
77.20369200784458
 20
131.0959860140946
 30
0.0
 10
77.16878131645241
 20
131.0396049547421
 30
0.0
 10
77.06677201511935
 20
130.9555281138887
 30
0.0
 10
77.02513566044125
 20
130.9281944098977
 30
0.0
 10
76.92672986495249
 20
130.8752404942988
 30
0.0
 10
76.8691866532482
 20
130.8493531405816
 30
0.0
 10
76.74188847967527
 20
130.8015755957483
 30
0.0
 10
76.6723011749178
 20
130.7796276775705
 30
0.0
 10
76.52086692976285
 20
130.7401951126577
 30
0.0
 10
76.4381830266689
 20
130.7226388634319
 30
0.0
 10
76.18207156463085
 20
130.6802000980113
 30
0.0
 10
75.99415656074287
 20
130.6644373482744
 30
0.0
 10
75.80369200784457
 20
130.6644373482744
 30
0.0
  0
LINE
  5
DF
330
1F
100
AcDbEntity
  8
0
  6
HIDDEN
 62
     7
370
     0
100
AcDbLine
 10
75.8036920078
 20
130.6644373483
 30
0.0
 11
72.4036920079
 21
130.6644373483
 31
0.0
  0
LINE
  5
E0
330
1F
100
AcDbEntity
  8
0
  6
HIDDEN
 62
     7
370
     0
100
AcDbLine
 10
72.3347230212
 20
99.0614564762
 30
0.0
 11
79.8036920078
 21
99.0614564762
 31
0.0
  0
SPLINE
  5
E1
330
1F
100
AcDbEntity
  8
0
  6
HIDDEN
 62
     7
370
     0
100
AcDbSpline
210
0.0
220
0.0
230
1.0
 70
     8
 71
     3
 72
    22
 73
    18
 74
     0
 42
0.00000001
 43
0.00000001
 12
1.0
 22
0.0
 32
0.0
 13
1.0
 23
0.0
 33
0.0
 40
0.0
 40
0.0
 40
0.0
 40
0.0
 40
0.125
 40
0.125
 40
0.2499999999999999
 40
0.2499999999999999
 40
0.5000000000000003
 40
0.5000000000000003
 40
0.5625000000000004
 40
0.5625000000000004
 40
0.6250000000000006
 40
0.6250000000000006
 40
0.7500000000000004
 40
0.7500000000000004
 40
0.8750000000000002
 40
0.8750000000000002
 40
1.0
 40
1.0
 40
1.0
 40
1.0
 10
72.33472302120248
 20
99.06145647621105
 30
0.0
 10
72.32164062847407
 20
99.31656218635872
 30
0.0
 10
72.30842106503427
 20
99.60972044546263
 30
0.0
 10
72.28597388724016
 20
100.2720209110874
 30
0.0
 10
72.27649542021571
 20
100.6422948316988
 30
0.0
 10
72.2572974592792
 20
101.8648516348126
 30
0.0
 10
72.25841123227607
 20
102.8019905609445
 30
0.0
 10
72.27732202522911
 20
104.1218617904595
 30
0.0
 10
72.28195155308812
 20
104.3933636994358
 30
0.0
 10
72.29243277283406
 20
104.951748534238
 30
0.0
 10
72.29822803411848
 20
105.2388713901777
 30
0.0
 10
72.3165372550234
 20
106.1114606445494
 30
0.0
 10
72.33057218930381
 20
106.7119163209052
 30
0.0
 10
72.36002936144064
 20
107.9493908134013
 30
0.0
 10
72.37558505242218
 20
108.5864069700447
 30
0.0
 10
72.39937960241909
 20
109.8978955677293
 30
0.0
 10
72.40739865456446
 20
110.5740181793898
 30
0.0
 10
72.40369200784458
 20
111.2583132906746
 30
0.0
  0
LINE
  5
E2
330
1F
100
AcDbEntity
  8
0
  6
HIDDEN
 62
     7
370
     0
100
AcDbLine
 10
72.4036920079
 20
118.4675805338
 30
0.0
 11
72.4036920079
 21
130.6644373483
 31
0.0
  0
SPLINE
  5
E3
330
1F
100
AcDbEntity
  8
0
  6
HIDDEN
 62
     7
370
     0
100
AcDbSpline
210
0.0
220
0.0
230
1.0
 70
     8
 71
     3
 72
    10
 73
     6
 74
     0
 42
0.00000001
 43
0.00000001
 12
1.0
 22
0.0
 32
0.0
 13
1.0
 23
0.0
 33
0.0
 40
0.0
 40
0.0
 40
0.0
 40
0.0
 40
0.5
 40
0.5
 40
1.0
 40
1.0
 40
1.0
 40
1.0
 10
72.40369200784457
 20
111.2583132906595
 30
0.0
 10
72.40369200784438
 20
111.5322284387336
 30
0.0
 10
72.37793277797557
 20
111.8031700174632
 30
0.0
 10
72.27472684524217
 20
112.3388610990654
 30
0.0
 10
72.19738868136776
 20
112.6046079025871
 30
0.0
 10
72.10369200784459
 20
112.8662466100245
 30
0.0
  0
SPLINE
  5
E4
330
1F
100
AcDbEntity
  8
0
  6
HIDDEN
 62
     7
370
     0
100
AcDbSpline
210
0.0
220
0.0
230
1.0
 70
     8
 71
     3
 72
    10
 73
     6
 74
     0
 42
0.00000001
 43
0.00000001
 12
1.0
 22
0.0
 32
0.0
 13
1.0
 23
0.0
 33
0.0
 40
0.0
 40
0.0
 40
0.0
 40
0.0
 40
0.5
 40
0.5
 40
1.0
 40
1.0
 40
1.0
 40
1.0
 10
72.10369200784459
 20
116.8500752150917
 30
0.0
 10
72.19692258819569
 20
117.11396902169
 30
0.0
 10
72.27195219972441
 20
117.3801493307884
 30
0.0
 10
72.37701929770394
 20
117.918471902607
 30
0.0
 10
72.40369200794852
 20
118.1912200172227
 30
0.0
 10
72.4036920079497
 20
118.4675805338098
 30
0.0
  0
LINE
  5
E5
330
1F
100
AcDbEntity
  8
0
  6
HIDDEN
 62
     7
370
     0
100
AcDbLine
 10
72.1036920078
 20
112.86624661
 30
0.0
 11
72.1036920078
 21
116.8500752151
 31
0.0
  0
LINE
  5
E6
330
1F
100
AcDbEntity
  8
0
  6
HIDDEN
 62
     7
370
     0
100
AcDbLine
 10
72.2536920078
 20
96.8729469122
 30
0.0
 11
72.2536920078
 21
93.9930091468
 31
0.0
  0
LINE
  5
E7
330
1F
100
AcDbEntity
  8
0
  6
HIDDEN
 62
     7
370
     0
100
AcDbLine
 10
81.2036920078
 20
96.8729469122
 30
0.0
 11
81.2036920078
 21
92.899209381
 31
0.0
  0
LINE
  5
E8
330
1F
100
AcDbEntity
  8
0
  6
HIDDEN
 62
     7
370
     0
100
AcDbLine
 10
72.2536920078
 20
132.8529469122
 30
0.0
 11
72.2536920078
 21
135.7328846776
 31
0.0
  0
LINE
  5
E9
330
1F
100
AcDbEntity
  8
0
  6
HIDDEN
 62
     7
370
     0
100
AcDbLine
 10
77.2036920078
 20
132.8529469122
 30
0.0
 11
77.2036920078
 21
136.7070545846
 31
0.0
  0
LINE
  5
EA
330
1F
100
AcDbEntity
  8
0
  6
HIDDEN
 62
     7
370
     0
100
AcDbLine
 10
124.8036920078
 20
105.3629469122
 30
0.0
 11
124.8036920078
 21
124.3629469122
 31
0.0
  0
LINE
  5
EB
330
1F
100
AcDbEntity
  8
0
  6
HIDDEN
 62
     7
370
     0
100
AcDbLine
 10
121.8036920078
 20
105.3629469122
 30
0.0
 11
121.8036920078
 21
124.3629469122
 31
0.0
  0
LINE
  5
EC
330
1F
100
AcDbEntity
  8
0
  6
HIDDEN
 62
     7
370
     0
100
AcDbLine
 10
113.4536920078
 20
106.3629469122
 30
0.0
 11
113.4536920078
 21
123.3629469122
 31
0.0
  0
LINE
  5
ED
330
1F
100
AcDbEntity
  8
0
  6
HIDDEN
 62
     7
370
     0
100
AcDbLine
 10
128.9536920078
 20
88.4629469122
 30
0.0
 11
122.8160172055
 21
88.4629469122
 31
0.0
  0
LINE
  5
EE
330
1F
100
AcDbEntity
  8
0
  6
HIDDEN
 62
     7
370
     0
100
AcDbLine
 10
107.9536920078
 20
83.3788239294
 30
0.0
 11
107.9536920078
 21
88.4629469122
 31
0.0
  0
LINE
  5
EF
330
1F
100
AcDbEntity
  8
0
  6
HIDDEN
 62
     7
370
     0
100
AcDbLine
 10
115.9536920078
 20
88.4629469122
 30
0.0
 11
107.9536920078
 21
88.4629469122
 31
0.0
  0
LINE
  5
F0
330
1F
100
AcDbEntity
  8
0
  6
HIDDEN
 62
     7
370
     0
100
AcDbLine
 10
119.1913668102
 20
88.4629469122
 30
0.0
 11
115.9536920078
 21
88.4629469122
 31
0.0
  0
LINE
  5
F1
330
1F
100
AcDbEntity
  8
0
  6
HIDDEN
 62
     7
370
     0
100
AcDbLine
 10
115.9536920078
 20
141.2629469122
 30
0.0
 11
107.9536920078
 21
141.2629469122
 31
0.0
  0
LINE
  5
F2
330
1F
100
AcDbEntity
  8
0
  6
HIDDEN
 62
     7
370
     0
100
AcDbLine
 10
128.9536920078
 20
141.2629469122
 30
0.0
 11
122.5193944762
 21
141.2629469122
 31
0.0
  0
LINE
  5
F3
330
1F
100
AcDbEntity
  8
0
  6
HIDDEN
 62
     7
370
     0
100
AcDbLine
 10
119.4879895395
 20
141.2629469122
 30
0.0
 11
115.9536920078
 21
141.2629469122
 31
0.0
  0
SPLINE
  5
F4
330
1F
100
AcDbEntity
  8
0
  6
HIDDEN
 62
     7
370
     0
100
AcDbSpline
210
0.0
220
0.0
230
1.0
 70
     8
 71
     3
 72
    11
 73
     7
 74
     0
 42
0.00000001
 43
0.00000001
 12
1.0
 22
0.0
 32
0.0
 13
1.0
 23
0.0
 33
0.0
 40
0.0
 40
0.0
 40
0.0
 40
0.0
 40
0.0008203708524183
 40
0.0008203708524183
 40
0.0008203708524183
 40
0.0016409967870154
 40
0.0016409967870154
 40
0.0016409967870154
 40
0.0016409967870154
 10
72.25369200784458
 20
99.01091416159998
 30
0.0
 10
72.06253370754592
 20
98.96973513298086
 30
0.0
 10
71.87110663747372
 20
98.93098116075085
 30
0.0
 10
71.67946101395309
 20
98.8946134014723
 30
0.0
 10
71.48775560887263
 20
98.85823429770626
 30
0.0
 10
71.29581665681368
 20
98.82424004693873
 30
0.0
 10
71.10369200974287
 20
98.7925919215475
 30
0.0
  0
ELLIPSE
  5
F5
330
1F
100
AcDbEntity
  8
0
  6
HIDDEN
 62
     7
370
     0
100
AcDbEllipse
 10
66.8612601451
 20
114.8629469122
 30
0.0
 11
20.19992452772428
 21
-1.421085471520200E-14
 31
0.0
210
0.0
220
0.0
230
1.0
 40
0.816496581
 41
1.300566354937166
 42
1.359198697442763
  0
LINE
  5
F6
330
1F
100
AcDbEntity
  8
0
  6
HIDDEN
 62
     7
370
     0
100
AcDbLine
 10
187.0036920078
 20
107.9629469122
 30
0.0
 11
187.0036920078
 21
121.7629469122
 31
0.0
  0
LINE
  5
F7
330
1F
100
AcDbEntity
  8
0
  6
HIDDEN
 62
     7
370
     0
100
AcDbLine
 10
191.0036920078
 20
107.8629469122
 30
0.0
 11
191.0036920078
 21
121.8629469122
 31
0.0
  0
LINE
  5
F8
330
1F
100
AcDbEntity
  8
0
  6
HIDDEN
 62
     7
370
     0
100
AcDbLine
 10
72.2536920078
 20
96.8729469122
 30
0.0
 11
72.2536920078
 21
99.0109141616
 31
0.0
  0
LINE
  5
F9
330
1F
100
AcDbEntity
  8
0
  6
HIDDEN
 62
     7
370
     0
100
AcDbLine
 10
72.3347230212
 20
99.0614564762
 30
0.0
 11
72.2536920078
 21
99.0109141616
 31
0.0
  0
LINE
  5
FA
330
1F
100
AcDbEntity
  8
0
  6
HIDDEN
 62
     7
370
     0
100
AcDbLine
 10
81.2036920078
 20
96.8729469122
 30
0.0
 11
81.2036920078
 21
98.5754332898
 31
0.0
  0
LINE
  5
FB
330
1F
100
AcDbEntity
  8
0
  6
HIDDEN
 62
     7
370
     0
100
AcDbLine
 10
72.2536920078
 20
132.8529469122
 30
0.0
 11
72.2536920078
 21
130.7575713612
 31
0.0
  0
SPLINE
  5
FC
330
1F
100
AcDbEntity
  8
0
  6
HIDDEN
 62
     7
370
     0
100
AcDbSpline
210
0.0
220
0.0
230
1.0
 70
     8
 71
     3
 72
     8
 73
     4
 74
     0
 42
0.00000001
 43
0.00000001
 12
1.0
 22
0.0
 32
0.0
 13
1.0
 23
0.0
 33
0.0
 40
0.0
 40
0.0
 40
0.0
 40
0.0
 40
1.0
 40
1.0
 40
1.0
 40
1.0
 10
72.25369200784458
 20
130.7575713612412
 30
0.0
 10
72.30369750569203
 20
130.7265355877084
 30
0.0
 10
72.3536975752604
 20
130.6954909433676
 30
0.0
 10
72.40369200794973
 20
130.6644373482744
 30
0.0
  0
LINE
  5
FD
330
1F
100
AcDbEntity
  8
0
  6
HIDDEN
 62
     7
370
     0
100
AcDbLine
 10
77.2036920078
 20
132.8529469122
 30
0.0
 11
77.2036920078
 21
131.1504605346
 31
0.0
  0
SPLINE
  5
FE
330
1F
100
AcDbEntity
  8
0
  6
HIDDEN
 62
     7
370
     0
100
AcDbSpline
210
0.0
220
0.0
230
1.0
 70
     8
 71
     3
 72
    20
 73
    16
 74
     0
 42
0.00000001
 43
0.00000001
 12
1.0
 22
0.0
 32
0.0
 13
1.0
 23
0.0
 33
0.0
 40
0.0
 40
0.0
 40
0.0
 40
0.0
 40
0.1119595197684142
 40
0.1774767634647507
 40
0.2490961890179794
 40
0.3298422315093885
 40
0.3986125823881415
 40
0.4998893016461092
 40
0.6138510293005034
 40
0.6790150176761197
 40
0.7495394203319945
 40
0.8296829944212418
 40
0.8981246285268906
 40
0.9995320175861913
 40
1.0
 40
1.0
 40
1.0
 40
1.0
 10
97.75253245770745
 20
91.2629531504749
 30
0.0
 10
97.70920871940889
 20
91.27638246851194
 30
0.0
 10
97.64053249723212
 20
91.29767044746792
 30
0.0
 10
97.19535337118184
 20
91.40098125911642
 30
0.0
 10
96.66879508751205
 20
91.51428448917828
 30
0.0
 10
95.9833700663829
 20
91.6372173569709
 30
0.0
 10
95.09005266908407
 20
91.75925181615534
 30
0.0
 10
93.97669328194644
 20
91.87698812393995
 30
0.0
 10
92.86591920131082
 20
91.8889636263156
 30
0.0
 10
91.98117089940541
 20
91.86190533618425
 30
0.0
 10
91.3139743047717
 20
91.81397327177645
 30
0.0
 10
90.77270180254449
 20
91.75767975941186
 30
0.0
 10
90.38512184347233
 20
91.71259684877309
 30
0.0
 10
90.19118532340323
 20
91.67372367407316
 30
0.0
 10
90.25428778363295
 20
91.68442973131391
 30
0.0
 10
90.25457765586829
 20
91.68447891146842
 30
0.0
  0
LINE
  5
FF
330
1F
100
AcDbEntity
  8
0
  6
HIDDEN
 62
     7
370
     0
100
AcDbLine
 10
91.1637039202
 20
91.7952850557
 30
0.0
 11
91.3475492333
 21
91.8134743982
 31
0.0
  0
LINE
  5
100
330
1F
100
AcDbEntity
  8
0
  6
HIDDEN
 62
     7
370
     0
100
AcDbLine
 10
91.3475465349
 20
137.912349995
 30
0.0
 11
91.173473253
 21
137.9295595211
 31
0.0
  0
SPLINE
  5
101
330
1F
100
AcDbEntity
  8
0
  6
HIDDEN
 62
     7
370
     0
100
AcDbSpline
210
0.0
220
0.0
230
1.0
 70
     8
 71
     3
 72
    20
 73
    16
 74
     0
 42
0.00000001
 43
0.00000001
 12
1.0
 22
0.0
 32
0.0
 13
1.0
 23
0.0
 33
0.0
 40
0.0
 40
0.0
 40
0.0
 40
0.0
 40
0.0004889684280502
 40
0.1018319933926956
 40
0.1702475582150564
 40
0.2503692056770218
 40
0.3209568221796114
 40
0.3861816196721121
 40
0.5002554836817364
 40
0.6012243489302103
 40
0.669768055864141
 40
0.750240190758111
 40
0.8220490693822882
 40
0.8877204546071489
 40
1.0
 40
1.0
 40
1.0
 40
1.0
 10
90.25461104062971
 20
138.0413483664352
 30
0.0
 10
90.25430739963281
 20
138.0413999535854
 30
0.0
 10
90.19107148046723
 20
138.0521434331988
 30
0.0
 10
90.38427551426156
 20
138.0132874425401
 30
0.0
 10
90.77122256916945
 20
137.9682639521355
 30
0.0
 10
91.31222949249576
 20
137.9120009900427
 30
0.0
 10
91.9797297539608
 20
137.8640697974485
 30
0.0
 10
92.86555760531415
 20
137.836996341719
 30
0.0
 10
93.97636417740192
 20
137.8488223452987
 30
0.0
 10
95.08843454342518
 20
137.9662714204539
 30
0.0
 10
95.9795348496231
 20
138.0879758086935
 30
0.0
 10
96.66501930043326
 20
138.2107968542681
 30
0.0
 10
97.1930071999708
 20
138.3242351059504
 30
0.0
 10
97.64039115146404
 20
138.427975661589
 30
0.0
 10
97.70920161781851
 20
138.4493984548663
 30
0.0
 10
97.75261812513169
 20
138.4629153355134
 30
0.0
  0
SPLINE
  5
102
330
1F
100
AcDbEntity
  8
0
  6
HIDDEN
 62
     7
370
     0
100
AcDbSpline
210
0.0
220
0.0
230
1.0
 70
     8
 71
     3
 72
     8
 73
     4
 74
     0
 42
0.00000001
 43
0.00000001
 12
1.0
 22
0.0
 32
0.0
 13
1.0
 23
0.0
 33
0.0
 40
0.0
 40
0.0
 40
0.0
 40
0.0
 40
0.000159097691435
 40
0.000159097691435
 40
0.000159097691435
 40
0.000159097691435
 10
72.38886001374695
 20
99.06145647621105
 30
0.0
 10
72.3438085443476
 20
99.03347759257714
 30
0.0
 10
72.298752507038
 20
99.0055060628916
 30
0.0
 10
72.25369200784458
 20
98.97754172422825
 30
0.0
  0
SPLINE
  5
103
330
1F
100
AcDbEntity
  8
0
  6
HIDDEN
 62
     7
370
     0
100
AcDbSpline
210
0.0
220
0.0
230
1.0
 70
     8
 71
     3
 72
    11
 73
     7
 74
     0
 42
0.00000001
 43
0.00000001
 12
1.0
 22
0.0
 32
0.0
 13
1.0
 23
0.0
 33
0.0
 40
0.0
 40
0.0
 40
0.0
 40
0.0
 40
0.0008212909311356
 40
0.0008212909311356
 40
0.0008212909311356
 40
0.0016428257242859
 40
0.0016428257242859
 40
0.0016428257242859
 40
0.0016428257242859
 10
72.25369200784458
 20
98.97754172422825
 30
0.0
 10
72.06254698636222
 20
98.93425553539845
 30
0.0
 10
71.87112865068566
 20
98.89331902578442
 30
0.0
 10
71.67948257602454
 20
98.85471725442159
 30
0.0
 10
71.48777949448292
 20
98.81610400060825
 30
0.0
 10
71.29583437119751
 20
98.7798237913465
 30
0.0
 10
71.10369200784456
 20
98.74585688501979
 30
0.0
  0
LINE
  5
104
330
1F
100
AcDbEntity
  8
0
  6
HIDDEN
 62
     7
370
     0
100
AcDbLine
 10
119.0936920078
 20
134.9988135437
 30
0.0
 11
119.0936920078
 21
134.7129469122
 31
0.0
  0
LINE
  5
105
330
1F
100
AcDbEntity
  8
0
  6
HIDDEN
 62
     7
370
     0
100
AcDbLine
 10
122.9136920078
 20
135.0071900821
 30
0.0
 11
122.9136920078
 21
134.7129469122
 31
0.0
  0
LINE
  5
106
330
1F
100
AcDbEntity
  8
0
  6
HIDDEN
 62
     7
370
     0
100
AcDbLine
 10
124.3956248393
 20
139.3216365746
 30
0.0
 11
124.3956248393
 21
134.7129469122
 31
0.0
  0
SPLINE
  5
107
330
1F
100
AcDbEntity
  8
0
  6
HIDDEN
 62
     7
370
     0
100
AcDbSpline
210
0.0
220
0.0
230
1.0
 70
     8
 71
     3
 72
    24
 73
    20
 74
     0
 42
0.00000001
 43
0.00000001
 12
1.0
 22
0.0
 32
0.0
 13
1.0
 23
0.0
 33
0.0
 40
0.0
 40
0.0
 40
0.0
 40
0.0
 40
0.25
 40
0.25
 40
0.374999999999999
 40
0.374999999999999
 40
0.4374999999999993
 40
0.4374999999999993
 40
0.4687499999999994
 40
0.4687499999999994
 40
0.4999999999999995
 40
0.4999999999999995
 40
0.5624999999999971
 40
0.5624999999999971
 40
0.6249999999999947
 40
0.6249999999999947
 40
0.7499999999999947
 40
0.7499999999999947
 40
1.0
 40
1.0
 40
1.0
 40
1.0
 10
71.16635538256799
 20
95.18839436746195
 30
0.0
 10
71.18010850123821
 20
95.25904442545225
 30
0.0
 10
71.19788106864408
 20
95.32564253821718
 30
0.0
 10
71.25013216019943
 20
95.39974055845038
 30
0.0
 10
71.27116723578101
 20
95.42099836561194
 30
0.0
 10
71.32406764340942
 20
95.42914429175818
 30
0.0
 10
71.34517331628734
 20
95.42820448836241
 30
0.0
 10
71.39122548496532
 20
95.40718849678507
 30
0.0
 10
71.4095959569487
 20
95.39627969067745
 30
0.0
 10
71.45114759201441
 20
95.36364477973008
 30
0.0
 10
71.47371426477132
 20
95.3421527993587
 30
0.0
 10
71.53649528123134
 20
95.2736868557724
 30
0.0
 10
71.56962504219925
 20
95.2276123975673
 30
0.0
 10
71.62654272868424
 20
95.14260450923264
 30
0.0
 10
71.65072875418801
 20
95.10232420805126
 30
0.0
 10
71.71593670456777
 20
94.9873879815853
 30
0.0
 10
71.75065276475902
 20
94.9168049964383
 30
0.0
 10
71.84386803508991
 20
94.7125992373597
 30
0.0
 10
71.88954057045058
 20
94.58970085503233
 30
0.0
 10
71.92784565394912
 20
94.47282757864475
 30
0.0
  0
SPLINE
  5
108
330
1F
100
AcDbEntity
  8
0
  6
HIDDEN
 62
     7
370
     0
100
AcDbSpline
210
0.0
220
0.0
230
1.0
 70
     8
 71
     3
 72
     8
 73
     4
 74
     0
 42
0.00000001
 43
0.00000001
 12
1.0
 22
0.0
 32
0.0
 13
1.0
 23
0.0
 33
0.0
 40
0.0
 40
0.0
 40
0.0
 40
0.0
 40
0.001156372467817
 40
0.001156372467817
 40
0.001156372467817
 40
0.001156372467817
 10
72.10369200784487
 20
127.5030892257184
 30
0.0
 10
71.77037089264762
 20
127.6321482513452
 30
0.0
 10
71.43703821183955
 20
127.7611085875138
 30
0.0
 10
71.10369200784457
 20
127.8900201172867
 30
0.0
  0
SPLINE
  5
109
330
1F
100
AcDbEntity
  8
0
  6
HIDDEN
 62
     7
370
     0
100
AcDbSpline
210
0.0
220
0.0
230
1.0
 70
     8
 71
     3
 72
    11
 73
     7
 74
     0
 42
0.00000001
 43
0.00000001
 12
1.0
 22
0.0
 32
0.0
 13
1.0
 23
0.0
 33
0.0
 40
0.0
 40
0.0
 40
0.0
 40
0.0
 40
0.000577874610501
 40
0.000577874610501
 40
0.000577874610501
 40
0.001155749485703
 40
0.001155749485703
 40
0.001155749485703
 40
0.001155749485703
 10
71.10369200784459
 20
101.835725049792
 30
0.0
 10
71.27035888425769
 20
101.901537176575
 30
0.0
 10
71.43702560381898
 20
101.9673956568026
 30
0.0
 10
71.60369225186761
 20
102.0333032298249
 30
0.0
 10
71.77035897638623
 20
102.099210833087
 30
0.0
 10
71.93702567080693
 20
102.165167941569
 30
0.0
 10
72.10369200784459
 20
102.2311696815886
 30
0.0
  0
SPLINE
  5
10A
330
1F
100
AcDbEntity
  8
0
  6
HIDDEN
 62
     7
370
     0
100
AcDbSpline
210
0.0
220
0.0
230
1.0
 70
     8
 71
     3
 72
    11
 73
     7
 74
     0
 42
0.00000001
 43
0.00000001
 12
1.0
 22
0.0
 32
0.0
 13
1.0
 23
0.0
 33
0.0
 40
0.0000000000000006
 40
0.0000000000000006
 40
0.0000000000000006
 40
0.0000000000000006
 40
0.000578048606266
 40
0.000578048606266
 40
0.000578048606266
 40
0.001156097351391
 40
0.001156097351391
 40
0.001156097351391
 40
0.001156097351391
 10
71.10369200784459
 20
124.84376140553
 30
0.0
 10
71.27036186388979
 20
124.7813895441248
 30
0.0
 10
71.43702956797421
 20
124.7190356839334
 30
0.0
 10
71.60369587242786
 20
124.6567161238498
 30
0.0
 10
71.77036221312162
 20
124.5943965502154
 30
0.0
 10
71.93702716975022
 20
124.5321113459949
 30
0.0
 10
72.10369200784459
 20
124.4698862255219
 30
0.0
  0
SPLINE
  5
10B
330
1F
100
AcDbEntity
  8
0
  6
HIDDEN
 62
     7
370
     0
100
AcDbSpline
210
0.0
220
0.0
230
1.0
 70
     8
 71
     3
 72
    11
 73
     7
 74
     0
 42
0.00000001
 43
0.00000001
 12
1.0
 22
0.0
 32
0.0
 13
1.0
 23
0.0
 33
0.0
 40
0.0
 40
0.0
 40
0.0
 40
0.0
 40
0.0005782401583357
 40
0.0005782401583357
 40
0.0005782401583357
 40
0.001156480596064
 40
0.001156480596064
 40
0.001156480596064
 40
0.001156480596064
 10
72.10369200784459
 20
105.2621201274824
 30
0.0
 10
71.93704105749585
 20
105.1986946695433
 30
0.0
 10
71.77038146491327
 20
105.1353391460135
 30
0.0
 10
71.60371441248472
 20
105.0720415617921
 30
0.0
 10
71.4370472759209
 20
105.0087439456175
 30
0.0
 10
71.27037266847478
 20
104.9455041508086
 30
0.0
 10
71.10369200784457
 20
104.8823041443044
 30
0.0
  0
CIRCLE
  5
10C
330
1F
100
AcDbEntity
  8
0
  6
HIDDEN
 62
     7
370
     0
100
AcDbCircle
 10
110.0036920078
 20
114.8629469122
 30
0.0
 40
5.0
  0
LINE
  5
10D
330
1F
100
AcDbEntity
  8
0
  6
HIDDEN
 62
     7
370
     0
100
AcDbLine
 10
107.0036920078
 20
129.160782062
 30
0.0
 11
107.0036920078
 21
127.2568875551
 31
0.0
  0
LINE
  5
10E
330
1F
100
AcDbEntity
  8
0
  6
HIDDEN
 62
     7
370
     0
100
AcDbLine
 10
115.0036920078
 20
127.2568875551
 30
0.0
 11
115.0036920078
 21
129.163577418
 31
0.0
  0
LINE
  5
10F
330
1F
100
AcDbEntity
  8
0
  6
HIDDEN
 62
     7
370
     0
100
AcDbLine
 10
103.0036920078
 20
89.5390157663
 30
0.0
 11
103.0978527834
 21
90.2090044975
 31
0.0
  0
LINE
  5
110
330
1F
100
AcDbEntity
  8
0
  6
HIDDEN
 62
     7
370
     0
100
AcDbLine
 10
103.0978527834
 20
139.516889327
 30
0.0
 11
103.0036920078
 21
140.1868780582
 31
0.0
  0
ARC
  5
111
330
1F
100
AcDbEntity
  8
0
  6
HIDDEN
 62
     7
370
     0
100
AcDbCircle
 10
102.5036852552
 20
90.2925092979
 30
0.0
 40
0.6000067526677242
100
AcDbArc
 50
352.0
 51
0.0
  0
ARC
  5
112
330
1F
100
AcDbEntity
  8
0
  6
HIDDEN
 62
     7
370
     0
100
AcDbCircle
 10
102.5036852552
 20
90.2925092979
 30
0.0
 40
0.6000067526677242
100
AcDbArc
 50
0.0
 51
33.5571153394
  0
ARC
  5
113
330
1F
100
AcDbEntity
  8
0
  6
HIDDEN
 62
     7
370
     0
100
AcDbCircle
 10
102.5036852552
 20
139.4333845266
 30
0.0
 40
0.6000067526677253
100
AcDbArc
 50
348.75
 51
8.0
  0
LWPOLYLINE
  5
114
330
1F
100
AcDbEntity
  8
0
  6
HIDDEN
 62
     7
370
     0
100
AcDbPolyline
 90
        3
 70
   128
 43
0.0
 10
103.0921630463
 20
139.316329016
 10
103.0580192133
 20
139.2037718831
 10
103.0036920078
 20
139.1017200116
  0
LINE
  5
115
330
1F
100
AcDbEntity
  8
0
  6
HIDDEN
 62
     7
370
     0
100
AcDbLine
 10
103.1036920078
 20
90.2925092979
 30
0.0
 11
103.1036920078
 21
139.4333845266
 31
0.0
  0
ARC
  5
116
330
1F
100
AcDbEntity
  8
0
  6
HIDDEN
 62
     7
370
     0
100
AcDbCircle
 10
86.0861275731
 20
95.4629469122
 30
0.0
 40
0.5999999999999962
100
AcDbArc
 50
210.0
 51
270.0
  0
ARC
  5
117
330
1F
100
AcDbEntity
  8
0
  6
HIDDEN
 62
     7
370
     0
100
AcDbCircle
 10
86.0861275731
 20
134.2629469122
 30
0.0
 40
0.6000000000000032
100
AcDbArc
 50
90.0
 51
150.0
  0
LINE
  5
118
330
1F
100
AcDbEntity
  8
0
  6
HIDDEN
 62
     7
370
     0
100
AcDbLine
 10
86.0861275731
 20
94.8629469122
 30
0.0
 11
90.2777994613
 21
94.8629469122
 31
0.0
  0
LINE
  5
119
330
1F
100
AcDbEntity
  8
0
  6
HIDDEN
 62
     7
370
     0
100
AcDbLine
 10
90.2777994613
 20
134.8629469122
 30
0.0
 11
86.0861275731
 21
134.8629469122
 31
0.0
  0
ARC
  5
11A
330
1F
100
AcDbEntity
  8
0
  6
HIDDEN
 62
     7
370
     0
100
AcDbCircle
 10
96.7586940094
 20
102.8629469122
 30
0.0
 40
8.000000000000004
100
AcDbArc
 50
276.8813033455
 51
321.3178125465
  0
ARC
  5
11B
330
1F
100
AcDbEntity
  8
0
  6
HIDDEN
 62
     7
370
     0
100
AcDbCircle
 10
96.7586940094
 20
126.8629469122
 30
0.0
 40
8.000000000000004
100
AcDbArc
 50
38.6821874535
 51
83.1303396552
  0
LINE
  5
11C
330
1F
100
AcDbEntity
  8
0
  6
HIDDEN
 62
     7
370
     0
100
AcDbLine
 10
85.5665123309
 20
134.5629469122
 30
0.0
 11
84.0076666041
 21
131.8629469122
 31
0.0
  0
LINE
  5
11D
330
1F
100
AcDbEntity
  8
0
  6
HIDDEN
 62
     7
370
     0
100
AcDbLine
 10
84.0076666041
 20
97.8629469122
 30
0.0
 11
85.5665123309
 21
95.1629469122
 31
0.0
  0
LINE
  5
11E
330
1F
100
AcDbEntity
  8
0
  6
HIDDEN
 62
     7
370
     0
100
AcDbLine
 10
107.0036920078
 20
142.1372807714
 30
0.0
 11
107.0036920078
 21
138.8085493269
 31
0.0
  0
LINE
  5
11F
330
1F
100
AcDbEntity
  8
0
  6
HIDDEN
 62
     7
370
     0
100
AcDbLine
 10
115.0036920078
 20
138.8085493269
 30
0.0
 11
115.0036920078
 21
142.1426131502
 31
0.0
  0
ARC
  5
120
330
1F
100
AcDbEntity
  8
0
  6
HIDDEN
 62
     7
370
     0
100
AcDbCircle
 10
111.4536920078
 20
99.1379469122
 30
0.0
 40
1.5
100
AcDbArc
 50
238.2116693829
 51
0.0
  0
ARC
  5
121
330
1F
100
AcDbEntity
  8
0
  6
HIDDEN
 62
     7
370
     0
100
AcDbCircle
 10
111.4536920078
 20
130.5879469122
 30
0.0
 40
1.500000000000001
100
AcDbArc
 50
0.0
 51
121.7883306171
  0
LINE
  5
122
330
1F
100
AcDbEntity
  8
0
  6
HIDDEN
 62
     7
370
     0
100
AcDbLine
 10
81.2036920078
 20
97.8629469122
 30
0.0
 11
84.0076666041
 21
97.8629469122
 31
0.0
  0
LINE
  5
123
330
1F
100
AcDbEntity
  8
0
  6
HIDDEN
 62
     7
370
     0
100
AcDbLine
 10
84.0076666041
 20
131.8629469122
 30
0.0
 11
77.2036920078
 21
131.8629469122
 31
0.0
  0
LINE
  5
124
330
1F
100
AcDbEntity
  8
0
  6
HIDDEN
 62
     7
370
     0
100
AcDbLine
 10
103.0036920078
 20
97.8629469122
 30
0.0
 11
110.6635179764
 21
97.8629469122
 31
0.0
  0
LINE
  5
125
330
1F
100
AcDbEntity
  8
0
  6
HIDDEN
 62
     7
370
     0
100
AcDbLine
 10
110.6635179764
 20
131.8629469122
 30
0.0
 11
103.0036920078
 21
131.8629469122
 31
0.0
  0
LINE
  5
126
330
1F
100
AcDbEntity
  8
0
  6
HIDDEN
 62
     7
370
     0
100
AcDbLine
 10
121.8036920078
 20
105.3629469122
 30
0.0
 11
124.8036920078
 21
105.3629469122
 31
0.0
  0
LINE
  5
127
330
1F
100
AcDbEntity
  8
0
  6
HIDDEN
 62
     7
370
     0
100
AcDbLine
 10
124.8036920078
 20
124.3629469122
 30
0.0
 11
121.8036920078
 21
124.3629469122
 31
0.0
  0
LINE
  5
128
330
1F
100
AcDbEntity
  8
0
  6
HIDDEN
 62
     7
370
     0
100
AcDbLine
 10
112.9536920078
 20
105.8629469122
 30
0.0
 11
113.4536920078
 21
106.3629469122
 31
0.0
  0
LINE
  5
129
330
1F
100
AcDbEntity
  8
0
  6
HIDDEN
 62
     7
370
     0
100
AcDbLine
 10
113.4536920078
 20
123.3629469122
 30
0.0
 11
112.9536920078
 21
123.8629469122
 31
0.0
  0
LINE
  5
12A
330
1F
100
AcDbEntity
  8
0
  6
HIDDEN
 62
     7
370
     0
100
AcDbLine
 10
113.4536920078
 20
106.3629469122
 30
0.0
 11
121.8036920078
 21
106.3629469122
 31
0.0
  0
LINE
  5
12B
330
1F
100
AcDbEntity
  8
0
  6
HIDDEN
 62
     7
370
     0
100
AcDbLine
 10
121.8036920078
 20
123.3629469122
 30
0.0
 11
113.4536920078
 21
123.3629469122
 31
0.0
  0
LINE
  5
12C
330
1F
100
AcDbEntity
  8
0
  6
HIDDEN
 62
     7
370
     0
100
AcDbLine
 10
107.9536920078
 20
146.3629469122
 30
0.0
 11
107.9536920078
 21
141.2629469122
 31
0.0
  0
ARC
  5
12D
330
1F
100
AcDbEntity
  8
0
  6
HIDDEN
 62
     7
370
     0
100
AcDbCircle
 10
232.7036920078
 20
107.5629469122
 30
0.0
 40
0.3000000000000114
100
AcDbArc
 50
0.0
 51
90.0
  0
ARC
  5
12E
330
1F
100
AcDbEntity
  8
0
  6
HIDDEN
 62
     7
370
     0
100
AcDbCircle
 10
232.7036920078
 20
122.1629469122
 30
0.0
 40
0.3000000000000114
100
AcDbArc
 50
270.0
 51
0.0
  0
LINE
  5
12F
330
1F
100
AcDbEntity
  8
0
  6
HIDDEN
 62
     7
370
     0
100
AcDbLine
 10
187.4036920078
 20
107.5629469122
 30
0.0
 11
190.1089179897
 21
107.5629469122
 31
0.0
  0
LINE
  5
130
330
1F
100
AcDbEntity
  8
0
  6
HIDDEN
 62
     7
370
     0
100
AcDbLine
 10
190.1089179897
 20
122.1629469122
 30
0.0
 11
187.4036920078
 21
122.1629469122
 31
0.0
  0
ARC
  5
131
330
1F
100
AcDbEntity
  8
0
  6
HIDDEN
 62
     7
370
     0
100
AcDbCircle
 10
190.1089179897
 20
107.9629469122
 30
0.0
 40
0.3999999999999915
100
AcDbArc
 50
270.0
 51
290.0
  0
ARC
  5
132
330
1F
100
AcDbEntity
  8
0
  6
HIDDEN
 62
     7
370
     0
100
AcDbCircle
 10
190.1089179897
 20
121.7629469122
 30
0.0
 40
0.3999999999999915
100
AcDbArc
 50
70.0
 51
90.0
  0
ARC
  5
133
330
1F
100
AcDbEntity
  8
0
  6
HIDDEN
 62
     7
370
     0
100
AcDbCircle
 10
187.4036920078
 20
107.9629469122
 30
0.0
 40
0.3999999999999915
100
AcDbArc
 50
180.0
 51
270.0
  0
ARC
  5
134
330
1F
100
AcDbEntity
  8
0
  6
HIDDEN
 62
     7
370
     0
100
AcDbCircle
 10
187.4036920078
 20
121.7629469122
 30
0.0
 40
0.3999999999999915
100
AcDbArc
 50
90.0
 51
180.0
  0
LINE
  5
135
330
1F
100
AcDbEntity
  8
0
  6
HIDDEN
 62
     7
370
     0
100
AcDbLine
 10
190.2457260471
 20
107.5870698639
 30
0.0
 11
191.0036920078
 21
107.8629469122
 31
0.0
  0
LINE
  5
136
330
1F
100
AcDbEntity
  8
0
  6
HIDDEN
 62
     7
370
     0
100
AcDbLine
 10
191.0036920078
 20
121.8629469122
 30
0.0
 11
190.2457260471
 21
122.1388239606
 31
0.0
  0
LINE
  5
137
330
1F
100
AcDbEntity
  8
0
  6
HIDDEN
 62
     7
370
     0
100
AcDbLine
 10
191.0036920078
 20
107.8629469122
 30
0.0
 11
232.7036920078
 21
107.8629469122
 31
0.0
  0
LINE
  5
138
330
1F
100
AcDbEntity
  8
0
  6
HIDDEN
 62
     7
370
     0
100
AcDbLine
 10
232.7036920078
 20
121.8629469122
 30
0.0
 11
191.0036920078
 21
121.8629469122
 31
0.0
  0
LINE
  5
139
330
1F
100
AcDbEntity
  8
0
  6
HIDDEN
 62
     7
370
     0
100
AcDbLine
 10
98.1881298383
 20
90.7835755787
 30
0.0
 11
97.7536976888
 21
91.2626415978
 31
0.0
  0
LINE
  5
13A
330
1F
100
AcDbEntity
  8
0
  6
HIDDEN
 62
     7
370
     0
100
AcDbLine
 10
90.2536943638
 20
91.6843295569
 30
0.0
 11
89.7712606204
 21
91.2052635815
 31
0.0
  0
LINE
  5
13B
330
1F
100
AcDbEntity
  8
0
  6
HIDDEN
 62
     7
370
     0
100
AcDbLine
 10
89.7711386922
 20
138.5206249526
 30
0.0
 11
90.2536894431
 21
138.0415046947
 31
0.0
  0
LINE
  5
13C
330
1F
100
AcDbEntity
  8
0
  6
HIDDEN
 62
     7
370
     0
100
AcDbLine
 10
97.7536918898
 20
138.4632024723
 30
0.0
 11
98.1882342802
 21
138.9423227229
 31
0.0
  0
LINE
  5
13D
330
1F
100
AcDbEntity
  8
0
  6
HIDDEN
 62
     7
370
     0
100
AcDbLine
 10
124.8036920078
 20
110.6129469122
 30
0.0
 11
187.0036920078
 21
110.6129469122
 31
0.0
  0
LINE
  5
13E
330
1F
100
AcDbEntity
  8
0
  6
HIDDEN
 62
     7
370
     0
100
AcDbLine
 10
187.0036920078
 20
119.1129469122
 30
0.0
 11
124.8036920078
 21
119.1129469122
 31
0.0
  0
LINE
  5
13F
330
1F
100
AcDbEntity
  8
0
  6
HIDDEN
 62
     7
370
     0
100
AcDbLine
 10
97.7536920078
 20
91.2631254995
 30
0.0
 11
97.7536920078
 21
94.927546574
 31
0.0
  0
LINE
  5
140
330
1F
100
AcDbEntity
  8
0
  6
HIDDEN
 62
     7
370
     0
100
AcDbLine
 10
90.2536920078
 20
94.8673246803
 30
0.0
 11
90.2536920078
 21
91.6846527947
 31
0.0
  0
LINE
  5
141
330
1F
100
AcDbEntity
  8
0
  6
HIDDEN
 62
     7
370
     0
100
AcDbLine
 10
97.7536920078
 20
134.7983472505
 30
0.0
 11
97.7536920078
 21
138.4626490507
 31
0.0
  0
LINE
  5
142
330
1F
100
AcDbEntity
  8
0
  6
HIDDEN
 62
     7
370
     0
100
AcDbLine
 10
90.2536920078
 20
138.0412495034
 30
0.0
 11
90.2536920078
 21
134.8585691442
 31
0.0
  0
DIMENSION
  5
143
330
1F
100
AcDbEntity
  8
VERMASSUNG
100
AcDbDimension
  2
_D
 10
240.1673889491
 20
107.8629469122
 30
0.0
 11
240.1673889491
 21
114.8629469122
 31
0.0
 70
   160
  1
%%c<>
 71
     2
 42
-1.0
  3
SLDDIMSTYLE0
100
AcDbAlignedDimension
 13
232.7036920078
 23
121.8629469122
 33
0.0
 14
232.7036920078
 24
107.8629469122
 34
0.0
 50
90.0
100
AcDbRotatedDimension
  0
DIMENSION
  5
14F
330
1F
100
AcDbEntity
  8
VERMASSUNG
100
AcDbDimension
  2
_D_1
 10
246.1673889491
 20
92.3629469122
 30
0.0
 11
246.1673889491
 21
114.8629469122
 31
0.0
 70
   160
  1
%%c<>
 71
     2
 42
-1.0
  3
SLDDIMSTYLE0
100
AcDbAlignedDimension
 13
219.0643970245
 23
137.3629469122
 33
0.0
 14
219.0643970245
 24
92.3629469122
 34
0.0
 50
90.0
100
AcDbRotatedDimension
  0
DIMENSION
  5
15A
330
1F
100
AcDbEntity
  8
VERMASSUNG
100
AcDbDimension
  2
_D_2
 10
233.0036920078
 20
148.9367280607
 30
0.0
 11
180.9786920078
 21
148.9367280607
 31
0.0
 70
   160
  1
<>
 71
     2
 42
-1.0
  3
SLDDIMSTYLE0
100
AcDbAlignedDimension
 13
128.9536920078
 23
144.709387236
 33
0.0
 14
233.0036920078
 24
129.5888063906
 34
0.0
100
AcDbRotatedDimension
  0
DIMENSION
  5
164
330
1F
100
AcDbEntity
  8
VERMASSUNG
100
AcDbDimension
  2
_D_3
 10
233.0036920078
 20
154.9367280607
 30
0.0
 11
168.0036920078
 21
154.9367280607
 31
0.0
 70
   160
  1
<>
 71
     2
 42
-1.0
  3
SLDDIMSTYLE0
100
AcDbAlignedDimension
 13
103.0036920078
 23
146.0629469122
 33
0.0
 14
233.0036920078
 24
129.5888063906
 34
0.0
100
AcDbRotatedDimension
  0
DIMENSION
  5
16E
330
1F
100
AcDbEntity
  8
VERMASSUNG
100
AcDbDimension
  2
_D_4
 10
233.0036920078
 20
160.9367280607
 30
0.0
 11
152.0536920078
 21
160.9367280607
 31
0.0
 70
   160
  1
<>
 71
     2
 42
-1.0
  3
SLDDIMSTYLE0
100
AcDbAlignedDimension
 13
71.1036920078
 23
134.5536246587
 33
0.0
 14
233.0036920078
 24
129.5888063906
 34
0.0
100
AcDbRotatedDimension
  0
DIMENSION
  5
178
330
1F
100
AcDbEntity
  8
VERMASSUNG
100
AcDbDimension
  2
_D_5
 10
65.8833152763
 20
83.3629469122
 30
0.0
 11
65.8833152763
 21
114.8629469122
 31
0.0
 70
   160
  1
HSK A %%c<>
 71
     2
 42
-1.0
  3
SLDDIMSTYLE0
100
AcDbAlignedDimension
 13
103.3036920078
 23
146.3629469122
 33
0.0
 14
103.3036920078
 24
83.3629469122
 34
0.0
 50
90.0
100
AcDbRotatedDimension
  0
LINE
  5
184
330
1F
100
AcDbEntity
  8
VERMASSUNG
  6
CENTERX2
370
     0
100
AcDbLine
 10
67.9719393283
 20
114.8629469122
 30
0.0
 11
234.3656554713
 21
114.8629469122
 31
0.0
  0
OLE2FRAME
  5
185
330
1F
100
AcDbEntity
  8
0
100
AcDbOle2Frame
 70
     2
  3
Paintbrush-Bild
 10
13.8511154363
 20
38.264191557
 30
0.0
 11
51.6290888628
 21
31.9806341108
 31
0.0
 71
     2
 72
     0
 73
     1
 90
    12928
310
80552BED0767C5B32B40DDAF6807D121434000000000000000006FFBDDFB85D0
310
4940DDAF6807D121434000000000000000006FFBDDFB85D04940416F4BD60AFB
310
3F4000000000000000002BED0767C5B32B40416F4BD60AFB3F40000000000000
310
0000000000000100000000010000010000000100000000000100000000320000
310
D0CF11E0A1B11AE1000000000000000000000000000000003E000300FEFF0900
310
0600000000000000000000000100000001000000000000000010000002000000
310
01000000FEFFFFFF0000000000000000FFFFFFFFFFFFFFFFFFFFFFFFFFFFFFFF
310
FFFFFFFFFFFFFFFFFFFFFFFFFFFFFFFFFFFFFFFFFFFFFFFFFFFFFFFFFFFFFFFF
310
FFFFFFFFFFFFFFFFFFFFFFFFFFFFFFFFFFFFFFFFFFFFFFFFFFFFFFFFFFFFFFFF
310
FFFFFFFFFFFFFFFFFFFFFFFFFFFFFFFFFFFFFFFFFFFFFFFFFFFFFFFFFFFFFFFF
310
FFFFFFFFFFFFFFFFFFFFFFFFFFFFFFFFFFFFFFFFFFFFFFFFFFFFFFFFFFFFFFFF
310
FFFFFFFFFFFFFFFFFFFFFFFFFFFFFFFFFFFFFFFFFFFFFFFFFFFFFFFFFFFFFFFF
310
FFFFFFFFFFFFFFFFFFFFFFFFFFFFFFFFFFFFFFFFFFFFFFFFFFFFFFFFFFFFFFFF
310
FFFFFFFFFFFFFFFFFFFFFFFFFFFFFFFFFFFFFFFFFFFFFFFFFFFFFFFFFFFFFFFF
310
FFFFFFFFFFFFFFFFFFFFFFFFFFFFFFFFFFFFFFFFFFFFFFFFFFFFFFFFFFFFFFFF
310
FFFFFFFFFFFFFFFFFFFFFFFFFFFFFFFFFFFFFFFFFFFFFFFFFFFFFFFFFFFFFFFF
310
FFFFFFFFFFFFFFFFFFFFFFFFFFFFFFFFFFFFFFFFFFFFFFFFFFFFFFFFFFFFFFFF
310
FFFFFFFFFFFFFFFFFFFFFFFFFFFFFFFFFFFFFFFFFFFFFFFFFFFFFFFFFFFFFFFF
310
FFFFFFFFFFFFFFFFFFFFFFFFFFFFFFFFFFFFFFFFFFFFFFFFFFFFFFFFFFFFFFFF
310
FFFFFFFFFFFFFFFFFFFFFFFFFFFFFFFFFFFFFFFFFFFFFFFFFFFFFFFFFFFFFFFF
310
FDFFFFFFFEFFFFFFFEFFFFFFFEFFFFFF05000000060000000700000008000000
310
090000000A0000000B0000000C0000000D0000000E0000000F00000010000000
310
11000000120000001300000014000000150000001600000017000000FEFFFFFF
310
FFFFFFFFFFFFFFFFFFFFFFFFFFFFFFFFFFFFFFFFFFFFFFFFFFFFFFFFFFFFFFFF
310
FFFFFFFFFFFFFFFFFFFFFFFFFFFFFFFFFFFFFFFFFFFFFFFFFFFFFFFFFFFFFFFF
310
FFFFFFFFFFFFFFFFFFFFFFFFFFFFFFFFFFFFFFFFFFFFFFFFFFFFFFFFFFFFFFFF
310
FFFFFFFFFFFFFFFFFFFFFFFFFFFFFFFFFFFFFFFFFFFFFFFFFFFFFFFFFFFFFFFF
310
FFFFFFFFFFFFFFFFFFFFFFFFFFFFFFFFFFFFFFFFFFFFFFFFFFFFFFFFFFFFFFFF
310
FFFFFFFFFFFFFFFFFFFFFFFFFFFFFFFFFFFFFFFFFFFFFFFFFFFFFFFFFFFFFFFF
310
FFFFFFFFFFFFFFFFFFFFFFFFFFFFFFFFFFFFFFFFFFFFFFFFFFFFFFFFFFFFFFFF
310
FFFFFFFFFFFFFFFFFFFFFFFFFFFFFFFFFFFFFFFFFFFFFFFFFFFFFFFFFFFFFFFF
310
FFFFFFFFFFFFFFFFFFFFFFFFFFFFFFFFFFFFFFFFFFFFFFFFFFFFFFFFFFFFFFFF
310
FFFFFFFFFFFFFFFFFFFFFFFFFFFFFFFFFFFFFFFFFFFFFFFFFFFFFFFFFFFFFFFF
310
FFFFFFFFFFFFFFFFFFFFFFFFFFFFFFFFFFFFFFFFFFFFFFFFFFFFFFFFFFFFFFFF
310
FFFFFFFFFFFFFFFFFFFFFFFFFFFFFFFFFFFFFFFFFFFFFFFFFFFFFFFFFFFFFFFF
310
FFFFFFFFFFFFFFFFFFFFFFFFFFFFFFFFFFFFFFFFFFFFFFFFFFFFFFFFFFFFFFFF
310
52006F006F007400200045006E00740072007900000000000000000000000000
310
0000000000000000000000000000000000000000000000000000000000000000
310
16000500FFFFFFFFFFFFFFFF020000000A00030000000000C000000000000046
310
000000000000000000000000F09EA7F985B6CD0103000000C000000000000000
310
01004F006C006500000000000000000000000000000000000000000000000000
310
0000000000000000000000000000000000000000000000000000000000000000
310
0A000200FFFFFFFFFFFFFFFFFFFFFFFF00000000000000000000000000000000
310
0000000000000000000000000000000000000000000000001400000000000000
310
010043006F006D0070004F0062006A0000000000000000000000000000000000
310
0000000000000000000000000000000000000000000000000000000000000000
310
120002010100000003000000FFFFFFFF00000000000000000000000000000000
310
0000000000000000000000000000000000000000010000004D00000000000000
310
01004F006C006500310030004E00610074006900760065000000000000000000
310
0000000000000000000000000000000000000000000000000000000000000000
310
1A000200FFFFFFFFFFFFFFFFFFFFFFFF00000000000000000000000000000000
310
0000000000000000000000000000000000000000040000002426000000000000
310
FEFFFFFF02000000FEFFFFFFFFFFFFFFFFFFFFFFFFFFFFFFFFFFFFFFFFFFFFFF
310
FFFFFFFFFFFFFFFFFFFFFFFFFFFFFFFFFFFFFFFFFFFFFFFFFFFFFFFFFFFFFFFF
310
FFFFFFFFFFFFFFFFFFFFFFFFFFFFFFFFFFFFFFFFFFFFFFFFFFFFFFFFFFFFFFFF
310
FFFFFFFFFFFFFFFFFFFFFFFFFFFFFFFFFFFFFFFFFFFFFFFFFFFFFFFFFFFFFFFF
310
FFFFFFFFFFFFFFFFFFFFFFFFFFFFFFFFFFFFFFFFFFFFFFFFFFFFFFFFFFFFFFFF
310
FFFFFFFFFFFFFFFFFFFFFFFFFFFFFFFFFFFFFFFFFFFFFFFFFFFFFFFFFFFFFFFF
310
FFFFFFFFFFFFFFFFFFFFFFFFFFFFFFFFFFFFFFFFFFFFFFFFFFFFFFFFFFFFFFFF
310
FFFFFFFFFFFFFFFFFFFFFFFFFFFFFFFFFFFFFFFFFFFFFFFFFFFFFFFFFFFFFFFF
310
FFFFFFFFFFFFFFFFFFFFFFFFFFFFFFFFFFFFFFFFFFFFFFFFFFFFFFFFFFFFFFFF
310
FFFFFFFFFFFFFFFFFFFFFFFFFFFFFFFFFFFFFFFFFFFFFFFFFFFFFFFFFFFFFFFF
310
FFFFFFFFFFFFFFFFFFFFFFFFFFFFFFFFFFFFFFFFFFFFFFFFFFFFFFFFFFFFFFFF
310
FFFFFFFFFFFFFFFFFFFFFFFFFFFFFFFFFFFFFFFFFFFFFFFFFFFFFFFFFFFFFFFF
310
FFFFFFFFFFFFFFFFFFFFFFFFFFFFFFFFFFFFFFFFFFFFFFFFFFFFFFFFFFFFFFFF
310
FFFFFFFFFFFFFFFFFFFFFFFFFFFFFFFFFFFFFFFFFFFFFFFFFFFFFFFFFFFFFFFF
310
FFFFFFFFFFFFFFFFFFFFFFFFFFFFFFFFFFFFFFFFFFFFFFFFFFFFFFFFFFFFFFFF
310
FFFFFFFFFFFFFFFFFFFFFFFFFFFFFFFFFFFFFFFFFFFFFFFFFFFFFFFFFFFFFFFF
310
0100000200000000000000000000000000000000000000000000000000000000
310
0000000000000000000000000000000000000000000000000000000000000000
310
0100FEFF030A0000FFFFFFFF0A00030000000000C00000000000004607000000
310
5042727573680007000000504272757368000700000050427275736800F439B2
310
7100000000000000000000000000000000000000000000000000000000000000
310
0000000000000000000000000000000000000000000000000000000000000000
310
0000000000000000000000000000000000000000000000000000000000000000
310
0000000000000000000000000000000000000000000000000000000000000000
310
0000000000000000000000000000000000000000000000000000000000000000
310
0000000000000000000000000000000000000000000000000000000000000000
310
0000000000000000000000000000000000000000000000000000000000000000
310
0000000000000000000000000000000000000000000000000000000000000000
310
0000000000000000000000000000000000000000000000000000000000000000
310
0000000000000000000000000000000000000000000000000000000000000000
310
0000000000000000000000000000000000000000000000000000000000000000
310
0000000000000000000000000000000000000000000000000000000000000000
310
20260000424D0E260000000000003E00000028000000B40200006E0000000100
310
01000000000000000000130B0000130B00000200000002000000000000FFFFFF
310
FFFFFFFFFFFFFFFFFFFFFFFFFFFFFFFFFFFFFFFFFFFFFFFFFFFFFFFFFFFFFFFF
310
FFFFFFFFFFFFFFFFFFFFFFFFFFFFFFFFFFFFFFFFFFFFFFFFFFFFFFFFFFFFFFFF
310
FFFFFFFFFFFFFFFFFFFFFFFFFFFFFFFFFFFFFFFFFFFFFFFFF000FFFFFFFFFFFF
310
FFFFFFFFFFFFFFFFFFFFFFFFFFFFFFFFFFFFFFFFFFFFFFFFFFFFFFFFFFFFFFFF
310
FFFFFFFFFFFFFFFFFFFFFFFFFFFFFFFFFFFFFFFFFFFFFFFFFFFFFFFFFFFFFFFF
310
FFFFFFFFFFFFFFFFFFFFFFFFFFFFFFFFF000FFFFFFFFFFFFFFFFFFFFFFFFFFFF
310
FFFFFFFFFFFFFFFFFFFFFFFFFFFFFFFFFFFFFFFFFFFFFFFFFFFFFFFFFFFFFFFF
310
FFFFFFFFFFFFFFFFFFFFFFFFFFFFFFFFFFFFFFFFFFFFFFFFFFFFFFFFFFFFFFFF
310
FFFFFFFFFFFFFFFFF000FFFFFFFFFFFFFFFFFFFFFFFFFFFFFFFFFFFFFFFFFFFF
310
FFFFFFFFFFFFFFFFFFFFFFFFFFFFFFFFFFFFFFFFFFFFFFFFFFFFFFFFFFFFFFFF
310
FFFFFFFFFFFFFFFFFFFFFFFFFFFFFFFFFFFFFFFFFFFFFFFFFFFFFFFFFFFFFFFF
310
F000FFFFFFFFFFFFFFFFFFFFFFFFFFFFFFFFFFFFFFFFFFFFFFFFFFFFFFFFFFFF
310
FFFFFFFFFFFFFFFFFFFFFFFFFFFFFFFFFFFFFFFFFFFFFFFFFFFFFFFFFFFFFFFF
310
FFFFFFFFFFFFFFFFFFFFFFFFFFFFFFFFFFFFFFFFFFFFFFFFF000FFFFFFFFFFFF
310
FFFFFFFFFFFFFFFFFFFFFFFFFFFFFFFFFFFFFFFFFFFFFFFFFFFFFFFFFFFFFFFF
310
FFFFFFFFFFFFFFFFFFFFFFFFFFFFFFFFFFFFFFFFFFFFFFFFFFFFFFFFFFFFFFFF
310
FFFFFFFFFFFFFFFFFFFFFFFFFFFFFFFFF000FFFFFFFFFFFFFFFFFFFFFFFFFFFF
310
FFFFFFFFFFFFFFFFFFFFFFFFFFFFFFFFFFFFFFFFFFFFFFFFFFFFFFFFFFFFFFFF
310
FFFFFFFFFFFFFFFFFFFFFFFFFFFFFFFFFFFFFFFFFFFFFFFFFFFFFFFFFFFFFFFF
310
FFFFFFFFFFFFFFFFF000FFFFFFFFFFFFFFFFFFFFFFFFFFFFFFFFFFFFFFFFFFFF
310
FFFFFFFFFFFFFFFFFFFFFFFFFFFFFFFFFFFFFFFFFFFFFFFFFFFFFFFFFFFFFFFF
310
FFFFFFFFFFFFFFFFFFFFFFFFFFFFFFFFFFFFFFFFFFFFFFFFFFFFFFFFFFFFFFFF
310
F000FFFFFFFFFFFFFFFFFFFFFFFFFFFFFFFFFFFFFFFFFFFFFFFFFFFFFFFFFFFF
310
FFFFFFFFFFFFFFFFFFFFFFFFFFFFFFFFFFFFFFFFFFFFFFFFFFFFFFFFFFFFFFFF
310
FFFFFFFFFFFFFFFFFFFFFFFFFFFFFFFFFFFFFFFFFFFFFFFFF000FFFFFFFFFFFF
310
FFFFFFFFFFFFFFFFFFFFFFFFFFFFFFFFFFFFFFFFFFFFFFFFFFFFFFFFFFFFFFFF
310
FFFFFFFFFFFFFFFFFFFFFFFFFFFFFFFFFFFFFFFFFFFFFFFFFFFFFFFFFFFFFFFF
310
FFFFFFFFFFFFFFFFFFFFFFFFFFFFFFFFF000FFFFFFFFFFFFFFFFFFFFFFFFFFFF
310
FFFFFFFFFFFFFFFFFFFFFFFFFFFFFFFFFFFFFFFFFFFFFFFFFFFFFFFFFFFFFFFF
310
FFFFFFFFFFFFFFFFFFFFFFFFFFFFFFFFFFFFFFFFFFFFFFFFFFFFFFFFFFFFFFFF
310
FFFFFFFFFFFFFFFFF000FFFFFFFFFFFFFFFFFFFFFFFFFFFFFFFFFFFFFFFFFFFF
310
FFFFFFFFFFFFFFFFFFFFFFFFFFFFFFFFFFFFFFFFFFFFFFFFFFFFFFFFFFFFFFFF
310
FFFFFFFFFFFFFFFFFFFFFFFFFFFFFFFFFFFFFFFFFFFFFFFFFFFFFFFFFFFFFFFF
310
F000FFFFFFFFFFFFFFFFFFFFFFFFFFFFFFFFFFFFFFFFFFFFFFFFFFFFFFFFFFFF
310
FFFFFFFFFFFFFFFFFFFFFFFFFFFFFFFFFFFFFFFFFFFFFFFFFFFFFFFFFFFFFFFF
310
FFFFFFFFFFFFFFFFFFFFFFFFFFFFFFFFFFFFFFFFFFFFFFFFF000FFFFFFFFFFFF
310
FFFFFFFFFFFFFFFFFFFFFFFFFFFFFFFFFFFFFFFFFFFFFFFFFFFFFFFFFFFFFFFF
310
FFFFFFFFFFFFFFFFFFFFFFFFFFFFFFFFFFFFFFFFFFFFFFFFFFFFFFFFFFFFFFFF
310
FFFFFFFFFFFFFFFFFFFFFFFFFFFFFFFFF000FFFFFFFFFFFFFFFFFFFFFFFFFFFF
310
FFFFFFFFFFFFFFFFFFFFFFFFFFFFFFFFFFFFFFFFFFFFFFFFFFFFFFFFFFFFFFFF
310
FFFFFFFFFFFFFFFFFFFFFFFFFFFFFFFFFFFFFFFFFFFFFFFFFFFFFFFFFFFFFFFF
310
FFFFFFFFFFFFFFFFF000FFFFFFFFFFFFFFFFFFFFFFFFFFFFFFFFFFFFFFFFFFFF
310
FFFFFFFFFFFFFFFFFFFFFFFFFFFFFFFFFFFFFFFFFFFFFFFFFFFFFFFFFFFFFFFF
310
FFFFFFFFFFFFFFFFFFFFFFFFFFFFFFFFFFFFFFFFFFFFFFFFFFFFFFFFFFFFFFFF
310
F000FFFFFFFFFFFFFFFFFFFFFFFFFFFFFFFFFFFFFFFFFFFFFFFFFFFFFFFFFFFF
310
FFFFFFFFFFFFFFFFFFFFFFFFFFFFFFFFFFFFFFFFFFFFFFFFFFFFFFFFFFFFFFFF
310
FFFFFFFFFFFFFFFFFFFFFFFFFFFFFFFFFFFFFFFFFFFFFFFFF000FFFFFFFFFFFF
310
FFFFFFFFFFFFFFFFFFFFFFFFFFFFFFFFFFFFFFFFFFFFFFFFFFFFFFFFFFFFFFFF
310
FFFFFFFFFFFFFFFFFFFFFFFFFFFFFFFFFFFFFFFFFFFFFFFFFFFFFFFFFFFFFFFF
310
FFFFFFFFFFFFFFFFFFFFFFFFFFFFFFFFF000FFFFFFFFFFFFFFFFFFFFFFFFFFFF
310
FFFFFFFFFFFFFFFFFFFFFFFFFFFFFFFFFFFFFFFFFFFFFFFFFFFFFFFFFFFFFFFF
310
FFFFFFFFFFFFFFFFFFFFFFFFFFFFFFFFFFFFFFFFFFFFFFFFFFFFFFFFFFFFFFFF
310
FFFFFFFFFFFFFFFFF000FFFFF80003FFFFFFFFFFFFFFFFFFFFFFFFFFFFFFFFFF
310
FFFFF00007FFFFFFFFFF00007FFFFFF800000000000000007FFFFFFFFFFFFFFF
310
FFFFFFFC001FFFFFFFFFFFFFFC001FFFFFFFFFFFFFFFFFFFFFFFFFFE0007FFFF
310
F000FFFF8000007FFFFFFFF8000FFFFFC0007FFFFF80007FFFFF0000007FFFFF
310
FFF8000007FFFFF800000000000000007FFFFFF0001FFFFFFFFFFFC00001FFFF
310
FFFFFFFFC00001FFFFFFFF000000000003FFFFE000007FFFF000FFFE0000000F
310
FFFFFFF0000FFFFF80007FFFFF80007FFFFC0000001FFFFFFFC0000001FFFFF8
310
00000000000000007FFFFFF0001FFFFFFFFFFE0000003FFFFFFFFFFE0000003F
310
FFFFFF000000000003FFFF0000000FFFF000FFF800000003FFFFFFF00007FFFF
310
80007FFFFF80007FFFF000000007FFFFFF000000003FFFF80000000000000000
310
7FFFFFF0001FFFFFFFFFF80000000FFFFFFFFFF80000000FFFFFFF0000000000
310
03FFFC00000003FFF000FFE000000000FFFFFFF00007FFFF80003FFFFF80007F
310
FFC000000001FFFFFC000000001FFFF800000000000000007FFFFFF0001FFFFF
310
FFFFE000000003FFFFFFFFE000000003FFFFFF000000000003FFF000000000FF
310
F000FF80000000007FFFFFF00007FFFF80003FFFFF80007FFF8000000000FFFF
310
F80000000007FFF800000000000000007FFFFFF0001FFFFFFFFFC000000001FF
310
FFFFFFC000000001FFFFFF000000000003FFC0000000007FF000FF0000000000
310
3FFFFFE00007FFFF00003FFFFF80007FFE00000000003FFFF00000000003FFF8
310
00000000000000007FFFFFF0001FFFFFFFFF8000000000FFFFFFFF8000000000
310
FFFFFF000000000003FF80000000003FF000FE00000000001FFFFFE00003FFFF
310
00003FFFFF80007FFC00000000001FFFE00000000001FFF8000001FFFE000000
310
7FFFFFF0001FFFFFFFFE00000000003FFFFFFE00000000003FFFFF0000000000
310
03FF00000000001FF000FC00000000000FFFFFE00003FFFF00001FFFFF80007F
310
F800000000001FFFC00000000000FFF8000001FFFE0000007FFFFFF0001FFFFF
310
FFFC00000000001FFFFFFC00000000001FFFFF000000000003FE00000000000F
310
F000F8000000000007FFFFE00003FFFF00001FFFFF80007FF800000000000FFF
310
800000000000FFF8000001FFFE0000007FFFFFF0001FFFFFFFF800000000000F
310
FFFFF800000000000FFFFF000000000003FC000000000007F000F80000000000
310
03FFFFC00003FFFE00001FFFFF80007FF0000000000007FF0000000000007FF8
310
000001FFFE0000007FFFFFF0001FFFFFFFF0000000000007FFFFF00000000000
310
07FFFF000000000003F8000000000003F000F0000000000003FFFFC00001FFFE
310
00001FFFFF80007FE0000000000007FE0000000000003FF8000001FFFE000000
310
7FFFFFF0001FFFFFFFF0000000000007FFFFF0000000000007FFFF0000000000
310
03F800001F800003F000E00001FFF00001FFFFC00001FFFE00000FFFFF80007F
310
E00001FFE00003FE00001FFF00003FF8000001FFFE0000007FFFFFF0001FFFFF
310
FFE000003E000003FFFFE000003E000003FFFF000000000003F00001FFF80001
310
F000E00007FFFC0001FFFFC00001FFFE00000FFFFF80007FC0000FFFFC0003FC
310
0000FFFFC0001FF8000001FFFE0000007FFFFFF0001FFFFFFFC00003FFE00001
310
FFFFC00003FFE00001FFFF0001FFFFFFFFF00007FFFE0001F000E0000FFFFF00
310
00FFFF800001FFFC00000FFFFF80007FC0001FFFFE0001FC0001FFFFE0001FF8
310
000001FFFE0000007FFFFFF0001FFFFFFF80000FFFF80000FFFF80000FFFF800
310
00FFFF0003FFFFFFFFE0000FFFFF8000F000C0003FFFFF8000FFFF800000FFFC
310
000007FFFF80007F80003FFFFF0001FC0003FFFFF0001FF8000001FFFE000000
310
7FFFFFF0001FFFFFFF80003FFFFE0000FFFF80003FFFFE0000FFFF0003FFFFFF
310
FFE0003FFFFF8000F000C0003FFFFF8000FFFF800000FFFC000007FFFF80007F
310
80007FFFFF8001F80007FFFFF8000FF8000001FFFE0000007FFFFFF0001FFFFF
310
FF00007FFFFF00007FFF00007FFFFF00007FFF0003FFFFFFFFE0003FFFFFC000
310
F000C0007FFFFFC000FFFF000000FFFC000007FFFF80007F8000FFFFFF8000F8
310
000FFFFFF8000FF8000001FFFE0000007FFFFFF0001FFFFFFF0000FFFFFF8000
310
7FFF0000FFFFFF80007FFF0003FFFFFFFFC0007FFFFFC00070008000FFFFFFC0
310
00FFFF000000FFF8000007FFFF80007F8000FFFFFF8000F8000FFFFFF8000FF8
310
000001FFFE0000007FFFFFF0001FFFFFFE0001FFFFFFC0003FFE0001FFFFFFC0
310
003FFF0003FFFFFFFFC0007FFFFFE00070008000FFFFFFC0007FFF0000007FF8
310
000003FFFF80007F0001FFFFFF8000F8000FFFFFF8000FF8000001FFFE000000
310
7FFFFFF0001FFFFFFE0001FFFFFFC0003FFE0001FFFFFFC0003FFF0003FFFFFF
310
FFC000FFFFFFE00070008000FFFFFFC0007FFF0000007FF8000003FFFF80007F
310
0001FFFFFF8000F8001FFFFFF8000FF8000001FFFE0000007FFFFFF0001FFFFF
310
FE0003FFFFFFE0003FFE0003FFFFFFE0003FFF0003FFFFFFFFC000FFFFFFE000
310
70008000FFFFFFC0007FFE0000007FF8000003FFFF80007F0001FFFFFF8000F0
310
001FFFFFF8000FF8000001FFFE0000007FFFFFF0001FFFFFFC0003FFFFFFE000
310
1FFC0003FFFFFFE0001FFF0003FFFFFFFFC000FFFFFFC00070008000FFFFFF80
310
007FFE0000007FF0000003FFFF80007F0001FFFFFF0000F0001FFFFFF8000FF8
310
000001FFFE0000007FFFFFF0001FFFFFFC0007FFFFFFF0001FFC0007FFFFFFF0
310
001FFF0003FFFFFFFFC000FFFFFFC00070008001FFFFFF0000FFFE0000003FF0
310
000001FFFF80007F0001FFFFFF0000F8001FFFFFF0000FF8000001FFFE000000
310
7FFFFFF0001FFFFFFC0007FFFFFFF0001FFC0007FFFFFFF0001FFF0003FFFFFF
310
FFC001FFFFFF80007000FFFFFFFFFE0000FFFE0008003FF0008001FFFF80007F
310
FFFFFFFFFC0000FFFFFFFFFFE0000FF8000001FFFE0000007FFFFFF0001FFFFF
310
F8000FFFFFFFF8000FF8000FFFFFFFF8000FFF0003FFFFFFFFFFFFFFFFFF0000
310
7000FFFFFFFFFC0000FFFC0008003FF0008001FFFF80007FFFFFFFFFF80001FF
310
FFFFFFFF80000FF8000001FFFE0000007FFFFFF0001FFFFFF8000FFFFFFFF800
310
0FF8000FFFFFFFF8000FFF0003FFFFFFFFFFFFFFFFFE0000F000FFFFFFFFE000
310
00FFFC000C003FE000C001FFFF80007FFFFFFFFFC00001FFFFFFFFFE00001FF8
310
000001FFFE0000007FFFFFF0001FFFFFF8000FFFFFFFF8000FF8000FFFFFFFF8
310
000FFF0003FFFFFFFFFFFFFFFFF00000F000FFFFFFFE000001FFFC000C001FE0
310
00C000FFFF80007FFFFFFFFE000001FFFFFFFFE000001FF80FFFFFFFFFFFFFC0
310
7FFFFFF0001FFFFFF8000FFFFFFFF8000FF8000FFFFFFFF8000FFF0003FFFFFF
310
FFFFFFFFFF800000F000FFFFFFC0000001FFFC001C001FE001C000FFFF80007F
310
FFFFFF80000003FFFFFFF80000001FF80FFFFFFFFFFFFFC07FFFFFF0001FFFFF
310
F8001FFFFFFFFC000FF8001FFFFFFFFC000FFF0003FFFFFFFFFFFFFFF0000001
310
F000FFFFF800000001FFF8001C001FE001C000FFFF80007FFFFFF800000003FF
310
FFFF800000003FF80FFFFFFFFFFFFFC07FFFFFF0001FFFFFF8001FFFFFFFFC00
310
0FF8001FFFFFFFFC000FFF0003FFFFFFFFFFFFFE00000001F000FFFFC0000000
310
03FFF8001E001FC001E000FFFF80007FFFFF8000000007FFFFFC000000003FF8
310
0FFFFFFFFFFFFFC07FFFFFF0001FFFFFF8001FFFFFFFFC000FF8001FFFFFFFFC
310
000FFF0003FFFFFFFFFFFFE000000003F000FFFE0000000007FFF8001E000FC0
310
01E0007FFF80007FFFFE0000000007FFFFE0000000007FF80FFFFFFFFFFFFFC0
310
7FFFFFF0001FFFFFF0001FFFFFFFFC0007F0001FFFFFFFFC0007FF0003FFFFFF
310
FFFFFF0000000003F000FFF80000000007FFF8001E000FC003E0007FFF80007F
310
FFF0000000000FFFFF8000000000FFF80FFFFFFFFFFFFFC07FFFFFF0001FFFFF
310
F0001FFFFFFFFC0007F0001FFFFFFFFC0007FF0003FFFFFFFFFFFC0000000007
310
F000FFE0000000000FFFF0003E000FC003E0007FFF80007FFFC0000000001FFF
310
FE0000000001FFF80FFFFFFFFFFFFFC07FFFFFF0001FFFFFF0001FFFFFFFFC00
310
07F0001FFFFFFFFC0007FF0003FFFFFFFFFFF0000000000FF000FFC000000000
310
1FFFF0003F000F8003F0003FFF80007FFF80000000003FFFF80000000003FFF8
310
0FFFFFFFFFFFFFC07FFFFFF0001FFFFFF0001FFFFFFFFC0007F0001FFFFFFFFC
310
0007FF0003FFFFFFFFFFE0000000001FF000FF00000000007FFFF0003F000780
310
03F0003FFF80007FFF00000000007FFFF00000000007FFF80FFFFFFFFFFFFFC0
310
7FFFFFF0001FFFFFF0001FFFFFFFFC0007F0001FFFFFFFFC0007FF0003FFFFFF
310
FFFF80000000007FF000FE0000000000FFFFE0003F00078007F0003FFF80007F
310
FE0000000001FFFFE0000000001FFFF80FFFFFFFFFFFFFC07FFFFFF0001FFFFF
310
F0001FFFFFFFFC0007F0001FFFFFFFFC0007FF0003FFFFFFFFFF0000000000FF
310
F000FC0000000003FFFFE0007F00078007F0003FFF80007FFC0000000007FFFF
310
C0000000007FFFF80FFFFFFFFFFFFFC07FFFFFF0001FFFFFF8001FFFFFFFFC00
310
0FF8001FFFFFFFFC000FFF0003FFFFFFFFFE0000000003FFF000FC000000000F
310
FFFFE0007F80070007F8001FFF80007FF8000000001FFFFF8000000001FFFFF8
310
0FFFFFFFFFFFFFC07FFFFFF0001FFFFFF8001FFFFFFFFC000FF8001FFFFFFFFC
310
000FFF0003FFFFFFFFFC000000000FFFF000F8000000007FFFFFE0007F800700
310
07F8001FFF80007FF000000000FFFFFF800000000FFFFFF80FFFFFFFFFFFFFC0
310
7FFFFFF0001FFFFFF8000FFFFFFFF8000FF8000FFFFFFFF8000FFF0003FFFFFF
310
FFFC000000007FFFF000F800000007FFFFFFC0007F8003000FF8001FFF80007F
310
F000000007FFFFFF000000007FFFFFF80FFFFFFFFFFFFFC07FFFFFF0001FFFFF
310
F8000FFFFFFFF8000FF8000FFFFFFFF8000FFF0003FFFFFFFFF80000000FFFFF
310
F000F0000000FFFFFFFFC000FF8003000FF8001FFF80007FE0000000FFFFFFFF
310
0000000FFFFFFFF8000001FFFE0000007FFFFFF0001FFFFFF8000FFFFFFFF800
310
0FF8000FFFFFFFF8000FFF0003FFFFFFFFF8000000FFFFFFF000F000000FFFFF
310
FFFFC000FFC002000FF8000FFF80007FE000001FFFFFFFFE000001FFFFFFFFF8
310
000001FFFE0000007FFFFFF0001FFFFFF8000FFFFFFFF8000FF8000FFFFFFFF8
310
000FFF0003FFFFFFFFF000001FFFFFFFF000E00000FFFFFFFFFFC000FFC00200
310
0FFC000FFF80007FE00001FFFFFFFFFE00001FFFFFFFFFF8000001FFFE000000
310
7FFFFFF0001FFFFFFC000FFFFFFFF8001FFC000FFFFFFFF8001FFF0003FFFFFF
310
FFF00001FFFFFFFFF000E00007FFFFFFFFFF8000FFC000001FFC000FFF80007F
310
C0000FFFFFFFFFFE0000FFFFFFFFFFF8000001FFFE0000007FFFFFF0001FFFFF
310
FC0007FFFFFFF0001FFC0007FFFFFFF0001FFF0003FFFFFFFFF00007FFFFFFFF
310
F000E0001FFFFFFFFFFF8000FFC000001FFC000FFF80007FC0003FFFFFFFFFFE
310
0001FFFFFFFFFFF8000001FFFE0000007FFFFFF0001FFFFFFC0007FFFFFFF000
310
1FFC0007FFFFFFF0001FFF0003FFFFFFFFF0001FFFFFFFFFF000E0003FFFFF00
310
03FF8001FFE000001FFC0007FF80007FC0007FFFFF0007FC0003FFFFF0003FF8
310
000001FFFE0000007FFFFFF0001FFFFFFC0003FFFFFFE0001FFC0003FFFFFFE0
310
001FFF0003FFFFFFFFF0003FFFFFFFFFF000E0003FFFFF0001FF8001FFE00000
310
1FFE0007FF80007FC0007FFFFE0003FC0007FFFFE0003FF8000001FFFE000000
310
7FFFFFF0001FFFFFFE0003FFFFFFE0003FFE0003FFFFFFE0003FFF0003FFFFFF
310
FFF0003FFFFF8001F000E0003FFFFF0001FF0001FFE000001FFE0007FF80007F
310
C0007FFFFE0003FC0007FFFFE0003FF8000001FFFE0000007FFFFFF0001FFFFF
310
FE0001FFFFFFC0003FFE0001FFFFFFC0003FFF0003FFFFFFFFF0003FFFFF0001
310
F000E0003FFFFF0003FF0001FFE000003FFE0007FF80007FC0007FFFFE0003FC
310
0007FFFFE0003FF8000001FFFE0000007FFFFFF0001FFFFFFF0001FFFFFFC000
310
7FFF0001FFFFFFC0007FFF0003FFFFFFFFF0003FFFFF0001F000E0003FFFFE00
310
03FF0003FFF000003FFE0003FF80007FC0007FFFFC0003FE0007FFFFE0003FF8
310
000001FFFE0000007FFFFFF0001FFFFFFF0000FFFFFF80007FFF0000FFFFFF80
310
007FFF0003FFFFFFFFF0003FFFFF0001F000E0003FFFFE0003FF0003FFF00000
310
3FFF0003FF80007FC0007FFFFC0007FE0007FFFFC0003FF8000001FFFE000000
310
7FFFFFF0001FFFFFFF80007FFFFF0000FFFF80007FFFFF0000FFFF0003FFFFFF
310
FFF0003FFFFF0003F000E0003FFFFC0003FE0003FFF000003FFF0003FF80007F
310
E0003FFFF80007FE0003FFFFC0007FF8000001FFFE0000007FFFFFF0001FFFFF
310
FF80003FFFFE0000FFFF80003FFFFE0000FFFF0003FFFFFFFFF0001FFFFE0003
310
F000F0001FFFF80003FE0003FFF000007FFF0001FF80007FE0003FFFF00007FE
310
0001FFFF80007FF8000001FFFE0000007FFFFFF0001FFFFFFFC0000FFFF80001
310
FFFFC0000FFFF80001FFFF0003FFFFFFFFF0001FFFFC0003F000F0000FFFF000
310
07FE0007FFF800007FFF0001FF80007FE0001FFFE00007FF0000FFFE00007FF8
310
000001FFFE0000007FFFFFF0001FFFFFFFC00003FFE00001FFFFC00003FFE000
310
01FFFF0003FFFFFFFFF8000FFFF80003F000F00003FFC00007FC0007FFF80000
310
7FFF8001FF80007FF00007FF80000FFF00007FF80000FFF8000001FFFE000000
310
7F80000000000001FFE000003E000003FFFFE000003E000003FFFF0003FFFFFF
310
FFF80003FFE00007F000F800000000000FFC0007FFF800007FFF8001FF80007F
310
F000000000000FFF000000000000FFF8000001FFFE0000007F80000000000001
310
FFF0000000000007FFFFF0000000000007FFFF0003FFFFFFFFFC00007E000007
310
F000F800000000000FFC0007FFF80000FFFF8000FF80007FF800000000001FFF
310
800000000001FFF8000001FFFE0000007F80000000000001FFF800000000000F
310
FFFFF800000000000FFFFF0003FFFFFFFFFC00000000000FF000FC0000000000
310
1FFC0007FFFC0000FFFF8000FF80007FF800000000003FFFC00000000001FFF8
310
000001FFFE0000007F80000000000001FFF800000000000FFFFFF80000000000
310
0FFFFF0003FFFFFFFFFE00000000001FF000FE00000000003FF8000FFFFC0000
310
FFFF8000FF80007FFC00000000003FFFC00000000003FFF8000001FFFE000000
310
7F80000000000001FFFC00000000001FFFFFFC00000000001FFFFF0003FFFFFF
310
FFFF00000000001FF000FF00000000003FF8000FFFFC0000FFFFC000FF80007F
310
FE00000000007FFFE00000000007FFF8000001FFFE0000007F80000000000001
310
FFFE00000000003FFFFFFE00000000003FFFFF0003FFFFFFFFFF80000000003F
310
F000FF80000000007FF8000FFFFC0001FFFFC0007F80007FFF0000000000FFFF
310
F0000000000FFFF800000000000000007F80000000000001FFFF8000000000FF
310
FFFFFF8000000000FFFFFF0003FFFFFFFFFFC0000000007FF000FFC000000000
310
FFF8000FFFFE0001FFFFC0007F80007FFF8000000001FFFFF8000000001FFFF8
310
00000000000000007F80000000000001FFFFC000000001FFFFFFFFC000000001
310
FFFFFF0003FFFFFFFFFFE000000000FFF000FFE000000003FFF0001FFFFE0001
310
FFFFC0007F80007FFFC000000007FFFFFE000000003FFFF80000000000000000
310
7F80000000000001FFFFE000000003FFFFFFFFE000000003FFFFFF0003FFFFFF
310
FFFFF000000003FFF000FFF80000000FFFF0001FFFFE0001FFFFE0007F80007F
310
FFF00000000FFFFFFF00000000FFFFF800000000000000007F80000000000001
310
FFFFF80000000FFFFFFFFFF80000000FFFFFFF0003FFFFFFFFFFFC0000000FFF
310
F000FFFE0000003FFFF0001FFFFE0003FFFFE0003F80007FFFFC0000003FFFFF
310
FFC0000003FFFFF800000000000000007F80000000000001FFFFFE0000003FFF
310
FFFFFFFE0000003FFFFFFF0003FFFFFFFFFFFF0000003FFFF000FFFF800000FF
310
FFF0001FFFFF0003FFFFE0003F80007FFFFF000001FFFFFFFFF800001FFFFFF8
310
00000000000000007F80000000000001FFFFFFC00001FFFFFFFFFFFFC00001FF
310
FFFFFF0003FFFFFFFFFFFFC00000FFFFF000FFFFF8000FFFFFFFFFFFFFFFFFFF
310
FFFFFFFFFFFFFFFFFFFFF0001FFFFFFFFFFF0000FFFFFFF80000000000000000
310
7FFFFFFFFFFFFFFFFFFFFFFC001FFFFFFFFFFFFFFC001FFFFFFFFFFFFFFFFFFF
310
FFFFFFFC001FFFFFF000FFFFFFFFFFFFFFFFFFFFFFFFFFFFFFFFFFFFFFFFFFFF
310
FFFFFFFFFFFFFFFFFFFFFFFFFFFFFFFFFFFFFFFFFFFFFFFFFFFFFFFFFFFFFFFF
310
FFFFFFFFFFFFFFFFFFFFFFFFFFFFFFFFFFFFFFFFFFFFFFFFFFFFFFFFFFFFFFFF
310
F000FFFFFFFFFFFFFFFFFFFFFFFFFFFFFFFFFFFFFFFFFFFFFFFFFFFFFFFFFFFF
310
FFFFFFFFFFFFFFFFFFFFFFFFFFFFFFFFFFFFFFFFFFFFFFFFFFFFFFFFFFFFFFFF
310
FFFFFFFFFFFFFFFFFFFFFFFFFFFFFFFFFFFFFFFFFFFFFFFFF000FFFFFFFFFFFF
310
FFFFFFFFFFFFFFFFFFFFFFFFFFFFFFFFFFFFFFFFFFFFFFFFFFFFFFFFFFFFFFFF
310
FFFFFFFFFFFFFFFFFFFFFFFFFFFFFFFFFFFFFFFFFFFFFFFFFFFFFFFFFFFFFFFF
310
FFFFFFFFFFFFFFFFFFFFFFFFFFFFFFFFF000FFFFFFFFFFFFFFFFFFFFFFFFFFFF
310
FFFFFFFFFFFFFFFFFFFFFFFFFFFFFFFFFFFFFFFFFFFFFFFFFFFFFFFFFFFFFFFF
310
FFFFFFFFFFFFFFFFFFFFFFFFFFFFFFFFFFFFFFFFFFFFFFFFFFFFFFFFFFFFFFFF
310
FFFFFFFFFFFFFFFFF000FFFFFFFFFFFFFFFFFFFFFFFFFFFFFFFFFFFFFFFFFFFF
310
FFFFFFFFFFFFFFFFFFFFFFFFFFFFFFFFFFFFFFFFFFFFFFFFFFFFFFFFFFFFFFFF
310
FFFFFFFFFFFFFFFFFFFFFFFFFFFFFFFFFFFFFFFFFFFFFFFFFFFFFFFFFFFFFFFF
310
F000FFFFFFFFFFFFFFFFFFFFFFFFFFFFFFFFFFFFFFFFFFFFFFFFFFFFFFFFFFFF
310
FFFFFFFFFFFFFFFFFFFFFFFFFFFFFFFFFFFFFFFFFFFFFFFFFFFFFFFFFFFFFFFF
310
FFFFFFFFFFFFFFFFFFFFFFFFFFFFFFFFFFFFFFFFFFFFFFFFF000FFFFFFFFFFFF
310
FFFFFFFFFFFFFFFFFFFFFFFFFFFFFFFFFFFFFFFFFFFFFFFFFFFFFFFFFFFFFFFF
310
FFFFFFFFFFFFFFFFFFFFFFFFFFFFFFFFFFFFFFFFFFFFFFFFFFFFFFFFFFFFFFFF
310
FFFFFFFFFFFFFFFFFFFFFFFFFFFFFFFFF000FFFFFFFFFFFFFFFFFFFFFFFFFFFF
310
FFFFFFFFFFFFFFFFFFFFFFFFFFFFFFFFFFFFFFFFFFFFFFFFFFFFFFFFFFFFFFFF
310
FFFFFFFFFFFFFFFFFFFFFFFFFFFFFFFFFFFFFFFFFFFFFFFFFFFFFFFFFFFFFFFF
310
FFFFFFFFFFFFFFFFF000FFFFFFFFFFFFFFFFFFFFFFFFFFFFFFFFFFFFFFFFFFFF
310
FFFFFFFFFFFFFFFFFFFFFFFFFFFFFFFFFFFFFFFFFFFFFFFFFFFFFFFFFFFFFFFF
310
FFFFFFFFFFFFFFFFFFFFFFFFFFFFFFFFFFFFFFFFFFFFFFFFFFFFFFFFFFFFFFFF
310
F000FFFFFFFFFFFFFFFFFFFFFFFFFFFFFFFFFFFFFFFFFFFFFFFFFFFFFFFFFFFF
310
FFFFFFFFFFFFFFFFFFFFFFFFFFFFFFFFFFFFFFFFFFFFFFFFFFFFFFFFFFFFFFFF
310
FFFFFFFFFFFFFFFFFFFFFFFFFFFFFFFFFFFFFFFFFFFFFFFFF000FFFFFFFFFFFF
310
FFFFFFFFFFFFFFFFFFFFFFFFFFFFFFFFFFFFFFFFFFFFFFFFFFFFFFFFFFFFFFFF
310
FFFFFFFFFFFFFFFFFFFFFFFFFFFFFFFFFFFFFFFFFFFFFFFFFFFFFFFFFFFFFFFF
310
FFFFFFFFFFFFFFFFFFFFFFFFFFFFFFFFF000FFFFFFFFFFFFFFFFFFFFFFFFFFFF
310
FFFFFFFFFFFFFFFFFFFFFFFFFFFFFFFFFFFFFFFFFFFFFFFFFFFFFFFFFFFFFFFF
310
FFFFFFFFFFFFFFFFFFFFFFFFFFFFFFFFFFFFFFFFFFFFFFFFFFFFFFFFFFFFFFFF
310
FFFFFFFFFFFFFFFFF000FFFFFFFFFFFFFFFFFFFFFFFFFFFFFFFFFFFFFFFFFFFF
310
FFFFFFFFFFFFFFFFFFFFFFFFFFFFFFFFFFFFFFFFFFFFFFFFFFFFFFFFFFFFFFFF
310
FFFFFFFFFFFFFFFFFFFFFFFFFFFFFFFFFFFFFFFFFFFFFFFFFFFFFFFFFFFFFFFF
310
F000FFFFFFFFFFFFFFFFFFFFFFFFFFFFFFFFFFFFFFFFFFFFFFFFFFFFFFFFFFFF
310
FFFFFFFFFFFFFFFFFFFFFFFFFFFFFFFFFFFFFFFFFFFFFFFFFFFFFFFFFFFFFFFF
310
FFFFFFFFFFFFFFFFFFFFFFFFFFFFFFFFFFFFFFFFFFFFFFFFF000FFFFFFFFFFFF
310
FFFFFFFFFFFFFFFFFFFFFFFFFFFFFFFFFFFFFFFFFFFFFFFFFFFFFFFFFFFFFFFF
310
FFFFFFFFFFFFFFFFFFFFFFFFFFFFFFFFFFFFFFFFFFFFFFFFFFFFFFFFFFFFFFFF
310
FFFFFFFFFFFFFFFFFFFFFFFFFFFFFFFFF000FFFFFFFFFFFFFFFFFFFFFFFFFFFF
310
FFFFFFFFFFFFFFFFFFFFFFFFFFFFFFFFFFFFFFFFFFFFFFFFFFFFFFFFFFFFFFFF
310
FFFFFFFFFFFFFFFFFFFFFFFFFFFFFFFFFFFFFFFFFFFFFFFFFFFFFFFFFFFFFFFF
310
FFFFFFFFFFFFFFFFF000FFFFFFFFFFFFFFFFFFFFFFFFFFFFFFFFFFFFFFFFFFFF
310
FFFFFFFFFFFFFFFFFFFFFFFFFFFFFFFFFFFFFFFFFFFFFFFFFFFFFFFFFFFFFFFF
310
FFFFFFFFFFFFFFFFFFFFFFFFFFFFFFFFFFFFFFFFFFFFFFFFFFFFFFFFFFFFFFFF
310
F000FFFFFFFFFFFFFFFFFFFFFFFFFFFFFFFFFFFFFFFFFFFFFFFFFFFFFFFFFFFF
310
FFFFFFFFFFFFFFFFFFFFFFFFFFFFFFFFFFFFFFFFFFFFFFFFFFFFFFFFFFFFFFFF
310
FFFFFFFFFFFFFFFFFFFFFFFFFFFFFFFFFFFFFFFFFFFFFFFFF000FFFFFFFFFFFF
310
FFFFFFFFFFFFFFFFFFFFFFFFFFFFFFFFFFFFFFFFFFFFFFFFFFFFFFFFFFFFFFFF
310
FFFFFFFFFFFFFFFFFFFFFFFFFFFFFFFFFFFFFFFFFFFFFFFFFFFFFFFFFFFFFFFF
310
FFFFFFFFFFFFFFFFFFFFFFFFFFFFFFFFF000FFFFFFFFFFFFFFFFFFFFFFFFFFFF
310
FFFFFFFFFFFFFFFFFFFFFFFFFFFFFFFFFFFFFFFFFFFFFFFFFFFFFFFFFFFFFFFF
310
FFFFFFFFFFFFFFFFFFFFFFFFFFFFFFFFFFFFFFFFFFFFFFFFFFFFFFFFFFFFFFFF
310
FFFFFFFFFFFFFFFFF000FFFFFFFFFFFFFFFFFFFFFFFFFFFFFFFFFFFFFFFFFFFF
310
FFFFFFFFFFFFFFFFFFFFFFFFFFFFFFFFFFFFFFFFFFFFFFFFFFFFFFFFFFFFFFFF
310
FFFFFFFFFFFFFFFFFFFFFFFFFFFFFFFFFFFFFFFFFFFFFFFFFFFFFFFFFFFFFFFF
310
F000FFFFFFFFFFFFFFFFFFFFFFFFFFFFFFFFFFFFFFFFFFFFFFFFFFFFFFFFFFFF
310
FFFFFFFFFFFFFFFFFFFFFFFFFFFFFFFFFFFFFFFFFFFFFFFFFFFFFFFFFFFFFFFF
310
FFFFFFFFFFFFFFFFFFFFFFFFFFFFFFFFFFFFFFFFFFFFFFFFF000FFFFFFFFFFFF
310
FFFFFFFFFFFFFFFFFFFFFFFFFFFFFFFFFFFFFFFFFFFFFFFFFFFFFFFFFFFFFFFF
310
FFFFFFFFFFFFFFFFFFFFFFFFFFFFFFFFFFFFFFFFFFFFFFFFFFFFFFFFFFFFFFFF
310
FFFFFFFFFFFFFFFFFFFFFFFFFFFFFFFFF0000000000000000000000000000000
310
0000000000000000000000000000000000000000000000000000000000000000
310
0000000000000000000000000000000000000000000000000000000000000000
310
0000000000000000000000000000000000000000000000000000000000000000
310
0000000000000000000000000000000000000000000000000000000000000000
310
0000000000000000000000000000000000000000000000000000000000000000
310
0000000000000000000000000000000000000000000000000000000000000000
310
0000000000000000000000000000000000000000000000000000000000000000
310
0000000000000000000000000000000000000000000000000000000000000000
310
0000000000000000000000000000000000000000000000000000000000000000
310
0000000000000000000000000000000000000000000000000000000000000000
310
0000000000000000000000000000000000000000000000000000000000000000
310
0000000000000000000000000000000000000000000000000000000000000000
310
0000000000000000000000000000000000000000000000000000000000000000
310
0000000000000000000000000000000000000000000000000000000000000000
310
0000000000000000000000000000000000000000000000000000000000000000
  1
OLE
  0
ENDSEC
  0
SECTION
  2
OBJECTS
  0
DICTIONARY
  5
C
330
0
100
AcDbDictionary
281
     1
  3
ACAD_GROUP
350
D
  3
ACAD_LAYOUT
350
1A
  3
ACAD_MLINESTYLE
350
17
  3
ACAD_PLOTSETTINGS
350
19
  3
ACAD_PLOTSTYLENAME
350
E
  0
DICTIONARY
  5
D
102
{ACAD_REACTORS
330
C
102
}
330
C
100
AcDbDictionary
281
     1
  0
DICTIONARY
  5
1A
102
{ACAD_REACTORS
330
C
102
}
330
C
100
AcDbDictionary
281
     1
  3
Layout1
350
1E
  3
Layout2
350
26
  3
Model
350
22
  0
DICTIONARY
  5
17
102
{ACAD_REACTORS
330
C
102
}
330
C
100
AcDbDictionary
281
     1
  3
Standard
350
18
  0
DICTIONARY
  5
19
102
{ACAD_REACTORS
330
C
102
}
330
C
100
AcDbDictionary
281
     1
  0
ACDBDICTIONARYWDFLT
  5
E
102
{ACAD_REACTORS
330
C
102
}
330
C
100
AcDbDictionary
281
     1
  3
Normal
350
F
100
AcDbDictionaryWithDefault
340
F
  0
LAYOUT
  5
1E
102
{ACAD_REACTORS
330
1A
102
}
330
1A
100
AcDbPlotSettings
  1

  2
none_device
  4

  6

 40
0.0
 41
0.0
 42
0.0
 43
0.0
 44
0.0
 45
0.0
 46
0.0
 47
0.0
 48
0.0
 49
0.0
140
0.0
141
0.0
142
1.0
143
1.0
 70
   688
 72
     0
 73
     0
 74
     5
  7

 75
    16
147
1.0
148
0.0
149
0.0
100
AcDbLayout
  1
Layout1
 70
     1
 71
     1
 10
0.0
 20
0.0
 11
420.0
 21
297.0
 12
0.0
 22
0.0
 32
0.0
 14
1.0000000000E+20
 24
1.0000000000E+20
 34
1.0000000000E+20
 15
-1.0000000000E+20
 25
-1.0000000000E+20
 35
-1.0000000000E+20
146
0.0
 13
0.0
 23
0.0
 33
0.0
 16
1.0
 26
0.0
 36
0.0
 17
0.0
 27
1.0
 37
0.0
 76
     0
330
1B
  0
LAYOUT
  5
26
102
{ACAD_REACTORS
330
1A
102
}
330
1A
100
AcDbPlotSettings
  1

  2
none_device
  4

  6

 40
0.0
 41
0.0
 42
0.0
 43
0.0
 44
0.0
 45
0.0
 46
0.0
 47
0.0
 48
0.0
 49
0.0
140
0.0
141
0.0
142
1.0
143
1.0
 70
   688
 72
     0
 73
     0
 74
     5
  7

 75
    16
147
1.0
148
0.0
149
0.0
100
AcDbLayout
  1
Layout2
 70
     1
 71
     2
 10
0.0
 20
0.0
 11
0.0
 21
0.0
 12
0.0
 22
0.0
 32
0.0
 14
0.0
 24
0.0
 34
0.0
 15
0.0
 25
0.0
 35
0.0
146
0.0
 13
0.0
 23
0.0
 33
0.0
 16
1.0
 26
0.0
 36
0.0
 17
0.0
 27
1.0
 37
0.0
 76
     0
330
23
  0
LAYOUT
  5
22
102
{ACAD_REACTORS
330
1A
102
}
330
1A
100
AcDbPlotSettings
  1

  2
none_device
  4

  6

 40
0.0
 41
0.0
 42
0.0
 43
0.0
 44
0.0
 45
0.0
 46
0.0
 47
0.0
 48
0.0
 49
0.0
140
0.0
141
0.0
142
1.0
143
1.0
 70
  1712
 72
     0
 73
     0
 74
     0
  7

 75
     0
147
1.0
148
0.0
149
0.0
100
AcDbLayout
  1
Model
 70
     1
 71
     0
 10
0.0
 20
0.0
 11
297.0
 21
210.0
 12
0.0
 22
0.0
 32
0.0
 14
0.0
 24
0.0
 34
0.0
 15
297.0
 25
210.0
 35
0.0
146
0.0
 13
0.0
 23
0.0
 33
0.0
 16
1.0
 26
0.0
 36
0.0
 17
0.0
 27
1.0
 37
0.0
 76
     0
330
1F
331
29
  0
MLINESTYLE
  5
18
102
{ACAD_REACTORS
330
17
102
}
330
17
100
AcDbMlineStyle
  2
Standard
 70
     0
  3

 62
   256
 51
90.0
 52
90.0
 71
     2
 49
0.5
 62
   256
  6
BYLAYER
 49
-0.5
 62
   256
  6
BYLAYER
  0
ACDBPLACEHOLDER
  5
F
102
{ACAD_REACTORS
330
E
102
}
330
E
  0
ENDSEC
  0
EOF
