  0
SECTION
  2
HEADER
  9
$ACADVER
  1
AC1015
  9
$ACADMAINTVER
 70
     6
  9
$DWGCODEPAGE
  3
ANSI_1252
  9
$INSBASE
 10
0.0
 20
0.0
 30
0.0
  9
$EXTMIN
 10
0.0
 20
0.0
 30
0.0
  9
$EXTMAX
 10
297.0
 20
210.0
 30
0.0
  9
$LIMMIN
 10
0.0
 20
0.0
  9
$LIMMAX
 10
297.0
 20
210.0
  9
$ORTHOMODE
 70
     0
  9
$REGENMODE
 70
     1
  9
$FILLMODE
 70
     1
  9
$QTEXTMODE
 70
     0
  9
$MIRRTEXT
 70
     1
  9
$LTSCALE
 40
1.0
  9
$ATTMODE
 70
     1
  9
$TEXTSIZE
 40
2.0
  9
$TRACEWID
 40
1.0
  9
$TEXTSTYLE
  7
Standard
  9
$CLAYER
  8
0
  9
$CELTYPE
  6
ByLayer
  9
$CECOLOR
 62
   256
  9
$CELTSCALE
 40
1.0
  9
$DISPSILH
 70
     0
  9
$DIMSCALE
 40
1.0
  9
$DIMASZ
 40
3.0
  9
$DIMEXO
 40
0.0
  9
$DIMDLI
 40
3.75
  9
$DIMRND
 40
0.0
  9
$DIMDLE
 40
0.0
  9
$DIMEXE
 40
1.0
  9
$DIMTP
 40
0.0
  9
$DIMTM
 40
0.0
  9
$DIMTXT
 40
2.0
  9
$DIMCEN
 40
2.5
  9
$DIMTSZ
 40
0.0
  9
$DIMTOL
 70
     0
  9
$DIMLIM
 70
     0
  9
$DIMTIH
 70
     1
  9
$DIMTOH
 70
     1
  9
$DIMSE1
 70
     0
  9
$DIMSE2
 70
     0
  9
$DIMTAD
 70
     1
  9
$DIMZIN
 70
     0
  9
$DIMBLK
  1

  9
$DIMASO
 70
     1
  9
$DIMSHO
 70
     1
  9
$DIMPOST
  1

  9
$DIMAPOST
  1

  9
$DIMALT
 70
     0
  9
$DIMALTD
 70
     3
  9
$DIMALTF
 40
0.0393700787
  9
$DIMLFAC
 40
1.0
  9
$DIMTOFL
 70
     1
  9
$DIMTVP
 40
0.0
  9
$DIMTIX
 70
     0
  9
$DIMSOXD
 70
     0
  9
$DIMSAH
 70
     0
  9
$DIMBLK1
  1

  9
$DIMBLK2
  1

  9
$DIMSTYLE
  2
ISO-25
  9
$DIMCLRD
 70
     0
  9
$DIMCLRE
 70
     0
  9
$DIMCLRT
 70
     0
  9
$DIMTFAC
 40
1.0
  9
$DIMGAP
 40
1.524
  9
$DIMJUST
 70
     0
  9
$DIMSD1
 70
     0
  9
$DIMSD2
 70
     0
  9
$DIMTOLJ
 70
     0
  9
$DIMTZIN
 70
     0
  9
$DIMALTZ
 70
     0
  9
$DIMALTTZ
 70
     0
  9
$DIMUPT
 70
     0
  9
$DIMDEC
 70
     2
  9
$DIMTDEC
 70
     3
  9
$DIMALTU
 70
     2
  9
$DIMALTTD
 70
     3
  9
$DIMTXSTY
  7
Standard
  9
$DIMAUNIT
 70
     0
  9
$DIMADEC
 70
     2
  9
$DIMALTRND
 40
0.0
  9
$DIMAZIN
 70
     0
  9
$DIMDSEP
 70
    44
  9
$DIMATFIT
 70
     3
  9
$DIMFRAC
 70
     0
  9
$DIMLDRBLK
  1

  9
$DIMLUNIT
 70
     2
  9
$DIMLWD
 70
    -2
  9
$DIMLWE
 70
    -2
  9
$DIMTMOVE
 70
     0
  9
$LUNITS
 70
     2
  9
$LUPREC
 70
     2
  9
$SKETCHINC
 40
1.0
  9
$FILLETRAD
 40
10.0
  9
$AUNITS
 70
     0
  9
$AUPREC
 70
     2
  9
$MENU
  1
.
  9
$ELEVATION
 40
0.0
  9
$PELEVATION
 40
0.0
  9
$THICKNESS
 40
0.0
  9
$LIMCHECK
 70
     0
  9
$CHAMFERA
 40
10.0
  9
$CHAMFERB
 40
10.0
  9
$CHAMFERC
 40
20.0
  9
$CHAMFERD
 40
0.0
  9
$SKPOLY
 70
     0
  9
$TDCREATE
 40
2455672.381900636
  9
$TDUCREATE
 40
2455672.298567303
  9
$TDUPDATE
 40
2455672.381900648
  9
$TDUUPDATE
 40
2455672.298567315
  9
$TDINDWG
 40
0.0000000116
  9
$TDUSRTIMER
 40
0.0000000116
  9
$USRTIMER
 70
     1
  9
$ANGBASE
 50
0.0
  9
$ANGDIR
 70
     0
  9
$PDMODE
 70
     0
  9
$PDSIZE
 40
-1.0
  9
$PLINEWID
 40
0.0
  9
$SPLFRAME
 70
     0
  9
$SPLINETYPE
 70
     6
  9
$SPLINESEGS
 70
     8
  9
$HANDSEED
  5
186
  9
$SURFTAB1
 70
     6
  9
$SURFTAB2
 70
     6
  9
$SURFTYPE
 70
     6
  9
$SURFU
 70
     6
  9
$SURFV
 70
     6
  9
$UCSBASE
  2

  9
$UCSNAME
  2

  9
$UCSORG
 10
0.0
 20
0.0
 30
0.0
  9
$UCSXDIR
 10
1.0
 20
0.0
 30
0.0
  9
$UCSYDIR
 10
0.0
 20
1.0
 30
0.0
  9
$UCSORTHOREF
  2

  9
$UCSORTHOVIEW
 70
     0
  9
$UCSORGTOP
 10
0.0
 20
0.0
 30
0.0
  9
$UCSORGBOTTOM
 10
0.0
 20
0.0
 30
0.0
  9
$UCSORGLEFT
 10
0.0
 20
0.0
 30
0.0
  9
$UCSORGRIGHT
 10
0.0
 20
0.0
 30
0.0
  9
$UCSORGFRONT
 10
0.0
 20
0.0
 30
0.0
  9
$UCSORGBACK
 10
0.0
 20
0.0
 30
0.0
  9
$PUCSBASE
  2

  9
$PUCSNAME
  2

  9
$PUCSORG
 10
0.0
 20
0.0
 30
0.0
  9
$PUCSXDIR
 10
1.0
 20
0.0
 30
0.0
  9
$PUCSYDIR
 10
0.0
 20
1.0
 30
0.0
  9
$PUCSORTHOREF
  2

  9
$PUCSORTHOVIEW
 70
     0
  9
$PUCSORGTOP
 10
0.0
 20
0.0
 30
0.0
  9
$PUCSORGBOTTOM
 10
0.0
 20
0.0
 30
0.0
  9
$PUCSORGLEFT
 10
0.0
 20
0.0
 30
0.0
  9
$PUCSORGRIGHT
 10
0.0
 20
0.0
 30
0.0
  9
$PUCSORGFRONT
 10
0.0
 20
0.0
 30
0.0
  9
$PUCSORGBACK
 10
0.0
 20
0.0
 30
0.0
  9
$USERI1
 70
     0
  9
$USERI2
 70
     0
  9
$USERI3
 70
     0
  9
$USERI4
 70
     0
  9
$USERI5
 70
     0
  9
$USERR1
 40
0.0
  9
$USERR2
 40
0.0
  9
$USERR3
 40
0.0
  9
$USERR4
 40
0.0
  9
$USERR5
 40
0.0
  9
$WORLDVIEW
 70
     1
  9
$SHADEDGE
 70
     3
  9
$SHADEDIF
 70
    70
  9
$TILEMODE
 70
     1
  9
$MAXACTVP
 70
    64
  9
$PINSBASE
 10
0.0
 20
0.0
 30
0.0
  9
$PLIMCHECK
 70
     0
  9
$PEXTMIN
 10
1.0000000000E+20
 20
1.0000000000E+20
 30
1.0000000000E+20
  9
$PEXTMAX
 10
-1.0000000000E+20
 20
-1.0000000000E+20
 30
-1.0000000000E+20
  9
$PLIMMIN
 10
0.0
 20
0.0
  9
$PLIMMAX
 10
420.0
 20
297.0
  9
$UNITMODE
 70
     0
  9
$VISRETAIN
 70
     1
  9
$PLINEGEN
 70
     0
  9
$PSLTSCALE
 70
     1
  9
$TREEDEPTH
 70
  3020
  9
$CMLSTYLE
  2
Standard
  9
$CMLJUST
 70
     0
  9
$CMLSCALE
 40
20.0
  9
$PROXYGRAPHICS
 70
     1
  9
$MEASUREMENT
 70
     1
  9
$CELWEIGHT
370
    -1
  9
$ENDCAPS
280
     0
  9
$JOINSTYLE
280
     0
  9
$LWDISPLAY
290
     1
  9
$INSUNITS
 70
     4
  9
$HYPERLINKBASE
  1

  9
$STYLESHEET
  1

  9
$XEDIT
290
     1
  9
$CEPSNTYPE
380
     0
  9
$PSTYLEMODE
290
     1
  9
$FINGERPRINTGUID
  2
{2CA3F5F4-115B-44DF-90A7-E84DFE39C4F1}
  9
$VERSIONGUID
  2
{FAEB1C32-E019-11D5-929B-00C0DF256EC4}
  9
$EXTNAMES
290
     1
  9
$PSVPSCALE
 40
0.0
  9
$OLESTARTUP
290
     0
  0
ENDSEC
  0
SECTION
  2
CLASSES
  0
CLASS
  1
ACDBDICTIONARYWDFLT
  2
AcDbDictionaryWithDefault
  3
ObjectDBX Classes
 90
        0
280
     0
281
     0
  0
CLASS
  1
VISUALSTYLE
  2
AcDbVisualStyle
  3
ObjectDBX Classes
 90
     4095
280
     0
281
     0
  0
CLASS
  1
DICTIONARYVAR
  2
AcDbDictionaryVar
  3
ObjectDBX Classes
 90
        0
280
     0
281
     0
  0
CLASS
  1
ACDBPLACEHOLDER
  2
AcDbPlaceHolder
  3
ObjectDBX Classes
 90
        0
280
     0
281
     0
  0
CLASS
  1
LAYOUT
  2
AcDbLayout
  3
ObjectDBX Classes
 90
        0
280
     0
281
     0
  0
ENDSEC
  0
SECTION
  2
TABLES
  0
TABLE
  2
VPORT
  5
8
330
0
100
AcDbSymbolTable
 70
     1
  0
VPORT
  5
29
330
8
100
AcDbSymbolTableRecord
100
AcDbViewportTableRecord
  2
*Active
 70
     0
 10
0.0
 20
0.0
 11
1.0
 21
1.0
 12
148.5
 22
105.0
 13
0.0
 23
0.0
 14
10.0
 24
10.0
 15
10.0
 25
10.0
 16
0.0
 26
0.0
 36
1.0
 17
0.0
 27
0.0
 37
0.0
 40
210.0
 41
1.4142857143
 42
50.0
 43
0.0
 44
0.0
 50
0.0
 51
0.0
 71
     0
 72
  2000
 73
     1
 74
     3
 75
     0
 76
     0
 77
     0
 78
     0
281
     0
 65
     1
110
0.0
120
0.0
130
0.0
111
1.0
121
0.0
131
0.0
112
0.0
122
1.0
132
0.0
 79
     0
146
0.0
  0
ENDTAB
  0
TABLE
  2
LTYPE
  5
5
330
0
100
AcDbSymbolTable
 70
     6
  0
LTYPE
  5
14
330
5
100
AcDbSymbolTableRecord
100
AcDbLinetypeTableRecord
  2
ByBlock
 70
     0
  3

 72
    65
 73
     0
 40
0.0
  0
LTYPE
  5
15
330
5
100
AcDbSymbolTableRecord
100
AcDbLinetypeTableRecord
  2
ByLayer
 70
     0
  3

 72
    65
 73
     0
 40
0.0
  0
LTYPE
  5
16
330
5
100
AcDbSymbolTableRecord
100
AcDbLinetypeTableRecord
  2
Continuous
 70
     0
  3
Solid line
 72
    65
 73
     0
 40
0.0
  0
LTYPE
  5
3B
330
5
100
AcDbSymbolTableRecord
100
AcDbLinetypeTableRecord
  2
HIDDEN
 70
     0
  3
Hidden __ __ __ __ __ __ __ __ __ __ __ __ __ __
 72
    65
 73
     2
 40
1.905
 49
1.27
 74
     0
 49
-0.635
 74
     0
  0
LTYPE
  5
3C
330
5
100
AcDbSymbolTableRecord
100
AcDbLinetypeTableRecord
  2
PHANTOM
 70
     0
  3
Phantom ______  __  __  ______  __  __  ______
 72
    65
 73
     6
 40
12.7
 49
6.35
 74
     0
 49
-1.27
 74
     0
 49
1.27
 74
     0
 49
-1.27
 74
     0
 49
1.27
 74
     0
 49
-1.27
 74
     0
  0
LTYPE
  5
3D
330
5
100
AcDbSymbolTableRecord
100
AcDbLinetypeTableRecord
  2
CENTER
 70
     0
  3
Center ____ _ ____ _ ____ _ ____ _ ____ _ ____
 72
    65
 73
     4
 40
10.16
 49
6.35
 74
     0
 49
-1.27
 74
     0
 49
1.27
 74
     0
 49
-1.27
 74
     0
  0
LTYPE
  5
3E
330
5
100
AcDbSymbolTableRecord
100
AcDbLinetypeTableRecord
  2
CENTERX2
 70
     0
  3
Center (2x) ________  __  ________  __  _____
 72
    65
 73
     4
 40
20.32
 49
12.7
 74
     0
 49
-2.54
 74
     0
 49
2.54
 74
     0
 49
-2.54
 74
     0
  0
LTYPE
  5
3F
330
5
100
AcDbSymbolTableRecord
100
AcDbLinetypeTableRecord
  2
DOT2
 70
     0
  3
Dot (.5x) ........................................
 72
    65
 73
     2
 40
0.635
 49
0.0
 74
     0
 49
-0.635
 74
     0
  0
ENDTAB
  0
TABLE
  2
LAYER
  5
2
330
0
100
AcDbSymbolTable
 70
     5
  0
LAYER
  5
10
330
2
100
AcDbSymbolTableRecord
100
AcDbLayerTableRecord
  2
0
 70
     0
 62
     7
  6
Continuous
370
    -3
390
F
  0
LAYER
  5
40
330
2
100
AcDbSymbolTableRecord
100
AcDbLayerTableRecord
  2
FORMAT
 70
     0
 62
     7
  6
Continuous
370
    -3
390
F
  0
LAYER
  5
41
330
2
100
AcDbSymbolTableRecord
100
AcDbLayerTableRecord
  2
VERMASSUNG
 70
     0
 62
     7
  6
Continuous
370
    -3
390
F
  0
LAYER
  5
42
330
2
100
AcDbSymbolTableRecord
100
AcDbLayerTableRecord
  2
KOPF_DÜNN
 70
     0
 62
     7
  6
Continuous
370
    -3
390
F
  0
LAYER
  5
43
330
2
100
AcDbSymbolTableRecord
100
AcDbLayerTableRecord
  2
KOPF_DICK
 70
     0
 62
     7
  6
Continuous
370
    15
390
F
  0
ENDTAB
  0
TABLE
  2
STYLE
  5
3
330
0
100
AcDbSymbolTable
 70
     3
  0
STYLE
  5
11
330
3
100
AcDbSymbolTableRecord
100
AcDbTextStyleTableRecord
  2
Standard
 70
     0
 40
0.0
 41
1.0
 50
0.0
 71
     0
 42
2.5
  3
txt
  4

  0
STYLE
  5
44
330
3
100
AcDbSymbolTableRecord
100
AcDbTextStyleTableRecord
  2
SLDTEXTSTYLE0
 70
     0
 40
0.0
 41
0.7
 50
0.0
 71
     0
 42
0.2
  3
TXT
  4

  0
STYLE
  5
48
330
3
100
AcDbSymbolTableRecord
100
AcDbTextStyleTableRecord
  2
SLDTEXTSTYLE1
 70
     0
 40
0.0
 41
0.6473684211
 50
0.0
 71
     0
 42
0.2
  3
TXT
  4

  0
ENDTAB
  0
TABLE
  2
VIEW
  5
6
330
0
100
AcDbSymbolTable
 70
     0
  0
ENDTAB
  0
TABLE
  2
UCS
  5
7
330
0
100
AcDbSymbolTable
 70
     0
  0
ENDTAB
  0
TABLE
  2
APPID
  5
9
330
0
100
AcDbSymbolTable
 70
     1
  0
APPID
  5
12
330
9
100
AcDbSymbolTableRecord
100
AcDbRegAppTableRecord
  2
ACAD
 70
     0
  0
ENDTAB
  0
TABLE
  2
DIMSTYLE
  5
A
330
0
100
AcDbSymbolTable
 70
     2
100
AcDbDimStyleTable
  0
DIMSTYLE
105
27
330
A
100
AcDbSymbolTableRecord
100
AcDbDimStyleTableRecord
  2
ISO-25
 70
     0
 41
2.5
 42
0.625
 43
3.75
 44
1.25
 73
     0
 74
     0
 77
     1
 78
     8
140
2.5
141
2.5
143
0.0393700787
147
0.625
171
     3
172
     1
271
     2
272
     2
274
     3
278
    44
283
     0
284
     8
340
11
  0
DIMSTYLE
105
13E
102
{ACAD_REACTORS
330
13D
330
14A
330
154
330
15E
330
168
330
173
102
}
330
A
100
AcDbSymbolTableRecord
100
AcDbDimStyleTableRecord
  2
SLDDIMSTYLE0
 70
     0
 41
3.0
 44
0.0
 45
0.000000001
 73
     0
 74
     0
 77
     1
 78
    12
140
2.0
147
0.5
173
     1
271
     2
272
     3
284
    12
340
44
  0
ENDTAB
  0
TABLE
  2
BLOCK_RECORD
  5
1
330
0
100
AcDbSymbolTable
 70
     7
  0
BLOCK_RECORD
  5
1F
330
1
100
AcDbSymbolTableRecord
100
AcDbBlockTableRecord
  2
*Model_Space
340
22
  0
BLOCK_RECORD
  5
1B
330
1
100
AcDbSymbolTableRecord
100
AcDbBlockTableRecord
  2
*Paper_Space
340
1E
  0
BLOCK_RECORD
  5
23
330
1
100
AcDbSymbolTableRecord
100
AcDbBlockTableRecord
  2
*Paper_Space0
340
26
  0
BLOCK_RECORD
  5
13F
330
1
100
AcDbSymbolTableRecord
100
AcDbBlockTableRecord
  2
*D1
340
0
  0
BLOCK_RECORD
  5
14B
330
1
100
AcDbSymbolTableRecord
100
AcDbBlockTableRecord
  2
*D2
340
0
  0
BLOCK_RECORD
  5
155
330
1
100
AcDbSymbolTableRecord
100
AcDbBlockTableRecord
  2
*D3
340
0
  0
BLOCK_RECORD
  5
15F
330
1
100
AcDbSymbolTableRecord
100
AcDbBlockTableRecord
  2
*D4
340
0
  0
BLOCK_RECORD
  5
169
330
1
100
AcDbSymbolTableRecord
100
AcDbBlockTableRecord
  2
*D5
340
0
  0
BLOCK_RECORD
  5
174
330
1
100
AcDbSymbolTableRecord
100
AcDbBlockTableRecord
  2
*D6
340
0
  0
ENDTAB
  0
ENDSEC
  0
SECTION
  2
BLOCKS
  0
BLOCK
  5
20
330
1F
100
AcDbEntity
  8
0
100
AcDbBlockBegin
  2
*Model_Space
 70
     0
 10
0.0
 20
0.0
 30
0.0
  3
*Model_Space
  1

  0
ENDBLK
  5
21
330
1F
100
AcDbEntity
  8
0
100
AcDbBlockEnd
  0
BLOCK
  5
1C
330
1B
100
AcDbEntity
 67
     1
  8
0
100
AcDbBlockBegin
  2
*Paper_Space
 70
     0
 10
0.0
 20
0.0
 30
0.0
  3
*Paper_Space
  1

  0
ENDBLK
  5
1D
330
1B
100
AcDbEntity
 67
     1
  8
0
100
AcDbBlockEnd
  0
BLOCK
  5
24
330
23
100
AcDbEntity
  8
0
100
AcDbBlockBegin
  2
*Paper_Space0
 70
     0
 10
0.0
 20
0.0
 30
0.0
  3
*Paper_Space0
  1

  0
ENDBLK
  5
25
330
23
100
AcDbEntity
  8
0
100
AcDbBlockEnd
  0
BLOCK
  5
140
330
13F
100
AcDbEntity
  8
0
100
AcDbBlockBegin
  2
*D1
 70
     1
 10
0.0
 20
0.0
 30
0.0
  3
*D1
  1

  0
SOLID
  5
142
330
13F
100
AcDbEntity
  8
VERMASSUNG
100
AcDbTrace
 10
76.947545314
 20
144.7967903696
 30
0.0
 11
76.497545314
 21
141.7967903696
 31
0.0
 12
77.397545314
 22
141.7967903696
 32
0.0
 13
77.397545314
 23
141.7967903696
 33
0.0
  0
SOLID
  5
143
330
13F
100
AcDbEntity
  8
VERMASSUNG
100
AcDbTrace
 10
76.947545314
 20
81.7967903696
 30
0.0
 11
77.397545314
 21
84.7967903696
 31
0.0
 12
76.497545314
 22
84.7967903696
 32
0.0
 13
76.497545314
 23
84.7967903696
 33
0.0
  0
LINE
  5
144
330
13F
100
AcDbEntity
  8
VERMASSUNG
100
AcDbLine
 10
115.4701628425
 20
144.7967903696
 30
0.0
 11
75.947545314
 21
144.7967903696
 31
0.0
  0
LINE
  5
145
330
13F
100
AcDbEntity
  8
VERMASSUNG
100
AcDbLine
 10
115.4701628425
 20
81.7967903696
 30
0.0
 11
75.947545314
 21
81.7967903696
 31
0.0
  0
LINE
  5
146
330
13F
100
AcDbEntity
  8
VERMASSUNG
100
AcDbLine
 10
76.947545314
 20
144.7967903696
 30
0.0
 11
76.947545314
 21
81.7967903696
 31
0.0
  0
MTEXT
  5
147
330
13F
100
AcDbEntity
  8
VERMASSUNG
100
AcDbMText
 10
74.169409825
 20
105.7490244264
 30
0.0
 40
2.0
 41
0.0
 71
     1
 72
     1
  1
HSK A
  7
SLDTEXTSTYLE0
 11
-7.044195017643634E-15
 21
1.0
 31
0.0
 73
     1
 44
1.0
  0
MTEXT
  5
148
330
13F
100
AcDbEntity
  8
VERMASSUNG
100
AcDbMText
 10
74.3694098345
 20
113.5490246804
 30
0.0
 40
2.0
 41
0.0
 71
     1
 72
     1
  1
%%c
  7
SLDTEXTSTYLE0
 11
-7.044195017643634E-15
 21
1.0
 31
0.0
 73
     1
 44
1.0
  0
MTEXT
  5
149
330
13F
100
AcDbEntity
  8
VERMASSUNG
100
AcDbMText
 10
74.3694099509
 20
117.1575531371
 30
0.0
 40
2.0
 41
0.0
 71
     1
 72
     1
  1
63
  7
SLDTEXTSTYLE0
 11
-7.044195017643634E-15
 21
1.0
 31
0.0
 73
     1
 44
1.0
  0
ENDBLK
  5
141
330
13F
100
AcDbEntity
  8
0
100
AcDbBlockEnd
  0
BLOCK
  5
14C
330
14B
100
AcDbEntity
  8
0
100
AcDbBlockBegin
  2
*D2
 70
     1
 10
0.0
 20
0.0
 30
0.0
  3
*D2
  1

  0
SOLID
  5
14E
330
14B
100
AcDbEntity
  8
VERMASSUNG
100
AcDbTrace
 10
195.1701628425
 20
147.2623404933
 30
0.0
 11
192.1701628425
 21
147.7123404933
 31
0.0
 12
192.1701628425
 22
146.8123404933
 32
0.0
 13
192.1701628425
 23
146.8123404933
 33
0.0
  0
SOLID
  5
14F
330
14B
100
AcDbEntity
  8
VERMASSUNG
100
AcDbTrace
 10
141.1201628425
 20
147.2623404933
 30
0.0
 11
144.1201628425
 21
146.8123404933
 31
0.0
 12
144.1201628425
 22
147.7123404933
 32
0.0
 13
144.1201628425
 23
147.7123404933
 33
0.0
  0
LINE
  5
150
330
14B
100
AcDbEntity
  8
VERMASSUNG
100
AcDbLine
 10
195.1701628425
 20
128.022649848
 30
0.0
 11
195.1701628425
 21
148.2623404933
 31
0.0
  0
LINE
  5
151
330
14B
100
AcDbEntity
  8
VERMASSUNG
100
AcDbLine
 10
141.1201628425
 20
143.1432306934
 30
0.0
 11
141.1201628425
 21
148.2623404933
 31
0.0
  0
LINE
  5
152
330
14B
100
AcDbEntity
  8
VERMASSUNG
100
AcDbLine
 10
195.1701628425
 20
147.2623404933
 30
0.0
 11
141.1201628425
 21
147.2623404933
 31
0.0
  0
MTEXT
  5
153
330
14B
100
AcDbEntity
  8
VERMASSUNG
100
AcDbMText
 10
162.3491858384
 20
149.8404758564
 30
0.0
 40
2.0
 41
0.0
 71
     1
 72
     1
  1
54.05
  7
SLDTEXTSTYLE0
 73
     1
 44
1.0
  0
ENDBLK
  5
14D
330
14B
100
AcDbEntity
  8
0
100
AcDbBlockEnd
  0
BLOCK
  5
156
330
155
100
AcDbEntity
  8
0
100
AcDbBlockBegin
  2
*D3
 70
     1
 10
0.0
 20
0.0
 30
0.0
  3
*D3
  1

  0
SOLID
  5
158
330
155
100
AcDbEntity
  8
VERMASSUNG
100
AcDbTrace
 10
195.1701628425
 20
153.2623404933
 30
0.0
 11
192.1701628425
 21
153.7123404933
 31
0.0
 12
192.1701628425
 22
152.8123404933
 32
0.0
 13
192.1701628425
 23
152.8123404933
 33
0.0
  0
SOLID
  5
159
330
155
100
AcDbEntity
  8
VERMASSUNG
100
AcDbTrace
 10
115.1701628425
 20
153.2623404933
 30
0.0
 11
118.1701628425
 21
152.8123404933
 31
0.0
 12
118.1701628425
 22
153.7123404933
 32
0.0
 13
118.1701628425
 23
153.7123404933
 33
0.0
  0
LINE
  5
15A
330
155
100
AcDbEntity
  8
VERMASSUNG
100
AcDbLine
 10
195.1701628425
 20
128.022649848
 30
0.0
 11
195.1701628425
 21
154.2623404933
 31
0.0
  0
LINE
  5
15B
330
155
100
AcDbEntity
  8
VERMASSUNG
100
AcDbLine
 10
115.1701628425
 20
144.4967903696
 30
0.0
 11
115.1701628425
 21
154.2623404933
 31
0.0
  0
LINE
  5
15C
330
155
100
AcDbEntity
  8
VERMASSUNG
100
AcDbLine
 10
195.1701628425
 20
153.2623404933
 30
0.0
 11
115.1701628425
 21
153.2623404933
 31
0.0
  0
MTEXT
  5
15D
330
155
100
AcDbEntity
  8
VERMASSUNG
100
AcDbMText
 10
152.7250469289
 20
155.8404758564
 30
0.0
 40
2.0
 41
0.0
 71
     1
 72
     1
  1
80
  7
SLDTEXTSTYLE0
 73
     1
 44
1.0
  0
ENDBLK
  5
157
330
155
100
AcDbEntity
  8
0
100
AcDbBlockEnd
  0
BLOCK
  5
160
330
15F
100
AcDbEntity
  8
0
100
AcDbBlockBegin
  2
*D4
 70
     1
 10
0.0
 20
0.0
 30
0.0
  3
*D4
  1

  0
SOLID
  5
162
330
15F
100
AcDbEntity
  8
VERMASSUNG
100
AcDbTrace
 10
195.1701628425
 20
159.2623404933
 30
0.0
 11
192.1701628425
 21
159.7123404933
 31
0.0
 12
192.1701628425
 22
158.8123404933
 32
0.0
 13
192.1701628425
 23
158.8123404933
 33
0.0
  0
SOLID
  5
163
330
15F
100
AcDbEntity
  8
VERMASSUNG
100
AcDbTrace
 10
83.2701628425
 20
159.2623404933
 30
0.0
 11
86.2701628425
 21
158.8123404933
 31
0.0
 12
86.2701628425
 22
159.7123404933
 32
0.0
 13
86.2701628425
 23
159.7123404933
 33
0.0
  0
LINE
  5
164
330
15F
100
AcDbEntity
  8
VERMASSUNG
100
AcDbLine
 10
195.1701628425
 20
128.022649848
 30
0.0
 11
195.1701628425
 21
160.2623404933
 31
0.0
  0
LINE
  5
165
330
15F
100
AcDbEntity
  8
VERMASSUNG
100
AcDbLine
 10
83.2701628425
 20
132.9874681161
 30
0.0
 11
83.2701628425
 21
160.2623404933
 31
0.0
  0
LINE
  5
166
330
15F
100
AcDbEntity
  8
VERMASSUNG
100
AcDbLine
 10
195.1701628425
 20
159.2623404933
 30
0.0
 11
83.2701628425
 21
159.2623404933
 31
0.0
  0
MTEXT
  5
167
330
15F
100
AcDbEntity
  8
VERMASSUNG
100
AcDbMText
 10
134.2953709633
 20
161.8404758564
 30
0.0
 40
2.0
 41
0.0
 71
     1
 72
     1
  1
111.9
  7
SLDTEXTSTYLE0
 73
     1
 44
1.0
  0
ENDBLK
  5
161
330
15F
100
AcDbEntity
  8
0
100
AcDbBlockEnd
  0
BLOCK
  5
16A
330
169
100
AcDbEntity
  8
0
100
AcDbBlockBegin
  2
*D5
 70
     1
 10
0.0
 20
0.0
 30
0.0
  3
*D5
  1

  0
SOLID
  5
16C
330
169
100
AcDbEntity
  8
VERMASSUNG
100
AcDbTrace
 10
202.9046298936
 20
120.2967903696
 30
0.0
 11
202.4546298936
 21
117.2967903696
 31
0.0
 12
203.3546298936
 22
117.2967903696
 32
0.0
 13
203.3546298936
 23
117.2967903696
 33
0.0
  0
SOLID
  5
16D
330
169
100
AcDbEntity
  8
VERMASSUNG
100
AcDbTrace
 10
202.9046298936
 20
106.2967903696
 30
0.0
 11
203.3546298936
 21
109.2967903696
 31
0.0
 12
202.4546298936
 22
109.2967903696
 32
0.0
 13
202.4546298936
 23
109.2967903696
 33
0.0
  0
LINE
  5
16E
330
169
100
AcDbEntity
  8
VERMASSUNG
100
AcDbLine
 10
194.8701628425
 20
120.2967903696
 30
0.0
 11
203.9046298936
 21
120.2967903696
 31
0.0
  0
LINE
  5
16F
330
169
100
AcDbEntity
  8
VERMASSUNG
100
AcDbLine
 10
194.8701628425
 20
106.2967903696
 30
0.0
 11
203.9046298936
 21
106.2967903696
 31
0.0
  0
LINE
  5
170
330
169
100
AcDbEntity
  8
VERMASSUNG
100
AcDbLine
 10
202.9046298936
 20
120.2967903696
 30
0.0
 11
202.9046298936
 21
106.2967903696
 31
0.0
  0
MTEXT
  5
171
330
169
100
AcDbEntity
  8
VERMASSUNG
100
AcDbMText
 10
200.3264944141
 20
110.1559464272
 30
0.0
 40
2.0
 41
0.0
 71
     1
 72
     1
  1
%%c
  7
SLDTEXTSTYLE0
 11
-7.044195017643634E-15
 21
1.0
 31
0.0
 73
     1
 44
1.0
  0
MTEXT
  5
172
330
169
100
AcDbEntity
  8
VERMASSUNG
100
AcDbMText
 10
200.3264945305
 20
113.7646246504
 30
0.0
 40
2.0
 41
0.0
 71
     1
 72
     1
  1
14
  7
SLDTEXTSTYLE0
 11
-7.044195017643634E-15
 21
1.0
 31
0.0
 73
     1
 44
1.0
  0
ENDBLK
  5
16B
330
169
100
AcDbEntity
  8
0
100
AcDbBlockEnd
  0
BLOCK
  5
175
330
174
100
AcDbEntity
  8
0
100
AcDbBlockBegin
  2
*D6
 70
     1
 10
0.0
 20
0.0
 30
0.0
  3
*D6
  1

  0
SOLID
  5
177
330
174
100
AcDbEntity
  8
VERMASSUNG
100
AcDbTrace
 10
208.9046298936
 20
135.7967903696
 30
0.0
 11
208.4546298936
 21
132.7967903696
 31
0.0
 12
209.3546298936
 22
132.7967903696
 32
0.0
 13
209.3546298936
 23
132.7967903696
 33
0.0
  0
SOLID
  5
178
330
174
100
AcDbEntity
  8
VERMASSUNG
100
AcDbTrace
 10
208.9046298936
 20
90.7967903696
 30
0.0
 11
209.3546298936
 21
93.7967903696
 31
0.0
 12
208.4546298936
 22
93.7967903696
 32
0.0
 13
208.4546298936
 23
93.7967903696
 33
0.0
  0
LINE
  5
179
330
174
100
AcDbEntity
  8
VERMASSUNG
100
AcDbLine
 10
181.2308678592
 20
135.7967903696
 30
0.0
 11
209.9046298936
 21
135.7967903696
 31
0.0
  0
LINE
  5
17A
330
174
100
AcDbEntity
  8
VERMASSUNG
100
AcDbLine
 10
181.2308678592
 20
90.7967903696
 30
0.0
 11
209.9046298936
 21
90.7967903696
 31
0.0
  0
LINE
  5
17B
330
174
100
AcDbEntity
  8
VERMASSUNG
100
AcDbLine
 10
208.9046298936
 20
135.7967903696
 30
0.0
 11
208.9046298936
 21
90.7967903696
 31
0.0
  0
MTEXT
  5
17C
330
174
100
AcDbEntity
  8
VERMASSUNG
100
AcDbMText
 10
206.3264944141
 20
109.9563667956
 30
0.0
 40
2.0
 41
0.0
 71
     1
 72
     1
  1
%%c
  7
SLDTEXTSTYLE0
 11
-7.044195017643634E-15
 21
1.0
 31
0.0
 73
     1
 44
1.0
  0
MTEXT
  5
17D
330
174
100
AcDbEntity
  8
VERMASSUNG
100
AcDbMText
 10
206.3264945305
 20
113.5650450188
 30
0.0
 40
2.0
 41
0.0
 71
     1
 72
     1
  1
45
  7
SLDTEXTSTYLE0
 11
-7.044195017643634E-15
 21
1.0
 31
0.0
 73
     1
 44
1.0
  0
ENDBLK
  5
176
330
174
100
AcDbEntity
  8
0
100
AcDbBlockEnd
  0
ENDSEC
  0
SECTION
  2
ENTITIES
  0
MTEXT
  5
45
330
1F
100
AcDbEntity
  8
KOPF_DÜNN
100
AcDbMText
 10
13.8892156294
 20
23.8442973028
 30
0.0
 40
3.0
 41
0.0
 71
     1
 72
     1
  1
HA6.W14.K01.080
  7
SLDTEXTSTYLE0
 73
     1
 44
1.0
  0
MTEXT
  5
46
330
1F
100
AcDbEntity
  8
VERMASSUNG
100
AcDbMText
 10
13.9329988022
 20
28.8834360957
 30
0.0
 40
3.0
 41
0.0
 71
     1
 72
     1
  1
Flächenspannfutter_End mill adapter Weldon ø14
  7
SLDTEXTSTYLE0
 73
     1
 44
1.0
  0
MTEXT
  5
47
330
1F
100
AcDbEntity
  8
VERMASSUNG
100
AcDbMText
 10
98.8601118557
 20
13.8365368179
 30
0.0
 40
2.0
 41
0.0
 71
     1
 72
     1
  1
Datum: 25.04.2006
  7
SLDTEXTSTYLE0
 73
     1
 44
1.0
  0
MTEXT
  5
49
330
1F
100
AcDbEntity
  8
VERMASSUNG
100
AcDbMText
 10
13.933048693
 20
18.0482802738
 30
0.0
 40
2.0
 41
0.0
 71
     1
 72
     1
  1
DIN 69 893 HSK A 63
  7
SLDTEXTSTYLE1
 73
     1
 44
1.0
  0
MTEXT
  5
4A
330
1F
100
AcDbEntity
  8
VERMASSUNG
100
AcDbMText
 10
13.9808475933
 20
13.9090973692
 30
0.0
 40
2.0
 41
0.0
 71
     1
 72
     1
  1
Gewicht: 1206g
  7
SLDTEXTSTYLE0
 73
     1
 44
1.0
  0
LINE
  5
4B
330
1F
100
AcDbEntity
  8
0
  6
Continuous
 62
     7
370
    15
100
AcDbLine
 10
115.4701628425
 20
81.7967903696
 30
0.0
 11
120.1201628425
 21
81.7967903696
 31
0.0
  0
LINE
  5
4C
330
1F
100
AcDbEntity
  8
0
  6
Continuous
 62
     7
370
    15
100
AcDbLine
 10
120.1481512016
 20
144.7967903696
 30
0.0
 11
115.4701628425
 21
144.7967903696
 31
0.0
  0
ARC
  5
4D
330
1F
100
AcDbEntity
  8
0
  6
Continuous
 62
     7
370
    15
100
AcDbCircle
 10
115.4701628425
 20
82.0967903696
 30
0.0
 40
0.3000000000000114
100
AcDbArc
 50
180.0
 51
270.0
  0
ARC
  5
4E
330
1F
100
AcDbEntity
  8
0
  6
Continuous
 62
     7
370
    15
100
AcDbCircle
 10
115.4701628425
 20
144.4967903696
 30
0.0
 40
0.3000000000000114
100
AcDbArc
 50
90.0
 51
180.0
  0
ARC
  5
4F
330
1F
100
AcDbEntity
  8
0
  6
Continuous
 62
     7
370
    15
100
AcDbCircle
 10
144.1201628425
 20
87.7967903696
 30
0.0
 40
3.0
100
AcDbArc
 50
90.0
 51
180.0
  0
ARC
  5
50
330
1F
100
AcDbEntity
  8
0
  6
Continuous
 62
     7
370
    15
100
AcDbCircle
 10
144.1201628425
 20
138.7967903696
 30
0.0
 40
3.0
100
AcDbArc
 50
180.0
 51
270.0
  0
ARC
  5
51
330
1F
100
AcDbEntity
  8
0
  6
Continuous
 62
     7
370
    15
100
AcDbCircle
 10
114.6701560899
 20
88.7263527552
 30
0.0
 40
0.6000067526677242
100
AcDbArc
 50
33.5571153394
 51
90.0
  0
ARC
  5
52
330
1F
100
AcDbEntity
  8
0
  6
Continuous
 62
     7
370
    15
100
AcDbCircle
 10
114.6701560899
 20
137.867227984
 30
0.0
 40
0.6000067526677242
100
AcDbArc
 50
270.0
 51
326.4428846606
  0
LINE
  5
53
330
1F
100
AcDbEntity
  8
0
  6
Continuous
 62
     7
370
    15
100
AcDbLine
 10
113.1701628425
 20
89.0763595079
 30
0.0
 11
114.0268756159
 21
89.3059150037
 31
0.0
  0
LINE
  5
54
330
1F
100
AcDbEntity
  8
0
  6
Continuous
 62
     7
370
    15
100
AcDbLine
 10
114.0268756159
 20
137.2876657356
 30
0.0
 11
113.1701628425
 21
137.5172212313
 31
0.0
  0
LINE
  5
55
330
1F
100
AcDbEntity
  8
0
  6
Continuous
 62
     7
370
    15
100
AcDbLine
 10
101.9386540437
 20
136.9545203897
 30
0.0
 11
89.3701628425
 21
136.3248364618
 31
0.0
  0
LINE
  5
56
330
1F
100
AcDbEntity
  8
0
  6
Continuous
 62
     7
370
    15
100
AcDbLine
 10
113.1701628425
 20
137.5172212313
 30
0.0
 11
110.3531611852
 21
137.3760888838
 31
0.0
  0
LINE
  5
57
330
1F
100
AcDbEntity
  8
0
  6
Continuous
 62
     7
370
    15
100
AcDbLine
 10
110.3532172752
 20
89.2174890453
 30
0.0
 11
113.1701628425
 21
89.0763595079
 31
0.0
  0
LINE
  5
58
330
1F
100
AcDbEntity
  8
0
  6
Continuous
 62
     7
370
    15
100
AcDbLine
 10
93.3701628425
 20
90.0683434758
 30
0.0
 11
101.9390565624
 21
89.6390401833
 31
0.0
  0
ARC
  5
59
330
1F
100
AcDbEntity
  8
0
  6
Continuous
 62
     7
370
    15
100
AcDbCircle
 10
114.182167043
 20
88.7263595079
 30
0.0
 40
0.6000000000000071
100
AcDbArc
 50
90.0
 51
105.0
  0
ARC
  5
5A
330
1F
100
AcDbEntity
  8
0
  6
Continuous
 62
     7
370
    15
100
AcDbCircle
 10
114.182167043
 20
137.8672212313
 30
0.0
 40
0.6000000000000227
100
AcDbArc
 50
255.0
 51
270.0
  0
LINE
  5
5B
330
1F
100
AcDbEntity
  8
0
  6
Continuous
 62
     7
370
    15
100
AcDbLine
 10
114.182167043
 20
89.3263595079
 30
0.0
 11
114.6701560899
 21
89.3263595079
 31
0.0
  0
LINE
  5
5C
330
1F
100
AcDbEntity
  8
0
  6
Continuous
 62
     7
370
    15
100
AcDbLine
 10
114.6701560899
 20
137.2672212313
 30
0.0
 11
114.182167043
 21
137.2672212313
 31
0.0
  0
LINE
  5
5D
330
1F
100
AcDbEntity
  8
0
  6
Continuous
 62
     7
370
    15
100
AcDbLine
 10
144.1201628425
 20
90.7967903696
 30
0.0
 11
181.2308678592
 21
90.7967903696
 31
0.0
  0
LINE
  5
5E
330
1F
100
AcDbEntity
  8
0
  6
Continuous
 62
     7
370
    15
100
AcDbLine
 10
181.2308678592
 20
135.7967903696
 30
0.0
 11
144.1201628425
 21
135.7967903696
 31
0.0
  0
LINE
  5
5F
330
1F
100
AcDbEntity
  8
0
  6
Continuous
 62
     7
370
    15
100
AcDbLine
 10
181.2308678592
 20
90.7967903696
 30
0.0
 11
194.015399366
 21
96.7583153172
 31
0.0
  0
LINE
  5
60
330
1F
100
AcDbEntity
  8
0
  6
Continuous
 62
     7
370
    15
100
AcDbLine
 10
194.015399366
 20
129.8352654221
 30
0.0
 11
181.2308678592
 21
135.7967903696
 31
0.0
  0
ARC
  5
61
330
1F
100
AcDbEntity
  8
0
  6
Continuous
 62
     7
370
    15
100
AcDbCircle
 10
193.1701628425
 20
98.5709308912
 30
0.0
 40
2.0
100
AcDbArc
 50
295.0
 51
0.0
  0
ARC
  5
62
330
1F
100
AcDbEntity
  8
0
  6
Continuous
 62
     7
370
    15
100
AcDbCircle
 10
193.1701628425
 20
128.022649848
 30
0.0
 40
2.0
100
AcDbArc
 50
0.0
 51
65.0
  0
LINE
  5
63
330
1F
100
AcDbEntity
  8
0
  6
Continuous
 62
     7
370
    15
100
AcDbLine
 10
84.5534994825
 20
92.4267903696
 30
0.0
 11
91.9701628425
 21
92.4267903696
 31
0.0
  0
ARC
  5
64
330
1F
100
AcDbEntity
  8
0
  6
Continuous
 62
     7
370
    15
100
AcDbCircle
 10
91.9701628425
 20
91.0267903696
 30
0.0
 40
1.400000000000006
100
AcDbArc
 50
42.2465410162
 51
90.0
  0
LINE
  5
65
330
1F
100
AcDbEntity
  8
0
  6
Continuous
 62
     7
370
    15
100
AcDbLine
 10
83.2711953367
 20
93.5757578755
 30
0.0
 11
84.4113263007
 21
92.4356269114
 31
0.0
  0
LINE
  5
66
330
1F
100
AcDbEntity
  8
0
  6
Continuous
 62
     7
370
    15
100
AcDbLine
 10
84.4113263007
 20
134.1579538278
 30
0.0
 11
83.2800636159
 21
133.026691143
 31
0.0
  0
ARC
  5
67
330
1F
100
AcDbEntity
  8
0
  6
Continuous
 62
     7
370
    15
100
AcDbCircle
 10
87.9701628425
 20
135.5667903696
 30
0.0
 40
1.399999999999991
100
AcDbArc
 50
270.0
 51
301.7485287426
  0
LINE
  5
68
330
1F
100
AcDbEntity
  8
0
  6
Continuous
 62
     7
370
    15
100
AcDbLine
 10
87.9701628425
 20
134.1667903696
 30
0.0
 11
84.5444285764
 21
134.1667903696
 31
0.0
  0
CIRCLE
  5
69
330
1F
100
AcDbEntity
  8
0
  6
Continuous
 62
     7
370
    15
100
AcDbCircle
 10
173.1701628425
 20
113.2967903696
 30
0.0
 40
5.099999999999997
  0
LINE
  5
6A
330
1F
100
AcDbEntity
  8
0
  6
Continuous
 62
     7
370
    15
100
AcDbLine
 10
169.7362903902
 20
112.8401504881
 30
0.0
 11
171.8486883541
 21
110.0946496518
 31
0.0
  0
LINE
  5
6B
330
1F
100
AcDbEntity
  8
0
  6
Continuous
 62
     7
370
    15
100
AcDbLine
 10
175.2825608064
 20
110.5512895333
 30
0.0
 11
171.8486883541
 21
110.0946496518
 31
0.0
  0
LINE
  5
6C
330
1F
100
AcDbEntity
  8
0
  6
Continuous
 62
     7
370
    15
100
AcDbLine
 10
176.6040352948
 20
113.7534302511
 30
0.0
 11
175.2825608064
 21
110.5512895333
 31
0.0
  0
LINE
  5
6D
330
1F
100
AcDbEntity
  8
0
  6
Continuous
 62
     7
370
    15
100
AcDbLine
 10
176.6040352948
 20
113.7534302511
 30
0.0
 11
174.4916373309
 21
116.4989310874
 31
0.0
  0
LINE
  5
6E
330
1F
100
AcDbEntity
  8
0
  6
Continuous
 62
     7
370
    15
100
AcDbLine
 10
171.0577648786
 20
116.0422912059
 30
0.0
 11
174.4916373309
 21
116.4989310874
 31
0.0
  0
LINE
  5
6F
330
1F
100
AcDbEntity
  8
0
  6
Continuous
 62
     7
370
    15
100
AcDbLine
 10
171.0577648786
 20
116.0422912059
 30
0.0
 11
169.7362903902
 21
112.8401504881
 31
0.0
  0
LINE
  5
70
330
1F
100
AcDbEntity
  8
0
  6
Continuous
 62
     7
370
    15
100
AcDbLine
 10
140.5201628425
 20
83.1098726734
 30
0.0
 11
136.562095674
 21
83.1098726734
 31
0.0
  0
LINE
  5
71
330
1F
100
AcDbEntity
  8
0
  6
Continuous
 62
     7
370
    15
100
AcDbLine
 10
136.562095674
 20
83.1098726734
 30
0.0
 11
136.562095674
 21
133.1467903696
 31
0.0
  0
LINE
  5
72
330
1F
100
AcDbEntity
  8
0
  6
Continuous
 62
     7
370
    15
100
AcDbLine
 10
136.562095674
 20
133.1467903696
 30
0.0
 11
140.5201628425
 21
133.1467903696
 31
0.0
  0
LINE
  5
73
330
1F
100
AcDbEntity
  8
0
  6
Continuous
 62
     7
370
    15
100
AcDbLine
 10
141.1201628425
 20
83.736512969
 30
0.0
 11
141.1201628425
 21
133.1467903696
 31
0.0
  0
SPLINE
  5
74
330
1F
100
AcDbEntity
  8
0
  6
Continuous
 62
     7
370
    15
100
AcDbSpline
210
0.0
220
0.0
230
1.0
 70
     8
 71
     3
 72
    10
 73
     6
 74
     0
 42
0.00000001
 43
0.00000001
 40
0.0
 40
0.0
 40
0.0
 40
0.0
 40
0.5
 40
0.5
 40
1.0
 40
1.0
 40
1.0
 40
1.0
 10
141.1201628425242
 20
83.73651296902979
 30
0.0
 10
141.1201628425242
 20
83.57662570083613
 30
0.0
 10
141.0588531912884
 20
83.41549844532152
 30
0.0
 10
140.8397535537533
 20
83.1813994469667
 30
0.0
 10
140.6817053474398
 20
83.10987267337546
 30
0.0
 10
140.5201628425242
 20
83.10987267337546
 30
0.0
  0
SPLINE
  5
75
330
1F
100
AcDbEntity
  8
0
  6
Continuous
 62
     7
370
    15
100
AcDbSpline
210
0.0
220
0.0
230
1.0
 70
    24
 71
     3
 72
    12
 73
     8
 74
     0
 42
0.00000001
 43
0.00000001
 40
0.0
 40
0.0
 40
0.0
 40
0.0
 40
0.250000000000002
 40
0.250000000000002
 40
0.500000000000004
 40
0.500000000000004
 40
1.0
 40
1.0
 40
1.0
 40
1.0
 10
140.5201628425242
 20
133.1467903696226
 30
0.0
 10
140.6104019102113
 20
133.1467903696226
 30
0.0
 10
140.7013000243177
 20
133.1467903696226
 30
0.0
 10
140.8558970608063
 20
133.1467903696226
 30
0.0
 10
140.9208754769144
 20
133.1467903696226
 30
0.0
 10
141.0727105048506
 20
133.1467903696226
 30
0.0
 10
141.1201628425242
 20
133.1467903696226
 30
0.0
 10
141.1201628425242
 20
133.1467903696226
 30
0.0
  0
LINE
  5
76
330
1F
100
AcDbEntity
  8
0
  6
Continuous
 62
     7
370
    15
100
AcDbLine
 10
120.1201628425
 20
133.1467903696
 30
0.0
 11
129.778230011
 21
133.1467903696
 31
0.0
  0
LINE
  5
77
330
1F
100
AcDbEntity
  8
0
  6
Continuous
 62
     7
370
    15
100
AcDbLine
 10
129.778230011
 20
83.1098726734
 30
0.0
 11
129.778230011
 21
133.1467903696
 31
0.0
  0
LINE
  5
78
330
1F
100
AcDbEntity
  8
0
  6
Continuous
 62
     7
370
    15
100
AcDbLine
 10
129.778230011
 20
83.1098726734
 30
0.0
 11
128.1201628425
 21
83.1098726734
 31
0.0
  0
SPLINE
  5
79
330
1F
100
AcDbEntity
  8
0
  6
Continuous
 62
     7
370
    15
100
AcDbSpline
210
0.0
220
0.0
230
1.0
 70
     8
 71
     3
 72
    28
 73
    24
 74
     0
 42
0.00000001
 43
0.00000001
 40
0.0
 40
0.0
 40
0.0
 40
0.0
 40
0.1249999999999999
 40
0.1249999999999999
 40
0.1874999999999998
 40
0.1874999999999998
 40
0.2499999999999997
 40
0.2499999999999997
 40
0.3749999999999993
 40
0.3749999999999993
 40
0.4374999999999993
 40
0.4374999999999993
 40
0.4999999999999992
 40
0.4999999999999992
 40
0.6249999999999992
 40
0.6249999999999992
 40
0.7499999999999992
 40
0.7499999999999992
 40
0.8124999999999993
 40
0.8124999999999993
 40
0.8749999999999996
 40
0.8749999999999996
 40
1.0
 40
1.0
 40
1.0
 40
1.0
 10
128.1201628425242
 20
83.10987267337546
 30
0.0
 10
127.5884550850313
 20
83.10987267337546
 30
0.0
 10
127.0662165197209
 20
83.09408795942524
 30
0.0
 10
126.2963460334459
 20
83.04909254534905
 30
0.0
 10
126.0419864612546
 20
83.03053755027331
 30
0.0
 10
125.5378648805561
 20
82.98668482782682
 30
0.0
 10
125.2881420631282
 20
82.96134022087462
 30
0.0
 10
124.5625521116818
 20
82.87793814312451
 30
0.0
 10
124.1041918501002
 20
82.81207258397343
 30
0.0
 10
123.4536939067063
 20
82.70310224348165
 30
0.0
 10
123.2420118559139
 20
82.664862607715
 30
0.0
 10
122.8379403667759
 20
82.58710387029564
 30
0.0
 10
122.645433852955
 20
82.5476029081203
 30
0.0
 10
122.0955988819338
 20
82.42869516575428
 30
0.0
 10
121.7656701036249
 20
82.34887748432966
 30
0.0
 10
121.1811988350563
 20
82.19553432253362
 30
0.0
 10
120.9349216970428
 20
82.12420056926435
 30
0.0
 10
120.6350789043447
 20
82.03025706218973
 30
0.0
 10
120.5466220472726
 20
82.00106326882981
 30
0.0
 10
120.3932606939674
 20
81.9475966945664
 30
0.0
 10
120.3281724797412
 20
81.92323736029122
 30
0.0
 10
120.1725784638004
 20
81.85964721484648
 30
0.0
 10
120.1201628425242
 20
81.82954427975722
 30
0.0
 10
120.1201628425242
 20
81.8126673867603
 30
0.0
  0
LINE
  5
7A
330
1F
100
AcDbEntity
  8
0
  6
Continuous
 62
     7
370
    15
100
AcDbLine
 10
120.1201628425
 20
81.8126673868
 30
0.0
 11
120.1201628425
 21
81.7967903696
 31
0.0
  0
SPLINE
  5
7B
330
1F
100
AcDbEntity
  8
0
  6
Continuous
 62
     7
370
    15
100
AcDbSpline
210
0.0
220
0.0
230
1.0
 70
     8
 71
     3
 72
    17
 73
    13
 74
     0
 42
0.00000001
 43
0.00000001
 40
0.0
 40
0.0
 40
0.0
 40
0.0
 40
0.1034796923964057
 40
0.210023918880785
 40
0.3134862136955584
 40
0.4198361274354883
 40
0.5254127712915682
 40
0.6339610695419791
 40
0.7409508756305032
 40
0.8511696089308174
 40
0.9558996534551938
 40
0.9999999999999999
 40
0.9999999999999999
 40
0.9999999999999999
 40
0.9999999999999999
 10
128.1201628425242
 20
143.7639858427869
 30
0.0
 10
127.6849144934142
 20
143.7694340393202
 30
0.0
 10
126.8015279868492
 20
143.780491779832
 30
0.0
 10
125.5207004016206
 20
143.8668501727336
 30
0.0
 10
124.3032838657465
 20
143.9947203492713
 30
0.0
 10
123.1954780135
 20
144.1536656478645
 30
0.0
 10
122.2072392095517
 20
144.3281593355801
 30
0.0
 10
121.3825156520202
 20
144.49732518622
 30
0.0
 10
120.7335621513609
 20
144.6452089687483
 30
0.0
 10
120.3165273358992
 20
144.7469995529791
 30
0.0
 10
120.1179306229347
 20
144.7973510755823
 30
0.0
 10
120.141243344368
 20
144.7914453913599
 30
0.0
 10
120.1481512016055
 20
144.7896954616653
 30
0.0
  0
LINE
  5
7C
330
1F
100
AcDbEntity
  8
0
  6
Continuous
 62
     7
370
    15
100
AcDbLine
 10
129.778230011
 20
143.7639858428
 30
0.0
 11
128.1201628425
 21
143.7639858428
 31
0.0
  0
LINE
  5
7D
330
1F
100
AcDbEntity
  8
0
  6
Continuous
 62
     7
370
    15
100
AcDbLine
 10
129.778230011
 20
137.755480032
 30
0.0
 11
129.778230011
 21
143.7639858428
 31
0.0
  0
LINE
  5
7E
330
1F
100
AcDbEntity
  8
0
  6
Continuous
 62
     7
370
    15
100
AcDbLine
 10
127.3657831882
 20
137.755480032
 30
0.0
 11
129.778230011
 21
137.755480032
 31
0.0
  0
SPLINE
  5
7F
330
1F
100
AcDbEntity
  8
0
  6
Continuous
 62
     7
370
    15
100
AcDbSpline
210
0.0
220
0.0
230
1.0
 70
     8
 71
     3
 72
    20
 73
    16
 74
     0
 42
0.00000001
 43
0.00000001
 40
0.0
 40
0.0
 40
0.0
 40
0.0
 40
0.2499999999999995
 40
0.2499999999999995
 40
0.3749999999999996
 40
0.3749999999999996
 40
0.4999999999999997
 40
0.4999999999999997
 40
0.6249999999999998
 40
0.6249999999999998
 40
0.7499999999999998
 40
0.7499999999999998
 40
0.8749999999999999
 40
0.8749999999999999
 40
1.0
 40
1.0
 40
1.0
 40
1.0
 10
120.1201628425242
 20
133.1467903696226
 30
0.0
 10
120.3685365768123
 20
133.80065279792
 30
0.0
 10
120.6881066691575
 20
134.4044385799172
 30
0.0
 10
121.3104129023622
 20
135.2312773160858
 30
0.0
 10
121.541837162793
 20
135.4937059540387
 30
0.0
 10
122.0630515024427
 20
135.9903686081437
 30
0.0
 10
122.3496719850778
 20
136.2209554871652
 30
0.0
 10
122.9691567263854
 20
136.6375097117478
 30
0.0
 10
123.3034571058723
 20
136.8250075137153
 30
0.0
 10
124.0287175784971
 20
137.1564044913517
 30
0.0
 10
124.4106326358876
 20
137.2959084788471
 30
0.0
 10
125.2054208120593
 20
137.521361986318
 30
0.0
 10
125.6195790062657
 20
137.6079880978616
 30
0.0
 10
126.4851253468471
 20
137.7259688867157
 30
0.0
 10
126.9230129618589
 20
137.7554800319901
 30
0.0
 10
127.3657831882135
 20
137.7554800319901
 30
0.0
  0
SPLINE
  5
80
330
1F
100
AcDbEntity
  8
0
  6
Continuous
 62
     7
370
    15
100
AcDbSpline
210
0.0
220
0.0
230
1.0
 70
     8
 71
     3
 72
    70
 73
    66
 74
     0
 42
0.00000001
 43
0.00000001
 40
-0.0312500000000001
 40
-0.0312500000000001
 40
0.0
 40
0.0
 40
0.0312499999999999
 40
0.0312499999999999
 40
0.0624999999999998
 40
0.0624999999999998
 40
0.0937499999999997
 40
0.0937499999999997
 40
0.1249999999999996
 40
0.1249999999999996
 40
0.1562499999999994
 40
0.1562499999999994
 40
0.1874999999999993
 40
0.1874999999999993
 40
0.2187499999999992
 40
0.2187499999999992
 40
0.2499999999999991
 40
0.2499999999999991
 40
0.281249999999999
 40
0.281249999999999
 40
0.3124999999999989
 40
0.3124999999999989
 40
0.3437499999999988
 40
0.3437499999999988
 40
0.3749999999999987
 40
0.3749999999999987
 40
0.4062499999999986
 40
0.4062499999999986
 40
0.4374999999999984
 40
0.4374999999999984
 40
0.4687499999999983
 40
0.4687499999999983
 40
0.4999999999999982
 40
0.4999999999999982
 40
0.5312499999999983
 40
0.5312499999999983
 40
0.5624999999999984
 40
0.5624999999999984
 40
0.5937499999999986
 40
0.5937499999999986
 40
0.6249999999999987
 40
0.6249999999999987
 40
0.6562499999999988
 40
0.6562499999999988
 40
0.6874999999999989
 40
0.6874999999999989
 40
0.718749999999999
 40
0.718749999999999
 40
0.7499999999999991
 40
0.7499999999999991
 40
0.7812499999999992
 40
0.7812499999999992
 40
0.8124999999999993
 40
0.8124999999999993
 40
0.8437499999999994
 40
0.8437499999999994
 40
0.8749999999999996
 40
0.8749999999999996
 40
0.9062499999999997
 40
0.9062499999999997
 40
0.9374999999999998
 40
0.9374999999999998
 40
0.9687499999999999
 40
0.9687499999999999
 40
1.0
 40
1.0
 40
1.03125
 40
1.03125
 10
123.4347081811844
 20
123.917697255606
 30
0.0
 10
122.9056175038641
 20
123.917697255606
 30
0.0
 10
122.645546836487
 20
123.9423745503912
 30
0.0
 10
122.1339721566516
 20
124.0388462234331
 30
0.0
 10
121.8797968729114
 20
124.1118271394131
 30
0.0
 10
121.3955262428497
 20
124.3015677423518
 30
0.0
 10
121.1658851509685
 20
124.4174284007455
 30
0.0
 10
120.731280802735
 20
124.6900462467032
 30
0.0
 10
120.5257150260884
 20
124.848085328757
 30
0.0
 10
120.1571578854932
 20
125.1916281797276
 30
0.0
 10
119.9916769027577
 20
125.3783906238293
 30
0.0
 10
119.6992523933226
 20
125.7819337982261
 30
0.0
 10
119.5751514166961
 20
125.9954307946553
 30
0.0
 10
119.3755722199463
 20
126.4348141085778
 30
0.0
 10
119.2986386340881
 20
126.6639540957234
 30
0.0
 10
119.1957815755677
 20
127.1299282184834
 30
0.0
 10
119.1703086661086
 20
127.3628106641596
 30
0.0
 10
119.1700182555408
 20
127.8282081992394
 30
0.0
 10
119.1960428893166
 20
128.0630839566337
 30
0.0
 10
119.2981911738086
 20
128.51457710388
 30
0.0
 10
119.3737676213917
 20
128.7326235792914
 30
0.0
 10
119.5742651525367
 20
129.1537181043292
 30
0.0
 10
119.699393994045
 20
129.3556394888475
 30
0.0
 10
119.9887527950666
 20
129.7276689713664
 30
0.0
 10
120.1541637821221
 20
129.9002972749468
 30
0.0
 10
120.5271543402699
 20
130.2176152794928
 30
0.0
 10
120.728887373359
 20
130.3574022129944
 30
0.0
 10
121.1617466241869
 20
130.6015784665462
 30
0.0
 10
121.3956651570763
 20
130.7068079775877
 30
0.0
 10
121.8798488922189
 20
130.8749651239628
 30
0.0
 10
122.1291645181744
 20
130.9382160145567
 30
0.0
 10
122.6421970426021
 20
131.0237952236593
 30
0.0
 10
122.9074908655067
 20
131.0456673885817
 30
0.0
 10
123.4298254853765
 20
131.0458310382256
 30
0.0
 10
123.6895791478582
 20
131.0248293461296
 30
0.0
 10
124.2061909635035
 20
130.939426991052
 30
0.0
 10
124.4585570040037
 20
130.875420807765
 30
0.0
 10
124.9400821255366
 20
130.7086062877238
 30
0.0
 10
125.1729328576501
 20
130.6044731243247
 30
0.0
 10
125.6100227060889
 20
130.3584864718297
 30
0.0
 10
125.8113436947461
 20
130.2187366408808
 30
0.0
 10
126.180429720046
 20
129.9055985711563
 30
0.0
 10
126.3494144710977
 20
129.7301424118862
 30
0.0
 10
126.6398705277569
 20
129.357302147786
 30
0.0
 10
126.762942339119
 20
129.159180337675
 30
0.0
 10
126.964278580541
 20
128.7384689949413
 30
0.0
 10
127.0414911264833
 20
128.5164789742738
 30
0.0
 10
127.1436946693833
 20
128.0666140345654
 30
0.0
 10
127.1699230208357
 20
127.8363586214487
 30
0.0
 10
127.1703994201528
 20
127.3650426788996
 30
0.0
 10
127.1446570076548
 20
127.1318052631855
 30
0.0
 10
127.0433462312909
 20
126.6701287236874
 30
0.0
 10
126.9665135919
 20
126.4392313365753
 30
0.0
 10
126.7661097526848
 20
125.9969553227836
 30
0.0
 10
126.6434382543927
 20
125.7858928914977
 30
0.0
 10
126.3534909652285
 20
125.384394380765
 30
0.0
 10
126.1849199858633
 20
125.1934878586891
 30
0.0
 10
125.8166503917501
 20
124.849762526692
 30
0.0
 10
125.6155885344798
 20
124.694625340478
 30
0.0
 10
125.1785576158949
 20
124.4195479803982
 30
0.0
 10
124.9464094027653
 20
124.3024317509762
 30
0.0
 10
124.4653991212664
 20
124.1135052659117
 30
0.0
 10
124.213299038436
 20
124.0404302955174
 30
0.0
 10
123.696229552177
 20
123.9423782363829
 30
0.0
 10
123.4347081811844
 20
123.917697255606
 30
0.0
 10
122.9056175038641
 20
123.917697255606
 30
0.0
  0
SPLINE
  5
81
330
1F
100
AcDbEntity
  8
0
  6
Continuous
 62
     7
370
    15
100
AcDbSpline
210
0.0
220
0.0
230
1.0
 70
     8
 71
     3
 72
    70
 73
    66
 74
     0
 42
0.00000001
 43
0.00000001
 40
-0.0312499999999999
 40
-0.0312499999999999
 40
0.0
 40
0.0
 40
0.0312499999999999
 40
0.0312499999999999
 40
0.0624999999999998
 40
0.0624999999999998
 40
0.0937499999999997
 40
0.0937499999999997
 40
0.1249999999999996
 40
0.1249999999999996
 40
0.1562499999999995
 40
0.1562499999999995
 40
0.1874999999999994
 40
0.1874999999999994
 40
0.2187499999999993
 40
0.2187499999999993
 40
0.2499999999999992
 40
0.2499999999999992
 40
0.2812499999999993
 40
0.2812499999999993
 40
0.3124999999999993
 40
0.3124999999999993
 40
0.3437499999999994
 40
0.3437499999999994
 40
0.3749999999999995
 40
0.3749999999999995
 40
0.4062499999999996
 40
0.4062499999999996
 40
0.4374999999999996
 40
0.4374999999999996
 40
0.4687499999999997
 40
0.4687499999999997
 40
0.4999999999999998
 40
0.4999999999999998
 40
0.5312499999999999
 40
0.5312499999999999
 40
0.5625
 40
0.5625
 40
0.5937500000000001
 40
0.5937500000000001
 40
0.6250000000000002
 40
0.6250000000000002
 40
0.6562500000000004
 40
0.6562500000000004
 40
0.6875000000000006
 40
0.6875000000000006
 40
0.7187500000000007
 40
0.7187500000000007
 40
0.7500000000000008
 40
0.7500000000000008
 40
0.7812500000000007
 40
0.7812500000000007
 40
0.8125000000000006
 40
0.8125000000000006
 40
0.8437500000000004
 40
0.8437500000000004
 40
0.8750000000000003
 40
0.8750000000000003
 40
0.9062500000000003
 40
0.9062500000000003
 40
0.9375000000000002
 40
0.9375000000000002
 40
0.9687500000000001
 40
0.9687500000000001
 40
1.0
 40
1.0
 40
1.03125
 40
1.03125
 10
123.4347081811844
 20
138.3557537644018
 30
0.0
 10
122.9056175038641
 20
138.3557537644018
 30
0.0
 10
122.645546836487
 20
138.3716542048166
 30
0.0
 10
122.1339721566516
 20
138.4335985549909
 30
0.0
 10
121.8797968729114
 20
138.4804007890821
 30
0.0
 10
121.3955262428497
 20
138.6013777725372
 30
0.0
 10
121.1658851509685
 20
138.6749801003441
 30
0.0
 10
120.731280802735
 20
138.8468043713222
 30
0.0
 10
120.5257150260884
 20
138.9458077942496
 30
0.0
 10
120.1571578854932
 20
139.1589042081625
 30
0.0
 10
119.9916769027577
 20
139.2738039242921
 30
0.0
 10
119.6992523933226
 20
139.5191708229824
 30
0.0
 10
119.5751514166961
 20
139.6476107234527
 30
0.0
 10
119.3755722199464
 20
139.9085028715386
 30
0.0
 10
119.2986386340881
 20
140.0428840428781
 30
0.0
 10
119.1957815755677
 20
140.3122039939844
 30
0.0
 10
119.1703086661086
 20
140.4448852582025
 30
0.0
 10
119.1700182555408
 20
140.7060717323336
 30
0.0
 10
119.1960428893166
 20
140.8358367704983
 30
0.0
 10
119.2981911738086
 20
141.0814194047709
 30
0.0
 10
119.3737676213917
 20
141.1980809420798
 30
0.0
 10
119.5742651525367
 20
141.4199861322344
 30
0.0
 10
119.699393994045
 20
141.5245973861574
 30
0.0
 10
119.9887527950666
 20
141.7146437977655
 30
0.0
 10
120.1541637821221
 20
141.8014034692151
 30
0.0
 10
120.5271543402699
 20
141.9589078449667
 30
0.0
 10
120.728887373359
 20
142.0272331097539
 30
0.0
 10
121.1617466241869
 20
142.1454628333731
 30
0.0
 10
121.3956651570763
 20
142.195757749477
 30
0.0
 10
121.8798488922189
 20
142.2756232863666
 30
0.0
 10
122.1291645181744
 20
142.3053644141661
 30
0.0
 10
122.6421970426021
 20
142.3455171556744
 30
0.0
 10
122.9074908655067
 20
142.3557154250842
 30
0.0
 10
123.4298254853765
 20
142.355791883469
 30
0.0
 10
123.6895791478582
 20
142.3460008718599
 30
0.0
 10
124.2061909635035
 20
142.3059340331212
 30
0.0
 10
124.4585570040037
 20
142.2758368662643
 30
0.0
 10
124.9400821255366
 20
142.1966146564341
 30
0.0
 10
125.1729328576501
 20
142.1468571769708
 30
0.0
 10
125.6100227060889
 20
142.0277652345204
 30
0.0
 10
125.8113436947461
 20
141.9594499729731
 30
0.0
 10
126.180429720046
 20
141.8040490060396
 30
0.0
 10
126.3494144710977
 20
141.7158966639727
 30
0.0
 10
126.6398705277569
 20
141.5254572748563
 30
0.0
 10
126.762942339119
 20
141.4228326971572
 30
0.0
 10
126.964278580541
 20
141.2011923505491
 30
0.0
 10
127.0414911264833
 20
141.0824382750016
 30
0.0
 10
127.1436946693833
 20
140.8377723360839
 30
0.0
 10
127.1699230208357
 20
140.7106156106354
 30
0.0
 10
127.1703994201528
 20
140.4461674647798
 30
0.0
 10
127.1446570076548
 20
140.3132667845227
 30
0.0
 10
127.0433462312909
 20
140.0464745110406
 30
0.0
 10
126.9665135919
 20
139.9111106095721
 30
0.0
 10
126.7661097526848
 20
139.6485308142695
 30
0.0
 10
126.6434382543928
 20
139.5215556545157
 30
0.0
 10
126.3534909652285
 20
139.2774762684333
 30
0.0
 10
126.1849199858633
 20
139.1600511436795
 30
0.0
 10
125.8166503917501
 20
138.946854682731
 30
0.0
 10
125.6155885344798
 20
138.8496805643062
 30
0.0
 10
125.1785576158949
 20
138.676325677092
 30
0.0
 10
124.9464094027653
 20
138.6019261254353
 30
0.0
 10
124.4653991212664
 20
138.4814732459307
 30
0.0
 10
124.213299038436
 20
138.4346148706646
 30
0.0
 10
123.696229552177
 20
138.3716573736809
 30
0.0
 10
123.4347081811844
 20
138.3557537644018
 30
0.0
 10
122.9056175038641
 20
138.3557537644018
 30
0.0
  0
LINE
  5
82
330
1F
100
AcDbEntity
  8
0
  6
Continuous
 62
     7
370
    15
100
AcDbLine
 10
115.1701628425
 20
82.0967903696
 30
0.0
 11
115.1701628425
 21
144.4967903636
 31
0.0
  0
SPLINE
  5
83
330
1F
100
AcDbEntity
  8
0
  6
Continuous
 62
     7
370
    15
100
AcDbSpline
210
0.0
220
0.0
230
1.0
 70
     8
 71
     3
 72
     8
 73
     4
 74
     0
 42
0.00000001
 43
0.00000001
 40
0.0
 40
0.0
 40
0.0
 40
0.0
 40
1.0
 40
1.0
 40
1.0
 40
1.0
 10
136.5620956740133
 20
83.10987267337546
 30
0.0
 10
136.0666160133475
 20
84.00539876130883
 30
0.0
 10
135.5725019653054
 20
84.90168317636109
 30
0.0
 10
135.0801628425242
 20
85.79895321056779
 30
0.0
  0
LINE
  5
84
330
1F
100
AcDbEntity
  8
0
  6
Continuous
 62
     7
370
    15
100
AcDbLine
 10
135.0801628425
 20
85.7989532106
 30
0.0
 11
135.0801628425
 21
133.1467903696
 31
0.0
  0
SPLINE
  5
85
330
1F
100
AcDbEntity
  8
0
  6
Continuous
 62
     7
370
    15
100
AcDbSpline
210
0.0
220
0.0
230
1.0
 70
    24
 71
     3
 72
     8
 73
     4
 74
     0
 42
0.00000001
 43
0.00000001
 40
0.0
 40
0.0
 40
0.0
 40
0.0
 40
1.0
 40
1.0
 40
1.0
 40
1.0
 10
135.0801628425242
 20
133.1467903696226
 30
0.0
 10
135.5601148368891
 20
133.1467903696226
 30
0.0
 10
136.0554155658627
 20
133.1467903696226
 30
0.0
 10
136.5620956740133
 20
133.1467903696226
 30
0.0
  0
LINE
  5
86
330
1F
100
AcDbEntity
  8
0
  6
Continuous
 62
     7
370
    15
100
AcDbLine
 10
131.2601628425
 20
85.7989532106
 30
0.0
 11
131.2601628425
 21
133.1467903696
 31
0.0
  0
SPLINE
  5
87
330
1F
100
AcDbEntity
  8
0
  6
Continuous
 62
     7
370
    15
100
AcDbSpline
210
0.0
220
0.0
230
1.0
 70
     8
 71
     3
 72
     8
 73
     4
 74
     0
 42
0.00000001
 43
0.00000001
 40
0.0
 40
0.0
 40
0.0
 40
0.0
 40
1.0
 40
1.0
 40
1.0
 40
1.0
 10
131.2601628425242
 20
85.79895321056777
 30
0.0
 10
130.767823719743
 20
84.90168317636108
 30
0.0
 10
130.2737096717009
 20
84.00539876130883
 30
0.0
 10
129.7782300110352
 20
83.10987267337546
 30
0.0
  0
SPLINE
  5
88
330
1F
100
AcDbEntity
  8
0
  6
Continuous
 62
     7
370
    15
100
AcDbSpline
210
0.0
220
0.0
230
1.0
 70
    24
 71
     3
 72
     8
 73
     4
 74
     0
 42
0.00000001
 43
0.00000001
 40
0.0
 40
0.0
 40
0.0
 40
0.0
 40
1.0
 40
1.0
 40
1.0
 40
1.0
 10
129.7782300110351
 20
133.1467903696226
 30
0.0
 10
130.2849101191857
 20
133.1467903696226
 30
0.0
 10
130.7802108481593
 20
133.1467903696226
 30
0.0
 10
131.2601628425242
 20
133.1467903696226
 30
0.0
  0
ARC
  5
89
330
1F
100
AcDbEntity
  8
0
  6
Continuous
 62
     7
370
    15
100
AcDbCircle
 10
123.1710096802
 20
125.1931478582
 30
0.0
 40
4.117467297033018
100
AcDbArc
 50
20.6241169864
 51
159.7585591986
  0
SPLINE
  5
8A
330
1F
100
AcDbEntity
  8
0
  6
Continuous
 62
     7
370
    15
100
AcDbSpline
210
0.0
220
0.0
230
1.0
 70
    24
 71
     3
 72
    14
 73
    10
 74
     0
 42
0.00000001
 43
0.00000001
 40
0.0
 40
0.0
 40
0.0
 40
0.0
 40
0.5
 40
0.5
 40
0.75
 40
0.75
 40
0.875
 40
0.875
 40
1.0
 40
1.0
 40
1.0
 40
1.0
 10
134.982488040192
 20
86.89679036962264
 30
0.0
 10
134.9357033351437
 20
86.89679036962264
 30
0.0
 10
134.8736521383641
 20
86.89679036962264
 30
0.0
 10
134.7302604998135
 20
86.89679036962262
 30
0.0
 10
134.6741168462623
 20
86.89679036962264
 30
0.0
 10
134.5611658241262
 20
86.89679036962262
 30
0.0
 10
134.518165062088
 20
86.89679036962264
 30
0.0
 10
134.4141023517816
 20
86.89679036962262
 30
0.0
 10
134.3487701134246
 20
86.89679036962262
 30
0.0
 10
134.2801628425242
 20
86.89679036962264
 30
0.0
  0
SPLINE
  5
8B
330
1F
100
AcDbEntity
  8
0
  6
Continuous
 62
     7
370
    15
100
AcDbSpline
210
0.0
220
0.0
230
1.0
 70
    24
 71
     3
 72
    12
 73
     8
 74
     0
 42
0.00000001
 43
0.00000001
 40
0.0
 40
0.0
 40
0.0
 40
0.0
 40
0.5000000000000017
 40
0.5000000000000017
 40
0.7500000000000008
 40
0.7500000000000008
 40
1.0
 40
1.0
 40
1.0
 40
1.0
 10
134.6858653108333
 20
139.6967903696226
 30
0.0
 10
134.6427797612223
 20
139.6967903696226
 30
0.0
 10
134.593627559473
 20
139.6967903696226
 30
0.0
 10
134.497154965185
 20
139.6967903696226
 30
0.0
 10
134.4610533800505
 20
139.6967903696226
 30
0.0
 10
134.3779476221892
 20
139.6967903696226
 30
0.0
 10
134.3299510252229
 20
139.6967903696226
 30
0.0
 10
134.2801628425242
 20
139.6967903696226
 30
0.0
  0
SPLINE
  5
8C
330
1F
100
AcDbEntity
  8
0
  6
Continuous
 62
     7
370
    15
100
AcDbSpline
210
0.0
220
0.0
230
1.0
 70
     8
 71
     3
 72
    10
 73
     6
 74
     0
 42
0.00000001
 43
0.00000001
 40
0.0
 40
0.0
 40
0.0
 40
0.0
 40
0.5
 40
0.5
 40
1.0
 40
1.0
 40
1.0
 40
1.0
 10
135.0801628425242
 20
140.4164442206584
 30
0.0
 10
135.0801628425242
 20
140.2726741628404
 30
0.0
 10
135.0441137838054
 20
140.1302548003453
 30
0.0
 10
134.9086049230313
 20
139.880360506988
 30
0.0
 10
134.8087289299351
 20
139.7723301707398
 30
0.0
 10
134.6858653108332
 20
139.6967903696226
 30
0.0
  0
SPLINE
  5
8D
330
1F
100
AcDbEntity
  8
0
  6
Continuous
 62
     7
370
    15
100
AcDbSpline
210
0.0
220
0.0
230
1.0
 70
     8
 71
     3
 72
    10
 73
     6
 74
     0
 42
0.00000001
 43
0.00000001
 40
0.0
 40
0.0
 40
0.0
 40
0.0
 40
0.5
 40
0.5
 40
1.0
 40
1.0
 40
1.0
 40
1.0
 10
135.0540152193641
 20
133.1467903696226
 30
0.0
 10
135.0627048622758
 20
133.1936692189408
 30
0.0
 10
135.0692439270263
 20
133.2410916843421
 30
0.0
 10
135.0780025614193
 20
133.3370284829289
 30
0.0
 10
135.0801628425242
 20
133.3849437709395
 30
0.0
 10
135.0801628425242
 20
133.432657001084
 30
0.0
  0
SPLINE
  5
8E
330
1F
100
AcDbEntity
  8
0
  6
Continuous
 62
     7
370
    15
100
AcDbSpline
210
0.0
220
0.0
230
1.0
 70
     8
 71
     3
 72
    10
 73
     6
 74
     0
 42
0.00000001
 43
0.00000001
 40
0.0
 40
0.0
 40
0.0
 40
0.0
 40
0.5
 40
0.5
 40
1.0
 40
1.0
 40
1.0
 40
1.0
 10
131.6544603742151
 20
139.6967903696226
 30
0.0
 10
131.5329201105467
 20
139.7715165368344
 30
0.0
 10
131.4315857501977
 20
139.8804615527512
 30
0.0
 10
131.2959468073093
 20
140.1308920335128
 30
0.0
 10
131.2601628425242
 20
140.2733113956117
 30
0.0
 10
131.2601628425242
 20
140.4164442206584
 30
0.0
  0
SPLINE
  5
8F
330
1F
100
AcDbEntity
  8
0
  6
Continuous
 62
     7
370
    15
100
AcDbSpline
210
0.0
220
0.0
230
1.0
 70
    24
 71
     3
 72
    12
 73
     8
 74
     0
 42
0.00000001
 43
0.00000001
 40
0.0
 40
0.0
 40
0.0
 40
0.0
 40
0.2499999999999992
 40
0.2499999999999992
 40
0.4999999999999983
 40
0.4999999999999983
 40
1.0
 40
1.0
 40
1.0
 40
1.0
 10
132.0601628425242
 20
139.6967903696226
 30
0.0
 10
132.0102861602069
 20
139.6967903696226
 30
0.0
 10
131.9622829668031
 20
139.6967903696226
 30
0.0
 10
131.8792348640912
 20
139.6967903696226
 30
0.0
 10
131.8431052846233
 20
139.6967903696226
 30
0.0
 10
131.7471932536792
 20
139.6967903696226
 30
0.0
 10
131.6974345857103
 20
139.6967903696226
 30
0.0
 10
131.6544603742151
 20
139.6967903696226
 30
0.0
  0
SPLINE
  5
90
330
1F
100
AcDbEntity
  8
0
  6
Continuous
 62
     7
370
    15
100
AcDbSpline
210
0.0
220
0.0
230
1.0
 70
    24
 71
     3
 72
    14
 73
    10
 74
     0
 42
0.00000001
 43
0.00000001
 40
0.0
 40
0.0
 40
0.0
 40
0.0
 40
0.1250000000000012
 40
0.1250000000000012
 40
0.2500000000000024
 40
0.2500000000000024
 40
0.5000000000000013
 40
0.5000000000000013
 40
1.0
 40
1.0
 40
1.0
 40
1.0
 10
132.0601628425242
 20
86.89679036962264
 30
0.0
 10
131.9917249946378
 20
86.89679036962264
 30
0.0
 10
131.9261749558727
 20
86.89679036962264
 30
0.0
 10
131.8217483164647
 20
86.89679036962264
 30
0.0
 10
131.7792037067034
 20
86.89679036962262
 30
0.0
 10
131.6665942461631
 20
86.89679036962262
 30
0.0
 10
131.6110551991436
 20
86.89679036962262
 30
0.0
 10
131.4684435036798
 20
86.89679036962264
 30
0.0
 10
131.405038148684
 20
86.89679036962262
 30
0.0
 10
131.3578376448565
 20
86.89679036962264
 30
0.0
  0
SPLINE
  5
91
330
1F
100
AcDbEntity
  8
0
  6
Continuous
 62
     7
370
    15
100
AcDbSpline
210
0.0
220
0.0
230
1.0
 70
     8
 71
     3
 72
    10
 73
     6
 74
     0
 42
0.00000001
 43
0.00000001
 40
0.0
 40
0.0
 40
0.0
 40
0.0
 40
0.5
 40
0.5
 40
1.0
 40
1.0
 40
1.0
 40
1.0
 10
131.2601628425242
 20
133.432657001084
 30
0.0
 10
131.2601628425242
 20
133.3848854930907
 30
0.0
 10
131.2623240861214
 20
133.3371757710291
 30
0.0
 10
131.2709954599815
 20
133.2418806534808
 30
0.0
 10
131.2775246429375
 20
133.1941880895141
 30
0.0
 10
131.2863104656844
 20
133.1467903696226
 30
0.0
  0
LINE
  5
92
330
1F
100
AcDbEntity
  8
0
  6
Continuous
 62
     7
370
    15
100
AcDbLine
 10
134.2801628425
 20
139.6967903696
 30
0.0
 11
132.0601628425
 21
139.6967903696
 31
0.0
  0
LINE
  5
93
330
1F
100
AcDbEntity
  8
0
  6
Continuous
 62
     7
370
    15
100
AcDbLine
 10
134.2801628425
 20
86.8967903696
 30
0.0
 11
132.0601628425
 21
86.8967903696
 31
0.0
  0
LINE
  5
94
330
1F
100
AcDbEntity
  8
0
  6
Continuous
 62
     7
370
    15
100
AcDbLine
 10
113.1701628425
 20
89.0763595079
 30
0.0
 11
113.1701628425
 21
137.5172212313
 31
0.0
  0
LINE
  5
95
330
1F
100
AcDbEntity
  8
0
  6
Continuous
 62
     7
370
    15
100
AcDbLine
 10
93.3701628425
 20
90.0683434758
 30
0.0
 11
93.3701628425
 21
91.3330528384
 31
0.0
  0
SPLINE
  5
96
330
1F
100
AcDbEntity
  8
0
  6
Continuous
 62
     7
370
    15
100
AcDbSpline
210
0.0
220
0.0
230
1.0
 70
     8
 71
     3
 72
    14
 73
    10
 74
     0
 42
0.00000001
 43
0.00000001
 40
0.0
 40
0.0
 40
0.0
 40
0.0
 40
0.25
 40
0.25
 40
0.5
 40
0.5
 40
0.75
 40
0.75
 40
1.0
 40
1.0
 40
1.0
 40
1.0
 10
92.5918757246085
 20
92.46363904606268
 30
0.0
 10
92.64850239981058
 20
92.35594159222582
 30
0.0
 10
92.74302506010031
 20
92.2531520105065
 30
0.0
 10
92.92607003566255
 20
92.05479469828636
 30
0.0
 10
93.01769661261727
 20
91.9587351896081
 30
0.0
 10
93.17654993031047
 20
91.77120614689886
 30
0.0
 10
93.24444053793215
 20
91.67979717411531
 30
0.0
 10
93.34135756363975
 20
91.50142095320516
 30
0.0
 10
93.3701628425248
 20
91.41419904695898
 30
0.0
 10
93.37016284252479
 20
91.33305283842472
 30
0.0
  0
SPLINE
  5
97
330
1F
100
AcDbEntity
  8
0
  6
Continuous
 62
     7
370
    15
100
AcDbSpline
210
0.0
220
0.0
230
1.0
 70
     8
 71
     3
 72
    14
 73
    10
 74
     0
 42
0.00000001
 43
0.00000001
 40
0.0
 40
0.0
 40
0.0
 40
0.0
 40
0.125
 40
0.125
 40
0.25
 40
0.25
 40
0.5
 40
0.5
 40
1.0
 40
1.0
 40
1.0
 40
1.0
 10
91.97016284252423
 20
92.910320908342
 30
0.0
 10
92.01870725118138
 20
92.9160692216223
 30
0.0
 10
92.0716226059663
 20
92.91296833296606
 30
0.0
 10
92.16691795094934
 20
92.89077348880373
 30
0.0
 10
92.20716894823428
 20
92.87354126170787
 30
0.0
 10
92.31143896174724
 20
92.81721334525581
 30
0.0
 10
92.36176093690058
 20
92.77302699931
 30
0.0
 10
92.48944388442595
 20
92.64201910045938
 30
0.0
 10
92.54552933148823
 20
92.55178458022908
 30
0.0
 10
92.59187572460998
 20
92.46363904606321
 30
0.0
  0
SPLINE
  5
98
330
1F
100
AcDbEntity
  8
0
  6
Continuous
 62
     7
370
    15
100
AcDbSpline
210
0.0
220
0.0
230
1.0
 70
     8
 71
     3
 72
     8
 73
     4
 74
     0
 42
0.00000001
 43
0.00000001
 40
0.0
 40
0.0
 40
0.0
 40
0.0
 40
1.0
 40
1.0
 40
1.0
 40
1.0
 10
89.70163774957796
 20
92.6004756217592
 30
0.0
 10
90.43621477606092
 20
92.71910063282816
 30
0.0
 10
91.19968984545659
 20
92.81908650496446
 30
0.0
 10
91.97016284252423
 20
92.910320908342
 30
0.0
  0
SPLINE
  5
99
330
1F
100
AcDbEntity
  8
0
  6
Continuous
 62
     7
370
    15
100
AcDbSpline
210
0.0
220
0.0
230
1.0
 70
     8
 71
     3
 72
    14
 73
    10
 74
     0
 42
0.00000001
 43
0.00000001
 40
0.0
 40
0.0
 40
0.0
 40
0.0
 40
0.5000000000000002
 40
0.5000000000000002
 40
0.7500000000000002
 40
0.7500000000000002
 40
0.8750000000000001
 40
0.8750000000000001
 40
1.0
 40
1.0
 40
1.0
 40
1.0
 10
84.42016284252422
 20
92.42685260422756
 30
0.0
 10
85.31230897307779
 20
92.42613037802691
 30
0.0
 10
86.20228540887138
 20
92.43071658448437
 30
0.0
 10
87.52888057594696
 20
92.45844158887591
 30
0.0
 10
87.96972750444569
 20
92.4710481265001
 30
0.0
 10
88.62616774186812
 20
92.50206427450752
 30
0.0
 10
88.84418139846
 20
92.5144074471343
 30
0.0
 10
89.27689025214275
 20
92.54743150229758
 30
0.0
 10
89.49216671730755
 20
92.56664866743603
 30
0.0
 10
89.70163774957796
 20
92.6004756217592
 30
0.0
  0
SPLINE
  5
9A
330
1F
100
AcDbEntity
  8
0
  6
Continuous
 62
     7
370
    15
100
AcDbSpline
210
0.0
220
0.0
230
1.0
 70
     8
 71
     3
 72
     8
 73
     4
 74
     0
 42
0.00000001
 43
0.00000001
 40
0.0000005163856711
 40
0.0000005163856711
 40
0.0000005163856711
 40
0.0000005163856711
 40
0.000026289209185
 40
0.000026289209185
 40
0.000026289209185
 40
0.000026289209185
 10
84.41011791210552
 20
92.43683647733545
 30
0.0
 10
84.413445650317
 20
92.43350223046262
 30
0.0
 10
84.41679410329631
 20
92.4301742731836
 30
0.0
 10
84.42016284252419
 20
92.42685260422755
 30
0.0
  0
SPLINE
  5
9B
330
1F
100
AcDbEntity
  8
0
  6
Continuous
 62
     7
370
    15
100
AcDbSpline
210
0.0
220
0.0
230
1.0
 70
     8
 71
     3
 72
     8
 73
     4
 74
     0
 42
0.00000001
 43
0.00000001
 40
0.0000005099763573
 40
0.0000005099763573
 40
0.0000005099763573
 40
0.0000005099763573
 40
0.0000262827998699
 40
0.0000262827998699
 40
0.0000262827998699
 40
0.0000262827998699
 10
84.4201628425242
 20
134.1667281350177
 30
0.0
 10
84.41679410329647
 20
134.1634064660618
 30
0.0
 10
84.41344565031733
 20
134.160078508783
 30
0.0
 10
84.410117912106
 20
134.1567442619103
 30
0.0
  0
SPLINE
  5
9C
330
1F
100
AcDbEntity
  8
0
  6
Continuous
 62
     7
370
    15
100
AcDbSpline
210
0.0
220
0.0
230
1.0
 70
     8
 71
     3
 72
    10
 73
     6
 74
     0
 42
0.00000001
 43
0.00000001
 40
0.0
 40
0.0
 40
0.0
 40
0.0
 40
0.5
 40
0.5
 40
1.0
 40
1.0
 40
1.0
 40
1.0
 10
87.97016284252423
 20
134.1198777614504
 30
0.0
 10
87.38257729543363
 20
134.1409432816868
 30
0.0
 10
86.79183090197324
 20
134.151701767559
 30
0.0
 10
85.60781173667439
 20
134.1650665480947
 30
0.0
 10
85.01439774846894
 20
134.1672091907593
 30
0.0
 10
84.42016284252422
 20
134.1667281350177
 30
0.0
  0
SPLINE
  5
9D
330
1F
100
AcDbEntity
  8
0
  6
Continuous
 62
     7
370
    15
100
AcDbSpline
210
0.0
220
0.0
230
1.0
 70
     8
 71
     3
 72
    18
 73
    14
 74
     0
 42
0.00000001
 43
0.00000001
 40
0.0
 40
0.0
 40
0.0
 40
0.0
 40
0.2500000000000008
 40
0.2500000000000008
 40
0.5000000000000009
 40
0.5000000000000009
 40
0.7500000000000009
 40
0.7500000000000009
 40
0.875000000000001
 40
0.875000000000001
 40
0.9375000000000006
 40
0.9375000000000006
 40
1.0
 40
1.0
 40
1.0
 40
1.0
 10
89.37016284252424
 20
135.1408980419856
 30
0.0
 10
89.37016284252425
 20
135.0576911331284
 30
0.0
 10
89.33431374258598
 20
134.9689544778148
 30
0.0
 10
89.20944200655205
 20
134.7868292872546
 30
0.0
 10
89.11904158890418
 20
134.691699238628
 30
0.0
 10
88.89679893416199
 20
134.5025177295037
 30
0.0
 10
88.76703414771622
 20
134.407572561409
 30
0.0
 10
88.52639669040472
 20
134.269293853829
 30
0.0
 10
88.43862939226729
 20
134.2235834205266
 30
0.0
 10
88.28410530506045
 20
134.1657601153052
 30
0.0
 10
88.22749441900571
 20
134.1480453512673
 30
0.0
 10
88.1034503880991
 20
134.1235060480344
 30
0.0
 10
88.03573571308083
 20
134.1175269094961
 30
0.0
 10
87.97016284252422
 20
134.1198777614504
 30
0.0
  0
LINE
  5
9E
330
1F
100
AcDbEntity
  8
0
  6
Continuous
 62
     7
370
    15
100
AcDbLine
 10
89.3701628425
 20
135.140898042
 30
0.0
 11
89.3701628425
 21
136.3248364618
 31
0.0
  0
SPLINE
  5
9F
330
1F
100
AcDbEntity
  8
0
  6
Continuous
 62
     7
370
    15
100
AcDbSpline
210
0.0
220
0.0
230
1.0
 70
     8
 71
     3
 72
    24
 73
    20
 74
     0
 42
0.00000001
 43
0.00000001
 40
0.0
 40
0.0
 40
0.0
 40
0.0
 40
0.0010489762969682
 40
0.0637843125639767
 40
0.1272220590447889
 40
0.19037889244876
 40
0.2526748653693632
 40
0.3146354154433589
 40
0.3770891997149993
 40
0.4393540298512636
 40
0.5008133242537819
 40
0.5621845104587263
 40
0.6248438451115537
 40
0.6874304766616293
 40
0.7496743174679374
 40
0.8119848426977089
 40
0.875096052541316
 40
0.9384412526965075
 40
0.9999999999999999
 40
0.9999999999999999
 40
0.9999999999999999
 40
0.9999999999999999
 10
101.9390686744999
 20
89.63928194104248
 30
0.0
 10
101.9386222143957
 20
89.63922365522359
 30
0.0
 10
101.9114746507019
 20
89.63567951328099
 30
0.0
 10
102.0070864283156
 20
89.64851325796386
 30
0.0
 10
102.2406466862101
 20
89.67775994316399
 30
0.0
 10
102.6362009935271
 20
89.72437426622689
 30
0.0
 10
103.1632412973679
 20
89.77455740788629
 30
0.0
 10
103.8067717093558
 20
89.81893387033655
 30
0.0
 10
104.5454455646007
 20
89.84587865127418
 30
0.0
 10
105.3429600700314
 20
89.84935050198007
 30
0.0
 10
106.1695389524735
 20
89.82172325795045
 30
0.0
 10
106.9950619700807
 20
89.7632443689772
 30
0.0
 10
107.7871885180817
 20
89.67779933961715
 30
0.0
 10
108.5197607920873
 20
89.5760650997808
 30
0.0
 10
109.1554010288154
 20
89.4682219778079
 30
0.0
 10
109.6773121358251
 20
89.3665918210688
 30
0.0
 10
110.0589409129405
 20
89.28410666439056
 30
0.0
 10
110.3097553831744
 20
89.22795745804093
 30
0.0
 10
110.3388769391587
 20
89.22110799942718
 30
0.0
 10
110.3532294599749
 20
89.21773225269901
 30
0.0
  0
SPLINE
  5
A0
330
1F
100
AcDbEntity
  8
0
  6
Continuous
 62
     7
370
    15
100
AcDbSpline
210
0.0
220
0.0
230
1.0
 70
     8
 71
     3
 72
    24
 73
    20
 74
     0
 42
0.00000001
 43
0.00000001
 40
0.0
 40
0.0
 40
0.0
 40
0.0
 40
0.061438427625136
 40
0.1250736755369643
 40
0.1884253490730172
 40
0.2508623904037476
 40
0.3129665632512369
 40
0.3753451453465166
 40
0.4377328972325402
 40
0.4990927322917273
 40
0.5605807588448041
 40
0.6229469893028856
 40
0.6854686282026866
 40
0.7475477813740222
 40
0.8098225060807238
 40
0.8730684085990468
 40
0.9364041844533111
 40
0.9991757196257863
 40
1.0
 40
1.0
 40
1.0
 40
1.0
 10
110.353174689172
 20
137.37581934408
 30
0.0
 10
110.3385739648682
 20
137.3724512872274
 30
0.0
 10
110.3088504461397
 20
137.3655947437536
 30
0.0
 10
110.0561126304916
 20
137.3092561232276
 30
0.0
 10
109.6731167140426
 20
137.2263990410977
 30
0.0
 10
109.1507611296045
 20
137.1244920111463
 30
0.0
 10
108.5159766516045
 20
137.0166528721026
 30
0.0
 10
107.785753047432
 20
136.9151859201274
 30
0.0
 10
106.9952844621984
 20
136.8301262064367
 30
0.0
 10
106.17080094737
 20
136.7719219125504
 30
0.0
 10
105.3437644884868
 20
136.7443384737238
 30
0.0
 10
104.5454402208348
 20
136.7478314512166
 30
0.0
 10
103.8056162565455
 20
136.7747873710697
 30
0.0
 10
103.1613620235701
 20
136.8191413130691
 30
0.0
 10
102.6339547683544
 20
136.8693467628268
 30
0.0
 10
102.2392901662045
 20
136.9159566180252
 30
0.0
 10
102.0067608870196
 20
136.9451522105725
 30
0.0
 10
101.9113808544674
 20
136.9579302795143
 30
0.0
 10
101.9383144913688
 20
136.9543760210061
 30
0.0
 10
101.9386635845932
 20
136.9543299534227
 30
0.0
  0
SPLINE
  5
A1
330
1F
100
AcDbEntity
  8
0
  6
Continuous
 62
     7
370
    15
100
AcDbSpline
210
0.0
220
0.0
230
1.0
 70
     8
 71
     3
 72
     9
 73
     5
 74
     0
 42
0.00000001
 43
0.00000001
 40
0.0
 40
0.0
 40
0.0
 40
0.0
 40
0.7009329310330151
 40
1.0
 40
1.0
 40
1.0
 40
1.0
 10
83.29094752675968
 20
93.59551006552002
 30
0.0
 10
83.30008680343495
 20
93.5776807799785
 30
0.0
 10
83.31312553548855
 20
93.55224427278621
 30
0.0
 10
83.32829078925388
 20
93.606124132978
 30
0.0
 10
83.33282621724761
 20
93.62223782484192
 30
0.0
  0
LINE
  5
A2
330
1F
100
AcDbEntity
  8
0
  6
Continuous
 62
     7
370
    15
100
AcDbLine
 10
83.2701628425
 20
93.6061126231
 30
0.0
 11
83.2701628425
 21
132.9874681161
 31
0.0
  0
SPLINE
  5
A3
330
1F
100
AcDbEntity
  8
0
  6
Continuous
 62
     7
370
    15
100
AcDbSpline
210
0.0
220
0.0
230
1.0
 70
     8
 71
     3
 72
    10
 73
     6
 74
     0
 42
0.00000001
 43
0.00000001
 40
0.0
 40
0.0
 40
0.0
 40
0.0
 40
0.5
 40
0.5
 40
1.0
 40
1.0
 40
1.0
 40
1.0
 10
83.33282621724763
 20
132.9713429144034
 30
0.0
 10
83.32392192813887
 20
133.0170844336165
 30
0.0
 10
83.30740654794589
 20
133.0342752730855
 30
0.0
 10
83.28029860188427
 20
133.0339519961498
 30
0.0
 10
83.27016284252423
 20
133.0160744538534
 30
0.0
 10
83.27016284252423
 20
132.9874681161008
 30
0.0
  0
SPLINE
  5
A4
330
1F
100
AcDbEntity
  8
0
  6
Continuous
 62
     7
370
    15
100
AcDbSpline
210
0.0
220
0.0
230
1.0
 70
     8
 71
     3
 72
    26
 73
    22
 74
     0
 42
0.00000001
 43
0.00000001
 40
0.0
 40
0.0
 40
0.0
 40
0.0
 40
0.2500000000000165
 40
0.2500000000000165
 40
0.3750000000000256
 40
0.3750000000000256
 40
0.4375000000000291
 40
0.4375000000000291
 40
0.4687500000000291
 40
0.4687500000000291
 40
0.5000000000000292
 40
0.5000000000000292
 40
0.5312500000000293
 40
0.5312500000000293
 40
0.5625000000000293
 40
0.5625000000000293
 40
0.625000000000026
 40
0.625000000000026
 40
0.7500000000000173
 40
0.7500000000000173
 40
1.0
 40
1.0
 40
1.0
 40
1.0
 10
84.09431648862873
 20
133.6869097032205
 30
0.0
 10
84.05571596576027
 20
133.569135006865
 30
0.0
 10
84.009418963206
 20
133.4447453207031
 30
0.0
 10
83.91547961477208
 20
133.2395259883496
 30
0.0
 10
83.88016814785863
 20
133.1679531219032
 30
0.0
 10
83.81398817211294
 20
133.0519998893027
 30
0.0
 10
83.78944980544473
 20
133.0114153544925
 30
0.0
 10
83.74607705989092
 20
132.9472736726208
 30
0.0
 10
83.73056865846573
 20
132.9254072473357
 30
0.0
 10
83.69552601387869
 20
132.8798129789925
 30
0.0
 10
83.67597572315894
 20
132.8561426880251
 30
0.0
 10
83.63404844278833
 20
132.8115261286851
 30
0.0
 10
83.61139633255668
 20
132.7906461161672
 30
0.0
 10
83.57042261847006
 20
132.7597727024164
 30
0.0
 10
83.55282331857464
 20
132.749933832584
 30
0.0
 10
83.50819633271848
 20
132.7309442168878
 30
0.0
 10
83.48763711006515
 20
132.7306198922344
 30
0.0
 10
83.43651167056848
 20
132.7398433331106
 30
0.0
 10
83.41560025757994
 20
132.7610902293276
 30
0.0
 10
83.36415035001902
 20
132.8350591081583
 30
0.0
 10
83.34648505071446
 20
132.9011772014731
 30
0.0
 10
83.33282621724763
 20
132.9713429144034
 30
0.0
  0
SPLINE
  5
A5
330
1F
100
AcDbEntity
  8
0
  6
Continuous
 62
     7
370
    15
100
AcDbSpline
210
0.0
220
0.0
230
1.0
 70
     8
 71
     3
 72
    10
 73
     6
 74
     0
 42
0.00000001
 43
0.00000001
 40
0.0
 40
0.0
 40
0.0
 40
0.0
 40
0.5
 40
0.5
 40
1.0
 40
1.0
 40
1.0
 40
1.0
 10
84.41011791210602
 20
134.1567442619103
 30
0.0
 10
84.3425586571878
 20
134.0890528691005
 30
0.0
 10
84.27892200185129
 20
134.0143457043469
 30
0.0
 10
84.16870124727942
 20
133.8553795719203
 30
0.0
 10
84.1218849540568
 20
133.7710243059122
 30
0.0
 10
84.09431648862872
 20
133.6869097032205
 30
0.0
  0
SPLINE
  5
A6
330
1F
100
AcDbEntity
  8
0
  6
Continuous
 62
     7
370
    15
100
AcDbSpline
210
0.0
220
0.0
230
1.0
 70
     8
 71
     3
 72
    10
 73
     6
 74
     0
 42
0.00000001
 43
0.00000001
 40
0.0
 40
0.0
 40
0.0
 40
0.0
 40
0.5
 40
0.5
 40
1.0
 40
1.0
 40
1.0
 40
1.0
 10
84.09431648862878
 20
92.90667103602466
 30
0.0
 10
84.12179390338198
 20
92.82283423955907
 30
0.0
 10
84.16850253366962
 20
92.73852375197225
 30
0.0
 10
84.27878099641158
 20
92.5794025214894
 30
0.0
 10
84.34266853502322
 20
92.50441777740131
 30
0.0
 10
84.41011791210553
 20
92.43683647733546
 30
0.0
  0
SPLINE
  5
A7
330
1F
100
AcDbEntity
  8
0
  6
Continuous
 62
     7
370
    15
100
AcDbSpline
210
0.0
220
0.0
230
1.0
 70
     8
 71
     3
 72
    24
 73
    20
 74
     0
 42
0.00000001
 43
0.00000001
 40
0.0
 40
0.0
 40
0.0
 40
0.0
 40
0.249999999999999
 40
0.249999999999999
 40
0.3749999999999983
 40
0.3749999999999983
 40
0.4374999999999987
 40
0.4374999999999987
 40
0.4687499999999975
 40
0.4687499999999975
 40
0.4999999999999963
 40
0.4999999999999963
 40
0.5624999999999984
 40
0.5624999999999984
 40
0.6250000000000006
 40
0.6250000000000006
 40
0.7500000000000001
 40
0.7500000000000001
 40
1.0
 40
1.0
 40
1.0
 40
1.0
 10
83.33282621724763
 20
93.62223782484189
 30
0.0
 10
83.34657933591785
 20
93.69288788283217
 30
0.0
 10
83.36435190332372
 20
93.7594859955971
 30
0.0
 10
83.41660299487907
 20
93.83358401583031
 30
0.0
 10
83.43763807046065
 20
93.85484182299186
 30
0.0
 10
83.49053847808906
 20
93.86298774913811
 30
0.0
 10
83.51164415096699
 20
93.86204794574232
 30
0.0
 10
83.55769631964496
 20
93.84103195416498
 30
0.0
 10
83.57606679162835
 20
93.83012314805737
 30
0.0
 10
83.61761842669408
 20
93.79748823711
 30
0.0
 10
83.64018509945097
 20
93.77599625673862
 30
0.0
 10
83.702966115911
 20
93.7075303131523
 30
0.0
 10
83.73609587687889
 20
93.66145585494722
 30
0.0
 10
83.79301356336391
 20
93.57644796661255
 30
0.0
 10
83.81719958886765
 20
93.53616766543117
 30
0.0
 10
83.88240753924741
 20
93.42123143896524
 30
0.0
 10
83.91712359943868
 20
93.35064845381821
 30
0.0
 10
84.01033886976956
 20
93.14644269473962
 30
0.0
 10
84.05601140513023
 20
93.02354431241226
 30
0.0
 10
84.09431648862876
 20
92.90667103602468
 30
0.0
  0
SPLINE
  5
A8
330
1F
100
AcDbEntity
  8
0
  6
Continuous
 62
     7
370
    15
100
AcDbSpline
210
0.0
220
0.0
230
1.0
 70
     8
 71
     3
 72
    39
 73
    35
 74
     0
 42
0.00000001
 43
0.00000001
 40
-0.0928095622302402
 40
-0.0617031507265487
 40
-0.0305362250599732
 40
0.0
 40
0.0305475982038147
 40
0.0617345030357868
 40
0.0928527321983239
 40
0.1239445532670377
 40
0.1551265963889004
 40
0.1867206129266489
 40
0.2185058018598594
 40
0.2499270293624734
 40
0.2813718391597765
 40
0.313222736494303
 40
0.3448877783296191
 40
0.3761206370801193
 40
0.4072076510863357
 40
0.4382799582943149
 40
0.4694128587213291
 40
0.500011562739414
 40
0.5306017307767169
 40
0.5617735116524701
 40
0.5928580151586921
 40
0.6239626851978138
 40
0.6551727127021812
 40
0.6868190105416877
 40
0.7186214832531631
 40
0.750067446881783
 40
0.7814823873319034
 40
0.8133063758012443
 40
0.8449175175392741
 40
0.8761201943714096
 40
0.9071904377697598
 40
0.9382968492734513
 40
0.9694637749400268
 40
1.0
 40
1.030547598203815
 40
1.061734503035787
 40
1.092852732198324
 10
174.3331768157016
 20
107.3032020491493
 30
0.0
 10
173.1700203254326
 20
107.1842959485251
 30
0.0
 10
172.0066065890717
 20
107.3032352040049
 30
0.0
 10
170.8899829760873
 20
107.6605239934819
 30
0.0
 10
169.8582369104407
 20
108.2216009189992
 30
0.0
 10
168.9633732468606
 20
108.9778221575068
 30
0.0
 10
168.2283383163599
 20
109.8978263225091
 30
0.0
 10
167.6840903656582
 20
110.9551228007883
 30
0.0
 10
167.3383765117021
 20
112.1010245022923
 30
0.0
 10
167.2239489854569
 20
113.2942519882839
 30
0.0
 10
167.3390274472918
 20
114.4882272117873
 30
0.0
 10
167.6850451121745
 20
115.6361025546002
 30
0.0
 10
168.229466928789
 20
116.6959600674025
 30
0.0
 10
168.9649921329618
 20
117.6174697568903
 30
0.0
 10
169.8594917671479
 20
118.374061541664
 30
0.0
 10
170.8899285972152
 20
118.9348869133132
 30
0.0
 10
172.0063591717788
 20
119.291011063098
 30
0.0
 10
173.1704418952856
 20
119.4091004084848
 30
0.0
 10
174.3349828048307
 20
119.290658588094
 30
0.0
 10
175.4517778850044
 20
118.9339384875659
 30
0.0
 10
176.482908431609
 20
118.3725970120285
 30
0.0
 10
177.3771836030226
 20
117.6155594615728
 30
0.0
 10
178.1121368232736
 20
116.694007611619
 30
0.0
 10
178.6559084373806
 20
115.6350681763758
 30
0.0
 10
179.0012885410674
 20
114.4878869366048
 30
0.0
 10
179.1163610904062
 20
113.2946130742063
 30
0.0
 10
179.0020277162565
 20
112.1009358922441
 30
0.0
 10
178.6558928489953
 20
110.9544934935192
 30
0.0
 10
178.1111814236875
 20
109.8963623992031
 30
0.0
 10
177.3756444046954
 20
108.9764618058991
 30
0.0
 10
176.4805799411228
 20
108.2207481311455
 30
0.0
 10
175.4493073693649
 20
107.6602179237601
 30
0.0
 10
174.3331768157016
 20
107.3032020491493
 30
0.0
 10
173.1700203254326
 20
107.1842959485251
 30
0.0
 10
172.0066065890717
 20
107.3032352040049
 30
0.0
  0
LINE
  5
A9
330
1F
100
AcDbEntity
  8
0
  6
Continuous
 62
     7
370
    15
100
AcDbLine
 10
181.2308678592
 20
90.7967903696
 30
0.0
 11
181.2308678592
 21
135.7967903696
 31
0.0
  0
SPLINE
  5
AA
330
1F
100
AcDbEntity
  8
0
  6
Continuous
 62
     7
370
    15
100
AcDbSpline
210
0.0
220
0.0
230
1.0
 70
     8
 71
     3
 72
     8
 73
     4
 74
     0
 42
0.00000001
 43
0.00000001
 40
0.0
 40
0.0
 40
0.0
 40
0.0
 40
1.0
 40
1.0
 40
1.0
 40
1.0
 10
129.7782300110352
 20
137.7554800319901
 30
0.0
 10
130.2853168527944
 20
136.6243296778264
 30
0.0
 10
130.7808846919344
 20
135.4879452670586
 30
0.0
 10
131.2601628425242
 20
134.346934037206
 30
0.0
  0
LINE
  5
AB
330
1F
100
AcDbEntity
  8
0
  6
Continuous
 62
     7
370
    15
100
AcDbLine
 10
131.2601628425
 20
134.3469340372
 30
0.0
 11
131.2601628425
 21
133.4326570011
 31
0.0
  0
LINE
  5
AC
330
1F
100
AcDbEntity
  8
0
  6
Continuous
 62
     7
370
    15
100
AcDbLine
 10
135.0801628425
 20
133.4326570011
 30
0.0
 11
135.0801628425
 21
134.3469340372
 31
0.0
  0
SPLINE
  5
AD
330
1F
100
AcDbEntity
  8
0
  6
Continuous
 62
     7
370
    15
100
AcDbSpline
210
0.0
220
0.0
230
1.0
 70
     8
 71
     3
 72
     8
 73
     4
 74
     0
 42
0.00000001
 43
0.00000001
 40
0.0
 40
0.0
 40
0.0
 40
0.0
 40
1.0
 40
1.0
 40
1.0
 40
1.0
 10
135.0801628425242
 20
134.346934037206
 30
0.0
 10
135.5594409931141
 20
135.4879452670586
 30
0.0
 10
136.055008832254
 20
136.6243296778264
 30
0.0
 10
136.5620956740133
 20
137.7554800319901
 30
0.0
  0
LINE
  5
AE
330
1F
100
AcDbEntity
  8
0
  6
Continuous
 62
     7
370
    15
100
AcDbLine
 10
136.562095674
 20
137.755480032
 30
0.0
 11
140.5201628425
 21
137.755480032
 31
0.0
  0
SPLINE
  5
AF
330
1F
100
AcDbEntity
  8
0
  6
Continuous
 62
     7
370
    15
100
AcDbSpline
210
0.0
220
0.0
230
1.0
 70
     8
 71
     3
 72
    12
 73
     8
 74
     0
 42
0.00000001
 43
0.00000001
 40
0.0
 40
0.0
 40
0.0
 40
0.0
 40
0.2499999999999987
 40
0.2499999999999987
 40
0.4999999999999973
 40
0.4999999999999973
 40
1.0
 40
1.0
 40
1.0
 40
1.0
 10
140.5201628425242
 20
137.7554800319901
 30
0.0
 10
140.6113625643499
 20
137.7554800319901
 30
0.0
 10
140.7019575734859
 20
137.7272603334022
 30
0.0
 10
140.8553702999326
 20
137.6328173261541
 30
0.0
 10
140.9205791672562
 20
137.5665303494488
 30
0.0
 10
141.0733636965961
 20
137.3409055261605
 30
0.0
 10
141.1201628425242
 20
137.1584792631279
 30
0.0
 10
141.1201628425242
 20
136.977742630881
 30
0.0
  0
LINE
  5
B0
330
1F
100
AcDbEntity
  8
0
  6
Continuous
 62
     7
370
    15
100
AcDbLine
 10
141.1201628425
 20
136.9777426309
 30
0.0
 11
141.1201628425
 21
133.1467903696
 31
0.0
  0
SPLINE
  5
B1
330
1F
100
AcDbEntity
  8
0
  6
Continuous
 62
     7
370
    15
100
AcDbSpline
210
0.0
220
0.0
230
1.0
 70
     8
 71
     3
 72
     8
 73
     4
 74
     0
 42
0.00000001
 43
0.00000001
 40
0.0
 40
0.0
 40
0.0
 40
0.0
 40
1.0
 40
1.0
 40
1.0
 40
1.0
 10
131.2601628425242
 20
141.1020245607942
 30
0.0
 10
130.7674527456785
 20
141.9900435589206
 30
0.0
 10
130.2733700403995
 20
142.8773061946066
 30
0.0
 10
129.7782300110352
 20
143.7639858427869
 30
0.0
  0
LINE
  5
B2
330
1F
100
AcDbEntity
  8
0
  6
Continuous
 62
     7
370
    15
100
AcDbLine
 10
131.2601628425
 20
134.3469340372
 30
0.0
 11
131.2601628425
 21
141.1020245608
 31
0.0
  0
SPLINE
  5
B3
330
1F
100
AcDbEntity
  8
0
  6
Continuous
 62
     7
370
    15
100
AcDbSpline
210
0.0
220
0.0
230
1.0
 70
     8
 71
     3
 72
     8
 73
     4
 74
     0
 42
0.00000001
 43
0.00000001
 40
0.0
 40
0.0
 40
0.0
 40
0.0
 40
1.0
 40
1.0
 40
1.0
 40
1.0
 10
136.5620956740133
 20
143.7639858427869
 30
0.0
 10
136.066955644649
 20
142.8773061946066
 30
0.0
 10
135.57287293937
 20
141.9900435589206
 30
0.0
 10
135.0801628425242
 20
141.1020245607942
 30
0.0
  0
LINE
  5
B4
330
1F
100
AcDbEntity
  8
0
  6
Continuous
 62
     7
370
    15
100
AcDbLine
 10
136.562095674
 20
137.755480032
 30
0.0
 11
136.562095674
 21
143.7639858428
 31
0.0
  0
LINE
  5
B5
330
1F
100
AcDbEntity
  8
0
  6
Continuous
 62
     7
370
    15
100
AcDbLine
 10
135.0801628425
 20
134.3469340372
 30
0.0
 11
135.0801628425
 21
141.1020245608
 31
0.0
  0
SPLINE
  5
B6
330
1F
100
AcDbEntity
  8
0
  6
Continuous
 62
     7
370
    15
100
AcDbSpline
210
0.0
220
0.0
230
1.0
 70
     8
 71
     3
 72
    10
 73
     6
 74
     0
 42
0.00000001
 43
0.00000001
 40
0.0
 40
0.0
 40
0.0
 40
0.0
 40
0.5
 40
0.5
 40
1.0
 40
1.0
 40
1.0
 40
1.0
 10
141.1201628425242
 20
143.1432306933865
 30
0.0
 10
141.1201628425242
 20
143.3036359597374
 30
0.0
 10
141.0579250114174
 20
143.4626977727259
 30
0.0
 10
140.8387900876748
 20
143.6936102383563
 30
0.0
 10
140.6812013926829
 20
143.7639858427869
 30
0.0
 10
140.5201628425242
 20
143.7639858427869
 30
0.0
  0
LINE
  5
B7
330
1F
100
AcDbEntity
  8
0
  6
Continuous
 62
     7
370
    15
100
AcDbLine
 10
141.1201628425
 20
136.9777426309
 30
0.0
 11
141.1201628425
 21
143.1432306934
 31
0.0
  0
LINE
  5
B8
330
1F
100
AcDbEntity
  8
0
  6
Continuous
 62
     7
370
    15
100
AcDbLine
 10
140.5201628425
 20
143.7639858428
 30
0.0
 11
136.562095674
 21
143.7639858428
 31
0.0
  0
ARC
  5
B9
330
1F
100
AcDbEntity
  8
0
  6
Continuous
 62
     7
370
    15
100
AcDbCircle
 10
123.1709371946
 20
131.9889574242
 30
0.0
 40
7.261943580377659
100
AcDbArc
 50
70.9635752385
 51
109.2417584322
  0
LINE
  5
BA
330
1F
100
AcDbEntity
  8
0
  6
Continuous
 62
     7
370
    15
100
AcDbLine
 10
195.1701628425
 20
98.5709308912
 30
0.0
 11
195.1701628425
 21
128.0226498376
 31
0.0
  0
CIRCLE
  5
BB
330
1F
100
AcDbEntity
  8
0
  6
HIDDEN
 62
     7
370
     0
100
AcDbCircle
 10
173.1701628425
 20
113.2967903696
 30
0.0
 40
6.000000000000001
  0
CIRCLE
  5
BC
330
1F
100
AcDbEntity
  8
0
  6
HIDDEN
 62
     7
370
     0
100
AcDbCircle
 10
173.1701628425
 20
113.2967903696
 30
0.0
 40
2.749999999999993
  0
CIRCLE
  5
BD
330
1F
100
AcDbEntity
  8
0
  6
HIDDEN
 62
     7
370
     0
100
AcDbCircle
 10
173.1701628425
 20
113.2967903696
 30
0.0
 40
4.000000000000009
  0
LINE
  5
BE
330
1F
100
AcDbEntity
  8
0
  6
HIDDEN
 62
     7
370
     0
100
AcDbLine
 10
129.778230011
 20
137.755480032
 30
0.0
 11
129.778230011
 21
133.1467903696
 31
0.0
  0
ARC
  5
BF
330
1F
100
AcDbEntity
  8
0
  6
HIDDEN
 62
     7
370
     0
100
AcDbCircle
 10
123.4560111952
 20
125.7857656327
 30
0.0
 40
3.670209069146763
100
AcDbArc
 50
265.5330863118
 51
13.5145715844
  0
ARC
  5
C0
330
1F
100
AcDbEntity
  8
0
  6
HIDDEN
 62
     7
370
     0
100
AcDbCircle
 10
122.8852038615
 20
125.7879726814
 30
0.0
 40
3.672340299085719
100
AcDbArc
 50
166.9419174655
 51
274.4503980152
  0
LINE
  5
C1
330
1F
100
AcDbEntity
  8
0
  6
HIDDEN
 62
     7
370
     0
100
AcDbLine
 10
103.1653130471
 20
89.7721907468
 30
0.0
 11
102.9136554529
 21
89.7486691253
 31
0.0
  0
LINE
  5
C2
330
1F
100
AcDbEntity
  8
0
  6
HIDDEN
 62
     7
370
     0
100
AcDbLine
 10
102.7909638343
 20
136.8562214022
 30
0.0
 11
103.1652203268
 21
136.8213733996
 31
0.0
  0
SPLINE
  5
C3
330
1F
100
AcDbEntity
  8
0
  6
HIDDEN
 62
     7
370
     0
100
AcDbSpline
210
0.0
220
0.0
230
1.0
 70
     8
 71
     3
 72
    47
 73
    43
 74
     0
 42
0.00000001
 43
0.00000001
 40
-0.0754949989699735
 40
-0.0624612121563025
 40
-0.0297328214067873
 40
0.0
 40
0.0297242095428946
 40
0.0624299019453945
 40
0.0902097647781948
 40
0.124985293017224
 40
0.1466391321272142
 40
0.167019290760493
 40
0.1861310717630554
 40
0.2039809867675342
 40
0.2205771118261363
 40
0.235929581578286
 40
0.2500512891535308
 40
0.2849026059674621
 40
0.3264789802138989
 40
0.3748710591760585
 40
0.3932245645790765
 40
0.4097806282274717
 40
0.4245404603352815
 40
0.4375060314395747
 40
0.4702107541795682
 40
0.4999892667314601
 40
0.5297467782422783
 40
0.562440249840523
 40
0.5901193917519332
 40
0.624967206451754
 40
0.6466372316118325
 40
0.6670357476813271
 40
0.6861680533990706
 40
0.7040406516321679
 40
0.7206616024893032
 40
0.7360410134932877
 40
0.7501917330339923
 40
0.7849807220977915
 40
0.8265111602615232
 40
0.8748738597239415
 40
0.8931741800640777
 40
0.9097174713219041
 40
0.9245050010300265
 40
0.9375387878436975
 40
0.9702671785932127
 40
1.0
 40
1.029724209542895
 40
1.062429901945394
 40
1.090209764778195
 10
172.1747984839681
 20
108.2353363985995
 30
0.0
 10
173.1700451564193
 20
108.141541911032
 30
0.0
 10
174.1651999467358
 20
108.2353197575213
 30
0.0
 10
175.1003890754211
 20
108.5157845033849
 30
0.0
 10
176.0073102127319
 20
108.9892391377711
 30
0.0
 10
176.7126015236996
 20
109.5558845152817
 30
0.0
 10
177.2522085523716
 20
110.1736927235617
 30
0.0
 10
177.6148689187131
 20
110.7190748726902
 30
0.0
 10
177.8896972914384
 20
111.2695457666601
 30
0.0
 10
178.085560575392
 20
111.8110291941155
 30
0.0
 10
178.2123937290249
 20
112.3321609669105
 30
0.0
 10
178.2807630689968
 20
112.8244203822713
 30
0.0
 10
178.3120969736832
 20
113.5180017344014
 30
0.0
 10
178.2041757119307
 20
114.4969421035742
 30
0.0
 10
177.7385595365329
 20
115.7681056363674
 30
0.0
 10
177.0418081742866
 20
116.7149052987494
 30
0.0
 10
176.3788954104983
 20
117.3059585934057
 30
0.0
 10
175.9467676039189
 20
117.6142382191236
 30
0.0
 10
175.5360472933876
 20
117.8502716885153
 30
0.0
 10
174.9490703275422
 20
118.1230194505928
 30
0.0
 10
174.1665895426404
 20
118.3580586453897
 30
0.0
 10
173.17074778454
 20
118.4521196890724
 30
0.0
 10
172.1748578839064
 20
118.3582319415246
 30
0.0
 10
171.2405196860619
 20
118.0779068887096
 30
0.0
 10
170.3339339282179
 20
117.6049167776268
 30
0.0
 10
169.6285146639401
 20
117.0385679553691
 30
0.0
 10
169.0881043529355
 20
116.4199121718875
 30
0.0
 10
168.7251363846137
 20
115.8740059104875
 30
0.0
 10
168.4501042968919
 20
115.3228835259155
 30
0.0
 10
168.254159211139
 20
114.7806420880349
 30
0.0
 10
168.1273774130372
 20
114.2586669001493
 30
0.0
 10
168.0591973250638
 20
113.7654990868015
 30
0.0
 10
168.0284241278834
 20
113.0719589948674
 30
0.0
 10
168.1369313197757
 20
112.0939794463548
 30
0.0
 10
168.6024668356061
 20
110.8244303820302
 30
0.0
 10
169.2984633879225
 20
109.8788737254983
 30
0.0
 10
169.9605057235392
 20
109.2884119760663
 30
0.0
 10
170.3921901158085
 20
108.9802134924813
 30
0.0
 10
170.8036168537417
 20
108.7436027446725
 30
0.0
 10
171.3917693603128
 20
108.4703007124653
 30
0.0
 10
172.1747984839681
 20
108.2353363985995
 30
0.0
 10
173.1700451564193
 20
108.141541911032
 30
0.0
 10
174.1651999467358
 20
108.2353197575213
 30
0.0
  0
SPLINE
  5
C4
330
1F
100
AcDbEntity
  8
0
  6
HIDDEN
 62
     7
370
     0
100
AcDbSpline
210
0.0
220
0.0
230
1.0
 70
     8
 71
     3
 72
    90
 73
    86
 74
     0
 42
0.00000001
 43
0.00000001
 40
-0.0312500000000008
 40
-0.0312500000000008
 40
0.0
 40
0.0
 40
0.0312499999999992
 40
0.0312499999999992
 40
0.0468749999999988
 40
0.0468749999999988
 40
0.0624999999999984
 40
0.0624999999999984
 40
0.0937499999999981
 40
0.0937499999999981
 40
0.1249999999999979
 40
0.1249999999999979
 40
0.1562499999999977
 40
0.1562499999999977
 40
0.1718749999999978
 40
0.1718749999999978
 40
0.1874999999999978
 40
0.1874999999999978
 40
0.2187499999999979
 40
0.2187499999999979
 40
0.2499999999999981
 40
0.2499999999999981
 40
0.2656249999999982
 40
0.2656249999999982
 40
0.2812499999999983
 40
0.2812499999999983
 40
0.3124999999999984
 40
0.3124999999999984
 40
0.3281249999999986
 40
0.3281249999999986
 40
0.3437499999999987
 40
0.3437499999999987
 40
0.3593749999999987
 40
0.3593749999999987
 40
0.3749999999999988
 40
0.3749999999999988
 40
0.4062499999999989
 40
0.4062499999999989
 40
0.4374999999999991
 40
0.4374999999999991
 40
0.4687499999999992
 40
0.4687499999999992
 40
0.4843749999999992
 40
0.4843749999999992
 40
0.4999999999999993
 40
0.4999999999999993
 40
0.5312499999999989
 40
0.5312499999999989
 40
0.5624999999999983
 40
0.5624999999999983
 40
0.5781249999999982
 40
0.5781249999999982
 40
0.593749999999998
 40
0.593749999999998
 40
0.6249999999999979
 40
0.6249999999999979
 40
0.656249999999998
 40
0.656249999999998
 40
0.6874999999999981
 40
0.6874999999999981
 40
0.7031249999999981
 40
0.7031249999999981
 40
0.7187499999999981
 40
0.7187499999999981
 40
0.7499999999999979
 40
0.7499999999999979
 40
0.7812499999999977
 40
0.7812499999999977
 40
0.8124999999999973
 40
0.8124999999999973
 40
0.8437499999999971
 40
0.8437499999999971
 40
0.859374999999997
 40
0.859374999999997
 40
0.8749999999999972
 40
0.8749999999999972
 40
0.8906249999999977
 40
0.8906249999999977
 40
0.906249999999998
 40
0.906249999999998
 40
0.9374999999999987
 40
0.9374999999999987
 40
0.9687499999999992
 40
0.9687499999999992
 40
1.0
 40
1.0
 40
1.031249999999999
 40
1.031249999999999
 10
173.549484309394
 20
107.6911967211134
 30
0.0
 10
172.7908413756545
 20
107.6911967211134
 30
0.0
 10
172.4176033213347
 20
107.7259070306702
 30
0.0
 10
171.8665117436545
 20
107.8281643304315
 30
0.0
 10
171.6842858644518
 20
107.870678285246
 30
0.0
 10
171.3228406714108
 20
107.9730027729518
 30
0.0
 10
171.1427883641341
 20
108.0331964552595
 30
0.0
 10
170.6175922677018
 20
108.2368638689219
 30
0.0
 10
170.2848962529859
 20
108.4035173772114
 30
0.0
 10
169.654053514872
 20
108.7989265124005
 30
0.0
 10
169.3533823248491
 20
109.0306749548414
 30
0.0
 10
168.8117046327874
 20
109.5414330851691
 30
0.0
 10
168.5681484077237
 20
109.8211669377686
 30
0.0
 10
168.2446418292454
 20
110.278748980388
 30
0.0
 10
168.1433113600035
 20
110.4386616298534
 30
0.0
 10
167.9589888574769
 20
110.7655177684789
 30
0.0
 10
167.8757317985049
 20
110.9326036992853
 30
0.0
 10
167.6521556177663
 20
111.4446932408928
 30
0.0
 10
167.5377454409666
 20
111.8004135138004
 30
0.0
 10
167.3820290782573
 20
112.5423761076848
 30
0.0
 10
167.3435275890118
 20
112.9156957500359
 30
0.0
 10
167.3428359834145
 20
113.4772154361841
 30
0.0
 10
167.3521702171669
 20
113.6647520102403
 30
0.0
 10
167.3904973061638
 20
114.040571350024
 30
0.0
 10
167.4196055329301
 20
114.2285399142113
 30
0.0
 10
167.5343248966977
 20
114.7801566006818
 30
0.0
 10
167.6474010078337
 20
115.136162918091
 30
0.0
 10
167.8717669803147
 20
115.6527747654323
 30
0.0
 10
167.9561940051791
 20
115.8226639067634
 30
0.0
 10
168.1399271412265
 20
116.1493462885303
 30
0.0
 10
168.2395194938904
 20
116.30698278858
 30
0.0
 10
168.4537755851361
 20
116.6112115818925
 30
0.0
 10
168.568440362721
 20
116.7578029684327
 30
0.0
 10
168.8129191289763
 20
117.0399758043298
 30
0.0
 10
168.9434830109678
 20
117.1762306281532
 30
0.0
 10
169.3524552711262
 20
117.562373179203
 30
0.0
 10
169.6469166827003
 20
117.7895473381522
 30
0.0
 10
170.2780353783542
 20
118.1863826656967
 30
0.0
 10
170.6180256443594
 20
118.3568043875174
 30
0.0
 10
171.3151879552221
 20
118.6273199387934
 30
0.0
 10
171.6744040700713
 20
118.729391599138
 30
0.0
 10
172.2292798635383
 20
118.8329142600626
 30
0.0
 10
172.4177766692248
 20
118.8591142861995
 30
0.0
 10
172.7929664110365
 20
118.8937076071529
 30
0.0
 10
172.9803099990456
 20
118.9022996632038
 30
0.0
 10
173.5416032478866
 20
118.9025508690879
 30
0.0
 10
173.9148223180215
 20
118.8689405423161
 30
0.0
 10
174.6592293822171
 20
118.7312092200737
 30
0.0
 10
175.0201622261283
 20
118.6288134415283
 30
0.0
 10
175.5414418028076
 20
118.4271945918797
 30
0.0
 10
175.7120443186461
 20
118.3518847047623
 30
0.0
 10
176.0467998380152
 20
118.1845961158109
 30
0.0
 10
176.2118260584162
 20
118.092027845907
 30
0.0
 10
176.6884420910388
 20
117.7933078762758
 30
0.0
 10
176.9824933476339
 20
117.5665177070361
 30
0.0
 10
177.5237445308771
 20
117.0573199124832
 30
0.0
 10
177.7731434329289
 20
116.771152305737
 30
0.0
 10
178.2035957849344
 20
116.1620910112228
 30
0.0
 10
178.3866189200662
 20
115.8385959716439
 30
0.0
 10
178.6119437534361
 20
115.3239581172692
 30
0.0
 10
178.679109247037
 20
115.1463410546105
 30
0.0
 10
178.7938927207391
 20
114.7876513440171
 30
0.0
 10
178.8416996948235
 20
114.6065218627932
 30
0.0
 10
178.9569996960436
 20
114.0578766136214
 30
0.0
 10
178.9966801420404
 20
113.6847019247579
 30
0.0
 10
178.9978338490197
 20
112.9255312561295
 30
0.0
 10
178.9593780550853
 20
112.552607441244
 30
0.0
 10
178.8076087531263
 20
111.8194942373225
 30
0.0
 10
178.6921871496783
 20
111.4555903215533
 30
0.0
 10
178.3939044314978
 20
110.7690410239633
 30
0.0
 10
178.2114619385375
 20
110.4441353553092
 30
0.0
 10
177.8878135960577
 20
109.9839591651606
 30
0.0
 10
177.7713052921363
 20
109.8350533572465
 30
0.0
 10
177.5265724631955
 20
109.552697512481
 30
0.0
 10
177.3977822417839
 20
109.4183744678692
 30
0.0
 10
177.1276283302424
 20
109.1630288550982
 30
0.0
 10
176.9862640278866
 20
109.0420071315945
 30
0.0
 10
176.6908669061453
 20
108.8132480585559
 30
0.0
 10
176.5359645784396
 20
108.7050028311901
 30
0.0
 10
176.0594517185786
 20
108.4054785199534
 30
0.0
 10
175.7262592799379
 20
108.238622407513
 30
0.0
 10
175.0297281227775
 20
107.9677359837826
 30
0.0
 10
174.6631123425623
 20
107.8635100808554
 30
0.0
 10
173.9240172160437
 20
107.7259286883207
 30
0.0
 10
173.549484309394
 20
107.6911967211134
 30
0.0
 10
172.7908413756545
 20
107.6911967211134
 30
0.0
  0
SPLINE
  5
C5
330
1F
100
AcDbEntity
  8
0
  6
HIDDEN
 62
     7
370
     0
100
AcDbSpline
210
0.0
220
0.0
230
1.0
 70
     8
 71
     3
 72
    10
 73
     6
 74
     0
 42
0.00000001
 43
0.00000001
 40
0.0
 40
0.0
 40
0.0
 40
0.0
 40
0.4475766211573479
 40
0.8951364835239443
 40
1.0
 40
1.0
 40
1.0
 40
1.0
 10
108.9251648441258
 20
133.1343188454391
 30
0.0
 10
109.1718704539395
 20
133.1638313297315
 30
0.0
 10
109.6652724360698
 20
133.2228551932685
 30
0.0
 10
109.9542870970316
 20
133.236793223928
 30
0.0
 10
109.8939184064176
 20
133.232902524368
 30
0.0
 10
109.8824589471961
 20
133.2321639740948
 30
0.0
  0
SPLINE
  5
C6
330
1F
100
AcDbEntity
  8
0
  6
HIDDEN
 62
     7
370
     0
100
AcDbSpline
210
0.0
220
0.0
230
1.0
 70
     8
 71
     3
 72
    10
 73
     6
 74
     0
 42
0.00000001
 43
0.00000001
 40
0.0
 40
0.0
 40
0.0
 40
0.0
 40
0.3454688498344993
 40
0.7966951780873684
 40
1.0
 40
1.0
 40
1.0
 40
1.0
 10
109.882438140705
 20
93.36141817952456
 30
0.0
 10
109.8728781454775
 20
93.3619737895838
 30
0.0
 10
109.8508315786048
 20
93.36325509716136
 30
0.0
 10
109.4338921239163
 20
93.39321233772813
 30
0.0
 10
109.0457318433965
 20
93.44360832637261
 30
0.0
 10
108.9251648441258
 20
93.45926189380617
 30
0.0
  0
SPLINE
  5
C7
330
1F
100
AcDbEntity
  8
0
  6
HIDDEN
 62
     7
370
     0
100
AcDbSpline
210
0.0
220
0.0
230
1.0
 70
     8
 71
     3
 72
    15
 73
    11
 74
     0
 42
0.00000001
 43
0.00000001
 40
0.0
 40
0.0
 40
0.0
 40
0.0
 40
0.1409172169897705
 40
0.2818898291171906
 40
0.4212989265166057
 40
0.5593768372264388
 40
0.6988856205980569
 40
0.8403671979046411
 40
0.981316445467027
 40
1.0
 40
1.0
 40
1.0
 40
1.0
 10
108.9251648441258
 20
93.45926189380617
 30
0.0
 10
108.6091231578533
 20
93.49961571112779
 30
0.0
 10
107.9769155480213
 20
93.58033920902263
 30
0.0
 10
106.742752426344
 20
93.65689430662489
 30
0.0
 10
105.4720304254855
 20
93.65221825548585
 30
0.0
 10
104.283471020458
 20
93.57142224375364
 30
0.0
 10
103.290348347677
 20
93.44702544724188
 30
0.0
 10
102.6509393413804
 20
93.34062190857978
 30
0.0
 10
102.3699192347969
 20
93.28754124790262
 30
0.0
 10
102.43647997249
 20
93.29979728791686
 30
0.0
 10
102.4442702960083
 20
93.3012317449267
 30
0.0
  0
SPLINE
  5
C8
330
1F
100
AcDbEntity
  8
0
  6
HIDDEN
 62
     7
370
     0
100
AcDbSpline
210
0.0
220
0.0
230
1.0
 70
     8
 71
     3
 72
    15
 73
    11
 74
     0
 42
0.00000001
 43
0.00000001
 40
0.0
 40
0.0
 40
0.0
 40
0.0
 40
0.1201202395113831
 40
0.2584739316900695
 40
0.3987301965958642
 40
0.5404022890432704
 40
0.680739540300365
 40
0.819035606386088
 40
0.9577823106998845
 40
1.0
 40
1.0
 40
1.0
 40
1.0
 10
102.4442702960083
 20
133.2923489943186
 30
0.0
 10
102.4649794324787
 20
133.2883244004649
 30
0.0
 10
102.5095412144665
 20
133.2796643062041
 30
0.0
 10
103.0719808203392
 20
133.1803731795954
 30
0.0
 10
103.9654430326606
 20
133.0564555896142
 30
0.0
 10
105.1244221868528
 20
132.9567451527927
 30
0.0
 10
106.3974590669781
 20
132.9296066637171
 30
0.0
 10
107.6317443416217
 20
132.984945497881
 30
0.0
 10
108.4597071383877
 20
133.0714240968652
 30
0.0
 10
108.8371176830517
 20
133.1224215151551
 30
0.0
 10
108.9251648441258
 20
133.1343188454391
 30
0.0
  0
LINE
  5
C9
330
1F
100
AcDbEntity
  8
0
  6
HIDDEN
 62
     7
370
     0
100
AcDbLine
 10
96.1741374387
 20
96.2967903696
 30
0.0
 11
96.1741374387
 21
130.2967903696
 31
0.0
  0
LWPOLYLINE
  5
CA
330
1F
100
AcDbEntity
  8
0
  6
HIDDEN
 62
     7
370
     0
100
AcDbPolyline
 90
       15
 70
   128
 43
0.0
 10
123.1701628425
 20
135.2423927843
 10
123.92716782
 20
135.2785353897
 10
124.6568126652
 20
135.3856569182
 10
125.3327261123
 20
135.5598857186
 10
125.9304788885
 20
135.7949247081
 10
126.4284666507
 20
136.0822789651
 10
126.8086908239
 20
136.4115627583
 10
127.0574091158
 20
136.7708749132
 10
127.1656321993
 20
137.1472289526
 10
127.12944861
 20
137.5270224608
 10
126.9501661174
 20
137.8965287109
 10
126.6342644577
 20
138.2423927843
 10
126.1931611399
 20
138.5521142522
 10
125.6427987874
 20
138.8144989737
 10
125.5395594142
 20
138.8537555527
  0
LWPOLYLINE
  5
CB
330
1F
100
AcDbEntity
  8
0
  6
HIDDEN
 62
     7
370
     0
100
AcDbPolyline
 90
       15
 70
   128
 43
0.0
 10
120.7777285273
 20
138.8452229412
 10
120.6975268976
 20
138.8144989737
 10
120.1471645451
 20
138.5521142522
 10
119.7060612274
 20
138.2423927843
 10
119.3901595677
 20
137.8965287109
 10
119.210877075
 20
137.5270224608
 10
119.1746934858
 20
137.1472289526
 10
119.2829165692
 20
136.7708749132
 10
119.5316348611
 20
136.4115627583
 10
119.9118590343
 20
136.0822789651
 10
120.4098467966
 20
135.7949247081
 10
121.0075995727
 20
135.5598857186
 10
121.6835130199
 20
135.3856569182
 10
122.4131578651
 20
135.2785353897
 10
123.1701628425
 20
135.2423927843
  0
SPLINE
  5
CC
330
1F
100
AcDbEntity
  8
0
  6
HIDDEN
 62
     7
370
     0
100
AcDbSpline
210
0.0
220
0.0
230
1.0
 70
     8
 71
     3
 72
    11
 73
     7
 74
     0
 42
0.00000001
 43
0.00000001
 40
0.0
 40
0.0
 40
0.0
 40
0.0
 40
0.0005779865010846
 40
0.0005779865010846
 40
0.0005779865010846
 40
0.0011559733324422
 40
0.0011559733324422
 40
0.0011559733324422
 40
0.0011559733324422
 10
83.27016284252423
 20
115.2966309777826
 30
0.0
 10
83.43683009733019
 20
115.2946473384419
 30
0.0
 10
83.60349652700785
 20
115.2926097314336
 30
0.0
 10
83.77016286545968
 20
115.2904982680275
 30
0.0
 10
83.93682929428608
 20
115.2883868034765
 30
0.0
 10
84.10349566792377
 20
115.2862012403204
 30
0.0
 10
84.27016284252421
 20
115.2839186629891
 30
0.0
  0
SPLINE
  5
CD
330
1F
100
AcDbEntity
  8
0
  6
HIDDEN
 62
     7
370
     0
100
AcDbSpline
210
0.0
220
0.0
230
1.0
 70
     8
 71
     3
 72
    11
 73
     7
 74
     0
 42
0.00000001
 43
0.00000001
 40
0.0
 40
0.0
 40
0.0
 40
0.0
 40
0.0005782382535738
 40
0.0005782382535738
 40
0.0005782382535738
 40
0.0011564766069467
 40
0.0011564766069467
 40
0.0011564766069467
 40
0.0011564766069467
 10
84.27016284252423
 20
111.3000900674044
 30
0.0
 10
84.1035088885556
 20
111.2996524896428
 30
0.0
 10
83.93684821635362
 20
111.2991724249704
 30
0.0
 10
83.7701813276882
 20
111.298652885601
 30
0.0
 10
83.60351440929216
 20
111.298133346139
 30
0.0
 10
83.43684127945893
 20
111.2975745171171
 30
0.0
 10
83.27016284252421
 20
111.296988973534
 30
0.0
  0
LINE
  5
CE
330
1F
100
AcDbEntity
  8
0
  6
HIDDEN
 62
     7
370
     0
100
AcDbLine
 10
122.8299888111
 20
96.2967903696
 30
0.0
 11
122.8299888111
 21
130.2967903696
 31
0.0
  0
LINE
  5
CF
330
1F
100
AcDbEntity
  8
0
  6
HIDDEN
 62
     7
370
     0
100
AcDbLine
 10
125.1201628425
 20
97.5717903696
 30
0.0
 11
125.1201628425
 21
129.0217903684
 31
0.0
  0
SPLINE
  5
D0
330
1F
100
AcDbEntity
  8
0
  6
HIDDEN
 62
     7
370
     0
100
AcDbSpline
210
0.0
220
0.0
230
1.0
 70
     8
 71
     3
 72
    16
 73
    12
 74
     0
 42
0.00000001
 43
0.00000001
 40
0.0
 40
0.0
 40
0.0
 40
0.0
 40
0.124999999999998
 40
0.124999999999998
 40
0.249999999999996
 40
0.249999999999996
 40
0.4999999999999973
 40
0.4999999999999973
 40
0.7499999999999987
 40
0.7499999999999987
 40
1.0
 40
1.0
 40
1.0
 40
1.0
 10
91.97016284252423
 20
97.49529993359097
 30
0.0
 10
92.06528459719004
 20
97.49529993359097
 30
0.0
 10
92.15861466591812
 20
97.49148410019818
 30
0.0
 10
92.34187642665613
 20
97.47671354746836
 30
0.0
 10
92.43275414221314
 20
97.4655554994928
 30
0.0
 10
92.68955583973288
 20
97.42308422935106
 30
0.0
 10
92.84462320460487
 20
97.38203803214826
 30
0.0
 10
93.09836966615948
 20
97.28689191556637
 30
0.0
 10
93.19924011782734
 20
97.2321291814848
 30
0.0
 10
93.33448653252219
 20
97.1208680575809
 30
0.0
 10
93.37016284252422
 20
97.06369832025223
 30
0.0
 10
93.37016284252422
 20
97.00927674721852
 30
0.0
  0
SPLINE
  5
D1
330
1F
100
AcDbEntity
  8
0
  6
HIDDEN
 62
     7
370
     0
100
AcDbSpline
210
0.0
220
0.0
230
1.0
 70
     8
 71
     3
 72
     8
 73
     4
 74
     0
 42
0.00000001
 43
0.00000001
 40
0.0
 40
0.0
 40
0.0
 40
0.0
 40
1.0
 40
1.0
 40
1.0
 40
1.0
 10
84.57016284580506
 20
99.64010287967321
 30
0.0
 10
84.57016284580699
 20
98.75620573735627
 30
0.0
 10
84.55668221989757
 20
98.04162249229431
 30
0.0
 10
84.55533085170828
 20
97.49529993359096
 30
0.0
  0
SPLINE
  5
D2
330
1F
100
AcDbEntity
  8
0
  6
HIDDEN
 62
     7
370
     0
100
AcDbSpline
210
0.0
220
0.0
230
1.0
 70
     8
 71
     3
 72
    10
 73
     6
 74
     0
 42
0.00000001
 43
0.00000001
 40
0.0
 40
0.0
 40
0.0
 40
0.0
 40
0.5
 40
0.5
 40
1.0
 40
1.0
 40
1.0
 40
1.0
 10
84.27016284252421
 20
100.665013145326
 30
0.0
 10
84.36155395820647
 20
100.4903743577167
 30
0.0
 10
84.43420579193196
 20
100.3167725304697
 30
0.0
 10
84.54170468492757
 20
99.97315911148011
 30
0.0
 10
84.57016284579944
 20
99.80483328495706
 30
0.0
 10
84.57016284580507
 20
99.64010287973268
 30
0.0
  0
LINE
  5
D3
330
1F
100
AcDbEntity
  8
0
  6
HIDDEN
 62
     7
370
     0
100
AcDbLine
 10
84.2701628425
 20
103.6959635774
 30
0.0
 11
84.2701628425
 21
100.6650131453
 31
0.0
  0
SPLINE
  5
D4
330
1F
100
AcDbEntity
  8
0
  6
HIDDEN
 62
     7
370
     0
100
AcDbSpline
210
0.0
220
0.0
230
1.0
 70
     8
 71
     3
 72
    10
 73
     6
 74
     0
 42
0.00000001
 43
0.00000001
 40
0.0
 40
0.0
 40
0.0
 40
0.0
 40
0.5
 40
0.5
 40
1.0
 40
1.0
 40
1.0
 40
1.0
 10
84.57016284560943
 20
105.0638039939798
 30
0.0
 10
84.57016284560942
 20
104.8218200264085
 30
0.0
 10
84.5420128165491
 20
104.5874775974764
 30
0.0
 10
84.43842290244379
 20
104.1321025752603
 30
0.0
 10
84.36179419287875
 20
103.9104980121827
 30
0.0
 10
84.27016284252421
 20
103.6959635774099
 30
0.0
  0
LINE
  5
D5
330
1F
100
AcDbEntity
  8
0
  6
HIDDEN
 62
     7
370
     0
100
AcDbLine
 10
84.5701628456
 20
116.9014239912
 30
0.0
 11
84.5701628456
 21
105.0638039939
 31
0.0
  0
SPLINE
  5
D6
330
1F
100
AcDbEntity
  8
0
  6
HIDDEN
 62
     7
370
     0
100
AcDbSpline
210
0.0
220
0.0
230
1.0
 70
     8
 71
     3
 72
     8
 73
     4
 74
     0
 42
0.00000001
 43
0.00000001
 40
0.0
 40
0.0
 40
0.0
 40
0.0
 40
1.0
 40
1.0
 40
1.0
 40
1.0
 10
84.27016284252423
 20
122.9037296905032
 30
0.0
 10
84.45119430902353
 20
122.4716222048929
 30
0.0
 10
84.57016284561516
 20
122.0174767988533
 30
0.0
 10
84.57016284560945
 20
121.5297767452345
 30
0.0
  0
LINE
  5
D7
330
1F
100
AcDbEntity
  8
0
  6
HIDDEN
 62
     7
370
     0
100
AcDbLine
 10
84.2701628425
 20
125.9369326767
 30
0.0
 11
84.2701628425
 21
122.9037296905
 31
0.0
  0
SPLINE
  5
D8
330
1F
100
AcDbEntity
  8
0
  6
HIDDEN
 62
     7
370
     0
100
AcDbSpline
210
0.0
220
0.0
230
1.0
 70
     8
 71
     3
 72
    10
 73
     6
 74
     0
 42
0.00000001
 43
0.00000001
 40
0.0
 40
0.0
 40
0.0
 40
0.0
 40
0.5
 40
0.5
 40
1.0
 40
1.0
 40
1.0
 40
1.0
 10
84.5701628459166
 20
126.9534778595425
 30
0.0
 10
84.57016284591481
 20
126.7888415129373
 30
0.0
 10
84.54300417515981
 20
126.6216862891076
 30
0.0
 10
84.43723917984246
 20
126.2830632813078
 30
0.0
 10
84.36082439154406
 20
126.1107915040138
 30
0.0
 10
84.27016284252424
 20
125.9369326766707
 30
0.0
  0
SPLINE
  5
D9
330
1F
100
AcDbEntity
  8
0
  6
HIDDEN
 62
     7
370
     0
100
AcDbSpline
210
0.0
220
0.0
230
1.0
 70
     8
 71
     3
 72
    18
 73
    14
 74
     0
 42
0.00000001
 43
0.00000001
 40
0.0
 40
0.0
 40
0.0
 40
0.0
 40
0.2500000000000033
 40
0.2500000000000033
 40
0.3750000000000029
 40
0.3750000000000029
 40
0.5000000000000026
 40
0.5000000000000026
 40
0.6250000000000022
 40
0.6250000000000022
 40
0.7500000000000018
 40
0.7500000000000018
 40
1.0
 40
1.0
 40
1.0
 40
1.0
 10
89.37016284252422
 20
129.5843039920267
 30
0.0
 10
89.37016284252422
 20
129.5298294714746
 30
0.0
 10
89.33525215113205
 20
129.4734484121221
 30
0.0
 10
89.233242849799
 20
129.3893715712686
 30
0.0
 10
89.1916064951209
 20
129.3620378672777
 30
0.0
 10
89.09320069963213
 20
129.3090839516787
 30
0.0
 10
89.03565748792785
 20
129.2831965979615
 30
0.0
 10
88.90835931435491
 20
129.2354190531283
 30
0.0
 10
88.83877200959745
 20
129.2134711349504
 30
0.0
 10
88.68733776444249
 20
129.1740385700377
 30
0.0
 10
88.60465386134854
 20
129.1564823208118
 30
0.0
 10
88.34854239931049
 20
129.1140435553913
 30
0.0
 10
88.16062739542251
 20
129.0982808056543
 30
0.0
 10
87.97016284252422
 20
129.0982808056543
 30
0.0
  0
LINE
  5
DA
330
1F
100
AcDbEntity
  8
0
  6
HIDDEN
 62
     7
370
     0
100
AcDbLine
 10
87.9701628425
 20
129.0982808057
 30
0.0
 11
84.5701628459
 21
129.0982808057
 31
0.0
  0
LINE
  5
DB
330
1F
100
AcDbEntity
  8
0
  6
HIDDEN
 62
     7
370
     0
100
AcDbLine
 10
84.5011938559
 20
97.4952999336
 30
0.0
 11
91.9701628425
 21
97.4952999336
 31
0.0
  0
SPLINE
  5
DC
330
1F
100
AcDbEntity
  8
0
  6
HIDDEN
 62
     7
370
     0
100
AcDbSpline
210
0.0
220
0.0
230
1.0
 70
     8
 71
     3
 72
    22
 73
    18
 74
     0
 42
0.00000001
 43
0.00000001
 40
0.0
 40
0.0
 40
0.0
 40
0.0
 40
0.125
 40
0.125
 40
0.25
 40
0.25
 40
0.5000000000000001
 40
0.5000000000000001
 40
0.5625000000000001
 40
0.5625000000000001
 40
0.6250000000000001
 40
0.6250000000000001
 40
0.75
 40
0.75
 40
0.875
 40
0.875
 40
1.0
 40
1.0
 40
1.0
 40
1.0
 10
84.50119385588212
 20
97.49529993359097
 30
0.0
 10
84.48811146315374
 20
97.75040564373865
 30
0.0
 10
84.47489189971391
 20
98.04356390284255
 30
0.0
 10
84.4524447219198
 20
98.70586436846736
 30
0.0
 10
84.44296625489535
 20
99.07613828907874
 30
0.0
 10
84.42376829395884
 20
100.2986950921925
 30
0.0
 10
84.42488206695572
 20
101.2358340183244
 30
0.0
 10
84.44379285990877
 20
102.5557052478394
 30
0.0
 10
84.44842238776778
 20
102.8272071568157
 30
0.0
 10
84.45890360751372
 20
103.385591991618
 30
0.0
 10
84.46469886879815
 20
103.6727148475576
 30
0.0
 10
84.48300808970308
 20
104.5453041019293
 30
0.0
 10
84.49704302398345
 20
105.1457597782852
 30
0.0
 10
84.5265001961203
 20
106.3832342707812
 30
0.0
 10
84.54205588710185
 20
107.0202504274247
 30
0.0
 10
84.56585043709875
 20
108.3317390251092
 30
0.0
 10
84.5738694892441
 20
109.0078616367697
 30
0.0
 10
84.57016284252423
 20
109.6921567480545
 30
0.0
  0
LINE
  5
DD
330
1F
100
AcDbEntity
  8
0
  6
HIDDEN
 62
     7
370
     0
100
AcDbLine
 10
84.5701628459
 20
116.9014239912
 30
0.0
 11
84.5701628459
 21
129.0982808057
 31
0.0
  0
SPLINE
  5
DE
330
1F
100
AcDbEntity
  8
0
  6
HIDDEN
 62
     7
370
     0
100
AcDbSpline
210
0.0
220
0.0
230
1.0
 70
     8
 71
     3
 72
    10
 73
     6
 74
     0
 42
0.00000001
 43
0.00000001
 40
0.0
 40
0.0
 40
0.0
 40
0.0
 40
0.5
 40
0.5
 40
1.0
 40
1.0
 40
1.0
 40
1.0
 10
84.57016284252421
 20
109.6921567480395
 30
0.0
 10
84.57016284252404
 20
109.9660718961136
 30
0.0
 10
84.5444036126552
 20
110.2370134748432
 30
0.0
 10
84.4411976799218
 20
110.7727045564453
 30
0.0
 10
84.36385951604738
 20
111.0384513599671
 30
0.0
 10
84.27016284252421
 20
111.3000900674044
 30
0.0
  0
SPLINE
  5
DF
330
1F
100
AcDbEntity
  8
0
  6
HIDDEN
 62
     7
370
     0
100
AcDbSpline
210
0.0
220
0.0
230
1.0
 70
     8
 71
     3
 72
    10
 73
     6
 74
     0
 42
0.00000001
 43
0.00000001
 40
0.0
 40
0.0
 40
0.0
 40
0.0
 40
0.5
 40
0.5
 40
1.0
 40
1.0
 40
1.0
 40
1.0
 10
84.27016284252423
 20
115.2839186629891
 30
0.0
 10
84.36339342391499
 20
115.5478124710589
 30
0.0
 10
84.43842303615155
 20
115.8139927816969
 30
0.0
 10
84.54349013532939
 20
116.3523153566544
 30
0.0
 10
84.57016284591543
 20
116.6250634728996
 30
0.0
 10
84.57016284591663
 20
116.9014239911897
 30
0.0
  0
LINE
  5
E0
330
1F
100
AcDbEntity
  8
0
  6
HIDDEN
 62
     7
370
     0
100
AcDbLine
 10
84.2701628425
 20
111.3000900674
 30
0.0
 11
84.2701628425
 21
115.283918663
 31
0.0
  0
LINE
  5
E1
330
1F
100
AcDbEntity
  8
0
  6
HIDDEN
 62
     7
370
     0
100
AcDbLine
 10
84.4201628425
 20
95.3067903696
 30
0.0
 11
84.4201628425
 21
92.4268526042
 31
0.0
  0
LINE
  5
E2
330
1F
100
AcDbEntity
  8
0
  6
HIDDEN
 62
     7
370
     0
100
AcDbLine
 10
93.3701628425
 20
95.3067903696
 30
0.0
 11
93.3701628425
 21
91.3330528384
 31
0.0
  0
LINE
  5
E3
330
1F
100
AcDbEntity
  8
0
  6
HIDDEN
 62
     7
370
     0
100
AcDbLine
 10
84.4201628425
 20
131.2867903696
 30
0.0
 11
84.4201628425
 21
134.166728135
 31
0.0
  0
LINE
  5
E4
330
1F
100
AcDbEntity
  8
0
  6
HIDDEN
 62
     7
370
     0
100
AcDbLine
 10
89.3701628425
 20
131.2867903696
 30
0.0
 11
89.3701628425
 21
135.140898042
 31
0.0
  0
LINE
  5
E5
330
1F
100
AcDbEntity
  8
0
  6
HIDDEN
 62
     7
370
     0
100
AcDbLine
 10
133.9701628425
 20
103.7967903696
 30
0.0
 11
133.9701628425
 21
122.7967903696
 31
0.0
  0
LINE
  5
E6
330
1F
100
AcDbEntity
  8
0
  6
HIDDEN
 62
     7
370
     0
100
AcDbLine
 10
136.9701628425
 20
103.7967903696
 30
0.0
 11
136.9701628425
 21
122.7967903696
 31
0.0
  0
LINE
  5
E7
330
1F
100
AcDbEntity
  8
0
  6
HIDDEN
 62
     7
370
     0
100
AcDbLine
 10
125.6201628425
 20
104.7967903696
 30
0.0
 11
125.6201628425
 21
121.7967903696
 31
0.0
  0
LINE
  5
E8
330
1F
100
AcDbEntity
  8
0
  6
HIDDEN
 62
     7
370
     0
100
AcDbLine
 10
141.1201628425
 20
86.8967903696
 30
0.0
 11
134.9824880402
 21
86.8967903696
 31
0.0
  0
LINE
  5
E9
330
1F
100
AcDbEntity
  8
0
  6
HIDDEN
 62
     7
370
     0
100
AcDbLine
 10
120.1201628425
 20
81.8126673868
 30
0.0
 11
120.1201628425
 21
86.8967903696
 31
0.0
  0
LINE
  5
EA
330
1F
100
AcDbEntity
  8
0
  6
HIDDEN
 62
     7
370
     0
100
AcDbLine
 10
128.1201628425
 20
86.8967903696
 30
0.0
 11
120.1201628425
 21
86.8967903696
 31
0.0
  0
LINE
  5
EB
330
1F
100
AcDbEntity
  8
0
  6
HIDDEN
 62
     7
370
     0
100
AcDbLine
 10
131.3578376449
 20
86.8967903696
 30
0.0
 11
128.1201628425
 21
86.8967903696
 31
0.0
  0
LINE
  5
EC
330
1F
100
AcDbEntity
  8
0
  6
HIDDEN
 62
     7
370
     0
100
AcDbLine
 10
141.1201628425
 20
139.6967903696
 30
0.0
 11
134.6858653108
 21
139.6967903696
 31
0.0
  0
LINE
  5
ED
330
1F
100
AcDbEntity
  8
0
  6
HIDDEN
 62
     7
370
     0
100
AcDbLine
 10
128.1201628425
 20
139.6967903696
 30
0.0
 11
120.1201628425
 21
139.6967903696
 31
0.0
  0
LINE
  5
EE
330
1F
100
AcDbEntity
  8
0
  6
HIDDEN
 62
     7
370
     0
100
AcDbLine
 10
131.6544603742
 20
139.6967903696
 30
0.0
 11
128.1201628425
 21
139.6967903696
 31
0.0
  0
SPLINE
  5
EF
330
1F
100
AcDbEntity
  8
0
  6
HIDDEN
 62
     7
370
     0
100
AcDbSpline
210
0.0
220
0.0
230
1.0
 70
     8
 71
     3
 72
    11
 73
     7
 74
     0
 42
0.00000001
 43
0.00000001
 40
0.0
 40
0.0
 40
0.0
 40
0.0
 40
0.0008203708524183
 40
0.0008203708524183
 40
0.0008203708524183
 40
0.0016409967870154
 40
0.0016409967870154
 40
0.0016409967870154
 40
0.0016409967870154
 10
84.42016284252422
 20
97.44475761897992
 30
0.0
 10
84.22900454222557
 20
97.40357859036078
 30
0.0
 10
84.03757747215337
 20
97.36482461813077
 30
0.0
 10
83.84593184863274
 20
97.32845685885223
 30
0.0
 10
83.65422644355228
 20
97.2920777550862
 30
0.0
 10
83.46228749149333
 20
97.25808350431863
 30
0.0
 10
83.27016284442252
 20
97.22643537892743
 30
0.0
  0
ELLIPSE
  5
F0
330
1F
100
AcDbEntity
  8
0
  6
HIDDEN
 62
     7
370
     0
100
AcDbEllipse
 10
79.0277309739
 20
113.2967903696
 30
0.0
 11
20.19992453367506
 21
-1.421085471520200E-14
 31
0.0
210
0.0
220
0.0
230
1.0
 40
0.8164965809
 41
1.300566354717479
 42
1.359198697209065
  0
LINE
  5
F1
330
1F
100
AcDbEntity
  8
0
  6
HIDDEN
 62
     7
370
     0
100
AcDbLine
 10
149.1701628425
 20
106.3967903696
 30
0.0
 11
149.1701628425
 21
120.1967902945
 31
0.0
  0
LINE
  5
F2
330
1F
100
AcDbEntity
  8
0
  6
HIDDEN
 62
     7
370
     0
100
AcDbLine
 10
153.1701628425
 20
106.2967903696
 30
0.0
 11
153.1701628425
 21
120.2967903696
 31
0.0
  0
LINE
  5
F3
330
1F
100
AcDbEntity
  8
0
  6
HIDDEN
 62
     7
370
     0
100
AcDbLine
 10
93.3701628425
 20
95.3067903696
 30
0.0
 11
93.3701628425
 21
97.0092767472
 31
0.0
  0
LINE
  5
F4
330
1F
100
AcDbEntity
  8
0
  6
HIDDEN
 62
     7
370
     0
100
AcDbLine
 10
84.4201628425
 20
95.3067903696
 30
0.0
 11
84.4201628425
 21
97.444757619
 31
0.0
  0
LINE
  5
F5
330
1F
100
AcDbEntity
  8
0
  6
HIDDEN
 62
     7
370
     0
100
AcDbLine
 10
84.5011938559
 20
97.4952999336
 30
0.0
 11
84.4201628425
 21
97.444757619
 31
0.0
  0
LINE
  5
F6
330
1F
100
AcDbEntity
  8
0
  6
HIDDEN
 62
     7
370
     0
100
AcDbLine
 10
89.3701628425
 20
131.2867903696
 30
0.0
 11
89.3701628425
 21
129.584303992
 31
0.0
  0
LINE
  5
F7
330
1F
100
AcDbEntity
  8
0
  6
HIDDEN
 62
     7
370
     0
100
AcDbLine
 10
84.4201628425
 20
131.2867903696
 30
0.0
 11
84.4201628425
 21
129.1914148207
 31
0.0
  0
SPLINE
  5
F8
330
1F
100
AcDbEntity
  8
0
  6
HIDDEN
 62
     7
370
     0
100
AcDbSpline
210
0.0
220
0.0
230
1.0
 70
     8
 71
     3
 72
     8
 73
     4
 74
     0
 42
0.00000001
 43
0.00000001
 40
0.0
 40
0.0
 40
0.0
 40
0.0
 40
1.0
 40
1.0
 40
1.0
 40
1.0
 10
84.42016284252422
 20
129.1914148206808
 30
0.0
 10
84.47016834146767
 20
129.1603790464618
 30
0.0
 10
84.52016841213181
 20
129.1293344014344
 30
0.0
 10
84.57016284591664
 20
129.0982808056543
 30
0.0
  0
SPLINE
  5
F9
330
1F
100
AcDbEntity
  8
0
  6
HIDDEN
 62
     7
370
     0
100
AcDbSpline
210
0.0
220
0.0
230
1.0
 70
     8
 71
     3
 72
    20
 73
    16
 74
     0
 42
0.00000001
 43
0.00000001
 40
0.0
 40
0.0
 40
0.0
 40
0.0
 40
0.1118532757826802
 40
0.1773727974827387
 40
0.2489947131368076
 40
0.3297435627688622
 40
0.3985163045524689
 40
0.4997965452003023
 40
0.6137622349726405
 40
0.6789284889447446
 40
0.7494553435855339
 40
0.8296017038260749
 40
0.8980457173940257
 40
0.999456632445218
 40
0.9999999999999999
 40
0.9999999999999999
 40
0.9999999999999999
 40
0.9999999999999999
 10
109.9187781591593
 20
89.69685671987817
 30
0.0
 10
109.8754860842162
 20
89.71027513391083
 30
0.0
 10
109.8068351091977
 20
89.73155355976023
 30
0.0
 10
109.3618176947342
 20
89.83482608747653
 30
0.0
 10
108.8352679914314
 20
89.94812751061566
 30
0.0
 10
108.1498404168909
 20
90.07106091713877
 30
0.0
 10
107.2565236735917
 20
90.1930952336756
 30
0.0
 10
106.1431641003785
 20
90.31083160644265
 30
0.0
 10
105.03238984367
 20
90.32280704453964
 30
0.0
 10
104.1476421287493
 20
90.29574887015195
 30
0.0
 10
103.4804433633362
 20
90.24781639255714
 30
0.0
 10
102.9391797725695
 20
90.19152456978763
 30
0.0
 10
102.5515659470656
 20
90.1464352379086
 30
0.0
 10
102.3576580765971
 20
90.10756656454488
 30
0.0
 10
102.4208511405322
 20
90.11828886935044
 30
0.0
 10
102.4211879293336
 20
90.11834601410585
 30
0.0
  0
LINE
  5
FA
330
1F
100
AcDbEntity
  8
0
  6
HIDDEN
 62
     7
370
     0
100
AcDbLine
 10
103.3301747277
 20
90.2291285104
 30
0.0
 11
103.5140200735
 21
90.2473178561
 31
0.0
  0
SPLINE
  5
FB
330
1F
100
AcDbEntity
  8
0
  6
HIDDEN
 62
     7
370
     0
100
AcDbSpline
210
0.0
220
0.0
230
1.0
 70
     8
 71
     3
 72
    27
 73
    23
 74
     0
 42
0.00000001
 43
0.00000001
 40
0.0
 40
0.0
 40
0.0
 40
0.0
 40
0.0008086693422984
 40
0.0456911815140356
 40
0.1022728479136631
 40
0.1705509389303579
 40
0.209142611498697
 40
0.2506698509758406
 40
0.3211156292483655
 40
0.3862093645069535
 40
0.4266885148362708
 40
0.4648197682151256
 40
0.5006240854262355
 40
0.5452158504830793
 40
0.6017101074390383
 40
0.6701160830877199
 40
0.7088534136478595
 40
0.750582159653527
 40
0.8222467460817283
 40
0.8877861717926736
 40
0.9472599278233171
 40
1.0
 40
1.0
 40
1.0
 40
1.0
 10
102.4208313792486
 20
136.4752044999181
 30
0.0
 10
102.420609009919
 20
136.4752524352412
 30
0.0
 10
102.4080447678087
 20
136.4779608618303
 30
0.0
 10
102.4571214066331
 20
136.4661288314947
 30
0.0
 10
102.6022259238182
 20
136.4426846233701
 30
0.0
 10
102.8752780803776
 20
136.4087804780631
 30
0.0
 10
103.2038045617028
 20
136.3752116803234
 30
0.0
 10
103.5965323249299
 20
136.3370283420748
 30
0.0
 10
104.1462602996951
 20
136.2980596693071
 30
0.0
 10
104.7722829444382
 20
136.2785985647999
 30
0.0
 10
105.3154744546275
 20
136.2764128868141
 30
0.0
 10
105.7605433512469
 20
136.2849277678569
 30
0.0
 10
106.2269911481775
 20
136.3047111646614
 30
0.0
 10
106.7642317981343
 20
136.3488735500374
 30
0.0
 10
107.4124452296777
 20
136.4212891699579
 30
0.0
 10
107.9979838596896
 20
136.5021912630417
 30
0.0
 10
108.4789534738645
 20
136.580357251438
 30
0.0
 10
108.9243683711103
 20
136.6651293903823
 30
0.0
 10
109.3628680914607
 20
136.7589124334156
 30
0.0
 10
109.7018933496564
 20
136.8368161975095
 30
0.0
 10
109.8892342860624
 20
136.8870078350513
 30
0.0
 10
109.9097240683652
 20
136.8936742746393
 30
0.0
 10
109.9193541880643
 20
136.8968074758735
 30
0.0
  0
SPLINE
  5
FC
330
1F
100
AcDbEntity
  8
0
  6
HIDDEN
 62
     7
370
     0
100
AcDbSpline
210
0.0
220
0.0
230
1.0
 70
     8
 71
     3
 72
     8
 73
     4
 74
     0
 42
0.00000001
 43
0.00000001
 40
0.0
 40
0.0
 40
0.0
 40
0.0
 40
0.0001590976953043
 40
0.0001590976953043
 40
0.0001590976953043
 40
0.0001590976953043
 10
84.5553308517083
 20
97.49529993359097
 30
0.0
 10
84.51027938121527
 20
97.46732104927348
 30
0.0
 10
84.46522334281178
 20
97.43934951890469
 30
0.0
 10
84.42016284252423
 20
97.41138517955845
 30
0.0
  0
SPLINE
  5
FD
330
1F
100
AcDbEntity
  8
0
  6
HIDDEN
 62
     7
370
     0
100
AcDbSpline
210
0.0
220
0.0
230
1.0
 70
     8
 71
     3
 72
    11
 73
     7
 74
     0
 42
0.00000001
 43
0.00000001
 40
0.0
 40
0.0
 40
0.0
 40
0.0
 40
0.000821290931147
 40
0.000821290931147
 40
0.000821290931147
 40
0.0016428257243086
 40
0.0016428257243086
 40
0.0016428257243086
 40
0.0016428257243086
 10
84.4201628425242
 20
97.41138517955844
 30
0.0
 10
84.22901782104206
 20
97.36809899070283
 30
0.0
 10
84.0375994853656
 20
97.32716248106246
 30
0.0
 10
83.84595341070447
 20
97.28856070967275
 30
0.0
 10
83.65425032916286
 20
97.24994745583251
 30
0.0
 10
83.46230520587731
 20
97.21366724654331
 30
0.0
 10
83.27016284252412
 20
97.17970034018856
 30
0.0
  0
LINE
  5
FE
330
1F
100
AcDbEntity
  8
0
  6
HIDDEN
 62
     7
370
     0
100
AcDbLine
 10
131.2601628425
 20
133.4326570011
 30
0.0
 11
131.2601628425
 21
133.1467903696
 31
0.0
  0
LINE
  5
FF
330
1F
100
AcDbEntity
  8
0
  6
HIDDEN
 62
     7
370
     0
100
AcDbLine
 10
135.0801628425
 20
133.48257606
 30
0.0
 11
135.0801628425
 21
133.1467903696
 31
0.0
  0
LINE
  5
100
330
1F
100
AcDbEntity
  8
0
  6
HIDDEN
 62
     7
370
     0
100
AcDbLine
 10
136.562095674
 20
137.755480032
 30
0.0
 11
136.562095674
 21
133.1467903696
 31
0.0
  0
SPLINE
  5
101
330
1F
100
AcDbEntity
  8
0
  6
HIDDEN
 62
     7
370
     0
100
AcDbSpline
210
0.0
220
0.0
230
1.0
 70
     8
 71
     3
 72
    24
 73
    20
 74
     0
 42
0.00000001
 43
0.00000001
 40
0.0
 40
0.0
 40
0.0
 40
0.0
 40
0.249999999999999
 40
0.249999999999999
 40
0.3749999999999983
 40
0.3749999999999983
 40
0.4374999999999987
 40
0.4374999999999987
 40
0.4687499999999975
 40
0.4687499999999975
 40
0.4999999999999963
 40
0.4999999999999963
 40
0.5624999999999984
 40
0.5624999999999984
 40
0.6250000000000006
 40
0.6250000000000006
 40
0.7500000000000001
 40
0.7500000000000001
 40
1.0
 40
1.0
 40
1.0
 40
1.0
 10
83.33282621724763
 20
93.62223782484189
 30
0.0
 10
83.34657933591785
 20
93.69288788283217
 30
0.0
 10
83.36435190332372
 20
93.7594859955971
 30
0.0
 10
83.41660299487907
 20
93.83358401583031
 30
0.0
 10
83.43763807046065
 20
93.85484182299186
 30
0.0
 10
83.49053847808906
 20
93.86298774913811
 30
0.0
 10
83.51164415096699
 20
93.86204794574232
 30
0.0
 10
83.55769631964496
 20
93.84103195416498
 30
0.0
 10
83.57606679162835
 20
93.83012314805737
 30
0.0
 10
83.61761842669408
 20
93.79748823711
 30
0.0
 10
83.64018509945097
 20
93.77599625673862
 30
0.0
 10
83.702966115911
 20
93.7075303131523
 30
0.0
 10
83.73609587687889
 20
93.66145585494722
 30
0.0
 10
83.79301356336391
 20
93.57644796661255
 30
0.0
 10
83.81719958886765
 20
93.53616766543117
 30
0.0
 10
83.88240753924741
 20
93.42123143896524
 30
0.0
 10
83.91712359943868
 20
93.35064845381821
 30
0.0
 10
84.01033886976956
 20
93.14644269473962
 30
0.0
 10
84.05601140513023
 20
93.02354431241226
 30
0.0
 10
84.09431648862876
 20
92.90667103602468
 30
0.0
  0
SPLINE
  5
102
330
1F
100
AcDbEntity
  8
0
  6
HIDDEN
 62
     7
370
     0
100
AcDbSpline
210
0.0
220
0.0
230
1.0
 70
     8
 71
     3
 72
    11
 73
     7
 74
     0
 42
0.00000001
 43
0.00000001
 40
0.0
 40
0.0
 40
0.0
 40
0.0
 40
0.0005781862223981
 40
0.0005781862223981
 40
0.0005781862223981
 40
0.0011563724723932
 40
0.0011563724723932
 40
0.0011563724723932
 40
0.0011563724723932
 10
84.2701628425245
 20
125.9369326766754
 30
0.0
 10
84.10350228824883
 20
126.0014621880888
 30
0.0
 10
83.93683899134233
 20
126.0659648919275
 30
0.0
 10
83.77017240751202
 20
126.130451340361
 30
0.0
 10
83.60350581525292
 20
126.1949377920557
 30
0.0
 10
83.43683594962698
 20
126.2594078007836
 30
0.0
 10
83.2701628425242
 20
126.323863567516
 30
0.0
  0
SPLINE
  5
103
330
1F
100
AcDbEntity
  8
0
  6
HIDDEN
 62
     7
370
     0
100
AcDbSpline
210
0.0
220
0.0
230
1.0
 70
     8
 71
     3
 72
    11
 73
     7
 74
     0
 42
0.00000001
 43
0.00000001
 40
0.0
 40
0.0
 40
0.0
 40
0.0
 40
0.0005778746105124
 40
0.0005778746105124
 40
0.0005778746105124
 40
0.0011557494857259
 40
0.0011557494857259
 40
0.0011557494857259
 40
0.0011557494857259
 10
83.27016284252419
 20
100.2695685141328
 30
0.0
 10
83.43682971893752
 20
100.3353806408178
 30
0.0
 10
83.60349643849896
 20
100.4012391209468
 30
0.0
 10
83.77016308654761
 20
100.467146693869
 30
0.0
 10
83.93682981106627
 20
100.533054297031
 30
0.0
 10
84.10349650548686
 20
100.5990114054112
 30
0.0
 10
84.27016284252421
 20
100.665013145326
 30
0.0
  0
SPLINE
  5
104
330
1F
100
AcDbEntity
  8
0
  6
HIDDEN
 62
     7
370
     0
100
AcDbSpline
210
0.0
220
0.0
230
1.0
 70
     8
 71
     3
 72
    11
 73
     7
 74
     0
 42
0.00000001
 43
0.00000001
 40
0.0000000000000006
 40
0.0000000000000006
 40
0.0000000000000006
 40
0.0000000000000006
 40
0.0005780486062825
 40
0.0005780486062825
 40
0.0005780486062825
 40
0.0011560973514241
 40
0.0011560973514241
 40
0.0011560973514241
 40
0.0011560973514241
 10
83.2701628425242
 20
123.2776048713144
 30
0.0
 10
83.43683269856908
 20
123.2152330097674
 30
0.0
 10
83.60350040265334
 20
123.1528791494379
 30
0.0
 10
83.770166707107
 20
123.0905595892206
 30
0.0
 10
83.93683304780072
 20
123.0282400154524
 30
0.0
 10
84.10349800442954
 20
122.9659548111021
 30
0.0
 10
84.27016284252423
 20
122.9037296905032
 30
0.0
  0
SPLINE
  5
105
330
1F
100
AcDbEntity
  8
0
  6
HIDDEN
 62
     7
370
     0
100
AcDbSpline
210
0.0
220
0.0
230
1.0
 70
     8
 71
     3
 72
    11
 73
     7
 74
     0
 42
0.00000001
 43
0.00000001
 40
0.0
 40
0.0
 40
0.0
 40
0.0
 40
0.0005782401583596
 40
0.0005782401583596
 40
0.0005782401583596
 40
0.0011564805961118
 40
0.0011564805961118
 40
0.0011564805961118
 40
0.0011564805961118
 10
84.27016284252423
 20
103.6959635774099
 30
0.0
 10
84.10351189217529
 20
103.6325381193199
 30
0.0
 10
83.93685229959262
 20
103.5691825956348
 30
0.0
 10
83.77018524716406
 20
103.505885011254
 30
0.0
 10
83.60351811060025
 20
103.4425873949199
 30
0.0
 10
83.4368435031542
 20
103.3793475999476
 30
0.0
 10
83.27016284252416
 20
103.3161475932761
 30
0.0
  0
CIRCLE
  5
106
330
1F
100
AcDbEntity
  8
0
  6
HIDDEN
 62
     7
370
     0
100
AcDbCircle
 10
122.1701628425
 20
113.2967903696
 30
0.0
 40
5.0
  0
LINE
  5
107
330
1F
100
AcDbEntity
  8
0
  6
HIDDEN
 62
     7
370
     0
100
AcDbLine
 10
119.1701628425
 20
127.5946255194
 30
0.0
 11
119.1701628425
 21
125.6907310125
 31
0.0
  0
LINE
  5
108
330
1F
100
AcDbEntity
  8
0
  6
HIDDEN
 62
     7
370
     0
100
AcDbLine
 10
127.1701628425
 20
125.6907310125
 30
0.0
 11
127.1701628425
 21
127.5974208754
 31
0.0
  0
LINE
  5
109
330
1F
100
AcDbEntity
  8
0
  6
HIDDEN
 62
     7
370
     0
100
AcDbLine
 10
115.1701628425
 20
87.9728592236
 30
0.0
 11
115.2643236181
 21
88.6428479549
 31
0.0
  0
LINE
  5
10A
330
1F
100
AcDbEntity
  8
0
  6
HIDDEN
 62
     7
370
     0
100
AcDbLine
 10
115.2643236181
 20
137.9507327844
 30
0.0
 11
115.1701628425
 21
138.6207215156
 31
0.0
  0
ARC
  5
10B
330
1F
100
AcDbEntity
  8
0
  6
HIDDEN
 62
     7
370
     0
100
AcDbCircle
 10
114.6701560899
 20
88.7263527552
 30
0.0
 40
0.6000067526677242
100
AcDbArc
 50
352.0
 51
0.0
  0
ARC
  5
10C
330
1F
100
AcDbEntity
  8
0
  6
HIDDEN
 62
     7
370
     0
100
AcDbCircle
 10
114.6701560899
 20
88.7263527552
 30
0.0
 40
0.6000067526677242
100
AcDbArc
 50
0.0
 51
33.5571153394
  0
ARC
  5
10D
330
1F
100
AcDbEntity
  8
0
  6
HIDDEN
 62
     7
370
     0
100
AcDbCircle
 10
114.6701560899
 20
137.867227984
 30
0.0
 40
0.6000067526677308
100
AcDbArc
 50
348.75
 51
8.0
  0
LWPOLYLINE
  5
10E
330
1F
100
AcDbEntity
  8
0
  6
HIDDEN
 62
     7
370
     0
100
AcDbPolyline
 90
        3
 70
   128
 43
0.0
 10
115.258633881
 20
137.7501724734
 10
115.224490048
 20
137.6376153405
 10
115.1701628425
 20
137.535563469
  0
LINE
  5
10F
330
1F
100
AcDbEntity
  8
0
  6
HIDDEN
 62
     7
370
     0
100
AcDbLine
 10
115.2701628425
 20
88.7263527552
 30
0.0
 11
115.2701628425
 21
137.867227984
 31
0.0
  0
ARC
  5
110
330
1F
100
AcDbEntity
  8
0
  6
HIDDEN
 62
     7
370
     0
100
AcDbCircle
 10
108.9251648441
 20
101.2967903696
 30
0.0
 40
8.000000000000012
100
AcDbArc
 50
276.8737622725
 51
321.3178125465
  0
ARC
  5
111
330
1F
100
AcDbEntity
  8
0
  6
HIDDEN
 62
     7
370
     0
100
AcDbCircle
 10
108.9251648441
 20
125.2967903696
 30
0.0
 40
8.000000000000012
100
AcDbArc
 50
38.6821874535
 51
83.1187603686
  0
LINE
  5
112
330
1F
100
AcDbEntity
  8
0
  6
HIDDEN
 62
     7
370
     0
100
AcDbLine
 10
98.2525984078
 20
93.2967903696
 30
0.0
 11
102.444270296
 21
93.2967903696
 31
0.0
  0
LINE
  5
113
330
1F
100
AcDbEntity
  8
0
  6
HIDDEN
 62
     7
370
     0
100
AcDbLine
 10
102.444270296
 20
133.2967903696
 30
0.0
 11
98.2525984078
 21
133.2967903696
 31
0.0
  0
ARC
  5
114
330
1F
100
AcDbEntity
  8
0
  6
HIDDEN
 62
     7
370
     0
100
AcDbCircle
 10
98.2525984078
 20
93.8967903696
 30
0.0
 40
0.6000000000000085
100
AcDbArc
 50
210.0
 51
270.0
  0
ARC
  5
115
330
1F
100
AcDbEntity
  8
0
  6
HIDDEN
 62
     7
370
     0
100
AcDbCircle
 10
98.2525984078
 20
132.6967903696
 30
0.0
 40
0.5999999999999943
100
AcDbArc
 50
90.0
 51
150.0
  0
LINE
  5
116
330
1F
100
AcDbEntity
  8
0
  6
HIDDEN
 62
     7
370
     0
100
AcDbLine
 10
97.7329831656
 20
132.9967903696
 30
0.0
 11
96.1741374387
 21
130.2967903696
 31
0.0
  0
LINE
  5
117
330
1F
100
AcDbEntity
  8
0
  6
HIDDEN
 62
     7
370
     0
100
AcDbLine
 10
96.1741374387
 20
96.2967903696
 30
0.0
 11
97.7329831656
 21
93.5967903696
 31
0.0
  0
LINE
  5
118
330
1F
100
AcDbEntity
  8
0
  6
HIDDEN
 62
     7
370
     0
100
AcDbLine
 10
119.1701628425
 20
140.5711242288
 30
0.0
 11
119.1701628425
 21
137.2423927843
 31
0.0
  0
LINE
  5
119
330
1F
100
AcDbEntity
  8
0
  6
HIDDEN
 62
     7
370
     0
100
AcDbLine
 10
127.1701628425
 20
137.2423927843
 30
0.0
 11
127.1701628425
 21
140.5764566076
 31
0.0
  0
ARC
  5
11A
330
1F
100
AcDbEntity
  8
0
  6
HIDDEN
 62
     7
370
     0
100
AcDbCircle
 10
123.6201628425
 20
97.5717903696
 30
0.0
 40
1.500000000000001
100
AcDbArc
 50
238.2116693829
 51
0.0
  0
ARC
  5
11B
330
1F
100
AcDbEntity
  8
0
  6
HIDDEN
 62
     7
370
     0
100
AcDbCircle
 10
123.6201628425
 20
129.0217903696
 30
0.0
 40
1.500000000000001
100
AcDbArc
 50
0.0
 51
121.7883306171
  0
LINE
  5
11C
330
1F
100
AcDbEntity
  8
0
  6
HIDDEN
 62
     7
370
     0
100
AcDbLine
 10
93.3701628425
 20
96.2967903696
 30
0.0
 11
96.1741374387
 21
96.2967903696
 31
0.0
  0
LINE
  5
11D
330
1F
100
AcDbEntity
  8
0
  6
HIDDEN
 62
     7
370
     0
100
AcDbLine
 10
96.1741374387
 20
130.2967903696
 30
0.0
 11
89.3701628425
 21
130.2967903696
 31
0.0
  0
LINE
  5
11E
330
1F
100
AcDbEntity
  8
0
  6
HIDDEN
 62
     7
370
     0
100
AcDbLine
 10
115.1701628425
 20
96.2967903696
 30
0.0
 11
122.8299888111
 21
96.2967903696
 31
0.0
  0
LINE
  5
11F
330
1F
100
AcDbEntity
  8
0
  6
HIDDEN
 62
     7
370
     0
100
AcDbLine
 10
122.8299888111
 20
130.2967903696
 30
0.0
 11
115.1701628425
 21
130.2967903696
 31
0.0
  0
LINE
  5
120
330
1F
100
AcDbEntity
  8
0
  6
HIDDEN
 62
     7
370
     0
100
AcDbLine
 10
133.9701628425
 20
103.7967903696
 30
0.0
 11
136.9701628425
 21
103.7967903696
 31
0.0
  0
LINE
  5
121
330
1F
100
AcDbEntity
  8
0
  6
HIDDEN
 62
     7
370
     0
100
AcDbLine
 10
136.9701628425
 20
122.7967903696
 30
0.0
 11
133.9701628425
 21
122.7967903696
 31
0.0
  0
LINE
  5
122
330
1F
100
AcDbEntity
  8
0
  6
HIDDEN
 62
     7
370
     0
100
AcDbLine
 10
125.1201628425
 20
104.2967903696
 30
0.0
 11
125.6201628425
 21
104.7967903696
 31
0.0
  0
LINE
  5
123
330
1F
100
AcDbEntity
  8
0
  6
HIDDEN
 62
     7
370
     0
100
AcDbLine
 10
125.6201628425
 20
121.7967903696
 30
0.0
 11
125.1201628425
 21
122.2967903696
 31
0.0
  0
LINE
  5
124
330
1F
100
AcDbEntity
  8
0
  6
HIDDEN
 62
     7
370
     0
100
AcDbLine
 10
125.6201628425
 20
104.7967903696
 30
0.0
 11
133.9701628425
 21
104.7967903696
 31
0.0
  0
LINE
  5
125
330
1F
100
AcDbEntity
  8
0
  6
HIDDEN
 62
     7
370
     0
100
AcDbLine
 10
133.9701628425
 20
121.7967903696
 30
0.0
 11
125.6201628425
 21
121.7967903696
 31
0.0
  0
LINE
  5
126
330
1F
100
AcDbEntity
  8
0
  6
HIDDEN
 62
     7
370
     0
100
AcDbLine
 10
120.1201628425
 20
144.7967903696
 30
0.0
 11
120.1201628425
 21
139.6967903696
 31
0.0
  0
ARC
  5
127
330
1F
100
AcDbEntity
  8
0
  6
HIDDEN
 62
     7
370
     0
100
AcDbCircle
 10
194.8701628425
 20
105.9967903696
 30
0.0
 40
0.3000000000000114
100
AcDbArc
 50
0.0
 51
90.0
  0
ARC
  5
128
330
1F
100
AcDbEntity
  8
0
  6
HIDDEN
 62
     7
370
     0
100
AcDbCircle
 10
194.8701628425
 20
120.5967903696
 30
0.0
 40
0.3000000000000114
100
AcDbArc
 50
270.0
 51
0.0
  0
LINE
  5
129
330
1F
100
AcDbEntity
  8
0
  6
HIDDEN
 62
     7
370
     0
100
AcDbLine
 10
149.5701628425
 20
105.9967903696
 30
0.0
 11
152.2753888244
 21
105.9967903696
 31
0.0
  0
LINE
  5
12A
330
1F
100
AcDbEntity
  8
0
  6
HIDDEN
 62
     7
370
     0
100
AcDbLine
 10
152.2753888244
 20
120.5967903696
 30
0.0
 11
149.5701628425
 21
120.5967903696
 31
0.0
  0
ARC
  5
12B
330
1F
100
AcDbEntity
  8
0
  6
HIDDEN
 62
     7
370
     0
100
AcDbCircle
 10
152.2753888244
 20
106.3967903696
 30
0.0
 40
0.4000000000000057
100
AcDbArc
 50
270.0
 51
290.0
  0
ARC
  5
12C
330
1F
100
AcDbEntity
  8
0
  6
HIDDEN
 62
     7
370
     0
100
AcDbCircle
 10
152.2753888244
 20
120.1967903696
 30
0.0
 40
0.4000000000000057
100
AcDbArc
 50
70.0
 51
90.0
  0
ARC
  5
12D
330
1F
100
AcDbEntity
  8
0
  6
HIDDEN
 62
     7
370
     0
100
AcDbCircle
 10
149.5701628425
 20
106.3967903696
 30
0.0
 40
0.4000000000000057
100
AcDbArc
 50
180.0
 51
270.0
  0
ARC
  5
12E
330
1F
100
AcDbEntity
  8
0
  6
HIDDEN
 62
     7
370
     0
100
AcDbCircle
 10
149.5701628425
 20
120.1967903696
 30
0.0
 40
0.4000000000000057
100
AcDbArc
 50
90.0
 51
180.0
  0
LINE
  5
12F
330
1F
100
AcDbEntity
  8
0
  6
HIDDEN
 62
     7
370
     0
100
AcDbLine
 10
152.4121968817
 20
106.0209133213
 30
0.0
 11
153.1701628425
 21
106.2967903696
 31
0.0
  0
LINE
  5
130
330
1F
100
AcDbEntity
  8
0
  6
HIDDEN
 62
     7
370
     0
100
AcDbLine
 10
153.1701628425
 20
120.2967903696
 30
0.0
 11
152.4121968817
 21
120.5726674179
 31
0.0
  0
LINE
  5
131
330
1F
100
AcDbEntity
  8
0
  6
HIDDEN
 62
     7
370
     0
100
AcDbLine
 10
153.1701628425
 20
106.2967903696
 30
0.0
 11
194.8701628425
 21
106.2967903696
 31
0.0
  0
LINE
  5
132
330
1F
100
AcDbEntity
  8
0
  6
HIDDEN
 62
     7
370
     0
100
AcDbLine
 10
194.8701628425
 20
120.2967903696
 30
0.0
 11
153.1701628425
 21
120.2967903696
 31
0.0
  0
LINE
  5
133
330
1F
100
AcDbEntity
  8
0
  6
HIDDEN
 62
     7
370
     0
100
AcDbLine
 10
110.354600673
 20
89.2174190361
 30
0.0
 11
109.9201685235
 21
89.6964850552
 31
0.0
  0
LINE
  5
134
330
1F
100
AcDbEntity
  8
0
  6
HIDDEN
 62
     7
370
     0
100
AcDbLine
 10
102.4201651984
 20
90.1181730143
 30
0.0
 11
101.9377314551
 21
89.6391070389
 31
0.0
  0
LINE
  5
135
330
1F
100
AcDbEntity
  8
0
  6
HIDDEN
 62
     7
370
     0
100
AcDbLine
 10
101.9376095268
 20
136.9544684099
 30
0.0
 11
102.4201602778
 21
136.475348152
 31
0.0
  0
LINE
  5
136
330
1F
100
AcDbEntity
  8
0
  6
HIDDEN
 62
     7
370
     0
100
AcDbLine
 10
109.9201627245
 20
136.8970459297
 30
0.0
 11
110.3547051149
 21
137.3761661803
 31
0.0
  0
LINE
  5
137
330
1F
100
AcDbEntity
  8
0
  6
HIDDEN
 62
     7
370
     0
100
AcDbLine
 10
136.9701628425
 20
109.0967903696
 30
0.0
 11
149.1701628425
 21
109.0967903696
 31
0.0
  0
LINE
  5
138
330
1F
100
AcDbEntity
  8
0
  6
HIDDEN
 62
     7
370
     0
100
AcDbLine
 10
149.1701628425
 20
117.4967903696
 30
0.0
 11
136.9701628425
 21
117.4967903696
 31
0.0
  0
LINE
  5
139
330
1F
100
AcDbEntity
  8
0
  6
HIDDEN
 62
     7
370
     0
100
AcDbLine
 10
109.9201628425
 20
133.2321907079
 30
0.0
 11
109.9201628425
 21
136.8967546236
 31
0.0
  0
LINE
  5
13A
330
1F
100
AcDbEntity
  8
0
  6
HIDDEN
 62
     7
370
     0
100
AcDbLine
 10
102.4201628425
 20
136.4752043729
 30
0.0
 11
102.4201628425
 21
133.2924126016
 31
0.0
  0
LINE
  5
13B
330
1F
100
AcDbEntity
  8
0
  6
HIDDEN
 62
     7
370
     0
100
AcDbLine
 10
109.9201628425
 20
89.6969689569
 30
0.0
 11
109.9201628425
 21
93.3613900314
 31
0.0
  0
LINE
  5
13C
330
1F
100
AcDbEntity
  8
0
  6
HIDDEN
 62
     7
370
     0
100
AcDbLine
 10
102.4201628425
 20
93.3011681377
 30
0.0
 11
102.4201628425
 21
90.1184962519
 31
0.0
  0
DIMENSION
  5
13D
330
1F
100
AcDbEntity
  8
VERMASSUNG
100
AcDbDimension
  2
*D1
 10
76.947545314
 20
81.7967903696
 30
0.0
 11
76.947545314
 21
112.8526668966
 31
0.0
 70
   160
  1
HSK A%%c<>
 71
     2
 42
-1.0
  3
SLDDIMSTYLE0
100
AcDbAlignedDimension
 13
115.4701628425
 23
144.7967903696
 33
0.0
 14
115.4701628425
 24
81.7967903696
 34
0.0
 50
90.0
100
AcDbRotatedDimension
  0
DIMENSION
  5
14A
330
1F
100
AcDbEntity
  8
VERMASSUNG
100
AcDbDimension
  2
*D2
 10
141.1201628425
 20
147.2623404933
 30
0.0
 11
165.5482616781
 21
147.2623404933
 31
0.0
 70
   160
 71
     2
 42
-1.0
  3
SLDDIMSTYLE0
100
AcDbAlignedDimension
 13
195.1701628425
 23
128.022649848
 33
0.0
 14
141.1201628425
 24
143.1432306934
 34
0.0
100
AcDbRotatedDimension
  0
DIMENSION
  5
154
330
1F
100
AcDbEntity
  8
VERMASSUNG
100
AcDbDimension
  2
*D3
 10
115.1701628425
 20
153.2623404933
 30
0.0
 11
154.1244250438
 21
153.2623404933
 31
0.0
 70
   160
 71
     2
 42
-1.0
  3
SLDDIMSTYLE0
100
AcDbAlignedDimension
 13
195.1701628425
 23
128.022649848
 33
0.0
 14
115.1701628425
 24
144.4967903696
 34
0.0
100
AcDbRotatedDimension
  0
DIMENSION
  5
15E
330
1F
100
AcDbEntity
  8
VERMASSUNG
100
AcDbDimension
  2
*D4
 10
83.2701628425
 20
159.2623404933
 30
0.0
 11
136.7947577456
 21
159.2623404933
 31
0.0
 70
   160
 71
     2
 42
-1.0
  3
SLDDIMSTYLE0
100
AcDbAlignedDimension
 13
195.1701628425
 23
128.022649848
 33
0.0
 14
83.2701628425
 24
132.9874681161
 34
0.0
100
AcDbRotatedDimension
  0
DIMENSION
  5
168
330
1F
100
AcDbEntity
  8
VERMASSUNG
100
AcDbDimension
  2
*D5
 10
202.9046298936
 20
106.2967903696
 30
0.0
 11
202.9046298936
 21
113.2598738379
 31
0.0
 70
   160
  1
%%c<>
 71
     2
 42
-1.0
  3
SLDDIMSTYLE0
100
AcDbAlignedDimension
 13
194.8701628425
 23
120.2967903696
 33
0.0
 14
194.8701628425
 24
106.2967903696
 34
0.0
 50
90.0
100
AcDbRotatedDimension
  0
DIMENSION
  5
173
330
1F
100
AcDbEntity
  8
VERMASSUNG
100
AcDbDimension
  2
*D6
 10
208.9046298936
 20
90.7967903696
 30
0.0
 11
208.9046298936
 21
113.2598738379
 31
0.0
 70
   160
  1
%%c<>
 71
     2
 42
-1.0
  3
SLDDIMSTYLE0
100
AcDbAlignedDimension
 13
181.2308678592
 23
135.7967903696
 33
0.0
 14
181.2308678592
 24
90.7967903696
 34
0.0
 50
90.0
100
AcDbRotatedDimension
  0
LINE
  5
17E
330
1F
100
AcDbEntity
  8
VERMASSUNG
  6
CENTERX2
 62
     7
370
     0
100
AcDbLine
 10
127.3657831882
 20
139.6531056557
 30
0.0
 11
127.3657831882
 21
129.047194291
 31
0.0
  0
LINE
  5
17F
330
1F
100
AcDbEntity
  8
VERMASSUNG
  6
CENTERX2
 62
     7
370
     0
100
AcDbLine
 10
81.1248590002
 20
113.2967903696
 30
0.0
 11
196.1894509162
 21
113.2967903696
 31
0.0
  0
OLE2FRAME
  5
180
330
1F
100
AcDbEntity
  8
0
100
AcDbOle2Frame
 70
     2
  3
Bitmap Image
 10
13.8511154363
 20
38.264191557
 30
0.0
 11
51.6290888628
 21
31.9806341108
 31
0.0
 71
     2
 72
     0
 73
     1
 90
    12928
310
80552BED0767C5B32B40DDAF6807D121434000000000000000006FFBDDFB85D0
310
4940DDAF6807D121434000000000000000006FFBDDFB85D04940416F4BD60AFB
310
3F4000000000000000002BED0767C5B32B40416F4BD60AFB3F40000000000000
310
0000000000000100000000010000010000000100000000000100000000320000
310
D0CF11E0A1B11AE1000000000000000000000000000000003E000300FEFF0900
310
0600000000000000000000000100000001000000000000000010000002000000
310
01000000FEFFFFFF0000000000000000FFFFFFFFFFFFFFFFFFFFFFFFFFFFFFFF
310
FFFFFFFFFFFFFFFFFFFFFFFFFFFFFFFFFFFFFFFFFFFFFFFFFFFFFFFFFFFFFFFF
310
FFFFFFFFFFFFFFFFFFFFFFFFFFFFFFFFFFFFFFFFFFFFFFFFFFFFFFFFFFFFFFFF
310
FFFFFFFFFFFFFFFFFFFFFFFFFFFFFFFFFFFFFFFFFFFFFFFFFFFFFFFFFFFFFFFF
310
FFFFFFFFFFFFFFFFFFFFFFFFFFFFFFFFFFFFFFFFFFFFFFFFFFFFFFFFFFFFFFFF
310
FFFFFFFFFFFFFFFFFFFFFFFFFFFFFFFFFFFFFFFFFFFFFFFFFFFFFFFFFFFFFFFF
310
FFFFFFFFFFFFFFFFFFFFFFFFFFFFFFFFFFFFFFFFFFFFFFFFFFFFFFFFFFFFFFFF
310
FFFFFFFFFFFFFFFFFFFFFFFFFFFFFFFFFFFFFFFFFFFFFFFFFFFFFFFFFFFFFFFF
310
FFFFFFFFFFFFFFFFFFFFFFFFFFFFFFFFFFFFFFFFFFFFFFFFFFFFFFFFFFFFFFFF
310
FFFFFFFFFFFFFFFFFFFFFFFFFFFFFFFFFFFFFFFFFFFFFFFFFFFFFFFFFFFFFFFF
310
FFFFFFFFFFFFFFFFFFFFFFFFFFFFFFFFFFFFFFFFFFFFFFFFFFFFFFFFFFFFFFFF
310
FFFFFFFFFFFFFFFFFFFFFFFFFFFFFFFFFFFFFFFFFFFFFFFFFFFFFFFFFFFFFFFF
310
FFFFFFFFFFFFFFFFFFFFFFFFFFFFFFFFFFFFFFFFFFFFFFFFFFFFFFFFFFFFFFFF
310
FFFFFFFFFFFFFFFFFFFFFFFFFFFFFFFFFFFFFFFFFFFFFFFFFFFFFFFFFFFFFFFF
310
FDFFFFFFFEFFFFFFFEFFFFFFFEFFFFFF05000000060000000700000008000000
310
090000000A0000000B0000000C0000000D0000000E0000000F00000010000000
310
11000000120000001300000014000000150000001600000017000000FEFFFFFF
310
FFFFFFFFFFFFFFFFFFFFFFFFFFFFFFFFFFFFFFFFFFFFFFFFFFFFFFFFFFFFFFFF
310
FFFFFFFFFFFFFFFFFFFFFFFFFFFFFFFFFFFFFFFFFFFFFFFFFFFFFFFFFFFFFFFF
310
FFFFFFFFFFFFFFFFFFFFFFFFFFFFFFFFFFFFFFFFFFFFFFFFFFFFFFFFFFFFFFFF
310
FFFFFFFFFFFFFFFFFFFFFFFFFFFFFFFFFFFFFFFFFFFFFFFFFFFFFFFFFFFFFFFF
310
FFFFFFFFFFFFFFFFFFFFFFFFFFFFFFFFFFFFFFFFFFFFFFFFFFFFFFFFFFFFFFFF
310
FFFFFFFFFFFFFFFFFFFFFFFFFFFFFFFFFFFFFFFFFFFFFFFFFFFFFFFFFFFFFFFF
310
FFFFFFFFFFFFFFFFFFFFFFFFFFFFFFFFFFFFFFFFFFFFFFFFFFFFFFFFFFFFFFFF
310
FFFFFFFFFFFFFFFFFFFFFFFFFFFFFFFFFFFFFFFFFFFFFFFFFFFFFFFFFFFFFFFF
310
FFFFFFFFFFFFFFFFFFFFFFFFFFFFFFFFFFFFFFFFFFFFFFFFFFFFFFFFFFFFFFFF
310
FFFFFFFFFFFFFFFFFFFFFFFFFFFFFFFFFFFFFFFFFFFFFFFFFFFFFFFFFFFFFFFF
310
FFFFFFFFFFFFFFFFFFFFFFFFFFFFFFFFFFFFFFFFFFFFFFFFFFFFFFFFFFFFFFFF
310
FFFFFFFFFFFFFFFFFFFFFFFFFFFFFFFFFFFFFFFFFFFFFFFFFFFFFFFFFFFFFFFF
310
FFFFFFFFFFFFFFFFFFFFFFFFFFFFFFFFFFFFFFFFFFFFFFFFFFFFFFFFFFFFFFFF
310
52006F006F007400200045006E00740072007900000000000000000000000000
310
0000000000000000000000000000000000000000000000000000000000000000
310
16000500FFFFFFFFFFFFFFFF020000000A00030000000000C000000000000046
310
000000000000000000000000402A0AF429FFCB0103000000C000000000000000
310
01004F006C006500000000000000000000000000000000000000000000000000
310
0000000000000000000000000000000000000000000000000000000000000000
310
0A000200FFFFFFFFFFFFFFFFFFFFFFFF00000000000000000000000000000000
310
0000000000000000000000000000000000000000000000001400000000000000
310
010043006F006D0070004F0062006A0000000000000000000000000000000000
310
0000000000000000000000000000000000000000000000000000000000000000
310
120002010100000003000000FFFFFFFF00000000000000000000000000000000
310
0000000000000000000000000000000000000000010000004D00000000000000
310
01004F006C006500310030004E00610074006900760065000000000000000000
310
0000000000000000000000000000000000000000000000000000000000000000
310
1A000200FFFFFFFFFFFFFFFFFFFFFFFF00000000000000000000000000000000
310
0000000000000000000000000000000000000000040000002426000000000000
310
FEFFFFFF02000000FEFFFFFFFFFFFFFFFFFFFFFFFFFFFFFFFFFFFFFFFFFFFFFF
310
FFFFFFFFFFFFFFFFFFFFFFFFFFFFFFFFFFFFFFFFFFFFFFFFFFFFFFFFFFFFFFFF
310
FFFFFFFFFFFFFFFFFFFFFFFFFFFFFFFFFFFFFFFFFFFFFFFFFFFFFFFFFFFFFFFF
310
FFFFFFFFFFFFFFFFFFFFFFFFFFFFFFFFFFFFFFFFFFFFFFFFFFFFFFFFFFFFFFFF
310
FFFFFFFFFFFFFFFFFFFFFFFFFFFFFFFFFFFFFFFFFFFFFFFFFFFFFFFFFFFFFFFF
310
FFFFFFFFFFFFFFFFFFFFFFFFFFFFFFFFFFFFFFFFFFFFFFFFFFFFFFFFFFFFFFFF
310
FFFFFFFFFFFFFFFFFFFFFFFFFFFFFFFFFFFFFFFFFFFFFFFFFFFFFFFFFFFFFFFF
310
FFFFFFFFFFFFFFFFFFFFFFFFFFFFFFFFFFFFFFFFFFFFFFFFFFFFFFFFFFFFFFFF
310
FFFFFFFFFFFFFFFFFFFFFFFFFFFFFFFFFFFFFFFFFFFFFFFFFFFFFFFFFFFFFFFF
310
FFFFFFFFFFFFFFFFFFFFFFFFFFFFFFFFFFFFFFFFFFFFFFFFFFFFFFFFFFFFFFFF
310
FFFFFFFFFFFFFFFFFFFFFFFFFFFFFFFFFFFFFFFFFFFFFFFFFFFFFFFFFFFFFFFF
310
FFFFFFFFFFFFFFFFFFFFFFFFFFFFFFFFFFFFFFFFFFFFFFFFFFFFFFFFFFFFFFFF
310
FFFFFFFFFFFFFFFFFFFFFFFFFFFFFFFFFFFFFFFFFFFFFFFFFFFFFFFFFFFFFFFF
310
FFFFFFFFFFFFFFFFFFFFFFFFFFFFFFFFFFFFFFFFFFFFFFFFFFFFFFFFFFFFFFFF
310
FFFFFFFFFFFFFFFFFFFFFFFFFFFFFFFFFFFFFFFFFFFFFFFFFFFFFFFFFFFFFFFF
310
FFFFFFFFFFFFFFFFFFFFFFFFFFFFFFFFFFFFFFFFFFFFFFFFFFFFFFFFFFFFFFFF
310
010000020000000000000000000000000000000061007200410082005C003105
310
D806250000000000D806250000000000680061007200650064005C003B004300
310
0100FEFF030A0000FFFFFFFF0A00030000000000C00000000000004607000000
310
5042727573680007000000504272757368000700000050427275736800F439B2
310
71000000000000000000000000004100540049002E004100430045005C004300
310
6F00720065002D005300740061007400690063003B0043003A005C0050007200
310
6F006700720061006D002000460069006C006500730020002800780038003600
310
29005C0043006F006D006D006F006E002000460069006C00650073005C004100
310
750074006F006400650073006B0020005300680061007200650064005C003B00
310
43003A005C00500072006F006700720061006D002000460069006C0065007300
310
5C004E006F0072006D0061006E005C004E0070006D005C00420069006E000000
310
43003A005C00500072006F006700720061006D002000460069006C0065007300
310
5C0053006F006C006900640057006F0072006B007300200043006F0072007000
310
5C0053006F006C006900640057006F0072006B00730020002800320029005C00
310
730065007400750070005C0069003300380036005C0073007700610063007400
310
770069007A002E006500780065000000220043003A005C00500072006F006700
310
20260000424D0E260000000000003E00000028000000B40200006E0000000100
310
01000000000000000000130B0000130B00000200000002000000000000FFFFFF
310
FFFFFFFFFFFFFFFFFFFFFFFFFFFFFFFFFFFFFFFFFFFFFFFFFFFFFFFFFFFFFFFF
310
FFFFFFFFFFFFFFFFFFFFFFFFFFFFFFFFFFFFFFFFFFFFFFFFFFFFFFFFFFFFFFFF
310
FFFFFFFFFFFFFFFFFFFFFFFFFFFFFFFFFFFFFFFFFFFFFFFFF000FFFFFFFFFFFF
310
FFFFFFFFFFFFFFFFFFFFFFFFFFFFFFFFFFFFFFFFFFFFFFFFFFFFFFFFFFFFFFFF
310
FFFFFFFFFFFFFFFFFFFFFFFFFFFFFFFFFFFFFFFFFFFFFFFFFFFFFFFFFFFFFFFF
310
FFFFFFFFFFFFFFFFFFFFFFFFFFFFFFFFF000FFFFFFFFFFFFFFFFFFFFFFFFFFFF
310
FFFFFFFFFFFFFFFFFFFFFFFFFFFFFFFFFFFFFFFFFFFFFFFFFFFFFFFFFFFFFFFF
310
FFFFFFFFFFFFFFFFFFFFFFFFFFFFFFFFFFFFFFFFFFFFFFFFFFFFFFFFFFFFFFFF
310
FFFFFFFFFFFFFFFFF000FFFFFFFFFFFFFFFFFFFFFFFFFFFFFFFFFFFFFFFFFFFF
310
FFFFFFFFFFFFFFFFFFFFFFFFFFFFFFFFFFFFFFFFFFFFFFFFFFFFFFFFFFFFFFFF
310
FFFFFFFFFFFFFFFFFFFFFFFFFFFFFFFFFFFFFFFFFFFFFFFFFFFFFFFFFFFFFFFF
310
F000FFFFFFFFFFFFFFFFFFFFFFFFFFFFFFFFFFFFFFFFFFFFFFFFFFFFFFFFFFFF
310
FFFFFFFFFFFFFFFFFFFFFFFFFFFFFFFFFFFFFFFFFFFFFFFFFFFFFFFFFFFFFFFF
310
FFFFFFFFFFFFFFFFFFFFFFFFFFFFFFFFFFFFFFFFFFFFFFFFF000FFFFFFFFFFFF
310
FFFFFFFFFFFFFFFFFFFFFFFFFFFFFFFFFFFFFFFFFFFFFFFFFFFFFFFFFFFFFFFF
310
FFFFFFFFFFFFFFFFFFFFFFFFFFFFFFFFFFFFFFFFFFFFFFFFFFFFFFFFFFFFFFFF
310
FFFFFFFFFFFFFFFFFFFFFFFFFFFFFFFFF000FFFFFFFFFFFFFFFFFFFFFFFFFFFF
310
FFFFFFFFFFFFFFFFFFFFFFFFFFFFFFFFFFFFFFFFFFFFFFFFFFFFFFFFFFFFFFFF
310
FFFFFFFFFFFFFFFFFFFFFFFFFFFFFFFFFFFFFFFFFFFFFFFFFFFFFFFFFFFFFFFF
310
FFFFFFFFFFFFFFFFF000FFFFFFFFFFFFFFFFFFFFFFFFFFFFFFFFFFFFFFFFFFFF
310
FFFFFFFFFFFFFFFFFFFFFFFFFFFFFFFFFFFFFFFFFFFFFFFFFFFFFFFFFFFFFFFF
310
FFFFFFFFFFFFFFFFFFFFFFFFFFFFFFFFFFFFFFFFFFFFFFFFFFFFFFFFFFFFFFFF
310
F000FFFFFFFFFFFFFFFFFFFFFFFFFFFFFFFFFFFFFFFFFFFFFFFFFFFFFFFFFFFF
310
FFFFFFFFFFFFFFFFFFFFFFFFFFFFFFFFFFFFFFFFFFFFFFFFFFFFFFFFFFFFFFFF
310
FFFFFFFFFFFFFFFFFFFFFFFFFFFFFFFFFFFFFFFFFFFFFFFFF000FFFFFFFFFFFF
310
FFFFFFFFFFFFFFFFFFFFFFFFFFFFFFFFFFFFFFFFFFFFFFFFFFFFFFFFFFFFFFFF
310
FFFFFFFFFFFFFFFFFFFFFFFFFFFFFFFFFFFFFFFFFFFFFFFFFFFFFFFFFFFFFFFF
310
FFFFFFFFFFFFFFFFFFFFFFFFFFFFFFFFF000FFFFFFFFFFFFFFFFFFFFFFFFFFFF
310
FFFFFFFFFFFFFFFFFFFFFFFFFFFFFFFFFFFFFFFFFFFFFFFFFFFFFFFFFFFFFFFF
310
FFFFFFFFFFFFFFFFFFFFFFFFFFFFFFFFFFFFFFFFFFFFFFFFFFFFFFFFFFFFFFFF
310
FFFFFFFFFFFFFFFFF000FFFFFFFFFFFFFFFFFFFFFFFFFFFFFFFFFFFFFFFFFFFF
310
FFFFFFFFFFFFFFFFFFFFFFFFFFFFFFFFFFFFFFFFFFFFFFFFFFFFFFFFFFFFFFFF
310
FFFFFFFFFFFFFFFFFFFFFFFFFFFFFFFFFFFFFFFFFFFFFFFFFFFFFFFFFFFFFFFF
310
F000FFFFFFFFFFFFFFFFFFFFFFFFFFFFFFFFFFFFFFFFFFFFFFFFFFFFFFFFFFFF
310
FFFFFFFFFFFFFFFFFFFFFFFFFFFFFFFFFFFFFFFFFFFFFFFFFFFFFFFFFFFFFFFF
310
FFFFFFFFFFFFFFFFFFFFFFFFFFFFFFFFFFFFFFFFFFFFFFFFF000FFFFFFFFFFFF
310
FFFFFFFFFFFFFFFFFFFFFFFFFFFFFFFFFFFFFFFFFFFFFFFFFFFFFFFFFFFFFFFF
310
FFFFFFFFFFFFFFFFFFFFFFFFFFFFFFFFFFFFFFFFFFFFFFFFFFFFFFFFFFFFFFFF
310
FFFFFFFFFFFFFFFFFFFFFFFFFFFFFFFFF000FFFFFFFFFFFFFFFFFFFFFFFFFFFF
310
FFFFFFFFFFFFFFFFFFFFFFFFFFFFFFFFFFFFFFFFFFFFFFFFFFFFFFFFFFFFFFFF
310
FFFFFFFFFFFFFFFFFFFFFFFFFFFFFFFFFFFFFFFFFFFFFFFFFFFFFFFFFFFFFFFF
310
FFFFFFFFFFFFFFFFF000FFFFFFFFFFFFFFFFFFFFFFFFFFFFFFFFFFFFFFFFFFFF
310
FFFFFFFFFFFFFFFFFFFFFFFFFFFFFFFFFFFFFFFFFFFFFFFFFFFFFFFFFFFFFFFF
310
FFFFFFFFFFFFFFFFFFFFFFFFFFFFFFFFFFFFFFFFFFFFFFFFFFFFFFFFFFFFFFFF
310
F000FFFFFFFFFFFFFFFFFFFFFFFFFFFFFFFFFFFFFFFFFFFFFFFFFFFFFFFFFFFF
310
FFFFFFFFFFFFFFFFFFFFFFFFFFFFFFFFFFFFFFFFFFFFFFFFFFFFFFFFFFFFFFFF
310
FFFFFFFFFFFFFFFFFFFFFFFFFFFFFFFFFFFFFFFFFFFFFFFFF000FFFFFFFFFFFF
310
FFFFFFFFFFFFFFFFFFFFFFFFFFFFFFFFFFFFFFFFFFFFFFFFFFFFFFFFFFFFFFFF
310
FFFFFFFFFFFFFFFFFFFFFFFFFFFFFFFFFFFFFFFFFFFFFFFFFFFFFFFFFFFFFFFF
310
FFFFFFFFFFFFFFFFFFFFFFFFFFFFFFFFF000FFFFFFFFFFFFFFFFFFFFFFFFFFFF
310
FFFFFFFFFFFFFFFFFFFFFFFFFFFFFFFFFFFFFFFFFFFFFFFFFFFFFFFFFFFFFFFF
310
FFFFFFFFFFFFFFFFFFFFFFFFFFFFFFFFFFFFFFFFFFFFFFFFFFFFFFFFFFFFFFFF
310
FFFFFFFFFFFFFFFFF000FFFFF80003FFFFFFFFFFFFFFFFFFFFFFFFFFFFFFFFFF
310
FFFFF00007FFFFFFFFFF00007FFFFFF800000000000000007FFFFFFFFFFFFFFF
310
FFFFFFFC001FFFFFFFFFFFFFFC001FFFFFFFFFFFFFFFFFFFFFFFFFFE0007FFFF
310
F000FFFF8000007FFFFFFFF8000FFFFFC0007FFFFF80007FFFFF0000007FFFFF
310
FFF8000007FFFFF800000000000000007FFFFFF0001FFFFFFFFFFFC00001FFFF
310
FFFFFFFFC00001FFFFFFFF000000000003FFFFE000007FFFF000FFFE0000000F
310
FFFFFFF0000FFFFF80007FFFFF80007FFFFC0000001FFFFFFFC0000001FFFFF8
310
00000000000000007FFFFFF0001FFFFFFFFFFE0000003FFFFFFFFFFE0000003F
310
FFFFFF000000000003FFFF0000000FFFF000FFF800000003FFFFFFF00007FFFF
310
80007FFFFF80007FFFF000000007FFFFFF000000003FFFF80000000000000000
310
7FFFFFF0001FFFFFFFFFF80000000FFFFFFFFFF80000000FFFFFFF0000000000
310
03FFFC00000003FFF000FFE000000000FFFFFFF00007FFFF80003FFFFF80007F
310
FFC000000001FFFFFC000000001FFFF800000000000000007FFFFFF0001FFFFF
310
FFFFE000000003FFFFFFFFE000000003FFFFFF000000000003FFF000000000FF
310
F000FF80000000007FFFFFF00007FFFF80003FFFFF80007FFF8000000000FFFF
310
F80000000007FFF800000000000000007FFFFFF0001FFFFFFFFFC000000001FF
310
FFFFFFC000000001FFFFFF000000000003FFC0000000007FF000FF0000000000
310
3FFFFFE00007FFFF00003FFFFF80007FFE00000000003FFFF00000000003FFF8
310
00000000000000007FFFFFF0001FFFFFFFFF8000000000FFFFFFFF8000000000
310
FFFFFF000000000003FF80000000003FF000FE00000000001FFFFFE00003FFFF
310
00003FFFFF80007FFC00000000001FFFE00000000001FFF8000001FFFE000000
310
7FFFFFF0001FFFFFFFFE00000000003FFFFFFE00000000003FFFFF0000000000
310
03FF00000000001FF000FC00000000000FFFFFE00003FFFF00001FFFFF80007F
310
F800000000001FFFC00000000000FFF8000001FFFE0000007FFFFFF0001FFFFF
310
FFFC00000000001FFFFFFC00000000001FFFFF000000000003FE00000000000F
310
F000F8000000000007FFFFE00003FFFF00001FFFFF80007FF800000000000FFF
310
800000000000FFF8000001FFFE0000007FFFFFF0001FFFFFFFF800000000000F
310
FFFFF800000000000FFFFF000000000003FC000000000007F000F80000000000
310
03FFFFC00003FFFE00001FFFFF80007FF0000000000007FF0000000000007FF8
310
000001FFFE0000007FFFFFF0001FFFFFFFF0000000000007FFFFF00000000000
310
07FFFF000000000003F8000000000003F000F0000000000003FFFFC00001FFFE
310
00001FFFFF80007FE0000000000007FE0000000000003FF8000001FFFE000000
310
7FFFFFF0001FFFFFFFF0000000000007FFFFF0000000000007FFFF0000000000
310
03F800001F800003F000E00001FFF00001FFFFC00001FFFE00000FFFFF80007F
310
E00001FFE00003FE00001FFF00003FF8000001FFFE0000007FFFFFF0001FFFFF
310
FFE000003E000003FFFFE000003E000003FFFF000000000003F00001FFF80001
310
F000E00007FFFC0001FFFFC00001FFFE00000FFFFF80007FC0000FFFFC0003FC
310
0000FFFFC0001FF8000001FFFE0000007FFFFFF0001FFFFFFFC00003FFE00001
310
FFFFC00003FFE00001FFFF0001FFFFFFFFF00007FFFE0001F000E0000FFFFF00
310
00FFFF800001FFFC00000FFFFF80007FC0001FFFFE0001FC0001FFFFE0001FF8
310
000001FFFE0000007FFFFFF0001FFFFFFF80000FFFF80000FFFF80000FFFF800
310
00FFFF0003FFFFFFFFE0000FFFFF8000F000C0003FFFFF8000FFFF800000FFFC
310
000007FFFF80007F80003FFFFF0001FC0003FFFFF0001FF8000001FFFE000000
310
7FFFFFF0001FFFFFFF80003FFFFE0000FFFF80003FFFFE0000FFFF0003FFFFFF
310
FFE0003FFFFF8000F000C0003FFFFF8000FFFF800000FFFC000007FFFF80007F
310
80007FFFFF8001F80007FFFFF8000FF8000001FFFE0000007FFFFFF0001FFFFF
310
FF00007FFFFF00007FFF00007FFFFF00007FFF0003FFFFFFFFE0003FFFFFC000
310
F000C0007FFFFFC000FFFF000000FFFC000007FFFF80007F8000FFFFFF8000F8
310
000FFFFFF8000FF8000001FFFE0000007FFFFFF0001FFFFFFF0000FFFFFF8000
310
7FFF0000FFFFFF80007FFF0003FFFFFFFFC0007FFFFFC00070008000FFFFFFC0
310
00FFFF000000FFF8000007FFFF80007F8000FFFFFF8000F8000FFFFFF8000FF8
310
000001FFFE0000007FFFFFF0001FFFFFFE0001FFFFFFC0003FFE0001FFFFFFC0
310
003FFF0003FFFFFFFFC0007FFFFFE00070008000FFFFFFC0007FFF0000007FF8
310
000003FFFF80007F0001FFFFFF8000F8000FFFFFF8000FF8000001FFFE000000
310
7FFFFFF0001FFFFFFE0001FFFFFFC0003FFE0001FFFFFFC0003FFF0003FFFFFF
310
FFC000FFFFFFE00070008000FFFFFFC0007FFF0000007FF8000003FFFF80007F
310
0001FFFFFF8000F8001FFFFFF8000FF8000001FFFE0000007FFFFFF0001FFFFF
310
FE0003FFFFFFE0003FFE0003FFFFFFE0003FFF0003FFFFFFFFC000FFFFFFE000
310
70008000FFFFFFC0007FFE0000007FF8000003FFFF80007F0001FFFFFF8000F0
310
001FFFFFF8000FF8000001FFFE0000007FFFFFF0001FFFFFFC0003FFFFFFE000
310
1FFC0003FFFFFFE0001FFF0003FFFFFFFFC000FFFFFFC00070008000FFFFFF80
310
007FFE0000007FF0000003FFFF80007F0001FFFFFF0000F0001FFFFFF8000FF8
310
000001FFFE0000007FFFFFF0001FFFFFFC0007FFFFFFF0001FFC0007FFFFFFF0
310
001FFF0003FFFFFFFFC000FFFFFFC00070008001FFFFFF0000FFFE0000003FF0
310
000001FFFF80007F0001FFFFFF0000F8001FFFFFF0000FF8000001FFFE000000
310
7FFFFFF0001FFFFFFC0007FFFFFFF0001FFC0007FFFFFFF0001FFF0003FFFFFF
310
FFC001FFFFFF80007000FFFFFFFFFE0000FFFE0008003FF0008001FFFF80007F
310
FFFFFFFFFC0000FFFFFFFFFFE0000FF8000001FFFE0000007FFFFFF0001FFFFF
310
F8000FFFFFFFF8000FF8000FFFFFFFF8000FFF0003FFFFFFFFFFFFFFFFFF0000
310
7000FFFFFFFFFC0000FFFC0008003FF0008001FFFF80007FFFFFFFFFF80001FF
310
FFFFFFFF80000FF8000001FFFE0000007FFFFFF0001FFFFFF8000FFFFFFFF800
310
0FF8000FFFFFFFF8000FFF0003FFFFFFFFFFFFFFFFFE0000F000FFFFFFFFE000
310
00FFFC000C003FE000C001FFFF80007FFFFFFFFFC00001FFFFFFFFFE00001FF8
310
000001FFFE0000007FFFFFF0001FFFFFF8000FFFFFFFF8000FF8000FFFFFFFF8
310
000FFF0003FFFFFFFFFFFFFFFFF00000F000FFFFFFFE000001FFFC000C001FE0
310
00C000FFFF80007FFFFFFFFE000001FFFFFFFFE000001FF80FFFFFFFFFFFFFC0
310
7FFFFFF0001FFFFFF8000FFFFFFFF8000FF8000FFFFFFFF8000FFF0003FFFFFF
310
FFFFFFFFFF800000F000FFFFFFC0000001FFFC001C001FE001C000FFFF80007F
310
FFFFFF80000003FFFFFFF80000001FF80FFFFFFFFFFFFFC07FFFFFF0001FFFFF
310
F8001FFFFFFFFC000FF8001FFFFFFFFC000FFF0003FFFFFFFFFFFFFFF0000001
310
F000FFFFF800000001FFF8001C001FE001C000FFFF80007FFFFFF800000003FF
310
FFFF800000003FF80FFFFFFFFFFFFFC07FFFFFF0001FFFFFF8001FFFFFFFFC00
310
0FF8001FFFFFFFFC000FFF0003FFFFFFFFFFFFFE00000001F000FFFFC0000000
310
03FFF8001E001FC001E000FFFF80007FFFFF8000000007FFFFFC000000003FF8
310
0FFFFFFFFFFFFFC07FFFFFF0001FFFFFF8001FFFFFFFFC000FF8001FFFFFFFFC
310
000FFF0003FFFFFFFFFFFFE000000003F000FFFE0000000007FFF8001E000FC0
310
01E0007FFF80007FFFFE0000000007FFFFE0000000007FF80FFFFFFFFFFFFFC0
310
7FFFFFF0001FFFFFF0001FFFFFFFFC0007F0001FFFFFFFFC0007FF0003FFFFFF
310
FFFFFF0000000003F000FFF80000000007FFF8001E000FC003E0007FFF80007F
310
FFF0000000000FFFFF8000000000FFF80FFFFFFFFFFFFFC07FFFFFF0001FFFFF
310
F0001FFFFFFFFC0007F0001FFFFFFFFC0007FF0003FFFFFFFFFFFC0000000007
310
F000FFE0000000000FFFF0003E000FC003E0007FFF80007FFFC0000000001FFF
310
FE0000000001FFF80FFFFFFFFFFFFFC07FFFFFF0001FFFFFF0001FFFFFFFFC00
310
07F0001FFFFFFFFC0007FF0003FFFFFFFFFFF0000000000FF000FFC000000000
310
1FFFF0003F000F8003F0003FFF80007FFF80000000003FFFF80000000003FFF8
310
0FFFFFFFFFFFFFC07FFFFFF0001FFFFFF0001FFFFFFFFC0007F0001FFFFFFFFC
310
0007FF0003FFFFFFFFFFE0000000001FF000FF00000000007FFFF0003F000780
310
03F0003FFF80007FFF00000000007FFFF00000000007FFF80FFFFFFFFFFFFFC0
310
7FFFFFF0001FFFFFF0001FFFFFFFFC0007F0001FFFFFFFFC0007FF0003FFFFFF
310
FFFF80000000007FF000FE0000000000FFFFE0003F00078007F0003FFF80007F
310
FE0000000001FFFFE0000000001FFFF80FFFFFFFFFFFFFC07FFFFFF0001FFFFF
310
F0001FFFFFFFFC0007F0001FFFFFFFFC0007FF0003FFFFFFFFFF0000000000FF
310
F000FC0000000003FFFFE0007F00078007F0003FFF80007FFC0000000007FFFF
310
C0000000007FFFF80FFFFFFFFFFFFFC07FFFFFF0001FFFFFF8001FFFFFFFFC00
310
0FF8001FFFFFFFFC000FFF0003FFFFFFFFFE0000000003FFF000FC000000000F
310
FFFFE0007F80070007F8001FFF80007FF8000000001FFFFF8000000001FFFFF8
310
0FFFFFFFFFFFFFC07FFFFFF0001FFFFFF8001FFFFFFFFC000FF8001FFFFFFFFC
310
000FFF0003FFFFFFFFFC000000000FFFF000F8000000007FFFFFE0007F800700
310
07F8001FFF80007FF000000000FFFFFF800000000FFFFFF80FFFFFFFFFFFFFC0
310
7FFFFFF0001FFFFFF8000FFFFFFFF8000FF8000FFFFFFFF8000FFF0003FFFFFF
310
FFFC000000007FFFF000F800000007FFFFFFC0007F8003000FF8001FFF80007F
310
F000000007FFFFFF000000007FFFFFF80FFFFFFFFFFFFFC07FFFFFF0001FFFFF
310
F8000FFFFFFFF8000FF8000FFFFFFFF8000FFF0003FFFFFFFFF80000000FFFFF
310
F000F0000000FFFFFFFFC000FF8003000FF8001FFF80007FE0000000FFFFFFFF
310
0000000FFFFFFFF8000001FFFE0000007FFFFFF0001FFFFFF8000FFFFFFFF800
310
0FF8000FFFFFFFF8000FFF0003FFFFFFFFF8000000FFFFFFF000F000000FFFFF
310
FFFFC000FFC002000FF8000FFF80007FE000001FFFFFFFFE000001FFFFFFFFF8
310
000001FFFE0000007FFFFFF0001FFFFFF8000FFFFFFFF8000FF8000FFFFFFFF8
310
000FFF0003FFFFFFFFF000001FFFFFFFF000E00000FFFFFFFFFFC000FFC00200
310
0FFC000FFF80007FE00001FFFFFFFFFE00001FFFFFFFFFF8000001FFFE000000
310
7FFFFFF0001FFFFFFC000FFFFFFFF8001FFC000FFFFFFFF8001FFF0003FFFFFF
310
FFF00001FFFFFFFFF000E00007FFFFFFFFFF8000FFC000001FFC000FFF80007F
310
C0000FFFFFFFFFFE0000FFFFFFFFFFF8000001FFFE0000007FFFFFF0001FFFFF
310
FC0007FFFFFFF0001FFC0007FFFFFFF0001FFF0003FFFFFFFFF00007FFFFFFFF
310
F000E0001FFFFFFFFFFF8000FFC000001FFC000FFF80007FC0003FFFFFFFFFFE
310
0001FFFFFFFFFFF8000001FFFE0000007FFFFFF0001FFFFFFC0007FFFFFFF000
310
1FFC0007FFFFFFF0001FFF0003FFFFFFFFF0001FFFFFFFFFF000E0003FFFFF00
310
03FF8001FFE000001FFC0007FF80007FC0007FFFFF0007FC0003FFFFF0003FF8
310
000001FFFE0000007FFFFFF0001FFFFFFC0003FFFFFFE0001FFC0003FFFFFFE0
310
001FFF0003FFFFFFFFF0003FFFFFFFFFF000E0003FFFFF0001FF8001FFE00000
310
1FFE0007FF80007FC0007FFFFE0003FC0007FFFFE0003FF8000001FFFE000000
310
7FFFFFF0001FFFFFFE0003FFFFFFE0003FFE0003FFFFFFE0003FFF0003FFFFFF
310
FFF0003FFFFF8001F000E0003FFFFF0001FF0001FFE000001FFE0007FF80007F
310
C0007FFFFE0003FC0007FFFFE0003FF8000001FFFE0000007FFFFFF0001FFFFF
310
FE0001FFFFFFC0003FFE0001FFFFFFC0003FFF0003FFFFFFFFF0003FFFFF0001
310
F000E0003FFFFF0003FF0001FFE000003FFE0007FF80007FC0007FFFFE0003FC
310
0007FFFFE0003FF8000001FFFE0000007FFFFFF0001FFFFFFF0001FFFFFFC000
310
7FFF0001FFFFFFC0007FFF0003FFFFFFFFF0003FFFFF0001F000E0003FFFFE00
310
03FF0003FFF000003FFE0003FF80007FC0007FFFFC0003FE0007FFFFE0003FF8
310
000001FFFE0000007FFFFFF0001FFFFFFF0000FFFFFF80007FFF0000FFFFFF80
310
007FFF0003FFFFFFFFF0003FFFFF0001F000E0003FFFFE0003FF0003FFF00000
310
3FFF0003FF80007FC0007FFFFC0007FE0007FFFFC0003FF8000001FFFE000000
310
7FFFFFF0001FFFFFFF80007FFFFF0000FFFF80007FFFFF0000FFFF0003FFFFFF
310
FFF0003FFFFF0003F000E0003FFFFC0003FE0003FFF000003FFF0003FF80007F
310
E0003FFFF80007FE0003FFFFC0007FF8000001FFFE0000007FFFFFF0001FFFFF
310
FF80003FFFFE0000FFFF80003FFFFE0000FFFF0003FFFFFFFFF0001FFFFE0003
310
F000F0001FFFF80003FE0003FFF000007FFF0001FF80007FE0003FFFF00007FE
310
0001FFFF80007FF8000001FFFE0000007FFFFFF0001FFFFFFFC0000FFFF80001
310
FFFFC0000FFFF80001FFFF0003FFFFFFFFF0001FFFFC0003F000F0000FFFF000
310
07FE0007FFF800007FFF0001FF80007FE0001FFFE00007FF0000FFFE00007FF8
310
000001FFFE0000007FFFFFF0001FFFFFFFC00003FFE00001FFFFC00003FFE000
310
01FFFF0003FFFFFFFFF8000FFFF80003F000F00003FFC00007FC0007FFF80000
310
7FFF8001FF80007FF00007FF80000FFF00007FF80000FFF8000001FFFE000000
310
7F80000000000001FFE000003E000003FFFFE000003E000003FFFF0003FFFFFF
310
FFF80003FFE00007F000F800000000000FFC0007FFF800007FFF8001FF80007F
310
F000000000000FFF000000000000FFF8000001FFFE0000007F80000000000001
310
FFF0000000000007FFFFF0000000000007FFFF0003FFFFFFFFFC00007E000007
310
F000F800000000000FFC0007FFF80000FFFF8000FF80007FF800000000001FFF
310
800000000001FFF8000001FFFE0000007F80000000000001FFF800000000000F
310
FFFFF800000000000FFFFF0003FFFFFFFFFC00000000000FF000FC0000000000
310
1FFC0007FFFC0000FFFF8000FF80007FF800000000003FFFC00000000001FFF8
310
000001FFFE0000007F80000000000001FFF800000000000FFFFFF80000000000
310
0FFFFF0003FFFFFFFFFE00000000001FF000FE00000000003FF8000FFFFC0000
310
FFFF8000FF80007FFC00000000003FFFC00000000003FFF8000001FFFE000000
310
7F80000000000001FFFC00000000001FFFFFFC00000000001FFFFF0003FFFFFF
310
FFFF00000000001FF000FF00000000003FF8000FFFFC0000FFFFC000FF80007F
310
FE00000000007FFFE00000000007FFF8000001FFFE0000007F80000000000001
310
FFFE00000000003FFFFFFE00000000003FFFFF0003FFFFFFFFFF80000000003F
310
F000FF80000000007FF8000FFFFC0001FFFFC0007F80007FFF0000000000FFFF
310
F0000000000FFFF800000000000000007F80000000000001FFFF8000000000FF
310
FFFFFF8000000000FFFFFF0003FFFFFFFFFFC0000000007FF000FFC000000000
310
FFF8000FFFFE0001FFFFC0007F80007FFF8000000001FFFFF8000000001FFFF8
310
00000000000000007F80000000000001FFFFC000000001FFFFFFFFC000000001
310
FFFFFF0003FFFFFFFFFFE000000000FFF000FFE000000003FFF0001FFFFE0001
310
FFFFC0007F80007FFFC000000007FFFFFE000000003FFFF80000000000000000
310
7F80000000000001FFFFE000000003FFFFFFFFE000000003FFFFFF0003FFFFFF
310
FFFFF000000003FFF000FFF80000000FFFF0001FFFFE0001FFFFE0007F80007F
310
FFF00000000FFFFFFF00000000FFFFF800000000000000007F80000000000001
310
FFFFF80000000FFFFFFFFFF80000000FFFFFFF0003FFFFFFFFFFFC0000000FFF
310
F000FFFE0000003FFFF0001FFFFE0003FFFFE0003F80007FFFFC0000003FFFFF
310
FFC0000003FFFFF800000000000000007F80000000000001FFFFFE0000003FFF
310
FFFFFFFE0000003FFFFFFF0003FFFFFFFFFFFF0000003FFFF000FFFF800000FF
310
FFF0001FFFFF0003FFFFE0003F80007FFFFF000001FFFFFFFFF800001FFFFFF8
310
00000000000000007F80000000000001FFFFFFC00001FFFFFFFFFFFFC00001FF
310
FFFFFF0003FFFFFFFFFFFFC00000FFFFF000FFFFF8000FFFFFFFFFFFFFFFFFFF
310
FFFFFFFFFFFFFFFFFFFFF0001FFFFFFFFFFF0000FFFFFFF80000000000000000
310
7FFFFFFFFFFFFFFFFFFFFFFC001FFFFFFFFFFFFFFC001FFFFFFFFFFFFFFFFFFF
310
FFFFFFFC001FFFFFF000FFFFFFFFFFFFFFFFFFFFFFFFFFFFFFFFFFFFFFFFFFFF
310
FFFFFFFFFFFFFFFFFFFFFFFFFFFFFFFFFFFFFFFFFFFFFFFFFFFFFFFFFFFFFFFF
310
FFFFFFFFFFFFFFFFFFFFFFFFFFFFFFFFFFFFFFFFFFFFFFFFFFFFFFFFFFFFFFFF
310
F000FFFFFFFFFFFFFFFFFFFFFFFFFFFFFFFFFFFFFFFFFFFFFFFFFFFFFFFFFFFF
310
FFFFFFFFFFFFFFFFFFFFFFFFFFFFFFFFFFFFFFFFFFFFFFFFFFFFFFFFFFFFFFFF
310
FFFFFFFFFFFFFFFFFFFFFFFFFFFFFFFFFFFFFFFFFFFFFFFFF000FFFFFFFFFFFF
310
FFFFFFFFFFFFFFFFFFFFFFFFFFFFFFFFFFFFFFFFFFFFFFFFFFFFFFFFFFFFFFFF
310
FFFFFFFFFFFFFFFFFFFFFFFFFFFFFFFFFFFFFFFFFFFFFFFFFFFFFFFFFFFFFFFF
310
FFFFFFFFFFFFFFFFFFFFFFFFFFFFFFFFF000FFFFFFFFFFFFFFFFFFFFFFFFFFFF
310
FFFFFFFFFFFFFFFFFFFFFFFFFFFFFFFFFFFFFFFFFFFFFFFFFFFFFFFFFFFFFFFF
310
FFFFFFFFFFFFFFFFFFFFFFFFFFFFFFFFFFFFFFFFFFFFFFFFFFFFFFFFFFFFFFFF
310
FFFFFFFFFFFFFFFFF000FFFFFFFFFFFFFFFFFFFFFFFFFFFFFFFFFFFFFFFFFFFF
310
FFFFFFFFFFFFFFFFFFFFFFFFFFFFFFFFFFFFFFFFFFFFFFFFFFFFFFFFFFFFFFFF
310
FFFFFFFFFFFFFFFFFFFFFFFFFFFFFFFFFFFFFFFFFFFFFFFFFFFFFFFFFFFFFFFF
310
F000FFFFFFFFFFFFFFFFFFFFFFFFFFFFFFFFFFFFFFFFFFFFFFFFFFFFFFFFFFFF
310
FFFFFFFFFFFFFFFFFFFFFFFFFFFFFFFFFFFFFFFFFFFFFFFFFFFFFFFFFFFFFFFF
310
FFFFFFFFFFFFFFFFFFFFFFFFFFFFFFFFFFFFFFFFFFFFFFFFF000FFFFFFFFFFFF
310
FFFFFFFFFFFFFFFFFFFFFFFFFFFFFFFFFFFFFFFFFFFFFFFFFFFFFFFFFFFFFFFF
310
FFFFFFFFFFFFFFFFFFFFFFFFFFFFFFFFFFFFFFFFFFFFFFFFFFFFFFFFFFFFFFFF
310
FFFFFFFFFFFFFFFFFFFFFFFFFFFFFFFFF000FFFFFFFFFFFFFFFFFFFFFFFFFFFF
310
FFFFFFFFFFFFFFFFFFFFFFFFFFFFFFFFFFFFFFFFFFFFFFFFFFFFFFFFFFFFFFFF
310
FFFFFFFFFFFFFFFFFFFFFFFFFFFFFFFFFFFFFFFFFFFFFFFFFFFFFFFFFFFFFFFF
310
FFFFFFFFFFFFFFFFF000FFFFFFFFFFFFFFFFFFFFFFFFFFFFFFFFFFFFFFFFFFFF
310
FFFFFFFFFFFFFFFFFFFFFFFFFFFFFFFFFFFFFFFFFFFFFFFFFFFFFFFFFFFFFFFF
310
FFFFFFFFFFFFFFFFFFFFFFFFFFFFFFFFFFFFFFFFFFFFFFFFFFFFFFFFFFFFFFFF
310
F000FFFFFFFFFFFFFFFFFFFFFFFFFFFFFFFFFFFFFFFFFFFFFFFFFFFFFFFFFFFF
310
FFFFFFFFFFFFFFFFFFFFFFFFFFFFFFFFFFFFFFFFFFFFFFFFFFFFFFFFFFFFFFFF
310
FFFFFFFFFFFFFFFFFFFFFFFFFFFFFFFFFFFFFFFFFFFFFFFFF000FFFFFFFFFFFF
310
FFFFFFFFFFFFFFFFFFFFFFFFFFFFFFFFFFFFFFFFFFFFFFFFFFFFFFFFFFFFFFFF
310
FFFFFFFFFFFFFFFFFFFFFFFFFFFFFFFFFFFFFFFFFFFFFFFFFFFFFFFFFFFFFFFF
310
FFFFFFFFFFFFFFFFFFFFFFFFFFFFFFFFF000FFFFFFFFFFFFFFFFFFFFFFFFFFFF
310
FFFFFFFFFFFFFFFFFFFFFFFFFFFFFFFFFFFFFFFFFFFFFFFFFFFFFFFFFFFFFFFF
310
FFFFFFFFFFFFFFFFFFFFFFFFFFFFFFFFFFFFFFFFFFFFFFFFFFFFFFFFFFFFFFFF
310
FFFFFFFFFFFFFFFFF000FFFFFFFFFFFFFFFFFFFFFFFFFFFFFFFFFFFFFFFFFFFF
310
FFFFFFFFFFFFFFFFFFFFFFFFFFFFFFFFFFFFFFFFFFFFFFFFFFFFFFFFFFFFFFFF
310
FFFFFFFFFFFFFFFFFFFFFFFFFFFFFFFFFFFFFFFFFFFFFFFFFFFFFFFFFFFFFFFF
310
F000FFFFFFFFFFFFFFFFFFFFFFFFFFFFFFFFFFFFFFFFFFFFFFFFFFFFFFFFFFFF
310
FFFFFFFFFFFFFFFFFFFFFFFFFFFFFFFFFFFFFFFFFFFFFFFFFFFFFFFFFFFFFFFF
310
FFFFFFFFFFFFFFFFFFFFFFFFFFFFFFFFFFFFFFFFFFFFFFFFF000FFFFFFFFFFFF
310
FFFFFFFFFFFFFFFFFFFFFFFFFFFFFFFFFFFFFFFFFFFFFFFFFFFFFFFFFFFFFFFF
310
FFFFFFFFFFFFFFFFFFFFFFFFFFFFFFFFFFFFFFFFFFFFFFFFFFFFFFFFFFFFFFFF
310
FFFFFFFFFFFFFFFFFFFFFFFFFFFFFFFFF000FFFFFFFFFFFFFFFFFFFFFFFFFFFF
310
FFFFFFFFFFFFFFFFFFFFFFFFFFFFFFFFFFFFFFFFFFFFFFFFFFFFFFFFFFFFFFFF
310
FFFFFFFFFFFFFFFFFFFFFFFFFFFFFFFFFFFFFFFFFFFFFFFFFFFFFFFFFFFFFFFF
310
FFFFFFFFFFFFFFFFF000FFFFFFFFFFFFFFFFFFFFFFFFFFFFFFFFFFFFFFFFFFFF
310
FFFFFFFFFFFFFFFFFFFFFFFFFFFFFFFFFFFFFFFFFFFFFFFFFFFFFFFFFFFFFFFF
310
FFFFFFFFFFFFFFFFFFFFFFFFFFFFFFFFFFFFFFFFFFFFFFFFFFFFFFFFFFFFFFFF
310
F000FFFFFFFFFFFFFFFFFFFFFFFFFFFFFFFFFFFFFFFFFFFFFFFFFFFFFFFFFFFF
310
FFFFFFFFFFFFFFFFFFFFFFFFFFFFFFFFFFFFFFFFFFFFFFFFFFFFFFFFFFFFFFFF
310
FFFFFFFFFFFFFFFFFFFFFFFFFFFFFFFFFFFFFFFFFFFFFFFFF000FFFFFFFFFFFF
310
FFFFFFFFFFFFFFFFFFFFFFFFFFFFFFFFFFFFFFFFFFFFFFFFFFFFFFFFFFFFFFFF
310
FFFFFFFFFFFFFFFFFFFFFFFFFFFFFFFFFFFFFFFFFFFFFFFFFFFFFFFFFFFFFFFF
310
FFFFFFFFFFFFFFFFFFFFFFFFFFFFFFFFF000FFFFFFFFFFFFFFFFFFFFFFFFFFFF
310
FFFFFFFFFFFFFFFFFFFFFFFFFFFFFFFFFFFFFFFFFFFFFFFFFFFFFFFFFFFFFFFF
310
FFFFFFFFFFFFFFFFFFFFFFFFFFFFFFFFFFFFFFFFFFFFFFFFFFFFFFFFFFFFFFFF
310
FFFFFFFFFFFFFFFFF000FFFFFFFFFFFFFFFFFFFFFFFFFFFFFFFFFFFFFFFFFFFF
310
FFFFFFFFFFFFFFFFFFFFFFFFFFFFFFFFFFFFFFFFFFFFFFFFFFFFFFFFFFFFFFFF
310
FFFFFFFFFFFFFFFFFFFFFFFFFFFFFFFFFFFFFFFFFFFFFFFFFFFFFFFFFFFFFFFF
310
F000FFFFFFFFFFFFFFFFFFFFFFFFFFFFFFFFFFFFFFFFFFFFFFFFFFFFFFFFFFFF
310
FFFFFFFFFFFFFFFFFFFFFFFFFFFFFFFFFFFFFFFFFFFFFFFFFFFFFFFFFFFFFFFF
310
FFFFFFFFFFFFFFFFFFFFFFFFFFFFFFFFFFFFFFFFFFFFFFFFF000FFFFFFFFFFFF
310
FFFFFFFFFFFFFFFFFFFFFFFFFFFFFFFFFFFFFFFFFFFFFFFFFFFFFFFFFFFFFFFF
310
FFFFFFFFFFFFFFFFFFFFFFFFFFFFFFFFFFFFFFFFFFFFFFFFFFFFFFFFFFFFFFFF
310
FFFFFFFFFFFFFFFFFFFFFFFFFFFFFFFFF0000000000000000000000000000000
310
0000000001000000000000000100000000000000010000000000000001000000
310
0000000001000000000000000100000000000000010000000000000001000000
310
0100000001000000010000000100000001000000010000000100000000000000
310
0100000001000000010000000100000001000000010000000100000001000000
310
0000000001000000000000000100000000000000010000000100000001000000
310
0100000001000000010000000100000001000000000000000100000001000000
310
0100000001000000010000000100000001000000010000000000000001000000
310
0100000001000000010000000100000001000000010000000100000000000000
310
0100000001000000010000000100000001000000010000000100000001000000
310
0000000001000000000000000100000000000000010000000000000001000000
310
0000000001000000000000000100000000000000010000000000000001000000
310
0000000001000000000000000100000000000000010000000000000001000000
310
00000000010000000000000001000000000000040000000040A24405000000FF
310
FEFF012A00030000000050724809000000FFFEFF012A00030000000050724809
310
000000FFFEFF012A07211F0300004005C0CD025700000000002A6F3100000000
  1
OLE
  0
ENDSEC
  0
SECTION
  2
OBJECTS
  0
DICTIONARY
  5
C
330
0
100
AcDbDictionary
281
     1
  3
ACAD_GROUP
350
D
  3
ACAD_LAYOUT
350
1A
  3
ACAD_MLEADERSTYLE
350
182
  3
ACAD_MLINESTYLE
350
17
  3
ACAD_PLOTSETTINGS
350
19
  3
ACAD_PLOTSTYLENAME
350
E
  3
ACAD_TABLESTYLE
350
181
  3
ACAD_VISUALSTYLE
350
2A
  3
AcDbVariableDictionary
350
183
  0
DICTIONARY
  5
D
102
{ACAD_REACTORS
330
C
102
}
330
C
100
AcDbDictionary
281
     1
  0
DICTIONARY
  5
1A
102
{ACAD_REACTORS
330
C
102
}
330
C
100
AcDbDictionary
281
     1
  3
Layout1
350
1E
  3
Layout2
350
26
  3
Model
350
22
  0
DICTIONARY
  5
182
102
{ACAD_REACTORS
330
C
102
}
330
C
100
AcDbDictionary
281
     1
  0
DICTIONARY
  5
17
102
{ACAD_REACTORS
330
C
102
}
330
C
100
AcDbDictionary
281
     1
  3
Standard
350
18
  0
DICTIONARY
  5
19
102
{ACAD_REACTORS
330
C
102
}
330
C
100
AcDbDictionary
281
     1
  0
ACDBDICTIONARYWDFLT
  5
E
102
{ACAD_REACTORS
330
C
102
}
330
C
100
AcDbDictionary
281
     1
  3
Normal
350
F
100
AcDbDictionaryWithDefault
340
F
  0
DICTIONARY
  5
181
102
{ACAD_REACTORS
330
C
102
}
330
C
100
AcDbDictionary
281
     1
  0
DICTIONARY
  5
2A
102
{ACAD_REACTORS
330
C
102
}
330
C
100
AcDbDictionary
281
     1
  3
2dWireframe
350
2F
  3
3D Hidden
350
31
  3
3dWireframe
350
30
  3
Basic
350
32
  3
Brighten
350
36
  3
ColorChange
350
3A
  3
Conceptual
350
34
  3
Dim
350
35
  3
Facepattern
350
39
  3
Flat
350
2B
  3
FlatWithEdges
350
2C
  3
Gouraud
350
2D
  3
GouraudWithEdges
350
2E
  3
Linepattern
350
38
  3
Realistic
350
33
  3
Thicken
350
37
  0
DICTIONARY
  5
183
102
{ACAD_REACTORS
330
C
102
}
330
C
100
AcDbDictionary
281
     1
  3
PSOLHEIGHT
350
185
  3
PSOLWIDTH
350
184
  0
LAYOUT
  5
1E
102
{ACAD_REACTORS
330
1A
102
}
330
1A
100
AcDbPlotSettings
  1

  2
none_device
  4

  6

 40
0.0
 41
0.0
 42
0.0
 43
0.0
 44
0.0
 45
0.0
 46
0.0
 47
0.0
 48
0.0
 49
0.0
140
0.0
141
0.0
142
1.0
143
1.0
 70
   688
 72
     0
 73
     0
 74
     5
  7

 75
    16
147
1.0
148
0.0
149
0.0
100
AcDbLayout
  1
Layout1
 70
     1
 71
     1
 10
0.0
 20
0.0
 11
420.0
 21
297.0
 12
0.0
 22
0.0
 32
0.0
 14
1.0000000000E+20
 24
1.0000000000E+20
 34
1.0000000000E+20
 15
-1.0000000000E+20
 25
-1.0000000000E+20
 35
-1.0000000000E+20
146
0.0
 13
0.0
 23
0.0
 33
0.0
 16
1.0
 26
0.0
 36
0.0
 17
0.0
 27
1.0
 37
0.0
 76
     0
330
1B
  0
LAYOUT
  5
26
102
{ACAD_REACTORS
330
1A
102
}
330
1A
100
AcDbPlotSettings
  1

  2
none_device
  4

  6

 40
0.0
 41
0.0
 42
0.0
 43
0.0
 44
0.0
 45
0.0
 46
0.0
 47
0.0
 48
0.0
 49
0.0
140
0.0
141
0.0
142
1.0
143
1.0
 70
   688
 72
     0
 73
     0
 74
     5
  7

 75
    16
147
1.0
148
0.0
149
0.0
100
AcDbLayout
  1
Layout2
 70
     1
 71
     2
 10
0.0
 20
0.0
 11
0.0
 21
0.0
 12
0.0
 22
0.0
 32
0.0
 14
0.0
 24
0.0
 34
0.0
 15
0.0
 25
0.0
 35
0.0
146
0.0
 13
0.0
 23
0.0
 33
0.0
 16
1.0
 26
0.0
 36
0.0
 17
0.0
 27
1.0
 37
0.0
 76
     0
330
23
  0
LAYOUT
  5
22
102
{ACAD_REACTORS
330
1A
102
}
330
1A
100
AcDbPlotSettings
  1

  2
none_device
  4

  6

 40
0.0
 41
0.0
 42
0.0
 43
0.0
 44
0.0
 45
0.0
 46
0.0
 47
0.0
 48
0.0
 49
0.0
140
0.0
141
0.0
142
1.0
143
1.0
 70
  1712
 72
     0
 73
     0
 74
     0
  7

 75
     0
147
1.0
148
0.0
149
0.0
100
AcDbLayout
  1
Model
 70
     1
 71
     0
 10
0.0
 20
0.0
 11
297.0
 21
210.0
 12
0.0
 22
0.0
 32
0.0
 14
0.0
 24
0.0
 34
0.0
 15
297.0
 25
210.0
 35
0.0
146
0.0
 13
0.0
 23
0.0
 33
0.0
 16
1.0
 26
0.0
 36
0.0
 17
0.0
 27
1.0
 37
0.0
 76
     0
330
1F
331
29
  0
MLINESTYLE
  5
18
102
{ACAD_REACTORS
330
17
102
}
330
17
100
AcDbMlineStyle
  2
Standard
 70
     0
  3

 62
   256
 51
90.0
 52
90.0
 71
     2
 49
0.5
 62
   256
  6
BYLAYER
 49
-0.5
 62
   256
  6
BYLAYER
  0
ACDBPLACEHOLDER
  5
F
102
{ACAD_REACTORS
330
E
102
}
330
E
  0
VISUALSTYLE
  5
2F
102
{ACAD_REACTORS
330
2A
102
}
330
2A
100
AcDbVisualStyle
  2
2dWireframe
 70
     4
 71
     0
 72
     2
 73
     0
 90
        0
 40
-0.6
 41
-30.0
 62
     5
 63
     7
 74
     1
 91
        4
 64
     7
 65
   257
 75
     1
175
     1
 42
1.0
 92
        0
 66
   257
 43
1.0
 76
     1
 77
     6
 78
     2
 67
     7
 79
     5
170
     0
171
     0
290
     0
174
     0
 93
        1
 44
0.0
173
     0
291
     0
 45
0.0
1001
ACAD
1000
AcDbSavedByObjectVersion
1070
     0
  0
VISUALSTYLE
  5
31
102
{ACAD_REACTORS
330
2A
102
}
330
2A
100
AcDbVisualStyle
  2
3D Hidden
 70
     6
 71
     1
 72
     2
 73
     2
 90
        0
 40
-0.6
 41
-30.0
 62
     5
 63
     7
 74
     2
 91
        2
 64
     7
 65
   257
 75
     2
175
     1
 42
40.0
 92
        0
 66
   257
 43
1.0
 76
     1
 77
     6
 78
     2
 67
     7
 79
     3
170
     0
171
     0
290
     0
174
     0
 93
        1
 44
0.0
173
     0
291
     0
 45
0.0
1001
ACAD
1000
AcDbSavedByObjectVersion
1070
     0
  0
VISUALSTYLE
  5
30
102
{ACAD_REACTORS
330
2A
102
}
330
2A
100
AcDbVisualStyle
  2
3dWireframe
 70
     5
 71
     0
 72
     2
 73
     0
 90
        0
 40
-0.6
 41
-30.0
 62
     5
 63
     7
 74
     1
 91
        4
 64
     7
 65
   257
 75
     1
175
     1
 42
1.0
 92
        0
 66
   257
 43
1.0
 76
     1
 77
     6
 78
     2
 67
     7
 79
     5
170
     0
171
     0
290
     0
174
     0
 93
        1
 44
0.0
173
     0
291
     0
 45
0.0
1001
ACAD
1000
AcDbSavedByObjectVersion
1070
     0
  0
VISUALSTYLE
  5
32
102
{ACAD_REACTORS
330
2A
102
}
330
2A
100
AcDbVisualStyle
  2
Basic
 70
     7
 71
     1
 72
     0
 73
     1
 90
        0
 40
-0.6
 41
-30.0
 62
     5
 63
     7
 74
     0
 91
        4
 64
     7
 65
   257
 75
     1
175
     1
 42
1.0
 92
        8
 66
     7
 43
1.0
 76
     1
 77
     6
 78
     2
 67
     7
 79
     5
170
     0
171
     0
290
     0
174
     0
 93
        1
 44
0.0
173
     0
291
     1
 45
0.0
1001
ACAD
1000
AcDbSavedByObjectVersion
1070
     0
  0
VISUALSTYLE
  5
36
102
{ACAD_REACTORS
330
2A
102
}
330
2A
100
AcDbVisualStyle
  2
Brighten
 70
    12
 71
     2
 72
     2
 73
     0
 90
        0
 40
-0.6
 41
-30.0
 62
     5
 63
     7
 74
     1
 91
        4
 64
     7
 65
   257
 75
     1
175
     1
 42
1.0
 92
        8
 66
     7
 43
1.0
 76
     1
 77
     6
 78
     2
 67
     7
 79
     5
170
     0
171
     0
290
     0
174
     0
 93
        1
 44
50.0
173
     0
291
     1
 45
0.0
1001
ACAD
1000
AcDbSavedByObjectVersion
1070
     0
  0
VISUALSTYLE
  5
3A
102
{ACAD_REACTORS
330
2A
102
}
330
2A
100
AcDbVisualStyle
  2
ColorChange
 70
    16
 71
     2
 72
     2
 73
     3
 90
        0
 40
-0.6
 41
-30.0
 62
     5
 63
     8
 74
     1
 91
        4
 64
     7
 65
   257
 75
     1
175
     1
 42
1.0
 92
        8
 66
     8
 43
1.0
 76
     1
 77
     6
 78
     2
 67
     7
 79
     5
170
     0
171
     0
290
     0
174
     0
 93
        1
 44
0.0
173
     0
291
     1
 45
0.0
1001
ACAD
1000
AcDbSavedByObjectVersion
1070
     0
  0
VISUALSTYLE
  5
34
102
{ACAD_REACTORS
330
2A
102
}
330
2A
100
AcDbVisualStyle
  2
Conceptual
 70
     9
 71
     3
 72
     2
 73
     0
 90
        0
 40
-0.6
 41
-30.0
 62
     5
 63
     7
 74
     2
 91
        2
 64
     7
 65
   257
 75
     1
175
     1
 42
40.0
 92
        8
 66
     7
 43
1.0
 76
     1
 77
     6
 78
     2
 67
     7
 79
     3
170
     0
171
     0
290
     0
174
     0
 93
        1
 44
0.0
173
     0
291
     0
 45
0.0
1001
ACAD
1000
AcDbSavedByObjectVersion
1070
     0
  0
VISUALSTYLE
  5
35
102
{ACAD_REACTORS
330
2A
102
}
330
2A
100
AcDbVisualStyle
  2
Dim
 70
    11
 71
     2
 72
     2
 73
     0
 90
        0
 40
-0.6
 41
-30.0
 62
     5
 63
     7
 74
     1
 91
        4
 64
     7
 65
   257
 75
     1
175
     1
 42
1.0
 92
        8
 66
     7
 43
1.0
 76
     1
 77
     6
 78
     2
 67
     7
 79
     5
170
     0
171
     0
290
     0
174
     0
 93
        1
 44
-50.0
173
     0
291
     1
 45
0.0
1001
ACAD
1000
AcDbSavedByObjectVersion
1070
     0
  0
VISUALSTYLE
  5
39
102
{ACAD_REACTORS
330
2A
102
}
330
2A
100
AcDbVisualStyle
  2
Facepattern
 70
    15
 71
     2
 72
     2
 73
     0
 90
        0
 40
-0.6
 41
-30.0
 62
     5
 63
     7
 74
     1
 91
        4
 64
     7
 65
   257
 75
     1
175
     1
 42
1.0
 92
        8
 66
     7
 43
1.0
 76
     1
 77
     6
 78
     2
 67
     7
 79
     5
170
     0
171
     0
290
     0
174
     0
 93
        1
 44
0.0
173
     0
291
     1
 45
0.0
1001
ACAD
1000
AcDbSavedByObjectVersion
1070
     0
  0
VISUALSTYLE
  5
2B
102
{ACAD_REACTORS
330
2A
102
}
330
2A
100
AcDbVisualStyle
  2
Flat
 70
     0
 71
     2
 72
     1
 73
     1
 90
        2
 40
-0.6
 41
30.0
 62
     5
 63
     7
 74
     0
 91
        4
 64
     7
 65
   257
 75
     1
175
     1
 42
1.0
 92
        8
 66
     7
 43
1.0
 76
     1
 77
     6
 78
     2
 67
     7
 79
     5
170
     0
171
     0
290
     0
174
     0
 93
       13
 44
0.0
173
     0
291
     1
 45
0.0
1001
ACAD
1000
AcDbSavedByObjectVersion
1070
     0
  0
VISUALSTYLE
  5
2C
102
{ACAD_REACTORS
330
2A
102
}
330
2A
100
AcDbVisualStyle
  2
FlatWithEdges
 70
     1
 71
     2
 72
     1
 73
     1
 90
        2
 40
-0.6
 41
30.0
 62
     5
 63
     7
 74
     1
 91
        4
 64
     7
 65
   257
 75
     1
175
     1
 42
1.0
 92
        0
 66
   257
 43
1.0
 76
     1
 77
     6
 78
     2
 67
     7
 79
     5
170
     0
171
     0
290
     0
174
     0
 93
       13
 44
0.0
173
     0
291
     1
 45
0.0
1001
ACAD
1000
AcDbSavedByObjectVersion
1070
     0
  0
VISUALSTYLE
  5
2D
102
{ACAD_REACTORS
330
2A
102
}
330
2A
100
AcDbVisualStyle
  2
Gouraud
 70
     2
 71
     2
 72
     2
 73
     1
 90
        2
 40
-0.6
 41
30.0
 62
     5
 63
     7
 74
     0
 91
        4
 64
     7
 65
   257
 75
     1
175
     1
 42
1.0
 92
        0
 66
     7
 43
1.0
 76
     1
 77
     6
 78
     2
 67
     7
 79
     5
170
     0
171
     0
290
     0
174
     0
 93
       13
 44
0.0
173
     0
291
     1
 45
0.0
1001
ACAD
1000
AcDbSavedByObjectVersion
1070
     0
  0
VISUALSTYLE
  5
2E
102
{ACAD_REACTORS
330
2A
102
}
330
2A
100
AcDbVisualStyle
  2
GouraudWithEdges
 70
     3
 71
     2
 72
     2
 73
     1
 90
        2
 40
-0.6
 41
30.0
 62
     5
 63
     7
 74
     1
 91
        4
 64
     7
 65
   257
 75
     1
175
     1
 42
1.0
 92
        0
 66
   257
 43
1.0
 76
     1
 77
     6
 78
     2
 67
     7
 79
     5
170
     0
171
     0
290
     0
174
     0
 93
       13
 44
0.0
173
     0
291
     1
 45
0.0
1001
ACAD
1000
AcDbSavedByObjectVersion
1070
     0
  0
VISUALSTYLE
  5
38
102
{ACAD_REACTORS
330
2A
102
}
330
2A
100
AcDbVisualStyle
  2
Linepattern
 70
    14
 71
     2
 72
     2
 73
     0
 90
        0
 40
-0.6
 41
-30.0
 62
     5
 63
     7
 74
     1
 91
        4
 64
     7
 65
   257
 75
     7
175
     7
 42
1.0
 92
        8
 66
     7
 43
1.0
 76
     1
 77
     6
 78
     2
 67
     7
 79
     5
170
     0
171
     0
290
     0
174
     0
 93
        1
 44
0.0
173
     0
291
     1
 45
0.0
1001
ACAD
1000
AcDbSavedByObjectVersion
1070
     0
  0
VISUALSTYLE
  5
33
102
{ACAD_REACTORS
330
2A
102
}
330
2A
100
AcDbVisualStyle
  2
Realistic
 70
     8
 71
     2
 72
     2
 73
     0
 90
        0
 40
-0.6
 41
-30.0
 62
     5
 63
     7
 74
     1
 91
        0
 64
     7
 65
   257
 75
     1
175
     1
 42
1.0
 92
        8
 66
     8
 43
1.0
 76
     1
 77
     6
 78
     2
 67
     7
 79
     5
170
     0
171
     0
290
     0
174
     0
 93
       13
 44
0.0
173
     0
291
     0
 45
0.0
1001
ACAD
1000
AcDbSavedByObjectVersion
1070
     0
  0
VISUALSTYLE
  5
37
102
{ACAD_REACTORS
330
2A
102
}
330
2A
100
AcDbVisualStyle
  2
Thicken
 70
    13
 71
     2
 72
     2
 73
     0
 90
        0
 40
-0.6
 41
-30.0
 62
     5
 63
     7
 74
     1
 91
        4
 64
     7
 65
   257
 75
     1
175
     1
 42
1.0
 92
       12
 66
     7
 43
1.0
 76
     1
 77
     6
 78
     2
 67
     7
 79
     5
170
     0
171
     0
290
     0
174
     0
 93
        1
 44
0.0
173
     0
291
     1
 45
0.0
1001
ACAD
1000
AcDbSavedByObjectVersion
1070
     0
  0
DICTIONARYVAR
  5
185
102
{ACAD_REACTORS
330
183
102
}
330
183
100
DictionaryVariables
280
     0
  1
80.000000
  0
DICTIONARYVAR
  5
184
102
{ACAD_REACTORS
330
183
102
}
330
183
100
DictionaryVariables
280
     0
  1
5.000000
  0
ENDSEC
  0
EOF
