  0
SECTION
  2
HEADER
  9
$ACADVER
  1
AC1015
  9
$ACADMAINTVER
 70
     6
  9
$DWGCODEPAGE
  3
ANSI_1252
  9
$INSBASE
 10
0.0
 20
0.0
 30
0.0
  9
$EXTMIN
 10
0.0
 20
0.0
 30
0.0
  9
$EXTMAX
 10
297.0
 20
210.0
 30
0.0
  9
$LIMMIN
 10
0.0
 20
0.0
  9
$LIMMAX
 10
297.0
 20
210.0
  9
$ORTHOMODE
 70
     0
  9
$REGENMODE
 70
     1
  9
$FILLMODE
 70
     1
  9
$QTEXTMODE
 70
     0
  9
$MIRRTEXT
 70
     1
  9
$LTSCALE
 40
1.0
  9
$ATTMODE
 70
     1
  9
$TEXTSIZE
 40
2.0
  9
$TRACEWID
 40
1.0
  9
$TEXTSTYLE
  7
Standard
  9
$CLAYER
  8
0
  9
$CELTYPE
  6
ByLayer
  9
$CECOLOR
 62
   256
  9
$CELTSCALE
 40
1.0
  9
$DISPSILH
 70
     0
  9
$DIMSCALE
 40
1.0
  9
$DIMASZ
 40
3.0
  9
$DIMEXO
 40
0.0
  9
$DIMDLI
 40
3.75
  9
$DIMRND
 40
0.0
  9
$DIMDLE
 40
0.0
  9
$DIMEXE
 40
1.0
  9
$DIMTP
 40
0.0
  9
$DIMTM
 40
0.0
  9
$DIMTXT
 40
2.0
  9
$DIMCEN
 40
2.5
  9
$DIMTSZ
 40
0.0
  9
$DIMTOL
 70
     0
  9
$DIMLIM
 70
     0
  9
$DIMTIH
 70
     1
  9
$DIMTOH
 70
     1
  9
$DIMSE1
 70
     0
  9
$DIMSE2
 70
     0
  9
$DIMTAD
 70
     1
  9
$DIMZIN
 70
     0
  9
$DIMBLK
  1

  9
$DIMASO
 70
     1
  9
$DIMSHO
 70
     1
  9
$DIMPOST
  1

  9
$DIMAPOST
  1

  9
$DIMALT
 70
     0
  9
$DIMALTD
 70
     3
  9
$DIMALTF
 40
0.0393700787
  9
$DIMLFAC
 40
1.0
  9
$DIMTOFL
 70
     1
  9
$DIMTVP
 40
0.0
  9
$DIMTIX
 70
     0
  9
$DIMSOXD
 70
     0
  9
$DIMSAH
 70
     0
  9
$DIMBLK1
  1

  9
$DIMBLK2
  1

  9
$DIMSTYLE
  2
ISO-25
  9
$DIMCLRD
 70
     0
  9
$DIMCLRE
 70
     0
  9
$DIMCLRT
 70
     0
  9
$DIMTFAC
 40
1.0
  9
$DIMGAP
 40
1.524
  9
$DIMJUST
 70
     0
  9
$DIMSD1
 70
     0
  9
$DIMSD2
 70
     0
  9
$DIMTOLJ
 70
     0
  9
$DIMTZIN
 70
     0
  9
$DIMALTZ
 70
     0
  9
$DIMALTTZ
 70
     0
  9
$DIMUPT
 70
     0
  9
$DIMDEC
 70
     2
  9
$DIMTDEC
 70
     3
  9
$DIMALTU
 70
     2
  9
$DIMALTTD
 70
     3
  9
$DIMTXSTY
  7
Standard
  9
$DIMAUNIT
 70
     0
  9
$DIMADEC
 70
     2
  9
$DIMALTRND
 40
0.0
  9
$DIMAZIN
 70
     0
  9
$DIMDSEP
 70
    44
  9
$DIMATFIT
 70
     3
  9
$DIMFRAC
 70
     0
  9
$DIMLDRBLK
  1

  9
$DIMLUNIT
 70
     2
  9
$DIMLWD
 70
    -2
  9
$DIMLWE
 70
    -2
  9
$DIMTMOVE
 70
     0
  9
$LUNITS
 70
     2
  9
$LUPREC
 70
     2
  9
$SKETCHINC
 40
1.0
  9
$FILLETRAD
 40
10.0
  9
$AUNITS
 70
     0
  9
$AUPREC
 70
     2
  9
$MENU
  1
.
  9
$ELEVATION
 40
0.0
  9
$PELEVATION
 40
0.0
  9
$THICKNESS
 40
0.0
  9
$LIMCHECK
 70
     0
  9
$CHAMFERA
 40
10.0
  9
$CHAMFERB
 40
10.0
  9
$CHAMFERC
 40
20.0
  9
$CHAMFERD
 40
0.0
  9
$SKPOLY
 70
     0
  9
$TDCREATE
 40
2455673.395205116
  9
$TDUCREATE
 40
2455673.311871782
  9
$TDUPDATE
 40
2455673.395205128
  9
$TDUUPDATE
 40
2455673.311871794
  9
$TDINDWG
 40
0.0000000116
  9
$TDUSRTIMER
 40
0.0000000116
  9
$USRTIMER
 70
     1
  9
$ANGBASE
 50
0.0
  9
$ANGDIR
 70
     0
  9
$PDMODE
 70
     0
  9
$PDSIZE
 40
-1.0
  9
$PLINEWID
 40
0.0
  9
$SPLFRAME
 70
     0
  9
$SPLINETYPE
 70
     6
  9
$SPLINESEGS
 70
     8
  9
$HANDSEED
  5
219
  9
$SURFTAB1
 70
     6
  9
$SURFTAB2
 70
     6
  9
$SURFTYPE
 70
     6
  9
$SURFU
 70
     6
  9
$SURFV
 70
     6
  9
$UCSBASE
  2

  9
$UCSNAME
  2

  9
$UCSORG
 10
0.0
 20
0.0
 30
0.0
  9
$UCSXDIR
 10
1.0
 20
0.0
 30
0.0
  9
$UCSYDIR
 10
0.0
 20
1.0
 30
0.0
  9
$UCSORTHOREF
  2

  9
$UCSORTHOVIEW
 70
     0
  9
$UCSORGTOP
 10
0.0
 20
0.0
 30
0.0
  9
$UCSORGBOTTOM
 10
0.0
 20
0.0
 30
0.0
  9
$UCSORGLEFT
 10
0.0
 20
0.0
 30
0.0
  9
$UCSORGRIGHT
 10
0.0
 20
0.0
 30
0.0
  9
$UCSORGFRONT
 10
0.0
 20
0.0
 30
0.0
  9
$UCSORGBACK
 10
0.0
 20
0.0
 30
0.0
  9
$PUCSBASE
  2

  9
$PUCSNAME
  2

  9
$PUCSORG
 10
0.0
 20
0.0
 30
0.0
  9
$PUCSXDIR
 10
1.0
 20
0.0
 30
0.0
  9
$PUCSYDIR
 10
0.0
 20
1.0
 30
0.0
  9
$PUCSORTHOREF
  2

  9
$PUCSORTHOVIEW
 70
     0
  9
$PUCSORGTOP
 10
0.0
 20
0.0
 30
0.0
  9
$PUCSORGBOTTOM
 10
0.0
 20
0.0
 30
0.0
  9
$PUCSORGLEFT
 10
0.0
 20
0.0
 30
0.0
  9
$PUCSORGRIGHT
 10
0.0
 20
0.0
 30
0.0
  9
$PUCSORGFRONT
 10
0.0
 20
0.0
 30
0.0
  9
$PUCSORGBACK
 10
0.0
 20
0.0
 30
0.0
  9
$USERI1
 70
     0
  9
$USERI2
 70
     0
  9
$USERI3
 70
     0
  9
$USERI4
 70
     0
  9
$USERI5
 70
     0
  9
$USERR1
 40
0.0
  9
$USERR2
 40
0.0
  9
$USERR3
 40
0.0
  9
$USERR4
 40
0.0
  9
$USERR5
 40
0.0
  9
$WORLDVIEW
 70
     1
  9
$SHADEDGE
 70
     3
  9
$SHADEDIF
 70
    70
  9
$TILEMODE
 70
     1
  9
$MAXACTVP
 70
    64
  9
$PINSBASE
 10
0.0
 20
0.0
 30
0.0
  9
$PLIMCHECK
 70
     0
  9
$PEXTMIN
 10
1.0000000000E+20
 20
1.0000000000E+20
 30
1.0000000000E+20
  9
$PEXTMAX
 10
-1.0000000000E+20
 20
-1.0000000000E+20
 30
-1.0000000000E+20
  9
$PLIMMIN
 10
0.0
 20
0.0
  9
$PLIMMAX
 10
420.0
 20
297.0
  9
$UNITMODE
 70
     0
  9
$VISRETAIN
 70
     1
  9
$PLINEGEN
 70
     0
  9
$PSLTSCALE
 70
     1
  9
$TREEDEPTH
 70
  3020
  9
$CMLSTYLE
  2
Standard
  9
$CMLJUST
 70
     0
  9
$CMLSCALE
 40
20.0
  9
$PROXYGRAPHICS
 70
     1
  9
$MEASUREMENT
 70
     1
  9
$CELWEIGHT
370
    -1
  9
$ENDCAPS
280
     0
  9
$JOINSTYLE
280
     0
  9
$LWDISPLAY
290
     1
  9
$INSUNITS
 70
     4
  9
$HYPERLINKBASE
  1

  9
$STYLESHEET
  1

  9
$XEDIT
290
     1
  9
$CEPSNTYPE
380
     0
  9
$PSTYLEMODE
290
     1
  9
$FINGERPRINTGUID
  2
{6BFF22B3-6263-410B-B56C-F1B1CD22B454}
  9
$VERSIONGUID
  2
{FAEB1C32-E019-11D5-929B-00C0DF256EC4}
  9
$EXTNAMES
290
     1
  9
$PSVPSCALE
 40
0.0
  9
$OLESTARTUP
290
     0
  0
ENDSEC
  0
SECTION
  2
CLASSES
  0
CLASS
  1
ACDBDICTIONARYWDFLT
  2
AcDbDictionaryWithDefault
  3
ObjectDBX Classes
 90
        0
280
     0
281
     0
  0
CLASS
  1
VISUALSTYLE
  2
AcDbVisualStyle
  3
ObjectDBX Classes
 90
     4095
280
     0
281
     0
  0
CLASS
  1
DICTIONARYVAR
  2
AcDbDictionaryVar
  3
ObjectDBX Classes
 90
        0
280
     0
281
     0
  0
CLASS
  1
ACDBPLACEHOLDER
  2
AcDbPlaceHolder
  3
ObjectDBX Classes
 90
        0
280
     0
281
     0
  0
CLASS
  1
LAYOUT
  2
AcDbLayout
  3
ObjectDBX Classes
 90
        0
280
     0
281
     0
  0
ENDSEC
  0
SECTION
  2
TABLES
  0
TABLE
  2
VPORT
  5
8
330
0
100
AcDbSymbolTable
 70
     1
  0
VPORT
  5
29
330
8
100
AcDbSymbolTableRecord
100
AcDbViewportTableRecord
  2
*Active
 70
     0
 10
0.0
 20
0.0
 11
1.0
 21
1.0
 12
148.5
 22
105.0
 13
0.0
 23
0.0
 14
10.0
 24
10.0
 15
10.0
 25
10.0
 16
0.0
 26
0.0
 36
1.0
 17
0.0
 27
0.0
 37
0.0
 40
210.0
 41
1.4142857143
 42
50.0
 43
0.0
 44
0.0
 50
0.0
 51
0.0
 71
     0
 72
  2000
 73
     1
 74
     3
 75
     0
 76
     0
 77
     0
 78
     0
281
     0
 65
     1
110
0.0
120
0.0
130
0.0
111
1.0
121
0.0
131
0.0
112
0.0
122
1.0
132
0.0
 79
     0
146
0.0
  0
ENDTAB
  0
TABLE
  2
LTYPE
  5
5
330
0
100
AcDbSymbolTable
 70
     6
  0
LTYPE
  5
14
330
5
100
AcDbSymbolTableRecord
100
AcDbLinetypeTableRecord
  2
ByBlock
 70
     0
  3

 72
    65
 73
     0
 40
0.0
  0
LTYPE
  5
15
330
5
100
AcDbSymbolTableRecord
100
AcDbLinetypeTableRecord
  2
ByLayer
 70
     0
  3

 72
    65
 73
     0
 40
0.0
  0
LTYPE
  5
16
330
5
100
AcDbSymbolTableRecord
100
AcDbLinetypeTableRecord
  2
Continuous
 70
     0
  3
Solid line
 72
    65
 73
     0
 40
0.0
  0
LTYPE
  5
3B
330
5
100
AcDbSymbolTableRecord
100
AcDbLinetypeTableRecord
  2
HIDDEN
 70
     0
  3
Hidden __ __ __ __ __ __ __ __ __ __ __ __ __ __
 72
    65
 73
     2
 40
1.905
 49
1.27
 74
     0
 49
-0.635
 74
     0
  0
LTYPE
  5
3C
330
5
100
AcDbSymbolTableRecord
100
AcDbLinetypeTableRecord
  2
PHANTOM
 70
     0
  3
Phantom ______  __  __  ______  __  __  ______
 72
    65
 73
     6
 40
12.7
 49
6.35
 74
     0
 49
-1.27
 74
     0
 49
1.27
 74
     0
 49
-1.27
 74
     0
 49
1.27
 74
     0
 49
-1.27
 74
     0
  0
LTYPE
  5
3D
330
5
100
AcDbSymbolTableRecord
100
AcDbLinetypeTableRecord
  2
CENTER
 70
     0
  3
Center ____ _ ____ _ ____ _ ____ _ ____ _ ____
 72
    65
 73
     4
 40
10.16
 49
6.35
 74
     0
 49
-1.27
 74
     0
 49
1.27
 74
     0
 49
-1.27
 74
     0
  0
LTYPE
  5
3E
330
5
100
AcDbSymbolTableRecord
100
AcDbLinetypeTableRecord
  2
CENTERX2
 70
     0
  3
Center (2x) ________  __  ________  __  _____
 72
    65
 73
     4
 40
20.32
 49
12.7
 74
     0
 49
-2.54
 74
     0
 49
2.54
 74
     0
 49
-2.54
 74
     0
  0
LTYPE
  5
3F
330
5
100
AcDbSymbolTableRecord
100
AcDbLinetypeTableRecord
  2
DOT2
 70
     0
  3
Dot (.5x) ........................................
 72
    65
 73
     2
 40
0.635
 49
0.0
 74
     0
 49
-0.635
 74
     0
  0
ENDTAB
  0
TABLE
  2
LAYER
  5
2
330
0
100
AcDbSymbolTable
 70
     5
  0
LAYER
  5
10
330
2
100
AcDbSymbolTableRecord
100
AcDbLayerTableRecord
  2
0
 70
     0
 62
     7
  6
Continuous
370
    -3
390
F
  0
LAYER
  5
40
330
2
100
AcDbSymbolTableRecord
100
AcDbLayerTableRecord
  2
FORMAT
 70
     0
 62
     7
  6
Continuous
370
    -3
390
F
  0
LAYER
  5
41
330
2
100
AcDbSymbolTableRecord
100
AcDbLayerTableRecord
  2
VERMASSUNG
 70
     0
 62
     7
  6
Continuous
370
    -3
390
F
  0
LAYER
  5
42
330
2
100
AcDbSymbolTableRecord
100
AcDbLayerTableRecord
  2
KOPF_DÜNN
 70
     0
 62
     7
  6
Continuous
370
    -3
390
F
  0
LAYER
  5
43
330
2
100
AcDbSymbolTableRecord
100
AcDbLayerTableRecord
  2
KOPF_DICK
 70
     0
 62
     7
  6
Continuous
370
    15
390
F
  0
ENDTAB
  0
TABLE
  2
STYLE
  5
3
330
0
100
AcDbSymbolTable
 70
     3
  0
STYLE
  5
11
330
3
100
AcDbSymbolTableRecord
100
AcDbTextStyleTableRecord
  2
Standard
 70
     0
 40
0.0
 41
1.0
 50
0.0
 71
     0
 42
2.5
  3
txt
  4

  0
STYLE
  5
44
330
3
100
AcDbSymbolTableRecord
100
AcDbTextStyleTableRecord
  2
SLDTEXTSTYLE0
 70
     0
 40
0.0
 41
0.7
 50
0.0
 71
     0
 42
0.2
  3
TXT
  4

  0
STYLE
  5
48
330
3
100
AcDbSymbolTableRecord
100
AcDbTextStyleTableRecord
  2
SLDTEXTSTYLE1
 70
     0
 40
0.0
 41
0.6473684211
 50
0.0
 71
     0
 42
0.2
  3
TXT
  4

  0
ENDTAB
  0
TABLE
  2
VIEW
  5
6
330
0
100
AcDbSymbolTable
 70
     0
  0
ENDTAB
  0
TABLE
  2
UCS
  5
7
330
0
100
AcDbSymbolTable
 70
     0
  0
ENDTAB
  0
TABLE
  2
APPID
  5
9
330
0
100
AcDbSymbolTable
 70
     1
  0
APPID
  5
12
330
9
100
AcDbSymbolTableRecord
100
AcDbRegAppTableRecord
  2
ACAD
 70
     0
  0
ENDTAB
  0
TABLE
  2
DIMSTYLE
  5
A
330
0
100
AcDbSymbolTable
 70
     2
100
AcDbDimStyleTable
  0
DIMSTYLE
105
27
330
A
100
AcDbSymbolTableRecord
100
AcDbDimStyleTableRecord
  2
ISO-25
 70
     0
 41
2.5
 42
0.625
 43
3.75
 44
1.25
 73
     0
 74
     0
 77
     1
 78
     8
140
2.5
141
2.5
143
0.0393700787
147
0.625
171
     3
172
     1
271
     2
272
     2
274
     3
278
    44
283
     0
284
     8
340
11
  0
DIMSTYLE
105
1D2
102
{ACAD_REACTORS
330
1D1
330
1DE
330
1E8
330
1F2
330
1FC
330
207
102
}
330
A
100
AcDbSymbolTableRecord
100
AcDbDimStyleTableRecord
  2
SLDDIMSTYLE0
 70
     0
 41
3.0
 44
0.0
 45
0.000000001
 73
     0
 74
     0
 77
     1
 78
    12
140
2.0
147
0.5
173
     1
271
     2
272
     3
284
    12
340
44
  0
ENDTAB
  0
TABLE
  2
BLOCK_RECORD
  5
1
330
0
100
AcDbSymbolTable
 70
     7
  0
BLOCK_RECORD
  5
1F
330
1
100
AcDbSymbolTableRecord
100
AcDbBlockTableRecord
  2
*Model_Space
340
22
  0
BLOCK_RECORD
  5
1B
330
1
100
AcDbSymbolTableRecord
100
AcDbBlockTableRecord
  2
*Paper_Space
340
1E
  0
BLOCK_RECORD
  5
23
330
1
100
AcDbSymbolTableRecord
100
AcDbBlockTableRecord
  2
*Paper_Space0
340
26
  0
BLOCK_RECORD
  5
1D3
330
1
100
AcDbSymbolTableRecord
100
AcDbBlockTableRecord
  2
*D1
340
0
  0
BLOCK_RECORD
  5
1DF
330
1
100
AcDbSymbolTableRecord
100
AcDbBlockTableRecord
  2
*D2
340
0
  0
BLOCK_RECORD
  5
1E9
330
1
100
AcDbSymbolTableRecord
100
AcDbBlockTableRecord
  2
*D3
340
0
  0
BLOCK_RECORD
  5
1F3
330
1
100
AcDbSymbolTableRecord
100
AcDbBlockTableRecord
  2
*D4
340
0
  0
BLOCK_RECORD
  5
1FD
330
1
100
AcDbSymbolTableRecord
100
AcDbBlockTableRecord
  2
*D5
340
0
  0
BLOCK_RECORD
  5
208
330
1
100
AcDbSymbolTableRecord
100
AcDbBlockTableRecord
  2
*D6
340
0
  0
ENDTAB
  0
ENDSEC
  0
SECTION
  2
BLOCKS
  0
BLOCK
  5
20
330
1F
100
AcDbEntity
  8
0
100
AcDbBlockBegin
  2
*Model_Space
 70
     0
 10
0.0
 20
0.0
 30
0.0
  3
*Model_Space
  1

  0
ENDBLK
  5
21
330
1F
100
AcDbEntity
  8
0
100
AcDbBlockEnd
  0
BLOCK
  5
1C
330
1B
100
AcDbEntity
 67
     1
  8
0
100
AcDbBlockBegin
  2
*Paper_Space
 70
     0
 10
0.0
 20
0.0
 30
0.0
  3
*Paper_Space
  1

  0
ENDBLK
  5
1D
330
1B
100
AcDbEntity
 67
     1
  8
0
100
AcDbBlockEnd
  0
BLOCK
  5
24
330
23
100
AcDbEntity
  8
0
100
AcDbBlockBegin
  2
*Paper_Space0
 70
     0
 10
0.0
 20
0.0
 30
0.0
  3
*Paper_Space0
  1

  0
ENDBLK
  5
25
330
23
100
AcDbEntity
  8
0
100
AcDbBlockEnd
  0
BLOCK
  5
1D4
330
1D3
100
AcDbEntity
  8
0
100
AcDbBlockBegin
  2
*D1
 70
     1
 10
0.0
 20
0.0
 30
0.0
  3
*D1
  1

  0
SOLID
  5
1D6
330
1D3
100
AcDbEntity
  8
VERMASSUNG
100
AcDbTrace
 10
56.6005417118
 20
140.54933558
 30
0.0
 11
56.1505417118
 21
137.54933558
 31
0.0
 12
57.0505417118
 22
137.54933558
 32
0.0
 13
57.0505417118
 23
137.54933558
 33
0.0
  0
SOLID
  5
1D7
330
1D3
100
AcDbEntity
  8
VERMASSUNG
100
AcDbTrace
 10
56.6005417118
 20
77.54933558
 30
0.0
 11
57.0505417118
 21
80.54933558
 31
0.0
 12
56.1505417118
 22
80.54933558
 32
0.0
 13
56.1505417118
 23
80.54933558
 33
0.0
  0
LINE
  5
1D8
330
1D3
100
AcDbEntity
  8
VERMASSUNG
100
AcDbLine
 10
92.5055115832
 20
140.54933558
 30
0.0
 11
55.6005417118
 21
140.54933558
 31
0.0
  0
LINE
  5
1D9
330
1D3
100
AcDbEntity
  8
VERMASSUNG
100
AcDbLine
 10
92.5055115832
 20
77.54933558
 30
0.0
 11
55.6005417118
 21
77.54933558
 31
0.0
  0
LINE
  5
1DA
330
1D3
100
AcDbEntity
  8
VERMASSUNG
100
AcDbLine
 10
56.6005417118
 20
140.54933558
 30
0.0
 11
56.6005417118
 21
77.54933558
 31
0.0
  0
MTEXT
  5
1DB
330
1D3
100
AcDbEntity
  8
VERMASSUNG
100
AcDbMText
 10
53.8224062228
 20
101.3457938682
 30
0.0
 40
2.0
 41
0.0
 71
     1
 72
     1
  1
HSK A 
  7
SLDTEXTSTYLE0
 11
-7.044195017643634E-15
 21
1.0
 31
0.0
 73
     1
 44
1.0
  0
MTEXT
  5
1DC
330
1D3
100
AcDbEntity
  8
VERMASSUNG
100
AcDbMText
 10
54.0224062323
 20
110.345794412
 30
0.0
 40
2.0
 41
0.0
 71
     1
 72
     1
  1
%%c
  7
SLDTEXTSTYLE0
 11
-7.044195017643634E-15
 21
1.0
 31
0.0
 73
     1
 44
1.0
  0
MTEXT
  5
1DD
330
1D3
100
AcDbEntity
  8
VERMASSUNG
100
AcDbMText
 10
54.0224063487
 20
113.9541210621
 30
0.0
 40
2.0
 41
0.0
 71
     1
 72
     1
  1
63
  7
SLDTEXTSTYLE0
 11
-7.044195017643634E-15
 21
1.0
 31
0.0
 73
     1
 44
1.0
  0
ENDBLK
  5
1D5
330
1D3
100
AcDbEntity
  8
0
100
AcDbBlockEnd
  0
BLOCK
  5
1E0
330
1DF
100
AcDbEntity
  8
0
100
AcDbBlockBegin
  2
*D2
 70
     1
 10
0.0
 20
0.0
 30
0.0
  3
*D2
  1

  0
SOLID
  5
1E2
330
1DF
100
AcDbEntity
  8
VERMASSUNG
100
AcDbTrace
 10
60.3055115832
 20
157.3734805143
 30
0.0
 11
63.3055115832
 21
156.9234805143
 31
0.0
 12
63.3055115832
 22
157.8234805143
 32
0.0
 13
63.3055115832
 23
157.8234805143
 33
0.0
  0
SOLID
  5
1E3
330
1DF
100
AcDbEntity
  8
VERMASSUNG
100
AcDbTrace
 10
252.2055115832
 20
157.3734805143
 30
0.0
 11
249.2055115832
 21
157.8234805143
 31
0.0
 12
249.2055115832
 22
156.9234805143
 32
0.0
 13
249.2055115832
 23
156.9234805143
 33
0.0
  0
LINE
  5
1E4
330
1DF
100
AcDbEntity
  8
VERMASSUNG
100
AcDbLine
 10
60.3055115832
 20
128.7400133264
 30
0.0
 11
60.3055115832
 21
158.3734805143
 31
0.0
  0
LINE
  5
1E5
330
1DF
100
AcDbEntity
  8
VERMASSUNG
100
AcDbLine
 10
252.2055115832
 20
120.2751950583
 30
0.0
 11
252.2055115832
 21
158.3734805143
 31
0.0
  0
LINE
  5
1E6
330
1DF
100
AcDbEntity
  8
VERMASSUNG
100
AcDbLine
 10
60.3055115832
 20
157.3734805143
 30
0.0
 11
252.2055115832
 21
157.3734805143
 31
0.0
  0
MTEXT
  5
1E7
330
1DF
100
AcDbEntity
  8
VERMASSUNG
100
AcDbMText
 10
153.5565451693
 20
159.9516158774
 30
0.0
 40
2.0
 41
0.0
 71
     1
 72
     1
  1
191.9
  7
SLDTEXTSTYLE0
 73
     1
 44
1.0
  0
ENDBLK
  5
1E1
330
1DF
100
AcDbEntity
  8
0
100
AcDbBlockEnd
  0
BLOCK
  5
1EA
330
1E9
100
AcDbEntity
  8
0
100
AcDbBlockBegin
  2
*D3
 70
     1
 10
0.0
 20
0.0
 30
0.0
  3
*D3
  1

  0
SOLID
  5
1EC
330
1E9
100
AcDbEntity
  8
VERMASSUNG
100
AcDbTrace
 10
92.2055115832
 20
151.3734805143
 30
0.0
 11
95.2055115832
 21
150.9234805143
 31
0.0
 12
95.2055115832
 22
151.8234805143
 32
0.0
 13
95.2055115832
 23
151.8234805143
 33
0.0
  0
SOLID
  5
1ED
330
1E9
100
AcDbEntity
  8
VERMASSUNG
100
AcDbTrace
 10
252.2055115832
 20
151.3734805143
 30
0.0
 11
249.2055115832
 21
151.8234805143
 31
0.0
 12
249.2055115832
 22
150.9234805143
 32
0.0
 13
249.2055115832
 23
150.9234805143
 33
0.0
  0
LINE
  5
1EE
330
1E9
100
AcDbEntity
  8
VERMASSUNG
100
AcDbLine
 10
92.2055115832
 20
140.24933558
 30
0.0
 11
92.2055115832
 21
152.3734805143
 31
0.0
  0
LINE
  5
1EF
330
1E9
100
AcDbEntity
  8
VERMASSUNG
100
AcDbLine
 10
252.2055115832
 20
120.2751950583
 30
0.0
 11
252.2055115832
 21
152.3734805143
 31
0.0
  0
LINE
  5
1F0
330
1E9
100
AcDbEntity
  8
VERMASSUNG
100
AcDbLine
 10
92.2055115832
 20
151.3734805143
 30
0.0
 11
252.2055115832
 21
151.3734805143
 31
0.0
  0
MTEXT
  5
1F1
330
1E9
100
AcDbEntity
  8
VERMASSUNG
100
AcDbMText
 10
170.3060240425
 20
153.9516158774
 30
0.0
 40
2.0
 41
0.0
 71
     1
 72
     1
  1
160
  7
SLDTEXTSTYLE0
 73
     1
 44
1.0
  0
ENDBLK
  5
1EB
330
1E9
100
AcDbEntity
  8
0
100
AcDbBlockEnd
  0
BLOCK
  5
1F4
330
1F3
100
AcDbEntity
  8
0
100
AcDbBlockBegin
  2
*D4
 70
     1
 10
0.0
 20
0.0
 30
0.0
  3
*D4
  1

  0
SOLID
  5
1F6
330
1F3
100
AcDbEntity
  8
VERMASSUNG
100
AcDbTrace
 10
118.1555115832
 20
145.3734805143
 30
0.0
 11
121.1555115832
 21
144.9234805143
 31
0.0
 12
121.1555115832
 22
145.8234805143
 32
0.0
 13
121.1555115832
 23
145.8234805143
 33
0.0
  0
SOLID
  5
1F7
330
1F3
100
AcDbEntity
  8
VERMASSUNG
100
AcDbTrace
 10
252.2055115832
 20
145.3734805143
 30
0.0
 11
249.2055115832
 21
145.8234805143
 31
0.0
 12
249.2055115832
 22
144.9234805143
 32
0.0
 13
249.2055115832
 23
144.9234805143
 33
0.0
  0
LINE
  5
1F8
330
1F3
100
AcDbEntity
  8
VERMASSUNG
100
AcDbLine
 10
118.1555115832
 20
138.8957759037
 30
0.0
 11
118.1555115832
 21
146.3734805143
 31
0.0
  0
LINE
  5
1F9
330
1F3
100
AcDbEntity
  8
VERMASSUNG
100
AcDbLine
 10
252.2055115832
 20
120.2751950583
 30
0.0
 11
252.2055115832
 21
146.3734805143
 31
0.0
  0
LINE
  5
1FA
330
1F3
100
AcDbEntity
  8
VERMASSUNG
100
AcDbLine
 10
118.1555115832
 20
145.3734805143
 30
0.0
 11
252.2055115832
 21
145.3734805143
 31
0.0
  0
MTEXT
  5
1FB
330
1F3
100
AcDbEntity
  8
VERMASSUNG
100
AcDbMText
 10
181.4813263177
 20
147.9516158774
 30
0.0
 40
2.0
 41
0.0
 71
     1
 72
     1
  1
134.05
  7
SLDTEXTSTYLE0
 73
     1
 44
1.0
  0
ENDBLK
  5
1F5
330
1F3
100
AcDbEntity
  8
0
100
AcDbBlockEnd
  0
BLOCK
  5
1FE
330
1FD
100
AcDbEntity
  8
0
100
AcDbBlockBegin
  2
*D5
 70
     1
 10
0.0
 20
0.0
 30
0.0
  3
*D5
  1

  0
SOLID
  5
200
330
1FD
100
AcDbEntity
  8
VERMASSUNG
100
AcDbTrace
 10
260.189740981
 20
114.04933558
 30
0.0
 11
259.739740981
 21
111.04933558
 31
0.0
 12
260.639740981
 22
111.04933558
 32
0.0
 13
260.639740981
 23
111.04933558
 33
0.0
  0
SOLID
  5
201
330
1FD
100
AcDbEntity
  8
VERMASSUNG
100
AcDbTrace
 10
260.189740981
 20
104.04933558
 30
0.0
 11
260.639740981
 21
107.04933558
 31
0.0
 12
259.739740981
 22
107.04933558
 32
0.0
 13
259.739740981
 23
107.04933558
 33
0.0
  0
LINE
  5
202
330
1FD
100
AcDbEntity
  8
VERMASSUNG
100
AcDbLine
 10
251.9055115832
 20
114.04933558
 30
0.0
 11
261.189740981
 21
114.04933558
 31
0.0
  0
LINE
  5
203
330
1FD
100
AcDbEntity
  8
VERMASSUNG
100
AcDbLine
 10
251.9055115832
 20
104.04933558
 30
0.0
 11
261.189740981
 21
104.04933558
 31
0.0
  0
LINE
  5
204
330
1FD
100
AcDbEntity
  8
VERMASSUNG
100
AcDbLine
 10
260.189740981
 20
114.04933558
 30
0.0
 11
260.189740981
 21
104.04933558
 31
0.0
  0
MTEXT
  5
205
330
1FD
100
AcDbEntity
  8
VERMASSUNG
100
AcDbMText
 10
257.6116055015
 20
106.0451979852
 30
0.0
 40
2.0
 41
0.0
 71
     1
 72
     1
  1
%%c
  7
SLDTEXTSTYLE0
 11
-7.044195017643634E-15
 21
1.0
 31
0.0
 73
     1
 44
1.0
  0
MTEXT
  5
206
330
1FD
100
AcDbEntity
  8
VERMASSUNG
100
AcDbMText
 10
257.6116056179
 20
109.6538762083
 30
0.0
 40
2.0
 41
0.0
 71
     1
 72
     1
  1
10
  7
SLDTEXTSTYLE0
 11
-7.044195017643634E-15
 21
1.0
 31
0.0
 73
     1
 44
1.0
  0
ENDBLK
  5
1FF
330
1FD
100
AcDbEntity
  8
0
100
AcDbBlockEnd
  0
BLOCK
  5
209
330
208
100
AcDbEntity
  8
0
100
AcDbBlockBegin
  2
*D6
 70
     1
 10
0.0
 20
0.0
 30
0.0
  3
*D6
  1

  0
SOLID
  5
20B
330
208
100
AcDbEntity
  8
VERMASSUNG
100
AcDbTrace
 10
266.189740981
 20
126.54933558
 30
0.0
 11
265.739740981
 21
123.54933558
 31
0.0
 12
266.639740981
 22
123.54933558
 32
0.0
 13
266.639740981
 23
123.54933558
 33
0.0
  0
SOLID
  5
20C
330
208
100
AcDbEntity
  8
VERMASSUNG
100
AcDbTrace
 10
266.189740981
 20
91.54933558
 30
0.0
 11
266.639740981
 21
94.54933558
 31
0.0
 12
265.739740981
 22
94.54933558
 32
0.0
 13
265.739740981
 23
94.54933558
 33
0.0
  0
LINE
  5
20D
330
208
100
AcDbEntity
  8
VERMASSUNG
100
AcDbLine
 10
241.4829769806
 20
126.54933558
 30
0.0
 11
267.189740981
 21
126.54933558
 31
0.0
  0
LINE
  5
20E
330
208
100
AcDbEntity
  8
VERMASSUNG
100
AcDbLine
 10
241.4829769806
 20
91.54933558
 30
0.0
 11
267.189740981
 21
91.54933558
 31
0.0
  0
LINE
  5
20F
330
208
100
AcDbEntity
  8
VERMASSUNG
100
AcDbLine
 10
266.189740981
 20
126.54933558
 30
0.0
 11
266.189740981
 21
91.54933558
 31
0.0
  0
MTEXT
  5
210
330
208
100
AcDbEntity
  8
VERMASSUNG
100
AcDbMText
 10
263.6116055015
 20
105.8456183535
 30
0.0
 40
2.0
 41
0.0
 71
     1
 72
     1
  1
%%c
  7
SLDTEXTSTYLE0
 11
-7.044195017643634E-15
 21
1.0
 31
0.0
 73
     1
 44
1.0
  0
MTEXT
  5
211
330
208
100
AcDbEntity
  8
VERMASSUNG
100
AcDbMText
 10
263.6116056179
 20
109.4542965767
 30
0.0
 40
2.0
 41
0.0
 71
     1
 72
     1
  1
35
  7
SLDTEXTSTYLE0
 11
-7.044195017643634E-15
 21
1.0
 31
0.0
 73
     1
 44
1.0
  0
ENDBLK
  5
20A
330
208
100
AcDbEntity
  8
0
100
AcDbBlockEnd
  0
ENDSEC
  0
SECTION
  2
ENTITIES
  0
MTEXT
  5
45
330
1F
100
AcDbEntity
  8
KOPF_DÜNN
100
AcDbMText
 10
13.8892156294
 20
23.8442973028
 30
0.0
 40
3.0
 41
0.0
 71
     1
 72
     1
  1
HA6.W10.K21.160
  7
SLDTEXTSTYLE0
 73
     1
 44
1.0
  0
MTEXT
  5
46
330
1F
100
AcDbEntity
  8
VERMASSUNG
100
AcDbMText
 10
13.9329988022
 20
28.8834360957
 30
0.0
 40
3.0
 41
0.0
 71
     1
 72
     1
  1
Flächenspannfutter_End mill adapter Weldon ø10
  7
SLDTEXTSTYLE0
 73
     1
 44
1.0
  0
MTEXT
  5
47
330
1F
100
AcDbEntity
  8
VERMASSUNG
100
AcDbMText
 10
98.8601118557
 20
13.8365368179
 30
0.0
 40
2.0
 41
0.0
 71
     1
 72
     1
  1
Datum: 09.10.2006
  7
SLDTEXTSTYLE0
 73
     1
 44
1.0
  0
MTEXT
  5
49
330
1F
100
AcDbEntity
  8
VERMASSUNG
100
AcDbMText
 10
13.933048693
 20
18.0482802738
 30
0.0
 40
2.0
 41
0.0
 71
     1
 72
     1
  1
DIN 69 893 HSK A 63
  7
SLDTEXTSTYLE1
 73
     1
 44
1.0
  0
MTEXT
  5
4A
330
1F
100
AcDbEntity
  8
VERMASSUNG
100
AcDbMText
 10
13.9808475933
 20
13.9090973692
 30
0.0
 40
2.0
 41
0.0
 71
     1
 72
     1
  1
Gewicht: 1589g
  7
SLDTEXTSTYLE0
 73
     1
 44
1.0
  0
ARC
  5
4B
330
1F
100
AcDbEntity
  8
0
  6
Continuous
 62
     7
370
    15
100
AcDbCircle
 10
92.5055115832
 20
77.84933558
 30
0.0
 40
0.2999999999999972
100
AcDbArc
 50
180.0
 51
270.0
  0
ARC
  5
4C
330
1F
100
AcDbEntity
  8
0
  6
Continuous
 62
     7
370
    15
100
AcDbCircle
 10
92.5055115832
 20
140.24933558
 30
0.0
 40
0.2999999999999972
100
AcDbArc
 50
90.0
 51
180.0
  0
LINE
  5
4D
330
1F
100
AcDbEntity
  8
0
  6
Continuous
 62
     7
370
    15
100
AcDbLine
 10
92.5055115832
 20
77.54933558
 30
0.0
 11
97.1555115832
 21
77.54933558
 31
0.0
  0
LINE
  5
4E
330
1F
100
AcDbEntity
  8
0
  6
Continuous
 62
     7
370
    15
100
AcDbLine
 10
97.1834999423
 20
140.54933558
 30
0.0
 11
92.5055115832
 21
140.54933558
 31
0.0
  0
ARC
  5
4F
330
1F
100
AcDbEntity
  8
0
  6
Continuous
 62
     7
370
    15
100
AcDbCircle
 10
91.7055048305
 20
84.4788979656
 30
0.0
 40
0.6000067526677164
100
AcDbArc
 50
33.5571153394
 51
90.0
  0
ARC
  5
50
330
1F
100
AcDbEntity
  8
0
  6
Continuous
 62
     7
370
    15
100
AcDbCircle
 10
91.7055048305
 20
133.6197731944
 30
0.0
 40
0.6000067526677242
100
AcDbArc
 50
270.0
 51
326.4428846606
  0
LINE
  5
51
330
1F
100
AcDbEntity
  8
0
  6
Continuous
 62
     7
370
    15
100
AcDbLine
 10
78.9750894007
 20
132.7071200398
 30
0.0
 11
66.4055115832
 21
132.0773816721
 31
0.0
  0
LINE
  5
52
330
1F
100
AcDbEntity
  8
0
  6
Continuous
 62
     7
370
    15
100
AcDbLine
 10
90.2055115832
 20
133.2697664417
 30
0.0
 11
87.3869022257
 21
133.128553548
 31
0.0
  0
LINE
  5
53
330
1F
100
AcDbEntity
  8
0
  6
Continuous
 62
     7
370
    15
100
AcDbLine
 10
87.3871237008
 20
84.970106516
 30
0.0
 11
90.2055115832
 21
84.8289047182
 31
0.0
  0
LINE
  5
54
330
1F
100
AcDbEntity
  8
0
  6
Continuous
 62
     7
370
    15
100
AcDbLine
 10
70.4055115832
 20
85.8208886862
 30
0.0
 11
78.9757883524
 21
85.3915161025
 31
0.0
  0
LINE
  5
55
330
1F
100
AcDbEntity
  8
0
  6
Continuous
 62
     7
370
    15
100
AcDbLine
 10
90.2055115832
 20
84.8289047182
 30
0.0
 11
91.0622243566
 21
85.058460214
 31
0.0
  0
LINE
  5
56
330
1F
100
AcDbEntity
  8
0
  6
Continuous
 62
     7
370
    15
100
AcDbLine
 10
91.0622243566
 20
133.0402109459
 30
0.0
 11
90.2055115832
 21
133.2697664417
 31
0.0
  0
ARC
  5
57
330
1F
100
AcDbEntity
  8
0
  6
Continuous
 62
     7
370
    15
100
AcDbCircle
 10
91.2175157836
 20
84.4789047182
 30
0.0
 40
0.6000000000000085
100
AcDbArc
 50
90.0
 51
105.0
  0
ARC
  5
58
330
1F
100
AcDbEntity
  8
0
  6
Continuous
 62
     7
370
    15
100
AcDbCircle
 10
91.2175157836
 20
133.6197664417
 30
0.0
 40
0.5999999999999971
100
AcDbArc
 50
255.0
 51
270.0
  0
LINE
  5
59
330
1F
100
AcDbEntity
  8
0
  6
Continuous
 62
     7
370
    15
100
AcDbLine
 10
91.2175157836
 20
85.0789047182
 30
0.0
 11
91.7055048305
 21
85.0789047182
 31
0.0
  0
LINE
  5
5A
330
1F
100
AcDbEntity
  8
0
  6
Continuous
 62
     7
370
    15
100
AcDbLine
 10
91.7055048305
 20
133.0197664417
 30
0.0
 11
91.2175157836
 21
133.0197664417
 31
0.0
  0
ARC
  5
5B
330
1F
100
AcDbEntity
  8
0
  6
Continuous
 62
     7
370
    15
100
AcDbCircle
 10
121.1555115832
 20
85.5333767785
 30
0.0
 40
3.0
100
AcDbArc
 50
104.3250519401
 51
180.0
  0
ARC
  5
5C
330
1F
100
AcDbEntity
  8
0
  6
Continuous
 62
     7
370
    15
100
AcDbCircle
 10
121.1555115832
 20
132.5652943815
 30
0.0
 40
3.0
100
AcDbArc
 50
180.0
 51
255.6749480599
  0
ARC
  5
5D
330
1F
100
AcDbEntity
  8
0
  6
Continuous
 62
     7
370
    15
100
AcDbCircle
 10
145.1555115832
 20
-8.45066442
 30
0.0
 40
100.0
100
AcDbArc
 50
90.0
 51
104.3250519401
  0
ARC
  5
5E
330
1F
100
AcDbEntity
  8
0
  6
Continuous
 62
     7
370
    15
100
AcDbCircle
 10
145.1555115832
 20
226.54933558
 30
0.0
 40
100.0
100
AcDbArc
 50
255.6749480599
 51
270.0
  0
LINE
  5
5F
330
1F
100
AcDbEntity
  8
0
  6
Continuous
 62
     7
370
    15
100
AcDbLine
 10
167.6524501472
 20
91.54933558
 30
0.0
 11
241.4829769806
 21
91.54933558
 31
0.0
  0
LINE
  5
60
330
1F
100
AcDbEntity
  8
0
  6
Continuous
 62
     7
370
    15
100
AcDbLine
 10
145.1555115832
 20
91.54933558
 30
0.0
 11
160.6568455834
 21
91.54933558
 31
0.0
  0
LINE
  5
61
330
1F
100
AcDbEntity
  8
0
  6
Continuous
 62
     7
370
    15
100
AcDbLine
 10
160.6660250648
 20
126.54933558
 30
0.0
 11
145.1555115832
 21
126.54933558
 31
0.0
  0
LINE
  5
62
330
1F
100
AcDbEntity
  8
0
  6
Continuous
 62
     7
370
    15
100
AcDbLine
 10
241.4829769806
 20
126.54933558
 30
0.0
 11
167.6465695808
 21
126.54933558
 31
0.0
  0
LINE
  5
63
330
1F
100
AcDbEntity
  8
0
  6
Continuous
 62
     7
370
    15
100
AcDbLine
 10
241.4829769806
 20
91.54933558
 30
0.0
 11
251.0507481067
 21
96.0108605275
 31
0.0
  0
LINE
  5
64
330
1F
100
AcDbEntity
  8
0
  6
Continuous
 62
     7
370
    15
100
AcDbLine
 10
251.0507481067
 20
122.0878106324
 30
0.0
 11
241.4829769806
 21
126.54933558
 31
0.0
  0
ARC
  5
65
330
1F
100
AcDbEntity
  8
0
  6
Continuous
 62
     7
370
    15
100
AcDbCircle
 10
250.2055115832
 20
97.8234761016
 30
0.0
 40
2.0
100
AcDbArc
 50
295.0
 51
0.0
  0
ARC
  5
66
330
1F
100
AcDbEntity
  8
0
  6
Continuous
 62
     7
370
    15
100
AcDbCircle
 10
250.2055115832
 20
120.2751950583
 30
0.0
 40
2.0
100
AcDbArc
 50
0.0
 51
65.0
  0
LINE
  5
67
330
1F
100
AcDbEntity
  8
0
  6
Continuous
 62
     7
370
    15
100
AcDbLine
 10
61.5888482232
 20
88.17933558
 30
0.0
 11
69.0055115832
 21
88.17933558
 31
0.0
  0
ARC
  5
68
330
1F
100
AcDbEntity
  8
0
  6
Continuous
 62
     7
370
    15
100
AcDbCircle
 10
69.0055115832
 20
86.77933558
 30
0.0
 40
1.399999999999991
100
AcDbArc
 50
42.2465410162
 51
90.0
  0
LINE
  5
69
330
1F
100
AcDbEntity
  8
0
  6
Continuous
 62
     7
370
    15
100
AcDbLine
 10
60.3166720183
 20
89.3181751449
 30
0.0
 11
61.4466750414
 21
88.1881721218
 31
0.0
  0
LINE
  5
6A
330
1F
100
AcDbEntity
  8
0
  6
Continuous
 62
     7
370
    15
100
AcDbLine
 10
61.4466750414
 20
129.9104990381
 30
0.0
 11
60.3154123566
 21
128.7792363533
 31
0.0
  0
ARC
  5
6B
330
1F
100
AcDbEntity
  8
0
  6
Continuous
 62
     7
370
    15
100
AcDbCircle
 10
65.0055115832
 20
131.31933558
 30
0.0
 40
1.400000000000024
100
AcDbArc
 50
270.0
 51
302.5610026528
  0
LINE
  5
6C
330
1F
100
AcDbEntity
  8
0
  6
Continuous
 62
     7
370
    15
100
AcDbLine
 10
65.0055115832
 20
129.91933558
 30
0.0
 11
61.5797773171
 21
129.91933558
 31
0.0
  0
LINE
  5
6D
330
1F
100
AcDbEntity
  8
0
  6
Continuous
 62
     7
370
    15
100
AcDbLine
 10
252.2055115832
 20
101.3484387429
 30
0.0
 11
252.2704125188
 21
101.4686192889
 31
0.0
  0
LINE
  5
6E
330
1F
100
AcDbEntity
  8
0
  6
Continuous
 62
     7
370
    15
100
AcDbLine
 10
252.2627501589
 20
116.630264749
 30
0.0
 11
252.2055115832
 21
116.736256492
 31
0.0
  0
LINE
  5
6F
330
1F
100
AcDbEntity
  8
0
  6
Continuous
 62
     7
370
    15
100
AcDbLine
 10
117.5555115832
 20
78.8624178837
 30
0.0
 11
113.5974444147
 21
78.8624178837
 31
0.0
  0
LINE
  5
70
330
1F
100
AcDbEntity
  8
0
  6
Continuous
 62
     7
370
    15
100
AcDbLine
 10
113.5974444147
 20
78.8624178837
 30
0.0
 11
113.5974444147
 21
128.89933558
 31
0.0
  0
LINE
  5
71
330
1F
100
AcDbEntity
  8
0
  6
Continuous
 62
     7
370
    15
100
AcDbLine
 10
113.5974444147
 20
128.89933558
 30
0.0
 11
117.5555115832
 21
128.89933558
 31
0.0
  0
LINE
  5
72
330
1F
100
AcDbEntity
  8
0
  6
Continuous
 62
     7
370
    15
100
AcDbLine
 10
118.1555115832
 20
79.4890581794
 30
0.0
 11
118.1555115832
 21
128.89933558
 31
0.0
  0
SPLINE
  5
73
330
1F
100
AcDbEntity
  8
0
  6
Continuous
 62
     7
370
    15
100
AcDbSpline
210
0.0
220
0.0
230
1.0
 70
     8
 71
     3
 72
    10
 73
     6
 74
     0
 42
0.00000001
 43
0.00000001
 40
0.0
 40
0.0
 40
0.0
 40
0.0
 40
0.5
 40
0.5
 40
1.0
 40
1.0
 40
1.0
 40
1.0
 10
118.1555115831778
 20
79.48905817936875
 30
0.0
 10
118.1555115831778
 20
79.3291709111751
 30
0.0
 10
118.094201931942
 20
79.1680436556605
 30
0.0
 10
117.8751022944069
 20
78.93394465730566
 30
0.0
 10
117.7170540880934
 20
78.86241788371444
 30
0.0
 10
117.5555115831778
 20
78.86241788371444
 30
0.0
  0
SPLINE
  5
74
330
1F
100
AcDbEntity
  8
0
  6
Continuous
 62
     7
370
    15
100
AcDbSpline
210
0.0
220
0.0
230
1.0
 70
    24
 71
     3
 72
    12
 73
     8
 74
     0
 42
0.00000001
 43
0.00000001
 40
0.0
 40
0.0
 40
0.0
 40
0.0
 40
0.2500000000000033
 40
0.2500000000000033
 40
0.5000000000000067
 40
0.5000000000000067
 40
1.0
 40
1.0
 40
1.0
 40
1.0
 10
117.5555115831778
 20
128.8993355799616
 30
0.0
 10
117.6457506508649
 20
128.8993355799616
 30
0.0
 10
117.7366487649714
 20
128.8993355799616
 30
0.0
 10
117.8912458014599
 20
128.8993355799616
 30
0.0
 10
117.956224217568
 20
128.8993355799616
 30
0.0
 10
118.1080592455042
 20
128.8993355799616
 30
0.0
 10
118.1555115831778
 20
128.8993355799616
 30
0.0
 10
118.1555115831778
 20
128.8993355799616
 30
0.0
  0
LINE
  5
75
330
1F
100
AcDbEntity
  8
0
  6
Continuous
 62
     7
370
    15
100
AcDbLine
 10
108.2955115832
 20
81.5514984209
 30
0.0
 11
108.2955115832
 21
128.89933558
 31
0.0
  0
SPLINE
  5
76
330
1F
100
AcDbEntity
  8
0
  6
Continuous
 62
     7
370
    15
100
AcDbSpline
210
0.0
220
0.0
230
1.0
 70
     8
 71
     3
 72
     8
 73
     4
 74
     0
 42
0.00000001
 43
0.00000001
 40
0.0
 40
0.0
 40
0.0
 40
0.0
 40
1.0
 40
1.0
 40
1.0
 40
1.0
 10
108.2955115831778
 20
81.55149842090674
 30
0.0
 10
107.8031724603966
 20
80.65422838670004
 30
0.0
 10
107.3090584123545
 20
79.75794397164779
 30
0.0
 10
106.8135787516888
 20
78.86241788371444
 30
0.0
  0
LINE
  5
77
330
1F
100
AcDbEntity
  8
0
  6
Continuous
 62
     7
370
    15
100
AcDbLine
 10
106.8135787517
 20
78.8624178837
 30
0.0
 11
106.8135787517
 21
128.89933558
 31
0.0
  0
SPLINE
  5
78
330
1F
100
AcDbEntity
  8
0
  6
Continuous
 62
     7
370
    15
100
AcDbSpline
210
0.0
220
0.0
230
1.0
 70
    24
 71
     3
 72
     8
 73
     4
 74
     0
 42
0.00000001
 43
0.00000001
 40
0.0
 40
0.0
 40
0.0
 40
0.0
 40
1.0
 40
1.0
 40
1.0
 40
1.0
 10
106.8135787516888
 20
128.8993355799616
 30
0.0
 10
107.3202588598393
 20
128.8993355799616
 30
0.0
 10
107.8155595888129
 20
128.8993355799616
 30
0.0
 10
108.2955115831778
 20
128.8993355799616
 30
0.0
  0
LINE
  5
79
330
1F
100
AcDbEntity
  8
0
  6
Continuous
 62
     7
370
    15
100
AcDbLine
 10
92.2055115832
 20
77.84933558
 30
0.0
 11
92.2055115832
 21
140.2493355747
 31
0.0
  0
SPLINE
  5
7A
330
1F
100
AcDbEntity
  8
0
  6
Continuous
 62
     7
370
    15
100
AcDbSpline
210
0.0
220
0.0
230
1.0
 70
     8
 71
     3
 72
     8
 73
     4
 74
     0
 42
0.00000001
 43
0.00000001
 40
0.0
 40
0.0
 40
0.0
 40
0.0
 40
1.0
 40
1.0
 40
1.0
 40
1.0
 10
113.5974444146669
 20
78.86241788371444
 30
0.0
 10
113.1019647540011
 20
79.7579439716478
 30
0.0
 10
112.607850705959
 20
80.65422838670005
 30
0.0
 10
112.1155115831778
 20
81.55149842090675
 30
0.0
  0
LINE
  5
7B
330
1F
100
AcDbEntity
  8
0
  6
Continuous
 62
     7
370
    15
100
AcDbLine
 10
112.1155115832
 20
81.5514984209
 30
0.0
 11
112.1155115832
 21
128.89933558
 31
0.0
  0
SPLINE
  5
7C
330
1F
100
AcDbEntity
  8
0
  6
Continuous
 62
     7
370
    15
100
AcDbSpline
210
0.0
220
0.0
230
1.0
 70
    24
 71
     3
 72
     8
 73
     4
 74
     0
 42
0.00000001
 43
0.00000001
 40
0.0
 40
0.0
 40
0.0
 40
0.0
 40
1.0
 40
1.0
 40
1.0
 40
1.0
 10
112.1155115831778
 20
128.8993355799616
 30
0.0
 10
112.5954635775427
 20
128.8993355799616
 30
0.0
 10
113.0907643065163
 20
128.8993355799616
 30
0.0
 10
113.5974444146669
 20
128.8993355799616
 30
0.0
  0
LINE
  5
7D
330
1F
100
AcDbEntity
  8
0
  6
Continuous
 62
     7
370
    15
100
AcDbLine
 10
97.1555115832
 20
128.89933558
 30
0.0
 11
106.8135787517
 21
128.89933558
 31
0.0
  0
LINE
  5
7E
330
1F
100
AcDbEntity
  8
0
  6
Continuous
 62
     7
370
    15
100
AcDbLine
 10
106.8135787517
 20
78.8624178837
 30
0.0
 11
105.1555115832
 21
78.8624178837
 31
0.0
  0
SPLINE
  5
7F
330
1F
100
AcDbEntity
  8
0
  6
Continuous
 62
     7
370
    15
100
AcDbSpline
210
0.0
220
0.0
230
1.0
 70
     8
 71
     3
 72
    28
 73
    24
 74
     0
 42
0.00000001
 43
0.00000001
 40
0.0
 40
0.0
 40
0.0
 40
0.0
 40
0.1250000000000001
 40
0.1250000000000001
 40
0.1875000000000001
 40
0.1875000000000001
 40
0.2500000000000001
 40
0.2500000000000001
 40
0.3749999999999999
 40
0.3749999999999999
 40
0.4375
 40
0.4375
 40
0.4999999999999999
 40
0.4999999999999999
 40
0.6249999999999999
 40
0.6249999999999999
 40
0.7499999999999997
 40
0.7499999999999997
 40
0.8124999999999998
 40
0.8124999999999998
 40
0.8749999999999998
 40
0.8749999999999998
 40
1.0
 40
1.0
 40
1.0
 40
1.0
 10
105.1555115831778
 20
78.86241788371444
 30
0.0
 10
104.6238038256849
 20
78.86241788371446
 30
0.0
 10
104.1015652603746
 20
78.84663316976423
 30
0.0
 10
103.3316947740996
 20
78.80163775568802
 30
0.0
 10
103.0773352019082
 20
78.7830827606123
 30
0.0
 10
102.5732136212097
 20
78.73923003816579
 30
0.0
 10
102.3234908037818
 20
78.71388543121358
 30
0.0
 10
101.5979008523354
 20
78.63048335346348
 30
0.0
 10
101.1395405907538
 20
78.5646177943124
 30
0.0
 10
100.48904264736
 20
78.4556474538206
 30
0.0
 10
100.2773605965675
 20
78.41740781805396
 30
0.0
 10
99.8732891074295
 20
78.33964908063459
 30
0.0
 10
99.68078259360863
 20
78.30014811845926
 30
0.0
 10
99.13094762258736
 20
78.18124037609326
 30
0.0
 10
98.80101884427856
 20
78.10142269466864
 30
0.0
 10
98.21654757570985
 20
77.94807953287258
 30
0.0
 10
97.97027043769643
 20
77.87674577960333
 30
0.0
 10
97.67042764499836
 20
77.78280227252871
 30
0.0
 10
97.58197078792617
 20
77.75360847916878
 30
0.0
 10
97.42860943462104
 20
77.70014190490538
 30
0.0
 10
97.3635212203948
 20
77.67578257063018
 30
0.0
 10
97.20792720445401
 20
77.61219242518544
 30
0.0
 10
97.15551158317783
 20
77.5820894900962
 30
0.0
 10
97.15551158317783
 20
77.56521259709928
 30
0.0
  0
LINE
  5
80
330
1F
100
AcDbEntity
  8
0
  6
Continuous
 62
     7
370
    15
100
AcDbLine
 10
97.1555115832
 20
77.5652125971
 30
0.0
 11
97.1555115832
 21
77.54933558
 31
0.0
  0
SPLINE
  5
81
330
1F
100
AcDbEntity
  8
0
  6
Continuous
 62
     7
370
    15
100
AcDbSpline
210
0.0
220
0.0
230
1.0
 70
     8
 71
     3
 72
    17
 73
    13
 74
     0
 42
0.00000001
 43
0.00000001
 40
0.0
 40
0.0
 40
0.0
 40
0.0
 40
0.1034796923964056
 40
0.210023918880785
 40
0.3134862136955583
 40
0.4198361274354882
 40
0.5254127712915682
 40
0.633961069541979
 40
0.7409508756305031
 40
0.8511696089308174
 40
0.9558996534551937
 40
1.0
 40
1.0
 40
1.0
 40
1.0
 10
105.1555115831778
 20
139.5165310531258
 30
0.0
 10
104.7202632340678
 20
139.5219792496592
 30
0.0
 10
103.8368767275028
 20
139.533036990171
 30
0.0
 10
102.5560491422741
 20
139.6193953830725
 30
0.0
 10
101.3386326064001
 20
139.7472655596103
 30
0.0
 10
100.2308267541536
 20
139.9062108582035
 30
0.0
 10
99.24258795020533
 20
140.080704545919
 30
0.0
 10
98.4178643926738
 20
140.2498703965589
 30
0.0
 10
97.76891089201452
 20
140.3977541790873
 30
0.0
 10
97.35187607655278
 20
140.4995447633181
 30
0.0
 10
97.15327936358827
 20
140.5498962859212
 30
0.0
 10
97.17659208502155
 20
140.5439906016989
 30
0.0
 10
97.18349994225909
 20
140.5422406720043
 30
0.0
  0
LINE
  5
82
330
1F
100
AcDbEntity
  8
0
  6
Continuous
 62
     7
370
    15
100
AcDbLine
 10
106.8135787517
 20
139.5165310531
 30
0.0
 11
105.1555115832
 21
139.5165310531
 31
0.0
  0
LINE
  5
83
330
1F
100
AcDbEntity
  8
0
  6
Continuous
 62
     7
370
    15
100
AcDbLine
 10
106.8135787517
 20
133.5080252423
 30
0.0
 11
106.8135787517
 21
139.5165310531
 31
0.0
  0
LINE
  5
84
330
1F
100
AcDbEntity
  8
0
  6
Continuous
 62
     7
370
    15
100
AcDbLine
 10
104.4011319289
 20
133.5080252423
 30
0.0
 11
106.8135787517
 21
133.5080252423
 31
0.0
  0
SPLINE
  5
85
330
1F
100
AcDbEntity
  8
0
  6
Continuous
 62
     7
370
    15
100
AcDbSpline
210
0.0
220
0.0
230
1.0
 70
     8
 71
     3
 72
    20
 73
    16
 74
     0
 42
0.00000001
 43
0.00000001
 40
0.0
 40
0.0
 40
0.0
 40
0.0
 40
0.2499999999999997
 40
0.2499999999999997
 40
0.3749999999999997
 40
0.3749999999999997
 40
0.4999999999999998
 40
0.4999999999999998
 40
0.6249999999999998
 40
0.6249999999999998
 40
0.7499999999999999
 40
0.7499999999999999
 40
0.8749999999999999
 40
0.8749999999999999
 40
1.0
 40
1.0
 40
1.0
 40
1.0
 10
97.15551158317781
 20
128.8993355799616
 30
0.0
 10
97.40388531746588
 20
129.553198008259
 30
0.0
 10
97.72345540981114
 20
130.1569837902562
 30
0.0
 10
98.34576164301582
 20
130.9838225264248
 30
0.0
 10
98.57718590344658
 20
131.2462511643777
 30
0.0
 10
99.0984002430963
 20
131.7429138184826
 30
0.0
 10
99.38502072573138
 20
131.9735006975042
 30
0.0
 10
100.004505467039
 20
132.3900549220868
 30
0.0
 10
100.3388058465259
 20
132.5775527240543
 30
0.0
 10
101.0640663191507
 20
132.9089497016907
 30
0.0
 10
101.4459813765412
 20
133.048453689186
 30
0.0
 10
102.2407695527129
 20
133.2739071966569
 30
0.0
 10
102.6549277469193
 20
133.3605333082006
 30
0.0
 10
103.5204740875007
 20
133.4785140970547
 30
0.0
 10
103.9583617025125
 20
133.508025242329
 30
0.0
 10
104.4011319288671
 20
133.508025242329
 30
0.0
  0
SPLINE
  5
86
330
1F
100
AcDbEntity
  8
0
  6
Continuous
 62
     7
370
    15
100
AcDbSpline
210
0.0
220
0.0
230
1.0
 70
     8
 71
     3
 72
    70
 73
    66
 74
     0
 42
0.00000001
 43
0.00000001
 40
-0.0312500000000001
 40
-0.0312500000000001
 40
0.0
 40
0.0
 40
0.0312499999999999
 40
0.0312499999999999
 40
0.0624999999999998
 40
0.0624999999999998
 40
0.0937499999999997
 40
0.0937499999999997
 40
0.1249999999999996
 40
0.1249999999999996
 40
0.1562499999999994
 40
0.1562499999999994
 40
0.1874999999999993
 40
0.1874999999999993
 40
0.2187499999999992
 40
0.2187499999999992
 40
0.2499999999999991
 40
0.2499999999999991
 40
0.281249999999999
 40
0.281249999999999
 40
0.3124999999999989
 40
0.3124999999999989
 40
0.3437499999999988
 40
0.3437499999999988
 40
0.3749999999999987
 40
0.3749999999999987
 40
0.4062499999999986
 40
0.4062499999999986
 40
0.4374999999999984
 40
0.4374999999999984
 40
0.4687499999999983
 40
0.4687499999999983
 40
0.4999999999999982
 40
0.4999999999999982
 40
0.5312499999999983
 40
0.5312499999999983
 40
0.5624999999999984
 40
0.5624999999999984
 40
0.5937499999999986
 40
0.5937499999999986
 40
0.6249999999999987
 40
0.6249999999999987
 40
0.6562499999999988
 40
0.6562499999999988
 40
0.6874999999999989
 40
0.6874999999999989
 40
0.718749999999999
 40
0.718749999999999
 40
0.7499999999999991
 40
0.7499999999999991
 40
0.7812499999999992
 40
0.7812499999999992
 40
0.8124999999999993
 40
0.8124999999999993
 40
0.8437499999999994
 40
0.8437499999999994
 40
0.8749999999999996
 40
0.8749999999999996
 40
0.9062499999999997
 40
0.9062499999999997
 40
0.9374999999999998
 40
0.9374999999999998
 40
0.9687499999999999
 40
0.9687499999999999
 40
1.0
 40
1.0
 40
1.03125
 40
1.03125
 10
100.470056921838
 20
119.670242465945
 30
0.0
 10
99.94096624451768
 20
119.670242465945
 30
0.0
 10
99.68089557714057
 20
119.6949197607301
 30
0.0
 10
99.16932089730517
 20
119.791391433772
 30
0.0
 10
98.91514561356497
 20
119.8643723497521
 30
0.0
 10
98.43087498350327
 20
120.0541129526907
 30
0.0
 10
98.20123389162211
 20
120.1699736110845
 30
0.0
 10
97.76662954338862
 20
120.4425914570422
 30
0.0
 10
97.56106376674201
 20
120.6006305390959
 30
0.0
 10
97.19250662614677
 20
120.9441733900666
 30
0.0
 10
97.02702564341129
 20
121.1309358341683
 30
0.0
 10
96.73460113397618
 20
121.5344790085651
 30
0.0
 10
96.61050015734969
 20
121.7479760049942
 30
0.0
 10
96.41092096059997
 20
122.1873593189167
 30
0.0
 10
96.3339873747417
 20
122.4164993060624
 30
0.0
 10
96.23113031622132
 20
122.8824734288224
 30
0.0
 10
96.20565740676221
 20
123.1153558744985
 30
0.0
 10
96.20536699619441
 20
123.5807534095784
 30
0.0
 10
96.23139162997016
 20
123.8156291669727
 30
0.0
 10
96.33353991446216
 20
124.267122314219
 30
0.0
 10
96.40911636204532
 20
124.4851687896303
 30
0.0
 10
96.60961389319026
 20
124.9062633146681
 30
0.0
 10
96.73474273469863
 20
125.1081846991864
 30
0.0
 10
97.02410153572022
 20
125.4802141817054
 30
0.0
 10
97.18951252277569
 20
125.6528424852857
 30
0.0
 10
97.5625030809235
 20
125.9701604898317
 30
0.0
 10
97.7642361140126
 20
126.1099474233334
 30
0.0
 10
98.1970953648405
 20
126.3541236768852
 30
0.0
 10
98.43101389772987
 20
126.4593531879267
 30
0.0
 10
98.91519763287248
 20
126.6275103343018
 30
0.0
 10
99.16451325882798
 20
126.6907612248956
 30
0.0
 10
99.67754578325571
 20
126.7763404339982
 30
0.0
 10
99.94283960616035
 20
126.7982125989207
 30
0.0
 10
100.4651742260301
 20
126.7983762485646
 30
0.0
 10
100.7249278885118
 20
126.7773745564686
 30
0.0
 10
101.2415397041571
 20
126.6919722013909
 30
0.0
 10
101.4939057446574
 20
126.627966018104
 30
0.0
 10
101.9754308661902
 20
126.4611514980628
 30
0.0
 10
102.2082815983037
 20
126.3570183346637
 30
0.0
 10
102.6453714467425
 20
126.1110316821687
 30
0.0
 10
102.8466924353997
 20
125.9712818512198
 30
0.0
 10
103.2157784606996
 20
125.6581437814953
 30
0.0
 10
103.3847632117513
 20
125.4826876222251
 30
0.0
 10
103.6752192684105
 20
125.1098473581249
 30
0.0
 10
103.7982910797726
 20
124.911725548014
 30
0.0
 10
103.9996273211946
 20
124.4910142052803
 30
0.0
 10
104.0768398671369
 20
124.2690241846128
 30
0.0
 10
104.1790434100369
 20
123.8191592449044
 30
0.0
 10
104.2052717614893
 20
123.5889038317877
 30
0.0
 10
104.2057481608064
 20
123.1175878892386
 30
0.0
 10
104.1800057483084
 20
122.8843504735245
 30
0.0
 10
104.0786949719445
 20
122.4226739340264
 30
0.0
 10
104.0018623325536
 20
122.1917765469143
 30
0.0
 10
103.8014584933384
 20
121.7495005331226
 30
0.0
 10
103.6787869950464
 20
121.5384381018367
 30
0.0
 10
103.3888397058821
 20
121.136939591104
 30
0.0
 10
103.2202687265169
 20
120.9460330690281
 30
0.0
 10
102.8519991324037
 20
120.602307737031
 30
0.0
 10
102.6509372751334
 20
120.4471705508169
 30
0.0
 10
102.2139063565485
 20
120.1720931907372
 30
0.0
 10
101.9817581434189
 20
120.0549769613152
 30
0.0
 10
101.50074786192
 20
119.8660504762506
 30
0.0
 10
101.2486477790896
 20
119.7929755058564
 30
0.0
 10
100.7315782928306
 20
119.6949234467218
 30
0.0
 10
100.470056921838
 20
119.670242465945
 30
0.0
 10
99.94096624451768
 20
119.670242465945
 30
0.0
  0
SPLINE
  5
87
330
1F
100
AcDbEntity
  8
0
  6
Continuous
 62
     7
370
    15
100
AcDbSpline
210
0.0
220
0.0
230
1.0
 70
     8
 71
     3
 72
    70
 73
    66
 74
     0
 42
0.00000001
 43
0.00000001
 40
-0.0312499999999999
 40
-0.0312499999999999
 40
0.0
 40
0.0
 40
0.0312499999999999
 40
0.0312499999999999
 40
0.0624999999999998
 40
0.0624999999999998
 40
0.0937499999999997
 40
0.0937499999999997
 40
0.1249999999999996
 40
0.1249999999999996
 40
0.1562499999999995
 40
0.1562499999999995
 40
0.1874999999999994
 40
0.1874999999999994
 40
0.2187499999999993
 40
0.2187499999999993
 40
0.2499999999999992
 40
0.2499999999999992
 40
0.2812499999999993
 40
0.2812499999999993
 40
0.3124999999999993
 40
0.3124999999999993
 40
0.3437499999999994
 40
0.3437499999999994
 40
0.3749999999999995
 40
0.3749999999999995
 40
0.4062499999999996
 40
0.4062499999999996
 40
0.4374999999999996
 40
0.4374999999999996
 40
0.4687499999999997
 40
0.4687499999999997
 40
0.4999999999999998
 40
0.4999999999999998
 40
0.5312499999999999
 40
0.5312499999999999
 40
0.5625
 40
0.5625
 40
0.5937500000000001
 40
0.5937500000000001
 40
0.6250000000000002
 40
0.6250000000000002
 40
0.6562500000000004
 40
0.6562500000000004
 40
0.6875000000000006
 40
0.6875000000000006
 40
0.7187500000000007
 40
0.7187500000000007
 40
0.7500000000000008
 40
0.7500000000000008
 40
0.7812500000000007
 40
0.7812500000000007
 40
0.8125000000000006
 40
0.8125000000000006
 40
0.8437500000000004
 40
0.8437500000000004
 40
0.8750000000000003
 40
0.8750000000000003
 40
0.9062500000000003
 40
0.9062500000000003
 40
0.9375000000000002
 40
0.9375000000000002
 40
0.9687500000000001
 40
0.9687500000000001
 40
1.0
 40
1.0
 40
1.03125
 40
1.03125
 10
100.470056921838
 20
134.1082989747408
 30
0.0
 10
99.9409662445177
 20
134.1082989747408
 30
0.0
 10
99.68089557714057
 20
134.1241994151555
 30
0.0
 10
99.16932089730517
 20
134.1861437653298
 30
0.0
 10
98.91514561356497
 20
134.2329459994211
 30
0.0
 10
98.43087498350327
 20
134.3539229828762
 30
0.0
 10
98.20123389162211
 20
134.427525310683
 30
0.0
 10
97.76662954338862
 20
134.5993495816612
 30
0.0
 10
97.56106376674201
 20
134.6983530045886
 30
0.0
 10
97.19250662614677
 20
134.9114494185014
 30
0.0
 10
97.02702564341129
 20
135.0263491346311
 30
0.0
 10
96.73460113397618
 20
135.2717160333214
 30
0.0
 10
96.61050015734969
 20
135.4001559337916
 30
0.0
 10
96.41092096059997
 20
135.6610480818776
 30
0.0
 10
96.3339873747417
 20
135.7954292532171
 30
0.0
 10
96.23113031622132
 20
136.0647492043234
 30
0.0
 10
96.20565740676221
 20
136.1974304685415
 30
0.0
 10
96.20536699619441
 20
136.4586169426725
 30
0.0
 10
96.23139162997016
 20
136.5883819808373
 30
0.0
 10
96.33353991446216
 20
136.8339646151099
 30
0.0
 10
96.40911636204532
 20
136.9506261524188
 30
0.0
 10
96.60961389319026
 20
137.1725313425734
 30
0.0
 10
96.73474273469863
 20
137.2771425964963
 30
0.0
 10
97.02410153572022
 20
137.4671890081044
 30
0.0
 10
97.18951252277569
 20
137.5539486795541
 30
0.0
 10
97.5625030809235
 20
137.7114530553057
 30
0.0
 10
97.7642361140126
 20
137.7797783200929
 30
0.0
 10
98.1970953648405
 20
137.8980080437121
 30
0.0
 10
98.43101389772985
 20
137.9483029598159
 30
0.0
 10
98.91519763287248
 20
138.0281684967055
 30
0.0
 10
99.16451325882798
 20
138.0579096245052
 30
0.0
 10
99.67754578325571
 20
138.0980623660134
 30
0.0
 10
99.94283960616035
 20
138.1082606354232
 30
0.0
 10
100.4651742260301
 20
138.1083370938079
 30
0.0
 10
100.7249278885118
 20
138.0985460821989
 30
0.0
 10
101.2415397041571
 20
138.0584792434601
 30
0.0
 10
101.4939057446573
 20
138.0283820766033
 30
0.0
 10
101.9754308661902
 20
137.9491598667731
 30
0.0
 10
102.2082815983037
 20
137.8994023873097
 30
0.0
 10
102.6453714467425
 20
137.7803104448594
 30
0.0
 10
102.8466924353997
 20
137.7119951833121
 30
0.0
 10
103.2157784606996
 20
137.5565942163785
 30
0.0
 10
103.3847632117513
 20
137.4684418743116
 30
0.0
 10
103.6752192684105
 20
137.2780024851953
 30
0.0
 10
103.7982910797726
 20
137.1753779074962
 30
0.0
 10
103.9996273211946
 20
136.9537375608881
 30
0.0
 10
104.0768398671369
 20
136.8349834853406
 30
0.0
 10
104.1790434100369
 20
136.5903175464229
 30
0.0
 10
104.2052717614892
 20
136.4631608209744
 30
0.0
 10
104.2057481608064
 20
136.1987126751188
 30
0.0
 10
104.1800057483084
 20
136.0658119948617
 30
0.0
 10
104.0786949719445
 20
135.7990197213796
 30
0.0
 10
104.0018623325536
 20
135.663655819911
 30
0.0
 10
103.8014584933384
 20
135.4010760246085
 30
0.0
 10
103.6787869950464
 20
135.2741008648547
 30
0.0
 10
103.3888397058821
 20
135.0300214787723
 30
0.0
 10
103.2202687265169
 20
134.9125963540185
 30
0.0
 10
102.8519991324037
 20
134.69939989307
 30
0.0
 10
102.6509372751334
 20
134.6022257746451
 30
0.0
 10
102.2139063565485
 20
134.428870887431
 30
0.0
 10
101.9817581434189
 20
134.3544713357743
 30
0.0
 10
101.50074786192
 20
134.2340184562696
 30
0.0
 10
101.2486477790896
 20
134.1871600810036
 30
0.0
 10
100.7315782928306
 20
134.1242025840199
 30
0.0
 10
100.470056921838
 20
134.1082989747408
 30
0.0
 10
99.9409662445177
 20
134.1082989747408
 30
0.0
  0
ARC
  5
88
330
1F
100
AcDbEntity
  8
0
  6
Continuous
 62
     7
370
    15
100
AcDbCircle
 10
100.2026500767
 20
120.9599484117
 30
0.0
 40
4.110793026859896
100
AcDbArc
 50
19.1727796384
 51
159.4979304662
  0
SPLINE
  5
89
330
1F
100
AcDbEntity
  8
0
  6
Continuous
 62
     7
370
    15
100
AcDbSpline
210
0.0
220
0.0
230
1.0
 70
     8
 71
     3
 72
    10
 73
     6
 74
     0
 42
0.00000001
 43
0.00000001
 40
0.0
 40
0.0
 40
0.0
 40
0.0
 40
0.5
 40
0.5
 40
1.0
 40
1.0
 40
1.0
 40
1.0
 10
108.6898091148688
 20
135.4493355799616
 30
0.0
 10
108.5682688512003
 20
135.5240617471734
 30
0.0
 10
108.4669344908513
 20
135.6330067630902
 30
0.0
 10
108.3312955479629
 20
135.8834372438517
 30
0.0
 10
108.2955115831778
 20
136.0258566059507
 30
0.0
 10
108.2955115831778
 20
136.1689894309974
 30
0.0
  0
SPLINE
  5
8A
330
1F
100
AcDbEntity
  8
0
  6
Continuous
 62
     7
370
    15
100
AcDbSpline
210
0.0
220
0.0
230
1.0
 70
    24
 71
     3
 72
    12
 73
     8
 74
     0
 42
0.00000001
 43
0.00000001
 40
0.0
 40
0.0
 40
0.0
 40
0.0
 40
0.2500000000000037
 40
0.2500000000000037
 40
0.5000000000000074
 40
0.5000000000000074
 40
1.0
 40
1.0
 40
1.0
 40
1.0
 10
109.0955115831778
 20
135.4493355799616
 30
0.0
 10
109.0456349008604
 20
135.4493355799616
 30
0.0
 10
108.9976317074568
 20
135.4493355799616
 30
0.0
 10
108.9145836047448
 20
135.4493355799616
 30
0.0
 10
108.878454025277
 20
135.4493355799616
 30
0.0
 10
108.7825419943327
 20
135.4493355799616
 30
0.0
 10
108.7327833263639
 20
135.4493355799616
 30
0.0
 10
108.6898091148688
 20
135.4493355799616
 30
0.0
  0
SPLINE
  5
8B
330
1F
100
AcDbEntity
  8
0
  6
Continuous
 62
     7
370
    15
100
AcDbSpline
210
0.0
220
0.0
230
1.0
 70
    24
 71
     3
 72
    14
 73
    10
 74
     0
 42
0.00000001
 43
0.00000001
 40
0.0
 40
0.0
 40
0.0
 40
0.0
 40
0.1249999999999991
 40
0.1249999999999991
 40
0.2499999999999982
 40
0.2499999999999982
 40
0.4999999999999998
 40
0.4999999999999998
 40
1.0
 40
1.0
 40
1.0
 40
1.0
 10
109.0955115831778
 20
82.6493355799616
 30
0.0
 10
109.0270737352914
 20
82.6493355799616
 30
0.0
 10
108.9615236965263
 20
82.64933557996162
 30
0.0
 10
108.8570970571184
 20
82.64933557996162
 30
0.0
 10
108.8145524473569
 20
82.64933557996162
 30
0.0
 10
108.7019429868167
 20
82.6493355799616
 30
0.0
 10
108.6464039397972
 20
82.6493355799616
 30
0.0
 10
108.5037922443334
 20
82.6493355799616
 30
0.0
 10
108.4403868893377
 20
82.6493355799616
 30
0.0
 10
108.3931863855101
 20
82.6493355799616
 30
0.0
  0
SPLINE
  5
8C
330
1F
100
AcDbEntity
  8
0
  6
Continuous
 62
     7
370
    15
100
AcDbSpline
210
0.0
220
0.0
230
1.0
 70
     8
 71
     3
 72
    10
 73
     6
 74
     0
 42
0.00000001
 43
0.00000001
 40
0.0
 40
0.0
 40
0.0
 40
0.0
 40
0.5
 40
0.5
 40
1.0
 40
1.0
 40
1.0
 40
1.0
 10
108.2955115831778
 20
129.185202211423
 30
0.0
 10
108.2955115831778
 20
129.1374307034297
 30
0.0
 10
108.297672826775
 20
129.089720981368
 30
0.0
 10
108.3063442006352
 20
128.9944258638197
 30
0.0
 10
108.3128733835911
 20
128.9467332998531
 30
0.0
 10
108.321659206338
 20
128.8993355799616
 30
0.0
  0
SPLINE
  5
8D
330
1F
100
AcDbEntity
  8
0
  6
Continuous
 62
     7
370
    15
100
AcDbSpline
210
0.0
220
0.0
230
1.0
 70
    24
 71
     3
 72
    14
 73
    10
 74
     0
 42
0.00000001
 43
0.00000001
 40
0.0
 40
0.0
 40
0.0
 40
0.0
 40
0.4999999999999984
 40
0.4999999999999984
 40
0.7499999999999992
 40
0.7499999999999992
 40
0.8749999999999996
 40
0.8749999999999996
 40
1.0
 40
1.0
 40
1.0
 40
1.0
 10
112.0178367808455
 20
82.6493355799616
 30
0.0
 10
111.9710520757973
 20
82.64933557996162
 30
0.0
 10
111.9090008790177
 20
82.64933557996162
 30
0.0
 10
111.7656092404671
 20
82.6493355799616
 30
0.0
 10
111.7094655869159
 20
82.6493355799616
 30
0.0
 10
111.5965145647798
 20
82.64933557996162
 30
0.0
 10
111.5535138027416
 20
82.64933557996162
 30
0.0
 10
111.4494510924352
 20
82.6493355799616
 30
0.0
 10
111.3841188540782
 20
82.64933557996163
 30
0.0
 10
111.3155115831778
 20
82.6493355799616
 30
0.0
  0
SPLINE
  5
8E
330
1F
100
AcDbEntity
  8
0
  6
Continuous
 62
     7
370
    15
100
AcDbSpline
210
0.0
220
0.0
230
1.0
 70
    24
 71
     3
 72
    12
 73
     8
 74
     0
 42
0.00000001
 43
0.00000001
 40
0.0
 40
0.0
 40
0.0
 40
0.0
 40
0.5000000000000017
 40
0.5000000000000017
 40
0.7500000000000008
 40
0.7500000000000008
 40
1.0
 40
1.0
 40
1.0
 40
1.0
 10
111.7212140514869
 20
135.4493355799616
 30
0.0
 10
111.6781285018759
 20
135.4493355799616
 30
0.0
 10
111.6289763001266
 20
135.4493355799616
 30
0.0
 10
111.5325037058387
 20
135.4493355799616
 30
0.0
 10
111.4964021207041
 20
135.4493355799616
 30
0.0
 10
111.4132963628428
 20
135.4493355799616
 30
0.0
 10
111.3652997658765
 20
135.4493355799616
 30
0.0
 10
111.3155115831778
 20
135.4493355799616
 30
0.0
  0
SPLINE
  5
8F
330
1F
100
AcDbEntity
  8
0
  6
Continuous
 62
     7
370
    15
100
AcDbSpline
210
0.0
220
0.0
230
1.0
 70
     8
 71
     3
 72
    10
 73
     6
 74
     0
 42
0.00000001
 43
0.00000001
 40
0.0
 40
0.0
 40
0.0
 40
0.0
 40
0.5
 40
0.5
 40
1.0
 40
1.0
 40
1.0
 40
1.0
 10
112.1155115831778
 20
136.1689894309974
 30
0.0
 10
112.1155115831778
 20
136.0252193731794
 30
0.0
 10
112.0794625244589
 20
135.8828000106842
 30
0.0
 10
111.9439536636849
 20
135.632905717327
 30
0.0
 10
111.8440776705888
 20
135.5248753810788
 30
0.0
 10
111.7212140514868
 20
135.4493355799616
 30
0.0
  0
SPLINE
  5
90
330
1F
100
AcDbEntity
  8
0
  6
Continuous
 62
     7
370
    15
100
AcDbSpline
210
0.0
220
0.0
230
1.0
 70
     8
 71
     3
 72
    10
 73
     6
 74
     0
 42
0.00000001
 43
0.00000001
 40
0.0
 40
0.0
 40
0.0
 40
0.0
 40
0.5
 40
0.5
 40
1.0
 40
1.0
 40
1.0
 40
1.0
 10
112.0893639600177
 20
128.8993355799616
 30
0.0
 10
112.0980536029294
 20
128.9462144292798
 30
0.0
 10
112.1045926676799
 20
128.9936368946811
 30
0.0
 10
112.1133513020729
 20
129.0895736932679
 30
0.0
 10
112.1155115831778
 20
129.1374889812784
 30
0.0
 10
112.1155115831778
 20
129.185202211423
 30
0.0
  0
LINE
  5
91
330
1F
100
AcDbEntity
  8
0
  6
Continuous
 62
     7
370
    15
100
AcDbLine
 10
111.3155115832
 20
135.44933558
 30
0.0
 11
109.0955115832
 21
135.44933558
 31
0.0
  0
LINE
  5
92
330
1F
100
AcDbEntity
  8
0
  6
Continuous
 62
     7
370
    15
100
AcDbLine
 10
111.3155115832
 20
82.64933558
 30
0.0
 11
109.0955115832
 21
82.64933558
 31
0.0
  0
LINE
  5
93
330
1F
100
AcDbEntity
  8
0
  6
Continuous
 62
     7
370
    15
100
AcDbLine
 10
70.4055115832
 20
85.8208886862
 30
0.0
 11
70.4055115832
 21
87.0855980488
 31
0.0
  0
SPLINE
  5
94
330
1F
100
AcDbEntity
  8
0
  6
Continuous
 62
     7
370
    15
100
AcDbSpline
210
0.0
220
0.0
230
1.0
 70
     8
 71
     3
 72
    14
 73
    10
 74
     0
 42
0.00000001
 43
0.00000001
 40
0.0
 40
0.0
 40
0.0
 40
0.0
 40
0.25
 40
0.25
 40
0.5
 40
0.5
 40
0.75
 40
0.75
 40
1.0
 40
1.0
 40
1.0
 40
1.0
 10
69.62722446526212
 20
88.21618425640165
 30
0.0
 10
69.68385114046418
 20
88.1084868025648
 30
0.0
 10
69.77837380075391
 20
88.00569722084548
 30
0.0
 10
69.96141877631615
 20
87.80733990862532
 30
0.0
 10
70.05304535327086
 20
87.71128039994707
 30
0.0
 10
70.21189867096408
 20
87.52375135723783
 30
0.0
 10
70.27978927858578
 20
87.43234238445427
 30
0.0
 10
70.37670630429335
 20
87.25396616354412
 30
0.0
 10
70.4055115831784
 20
87.16674425729795
 30
0.0
 10
70.4055115831784
 20
87.0855980487637
 30
0.0
  0
SPLINE
  5
95
330
1F
100
AcDbEntity
  8
0
  6
Continuous
 62
     7
370
    15
100
AcDbSpline
210
0.0
220
0.0
230
1.0
 70
     8
 71
     3
 72
    14
 73
    10
 74
     0
 42
0.00000001
 43
0.00000001
 40
0.0
 40
0.0
 40
0.0
 40
0.0
 40
0.1249999999999975
 40
0.1249999999999975
 40
0.249999999999995
 40
0.249999999999995
 40
0.4999999999999953
 40
0.4999999999999953
 40
1.0
 40
1.0
 40
1.0
 40
1.0
 10
69.00551158317784
 20
88.66286611868098
 30
0.0
 10
69.05405599183499
 20
88.66861443196126
 30
0.0
 10
69.1069713466199
 20
88.66551354330502
 30
0.0
 10
69.20226669160296
 20
88.6433186991427
 30
0.0
 10
69.2425176888879
 20
88.62608647204684
 30
0.0
 10
69.34678770240086
 20
88.56975855559477
 30
0.0
 10
69.3971096775542
 20
88.52557220964897
 30
0.0
 10
69.52479262507957
 20
88.39456431079836
 30
0.0
 10
69.58087807214183
 20
88.30432979056806
 30
0.0
 10
69.62722446526357
 20
88.21618425640219
 30
0.0
  0
SPLINE
  5
96
330
1F
100
AcDbEntity
  8
0
  6
Continuous
 62
     7
370
    15
100
AcDbSpline
210
0.0
220
0.0
230
1.0
 70
     8
 71
     3
 72
     8
 73
     4
 74
     0
 42
0.00000001
 43
0.00000001
 40
0.0
 40
0.0
 40
0.0
 40
0.0
 40
1.0
 40
1.0
 40
1.0
 40
1.0
 10
66.7369864902316
 20
88.35302083209818
 30
0.0
 10
67.47156351671455
 20
88.47164584316714
 30
0.0
 10
68.2350385861102
 20
88.57163171530341
 30
0.0
 10
69.00551158317784
 20
88.66286611868097
 30
0.0
  0
SPLINE
  5
97
330
1F
100
AcDbEntity
  8
0
  6
Continuous
 62
     7
370
    15
100
AcDbSpline
210
0.0
220
0.0
230
1.0
 70
     8
 71
     3
 72
    14
 73
    10
 74
     0
 42
0.00000001
 43
0.00000001
 40
0.0
 40
0.0
 40
0.0
 40
0.0
 40
0.500000000000001
 40
0.500000000000001
 40
0.7500000000000004
 40
0.7500000000000004
 40
0.8750000000000003
 40
0.8750000000000003
 40
1.0
 40
1.0
 40
1.0
 40
1.0
 10
61.45551158317783
 20
88.17939781456653
 30
0.0
 10
62.34765771373141
 20
88.17867558836588
 30
0.0
 10
63.23763414952501
 20
88.18326179482335
 30
0.0
 10
64.5642293166006
 20
88.21098679921488
 30
0.0
 10
65.00507624509935
 20
88.22359333683904
 30
0.0
 10
65.66151648252176
 20
88.25460948484651
 30
0.0
 10
65.87953013911364
 20
88.26695265747328
 30
0.0
 10
66.31223899279642
 20
88.29997671263656
 30
0.0
 10
66.5275154579612
 20
88.31919387777499
 30
0.0
 10
66.73698649023162
 20
88.35302083209818
 30
0.0
  0
SPLINE
  5
98
330
1F
100
AcDbEntity
  8
0
  6
Continuous
 62
     7
370
    15
100
AcDbSpline
210
0.0
220
0.0
230
1.0
 70
     8
 71
     3
 72
     8
 73
     4
 74
     0
 42
0.00000001
 43
0.00000001
 40
0.0000005163856712
 40
0.0000005163856712
 40
0.0000005163856712
 40
0.0000005163856712
 40
0.000026289209185
 40
0.000026289209185
 40
0.000026289209185
 40
0.000026289209185
 10
61.44546665275914
 20
88.1893816876744
 30
0.0
 10
61.44879439097062
 20
88.18604744080157
 30
0.0
 10
61.45214284394991
 20
88.18271948352256
 30
0.0
 10
61.4555115831778
 20
88.17939781456651
 30
0.0
  0
SPLINE
  5
99
330
1F
100
AcDbEntity
  8
0
  6
Continuous
 62
     7
370
    15
100
AcDbSpline
210
0.0
220
0.0
230
1.0
 70
     8
 71
     3
 72
     8
 73
     4
 74
     0
 42
0.00000001
 43
0.00000001
 40
0.0000005099763573
 40
0.0000005099763573
 40
0.0000005099763573
 40
0.0000005099763573
 40
0.0000262827998699
 40
0.0000262827998699
 40
0.0000262827998699
 40
0.0000262827998699
 10
61.4555115831778
 20
129.9192733453567
 30
0.0
 10
61.45214284395008
 20
129.9159516764008
 30
0.0
 10
61.44879439097094
 20
129.9126237191219
 30
0.0
 10
61.44546665275961
 20
129.9092894722493
 30
0.0
  0
SPLINE
  5
9A
330
1F
100
AcDbEntity
  8
0
  6
Continuous
 62
     7
370
    15
100
AcDbSpline
210
0.0
220
0.0
230
1.0
 70
     8
 71
     3
 72
    10
 73
     6
 74
     0
 42
0.00000001
 43
0.00000001
 40
0.0
 40
0.0
 40
0.0
 40
0.0
 40
0.5
 40
0.5
 40
1.0
 40
1.0
 40
1.0
 40
1.0
 10
65.00551158317782
 20
129.8724229717893
 30
0.0
 10
64.41792603608724
 20
129.8934884920258
 30
0.0
 10
63.82717964262685
 20
129.904246977898
 30
0.0
 10
62.643160477328
 20
129.9176117584337
 30
0.0
 10
62.04974648912254
 20
129.9197544010982
 30
0.0
 10
61.45551158317783
 20
129.9192733453567
 30
0.0
  0
SPLINE
  5
9B
330
1F
100
AcDbEntity
  8
0
  6
Continuous
 62
     7
370
    15
100
AcDbSpline
210
0.0
220
0.0
230
1.0
 70
     8
 71
     3
 72
    18
 73
    14
 74
     0
 42
0.00000001
 43
0.00000001
 40
0.0
 40
0.0
 40
0.0
 40
0.0
 40
0.2500000000000009
 40
0.2500000000000009
 40
0.500000000000001
 40
0.500000000000001
 40
0.7500000000000011
 40
0.7500000000000011
 40
0.875000000000001
 40
0.875000000000001
 40
0.9375000000000006
 40
0.9375000000000006
 40
1.0
 40
1.0
 40
1.0
 40
1.0
 10
66.40551158317784
 20
130.8934432523246
 30
0.0
 10
66.40551158317784
 20
130.8102363434674
 30
0.0
 10
66.36966248323957
 20
130.7214996881538
 30
0.0
 10
66.24479074720566
 20
130.5393744975936
 30
0.0
 10
66.15439032955777
 20
130.444244448967
 30
0.0
 10
65.9321476748156
 20
130.2550629398426
 30
0.0
 10
65.80238288836985
 20
130.1601177717479
 30
0.0
 10
65.56174543105831
 20
130.021839064168
 30
0.0
 10
65.47397813292088
 20
129.9761286308656
 30
0.0
 10
65.31945404571407
 20
129.9183053256441
 30
0.0
 10
65.26284315965931
 20
129.9005905616063
 30
0.0
 10
65.13879912875271
 20
129.8760512583734
 30
0.0
 10
65.07108445373443
 20
129.8700721198351
 30
0.0
 10
65.00551158317782
 20
129.8724229717893
 30
0.0
  0
LINE
  5
9C
330
1F
100
AcDbEntity
  8
0
  6
Continuous
 62
     7
370
    15
100
AcDbLine
 10
66.4055115832
 20
130.8934432523
 30
0.0
 11
66.4055115832
 21
132.0773816721
 31
0.0
  0
LINE
  5
9D
330
1F
100
AcDbEntity
  8
0
  6
Continuous
 62
     7
370
    15
100
AcDbLine
 10
90.2055115832
 20
84.8289047182
 30
0.0
 11
90.2055115832
 21
133.2697664417
 31
0.0
  0
SPLINE
  5
9E
330
1F
100
AcDbEntity
  8
0
  6
Continuous
 62
     7
370
    15
100
AcDbSpline
210
0.0
220
0.0
230
1.0
 70
     8
 71
     3
 72
    18
 73
    14
 74
     0
 42
0.00000001
 43
0.00000001
 40
0.0
 40
0.0
 40
0.0
 40
0.0
 40
0.0010671296451833
 40
0.1270947795731636
 40
0.252405345751277
 40
0.3766468878987096
 40
0.4391415999051428
 40
0.5008278021400407
 40
0.562425570880851
 40
0.6253162439161144
 40
0.7499985144706706
 40
0.8752758950341252
 40
0.9999999999999999
 40
0.9999999999999999
 40
0.9999999999999999
 40
0.9999999999999999
 10
78.97581242325052
 20
85.39199655704526
 30
0.0
 10
78.97490059061201
 20
85.39188177850862
 30
0.0
 10
78.86630163197505
 20
85.37821169364274
 30
0.0
 10
79.2539426996249
 20
85.42913119425829
 30
0.0
 10
80.11990738146004
 20
85.52871436730479
 30
0.0
 10
81.32031130622987
 20
85.59783825044848
 30
0.0
 10
82.37788722071859
 20
85.60179047958728
 30
0.0
 10
83.20502130762475
 20
85.57430154113227
 30
0.0
 10
84.03029317525902
 20
85.51576136472447
 30
0.0
 10
85.08465839525898
 20
85.4022402049889
 30
0.0
 10
86.2464946767343
 20
85.21908938074027
 30
0.0
 10
87.19872945811788
 20
85.01448617110535
 30
0.0
 10
87.32443451892574
 20
84.98520082032928
 30
0.0
 10
87.38714795107094
 20
84.97059055048858
 30
0.0
  0
SPLINE
  5
9F
330
1F
100
AcDbEntity
  8
0
  6
Continuous
 62
     7
370
    15
100
AcDbSpline
210
0.0
220
0.0
230
1.0
 70
     8
 71
     3
 72
    18
 73
    14
 74
     0
 42
0.00000001
 43
0.00000001
 40
0.0
 40
0.0
 40
0.0
 40
0.0
 40
0.1248907792210109
 40
0.2505384020341698
 40
0.3748721840485282
 40
0.437490765334968
 40
0.4990776265894272
 40
0.5607931536353509
 40
0.6233901338664932
 40
0.7478191038417344
 40
0.8731940995934958
 40
0.9991614644710078
 40
0.9999999999999999
 40
0.9999999999999999
 40
0.9999999999999999
 40
0.9999999999999999
 10
87.38692918554703
 20
133.1280154288802
 30
0.0
 10
87.3231884328354
 20
133.1133541362822
 30
0.0
 10
87.1953206556589
 20
133.0839427030107
 30
0.0
 10
86.24332143459851
 20
132.8789895989483
 30
0.0
 10
85.08277772939523
 20
132.6957258231373
 30
0.0
 10
84.03051327730712
 20
132.5826982308884
 30
0.0
 10
83.20628616223954
 20
132.5244345833471
 30
0.0
 10
82.3786823927191
 20
132.4969881953428
 30
0.0
 10
81.31986520023405
 20
132.500973001272
 30
0.0
 10
80.11764650219905
 20
132.5700624776534
 30
0.0
 10
79.25246256251174
 20
132.66968869421
 30
0.0
 10
78.86632214098152
 20
132.7205047678106
 30
0.0
 10
78.97439368176188
 20
132.7068325877475
 30
0.0
 10
78.97510833168216
 20
132.7067421770591
 30
0.0
  0
SPLINE
  5
A0
330
1F
100
AcDbEntity
  8
0
  6
Continuous
 62
     7
370
    15
100
AcDbSpline
210
0.0
220
0.0
230
1.0
 70
     8
 71
     3
 72
    10
 73
     6
 74
     0
 42
0.00000001
 43
0.00000001
 40
0.0
 40
0.0
 40
0.0
 40
0.0
 40
0.5
 40
0.5
 40
1.0
 40
1.0
 40
1.0
 40
1.0
 10
60.30551158317716
 20
89.3586578334841
 30
0.0
 10
60.30551158317712
 20
89.32978356862472
 30
0.0
 10
60.31570549293823
 20
89.31228001224618
 30
0.0
 10
60.34245609774639
 20
89.31174844941845
 30
0.0
 10
60.3593435496777
 20
89.329415906598
 30
0.0
 10
60.36817495790122
 20
89.37478303518087
 30
0.0
  0
LINE
  5
A1
330
1F
100
AcDbEntity
  8
0
  6
Continuous
 62
     7
370
    15
100
AcDbLine
 10
60.3055115832
 20
89.3586578335
 30
0.0
 11
60.3055115832
 21
128.7400133264
 31
0.0
  0
SPLINE
  5
A2
330
1F
100
AcDbEntity
  8
0
  6
Continuous
 62
     7
370
    15
100
AcDbSpline
210
0.0
220
0.0
230
1.0
 70
     8
 71
     3
 72
    10
 73
     6
 74
     0
 42
0.00000001
 43
0.00000001
 40
0.0
 40
0.0
 40
0.0
 40
0.0
 40
0.5
 40
0.5
 40
1.0
 40
1.0
 40
1.0
 40
1.0
 10
60.36817495790122
 20
128.7238881247423
 30
0.0
 10
60.35927066879248
 20
128.7696296439555
 30
0.0
 10
60.34275528859951
 20
128.7868204834245
 30
0.0
 10
60.31564734253789
 20
128.7864972064888
 30
0.0
 10
60.30551158317785
 20
128.7686196641923
 30
0.0
 10
60.30551158317783
 20
128.7400133264397
 30
0.0
  0
SPLINE
  5
A3
330
1F
100
AcDbEntity
  8
0
  6
Continuous
 62
     7
370
    15
100
AcDbSpline
210
0.0
220
0.0
230
1.0
 70
     8
 71
     3
 72
    26
 73
    22
 74
     0
 42
0.00000001
 43
0.00000001
 40
0.0
 40
0.0
 40
0.0
 40
0.0
 40
0.2500000000000165
 40
0.2500000000000165
 40
0.3750000000000256
 40
0.3750000000000256
 40
0.4375000000000291
 40
0.4375000000000291
 40
0.4687500000000291
 40
0.4687500000000291
 40
0.5000000000000292
 40
0.5000000000000292
 40
0.5312500000000293
 40
0.5312500000000293
 40
0.5625000000000293
 40
0.5625000000000293
 40
0.625000000000026
 40
0.625000000000026
 40
0.7500000000000173
 40
0.7500000000000173
 40
1.0
 40
1.0
 40
1.0
 40
1.0
 10
61.12966522928235
 20
129.4394549135594
 30
0.0
 10
61.09106470641387
 20
129.321680217204
 30
0.0
 10
61.04476770385961
 20
129.1972905310421
 30
0.0
 10
60.95082835542567
 20
128.9920711986886
 30
0.0
 10
60.91551688851222
 20
128.9204983322421
 30
0.0
 10
60.84933691276656
 20
128.8045450996417
 30
0.0
 10
60.82479854609832
 20
128.7639605648315
 30
0.0
 10
60.78142580054453
 20
128.6998188829597
 30
0.0
 10
60.76591739911932
 20
128.6779524576746
 30
0.0
 10
60.73087475453232
 20
128.6323581893315
 30
0.0
 10
60.71132446381254
 20
128.6086878983641
 30
0.0
 10
60.66939718344194
 20
128.5640713390241
 30
0.0
 10
60.6467450732103
 20
128.5431913265062
 30
0.0
 10
60.60577135912365
 20
128.5123179127553
 30
0.0
 10
60.58817205922823
 20
128.5024790429229
 30
0.0
 10
60.54354507337209
 20
128.4834894272268
 30
0.0
 10
60.52298585071875
 20
128.4831651025733
 30
0.0
 10
60.47186041122209
 20
128.4923885434496
 30
0.0
 10
60.45094899823356
 20
128.5136354396665
 30
0.0
 10
60.39949909067262
 20
128.5876043184973
 30
0.0
 10
60.38183379136807
 20
128.6537224118121
 30
0.0
 10
60.36817495790122
 20
128.7238881247423
 30
0.0
  0
SPLINE
  5
A4
330
1F
100
AcDbEntity
  8
0
  6
Continuous
 62
     7
370
    15
100
AcDbSpline
210
0.0
220
0.0
230
1.0
 70
     8
 71
     3
 72
    10
 73
     6
 74
     0
 42
0.00000001
 43
0.00000001
 40
0.0
 40
0.0
 40
0.0
 40
0.0
 40
0.5
 40
0.5
 40
1.0
 40
1.0
 40
1.0
 40
1.0
 10
61.44546665275963
 20
129.9092894722492
 30
0.0
 10
61.3779073978414
 20
129.8415980794395
 30
0.0
 10
61.3142707425049
 20
129.7668909146859
 30
0.0
 10
61.20404998793303
 20
129.6079247822592
 30
0.0
 10
61.15723369471041
 20
129.5235695162512
 30
0.0
 10
61.12966522928235
 20
129.4394549135594
 30
0.0
  0
SPLINE
  5
A5
330
1F
100
AcDbEntity
  8
0
  6
Continuous
 62
     7
370
    15
100
AcDbSpline
210
0.0
220
0.0
230
1.0
 70
     8
 71
     3
 72
    10
 73
     6
 74
     0
 42
0.00000001
 43
0.00000001
 40
0.0
 40
0.0
 40
0.0
 40
0.0
 40
0.5
 40
0.5
 40
1.0
 40
1.0
 40
1.0
 40
1.0
 10
61.12966522928237
 20
88.65921624636364
 30
0.0
 10
61.15714264403559
 20
88.57537944989805
 30
0.0
 10
61.20385127432325
 20
88.4910689623112
 30
0.0
 10
61.31412973706519
 20
88.33194773182834
 30
0.0
 10
61.37801727567683
 20
88.25696298774027
 30
0.0
 10
61.44546665275917
 20
88.1893816876744
 30
0.0
  0
SPLINE
  5
A6
330
1F
100
AcDbEntity
  8
0
  6
Continuous
 62
     7
370
    15
100
AcDbSpline
210
0.0
220
0.0
230
1.0
 70
     8
 71
     3
 72
    24
 73
    20
 74
     0
 42
0.00000001
 43
0.00000001
 40
0.0
 40
0.0
 40
0.0
 40
0.0
 40
0.25
 40
0.25
 40
0.374999999999999
 40
0.374999999999999
 40
0.4374999999999993
 40
0.4374999999999993
 40
0.4687499999999994
 40
0.4687499999999994
 40
0.4999999999999995
 40
0.4999999999999995
 40
0.5624999999999971
 40
0.5624999999999971
 40
0.6249999999999947
 40
0.6249999999999947
 40
0.7499999999999947
 40
0.7499999999999947
 40
1.0
 40
1.0
 40
1.0
 40
1.0
 10
60.36817495790122
 20
89.37478303518087
 30
0.0
 10
60.38192807657147
 20
89.44543309317116
 30
0.0
 10
60.39970064397733
 20
89.51203120593607
 30
0.0
 10
60.4519517355327
 20
89.58612922616928
 30
0.0
 10
60.47298681111424
 20
89.60738703333084
 30
0.0
 10
60.52588721874269
 20
89.61553295947708
 30
0.0
 10
60.5469928916206
 20
89.61459315608131
 30
0.0
 10
60.59304506029856
 20
89.59357716450396
 30
0.0
 10
60.61141553228196
 20
89.58266835839635
 30
0.0
 10
60.65296716734767
 20
89.55003344744897
 30
0.0
 10
60.67553384010457
 20
89.52854146707762
 30
0.0
 10
60.73831485656459
 20
89.4600755234913
 30
0.0
 10
60.77144461753248
 20
89.4140010652862
 30
0.0
 10
60.8283623040175
 20
89.32899317695153
 30
0.0
 10
60.85254832952128
 20
89.28871287577014
 30
0.0
 10
60.91775627990103
 20
89.1737766493042
 30
0.0
 10
60.95247234009227
 20
89.1031936641572
 30
0.0
 10
61.04568761042314
 20
88.8989879050786
 30
0.0
 10
61.09136014578382
 20
88.77608952275123
 30
0.0
 10
61.12966522928237
 20
88.65921624636367
 30
0.0
  0
LINE
  5
A7
330
1F
100
AcDbEntity
  8
0
  6
Continuous
 62
     7
370
    15
100
AcDbLine
 10
117.5555115832
 20
139.5165310531
 30
0.0
 11
113.5974444147
 21
139.5165310531
 31
0.0
  0
LINE
  5
A8
330
1F
100
AcDbEntity
  8
0
  6
Continuous
 62
     7
370
    15
100
AcDbLine
 10
113.5974444147
 20
133.5080252423
 30
0.0
 11
117.5555115832
 21
133.5080252423
 31
0.0
  0
LINE
  5
A9
330
1F
100
AcDbEntity
  8
0
  6
Continuous
 62
     7
370
    15
100
AcDbLine
 10
113.5974444147
 20
133.5080252423
 30
0.0
 11
113.5974444147
 21
139.5165310531
 31
0.0
  0
SPLINE
  5
AA
330
1F
100
AcDbEntity
  8
0
  6
Continuous
 62
     7
370
    15
100
AcDbSpline
210
0.0
220
0.0
230
1.0
 70
     8
 71
     3
 72
    10
 73
     6
 74
     0
 42
0.00000001
 43
0.00000001
 40
0.0
 40
0.0
 40
0.0
 40
0.0
 40
0.5
 40
0.5
 40
1.0
 40
1.0
 40
1.0
 40
1.0
 10
118.1555115831778
 20
138.8957759037255
 30
0.0
 10
118.1555115831778
 20
139.0561811700763
 30
0.0
 10
118.093273752071
 20
139.2152429830649
 30
0.0
 10
117.8741388283284
 20
139.4461554486952
 30
0.0
 10
117.7165501333365
 20
139.5165310531259
 30
0.0
 10
117.5555115831778
 20
139.5165310531258
 30
0.0
  0
SPLINE
  5
AB
330
1F
100
AcDbEntity
  8
0
  6
Continuous
 62
     7
370
    15
100
AcDbSpline
210
0.0
220
0.0
230
1.0
 70
     8
 71
     3
 72
    12
 73
     8
 74
     0
 42
0.00000001
 43
0.00000001
 40
0.0
 40
0.0
 40
0.0
 40
0.0
 40
0.25
 40
0.25
 40
0.5
 40
0.5
 40
1.0
 40
1.0
 40
1.0
 40
1.0
 10
117.5555115831778
 20
133.508025242329
 30
0.0
 10
117.6467113050035
 20
133.508025242329
 30
0.0
 10
117.7373063141395
 20
133.4798055437412
 30
0.0
 10
117.8907190405861
 20
133.3853625364931
 30
0.0
 10
117.9559279079099
 20
133.3190755597877
 30
0.0
 10
118.1087124372498
 20
133.0934507364994
 30
0.0
 10
118.1555115831778
 20
132.9110244734669
 30
0.0
 10
118.1555115831778
 20
132.73028784122
 30
0.0
  0
LINE
  5
AC
330
1F
100
AcDbEntity
  8
0
  6
Continuous
 62
     7
370
    15
100
AcDbLine
 10
118.1555115832
 20
132.7302878412
 30
0.0
 11
118.1555115832
 21
138.8957759037
 31
0.0
  0
SPLINE
  5
AD
330
1F
100
AcDbEntity
  8
0
  6
Continuous
 62
     7
370
    15
100
AcDbSpline
210
0.0
220
0.0
230
1.0
 70
     8
 71
     3
 72
     8
 73
     4
 74
     0
 42
0.00000001
 43
0.00000001
 40
0.0
 40
0.0
 40
0.0
 40
0.0
 40
1.0
 40
1.0
 40
1.0
 40
1.0
 10
113.5974444146669
 20
139.5165310531259
 30
0.0
 10
113.1023043853026
 20
138.6298514049456
 30
0.0
 10
112.6082216800236
 20
137.7425887692596
 30
0.0
 10
112.1155115831778
 20
136.8545697711332
 30
0.0
  0
SPLINE
  5
AE
330
1F
100
AcDbEntity
  8
0
  6
Continuous
 62
     7
370
    15
100
AcDbSpline
210
0.0
220
0.0
230
1.0
 70
     8
 71
     3
 72
     8
 73
     4
 74
     0
 42
0.00000001
 43
0.00000001
 40
0.0
 40
0.0
 40
0.0
 40
0.0
 40
1.0
 40
1.0
 40
1.0
 40
1.0
 10
112.1155115831778
 20
130.0994792475449
 30
0.0
 10
112.5947897337677
 20
131.2404904773975
 30
0.0
 10
113.0903575729076
 20
132.3768748881654
 30
0.0
 10
113.5974444146669
 20
133.508025242329
 30
0.0
  0
LINE
  5
AF
330
1F
100
AcDbEntity
  8
0
  6
Continuous
 62
     7
370
    15
100
AcDbLine
 10
112.1155115832
 20
130.0994792475
 30
0.0
 11
112.1155115832
 21
136.8545697711
 31
0.0
  0
SPLINE
  5
B0
330
1F
100
AcDbEntity
  8
0
  6
Continuous
 62
     7
370
    15
100
AcDbSpline
210
0.0
220
0.0
230
1.0
 70
     8
 71
     3
 72
     8
 73
     4
 74
     0
 42
0.00000001
 43
0.00000001
 40
0.0
 40
0.0
 40
0.0
 40
0.0
 40
1.0
 40
1.0
 40
1.0
 40
1.0
 10
108.2955115831778
 20
136.8545697711332
 30
0.0
 10
107.8028014863321
 20
137.7425887692596
 30
0.0
 10
107.3087187810531
 20
138.6298514049456
 30
0.0
 10
106.8135787516888
 20
139.5165310531258
 30
0.0
  0
LINE
  5
B1
330
1F
100
AcDbEntity
  8
0
  6
Continuous
 62
     7
370
    15
100
AcDbLine
 10
108.2955115832
 20
130.0994792475
 30
0.0
 11
108.2955115832
 21
136.8545697711
 31
0.0
  0
SPLINE
  5
B2
330
1F
100
AcDbEntity
  8
0
  6
Continuous
 62
     7
370
    15
100
AcDbSpline
210
0.0
220
0.0
230
1.0
 70
     8
 71
     3
 72
     8
 73
     4
 74
     0
 42
0.00000001
 43
0.00000001
 40
0.0
 40
0.0
 40
0.0
 40
0.0
 40
1.0
 40
1.0
 40
1.0
 40
1.0
 10
106.8135787516888
 20
133.508025242329
 30
0.0
 10
107.3206655934481
 20
132.3768748881654
 30
0.0
 10
107.816233432588
 20
131.2404904773975
 30
0.0
 10
108.2955115831778
 20
130.0994792475449
 30
0.0
  0
LINE
  5
B3
330
1F
100
AcDbEntity
  8
0
  6
Continuous
 62
     7
370
    15
100
AcDbLine
 10
108.2955115832
 20
130.0994792475
 30
0.0
 11
108.2955115832
 21
129.1852022114
 31
0.0
  0
LINE
  5
B4
330
1F
100
AcDbEntity
  8
0
  6
Continuous
 62
     7
370
    15
100
AcDbLine
 10
112.1155115832
 20
129.1852022114
 30
0.0
 11
112.1155115832
 21
130.0994792475
 31
0.0
  0
LINE
  5
B5
330
1F
100
AcDbEntity
  8
0
  6
Continuous
 62
     7
370
    15
100
AcDbLine
 10
118.1555115832
 20
132.7302878412
 30
0.0
 11
118.1555115832
 21
128.89933558
 31
0.0
  0
ARC
  5
B6
330
1F
100
AcDbEntity
  8
0
  6
Continuous
 62
     7
370
    15
100
AcDbCircle
 10
100.2055930706
 20
127.8180651291
 30
0.0
 40
7.189591690269697
100
AcDbArc
 50
70.6423071679
 51
109.3836548569
  0
SPLINE
  5
B7
330
1F
100
AcDbEntity
  8
0
  6
Continuous
 62
     7
370
    15
100
AcDbSpline
210
0.0
220
0.0
230
1.0
 70
     8
 71
     3
 72
    39
 73
    35
 74
     0
 42
0.00000001
 43
0.00000001
 40
-0.0928043551746535
 40
-0.0617048467358927
 40
-0.0305245298602012
 40
0.0
 40
0.0305379537712853
 40
0.0617396733444296
 40
0.0928511562854638
 40
0.123958163581418
 40
0.1551451717980112
 40
0.1867314500165388
 40
0.2185162744034057
 40
0.2499298363871183
 40
0.2813650559765216
 40
0.3132232878484092
 40
0.3448819419199303
 40
0.3761241187089758
 40
0.4072203283784422
 40
0.4382883502616579
 40
0.4694286048547535
 40
0.5000111438430812
 40
0.5305819932532179
 40
0.5617670451414559
 40
0.592846845094861
 40
0.6239637556317793
 40
0.6551794805642863
 40
0.6868189513443813
 40
0.7186229856211321
 40
0.7500614968638412
 40
0.7814671780290676
 40
0.8132975981519392
 40
0.8449019848421468
 40
0.8761138750537029
 40
0.9071956448253465
 40
0.9382951532641073
 40
0.9694754701397988
 40
1.0
 40
1.030537953771285
 40
1.06173967334443
 40
1.092851156285464
 10
233.664521999726
 20
104.1101293792344
 30
0.0
 10
232.7053716279729
 20
104.0120435655016
 30
0.0
 10
231.7460009578056
 20
104.1101940768577
 30
0.0
 10
230.8255686984269
 20
104.4047682968444
 30
0.0
 10
229.9752877513955
 20
104.8671669099977
 30
0.0
 10
229.238121888919
 20
105.490098213273
 30
0.0
 10
228.6325030348481
 20
106.2478999461738
 30
0.0
 10
228.1838393748287
 20
107.118961112523
 30
0.0
 10
227.8987421900438
 20
108.06345518906
 30
0.0
 10
227.8043213067784
 20
109.0472997760452
 30
0.0
 10
227.8993201109008
 20
110.0318397361641
 30
0.0
 10
228.1847779554166
 20
110.978009417369
 30
0.0
 10
228.6336932841309
 20
111.8512748265911
 30
0.0
 10
229.2397450005622
 20
112.6102893893744
 30
0.0
 10
229.9766716999771
 20
113.2334665369057
 30
0.0
 10
230.8258314762531
 20
113.695501628196
 30
0.0
 10
231.7459995405416
 20
113.9890381420151
 30
0.0
 10
232.7056975155876
 20
114.0864707169611
 30
0.0
 10
233.6658390088766
 20
113.9887731096371
 30
0.0
 10
234.5863265138083
 20
113.6947203293079
 30
0.0
 10
235.4361396701399
 20
113.2322275746054
 30
0.0
 10
236.1728541043025
 20
112.6086616180539
 30
0.0
 10
236.7784022648349
 20
111.8496039959502
 30
0.0
 10
237.2267436078824
 20
110.977187461627
 30
0.0
 10
237.5116554664384
 20
110.031631438987
 30
0.0
 10
237.606690458272
 20
109.0477300265104
 30
0.0
 10
237.5123790648935
 20
108.0634324307636
 30
0.0
 10
237.2268940068263
 20
107.1184340531582
 30
0.0
 10
236.7777888206747
 20
106.2465785943771
 30
0.0
 10
236.1717183049219
 20
105.4888691481401
 30
0.0
 10
235.4343630130882
 20
104.8663787407679
 30
0.0
 10
234.5845089422458
 20
104.4044775755822
 30
0.0
 10
233.664521999726
 20
104.1101293792344
 30
0.0
 10
232.7053716279729
 20
104.0120435655016
 30
0.0
 10
231.7460009578056
 20
104.1101940768577
 30
0.0
  0
LINE
  5
B8
330
1F
100
AcDbEntity
  8
0
  6
Continuous
 62
     7
370
    15
100
AcDbLine
 10
241.4829769806
 20
91.54933558
 30
0.0
 11
241.4829769806
 21
126.54933558
 31
0.0
  0
SPLINE
  5
B9
330
1F
100
AcDbEntity
  8
0
  6
Continuous
 62
     7
370
    15
100
AcDbSpline
210
0.0
220
0.0
230
1.0
 70
     8
 71
     3
 72
    33
 73
    29
 74
     0
 42
0.00000001
 43
0.00000001
 40
0.0
 40
0.0
 40
0.0
 40
0.0
 40
0.0155464664596987
 40
0.0607506164965642
 40
0.10255827710105
 40
0.1454326850581689
 40
0.1902582075945273
 40
0.236102517212206
 40
0.2869626459629647
 40
0.3389825648899953
 40
0.3964391497715186
 40
0.4553323600213038
 40
0.4861728564024799
 40
0.5172192647867548
 40
0.548914479088164
 40
0.5808344642546278
 40
0.6122259420985223
 40
0.643843031620565
 40
0.6761943051043132
 40
0.7088110627199028
 40
0.739032574723276
 40
0.7694974066219777
 40
0.800792878789535
 40
0.8324066568067604
 40
0.8779170554603245
 40
0.9246889604846841
 40
0.9702375774836556
 40
0.9999999999999999
 40
0.9999999999999999
 40
0.9999999999999999
 40
0.9999999999999999
 10
167.6465695808002
 20
126.548009424247
 30
0.0
 10
167.648962803439
 20
126.5483642928354
 30
0.0
 10
167.658314751748
 20
126.5497510057311
 30
0.0
 10
167.5927895078692
 20
126.540019593419
 30
0.0
 10
167.456519788466
 20
126.5203699377219
 30
0.0
 10
167.2516341720408
 20
126.4921583024287
 30
0.0
 10
166.982339470104
 20
126.4576421304366
 30
0.0
 10
166.6420045658126
 20
126.4181886826233
 30
0.0
 10
166.2345409695456
 20
126.3772381821593
 30
0.0
 10
165.7510036253101
 20
126.3377774724556
 30
0.0
 10
165.2068885152016
 20
126.3054404567681
 30
0.0
 10
164.7097330359145
 20
126.2885882936347
 30
0.0
 10
164.2965577486375
 20
126.2830733585921
 30
0.0
 10
163.9754013034016
 20
126.2833302779749
 30
0.0
 10
163.6517744791311
 20
126.2882382356159
 30
0.0
 10
163.3304819950887
 20
126.2977421477096
 30
0.0
 10
163.0152687883485
 20
126.311499738605
 30
0.0
 10
162.7067329982838
 20
126.3291613339543
 30
0.0
 10
162.4050265330924
 20
126.3504374705184
 30
0.0
 10
162.1211036556073
 20
126.3740945378874
 30
0.0
 10
161.8582180154877
 20
126.3990411791043
 30
0.0
 10
161.6162168660302
 20
126.4245234498496
 30
0.0
 10
161.391020016237
 20
126.4504201558158
 30
0.0
 10
161.1576458949502
 20
126.4793103591043
 30
0.0
 10
160.9344144445401
 20
126.5091269398514
 30
0.0
 10
160.7597687187757
 20
126.5339333939848
 30
0.0
 10
160.6636944564679
 20
126.5481160743784
 30
0.0
 10
160.665364911882
 20
126.5478727963276
 30
0.0
 10
160.6660250647646
 20
126.547776654458
 30
0.0
  0
LINE
  5
BA
330
1F
100
AcDbEntity
  8
0
  6
Continuous
 62
     7
370
    15
100
AcDbLine
 10
161.7352450436
 20
126.4123872643
 30
0.0
 11
161.8169209393
 21
126.4036379921
 31
0.0
  0
SPLINE
  5
BB
330
1F
100
AcDbEntity
  8
0
  6
Continuous
 62
     7
370
    15
100
AcDbSpline
210
0.0
220
0.0
230
1.0
 70
     8
 71
     3
 72
    68
 73
    64
 74
     0
 42
0.00000001
 43
0.00000001
 40
-0.0625
 40
-0.0625
 40
0.0
 40
0.0
 40
0.03125
 40
0.03125
 40
0.0625
 40
0.0625
 40
0.09375
 40
0.09375
 40
0.125
 40
0.125
 40
0.15625
 40
0.15625
 40
0.1875
 40
0.1875
 40
0.21875
 40
0.21875
 40
0.25
 40
0.25
 40
0.28125
 40
0.28125
 40
0.3125
 40
0.3125
 40
0.34375
 40
0.34375
 40
0.375
 40
0.375
 40
0.40625
 40
0.40625
 40
0.4375
 40
0.4375
 40
0.46875
 40
0.46875
 40
0.5
 40
0.5
 40
0.53125
 40
0.53125
 40
0.5625
 40
0.5625
 40
0.59375
 40
0.59375
 40
0.625
 40
0.625
 40
0.65625
 40
0.65625
 40
0.6875
 40
0.6875
 40
0.71875
 40
0.71875
 40
0.75
 40
0.75
 40
0.78125
 40
0.78125
 40
0.8125
 40
0.8125
 40
0.84375
 40
0.84375
 40
0.875
 40
0.875
 40
0.90625
 40
0.90625
 40
0.9375
 40
0.9375
 40
1.0
 40
1.0
 40
1.03125
 40
1.03125
 10
161.4778544453675
 20
111.0370812065831
 30
0.0
 10
161.9864541881999
 20
111.4356879838846
 30
0.0
 10
162.1657136190283
 20
111.5506719477549
 30
0.0
 10
162.5417947330805
 20
111.7485937451192
 30
0.0
 10
162.7396702126784
 20
111.8318181688969
 30
0.0
 10
163.1487041287653
 20
111.9645281801469
 30
0.0
 10
163.3564332449228
 20
112.013097945974
 30
0.0
 10
163.7780173076277
 20
112.0764628171978
 30
0.0
 10
163.9935085150199
 20
112.0911935586167
 30
0.0
 10
164.4230032653605
 20
112.0854835669176
 30
0.0
 10
164.6351285630786
 20
112.065363741228
 30
0.0
 10
165.054233999029
 20
111.9911855239688
 30
0.0
 10
165.262691624723
 20
111.9365969204923
 30
0.0
 10
165.6671985084584
 20
111.7931409867024
 30
0.0
 10
165.8607823081346
 20
111.7054518913655
 30
0.0
 10
166.2304726480148
 20
111.4976834573407
 30
0.0
 10
166.4077324741215
 20
111.3766916079804
 30
0.0
 10
166.737511664241
 20
111.1020764428869
 30
0.0
 10
166.8868374996219
 20
110.9514619083761
 30
0.0
 10
167.1530459839097
 20
110.6222929930805
 30
0.0
 10
167.2711165356091
 20
110.441427588423
 30
0.0
 10
167.4633541707903
 20
110.0575558347023
 30
0.0
 10
167.5364000858805
 20
109.858058264655
 30
0.0
 10
167.6342141529798
 20
109.4431827130258
 30
0.0
 10
167.6583593898156
 20
109.2251167144178
 30
0.0
 10
167.6521081800178
 20
108.7975486036652
 30
0.0
 10
167.6225460705542
 20
108.5841561158836
 30
0.0
 10
167.511616073422
 20
108.1665159677387
 30
0.0
 10
167.4321440438956
 20
107.9679618565009
 30
0.0
 10
167.2293236219706
 20
107.5895403695964
 30
0.0
 10
167.1060056704302
 20
107.4110003261746
 30
0.0
 10
166.8287616684404
 20
107.0860584754402
 30
0.0
 10
166.6721017509608
 20
106.936375166257
 30
0.0
 10
166.3356754032693
 20
106.6707263261924
 30
0.0
 10
166.1565900843152
 20
106.5547054159567
 30
0.0
 10
165.7780083503761
 20
106.3539681974778
 30
0.0
 10
165.5781151365242
 20
106.2695647924499
 30
0.0
 10
165.1720491350312
 20
106.1368026604749
 30
0.0
 10
164.9642027051173
 20
106.0874588658868
 30
0.0
 10
164.5388924301153
 20
106.0226680474643
 30
0.0
 10
164.3229593725304
 20
106.0077751963151
 30
0.0
 10
163.8961132293454
 20
106.0127215655186
 30
0.0
 10
163.68352094785
 20
106.0322687623849
 30
0.0
 10
163.2600481805782
 20
106.1066055710446
 30
0.0
 10
163.0507509433204
 20
106.1614654902137
 30
0.0
 10
162.6492666624836
 20
106.303355756839
 30
0.0
 10
162.4552439998811
 20
106.3906403172778
 30
0.0
 10
162.0815016580618
 20
106.6002239895141
 30
0.0
 10
161.9027767191928
 20
106.7225323841456
 30
0.0
 10
161.5763686167371
 20
106.9940915868809
 30
0.0
 10
161.4265949268441
 20
107.1443564389604
 30
0.0
 10
161.1570127779799
 20
107.4774450789447
 30
0.0
 10
161.0385543175223
 20
107.6596605311626
 30
0.0
 10
160.8475016959365
 20
108.0417350824143
 30
0.0
 10
160.7725728374763
 20
108.2465507767145
 30
0.0
 10
160.6752165384472
 20
108.6651055192421
 30
0.0
 10
160.6522741259223
 20
108.8773920520687
 30
0.0
 10
160.6594753337273
 20
109.3081793004052
 30
0.0
 10
160.6903315713257
 20
109.5237960317922
 30
0.0
 10
160.801431700913
 20
109.9373964145322
 30
0.0
 10
160.8831343447437
 20
110.1402029330583
 30
0.0
 10
161.1889495398673
 20
110.7060164448828
 30
0.0
 10
161.4778544453675
 20
111.0370812065831
 30
0.0
 10
161.9864541881999
 20
111.4356879838846
 30
0.0
  0
LINE
  5
BC
330
1F
100
AcDbEntity
  8
0
  6
Continuous
 62
     7
370
    15
100
AcDbLine
 10
161.8169209399
 20
91.6950331679
 30
0.0
 11
161.6861078603
 21
91.6806479622
 31
0.0
  0
SPLINE
  5
BD
330
1F
100
AcDbEntity
  8
0
  6
Continuous
 62
     7
370
    15
100
AcDbSpline
210
0.0
220
0.0
230
1.0
 70
     8
 71
     3
 72
    29
 73
    25
 74
     0
 42
0.00000001
 43
0.00000001
 40
0.0
 40
0.0
 40
0.0
 40
0.0
 40
0.0015266897093784
 40
0.0476086004639368
 40
0.0893610119432677
 40
0.1322102189162442
 40
0.1763327715304075
 40
0.221467979609202
 40
0.2713013525458056
 40
0.3222625038141423
 40
0.378799583729779
 40
0.4367260481887781
 40
0.4981172988983419
 40
0.5611933871682213
 40
0.5926093271753444
 40
0.6242482162424351
 40
0.6566080495920212
 40
0.68922639367399
 40
0.7505090032987008
 40
0.8139594789609014
 40
0.8605557083530865
 40
0.9084372890893853
 40
0.955076791814288
 40
1.0
 40
1.0
 40
1.0
 40
1.0
 10
160.6568455833673
 20
91.5495327973577
 30
0.0
 10
160.6564029522938
 20
91.54946736200317
 30
0.0
 10
160.6425998554367
 20
91.54742681268239
 30
0.0
 10
160.6914697806952
 20
91.55469679554814
 30
0.0
 10
160.8040254823685
 20
91.57110074719029
 30
0.0
 10
160.9893917108802
 20
91.59706782539675
 30
0.0
 10
161.2382669603524
 20
91.62975831018333
 30
0.0
 10
161.5568516270867
 20
91.66800415983568
 30
0.0
 10
161.9423747692061
 20
91.70872070414659
 30
0.0
 10
162.404232114748
 20
91.749272379721
 30
0.0
 10
162.9289315123543
 20
91.78424316604013
 30
0.0
 10
163.5160922130574
 20
91.80893463111086
 30
0.0
 10
164.1415171746777
 20
91.8183593151626
 30
0.0
 10
164.6767916647466
 20
91.81101688368717
 30
0.0
 10
165.100564146157
 20
91.79620169620453
 30
0.0
 10
165.4145526946737
 20
91.78087831418014
 30
0.0
 10
165.7232402380787
 20
91.76160332897967
 30
0.0
 10
166.1108579436521
 20
91.73228056229186
 30
0.0
 10
166.5600090984923
 20
91.68996804526351
 30
0.0
 10
166.9794968167287
 20
91.64163051593462
 30
0.0
 10
167.2912138861717
 20
91.60125244047912
 30
0.0
 10
167.4987197652796
 20
91.57233963744905
 30
0.0
 10
167.632070719644
 20
91.55283722526138
 30
0.0
 10
167.6457424276893
 20
91.55079167632823
 30
0.0
 10
167.6524501472474
 20
91.54978807322753
 30
0.0
  0
LINE
  5
BE
330
1F
100
AcDbEntity
  8
0
  6
Continuous
 62
     7
370
    15
100
AcDbLine
 10
161.9044460346
 20
91.7034720832
 30
0.0
 11
161.8169209399
 21
91.6950331679
 31
0.0
  0
SPLINE
  5
BF
330
1F
100
AcDbEntity
  8
0
  6
Continuous
 62
     7
370
    15
100
AcDbSpline
210
0.0
220
0.0
230
1.0
 70
     8
 71
     3
 72
    49
 73
    45
 74
     0
 42
0.00000001
 43
0.00000001
 40
-0.0453289120046185
 40
-0.0288496406621933
 40
-0.0137448999160766
 40
0.0
 40
0.0161749300517104
 40
0.0341951114536867
 40
0.0540821746207862
 40
0.0758519784574327
 40
0.0995163878704001
 40
0.1250844199077992
 40
0.1502122363037598
 40
0.1736095456495792
 40
0.195286127305536
 40
0.21525448696291
 40
0.2335308377910685
 40
0.2501365530632073
 40
0.2850050262080513
 40
0.3265790049403431
 40
0.3749615561882284
 40
0.3970363947906617
 40
0.4177011086879129
 40
0.4369611297395137
 40
0.4548232786299518
 40
0.4712962209799234
 40
0.4863911249000005
 40
0.500122632488169
 40
0.5342115554725222
 40
0.5757710868830291
 40
0.6248974126761584
 40
0.6465640803630898
 40
0.6669596739980939
 40
0.6860901303069993
 40
0.7039627233124004
 40
0.7205864555663194
 40
0.7359725999383858
 40
0.7501354635862469
 40
0.7849405197645878
 40
0.8264670213191624
 40
0.8748182531463267
 40
0.8968858172447439
 40
0.917546601100149
 40
0.9368060714713284
 40
0.9546710879953815
 40
0.9711503593378067
 40
0.9862551000839234
 40
1.0
 40
1.01617493005171
 40
1.034195111453687
 40
1.054082174620786
 10
232.3242888913482
 20
104.8105593091943
 30
0.0
 10
232.7272487341123
 20
104.7930411907168
 30
0.0
 10
233.1563852080657
 20
104.8149993735972
 30
0.0
 10
233.6342942892418
 20
104.8916924403064
 30
0.0
 10
234.1467516885125
 20
105.0382475381126
 30
0.0
 10
234.6806641286907
 20
105.2699419460143
 30
0.0
 10
235.2182084626938
 20
105.6008745439719
 30
0.0
 10
235.719965312431
 20
106.0283304584325
 30
0.0
 10
236.146705304173
 20
106.5275053602173
 30
0.0
 10
236.4760278643058
 20
107.0577634171514
 30
0.0
 10
236.7094453977894
 20
107.5883522518755
 30
0.0
 10
236.8592248771134
 20
108.1022764396363
 30
0.0
 10
236.9389127710772
 20
108.5868171860144
 30
0.0
 10
236.9720325353246
 20
109.2109710552691
 30
0.0
 10
236.8798737025007
 20
110.0456172209683
 30
0.0
 10
236.4932396269588
 20
111.0998780596334
 30
0.0
 10
235.8960911785788
 20
111.910969232541
 30
0.0
 10
235.28827345465
 20
112.440352054317
 30
0.0
 10
234.8288696793125
 20
112.7436978376871
 30
0.0
 10
234.3679559187875
 20
112.9711522143252
 30
0.0
 10
233.9178533730278
 20
113.1313830720994
 30
0.0
 10
233.4883644025138
 20
113.2337605555705
 30
0.0
 10
233.0866484953518
 20
113.2880997321167
 30
0.0
 10
232.5237120053386
 20
113.3126439256919
 30
0.0
 10
231.7220838313559
 20
113.2258605124953
 30
0.0
 10
230.6668388304761
 20
112.8445305775088
 30
0.0
 10
229.8515874676274
 20
112.247440637983
 30
0.0
 10
229.3209976262408
 20
111.6399600063713
 30
0.0
 10
229.0199723348238
 20
111.1875397528216
 30
0.0
 10
228.7918323316449
 20
110.7307008848396
 30
0.0
 10
228.6291783013006
 20
110.2810343832506
 30
0.0
 10
228.5238682793682
 20
109.8479811826625
 30
0.0
 10
228.4671892480553
 20
109.4386178400883
 30
0.0
 10
228.4415907474539
 20
108.8627975180335
 30
0.0
 10
228.5317452289151
 20
108.0510615961123
 30
0.0
 10
228.9182331140396
 20
106.9981873960855
 30
0.0
 10
229.5149239276077
 20
106.1877738223602
 30
0.0
 10
230.122394227934
 20
105.6585990006676
 30
0.0
 10
230.5816654622784
 20
105.3552568061998
 30
0.0
 10
231.0425320769729
 20
105.1277451016383
 30
0.0
 10
231.4926837250738
 20
104.9674264472858
 30
0.0
 10
231.9223385197321
 20
104.8649669241835
 30
0.0
 10
232.3242888913482
 20
104.8105593091943
 30
0.0
 10
232.7272487341123
 20
104.7930411907168
 30
0.0
 10
233.1563852080657
 20
104.8149993735972
 30
0.0
  0
CIRCLE
  5
C0
330
1F
100
AcDbEntity
  8
0
  6
Continuous
 62
     7
370
    15
100
AcDbCircle
 10
164.1555115832
 20
109.04933558
 30
0.0
 40
2.5
  0
LINE
  5
C1
330
1F
100
AcDbEntity
  8
0
  6
Continuous
 62
     7
370
    15
100
AcDbLine
 10
252.2055115832
 20
97.8234761016
 30
0.0
 11
252.2055115832
 21
120.2751950366
 31
0.0
  0
CIRCLE
  5
C2
330
1F
100
AcDbEntity
  8
0
  6
Continuous
 62
     7
370
    15
100
AcDbCircle
 10
232.7055115832
 20
109.04933558
 30
0.0
 40
4.199999999999991
  0
LINE
  5
C3
330
1F
100
AcDbEntity
  8
0
  6
Continuous
 62
     7
370
    15
100
AcDbLine
 10
231.2038748601
 20
111.5147808714
 30
0.0
 11
229.8195549676
 21
108.9816026763
 31
0.0
  0
LINE
  5
C4
330
1F
100
AcDbEntity
  8
0
  6
Continuous
 62
     7
370
    15
100
AcDbLine
 10
231.3211916906
 20
106.5161573848
 30
0.0
 11
229.8195549676
 21
108.9816026763
 31
0.0
  0
LINE
  5
C5
330
1F
100
AcDbEntity
  8
0
  6
Continuous
 62
     7
370
    15
100
AcDbLine
 10
234.2071483062
 20
106.5838902885
 30
0.0
 11
231.3211916906
 21
106.5161573848
 31
0.0
  0
LINE
  5
C6
330
1F
100
AcDbEntity
  8
0
  6
Continuous
 62
     7
370
    15
100
AcDbLine
 10
234.2071483062
 20
106.5838902885
 30
0.0
 11
235.5914681988
 21
109.1170684837
 31
0.0
  0
LINE
  5
C7
330
1F
100
AcDbEntity
  8
0
  6
Continuous
 62
     7
370
    15
100
AcDbLine
 10
234.0898314757
 20
111.5825137751
 30
0.0
 11
235.5914681988
 21
109.1170684837
 31
0.0
  0
LINE
  5
C8
330
1F
100
AcDbEntity
  8
0
  6
Continuous
 62
     7
370
    15
100
AcDbLine
 10
234.0898314757
 20
111.5825137751
 30
0.0
 11
231.2038748601
 21
111.5147808714
 31
0.0
  0
LINE
  5
C9
330
1F
100
AcDbEntity
  8
0
  6
Continuous
 62
     7
370
    15
100
AcDbLine
 10
252.2764194423
 20
101.5088217968
 30
0.0
 11
252.2704125188
 21
101.4686192889
 31
0.0
  0
ARC
  5
CA
330
1F
100
AcDbEntity
  8
0
  6
Continuous
 62
     7
370
    15
100
AcDbCircle
 10
231.3902036301
 20
102.0831205734
 30
0.0
 40
20.89410993646061
100
AcDbArc
 50
358.4249608716
 51
4.9777245001
  0
LWPOLYLINE
  5
CB
330
1F
100
AcDbEntity
  8
0
  6
Continuous
 62
     7
370
    15
100
AcDbPolyline
 90
        7
 70
   128
 43
0.0
 10
252.2740745771
 20
116.0710807071
 10
252.2744129743
 20
116.4135749485
 10
252.2675779476
 20
116.6036937492
 10
252.2546100681
 20
116.6124932452
 10
252.2374835778
 20
116.438633793
 10
252.2188058296
 20
116.1085839181
 10
252.2055115832
 20
115.7885714528
  0
ARC
  5
CC
330
1F
100
AcDbEntity
  8
0
  6
Continuous
 62
     7
370
    15
100
AcDbCircle
 10
225.4194898476
 20
116.1732368029
 30
0.0
 40
26.8547790321313
100
AcDbArc
 50
355.899102258
 51
359.7820452274
  0
LINE
  5
CD
330
1F
100
AcDbEntity
  8
0
  6
Continuous
 62
     7
370
    15
100
AcDbLine
 10
252.2169501509
 20
115.8098754102
 30
0.0
 11
252.2055115832
 21
115.3775065389
 31
0.0
  0
LINE
  5
CE
330
1F
100
AcDbEntity
  8
0
  6
Continuous
 62
     7
370
    15
100
AcDbLine
 10
252.2376380193
 20
115.015507475
 30
0.0
 11
252.2055115832
 21
114.5633595872
 31
0.0
  0
LINE
  5
CF
330
1F
100
AcDbEntity
  8
0
  6
Continuous
 62
     7
370
    15
100
AcDbLine
 10
252.2376380193
 20
115.015507475
 30
0.0
 11
252.2605151548
 21
115.8802452176
 31
0.0
  0
LINE
  5
D0
330
1F
100
AcDbEntity
  8
0
  6
Continuous
 62
     7
370
    15
100
AcDbLine
 10
252.2501712206
 20
116.2774291852
 30
0.0
 11
252.2605151548
 21
115.8802452176
 31
0.0
  0
LINE
  5
D1
330
1F
100
AcDbEntity
  8
0
  6
Continuous
 62
     7
370
    15
100
AcDbLine
 10
252.2501712206
 20
116.2774291852
 30
0.0
 11
252.2169501509
 21
115.8098754102
 31
0.0
  0
LINE
  5
D2
330
1F
100
AcDbEntity
  8
0
  6
Continuous
 62
     7
370
    15
100
AcDbLine
 10
252.2220261105
 20
115.8813145318
 30
0.0
 11
252.2605151548
 21
115.8802452176
 31
0.0
  0
LINE
  5
D3
330
1F
100
AcDbEntity
  8
0
  6
Continuous
 62
     7
370
    15
100
AcDbLine
 10
252.2055115832
 20
115.0164000213
 30
0.0
 11
252.2376380193
 21
115.015507475
 31
0.0
  0
LINE
  5
D4
330
1F
100
AcDbEntity
  8
0
  6
HIDDEN
 62
     7
370
     0
100
AcDbLine
 10
106.8135787517
 20
133.5080252423
 30
0.0
 11
106.8135787517
 21
128.89933558
 31
0.0
  0
ARC
  5
D5
330
1F
100
AcDbEntity
  8
0
  6
HIDDEN
 62
     7
370
     0
100
AcDbCircle
 10
100.4854672225
 20
121.5482560268
 30
0.0
 40
3.679671107484543
100
AcDbArc
 50
265.6366231594
 51
11.9475363038
  0
ARC
  5
D6
330
1F
100
AcDbEntity
  8
0
  6
HIDDEN
 62
     7
370
     0
100
AcDbCircle
 10
99.9223007616
 20
121.5403511314
 30
0.0
 40
3.672038798844923
100
AcDbArc
 50
166.4655616651
 51
274.4234051753
  0
LINE
  5
D7
330
1F
100
AcDbEntity
  8
0
  6
HIDDEN
 62
     7
370
     0
100
AcDbLine
 10
80.2006617877
 20
85.5247359571
 30
0.0
 11
79.6665163586
 21
85.4701213576
 31
0.0
  0
LINE
  5
D8
330
1F
100
AcDbEntity
  8
0
  6
HIDDEN
 62
     7
370
     0
100
AcDbLine
 10
79.4288626866
 20
132.6526687605
 30
0.0
 11
80.2005690675
 21
132.5739186099
 31
0.0
  0
SPLINE
  5
D9
330
1F
100
AcDbEntity
  8
0
  6
HIDDEN
 62
     7
370
     0
100
AcDbSpline
210
0.0
220
0.0
230
1.0
 70
     8
 71
     3
 72
    15
 73
    11
 74
     0
 42
0.00000001
 43
0.00000001
 40
0.0
 40
0.0
 40
0.0
 40
0.0
 40
0.1100725886921322
 40
0.2209193734147116
 40
0.3341941649114017
 40
0.4483035193932227
 40
0.5583990715890386
 40
0.7822971689737783
 40
0.8963603647916902
 40
1.0
 40
1.0
 40
1.0
 40
1.0
 10
85.96051358477943
 20
128.8868640557781
 30
0.0
 10
86.02810757124358
 20
128.8959323098697
 30
0.0
 10
86.16377096676915
 20
128.9141325996574
 30
0.0
 10
86.34421639134257
 20
128.9348536549794
 30
0.0
 10
86.50636516615837
 20
128.9515933403434
 30
0.0
 10
86.644416311725
 20
128.9641754521577
 30
0.0
 10
86.79605702908705
 20
128.9765542520412
 30
0.0
 10
86.89750268279134
 20
128.9835115373719
 30
0.0
 10
86.94891639640753
 20
128.9868081785295
 30
0.0
 10
86.95287120496722
 20
128.9870534834087
 30
0.0
 10
86.95475393159285
 20
128.9871702632783
 30
0.0
  0
SPLINE
  5
DA
330
1F
100
AcDbEntity
  8
0
  6
HIDDEN
 62
     7
370
     0
100
AcDbSpline
210
0.0
220
0.0
230
1.0
 70
     8
 71
     3
 72
    17
 73
    13
 74
     0
 42
0.00000001
 43
0.00000001
 40
0.0
 40
0.0
 40
0.0
 40
0.0
 40
0.0070268500211336
 40
0.1183631929415073
 40
0.2321134198282858
 40
0.3466983210643487
 40
0.4574106626582213
 40
0.5688954169322246
 40
0.682824119935849
 40
0.7976023978524972
 40
0.8985035916333006
 40
1.0
 40
1.0
 40
1.0
 40
1.0
 10
86.9547515323624
 20
89.11150104821003
 30
0.0
 10
86.95500343520803
 20
89.11148514030417
 30
0.0
 10
86.9592465918188
 20
89.11121718090193
 30
0.0
 10
86.94332671184019
 20
89.11221404935219
 30
0.0
 10
86.90431087350423
 20
89.11473059863268
 30
0.0
 10
86.83585873487864
 20
89.11942820862062
 30
0.0
 10
86.74310676466943
 20
89.12637807525716
 30
0.0
 10
86.62581519345468
 20
89.13610755982306
 30
0.0
 10
86.48297855119961
 20
89.14935456675076
 30
0.0
 10
86.32142916079368
 20
89.16634165525677
 30
0.0
 10
86.1476258199585
 20
89.18663429571025
 30
0.0
 10
86.02300649077651
 20
89.20339973329791
 30
0.0
 10
85.96051358477943
 20
89.21180710414514
 30
0.0
  0
SPLINE
  5
DB
330
1F
100
AcDbEntity
  8
0
  6
HIDDEN
 62
     7
370
     0
100
AcDbSpline
210
0.0
220
0.0
230
1.0
 70
     8
 71
     3
 72
    32
 73
    28
 74
     0
 42
0.00000001
 43
0.00000001
 40
0.0
 40
0.0
 40
0.0
 40
0.0
 40
0.0346246159901393
 40
0.0694870388940023
 40
0.105100760954932
 40
0.1409753874086758
 40
0.1756005721189328
 40
0.210469240812561
 40
0.2461122854708169
 40
0.2820258067991321
 40
0.3162663828049037
 40
0.3859338563640312
 40
0.4214461814158482
 40
0.4553763558770598
 40
0.5243713305904967
 40
0.5595124638219118
 40
0.593798734303577
 40
0.6635059787021123
 40
0.6990055363805018
 40
0.7337623601246063
 40
0.7687606633024604
 40
0.8045245907686109
 40
0.8405553812432468
 40
0.875170121130555
 40
0.9456085132854553
 40
0.9815233266320907
 40
1.0
 40
1.0
 40
1.0
 40
1.0
 10
85.96051358477943
 20
89.21180710414514
 30
0.0
 10
85.88851528293301
 20
89.22159504705346
 30
0.0
 10
85.74402418439985
 20
89.2412381578899
 30
0.0
 10
85.50270425014138
 20
89.27068737651162
 30
0.0
 10
85.24340599915574
 20
89.29923775860203
 30
0.0
 10
84.9694185800231
 20
89.32566897755686
 30
0.0
 10
84.68479079900159
 20
89.34912145490817
 30
0.0
 10
84.39020584003343
 20
89.36911891136678
 30
0.0
 10
84.08327493106513
 20
89.38527458987053
 30
0.0
 10
83.77154346531265
 20
89.39671657756601
 30
0.0
 10
83.35427791662724
 20
89.40540770526387
 30
0.0
 10
82.93363492326968
 20
89.40411964880367
 30
0.0
 10
82.52023137010421
 20
89.3928918374362
 30
0.0
 10
82.11538740703692
 20
89.37559356535532
 30
0.0
 10
81.72474932247475
 20
89.34987792158711
 30
0.0
 10
81.35596824443347
 20
89.3177846106902
 30
0.0
 10
81.00255046218506
 20
89.28222640218775
 30
0.0
 10
80.67710937186416
 20
89.24297794585215
 30
0.0
 10
80.3877321661468
 20
89.2033464284798
 30
0.0
 10
80.18981828917151
 20
89.17421068533757
 30
0.0
 10
80.01249132513401
 20
89.14647645302482
 30
0.0
 10
79.85588199662149
 20
89.12069590877043
 30
0.0
 10
79.7242344769188
 20
89.09808927203625
 30
0.0
 10
79.58237328134707
 20
89.0729032267296
 30
0.0
 10
79.49355469353145
 20
89.05645767760598
 30
0.0
 10
79.45673175498105
 20
89.0495648467898
 30
0.0
 10
79.45814790215424
 20
89.049829832699
 30
0.0
 10
79.45862896436341
 20
89.04991984785372
 30
0.0
  0
SPLINE
  5
DC
330
1F
100
AcDbEntity
  8
0
  6
HIDDEN
 62
     7
370
     0
100
AcDbSpline
210
0.0
220
0.0
230
1.0
 70
     8
 71
     3
 72
    30
 73
    26
 74
     0
 42
0.00000001
 43
0.00000001
 40
0.0
 40
0.0
 40
0.0
 40
0.0
 40
0.0156161600804337
 40
0.0849748372628082
 40
0.1203204532886746
 40
0.15431851909124
 40
0.2234436946574013
 40
0.2586467089786606
 40
0.2931107206687011
 40
0.3631864361325603
 40
0.3988795186727328
 40
0.4336750628309723
 40
0.4687145712104809
 40
0.5045294144990544
 40
0.5406151111978532
 40
0.5750767863722916
 40
0.6452033649630275
 40
0.6809575734718859
 40
0.7149323277721685
 40
0.784033058295527
 40
0.8192378401372485
 40
0.8533347063218409
 40
0.9226550151093995
 40
0.9579547149334489
 40
1.0
 40
1.0
 40
1.0
 40
1.0
 10
79.45862896436341
 20
129.0487513120695
 30
0.0
 10
79.45803122527833
 20
129.0488635649512
 30
0.0
 10
79.45477864710166
 20
129.0494743854285
 30
0.0
 10
79.50509954955
 20
129.0400152509714
 30
0.0
 10
79.60540457859129
 20
129.0217104148752
 30
0.0
 10
79.74002156666097
 20
128.9977271095015
 30
0.0
 10
79.92208021169104
 20
128.966628315355
 30
0.0
 10
80.14900278535632
 20
128.9307091713126
 30
0.0
 10
80.40558919073369
 20
128.8923901501736
 30
0.0
 10
80.70362584920639
 20
128.8521450148653
 30
0.0
 10
81.03617510320612
 20
128.813483991463
 30
0.0
 10
81.3013728086104
 20
128.7860813327318
 30
0.0
 10
81.58043063386934
 20
128.7610364961196
 30
0.0
 10
81.87488164976352
 20
128.738868798824
 30
0.0
 10
82.17774658307977
 20
128.720706711554
 30
0.0
 10
82.58813256994851
 20
128.7024486065596
 30
0.0
 10
83.00897340890332
 20
128.6936013725552
 30
0.0
 10
83.42887732613227
 20
128.6950667669964
 30
0.0
 10
83.84349184698597
 20
128.7031101601637
 30
0.0
 10
84.24971296646183
 20
128.720616945763
 30
0.0
 10
84.63924346618379
 20
128.7461822587908
 30
0.0
 10
85.01606416742214
 20
128.776366494505
 30
0.0
 10
85.3692013271261
 20
128.8122640693525
 30
0.0
 10
85.71095281494772
 20
128.8530823472111
 30
0.0
 10
85.87262657595728
 20
128.8749672607776
 30
0.0
 10
85.96051358477943
 20
128.8868640557781
 30
0.0
  0
LINE
  5
DD
330
1F
100
AcDbEntity
  8
0
  6
HIDDEN
 62
     7
370
     0
100
AcDbLine
 10
73.2094861794
 20
92.04933558
 30
0.0
 11
73.2094861794
 21
126.04933558
 31
0.0
  0
LWPOLYLINE
  5
DE
330
1F
100
AcDbEntity
  8
0
  6
HIDDEN
 62
     7
370
     0
100
AcDbPolyline
 90
       12
 70
   128
 43
0.0
 10
100.2055115832
 20
130.9949379946
 10
101.1279750661
 20
131.0488482534
 10
102.000708304
 20
131.207672714
 10
102.7766620219
 20
131.4628491084
 10
103.4140043542
 20
131.8006208112
 10
103.8783760107
 20
132.2027784625
 10
104.1447425952
 20
132.6476416393
 10
104.1987442163
 20
133.1112276524
 10
104.0374696324
 20
133.56854446
 10
103.6696131983
 20
133.9949379946
 10
103.1150061495
 20
134.3674212703
 10
102.5886879626
 20
134.6012124376
  0
LWPOLYLINE
  5
DF
330
1F
100
AcDbEntity
  8
0
  6
HIDDEN
 62
     7
370
     0
100
AcDbPolyline
 90
       12
 70
   128
 43
0.0
 10
97.8194248246
 20
134.6001319066
 10
97.2960170169
 20
134.3674212703
 10
96.741409968
 20
133.9949379946
 10
96.3735535339
 20
133.56854446
 10
96.2122789501
 20
133.1112276524
 10
96.2662805711
 20
132.6476416393
 10
96.5326471557
 20
132.2027784625
 10
96.9970188122
 20
131.8006208112
 10
97.6343611444
 20
131.4628491084
 10
98.4103148624
 20
131.207672714
 10
99.2830481002
 20
131.0488482534
 10
100.2055115832
 20
130.9949379946
  0
SPLINE
  5
E0
330
1F
100
AcDbEntity
  8
0
  6
HIDDEN
 62
     7
370
     0
100
AcDbSpline
210
0.0
220
0.0
230
1.0
 70
     8
 71
     3
 72
    83
 73
    79
 74
     0
 42
0.00000001
 43
0.00000001
 40
-0.0312499999999989
 40
-0.0312499999999989
 40
0.0
 40
0.0
 40
0.0312499999999996
 40
0.0312499999999996
 40
0.0468749999999994
 40
0.0468749999999994
 40
0.0624999999999992
 40
0.0624999999999992
 40
0.0937499999999988
 40
0.0937499999999988
 40
0.1249999999999984
 40
0.1249999999999984
 40
0.156249999999998
 40
0.156249999999998
 40
0.1874999999999976
 40
0.1874999999999976
 40
0.2187499999999972
 40
0.2187499999999972
 40
0.2343749999999971
 40
0.2343749999999971
 40
0.2499999999999969
 40
0.2656249999999967
 40
0.2656249999999967
 40
0.2812499999999965
 40
0.2812499999999965
 40
0.3124999999999961
 40
0.3124999999999961
 40
0.3281249999999964
 40
0.3281249999999964
 40
0.3437499999999967
 40
0.3437499999999967
 40
0.359374999999997
 40
0.359374999999997
 40
0.3749999999999973
 40
0.3749999999999973
 40
0.4062499999999996
 40
0.4062499999999996
 40
0.4375000000000018
 40
0.4375000000000018
 40
0.4687500000000041
 40
0.4687500000000041
 40
0.5000000000000063
 40
0.5000000000000063
 40
0.5312500000000085
 40
0.5312500000000085
 40
0.5625000000000109
 40
0.5625000000000109
 40
0.5781250000000109
 40
0.5781250000000109
 40
0.5937500000000109
 40
0.5937500000000109
 40
0.6250000000000108
 40
0.6250000000000108
 40
0.6562500000000108
 40
0.6562500000000108
 40
0.6875000000000107
 40
0.6875000000000107
 40
0.7031250000000101
 40
0.7031250000000101
 40
0.7187500000000097
 40
0.7187500000000097
 40
0.7500000000000085
 40
0.7500000000000085
 40
0.7812500000000074
 40
0.7812500000000074
 40
0.8125000000000064
 40
0.8125000000000064
 40
0.8437500000000053
 40
0.8437500000000053
 40
0.8750000000000042
 40
0.8750000000000042
 40
0.9062500000000032
 40
0.9062500000000032
 40
0.9375000000000021
 40
0.9375000000000021
 40
0.9687500000000011
 40
0.9687500000000011
 40
1.0
 40
1.0
 40
1.03125
 40
1.03125
 10
232.5704316446351
 20
103.7400141806744
 30
0.0
 10
231.8405915217205
 20
103.7400141806744
 30
0.0
 10
231.4813335641936
 20
103.7719148609202
 30
0.0
 10
230.9506175642256
 20
103.8660453905402
 30
0.0
 10
230.7750834566521
 20
103.9051933473553
 30
0.0
 10
230.4268161577199
 20
103.9994640356632
 30
0.0
 10
230.253187345367
 20
104.0549528528051
 30
0.0
 10
229.7452518306444
 20
104.2434041304345
 30
0.0
 10
229.4230783570892
 20
104.3978910901098
 30
0.0
 10
228.8113591829882
 20
104.7653615878296
 30
0.0
 10
228.5188635634469
 20
104.9813480269101
 30
0.0
 10
227.9888880113568
 20
105.4611660991726
 30
0.0
 10
227.7502908697926
 20
105.7245319534127
 30
0.0
 10
227.3269791364783
 20
106.3003556452173
 30
0.0
 10
227.1419342454396
 20
106.6155422779552
 30
0.0
 10
226.8463354763781
 20
107.2676817759562
 30
0.0
 10
226.7328422973889
 20
107.6077210251674
 30
0.0
 10
226.6166478754525
 20
108.1400874244921
 30
0.0
 10
226.5872932198481
 20
108.3206132032265
 30
0.0
 10
226.5483423538238
 20
108.6799009210499
 30
0.0
 10
226.5286272708554
 20
109.0396265776896
 30
0.0
 10
226.5469994163501
 20
109.4002204158966
 30
0.0
 10
226.5848662234706
 20
109.7612581241655
 30
0.0
 10
226.6137612192634
 20
109.9423547049405
 30
0.0
 10
226.7276719508483
 20
110.4728579028161
 30
0.0
 10
226.8398783729669
 20
110.8141167537509
 30
0.0
 10
227.0619304928617
 20
111.3078601975091
 30
0.0
 10
227.1453440992273
 20
111.4698154242655
 30
0.0
 10
227.3264995047483
 20
111.7805351774165
 30
0.0
 10
227.4245845282843
 20
111.930207116084
 30
0.0
 10
227.6353580558884
 20
112.2186081060368
 30
0.0
 10
227.7480479135633
 20
112.3573359283416
 30
0.0
 10
227.9880741004044
 20
112.6239470749219
 30
0.0
 10
228.1160617091698
 20
112.7523405936142
 30
0.0
 10
228.5147720801442
 20
113.1142070386947
 30
0.0
 10
228.8014597130524
 20
113.3265874874577
 30
0.0
 10
229.4152815154552
 20
113.6968496475107
 30
0.0
 10
229.7442667106293
 20
113.8546819250947
 30
0.0
 10
230.4171542580675
 20
114.1047699113961
 30
0.0
 10
230.7639285257746
 20
114.1991208836377
 30
0.0
 10
231.4783877962682
 20
114.326619641415
 30
0.0
 10
231.8415499739385
 20
114.3584265851005
 30
0.0
 10
232.5615820331204
 20
114.3588848619482
 30
0.0
 10
232.9216172755261
 20
114.3279938060823
 30
0.0
 10
233.6390825493467
 20
114.2011272475765
 30
0.0
 10
233.9861469970913
 20
114.1070534939252
 30
0.0
 10
234.4897835784975
 20
113.9207386546687
 30
0.0
 10
234.6548164136164
 20
113.8510449925434
 30
0.0
 10
234.9790450914182
 20
113.6959329457801
 30
0.0
 10
235.1390810874414
 20
113.6099686767983
 30
0.0
 10
235.6017877139985
 20
113.3320760391809
 30
0.0
 10
235.8881179769559
 20
113.1204053877552
 30
0.0
 10
236.4166295236692
 20
112.6430561667603
 30
0.0
 10
236.6612261613494
 20
112.3736175479093
 30
0.0
 10
237.0850927186956
 20
111.7967383168046
 30
0.0
 10
237.2657841484962
 20
111.4894231112231
 30
0.0
 10
237.4888217920392
 20
110.9988483079259
 30
0.0
 10
237.5554462472729
 20
110.8292662981966
 30
0.0
 10
237.6697822455734
 20
110.4851304842886
 30
0.0
 10
237.7174182073012
 20
110.3112520760472
 30
0.0
 10
237.8323860941866
 20
109.7842796314121
 30
0.0
 10
237.8721021763732
 20
109.425787193615
 30
0.0
 10
237.873641480773
 20
108.6943234609178
 30
0.0
 10
237.8354572513342
 20
108.335418520869
 30
0.0
 10
237.6846375824067
 20
107.6305967253516
 30
0.0
 10
237.5699120235731
 20
107.2815158242174
 30
0.0
 10
237.2748736926612
 20
106.6260804404558
 30
0.0
 10
237.0946006910928
 20
106.3165515257285
 30
0.0
 10
236.6684050848603
 20
105.7332100036165
 30
0.0
 10
236.4277166907372
 20
105.4669863851066
 30
0.0
 10
235.8991844061549
 20
104.9869590666434
 30
0.0
 10
235.6072263318584
 20
104.770426664462
 30
0.0
 10
234.9923445965561
 20
104.4000219372124
 30
0.0
 10
234.6696802099124
 20
104.2451963439651
 30
0.0
 10
233.9944102157964
 20
103.9939825940871
 30
0.0
 10
233.640998182323
 20
103.8982217535327
 30
0.0
 10
232.9307745479655
 20
103.7719627364078
 30
0.0
 10
232.5704316446351
 20
103.7400141806744
 30
0.0
 10
231.8405915217205
 20
103.7400141806744
 30
0.0
  0
SPLINE
  5
E1
330
1F
100
AcDbEntity
  8
0
  6
HIDDEN
 62
     7
370
     0
100
AcDbSpline
210
0.0
220
0.0
230
1.0
 70
     8
 71
     3
 72
    11
 73
     7
 74
     0
 42
0.00000001
 43
0.00000001
 40
0.0
 40
0.0
 40
0.0
 40
0.0
 40
0.0005779865010845
 40
0.0005779865010845
 40
0.0005779865010845
 40
0.0011559733324421
 40
0.0011559733324421
 40
0.0011559733324421
 40
0.0011559733324421
 10
60.30551158317785
 20
111.0491761881154
 30
0.0
 10
60.47217883798381
 20
111.0471925487744
 30
0.0
 10
60.63884526766147
 20
111.0451549417719
 30
0.0
 10
60.80551160611329
 20
111.0430434783654
 30
0.0
 10
60.9721780349397
 20
111.0409320138141
 30
0.0
 10
61.13884440857739
 20
111.0387464506577
 30
0.0
 10
61.30551158317782
 20
111.0364638733261
 30
0.0
  0
SPLINE
  5
E2
330
1F
100
AcDbEntity
  8
0
  6
HIDDEN
 62
     7
370
     0
100
AcDbSpline
210
0.0
220
0.0
230
1.0
 70
     8
 71
     3
 72
     8
 73
     4
 74
     0
 42
0.00000001
 43
0.00000001
 40
0.0
 40
0.0
 40
0.0
 40
0.0
 40
0.0011564765856722
 40
0.0011564765856722
 40
0.0011564765856722
 40
0.0011564765856722
 10
61.30551158317782
 20
107.0526352777453
 30
0.0
 10
60.97220365260897
 20
107.0517601221621
 30
0.0
 10
60.63886842021677
 20
107.0507052709106
 30
0.0
 10
60.30551158317782
 20
107.049534183873
 30
0.0
  0
LINE
  5
E3
330
1F
100
AcDbEntity
  8
0
  6
HIDDEN
 62
     7
370
     0
100
AcDbLine
 10
99.8653375517
 20
92.04933558
 30
0.0
 11
99.8653375517
 21
126.04933558
 31
0.0
  0
LINE
  5
E4
330
1F
100
AcDbEntity
  8
0
  6
HIDDEN
 62
     7
370
     0
100
AcDbLine
 10
102.1555115832
 20
93.32433558
 30
0.0
 11
102.1555115832
 21
124.77433558
 31
0.0
  0
SPLINE
  5
E5
330
1F
100
AcDbEntity
  8
0
  6
HIDDEN
 62
     7
370
     0
100
AcDbSpline
210
0.0
220
0.0
230
1.0
 70
     8
 71
     3
 72
    16
 73
    12
 74
     0
 42
0.00000001
 43
0.00000001
 40
0.0
 40
0.0
 40
0.0
 40
0.0
 40
0.124999999999998
 40
0.124999999999998
 40
0.249999999999996
 40
0.249999999999996
 40
0.4999999999999973
 40
0.4999999999999973
 40
0.7499999999999987
 40
0.7499999999999987
 40
1.0
 40
1.0
 40
1.0
 40
1.0
 10
69.00551158317784
 20
93.24784514392995
 30
0.0
 10
69.10063333784366
 20
93.24784514392995
 30
0.0
 10
69.19396340657173
 20
93.24402931053714
 30
0.0
 10
69.37722516730973
 20
93.22925875780733
 30
0.0
 10
69.46810288286675
 20
93.21810070983175
 30
0.0
 10
69.72490458038648
 20
93.17562943969003
 30
0.0
 10
69.87997194525846
 20
93.13458324248724
 30
0.0
 10
70.13371840681309
 20
93.03943712590535
 30
0.0
 10
70.23458885848095
 20
92.98467439182376
 30
0.0
 10
70.3698352731758
 20
92.8734132679199
 30
0.0
 10
70.40551158317783
 20
92.81624353059121
 30
0.0
 10
70.40551158317783
 20
92.76182195755747
 30
0.0
  0
SPLINE
  5
E6
330
1F
100
AcDbEntity
  8
0
  6
HIDDEN
 62
     7
370
     0
100
AcDbSpline
210
0.0
220
0.0
230
1.0
 70
     8
 71
     3
 72
     8
 73
     4
 74
     0
 42
0.00000001
 43
0.00000001
 40
0.0
 40
0.0
 40
0.0
 40
0.0
 40
1.0
 40
1.0
 40
1.0
 40
1.0
 10
61.60551158649302
 20
95.39264809001219
 30
0.0
 10
61.60551158649495
 20
94.50875094769526
 30
0.0
 10
61.59203096058516
 20
93.79416770263332
 30
0.0
 10
61.59067959239585
 20
93.24784514392995
 30
0.0
  0
LINE
  5
E7
330
1F
100
AcDbEntity
  8
0
  6
HIDDEN
 62
     7
370
     0
100
AcDbLine
 10
61.3055115832
 20
99.4485087876
 30
0.0
 11
61.3055115832
 21
96.4175583557
 31
0.0
  0
LINE
  5
E8
330
1F
100
AcDbEntity
  8
0
  6
HIDDEN
 62
     7
370
     0
100
AcDbLine
 10
61.6055115864
 20
112.6539692015
 30
0.0
 11
61.6055115864
 21
100.8163492043
 31
0.0
  0
SPLINE
  5
E9
330
1F
100
AcDbEntity
  8
0
  6
HIDDEN
 62
     7
370
     0
100
AcDbSpline
210
0.0
220
0.0
230
1.0
 70
     8
 71
     3
 72
     8
 73
     4
 74
     0
 42
0.00000001
 43
0.00000001
 40
0.0
 40
0.0
 40
0.0
 40
0.0
 40
1.0
 40
1.0
 40
1.0
 40
1.0
 10
61.30551158317782
 20
118.6562749010299
 30
0.0
 10
61.48654304973673
 20
118.2241674153673
 30
0.0
 10
61.60551158637126
 20
117.7700220092676
 30
0.0
 10
61.60551158636555
 20
117.2823219555735
 30
0.0
  0
LINE
  5
EA
330
1F
100
AcDbEntity
  8
0
  6
HIDDEN
 62
     7
370
     0
100
AcDbLine
 10
61.3055115832
 20
121.689477887
 30
0.0
 11
61.3055115832
 21
118.656274901
 31
0.0
  0
SPLINE
  5
EB
330
1F
100
AcDbEntity
  8
0
  6
HIDDEN
 62
     7
370
     0
100
AcDbSpline
210
0.0
220
0.0
230
1.0
 70
     8
 71
     3
 72
    10
 73
     6
 74
     0
 42
0.00000001
 43
0.00000001
 40
0.0
 40
0.0
 40
0.0
 40
0.0
 40
0.5
 40
0.5
 40
1.0
 40
1.0
 40
1.0
 40
1.0
 10
61.60551158657104
 20
122.7060230698814
 30
0.0
 10
61.60551158656924
 20
122.5413867232754
 30
0.0
 10
61.57835291581376
 20
122.3742314994449
 30
0.0
 10
61.47258792049536
 20
122.0356084916433
 30
0.0
 10
61.39617313219819
 20
121.8633367143523
 30
0.0
 10
61.30551158317785
 20
121.6894778870083
 30
0.0
  0
SPLINE
  5
EC
330
1F
100
AcDbEntity
  8
0
  6
HIDDEN
 62
     7
370
     0
100
AcDbSpline
210
0.0
220
0.0
230
1.0
 70
     8
 71
     3
 72
    18
 73
    14
 74
     0
 42
0.00000001
 43
0.00000001
 40
0.0
 40
0.0
 40
0.0
 40
0.0
 40
0.2500000000000033
 40
0.2500000000000033
 40
0.3750000000000029
 40
0.3750000000000029
 40
0.5000000000000026
 40
0.5000000000000026
 40
0.6250000000000022
 40
0.6250000000000022
 40
0.7500000000000018
 40
0.7500000000000018
 40
1.0
 40
1.0
 40
1.0
 40
1.0
 10
66.40551158317784
 20
125.3368492023657
 30
0.0
 10
66.40551158317783
 20
125.2823746818135
 30
0.0
 10
66.37060089178564
 20
125.2259936224611
 30
0.0
 10
66.2685915904526
 20
125.1419167816076
 30
0.0
 10
66.22695523577448
 20
125.1145830776167
 30
0.0
 10
66.12854944028575
 20
125.0616291620177
 30
0.0
 10
66.07100622858148
 20
125.0357418083005
 30
0.0
 10
65.94370805500851
 20
124.9879642634672
 30
0.0
 10
65.87412075025105
 20
124.9660163452893
 30
0.0
 10
65.72268650509609
 20
124.9265837803766
 30
0.0
 10
65.64000260200214
 20
124.9090275311508
 30
0.0
 10
65.38389113996409
 20
124.8665887657303
 30
0.0
 10
65.19597613607611
 20
124.8508260159933
 30
0.0
 10
65.00551158317782
 20
124.8508260159933
 30
0.0
  0
LINE
  5
ED
330
1F
100
AcDbEntity
  8
0
  6
HIDDEN
 62
     7
370
     0
100
AcDbLine
 10
65.0055115832
 20
124.850826016
 30
0.0
 11
61.6055115866
 21
124.850826016
 31
0.0
  0
LINE
  5
EE
330
1F
100
AcDbEntity
  8
0
  6
HIDDEN
 62
     7
370
     0
100
AcDbLine
 10
61.5365425965
 20
93.2478451439
 30
0.0
 11
69.0055115832
 21
93.2478451439
 31
0.0
  0
SPLINE
  5
EF
330
1F
100
AcDbEntity
  8
0
  6
HIDDEN
 62
     7
370
     0
100
AcDbSpline
210
0.0
220
0.0
230
1.0
 70
     8
 71
     3
 72
    22
 73
    18
 74
     0
 42
0.00000001
 43
0.00000001
 40
0.0
 40
0.0
 40
0.0
 40
0.0
 40
0.1249999999999998
 40
0.1249999999999998
 40
0.2499999999999995
 40
0.2499999999999995
 40
0.4999999999999992
 40
0.4999999999999992
 40
0.5624999999999993
 40
0.5624999999999993
 40
0.6249999999999994
 40
0.6249999999999994
 40
0.7499999999999996
 40
0.7499999999999996
 40
0.8749999999999998
 40
0.8749999999999998
 40
1.0
 40
1.0
 40
1.0
 40
1.0
 10
61.53654259653575
 20
93.24784514392995
 30
0.0
 10
61.52346020380739
 20
93.50295085407761
 30
0.0
 10
61.51024064036756
 20
93.79610911318152
 30
0.0
 10
61.48779346257344
 20
94.45840957880633
 30
0.0
 10
61.47831499554897
 20
94.8286834994177
 30
0.0
 10
61.4591170346124
 20
96.05124030253151
 30
0.0
 10
61.46023080760931
 20
96.98837922866336
 30
0.0
 10
61.47914160056238
 20
98.30825045817835
 30
0.0
 10
61.48377112842137
 20
98.57975236715467
 30
0.0
 10
61.49425234816734
 20
99.13813720195698
 30
0.0
 10
61.50004760945176
 20
99.42526005789658
 30
0.0
 10
61.51835683035669
 20
100.2978493122683
 30
0.0
 10
61.53239176463705
 20
100.8983049886241
 30
0.0
 10
61.56184893677387
 20
102.1357794811202
 30
0.0
 10
61.57740462775545
 20
102.7727956377637
 30
0.0
 10
61.60119917775233
 20
104.0842842354482
 30
0.0
 10
61.60921822989771
 20
104.7604068471087
 30
0.0
 10
61.60551158317783
 20
105.4447019583935
 30
0.0
  0
LINE
  5
F0
330
1F
100
AcDbEntity
  8
0
  6
HIDDEN
 62
     7
370
     0
100
AcDbLine
 10
61.6055115866
 20
112.6539692015
 30
0.0
 11
61.6055115866
 21
124.850826016
 31
0.0
  0
SPLINE
  5
F1
330
1F
100
AcDbEntity
  8
0
  6
HIDDEN
 62
     7
370
     0
100
AcDbSpline
210
0.0
220
0.0
230
1.0
 70
     8
 71
     3
 72
    10
 73
     6
 74
     0
 42
0.00000001
 43
0.00000001
 40
0.0
 40
0.0
 40
0.0
 40
0.0
 40
0.5
 40
0.5
 40
1.0
 40
1.0
 40
1.0
 40
1.0
 10
61.60551158317783
 20
105.4447019583784
 30
0.0
 10
61.60551158317764
 20
105.7186171064528
 30
0.0
 10
61.57975235330994
 20
105.9895586851829
 30
0.0
 10
61.47654642057683
 20
106.5252497667857
 30
0.0
 10
61.39920825670158
 20
106.7909965703077
 30
0.0
 10
61.30551158317782
 20
107.0526352777453
 30
0.0
  0
SPLINE
  5
F2
330
1F
100
AcDbEntity
  8
0
  6
HIDDEN
 62
     7
370
     0
100
AcDbSpline
210
0.0
220
0.0
230
1.0
 70
     8
 71
     3
 72
    10
 73
     6
 74
     0
 42
0.00000001
 43
0.00000001
 40
0.0
 40
0.0
 40
0.0
 40
0.0
 40
0.5
 40
0.5
 40
1.0
 40
1.0
 40
1.0
 40
1.0
 10
61.30551158317782
 20
111.0364638733261
 30
0.0
 10
61.39874216456884
 20
111.3003576813962
 30
0.0
 10
61.47377177680561
 20
111.5665379920345
 30
0.0
 10
61.57883887598374
 20
112.1048605669927
 30
0.0
 10
61.60551158656992
 20
112.3776086832383
 30
0.0
 10
61.6055115865711
 20
112.6539692015287
 30
0.0
  0
LINE
  5
F3
330
1F
100
AcDbEntity
  8
0
  6
HIDDEN
 62
     7
370
     0
100
AcDbLine
 10
61.3055115832
 20
107.0526352777
 30
0.0
 11
61.3055115832
 21
111.0364638733
 31
0.0
  0
LWPOLYLINE
  5
F4
330
1F
100
AcDbEntity
  8
0
  6
HIDDEN
 62
     7
370
     0
100
AcDbPolyline
 90
       17
 70
   128
 43
0.0
 10
213.2055115832
 20
97.3820736904
 10
212.6314864346
 20
97.4628116385
 10
212.1448514114
 20
97.6927338622
 10
211.8196922844
 20
98.0368367871
 10
211.7055115832
 20
98.4427338622
 10
211.8196922844
 20
98.8486309373
 10
212.1448514114
 20
99.1927338622
 10
212.6314864346
 20
99.4226560858
 10
213.2055115832
 20
99.5033940339
 10
213.7795367317
 20
99.4226560858
 10
214.266171755
 20
99.1927338622
 10
214.5913308819
 20
98.8486309373
 10
214.7055115832
 20
98.4427338622
 10
214.5913308819
 20
98.0368367871
 10
214.266171755
 20
97.6927338622
 10
213.7795367317
 20
97.4628116385
 10
213.2055115832
 20
97.3820736904
  0
SPLINE
  5
F5
330
1F
100
AcDbEntity
  8
0
  6
HIDDEN
 62
     7
370
     0
100
AcDbSpline
210
0.0
220
0.0
230
1.0
 70
     8
 71
     3
 72
    14
 73
    10
 74
     0
 42
0.00000001
 43
0.00000001
 40
0.0
 40
0.0
 40
0.0
 40
0.0
 40
0.25
 40
0.25
 40
0.5
 40
0.5
 40
0.75
 40
0.75
 40
1.0
 40
1.0
 40
1.0
 40
1.0
 10
212.2150827123786
 20
101.1611195453957
 30
0.0
 10
212.1815339958855
 20
101.1247065981215
 30
0.0
 10
212.1492482669614
 20
101.0894737817896
 30
0.0
 10
212.0963034872743
 20
101.0096189831265
 30
0.0
 10
212.0752987482904
 20
100.9630655109526
 30
0.0
 10
212.0859436090672
 20
100.8237416075654
 30
0.0
 10
212.1149798743234
 20
100.7404584904066
 30
0.0
 10
212.1793345681618
 20
100.5816378884571
 30
0.0
 10
212.216270627377
 20
100.50299321593
 30
0.0
 10
212.2546253414114
 20
100.4257295865119
 30
0.0
  0
SPLINE
  5
F6
330
1F
100
AcDbEntity
  8
0
  6
HIDDEN
 62
     7
370
     0
100
AcDbSpline
210
0.0
220
0.0
230
1.0
 70
     8
 71
     3
 72
    14
 73
    10
 74
     0
 42
0.00000001
 43
0.00000001
 40
0.0
 40
0.0
 40
0.0
 40
0.0
 40
0.25
 40
0.25
 40
0.5
 40
0.5
 40
0.75
 40
0.75
 40
1.0
 40
1.0
 40
1.0
 40
1.0
 10
212.2546253414137
 20
100.42572958651
 30
0.0
 10
212.2916513585849
 20
100.4588214715473
 30
0.0
 10
212.3240187605682
 20
100.499293506415
 30
0.0
 10
212.368846633212
 20
100.5996437929406
 30
0.0
 10
212.3797372044701
 20
100.6576850513022
 30
0.0
 10
212.3710597652942
 20
100.7894462625935
 30
0.0
 10
212.3515104740432
 20
100.8610250107501
 30
0.0
 10
212.2933129895723
 20
101.0090488679686
 30
0.0
 10
212.2558269091282
 20
101.0842055506303
 30
0.0
 10
212.2150827123787
 20
101.161119545396
 30
0.0
  0
SPLINE
  5
F7
330
1F
100
AcDbEntity
  8
0
  6
HIDDEN
 62
     7
370
     0
100
AcDbSpline
210
0.0
220
0.0
230
1.0
 70
     8
 71
     3
 72
    10
 73
     6
 74
     0
 42
0.00000001
 43
0.00000001
 40
0.0
 40
0.0
 40
0.0
 40
0.0
 40
0.5
 40
0.5
 40
1.0
 40
1.0
 40
1.0
 40
1.0
 10
211.7055115831774
 20
101.8372029699888
 30
0.0
 10
211.7055115831774
 20
101.8614971271459
 30
0.0
 10
211.7066898972758
 20
101.8835486841589
 30
0.0
 10
211.711224319306
 20
101.9233956948701
 30
0.0
 10
211.7145814082072
 20
101.9411933973941
 30
0.0
 10
211.7189553274396
 20
101.9568129094505
 30
0.0
  0
SPLINE
  5
F8
330
1F
100
AcDbEntity
  8
0
  6
HIDDEN
 62
     7
370
     0
100
AcDbSpline
210
0.0
220
0.0
230
1.0
 70
     8
 71
     3
 72
    18
 73
    14
 74
     0
 42
0.00000001
 43
0.00000001
 40
0.0
 40
0.0
 40
0.0
 40
0.0
 40
0.0757600260705092
 40
0.1641802044744512
 40
0.224650247431733
 40
0.2713909958757942
 40
0.3182331105062619
 40
0.3816605563068868
 40
0.4894613630154988
 40
0.6369005483258838
 40
0.7838540878388947
 40
0.9175662669722396
 40
1.0
 40
1.0
 40
1.0
 40
1.0
 10
211.7361171565931
 20
101.9871336683204
 30
0.0
 10
211.741931254686
 20
102.0000204047706
 30
0.0
 10
211.7545310366981
 20
102.0279473622327
 30
0.0
 10
211.7787996846589
 20
102.0281713869178
 30
0.0
 10
211.7955208620025
 20
102.0075543896381
 30
0.0
 10
211.8017398603507
 20
101.9684160055506
 30
0.0
 10
211.7983119349631
 20
101.9093484769638
 30
0.0
 10
211.7818975535139
 20
101.8120936159293
 30
0.0
 10
211.7499271012204
 20
101.6640238727602
 30
0.0
 10
211.7153640701145
 20
101.4813276088847
 30
0.0
 10
211.7013540567736
 20
101.3145314106527
 30
0.0
 10
211.7111364608417
 20
101.2079234420615
 30
0.0
 10
211.728884438218
 20
101.1816052595896
 30
0.0
 10
211.7356531622442
 20
101.1715680305438
 30
0.0
  0
LWPOLYLINE
  5
F9
330
1F
100
AcDbEntity
  8
0
  6
HIDDEN
 62
     7
370
     0
100
AcDbPolyline
 90
        9
 70
   128
 43
0.0
 10
211.7469625273
 20
101.1499414148
 10
211.780141854
 20
101.1471829233
 10
211.7945103109
 20
101.1701489864
 10
211.8002401706
 20
101.2073830214
 10
211.797246221
 20
101.2627090955
 10
211.7847094834
 20
101.3392792552
 10
211.7568849216
 20
101.4709189782
 10
211.7205034144
 20
101.6629424675
 10
211.7055115832
 20
101.83720297
  0
SPLINE
  5
FA
330
1F
100
AcDbEntity
  8
0
  6
HIDDEN
 62
     7
370
     0
100
AcDbSpline
210
0.0
220
0.0
230
1.0
 70
     8
 71
     3
 72
     8
 73
     4
 74
     0
 42
0.00000001
 43
0.00000001
 40
0.0
 40
0.0
 40
0.0
 40
0.0
 40
1.0
 40
1.0
 40
1.0
 40
1.0
 10
214.4475456223883
 20
105.9611404791519
 30
0.0
 10
214.4060765777348
 20
106.0006257841505
 30
0.0
 10
214.3604307995209
 20
106.0422609028234
 30
0.0
 10
214.310737565058
 20
106.0880208712392
 30
0.0
  0
SPLINE
  5
FB
330
1F
100
AcDbEntity
  8
0
  6
HIDDEN
 62
     7
370
     0
100
AcDbSpline
210
0.0
220
0.0
230
1.0
 70
     8
 71
     3
 72
    38
 73
    34
 74
     0
 42
0.00000001
 43
0.00000001
 40
0.0
 40
0.0
 40
0.0
 40
0.0
 40
0.0625
 40
0.0625
 40
0.125
 40
0.125
 40
0.1875
 40
0.1875
 40
0.25
 40
0.25
 40
0.3125
 40
0.3125
 40
0.375
 40
0.375
 40
0.4375
 40
0.4375
 40
0.5
 40
0.5
 40
0.5625
 40
0.5625
 40
0.625
 40
0.625
 40
0.6875
 40
0.6875
 40
0.75
 40
0.75
 40
0.8125
 40
0.8125
 40
0.875
 40
0.875
 40
0.9375
 40
0.9375
 40
1.0
 40
1.0
 40
1.0
 40
1.0
 10
214.310737565058
 20
106.0880208712392
 30
0.0
 10
214.2089478824647
 20
106.181753805126
 30
0.0
 10
214.0934116310611
 20
106.2630342536458
 30
0.0
 10
213.8345267006574
 20
106.3973361676647
 30
0.0
 10
213.6943833743787
 20
106.4481426319871
 30
0.0
 10
213.401897266578
 20
106.5105754765058
 30
0.0
 10
213.2492131350964
 20
106.5218361532107
 30
0.0
 10
212.9496450946927
 20
106.502398220105
 30
0.0
 10
212.7999037413625
 20
106.4714002288463
 30
0.0
 10
212.521432057807
 20
106.3736488037918
 30
0.0
 10
212.3891715995518
 20
106.305753374112
 30
0.0
 10
212.1563801370631
 20
106.1453468912236
 30
0.0
 10
212.0525471986631
 20
106.0506294328436
 30
0.0
 10
211.8843629984968
 20
105.8490941559017
 30
0.0
 10
211.8176614611127
 20
105.7395769548548
 30
0.0
 10
211.7287007838763
 20
105.5202503635671
 30
0.0
 10
211.7055975672825
 20
105.4089814602786
 30
0.0
 10
211.7054260834515
 20
105.1955633765228
 30
0.0
 10
211.7280327055135
 20
105.0943218054734
 30
0.0
 10
211.8173832986067
 20
104.9075447263931
 30
0.0
 10
211.8824991444495
 20
104.8245705710473
 30
0.0
 10
212.0525850882514
 20
104.6772471733653
 30
0.0
 10
212.1537472386456
 20
104.6160275136271
 30
0.0
 10
212.3884792054352
 20
104.5138632279665
 30
0.0
 10
212.5183787077231
 20
104.4747613230454
 30
0.0
 10
212.7976082078742
 20
104.4184946704118
 30
0.0
 10
212.9463832498245
 20
104.4016903581732
 30
0.0
 10
213.2459047249261
 20
104.3907626022246
 30
0.0
 10
213.3992436794193
 20
104.3966611099957
 30
0.0
 10
213.6911091940264
 20
104.4308812197903
 30
0.0
 10
213.8333628464469
 20
104.4596820804279
 30
0.0
 10
214.0906078468083
 20
104.5391412265028
 30
0.0
 10
214.2089310100286
 20
104.5906539629056
 30
0.0
 10
214.310737565058
 20
104.6538134043943
 30
0.0
  0
SPLINE
  5
FC
330
1F
100
AcDbEntity
  8
0
  6
HIDDEN
 62
     7
370
     0
100
AcDbSpline
210
0.0
220
0.0
230
1.0
 70
     8
 71
     3
 72
     8
 73
     4
 74
     0
 42
0.00000001
 43
0.00000001
 40
0.0
 40
0.0
 40
0.0
 40
0.0
 40
1.0
 40
1.0
 40
1.0
 40
1.0
 10
214.310737565058
 20
104.6538134043943
 30
0.0
 10
214.3604307995209
 20
104.6846424304184
 30
0.0
 10
214.4060765777348
 20
104.7246055690306
 30
0.0
 10
214.4475456223883
 20
104.7717276446471
 30
0.0
  0
SPLINE
  5
FD
330
1F
100
AcDbEntity
  8
0
  6
HIDDEN
 62
     7
370
     0
100
AcDbSpline
210
0.0
220
0.0
230
1.0
 70
     8
 71
     3
 72
    12
 73
     8
 74
     0
 42
0.00000001
 43
0.00000001
 40
0.0
 40
0.0
 40
0.0
 40
0.0
 40
0.2500000000000005
 40
0.2500000000000005
 40
0.5000000000000006
 40
0.5000000000000006
 40
1.0
 40
1.0
 40
1.0
 40
1.0
 10
214.4475456223883
 20
104.7717276446471
 30
0.0
 10
214.5315297356763
 20
104.8671604131136
 30
0.0
 10
214.5953789904878
 20
104.965889030129
 30
0.0
 10
214.6831279298245
 20
105.1731796474755
 30
0.0
 10
214.7053760864932
 20
105.2790050084716
 30
0.0
 10
214.7057807252696
 20
105.5944598731584
 30
0.0
 10
214.6155087447168
 20
105.8012121478132
 30
0.0
 10
214.4475456223883
 20
105.9611404791519
 30
0.0
  0
SPLINE
  5
FE
330
1F
100
AcDbEntity
  8
0
  6
HIDDEN
 62
     7
370
     0
100
AcDbSpline
210
0.0
220
0.0
230
1.0
 70
     8
 71
     3
 72
    14
 73
    10
 74
     0
 42
0.00000001
 43
0.00000001
 40
0.0
 40
0.0
 40
0.0
 40
0.0
 40
0.25
 40
0.25
 40
0.5
 40
0.5
 40
0.75
 40
0.75
 40
1.0
 40
1.0
 40
1.0
 40
1.0
 10
212.2546253414136
 20
102.0663485887309
 30
0.0
 10
212.2161218308995
 20
102.0992794677068
 30
0.0
 10
212.1790089072594
 20
102.1304572310231
 30
0.0
 10
212.1144271290425
 20
102.1990789623507
 30
0.0
 10
212.0856815347648
 20
102.2363878800077
 30
0.0
 10
212.0754442305893
 20
102.3583774971152
 30
0.0
 10
212.096776880868
 20
102.4403052104465
 30
0.0
 10
212.1496511611162
 20
102.5976318284293
 30
0.0
 10
212.1816947448609
 20
102.6765095840247
 30
0.0
 10
212.2150827123787
 20
102.7542615051015
 30
0.0
  0
SPLINE
  5
FF
330
1F
100
AcDbEntity
  8
0
  6
HIDDEN
 62
     7
370
     0
100
AcDbSpline
210
0.0
220
0.0
230
1.0
 70
     8
 71
     3
 72
    12
 73
     8
 74
     0
 42
0.00000001
 43
0.00000001
 40
0.0
 40
0.0
 40
0.0
 40
0.0
 40
0.4999999999999992
 40
0.4999999999999992
 40
0.7499999999999996
 40
0.7499999999999996
 40
1.0
 40
1.0
 40
1.0
 40
1.0
 10
212.2150827123787
 20
102.7542615051015
 30
0.0
 10
212.2964568755881
 20
102.7018269781134
 30
0.0
 10
212.3663063490732
 20
102.6156466908146
 30
0.0
 10
212.3798472515392
 20
102.4291905176711
 30
0.0
 10
212.3688957218731
 20
102.360939797285
 30
0.0
 10
212.3240460879819
 20
102.2161555326413
 30
0.0
 10
212.2916584730708
 20
102.1423748921954
 30
0.0
 10
212.2546253414137
 20
102.0663485887309
 30
0.0
  0
SPLINE
  5
100
330
1F
100
AcDbEntity
  8
0
  6
HIDDEN
 62
     7
370
     0
100
AcDbSpline
210
0.0
220
0.0
230
1.0
 70
     8
 71
     3
 72
    48
 73
    44
 74
     0
 42
0.00000001
 43
0.00000001
 40
-0.0624999999999982
 40
-0.0624999999999982
 40
0.0
 40
0.0
 40
0.0312500000000014
 40
0.0312500000000014
 40
0.0625000000000029
 40
0.0625000000000029
 40
0.1250000000000042
 40
0.1250000000000042
 40
0.1875000000000056
 40
0.1875000000000056
 40
0.2500000000000073
 40
0.2500000000000073
 40
0.3125000000000089
 40
0.3125000000000089
 40
0.3437500000000087
 40
0.3437500000000087
 40
0.3750000000000084
 40
0.3750000000000084
 40
0.4062500000000082
 40
0.4062500000000082
 40
0.437500000000008
 40
0.437500000000008
 40
0.5000000000000073
 40
0.5000000000000073
 40
0.5625000000000068
 40
0.5625000000000068
 40
0.6250000000000062
 40
0.6250000000000062
 40
0.6875000000000057
 40
0.6875000000000057
 40
0.750000000000005
 40
0.750000000000005
 40
0.8125000000000044
 40
0.8125000000000044
 40
0.8437500000000038
 40
0.8437500000000038
 40
0.8750000000000031
 40
0.8750000000000031
 40
0.9062500000000024
 40
0.9062500000000024
 40
0.9375000000000018
 40
0.9375000000000018
 40
1.0
 40
1.0
 40
1.031250000000001
 40
1.031250000000001
 10
214.3363015605294
 20
100.3827984369576
 30
0.0
 10
214.4583693910464
 20
100.3861897621795
 30
0.0
 10
214.496831720964
 20
100.3946365781258
 30
0.0
 10
214.5669811967305
 20
100.42691144218
 30
0.0
 10
214.5989983295056
 20
100.4511841996458
 30
0.0
 10
214.6777339164233
 20
100.5480068611671
 30
0.0
 10
214.7074623172441
 20
100.6471564989021
 30
0.0
 10
214.7033505632141
 20
100.8960783006718
 30
0.0
 10
214.6693044705486
 20
101.0466797477663
 30
0.0
 10
214.5579383120239
 20
101.3555949182949
 30
0.0
 10
214.4815393884332
 20
101.5143547979207
 30
0.0
 10
214.3183662081689
 20
101.822126044759
 30
0.0
 10
214.2297267421533
 20
101.9728635776691
 30
0.0
 10
214.1205126414244
 20
102.1907887911917
 30
0.0
 10
214.0875910937125
 20
102.2639444508841
 30
0.0
 10
214.0431403807127
 20
102.4034810945299
 30
0.0
 10
214.0319075622886
 20
102.4714817298985
 30
0.0
 10
214.0386953607126
 20
102.5914152414096
 30
0.0
 10
214.0564423239981
 20
102.6448339760645
 30
0.0
 10
214.1085928504708
 20
102.732981054394
 30
0.0
 10
214.1429660149381
 20
102.7691032404784
 30
0.0
 10
214.2549126756361
 20
102.8552025908291
 30
0.0
 10
214.3403966527896
 20
102.8842996082234
 30
0.0
 10
214.49854813069
 20
102.8878382036581
 30
0.0
 10
214.5707930061249
 20
102.861873350178
 30
0.0
 10
214.6764830625099
 20
102.7401762862307
 30
0.0
 10
214.7069821082682
 20
102.6433275270029
 30
0.0
 10
214.7039257323502
 20
102.3941784565357
 30
0.0
 10
214.6700030819558
 20
102.241243133669
 30
0.0
 10
214.5600376543576
 20
101.9283622375027
 30
0.0
 10
214.4848823889648
 20
101.7674063154434
 30
0.0
 10
214.3261224592185
 20
101.4579038532394
 30
0.0
 10
214.2394777385767
 20
101.3050253867086
 30
0.0
 10
214.131007604131
 20
101.0864017712167
 30
0.0
 10
214.0980580374802
 20
101.0142547854315
 30
0.0
 10
214.0492684977199
 20
100.8719067755697
 30
0.0
 10
214.0346769035962
 20
100.8036181236487
 30
0.0
 10
214.0346586667647
 20
100.6785373616594
 30
0.0
 10
214.0493408937239
 20
100.6236758061788
 30
0.0
 10
214.0993532697485
 20
100.5317297827314
 30
0.0
 10
214.1333395757792
 20
100.495411217659
 30
0.0
 10
214.2476371443717
 20
100.4089381287199
 30
0.0
 10
214.3363015605294
 20
100.3827984369576
 30
0.0
 10
214.4583693910464
 20
100.3861897621795
 30
0.0
  0
LINE
  5
101
330
1F
100
AcDbEntity
  8
0
  6
HIDDEN
 62
     7
370
     0
100
AcDbLine
 10
61.4555115832
 20
91.05933558
 30
0.0
 11
61.4555115832
 21
88.1793978146
 31
0.0
  0
LINE
  5
102
330
1F
100
AcDbEntity
  8
0
  6
HIDDEN
 62
     7
370
     0
100
AcDbLine
 10
70.4055115832
 20
91.05933558
 30
0.0
 11
70.4055115832
 21
87.0855980488
 31
0.0
  0
LINE
  5
103
330
1F
100
AcDbEntity
  8
0
  6
HIDDEN
 62
     7
370
     0
100
AcDbLine
 10
61.4555115832
 20
127.03933558
 30
0.0
 11
61.4555115832
 21
129.9192733454
 31
0.0
  0
LINE
  5
104
330
1F
100
AcDbEntity
  8
0
  6
HIDDEN
 62
     7
370
     0
100
AcDbLine
 10
66.4055115832
 20
127.03933558
 30
0.0
 11
66.4055115832
 21
130.8934432523
 31
0.0
  0
LINE
  5
105
330
1F
100
AcDbEntity
  8
0
  6
HIDDEN
 62
     7
370
     0
100
AcDbLine
 10
111.0055115832
 20
99.54933558
 30
0.0
 11
111.0055115832
 21
118.54933558
 31
0.0
  0
LINE
  5
106
330
1F
100
AcDbEntity
  8
0
  6
HIDDEN
 62
     7
370
     0
100
AcDbLine
 10
114.0055115832
 20
99.54933558
 30
0.0
 11
114.0055115832
 21
118.54933558
 31
0.0
  0
LINE
  5
107
330
1F
100
AcDbEntity
  8
0
  6
HIDDEN
 62
     7
370
     0
100
AcDbLine
 10
102.6555115832
 20
100.54933558
 30
0.0
 11
102.6555115832
 21
117.54933558
 31
0.0
  0
LINE
  5
108
330
1F
100
AcDbEntity
  8
0
  6
HIDDEN
 62
     7
370
     0
100
AcDbLine
 10
97.1555115832
 20
77.5652125971
 30
0.0
 11
97.1555115832
 21
82.64933558
 31
0.0
  0
LINE
  5
109
330
1F
100
AcDbEntity
  8
0
  6
HIDDEN
 62
     7
370
     0
100
AcDbLine
 10
105.1555115832
 20
82.64933558
 30
0.0
 11
97.1555115832
 21
82.64933558
 31
0.0
  0
LINE
  5
10A
330
1F
100
AcDbEntity
  8
0
  6
HIDDEN
 62
     7
370
     0
100
AcDbLine
 10
108.3931863855
 20
82.64933558
 30
0.0
 11
105.1555115832
 21
82.64933558
 31
0.0
  0
LINE
  5
10B
330
1F
100
AcDbEntity
  8
0
  6
HIDDEN
 62
     7
370
     0
100
AcDbLine
 10
118.1555115832
 20
82.64933558
 30
0.0
 11
112.0178367808
 21
82.64933558
 31
0.0
  0
ARC
  5
10C
330
1F
100
AcDbEntity
  8
0
  6
HIDDEN
 62
     7
370
     0
100
AcDbCircle
 10
199.1560771504
 20
101.6585104375
 30
0.0
 40
13.10489590461497
100
AcDbArc
 50
1.7833929067
 51
4.7963217298
  0
LINE
  5
10D
330
1F
100
AcDbEntity
  8
0
  6
HIDDEN
 62
     7
370
     0
100
AcDbLine
 10
118.1555115832
 20
135.44933558
 30
0.0
 11
111.7212140515
 21
135.44933558
 31
0.0
  0
LINE
  5
10E
330
1F
100
AcDbEntity
  8
0
  6
HIDDEN
 62
     7
370
     0
100
AcDbLine
 10
108.6898091149
 20
135.44933558
 30
0.0
 11
105.1555115832
 21
135.44933558
 31
0.0
  0
LINE
  5
10F
330
1F
100
AcDbEntity
  8
0
  6
HIDDEN
 62
     7
370
     0
100
AcDbLine
 10
105.1555115832
 20
135.44933558
 30
0.0
 11
97.1555115832
 21
135.44933558
 31
0.0
  0
SPLINE
  5
110
330
1F
100
AcDbEntity
  8
0
  6
HIDDEN
 62
     7
370
     0
100
AcDbSpline
210
0.0
220
0.0
230
1.0
 70
     8
 71
     3
 72
    11
 73
     7
 74
     0
 42
0.00000001
 43
0.00000001
 40
0.0
 40
0.0
 40
0.0
 40
0.0
 40
0.0008203708524183
 40
0.0008203708524183
 40
0.0008203708524183
 40
0.0016409967870154
 40
0.0016409967870154
 40
0.0016409967870154
 40
0.0016409967870154
 10
61.45551158317783
 20
93.19730282931887
 30
0.0
 10
61.26435328287917
 20
93.15612380069973
 30
0.0
 10
61.07292621280699
 20
93.11736982846975
 30
0.0
 10
60.88128058928636
 20
93.08100206919119
 30
0.0
 10
60.68957518420591
 20
93.04462296542516
 30
0.0
 10
60.49763623214695
 20
93.01062871465761
 30
0.0
 10
60.30551158507613
 20
92.9789805892664
 30
0.0
  0
ELLIPSE
  5
111
330
1F
100
AcDbEntity
  8
0
  6
HIDDEN
 62
     7
370
     0
100
AcDbEllipse
 10
56.0630797146
 20
109.04933558
 30
0.0
 11
20.19992453366626
 21
-1.421085471520200E-14
 31
0.0
210
0.0
220
0.0
230
1.0
 40
0.8164965809
 41
1.300566354718001
 42
1.359198697209605
  0
ARC
  5
112
330
1F
100
AcDbEntity
  8
0
  6
HIDDEN
 62
     7
370
     0
100
AcDbCircle
 10
228.371277832
 20
101.661095674
 30
0.0
 40
16.16392949973658
100
AcDbArc
 50
181.7725326002
 51
184.3832381173
  0
LINE
  5
113
330
1F
100
AcDbEntity
  8
0
  6
HIDDEN
 62
     7
370
     0
100
AcDbLine
 10
61.4555115832
 20
91.05933558
 30
0.0
 11
61.4555115832
 21
93.1973028293
 31
0.0
  0
LINE
  5
114
330
1F
100
AcDbEntity
  8
0
  6
HIDDEN
 62
     7
370
     0
100
AcDbLine
 10
61.5365425965
 20
93.2478451439
 30
0.0
 11
61.4555115832
 21
93.1973028293
 31
0.0
  0
LINE
  5
115
330
1F
100
AcDbEntity
  8
0
  6
HIDDEN
 62
     7
370
     0
100
AcDbLine
 10
70.4055115832
 20
91.05933558
 30
0.0
 11
70.4055115832
 21
92.7618219576
 31
0.0
  0
LINE
  5
116
330
1F
100
AcDbEntity
  8
0
  6
HIDDEN
 62
     7
370
     0
100
AcDbLine
 10
66.4055115832
 20
127.03933558
 30
0.0
 11
66.4055115832
 21
125.3368492024
 31
0.0
  0
LINE
  5
117
330
1F
100
AcDbEntity
  8
0
  6
HIDDEN
 62
     7
370
     0
100
AcDbLine
 10
61.4555115832
 20
127.03933558
 30
0.0
 11
61.4555115832
 21
124.943960031
 31
0.0
  0
SPLINE
  5
118
330
1F
100
AcDbEntity
  8
0
  6
HIDDEN
 62
     7
370
     0
100
AcDbSpline
210
0.0
220
0.0
230
1.0
 70
     8
 71
     3
 72
     8
 73
     4
 74
     0
 42
0.00000001
 43
0.00000001
 40
0.0
 40
0.0
 40
0.0
 40
0.0
 40
1.0
 40
1.0
 40
1.0
 40
1.0
 10
61.45551158317783
 20
124.9439600310202
 30
0.0
 10
61.50551708212157
 20
124.9129242568011
 30
0.0
 10
61.55551715278598
 20
124.8818796117736
 30
0.0
 10
61.6055115865711
 20
124.8508260159933
 30
0.0
  0
LINE
  5
119
330
1F
100
AcDbEntity
  8
0
  6
HIDDEN
 62
     7
370
     0
100
AcDbLine
 10
211.2055115832
 20
104.14933558
 30
0.0
 11
211.2055115832
 21
113.94933558
 31
0.0
  0
SPLINE
  5
11A
330
1F
100
AcDbEntity
  8
0
  6
HIDDEN
 62
     7
370
     0
100
AcDbSpline
210
0.0
220
0.0
230
1.0
 70
     8
 71
     3
 72
    38
 73
    34
 74
     0
 42
0.00000001
 43
0.00000001
 40
0.0
 40
0.0
 40
0.0
 40
0.0
 40
0.0625
 40
0.0625
 40
0.125
 40
0.125
 40
0.1875
 40
0.1875
 40
0.25
 40
0.25
 40
0.3125
 40
0.3125
 40
0.375
 40
0.375
 40
0.4375
 40
0.4375
 40
0.5
 40
0.5
 40
0.5625
 40
0.5625
 40
0.625
 40
0.625
 40
0.6875
 40
0.6875
 40
0.75
 40
0.75
 40
0.8125
 40
0.8125
 40
0.875
 40
0.875
 40
0.9375
 40
0.9375
 40
1.0
 40
1.0
 40
1.0
 40
1.0
 10
214.310737565058
 20
112.010650288684
 30
0.0
 10
214.2089478824647
 20
111.9169173547972
 30
0.0
 10
214.0934116310611
 20
111.8356369062774
 30
0.0
 10
213.8345267006574
 20
111.7013349922585
 30
0.0
 10
213.6943833743787
 20
111.6505285279361
 30
0.0
 10
213.401897266578
 20
111.5880956834174
 30
0.0
 10
213.2492131350964
 20
111.5768350067125
 30
0.0
 10
212.9496450946927
 20
111.5962729398182
 30
0.0
 10
212.7999037413625
 20
111.6272709310769
 30
0.0
 10
212.521432057807
 20
111.7250223561314
 30
0.0
 10
212.3891715995518
 20
111.7929177858113
 30
0.0
 10
212.1563801370631
 20
111.9533242686996
 30
0.0
 10
212.0525471986631
 20
112.0480417270796
 30
0.0
 10
211.8843629984968
 20
112.2495770040215
 30
0.0
 10
211.8176614611127
 20
112.3590942050684
 30
0.0
 10
211.7287007838763
 20
112.5784207963561
 30
0.0
 10
211.7055975672825
 20
112.6896896996446
 30
0.0
 10
211.7054260834515
 20
112.9031077834004
 30
0.0
 10
211.7280327055135
 20
113.0043493544498
 30
0.0
 10
211.8173832986067
 20
113.1911264335301
 30
0.0
 10
211.8824991444495
 20
113.2741005888759
 30
0.0
 10
212.0525850882514
 20
113.4214239865579
 30
0.0
 10
212.1537472386456
 20
113.4826436462961
 30
0.0
 10
212.3884792054352
 20
113.5848079319568
 30
0.0
 10
212.5183787077231
 20
113.6239098368778
 30
0.0
 10
212.7976082078742
 20
113.6801764895114
 30
0.0
 10
212.9463832498245
 20
113.69698080175
 30
0.0
 10
213.2459047249262
 20
113.7079085576986
 30
0.0
 10
213.3992436794194
 20
113.7020100499275
 30
0.0
 10
213.6911091940264
 20
113.6677899401329
 30
0.0
 10
213.8333628464469
 20
113.6389890794953
 30
0.0
 10
214.0906078468083
 20
113.5595299334204
 30
0.0
 10
214.2089310100286
 20
113.5080171970176
 30
0.0
 10
214.310737565058
 20
113.4448577555289
 30
0.0
  0
SPLINE
  5
11B
330
1F
100
AcDbEntity
  8
0
  6
HIDDEN
 62
     7
370
     0
100
AcDbSpline
210
0.0
220
0.0
230
1.0
 70
     8
 71
     3
 72
     8
 73
     4
 74
     0
 42
0.00000001
 43
0.00000001
 40
0.0
 40
0.0
 40
0.0
 40
0.0
 40
1.0
 40
1.0
 40
1.0
 40
1.0
 10
214.310737565058
 20
113.4448577555289
 30
0.0
 10
214.3604307995209
 20
113.4140287295048
 30
0.0
 10
214.4060765777348
 20
113.3740655908927
 30
0.0
 10
214.4475456223883
 20
113.3269435152761
 30
0.0
  0
SPLINE
  5
11C
330
1F
100
AcDbEntity
  8
0
  6
HIDDEN
 62
     7
370
     0
100
AcDbSpline
210
0.0
220
0.0
230
1.0
 70
     8
 71
     3
 72
    12
 73
     8
 74
     0
 42
0.00000001
 43
0.00000001
 40
0.0
 40
0.0
 40
0.0
 40
0.0
 40
0.25
 40
0.25
 40
0.5
 40
0.5
 40
1.0
 40
1.0
 40
1.0
 40
1.0
 10
214.4475456223883
 20
113.3269435152761
 30
0.0
 10
214.5315297356763
 20
113.2315107468096
 30
0.0
 10
214.5953789904878
 20
113.1327821297942
 30
0.0
 10
214.6831279298245
 20
112.9254915124476
 30
0.0
 10
214.7053760864932
 20
112.8196661514517
 30
0.0
 10
214.7057807252696
 20
112.5042112867648
 30
0.0
 10
214.6155087447169
 20
112.29745901211
 30
0.0
 10
214.4475456223883
 20
112.1375306807713
 30
0.0
  0
LINE
  5
11D
330
1F
100
AcDbEntity
  8
0
  6
HIDDEN
 62
     7
370
     0
100
AcDbLine
 10
215.2055115832
 20
104.04933558
 30
0.0
 11
215.2055115832
 21
114.04933558
 31
0.0
  0
SPLINE
  5
11E
330
1F
100
AcDbEntity
  8
0
  6
HIDDEN
 62
     7
370
     0
100
AcDbSpline
210
0.0
220
0.0
230
1.0
 70
     8
 71
     3
 72
    20
 73
    16
 74
     0
 42
0.00000001
 43
0.00000001
 40
0.0
 40
0.0
 40
0.0
 40
0.0
 40
0.1119595197684142
 40
0.1774767634647507
 40
0.2490961890179794
 40
0.3298422315093885
 40
0.3986125823881415
 40
0.4998893016461092
 40
0.6138510293005034
 40
0.6790150176761197
 40
0.7495394203319945
 40
0.8296829944212418
 40
0.8981246285268906
 40
0.9995320175861913
 40
1.0
 40
1.0
 40
1.0
 40
1.0
 10
86.95435203304069
 20
85.4493418181938
 30
0.0
 10
86.91102829474215
 20
85.46277113623084
 30
0.0
 10
86.84235207256536
 20
85.48405911518681
 30
0.0
 10
86.39717294651508
 20
85.5873699268353
 30
0.0
 10
85.87061466284531
 20
85.70067315689718
 30
0.0
 10
85.18518964171615
 20
85.82360602468978
 30
0.0
 10
84.29187224441732
 20
85.94564048387424
 30
0.0
 10
83.17851285727969
 20
86.06337679165884
 30
0.0
 10
82.06773877664406
 20
86.07535229403449
 30
0.0
 10
81.18299047473866
 20
86.04829400390315
 30
0.0
 10
80.51579388010495
 20
86.00036193949533
 30
0.0
 10
79.97452137787772
 20
85.94406842713076
 30
0.0
 10
79.58694141880557
 20
85.89898551649198
 30
0.0
 10
79.39300489873648
 20
85.86011234179206
 30
0.0
 10
79.4561073589662
 20
85.8708183990328
 30
0.0
 10
79.45639723120154
 20
85.87086757918732
 30
0.0
  0
LINE
  5
11F
330
1F
100
AcDbEntity
  8
0
  6
HIDDEN
 62
     7
370
     0
100
AcDbLine
 10
80.3655234955
 20
85.9816737234
 30
0.0
 11
80.5493688087
 21
85.9998630659
 31
0.0
  0
LINE
  5
120
330
1F
100
AcDbEntity
  8
0
  6
HIDDEN
 62
     7
370
     0
100
AcDbLine
 10
80.5493661102
 20
132.0987386628
 30
0.0
 11
80.3752928283
 21
132.1159481888
 31
0.0
  0
SPLINE
  5
121
330
1F
100
AcDbEntity
  8
0
  6
HIDDEN
 62
     7
370
     0
100
AcDbSpline
210
0.0
220
0.0
230
1.0
 70
     8
 71
     3
 72
    20
 73
    16
 74
     0
 42
0.00000001
 43
0.00000001
 40
0.0
 40
0.0
 40
0.0
 40
0.0
 40
0.0004889684280502
 40
0.1018319933926956
 40
0.1702475582150564
 40
0.2503692056770218
 40
0.3209568221796114
 40
0.3861816196721121
 40
0.5002554836817364
 40
0.6012243489302103
 40
0.669768055864141
 40
0.750240190758111
 40
0.8220490693822882
 40
0.8877204546071489
 40
1.0
 40
1.0
 40
1.0
 40
1.0
 10
79.45643061596297
 20
132.2277370341541
 30
0.0
 10
79.45612697496605
 20
132.2277886213043
 30
0.0
 10
79.39289105580048
 20
132.2385321009176
 30
0.0
 10
79.5860950895948
 20
132.199676110259
 30
0.0
 10
79.9730421445027
 20
132.1546526198544
 30
0.0
 10
80.51404906782902
 20
132.0983896577615
 30
0.0
 10
81.18154932929403
 20
132.0504584651674
 30
0.0
 10
82.0673771806474
 20
132.0233850094379
 30
0.0
 10
83.17818375273517
 20
132.0352110130175
 30
0.0
 10
84.29025411875843
 20
132.1526600881728
 30
0.0
 10
85.18135442495635
 20
132.2743644764124
 30
0.0
 10
85.86683887576649
 20
132.397185521987
 30
0.0
 10
86.39482677530404
 20
132.5106237736693
 30
0.0
 10
86.84221072679729
 20
132.6143643293079
 30
0.0
 10
86.91102119315177
 20
132.6357871225851
 30
0.0
 10
86.95443770046495
 20
132.6493040032323
 30
0.0
  0
LINE
  5
122
330
1F
100
AcDbEntity
  8
0
  6
HIDDEN
 62
     7
370
     0
100
AcDbLine
 10
155.3055115832
 20
104.79933558
 30
0.0
 11
155.3055115832
 21
113.29933558
 31
0.0
  0
LINE
  5
123
330
1F
100
AcDbEntity
  8
0
  6
HIDDEN
 62
     7
370
     0
100
AcDbLine
 10
155.8162431094
 20
105.64933558
 30
0.0
 11
155.8162431094
 21
112.44933558
 31
0.0
  0
LINE
  5
124
330
1F
100
AcDbEntity
  8
0
  6
HIDDEN
 62
     7
370
     0
100
AcDbLine
 10
164.1555115832
 20
125.9719853108
 30
0.0
 11
166.6555115832
 21
125.9719853108
 31
0.0
  0
LINE
  5
125
330
1F
100
AcDbEntity
  8
0
  6
HIDDEN
 62
     7
370
     0
100
AcDbLine
 10
161.6555115832
 20
125.9719853108
 30
0.0
 11
164.1555115832
 21
125.9719853108
 31
0.0
  0
LINE
  5
126
330
1F
100
AcDbEntity
  8
0
  6
HIDDEN
 62
     7
370
     0
100
AcDbLine
 10
166.6555115832
 20
92.1266858492
 30
0.0
 11
161.6555115832
 21
92.1266858492
 31
0.0
  0
SPLINE
  5
127
330
1F
100
AcDbEntity
  8
0
  6
HIDDEN
 62
     7
370
     0
100
AcDbSpline
210
0.0
220
0.0
230
1.0
 70
     8
 71
     3
 72
     8
 73
     4
 74
     0
 42
0.00000001
 43
0.00000001
 40
0.0
 40
0.0
 40
0.0
 40
0.0
 40
1.0
 40
1.0
 40
1.0
 40
1.0
 10
214.4475456223883
 20
112.1375306807713
 30
0.0
 10
214.4060765777348
 20
112.0980453757727
 30
0.0
 10
214.3604307995209
 20
112.0564102570998
 30
0.0
 10
214.310737565058
 20
112.010650288684
 30
0.0
  0
LINE
  5
128
330
1F
100
AcDbEntity
  8
0
  6
HIDDEN
 62
     7
370
     0
100
AcDbLine
 10
164.1555115832
 20
117.54933558
 30
0.0
 11
166.6555115832
 21
117.54933558
 31
0.0
  0
LINE
  5
129
330
1F
100
AcDbEntity
  8
0
  6
HIDDEN
 62
     7
370
     0
100
AcDbLine
 10
161.6555115832
 20
117.54933558
 30
0.0
 11
164.1555115832
 21
117.54933558
 31
0.0
  0
LINE
  5
12A
330
1F
100
AcDbEntity
  8
0
  6
HIDDEN
 62
     7
370
     0
100
AcDbLine
 10
166.6555115832
 20
100.54933558
 30
0.0
 11
161.6555115832
 21
100.54933558
 31
0.0
  0
SPLINE
  5
12B
330
1F
100
AcDbEntity
  8
0
  6
HIDDEN
 62
     7
370
     0
100
AcDbSpline
210
0.0
220
0.0
230
1.0
 70
     8
 71
     3
 72
    48
 73
    44
 74
     0
 42
0.00000001
 43
0.00000001
 40
-0.0625000000000021
 40
-0.0625000000000021
 40
0.0
 40
0.0
 40
0.0624999999999978
 40
0.0624999999999978
 40
0.1249999999999957
 40
0.1249999999999957
 40
0.1874999999999935
 40
0.1874999999999935
 40
0.2499999999999913
 40
0.2499999999999913
 40
0.3124999999999892
 40
0.3124999999999892
 40
0.3437499999999889
 40
0.3437499999999889
 40
0.3749999999999887
 40
0.3749999999999887
 40
0.4062499999999884
 40
0.4062499999999884
 40
0.4374999999999882
 40
0.4374999999999882
 40
0.4999999999999889
 40
0.4999999999999889
 40
0.5624999999999896
 40
0.5624999999999896
 40
0.6249999999999903
 40
0.6249999999999903
 40
0.6562499999999911
 40
0.6562499999999911
 40
0.6874999999999919
 40
0.6874999999999919
 40
0.7499999999999933
 40
0.7499999999999933
 40
0.8124999999999947
 40
0.8124999999999947
 40
0.8437499999999956
 40
0.8437499999999956
 40
0.8749999999999963
 40
0.8749999999999963
 40
0.9062499999999971
 40
0.9062499999999971
 40
0.9374999999999979
 40
0.9374999999999979
 40
1.0
 40
1.0
 40
1.062499999999998
 40
1.062499999999998
 10
214.4992577922026
 20
116.6201060342854
 30
0.0
 10
214.3361024362123
 20
116.3080819068331
 30
0.0
 10
214.248398526961
 20
116.1587506535334
 30
0.0
 10
214.0964066975101
 20
115.8632666169488
 30
0.0
 10
214.0355190798184
 20
115.7183032899866
 30
0.0
 10
214.0338352433732
 20
115.4670612031266
 30
0.0
 10
214.092281943877
 20
115.3747656115419
 30
0.0
 10
214.2373050132361
 20
115.2519697197213
 30
0.0
 10
214.3228241214966
 20
115.2192097920993
 30
0.0
 10
214.4821164637744
 20
115.2076179047286
 30
0.0
 10
214.5568305055594
 20
115.2293650759547
 30
0.0
 10
214.6404849126101
 20
115.3139216379477
 30
0.0
 10
214.6630482704412
 20
115.3503138661642
 30
0.0
 10
214.6948852437724
 20
115.4402433210439
 30
0.0
 10
214.7040362423894
 20
115.4944917993338
 30
0.0
 10
214.7066480165789
 20
115.6150551522372
 30
0.0
 10
214.7001930291858
 20
115.6831509399417
 30
0.0
 10
214.6730056787093
 20
115.8270400753412
 30
0.0
 10
214.6524858942393
 20
115.9027393106842
 30
0.0
 10
214.5740703247188
 20
116.137088618529
 30
0.0
 10
214.500884330342
 20
116.2977956032768
 30
0.0
 10
214.3439050746192
 20
116.6079418011506
 30
0.0
 10
214.2575297735697
 20
116.7609027876251
 30
0.0
 10
214.1084283193145
 20
117.0548632825379
 30
0.0
 10
214.0436759700466
 20
117.2021084174012
 30
0.0
 10
214.0315034327814
 20
117.3938979331362
 30
0.0
 10
214.0418846606465
 20
117.4510203917027
 30
0.0
 10
214.0855255919992
 20
117.548015687416
 30
0.0
 10
214.1173244662773
 20
117.5868200284837
 30
0.0
 10
214.2273780253393
 20
117.6806205353722
 30
0.0
 10
214.3150445322688
 20
117.7109428454135
 30
0.0
 10
214.4797811998874
 20
117.7161895866533
 30
0.0
 10
214.5550943915418
 20
117.6903341151198
 30
0.0
 10
214.6398083374759
 20
117.6010092430309
 30
0.0
 10
214.6625054053998
 20
117.5634858282754
 30
0.0
 10
214.694758673411
 20
117.4713586204298
 30
0.0
 10
214.7039174150588
 20
117.4169183791676
 30
0.0
 10
214.7067167138919
 20
117.2963206648394
 30
0.0
 10
214.7003227721893
 20
117.2283778596701
 30
0.0
 10
214.6732297081069
 20
117.0859208454334
 30
0.0
 10
214.6526079363166
 20
117.0107924024749
 30
0.0
 10
214.5735131199763
 20
116.7789233986165
 30
0.0
 10
214.4992577922026
 20
116.6201060342854
 30
0.0
 10
214.3361024362123
 20
116.3080819068331
 30
0.0
  0
SPLINE
  5
12C
330
1F
100
AcDbEntity
  8
0
  6
HIDDEN
 62
     7
370
     0
100
AcDbSpline
210
0.0
220
0.0
230
1.0
 70
     8
 71
     3
 72
    14
 73
    10
 74
     0
 42
0.00000001
 43
0.00000001
 40
0.0
 40
0.0
 40
0.0
 40
0.0
 40
0.25
 40
0.25
 40
0.5
 40
0.5
 40
0.75
 40
0.75
 40
1.0
 40
1.0
 40
1.0
 40
1.0
 10
212.2546253414136
 20
116.0323225711924
 30
0.0
 10
212.2161218308995
 20
115.9993916922165
 30
0.0
 10
212.1790089072594
 20
115.9682139289003
 30
0.0
 10
212.1144271290424
 20
115.8995921975726
 30
0.0
 10
212.0856815347646
 20
115.8622832799156
 30
0.0
 10
212.0754442305892
 20
115.7402936628081
 30
0.0
 10
212.0967768808679
 20
115.6583659494767
 30
0.0
 10
212.1496511611161
 20
115.5010393314939
 30
0.0
 10
212.1816947448609
 20
115.4221615758984
 30
0.0
 10
212.2150827123787
 20
115.3444096548215
 30
0.0
  0
SPLINE
  5
12D
330
1F
100
AcDbEntity
  8
0
  6
HIDDEN
 62
     7
370
     0
100
AcDbSpline
210
0.0
220
0.0
230
1.0
 70
     8
 71
     3
 72
    12
 73
     8
 74
     0
 42
0.00000001
 43
0.00000001
 40
0.0
 40
0.0
 40
0.0
 40
0.0
 40
0.4999999999999991
 40
0.4999999999999991
 40
0.7499999999999996
 40
0.7499999999999996
 40
1.0
 40
1.0
 40
1.0
 40
1.0
 10
212.2150827123787
 20
115.3444096548216
 30
0.0
 10
212.2964568755881
 20
115.3968441818097
 30
0.0
 10
212.3663063490734
 20
115.4830244691086
 30
0.0
 10
212.3798472515393
 20
115.6694806422522
 30
0.0
 10
212.3688957218732
 20
115.7377313626383
 30
0.0
 10
212.3240460879819
 20
115.882515627282
 30
0.0
 10
212.2916584730709
 20
115.9562962677277
 30
0.0
 10
212.2546253414138
 20
116.0323225711923
 30
0.0
  0
LWPOLYLINE
  5
12E
330
1F
100
AcDbEntity
  8
0
  6
HIDDEN
 62
     7
370
     0
100
AcDbPolyline
 90
       17
 70
   128
 43
0.0
 10
213.2055115832
 20
116.827510173
 10
213.7795367317
 20
116.9082481211
 10
214.266171755
 20
117.1381703448
 10
214.5913308819
 20
117.4822732697
 10
214.7055115832
 20
117.8881703448
 10
214.5913308819
 20
118.2940674199
 10
214.266171755
 20
118.6381703448
 10
213.7795367317
 20
118.8680925685
 10
213.2055115832
 20
118.9488305166
 10
212.6314864346
 20
118.8680925685
 10
212.1448514114
 20
118.6381703448
 10
211.8196922844
 20
118.2940674199
 10
211.7055115832
 20
117.8881703448
 10
211.8196922844
 20
117.4822732697
 10
212.1448514114
 20
117.1381703448
 10
212.6314864346
 20
116.9082481211
 10
213.2055115832
 20
116.827510173
  0
SPLINE
  5
12F
330
1F
100
AcDbEntity
  8
0
  6
HIDDEN
 62
     7
370
     0
100
AcDbSpline
210
0.0
220
0.0
230
1.0
 70
     8
 71
     3
 72
    10
 73
     6
 74
     0
 42
0.00000001
 43
0.00000001
 40
0.0
 40
0.0
 40
0.0
 40
0.0
 40
0.5
 40
0.5
 40
1.0
 40
1.0
 40
1.0
 40
1.0
 10
211.725009859134
 20
116.574603236635
 30
0.0
 10
211.7152921785008
 20
116.6354609397115
 30
0.0
 10
211.7087862550554
 20
116.6914477148651
 30
0.0
 10
211.7041244881892
 20
116.7928436367477
 30
0.0
 10
211.7061369563309
 20
116.8351291739462
 30
0.0
 10
211.7121699275022
 20
116.8690836177305
 30
0.0
  0
SPLINE
  5
130
330
1F
100
AcDbEntity
  8
0
  6
HIDDEN
 62
     7
370
     0
100
AcDbSpline
210
0.0
220
0.0
230
1.0
 70
     8
 71
     3
 72
    18
 73
    14
 74
     0
 42
0.00000001
 43
0.00000001
 40
0.0
 40
0.0
 40
0.0
 40
0.0
 40
0.0144187707910312
 40
0.1582430941144108
 40
0.220408313414066
 40
0.2732374383054738
 40
0.3264967857801422
 40
0.3832985338701338
 40
0.4752640532078723
 40
0.6187362135312354
 40
0.764579499240469
 40
0.912341054984072
 40
1.0
 40
1.0
 40
1.0
 40
1.0
 10
211.7349817922657
 20
116.9311715051597
 30
0.0
 10
211.7358968419225
 20
116.9338028296876
 30
0.0
 10
211.7459393268929
 20
116.9626810843563
 30
0.0
 10
211.7711236917291
 20
116.9625153014032
 30
0.0
 10
211.7930154228692
 20
116.9387985809159
 30
0.0
 10
211.8017131548299
 20
116.9009752196461
 30
0.0
 10
211.7992845177625
 20
116.841438324027
 30
0.0
 10
211.7841373091861
 20
116.7517254444207
 30
0.0
 10
211.7540386656388
 20
116.6167381782644
 30
0.0
 10
211.7189427122076
 20
116.4456338393075
 30
0.0
 10
211.7013523100931
 20
116.2752476203441
 30
0.0
 10
211.7088482872623
 20
116.1558533009424
 30
0.0
 10
211.7287559814627
 20
116.123167133815
 30
0.0
 10
211.7361686216775
 20
116.1109964226078
 30
0.0
  0
LWPOLYLINE
  5
131
330
1F
100
AcDbEntity
  8
0
  6
HIDDEN
 62
     7
370
     0
100
AcDbPolyline
 90
        8
 70
   128
 43
0.0
 10
211.7495368317
 20
116.0829559943
 10
211.7785234319
 20
116.0749352859
 10
211.7938915293
 20
116.0940269268
 10
211.8000670465
 20
116.127866625
 10
211.7981946243
 20
116.1789520629
 10
211.7863991126
 20
116.2577605781
 10
211.7579926159
 20
116.3990081288
 10
211.7250098591
 20
116.5746032366
  0
SPLINE
  5
132
330
1F
100
AcDbEntity
  8
0
  6
HIDDEN
 62
     7
370
     0
100
AcDbSpline
210
0.0
220
0.0
230
1.0
 70
     8
 71
     3
 72
    14
 73
    10
 74
     0
 42
0.00000001
 43
0.00000001
 40
0.0
 40
0.0
 40
0.0
 40
0.0
 40
0.25
 40
0.25
 40
0.5
 40
0.5
 40
0.75
 40
0.75
 40
1.0
 40
1.0
 40
1.0
 40
1.0
 10
212.2150827123786
 20
116.9375516145276
 30
0.0
 10
212.1815339958855
 20
116.9739645618018
 30
0.0
 10
212.1492482669614
 20
117.0091973781337
 30
0.0
 10
212.0963034872744
 20
117.0890521767969
 30
0.0
 10
212.0752987482905
 20
117.1356056489707
 30
0.0
 10
212.0859436090674
 20
117.274929552358
 30
0.0
 10
212.1149798743235
 20
117.3582126695167
 30
0.0
 10
212.1793345681618
 20
117.5170332714661
 30
0.0
 10
212.216270627377
 20
117.5956779439931
 30
0.0
 10
212.2546253414114
 20
117.6729415734112
 30
0.0
  0
SPLINE
  5
133
330
1F
100
AcDbEntity
  8
0
  6
HIDDEN
 62
     7
370
     0
100
AcDbSpline
210
0.0
220
0.0
230
1.0
 70
     8
 71
     3
 72
    14
 73
    10
 74
     0
 42
0.00000001
 43
0.00000001
 40
0.0
 40
0.0
 40
0.0
 40
0.0
 40
0.25
 40
0.25
 40
0.5
 40
0.5
 40
0.75
 40
0.75
 40
1.0
 40
1.0
 40
1.0
 40
1.0
 10
212.2546253414137
 20
117.6729415734131
 30
0.0
 10
212.2916513585849
 20
117.6398496883759
 30
0.0
 10
212.3240187605682
 20
117.5993776535081
 30
0.0
 10
212.3688466332119
 20
117.4990273669825
 30
0.0
 10
212.37973720447
 20
117.440986108621
 30
0.0
 10
212.3710597652941
 20
117.3092248973297
 30
0.0
 10
212.3515104740431
 20
117.2376461491731
 30
0.0
 10
212.2933129895722
 20
117.0896222919547
 30
0.0
 10
212.2558269091282
 20
117.0144656092929
 30
0.0
 10
212.2150827123786
 20
116.9375516145272
 30
0.0
  0
SPLINE
  5
134
330
1F
100
AcDbEntity
  8
0
  6
HIDDEN
 62
     7
370
     0
100
AcDbSpline
210
0.0
220
0.0
230
1.0
 70
     8
 71
     3
 72
     8
 73
     4
 74
     0
 42
0.00000001
 43
0.00000001
 40
0.0
 40
0.0
 40
0.0
 40
0.0
 40
0.000159097695343
 40
0.000159097695343
 40
0.000159097695343
 40
0.000159097695343
 10
61.59067959239585
 20
93.24784514392995
 30
0.0
 10
61.5456281218915
 20
93.21986625960616
 30
0.0
 10
61.5005720834767
 20
93.1918947292311
 30
0.0
 10
61.45551158317783
 20
93.16393038987857
 30
0.0
  0
SPLINE
  5
135
330
1F
100
AcDbEntity
  8
0
  6
HIDDEN
 62
     7
370
     0
100
AcDbSpline
210
0.0
220
0.0
230
1.0
 70
     8
 71
     3
 72
    11
 73
     7
 74
     0
 42
0.00000001
 43
0.00000001
 40
0.0
 40
0.0
 40
0.0
 40
0.0
 40
0.0008212909311456
 40
0.0008212909311456
 40
0.0008212909311456
 40
0.001642825724306
 40
0.001642825724306
 40
0.001642825724306
 40
0.001642825724306
 10
61.45551158317783
 20
93.16393038987857
 30
0.0
 10
61.26436656169565
 20
93.12064420102602
 30
0.0
 10
61.07294822601918
 20
93.07970769138875
 30
0.0
 10
60.88130215135804
 20
93.04110592000217
 30
0.0
 10
60.68959906981644
 20
93.00249266616507
 30
0.0
 10
60.49765394653092
 20
92.96621245687906
 30
0.0
 10
60.30551158317775
 20
92.93224555052757
 30
0.0
  0
ARC
  5
136
330
1F
100
AcDbEntity
  8
0
  6
HIDDEN
 62
     7
370
     0
100
AcDbCircle
 10
228.3712778315
 20
116.4375754859
 30
0.0
 40
16.16392949925277
100
AcDbArc
 50
175.6167618827
 51
178.2274673998
  0
LINE
  5
137
330
1F
100
AcDbEntity
  8
0
  6
HIDDEN
 62
     7
370
     0
100
AcDbLine
 10
108.2955115832
 20
129.1852022114
 30
0.0
 11
108.2955115832
 21
128.89933558
 31
0.0
  0
LINE
  5
138
330
1F
100
AcDbEntity
  8
0
  6
HIDDEN
 62
     7
370
     0
100
AcDbLine
 10
112.1155115832
 20
129.2304815925
 30
0.0
 11
112.1155115832
 21
128.89933558
 31
0.0
  0
ARC
  5
139
330
1F
100
AcDbEntity
  8
0
  6
HIDDEN
 62
     7
370
     0
100
AcDbCircle
 10
199.1560771503
 20
116.4401607224
 30
0.0
 40
13.10489590472672
100
AcDbArc
 50
355.2036782702
 51
358.2166070933
  0
LINE
  5
13A
330
1F
100
AcDbEntity
  8
0
  6
HIDDEN
 62
     7
370
     0
100
AcDbLine
 10
113.5974444147
 20
133.5080252423
 30
0.0
 11
113.5974444147
 21
128.89933558
 31
0.0
  0
SPLINE
  5
13B
330
1F
100
AcDbEntity
  8
0
  6
HIDDEN
 62
     7
370
     0
100
AcDbSpline
210
0.0
220
0.0
230
1.0
 70
     8
 71
     3
 72
    24
 73
    20
 74
     0
 42
0.00000001
 43
0.00000001
 40
0.0
 40
0.0
 40
0.0
 40
0.0
 40
0.25
 40
0.25
 40
0.374999999999999
 40
0.374999999999999
 40
0.4374999999999993
 40
0.4374999999999993
 40
0.4687499999999994
 40
0.4687499999999994
 40
0.4999999999999995
 40
0.4999999999999995
 40
0.5624999999999971
 40
0.5624999999999971
 40
0.6249999999999947
 40
0.6249999999999947
 40
0.7499999999999947
 40
0.7499999999999947
 40
1.0
 40
1.0
 40
1.0
 40
1.0
 10
60.36817495790122
 20
89.37478303518087
 30
0.0
 10
60.38192807657147
 20
89.44543309317116
 30
0.0
 10
60.39970064397733
 20
89.51203120593607
 30
0.0
 10
60.4519517355327
 20
89.58612922616928
 30
0.0
 10
60.47298681111424
 20
89.60738703333084
 30
0.0
 10
60.52588721874269
 20
89.61553295947708
 30
0.0
 10
60.5469928916206
 20
89.61459315608131
 30
0.0
 10
60.59304506029856
 20
89.59357716450396
 30
0.0
 10
60.61141553228196
 20
89.58266835839635
 30
0.0
 10
60.65296716734767
 20
89.55003344744897
 30
0.0
 10
60.67553384010457
 20
89.52854146707762
 30
0.0
 10
60.73831485656459
 20
89.4600755234913
 30
0.0
 10
60.77144461753248
 20
89.4140010652862
 30
0.0
 10
60.8283623040175
 20
89.32899317695153
 30
0.0
 10
60.85254832952128
 20
89.28871287577014
 30
0.0
 10
60.91775627990103
 20
89.1737766493042
 30
0.0
 10
60.95247234009227
 20
89.1031936641572
 30
0.0
 10
61.04568761042314
 20
88.8989879050786
 30
0.0
 10
61.09136014578382
 20
88.77608952275123
 30
0.0
 10
61.12966522928237
 20
88.65921624636367
 30
0.0
  0
SPLINE
  5
13C
330
1F
100
AcDbEntity
  8
0
  6
HIDDEN
 62
     7
370
     0
100
AcDbSpline
210
0.0
220
0.0
230
1.0
 70
     8
 71
     3
 72
    11
 73
     7
 74
     0
 42
0.00000001
 43
0.00000001
 40
0.0
 40
0.0
 40
0.0
 40
0.0
 40
0.0005781862223978
 40
0.0005781862223978
 40
0.0005781862223978
 40
0.0011563724723928
 40
0.0011563724723928
 40
0.0011563724723928
 40
0.0011563724723928
 10
61.30551158317782
 20
121.6894778870084
 30
0.0
 10
61.13885102890221
 20
121.7540073984219
 30
0.0
 10
60.97218773199572
 20
121.8185101022657
 30
0.0
 10
60.80552114816548
 20
121.8829965506994
 30
0.0
 10
60.6388545559064
 20
121.9474830023943
 30
0.0
 10
60.47218469028053
 20
122.0119530111224
 30
0.0
 10
60.30551158317779
 20
122.076408777855
 30
0.0
  0
SPLINE
  5
13D
330
1F
100
AcDbEntity
  8
0
  6
HIDDEN
 62
     7
370
     0
100
AcDbSpline
210
0.0
220
0.0
230
1.0
 70
     8
 71
     3
 72
    11
 73
     7
 74
     0
 42
0.00000001
 43
0.00000001
 40
0.0
 40
0.0
 40
0.0
 40
0.0
 40
0.0005778746105108
 40
0.0005778746105108
 40
0.0005778746105108
 40
0.0011557494857226
 40
0.0011557494857226
 40
0.0011557494857226
 40
0.0011557494857226
 10
60.3055115831778
 20
96.02211372447171
 30
0.0
 10
60.47217845959113
 20
96.08792585116558
 30
0.0
 10
60.6388451791526
 20
96.15378433130317
 30
0.0
 10
60.80551182720124
 20
96.21969190423381
 30
0.0
 10
60.97217855171991
 20
96.28559950740417
 30
0.0
 10
61.13884524614049
 20
96.35155661579269
 30
0.0
 10
61.30551158317782
 20
96.41755835571539
 30
0.0
  0
SPLINE
  5
13E
330
1F
100
AcDbEntity
  8
0
  6
HIDDEN
 62
     7
370
     0
100
AcDbSpline
210
0.0
220
0.0
230
1.0
 70
     8
 71
     3
 72
    11
 73
     7
 74
     0
 42
0.00000001
 43
0.00000001
 40
0.0000000000000006
 40
0.0000000000000006
 40
0.0000000000000006
 40
0.0000000000000006
 40
0.0005780486062768
 40
0.0005780486062768
 40
0.0005780486062768
 40
0.0011560973514127
 40
0.0011560973514127
 40
0.0011560973514127
 40
0.0011560973514127
 10
60.3055115831778
 20
119.0301500816533
 30
0.0
 10
60.47218143922273
 20
118.9677782201389
 30
0.0
 10
60.63884914330698
 20
118.9054243598411
 30
0.0
 10
60.80551544776064
 20
118.8431047996551
 30
0.0
 10
60.97218178845437
 20
118.7807852259182
 30
0.0
 10
61.13884674508316
 20
118.7185000215986
 30
0.0
 10
61.30551158317782
 20
118.6562749010299
 30
0.0
  0
SPLINE
  5
13F
330
1F
100
AcDbEntity
  8
0
  6
HIDDEN
 62
     7
370
     0
100
AcDbSpline
210
0.0
220
0.0
230
1.0
 70
     8
 71
     3
 72
    11
 73
     7
 74
     0
 42
0.00000001
 43
0.00000001
 40
0.0
 40
0.0
 40
0.0
 40
0.0
 40
0.0005782401583533
 40
0.0005782401583533
 40
0.0005782401583533
 40
0.0011564805960992
 40
0.0011564805960992
 40
0.0011564805960992
 40
0.0011564805960992
 10
61.30551158317782
 20
99.44850878756395
 30
0.0
 10
61.13886063282892
 20
99.38508332950316
 30
0.0
 10
60.97220104024625
 20
99.32172780584787
 30
0.0
 10
60.8055339878177
 20
99.2584302214979
 30
0.0
 10
60.63886685125389
 20
99.19513260519464
 30
0.0
 10
60.47219224380784
 20
99.13189281025397
 30
0.0
 10
60.30551158317776
 20
99.06869280361514
 30
0.0
  0
CIRCLE
  5
140
330
1F
100
AcDbEntity
  8
0
  6
HIDDEN
 62
     7
370
     0
100
AcDbCircle
 10
99.2055115832
 20
109.04933558
 30
0.0
 40
5.000000000000014
  0
ARC
  5
141
330
1F
100
AcDbEntity
  8
0
  6
HIDDEN
 62
     7
370
     0
100
AcDbCircle
 10
232.7055115832
 20
109.04933558
 30
0.0
 40
5.0
100
AcDbArc
 50
1.3444752326
 51
64.438956792
  0
LWPOLYLINE
  5
142
330
1F
100
AcDbEntity
  8
0
  6
HIDDEN
 62
     7
370
     0
100
AcDbPolyline
 90
        3
 70
   128
 43
0.0
 10
231.4631756264
 20
104.2061340179
 10
232.2996873083
 20
104.0658321278
 10
233.1871611748
 20
104.0725882817
  0
ARC
  5
143
330
1F
100
AcDbEntity
  8
0
  6
HIDDEN
 62
     7
370
     0
100
AcDbCircle
 10
232.7055115832
 20
109.04933558
 30
0.0
 40
5.000000000000017
100
AcDbArc
 50
315.4649624316
 51
1.3444752326
  0
CIRCLE
  5
144
330
1F
100
AcDbEntity
  8
0
  6
HIDDEN
 62
     7
370
     0
100
AcDbCircle
 10
232.7055115832
 20
109.04933558
 30
0.0
 40
2.500000000000008
  0
CIRCLE
  5
145
330
1F
100
AcDbEntity
  8
0
  6
HIDDEN
 62
     7
370
     0
100
AcDbCircle
 10
232.7055115832
 20
109.04933558
 30
0.0
 40
3.500000000000017
  0
LWPOLYLINE
  5
146
330
1F
100
AcDbEntity
  8
0
  6
HIDDEN
 62
     7
370
     0
100
AcDbPolyline
 90
       17
 70
   128
 43
0.0
 10
246.7901967424
 20
101.0853271806
 10
246.775046538
 20
101.0468382553
 10
246.7544385277
 20
101.2346812831
 10
246.7315100943
 20
101.6202588658
 10
246.7097518839
 20
102.1448703116
 10
246.6924763867
 20
102.7286482836
 10
246.6823136407
 20
103.2827178775
 10
246.6808108318
 20
103.7227270202
 10
246.688196749
 20
103.9816883086
 10
246.7033469534
 20
104.0201772338
 10
246.7239549636
 20
103.832334206
 10
246.7468833971
 20
103.4467566233
 10
246.7686416075
 20
102.9221451775
 10
246.7859171046
 20
102.3383672055
 10
246.7960798506
 20
101.7842976116
 10
246.7975826596
 20
101.3442884689
 10
246.7901967424
 20
101.0853271806
  0
LWPOLYLINE
  5
147
330
1F
100
AcDbEntity
  8
0
  6
HIDDEN
 62
     7
370
     0
100
AcDbPolyline
 90
       17
 70
   128
 43
0.0
 10
246.2735822253
 20
101.5541735943
 10
246.2634820891
 20
101.5285143108
 10
246.2497434156
 20
101.653742996
 10
246.2344577933
 20
101.9107947177
 10
246.2199523197
 20
102.2605356816
 10
246.2084353216
 20
102.6497209963
 10
246.2016601576
 20
103.0191007256
 10
246.200658285
 20
103.312440154
 10
246.2055822298
 20
103.4850810129
 10
246.215682366
 20
103.5107402964
 10
246.2294210395
 20
103.3855116112
 10
246.2447066618
 20
103.1284598894
 10
246.2592121354
 20
102.7787189255
 10
246.2707291335
 20
102.3895336109
 10
246.2775042975
 20
102.0201538816
 10
246.2785061701
 20
101.7268144531
 10
246.2735822253
 20
101.5541735943
  0
LWPOLYLINE
  5
148
330
1F
100
AcDbEntity
  8
0
  6
HIDDEN
 62
     7
370
     0
100
AcDbPolyline
 90
       17
 70
   128
 43
0.0
 10
252.1241345463
 20
101.2335162467
 10
252.1089843419
 20
101.1950273214
 10
252.0883763316
 20
101.3828703492
 10
252.0654478982
 20
101.7684479319
 10
252.0436896877
 20
102.2930593777
 10
252.0264141906
 20
102.8768373497
 10
252.0162514446
 20
103.4309069436
 10
252.0147486357
 20
103.8709160864
 10
252.0221345529
 20
104.1298773747
 10
252.0372847572
 20
104.1683662999
 10
252.0578927675
 20
103.9805232721
 10
252.080821201
 20
103.5949456894
 10
252.1025794114
 20
103.0703342436
 10
252.1198549085
 20
102.4865562716
 10
252.1300176545
 20
101.9324866777
 10
252.1315204635
 20
101.492477535
 10
252.1241345463
 20
101.2335162467
  0
ARC
  5
149
330
1F
100
AcDbEntity
  8
0
  6
HIDDEN
 62
     7
370
     0
100
AcDbCircle
 10
265.6784587266
 20
103.0416930856
 30
0.0
 40
13.50000978815713
100
AcDbArc
 50
176.3714903392
 51
186.6915291025
  0
LINE
  5
14A
330
1F
100
AcDbEntity
  8
0
  6
HIDDEN
 62
     7
370
     0
100
AcDbLine
 10
252.2644013068
 20
102.4624575925
 30
0.0
 11
252.2644013068
 21
101.8500851568
 31
0.0
  0
LINE
  5
14B
330
1F
100
AcDbEntity
  8
0
  6
HIDDEN
 62
     7
370
     0
100
AcDbLine
 10
250.2659432343
 20
102.4069358286
 30
0.0
 11
250.2659432343
 21
101.7945633929
 31
0.0
  0
LINE
  5
14C
330
1F
100
AcDbEntity
  8
0
  6
HIDDEN
 62
     7
370
     0
100
AcDbLine
 10
250.2659432343
 20
102.4069358286
 30
0.0
 11
250.2364983725
 21
103.2430432671
 31
0.0
  0
LINE
  5
14D
330
1F
100
AcDbEntity
  8
0
  6
HIDDEN
 62
     7
370
     0
100
AcDbLine
 10
250.2659432343
 20
102.4069358286
 30
0.0
 11
252.2644013068
 21
102.4624575925
 31
0.0
  0
LINE
  5
14E
330
1F
100
AcDbEntity
  8
0
  6
HIDDEN
 62
     7
370
     0
100
AcDbLine
 10
252.2644013068
 20
102.4624575925
 30
0.0
 11
252.234956445
 21
103.298565031
 31
0.0
  0
LINE
  5
14F
330
1F
100
AcDbEntity
  8
0
  6
HIDDEN
 62
     7
370
     0
100
AcDbLine
 10
250.2364983725
 20
103.2430432671
 30
0.0
 11
252.234956445
 21
103.298565031
 31
0.0
  0
LINE
  5
150
330
1F
100
AcDbEntity
  8
0
  6
HIDDEN
 62
     7
370
     0
100
AcDbLine
 10
250.2364983725
 20
103.2430432671
 30
0.0
 11
250.2070535107
 21
103.4667782699
 31
0.0
  0
LINE
  5
151
330
1F
100
AcDbEntity
  8
0
  6
HIDDEN
 62
     7
370
     0
100
AcDbLine
 10
252.234956445
 20
103.298565031
 30
0.0
 11
252.2055115832
 21
103.5223000338
 31
0.0
  0
LINE
  5
152
330
1F
100
AcDbEntity
  8
0
  6
HIDDEN
 62
     7
370
     0
100
AcDbLine
 10
250.2364983725
 20
102.0182983957
 30
0.0
 11
252.234956445
 21
102.0738201596
 31
0.0
  0
LINE
  5
153
330
1F
100
AcDbEntity
  8
0
  6
HIDDEN
 62
     7
370
     0
100
AcDbLine
 10
250.2364983725
 20
102.0182983957
 30
0.0
 11
250.2659432343
 21
101.7945633929
 31
0.0
  0
LINE
  5
154
330
1F
100
AcDbEntity
  8
0
  6
HIDDEN
 62
     7
370
     0
100
AcDbLine
 10
250.2659432343
 20
101.7945633929
 30
0.0
 11
252.2644013068
 21
101.8500851568
 31
0.0
  0
LINE
  5
155
330
1F
100
AcDbEntity
  8
0
  6
HIDDEN
 62
     7
370
     0
100
AcDbLine
 10
252.234956445
 20
102.0738201596
 30
0.0
 11
252.2644013068
 21
101.8500851568
 31
0.0
  0
LINE
  5
156
330
1F
100
AcDbEntity
  8
0
  6
HIDDEN
 62
     7
370
     0
100
AcDbLine
 10
250.2070535107
 20
102.8544058342
 30
0.0
 11
252.2055115832
 21
102.9099275981
 31
0.0
  0
LINE
  5
157
330
1F
100
AcDbEntity
  8
0
  6
HIDDEN
 62
     7
370
     0
100
AcDbLine
 10
250.2070535107
 20
103.4667782699
 30
0.0
 11
252.2055115832
 21
103.5223000338
 31
0.0
  0
LINE
  5
158
330
1F
100
AcDbEntity
  8
0
  6
HIDDEN
 62
     7
370
     0
100
AcDbLine
 10
250.2070535107
 20
102.8544058342
 30
0.0
 11
250.2070535107
 21
103.4667782699
 31
0.0
  0
LINE
  5
159
330
1F
100
AcDbEntity
  8
0
  6
HIDDEN
 62
     7
370
     0
100
AcDbLine
 10
250.2364983725
 20
102.0182983957
 30
0.0
 11
250.2070535107
 21
102.8544058342
 31
0.0
  0
LINE
  5
15A
330
1F
100
AcDbEntity
  8
0
  6
HIDDEN
 62
     7
370
     0
100
AcDbLine
 10
252.234956445
 20
102.0738201596
 30
0.0
 11
252.2055115832
 21
102.9099275981
 31
0.0
  0
LWPOLYLINE
  5
15B
330
1F
100
AcDbEntity
  8
0
  6
HIDDEN
 62
     7
370
     0
100
AcDbPolyline
 90
        8
 70
   128
 43
0.0
 10
252.2055115832
 20
115.7885714528
 10
252.2014203413
 20
115.6725907221
 10
252.187973896
 20
115.1970302168
 10
252.1805135931
 20
114.7543021782
 10
252.180175196
 20
114.4118079367
 10
252.1870102226
 20
114.221689136
 10
252.1999781021
 20
114.21288964
 10
252.2055115832
 20
114.2527690355
  0
LWPOLYLINE
  5
15C
330
1F
100
AcDbEntity
  8
0
  6
HIDDEN
 62
     7
370
     0
100
AcDbPolyline
 90
       17
 70
   128
 43
0.0
 10
252.1230127703
 20
116.2270141208
 10
252.1234290029
 20
116.6482862505
 10
252.1150218361
 20
116.8821347139
 10
252.0990711847
 20
116.8929582022
 10
252.078005391
 20
116.6791089374
 10
252.055031531
 20
116.2731435317
 10
252.0336471666
 20
115.7368665378
 10
252.0171078735
 20
115.1519212668
 10
252.0079316091
 20
114.6073603337
 10
252.0075153765
 20
114.186088204
 10
252.0159225433
 20
113.9522397406
 10
252.0318731946
 20
113.9414162523
 10
252.0529389884
 20
114.155265517
 10
252.0759128484
 20
114.5612309228
 10
252.0972972128
 20
115.0975079166
 10
252.1138365059
 20
115.6824531876
 10
252.1230127703
 20
116.2270141208
  0
LWPOLYLINE
  5
15D
330
1F
100
AcDbEntity
  8
0
  6
HIDDEN
 62
     7
370
     0
100
AcDbPolyline
 90
       17
 70
   128
 43
0.0
 10
246.7890749664
 20
116.3752031869
 10
246.789491199
 20
116.7964753166
 10
246.7810840322
 20
117.03032378
 10
246.7651333808
 20
117.0411472683
 10
246.7440675871
 20
116.8272980036
 10
246.7210937271
 20
116.4213325978
 10
246.6997093627
 20
115.8850556039
 10
246.6831700696
 20
115.300110333
 10
246.6739938052
 20
114.7555493998
 10
246.6735775726
 20
114.3342772701
 10
246.6819847394
 20
114.1004288067
 10
246.6979353908
 20
114.0896053184
 10
246.7190011845
 20
114.3034545831
 10
246.7419750445
 20
114.7094199889
 10
246.7633594089
 20
115.2456969827
 10
246.779898702
 20
115.8306422537
 10
246.7890749664
 20
116.3752031869
  0
LWPOLYLINE
  5
15E
330
1F
100
AcDbEntity
  8
0
  6
HIDDEN
 62
     7
370
     0
100
AcDbPolyline
 90
       17
 70
   128
 43
0.0
 10
246.2702802547
 20
116.11914133
 10
246.2705577431
 20
116.3999894165
 10
246.2649529653
 20
116.5558883921
 10
246.2543191977
 20
116.5631040509
 10
246.2402753352
 20
116.4205378745
 10
246.2249594285
 20
116.1498942706
 10
246.2107031856
 20
115.7923762747
 10
246.1996769902
 20
115.4024127607
 10
246.1935594806
 20
115.0393721386
 10
246.1932819922
 20
114.7585240521
 10
246.1988867701
 20
114.6026250766
 10
246.2095205376
 20
114.5954094177
 10
246.2235644001
 20
114.7379755942
 10
246.2388803068
 20
115.008619198
 10
246.2531365497
 20
115.3661371939
 10
246.2641627451
 20
115.7561007079
 10
246.2702802547
 20
116.11914133
  0
LINE
  5
15F
330
1F
100
AcDbEntity
  8
0
  6
HIDDEN
 62
     7
370
     0
100
AcDbLine
 10
252.2055115832
 20
115.3775065389
 30
0.0
 11
252.1940730154
 21
114.9451376676
 31
0.0
  0
LINE
  5
160
330
1F
100
AcDbEntity
  8
0
  6
HIDDEN
 62
     7
370
     0
100
AcDbLine
 10
252.2044169496
 20
114.5479537
 30
0.0
 11
252.1940730154
 21
114.9451376676
 31
0.0
  0
LINE
  5
161
330
1F
100
AcDbEntity
  8
0
  6
HIDDEN
 62
     7
370
     0
100
AcDbLine
 10
252.2055115832
 20
114.5633595872
 30
0.0
 11
252.2044169496
 21
114.5479537
 31
0.0
  0
LINE
  5
162
330
1F
100
AcDbEntity
  8
0
  6
HIDDEN
 62
     7
370
     0
100
AcDbLine
 10
250.2391799468
 20
115.0710292389
 30
0.0
 11
250.2620570823
 21
115.9357669815
 31
0.0
  0
LINE
  5
163
330
1F
100
AcDbEntity
  8
0
  6
HIDDEN
 62
     7
370
     0
100
AcDbLine
 10
250.2391799468
 20
115.0710292389
 30
0.0
 11
250.2059588771
 21
114.6034754639
 31
0.0
  0
LINE
  5
164
330
1F
100
AcDbEntity
  8
0
  6
HIDDEN
 62
     7
370
     0
100
AcDbLine
 10
250.2059588771
 20
114.6034754639
 30
0.0
 11
250.1956149429
 21
115.0006594315
 31
0.0
  0
LINE
  5
165
330
1F
100
AcDbEntity
  8
0
  6
HIDDEN
 62
     7
370
     0
100
AcDbLine
 10
250.2517131481
 20
116.3329509491
 30
0.0
 11
250.2184920784
 21
115.8653971741
 31
0.0
  0
LINE
  5
166
330
1F
100
AcDbEntity
  8
0
  6
HIDDEN
 62
     7
370
     0
100
AcDbLine
 10
250.2517131481
 20
116.3329509491
 30
0.0
 11
250.2620570823
 21
115.9357669815
 31
0.0
  0
LINE
  5
167
330
1F
100
AcDbEntity
  8
0
  6
HIDDEN
 62
     7
370
     0
100
AcDbLine
 10
250.2184920784
 20
115.8653971741
 30
0.0
 11
250.1956149429
 21
115.0006594315
 31
0.0
  0
LINE
  5
168
330
1F
100
AcDbEntity
  8
0
  6
HIDDEN
 62
     7
370
     0
100
AcDbLine
 10
250.2184920784
 20
115.8653971741
 30
0.0
 11
252.2169501509
 21
115.8098754102
 31
0.0
  0
LINE
  5
169
330
1F
100
AcDbEntity
  8
0
  6
HIDDEN
 62
     7
370
     0
100
AcDbLine
 10
250.1956149429
 20
115.0006594315
 30
0.0
 11
252.1940730154
 21
114.9451376676
 31
0.0
  0
LINE
  5
16A
330
1F
100
AcDbEntity
  8
0
  6
HIDDEN
 62
     7
370
     0
100
AcDbLine
 10
250.2620570823
 20
115.9357669815
 30
0.0
 11
252.2220261105
 21
115.8813145318
 31
0.0
  0
LINE
  5
16B
330
1F
100
AcDbEntity
  8
0
  6
HIDDEN
 62
     7
370
     0
100
AcDbLine
 10
250.2517131481
 20
116.3329509491
 30
0.0
 11
252.2501712206
 21
116.2774291852
 31
0.0
  0
LINE
  5
16C
330
1F
100
AcDbEntity
  8
0
  6
HIDDEN
 62
     7
370
     0
100
AcDbLine
 10
250.2391799468
 20
115.0710292389
 30
0.0
 11
252.2055115832
 21
115.0164000213
 31
0.0
  0
LINE
  5
16D
330
1F
100
AcDbEntity
  8
0
  6
HIDDEN
 62
     7
370
     0
100
AcDbLine
 10
250.2059588771
 20
114.6034754639
 30
0.0
 11
252.2044169496
 21
114.5479537
 31
0.0
  0
LINE
  5
16E
330
1F
100
AcDbEntity
  8
0
  6
HIDDEN
 62
     7
370
     0
100
AcDbLine
 10
96.2055115832
 20
123.3471707297
 30
0.0
 11
96.2055115832
 21
121.4432762229
 31
0.0
  0
LINE
  5
16F
330
1F
100
AcDbEntity
  8
0
  6
HIDDEN
 62
     7
370
     0
100
AcDbLine
 10
104.2055115832
 20
121.4432762229
 30
0.0
 11
104.2055115832
 21
123.3499660857
 31
0.0
  0
LINE
  5
170
330
1F
100
AcDbEntity
  8
0
  6
HIDDEN
 62
     7
370
     0
100
AcDbLine
 10
92.2055115832
 20
83.725404434
 30
0.0
 11
92.2996723587
 21
84.3953931652
 31
0.0
  0
LINE
  5
171
330
1F
100
AcDbEntity
  8
0
  6
HIDDEN
 62
     7
370
     0
100
AcDbLine
 10
92.2996723587
 20
133.7032779947
 30
0.0
 11
92.2055115832
 21
134.3732667259
 31
0.0
  0
ARC
  5
172
330
1F
100
AcDbEntity
  8
0
  6
HIDDEN
 62
     7
370
     0
100
AcDbCircle
 10
91.7055048305
 20
84.4788979656
 30
0.0
 40
0.6000067526677363
100
AcDbArc
 50
352.0
 51
0.0
  0
ARC
  5
173
330
1F
100
AcDbEntity
  8
0
  6
HIDDEN
 62
     7
370
     0
100
AcDbCircle
 10
91.7055048305
 20
84.4788979656
 30
0.0
 40
0.6000067526677242
100
AcDbArc
 50
0.0
 51
33.5571153394
  0
ARC
  5
174
330
1F
100
AcDbEntity
  8
0
  6
HIDDEN
 62
     7
370
     0
100
AcDbCircle
 10
91.7055048305
 20
133.6197731944
 30
0.0
 40
0.6000067526677363
100
AcDbArc
 50
348.75
 51
8.0
  0
LWPOLYLINE
  5
175
330
1F
100
AcDbEntity
  8
0
  6
HIDDEN
 62
     7
370
     0
100
AcDbPolyline
 90
        3
 70
   128
 43
0.0
 10
92.2939826217
 20
133.5027176838
 10
92.2598387887
 20
133.3901605508
 10
92.2055115832
 20
133.2881086793
  0
LINE
  5
176
330
1F
100
AcDbEntity
  8
0
  6
HIDDEN
 62
     7
370
     0
100
AcDbLine
 10
92.3055115832
 20
84.4788979656
 30
0.0
 11
92.3055115832
 21
133.6197731944
 31
0.0
  0
ARC
  5
177
330
1F
100
AcDbEntity
  8
0
  6
HIDDEN
 62
     7
370
     0
100
AcDbCircle
 10
85.9605135848
 20
97.04933558
 30
0.0
 40
8.000000000000005
100
AcDbArc
 50
277.1234766433
 51
321.3178125465
  0
ARC
  5
178
330
1F
100
AcDbEntity
  8
0
  6
HIDDEN
 62
     7
370
     0
100
AcDbCircle
 10
85.9605135848
 20
121.04933558
 30
0.0
 40
7.999999999999993
100
AcDbArc
 50
38.6821874535
 51
82.8557416614
  0
ARC
  5
179
330
1F
100
AcDbEntity
  8
0
  6
HIDDEN
 62
     7
370
     0
100
AcDbCircle
 10
75.2879471485
 20
89.64933558
 30
0.0
 40
0.6000000000000084
100
AcDbArc
 50
210.0
 51
270.0
  0
ARC
  5
17A
330
1F
100
AcDbEntity
  8
0
  6
HIDDEN
 62
     7
370
     0
100
AcDbCircle
 10
75.2879471485
 20
128.44933558
 30
0.0
 40
0.6000000000000227
100
AcDbArc
 50
90.0
 51
150.0
  0
LINE
  5
17B
330
1F
100
AcDbEntity
  8
0
  6
HIDDEN
 62
     7
370
     0
100
AcDbLine
 10
75.2879471485
 20
89.04933558
 30
0.0
 11
79.4586289644
 21
89.04933558
 31
0.0
  0
LINE
  5
17C
330
1F
100
AcDbEntity
  8
0
  6
HIDDEN
 62
     7
370
     0
100
AcDbLine
 10
79.4586289644
 20
129.04933558
 30
0.0
 11
75.2879471485
 21
129.04933558
 31
0.0
  0
LINE
  5
17D
330
1F
100
AcDbEntity
  8
0
  6
HIDDEN
 62
     7
370
     0
100
AcDbLine
 10
74.7683319062
 20
128.74933558
 30
0.0
 11
73.2094861794
 21
126.04933558
 31
0.0
  0
LINE
  5
17E
330
1F
100
AcDbEntity
  8
0
  6
HIDDEN
 62
     7
370
     0
100
AcDbLine
 10
73.2094861794
 20
92.04933558
 30
0.0
 11
74.7683319062
 21
89.34933558
 31
0.0
  0
LINE
  5
17F
330
1F
100
AcDbEntity
  8
0
  6
HIDDEN
 62
     7
370
     0
100
AcDbLine
 10
96.2055115832
 20
136.3276931278
 30
0.0
 11
96.2055115832
 21
132.9949379946
 31
0.0
  0
LINE
  5
180
330
1F
100
AcDbEntity
  8
0
  6
HIDDEN
 62
     7
370
     0
100
AcDbLine
 10
104.2055115832
 20
132.9949379946
 30
0.0
 11
104.2055115832
 21
136.3290678171
 31
0.0
  0
ARC
  5
181
330
1F
100
AcDbEntity
  8
0
  6
HIDDEN
 62
     7
370
     0
100
AcDbCircle
 10
100.6555115832
 20
93.32433558
 30
0.0
 40
1.5
100
AcDbArc
 50
238.2116693829
 51
0.0
  0
ARC
  5
182
330
1F
100
AcDbEntity
  8
0
  6
HIDDEN
 62
     7
370
     0
100
AcDbCircle
 10
100.6555115832
 20
124.77433558
 30
0.0
 40
1.500000000000021
100
AcDbArc
 50
0.0
 51
121.7883306171
  0
LINE
  5
183
330
1F
100
AcDbEntity
  8
0
  6
HIDDEN
 62
     7
370
     0
100
AcDbLine
 10
92.2055115832
 20
92.04933558
 30
0.0
 11
99.8653375517
 21
92.04933558
 31
0.0
  0
LINE
  5
184
330
1F
100
AcDbEntity
  8
0
  6
HIDDEN
 62
     7
370
     0
100
AcDbLine
 10
99.8653375517
 20
126.04933558
 30
0.0
 11
92.2055115832
 21
126.04933558
 31
0.0
  0
LINE
  5
185
330
1F
100
AcDbEntity
  8
0
  6
HIDDEN
 62
     7
370
     0
100
AcDbLine
 10
70.4055115832
 20
92.04933558
 30
0.0
 11
73.2094861794
 21
92.04933558
 31
0.0
  0
LINE
  5
186
330
1F
100
AcDbEntity
  8
0
  6
HIDDEN
 62
     7
370
     0
100
AcDbLine
 10
73.2094861794
 20
126.04933558
 30
0.0
 11
66.4055115832
 21
126.04933558
 31
0.0
  0
LINE
  5
187
330
1F
100
AcDbEntity
  8
0
  6
HIDDEN
 62
     7
370
     0
100
AcDbLine
 10
214.7055115832
 20
102.5196837741
 30
0.0
 11
214.7055115832
 21
105.3843155736
 31
0.0
  0
LINE
  5
188
330
1F
100
AcDbEntity
  8
0
  6
HIDDEN
 62
     7
370
     0
100
AcDbLine
 10
214.7055115832
 20
98.4427338622
 30
0.0
 11
214.7055115832
 21
100.7674876248
 31
0.0
  0
LINE
  5
189
330
1F
100
AcDbEntity
  8
0
  6
HIDDEN
 62
     7
370
     0
100
AcDbLine
 10
211.7055115832
 20
101.3172587209
 30
0.0
 11
211.7055115832
 21
98.4427338622
 31
0.0
  0
LINE
  5
18A
330
1F
100
AcDbEntity
  8
0
  6
HIDDEN
 62
     7
370
     0
100
AcDbLine
 10
211.7055115832
 20
105.304032464
 30
0.0
 11
211.7055115832
 21
101.83720297
 31
0.0
  0
LINE
  5
18B
330
1F
100
AcDbEntity
  8
0
  6
HIDDEN
 62
     7
370
     0
100
AcDbLine
 10
111.0055115832
 20
99.54933558
 30
0.0
 11
114.0055115832
 21
99.54933558
 31
0.0
  0
LINE
  5
18C
330
1F
100
AcDbEntity
  8
0
  6
HIDDEN
 62
     7
370
     0
100
AcDbLine
 10
114.0055115832
 20
118.54933558
 30
0.0
 11
111.0055115832
 21
118.54933558
 31
0.0
  0
LINE
  5
18D
330
1F
100
AcDbEntity
  8
0
  6
HIDDEN
 62
     7
370
     0
100
AcDbLine
 10
102.1555115832
 20
100.04933558
 30
0.0
 11
102.6555115832
 21
100.54933558
 31
0.0
  0
LINE
  5
18E
330
1F
100
AcDbEntity
  8
0
  6
HIDDEN
 62
     7
370
     0
100
AcDbLine
 10
102.6555115832
 20
117.54933558
 30
0.0
 11
102.1555115832
 21
118.04933558
 31
0.0
  0
LINE
  5
18F
330
1F
100
AcDbEntity
  8
0
  6
HIDDEN
 62
     7
370
     0
100
AcDbLine
 10
214.4176801142
 20
100.3850593204
 30
0.0
 11
252.2055115832
 21
101.4348922322
 31
0.0
  0
LINE
  5
190
330
1F
100
AcDbEntity
  8
0
  6
HIDDEN
 62
     7
370
     0
100
AcDbLine
 10
252.2055115832
 20
103.9358568664
 30
0.0
 11
214.4162678016
 21
102.8859847174
 31
0.0
  0
LINE
  5
191
330
1F
100
AcDbEntity
  8
0
  6
HIDDEN
 62
     7
370
     0
100
AcDbLine
 10
102.6555115832
 20
100.54933558
 30
0.0
 11
111.0055115832
 21
100.54933558
 31
0.0
  0
LINE
  5
192
330
1F
100
AcDbEntity
  8
0
  6
HIDDEN
 62
     7
370
     0
100
AcDbLine
 10
111.0055115832
 20
117.54933558
 30
0.0
 11
102.6555115832
 21
117.54933558
 31
0.0
  0
LINE
  5
193
330
1F
100
AcDbEntity
  8
0
  6
HIDDEN
 62
     7
370
     0
100
AcDbLine
 10
97.1555115832
 20
140.54933558
 30
0.0
 11
97.1555115832
 21
135.44933558
 31
0.0
  0
LINE
  5
194
330
1F
100
AcDbEntity
  8
0
  6
HIDDEN
 62
     7
370
     0
100
AcDbLine
 10
211.7311535974
 20
101.9899275895
 30
0.0
 11
211.485853412
 21
101.5540887453
 31
0.0
  0
LINE
  5
195
330
1F
100
AcDbEntity
  8
0
  6
HIDDEN
 62
     7
370
     0
100
AcDbLine
 10
211.485853412
 20
101.5540887453
 30
0.0
 11
211.7316831833
 21
101.1690237689
 31
0.0
  0
ARC
  5
196
330
1F
100
AcDbEntity
  8
0
  6
HIDDEN
 62
     7
370
     0
100
AcDbCircle
 10
211.6055115832
 20
104.14933558
 30
0.0
 40
0.4000000000000057
100
AcDbArc
 50
180.0
 51
270.0
  0
ARC
  5
197
330
1F
100
AcDbEntity
  8
0
  6
HIDDEN
 62
     7
370
     0
100
AcDbCircle
 10
211.6055115832
 20
113.94933558
 30
0.0
 40
0.4000000000000057
100
AcDbArc
 50
90.0
 51
180.0
  0
LINE
  5
198
330
1F
100
AcDbEntity
  8
0
  6
HIDDEN
 62
     7
370
     0
100
AcDbLine
 10
211.6055115832
 20
103.74933558
 30
0.0
 11
214.3107375651
 21
103.74933558
 31
0.0
  0
LINE
  5
199
330
1F
100
AcDbEntity
  8
0
  6
HIDDEN
 62
     7
370
     0
100
AcDbLine
 10
214.3107375651
 20
114.34933558
 30
0.0
 11
211.6055115832
 21
114.34933558
 31
0.0
  0
ARC
  5
19A
330
1F
100
AcDbEntity
  8
0
  6
HIDDEN
 62
     7
370
     0
100
AcDbCircle
 10
251.9055115832
 20
103.74933558
 30
0.0
 40
0.2999999999999829
100
AcDbArc
 50
0.0
 51
90.0
  0
ARC
  5
19B
330
1F
100
AcDbEntity
  8
0
  6
HIDDEN
 62
     7
370
     0
100
AcDbCircle
 10
251.9055115832
 20
114.34933558
 30
0.0
 40
0.2999999999999972
100
AcDbArc
 50
270.0
 51
0.0
  0
ARC
  5
19C
330
1F
100
AcDbEntity
  8
0
  6
HIDDEN
 62
     7
370
     0
100
AcDbCircle
 10
214.3107375651
 20
113.94933558
 30
0.0
 40
0.4000000000000074
100
AcDbArc
 50
70.0
 51
90.0
  0
LINE
  5
19D
330
1F
100
AcDbEntity
  8
0
  6
HIDDEN
 62
     7
370
     0
100
AcDbLine
 10
214.4475456224
 20
103.7734585316
 30
0.0
 11
215.2055115832
 21
104.04933558
 31
0.0
  0
LINE
  5
19E
330
1F
100
AcDbEntity
  8
0
  6
HIDDEN
 62
     7
370
     0
100
AcDbLine
 10
215.2055115832
 20
114.04933558
 30
0.0
 11
214.4475456224
 21
114.3252126283
 31
0.0
  0
LINE
  5
19F
330
1F
100
AcDbEntity
  8
0
  6
HIDDEN
 62
     7
370
     0
100
AcDbLine
 10
215.2055115832
 20
104.04933558
 30
0.0
 11
251.9055115832
 21
104.04933558
 31
0.0
  0
LINE
  5
1A0
330
1F
100
AcDbEntity
  8
0
  6
HIDDEN
 62
     7
370
     0
100
AcDbLine
 10
251.9055115832
 20
114.04933558
 30
0.0
 11
232.7530056172
 21
114.04933558
 31
0.0
  0
LINE
  5
1A1
330
1F
100
AcDbEntity
  8
0
  6
HIDDEN
 62
     7
370
     0
100
AcDbLine
 10
232.6585139596
 20
114.04933558
 30
0.0
 11
215.2055115832
 21
114.04933558
 31
0.0
  0
LINE
  5
1A2
330
1F
100
AcDbEntity
  8
0
  6
HIDDEN
 62
     7
370
     0
100
AcDbLine
 10
87.3899494137
 20
84.9699642464
 30
0.0
 11
86.9555172642
 21
85.4490302655
 31
0.0
  0
LINE
  5
1A3
330
1F
100
AcDbEntity
  8
0
  6
HIDDEN
 62
     7
370
     0
100
AcDbLine
 10
79.4555139391
 20
85.8707182246
 30
0.0
 11
78.9730801957
 21
85.3916522492
 31
0.0
  0
LINE
  5
1A4
330
1F
100
AcDbEntity
  8
0
  6
HIDDEN
 62
     7
370
     0
100
AcDbLine
 10
78.9729582675
 20
132.7070136203
 30
0.0
 11
79.4555090185
 21
132.2278933624
 31
0.0
  0
LINE
  5
1A5
330
1F
100
AcDbEntity
  8
0
  6
HIDDEN
 62
     7
370
     0
100
AcDbLine
 10
86.9555114652
 20
132.6495911401
 30
0.0
 11
87.3900538555
 21
133.1287113906
 31
0.0
  0
LINE
  5
1A6
330
1F
100
AcDbEntity
  8
0
  6
HIDDEN
 62
     7
370
     0
100
AcDbLine
 10
114.0055115832
 20
104.79933558
 30
0.0
 11
155.3055115832
 21
104.79933558
 31
0.0
  0
LINE
  5
1A7
330
1F
100
AcDbEntity
  8
0
  6
HIDDEN
 62
     7
370
     0
100
AcDbLine
 10
155.3055115832
 20
113.29933558
 30
0.0
 11
114.0055115832
 21
113.29933558
 31
0.0
  0
LINE
  5
1A8
330
1F
100
AcDbEntity
  8
0
  6
HIDDEN
 62
     7
370
     0
100
AcDbLine
 10
155.3055115832
 20
104.79933558
 30
0.0
 11
155.8162431094
 21
105.64933558
 31
0.0
  0
LINE
  5
1A9
330
1F
100
AcDbEntity
  8
0
  6
HIDDEN
 62
     7
370
     0
100
AcDbLine
 10
155.8162431094
 20
112.44933558
 30
0.0
 11
155.3055115832
 21
113.29933558
 31
0.0
  0
LINE
  5
1AA
330
1F
100
AcDbEntity
  8
0
  6
HIDDEN
 62
     7
370
     0
100
AcDbLine
 10
86.9555115832
 20
128.9871717706
 30
0.0
 11
86.9555115832
 21
132.7496216408
 31
0.0
  0
LINE
  5
1AB
330
1F
100
AcDbEntity
  8
0
  6
HIDDEN
 62
     7
370
     0
100
AcDbLine
 10
79.4555115832
 20
132.2276381711
 30
0.0
 11
79.4555115832
 21
129.0487513187
 31
0.0
  0
LINE
  5
1AC
330
1F
100
AcDbEntity
  8
0
  6
HIDDEN
 62
     7
370
     0
100
AcDbLine
 10
86.9555115832
 20
85.3489707201
 30
0.0
 11
86.9555115832
 21
89.1114993893
 31
0.0
  0
LINE
  5
1AD
330
1F
100
AcDbEntity
  8
0
  6
HIDDEN
 62
     7
370
     0
100
AcDbLine
 10
79.4555115832
 20
89.0499198412
 30
0.0
 11
79.4555115832
 21
85.8710414624
 31
0.0
  0
LINE
  5
1AE
330
1F
100
AcDbEntity
  8
0
  6
HIDDEN
 62
     7
370
     0
100
AcDbLine
 10
155.8162431094
 20
105.64933558
 30
0.0
 11
211.2055115832
 21
105.64933558
 31
0.0
  0
LINE
  5
1AF
330
1F
100
AcDbEntity
  8
0
  6
HIDDEN
 62
     7
370
     0
100
AcDbLine
 10
211.2055115832
 20
112.44933558
 30
0.0
 11
155.8162431094
 21
112.44933558
 31
0.0
  0
LINE
  5
1B0
330
1F
100
AcDbEntity
  8
0
  6
HIDDEN
 62
     7
370
     0
100
AcDbLine
 10
160.6555115832
 20
126.54933558
 30
0.0
 11
161.6555115832
 21
125.9719853108
 31
0.0
  0
LINE
  5
1B1
330
1F
100
AcDbEntity
  8
0
  6
HIDDEN
 62
     7
370
     0
100
AcDbLine
 10
166.6555115832
 20
125.9719853108
 30
0.0
 11
167.6555115832
 21
126.54933558
 31
0.0
  0
LINE
  5
1B2
330
1F
100
AcDbEntity
  8
0
  6
HIDDEN
 62
     7
370
     0
100
AcDbLine
 10
167.6555115832
 20
91.54933558
 30
0.0
 11
166.6555115832
 21
92.1266858492
 31
0.0
  0
LINE
  5
1B3
330
1F
100
AcDbEntity
  8
0
  6
HIDDEN
 62
     7
370
     0
100
AcDbLine
 10
161.6555115832
 20
92.1266858492
 30
0.0
 11
160.6555115832
 21
91.54933558
 31
0.0
  0
ARC
  5
1B4
330
1F
100
AcDbEntity
  8
0
  6
HIDDEN
 62
     7
370
     0
100
AcDbCircle
 10
214.3107375651
 20
104.14933558
 30
0.0
 40
0.4000000000000074
100
AcDbArc
 50
270.0
 51
290.0
  0
LINE
  5
1B5
330
1F
100
AcDbEntity
  8
0
  6
HIDDEN
 62
     7
370
     0
100
AcDbLine
 10
161.6555115832
 20
125.9719853108
 30
0.0
 11
161.6555115832
 21
117.54933558
 31
0.0
  0
LINE
  5
1B6
330
1F
100
AcDbEntity
  8
0
  6
HIDDEN
 62
     7
370
     0
100
AcDbLine
 10
166.6555115832
 20
117.54933558
 30
0.0
 11
166.6555115832
 21
125.9719853108
 31
0.0
  0
LINE
  5
1B7
330
1F
100
AcDbEntity
  8
0
  6
HIDDEN
 62
     7
370
     0
100
AcDbLine
 10
161.6555115832
 20
117.54933558
 30
0.0
 11
164.1555115832
 21
116.0471840324
 31
0.0
  0
LINE
  5
1B8
330
1F
100
AcDbEntity
  8
0
  6
HIDDEN
 62
     7
370
     0
100
AcDbLine
 10
164.1555115832
 20
116.0471840324
 30
0.0
 11
166.6555115832
 21
117.54933558
 31
0.0
  0
LINE
  5
1B9
330
1F
100
AcDbEntity
  8
0
  6
HIDDEN
 62
     7
370
     0
100
AcDbLine
 10
166.6555115832
 20
92.1266858492
 30
0.0
 11
166.6555115832
 21
100.54933558
 31
0.0
  0
LINE
  5
1BA
330
1F
100
AcDbEntity
  8
0
  6
HIDDEN
 62
     7
370
     0
100
AcDbLine
 10
161.6555115832
 20
100.54933558
 30
0.0
 11
161.6555115832
 21
92.1266858492
 31
0.0
  0
LINE
  5
1BB
330
1F
100
AcDbEntity
  8
0
  6
HIDDEN
 62
     7
370
     0
100
AcDbLine
 10
166.6555115832
 20
100.54933558
 30
0.0
 11
164.1555115832
 21
102.0514871275
 31
0.0
  0
LINE
  5
1BC
330
1F
100
AcDbEntity
  8
0
  6
HIDDEN
 62
     7
370
     0
100
AcDbLine
 10
164.1555115832
 20
102.0514871275
 30
0.0
 11
161.6555115832
 21
100.54933558
 31
0.0
  0
LINE
  5
1BD
330
1F
100
AcDbEntity
  8
0
  6
HIDDEN
 62
     7
370
     0
100
AcDbLine
 10
214.7055115832
 20
117.3312425561
 30
0.0
 11
214.7055115832
 21
117.8881703448
 31
0.0
  0
LINE
  5
1BE
330
1F
100
AcDbEntity
  8
0
  6
HIDDEN
 62
     7
370
     0
100
AcDbLine
 10
214.7055115832
 20
112.7143555863
 30
0.0
 11
214.7055115832
 21
115.5793227463
 31
0.0
  0
LINE
  5
1BF
330
1F
100
AcDbEntity
  8
0
  6
HIDDEN
 62
     7
370
     0
100
AcDbLine
 10
211.7055115832
 20
116.2641554397
 30
0.0
 11
211.7055115832
 21
112.7946386959
 31
0.0
  0
LINE
  5
1C0
330
1F
100
AcDbEntity
  8
0
  6
HIDDEN
 62
     7
370
     0
100
AcDbLine
 10
211.7055115832
 20
117.8881703448
 30
0.0
 11
211.7055115832
 21
116.777111062
 31
0.0
  0
LINE
  5
1C1
330
1F
100
AcDbEntity
  8
0
  6
HIDDEN
 62
     7
370
     0
100
AcDbLine
 10
214.4164778859
 20
115.2126806059
 30
0.0
 11
252.2055115832
 21
114.1628142935
 31
0.0
  0
LINE
  5
1C2
330
1F
100
AcDbEntity
  8
0
  6
HIDDEN
 62
     7
370
     0
100
AcDbLine
 10
252.2055115832
 20
116.6637789277
 30
0.0
 11
214.4165567543
 21
117.713643049
 31
0.0
  0
LINE
  5
1C3
330
1F
100
AcDbEntity
  8
0
  6
HIDDEN
 62
     7
370
     0
100
AcDbLine
 10
211.7333350999
 20
116.9322349346
 30
0.0
 11
211.485853412
 21
116.5445824146
 31
0.0
  0
LINE
  5
1C4
330
1F
100
AcDbEntity
  8
0
  6
HIDDEN
 62
     7
370
     0
100
AcDbLine
 10
211.485853412
 20
116.5445824146
 30
0.0
 11
211.7313931559
 21
116.1083179332
 31
0.0
  0
LINE
  5
1C5
330
1F
100
AcDbEntity
  8
0
  6
HIDDEN
 62
     7
370
     0
100
AcDbLine
 10
246.6963994356
 20
104.0323187368
 30
0.0
 11
246.2110506875
 21
103.5188346318
 31
0.0
  0
LINE
  5
1C6
330
1F
100
AcDbEntity
  8
0
  6
HIDDEN
 62
     7
370
     0
100
AcDbLine
 10
246.2665724349
 20
101.5203771537
 30
0.0
 11
246.7796820567
 21
101.0346325197
 31
0.0
  0
LINE
  5
1C7
330
1F
100
AcDbEntity
  8
0
  6
HIDDEN
 62
     7
370
     0
100
AcDbLine
 10
252.0314771716
 20
104.1811182534
 30
0.0
 11
246.6975393677
 21
104.0329291873
 31
0.0
  0
LINE
  5
1C8
330
1F
100
AcDbEntity
  8
0
  6
HIDDEN
 62
     7
370
     0
100
AcDbLine
 10
246.7808541237
 20
101.0340863019
 30
0.0
 11
252.1147919276
 21
101.182275368
 31
0.0
  0
LINE
  5
1C9
330
1F
100
AcDbEntity
  8
0
  6
HIDDEN
 62
     7
370
     0
100
AcDbLine
 10
252.1167459565
 20
101.1840666675
 30
0.0
 11
252.2055115832
 21
101.3484387429
 31
0.0
  0
LINE
  5
1CA
330
1F
100
AcDbEntity
  8
0
  6
HIDDEN
 62
     7
370
     0
100
AcDbLine
 10
252.2027560295
 20
103.9038563514
 30
0.0
 11
252.0335276424
 21
104.1794382081
 31
0.0
  0
LINE
  5
1CB
330
1F
100
AcDbEntity
  8
0
  6
HIDDEN
 62
     7
370
     0
100
AcDbLine
 10
252.0258652825
 20
113.9194458298
 30
0.0
 11
252.1950936696
 21
114.1950276865
 31
0.0
  0
LINE
  5
1CC
330
1F
100
AcDbEntity
  8
0
  6
HIDDEN
 62
     7
370
     0
100
AcDbLine
 10
252.2055115832
 20
116.736256492
 30
0.0
 11
252.1090835966
 21
116.9148173705
 31
0.0
  0
LINE
  5
1CD
330
1F
100
AcDbEntity
  8
0
  6
HIDDEN
 62
     7
370
     0
100
AcDbLine
 10
252.1071295677
 20
116.9166086699
 30
0.0
 11
246.7731917638
 21
117.0647977361
 31
0.0
  0
LINE
  5
1CE
330
1F
100
AcDbEntity
  8
0
  6
HIDDEN
 62
     7
370
     0
100
AcDbLine
 10
246.6898770078
 20
114.0659548506
 30
0.0
 11
252.0238148117
 21
113.9177657845
 31
0.0
  0
LINE
  5
1CF
330
1F
100
AcDbEntity
  8
0
  6
HIDDEN
 62
     7
370
     0
100
AcDbLine
 10
246.7720196968
 20
117.0642515182
 30
0.0
 11
246.258910075
 21
116.5785068843
 31
0.0
  0
LINE
  5
1D0
330
1F
100
AcDbEntity
  8
0
  6
HIDDEN
 62
     7
370
     0
100
AcDbLine
 10
246.2033883276
 20
114.5800494062
 30
0.0
 11
246.6887370758
 21
114.0665653011
 31
0.0
  0
DIMENSION
  5
1D1
330
1F
100
AcDbEntity
  8
VERMASSUNG
100
AcDbDimension
  2
*D1
 10
56.6005417118
 20
77.54933558
 30
0.0
 11
56.6005417118
 21
109.04933558
 31
0.0
 70
   160
  1
HSK A %%c<>
 71
     2
 42
-1.0
  3
SLDDIMSTYLE0
100
AcDbAlignedDimension
 13
92.5055115832
 23
140.54933558
 33
0.0
 14
92.5055115832
 24
77.54933558
 34
0.0
 50
90.0
100
AcDbRotatedDimension
  0
DIMENSION
  5
1DE
330
1F
100
AcDbEntity
  8
VERMASSUNG
100
AcDbDimension
  2
*D2
 10
252.2055115832
 20
157.3734805143
 30
0.0
 11
156.2555115832
 21
157.3734805143
 31
0.0
 70
   160
 71
     2
 42
-1.0
  3
SLDDIMSTYLE0
100
AcDbAlignedDimension
 13
60.3055115832
 23
128.7400133264
 33
0.0
 14
252.2055115832
 24
120.2751950583
 34
0.0
100
AcDbRotatedDimension
  0
DIMENSION
  5
1E8
330
1F
100
AcDbEntity
  8
VERMASSUNG
100
AcDbDimension
  2
*D3
 10
252.2055115832
 20
151.3734805143
 30
0.0
 11
172.2055115832
 21
151.3734805143
 31
0.0
 70
   160
 71
     2
 42
-1.0
  3
SLDDIMSTYLE0
100
AcDbAlignedDimension
 13
92.2055115832
 23
140.24933558
 33
0.0
 14
252.2055115832
 24
120.2751950583
 34
0.0
100
AcDbRotatedDimension
  0
DIMENSION
  5
1F2
330
1F
100
AcDbEntity
  8
VERMASSUNG
100
AcDbDimension
  2
*D4
 10
252.2055115832
 20
145.3734805143
 30
0.0
 11
185.1805115832
 21
145.3734805143
 31
0.0
 70
   160
 71
     2
 42
-1.0
  3
SLDDIMSTYLE0
100
AcDbAlignedDimension
 13
118.1555115832
 23
138.8957759037
 33
0.0
 14
252.2055115832
 24
120.2751950583
 34
0.0
100
AcDbRotatedDimension
  0
DIMENSION
  5
1FC
330
1F
100
AcDbEntity
  8
VERMASSUNG
100
AcDbDimension
  2
*D5
 10
260.189740981
 20
104.04933558
 30
0.0
 11
260.189740981
 21
109.04933558
 31
0.0
 70
   160
  1
%%c<>
 71
     2
 42
-1.0
  3
SLDDIMSTYLE0
100
AcDbAlignedDimension
 13
251.9055115832
 23
114.04933558
 33
0.0
 14
251.9055115832
 24
104.04933558
 34
0.0
 50
90.0
100
AcDbRotatedDimension
  0
DIMENSION
  5
207
330
1F
100
AcDbEntity
  8
VERMASSUNG
100
AcDbDimension
  2
*D6
 10
266.189740981
 20
91.54933558
 30
0.0
 11
266.189740981
 21
109.04933558
 31
0.0
 70
   160
  1
%%c<>
 71
     2
 42
-1.0
  3
SLDDIMSTYLE0
100
AcDbAlignedDimension
 13
241.4829769806
 23
126.54933558
 33
0.0
 14
241.4829769806
 24
91.54933558
 34
0.0
 50
90.0
100
AcDbRotatedDimension
  0
LINE
  5
212
330
1F
100
AcDbEntity
  8
VERMASSUNG
  6
CENTERX2
370
     0
100
AcDbLine
 10
57.4921398201
 20
109.04933558
 30
0.0
 11
254.2869393867
 21
109.04933558
 31
0.0
  0
OLE2FRAME
  5
213
330
1F
100
AcDbEntity
  8
0
100
AcDbOle2Frame
 70
     2
  3
Bitmap Image
 10
13.8511154363
 20
38.264191557
 30
0.0
 11
51.6290888628
 21
31.9806341108
 31
0.0
 71
     2
 72
     0
 73
     1
 90
    12928
310
80552BED0767C5B32B40DDAF6807D121434000000000000000006FFBDDFB85D0
310
4940DDAF6807D121434000000000000000006FFBDDFB85D04940416F4BD60AFB
310
3F4000000000000000002BED0767C5B32B40416F4BD60AFB3F40000000000000
310
0000000000000100000000010000010000000100000000000100000000320000
310
D0CF11E0A1B11AE1000000000000000000000000000000003E000300FEFF0900
310
0600000000000000000000000100000001000000000000000010000002000000
310
01000000FEFFFFFF0000000000000000FFFFFFFFFFFFFFFFFFFFFFFFFFFFFFFF
310
FFFFFFFFFFFFFFFFFFFFFFFFFFFFFFFFFFFFFFFFFFFFFFFFFFFFFFFFFFFFFFFF
310
FFFFFFFFFFFFFFFFFFFFFFFFFFFFFFFFFFFFFFFFFFFFFFFFFFFFFFFFFFFFFFFF
310
FFFFFFFFFFFFFFFFFFFFFFFFFFFFFFFFFFFFFFFFFFFFFFFFFFFFFFFFFFFFFFFF
310
FFFFFFFFFFFFFFFFFFFFFFFFFFFFFFFFFFFFFFFFFFFFFFFFFFFFFFFFFFFFFFFF
310
FFFFFFFFFFFFFFFFFFFFFFFFFFFFFFFFFFFFFFFFFFFFFFFFFFFFFFFFFFFFFFFF
310
FFFFFFFFFFFFFFFFFFFFFFFFFFFFFFFFFFFFFFFFFFFFFFFFFFFFFFFFFFFFFFFF
310
FFFFFFFFFFFFFFFFFFFFFFFFFFFFFFFFFFFFFFFFFFFFFFFFFFFFFFFFFFFFFFFF
310
FFFFFFFFFFFFFFFFFFFFFFFFFFFFFFFFFFFFFFFFFFFFFFFFFFFFFFFFFFFFFFFF
310
FFFFFFFFFFFFFFFFFFFFFFFFFFFFFFFFFFFFFFFFFFFFFFFFFFFFFFFFFFFFFFFF
310
FFFFFFFFFFFFFFFFFFFFFFFFFFFFFFFFFFFFFFFFFFFFFFFFFFFFFFFFFFFFFFFF
310
FFFFFFFFFFFFFFFFFFFFFFFFFFFFFFFFFFFFFFFFFFFFFFFFFFFFFFFFFFFFFFFF
310
FFFFFFFFFFFFFFFFFFFFFFFFFFFFFFFFFFFFFFFFFFFFFFFFFFFFFFFFFFFFFFFF
310
FFFFFFFFFFFFFFFFFFFFFFFFFFFFFFFFFFFFFFFFFFFFFFFFFFFFFFFFFFFFFFFF
310
FDFFFFFFFEFFFFFFFEFFFFFFFEFFFFFF05000000060000000700000008000000
310
090000000A0000000B0000000C0000000D0000000E0000000F00000010000000
310
11000000120000001300000014000000150000001600000017000000FEFFFFFF
310
FFFFFFFFFFFFFFFFFFFFFFFFFFFFFFFFFFFFFFFFFFFFFFFFFFFFFFFFFFFFFFFF
310
FFFFFFFFFFFFFFFFFFFFFFFFFFFFFFFFFFFFFFFFFFFFFFFFFFFFFFFFFFFFFFFF
310
FFFFFFFFFFFFFFFFFFFFFFFFFFFFFFFFFFFFFFFFFFFFFFFFFFFFFFFFFFFFFFFF
310
FFFFFFFFFFFFFFFFFFFFFFFFFFFFFFFFFFFFFFFFFFFFFFFFFFFFFFFFFFFFFFFF
310
FFFFFFFFFFFFFFFFFFFFFFFFFFFFFFFFFFFFFFFFFFFFFFFFFFFFFFFFFFFFFFFF
310
FFFFFFFFFFFFFFFFFFFFFFFFFFFFFFFFFFFFFFFFFFFFFFFFFFFFFFFFFFFFFFFF
310
FFFFFFFFFFFFFFFFFFFFFFFFFFFFFFFFFFFFFFFFFFFFFFFFFFFFFFFFFFFFFFFF
310
FFFFFFFFFFFFFFFFFFFFFFFFFFFFFFFFFFFFFFFFFFFFFFFFFFFFFFFFFFFFFFFF
310
FFFFFFFFFFFFFFFFFFFFFFFFFFFFFFFFFFFFFFFFFFFFFFFFFFFFFFFFFFFFFFFF
310
FFFFFFFFFFFFFFFFFFFFFFFFFFFFFFFFFFFFFFFFFFFFFFFFFFFFFFFFFFFFFFFF
310
FFFFFFFFFFFFFFFFFFFFFFFFFFFFFFFFFFFFFFFFFFFFFFFFFFFFFFFFFFFFFFFF
310
FFFFFFFFFFFFFFFFFFFFFFFFFFFFFFFFFFFFFFFFFFFFFFFFFFFFFFFFFFFFFFFF
310
FFFFFFFFFFFFFFFFFFFFFFFFFFFFFFFFFFFFFFFFFFFFFFFFFFFFFFFFFFFFFFFF
310
52006F006F007400200045006E00740072007900000000000000000000000000
310
0000000000000000000000000000000000000000000000000000000000000000
310
16000500FFFFFFFFFFFFFFFF020000000A00030000000000C000000000000046
310
00000000000000000000000060D1A8CBF5FFCB0103000000C000000000000000
310
01004F006C006500000000000000000000000000000000000000000000000000
310
0000000000000000000000000000000000000000000000000000000000000000
310
0A000200FFFFFFFFFFFFFFFFFFFFFFFF00000000000000000000000000000000
310
0000000000000000000000000000000000000000000000001400000000000000
310
010043006F006D0070004F0062006A0000000000000000000000000000000000
310
0000000000000000000000000000000000000000000000000000000000000000
310
120002010100000003000000FFFFFFFF00000000000000000000000000000000
310
0000000000000000000000000000000000000000010000004D00000000000000
310
01004F006C006500310030004E00610074006900760065000000000000000000
310
0000000000000000000000000000000000000000000000000000000000000000
310
1A000200FFFFFFFFFFFFFFFFFFFFFFFF00000000000000000000000000000000
310
0000000000000000000000000000000000000000040000002426000000000000
310
FEFFFFFF02000000FEFFFFFFFFFFFFFFFFFFFFFFFFFFFFFFFFFFFFFFFFFFFFFF
310
FFFFFFFFFFFFFFFFFFFFFFFFFFFFFFFFFFFFFFFFFFFFFFFFFFFFFFFFFFFFFFFF
310
FFFFFFFFFFFFFFFFFFFFFFFFFFFFFFFFFFFFFFFFFFFFFFFFFFFFFFFFFFFFFFFF
310
FFFFFFFFFFFFFFFFFFFFFFFFFFFFFFFFFFFFFFFFFFFFFFFFFFFFFFFFFFFFFFFF
310
FFFFFFFFFFFFFFFFFFFFFFFFFFFFFFFFFFFFFFFFFFFFFFFFFFFFFFFFFFFFFFFF
310
FFFFFFFFFFFFFFFFFFFFFFFFFFFFFFFFFFFFFFFFFFFFFFFFFFFFFFFFFFFFFFFF
310
FFFFFFFFFFFFFFFFFFFFFFFFFFFFFFFFFFFFFFFFFFFFFFFFFFFFFFFFFFFFFFFF
310
FFFFFFFFFFFFFFFFFFFFFFFFFFFFFFFFFFFFFFFFFFFFFFFFFFFFFFFFFFFFFFFF
310
FFFFFFFFFFFFFFFFFFFFFFFFFFFFFFFFFFFFFFFFFFFFFFFFFFFFFFFFFFFFFFFF
310
FFFFFFFFFFFFFFFFFFFFFFFFFFFFFFFFFFFFFFFFFFFFFFFFFFFFFFFFFFFFFFFF
310
FFFFFFFFFFFFFFFFFFFFFFFFFFFFFFFFFFFFFFFFFFFFFFFFFFFFFFFFFFFFFFFF
310
FFFFFFFFFFFFFFFFFFFFFFFFFFFFFFFFFFFFFFFFFFFFFFFFFFFFFFFFFFFFFFFF
310
FFFFFFFFFFFFFFFFFFFFFFFFFFFFFFFFFFFFFFFFFFFFFFFFFFFFFFFFFFFFFFFF
310
FFFFFFFFFFFFFFFFFFFFFFFFFFFFFFFFFFFFFFFFFFFFFFFFFFFFFFFFFFFFFFFF
310
FFFFFFFFFFFFFFFFFFFFFFFFFFFFFFFFFFFFFFFFFFFFFFFFFFFFFFFFFFFFFFFF
310
FFFFFFFFFFFFFFFFFFFFFFFFFFFFFFFFFFFFFFFFFFFFFFFFFFFFFFFFFFFFFFFF
310
010000020000000000000000000000000000000061007200650064005C003100
310
30002E0030005C0044004C004C005300680061007200650064005C003B004300
310
0100FEFF030A0000FFFFFFFF0A00030000000000C00000000000004607000000
310
5042727573680007000000504272757368000700000050427275736800F439B2
310
71000000000000000000000000004100540049002E004100430045005C004300
310
6F00720065002D005300740061007400690063003B0043003A005C0050007200
310
6F006700720061006D002000460069006C006500730020002800780038003600
310
29005C0043006F006D006D006F006E002000460069006C00650073005C004100
310
750074006F006400650073006B0020005300680061007200650064005C003B00
310
43003A005C00500072006F006700720061006D002000460069006C0065007300
310
5C004E006F0072006D0061006E005C004E0070006D005C00420069006E000000
310
43003A005C00500072006F006700720061006D002000460069006C0065007300
310
5C0053006F006C006900640057006F0072006B007300200043006F0072007000
310
5C0053006F006C006900640057006F0072006B00730020002800320029005C00
310
730065007400750070005C0069003300380036005C0073007700610063007400
310
770069007A002E006500780065000000220043003A005C00500072006F006700
310
20260000424D0E260000000000003E00000028000000B40200006E0000000100
310
01000000000000000000130B0000130B00000200000002000000000000FFFFFF
310
FFFFFFFFFFFFFFFFFFFFFFFFFFFFFFFFFFFFFFFFFFFFFFFFFFFFFFFFFFFFFFFF
310
FFFFFFFFFFFFFFFFFFFFFFFFFFFFFFFFFFFFFFFFFFFFFFFFFFFFFFFFFFFFFFFF
310
FFFFFFFFFFFFFFFFFFFFFFFFFFFFFFFFFFFFFFFFFFFFFFFFF000FFFFFFFFFFFF
310
FFFFFFFFFFFFFFFFFFFFFFFFFFFFFFFFFFFFFFFFFFFFFFFFFFFFFFFFFFFFFFFF
310
FFFFFFFFFFFFFFFFFFFFFFFFFFFFFFFFFFFFFFFFFFFFFFFFFFFFFFFFFFFFFFFF
310
FFFFFFFFFFFFFFFFFFFFFFFFFFFFFFFFF000FFFFFFFFFFFFFFFFFFFFFFFFFFFF
310
FFFFFFFFFFFFFFFFFFFFFFFFFFFFFFFFFFFFFFFFFFFFFFFFFFFFFFFFFFFFFFFF
310
FFFFFFFFFFFFFFFFFFFFFFFFFFFFFFFFFFFFFFFFFFFFFFFFFFFFFFFFFFFFFFFF
310
FFFFFFFFFFFFFFFFF000FFFFFFFFFFFFFFFFFFFFFFFFFFFFFFFFFFFFFFFFFFFF
310
FFFFFFFFFFFFFFFFFFFFFFFFFFFFFFFFFFFFFFFFFFFFFFFFFFFFFFFFFFFFFFFF
310
FFFFFFFFFFFFFFFFFFFFFFFFFFFFFFFFFFFFFFFFFFFFFFFFFFFFFFFFFFFFFFFF
310
F000FFFFFFFFFFFFFFFFFFFFFFFFFFFFFFFFFFFFFFFFFFFFFFFFFFFFFFFFFFFF
310
FFFFFFFFFFFFFFFFFFFFFFFFFFFFFFFFFFFFFFFFFFFFFFFFFFFFFFFFFFFFFFFF
310
FFFFFFFFFFFFFFFFFFFFFFFFFFFFFFFFFFFFFFFFFFFFFFFFF000FFFFFFFFFFFF
310
FFFFFFFFFFFFFFFFFFFFFFFFFFFFFFFFFFFFFFFFFFFFFFFFFFFFFFFFFFFFFFFF
310
FFFFFFFFFFFFFFFFFFFFFFFFFFFFFFFFFFFFFFFFFFFFFFFFFFFFFFFFFFFFFFFF
310
FFFFFFFFFFFFFFFFFFFFFFFFFFFFFFFFF000FFFFFFFFFFFFFFFFFFFFFFFFFFFF
310
FFFFFFFFFFFFFFFFFFFFFFFFFFFFFFFFFFFFFFFFFFFFFFFFFFFFFFFFFFFFFFFF
310
FFFFFFFFFFFFFFFFFFFFFFFFFFFFFFFFFFFFFFFFFFFFFFFFFFFFFFFFFFFFFFFF
310
FFFFFFFFFFFFFFFFF000FFFFFFFFFFFFFFFFFFFFFFFFFFFFFFFFFFFFFFFFFFFF
310
FFFFFFFFFFFFFFFFFFFFFFFFFFFFFFFFFFFFFFFFFFFFFFFFFFFFFFFFFFFFFFFF
310
FFFFFFFFFFFFFFFFFFFFFFFFFFFFFFFFFFFFFFFFFFFFFFFFFFFFFFFFFFFFFFFF
310
F000FFFFFFFFFFFFFFFFFFFFFFFFFFFFFFFFFFFFFFFFFFFFFFFFFFFFFFFFFFFF
310
FFFFFFFFFFFFFFFFFFFFFFFFFFFFFFFFFFFFFFFFFFFFFFFFFFFFFFFFFFFFFFFF
310
FFFFFFFFFFFFFFFFFFFFFFFFFFFFFFFFFFFFFFFFFFFFFFFFF000FFFFFFFFFFFF
310
FFFFFFFFFFFFFFFFFFFFFFFFFFFFFFFFFFFFFFFFFFFFFFFFFFFFFFFFFFFFFFFF
310
FFFFFFFFFFFFFFFFFFFFFFFFFFFFFFFFFFFFFFFFFFFFFFFFFFFFFFFFFFFFFFFF
310
FFFFFFFFFFFFFFFFFFFFFFFFFFFFFFFFF000FFFFFFFFFFFFFFFFFFFFFFFFFFFF
310
FFFFFFFFFFFFFFFFFFFFFFFFFFFFFFFFFFFFFFFFFFFFFFFFFFFFFFFFFFFFFFFF
310
FFFFFFFFFFFFFFFFFFFFFFFFFFFFFFFFFFFFFFFFFFFFFFFFFFFFFFFFFFFFFFFF
310
FFFFFFFFFFFFFFFFF000FFFFFFFFFFFFFFFFFFFFFFFFFFFFFFFFFFFFFFFFFFFF
310
FFFFFFFFFFFFFFFFFFFFFFFFFFFFFFFFFFFFFFFFFFFFFFFFFFFFFFFFFFFFFFFF
310
FFFFFFFFFFFFFFFFFFFFFFFFFFFFFFFFFFFFFFFFFFFFFFFFFFFFFFFFFFFFFFFF
310
F000FFFFFFFFFFFFFFFFFFFFFFFFFFFFFFFFFFFFFFFFFFFFFFFFFFFFFFFFFFFF
310
FFFFFFFFFFFFFFFFFFFFFFFFFFFFFFFFFFFFFFFFFFFFFFFFFFFFFFFFFFFFFFFF
310
FFFFFFFFFFFFFFFFFFFFFFFFFFFFFFFFFFFFFFFFFFFFFFFFF000FFFFFFFFFFFF
310
FFFFFFFFFFFFFFFFFFFFFFFFFFFFFFFFFFFFFFFFFFFFFFFFFFFFFFFFFFFFFFFF
310
FFFFFFFFFFFFFFFFFFFFFFFFFFFFFFFFFFFFFFFFFFFFFFFFFFFFFFFFFFFFFFFF
310
FFFFFFFFFFFFFFFFFFFFFFFFFFFFFFFFF000FFFFFFFFFFFFFFFFFFFFFFFFFFFF
310
FFFFFFFFFFFFFFFFFFFFFFFFFFFFFFFFFFFFFFFFFFFFFFFFFFFFFFFFFFFFFFFF
310
FFFFFFFFFFFFFFFFFFFFFFFFFFFFFFFFFFFFFFFFFFFFFFFFFFFFFFFFFFFFFFFF
310
FFFFFFFFFFFFFFFFF000FFFFFFFFFFFFFFFFFFFFFFFFFFFFFFFFFFFFFFFFFFFF
310
FFFFFFFFFFFFFFFFFFFFFFFFFFFFFFFFFFFFFFFFFFFFFFFFFFFFFFFFFFFFFFFF
310
FFFFFFFFFFFFFFFFFFFFFFFFFFFFFFFFFFFFFFFFFFFFFFFFFFFFFFFFFFFFFFFF
310
F000FFFFFFFFFFFFFFFFFFFFFFFFFFFFFFFFFFFFFFFFFFFFFFFFFFFFFFFFFFFF
310
FFFFFFFFFFFFFFFFFFFFFFFFFFFFFFFFFFFFFFFFFFFFFFFFFFFFFFFFFFFFFFFF
310
FFFFFFFFFFFFFFFFFFFFFFFFFFFFFFFFFFFFFFFFFFFFFFFFF000FFFFFFFFFFFF
310
FFFFFFFFFFFFFFFFFFFFFFFFFFFFFFFFFFFFFFFFFFFFFFFFFFFFFFFFFFFFFFFF
310
FFFFFFFFFFFFFFFFFFFFFFFFFFFFFFFFFFFFFFFFFFFFFFFFFFFFFFFFFFFFFFFF
310
FFFFFFFFFFFFFFFFFFFFFFFFFFFFFFFFF000FFFFFFFFFFFFFFFFFFFFFFFFFFFF
310
FFFFFFFFFFFFFFFFFFFFFFFFFFFFFFFFFFFFFFFFFFFFFFFFFFFFFFFFFFFFFFFF
310
FFFFFFFFFFFFFFFFFFFFFFFFFFFFFFFFFFFFFFFFFFFFFFFFFFFFFFFFFFFFFFFF
310
FFFFFFFFFFFFFFFFF000FFFFF80003FFFFFFFFFFFFFFFFFFFFFFFFFFFFFFFFFF
310
FFFFF00007FFFFFFFFFF00007FFFFFF800000000000000007FFFFFFFFFFFFFFF
310
FFFFFFFC001FFFFFFFFFFFFFFC001FFFFFFFFFFFFFFFFFFFFFFFFFFE0007FFFF
310
F000FFFF8000007FFFFFFFF8000FFFFFC0007FFFFF80007FFFFF0000007FFFFF
310
FFF8000007FFFFF800000000000000007FFFFFF0001FFFFFFFFFFFC00001FFFF
310
FFFFFFFFC00001FFFFFFFF000000000003FFFFE000007FFFF000FFFE0000000F
310
FFFFFFF0000FFFFF80007FFFFF80007FFFFC0000001FFFFFFFC0000001FFFFF8
310
00000000000000007FFFFFF0001FFFFFFFFFFE0000003FFFFFFFFFFE0000003F
310
FFFFFF000000000003FFFF0000000FFFF000FFF800000003FFFFFFF00007FFFF
310
80007FFFFF80007FFFF000000007FFFFFF000000003FFFF80000000000000000
310
7FFFFFF0001FFFFFFFFFF80000000FFFFFFFFFF80000000FFFFFFF0000000000
310
03FFFC00000003FFF000FFE000000000FFFFFFF00007FFFF80003FFFFF80007F
310
FFC000000001FFFFFC000000001FFFF800000000000000007FFFFFF0001FFFFF
310
FFFFE000000003FFFFFFFFE000000003FFFFFF000000000003FFF000000000FF
310
F000FF80000000007FFFFFF00007FFFF80003FFFFF80007FFF8000000000FFFF
310
F80000000007FFF800000000000000007FFFFFF0001FFFFFFFFFC000000001FF
310
FFFFFFC000000001FFFFFF000000000003FFC0000000007FF000FF0000000000
310
3FFFFFE00007FFFF00003FFFFF80007FFE00000000003FFFF00000000003FFF8
310
00000000000000007FFFFFF0001FFFFFFFFF8000000000FFFFFFFF8000000000
310
FFFFFF000000000003FF80000000003FF000FE00000000001FFFFFE00003FFFF
310
00003FFFFF80007FFC00000000001FFFE00000000001FFF8000001FFFE000000
310
7FFFFFF0001FFFFFFFFE00000000003FFFFFFE00000000003FFFFF0000000000
310
03FF00000000001FF000FC00000000000FFFFFE00003FFFF00001FFFFF80007F
310
F800000000001FFFC00000000000FFF8000001FFFE0000007FFFFFF0001FFFFF
310
FFFC00000000001FFFFFFC00000000001FFFFF000000000003FE00000000000F
310
F000F8000000000007FFFFE00003FFFF00001FFFFF80007FF800000000000FFF
310
800000000000FFF8000001FFFE0000007FFFFFF0001FFFFFFFF800000000000F
310
FFFFF800000000000FFFFF000000000003FC000000000007F000F80000000000
310
03FFFFC00003FFFE00001FFFFF80007FF0000000000007FF0000000000007FF8
310
000001FFFE0000007FFFFFF0001FFFFFFFF0000000000007FFFFF00000000000
310
07FFFF000000000003F8000000000003F000F0000000000003FFFFC00001FFFE
310
00001FFFFF80007FE0000000000007FE0000000000003FF8000001FFFE000000
310
7FFFFFF0001FFFFFFFF0000000000007FFFFF0000000000007FFFF0000000000
310
03F800001F800003F000E00001FFF00001FFFFC00001FFFE00000FFFFF80007F
310
E00001FFE00003FE00001FFF00003FF8000001FFFE0000007FFFFFF0001FFFFF
310
FFE000003E000003FFFFE000003E000003FFFF000000000003F00001FFF80001
310
F000E00007FFFC0001FFFFC00001FFFE00000FFFFF80007FC0000FFFFC0003FC
310
0000FFFFC0001FF8000001FFFE0000007FFFFFF0001FFFFFFFC00003FFE00001
310
FFFFC00003FFE00001FFFF0001FFFFFFFFF00007FFFE0001F000E0000FFFFF00
310
00FFFF800001FFFC00000FFFFF80007FC0001FFFFE0001FC0001FFFFE0001FF8
310
000001FFFE0000007FFFFFF0001FFFFFFF80000FFFF80000FFFF80000FFFF800
310
00FFFF0003FFFFFFFFE0000FFFFF8000F000C0003FFFFF8000FFFF800000FFFC
310
000007FFFF80007F80003FFFFF0001FC0003FFFFF0001FF8000001FFFE000000
310
7FFFFFF0001FFFFFFF80003FFFFE0000FFFF80003FFFFE0000FFFF0003FFFFFF
310
FFE0003FFFFF8000F000C0003FFFFF8000FFFF800000FFFC000007FFFF80007F
310
80007FFFFF8001F80007FFFFF8000FF8000001FFFE0000007FFFFFF0001FFFFF
310
FF00007FFFFF00007FFF00007FFFFF00007FFF0003FFFFFFFFE0003FFFFFC000
310
F000C0007FFFFFC000FFFF000000FFFC000007FFFF80007F8000FFFFFF8000F8
310
000FFFFFF8000FF8000001FFFE0000007FFFFFF0001FFFFFFF0000FFFFFF8000
310
7FFF0000FFFFFF80007FFF0003FFFFFFFFC0007FFFFFC00070008000FFFFFFC0
310
00FFFF000000FFF8000007FFFF80007F8000FFFFFF8000F8000FFFFFF8000FF8
310
000001FFFE0000007FFFFFF0001FFFFFFE0001FFFFFFC0003FFE0001FFFFFFC0
310
003FFF0003FFFFFFFFC0007FFFFFE00070008000FFFFFFC0007FFF0000007FF8
310
000003FFFF80007F0001FFFFFF8000F8000FFFFFF8000FF8000001FFFE000000
310
7FFFFFF0001FFFFFFE0001FFFFFFC0003FFE0001FFFFFFC0003FFF0003FFFFFF
310
FFC000FFFFFFE00070008000FFFFFFC0007FFF0000007FF8000003FFFF80007F
310
0001FFFFFF8000F8001FFFFFF8000FF8000001FFFE0000007FFFFFF0001FFFFF
310
FE0003FFFFFFE0003FFE0003FFFFFFE0003FFF0003FFFFFFFFC000FFFFFFE000
310
70008000FFFFFFC0007FFE0000007FF8000003FFFF80007F0001FFFFFF8000F0
310
001FFFFFF8000FF8000001FFFE0000007FFFFFF0001FFFFFFC0003FFFFFFE000
310
1FFC0003FFFFFFE0001FFF0003FFFFFFFFC000FFFFFFC00070008000FFFFFF80
310
007FFE0000007FF0000003FFFF80007F0001FFFFFF0000F0001FFFFFF8000FF8
310
000001FFFE0000007FFFFFF0001FFFFFFC0007FFFFFFF0001FFC0007FFFFFFF0
310
001FFF0003FFFFFFFFC000FFFFFFC00070008001FFFFFF0000FFFE0000003FF0
310
000001FFFF80007F0001FFFFFF0000F8001FFFFFF0000FF8000001FFFE000000
310
7FFFFFF0001FFFFFFC0007FFFFFFF0001FFC0007FFFFFFF0001FFF0003FFFFFF
310
FFC001FFFFFF80007000FFFFFFFFFE0000FFFE0008003FF0008001FFFF80007F
310
FFFFFFFFFC0000FFFFFFFFFFE0000FF8000001FFFE0000007FFFFFF0001FFFFF
310
F8000FFFFFFFF8000FF8000FFFFFFFF8000FFF0003FFFFFFFFFFFFFFFFFF0000
310
7000FFFFFFFFFC0000FFFC0008003FF0008001FFFF80007FFFFFFFFFF80001FF
310
FFFFFFFF80000FF8000001FFFE0000007FFFFFF0001FFFFFF8000FFFFFFFF800
310
0FF8000FFFFFFFF8000FFF0003FFFFFFFFFFFFFFFFFE0000F000FFFFFFFFE000
310
00FFFC000C003FE000C001FFFF80007FFFFFFFFFC00001FFFFFFFFFE00001FF8
310
000001FFFE0000007FFFFFF0001FFFFFF8000FFFFFFFF8000FF8000FFFFFFFF8
310
000FFF0003FFFFFFFFFFFFFFFFF00000F000FFFFFFFE000001FFFC000C001FE0
310
00C000FFFF80007FFFFFFFFE000001FFFFFFFFE000001FF80FFFFFFFFFFFFFC0
310
7FFFFFF0001FFFFFF8000FFFFFFFF8000FF8000FFFFFFFF8000FFF0003FFFFFF
310
FFFFFFFFFF800000F000FFFFFFC0000001FFFC001C001FE001C000FFFF80007F
310
FFFFFF80000003FFFFFFF80000001FF80FFFFFFFFFFFFFC07FFFFFF0001FFFFF
310
F8001FFFFFFFFC000FF8001FFFFFFFFC000FFF0003FFFFFFFFFFFFFFF0000001
310
F000FFFFF800000001FFF8001C001FE001C000FFFF80007FFFFFF800000003FF
310
FFFF800000003FF80FFFFFFFFFFFFFC07FFFFFF0001FFFFFF8001FFFFFFFFC00
310
0FF8001FFFFFFFFC000FFF0003FFFFFFFFFFFFFE00000001F000FFFFC0000000
310
03FFF8001E001FC001E000FFFF80007FFFFF8000000007FFFFFC000000003FF8
310
0FFFFFFFFFFFFFC07FFFFFF0001FFFFFF8001FFFFFFFFC000FF8001FFFFFFFFC
310
000FFF0003FFFFFFFFFFFFE000000003F000FFFE0000000007FFF8001E000FC0
310
01E0007FFF80007FFFFE0000000007FFFFE0000000007FF80FFFFFFFFFFFFFC0
310
7FFFFFF0001FFFFFF0001FFFFFFFFC0007F0001FFFFFFFFC0007FF0003FFFFFF
310
FFFFFF0000000003F000FFF80000000007FFF8001E000FC003E0007FFF80007F
310
FFF0000000000FFFFF8000000000FFF80FFFFFFFFFFFFFC07FFFFFF0001FFFFF
310
F0001FFFFFFFFC0007F0001FFFFFFFFC0007FF0003FFFFFFFFFFFC0000000007
310
F000FFE0000000000FFFF0003E000FC003E0007FFF80007FFFC0000000001FFF
310
FE0000000001FFF80FFFFFFFFFFFFFC07FFFFFF0001FFFFFF0001FFFFFFFFC00
310
07F0001FFFFFFFFC0007FF0003FFFFFFFFFFF0000000000FF000FFC000000000
310
1FFFF0003F000F8003F0003FFF80007FFF80000000003FFFF80000000003FFF8
310
0FFFFFFFFFFFFFC07FFFFFF0001FFFFFF0001FFFFFFFFC0007F0001FFFFFFFFC
310
0007FF0003FFFFFFFFFFE0000000001FF000FF00000000007FFFF0003F000780
310
03F0003FFF80007FFF00000000007FFFF00000000007FFF80FFFFFFFFFFFFFC0
310
7FFFFFF0001FFFFFF0001FFFFFFFFC0007F0001FFFFFFFFC0007FF0003FFFFFF
310
FFFF80000000007FF000FE0000000000FFFFE0003F00078007F0003FFF80007F
310
FE0000000001FFFFE0000000001FFFF80FFFFFFFFFFFFFC07FFFFFF0001FFFFF
310
F0001FFFFFFFFC0007F0001FFFFFFFFC0007FF0003FFFFFFFFFF0000000000FF
310
F000FC0000000003FFFFE0007F00078007F0003FFF80007FFC0000000007FFFF
310
C0000000007FFFF80FFFFFFFFFFFFFC07FFFFFF0001FFFFFF8001FFFFFFFFC00
310
0FF8001FFFFFFFFC000FFF0003FFFFFFFFFE0000000003FFF000FC000000000F
310
FFFFE0007F80070007F8001FFF80007FF8000000001FFFFF8000000001FFFFF8
310
0FFFFFFFFFFFFFC07FFFFFF0001FFFFFF8001FFFFFFFFC000FF8001FFFFFFFFC
310
000FFF0003FFFFFFFFFC000000000FFFF000F8000000007FFFFFE0007F800700
310
07F8001FFF80007FF000000000FFFFFF800000000FFFFFF80FFFFFFFFFFFFFC0
310
7FFFFFF0001FFFFFF8000FFFFFFFF8000FF8000FFFFFFFF8000FFF0003FFFFFF
310
FFFC000000007FFFF000F800000007FFFFFFC0007F8003000FF8001FFF80007F
310
F000000007FFFFFF000000007FFFFFF80FFFFFFFFFFFFFC07FFFFFF0001FFFFF
310
F8000FFFFFFFF8000FF8000FFFFFFFF8000FFF0003FFFFFFFFF80000000FFFFF
310
F000F0000000FFFFFFFFC000FF8003000FF8001FFF80007FE0000000FFFFFFFF
310
0000000FFFFFFFF8000001FFFE0000007FFFFFF0001FFFFFF8000FFFFFFFF800
310
0FF8000FFFFFFFF8000FFF0003FFFFFFFFF8000000FFFFFFF000F000000FFFFF
310
FFFFC000FFC002000FF8000FFF80007FE000001FFFFFFFFE000001FFFFFFFFF8
310
000001FFFE0000007FFFFFF0001FFFFFF8000FFFFFFFF8000FF8000FFFFFFFF8
310
000FFF0003FFFFFFFFF000001FFFFFFFF000E00000FFFFFFFFFFC000FFC00200
310
0FFC000FFF80007FE00001FFFFFFFFFE00001FFFFFFFFFF8000001FFFE000000
310
7FFFFFF0001FFFFFFC000FFFFFFFF8001FFC000FFFFFFFF8001FFF0003FFFFFF
310
FFF00001FFFFFFFFF000E00007FFFFFFFFFF8000FFC000001FFC000FFF80007F
310
C0000FFFFFFFFFFE0000FFFFFFFFFFF8000001FFFE0000007FFFFFF0001FFFFF
310
FC0007FFFFFFF0001FFC0007FFFFFFF0001FFF0003FFFFFFFFF00007FFFFFFFF
310
F000E0001FFFFFFFFFFF8000FFC000001FFC000FFF80007FC0003FFFFFFFFFFE
310
0001FFFFFFFFFFF8000001FFFE0000007FFFFFF0001FFFFFFC0007FFFFFFF000
310
1FFC0007FFFFFFF0001FFF0003FFFFFFFFF0001FFFFFFFFFF000E0003FFFFF00
310
03FF8001FFE000001FFC0007FF80007FC0007FFFFF0007FC0003FFFFF0003FF8
310
000001FFFE0000007FFFFFF0001FFFFFFC0003FFFFFFE0001FFC0003FFFFFFE0
310
001FFF0003FFFFFFFFF0003FFFFFFFFFF000E0003FFFFF0001FF8001FFE00000
310
1FFE0007FF80007FC0007FFFFE0003FC0007FFFFE0003FF8000001FFFE000000
310
7FFFFFF0001FFFFFFE0003FFFFFFE0003FFE0003FFFFFFE0003FFF0003FFFFFF
310
FFF0003FFFFF8001F000E0003FFFFF0001FF0001FFE000001FFE0007FF80007F
310
C0007FFFFE0003FC0007FFFFE0003FF8000001FFFE0000007FFFFFF0001FFFFF
310
FE0001FFFFFFC0003FFE0001FFFFFFC0003FFF0003FFFFFFFFF0003FFFFF0001
310
F000E0003FFFFF0003FF0001FFE000003FFE0007FF80007FC0007FFFFE0003FC
310
0007FFFFE0003FF8000001FFFE0000007FFFFFF0001FFFFFFF0001FFFFFFC000
310
7FFF0001FFFFFFC0007FFF0003FFFFFFFFF0003FFFFF0001F000E0003FFFFE00
310
03FF0003FFF000003FFE0003FF80007FC0007FFFFC0003FE0007FFFFE0003FF8
310
000001FFFE0000007FFFFFF0001FFFFFFF0000FFFFFF80007FFF0000FFFFFF80
310
007FFF0003FFFFFFFFF0003FFFFF0001F000E0003FFFFE0003FF0003FFF00000
310
3FFF0003FF80007FC0007FFFFC0007FE0007FFFFC0003FF8000001FFFE000000
310
7FFFFFF0001FFFFFFF80007FFFFF0000FFFF80007FFFFF0000FFFF0003FFFFFF
310
FFF0003FFFFF0003F000E0003FFFFC0003FE0003FFF000003FFF0003FF80007F
310
E0003FFFF80007FE0003FFFFC0007FF8000001FFFE0000007FFFFFF0001FFFFF
310
FF80003FFFFE0000FFFF80003FFFFE0000FFFF0003FFFFFFFFF0001FFFFE0003
310
F000F0001FFFF80003FE0003FFF000007FFF0001FF80007FE0003FFFF00007FE
310
0001FFFF80007FF8000001FFFE0000007FFFFFF0001FFFFFFFC0000FFFF80001
310
FFFFC0000FFFF80001FFFF0003FFFFFFFFF0001FFFFC0003F000F0000FFFF000
310
07FE0007FFF800007FFF0001FF80007FE0001FFFE00007FF0000FFFE00007FF8
310
000001FFFE0000007FFFFFF0001FFFFFFFC00003FFE00001FFFFC00003FFE000
310
01FFFF0003FFFFFFFFF8000FFFF80003F000F00003FFC00007FC0007FFF80000
310
7FFF8001FF80007FF00007FF80000FFF00007FF80000FFF8000001FFFE000000
310
7F80000000000001FFE000003E000003FFFFE000003E000003FFFF0003FFFFFF
310
FFF80003FFE00007F000F800000000000FFC0007FFF800007FFF8001FF80007F
310
F000000000000FFF000000000000FFF8000001FFFE0000007F80000000000001
310
FFF0000000000007FFFFF0000000000007FFFF0003FFFFFFFFFC00007E000007
310
F000F800000000000FFC0007FFF80000FFFF8000FF80007FF800000000001FFF
310
800000000001FFF8000001FFFE0000007F80000000000001FFF800000000000F
310
FFFFF800000000000FFFFF0003FFFFFFFFFC00000000000FF000FC0000000000
310
1FFC0007FFFC0000FFFF8000FF80007FF800000000003FFFC00000000001FFF8
310
000001FFFE0000007F80000000000001FFF800000000000FFFFFF80000000000
310
0FFFFF0003FFFFFFFFFE00000000001FF000FE00000000003FF8000FFFFC0000
310
FFFF8000FF80007FFC00000000003FFFC00000000003FFF8000001FFFE000000
310
7F80000000000001FFFC00000000001FFFFFFC00000000001FFFFF0003FFFFFF
310
FFFF00000000001FF000FF00000000003FF8000FFFFC0000FFFFC000FF80007F
310
FE00000000007FFFE00000000007FFF8000001FFFE0000007F80000000000001
310
FFFE00000000003FFFFFFE00000000003FFFFF0003FFFFFFFFFF80000000003F
310
F000FF80000000007FF8000FFFFC0001FFFFC0007F80007FFF0000000000FFFF
310
F0000000000FFFF800000000000000007F80000000000001FFFF8000000000FF
310
FFFFFF8000000000FFFFFF0003FFFFFFFFFFC0000000007FF000FFC000000000
310
FFF8000FFFFE0001FFFFC0007F80007FFF8000000001FFFFF8000000001FFFF8
310
00000000000000007F80000000000001FFFFC000000001FFFFFFFFC000000001
310
FFFFFF0003FFFFFFFFFFE000000000FFF000FFE000000003FFF0001FFFFE0001
310
FFFFC0007F80007FFFC000000007FFFFFE000000003FFFF80000000000000000
310
7F80000000000001FFFFE000000003FFFFFFFFE000000003FFFFFF0003FFFFFF
310
FFFFF000000003FFF000FFF80000000FFFF0001FFFFE0001FFFFE0007F80007F
310
FFF00000000FFFFFFF00000000FFFFF800000000000000007F80000000000001
310
FFFFF80000000FFFFFFFFFF80000000FFFFFFF0003FFFFFFFFFFFC0000000FFF
310
F000FFFE0000003FFFF0001FFFFE0003FFFFE0003F80007FFFFC0000003FFFFF
310
FFC0000003FFFFF800000000000000007F80000000000001FFFFFE0000003FFF
310
FFFFFFFE0000003FFFFFFF0003FFFFFFFFFFFF0000003FFFF000FFFF800000FF
310
FFF0001FFFFF0003FFFFE0003F80007FFFFF000001FFFFFFFFF800001FFFFFF8
310
00000000000000007F80000000000001FFFFFFC00001FFFFFFFFFFFFC00001FF
310
FFFFFF0003FFFFFFFFFFFFC00000FFFFF000FFFFF8000FFFFFFFFFFFFFFFFFFF
310
FFFFFFFFFFFFFFFFFFFFF0001FFFFFFFFFFF0000FFFFFFF80000000000000000
310
7FFFFFFFFFFFFFFFFFFFFFFC001FFFFFFFFFFFFFFC001FFFFFFFFFFFFFFFFFFF
310
FFFFFFFC001FFFFFF000FFFFFFFFFFFFFFFFFFFFFFFFFFFFFFFFFFFFFFFFFFFF
310
FFFFFFFFFFFFFFFFFFFFFFFFFFFFFFFFFFFFFFFFFFFFFFFFFFFFFFFFFFFFFFFF
310
FFFFFFFFFFFFFFFFFFFFFFFFFFFFFFFFFFFFFFFFFFFFFFFFFFFFFFFFFFFFFFFF
310
F000FFFFFFFFFFFFFFFFFFFFFFFFFFFFFFFFFFFFFFFFFFFFFFFFFFFFFFFFFFFF
310
FFFFFFFFFFFFFFFFFFFFFFFFFFFFFFFFFFFFFFFFFFFFFFFFFFFFFFFFFFFFFFFF
310
FFFFFFFFFFFFFFFFFFFFFFFFFFFFFFFFFFFFFFFFFFFFFFFFF000FFFFFFFFFFFF
310
FFFFFFFFFFFFFFFFFFFFFFFFFFFFFFFFFFFFFFFFFFFFFFFFFFFFFFFFFFFFFFFF
310
FFFFFFFFFFFFFFFFFFFFFFFFFFFFFFFFFFFFFFFFFFFFFFFFFFFFFFFFFFFFFFFF
310
FFFFFFFFFFFFFFFFFFFFFFFFFFFFFFFFF000FFFFFFFFFFFFFFFFFFFFFFFFFFFF
310
FFFFFFFFFFFFFFFFFFFFFFFFFFFFFFFFFFFFFFFFFFFFFFFFFFFFFFFFFFFFFFFF
310
FFFFFFFFFFFFFFFFFFFFFFFFFFFFFFFFFFFFFFFFFFFFFFFFFFFFFFFFFFFFFFFF
310
FFFFFFFFFFFFFFFFF000FFFFFFFFFFFFFFFFFFFFFFFFFFFFFFFFFFFFFFFFFFFF
310
FFFFFFFFFFFFFFFFFFFFFFFFFFFFFFFFFFFFFFFFFFFFFFFFFFFFFFFFFFFFFFFF
310
FFFFFFFFFFFFFFFFFFFFFFFFFFFFFFFFFFFFFFFFFFFFFFFFFFFFFFFFFFFFFFFF
310
F000FFFFFFFFFFFFFFFFFFFFFFFFFFFFFFFFFFFFFFFFFFFFFFFFFFFFFFFFFFFF
310
FFFFFFFFFFFFFFFFFFFFFFFFFFFFFFFFFFFFFFFFFFFFFFFFFFFFFFFFFFFFFFFF
310
FFFFFFFFFFFFFFFFFFFFFFFFFFFFFFFFFFFFFFFFFFFFFFFFF000FFFFFFFFFFFF
310
FFFFFFFFFFFFFFFFFFFFFFFFFFFFFFFFFFFFFFFFFFFFFFFFFFFFFFFFFFFFFFFF
310
FFFFFFFFFFFFFFFFFFFFFFFFFFFFFFFFFFFFFFFFFFFFFFFFFFFFFFFFFFFFFFFF
310
FFFFFFFFFFFFFFFFFFFFFFFFFFFFFFFFF000FFFFFFFFFFFFFFFFFFFFFFFFFFFF
310
FFFFFFFFFFFFFFFFFFFFFFFFFFFFFFFFFFFFFFFFFFFFFFFFFFFFFFFFFFFFFFFF
310
FFFFFFFFFFFFFFFFFFFFFFFFFFFFFFFFFFFFFFFFFFFFFFFFFFFFFFFFFFFFFFFF
310
FFFFFFFFFFFFFFFFF000FFFFFFFFFFFFFFFFFFFFFFFFFFFFFFFFFFFFFFFFFFFF
310
FFFFFFFFFFFFFFFFFFFFFFFFFFFFFFFFFFFFFFFFFFFFFFFFFFFFFFFFFFFFFFFF
310
FFFFFFFFFFFFFFFFFFFFFFFFFFFFFFFFFFFFFFFFFFFFFFFFFFFFFFFFFFFFFFFF
310
F000FFFFFFFFFFFFFFFFFFFFFFFFFFFFFFFFFFFFFFFFFFFFFFFFFFFFFFFFFFFF
310
FFFFFFFFFFFFFFFFFFFFFFFFFFFFFFFFFFFFFFFFFFFFFFFFFFFFFFFFFFFFFFFF
310
FFFFFFFFFFFFFFFFFFFFFFFFFFFFFFFFFFFFFFFFFFFFFFFFF000FFFFFFFFFFFF
310
FFFFFFFFFFFFFFFFFFFFFFFFFFFFFFFFFFFFFFFFFFFFFFFFFFFFFFFFFFFFFFFF
310
FFFFFFFFFFFFFFFFFFFFFFFFFFFFFFFFFFFFFFFFFFFFFFFFFFFFFFFFFFFFFFFF
310
FFFFFFFFFFFFFFFFFFFFFFFFFFFFFFFFF000FFFFFFFFFFFFFFFFFFFFFFFFFFFF
310
FFFFFFFFFFFFFFFFFFFFFFFFFFFFFFFFFFFFFFFFFFFFFFFFFFFFFFFFFFFFFFFF
310
FFFFFFFFFFFFFFFFFFFFFFFFFFFFFFFFFFFFFFFFFFFFFFFFFFFFFFFFFFFFFFFF
310
FFFFFFFFFFFFFFFFF000FFFFFFFFFFFFFFFFFFFFFFFFFFFFFFFFFFFFFFFFFFFF
310
FFFFFFFFFFFFFFFFFFFFFFFFFFFFFFFFFFFFFFFFFFFFFFFFFFFFFFFFFFFFFFFF
310
FFFFFFFFFFFFFFFFFFFFFFFFFFFFFFFFFFFFFFFFFFFFFFFFFFFFFFFFFFFFFFFF
310
F000FFFFFFFFFFFFFFFFFFFFFFFFFFFFFFFFFFFFFFFFFFFFFFFFFFFFFFFFFFFF
310
FFFFFFFFFFFFFFFFFFFFFFFFFFFFFFFFFFFFFFFFFFFFFFFFFFFFFFFFFFFFFFFF
310
FFFFFFFFFFFFFFFFFFFFFFFFFFFFFFFFFFFFFFFFFFFFFFFFF000FFFFFFFFFFFF
310
FFFFFFFFFFFFFFFFFFFFFFFFFFFFFFFFFFFFFFFFFFFFFFFFFFFFFFFFFFFFFFFF
310
FFFFFFFFFFFFFFFFFFFFFFFFFFFFFFFFFFFFFFFFFFFFFFFFFFFFFFFFFFFFFFFF
310
FFFFFFFFFFFFFFFFFFFFFFFFFFFFFFFFF000FFFFFFFFFFFFFFFFFFFFFFFFFFFF
310
FFFFFFFFFFFFFFFFFFFFFFFFFFFFFFFFFFFFFFFFFFFFFFFFFFFFFFFFFFFFFFFF
310
FFFFFFFFFFFFFFFFFFFFFFFFFFFFFFFFFFFFFFFFFFFFFFFFFFFFFFFFFFFFFFFF
310
FFFFFFFFFFFFFFFFF000FFFFFFFFFFFFFFFFFFFFFFFFFFFFFFFFFFFFFFFFFFFF
310
FFFFFFFFFFFFFFFFFFFFFFFFFFFFFFFFFFFFFFFFFFFFFFFFFFFFFFFFFFFFFFFF
310
FFFFFFFFFFFFFFFFFFFFFFFFFFFFFFFFFFFFFFFFFFFFFFFFFFFFFFFFFFFFFFFF
310
F000FFFFFFFFFFFFFFFFFFFFFFFFFFFFFFFFFFFFFFFFFFFFFFFFFFFFFFFFFFFF
310
FFFFFFFFFFFFFFFFFFFFFFFFFFFFFFFFFFFFFFFFFFFFFFFFFFFFFFFFFFFFFFFF
310
FFFFFFFFFFFFFFFFFFFFFFFFFFFFFFFFFFFFFFFFFFFFFFFFF000FFFFFFFFFFFF
310
FFFFFFFFFFFFFFFFFFFFFFFFFFFFFFFFFFFFFFFFFFFFFFFFFFFFFFFFFFFFFFFF
310
FFFFFFFFFFFFFFFFFFFFFFFFFFFFFFFFFFFFFFFFFFFFFFFFFFFFFFFFFFFFFFFF
310
FFFFFFFFFFFFFFFFFFFFFFFFFFFFFFFFF000FFFFFFFFFFFFFFFFFFFFFFFFFFFF
310
FFFFFFFFFFFFFFFFFFFFFFFFFFFFFFFFFFFFFFFFFFFFFFFFFFFFFFFFFFFFFFFF
310
FFFFFFFFFFFFFFFFFFFFFFFFFFFFFFFFFFFFFFFFFFFFFFFFFFFFFFFFFFFFFFFF
310
FFFFFFFFFFFFFFFFF000FFFFFFFFFFFFFFFFFFFFFFFFFFFFFFFFFFFFFFFFFFFF
310
FFFFFFFFFFFFFFFFFFFFFFFFFFFFFFFFFFFFFFFFFFFFFFFFFFFFFFFFFFFFFFFF
310
FFFFFFFFFFFFFFFFFFFFFFFFFFFFFFFFFFFFFFFFFFFFFFFFFFFFFFFFFFFFFFFF
310
F000FFFFFFFFFFFFFFFFFFFFFFFFFFFFFFFFFFFFFFFFFFFFFFFFFFFFFFFFFFFF
310
FFFFFFFFFFFFFFFFFFFFFFFFFFFFFFFFFFFFFFFFFFFFFFFFFFFFFFFFFFFFFFFF
310
FFFFFFFFFFFFFFFFFFFFFFFFFFFFFFFFFFFFFFFFFFFFFFFFF000FFFFFFFFFFFF
310
FFFFFFFFFFFFFFFFFFFFFFFFFFFFFFFFFFFFFFFFFFFFFFFFFFFFFFFFFFFFFFFF
310
FFFFFFFFFFFFFFFFFFFFFFFFFFFFFFFFFFFFFFFFFFFFFFFFFFFFFFFFFFFFFFFF
310
FFFFFFFFFFFFFFFFFFFFFFFFFFFFFFFFF0000000000000000000000000000000
310
00000000000000000000000042006C00610063006B0000000000000000000000
310
0000000000000000000000000000000000000000000000000000000000000000
310
0000000000000000000000000000FFFFFFFFFFFFFFFFFFFFFFFFFFFFFFFFFFFF
310
FFFFFFFFFFFFFFFFFFFFFFFFFFFFFFFFFFFFFFFFFFFFFFFFFFFFFFFFFFFFFFFF
310
FFFFFFFFFFFFFFFFFFFFFFFF6476000800000000FFFFFFFF20FF202026000000
310
1E00000008000000060000000000000011000000200000008403000000000000
310
6000000060000000200002FB200020000000002B00FFFFFF40002200E8030000
310
A80400001C020000AF0000804A20004000000000000000000100000000000000
310
616C000800000000E40100007001000002000000270000001100000000000000
310
00000000BC0200000000000003020122420065006C006C00200047006F007400
310
680069006300200053007400640020004C006900670068007400000000000000
310
00000000000000000000000000000000420065006C006C0047006F0074006800
310
690063005300740064002D0042006F006C006400000000000000000000000000
310
0000000000000000000000000000000000000000000000000000000000000000
310
0000000000000000000000000000000000000000000000000000000000000000
  1
OLE
  0
ENDSEC
  0
SECTION
  2
OBJECTS
  0
DICTIONARY
  5
C
330
0
100
AcDbDictionary
281
     1
  3
ACAD_GROUP
350
D
  3
ACAD_LAYOUT
350
1A
  3
ACAD_MLEADERSTYLE
350
215
  3
ACAD_MLINESTYLE
350
17
  3
ACAD_PLOTSETTINGS
350
19
  3
ACAD_PLOTSTYLENAME
350
E
  3
ACAD_TABLESTYLE
350
214
  3
ACAD_VISUALSTYLE
350
2A
  3
AcDbVariableDictionary
350
216
  0
DICTIONARY
  5
D
102
{ACAD_REACTORS
330
C
102
}
330
C
100
AcDbDictionary
281
     1
  0
DICTIONARY
  5
1A
102
{ACAD_REACTORS
330
C
102
}
330
C
100
AcDbDictionary
281
     1
  3
Layout1
350
1E
  3
Layout2
350
26
  3
Model
350
22
  0
DICTIONARY
  5
215
102
{ACAD_REACTORS
330
C
102
}
330
C
100
AcDbDictionary
281
     1
  0
DICTIONARY
  5
17
102
{ACAD_REACTORS
330
C
102
}
330
C
100
AcDbDictionary
281
     1
  3
Standard
350
18
  0
DICTIONARY
  5
19
102
{ACAD_REACTORS
330
C
102
}
330
C
100
AcDbDictionary
281
     1
  0
ACDBDICTIONARYWDFLT
  5
E
102
{ACAD_REACTORS
330
C
102
}
330
C
100
AcDbDictionary
281
     1
  3
Normal
350
F
100
AcDbDictionaryWithDefault
340
F
  0
DICTIONARY
  5
214
102
{ACAD_REACTORS
330
C
102
}
330
C
100
AcDbDictionary
281
     1
  0
DICTIONARY
  5
2A
102
{ACAD_REACTORS
330
C
102
}
330
C
100
AcDbDictionary
281
     1
  3
2dWireframe
350
2F
  3
3D Hidden
350
31
  3
3dWireframe
350
30
  3
Basic
350
32
  3
Brighten
350
36
  3
ColorChange
350
3A
  3
Conceptual
350
34
  3
Dim
350
35
  3
Facepattern
350
39
  3
Flat
350
2B
  3
FlatWithEdges
350
2C
  3
Gouraud
350
2D
  3
GouraudWithEdges
350
2E
  3
Linepattern
350
38
  3
Realistic
350
33
  3
Thicken
350
37
  0
DICTIONARY
  5
216
102
{ACAD_REACTORS
330
C
102
}
330
C
100
AcDbDictionary
281
     1
  3
PSOLHEIGHT
350
218
  3
PSOLWIDTH
350
217
  0
LAYOUT
  5
1E
102
{ACAD_REACTORS
330
1A
102
}
330
1A
100
AcDbPlotSettings
  1

  2
none_device
  4

  6

 40
0.0
 41
0.0
 42
0.0
 43
0.0
 44
0.0
 45
0.0
 46
0.0
 47
0.0
 48
0.0
 49
0.0
140
0.0
141
0.0
142
1.0
143
1.0
 70
   688
 72
     0
 73
     0
 74
     5
  7

 75
    16
147
1.0
148
0.0
149
0.0
100
AcDbLayout
  1
Layout1
 70
     1
 71
     1
 10
0.0
 20
0.0
 11
420.0
 21
297.0
 12
0.0
 22
0.0
 32
0.0
 14
1.0000000000E+20
 24
1.0000000000E+20
 34
1.0000000000E+20
 15
-1.0000000000E+20
 25
-1.0000000000E+20
 35
-1.0000000000E+20
146
0.0
 13
0.0
 23
0.0
 33
0.0
 16
1.0
 26
0.0
 36
0.0
 17
0.0
 27
1.0
 37
0.0
 76
     0
330
1B
  0
LAYOUT
  5
26
102
{ACAD_REACTORS
330
1A
102
}
330
1A
100
AcDbPlotSettings
  1

  2
none_device
  4

  6

 40
0.0
 41
0.0
 42
0.0
 43
0.0
 44
0.0
 45
0.0
 46
0.0
 47
0.0
 48
0.0
 49
0.0
140
0.0
141
0.0
142
1.0
143
1.0
 70
   688
 72
     0
 73
     0
 74
     5
  7

 75
    16
147
1.0
148
0.0
149
0.0
100
AcDbLayout
  1
Layout2
 70
     1
 71
     2
 10
0.0
 20
0.0
 11
0.0
 21
0.0
 12
0.0
 22
0.0
 32
0.0
 14
0.0
 24
0.0
 34
0.0
 15
0.0
 25
0.0
 35
0.0
146
0.0
 13
0.0
 23
0.0
 33
0.0
 16
1.0
 26
0.0
 36
0.0
 17
0.0
 27
1.0
 37
0.0
 76
     0
330
23
  0
LAYOUT
  5
22
102
{ACAD_REACTORS
330
1A
102
}
330
1A
100
AcDbPlotSettings
  1

  2
none_device
  4

  6

 40
0.0
 41
0.0
 42
0.0
 43
0.0
 44
0.0
 45
0.0
 46
0.0
 47
0.0
 48
0.0
 49
0.0
140
0.0
141
0.0
142
1.0
143
1.0
 70
  1712
 72
     0
 73
     0
 74
     0
  7

 75
     0
147
1.0
148
0.0
149
0.0
100
AcDbLayout
  1
Model
 70
     1
 71
     0
 10
0.0
 20
0.0
 11
297.0
 21
210.0
 12
0.0
 22
0.0
 32
0.0
 14
0.0
 24
0.0
 34
0.0
 15
297.0
 25
210.0
 35
0.0
146
0.0
 13
0.0
 23
0.0
 33
0.0
 16
1.0
 26
0.0
 36
0.0
 17
0.0
 27
1.0
 37
0.0
 76
     0
330
1F
331
29
  0
MLINESTYLE
  5
18
102
{ACAD_REACTORS
330
17
102
}
330
17
100
AcDbMlineStyle
  2
Standard
 70
     0
  3

 62
   256
 51
90.0
 52
90.0
 71
     2
 49
0.5
 62
   256
  6
BYLAYER
 49
-0.5
 62
   256
  6
BYLAYER
  0
ACDBPLACEHOLDER
  5
F
102
{ACAD_REACTORS
330
E
102
}
330
E
  0
VISUALSTYLE
  5
2F
102
{ACAD_REACTORS
330
2A
102
}
330
2A
100
AcDbVisualStyle
  2
2dWireframe
 70
     4
 71
     0
 72
     2
 73
     0
 90
        0
 40
-0.6
 41
-30.0
 62
     5
 63
     7
 74
     1
 91
        4
 64
     7
 65
   257
 75
     1
175
     1
 42
1.0
 92
        0
 66
   257
 43
1.0
 76
     1
 77
     6
 78
     2
 67
     7
 79
     5
170
     0
171
     0
290
     0
174
     0
 93
        1
 44
0.0
173
     0
291
     0
 45
0.0
1001
ACAD
1000
AcDbSavedByObjectVersion
1070
     0
  0
VISUALSTYLE
  5
31
102
{ACAD_REACTORS
330
2A
102
}
330
2A
100
AcDbVisualStyle
  2
3D Hidden
 70
     6
 71
     1
 72
     2
 73
     2
 90
        0
 40
-0.6
 41
-30.0
 62
     5
 63
     7
 74
     2
 91
        2
 64
     7
 65
   257
 75
     2
175
     1
 42
40.0
 92
        0
 66
   257
 43
1.0
 76
     1
 77
     6
 78
     2
 67
     7
 79
     3
170
     0
171
     0
290
     0
174
     0
 93
        1
 44
0.0
173
     0
291
     0
 45
0.0
1001
ACAD
1000
AcDbSavedByObjectVersion
1070
     0
  0
VISUALSTYLE
  5
30
102
{ACAD_REACTORS
330
2A
102
}
330
2A
100
AcDbVisualStyle
  2
3dWireframe
 70
     5
 71
     0
 72
     2
 73
     0
 90
        0
 40
-0.6
 41
-30.0
 62
     5
 63
     7
 74
     1
 91
        4
 64
     7
 65
   257
 75
     1
175
     1
 42
1.0
 92
        0
 66
   257
 43
1.0
 76
     1
 77
     6
 78
     2
 67
     7
 79
     5
170
     0
171
     0
290
     0
174
     0
 93
        1
 44
0.0
173
     0
291
     0
 45
0.0
1001
ACAD
1000
AcDbSavedByObjectVersion
1070
     0
  0
VISUALSTYLE
  5
32
102
{ACAD_REACTORS
330
2A
102
}
330
2A
100
AcDbVisualStyle
  2
Basic
 70
     7
 71
     1
 72
     0
 73
     1
 90
        0
 40
-0.6
 41
-30.0
 62
     5
 63
     7
 74
     0
 91
        4
 64
     7
 65
   257
 75
     1
175
     1
 42
1.0
 92
        8
 66
     7
 43
1.0
 76
     1
 77
     6
 78
     2
 67
     7
 79
     5
170
     0
171
     0
290
     0
174
     0
 93
        1
 44
0.0
173
     0
291
     1
 45
0.0
1001
ACAD
1000
AcDbSavedByObjectVersion
1070
     0
  0
VISUALSTYLE
  5
36
102
{ACAD_REACTORS
330
2A
102
}
330
2A
100
AcDbVisualStyle
  2
Brighten
 70
    12
 71
     2
 72
     2
 73
     0
 90
        0
 40
-0.6
 41
-30.0
 62
     5
 63
     7
 74
     1
 91
        4
 64
     7
 65
   257
 75
     1
175
     1
 42
1.0
 92
        8
 66
     7
 43
1.0
 76
     1
 77
     6
 78
     2
 67
     7
 79
     5
170
     0
171
     0
290
     0
174
     0
 93
        1
 44
50.0
173
     0
291
     1
 45
0.0
1001
ACAD
1000
AcDbSavedByObjectVersion
1070
     0
  0
VISUALSTYLE
  5
3A
102
{ACAD_REACTORS
330
2A
102
}
330
2A
100
AcDbVisualStyle
  2
ColorChange
 70
    16
 71
     2
 72
     2
 73
     3
 90
        0
 40
-0.6
 41
-30.0
 62
     5
 63
     8
 74
     1
 91
        4
 64
     7
 65
   257
 75
     1
175
     1
 42
1.0
 92
        8
 66
     8
 43
1.0
 76
     1
 77
     6
 78
     2
 67
     7
 79
     5
170
     0
171
     0
290
     0
174
     0
 93
        1
 44
0.0
173
     0
291
     1
 45
0.0
1001
ACAD
1000
AcDbSavedByObjectVersion
1070
     0
  0
VISUALSTYLE
  5
34
102
{ACAD_REACTORS
330
2A
102
}
330
2A
100
AcDbVisualStyle
  2
Conceptual
 70
     9
 71
     3
 72
     2
 73
     0
 90
        0
 40
-0.6
 41
-30.0
 62
     5
 63
     7
 74
     2
 91
        2
 64
     7
 65
   257
 75
     1
175
     1
 42
40.0
 92
        8
 66
     7
 43
1.0
 76
     1
 77
     6
 78
     2
 67
     7
 79
     3
170
     0
171
     0
290
     0
174
     0
 93
        1
 44
0.0
173
     0
291
     0
 45
0.0
1001
ACAD
1000
AcDbSavedByObjectVersion
1070
     0
  0
VISUALSTYLE
  5
35
102
{ACAD_REACTORS
330
2A
102
}
330
2A
100
AcDbVisualStyle
  2
Dim
 70
    11
 71
     2
 72
     2
 73
     0
 90
        0
 40
-0.6
 41
-30.0
 62
     5
 63
     7
 74
     1
 91
        4
 64
     7
 65
   257
 75
     1
175
     1
 42
1.0
 92
        8
 66
     7
 43
1.0
 76
     1
 77
     6
 78
     2
 67
     7
 79
     5
170
     0
171
     0
290
     0
174
     0
 93
        1
 44
-50.0
173
     0
291
     1
 45
0.0
1001
ACAD
1000
AcDbSavedByObjectVersion
1070
     0
  0
VISUALSTYLE
  5
39
102
{ACAD_REACTORS
330
2A
102
}
330
2A
100
AcDbVisualStyle
  2
Facepattern
 70
    15
 71
     2
 72
     2
 73
     0
 90
        0
 40
-0.6
 41
-30.0
 62
     5
 63
     7
 74
     1
 91
        4
 64
     7
 65
   257
 75
     1
175
     1
 42
1.0
 92
        8
 66
     7
 43
1.0
 76
     1
 77
     6
 78
     2
 67
     7
 79
     5
170
     0
171
     0
290
     0
174
     0
 93
        1
 44
0.0
173
     0
291
     1
 45
0.0
1001
ACAD
1000
AcDbSavedByObjectVersion
1070
     0
  0
VISUALSTYLE
  5
2B
102
{ACAD_REACTORS
330
2A
102
}
330
2A
100
AcDbVisualStyle
  2
Flat
 70
     0
 71
     2
 72
     1
 73
     1
 90
        2
 40
-0.6
 41
30.0
 62
     5
 63
     7
 74
     0
 91
        4
 64
     7
 65
   257
 75
     1
175
     1
 42
1.0
 92
        8
 66
     7
 43
1.0
 76
     1
 77
     6
 78
     2
 67
     7
 79
     5
170
     0
171
     0
290
     0
174
     0
 93
       13
 44
0.0
173
     0
291
     1
 45
0.0
1001
ACAD
1000
AcDbSavedByObjectVersion
1070
     0
  0
VISUALSTYLE
  5
2C
102
{ACAD_REACTORS
330
2A
102
}
330
2A
100
AcDbVisualStyle
  2
FlatWithEdges
 70
     1
 71
     2
 72
     1
 73
     1
 90
        2
 40
-0.6
 41
30.0
 62
     5
 63
     7
 74
     1
 91
        4
 64
     7
 65
   257
 75
     1
175
     1
 42
1.0
 92
        0
 66
   257
 43
1.0
 76
     1
 77
     6
 78
     2
 67
     7
 79
     5
170
     0
171
     0
290
     0
174
     0
 93
       13
 44
0.0
173
     0
291
     1
 45
0.0
1001
ACAD
1000
AcDbSavedByObjectVersion
1070
     0
  0
VISUALSTYLE
  5
2D
102
{ACAD_REACTORS
330
2A
102
}
330
2A
100
AcDbVisualStyle
  2
Gouraud
 70
     2
 71
     2
 72
     2
 73
     1
 90
        2
 40
-0.6
 41
30.0
 62
     5
 63
     7
 74
     0
 91
        4
 64
     7
 65
   257
 75
     1
175
     1
 42
1.0
 92
        0
 66
     7
 43
1.0
 76
     1
 77
     6
 78
     2
 67
     7
 79
     5
170
     0
171
     0
290
     0
174
     0
 93
       13
 44
0.0
173
     0
291
     1
 45
0.0
1001
ACAD
1000
AcDbSavedByObjectVersion
1070
     0
  0
VISUALSTYLE
  5
2E
102
{ACAD_REACTORS
330
2A
102
}
330
2A
100
AcDbVisualStyle
  2
GouraudWithEdges
 70
     3
 71
     2
 72
     2
 73
     1
 90
        2
 40
-0.6
 41
30.0
 62
     5
 63
     7
 74
     1
 91
        4
 64
     7
 65
   257
 75
     1
175
     1
 42
1.0
 92
        0
 66
   257
 43
1.0
 76
     1
 77
     6
 78
     2
 67
     7
 79
     5
170
     0
171
     0
290
     0
174
     0
 93
       13
 44
0.0
173
     0
291
     1
 45
0.0
1001
ACAD
1000
AcDbSavedByObjectVersion
1070
     0
  0
VISUALSTYLE
  5
38
102
{ACAD_REACTORS
330
2A
102
}
330
2A
100
AcDbVisualStyle
  2
Linepattern
 70
    14
 71
     2
 72
     2
 73
     0
 90
        0
 40
-0.6
 41
-30.0
 62
     5
 63
     7
 74
     1
 91
        4
 64
     7
 65
   257
 75
     7
175
     7
 42
1.0
 92
        8
 66
     7
 43
1.0
 76
     1
 77
     6
 78
     2
 67
     7
 79
     5
170
     0
171
     0
290
     0
174
     0
 93
        1
 44
0.0
173
     0
291
     1
 45
0.0
1001
ACAD
1000
AcDbSavedByObjectVersion
1070
     0
  0
VISUALSTYLE
  5
33
102
{ACAD_REACTORS
330
2A
102
}
330
2A
100
AcDbVisualStyle
  2
Realistic
 70
     8
 71
     2
 72
     2
 73
     0
 90
        0
 40
-0.6
 41
-30.0
 62
     5
 63
     7
 74
     1
 91
        0
 64
     7
 65
   257
 75
     1
175
     1
 42
1.0
 92
        8
 66
     8
 43
1.0
 76
     1
 77
     6
 78
     2
 67
     7
 79
     5
170
     0
171
     0
290
     0
174
     0
 93
       13
 44
0.0
173
     0
291
     0
 45
0.0
1001
ACAD
1000
AcDbSavedByObjectVersion
1070
     0
  0
VISUALSTYLE
  5
37
102
{ACAD_REACTORS
330
2A
102
}
330
2A
100
AcDbVisualStyle
  2
Thicken
 70
    13
 71
     2
 72
     2
 73
     0
 90
        0
 40
-0.6
 41
-30.0
 62
     5
 63
     7
 74
     1
 91
        4
 64
     7
 65
   257
 75
     1
175
     1
 42
1.0
 92
       12
 66
     7
 43
1.0
 76
     1
 77
     6
 78
     2
 67
     7
 79
     5
170
     0
171
     0
290
     0
174
     0
 93
        1
 44
0.0
173
     0
291
     1
 45
0.0
1001
ACAD
1000
AcDbSavedByObjectVersion
1070
     0
  0
DICTIONARYVAR
  5
218
102
{ACAD_REACTORS
330
216
102
}
330
216
100
DictionaryVariables
280
     0
  1
80.000000
  0
DICTIONARYVAR
  5
217
102
{ACAD_REACTORS
330
216
102
}
330
216
100
DictionaryVariables
280
     0
  1
5.000000
  0
ENDSEC
  0
EOF
