  0
SECTION
  2
HEADER
  9
$ACADVER
  1
AC1015
  9
$ACADMAINTVER
 70
     6
  9
$DWGCODEPAGE
  3
ANSI_1252
  9
$INSBASE
 10
0.0
 20
0.0
 30
0.0
  9
$EXTMIN
 10
0.0
 20
0.0
 30
0.0
  9
$EXTMAX
 10
297.0
 20
210.0
 30
0.0
  9
$LIMMIN
 10
0.0
 20
0.0
  9
$LIMMAX
 10
297.0
 20
210.0
  9
$ORTHOMODE
 70
     0
  9
$REGENMODE
 70
     1
  9
$FILLMODE
 70
     1
  9
$QTEXTMODE
 70
     0
  9
$MIRRTEXT
 70
     1
  9
$LTSCALE
 40
1.0
  9
$ATTMODE
 70
     1
  9
$TEXTSIZE
 40
2.0
  9
$TRACEWID
 40
1.0
  9
$TEXTSTYLE
  7
Standard
  9
$CLAYER
  8
0
  9
$CELTYPE
  6
ByLayer
  9
$CECOLOR
 62
   256
  9
$CELTSCALE
 40
1.0
  9
$DISPSILH
 70
     0
  9
$DIMSCALE
 40
1.0
  9
$DIMASZ
 40
3.0
  9
$DIMEXO
 40
0.0
  9
$DIMDLI
 40
3.75
  9
$DIMRND
 40
0.0
  9
$DIMDLE
 40
0.0
  9
$DIMEXE
 40
1.0
  9
$DIMTP
 40
0.0
  9
$DIMTM
 40
0.0
  9
$DIMTXT
 40
2.0
  9
$DIMCEN
 40
2.5
  9
$DIMTSZ
 40
0.0
  9
$DIMTOL
 70
     0
  9
$DIMLIM
 70
     0
  9
$DIMTIH
 70
     1
  9
$DIMTOH
 70
     1
  9
$DIMSE1
 70
     0
  9
$DIMSE2
 70
     0
  9
$DIMTAD
 70
     1
  9
$DIMZIN
 70
     0
  9
$DIMBLK
  1

  9
$DIMASO
 70
     1
  9
$DIMSHO
 70
     1
  9
$DIMPOST
  1

  9
$DIMAPOST
  1

  9
$DIMALT
 70
     0
  9
$DIMALTD
 70
     3
  9
$DIMALTF
 40
0.0393700787
  9
$DIMLFAC
 40
2.0
  9
$DIMTOFL
 70
     1
  9
$DIMTVP
 40
0.0
  9
$DIMTIX
 70
     0
  9
$DIMSOXD
 70
     0
  9
$DIMSAH
 70
     0
  9
$DIMBLK1
  1

  9
$DIMBLK2
  1

  9
$DIMSTYLE
  2
ISO-25
  9
$DIMCLRD
 70
     0
  9
$DIMCLRE
 70
     0
  9
$DIMCLRT
 70
     0
  9
$DIMTFAC
 40
1.0
  9
$DIMGAP
 40
1.524
  9
$DIMJUST
 70
     0
  9
$DIMSD1
 70
     0
  9
$DIMSD2
 70
     0
  9
$DIMTOLJ
 70
     0
  9
$DIMTZIN
 70
     0
  9
$DIMALTZ
 70
     0
  9
$DIMALTTZ
 70
     0
  9
$DIMUPT
 70
     0
  9
$DIMDEC
 70
     2
  9
$DIMTDEC
 70
     3
  9
$DIMALTU
 70
     2
  9
$DIMALTTD
 70
     3
  9
$DIMTXSTY
  7
Standard
  9
$DIMAUNIT
 70
     0
  9
$DIMADEC
 70
     2
  9
$DIMALTRND
 40
0.0
  9
$DIMAZIN
 70
     0
  9
$DIMDSEP
 70
    44
  9
$DIMATFIT
 70
     3
  9
$DIMFRAC
 70
     0
  9
$DIMLDRBLK
  1

  9
$DIMLUNIT
 70
     2
  9
$DIMLWD
 70
    -2
  9
$DIMLWE
 70
    -2
  9
$DIMTMOVE
 70
     0
  9
$LUNITS
 70
     2
  9
$LUPREC
 70
     2
  9
$SKETCHINC
 40
1.0
  9
$FILLETRAD
 40
10.0
  9
$AUNITS
 70
     0
  9
$AUPREC
 70
     2
  9
$MENU
  1
.
  9
$ELEVATION
 40
0.0
  9
$PELEVATION
 40
0.0
  9
$THICKNESS
 40
0.0
  9
$LIMCHECK
 70
     0
  9
$CHAMFERA
 40
10.0
  9
$CHAMFERB
 40
10.0
  9
$CHAMFERC
 40
20.0
  9
$CHAMFERD
 40
0.0
  9
$SKPOLY
 70
     0
  9
$TDCREATE
 40
2455673.444196921
  9
$TDUCREATE
 40
2455673.360863588
  9
$TDUPDATE
 40
2455673.444196933
  9
$TDUUPDATE
 40
2455673.360863599
  9
$TDINDWG
 40
0.0000000116
  9
$TDUSRTIMER
 40
0.0000000116
  9
$USRTIMER
 70
     1
  9
$ANGBASE
 50
0.0
  9
$ANGDIR
 70
     0
  9
$PDMODE
 70
     0
  9
$PDSIZE
 40
-1.0
  9
$PLINEWID
 40
0.0
  9
$SPLFRAME
 70
     0
  9
$SPLINETYPE
 70
     6
  9
$SPLINESEGS
 70
     8
  9
$HANDSEED
  5
21D
  9
$SURFTAB1
 70
     6
  9
$SURFTAB2
 70
     6
  9
$SURFTYPE
 70
     6
  9
$SURFU
 70
     6
  9
$SURFV
 70
     6
  9
$UCSBASE
  2

  9
$UCSNAME
  2

  9
$UCSORG
 10
0.0
 20
0.0
 30
0.0
  9
$UCSXDIR
 10
1.0
 20
0.0
 30
0.0
  9
$UCSYDIR
 10
0.0
 20
1.0
 30
0.0
  9
$UCSORTHOREF
  2

  9
$UCSORTHOVIEW
 70
     0
  9
$UCSORGTOP
 10
0.0
 20
0.0
 30
0.0
  9
$UCSORGBOTTOM
 10
0.0
 20
0.0
 30
0.0
  9
$UCSORGLEFT
 10
0.0
 20
0.0
 30
0.0
  9
$UCSORGRIGHT
 10
0.0
 20
0.0
 30
0.0
  9
$UCSORGFRONT
 10
0.0
 20
0.0
 30
0.0
  9
$UCSORGBACK
 10
0.0
 20
0.0
 30
0.0
  9
$PUCSBASE
  2

  9
$PUCSNAME
  2

  9
$PUCSORG
 10
0.0
 20
0.0
 30
0.0
  9
$PUCSXDIR
 10
1.0
 20
0.0
 30
0.0
  9
$PUCSYDIR
 10
0.0
 20
1.0
 30
0.0
  9
$PUCSORTHOREF
  2

  9
$PUCSORTHOVIEW
 70
     0
  9
$PUCSORGTOP
 10
0.0
 20
0.0
 30
0.0
  9
$PUCSORGBOTTOM
 10
0.0
 20
0.0
 30
0.0
  9
$PUCSORGLEFT
 10
0.0
 20
0.0
 30
0.0
  9
$PUCSORGRIGHT
 10
0.0
 20
0.0
 30
0.0
  9
$PUCSORGFRONT
 10
0.0
 20
0.0
 30
0.0
  9
$PUCSORGBACK
 10
0.0
 20
0.0
 30
0.0
  9
$USERI1
 70
     0
  9
$USERI2
 70
     0
  9
$USERI3
 70
     0
  9
$USERI4
 70
     0
  9
$USERI5
 70
     0
  9
$USERR1
 40
0.0
  9
$USERR2
 40
0.0
  9
$USERR3
 40
0.0
  9
$USERR4
 40
0.0
  9
$USERR5
 40
0.0
  9
$WORLDVIEW
 70
     1
  9
$SHADEDGE
 70
     3
  9
$SHADEDIF
 70
    70
  9
$TILEMODE
 70
     1
  9
$MAXACTVP
 70
    64
  9
$PINSBASE
 10
0.0
 20
0.0
 30
0.0
  9
$PLIMCHECK
 70
     0
  9
$PEXTMIN
 10
1.0000000000E+20
 20
1.0000000000E+20
 30
1.0000000000E+20
  9
$PEXTMAX
 10
-1.0000000000E+20
 20
-1.0000000000E+20
 30
-1.0000000000E+20
  9
$PLIMMIN
 10
0.0
 20
0.0
  9
$PLIMMAX
 10
420.0
 20
297.0
  9
$UNITMODE
 70
     0
  9
$VISRETAIN
 70
     1
  9
$PLINEGEN
 70
     0
  9
$PSLTSCALE
 70
     1
  9
$TREEDEPTH
 70
  3020
  9
$CMLSTYLE
  2
Standard
  9
$CMLJUST
 70
     0
  9
$CMLSCALE
 40
20.0
  9
$PROXYGRAPHICS
 70
     1
  9
$MEASUREMENT
 70
     1
  9
$CELWEIGHT
370
    -1
  9
$ENDCAPS
280
     0
  9
$JOINSTYLE
280
     0
  9
$LWDISPLAY
290
     1
  9
$INSUNITS
 70
     4
  9
$HYPERLINKBASE
  1

  9
$STYLESHEET
  1

  9
$XEDIT
290
     1
  9
$CEPSNTYPE
380
     0
  9
$PSTYLEMODE
290
     1
  9
$FINGERPRINTGUID
  2
{94805246-C060-4848-9214-EF6CF4DEE6EF}
  9
$VERSIONGUID
  2
{FAEB1C32-E019-11D5-929B-00C0DF256EC4}
  9
$EXTNAMES
290
     1
  9
$PSVPSCALE
 40
0.0
  9
$OLESTARTUP
290
     0
  0
ENDSEC
  0
SECTION
  2
CLASSES
  0
CLASS
  1
ACDBDICTIONARYWDFLT
  2
AcDbDictionaryWithDefault
  3
ObjectDBX Classes
 90
        0
280
     0
281
     0
  0
CLASS
  1
VISUALSTYLE
  2
AcDbVisualStyle
  3
ObjectDBX Classes
 90
     4095
280
     0
281
     0
  0
CLASS
  1
DICTIONARYVAR
  2
AcDbDictionaryVar
  3
ObjectDBX Classes
 90
        0
280
     0
281
     0
  0
CLASS
  1
ACDBPLACEHOLDER
  2
AcDbPlaceHolder
  3
ObjectDBX Classes
 90
        0
280
     0
281
     0
  0
CLASS
  1
LAYOUT
  2
AcDbLayout
  3
ObjectDBX Classes
 90
        0
280
     0
281
     0
  0
ENDSEC
  0
SECTION
  2
TABLES
  0
TABLE
  2
VPORT
  5
8
330
0
100
AcDbSymbolTable
 70
     1
  0
VPORT
  5
29
330
8
100
AcDbSymbolTableRecord
100
AcDbViewportTableRecord
  2
*Active
 70
     0
 10
0.0
 20
0.0
 11
1.0
 21
1.0
 12
148.5
 22
105.0
 13
0.0
 23
0.0
 14
10.0
 24
10.0
 15
10.0
 25
10.0
 16
0.0
 26
0.0
 36
1.0
 17
0.0
 27
0.0
 37
0.0
 40
210.0
 41
1.4142857143
 42
50.0
 43
0.0
 44
0.0
 50
0.0
 51
0.0
 71
     0
 72
  2000
 73
     1
 74
     3
 75
     0
 76
     0
 77
     0
 78
     0
281
     0
 65
     1
110
0.0
120
0.0
130
0.0
111
1.0
121
0.0
131
0.0
112
0.0
122
1.0
132
0.0
 79
     0
146
0.0
  0
ENDTAB
  0
TABLE
  2
LTYPE
  5
5
330
0
100
AcDbSymbolTable
 70
     6
  0
LTYPE
  5
14
330
5
100
AcDbSymbolTableRecord
100
AcDbLinetypeTableRecord
  2
ByBlock
 70
     0
  3

 72
    65
 73
     0
 40
0.0
  0
LTYPE
  5
15
330
5
100
AcDbSymbolTableRecord
100
AcDbLinetypeTableRecord
  2
ByLayer
 70
     0
  3

 72
    65
 73
     0
 40
0.0
  0
LTYPE
  5
16
330
5
100
AcDbSymbolTableRecord
100
AcDbLinetypeTableRecord
  2
Continuous
 70
     0
  3
Solid line
 72
    65
 73
     0
 40
0.0
  0
LTYPE
  5
3B
330
5
100
AcDbSymbolTableRecord
100
AcDbLinetypeTableRecord
  2
HIDDEN
 70
     0
  3
Hidden __ __ __ __ __ __ __ __ __ __ __ __ __ __
 72
    65
 73
     2
 40
1.905
 49
1.27
 74
     0
 49
-0.635
 74
     0
  0
LTYPE
  5
3C
330
5
100
AcDbSymbolTableRecord
100
AcDbLinetypeTableRecord
  2
PHANTOM
 70
     0
  3
Phantom ______  __  __  ______  __  __  ______
 72
    65
 73
     6
 40
12.7
 49
6.35
 74
     0
 49
-1.27
 74
     0
 49
1.27
 74
     0
 49
-1.27
 74
     0
 49
1.27
 74
     0
 49
-1.27
 74
     0
  0
LTYPE
  5
3D
330
5
100
AcDbSymbolTableRecord
100
AcDbLinetypeTableRecord
  2
CENTER
 70
     0
  3
Center ____ _ ____ _ ____ _ ____ _ ____ _ ____
 72
    65
 73
     4
 40
10.16
 49
6.35
 74
     0
 49
-1.27
 74
     0
 49
1.27
 74
     0
 49
-1.27
 74
     0
  0
LTYPE
  5
3E
330
5
100
AcDbSymbolTableRecord
100
AcDbLinetypeTableRecord
  2
CENTERX2
 70
     0
  3
Center (2x) ________  __  ________  __  _____
 72
    65
 73
     4
 40
20.32
 49
12.7
 74
     0
 49
-2.54
 74
     0
 49
2.54
 74
     0
 49
-2.54
 74
     0
  0
LTYPE
  5
3F
330
5
100
AcDbSymbolTableRecord
100
AcDbLinetypeTableRecord
  2
DOT2
 70
     0
  3
Dot (.5x) ........................................
 72
    65
 73
     2
 40
0.635
 49
0.0
 74
     0
 49
-0.635
 74
     0
  0
ENDTAB
  0
TABLE
  2
LAYER
  5
2
330
0
100
AcDbSymbolTable
 70
     5
  0
LAYER
  5
10
330
2
100
AcDbSymbolTableRecord
100
AcDbLayerTableRecord
  2
0
 70
     0
 62
     7
  6
Continuous
370
    -3
390
F
  0
LAYER
  5
40
330
2
100
AcDbSymbolTableRecord
100
AcDbLayerTableRecord
  2
FORMAT
 70
     0
 62
     7
  6
Continuous
370
    -3
390
F
  0
LAYER
  5
41
330
2
100
AcDbSymbolTableRecord
100
AcDbLayerTableRecord
  2
VERMASSUNG
 70
     0
 62
     7
  6
Continuous
370
    -3
390
F
  0
LAYER
  5
42
330
2
100
AcDbSymbolTableRecord
100
AcDbLayerTableRecord
  2
KOPF_DÜNN
 70
     0
 62
     7
  6
Continuous
370
    -3
390
F
  0
LAYER
  5
43
330
2
100
AcDbSymbolTableRecord
100
AcDbLayerTableRecord
  2
KOPF_DICK
 70
     0
 62
     7
  6
Continuous
370
    15
390
F
  0
ENDTAB
  0
TABLE
  2
STYLE
  5
3
330
0
100
AcDbSymbolTable
 70
     3
  0
STYLE
  5
11
330
3
100
AcDbSymbolTableRecord
100
AcDbTextStyleTableRecord
  2
Standard
 70
     0
 40
0.0
 41
1.0
 50
0.0
 71
     0
 42
2.5
  3
txt
  4

  0
STYLE
  5
44
330
3
100
AcDbSymbolTableRecord
100
AcDbTextStyleTableRecord
  2
SLDTEXTSTYLE0
 70
     0
 40
0.0
 41
0.7
 50
0.0
 71
     0
 42
0.2
  3
TXT
  4

  0
STYLE
  5
48
330
3
100
AcDbSymbolTableRecord
100
AcDbTextStyleTableRecord
  2
SLDTEXTSTYLE1
 70
     0
 40
0.0
 41
0.6473684211
 50
0.0
 71
     0
 42
0.2
  3
TXT
  4

  0
ENDTAB
  0
TABLE
  2
VIEW
  5
6
330
0
100
AcDbSymbolTable
 70
     0
  0
ENDTAB
  0
TABLE
  2
UCS
  5
7
330
0
100
AcDbSymbolTable
 70
     0
  0
ENDTAB
  0
TABLE
  2
APPID
  5
9
330
0
100
AcDbSymbolTable
 70
     1
  0
APPID
  5
12
330
9
100
AcDbSymbolTableRecord
100
AcDbRegAppTableRecord
  2
ACAD
 70
     0
  0
ENDTAB
  0
TABLE
  2
DIMSTYLE
  5
A
330
0
100
AcDbSymbolTable
 70
     4
100
AcDbDimStyleTable
  0
DIMSTYLE
105
27
330
A
100
AcDbSymbolTableRecord
100
AcDbDimStyleTableRecord
  2
ISO-25
 70
     0
 41
2.5
 42
0.625
 43
3.75
 44
1.25
 73
     0
 74
     0
 77
     1
 78
     8
140
2.5
141
2.5
143
0.0393700787
147
0.625
171
     3
172
     1
271
     2
272
     2
274
     3
278
    44
283
     0
284
     8
340
11
  0
DIMSTYLE
105
1D2
102
{ACAD_REACTORS
330
1D1
102
}
330
A
100
AcDbSymbolTableRecord
100
AcDbDimStyleTableRecord
  2
SLDDIMSTYLE0
 70
     0
 41
3.0
 44
0.0
 45
0.000000001
 73
     0
 74
     0
 77
     1
 78
    12
140
2.0
147
0.5
173
     1
271
     2
272
     2
284
    12
340
44
  0
DIMSTYLE
105
1DE
102
{ACAD_REACTORS
330
1DD
102
}
330
A
100
AcDbSymbolTableRecord
100
AcDbDimStyleTableRecord
  2
SLDDIMSTYLE1
 70
     0
 41
3.0
 44
0.0
 45
0.000000001
 73
     0
 74
     0
 77
     1
 78
    12
140
2.0
147
0.5
173
     1
271
     2
272
     3
284
    12
340
44
  0
DIMSTYLE
105
1EB
102
{ACAD_REACTORS
330
1EA
330
1F5
330
1FF
330
20B
102
}
330
A
100
AcDbSymbolTableRecord
100
AcDbDimStyleTableRecord
  2
SLDDIMSTYLE2
 70
     0
 41
3.0
 44
0.0
 45
0.000000001
 73
     0
 74
     0
 77
     1
 78
    12
140
2.0
147
0.5
173
     1
271
     2
272
     3
284
    12
340
44
  0
ENDTAB
  0
TABLE
  2
BLOCK_RECORD
  5
1
330
0
100
AcDbSymbolTable
 70
     7
  0
BLOCK_RECORD
  5
1F
330
1
100
AcDbSymbolTableRecord
100
AcDbBlockTableRecord
  2
*Model_Space
340
22
  0
BLOCK_RECORD
  5
1B
330
1
100
AcDbSymbolTableRecord
100
AcDbBlockTableRecord
  2
*Paper_Space
340
1E
  0
BLOCK_RECORD
  5
23
330
1
100
AcDbSymbolTableRecord
100
AcDbBlockTableRecord
  2
*Paper_Space0
340
26
  0
BLOCK_RECORD
  5
1D3
330
1
100
AcDbSymbolTableRecord
100
AcDbBlockTableRecord
  2
*D1
340
0
  0
BLOCK_RECORD
  5
1DF
330
1
100
AcDbSymbolTableRecord
100
AcDbBlockTableRecord
  2
*D2
340
0
  0
BLOCK_RECORD
  5
1EC
330
1
100
AcDbSymbolTableRecord
100
AcDbBlockTableRecord
  2
*D3
340
0
  0
BLOCK_RECORD
  5
1F6
330
1
100
AcDbSymbolTableRecord
100
AcDbBlockTableRecord
  2
*D4
340
0
  0
BLOCK_RECORD
  5
200
330
1
100
AcDbSymbolTableRecord
100
AcDbBlockTableRecord
  2
*D5
340
0
  0
BLOCK_RECORD
  5
20C
330
1
100
AcDbSymbolTableRecord
100
AcDbBlockTableRecord
  2
*D6
340
0
  0
ENDTAB
  0
ENDSEC
  0
SECTION
  2
BLOCKS
  0
BLOCK
  5
20
330
1F
100
AcDbEntity
  8
0
100
AcDbBlockBegin
  2
*Model_Space
 70
     0
 10
0.0
 20
0.0
 30
0.0
  3
*Model_Space
  1

  0
ENDBLK
  5
21
330
1F
100
AcDbEntity
  8
0
100
AcDbBlockEnd
  0
BLOCK
  5
1C
330
1B
100
AcDbEntity
 67
     1
  8
0
100
AcDbBlockBegin
  2
*Paper_Space
 70
     0
 10
0.0
 20
0.0
 30
0.0
  3
*Paper_Space
  1

  0
ENDBLK
  5
1D
330
1B
100
AcDbEntity
 67
     1
  8
0
100
AcDbBlockEnd
  0
BLOCK
  5
24
330
23
100
AcDbEntity
  8
0
100
AcDbBlockBegin
  2
*Paper_Space0
 70
     0
 10
0.0
 20
0.0
 30
0.0
  3
*Paper_Space0
  1

  0
ENDBLK
  5
25
330
23
100
AcDbEntity
  8
0
100
AcDbBlockEnd
  0
BLOCK
  5
1D4
330
1D3
100
AcDbEntity
  8
0
100
AcDbBlockBegin
  2
*D1
 70
     1
 10
0.0
 20
0.0
 30
0.0
  3
*D1
  1

  0
SOLID
  5
1D6
330
1D3
100
AcDbEntity
  8
VERMASSUNG
100
AcDbTrace
 10
218.2155398058
 20
103.1546064979
 30
0.0
 11
218.6655398058
 21
106.1546064979
 31
0.0
 12
217.7655398058
 22
106.1546064979
 32
0.0
 13
217.7655398058
 23
106.1546064979
 33
0.0
  0
SOLID
  5
1D7
330
1D3
100
AcDbEntity
  8
VERMASSUNG
100
AcDbTrace
 10
218.2155398058
 20
113.1546064979
 30
0.0
 11
217.7655398058
 21
110.1546064979
 31
0.0
 12
218.6655398058
 22
110.1546064979
 32
0.0
 13
218.6655398058
 23
110.1546064979
 33
0.0
  0
LINE
  5
1D8
330
1D3
100
AcDbEntity
  8
VERMASSUNG
100
AcDbLine
 10
207.8056500855
 20
103.1546064979
 30
0.0
 11
219.2155398058
 21
103.1546064979
 31
0.0
  0
LINE
  5
1D9
330
1D3
100
AcDbEntity
  8
VERMASSUNG
100
AcDbLine
 10
207.8056500855
 20
113.1546064979
 30
0.0
 11
219.2155398058
 21
113.1546064979
 31
0.0
  0
LINE
  5
1DA
330
1D3
100
AcDbEntity
  8
VERMASSUNG
100
AcDbLine
 10
218.2155398058
 20
103.1546064979
 30
0.0
 11
218.2155398058
 21
113.1546064979
 31
0.0
  0
MTEXT
  5
1DB
330
1D3
100
AcDbEntity
  8
VERMASSUNG
100
AcDbMText
 10
215.6374043263
 20
105.1504689031
 30
0.0
 40
2.0
 41
0.0
 71
     1
 72
     1
  1
%%c
  7
SLDTEXTSTYLE0
 11
3.391901413832837E-15
 21
1.0
 31
0.0
 73
     1
 44
1.0
  0
MTEXT
  5
1DC
330
1D3
100
AcDbEntity
  8
VERMASSUNG
100
AcDbMText
 10
215.6374044427
 20
108.7591471262
 30
0.0
 40
2.0
 41
0.0
 71
     1
 72
     1
  1
10
  7
SLDTEXTSTYLE0
 11
3.391901413832837E-15
 21
1.0
 31
0.0
 73
     1
 44
1.0
  0
ENDBLK
  5
1D5
330
1D3
100
AcDbEntity
  8
0
100
AcDbBlockEnd
  0
BLOCK
  5
1E0
330
1DF
100
AcDbEntity
  8
0
100
AcDbBlockBegin
  2
*D2
 70
     1
 10
0.0
 20
0.0
 30
0.0
  3
*D2
  1

  0
SOLID
  5
1E2
330
1DF
100
AcDbEntity
  8
VERMASSUNG
100
AcDbTrace
 10
224.2155398058
 20
90.6546064979
 30
0.0
 11
224.6655398058
 21
93.6546064979
 31
0.0
 12
223.7655398058
 22
93.6546064979
 32
0.0
 13
223.7655398058
 23
93.6546064979
 33
0.0
  0
SOLID
  5
1E3
330
1DF
100
AcDbEntity
  8
VERMASSUNG
100
AcDbTrace
 10
224.2155398058
 20
125.6546064979
 30
0.0
 11
223.7655398058
 21
122.6546064979
 31
0.0
 12
224.6655398058
 22
122.6546064979
 32
0.0
 13
224.6655398058
 23
122.6546064979
 33
0.0
  0
LINE
  5
1E4
330
1DF
100
AcDbEntity
  8
VERMASSUNG
100
AcDbLine
 10
183.1056500855
 20
90.6546064979
 30
0.0
 11
225.2155398058
 21
90.6546064979
 31
0.0
  0
LINE
  5
1E5
330
1DF
100
AcDbEntity
  8
VERMASSUNG
100
AcDbLine
 10
183.1056500855
 20
125.6546064979
 30
0.0
 11
225.2155398058
 21
125.6546064979
 31
0.0
  0
LINE
  5
1E6
330
1DF
100
AcDbEntity
  8
VERMASSUNG
100
AcDbLine
 10
224.2155398058
 20
90.6546064979
 30
0.0
 11
224.2155398058
 21
125.6546064979
 31
0.0
  0
MTEXT
  5
1E7
330
1DF
100
AcDbEntity
  8
VERMASSUNG
100
AcDbMText
 10
221.6374043263
 20
104.3509900298
 30
0.0
 40
2.0
 41
0.0
 71
     1
 72
     1
  1
%%c
  7
SLDTEXTSTYLE0
 11
3.391901413832837E-15
 21
1.0
 31
0.0
 73
     1
 44
1.0
  0
MTEXT
  5
1E8
330
1DF
100
AcDbEntity
  8
VERMASSUNG
100
AcDbMText
 10
221.6374044427
 20
107.959668253
 30
0.0
 40
2.0
 41
0.0
 71
     1
 72
     1
  1
35
  7
SLDTEXTSTYLE0
 11
3.391901413832837E-15
 21
1.0
 31
0.0
 73
     1
 44
1.0
  0
MTEXT
  5
1E9
330
1DF
100
AcDbEntity
  8
VERMASSUNG
100
AcDbMText
 10
221.6374044427
 20
110.7584244827
 30
0.0
 40
2.0
 41
0.0
 71
     1
 72
     1
  1
 
  7
SLDTEXTSTYLE0
 11
3.391901413832837E-15
 21
1.0
 31
0.0
 73
     1
 44
1.0
  0
ENDBLK
  5
1E1
330
1DF
100
AcDbEntity
  8
0
100
AcDbBlockEnd
  0
BLOCK
  5
1ED
330
1EC
100
AcDbEntity
  8
0
100
AcDbBlockBegin
  2
*D3
 70
     1
 10
0.0
 20
0.0
 30
0.0
  3
*D3
  1

  0
SOLID
  5
1EF
330
1EC
100
AcDbEntity
  8
VERMASSUNG
100
AcDbTrace
 10
108.1056500855
 20
148.7112676056
 30
0.0
 11
111.1056500855
 21
148.2612676056
 31
0.0
 12
111.1056500855
 22
149.1612676056
 32
0.0
 13
111.1056500855
 23
149.1612676056
 33
0.0
  0
SOLID
  5
1F0
330
1EC
100
AcDbEntity
  8
VERMASSUNG
100
AcDbTrace
 10
208.1056500855
 20
148.7112676056
 30
0.0
 11
205.1056500855
 21
149.1612676056
 31
0.0
 12
205.1056500855
 22
148.2612676056
 32
0.0
 13
205.1056500855
 23
148.2612676056
 33
0.0
  0
LINE
  5
1F1
330
1EC
100
AcDbEntity
  8
VERMASSUNG
100
AcDbLine
 10
108.1056500855
 20
108.1546064979
 30
0.0
 11
108.1056500855
 21
149.7112676056
 31
0.0
  0
LINE
  5
1F2
330
1EC
100
AcDbEntity
  8
VERMASSUNG
100
AcDbLine
 10
208.1056500855
 20
108.1546064979
 30
0.0
 11
208.1056500855
 21
149.7112676056
 31
0.0
  0
LINE
  5
1F3
330
1EC
100
AcDbEntity
  8
VERMASSUNG
100
AcDbLine
 10
108.1056500855
 20
148.7112676056
 30
0.0
 11
208.1056500855
 21
148.7112676056
 31
0.0
  0
MTEXT
  5
1F4
330
1EC
100
AcDbEntity
  8
VERMASSUNG
100
AcDbMText
 10
156.2061625448
 20
151.2894029688
 30
0.0
 40
2.0
 41
0.0
 71
     1
 72
     1
  1
100
  7
SLDTEXTSTYLE0
 73
     1
 44
1.0
  0
ENDBLK
  5
1EE
330
1EC
100
AcDbEntity
  8
0
100
AcDbBlockEnd
  0
BLOCK
  5
1F7
330
1F6
100
AcDbEntity
  8
0
100
AcDbBlockBegin
  2
*D4
 70
     1
 10
0.0
 20
0.0
 30
0.0
  3
*D4
  1

  0
SOLID
  5
1F9
330
1F6
100
AcDbEntity
  8
VERMASSUNG
100
AcDbTrace
 10
76.2056500855
 20
154.7112676056
 30
0.0
 11
79.2056500855
 21
154.2612676056
 31
0.0
 12
79.2056500855
 22
155.1612676056
 32
0.0
 13
79.2056500855
 23
155.1612676056
 33
0.0
  0
SOLID
  5
1FA
330
1F6
100
AcDbEntity
  8
VERMASSUNG
100
AcDbTrace
 10
208.1056500855
 20
154.7112676056
 30
0.0
 11
205.1056500855
 21
155.1612676056
 31
0.0
 12
205.1056500855
 22
154.2612676056
 32
0.0
 13
205.1056500855
 23
154.2612676056
 33
0.0
  0
LINE
  5
1FB
330
1F6
100
AcDbEntity
  8
VERMASSUNG
100
AcDbLine
 10
76.2056500855
 20
127.8452842443
 30
0.0
 11
76.2056500855
 21
155.7112676056
 31
0.0
  0
LINE
  5
1FC
330
1F6
100
AcDbEntity
  8
VERMASSUNG
100
AcDbLine
 10
208.1056500855
 20
119.3804659762
 30
0.0
 11
208.1056500855
 21
155.7112676056
 31
0.0
  0
LINE
  5
1FD
330
1F6
100
AcDbEntity
  8
VERMASSUNG
100
AcDbLine
 10
76.2056500855
 20
154.7112676056
 30
0.0
 11
208.1056500855
 21
154.7112676056
 31
0.0
  0
MTEXT
  5
1FE
330
1F6
100
AcDbEntity
  8
VERMASSUNG
100
AcDbMText
 10
139.4566836716
 20
157.2894029688
 30
0.0
 40
2.0
 41
0.0
 71
     1
 72
     1
  1
131.9
  7
SLDTEXTSTYLE0
 73
     1
 44
1.0
  0
ENDBLK
  5
1F8
330
1F6
100
AcDbEntity
  8
0
100
AcDbBlockEnd
  0
BLOCK
  5
201
330
200
100
AcDbEntity
  8
0
100
AcDbBlockBegin
  2
*D5
 70
     1
 10
0.0
 20
0.0
 30
0.0
  3
*D5
  1

  0
SOLID
  5
203
330
200
100
AcDbEntity
  8
VERMASSUNG
100
AcDbTrace
 10
67.8650104182
 20
139.6546064979
 30
0.0
 11
67.4150104182
 21
136.6546064979
 31
0.0
 12
68.3150104182
 22
136.6546064979
 32
0.0
 13
68.3150104182
 23
136.6546064979
 33
0.0
  0
SOLID
  5
204
330
200
100
AcDbEntity
  8
VERMASSUNG
100
AcDbTrace
 10
67.8650104182
 20
76.6546064979
 30
0.0
 11
68.3150104182
 21
79.6546064979
 31
0.0
 12
67.4150104182
 22
79.6546064979
 32
0.0
 13
67.4150104182
 23
79.6546064979
 33
0.0
  0
LINE
  5
205
330
200
100
AcDbEntity
  8
VERMASSUNG
100
AcDbLine
 10
108.4056500855
 20
139.6546064979
 30
0.0
 11
66.8650104182
 21
139.6546064979
 31
0.0
  0
LINE
  5
206
330
200
100
AcDbEntity
  8
VERMASSUNG
100
AcDbLine
 10
108.4056500855
 20
76.6546064979
 30
0.0
 11
66.8650104182
 21
76.6546064979
 31
0.0
  0
LINE
  5
207
330
200
100
AcDbEntity
  8
VERMASSUNG
100
AcDbLine
 10
67.8650104182
 20
139.6546064979
 30
0.0
 11
67.8650104182
 21
76.6546064979
 31
0.0
  0
MTEXT
  5
208
330
200
100
AcDbEntity
  8
VERMASSUNG
100
AcDbMText
 10
65.0868749292
 20
100.451064786
 30
0.0
 40
2.0
 41
0.0
 71
     1
 72
     1
  1
HSK A 
  7
SLDTEXTSTYLE0
 11
-7.044195017643634E-15
 21
1.0
 31
0.0
 73
     1
 44
1.0
  0
MTEXT
  5
209
330
200
100
AcDbEntity
  8
VERMASSUNG
100
AcDbMText
 10
65.2868749387
 20
109.4510653299
 30
0.0
 40
2.0
 41
0.0
 71
     1
 72
     1
  1
%%c
  7
SLDTEXTSTYLE0
 11
-7.044195017643634E-15
 21
1.0
 31
0.0
 73
     1
 44
1.0
  0
MTEXT
  5
20A
330
200
100
AcDbEntity
  8
VERMASSUNG
100
AcDbMText
 10
65.2868750551
 20
113.05939198
 30
0.0
 40
2.0
 41
0.0
 71
     1
 72
     1
  1
63
  7
SLDTEXTSTYLE0
 11
-7.044195017643634E-15
 21
1.0
 31
0.0
 73
     1
 44
1.0
  0
ENDBLK
  5
202
330
200
100
AcDbEntity
  8
0
100
AcDbBlockEnd
  0
BLOCK
  5
20D
330
20C
100
AcDbEntity
  8
0
100
AcDbBlockBegin
  2
*D6
 70
     1
 10
0.0
 20
0.0
 30
0.0
  3
*D6
  1

  0
SOLID
  5
20F
330
20C
100
AcDbEntity
  8
VERMASSUNG
100
AcDbTrace
 10
134.0556500855
 20
142.7112676056
 30
0.0
 11
137.0556500855
 21
142.2612676056
 31
0.0
 12
137.0556500855
 22
143.1612676056
 32
0.0
 13
137.0556500855
 23
143.1612676056
 33
0.0
  0
SOLID
  5
210
330
20C
100
AcDbEntity
  8
VERMASSUNG
100
AcDbTrace
 10
208.1056500855
 20
142.7112676056
 30
0.0
 11
205.1056500855
 21
143.1612676056
 31
0.0
 12
205.1056500855
 22
142.2612676056
 32
0.0
 13
205.1056500855
 23
142.2612676056
 33
0.0
  0
LINE
  5
211
330
20C
100
AcDbEntity
  8
VERMASSUNG
100
AcDbLine
 10
134.0556500855
 20
138.0010468216
 30
0.0
 11
134.0556500855
 21
143.7112676056
 31
0.0
  0
LINE
  5
212
330
20C
100
AcDbEntity
  8
VERMASSUNG
100
AcDbLine
 10
208.1056500855
 20
119.3804659762
 30
0.0
 11
208.1056500855
 21
143.7112676056
 31
0.0
  0
LINE
  5
213
330
20C
100
AcDbEntity
  8
VERMASSUNG
100
AcDbLine
 10
134.0556500855
 20
142.7112676056
 30
0.0
 11
208.1056500855
 21
142.7112676056
 31
0.0
  0
MTEXT
  5
214
330
20C
100
AcDbEntity
  8
VERMASSUNG
100
AcDbMText
 10
167.8815742458
 20
145.2894029688
 30
0.0
 40
2.0
 41
0.0
 71
     1
 72
     1
  1
74.05
  7
SLDTEXTSTYLE0
 73
     1
 44
1.0
  0
ENDBLK
  5
20E
330
20C
100
AcDbEntity
  8
0
100
AcDbBlockEnd
  0
ENDSEC
  0
SECTION
  2
ENTITIES
  0
MTEXT
  5
45
330
1F
100
AcDbEntity
  8
KOPF_DÜNN
100
AcDbMText
 10
13.8892156294
 20
23.8442973028
 30
0.0
 40
3.0
 41
0.0
 71
     1
 72
     1
  1
HA6.W10.K21.100
  7
SLDTEXTSTYLE0
 73
     1
 44
1.0
  0
MTEXT
  5
46
330
1F
100
AcDbEntity
  8
VERMASSUNG
100
AcDbMText
 10
13.9329988022
 20
28.8834360957
 30
0.0
 40
3.0
 41
0.0
 71
     1
 72
     1
  1
Flächenspannfutter_End mill adapter Weldon ø10
  7
SLDTEXTSTYLE0
 73
     1
 44
1.0
  0
MTEXT
  5
47
330
1F
100
AcDbEntity
  8
VERMASSUNG
100
AcDbMText
 10
98.8601118557
 20
13.8365368179
 30
0.0
 40
2.0
 41
0.0
 71
     1
 72
     1
  1
Datum: 01.12.2010
  7
SLDTEXTSTYLE0
 73
     1
 44
1.0
  0
MTEXT
  5
49
330
1F
100
AcDbEntity
  8
VERMASSUNG
100
AcDbMText
 10
13.933048693
 20
18.0482802738
 30
0.0
 40
2.0
 41
0.0
 71
     1
 72
     1
  1
DIN 69 893 HSK A 63
  7
SLDTEXTSTYLE1
 73
     1
 44
1.0
  0
MTEXT
  5
4A
330
1F
100
AcDbEntity
  8
VERMASSUNG
100
AcDbMText
 10
13.9808475933
 20
13.9090973692
 30
0.0
 40
2.0
 41
0.0
 71
     1
 72
     1
  1
Gewicht: 1154g
  7
SLDTEXTSTYLE0
 73
     1
 44
1.0
  0
ARC
  5
4B
330
1F
100
AcDbEntity
  8
0
  6
Continuous
 62
     7
370
    15
100
AcDbCircle
 10
108.4056500855
 20
76.9546064979
 30
0.0
 40
0.2999999999999972
100
AcDbArc
 50
180.0
 51
270.0
  0
ARC
  5
4C
330
1F
100
AcDbEntity
  8
0
  6
Continuous
 62
     7
370
    15
100
AcDbCircle
 10
108.4056500855
 20
139.3546064979
 30
0.0
 40
0.2999999999999829
100
AcDbArc
 50
90.0
 51
180.0
  0
LINE
  5
4D
330
1F
100
AcDbEntity
  8
0
  6
Continuous
 62
     7
370
    15
100
AcDbLine
 10
108.4056500997
 20
76.6546059912
 30
0.0
 11
113.0556500586
 21
76.6546059912
 31
0.0
  0
LINE
  5
4E
330
1F
100
AcDbEntity
  8
0
  6
Continuous
 62
     7
370
    15
100
AcDbLine
 10
113.0836386303
 20
139.6546070045
 30
0.0
 11
108.4056500997
 21
139.6546070045
 31
0.0
  0
ARC
  5
4F
330
1F
100
AcDbEntity
  8
0
  6
Continuous
 62
     7
370
    15
100
AcDbCircle
 10
107.6056433328
 20
83.5841688835
 30
0.0
 40
0.60000675266771
100
AcDbArc
 50
33.5571153394
 51
90.0
  0
ARC
  5
50
330
1F
100
AcDbEntity
  8
0
  6
Continuous
 62
     7
370
    15
100
AcDbCircle
 10
107.6056433328
 20
132.7250441122
 30
0.0
 40
0.6000067526677242
100
AcDbArc
 50
270.0
 51
326.4428846606
  0
LINE
  5
51
330
1F
100
AcDbEntity
  8
0
  6
Continuous
 62
     7
370
    15
100
AcDbLine
 10
106.1056499905
 20
83.9341752743
 30
0.0
 11
106.9623629166
 21
84.1637313878
 31
0.0
  0
LINE
  5
52
330
1F
100
AcDbEntity
  8
0
  6
Continuous
 62
     7
370
    15
100
AcDbLine
 10
106.9623629166
 20
132.1454816079
 30
0.0
 11
106.1056499905
 21
132.3750377214
 31
0.0
  0
LINE
  5
53
330
1F
100
AcDbEntity
  8
0
  6
Continuous
 62
     7
370
    15
100
AcDbLine
 10
94.8741416516
 20
131.8123363471
 30
0.0
 11
82.3056492093
 21
131.1826523906
 31
0.0
  0
LINE
  5
54
330
1F
100
AcDbEntity
  8
0
  6
Continuous
 62
     7
370
    15
100
AcDbLine
 10
106.1056499905
 20
132.3750377214
 30
0.0
 11
103.2886485639
 21
132.2339050984
 31
0.0
  0
LINE
  5
55
330
1F
100
AcDbEntity
  8
0
  6
Continuous
 62
     7
370
    15
100
AcDbLine
 10
103.2887044432
 20
84.0753060347
 30
0.0
 11
106.1056499905
 21
83.9341752743
 31
0.0
  0
LINE
  5
56
330
1F
100
AcDbEntity
  8
0
  6
Continuous
 62
     7
370
    15
100
AcDbLine
 10
86.3056498649
 20
84.9261604762
 30
0.0
 11
94.874543983
 21
84.4968561595
 31
0.0
  0
ARC
  5
57
330
1F
100
AcDbEntity
  8
0
  6
Continuous
 62
     7
370
    15
100
AcDbCircle
 10
107.1176542859
 20
83.5841756361
 30
0.0
 40
0.6000000000000085
100
AcDbArc
 50
90.0
 51
105.0
  0
ARC
  5
58
330
1F
100
AcDbEntity
  8
0
  6
Continuous
 62
     7
370
    15
100
AcDbCircle
 10
107.1176542859
 20
132.7250373596
 30
0.0
 40
0.5999999999999971
100
AcDbArc
 50
255.0
 51
270.0
  0
LINE
  5
59
330
1F
100
AcDbEntity
  8
0
  6
Continuous
 62
     7
370
    15
100
AcDbLine
 10
107.1176543203
 20
84.184175781
 30
0.0
 11
107.6056433096
 21
84.184175781
 31
0.0
  0
LINE
  5
5A
330
1F
100
AcDbEntity
  8
0
  6
Continuous
 62
     7
370
    15
100
AcDbLine
 10
107.6056433096
 20
132.1250372147
 30
0.0
 11
107.1176543203
 21
132.1250372147
 31
0.0
  0
ARC
  5
5B
330
1F
100
AcDbEntity
  8
0
  6
Continuous
 62
     7
370
    15
100
AcDbCircle
 10
137.0556500855
 20
84.6386476963
 30
0.0
 40
3.000000000000003
100
AcDbArc
 50
104.3250519401
 51
180.0
  0
ARC
  5
5C
330
1F
100
AcDbEntity
  8
0
  6
Continuous
 62
     7
370
    15
100
AcDbCircle
 10
137.0556500855
 20
131.6705652994
 30
0.0
 40
3.000000000000016
100
AcDbArc
 50
180.0
 51
255.6749480599
  0
ARC
  5
5D
330
1F
100
AcDbEntity
  8
0
  6
Continuous
 62
     7
370
    15
100
AcDbCircle
 10
161.0556500855
 20
-9.3453935021
 30
0.0
 40
100.0
100
AcDbArc
 50
90.0
 51
104.3250519401
  0
ARC
  5
5E
330
1F
100
AcDbEntity
  8
0
  6
Continuous
 62
     7
370
    15
100
AcDbCircle
 10
161.0556500855
 20
225.6546064979
 30
0.0
 40
100.0
100
AcDbArc
 50
255.6749480599
 51
270.0
  0
LINE
  5
5F
330
1F
100
AcDbEntity
  8
0
  6
Continuous
 62
     7
370
    15
100
AcDbLine
 10
173.5494117322
 20
90.6546064233
 30
0.0
 11
197.3831187072
 21
90.6546064233
 31
0.0
  0
LINE
  5
60
330
1F
100
AcDbEntity
  8
0
  6
Continuous
 62
     7
370
    15
100
AcDbLine
 10
161.0556486132
 20
90.6546064233
 30
0.0
 11
166.5972265484
 21
90.6546064233
 31
0.0
  0
LINE
  5
61
330
1F
100
AcDbEntity
  8
0
  6
Continuous
 62
     7
370
    15
100
AcDbLine
 10
166.5821912768
 20
125.6546065724
 30
0.0
 11
161.0556486132
 21
125.6546065724
 31
0.0
  0
LINE
  5
62
330
1F
100
AcDbEntity
  8
0
  6
Continuous
 62
     7
370
    15
100
AcDbLine
 10
197.3831187072
 20
125.6546065724
 30
0.0
 11
173.5207940521
 21
125.6546065724
 31
0.0
  0
LINE
  5
63
330
1F
100
AcDbEntity
  8
0
  6
Continuous
 62
     7
370
    15
100
AcDbLine
 10
197.3831187072
 20
90.6546064233
 30
0.0
 11
206.9508860889
 21
95.1161314314
 31
0.0
  0
LINE
  5
64
330
1F
100
AcDbEntity
  8
0
  6
Continuous
 62
     7
370
    15
100
AcDbLine
 10
206.9508860889
 20
121.1930815643
 30
0.0
 11
197.3831187072
 21
125.6546065724
 31
0.0
  0
ARC
  5
65
330
1F
100
AcDbEntity
  8
0
  6
Continuous
 62
     7
370
    15
100
AcDbCircle
 10
206.1056500855
 20
96.9287470195
 30
0.0
 40
2.000000000000001
100
AcDbArc
 50
295.0
 51
0.0
  0
ARC
  5
66
330
1F
100
AcDbEntity
  8
0
  6
Continuous
 62
     7
370
    15
100
AcDbCircle
 10
206.1056500855
 20
119.3804659762
 30
0.0
 40
2.000000000000001
100
AcDbArc
 50
0.0
 51
65.0
  0
LINE
  5
67
330
1F
100
AcDbEntity
  8
0
  6
Continuous
 62
     7
370
    15
100
AcDbLine
 10
77.4889866891
 20
87.2846063739
 30
0.0
 11
84.9056503805
 21
87.2846063739
 31
0.0
  0
ARC
  5
68
330
1F
100
AcDbEntity
  8
0
  6
Continuous
 62
     7
370
    15
100
AcDbCircle
 10
84.9056500855
 20
85.8846064979
 30
0.0
 40
1.399999999999991
100
AcDbArc
 50
42.2465410162
 51
90.0
  0
LINE
  5
69
330
1F
100
AcDbEntity
  8
0
  6
Continuous
 62
     7
370
    15
100
AcDbLine
 10
76.2066821637
 20
88.4335734462
 30
0.0
 11
77.3468128475
 21
87.2934427625
 31
0.0
  0
LINE
  5
6A
330
1F
100
AcDbEntity
  8
0
  6
Continuous
 62
     7
370
    15
100
AcDbLine
 10
77.3468128475
 20
129.0157702332
 30
0.0
 11
76.2155520799
 21
127.884507603
 31
0.0
  0
ARC
  5
6B
330
1F
100
AcDbEntity
  8
0
  6
Continuous
 62
     7
370
    15
100
AcDbCircle
 10
80.9056500855
 20
130.4246064979
 30
0.0
 40
1.400000000000034
100
AcDbArc
 50
270.0
 51
301.7485287426
  0
LINE
  5
6C
330
1F
100
AcDbEntity
  8
0
  6
Continuous
 62
     7
370
    15
100
AcDbLine
 10
80.9056497249
 20
129.0246066218
 30
0.0
 11
77.4799156072
 21
129.0246066218
 31
0.0
  0
LINE
  5
6D
330
1F
100
AcDbEntity
  8
0
  6
Continuous
 62
     7
370
    15
100
AcDbLine
 10
208.1056515756
 20
100.4537096759
 30
0.0
 11
208.1705535832
 21
100.5738903349
 31
0.0
  0
LINE
  5
6E
330
1F
100
AcDbEntity
  8
0
  6
Continuous
 62
     7
370
    15
100
AcDbLine
 10
208.1536780181
 20
115.7357915817
 30
0.0
 11
208.1056515756
 21
115.8247333532
 31
0.0
  0
CIRCLE
  5
6F
330
1F
100
AcDbEntity
  8
0
  6
Continuous
 62
     7
370
    15
100
AcDbCircle
 10
188.6056500855
 20
108.1546064979
 30
0.0
 40
4.200000000000014
  0
LINE
  5
70
330
1F
100
AcDbEntity
  8
0
  6
Continuous
 62
     7
370
    15
100
AcDbLine
 10
187.4807233992
 20
110.8131540986
 30
0.0
 11
185.7408191147
 21
108.5096662736
 31
0.0
  0
LINE
  5
71
330
1F
100
AcDbEntity
  8
0
  6
Continuous
 62
     7
370
    15
100
AcDbLine
 10
189.730575222
 20
105.4960588971
 30
0.0
 11
186.8657450261
 21
105.8511186438
 31
0.0
  0
LINE
  5
72
330
1F
100
AcDbEntity
  8
0
  6
Continuous
 62
     7
370
    15
100
AcDbLine
 10
186.8657450261
 20
105.8511186438
 30
0.0
 11
185.7408191147
 21
108.5096662736
 31
0.0
  0
LINE
  5
73
330
1F
100
AcDbEntity
  8
0
  6
Continuous
 62
     7
370
    15
100
AcDbLine
 10
190.3455535951
 20
110.4580943519
 30
0.0
 11
191.4704795065
 21
107.7995467221
 31
0.0
  0
LINE
  5
74
330
1F
100
AcDbEntity
  8
0
  6
Continuous
 62
     7
370
    15
100
AcDbLine
 10
189.730575222
 20
105.4960588971
 30
0.0
 11
191.4704795065
 21
107.7995467221
 31
0.0
  0
LINE
  5
75
330
1F
100
AcDbEntity
  8
0
  6
Continuous
 62
     7
370
    15
100
AcDbLine
 10
190.3455535951
 20
110.4580943519
 30
0.0
 11
187.4807233992
 21
110.8131540986
 31
0.0
  0
LINE
  5
76
330
1F
100
AcDbEntity
  8
0
  6
Continuous
 62
     7
370
    15
100
AcDbLine
 10
133.4556507948
 20
77.967688865
 30
0.0
 11
129.4975820067
 21
77.967688865
 31
0.0
  0
LINE
  5
77
330
1F
100
AcDbEntity
  8
0
  6
Continuous
 62
     7
370
    15
100
AcDbLine
 10
129.4975820067
 20
77.967688865
 30
0.0
 11
129.4975820067
 21
128.0046072369
 31
0.0
  0
LINE
  5
78
330
1F
100
AcDbEntity
  8
0
  6
Continuous
 62
     7
370
    15
100
AcDbLine
 10
129.4975820067
 20
128.0046072369
 30
0.0
 11
133.4556507948
 21
128.0046072369
 31
0.0
  0
LINE
  5
79
330
1F
100
AcDbEntity
  8
0
  6
Continuous
 62
     7
370
    15
100
AcDbLine
 10
134.0556497755
 20
78.5943292594
 30
0.0
 11
134.0556497755
 21
128.0046072369
 31
0.0
  0
SPLINE
  5
7A
330
1F
100
AcDbEntity
  8
0
  6
Continuous
 62
     7
370
    15
100
AcDbSpline
210
0.0
220
0.0
230
1.0
 70
     8
 71
     3
 72
    10
 73
     6
 74
     0
 42
0.00000001
 43
0.00000001
 40
0.0
 40
0.0
 40
0.0
 40
0.0
 40
0.5
 40
0.5
 40
1.0
 40
1.0
 40
1.0
 40
1.0
 10
134.0556500854643
 20
78.5943290972584
 30
0.0
 10
134.0556500854643
 20
78.43444182906474
 30
0.0
 10
133.9943404342285
 20
78.27331457355014
 30
0.0
 10
133.7752407966934
 20
78.0392155751953
 30
0.0
 10
133.6171925903799
 20
77.96768880160408
 30
0.0
 10
133.4556500854643
 20
77.96768880160408
 30
0.0
  0
SPLINE
  5
7B
330
1F
100
AcDbEntity
  8
0
  6
Continuous
 62
     7
370
    15
100
AcDbSpline
210
0.0
220
0.0
230
1.0
 70
    24
 71
     3
 72
    12
 73
     8
 74
     0
 42
0.00000001
 43
0.00000001
 40
0.0
 40
0.0
 40
0.0
 40
0.0
 40
0.2500000000000033
 40
0.2500000000000033
 40
0.5000000000000067
 40
0.5000000000000067
 40
1.0
 40
1.0
 40
1.0
 40
1.0
 10
133.4556500854643
 20
128.0046064978513
 30
0.0
 10
133.5458891531513
 20
128.0046064978513
 30
0.0
 10
133.6367872672578
 20
128.0046064978513
 30
0.0
 10
133.7913843037464
 20
128.0046064978513
 30
0.0
 10
133.8563627198545
 20
128.0046064978513
 30
0.0
 10
134.0081977477907
 20
128.0046064978513
 30
0.0
 10
134.0556500854643
 20
128.0046064978513
 30
0.0
 10
134.0556500854643
 20
128.0046064978513
 30
0.0
  0
LINE
  5
7C
330
1F
100
AcDbEntity
  8
0
  6
Continuous
 62
     7
370
    15
100
AcDbLine
 10
124.1956501337
 20
80.6567691779
 30
0.0
 11
124.1956501337
 21
128.0046072369
 31
0.0
  0
SPLINE
  5
7D
330
1F
100
AcDbEntity
  8
0
  6
Continuous
 62
     7
370
    15
100
AcDbSpline
210
0.0
220
0.0
230
1.0
 70
     8
 71
     3
 72
     8
 73
     4
 74
     0
 42
0.00000001
 43
0.00000001
 40
0.0
 40
0.0
 40
0.0
 40
0.0
 40
1.0
 40
1.0
 40
1.0
 40
1.0
 10
124.1956500854643
 20
80.65676933879638
 30
0.0
 10
123.7033109626831
 20
79.75949930458968
 30
0.0
 10
123.209196914641
 20
78.86321488953743
 30
0.0
 10
122.7137172539752
 20
77.96768880160408
 30
0.0
  0
LINE
  5
7E
330
1F
100
AcDbEntity
  8
0
  6
Continuous
 62
     7
370
    15
100
AcDbLine
 10
122.7137175458
 20
77.967688865
 30
0.0
 11
122.7137175458
 21
128.0046072369
 31
0.0
  0
SPLINE
  5
7F
330
1F
100
AcDbEntity
  8
0
  6
Continuous
 62
     7
370
    15
100
AcDbSpline
210
0.0
220
0.0
230
1.0
 70
    24
 71
     3
 72
     8
 73
     4
 74
     0
 42
0.00000001
 43
0.00000001
 40
0.0
 40
0.0
 40
0.0
 40
0.0
 40
1.0
 40
1.0
 40
1.0
 40
1.0
 10
122.7137172539752
 20
128.0046064978513
 30
0.0
 10
123.2203973621258
 20
128.0046064978513
 30
0.0
 10
123.7156980910994
 20
128.0046064978513
 30
0.0
 10
124.1956500854643
 20
128.0046064978513
 30
0.0
  0
LINE
  5
80
330
1F
100
AcDbEntity
  8
0
  6
Continuous
 62
     7
370
    15
100
AcDbLine
 10
108.1056500855
 20
76.9546073442
 30
0.0
 11
108.1056500855
 21
139.3546056515
 31
0.0
  0
SPLINE
  5
81
330
1F
100
AcDbEntity
  8
0
  6
Continuous
 62
     7
370
    15
100
AcDbSpline
210
0.0
220
0.0
230
1.0
 70
     8
 71
     3
 72
     8
 73
     4
 74
     0
 42
0.00000001
 43
0.00000001
 40
0.0
 40
0.0
 40
0.0
 40
0.0
 40
1.0
 40
1.0
 40
1.0
 40
1.0
 10
129.4975829169533
 20
77.96768880160408
 30
0.0
 10
129.0021032562876
 20
78.86321488953745
 30
0.0
 10
128.5079892082455
 20
79.7594993045897
 30
0.0
 10
128.0156500854643
 20
80.6567693387964
 30
0.0
  0
LINE
  5
82
330
1F
100
AcDbEntity
  8
0
  6
Continuous
 62
     7
370
    15
100
AcDbLine
 10
128.0156503501
 20
80.6567691779
 30
0.0
 11
128.0156503501
 21
128.0046072369
 31
0.0
  0
SPLINE
  5
83
330
1F
100
AcDbEntity
  8
0
  6
Continuous
 62
     7
370
    15
100
AcDbSpline
210
0.0
220
0.0
230
1.0
 70
    24
 71
     3
 72
     8
 73
     4
 74
     0
 42
0.00000001
 43
0.00000001
 40
0.0
 40
0.0
 40
0.0
 40
0.0
 40
1.0
 40
1.0
 40
1.0
 40
1.0
 10
128.0156500854643
 20
128.0046064978513
 30
0.0
 10
128.4956020798292
 20
128.0046064978513
 30
0.0
 10
128.9909028088028
 20
128.0046064978513
 30
0.0
 10
129.4975829169533
 20
128.0046064978513
 30
0.0
  0
LINE
  5
84
330
1F
100
AcDbEntity
  8
0
  6
Continuous
 62
     7
370
    15
100
AcDbLine
 10
113.0556500586
 20
128.0046072369
 30
0.0
 11
122.7137175458
 21
128.0046072369
 31
0.0
  0
LINE
  5
85
330
1F
100
AcDbEntity
  8
0
  6
Continuous
 62
     7
370
    15
100
AcDbLine
 10
122.7137175458
 20
77.967688865
 30
0.0
 11
121.0556504386
 21
77.967688865
 31
0.0
  0
SPLINE
  5
86
330
1F
100
AcDbEntity
  8
0
  6
Continuous
 62
     7
370
    15
100
AcDbSpline
210
0.0
220
0.0
230
1.0
 70
     8
 71
     3
 72
    28
 73
    24
 74
     0
 42
0.00000001
 43
0.00000001
 40
0.0
 40
0.0
 40
0.0
 40
0.0
 40
0.1250000000000001
 40
0.1250000000000001
 40
0.1875000000000001
 40
0.1875000000000001
 40
0.2500000000000001
 40
0.2500000000000001
 40
0.3749999999999999
 40
0.3749999999999999
 40
0.4375
 40
0.4375
 40
0.4999999999999999
 40
0.4999999999999999
 40
0.6249999999999999
 40
0.6249999999999999
 40
0.7499999999999997
 40
0.7499999999999997
 40
0.8124999999999998
 40
0.8124999999999998
 40
0.8749999999999998
 40
0.8749999999999998
 40
1.0
 40
1.0
 40
1.0
 40
1.0
 10
121.0556500854643
 20
77.96768880160408
 30
0.0
 10
120.5239423279714
 20
77.9676888016041
 30
0.0
 10
120.001703762661
 20
77.95190408765387
 30
0.0
 10
119.231833276386
 20
77.90690867357766
 30
0.0
 10
118.9774737041947
 20
77.88835367850194
 30
0.0
 10
118.4733521234962
 20
77.84450095605543
 30
0.0
 10
118.2236293060682
 20
77.81915634910324
 30
0.0
 10
117.4980393546218
 20
77.73575427135313
 30
0.0
 10
117.0396790930403
 20
77.66988871220204
 30
0.0
 10
116.3891811496464
 20
77.56091837171026
 30
0.0
 10
116.177499098854
 20
77.5226787359436
 30
0.0
 10
115.773427609716
 20
77.44491999852424
 30
0.0
 10
115.5809210958951
 20
77.4054190363489
 30
0.0
 10
115.0310861248738
 20
77.2865112939829
 30
0.0
 10
114.701157346565
 20
77.20669361255828
 30
0.0
 10
114.1166860779963
 20
77.05335045076222
 30
0.0
 10
113.8704089399829
 20
76.98201669749297
 30
0.0
 10
113.5705661472848
 20
76.88807319041835
 30
0.0
 10
113.4821092902126
 20
76.85887939705842
 30
0.0
 10
113.3287479369075
 20
76.80541282279502
 30
0.0
 10
113.2636597226813
 20
76.78105348851983
 30
0.0
 10
113.1080657067405
 20
76.71746334307508
 30
0.0
 10
113.0556500854643
 20
76.68736040798584
 30
0.0
 10
113.0556500854643
 20
76.67048351498893
 30
0.0
  0
LINE
  5
87
330
1F
100
AcDbEntity
  8
0
  6
Continuous
 62
     7
370
    15
100
AcDbLine
 10
113.0556500586
 20
76.6704831785
 30
0.0
 11
113.0556500586
 21
76.6546059912
 31
0.0
  0
SPLINE
  5
88
330
1F
100
AcDbEntity
  8
0
  6
Continuous
 62
     7
370
    15
100
AcDbSpline
210
0.0
220
0.0
230
1.0
 70
     8
 71
     3
 72
    17
 73
    13
 74
     0
 42
0.00000001
 43
0.00000001
 40
0.0
 40
0.0
 40
0.0
 40
0.0
 40
0.1034797280380778
 40
0.2100239090909901
 40
0.3134862262879433
 40
0.4198361712144981
 40
0.5254127947779869
 40
0.6339610881168427
 40
0.7409508662120068
 40
0.8511696072047016
 40
0.9558996557845765
 40
1.0
 40
1.0
 40
1.0
 40
1.0
 10
121.0556504386218
 20
138.6218019342097
 30
0.0
 10
120.6204019468959
 20
138.6272499258473
 30
0.0
 10
119.7370154963189
 20
138.638307246176
 30
0.0
 10
118.4561876340962
 20
138.724666006551
 30
0.0
 10
117.2387714386542
 20
138.8525371496841
 30
0.0
 10
116.1309648223284
 20
139.0114815570025
 30
0.0
 10
115.1427263429996
 20
139.1859761299871
 30
0.0
 10
114.3180032431838
 20
139.355142563174
 30
0.0
 10
113.6690495856851
 20
139.5030233716417
 30
0.0
 10
113.2520142822055
 20
139.6048141231643
 30
0.0
 10
113.0534175393275
 20
139.6551710227987
 30
0.0
 10
113.0767306563154
 20
139.6492614178232
 30
0.0
 10
113.0836386303158
 20
139.6475103264721
 30
0.0
  0
LINE
  5
89
330
1F
100
AcDbEntity
  8
0
  6
Continuous
 62
     7
370
    15
100
AcDbLine
 10
122.7137175458
 20
138.6218019342
 30
0.0
 11
121.0556504386
 21
138.6218019342
 31
0.0
  0
LINE
  5
8A
330
1F
100
AcDbEntity
  8
0
  6
Continuous
 62
     7
370
    15
100
AcDbLine
 10
122.7137175458
 20
132.613296113
 30
0.0
 11
122.7137175458
 21
138.6218019342
 31
0.0
  0
LINE
  5
8B
330
1F
100
AcDbEntity
  8
0
  6
Continuous
 62
     7
370
    15
100
AcDbLine
 10
120.3012707713
 20
132.613296113
 30
0.0
 11
122.7137175458
 21
132.613296113
 31
0.0
  0
SPLINE
  5
8C
330
1F
100
AcDbEntity
  8
0
  6
Continuous
 62
     7
370
    15
100
AcDbSpline
210
0.0
220
0.0
230
1.0
 70
     8
 71
     3
 72
    20
 73
    16
 74
     0
 42
0.00000001
 43
0.00000001
 40
0.0
 40
0.0
 40
0.0
 40
0.0
 40
0.2499999999999997
 40
0.2499999999999997
 40
0.3749999999999997
 40
0.3749999999999997
 40
0.4999999999999998
 40
0.4999999999999998
 40
0.6249999999999998
 40
0.6249999999999998
 40
0.7499999999999999
 40
0.7499999999999999
 40
0.8749999999999999
 40
0.8749999999999999
 40
1.0
 40
1.0
 40
1.0
 40
1.0
 10
113.0556500854643
 20
128.0046064978513
 30
0.0
 10
113.3040238197524
 20
128.6584689261487
 30
0.0
 10
113.6235939120976
 20
129.2622547081458
 30
0.0
 10
114.2459001453023
 20
130.0890934443144
 30
0.0
 10
114.4773244057331
 20
130.3515220822673
 30
0.0
 10
114.9985387453828
 20
130.8481847363723
 30
0.0
 10
115.2851592280178
 20
131.0787716153938
 30
0.0
 10
115.9046439693254
 20
131.4953258399765
 30
0.0
 10
116.2389443488124
 20
131.682823641944
 30
0.0
 10
116.9642048214372
 20
132.0142206195804
 30
0.0
 10
117.3461198788277
 20
132.1537246070756
 30
0.0
 10
118.1409080549994
 20
132.3791781145466
 30
0.0
 10
118.5550662492058
 20
132.4658042260902
 30
0.0
 10
119.4206125897871
 20
132.5837850149444
 30
0.0
 10
119.8585002047989
 20
132.6132961602187
 30
0.0
 10
120.3012704311536
 20
132.6132961602187
 30
0.0
  0
SPLINE
  5
8D
330
1F
100
AcDbEntity
  8
0
  6
Continuous
 62
     7
370
    15
100
AcDbSpline
210
0.0
220
0.0
230
1.0
 70
     8
 71
     3
 72
    70
 73
    66
 74
     0
 42
0.00000001
 43
0.00000001
 40
-0.0312500000000001
 40
-0.0312500000000001
 40
0.0
 40
0.0
 40
0.0312499999999999
 40
0.0312499999999999
 40
0.0624999999999998
 40
0.0624999999999998
 40
0.0937499999999997
 40
0.0937499999999997
 40
0.1249999999999996
 40
0.1249999999999996
 40
0.1562499999999994
 40
0.1562499999999994
 40
0.1874999999999993
 40
0.1874999999999993
 40
0.2187499999999992
 40
0.2187499999999992
 40
0.2499999999999991
 40
0.2499999999999991
 40
0.281249999999999
 40
0.281249999999999
 40
0.3124999999999989
 40
0.3124999999999989
 40
0.3437499999999988
 40
0.3437499999999988
 40
0.3749999999999987
 40
0.3749999999999987
 40
0.4062499999999986
 40
0.4062499999999986
 40
0.4374999999999984
 40
0.4374999999999984
 40
0.4687499999999983
 40
0.4687499999999983
 40
0.4999999999999982
 40
0.4999999999999982
 40
0.5312499999999983
 40
0.5312499999999983
 40
0.5624999999999984
 40
0.5624999999999984
 40
0.5937499999999986
 40
0.5937499999999986
 40
0.6249999999999987
 40
0.6249999999999987
 40
0.6562499999999988
 40
0.6562499999999988
 40
0.6874999999999989
 40
0.6874999999999989
 40
0.718749999999999
 40
0.718749999999999
 40
0.7499999999999991
 40
0.7499999999999991
 40
0.7812499999999992
 40
0.7812499999999992
 40
0.8124999999999993
 40
0.8124999999999993
 40
0.8437499999999994
 40
0.8437499999999994
 40
0.8749999999999996
 40
0.8749999999999996
 40
0.9062499999999997
 40
0.9062499999999997
 40
0.9374999999999998
 40
0.9374999999999998
 40
0.9687499999999999
 40
0.9687499999999999
 40
1.0
 40
1.0
 40
1.03125
 40
1.03125
 10
116.3701954241244
 20
118.7755133838346
 30
0.0
 10
115.8411047468041
 20
118.7755133838346
 30
0.0
 10
115.581034079427
 20
118.8001906786198
 30
0.0
 10
115.0694593995916
 20
118.8966623516617
 30
0.0
 10
114.8152841158514
 20
118.9696432676417
 30
0.0
 10
114.3310134857897
 20
119.1593838705804
 30
0.0
 10
114.1013723939086
 20
119.2752445289741
 30
0.0
 10
113.6667680456751
 20
119.5478623749318
 30
0.0
 10
113.4612022690285
 20
119.7059014569856
 30
0.0
 10
113.0926451284332
 20
120.0494443079563
 30
0.0
 10
112.9271641456978
 20
120.2362067520579
 30
0.0
 10
112.6347396362627
 20
120.6397499264547
 30
0.0
 10
112.5106386596362
 20
120.8532469228839
 30
0.0
 10
112.3110594628864
 20
121.2926302368064
 30
0.0
 10
112.2341258770282
 20
121.521770223952
 30
0.0
 10
112.1312688185078
 20
121.987744346712
 30
0.0
 10
112.1057959090487
 20
122.2206267923882
 30
0.0
 10
112.1055054984809
 20
122.686024327468
 30
0.0
 10
112.1315301322566
 20
122.9209000848623
 30
0.0
 10
112.2336784167486
 20
123.3723932321086
 30
0.0
 10
112.3092548643318
 20
123.59043970752
 30
0.0
 10
112.5097523954767
 20
124.0115342325578
 30
0.0
 10
112.6348812369851
 20
124.2134556170761
 30
0.0
 10
112.9242400380067
 20
124.585485099595
 30
0.0
 10
113.0896510250622
 20
124.7581134031754
 30
0.0
 10
113.46264158321
 20
125.0754314077214
 30
0.0
 10
113.6643746162991
 20
125.215218341223
 30
0.0
 10
114.097233867127
 20
125.4593945947748
 30
0.0
 10
114.3311524000164
 20
125.5646241058163
 30
0.0
 10
114.8153361351589
 20
125.7327812521914
 30
0.0
 10
115.0646517611144
 20
125.7960321427853
 30
0.0
 10
115.5776842855422
 20
125.8816113518879
 30
0.0
 10
115.8429781084468
 20
125.9034835168103
 30
0.0
 10
116.3653127283166
 20
125.9036471664542
 30
0.0
 10
116.6250663907983
 20
125.8826454743582
 30
0.0
 10
117.1416782064436
 20
125.7972431192806
 30
0.0
 10
117.3940442469438
 20
125.7332369359936
 30
0.0
 10
117.8755693684766
 20
125.5664224159524
 30
0.0
 10
118.1084201005902
 20
125.4622892525533
 30
0.0
 10
118.545509949029
 20
125.2163026000583
 30
0.0
 10
118.7468309376862
 20
125.0765527691095
 30
0.0
 10
119.115916962986
 20
124.7634146993849
 30
0.0
 10
119.2849017140377
 20
124.5879585401148
 30
0.0
 10
119.575357770697
 20
124.2151182760146
 30
0.0
 10
119.6984295820591
 20
124.0169964659036
 30
0.0
 10
119.8997658234811
 20
123.59628512317
 30
0.0
 10
119.9769783694233
 20
123.3742951025024
 30
0.0
 10
120.0791819123234
 20
122.9244301627941
 30
0.0
 10
120.1054102637757
 20
122.6941747496773
 30
0.0
 10
120.1058866630928
 20
122.2228588071282
 30
0.0
 10
120.0801442505949
 20
121.9896213914141
 30
0.0
 10
119.978833474231
 20
121.527944851916
 30
0.0
 10
119.9020008348401
 20
121.2970474648039
 30
0.0
 10
119.7015969956249
 20
120.8547714510122
 30
0.0
 10
119.5789254973328
 20
120.6437090197263
 30
0.0
 10
119.2889782081686
 20
120.2422105089937
 30
0.0
 10
119.1204072288034
 20
120.0513039869177
 30
0.0
 10
118.7521376346902
 20
119.7075786549207
 30
0.0
 10
118.5510757774199
 20
119.5524414687066
 30
0.0
 10
118.114044858835
 20
119.2773641086268
 30
0.0
 10
117.8818966457054
 20
119.1602478792048
 30
0.0
 10
117.4008863642065
 20
118.9713213941403
 30
0.0
 10
117.1487862813761
 20
118.898246423746
 30
0.0
 10
116.6317167951171
 20
118.8001943646115
 30
0.0
 10
116.3701954241244
 20
118.7755133838346
 30
0.0
 10
115.8411047468041
 20
118.7755133838346
 30
0.0
  0
SPLINE
  5
8E
330
1F
100
AcDbEntity
  8
0
  6
Continuous
 62
     7
370
    15
100
AcDbSpline
210
0.0
220
0.0
230
1.0
 70
     8
 71
     3
 72
    70
 73
    66
 74
     0
 42
0.00000001
 43
0.00000001
 40
-0.0312499999999999
 40
-0.0312499999999999
 40
0.0
 40
0.0
 40
0.0312499999999999
 40
0.0312499999999999
 40
0.0624999999999998
 40
0.0624999999999998
 40
0.0937499999999997
 40
0.0937499999999997
 40
0.1249999999999996
 40
0.1249999999999996
 40
0.1562499999999995
 40
0.1562499999999995
 40
0.1874999999999994
 40
0.1874999999999994
 40
0.2187499999999993
 40
0.2187499999999993
 40
0.2499999999999992
 40
0.2499999999999992
 40
0.2812499999999993
 40
0.2812499999999993
 40
0.3124999999999993
 40
0.3124999999999993
 40
0.3437499999999994
 40
0.3437499999999994
 40
0.3749999999999995
 40
0.3749999999999995
 40
0.4062499999999996
 40
0.4062499999999996
 40
0.4374999999999996
 40
0.4374999999999996
 40
0.4687499999999997
 40
0.4687499999999997
 40
0.4999999999999998
 40
0.4999999999999998
 40
0.5312499999999999
 40
0.5312499999999999
 40
0.5625
 40
0.5625
 40
0.5937500000000001
 40
0.5937500000000001
 40
0.6250000000000002
 40
0.6250000000000002
 40
0.6562500000000004
 40
0.6562500000000004
 40
0.6875000000000006
 40
0.6875000000000006
 40
0.7187500000000007
 40
0.7187500000000007
 40
0.7500000000000008
 40
0.7500000000000008
 40
0.7812500000000007
 40
0.7812500000000007
 40
0.8125000000000006
 40
0.8125000000000006
 40
0.8437500000000004
 40
0.8437500000000004
 40
0.8750000000000003
 40
0.8750000000000003
 40
0.9062500000000003
 40
0.9062500000000003
 40
0.9375000000000002
 40
0.9375000000000002
 40
0.9687500000000001
 40
0.9687500000000001
 40
1.0
 40
1.0
 40
1.03125
 40
1.03125
 10
116.3701954241244
 20
133.2135698926304
 30
0.0
 10
115.8411047468042
 20
133.2135698926304
 30
0.0
 10
115.581034079427
 20
133.2294703330452
 30
0.0
 10
115.0694593995916
 20
133.2914146832195
 30
0.0
 10
114.8152841158514
 20
133.3382169173108
 30
0.0
 10
114.3310134857897
 20
133.4591939007658
 30
0.0
 10
114.1013723939086
 20
133.5327962285727
 30
0.0
 10
113.6667680456751
 20
133.7046204995508
 30
0.0
 10
113.4612022690285
 20
133.8036239224782
 30
0.0
 10
113.0926451284332
 20
134.016720336391
 30
0.0
 10
112.9271641456978
 20
134.1316200525207
 30
0.0
 10
112.6347396362627
 20
134.376986951211
 30
0.0
 10
112.5106386596362
 20
134.5054268516813
 30
0.0
 10
112.3110594628864
 20
134.7663189997673
 30
0.0
 10
112.2341258770282
 20
134.9007001711067
 30
0.0
 10
112.1312688185078
 20
135.170020122213
 30
0.0
 10
112.1057959090487
 20
135.3027013864311
 30
0.0
 10
112.1055054984809
 20
135.5638878605622
 30
0.0
 10
112.1315301322566
 20
135.6936528987269
 30
0.0
 10
112.2336784167486
 20
135.9392355329996
 30
0.0
 10
112.3092548643318
 20
136.0558970703084
 30
0.0
 10
112.5097523954767
 20
136.277802260463
 30
0.0
 10
112.6348812369851
 20
136.382413514386
 30
0.0
 10
112.9242400380067
 20
136.5724599259941
 30
0.0
 10
113.0896510250622
 20
136.6592195974437
 30
0.0
 10
113.46264158321
 20
136.8167239731953
 30
0.0
 10
113.6643746162991
 20
136.8850492379825
 30
0.0
 10
114.097233867127
 20
137.0032789616017
 30
0.0
 10
114.3311524000163
 20
137.0535738777056
 30
0.0
 10
114.8153361351589
 20
137.1334394145952
 30
0.0
 10
115.0646517611144
 20
137.1631805423948
 30
0.0
 10
115.5776842855422
 20
137.203333283903
 30
0.0
 10
115.8429781084468
 20
137.2135315533129
 30
0.0
 10
116.3653127283166
 20
137.2136080116976
 30
0.0
 10
116.6250663907983
 20
137.2038170000885
 30
0.0
 10
117.1416782064435
 20
137.1637501613498
 30
0.0
 10
117.3940442469438
 20
137.133652994493
 30
0.0
 10
117.8755693684766
 20
137.0544307846628
 30
0.0
 10
118.1084201005902
 20
137.0046733051994
 30
0.0
 10
118.545509949029
 20
136.885581362749
 30
0.0
 10
118.7468309376862
 20
136.8172661012017
 30
0.0
 10
119.115916962986
 20
136.6618651342682
 30
0.0
 10
119.2849017140377
 20
136.5737127922013
 30
0.0
 10
119.5753577706969
 20
136.3832734030849
 30
0.0
 10
119.6984295820591
 20
136.2806488253858
 30
0.0
 10
119.8997658234811
 20
136.0590084787777
 30
0.0
 10
119.9769783694233
 20
135.9402544032302
 30
0.0
 10
120.0791819123234
 20
135.6955884643126
 30
0.0
 10
120.1054102637757
 20
135.568431738864
 30
0.0
 10
120.1058866630928
 20
135.3039835930085
 30
0.0
 10
120.0801442505949
 20
135.1710829127513
 30
0.0
 10
119.978833474231
 20
134.9042906392692
 30
0.0
 10
119.9020008348401
 20
134.7689267378007
 30
0.0
 10
119.7015969956249
 20
134.5063469424981
 30
0.0
 10
119.5789254973328
 20
134.3793717827444
 30
0.0
 10
119.2889782081686
 20
134.135292396662
 30
0.0
 10
119.1204072288034
 20
134.0178672719081
 30
0.0
 10
118.7521376346902
 20
133.8046708109596
 30
0.0
 10
118.5510757774199
 20
133.7074966925348
 30
0.0
 10
118.114044858835
 20
133.5341418053206
 30
0.0
 10
117.8818966457054
 20
133.4597422536639
 30
0.0
 10
117.4008863642065
 20
133.3392893741593
 30
0.0
 10
117.1487862813761
 20
133.2924309988933
 30
0.0
 10
116.6317167951171
 20
133.2294735019095
 30
0.0
 10
116.3701954241244
 20
133.2135698926304
 30
0.0
 10
115.8411047468042
 20
133.2135698926304
 30
0.0
  0
ARC
  5
8F
330
1F
100
AcDbEntity
  8
0
  6
Continuous
 62
     7
370
    15
100
AcDbCircle
 10
116.1030829832
 20
120.0663455925
 30
0.0
 40
4.110202922675402
100
AcDbArc
 50
19.1726786443
 51
159.6338675607
  0
SPLINE
  5
90
330
1F
100
AcDbEntity
  8
0
  6
Continuous
 62
     7
370
    15
100
AcDbSpline
210
0.0
220
0.0
230
1.0
 70
     8
 71
     3
 72
    10
 73
     6
 74
     0
 42
0.00000001
 43
0.00000001
 40
0.0
 40
0.0
 40
0.0
 40
0.0
 40
0.5
 40
0.5
 40
1.0
 40
1.0
 40
1.0
 40
1.0
 10
124.5899476171552
 20
134.5546064978513
 30
0.0
 10
124.4684073534867
 20
134.629332665063
 30
0.0
 10
124.3670729931378
 20
134.7382776809798
 30
0.0
 10
124.2314340502494
 20
134.9887081617414
 30
0.0
 10
124.1956500854643
 20
135.1311275238403
 30
0.0
 10
124.1956500854643
 20
135.274260348887
 30
0.0
  0
SPLINE
  5
91
330
1F
100
AcDbEntity
  8
0
  6
Continuous
 62
     7
370
    15
100
AcDbSpline
210
0.0
220
0.0
230
1.0
 70
    24
 71
     3
 72
    12
 73
     8
 74
     0
 42
0.00000001
 43
0.00000001
 40
0.0
 40
0.0
 40
0.0
 40
0.0
 40
0.2500000000000037
 40
0.2500000000000037
 40
0.5000000000000074
 40
0.5000000000000074
 40
1.0
 40
1.0
 40
1.0
 40
1.0
 10
124.9956500854643
 20
134.5546064978513
 30
0.0
 10
124.9457734031468
 20
134.5546064978513
 30
0.0
 10
124.8977702097432
 20
134.5546064978513
 30
0.0
 10
124.8147221070313
 20
134.5546064978513
 30
0.0
 10
124.7785925275634
 20
134.5546064978513
 30
0.0
 10
124.6826804966192
 20
134.5546064978513
 30
0.0
 10
124.6329218286504
 20
134.5546064978513
 30
0.0
 10
124.5899476171552
 20
134.5546064978513
 30
0.0
  0
SPLINE
  5
92
330
1F
100
AcDbEntity
  8
0
  6
Continuous
 62
     7
370
    15
100
AcDbSpline
210
0.0
220
0.0
230
1.0
 70
    24
 71
     3
 72
    14
 73
    10
 74
     0
 42
0.00000001
 43
0.00000001
 40
0.0
 40
0.0
 40
0.0
 40
0.0
 40
0.1249999999999991
 40
0.1249999999999991
 40
0.2499999999999982
 40
0.2499999999999982
 40
0.4999999999999998
 40
0.4999999999999998
 40
1.0
 40
1.0
 40
1.0
 40
1.0
 10
124.9956500854643
 20
81.75460649785124
 30
0.0
 10
124.9272122375778
 20
81.75460649785124
 30
0.0
 10
124.8616621988128
 20
81.75460649785126
 30
0.0
 10
124.7572355594048
 20
81.75460649785126
 30
0.0
 10
124.7146909496434
 20
81.75460649785126
 30
0.0
 10
124.6020814891032
 20
81.75460649785124
 30
0.0
 10
124.5465424420837
 20
81.75460649785124
 30
0.0
 10
124.4039307466199
 20
81.75460649785124
 30
0.0
 10
124.3405253916241
 20
81.75460649785124
 30
0.0
 10
124.2933248877966
 20
81.75460649785124
 30
0.0
  0
SPLINE
  5
93
330
1F
100
AcDbEntity
  8
0
  6
Continuous
 62
     7
370
    15
100
AcDbSpline
210
0.0
220
0.0
230
1.0
 70
     8
 71
     3
 72
    10
 73
     6
 74
     0
 42
0.00000001
 43
0.00000001
 40
0.0
 40
0.0
 40
0.0
 40
0.0
 40
0.5
 40
0.5
 40
1.0
 40
1.0
 40
1.0
 40
1.0
 10
124.1956500854643
 20
128.2904731293126
 30
0.0
 10
124.1956500854643
 20
128.2427016213193
 30
0.0
 10
124.1978113290615
 20
128.1949918992576
 30
0.0
 10
124.2064827029216
 20
128.0996967817094
 30
0.0
 10
124.2130118858776
 20
128.0520042177427
 30
0.0
 10
124.2217977086244
 20
128.0046064978513
 30
0.0
  0
SPLINE
  5
94
330
1F
100
AcDbEntity
  8
0
  6
Continuous
 62
     7
370
    15
100
AcDbSpline
210
0.0
220
0.0
230
1.0
 70
    24
 71
     3
 72
    14
 73
    10
 74
     0
 42
0.00000001
 43
0.00000001
 40
0.0
 40
0.0
 40
0.0
 40
0.0
 40
0.4999999999999984
 40
0.4999999999999984
 40
0.7499999999999992
 40
0.7499999999999992
 40
0.8749999999999996
 40
0.8749999999999996
 40
1.0
 40
1.0
 40
1.0
 40
1.0
 10
127.917975283132
 20
81.75460649785124
 30
0.0
 10
127.8711905780838
 20
81.75460649785126
 30
0.0
 10
127.8091393813042
 20
81.75460649785126
 30
0.0
 10
127.6657477427536
 20
81.75460649785124
 30
0.0
 10
127.6096040892024
 20
81.75460649785124
 30
0.0
 10
127.4966530670662
 20
81.75460649785126
 30
0.0
 10
127.4536523050281
 20
81.75460649785126
 30
0.0
 10
127.3495895947216
 20
81.75460649785124
 30
0.0
 10
127.2842573563647
 20
81.75460649785127
 30
0.0
 10
127.2156500854643
 20
81.75460649785124
 30
0.0
  0
SPLINE
  5
95
330
1F
100
AcDbEntity
  8
0
  6
Continuous
 62
     7
370
    15
100
AcDbSpline
210
0.0
220
0.0
230
1.0
 70
    24
 71
     3
 72
    12
 73
     8
 74
     0
 42
0.00000001
 43
0.00000001
 40
0.0
 40
0.0
 40
0.0
 40
0.0
 40
0.5000000000000017
 40
0.5000000000000017
 40
0.7500000000000008
 40
0.7500000000000008
 40
1.0
 40
1.0
 40
1.0
 40
1.0
 10
127.6213525537733
 20
134.5546064978513
 30
0.0
 10
127.5782670041624
 20
134.5546064978513
 30
0.0
 10
127.529114802413
 20
134.5546064978513
 30
0.0
 10
127.4326422081251
 20
134.5546064978513
 30
0.0
 10
127.3965406229906
 20
134.5546064978513
 30
0.0
 10
127.3134348651293
 20
134.5546064978513
 30
0.0
 10
127.265438268163
 20
134.5546064978513
 30
0.0
 10
127.2156500854643
 20
134.5546064978513
 30
0.0
  0
SPLINE
  5
96
330
1F
100
AcDbEntity
  8
0
  6
Continuous
 62
     7
370
    15
100
AcDbSpline
210
0.0
220
0.0
230
1.0
 70
     8
 71
     3
 72
    10
 73
     6
 74
     0
 42
0.00000001
 43
0.00000001
 40
0.0
 40
0.0
 40
0.0
 40
0.0
 40
0.5
 40
0.5
 40
1.0
 40
1.0
 40
1.0
 40
1.0
 10
128.0156500854643
 20
135.274260348887
 30
0.0
 10
128.0156500854643
 20
135.130490291069
 30
0.0
 10
127.9796010267454
 20
134.9880709285738
 30
0.0
 10
127.8440921659714
 20
134.7381766352166
 30
0.0
 10
127.7442161728752
 20
134.6301462989684
 30
0.0
 10
127.6213525537733
 20
134.5546064978512
 30
0.0
  0
SPLINE
  5
97
330
1F
100
AcDbEntity
  8
0
  6
Continuous
 62
     7
370
    15
100
AcDbSpline
210
0.0
220
0.0
230
1.0
 70
     8
 71
     3
 72
    10
 73
     6
 74
     0
 42
0.00000001
 43
0.00000001
 40
0.0
 40
0.0
 40
0.0
 40
0.0
 40
0.5
 40
0.5
 40
1.0
 40
1.0
 40
1.0
 40
1.0
 10
127.9895024623042
 20
128.0046064978513
 30
0.0
 10
127.9981921052158
 20
128.0514853471694
 30
0.0
 10
128.0047311699663
 20
128.0989078125707
 30
0.0
 10
128.0134898043594
 20
128.1948446111575
 30
0.0
 10
128.0156500854643
 20
128.242759899168
 30
0.0
 10
128.0156500854643
 20
128.2904731293126
 30
0.0
  0
LINE
  5
98
330
1F
100
AcDbEntity
  8
0
  6
Continuous
 62
     7
370
    15
100
AcDbLine
 10
127.2156498464
 20
134.5546063548
 30
0.0
 11
124.9956506374
 21
134.5546063548
 31
0.0
  0
LINE
  5
99
330
1F
100
AcDbEntity
  8
0
  6
Continuous
 62
     7
370
    15
100
AcDbLine
 10
127.2156498464
 20
81.7546066409
 30
0.0
 11
124.9956506374
 21
81.7546066409
 31
0.0
  0
LINE
  5
9A
330
1F
100
AcDbEntity
  8
0
  6
Continuous
 62
     7
370
    15
100
AcDbLine
 10
106.1056499905
 20
83.9341752743
 30
0.0
 11
106.1056499905
 21
132.3750377214
 31
0.0
  0
LINE
  5
9B
330
1F
100
AcDbEntity
  8
0
  6
Continuous
 62
     7
370
    15
100
AcDbLine
 10
86.3056498649
 20
84.9261604762
 30
0.0
 11
86.3056498649
 21
86.1908685928
 31
0.0
  0
SPLINE
  5
9C
330
1F
100
AcDbEntity
  8
0
  6
Continuous
 62
     7
370
    15
100
AcDbSpline
210
0.0
220
0.0
230
1.0
 70
     8
 71
     3
 72
    14
 73
    10
 74
     0
 42
0.00000001
 43
0.00000001
 40
0.0
 40
0.0
 40
0.0
 40
0.0
 40
0.25
 40
0.25
 40
0.5
 40
0.5
 40
0.75
 40
0.75
 40
1.0
 40
1.0
 40
1.0
 40
1.0
 10
85.5273629675486
 20
87.3214551742913
 30
0.0
 10
85.58398964275065
 20
87.21375772045444
 30
0.0
 10
85.67851230304038
 20
87.11096813873512
 30
0.0
 10
85.86155727860262
 20
86.91261082651496
 30
0.0
 10
85.95318385555734
 20
86.81655131783673
 30
0.0
 10
86.11203717325054
 20
86.62902227512748
 30
0.0
 10
86.17992778087225
 20
86.53761330234391
 30
0.0
 10
86.27684480657982
 20
86.35923708143376
 30
0.0
 10
86.30565008546486
 20
86.27201517518759
 30
0.0
 10
86.30565008546486
 20
86.19086896665334
 30
0.0
  0
SPLINE
  5
9D
330
1F
100
AcDbEntity
  8
0
  6
Continuous
 62
     7
370
    15
100
AcDbSpline
210
0.0
220
0.0
230
1.0
 70
     8
 71
     3
 72
    14
 73
    10
 74
     0
 42
0.00000001
 43
0.00000001
 40
0.0
 40
0.0
 40
0.0
 40
0.0
 40
0.1249999999999975
 40
0.1249999999999975
 40
0.249999999999995
 40
0.249999999999995
 40
0.4999999999999953
 40
0.4999999999999953
 40
1.0
 40
1.0
 40
1.0
 40
1.0
 10
84.9056500854643
 20
87.76813703657062
 30
0.0
 10
84.95419449412147
 20
87.77388534985091
 30
0.0
 10
85.00710984890637
 20
87.77078446119467
 30
0.0
 10
85.10240519388942
 20
87.74858961703234
 30
0.0
 10
85.14265619117437
 20
87.73135738993648
 30
0.0
 10
85.24692620468734
 20
87.67502947348441
 30
0.0
 10
85.29724817984066
 20
87.63084312753863
 30
0.0
 10
85.42493112736605
 20
87.499835228688
 30
0.0
 10
85.48101657442831
 20
87.4096007084577
 30
0.0
 10
85.52736296755003
 20
87.32145517429183
 30
0.0
  0
SPLINE
  5
9E
330
1F
100
AcDbEntity
  8
0
  6
Continuous
 62
     7
370
    15
100
AcDbSpline
210
0.0
220
0.0
230
1.0
 70
     8
 71
     3
 72
     8
 73
     4
 74
     0
 42
0.00000001
 43
0.00000001
 40
0.0
 40
0.0
 40
0.0
 40
0.0
 40
1.0
 40
1.0
 40
1.0
 40
1.0
 10
82.63712499251807
 20
87.45829174998784
 30
0.0
 10
83.37170201900103
 20
87.57691676105678
 30
0.0
 10
84.13517708839669
 20
87.67690263319305
 30
0.0
 10
84.9056500854643
 20
87.76813703657061
 30
0.0
  0
SPLINE
  5
9F
330
1F
100
AcDbEntity
  8
0
  6
Continuous
 62
     7
370
    15
100
AcDbSpline
210
0.0
220
0.0
230
1.0
 70
     8
 71
     3
 72
    14
 73
    10
 74
     0
 42
0.00000001
 43
0.00000001
 40
0.0
 40
0.0
 40
0.0
 40
0.0
 40
0.500000000000001
 40
0.500000000000001
 40
0.7500000000000004
 40
0.7500000000000004
 40
0.8750000000000003
 40
0.8750000000000003
 40
1.0
 40
1.0
 40
1.0
 40
1.0
 10
77.3556500854643
 20
87.28466873245617
 30
0.0
 10
78.24779621601787
 20
87.28394650625552
 30
0.0
 10
79.13777265181147
 20
87.28853271271299
 30
0.0
 10
80.46436781888708
 20
87.31625771710452
 30
0.0
 10
80.90521474738583
 20
87.32886425472869
 30
0.0
 10
81.56165498480823
 20
87.35988040273615
 30
0.0
 10
81.77966864140011
 20
87.37222357536292
 30
0.0
 10
82.21237749508289
 20
87.4052476305262
 30
0.0
 10
82.42765396024768
 20
87.42446479566463
 30
0.0
 10
82.63712499251808
 20
87.45829174998784
 30
0.0
  0
SPLINE
  5
A0
330
1F
100
AcDbEntity
  8
0
  6
Continuous
 62
     7
370
    15
100
AcDbSpline
210
0.0
220
0.0
230
1.0
 70
     8
 71
     3
 72
     8
 73
     4
 74
     0
 42
0.00000001
 43
0.00000001
 40
0.0000005163856712
 40
0.0000005163856712
 40
0.0000005163856712
 40
0.0000005163856712
 40
0.000026289209185
 40
0.000026289209185
 40
0.000026289209185
 40
0.000026289209185
 10
77.34560515504562
 20
87.29465260556404
 30
0.0
 10
77.34893289325709
 20
87.29131835869123
 30
0.0
 10
77.35228134623638
 20
87.2879904014122
 30
0.0
 10
77.35565008546428
 20
87.28466873245615
 30
0.0
  0
SPLINE
  5
A1
330
1F
100
AcDbEntity
  8
0
  6
Continuous
 62
     7
370
    15
100
AcDbSpline
210
0.0
220
0.0
230
1.0
 70
     8
 71
     3
 72
     8
 73
     4
 74
     0
 42
0.00000001
 43
0.00000001
 40
0.0000005099763573
 40
0.0000005099763573
 40
0.0000005099763573
 40
0.0000005099763573
 40
0.0000262827998699
 40
0.0000262827998699
 40
0.0000262827998699
 40
0.0000262827998699
 10
77.35565008546428
 20
129.0245442632463
 30
0.0
 10
77.35228134623655
 20
129.0212225942904
 30
0.0
 10
77.34893289325741
 20
129.0178946370116
 30
0.0
 10
77.34560515504609
 20
129.0145603901389
 30
0.0
  0
SPLINE
  5
A2
330
1F
100
AcDbEntity
  8
0
  6
Continuous
 62
     7
370
    15
100
AcDbSpline
210
0.0
220
0.0
230
1.0
 70
     8
 71
     3
 72
    10
 73
     6
 74
     0
 42
0.00000001
 43
0.00000001
 40
0.0
 40
0.0
 40
0.0
 40
0.0
 40
0.5
 40
0.5
 40
1.0
 40
1.0
 40
1.0
 40
1.0
 10
80.9056500854643
 20
128.977693889679
 30
0.0
 10
80.31806453837372
 20
128.9987594099154
 30
0.0
 10
79.72731814491333
 20
129.0095178957876
 30
0.0
 10
78.54329897961448
 20
129.0228826763233
 30
0.0
 10
77.94988499140901
 20
129.0250253189879
 30
0.0
 10
77.3556500854643
 20
129.0245442632463
 30
0.0
  0
SPLINE
  5
A3
330
1F
100
AcDbEntity
  8
0
  6
Continuous
 62
     7
370
    15
100
AcDbSpline
210
0.0
220
0.0
230
1.0
 70
     8
 71
     3
 72
    18
 73
    14
 74
     0
 42
0.00000001
 43
0.00000001
 40
0.0
 40
0.0
 40
0.0
 40
0.0
 40
0.2500000000000009
 40
0.2500000000000009
 40
0.500000000000001
 40
0.500000000000001
 40
0.7500000000000011
 40
0.7500000000000011
 40
0.875000000000001
 40
0.875000000000001
 40
0.9375000000000006
 40
0.9375000000000006
 40
1.0
 40
1.0
 40
1.0
 40
1.0
 10
82.30565008546431
 20
129.9987141702142
 30
0.0
 10
82.30565008546431
 20
129.915507261357
 30
0.0
 10
82.26980098552605
 20
129.8267706060435
 30
0.0
 10
82.14492924949212
 20
129.6446454154832
 30
0.0
 10
82.05452883184425
 20
129.5495153668566
 30
0.0
 10
81.83228617710208
 20
129.3603338577323
 30
0.0
 10
81.70252139065632
 20
129.2653886896376
 30
0.0
 10
81.4618839333448
 20
129.1271099820576
 30
0.0
 10
81.37411663520734
 20
129.0813995487553
 30
0.0
 10
81.21959254800053
 20
129.0235762435338
 30
0.0
 10
81.16298166194578
 20
129.0058614794959
 30
0.0
 10
81.03893763103919
 20
128.981322176263
 30
0.0
 10
80.9712229560209
 20
128.9753430377247
 30
0.0
 10
80.9056500854643
 20
128.977693889679
 30
0.0
  0
LINE
  5
A4
330
1F
100
AcDbEntity
  8
0
  6
Continuous
 62
     7
370
    15
100
AcDbLine
 10
82.3056492093
 20
129.9987141555
 30
0.0
 11
82.3056492093
 21
131.1826523906
 31
0.0
  0
SPLINE
  5
A5
330
1F
100
AcDbEntity
  8
0
  6
Continuous
 62
     7
370
    15
100
AcDbSpline
210
0.0
220
0.0
230
1.0
 70
     8
 71
     3
 72
    24
 73
    20
 74
     0
 42
0.00000001
 43
0.00000001
 40
0.0
 40
0.0
 40
0.0
 40
0.0
 40
0.0010489815523775
 40
0.0637843212772741
 40
0.1272220630088516
 40
0.1903789073370505
 40
0.2526748662763491
 40
0.3146354150030102
 40
0.3770891884518245
 40
0.4393540587943444
 40
0.5008133488401828
 40
0.5621845177353679
 40
0.6248438462901906
 40
0.6874304788646655
 40
0.7496743245911356
 40
0.811984857412469
 40
0.8750960476811308
 40
0.9384412548145236
 40
1.0
 40
1.0
 40
1.0
 40
1.0
 10
94.87455609019119
 20
84.49709830340468
 30
0.0
 10
94.87410942444046
 20
84.4970396584382
 30
0.0
 10
94.84694948851686
 20
84.49347369545751
 30
0.0
 10
94.94257941164868
 20
84.50633830493271
 30
0.0
 10
95.17613258766919
 20
84.53557278727278
 30
0.0
 10
95.57168853990358
 20
84.5821919980142
 30
0.0
 10
96.09872854027361
 20
84.63237279743936
 30
0.0
 10
96.74225898210986
 20
84.67675147088241
 30
0.0
 10
97.48093281637959
 20
84.70369466739321
 30
0.0
 10
98.27844748649846
 20
84.70716641569534
 30
0.0
 10
99.10502653626304
 20
84.67954096940191
 30
0.0
 10
99.9305493576817
 20
84.62105982642328
 30
0.0
 10
100.7226758285973
 20
84.53561676302469
 30
0.0
 10
101.4552482074347
 20
84.43388159453218
 30
0.0
 10
102.0908883892554
 20
84.32603794348425
 30
0.0
 10
102.6127993198016
 20
84.22440654820943
 30
0.0
 10
102.9944281574406
 20
84.14192458391692
 30
0.0
 10
103.2452428333739
 20
84.08577247641001
 30
0.0
 10
103.2743641490812
 20
84.07892362549714
 30
0.0
 10
103.2887165504249
 20
84.07554817852103
 30
0.0
  0
SPLINE
  5
A6
330
1F
100
AcDbEntity
  8
0
  6
Continuous
 62
     7
370
    15
100
AcDbSpline
210
0.0
220
0.0
230
1.0
 70
     8
 71
     3
 72
    24
 73
    20
 74
     0
 42
0.00000001
 43
0.00000001
 40
0.0
 40
0.0
 40
0.0
 40
0.0
 40
0.061438429114026
 40
0.1250736777967296
 40
0.1884253375120635
 40
0.2508623992448768
 40
0.3129665476325514
 40
0.3753451442328022
 40
0.4377328732174486
 40
0.499092717251918
 40
0.560580729454827
 40
0.622946985474185
 40
0.6854686070210457
 40
0.7475477863222202
 40
0.8098225081553685
 40
0.873068419947611
 40
0.936404185690527
 40
0.9991757203144552
 40
1.0
 40
1.0
 40
1.0
 40
1.0
 10
103.2886620680543
 20
132.2336350148591
 30
0.0
 10
103.2740612596021
 20
132.2302668569861
 30
0.0
 10
103.2443375697511
 20
132.2234101079017
 30
0.0
 10
102.9915995697651
 20
132.1670722880056
 30
0.0
 10
102.608604270744
 20
132.0842144751204
 30
0.0
 10
102.086248313861
 20
131.9823077268993
 30
0.0
 10
101.4514639691594
 20
131.8744691570103
 30
0.0
 10
100.7212402325452
 20
131.7730029037813
 30
0.0
 10
99.93077213763412
 20
131.6879408252141
 30
0.0
 10
99.1062884101764
 20
131.6297394682575
 30
0.0
 10
98.27925202969632
 20
131.6021550205729
 30
0.0
 10
97.48092757070589
 20
131.6056489491071
 30
0.0
 10
96.74110381970627
 20
131.6326026077808
 30
0.0
 10
96.09684894824666
 20
131.6769581083941
 30
0.0
 10
95.5694420911491
 20
131.7271632921169
 30
0.0
 10
95.174776850836
 20
131.7737707521621
 30
0.0
 10
94.94224816524783
 20
131.8029739290004
 30
0.0
 10
94.84686893658154
 20
131.8157320677176
 30
0.0
 10
94.87380188090837
 20
131.8121922377989
 30
0.0
 10
94.87415096487123
 20
131.8121463572653
 30
0.0
  0
SPLINE
  5
A7
330
1F
100
AcDbEntity
  8
0
  6
Continuous
 62
     7
370
    15
100
AcDbSpline
210
0.0
220
0.0
230
1.0
 70
     8
 71
     3
 72
     9
 73
     5
 74
     0
 42
0.00000001
 43
0.00000001
 40
0.0
 40
0.0
 40
0.0
 40
0.0
 40
0.7009339503679092
 40
0.9999999999999999
 40
0.9999999999999999
 40
0.9999999999999999
 40
0.9999999999999999
 10
76.2264336528929
 20
88.45332679804885
 30
0.0
 10
76.23557432384273
 20
88.43549751428795
 30
0.0
 10
76.24861502610153
 20
88.41006104662716
 30
0.0
 10
76.2637784893698
 20
88.4639404061007
 30
0.0
 10
76.2683133664282
 20
88.48005389329516
 30
0.0
  0
LINE
  5
A8
330
1F
100
AcDbEntity
  8
0
  6
Continuous
 62
     7
370
    15
100
AcDbLine
 10
76.2056502583
 20
88.4639289742
 30
0.0
 11
76.2056502583
 21
127.8452840215
 31
0.0
  0
SPLINE
  5
A9
330
1F
100
AcDbEntity
  8
0
  6
Continuous
 62
     7
370
    15
100
AcDbSpline
210
0.0
220
0.0
230
1.0
 70
     8
 71
     3
 72
    10
 73
     6
 74
     0
 42
0.00000001
 43
0.00000001
 40
0.0
 40
0.0
 40
0.0
 40
0.0
 40
0.5
 40
0.5
 40
1.0
 40
1.0
 40
1.0
 40
1.0
 10
76.2683134601877
 20
127.829159042632
 30
0.0
 10
76.25940917107896
 20
127.8749005618452
 30
0.0
 10
76.24289379088597
 20
127.8920914013142
 30
0.0
 10
76.21578584482435
 20
127.8917681243784
 30
0.0
 10
76.20565008546431
 20
127.873890582082
 30
0.0
 10
76.2056500854643
 20
127.8452842443294
 30
0.0
  0
SPLINE
  5
AA
330
1F
100
AcDbEntity
  8
0
  6
Continuous
 62
     7
370
    15
100
AcDbSpline
210
0.0
220
0.0
230
1.0
 70
     8
 71
     3
 72
    26
 73
    22
 74
     0
 42
0.00000001
 43
0.00000001
 40
0.0
 40
0.0
 40
0.0
 40
0.0
 40
0.2500000000000165
 40
0.2500000000000165
 40
0.3750000000000256
 40
0.3750000000000256
 40
0.4375000000000291
 40
0.4375000000000291
 40
0.4687500000000291
 40
0.4687500000000291
 40
0.5000000000000292
 40
0.5000000000000292
 40
0.5312500000000293
 40
0.5312500000000293
 40
0.5625000000000293
 40
0.5625000000000293
 40
0.625000000000026
 40
0.625000000000026
 40
0.7500000000000173
 40
0.7500000000000173
 40
1.0
 40
1.0
 40
1.0
 40
1.0
 10
77.02980373156882
 20
128.5447258314491
 30
0.0
 10
76.99120320870034
 20
128.4269511350936
 30
0.0
 10
76.94490620614609
 20
128.3025614489317
 30
0.0
 10
76.85096685771214
 20
128.0973421165782
 30
0.0
 10
76.8156553907987
 20
128.0257692501318
 30
0.0
 10
76.74947541505303
 20
127.9098160175313
 30
0.0
 10
76.72493704838479
 20
127.8692314827211
 30
0.0
 10
76.681564302831
 20
127.8050898008494
 30
0.0
 10
76.6660559014058
 20
127.7832233755643
 30
0.0
 10
76.63101325681879
 20
127.7376291072211
 30
0.0
 10
76.61146296609901
 20
127.7139588162537
 30
0.0
 10
76.56953568572841
 20
127.6693422569138
 30
0.0
 10
76.54688357549676
 20
127.6484622443958
 30
0.0
 10
76.50590986141012
 20
127.617588830645
 30
0.0
 10
76.4883105615147
 20
127.6077499608126
 30
0.0
 10
76.44368357565855
 20
127.5887603451164
 30
0.0
 10
76.42312435300522
 20
127.588436020463
 30
0.0
 10
76.37199891350856
 20
127.5976594613392
 30
0.0
 10
76.35108750052002
 20
127.6189063575562
 30
0.0
 10
76.29963759295909
 20
127.692875236387
 30
0.0
 10
76.28197229365453
 20
127.7589933297017
 30
0.0
 10
76.2683134601877
 20
127.829159042632
 30
0.0
  0
SPLINE
  5
AB
330
1F
100
AcDbEntity
  8
0
  6
Continuous
 62
     7
370
    15
100
AcDbSpline
210
0.0
220
0.0
230
1.0
 70
     8
 71
     3
 72
    10
 73
     6
 74
     0
 42
0.00000001
 43
0.00000001
 40
0.0
 40
0.0
 40
0.0
 40
0.0
 40
0.5
 40
0.5
 40
1.0
 40
1.0
 40
1.0
 40
1.0
 10
77.3456051550461
 20
129.0145603901389
 30
0.0
 10
77.27804590012786
 20
128.9468689973291
 30
0.0
 10
77.21440924479137
 20
128.8721618325755
 30
0.0
 10
77.1041884902195
 20
128.7131957001489
 30
0.0
 10
77.05737219699688
 20
128.6288404341409
 30
0.0
 10
77.02980373156882
 20
128.5447258314491
 30
0.0
  0
SPLINE
  5
AC
330
1F
100
AcDbEntity
  8
0
  6
Continuous
 62
     7
370
    15
100
AcDbSpline
210
0.0
220
0.0
230
1.0
 70
     8
 71
     3
 72
    10
 73
     6
 74
     0
 42
0.00000001
 43
0.00000001
 40
0.0
 40
0.0
 40
0.0
 40
0.0
 40
0.5
 40
0.5
 40
1.0
 40
1.0
 40
1.0
 40
1.0
 10
77.02980373156885
 20
87.76448716425328
 30
0.0
 10
77.05728114632205
 20
87.68065036778769
 30
0.0
 10
77.10398977660972
 20
87.59633988020086
 30
0.0
 10
77.21426823935167
 20
87.43721864971799
 30
0.0
 10
77.2781557779633
 20
87.36223390562992
 30
0.0
 10
77.34560515504565
 20
87.29465260556404
 30
0.0
  0
SPLINE
  5
AD
330
1F
100
AcDbEntity
  8
0
  6
Continuous
 62
     7
370
    15
100
AcDbSpline
210
0.0
220
0.0
230
1.0
 70
     8
 71
     3
 72
    24
 73
    20
 74
     0
 42
0.00000001
 43
0.00000001
 40
0.0
 40
0.0
 40
0.0
 40
0.0
 40
0.25
 40
0.25
 40
0.374999999999999
 40
0.374999999999999
 40
0.4374999999999993
 40
0.4374999999999993
 40
0.4687499999999994
 40
0.4687499999999994
 40
0.4999999999999995
 40
0.4999999999999995
 40
0.5624999999999971
 40
0.5624999999999971
 40
0.6249999999999947
 40
0.6249999999999947
 40
0.7499999999999947
 40
0.7499999999999947
 40
1.0
 40
1.0
 40
1.0
 40
1.0
 10
76.2683134601877
 20
88.48005395307051
 30
0.0
 10
76.28206657885795
 20
88.5507040110608
 30
0.0
 10
76.2998391462638
 20
88.61730212382571
 30
0.0
 10
76.35209023781917
 20
88.69140014405892
 30
0.0
 10
76.3731253134007
 20
88.71265795122048
 30
0.0
 10
76.42602572102916
 20
88.72080387736672
 30
0.0
 10
76.44713139390707
 20
88.71986407397095
 30
0.0
 10
76.49318356258503
 20
88.6988480823936
 30
0.0
 10
76.51155403456843
 20
88.68793927628599
 30
0.0
 10
76.55310566963414
 20
88.65530436533861
 30
0.0
 10
76.57567234239104
 20
88.63381238496726
 30
0.0
 10
76.63845335885105
 20
88.56534644138094
 30
0.0
 10
76.67158311981895
 20
88.51927198317584
 30
0.0
 10
76.72850080630397
 20
88.43426409484117
 30
0.0
 10
76.75268683180775
 20
88.39398379365979
 30
0.0
 10
76.81789478218751
 20
88.27904756719384
 30
0.0
 10
76.85261084237874
 20
88.20846458204684
 30
0.0
 10
76.94582611270961
 20
88.00425882296824
 30
0.0
 10
76.99149864807029
 20
87.88136044064088
 30
0.0
 10
77.02980373156885
 20
87.76448716425331
 30
0.0
  0
SPLINE
  5
AE
330
1F
100
AcDbEntity
  8
0
  6
Continuous
 62
     7
370
    15
100
AcDbSpline
210
0.0
220
0.0
230
1.0
 70
     8
 71
     3
 72
     8
 73
     4
 74
     0
 42
0.00000001
 43
0.00000001
 40
0.0
 40
0.0
 40
0.0
 40
0.0
 40
1.0
 40
1.0
 40
1.0
 40
1.0
 10
124.1956500854643
 20
135.9598406890229
 30
0.0
 10
123.7029399886185
 20
136.8478596871493
 30
0.0
 10
123.2088572833396
 20
137.7351223228353
 30
0.0
 10
122.7137172539752
 20
138.6218019710155
 30
0.0
  0
LINE
  5
AF
330
1F
100
AcDbEntity
  8
0
  6
Continuous
 62
     7
370
    15
100
AcDbLine
 10
124.1956501337
 20
129.2047504848
 30
0.0
 11
124.1956501337
 21
135.9598398721
 31
0.0
  0
SPLINE
  5
B0
330
1F
100
AcDbEntity
  8
0
  6
Continuous
 62
     7
370
    15
100
AcDbSpline
210
0.0
220
0.0
230
1.0
 70
     8
 71
     3
 72
     8
 73
     4
 74
     0
 42
0.00000001
 43
0.00000001
 40
0.0
 40
0.0
 40
0.0
 40
0.0
 40
1.0
 40
1.0
 40
1.0
 40
1.0
 10
122.7137172539752
 20
132.6132961602187
 30
0.0
 10
123.2208040957345
 20
131.482145806055
 30
0.0
 10
123.7163719348744
 20
130.3457613952872
 30
0.0
 10
124.1956500854643
 20
129.2047501654346
 30
0.0
  0
LINE
  5
B1
330
1F
100
AcDbEntity
  8
0
  6
Continuous
 62
     7
370
    15
100
AcDbLine
 10
133.4556507948
 20
138.6218019342
 30
0.0
 11
129.4975820067
 21
138.6218019342
 31
0.0
  0
LINE
  5
B2
330
1F
100
AcDbEntity
  8
0
  6
Continuous
 62
     7
370
    15
100
AcDbLine
 10
129.4975820067
 20
132.613296113
 30
0.0
 11
133.4556507948
 21
132.613296113
 31
0.0
  0
LINE
  5
B3
330
1F
100
AcDbEntity
  8
0
  6
Continuous
 62
     7
370
    15
100
AcDbLine
 10
129.4975820067
 20
132.613296113
 30
0.0
 11
129.4975820067
 21
138.6218019342
 31
0.0
  0
SPLINE
  5
B4
330
1F
100
AcDbEntity
  8
0
  6
Continuous
 62
     7
370
    15
100
AcDbSpline
210
0.0
220
0.0
230
1.0
 70
     8
 71
     3
 72
     8
 73
     4
 74
     0
 42
0.00000001
 43
0.00000001
 40
0.0
 40
0.0
 40
0.0
 40
0.0
 40
1.0
 40
1.0
 40
1.0
 40
1.0
 10
129.4975829169533
 20
138.6218019710155
 30
0.0
 10
129.002442887589
 20
137.7351223228353
 30
0.0
 10
128.50836018231
 20
136.8478596871493
 30
0.0
 10
128.0156500854643
 20
135.9598406890228
 30
0.0
  0
SPLINE
  5
B5
330
1F
100
AcDbEntity
  8
0
  6
Continuous
 62
     7
370
    15
100
AcDbSpline
210
0.0
220
0.0
230
1.0
 70
     8
 71
     3
 72
     8
 73
     4
 74
     0
 42
0.00000001
 43
0.00000001
 40
0.0
 40
0.0
 40
0.0
 40
0.0
 40
1.0
 40
1.0
 40
1.0
 40
1.0
 10
128.0156500854643
 20
129.2047501654346
 30
0.0
 10
128.4949282360542
 20
130.3457613952872
 30
0.0
 10
128.9904960751941
 20
131.482145806055
 30
0.0
 10
129.4975829169533
 20
132.6132961602187
 30
0.0
  0
LINE
  5
B6
330
1F
100
AcDbEntity
  8
0
  6
Continuous
 62
     7
370
    15
100
AcDbLine
 10
128.0156503501
 20
129.2047504848
 30
0.0
 11
128.0156503501
 21
135.9598398721
 31
0.0
  0
SPLINE
  5
B7
330
1F
100
AcDbEntity
  8
0
  6
Continuous
 62
     7
370
    15
100
AcDbSpline
210
0.0
220
0.0
230
1.0
 70
     8
 71
     3
 72
    12
 73
     8
 74
     0
 42
0.00000001
 43
0.00000001
 40
0.0
 40
0.0
 40
0.0
 40
0.0
 40
0.25
 40
0.25
 40
0.5
 40
0.5
 40
1.0
 40
1.0
 40
1.0
 40
1.0
 10
133.4556500854643
 20
132.6132961602187
 30
0.0
 10
133.54684980729
 20
132.6132961602187
 30
0.0
 10
133.637444816426
 20
132.5850764616308
 30
0.0
 10
133.7908575428726
 20
132.4906334543827
 30
0.0
 10
133.8560664101963
 20
132.4243464776774
 30
0.0
 10
134.0088509395362
 20
132.1987216543891
 30
0.0
 10
134.0556500854643
 20
132.0162953913566
 30
0.0
 10
134.0556500854643
 20
131.8355587591097
 30
0.0
  0
LINE
  5
B8
330
1F
100
AcDbEntity
  8
0
  6
Continuous
 62
     7
370
    15
100
AcDbLine
 10
128.0156503501
 20
128.2904729759
 30
0.0
 11
128.0156503501
 21
129.2047504848
 31
0.0
  0
LINE
  5
B9
330
1F
100
AcDbEntity
  8
0
  6
Continuous
 62
     7
370
    15
100
AcDbLine
 10
134.0556497755
 20
131.8355579441
 30
0.0
 11
134.0556497755
 21
128.0046072369
 31
0.0
  0
LINE
  5
BA
330
1F
100
AcDbEntity
  8
0
  6
Continuous
 62
     7
370
    15
100
AcDbLine
 10
124.1956501337
 20
129.2047504848
 30
0.0
 11
124.1956501337
 21
128.2904729759
 31
0.0
  0
SPLINE
  5
BB
330
1F
100
AcDbEntity
  8
0
  6
Continuous
 62
     7
370
    15
100
AcDbSpline
210
0.0
220
0.0
230
1.0
 70
     8
 71
     3
 72
    10
 73
     6
 74
     0
 42
0.00000001
 43
0.00000001
 40
0.0
 40
0.0
 40
0.0
 40
0.0
 40
0.5
 40
0.5
 40
1.0
 40
1.0
 40
1.0
 40
1.0
 10
134.0556500854643
 20
138.0010468216151
 30
0.0
 10
134.0556500854643
 20
138.161452087966
 30
0.0
 10
133.9934122543574
 20
138.3205139009546
 30
0.0
 10
133.7742773306149
 20
138.5514263665849
 30
0.0
 10
133.616688635623
 20
138.6218019710155
 30
0.0
 10
133.4556500854643
 20
138.6218019710155
 30
0.0
  0
LINE
  5
BC
330
1F
100
AcDbEntity
  8
0
  6
Continuous
 62
     7
370
    15
100
AcDbLine
 10
134.0556497755
 20
131.8355579441
 30
0.0
 11
134.0556497755
 21
138.0010474986
 31
0.0
  0
ARC
  5
BD
330
1F
100
AcDbEntity
  8
0
  6
Continuous
 62
     7
370
    15
100
AcDbCircle
 10
116.1058622697
 20
126.8595877228
 30
0.0
 40
7.250103960820268
100
AcDbArc
 50
70.9627162761
 51
109.097213231
  0
SPLINE
  5
BE
330
1F
100
AcDbEntity
  8
0
  6
Continuous
 62
     7
370
    15
100
AcDbSpline
210
0.0
220
0.0
230
1.0
 70
     8
 71
     3
 72
    39
 73
    35
 74
     0
 42
0.00000001
 43
0.00000001
 40
-0.0928043551758301
 40
-0.0617048467358989
 40
-0.030524529860355
 40
0.0
 40
0.030537953771286
 40
0.061739673344431
 40
0.0928511562863617
 40
0.1239581635814538
 40
0.1551451718002105
 40
0.1867314500165876
 40
0.2185162744046735
 40
0.2499298363871198
 40
0.2813650559777263
 40
0.3132232878484558
 40
0.3448819419202137
 40
0.3761241187089453
 40
0.4072203283790693
 40
0.4382883502617212
 40
0.4694286048562044
 40
0.5000111438430779
 40
0.5305819932533677
 40
0.5617670451414598
 40
0.5928468450959136
 40
0.6239637556318113
 40
0.6551794805640025
 40
0.6868189513443358
 40
0.7186229856199268
 40
0.7500614968638398
 40
0.7814671780290653
 40
0.813297598151938
 40
0.8449019848410999
 40
0.8761138750536636
 40
0.9071956448241698
 40
0.938295153264101
 40
0.9694754701396449
 40
0.9999999999999999
 40
1.030537953771286
 40
1.061739673344431
 40
1.092851156286362
 10
189.5646605020148
 20
103.2154002971222
 30
0.0
 10
188.605510130261
 20
103.1173144833917
 30
0.0
 10
187.6461394600918
 20
103.2154649947466
 30
0.0
 10
186.7257072007059
 20
103.510039214739
 30
0.0
 10
185.8754262536686
 20
103.972437827885
 30
0.0
 10
185.1382603911851
 20
104.5953691311864
 30
0.0
 10
184.5326415371193
 20
105.3531708640805
 30
0.0
 10
184.0839778771008
 20
106.2242320304449
 30
0.0
 10
183.7988806923395
 20
107.1687261069652
 30
0.0
 10
183.7044598090646
 20
108.1525706939596
 30
0.0
 10
183.7994586131798
 20
109.1371106540681
 30
0.0
 10
184.0849164577076
 20
110.0832803352732
 30
0.0
 10
184.5338317864354
 20
110.9565457444733
 30
0.0
 10
185.1398835028552
 20
111.7155603072698
 30
0.0
 10
185.876810202256
 20
112.3387374548173
 30
0.0
 10
186.7259699785599
 20
112.800772546093
 30
0.0
 10
187.6461380428457
 20
113.094309059894
 30
0.0
 10
188.6058360178903
 20
113.1917416348526
 30
0.0
 10
189.5659775111654
 20
113.0940440275274
 30
0.0
 10
190.4864650161057
 20
112.799991247192
 30
0.0
 10
191.3362781724389
 20
112.3374984924942
 30
0.0
 10
192.0729926065962
 20
111.7139325359391
 30
0.0
 10
192.6785407671028
 20
110.9548749138314
 30
0.0
 10
193.1268821101646
 20
110.0824583795315
 30
0.0
 10
193.4117939687333
 20
109.1369023568909
 30
0.0
 10
193.506828960557
 20
108.1530009444121
 30
0.0
 10
193.4125175671801
 20
107.1687033486537
 30
0.0
 10
193.1270325091182
 20
106.223704971057
 30
0.0
 10
192.6779273229587
 20
105.351849512281
 30
0.0
 10
192.0718568072244
 20
104.5941400660458
 30
0.0
 10
191.3345015153895
 20
103.9716496586576
 30
0.0
 10
190.484647444544
 20
103.5097484934785
 30
0.0
 10
189.5646605020148
 20
103.2154002971222
 30
0.0
 10
188.605510130261
 20
103.1173144833917
 30
0.0
 10
187.6461394600918
 20
103.2154649947466
 30
0.0
  0
LINE
  5
BF
330
1F
100
AcDbEntity
  8
0
  6
Continuous
 62
     7
370
    15
100
AcDbLine
 10
197.3831187072
 20
90.6546064233
 30
0.0
 11
197.3831187072
 21
125.6546065724
 31
0.0
  0
LINE
  5
C0
330
1F
100
AcDbEntity
  8
0
  6
Continuous
 62
     7
370
    15
100
AcDbLine
 10
167.717059988
 20
125.5089086061
 30
0.0
 11
167.8501832369
 21
125.4983567214
 31
0.0
  0
SPLINE
  5
C1
330
1F
100
AcDbEntity
  8
0
  6
Continuous
 62
     7
370
    15
100
AcDbSpline
210
0.0
220
0.0
230
1.0
 70
     8
 71
     3
 72
    17
 73
    13
 74
     0
 42
0.00000001
 43
0.00000001
 40
0.0
 40
0.0
 40
0.0
 40
0.0
 40
0.060611256144333
 40
0.1453894421289606
 40
0.236193917704197
 40
0.3392241014843955
 40
0.4557098777608706
 40
0.5812042738498241
 40
0.7091063258330165
 40
0.8325178934387454
 40
0.9248681665842616
 40
0.9999999999999999
 40
0.9999999999999999
 40
0.9999999999999999
 40
0.9999999999999999
 10
173.5207940521391
 20
125.6494675343903
 30
0.0
 10
173.5200064800494
 20
125.6493159513709
 30
0.0
 10
173.5181173149992
 20
125.6489523461259
 30
0.0
 10
173.166347850196
 20
125.5981680346525
 30
0.0
 10
172.5501472691278
 20
125.5215103964819
 30
0.0
 10
171.6430332606971
 20
125.436557377726
 30
0.0
 10
170.4906534086395
 20
125.3812132991538
 30
0.0
 10
169.2070836510154
 20
125.3921220726562
 30
0.0
 10
167.9866608880502
 20
125.4743958013829
 30
0.0
 10
167.1099870564625
 20
125.5753207564486
 30
0.0
 10
166.6213345898395
 20
125.6446827460133
 30
0.0
 10
166.5943130406011
 20
125.6488447308474
 30
0.0
 10
166.5821912768038
 20
125.65071178135
 30
0.0
  0
SPLINE
  5
C2
330
1F
100
AcDbEntity
  8
0
  6
Continuous
 62
     7
370
    15
100
AcDbSpline
210
0.0
220
0.0
230
1.0
 70
     8
 71
     3
 72
     9
 73
     5
 74
     0
 42
0.00000001
 43
0.00000001
 40
0.0
 40
0.0
 40
0.0
 40
0.0
 40
0.214284372022458
 40
1.0
 40
1.0
 40
1.0
 40
1.0
 10
167.131485331312
 20
125.5762879317673
 30
0.0
 10
167.1625012372738
 20
125.5721274470311
 30
0.0
 10
167.3072430384098
 20
125.5527117299773
 30
0.0
 10
167.5367403576953
 20
125.5281819990661
 30
0.0
 10
167.7170599880369
 20
125.5089086061391
 30
0.0
  0
SPLINE
  5
C3
330
1F
100
AcDbEntity
  8
0
  6
Continuous
 62
     7
370
    15
100
AcDbSpline
210
0.0
220
0.0
230
1.0
 70
     8
 71
     3
 72
    68
 73
    64
 74
     0
 42
0.00000001
 43
0.00000001
 40
-0.062499999999999
 40
-0.062499999999999
 40
0.0
 40
0.0
 40
0.0312500000000004
 40
0.0312500000000004
 40
0.0625000000000007
 40
0.0625000000000007
 40
0.0937500000000011
 40
0.0937500000000011
 40
0.1250000000000014
 40
0.1250000000000014
 40
0.1562500000000018
 40
0.1562500000000018
 40
0.1875000000000022
 40
0.1875000000000022
 40
0.2187500000000025
 40
0.2187500000000025
 40
0.2500000000000029
 40
0.2500000000000029
 40
0.2812500000000032
 40
0.2812500000000032
 40
0.3125000000000036
 40
0.3125000000000036
 40
0.343750000000004
 40
0.343750000000004
 40
0.3750000000000043
 40
0.3750000000000043
 40
0.4062500000000047
 40
0.4062500000000047
 40
0.4375000000000051
 40
0.4375000000000051
 40
0.4687500000000054
 40
0.4687500000000054
 40
0.5000000000000058
 40
0.5000000000000058
 40
0.5312500000000061
 40
0.5312500000000061
 40
0.5625000000000064
 40
0.5625000000000064
 40
0.5937500000000069
 40
0.5937500000000069
 40
0.6250000000000063
 40
0.6250000000000063
 40
0.6562500000000058
 40
0.6562500000000058
 40
0.6875000000000052
 40
0.6875000000000052
 40
0.7187500000000048
 40
0.7187500000000048
 40
0.7500000000000042
 40
0.7500000000000042
 40
0.7812500000000037
 40
0.7812500000000037
 40
0.8125000000000031
 40
0.8125000000000031
 40
0.8437500000000027
 40
0.8437500000000027
 40
0.8750000000000021
 40
0.8750000000000021
 40
0.9062500000000016
 40
0.9062500000000016
 40
0.937500000000001
 40
0.937500000000001
 40
1.0
 40
1.0
 40
1.03125
 40
1.03125
 10
167.377992947654
 20
110.1423521244728
 30
0.0
 10
167.8865926904864
 20
110.5409589017742
 30
0.0
 10
168.0658521213148
 20
110.6559428656445
 30
0.0
 10
168.441933235367
 20
110.8538646630088
 30
0.0
 10
168.6398087149649
 20
110.9370890867865
 30
0.0
 10
169.0488426310518
 20
111.0697990980366
 30
0.0
 10
169.2565717472093
 20
111.1183688638637
 30
0.0
 10
169.6781558099143
 20
111.1817337350874
 30
0.0
 10
169.8936470173064
 20
111.1964644765064
 30
0.0
 10
170.323141767647
 20
111.1907544848073
 30
0.0
 10
170.5352670653651
 20
111.1706346591177
 30
0.0
 10
170.9543725013154
 20
111.0964564418585
 30
0.0
 10
171.1628301270095
 20
111.041867838382
 30
0.0
 10
171.5673370107448
 20
110.898411904592
 30
0.0
 10
171.7609208104211
 20
110.8107228092552
 30
0.0
 10
172.1306111503013
 20
110.6029543752303
 30
0.0
 10
172.3078709764079
 20
110.4819625258701
 30
0.0
 10
172.6376501665275
 20
110.2073473607765
 30
0.0
 10
172.7869760019084
 20
110.0567328262657
 30
0.0
 10
173.0531844861963
 20
109.7275639109702
 30
0.0
 10
173.1712550378957
 20
109.5466985063126
 30
0.0
 10
173.3634926730768
 20
109.1628267525919
 30
0.0
 10
173.4365385881669
 20
108.9633291825446
 30
0.0
 10
173.5343526552663
 20
108.5484536309155
 30
0.0
 10
173.5584978921021
 20
108.3303876323074
 30
0.0
 10
173.5522466823043
 20
107.9028195215548
 30
0.0
 10
173.5226845728407
 20
107.6894270337732
 30
0.0
 10
173.4117545757085
 20
107.2717868856283
 30
0.0
 10
173.3322825461821
 20
107.0732327743905
 30
0.0
 10
173.1294621242571
 20
106.694811287486
 30
0.0
 10
173.0061441727167
 20
106.5162712440642
 30
0.0
 10
172.7289001707268
 20
106.1913293933298
 30
0.0
 10
172.5722402532472
 20
106.0416460841466
 30
0.0
 10
172.2358139055557
 20
105.775997244082
 30
0.0
 10
172.0567285866017
 20
105.6599763338464
 30
0.0
 10
171.6781468526625
 20
105.4592391153675
 30
0.0
 10
171.4782536388107
 20
105.3748357103395
 30
0.0
 10
171.0721876373177
 20
105.2420735783646
 30
0.0
 10
170.8643412074037
 20
105.1927297837765
 30
0.0
 10
170.4390309324017
 20
105.1279389653539
 30
0.0
 10
170.2230978748168
 20
105.1130461142048
 30
0.0
 10
169.7962517316319
 20
105.1179924834083
 30
0.0
 10
169.5836594501365
 20
105.1375396802745
 30
0.0
 10
169.1601866828647
 20
105.2118764889343
 30
0.0
 10
168.9508894456069
 20
105.2667364081034
 30
0.0
 10
168.5494051647701
 20
105.4086266747287
 30
0.0
 10
168.3553825021676
 20
105.4959112351674
 30
0.0
 10
167.9816401603482
 20
105.7054949074038
 30
0.0
 10
167.8029152214793
 20
105.8278033020352
 30
0.0
 10
167.4765071190235
 20
106.0993625047706
 30
0.0
 10
167.3267334291305
 20
106.2496273568501
 30
0.0
 10
167.0571512802664
 20
106.5827159968344
 30
0.0
 10
166.9386928198087
 20
106.7649314490523
 30
0.0
 10
166.747640198223
 20
107.147006000304
 30
0.0
 10
166.6727113397627
 20
107.3518216946042
 30
0.0
 10
166.5753550407337
 20
107.7703764371317
 30
0.0
 10
166.5524126282088
 20
107.9826629699584
 30
0.0
 10
166.5596138360138
 20
108.4134502182949
 30
0.0
 10
166.5904700736122
 20
108.6290669496819
 30
0.0
 10
166.7015702031994
 20
109.0426673324219
 30
0.0
 10
166.7832728470301
 20
109.2454738509479
 30
0.0
 10
167.0890880421537
 20
109.8112873627724
 30
0.0
 10
167.377992947654
 20
110.1423521244728
 30
0.0
 10
167.8865926904864
 20
110.5409589017742
 30
0.0
  0
LINE
  5
C4
330
1F
100
AcDbEntity
  8
0
  6
Continuous
 62
     7
370
    15
100
AcDbLine
 10
167.717059988
 20
90.8003043896
 30
0.0
 11
167.5704400125
 21
90.7831699168
 31
0.0
  0
SPLINE
  5
C5
330
1F
100
AcDbEntity
  8
0
  6
Continuous
 62
     7
370
    15
100
AcDbSpline
210
0.0
220
0.0
230
1.0
 70
     8
 71
     3
 72
    17
 73
    13
 74
     0
 42
0.00000001
 43
0.00000001
 40
0.0
 40
0.0
 40
0.0
 40
0.0
 40
0.0475612364512451
 40
0.1322078686553305
 40
0.221550337390591
 40
0.3224432951573316
 40
0.4369890537764913
 40
0.5614990592304285
 40
0.6894058423795529
 40
0.8140492158182898
 40
0.908549859321756
 40
1.0
 40
1.0
 40
1.0
 40
1.0
 10
166.5972265484484
 20
90.6607494270476
 30
0.0
 10
166.5899569345811
 20
90.65968726609337
 30
0.0
 10
166.5697492985512
 20
90.65673473486405
 30
0.0
 10
166.874621512072
 20
90.70132022357703
 30
0.0
 10
167.4458431567927
 20
90.77446822195598
 30
0.0
 10
168.3111090112727
 20
90.86048186777903
 30
0.0
 10
169.4298928071582
 20
90.92302483656186
 30
0.0
 10
170.7050699969309
 20
90.92388826527936
 30
0.0
 10
171.9493923425798
 20
90.85081946710282
 30
0.0
 10
172.8825106412286
 20
90.74931281959384
 30
0.0
 10
173.4546539254453
 20
90.66993524038956
 30
0.0
 10
173.5181731386004
 20
90.6602679039434
 30
0.0
 10
173.5494117322119
 20
90.65551353153312
 30
0.0
  0
LINE
  5
C6
330
1F
100
AcDbEntity
  8
0
  6
Continuous
 62
     7
370
    15
100
AcDbLine
 10
167.9118665936
 20
90.8156563109
 30
0.0
 11
167.717059988
 21
90.8003043896
 31
0.0
  0
SPLINE
  5
C7
330
1F
100
AcDbEntity
  8
0
  6
Continuous
 62
     7
370
    15
100
AcDbSpline
210
0.0
220
0.0
230
1.0
 70
     8
 71
     3
 72
    49
 73
    45
 74
     0
 42
0.00000001
 43
0.00000001
 40
-0.0453289120054717
 40
-0.028849640662905
 40
-0.0137448999165038
 40
0.0
 40
0.0161749300514758
 40
0.0341951114533116
 40
0.0540821746203641
 40
0.0758519784570563
 40
0.099516387870162
 40
0.1250844199077912
 40
0.1502122363042682
 40
0.1736095456503984
 40
0.1952861273064582
 40
0.2152544869637278
 40
0.2335308377915742
 40
0.2501365530631944
 40
0.285005026208095
 40
0.3265790049403856
 40
0.3749615561882041
 40
0.3970363947906152
 40
0.4177011086878522
 40
0.4369611297394458
 40
0.4548232786298828
 40
0.4712962209798605
 40
0.4863911248999487
 40
0.5001226324881332
 40
0.5342115554730397
 40
0.5757710868835442
 40
0.6248974126761343
 40
0.6465640803625305
 40
0.6669596739971762
 40
0.686090130305902
 40
0.7039627233113028
 40
0.7205864555654017
 40
0.7359725999378288
 40
0.7501354635862321
 40
0.7849405197653255
 40
0.8264670213198989
 40
0.8748182531463194
 40
0.8968858172443152
 40
0.9175466010994383
 40
0.936806071470476
 40
0.9546710879945282
 40
0.9711503593370949
 40
0.986255100083496
 40
0.9999999999999999
 40
1.016174930051476
 40
1.034195111453311
 40
1.054082174620364
 10
188.2244273936246
 20
103.9158302270845
 30
0.0
 10
188.6273872363928
 20
103.8983121086063
 30
0.0
 10
189.0565237103469
 20
103.9202702914864
 30
0.0
 10
189.5344327915193
 20
103.9969633581941
 30
0.0
 10
190.0468901907891
 20
104.1435184559987
 30
0.0
 10
190.5808026309691
 20
104.3752128638995
 30
0.0
 10
191.118346964976
 20
104.7061454618581
 30
0.0
 10
191.6201038147197
 20
105.1336013763236
 30
0.0
 10
192.0468438064672
 20
105.6327762781164
 30
0.0
 10
192.3761663666022
 20
106.1630343350591
 30
0.0
 10
192.6095839000839
 20
106.693623169787
 30
0.0
 10
192.7593633794043
 20
107.2075473575459
 30
0.0
 10
192.8390512733648
 20
107.6920881039161
 30
0.0
 10
192.8721710376107
 20
108.3162419731639
 30
0.0
 10
192.7800122047871
 20
109.1508881388589
 30
0.0
 10
192.3933781292449
 20
110.2051489775237
 30
0.0
 10
191.7962296808651
 20
111.0162401504308
 30
0.0
 10
191.1884119569369
 20
111.5456229722065
 30
0.0
 10
190.7290081815995
 20
111.8489687555764
 30
0.0
 10
190.2680944210748
 20
112.0764231322146
 30
0.0
 10
189.8179918753151
 20
112.2366539899889
 30
0.0
 10
189.388502904801
 20
112.33903147346
 30
0.0
 10
188.9867869976387
 20
112.3933706500063
 30
0.0
 10
188.4238505076204
 20
112.4179148435818
 30
0.0
 10
187.6222223336322
 20
112.3311314303832
 30
0.0
 10
186.5669773327537
 20
111.9498014953928
 30
0.0
 10
185.7517259699145
 20
111.3527115558718
 30
0.0
 10
185.2211361285357
 20
110.7452309242711
 30
0.0
 10
184.920110837122
 20
110.2928106707308
 30
0.0
 10
184.6919708339424
 20
109.8359718027546
 30
0.0
 10
184.529316803595
 20
109.3863053011668
 30
0.0
 10
184.4240067816588
 20
108.9532521005746
 30
0.0
 10
184.3673277503426
 20
108.5438887579909
 30
0.0
 10
184.3417292497396
 20
107.9680684359213
 30
0.0
 10
184.431883731204
 20
107.1563325139882
 30
0.0
 10
184.8183716163337
 20
106.1034583139632
 30
0.0
 10
185.4150624298971
 20
105.2930447402485
 30
0.0
 10
186.0225327302126
 20
104.7638699185638
 30
0.0
 10
186.4818039645495
 20
104.4605277240986
 30
0.0
 10
186.9426705792394
 20
104.2330160195365
 30
0.0
 10
187.3928222273395
 20
104.0726973651815
 30
0.0
 10
187.822477022001
 20
103.9702378420762
 30
0.0
 10
188.2244273936246
 20
103.9158302270845
 30
0.0
 10
188.6273872363928
 20
103.8983121086063
 30
0.0
 10
189.0565237103469
 20
103.9202702914864
 30
0.0
  0
CIRCLE
  5
C8
330
1F
100
AcDbEntity
  8
0
  6
Continuous
 62
     7
370
    15
100
AcDbCircle
 10
170.0556500855
 20
108.1546064979
 30
0.0
 40
2.5
  0
LINE
  5
C9
330
1F
100
AcDbEntity
  8
0
  6
Continuous
 62
     7
370
    15
100
AcDbLine
 10
208.1056515756
 20
96.9287468633
 30
0.0
 11
208.1056515756
 21
119.3804661324
 31
0.0
  0
LINE
  5
CA
330
1F
100
AcDbEntity
  8
0
  6
Continuous
 62
     7
370
    15
100
AcDbLine
 10
208.1765587511
 20
100.6140927365
 30
0.0
 11
208.1705535832
 21
100.5738903349
 31
0.0
  0
ARC
  5
CB
330
1F
100
AcDbEntity
  8
0
  6
Continuous
 62
     7
370
    15
100
AcDbCircle
 10
186.3810938418
 20
101.1613905148
 30
0.0
 40
21.80233532150594
100
AcDbArc
 50
358.5615693619
 51
4.841083243
  0
LWPOLYLINE
  5
CC
330
1F
100
AcDbEntity
  8
0
  6
Continuous
 62
     7
370
    15
100
AcDbPolyline
 90
        8
 70
   128
 43
0.0
 10
208.1575821223
 20
114.7353425203
 10
208.1647719326
 20
115.1540036826
 10
208.1656809034
 20
115.4867987661
 10
208.1601749244
 20
115.6887812121
 10
208.1490065041
 20
115.7326725824
 10
208.1336806598
 20
115.6125454744
 10
208.1162686529
 20
115.3446230618
 10
208.1056515756
 20
115.1239443151
  0
ARC
  5
CD
330
1F
100
AcDbEntity
  8
0
  6
Continuous
 62
     7
370
    15
100
AcDbCircle
 10
181.5177283653
 20
115.1811730448
 30
0.0
 40
26.64358408800087
100
AcDbArc
 50
356.2958209743
 51
359.0412175947
  0
LINE
  5
CE
330
1F
100
AcDbEntity
  8
0
  6
Continuous
 62
     7
370
    15
100
AcDbLine
 10
208.1210221234
 20
115.1788462466
 30
0.0
 11
208.1056515756
 21
114.771436858
 31
0.0
  0
LINE
  5
CF
330
1F
100
AcDbEntity
  8
0
  6
Continuous
 62
     7
370
    15
100
AcDbLine
 10
208.1154267373
 20
113.8575900858
 30
0.0
 11
208.1056515756
 21
113.8036395004
 31
0.0
  0
LINE
  5
D0
330
1F
100
AcDbEntity
  8
0
  6
Continuous
 62
     7
370
    15
100
AcDbLine
 10
208.1154267373
 20
113.8575900858
 30
0.0
 11
208.1461752834
 21
114.672408863
 31
0.0
  0
LINE
  5
D1
330
1F
100
AcDbEntity
  8
0
  6
Continuous
 62
     7
370
    15
100
AcDbLine
 10
208.1489692512
 20
115.3330364777
 30
0.0
 11
208.1461752834
 21
114.672408863
 31
0.0
  0
LINE
  5
D2
330
1F
100
AcDbEntity
  8
0
  6
Continuous
 62
     7
370
    15
100
AcDbLine
 10
208.1489692512
 20
115.3330364777
 30
0.0
 11
208.1210221234
 21
115.1788462466
 31
0.0
  0
LINE
  5
D3
330
1F
100
AcDbEntity
  8
0
  6
Continuous
 62
     7
370
    15
100
AcDbLine
 10
208.1056515756
 20
113.857862032
 30
0.0
 11
208.1154267373
 21
113.8575900858
 31
0.0
  0
LINE
  5
D4
330
1F
100
AcDbEntity
  8
0
  6
Continuous
 62
     7
370
    15
100
AcDbLine
 10
208.1056515756
 20
114.6735343663
 30
0.0
 11
208.1461752834
 21
114.672408863
 31
0.0
  0
ARC
  5
D5
330
1F
100
AcDbEntity
  8
0
  6
HIDDEN
 62
     7
370
     0
100
AcDbCircle
 10
188.6056500855
 20
108.1546064979
 30
0.0
 40
5.000000000000012
100
AcDbArc
 50
352.9349399573
 51
43.9440796877
  0
ARC
  5
D6
330
1F
100
AcDbEntity
  8
0
  6
HIDDEN
 62
     7
370
     0
100
AcDbCircle
 10
188.6056500855
 20
108.1546064979
 30
0.0
 40
5.000000000000004
100
AcDbArc
 50
259.6313999166
 51
278.7405332912
  0
ARC
  5
D7
330
1F
100
AcDbEntity
  8
0
  6
HIDDEN
 62
     7
370
     0
100
AcDbCircle
 10
188.6056500855
 20
108.1546064979
 30
0.0
 40
5.000000000000028
100
AcDbArc
 50
314.5958516173
 51
352.9349399573
  0
CIRCLE
  5
D8
330
1F
100
AcDbEntity
  8
0
  6
HIDDEN
 62
     7
370
     0
100
AcDbCircle
 10
188.6056500855
 20
108.1546064979
 30
0.0
 40
2.499999999999991
  0
CIRCLE
  5
D9
330
1F
100
AcDbEntity
  8
0
  6
HIDDEN
 62
     7
370
     0
100
AcDbCircle
 10
188.6056500855
 20
108.1546064979
 30
0.0
 40
3.500000000000004
  0
LINE
  5
DA
330
1F
100
AcDbEntity
  8
0
  6
HIDDEN
 62
     7
370
     0
100
AcDbLine
 10
122.7137175458
 20
132.613296113
 30
0.0
 11
122.7137175458
 21
128.0046072369
 31
0.0
  0
ARC
  5
DB
330
1F
100
AcDbEntity
  8
0
  6
HIDDEN
 62
     7
370
     0
100
AcDbCircle
 10
116.3896139947
 20
120.6499658542
 30
0.0
 40
3.676427324716421
100
AcDbArc
 50
265.5701197792
 51
12.0297178296
  0
ARC
  5
DC
330
1F
100
AcDbEntity
  8
0
  6
HIDDEN
 62
     7
370
     0
100
AcDbCircle
 10
115.8045197895
 20
120.6307761525
 30
0.0
 40
3.658668193147299
100
AcDbArc
 50
166.3083546058
 51
274.7211322783
  0
LINE
  5
DD
330
1F
100
AcDbEntity
  8
0
  6
HIDDEN
 62
     7
370
     0
100
AcDbLine
 10
96.1008005845
 20
84.630007348
 30
0.0
 11
95.8519353601
 21
84.6067447728
 31
0.0
  0
LINE
  5
DE
330
1F
100
AcDbEntity
  8
0
  6
HIDDEN
 62
     7
370
     0
100
AcDbLine
 10
95.7193746301
 20
131.7146927631
 30
0.0
 11
96.1007074523
 21
131.6791888839
 31
0.0
  0
SPLINE
  5
DF
330
1F
100
AcDbEntity
  8
0
  6
HIDDEN
 62
     7
370
     0
100
AcDbSpline
210
0.0
220
0.0
230
1.0
 70
     8
 71
     3
 72
    10
 73
     6
 74
     0
 42
0.00000001
 43
0.00000001
 40
0.0
 40
0.0
 40
0.0
 40
0.0
 40
0.4476910393873851
 40
0.8953654164280749
 40
1.0
 40
1.0
 40
1.0
 40
1.0
 10
101.8606521258803
 20
127.9921349650296
 30
0.0
 10
102.1073514941547
 20
128.0216465095645
 30
0.0
 10
102.6007410489463
 20
128.0806685002616
 30
0.0
 10
102.8897505523408
 20
128.094609633313
 30
0.0
 10
102.8294370998523
 20
128.0907218422199
 30
0.0
 10
102.8180107543917
 20
128.0899853026541
 30
0.0
  0
SPLINE
  5
E0
330
1F
100
AcDbEntity
  8
0
  6
HIDDEN
 62
     7
370
     0
100
AcDbSpline
210
0.0
220
0.0
230
1.0
 70
     8
 71
     3
 72
    10
 73
     6
 74
     0
 42
0.00000001
 43
0.00000001
 40
0.0
 40
0.0
 40
0.0
 40
0.0
 40
0.3457476253137277
 40
0.7967818090584535
 40
1.0
 40
1.0
 40
1.0
 40
1.0
 10
102.8180326404722
 20
88.21922769304835
 30
0.0
 10
102.8084732473103
 20
88.21978239343935
 30
0.0
 10
102.7864434486381
 20
88.22106071076873
 30
0.0
 10
102.3693850022959
 20
88.25102856440344
 30
0.0
 10
101.9812204333673
 20
88.30142448688262
 30
0.0
 10
101.8606521258803
 20
88.3170780306729
 30
0.0
  0
SPLINE
  5
E1
330
1F
100
AcDbEntity
  8
0
  6
HIDDEN
 62
     7
370
     0
100
AcDbSpline
210
0.0
220
0.0
230
1.0
 70
     8
 71
     3
 72
    15
 73
    11
 74
     0
 42
0.00000001
 43
0.00000001
 40
0.0
 40
0.0
 40
0.0
 40
0.0
 40
0.1409172263352446
 40
0.281889861653346
 40
0.4212989542022905
 40
0.5593768841673977
 40
0.6988856533029646
 40
0.840367202775075
 40
0.9813164473602943
 40
1.0
 40
1.0
 40
1.0
 40
1.0
 10
101.8606521258803
 20
88.3170780306729
 30
0.0
 10
101.5446104062676
 20
88.35743135244759
 30
0.0
 10
100.9124026986992
 20
88.43815386301742
 30
0.0
 10
99.67823952638503
 20
88.51471180940018
 30
0.0
 10
98.40751740256937
 20
88.51003374138524
 30
0.0
 10
97.21895793603291
 20
88.429237276162
 30
0.0
 10
96.22583525674249
 20
88.3048427293078
 30
0.0
 10
95.58642672542872
 20
88.19843578254657
 30
0.0
 10
95.30540673707532
 20
88.14535872323701
 30
0.0
 10
95.37196730556411
 20
88.15761321519891
 30
0.0
 10
95.3797576087268
 20
88.15904749092185
 30
0.0
  0
SPLINE
  5
E2
330
1F
100
AcDbEntity
  8
0
  6
HIDDEN
 62
     7
370
     0
100
AcDbSpline
210
0.0
220
0.0
230
1.0
 70
     8
 71
     3
 72
    15
 73
    11
 74
     0
 42
0.00000001
 43
0.00000001
 40
0.0
 40
0.0
 40
0.0
 40
0.0
 40
0.1201202497733958
 40
0.2584739452442804
 40
0.3987302041697883
 40
0.5404022600041716
 40
0.680739511736143
 40
0.8190355942651634
 40
0.9577823154231621
 40
1.0
 40
1.0
 40
1.0
 40
1.0
 10
95.3797576087268
 20
128.1501655047806
 30
0.0
 10
95.40046685753028
 20
128.1461410007063
 30
0.0
 10
95.4450288797653
 20
128.1374810999178
 30
0.0
 10
96.00746834949372
 20
128.0381881812066
 30
0.0
 10
96.90093060494098
 20
127.9142721694953
 30
0.0
 10
98.05990942879315
 20
127.8145607939616
 30
0.0
 10
99.33294629761288
 20
127.7874237362636
 30
0.0
 10
100.56723164434
 20
127.8427610983937
 30
0.0
 10
101.3951947220359
 20
127.9292408341851
 30
0.0
 10
101.7726050346822
 20
127.9802377533222
 30
0.0
 10
101.8606521258803
 20
127.9921349650296
 30
0.0
  0
LINE
  5
E3
330
1F
100
AcDbEntity
  8
0
  6
HIDDEN
 62
     7
370
     0
100
AcDbLine
 10
89.1096255812
 20
91.154605574
 30
0.0
 11
89.1096255812
 21
125.1546074217
 31
0.0
  0
LWPOLYLINE
  5
E4
330
1F
100
AcDbEntity
  8
0
  6
HIDDEN
 62
     7
370
     0
100
AcDbPolyline
 90
       14
 70
   128
 43
0.0
 10
116.1056504654
 20
130.1002096897
 10
116.9108440238
 20
130.1411487674
 10
117.6830734196
 20
130.2622933453
 10
118.3907230454
 20
130.4586813366
 10
119.0048213186
 20
130.7222754275
 10
119.5002271863
 20
131.0422815895
 10
119.8566583055
 20
131.4055979764
 10
120.0595236453
 20
131.7973532295
 10
120.1005158084
 20
132.2015081113
 10
119.9779584142
 20
132.6015148824
 10
119.6968684974
 20
132.9809971666
 10
119.2687534797
 20
133.3244205033
 10
118.7111399206
 20
133.6177256471
 10
118.4707255172
 20
133.7131582713
  0
LWPOLYLINE
  5
E5
330
1F
100
AcDbEntity
  8
0
  6
HIDDEN
 62
     7
370
     0
100
AcDbPolyline
 90
       14
 70
   128
 43
0.0
 10
113.7338317069
 20
133.7106809532
 10
113.500160079
 20
133.6177256471
 10
112.9425469856
 20
133.3244205033
 10
112.5144319678
 20
132.9809971666
 10
112.2333415854
 20
132.6015148824
 10
112.1107841911
 20
132.2015081113
 10
112.1517768199
 20
131.7973532295
 10
112.3546416941
 20
131.4055979764
 10
112.7110732789
 20
131.0422815895
 10
113.2064791466
 20
130.7222754275
 10
113.8205774198
 20
130.4586813366
 10
114.52822658
 20
130.2622933453
 10
115.3004559758
 20
130.1411487674
 10
116.1056504654
 20
130.1002096897
  0
SPLINE
  5
E6
330
1F
100
AcDbEntity
  8
0
  6
HIDDEN
 62
     7
370
     0
100
AcDbSpline
210
0.0
220
0.0
230
1.0
 70
     8
 71
     3
 72
    83
 73
    79
 74
     0
 42
0.00000001
 43
0.00000001
 40
-0.0312500000000001
 40
-0.0312500000000001
 40
0.0
 40
0.0
 40
0.0312499999999985
 40
0.0312499999999985
 40
0.0468749999999977
 40
0.0468749999999977
 40
0.062499999999997
 40
0.062499999999997
 40
0.0937499999999966
 40
0.0937499999999966
 40
0.1249999999999962
 40
0.1249999999999962
 40
0.1562499999999957
 40
0.1562499999999957
 40
0.1874999999999953
 40
0.1874999999999953
 40
0.2187499999999948
 40
0.2187499999999948
 40
0.2343749999999946
 40
0.2343749999999946
 40
0.2499999999999944
 40
0.2656249999999942
 40
0.2656249999999942
 40
0.281249999999994
 40
0.281249999999994
 40
0.3124999999999936
 40
0.3124999999999936
 40
0.3281249999999934
 40
0.3281249999999934
 40
0.3437499999999932
 40
0.3437499999999932
 40
0.359374999999993
 40
0.359374999999993
 40
0.3749999999999927
 40
0.3749999999999927
 40
0.4062499999999932
 40
0.4062499999999932
 40
0.4374999999999936
 40
0.4374999999999936
 40
0.468749999999994
 40
0.468749999999994
 40
0.4999999999999944
 40
0.4999999999999944
 40
0.5312499999999949
 40
0.5312499999999949
 40
0.5624999999999954
 40
0.5624999999999954
 40
0.5781249999999957
 40
0.5781249999999957
 40
0.5937499999999959
 40
0.5937499999999959
 40
0.6249999999999963
 40
0.6249999999999963
 40
0.6562499999999969
 40
0.6562499999999969
 40
0.6874999999999973
 40
0.6874999999999973
 40
0.7031249999999976
 40
0.7031249999999976
 40
0.7187499999999978
 40
0.7187499999999978
 40
0.749999999999998
 40
0.749999999999998
 40
0.7812499999999983
 40
0.7812499999999983
 40
0.8124999999999986
 40
0.8124999999999986
 40
0.8437499999999988
 40
0.8437499999999988
 40
0.8749999999999991
 40
0.8749999999999991
 40
0.9062499999999993
 40
0.9062499999999993
 40
0.9374999999999996
 40
0.9374999999999996
 40
0.9687499999999999
 40
0.9687499999999999
 40
1.0
 40
1.0
 40
1.031249999999998
 40
1.031249999999998
 10
188.4705701469216
 20
102.845285098564
 30
0.0
 10
187.740730024007
 20
102.845285098564
 30
0.0
 10
187.3814720664803
 20
102.8771857788098
 30
0.0
 10
186.8507560665121
 20
102.9713163084298
 30
0.0
 10
186.6752219589387
 20
103.0104642652449
 30
0.0
 10
186.3269546600064
 20
103.1047349535529
 30
0.0
 10
186.1533258476535
 20
103.1602237706948
 30
0.0
 10
185.6453903329309
 20
103.3486750483241
 30
0.0
 10
185.3232168593756
 20
103.5031620079994
 30
0.0
 10
184.7114976852748
 20
103.8706325057193
 30
0.0
 10
184.4190020657335
 20
104.0866189447998
 30
0.0
 10
183.8890265136433
 20
104.5664370170623
 30
0.0
 10
183.6504293720791
 20
104.8298028713023
 30
0.0
 10
183.2271176387648
 20
105.4056265631069
 30
0.0
 10
183.0420727477261
 20
105.7208131958449
 30
0.0
 10
182.7464739786646
 20
106.3729526938458
 30
0.0
 10
182.6329807996753
 20
106.712991943057
 30
0.0
 10
182.516786377739
 20
107.2453583423817
 30
0.0
 10
182.4874317221346
 20
107.4258841211161
 30
0.0
 10
182.4484801521256
 20
107.7851718236339
 30
0.0
 10
182.4287657731419
 20
108.1448974955793
 30
0.0
 10
182.4471379186366
 20
108.5054913337863
 30
0.0
 10
182.4850047257572
 20
108.8665290420551
 30
0.0
 10
182.5138997215499
 20
109.0476256228301
 30
0.0
 10
182.6278104531349
 20
109.5781288207058
 30
0.0
 10
182.7400168752534
 20
109.9193876716405
 30
0.0
 10
182.9620689951482
 20
110.4131311153987
 30
0.0
 10
183.0454826015139
 20
110.5750863421552
 30
0.0
 10
183.2266380070348
 20
110.8858060953061
 30
0.0
 10
183.3247230305708
 20
111.0354780339737
 30
0.0
 10
183.5354965581749
 20
111.3238790239264
 30
0.0
 10
183.6481864158499
 20
111.4626068462313
 30
0.0
 10
183.8882126026909
 20
111.7292179928115
 30
0.0
 10
184.0162002114564
 20
111.8576115115039
 30
0.0
 10
184.4149105824308
 20
112.2194779565844
 30
0.0
 10
184.7015982153389
 20
112.4318584053474
 30
0.0
 10
185.3154200177417
 20
112.8021205654004
 30
0.0
 10
185.6444052129159
 20
112.9599528429843
 30
0.0
 10
186.3172927603541
 20
113.2100408292858
 30
0.0
 10
186.6640670280611
 20
113.3043918015274
 30
0.0
 10
187.3785262985547
 20
113.4318905593046
 30
0.0
 10
187.7416884762249
 20
113.4636975029901
 30
0.0
 10
188.461720535407
 20
113.4641557798378
 30
0.0
 10
188.8217557778126
 20
113.4332647239719
 30
0.0
 10
189.5392210516332
 20
113.3063981654661
 30
0.0
 10
189.8862854993778
 20
113.2123244118149
 30
0.0
 10
190.389922080784
 20
113.0260095725584
 30
0.0
 10
190.5549549159028
 20
112.956315910433
 30
0.0
 10
190.8791835937047
 20
112.8012038636697
 30
0.0
 10
191.0392195897278
 20
112.715239594688
 30
0.0
 10
191.501926216285
 20
112.4373469570706
 30
0.0
 10
191.7882564792424
 20
112.2256763056448
 30
0.0
 10
192.3167680259558
 20
111.7483270846499
 30
0.0
 10
192.5613646636359
 20
111.478888465799
 30
0.0
 10
192.9852312209821
 20
110.9020092346943
 30
0.0
 10
193.1659226507827
 20
110.5946940291128
 30
0.0
 10
193.3889602943256
 20
110.1041192258156
 30
0.0
 10
193.4555847495594
 20
109.9345372160863
 30
0.0
 10
193.56992074786
 20
109.5904014021783
 30
0.0
 10
193.6175567095876
 20
109.4165229939369
 30
0.0
 10
193.7325245964731
 20
108.8895505493018
 30
0.0
 10
193.7722406786598
 20
108.5310581115047
 30
0.0
 10
193.7737799830595
 20
107.7995943788075
 30
0.0
 10
193.7355957536206
 20
107.4406894387587
 30
0.0
 10
193.5847760846932
 20
106.7358676432413
 30
0.0
 10
193.4700505258596
 20
106.3867867421071
 30
0.0
 10
193.1750121949477
 20
105.7313513583455
 30
0.0
 10
192.9947391933794
 20
105.4218224436182
 30
0.0
 10
192.5685435871468
 20
104.8384809215062
 30
0.0
 10
192.3278551930238
 20
104.5722573029963
 30
0.0
 10
191.7993229084415
 20
104.0922299845331
 30
0.0
 10
191.5073648341449
 20
103.8756975823516
 30
0.0
 10
190.8924830988427
 20
103.505292855102
 30
0.0
 10
190.5698187121988
 20
103.3504672618548
 30
0.0
 10
189.8945487180829
 20
103.0992535119768
 30
0.0
 10
189.5411366846094
 20
103.0034926714224
 30
0.0
 10
188.8309130502521
 20
102.8772336542974
 30
0.0
 10
188.4705701469216
 20
102.845285098564
 30
0.0
 10
187.740730024007
 20
102.845285098564
 30
0.0
  0
SPLINE
  5
E7
330
1F
100
AcDbEntity
  8
0
  6
HIDDEN
 62
     7
370
     0
100
AcDbSpline
210
0.0
220
0.0
230
1.0
 70
     8
 71
     3
 72
    11
 73
     7
 74
     0
 42
0.00000001
 43
0.00000001
 40
0.0
 40
0.0
 40
0.0
 40
0.0
 40
0.0005779865010845
 40
0.0005779865010845
 40
0.0005779865010845
 40
0.0011559733324421
 40
0.0011559733324421
 40
0.0011559733324421
 40
0.0011559733324421
 10
76.20565008546431
 20
110.1544471060051
 30
0.0
 10
76.37231734027029
 20
110.152463466664
 30
0.0
 10
76.53898376994795
 20
110.1504258596615
 30
0.0
 10
76.70565010839977
 20
110.1483143962551
 30
0.0
 10
76.87231653722617
 20
110.1462029317037
 30
0.0
 10
77.03898291086387
 20
110.1440173685474
 30
0.0
 10
77.20565008546428
 20
110.1417347912158
 30
0.0
  0
SPLINE
  5
E8
330
1F
100
AcDbEntity
  8
0
  6
HIDDEN
 62
     7
370
     0
100
AcDbSpline
210
0.0
220
0.0
230
1.0
 70
     8
 71
     3
 72
     8
 73
     4
 74
     0
 42
0.00000001
 43
0.00000001
 40
0.0
 40
0.0
 40
0.0
 40
0.0
 40
0.0011564765856722
 40
0.0011564765856722
 40
0.0011564765856722
 40
0.0011564765856722
 10
77.20565008546428
 20
106.157906195635
 30
0.0
 10
76.87234215489543
 20
106.1570310400517
 30
0.0
 10
76.53900692250325
 20
106.1559761888002
 30
0.0
 10
76.20565008546428
 20
106.1548051017626
 30
0.0
  0
LINE
  5
E9
330
1F
100
AcDbEntity
  8
0
  6
HIDDEN
 62
     7
370
     0
100
AcDbLine
 10
115.7654760475
 20
91.154605574
 30
0.0
 11
115.7654760475
 21
125.1546074217
 31
0.0
  0
LINE
  5
EA
330
1F
100
AcDbEntity
  8
0
  6
HIDDEN
 62
     7
370
     0
100
AcDbLine
 10
118.0556499469
 20
92.4296066677
 30
0.0
 11
118.0556499469
 21
123.879606328
 31
0.0
  0
SPLINE
  5
EB
330
1F
100
AcDbEntity
  8
0
  6
HIDDEN
 62
     7
370
     0
100
AcDbSpline
210
0.0
220
0.0
230
1.0
 70
     8
 71
     3
 72
    16
 73
    12
 74
     0
 42
0.00000001
 43
0.00000001
 40
0.0
 40
0.0
 40
0.0
 40
0.0
 40
0.124999999999998
 40
0.124999999999998
 40
0.249999999999996
 40
0.249999999999996
 40
0.4999999999999973
 40
0.4999999999999973
 40
0.7499999999999987
 40
0.7499999999999987
 40
1.0
 40
1.0
 40
1.0
 40
1.0
 10
84.9056500854643
 20
92.35311606181959
 30
0.0
 10
85.00077184013014
 20
92.35311606181959
 30
0.0
 10
85.0941019088582
 20
92.34930022842678
 30
0.0
 10
85.27736366959621
 20
92.33452967569697
 30
0.0
 10
85.36824138515321
 20
92.32337162772139
 30
0.0
 10
85.62504308267295
 20
92.28090035757967
 30
0.0
 10
85.78011044754494
 20
92.23985416037688
 30
0.0
 10
86.03385690909957
 20
92.14470804379499
 30
0.0
 10
86.13472736076743
 20
92.0899453097134
 30
0.0
 10
86.26997377546226
 20
91.97868418580954
 30
0.0
 10
86.3056500854643
 20
91.92151444848085
 30
0.0
 10
86.3056500854643
 20
91.86709287544711
 30
0.0
  0
SPLINE
  5
EC
330
1F
100
AcDbEntity
  8
0
  6
HIDDEN
 62
     7
370
     0
100
AcDbSpline
210
0.0
220
0.0
230
1.0
 70
     8
 71
     3
 72
     8
 73
     4
 74
     0
 42
0.00000001
 43
0.00000001
 40
0.0
 40
0.0
 40
0.0
 40
0.0
 40
1.0
 40
1.0
 40
1.0
 40
1.0
 10
77.50565008877949
 20
94.49791900790183
 30
0.0
 10
77.50565008878142
 20
93.6140218655849
 30
0.0
 10
77.49216946287163
 20
92.89943862052296
 30
0.0
 10
77.49081809468233
 20
92.35311606181959
 30
0.0
  0
SPLINE
  5
ED
330
1F
100
AcDbEntity
  8
0
  6
HIDDEN
 62
     7
370
     0
100
AcDbSpline
210
0.0
220
0.0
230
1.0
 70
     8
 71
     3
 72
    10
 73
     6
 74
     0
 42
0.00000001
 43
0.00000001
 40
0.0
 40
0.0
 40
0.0
 40
0.0
 40
0.5
 40
0.5
 40
1.0
 40
1.0
 40
1.0
 40
1.0
 10
77.20565008546428
 20
95.52282927360503
 30
0.0
 10
77.2970412011572
 20
95.34819048598762
 30
0.0
 10
77.36969303489025
 20
95.17458865873203
 30
0.0
 10
77.47719192789843
 20
94.8309752397253
 30
0.0
 10
77.50565008877388
 20
94.66264941319388
 30
0.0
 10
77.50565008877949
 20
94.49791900796131
 30
0.0
  0
LINE
  5
EE
330
1F
100
AcDbEntity
  8
0
  6
HIDDEN
 62
     7
370
     0
100
AcDbLine
 10
77.2056504222
 20
98.5537799588
 30
0.0
 11
77.2056504222
 21
95.5228288239
 31
0.0
  0
SPLINE
  5
EF
330
1F
100
AcDbEntity
  8
0
  6
HIDDEN
 62
     7
370
     0
100
AcDbSpline
210
0.0
220
0.0
230
1.0
 70
     8
 71
     3
 72
    10
 73
     6
 74
     0
 42
0.00000001
 43
0.00000001
 40
0.0
 40
0.0
 40
0.0
 40
0.0
 40
0.5
 40
0.5
 40
1.0
 40
1.0
 40
1.0
 40
1.0
 10
77.50565008865202
 20
99.92162012220841
 30
0.0
 10
77.50565008865199
 20
99.6796361546016
 30
0.0
 10
77.47750005958142
 20
99.4452937256366
 30
0.0
 10
77.373910145439
 20
98.9899187033589
 30
0.0
 10
77.29728143584751
 20
98.76831414025155
 30
0.0
 10
77.2056500854643
 20
98.55377970545361
 30
0.0
  0
LINE
  5
F0
330
1F
100
AcDbEntity
  8
0
  6
HIDDEN
 62
     7
370
     0
100
AcDbLine
 10
77.5056499126
 20
111.7592402315
 30
0.0
 11
77.5056499126
 21
99.9216199433
 31
0.0
  0
SPLINE
  5
F1
330
1F
100
AcDbEntity
  8
0
  6
HIDDEN
 62
     7
370
     0
100
AcDbSpline
210
0.0
220
0.0
230
1.0
 70
     8
 71
     3
 72
     8
 73
     4
 74
     0
 42
0.00000001
 43
0.00000001
 40
0.0
 40
0.0
 40
0.0
 40
0.0
 40
1.0
 40
1.0
 40
1.0
 40
1.0
 10
77.20565008546428
 20
117.7615458189196
 30
0.0
 10
77.3866815520232
 20
117.3294383332569
 30
0.0
 10
77.50565008865773
 20
116.8752929271572
 30
0.0
 10
77.50565008865203
 20
116.3875928734632
 30
0.0
  0
LINE
  5
F2
330
1F
100
AcDbEntity
  8
0
  6
HIDDEN
 62
     7
370
     0
100
AcDbLine
 10
77.2056504222
 20
120.7947483799
 30
0.0
 11
77.2056504222
 21
117.7615462383
 31
0.0
  0
SPLINE
  5
F3
330
1F
100
AcDbEntity
  8
0
  6
HIDDEN
 62
     7
370
     0
100
AcDbSpline
210
0.0
220
0.0
230
1.0
 70
     8
 71
     3
 72
    10
 73
     6
 74
     0
 42
0.00000001
 43
0.00000001
 40
0.0
 40
0.0
 40
0.0
 40
0.0
 40
0.5
 40
0.5
 40
1.0
 40
1.0
 40
1.0
 40
1.0
 10
77.50565008885751
 20
121.8112939877711
 30
0.0
 10
77.50565008885572
 20
121.6466576411651
 30
0.0
 10
77.47849141810023
 20
121.4795024173345
 30
0.0
 10
77.37272642278182
 20
121.140879409533
 30
0.0
 10
77.29631163448467
 20
120.9686076322419
 30
0.0
 10
77.20565008546431
 20
120.7947488048979
 30
0.0
  0
SPLINE
  5
F4
330
1F
100
AcDbEntity
  8
0
  6
HIDDEN
 62
     7
370
     0
100
AcDbSpline
210
0.0
220
0.0
230
1.0
 70
     8
 71
     3
 72
    18
 73
    14
 74
     0
 42
0.00000001
 43
0.00000001
 40
0.0
 40
0.0
 40
0.0
 40
0.0
 40
0.2500000000000033
 40
0.2500000000000033
 40
0.3750000000000029
 40
0.3750000000000029
 40
0.5000000000000026
 40
0.5000000000000026
 40
0.6250000000000022
 40
0.6250000000000022
 40
0.7500000000000018
 40
0.7500000000000018
 40
1.0
 40
1.0
 40
1.0
 40
1.0
 10
82.30565008546431
 20
124.4421201202554
 30
0.0
 10
82.3056500854643
 20
124.3876455997032
 30
0.0
 10
82.27073939407212
 20
124.3312645403507
 30
0.0
 10
82.16873009273908
 20
124.2471876994972
 30
0.0
 10
82.12709373806096
 20
124.2198539955063
 30
0.0
 10
82.02868794257222
 20
124.1669000799073
 30
0.0
 10
81.97114473086795
 20
124.1410127261901
 30
0.0
 10
81.84384655729498
 20
124.0932351813569
 30
0.0
 10
81.77425925253752
 20
124.071287263179
 30
0.0
 10
81.62282500738256
 20
124.0318546982663
 30
0.0
 10
81.54014110428862
 20
124.0142984490404
 30
0.0
 10
81.28402964225057
 20
123.9718596836199
 30
0.0
 10
81.09611463836258
 20
123.9560969338829
 30
0.0
 10
80.9056500854643
 20
123.9560969338829
 30
0.0
  0
LINE
  5
F5
330
1F
100
AcDbEntity
  8
0
  6
HIDDEN
 62
     7
370
     0
100
AcDbLine
 10
80.9056497249
 20
123.9560977137
 30
0.0
 11
77.5056499126
 21
123.9560977137
 31
0.0
  0
LINE
  5
F6
330
1F
100
AcDbEntity
  8
0
  6
HIDDEN
 62
     7
370
     0
100
AcDbLine
 10
77.4366817507
 20
92.353115282
 30
0.0
 11
84.9056503805
 21
92.353115282
 31
0.0
  0
SPLINE
  5
F7
330
1F
100
AcDbEntity
  8
0
  6
HIDDEN
 62
     7
370
     0
100
AcDbSpline
210
0.0
220
0.0
230
1.0
 70
     8
 71
     3
 72
    22
 73
    18
 74
     0
 42
0.00000001
 43
0.00000001
 40
0.0
 40
0.0
 40
0.0
 40
0.0
 40
0.1249999999999998
 40
0.1249999999999998
 40
0.2499999999999995
 40
0.2499999999999995
 40
0.4999999999999992
 40
0.4999999999999992
 40
0.5624999999999993
 40
0.5624999999999993
 40
0.6249999999999994
 40
0.6249999999999994
 40
0.7499999999999996
 40
0.7499999999999996
 40
0.8749999999999998
 40
0.8749999999999998
 40
1.0
 40
1.0
 40
1.0
 40
1.0
 10
77.43668109882222
 20
92.35311606181959
 30
0.0
 10
77.42359870609386
 20
92.60822177196727
 30
0.0
 10
77.41037914265402
 20
92.90138003107117
 30
0.0
 10
77.3879319648599
 20
93.56368049669597
 30
0.0
 10
77.37845349783544
 20
93.93395441730736
 30
0.0
 10
77.35925553689887
 20
95.15651122042115
 30
0.0
 10
77.36036930989577
 20
96.093650146553
 30
0.0
 10
77.37928010284885
 20
97.413521376068
 30
0.0
 10
77.38390963070785
 20
97.68502328504432
 30
0.0
 10
77.39439085045382
 20
98.24340811984662
 30
0.0
 10
77.40018611173822
 20
98.53053097578622
 30
0.0
 10
77.41849533264316
 20
99.40312023015791
 30
0.0
 10
77.43253026692352
 20
100.0035759065138
 30
0.0
 10
77.46198743906034
 20
101.2410503990098
 30
0.0
 10
77.47754313004192
 20
101.8780665556533
 30
0.0
 10
77.5013376800388
 20
103.1895551533378
 30
0.0
 10
77.50935673218417
 20
103.8656777649984
 30
0.0
 10
77.5056500854643
 20
104.5499728762831
 30
0.0
  0
LINE
  5
F8
330
1F
100
AcDbEntity
  8
0
  6
HIDDEN
 62
     7
370
     0
100
AcDbLine
 10
77.5056499126
 20
111.7592402315
 30
0.0
 11
77.5056499126
 21
123.9560977137
 31
0.0
  0
SPLINE
  5
F9
330
1F
100
AcDbEntity
  8
0
  6
HIDDEN
 62
     7
370
     0
100
AcDbSpline
210
0.0
220
0.0
230
1.0
 70
     8
 71
     3
 72
    10
 73
     6
 74
     0
 42
0.00000001
 43
0.00000001
 40
0.0
 40
0.0
 40
0.0
 40
0.0
 40
0.5
 40
0.5
 40
1.0
 40
1.0
 40
1.0
 40
1.0
 10
77.5056500854643
 20
104.5499728762681
 30
0.0
 10
77.50565008546411
 20
104.8238880243424
 30
0.0
 10
77.47989085559641
 20
105.0948296030725
 30
0.0
 10
77.3766849228633
 20
105.6305206846754
 30
0.0
 10
77.29934675898805
 20
105.8962674881974
 30
0.0
 10
77.20565008546428
 20
106.157906195635
 30
0.0
  0
SPLINE
  5
FA
330
1F
100
AcDbEntity
  8
0
  6
HIDDEN
 62
     7
370
     0
100
AcDbSpline
210
0.0
220
0.0
230
1.0
 70
     8
 71
     3
 72
    10
 73
     6
 74
     0
 42
0.00000001
 43
0.00000001
 40
0.0
 40
0.0
 40
0.0
 40
0.0
 40
0.5
 40
0.5
 40
1.0
 40
1.0
 40
1.0
 40
1.0
 10
77.20565008546428
 20
110.1417347912158
 30
0.0
 10
77.29888066685531
 20
110.4056285992859
 30
0.0
 10
77.37391027909207
 20
110.6718089099242
 30
0.0
 10
77.47897737827022
 20
111.2101314848823
 30
0.0
 10
77.50565008885638
 20
111.4828796011279
 30
0.0
 10
77.50565008885756
 20
111.7592401194184
 30
0.0
  0
LINE
  5
FB
330
1F
100
AcDbEntity
  8
0
  6
HIDDEN
 62
     7
370
     0
100
AcDbLine
 10
77.2056504222
 20
106.1579063116
 30
0.0
 11
77.2056504222
 21
110.1417347835
 31
0.0
  0
LINE
  5
FC
330
1F
100
AcDbEntity
  8
0
  6
HIDDEN
 62
     7
370
     0
100
AcDbLine
 10
77.3556492361
 20
90.1646059519
 30
0.0
 11
77.3556492361
 21
87.2846678412
 31
0.0
  0
LINE
  5
FD
330
1F
100
AcDbEntity
  8
0
  6
HIDDEN
 62
     7
370
     0
100
AcDbLine
 10
86.3056498649
 20
90.1646059519
 30
0.0
 11
86.3056498649
 21
86.1908685928
 31
0.0
  0
SPLINE
  5
FE
330
1F
100
AcDbEntity
  8
0
  6
HIDDEN
 62
     7
370
     0
100
AcDbSpline
210
0.0
220
0.0
230
1.0
 70
     8
 71
     3
 72
    14
 73
    10
 74
     0
 42
0.00000001
 43
0.00000001
 40
0.0
 40
0.0
 40
0.0
 40
0.0
 40
0.25
 40
0.25
 40
0.5
 40
0.5
 40
0.75
 40
0.75
 40
1.0
 40
1.0
 40
1.0
 40
1.0
 10
168.1547638437002
 20
99.53100050439956
 30
0.0
 10
168.1917898608716
 20
99.564092389437
 30
0.0
 10
168.224157262853
 20
99.60456442430204
 30
0.0
 10
168.2689851354978
 20
99.70491471082755
 30
0.0
 10
168.2798757067565
 20
99.76295596918928
 30
0.0
 10
168.2711982675811
 20
99.89471718048102
 30
0.0
 10
168.2516489763302
 20
99.96629592863808
 30
0.0
 10
168.1934514918592
 20
100.1143197858574
 30
0.0
 10
168.1559654114148
 20
100.1894764685197
 30
0.0
 10
168.115221214665
 20
100.2663904632859
 30
0.0
  0
SPLINE
  5
FF
330
1F
100
AcDbEntity
  8
0
  6
HIDDEN
 62
     7
370
     0
100
AcDbSpline
210
0.0
220
0.0
230
1.0
 70
     8
 71
     3
 72
    14
 73
    10
 74
     0
 42
0.00000001
 43
0.00000001
 40
0.0
 40
0.0
 40
0.0
 40
0.0
 40
0.25
 40
0.25
 40
0.5
 40
0.5
 40
0.75
 40
0.75
 40
1.0
 40
1.0
 40
1.0
 40
1.0
 10
168.1152212146652
 20
100.2663904632854
 30
0.0
 10
168.0816724981719
 20
100.229977516011
 30
0.0
 10
168.0493867692476
 20
100.194744699679
 30
0.0
 10
167.9964419895605
 20
100.1148899010154
 30
0.0
 10
167.9754372505766
 20
100.0683364288411
 30
0.0
 10
167.9860821113544
 20
99.92901252545255
 30
0.0
 10
168.0151183766108
 20
99.84572940829345
 30
0.0
 10
168.0794730704499
 20
99.6869088063433
 30
0.0
 10
168.1164091296652
 20
99.60826413381594
 30
0.0
 10
168.1547638436999
 20
99.53100050439753
 30
0.0
  0
SPLINE
  5
100
330
1F
100
AcDbEntity
  8
0
  6
HIDDEN
 62
     7
370
     0
100
AcDbSpline
210
0.0
220
0.0
230
1.0
 70
     8
 71
     3
 72
    48
 73
    44
 74
     0
 42
0.00000001
 43
0.00000001
 40
-0.0625000000000008
 40
-0.0625000000000008
 40
0.0
 40
0.0
 40
0.0312499999999987
 40
0.0312499999999987
 40
0.0624999999999974
 40
0.0624999999999974
 40
0.1249999999999955
 40
0.1249999999999955
 40
0.1874999999999937
 40
0.1874999999999937
 40
0.2499999999999919
 40
0.2499999999999919
 40
0.3124999999999901
 40
0.3124999999999901
 40
0.3437499999999897
 40
0.3437499999999897
 40
0.3749999999999895
 40
0.3749999999999895
 40
0.4062499999999891
 40
0.4062499999999891
 40
0.4374999999999888
 40
0.4374999999999888
 40
0.4999999999999901
 40
0.4999999999999901
 40
0.5624999999999913
 40
0.5624999999999913
 40
0.6249999999999927
 40
0.6249999999999927
 40
0.6874999999999939
 40
0.6874999999999939
 40
0.7499999999999952
 40
0.7499999999999952
 40
0.8124999999999964
 40
0.8124999999999964
 40
0.8437499999999972
 40
0.8437499999999972
 40
0.8749999999999979
 40
0.8749999999999979
 40
0.9062499999999986
 40
0.9062499999999986
 40
0.9374999999999992
 40
0.9374999999999992
 40
1.0
 40
1.0
 40
1.031249999999999
 40
1.031249999999999
 10
170.2364400628159
 20
99.48806935484727
 30
0.0
 10
170.3585078933329
 20
99.49146068006915
 30
0.0
 10
170.3969702232505
 20
99.49990749601547
 30
0.0
 10
170.467119699017
 20
99.53218236006967
 30
0.0
 10
170.4991368317921
 20
99.55645511753548
 30
0.0
 10
170.5778724187098
 20
99.65327777905678
 30
0.0
 10
170.6076008195306
 20
99.75242741679175
 30
0.0
 10
170.6034890655005
 20
100.0013492185615
 30
0.0
 10
170.5694429728351
 20
100.151950665656
 30
0.0
 10
170.4580768143103
 20
100.4608658361845
 30
0.0
 10
170.3816778907197
 20
100.6196257158104
 30
0.0
 10
170.2185047104555
 20
100.9273969626486
 30
0.0
 10
170.1298652444399
 20
101.0781344955588
 30
0.0
 10
170.0206511437109
 20
101.2960597090813
 30
0.0
 10
169.987729595999
 20
101.3692153687738
 30
0.0
 10
169.9432788829992
 20
101.5087520124195
 30
0.0
 10
169.9320460645751
 20
101.5767526477881
 30
0.0
 10
169.9388338629991
 20
101.6966861592993
 30
0.0
 10
169.9565808262847
 20
101.7501048939541
 30
0.0
 10
170.0087313527574
 20
101.8382519722837
 30
0.0
 10
170.0431045172246
 20
101.874374158368
 30
0.0
 10
170.1550511779226
 20
101.9604735087187
 30
0.0
 10
170.2405351550761
 20
101.9895705261131
 30
0.0
 10
170.3986866329766
 20
101.9931091215478
 30
0.0
 10
170.4709315084114
 20
101.9671442680676
 30
0.0
 10
170.5766215647964
 20
101.8454472041203
 30
0.0
 10
170.6071206105547
 20
101.7485984448926
 30
0.0
 10
170.6040642346367
 20
101.4994493744253
 30
0.0
 10
170.5701415842423
 20
101.3465140515586
 30
0.0
 10
170.4601761566441
 20
101.0336331553923
 30
0.0
 10
170.3850208912513
 20
100.8726772333331
 30
0.0
 10
170.2262609615049
 20
100.5631747711291
 30
0.0
 10
170.1396162408631
 20
100.4102963045982
 30
0.0
 10
170.0311461064175
 20
100.1916726891063
 30
0.0
 10
169.9981965397667
 20
100.1195257033211
 30
0.0
 10
169.9494070000064
 20
99.97717769345932
 30
0.0
 10
169.9348154058827
 20
99.90888904153834
 30
0.0
 10
169.9347971690512
 20
99.78380827954904
 30
0.0
 10
169.9494793960104
 20
99.72894672406845
 30
0.0
 10
169.999491772035
 20
99.63700070062102
 30
0.0
 10
170.0334780780657
 20
99.60068213554862
 30
0.0
 10
170.1477756466583
 20
99.51420904660958
 30
0.0
 10
170.2364400628159
 20
99.48806935484727
 30
0.0
 10
170.3585078933329
 20
99.49146068006915
 30
0.0
  0
SPLINE
  5
101
330
1F
100
AcDbEntity
  8
0
  6
HIDDEN
 62
     7
370
     0
100
AcDbSpline
210
0.0
220
0.0
230
1.0
 70
     8
 71
     3
 72
    38
 73
    34
 74
     0
 42
0.00000001
 43
0.00000001
 40
0.0
 40
0.0
 40
0.0
 40
0.0
 40
0.0625000000000001
 40
0.0625000000000001
 40
0.1250000000000001
 40
0.1250000000000001
 40
0.1875000000000002
 40
0.1875000000000002
 40
0.2500000000000002
 40
0.2500000000000002
 40
0.3125000000000003
 40
0.3125000000000003
 40
0.3750000000000003
 40
0.3750000000000003
 40
0.4375000000000004
 40
0.4375000000000004
 40
0.5000000000000004
 40
0.5000000000000004
 40
0.5625000000000003
 40
0.5625000000000003
 40
0.6250000000000003
 40
0.6250000000000003
 40
0.6875000000000002
 40
0.6875000000000002
 40
0.7500000000000002
 40
0.7500000000000002
 40
0.8125000000000001
 40
0.8125000000000001
 40
0.8750000000000001
 40
0.8750000000000001
 40
0.9375
 40
0.9375
 40
1.0
 40
1.0
 40
1.0
 40
1.0
 10
170.2108760673445
 20
105.1932917891288
 30
0.0
 10
170.1090863847512
 20
105.2870247230157
 30
0.0
 10
169.9935501333476
 20
105.3683051715355
 30
0.0
 10
169.7346652029439
 20
105.5026070855544
 30
0.0
 10
169.5945218766651
 20
105.5534135498768
 30
0.0
 10
169.3020357688645
 20
105.6158463943955
 30
0.0
 10
169.1493516373829
 20
105.6271070711003
 30
0.0
 10
168.8497835969792
 20
105.6076691379946
 30
0.0
 10
168.700042243649
 20
105.5766711467359
 30
0.0
 10
168.4215705600935
 20
105.4789197216815
 30
0.0
 10
168.2893101018383
 20
105.4110242920016
 30
0.0
 10
168.0565186393496
 20
105.2506178091133
 30
0.0
 10
167.9526857009496
 20
105.1559003507332
 30
0.0
 10
167.7845015007833
 20
104.9543650737913
 30
0.0
 10
167.7177999633992
 20
104.8448478727444
 30
0.0
 10
167.6288392861628
 20
104.6255212814568
 30
0.0
 10
167.605736069569
 20
104.5142523781683
 30
0.0
 10
167.605564585738
 20
104.3008342944124
 30
0.0
 10
167.6281712078
 20
104.199592723363
 30
0.0
 10
167.7175218008931
 20
104.0128156442828
 30
0.0
 10
167.782637646736
 20
103.929841488937
 30
0.0
 10
167.9527235905379
 20
103.782518091255
 30
0.0
 10
168.0538857409321
 20
103.7212984315168
 30
0.0
 10
168.2886177077217
 20
103.6191341458561
 30
0.0
 10
168.4185172100096
 20
103.5800322409351
 30
0.0
 10
168.6977467101606
 20
103.5237655883015
 30
0.0
 10
168.846521752111
 20
103.5069612760629
 30
0.0
 10
169.1460432272126
 20
103.4960335201142
 30
0.0
 10
169.2993821817058
 20
103.5019320278853
 30
0.0
 10
169.5912476963129
 20
103.53615213768
 30
0.0
 10
169.7335013487334
 20
103.5649529983176
 30
0.0
 10
169.9907463490948
 20
103.6444121443925
 30
0.0
 10
170.109069512315
 20
103.6959248807953
 30
0.0
 10
170.2108760673445
 20
103.7590843222839
 30
0.0
  0
SPLINE
  5
102
330
1F
100
AcDbEntity
  8
0
  6
HIDDEN
 62
     7
370
     0
100
AcDbSpline
210
0.0
220
0.0
230
1.0
 70
     8
 71
     3
 72
     8
 73
     4
 74
     0
 42
0.00000001
 43
0.00000001
 40
0.0
 40
0.0
 40
0.0
 40
0.0
 40
1.0
 40
1.0
 40
1.0
 40
1.0
 10
170.2108760673445
 20
103.7590843222839
 30
0.0
 10
170.2605693018073
 20
103.7899133483081
 30
0.0
 10
170.3062150800212
 20
103.8298764869202
 30
0.0
 10
170.3476841246748
 20
103.8769985625368
 30
0.0
  0
SPLINE
  5
103
330
1F
100
AcDbEntity
  8
0
  6
HIDDEN
 62
     7
370
     0
100
AcDbSpline
210
0.0
220
0.0
230
1.0
 70
     8
 71
     3
 72
    12
 73
     8
 74
     0
 42
0.00000001
 43
0.00000001
 40
0.0
 40
0.0
 40
0.0
 40
0.0
 40
0.2499999999999995
 40
0.2499999999999995
 40
0.4999999999999994
 40
0.4999999999999994
 40
1.0
 40
1.0
 40
1.0
 40
1.0
 10
170.3476841246748
 20
103.8769985625368
 30
0.0
 10
170.4316682379628
 20
103.9724313310032
 30
0.0
 10
170.4955174927743
 20
104.0711599480187
 30
0.0
 10
170.5832664321109
 20
104.2784505653652
 30
0.0
 10
170.6055145887797
 20
104.3842759263612
 30
0.0
 10
170.6059192275561
 20
104.6997307910481
 30
0.0
 10
170.5156472470033
 20
104.9064830657029
 30
0.0
 10
170.3476841246748
 20
105.0664113970416
 30
0.0
  0
SPLINE
  5
104
330
1F
100
AcDbEntity
  8
0
  6
HIDDEN
 62
     7
370
     0
100
AcDbSpline
210
0.0
220
0.0
230
1.0
 70
     8
 71
     3
 72
    12
 73
     8
 74
     0
 42
0.00000001
 43
0.00000001
 40
0.0
 40
0.0
 40
0.0
 40
0.0
 40
0.4999999999999987
 40
0.4999999999999987
 40
0.7499999999999993
 40
0.7499999999999993
 40
1.0
 40
1.0
 40
1.0
 40
1.0
 10
168.1152212146652
 20
101.8595324229913
 30
0.0
 10
168.1965953778746
 20
101.8070978960033
 30
0.0
 10
168.2664448513596
 20
101.7209176087044
 30
0.0
 10
168.2799857538257
 20
101.5344614355608
 30
0.0
 10
168.2690342241596
 20
101.4662107151748
 30
0.0
 10
168.2241845902684
 20
101.321426450531
 30
0.0
 10
168.1917969753571
 20
101.2476458100847
 30
0.0
 10
168.1547638437
 20
101.1716195066201
 30
0.0
  0
SPLINE
  5
105
330
1F
100
AcDbEntity
  8
0
  6
HIDDEN
 62
     7
370
     0
100
AcDbSpline
210
0.0
220
0.0
230
1.0
 70
     8
 71
     3
 72
    14
 73
    10
 74
     0
 42
0.00000001
 43
0.00000001
 40
0.0
 40
0.0
 40
0.0
 40
0.0
 40
0.25
 40
0.25
 40
0.5
 40
0.5
 40
0.75
 40
0.75
 40
1.0
 40
1.0
 40
1.0
 40
1.0
 10
168.1547638437002
 20
101.1716195066206
 30
0.0
 10
168.1162603331861
 20
101.2045503855965
 30
0.0
 10
168.0791474095459
 20
101.2357281489127
 30
0.0
 10
168.014565631329
 20
101.3043498802404
 30
0.0
 10
167.9858200370513
 20
101.3416587978975
 30
0.0
 10
167.9755827328759
 20
101.463648415005
 30
0.0
 10
167.9969153831546
 20
101.5455761283363
 30
0.0
 10
168.0497896634028
 20
101.7029027463191
 30
0.0
 10
168.0818332471475
 20
101.7817805019146
 30
0.0
 10
168.1152212146653
 20
101.8595324229914
 30
0.0
  0
SPLINE
  5
106
330
1F
100
AcDbEntity
  8
0
  6
HIDDEN
 62
     7
370
     0
100
AcDbSpline
210
0.0
220
0.0
230
1.0
 70
     8
 71
     3
 72
    10
 73
     6
 74
     0
 42
0.00000001
 43
0.00000001
 40
0.0
 40
0.0
 40
0.0
 40
0.0
 40
0.5
 40
0.5
 40
1.0
 40
1.0
 40
1.0
 40
1.0
 10
167.6056500854639
 20
100.9424738878784
 30
0.0
 10
167.6056500854639
 20
100.9667680450355
 30
0.0
 10
167.6068283995623
 20
100.9888196020485
 30
0.0
 10
167.6113628215925
 20
101.0286666127597
 30
0.0
 10
167.6147199104937
 20
101.0464643152836
 30
0.0
 10
167.6190938297261
 20
101.0620838273401
 30
0.0
  0
SPLINE
  5
107
330
1F
100
AcDbEntity
  8
0
  6
HIDDEN
 62
     7
370
     0
100
AcDbSpline
210
0.0
220
0.0
230
1.0
 70
     8
 71
     3
 72
    18
 73
    14
 74
     0
 42
0.00000001
 43
0.00000001
 40
0.0
 40
0.0
 40
0.0
 40
0.0
 40
0.0757599194315536
 40
0.1641801987937022
 40
0.2246499964753646
 40
0.2713909898868395
 40
0.318233169852347
 40
0.381660493898752
 40
0.4894611142889475
 40
0.6369004917129721
 40
0.7838541388512201
 40
0.9175660805550278
 40
1.0
 40
1.0
 40
1.0
 40
1.0
 10
167.636254716173
 20
101.0924046440097
 30
0.0
 10
167.6420693516993
 20
101.1052914095747
 30
0.0
 10
167.6546703156889
 20
101.1332184684754
 30
0.0
 10
167.6789370110741
 20
101.1334419783763
 30
0.0
 10
167.6956568647554
 20
101.1128254518836
 30
0.0
 10
167.7018804220566
 20
101.0736870105376
 30
0.0
 10
167.6984478597917
 20
101.0146196434686
 30
0.0
 10
167.6820378253488
 20
100.9173644923937
 30
0.0
 10
167.6500667516393
 20
100.7692948358783
 30
0.0
 10
167.6155019492501
 20
100.5865983661689
 30
0.0
 10
167.6014957177612
 20
100.419802702023
 30
0.0
 10
167.611271789136
 20
100.3131945487412
 30
0.0
 10
167.6290228596004
 20
100.2868765832014
 30
0.0
 10
167.635792780176
 20
100.2768394118222
 30
0.0
  0
LWPOLYLINE
  5
108
330
1F
100
AcDbEntity
  8
0
  6
HIDDEN
 62
     7
370
     0
100
AcDbPolyline
 90
        9
 70
   128
 43
0.0
 10
167.6471027615
 20
100.255212239
 10
167.6802801969
 20
100.2524536615
 10
167.6946486416
 20
100.2754200762
 10
167.7003781381
 20
100.3126543528
 10
167.6973830047
 20
100.367980036
 10
167.6848474028
 20
100.4445501184
 10
167.6570232096
 20
100.5761897704
 10
167.6206420245
 20
100.7682135841
 10
167.6056514564
 20
100.9424738167
  0
LWPOLYLINE
  5
109
330
1F
100
AcDbEntity
  8
0
  6
HIDDEN
 62
     7
370
     0
100
AcDbPolyline
 90
       20
 70
   128
 43
0.0
 10
169.1056507709
 20
98.1136899954
 10
168.618602592
 20
98.1711600488
 10
168.1843306008
 20
98.3373405924
 10
167.8499001148
 20
98.5942245042
 10
167.6515507581
 20
98.9139736211
 10
167.6107737305
 20
99.261939018
 10
167.7319909516
 20
99.6004123753
 10
168.0020633223
 20
99.8927163472
 10
168.3917286875
 20
100.1071729278
 10
168.8587571564
 20
100.2205446875
 10
169.3525406602
 20
100.2205446875
 10
169.8195728543
 20
100.1071729278
 10
170.2092344942
 20
99.8927163472
 10
170.4793105903
 20
99.6004123753
 10
170.6005278113
 20
99.261939018
 10
170.5597507837
 20
98.9139736211
 10
170.361401427
 20
98.5942245042
 10
170.0269709411
 20
98.3373405924
 10
169.5926989498
 20
98.1711600488
 10
169.1056507709
 20
98.1136899954
  0
LINE
  5
10A
330
1F
100
AcDbEntity
  8
0
  6
HIDDEN
 62
     7
370
     0
100
AcDbLine
 10
77.3556492361
 20
126.1446070438
 30
0.0
 11
77.3556492361
 21
129.0245451545
 31
0.0
  0
LINE
  5
10B
330
1F
100
AcDbEntity
  8
0
  6
HIDDEN
 62
     7
370
     0
100
AcDbLine
 10
82.3056492093
 20
126.1446070438
 30
0.0
 11
82.3056492093
 21
129.9987141555
 31
0.0
  0
LINE
  5
10C
330
1F
100
AcDbEntity
  8
0
  6
HIDDEN
 62
     7
370
     0
100
AcDbLine
 10
126.9056498143
 20
98.6546068033
 30
0.0
 11
126.9056498143
 21
117.6546061924
 31
0.0
  0
LINE
  5
10D
330
1F
100
AcDbEntity
  8
0
  6
HIDDEN
 62
     7
370
     0
100
AcDbLine
 10
129.905650306
 20
98.6546068033
 30
0.0
 11
129.905650306
 21
117.6546061924
 31
0.0
  0
LINE
  5
10E
330
1F
100
AcDbEntity
  8
0
  6
HIDDEN
 62
     7
370
     0
100
AcDbLine
 10
118.5556500288
 20
99.6546060359
 30
0.0
 11
118.5556500288
 21
116.6546069598
 31
0.0
  0
LINE
  5
10F
330
1F
100
AcDbEntity
  8
0
  6
HIDDEN
 62
     7
370
     0
100
AcDbLine
 10
113.0556500586
 20
76.6704831785
 30
0.0
 11
113.0556500586
 21
81.7546066409
 31
0.0
  0
LINE
  5
110
330
1F
100
AcDbEntity
  8
0
  6
HIDDEN
 62
     7
370
     0
100
AcDbLine
 10
121.0556504386
 20
81.7546066409
 30
0.0
 11
113.0556500586
 21
81.7546066409
 31
0.0
  0
LINE
  5
111
330
1F
100
AcDbEntity
  8
0
  6
HIDDEN
 62
     7
370
     0
100
AcDbLine
 10
134.0556497755
 20
81.7546066409
 30
0.0
 11
127.9179751011
 21
81.7546066409
 31
0.0
  0
LINE
  5
112
330
1F
100
AcDbEntity
  8
0
  6
HIDDEN
 62
     7
370
     0
100
AcDbLine
 10
124.2933253827
 20
81.7546066409
 30
0.0
 11
121.0556504386
 21
81.7546066409
 31
0.0
  0
ARC
  5
113
330
1F
100
AcDbEntity
  8
0
  6
HIDDEN
 62
     7
370
     0
100
AcDbCircle
 10
155.0554308656
 20
100.7637814436
 30
0.0
 40
13.10567944261597
100
AcDbArc
 50
1.7832866338
 51
4.7960331794
  0
LINE
  5
114
330
1F
100
AcDbEntity
  8
0
  6
HIDDEN
 62
     7
370
     0
100
AcDbLine
 10
124.5899478974
 20
134.5546063548
 30
0.0
 11
121.0556504386
 21
134.5546063548
 31
0.0
  0
LINE
  5
115
330
1F
100
AcDbEntity
  8
0
  6
HIDDEN
 62
     7
370
     0
100
AcDbLine
 10
134.0556497755
 20
134.5546063548
 30
0.0
 11
127.6213525864
 21
134.5546063548
 31
0.0
  0
LINE
  5
116
330
1F
100
AcDbEntity
  8
0
  6
HIDDEN
 62
     7
370
     0
100
AcDbLine
 10
121.0556504386
 20
134.5546063548
 30
0.0
 11
113.0556500586
 21
134.5546063548
 31
0.0
  0
SPLINE
  5
117
330
1F
100
AcDbEntity
  8
0
  6
HIDDEN
 62
     7
370
     0
100
AcDbSpline
210
0.0
220
0.0
230
1.0
 70
     8
 71
     3
 72
    11
 73
     7
 74
     0
 42
0.00000001
 43
0.00000001
 40
0.0
 40
0.0
 40
0.0
 40
0.0
 40
0.0008203708524183
 40
0.0008203708524183
 40
0.0008203708524183
 40
0.0016409967870154
 40
0.0016409967870154
 40
0.0016409967870154
 40
0.0016409967870154
 10
77.3556500854643
 20
92.30257374720851
 30
0.0
 10
77.16449178516564
 20
92.26139471858937
 30
0.0
 10
76.97306471509347
 20
92.22264074635939
 30
0.0
 10
76.78141909157284
 20
92.18627298708083
 30
0.0
 10
76.58971368649237
 20
92.1498938833148
 30
0.0
 10
76.39777473443341
 20
92.11589963254725
 30
0.0
 10
76.2056500873626
 20
92.08425150715604
 30
0.0
  0
ELLIPSE
  5
118
330
1F
100
AcDbEntity
  8
0
  6
HIDDEN
 62
     7
370
     0
100
AcDbEllipse
 10
71.9632182169
 20
108.1546064979
 30
0.0
 11
20.19992453366628
 21
-1.421085471520200E-14
 31
0.0
210
0.0
220
0.0
230
1.0
 40
0.8164965809
 41
1.300566354718001
 42
1.359198697209605
  0
ARC
  5
119
330
1F
100
AcDbEntity
  8
0
  6
HIDDEN
 62
     7
370
     0
100
AcDbCircle
 10
184.2700498607
 20
100.7662408593
 30
0.0
 40
16.16255825247055
100
AcDbArc
 50
181.7722355375
 51
184.3831622769
  0
LINE
  5
11A
330
1F
100
AcDbEntity
  8
0
  6
HIDDEN
 62
     7
370
     0
100
AcDbLine
 10
77.3556492361
 20
90.1646059519
 30
0.0
 11
77.3556492361
 21
92.3025742685
 31
0.0
  0
LINE
  5
11B
330
1F
100
AcDbEntity
  8
0
  6
HIDDEN
 62
     7
370
     0
100
AcDbLine
 10
77.4366817507
 20
92.353115282
 30
0.0
 11
77.3556492361
 21
92.3025742685
 31
0.0
  0
LINE
  5
11C
330
1F
100
AcDbEntity
  8
0
  6
HIDDEN
 62
     7
370
     0
100
AcDbLine
 10
86.3056498649
 20
90.1646059519
 30
0.0
 11
86.3056498649
 21
91.8670934206
 31
0.0
  0
LINE
  5
11D
330
1F
100
AcDbEntity
  8
0
  6
HIDDEN
 62
     7
370
     0
100
AcDbLine
 10
77.3556492361
 20
126.1446070438
 30
0.0
 11
77.3556492361
 21
124.0492318338
 31
0.0
  0
SPLINE
  5
11E
330
1F
100
AcDbEntity
  8
0
  6
HIDDEN
 62
     7
370
     0
100
AcDbSpline
210
0.0
220
0.0
230
1.0
 70
     8
 71
     3
 72
     8
 73
     4
 74
     0
 42
0.00000001
 43
0.00000001
 40
0.0
 40
0.0
 40
0.0
 40
0.0
 40
1.0
 40
1.0
 40
1.0
 40
1.0
 10
77.3556500854643
 20
124.0492309489099
 30
0.0
 10
77.40565558440804
 20
124.0181951746908
 30
0.0
 10
77.45565565507245
 20
123.9871505296632
 30
0.0
 10
77.50565008885756
 20
123.9560969338829
 30
0.0
  0
LINE
  5
11F
330
1F
100
AcDbEntity
  8
0
  6
HIDDEN
 62
     7
370
     0
100
AcDbLine
 10
82.3056492093
 20
126.1446070438
 30
0.0
 11
82.3056492093
 21
124.4421195751
 31
0.0
  0
SPLINE
  5
120
330
1F
100
AcDbEntity
  8
0
  6
HIDDEN
 62
     7
370
     0
100
AcDbSpline
210
0.0
220
0.0
230
1.0
 70
     8
 71
     3
 72
     8
 73
     4
 74
     0
 42
0.00000001
 43
0.00000001
 40
0.0
 40
0.0
 40
0.0
 40
0.0
 40
1.0
 40
1.0
 40
1.0
 40
1.0
 10
170.2108760673445
 20
112.5501286734186
 30
0.0
 10
170.2605693018073
 20
112.5192996473944
 30
0.0
 10
170.3062150800212
 20
112.4793365087823
 30
0.0
 10
170.3476841246748
 20
112.4322144331657
 30
0.0
  0
SPLINE
  5
121
330
1F
100
AcDbEntity
  8
0
  6
HIDDEN
 62
     7
370
     0
100
AcDbSpline
210
0.0
220
0.0
230
1.0
 70
     8
 71
     3
 72
    38
 73
    34
 74
     0
 42
0.00000001
 43
0.00000001
 40
0.0
 40
0.0
 40
0.0
 40
0.0
 40
0.0625
 40
0.0625
 40
0.125
 40
0.125
 40
0.1875
 40
0.1875
 40
0.25
 40
0.25
 40
0.3125
 40
0.3125
 40
0.375
 40
0.375
 40
0.4375
 40
0.4375
 40
0.5
 40
0.5
 40
0.5625
 40
0.5625
 40
0.625
 40
0.625
 40
0.6875
 40
0.6875
 40
0.75
 40
0.75
 40
0.8125
 40
0.8125
 40
0.875
 40
0.875
 40
0.9375
 40
0.9375
 40
1.0
 40
1.0
 40
1.0
 40
1.0
 10
170.2108760673445
 20
111.1159212065737
 30
0.0
 10
170.1090863847512
 20
111.0221882726868
 30
0.0
 10
169.9935501333476
 20
110.940907824167
 30
0.0
 10
169.7346652029439
 20
110.8066059101481
 30
0.0
 10
169.5945218766651
 20
110.7557994458257
 30
0.0
 10
169.3020357688645
 20
110.693366601307
 30
0.0
 10
169.1493516373829
 20
110.6821059246022
 30
0.0
 10
168.8497835969792
 20
110.7015438577079
 30
0.0
 10
168.7000422436491
 20
110.7325418489666
 30
0.0
 10
168.4215705600935
 20
110.830293274021
 30
0.0
 10
168.2893101018383
 20
110.8981887037009
 30
0.0
 10
168.0565186393496
 20
111.0585951865892
 30
0.0
 10
167.9526857009496
 20
111.1533126449693
 30
0.0
 10
167.7845015007833
 20
111.3548479219112
 30
0.0
 10
167.7177999633992
 20
111.4643651229581
 30
0.0
 10
167.6288392861628
 20
111.6836917142457
 30
0.0
 10
167.605736069569
 20
111.7949606175342
 30
0.0
 10
167.605564585738
 20
112.0083787012901
 30
0.0
 10
167.6281712078
 20
112.1096202723395
 30
0.0
 10
167.7175218008931
 20
112.2963973514197
 30
0.0
 10
167.782637646736
 20
112.3793715067655
 30
0.0
 10
167.9527235905379
 20
112.5266949044475
 30
0.0
 10
168.0538857409321
 20
112.5879145641857
 30
0.0
 10
168.2886177077217
 20
112.6900788498464
 30
0.0
 10
168.4185172100096
 20
112.7291807547674
 30
0.0
 10
168.6977467101606
 20
112.785447407401
 30
0.0
 10
168.846521752111
 20
112.8022517196396
 30
0.0
 10
169.1460432272126
 20
112.8131794755882
 30
0.0
 10
169.2993821817058
 20
112.8072809678171
 30
0.0
 10
169.5912476963129
 20
112.7730608580225
 30
0.0
 10
169.7335013487334
 20
112.7442599973849
 30
0.0
 10
169.9907463490948
 20
112.66480085131
 30
0.0
 10
170.109069512315
 20
112.6132881149072
 30
0.0
 10
170.2108760673445
 20
112.5501286734186
 30
0.0
  0
LINE
  5
122
330
1F
100
AcDbEntity
  8
0
  6
HIDDEN
 62
     7
370
     0
100
AcDbLine
 10
167.1056504431
 20
103.2546064397
 30
0.0
 11
167.1056504431
 21
113.054606556
 31
0.0
  0
SPLINE
  5
123
330
1F
100
AcDbEntity
  8
0
  6
HIDDEN
 62
     7
370
     0
100
AcDbSpline
210
0.0
220
0.0
230
1.0
 70
     8
 71
     3
 72
    12
 73
     8
 74
     0
 42
0.00000001
 43
0.00000001
 40
0.0
 40
0.0
 40
0.0
 40
0.0
 40
0.2499999999999999
 40
0.2499999999999999
 40
0.4999999999999998
 40
0.4999999999999998
 40
1.0
 40
1.0
 40
1.0
 40
1.0
 10
170.3476841246748
 20
112.4322144331657
 30
0.0
 10
170.4316682379628
 20
112.3367816646993
 30
0.0
 10
170.4955174927743
 20
112.2380530476838
 30
0.0
 10
170.5832664321109
 20
112.0307624303373
 30
0.0
 10
170.6055145887797
 20
111.9249370693413
 30
0.0
 10
170.6059192275561
 20
111.6094822046544
 30
0.0
 10
170.5156472470034
 20
111.4027299299996
 30
0.0
 10
170.3476841246748
 20
111.2428015986609
 30
0.0
  0
LINE
  5
124
330
1F
100
AcDbEntity
  8
0
  6
HIDDEN
 62
     7
370
     0
100
AcDbLine
 10
171.1056510987
 20
103.1546066096
 30
0.0
 11
171.1056510987
 21
113.1546063861
 31
0.0
  0
SPLINE
  5
125
330
1F
100
AcDbEntity
  8
0
  6
HIDDEN
 62
     7
370
     0
100
AcDbSpline
210
0.0
220
0.0
230
1.0
 70
     8
 71
     3
 72
    20
 73
    16
 74
     0
 42
0.00000001
 43
0.00000001
 40
0.0
 40
0.0
 40
0.0
 40
0.0
 40
0.1119050017702467
 40
0.1774240625141667
 40
0.2490454663706319
 40
0.3297937548254459
 40
0.398565995511219
 40
0.4998455253449801
 40
0.6138104267423584
 40
0.6789761965927742
 40
0.7495025564672323
 40
0.8296483616052601
 40
0.8980918945969751
 40
0.9995020827787536
 40
0.9999999999999999
 40
0.9999999999999999
 40
0.9999999999999999
 40
0.9999999999999999
 10
102.8543728473337
 20
84.55464472529017
 30
0.0
 10
102.8110655088143
 20
84.56806729331866
 30
0.0
 10
102.7424022335786
 20
84.58934861686375
 30
0.0
 10
102.2973083239045
 20
84.69264353968427
 30
0.0
 10
101.7707541066323
 20
84.80594282761626
 30
0.0
 10
101.0853277748897
 20
84.92887776571234
 30
0.0
 10
100.1920109371783
 20
85.05091237698647
 30
0.0
 10
99.07865120292861
 20
85.16864805188358
 30
0.0
 10
97.96787693240874
 20
85.18062187846328
 30
0.0
 10
97.0831290805096
 20
85.15356642949604
 30
0.0
 10
96.41593124227064
 20
85.10563304206423
 30
0.0
 10
95.87466318137366
 20
85.0493372471902
 30
0.0
 10
95.48706632605072
 20
85.00426055677103
 30
0.0
 10
95.29315212614176
 20
84.9653661818835
 30
0.0
 10
95.35628250821811
 20
84.97609585944926
 30
0.0
 10
95.35659095968325
 20
84.9761482840451
 30
0.0
  0
LINE
  5
126
330
1F
100
AcDbEntity
  8
0
  6
HIDDEN
 62
     7
370
     0
100
AcDbLine
 10
96.2656623753
 20
85.0869440055
 30
0.0
 11
96.4495073142
 21
85.105134598
 31
0.0
  0
SPLINE
  5
127
330
1F
100
AcDbEntity
  8
0
  6
HIDDEN
 62
     7
370
     0
100
AcDbSpline
210
0.0
220
0.0
230
1.0
 70
     8
 71
     3
 72
    27
 73
    23
 74
     0
 42
0.00000001
 43
0.00000001
 40
0.0
 40
0.0
 40
0.0
 40
0.0
 40
0.000788327101507
 40
0.0456706304948241
 40
0.1022520330622096
 40
0.1705298052866628
 40
0.2091212834201435
 40
0.2506483299385718
 40
0.3210937616433528
 40
0.3861872112827078
 40
0.4266661952206314
 40
0.4647972801341317
 40
0.5006013777838698
 40
0.5451930007583103
 40
0.6016869900859391
 40
0.6700926073468475
 40
0.7088297953635043
 40
0.7505583373043675
 40
0.8222225981555046
 40
0.8877617046664333
 40
0.9472351881900019
 40
1.0
 40
1.0
 40
1.0
 40
1.0
 10
95.35630224968511
 20
131.3330237334641
 30
0.0
 10
95.3560855527088
 20
131.3330704727338
 30
0.0
 10
95.34353151579226
 20
131.3357782470966
 30
0.0
 10
95.39261489767003
 20
131.323940803432
 30
0.0
 10
95.53771151469701
 20
131.3005039241285
 30
0.0
 10
95.81076596976808
 20
131.2665951224668
 30
0.0
 10
96.13929146075665
 20
131.2330274753289
 30
0.0
 10
96.53201951369995
 20
131.1948444556661
 30
0.0
 10
97.08174729144308
 20
131.1558763654099
 30
0.0
 10
97.70776992830311
 20
131.1364147381908
 30
0.0
 10
98.25096176792773
 20
131.1342295818597
 30
0.0
 10
98.69603051741262
 20
131.1427443031792
 30
0.0
 10
99.16247837184532
 20
131.1625278533293
 30
0.0
 10
99.69971929758978
 20
131.2066877351469
 30
0.0
 10
100.3479322664624
 20
131.2791075699074
 30
0.0
 10
100.9334714142244
 20
131.3600052309471
 30
0.0
 10
101.41444055147
 20
131.4381745854912
 30
0.0
 10
101.8598556635571
 20
131.5229451728313
 30
0.0
 10
102.2983550197169
 20
131.6167297532137
 30
0.0
 10
102.6373824541149
 20
131.6946326843557
 30
0.0
 10
102.8247414120763
 20
131.7448284769264
 30
0.0
 10
102.8452324091302
 20
131.7514967505169
 30
0.0
 10
102.8548655169757
 20
131.7546316003474
 30
0.0
  0
LINE
  5
128
330
1F
100
AcDbEntity
  8
0
  6
HIDDEN
 62
     7
370
     0
100
AcDbLine
 10
163.2056514802
 20
103.9046062669
 30
0.0
 11
163.2056514802
 21
112.4046067288
 31
0.0
  0
LINE
  5
129
330
1F
100
AcDbEntity
  8
0
  6
HIDDEN
 62
     7
370
     0
100
AcDbLine
 10
163.7163813296
 20
104.7546064528
 30
0.0
 11
163.7163813296
 21
111.5546065429
 31
0.0
  0
LINE
  5
12A
330
1F
100
AcDbEntity
  8
0
  6
HIDDEN
 62
     7
370
     0
100
AcDbLine
 10
170.0556482258
 20
125.077255494
 30
0.0
 11
172.5556532922
 21
125.077255494
 31
0.0
  0
LINE
  5
12B
330
1F
100
AcDbEntity
  8
0
  6
HIDDEN
 62
     7
370
     0
100
AcDbLine
 10
167.55565061
 20
125.077255494
 30
0.0
 11
170.0556482258
 21
125.077255494
 31
0.0
  0
LINE
  5
12C
330
1F
100
AcDbEntity
  8
0
  6
HIDDEN
 62
     7
370
     0
100
AcDbLine
 10
172.5556532922
 20
91.2319575017
 30
0.0
 11
167.55565061
 21
91.2319575017
 31
0.0
  0
LINE
  5
12D
330
1F
100
AcDbEntity
  8
0
  6
HIDDEN
 62
     7
370
     0
100
AcDbLine
 10
170.0556482258
 20
116.6546069598
 30
0.0
 11
172.5556532922
 21
116.6546069598
 31
0.0
  0
LINE
  5
12E
330
1F
100
AcDbEntity
  8
0
  6
HIDDEN
 62
     7
370
     0
100
AcDbLine
 10
167.55565061
 20
116.6546069598
 30
0.0
 11
170.0556482258
 21
116.6546069598
 31
0.0
  0
LINE
  5
12F
330
1F
100
AcDbEntity
  8
0
  6
HIDDEN
 62
     7
370
     0
100
AcDbLine
 10
172.5556532922
 20
99.6546060359
 30
0.0
 11
167.55565061
 21
99.6546060359
 31
0.0
  0
SPLINE
  5
130
330
1F
100
AcDbEntity
  8
0
  6
HIDDEN
 62
     7
370
     0
100
AcDbSpline
210
0.0
220
0.0
230
1.0
 70
     8
 71
     3
 72
    10
 73
     6
 74
     0
 42
0.00000001
 43
0.00000001
 40
0.0
 40
0.0
 40
0.0
 40
0.0
 40
0.5
 40
0.5
 40
1.0
 40
1.0
 40
1.0
 40
1.0
 10
167.6251483614205
 20
115.6798741545246
 30
0.0
 10
167.6154306807873
 20
115.7407318576011
 30
0.0
 10
167.6089247573419
 20
115.7967186327546
 30
0.0
 10
167.6042629904757
 20
115.8981145546372
 30
0.0
 10
167.6062754586175
 20
115.9404000918357
 30
0.0
 10
167.6123084297887
 20
115.97435453562
 30
0.0
  0
SPLINE
  5
131
330
1F
100
AcDbEntity
  8
0
  6
HIDDEN
 62
     7
370
     0
100
AcDbSpline
210
0.0
220
0.0
230
1.0
 70
     8
 71
     3
 72
    18
 73
    14
 74
     0
 42
0.00000001
 43
0.00000001
 40
0.0
 40
0.0
 40
0.0
 40
0.0
 40
0.0144186444848448
 40
0.1582431375475126
 40
0.2204083202611456
 40
0.2732375519806523
 40
0.3264968272624032
 40
0.3832987215610215
 40
0.4752637324488833
 40
0.6187361086341903
 40
0.7645793172497216
 40
0.9123408414489721
 40
1.0
 40
1.0
 40
1.0
 40
1.0
 10
167.635118502632
 20
116.0364425322088
 30
0.0
 10
167.6360337958521
 20
116.0390736628628
 30
0.0
 10
167.6460790446331
 20
116.0679500506825
 30
0.0
 10
167.6712629578155
 20
116.0677867205155
 30
0.0
 10
167.6931538848676
 20
116.0440700066699
 30
0.0
 10
167.7018506010622
 20
116.0062457432383
 30
0.0
 10
167.6994222103847
 20
115.9467095003928
 30
0.0
 10
167.6842748724442
 20
115.8569965021117
 30
0.0
 10
167.6541802973103
 20
115.7220086296025
 30
0.0
 10
167.6190801060576
 20
115.5509053265049
 30
0.0
 10
167.6014924727414
 20
115.3805183908452
 30
0.0
 10
167.6089851215779
 20
115.2611244805855
 30
0.0
 10
167.6288938373226
 20
115.2284380739167
 30
0.0
 10
167.6363068702372
 20
115.2162672532769
 30
0.0
  0
LWPOLYLINE
  5
132
330
1F
100
AcDbEntity
  8
0
  6
HIDDEN
 62
     7
370
     0
100
AcDbPolyline
 90
        8
 70
   128
 43
0.0
 10
167.6496769371
 20
115.1882269932
 10
167.6786634209
 20
115.1802059775
 10
167.6940302434
 20
115.1992976246
 10
167.7002067747
 20
115.2331376961
 10
167.6983329537
 20
115.2842230676
 10
167.6865386846
 20
115.3630315838
 10
167.6581296208
 20
115.5042792251
 10
167.6251496258
 20
115.679874043
  0
SPLINE
  5
133
330
1F
100
AcDbEntity
  8
0
  6
HIDDEN
 62
     7
370
     0
100
AcDbSpline
210
0.0
220
0.0
230
1.0
 70
     8
 71
     3
 72
    14
 73
    10
 74
     0
 42
0.00000001
 43
0.00000001
 40
0.0
 40
0.0
 40
0.0
 40
0.0
 40
0.25
 40
0.25
 40
0.5
 40
0.5
 40
0.75
 40
0.75
 40
1.0
 40
1.0
 40
1.0
 40
1.0
 10
168.1547638437002
 20
116.7782124913028
 30
0.0
 10
168.1917898608716
 20
116.7451206062654
 30
0.0
 10
168.224157262853
 20
116.7046485714003
 30
0.0
 10
168.2689851354977
 20
116.6042982848748
 30
0.0
 10
168.2798757067563
 20
116.5462570265131
 30
0.0
 10
168.271198267581
 20
116.4144958152214
 30
0.0
 10
168.2516489763301
 20
116.3429170670644
 30
0.0
 10
168.1934514918591
 20
116.1948932098451
 30
0.0
 10
168.1559654114148
 20
116.1197365271829
 30
0.0
 10
168.115221214665
 20
116.0428225324167
 30
0.0
  0
SPLINE
  5
134
330
1F
100
AcDbEntity
  8
0
  6
HIDDEN
 62
     7
370
     0
100
AcDbSpline
210
0.0
220
0.0
230
1.0
 70
     8
 71
     3
 72
    14
 73
    10
 74
     0
 42
0.00000001
 43
0.00000001
 40
0.0
 40
0.0
 40
0.0
 40
0.0
 40
0.25
 40
0.25
 40
0.5
 40
0.5
 40
0.75
 40
0.75
 40
1.0
 40
1.0
 40
1.0
 40
1.0
 10
168.1152212146652
 20
116.0428225324172
 30
0.0
 10
168.0816724981719
 20
116.0792354796916
 30
0.0
 10
168.0493867692477
 20
116.1144682960236
 30
0.0
 10
167.9964419895607
 20
116.1943230946872
 30
0.0
 10
167.9754372505768
 20
116.2408765668615
 30
0.0
 10
167.9860821113545
 20
116.38020047025
 30
0.0
 10
168.0151183766109
 20
116.463483587409
 30
0.0
 10
168.0794730704499
 20
116.6223041893591
 30
0.0
 10
168.1164091296653
 20
116.7009488618865
 30
0.0
 10
168.1547638436999
 20
116.7782124913048
 30
0.0
  0
LWPOLYLINE
  5
135
330
1F
100
AcDbEntity
  8
0
  6
HIDDEN
 62
     7
370
     0
100
AcDbPolyline
 90
       20
 70
   128
 43
0.0
 10
169.1056507709
 20
115.9327812074
 10
169.5926989498
 20
115.9902507952
 10
170.0269709411
 20
116.1564313388
 10
170.361401427
 20
116.4133152505
 10
170.5597507837
 20
116.7330643674
 10
170.6005278113
 20
117.0810297644
 10
170.4793105903
 20
117.419504053
 10
170.2092344942
 20
117.7118070936
 10
169.8195728543
 20
117.9262636742
 10
169.3525406602
 20
118.0396354338
 10
168.8587571564
 20
118.0396354338
 10
168.3917286875
 20
117.9262636742
 10
168.0020633223
 20
117.7118070936
 10
167.7319909516
 20
117.419504053
 10
167.6107737305
 20
117.0810297644
 10
167.6515507581
 20
116.7330643674
 10
167.8499001148
 20
116.4133152505
 10
168.1843306008
 20
116.1564313388
 10
168.618602592
 20
115.9902507952
 10
169.1056507709
 20
115.9327812074
  0
SPLINE
  5
136
330
1F
100
AcDbEntity
  8
0
  6
HIDDEN
 62
     7
370
     0
100
AcDbSpline
210
0.0
220
0.0
230
1.0
 70
     8
 71
     3
 72
    48
 73
    44
 74
     0
 42
0.00000001
 43
0.00000001
 40
-0.0625000000000001
 40
-0.0625000000000001
 40
0.0
 40
0.0
 40
0.0624999999999997
 40
0.0624999999999997
 40
0.1249999999999994
 40
0.1249999999999994
 40
0.1874999999999991
 40
0.1874999999999991
 40
0.249999999999999
 40
0.249999999999999
 40
0.3124999999999989
 40
0.3124999999999989
 40
0.343749999999999
 40
0.343749999999999
 40
0.3749999999999991
 40
0.3749999999999991
 40
0.4062499999999992
 40
0.4062499999999992
 40
0.4374999999999992
 40
0.4374999999999992
 40
0.4999999999999994
 40
0.4999999999999994
 40
0.5624999999999997
 40
0.5624999999999997
 40
0.6249999999999999
 40
0.6249999999999999
 40
0.6562500000000001
 40
0.6562500000000001
 40
0.6875000000000002
 40
0.6875000000000002
 40
0.7500000000000001
 40
0.7500000000000001
 40
0.8125000000000001
 40
0.8125000000000001
 40
0.84375
 40
0.84375
 40
0.875
 40
0.875
 40
0.9062499999999999
 40
0.9062499999999999
 40
0.9374999999999999
 40
0.9374999999999999
 40
1.0
 40
1.0
 40
1.0625
 40
1.0625
 10
170.3993962944892
 20
115.725376952175
 30
0.0
 10
170.2362409384987
 20
115.4133528247228
 30
0.0
 10
170.1485370292475
 20
115.264021571423
 30
0.0
 10
169.9965451997966
 20
114.9685375348384
 30
0.0
 10
169.9356575821049
 20
114.8235742078762
 30
0.0
 10
169.9339737456598
 20
114.5723321210163
 30
0.0
 10
169.9924204461635
 20
114.4800365294315
 30
0.0
 10
170.1374435155225
 20
114.357240637611
 30
0.0
 10
170.2229626237831
 20
114.3244807099889
 30
0.0
 10
170.3822549660609
 20
114.3128888226182
 30
0.0
 10
170.456969007846
 20
114.3346359938443
 30
0.0
 10
170.5406234148966
 20
114.4191925558373
 30
0.0
 10
170.5631867727277
 20
114.4555847840539
 30
0.0
 10
170.595023746059
 20
114.5455142389335
 30
0.0
 10
170.6041747446759
 20
114.5997627172235
 30
0.0
 10
170.6067865188654
 20
114.7203260701268
 30
0.0
 10
170.6003315314722
 20
114.7884218578313
 30
0.0
 10
170.5731441809958
 20
114.9323109932308
 30
0.0
 10
170.5526243965258
 20
115.0080102285739
 30
0.0
 10
170.4742088270052
 20
115.2423595364187
 30
0.0
 10
170.4010228326285
 20
115.4030665211664
 30
0.0
 10
170.2440435769057
 20
115.7132127190403
 30
0.0
 10
170.1576682758561
 20
115.8661737055148
 30
0.0
 10
170.0085668216011
 20
116.1601342004276
 30
0.0
 10
169.9438144723331
 20
116.3073793352908
 30
0.0
 10
169.931641935068
 20
116.4991688510258
 30
0.0
 10
169.9420231629331
 20
116.5562913095923
 30
0.0
 10
169.9856640942857
 20
116.6532866053057
 30
0.0
 10
170.0174629685638
 20
116.6920909463733
 30
0.0
 10
170.1275165276258
 20
116.7858914532618
 30
0.0
 10
170.2151830345553
 20
116.8162137633032
 30
0.0
 10
170.3799197021739
 20
116.8214605045429
 30
0.0
 10
170.4552328938282
 20
116.7956050330095
 30
0.0
 10
170.5399468397624
 20
116.7062801609205
 30
0.0
 10
170.5626439076862
 20
116.668756746165
 30
0.0
 10
170.5948971756975
 20
116.5766295383194
 30
0.0
 10
170.6040559173452
 20
116.5221892970572
 30
0.0
 10
170.6068552161784
 20
116.4015915827291
 30
0.0
 10
170.6004612744758
 20
116.3336487775597
 30
0.0
 10
170.5733682103935
 20
116.191191763323
 30
0.0
 10
170.5527464386031
 20
116.1160633203645
 30
0.0
 10
170.4736516222628
 20
115.8841943165061
 30
0.0
 10
170.3993962944892
 20
115.725376952175
 30
0.0
 10
170.2362409384987
 20
115.4133528247228
 30
0.0
  0
SPLINE
  5
137
330
1F
100
AcDbEntity
  8
0
  6
HIDDEN
 62
     7
370
     0
100
AcDbSpline
210
0.0
220
0.0
230
1.0
 70
     8
 71
     3
 72
    12
 73
     8
 74
     0
 42
0.00000001
 43
0.00000001
 40
0.0
 40
0.0
 40
0.0
 40
0.0
 40
0.4999999999999991
 40
0.4999999999999991
 40
0.7499999999999996
 40
0.7499999999999996
 40
1.0
 40
1.0
 40
1.0
 40
1.0
 10
168.1152212146652
 20
114.449680572711
 30
0.0
 10
168.1965953778747
 20
114.5021150996991
 30
0.0
 10
168.2664448513598
 20
114.588295386998
 30
0.0
 10
168.2799857538258
 20
114.7747515601416
 30
0.0
 10
168.2690342241597
 20
114.8430022805277
 30
0.0
 10
168.2241845902685
 20
114.9877865451716
 30
0.0
 10
168.1917969753572
 20
115.0615671856179
 30
0.0
 10
168.1547638437
 20
115.1375934890825
 30
0.0
  0
SPLINE
  5
138
330
1F
100
AcDbEntity
  8
0
  6
HIDDEN
 62
     7
370
     0
100
AcDbSpline
210
0.0
220
0.0
230
1.0
 70
     8
 71
     3
 72
    14
 73
    10
 74
     0
 42
0.00000001
 43
0.00000001
 40
0.0
 40
0.0
 40
0.0
 40
0.0
 40
0.25
 40
0.25
 40
0.5
 40
0.5
 40
0.75
 40
0.75
 40
1.0
 40
1.0
 40
1.0
 40
1.0
 10
168.1547638437002
 20
115.137593489082
 30
0.0
 10
168.116260333186
 20
115.1046626101061
 30
0.0
 10
168.0791474095459
 20
115.0734848467899
 30
0.0
 10
168.0145656313289
 20
115.0048631154622
 30
0.0
 10
167.9858200370512
 20
114.9675541978052
 30
0.0
 10
167.9755827328758
 20
114.8455645806976
 30
0.0
 10
167.9969153831545
 20
114.7636368673662
 30
0.0
 10
168.0497896634027
 20
114.6063102493833
 30
0.0
 10
168.0818332471475
 20
114.5274324937878
 30
0.0
 10
168.1152212146653
 20
114.4496805727109
 30
0.0
  0
SPLINE
  5
139
330
1F
100
AcDbEntity
  8
0
  6
HIDDEN
 62
     7
370
     0
100
AcDbSpline
210
0.0
220
0.0
230
1.0
 70
     8
 71
     3
 72
     8
 73
     4
 74
     0
 42
0.00000001
 43
0.00000001
 40
0.0
 40
0.0
 40
0.0
 40
0.0
 40
0.000159097695343
 40
0.000159097695343
 40
0.000159097695343
 40
0.000159097695343
 10
77.49081809468233
 20
92.35311606181959
 30
0.0
 10
77.44576662417798
 20
92.3251371774958
 30
0.0
 10
77.40071058576318
 20
92.29716564712074
 30
0.0
 10
77.3556500854643
 20
92.26920130776823
 30
0.0
  0
SPLINE
  5
13A
330
1F
100
AcDbEntity
  8
0
  6
HIDDEN
 62
     7
370
     0
100
AcDbSpline
210
0.0
220
0.0
230
1.0
 70
     8
 71
     3
 72
    11
 73
     7
 74
     0
 42
0.00000001
 43
0.00000001
 40
0.0
 40
0.0
 40
0.0
 40
0.0
 40
0.0008212909311456
 40
0.0008212909311456
 40
0.0008212909311456
 40
0.001642825724306
 40
0.001642825724306
 40
0.001642825724306
 40
0.001642825724306
 10
77.3556500854643
 20
92.26920130776823
 30
0.0
 10
77.16450506398212
 20
92.22591511891568
 30
0.0
 10
76.97308672830565
 20
92.18497860927839
 30
0.0
 10
76.78144065364451
 20
92.14637683789181
 30
0.0
 10
76.5897375721029
 20
92.10776358405472
 30
0.0
 10
76.3977924488174
 20
92.07148337476872
 30
0.0
 10
76.20565008546421
 20
92.03751646841721
 30
0.0
  0
ARC
  5
13B
330
1F
100
AcDbEntity
  8
0
  6
HIDDEN
 62
     7
370
     0
100
AcDbCircle
 10
184.2700498607
 20
115.5429721364
 30
0.0
 40
16.16255825247058
100
AcDbArc
 50
175.6168377231
 51
178.2277644625
  0
LINE
  5
13C
330
1F
100
AcDbEntity
  8
0
  6
HIDDEN
 62
     7
370
     0
100
AcDbLine
 10
124.1956501337
 20
128.2904729759
 30
0.0
 11
124.1956501337
 21
128.0046072369
 31
0.0
  0
LINE
  5
13D
330
1F
100
AcDbEntity
  8
0
  6
HIDDEN
 62
     7
370
     0
100
AcDbLine
 10
128.0156503501
 20
128.3329152083
 30
0.0
 11
128.0156503501
 21
128.0046072369
 31
0.0
  0
ARC
  5
13E
330
1F
100
AcDbEntity
  8
0
  6
HIDDEN
 62
     7
370
     0
100
AcDbCircle
 10
155.0554308656
 20
115.5454315521
 30
0.0
 40
13.10567944261597
100
AcDbArc
 50
355.2039668206
 51
358.2167133662
  0
LINE
  5
13F
330
1F
100
AcDbEntity
  8
0
  6
HIDDEN
 62
     7
370
     0
100
AcDbLine
 10
129.4975820067
 20
132.613296113
 30
0.0
 11
129.4975820067
 21
128.0046072369
 31
0.0
  0
SPLINE
  5
140
330
1F
100
AcDbEntity
  8
0
  6
HIDDEN
 62
     7
370
     0
100
AcDbSpline
210
0.0
220
0.0
230
1.0
 70
     8
 71
     3
 72
    24
 73
    20
 74
     0
 42
0.00000001
 43
0.00000001
 40
0.0
 40
0.0
 40
0.0
 40
0.0
 40
0.25
 40
0.25
 40
0.374999999999999
 40
0.374999999999999
 40
0.4374999999999993
 40
0.4374999999999993
 40
0.4687499999999994
 40
0.4687499999999994
 40
0.4999999999999995
 40
0.4999999999999995
 40
0.5624999999999971
 40
0.5624999999999971
 40
0.6249999999999947
 40
0.6249999999999947
 40
0.7499999999999947
 40
0.7499999999999947
 40
1.0
 40
1.0
 40
1.0
 40
1.0
 10
76.2683134601877
 20
88.48005395307051
 30
0.0
 10
76.28206657885795
 20
88.5507040110608
 30
0.0
 10
76.2998391462638
 20
88.61730212382571
 30
0.0
 10
76.35209023781917
 20
88.69140014405892
 30
0.0
 10
76.3731253134007
 20
88.71265795122048
 30
0.0
 10
76.42602572102916
 20
88.72080387736672
 30
0.0
 10
76.44713139390707
 20
88.71986407397095
 30
0.0
 10
76.49318356258503
 20
88.6988480823936
 30
0.0
 10
76.51155403456843
 20
88.68793927628599
 30
0.0
 10
76.55310566963414
 20
88.65530436533861
 30
0.0
 10
76.57567234239104
 20
88.63381238496726
 30
0.0
 10
76.63845335885105
 20
88.56534644138094
 30
0.0
 10
76.67158311981895
 20
88.51927198317584
 30
0.0
 10
76.72850080630397
 20
88.43426409484117
 30
0.0
 10
76.75268683180775
 20
88.39398379365979
 30
0.0
 10
76.81789478218751
 20
88.27904756719384
 30
0.0
 10
76.85261084237874
 20
88.20846458204684
 30
0.0
 10
76.94582611270961
 20
88.00425882296824
 30
0.0
 10
76.99149864807029
 20
87.88136044064088
 30
0.0
 10
77.02980373156885
 20
87.76448716425331
 30
0.0
  0
SPLINE
  5
141
330
1F
100
AcDbEntity
  8
0
  6
HIDDEN
 62
     7
370
     0
100
AcDbSpline
210
0.0
220
0.0
230
1.0
 70
     8
 71
     3
 72
    11
 73
     7
 74
     0
 42
0.00000001
 43
0.00000001
 40
0.0
 40
0.0
 40
0.0
 40
0.0
 40
0.0005781862223978
 40
0.0005781862223978
 40
0.0005781862223978
 40
0.0011563724723928
 40
0.0011563724723928
 40
0.0011563724723928
 40
0.0011563724723928
 10
77.20565008546428
 20
120.794748804898
 30
0.0
 10
77.03898953118868
 20
120.8592783163116
 30
0.0
 10
76.8723262342822
 20
120.9237810201554
 30
0.0
 10
76.70565965045195
 20
120.988267468589
 30
0.0
 10
76.53899305819287
 20
121.052753920284
 30
0.0
 10
76.372323192567
 20
121.117223929012
 30
0.0
 10
76.20565008546426
 20
121.1816796957447
 30
0.0
  0
SPLINE
  5
142
330
1F
100
AcDbEntity
  8
0
  6
HIDDEN
 62
     7
370
     0
100
AcDbSpline
210
0.0
220
0.0
230
1.0
 70
     8
 71
     3
 72
    11
 73
     7
 74
     0
 42
0.00000001
 43
0.00000001
 40
0.0
 40
0.0
 40
0.0
 40
0.0
 40
0.0005778746105108
 40
0.0005778746105108
 40
0.0005778746105108
 40
0.0011557494857226
 40
0.0011557494857226
 40
0.0011557494857226
 40
0.0011557494857226
 10
76.20565008546427
 20
95.12738464236135
 30
0.0
 10
76.3723169618776
 20
95.19319676905522
 30
0.0
 10
76.53898368143908
 20
95.25905524919281
 30
0.0
 10
76.70565032948771
 20
95.32496282212345
 30
0.0
 10
76.87231705400637
 20
95.39087042529381
 30
0.0
 10
77.03898374842696
 20
95.45682753368233
 30
0.0
 10
77.20565008546428
 20
95.52282927360503
 30
0.0
  0
SPLINE
  5
143
330
1F
100
AcDbEntity
  8
0
  6
HIDDEN
 62
     7
370
     0
100
AcDbSpline
210
0.0
220
0.0
230
1.0
 70
     8
 71
     3
 72
    11
 73
     7
 74
     0
 42
0.00000001
 43
0.00000001
 40
0.0000000000000006
 40
0.0000000000000006
 40
0.0000000000000006
 40
0.0000000000000006
 40
0.0005780486062768
 40
0.0005780486062768
 40
0.0005780486062768
 40
0.0011560973514127
 40
0.0011560973514127
 40
0.0011560973514127
 40
0.0011560973514127
 10
76.20565008546427
 20
118.135420999543
 30
0.0
 10
76.3723199415092
 20
118.0730491380285
 30
0.0
 10
76.53898764559345
 20
118.0106952777308
 30
0.0
 10
76.70565395004711
 20
117.9483757175447
 30
0.0
 10
76.87232029074084
 20
117.8860561438078
 30
0.0
 10
77.03898524736962
 20
117.8237709394882
 30
0.0
 10
77.20565008546428
 20
117.7615458189196
 30
0.0
  0
SPLINE
  5
144
330
1F
100
AcDbEntity
  8
0
  6
HIDDEN
 62
     7
370
     0
100
AcDbSpline
210
0.0
220
0.0
230
1.0
 70
     8
 71
     3
 72
    11
 73
     7
 74
     0
 42
0.00000001
 43
0.00000001
 40
0.0
 40
0.0
 40
0.0
 40
0.0
 40
0.0005782401583533
 40
0.0005782401583533
 40
0.0005782401583533
 40
0.0011564805960992
 40
0.0011564805960992
 40
0.0011564805960992
 40
0.0011564805960992
 10
77.20565008546428
 20
98.5537797054536
 30
0.0
 10
77.03899913511539
 20
98.4903542473928
 30
0.0
 10
76.87233954253273
 20
98.42699872373751
 30
0.0
 10
76.70567249010416
 20
98.36370113938754
 30
0.0
 10
76.53900535354036
 20
98.3004035230843
 30
0.0
 10
76.37233074609432
 20
98.23716372814361
 30
0.0
 10
76.20565008546423
 20
98.17396372150478
 30
0.0
  0
CIRCLE
  5
145
330
1F
100
AcDbEntity
  8
0
  6
HIDDEN
 62
     7
370
     0
100
AcDbCircle
 10
115.1056500855
 20
108.1546064979
 30
0.0
 40
5.0
  0
LWPOLYLINE
  5
146
330
1F
100
AcDbEntity
  8
0
  6
HIDDEN
 62
     7
370
     0
100
AcDbPolyline
 90
       20
 70
   128
 43
0.0
 10
202.6903386297
 20
100.1905980101
 10
202.6780079188
 20
100.1428742474
 10
202.6614974322
 20
100.2572546294
 10
202.6425804081
 20
100.5213446496
 10
202.6233132067
 20
100.9065261623
 10
202.6057819905
 20
101.371058221
 10
202.5918866577
 20
101.8646023748
 10
202.5831322255
 20
102.3336746311
 10
202.5804649177
 20
102.7274443349
 10
202.5841827574
 20
103.0032401485
 10
202.5938759627
 20
103.131175465
 10
202.6084940019
 20
103.0973866163
 10
202.6264573517
 20
102.9055346316
 10
202.6458139601
 20
102.5764098903
 10
202.6644702139
 20
102.1456783218
 10
202.6803995552
 20
101.6600164166
 10
202.6918808999
 20
101.1720532132
 10
202.697670001
 20
100.7346668793
 10
202.6971335592
 20
100.3952547489
 10
202.6903386297
 20
100.1905980101
  0
LWPOLYLINE
  5
147
330
1F
100
AcDbEntity
  8
0
  6
HIDDEN
 62
     7
370
     0
100
AcDbPolyline
 90
       17
 70
   128
 43
0.0
 10
202.1737228217
 20
100.6594444206
 10
202.1636198344
 20
100.6337850867
 10
202.1498809638
 20
100.7590139797
 10
202.134599823
 20
101.0160655296
 10
202.1200935426
 20
101.365806493
 10
202.108574945
 20
101.7549917614
 10
202.1018023672
 20
102.124371524
 10
202.1007965388
 20
102.4177111266
 10
202.1057213726
 20
102.5903517893
 10
202.1158243599
 20
102.6160111232
 10
202.1295632305
 20
102.4907826958
 10
202.1448443713
 20
102.2337306803
 10
202.1593506518
 20
101.8839897169
 10
202.1708692494
 20
101.4948044485
 10
202.1776418271
 20
101.1254246859
 10
202.1786476555
 20
100.8320855489
 10
202.1737228217
 20
100.6594444206
  0
LWPOLYLINE
  5
148
330
1F
100
AcDbEntity
  8
0
  6
HIDDEN
 62
     7
370
     0
100
AcDbPolyline
 90
       20
 70
   128
 43
0.0
 10
208.0242763343
 20
100.3387872642
 10
208.0119456234
 20
100.2910635015
 10
207.9954351368
 20
100.4054438835
 10
207.9765181127
 20
100.6695339037
 10
207.9572509113
 20
101.0547154164
 10
207.9397196951
 20
101.5192474751
 10
207.9258243623
 20
102.012791629
 10
207.9170699301
 20
102.4818638852
 10
207.9144026222
 20
102.875633589
 10
207.918120462
 20
103.1514294026
 10
207.9278136673
 20
103.2793647191
 10
207.9424317064
 20
103.2455754047
 10
207.9603950563
 20
103.05372342
 10
207.9797516647
 20
102.7245991444
 10
207.9984079185
 20
102.2938675759
 10
208.0143372598
 20
101.8082056707
 10
208.0258186045
 20
101.3202424673
 10
208.0316077056
 20
100.8828556677
 10
208.0310712638
 20
100.543444003
 10
208.0242763343
 20
100.3387872642
  0
LWPOLYLINE
  5
149
330
1F
100
AcDbEntity
  8
0
  6
HIDDEN
 62
     7
370
     0
100
AcDbPolyline
 90
       11
 70
   128
 43
0.0
 10
208.1705535832
 20
100.5738903349
 10
208.1651072087
 20
100.5794591783
 10
208.1496100011
 20
100.7085134788
 10
208.1321458402
 20
100.9838264016
 10
208.1150840106
 20
101.3682148932
 10
208.1007267418
 20
101.809765636
 10
208.0910037341
 20
102.2488446487
 10
208.0872411909
 20
102.626151829
 10
208.0899383011
 20
102.8907293966
 10
208.0987374368
 20
103.0068452982
 10
208.1056515756
 20
103.0013407162
  0
LINE
  5
14A
330
1F
100
AcDbEntity
  8
0
  6
HIDDEN
 62
     7
370
     0
100
AcDbLine
 10
206.1660791817
 20
101.5122066764
 30
0.0
 11
206.1660791817
 21
100.8998341439
 31
0.0
  0
LINE
  5
14B
330
1F
100
AcDbEntity
  8
0
  6
HIDDEN
 62
     7
370
     0
100
AcDbLine
 10
208.1645409646
 20
101.567728403
 30
0.0
 11
208.1645409646
 21
100.9553558705
 31
0.0
  0
LINE
  5
14C
330
1F
100
AcDbEntity
  8
0
  6
HIDDEN
 62
     7
370
     0
100
AcDbLine
 10
206.1660791817
 20
101.5122066764
 30
0.0
 11
208.1645409646
 21
101.567728403
 31
0.0
  0
LINE
  5
14D
330
1F
100
AcDbEntity
  8
0
  6
HIDDEN
 62
     7
370
     0
100
AcDbLine
 10
206.1660791817
 20
101.5122066764
 30
0.0
 11
206.1366344872
 21
102.3483140906
 31
0.0
  0
LINE
  5
14E
330
1F
100
AcDbEntity
  8
0
  6
HIDDEN
 62
     7
370
     0
100
AcDbLine
 10
208.1645409646
 20
101.567728403
 30
0.0
 11
208.1350962701
 21
102.4038358172
 31
0.0
  0
LINE
  5
14F
330
1F
100
AcDbEntity
  8
0
  6
HIDDEN
 62
     7
370
     0
100
AcDbLine
 10
206.1366344872
 20
102.3483140906
 30
0.0
 11
208.1350962701
 21
102.4038358172
 31
0.0
  0
LINE
  5
150
330
1F
100
AcDbEntity
  8
0
  6
HIDDEN
 62
     7
370
     0
100
AcDbLine
 10
206.1366344872
 20
102.3483140906
 30
0.0
 11
206.1071897926
 21
102.5720489724
 31
0.0
  0
LINE
  5
151
330
1F
100
AcDbEntity
  8
0
  6
HIDDEN
 62
     7
370
     0
100
AcDbLine
 10
208.1350962701
 20
102.4038358172
 30
0.0
 11
208.1056515756
 21
102.6275711646
 31
0.0
  0
LINE
  5
152
330
1F
100
AcDbEntity
  8
0
  6
HIDDEN
 62
     7
370
     0
100
AcDbLine
 10
206.1366344872
 20
101.1235694913
 30
0.0
 11
208.1350962701
 21
101.1790912179
 31
0.0
  0
LINE
  5
153
330
1F
100
AcDbEntity
  8
0
  6
HIDDEN
 62
     7
370
     0
100
AcDbLine
 10
206.1660791817
 20
100.8998341439
 30
0.0
 11
208.1645409646
 21
100.9553558705
 31
0.0
  0
LINE
  5
154
330
1F
100
AcDbEntity
  8
0
  6
HIDDEN
 62
     7
370
     0
100
AcDbLine
 10
206.1366344872
 20
101.1235694913
 30
0.0
 11
206.1660791817
 21
100.8998341439
 31
0.0
  0
LINE
  5
155
330
1F
100
AcDbEntity
  8
0
  6
HIDDEN
 62
     7
370
     0
100
AcDbLine
 10
208.1350962701
 20
101.1790912179
 30
0.0
 11
208.1645409646
 21
100.9553558705
 31
0.0
  0
LINE
  5
156
330
1F
100
AcDbEntity
  8
0
  6
HIDDEN
 62
     7
370
     0
100
AcDbLine
 10
206.1071897926
 20
101.9596769055
 30
0.0
 11
208.1056515756
 21
102.0151986321
 31
0.0
  0
LINE
  5
157
330
1F
100
AcDbEntity
  8
0
  6
HIDDEN
 62
     7
370
     0
100
AcDbLine
 10
206.1071897926
 20
102.5720489724
 30
0.0
 11
208.1056515756
 21
102.6275711646
 31
0.0
  0
LINE
  5
158
330
1F
100
AcDbEntity
  8
0
  6
HIDDEN
 62
     7
370
     0
100
AcDbLine
 10
206.1071897926
 20
101.9596769055
 30
0.0
 11
206.1071897926
 21
102.5720489724
 31
0.0
  0
LINE
  5
159
330
1F
100
AcDbEntity
  8
0
  6
HIDDEN
 62
     7
370
     0
100
AcDbLine
 10
206.1366344872
 20
101.1235694913
 30
0.0
 11
206.1071897926
 21
101.9596769055
 31
0.0
  0
LINE
  5
15A
330
1F
100
AcDbEntity
  8
0
  6
HIDDEN
 62
     7
370
     0
100
AcDbLine
 10
208.1350962701
 20
101.1790912179
 30
0.0
 11
208.1056515756
 21
102.0151986321
 31
0.0
  0
LWPOLYLINE
  5
15B
330
1F
100
AcDbEntity
  8
0
  6
HIDDEN
 62
     7
370
     0
100
AcDbPolyline
 90
        9
 70
   128
 43
0.0
 10
208.1056515756
 20
115.1239443151
 10
208.0991174164
 20
114.9650904862
 10
208.0845515313
 20
114.5252049482
 10
208.0745305004
 20
114.0843759803
 10
208.0704103294
 20
113.7021397753
 10
208.0727498117
 20
113.4301195433
 10
208.0812285724
 20
113.3050531661
 10
208.0947066727
 20
113.3438311098
 10
208.1056515756
 20
113.4598617954
  0
LWPOLYLINE
  5
15C
330
1F
100
AcDbEntity
  8
0
  6
HIDDEN
 62
     7
370
     0
100
AcDbPolyline
 90
       20
 70
   128
 43
0.0
 10
208.0048079672
 20
114.7897797218
 10
208.0130781117
 20
115.2543862863
 10
208.0152015271
 20
115.6397042377
 10
208.0109546962
 20
115.9039791254
 10
208.0007995548
 20
116.018573246
 10
207.9858313384
 20
115.9710664814
 10
207.9676742735
 20
115.7666090457
 10
207.9482953134
 20
115.4273561714
 10
207.9297955218
 20
114.9900713516
 10
207.9141791048
 20
114.5021412103
 10
207.9031373444
 20
114.0164401894
 10
207.8978697839
 20
113.5856015189
 10
207.8989426675
 20
113.2563137962
 10
207.9062442365
 20
113.0642606458
 10
207.9189772787
 20
113.0302529363
 10
207.9357708874
 20
113.1579768425
 10
207.9547996702
 20
113.4335910482
 10
207.9739998164
 20
113.8272285042
 10
207.991292614
 20
114.2962327739
 10
208.0048079672
 20
114.7897797218
  0
LWPOLYLINE
  5
15D
330
1F
100
AcDbEntity
  8
0
  6
HIDDEN
 62
     7
370
     0
100
AcDbPolyline
 90
       20
 70
   128
 43
0.0
 10
202.6708702626
 20
114.9379689759
 10
202.6791404071
 20
115.4025750747
 10
202.6812638226
 20
115.7878934918
 10
202.6770169916
 20
116.0521688452
 10
202.6668618503
 20
116.1667615688
 10
202.6518936339
 20
116.1192557355
 10
202.6337365689
 20
115.9147982998
 10
202.6143576088
 20
115.5755454255
 10
202.5958578172
 20
115.1382606057
 10
202.5802414003
 20
114.6503299987
 10
202.5691996398
 20
114.1646289779
 10
202.5639320793
 20
113.733790773
 10
202.5650049629
 20
113.4045030503
 10
202.5723065319
 20
113.2124494342
 10
202.5850395742
 20
113.1784421904
 10
202.6018331828
 20
113.3061656309
 10
202.6208619657
 20
113.5817798367
 10
202.6400621119
 20
113.9754177583
 10
202.6573549094
 20
114.444422028
 10
202.6708702626
 20
114.9379689759
  0
LWPOLYLINE
  5
15E
330
1F
100
AcDbEntity
  8
0
  6
HIDDEN
 62
     7
370
     0
100
AcDbPolyline
 90
       17
 70
   128
 43
0.0
 10
202.155118722
 20
114.8628275422
 10
202.1612207475
 20
115.2256936347
 10
202.1614815178
 20
115.5062117195
 10
202.1558563295
 20
115.6616741372
 10
202.1452094498
 20
115.6684141187
 10
202.1311576548
 20
115.5254053464
 10
202.1158467117
 20
115.2544193482
 10
202.101593751
 20
114.8967113858
 10
202.0905817928
 20
114.5067396155
 10
202.0844797673
 20
114.1438730573
 10
202.084218997
 20
113.8633554382
 10
202.0898441854
 20
113.7078925548
 10
202.100491065
 20
113.7011525733
 10
202.11454286
 20
113.8441613456
 10
202.1298612538
 20
114.1151473438
 10
202.1441067639
 20
114.4728553062
 10
202.155118722
 20
114.8628275422
  0
LINE
  5
15F
330
1F
100
AcDbEntity
  8
0
  6
HIDDEN
 62
     7
370
     0
100
AcDbLine
 10
208.1056515756
 20
114.771436858
 30
0.0
 11
208.0902810278
 21
114.3640274694
 31
0.0
  0
LINE
  5
160
330
1F
100
AcDbEntity
  8
0
  6
HIDDEN
 62
     7
370
     0
100
AcDbLine
 10
208.0874796095
 20
113.7033998547
 30
0.0
 11
208.0902810278
 21
114.3640274694
 31
0.0
  0
LINE
  5
161
330
1F
100
AcDbEntity
  8
0
  6
HIDDEN
 62
     7
370
     0
100
AcDbLine
 10
208.1056515756
 20
113.8036395004
 30
0.0
 11
208.0874796095
 21
113.7033998547
 31
0.0
  0
LINE
  5
162
330
1F
100
AcDbEntity
  8
0
  6
HIDDEN
 62
     7
370
     0
100
AcDbLine
 10
206.116972405
 20
113.9131122781
 30
0.0
 11
206.1477135005
 21
114.7279305896
 31
0.0
  0
LINE
  5
163
330
1F
100
AcDbEntity
  8
0
  6
HIDDEN
 62
     7
370
     0
100
AcDbLine
 10
206.116972405
 20
113.9131122781
 30
0.0
 11
206.0890252772
 21
113.7589215813
 31
0.0
  0
LINE
  5
164
330
1F
100
AcDbEntity
  8
0
  6
HIDDEN
 62
     7
370
     0
100
AcDbLine
 10
206.0890252772
 20
113.7589215813
 30
0.0
 11
206.0918192449
 21
114.419549196
 31
0.0
  0
LINE
  5
165
330
1F
100
AcDbEntity
  8
0
  6
HIDDEN
 62
     7
370
     0
100
AcDbLine
 10
206.1505074682
 20
115.3885582043
 30
0.0
 11
206.1225603404
 21
115.2343679732
 31
0.0
  0
LINE
  5
166
330
1F
100
AcDbEntity
  8
0
  6
HIDDEN
 62
     7
370
     0
100
AcDbLine
 10
206.1505074682
 20
115.3885582043
 30
0.0
 11
206.1477135005
 21
114.7279305896
 31
0.0
  0
LINE
  5
167
330
1F
100
AcDbEntity
  8
0
  6
HIDDEN
 62
     7
370
     0
100
AcDbLine
 10
206.1225603404
 20
115.2343679732
 30
0.0
 11
206.0918192449
 21
114.419549196
 31
0.0
  0
LINE
  5
168
330
1F
100
AcDbEntity
  8
0
  6
HIDDEN
 62
     7
370
     0
100
AcDbLine
 10
206.0918192449
 20
114.419549196
 30
0.0
 11
208.0902810278
 21
114.3640274694
 31
0.0
  0
LINE
  5
169
330
1F
100
AcDbEntity
  8
0
  6
HIDDEN
 62
     7
370
     0
100
AcDbLine
 10
206.1225603404
 20
115.2343679732
 30
0.0
 11
208.1210221234
 21
115.1788462466
 31
0.0
  0
LINE
  5
16A
330
1F
100
AcDbEntity
  8
0
  6
HIDDEN
 62
     7
370
     0
100
AcDbLine
 10
206.116972405
 20
113.9131122781
 30
0.0
 11
208.1056515756
 21
113.857862032
 31
0.0
  0
LINE
  5
16B
330
1F
100
AcDbEntity
  8
0
  6
HIDDEN
 62
     7
370
     0
100
AcDbLine
 10
206.0890252772
 20
113.7589215813
 30
0.0
 11
208.0874796095
 21
113.7033998547
 31
0.0
  0
LINE
  5
16C
330
1F
100
AcDbEntity
  8
0
  6
HIDDEN
 62
     7
370
     0
100
AcDbLine
 10
206.1477135005
 20
114.7279305896
 30
0.0
 11
208.1056515756
 21
114.6735343663
 31
0.0
  0
LINE
  5
16D
330
1F
100
AcDbEntity
  8
0
  6
HIDDEN
 62
     7
370
     0
100
AcDbLine
 10
206.1505074682
 20
115.3885582043
 30
0.0
 11
208.1489692512
 21
115.3330364777
 31
0.0
  0
LINE
  5
16E
330
1F
100
AcDbEntity
  8
0
  6
HIDDEN
 62
     7
370
     0
100
AcDbLine
 10
112.1056502755
 20
122.4524420267
 30
0.0
 11
112.1056502755
 21
120.548546738
 31
0.0
  0
LINE
  5
16F
330
1F
100
AcDbEntity
  8
0
  6
HIDDEN
 62
     7
370
     0
100
AcDbLine
 10
120.1056501898
 20
120.548546738
 30
0.0
 11
120.1056501898
 21
122.4552369257
 31
0.0
  0
LINE
  5
170
330
1F
100
AcDbEntity
  8
0
  6
HIDDEN
 62
     7
370
     0
100
AcDbLine
 10
108.1056500855
 20
82.8306753701
 30
0.0
 11
108.1998108577
 21
83.5006632423
 31
0.0
  0
LINE
  5
171
330
1F
100
AcDbEntity
  8
0
  6
HIDDEN
 62
     7
370
     0
100
AcDbLine
 10
108.1998108577
 20
132.8085497534
 30
0.0
 11
108.1056500855
 21
133.4785376256
 31
0.0
  0
ARC
  5
172
330
1F
100
AcDbEntity
  8
0
  6
HIDDEN
 62
     7
370
     0
100
AcDbCircle
 10
107.6056433328
 20
83.5841688835
 30
0.0
 40
0.6000067526677081
100
AcDbArc
 50
352.0
 51
0.0
  0
ARC
  5
173
330
1F
100
AcDbEntity
  8
0
  6
HIDDEN
 62
     7
370
     0
100
AcDbCircle
 10
107.6056433328
 20
83.5841688835
 30
0.0
 40
0.6000067526677045
100
AcDbArc
 50
0.0
 51
33.5571153394
  0
ARC
  5
174
330
1F
100
AcDbEntity
  8
0
  6
HIDDEN
 62
     7
370
     0
100
AcDbCircle
 10
107.6056433328
 20
132.7250441122
 30
0.0
 40
0.6000067526677081
100
AcDbArc
 50
348.75
 51
8.0
  0
LWPOLYLINE
  5
175
330
1F
100
AcDbEntity
  8
0
  6
HIDDEN
 62
     7
370
     0
100
AcDbPolyline
 90
        3
 70
   128
 43
0.0
 10
108.1941211244
 20
132.607989437
 10
108.1599772926
 20
132.4954316532
 10
108.1056500855
 20
132.3933791881
  0
LINE
  5
176
330
1F
100
AcDbEntity
  8
0
  6
HIDDEN
 62
     7
370
     0
100
AcDbLine
 10
108.2056500829
 20
83.5841693496
 30
0.0
 11
108.2056500829
 21
132.7250436461
 31
0.0
  0
ARC
  5
177
330
1F
100
AcDbEntity
  8
0
  6
HIDDEN
 62
     7
370
     0
100
AcDbCircle
 10
101.8606520871
 20
96.1546064979
 30
0.0
 40
7.999999999999996
100
AcDbArc
 50
276.8739558174
 51
321.3178125465
  0
ARC
  5
178
330
1F
100
AcDbEntity
  8
0
  6
HIDDEN
 62
     7
370
     0
100
AcDbCircle
 10
101.8606520871
 20
120.1546064979
 30
0.0
 40
8.000000000000004
100
AcDbArc
 50
38.6821874535
 51
83.1168874915
  0
LINE
  5
179
330
1F
100
AcDbEntity
  8
0
  6
HIDDEN
 62
     7
370
     0
100
AcDbLine
 10
91.1880861106
 20
88.1546069449
 30
0.0
 11
95.3797576087
 21
88.1546069449
 31
0.0
  0
LINE
  5
17A
330
1F
100
AcDbEntity
  8
0
  6
HIDDEN
 62
     7
370
     0
100
AcDbLine
 10
95.3797576087
 20
128.1546060508
 30
0.0
 11
91.1880861106
 21
128.1546060508
 31
0.0
  0
ARC
  5
17B
330
1F
100
AcDbEntity
  8
0
  6
HIDDEN
 62
     7
370
     0
100
AcDbCircle
 10
91.1880856508
 20
88.7546064979
 30
0.0
 40
0.5999999999999962
100
AcDbArc
 50
210.0
 51
270.0
  0
ARC
  5
17C
330
1F
100
AcDbEntity
  8
0
  6
HIDDEN
 62
     7
370
     0
100
AcDbCircle
 10
91.1880856508
 20
127.5546064979
 30
0.0
 40
0.6000000000000085
100
AcDbArc
 50
90.0
 51
150.0
  0
LINE
  5
17D
330
1F
100
AcDbEntity
  8
0
  6
HIDDEN
 62
     7
370
     0
100
AcDbLine
 10
90.6684695813
 20
127.8546065604
 30
0.0
 11
89.1096255812
 21
125.1546074217
 31
0.0
  0
LINE
  5
17E
330
1F
100
AcDbEntity
  8
0
  6
HIDDEN
 62
     7
370
     0
100
AcDbLine
 10
89.1096255812
 20
91.154605574
 30
0.0
 11
90.6684695813
 21
88.4546064353
 31
0.0
  0
LINE
  5
17F
330
1F
100
AcDbEntity
  8
0
  6
HIDDEN
 62
     7
370
     0
100
AcDbLine
 10
112.1056502755
 20
135.4289394384
 30
0.0
 11
112.1056502755
 21
132.1002081549
 31
0.0
  0
LINE
  5
180
330
1F
100
AcDbEntity
  8
0
  6
HIDDEN
 62
     7
370
     0
100
AcDbLine
 10
120.1056501898
 20
132.1002081549
 30
0.0
 11
120.1056501898
 21
135.4342721915
 31
0.0
  0
ARC
  5
181
330
1F
100
AcDbEntity
  8
0
  6
HIDDEN
 62
     7
370
     0
100
AcDbCircle
 10
116.5556500855
 20
92.4296064979
 30
0.0
 40
1.5
100
AcDbArc
 50
238.2116693829
 51
0.0
  0
ARC
  5
182
330
1F
100
AcDbEntity
  8
0
  6
HIDDEN
 62
     7
370
     0
100
AcDbCircle
 10
116.5556500855
 20
123.8796064979
 30
0.0
 40
1.500000000000001
100
AcDbArc
 50
0.0
 51
121.7883306171
  0
LINE
  5
183
330
1F
100
AcDbEntity
  8
0
  6
HIDDEN
 62
     7
370
     0
100
AcDbLine
 10
86.3056498649
 20
91.154605574
 30
0.0
 11
89.1096255812
 21
91.154605574
 31
0.0
  0
LINE
  5
184
330
1F
100
AcDbEntity
  8
0
  6
HIDDEN
 62
     7
370
     0
100
AcDbLine
 10
89.1096255812
 20
125.1546074217
 30
0.0
 11
82.3056492093
 21
125.1546074217
 31
0.0
  0
LINE
  5
185
330
1F
100
AcDbEntity
  8
0
  6
HIDDEN
 62
     7
370
     0
100
AcDbLine
 10
108.1056500855
 20
91.154605574
 30
0.0
 11
115.7654760475
 21
91.154605574
 31
0.0
  0
LINE
  5
186
330
1F
100
AcDbEntity
  8
0
  6
HIDDEN
 62
     7
370
     0
100
AcDbLine
 10
115.7654760475
 20
125.1546074217
 30
0.0
 11
108.1056500855
 21
125.1546074217
 31
0.0
  0
LINE
  5
187
330
1F
100
AcDbEntity
  8
0
  6
HIDDEN
 62
     7
370
     0
100
AcDbLine
 10
170.6056500855
 20
101.6249549156
 30
0.0
 11
170.6056500855
 21
104.489586507
 31
0.0
  0
LINE
  5
188
330
1F
100
AcDbEntity
  8
0
  6
HIDDEN
 62
     7
370
     0
100
AcDbLine
 10
170.6056500855
 20
99.1743499925
 30
0.0
 11
170.6056500855
 21
99.8727581045
 31
0.0
  0
LINE
  5
189
330
1F
100
AcDbEntity
  8
0
  6
HIDDEN
 62
     7
370
     0
100
AcDbLine
 10
167.6056514564
 20
100.4225294618
 30
0.0
 11
167.6056514564
 21
99.1743499925
 31
0.0
  0
LINE
  5
18A
330
1F
100
AcDbEntity
  8
0
  6
HIDDEN
 62
     7
370
     0
100
AcDbLine
 10
167.6056514564
 20
104.4093034742
 30
0.0
 11
167.6056514564
 21
100.9424738167
 31
0.0
  0
LINE
  5
18B
330
1F
100
AcDbEntity
  8
0
  6
HIDDEN
 62
     7
370
     0
100
AcDbLine
 10
126.9056498143
 20
98.6546068033
 30
0.0
 11
129.905650306
 21
98.6546068033
 31
0.0
  0
LINE
  5
18C
330
1F
100
AcDbEntity
  8
0
  6
HIDDEN
 62
     7
370
     0
100
AcDbLine
 10
129.905650306
 20
117.6546061924
 30
0.0
 11
126.9056498143
 21
117.6546061924
 31
0.0
  0
LINE
  5
18D
330
1F
100
AcDbEntity
  8
0
  6
HIDDEN
 62
     7
370
     0
100
AcDbLine
 10
118.0556499469
 20
99.1546068853
 30
0.0
 11
118.5556500288
 21
99.6546060359
 31
0.0
  0
LINE
  5
18E
330
1F
100
AcDbEntity
  8
0
  6
HIDDEN
 62
     7
370
     0
100
AcDbLine
 10
118.5556500288
 20
116.6546069598
 30
0.0
 11
118.0556499469
 21
117.1546061104
 31
0.0
  0
LINE
  5
18F
330
1F
100
AcDbEntity
  8
0
  6
HIDDEN
 62
     7
370
     0
100
AcDbLine
 10
170.3178192558
 20
99.490330047
 30
0.0
 11
208.1056515756
 21
100.5401629536
 31
0.0
  0
LINE
  5
190
330
1F
100
AcDbEntity
  8
0
  6
HIDDEN
 62
     7
370
     0
100
AcDbLine
 10
208.1056515756
 20
103.0411277479
 30
0.0
 11
170.3134383145
 21
101.9911733037
 31
0.0
  0
LINE
  5
191
330
1F
100
AcDbEntity
  8
0
  6
HIDDEN
 62
     7
370
     0
100
AcDbLine
 10
118.5556500288
 20
99.6546060359
 30
0.0
 11
126.9056498143
 21
99.6546060359
 31
0.0
  0
LINE
  5
192
330
1F
100
AcDbEntity
  8
0
  6
HIDDEN
 62
     7
370
     0
100
AcDbLine
 10
126.9056498143
 20
116.6546069598
 30
0.0
 11
118.5556500288
 21
116.6546069598
 31
0.0
  0
LINE
  5
193
330
1F
100
AcDbEntity
  8
0
  6
HIDDEN
 62
     7
370
     0
100
AcDbLine
 10
113.0556500586
 20
139.6546070045
 30
0.0
 11
113.0556500586
 21
134.5546063548
 31
0.0
  0
LINE
  5
194
330
1F
100
AcDbEntity
  8
0
  6
HIDDEN
 62
     7
370
     0
100
AcDbLine
 10
167.6312926295
 20
101.0951986117
 30
0.0
 11
167.3859934392
 21
100.6593596702
 31
0.0
  0
LINE
  5
195
330
1F
100
AcDbEntity
  8
0
  6
HIDDEN
 62
     7
370
     0
100
AcDbLine
 10
167.3859934392
 20
100.6593596702
 30
0.0
 11
167.6318216207
 21
100.2742950385
 31
0.0
  0
ARC
  5
196
330
1F
100
AcDbEntity
  8
0
  6
HIDDEN
 62
     7
370
     0
100
AcDbCircle
 10
207.8056500855
 20
102.8546064979
 30
0.0
 40
0.2999999999999972
100
AcDbArc
 50
0.0
 51
90.0
  0
ARC
  5
197
330
1F
100
AcDbEntity
  8
0
  6
HIDDEN
 62
     7
370
     0
100
AcDbCircle
 10
207.8056500855
 20
113.4546064979
 30
0.0
 40
0.2999999999999972
100
AcDbArc
 50
270.0
 51
0.0
  0
ARC
  5
198
330
1F
100
AcDbEntity
  8
0
  6
HIDDEN
 62
     7
370
     0
100
AcDbCircle
 10
170.2108760673
 20
113.0546064979
 30
0.0
 40
0.3999999999999977
100
AcDbArc
 50
70.0
 51
90.0
  0
LINE
  5
199
330
1F
100
AcDbEntity
  8
0
  6
HIDDEN
 62
     7
370
     0
100
AcDbLine
 10
167.5056497636
 20
102.8546066536
 30
0.0
 11
170.2108773472
 21
102.8546066536
 31
0.0
  0
LINE
  5
19A
330
1F
100
AcDbEntity
  8
0
  6
HIDDEN
 62
     7
370
     0
100
AcDbLine
 10
170.2108773472
 20
113.4546063421
 30
0.0
 11
167.5056497636
 21
113.4546063421
 31
0.0
  0
ARC
  5
19B
330
1F
100
AcDbEntity
  8
0
  6
HIDDEN
 62
     7
370
     0
100
AcDbCircle
 10
167.5056500855
 20
103.2546064979
 30
0.0
 40
0.4000000000000057
100
AcDbArc
 50
180.0
 51
270.0
  0
ARC
  5
19C
330
1F
100
AcDbEntity
  8
0
  6
HIDDEN
 62
     7
370
     0
100
AcDbCircle
 10
167.5056500855
 20
113.0546064979
 30
0.0
 40
0.4000000000000057
100
AcDbArc
 50
90.0
 51
180.0
  0
LINE
  5
19D
330
1F
100
AcDbEntity
  8
0
  6
HIDDEN
 62
     7
370
     0
100
AcDbLine
 10
170.3476849082
 20
102.8787293052
 30
0.0
 11
171.1056510987
 21
103.1546066096
 31
0.0
  0
LINE
  5
19E
330
1F
100
AcDbEntity
  8
0
  6
HIDDEN
 62
     7
370
     0
100
AcDbLine
 10
171.1056510987
 20
113.1546063861
 30
0.0
 11
170.3476849082
 21
113.4304836905
 31
0.0
  0
LINE
  5
19F
330
1F
100
AcDbEntity
  8
0
  6
HIDDEN
 62
     7
370
     0
100
AcDbLine
 10
171.1056510987
 20
103.1546066096
 30
0.0
 11
207.8056464973
 21
103.1546066096
 31
0.0
  0
LINE
  5
1A0
330
1F
100
AcDbEntity
  8
0
  6
HIDDEN
 62
     7
370
     0
100
AcDbLine
 10
207.8056464973
 20
113.1546063861
 30
0.0
 11
188.6531467619
 21
113.1546063861
 31
0.0
  0
LINE
  5
1A1
330
1F
100
AcDbEntity
  8
0
  6
HIDDEN
 62
     7
370
     0
100
AcDbLine
 10
188.5586510482
 20
113.1546063861
 30
0.0
 11
171.1056510987
 21
113.1546063861
 31
0.0
  0
LINE
  5
1A2
330
1F
100
AcDbEntity
  8
0
  6
HIDDEN
 62
     7
370
     0
100
AcDbLine
 10
103.2900879229
 20
84.0752352541
 30
0.0
 11
102.8556557442
 21
84.5543019986
 31
0.0
  0
LINE
  5
1A3
330
1F
100
AcDbEntity
  8
0
  6
HIDDEN
 62
     7
370
     0
100
AcDbLine
 10
95.3556521865
 20
84.9759899592
 30
0.0
 11
94.873218711
 21
84.4969232148
 31
0.0
  0
LINE
  5
1A4
330
1F
100
AcDbEntity
  8
0
  6
HIDDEN
 62
     7
370
     0
100
AcDbLine
 10
94.8730967077
 20
131.812284193
 30
0.0
 11
95.3556475299
 21
131.3331634319
 31
0.0
  0
LINE
  5
1A5
330
1F
100
AcDbEntity
  8
0
  6
HIDDEN
 62
     7
370
     0
100
AcDbLine
 10
102.8556501562
 20
131.7548625683
 30
0.0
 11
103.290192231
 21
132.2339814669
 31
0.0
  0
LINE
  5
1A6
330
1F
100
AcDbEntity
  8
0
  6
HIDDEN
 62
     7
370
     0
100
AcDbLine
 10
129.905650306
 20
103.9046062669
 30
0.0
 11
163.2056514802
 21
103.9046062669
 31
0.0
  0
LINE
  5
1A7
330
1F
100
AcDbEntity
  8
0
  6
HIDDEN
 62
     7
370
     0
100
AcDbLine
 10
163.2056514802
 20
112.4046067288
 30
0.0
 11
129.905650306
 21
112.4046067288
 31
0.0
  0
LINE
  5
1A8
330
1F
100
AcDbEntity
  8
0
  6
HIDDEN
 62
     7
370
     0
100
AcDbLine
 10
163.2056514802
 20
103.9046062669
 30
0.0
 11
163.7163813296
 21
104.7546064528
 31
0.0
  0
LINE
  5
1A9
330
1F
100
AcDbEntity
  8
0
  6
HIDDEN
 62
     7
370
     0
100
AcDbLine
 10
163.7163813296
 20
111.5546065429
 30
0.0
 11
163.2056514802
 21
112.4046067288
 31
0.0
  0
LINE
  5
1AA
330
1F
100
AcDbEntity
  8
0
  6
HIDDEN
 62
     7
370
     0
100
AcDbLine
 10
102.8556501562
 20
84.5547844237
 30
0.0
 11
102.8556501562
 21
88.2192053413
 31
0.0
  0
LINE
  5
1AB
330
1F
100
AcDbEntity
  8
0
  6
HIDDEN
 62
     7
370
     0
100
AcDbLine
 10
95.3556503239
 20
88.158984161
 30
0.0
 11
95.3556503239
 21
84.9763121968
 31
0.0
  0
LINE
  5
1AC
330
1F
100
AcDbEntity
  8
0
  6
HIDDEN
 62
     7
370
     0
100
AcDbLine
 10
102.8556501562
 20
128.0900076544
 30
0.0
 11
102.8556501562
 21
131.7545701331
 31
0.0
  0
LINE
  5
1AD
330
1F
100
AcDbEntity
  8
0
  6
HIDDEN
 62
     7
370
     0
100
AcDbLine
 10
95.3556503239
 20
131.3330200082
 30
0.0
 11
95.3556503239
 21
128.1502288347
 31
0.0
  0
LINE
  5
1AE
330
1F
100
AcDbEntity
  8
0
  6
HIDDEN
 62
     7
370
     0
100
AcDbLine
 10
163.7163813296
 20
104.7546064528
 30
0.0
 11
167.1056504431
 21
104.7546064528
 31
0.0
  0
LINE
  5
1AF
330
1F
100
AcDbEntity
  8
0
  6
HIDDEN
 62
     7
370
     0
100
AcDbLine
 10
167.1056504431
 20
111.5546065429
 30
0.0
 11
163.7163813296
 21
111.5546065429
 31
0.0
  0
LINE
  5
1B0
330
1F
100
AcDbEntity
  8
0
  6
HIDDEN
 62
     7
370
     0
100
AcDbLine
 10
166.5556485834
 20
125.6546065724
 30
0.0
 11
167.55565061
 21
125.077255494
 31
0.0
  0
LINE
  5
1B1
330
1F
100
AcDbEntity
  8
0
  6
HIDDEN
 62
     7
370
     0
100
AcDbLine
 10
172.5556532922
 20
125.077255494
 30
0.0
 11
173.5556478682
 21
125.6546065724
 31
0.0
  0
LINE
  5
1B2
330
1F
100
AcDbEntity
  8
0
  6
HIDDEN
 62
     7
370
     0
100
AcDbLine
 10
173.5556478682
 20
90.6546064233
 30
0.0
 11
172.5556532922
 21
91.2319575017
 31
0.0
  0
LINE
  5
1B3
330
1F
100
AcDbEntity
  8
0
  6
HIDDEN
 62
     7
370
     0
100
AcDbLine
 10
167.55565061
 20
91.2319575017
 30
0.0
 11
166.5556485834
 21
90.6546064233
 31
0.0
  0
ARC
  5
1B4
330
1F
100
AcDbEntity
  8
0
  6
HIDDEN
 62
     7
370
     0
100
AcDbCircle
 10
170.2108760673
 20
103.2546064979
 30
0.0
 40
0.3999999999999977
100
AcDbArc
 50
270.0
 51
290.0
  0
LINE
  5
1B5
330
1F
100
AcDbEntity
  8
0
  6
HIDDEN
 62
     7
370
     0
100
AcDbLine
 10
167.55565061
 20
125.077255494
 30
0.0
 11
167.55565061
 21
116.6546069598
 31
0.0
  0
LINE
  5
1B6
330
1F
100
AcDbEntity
  8
0
  6
HIDDEN
 62
     7
370
     0
100
AcDbLine
 10
172.5556532922
 20
116.6546069598
 30
0.0
 11
172.5556532922
 21
125.077255494
 31
0.0
  0
LINE
  5
1B7
330
1F
100
AcDbEntity
  8
0
  6
HIDDEN
 62
     7
370
     0
100
AcDbLine
 10
167.55565061
 20
116.6546069598
 30
0.0
 11
170.0556482258
 21
115.1524548931
 31
0.0
  0
LINE
  5
1B8
330
1F
100
AcDbEntity
  8
0
  6
HIDDEN
 62
     7
370
     0
100
AcDbLine
 10
170.0556482258
 20
115.1524548931
 30
0.0
 11
172.5556532922
 21
116.6546069598
 31
0.0
  0
LINE
  5
1B9
330
1F
100
AcDbEntity
  8
0
  6
HIDDEN
 62
     7
370
     0
100
AcDbLine
 10
172.5556532922
 20
91.2319575017
 30
0.0
 11
172.5556532922
 21
99.6546060359
 31
0.0
  0
LINE
  5
1BA
330
1F
100
AcDbEntity
  8
0
  6
HIDDEN
 62
     7
370
     0
100
AcDbLine
 10
167.55565061
 20
99.6546060359
 30
0.0
 11
167.55565061
 21
91.2319575017
 31
0.0
  0
LINE
  5
1BB
330
1F
100
AcDbEntity
  8
0
  6
HIDDEN
 62
     7
370
     0
100
AcDbLine
 10
172.5556532922
 20
99.6546060359
 30
0.0
 11
170.0556482258
 21
101.1567581026
 31
0.0
  0
LINE
  5
1BC
330
1F
100
AcDbEntity
  8
0
  6
HIDDEN
 62
     7
370
     0
100
AcDbLine
 10
170.0556482258
 20
101.1567581026
 30
0.0
 11
167.55565061
 21
99.6546060359
 31
0.0
  0
LINE
  5
1BD
330
1F
100
AcDbEntity
  8
0
  6
HIDDEN
 62
     7
370
     0
100
AcDbLine
 10
170.6056500855
 20
116.4365135646
 30
0.0
 11
170.6056500855
 21
116.9934416702
 31
0.0
  0
LINE
  5
1BE
330
1F
100
AcDbEntity
  8
0
  6
HIDDEN
 62
     7
370
     0
100
AcDbLine
 10
170.6056500855
 20
111.8196264887
 30
0.0
 11
170.6056500855
 21
114.6845938219
 31
0.0
  0
LINE
  5
1BF
330
1F
100
AcDbEntity
  8
0
  6
HIDDEN
 62
     7
370
     0
100
AcDbLine
 10
167.6056514564
 20
115.3694265103
 30
0.0
 11
167.6056514564
 21
111.8999095215
 31
0.0
  0
LINE
  5
1C0
330
1F
100
AcDbEntity
  8
0
  6
HIDDEN
 62
     7
370
     0
100
AcDbLine
 10
167.6056514564
 20
116.9934416702
 30
0.0
 11
167.6056514564
 21
115.8823817549
 31
0.0
  0
LINE
  5
1C1
330
1F
100
AcDbEntity
  8
0
  6
HIDDEN
 62
     7
370
     0
100
AcDbLine
 10
170.3166420641
 20
114.3179507507
 30
0.0
 11
208.1056515756
 21
113.2680852478
 31
0.0
  0
LINE
  5
1C2
330
1F
100
AcDbEntity
  8
0
  6
HIDDEN
 62
     7
370
     0
100
AcDbLine
 10
208.1056515756
 20
115.7690500421
 30
0.0
 11
170.3142392519
 21
116.8189826002
 31
0.0
  0
LINE
  5
1C3
330
1F
100
AcDbEntity
  8
0
  6
HIDDEN
 62
     7
370
     0
100
AcDbLine
 10
167.6334719243
 20
116.0375061026
 30
0.0
 11
167.3859934392
 21
115.6498533255
 31
0.0
  0
LINE
  5
1C4
330
1F
100
AcDbEntity
  8
0
  6
HIDDEN
 62
     7
370
     0
100
AcDbLine
 10
167.3859934392
 20
115.6498533255
 30
0.0
 11
167.6315310481
 21
115.2135887696
 31
0.0
  0
LINE
  5
1C5
330
1F
100
AcDbEntity
  8
0
  6
HIDDEN
 62
     7
370
     0
100
AcDbLine
 10
202.59653582
 20
103.1375894835
 30
0.0
 11
202.1111900988
 21
102.6241057133
 31
0.0
  0
LINE
  5
1C6
330
1F
100
AcDbEntity
  8
0
  6
HIDDEN
 62
     7
370
     0
100
AcDbLine
 10
202.1667118254
 20
100.6256481214
 30
0.0
 11
202.6798184099
 21
100.1399033284
 31
0.0
  0
LINE
  5
1C7
330
1F
100
AcDbEntity
  8
0
  6
HIDDEN
 62
     7
370
     0
100
AcDbLine
 10
207.9316134634
 20
103.2863892196
 30
0.0
 11
202.5976757589
 21
103.1381999655
 31
0.0
  0
LINE
  5
1C8
330
1F
100
AcDbEntity
  8
0
  6
HIDDEN
 62
     7
370
     0
100
AcDbLine
 10
202.6809956017
 20
100.1393575734
 30
0.0
 11
208.0149333062
 21
100.2875458961
 31
0.0
  0
LINE
  5
1C9
330
1F
100
AcDbEntity
  8
0
  6
HIDDEN
 62
     7
370
     0
100
AcDbLine
 10
208.0168853583
 20
100.2893377608
 30
0.0
 11
208.1056515756
 21
100.4537096759
 31
0.0
  0
LINE
  5
1CA
330
1F
100
AcDbEntity
  8
0
  6
HIDDEN
 62
     7
370
     0
100
AcDbLine
 10
208.1028948608
 20
103.0091270385
 30
0.0
 11
207.9336698237
 21
103.2847091137
 31
0.0
  0
LINE
  5
1CB
330
1F
100
AcDbEntity
  8
0
  6
HIDDEN
 62
     7
370
     0
100
AcDbLine
 10
207.9167942586
 20
113.0249723373
 30
0.0
 11
208.0860267463
 21
113.3005544124
 31
0.0
  0
LINE
  5
1CC
330
1F
100
AcDbEntity
  8
0
  6
HIDDEN
 62
     7
370
     0
100
AcDbLine
 10
208.1056515756
 20
115.8247333532
 30
0.0
 11
208.0000172439
 21
116.0203436902
 31
0.0
  0
LINE
  5
1CD
330
1F
100
AcDbEntity
  8
0
  6
HIDDEN
 62
     7
370
     0
100
AcDbLine
 10
207.9980577412
 20
116.0221355548
 30
0.0
 11
202.6641200366
 21
116.1703248089
 31
0.0
  0
LINE
  5
1CE
330
1F
100
AcDbEntity
  8
0
  6
HIDDEN
 62
     7
370
     0
100
AcDbLine
 10
202.5808076444
 20
113.1714814855
 30
0.0
 11
207.9147453489
 21
113.023292697
 31
0.0
  0
LINE
  5
1CF
330
1F
100
AcDbEntity
  8
0
  6
HIDDEN
 62
     7
370
     0
100
AcDbLine
 10
202.6629502955
 20
116.1697781226
 30
0.0
 11
202.1498437109
 21
115.6840337953
 31
0.0
  0
LINE
  5
1D0
330
1F
100
AcDbEntity
  8
0
  6
HIDDEN
 62
     7
370
     0
100
AcDbLine
 10
202.0943219843
 20
113.6855762033
 30
0.0
 11
202.5796677056
 21
113.1720919674
 31
0.0
  0
DIMENSION
  5
1D1
330
1F
100
AcDbEntity
  8
VERMASSUNG
100
AcDbDimension
  2
*D1
 10
218.2155398058
 20
113.1546064979
 30
0.0
 11
218.2155398058
 21
108.1546064979
 31
0.0
 70
   160
  1
%%c<>
 71
     2
 42
-1.0
  3
SLDDIMSTYLE0
100
AcDbAlignedDimension
 13
207.8056500855
 23
103.1546064979
 33
0.0
 14
207.8056500855
 24
113.1546064979
 34
0.0
 50
90.0
100
AcDbRotatedDimension
  0
DIMENSION
  5
1DD
330
1F
100
AcDbEntity
  8
VERMASSUNG
100
AcDbDimension
  2
*D2
 10
224.2155398058
 20
125.6546064979
 30
0.0
 11
224.2155398058
 21
108.1546064979
 31
0.0
 70
   160
  1
%%c<> 
 71
     2
 42
-1.0
  3
SLDDIMSTYLE1
100
AcDbAlignedDimension
 13
183.1056500855
 23
90.6546064979
 33
0.0
 14
183.1056500855
 24
125.6546064979
 34
0.0
 50
90.0
100
AcDbRotatedDimension
  0
DIMENSION
  5
1EA
330
1F
100
AcDbEntity
  8
VERMASSUNG
100
AcDbDimension
  2
*D3
 10
208.1056500855
 20
148.7112676056
 30
0.0
 11
158.1056500855
 21
148.7112676056
 31
0.0
 70
   160
 71
     2
 42
-1.0
  3
SLDDIMSTYLE2
100
AcDbAlignedDimension
 13
108.1056500855
 23
108.1546064979
 33
0.0
 14
208.1056500855
 24
108.1546064979
 34
0.0
100
AcDbRotatedDimension
  0
DIMENSION
  5
1F5
330
1F
100
AcDbEntity
  8
VERMASSUNG
100
AcDbDimension
  2
*D4
 10
208.1056500855
 20
154.7112676056
 30
0.0
 11
142.1556500855
 21
154.7112676056
 31
0.0
 70
   160
 71
     2
 42
-1.0
  3
SLDDIMSTYLE2
100
AcDbAlignedDimension
 13
76.2056500855
 23
127.8452842443
 33
0.0
 14
208.1056500855
 24
119.3804659762
 34
0.0
100
AcDbRotatedDimension
  0
DIMENSION
  5
1FF
330
1F
100
AcDbEntity
  8
VERMASSUNG
100
AcDbDimension
  2
*D5
 10
67.8650104182
 20
76.6546064979
 30
0.0
 11
67.8650104182
 21
108.1546064979
 31
0.0
 70
   160
  1
HSK A %%c<>
 71
     2
 42
-1.0
  3
SLDDIMSTYLE2
100
AcDbAlignedDimension
 13
108.4056500855
 23
139.6546064979
 33
0.0
 14
108.4056500855
 24
76.6546064979
 34
0.0
 50
90.0
100
AcDbRotatedDimension
  0
DIMENSION
  5
20B
330
1F
100
AcDbEntity
  8
VERMASSUNG
100
AcDbDimension
  2
*D6
 10
208.1056500855
 20
142.7112676056
 30
0.0
 11
171.0806500855
 21
142.7112676056
 31
0.0
 70
   160
 71
     2
 42
-1.0
  3
SLDDIMSTYLE2
100
AcDbAlignedDimension
 13
134.0556500855
 23
138.0010468216
 33
0.0
 14
208.1056500855
 24
119.3804659762
 34
0.0
100
AcDbRotatedDimension
  0
LINE
  5
215
330
1F
100
AcDbEntity
  8
VERMASSUNG
  6
CENTERX2
370
     0
100
AcDbLine
 10
120.3012704312
 20
134.510921784
 30
0.0
 11
120.3012704312
 21
123.9050104192
 31
0.0
  0
LINE
  5
216
330
1F
100
AcDbEntity
  8
VERMASSUNG
  6
CENTERX2
370
     0
100
AcDbLine
 10
72.4674529519
 20
108.1546064979
 30
0.0
 11
210.9882279118
 21
108.1546064979
 31
0.0
  0
OLE2FRAME
  5
217
330
1F
100
AcDbEntity
  8
0
100
AcDbOle2Frame
 70
     2
  3
Bitmap Image
 10
13.8511154363
 20
38.264191557
 30
0.0
 11
51.6290888628
 21
31.9806341108
 31
0.0
 71
     2
 72
     0
 73
     1
 90
    12928
310
80552BED0767C5B32B40DDAF6807D121434000000000000000006FFBDDFB85D0
310
4940DDAF6807D121434000000000000000006FFBDDFB85D04940416F4BD60AFB
310
3F4000000000000000002BED0767C5B32B40416F4BD60AFB3F40000000000000
310
0000000000000100000000010000010000000100000000000100000000320000
310
D0CF11E0A1B11AE1000000000000000000000000000000003E000300FEFF0900
310
0600000000000000000000000100000001000000000000000010000002000000
310
01000000FEFFFFFF0000000000000000FFFFFFFFFFFFFFFFFFFFFFFFFFFFFFFF
310
FFFFFFFFFFFFFFFFFFFFFFFFFFFFFFFFFFFFFFFFFFFFFFFFFFFFFFFFFFFFFFFF
310
FFFFFFFFFFFFFFFFFFFFFFFFFFFFFFFFFFFFFFFFFFFFFFFFFFFFFFFFFFFFFFFF
310
FFFFFFFFFFFFFFFFFFFFFFFFFFFFFFFFFFFFFFFFFFFFFFFFFFFFFFFFFFFFFFFF
310
FFFFFFFFFFFFFFFFFFFFFFFFFFFFFFFFFFFFFFFFFFFFFFFFFFFFFFFFFFFFFFFF
310
FFFFFFFFFFFFFFFFFFFFFFFFFFFFFFFFFFFFFFFFFFFFFFFFFFFFFFFFFFFFFFFF
310
FFFFFFFFFFFFFFFFFFFFFFFFFFFFFFFFFFFFFFFFFFFFFFFFFFFFFFFFFFFFFFFF
310
FFFFFFFFFFFFFFFFFFFFFFFFFFFFFFFFFFFFFFFFFFFFFFFFFFFFFFFFFFFFFFFF
310
FFFFFFFFFFFFFFFFFFFFFFFFFFFFFFFFFFFFFFFFFFFFFFFFFFFFFFFFFFFFFFFF
310
FFFFFFFFFFFFFFFFFFFFFFFFFFFFFFFFFFFFFFFFFFFFFFFFFFFFFFFFFFFFFFFF
310
FFFFFFFFFFFFFFFFFFFFFFFFFFFFFFFFFFFFFFFFFFFFFFFFFFFFFFFFFFFFFFFF
310
FFFFFFFFFFFFFFFFFFFFFFFFFFFFFFFFFFFFFFFFFFFFFFFFFFFFFFFFFFFFFFFF
310
FFFFFFFFFFFFFFFFFFFFFFFFFFFFFFFFFFFFFFFFFFFFFFFFFFFFFFFFFFFFFFFF
310
FFFFFFFFFFFFFFFFFFFFFFFFFFFFFFFFFFFFFFFFFFFFFFFFFFFFFFFFFFFFFFFF
310
FDFFFFFFFEFFFFFFFEFFFFFFFEFFFFFF05000000060000000700000008000000
310
090000000A0000000B0000000C0000000D0000000E0000000F00000010000000
310
11000000120000001300000014000000150000001600000017000000FEFFFFFF
310
FFFFFFFFFFFFFFFFFFFFFFFFFFFFFFFFFFFFFFFFFFFFFFFFFFFFFFFFFFFFFFFF
310
FFFFFFFFFFFFFFFFFFFFFFFFFFFFFFFFFFFFFFFFFFFFFFFFFFFFFFFFFFFFFFFF
310
FFFFFFFFFFFFFFFFFFFFFFFFFFFFFFFFFFFFFFFFFFFFFFFFFFFFFFFFFFFFFFFF
310
FFFFFFFFFFFFFFFFFFFFFFFFFFFFFFFFFFFFFFFFFFFFFFFFFFFFFFFFFFFFFFFF
310
FFFFFFFFFFFFFFFFFFFFFFFFFFFFFFFFFFFFFFFFFFFFFFFFFFFFFFFFFFFFFFFF
310
FFFFFFFFFFFFFFFFFFFFFFFFFFFFFFFFFFFFFFFFFFFFFFFFFFFFFFFFFFFFFFFF
310
FFFFFFFFFFFFFFFFFFFFFFFFFFFFFFFFFFFFFFFFFFFFFFFFFFFFFFFFFFFFFFFF
310
FFFFFFFFFFFFFFFFFFFFFFFFFFFFFFFFFFFFFFFFFFFFFFFFFFFFFFFFFFFFFFFF
310
FFFFFFFFFFFFFFFFFFFFFFFFFFFFFFFFFFFFFFFFFFFFFFFFFFFFFFFFFFFFFFFF
310
FFFFFFFFFFFFFFFFFFFFFFFFFFFFFFFFFFFFFFFFFFFFFFFFFFFFFFFFFFFFFFFF
310
FFFFFFFFFFFFFFFFFFFFFFFFFFFFFFFFFFFFFFFFFFFFFFFFFFFFFFFFFFFFFFFF
310
FFFFFFFFFFFFFFFFFFFFFFFFFFFFFFFFFFFFFFFFFFFFFFFFFFFFFFFFFFFFFFFF
310
FFFFFFFFFFFFFFFFFFFFFFFFFFFFFFFFFFFFFFFFFFFFFFFFFFFFFFFFFFFFFFFF
310
52006F006F007400200045006E00740072007900000000000000000000000000
310
0000000000000000000000000000000000000000000000000000000000000000
310
16000500FFFFFFFFFFFFFFFF020000000A00030000000000C000000000000046
310
00000000000000000000000020FFA3A6FFFFCB0103000000C000000000000000
310
01004F006C006500000000000000000000000000000000000000000000000000
310
0000000000000000000000000000000000000000000000000000000000000000
310
0A000200FFFFFFFFFFFFFFFFFFFFFFFF00000000000000000000000000000000
310
0000000000000000000000000000000000000000000000001400000000000000
310
010043006F006D0070004F0062006A0000000000000000000000000000000000
310
0000000000000000000000000000000000000000000000000000000000000000
310
120002010100000003000000FFFFFFFF00000000000000000000000000000000
310
0000000000000000000000000000000000000000010000004D00000000000000
310
01004F006C006500310030004E00610074006900760065000000000000000000
310
0000000000000000000000000000000000000000000000000000000000000000
310
1A000200FFFFFFFFFFFFFFFFFFFFFFFF00000000000000000000000000000000
310
0000000000000000000000000000000000000000040000002426000000000000
310
FEFFFFFF02000000FEFFFFFFFFFFFFFFFFFFFFFFFFFFFFFFFFFFFFFFFFFFFFFF
310
FFFFFFFFFFFFFFFFFFFFFFFFFFFFFFFFFFFFFFFFFFFFFFFFFFFFFFFFFFFFFFFF
310
FFFFFFFFFFFFFFFFFFFFFFFFFFFFFFFFFFFFFFFFFFFFFFFFFFFFFFFFFFFFFFFF
310
FFFFFFFFFFFFFFFFFFFFFFFFFFFFFFFFFFFFFFFFFFFFFFFFFFFFFFFFFFFFFFFF
310
FFFFFFFFFFFFFFFFFFFFFFFFFFFFFFFFFFFFFFFFFFFFFFFFFFFFFFFFFFFFFFFF
310
FFFFFFFFFFFFFFFFFFFFFFFFFFFFFFFFFFFFFFFFFFFFFFFFFFFFFFFFFFFFFFFF
310
FFFFFFFFFFFFFFFFFFFFFFFFFFFFFFFFFFFFFFFFFFFFFFFFFFFFFFFFFFFFFFFF
310
FFFFFFFFFFFFFFFFFFFFFFFFFFFFFFFFFFFFFFFFFFFFFFFFFFFFFFFFFFFFFFFF
310
FFFFFFFFFFFFFFFFFFFFFFFFFFFFFFFFFFFFFFFFFFFFFFFFFFFFFFFFFFFFFFFF
310
FFFFFFFFFFFFFFFFFFFFFFFFFFFFFFFFFFFFFFFFFFFFFFFFFFFFFFFFFFFFFFFF
310
FFFFFFFFFFFFFFFFFFFFFFFFFFFFFFFFFFFFFFFFFFFFFFFFFFFFFFFFFFFFFFFF
310
FFFFFFFFFFFFFFFFFFFFFFFFFFFFFFFFFFFFFFFFFFFFFFFFFFFFFFFFFFFFFFFF
310
FFFFFFFFFFFFFFFFFFFFFFFFFFFFFFFFFFFFFFFFFFFFFFFFFFFFFFFFFFFFFFFF
310
FFFFFFFFFFFFFFFFFFFFFFFFFFFFFFFFFFFFFFFFFFFFFFFFFFFFFFFFFFFFFFFF
310
FFFFFFFFFFFFFFFFFFFFFFFFFFFFFFFFFFFFFFFFFFFFFFFFFFFFFFFFFFFFFFFF
310
FFFFFFFFFFFFFFFFFFFFFFFFFFFFFFFFFFFFFFFFFFFFFFFFFFFFFFFFFFFFFFFF
310
010000020000000000000000000000000000000061007200650064005C003100
310
30002E0030005C0044004C004C005300680061007200650064005C003B004300
310
0100FEFF030A0000FFFFFFFF0A00030000000000C00000000000004607000000
310
5042727573680007000000504272757368000700000050427275736800F439B2
310
71000000000000000000000000004100540049002E004100430045005C004300
310
6F00720065002D005300740061007400690063003B0043003A005C0050007200
310
6F006700720061006D002000460069006C006500730020002800780038003600
310
29005C0043006F006D006D006F006E002000460069006C00650073005C004100
310
750074006F006400650073006B0020005300680061007200650064005C003B00
310
43003A005C00500072006F006700720061006D002000460069006C0065007300
310
5C004E006F0072006D0061006E005C004E0070006D005C00420069006E000000
310
43003A005C00500072006F006700720061006D002000460069006C0065007300
310
5C0053006F006C006900640057006F0072006B007300200043006F0072007000
310
5C0053006F006C006900640057006F0072006B00730020002800320029005C00
310
730065007400750070005C0069003300380036005C0073007700610063007400
310
770069007A002E006500780065000000220043003A005C00500072006F006700
310
20260000424D0E260000000000003E00000028000000B40200006E0000000100
310
01000000000000000000130B0000130B00000200000002000000000000FFFFFF
310
FFFFFFFFFFFFFFFFFFFFFFFFFFFFFFFFFFFFFFFFFFFFFFFFFFFFFFFFFFFFFFFF
310
FFFFFFFFFFFFFFFFFFFFFFFFFFFFFFFFFFFFFFFFFFFFFFFFFFFFFFFFFFFFFFFF
310
FFFFFFFFFFFFFFFFFFFFFFFFFFFFFFFFFFFFFFFFFFFFFFFFF000FFFFFFFFFFFF
310
FFFFFFFFFFFFFFFFFFFFFFFFFFFFFFFFFFFFFFFFFFFFFFFFFFFFFFFFFFFFFFFF
310
FFFFFFFFFFFFFFFFFFFFFFFFFFFFFFFFFFFFFFFFFFFFFFFFFFFFFFFFFFFFFFFF
310
FFFFFFFFFFFFFFFFFFFFFFFFFFFFFFFFF000FFFFFFFFFFFFFFFFFFFFFFFFFFFF
310
FFFFFFFFFFFFFFFFFFFFFFFFFFFFFFFFFFFFFFFFFFFFFFFFFFFFFFFFFFFFFFFF
310
FFFFFFFFFFFFFFFFFFFFFFFFFFFFFFFFFFFFFFFFFFFFFFFFFFFFFFFFFFFFFFFF
310
FFFFFFFFFFFFFFFFF000FFFFFFFFFFFFFFFFFFFFFFFFFFFFFFFFFFFFFFFFFFFF
310
FFFFFFFFFFFFFFFFFFFFFFFFFFFFFFFFFFFFFFFFFFFFFFFFFFFFFFFFFFFFFFFF
310
FFFFFFFFFFFFFFFFFFFFFFFFFFFFFFFFFFFFFFFFFFFFFFFFFFFFFFFFFFFFFFFF
310
F000FFFFFFFFFFFFFFFFFFFFFFFFFFFFFFFFFFFFFFFFFFFFFFFFFFFFFFFFFFFF
310
FFFFFFFFFFFFFFFFFFFFFFFFFFFFFFFFFFFFFFFFFFFFFFFFFFFFFFFFFFFFFFFF
310
FFFFFFFFFFFFFFFFFFFFFFFFFFFFFFFFFFFFFFFFFFFFFFFFF000FFFFFFFFFFFF
310
FFFFFFFFFFFFFFFFFFFFFFFFFFFFFFFFFFFFFFFFFFFFFFFFFFFFFFFFFFFFFFFF
310
FFFFFFFFFFFFFFFFFFFFFFFFFFFFFFFFFFFFFFFFFFFFFFFFFFFFFFFFFFFFFFFF
310
FFFFFFFFFFFFFFFFFFFFFFFFFFFFFFFFF000FFFFFFFFFFFFFFFFFFFFFFFFFFFF
310
FFFFFFFFFFFFFFFFFFFFFFFFFFFFFFFFFFFFFFFFFFFFFFFFFFFFFFFFFFFFFFFF
310
FFFFFFFFFFFFFFFFFFFFFFFFFFFFFFFFFFFFFFFFFFFFFFFFFFFFFFFFFFFFFFFF
310
FFFFFFFFFFFFFFFFF000FFFFFFFFFFFFFFFFFFFFFFFFFFFFFFFFFFFFFFFFFFFF
310
FFFFFFFFFFFFFFFFFFFFFFFFFFFFFFFFFFFFFFFFFFFFFFFFFFFFFFFFFFFFFFFF
310
FFFFFFFFFFFFFFFFFFFFFFFFFFFFFFFFFFFFFFFFFFFFFFFFFFFFFFFFFFFFFFFF
310
F000FFFFFFFFFFFFFFFFFFFFFFFFFFFFFFFFFFFFFFFFFFFFFFFFFFFFFFFFFFFF
310
FFFFFFFFFFFFFFFFFFFFFFFFFFFFFFFFFFFFFFFFFFFFFFFFFFFFFFFFFFFFFFFF
310
FFFFFFFFFFFFFFFFFFFFFFFFFFFFFFFFFFFFFFFFFFFFFFFFF000FFFFFFFFFFFF
310
FFFFFFFFFFFFFFFFFFFFFFFFFFFFFFFFFFFFFFFFFFFFFFFFFFFFFFFFFFFFFFFF
310
FFFFFFFFFFFFFFFFFFFFFFFFFFFFFFFFFFFFFFFFFFFFFFFFFFFFFFFFFFFFFFFF
310
FFFFFFFFFFFFFFFFFFFFFFFFFFFFFFFFF000FFFFFFFFFFFFFFFFFFFFFFFFFFFF
310
FFFFFFFFFFFFFFFFFFFFFFFFFFFFFFFFFFFFFFFFFFFFFFFFFFFFFFFFFFFFFFFF
310
FFFFFFFFFFFFFFFFFFFFFFFFFFFFFFFFFFFFFFFFFFFFFFFFFFFFFFFFFFFFFFFF
310
FFFFFFFFFFFFFFFFF000FFFFFFFFFFFFFFFFFFFFFFFFFFFFFFFFFFFFFFFFFFFF
310
FFFFFFFFFFFFFFFFFFFFFFFFFFFFFFFFFFFFFFFFFFFFFFFFFFFFFFFFFFFFFFFF
310
FFFFFFFFFFFFFFFFFFFFFFFFFFFFFFFFFFFFFFFFFFFFFFFFFFFFFFFFFFFFFFFF
310
F000FFFFFFFFFFFFFFFFFFFFFFFFFFFFFFFFFFFFFFFFFFFFFFFFFFFFFFFFFFFF
310
FFFFFFFFFFFFFFFFFFFFFFFFFFFFFFFFFFFFFFFFFFFFFFFFFFFFFFFFFFFFFFFF
310
FFFFFFFFFFFFFFFFFFFFFFFFFFFFFFFFFFFFFFFFFFFFFFFFF000FFFFFFFFFFFF
310
FFFFFFFFFFFFFFFFFFFFFFFFFFFFFFFFFFFFFFFFFFFFFFFFFFFFFFFFFFFFFFFF
310
FFFFFFFFFFFFFFFFFFFFFFFFFFFFFFFFFFFFFFFFFFFFFFFFFFFFFFFFFFFFFFFF
310
FFFFFFFFFFFFFFFFFFFFFFFFFFFFFFFFF000FFFFFFFFFFFFFFFFFFFFFFFFFFFF
310
FFFFFFFFFFFFFFFFFFFFFFFFFFFFFFFFFFFFFFFFFFFFFFFFFFFFFFFFFFFFFFFF
310
FFFFFFFFFFFFFFFFFFFFFFFFFFFFFFFFFFFFFFFFFFFFFFFFFFFFFFFFFFFFFFFF
310
FFFFFFFFFFFFFFFFF000FFFFFFFFFFFFFFFFFFFFFFFFFFFFFFFFFFFFFFFFFFFF
310
FFFFFFFFFFFFFFFFFFFFFFFFFFFFFFFFFFFFFFFFFFFFFFFFFFFFFFFFFFFFFFFF
310
FFFFFFFFFFFFFFFFFFFFFFFFFFFFFFFFFFFFFFFFFFFFFFFFFFFFFFFFFFFFFFFF
310
F000FFFFFFFFFFFFFFFFFFFFFFFFFFFFFFFFFFFFFFFFFFFFFFFFFFFFFFFFFFFF
310
FFFFFFFFFFFFFFFFFFFFFFFFFFFFFFFFFFFFFFFFFFFFFFFFFFFFFFFFFFFFFFFF
310
FFFFFFFFFFFFFFFFFFFFFFFFFFFFFFFFFFFFFFFFFFFFFFFFF000FFFFFFFFFFFF
310
FFFFFFFFFFFFFFFFFFFFFFFFFFFFFFFFFFFFFFFFFFFFFFFFFFFFFFFFFFFFFFFF
310
FFFFFFFFFFFFFFFFFFFFFFFFFFFFFFFFFFFFFFFFFFFFFFFFFFFFFFFFFFFFFFFF
310
FFFFFFFFFFFFFFFFFFFFFFFFFFFFFFFFF000FFFFFFFFFFFFFFFFFFFFFFFFFFFF
310
FFFFFFFFFFFFFFFFFFFFFFFFFFFFFFFFFFFFFFFFFFFFFFFFFFFFFFFFFFFFFFFF
310
FFFFFFFFFFFFFFFFFFFFFFFFFFFFFFFFFFFFFFFFFFFFFFFFFFFFFFFFFFFFFFFF
310
FFFFFFFFFFFFFFFFF000FFFFF80003FFFFFFFFFFFFFFFFFFFFFFFFFFFFFFFFFF
310
FFFFF00007FFFFFFFFFF00007FFFFFF800000000000000007FFFFFFFFFFFFFFF
310
FFFFFFFC001FFFFFFFFFFFFFFC001FFFFFFFFFFFFFFFFFFFFFFFFFFE0007FFFF
310
F000FFFF8000007FFFFFFFF8000FFFFFC0007FFFFF80007FFFFF0000007FFFFF
310
FFF8000007FFFFF800000000000000007FFFFFF0001FFFFFFFFFFFC00001FFFF
310
FFFFFFFFC00001FFFFFFFF000000000003FFFFE000007FFFF000FFFE0000000F
310
FFFFFFF0000FFFFF80007FFFFF80007FFFFC0000001FFFFFFFC0000001FFFFF8
310
00000000000000007FFFFFF0001FFFFFFFFFFE0000003FFFFFFFFFFE0000003F
310
FFFFFF000000000003FFFF0000000FFFF000FFF800000003FFFFFFF00007FFFF
310
80007FFFFF80007FFFF000000007FFFFFF000000003FFFF80000000000000000
310
7FFFFFF0001FFFFFFFFFF80000000FFFFFFFFFF80000000FFFFFFF0000000000
310
03FFFC00000003FFF000FFE000000000FFFFFFF00007FFFF80003FFFFF80007F
310
FFC000000001FFFFFC000000001FFFF800000000000000007FFFFFF0001FFFFF
310
FFFFE000000003FFFFFFFFE000000003FFFFFF000000000003FFF000000000FF
310
F000FF80000000007FFFFFF00007FFFF80003FFFFF80007FFF8000000000FFFF
310
F80000000007FFF800000000000000007FFFFFF0001FFFFFFFFFC000000001FF
310
FFFFFFC000000001FFFFFF000000000003FFC0000000007FF000FF0000000000
310
3FFFFFE00007FFFF00003FFFFF80007FFE00000000003FFFF00000000003FFF8
310
00000000000000007FFFFFF0001FFFFFFFFF8000000000FFFFFFFF8000000000
310
FFFFFF000000000003FF80000000003FF000FE00000000001FFFFFE00003FFFF
310
00003FFFFF80007FFC00000000001FFFE00000000001FFF8000001FFFE000000
310
7FFFFFF0001FFFFFFFFE00000000003FFFFFFE00000000003FFFFF0000000000
310
03FF00000000001FF000FC00000000000FFFFFE00003FFFF00001FFFFF80007F
310
F800000000001FFFC00000000000FFF8000001FFFE0000007FFFFFF0001FFFFF
310
FFFC00000000001FFFFFFC00000000001FFFFF000000000003FE00000000000F
310
F000F8000000000007FFFFE00003FFFF00001FFFFF80007FF800000000000FFF
310
800000000000FFF8000001FFFE0000007FFFFFF0001FFFFFFFF800000000000F
310
FFFFF800000000000FFFFF000000000003FC000000000007F000F80000000000
310
03FFFFC00003FFFE00001FFFFF80007FF0000000000007FF0000000000007FF8
310
000001FFFE0000007FFFFFF0001FFFFFFFF0000000000007FFFFF00000000000
310
07FFFF000000000003F8000000000003F000F0000000000003FFFFC00001FFFE
310
00001FFFFF80007FE0000000000007FE0000000000003FF8000001FFFE000000
310
7FFFFFF0001FFFFFFFF0000000000007FFFFF0000000000007FFFF0000000000
310
03F800001F800003F000E00001FFF00001FFFFC00001FFFE00000FFFFF80007F
310
E00001FFE00003FE00001FFF00003FF8000001FFFE0000007FFFFFF0001FFFFF
310
FFE000003E000003FFFFE000003E000003FFFF000000000003F00001FFF80001
310
F000E00007FFFC0001FFFFC00001FFFE00000FFFFF80007FC0000FFFFC0003FC
310
0000FFFFC0001FF8000001FFFE0000007FFFFFF0001FFFFFFFC00003FFE00001
310
FFFFC00003FFE00001FFFF0001FFFFFFFFF00007FFFE0001F000E0000FFFFF00
310
00FFFF800001FFFC00000FFFFF80007FC0001FFFFE0001FC0001FFFFE0001FF8
310
000001FFFE0000007FFFFFF0001FFFFFFF80000FFFF80000FFFF80000FFFF800
310
00FFFF0003FFFFFFFFE0000FFFFF8000F000C0003FFFFF8000FFFF800000FFFC
310
000007FFFF80007F80003FFFFF0001FC0003FFFFF0001FF8000001FFFE000000
310
7FFFFFF0001FFFFFFF80003FFFFE0000FFFF80003FFFFE0000FFFF0003FFFFFF
310
FFE0003FFFFF8000F000C0003FFFFF8000FFFF800000FFFC000007FFFF80007F
310
80007FFFFF8001F80007FFFFF8000FF8000001FFFE0000007FFFFFF0001FFFFF
310
FF00007FFFFF00007FFF00007FFFFF00007FFF0003FFFFFFFFE0003FFFFFC000
310
F000C0007FFFFFC000FFFF000000FFFC000007FFFF80007F8000FFFFFF8000F8
310
000FFFFFF8000FF8000001FFFE0000007FFFFFF0001FFFFFFF0000FFFFFF8000
310
7FFF0000FFFFFF80007FFF0003FFFFFFFFC0007FFFFFC00070008000FFFFFFC0
310
00FFFF000000FFF8000007FFFF80007F8000FFFFFF8000F8000FFFFFF8000FF8
310
000001FFFE0000007FFFFFF0001FFFFFFE0001FFFFFFC0003FFE0001FFFFFFC0
310
003FFF0003FFFFFFFFC0007FFFFFE00070008000FFFFFFC0007FFF0000007FF8
310
000003FFFF80007F0001FFFFFF8000F8000FFFFFF8000FF8000001FFFE000000
310
7FFFFFF0001FFFFFFE0001FFFFFFC0003FFE0001FFFFFFC0003FFF0003FFFFFF
310
FFC000FFFFFFE00070008000FFFFFFC0007FFF0000007FF8000003FFFF80007F
310
0001FFFFFF8000F8001FFFFFF8000FF8000001FFFE0000007FFFFFF0001FFFFF
310
FE0003FFFFFFE0003FFE0003FFFFFFE0003FFF0003FFFFFFFFC000FFFFFFE000
310
70008000FFFFFFC0007FFE0000007FF8000003FFFF80007F0001FFFFFF8000F0
310
001FFFFFF8000FF8000001FFFE0000007FFFFFF0001FFFFFFC0003FFFFFFE000
310
1FFC0003FFFFFFE0001FFF0003FFFFFFFFC000FFFFFFC00070008000FFFFFF80
310
007FFE0000007FF0000003FFFF80007F0001FFFFFF0000F0001FFFFFF8000FF8
310
000001FFFE0000007FFFFFF0001FFFFFFC0007FFFFFFF0001FFC0007FFFFFFF0
310
001FFF0003FFFFFFFFC000FFFFFFC00070008001FFFFFF0000FFFE0000003FF0
310
000001FFFF80007F0001FFFFFF0000F8001FFFFFF0000FF8000001FFFE000000
310
7FFFFFF0001FFFFFFC0007FFFFFFF0001FFC0007FFFFFFF0001FFF0003FFFFFF
310
FFC001FFFFFF80007000FFFFFFFFFE0000FFFE0008003FF0008001FFFF80007F
310
FFFFFFFFFC0000FFFFFFFFFFE0000FF8000001FFFE0000007FFFFFF0001FFFFF
310
F8000FFFFFFFF8000FF8000FFFFFFFF8000FFF0003FFFFFFFFFFFFFFFFFF0000
310
7000FFFFFFFFFC0000FFFC0008003FF0008001FFFF80007FFFFFFFFFF80001FF
310
FFFFFFFF80000FF8000001FFFE0000007FFFFFF0001FFFFFF8000FFFFFFFF800
310
0FF8000FFFFFFFF8000FFF0003FFFFFFFFFFFFFFFFFE0000F000FFFFFFFFE000
310
00FFFC000C003FE000C001FFFF80007FFFFFFFFFC00001FFFFFFFFFE00001FF8
310
000001FFFE0000007FFFFFF0001FFFFFF8000FFFFFFFF8000FF8000FFFFFFFF8
310
000FFF0003FFFFFFFFFFFFFFFFF00000F000FFFFFFFE000001FFFC000C001FE0
310
00C000FFFF80007FFFFFFFFE000001FFFFFFFFE000001FF80FFFFFFFFFFFFFC0
310
7FFFFFF0001FFFFFF8000FFFFFFFF8000FF8000FFFFFFFF8000FFF0003FFFFFF
310
FFFFFFFFFF800000F000FFFFFFC0000001FFFC001C001FE001C000FFFF80007F
310
FFFFFF80000003FFFFFFF80000001FF80FFFFFFFFFFFFFC07FFFFFF0001FFFFF
310
F8001FFFFFFFFC000FF8001FFFFFFFFC000FFF0003FFFFFFFFFFFFFFF0000001
310
F000FFFFF800000001FFF8001C001FE001C000FFFF80007FFFFFF800000003FF
310
FFFF800000003FF80FFFFFFFFFFFFFC07FFFFFF0001FFFFFF8001FFFFFFFFC00
310
0FF8001FFFFFFFFC000FFF0003FFFFFFFFFFFFFE00000001F000FFFFC0000000
310
03FFF8001E001FC001E000FFFF80007FFFFF8000000007FFFFFC000000003FF8
310
0FFFFFFFFFFFFFC07FFFFFF0001FFFFFF8001FFFFFFFFC000FF8001FFFFFFFFC
310
000FFF0003FFFFFFFFFFFFE000000003F000FFFE0000000007FFF8001E000FC0
310
01E0007FFF80007FFFFE0000000007FFFFE0000000007FF80FFFFFFFFFFFFFC0
310
7FFFFFF0001FFFFFF0001FFFFFFFFC0007F0001FFFFFFFFC0007FF0003FFFFFF
310
FFFFFF0000000003F000FFF80000000007FFF8001E000FC003E0007FFF80007F
310
FFF0000000000FFFFF8000000000FFF80FFFFFFFFFFFFFC07FFFFFF0001FFFFF
310
F0001FFFFFFFFC0007F0001FFFFFFFFC0007FF0003FFFFFFFFFFFC0000000007
310
F000FFE0000000000FFFF0003E000FC003E0007FFF80007FFFC0000000001FFF
310
FE0000000001FFF80FFFFFFFFFFFFFC07FFFFFF0001FFFFFF0001FFFFFFFFC00
310
07F0001FFFFFFFFC0007FF0003FFFFFFFFFFF0000000000FF000FFC000000000
310
1FFFF0003F000F8003F0003FFF80007FFF80000000003FFFF80000000003FFF8
310
0FFFFFFFFFFFFFC07FFFFFF0001FFFFFF0001FFFFFFFFC0007F0001FFFFFFFFC
310
0007FF0003FFFFFFFFFFE0000000001FF000FF00000000007FFFF0003F000780
310
03F0003FFF80007FFF00000000007FFFF00000000007FFF80FFFFFFFFFFFFFC0
310
7FFFFFF0001FFFFFF0001FFFFFFFFC0007F0001FFFFFFFFC0007FF0003FFFFFF
310
FFFF80000000007FF000FE0000000000FFFFE0003F00078007F0003FFF80007F
310
FE0000000001FFFFE0000000001FFFF80FFFFFFFFFFFFFC07FFFFFF0001FFFFF
310
F0001FFFFFFFFC0007F0001FFFFFFFFC0007FF0003FFFFFFFFFF0000000000FF
310
F000FC0000000003FFFFE0007F00078007F0003FFF80007FFC0000000007FFFF
310
C0000000007FFFF80FFFFFFFFFFFFFC07FFFFFF0001FFFFFF8001FFFFFFFFC00
310
0FF8001FFFFFFFFC000FFF0003FFFFFFFFFE0000000003FFF000FC000000000F
310
FFFFE0007F80070007F8001FFF80007FF8000000001FFFFF8000000001FFFFF8
310
0FFFFFFFFFFFFFC07FFFFFF0001FFFFFF8001FFFFFFFFC000FF8001FFFFFFFFC
310
000FFF0003FFFFFFFFFC000000000FFFF000F8000000007FFFFFE0007F800700
310
07F8001FFF80007FF000000000FFFFFF800000000FFFFFF80FFFFFFFFFFFFFC0
310
7FFFFFF0001FFFFFF8000FFFFFFFF8000FF8000FFFFFFFF8000FFF0003FFFFFF
310
FFFC000000007FFFF000F800000007FFFFFFC0007F8003000FF8001FFF80007F
310
F000000007FFFFFF000000007FFFFFF80FFFFFFFFFFFFFC07FFFFFF0001FFFFF
310
F8000FFFFFFFF8000FF8000FFFFFFFF8000FFF0003FFFFFFFFF80000000FFFFF
310
F000F0000000FFFFFFFFC000FF8003000FF8001FFF80007FE0000000FFFFFFFF
310
0000000FFFFFFFF8000001FFFE0000007FFFFFF0001FFFFFF8000FFFFFFFF800
310
0FF8000FFFFFFFF8000FFF0003FFFFFFFFF8000000FFFFFFF000F000000FFFFF
310
FFFFC000FFC002000FF8000FFF80007FE000001FFFFFFFFE000001FFFFFFFFF8
310
000001FFFE0000007FFFFFF0001FFFFFF8000FFFFFFFF8000FF8000FFFFFFFF8
310
000FFF0003FFFFFFFFF000001FFFFFFFF000E00000FFFFFFFFFFC000FFC00200
310
0FFC000FFF80007FE00001FFFFFFFFFE00001FFFFFFFFFF8000001FFFE000000
310
7FFFFFF0001FFFFFFC000FFFFFFFF8001FFC000FFFFFFFF8001FFF0003FFFFFF
310
FFF00001FFFFFFFFF000E00007FFFFFFFFFF8000FFC000001FFC000FFF80007F
310
C0000FFFFFFFFFFE0000FFFFFFFFFFF8000001FFFE0000007FFFFFF0001FFFFF
310
FC0007FFFFFFF0001FFC0007FFFFFFF0001FFF0003FFFFFFFFF00007FFFFFFFF
310
F000E0001FFFFFFFFFFF8000FFC000001FFC000FFF80007FC0003FFFFFFFFFFE
310
0001FFFFFFFFFFF8000001FFFE0000007FFFFFF0001FFFFFFC0007FFFFFFF000
310
1FFC0007FFFFFFF0001FFF0003FFFFFFFFF0001FFFFFFFFFF000E0003FFFFF00
310
03FF8001FFE000001FFC0007FF80007FC0007FFFFF0007FC0003FFFFF0003FF8
310
000001FFFE0000007FFFFFF0001FFFFFFC0003FFFFFFE0001FFC0003FFFFFFE0
310
001FFF0003FFFFFFFFF0003FFFFFFFFFF000E0003FFFFF0001FF8001FFE00000
310
1FFE0007FF80007FC0007FFFFE0003FC0007FFFFE0003FF8000001FFFE000000
310
7FFFFFF0001FFFFFFE0003FFFFFFE0003FFE0003FFFFFFE0003FFF0003FFFFFF
310
FFF0003FFFFF8001F000E0003FFFFF0001FF0001FFE000001FFE0007FF80007F
310
C0007FFFFE0003FC0007FFFFE0003FF8000001FFFE0000007FFFFFF0001FFFFF
310
FE0001FFFFFFC0003FFE0001FFFFFFC0003FFF0003FFFFFFFFF0003FFFFF0001
310
F000E0003FFFFF0003FF0001FFE000003FFE0007FF80007FC0007FFFFE0003FC
310
0007FFFFE0003FF8000001FFFE0000007FFFFFF0001FFFFFFF0001FFFFFFC000
310
7FFF0001FFFFFFC0007FFF0003FFFFFFFFF0003FFFFF0001F000E0003FFFFE00
310
03FF0003FFF000003FFE0003FF80007FC0007FFFFC0003FE0007FFFFE0003FF8
310
000001FFFE0000007FFFFFF0001FFFFFFF0000FFFFFF80007FFF0000FFFFFF80
310
007FFF0003FFFFFFFFF0003FFFFF0001F000E0003FFFFE0003FF0003FFF00000
310
3FFF0003FF80007FC0007FFFFC0007FE0007FFFFC0003FF8000001FFFE000000
310
7FFFFFF0001FFFFFFF80007FFFFF0000FFFF80007FFFFF0000FFFF0003FFFFFF
310
FFF0003FFFFF0003F000E0003FFFFC0003FE0003FFF000003FFF0003FF80007F
310
E0003FFFF80007FE0003FFFFC0007FF8000001FFFE0000007FFFFFF0001FFFFF
310
FF80003FFFFE0000FFFF80003FFFFE0000FFFF0003FFFFFFFFF0001FFFFE0003
310
F000F0001FFFF80003FE0003FFF000007FFF0001FF80007FE0003FFFF00007FE
310
0001FFFF80007FF8000001FFFE0000007FFFFFF0001FFFFFFFC0000FFFF80001
310
FFFFC0000FFFF80001FFFF0003FFFFFFFFF0001FFFFC0003F000F0000FFFF000
310
07FE0007FFF800007FFF0001FF80007FE0001FFFE00007FF0000FFFE00007FF8
310
000001FFFE0000007FFFFFF0001FFFFFFFC00003FFE00001FFFFC00003FFE000
310
01FFFF0003FFFFFFFFF8000FFFF80003F000F00003FFC00007FC0007FFF80000
310
7FFF8001FF80007FF00007FF80000FFF00007FF80000FFF8000001FFFE000000
310
7F80000000000001FFE000003E000003FFFFE000003E000003FFFF0003FFFFFF
310
FFF80003FFE00007F000F800000000000FFC0007FFF800007FFF8001FF80007F
310
F000000000000FFF000000000000FFF8000001FFFE0000007F80000000000001
310
FFF0000000000007FFFFF0000000000007FFFF0003FFFFFFFFFC00007E000007
310
F000F800000000000FFC0007FFF80000FFFF8000FF80007FF800000000001FFF
310
800000000001FFF8000001FFFE0000007F80000000000001FFF800000000000F
310
FFFFF800000000000FFFFF0003FFFFFFFFFC00000000000FF000FC0000000000
310
1FFC0007FFFC0000FFFF8000FF80007FF800000000003FFFC00000000001FFF8
310
000001FFFE0000007F80000000000001FFF800000000000FFFFFF80000000000
310
0FFFFF0003FFFFFFFFFE00000000001FF000FE00000000003FF8000FFFFC0000
310
FFFF8000FF80007FFC00000000003FFFC00000000003FFF8000001FFFE000000
310
7F80000000000001FFFC00000000001FFFFFFC00000000001FFFFF0003FFFFFF
310
FFFF00000000001FF000FF00000000003FF8000FFFFC0000FFFFC000FF80007F
310
FE00000000007FFFE00000000007FFF8000001FFFE0000007F80000000000001
310
FFFE00000000003FFFFFFE00000000003FFFFF0003FFFFFFFFFF80000000003F
310
F000FF80000000007FF8000FFFFC0001FFFFC0007F80007FFF0000000000FFFF
310
F0000000000FFFF800000000000000007F80000000000001FFFF8000000000FF
310
FFFFFF8000000000FFFFFF0003FFFFFFFFFFC0000000007FF000FFC000000000
310
FFF8000FFFFE0001FFFFC0007F80007FFF8000000001FFFFF8000000001FFFF8
310
00000000000000007F80000000000001FFFFC000000001FFFFFFFFC000000001
310
FFFFFF0003FFFFFFFFFFE000000000FFF000FFE000000003FFF0001FFFFE0001
310
FFFFC0007F80007FFFC000000007FFFFFE000000003FFFF80000000000000000
310
7F80000000000001FFFFE000000003FFFFFFFFE000000003FFFFFF0003FFFFFF
310
FFFFF000000003FFF000FFF80000000FFFF0001FFFFE0001FFFFE0007F80007F
310
FFF00000000FFFFFFF00000000FFFFF800000000000000007F80000000000001
310
FFFFF80000000FFFFFFFFFF80000000FFFFFFF0003FFFFFFFFFFFC0000000FFF
310
F000FFFE0000003FFFF0001FFFFE0003FFFFE0003F80007FFFFC0000003FFFFF
310
FFC0000003FFFFF800000000000000007F80000000000001FFFFFE0000003FFF
310
FFFFFFFE0000003FFFFFFF0003FFFFFFFFFFFF0000003FFFF000FFFF800000FF
310
FFF0001FFFFF0003FFFFE0003F80007FFFFF000001FFFFFFFFF800001FFFFFF8
310
00000000000000007F80000000000001FFFFFFC00001FFFFFFFFFFFFC00001FF
310
FFFFFF0003FFFFFFFFFFFFC00000FFFFF000FFFFF8000FFFFFFFFFFFFFFFFFFF
310
FFFFFFFFFFFFFFFFFFFFF0001FFFFFFFFFFF0000FFFFFFF80000000000000000
310
7FFFFFFFFFFFFFFFFFFFFFFC001FFFFFFFFFFFFFFC001FFFFFFFFFFFFFFFFFFF
310
FFFFFFFC001FFFFFF000FFFFFFFFFFFFFFFFFFFFFFFFFFFFFFFFFFFFFFFFFFFF
310
FFFFFFFFFFFFFFFFFFFFFFFFFFFFFFFFFFFFFFFFFFFFFFFFFFFFFFFFFFFFFFFF
310
FFFFFFFFFFFFFFFFFFFFFFFFFFFFFFFFFFFFFFFFFFFFFFFFFFFFFFFFFFFFFFFF
310
F000FFFFFFFFFFFFFFFFFFFFFFFFFFFFFFFFFFFFFFFFFFFFFFFFFFFFFFFFFFFF
310
FFFFFFFFFFFFFFFFFFFFFFFFFFFFFFFFFFFFFFFFFFFFFFFFFFFFFFFFFFFFFFFF
310
FFFFFFFFFFFFFFFFFFFFFFFFFFFFFFFFFFFFFFFFFFFFFFFFF000FFFFFFFFFFFF
310
FFFFFFFFFFFFFFFFFFFFFFFFFFFFFFFFFFFFFFFFFFFFFFFFFFFFFFFFFFFFFFFF
310
FFFFFFFFFFFFFFFFFFFFFFFFFFFFFFFFFFFFFFFFFFFFFFFFFFFFFFFFFFFFFFFF
310
FFFFFFFFFFFFFFFFFFFFFFFFFFFFFFFFF000FFFFFFFFFFFFFFFFFFFFFFFFFFFF
310
FFFFFFFFFFFFFFFFFFFFFFFFFFFFFFFFFFFFFFFFFFFFFFFFFFFFFFFFFFFFFFFF
310
FFFFFFFFFFFFFFFFFFFFFFFFFFFFFFFFFFFFFFFFFFFFFFFFFFFFFFFFFFFFFFFF
310
FFFFFFFFFFFFFFFFF000FFFFFFFFFFFFFFFFFFFFFFFFFFFFFFFFFFFFFFFFFFFF
310
FFFFFFFFFFFFFFFFFFFFFFFFFFFFFFFFFFFFFFFFFFFFFFFFFFFFFFFFFFFFFFFF
310
FFFFFFFFFFFFFFFFFFFFFFFFFFFFFFFFFFFFFFFFFFFFFFFFFFFFFFFFFFFFFFFF
310
F000FFFFFFFFFFFFFFFFFFFFFFFFFFFFFFFFFFFFFFFFFFFFFFFFFFFFFFFFFFFF
310
FFFFFFFFFFFFFFFFFFFFFFFFFFFFFFFFFFFFFFFFFFFFFFFFFFFFFFFFFFFFFFFF
310
FFFFFFFFFFFFFFFFFFFFFFFFFFFFFFFFFFFFFFFFFFFFFFFFF000FFFFFFFFFFFF
310
FFFFFFFFFFFFFFFFFFFFFFFFFFFFFFFFFFFFFFFFFFFFFFFFFFFFFFFFFFFFFFFF
310
FFFFFFFFFFFFFFFFFFFFFFFFFFFFFFFFFFFFFFFFFFFFFFFFFFFFFFFFFFFFFFFF
310
FFFFFFFFFFFFFFFFFFFFFFFFFFFFFFFFF000FFFFFFFFFFFFFFFFFFFFFFFFFFFF
310
FFFFFFFFFFFFFFFFFFFFFFFFFFFFFFFFFFFFFFFFFFFFFFFFFFFFFFFFFFFFFFFF
310
FFFFFFFFFFFFFFFFFFFFFFFFFFFFFFFFFFFFFFFFFFFFFFFFFFFFFFFFFFFFFFFF
310
FFFFFFFFFFFFFFFFF000FFFFFFFFFFFFFFFFFFFFFFFFFFFFFFFFFFFFFFFFFFFF
310
FFFFFFFFFFFFFFFFFFFFFFFFFFFFFFFFFFFFFFFFFFFFFFFFFFFFFFFFFFFFFFFF
310
FFFFFFFFFFFFFFFFFFFFFFFFFFFFFFFFFFFFFFFFFFFFFFFFFFFFFFFFFFFFFFFF
310
F000FFFFFFFFFFFFFFFFFFFFFFFFFFFFFFFFFFFFFFFFFFFFFFFFFFFFFFFFFFFF
310
FFFFFFFFFFFFFFFFFFFFFFFFFFFFFFFFFFFFFFFFFFFFFFFFFFFFFFFFFFFFFFFF
310
FFFFFFFFFFFFFFFFFFFFFFFFFFFFFFFFFFFFFFFFFFFFFFFFF000FFFFFFFFFFFF
310
FFFFFFFFFFFFFFFFFFFFFFFFFFFFFFFFFFFFFFFFFFFFFFFFFFFFFFFFFFFFFFFF
310
FFFFFFFFFFFFFFFFFFFFFFFFFFFFFFFFFFFFFFFFFFFFFFFFFFFFFFFFFFFFFFFF
310
FFFFFFFFFFFFFFFFFFFFFFFFFFFFFFFFF000FFFFFFFFFFFFFFFFFFFFFFFFFFFF
310
FFFFFFFFFFFFFFFFFFFFFFFFFFFFFFFFFFFFFFFFFFFFFFFFFFFFFFFFFFFFFFFF
310
FFFFFFFFFFFFFFFFFFFFFFFFFFFFFFFFFFFFFFFFFFFFFFFFFFFFFFFFFFFFFFFF
310
FFFFFFFFFFFFFFFFF000FFFFFFFFFFFFFFFFFFFFFFFFFFFFFFFFFFFFFFFFFFFF
310
FFFFFFFFFFFFFFFFFFFFFFFFFFFFFFFFFFFFFFFFFFFFFFFFFFFFFFFFFFFFFFFF
310
FFFFFFFFFFFFFFFFFFFFFFFFFFFFFFFFFFFFFFFFFFFFFFFFFFFFFFFFFFFFFFFF
310
F000FFFFFFFFFFFFFFFFFFFFFFFFFFFFFFFFFFFFFFFFFFFFFFFFFFFFFFFFFFFF
310
FFFFFFFFFFFFFFFFFFFFFFFFFFFFFFFFFFFFFFFFFFFFFFFFFFFFFFFFFFFFFFFF
310
FFFFFFFFFFFFFFFFFFFFFFFFFFFFFFFFFFFFFFFFFFFFFFFFF000FFFFFFFFFFFF
310
FFFFFFFFFFFFFFFFFFFFFFFFFFFFFFFFFFFFFFFFFFFFFFFFFFFFFFFFFFFFFFFF
310
FFFFFFFFFFFFFFFFFFFFFFFFFFFFFFFFFFFFFFFFFFFFFFFFFFFFFFFFFFFFFFFF
310
FFFFFFFFFFFFFFFFFFFFFFFFFFFFFFFFF000FFFFFFFFFFFFFFFFFFFFFFFFFFFF
310
FFFFFFFFFFFFFFFFFFFFFFFFFFFFFFFFFFFFFFFFFFFFFFFFFFFFFFFFFFFFFFFF
310
FFFFFFFFFFFFFFFFFFFFFFFFFFFFFFFFFFFFFFFFFFFFFFFFFFFFFFFFFFFFFFFF
310
FFFFFFFFFFFFFFFFF000FFFFFFFFFFFFFFFFFFFFFFFFFFFFFFFFFFFFFFFFFFFF
310
FFFFFFFFFFFFFFFFFFFFFFFFFFFFFFFFFFFFFFFFFFFFFFFFFFFFFFFFFFFFFFFF
310
FFFFFFFFFFFFFFFFFFFFFFFFFFFFFFFFFFFFFFFFFFFFFFFFFFFFFFFFFFFFFFFF
310
F000FFFFFFFFFFFFFFFFFFFFFFFFFFFFFFFFFFFFFFFFFFFFFFFFFFFFFFFFFFFF
310
FFFFFFFFFFFFFFFFFFFFFFFFFFFFFFFFFFFFFFFFFFFFFFFFFFFFFFFFFFFFFFFF
310
FFFFFFFFFFFFFFFFFFFFFFFFFFFFFFFFFFFFFFFFFFFFFFFFF000FFFFFFFFFFFF
310
FFFFFFFFFFFFFFFFFFFFFFFFFFFFFFFFFFFFFFFFFFFFFFFFFFFFFFFFFFFFFFFF
310
FFFFFFFFFFFFFFFFFFFFFFFFFFFFFFFFFFFFFFFFFFFFFFFFFFFFFFFFFFFFFFFF
310
FFFFFFFFFFFFFFFFFFFFFFFFFFFFFFFFF000FFFFFFFFFFFFFFFFFFFFFFFFFFFF
310
FFFFFFFFFFFFFFFFFFFFFFFFFFFFFFFFFFFFFFFFFFFFFFFFFFFFFFFFFFFFFFFF
310
FFFFFFFFFFFFFFFFFFFFFFFFFFFFFFFFFFFFFFFFFFFFFFFFFFFFFFFFFFFFFFFF
310
FFFFFFFFFFFFFFFFF000FFFFFFFFFFFFFFFFFFFFFFFFFFFFFFFFFFFFFFFFFFFF
310
FFFFFFFFFFFFFFFFFFFFFFFFFFFFFFFFFFFFFFFFFFFFFFFFFFFFFFFFFFFFFFFF
310
FFFFFFFFFFFFFFFFFFFFFFFFFFFFFFFFFFFFFFFFFFFFFFFFFFFFFFFFFFFFFFFF
310
F000FFFFFFFFFFFFFFFFFFFFFFFFFFFFFFFFFFFFFFFFFFFFFFFFFFFFFFFFFFFF
310
FFFFFFFFFFFFFFFFFFFFFFFFFFFFFFFFFFFFFFFFFFFFFFFFFFFFFFFFFFFFFFFF
310
FFFFFFFFFFFFFFFFFFFFFFFFFFFFFFFFFFFFFFFFFFFFFFFFF000FFFFFFFFFFFF
310
FFFFFFFFFFFFFFFFFFFFFFFFFFFFFFFFFFFFFFFFFFFFFFFFFFFFFFFFFFFFFFFF
310
FFFFFFFFFFFFFFFFFFFFFFFFFFFFFFFFFFFFFFFFFFFFFFFFFFFFFFFFFFFFFFFF
310
FFFFFFFFFFFFFFFFFFFFFFFFFFFFFFFFF0000000000000000000000000000000
310
0000000001000000010000000100000000000000010000000100000000000000
310
0100000001000000010000000100000001000000010000000100000001000000
310
0100000001000000010000000100000001000000010000000100000001000000
310
0100000001000000010000000000000001000000000000000100000001000000
310
0100000001000000010000000100000001000000010000000100000001000000
310
0000000001000000000000000100000001000000010000000100000001000000
310
0100000001000000010000000100000001000000010000000100000001000000
310
0100000001000000010000000100000001000000010000000100000001000000
310
0100000001000000010000000000000001000000010000000100000001000000
310
0100000001000000010000000100000001000000010000000100000001000000
310
0100000001000000010000000100000001000000010000000100000001000000
310
0100000001000000010000000100000000000000010000000100000001000000
310
0100000001000000010000000100000001000000010000000100000001000000
310
0100000001000000010000000100000001000000010000000100000001000000
310
0100000001000000010000000100000001000000010000000100000000000000
  1
OLE
  0
ENDSEC
  0
SECTION
  2
OBJECTS
  0
DICTIONARY
  5
C
330
0
100
AcDbDictionary
281
     1
  3
ACAD_GROUP
350
D
  3
ACAD_LAYOUT
350
1A
  3
ACAD_MLEADERSTYLE
350
219
  3
ACAD_MLINESTYLE
350
17
  3
ACAD_PLOTSETTINGS
350
19
  3
ACAD_PLOTSTYLENAME
350
E
  3
ACAD_TABLESTYLE
350
218
  3
ACAD_VISUALSTYLE
350
2A
  3
AcDbVariableDictionary
350
21A
  0
DICTIONARY
  5
D
102
{ACAD_REACTORS
330
C
102
}
330
C
100
AcDbDictionary
281
     1
  0
DICTIONARY
  5
1A
102
{ACAD_REACTORS
330
C
102
}
330
C
100
AcDbDictionary
281
     1
  3
Layout1
350
1E
  3
Layout2
350
26
  3
Model
350
22
  0
DICTIONARY
  5
219
102
{ACAD_REACTORS
330
C
102
}
330
C
100
AcDbDictionary
281
     1
  0
DICTIONARY
  5
17
102
{ACAD_REACTORS
330
C
102
}
330
C
100
AcDbDictionary
281
     1
  3
Standard
350
18
  0
DICTIONARY
  5
19
102
{ACAD_REACTORS
330
C
102
}
330
C
100
AcDbDictionary
281
     1
  0
ACDBDICTIONARYWDFLT
  5
E
102
{ACAD_REACTORS
330
C
102
}
330
C
100
AcDbDictionary
281
     1
  3
Normal
350
F
100
AcDbDictionaryWithDefault
340
F
  0
DICTIONARY
  5
218
102
{ACAD_REACTORS
330
C
102
}
330
C
100
AcDbDictionary
281
     1
  0
DICTIONARY
  5
2A
102
{ACAD_REACTORS
330
C
102
}
330
C
100
AcDbDictionary
281
     1
  3
2dWireframe
350
2F
  3
3D Hidden
350
31
  3
3dWireframe
350
30
  3
Basic
350
32
  3
Brighten
350
36
  3
ColorChange
350
3A
  3
Conceptual
350
34
  3
Dim
350
35
  3
Facepattern
350
39
  3
Flat
350
2B
  3
FlatWithEdges
350
2C
  3
Gouraud
350
2D
  3
GouraudWithEdges
350
2E
  3
Linepattern
350
38
  3
Realistic
350
33
  3
Thicken
350
37
  0
DICTIONARY
  5
21A
102
{ACAD_REACTORS
330
C
102
}
330
C
100
AcDbDictionary
281
     1
  3
PSOLHEIGHT
350
21C
  3
PSOLWIDTH
350
21B
  0
LAYOUT
  5
1E
102
{ACAD_REACTORS
330
1A
102
}
330
1A
100
AcDbPlotSettings
  1

  2
none_device
  4

  6

 40
0.0
 41
0.0
 42
0.0
 43
0.0
 44
0.0
 45
0.0
 46
0.0
 47
0.0
 48
0.0
 49
0.0
140
0.0
141
0.0
142
1.0
143
1.0
 70
   688
 72
     0
 73
     0
 74
     5
  7

 75
    16
147
1.0
148
0.0
149
0.0
100
AcDbLayout
  1
Layout1
 70
     1
 71
     1
 10
0.0
 20
0.0
 11
420.0
 21
297.0
 12
0.0
 22
0.0
 32
0.0
 14
1.0000000000E+20
 24
1.0000000000E+20
 34
1.0000000000E+20
 15
-1.0000000000E+20
 25
-1.0000000000E+20
 35
-1.0000000000E+20
146
0.0
 13
0.0
 23
0.0
 33
0.0
 16
1.0
 26
0.0
 36
0.0
 17
0.0
 27
1.0
 37
0.0
 76
     0
330
1B
  0
LAYOUT
  5
26
102
{ACAD_REACTORS
330
1A
102
}
330
1A
100
AcDbPlotSettings
  1

  2
none_device
  4

  6

 40
0.0
 41
0.0
 42
0.0
 43
0.0
 44
0.0
 45
0.0
 46
0.0
 47
0.0
 48
0.0
 49
0.0
140
0.0
141
0.0
142
1.0
143
1.0
 70
   688
 72
     0
 73
     0
 74
     5
  7

 75
    16
147
1.0
148
0.0
149
0.0
100
AcDbLayout
  1
Layout2
 70
     1
 71
     2
 10
0.0
 20
0.0
 11
0.0
 21
0.0
 12
0.0
 22
0.0
 32
0.0
 14
0.0
 24
0.0
 34
0.0
 15
0.0
 25
0.0
 35
0.0
146
0.0
 13
0.0
 23
0.0
 33
0.0
 16
1.0
 26
0.0
 36
0.0
 17
0.0
 27
1.0
 37
0.0
 76
     0
330
23
  0
LAYOUT
  5
22
102
{ACAD_REACTORS
330
1A
102
}
330
1A
100
AcDbPlotSettings
  1

  2
none_device
  4

  6

 40
0.0
 41
0.0
 42
0.0
 43
0.0
 44
0.0
 45
0.0
 46
0.0
 47
0.0
 48
0.0
 49
0.0
140
0.0
141
0.0
142
1.0
143
1.0
 70
  1712
 72
     0
 73
     0
 74
     0
  7

 75
     0
147
1.0
148
0.0
149
0.0
100
AcDbLayout
  1
Model
 70
     1
 71
     0
 10
0.0
 20
0.0
 11
297.0
 21
210.0
 12
0.0
 22
0.0
 32
0.0
 14
0.0
 24
0.0
 34
0.0
 15
297.0
 25
210.0
 35
0.0
146
0.0
 13
0.0
 23
0.0
 33
0.0
 16
1.0
 26
0.0
 36
0.0
 17
0.0
 27
1.0
 37
0.0
 76
     0
330
1F
331
29
  0
MLINESTYLE
  5
18
102
{ACAD_REACTORS
330
17
102
}
330
17
100
AcDbMlineStyle
  2
Standard
 70
     0
  3

 62
   256
 51
90.0
 52
90.0
 71
     2
 49
0.5
 62
   256
  6
BYLAYER
 49
-0.5
 62
   256
  6
BYLAYER
  0
ACDBPLACEHOLDER
  5
F
102
{ACAD_REACTORS
330
E
102
}
330
E
  0
VISUALSTYLE
  5
2F
102
{ACAD_REACTORS
330
2A
102
}
330
2A
100
AcDbVisualStyle
  2
2dWireframe
 70
     4
 71
     0
 72
     2
 73
     0
 90
        0
 40
-0.6
 41
-30.0
 62
     5
 63
     7
 74
     1
 91
        4
 64
     7
 65
   257
 75
     1
175
     1
 42
1.0
 92
        0
 66
   257
 43
1.0
 76
     1
 77
     6
 78
     2
 67
     7
 79
     5
170
     0
171
     0
290
     0
174
     0
 93
        1
 44
0.0
173
     0
291
     0
 45
0.0
1001
ACAD
1000
AcDbSavedByObjectVersion
1070
     0
  0
VISUALSTYLE
  5
31
102
{ACAD_REACTORS
330
2A
102
}
330
2A
100
AcDbVisualStyle
  2
3D Hidden
 70
     6
 71
     1
 72
     2
 73
     2
 90
        0
 40
-0.6
 41
-30.0
 62
     5
 63
     7
 74
     2
 91
        2
 64
     7
 65
   257
 75
     2
175
     1
 42
40.0
 92
        0
 66
   257
 43
1.0
 76
     1
 77
     6
 78
     2
 67
     7
 79
     3
170
     0
171
     0
290
     0
174
     0
 93
        1
 44
0.0
173
     0
291
     0
 45
0.0
1001
ACAD
1000
AcDbSavedByObjectVersion
1070
     0
  0
VISUALSTYLE
  5
30
102
{ACAD_REACTORS
330
2A
102
}
330
2A
100
AcDbVisualStyle
  2
3dWireframe
 70
     5
 71
     0
 72
     2
 73
     0
 90
        0
 40
-0.6
 41
-30.0
 62
     5
 63
     7
 74
     1
 91
        4
 64
     7
 65
   257
 75
     1
175
     1
 42
1.0
 92
        0
 66
   257
 43
1.0
 76
     1
 77
     6
 78
     2
 67
     7
 79
     5
170
     0
171
     0
290
     0
174
     0
 93
        1
 44
0.0
173
     0
291
     0
 45
0.0
1001
ACAD
1000
AcDbSavedByObjectVersion
1070
     0
  0
VISUALSTYLE
  5
32
102
{ACAD_REACTORS
330
2A
102
}
330
2A
100
AcDbVisualStyle
  2
Basic
 70
     7
 71
     1
 72
     0
 73
     1
 90
        0
 40
-0.6
 41
-30.0
 62
     5
 63
     7
 74
     0
 91
        4
 64
     7
 65
   257
 75
     1
175
     1
 42
1.0
 92
        8
 66
     7
 43
1.0
 76
     1
 77
     6
 78
     2
 67
     7
 79
     5
170
     0
171
     0
290
     0
174
     0
 93
        1
 44
0.0
173
     0
291
     1
 45
0.0
1001
ACAD
1000
AcDbSavedByObjectVersion
1070
     0
  0
VISUALSTYLE
  5
36
102
{ACAD_REACTORS
330
2A
102
}
330
2A
100
AcDbVisualStyle
  2
Brighten
 70
    12
 71
     2
 72
     2
 73
     0
 90
        0
 40
-0.6
 41
-30.0
 62
     5
 63
     7
 74
     1
 91
        4
 64
     7
 65
   257
 75
     1
175
     1
 42
1.0
 92
        8
 66
     7
 43
1.0
 76
     1
 77
     6
 78
     2
 67
     7
 79
     5
170
     0
171
     0
290
     0
174
     0
 93
        1
 44
50.0
173
     0
291
     1
 45
0.0
1001
ACAD
1000
AcDbSavedByObjectVersion
1070
     0
  0
VISUALSTYLE
  5
3A
102
{ACAD_REACTORS
330
2A
102
}
330
2A
100
AcDbVisualStyle
  2
ColorChange
 70
    16
 71
     2
 72
     2
 73
     3
 90
        0
 40
-0.6
 41
-30.0
 62
     5
 63
     8
 74
     1
 91
        4
 64
     7
 65
   257
 75
     1
175
     1
 42
1.0
 92
        8
 66
     8
 43
1.0
 76
     1
 77
     6
 78
     2
 67
     7
 79
     5
170
     0
171
     0
290
     0
174
     0
 93
        1
 44
0.0
173
     0
291
     1
 45
0.0
1001
ACAD
1000
AcDbSavedByObjectVersion
1070
     0
  0
VISUALSTYLE
  5
34
102
{ACAD_REACTORS
330
2A
102
}
330
2A
100
AcDbVisualStyle
  2
Conceptual
 70
     9
 71
     3
 72
     2
 73
     0
 90
        0
 40
-0.6
 41
-30.0
 62
     5
 63
     7
 74
     2
 91
        2
 64
     7
 65
   257
 75
     1
175
     1
 42
40.0
 92
        8
 66
     7
 43
1.0
 76
     1
 77
     6
 78
     2
 67
     7
 79
     3
170
     0
171
     0
290
     0
174
     0
 93
        1
 44
0.0
173
     0
291
     0
 45
0.0
1001
ACAD
1000
AcDbSavedByObjectVersion
1070
     0
  0
VISUALSTYLE
  5
35
102
{ACAD_REACTORS
330
2A
102
}
330
2A
100
AcDbVisualStyle
  2
Dim
 70
    11
 71
     2
 72
     2
 73
     0
 90
        0
 40
-0.6
 41
-30.0
 62
     5
 63
     7
 74
     1
 91
        4
 64
     7
 65
   257
 75
     1
175
     1
 42
1.0
 92
        8
 66
     7
 43
1.0
 76
     1
 77
     6
 78
     2
 67
     7
 79
     5
170
     0
171
     0
290
     0
174
     0
 93
        1
 44
-50.0
173
     0
291
     1
 45
0.0
1001
ACAD
1000
AcDbSavedByObjectVersion
1070
     0
  0
VISUALSTYLE
  5
39
102
{ACAD_REACTORS
330
2A
102
}
330
2A
100
AcDbVisualStyle
  2
Facepattern
 70
    15
 71
     2
 72
     2
 73
     0
 90
        0
 40
-0.6
 41
-30.0
 62
     5
 63
     7
 74
     1
 91
        4
 64
     7
 65
   257
 75
     1
175
     1
 42
1.0
 92
        8
 66
     7
 43
1.0
 76
     1
 77
     6
 78
     2
 67
     7
 79
     5
170
     0
171
     0
290
     0
174
     0
 93
        1
 44
0.0
173
     0
291
     1
 45
0.0
1001
ACAD
1000
AcDbSavedByObjectVersion
1070
     0
  0
VISUALSTYLE
  5
2B
102
{ACAD_REACTORS
330
2A
102
}
330
2A
100
AcDbVisualStyle
  2
Flat
 70
     0
 71
     2
 72
     1
 73
     1
 90
        2
 40
-0.6
 41
30.0
 62
     5
 63
     7
 74
     0
 91
        4
 64
     7
 65
   257
 75
     1
175
     1
 42
1.0
 92
        8
 66
     7
 43
1.0
 76
     1
 77
     6
 78
     2
 67
     7
 79
     5
170
     0
171
     0
290
     0
174
     0
 93
       13
 44
0.0
173
     0
291
     1
 45
0.0
1001
ACAD
1000
AcDbSavedByObjectVersion
1070
     0
  0
VISUALSTYLE
  5
2C
102
{ACAD_REACTORS
330
2A
102
}
330
2A
100
AcDbVisualStyle
  2
FlatWithEdges
 70
     1
 71
     2
 72
     1
 73
     1
 90
        2
 40
-0.6
 41
30.0
 62
     5
 63
     7
 74
     1
 91
        4
 64
     7
 65
   257
 75
     1
175
     1
 42
1.0
 92
        0
 66
   257
 43
1.0
 76
     1
 77
     6
 78
     2
 67
     7
 79
     5
170
     0
171
     0
290
     0
174
     0
 93
       13
 44
0.0
173
     0
291
     1
 45
0.0
1001
ACAD
1000
AcDbSavedByObjectVersion
1070
     0
  0
VISUALSTYLE
  5
2D
102
{ACAD_REACTORS
330
2A
102
}
330
2A
100
AcDbVisualStyle
  2
Gouraud
 70
     2
 71
     2
 72
     2
 73
     1
 90
        2
 40
-0.6
 41
30.0
 62
     5
 63
     7
 74
     0
 91
        4
 64
     7
 65
   257
 75
     1
175
     1
 42
1.0
 92
        0
 66
     7
 43
1.0
 76
     1
 77
     6
 78
     2
 67
     7
 79
     5
170
     0
171
     0
290
     0
174
     0
 93
       13
 44
0.0
173
     0
291
     1
 45
0.0
1001
ACAD
1000
AcDbSavedByObjectVersion
1070
     0
  0
VISUALSTYLE
  5
2E
102
{ACAD_REACTORS
330
2A
102
}
330
2A
100
AcDbVisualStyle
  2
GouraudWithEdges
 70
     3
 71
     2
 72
     2
 73
     1
 90
        2
 40
-0.6
 41
30.0
 62
     5
 63
     7
 74
     1
 91
        4
 64
     7
 65
   257
 75
     1
175
     1
 42
1.0
 92
        0
 66
   257
 43
1.0
 76
     1
 77
     6
 78
     2
 67
     7
 79
     5
170
     0
171
     0
290
     0
174
     0
 93
       13
 44
0.0
173
     0
291
     1
 45
0.0
1001
ACAD
1000
AcDbSavedByObjectVersion
1070
     0
  0
VISUALSTYLE
  5
38
102
{ACAD_REACTORS
330
2A
102
}
330
2A
100
AcDbVisualStyle
  2
Linepattern
 70
    14
 71
     2
 72
     2
 73
     0
 90
        0
 40
-0.6
 41
-30.0
 62
     5
 63
     7
 74
     1
 91
        4
 64
     7
 65
   257
 75
     7
175
     7
 42
1.0
 92
        8
 66
     7
 43
1.0
 76
     1
 77
     6
 78
     2
 67
     7
 79
     5
170
     0
171
     0
290
     0
174
     0
 93
        1
 44
0.0
173
     0
291
     1
 45
0.0
1001
ACAD
1000
AcDbSavedByObjectVersion
1070
     0
  0
VISUALSTYLE
  5
33
102
{ACAD_REACTORS
330
2A
102
}
330
2A
100
AcDbVisualStyle
  2
Realistic
 70
     8
 71
     2
 72
     2
 73
     0
 90
        0
 40
-0.6
 41
-30.0
 62
     5
 63
     7
 74
     1
 91
        0
 64
     7
 65
   257
 75
     1
175
     1
 42
1.0
 92
        8
 66
     8
 43
1.0
 76
     1
 77
     6
 78
     2
 67
     7
 79
     5
170
     0
171
     0
290
     0
174
     0
 93
       13
 44
0.0
173
     0
291
     0
 45
0.0
1001
ACAD
1000
AcDbSavedByObjectVersion
1070
     0
  0
VISUALSTYLE
  5
37
102
{ACAD_REACTORS
330
2A
102
}
330
2A
100
AcDbVisualStyle
  2
Thicken
 70
    13
 71
     2
 72
     2
 73
     0
 90
        0
 40
-0.6
 41
-30.0
 62
     5
 63
     7
 74
     1
 91
        4
 64
     7
 65
   257
 75
     1
175
     1
 42
1.0
 92
       12
 66
     7
 43
1.0
 76
     1
 77
     6
 78
     2
 67
     7
 79
     5
170
     0
171
     0
290
     0
174
     0
 93
        1
 44
0.0
173
     0
291
     1
 45
0.0
1001
ACAD
1000
AcDbSavedByObjectVersion
1070
     0
  0
DICTIONARYVAR
  5
21C
102
{ACAD_REACTORS
330
21A
102
}
330
21A
100
DictionaryVariables
280
     0
  1
80.000000
  0
DICTIONARYVAR
  5
21B
102
{ACAD_REACTORS
330
21A
102
}
330
21A
100
DictionaryVariables
280
     0
  1
5.000000
  0
ENDSEC
  0
EOF
