  0
SECTION
  2
HEADER
  9
$ACADVER
  1
AC1015
  9
$ACADMAINTVER
 70
     6
  9
$DWGCODEPAGE
  3
ANSI_1252
  9
$INSBASE
 10
0.0
 20
0.0
 30
0.0
  9
$EXTMIN
 10
0.0
 20
0.0
 30
0.0
  9
$EXTMAX
 10
297.0
 20
210.0
 30
0.0
  9
$LIMMIN
 10
0.0
 20
0.0
  9
$LIMMAX
 10
297.0
 20
210.0
  9
$ORTHOMODE
 70
     0
  9
$REGENMODE
 70
     1
  9
$FILLMODE
 70
     1
  9
$QTEXTMODE
 70
     0
  9
$MIRRTEXT
 70
     1
  9
$LTSCALE
 40
1.0
  9
$ATTMODE
 70
     1
  9
$TEXTSIZE
 40
2.0
  9
$TRACEWID
 40
1.0
  9
$TEXTSTYLE
  7
Standard
  9
$CLAYER
  8
0
  9
$CELTYPE
  6
ByLayer
  9
$CECOLOR
 62
   256
  9
$CELTSCALE
 40
1.0
  9
$DISPSILH
 70
     0
  9
$DIMSCALE
 40
1.0
  9
$DIMASZ
 40
3.0
  9
$DIMEXO
 40
0.0
  9
$DIMDLI
 40
3.75
  9
$DIMRND
 40
0.0
  9
$DIMDLE
 40
0.0
  9
$DIMEXE
 40
1.0
  9
$DIMTP
 40
0.0
  9
$DIMTM
 40
0.0
  9
$DIMTXT
 40
2.0
  9
$DIMCEN
 40
2.5
  9
$DIMTSZ
 40
0.0
  9
$DIMTOL
 70
     0
  9
$DIMLIM
 70
     0
  9
$DIMTIH
 70
     1
  9
$DIMTOH
 70
     1
  9
$DIMSE1
 70
     0
  9
$DIMSE2
 70
     0
  9
$DIMTAD
 70
     1
  9
$DIMZIN
 70
     0
  9
$DIMBLK
  1

  9
$DIMASO
 70
     1
  9
$DIMSHO
 70
     1
  9
$DIMPOST
  1

  9
$DIMAPOST
  1

  9
$DIMALT
 70
     0
  9
$DIMALTD
 70
     3
  9
$DIMALTF
 40
0.0393700787
  9
$DIMLFAC
 40
1.0
  9
$DIMTOFL
 70
     1
  9
$DIMTVP
 40
0.0
  9
$DIMTIX
 70
     0
  9
$DIMSOXD
 70
     0
  9
$DIMSAH
 70
     0
  9
$DIMBLK1
  1

  9
$DIMBLK2
  1

  9
$DIMSTYLE
  2
ISO-25
  9
$DIMCLRD
 70
     0
  9
$DIMCLRE
 70
     0
  9
$DIMCLRT
 70
     0
  9
$DIMTFAC
 40
1.0
  9
$DIMGAP
 40
1.524
  9
$DIMJUST
 70
     0
  9
$DIMSD1
 70
     0
  9
$DIMSD2
 70
     0
  9
$DIMTOLJ
 70
     0
  9
$DIMTZIN
 70
     0
  9
$DIMALTZ
 70
     0
  9
$DIMALTTZ
 70
     0
  9
$DIMUPT
 70
     0
  9
$DIMDEC
 70
     2
  9
$DIMTDEC
 70
     3
  9
$DIMALTU
 70
     2
  9
$DIMALTTD
 70
     3
  9
$DIMTXSTY
  7
Standard
  9
$DIMAUNIT
 70
     0
  9
$DIMADEC
 70
     2
  9
$DIMALTRND
 40
0.0
  9
$DIMAZIN
 70
     0
  9
$DIMDSEP
 70
    44
  9
$DIMATFIT
 70
     3
  9
$DIMFRAC
 70
     0
  9
$DIMLDRBLK
  1

  9
$DIMLUNIT
 70
     2
  9
$DIMLWD
 70
    -2
  9
$DIMLWE
 70
    -2
  9
$DIMTMOVE
 70
     0
  9
$LUNITS
 70
     2
  9
$LUPREC
 70
     2
  9
$SKETCHINC
 40
1.0
  9
$FILLETRAD
 40
10.0
  9
$AUNITS
 70
     0
  9
$AUPREC
 70
     2
  9
$MENU
  1
.
  9
$ELEVATION
 40
0.0
  9
$PELEVATION
 40
0.0
  9
$THICKNESS
 40
0.0
  9
$LIMCHECK
 70
     0
  9
$CHAMFERA
 40
10.0
  9
$CHAMFERB
 40
10.0
  9
$CHAMFERC
 40
20.0
  9
$CHAMFERD
 40
0.0
  9
$SKPOLY
 70
     0
  9
$TDCREATE
 40
2455673.388410949
  9
$TDUCREATE
 40
2455673.305077616
  9
$TDUPDATE
 40
2455673.388410961
  9
$TDUUPDATE
 40
2455673.305077627
  9
$TDINDWG
 40
0.0000000116
  9
$TDUSRTIMER
 40
0.0000000116
  9
$USRTIMER
 70
     1
  9
$ANGBASE
 50
0.0
  9
$ANGDIR
 70
     0
  9
$PDMODE
 70
     0
  9
$PDSIZE
 40
-1.0
  9
$PLINEWID
 40
0.0
  9
$SPLFRAME
 70
     0
  9
$SPLINETYPE
 70
     6
  9
$SPLINESEGS
 70
     8
  9
$HANDSEED
  5
217
  9
$SURFTAB1
 70
     6
  9
$SURFTAB2
 70
     6
  9
$SURFTYPE
 70
     6
  9
$SURFU
 70
     6
  9
$SURFV
 70
     6
  9
$UCSBASE
  2

  9
$UCSNAME
  2

  9
$UCSORG
 10
0.0
 20
0.0
 30
0.0
  9
$UCSXDIR
 10
1.0
 20
0.0
 30
0.0
  9
$UCSYDIR
 10
0.0
 20
1.0
 30
0.0
  9
$UCSORTHOREF
  2

  9
$UCSORTHOVIEW
 70
     0
  9
$UCSORGTOP
 10
0.0
 20
0.0
 30
0.0
  9
$UCSORGBOTTOM
 10
0.0
 20
0.0
 30
0.0
  9
$UCSORGLEFT
 10
0.0
 20
0.0
 30
0.0
  9
$UCSORGRIGHT
 10
0.0
 20
0.0
 30
0.0
  9
$UCSORGFRONT
 10
0.0
 20
0.0
 30
0.0
  9
$UCSORGBACK
 10
0.0
 20
0.0
 30
0.0
  9
$PUCSBASE
  2

  9
$PUCSNAME
  2

  9
$PUCSORG
 10
0.0
 20
0.0
 30
0.0
  9
$PUCSXDIR
 10
1.0
 20
0.0
 30
0.0
  9
$PUCSYDIR
 10
0.0
 20
1.0
 30
0.0
  9
$PUCSORTHOREF
  2

  9
$PUCSORTHOVIEW
 70
     0
  9
$PUCSORGTOP
 10
0.0
 20
0.0
 30
0.0
  9
$PUCSORGBOTTOM
 10
0.0
 20
0.0
 30
0.0
  9
$PUCSORGLEFT
 10
0.0
 20
0.0
 30
0.0
  9
$PUCSORGRIGHT
 10
0.0
 20
0.0
 30
0.0
  9
$PUCSORGFRONT
 10
0.0
 20
0.0
 30
0.0
  9
$PUCSORGBACK
 10
0.0
 20
0.0
 30
0.0
  9
$USERI1
 70
     0
  9
$USERI2
 70
     0
  9
$USERI3
 70
     0
  9
$USERI4
 70
     0
  9
$USERI5
 70
     0
  9
$USERR1
 40
0.0
  9
$USERR2
 40
0.0
  9
$USERR3
 40
0.0
  9
$USERR4
 40
0.0
  9
$USERR5
 40
0.0
  9
$WORLDVIEW
 70
     1
  9
$SHADEDGE
 70
     3
  9
$SHADEDIF
 70
    70
  9
$TILEMODE
 70
     1
  9
$MAXACTVP
 70
    64
  9
$PINSBASE
 10
0.0
 20
0.0
 30
0.0
  9
$PLIMCHECK
 70
     0
  9
$PEXTMIN
 10
1.0000000000E+20
 20
1.0000000000E+20
 30
1.0000000000E+20
  9
$PEXTMAX
 10
-1.0000000000E+20
 20
-1.0000000000E+20
 30
-1.0000000000E+20
  9
$PLIMMIN
 10
0.0
 20
0.0
  9
$PLIMMAX
 10
420.0
 20
297.0
  9
$UNITMODE
 70
     0
  9
$VISRETAIN
 70
     1
  9
$PLINEGEN
 70
     0
  9
$PSLTSCALE
 70
     1
  9
$TREEDEPTH
 70
  3020
  9
$CMLSTYLE
  2
Standard
  9
$CMLJUST
 70
     0
  9
$CMLSCALE
 40
20.0
  9
$PROXYGRAPHICS
 70
     1
  9
$MEASUREMENT
 70
     1
  9
$CELWEIGHT
370
    -1
  9
$ENDCAPS
280
     0
  9
$JOINSTYLE
280
     0
  9
$LWDISPLAY
290
     1
  9
$INSUNITS
 70
     4
  9
$HYPERLINKBASE
  1

  9
$STYLESHEET
  1

  9
$XEDIT
290
     1
  9
$CEPSNTYPE
380
     0
  9
$PSTYLEMODE
290
     1
  9
$FINGERPRINTGUID
  2
{B5B5E4C2-182F-4318-83CD-E8A9443C90A1}
  9
$VERSIONGUID
  2
{FAEB1C32-E019-11D5-929B-00C0DF256EC4}
  9
$EXTNAMES
290
     1
  9
$PSVPSCALE
 40
0.0
  9
$OLESTARTUP
290
     0
  0
ENDSEC
  0
SECTION
  2
CLASSES
  0
CLASS
  1
ACDBDICTIONARYWDFLT
  2
AcDbDictionaryWithDefault
  3
ObjectDBX Classes
 90
        0
280
     0
281
     0
  0
CLASS
  1
VISUALSTYLE
  2
AcDbVisualStyle
  3
ObjectDBX Classes
 90
     4095
280
     0
281
     0
  0
CLASS
  1
DICTIONARYVAR
  2
AcDbDictionaryVar
  3
ObjectDBX Classes
 90
        0
280
     0
281
     0
  0
CLASS
  1
ACDBPLACEHOLDER
  2
AcDbPlaceHolder
  3
ObjectDBX Classes
 90
        0
280
     0
281
     0
  0
CLASS
  1
LAYOUT
  2
AcDbLayout
  3
ObjectDBX Classes
 90
        0
280
     0
281
     0
  0
ENDSEC
  0
SECTION
  2
TABLES
  0
TABLE
  2
VPORT
  5
8
330
0
100
AcDbSymbolTable
 70
     1
  0
VPORT
  5
29
330
8
100
AcDbSymbolTableRecord
100
AcDbViewportTableRecord
  2
*Active
 70
     0
 10
0.0
 20
0.0
 11
1.0
 21
1.0
 12
148.5
 22
105.0
 13
0.0
 23
0.0
 14
10.0
 24
10.0
 15
10.0
 25
10.0
 16
0.0
 26
0.0
 36
1.0
 17
0.0
 27
0.0
 37
0.0
 40
210.0
 41
1.4142857143
 42
50.0
 43
0.0
 44
0.0
 50
0.0
 51
0.0
 71
     0
 72
  2000
 73
     1
 74
     3
 75
     0
 76
     0
 77
     0
 78
     0
281
     0
 65
     1
110
0.0
120
0.0
130
0.0
111
1.0
121
0.0
131
0.0
112
0.0
122
1.0
132
0.0
 79
     0
146
0.0
  0
ENDTAB
  0
TABLE
  2
LTYPE
  5
5
330
0
100
AcDbSymbolTable
 70
     6
  0
LTYPE
  5
14
330
5
100
AcDbSymbolTableRecord
100
AcDbLinetypeTableRecord
  2
ByBlock
 70
     0
  3

 72
    65
 73
     0
 40
0.0
  0
LTYPE
  5
15
330
5
100
AcDbSymbolTableRecord
100
AcDbLinetypeTableRecord
  2
ByLayer
 70
     0
  3

 72
    65
 73
     0
 40
0.0
  0
LTYPE
  5
16
330
5
100
AcDbSymbolTableRecord
100
AcDbLinetypeTableRecord
  2
Continuous
 70
     0
  3
Solid line
 72
    65
 73
     0
 40
0.0
  0
LTYPE
  5
3B
330
5
100
AcDbSymbolTableRecord
100
AcDbLinetypeTableRecord
  2
HIDDEN
 70
     0
  3
Hidden __ __ __ __ __ __ __ __ __ __ __ __ __ __
 72
    65
 73
     2
 40
1.905
 49
1.27
 74
     0
 49
-0.635
 74
     0
  0
LTYPE
  5
3C
330
5
100
AcDbSymbolTableRecord
100
AcDbLinetypeTableRecord
  2
PHANTOM
 70
     0
  3
Phantom ______  __  __  ______  __  __  ______
 72
    65
 73
     6
 40
12.7
 49
6.35
 74
     0
 49
-1.27
 74
     0
 49
1.27
 74
     0
 49
-1.27
 74
     0
 49
1.27
 74
     0
 49
-1.27
 74
     0
  0
LTYPE
  5
3D
330
5
100
AcDbSymbolTableRecord
100
AcDbLinetypeTableRecord
  2
CENTER
 70
     0
  3
Center ____ _ ____ _ ____ _ ____ _ ____ _ ____
 72
    65
 73
     4
 40
10.16
 49
6.35
 74
     0
 49
-1.27
 74
     0
 49
1.27
 74
     0
 49
-1.27
 74
     0
  0
LTYPE
  5
3E
330
5
100
AcDbSymbolTableRecord
100
AcDbLinetypeTableRecord
  2
CENTERX2
 70
     0
  3
Center (2x) ________  __  ________  __  _____
 72
    65
 73
     4
 40
20.32
 49
12.7
 74
     0
 49
-2.54
 74
     0
 49
2.54
 74
     0
 49
-2.54
 74
     0
  0
LTYPE
  5
3F
330
5
100
AcDbSymbolTableRecord
100
AcDbLinetypeTableRecord
  2
DOT2
 70
     0
  3
Dot (.5x) ........................................
 72
    65
 73
     2
 40
0.635
 49
0.0
 74
     0
 49
-0.635
 74
     0
  0
ENDTAB
  0
TABLE
  2
LAYER
  5
2
330
0
100
AcDbSymbolTable
 70
     5
  0
LAYER
  5
10
330
2
100
AcDbSymbolTableRecord
100
AcDbLayerTableRecord
  2
0
 70
     0
 62
     7
  6
Continuous
370
    -3
390
F
  0
LAYER
  5
40
330
2
100
AcDbSymbolTableRecord
100
AcDbLayerTableRecord
  2
FORMAT
 70
     0
 62
     7
  6
Continuous
370
    -3
390
F
  0
LAYER
  5
41
330
2
100
AcDbSymbolTableRecord
100
AcDbLayerTableRecord
  2
VERMASSUNG
 70
     0
 62
     7
  6
Continuous
370
    -3
390
F
  0
LAYER
  5
42
330
2
100
AcDbSymbolTableRecord
100
AcDbLayerTableRecord
  2
KOPF_DÜNN
 70
     0
 62
     7
  6
Continuous
370
    -3
390
F
  0
LAYER
  5
43
330
2
100
AcDbSymbolTableRecord
100
AcDbLayerTableRecord
  2
KOPF_DICK
 70
     0
 62
     7
  6
Continuous
370
    15
390
F
  0
ENDTAB
  0
TABLE
  2
STYLE
  5
3
330
0
100
AcDbSymbolTable
 70
     3
  0
STYLE
  5
11
330
3
100
AcDbSymbolTableRecord
100
AcDbTextStyleTableRecord
  2
Standard
 70
     0
 40
0.0
 41
1.0
 50
0.0
 71
     0
 42
2.5
  3
txt
  4

  0
STYLE
  5
44
330
3
100
AcDbSymbolTableRecord
100
AcDbTextStyleTableRecord
  2
SLDTEXTSTYLE0
 70
     0
 40
0.0
 41
0.7
 50
0.0
 71
     0
 42
0.2
  3
TXT
  4

  0
STYLE
  5
48
330
3
100
AcDbSymbolTableRecord
100
AcDbTextStyleTableRecord
  2
SLDTEXTSTYLE1
 70
     0
 40
0.0
 41
0.6473684211
 50
0.0
 71
     0
 42
0.2
  3
TXT
  4

  0
ENDTAB
  0
TABLE
  2
VIEW
  5
6
330
0
100
AcDbSymbolTable
 70
     0
  0
ENDTAB
  0
TABLE
  2
UCS
  5
7
330
0
100
AcDbSymbolTable
 70
     0
  0
ENDTAB
  0
TABLE
  2
APPID
  5
9
330
0
100
AcDbSymbolTable
 70
     1
  0
APPID
  5
12
330
9
100
AcDbSymbolTableRecord
100
AcDbRegAppTableRecord
  2
ACAD
 70
     0
  0
ENDTAB
  0
TABLE
  2
DIMSTYLE
  5
A
330
0
100
AcDbSymbolTable
 70
     3
100
AcDbDimStyleTable
  0
DIMSTYLE
105
27
330
A
100
AcDbSymbolTableRecord
100
AcDbDimStyleTableRecord
  2
ISO-25
 70
     0
 41
2.5
 42
0.625
 43
3.75
 44
1.25
 73
     0
 74
     0
 77
     1
 78
     8
140
2.5
141
2.5
143
0.0393700787
147
0.625
171
     3
172
     1
271
     2
272
     2
274
     3
278
    44
283
     0
284
     8
340
11
  0
DIMSTYLE
105
1CD
102
{ACAD_REACTORS
330
1CC
330
1E7
330
1F1
330
1FB
330
205
102
}
330
A
100
AcDbSymbolTableRecord
100
AcDbDimStyleTableRecord
  2
SLDDIMSTYLE0
 70
     0
 41
3.0
 44
0.0
 45
0.000000001
 73
     0
 74
     0
 77
     1
 78
    12
140
2.0
147
0.5
173
     1
271
     2
272
     3
284
    12
340
44
  0
DIMSTYLE
105
1DA
102
{ACAD_REACTORS
330
1D9
102
}
330
A
100
AcDbSymbolTableRecord
100
AcDbDimStyleTableRecord
  2
SLDDIMSTYLE1
 70
     0
 41
3.0
 44
0.0
 45
0.000000001
 73
     0
 74
     0
 77
     1
 78
    12
140
2.0
147
0.5
173
     1
271
     2
272
     3
284
    12
340
44
  0
ENDTAB
  0
TABLE
  2
BLOCK_RECORD
  5
1
330
0
100
AcDbSymbolTable
 70
     7
  0
BLOCK_RECORD
  5
1F
330
1
100
AcDbSymbolTableRecord
100
AcDbBlockTableRecord
  2
*Model_Space
340
22
  0
BLOCK_RECORD
  5
1B
330
1
100
AcDbSymbolTableRecord
100
AcDbBlockTableRecord
  2
*Paper_Space
340
1E
  0
BLOCK_RECORD
  5
23
330
1
100
AcDbSymbolTableRecord
100
AcDbBlockTableRecord
  2
*Paper_Space0
340
26
  0
BLOCK_RECORD
  5
1CE
330
1
100
AcDbSymbolTableRecord
100
AcDbBlockTableRecord
  2
*D1
340
0
  0
BLOCK_RECORD
  5
1DB
330
1
100
AcDbSymbolTableRecord
100
AcDbBlockTableRecord
  2
*D2
340
0
  0
BLOCK_RECORD
  5
1E8
330
1
100
AcDbSymbolTableRecord
100
AcDbBlockTableRecord
  2
*D3
340
0
  0
BLOCK_RECORD
  5
1F2
330
1
100
AcDbSymbolTableRecord
100
AcDbBlockTableRecord
  2
*D4
340
0
  0
BLOCK_RECORD
  5
1FC
330
1
100
AcDbSymbolTableRecord
100
AcDbBlockTableRecord
  2
*D5
340
0
  0
BLOCK_RECORD
  5
206
330
1
100
AcDbSymbolTableRecord
100
AcDbBlockTableRecord
  2
*D6
340
0
  0
ENDTAB
  0
ENDSEC
  0
SECTION
  2
BLOCKS
  0
BLOCK
  5
20
330
1F
100
AcDbEntity
  8
0
100
AcDbBlockBegin
  2
*Model_Space
 70
     0
 10
0.0
 20
0.0
 30
0.0
  3
*Model_Space
  1

  0
ENDBLK
  5
21
330
1F
100
AcDbEntity
  8
0
100
AcDbBlockEnd
  0
BLOCK
  5
1C
330
1B
100
AcDbEntity
 67
     1
  8
0
100
AcDbBlockBegin
  2
*Paper_Space
 70
     0
 10
0.0
 20
0.0
 30
0.0
  3
*Paper_Space
  1

  0
ENDBLK
  5
1D
330
1B
100
AcDbEntity
 67
     1
  8
0
100
AcDbBlockEnd
  0
BLOCK
  5
24
330
23
100
AcDbEntity
  8
0
100
AcDbBlockBegin
  2
*Paper_Space0
 70
     0
 10
0.0
 20
0.0
 30
0.0
  3
*Paper_Space0
  1

  0
ENDBLK
  5
25
330
23
100
AcDbEntity
  8
0
100
AcDbBlockEnd
  0
BLOCK
  5
1CF
330
1CE
100
AcDbEntity
  8
0
100
AcDbBlockBegin
  2
*D1
 70
     1
 10
0.0
 20
0.0
 30
0.0
  3
*D1
  1

  0
SOLID
  5
1D1
330
1CE
100
AcDbEntity
  8
VERMASSUNG
100
AcDbTrace
 10
49.0669266868
 20
136.8536647809
 30
0.0
 11
48.6169266868
 21
133.8536647809
 31
0.0
 12
49.5169266868
 22
133.8536647809
 32
0.0
 13
49.5169266868
 23
133.8536647809
 33
0.0
  0
SOLID
  5
1D2
330
1CE
100
AcDbEntity
  8
VERMASSUNG
100
AcDbTrace
 10
49.0669266868
 20
73.8536647809
 30
0.0
 11
49.5169266868
 21
76.8536647809
 31
0.0
 12
48.6169266868
 22
76.8536647809
 32
0.0
 13
48.6169266868
 23
76.8536647809
 33
0.0
  0
LINE
  5
1D3
330
1CE
100
AcDbEntity
  8
VERMASSUNG
100
AcDbLine
 10
85.5785947623
 20
136.8536647809
 30
0.0
 11
48.0669266868
 21
136.8536647809
 31
0.0
  0
LINE
  5
1D4
330
1CE
100
AcDbEntity
  8
VERMASSUNG
100
AcDbLine
 10
85.5785947623
 20
73.8536647809
 30
0.0
 11
48.0669266868
 21
73.8536647809
 31
0.0
  0
LINE
  5
1D5
330
1CE
100
AcDbEntity
  8
VERMASSUNG
100
AcDbLine
 10
49.0669266868
 20
136.8536647809
 30
0.0
 11
49.0669266868
 21
73.8536647809
 31
0.0
  0
MTEXT
  5
1D6
330
1CE
100
AcDbEntity
  8
VERMASSUNG
100
AcDbMText
 10
46.2887911977
 20
97.6501230691
 30
0.0
 40
2.0
 41
0.0
 71
     1
 72
     1
  1
HSK A 
  7
SLDTEXTSTYLE0
 11
-7.044195017643634E-15
 21
1.0
 31
0.0
 73
     1
 44
1.0
  0
MTEXT
  5
1D7
330
1CE
100
AcDbEntity
  8
VERMASSUNG
100
AcDbMText
 10
46.4887912072
 20
106.650123613
 30
0.0
 40
2.0
 41
0.0
 71
     1
 72
     1
  1
%%c
  7
SLDTEXTSTYLE0
 11
-7.044195017643634E-15
 21
1.0
 31
0.0
 73
     1
 44
1.0
  0
MTEXT
  5
1D8
330
1CE
100
AcDbEntity
  8
VERMASSUNG
100
AcDbMText
 10
46.4887913236
 20
110.258450263
 30
0.0
 40
2.0
 41
0.0
 71
     1
 72
     1
  1
63
  7
SLDTEXTSTYLE0
 11
-7.044195017643634E-15
 21
1.0
 31
0.0
 73
     1
 44
1.0
  0
ENDBLK
  5
1D0
330
1CE
100
AcDbEntity
  8
0
100
AcDbBlockEnd
  0
BLOCK
  5
1DC
330
1DB
100
AcDbEntity
  8
0
100
AcDbBlockBegin
  2
*D2
 70
     1
 10
0.0
 20
0.0
 30
0.0
  3
*D2
  1

  0
SOLID
  5
1DE
330
1DB
100
AcDbEntity
  8
VERMASSUNG
100
AcDbTrace
 10
251.6638966093
 20
109.3536647809
 30
0.0
 11
252.1138966093
 21
112.3536647809
 31
0.0
 12
251.2138966093
 22
112.3536647809
 32
0.0
 13
251.2138966093
 23
112.3536647809
 33
0.0
  0
SOLID
  5
1DF
330
1DB
100
AcDbEntity
  8
VERMASSUNG
100
AcDbTrace
 10
251.6638966093
 20
101.3536647809
 30
0.0
 11
251.2138966093
 21
98.3536647809
 31
0.0
 12
252.1138966093
 22
98.3536647809
 32
0.0
 13
252.1138966093
 23
98.3536647809
 33
0.0
  0
LINE
  5
1E0
330
1DB
100
AcDbEntity
  8
VERMASSUNG
100
AcDbLine
 10
244.9785947623
 20
109.3536647809
 30
0.0
 11
252.6638966093
 21
109.3536647809
 31
0.0
  0
LINE
  5
1E1
330
1DB
100
AcDbEntity
  8
VERMASSUNG
100
AcDbLine
 10
244.9785947623
 20
101.3536647809
 30
0.0
 11
252.6638966093
 21
101.3536647809
 31
0.0
  0
LINE
  5
1E2
330
1DB
100
AcDbEntity
  8
VERMASSUNG
100
AcDbLine
 10
251.6638966093
 20
109.3536647809
 30
0.0
 11
251.6638966093
 21
115.3536647809
 31
0.0
  0
LINE
  5
1E3
330
1DB
100
AcDbEntity
  8
VERMASSUNG
100
AcDbLine
 10
251.6638966093
 20
109.3536647809
 30
0.0
 11
251.6638966093
 21
101.3536647809
 31
0.0
  0
LINE
  5
1E4
330
1DB
100
AcDbEntity
  8
VERMASSUNG
100
AcDbLine
 10
251.6638966093
 20
101.3536647809
 30
0.0
 11
251.6638966093
 21
95.3536647809
 31
0.0
  0
MTEXT
  5
1E5
330
1DB
100
AcDbEntity
  8
VERMASSUNG
100
AcDbMText
 10
249.0857611298
 20
102.8496366119
 30
0.0
 40
2.0
 41
0.0
 71
     1
 72
     1
  1
%%c
  7
SLDTEXTSTYLE0
 11
-7.044195017643634E-15
 21
1.0
 31
0.0
 73
     1
 44
1.0
  0
MTEXT
  5
1E6
330
1DB
100
AcDbEntity
  8
VERMASSUNG
100
AcDbMText
 10
249.0857612462
 20
106.4583148351
 30
0.0
 40
2.0
 41
0.0
 71
     1
 72
     1
  1
8
  7
SLDTEXTSTYLE0
 11
-7.044195017643634E-15
 21
1.0
 31
0.0
 73
     1
 44
1.0
  0
ENDBLK
  5
1DD
330
1DB
100
AcDbEntity
  8
0
100
AcDbBlockEnd
  0
BLOCK
  5
1E9
330
1E8
100
AcDbEntity
  8
0
100
AcDbBlockBegin
  2
*D3
 70
     1
 10
0.0
 20
0.0
 30
0.0
  3
*D3
  1

  0
SOLID
  5
1EB
330
1E8
100
AcDbEntity
  8
VERMASSUNG
100
AcDbTrace
 10
111.2285947623
 20
140.6226435536
 30
0.0
 11
114.2285947623
 21
140.1726435536
 31
0.0
 12
114.2285947623
 22
141.0726435536
 32
0.0
 13
114.2285947623
 23
141.0726435536
 33
0.0
  0
SOLID
  5
1EC
330
1E8
100
AcDbEntity
  8
VERMASSUNG
100
AcDbTrace
 10
245.2785947623
 20
140.6226435536
 30
0.0
 11
242.2785947623
 21
141.0726435536
 31
0.0
 12
242.2785947623
 22
140.1726435536
 32
0.0
 13
242.2785947623
 23
140.1726435536
 33
0.0
  0
LINE
  5
1ED
330
1E8
100
AcDbEntity
  8
VERMASSUNG
100
AcDbLine
 10
111.2285947623
 20
135.2001051047
 30
0.0
 11
111.2285947623
 21
141.6226435536
 31
0.0
  0
LINE
  5
1EE
330
1E8
100
AcDbEntity
  8
VERMASSUNG
100
AcDbLine
 10
245.2785947623
 20
114.0795242593
 30
0.0
 11
245.2785947623
 21
141.6226435536
 31
0.0
  0
LINE
  5
1EF
330
1E8
100
AcDbEntity
  8
VERMASSUNG
100
AcDbLine
 10
111.2285947623
 20
140.6226435536
 30
0.0
 11
245.2785947623
 21
140.6226435536
 31
0.0
  0
MTEXT
  5
1F0
330
1E8
100
AcDbEntity
  8
VERMASSUNG
100
AcDbMText
 10
174.5544094969
 20
143.2007789168
 30
0.0
 40
2.0
 41
0.0
 71
     1
 72
     1
  1
134.05
  7
SLDTEXTSTYLE0
 73
     1
 44
1.0
  0
ENDBLK
  5
1EA
330
1E8
100
AcDbEntity
  8
0
100
AcDbBlockEnd
  0
BLOCK
  5
1F3
330
1F2
100
AcDbEntity
  8
0
100
AcDbBlockBegin
  2
*D4
 70
     1
 10
0.0
 20
0.0
 30
0.0
  3
*D4
  1

  0
SOLID
  5
1F5
330
1F2
100
AcDbEntity
  8
VERMASSUNG
100
AcDbTrace
 10
85.2785947623
 20
146.6226435536
 30
0.0
 11
88.2785947623
 21
146.1726435536
 31
0.0
 12
88.2785947623
 22
147.0726435536
 32
0.0
 13
88.2785947623
 23
147.0726435536
 33
0.0
  0
SOLID
  5
1F6
330
1F2
100
AcDbEntity
  8
VERMASSUNG
100
AcDbTrace
 10
245.2785947623
 20
146.6226435536
 30
0.0
 11
242.2785947623
 21
147.0726435536
 31
0.0
 12
242.2785947623
 22
146.1726435536
 32
0.0
 13
242.2785947623
 23
146.1726435536
 33
0.0
  0
LINE
  5
1F7
330
1F2
100
AcDbEntity
  8
VERMASSUNG
100
AcDbLine
 10
85.2785947623
 20
136.5536647809
 30
0.0
 11
85.2785947623
 21
147.6226435536
 31
0.0
  0
LINE
  5
1F8
330
1F2
100
AcDbEntity
  8
VERMASSUNG
100
AcDbLine
 10
245.2785947623
 20
114.0795242593
 30
0.0
 11
245.2785947623
 21
147.6226435536
 31
0.0
  0
LINE
  5
1F9
330
1F2
100
AcDbEntity
  8
VERMASSUNG
100
AcDbLine
 10
85.2785947623
 20
146.6226435536
 30
0.0
 11
245.2785947623
 21
146.6226435536
 31
0.0
  0
MTEXT
  5
1FA
330
1F2
100
AcDbEntity
  8
VERMASSUNG
100
AcDbMText
 10
163.3791072217
 20
149.2007789168
 30
0.0
 40
2.0
 41
0.0
 71
     1
 72
     1
  1
160
  7
SLDTEXTSTYLE0
 73
     1
 44
1.0
  0
ENDBLK
  5
1F4
330
1F2
100
AcDbEntity
  8
0
100
AcDbBlockEnd
  0
BLOCK
  5
1FD
330
1FC
100
AcDbEntity
  8
0
100
AcDbBlockBegin
  2
*D5
 70
     1
 10
0.0
 20
0.0
 30
0.0
  3
*D5
  1

  0
SOLID
  5
1FF
330
1FC
100
AcDbEntity
  8
VERMASSUNG
100
AcDbTrace
 10
53.3785947623
 20
152.6226435536
 30
0.0
 11
56.3785947623
 21
152.1726435536
 31
0.0
 12
56.3785947623
 22
153.0726435536
 32
0.0
 13
56.3785947623
 23
153.0726435536
 33
0.0
  0
SOLID
  5
200
330
1FC
100
AcDbEntity
  8
VERMASSUNG
100
AcDbTrace
 10
245.2785947623
 20
152.6226435536
 30
0.0
 11
242.2785947623
 21
153.0726435536
 31
0.0
 12
242.2785947623
 22
152.1726435536
 32
0.0
 13
242.2785947623
 23
152.1726435536
 33
0.0
  0
LINE
  5
201
330
1FC
100
AcDbEntity
  8
VERMASSUNG
100
AcDbLine
 10
53.3785947623
 20
125.0443425274
 30
0.0
 11
53.3785947623
 21
153.6226435536
 31
0.0
  0
LINE
  5
202
330
1FC
100
AcDbEntity
  8
VERMASSUNG
100
AcDbLine
 10
245.2785947623
 20
114.0795242593
 30
0.0
 11
245.2785947623
 21
153.6226435536
 31
0.0
  0
LINE
  5
203
330
1FC
100
AcDbEntity
  8
VERMASSUNG
100
AcDbLine
 10
53.3785947623
 20
152.6226435536
 30
0.0
 11
245.2785947623
 21
152.6226435536
 31
0.0
  0
MTEXT
  5
204
330
1FC
100
AcDbEntity
  8
VERMASSUNG
100
AcDbMText
 10
146.6296283484
 20
155.2007789168
 30
0.0
 40
2.0
 41
0.0
 71
     1
 72
     1
  1
191.9
  7
SLDTEXTSTYLE0
 73
     1
 44
1.0
  0
ENDBLK
  5
1FE
330
1FC
100
AcDbEntity
  8
0
100
AcDbBlockEnd
  0
BLOCK
  5
207
330
206
100
AcDbEntity
  8
0
100
AcDbBlockBegin
  2
*D6
 70
     1
 10
0.0
 20
0.0
 30
0.0
  3
*D6
  1

  0
SOLID
  5
209
330
206
100
AcDbEntity
  8
VERMASSUNG
100
AcDbTrace
 10
257.6638966093
 20
121.3536647809
 30
0.0
 11
257.2138966093
 21
118.3536647809
 31
0.0
 12
258.1138966093
 22
118.3536647809
 32
0.0
 13
258.1138966093
 23
118.3536647809
 33
0.0
  0
SOLID
  5
20A
330
206
100
AcDbEntity
  8
VERMASSUNG
100
AcDbTrace
 10
257.6638966093
 20
89.3536647809
 30
0.0
 11
258.1138966093
 21
92.3536647809
 31
0.0
 12
257.2138966093
 22
92.3536647809
 32
0.0
 13
257.2138966093
 23
92.3536647809
 33
0.0
  0
LINE
  5
20B
330
206
100
AcDbEntity
  8
VERMASSUNG
100
AcDbLine
 10
232.4115532393
 20
121.3536647809
 30
0.0
 11
258.6638966093
 21
121.3536647809
 31
0.0
  0
LINE
  5
20C
330
206
100
AcDbEntity
  8
VERMASSUNG
100
AcDbLine
 10
232.4115532393
 20
89.3536647809
 30
0.0
 11
258.6638966093
 21
89.3536647809
 31
0.0
  0
LINE
  5
20D
330
206
100
AcDbEntity
  8
VERMASSUNG
100
AcDbLine
 10
257.6638966093
 20
121.3536647809
 30
0.0
 11
257.6638966093
 21
89.3536647809
 31
0.0
  0
MTEXT
  5
20E
330
206
100
AcDbEntity
  8
VERMASSUNG
100
AcDbMText
 10
255.0857611298
 20
102.1499475545
 30
0.0
 40
2.0
 41
0.0
 71
     1
 72
     1
  1
%%c
  7
SLDTEXTSTYLE0
 11
-7.044195017643634E-15
 21
1.0
 31
0.0
 73
     1
 44
1.0
  0
MTEXT
  5
20F
330
206
100
AcDbEntity
  8
VERMASSUNG
100
AcDbMText
 10
255.0857612462
 20
105.7586257776
 30
0.0
 40
2.0
 41
0.0
 71
     1
 72
     1
  1
32
  7
SLDTEXTSTYLE0
 11
-7.044195017643634E-15
 21
1.0
 31
0.0
 73
     1
 44
1.0
  0
ENDBLK
  5
208
330
206
100
AcDbEntity
  8
0
100
AcDbBlockEnd
  0
ENDSEC
  0
SECTION
  2
ENTITIES
  0
MTEXT
  5
45
330
1F
100
AcDbEntity
  8
KOPF_DÜNN
100
AcDbMText
 10
13.8892156294
 20
23.8442973028
 30
0.0
 40
3.0
 41
0.0
 71
     1
 72
     1
  1
HA6.W08.K21.160
  7
SLDTEXTSTYLE0
 73
     1
 44
1.0
  0
MTEXT
  5
46
330
1F
100
AcDbEntity
  8
VERMASSUNG
100
AcDbMText
 10
13.9329988022
 20
28.8834360957
 30
0.0
 40
3.0
 41
0.0
 71
     1
 72
     1
  1
Flächenspannfutter _End mill adapter Weldon ø8
  7
SLDTEXTSTYLE0
 73
     1
 44
1.0
  0
MTEXT
  5
47
330
1F
100
AcDbEntity
  8
VERMASSUNG
100
AcDbMText
 10
98.8601118557
 20
13.8365368179
 30
0.0
 40
2.0
 41
0.0
 71
     1
 72
     1
  1
Datum: 09.10.2006
  7
SLDTEXTSTYLE0
 73
     1
 44
1.0
  0
MTEXT
  5
49
330
1F
100
AcDbEntity
  8
VERMASSUNG
100
AcDbMText
 10
13.933048693
 20
18.0482802738
 30
0.0
 40
2.0
 41
0.0
 71
     1
 72
     1
  1
DIN 69 893 HSK A 63
  7
SLDTEXTSTYLE1
 73
     1
 44
1.0
  0
MTEXT
  5
4A
330
1F
100
AcDbEntity
  8
VERMASSUNG
100
AcDbMText
 10
13.9808475933
 20
13.9090973692
 30
0.0
 40
2.0
 41
0.0
 71
     1
 72
     1
  1
Gewicht: 1432g
  7
SLDTEXTSTYLE0
 73
     1
 44
1.0
  0
LINE
  5
4B
330
1F
100
AcDbEntity
  8
0
  6
Continuous
 62
     7
370
    15
100
AcDbLine
 10
85.5785947623
 20
73.8536647809
 30
0.0
 11
90.2285947623
 21
73.8536647809
 31
0.0
  0
LINE
  5
4C
330
1F
100
AcDbEntity
  8
0
  6
Continuous
 62
     7
370
    15
100
AcDbLine
 10
90.2379028491
 20
136.8536647809
 30
0.0
 11
85.5785947623
 21
136.8536647809
 31
0.0
  0
ARC
  5
4D
330
1F
100
AcDbEntity
  8
0
  6
Continuous
 62
     7
370
    15
100
AcDbCircle
 10
85.5785947623
 20
74.1536647809
 30
0.0
 40
0.3000000000000114
100
AcDbArc
 50
180.0
 51
270.0
  0
ARC
  5
4E
330
1F
100
AcDbEntity
  8
0
  6
Continuous
 62
     7
370
    15
100
AcDbCircle
 10
85.5785947623
 20
136.5536647809
 30
0.0
 40
0.2999999999999972
100
AcDbArc
 50
90.0
 51
180.0
  0
ARC
  5
4F
330
1F
100
AcDbEntity
  8
0
  6
Continuous
 62
     7
370
    15
100
AcDbCircle
 10
84.7785880096
 20
80.7832271665
 30
0.0
 40
0.6000067526677242
100
AcDbArc
 50
33.5571153394
 51
90.0
  0
ARC
  5
50
330
1F
100
AcDbEntity
  8
0
  6
Continuous
 62
     7
370
    15
100
AcDbCircle
 10
84.7785880096
 20
129.9241023953
 30
0.0
 40
0.6000067526677242
100
AcDbArc
 50
270.0
 51
326.4428846606
  0
LINE
  5
51
330
1F
100
AcDbEntity
  8
0
  6
Continuous
 62
     7
370
    15
100
AcDbLine
 10
72.0481725798
 20
129.0114492407
 30
0.0
 11
59.4785947623
 21
128.3817108731
 31
0.0
  0
LINE
  5
52
330
1F
100
AcDbEntity
  8
0
  6
Continuous
 62
     7
370
    15
100
AcDbLine
 10
83.2785947623
 20
129.5740956426
 30
0.0
 11
80.4599854048
 21
129.432882749
 31
0.0
  0
LINE
  5
53
330
1F
100
AcDbEntity
  8
0
  6
Continuous
 62
     7
370
    15
100
AcDbLine
 10
80.46020688
 20
81.2744357169
 30
0.0
 11
83.2785947623
 21
81.1332339192
 31
0.0
  0
LINE
  5
54
330
1F
100
AcDbEntity
  8
0
  6
Continuous
 62
     7
370
    15
100
AcDbLine
 10
63.4785947623
 20
82.1252178871
 30
0.0
 11
72.0488715315
 21
81.6958453035
 31
0.0
  0
LINE
  5
55
330
1F
100
AcDbEntity
  8
0
  6
Continuous
 62
     7
370
    15
100
AcDbLine
 10
83.2785947623
 20
81.1332339192
 30
0.0
 11
84.1353075357
 21
81.3627894149
 31
0.0
  0
LINE
  5
56
330
1F
100
AcDbEntity
  8
0
  6
Continuous
 62
     7
370
    15
100
AcDbLine
 10
84.1353075357
 20
129.3445401468
 30
0.0
 11
83.2785947623
 21
129.5740956426
 31
0.0
  0
ARC
  5
57
330
1F
100
AcDbEntity
  8
0
  6
Continuous
 62
     7
370
    15
100
AcDbCircle
 10
84.2905989628
 20
80.7832339192
 30
0.0
 40
0.5999999999999971
100
AcDbArc
 50
90.0
 51
105.0
  0
ARC
  5
58
330
1F
100
AcDbEntity
  8
0
  6
Continuous
 62
     7
370
    15
100
AcDbCircle
 10
84.2905989628
 20
129.9240956426
 30
0.0
 40
0.6000000000000245
100
AcDbArc
 50
255.0
 51
270.0
  0
LINE
  5
59
330
1F
100
AcDbEntity
  8
0
  6
Continuous
 62
     7
370
    15
100
AcDbLine
 10
84.2905989628
 20
81.3832339192
 30
0.0
 11
84.7785880096
 21
81.3832339192
 31
0.0
  0
LINE
  5
5A
330
1F
100
AcDbEntity
  8
0
  6
Continuous
 62
     7
370
    15
100
AcDbLine
 10
84.7785880096
 20
129.3240956426
 30
0.0
 11
84.2905989628
 21
129.3240956426
 31
0.0
  0
ARC
  5
5B
330
1F
100
AcDbEntity
  8
0
  6
Continuous
 62
     7
370
    15
100
AcDbCircle
 10
114.2285947623
 20
83.3377059794
 30
0.0
 40
3.000000000000003
100
AcDbArc
 50
104.3250519401
 51
180.0
  0
ARC
  5
5C
330
1F
100
AcDbEntity
  8
0
  6
Continuous
 62
     7
370
    15
100
AcDbCircle
 10
114.2285947623
 20
127.3696235824
 30
0.0
 40
3.000000000000003
100
AcDbArc
 50
180.0
 51
255.6749480599
  0
ARC
  5
5D
330
1F
100
AcDbEntity
  8
0
  6
Continuous
 62
     7
370
    15
100
AcDbCircle
 10
138.2285947623
 20
-10.6463352191
 30
0.0
 40
100.0
100
AcDbArc
 50
90.0
 51
104.3250519401
  0
ARC
  5
5E
330
1F
100
AcDbEntity
  8
0
  6
Continuous
 62
     7
370
    15
100
AcDbCircle
 10
138.2285947623
 20
221.3536647809
 30
0.0
 40
100.0
100
AcDbArc
 50
255.6749480599
 51
270.0
  0
LINE
  5
5F
330
1F
100
AcDbEntity
  8
0
  6
Continuous
 62
     7
370
    15
100
AcDbLine
 10
160.7198894955
 20
89.3536647809
 30
0.0
 11
232.4115532393
 21
89.3536647809
 31
0.0
  0
LINE
  5
60
330
1F
100
AcDbEntity
  8
0
  6
Continuous
 62
     7
370
    15
100
AcDbLine
 10
138.2285947623
 20
89.3536647809
 30
0.0
 11
153.7381356535
 21
89.3536647809
 31
0.0
  0
LINE
  5
61
330
1F
100
AcDbEntity
  8
0
  6
Continuous
 62
     7
370
    15
100
AcDbLine
 10
153.7305362467
 20
121.3536647809
 30
0.0
 11
138.2285947623
 21
121.3536647809
 31
0.0
  0
LINE
  5
62
330
1F
100
AcDbEntity
  8
0
  6
Continuous
 62
     7
370
    15
100
AcDbLine
 10
232.4115532393
 20
121.3536647809
 30
0.0
 11
160.726043879
 21
121.3536647809
 31
0.0
  0
LINE
  5
63
330
1F
100
AcDbEntity
  8
0
  6
Continuous
 62
     7
370
    15
100
AcDbLine
 10
232.4115532393
 20
89.3536647809
 30
0.0
 11
244.1238312858
 21
94.8151897284
 31
0.0
  0
LINE
  5
64
330
1F
100
AcDbEntity
  8
0
  6
Continuous
 62
     7
370
    15
100
AcDbLine
 10
244.1238312858
 20
115.8921398334
 30
0.0
 11
232.4115532393
 21
121.3536647809
 31
0.0
  0
LINE
  5
65
330
1F
100
AcDbEntity
  8
0
  6
Continuous
 62
     7
370
    15
100
AcDbLine
 10
54.6619314023
 20
84.4836647809
 30
0.0
 11
62.0785947623
 21
84.4836647809
 31
0.0
  0
ARC
  5
66
330
1F
100
AcDbEntity
  8
0
  6
Continuous
 62
     7
370
    15
100
AcDbCircle
 10
243.2785947623
 20
96.6278053025
 30
0.0
 40
2.000000000000001
100
AcDbArc
 50
295.0
 51
0.0
  0
ARC
  5
67
330
1F
100
AcDbEntity
  8
0
  6
Continuous
 62
     7
370
    15
100
AcDbCircle
 10
243.2785947623
 20
114.0795242593
 30
0.0
 40
2.000000000000001
100
AcDbArc
 50
0.0
 51
65.0
  0
ARC
  5
68
330
1F
100
AcDbEntity
  8
0
  6
Continuous
 62
     7
370
    15
100
AcDbCircle
 10
62.0785947623
 20
83.0836647809
 30
0.0
 40
1.400000000000006
100
AcDbArc
 50
42.2465410162
 51
90.0
  0
LINE
  5
69
330
1F
100
AcDbEntity
  8
0
  6
Continuous
 62
     7
370
    15
100
AcDbLine
 10
53.3796272565
 20
85.6326322867
 30
0.0
 11
54.5197582205
 21
84.4925013227
 31
0.0
  0
LINE
  5
6A
330
1F
100
AcDbEntity
  8
0
  6
Continuous
 62
     7
370
    15
100
AcDbLine
 10
54.5197582205
 20
126.2148282391
 30
0.0
 11
53.3884955357
 21
125.0835655543
 31
0.0
  0
ARC
  5
6B
330
1F
100
AcDbEntity
  8
0
  6
Continuous
 62
     7
370
    15
100
AcDbCircle
 10
58.0785947623
 20
127.6236647809
 30
0.0
 40
1.399999999999977
100
AcDbArc
 50
270.0
 51
301.7485287426
  0
LINE
  5
6C
330
1F
100
AcDbEntity
  8
0
  6
Continuous
 62
     7
370
    15
100
AcDbLine
 10
58.0785947623
 20
126.2236647809
 30
0.0
 11
54.6528604962
 21
126.2236647809
 31
0.0
  0
LINE
  5
6D
330
1F
100
AcDbEntity
  8
0
  6
Continuous
 62
     7
370
    15
100
AcDbLine
 10
245.2785947623
 20
99.0669815062
 30
0.0
 11
245.3434956979
 21
99.1871620522
 31
0.0
  0
LINE
  5
6E
330
1F
100
AcDbEntity
  8
0
  6
Continuous
 62
     7
370
    15
100
AcDbLine
 10
245.3224298992
 20
111.520752766
 30
0.0
 11
245.2785947623
 21
111.6019246417
 31
0.0
  0
LINE
  5
6F
330
1F
100
AcDbEntity
  8
0
  6
Continuous
 62
     7
370
    15
100
AcDbLine
 10
106.6705275938
 20
75.1667470846
 30
0.0
 11
106.6705275938
 21
125.2036647809
 31
0.0
  0
SPLINE
  5
70
330
1F
100
AcDbEntity
  8
0
  6
Continuous
 62
     7
370
    15
100
AcDbSpline
210
0.0
220
0.0
230
1.0
 70
     8
 71
     3
 72
     8
 73
     4
 74
     0
 42
0.00000001
 43
0.00000001
 40
0.0
 40
0.0
 40
0.0
 40
0.0
 40
1.0
 40
1.0
 40
1.0
 40
1.0
 10
106.6705275938036
 20
75.1667470846453
 30
0.0
 10
106.1750479331378
 20
76.06227317257866
 30
0.0
 10
105.6809338850957
 20
76.9585575876309
 30
0.0
 10
105.1885947623145
 20
77.8558276218376
 30
0.0
  0
LINE
  5
71
330
1F
100
AcDbEntity
  8
0
  6
Continuous
 62
     7
370
    15
100
AcDbLine
 10
105.1885947623
 20
77.8558276218
 30
0.0
 11
105.1885947623
 21
125.2036647809
 31
0.0
  0
SPLINE
  5
72
330
1F
100
AcDbEntity
  8
0
  6
Continuous
 62
     7
370
    15
100
AcDbSpline
210
0.0
220
0.0
230
1.0
 70
    24
 71
     3
 72
     8
 73
     4
 74
     0
 42
0.00000001
 43
0.00000001
 40
0.0
 40
0.0
 40
0.0
 40
0.0
 40
1.0
 40
1.0
 40
1.0
 40
1.0
 10
105.1885947623145
 20
125.2036647808925
 30
0.0
 10
105.6685467566794
 20
125.2036647808925
 30
0.0
 10
106.1638474856531
 20
125.2036647808925
 30
0.0
 10
106.6705275938036
 20
125.2036647808925
 30
0.0
  0
SPLINE
  5
73
330
1F
100
AcDbEntity
  8
0
  6
Continuous
 62
     7
370
    15
100
AcDbSpline
210
0.0
220
0.0
230
1.0
 70
     8
 71
     3
 72
    70
 73
    66
 74
     0
 42
0.00000001
 43
0.00000001
 40
-0.0312499999999999
 40
-0.0312499999999999
 40
0.0
 40
0.0
 40
0.0312500000000001
 40
0.0312500000000001
 40
0.0625000000000001
 40
0.0625000000000001
 40
0.0937500000000002
 40
0.0937500000000002
 40
0.1250000000000002
 40
0.1250000000000002
 40
0.1562500000000003
 40
0.1562500000000003
 40
0.1875000000000003
 40
0.1875000000000003
 40
0.2187500000000004
 40
0.2187500000000004
 40
0.2500000000000004
 40
0.2500000000000004
 40
0.2812500000000005
 40
0.2812500000000005
 40
0.3125000000000006
 40
0.3125000000000006
 40
0.3437500000000006
 40
0.3437500000000006
 40
0.3750000000000007
 40
0.3750000000000007
 40
0.4062500000000007
 40
0.4062500000000007
 40
0.4375000000000008
 40
0.4375000000000008
 40
0.4687500000000008
 40
0.4687500000000008
 40
0.5000000000000009
 40
0.5000000000000009
 40
0.5312500000000009
 40
0.5312500000000009
 40
0.562500000000001
 40
0.562500000000001
 40
0.5937500000000011
 40
0.5937500000000011
 40
0.6250000000000011
 40
0.6250000000000011
 40
0.6562500000000011
 40
0.6562500000000011
 40
0.6875000000000012
 40
0.6875000000000012
 40
0.7187500000000013
 40
0.7187500000000013
 40
0.7500000000000013
 40
0.7500000000000013
 40
0.7812500000000011
 40
0.7812500000000011
 40
0.812500000000001
 40
0.812500000000001
 40
0.8437500000000008
 40
0.8437500000000008
 40
0.8750000000000007
 40
0.8750000000000007
 40
0.9062500000000004
 40
0.9062500000000004
 40
0.9375000000000003
 40
0.9375000000000003
 40
0.9687500000000001
 40
0.9687500000000001
 40
1.0
 40
1.0
 40
1.03125
 40
1.03125
 10
89.27859476231454
 20
132.7657374921217
 30
0.0
 10
89.27859476231454
 20
132.5011925080829
 30
0.0
 10
89.30457983769847
 20
132.3682733636589
 30
0.0
 10
89.40634474028255
 20
132.1015052752526
 30
0.0
 10
89.48337912608854
 20
131.9661901204041
 30
0.0
 10
89.68424541352566
 20
131.703623848222
 30
0.0
 10
89.80712446211702
 20
131.5766958446601
 30
0.0
 10
90.09738912418075
 20
131.3327815528449
 30
0.0
 10
90.26616270003262
 20
131.2154043845646
 30
0.0
 10
90.634800721319
 20
131.0023473340624
 30
0.0
 10
90.83599376927145
 20
130.9052811769816
 30
0.0
 10
91.27313129452564
 20
130.7321927141986
 30
0.0
 10
91.50554596214901
 20
130.6578535333599
 30
0.0
 10
91.98673018426138
 20
130.5376515701024
 30
0.0
 10
92.23906519021935
 20
130.4909147086298
 30
0.0
 10
92.75551005590711
 20
130.4283058773559
 30
0.0
 10
93.01521530395944
 20
130.4127173299961
 30
0.0
 10
93.53752236111251
 20
130.4125397780251
 30
0.0
 10
93.80282867642654
 20
130.4284645417346
 30
0.0
 10
94.3160347665558
 20
130.4906420794043
 30
0.0
 10
94.56550220486756
 20
130.5365607226852
 30
0.0
 10
95.05010481435939
 20
130.6573236439701
 30
0.0
 10
95.28397447314386
 20
130.7322705432856
 30
0.0
 10
95.71711679439909
 20
130.9035561447783
 30
0.0
 10
95.91929371016492
 20
131.0006138000984
 30
0.0
 10
96.29256850247457
 20
131.2162403404496
 30
0.0
 10
96.45789079662447
 20
131.3314176744827
 30
0.0
 10
96.74760578395973
 20
131.5743920839813
 30
0.0
 10
96.87300904959037
 20
131.7036998073864
 30
0.0
 10
97.07382449760232
 20
131.9662174802219
 30
0.0
 10
97.14960905470824
 20
132.0989694657942
 30
0.0
 10
97.2522187734405
 20
132.3665561597327
 30
0.0
 10
97.2784963062987
 20
132.5021187046854
 30
0.0
 10
97.27869265312012
 20
132.7633076240867
 30
0.0
 10
97.2534594069025
 20
132.8903830426165
 30
0.0
 10
97.15105892098534
 20
133.1376411059869
 30
0.0
 10
97.07437062392619
 20
133.2556361428664
 30
0.0
 10
96.87515451360973
 20
133.476132491809
 30
0.0
 10
96.75104787960524
 20
133.580321921093
 30
0.0
 10
96.45917153160362
 20
133.7721090406667
 30
0.0
 10
96.29389922742179
 20
133.8584738835286
 30
0.0
 10
95.92551612423811
 20
134.0142264163021
 30
0.0
 10
95.72000621761052
 20
134.0840904481048
 30
0.0
 10
95.28590187367836
 20
134.2026200674811
 30
0.0
 10
95.056416586051
 20
134.2519781026188
 30
0.0
 10
94.57220390869043
 20
134.3320584689209
 30
0.0
 10
94.31821058291848
 20
134.362361902889
 30
0.0
 10
93.80683244679224
 20
134.4023553803037
 30
0.0
 10
93.54670242272515
 20
134.412534767011
 30
0.0
 10
93.01769820883324
 20
134.4127203196547
 30
0.0
 10
92.75761047804613
 20
134.4027300749037
 30
0.0
 10
92.24589295533737
 20
134.3630899427707
 30
0.0
 10
91.99158183760417
 20
134.33293995297
 30
0.0
 10
91.50720399163859
 20
134.2532455436067
 30
0.0
 10
91.27743923487583
 20
134.204060332091
 30
0.0
 10
90.84247717800261
 20
134.0857690757065
 30
0.0
 10
90.63680091587284
 20
134.0160957245064
 30
0.0
 10
90.2679580707468
 20
133.8607381942917
 30
0.0
 10
90.10227435309251
 20
133.7745171805579
 30
0.0
 10
89.80937293609237
 20
133.5828239704296
 30
0.0
 10
89.68516220416667
 20
133.47898583508
 30
0.0
 10
89.48515365224489
 20
133.2588117762071
 30
0.0
 10
89.40801610265858
 20
133.1409915705747
 30
0.0
 10
89.30458307238779
 20
132.8936133454334
 30
0.0
 10
89.27859476231454
 20
132.7657374921217
 30
0.0
 10
89.27859476231454
 20
132.5011925080829
 30
0.0
  0
LINE
  5
74
330
1F
100
AcDbEntity
  8
0
  6
Continuous
 62
     7
370
    15
100
AcDbLine
 10
90.2285947623
 20
125.2036647809
 30
0.0
 11
99.8866619308
 21
125.2036647809
 31
0.0
  0
LINE
  5
75
330
1F
100
AcDbEntity
  8
0
  6
Continuous
 62
     7
370
    15
100
AcDbLine
 10
99.8866619308
 20
75.1667470846
 30
0.0
 11
99.8866619308
 21
125.2036647809
 31
0.0
  0
LINE
  5
76
330
1F
100
AcDbEntity
  8
0
  6
Continuous
 62
     7
370
    15
100
AcDbLine
 10
99.8866619308
 20
75.1667470846
 30
0.0
 11
98.2285947623
 21
75.1667470846
 31
0.0
  0
SPLINE
  5
77
330
1F
100
AcDbEntity
  8
0
  6
Continuous
 62
     7
370
    15
100
AcDbSpline
210
0.0
220
0.0
230
1.0
 70
     8
 71
     3
 72
    28
 73
    24
 74
     0
 42
0.00000001
 43
0.00000001
 40
0.0
 40
0.0
 40
0.0
 40
0.0
 40
0.1250000000000001
 40
0.1250000000000001
 40
0.1875000000000001
 40
0.1875000000000001
 40
0.2500000000000001
 40
0.2500000000000001
 40
0.3749999999999999
 40
0.3749999999999999
 40
0.4375
 40
0.4375
 40
0.4999999999999999
 40
0.4999999999999999
 40
0.6249999999999999
 40
0.6249999999999999
 40
0.7499999999999997
 40
0.7499999999999997
 40
0.8124999999999998
 40
0.8124999999999998
 40
0.8749999999999998
 40
0.8749999999999998
 40
1.0
 40
1.0
 40
1.0
 40
1.0
 10
98.22859476231451
 20
75.1667470846453
 30
0.0
 10
97.6968870048216
 20
75.1667470846453
 30
0.0
 10
97.17464843951126
 20
75.15096237069508
 30
0.0
 10
96.40477795323626
 20
75.10596695661889
 30
0.0
 10
96.15041838104491
 20
75.08741196154314
 30
0.0
 10
95.64629680034642
 20
75.04355923909664
 30
0.0
 10
95.39657398291848
 20
75.01821463214445
 30
0.0
 10
94.67098403147207
 20
74.93481255439436
 30
0.0
 10
94.21262376989054
 20
74.86894699524326
 30
0.0
 10
93.56212582649665
 20
74.75997665475147
 30
0.0
 10
93.3504437757042
 20
74.72173701898483
 30
0.0
 10
92.9463722865662
 20
74.64397828156547
 30
0.0
 10
92.75386577274533
 20
74.6044773193901
 30
0.0
 10
92.20403080172406
 20
74.48556957702411
 30
0.0
 10
91.87410202341526
 20
74.40575189559951
 30
0.0
 10
91.28963075484656
 20
74.25240873380343
 30
0.0
 10
91.04335361683313
 20
74.18107498053419
 30
0.0
 10
90.74351082413506
 20
74.08713147345956
 30
0.0
 10
90.65505396706287
 20
74.05793768009963
 30
0.0
 10
90.50169261375774
 20
74.00447110583622
 30
0.0
 10
90.4366043995315
 20
73.98011177156104
 30
0.0
 10
90.28101038359071
 20
73.9165216261163
 30
0.0
 10
90.22859476231453
 20
73.88641869102705
 30
0.0
 10
90.22859476231453
 20
73.86954179803013
 30
0.0
  0
LINE
  5
78
330
1F
100
AcDbEntity
  8
0
  6
Continuous
 62
     7
370
    15
100
AcDbLine
 10
90.2285947623
 20
73.869541798
 30
0.0
 11
90.2285947623
 21
73.8536647809
 31
0.0
  0
SPLINE
  5
79
330
1F
100
AcDbEntity
  8
0
  6
Continuous
 62
     7
370
    15
100
AcDbSpline
210
0.0
220
0.0
230
1.0
 70
     8
 71
     3
 72
    22
 73
    18
 74
     0
 42
0.00000001
 43
0.00000001
 40
0.0
 40
0.0
 40
0.0
 40
0.0
 40
0.0515773377536172
 40
0.1565264849943629
 40
0.2100197540385886
 40
0.2615951369298746
 40
0.3664424119934943
 40
0.4198226601719804
 40
0.4724528789006786
 40
0.5794488992297344
 40
0.6339397336480286
 40
0.6872670452602943
 40
0.7409741315029978
 40
0.7958968813361827
 40
0.8512481408256359
 40
0.9034470736265863
 40
1.0
 40
1.0
 40
1.0
 40
1.0
 10
98.22859476231451
 20
135.8208602540567
 30
0.0
 10
98.01178456631206
 20
135.8222568751252
 30
0.0
 10
97.35381074739729
 20
135.8264953293814
 30
0.0
 10
96.47871577006637
 20
135.8660276537357
 30
0.0
 10
95.63389027520952
 20
135.9290009005776
 30
0.0
 10
94.8141649916053
 20
136.0070149338328
 30
0.0
 10
94.03837501357687
 20
136.1038980617079
 30
0.0
 10
93.32088655227041
 20
136.2121574736239
 30
0.0
 10
92.64162180509834
 20
136.3258758459284
 30
0.0
 10
92.03330682718942
 20
136.4423760308692
 30
0.0
 10
91.51321488646624
 20
136.5514762822862
 30
0.0
 10
91.16932470875012
 20
136.6274801800162
 30
0.0
 10
90.87437098102257
 20
136.6955136359379
 30
0.0
 10
90.6285966936814
 20
136.7542266866964
 30
0.0
 10
90.442694384708
 20
136.7998420666302
 30
0.0
 10
90.27109777898426
 20
136.8428015181907
 30
0.0
 10
90.25096850380801
 20
136.8479625399927
 30
0.0
 10
90.2379028491343
 20
136.851312493135
 30
0.0
  0
LINE
  5
7A
330
1F
100
AcDbEntity
  8
0
  6
Continuous
 62
     7
370
    15
100
AcDbLine
 10
99.8866619308
 20
135.8208602541
 30
0.0
 11
98.2285947623
 21
135.8208602541
 31
0.0
  0
LINE
  5
7B
330
1F
100
AcDbEntity
  8
0
  6
Continuous
 62
     7
370
    15
100
AcDbLine
 10
99.8866619308
 20
129.8123544433
 30
0.0
 11
99.8866619308
 21
135.8208602541
 31
0.0
  0
LINE
  5
7C
330
1F
100
AcDbEntity
  8
0
  6
Continuous
 62
     7
370
    15
100
AcDbLine
 10
97.474215108
 20
129.8123544433
 30
0.0
 11
99.8866619308
 21
129.8123544433
 31
0.0
  0
SPLINE
  5
7D
330
1F
100
AcDbEntity
  8
0
  6
Continuous
 62
     7
370
    15
100
AcDbSpline
210
0.0
220
0.0
230
1.0
 70
     8
 71
     3
 72
    20
 73
    16
 74
     0
 42
0.00000001
 43
0.00000001
 40
0.0
 40
0.0
 40
0.0
 40
0.0
 40
0.2499999999999997
 40
0.2499999999999997
 40
0.3749999999999997
 40
0.3749999999999997
 40
0.4999999999999998
 40
0.4999999999999998
 40
0.6249999999999998
 40
0.6249999999999998
 40
0.7499999999999999
 40
0.7499999999999999
 40
0.8749999999999999
 40
0.8749999999999999
 40
1.0
 40
1.0
 40
1.0
 40
1.0
 10
90.22859476231451
 20
125.2036647808925
 30
0.0
 10
90.47696849660258
 20
125.8575272091899
 30
0.0
 10
90.79653858894784
 20
126.461312991187
 30
0.0
 10
91.41884482215252
 20
127.2881517273556
 30
0.0
 10
91.65026908258328
 20
127.5505803653085
 30
0.0
 10
92.171483422233
 20
128.0472430194135
 30
0.0
 10
92.45810390486808
 20
128.277829898435
 30
0.0
 10
93.07758864617568
 20
128.6943841230177
 30
0.0
 10
93.41188902566265
 20
128.8818819249852
 30
0.0
 10
94.13714949828744
 20
129.2132789026216
 30
0.0
 10
94.5190645556779
 20
129.3527828901169
 30
0.0
 10
95.3138527318496
 20
129.5782363975878
 30
0.0
 10
95.72801092605599
 20
129.6648625091314
 30
0.0
 10
96.59355726663738
 20
129.7828432979856
 30
0.0
 10
97.03144488164918
 20
129.8123544432599
 30
0.0
 10
97.4742151080038
 20
129.8123544432599
 30
0.0
  0
SPLINE
  5
7E
330
1F
100
AcDbEntity
  8
0
  6
Continuous
 62
     7
370
    15
100
AcDbSpline
210
0.0
220
0.0
230
1.0
 70
     8
 71
     3
 72
    70
 73
    66
 74
     0
 42
0.00000001
 43
0.00000001
 40
-0.0312500000000001
 40
-0.0312500000000001
 40
0.0
 40
0.0
 40
0.0312499999999999
 40
0.0312499999999999
 40
0.0624999999999998
 40
0.0624999999999998
 40
0.0937499999999997
 40
0.0937499999999997
 40
0.1249999999999996
 40
0.1249999999999996
 40
0.1562499999999994
 40
0.1562499999999994
 40
0.1874999999999993
 40
0.1874999999999993
 40
0.2187499999999992
 40
0.2187499999999992
 40
0.2499999999999991
 40
0.2499999999999991
 40
0.281249999999999
 40
0.281249999999999
 40
0.3124999999999989
 40
0.3124999999999989
 40
0.3437499999999988
 40
0.3437499999999988
 40
0.3749999999999987
 40
0.3749999999999987
 40
0.4062499999999986
 40
0.4062499999999986
 40
0.4374999999999984
 40
0.4374999999999984
 40
0.4687499999999983
 40
0.4687499999999983
 40
0.4999999999999982
 40
0.4999999999999982
 40
0.5312499999999983
 40
0.5312499999999983
 40
0.5624999999999984
 40
0.5624999999999984
 40
0.5937499999999986
 40
0.5937499999999986
 40
0.6249999999999987
 40
0.6249999999999987
 40
0.6562499999999988
 40
0.6562499999999988
 40
0.6874999999999989
 40
0.6874999999999989
 40
0.718749999999999
 40
0.718749999999999
 40
0.7499999999999991
 40
0.7499999999999991
 40
0.7812499999999992
 40
0.7812499999999992
 40
0.8124999999999993
 40
0.8124999999999993
 40
0.8437499999999994
 40
0.8437499999999994
 40
0.8749999999999996
 40
0.8749999999999996
 40
0.9062499999999997
 40
0.9062499999999997
 40
0.9374999999999998
 40
0.9374999999999998
 40
0.9687499999999999
 40
0.9687499999999999
 40
1.0
 40
1.0
 40
1.03125
 40
1.03125
 10
93.54314010097467
 20
115.9745716668758
 30
0.0
 10
93.01404942365437
 20
115.9745716668758
 30
0.0
 10
92.75397875627728
 20
115.999248961661
 30
0.0
 10
92.24240407644187
 20
116.0957206347029
 30
0.0
 10
91.98822879270168
 20
116.168701550683
 30
0.0
 10
91.50395816263996
 20
116.3584421536216
 30
0.0
 10
91.27431707075881
 20
116.4743028120154
 30
0.0
 10
90.83971272252532
 20
116.746920657973
 30
0.0
 10
90.63414694587871
 20
116.9049597400268
 30
0.0
 10
90.26558980528347
 20
117.2485025909975
 30
0.0
 10
90.10010882254798
 20
117.4352650350991
 30
0.0
 10
89.80768431311289
 20
117.8388082094959
 30
0.0
 10
89.6835833364864
 20
118.0523052059251
 30
0.0
 10
89.48400413973667
 20
118.4916885198476
 30
0.0
 10
89.4070705538784
 20
118.7208285069932
 30
0.0
 10
89.30421349535803
 20
119.1868026297532
 30
0.0
 10
89.2787405858989
 20
119.4196850754294
 30
0.0
 10
89.27845017533112
 20
119.8850826105092
 30
0.0
 10
89.30447480910686
 20
120.1199583679036
 30
0.0
 10
89.40662309359887
 20
120.5714515151498
 30
0.0
 10
89.48219954118203
 20
120.7894979905612
 30
0.0
 10
89.68269707232696
 20
121.210592515599
 30
0.0
 10
89.80782591383533
 20
121.4125139001173
 30
0.0
 10
90.09718471485692
 20
121.7845433826362
 30
0.0
 10
90.26259570191239
 20
121.9571716862166
 30
0.0
 10
90.63558626006021
 20
122.2744896907626
 30
0.0
 10
90.8373192931493
 20
122.4142766242642
 30
0.0
 10
91.2701785439772
 20
122.658452877816
 30
0.0
 10
91.50409707686657
 20
122.7636823888575
 30
0.0
 10
91.98828081200918
 20
122.9318395352327
 30
0.0
 10
92.23759643796468
 20
122.9950904258265
 30
0.0
 10
92.75062896239241
 20
123.0806696349291
 30
0.0
 10
93.01592278529705
 20
123.1025417998515
 30
0.0
 10
93.5382574051668
 20
123.1027054494955
 30
0.0
 10
93.79801106764855
 20
123.0817037573995
 30
0.0
 10
94.31462288329378
 20
122.9963014023218
 30
0.0
 10
94.56698892379406
 20
122.9322952190348
 30
0.0
 10
95.04851404532688
 20
122.7654806989937
 30
0.0
 10
95.28136477744044
 20
122.6613475355945
 30
0.0
 10
95.7184546258792
 20
122.4153608830995
 30
0.0
 10
95.91977561453638
 20
122.2756110521507
 30
0.0
 10
96.28886163983628
 20
121.9624729824261
 30
0.0
 10
96.45784639088798
 20
121.787016823156
 30
0.0
 10
96.74830244754719
 20
121.4141765590558
 30
0.0
 10
96.87137425890933
 20
121.2160547489449
 30
0.0
 10
97.07271050033134
 20
120.7953434062112
 30
0.0
 10
97.14992304627357
 20
120.5733533855436
 30
0.0
 10
97.25212658917363
 20
120.1234884458353
 30
0.0
 10
97.27835494062596
 20
119.8932330327185
 30
0.0
 10
97.27883133994305
 20
119.4219170901695
 30
0.0
 10
97.25308892744509
 20
119.1886796744553
 30
0.0
 10
97.15177815108123
 20
118.7270031349573
 30
0.0
 10
97.0749455116903
 20
118.4961057478451
 30
0.0
 10
96.87454167247512
 20
118.0538297340534
 30
0.0
 10
96.75187017418307
 20
117.8427673027676
 30
0.0
 10
96.46192288501884
 20
117.4412687920349
 30
0.0
 10
96.29335190565361
 20
117.250362269959
 30
0.0
 10
95.92508231154044
 20
116.9066369379619
 30
0.0
 10
95.72402045427013
 20
116.7514997517478
 30
0.0
 10
95.28698953568521
 20
116.4764223916681
 30
0.0
 10
95.05484132255559
 20
116.359306162246
 30
0.0
 10
94.57383104105672
 20
116.1703796771815
 30
0.0
 10
94.3217309582263
 20
116.0973047067872
 30
0.0
 10
93.8046614719673
 20
115.9992526476527
 30
0.0
 10
93.54314010097467
 20
115.9745716668758
 30
0.0
 10
93.01404942365437
 20
115.9745716668758
 30
0.0
  0
LINE
  5
7F
330
1F
100
AcDbEntity
  8
0
  6
Continuous
 62
     7
370
    15
100
AcDbLine
 10
111.2285947623
 20
75.7933873803
 30
0.0
 11
111.2285947623
 21
125.2036647809
 31
0.0
  0
SPLINE
  5
80
330
1F
100
AcDbEntity
  8
0
  6
Continuous
 62
     7
370
    15
100
AcDbSpline
210
0.0
220
0.0
230
1.0
 70
     8
 71
     3
 72
    10
 73
     6
 74
     0
 42
0.00000001
 43
0.00000001
 40
0.0
 40
0.0
 40
0.0
 40
0.0
 40
0.5
 40
0.5
 40
1.0
 40
1.0
 40
1.0
 40
1.0
 10
111.2285947623145
 20
75.79338738029962
 30
0.0
 10
111.2285947623145
 20
75.63350011210595
 30
0.0
 10
111.1672851110787
 20
75.47237285659135
 30
0.0
 10
110.9481854735436
 20
75.23827385823652
 30
0.0
 10
110.7901372672301
 20
75.1667470846453
 30
0.0
 10
110.6285947623145
 20
75.1667470846453
 30
0.0
  0
SPLINE
  5
81
330
1F
100
AcDbEntity
  8
0
  6
Continuous
 62
     7
370
    15
100
AcDbSpline
210
0.0
220
0.0
230
1.0
 70
    24
 71
     3
 72
    12
 73
     8
 74
     0
 42
0.00000001
 43
0.00000001
 40
0.0
 40
0.0
 40
0.0
 40
0.0
 40
0.2500000000000033
 40
0.2500000000000033
 40
0.5000000000000067
 40
0.5000000000000067
 40
1.0
 40
1.0
 40
1.0
 40
1.0
 10
110.6285947623145
 20
125.2036647808925
 30
0.0
 10
110.7188338300016
 20
125.2036647808925
 30
0.0
 10
110.8097319441081
 20
125.2036647808925
 30
0.0
 10
110.9643289805966
 20
125.2036647808925
 30
0.0
 10
111.0293073967047
 20
125.2036647808925
 30
0.0
 10
111.1811424246409
 20
125.2036647808925
 30
0.0
 10
111.2285947623145
 20
125.2036647808925
 30
0.0
 10
111.2285947623145
 20
125.2036647808925
 30
0.0
  0
LINE
  5
82
330
1F
100
AcDbEntity
  8
0
  6
Continuous
 62
     7
370
    15
100
AcDbLine
 10
85.2785947623
 20
74.1536647809
 30
0.0
 11
85.2785947623
 21
136.5536647756
 31
0.0
  0
LINE
  5
83
330
1F
100
AcDbEntity
  8
0
  6
Continuous
 62
     7
370
    15
100
AcDbLine
 10
101.3685947623
 20
77.8558276218
 30
0.0
 11
101.3685947623
 21
125.2036647809
 31
0.0
  0
SPLINE
  5
84
330
1F
100
AcDbEntity
  8
0
  6
Continuous
 62
     7
370
    15
100
AcDbSpline
210
0.0
220
0.0
230
1.0
 70
     8
 71
     3
 72
     8
 73
     4
 74
     0
 42
0.00000001
 43
0.00000001
 40
0.0
 40
0.0
 40
0.0
 40
0.0
 40
1.0
 40
1.0
 40
1.0
 40
1.0
 10
101.3685947623145
 20
77.85582762183759
 30
0.0
 10
100.8762556395333
 20
76.95855758763089
 30
0.0
 10
100.3821415914912
 20
76.06227317257866
 30
0.0
 10
99.88666193082547
 20
75.1667470846453
 30
0.0
  0
SPLINE
  5
85
330
1F
100
AcDbEntity
  8
0
  6
Continuous
 62
     7
370
    15
100
AcDbSpline
210
0.0
220
0.0
230
1.0
 70
    24
 71
     3
 72
     8
 73
     4
 74
     0
 42
0.00000001
 43
0.00000001
 40
0.0
 40
0.0
 40
0.0
 40
0.0
 40
1.0
 40
1.0
 40
1.0
 40
1.0
 10
99.88666193082544
 20
125.2036647808925
 30
0.0
 10
100.393342038976
 20
125.2036647808925
 30
0.0
 10
100.8886427679496
 20
125.2036647808925
 30
0.0
 10
101.3685947623145
 20
125.2036647808925
 30
0.0
  0
LINE
  5
86
330
1F
100
AcDbEntity
  8
0
  6
Continuous
 62
     7
370
    15
100
AcDbLine
 10
110.6285947623
 20
75.1667470846
 30
0.0
 11
106.6705275938
 21
75.1667470846
 31
0.0
  0
LINE
  5
87
330
1F
100
AcDbEntity
  8
0
  6
Continuous
 62
     7
370
    15
100
AcDbLine
 10
106.6705275938
 20
125.2036647809
 30
0.0
 11
110.6285947623
 21
125.2036647809
 31
0.0
  0
ARC
  5
88
330
1F
100
AcDbEntity
  8
0
  6
Continuous
 62
     7
370
    15
100
AcDbCircle
 10
93.2757332558
 20
117.2642776126
 30
0.0
 40
4.110793026859929
100
AcDbArc
 50
19.1727796384
 51
159.4979304662
  0
SPLINE
  5
89
330
1F
100
AcDbEntity
  8
0
  6
Continuous
 62
     7
370
    15
100
AcDbSpline
210
0.0
220
0.0
230
1.0
 70
     8
 71
     3
 72
    10
 73
     6
 74
     0
 42
0.00000001
 43
0.00000001
 40
0.0
 40
0.0
 40
0.0
 40
0.0
 40
0.5
 40
0.5
 40
1.0
 40
1.0
 40
1.0
 40
1.0
 10
101.7628922940055
 20
131.7536647808924
 30
0.0
 10
101.641352030337
 20
131.8283909481042
 30
0.0
 10
101.540017669988
 20
131.937335964021
 30
0.0
 10
101.4043787270996
 20
132.1877664447826
 30
0.0
 10
101.3685947623145
 20
132.3301858068816
 30
0.0
 10
101.3685947623145
 20
132.4733186319282
 30
0.0
  0
SPLINE
  5
8A
330
1F
100
AcDbEntity
  8
0
  6
Continuous
 62
     7
370
    15
100
AcDbSpline
210
0.0
220
0.0
230
1.0
 70
    24
 71
     3
 72
    12
 73
     8
 74
     0
 42
0.00000001
 43
0.00000001
 40
0.0
 40
0.0
 40
0.0
 40
0.0
 40
0.2500000000000037
 40
0.2500000000000037
 40
0.5000000000000074
 40
0.5000000000000074
 40
1.0
 40
1.0
 40
1.0
 40
1.0
 10
102.1685947623145
 20
131.7536647808924
 30
0.0
 10
102.1187180799971
 20
131.7536647808924
 30
0.0
 10
102.0707148865935
 20
131.7536647808924
 30
0.0
 10
101.9876667838815
 20
131.7536647808924
 30
0.0
 10
101.9515372044137
 20
131.7536647808924
 30
0.0
 10
101.8556251734694
 20
131.7536647808924
 30
0.0
 10
101.8058665055006
 20
131.7536647808924
 30
0.0
 10
101.7628922940055
 20
131.7536647808924
 30
0.0
  0
SPLINE
  5
8B
330
1F
100
AcDbEntity
  8
0
  6
Continuous
 62
     7
370
    15
100
AcDbSpline
210
0.0
220
0.0
230
1.0
 70
    24
 71
     3
 72
    14
 73
    10
 74
     0
 42
0.00000001
 43
0.00000001
 40
0.0
 40
0.0
 40
0.0
 40
0.0
 40
0.1249999999999991
 40
0.1249999999999991
 40
0.2499999999999982
 40
0.2499999999999982
 40
0.4999999999999998
 40
0.4999999999999998
 40
1.0
 40
1.0
 40
1.0
 40
1.0
 10
102.1685947623145
 20
78.95366478089247
 30
0.0
 10
102.1001569144281
 20
78.95366478089247
 30
0.0
 10
102.034606875663
 20
78.95366478089247
 30
0.0
 10
101.9301802362551
 20
78.95366478089247
 30
0.0
 10
101.8876356264936
 20
78.95366478089247
 30
0.0
 10
101.7750261659534
 20
78.95366478089245
 30
0.0
 10
101.7194871189339
 20
78.95366478089247
 30
0.0
 10
101.5768754234701
 20
78.95366478089245
 30
0.0
 10
101.5134700684744
 20
78.95366478089245
 30
0.0
 10
101.4662695646468
 20
78.95366478089247
 30
0.0
  0
SPLINE
  5
8C
330
1F
100
AcDbEntity
  8
0
  6
Continuous
 62
     7
370
    15
100
AcDbSpline
210
0.0
220
0.0
230
1.0
 70
     8
 71
     3
 72
    10
 73
     6
 74
     0
 42
0.00000001
 43
0.00000001
 40
0.0
 40
0.0
 40
0.0
 40
0.0
 40
0.5
 40
0.5
 40
1.0
 40
1.0
 40
1.0
 40
1.0
 10
101.3685947623145
 20
125.4895314123538
 30
0.0
 10
101.3685947623145
 20
125.4417599043605
 30
0.0
 10
101.3707560059117
 20
125.3940501822989
 30
0.0
 10
101.3794273797718
 20
125.2987550647506
 30
0.0
 10
101.3859565627278
 20
125.2510625007839
 30
0.0
 10
101.3947423854747
 20
125.2036647808925
 30
0.0
  0
SPLINE
  5
8D
330
1F
100
AcDbEntity
  8
0
  6
Continuous
 62
     7
370
    15
100
AcDbSpline
210
0.0
220
0.0
230
1.0
 70
    24
 71
     3
 72
    14
 73
    10
 74
     0
 42
0.00000001
 43
0.00000001
 40
0.0
 40
0.0
 40
0.0
 40
0.0
 40
0.4999999999999984
 40
0.4999999999999984
 40
0.7499999999999992
 40
0.7499999999999992
 40
0.8749999999999996
 40
0.8749999999999996
 40
1.0
 40
1.0
 40
1.0
 40
1.0
 10
105.0909199599822
 20
78.95366478089247
 30
0.0
 10
105.044135254934
 20
78.95366478089247
 30
0.0
 10
104.9820840581544
 20
78.95366478089247
 30
0.0
 10
104.8386924196038
 20
78.95366478089245
 30
0.0
 10
104.7825487660526
 20
78.95366478089247
 30
0.0
 10
104.6695977439165
 20
78.95366478089247
 30
0.0
 10
104.6265969818783
 20
78.95366478089247
 30
0.0
 10
104.5225342715719
 20
78.95366478089247
 30
0.0
 10
104.4572020332149
 20
78.95366478089247
 30
0.0
 10
104.3885947623145
 20
78.95366478089247
 30
0.0
  0
SPLINE
  5
8E
330
1F
100
AcDbEntity
  8
0
  6
Continuous
 62
     7
370
    15
100
AcDbSpline
210
0.0
220
0.0
230
1.0
 70
    24
 71
     3
 72
    12
 73
     8
 74
     0
 42
0.00000001
 43
0.00000001
 40
0.0
 40
0.0
 40
0.0
 40
0.0
 40
0.5000000000000017
 40
0.5000000000000017
 40
0.7500000000000008
 40
0.7500000000000008
 40
1.0
 40
1.0
 40
1.0
 40
1.0
 10
104.7942972306236
 20
131.7536647808924
 30
0.0
 10
104.7512116810126
 20
131.7536647808924
 30
0.0
 10
104.7020594792633
 20
131.7536647808924
 30
0.0
 10
104.6055868849754
 20
131.7536647808924
 30
0.0
 10
104.5694852998408
 20
131.7536647808924
 30
0.0
 10
104.4863795419795
 20
131.7536647808924
 30
0.0
 10
104.4383829450132
 20
131.7536647808924
 30
0.0
 10
104.3885947623145
 20
131.7536647808924
 30
0.0
  0
SPLINE
  5
8F
330
1F
100
AcDbEntity
  8
0
  6
Continuous
 62
     7
370
    15
100
AcDbSpline
210
0.0
220
0.0
230
1.0
 70
     8
 71
     3
 72
    10
 73
     6
 74
     0
 42
0.00000001
 43
0.00000001
 40
0.0
 40
0.0
 40
0.0
 40
0.0
 40
0.5
 40
0.5
 40
1.0
 40
1.0
 40
1.0
 40
1.0
 10
105.1885947623145
 20
132.4733186319282
 30
0.0
 10
105.1885947623145
 20
132.3295485741102
 30
0.0
 10
105.1525457035956
 20
132.1871292116151
 30
0.0
 10
105.0170368428216
 20
131.9372349182578
 30
0.0
 10
104.9171608497255
 20
131.8292045820097
 30
0.0
 10
104.7942972306235
 20
131.7536647808924
 30
0.0
  0
SPLINE
  5
90
330
1F
100
AcDbEntity
  8
0
  6
Continuous
 62
     7
370
    15
100
AcDbSpline
210
0.0
220
0.0
230
1.0
 70
     8
 71
     3
 72
    10
 73
     6
 74
     0
 42
0.00000001
 43
0.00000001
 40
0.0
 40
0.0
 40
0.0
 40
0.0
 40
0.5
 40
0.5
 40
1.0
 40
1.0
 40
1.0
 40
1.0
 10
105.1624471391544
 20
125.2036647808925
 30
0.0
 10
105.1711367820661
 20
125.2505436302107
 30
0.0
 10
105.1776758468166
 20
125.2979660956119
 30
0.0
 10
105.1864344812096
 20
125.3939028941987
 30
0.0
 10
105.1885947623145
 20
125.4418181822093
 30
0.0
 10
105.1885947623145
 20
125.4895314123538
 30
0.0
  0
LINE
  5
91
330
1F
100
AcDbEntity
  8
0
  6
Continuous
 62
     7
370
    15
100
AcDbLine
 10
104.3885947623
 20
131.7536647809
 30
0.0
 11
102.1685947623
 21
131.7536647809
 31
0.0
  0
LINE
  5
92
330
1F
100
AcDbEntity
  8
0
  6
Continuous
 62
     7
370
    15
100
AcDbLine
 10
104.3885947623
 20
78.9536647809
 30
0.0
 11
102.1685947623
 21
78.9536647809
 31
0.0
  0
LINE
  5
93
330
1F
100
AcDbEntity
  8
0
  6
Continuous
 62
     7
370
    15
100
AcDbLine
 10
63.4785947623
 20
82.1252178871
 30
0.0
 11
63.4785947623
 21
83.3899272497
 31
0.0
  0
SPLINE
  5
94
330
1F
100
AcDbEntity
  8
0
  6
Continuous
 62
     7
370
    15
100
AcDbSpline
210
0.0
220
0.0
230
1.0
 70
     8
 71
     3
 72
    14
 73
    10
 74
     0
 42
0.00000001
 43
0.00000001
 40
0.0
 40
0.0
 40
0.0
 40
0.0
 40
0.25
 40
0.25
 40
0.5
 40
0.5
 40
0.75
 40
0.75
 40
1.0
 40
1.0
 40
1.0
 40
1.0
 10
62.70030764439882
 20
84.52051345733251
 30
0.0
 10
62.75693431960089
 20
84.41281600349565
 30
0.0
 10
62.85145697989061
 20
84.31002642177633
 30
0.0
 10
63.03450195545285
 20
84.11166910955619
 30
0.0
 10
63.12612853240756
 20
84.01560960087794
 30
0.0
 10
63.28498185010077
 20
83.8280805581687
 30
0.0
 10
63.35287245772248
 20
83.73667158538514
 30
0.0
 10
63.44978948343005
 20
83.55829536447499
 30
0.0
 10
63.4785947623151
 20
83.47107345822882
 30
0.0
 10
63.4785947623151
 20
83.38992724969455
 30
0.0
  0
SPLINE
  5
95
330
1F
100
AcDbEntity
  8
0
  6
Continuous
 62
     7
370
    15
100
AcDbSpline
210
0.0
220
0.0
230
1.0
 70
     8
 71
     3
 72
    14
 73
    10
 74
     0
 42
0.00000001
 43
0.00000001
 40
0.0
 40
0.0
 40
0.0
 40
0.0
 40
0.1249999999999975
 40
0.1249999999999975
 40
0.249999999999995
 40
0.249999999999995
 40
0.4999999999999953
 40
0.4999999999999953
 40
1.0
 40
1.0
 40
1.0
 40
1.0
 10
62.07859476231453
 20
84.96719531961183
 30
0.0
 10
62.1271391709717
 20
84.97294363289213
 30
0.0
 10
62.1800545257566
 20
84.96984274423589
 30
0.0
 10
62.27534987073965
 20
84.94764790007356
 30
0.0
 10
62.3156008680246
 20
84.9304156729777
 30
0.0
 10
62.41987088153757
 20
84.87408775652564
 30
0.0
 10
62.47019285669089
 20
84.82990141057984
 30
0.0
 10
62.59787580421627
 20
84.69889351172921
 30
0.0
 10
62.65396125127853
 20
84.60865899149891
 30
0.0
 10
62.70030764440027
 20
84.52051345733304
 30
0.0
  0
SPLINE
  5
96
330
1F
100
AcDbEntity
  8
0
  6
Continuous
 62
     7
370
    15
100
AcDbSpline
210
0.0
220
0.0
230
1.0
 70
     8
 71
     3
 72
     8
 73
     4
 74
     0
 42
0.00000001
 43
0.00000001
 40
0.0
 40
0.0
 40
0.0
 40
0.0
 40
1.0
 40
1.0
 40
1.0
 40
1.0
 10
59.8100696693683
 20
84.65735003302905
 30
0.0
 10
60.54464669585126
 20
84.775975044098
 30
0.0
 10
61.30812176524692
 20
84.87596091623428
 30
0.0
 10
62.07859476231453
 20
84.96719531961183
 30
0.0
  0
SPLINE
  5
97
330
1F
100
AcDbEntity
  8
0
  6
Continuous
 62
     7
370
    15
100
AcDbSpline
210
0.0
220
0.0
230
1.0
 70
     8
 71
     3
 72
    14
 73
    10
 74
     0
 42
0.00000001
 43
0.00000001
 40
0.0
 40
0.0
 40
0.0
 40
0.0
 40
0.500000000000001
 40
0.500000000000001
 40
0.7500000000000004
 40
0.7500000000000004
 40
0.8750000000000003
 40
0.8750000000000003
 40
1.0
 40
1.0
 40
1.0
 40
1.0
 10
54.52859476231453
 20
84.4837270154974
 30
0.0
 10
55.42074089286811
 20
84.48300478929674
 30
0.0
 10
56.3107173286617
 20
84.4875909957542
 30
0.0
 10
57.63731249573731
 20
84.51531600014573
 30
0.0
 10
58.07815942423606
 20
84.52792253776991
 30
0.0
 10
58.73459966165846
 20
84.55893868577736
 30
0.0
 10
58.95261331825034
 20
84.57128185840413
 30
0.0
 10
59.38532217193313
 20
84.60430591356742
 30
0.0
 10
59.60059863709791
 20
84.62352307870586
 30
0.0
 10
59.81006966936832
 20
84.65735003302905
 30
0.0
  0
SPLINE
  5
98
330
1F
100
AcDbEntity
  8
0
  6
Continuous
 62
     7
370
    15
100
AcDbSpline
210
0.0
220
0.0
230
1.0
 70
     8
 71
     3
 72
     8
 73
     4
 74
     0
 42
0.00000001
 43
0.00000001
 40
0.0000005163856712
 40
0.0000005163856712
 40
0.0000005163856712
 40
0.0000005163856712
 40
0.000026289209185
 40
0.000026289209185
 40
0.000026289209185
 40
0.000026289209185
 10
54.51854983189585
 20
84.49371088860526
 30
0.0
 10
54.52187757010732
 20
84.49037664173244
 30
0.0
 10
54.52522602308661
 20
84.48704868445341
 30
0.0
 10
54.5285947623145
 20
84.48372701549738
 30
0.0
  0
SPLINE
  5
99
330
1F
100
AcDbEntity
  8
0
  6
Continuous
 62
     7
370
    15
100
AcDbSpline
210
0.0
220
0.0
230
1.0
 70
     8
 71
     3
 72
     8
 73
     4
 74
     0
 42
0.00000001
 43
0.00000001
 40
0.0000005099763573
 40
0.0000005099763573
 40
0.0000005099763573
 40
0.0000005099763573
 40
0.0000262827998699
 40
0.0000262827998699
 40
0.0000262827998699
 40
0.0000262827998699
 10
54.5285947623145
 20
126.2236025462875
 30
0.0
 10
54.52522602308678
 20
126.2202808773317
 30
0.0
 10
54.52187757010764
 20
126.2169529200528
 30
0.0
 10
54.51854983189632
 20
126.2136186731801
 30
0.0
  0
SPLINE
  5
9A
330
1F
100
AcDbEntity
  8
0
  6
Continuous
 62
     7
370
    15
100
AcDbSpline
210
0.0
220
0.0
230
1.0
 70
     8
 71
     3
 72
    10
 73
     6
 74
     0
 42
0.00000001
 43
0.00000001
 40
0.0
 40
0.0
 40
0.0
 40
0.0
 40
0.5
 40
0.5
 40
1.0
 40
1.0
 40
1.0
 40
1.0
 10
58.07859476231453
 20
126.1767521727202
 30
0.0
 10
57.49100921522395
 20
126.1978176929566
 30
0.0
 10
56.90026282176355
 20
126.2085761788288
 30
0.0
 10
55.7162436564647
 20
126.2219409593645
 30
0.0
 10
55.12282966825924
 20
126.2240836020291
 30
0.0
 10
54.52859476231453
 20
126.2236025462875
 30
0.0
  0
SPLINE
  5
9B
330
1F
100
AcDbEntity
  8
0
  6
Continuous
 62
     7
370
    15
100
AcDbSpline
210
0.0
220
0.0
230
1.0
 70
     8
 71
     3
 72
    18
 73
    14
 74
     0
 42
0.00000001
 43
0.00000001
 40
0.0
 40
0.0
 40
0.0
 40
0.0
 40
0.2500000000000009
 40
0.2500000000000009
 40
0.500000000000001
 40
0.500000000000001
 40
0.7500000000000011
 40
0.7500000000000011
 40
0.875000000000001
 40
0.875000000000001
 40
0.9375000000000006
 40
0.9375000000000006
 40
1.0
 40
1.0
 40
1.0
 40
1.0
 10
59.47859476231454
 20
127.1977724532555
 30
0.0
 10
59.47859476231454
 20
127.1145655443983
 30
0.0
 10
59.44274566237627
 20
127.0258288890847
 30
0.0
 10
59.31787392634236
 20
126.8437036985245
 30
0.0
 10
59.22747350869448
 20
126.7485736498978
 30
0.0
 10
59.00523085395231
 20
126.5593921407735
 30
0.0
 10
58.87546606750654
 20
126.4644469726788
 30
0.0
 10
58.63482861019502
 20
126.3261682650989
 30
0.0
 10
58.54706131205757
 20
126.2804578317965
 30
0.0
 10
58.39253722485077
 20
126.222634526575
 30
0.0
 10
58.33592633879601
 20
126.2049197625371
 30
0.0
 10
58.21188230788942
 20
126.1803804593042
 30
0.0
 10
58.14416763287112
 20
126.1744013207659
 30
0.0
 10
58.07859476231453
 20
126.1767521727202
 30
0.0
  0
LINE
  5
9C
330
1F
100
AcDbEntity
  8
0
  6
Continuous
 62
     7
370
    15
100
AcDbLine
 10
59.4785947623
 20
127.1977724533
 30
0.0
 11
59.4785947623
 21
128.3817108731
 31
0.0
  0
LINE
  5
9D
330
1F
100
AcDbEntity
  8
0
  6
Continuous
 62
     7
370
    15
100
AcDbLine
 10
83.2785947623
 20
81.1332339192
 30
0.0
 11
83.2785947623
 21
129.5740956426
 31
0.0
  0
SPLINE
  5
9E
330
1F
100
AcDbEntity
  8
0
  6
Continuous
 62
     7
370
    15
100
AcDbSpline
210
0.0
220
0.0
230
1.0
 70
     8
 71
     3
 72
    18
 73
    14
 74
     0
 42
0.00000001
 43
0.00000001
 40
0.0
 40
0.0
 40
0.0
 40
0.0
 40
0.0010671296451833
 40
0.1270947795731636
 40
0.252405345751277
 40
0.3766468878987096
 40
0.4391415999051428
 40
0.5008278021400407
 40
0.562425570880851
 40
0.6253162439161144
 40
0.7499985144706706
 40
0.8752758950341252
 40
0.9999999999999999
 40
0.9999999999999999
 40
0.9999999999999999
 40
0.9999999999999999
 10
72.0488956023872
 20
81.69632575797611
 30
0.0
 10
72.04798376974871
 20
81.69621097943948
 30
0.0
 10
71.93938481111174
 20
81.68254089457359
 30
0.0
 10
72.3270258787616
 20
81.73346039518916
 30
0.0
 10
73.19299056059674
 20
81.83304356823565
 30
0.0
 10
74.39339448536657
 20
81.90216745137933
 30
0.0
 10
75.4509703998553
 20
81.90611968051815
 30
0.0
 10
76.27810448676145
 20
81.87863074206311
 30
0.0
 10
77.10337635439572
 20
81.82009056565532
 30
0.0
 10
78.15774157439569
 20
81.70656940591978
 30
0.0
 10
79.319577855871
 20
81.52341858167112
 30
0.0
 10
80.27181263725458
 20
81.31881537203621
 30
0.0
 10
80.39751769806244
 20
81.28953002126013
 30
0.0
 10
80.46023113020765
 20
81.27491975141945
 30
0.0
  0
SPLINE
  5
9F
330
1F
100
AcDbEntity
  8
0
  6
Continuous
 62
     7
370
    15
100
AcDbSpline
210
0.0
220
0.0
230
1.0
 70
     8
 71
     3
 72
    18
 73
    14
 74
     0
 42
0.00000001
 43
0.00000001
 40
0.0
 40
0.0
 40
0.0
 40
0.0
 40
0.1248907792210109
 40
0.2505384020341698
 40
0.3748721840485282
 40
0.437490765334968
 40
0.4990776265894272
 40
0.5607931536353509
 40
0.6233901338664932
 40
0.7478191038417344
 40
0.8731940995934958
 40
0.9991614644710078
 40
0.9999999999999999
 40
0.9999999999999999
 40
0.9999999999999999
 40
0.9999999999999999
 10
80.46001236468373
 20
129.4323446298111
 30
0.0
 10
80.39627161197208
 20
129.417683337213
 30
0.0
 10
80.2684038347956
 20
129.3882719039416
 30
0.0
 10
79.3164046137352
 20
129.1833187998791
 30
0.0
 10
78.15586090853193
 20
129.0000550240681
 30
0.0
 10
77.10359645644382
 20
128.8870274318193
 30
0.0
 10
76.27936934137624
 20
128.8287637842779
 30
0.0
 10
75.4517655718558
 20
128.8013173962737
 30
0.0
 10
74.39294837937075
 20
128.8053022022029
 30
0.0
 10
73.19072968133575
 20
128.8743916785843
 30
0.0
 10
72.32554574164844
 20
128.9740178951409
 30
0.0
 10
71.93940532011823
 20
129.0248339687415
 30
0.0
 10
72.04747686089858
 20
129.0111617886783
 30
0.0
 10
72.04819151081887
 20
129.01107137799
 30
0.0
  0
SPLINE
  5
A0
330
1F
100
AcDbEntity
  8
0
  6
Continuous
 62
     7
370
    15
100
AcDbSpline
210
0.0
220
0.0
230
1.0
 70
     8
 71
     3
 72
     9
 73
     5
 74
     0
 42
0.00000001
 43
0.00000001
 40
0.0
 40
0.0
 40
0.0
 40
0.0
 40
0.7009329310330151
 40
1.0
 40
1.0
 40
1.0
 40
1.0
 10
53.39937944654999
 20
85.65238447678985
 30
0.0
 10
53.40851872322527
 20
85.63455519124832
 30
0.0
 10
53.42155745527888
 20
85.60911868405604
 30
0.0
 10
53.43672270904419
 20
85.66299854424783
 30
0.0
 10
53.44125813703793
 20
85.67911223611175
 30
0.0
  0
LINE
  5
A1
330
1F
100
AcDbEntity
  8
0
  6
Continuous
 62
     7
370
    15
100
AcDbLine
 10
53.3785947623
 20
85.6629870344
 30
0.0
 11
53.3785947623
 21
125.0443425274
 31
0.0
  0
SPLINE
  5
A2
330
1F
100
AcDbEntity
  8
0
  6
Continuous
 62
     7
370
    15
100
AcDbSpline
210
0.0
220
0.0
230
1.0
 70
     8
 71
     3
 72
    10
 73
     6
 74
     0
 42
0.00000001
 43
0.00000001
 40
0.0
 40
0.0
 40
0.0
 40
0.0
 40
0.5
 40
0.5
 40
1.0
 40
1.0
 40
1.0
 40
1.0
 10
53.44125813703793
 20
125.0282173256732
 30
0.0
 10
53.43235384792919
 20
125.0739588448864
 30
0.0
 10
53.4158384677362
 20
125.0911496843554
 30
0.0
 10
53.38873052167459
 20
125.0908264074196
 30
0.0
 10
53.37859476231455
 20
125.0729488651232
 30
0.0
 10
53.37859476231453
 20
125.0443425273706
 30
0.0
  0
SPLINE
  5
A3
330
1F
100
AcDbEntity
  8
0
  6
Continuous
 62
     7
370
    15
100
AcDbSpline
210
0.0
220
0.0
230
1.0
 70
     8
 71
     3
 72
    26
 73
    22
 74
     0
 42
0.00000001
 43
0.00000001
 40
0.0
 40
0.0
 40
0.0
 40
0.0
 40
0.2500000000000165
 40
0.2500000000000165
 40
0.3750000000000256
 40
0.3750000000000256
 40
0.4375000000000291
 40
0.4375000000000291
 40
0.4687500000000291
 40
0.4687500000000291
 40
0.5000000000000292
 40
0.5000000000000292
 40
0.5312500000000293
 40
0.5312500000000293
 40
0.5625000000000293
 40
0.5625000000000293
 40
0.625000000000026
 40
0.625000000000026
 40
0.7500000000000173
 40
0.7500000000000173
 40
1.0
 40
1.0
 40
1.0
 40
1.0
 10
54.20274840841904
 20
125.7437841144903
 30
0.0
 10
54.16414788555058
 20
125.6260094181348
 30
0.0
 10
54.11785088299631
 20
125.5016197319729
 30
0.0
 10
54.02391153456237
 20
125.2964003996195
 30
0.0
 10
53.98860006764892
 20
125.224827533173
 30
0.0
 10
53.92242009190326
 20
125.1088743005726
 30
0.0
 10
53.89788172523502
 20
125.0682897657623
 30
0.0
 10
53.85450897968123
 20
125.0041480838906
 30
0.0
 10
53.83900057825603
 20
124.9822816586055
 30
0.0
 10
53.80395793366902
 20
124.9366873902623
 30
0.0
 10
53.78440764294924
 20
124.9130170992949
 30
0.0
 10
53.74248036257864
 20
124.868400539955
 30
0.0
 10
53.719828252347
 20
124.847520527437
 30
0.0
 10
53.67885453826035
 20
124.8166471136862
 30
0.0
 10
53.66125523836493
 20
124.8068082438538
 30
0.0
 10
53.61662825250879
 20
124.7878186281577
 30
0.0
 10
53.59606902985545
 20
124.7874943035042
 30
0.0
 10
53.54494359035878
 20
124.7967177443804
 30
0.0
 10
53.52403217737026
 20
124.8179646405974
 30
0.0
 10
53.47258226980932
 20
124.8919335194282
 30
0.0
 10
53.45491697050476
 20
124.9580516127429
 30
0.0
 10
53.44125813703793
 20
125.0282173256732
 30
0.0
  0
SPLINE
  5
A4
330
1F
100
AcDbEntity
  8
0
  6
Continuous
 62
     7
370
    15
100
AcDbSpline
210
0.0
220
0.0
230
1.0
 70
     8
 71
     3
 72
    10
 73
     6
 74
     0
 42
0.00000001
 43
0.00000001
 40
0.0
 40
0.0
 40
0.0
 40
0.0
 40
0.5
 40
0.5
 40
1.0
 40
1.0
 40
1.0
 40
1.0
 10
54.51854983189633
 20
126.2136186731801
 30
0.0
 10
54.45099057697809
 20
126.1459272803704
 30
0.0
 10
54.3873539216416
 20
126.0712201156167
 30
0.0
 10
54.27713316706972
 20
125.9122539831901
 30
0.0
 10
54.23031687384711
 20
125.8278987171821
 30
0.0
 10
54.20274840841904
 20
125.7437841144903
 30
0.0
  0
SPLINE
  5
A5
330
1F
100
AcDbEntity
  8
0
  6
Continuous
 62
     7
370
    15
100
AcDbSpline
210
0.0
220
0.0
230
1.0
 70
     8
 71
     3
 72
    10
 73
     6
 74
     0
 42
0.00000001
 43
0.00000001
 40
0.0
 40
0.0
 40
0.0
 40
0.0
 40
0.5
 40
0.5
 40
1.0
 40
1.0
 40
1.0
 40
1.0
 10
54.20274840841907
 20
84.96354544729449
 30
0.0
 10
54.23022582317229
 20
84.8797086508289
 30
0.0
 10
54.27693445345995
 20
84.79539816324207
 30
0.0
 10
54.3872129162019
 20
84.63627693275922
 30
0.0
 10
54.45110045481353
 20
84.56129218867113
 30
0.0
 10
54.51854983189587
 20
84.49371088860526
 30
0.0
  0
SPLINE
  5
A6
330
1F
100
AcDbEntity
  8
0
  6
Continuous
 62
     7
370
    15
100
AcDbSpline
210
0.0
220
0.0
230
1.0
 70
     8
 71
     3
 72
    24
 73
    20
 74
     0
 42
0.00000001
 43
0.00000001
 40
0.0
 40
0.0
 40
0.0
 40
0.0
 40
0.25
 40
0.25
 40
0.374999999999999
 40
0.374999999999999
 40
0.4374999999999993
 40
0.4374999999999993
 40
0.4687499999999994
 40
0.4687499999999994
 40
0.4999999999999995
 40
0.4999999999999995
 40
0.5624999999999971
 40
0.5624999999999971
 40
0.6249999999999947
 40
0.6249999999999947
 40
0.7499999999999947
 40
0.7499999999999947
 40
1.0
 40
1.0
 40
1.0
 40
1.0
 10
53.44125813703793
 20
85.67911223611172
 30
0.0
 10
53.45501125570817
 20
85.749762294102
 30
0.0
 10
53.47278382311403
 20
85.81636040686693
 30
0.0
 10
53.5250349146694
 20
85.89045842710014
 30
0.0
 10
53.54606999025094
 20
85.91171623426169
 30
0.0
 10
53.59897039787939
 20
85.91986216040793
 30
0.0
 10
53.62007607075731
 20
85.91892235701216
 30
0.0
 10
53.66612823943526
 20
85.89790636543482
 30
0.0
 10
53.68449871141866
 20
85.8869975593272
 30
0.0
 10
53.72605034648436
 20
85.85436264837983
 30
0.0
 10
53.74861701924127
 20
85.83287066800845
 30
0.0
 10
53.81139803570129
 20
85.76440472442215
 30
0.0
 10
53.84452779666918
 20
85.71833026621705
 30
0.0
 10
53.90144548315421
 20
85.6333223778824
 30
0.0
 10
53.92563150865798
 20
85.59304207670101
 30
0.0
 10
53.99083945903774
 20
85.47810585023507
 30
0.0
 10
54.02555551922897
 20
85.40752286508805
 30
0.0
 10
54.11877078955985
 20
85.20331710600945
 30
0.0
 10
54.16444332492053
 20
85.08041872368209
 30
0.0
 10
54.20274840841907
 20
84.9635454472945
 30
0.0
  0
LINE
  5
A7
330
1F
100
AcDbEntity
  8
0
  6
Continuous
 62
     7
370
    15
100
AcDbLine
 10
110.6285947623
 20
135.8208602541
 30
0.0
 11
106.6705275938
 21
135.8208602541
 31
0.0
  0
LINE
  5
A8
330
1F
100
AcDbEntity
  8
0
  6
Continuous
 62
     7
370
    15
100
AcDbLine
 10
106.6705275938
 20
129.8123544433
 30
0.0
 11
110.6285947623
 21
129.8123544433
 31
0.0
  0
LINE
  5
A9
330
1F
100
AcDbEntity
  8
0
  6
Continuous
 62
     7
370
    15
100
AcDbLine
 10
106.6705275938
 20
129.8123544433
 30
0.0
 11
106.6705275938
 21
135.8208602541
 31
0.0
  0
SPLINE
  5
AA
330
1F
100
AcDbEntity
  8
0
  6
Continuous
 62
     7
370
    15
100
AcDbSpline
210
0.0
220
0.0
230
1.0
 70
     8
 71
     3
 72
    10
 73
     6
 74
     0
 42
0.00000001
 43
0.00000001
 40
0.0
 40
0.0
 40
0.0
 40
0.0
 40
0.5
 40
0.5
 40
1.0
 40
1.0
 40
1.0
 40
1.0
 10
111.2285947623145
 20
135.2001051046564
 30
0.0
 10
111.2285947623145
 20
135.3605103710072
 30
0.0
 10
111.1663569312077
 20
135.5195721839958
 30
0.0
 10
110.9472220074651
 20
135.7504846496261
 30
0.0
 10
110.7896333124732
 20
135.8208602540567
 30
0.0
 10
110.6285947623145
 20
135.8208602540567
 30
0.0
  0
SPLINE
  5
AB
330
1F
100
AcDbEntity
  8
0
  6
Continuous
 62
     7
370
    15
100
AcDbSpline
210
0.0
220
0.0
230
1.0
 70
     8
 71
     3
 72
    12
 73
     8
 74
     0
 42
0.00000001
 43
0.00000001
 40
0.0
 40
0.0
 40
0.0
 40
0.0
 40
0.25
 40
0.25
 40
0.5
 40
0.5
 40
1.0
 40
1.0
 40
1.0
 40
1.0
 10
110.6285947623145
 20
129.8123544432599
 30
0.0
 10
110.7197944841402
 20
129.8123544432599
 30
0.0
 10
110.8103894932762
 20
129.784134744672
 30
0.0
 10
110.9638022197229
 20
129.6896917374239
 30
0.0
 10
111.0290110870465
 20
129.6234047607186
 30
0.0
 10
111.1817956163865
 20
129.3977799374303
 30
0.0
 10
111.2285947623145
 20
129.2153536743977
 30
0.0
 10
111.2285947623145
 20
129.0346170421509
 30
0.0
  0
LINE
  5
AC
330
1F
100
AcDbEntity
  8
0
  6
Continuous
 62
     7
370
    15
100
AcDbLine
 10
111.2285947623
 20
129.0346170422
 30
0.0
 11
111.2285947623
 21
135.2001051047
 31
0.0
  0
SPLINE
  5
AD
330
1F
100
AcDbEntity
  8
0
  6
Continuous
 62
     7
370
    15
100
AcDbSpline
210
0.0
220
0.0
230
1.0
 70
     8
 71
     3
 72
     8
 73
     4
 74
     0
 42
0.00000001
 43
0.00000001
 40
0.0
 40
0.0
 40
0.0
 40
0.0
 40
1.0
 40
1.0
 40
1.0
 40
1.0
 10
101.3685947623145
 20
133.1588989720641
 30
0.0
 10
100.8758846654688
 20
134.0469179701905
 30
0.0
 10
100.3818019601898
 20
134.9341806058764
 30
0.0
 10
99.88666193082547
 20
135.8208602540567
 30
0.0
  0
SPLINE
  5
AE
330
1F
100
AcDbEntity
  8
0
  6
Continuous
 62
     7
370
    15
100
AcDbSpline
210
0.0
220
0.0
230
1.0
 70
     8
 71
     3
 72
     8
 73
     4
 74
     0
 42
0.00000001
 43
0.00000001
 40
0.0
 40
0.0
 40
0.0
 40
0.0
 40
1.0
 40
1.0
 40
1.0
 40
1.0
 10
99.88666193082547
 20
129.8123544432599
 30
0.0
 10
100.3937487725848
 20
128.6812040890962
 30
0.0
 10
100.8893166117247
 20
127.5448196783284
 30
0.0
 10
101.3685947623145
 20
126.4038084484758
 30
0.0
  0
LINE
  5
AF
330
1F
100
AcDbEntity
  8
0
  6
Continuous
 62
     7
370
    15
100
AcDbLine
 10
101.3685947623
 20
126.4038084485
 30
0.0
 11
101.3685947623
 21
133.1588989721
 31
0.0
  0
SPLINE
  5
B0
330
1F
100
AcDbEntity
  8
0
  6
Continuous
 62
     7
370
    15
100
AcDbSpline
210
0.0
220
0.0
230
1.0
 70
     8
 71
     3
 72
     8
 73
     4
 74
     0
 42
0.00000001
 43
0.00000001
 40
0.0
 40
0.0
 40
0.0
 40
0.0
 40
1.0
 40
1.0
 40
1.0
 40
1.0
 10
105.1885947623145
 20
126.4038084484758
 30
0.0
 10
105.6678729129044
 20
127.5448196783284
 30
0.0
 10
106.1634407520443
 20
128.6812040890962
 30
0.0
 10
106.6705275938036
 20
129.8123544432599
 30
0.0
  0
LINE
  5
B1
330
1F
100
AcDbEntity
  8
0
  6
Continuous
 62
     7
370
    15
100
AcDbLine
 10
105.1885947623
 20
125.4895314124
 30
0.0
 11
105.1885947623
 21
126.4038084485
 31
0.0
  0
LINE
  5
B2
330
1F
100
AcDbEntity
  8
0
  6
Continuous
 62
     7
370
    15
100
AcDbLine
 10
111.2285947623
 20
129.0346170422
 30
0.0
 11
111.2285947623
 21
125.2036647809
 31
0.0
  0
LINE
  5
B3
330
1F
100
AcDbEntity
  8
0
  6
Continuous
 62
     7
370
    15
100
AcDbLine
 10
101.3685947623
 20
126.4038084485
 30
0.0
 11
101.3685947623
 21
125.4895314124
 31
0.0
  0
SPLINE
  5
B4
330
1F
100
AcDbEntity
  8
0
  6
Continuous
 62
     7
370
    15
100
AcDbSpline
210
0.0
220
0.0
230
1.0
 70
     8
 71
     3
 72
     8
 73
     4
 74
     0
 42
0.00000001
 43
0.00000001
 40
0.0
 40
0.0
 40
0.0
 40
0.0
 40
1.0
 40
1.0
 40
1.0
 40
1.0
 10
106.6705275938036
 20
135.8208602540567
 30
0.0
 10
106.1753875644393
 20
134.9341806058764
 30
0.0
 10
105.6813048591603
 20
134.0469179701904
 30
0.0
 10
105.1885947623145
 20
133.1588989720641
 30
0.0
  0
LINE
  5
B5
330
1F
100
AcDbEntity
  8
0
  6
Continuous
 62
     7
370
    15
100
AcDbLine
 10
105.1885947623
 20
126.4038084485
 30
0.0
 11
105.1885947623
 21
133.1588989721
 31
0.0
  0
ARC
  5
B6
330
1F
100
AcDbEntity
  8
0
  6
Continuous
 62
     7
370
    15
100
AcDbCircle
 10
93.356232776
 20
124.3480793578
 30
0.0
 40
6.951621394758398
100
AcDbArc
 50
70.9709803517
 51
90.6399115752
  0
ARC
  5
B7
330
1F
100
AcDbEntity
  8
0
  6
Continuous
 62
     7
370
    15
100
AcDbCircle
 10
93.1995369622
 20
124.363881451
 30
0.0
 40
6.935836327483325
100
AcDbArc
 50
89.3469026424
 51
109.2722952609
  0
SPLINE
  5
B8
330
1F
100
AcDbEntity
  8
0
  6
Continuous
 62
     7
370
    15
100
AcDbSpline
210
0.0
220
0.0
230
1.0
 70
     8
 71
     3
 72
    39
 73
    35
 74
     0
 42
0.00000001
 43
0.00000001
 40
-0.0931102473285941
 40
-0.0619213968680504
 40
-0.0306708306485658
 40
0.0
 40
0.0306856150683932
 40
0.0619482236497876
 40
0.0931389682135257
 40
0.1242353660049205
 40
0.1553791717791581
 40
0.1869236166023119
 40
0.2186032199238705
 40
0.2499252161707942
 40
0.2812618749400579
 40
0.3130058611570363
 40
0.3446066213873686
 40
0.375805098522137
 40
0.4068941952415765
 40
0.438046189740695
 40
0.4692609185478742
 40
0.5000121821429359
 40
0.5307427550049473
 40
0.562003153114493
 40
0.5931559557630769
 40
0.6242689070960713
 40
0.6554398400972842
 40
0.6870342707185811
 40
0.7187291690322459
 40
0.7500762020617556
 40
0.7813835916582796
 40
0.8131037368900387
 40
0.8446515541948405
 40
0.8758210372251529
 40
0.9068897526714059
 40
0.9380786031319496
 40
0.9693291693514342
 40
1.0
 40
1.030685615068393
 40
1.061948223649788
 40
1.093138968213526
 10
228.5263749923342
 20
101.5246954752472
 30
0.0
 10
227.778470794904
 20
101.4490011060933
 30
0.0
 10
227.0304969304097
 20
101.5248522904353
 30
0.0
 10
226.3120571946693
 20
101.7527297607853
 30
0.0
 10
225.6479388862194
 20
102.1109828649005
 30
0.0
 10
225.0714318021681
 20
102.5942393465796
 30
0.0
 10
224.5979129470127
 20
103.1823993455304
 30
0.0
 10
224.2475964391922
 20
103.8581649224255
 30
0.0
 10
224.0251566536552
 20
104.5901631011583
 30
0.0
 10
223.9515882451261
 20
105.3519502240785
 30
0.0
 10
224.0255125505566
 20
106.1142038684222
 30
0.0
 10
224.2479824209233
 20
106.8473068837826
 30
0.0
 10
224.5983151803938
 20
107.5246579820395
 30
0.0
 10
225.0720473584842
 20
108.1137346422485
 30
0.0
 10
225.648299200652
 20
108.5973596714268
 30
0.0
 10
226.3115889435757
 20
108.9556155800303
 30
0.0
 10
227.0300834086817
 20
109.182926914193
 30
0.0
 10
227.7787124476058
 20
109.258217111498
 30
0.0
 10
228.5276965590644
 20
109.1827688710501
 30
0.0
 10
229.2463074577044
 20
108.9551248166226
 30
0.0
 10
229.910058040009
 20
108.5965510683625
 30
0.0
 10
230.4861321319917
 20
108.1127183349484
 30
0.0
 10
230.9596011704031
 20
107.5235570389475
 30
0.0
 10
231.3095539862988
 20
106.846747949266
 30
0.0
 10
231.5316960335069
 20
106.1139384438665
 30
0.0
 10
231.6055925064501
 20
105.3521229467505
 30
0.0
 10
231.5320522313766
 20
104.590035459328
 30
0.0
 10
231.3094056482283
 20
103.8578412740109
 30
0.0
 10
230.9588129246819
 20
103.1815958312168
 30
0.0
 10
230.4850939129813
 20
102.5935605077619
 30
0.0
 10
229.9084628499822
 20
102.110514693037
 30
0.0
 10
229.244574696104
 20
101.7525573242629
 30
0.0
 10
228.5263749923342
 20
101.5246954752472
 30
0.0
 10
227.778470794904
 20
101.4490011060933
 30
0.0
 10
227.0304969304097
 20
101.5248522904353
 30
0.0
  0
LINE
  5
B9
330
1F
100
AcDbEntity
  8
0
  6
Continuous
 62
     7
370
    15
100
AcDbLine
 10
232.4115532393
 20
89.3536647809
 30
0.0
 11
232.4115532393
 21
121.3536647809
 31
0.0
  0
LINE
  5
BA
330
1F
100
AcDbEntity
  8
0
  6
Continuous
 62
     7
370
    15
100
AcDbLine
 10
154.8971216559
 20
121.1970075562
 30
0.0
 11
155.0211248484
 21
121.1841955014
 31
0.0
  0
SPLINE
  5
BB
330
1F
100
AcDbEntity
  8
0
  6
Continuous
 62
     7
370
    15
100
AcDbSpline
210
0.0
220
0.0
230
1.0
 70
     8
 71
     3
 72
    33
 73
    29
 74
     0
 42
0.00000001
 43
0.00000001
 40
0.0
 40
0.0
 40
0.0
 40
0.0
 40
0.0031129762643993
 40
0.0473759300734616
 40
0.0882749891947693
 40
0.1302383196762183
 40
0.1736814257094173
 40
0.2181039214550941
 40
0.2676288618744833
 40
0.3182539082480697
 40
0.3749771200193871
 40
0.4330785872503026
 40
0.4639717562894942
 40
0.4950682428405765
 40
0.5268024783081142
 40
0.5587564224124252
 40
0.5905050117678502
 40
0.6224785036187237
 40
0.6551790362718074
 40
0.6881402804193871
 40
0.7190425041555921
 40
0.7501895019007188
 40
0.7821704818684858
 40
0.814470998088088
 40
0.8606157346922131
 40
0.9080237419393794
 40
0.9542152696359836
 40
1.0
 40
1.0
 40
1.0
 40
1.0
 10
160.7260438789947
 20
121.3532616767957
 30
0.0
 10
160.7268832034375
 20
121.3533943019716
 30
0.0
 10
160.7396567592673
 20
121.3554127051089
 30
0.0
 10
160.6918128232427
 20
121.347811313304
 30
0.0
 10
160.58133624876
 20
121.3306121503339
 30
0.0
 10
160.3998992095947
 20
121.3034276903049
 30
0.0
 10
160.1563732068857
 20
121.2691361846645
 30
0.0
 10
159.843679712916
 20
121.2287700937621
 30
0.0
 10
159.4644585462387
 20
121.1855178731963
 30
0.0
 10
159.0073502298548
 20
121.1419332853578
 30
0.0
 10
158.4863042325117
 20
121.1039056128066
 30
0.0
 10
158.0026411318173
 20
121.0813197164512
 30
0.0
 10
157.5962295297991
 20
121.0711123050839
 30
0.0
 10
157.2765573567792
 20
121.0679063741164
 30
0.0
 10
156.9529444338773
 20
121.069649474775
 30
0.0
 10
156.6289865542525
 20
121.0764373725885
 30
0.0
 10
156.3083769501484
 20
121.0880817851644
 30
0.0
 10
155.9917461609193
 20
121.1043379259521
 30
0.0
 10
155.6802131396233
 20
121.1249272722032
 30
0.0
 10
155.3837892691515
 20
121.148760216719
 30
0.0
 10
155.1059656973395
 20
121.1747401783652
 30
0.0
 10
154.8468161471377
 20
121.2020659349328
 30
0.0
 10
154.6029323396336
 20
121.23051506982
 30
0.0
 10
154.347158250666
 20
121.2629814416301
 30
0.0
 10
154.097225217114
 20
121.2975663637091
 30
0.0
 10
153.8892428708889
 20
121.3285033640038
 30
0.0
 10
153.7533934701385
 20
121.3497077963859
 30
0.0
 10
153.7381328226637
 20
121.3521451360397
 30
0.0
 10
153.7305362467152
 20
121.3533584158708
 30
0.0
  0
SPLINE
  5
BC
330
1F
100
AcDbEntity
  8
0
  6
Continuous
 62
     7
370
    15
100
AcDbSpline
210
0.0
220
0.0
230
1.0
 70
     8
 71
     3
 72
    58
 73
    54
 74
     0
 42
0.00000001
 43
0.00000001
 40
-0.0312499999999993
 40
-0.0312499999999993
 40
0.0
 40
0.0
 40
0.0625000000000019
 40
0.0625000000000019
 40
0.0937500000000029
 40
0.0937500000000029
 40
0.1250000000000039
 40
0.1250000000000039
 40
0.1875000000000059
 40
0.1875000000000059
 40
0.2500000000000078
 40
0.2500000000000078
 40
0.281250000000008
 40
0.281250000000008
 40
0.3125000000000083
 40
0.3125000000000083
 40
0.3437500000000085
 40
0.3437500000000085
 40
0.3750000000000088
 40
0.3750000000000088
 40
0.406250000000009
 40
0.406250000000009
 40
0.4375000000000092
 40
0.4375000000000092
 40
0.4687500000000094
 40
0.4687500000000094
 40
0.5000000000000095
 40
0.5000000000000095
 40
0.5625000000000083
 40
0.5625000000000083
 40
0.5937500000000078
 40
0.5937500000000078
 40
0.6250000000000072
 40
0.6250000000000072
 40
0.6562500000000066
 40
0.6562500000000066
 40
0.687500000000006
 40
0.687500000000006
 40
0.7500000000000048
 40
0.7500000000000048
 40
0.8125000000000037
 40
0.8125000000000037
 40
0.8437500000000031
 40
0.8437500000000031
 40
0.8750000000000024
 40
0.8750000000000024
 40
0.9062500000000019
 40
0.9062500000000019
 40
0.9375000000000013
 40
0.9375000000000013
 40
0.9687500000000007
 40
0.9687500000000007
 40
1.0
 40
1.0
 40
1.062500000000002
 40
1.062500000000002
 10
154.7274841770016
 20
107.4562755040176
 30
0.0
 10
155.2363966175743
 20
107.8489214758946
 30
0.0
 10
155.6144469783041
 20
108.0423227722911
 30
0.0
 10
156.2259877629536
 20
108.2380338779334
 30
0.0
 10
156.4328882484496
 20
108.2857562591543
 30
0.0
 10
156.85250454646
 20
108.3480098153088
 30
0.0
 10
157.0666313287251
 20
108.3624917468928
 30
0.0
 10
157.7083424301504
 20
108.3541635572258
 30
0.0
 10
158.1278509116437
 20
108.2815603993992
 30
0.0
 10
158.9354292071365
 20
107.9993869757894
 30
0.0
 10
159.3063212873204
 20
107.7968131305128
 30
0.0
 10
159.8031386407417
 20
107.3899642648936
 30
0.0
 10
159.9530888756599
 20
107.241227165173
 30
0.0
 10
160.2204974481299
 20
106.9162940952269
 30
0.0
 10
160.3386566060337
 20
106.7389064585745
 30
0.0
 10
160.5337808193159
 20
106.3567747052654
 30
0.0
 10
160.6081556066778
 20
106.1576542050267
 30
0.0
 10
160.7076261818806
 20
105.7422220979392
 30
0.0
 10
160.7316209421793
 20
105.5262613871454
 30
0.0
 10
160.7249416507043
 20
105.1012869190889
 30
0.0
 10
160.6942015689729
 20
104.8862771890077
 30
0.0
 10
160.5820529124647
 20
104.4738910546032
 30
0.0
 10
160.5017031005606
 20
104.2767567284671
 30
0.0
 10
160.2952517710403
 20
103.8994824480821
 30
0.0
 10
160.1724693289683
 20
103.7254456531298
 30
0.0
 10
159.8932184139822
 20
103.4041227790891
 30
0.0
 10
159.7355989055129
 20
103.2563812745373
 30
0.0
 10
159.2321357420308
 20
102.8656517997887
 30
0.0
 10
158.8456095600564
 20
102.666685918212
 30
0.0
 10
158.2391275822016
 20
102.4714601250135
 30
0.0
 10
158.0300594091732
 20
102.4226277619082
 30
0.0
 10
157.6061257036863
 20
102.3593366681185
 30
0.0
 10
157.393972528886
 20
102.345061119472
 30
0.0
 10
156.9693059193401
 20
102.350043461876
 30
0.0
 10
156.7555318037666
 20
102.369531497843
 30
0.0
 10
156.3332747442958
 20
102.4430519369308
 30
0.0
 10
156.1278047980933
 20
102.496334119856
 30
0.0
 10
155.5281661208434
 20
102.7054116649901
 30
0.0
 10
155.1459076049939
 20
102.9145702309768
 30
0.0
 10
154.4933238594411
 20
103.4489948328565
 30
0.0
 10
154.2119634463254
 20
103.7839701215492
 30
0.0
 10
153.9224404598348
 20
104.353201931993
 30
0.0
 10
153.8465773935864
 20
104.5574926189405
 30
0.0
 10
153.7487367213992
 20
104.9710848944165
 30
0.0
 10
153.7251338974068
 20
105.1833095977126
 30
0.0
 10
153.7328708424255
 20
105.6149953995796
 30
0.0
 10
153.7638792930197
 20
105.825859246644
 30
0.0
 10
153.876871166041
 20
106.2382513111932
 30
0.0
 10
153.9595255992755
 20
106.4390845266844
 30
0.0
 10
154.1649871648938
 20
106.8122494921856
 30
0.0
 10
154.2899949604857
 20
106.9889134935599
 30
0.0
 10
154.5711076307672
 20
107.3104149334508
 30
0.0
 10
154.7274841770016
 20
107.4562755040176
 30
0.0
 10
155.2363966175743
 20
107.8489214758946
 30
0.0
  0
SPLINE
  5
BD
330
1F
100
AcDbEntity
  8
0
  6
Continuous
 62
     7
370
    15
100
AcDbSpline
210
0.0
220
0.0
230
1.0
 70
     8
 71
     3
 72
    33
 73
    29
 74
     0
 42
0.00000001
 43
0.00000001
 40
0.0
 40
0.0
 40
0.0
 40
0.0
 40
0.0301492042015375
 40
0.0711399125685701
 40
0.1132463879027786
 40
0.1558191648592895
 40
0.1993695448690414
 40
0.2474741998870298
 40
0.2966401758754935
 40
0.3519605456120415
 40
0.4085934830155771
 40
0.4390983447150447
 40
0.4698005401845396
 40
0.501118479373618
 40
0.5326472296993832
 40
0.5643538264467459
 40
0.5962816257498019
 40
0.6289189865500271
 40
0.6618081096092596
 40
0.693052156428026
 40
0.7245367231208151
 40
0.7568314313663936
 40
0.789432426457475
 40
0.8372976454214729
 40
0.886467623162009
 40
0.9343860376781793
 40
0.984080963415295
 40
1.0
 40
1.0
 40
1.0
 40
1.0
 10
153.7381356534922
 20
89.35517563021703
 30
0.0
 10
153.7379433328192
 20
89.35514735166743
 30
0.0
 10
153.7374895339139
 20
89.35508062574222
 30
0.0
 10
153.8238201148891
 20
89.36868588826854
 30
0.0
 10
153.9751178014886
 20
89.39175894232854
 30
0.0
 10
154.1939909247877
 20
89.42345572557723
 30
0.0
 10
154.4782350340026
 20
89.46161244014218
 30
0.0
 10
154.8287773596956
 20
89.50388845586956
 30
0.0
 10
155.2562119532068
 20
89.54808559829208
 30
0.0
 10
155.7494456362555
 20
89.58881882192651
 30
0.0
 10
156.2136628550472
 20
89.61562997160857
 30
0.0
 10
156.6081386994061
 20
89.630219154375
 30
0.0
 10
156.9219365701253
 20
89.63720411295793
 30
0.0
 10
157.2412187571365
 20
89.63947443197642
 30
0.0
 10
157.5638542774608
 20
89.63679590703767
 30
0.0
 10
157.8862938549943
 20
89.62914337029667
 30
0.0
 10
158.2079119697682
 20
89.6165898934036
 30
0.0
 10
158.5264154869233
 20
89.59933464463569
 30
0.0
 10
158.8330688918857
 20
89.57817569723348
 30
0.0
 10
159.1242189231328
 20
89.55406544502151
 30
0.0
 10
159.3995985758208
 20
89.52774394737062
 30
0.0
 10
159.6617686272671
 20
89.49950934400935
 30
0.0
 10
159.9444741554185
 20
89.46587060767865
 30
0.0
 10
160.2294370635288
 20
89.42829678572956
 30
0.0
 10
160.4832855889932
 20
89.39164974395162
 30
0.0
 10
160.653973015199
 20
89.36550634750421
 30
0.0
 10
160.7312245689135
 20
89.35324803653849
 30
0.0
 10
160.7221026294678
 20
89.35469322530382
 30
0.0
 10
160.7198894955155
 20
89.35504385209137
 30
0.0
  0
SPLINE
  5
BE
330
1F
100
AcDbEntity
  8
0
  6
Continuous
 62
     7
370
    15
100
AcDbSpline
210
0.0
220
0.0
230
1.0
 70
     8
 71
     3
 72
     9
 73
     5
 74
     0
 42
0.00000001
 43
0.00000001
 40
0.0
 40
0.0
 40
0.0
 40
0.0
 40
0.3888234444836667
 40
1.0
 40
1.0
 40
1.0
 40
1.0
 10
155.1886082257146
 20
89.53967720947419
 30
0.0
 10
155.1492300994148
 20
89.53603095961793
 30
0.0
 10
155.047955017219
 20
89.52665331043549
 30
0.0
 10
154.9543381131527
 20
89.51651705022492
 30
0.0
 10
154.8971216561873
 20
89.51032200562362
 30
0.0
  0
SPLINE
  5
BF
330
1F
100
AcDbEntity
  8
0
  6
Continuous
 62
     7
370
    15
100
AcDbSpline
210
0.0
220
0.0
230
1.0
 70
     8
 71
     3
 72
    44
 73
    40
 74
     0
 42
0.00000001
 43
0.00000001
 40
-0.0542986170236497
 40
-0.0343720013559705
 40
-0.0162772998238884
 40
0.0
 40
0.0197533517034401
 40
0.0421172912124252
 40
0.0671142568503585
 40
0.0947596943532085
 40
0.1250644115378961
 40
0.1550045412103185
 40
0.1824618030921271
 40
0.2074477368085693
 40
0.2299783173725076
 40
0.2500760254514873
 40
0.2849173337323444
 40
0.3265109732481194
 40
0.3749208740782713
 40
0.4004148468408779
 40
0.4240456092331261
 40
0.4458191306704719
 40
0.4657433144461375
 40
0.4838287567072118
 40
0.5000899210327606
 40
0.5343674268995584
 40
0.575956985455043
 40
0.6249181002958567
 40
0.6500699256062463
 40
0.6734973768541471
 40
0.6952068738890327
 40
0.7152066970112556
 40
0.7335076558363803
 40
0.7501240871983685
 40
0.7849044257230924
 40
0.8264538241653728
 40
0.8748362900579413
 40
0.9003125129978002
 40
0.9239322054299707
 40
0.9457013829763503
 40
0.9656279986440295
 40
0.9837227001761116
 40
1.0
 40
1.01975335170344
 40
1.042117291212425
 40
1.067114256850358
 10
227.4167433218268
 20
101.9662805117645
 30
0.0
 10
227.8034103752432
 20
101.94641202199
 30
0.0
 10
228.2207116275076
 20
101.9724383438975
 30
0.0
 10
228.6916504823991
 20
102.0654731195881
 30
0.0
 10
229.1960074627996
 20
102.2461403907729
 30
0.0
 10
229.7125852074004
 20
102.5345684161549
 30
0.0
 10
230.1949069898867
 20
102.9331648380273
 30
0.0
 10
230.5932537181646
 20
103.41384977159
 30
0.0
 10
230.8813187723568
 20
103.926056440225
 30
0.0
 10
231.0637946251683
 20
104.4295655798063
 30
0.0
 10
231.1590322818288
 20
104.9038307851698
 30
0.0
 10
231.1944940275588
 20
105.4572318448434
 30
0.0
 10
231.118533004771
 20
106.1482741051215
 30
0.0
 10
230.8101670916793
 20
106.9917204849685
 30
0.0
 10
230.3174401135693
 20
107.6619771447238
 30
0.0
 10
229.7904033067726
 20
108.1111529182114
 30
0.0
 10
229.3607170837728
 20
108.3761430470878
 30
0.0
 10
228.9336551152495
 20
108.5617967283194
 30
0.0
 10
228.5234012151177
 20
108.6794092728595
 30
0.0
 10
228.1403800310176
 20
108.7410366809161
 30
0.0
 10
227.6502568924609
 20
108.7662820211201
 30
0.0
 10
226.9907709264872
 20
108.6947114664792
 30
0.0
 10
226.1466348729128
 20
108.3891680361839
 30
0.0
 10
225.4741983810419
 20
107.8964002159215
 30
0.0
 10
225.0246018997957
 20
107.369752064432
 30
0.0
 10
224.7607961718639
 20
106.9444094157867
 30
0.0
 10
224.5742379376596
 20
106.5191770865166
 30
0.0
 10
224.4548009442113
 20
106.1076989175532
 30
0.0
 10
224.3915117690388
 20
105.7202129605304
 30
0.0
 10
224.3655827775983
 20
105.2224049939674
 30
0.0
 10
224.4392281217882
 20
104.5570259025941
 30
0.0
 10
224.7476188332462
 20
103.7146721893573
 30
0.0
 10
225.2400780015834
 20
103.0450486606226
 30
0.0
 10
225.7668217292927
 20
102.5961706750029
 30
0.0
 10
226.1962925768825
 20
102.3312901368381
 30
0.0
 10
226.6232497947372
 20
102.1456348993005
 30
0.0
 10
227.0335529551412
 20
102.0279715355544
 30
0.0
 10
227.4167433218268
 20
101.9662805117645
 30
0.0
 10
227.8034103752432
 20
101.94641202199
 30
0.0
 10
228.2207116275076
 20
101.9724383438975
 30
0.0
  0
CIRCLE
  5
C0
330
1F
100
AcDbEntity
  8
0
  6
Continuous
 62
     7
370
    15
100
AcDbCircle
 10
157.2285947623
 20
105.3536647809
 30
0.0
 40
2.5
  0
LINE
  5
C1
330
1F
100
AcDbEntity
  8
0
  6
Continuous
 62
     7
370
    15
100
AcDbLine
 10
245.2785947623
 20
96.6278053025
 30
0.0
 11
245.2785947623
 21
114.0795241677
 31
0.0
  0
LINE
  5
C2
330
1F
100
AcDbEntity
  8
0
  6
Continuous
 62
     7
370
    15
100
AcDbLine
 10
245.3495026214
 20
99.2273645601
 30
0.0
 11
245.3434956979
 21
99.1871620522
 31
0.0
  0
ARC
  5
C3
330
1F
100
AcDbEntity
  8
0
  6
Continuous
 62
     7
370
    15
100
AcDbCircle
 10
224.4632868093
 20
99.8016633367
 30
0.0
 40
20.89410993642799
100
AcDbArc
 50
358.4249608716
 51
4.9777245001
  0
LWPOLYLINE
  5
C4
330
1F
100
AcDbEntity
  8
0
  6
Continuous
 62
     7
370
    15
100
AcDbPolyline
 90
        8
 70
   128
 43
0.0
 10
245.3217218136
 20
110.3353223642
 10
245.3316810593
 20
110.7992160177
 10
245.334834034
 20
111.1875926019
 10
245.3307007258
 20
111.4413253024
 10
245.3199103934
 20
111.5217856156
 10
245.304105767
 20
111.4167241883
 10
245.2856929579
 20
111.1421356703
 10
245.2785947623
 20
111.0013890134
  0
ARC
  5
C5
330
1F
100
AcDbEntity
  8
0
  6
Continuous
 62
     7
370
    15
100
AcDbCircle
 10
218.1241161503
 20
110.9550837815
 30
0.0
 40
27.20466610764575
100
AcDbArc
 50
356.5191886919
 51
358.6946068131
  0
LINE
  5
C6
330
1F
100
AcDbEntity
  8
0
  6
Continuous
 62
     7
370
    15
100
AcDbLine
 10
245.2948919112
 20
111.0412166314
 30
0.0
 11
245.2785947623
 21
110.6607849368
 31
0.0
  0
LINE
  5
C7
330
1F
100
AcDbEntity
  8
0
  6
Continuous
 62
     7
370
    15
100
AcDbLine
 10
245.2790557395
 20
109.5651422877
 30
0.0
 11
245.2785947623
 21
109.5647158704
 31
0.0
  0
LINE
  5
C8
330
1F
100
AcDbEntity
  8
0
  6
Continuous
 62
     7
370
    15
100
AcDbLine
 10
245.2790557395
 20
109.5651422877
 30
0.0
 11
245.3116500373
 21
110.3260056768
 31
0.0
  0
LINE
  5
C9
330
1F
100
AcDbEntity
  8
0
  6
Continuous
 62
     7
370
    15
100
AcDbLine
 10
245.3195681232
 20
111.0640428487
 30
0.0
 11
245.3116500373
 21
110.3260056768
 31
0.0
  0
LINE
  5
CA
330
1F
100
AcDbEntity
  8
0
  6
Continuous
 62
     7
370
    15
100
AcDbLine
 10
245.3195681232
 20
111.0640428487
 30
0.0
 11
245.2948919112
 21
111.0412166314
 31
0.0
  0
LINE
  5
CB
330
1F
100
AcDbEntity
  8
0
  6
Continuous
 62
     7
370
    15
100
AcDbLine
 10
245.2785947623
 20
109.5651550947
 30
0.0
 11
245.2790557395
 21
109.5651422877
 31
0.0
  0
LINE
  5
CC
330
1F
100
AcDbEntity
  8
0
  6
Continuous
 62
     7
370
    15
100
AcDbLine
 10
245.2785947623
 20
110.3269240284
 30
0.0
 11
245.3116500373
 21
110.3260056768
 31
0.0
  0
LINE
  5
CD
330
1F
100
AcDbEntity
  8
0
  6
Continuous
 62
     7
370
    15
100
AcDbLine
 10
226.9248954842
 20
107.4994818458
 30
0.0
 11
225.4934130332
 21
105.6872480513
 31
0.0
  0
LINE
  5
CE
330
1F
100
AcDbEntity
  8
0
  6
Continuous
 62
     7
370
    15
100
AcDbLine
 10
226.3471123113
 20
103.5414309864
 30
0.0
 11
225.4934130332
 21
105.6872480513
 31
0.0
  0
LINE
  5
CF
330
1F
100
AcDbEntity
  8
0
  6
Continuous
 62
     7
370
    15
100
AcDbLine
 10
228.6322940404
 20
103.207847716
 30
0.0
 11
230.0637764914
 21
105.0200815104
 31
0.0
  0
LINE
  5
D0
330
1F
100
AcDbEntity
  8
0
  6
Continuous
 62
     7
370
    15
100
AcDbLine
 10
229.2100772133
 20
107.1658985753
 30
0.0
 11
230.0637764914
 21
105.0200815104
 31
0.0
  0
LINE
  5
D1
330
1F
100
AcDbEntity
  8
0
  6
Continuous
 62
     7
370
    15
100
AcDbLine
 10
229.2100772133
 20
107.1658985753
 30
0.0
 11
226.9248954842
 21
107.4994818458
 31
0.0
  0
LWPOLYLINE
  5
D2
330
1F
100
AcDbEntity
  8
0
  6
Continuous
 62
     7
370
    15
100
AcDbPolyline
 90
        3
 70
   128
 43
0.0
 10
227.688687383
 20
101.9548537148
 10
228.3511552115
 20
102.002221132
 10
228.9382787755
 20
102.157552613
  0
LINE
  5
D3
330
1F
100
AcDbEntity
  8
0
  6
Continuous
 62
     7
370
    15
100
AcDbLine
 10
228.6322940404
 20
103.207847716
 30
0.0
 11
226.3471123113
 21
103.5414309864
 31
0.0
  0
LINE
  5
D4
330
1F
100
AcDbEntity
  8
0
  6
HIDDEN
 62
     7
370
     0
100
AcDbLine
 10
99.8866619308
 20
129.8123544433
 30
0.0
 11
99.8866619308
 21
125.2036647809
 31
0.0
  0
ARC
  5
D5
330
1F
100
AcDbEntity
  8
0
  6
HIDDEN
 62
     7
370
     0
100
AcDbCircle
 10
93.5585504017
 20
117.8525852277
 30
0.0
 40
3.679671107484544
100
AcDbArc
 50
265.6366231594
 51
11.9475363038
  0
ARC
  5
D6
330
1F
100
AcDbEntity
  8
0
  6
HIDDEN
 62
     7
370
     0
100
AcDbCircle
 10
92.9953839407
 20
117.8446803323
 30
0.0
 40
3.672038798844965
100
AcDbArc
 50
166.4655616651
 51
274.4234051753
  0
LINE
  5
D7
330
1F
100
AcDbEntity
  8
0
  6
HIDDEN
 62
     7
370
     0
100
AcDbLine
 10
73.2737449669
 20
81.8290651581
 30
0.0
 11
72.7395995378
 21
81.7744505586
 31
0.0
  0
LINE
  5
D8
330
1F
100
AcDbEntity
  8
0
  6
HIDDEN
 62
     7
370
     0
100
AcDbLine
 10
72.5019458657
 20
128.9569979614
 30
0.0
 11
73.2736522466
 21
128.8782478109
 31
0.0
  0
SPLINE
  5
D9
330
1F
100
AcDbEntity
  8
0
  6
HIDDEN
 62
     7
370
     0
100
AcDbSpline
210
0.0
220
0.0
230
1.0
 70
     8
 71
     3
 72
    12
 73
     8
 74
     0
 42
0.00000001
 43
0.00000001
 40
0.0
 40
0.0
 40
0.0
 40
0.0
 40
0.2208161136540117
 40
0.4480845792576567
 40
0.6689350699693828
 40
0.8961261421475183
 40
1.0
 40
1.0
 40
1.0
 40
1.0
 10
79.03359676391614
 20
125.1911932567089
 30
0.0
 10
79.16563998676185
 20
125.2082503450226
 30
0.0
 10
79.43358479827752
 20
125.2428629378896
 30
0.0
 10
79.72874066378273
 20
125.2698348679983
 30
0.0
 10
79.92983381112921
 20
125.2853446531239
 30
0.0
 10
80.02716654885103
 20
125.291453959048
 30
0.0
 10
80.01850701724382
 20
125.2909086476077
 30
0.0
 10
80.01579003071444
 20
125.2907375524602
 30
0.0
  0
SPLINE
  5
DA
330
1F
100
AcDbEntity
  8
0
  6
HIDDEN
 62
     7
370
     0
100
AcDbSpline
210
0.0
220
0.0
230
1.0
 70
     8
 71
     3
 72
    12
 73
     8
 74
     0
 42
0.00000001
 43
0.00000001
 40
0.0
 40
0.0
 40
0.0
 40
0.0
 40
0.1180926962713629
 40
0.3464869122221698
 40
0.5687513860614221
 40
0.797514012703756
 40
1.0
 40
1.0
 40
1.0
 40
1.0
 10
80.01578999667807
 20
85.41659201149399
 30
0.0
 10
80.01791238514967
 20
85.41645800507293
 30
0.0
 10
80.0241395257882
 20
85.41606482689578
 30
0.0
 10
79.91947554274633
 20
85.42268803341669
 30
0.0
 10
79.70950218927447
 20
85.43909239605685
 30
0.0
 10
79.41404364809536
 20
85.46669411215431
 30
0.0
 10
79.15515421526361
 20
85.500338917292
 30
0.0
 10
79.03359676391614
 20
85.516136305076
 30
0.0
  0
SPLINE
  5
DB
330
1F
100
AcDbEntity
  8
0
  6
HIDDEN
 62
     7
370
     0
100
AcDbSpline
210
0.0
220
0.0
230
1.0
 70
     8
 71
     3
 72
    22
 73
    18
 74
     0
 42
0.00000001
 43
0.00000001
 40
0.0
 40
0.0
 40
0.0
 40
0.0
 40
0.069470503305567
 40
0.1409377255045835
 40
0.210413548914841
 40
0.2819466223559928
 40
0.3506518733998513
 40
0.4213897814436845
 40
0.4894670043894698
 40
0.5594810940348494
 40
0.6282706827033766
 40
0.6989997382187428
 40
0.7687375408512302
 40
0.8405098102584779
 40
0.9099666189318144
 40
0.9814998892127903
 40
1.0
 40
1.0
 40
1.0
 40
1.0
 10
79.03359676391612
 20
85.516136305076
 30
0.0
 10
78.88542290945676
 20
85.53586264488531
 30
0.0
 10
78.58481639254563
 20
85.5758822983061
 30
0.0
 10
78.04992152986489
 20
85.63125596183596
 30
0.0
 10
77.46428297719612
 20
85.67571234696376
 30
0.0
 10
76.85005031762279
 20
85.70339732241594
 30
0.0
 10
76.21613367225451
 20
85.7116505758858
 30
0.0
 10
75.59398497168274
 20
85.69967052100532
 30
0.0
 10
74.98798750182209
 20
85.66891976724436
 30
0.0
 10
74.42349858069558
 20
85.62345379649415
 30
0.0
 10
73.9041223431139
 20
85.56737264469456
 30
0.0
 10
73.45125684543248
 20
85.50738248237616
 30
0.0
 10
73.0725417017668
 20
85.44940256801725
 30
0.0
 10
72.78445658069168
 20
85.40048375987075
 30
0.0
 10
72.60199868413906
 20
85.36744839734499
 30
0.0
 10
72.52134073280502
 20
85.35230860108935
 30
0.0
 10
72.53563061150386
 20
85.35498055446234
 30
0.0
 10
72.53856690397593
 20
85.35552958897414
 30
0.0
  0
SPLINE
  5
DC
330
1F
100
AcDbEntity
  8
0
  6
HIDDEN
 62
     7
370
     0
100
AcDbSpline
210
0.0
220
0.0
230
1.0
 70
     8
 71
     3
 72
    22
 73
    18
 74
     0
 42
0.00000001
 43
0.00000001
 40
0.0
 40
0.0
 40
0.0
 40
0.0
 40
0.0499040281125884
 40
0.1203075863893544
 40
0.1885125365560131
 40
0.258644416829719
 40
0.3277839407293157
 40
0.3988873214655099
 40
0.4686969488930336
 40
0.5405663748364754
 40
0.609708789122301
 40
0.6809159691092499
 40
0.7490773369981711
 40
0.8192056085539694
 40
0.8876078379088254
 40
0.9579332867310426
 40
1.0
 40
1.0
 40
1.0
 40
1.0
 10
72.53856690397592
 20
125.3517999728108
 30
0.0
 10
72.53981783800143
 20
125.3515609424151
 30
0.0
 10
72.54283356356572
 20
125.3509846929404
 30
0.0
 10
72.66772689061924
 20
125.3277866581169
 30
0.0
 10
72.8922087184968
 20
125.2881066217992
 30
0.0
 10
73.2112368806743
 20
125.2358952004
 30
0.0
 10
73.61877211167098
 20
125.1765653887278
 30
0.0
 10
74.10055866550393
 20
125.1170906122118
 30
0.0
 10
74.6509783472992
 20
125.0634842558498
 30
0.0
 10
75.24387323324744
 20
125.0230103373755
 30
0.0
 10
75.87082580356461
 20
124.9998110890092
 30
0.0
 10
76.49903677739265
 20
124.9968329857943
 30
0.0
 10
77.12329686986968
 20
125.0139673114936
 30
0.0
 10
77.71591515969797
 20
125.0486531671836
 30
0.0
 10
78.27274124322611
 20
125.0976095308474
 30
0.0
 10
78.710548087859
 20
125.1475096954706
 30
0.0
 10
78.9456147946319
 20
125.1792960844623
 30
0.0
 10
79.03359676391614
 20
125.1911932567089
 30
0.0
  0
LINE
  5
DD
330
1F
100
AcDbEntity
  8
0
  6
HIDDEN
 62
     7
370
     0
100
AcDbLine
 10
66.2825693585
 20
88.3536647809
 30
0.0
 11
66.2825693585
 21
122.3536647809
 31
0.0
  0
LWPOLYLINE
  5
DE
330
1F
100
AcDbEntity
  8
0
  6
HIDDEN
 62
     7
370
     0
100
AcDbPolyline
 90
       24
 70
   128
 43
0.0
 10
95.6227881248
 20
130.9198193761
 10
95.8497452011
 20
130.8313560818
 10
96.4870875333
 20
130.4935843789
 10
96.9514591898
 20
130.0914267276
 10
97.2178257744
 20
129.6465635509
 10
97.2718273954
 20
129.1829775377
 10
97.1105528116
 20
128.7256607301
 10
96.7426963775
 20
128.2992671955
 10
96.1880893286
 20
127.9267839198
 10
95.4766306746
 20
127.6282915727
 10
94.6466753356
 20
127.419881954
 10
93.7429664188
 20
127.31279048
 10
92.8142231058
 20
127.31279048
 10
91.910514189
 20
127.419881954
 10
91.08055885
 20
127.6282915727
 10
90.369100196
 20
127.9267839198
 10
89.8144931472
 20
128.2992671955
 10
89.4466367131
 20
128.7256607301
 10
89.2853621292
 20
129.1829775377
 10
89.3393637503
 20
129.6465635509
 10
89.6057303348
 20
130.0914267276
 10
90.0701019913
 20
130.4935843789
 10
90.7074443236
 20
130.8313560818
 10
90.9103087677
 20
130.9110380731
  0
SPLINE
  5
DF
330
1F
100
AcDbEntity
  8
0
  6
HIDDEN
 62
     7
370
     0
100
AcDbSpline
210
0.0
220
0.0
230
1.0
 70
     8
 71
     3
 72
    11
 73
     7
 74
     0
 42
0.00000001
 43
0.00000001
 40
0.0
 40
0.0
 40
0.0
 40
0.0
 40
0.0005779865010845
 40
0.0005779865010845
 40
0.0005779865010845
 40
0.0011559733324421
 40
0.0011559733324421
 40
0.0011559733324421
 40
0.0011559733324421
 10
53.37859476231455
 20
107.3535053890463
 30
0.0
 10
53.54526201712051
 20
107.3515217497053
 30
0.0
 10
53.71192844679818
 20
107.3494841427027
 30
0.0
 10
53.87859478524999
 20
107.3473726792963
 30
0.0
 10
54.04526121407639
 20
107.345261214745
 30
0.0
 10
54.21192758771409
 20
107.3430756515886
 30
0.0
 10
54.37859476231452
 20
107.340793074257
 30
0.0
  0
SPLINE
  5
E0
330
1F
100
AcDbEntity
  8
0
  6
HIDDEN
 62
     7
370
     0
100
AcDbSpline
210
0.0
220
0.0
230
1.0
 70
     8
 71
     3
 72
     8
 73
     4
 74
     0
 42
0.00000001
 43
0.00000001
 40
0.0
 40
0.0
 40
0.0
 40
0.0
 40
0.0011564765856722
 40
0.0011564765856722
 40
0.0011564765856722
 40
0.0011564765856722
 10
54.37859476231452
 20
103.3569644786762
 30
0.0
 10
54.04528683174567
 20
103.3560893230929
 30
0.0
 10
53.71195159935348
 20
103.3550344718414
 30
0.0
 10
53.37859476231452
 20
103.3538633848038
 30
0.0
  0
LINE
  5
E1
330
1F
100
AcDbEntity
  8
0
  6
HIDDEN
 62
     7
370
     0
100
AcDbLine
 10
92.9384207309
 20
88.3536647809
 30
0.0
 11
92.9384207309
 21
122.3536647809
 31
0.0
  0
LINE
  5
E2
330
1F
100
AcDbEntity
  8
0
  6
HIDDEN
 62
     7
370
     0
100
AcDbLine
 10
95.2285947623
 20
89.6286647809
 30
0.0
 11
95.2285947623
 21
121.0786647809
 31
0.0
  0
SPLINE
  5
E3
330
1F
100
AcDbEntity
  8
0
  6
HIDDEN
 62
     7
370
     0
100
AcDbSpline
210
0.0
220
0.0
230
1.0
 70
     8
 71
     3
 72
    16
 73
    12
 74
     0
 42
0.00000001
 43
0.00000001
 40
0.0
 40
0.0
 40
0.0
 40
0.0
 40
0.124999999999998
 40
0.124999999999998
 40
0.249999999999996
 40
0.249999999999996
 40
0.4999999999999973
 40
0.4999999999999973
 40
0.7499999999999987
 40
0.7499999999999987
 40
1.0
 40
1.0
 40
1.0
 40
1.0
 10
62.07859476231453
 20
89.5521743448608
 30
0.0
 10
62.17371651698036
 20
89.5521743448608
 30
0.0
 10
62.26704658570844
 20
89.548358511468
 30
0.0
 10
62.45030834644643
 20
89.5335879587382
 30
0.0
 10
62.54118606200344
 20
89.52242991076263
 30
0.0
 10
62.79798775952318
 20
89.4799586406209
 30
0.0
 10
62.95305512439517
 20
89.43891244341809
 30
0.0
 10
63.2068015859498
 20
89.3437663268362
 30
0.0
 10
63.30767203761766
 20
89.28900359275463
 30
0.0
 10
63.4429184523125
 20
89.17774246885074
 30
0.0
 10
63.47859476231453
 20
89.12057273152206
 30
0.0
 10
63.47859476231453
 20
89.06615115848834
 30
0.0
  0
SPLINE
  5
E4
330
1F
100
AcDbEntity
  8
0
  6
HIDDEN
 62
     7
370
     0
100
AcDbSpline
210
0.0
220
0.0
230
1.0
 70
     8
 71
     3
 72
     8
 73
     4
 74
     0
 42
0.00000001
 43
0.00000001
 40
0.0
 40
0.0
 40
0.0
 40
0.0
 40
1.0
 40
1.0
 40
1.0
 40
1.0
 10
54.67859476562973
 20
91.69697729094305
 30
0.0
 10
54.67859476563165
 20
90.81308014862611
 30
0.0
 10
54.66511413972186
 20
90.09849690356417
 30
0.0
 10
54.66376277153255
 20
89.5521743448608
 30
0.0
  0
LINE
  5
E5
330
1F
100
AcDbEntity
  8
0
  6
HIDDEN
 62
     7
370
     0
100
AcDbLine
 10
54.3785947623
 20
95.7528379885
 30
0.0
 11
54.3785947623
 21
92.7218875566
 31
0.0
  0
LINE
  5
E6
330
1F
100
AcDbEntity
  8
0
  6
HIDDEN
 62
     7
370
     0
100
AcDbLine
 10
54.6785947655
 20
108.9582984025
 30
0.0
 11
54.6785947655
 21
97.1206784052
 31
0.0
  0
SPLINE
  5
E7
330
1F
100
AcDbEntity
  8
0
  6
HIDDEN
 62
     7
370
     0
100
AcDbSpline
210
0.0
220
0.0
230
1.0
 70
     8
 71
     3
 72
     8
 73
     4
 74
     0
 42
0.00000001
 43
0.00000001
 40
0.0
 40
0.0
 40
0.0
 40
0.0
 40
1.0
 40
1.0
 40
1.0
 40
1.0
 10
54.37859476231452
 20
114.9606041019608
 30
0.0
 10
54.55962622887343
 20
114.5284966162981
 30
0.0
 10
54.67859476550796
 20
114.0743512101984
 30
0.0
 10
54.67859476550225
 20
113.5866511565044
 30
0.0
  0
LINE
  5
E8
330
1F
100
AcDbEntity
  8
0
  6
HIDDEN
 62
     7
370
     0
100
AcDbLine
 10
54.3785947623
 20
117.9938070879
 30
0.0
 11
54.3785947623
 21
114.960604102
 31
0.0
  0
SPLINE
  5
E9
330
1F
100
AcDbEntity
  8
0
  6
HIDDEN
 62
     7
370
     0
100
AcDbSpline
210
0.0
220
0.0
230
1.0
 70
     8
 71
     3
 72
    10
 73
     6
 74
     0
 42
0.00000001
 43
0.00000001
 40
0.0
 40
0.0
 40
0.0
 40
0.0
 40
0.5
 40
0.5
 40
1.0
 40
1.0
 40
1.0
 40
1.0
 10
54.67859476570774
 20
119.0103522708123
 30
0.0
 10
54.67859476570594
 20
118.8457159242063
 30
0.0
 10
54.65143609495046
 20
118.6785607003758
 30
0.0
 10
54.54567109963206
 20
118.3399376925742
 30
0.0
 10
54.4692563113349
 20
118.1676659152832
 30
0.0
 10
54.37859476231455
 20
117.9938070879391
 30
0.0
  0
SPLINE
  5
EA
330
1F
100
AcDbEntity
  8
0
  6
HIDDEN
 62
     7
370
     0
100
AcDbSpline
210
0.0
220
0.0
230
1.0
 70
     8
 71
     3
 72
    18
 73
    14
 74
     0
 42
0.00000001
 43
0.00000001
 40
0.0
 40
0.0
 40
0.0
 40
0.0
 40
0.2500000000000033
 40
0.2500000000000033
 40
0.3750000000000029
 40
0.3750000000000029
 40
0.5000000000000026
 40
0.5000000000000026
 40
0.6250000000000022
 40
0.6250000000000022
 40
0.7500000000000018
 40
0.7500000000000018
 40
1.0
 40
1.0
 40
1.0
 40
1.0
 10
59.47859476231454
 20
121.6411784032966
 30
0.0
 10
59.47859476231453
 20
121.5867038827444
 30
0.0
 10
59.44368407092234
 20
121.5303228233919
 30
0.0
 10
59.3416747695893
 20
121.4462459825384
 30
0.0
 10
59.30003841491119
 20
121.4189122785475
 30
0.0
 10
59.20163261942245
 20
121.3659583629485
 30
0.0
 10
59.14408940771818
 20
121.3400710092314
 30
0.0
 10
59.01679123414522
 20
121.2922934643981
 30
0.0
 10
58.94720392938775
 20
121.2703455462202
 30
0.0
 10
58.79576968423279
 20
121.2309129813075
 30
0.0
 10
58.71308578113884
 20
121.2133567320816
 30
0.0
 10
58.45697431910079
 20
121.1709179666611
 30
0.0
 10
58.26905931521281
 20
121.1551552169241
 30
0.0
 10
58.07859476231453
 20
121.1551552169241
 30
0.0
  0
LINE
  5
EB
330
1F
100
AcDbEntity
  8
0
  6
HIDDEN
 62
     7
370
     0
100
AcDbLine
 10
58.0785947623
 20
121.1551552169
 30
0.0
 11
54.6785947657
 21
121.1551552169
 31
0.0
  0
LINE
  5
EC
330
1F
100
AcDbEntity
  8
0
  6
HIDDEN
 62
     7
370
     0
100
AcDbLine
 10
54.6096257757
 20
89.5521743449
 30
0.0
 11
62.0785947623
 21
89.5521743449
 31
0.0
  0
SPLINE
  5
ED
330
1F
100
AcDbEntity
  8
0
  6
HIDDEN
 62
     7
370
     0
100
AcDbSpline
210
0.0
220
0.0
230
1.0
 70
     8
 71
     3
 72
    22
 73
    18
 74
     0
 42
0.00000001
 43
0.00000001
 40
0.0
 40
0.0
 40
0.0
 40
0.0
 40
0.1249999999999998
 40
0.1249999999999998
 40
0.2499999999999995
 40
0.2499999999999995
 40
0.4999999999999992
 40
0.4999999999999992
 40
0.5624999999999993
 40
0.5624999999999993
 40
0.6249999999999994
 40
0.6249999999999994
 40
0.7499999999999996
 40
0.7499999999999996
 40
0.8749999999999998
 40
0.8749999999999998
 40
1.0
 40
1.0
 40
1.0
 40
1.0
 10
54.60962577567245
 20
89.5521743448608
 30
0.0
 10
54.59654338294409
 20
89.80728005500848
 30
0.0
 10
54.58332381950426
 20
90.10043831411238
 30
0.0
 10
54.56087664171014
 20
90.76273877973719
 30
0.0
 10
54.55139817468567
 20
91.13301270034857
 30
0.0
 10
54.53220021374911
 20
92.35556950346235
 30
0.0
 10
54.533313986746
 20
93.29270842959423
 30
0.0
 10
54.55222477969908
 20
94.61257965910922
 30
0.0
 10
54.55685430755808
 20
94.88408156808553
 30
0.0
 10
54.56733552730405
 20
95.44246640288783
 30
0.0
 10
54.57313078858846
 20
95.72958925882743
 30
0.0
 10
54.5914400094934
 20
96.60217851319912
 30
0.0
 10
54.60547494377376
 20
97.20263418955498
 30
0.0
 10
54.63493211591057
 20
98.44010868205105
 30
0.0
 10
54.65048780689215
 20
99.0771248386945
 30
0.0
 10
54.67428235688904
 20
100.3886134363791
 30
0.0
 10
54.68230140903441
 20
101.0647360480396
 30
0.0
 10
54.67859476231452
 20
101.7490311593244
 30
0.0
  0
LINE
  5
EE
330
1F
100
AcDbEntity
  8
0
  6
HIDDEN
 62
     7
370
     0
100
AcDbLine
 10
54.6785947657
 20
108.9582984025
 30
0.0
 11
54.6785947657
 21
121.1551552169
 31
0.0
  0
SPLINE
  5
EF
330
1F
100
AcDbEntity
  8
0
  6
HIDDEN
 62
     7
370
     0
100
AcDbSpline
210
0.0
220
0.0
230
1.0
 70
     8
 71
     3
 72
    10
 73
     6
 74
     0
 42
0.00000001
 43
0.00000001
 40
0.0
 40
0.0
 40
0.0
 40
0.0
 40
0.5
 40
0.5
 40
1.0
 40
1.0
 40
1.0
 40
1.0
 10
54.67859476231452
 20
101.7490311593093
 30
0.0
 10
54.67859476231435
 20
102.0229463073836
 30
0.0
 10
54.65283553244664
 20
102.2938878861137
 30
0.0
 10
54.54962959971353
 20
102.8295789677166
 30
0.0
 10
54.47229143583829
 20
103.0953257712386
 30
0.0
 10
54.37859476231452
 20
103.3569644786762
 30
0.0
  0
SPLINE
  5
F0
330
1F
100
AcDbEntity
  8
0
  6
HIDDEN
 62
     7
370
     0
100
AcDbSpline
210
0.0
220
0.0
230
1.0
 70
     8
 71
     3
 72
    10
 73
     6
 74
     0
 42
0.00000001
 43
0.00000001
 40
0.0
 40
0.0
 40
0.0
 40
0.0
 40
0.5
 40
0.5
 40
1.0
 40
1.0
 40
1.0
 40
1.0
 10
54.37859476231452
 20
107.340793074257
 30
0.0
 10
54.47182534370554
 20
107.6046868823271
 30
0.0
 10
54.5468549559423
 20
107.8708671929654
 30
0.0
 10
54.65192205512044
 20
108.4091897679236
 30
0.0
 10
54.67859476570662
 20
108.6819378841691
 30
0.0
 10
54.6785947657078
 20
108.9582984024596
 30
0.0
  0
LINE
  5
F1
330
1F
100
AcDbEntity
  8
0
  6
HIDDEN
 62
     7
370
     0
100
AcDbLine
 10
54.3785947623
 20
103.3569644787
 30
0.0
 11
54.3785947623
 21
107.3407930743
 31
0.0
  0
SPLINE
  5
F2
330
1F
100
AcDbEntity
  8
0
  6
HIDDEN
 62
     7
370
     0
100
AcDbSpline
210
0.0
220
0.0
230
1.0
 70
     8
 71
     3
 72
    81
 73
    77
 74
     0
 42
0.00000001
 43
0.00000001
 40
-0.0312500000000014
 40
-0.0312500000000014
 40
0.0
 40
0.0
 40
0.0312499999999975
 40
0.0312499999999975
 40
0.0624999999999949
 40
0.0624999999999949
 40
0.0937499999999924
 40
0.0937499999999924
 40
0.1093749999999923
 40
0.1093749999999923
 40
0.1249999999999921
 40
0.1249999999999921
 40
0.1562499999999918
 40
0.1562499999999918
 40
0.1874999999999914
 40
0.1874999999999914
 40
0.218749999999991
 40
0.218749999999991
 40
0.2343749999999906
 40
0.2343749999999906
 40
0.2499999999999901
 40
0.2656249999999897
 40
0.2656249999999897
 40
0.2812499999999892
 40
0.2812499999999892
 40
0.3124999999999883
 40
0.3124999999999883
 40
0.3281249999999873
 40
0.3281249999999873
 40
0.3437499999999863
 40
0.3437499999999863
 40
0.3593749999999854
 40
0.3593749999999854
 40
0.3749999999999844
 40
0.3749999999999844
 40
0.4062499999999843
 40
0.4062499999999843
 40
0.4374999999999843
 40
0.4374999999999843
 40
0.4687499999999843
 40
0.4687499999999843
 40
0.4999999999999842
 40
0.4999999999999842
 40
0.5312499999999841
 40
0.5312499999999841
 40
0.562499999999984
 40
0.562499999999984
 40
0.593749999999984
 40
0.593749999999984
 40
0.6249999999999839
 40
0.6249999999999839
 40
0.6406249999999839
 40
0.6406249999999839
 40
0.6562499999999838
 40
0.6562499999999838
 40
0.6874999999999852
 40
0.6874999999999852
 40
0.7187499999999868
 40
0.7187499999999868
 40
0.7499999999999882
 40
0.7499999999999882
 40
0.7812499999999897
 40
0.7812499999999897
 40
0.8124999999999911
 40
0.8124999999999911
 40
0.8437499999999927
 40
0.8437499999999927
 40
0.8749999999999941
 40
0.8749999999999941
 40
0.9062499999999956
 40
0.9062499999999956
 40
0.937499999999997
 40
0.937499999999997
 40
0.9687499999999986
 40
0.9687499999999986
 40
1.0
 40
1.0
 40
1.031249999999998
 40
1.031249999999998
 10
225.6236869739559
 20
100.3892492546113
 30
0.0
 10
224.9335025506732
 20
100.3892492546113
 30
0.0
 10
224.593569080608
 20
100.4184179219066
 30
0.0
 10
223.9236499490216
 20
100.5333084249016
 30
0.0
 10
223.5914942400051
 20
100.6198225065428
 30
0.0
 10
222.9476154993296
 20
100.8507560639108
 30
0.0
 10
222.6409126936069
 20
100.9929299048112
 30
0.0
 10
222.2035852654842
 20
101.2469326262343
 30
0.0
 10
222.061621980362
 20
101.3384365562309
 30
0.0
 10
221.7856211143495
 20
101.5358403241508
 30
0.0
 10
221.6511391868251
 20
101.6422352441085
 30
0.0
 10
221.268834810828
 20
101.9768228607938
 30
0.0
 10
221.0391125705299
 20
102.2219848647673
 30
0.0
 10
220.6309917857532
 20
102.7585770441308
 30
0.0
 10
220.4512174611118
 20
103.0540329472571
 30
0.0
 10
220.1631901682037
 20
103.668026298936
 30
0.0
 10
220.0526513316794
 20
103.9881231951693
 30
0.0
 10
219.9392257167156
 20
104.4890551792695
 30
0.0
 10
219.9102447529855
 20
104.660304731256
 30
0.0
 10
219.8718248749049
 20
105.000897118372
 30
0.0
 10
219.8523310570196
 20
105.3415583825381
 30
0.0
 10
219.8700612492281
 20
105.6823552854731
 30
0.0
 10
219.9067323431029
 20
106.0232211272451
 30
0.0
 10
219.9348201207833
 20
106.1945820268855
 30
0.0
 10
220.0458076547278
 20
106.6966248908445
 30
0.0
 10
220.1550760651297
 20
107.0185091142432
 30
0.0
 10
220.370521292453
 20
107.482873565354
 30
0.0
 10
220.451408414894
 20
107.6350658871989
 30
0.0
 10
220.6268723594028
 20
107.9266922269691
 30
0.0
 10
220.7217494082957
 20
108.0669313420149
 30
0.0
 10
220.9253178387735
 20
108.3367543015467
 30
0.0
 10
221.0340109575626
 20
108.4663365906195
 30
0.0
 10
221.2651741886504
 20
108.7150044823032
 30
0.0
 10
221.388183393535
 20
108.834473788658
 30
0.0
 10
221.7706083282207
 20
109.1705779609104
 30
0.0
 10
222.0449911387713
 20
109.3673203149001
 30
0.0
 10
222.6311137196656
 20
109.7096359602287
 30
0.0
 10
222.943957645438
 20
109.8548505674435
 30
0.0
 10
223.5829623939337
 20
110.0848502634177
 30
0.0
 10
223.9119294585979
 20
110.1715217911748
 30
0.0
 10
224.588955179373
 20
110.2885979902555
 30
0.0
 10
224.9321072923887
 20
110.3177471808271
 30
0.0
 10
225.6133217022733
 20
110.3184077316132
 30
0.0
 10
225.953598936933
 20
110.2903267933613
 30
0.0
 10
226.6334160305688
 20
110.1743413538648
 30
0.0
 10
226.9626261091483
 20
110.0881915347508
 30
0.0
 10
227.6002525719166
 20
109.8603250273318
 30
0.0
 10
227.9104354088163
 20
109.71759769607
 30
0.0
 10
228.5006020005271
 20
109.3752128354254
 30
0.0
 10
228.7748202835231
 20
109.1793300185345
 30
0.0
 10
229.1549204144133
 20
108.8475846358762
 30
0.0
 10
229.2763810337127
 20
108.7306401814517
 30
0.0
 10
229.5083711906366
 20
108.4833017805432
 30
0.0
 10
229.6193587432757
 20
108.3521787906288
 30
0.0
 10
229.927635574357
 20
107.9468657844932
 30
0.0
 10
230.1028566091887
 20
107.6588276840835
 30
0.0
 10
230.391540084634
 20
107.0456346794816
 30
0.0
 10
230.505205045765
 20
106.7165869577737
 30
0.0
 10
230.6555427235621
 20
106.0519845354972
 30
0.0
 10
230.6944527433827
 20
105.7134650846487
 30
0.0
 10
230.6966367079204
 20
105.0233907489862
 30
0.0
 10
230.6593841421556
 20
104.6811584381954
 30
0.0
 10
230.5126078255547
 20
104.0152806077405
 30
0.0
 10
230.40098351942
 20
103.6860421782604
 30
0.0
 10
230.1142808183048
 20
103.0687791164214
 30
0.0
 10
229.9395065627078
 20
102.7783369481618
 30
0.0
 10
229.5278284203783
 20
102.2326672574539
 30
0.0
 10
229.295990112297
 20
101.984534385195
 30
0.0
 10
228.7883621658605
 20
101.5382416303316
 30
0.0
 10
228.5087638304562
 20
101.3376938927833
 30
0.0
 10
227.9220828952319
 20
100.9956750056372
 30
0.0
 10
227.614747251776
 20
100.8530242864891
 30
0.0
 10
226.9727075193864
 20
100.6219324805584
 30
0.0
 10
226.6378183457786
 20
100.5342103181363
 30
0.0
 10
225.9650342498429
 20
100.4184937162798
 30
0.0
 10
225.6236869739559
 20
100.3892492546113
 30
0.0
 10
224.9335025506732
 20
100.3892492546113
 30
0.0
  0
LINE
  5
F3
330
1F
100
AcDbEntity
  8
0
  6
HIDDEN
 62
     7
370
     0
100
AcDbLine
 10
54.5285947623
 20
87.3636647809
 30
0.0
 11
54.5285947623
 21
84.4837270155
 31
0.0
  0
LINE
  5
F4
330
1F
100
AcDbEntity
  8
0
  6
HIDDEN
 62
     7
370
     0
100
AcDbLine
 10
63.4785947623
 20
87.3636647809
 30
0.0
 11
63.4785947623
 21
83.3899272497
 31
0.0
  0
LINE
  5
F5
330
1F
100
AcDbEntity
  8
0
  6
HIDDEN
 62
     7
370
     0
100
AcDbLine
 10
54.5285947623
 20
123.3436647809
 30
0.0
 11
54.5285947623
 21
126.2236025463
 31
0.0
  0
LINE
  5
F6
330
1F
100
AcDbEntity
  8
0
  6
HIDDEN
 62
     7
370
     0
100
AcDbLine
 10
59.4785947623
 20
123.3436647809
 30
0.0
 11
59.4785947623
 21
127.1977724533
 31
0.0
  0
LINE
  5
F7
330
1F
100
AcDbEntity
  8
0
  6
HIDDEN
 62
     7
370
     0
100
AcDbLine
 10
107.0785947623
 20
95.8536647809
 30
0.0
 11
107.0785947623
 21
114.8536647809
 31
0.0
  0
LINE
  5
F8
330
1F
100
AcDbEntity
  8
0
  6
HIDDEN
 62
     7
370
     0
100
AcDbLine
 10
104.0785947623
 20
95.8536647809
 30
0.0
 11
104.0785947623
 21
114.8536647809
 31
0.0
  0
LINE
  5
F9
330
1F
100
AcDbEntity
  8
0
  6
HIDDEN
 62
     7
370
     0
100
AcDbLine
 10
95.7285947623
 20
96.8536647809
 30
0.0
 11
95.7285947623
 21
113.8536647809
 31
0.0
  0
LINE
  5
FA
330
1F
100
AcDbEntity
  8
0
  6
HIDDEN
 62
     7
370
     0
100
AcDbLine
 10
111.2285947623
 20
78.9536647809
 30
0.0
 11
105.09091996
 21
78.9536647809
 31
0.0
  0
LINE
  5
FB
330
1F
100
AcDbEntity
  8
0
  6
HIDDEN
 62
     7
370
     0
100
AcDbLine
 10
90.2285947623
 20
73.869541798
 30
0.0
 11
90.2285947623
 21
78.9536647809
 31
0.0
  0
LINE
  5
FC
330
1F
100
AcDbEntity
  8
0
  6
HIDDEN
 62
     7
370
     0
100
AcDbLine
 10
98.2285947623
 20
78.9536647809
 30
0.0
 11
90.2285947623
 21
78.9536647809
 31
0.0
  0
LINE
  5
FD
330
1F
100
AcDbEntity
  8
0
  6
HIDDEN
 62
     7
370
     0
100
AcDbLine
 10
101.4662695646
 20
78.9536647809
 30
0.0
 11
98.2285947623
 21
78.9536647809
 31
0.0
  0
LWPOLYLINE
  5
FE
330
1F
100
AcDbEntity
  8
0
  6
HIDDEN
 62
     7
370
     0
100
AcDbPolyline
 90
       17
 70
   128
 43
0.0
 10
210.2785947623
 20
97.2219367972
 10
209.7045696138
 20
97.3026747454
 10
209.2179345905
 20
97.532596969
 10
208.8927754635
 20
97.8766998939
 10
208.7785947623
 20
98.282596969
 10
208.8927754635
 20
98.6884940441
 10
209.2179345905
 20
99.032596969
 10
209.7045696138
 20
99.2625191927
 10
210.2785947623
 20
99.3432571408
 10
210.8526199109
 20
99.2625191927
 10
211.3392549341
 20
99.032596969
 10
211.6644140611
 20
98.6884940441
 10
211.7785947623
 20
98.282596969
 10
211.6644140611
 20
97.8766998939
 10
211.3392549341
 20
97.532596969
 10
210.8526199109
 20
97.3026747454
 10
210.2785947623
 20
97.2219367972
  0
SPLINE
  5
FF
330
1F
100
AcDbEntity
  8
0
  6
HIDDEN
 62
     7
370
     0
100
AcDbSpline
210
0.0
220
0.0
230
1.0
 70
     8
 71
     3
 72
    14
 73
    10
 74
     0
 42
0.00000001
 43
0.00000001
 40
0.0
 40
0.0
 40
0.0
 40
0.0
 40
0.25
 40
0.25
 40
0.5
 40
0.5
 40
0.75
 40
0.75
 40
1.0
 40
1.0
 40
1.0
 40
1.0
 10
209.2848445563638
 20
98.99705075358712
 30
0.0
 10
209.2502801299613
 20
98.96059135981719
 30
0.0
 10
209.2168899262132
 20
98.92561882859023
 30
0.0
 10
209.1612931805483
 20
98.8470324403993
 30
0.0
 10
209.138160852818
 20
98.80202274299427
 30
0.0
 10
209.1495971423509
 20
98.65877036195567
 30
0.0
 10
209.1806407229023
 20
98.57360203419704
 30
0.0
 10
209.2474968318427
 20
98.41160614444178
 30
0.0
 10
209.2854989602029
 20
98.33151539391962
 30
0.0
 10
209.3248526244545
 20
98.25287269741604
 30
0.0
  0
SPLINE
  5
100
330
1F
100
AcDbEntity
  8
0
  6
HIDDEN
 62
     7
370
     0
100
AcDbSpline
210
0.0
220
0.0
230
1.0
 70
     8
 71
     3
 72
    14
 73
    10
 74
     0
 42
0.00000001
 43
0.00000001
 40
0.0
 40
0.0
 40
0.0
 40
0.0
 40
0.25
 40
0.25
 40
0.5
 40
0.5
 40
0.75
 40
0.75
 40
1.0
 40
1.0
 40
1.0
 40
1.0
 10
209.3248526244566
 20
98.25287269741459
 30
0.0
 10
209.3625996020438
 20
98.28598836933826
 30
0.0
 10
209.3956987942441
 20
98.3266580271027
 30
0.0
 10
209.4416692481506
 20
98.42792870979959
 30
0.0
 10
209.452897219072
 20
98.48657428947628
 30
0.0
 10
209.4440433176543
 20
98.62024603830464
 30
0.0
 10
209.4240238678794
 20
98.69273400446963
 30
0.0
 10
209.364466174013
 20
98.8430165770812
 30
0.0
 10
209.3262999707117
 20
98.91905477324059
 30
0.0
 10
209.2848445563639
 20
98.99705075358696
 30
0.0
  0
SPLINE
  5
101
330
1F
100
AcDbEntity
  8
0
  6
HIDDEN
 62
     7
370
     0
100
AcDbSpline
210
0.0
220
0.0
230
1.0
 70
     8
 71
     3
 72
    32
 73
    28
 74
     0
 42
0.00000001
 43
0.00000001
 40
-0.0624999999999993
 40
-0.0624999999999993
 40
0.0
 40
0.0
 40
0.1249999999999985
 40
0.1249999999999985
 40
0.1874999999999991
 40
0.1874999999999991
 40
0.2499999999999997
 40
0.2499999999999997
 40
0.3125000000000003
 40
0.3125000000000003
 40
0.3750000000000009
 40
0.3750000000000009
 40
0.5000000000000023
 40
0.5000000000000023
 40
0.6250000000000038
 40
0.6250000000000038
 40
0.6875000000000031
 40
0.6875000000000031
 40
0.7500000000000024
 40
0.7500000000000024
 40
0.8125000000000019
 40
0.8125000000000019
 40
0.8750000000000012
 40
0.8750000000000012
 40
0.9375000000000007
 40
0.9375000000000007
 40
1.0
 40
1.0
 40
1.124999999999998
 40
1.124999999999998
 10
208.7785947623141
 20
99.62792379742912
 30
0.0
 10
208.778594762314
 20
99.75644439625853
 30
0.0
 10
208.7942046368196
 20
99.81710029361658
 30
0.0
 10
208.8296111817285
 20
99.86116989655672
 30
0.0
 10
208.8435376403473
 20
99.86858713208319
 30
0.0
 10
208.8688762248569
 20
99.85756529583014
 30
0.0
 10
208.8798937699162
 20
99.83617764787265
 30
0.0
 10
208.8774886998324
 20
99.74673695273857
 30
0.0
 10
208.8655725284197
 20
99.68577040434782
 30
0.0
 10
208.8412132122484
 20
99.56900250511107
 30
0.0
 10
208.8279881330295
 20
99.50943976924668
 30
0.0
 10
208.7940726794882
 20
99.33764942765514
 30
0.0
 10
208.7785153604341
 20
99.22796182144312
 30
0.0
 10
208.7786748185086
 20
99.05752620938952
 30
0.0
 10
208.7942412972479
 20
99.00106595364615
 30
0.0
 10
208.8286596505468
 20
98.96441253414933
 30
0.0
 10
208.8417119515127
 20
98.95985278542867
 30
0.0
 10
208.8661815620698
 20
98.97244807870169
 30
0.0
 10
208.8779001018891
 20
98.99046253780755
 30
0.0
 10
208.879586442681
 20
99.07272919274689
 30
0.0
 10
208.8682804194231
 20
99.13350212333674
 30
0.0
 10
208.8431215921702
 20
99.25032151663368
 30
0.0
 10
208.8292188966338
 20
99.30951187880493
 30
0.0
 10
208.8057925402169
 20
99.42261034715474
 30
0.0
 10
208.7957645259173
 20
99.47817776459587
 30
0.0
 10
208.7822273482568
 20
99.58086187474032
 30
0.0
 10
208.7785947623141
 20
99.62792379742912
 30
0.0
 10
208.778594762314
 20
99.75644439625853
 30
0.0
  0
SPLINE
  5
102
330
1F
100
AcDbEntity
  8
0
  6
HIDDEN
 62
     7
370
     0
100
AcDbSpline
210
0.0
220
0.0
230
1.0
 70
     8
 71
     3
 72
     8
 73
     4
 74
     0
 42
0.00000001
 43
0.00000001
 40
0.0
 40
0.0
 40
0.0
 40
0.0
 40
1.0
 40
1.0
 40
1.0
 40
1.0
 10
211.520628801525
 20
102.9839342291018
 30
0.0
 10
211.4790144382306
 20
103.0251839120714
 30
0.0
 10
211.4333202362755
 20
103.0685794486039
 30
0.0
 10
211.3838207441948
 20
103.1159821877743
 30
0.0
  0
SPLINE
  5
103
330
1F
100
AcDbEntity
  8
0
  6
HIDDEN
 62
     7
370
     0
100
AcDbSpline
210
0.0
220
0.0
230
1.0
 70
     8
 71
     3
 72
    32
 73
    28
 74
     0
 42
0.00000001
 43
0.00000001
 40
0.0
 40
0.0
 40
0.0
 40
0.0
 40
0.0625000000000043
 40
0.0625000000000043
 40
0.1250000000000087
 40
0.1250000000000087
 40
0.187500000000013
 40
0.187500000000013
 40
0.2500000000000115
 40
0.2500000000000115
 40
0.3750000000000088
 40
0.3750000000000088
 40
0.437500000000009
 40
0.437500000000009
 40
0.5000000000000092
 40
0.5000000000000092
 40
0.6250000000000095
 40
0.6250000000000095
 40
0.75000000000001
 40
0.75000000000001
 40
0.8125000000000075
 40
0.8125000000000075
 40
0.8750000000000051
 40
0.8750000000000051
 40
0.9375000000000026
 40
0.9375000000000026
 40
1.0
 40
1.0
 40
1.0
 40
1.0
 10
211.3838207441948
 20
103.1159821877743
 30
0.0
 10
211.2823194631075
 20
103.2131839680471
 30
0.0
 10
211.1671794839285
 20
103.2980920936936
 30
0.0
 10
210.9088923257724
 20
103.439141374281
 30
0.0
 10
210.7688707192634
 20
103.4929744818784
 30
0.0
 10
210.4761170377198
 20
103.5593346709671
 30
0.0
 10
210.3229109108585
 20
103.5714370358009
 30
0.0
 10
210.0225664020298
 20
103.5508353628922
 30
0.0
 10
209.872551992922
 20
103.5178608522064
 30
0.0
 10
209.4546236568843
 20
103.362896054555
 30
0.0
 10
209.2101989153199
 20
103.1813313629192
 30
0.0
 10
208.9582146721007
 20
102.8696880822756
 30
0.0
 10
208.8912899052358
 20
102.7571487584898
 30
0.0
 10
208.8020666212186
 20
102.5338236821234
 30
0.0
 10
208.7787211484368
 20
102.4208891772581
 30
0.0
 10
208.7783435505737
 20
102.1001888516606
 30
0.0
 10
208.8717233376368
 20
101.91303931205
 30
0.0
 10
209.2104677850728
 20
101.633682073036
 30
0.0
 10
209.4501747927545
 20
101.5416932325639
 30
0.0
 10
209.8700606038494
 20
101.4650895771657
 30
0.0
 10
210.0182445657927
 20
101.4501522966595
 30
0.0
 10
210.319030828962
 20
101.4403203202577
 30
0.0
 10
210.4724545352752
 20
101.4455527341127
 30
0.0
 10
210.7652104435057
 20
101.476348777408
 30
0.0
 10
210.9071193023257
 20
101.5022409051105
 30
0.0
 10
211.1642391170783
 20
101.5749688409658
 30
0.0
 10
211.2822794185865
 20
101.622515718224
 30
0.0
 10
211.3838207441948
 20
101.6817747209293
 30
0.0
  0
SPLINE
  5
104
330
1F
100
AcDbEntity
  8
0
  6
HIDDEN
 62
     7
370
     0
100
AcDbSpline
210
0.0
220
0.0
230
1.0
 70
     8
 71
     3
 72
     8
 73
     4
 74
     0
 42
0.00000001
 43
0.00000001
 40
0.0
 40
0.0
 40
0.0
 40
0.0
 40
1.0
 40
1.0
 40
1.0
 40
1.0
 10
211.3838207441948
 20
101.6817747209294
 30
0.0
 10
211.4333202362755
 20
101.710662373494
 30
0.0
 10
211.4790144382306
 20
101.74886020149
 30
0.0
 10
211.520628801525
 20
101.7945213945969
 30
0.0
  0
SPLINE
  5
105
330
1F
100
AcDbEntity
  8
0
  6
HIDDEN
 62
     7
370
     0
100
AcDbSpline
210
0.0
220
0.0
230
1.0
 70
     8
 71
     3
 72
    12
 73
     8
 74
     0
 42
0.00000001
 43
0.00000001
 40
0.0
 40
0.0
 40
0.0
 40
0.0
 40
0.2499999999999999
 40
0.2499999999999999
 40
0.4999999999999998
 40
0.4999999999999998
 40
1.0
 40
1.0
 40
1.0
 40
1.0
 10
211.520628801525
 20
101.7945213945969
 30
0.0
 10
211.6047213491284
 20
101.886791604952
 30
0.0
 10
211.6685475449145
 20
101.9826774811157
 30
0.0
 10
211.7562309691137
 20
102.1858267007935
 30
0.0
 10
211.7784591664254
 20
102.290525096287
 30
0.0
 10
211.7788640973558
 20
102.6057234816872
 30
0.0
 10
211.6888047376749
 20
102.8172320738815
 30
0.0
 10
211.520628801525
 20
102.9839342291018
 30
0.0
  0
SPLINE
  5
106
330
1F
100
AcDbEntity
  8
0
  6
HIDDEN
 62
     7
370
     0
100
AcDbSpline
210
0.0
220
0.0
230
1.0
 70
     8
 71
     3
 72
    18
 73
    14
 74
     0
 42
0.00000001
 43
0.00000001
 40
0.0
 40
0.0
 40
0.0
 40
0.0
 40
0.2500000000000128
 40
0.2500000000000128
 40
0.3750000000000127
 40
0.3750000000000127
 40
0.5000000000000125
 40
0.5000000000000125
 40
0.6250000000000124
 40
0.6250000000000124
 40
0.7500000000000122
 40
0.7500000000000122
 40
1.0
 40
1.0
 40
1.0
 40
1.0
 10
209.3248526244566
 20
99.89017287421433
 30
0.0
 10
209.2854042483282
 20
99.92304676829256
 30
0.0
 10
209.2472475678245
 20
99.95393526738752
 30
0.0
 10
209.1970172865905
 20
100.0041696347338
 30
0.0
 10
209.1814879747533
 20
100.0215658179693
 30
0.0
 10
209.1562285707623
 20
100.0628087536731
 30
0.0
 10
209.1466569014525
 20
100.0872743081628
 30
0.0
 10
209.1410727935358
 20
100.1486005463907
 30
0.0
 10
209.1454041403091
 20
100.1860387469125
 30
0.0
 10
209.1628072744014
 20
100.2639221936771
 30
0.0
 10
209.1754163195195
 20
100.3046757519663
 30
0.0
 10
209.2171172663931
 20
100.4257951211592
 30
0.0
 10
209.2503564635931
 20
100.5065346413439
 30
0.0
 10
209.2848445563638
 20
100.586050771317
 30
0.0
  0
SPLINE
  5
107
330
1F
100
AcDbEntity
  8
0
  6
HIDDEN
 62
     7
370
     0
100
AcDbSpline
210
0.0
220
0.0
230
1.0
 70
     8
 71
     3
 72
    12
 73
     8
 74
     0
 42
0.00000001
 43
0.00000001
 40
0.0
 40
0.0
 40
0.0
 40
0.0
 40
0.4999999999999989
 40
0.4999999999999989
 40
0.7499999999999994
 40
0.7499999999999994
 40
1.0
 40
1.0
 40
1.0
 40
1.0
 10
209.2848445563638
 20
100.5860507713169
 30
0.0
 10
209.3676512015969
 20
100.5338282932066
 30
0.0
 10
209.4392346457116
 20
100.4471683607995
 30
0.0
 10
209.4530012154236
 20
100.2580291905342
 30
0.0
 10
209.4416607759073
 20
100.1887737069887
 30
0.0
 10
209.3956981131215
 20
100.0420502172766
 30
0.0
 10
209.3626023907193
 20
99.96727015212053
 30
0.0
 10
209.3248526244568
 20
99.89017287421456
 30
0.0
  0
SPLINE
  5
108
330
1F
100
AcDbEntity
  8
0
  6
HIDDEN
 62
     7
370
     0
100
AcDbSpline
210
0.0
220
0.0
230
1.0
 70
     8
 71
     3
 72
    48
 73
    44
 74
     0
 42
0.00000001
 43
0.00000001
 40
-0.0624999999999968
 40
-0.0624999999999968
 40
0.0
 40
0.0
 40
0.0312500000000004
 40
0.0312500000000004
 40
0.0625000000000007
 40
0.0625000000000007
 40
0.1250000000000017
 40
0.1250000000000017
 40
0.1875000000000027
 40
0.1875000000000027
 40
0.2500000000000037
 40
0.2500000000000037
 40
0.3125000000000047
 40
0.3125000000000047
 40
0.3437500000000051
 40
0.3437500000000051
 40
0.3750000000000053
 40
0.3750000000000053
 40
0.4062500000000057
 40
0.4062500000000057
 40
0.4375000000000059
 40
0.4375000000000059
 40
0.5000000000000067
 40
0.5000000000000067
 40
0.5625000000000074
 40
0.5625000000000074
 40
0.6250000000000081
 40
0.6250000000000081
 40
0.6875000000000089
 40
0.6875000000000089
 40
0.7500000000000095
 40
0.7500000000000095
 40
0.8125000000000103
 40
0.8125000000000103
 40
0.8437500000000085
 40
0.8437500000000085
 40
0.8750000000000068
 40
0.8750000000000068
 40
0.906250000000005
 40
0.906250000000005
 40
0.9375000000000032
 40
0.9375000000000032
 40
1.0
 40
1.0
 40
1.03125
 40
1.03125
 10
211.4093847396663
 20
98.21247040465624
 30
0.0
 10
211.5314525701831
 20
98.21586172987813
 30
0.0
 10
211.5699149001008
 20
98.22430854582444
 30
0.0
 10
211.6400643758672
 20
98.25658340987866
 30
0.0
 10
211.6720815086423
 20
98.28085616734447
 30
0.0
 10
211.7508170955601
 20
98.37767882886575
 30
0.0
 10
211.7805454963809
 20
98.47682846660072
 30
0.0
 10
211.7764337423508
 20
98.72575026837046
 30
0.0
 10
211.7423876496853
 20
98.87635171546498
 30
0.0
 10
211.6310214911606
 20
99.1852668859935
 30
0.0
 10
211.5546225675699
 20
99.34402676561936
 30
0.0
 10
211.3914493873056
 20
99.65179801245763
 30
0.0
 10
211.30280992129
 20
99.80253554536779
 30
0.0
 10
211.1935958205612
 20
100.0204607588903
 30
0.0
 10
211.1606742728492
 20
100.0936164185828
 30
0.0
 10
211.1162235598493
 20
100.2331530622285
 30
0.0
 10
211.1049907414253
 20
100.3011536975971
 30
0.0
 10
211.1117785398493
 20
100.4210872091083
 30
0.0
 10
211.1295255031348
 20
100.4745059437631
 30
0.0
 10
211.1816760296076
 20
100.5626530220927
 30
0.0
 10
211.2160491940747
 20
100.598775208177
 30
0.0
 10
211.3279958547728
 20
100.6848745585277
 30
0.0
 10
211.4134798319263
 20
100.7139715759221
 30
0.0
 10
211.5716313098268
 20
100.7175101713568
 30
0.0
 10
211.6438761852616
 20
100.6915453178766
 30
0.0
 10
211.7495662416466
 20
100.5698482539293
 30
0.0
 10
211.7800652874049
 20
100.4729994947016
 30
0.0
 10
211.7770089114869
 20
100.2238504242343
 30
0.0
 10
211.7430862610926
 20
100.0709151013676
 30
0.0
 10
211.6331208334944
 20
99.75803420520134
 30
0.0
 10
211.5579655681016
 20
99.5970782831421
 30
0.0
 10
211.3992056383552
 20
99.28757582093807
 30
0.0
 10
211.3125609177134
 20
99.13469735440725
 30
0.0
 10
211.2040907832678
 20
98.91607373891533
 30
0.0
 10
211.1711412166169
 20
98.84392675313012
 30
0.0
 10
211.1223516768567
 20
98.7015787432683
 30
0.0
 10
211.107760082733
 20
98.63329009134735
 30
0.0
 10
211.1077418459014
 20
98.50820932935802
 30
0.0
 10
211.1224240728606
 20
98.45334777387744
 30
0.0
 10
211.1724364488853
 20
98.36140175042999
 30
0.0
 10
211.206422754916
 20
98.3250831853576
 30
0.0
 10
211.3207203235085
 20
98.23861009641857
 30
0.0
 10
211.4093847396663
 20
98.21247040465624
 30
0.0
 10
211.5314525701831
 20
98.21586172987813
 30
0.0
  0
LINE
  5
109
330
1F
100
AcDbEntity
  8
0
  6
HIDDEN
 62
     7
370
     0
100
AcDbLine
 10
98.2285947623
 20
131.7536647809
 30
0.0
 11
90.2285947623
 21
131.7536647809
 31
0.0
  0
LINE
  5
10A
330
1F
100
AcDbEntity
  8
0
  6
HIDDEN
 62
     7
370
     0
100
AcDbLine
 10
101.762892294
 20
131.7536647809
 30
0.0
 11
98.2285947623
 21
131.7536647809
 31
0.0
  0
LINE
  5
10B
330
1F
100
AcDbEntity
  8
0
  6
HIDDEN
 62
     7
370
     0
100
AcDbLine
 10
111.2285947623
 20
131.7536647809
 30
0.0
 11
104.7942972306
 21
131.7536647809
 31
0.0
  0
SPLINE
  5
10C
330
1F
100
AcDbEntity
  8
0
  6
HIDDEN
 62
     7
370
     0
100
AcDbSpline
210
0.0
220
0.0
230
1.0
 70
     8
 71
     3
 72
    11
 73
     7
 74
     0
 42
0.00000001
 43
0.00000001
 40
0.0
 40
0.0
 40
0.0
 40
0.0
 40
0.0008203708524183
 40
0.0008203708524183
 40
0.0008203708524183
 40
0.0016409967870154
 40
0.0016409967870154
 40
0.0016409967870154
 40
0.0016409967870154
 10
54.52859476231453
 20
89.50163203024974
 30
0.0
 10
54.33743646201587
 20
89.4604530016306
 30
0.0
 10
54.14600939194369
 20
89.42169902940059
 30
0.0
 10
53.95436376842306
 20
89.38533127012205
 30
0.0
 10
53.76265836334261
 20
89.34895216635603
 30
0.0
 10
53.57071941128365
 20
89.31495791558847
 30
0.0
 10
53.37859476421283
 20
89.28330979019726
 30
0.0
  0
ELLIPSE
  5
10D
330
1F
100
AcDbEntity
  8
0
  6
HIDDEN
 62
     7
370
     0
100
AcDbEllipse
 10
49.1361628937
 20
105.3536647809
 30
0.0
 11
20.19992453366627
 21
-1.421085471520200E-14
 31
0.0
210
0.0
220
0.0
230
1.0
 40
0.8164965809
 41
1.300566354718001
 42
1.359198697209605
  0
ARC
  5
10E
330
1F
100
AcDbEntity
  8
0
  6
HIDDEN
 62
     7
370
     0
100
AcDbCircle
 10
196.2661835505
 20
99.4884806002
 30
0.0
 40
13.0648457575021
100
AcDbArc
 50
1.7618960119
 51
4.8190653226
  0
LINE
  5
10F
330
1F
100
AcDbEntity
  8
0
  6
HIDDEN
 62
     7
370
     0
100
AcDbLine
 10
63.4785947623
 20
87.3636647809
 30
0.0
 11
63.4785947623
 21
89.0661511585
 31
0.0
  0
LINE
  5
110
330
1F
100
AcDbEntity
  8
0
  6
HIDDEN
 62
     7
370
     0
100
AcDbLine
 10
54.5285947623
 20
87.3636647809
 30
0.0
 11
54.5285947623
 21
89.5016320302
 31
0.0
  0
LINE
  5
111
330
1F
100
AcDbEntity
  8
0
  6
HIDDEN
 62
     7
370
     0
100
AcDbLine
 10
54.6096257757
 20
89.5521743449
 30
0.0
 11
54.5285947623
 21
89.5016320302
 31
0.0
  0
LINE
  5
112
330
1F
100
AcDbEntity
  8
0
  6
HIDDEN
 62
     7
370
     0
100
AcDbLine
 10
59.4785947623
 20
123.3436647809
 30
0.0
 11
59.4785947623
 21
121.6411784033
 31
0.0
  0
LINE
  5
113
330
1F
100
AcDbEntity
  8
0
  6
HIDDEN
 62
     7
370
     0
100
AcDbLine
 10
54.5285947623
 20
123.3436647809
 30
0.0
 11
54.5285947623
 21
121.248289232
 31
0.0
  0
SPLINE
  5
114
330
1F
100
AcDbEntity
  8
0
  6
HIDDEN
 62
     7
370
     0
100
AcDbSpline
210
0.0
220
0.0
230
1.0
 70
     8
 71
     3
 72
     8
 73
     4
 74
     0
 42
0.00000001
 43
0.00000001
 40
0.0
 40
0.0
 40
0.0
 40
0.0
 40
1.0
 40
1.0
 40
1.0
 40
1.0
 10
54.52859476231453
 20
121.2482892319511
 30
0.0
 10
54.57860026125827
 20
121.217253457732
 30
0.0
 10
54.62860033192268
 20
121.1862088127044
 30
0.0
 10
54.6785947657078
 20
121.1551552169241
 30
0.0
  0
ARC
  5
115
330
1F
100
AcDbEntity
  8
0
  6
HIDDEN
 62
     7
370
     0
100
AcDbCircle
 10
225.4149276812
 20
99.4910624334
 30
0.0
 40
16.13764633253792
100
AcDbArc
 50
181.7542339436
 51
184.4004458048
  0
SPLINE
  5
116
330
1F
100
AcDbEntity
  8
0
  6
HIDDEN
 62
     7
370
     0
100
AcDbSpline
210
0.0
220
0.0
230
1.0
 70
     8
 71
     3
 72
    20
 73
    16
 74
     0
 42
0.00000001
 43
0.00000001
 40
0.0
 40
0.0
 40
0.0
 40
0.0
 40
0.1119595197684142
 40
0.1774767634647507
 40
0.2490961890179794
 40
0.3298422315093885
 40
0.3986125823881415
 40
0.4998893016461092
 40
0.6138510293005034
 40
0.6790150176761197
 40
0.7495394203319945
 40
0.8296829944212418
 40
0.8981246285268906
 40
0.9995320175861913
 40
1.0
 40
1.0
 40
1.0
 40
1.0
 10
80.0274352121774
 20
81.75367101912467
 30
0.0
 10
79.98411147387885
 20
81.7671003371617
 30
0.0
 10
79.91543525170206
 20
81.78838831611768
 30
0.0
 10
79.47025612565179
 20
81.89169912776617
 30
0.0
 10
78.94369784198202
 20
82.00500235782803
 30
0.0
 10
78.25827282085285
 20
82.12793522562065
 30
0.0
 10
77.36495542355402
 20
82.2499696848051
 30
0.0
 10
76.25159603641639
 20
82.3677059925897
 30
0.0
 10
75.14082195578077
 20
82.37968149496535
 30
0.0
 10
74.25607365387536
 20
82.35262320483402
 30
0.0
 10
73.58887705924165
 20
82.3046911404262
 30
0.0
 10
73.04760455701442
 20
82.24839762806161
 30
0.0
 10
72.66002459794227
 20
82.20331471742284
 30
0.0
 10
72.46608807787318
 20
82.16444154272291
 30
0.0
 10
72.5291905381029
 20
82.17514759996367
 30
0.0
 10
72.52948041033824
 20
82.17519678011817
 30
0.0
  0
LINE
  5
117
330
1F
100
AcDbEntity
  8
0
  6
HIDDEN
 62
     7
370
     0
100
AcDbLine
 10
73.4386066747
 20
82.2860029243
 30
0.0
 11
73.6224519878
 21
82.3041922669
 31
0.0
  0
LINE
  5
118
330
1F
100
AcDbEntity
  8
0
  6
HIDDEN
 62
     7
370
     0
100
AcDbLine
 10
73.6224492894
 20
128.4030678637
 30
0.0
 11
73.4483760075
 21
128.4202773898
 31
0.0
  0
SPLINE
  5
119
330
1F
100
AcDbEntity
  8
0
  6
HIDDEN
 62
     7
370
     0
100
AcDbSpline
210
0.0
220
0.0
230
1.0
 70
     8
 71
     3
 72
    20
 73
    16
 74
     0
 42
0.00000001
 43
0.00000001
 40
0.0
 40
0.0
 40
0.0
 40
0.0
 40
0.0004889684280502
 40
0.1018319933926956
 40
0.1702475582150564
 40
0.2503692056770218
 40
0.3209568221796114
 40
0.3861816196721121
 40
0.5002554836817364
 40
0.6012243489302103
 40
0.669768055864141
 40
0.750240190758111
 40
0.8220490693822882
 40
0.8877204546071489
 40
1.0
 40
1.0
 40
1.0
 40
1.0
 10
72.52951379509967
 20
128.532066235085
 30
0.0
 10
72.52921015410276
 20
128.5321178222351
 30
0.0
 10
72.46597423493718
 20
128.5428613018485
 30
0.0
 10
72.65917826873151
 20
128.5040053111899
 30
0.0
 10
73.0461253236394
 20
128.4589818207853
 30
0.0
 10
73.58713224696572
 20
128.4027188586924
 30
0.0
 10
74.25463250843073
 20
128.3547876660982
 30
0.0
 10
75.1404603597841
 20
128.3277142103688
 30
0.0
 10
76.25126693187187
 20
128.3395402139484
 30
0.0
 10
77.36333729789513
 20
128.4569892891037
 30
0.0
 10
78.25443760409306
 20
128.5786936773433
 30
0.0
 10
78.93992205490319
 20
128.7015147229179
 30
0.0
 10
79.46790995444074
 20
128.8149529746001
 30
0.0
 10
79.91529390593399
 20
128.9186935302388
 30
0.0
 10
79.98410437228847
 20
128.940116323516
 30
0.0
 10
80.02752087960165
 20
128.9536332041632
 30
0.0
  0
LINE
  5
11A
330
1F
100
AcDbEntity
  8
0
  6
HIDDEN
 62
     7
370
     0
100
AcDbLine
 10
208.2785947623
 20
101.4536647809
 30
0.0
 11
208.2785947623
 21
109.2536647809
 31
0.0
  0
SPLINE
  5
11B
330
1F
100
AcDbEntity
  8
0
  6
HIDDEN
 62
     7
370
     0
100
AcDbSpline
210
0.0
220
0.0
230
1.0
 70
     8
 71
     3
 72
    32
 73
    28
 74
     0
 42
0.00000001
 43
0.00000001
 40
0.0
 40
0.0
 40
0.0
 40
0.0
 40
0.0625000000000029
 40
0.0625000000000029
 40
0.1250000000000058
 40
0.1250000000000058
 40
0.1875000000000087
 40
0.1875000000000087
 40
0.2500000000000058
 40
0.2500000000000058
 40
0.3750000000000002
 40
0.3750000000000002
 40
0.437499999999999
 40
0.437499999999999
 40
0.4999999999999978
 40
0.4999999999999978
 40
0.6249999999999957
 40
0.6249999999999957
 40
0.7499999999999936
 40
0.7499999999999936
 40
0.8124999999999952
 40
0.8124999999999952
 40
0.8749999999999968
 40
0.8749999999999968
 40
0.9374999999999983
 40
0.9374999999999983
 40
1.0
 40
1.0
 40
1.0
 40
1.0
 10
211.3838207441948
 20
107.5913473740107
 30
0.0
 10
211.2823194631075
 20
107.4941455937379
 30
0.0
 10
211.1671794839285
 20
107.4092374680913
 30
0.0
 10
210.9088923257723
 20
107.268188187504
 30
0.0
 10
210.7688707192633
 20
107.2143550799065
 30
0.0
 10
210.4761170377198
 20
107.1479948908179
 30
0.0
 10
210.3229109108585
 20
107.135892525984
 30
0.0
 10
210.0225664020298
 20
107.1564941988927
 30
0.0
 10
209.872551992922
 20
107.1894687095785
 30
0.0
 10
209.4546236568843
 20
107.3444335072299
 30
0.0
 10
209.2101989153199
 20
107.5259981988657
 30
0.0
 10
208.9582146721007
 20
107.8376414795094
 30
0.0
 10
208.8912899052358
 20
107.9501808032951
 30
0.0
 10
208.8020666212186
 20
108.1735058796615
 30
0.0
 10
208.7787211484369
 20
108.2864403845268
 30
0.0
 10
208.7783435505738
 20
108.6071407101243
 30
0.0
 10
208.8717233376368
 20
108.7942902497349
 30
0.0
 10
209.2104677850728
 20
109.073647488749
 30
0.0
 10
209.4501747927545
 20
109.165636329221
 30
0.0
 10
209.8700606038495
 20
109.2422399846192
 30
0.0
 10
210.0182445657927
 20
109.2571772651255
 30
0.0
 10
210.319030828962
 20
109.2670092415272
 30
0.0
 10
210.4724545352751
 20
109.2617768276723
 30
0.0
 10
210.7652104435057
 20
109.2309807843769
 30
0.0
 10
210.9071193023256
 20
109.2050886566744
 30
0.0
 10
211.1642391170783
 20
109.1323607208192
 30
0.0
 10
211.2822794185865
 20
109.084813843561
 30
0.0
 10
211.3838207441948
 20
109.0255548408556
 30
0.0
  0
SPLINE
  5
11C
330
1F
100
AcDbEntity
  8
0
  6
HIDDEN
 62
     7
370
     0
100
AcDbSpline
210
0.0
220
0.0
230
1.0
 70
     8
 71
     3
 72
     8
 73
     4
 74
     0
 42
0.00000001
 43
0.00000001
 40
0.0
 40
0.0
 40
0.0
 40
0.0
 40
1.0
 40
1.0
 40
1.0
 40
1.0
 10
211.3838207441948
 20
109.0255548408556
 30
0.0
 10
211.4333202362754
 20
108.9966671882909
 30
0.0
 10
211.4790144382306
 20
108.958469360295
 30
0.0
 10
211.520628801525
 20
108.912808167188
 30
0.0
  0
SPLINE
  5
11D
330
1F
100
AcDbEntity
  8
0
  6
HIDDEN
 62
     7
370
     0
100
AcDbSpline
210
0.0
220
0.0
230
1.0
 70
     8
 71
     3
 72
    12
 73
     8
 74
     0
 42
0.00000001
 43
0.00000001
 40
0.0
 40
0.0
 40
0.0
 40
0.0
 40
0.2499999999999999
 40
0.2499999999999999
 40
0.4999999999999998
 40
0.4999999999999998
 40
1.0
 40
1.0
 40
1.0
 40
1.0
 10
211.520628801525
 20
108.912808167188
 30
0.0
 10
211.6047213491284
 20
108.8205379568329
 30
0.0
 10
211.6685475449145
 20
108.7246520806692
 30
0.0
 10
211.7562309691137
 20
108.5215028609914
 30
0.0
 10
211.7784591664254
 20
108.416804465498
 30
0.0
 10
211.7788640973558
 20
108.1016060800978
 30
0.0
 10
211.6888047376749
 20
107.8900974879034
 30
0.0
 10
211.520628801525
 20
107.7233953326831
 30
0.0
  0
LINE
  5
11E
330
1F
100
AcDbEntity
  8
0
  6
HIDDEN
 62
     7
370
     0
100
AcDbLine
 10
212.2785947623
 20
101.3536647809
 30
0.0
 11
212.2785947623
 21
109.3536647809
 31
0.0
  0
LINE
  5
11F
330
1F
100
AcDbEntity
  8
0
  6
HIDDEN
 62
     7
370
     0
100
AcDbLine
 10
148.3785947623
 20
101.1036647809
 30
0.0
 11
148.3785947623
 21
109.6036647809
 31
0.0
  0
LINE
  5
120
330
1F
100
AcDbEntity
  8
0
  6
HIDDEN
 62
     7
370
     0
100
AcDbLine
 10
149.4301008456
 20
102.8536647809
 30
0.0
 11
149.4301008456
 21
107.8536647809
 31
0.0
  0
LINE
  5
121
330
1F
100
AcDbEntity
  8
0
  6
HIDDEN
 62
     7
370
     0
100
AcDbLine
 10
159.7285947623
 20
89.9310150501
 30
0.0
 11
154.7285947623
 21
89.9310150501
 31
0.0
  0
LINE
  5
122
330
1F
100
AcDbEntity
  8
0
  6
HIDDEN
 62
     7
370
     0
100
AcDbLine
 10
157.2285947623
 20
120.7763145117
 30
0.0
 11
159.7285947623
 21
120.7763145117
 31
0.0
  0
LINE
  5
123
330
1F
100
AcDbEntity
  8
0
  6
HIDDEN
 62
     7
370
     0
100
AcDbLine
 10
154.7285947623
 20
120.7763145117
 30
0.0
 11
157.2285947623
 21
120.7763145117
 31
0.0
  0
LINE
  5
124
330
1F
100
AcDbEntity
  8
0
  6
HIDDEN
 62
     7
370
     0
100
AcDbLine
 10
157.2285947623
 20
112.3536647809
 30
0.0
 11
159.7285947623
 21
112.3536647809
 31
0.0
  0
LINE
  5
125
330
1F
100
AcDbEntity
  8
0
  6
HIDDEN
 62
     7
370
     0
100
AcDbLine
 10
154.7285947623
 20
112.3536647809
 30
0.0
 11
157.2285947623
 21
112.3536647809
 31
0.0
  0
LINE
  5
126
330
1F
100
AcDbEntity
  8
0
  6
HIDDEN
 62
     7
370
     0
100
AcDbLine
 10
159.7285947623
 20
98.3536647809
 30
0.0
 11
154.7285947623
 21
98.3536647809
 31
0.0
  0
SPLINE
  5
127
330
1F
100
AcDbEntity
  8
0
  6
HIDDEN
 62
     7
370
     0
100
AcDbSpline
210
0.0
220
0.0
230
1.0
 70
     8
 71
     3
 72
     8
 73
     4
 74
     0
 42
0.00000001
 43
0.00000001
 40
0.0
 40
0.0
 40
0.0
 40
0.0
 40
1.0
 40
1.0
 40
1.0
 40
1.0
 10
211.520628801525
 20
107.7233953326831
 30
0.0
 10
211.4790144382306
 20
107.6821456497135
 30
0.0
 10
211.4333202362754
 20
107.638750113181
 30
0.0
 10
211.3838207441948
 20
107.5913473740106
 30
0.0
  0
SPLINE
  5
128
330
1F
100
AcDbEntity
  8
0
  6
HIDDEN
 62
     7
370
     0
100
AcDbSpline
210
0.0
220
0.0
230
1.0
 70
     8
 71
     3
 72
    48
 73
    44
 74
     0
 42
0.00000001
 43
0.00000001
 40
-0.0624999999999947
 40
-0.0624999999999947
 40
0.0
 40
0.0
 40
0.0625000000000018
 40
0.0625000000000018
 40
0.1250000000000036
 40
0.1250000000000036
 40
0.1875000000000054
 40
0.1875000000000054
 40
0.2500000000000073
 40
0.2500000000000073
 40
0.3125000000000091
 40
0.3125000000000091
 40
0.34375000000001
 40
0.34375000000001
 40
0.3750000000000109
 40
0.3750000000000109
 40
0.4062500000000118
 40
0.4062500000000118
 40
0.4375000000000127
 40
0.4375000000000127
 40
0.5000000000000148
 40
0.5000000000000148
 40
0.5625000000000168
 40
0.5625000000000168
 40
0.6250000000000189
 40
0.6250000000000189
 40
0.6562500000000199
 40
0.6562500000000199
 40
0.6875000000000209
 40
0.6875000000000209
 40
0.7500000000000185
 40
0.7500000000000185
 40
0.8125000000000163
 40
0.8125000000000163
 40
0.8437500000000135
 40
0.8437500000000135
 40
0.8750000000000108
 40
0.8750000000000108
 40
0.906250000000008
 40
0.906250000000008
 40
0.9375000000000053
 40
0.9375000000000053
 40
1.0
 40
1.0
 40
1.062500000000002
 40
1.062500000000002
 10
211.5723409713394
 20
111.3990924684485
 30
0.0
 10
211.409185615349
 20
111.0870683409962
 30
0.0
 10
211.3214817060978
 20
110.9377370876965
 30
0.0
 10
211.1694898766468
 20
110.6422530511119
 30
0.0
 10
211.1086022589551
 20
110.4972897241497
 30
0.0
 10
211.10691842251
 20
110.2460476372897
 30
0.0
 10
211.1653651230137
 20
110.1537520457049
 30
0.0
 10
211.3103881923728
 20
110.0309561538844
 30
0.0
 10
211.3959073006334
 20
109.9981962262624
 30
0.0
 10
211.5551996429111
 20
109.9866043388917
 30
0.0
 10
211.6299136846962
 20
110.0083515101178
 30
0.0
 10
211.7135680917469
 20
110.0929080721107
 30
0.0
 10
211.7361314495778
 20
110.1293003003273
 30
0.0
 10
211.7679684229093
 20
110.219229755207
 30
0.0
 10
211.7771194215261
 20
110.2734782334969
 30
0.0
 10
211.7797311957156
 20
110.3940415864003
 30
0.0
 10
211.7732762083226
 20
110.4621373741048
 30
0.0
 10
211.7460888578461
 20
110.6060265095043
 30
0.0
 10
211.725569073376
 20
110.6817257448473
 30
0.0
 10
211.6471535038555
 20
110.9160750526921
 30
0.0
 10
211.5739675094787
 20
111.0767820374399
 30
0.0
 10
211.416988253756
 20
111.3869282353138
 30
0.0
 10
211.3306129527064
 20
111.5398892217882
 30
0.0
 10
211.1815114984513
 20
111.833849716701
 30
0.0
 10
211.1167591491833
 20
111.9810948515643
 30
0.0
 10
211.1045866119182
 20
112.1728843672993
 30
0.0
 10
211.1149678397832
 20
112.2300068258658
 30
0.0
 10
211.158608771136
 20
112.3270021215792
 30
0.0
 10
211.1904076454141
 20
112.3658064626468
 30
0.0
 10
211.3004612044761
 20
112.4596069695353
 30
0.0
 10
211.3881277114056
 20
112.4899292795766
 30
0.0
 10
211.5528643790242
 20
112.4951760208164
 30
0.0
 10
211.6281775706784
 20
112.4693205492829
 30
0.0
 10
211.7128915166126
 20
112.379995677194
 30
0.0
 10
211.7355885845365
 20
112.3424722624385
 30
0.0
 10
211.7678418525477
 20
112.2503450545928
 30
0.0
 10
211.7770005941955
 20
112.1959048133307
 30
0.0
 10
211.7797998930286
 20
112.0753070990025
 30
0.0
 10
211.7734059513262
 20
112.0073642938332
 30
0.0
 10
211.7463128872437
 20
111.8649072795965
 30
0.0
 10
211.7256911154533
 20
111.789778836638
 30
0.0
 10
211.646596299113
 20
111.5579098327796
 30
0.0
 10
211.5723409713394
 20
111.3990924684485
 30
0.0
 10
211.409185615349
 20
111.0870683409962
 30
0.0
  0
SPLINE
  5
129
330
1F
100
AcDbEntity
  8
0
  6
HIDDEN
 62
     7
370
     0
100
AcDbSpline
210
0.0
220
0.0
230
1.0
 70
     8
 71
     3
 72
    18
 73
    14
 74
     0
 42
0.00000001
 43
0.00000001
 40
0.0
 40
0.0
 40
0.0
 40
0.0
 40
0.2499999999999865
 40
0.2499999999999865
 40
0.3749999999999869
 40
0.3749999999999869
 40
0.4999999999999873
 40
0.4999999999999873
 40
0.6249999999999878
 40
0.6249999999999878
 40
0.7499999999999881
 40
0.7499999999999881
 40
1.0
 40
1.0
 40
1.0
 40
1.0
 10
209.3248526244566
 20
110.8171566875707
 30
0.0
 10
209.2854042483282
 20
110.7842827934925
 30
0.0
 10
209.2472475678245
 20
110.7533942943975
 30
0.0
 10
209.1970172865904
 20
110.7031599270512
 30
0.0
 10
209.1814879747532
 20
110.6857637438157
 30
0.0
 10
209.1562285707621
 20
110.6445208081119
 30
0.0
 10
209.1466569014523
 20
110.6200552536222
 30
0.0
 10
209.1410727935357
 20
110.5587290153943
 30
0.0
 10
209.145404140309
 20
110.5212908148725
 30
0.0
 10
209.1628072744013
 20
110.4434073681079
 30
0.0
 10
209.1754163195194
 20
110.4026538098186
 30
0.0
 10
209.2171172663931
 20
110.2815344406257
 30
0.0
 10
209.250356463593
 20
110.200794920441
 30
0.0
 10
209.2848445563638
 20
110.1212787904679
 30
0.0
  0
SPLINE
  5
12A
330
1F
100
AcDbEntity
  8
0
  6
HIDDEN
 62
     7
370
     0
100
AcDbSpline
210
0.0
220
0.0
230
1.0
 70
     8
 71
     3
 72
    12
 73
     8
 74
     0
 42
0.00000001
 43
0.00000001
 40
0.0
 40
0.0
 40
0.0
 40
0.0
 40
0.4999999999999983
 40
0.4999999999999983
 40
0.7499999999999991
 40
0.7499999999999991
 40
1.0
 40
1.0
 40
1.0
 40
1.0
 10
209.2848445563638
 20
110.1212787904679
 30
0.0
 10
209.3676512015969
 20
110.1735012685783
 30
0.0
 10
209.4392346457117
 20
110.2601612009855
 30
0.0
 10
209.4530012154237
 20
110.4493003712507
 30
0.0
 10
209.4416607759074
 20
110.5185558547963
 30
0.0
 10
209.3956981131215
 20
110.6652793445084
 30
0.0
 10
209.3626023907194
 20
110.7400594096644
 30
0.0
 10
209.3248526244568
 20
110.8171566875703
 30
0.0
  0
LWPOLYLINE
  5
12B
330
1F
100
AcDbEntity
  8
0
  6
HIDDEN
 62
     7
370
     0
100
AcDbPolyline
 90
       17
 70
   128
 43
0.0
 10
210.2785947623
 20
111.364072421
 10
210.8526199109
 20
111.4448103691
 10
211.3392549341
 20
111.6747325928
 10
211.6644140611
 20
112.0188355176
 10
211.7785947623
 20
112.4247325928
 10
211.6644140611
 20
112.8306296679
 10
211.3392549341
 20
113.1747325928
 10
210.8526199109
 20
113.4046548164
 10
210.2785947623
 20
113.4853927645
 10
209.7045696138
 20
113.4046548164
 10
209.2179345905
 20
113.1747325928
 10
208.8927754635
 20
112.8306296679
 10
208.7785947623
 20
112.4247325928
 10
208.8927754635
 20
112.0188355176
 10
209.2179345905
 20
111.6747325928
 10
209.7045696138
 20
111.4448103691
 10
210.2785947623
 20
111.364072421
  0
SPLINE
  5
12C
330
1F
100
AcDbEntity
  8
0
  6
HIDDEN
 62
     7
370
     0
100
AcDbSpline
210
0.0
220
0.0
230
1.0
 70
     8
 71
     3
 72
    10
 73
     6
 74
     0
 42
0.00000001
 43
0.00000001
 40
0.0
 40
0.0
 40
0.0
 40
0.0
 40
0.5
 40
0.5
 40
1.0
 40
1.0
 40
1.0
 40
1.0
 10
208.798139057953
 20
111.3576286008443
 30
0.0
 10
208.7881568126621
 20
111.4195469992866
 30
0.0
 10
208.7815861824187
 20
111.4764483227344
 30
0.0
 10
208.7772010339237
 20
111.5792496790695
 30
0.0
 10
208.7795486789468
 20
111.6219789320504
 30
0.0
 10
208.7860608639326
 20
111.6561692081503
 30
0.0
  0
SPLINE
  5
12D
330
1F
100
AcDbEntity
  8
0
  6
HIDDEN
 62
     7
370
     0
100
AcDbSpline
210
0.0
220
0.0
230
1.0
 70
     8
 71
     3
 72
    18
 73
    14
 74
     0
 42
0.00000001
 43
0.00000001
 40
0.0
 40
0.0
 40
0.0
 40
0.0
 40
0.0196114411167778
 40
0.1648741297061541
 40
0.2236902984682679
 40
0.2831430743180826
 40
0.3347406426486602
 40
0.3933560174137551
 40
0.4938616378942771
 40
0.6439170356198006
 40
0.7947426143055197
 40
0.9415561435747137
 40
0.9999999999999999
 40
0.9999999999999999
 40
0.9999999999999999
 40
0.9999999999999999
 10
208.80923079794
 20
111.7157161254164
 30
0.0
 10
208.8105454889697
 20
111.7193432711957
 30
0.0
 10
208.8215981463466
 20
111.7498368234095
 30
0.0
 10
208.8483506965918
 20
111.7499716755739
 30
0.0
 10
208.8718938675778
 20
111.7252839865977
 30
0.0
 10
208.8808350481229
 20
111.6847722147907
 30
0.0
 10
208.8761046090456
 20
111.6181225474801
 30
0.0
 10
208.8577963944222
 20
111.5212023036761
 30
0.0
 10
208.8238430472498
 20
111.3758446683911
 30
0.0
 10
208.7873672653407
 20
111.1938453371774
 30
0.0
 10
208.7740673013961
 20
111.0229957807401
 30
0.0
 10
208.78540264249
 20
110.914838727226
 30
0.0
 10
208.8046411614912
 20
110.8902791278166
 30
0.0
 10
208.8101190313303
 20
110.8832861628771
 30
0.0
  0
LWPOLYLINE
  5
12E
330
1F
100
AcDbEntity
  8
0
  6
HIDDEN
 62
     7
370
     0
100
AcDbPolyline
 90
        8
 70
   128
 43
0.0
 10
208.8335520548
 20
110.846711364
 10
208.858870895
 20
110.8456387095
 10
208.8737314977
 20
110.8675568473
 10
208.8787107744
 20
110.9022774067
 10
208.8759301876
 20
110.9522835402
 10
208.862638559
 20
111.0341943514
 10
208.8309324612
 20
111.1856135895
 10
208.798139058
 20
111.3576286008
  0
SPLINE
  5
12F
330
1F
100
AcDbEntity
  8
0
  6
HIDDEN
 62
     7
370
     0
100
AcDbSpline
210
0.0
220
0.0
230
1.0
 70
     8
 71
     3
 72
    14
 73
    10
 74
     0
 42
0.00000001
 43
0.00000001
 40
0.0
 40
0.0
 40
0.0
 40
0.0
 40
0.25
 40
0.25
 40
0.5
 40
0.5
 40
0.75
 40
0.75
 40
1.0
 40
1.0
 40
1.0
 40
1.0
 10
209.2848445563638
 20
111.7102788081979
 30
0.0
 10
209.2502801299613
 20
111.7467382019678
 30
0.0
 10
209.2168899262132
 20
111.7817107331948
 30
0.0
 10
209.1612931805484
 20
111.8602971213857
 30
0.0
 10
209.1381608528181
 20
111.9053068187908
 30
0.0
 10
209.149597142351
 20
112.0485591998294
 30
0.0
 10
209.1806407229024
 20
112.133727527588
 30
0.0
 10
209.2474968318427
 20
112.2957234173431
 30
0.0
 10
209.2854989602029
 20
112.3758141678652
 30
0.0
 10
209.3248526244545
 20
112.4544568643688
 30
0.0
  0
SPLINE
  5
130
330
1F
100
AcDbEntity
  8
0
  6
HIDDEN
 62
     7
370
     0
100
AcDbSpline
210
0.0
220
0.0
230
1.0
 70
     8
 71
     3
 72
    14
 73
    10
 74
     0
 42
0.00000001
 43
0.00000001
 40
0.0
 40
0.0
 40
0.0
 40
0.0
 40
0.25
 40
0.25
 40
0.5
 40
0.5
 40
0.75
 40
0.75
 40
1.0
 40
1.0
 40
1.0
 40
1.0
 10
209.3248526244566
 20
112.4544568643703
 30
0.0
 10
209.3625996020438
 20
112.4213411924466
 30
0.0
 10
209.3956987942441
 20
112.3806715346821
 30
0.0
 10
209.4416692481506
 20
112.2794008519853
 30
0.0
 10
209.452897219072
 20
112.2207552723086
 30
0.0
 10
209.4440433176542
 20
112.0870835234803
 30
0.0
 10
209.4240238678793
 20
112.0145955573153
 30
0.0
 10
209.3644661740129
 20
111.8643129847038
 30
0.0
 10
209.3262999707116
 20
111.7882747885443
 30
0.0
 10
209.2848445563639
 20
111.710278808198
 30
0.0
  0
ARC
  5
131
330
1F
100
AcDbEntity
  8
0
  6
HIDDEN
 62
     7
370
     0
100
AcDbCircle
 10
225.4149276811
 20
111.2162671284
 30
0.0
 40
16.13764633239527
100
AcDbArc
 50
175.5995541952
 51
178.2457660564
  0
SPLINE
  5
132
330
1F
100
AcDbEntity
  8
0
  6
HIDDEN
 62
     7
370
     0
100
AcDbSpline
210
0.0
220
0.0
230
1.0
 70
     8
 71
     3
 72
     8
 73
     4
 74
     0
 42
0.00000001
 43
0.00000001
 40
0.0
 40
0.0
 40
0.0
 40
0.0
 40
0.000159097695343
 40
0.000159097695343
 40
0.000159097695343
 40
0.000159097695343
 10
54.66376277153255
 20
89.5521743448608
 30
0.0
 10
54.61871130102821
 20
89.52419546053703
 30
0.0
 10
54.5736552626134
 20
89.49622393016196
 30
0.0
 10
54.52859476231453
 20
89.46825959080944
 30
0.0
  0
SPLINE
  5
133
330
1F
100
AcDbEntity
  8
0
  6
HIDDEN
 62
     7
370
     0
100
AcDbSpline
210
0.0
220
0.0
230
1.0
 70
     8
 71
     3
 72
    11
 73
     7
 74
     0
 42
0.00000001
 43
0.00000001
 40
0.0
 40
0.0
 40
0.0
 40
0.0
 40
0.0008212909311456
 40
0.0008212909311456
 40
0.0008212909311456
 40
0.001642825724306
 40
0.001642825724306
 40
0.001642825724306
 40
0.001642825724306
 10
54.52859476231453
 20
89.46825959080944
 30
0.0
 10
54.33744974083235
 20
89.42497340195688
 30
0.0
 10
54.14603140515588
 20
89.38403689231961
 30
0.0
 10
53.95438533049474
 20
89.34543512093302
 30
0.0
 10
53.76268224895314
 20
89.30682186709593
 30
0.0
 10
53.57073712566762
 20
89.27054165780993
 30
0.0
 10
53.37859476231445
 20
89.2365747514584
 30
0.0
  0
ARC
  5
134
330
1F
100
AcDbEntity
  8
0
  6
HIDDEN
 62
     7
370
     0
100
AcDbCircle
 10
196.2661835504
 20
111.2188489616
 30
0.0
 40
13.06484575755283
100
AcDbArc
 50
355.1809346774
 51
358.2381039881
  0
LINE
  5
135
330
1F
100
AcDbEntity
  8
0
  6
HIDDEN
 62
     7
370
     0
100
AcDbLine
 10
101.3685947623
 20
125.4895314124
 30
0.0
 11
101.3685947623
 21
125.2036647809
 31
0.0
  0
LINE
  5
136
330
1F
100
AcDbEntity
  8
0
  6
HIDDEN
 62
     7
370
     0
100
AcDbLine
 10
105.1885947623
 20
125.5348107935
 30
0.0
 11
105.1885947623
 21
125.2036647809
 31
0.0
  0
LINE
  5
137
330
1F
100
AcDbEntity
  8
0
  6
HIDDEN
 62
     7
370
     0
100
AcDbLine
 10
106.6705275938
 20
129.8123544433
 30
0.0
 11
106.6705275938
 21
125.2036647809
 31
0.0
  0
SPLINE
  5
138
330
1F
100
AcDbEntity
  8
0
  6
HIDDEN
 62
     7
370
     0
100
AcDbSpline
210
0.0
220
0.0
230
1.0
 70
     8
 71
     3
 72
    24
 73
    20
 74
     0
 42
0.00000001
 43
0.00000001
 40
0.0
 40
0.0
 40
0.0
 40
0.0
 40
0.25
 40
0.25
 40
0.374999999999999
 40
0.374999999999999
 40
0.4374999999999993
 40
0.4374999999999993
 40
0.4687499999999994
 40
0.4687499999999994
 40
0.4999999999999995
 40
0.4999999999999995
 40
0.5624999999999971
 40
0.5624999999999971
 40
0.6249999999999947
 40
0.6249999999999947
 40
0.7499999999999947
 40
0.7499999999999947
 40
1.0
 40
1.0
 40
1.0
 40
1.0
 10
53.44125813703793
 20
85.67911223611172
 30
0.0
 10
53.45501125570817
 20
85.749762294102
 30
0.0
 10
53.47278382311403
 20
85.81636040686693
 30
0.0
 10
53.5250349146694
 20
85.89045842710014
 30
0.0
 10
53.54606999025094
 20
85.91171623426169
 30
0.0
 10
53.59897039787939
 20
85.91986216040793
 30
0.0
 10
53.62007607075731
 20
85.91892235701216
 30
0.0
 10
53.66612823943526
 20
85.89790636543482
 30
0.0
 10
53.68449871141866
 20
85.8869975593272
 30
0.0
 10
53.72605034648436
 20
85.85436264837983
 30
0.0
 10
53.74861701924127
 20
85.83287066800845
 30
0.0
 10
53.81139803570129
 20
85.76440472442215
 30
0.0
 10
53.84452779666918
 20
85.71833026621705
 30
0.0
 10
53.90144548315421
 20
85.6333223778824
 30
0.0
 10
53.92563150865798
 20
85.59304207670101
 30
0.0
 10
53.99083945903774
 20
85.47810585023507
 30
0.0
 10
54.02555551922897
 20
85.40752286508805
 30
0.0
 10
54.11877078955985
 20
85.20331710600945
 30
0.0
 10
54.16444332492053
 20
85.08041872368209
 30
0.0
 10
54.20274840841907
 20
84.9635454472945
 30
0.0
  0
SPLINE
  5
139
330
1F
100
AcDbEntity
  8
0
  6
HIDDEN
 62
     7
370
     0
100
AcDbSpline
210
0.0
220
0.0
230
1.0
 70
     8
 71
     3
 72
    11
 73
     7
 74
     0
 42
0.00000001
 43
0.00000001
 40
0.0
 40
0.0
 40
0.0
 40
0.0
 40
0.0005781862223978
 40
0.0005781862223978
 40
0.0005781862223978
 40
0.0011563724723928
 40
0.0011563724723928
 40
0.0011563724723928
 40
0.0011563724723928
 10
54.37859476231452
 20
117.9938070879392
 30
0.0
 10
54.21193420803891
 20
118.0583365993528
 30
0.0
 10
54.04527091113243
 20
118.1228393031966
 30
0.0
 10
53.87860432730218
 20
118.1873257516302
 30
0.0
 10
53.71193773504309
 20
118.2518122033252
 30
0.0
 10
53.54526786941722
 20
118.3162822120533
 30
0.0
 10
53.37859476231449
 20
118.3807379787859
 30
0.0
  0
SPLINE
  5
13A
330
1F
100
AcDbEntity
  8
0
  6
HIDDEN
 62
     7
370
     0
100
AcDbSpline
210
0.0
220
0.0
230
1.0
 70
     8
 71
     3
 72
    11
 73
     7
 74
     0
 42
0.00000001
 43
0.00000001
 40
0.0
 40
0.0
 40
0.0
 40
0.0
 40
0.0005778746105108
 40
0.0005778746105108
 40
0.0005778746105108
 40
0.0011557494857226
 40
0.0011557494857226
 40
0.0011557494857226
 40
0.0011557494857226
 10
53.37859476231451
 20
92.32644292540257
 30
0.0
 10
53.54526163872783
 20
92.39225505209643
 30
0.0
 10
53.71192835828931
 20
92.45811353223402
 30
0.0
 10
53.87859500633795
 20
92.52402110516466
 30
0.0
 10
54.04526173085661
 20
92.58992870833504
 30
0.0
 10
54.21192842527719
 20
92.65588581672354
 30
0.0
 10
54.37859476231452
 20
92.72188755664625
 30
0.0
  0
SPLINE
  5
13B
330
1F
100
AcDbEntity
  8
0
  6
HIDDEN
 62
     7
370
     0
100
AcDbSpline
210
0.0
220
0.0
230
1.0
 70
     8
 71
     3
 72
    11
 73
     7
 74
     0
 42
0.00000001
 43
0.00000001
 40
0.0000000000000006
 40
0.0000000000000006
 40
0.0000000000000006
 40
0.0000000000000006
 40
0.0005780486062768
 40
0.0005780486062768
 40
0.0005780486062768
 40
0.0011560973514127
 40
0.0011560973514127
 40
0.0011560973514127
 40
0.0011560973514127
 10
53.37859476231451
 20
115.3344792825842
 30
0.0
 10
53.54526461835943
 20
115.2721074210697
 30
0.0
 10
53.71193232244369
 20
115.209753560772
 30
0.0
 10
53.87859862689734
 20
115.1474340005859
 30
0.0
 10
54.04526496759107
 20
115.085114426849
 30
0.0
 10
54.21192992421986
 20
115.0228292225294
 30
0.0
 10
54.37859476231452
 20
114.9606041019608
 30
0.0
  0
SPLINE
  5
13C
330
1F
100
AcDbEntity
  8
0
  6
HIDDEN
 62
     7
370
     0
100
AcDbSpline
210
0.0
220
0.0
230
1.0
 70
     8
 71
     3
 72
    11
 73
     7
 74
     0
 42
0.00000001
 43
0.00000001
 40
0.0
 40
0.0
 40
0.0
 40
0.0
 40
0.0005782401583533
 40
0.0005782401583533
 40
0.0005782401583533
 40
0.0011564805960992
 40
0.0011564805960992
 40
0.0011564805960992
 40
0.0011564805960992
 10
54.37859476231452
 20
95.7528379884948
 30
0.0
 10
54.21194381196562
 20
95.68941253043401
 30
0.0
 10
54.04528421938296
 20
95.62605700677874
 30
0.0
 10
53.8786171669544
 20
95.56275942242875
 30
0.0
 10
53.71195003039059
 20
95.49946180612551
 30
0.0
 10
53.54527542294454
 20
95.43622201118484
 30
0.0
 10
53.37859476231446
 20
95.373022004546
 30
0.0
  0
CIRCLE
  5
13D
330
1F
100
AcDbEntity
  8
0
  6
HIDDEN
 62
     7
370
     0
100
AcDbCircle
 10
92.2785947623
 20
105.3536647809
 30
0.0
 40
5.0
  0
LWPOLYLINE
  5
13E
330
1F
100
AcDbEntity
  8
0
  6
HIDDEN
 62
     7
370
     0
100
AcDbPolyline
 90
       17
 70
   128
 43
0.0
 10
239.8632799215
 20
98.8038699439
 10
239.8481297171
 20
98.7653810186
 10
239.8275217068
 20
98.9532240464
 10
239.8045932734
 20
99.3388016291
 10
239.782835063
 20
99.8634130749
 10
239.7655595659
 20
100.4471910469
 10
239.7553968198
 20
101.0012606408
 10
239.7538940109
 20
101.4412697836
 10
239.7612799281
 20
101.7002310719
 10
239.7764301325
 20
101.7387199971
 10
239.7970381428
 20
101.5508769693
 10
239.8199665762
 20
101.1652993866
 10
239.8417247866
 20
100.6406879408
 10
239.8590002838
 20
100.0569099688
 10
239.8691630298
 20
99.5028403749
 10
239.8706658387
 20
99.0628312322
 10
239.8632799215
 20
98.8038699439
  0
LWPOLYLINE
  5
13F
330
1F
100
AcDbEntity
  8
0
  6
HIDDEN
 62
     7
370
     0
100
AcDbPolyline
 90
       17
 70
   128
 43
0.0
 10
239.3466654045
 20
99.2727163576
 10
239.3365652682
 20
99.2470570741
 10
239.3228265947
 20
99.3722857593
 10
239.3075409724
 20
99.629337481
 10
239.2930354988
 20
99.9790784449
 10
239.2815185007
 20
100.3682637596
 10
239.2747433367
 20
100.7376434889
 10
239.2737414641
 20
101.0309829173
 10
239.2786654089
 20
101.2036237762
 10
239.2887655451
 20
101.2292830597
 10
239.3025042187
 20
101.1040543745
 10
239.3177898409
 20
100.8470026527
 10
239.3322953146
 20
100.4972616888
 10
239.3438123127
 20
100.1080763742
 10
239.3505874767
 20
99.7386966449
 10
239.3515893493
 20
99.4453572164
 10
239.3466654045
 20
99.2727163576
  0
LWPOLYLINE
  5
140
330
1F
100
AcDbEntity
  8
0
  6
HIDDEN
 62
     7
370
     0
100
AcDbPolyline
 90
       17
 70
   128
 43
0.0
 10
245.1972177254
 20
98.95205901
 10
245.182067521
 20
98.9135700847
 10
245.1614595107
 20
99.1014131125
 10
245.1385310773
 20
99.4869906952
 10
245.1167728669
 20
100.011602141
 10
245.0994973697
 20
100.595380113
 10
245.0893346237
 20
101.1494497069
 10
245.0878318148
 20
101.5894588497
 10
245.095217732
 20
101.848420138
 10
245.1103679364
 20
101.8869090632
 10
245.1309759467
 20
101.6990660354
 10
245.1539043801
 20
101.3134884527
 10
245.1756625905
 20
100.7888770069
 10
245.1929380877
 20
100.2050990349
 10
245.2031008337
 20
99.651029441
 10
245.2046036426
 20
99.2110202983
 10
245.1972177254
 20
98.95205901
  0
ARC
  5
141
330
1F
100
AcDbEntity
  8
0
  6
HIDDEN
 62
     7
370
     0
100
AcDbCircle
 10
258.7515419057
 20
100.7602358489
 30
0.0
 40
13.50000978816716
100
AcDbArc
 50
176.3714903392
 51
186.6915291025
  0
LINE
  5
142
330
1F
100
AcDbEntity
  8
0
  6
HIDDEN
 62
     7
370
     0
100
AcDbLine
 10
243.3390264135
 20
100.1254785919
 30
0.0
 11
243.3390264135
 21
99.5131061562
 31
0.0
  0
LINE
  5
143
330
1F
100
AcDbEntity
  8
0
  6
HIDDEN
 62
     7
370
     0
100
AcDbLine
 10
245.337484486
 20
100.1810003558
 30
0.0
 11
245.337484486
 21
99.5686279201
 31
0.0
  0
LINE
  5
144
330
1F
100
AcDbEntity
  8
0
  6
HIDDEN
 62
     7
370
     0
100
AcDbLine
 10
243.3390264135
 20
100.1254785919
 30
0.0
 11
245.337484486
 21
100.1810003558
 31
0.0
  0
LINE
  5
145
330
1F
100
AcDbEntity
  8
0
  6
HIDDEN
 62
     7
370
     0
100
AcDbLine
 10
243.3390264135
 20
100.1254785919
 30
0.0
 11
243.3095815517
 21
100.9615860304
 31
0.0
  0
LINE
  5
146
330
1F
100
AcDbEntity
  8
0
  6
HIDDEN
 62
     7
370
     0
100
AcDbLine
 10
245.337484486
 20
100.1810003558
 30
0.0
 11
245.3080396241
 21
101.0171077943
 31
0.0
  0
LINE
  5
147
330
1F
100
AcDbEntity
  8
0
  6
HIDDEN
 62
     7
370
     0
100
AcDbLine
 10
243.3095815517
 20
100.9615860304
 30
0.0
 11
245.3080396241
 21
101.0171077943
 31
0.0
  0
LINE
  5
148
330
1F
100
AcDbEntity
  8
0
  6
HIDDEN
 62
     7
370
     0
100
AcDbLine
 10
243.3095815517
 20
100.9615860304
 30
0.0
 11
243.2801366898
 21
101.1853210332
 31
0.0
  0
LINE
  5
149
330
1F
100
AcDbEntity
  8
0
  6
HIDDEN
 62
     7
370
     0
100
AcDbLine
 10
245.3080396241
 20
101.0171077943
 30
0.0
 11
245.2785947623
 21
101.2408427971
 31
0.0
  0
LINE
  5
14A
330
1F
100
AcDbEntity
  8
0
  6
HIDDEN
 62
     7
370
     0
100
AcDbLine
 10
243.3095815517
 20
99.736841159
 30
0.0
 11
245.3080396241
 21
99.7923629229
 31
0.0
  0
LINE
  5
14B
330
1F
100
AcDbEntity
  8
0
  6
HIDDEN
 62
     7
370
     0
100
AcDbLine
 10
243.3390264135
 20
99.5131061562
 30
0.0
 11
245.337484486
 21
99.5686279201
 31
0.0
  0
LINE
  5
14C
330
1F
100
AcDbEntity
  8
0
  6
HIDDEN
 62
     7
370
     0
100
AcDbLine
 10
243.3095815517
 20
99.736841159
 30
0.0
 11
243.3390264135
 21
99.5131061562
 31
0.0
  0
LINE
  5
14D
330
1F
100
AcDbEntity
  8
0
  6
HIDDEN
 62
     7
370
     0
100
AcDbLine
 10
245.3080396241
 20
99.7923629229
 30
0.0
 11
245.337484486
 21
99.5686279201
 31
0.0
  0
LINE
  5
14E
330
1F
100
AcDbEntity
  8
0
  6
HIDDEN
 62
     7
370
     0
100
AcDbLine
 10
243.2801366898
 20
100.5729485975
 30
0.0
 11
245.2785947623
 21
100.6284703614
 31
0.0
  0
LINE
  5
14F
330
1F
100
AcDbEntity
  8
0
  6
HIDDEN
 62
     7
370
     0
100
AcDbLine
 10
243.2801366898
 20
101.1853210332
 30
0.0
 11
245.2785947623
 21
101.2408427971
 31
0.0
  0
LINE
  5
150
330
1F
100
AcDbEntity
  8
0
  6
HIDDEN
 62
     7
370
     0
100
AcDbLine
 10
243.2801366898
 20
100.5729485975
 30
0.0
 11
243.2801366898
 21
101.1853210332
 31
0.0
  0
LINE
  5
151
330
1F
100
AcDbEntity
  8
0
  6
HIDDEN
 62
     7
370
     0
100
AcDbLine
 10
243.3095815517
 20
99.736841159
 30
0.0
 11
243.2801366898
 21
100.5729485975
 31
0.0
  0
LINE
  5
152
330
1F
100
AcDbEntity
  8
0
  6
HIDDEN
 62
     7
370
     0
100
AcDbLine
 10
245.3080396241
 20
99.7923629229
 30
0.0
 11
245.2785947623
 21
100.6284703614
 31
0.0
  0
LWPOLYLINE
  5
153
330
1F
100
AcDbEntity
  8
0
  6
HIDDEN
 62
     7
370
     0
100
AcDbPolyline
 90
        9
 70
   128
 43
0.0
 10
245.2785947623
 20
111.0013890134
 10
245.2674751492
 20
110.7398236744
 10
245.2522258372
 20
110.2710365549
 10
245.2422665914
 20
109.8071429013
 10
245.2391136167
 20
109.4187663172
 10
245.2432469249
 20
109.1650336167
 10
245.2540372574
 20
109.0845733035
 10
245.2698418837
 20
109.1896347308
 10
245.2785947623
 20
109.3033727481
  0
LWPOLYLINE
  5
154
330
1F
100
AcDbEntity
  8
0
  6
HIDDEN
 62
     7
370
     0
100
AcDbPolyline
 90
       17
 70
   128
 43
0.0
 10
245.1678923828
 20
110.3472114122
 10
245.1801423776
 20
110.9178063121
 10
245.1840205753
 20
111.3955142877
 10
245.1789365553
 20
111.7076086302
 10
245.1656643137
 20
111.8065758051
 10
245.1462244289
 20
111.6773489572
 10
245.1235764471
 20
111.3396017026
 10
245.1011683184
 20
110.8447529992
 10
245.082411477
 20
110.2681390761
 10
245.0701614822
 20
109.6975441763
 10
245.0662832846
 20
109.2198362007
 10
245.0713673046
 20
108.9077418581
 10
245.0846395462
 20
108.8087746832
 10
245.104079431
 20
108.9380015311
 10
245.1267274127
 20
109.2757487857
 10
245.1491355415
 20
109.7705974892
 10
245.1678923828
 20
110.3472114122
  0
LWPOLYLINE
  5
155
330
1F
100
AcDbEntity
  8
0
  6
HIDDEN
 62
     7
370
     0
100
AcDbPolyline
 90
       17
 70
   128
 43
0.0
 10
239.8339545789
 20
110.4954004783
 10
239.8462045737
 20
111.0659953782
 10
239.8500827714
 20
111.5437033538
 10
239.8449987514
 20
111.8557976963
 10
239.8317265098
 20
111.9547648712
 10
239.812286625
 20
111.8255380233
 10
239.7896386432
 20
111.4877907687
 10
239.7672305145
 20
110.9929420653
 10
239.7484736732
 20
110.4163281422
 10
239.7362236783
 20
109.8457332424
 10
239.7323454807
 20
109.3680252668
 10
239.7374295007
 20
109.0559309242
 10
239.7507017423
 20
108.9569637493
 10
239.7701416271
 20
109.0861905972
 10
239.7927896088
 20
109.4239378518
 10
239.8151977376
 20
109.9187865553
 10
239.8339545789
 20
110.4954004783
  0
LWPOLYLINE
  5
156
330
1F
100
AcDbEntity
  8
0
  6
HIDDEN
 62
     7
370
     0
100
AcDbPolyline
 90
       17
 70
   128
 43
0.0
 10
239.3200932432
 20
110.4961021966
 10
239.3282599064
 20
110.8764987965
 10
239.3308453715
 20
111.1949707803
 10
239.3274560248
 20
111.4030336753
 10
239.3186078638
 20
111.4690117919
 10
239.3056479406
 20
111.38286056
 10
239.2905492861
 20
111.1576957236
 10
239.2756105335
 20
110.8277965879
 10
239.2631059727
 20
110.4433873059
 10
239.2549393094
 20
110.062990706
 10
239.2523538444
 20
109.7445187222
 10
239.255743191
 20
109.5364558272
 10
239.2645913521
 20
109.4704777106
 10
239.2775512753
 20
109.5566289426
 10
239.2926499298
 20
109.781793779
 10
239.3075886823
 20
110.1116929146
 10
239.3200932432
 20
110.4961021966
  0
LINE
  5
157
330
1F
100
AcDbEntity
  8
0
  6
HIDDEN
 62
     7
370
     0
100
AcDbLine
 10
245.2785947623
 20
110.6607849368
 30
0.0
 11
245.2622976134
 21
110.2803532423
 31
0.0
  0
LINE
  5
158
330
1F
100
AcDbEntity
  8
0
  6
HIDDEN
 62
     7
370
     0
100
AcDbLine
 10
245.2543795275
 20
109.5423160704
 30
0.0
 11
245.2622976134
 21
110.2803532423
 31
0.0
  0
LINE
  5
159
330
1F
100
AcDbEntity
  8
0
  6
HIDDEN
 62
     7
370
     0
100
AcDbLine
 10
245.2785947623
 20
109.5647158704
 30
0.0
 11
245.2543795275
 21
109.5423160704
 31
0.0
  0
LINE
  5
15A
330
1F
100
AcDbEntity
  8
0
  6
HIDDEN
 62
     7
370
     0
100
AcDbLine
 10
243.2638395409
 20
110.3358750062
 30
0.0
 11
245.2622976134
 21
110.2803532423
 31
0.0
  0
LINE
  5
15B
330
1F
100
AcDbEntity
  8
0
  6
HIDDEN
 62
     7
370
     0
100
AcDbLine
 10
243.280597667
 20
109.6206640516
 30
0.0
 11
243.3131919649
 21
110.3815274407
 31
0.0
  0
LINE
  5
15C
330
1F
100
AcDbEntity
  8
0
  6
HIDDEN
 62
     7
370
     0
100
AcDbLine
 10
243.280597667
 20
109.6206640516
 30
0.0
 11
243.255921455
 21
109.5978378343
 31
0.0
  0
LINE
  5
15D
330
1F
100
AcDbEntity
  8
0
  6
HIDDEN
 62
     7
370
     0
100
AcDbLine
 10
243.3211100507
 20
111.1195646126
 30
0.0
 11
243.2964338388
 21
111.0967383953
 31
0.0
  0
LINE
  5
15E
330
1F
100
AcDbEntity
  8
0
  6
HIDDEN
 62
     7
370
     0
100
AcDbLine
 10
243.3211100507
 20
111.1195646126
 30
0.0
 11
243.3131919649
 21
110.3815274407
 31
0.0
  0
LINE
  5
15F
330
1F
100
AcDbEntity
  8
0
  6
HIDDEN
 62
     7
370
     0
100
AcDbLine
 10
243.255921455
 20
109.5978378343
 30
0.0
 11
243.2638395409
 21
110.3358750062
 31
0.0
  0
LINE
  5
160
330
1F
100
AcDbEntity
  8
0
  6
HIDDEN
 62
     7
370
     0
100
AcDbLine
 10
243.2964338388
 20
111.0967383953
 30
0.0
 11
243.2638395409
 21
110.3358750062
 31
0.0
  0
LINE
  5
161
330
1F
100
AcDbEntity
  8
0
  6
HIDDEN
 62
     7
370
     0
100
AcDbLine
 10
243.2964338388
 20
111.0967383953
 30
0.0
 11
245.2948919112
 21
111.0412166314
 31
0.0
  0
LINE
  5
162
330
1F
100
AcDbEntity
  8
0
  6
HIDDEN
 62
     7
370
     0
100
AcDbLine
 10
243.280597667
 20
109.6206640516
 30
0.0
 11
245.2785947623
 21
109.5651550947
 31
0.0
  0
LINE
  5
163
330
1F
100
AcDbEntity
  8
0
  6
HIDDEN
 62
     7
370
     0
100
AcDbLine
 10
243.255921455
 20
109.5978378343
 30
0.0
 11
245.2543795275
 21
109.5423160704
 31
0.0
  0
LINE
  5
164
330
1F
100
AcDbEntity
  8
0
  6
HIDDEN
 62
     7
370
     0
100
AcDbLine
 10
243.3131919649
 20
110.3815274407
 30
0.0
 11
245.2785947623
 21
110.3269240284
 31
0.0
  0
LINE
  5
165
330
1F
100
AcDbEntity
  8
0
  6
HIDDEN
 62
     7
370
     0
100
AcDbLine
 10
243.3211100507
 20
111.1195646126
 30
0.0
 11
245.3195681232
 21
111.0640428487
 31
0.0
  0
ARC
  5
166
330
1F
100
AcDbEntity
  8
0
  6
HIDDEN
 62
     7
370
     0
100
AcDbCircle
 10
227.7785947623
 20
105.3536647809
 30
0.0
 40
3.399999999999999
100
AcDbArc
 50
344.0180691499
 51
9.0100181789
  0
CIRCLE
  5
167
330
1F
100
AcDbEntity
  8
0
  6
HIDDEN
 62
     7
370
     0
100
AcDbCircle
 10
227.7785947623
 20
105.3536647809
 30
0.0
 40
3.999999999999996
  0
CIRCLE
  5
168
330
1F
100
AcDbEntity
  8
0
  6
HIDDEN
 62
     7
370
     0
100
AcDbCircle
 10
227.7785947623
 20
105.3536647809
 30
0.0
 40
1.849999999999993
  0
CIRCLE
  5
169
330
1F
100
AcDbEntity
  8
0
  6
HIDDEN
 62
     7
370
     0
100
AcDbCircle
 10
227.7785947623
 20
105.3536647809
 30
0.0
 40
2.749999999999985
  0
LINE
  5
16A
330
1F
100
AcDbEntity
  8
0
  6
HIDDEN
 62
     7
370
     0
100
AcDbLine
 10
89.2785947623
 20
119.6514999306
 30
0.0
 11
89.2785947623
 21
117.7476054238
 31
0.0
  0
LINE
  5
16B
330
1F
100
AcDbEntity
  8
0
  6
HIDDEN
 62
     7
370
     0
100
AcDbLine
 10
97.2785947623
 20
117.7476054238
 30
0.0
 11
97.2785947623
 21
119.6542952866
 31
0.0
  0
LINE
  5
16C
330
1F
100
AcDbEntity
  8
0
  6
HIDDEN
 62
     7
370
     0
100
AcDbLine
 10
85.2785947623
 20
80.0297336349
 30
0.0
 11
85.3727555378
 21
80.6997223661
 31
0.0
  0
LINE
  5
16D
330
1F
100
AcDbEntity
  8
0
  6
HIDDEN
 62
     7
370
     0
100
AcDbLine
 10
85.3727555378
 20
130.0076071956
 30
0.0
 11
85.2785947623
 21
130.6775959269
 31
0.0
  0
ARC
  5
16E
330
1F
100
AcDbEntity
  8
0
  6
HIDDEN
 62
     7
370
     0
100
AcDbCircle
 10
84.7785880096
 20
80.7832271665
 30
0.0
 40
0.6000067526677323
100
AcDbArc
 50
352.0
 51
0.0
  0
ARC
  5
16F
330
1F
100
AcDbEntity
  8
0
  6
HIDDEN
 62
     7
370
     0
100
AcDbCircle
 10
84.7785880096
 20
80.7832271665
 30
0.0
 40
0.6000067526677242
100
AcDbArc
 50
0.0
 51
33.5571153394
  0
ARC
  5
170
330
1F
100
AcDbEntity
  8
0
  6
HIDDEN
 62
     7
370
     0
100
AcDbCircle
 10
84.7785880096
 20
129.9241023953
 30
0.0
 40
0.6000067526677323
100
AcDbArc
 50
348.75
 51
8.0
  0
LWPOLYLINE
  5
171
330
1F
100
AcDbEntity
  8
0
  6
HIDDEN
 62
     7
370
     0
100
AcDbPolyline
 90
        3
 70
   128
 43
0.0
 10
85.3670658008
 20
129.8070468847
 10
85.3329219678
 20
129.6944897517
 10
85.2785947623
 20
129.5924378802
  0
LINE
  5
172
330
1F
100
AcDbEntity
  8
0
  6
HIDDEN
 62
     7
370
     0
100
AcDbLine
 10
85.3785947623
 20
80.7832271665
 30
0.0
 11
85.3785947623
 21
129.9241023953
 31
0.0
  0
ARC
  5
173
330
1F
100
AcDbEntity
  8
0
  6
HIDDEN
 62
     7
370
     0
100
AcDbCircle
 10
79.0335967639
 20
93.3536647809
 30
0.0
 40
8.000000000000005
100
AcDbArc
 50
277.0401394428
 51
321.3178125465
  0
ARC
  5
174
330
1F
100
AcDbEntity
  8
0
  6
HIDDEN
 62
     7
370
     0
100
AcDbCircle
 10
79.0335967639
 20
117.3536647809
 30
0.0
 40
8.000000000000009
100
AcDbArc
 50
38.6821874535
 51
82.9413570988
  0
ARC
  5
175
330
1F
100
AcDbEntity
  8
0
  6
HIDDEN
 62
     7
370
     0
100
AcDbCircle
 10
68.3610303276
 20
85.9536647809
 30
0.0
 40
0.6000000000000155
100
AcDbArc
 50
210.0
 51
270.0
  0
ARC
  5
176
330
1F
100
AcDbEntity
  8
0
  6
HIDDEN
 62
     7
370
     0
100
AcDbCircle
 10
68.3610303276
 20
124.7536647809
 30
0.0
 40
0.6000000000000155
100
AcDbArc
 50
90.0
 51
150.0
  0
LINE
  5
177
330
1F
100
AcDbEntity
  8
0
  6
HIDDEN
 62
     7
370
     0
100
AcDbLine
 10
68.3610303276
 20
85.3536647809
 30
0.0
 11
72.538566904
 21
85.3536647809
 31
0.0
  0
LINE
  5
178
330
1F
100
AcDbEntity
  8
0
  6
HIDDEN
 62
     7
370
     0
100
AcDbLine
 10
72.538566904
 20
125.3536647809
 30
0.0
 11
68.3610303276
 21
125.3536647809
 31
0.0
  0
LINE
  5
179
330
1F
100
AcDbEntity
  8
0
  6
HIDDEN
 62
     7
370
     0
100
AcDbLine
 10
67.8414150853
 20
125.0536647809
 30
0.0
 11
66.2825693585
 21
122.3536647809
 31
0.0
  0
LINE
  5
17A
330
1F
100
AcDbEntity
  8
0
  6
HIDDEN
 62
     7
370
     0
100
AcDbLine
 10
66.2825693585
 20
88.3536647809
 30
0.0
 11
67.8414150853
 21
85.6536647809
 31
0.0
  0
LINE
  5
17B
330
1F
100
AcDbEntity
  8
0
  6
HIDDEN
 62
     7
370
     0
100
AcDbLine
 10
97.2785947623
 20
129.2992671955
 30
0.0
 11
97.2785947623
 21
132.6279945015
 31
0.0
  0
LINE
  5
17C
330
1F
100
AcDbEntity
  8
0
  6
HIDDEN
 62
     7
370
     0
100
AcDbLine
 10
89.2785947623
 20
132.6334650001
 30
0.0
 11
89.2785947623
 21
129.2992671955
 31
0.0
  0
ARC
  5
17D
330
1F
100
AcDbEntity
  8
0
  6
HIDDEN
 62
     7
370
     0
100
AcDbCircle
 10
93.7285947623
 20
89.6286647809
 30
0.0
 40
1.500000000000009
100
AcDbArc
 50
238.2116693829
 51
0.0
  0
ARC
  5
17E
330
1F
100
AcDbEntity
  8
0
  6
HIDDEN
 62
     7
370
     0
100
AcDbCircle
 10
93.7285947623
 20
121.0786647809
 30
0.0
 40
1.5
100
AcDbArc
 50
0.0
 51
121.7883306171
  0
LINE
  5
17F
330
1F
100
AcDbEntity
  8
0
  6
HIDDEN
 62
     7
370
     0
100
AcDbLine
 10
85.2785947623
 20
88.3536647809
 30
0.0
 11
92.9384207309
 21
88.3536647809
 31
0.0
  0
LINE
  5
180
330
1F
100
AcDbEntity
  8
0
  6
HIDDEN
 62
     7
370
     0
100
AcDbLine
 10
92.9384207309
 20
122.3536647809
 30
0.0
 11
85.2785947623
 21
122.3536647809
 31
0.0
  0
LINE
  5
181
330
1F
100
AcDbEntity
  8
0
  6
HIDDEN
 62
     7
370
     0
100
AcDbLine
 10
63.4785947623
 20
88.3536647809
 30
0.0
 11
66.2825693585
 21
88.3536647809
 31
0.0
  0
LINE
  5
182
330
1F
100
AcDbEntity
  8
0
  6
HIDDEN
 62
     7
370
     0
100
AcDbLine
 10
66.2825693585
 20
122.3536647809
 30
0.0
 11
59.4785947623
 21
122.3536647809
 31
0.0
  0
LINE
  5
183
330
1F
100
AcDbEntity
  8
0
  6
HIDDEN
 62
     7
370
     0
100
AcDbLine
 10
104.0785947623
 20
95.8536647809
 30
0.0
 11
107.0785947623
 21
95.8536647809
 31
0.0
  0
LINE
  5
184
330
1F
100
AcDbEntity
  8
0
  6
HIDDEN
 62
     7
370
     0
100
AcDbLine
 10
107.0785947623
 20
114.8536647809
 30
0.0
 11
104.0785947623
 21
114.8536647809
 31
0.0
  0
LINE
  5
185
330
1F
100
AcDbEntity
  8
0
  6
HIDDEN
 62
     7
370
     0
100
AcDbLine
 10
95.2285947623
 20
96.3536647809
 30
0.0
 11
95.7285947623
 21
96.8536647809
 31
0.0
  0
LINE
  5
186
330
1F
100
AcDbEntity
  8
0
  6
HIDDEN
 62
     7
370
     0
100
AcDbLine
 10
95.7285947623
 20
113.8536647809
 30
0.0
 11
95.2285947623
 21
114.3536647809
 31
0.0
  0
LINE
  5
187
330
1F
100
AcDbEntity
  8
0
  6
HIDDEN
 62
     7
370
     0
100
AcDbLine
 10
95.7285947623
 20
96.8536647809
 30
0.0
 11
104.0785947623
 21
96.8536647809
 31
0.0
  0
LINE
  5
188
330
1F
100
AcDbEntity
  8
0
  6
HIDDEN
 62
     7
370
     0
100
AcDbLine
 10
104.0785947623
 20
113.8536647809
 30
0.0
 11
95.7285947623
 21
113.8536647809
 31
0.0
  0
LINE
  5
189
330
1F
100
AcDbEntity
  8
0
  6
HIDDEN
 62
     7
370
     0
100
AcDbLine
 10
211.7785947623
 20
100.3560411625
 30
0.0
 11
211.7785947623
 21
102.396531677
 31
0.0
  0
LINE
  5
18A
330
1F
100
AcDbEntity
  8
0
  6
HIDDEN
 62
     7
370
     0
100
AcDbLine
 10
211.7785947623
 20
98.282596969
 30
0.0
 11
211.7785947623
 21
98.5905550315
 31
0.0
  0
LINE
  5
18B
330
1F
100
AcDbEntity
  8
0
  6
HIDDEN
 62
     7
370
     0
100
AcDbLine
 10
208.7785947623
 20
99.1439719063
 30
0.0
 11
208.7785947623
 21
98.282596969
 31
0.0
  0
LINE
  5
18C
330
1F
100
AcDbEntity
  8
0
  6
HIDDEN
 62
     7
370
     0
100
AcDbLine
 10
208.7785947623
 20
102.3142753773
 30
0.0
 11
208.7785947623
 21
99.670763997
 31
0.0
  0
LINE
  5
18D
330
1F
100
AcDbEntity
  8
0
  6
HIDDEN
 62
     7
370
     0
100
AcDbLine
 10
90.2285947623
 20
136.8536647809
 30
0.0
 11
90.2285947623
 21
131.7536647809
 31
0.0
  0
LINE
  5
18E
330
1F
100
AcDbEntity
  8
0
  6
HIDDEN
 62
     7
370
     0
100
AcDbLine
 10
211.4907632933
 20
98.2147312881
 30
0.0
 11
245.2785947623
 21
99.1534349955
 31
0.0
  0
LINE
  5
18F
330
1F
100
AcDbEntity
  8
0
  6
HIDDEN
 62
     7
370
     0
100
AcDbLine
 10
245.2785947623
 20
101.6543996297
 30
0.0
 11
211.4893509807
 21
100.7156566851
 31
0.0
  0
LINE
  5
190
330
1F
100
AcDbEntity
  8
0
  6
HIDDEN
 62
     7
370
     0
100
AcDbLine
 10
208.808351754
 20
99.8323044571
 30
0.0
 11
208.5558527361
 21
99.3836750364
 31
0.0
  0
LINE
  5
191
330
1F
100
AcDbEntity
  8
0
  6
HIDDEN
 62
     7
370
     0
100
AcDbLine
 10
208.5558527361
 20
99.3836750364
 30
0.0
 11
208.807743283
 21
98.9891165295
 31
0.0
  0
LINE
  5
192
330
1F
100
AcDbEntity
  8
0
  6
HIDDEN
 62
     7
370
     0
100
AcDbLine
 10
80.4630325928
 20
81.2742934473
 30
0.0
 11
80.0286004433
 21
81.7533594664
 31
0.0
  0
LINE
  5
193
330
1F
100
AcDbEntity
  8
0
  6
HIDDEN
 62
     7
370
     0
100
AcDbLine
 10
72.5285971182
 20
82.1750474256
 30
0.0
 11
72.0461633749
 21
81.6959814501
 31
0.0
  0
LINE
  5
194
330
1F
100
AcDbEntity
  8
0
  6
HIDDEN
 62
     7
370
     0
100
AcDbLine
 10
72.0460414466
 20
129.0113428212
 30
0.0
 11
72.5285921976
 21
128.5322225633
 31
0.0
  0
LINE
  5
195
330
1F
100
AcDbEntity
  8
0
  6
HIDDEN
 62
     7
370
     0
100
AcDbLine
 10
80.0285946443
 20
128.953920341
 30
0.0
 11
80.4631370347
 21
129.4330405916
 31
0.0
  0
ARC
  5
196
330
1F
100
AcDbEntity
  8
0
  6
HIDDEN
 62
     7
370
     0
100
AcDbCircle
 10
208.6785947623
 20
101.4536647809
 30
0.0
 40
0.4000000000000341
100
AcDbArc
 50
180.0
 51
270.0
  0
ARC
  5
197
330
1F
100
AcDbEntity
  8
0
  6
HIDDEN
 62
     7
370
     0
100
AcDbCircle
 10
208.6785947623
 20
109.2536647809
 30
0.0
 40
0.4000000000000341
100
AcDbArc
 50
90.0
 51
180.0
  0
LINE
  5
198
330
1F
100
AcDbEntity
  8
0
  6
HIDDEN
 62
     7
370
     0
100
AcDbLine
 10
208.6785947623
 20
101.0536647809
 30
0.0
 11
211.3838207442
 21
101.0536647809
 31
0.0
  0
LINE
  5
199
330
1F
100
AcDbEntity
  8
0
  6
HIDDEN
 62
     7
370
     0
100
AcDbLine
 10
211.3838207442
 20
109.6536647809
 30
0.0
 11
208.6785947623
 21
109.6536647809
 31
0.0
  0
ARC
  5
19A
330
1F
100
AcDbEntity
  8
0
  6
HIDDEN
 62
     7
370
     0
100
AcDbCircle
 10
211.3838207442
 20
109.2536647809
 30
0.0
 40
0.3999999999999915
100
AcDbArc
 50
70.0
 51
90.0
  0
ARC
  5
19B
330
1F
100
AcDbEntity
  8
0
  6
HIDDEN
 62
     7
370
     0
100
AcDbCircle
 10
244.9785947623
 20
101.0536647809
 30
0.0
 40
0.2999999999999972
100
AcDbArc
 50
0.0
 51
90.0
  0
ARC
  5
19C
330
1F
100
AcDbEntity
  8
0
  6
HIDDEN
 62
     7
370
     0
100
AcDbCircle
 10
244.9785947623
 20
109.6536647809
 30
0.0
 40
0.2999999999999972
100
AcDbArc
 50
270.0
 51
0.0
  0
LINE
  5
19D
330
1F
100
AcDbEntity
  8
0
  6
HIDDEN
 62
     7
370
     0
100
AcDbLine
 10
211.5206288015
 20
101.0777877326
 30
0.0
 11
212.2785947623
 21
101.3536647809
 31
0.0
  0
LINE
  5
19E
330
1F
100
AcDbEntity
  8
0
  6
HIDDEN
 62
     7
370
     0
100
AcDbLine
 10
212.2785947623
 20
109.3536647809
 30
0.0
 11
211.5206288015
 21
109.6295418292
 31
0.0
  0
LINE
  5
19F
330
1F
100
AcDbEntity
  8
0
  6
HIDDEN
 62
     7
370
     0
100
AcDbLine
 10
148.3785947623
 20
101.1036647809
 30
0.0
 11
149.4301008456
 21
102.8536647809
 31
0.0
  0
LINE
  5
1A0
330
1F
100
AcDbEntity
  8
0
  6
HIDDEN
 62
     7
370
     0
100
AcDbLine
 10
149.4301008456
 20
107.8536647809
 30
0.0
 11
148.3785947623
 21
109.6036647809
 31
0.0
  0
LINE
  5
1A1
330
1F
100
AcDbEntity
  8
0
  6
HIDDEN
 62
     7
370
     0
100
AcDbLine
 10
107.0785947623
 20
101.1036647809
 30
0.0
 11
148.3785947623
 21
101.1036647809
 31
0.0
  0
LINE
  5
1A2
330
1F
100
AcDbEntity
  8
0
  6
HIDDEN
 62
     7
370
     0
100
AcDbLine
 10
148.3785947623
 20
109.6036647809
 30
0.0
 11
107.0785947623
 21
109.6036647809
 31
0.0
  0
LINE
  5
1A3
330
1F
100
AcDbEntity
  8
0
  6
HIDDEN
 62
     7
370
     0
100
AcDbLine
 10
212.2785947623
 20
101.3536647809
 30
0.0
 11
244.9785947623
 21
101.3536647809
 31
0.0
  0
LINE
  5
1A4
330
1F
100
AcDbEntity
  8
0
  6
HIDDEN
 62
     7
370
     0
100
AcDbLine
 10
244.9785947623
 20
109.3536647809
 30
0.0
 11
212.2785947623
 21
109.3536647809
 31
0.0
  0
LINE
  5
1A5
330
1F
100
AcDbEntity
  8
0
  6
HIDDEN
 62
     7
370
     0
100
AcDbLine
 10
80.0285947623
 20
125.2907376069
 30
0.0
 11
80.0285947623
 21
129.0539508417
 31
0.0
  0
LINE
  5
1A6
330
1F
100
AcDbEntity
  8
0
  6
HIDDEN
 62
     7
370
     0
100
AcDbLine
 10
72.5285947623
 20
128.531967372
 30
0.0
 11
72.5285947623
 21
125.3518025353
 31
0.0
  0
LINE
  5
1A7
330
1F
100
AcDbEntity
  8
0
  6
HIDDEN
 62
     7
370
     0
100
AcDbLine
 10
80.0285947623
 20
81.653299921
 30
0.0
 11
80.0285947623
 21
85.4165919549
 31
0.0
  0
LINE
  5
1A8
330
1F
100
AcDbEntity
  8
0
  6
HIDDEN
 62
     7
370
     0
100
AcDbLine
 10
72.5285947623
 20
85.3555270265
 30
0.0
 11
72.5285947623
 21
82.1753706634
 31
0.0
  0
LINE
  5
1A9
330
1F
100
AcDbEntity
  8
0
  6
HIDDEN
 62
     7
370
     0
100
AcDbLine
 10
160.7285947623
 20
89.3536647809
 30
0.0
 11
159.7285947623
 21
89.9310150501
 31
0.0
  0
LINE
  5
1AA
330
1F
100
AcDbEntity
  8
0
  6
HIDDEN
 62
     7
370
     0
100
AcDbLine
 10
154.7285947623
 20
89.9310150501
 30
0.0
 11
153.7285947623
 21
89.3536647809
 31
0.0
  0
LINE
  5
1AB
330
1F
100
AcDbEntity
  8
0
  6
HIDDEN
 62
     7
370
     0
100
AcDbLine
 10
153.7285947623
 20
121.3536647809
 30
0.0
 11
154.7285947623
 21
120.7763145117
 31
0.0
  0
LINE
  5
1AC
330
1F
100
AcDbEntity
  8
0
  6
HIDDEN
 62
     7
370
     0
100
AcDbLine
 10
159.7285947623
 20
120.7763145117
 30
0.0
 11
160.7285947623
 21
121.3536647809
 31
0.0
  0
LINE
  5
1AD
330
1F
100
AcDbEntity
  8
0
  6
HIDDEN
 62
     7
370
     0
100
AcDbLine
 10
154.7285947623
 20
120.7763145117
 30
0.0
 11
154.7285947623
 21
112.3536647809
 31
0.0
  0
LINE
  5
1AE
330
1F
100
AcDbEntity
  8
0
  6
HIDDEN
 62
     7
370
     0
100
AcDbLine
 10
159.7285947623
 20
112.3536647809
 30
0.0
 11
159.7285947623
 21
120.7763145117
 31
0.0
  0
LINE
  5
1AF
330
1F
100
AcDbEntity
  8
0
  6
HIDDEN
 62
     7
370
     0
100
AcDbLine
 10
149.4301008456
 20
102.8536647809
 30
0.0
 11
208.2785947623
 21
102.8536647809
 31
0.0
  0
LINE
  5
1B0
330
1F
100
AcDbEntity
  8
0
  6
HIDDEN
 62
     7
370
     0
100
AcDbLine
 10
208.2785947623
 20
107.8536647809
 30
0.0
 11
149.4301008456
 21
107.8536647809
 31
0.0
  0
LINE
  5
1B1
330
1F
100
AcDbEntity
  8
0
  6
HIDDEN
 62
     7
370
     0
100
AcDbLine
 10
154.7285947623
 20
112.3536647809
 30
0.0
 11
157.2285947623
 21
110.8515132333
 31
0.0
  0
LINE
  5
1B2
330
1F
100
AcDbEntity
  8
0
  6
HIDDEN
 62
     7
370
     0
100
AcDbLine
 10
157.2285947623
 20
110.8515132333
 30
0.0
 11
159.7285947623
 21
112.3536647809
 31
0.0
  0
LINE
  5
1B3
330
1F
100
AcDbEntity
  8
0
  6
HIDDEN
 62
     7
370
     0
100
AcDbLine
 10
159.7285947623
 20
89.9310150501
 30
0.0
 11
159.7285947623
 21
98.3536647809
 31
0.0
  0
LINE
  5
1B4
330
1F
100
AcDbEntity
  8
0
  6
HIDDEN
 62
     7
370
     0
100
AcDbLine
 10
154.7285947623
 20
98.3536647809
 30
0.0
 11
154.7285947623
 21
89.9310150501
 31
0.0
  0
LINE
  5
1B5
330
1F
100
AcDbEntity
  8
0
  6
HIDDEN
 62
     7
370
     0
100
AcDbLine
 10
159.7285947623
 20
98.3536647809
 30
0.0
 11
157.2285947623
 21
99.8558163285
 31
0.0
  0
LINE
  5
1B6
330
1F
100
AcDbEntity
  8
0
  6
HIDDEN
 62
     7
370
     0
100
AcDbLine
 10
157.2285947623
 20
99.8558163285
 30
0.0
 11
154.7285947623
 21
98.3536647809
 31
0.0
  0
ARC
  5
1B7
330
1F
100
AcDbEntity
  8
0
  6
HIDDEN
 62
     7
370
     0
100
AcDbCircle
 10
211.3838207442
 20
101.4536647809
 30
0.0
 40
0.4000000000000057
100
AcDbArc
 50
270.0
 51
290.0
  0
LINE
  5
1B8
330
1F
100
AcDbEntity
  8
0
  6
HIDDEN
 62
     7
370
     0
100
AcDbLine
 10
211.7785947623
 20
112.1102289902
 30
0.0
 11
211.7785947623
 21
112.4247325928
 31
0.0
  0
LINE
  5
1B9
330
1F
100
AcDbEntity
  8
0
  6
HIDDEN
 62
     7
370
     0
100
AcDbLine
 10
211.7785947623
 20
108.310886654
 30
0.0
 11
211.7785947623
 21
110.3583091804
 31
0.0
  0
LINE
  5
1BA
330
1F
100
AcDbEntity
  8
0
  6
HIDDEN
 62
     7
370
     0
100
AcDbLine
 10
208.7785947623
 20
111.0379575142
 30
0.0
 11
208.7785947623
 21
108.3909420382
 31
0.0
  0
LINE
  5
1BB
330
1F
100
AcDbEntity
  8
0
  6
HIDDEN
 62
     7
370
     0
100
AcDbLine
 10
208.7785947623
 20
112.4247325928
 30
0.0
 11
208.7785947623
 21
111.5597595018
 31
0.0
  0
LINE
  5
1BC
330
1F
100
AcDbEntity
  8
0
  6
HIDDEN
 62
     7
370
     0
100
AcDbLine
 10
211.4895860601
 20
109.9916663457
 30
0.0
 11
245.2785947623
 21
109.0529299321
 31
0.0
  0
LINE
  5
1BD
330
1F
100
AcDbEntity
  8
0
  6
HIDDEN
 62
     7
370
     0
100
AcDbLine
 10
245.2785947623
 20
111.5538945663
 30
0.0
 11
211.4871843469
 21
112.492697705
 31
0.0
  0
LINE
  5
1BE
330
1F
100
AcDbEntity
  8
0
  6
HIDDEN
 62
     7
370
     0
100
AcDbLine
 10
208.8070481076
 20
111.7171241174
 30
0.0
 11
208.5558527361
 21
111.3236545253
 31
0.0
  0
LINE
  5
1BF
330
1F
100
AcDbEntity
  8
0
  6
HIDDEN
 62
     7
370
     0
100
AcDbLine
 10
208.5558527361
 20
111.3236545253
 30
0.0
 11
208.8052489144
 21
110.8805380969
 31
0.0
  0
LINE
  5
1C0
330
1F
100
AcDbEntity
  8
0
  6
HIDDEN
 62
     7
370
     0
100
AcDbLine
 10
239.7694826148
 20
101.7508615001
 30
0.0
 11
239.2841338667
 21
101.2373773951
 31
0.0
  0
LINE
  5
1C1
330
1F
100
AcDbEntity
  8
0
  6
HIDDEN
 62
     7
370
     0
100
AcDbLine
 10
239.339655614
 20
99.238919917
 30
0.0
 11
239.8527652358
 21
98.753175283
 31
0.0
  0
LINE
  5
1C2
330
1F
100
AcDbEntity
  8
0
  6
HIDDEN
 62
     7
370
     0
100
AcDbLine
 10
245.1045603507
 20
101.8996610167
 30
0.0
 11
239.7706225468
 21
101.7514719506
 31
0.0
  0
LINE
  5
1C3
330
1F
100
AcDbEntity
  8
0
  6
HIDDEN
 62
     7
370
     0
100
AcDbLine
 10
239.8539373028
 20
98.7526290652
 30
0.0
 11
245.1878751067
 21
98.9008181313
 31
0.0
  0
LINE
  5
1C4
330
1F
100
AcDbEntity
  8
0
  6
HIDDEN
 62
     7
370
     0
100
AcDbLine
 10
245.1898291356
 20
98.9026094308
 30
0.0
 11
245.2785947623
 21
99.0669815062
 31
0.0
  0
LINE
  5
1C5
330
1F
100
AcDbEntity
  8
0
  6
HIDDEN
 62
     7
370
     0
100
AcDbLine
 10
245.2758392086
 20
101.6223991147
 30
0.0
 11
245.1066108216
 21
101.8979809714
 31
0.0
  0
LINE
  5
1C6
330
1F
100
AcDbEntity
  8
0
  6
HIDDEN
 62
     7
370
     0
100
AcDbLine
 10
245.0855450228
 20
108.8099338467
 30
0.0
 11
245.2547734099
 21
109.0855157034
 31
0.0
  0
LINE
  5
1C7
330
1F
100
AcDbEntity
  8
0
  6
HIDDEN
 62
     7
370
     0
100
AcDbLine
 10
245.2785947623
 20
111.6019246417
 30
0.0
 11
245.1687633368
 21
111.8053053874
 31
0.0
  0
LINE
  5
1C8
330
1F
100
AcDbEntity
  8
0
  6
HIDDEN
 62
     7
370
     0
100
AcDbLine
 10
245.1668093079
 20
111.8070966869
 30
0.0
 11
239.832871504
 21
111.955285753
 31
0.0
  0
LINE
  5
1C9
330
1F
100
AcDbEntity
  8
0
  6
HIDDEN
 62
     7
370
     0
100
AcDbLine
 10
239.749556748
 20
108.9564428676
 30
0.0
 11
245.0834945519
 21
108.8082538015
 31
0.0
  0
LINE
  5
1CA
330
1F
100
AcDbEntity
  8
0
  6
HIDDEN
 62
     7
370
     0
100
AcDbLine
 10
239.8316994371
 20
111.9547395352
 30
0.0
 11
239.3185898153
 21
111.4689949012
 31
0.0
  0
LINE
  5
1CB
330
1F
100
AcDbEntity
  8
0
  6
HIDDEN
 62
     7
370
     0
100
AcDbLine
 10
239.2630680679
 20
109.4705374231
 30
0.0
 11
239.748416816
 21
108.957053318
 31
0.0
  0
DIMENSION
  5
1CC
330
1F
100
AcDbEntity
  8
VERMASSUNG
100
AcDbDimension
  2
*D1
 10
49.0669266868
 20
73.8536647809
 30
0.0
 11
49.0669266868
 21
105.3536647809
 31
0.0
 70
   160
  1
HSK A %%c<>
 71
     2
 42
-1.0
  3
SLDDIMSTYLE0
100
AcDbAlignedDimension
 13
85.5785947623
 23
136.8536647809
 33
0.0
 14
85.5785947623
 24
73.8536647809
 34
0.0
 50
90.0
100
AcDbRotatedDimension
  0
DIMENSION
  5
1D9
330
1F
100
AcDbEntity
  8
VERMASSUNG
100
AcDbDimension
  2
*D2
 10
251.6638966093
 20
101.3536647809
 30
0.0
 11
251.6638966093
 21
105.3536647809
 31
0.0
 70
   160
  1
%%c<>
 71
     2
 42
-1.0
  3
SLDDIMSTYLE1
100
AcDbAlignedDimension
 13
244.9785947623
 23
109.3536647809
 33
0.0
 14
244.9785947623
 24
101.3536647809
 34
0.0
 50
90.0
100
AcDbRotatedDimension
  0
DIMENSION
  5
1E7
330
1F
100
AcDbEntity
  8
VERMASSUNG
100
AcDbDimension
  2
*D3
 10
245.2785947623
 20
140.6226435536
 30
0.0
 11
178.2535947623
 21
140.6226435536
 31
0.0
 70
   160
 71
     2
 42
-1.0
  3
SLDDIMSTYLE0
100
AcDbAlignedDimension
 13
111.2285947623
 23
135.2001051047
 33
0.0
 14
245.2785947623
 24
114.0795242593
 34
0.0
100
AcDbRotatedDimension
  0
DIMENSION
  5
1F1
330
1F
100
AcDbEntity
  8
VERMASSUNG
100
AcDbDimension
  2
*D4
 10
245.2785947623
 20
146.6226435536
 30
0.0
 11
165.2785947623
 21
146.6226435536
 31
0.0
 70
   160
 71
     2
 42
-1.0
  3
SLDDIMSTYLE0
100
AcDbAlignedDimension
 13
85.2785947623
 23
136.5536647809
 33
0.0
 14
245.2785947623
 24
114.0795242593
 34
0.0
100
AcDbRotatedDimension
  0
DIMENSION
  5
1FB
330
1F
100
AcDbEntity
  8
VERMASSUNG
100
AcDbDimension
  2
*D5
 10
245.2785947623
 20
152.6226435536
 30
0.0
 11
149.3285947623
 21
152.6226435536
 31
0.0
 70
   160
 71
     2
 42
-1.0
  3
SLDDIMSTYLE0
100
AcDbAlignedDimension
 13
53.3785947623
 23
125.0443425274
 33
0.0
 14
245.2785947623
 24
114.0795242593
 34
0.0
100
AcDbRotatedDimension
  0
DIMENSION
  5
205
330
1F
100
AcDbEntity
  8
VERMASSUNG
100
AcDbDimension
  2
*D6
 10
257.6638966093
 20
89.3536647809
 30
0.0
 11
257.6638966093
 21
105.3536647809
 31
0.0
 70
   160
  1
%%c<>
 71
     2
 42
-1.0
  3
SLDDIMSTYLE0
100
AcDbAlignedDimension
 13
232.4115532393
 23
121.3536647809
 33
0.0
 14
232.4115532393
 24
89.3536647809
 34
0.0
 50
90.0
100
AcDbRotatedDimension
  0
LINE
  5
210
330
1F
100
AcDbEntity
  8
VERMASSUNG
  6
CENTERX2
370
     0
100
AcDbLine
 10
51.7270855905
 20
105.3536647809
 30
0.0
 11
246.4332611051
 21
105.3536647809
 31
0.0
  0
OLE2FRAME
  5
211
330
1F
100
AcDbEntity
  8
0
100
AcDbOle2Frame
 70
     2
  3
Bitmap Image
 10
13.8511154363
 20
38.264191557
 30
0.0
 11
51.6290888628
 21
31.9806341108
 31
0.0
 71
     2
 72
     0
 73
     1
 90
    12928
310
80552BED0767C5B32B40DDAF6807D121434000000000000000006FFBDDFB85D0
310
4940DDAF6807D121434000000000000000006FFBDDFB85D04940416F4BD60AFB
310
3F4000000000000000002BED0767C5B32B40416F4BD60AFB3F40000000000000
310
0000000000000100000000010000010000000100000000000100000000320000
310
D0CF11E0A1B11AE1000000000000000000000000000000003E000300FEFF0900
310
0600000000000000000000000100000001000000000000000010000002000000
310
01000000FEFFFFFF0000000000000000FFFFFFFFFFFFFFFFFFFFFFFFFFFFFFFF
310
FFFFFFFFFFFFFFFFFFFFFFFFFFFFFFFFFFFFFFFFFFFFFFFFFFFFFFFFFFFFFFFF
310
FFFFFFFFFFFFFFFFFFFFFFFFFFFFFFFFFFFFFFFFFFFFFFFFFFFFFFFFFFFFFFFF
310
FFFFFFFFFFFFFFFFFFFFFFFFFFFFFFFFFFFFFFFFFFFFFFFFFFFFFFFFFFFFFFFF
310
FFFFFFFFFFFFFFFFFFFFFFFFFFFFFFFFFFFFFFFFFFFFFFFFFFFFFFFFFFFFFFFF
310
FFFFFFFFFFFFFFFFFFFFFFFFFFFFFFFFFFFFFFFFFFFFFFFFFFFFFFFFFFFFFFFF
310
FFFFFFFFFFFFFFFFFFFFFFFFFFFFFFFFFFFFFFFFFFFFFFFFFFFFFFFFFFFFFFFF
310
FFFFFFFFFFFFFFFFFFFFFFFFFFFFFFFFFFFFFFFFFFFFFFFFFFFFFFFFFFFFFFFF
310
FFFFFFFFFFFFFFFFFFFFFFFFFFFFFFFFFFFFFFFFFFFFFFFFFFFFFFFFFFFFFFFF
310
FFFFFFFFFFFFFFFFFFFFFFFFFFFFFFFFFFFFFFFFFFFFFFFFFFFFFFFFFFFFFFFF
310
FFFFFFFFFFFFFFFFFFFFFFFFFFFFFFFFFFFFFFFFFFFFFFFFFFFFFFFFFFFFFFFF
310
FFFFFFFFFFFFFFFFFFFFFFFFFFFFFFFFFFFFFFFFFFFFFFFFFFFFFFFFFFFFFFFF
310
FFFFFFFFFFFFFFFFFFFFFFFFFFFFFFFFFFFFFFFFFFFFFFFFFFFFFFFFFFFFFFFF
310
FFFFFFFFFFFFFFFFFFFFFFFFFFFFFFFFFFFFFFFFFFFFFFFFFFFFFFFFFFFFFFFF
310
FDFFFFFFFEFFFFFFFEFFFFFFFEFFFFFF05000000060000000700000008000000
310
090000000A0000000B0000000C0000000D0000000E0000000F00000010000000
310
11000000120000001300000014000000150000001600000017000000FEFFFFFF
310
FFFFFFFFFFFFFFFFFFFFFFFFFFFFFFFFFFFFFFFFFFFFFFFFFFFFFFFFFFFFFFFF
310
FFFFFFFFFFFFFFFFFFFFFFFFFFFFFFFFFFFFFFFFFFFFFFFFFFFFFFFFFFFFFFFF
310
FFFFFFFFFFFFFFFFFFFFFFFFFFFFFFFFFFFFFFFFFFFFFFFFFFFFFFFFFFFFFFFF
310
FFFFFFFFFFFFFFFFFFFFFFFFFFFFFFFFFFFFFFFFFFFFFFFFFFFFFFFFFFFFFFFF
310
FFFFFFFFFFFFFFFFFFFFFFFFFFFFFFFFFFFFFFFFFFFFFFFFFFFFFFFFFFFFFFFF
310
FFFFFFFFFFFFFFFFFFFFFFFFFFFFFFFFFFFFFFFFFFFFFFFFFFFFFFFFFFFFFFFF
310
FFFFFFFFFFFFFFFFFFFFFFFFFFFFFFFFFFFFFFFFFFFFFFFFFFFFFFFFFFFFFFFF
310
FFFFFFFFFFFFFFFFFFFFFFFFFFFFFFFFFFFFFFFFFFFFFFFFFFFFFFFFFFFFFFFF
310
FFFFFFFFFFFFFFFFFFFFFFFFFFFFFFFFFFFFFFFFFFFFFFFFFFFFFFFFFFFFFFFF
310
FFFFFFFFFFFFFFFFFFFFFFFFFFFFFFFFFFFFFFFFFFFFFFFFFFFFFFFFFFFFFFFF
310
FFFFFFFFFFFFFFFFFFFFFFFFFFFFFFFFFFFFFFFFFFFFFFFFFFFFFFFFFFFFFFFF
310
FFFFFFFFFFFFFFFFFFFFFFFFFFFFFFFFFFFFFFFFFFFFFFFFFFFFFFFFFFFFFFFF
310
FFFFFFFFFFFFFFFFFFFFFFFFFFFFFFFFFFFFFFFFFFFFFFFFFFFFFFFFFFFFFFFF
310
52006F006F007400200045006E00740072007900000000000000000000000000
310
0000000000000000000000000000000000000000000000000000000000000000
310
16000500FFFFFFFFFFFFFFFF020000000A00030000000000C000000000000046
310
000000000000000000000000E0B9C76DF4FFCB0103000000C000000000000000
310
01004F006C006500000000000000000000000000000000000000000000000000
310
0000000000000000000000000000000000000000000000000000000000000000
310
0A000200FFFFFFFFFFFFFFFFFFFFFFFF00000000000000000000000000000000
310
0000000000000000000000000000000000000000000000001400000000000000
310
010043006F006D0070004F0062006A0000000000000000000000000000000000
310
0000000000000000000000000000000000000000000000000000000000000000
310
120002010100000003000000FFFFFFFF00000000000000000000000000000000
310
0000000000000000000000000000000000000000010000004D00000000000000
310
01004F006C006500310030004E00610074006900760065000000000000000000
310
0000000000000000000000000000000000000000000000000000000000000000
310
1A000200FFFFFFFFFFFFFFFFFFFFFFFF00000000000000000000000000000000
310
0000000000000000000000000000000000000000040000002426000000000000
310
FEFFFFFF02000000FEFFFFFFFFFFFFFFFFFFFFFFFFFFFFFFFFFFFFFFFFFFFFFF
310
FFFFFFFFFFFFFFFFFFFFFFFFFFFFFFFFFFFFFFFFFFFFFFFFFFFFFFFFFFFFFFFF
310
FFFFFFFFFFFFFFFFFFFFFFFFFFFFFFFFFFFFFFFFFFFFFFFFFFFFFFFFFFFFFFFF
310
FFFFFFFFFFFFFFFFFFFFFFFFFFFFFFFFFFFFFFFFFFFFFFFFFFFFFFFFFFFFFFFF
310
FFFFFFFFFFFFFFFFFFFFFFFFFFFFFFFFFFFFFFFFFFFFFFFFFFFFFFFFFFFFFFFF
310
FFFFFFFFFFFFFFFFFFFFFFFFFFFFFFFFFFFFFFFFFFFFFFFFFFFFFFFFFFFFFFFF
310
FFFFFFFFFFFFFFFFFFFFFFFFFFFFFFFFFFFFFFFFFFFFFFFFFFFFFFFFFFFFFFFF
310
FFFFFFFFFFFFFFFFFFFFFFFFFFFFFFFFFFFFFFFFFFFFFFFFFFFFFFFFFFFFFFFF
310
FFFFFFFFFFFFFFFFFFFFFFFFFFFFFFFFFFFFFFFFFFFFFFFFFFFFFFFFFFFFFFFF
310
FFFFFFFFFFFFFFFFFFFFFFFFFFFFFFFFFFFFFFFFFFFFFFFFFFFFFFFFFFFFFFFF
310
FFFFFFFFFFFFFFFFFFFFFFFFFFFFFFFFFFFFFFFFFFFFFFFFFFFFFFFFFFFFFFFF
310
FFFFFFFFFFFFFFFFFFFFFFFFFFFFFFFFFFFFFFFFFFFFFFFFFFFFFFFFFFFFFFFF
310
FFFFFFFFFFFFFFFFFFFFFFFFFFFFFFFFFFFFFFFFFFFFFFFFFFFFFFFFFFFFFFFF
310
FFFFFFFFFFFFFFFFFFFFFFFFFFFFFFFFFFFFFFFFFFFFFFFFFFFFFFFFFFFFFFFF
310
FFFFFFFFFFFFFFFFFFFFFFFFFFFFFFFFFFFFFFFFFFFFFFFFFFFFFFFFFFFFFFFF
310
FFFFFFFFFFFFFFFFFFFFFFFFFFFFFFFFFFFFFFFFFFFFFFFFFFFFFFFFFFFFFFFF
310
010000020000000000000000000000000000000061007200650064005C003100
310
30002E0030005C0044004C004C005300680061007200650064005C003B004300
310
0100FEFF030A0000FFFFFFFF0A00030000000000C00000000000004607000000
310
5042727573680007000000504272757368000700000050427275736800F439B2
310
71000000000000000000000000004100540049002E004100430045005C004300
310
6F00720065002D005300740061007400690063003B0043003A005C0050007200
310
6F006700720061006D002000460069006C006500730020002800780038003600
310
29005C0043006F006D006D006F006E002000460069006C00650073005C004100
310
750074006F006400650073006B0020005300680061007200650064005C003B00
310
43003A005C00500072006F006700720061006D002000460069006C0065007300
310
5C004E006F0072006D0061006E005C004E0070006D005C00420069006E000000
310
43003A005C00500072006F006700720061006D002000460069006C0065007300
310
5C0053006F006C006900640057006F0072006B007300200043006F0072007000
310
5C0053006F006C006900640057006F0072006B00730020002800320029005C00
310
730065007400750070005C0069003300380036005C0073007700610063007400
310
770069007A002E006500780065000000220043003A005C00500072006F006700
310
20260000424D0E260000000000003E00000028000000B40200006E0000000100
310
01000000000000000000130B0000130B00000200000002000000000000FFFFFF
310
FFFFFFFFFFFFFFFFFFFFFFFFFFFFFFFFFFFFFFFFFFFFFFFFFFFFFFFFFFFFFFFF
310
FFFFFFFFFFFFFFFFFFFFFFFFFFFFFFFFFFFFFFFFFFFFFFFFFFFFFFFFFFFFFFFF
310
FFFFFFFFFFFFFFFFFFFFFFFFFFFFFFFFFFFFFFFFFFFFFFFFF000FFFFFFFFFFFF
310
FFFFFFFFFFFFFFFFFFFFFFFFFFFFFFFFFFFFFFFFFFFFFFFFFFFFFFFFFFFFFFFF
310
FFFFFFFFFFFFFFFFFFFFFFFFFFFFFFFFFFFFFFFFFFFFFFFFFFFFFFFFFFFFFFFF
310
FFFFFFFFFFFFFFFFFFFFFFFFFFFFFFFFF000FFFFFFFFFFFFFFFFFFFFFFFFFFFF
310
FFFFFFFFFFFFFFFFFFFFFFFFFFFFFFFFFFFFFFFFFFFFFFFFFFFFFFFFFFFFFFFF
310
FFFFFFFFFFFFFFFFFFFFFFFFFFFFFFFFFFFFFFFFFFFFFFFFFFFFFFFFFFFFFFFF
310
FFFFFFFFFFFFFFFFF000FFFFFFFFFFFFFFFFFFFFFFFFFFFFFFFFFFFFFFFFFFFF
310
FFFFFFFFFFFFFFFFFFFFFFFFFFFFFFFFFFFFFFFFFFFFFFFFFFFFFFFFFFFFFFFF
310
FFFFFFFFFFFFFFFFFFFFFFFFFFFFFFFFFFFFFFFFFFFFFFFFFFFFFFFFFFFFFFFF
310
F000FFFFFFFFFFFFFFFFFFFFFFFFFFFFFFFFFFFFFFFFFFFFFFFFFFFFFFFFFFFF
310
FFFFFFFFFFFFFFFFFFFFFFFFFFFFFFFFFFFFFFFFFFFFFFFFFFFFFFFFFFFFFFFF
310
FFFFFFFFFFFFFFFFFFFFFFFFFFFFFFFFFFFFFFFFFFFFFFFFF000FFFFFFFFFFFF
310
FFFFFFFFFFFFFFFFFFFFFFFFFFFFFFFFFFFFFFFFFFFFFFFFFFFFFFFFFFFFFFFF
310
FFFFFFFFFFFFFFFFFFFFFFFFFFFFFFFFFFFFFFFFFFFFFFFFFFFFFFFFFFFFFFFF
310
FFFFFFFFFFFFFFFFFFFFFFFFFFFFFFFFF000FFFFFFFFFFFFFFFFFFFFFFFFFFFF
310
FFFFFFFFFFFFFFFFFFFFFFFFFFFFFFFFFFFFFFFFFFFFFFFFFFFFFFFFFFFFFFFF
310
FFFFFFFFFFFFFFFFFFFFFFFFFFFFFFFFFFFFFFFFFFFFFFFFFFFFFFFFFFFFFFFF
310
FFFFFFFFFFFFFFFFF000FFFFFFFFFFFFFFFFFFFFFFFFFFFFFFFFFFFFFFFFFFFF
310
FFFFFFFFFFFFFFFFFFFFFFFFFFFFFFFFFFFFFFFFFFFFFFFFFFFFFFFFFFFFFFFF
310
FFFFFFFFFFFFFFFFFFFFFFFFFFFFFFFFFFFFFFFFFFFFFFFFFFFFFFFFFFFFFFFF
310
F000FFFFFFFFFFFFFFFFFFFFFFFFFFFFFFFFFFFFFFFFFFFFFFFFFFFFFFFFFFFF
310
FFFFFFFFFFFFFFFFFFFFFFFFFFFFFFFFFFFFFFFFFFFFFFFFFFFFFFFFFFFFFFFF
310
FFFFFFFFFFFFFFFFFFFFFFFFFFFFFFFFFFFFFFFFFFFFFFFFF000FFFFFFFFFFFF
310
FFFFFFFFFFFFFFFFFFFFFFFFFFFFFFFFFFFFFFFFFFFFFFFFFFFFFFFFFFFFFFFF
310
FFFFFFFFFFFFFFFFFFFFFFFFFFFFFFFFFFFFFFFFFFFFFFFFFFFFFFFFFFFFFFFF
310
FFFFFFFFFFFFFFFFFFFFFFFFFFFFFFFFF000FFFFFFFFFFFFFFFFFFFFFFFFFFFF
310
FFFFFFFFFFFFFFFFFFFFFFFFFFFFFFFFFFFFFFFFFFFFFFFFFFFFFFFFFFFFFFFF
310
FFFFFFFFFFFFFFFFFFFFFFFFFFFFFFFFFFFFFFFFFFFFFFFFFFFFFFFFFFFFFFFF
310
FFFFFFFFFFFFFFFFF000FFFFFFFFFFFFFFFFFFFFFFFFFFFFFFFFFFFFFFFFFFFF
310
FFFFFFFFFFFFFFFFFFFFFFFFFFFFFFFFFFFFFFFFFFFFFFFFFFFFFFFFFFFFFFFF
310
FFFFFFFFFFFFFFFFFFFFFFFFFFFFFFFFFFFFFFFFFFFFFFFFFFFFFFFFFFFFFFFF
310
F000FFFFFFFFFFFFFFFFFFFFFFFFFFFFFFFFFFFFFFFFFFFFFFFFFFFFFFFFFFFF
310
FFFFFFFFFFFFFFFFFFFFFFFFFFFFFFFFFFFFFFFFFFFFFFFFFFFFFFFFFFFFFFFF
310
FFFFFFFFFFFFFFFFFFFFFFFFFFFFFFFFFFFFFFFFFFFFFFFFF000FFFFFFFFFFFF
310
FFFFFFFFFFFFFFFFFFFFFFFFFFFFFFFFFFFFFFFFFFFFFFFFFFFFFFFFFFFFFFFF
310
FFFFFFFFFFFFFFFFFFFFFFFFFFFFFFFFFFFFFFFFFFFFFFFFFFFFFFFFFFFFFFFF
310
FFFFFFFFFFFFFFFFFFFFFFFFFFFFFFFFF000FFFFFFFFFFFFFFFFFFFFFFFFFFFF
310
FFFFFFFFFFFFFFFFFFFFFFFFFFFFFFFFFFFFFFFFFFFFFFFFFFFFFFFFFFFFFFFF
310
FFFFFFFFFFFFFFFFFFFFFFFFFFFFFFFFFFFFFFFFFFFFFFFFFFFFFFFFFFFFFFFF
310
FFFFFFFFFFFFFFFFF000FFFFFFFFFFFFFFFFFFFFFFFFFFFFFFFFFFFFFFFFFFFF
310
FFFFFFFFFFFFFFFFFFFFFFFFFFFFFFFFFFFFFFFFFFFFFFFFFFFFFFFFFFFFFFFF
310
FFFFFFFFFFFFFFFFFFFFFFFFFFFFFFFFFFFFFFFFFFFFFFFFFFFFFFFFFFFFFFFF
310
F000FFFFFFFFFFFFFFFFFFFFFFFFFFFFFFFFFFFFFFFFFFFFFFFFFFFFFFFFFFFF
310
FFFFFFFFFFFFFFFFFFFFFFFFFFFFFFFFFFFFFFFFFFFFFFFFFFFFFFFFFFFFFFFF
310
FFFFFFFFFFFFFFFFFFFFFFFFFFFFFFFFFFFFFFFFFFFFFFFFF000FFFFFFFFFFFF
310
FFFFFFFFFFFFFFFFFFFFFFFFFFFFFFFFFFFFFFFFFFFFFFFFFFFFFFFFFFFFFFFF
310
FFFFFFFFFFFFFFFFFFFFFFFFFFFFFFFFFFFFFFFFFFFFFFFFFFFFFFFFFFFFFFFF
310
FFFFFFFFFFFFFFFFFFFFFFFFFFFFFFFFF000FFFFFFFFFFFFFFFFFFFFFFFFFFFF
310
FFFFFFFFFFFFFFFFFFFFFFFFFFFFFFFFFFFFFFFFFFFFFFFFFFFFFFFFFFFFFFFF
310
FFFFFFFFFFFFFFFFFFFFFFFFFFFFFFFFFFFFFFFFFFFFFFFFFFFFFFFFFFFFFFFF
310
FFFFFFFFFFFFFFFFF000FFFFF80003FFFFFFFFFFFFFFFFFFFFFFFFFFFFFFFFFF
310
FFFFF00007FFFFFFFFFF00007FFFFFF800000000000000007FFFFFFFFFFFFFFF
310
FFFFFFFC001FFFFFFFFFFFFFFC001FFFFFFFFFFFFFFFFFFFFFFFFFFE0007FFFF
310
F000FFFF8000007FFFFFFFF8000FFFFFC0007FFFFF80007FFFFF0000007FFFFF
310
FFF8000007FFFFF800000000000000007FFFFFF0001FFFFFFFFFFFC00001FFFF
310
FFFFFFFFC00001FFFFFFFF000000000003FFFFE000007FFFF000FFFE0000000F
310
FFFFFFF0000FFFFF80007FFFFF80007FFFFC0000001FFFFFFFC0000001FFFFF8
310
00000000000000007FFFFFF0001FFFFFFFFFFE0000003FFFFFFFFFFE0000003F
310
FFFFFF000000000003FFFF0000000FFFF000FFF800000003FFFFFFF00007FFFF
310
80007FFFFF80007FFFF000000007FFFFFF000000003FFFF80000000000000000
310
7FFFFFF0001FFFFFFFFFF80000000FFFFFFFFFF80000000FFFFFFF0000000000
310
03FFFC00000003FFF000FFE000000000FFFFFFF00007FFFF80003FFFFF80007F
310
FFC000000001FFFFFC000000001FFFF800000000000000007FFFFFF0001FFFFF
310
FFFFE000000003FFFFFFFFE000000003FFFFFF000000000003FFF000000000FF
310
F000FF80000000007FFFFFF00007FFFF80003FFFFF80007FFF8000000000FFFF
310
F80000000007FFF800000000000000007FFFFFF0001FFFFFFFFFC000000001FF
310
FFFFFFC000000001FFFFFF000000000003FFC0000000007FF000FF0000000000
310
3FFFFFE00007FFFF00003FFFFF80007FFE00000000003FFFF00000000003FFF8
310
00000000000000007FFFFFF0001FFFFFFFFF8000000000FFFFFFFF8000000000
310
FFFFFF000000000003FF80000000003FF000FE00000000001FFFFFE00003FFFF
310
00003FFFFF80007FFC00000000001FFFE00000000001FFF8000001FFFE000000
310
7FFFFFF0001FFFFFFFFE00000000003FFFFFFE00000000003FFFFF0000000000
310
03FF00000000001FF000FC00000000000FFFFFE00003FFFF00001FFFFF80007F
310
F800000000001FFFC00000000000FFF8000001FFFE0000007FFFFFF0001FFFFF
310
FFFC00000000001FFFFFFC00000000001FFFFF000000000003FE00000000000F
310
F000F8000000000007FFFFE00003FFFF00001FFFFF80007FF800000000000FFF
310
800000000000FFF8000001FFFE0000007FFFFFF0001FFFFFFFF800000000000F
310
FFFFF800000000000FFFFF000000000003FC000000000007F000F80000000000
310
03FFFFC00003FFFE00001FFFFF80007FF0000000000007FF0000000000007FF8
310
000001FFFE0000007FFFFFF0001FFFFFFFF0000000000007FFFFF00000000000
310
07FFFF000000000003F8000000000003F000F0000000000003FFFFC00001FFFE
310
00001FFFFF80007FE0000000000007FE0000000000003FF8000001FFFE000000
310
7FFFFFF0001FFFFFFFF0000000000007FFFFF0000000000007FFFF0000000000
310
03F800001F800003F000E00001FFF00001FFFFC00001FFFE00000FFFFF80007F
310
E00001FFE00003FE00001FFF00003FF8000001FFFE0000007FFFFFF0001FFFFF
310
FFE000003E000003FFFFE000003E000003FFFF000000000003F00001FFF80001
310
F000E00007FFFC0001FFFFC00001FFFE00000FFFFF80007FC0000FFFFC0003FC
310
0000FFFFC0001FF8000001FFFE0000007FFFFFF0001FFFFFFFC00003FFE00001
310
FFFFC00003FFE00001FFFF0001FFFFFFFFF00007FFFE0001F000E0000FFFFF00
310
00FFFF800001FFFC00000FFFFF80007FC0001FFFFE0001FC0001FFFFE0001FF8
310
000001FFFE0000007FFFFFF0001FFFFFFF80000FFFF80000FFFF80000FFFF800
310
00FFFF0003FFFFFFFFE0000FFFFF8000F000C0003FFFFF8000FFFF800000FFFC
310
000007FFFF80007F80003FFFFF0001FC0003FFFFF0001FF8000001FFFE000000
310
7FFFFFF0001FFFFFFF80003FFFFE0000FFFF80003FFFFE0000FFFF0003FFFFFF
310
FFE0003FFFFF8000F000C0003FFFFF8000FFFF800000FFFC000007FFFF80007F
310
80007FFFFF8001F80007FFFFF8000FF8000001FFFE0000007FFFFFF0001FFFFF
310
FF00007FFFFF00007FFF00007FFFFF00007FFF0003FFFFFFFFE0003FFFFFC000
310
F000C0007FFFFFC000FFFF000000FFFC000007FFFF80007F8000FFFFFF8000F8
310
000FFFFFF8000FF8000001FFFE0000007FFFFFF0001FFFFFFF0000FFFFFF8000
310
7FFF0000FFFFFF80007FFF0003FFFFFFFFC0007FFFFFC00070008000FFFFFFC0
310
00FFFF000000FFF8000007FFFF80007F8000FFFFFF8000F8000FFFFFF8000FF8
310
000001FFFE0000007FFFFFF0001FFFFFFE0001FFFFFFC0003FFE0001FFFFFFC0
310
003FFF0003FFFFFFFFC0007FFFFFE00070008000FFFFFFC0007FFF0000007FF8
310
000003FFFF80007F0001FFFFFF8000F8000FFFFFF8000FF8000001FFFE000000
310
7FFFFFF0001FFFFFFE0001FFFFFFC0003FFE0001FFFFFFC0003FFF0003FFFFFF
310
FFC000FFFFFFE00070008000FFFFFFC0007FFF0000007FF8000003FFFF80007F
310
0001FFFFFF8000F8001FFFFFF8000FF8000001FFFE0000007FFFFFF0001FFFFF
310
FE0003FFFFFFE0003FFE0003FFFFFFE0003FFF0003FFFFFFFFC000FFFFFFE000
310
70008000FFFFFFC0007FFE0000007FF8000003FFFF80007F0001FFFFFF8000F0
310
001FFFFFF8000FF8000001FFFE0000007FFFFFF0001FFFFFFC0003FFFFFFE000
310
1FFC0003FFFFFFE0001FFF0003FFFFFFFFC000FFFFFFC00070008000FFFFFF80
310
007FFE0000007FF0000003FFFF80007F0001FFFFFF0000F0001FFFFFF8000FF8
310
000001FFFE0000007FFFFFF0001FFFFFFC0007FFFFFFF0001FFC0007FFFFFFF0
310
001FFF0003FFFFFFFFC000FFFFFFC00070008001FFFFFF0000FFFE0000003FF0
310
000001FFFF80007F0001FFFFFF0000F8001FFFFFF0000FF8000001FFFE000000
310
7FFFFFF0001FFFFFFC0007FFFFFFF0001FFC0007FFFFFFF0001FFF0003FFFFFF
310
FFC001FFFFFF80007000FFFFFFFFFE0000FFFE0008003FF0008001FFFF80007F
310
FFFFFFFFFC0000FFFFFFFFFFE0000FF8000001FFFE0000007FFFFFF0001FFFFF
310
F8000FFFFFFFF8000FF8000FFFFFFFF8000FFF0003FFFFFFFFFFFFFFFFFF0000
310
7000FFFFFFFFFC0000FFFC0008003FF0008001FFFF80007FFFFFFFFFF80001FF
310
FFFFFFFF80000FF8000001FFFE0000007FFFFFF0001FFFFFF8000FFFFFFFF800
310
0FF8000FFFFFFFF8000FFF0003FFFFFFFFFFFFFFFFFE0000F000FFFFFFFFE000
310
00FFFC000C003FE000C001FFFF80007FFFFFFFFFC00001FFFFFFFFFE00001FF8
310
000001FFFE0000007FFFFFF0001FFFFFF8000FFFFFFFF8000FF8000FFFFFFFF8
310
000FFF0003FFFFFFFFFFFFFFFFF00000F000FFFFFFFE000001FFFC000C001FE0
310
00C000FFFF80007FFFFFFFFE000001FFFFFFFFE000001FF80FFFFFFFFFFFFFC0
310
7FFFFFF0001FFFFFF8000FFFFFFFF8000FF8000FFFFFFFF8000FFF0003FFFFFF
310
FFFFFFFFFF800000F000FFFFFFC0000001FFFC001C001FE001C000FFFF80007F
310
FFFFFF80000003FFFFFFF80000001FF80FFFFFFFFFFFFFC07FFFFFF0001FFFFF
310
F8001FFFFFFFFC000FF8001FFFFFFFFC000FFF0003FFFFFFFFFFFFFFF0000001
310
F000FFFFF800000001FFF8001C001FE001C000FFFF80007FFFFFF800000003FF
310
FFFF800000003FF80FFFFFFFFFFFFFC07FFFFFF0001FFFFFF8001FFFFFFFFC00
310
0FF8001FFFFFFFFC000FFF0003FFFFFFFFFFFFFE00000001F000FFFFC0000000
310
03FFF8001E001FC001E000FFFF80007FFFFF8000000007FFFFFC000000003FF8
310
0FFFFFFFFFFFFFC07FFFFFF0001FFFFFF8001FFFFFFFFC000FF8001FFFFFFFFC
310
000FFF0003FFFFFFFFFFFFE000000003F000FFFE0000000007FFF8001E000FC0
310
01E0007FFF80007FFFFE0000000007FFFFE0000000007FF80FFFFFFFFFFFFFC0
310
7FFFFFF0001FFFFFF0001FFFFFFFFC0007F0001FFFFFFFFC0007FF0003FFFFFF
310
FFFFFF0000000003F000FFF80000000007FFF8001E000FC003E0007FFF80007F
310
FFF0000000000FFFFF8000000000FFF80FFFFFFFFFFFFFC07FFFFFF0001FFFFF
310
F0001FFFFFFFFC0007F0001FFFFFFFFC0007FF0003FFFFFFFFFFFC0000000007
310
F000FFE0000000000FFFF0003E000FC003E0007FFF80007FFFC0000000001FFF
310
FE0000000001FFF80FFFFFFFFFFFFFC07FFFFFF0001FFFFFF0001FFFFFFFFC00
310
07F0001FFFFFFFFC0007FF0003FFFFFFFFFFF0000000000FF000FFC000000000
310
1FFFF0003F000F8003F0003FFF80007FFF80000000003FFFF80000000003FFF8
310
0FFFFFFFFFFFFFC07FFFFFF0001FFFFFF0001FFFFFFFFC0007F0001FFFFFFFFC
310
0007FF0003FFFFFFFFFFE0000000001FF000FF00000000007FFFF0003F000780
310
03F0003FFF80007FFF00000000007FFFF00000000007FFF80FFFFFFFFFFFFFC0
310
7FFFFFF0001FFFFFF0001FFFFFFFFC0007F0001FFFFFFFFC0007FF0003FFFFFF
310
FFFF80000000007FF000FE0000000000FFFFE0003F00078007F0003FFF80007F
310
FE0000000001FFFFE0000000001FFFF80FFFFFFFFFFFFFC07FFFFFF0001FFFFF
310
F0001FFFFFFFFC0007F0001FFFFFFFFC0007FF0003FFFFFFFFFF0000000000FF
310
F000FC0000000003FFFFE0007F00078007F0003FFF80007FFC0000000007FFFF
310
C0000000007FFFF80FFFFFFFFFFFFFC07FFFFFF0001FFFFFF8001FFFFFFFFC00
310
0FF8001FFFFFFFFC000FFF0003FFFFFFFFFE0000000003FFF000FC000000000F
310
FFFFE0007F80070007F8001FFF80007FF8000000001FFFFF8000000001FFFFF8
310
0FFFFFFFFFFFFFC07FFFFFF0001FFFFFF8001FFFFFFFFC000FF8001FFFFFFFFC
310
000FFF0003FFFFFFFFFC000000000FFFF000F8000000007FFFFFE0007F800700
310
07F8001FFF80007FF000000000FFFFFF800000000FFFFFF80FFFFFFFFFFFFFC0
310
7FFFFFF0001FFFFFF8000FFFFFFFF8000FF8000FFFFFFFF8000FFF0003FFFFFF
310
FFFC000000007FFFF000F800000007FFFFFFC0007F8003000FF8001FFF80007F
310
F000000007FFFFFF000000007FFFFFF80FFFFFFFFFFFFFC07FFFFFF0001FFFFF
310
F8000FFFFFFFF8000FF8000FFFFFFFF8000FFF0003FFFFFFFFF80000000FFFFF
310
F000F0000000FFFFFFFFC000FF8003000FF8001FFF80007FE0000000FFFFFFFF
310
0000000FFFFFFFF8000001FFFE0000007FFFFFF0001FFFFFF8000FFFFFFFF800
310
0FF8000FFFFFFFF8000FFF0003FFFFFFFFF8000000FFFFFFF000F000000FFFFF
310
FFFFC000FFC002000FF8000FFF80007FE000001FFFFFFFFE000001FFFFFFFFF8
310
000001FFFE0000007FFFFFF0001FFFFFF8000FFFFFFFF8000FF8000FFFFFFFF8
310
000FFF0003FFFFFFFFF000001FFFFFFFF000E00000FFFFFFFFFFC000FFC00200
310
0FFC000FFF80007FE00001FFFFFFFFFE00001FFFFFFFFFF8000001FFFE000000
310
7FFFFFF0001FFFFFFC000FFFFFFFF8001FFC000FFFFFFFF8001FFF0003FFFFFF
310
FFF00001FFFFFFFFF000E00007FFFFFFFFFF8000FFC000001FFC000FFF80007F
310
C0000FFFFFFFFFFE0000FFFFFFFFFFF8000001FFFE0000007FFFFFF0001FFFFF
310
FC0007FFFFFFF0001FFC0007FFFFFFF0001FFF0003FFFFFFFFF00007FFFFFFFF
310
F000E0001FFFFFFFFFFF8000FFC000001FFC000FFF80007FC0003FFFFFFFFFFE
310
0001FFFFFFFFFFF8000001FFFE0000007FFFFFF0001FFFFFFC0007FFFFFFF000
310
1FFC0007FFFFFFF0001FFF0003FFFFFFFFF0001FFFFFFFFFF000E0003FFFFF00
310
03FF8001FFE000001FFC0007FF80007FC0007FFFFF0007FC0003FFFFF0003FF8
310
000001FFFE0000007FFFFFF0001FFFFFFC0003FFFFFFE0001FFC0003FFFFFFE0
310
001FFF0003FFFFFFFFF0003FFFFFFFFFF000E0003FFFFF0001FF8001FFE00000
310
1FFE0007FF80007FC0007FFFFE0003FC0007FFFFE0003FF8000001FFFE000000
310
7FFFFFF0001FFFFFFE0003FFFFFFE0003FFE0003FFFFFFE0003FFF0003FFFFFF
310
FFF0003FFFFF8001F000E0003FFFFF0001FF0001FFE000001FFE0007FF80007F
310
C0007FFFFE0003FC0007FFFFE0003FF8000001FFFE0000007FFFFFF0001FFFFF
310
FE0001FFFFFFC0003FFE0001FFFFFFC0003FFF0003FFFFFFFFF0003FFFFF0001
310
F000E0003FFFFF0003FF0001FFE000003FFE0007FF80007FC0007FFFFE0003FC
310
0007FFFFE0003FF8000001FFFE0000007FFFFFF0001FFFFFFF0001FFFFFFC000
310
7FFF0001FFFFFFC0007FFF0003FFFFFFFFF0003FFFFF0001F000E0003FFFFE00
310
03FF0003FFF000003FFE0003FF80007FC0007FFFFC0003FE0007FFFFE0003FF8
310
000001FFFE0000007FFFFFF0001FFFFFFF0000FFFFFF80007FFF0000FFFFFF80
310
007FFF0003FFFFFFFFF0003FFFFF0001F000E0003FFFFE0003FF0003FFF00000
310
3FFF0003FF80007FC0007FFFFC0007FE0007FFFFC0003FF8000001FFFE000000
310
7FFFFFF0001FFFFFFF80007FFFFF0000FFFF80007FFFFF0000FFFF0003FFFFFF
310
FFF0003FFFFF0003F000E0003FFFFC0003FE0003FFF000003FFF0003FF80007F
310
E0003FFFF80007FE0003FFFFC0007FF8000001FFFE0000007FFFFFF0001FFFFF
310
FF80003FFFFE0000FFFF80003FFFFE0000FFFF0003FFFFFFFFF0001FFFFE0003
310
F000F0001FFFF80003FE0003FFF000007FFF0001FF80007FE0003FFFF00007FE
310
0001FFFF80007FF8000001FFFE0000007FFFFFF0001FFFFFFFC0000FFFF80001
310
FFFFC0000FFFF80001FFFF0003FFFFFFFFF0001FFFFC0003F000F0000FFFF000
310
07FE0007FFF800007FFF0001FF80007FE0001FFFE00007FF0000FFFE00007FF8
310
000001FFFE0000007FFFFFF0001FFFFFFFC00003FFE00001FFFFC00003FFE000
310
01FFFF0003FFFFFFFFF8000FFFF80003F000F00003FFC00007FC0007FFF80000
310
7FFF8001FF80007FF00007FF80000FFF00007FF80000FFF8000001FFFE000000
310
7F80000000000001FFE000003E000003FFFFE000003E000003FFFF0003FFFFFF
310
FFF80003FFE00007F000F800000000000FFC0007FFF800007FFF8001FF80007F
310
F000000000000FFF000000000000FFF8000001FFFE0000007F80000000000001
310
FFF0000000000007FFFFF0000000000007FFFF0003FFFFFFFFFC00007E000007
310
F000F800000000000FFC0007FFF80000FFFF8000FF80007FF800000000001FFF
310
800000000001FFF8000001FFFE0000007F80000000000001FFF800000000000F
310
FFFFF800000000000FFFFF0003FFFFFFFFFC00000000000FF000FC0000000000
310
1FFC0007FFFC0000FFFF8000FF80007FF800000000003FFFC00000000001FFF8
310
000001FFFE0000007F80000000000001FFF800000000000FFFFFF80000000000
310
0FFFFF0003FFFFFFFFFE00000000001FF000FE00000000003FF8000FFFFC0000
310
FFFF8000FF80007FFC00000000003FFFC00000000003FFF8000001FFFE000000
310
7F80000000000001FFFC00000000001FFFFFFC00000000001FFFFF0003FFFFFF
310
FFFF00000000001FF000FF00000000003FF8000FFFFC0000FFFFC000FF80007F
310
FE00000000007FFFE00000000007FFF8000001FFFE0000007F80000000000001
310
FFFE00000000003FFFFFFE00000000003FFFFF0003FFFFFFFFFF80000000003F
310
F000FF80000000007FF8000FFFFC0001FFFFC0007F80007FFF0000000000FFFF
310
F0000000000FFFF800000000000000007F80000000000001FFFF8000000000FF
310
FFFFFF8000000000FFFFFF0003FFFFFFFFFFC0000000007FF000FFC000000000
310
FFF8000FFFFE0001FFFFC0007F80007FFF8000000001FFFFF8000000001FFFF8
310
00000000000000007F80000000000001FFFFC000000001FFFFFFFFC000000001
310
FFFFFF0003FFFFFFFFFFE000000000FFF000FFE000000003FFF0001FFFFE0001
310
FFFFC0007F80007FFFC000000007FFFFFE000000003FFFF80000000000000000
310
7F80000000000001FFFFE000000003FFFFFFFFE000000003FFFFFF0003FFFFFF
310
FFFFF000000003FFF000FFF80000000FFFF0001FFFFE0001FFFFE0007F80007F
310
FFF00000000FFFFFFF00000000FFFFF800000000000000007F80000000000001
310
FFFFF80000000FFFFFFFFFF80000000FFFFFFF0003FFFFFFFFFFFC0000000FFF
310
F000FFFE0000003FFFF0001FFFFE0003FFFFE0003F80007FFFFC0000003FFFFF
310
FFC0000003FFFFF800000000000000007F80000000000001FFFFFE0000003FFF
310
FFFFFFFE0000003FFFFFFF0003FFFFFFFFFFFF0000003FFFF000FFFF800000FF
310
FFF0001FFFFF0003FFFFE0003F80007FFFFF000001FFFFFFFFF800001FFFFFF8
310
00000000000000007F80000000000001FFFFFFC00001FFFFFFFFFFFFC00001FF
310
FFFFFF0003FFFFFFFFFFFFC00000FFFFF000FFFFF8000FFFFFFFFFFFFFFFFFFF
310
FFFFFFFFFFFFFFFFFFFFF0001FFFFFFFFFFF0000FFFFFFF80000000000000000
310
7FFFFFFFFFFFFFFFFFFFFFFC001FFFFFFFFFFFFFFC001FFFFFFFFFFFFFFFFFFF
310
FFFFFFFC001FFFFFF000FFFFFFFFFFFFFFFFFFFFFFFFFFFFFFFFFFFFFFFFFFFF
310
FFFFFFFFFFFFFFFFFFFFFFFFFFFFFFFFFFFFFFFFFFFFFFFFFFFFFFFFFFFFFFFF
310
FFFFFFFFFFFFFFFFFFFFFFFFFFFFFFFFFFFFFFFFFFFFFFFFFFFFFFFFFFFFFFFF
310
F000FFFFFFFFFFFFFFFFFFFFFFFFFFFFFFFFFFFFFFFFFFFFFFFFFFFFFFFFFFFF
310
FFFFFFFFFFFFFFFFFFFFFFFFFFFFFFFFFFFFFFFFFFFFFFFFFFFFFFFFFFFFFFFF
310
FFFFFFFFFFFFFFFFFFFFFFFFFFFFFFFFFFFFFFFFFFFFFFFFF000FFFFFFFFFFFF
310
FFFFFFFFFFFFFFFFFFFFFFFFFFFFFFFFFFFFFFFFFFFFFFFFFFFFFFFFFFFFFFFF
310
FFFFFFFFFFFFFFFFFFFFFFFFFFFFFFFFFFFFFFFFFFFFFFFFFFFFFFFFFFFFFFFF
310
FFFFFFFFFFFFFFFFFFFFFFFFFFFFFFFFF000FFFFFFFFFFFFFFFFFFFFFFFFFFFF
310
FFFFFFFFFFFFFFFFFFFFFFFFFFFFFFFFFFFFFFFFFFFFFFFFFFFFFFFFFFFFFFFF
310
FFFFFFFFFFFFFFFFFFFFFFFFFFFFFFFFFFFFFFFFFFFFFFFFFFFFFFFFFFFFFFFF
310
FFFFFFFFFFFFFFFFF000FFFFFFFFFFFFFFFFFFFFFFFFFFFFFFFFFFFFFFFFFFFF
310
FFFFFFFFFFFFFFFFFFFFFFFFFFFFFFFFFFFFFFFFFFFFFFFFFFFFFFFFFFFFFFFF
310
FFFFFFFFFFFFFFFFFFFFFFFFFFFFFFFFFFFFFFFFFFFFFFFFFFFFFFFFFFFFFFFF
310
F000FFFFFFFFFFFFFFFFFFFFFFFFFFFFFFFFFFFFFFFFFFFFFFFFFFFFFFFFFFFF
310
FFFFFFFFFFFFFFFFFFFFFFFFFFFFFFFFFFFFFFFFFFFFFFFFFFFFFFFFFFFFFFFF
310
FFFFFFFFFFFFFFFFFFFFFFFFFFFFFFFFFFFFFFFFFFFFFFFFF000FFFFFFFFFFFF
310
FFFFFFFFFFFFFFFFFFFFFFFFFFFFFFFFFFFFFFFFFFFFFFFFFFFFFFFFFFFFFFFF
310
FFFFFFFFFFFFFFFFFFFFFFFFFFFFFFFFFFFFFFFFFFFFFFFFFFFFFFFFFFFFFFFF
310
FFFFFFFFFFFFFFFFFFFFFFFFFFFFFFFFF000FFFFFFFFFFFFFFFFFFFFFFFFFFFF
310
FFFFFFFFFFFFFFFFFFFFFFFFFFFFFFFFFFFFFFFFFFFFFFFFFFFFFFFFFFFFFFFF
310
FFFFFFFFFFFFFFFFFFFFFFFFFFFFFFFFFFFFFFFFFFFFFFFFFFFFFFFFFFFFFFFF
310
FFFFFFFFFFFFFFFFF000FFFFFFFFFFFFFFFFFFFFFFFFFFFFFFFFFFFFFFFFFFFF
310
FFFFFFFFFFFFFFFFFFFFFFFFFFFFFFFFFFFFFFFFFFFFFFFFFFFFFFFFFFFFFFFF
310
FFFFFFFFFFFFFFFFFFFFFFFFFFFFFFFFFFFFFFFFFFFFFFFFFFFFFFFFFFFFFFFF
310
F000FFFFFFFFFFFFFFFFFFFFFFFFFFFFFFFFFFFFFFFFFFFFFFFFFFFFFFFFFFFF
310
FFFFFFFFFFFFFFFFFFFFFFFFFFFFFFFFFFFFFFFFFFFFFFFFFFFFFFFFFFFFFFFF
310
FFFFFFFFFFFFFFFFFFFFFFFFFFFFFFFFFFFFFFFFFFFFFFFFF000FFFFFFFFFFFF
310
FFFFFFFFFFFFFFFFFFFFFFFFFFFFFFFFFFFFFFFFFFFFFFFFFFFFFFFFFFFFFFFF
310
FFFFFFFFFFFFFFFFFFFFFFFFFFFFFFFFFFFFFFFFFFFFFFFFFFFFFFFFFFFFFFFF
310
FFFFFFFFFFFFFFFFFFFFFFFFFFFFFFFFF000FFFFFFFFFFFFFFFFFFFFFFFFFFFF
310
FFFFFFFFFFFFFFFFFFFFFFFFFFFFFFFFFFFFFFFFFFFFFFFFFFFFFFFFFFFFFFFF
310
FFFFFFFFFFFFFFFFFFFFFFFFFFFFFFFFFFFFFFFFFFFFFFFFFFFFFFFFFFFFFFFF
310
FFFFFFFFFFFFFFFFF000FFFFFFFFFFFFFFFFFFFFFFFFFFFFFFFFFFFFFFFFFFFF
310
FFFFFFFFFFFFFFFFFFFFFFFFFFFFFFFFFFFFFFFFFFFFFFFFFFFFFFFFFFFFFFFF
310
FFFFFFFFFFFFFFFFFFFFFFFFFFFFFFFFFFFFFFFFFFFFFFFFFFFFFFFFFFFFFFFF
310
F000FFFFFFFFFFFFFFFFFFFFFFFFFFFFFFFFFFFFFFFFFFFFFFFFFFFFFFFFFFFF
310
FFFFFFFFFFFFFFFFFFFFFFFFFFFFFFFFFFFFFFFFFFFFFFFFFFFFFFFFFFFFFFFF
310
FFFFFFFFFFFFFFFFFFFFFFFFFFFFFFFFFFFFFFFFFFFFFFFFF000FFFFFFFFFFFF
310
FFFFFFFFFFFFFFFFFFFFFFFFFFFFFFFFFFFFFFFFFFFFFFFFFFFFFFFFFFFFFFFF
310
FFFFFFFFFFFFFFFFFFFFFFFFFFFFFFFFFFFFFFFFFFFFFFFFFFFFFFFFFFFFFFFF
310
FFFFFFFFFFFFFFFFFFFFFFFFFFFFFFFFF000FFFFFFFFFFFFFFFFFFFFFFFFFFFF
310
FFFFFFFFFFFFFFFFFFFFFFFFFFFFFFFFFFFFFFFFFFFFFFFFFFFFFFFFFFFFFFFF
310
FFFFFFFFFFFFFFFFFFFFFFFFFFFFFFFFFFFFFFFFFFFFFFFFFFFFFFFFFFFFFFFF
310
FFFFFFFFFFFFFFFFF000FFFFFFFFFFFFFFFFFFFFFFFFFFFFFFFFFFFFFFFFFFFF
310
FFFFFFFFFFFFFFFFFFFFFFFFFFFFFFFFFFFFFFFFFFFFFFFFFFFFFFFFFFFFFFFF
310
FFFFFFFFFFFFFFFFFFFFFFFFFFFFFFFFFFFFFFFFFFFFFFFFFFFFFFFFFFFFFFFF
310
F000FFFFFFFFFFFFFFFFFFFFFFFFFFFFFFFFFFFFFFFFFFFFFFFFFFFFFFFFFFFF
310
FFFFFFFFFFFFFFFFFFFFFFFFFFFFFFFFFFFFFFFFFFFFFFFFFFFFFFFFFFFFFFFF
310
FFFFFFFFFFFFFFFFFFFFFFFFFFFFFFFFFFFFFFFFFFFFFFFFF000FFFFFFFFFFFF
310
FFFFFFFFFFFFFFFFFFFFFFFFFFFFFFFFFFFFFFFFFFFFFFFFFFFFFFFFFFFFFFFF
310
FFFFFFFFFFFFFFFFFFFFFFFFFFFFFFFFFFFFFFFFFFFFFFFFFFFFFFFFFFFFFFFF
310
FFFFFFFFFFFFFFFFFFFFFFFFFFFFFFFFF000FFFFFFFFFFFFFFFFFFFFFFFFFFFF
310
FFFFFFFFFFFFFFFFFFFFFFFFFFFFFFFFFFFFFFFFFFFFFFFFFFFFFFFFFFFFFFFF
310
FFFFFFFFFFFFFFFFFFFFFFFFFFFFFFFFFFFFFFFFFFFFFFFFFFFFFFFFFFFFFFFF
310
FFFFFFFFFFFFFFFFF000FFFFFFFFFFFFFFFFFFFFFFFFFFFFFFFFFFFFFFFFFFFF
310
FFFFFFFFFFFFFFFFFFFFFFFFFFFFFFFFFFFFFFFFFFFFFFFFFFFFFFFFFFFFFFFF
310
FFFFFFFFFFFFFFFFFFFFFFFFFFFFFFFFFFFFFFFFFFFFFFFFFFFFFFFFFFFFFFFF
310
F000FFFFFFFFFFFFFFFFFFFFFFFFFFFFFFFFFFFFFFFFFFFFFFFFFFFFFFFFFFFF
310
FFFFFFFFFFFFFFFFFFFFFFFFFFFFFFFFFFFFFFFFFFFFFFFFFFFFFFFFFFFFFFFF
310
FFFFFFFFFFFFFFFFFFFFFFFFFFFFFFFFFFFFFFFFFFFFFFFFF000FFFFFFFFFFFF
310
FFFFFFFFFFFFFFFFFFFFFFFFFFFFFFFFFFFFFFFFFFFFFFFFFFFFFFFFFFFFFFFF
310
FFFFFFFFFFFFFFFFFFFFFFFFFFFFFFFFFFFFFFFFFFFFFFFFFFFFFFFFFFFFFFFF
310
FFFFFFFFFFFFFFFFFFFFFFFFFFFFFFFFF0000000000000000000000000000000
310
00000000000000000000000042006C00610063006B0000000000000000000000
310
0000000000000000000000000000000000000000000000000000000000000000
310
0000000000000000000000000000FFFFFFFFFFFFFFFFFFFFFFFFFFFFFFFFFFFF
310
FFFFFFFFFFFFFFFFFFFFFFFFFFFFFFFFFFFFFFFFFFFFFFFFFFFFFFFFFFFFFFFF
310
FFFFFFFFFFFFFFFFFFFFFFFF6476000800000000FFFFFFFF20FF202026000000
310
1E00000008000000060000000000000011000000200000008403000000000000
310
6000000060000000200002FB200020000000002B00FFFFFF40002200E8030000
310
A80400001C020000AF0000804A20004000000000000000000100000000000000
310
616C000800000000E40100007001000002000000270000001100000000000000
310
00000000BC0200000000000003020122420065006C006C00200047006F007400
310
680069006300200053007400640020004C006900670068007400000000000000
310
00000000000000000000000000000000420065006C006C0047006F0074006800
310
690063005300740064002D0042006F006C006400000000000000000000000000
310
0000000000000000000000000000000000000000000000000000000000000000
310
0000000000000000000000000000000000000000000000000000000000000000
  1
OLE
  0
ENDSEC
  0
SECTION
  2
OBJECTS
  0
DICTIONARY
  5
C
330
0
100
AcDbDictionary
281
     1
  3
ACAD_GROUP
350
D
  3
ACAD_LAYOUT
350
1A
  3
ACAD_MLEADERSTYLE
350
213
  3
ACAD_MLINESTYLE
350
17
  3
ACAD_PLOTSETTINGS
350
19
  3
ACAD_PLOTSTYLENAME
350
E
  3
ACAD_TABLESTYLE
350
212
  3
ACAD_VISUALSTYLE
350
2A
  3
AcDbVariableDictionary
350
214
  0
DICTIONARY
  5
D
102
{ACAD_REACTORS
330
C
102
}
330
C
100
AcDbDictionary
281
     1
  0
DICTIONARY
  5
1A
102
{ACAD_REACTORS
330
C
102
}
330
C
100
AcDbDictionary
281
     1
  3
Layout1
350
1E
  3
Layout2
350
26
  3
Model
350
22
  0
DICTIONARY
  5
213
102
{ACAD_REACTORS
330
C
102
}
330
C
100
AcDbDictionary
281
     1
  0
DICTIONARY
  5
17
102
{ACAD_REACTORS
330
C
102
}
330
C
100
AcDbDictionary
281
     1
  3
Standard
350
18
  0
DICTIONARY
  5
19
102
{ACAD_REACTORS
330
C
102
}
330
C
100
AcDbDictionary
281
     1
  0
ACDBDICTIONARYWDFLT
  5
E
102
{ACAD_REACTORS
330
C
102
}
330
C
100
AcDbDictionary
281
     1
  3
Normal
350
F
100
AcDbDictionaryWithDefault
340
F
  0
DICTIONARY
  5
212
102
{ACAD_REACTORS
330
C
102
}
330
C
100
AcDbDictionary
281
     1
  0
DICTIONARY
  5
2A
102
{ACAD_REACTORS
330
C
102
}
330
C
100
AcDbDictionary
281
     1
  3
2dWireframe
350
2F
  3
3D Hidden
350
31
  3
3dWireframe
350
30
  3
Basic
350
32
  3
Brighten
350
36
  3
ColorChange
350
3A
  3
Conceptual
350
34
  3
Dim
350
35
  3
Facepattern
350
39
  3
Flat
350
2B
  3
FlatWithEdges
350
2C
  3
Gouraud
350
2D
  3
GouraudWithEdges
350
2E
  3
Linepattern
350
38
  3
Realistic
350
33
  3
Thicken
350
37
  0
DICTIONARY
  5
214
102
{ACAD_REACTORS
330
C
102
}
330
C
100
AcDbDictionary
281
     1
  3
PSOLHEIGHT
350
216
  3
PSOLWIDTH
350
215
  0
LAYOUT
  5
1E
102
{ACAD_REACTORS
330
1A
102
}
330
1A
100
AcDbPlotSettings
  1

  2
none_device
  4

  6

 40
0.0
 41
0.0
 42
0.0
 43
0.0
 44
0.0
 45
0.0
 46
0.0
 47
0.0
 48
0.0
 49
0.0
140
0.0
141
0.0
142
1.0
143
1.0
 70
   688
 72
     0
 73
     0
 74
     5
  7

 75
    16
147
1.0
148
0.0
149
0.0
100
AcDbLayout
  1
Layout1
 70
     1
 71
     1
 10
0.0
 20
0.0
 11
420.0
 21
297.0
 12
0.0
 22
0.0
 32
0.0
 14
1.0000000000E+20
 24
1.0000000000E+20
 34
1.0000000000E+20
 15
-1.0000000000E+20
 25
-1.0000000000E+20
 35
-1.0000000000E+20
146
0.0
 13
0.0
 23
0.0
 33
0.0
 16
1.0
 26
0.0
 36
0.0
 17
0.0
 27
1.0
 37
0.0
 76
     0
330
1B
  0
LAYOUT
  5
26
102
{ACAD_REACTORS
330
1A
102
}
330
1A
100
AcDbPlotSettings
  1

  2
none_device
  4

  6

 40
0.0
 41
0.0
 42
0.0
 43
0.0
 44
0.0
 45
0.0
 46
0.0
 47
0.0
 48
0.0
 49
0.0
140
0.0
141
0.0
142
1.0
143
1.0
 70
   688
 72
     0
 73
     0
 74
     5
  7

 75
    16
147
1.0
148
0.0
149
0.0
100
AcDbLayout
  1
Layout2
 70
     1
 71
     2
 10
0.0
 20
0.0
 11
0.0
 21
0.0
 12
0.0
 22
0.0
 32
0.0
 14
0.0
 24
0.0
 34
0.0
 15
0.0
 25
0.0
 35
0.0
146
0.0
 13
0.0
 23
0.0
 33
0.0
 16
1.0
 26
0.0
 36
0.0
 17
0.0
 27
1.0
 37
0.0
 76
     0
330
23
  0
LAYOUT
  5
22
102
{ACAD_REACTORS
330
1A
102
}
330
1A
100
AcDbPlotSettings
  1

  2
none_device
  4

  6

 40
0.0
 41
0.0
 42
0.0
 43
0.0
 44
0.0
 45
0.0
 46
0.0
 47
0.0
 48
0.0
 49
0.0
140
0.0
141
0.0
142
1.0
143
1.0
 70
  1712
 72
     0
 73
     0
 74
     0
  7

 75
     0
147
1.0
148
0.0
149
0.0
100
AcDbLayout
  1
Model
 70
     1
 71
     0
 10
0.0
 20
0.0
 11
297.0
 21
210.0
 12
0.0
 22
0.0
 32
0.0
 14
0.0
 24
0.0
 34
0.0
 15
297.0
 25
210.0
 35
0.0
146
0.0
 13
0.0
 23
0.0
 33
0.0
 16
1.0
 26
0.0
 36
0.0
 17
0.0
 27
1.0
 37
0.0
 76
     0
330
1F
331
29
  0
MLINESTYLE
  5
18
102
{ACAD_REACTORS
330
17
102
}
330
17
100
AcDbMlineStyle
  2
Standard
 70
     0
  3

 62
   256
 51
90.0
 52
90.0
 71
     2
 49
0.5
 62
   256
  6
BYLAYER
 49
-0.5
 62
   256
  6
BYLAYER
  0
ACDBPLACEHOLDER
  5
F
102
{ACAD_REACTORS
330
E
102
}
330
E
  0
VISUALSTYLE
  5
2F
102
{ACAD_REACTORS
330
2A
102
}
330
2A
100
AcDbVisualStyle
  2
2dWireframe
 70
     4
 71
     0
 72
     2
 73
     0
 90
        0
 40
-0.6
 41
-30.0
 62
     5
 63
     7
 74
     1
 91
        4
 64
     7
 65
   257
 75
     1
175
     1
 42
1.0
 92
        0
 66
   257
 43
1.0
 76
     1
 77
     6
 78
     2
 67
     7
 79
     5
170
     0
171
     0
290
     0
174
     0
 93
        1
 44
0.0
173
     0
291
     0
 45
0.0
1001
ACAD
1000
AcDbSavedByObjectVersion
1070
     0
  0
VISUALSTYLE
  5
31
102
{ACAD_REACTORS
330
2A
102
}
330
2A
100
AcDbVisualStyle
  2
3D Hidden
 70
     6
 71
     1
 72
     2
 73
     2
 90
        0
 40
-0.6
 41
-30.0
 62
     5
 63
     7
 74
     2
 91
        2
 64
     7
 65
   257
 75
     2
175
     1
 42
40.0
 92
        0
 66
   257
 43
1.0
 76
     1
 77
     6
 78
     2
 67
     7
 79
     3
170
     0
171
     0
290
     0
174
     0
 93
        1
 44
0.0
173
     0
291
     0
 45
0.0
1001
ACAD
1000
AcDbSavedByObjectVersion
1070
     0
  0
VISUALSTYLE
  5
30
102
{ACAD_REACTORS
330
2A
102
}
330
2A
100
AcDbVisualStyle
  2
3dWireframe
 70
     5
 71
     0
 72
     2
 73
     0
 90
        0
 40
-0.6
 41
-30.0
 62
     5
 63
     7
 74
     1
 91
        4
 64
     7
 65
   257
 75
     1
175
     1
 42
1.0
 92
        0
 66
   257
 43
1.0
 76
     1
 77
     6
 78
     2
 67
     7
 79
     5
170
     0
171
     0
290
     0
174
     0
 93
        1
 44
0.0
173
     0
291
     0
 45
0.0
1001
ACAD
1000
AcDbSavedByObjectVersion
1070
     0
  0
VISUALSTYLE
  5
32
102
{ACAD_REACTORS
330
2A
102
}
330
2A
100
AcDbVisualStyle
  2
Basic
 70
     7
 71
     1
 72
     0
 73
     1
 90
        0
 40
-0.6
 41
-30.0
 62
     5
 63
     7
 74
     0
 91
        4
 64
     7
 65
   257
 75
     1
175
     1
 42
1.0
 92
        8
 66
     7
 43
1.0
 76
     1
 77
     6
 78
     2
 67
     7
 79
     5
170
     0
171
     0
290
     0
174
     0
 93
        1
 44
0.0
173
     0
291
     1
 45
0.0
1001
ACAD
1000
AcDbSavedByObjectVersion
1070
     0
  0
VISUALSTYLE
  5
36
102
{ACAD_REACTORS
330
2A
102
}
330
2A
100
AcDbVisualStyle
  2
Brighten
 70
    12
 71
     2
 72
     2
 73
     0
 90
        0
 40
-0.6
 41
-30.0
 62
     5
 63
     7
 74
     1
 91
        4
 64
     7
 65
   257
 75
     1
175
     1
 42
1.0
 92
        8
 66
     7
 43
1.0
 76
     1
 77
     6
 78
     2
 67
     7
 79
     5
170
     0
171
     0
290
     0
174
     0
 93
        1
 44
50.0
173
     0
291
     1
 45
0.0
1001
ACAD
1000
AcDbSavedByObjectVersion
1070
     0
  0
VISUALSTYLE
  5
3A
102
{ACAD_REACTORS
330
2A
102
}
330
2A
100
AcDbVisualStyle
  2
ColorChange
 70
    16
 71
     2
 72
     2
 73
     3
 90
        0
 40
-0.6
 41
-30.0
 62
     5
 63
     8
 74
     1
 91
        4
 64
     7
 65
   257
 75
     1
175
     1
 42
1.0
 92
        8
 66
     8
 43
1.0
 76
     1
 77
     6
 78
     2
 67
     7
 79
     5
170
     0
171
     0
290
     0
174
     0
 93
        1
 44
0.0
173
     0
291
     1
 45
0.0
1001
ACAD
1000
AcDbSavedByObjectVersion
1070
     0
  0
VISUALSTYLE
  5
34
102
{ACAD_REACTORS
330
2A
102
}
330
2A
100
AcDbVisualStyle
  2
Conceptual
 70
     9
 71
     3
 72
     2
 73
     0
 90
        0
 40
-0.6
 41
-30.0
 62
     5
 63
     7
 74
     2
 91
        2
 64
     7
 65
   257
 75
     1
175
     1
 42
40.0
 92
        8
 66
     7
 43
1.0
 76
     1
 77
     6
 78
     2
 67
     7
 79
     3
170
     0
171
     0
290
     0
174
     0
 93
        1
 44
0.0
173
     0
291
     0
 45
0.0
1001
ACAD
1000
AcDbSavedByObjectVersion
1070
     0
  0
VISUALSTYLE
  5
35
102
{ACAD_REACTORS
330
2A
102
}
330
2A
100
AcDbVisualStyle
  2
Dim
 70
    11
 71
     2
 72
     2
 73
     0
 90
        0
 40
-0.6
 41
-30.0
 62
     5
 63
     7
 74
     1
 91
        4
 64
     7
 65
   257
 75
     1
175
     1
 42
1.0
 92
        8
 66
     7
 43
1.0
 76
     1
 77
     6
 78
     2
 67
     7
 79
     5
170
     0
171
     0
290
     0
174
     0
 93
        1
 44
-50.0
173
     0
291
     1
 45
0.0
1001
ACAD
1000
AcDbSavedByObjectVersion
1070
     0
  0
VISUALSTYLE
  5
39
102
{ACAD_REACTORS
330
2A
102
}
330
2A
100
AcDbVisualStyle
  2
Facepattern
 70
    15
 71
     2
 72
     2
 73
     0
 90
        0
 40
-0.6
 41
-30.0
 62
     5
 63
     7
 74
     1
 91
        4
 64
     7
 65
   257
 75
     1
175
     1
 42
1.0
 92
        8
 66
     7
 43
1.0
 76
     1
 77
     6
 78
     2
 67
     7
 79
     5
170
     0
171
     0
290
     0
174
     0
 93
        1
 44
0.0
173
     0
291
     1
 45
0.0
1001
ACAD
1000
AcDbSavedByObjectVersion
1070
     0
  0
VISUALSTYLE
  5
2B
102
{ACAD_REACTORS
330
2A
102
}
330
2A
100
AcDbVisualStyle
  2
Flat
 70
     0
 71
     2
 72
     1
 73
     1
 90
        2
 40
-0.6
 41
30.0
 62
     5
 63
     7
 74
     0
 91
        4
 64
     7
 65
   257
 75
     1
175
     1
 42
1.0
 92
        8
 66
     7
 43
1.0
 76
     1
 77
     6
 78
     2
 67
     7
 79
     5
170
     0
171
     0
290
     0
174
     0
 93
       13
 44
0.0
173
     0
291
     1
 45
0.0
1001
ACAD
1000
AcDbSavedByObjectVersion
1070
     0
  0
VISUALSTYLE
  5
2C
102
{ACAD_REACTORS
330
2A
102
}
330
2A
100
AcDbVisualStyle
  2
FlatWithEdges
 70
     1
 71
     2
 72
     1
 73
     1
 90
        2
 40
-0.6
 41
30.0
 62
     5
 63
     7
 74
     1
 91
        4
 64
     7
 65
   257
 75
     1
175
     1
 42
1.0
 92
        0
 66
   257
 43
1.0
 76
     1
 77
     6
 78
     2
 67
     7
 79
     5
170
     0
171
     0
290
     0
174
     0
 93
       13
 44
0.0
173
     0
291
     1
 45
0.0
1001
ACAD
1000
AcDbSavedByObjectVersion
1070
     0
  0
VISUALSTYLE
  5
2D
102
{ACAD_REACTORS
330
2A
102
}
330
2A
100
AcDbVisualStyle
  2
Gouraud
 70
     2
 71
     2
 72
     2
 73
     1
 90
        2
 40
-0.6
 41
30.0
 62
     5
 63
     7
 74
     0
 91
        4
 64
     7
 65
   257
 75
     1
175
     1
 42
1.0
 92
        0
 66
     7
 43
1.0
 76
     1
 77
     6
 78
     2
 67
     7
 79
     5
170
     0
171
     0
290
     0
174
     0
 93
       13
 44
0.0
173
     0
291
     1
 45
0.0
1001
ACAD
1000
AcDbSavedByObjectVersion
1070
     0
  0
VISUALSTYLE
  5
2E
102
{ACAD_REACTORS
330
2A
102
}
330
2A
100
AcDbVisualStyle
  2
GouraudWithEdges
 70
     3
 71
     2
 72
     2
 73
     1
 90
        2
 40
-0.6
 41
30.0
 62
     5
 63
     7
 74
     1
 91
        4
 64
     7
 65
   257
 75
     1
175
     1
 42
1.0
 92
        0
 66
   257
 43
1.0
 76
     1
 77
     6
 78
     2
 67
     7
 79
     5
170
     0
171
     0
290
     0
174
     0
 93
       13
 44
0.0
173
     0
291
     1
 45
0.0
1001
ACAD
1000
AcDbSavedByObjectVersion
1070
     0
  0
VISUALSTYLE
  5
38
102
{ACAD_REACTORS
330
2A
102
}
330
2A
100
AcDbVisualStyle
  2
Linepattern
 70
    14
 71
     2
 72
     2
 73
     0
 90
        0
 40
-0.6
 41
-30.0
 62
     5
 63
     7
 74
     1
 91
        4
 64
     7
 65
   257
 75
     7
175
     7
 42
1.0
 92
        8
 66
     7
 43
1.0
 76
     1
 77
     6
 78
     2
 67
     7
 79
     5
170
     0
171
     0
290
     0
174
     0
 93
        1
 44
0.0
173
     0
291
     1
 45
0.0
1001
ACAD
1000
AcDbSavedByObjectVersion
1070
     0
  0
VISUALSTYLE
  5
33
102
{ACAD_REACTORS
330
2A
102
}
330
2A
100
AcDbVisualStyle
  2
Realistic
 70
     8
 71
     2
 72
     2
 73
     0
 90
        0
 40
-0.6
 41
-30.0
 62
     5
 63
     7
 74
     1
 91
        0
 64
     7
 65
   257
 75
     1
175
     1
 42
1.0
 92
        8
 66
     8
 43
1.0
 76
     1
 77
     6
 78
     2
 67
     7
 79
     5
170
     0
171
     0
290
     0
174
     0
 93
       13
 44
0.0
173
     0
291
     0
 45
0.0
1001
ACAD
1000
AcDbSavedByObjectVersion
1070
     0
  0
VISUALSTYLE
  5
37
102
{ACAD_REACTORS
330
2A
102
}
330
2A
100
AcDbVisualStyle
  2
Thicken
 70
    13
 71
     2
 72
     2
 73
     0
 90
        0
 40
-0.6
 41
-30.0
 62
     5
 63
     7
 74
     1
 91
        4
 64
     7
 65
   257
 75
     1
175
     1
 42
1.0
 92
       12
 66
     7
 43
1.0
 76
     1
 77
     6
 78
     2
 67
     7
 79
     5
170
     0
171
     0
290
     0
174
     0
 93
        1
 44
0.0
173
     0
291
     1
 45
0.0
1001
ACAD
1000
AcDbSavedByObjectVersion
1070
     0
  0
DICTIONARYVAR
  5
216
102
{ACAD_REACTORS
330
214
102
}
330
214
100
DictionaryVariables
280
     0
  1
80.000000
  0
DICTIONARYVAR
  5
215
102
{ACAD_REACTORS
330
214
102
}
330
214
100
DictionaryVariables
280
     0
  1
5.000000
  0
ENDSEC
  0
EOF
