  0
SECTION
  2
HEADER
  9
$ACADVER
  1
AC1015
  9
$ACADMAINTVER
 70
     6
  9
$DWGCODEPAGE
  3
ANSI_1252
  9
$INSBASE
 10
0.0
 20
0.0
 30
0.0
  9
$EXTMIN
 10
0.0
 20
0.0
 30
0.0
  9
$EXTMAX
 10
297.0
 20
210.0
 30
0.0
  9
$LIMMIN
 10
0.0
 20
0.0
  9
$LIMMAX
 10
297.0
 20
210.0
  9
$ORTHOMODE
 70
     0
  9
$REGENMODE
 70
     1
  9
$FILLMODE
 70
     1
  9
$QTEXTMODE
 70
     0
  9
$MIRRTEXT
 70
     1
  9
$LTSCALE
 40
1.0
  9
$ATTMODE
 70
     1
  9
$TEXTSIZE
 40
2.0
  9
$TRACEWID
 40
1.0
  9
$TEXTSTYLE
  7
Standard
  9
$CLAYER
  8
0
  9
$CELTYPE
  6
ByLayer
  9
$CECOLOR
 62
   256
  9
$CELTSCALE
 40
1.0
  9
$DISPSILH
 70
     0
  9
$DIMSCALE
 40
1.0
  9
$DIMASZ
 40
3.0
  9
$DIMEXO
 40
0.0
  9
$DIMDLI
 40
3.75
  9
$DIMRND
 40
0.0
  9
$DIMDLE
 40
0.0
  9
$DIMEXE
 40
1.0
  9
$DIMTP
 40
0.0
  9
$DIMTM
 40
0.0
  9
$DIMTXT
 40
2.0
  9
$DIMCEN
 40
2.5
  9
$DIMTSZ
 40
0.0
  9
$DIMTOL
 70
     0
  9
$DIMLIM
 70
     0
  9
$DIMTIH
 70
     1
  9
$DIMTOH
 70
     1
  9
$DIMSE1
 70
     0
  9
$DIMSE2
 70
     0
  9
$DIMTAD
 70
     1
  9
$DIMZIN
 70
     0
  9
$DIMBLK
  1

  9
$DIMASO
 70
     1
  9
$DIMSHO
 70
     1
  9
$DIMPOST
  1

  9
$DIMAPOST
  1

  9
$DIMALT
 70
     0
  9
$DIMALTD
 70
     3
  9
$DIMALTF
 40
0.0393700787
  9
$DIMLFAC
 40
1.0
  9
$DIMTOFL
 70
     1
  9
$DIMTVP
 40
0.0
  9
$DIMTIX
 70
     0
  9
$DIMSOXD
 70
     0
  9
$DIMSAH
 70
     0
  9
$DIMBLK1
  1

  9
$DIMBLK2
  1

  9
$DIMSTYLE
  2
ISO-25
  9
$DIMCLRD
 70
     0
  9
$DIMCLRE
 70
     0
  9
$DIMCLRT
 70
     0
  9
$DIMTFAC
 40
1.0
  9
$DIMGAP
 40
1.524
  9
$DIMJUST
 70
     0
  9
$DIMSD1
 70
     0
  9
$DIMSD2
 70
     0
  9
$DIMTOLJ
 70
     0
  9
$DIMTZIN
 70
     0
  9
$DIMALTZ
 70
     0
  9
$DIMALTTZ
 70
     0
  9
$DIMUPT
 70
     0
  9
$DIMDEC
 70
     2
  9
$DIMTDEC
 70
     3
  9
$DIMALTU
 70
     2
  9
$DIMALTTD
 70
     3
  9
$DIMTXSTY
  7
Standard
  9
$DIMAUNIT
 70
     0
  9
$DIMADEC
 70
     2
  9
$DIMALTRND
 40
0.0
  9
$DIMAZIN
 70
     0
  9
$DIMDSEP
 70
    44
  9
$DIMATFIT
 70
     3
  9
$DIMFRAC
 70
     0
  9
$DIMLDRBLK
  1

  9
$DIMLUNIT
 70
     2
  9
$DIMLWD
 70
    -2
  9
$DIMLWE
 70
    -2
  9
$DIMTMOVE
 70
     0
  9
$LUNITS
 70
     2
  9
$LUPREC
 70
     2
  9
$SKETCHINC
 40
1.0
  9
$FILLETRAD
 40
10.0
  9
$AUNITS
 70
     0
  9
$AUPREC
 70
     2
  9
$MENU
  1
.
  9
$ELEVATION
 40
0.0
  9
$PELEVATION
 40
0.0
  9
$THICKNESS
 40
0.0
  9
$LIMCHECK
 70
     0
  9
$CHAMFERA
 40
10.0
  9
$CHAMFERB
 40
10.0
  9
$CHAMFERC
 40
20.0
  9
$CHAMFERD
 40
0.0
  9
$SKPOLY
 70
     0
  9
$TDCREATE
 40
2455673.386228519
  9
$TDUCREATE
 40
2455673.302895185
  9
$TDUPDATE
 40
2455673.38622853
  9
$TDUUPDATE
 40
2455673.302895197
  9
$TDINDWG
 40
0.0000000116
  9
$TDUSRTIMER
 40
0.0000000116
  9
$USRTIMER
 70
     1
  9
$ANGBASE
 50
0.0
  9
$ANGDIR
 70
     0
  9
$PDMODE
 70
     0
  9
$PDSIZE
 40
-1.0
  9
$PLINEWID
 40
0.0
  9
$SPLFRAME
 70
     0
  9
$SPLINETYPE
 70
     6
  9
$SPLINESEGS
 70
     8
  9
$HANDSEED
  5
20E
  9
$SURFTAB1
 70
     6
  9
$SURFTAB2
 70
     6
  9
$SURFTYPE
 70
     6
  9
$SURFU
 70
     6
  9
$SURFV
 70
     6
  9
$UCSBASE
  2

  9
$UCSNAME
  2

  9
$UCSORG
 10
0.0
 20
0.0
 30
0.0
  9
$UCSXDIR
 10
1.0
 20
0.0
 30
0.0
  9
$UCSYDIR
 10
0.0
 20
1.0
 30
0.0
  9
$UCSORTHOREF
  2

  9
$UCSORTHOVIEW
 70
     0
  9
$UCSORGTOP
 10
0.0
 20
0.0
 30
0.0
  9
$UCSORGBOTTOM
 10
0.0
 20
0.0
 30
0.0
  9
$UCSORGLEFT
 10
0.0
 20
0.0
 30
0.0
  9
$UCSORGRIGHT
 10
0.0
 20
0.0
 30
0.0
  9
$UCSORGFRONT
 10
0.0
 20
0.0
 30
0.0
  9
$UCSORGBACK
 10
0.0
 20
0.0
 30
0.0
  9
$PUCSBASE
  2

  9
$PUCSNAME
  2

  9
$PUCSORG
 10
0.0
 20
0.0
 30
0.0
  9
$PUCSXDIR
 10
1.0
 20
0.0
 30
0.0
  9
$PUCSYDIR
 10
0.0
 20
1.0
 30
0.0
  9
$PUCSORTHOREF
  2

  9
$PUCSORTHOVIEW
 70
     0
  9
$PUCSORGTOP
 10
0.0
 20
0.0
 30
0.0
  9
$PUCSORGBOTTOM
 10
0.0
 20
0.0
 30
0.0
  9
$PUCSORGLEFT
 10
0.0
 20
0.0
 30
0.0
  9
$PUCSORGRIGHT
 10
0.0
 20
0.0
 30
0.0
  9
$PUCSORGFRONT
 10
0.0
 20
0.0
 30
0.0
  9
$PUCSORGBACK
 10
0.0
 20
0.0
 30
0.0
  9
$USERI1
 70
     0
  9
$USERI2
 70
     0
  9
$USERI3
 70
     0
  9
$USERI4
 70
     0
  9
$USERI5
 70
     0
  9
$USERR1
 40
0.0
  9
$USERR2
 40
0.0
  9
$USERR3
 40
0.0
  9
$USERR4
 40
0.0
  9
$USERR5
 40
0.0
  9
$WORLDVIEW
 70
     1
  9
$SHADEDGE
 70
     3
  9
$SHADEDIF
 70
    70
  9
$TILEMODE
 70
     1
  9
$MAXACTVP
 70
    64
  9
$PINSBASE
 10
0.0
 20
0.0
 30
0.0
  9
$PLIMCHECK
 70
     0
  9
$PEXTMIN
 10
1.0000000000E+20
 20
1.0000000000E+20
 30
1.0000000000E+20
  9
$PEXTMAX
 10
-1.0000000000E+20
 20
-1.0000000000E+20
 30
-1.0000000000E+20
  9
$PLIMMIN
 10
0.0
 20
0.0
  9
$PLIMMAX
 10
420.0
 20
297.0
  9
$UNITMODE
 70
     0
  9
$VISRETAIN
 70
     1
  9
$PLINEGEN
 70
     0
  9
$PSLTSCALE
 70
     1
  9
$TREEDEPTH
 70
  3020
  9
$CMLSTYLE
  2
Standard
  9
$CMLJUST
 70
     0
  9
$CMLSCALE
 40
20.0
  9
$PROXYGRAPHICS
 70
     1
  9
$MEASUREMENT
 70
     1
  9
$CELWEIGHT
370
    -1
  9
$ENDCAPS
280
     0
  9
$JOINSTYLE
280
     0
  9
$LWDISPLAY
290
     1
  9
$INSUNITS
 70
     4
  9
$HYPERLINKBASE
  1

  9
$STYLESHEET
  1

  9
$XEDIT
290
     1
  9
$CEPSNTYPE
380
     0
  9
$PSTYLEMODE
290
     1
  9
$FINGERPRINTGUID
  2
{EE2F9E25-13B1-4569-B60B-B5EC8C92AEF6}
  9
$VERSIONGUID
  2
{FAEB1C32-E019-11D5-929B-00C0DF256EC4}
  9
$EXTNAMES
290
     1
  9
$PSVPSCALE
 40
0.0
  9
$OLESTARTUP
290
     0
  0
ENDSEC
  0
SECTION
  2
CLASSES
  0
CLASS
  1
ACDBDICTIONARYWDFLT
  2
AcDbDictionaryWithDefault
  3
ObjectDBX Classes
 90
        0
280
     0
281
     0
  0
CLASS
  1
VISUALSTYLE
  2
AcDbVisualStyle
  3
ObjectDBX Classes
 90
     4095
280
     0
281
     0
  0
CLASS
  1
DICTIONARYVAR
  2
AcDbDictionaryVar
  3
ObjectDBX Classes
 90
        0
280
     0
281
     0
  0
CLASS
  1
ACDBPLACEHOLDER
  2
AcDbPlaceHolder
  3
ObjectDBX Classes
 90
        0
280
     0
281
     0
  0
CLASS
  1
LAYOUT
  2
AcDbLayout
  3
ObjectDBX Classes
 90
        0
280
     0
281
     0
  0
ENDSEC
  0
SECTION
  2
TABLES
  0
TABLE
  2
VPORT
  5
8
330
0
100
AcDbSymbolTable
 70
     1
  0
VPORT
  5
29
330
8
100
AcDbSymbolTableRecord
100
AcDbViewportTableRecord
  2
*Active
 70
     0
 10
0.0
 20
0.0
 11
1.0
 21
1.0
 12
148.5
 22
105.0
 13
0.0
 23
0.0
 14
10.0
 24
10.0
 15
10.0
 25
10.0
 16
0.0
 26
0.0
 36
1.0
 17
0.0
 27
0.0
 37
0.0
 40
210.0
 41
1.4142857143
 42
50.0
 43
0.0
 44
0.0
 50
0.0
 51
0.0
 71
     0
 72
  2000
 73
     1
 74
     3
 75
     0
 76
     0
 77
     0
 78
     0
281
     0
 65
     1
110
0.0
120
0.0
130
0.0
111
1.0
121
0.0
131
0.0
112
0.0
122
1.0
132
0.0
 79
     0
146
0.0
  0
ENDTAB
  0
TABLE
  2
LTYPE
  5
5
330
0
100
AcDbSymbolTable
 70
     6
  0
LTYPE
  5
14
330
5
100
AcDbSymbolTableRecord
100
AcDbLinetypeTableRecord
  2
ByBlock
 70
     0
  3

 72
    65
 73
     0
 40
0.0
  0
LTYPE
  5
15
330
5
100
AcDbSymbolTableRecord
100
AcDbLinetypeTableRecord
  2
ByLayer
 70
     0
  3

 72
    65
 73
     0
 40
0.0
  0
LTYPE
  5
16
330
5
100
AcDbSymbolTableRecord
100
AcDbLinetypeTableRecord
  2
Continuous
 70
     0
  3
Solid line
 72
    65
 73
     0
 40
0.0
  0
LTYPE
  5
3B
330
5
100
AcDbSymbolTableRecord
100
AcDbLinetypeTableRecord
  2
HIDDEN
 70
     0
  3
Hidden __ __ __ __ __ __ __ __ __ __ __ __ __ __
 72
    65
 73
     2
 40
1.905
 49
1.27
 74
     0
 49
-0.635
 74
     0
  0
LTYPE
  5
3C
330
5
100
AcDbSymbolTableRecord
100
AcDbLinetypeTableRecord
  2
PHANTOM
 70
     0
  3
Phantom ______  __  __  ______  __  __  ______
 72
    65
 73
     6
 40
12.7
 49
6.35
 74
     0
 49
-1.27
 74
     0
 49
1.27
 74
     0
 49
-1.27
 74
     0
 49
1.27
 74
     0
 49
-1.27
 74
     0
  0
LTYPE
  5
3D
330
5
100
AcDbSymbolTableRecord
100
AcDbLinetypeTableRecord
  2
CENTER
 70
     0
  3
Center ____ _ ____ _ ____ _ ____ _ ____ _ ____
 72
    65
 73
     4
 40
10.16
 49
6.35
 74
     0
 49
-1.27
 74
     0
 49
1.27
 74
     0
 49
-1.27
 74
     0
  0
LTYPE
  5
3E
330
5
100
AcDbSymbolTableRecord
100
AcDbLinetypeTableRecord
  2
CENTERX2
 70
     0
  3
Center (2x) ________  __  ________  __  _____
 72
    65
 73
     4
 40
20.32
 49
12.7
 74
     0
 49
-2.54
 74
     0
 49
2.54
 74
     0
 49
-2.54
 74
     0
  0
LTYPE
  5
3F
330
5
100
AcDbSymbolTableRecord
100
AcDbLinetypeTableRecord
  2
DOT2
 70
     0
  3
Dot (.5x) ........................................
 72
    65
 73
     2
 40
0.635
 49
0.0
 74
     0
 49
-0.635
 74
     0
  0
ENDTAB
  0
TABLE
  2
LAYER
  5
2
330
0
100
AcDbSymbolTable
 70
     5
  0
LAYER
  5
10
330
2
100
AcDbSymbolTableRecord
100
AcDbLayerTableRecord
  2
0
 70
     0
 62
     7
  6
Continuous
370
    -3
390
F
  0
LAYER
  5
40
330
2
100
AcDbSymbolTableRecord
100
AcDbLayerTableRecord
  2
FORMAT
 70
     0
 62
     7
  6
Continuous
370
    -3
390
F
  0
LAYER
  5
41
330
2
100
AcDbSymbolTableRecord
100
AcDbLayerTableRecord
  2
VERMASSUNG
 70
     0
 62
     7
  6
Continuous
370
    -3
390
F
  0
LAYER
  5
42
330
2
100
AcDbSymbolTableRecord
100
AcDbLayerTableRecord
  2
KOPF_DÜNN
 70
     0
 62
     7
  6
Continuous
370
    -3
390
F
  0
LAYER
  5
43
330
2
100
AcDbSymbolTableRecord
100
AcDbLayerTableRecord
  2
KOPF_DICK
 70
     0
 62
     7
  6
Continuous
370
    15
390
F
  0
ENDTAB
  0
TABLE
  2
STYLE
  5
3
330
0
100
AcDbSymbolTable
 70
     3
  0
STYLE
  5
11
330
3
100
AcDbSymbolTableRecord
100
AcDbTextStyleTableRecord
  2
Standard
 70
     0
 40
0.0
 41
1.0
 50
0.0
 71
     0
 42
2.5
  3
txt
  4

  0
STYLE
  5
44
330
3
100
AcDbSymbolTableRecord
100
AcDbTextStyleTableRecord
  2
SLDTEXTSTYLE0
 70
     0
 40
0.0
 41
0.7
 50
0.0
 71
     0
 42
0.2
  3
TXT
  4

  0
STYLE
  5
48
330
3
100
AcDbSymbolTableRecord
100
AcDbTextStyleTableRecord
  2
SLDTEXTSTYLE1
 70
     0
 40
0.0
 41
0.6473684211
 50
0.0
 71
     0
 42
0.2
  3
TXT
  4

  0
ENDTAB
  0
TABLE
  2
VIEW
  5
6
330
0
100
AcDbSymbolTable
 70
     0
  0
ENDTAB
  0
TABLE
  2
UCS
  5
7
330
0
100
AcDbSymbolTable
 70
     0
  0
ENDTAB
  0
TABLE
  2
APPID
  5
9
330
0
100
AcDbSymbolTable
 70
     1
  0
APPID
  5
12
330
9
100
AcDbSymbolTableRecord
100
AcDbRegAppTableRecord
  2
ACAD
 70
     0
  0
ENDTAB
  0
TABLE
  2
DIMSTYLE
  5
A
330
0
100
AcDbSymbolTable
 70
     3
100
AcDbDimStyleTable
  0
DIMSTYLE
105
27
330
A
100
AcDbSymbolTableRecord
100
AcDbDimStyleTableRecord
  2
ISO-25
 70
     0
 41
2.5
 42
0.625
 43
3.75
 44
1.25
 73
     0
 74
     0
 77
     1
 78
     8
140
2.5
141
2.5
143
0.0393700787
147
0.625
171
     3
172
     1
271
     2
272
     2
274
     3
278
    44
283
     0
284
     8
340
11
  0
DIMSTYLE
105
1C4
102
{ACAD_REACTORS
330
1C3
330
1D0
330
1DA
330
1E4
330
1FC
102
}
330
A
100
AcDbSymbolTableRecord
100
AcDbDimStyleTableRecord
  2
SLDDIMSTYLE0
 70
     0
 41
3.0
 44
0.0
 45
0.000000001
 73
     0
 74
     0
 77
     1
 78
    12
140
2.0
147
0.5
173
     1
271
     2
272
     3
284
    12
340
44
  0
DIMSTYLE
105
1EF
102
{ACAD_REACTORS
330
1EE
102
}
330
A
100
AcDbSymbolTableRecord
100
AcDbDimStyleTableRecord
  2
SLDDIMSTYLE1
 70
     0
 41
3.0
 44
0.0
 45
0.000000001
 73
     0
 74
     0
 77
     1
 78
    12
140
2.0
147
0.5
173
     1
271
     2
272
     3
284
    12
340
44
  0
ENDTAB
  0
TABLE
  2
BLOCK_RECORD
  5
1
330
0
100
AcDbSymbolTable
 70
     7
  0
BLOCK_RECORD
  5
1F
330
1
100
AcDbSymbolTableRecord
100
AcDbBlockTableRecord
  2
*Model_Space
340
22
  0
BLOCK_RECORD
  5
1B
330
1
100
AcDbSymbolTableRecord
100
AcDbBlockTableRecord
  2
*Paper_Space
340
1E
  0
BLOCK_RECORD
  5
23
330
1
100
AcDbSymbolTableRecord
100
AcDbBlockTableRecord
  2
*Paper_Space0
340
26
  0
BLOCK_RECORD
  5
1C5
330
1
100
AcDbSymbolTableRecord
100
AcDbBlockTableRecord
  2
*D1
340
0
  0
BLOCK_RECORD
  5
1D1
330
1
100
AcDbSymbolTableRecord
100
AcDbBlockTableRecord
  2
*D2
340
0
  0
BLOCK_RECORD
  5
1DB
330
1
100
AcDbSymbolTableRecord
100
AcDbBlockTableRecord
  2
*D3
340
0
  0
BLOCK_RECORD
  5
1E5
330
1
100
AcDbSymbolTableRecord
100
AcDbBlockTableRecord
  2
*D4
340
0
  0
BLOCK_RECORD
  5
1F0
330
1
100
AcDbSymbolTableRecord
100
AcDbBlockTableRecord
  2
*D5
340
0
  0
BLOCK_RECORD
  5
1FD
330
1
100
AcDbSymbolTableRecord
100
AcDbBlockTableRecord
  2
*D6
340
0
  0
ENDTAB
  0
ENDSEC
  0
SECTION
  2
BLOCKS
  0
BLOCK
  5
20
330
1F
100
AcDbEntity
  8
0
100
AcDbBlockBegin
  2
*Model_Space
 70
     0
 10
0.0
 20
0.0
 30
0.0
  3
*Model_Space
  1

  0
ENDBLK
  5
21
330
1F
100
AcDbEntity
  8
0
100
AcDbBlockEnd
  0
BLOCK
  5
1C
330
1B
100
AcDbEntity
 67
     1
  8
0
100
AcDbBlockBegin
  2
*Paper_Space
 70
     0
 10
0.0
 20
0.0
 30
0.0
  3
*Paper_Space
  1

  0
ENDBLK
  5
1D
330
1B
100
AcDbEntity
 67
     1
  8
0
100
AcDbBlockEnd
  0
BLOCK
  5
24
330
23
100
AcDbEntity
  8
0
100
AcDbBlockBegin
  2
*Paper_Space0
 70
     0
 10
0.0
 20
0.0
 30
0.0
  3
*Paper_Space0
  1

  0
ENDBLK
  5
25
330
23
100
AcDbEntity
  8
0
100
AcDbBlockEnd
  0
BLOCK
  5
1C6
330
1C5
100
AcDbEntity
  8
0
100
AcDbBlockBegin
  2
*D1
 70
     1
 10
0.0
 20
0.0
 30
0.0
  3
*D1
  1

  0
SOLID
  5
1C8
330
1C5
100
AcDbEntity
  8
VERMASSUNG
100
AcDbTrace
 10
93.3878340022
 20
139.9770873229
 30
0.0
 11
92.9378340022
 21
136.9770873229
 31
0.0
 12
93.8378340022
 22
136.9770873229
 32
0.0
 13
93.8378340022
 23
136.9770873229
 33
0.0
  0
SOLID
  5
1C9
330
1C5
100
AcDbEntity
  8
VERMASSUNG
100
AcDbTrace
 10
93.3878340022
 20
76.9770873229
 30
0.0
 11
93.8378340022
 21
79.9770873229
 31
0.0
 12
92.9378340022
 22
79.9770873229
 32
0.0
 13
92.9378340022
 23
79.9770873229
 33
0.0
  0
LINE
  5
1CA
330
1C5
100
AcDbEntity
  8
VERMASSUNG
100
AcDbLine
 10
131.223039602
 20
139.9770873229
 30
0.0
 11
92.3878340022
 21
139.9770873229
 31
0.0
  0
LINE
  5
1CB
330
1C5
100
AcDbEntity
  8
VERMASSUNG
100
AcDbLine
 10
131.223039602
 20
76.9770873229
 30
0.0
 11
92.3878340022
 21
76.9770873229
 31
0.0
  0
LINE
  5
1CC
330
1C5
100
AcDbEntity
  8
VERMASSUNG
100
AcDbLine
 10
93.3878340022
 20
139.9770873229
 30
0.0
 11
93.3878340022
 21
76.9770873229
 31
0.0
  0
MTEXT
  5
1CD
330
1C5
100
AcDbEntity
  8
VERMASSUNG
100
AcDbMText
 10
90.6096985131
 20
99.2850299137
 30
0.0
 40
2.0
 41
0.0
 71
     1
 72
     1
  1
HSK A 
  7
SLDTEXTSTYLE0
 11
-7.044195017643634E-15
 21
1.0
 31
0.0
 73
     1
 44
1.0
  0
MTEXT
  5
1CE
330
1C5
100
AcDbEntity
  8
VERMASSUNG
100
AcDbMText
 10
90.8096985226
 20
108.2850304576
 30
0.0
 40
2.0
 41
0.0
 71
     1
 72
     1
  1
%%c
  7
SLDTEXTSTYLE0
 11
-7.044195017643634E-15
 21
1.0
 31
0.0
 73
     1
 44
1.0
  0
MTEXT
  5
1CF
330
1C5
100
AcDbEntity
  8
VERMASSUNG
100
AcDbMText
 10
90.8096986391
 20
111.8933571077
 30
0.0
 40
2.0
 41
0.0
 71
     1
 72
     1
  1
63
  7
SLDTEXTSTYLE0
 11
-7.044195017643634E-15
 21
1.0
 31
0.0
 73
     1
 44
1.0
  0
ENDBLK
  5
1C7
330
1C5
100
AcDbEntity
  8
0
100
AcDbBlockEnd
  0
BLOCK
  5
1D2
330
1D1
100
AcDbEntity
  8
0
100
AcDbBlockBegin
  2
*D2
 70
     1
 10
0.0
 20
0.0
 30
0.0
  3
*D2
  1

  0
SOLID
  5
1D4
330
1D1
100
AcDbEntity
  8
VERMASSUNG
100
AcDbTrace
 10
99.023039602
 20
156.3091003061
 30
0.0
 11
102.023039602
 21
155.8591003061
 31
0.0
 12
102.023039602
 22
156.7591003061
 32
0.0
 13
102.023039602
 23
156.7591003061
 33
0.0
  0
SOLID
  5
1D5
330
1D1
100
AcDbEntity
  8
VERMASSUNG
100
AcDbTrace
 10
195.923039602
 20
156.3091003061
 30
0.0
 11
192.923039602
 21
156.7591003061
 31
0.0
 12
192.923039602
 22
155.8591003061
 32
0.0
 13
192.923039602
 23
155.8591003061
 33
0.0
  0
LINE
  5
1D6
330
1D1
100
AcDbEntity
  8
VERMASSUNG
100
AcDbLine
 10
99.023039602
 20
128.1677650694
 30
0.0
 11
99.023039602
 21
157.3091003061
 31
0.0
  0
LINE
  5
1D7
330
1D1
100
AcDbEntity
  8
VERMASSUNG
100
AcDbLine
 10
195.923039602
 20
117.2029468013
 30
0.0
 11
195.923039602
 21
157.3091003061
 31
0.0
  0
LINE
  5
1D8
330
1D1
100
AcDbEntity
  8
VERMASSUNG
100
AcDbLine
 10
99.023039602
 20
156.3091003061
 30
0.0
 11
195.923039602
 21
156.3091003061
 31
0.0
  0
MTEXT
  5
1D9
330
1D1
100
AcDbEntity
  8
VERMASSUNG
100
AcDbMText
 10
145.0734426356
 20
158.8872356692
 30
0.0
 40
2.0
 41
0.0
 71
     1
 72
     1
  1
96.9
  7
SLDTEXTSTYLE0
 73
     1
 44
1.0
  0
ENDBLK
  5
1D3
330
1D1
100
AcDbEntity
  8
0
100
AcDbBlockEnd
  0
BLOCK
  5
1DC
330
1DB
100
AcDbEntity
  8
0
100
AcDbBlockBegin
  2
*D3
 70
     1
 10
0.0
 20
0.0
 30
0.0
  3
*D3
  1

  0
SOLID
  5
1DE
330
1DB
100
AcDbEntity
  8
VERMASSUNG
100
AcDbTrace
 10
130.923039602
 20
150.3091003061
 30
0.0
 11
133.923039602
 21
149.8591003061
 31
0.0
 12
133.923039602
 22
150.7591003061
 32
0.0
 13
133.923039602
 23
150.7591003061
 33
0.0
  0
SOLID
  5
1DF
330
1DB
100
AcDbEntity
  8
VERMASSUNG
100
AcDbTrace
 10
195.923039602
 20
150.3091003061
 30
0.0
 11
192.923039602
 21
150.7591003061
 31
0.0
 12
192.923039602
 22
149.8591003061
 32
0.0
 13
192.923039602
 23
149.8591003061
 33
0.0
  0
LINE
  5
1E0
330
1DB
100
AcDbEntity
  8
VERMASSUNG
100
AcDbLine
 10
130.923039602
 20
139.6770873229
 30
0.0
 11
130.923039602
 21
151.3091003061
 31
0.0
  0
LINE
  5
1E1
330
1DB
100
AcDbEntity
  8
VERMASSUNG
100
AcDbLine
 10
195.923039602
 20
117.2029468013
 30
0.0
 11
195.923039602
 21
151.3091003061
 31
0.0
  0
LINE
  5
1E2
330
1DB
100
AcDbEntity
  8
VERMASSUNG
100
AcDbLine
 10
130.923039602
 20
150.3091003061
 30
0.0
 11
195.923039602
 21
150.3091003061
 31
0.0
  0
MTEXT
  5
1E3
330
1DB
100
AcDbEntity
  8
VERMASSUNG
100
AcDbMText
 10
162.0236614872
 20
152.8872356692
 30
0.0
 40
2.0
 41
0.0
 71
     1
 72
     1
  1
65
  7
SLDTEXTSTYLE0
 73
     1
 44
1.0
  0
ENDBLK
  5
1DD
330
1DB
100
AcDbEntity
  8
0
100
AcDbBlockEnd
  0
BLOCK
  5
1E6
330
1E5
100
AcDbEntity
  8
0
100
AcDbBlockBegin
  2
*D4
 70
     1
 10
0.0
 20
0.0
 30
0.0
  3
*D4
  1

  0
SOLID
  5
1E8
330
1E5
100
AcDbEntity
  8
VERMASSUNG
100
AcDbTrace
 10
156.873039602
 20
144.3091003061
 30
0.0
 11
159.873039602
 21
143.8591003061
 31
0.0
 12
159.873039602
 22
144.7591003061
 32
0.0
 13
159.873039602
 23
144.7591003061
 33
0.0
  0
SOLID
  5
1E9
330
1E5
100
AcDbEntity
  8
VERMASSUNG
100
AcDbTrace
 10
195.923039602
 20
144.3091003061
 30
0.0
 11
192.923039602
 21
144.7591003061
 31
0.0
 12
192.923039602
 22
143.8591003061
 32
0.0
 13
192.923039602
 23
143.8591003061
 33
0.0
  0
LINE
  5
1EA
330
1E5
100
AcDbEntity
  8
VERMASSUNG
100
AcDbLine
 10
156.873039602
 20
138.3235276467
 30
0.0
 11
156.873039602
 21
145.3091003061
 31
0.0
  0
LINE
  5
1EB
330
1E5
100
AcDbEntity
  8
VERMASSUNG
100
AcDbLine
 10
195.923039602
 20
117.2029468013
 30
0.0
 11
195.923039602
 21
145.3091003061
 31
0.0
  0
LINE
  5
1EC
330
1E5
100
AcDbEntity
  8
VERMASSUNG
100
AcDbLine
 10
156.873039602
 20
144.3091003061
 30
0.0
 11
195.923039602
 21
144.3091003061
 31
0.0
  0
MTEXT
  5
1ED
330
1E5
100
AcDbEntity
  8
VERMASSUNG
100
AcDbMText
 10
173.2987535782
 20
146.8872356692
 30
0.0
 40
2.0
 41
0.0
 71
     1
 72
     1
  1
39.05
  7
SLDTEXTSTYLE0
 73
     1
 44
1.0
  0
ENDBLK
  5
1E7
330
1E5
100
AcDbEntity
  8
0
100
AcDbBlockEnd
  0
BLOCK
  5
1F1
330
1F0
100
AcDbEntity
  8
0
100
AcDbBlockBegin
  2
*D5
 70
     1
 10
0.0
 20
0.0
 30
0.0
  3
*D5
  1

  0
SOLID
  5
1F3
330
1F0
100
AcDbEntity
  8
VERMASSUNG
100
AcDbTrace
 10
203.0839281393
 20
112.4770873229
 30
0.0
 11
203.5339281393
 21
115.4770873229
 31
0.0
 12
202.6339281393
 22
115.4770873229
 32
0.0
 13
202.6339281393
 23
115.4770873229
 33
0.0
  0
SOLID
  5
1F4
330
1F0
100
AcDbEntity
  8
VERMASSUNG
100
AcDbTrace
 10
203.0839281393
 20
104.4770873229
 30
0.0
 11
202.6339281393
 21
101.4770873229
 31
0.0
 12
203.5339281393
 22
101.4770873229
 32
0.0
 13
203.5339281393
 23
101.4770873229
 33
0.0
  0
LINE
  5
1F5
330
1F0
100
AcDbEntity
  8
VERMASSUNG
100
AcDbLine
 10
195.623039602
 20
112.4770873229
 30
0.0
 11
204.0839281393
 21
112.4770873229
 31
0.0
  0
LINE
  5
1F6
330
1F0
100
AcDbEntity
  8
VERMASSUNG
100
AcDbLine
 10
195.623039602
 20
104.4770873229
 30
0.0
 11
204.0839281393
 21
104.4770873229
 31
0.0
  0
LINE
  5
1F7
330
1F0
100
AcDbEntity
  8
VERMASSUNG
100
AcDbLine
 10
203.0839281393
 20
112.4770873229
 30
0.0
 11
203.0839281393
 21
118.4770873229
 31
0.0
  0
LINE
  5
1F8
330
1F0
100
AcDbEntity
  8
VERMASSUNG
100
AcDbLine
 10
203.0839281393
 20
112.4770873229
 30
0.0
 11
203.0839281393
 21
104.4770873229
 31
0.0
  0
LINE
  5
1F9
330
1F0
100
AcDbEntity
  8
VERMASSUNG
100
AcDbLine
 10
203.0839281393
 20
104.4770873229
 30
0.0
 11
203.0839281393
 21
98.4770873229
 31
0.0
  0
MTEXT
  5
1FA
330
1F0
100
AcDbEntity
  8
VERMASSUNG
100
AcDbMText
 10
200.5057926597
 20
105.8007407055
 30
0.0
 40
2.0
 41
0.0
 71
     1
 72
     1
  1
%%c
  7
SLDTEXTSTYLE0
 11
-7.044195017643634E-15
 21
1.0
 31
0.0
 73
     1
 44
1.0
  0
MTEXT
  5
1FB
330
1F0
100
AcDbEntity
  8
VERMASSUNG
100
AcDbMText
 10
200.5057927761
 20
109.4094189287
 30
0.0
 40
2.0
 41
0.0
 71
     1
 72
     1
  1
8
  7
SLDTEXTSTYLE0
 11
-7.044195017643634E-15
 21
1.0
 31
0.0
 73
     1
 44
1.0
  0
ENDBLK
  5
1F2
330
1F0
100
AcDbEntity
  8
0
100
AcDbBlockEnd
  0
BLOCK
  5
1FE
330
1FD
100
AcDbEntity
  8
0
100
AcDbBlockBegin
  2
*D6
 70
     1
 10
0.0
 20
0.0
 30
0.0
  3
*D6
  1

  0
SOLID
  5
200
330
1FD
100
AcDbEntity
  8
VERMASSUNG
100
AcDbTrace
 10
209.0839281393
 20
124.4770873229
 30
0.0
 11
208.6339281393
 21
121.4770873229
 31
0.0
 12
209.5339281393
 22
121.4770873229
 32
0.0
 13
209.5339281393
 23
121.4770873229
 33
0.0
  0
SOLID
  5
201
330
1FD
100
AcDbEntity
  8
VERMASSUNG
100
AcDbTrace
 10
209.0839281393
 20
92.4770873229
 30
0.0
 11
209.5339281393
 21
95.4770873229
 31
0.0
 12
208.6339281393
 22
95.4770873229
 32
0.0
 13
208.6339281393
 23
95.4770873229
 33
0.0
  0
LINE
  5
202
330
1FD
100
AcDbEntity
  8
VERMASSUNG
100
AcDbLine
 10
183.055998079
 20
124.4770873229
 30
0.0
 11
210.0839281393
 21
124.4770873229
 31
0.0
  0
LINE
  5
203
330
1FD
100
AcDbEntity
  8
VERMASSUNG
100
AcDbLine
 10
183.055998079
 20
92.4770873229
 30
0.0
 11
210.0839281393
 21
92.4770873229
 31
0.0
  0
LINE
  5
204
330
1FD
100
AcDbEntity
  8
VERMASSUNG
100
AcDbLine
 10
209.0839281393
 20
124.4770873229
 30
0.0
 11
209.0839281393
 21
92.4770873229
 31
0.0
  0
MTEXT
  5
205
330
1FD
100
AcDbEntity
  8
VERMASSUNG
100
AcDbMText
 10
206.5057926597
 20
105.1010516481
 30
0.0
 40
2.0
 41
0.0
 71
     1
 72
     1
  1
%%c
  7
SLDTEXTSTYLE0
 11
-7.044195017643634E-15
 21
1.0
 31
0.0
 73
     1
 44
1.0
  0
MTEXT
  5
206
330
1FD
100
AcDbEntity
  8
VERMASSUNG
100
AcDbMText
 10
206.5057927761
 20
108.7097298713
 30
0.0
 40
2.0
 41
0.0
 71
     1
 72
     1
  1
32
  7
SLDTEXTSTYLE0
 11
-7.044195017643634E-15
 21
1.0
 31
0.0
 73
     1
 44
1.0
  0
ENDBLK
  5
1FF
330
1FD
100
AcDbEntity
  8
0
100
AcDbBlockEnd
  0
ENDSEC
  0
SECTION
  2
ENTITIES
  0
MTEXT
  5
45
330
1F
100
AcDbEntity
  8
KOPF_DÜNN
100
AcDbMText
 10
13.8892156294
 20
23.8442973028
 30
0.0
 40
3.0
 41
0.0
 71
     1
 72
     1
  1
HA6.W08.K21.065
  7
SLDTEXTSTYLE0
 73
     1
 44
1.0
  0
MTEXT
  5
46
330
1F
100
AcDbEntity
  8
VERMASSUNG
100
AcDbMText
 10
13.9329988022
 20
28.8834360957
 30
0.0
 40
3.0
 41
0.0
 71
     1
 72
     1
  1
Flächenspannfutter_End mill adapter Weldon ø8
  7
SLDTEXTSTYLE0
 73
     1
 44
1.0
  0
MTEXT
  5
47
330
1F
100
AcDbEntity
  8
VERMASSUNG
100
AcDbMText
 10
98.8601118557
 20
13.8365368179
 30
0.0
 40
2.0
 41
0.0
 71
     1
 72
     1
  1
Datum: 09.10.2006
  7
SLDTEXTSTYLE0
 73
     1
 44
1.0
  0
MTEXT
  5
49
330
1F
100
AcDbEntity
  8
VERMASSUNG
100
AcDbMText
 10
13.933048693
 20
18.0482802738
 30
0.0
 40
2.0
 41
0.0
 71
     1
 72
     1
  1
DIN 69 893 HSK A 63
  7
SLDTEXTSTYLE1
 73
     1
 44
1.0
  0
MTEXT
  5
4A
330
1F
100
AcDbEntity
  8
VERMASSUNG
100
AcDbMText
 10
13.9808475933
 20
13.9090973692
 30
0.0
 40
2.0
 41
0.0
 71
     1
 72
     1
  1
Gewicht: 831g
  7
SLDTEXTSTYLE0
 73
     1
 44
1.0
  0
LINE
  5
4B
330
1F
100
AcDbEntity
  8
0
  6
Continuous
 62
     7
370
    15
100
AcDbLine
 10
195.929050814
 20
114.6452261437
 30
0.0
 11
195.923039602
 21
114.6563574276
 31
0.0
  0
LINE
  5
4C
330
1F
100
AcDbEntity
  8
0
  6
Continuous
 62
     7
370
    15
100
AcDbLine
 10
195.923039602
 20
102.1904040482
 30
0.0
 11
195.9879405376
 21
102.3105845942
 31
0.0
  0
LINE
  5
4D
330
1F
100
AcDbEntity
  8
0
  6
Continuous
 62
     7
370
    15
100
AcDbLine
 10
131.223039602
 20
76.9770873229
 30
0.0
 11
135.873039602
 21
76.9770873229
 31
0.0
  0
LINE
  5
4E
330
1F
100
AcDbEntity
  8
0
  6
Continuous
 62
     7
370
    15
100
AcDbLine
 10
135.9010279611
 20
139.9770873229
 30
0.0
 11
131.223039602
 21
139.9770873229
 31
0.0
  0
ARC
  5
4F
330
1F
100
AcDbEntity
  8
0
  6
Continuous
 62
     7
370
    15
100
AcDbCircle
 10
131.223039602
 20
77.2770873229
 30
0.0
 40
0.3000000000000114
100
AcDbArc
 50
180.0
 51
270.0
  0
ARC
  5
50
330
1F
100
AcDbEntity
  8
0
  6
Continuous
 62
     7
370
    15
100
AcDbCircle
 10
131.223039602
 20
139.6770873229
 30
0.0
 40
0.3000000000000114
100
AcDbArc
 50
90.0
 51
180.0
  0
ARC
  5
51
330
1F
100
AcDbEntity
  8
0
  6
Continuous
 62
     7
370
    15
100
AcDbCircle
 10
130.4230328493
 20
83.9066497085
 30
0.0
 40
0.6000067526677242
100
AcDbArc
 50
33.5571153394
 51
90.0
  0
ARC
  5
52
330
1F
100
AcDbEntity
  8
0
  6
Continuous
 62
     7
370
    15
100
AcDbCircle
 10
130.4230328493
 20
133.0475249373
 30
0.0
 40
0.6000067526677242
100
AcDbArc
 50
270.0
 51
326.4428846606
  0
LINE
  5
53
330
1F
100
AcDbEntity
  8
0
  6
Continuous
 62
     7
370
    15
100
AcDbLine
 10
128.923039602
 20
84.2566564612
 30
0.0
 11
129.7797523754
 21
84.486211957
 31
0.0
  0
LINE
  5
54
330
1F
100
AcDbEntity
  8
0
  6
Continuous
 62
     7
370
    15
100
AcDbLine
 10
129.7797523754
 20
132.4679626889
 30
0.0
 11
128.923039602
 21
132.6975181846
 31
0.0
  0
LINE
  5
55
330
1F
100
AcDbEntity
  8
0
  6
Continuous
 62
     7
370
    15
100
AcDbLine
 10
117.6915308032
 20
132.134817343
 30
0.0
 11
105.123039602
 21
131.5051334151
 31
0.0
  0
LINE
  5
56
330
1F
100
AcDbEntity
  8
0
  6
Continuous
 62
     7
370
    15
100
AcDbLine
 10
128.923039602
 20
132.6975181846
 30
0.0
 11
126.1060379447
 21
132.5563858371
 31
0.0
  0
LINE
  5
57
330
1F
100
AcDbEntity
  8
0
  6
Continuous
 62
     7
370
    15
100
AcDbLine
 10
126.1060940347
 20
84.3977859986
 30
0.0
 11
128.923039602
 21
84.2566564612
 31
0.0
  0
LINE
  5
58
330
1F
100
AcDbEntity
  8
0
  6
Continuous
 62
     7
370
    15
100
AcDbLine
 10
109.123039602
 20
85.2486404291
 30
0.0
 11
117.6919333219
 21
84.8193371366
 31
0.0
  0
ARC
  5
59
330
1F
100
AcDbEntity
  8
0
  6
Continuous
 62
     7
370
    15
100
AcDbCircle
 10
129.9350438025
 20
83.9066564612
 30
0.0
 40
0.6000000000000085
100
AcDbArc
 50
90.0
 51
105.0
  0
ARC
  5
5A
330
1F
100
AcDbEntity
  8
0
  6
Continuous
 62
     7
370
    15
100
AcDbCircle
 10
129.9350438025
 20
133.0475181846
 30
0.0
 40
0.6000000000000227
100
AcDbArc
 50
255.0
 51
270.0
  0
LINE
  5
5B
330
1F
100
AcDbEntity
  8
0
  6
Continuous
 62
     7
370
    15
100
AcDbLine
 10
129.9350438025
 20
84.5066564612
 30
0.0
 11
130.4230328493
 21
84.5066564612
 31
0.0
  0
LINE
  5
5C
330
1F
100
AcDbEntity
  8
0
  6
Continuous
 62
     7
370
    15
100
AcDbLine
 10
130.4230328493
 20
132.4475181846
 30
0.0
 11
129.9350438025
 21
132.4475181846
 31
0.0
  0
ARC
  5
5D
330
1F
100
AcDbEntity
  8
0
  6
Continuous
 62
     7
370
    15
100
AcDbCircle
 10
157.873039602
 20
91.4770873229
 30
0.0
 40
1.0
100
AcDbArc
 50
90.0
 51
180.0
  0
ARC
  5
5E
330
1F
100
AcDbEntity
  8
0
  6
Continuous
 62
     7
370
    15
100
AcDbCircle
 10
157.873039602
 20
125.4770873229
 30
0.0
 40
1.0
100
AcDbArc
 50
180.0
 51
270.0
  0
LINE
  5
5F
330
1F
100
AcDbEntity
  8
0
  6
Continuous
 62
     7
370
    15
100
AcDbLine
 10
169.3713256303
 20
92.4770873229
 30
0.0
 11
183.055998079
 21
92.4770873229
 31
0.0
  0
LINE
  5
60
330
1F
100
AcDbEntity
  8
0
  6
Continuous
 62
     7
370
    15
100
AcDbLine
 10
157.873039602
 20
92.4770873229
 30
0.0
 11
162.3787084513
 21
92.4770873229
 31
0.0
  0
LINE
  5
61
330
1F
100
AcDbEntity
  8
0
  6
Continuous
 62
     7
370
    15
100
AcDbLine
 10
162.3739719982
 20
124.4770873229
 30
0.0
 11
157.873039602
 21
124.4770873229
 31
0.0
  0
LINE
  5
62
330
1F
100
AcDbEntity
  8
0
  6
Continuous
 62
     7
370
    15
100
AcDbLine
 10
183.055998079
 20
124.4770873229
 30
0.0
 11
169.3634686395
 21
124.4770873229
 31
0.0
  0
LINE
  5
63
330
1F
100
AcDbEntity
  8
0
  6
Continuous
 62
     7
370
    15
100
AcDbLine
 10
183.055998079
 20
92.4770873229
 30
0.0
 11
194.7682761255
 21
97.9386122705
 31
0.0
  0
LINE
  5
64
330
1F
100
AcDbEntity
  8
0
  6
Continuous
 62
     7
370
    15
100
AcDbLine
 10
194.7682761255
 20
119.0155623754
 30
0.0
 11
183.055998079
 21
124.4770873229
 31
0.0
  0
LINE
  5
65
330
1F
100
AcDbEntity
  8
0
  6
Continuous
 62
     7
370
    15
100
AcDbLine
 10
100.306376242
 20
87.6070873229
 30
0.0
 11
107.723039602
 21
87.6070873229
 31
0.0
  0
ARC
  5
66
330
1F
100
AcDbEntity
  8
0
  6
Continuous
 62
     7
370
    15
100
AcDbCircle
 10
193.923039602
 20
99.7512278445
 30
0.0
 40
2.000000000000001
100
AcDbArc
 50
295.0
 51
0.0
  0
ARC
  5
67
330
1F
100
AcDbEntity
  8
0
  6
Continuous
 62
     7
370
    15
100
AcDbCircle
 10
193.923039602
 20
117.2029468013
 30
0.0
 40
2.000000000000001
100
AcDbArc
 50
0.0
 51
65.0
  0
ARC
  5
68
330
1F
100
AcDbEntity
  8
0
  6
Continuous
 62
     7
370
    15
100
AcDbCircle
 10
107.723039602
 20
86.2070873229
 30
0.0
 40
1.399999999999991
100
AcDbArc
 50
42.2465410162
 51
90.0
  0
LINE
  5
69
330
1F
100
AcDbEntity
  8
0
  6
Continuous
 62
     7
370
    15
100
AcDbLine
 10
99.0240720962
 20
88.7560548288
 30
0.0
 11
100.1642030602
 21
87.6159238647
 31
0.0
  0
LINE
  5
6A
330
1F
100
AcDbEntity
  8
0
  6
Continuous
 62
     7
370
    15
100
AcDbLine
 10
100.1642030602
 20
129.3382507811
 30
0.0
 11
99.0329403754
 21
128.2069880963
 31
0.0
  0
ARC
  5
6B
330
1F
100
AcDbEntity
  8
0
  6
Continuous
 62
     7
370
    15
100
AcDbCircle
 10
103.723039602
 20
130.7470873229
 30
0.0
 40
1.399999999999984
100
AcDbArc
 50
270.0
 51
301.7485287426
  0
LINE
  5
6C
330
1F
100
AcDbEntity
  8
0
  6
Continuous
 62
     7
370
    15
100
AcDbLine
 10
103.723039602
 20
129.3470873229
 30
0.0
 11
100.2973053359
 21
129.3470873229
 31
0.0
  0
LWPOLYLINE
  5
6D
330
1F
100
AcDbEntity
  8
0
  6
Continuous
 62
     7
370
    15
100
AcDbPolyline
 90
        7
 70
   128
 43
0.0
 10
195.923039602
 20
113.277618085
 10
195.9321726344
 20
113.611247515
 10
195.939289118
 20
113.9926034124
 10
195.9414539068
 20
114.3127381489
 10
195.9384324123
 20
114.5369601584
 10
195.9305520603
 20
114.640971507
 10
195.923039602
 20
114.6375300307
  0
ARC
  5
6E
330
1F
100
AcDbEntity
  8
0
  6
Continuous
 62
     7
370
    15
100
AcDbCircle
 10
178.9106983127
 20
103.0685959449
 30
0.0
 40
17.09405695603379
100
AcDbArc
 50
357.4584677399
 51
5.6045517019
  0
CIRCLE
  5
6F
330
1F
100
AcDbEntity
  8
0
  6
Continuous
 62
     7
370
    15
100
AcDbCircle
 10
178.423039602
 20
108.4770873229
 30
0.0
 40
3.399999999999969
  0
LINE
  5
70
330
1F
100
AcDbEntity
  8
0
  6
Continuous
 62
     7
370
    15
100
AcDbLine
 10
179.6823349405
 20
110.4129356083
 30
0.0
 11
177.3761934783
 21
110.5355932196
 31
0.0
  0
LINE
  5
71
330
1F
100
AcDbEntity
  8
0
  6
Continuous
 62
     7
370
    15
100
AcDbLine
 10
176.1168981398
 20
108.5997449342
 30
0.0
 11
177.3761934783
 21
110.5355932196
 31
0.0
  0
LINE
  5
72
330
1F
100
AcDbEntity
  8
0
  6
Continuous
 62
     7
370
    15
100
AcDbLine
 10
177.1637442636
 20
106.5412390376
 30
0.0
 11
176.1168981398
 21
108.5997449342
 31
0.0
  0
LINE
  5
73
330
1F
100
AcDbEntity
  8
0
  6
Continuous
 62
     7
370
    15
100
AcDbLine
 10
177.1637442636
 20
106.5412390376
 30
0.0
 11
179.4698857258
 21
106.4185814263
 31
0.0
  0
LINE
  5
74
330
1F
100
AcDbEntity
  8
0
  6
Continuous
 62
     7
370
    15
100
AcDbLine
 10
180.7291810642
 20
108.3544297116
 30
0.0
 11
179.4698857258
 21
106.4185814263
 31
0.0
  0
LINE
  5
75
330
1F
100
AcDbEntity
  8
0
  6
Continuous
 62
     7
370
    15
100
AcDbLine
 10
180.7291810642
 20
108.3544297116
 30
0.0
 11
179.6823349405
 21
110.4129356083
 31
0.0
  0
SPLINE
  5
76
330
1F
100
AcDbEntity
  8
0
  6
Continuous
 62
     7
370
    15
100
AcDbSpline
210
0.0
220
0.0
230
1.0
 70
     8
 71
     3
 72
    70
 73
    66
 74
     0
 42
0.00000001
 43
0.00000001
 40
-0.0312499999999998
 40
-0.0312499999999998
 40
0.0
 40
0.0
 40
0.0312500000000001
 40
0.0312500000000001
 40
0.0625000000000002
 40
0.0625000000000002
 40
0.0937500000000003
 40
0.0937500000000003
 40
0.1250000000000004
 40
0.1250000000000004
 40
0.1562500000000005
 40
0.1562500000000005
 40
0.1875000000000006
 40
0.1875000000000006
 40
0.2187500000000007
 40
0.2187500000000007
 40
0.2500000000000008
 40
0.2500000000000008
 40
0.2812500000000009
 40
0.2812500000000009
 40
0.3125000000000011
 40
0.3125000000000011
 40
0.3437500000000012
 40
0.3437500000000012
 40
0.3750000000000012
 40
0.3750000000000012
 40
0.4062500000000013
 40
0.4062500000000013
 40
0.4375000000000014
 40
0.4375000000000014
 40
0.4687500000000016
 40
0.4687500000000016
 40
0.5000000000000017
 40
0.5000000000000017
 40
0.5312500000000018
 40
0.5312500000000018
 40
0.5625000000000019
 40
0.5625000000000019
 40
0.593750000000002
 40
0.593750000000002
 40
0.6250000000000021
 40
0.6250000000000021
 40
0.6562500000000022
 40
0.6562500000000022
 40
0.6875000000000023
 40
0.6875000000000023
 40
0.7187500000000021
 40
0.7187500000000021
 40
0.7500000000000018
 40
0.7500000000000018
 40
0.7812500000000016
 40
0.7812500000000016
 40
0.8125000000000013
 40
0.8125000000000013
 40
0.8437500000000011
 40
0.8437500000000011
 40
0.8750000000000009
 40
0.8750000000000009
 40
0.9062500000000007
 40
0.9062500000000007
 40
0.9375000000000004
 40
0.9375000000000004
 40
0.9687500000000002
 40
0.9687500000000002
 40
1.0
 40
1.0
 40
1.03125
 40
1.03125
 10
138.6584942633566
 20
119.0979942089067
 30
0.0
 10
139.1875849406769
 20
119.0979942089067
 30
0.0
 10
139.447655608054
 20
119.1226715036919
 30
0.0
 10
139.9592302878895
 20
119.2191431767338
 30
0.0
 10
140.2134055716296
 20
119.2921240927139
 30
0.0
 10
140.6976762016914
 20
119.4818646956525
 30
0.0
 10
140.9273172935725
 20
119.5977253540462
 30
0.0
 10
141.361921641806
 20
119.8703432000039
 30
0.0
 10
141.5674874184526
 20
120.0283822820577
 30
0.0
 10
141.9360445590478
 20
120.3719251330284
 30
0.0
 10
142.1015255417834
 20
120.55868757713
 30
0.0
 10
142.3939500512184
 20
120.9622307515268
 30
0.0
 10
142.5180510278449
 20
121.175727747956
 30
0.0
 10
142.7176302245947
 20
121.6151110618785
 30
0.0
 10
142.7945638104529
 20
121.8442510490241
 30
0.0
 10
142.8974208689733
 20
122.3102251717841
 30
0.0
 10
142.9228937784324
 20
122.5431076174603
 30
0.0
 10
142.9231841890002
 20
123.0085051525401
 30
0.0
 10
142.8971595552244
 20
123.2433809099345
 30
0.0
 10
142.7950112707324
 20
123.6948740571807
 30
0.0
 10
142.7194348231493
 20
123.9129205325921
 30
0.0
 10
142.5189372920044
 20
124.3340150576299
 30
0.0
 10
142.393808450496
 20
124.5359364421482
 30
0.0
 10
142.1044496494744
 20
124.9079659246671
 30
0.0
 10
141.9390386624189
 20
125.0805942282475
 30
0.0
 10
141.5660481042711
 20
125.3979122327935
 30
0.0
 10
141.364315071182
 20
125.5376991662951
 30
0.0
 10
140.9314558203541
 20
125.781875419847
 30
0.0
 10
140.6975372874648
 20
125.8871049308884
 30
0.0
 10
140.2133535523221
 20
126.0552620772636
 30
0.0
 10
139.9640379263666
 20
126.1185129678574
 30
0.0
 10
139.4510054019389
 20
126.20409217696
 30
0.0
 10
139.1857115790343
 20
126.2259643418824
 30
0.0
 10
138.6633769591645
 20
126.2261279915264
 30
0.0
 10
138.4036232966828
 20
126.2051262994304
 30
0.0
 10
137.8870114810375
 20
126.1197239443527
 30
0.0
 10
137.6346454405373
 20
126.0557177610658
 30
0.0
 10
137.1531203190044
 20
125.8889032410246
 30
0.0
 10
136.9202695868909
 20
125.7847700776254
 30
0.0
 10
136.4831797384521
 20
125.5387834251304
 30
0.0
 10
136.2818587497949
 20
125.3990335941816
 30
0.0
 10
135.912772724495
 20
125.085895524457
 30
0.0
 10
135.7437879734433
 20
124.9104393651869
 30
0.0
 10
135.4533319167841
 20
124.5375991010867
 30
0.0
 10
135.330260105422
 20
124.3394772909758
 30
0.0
 10
135.128923864
 20
123.9187659482421
 30
0.0
 10
135.0517113180578
 20
123.6967759275745
 30
0.0
 10
134.9495077751577
 20
123.2469109878662
 30
0.0
 10
134.9232794237054
 20
123.0166555747494
 30
0.0
 10
134.9228030243883
 20
122.5453396322004
 30
0.0
 10
134.9485454368862
 20
122.3121022164862
 30
0.0
 10
135.0498562132501
 20
121.8504256769882
 30
0.0
 10
135.126688852641
 20
121.619528289876
 30
0.0
 10
135.3270926918562
 20
121.1772522760843
 30
0.0
 10
135.4497641901483
 20
120.9661898447984
 30
0.0
 10
135.7397114793125
 20
120.5646913340658
 30
0.0
 10
135.9082824586777
 20
120.3737848119899
 30
0.0
 10
136.2765520527909
 20
120.0300594799928
 30
0.0
 10
136.4776139100612
 20
119.8749222937787
 30
0.0
 10
136.9146448286461
 20
119.599844933699
 30
0.0
 10
137.1467930417757
 20
119.482728704277
 30
0.0
 10
137.6278033232746
 20
119.2938022192124
 30
0.0
 10
137.879903406105
 20
119.2207272488181
 30
0.0
 10
138.396972892364
 20
119.1226751896836
 30
0.0
 10
138.6584942633566
 20
119.0979942089067
 30
0.0
 10
139.1875849406769
 20
119.0979942089067
 30
0.0
  0
LINE
  5
77
330
1F
100
AcDbEntity
  8
0
  6
Continuous
 62
     7
370
    15
100
AcDbLine
 10
135.873039602
 20
128.3270873229
 30
0.0
 11
145.5311067705
 21
128.3270873229
 31
0.0
  0
LINE
  5
78
330
1F
100
AcDbEntity
  8
0
  6
Continuous
 62
     7
370
    15
100
AcDbLine
 10
145.5311067705
 20
78.2901696267
 30
0.0
 11
145.5311067705
 21
128.3270873229
 31
0.0
  0
LINE
  5
79
330
1F
100
AcDbEntity
  8
0
  6
Continuous
 62
     7
370
    15
100
AcDbLine
 10
145.5311067705
 20
78.2901696267
 30
0.0
 11
143.873039602
 21
78.2901696267
 31
0.0
  0
SPLINE
  5
7A
330
1F
100
AcDbEntity
  8
0
  6
Continuous
 62
     7
370
    15
100
AcDbSpline
210
0.0
220
0.0
230
1.0
 70
     8
 71
     3
 72
    28
 73
    24
 74
     0
 42
0.00000001
 43
0.00000001
 40
0.0
 40
0.0
 40
0.0
 40
0.0
 40
0.1250000000000001
 40
0.1250000000000001
 40
0.1875000000000001
 40
0.1875000000000001
 40
0.2500000000000001
 40
0.2500000000000001
 40
0.3749999999999999
 40
0.3749999999999999
 40
0.4375
 40
0.4375
 40
0.4999999999999999
 40
0.4999999999999999
 40
0.6249999999999999
 40
0.6249999999999999
 40
0.7499999999999997
 40
0.7499999999999997
 40
0.8124999999999998
 40
0.8124999999999998
 40
0.8749999999999998
 40
0.8749999999999998
 40
1.0
 40
1.0
 40
1.0
 40
1.0
 10
143.8730396020168
 20
78.2901696266762
 30
0.0
 10
143.3413318445239
 20
78.2901696266762
 30
0.0
 10
142.8190932792135
 20
78.27438491272599
 30
0.0
 10
142.0492227929385
 20
78.2293894986498
 30
0.0
 10
141.7948632207472
 20
78.21083450357405
 30
0.0
 10
141.2907416400487
 20
78.16698178112755
 30
0.0
 10
141.0410188226207
 20
78.14163717417536
 30
0.0
 10
140.3154288711743
 20
78.05823509642526
 30
0.0
 10
139.8570686095928
 20
77.99236953727417
 30
0.0
 10
139.2065706661989
 20
77.88339919678238
 30
0.0
 10
138.9948886154065
 20
77.84515956101573
 30
0.0
 10
138.5908171262684
 20
77.76740082359638
 30
0.0
 10
138.3983106124476
 20
77.72789986142101
 30
0.0
 10
137.8484756414263
 20
77.60899211905502
 30
0.0
 10
137.5185468631175
 20
77.52917443763042
 30
0.0
 10
136.9340755945488
 20
77.37583127583434
 30
0.0
 10
136.6877984565354
 20
77.3044975225651
 30
0.0
 10
136.3879556638373
 20
77.21055401549047
 30
0.0
 10
136.2994988067651
 20
77.18136022213054
 30
0.0
 10
136.14613745346
 20
77.12789364786713
 30
0.0
 10
136.0810492392337
 20
77.10353431359195
 30
0.0
 10
135.925455223293
 20
77.03994416814722
 30
0.0
 10
135.8730396020168
 20
77.00984123305795
 30
0.0
 10
135.8730396020168
 20
76.99296434006104
 30
0.0
  0
LINE
  5
7B
330
1F
100
AcDbEntity
  8
0
  6
Continuous
 62
     7
370
    15
100
AcDbLine
 10
135.873039602
 20
76.9929643401
 30
0.0
 11
135.873039602
 21
76.9770873229
 31
0.0
  0
SPLINE
  5
7C
330
1F
100
AcDbEntity
  8
0
  6
Continuous
 62
     7
370
    15
100
AcDbSpline
210
0.0
220
0.0
230
1.0
 70
     8
 71
     3
 72
    17
 73
    13
 74
     0
 42
0.00000001
 43
0.00000001
 40
0.0
 40
0.0
 40
0.0
 40
0.0
 40
0.1034796923964056
 40
0.210023918880785
 40
0.3134862136955583
 40
0.4198361274354882
 40
0.5254127712915682
 40
0.633961069541979
 40
0.7409508756305031
 40
0.8511696089308174
 40
0.9558996534551937
 40
1.0
 40
1.0
 40
1.0
 40
1.0
 10
143.8730396020168
 20
138.9442827960876
 30
0.0
 10
143.4377912529067
 20
138.9497309926209
 30
0.0
 10
142.5544047463418
 20
138.9607887331328
 30
0.0
 10
141.2735771611131
 20
139.0471471260343
 30
0.0
 10
140.0561606252391
 20
139.1750173025721
 30
0.0
 10
138.9483547729925
 20
139.3339626011653
 30
0.0
 10
137.9601159690443
 20
139.5084562888808
 30
0.0
 10
137.1353924115128
 20
139.6776221395207
 30
0.0
 10
136.4864389108535
 20
139.8255059220491
 30
0.0
 10
136.0694040953917
 20
139.9272965062798
 30
0.0
 10
135.8708073824272
 20
139.977648028883
 30
0.0
 10
135.8941201038605
 20
139.9717423446606
 30
0.0
 10
135.901027961098
 20
139.969992414966
 30
0.0
  0
LINE
  5
7D
330
1F
100
AcDbEntity
  8
0
  6
Continuous
 62
     7
370
    15
100
AcDbLine
 10
145.5311067705
 20
138.9442827961
 30
0.0
 11
143.873039602
 21
138.9442827961
 31
0.0
  0
LINE
  5
7E
330
1F
100
AcDbEntity
  8
0
  6
Continuous
 62
     7
370
    15
100
AcDbLine
 10
145.5311067705
 20
132.9357769853
 30
0.0
 11
145.5311067705
 21
138.9442827961
 31
0.0
  0
LINE
  5
7F
330
1F
100
AcDbEntity
  8
0
  6
Continuous
 62
     7
370
    15
100
AcDbLine
 10
143.1186599477
 20
132.9357769853
 30
0.0
 11
145.5311067705
 21
132.9357769853
 31
0.0
  0
SPLINE
  5
80
330
1F
100
AcDbEntity
  8
0
  6
Continuous
 62
     7
370
    15
100
AcDbSpline
210
0.0
220
0.0
230
1.0
 70
     8
 71
     3
 72
    20
 73
    16
 74
     0
 42
0.00000001
 43
0.00000001
 40
0.0
 40
0.0
 40
0.0
 40
0.0
 40
0.2499999999999997
 40
0.2499999999999997
 40
0.3749999999999997
 40
0.3749999999999997
 40
0.4999999999999998
 40
0.4999999999999998
 40
0.6249999999999998
 40
0.6249999999999998
 40
0.7499999999999999
 40
0.7499999999999999
 40
0.8749999999999999
 40
0.8749999999999999
 40
1.0
 40
1.0
 40
1.0
 40
1.0
 10
135.8730396020168
 20
128.3270873229233
 30
0.0
 10
136.1214133363048
 20
128.9809497512208
 30
0.0
 10
136.4409834286501
 20
129.5847355332179
 30
0.0
 10
137.0632896618548
 20
130.4115742693865
 30
0.0
 10
137.2947139222856
 20
130.6740029073394
 30
0.0
 10
137.8159282619353
 20
131.1706655614444
 30
0.0
 10
138.1025487445703
 20
131.4012524404659
 30
0.0
 10
138.7220334858779
 20
131.8178066650486
 30
0.0
 10
139.0563338653649
 20
132.0053044670161
 30
0.0
 10
139.7815943379897
 20
132.3367014446525
 30
0.0
 10
140.1635093953802
 20
132.4762054321478
 30
0.0
 10
140.9582975715519
 20
132.7016589396187
 30
0.0
 10
141.3724557657582
 20
132.7882850511623
 30
0.0
 10
142.2380021063396
 20
132.9062658400165
 30
0.0
 10
142.6758897213514
 20
132.9357769852908
 30
0.0
 10
143.118659947706
 20
132.9357769852908
 30
0.0
  0
SPLINE
  5
81
330
1F
100
AcDbEntity
  8
0
  6
Continuous
 62
     7
370
    15
100
AcDbSpline
210
0.0
220
0.0
230
1.0
 70
     8
 71
     3
 72
    70
 73
    66
 74
     0
 42
0.00000001
 43
0.00000001
 40
-0.0312499999999999
 40
-0.0312499999999999
 40
0.0
 40
0.0
 40
0.0312499999999999
 40
0.0312499999999999
 40
0.0624999999999998
 40
0.0624999999999998
 40
0.0937499999999997
 40
0.0937499999999997
 40
0.1249999999999996
 40
0.1249999999999996
 40
0.1562499999999994
 40
0.1562499999999994
 40
0.1874999999999993
 40
0.1874999999999993
 40
0.2187499999999992
 40
0.2187499999999992
 40
0.2499999999999991
 40
0.2499999999999991
 40
0.2812499999999992
 40
0.2812499999999992
 40
0.3124999999999993
 40
0.3124999999999993
 40
0.3437499999999994
 40
0.3437499999999994
 40
0.3749999999999996
 40
0.3749999999999996
 40
0.4062499999999997
 40
0.4062499999999997
 40
0.4374999999999998
 40
0.4374999999999998
 40
0.4687499999999999
 40
0.4687499999999999
 40
0.5
 40
0.5
 40
0.5312500000000001
 40
0.5312500000000001
 40
0.5625000000000002
 40
0.5625000000000002
 40
0.5937500000000003
 40
0.5937500000000003
 40
0.6250000000000004
 40
0.6250000000000004
 40
0.6562500000000006
 40
0.6562500000000006
 40
0.6875000000000007
 40
0.6875000000000007
 40
0.7187500000000008
 40
0.7187500000000008
 40
0.7500000000000009
 40
0.7500000000000009
 40
0.7812500000000008
 40
0.7812500000000008
 40
0.8125000000000007
 40
0.8125000000000007
 40
0.8437500000000006
 40
0.8437500000000006
 40
0.8750000000000004
 40
0.8750000000000004
 40
0.9062500000000003
 40
0.9062500000000003
 40
0.9375000000000002
 40
0.9375000000000002
 40
0.9687500000000001
 40
0.9687500000000001
 40
1.0
 40
1.0
 40
1.03125
 40
1.03125
 10
134.9230396020168
 20
135.6246150501138
 30
0.0
 10
134.9230396020168
 20
135.8891600341526
 30
0.0
 10
134.9490246774007
 20
136.0163121283075
 30
0.0
 10
135.0507895799848
 20
136.2611211240454
 30
0.0
 10
135.1278239657908
 20
136.3799831231184
 30
0.0
 10
135.3286902532279
 20
136.6016929494639
 30
0.0
 10
135.4515693018193
 20
136.7044082883894
 30
0.0
 10
135.741833963883
 20
136.8951003089672
 30
0.0
 10
135.9106075397349
 20
136.9832900062782
 30
0.0
 10
136.2792455610212
 20
137.1387891223753
 30
0.0
 10
136.4804386089737
 20
137.2072017798393
 30
0.0
 10
136.9175761342279
 20
137.3265323991845
 30
0.0
 10
137.1499908018513
 20
137.3762920913667
 30
0.0
 10
137.6311750239636
 20
137.4556660684395
 30
0.0
 10
137.8835100299216
 20
137.4858617526793
 30
0.0
 10
138.3999548956094
 20
137.5261096405222
 30
0.0
 10
138.6596601436617
 20
137.535993925305
 30
0.0
 10
139.1819672008148
 20
137.536107028087
 30
0.0
 10
139.4472735161288
 20
137.5260074223558
 30
0.0
 10
139.960479606258
 20
137.4860372323794
 30
0.0
 10
140.2099470445698
 20
137.4563800686082
 30
0.0
 10
140.6945496540616
 20
137.3766482416476
 30
0.0
 10
140.9284193128461
 20
137.3264691883345
 30
0.0
 10
141.3615616341013
 20
137.2084005137484
 30
0.0
 10
141.5637385498672
 20
137.1400473533477
 30
0.0
 10
141.9370133421768
 20
136.9826868412433
 30
0.0
 10
142.1023356363267
 20
136.8961314241749
 30
0.0
 10
142.392050623662
 20
136.7062440039311
 30
0.0
 10
142.5174538892926
 20
136.6016299834797
 30
0.0
 10
142.7182693373046
 20
136.3799588465383
 30
0.0
 10
142.7940538944105
 20
136.2633925619934
 30
0.0
 10
142.8966636131428
 20
136.0179427383213
 30
0.0
 10
142.922941146001
 20
135.8882121828441
 30
0.0
 10
142.9231374928224
 20
135.6270664485407
 30
0.0
 10
142.8979042466048
 20
135.4943872865079
 30
0.0
 10
142.7955037606876
 20
135.2250300331928
 30
0.0
 10
142.7188154636284
 20
135.0906585948461
 30
0.0
 10
142.519599353312
 20
134.829626464942
 30
0.0
 10
142.3954927193075
 20
134.7009638276482
 30
0.0
 10
142.1036163713059
 20
134.4556561063101
 30
0.0
 10
141.9383440671241
 20
134.3406994985807
 30
0.0
 10
141.5699609639404
 20
134.1273683188957
 30
0.0
 10
141.3644510573128
 20
134.0282501313596
 30
0.0
 10
140.9303467133806
 20
133.8563278690886
 30
0.0
 10
140.7008614257533
 20
133.7826163803009
 30
0.0
 10
140.2166487483927
 20
133.6613639089742
 30
0.0
 10
139.9626554226207
 20
133.6144555782903
 30
0.0
 10
139.4512772864945
 20
133.5522463449154
 30
0.0
 10
139.1911472624274
 20
133.536197353263
 30
0.0
 10
138.6621430485355
 20
133.535906067469
 30
0.0
 10
138.4020553177484
 20
133.5516583081155
 30
0.0
 10
137.8903377950396
 20
133.6133281859131
 30
0.0
 10
137.6360266773064
 20
133.6600098617533
 30
0.0
 10
137.1516488313409
 20
133.7807161502105
 30
0.0
 10
136.9218840745781
 20
133.8542003646519
 30
0.0
 10
136.4869220177049
 20
134.0258528121757
 30
0.0
 10
136.2812457555751
 20
134.1247476924731
 30
0.0
 10
135.9124029104491
 20
134.337656806092
 30
0.0
 10
135.7467191927948
 20
134.4524977557761
 30
0.0
 10
135.4538177757946
 20
134.6978397619359
 30
0.0
 10
135.3296070438689
 20
134.8261518416173
 30
0.0
 10
135.1295984919472
 20
135.0869932695237
 30
0.0
 10
135.0524609423609
 20
135.221276541606
 30
0.0
 10
134.94902791209
 20
135.4909691227466
 30
0.0
 10
134.9230396020168
 20
135.6246150501138
 30
0.0
 10
134.9230396020168
 20
135.8891600341526
 30
0.0
  0
LINE
  5
82
330
1F
100
AcDbEntity
  8
0
  6
Continuous
 62
     7
370
    15
100
AcDbLine
 10
147.013039602
 20
80.9792501639
 30
0.0
 11
147.013039602
 21
128.3270873229
 31
0.0
  0
SPLINE
  5
83
330
1F
100
AcDbEntity
  8
0
  6
Continuous
 62
     7
370
    15
100
AcDbSpline
210
0.0
220
0.0
230
1.0
 70
     8
 71
     3
 72
     8
 73
     4
 74
     0
 42
0.00000001
 43
0.00000001
 40
0.0
 40
0.0
 40
0.0
 40
0.0
 40
1.0
 40
1.0
 40
1.0
 40
1.0
 10
147.0130396020168
 20
80.9792501638685
 30
0.0
 10
146.5207004792356
 20
80.0819801296618
 30
0.0
 10
146.0265864311935
 20
79.18569571460955
 30
0.0
 10
145.5311067705277
 20
78.2901696266762
 30
0.0
  0
SPLINE
  5
84
330
1F
100
AcDbEntity
  8
0
  6
Continuous
 62
     7
370
    15
100
AcDbSpline
210
0.0
220
0.0
230
1.0
 70
    24
 71
     3
 72
     8
 73
     4
 74
     0
 42
0.00000001
 43
0.00000001
 40
0.0
 40
0.0
 40
0.0
 40
0.0
 40
1.0
 40
1.0
 40
1.0
 40
1.0
 10
145.5311067705277
 20
128.3270873229233
 30
0.0
 10
146.0377868786783
 20
128.3270873229233
 30
0.0
 10
146.5330876076519
 20
128.3270873229233
 30
0.0
 10
147.0130396020168
 20
128.3270873229233
 30
0.0
  0
LINE
  5
85
330
1F
100
AcDbEntity
  8
0
  6
Continuous
 62
     7
370
    15
100
AcDbLine
 10
156.873039602
 20
78.9168099223
 30
0.0
 11
156.873039602
 21
128.3270873229
 31
0.0
  0
SPLINE
  5
86
330
1F
100
AcDbEntity
  8
0
  6
Continuous
 62
     7
370
    15
100
AcDbSpline
210
0.0
220
0.0
230
1.0
 70
     8
 71
     3
 72
    10
 73
     6
 74
     0
 42
0.00000001
 43
0.00000001
 40
0.0
 40
0.0
 40
0.0
 40
0.0
 40
0.5
 40
0.5
 40
1.0
 40
1.0
 40
1.0
 40
1.0
 10
156.8730396020168
 20
78.91680992233051
 30
0.0
 10
156.8730396020168
 20
78.75692265413686
 30
0.0
 10
156.8117299507809
 20
78.59579539862226
 30
0.0
 10
156.5926303132458
 20
78.36169640026742
 30
0.0
 10
156.4345821069324
 20
78.2901696266762
 30
0.0
 10
156.2730396020168
 20
78.2901696266762
 30
0.0
  0
SPLINE
  5
87
330
1F
100
AcDbEntity
  8
0
  6
Continuous
 62
     7
370
    15
100
AcDbSpline
210
0.0
220
0.0
230
1.0
 70
    24
 71
     3
 72
    12
 73
     8
 74
     0
 42
0.00000001
 43
0.00000001
 40
0.0
 40
0.0
 40
0.0
 40
0.0
 40
0.2500000000000033
 40
0.2500000000000033
 40
0.5000000000000067
 40
0.5000000000000067
 40
1.0
 40
1.0
 40
1.0
 40
1.0
 10
156.2730396020168
 20
128.3270873229233
 30
0.0
 10
156.3632786697038
 20
128.3270873229233
 30
0.0
 10
156.4541767838103
 20
128.3270873229233
 30
0.0
 10
156.6087738202989
 20
128.3270873229233
 30
0.0
 10
156.673752236407
 20
128.3270873229233
 30
0.0
 10
156.8255872643432
 20
128.3270873229233
 30
0.0
 10
156.8730396020168
 20
128.3270873229233
 30
0.0
 10
156.8730396020168
 20
128.3270873229233
 30
0.0
  0
LINE
  5
88
330
1F
100
AcDbEntity
  8
0
  6
Continuous
 62
     7
370
    15
100
AcDbLine
 10
156.273039602
 20
78.2901696267
 30
0.0
 11
152.3149724335
 21
78.2901696267
 31
0.0
  0
LINE
  5
89
330
1F
100
AcDbEntity
  8
0
  6
Continuous
 62
     7
370
    15
100
AcDbLine
 10
152.3149724335
 20
78.2901696267
 30
0.0
 11
152.3149724335
 21
128.3270873229
 31
0.0
  0
LINE
  5
8A
330
1F
100
AcDbEntity
  8
0
  6
Continuous
 62
     7
370
    15
100
AcDbLine
 10
152.3149724335
 20
128.3270873229
 30
0.0
 11
156.273039602
 21
128.3270873229
 31
0.0
  0
SPLINE
  5
8B
330
1F
100
AcDbEntity
  8
0
  6
Continuous
 62
     7
370
    15
100
AcDbSpline
210
0.0
220
0.0
230
1.0
 70
     8
 71
     3
 72
     8
 73
     4
 74
     0
 42
0.00000001
 43
0.00000001
 40
0.0
 40
0.0
 40
0.0
 40
0.0
 40
1.0
 40
1.0
 40
1.0
 40
1.0
 10
152.3149724335058
 20
78.2901696266762
 30
0.0
 10
151.8194927728401
 20
79.18569571460957
 30
0.0
 10
151.325378724798
 20
80.0819801296618
 30
0.0
 10
150.8330396020168
 20
80.9792501638685
 30
0.0
  0
LINE
  5
8C
330
1F
100
AcDbEntity
  8
0
  6
Continuous
 62
     7
370
    15
100
AcDbLine
 10
150.833039602
 20
80.9792501639
 30
0.0
 11
150.833039602
 21
128.3270873229
 31
0.0
  0
SPLINE
  5
8D
330
1F
100
AcDbEntity
  8
0
  6
Continuous
 62
     7
370
    15
100
AcDbSpline
210
0.0
220
0.0
230
1.0
 70
    24
 71
     3
 72
     8
 73
     4
 74
     0
 42
0.00000001
 43
0.00000001
 40
0.0
 40
0.0
 40
0.0
 40
0.0
 40
1.0
 40
1.0
 40
1.0
 40
1.0
 10
150.8330396020168
 20
128.3270873229233
 30
0.0
 10
151.3129915963817
 20
128.3270873229233
 30
0.0
 10
151.8082923253553
 20
128.3270873229233
 30
0.0
 10
152.3149724335059
 20
128.3270873229233
 30
0.0
  0
LINE
  5
8E
330
1F
100
AcDbEntity
  8
0
  6
Continuous
 62
     7
370
    15
100
AcDbLine
 10
130.923039602
 20
77.2770873229
 30
0.0
 11
130.923039602
 21
139.6770873185
 31
0.0
  0
ARC
  5
8F
330
1F
100
AcDbEntity
  8
0
  6
Continuous
 62
     7
370
    15
100
AcDbCircle
 10
138.9250188339
 20
120.3695820393
 30
0.0
 40
4.117500569977166
100
AcDbArc
 50
20.6167506282
 51
160.2463074575
  0
SPLINE
  5
90
330
1F
100
AcDbEntity
  8
0
  6
Continuous
 62
     7
370
    15
100
AcDbSpline
210
0.0
220
0.0
230
1.0
 70
     8
 71
     3
 72
    10
 73
     6
 74
     0
 42
0.00000001
 43
0.00000001
 40
0.0
 40
0.0
 40
0.0
 40
0.0
 40
0.5
 40
0.5
 40
1.0
 40
1.0
 40
1.0
 40
1.0
 10
147.4073371337077
 20
134.8770873229234
 30
0.0
 10
147.2857968700392
 20
134.9518134901351
 30
0.0
 10
147.1844625096903
 20
135.0607585060519
 30
0.0
 10
147.0488235668019
 20
135.3111889868135
 30
0.0
 10
147.0130396020168
 20
135.4536083489125
 30
0.0
 10
147.0130396020168
 20
135.5967411739591
 30
0.0
  0
SPLINE
  5
91
330
1F
100
AcDbEntity
  8
0
  6
Continuous
 62
     7
370
    15
100
AcDbSpline
210
0.0
220
0.0
230
1.0
 70
    24
 71
     3
 72
    12
 73
     8
 74
     0
 42
0.00000001
 43
0.00000001
 40
0.0
 40
0.0
 40
0.0
 40
0.0
 40
0.2500000000000037
 40
0.2500000000000037
 40
0.5000000000000074
 40
0.5000000000000074
 40
1.0
 40
1.0
 40
1.0
 40
1.0
 10
147.8130396020168
 20
134.8770873229234
 30
0.0
 10
147.7631629196993
 20
134.8770873229234
 30
0.0
 10
147.7151597262957
 20
134.8770873229234
 30
0.0
 10
147.6321116235838
 20
134.8770873229234
 30
0.0
 10
147.5959820441159
 20
134.8770873229234
 30
0.0
 10
147.5000700131717
 20
134.8770873229234
 30
0.0
 10
147.4503113452029
 20
134.8770873229234
 30
0.0
 10
147.4073371337077
 20
134.8770873229234
 30
0.0
  0
SPLINE
  5
92
330
1F
100
AcDbEntity
  8
0
  6
Continuous
 62
     7
370
    15
100
AcDbSpline
210
0.0
220
0.0
230
1.0
 70
    24
 71
     3
 72
    14
 73
    10
 74
     0
 42
0.00000001
 43
0.00000001
 40
0.0
 40
0.0
 40
0.0
 40
0.0
 40
0.1249999999999991
 40
0.1249999999999991
 40
0.2499999999999982
 40
0.2499999999999982
 40
0.4999999999999998
 40
0.4999999999999998
 40
1.0
 40
1.0
 40
1.0
 40
1.0
 10
147.8130396020168
 20
82.07708732292338
 30
0.0
 10
147.7446017541303
 20
82.07708732292338
 30
0.0
 10
147.6790517153653
 20
82.07708732292338
 30
0.0
 10
147.5746250759573
 20
82.07708732292338
 30
0.0
 10
147.5320804661959
 20
82.07708732292338
 30
0.0
 10
147.4194710056557
 20
82.07708732292336
 30
0.0
 10
147.3639319586362
 20
82.07708732292338
 30
0.0
 10
147.2213202631724
 20
82.07708732292336
 30
0.0
 10
147.1579149081766
 20
82.07708732292336
 30
0.0
 10
147.1107144043491
 20
82.07708732292338
 30
0.0
  0
SPLINE
  5
93
330
1F
100
AcDbEntity
  8
0
  6
Continuous
 62
     7
370
    15
100
AcDbSpline
210
0.0
220
0.0
230
1.0
 70
     8
 71
     3
 72
    10
 73
     6
 74
     0
 42
0.00000001
 43
0.00000001
 40
0.0
 40
0.0
 40
0.0
 40
0.0
 40
0.5
 40
0.5
 40
1.0
 40
1.0
 40
1.0
 40
1.0
 10
147.0130396020168
 20
128.6129539543847
 30
0.0
 10
147.0130396020168
 20
128.5651824463914
 30
0.0
 10
147.0152008456139
 20
128.5174727243298
 30
0.0
 10
147.0238722194741
 20
128.4221776067815
 30
0.0
 10
147.0304014024301
 20
128.3744850428149
 30
0.0
 10
147.0391872251769
 20
128.3270873229233
 30
0.0
  0
SPLINE
  5
94
330
1F
100
AcDbEntity
  8
0
  6
Continuous
 62
     7
370
    15
100
AcDbSpline
210
0.0
220
0.0
230
1.0
 70
    24
 71
     3
 72
    14
 73
    10
 74
     0
 42
0.00000001
 43
0.00000001
 40
0.0
 40
0.0
 40
0.0
 40
0.0
 40
0.5000000000000013
 40
0.5000000000000013
 40
0.750000000000002
 40
0.750000000000002
 40
0.875000000000001
 40
0.875000000000001
 40
1.0
 40
1.0
 40
1.0
 40
1.0
 10
150.7353647996845
 20
82.07708732292338
 30
0.0
 10
150.6885800946363
 20
82.07708732292336
 30
0.0
 10
150.6265288978567
 20
82.07708732292338
 30
0.0
 10
150.4831372593061
 20
82.07708732292338
 30
0.0
 10
150.4269936057549
 20
82.07708732292336
 30
0.0
 10
150.3140425836187
 20
82.07708732292336
 30
0.0
 10
150.2710418215806
 20
82.07708732292338
 30
0.0
 10
150.1669791112741
 20
82.07708732292336
 30
0.0
 10
150.1016468729172
 20
82.07708732292338
 30
0.0
 10
150.0330396020168
 20
82.07708732292338
 30
0.0
  0
SPLINE
  5
95
330
1F
100
AcDbEntity
  8
0
  6
Continuous
 62
     7
370
    15
100
AcDbSpline
210
0.0
220
0.0
230
1.0
 70
    24
 71
     3
 72
    12
 73
     8
 74
     0
 42
0.00000001
 43
0.00000001
 40
0.0
 40
0.0
 40
0.0
 40
0.0
 40
0.5000000000000017
 40
0.5000000000000017
 40
0.7500000000000008
 40
0.7500000000000008
 40
1.0
 40
1.0
 40
1.0
 40
1.0
 10
150.4387420703258
 20
134.8770873229234
 30
0.0
 10
150.3956565207149
 20
134.8770873229234
 30
0.0
 10
150.3465043189655
 20
134.8770873229234
 30
0.0
 10
150.2500317246776
 20
134.8770873229234
 30
0.0
 10
150.213930139543
 20
134.8770873229234
 30
0.0
 10
150.1308243816818
 20
134.8770873229234
 30
0.0
 10
150.0828277847155
 20
134.8770873229234
 30
0.0
 10
150.0330396020168
 20
134.8770873229234
 30
0.0
  0
SPLINE
  5
96
330
1F
100
AcDbEntity
  8
0
  6
Continuous
 62
     7
370
    15
100
AcDbSpline
210
0.0
220
0.0
230
1.0
 70
     8
 71
     3
 72
    10
 73
     6
 74
     0
 42
0.00000001
 43
0.00000001
 40
0.0
 40
0.0
 40
0.0
 40
0.0
 40
0.5
 40
0.5
 40
1.0
 40
1.0
 40
1.0
 40
1.0
 10
150.8330396020168
 20
135.5967411739591
 30
0.0
 10
150.8330396020168
 20
135.4529711161411
 30
0.0
 10
150.7969905432979
 20
135.310551753646
 30
0.0
 10
150.6614816825239
 20
135.0606574602888
 30
0.0
 10
150.5616056894277
 20
134.9526271240406
 30
0.0
 10
150.4387420703258
 20
134.8770873229233
 30
0.0
  0
SPLINE
  5
97
330
1F
100
AcDbEntity
  8
0
  6
Continuous
 62
     7
370
    15
100
AcDbSpline
210
0.0
220
0.0
230
1.0
 70
     8
 71
     3
 72
    10
 73
     6
 74
     0
 42
0.00000001
 43
0.00000001
 40
0.0
 40
0.0
 40
0.0
 40
0.0
 40
0.5
 40
0.5
 40
1.0
 40
1.0
 40
1.0
 40
1.0
 10
150.8068919788567
 20
128.3270873229233
 30
0.0
 10
150.8155816217683
 20
128.3739661722415
 30
0.0
 10
150.8221206865188
 20
128.4213886376428
 30
0.0
 10
150.8308793209119
 20
128.5173254362295
 30
0.0
 10
150.8330396020168
 20
128.56524072424
 30
0.0
 10
150.8330396020168
 20
128.6129539543846
 30
0.0
  0
LINE
  5
98
330
1F
100
AcDbEntity
  8
0
  6
Continuous
 62
     7
370
    15
100
AcDbLine
 10
150.033039602
 20
134.8770873229
 30
0.0
 11
147.813039602
 21
134.8770873229
 31
0.0
  0
LINE
  5
99
330
1F
100
AcDbEntity
  8
0
  6
Continuous
 62
     7
370
    15
100
AcDbLine
 10
150.033039602
 20
82.0770873229
 30
0.0
 11
147.813039602
 21
82.0770873229
 31
0.0
  0
LINE
  5
9A
330
1F
100
AcDbEntity
  8
0
  6
Continuous
 62
     7
370
    15
100
AcDbLine
 10
128.923039602
 20
84.2566564612
 30
0.0
 11
128.923039602
 21
132.6975181846
 31
0.0
  0
LINE
  5
9B
330
1F
100
AcDbEntity
  8
0
  6
Continuous
 62
     7
370
    15
100
AcDbLine
 10
109.123039602
 20
85.2486404291
 30
0.0
 11
109.123039602
 21
86.5133497917
 31
0.0
  0
SPLINE
  5
9C
330
1F
100
AcDbEntity
  8
0
  6
Continuous
 62
     7
370
    15
100
AcDbSpline
210
0.0
220
0.0
230
1.0
 70
     8
 71
     3
 72
    14
 73
    10
 74
     0
 42
0.00000001
 43
0.00000001
 40
0.0
 40
0.0
 40
0.0
 40
0.0
 40
0.25
 40
0.25
 40
0.5
 40
0.5
 40
0.75
 40
0.75
 40
1.0
 40
1.0
 40
1.0
 40
1.0
 10
108.3447524841011
 20
87.64393599936342
 30
0.0
 10
108.4013791593031
 20
87.53623854552656
 30
0.0
 10
108.4959018195929
 20
87.43344896380724
 30
0.0
 10
108.6789467951551
 20
87.23509165158708
 30
0.0
 10
108.7705733721098
 20
87.13903214290885
 30
0.0
 10
108.929426689803
 20
86.9515031001996
 30
0.0
 10
108.9973172974247
 20
86.86009412741605
 30
0.0
 10
109.0942343231323
 20
86.6817179065059
 30
0.0
 10
109.1230396020174
 20
86.59449600025971
 30
0.0
 10
109.1230396020174
 20
86.51334979172545
 30
0.0
  0
SPLINE
  5
9D
330
1F
100
AcDbEntity
  8
0
  6
Continuous
 62
     7
370
    15
100
AcDbSpline
210
0.0
220
0.0
230
1.0
 70
     8
 71
     3
 72
    14
 73
    10
 74
     0
 42
0.00000001
 43
0.00000001
 40
0.0
 40
0.0
 40
0.0
 40
0.0
 40
0.1249999999999975
 40
0.1249999999999975
 40
0.249999999999995
 40
0.249999999999995
 40
0.4999999999999953
 40
0.4999999999999953
 40
1.0
 40
1.0
 40
1.0
 40
1.0
 10
107.7230396020168
 20
88.09061786164274
 30
0.0
 10
107.7715840106739
 20
88.09636617492303
 30
0.0
 10
107.8244993654589
 20
88.09326528626679
 30
0.0
 10
107.9197947104419
 20
88.07107044210447
 30
0.0
 10
107.9600457077268
 20
88.0538382150086
 30
0.0
 10
108.0643157212398
 20
87.99751029855655
 30
0.0
 10
108.1146376963931
 20
87.95332395261075
 30
0.0
 10
108.2423206439185
 20
87.82231605376012
 30
0.0
 10
108.2984060909808
 20
87.73208153352982
 30
0.0
 10
108.3447524841025
 20
87.64393599936395
 30
0.0
  0
SPLINE
  5
9E
330
1F
100
AcDbEntity
  8
0
  6
Continuous
 62
     7
370
    15
100
AcDbSpline
210
0.0
220
0.0
230
1.0
 70
     8
 71
     3
 72
     8
 73
     4
 74
     0
 42
0.00000001
 43
0.00000001
 40
0.0
 40
0.0
 40
0.0
 40
0.0
 40
1.0
 40
1.0
 40
1.0
 40
1.0
 10
105.4545145090706
 20
87.78077257505996
 30
0.0
 10
106.1890915355535
 20
87.89939758612891
 30
0.0
 10
106.9525666049492
 20
87.99938345826519
 30
0.0
 10
107.7230396020168
 20
88.09061786164274
 30
0.0
  0
SPLINE
  5
9F
330
1F
100
AcDbEntity
  8
0
  6
Continuous
 62
     7
370
    15
100
AcDbSpline
210
0.0
220
0.0
230
1.0
 70
     8
 71
     3
 72
    14
 73
    10
 74
     0
 42
0.00000001
 43
0.00000001
 40
0.0
 40
0.0
 40
0.0
 40
0.0
 40
0.500000000000001
 40
0.500000000000001
 40
0.7500000000000004
 40
0.7500000000000004
 40
0.8750000000000003
 40
0.8750000000000003
 40
1.0
 40
1.0
 40
1.0
 40
1.0
 10
100.1730396020168
 20
87.6071495575283
 30
0.0
 10
101.0651857325704
 20
87.60642733132765
 30
0.0
 10
101.955162168364
 20
87.61101353778511
 30
0.0
 10
103.2817573354396
 20
87.63873854217664
 30
0.0
 10
103.7226042639383
 20
87.65134507980082
 30
0.0
 10
104.3790445013607
 20
87.68236122780827
 30
0.0
 10
104.5970581579526
 20
87.69470440043504
 30
0.0
 10
105.0297670116354
 20
87.72772845559832
 30
0.0
 10
105.2450434768002
 20
87.74694562073677
 30
0.0
 10
105.4545145090706
 20
87.78077257505996
 30
0.0
  0
SPLINE
  5
A0
330
1F
100
AcDbEntity
  8
0
  6
Continuous
 62
     7
370
    15
100
AcDbSpline
210
0.0
220
0.0
230
1.0
 70
     8
 71
     3
 72
     8
 73
     4
 74
     0
 42
0.00000001
 43
0.00000001
 40
0.0000005163856998
 40
0.0000005163856998
 40
0.0000005163856998
 40
0.0000005163856998
 40
0.000026289209185
 40
0.000026289209185
 40
0.000026289209185
 40
0.000026289209185
 10
100.1629946716092
 20
87.61713343062507
 30
0.0
 10
100.166322409817
 20
87.61379918375596
 30
0.0
 10
100.1696708627926
 20
87.61047122648066
 30
0.0
 10
100.1730396020168
 20
87.60714955752829
 30
0.0
  0
SPLINE
  5
A1
330
1F
100
AcDbEntity
  8
0
  6
Continuous
 62
     7
370
    15
100
AcDbSpline
210
0.0
220
0.0
230
1.0
 70
     8
 71
     3
 72
     8
 73
     4
 74
     0
 42
0.00000001
 43
0.00000001
 40
0.0000005099763573
 40
0.0000005099763573
 40
0.0000005099763573
 40
0.0000005099763573
 40
0.0000262827998699
 40
0.0000262827998699
 40
0.0000262827998699
 40
0.0000262827998699
 10
100.1730396020168
 20
129.3470250883184
 30
0.0
 10
100.169670862789
 20
129.3437034193626
 30
0.0
 10
100.1663224098099
 20
129.3403754620837
 30
0.0
 10
100.1629946715985
 20
129.337041215211
 30
0.0
  0
SPLINE
  5
A2
330
1F
100
AcDbEntity
  8
0
  6
Continuous
 62
     7
370
    15
100
AcDbSpline
210
0.0
220
0.0
230
1.0
 70
     8
 71
     3
 72
    10
 73
     6
 74
     0
 42
0.00000001
 43
0.00000001
 40
0.0
 40
0.0
 40
0.0
 40
0.0
 40
0.5
 40
0.5
 40
1.0
 40
1.0
 40
1.0
 40
1.0
 10
103.7230396020168
 20
129.3001747147511
 30
0.0
 10
103.1354540549262
 20
129.3212402349875
 30
0.0
 10
102.5447076614658
 20
129.3319987208597
 30
0.0
 10
101.360688496167
 20
129.3453635013954
 30
0.0
 10
100.7672745079615
 20
129.34750614406
 30
0.0
 10
100.1730396020168
 20
129.3470250883184
 30
0.0
  0
SPLINE
  5
A3
330
1F
100
AcDbEntity
  8
0
  6
Continuous
 62
     7
370
    15
100
AcDbSpline
210
0.0
220
0.0
230
1.0
 70
     8
 71
     3
 72
    18
 73
    14
 74
     0
 42
0.00000001
 43
0.00000001
 40
0.0
 40
0.0
 40
0.0
 40
0.0
 40
0.2500000000000009
 40
0.2500000000000009
 40
0.500000000000001
 40
0.500000000000001
 40
0.7500000000000011
 40
0.7500000000000011
 40
0.875000000000001
 40
0.875000000000001
 40
0.9375000000000006
 40
0.9375000000000006
 40
1.0
 40
1.0
 40
1.0
 40
1.0
 10
105.1230396020168
 20
130.3211949952864
 30
0.0
 10
105.1230396020168
 20
130.2379880864292
 30
0.0
 10
105.0871905020785
 20
130.1492514311156
 30
0.0
 10
104.9623187660446
 20
129.9671262405554
 30
0.0
 10
104.8719183483967
 20
129.8719961919287
 30
0.0
 10
104.6496756936546
 20
129.6828146828044
 30
0.0
 10
104.5199109072088
 20
129.5878695147097
 30
0.0
 10
104.2792734498973
 20
129.4495908071298
 30
0.0
 10
104.1915061517598
 20
129.4038803738274
 30
0.0
 10
104.036982064553
 20
129.3460570686059
 30
0.0
 10
103.9803711784983
 20
129.3283423045681
 30
0.0
 10
103.8563271475917
 20
129.3038030013351
 30
0.0
 10
103.7886124725734
 20
129.2978238627968
 30
0.0
 10
103.7230396020168
 20
129.3001747147511
 30
0.0
  0
LINE
  5
A4
330
1F
100
AcDbEntity
  8
0
  6
Continuous
 62
     7
370
    15
100
AcDbLine
 10
105.123039602
 20
130.3211949953
 30
0.0
 11
105.123039602
 21
131.5051334151
 31
0.0
  0
SPLINE
  5
A5
330
1F
100
AcDbEntity
  8
0
  6
Continuous
 62
     7
370
    15
100
AcDbSpline
210
0.0
220
0.0
230
1.0
 70
     8
 71
     3
 72
    24
 73
    20
 74
     0
 42
0.00000001
 43
0.00000001
 40
0.0
 40
0.0
 40
0.0
 40
0.0
 40
0.0010489762969682
 40
0.0637843125639766
 40
0.1272220590447888
 40
0.1903788924487598
 40
0.252674865369363
 40
0.3146354154424954
 40
0.377089199714964
 40
0.4393540298504154
 40
0.5008133242537826
 40
0.562184510458698
 40
0.624843845111553
 40
0.6874304766616532
 40
0.7496743174679398
 40
0.8119848426977657
 40
0.8750960525413161
 40
0.9384412526965076
 40
0.9999999999999999
 40
0.9999999999999999
 40
0.9999999999999999
 40
0.9999999999999999
 10
117.6919454339925
 20
84.81957889434322
 30
0.0
 10
117.6914989738883
 20
84.81952060852433
 30
0.0
 10
117.6643514101945
 20
84.8159764665818
 30
0.0
 10
117.7599631878082
 20
84.82881021126455
 30
0.0
 10
117.9935234457026
 20
84.85805689646473
 30
0.0
 10
118.3890777530199
 20
84.90467121952757
 30
0.0
 10
118.9161180568574
 20
84.95485436118693
 30
0.0
 10
119.5596484688472
 20
84.99923082363654
 30
0.0
 10
120.2983223240862
 20
85.02617560457475
 30
0.0
 10
121.0958368295196
 20
85.02964745528153
 30
0.0
 10
121.9224157119623
 20
85.00202021125129
 30
0.0
 10
122.7479387295731
 20
84.94354132227797
 30
0.0
 10
123.5400652775743
 20
84.85809629291788
 30
0.0
 10
124.2726375515801
 20
84.75636205308156
 30
0.0
 10
124.9082777883082
 20
84.64851893110858
 30
0.0
 10
125.4301888953176
 20
84.5468887743695
 30
0.0
 10
125.8118176724332
 20
84.46440361769127
 30
0.0
 10
126.062632142667
 20
84.40825441134166
 30
0.0
 10
126.0917536986513
 20
84.40140495272792
 30
0.0
 10
126.1061062194675
 20
84.39802920599975
 30
0.0
  0
SPLINE
  5
A6
330
1F
100
AcDbEntity
  8
0
  6
Continuous
 62
     7
370
    15
100
AcDbSpline
210
0.0
220
0.0
230
1.0
 70
     8
 71
     3
 72
    24
 73
    20
 74
     0
 42
0.00000001
 43
0.00000001
 40
0.0
 40
0.0
 40
0.0
 40
0.0
 40
0.0614384276250176
 40
0.1250736755369651
 40
0.1884253490729237
 40
0.2508623904037427
 40
0.3129665632511172
 40
0.3753451453465143
 40
0.4377328972324873
 40
0.4990927322917189
 40
0.5605807588447405
 40
0.6229469893028771
 40
0.6854686282025979
 40
0.7475477813740068
 40
0.8098225060804932
 40
0.8730684085990272
 40
0.9364041844536292
 40
0.9991757196257863
 40
1.0
 40
1.0
 40
1.0
 40
1.0
 10
126.1060514486645
 20
132.5561162973808
 30
0.0
 10
126.0914507243611
 20
132.5527482405282
 30
0.0
 10
126.0617272056331
 20
132.5458916970544
 30
0.0
 10
125.8089893899845
 20
132.4895530765284
 30
0.0
 10
125.4259934735349
 20
132.4066959943984
 30
0.0
 10
124.9036378890978
 20
132.3047889644472
 30
0.0
 10
124.2688534110979
 20
132.1969498254033
 30
0.0
 10
123.5386298069252
 20
132.0954828734282
 30
0.0
 10
122.7481612216912
 20
132.0104231597376
 30
0.0
 10
121.923677706863
 20
131.9522188658512
 30
0.0
 10
121.0966412479795
 20
131.9246354270245
 30
0.0
 10
120.2983169803279
 20
131.9281284045173
 30
0.0
 10
119.5584930160386
 20
131.9550843243705
 30
0.0
 10
118.9142387830635
 20
131.9994382663697
 30
0.0
 10
118.3868315278475
 20
132.0496437161275
 30
0.0
 10
117.9921669256973
 20
132.096253571326
 30
0.0
 10
117.759637646509
 20
132.1254491638733
 30
0.0
 10
117.6642576139604
 20
132.1382272328146
 30
0.0
 10
117.6911912508614
 20
132.1346729743068
 30
0.0
 10
117.6915403440857
 20
132.1346269067234
 30
0.0
  0
SPLINE
  5
A7
330
1F
100
AcDbEntity
  8
0
  6
Continuous
 62
     7
370
    15
100
AcDbSpline
210
0.0
220
0.0
230
1.0
 70
     8
 71
     3
 72
     9
 73
     5
 74
     0
 42
0.00000001
 43
0.00000001
 40
0.0
 40
0.0
 40
0.0
 40
0.0
 40
0.7009329310330167
 40
1.0
 40
1.0
 40
1.0
 40
1.0
 10
99.04382428625225
 20
88.77580701882074
 30
0.0
 10
99.05296356292753
 20
88.75797773327922
 30
0.0
 10
99.06600229498113
 20
88.73254122608694
 30
0.0
 10
99.08116754874645
 20
88.78642108627874
 30
0.0
 10
99.08570297674018
 20
88.80253477814264
 30
0.0
  0
LINE
  5
A8
330
1F
100
AcDbEntity
  8
0
  6
Continuous
 62
     7
370
    15
100
AcDbLine
 10
99.023039602
 20
88.7864095764
 30
0.0
 11
99.023039602
 21
128.1677650694
 31
0.0
  0
SPLINE
  5
A9
330
1F
100
AcDbEntity
  8
0
  6
Continuous
 62
     7
370
    15
100
AcDbSpline
210
0.0
220
0.0
230
1.0
 70
     8
 71
     3
 72
    10
 73
     6
 74
     0
 42
0.00000001
 43
0.00000001
 40
0.0
 40
0.0
 40
0.0
 40
0.0
 40
0.5
 40
0.5
 40
1.0
 40
1.0
 40
1.0
 40
1.0
 10
99.08570297674018
 20
128.1516398677041
 30
0.0
 10
99.07679868763145
 20
128.1973813869173
 30
0.0
 10
99.06028330743847
 20
128.2145722263863
 30
0.0
 10
99.03317536137685
 20
128.2142489494505
 30
0.0
 10
99.0230396020168
 20
128.1963714071541
 30
0.0
 10
99.0230396020168
 20
128.1677650694015
 30
0.0
  0
SPLINE
  5
AA
330
1F
100
AcDbEntity
  8
0
  6
Continuous
 62
     7
370
    15
100
AcDbSpline
210
0.0
220
0.0
230
1.0
 70
     8
 71
     3
 72
    26
 73
    22
 74
     0
 42
0.00000001
 43
0.00000001
 40
0.0
 40
0.0
 40
0.0
 40
0.0
 40
0.2500000000000165
 40
0.2500000000000165
 40
0.3750000000000256
 40
0.3750000000000256
 40
0.4375000000000291
 40
0.4375000000000291
 40
0.4687500000000291
 40
0.4687500000000291
 40
0.5000000000000292
 40
0.5000000000000292
 40
0.5312500000000293
 40
0.5312500000000293
 40
0.5625000000000293
 40
0.5625000000000293
 40
0.625000000000026
 40
0.625000000000026
 40
0.7500000000000173
 40
0.7500000000000173
 40
1.0
 40
1.0
 40
1.0
 40
1.0
 10
99.8471932481213
 20
128.8672066565212
 30
0.0
 10
99.80859272525284
 20
128.7494319601657
 30
0.0
 10
99.76229572269857
 20
128.6250422740038
 30
0.0
 10
99.66835637426463
 20
128.4198229416504
 30
0.0
 10
99.63304490735118
 20
128.3482500752039
 30
0.0
 10
99.56686493160552
 20
128.2322968426035
 30
0.0
 10
99.54232656493728
 20
128.1917123077932
 30
0.0
 10
99.49895381938349
 20
128.1275706259215
 30
0.0
 10
99.48344541795828
 20
128.1057042006364
 30
0.0
 10
99.44840277337127
 20
128.0601099322932
 30
0.0
 10
99.42885248265151
 20
128.0364396413258
 30
0.0
 10
99.3869252022809
 20
127.9918230819859
 30
0.0
 10
99.36427309204926
 20
127.970943069468
 30
0.0
 10
99.32329937796261
 20
127.9400696557171
 30
0.0
 10
99.30570007806719
 20
127.9302307858847
 30
0.0
 10
99.26107309221105
 20
127.9112411701886
 30
0.0
 10
99.2405138695577
 20
127.9109168455351
 30
0.0
 10
99.18938843006104
 20
127.9201402864113
 30
0.0
 10
99.16847701707252
 20
127.9413871826283
 30
0.0
 10
99.11702710951158
 20
128.015356061459
 30
0.0
 10
99.09936181020703
 20
128.0814741547738
 30
0.0
 10
99.08570297674018
 20
128.1516398677041
 30
0.0
  0
SPLINE
  5
AB
330
1F
100
AcDbEntity
  8
0
  6
Continuous
 62
     7
370
    15
100
AcDbSpline
210
0.0
220
0.0
230
1.0
 70
     8
 71
     3
 72
    10
 73
     6
 74
     0
 42
0.00000001
 43
0.00000001
 40
0.0
 40
0.0
 40
0.0
 40
0.0
 40
0.5
 40
0.5
 40
1.0
 40
1.0
 40
1.0
 40
1.0
 10
100.1629946715986
 20
129.337041215211
 30
0.0
 10
100.0954354166803
 20
129.2693498224012
 30
0.0
 10
100.0317987613438
 20
129.1946426576476
 30
0.0
 10
99.921578006772
 20
129.035676525221
 30
0.0
 10
99.87476171354936
 20
128.951321259213
 30
0.0
 10
99.8471932481213
 20
128.8672066565212
 30
0.0
  0
SPLINE
  5
AC
330
1F
100
AcDbEntity
  8
0
  6
Continuous
 62
     7
370
    15
100
AcDbSpline
210
0.0
220
0.0
230
1.0
 70
     8
 71
     3
 72
    10
 73
     6
 74
     0
 42
0.00000001
 43
0.00000001
 40
0.0
 40
0.0
 40
0.0
 40
0.0
 40
0.5
 40
0.5
 40
1.0
 40
1.0
 40
1.0
 40
1.0
 10
99.84719324812133
 20
88.0869679893254
 30
0.0
 10
99.8746706628753
 20
88.00313119285752
 30
0.0
 10
99.92137929316472
 20
87.91882070526837
 30
0.0
 10
100.0316577559107
 20
87.75969947478167
 30
0.0
 10
100.0955452945246
 20
87.68471473069202
 30
0.0
 10
100.1629946716092
 20
87.61713343062507
 30
0.0
  0
SPLINE
  5
AD
330
1F
100
AcDbEntity
  8
0
  6
Continuous
 62
     7
370
    15
100
AcDbSpline
210
0.0
220
0.0
230
1.0
 70
     8
 71
     3
 72
    24
 73
    20
 74
     0
 42
0.00000001
 43
0.00000001
 40
0.0
 40
0.0
 40
0.0
 40
0.0
 40
0.25
 40
0.25
 40
0.374999999999999
 40
0.374999999999999
 40
0.4374999999999993
 40
0.4374999999999993
 40
0.4687499999999994
 40
0.4687499999999994
 40
0.4999999999999995
 40
0.4999999999999995
 40
0.5624999999999971
 40
0.5624999999999971
 40
0.6249999999999947
 40
0.6249999999999947
 40
0.7499999999999947
 40
0.7499999999999947
 40
1.0
 40
1.0
 40
1.0
 40
1.0
 10
99.08570297674018
 20
88.80253477814263
 30
0.0
 10
99.09945609541043
 20
88.8731848361329
 30
0.0
 10
99.11722866281629
 20
88.93978294889784
 30
0.0
 10
99.16947975437165
 20
89.01388096913104
 30
0.0
 10
99.1905148299532
 20
89.0351387762926
 30
0.0
 10
99.24341523758164
 20
89.04328470243884
 30
0.0
 10
99.26452091045957
 20
89.04234489904307
 30
0.0
 10
99.31057307913751
 20
89.02132890746573
 30
0.0
 10
99.32894355112091
 20
89.01042010135811
 30
0.0
 10
99.37049518618663
 20
88.97778519041074
 30
0.0
 10
99.39306185894353
 20
88.95629321003936
 30
0.0
 10
99.45584287540355
 20
88.88782726645306
 30
0.0
 10
99.48897263637144
 20
88.84175280824796
 30
0.0
 10
99.54589032285647
 20
88.7567449199133
 30
0.0
 10
99.57007634836023
 20
88.71646461873192
 30
0.0
 10
99.63528429873999
 20
88.60152839226596
 30
0.0
 10
99.67000035893123
 20
88.53094540711896
 30
0.0
 10
99.7632156292621
 20
88.32673964804036
 30
0.0
 10
99.80888816462279
 20
88.203841265713
 30
0.0
 10
99.84719324812133
 20
88.08696798932542
 30
0.0
  0
SPLINE
  5
AE
330
1F
100
AcDbEntity
  8
0
  6
Continuous
 62
     7
370
    15
100
AcDbSpline
210
0.0
220
0.0
230
1.0
 70
     8
 71
     3
 72
     8
 73
     4
 74
     0
 42
0.00000001
 43
0.00000001
 40
0.0
 40
0.0
 40
0.0
 40
0.0
 40
1.0
 40
1.0
 40
1.0
 40
1.0
 10
147.0130396020168
 20
136.282321514095
 30
0.0
 10
146.520329505171
 20
137.1703405122214
 30
0.0
 10
146.026246799892
 20
138.0576031479073
 30
0.0
 10
145.5311067705277
 20
138.9442827960876
 30
0.0
  0
LINE
  5
AF
330
1F
100
AcDbEntity
  8
0
  6
Continuous
 62
     7
370
    15
100
AcDbLine
 10
147.013039602
 20
129.5272309905
 30
0.0
 11
147.013039602
 21
136.2823215141
 31
0.0
  0
SPLINE
  5
B0
330
1F
100
AcDbEntity
  8
0
  6
Continuous
 62
     7
370
    15
100
AcDbSpline
210
0.0
220
0.0
230
1.0
 70
     8
 71
     3
 72
     8
 73
     4
 74
     0
 42
0.00000001
 43
0.00000001
 40
0.0
 40
0.0
 40
0.0
 40
0.0
 40
1.0
 40
1.0
 40
1.0
 40
1.0
 10
145.5311067705277
 20
132.9357769852908
 30
0.0
 10
146.038193612287
 20
131.8046266311271
 30
0.0
 10
146.5337614514269
 20
130.6682422203593
 30
0.0
 10
147.0130396020168
 20
129.5272309905067
 30
0.0
  0
LINE
  5
B1
330
1F
100
AcDbEntity
  8
0
  6
Continuous
 62
     7
370
    15
100
AcDbLine
 10
150.833039602
 20
128.6129539544
 30
0.0
 11
150.833039602
 21
129.5272309905
 31
0.0
  0
SPLINE
  5
B2
330
1F
100
AcDbEntity
  8
0
  6
Continuous
 62
     7
370
    15
100
AcDbSpline
210
0.0
220
0.0
230
1.0
 70
     8
 71
     3
 72
     8
 73
     4
 74
     0
 42
0.00000001
 43
0.00000001
 40
0.0
 40
0.0
 40
0.0
 40
0.0
 40
1.0
 40
1.0
 40
1.0
 40
1.0
 10
150.8330396020168
 20
129.5272309905067
 30
0.0
 10
151.3123177526066
 20
130.6682422203593
 30
0.0
 10
151.8078855917466
 20
131.8046266311271
 30
0.0
 10
152.3149724335058
 20
132.9357769852908
 30
0.0
  0
LINE
  5
B3
330
1F
100
AcDbEntity
  8
0
  6
Continuous
 62
     7
370
    15
100
AcDbLine
 10
152.3149724335
 20
132.9357769853
 30
0.0
 11
156.273039602
 21
132.9357769853
 31
0.0
  0
SPLINE
  5
B4
330
1F
100
AcDbEntity
  8
0
  6
Continuous
 62
     7
370
    15
100
AcDbSpline
210
0.0
220
0.0
230
1.0
 70
     8
 71
     3
 72
    12
 73
     8
 74
     0
 42
0.00000001
 43
0.00000001
 40
0.0
 40
0.0
 40
0.0
 40
0.0
 40
0.250000000000002
 40
0.250000000000002
 40
0.500000000000004
 40
0.500000000000004
 40
1.0
 40
1.0
 40
1.0
 40
1.0
 10
156.2730396020168
 20
132.9357769852908
 30
0.0
 10
156.3642393238424
 20
132.9357769852908
 30
0.0
 10
156.4548343329785
 20
132.9075572867029
 30
0.0
 10
156.6082470594251
 20
132.8131142794548
 30
0.0
 10
156.6734559267488
 20
132.7468273027495
 30
0.0
 10
156.8262404560887
 20
132.5212024794612
 30
0.0
 10
156.8730396020168
 20
132.3387762164286
 30
0.0
 10
156.8730396020168
 20
132.1580395841818
 30
0.0
  0
LINE
  5
B5
330
1F
100
AcDbEntity
  8
0
  6
Continuous
 62
     7
370
    15
100
AcDbLine
 10
156.873039602
 20
132.1580395842
 30
0.0
 11
156.873039602
 21
128.3270873229
 31
0.0
  0
SPLINE
  5
B6
330
1F
100
AcDbEntity
  8
0
  6
Continuous
 62
     7
370
    15
100
AcDbSpline
210
0.0
220
0.0
230
1.0
 70
     8
 71
     3
 72
     8
 73
     4
 74
     0
 42
0.00000001
 43
0.00000001
 40
0.0
 40
0.0
 40
0.0
 40
0.0
 40
1.0
 40
1.0
 40
1.0
 40
1.0
 10
152.3149724335058
 20
138.9442827960876
 30
0.0
 10
151.8198324041415
 20
138.0576031479073
 30
0.0
 10
151.3257496988625
 20
137.1703405122213
 30
0.0
 10
150.8330396020168
 20
136.282321514095
 30
0.0
  0
LINE
  5
B7
330
1F
100
AcDbEntity
  8
0
  6
Continuous
 62
     7
370
    15
100
AcDbLine
 10
152.3149724335
 20
132.9357769853
 30
0.0
 11
152.3149724335
 21
138.9442827961
 31
0.0
  0
LINE
  5
B8
330
1F
100
AcDbEntity
  8
0
  6
Continuous
 62
     7
370
    15
100
AcDbLine
 10
150.833039602
 20
129.5272309905
 30
0.0
 11
150.833039602
 21
136.2823215141
 31
0.0
  0
LINE
  5
B9
330
1F
100
AcDbEntity
  8
0
  6
Continuous
 62
     7
370
    15
100
AcDbLine
 10
156.273039602
 20
138.9442827961
 30
0.0
 11
152.3149724335
 21
138.9442827961
 31
0.0
  0
SPLINE
  5
BA
330
1F
100
AcDbEntity
  8
0
  6
Continuous
 62
     7
370
    15
100
AcDbSpline
210
0.0
220
0.0
230
1.0
 70
     8
 71
     3
 72
    10
 73
     6
 74
     0
 42
0.00000001
 43
0.00000001
 40
0.0
 40
0.0
 40
0.0
 40
0.0
 40
0.5
 40
0.5
 40
1.0
 40
1.0
 40
1.0
 40
1.0
 10
156.8730396020168
 20
138.3235276466873
 30
0.0
 10
156.8730396020168
 20
138.4839329130381
 30
0.0
 10
156.8108017709099
 20
138.6429947260267
 30
0.0
 10
156.5916668471673
 20
138.873907191657
 30
0.0
 10
156.4340781521755
 20
138.9442827960876
 30
0.0
 10
156.2730396020168
 20
138.9442827960876
 30
0.0
  0
LINE
  5
BB
330
1F
100
AcDbEntity
  8
0
  6
Continuous
 62
     7
370
    15
100
AcDbLine
 10
156.873039602
 20
132.1580395842
 30
0.0
 11
156.873039602
 21
138.3235276467
 31
0.0
  0
LINE
  5
BC
330
1F
100
AcDbEntity
  8
0
  6
Continuous
 62
     7
370
    15
100
AcDbLine
 10
147.013039602
 20
129.5272309905
 30
0.0
 11
147.013039602
 21
128.6129539544
 31
0.0
  0
ARC
  5
BD
330
1F
100
AcDbEntity
  8
0
  6
Continuous
 62
     7
370
    15
100
AcDbCircle
 10
139.0110222948
 20
127.547336656
 30
0.0
 40
6.875916008057203
100
AcDbArc
 50
70.4525869283
 51
90.7331640662
  0
ARC
  5
BE
330
1F
100
AcDbEntity
  8
0
  6
Continuous
 62
     7
370
    15
100
AcDbCircle
 10
138.8350512712
 20
127.5473952639
 30
0.0
 40
6.875857477187712
100
AcDbArc
 50
89.2667827076
 51
109.5483093427
  0
LINE
  5
BF
330
1F
100
AcDbEntity
  8
0
  6
Continuous
 62
     7
370
    15
100
AcDbLine
 10
183.055998079
 20
92.4770873229
 30
0.0
 11
183.055998079
 21
124.4770873229
 31
0.0
  0
SPLINE
  5
C0
330
1F
100
AcDbEntity
  8
0
  6
Continuous
 62
     7
370
    15
100
AcDbSpline
210
0.0
220
0.0
230
1.0
 70
     8
 71
     3
 72
    39
 73
    35
 74
     0
 42
0.00000001
 43
0.00000001
 40
-0.0931102473294818
 40
-0.0619213968680525
 40
-0.0306708306485668
 40
0.0
 40
0.0306856150678114
 40
0.061948223649763
 40
0.0931389682128144
 40
0.124235366004915
 40
0.1553791717801729
 40
0.1869236166023537
 40
0.2186032199237516
 40
0.2499252161707489
 40
0.2812618749400005
 40
0.3130058611570817
 40
0.3446066213885592
 40
0.3758050985221379
 40
0.4068941952435672
 40
0.438046189740776
 40
0.4692609185498008
 40
0.500012182142933
 40
0.5307427550044636
 40
0.5620031531144725
 40
0.5931559557612481
 40
0.6242689070960176
 40
0.6554398400959235
 40
0.6870342707185771
 40
0.7187291690309942
 40
0.7500762020617063
 40
0.7813835916558497
 40
0.8131037368899912
 40
0.8446515541927465
 40
0.8758210372251164
 40
0.9068897526705181
 40
0.9380786031319474
 40
0.9693291693514331
 40
0.9999999999999999
 40
1.030685615067811
 40
1.061948223649763
 40
1.093138968212814
 10
179.1708198320368
 20
104.6481180172781
 30
0.0
 10
178.4229156346107
 20
104.5724236481237
 30
0.0
 10
177.6749417701175
 20
104.6482748324698
 30
0.0
 10
176.9565020343811
 20
104.8761523028123
 30
0.0
 10
176.2923837259238
 20
105.2344054069249
 30
0.0
 10
175.7158766418702
 20
105.7176618886136
 30
0.0
 10
175.2423577867032
 20
106.305821887563
 30
0.0
 10
174.8920412788907
 20
106.9815874644628
 30
0.0
 10
174.6696014933744
 20
107.7135856431918
 30
0.0
 10
174.5960330848286
 20
108.4753727661075
 30
0.0
 10
174.6699573902415
 20
109.2376264104563
 30
0.0
 10
174.8924272606306
 20
109.9707294258213
 30
0.0
 10
175.2427600201076
 20
110.6480805240745
 30
0.0
 10
175.7164921982047
 20
111.2371571842963
 30
0.0
 10
176.2927440403593
 20
111.7207822134783
 30
0.0
 10
176.9560337833067
 20
112.0790381220735
 30
0.0
 10
177.6745282484023
 20
112.3063494562119
 30
0.0
 10
178.4231572873194
 20
112.381639653532
 30
0.0
 10
179.1721413987618
 20
112.3061914130763
 30
0.0
 10
179.8907522973906
 20
112.0785473586623
 30
0.0
 10
180.5545028796955
 20
111.7199736103963
 30
0.0
 10
181.130576971676
 20
111.2361408769969
 30
0.0
 10
181.6040460101072
 20
110.6469795809929
 30
0.0
 10
181.9539988259934
 20
109.9701704913156
 30
0.0
 10
182.176140873198
 20
109.2373609859059
 30
0.0
 10
182.2500373461536
 20
108.4755454888105
 30
0.0
 10
182.1764970710825
 20
107.7134580013782
 30
0.0
 10
181.9538504879436
 20
106.981263816075
 30
0.0
 10
181.6032577643957
 20
106.3050183732604
 30
0.0
 10
181.1295387526987
 20
105.7169830498106
 30
0.0
 10
180.5529076896947
 20
105.2339372350662
 30
0.0
 10
179.889019535812
 20
104.8759798662976
 30
0.0
 10
179.1708198320368
 20
104.6481180172781
 30
0.0
 10
178.4229156346107
 20
104.5724236481237
 30
0.0
 10
177.6749417701175
 20
104.6482748324698
 30
0.0
  0
SPLINE
  5
C1
330
1F
100
AcDbEntity
  8
0
  6
Continuous
 62
     7
370
    15
100
AcDbSpline
210
0.0
220
0.0
230
1.0
 70
     8
 71
     3
 72
     9
 73
     5
 74
     0
 42
0.00000001
 43
0.00000001
 40
0.0
 40
0.0
 40
0.0
 40
0.0
 40
0.8911173645993122
 40
1.0
 40
1.0
 40
1.0
 40
1.0
 10
163.5415664958896
 20
92.63374454765453
 30
0.0
 10
163.4696172322431
 20
92.62593349982535
 30
0.0
 10
163.3888767299202
 20
92.6171680463178
 30
0.0
 10
163.3210255269329
 20
92.60857118159437
 30
0.0
 10
163.3136377091365
 20
92.60763513230711
 30
0.0
  0
SPLINE
  5
C2
330
1F
100
AcDbEntity
  8
0
  6
Continuous
 62
     7
370
    15
100
AcDbSpline
210
0.0
220
0.0
230
1.0
 70
     8
 71
     3
 72
    39
 73
    35
 74
     0
 42
0.00000001
 43
0.00000001
 40
0.0
 40
0.0
 40
0.0
 40
0.0
 40
0.0073548748022699
 40
0.030206981634268
 40
0.0506451808966317
 40
0.0921837666616778
 40
0.1133172922718243
 40
0.1345512863631249
 40
0.1776065331299079
 40
0.1994485873239965
 40
0.2234438886943233
 40
0.2720714035444565
 40
0.2967273404786679
 40
0.3243192663365322
 40
0.3802821684946791
 40
0.4086932008979562
 40
0.4391904142527937
 40
0.5011443059730831
 40
0.5326651512392987
 40
0.5643637983364901
 40
0.5962835925282711
 40
0.6289127703121072
 40
0.6617936472317499
 40
0.6930298603733769
 40
0.724506533084578
 40
0.7567931442254782
 40
0.7893859654179773
 40
0.8132580700255928
 40
0.8617439508450463
 40
0.8864391636806178
 40
0.9103177071104812
 40
0.9590880392130784
 40
0.9840843179895384
 40
1.0
 40
1.0
 40
1.0
 40
1.0
 10
162.3787084513485
 20
92.47798383791856
 30
0.0
 10
162.3767917888597
 20
92.47768081945016
 30
0.0
 10
162.3689199228991
 20
92.47643630155473
 30
0.0
 10
162.389494330756
 20
92.47969738818009
 30
0.0
 10
162.4334525789218
 20
92.48661905134323
 30
0.0
 10
162.5148124859302
 20
92.49926522390763
 30
0.0
 10
162.6271161214188
 20
92.51612895065229
 30
0.0
 10
162.7621141956056
 20
92.53587807547905
 30
0.0
 10
162.9275109683619
 20
92.55900588137864
 30
0.0
 10
163.1235513548013
 20
92.58460823877961
 30
0.0
 10
163.3493396818671
 20
92.61256135725334
 30
0.0
 10
163.6077572468455
 20
92.64158754048756
 30
0.0
 10
163.8963204871584
 20
92.66990923351521
 30
0.0
 10
164.2199406904046
 20
92.69832390234919
 30
0.0
 10
164.5751072116024
 20
92.72335065579475
 30
0.0
 10
164.9525168154884
 20
92.74253790954815
 30
0.0
 10
165.357194791483
 20
92.75752297976612
 30
0.0
 10
165.7811741812835
 20
92.76377377737225
 30
0.0
 10
166.2082799980122
 20
92.76021682119358
 30
0.0
 10
166.5307438639903
 20
92.7525663528353
 30
0.0
 10
166.8523553933152
 20
92.74001231333241
 30
0.0
 10
167.1708606857538
 20
92.72275722312416
 30
0.0
 10
167.4775137429844
 20
92.70159821857871
 30
0.0
 10
167.7686633995465
 20
92.67748803268125
 30
0.0
 10
168.0440448923869
 20
92.65116632333863
 30
0.0
 10
168.3062077492955
 20
92.62293252385174
 30
0.0
 10
168.5287994230164
 20
92.59644683709934
 30
0.0
 10
168.7691347657746
 20
92.56576501447606
 30
0.0
 10
168.9618774451555
 20
92.5390807345912
 30
0.0
 10
169.1173671951898
 20
92.51638512112517
 30
0.0
 10
169.2469108397024
 20
92.49689595822429
 30
0.0
 10
169.3325634293685
 20
92.4834960073268
 30
0.0
 10
169.3700560515165
 20
92.47756116582573
 30
0.0
 10
169.3709700601779
 20
92.47741568470641
 30
0.0
 10
169.3713256303078
 20
92.47735908924658
 30
0.0
  0
LINE
  5
C3
330
1F
100
AcDbEntity
  8
0
  6
Continuous
 62
     7
370
    15
100
AcDbLine
 10
163.6597992353
 20
92.6461442267
 30
0.0
 11
163.5415664959
 21
92.6337445477
 31
0.0
  0
SPLINE
  5
C4
330
1F
100
AcDbEntity
  8
0
  6
Continuous
 62
     7
370
    15
100
AcDbSpline
210
0.0
220
0.0
230
1.0
 70
     8
 71
     3
 72
    58
 73
    54
 74
     0
 42
0.00000001
 43
0.00000001
 40
-0.0312500000000003
 40
-0.0312500000000003
 40
0.0
 40
0.0
 40
0.0624999999999993
 40
0.0624999999999993
 40
0.0937499999999989
 40
0.0937499999999989
 40
0.1249999999999986
 40
0.1249999999999986
 40
0.1874999999999988
 40
0.1874999999999988
 40
0.2499999999999991
 40
0.2499999999999991
 40
0.2812499999999988
 40
0.2812499999999988
 40
0.3124999999999984
 40
0.3124999999999984
 40
0.3437499999999982
 40
0.3437499999999982
 40
0.3749999999999978
 40
0.3749999999999978
 40
0.4062499999999976
 40
0.4062499999999976
 40
0.4374999999999973
 40
0.4374999999999973
 40
0.468749999999997
 40
0.468749999999997
 40
0.4999999999999968
 40
0.4999999999999968
 40
0.5624999999999963
 40
0.5624999999999963
 40
0.5937499999999964
 40
0.5937499999999964
 40
0.6249999999999967
 40
0.6249999999999967
 40
0.6562499999999969
 40
0.6562499999999969
 40
0.6874999999999971
 40
0.6874999999999971
 40
0.7499999999999976
 40
0.7499999999999976
 40
0.8124999999999981
 40
0.8124999999999981
 40
0.8437499999999984
 40
0.8437499999999984
 40
0.8749999999999988
 40
0.8749999999999988
 40
0.9062499999999991
 40
0.9062499999999991
 40
0.9374999999999993
 40
0.9374999999999993
 40
0.9687499999999997
 40
0.9687499999999997
 40
1.0
 40
1.0
 40
1.062499999999999
 40
1.062499999999999
 10
163.3719290167038
 20
110.5796980460485
 30
0.0
 10
163.8808414572765
 20
110.9723440179256
 30
0.0
 10
164.2588918180064
 20
111.165745314322
 30
0.0
 10
164.8704326026559
 20
111.3614564199643
 30
0.0
 10
165.0773330881518
 20
111.4091788011852
 30
0.0
 10
165.4969493861623
 20
111.4714323573397
 30
0.0
 10
165.7110761684274
 20
111.4859142889237
 30
0.0
 10
166.3527872698527
 20
111.4775860992568
 30
0.0
 10
166.772295751346
 20
111.4049829414301
 30
0.0
 10
167.5798740468389
 20
111.1228095178203
 30
0.0
 10
167.9507661270226
 20
110.9202356725437
 30
0.0
 10
168.447583480444
 20
110.5133868069245
 30
0.0
 10
168.5975337153623
 20
110.364649707204
 30
0.0
 10
168.8649422878322
 20
110.0397166372578
 30
0.0
 10
168.983101445736
 20
109.8623290006054
 30
0.0
 10
169.1782256590181
 20
109.4801972472963
 30
0.0
 10
169.2526004463801
 20
109.2810767470576
 30
0.0
 10
169.3520710215828
 20
108.8656446399701
 30
0.0
 10
169.3760657818816
 20
108.6496839291763
 30
0.0
 10
169.3693864904065
 20
108.2247094611198
 30
0.0
 10
169.3386464086751
 20
108.0096997310386
 30
0.0
 10
169.226497752167
 20
107.5973135966341
 30
0.0
 10
169.1461479402628
 20
107.400179270498
 30
0.0
 10
168.9396966107425
 20
107.022904990113
 30
0.0
 10
168.8169141686706
 20
106.8488681951607
 30
0.0
 10
168.5376632536844
 20
106.5275453211199
 30
0.0
 10
168.3800437452151
 20
106.3798038165682
 30
0.0
 10
167.876580581733
 20
105.9890743418196
 30
0.0
 10
167.4900543997587
 20
105.7901084602428
 30
0.0
 10
166.8835724219038
 20
105.5948826670443
 30
0.0
 10
166.6745042488755
 20
105.5460503039391
 30
0.0
 10
166.2505705433885
 20
105.4827592101494
 30
0.0
 10
166.0384173685883
 20
105.4684836615029
 30
0.0
 10
165.6137507590423
 20
105.4734660039069
 30
0.0
 10
165.3999766434689
 20
105.4929540398739
 30
0.0
 10
164.9777195839981
 20
105.5664744789617
 30
0.0
 10
164.7722496377956
 20
105.6197566618869
 30
0.0
 10
164.1726109605456
 20
105.828834207021
 30
0.0
 10
163.7903524446961
 20
106.0379927730077
 30
0.0
 10
163.1377686991434
 20
106.5724173748874
 30
0.0
 10
162.8564082860277
 20
106.9073926635801
 30
0.0
 10
162.566885299537
 20
107.4766244740239
 30
0.0
 10
162.4910222332886
 20
107.6809151609714
 30
0.0
 10
162.3931815611015
 20
108.0945074364474
 30
0.0
 10
162.369578737109
 20
108.3067321397435
 30
0.0
 10
162.3773156821278
 20
108.7384179416105
 30
0.0
 10
162.408324132722
 20
108.9492817886749
 30
0.0
 10
162.5213160057433
 20
109.3616738532241
 30
0.0
 10
162.6039704389778
 20
109.5625070687153
 30
0.0
 10
162.8094320045961
 20
109.9356720342165
 30
0.0
 10
162.9344398001879
 20
110.1123360355908
 30
0.0
 10
163.2155524704694
 20
110.4338374754817
 30
0.0
 10
163.3719290167038
 20
110.5796980460485
 30
0.0
 10
163.8808414572765
 20
110.9723440179256
 30
0.0
  0
LINE
  5
C5
330
1F
100
AcDbEntity
  8
0
  6
Continuous
 62
     7
370
    15
100
AcDbLine
 10
163.5415664956
 20
124.3204300982
 30
0.0
 11
163.7325449166
 21
124.3006981386
 31
0.0
  0
SPLINE
  5
C6
330
1F
100
AcDbEntity
  8
0
  6
Continuous
 62
     7
370
    15
100
AcDbSpline
210
0.0
220
0.0
230
1.0
 70
     8
 71
     3
 72
    37
 73
    33
 74
     0
 42
0.00000001
 43
0.00000001
 40
0.0
 40
0.0
 40
0.0
 40
0.0
 40
0.0251317373170024
 40
0.0473728807275349
 40
0.0677699174412435
 40
0.1091979698190494
 40
0.1302579031238007
 40
0.1519296485844863
 40
0.1958620350880867
 40
0.2181430073780064
 40
0.2428499203121999
 40
0.2929229362111062
 40
0.3183150073273736
 40
0.3466093306246783
 40
0.4040139222779755
 40
0.4331689483197386
 40
0.4640584902499739
 40
0.5268292558838277
 40
0.5587794483355757
 40
0.5905243101487503
 40
0.6224940480519972
 40
0.6551907413969574
 40
0.6881481156267658
 40
0.719046711190922
 40
0.7820971640480424
 40
0.8143938879246985
 40
0.8374106400369632
 40
0.8841630796393304
 40
0.907976464465109
 40
0.9309989822618236
 40
0.9779924738159284
 40
1.0
 40
1.0
 40
1.0
 40
1.0
 10
169.3634686394585
 20
124.4755710103788
 30
0.0
 10
169.3650595815599
 20
124.4758218488124
 30
0.0
 10
169.3680584793067
 20
124.4762946748271
 30
0.0
 10
169.3303698004755
 20
124.4703423885543
 30
0.0
 10
169.2659830146714
 20
124.4602943222856
 30
0.0
 10
169.1678688340326
 20
124.4452697554657
 30
0.0
 10
169.0388491814224
 20
124.4262908350069
 30
0.0
 10
168.8861685936276
 20
124.4045067345259
 30
0.0
 10
168.7027274807052
 20
124.379690878225
 30
0.0
 10
168.4885715698504
 20
124.3528945201688
 30
0.0
 10
168.2430557755954
 20
124.3240082626744
 30
0.0
 10
167.9646024963667
 20
124.2947634354422
 30
0.0
 10
167.6567474749748
 20
124.2671386054854
 30
0.0
 10
167.31405802841
 20
124.2401936432654
 30
0.0
 10
166.9412082384718
 20
124.2177797239507
 30
0.0
 10
166.5491809574492
 20
124.2022902986207
 30
0.0
 10
166.1335168188288
 20
124.1918300748488
 30
0.0
 10
165.7026631492371
 20
124.1908562914575
 30
0.0
 10
165.2734509259161
 20
124.1998613911721
 30
0.0
 10
164.9528169212031
 20
124.2115038737938
 30
0.0
 10
164.6361908688963
 20
124.2277608056899
 30
0.0
 10
164.3246636783376
 20
124.2483489039292
 30
0.0
 10
164.0282118746435
 20
124.272185992021
 30
0.0
 10
163.6572102078184
 20
124.3068724241368
 30
0.0
 10
163.3193188061428
 20
124.3447989379561
 30
0.0
 10
163.0450937886766
 20
124.3796167567591
 30
0.0
 10
162.8328170844417
 20
124.4081880150145
 30
0.0
 10
162.6687249343911
 20
124.4318061275467
 30
0.0
 10
162.5417954728076
 20
124.4508491664192
 30
0.0
 10
162.4415739360468
 20
124.4662385320235
 30
0.0
 10
162.3807980098992
 20
124.4758568057313
 30
0.0
 10
162.3756226523313
 20
124.4766777447801
 30
0.0
 10
162.3739719981682
 20
124.4769395791443
 30
0.0
  0
SPLINE
  5
C7
330
1F
100
AcDbEntity
  8
0
  6
Continuous
 62
     7
370
    15
100
AcDbSpline
210
0.0
220
0.0
230
1.0
 70
     8
 71
     3
 72
     9
 73
     5
 74
     0
 42
0.00000001
 43
0.00000001
 40
0.0
 40
0.0
 40
0.0
 40
0.0
 40
0.3464450194767547
 40
0.9999999999999999
 40
0.9999999999999999
 40
0.9999999999999999
 40
0.9999999999999999
 10
163.2909645940049
 20
124.3494734377924
 30
0.0
 10
163.3177796542884
 20
124.3461244535918
 30
0.0
 10
163.3951802771172
 20
124.3364577416683
 30
0.0
 10
163.483708460451
 20
124.3267649019189
 30
0.0
 10
163.5415664955855
 20
124.3204300982253
 30
0.0
  0
CIRCLE
  5
C8
330
1F
100
AcDbEntity
  8
0
  6
Continuous
 62
     7
370
    15
100
AcDbCircle
 10
165.873039602
 20
108.4770873229
 30
0.0
 40
2.5
  0
LINE
  5
C9
330
1F
100
AcDbEntity
  8
0
  6
Continuous
 62
     7
370
    15
100
AcDbLine
 10
195.923039602
 20
99.7512278445
 30
0.0
 11
195.923039602
 21
117.2029467396
 31
0.0
  0
LWPOLYLINE
  5
CA
330
1F
100
AcDbEntity
  8
0
  6
HIDDEN
 62
     7
370
     0
100
AcDbPolyline
 90
        7
 70
   128
 43
0.0
 10
195.8521317429
 20
112.2502820387
 10
195.8621511968
 20
112.2114824668
 10
195.8755780465
 20
112.3044738253
 10
195.8909572845
 20
112.5191790577
 10
195.9066223317
 20
112.8323315206
 10
195.9208756373
 20
113.2099962854
 10
195.923039602
 20
113.277618085
  0
ARC
  5
CB
330
1F
100
AcDbEntity
  8
0
  6
HIDDEN
 62
     7
370
     0
100
AcDbCircle
 10
216.9294421293
 20
112.8189047787
 30
0.0
 40
21.08497913077108
100
AcDbArc
 50
175.0519664768
 51
181.5453481515
  0
LWPOLYLINE
  5
CC
330
1F
100
AcDbEntity
  8
0
  6
HIDDEN
 62
     7
370
     0
100
AcDbPolyline
 90
       22
 70
   128
 43
0.0
 10
195.6807728481
 20
111.9839680579
 10
195.6917176602
 20
111.9337537627
 10
195.7062215513
 20
112.0166784264
 10
195.7229957869
 20
112.2253738286
 10
195.7405499026
 20
112.5412964671
 10
195.7573241383
 20
112.9363752289
 10
195.7718280293
 20
113.3755056324
 10
195.7827728415
 20
113.8196690141
 10
195.7891860801
 20
114.2293995083
 10
195.7904979008
 20
114.5682907626
 10
195.7865917426
 20
114.8062308018
 10
195.7778146847
 20
114.9220776092
 10
195.7649466073
 20
114.9055376877
 10
195.7491308955
 20
114.7580806818
 10
195.7317728448
 20
114.4928087937
 10
195.714414794
 20
114.1332925946
 10
195.6985990822
 20
113.7114766766
 10
195.6857310048
 20
113.2648412352
 10
195.676953947
 20
112.8330717893
 10
195.6730477887
 20
112.454532949
 10
195.6743596094
 20
112.1628595514
 10
195.6807728481
 20
111.9839680579
  0
LWPOLYLINE
  5
CD
330
1F
100
AcDbEntity
  8
0
  6
HIDDEN
 62
     7
370
     0
100
AcDbPolyline
 90
       22
 70
   128
 43
0.0
 10
190.3468350442
 20
112.132157124
 10
190.3577798563
 20
112.0819428288
 10
190.3722837474
 20
112.1648674925
 10
190.389057983
 20
112.3735628947
 10
190.4066120987
 20
112.6894855332
 10
190.4233863344
 20
113.0845642951
 10
190.4378902254
 20
113.5236946985
 10
190.4488350376
 20
113.9678580802
 10
190.4552482762
 20
114.3775885744
 10
190.4565600969
 20
114.7164798287
 10
190.4526539387
 20
114.9544198679
 10
190.4438768808
 20
115.0702666753
 10
190.4310088034
 20
115.0537267538
 10
190.4151930916
 20
114.9062697479
 10
190.3978350409
 20
114.6409978598
 10
190.3804769901
 20
114.2814816607
 10
190.3646612783
 20
113.8596657427
 10
190.3517932009
 20
113.4130303013
 10
190.3430161431
 20
112.9812608554
 10
190.3391099848
 20
112.6027220151
 10
190.3404218056
 20
112.3110486175
 10
190.3468350442
 20
112.132157124
  0
LWPOLYLINE
  5
CE
330
1F
100
AcDbEntity
  8
0
  6
HIDDEN
 62
     7
370
     0
100
AcDbPolyline
 90
       18
 70
   128
 43
0.0
 10
189.864220525
 20
112.6287644196
 10
189.8736076096
 20
112.600364667
 10
189.8863188046
 20
112.7061903316
 10
189.9006373926
 20
112.9319490709
 10
189.9146295689
 20
113.2471509163
 10
189.9264056126
 20
113.6092261119
 10
189.9343751037
 20
113.9692743963
 10
189.9374617184
 20
114.2786692535
 10
189.9352485921
 20
114.4956251936
 10
189.9280346199
 20
114.5908411148
 10
189.9167940886
 20
114.5514575793
 10
189.9030450944
 20
114.3827935518
 10
189.888644515
 20
114.1076280438
 10
189.8755372286
 20
113.7631236818
 10
189.8654934467
 20
113.395807689
 10
189.8598696378
 20
113.0552881256
 10
189.8594253284
 20
112.7875540454
 10
189.864220525
 20
112.6287644196
  0
LINE
  5
CF
330
1F
100
AcDbEntity
  8
0
  6
HIDDEN
 62
     7
370
     0
100
AcDbLine
 10
195.8935947402
 20
114.0400252729
 30
0.0
 11
195.923039602
 21
114.2637602757
 31
0.0
  0
LINE
  5
D0
330
1F
100
AcDbEntity
  8
0
  6
HIDDEN
 62
     7
370
     0
100
AcDbLine
 10
195.8641498784
 20
113.2039178345
 30
0.0
 11
195.8935947402
 21
114.0400252729
 31
0.0
  0
LINE
  5
D1
330
1F
100
AcDbEntity
  8
0
  6
HIDDEN
 62
     7
370
     0
100
AcDbLine
 10
195.8641498784
 20
113.2039178345
 30
0.0
 11
195.8641498784
 21
112.5915453988
 31
0.0
  0
LINE
  5
D2
330
1F
100
AcDbEntity
  8
0
  6
HIDDEN
 62
     7
370
     0
100
AcDbLine
 10
195.8935947402
 20
112.8152804016
 30
0.0
 11
195.8641498784
 21
112.5915453988
 31
0.0
  0
LINE
  5
D3
330
1F
100
AcDbEntity
  8
0
  6
HIDDEN
 62
     7
370
     0
100
AcDbLine
 10
195.8935947402
 20
112.8152804016
 30
0.0
 11
195.923039602
 21
113.65138784
 31
0.0
  0
LINE
  5
D4
330
1F
100
AcDbEntity
  8
0
  6
HIDDEN
 62
     7
370
     0
100
AcDbLine
 10
193.8656918059
 20
113.2594395984
 30
0.0
 11
193.8951366677
 21
114.0955470368
 31
0.0
  0
LINE
  5
D5
330
1F
100
AcDbEntity
  8
0
  6
HIDDEN
 62
     7
370
     0
100
AcDbLine
 10
193.8951366677
 20
114.0955470368
 30
0.0
 11
193.9245815295
 21
114.3192820396
 31
0.0
  0
LINE
  5
D6
330
1F
100
AcDbEntity
  8
0
  6
HIDDEN
 62
     7
370
     0
100
AcDbLine
 10
193.9245815295
 20
113.7069096039
 30
0.0
 11
193.9245815295
 21
114.3192820396
 31
0.0
  0
LINE
  5
D7
330
1F
100
AcDbEntity
  8
0
  6
HIDDEN
 62
     7
370
     0
100
AcDbLine
 10
193.8951366677
 20
112.8708021655
 30
0.0
 11
193.9245815295
 21
113.7069096039
 31
0.0
  0
LINE
  5
D8
330
1F
100
AcDbEntity
  8
0
  6
HIDDEN
 62
     7
370
     0
100
AcDbLine
 10
193.8951366677
 20
112.8708021655
 30
0.0
 11
193.8656918059
 21
112.6470671627
 31
0.0
  0
LINE
  5
D9
330
1F
100
AcDbEntity
  8
0
  6
HIDDEN
 62
     7
370
     0
100
AcDbLine
 10
193.8656918059
 20
113.2594395984
 30
0.0
 11
193.8656918059
 21
112.6470671627
 31
0.0
  0
LINE
  5
DA
330
1F
100
AcDbEntity
  8
0
  6
HIDDEN
 62
     7
370
     0
100
AcDbLine
 10
193.8656918059
 20
113.2594395984
 30
0.0
 11
195.8641498784
 21
113.2039178345
 31
0.0
  0
LINE
  5
DB
330
1F
100
AcDbEntity
  8
0
  6
HIDDEN
 62
     7
370
     0
100
AcDbLine
 10
193.8951366677
 20
114.0955470368
 30
0.0
 11
195.8935947402
 21
114.0400252729
 31
0.0
  0
LINE
  5
DC
330
1F
100
AcDbEntity
  8
0
  6
HIDDEN
 62
     7
370
     0
100
AcDbLine
 10
193.8951366677
 20
112.8708021655
 30
0.0
 11
195.8935947402
 21
112.8152804016
 31
0.0
  0
LINE
  5
DD
330
1F
100
AcDbEntity
  8
0
  6
HIDDEN
 62
     7
370
     0
100
AcDbLine
 10
193.8656918059
 20
112.6470671627
 30
0.0
 11
195.8641498784
 21
112.5915453988
 31
0.0
  0
LINE
  5
DE
330
1F
100
AcDbEntity
  8
0
  6
HIDDEN
 62
     7
370
     0
100
AcDbLine
 10
193.9245815295
 20
113.7069096039
 30
0.0
 11
195.923039602
 21
113.65138784
 31
0.0
  0
LINE
  5
DF
330
1F
100
AcDbEntity
  8
0
  6
HIDDEN
 62
     7
370
     0
100
AcDbLine
 10
193.9245815295
 20
114.3192820396
 30
0.0
 11
195.923039602
 21
114.2637602757
 31
0.0
  0
LWPOLYLINE
  5
E0
330
1F
100
AcDbEntity
  8
0
  6
HIDDEN
 62
     7
370
     0
100
AcDbPolyline
 90
       22
 70
   128
 43
0.0
 10
190.4057247678
 20
103.7629934421
 10
190.3993115292
 20
104.1727239363
 10
190.3979997085
 20
104.5116151906
 10
190.4019058667
 20
104.7495552298
 10
190.4106829246
 20
104.8654020373
 10
190.423551002
 20
104.8488621157
 10
190.4393667137
 20
104.7014051099
 10
190.4567247645
 20
104.4361332217
 10
190.4740828153
 20
104.0766170226
 10
190.4898985271
 20
103.6548011047
 10
190.5027666044
 20
103.2081656632
 10
190.5115436623
 20
102.7763962173
 10
190.5154498205
 20
102.397857377
 10
190.5141379998
 20
102.1061839794
 10
190.5077247612
 20
101.9272924859
 10
190.4967799491
 20
101.8770781908
 10
190.482276058
 20
101.9600028544
 10
190.4655018224
 20
102.1686982567
 10
190.4479477066
 20
102.4846208951
 10
190.431173471
 20
102.879699657
 10
190.41666958
 20
103.3188300605
 10
190.4057247678
 20
103.7629934421
  0
LWPOLYLINE
  5
E1
330
1F
100
AcDbEntity
  8
0
  6
HIDDEN
 62
     7
370
     0
100
AcDbPolyline
 90
       18
 70
   128
 43
0.0
 10
189.9231102486
 20
103.6199395371
 10
189.918315052
 20
103.9513281338
 10
189.9187593614
 20
104.20306968
 10
189.9243831703
 20
104.341165085
 10
189.9344269522
 20
104.3469637991
 10
189.9475342387
 20
104.2196826738
 10
189.961934818
 20
103.9765117305
 10
189.9756838123
 20
103.6502925523
 10
189.9869243435
 20
103.2850828471
 10
189.9941383157
 20
102.9302062092
 10
189.996351442
 20
102.633590695
 10
189.9932648274
 20
102.4352958732
 10
189.9852953362
 20
102.3621025584
 10
189.9735192925
 20
102.4238959132
 10
189.9595271162
 20
102.6123304028
 10
189.9452085283
 20
102.9019569051
 10
189.9324973333
 20
103.2536597562
 10
189.9231102486
 20
103.6199395371
  0
LWPOLYLINE
  5
E2
330
1F
100
AcDbEntity
  8
0
  6
HIDDEN
 62
     7
370
     0
100
AcDbPolyline
 90
       22
 70
   128
 43
0.0
 10
195.7396625717
 20
103.9111825082
 10
195.7332493331
 20
104.3209130024
 10
195.7319375124
 20
104.6598042567
 10
195.7358436706
 20
104.8977442959
 10
195.7446207285
 20
105.0135911034
 10
195.7574888059
 20
104.9970511818
 10
195.7733045176
 20
104.849594176
 10
195.7906625684
 20
104.5843222878
 10
195.8080206192
 20
104.2248060887
 10
195.8238363309
 20
103.8029901708
 10
195.8367044083
 20
103.3563547294
 10
195.8454814662
 20
102.9245852834
 10
195.8493876244
 20
102.5460464431
 10
195.8480758037
 20
102.2543730455
 10
195.8416625651
 20
102.075481552
 10
195.830717753
 20
102.0252672569
 10
195.8162138619
 20
102.1081919205
 10
195.7994396263
 20
102.3168873228
 10
195.7818855105
 20
102.6328099612
 10
195.7651112749
 20
103.0278887231
 10
195.7506073839
 20
103.4670191266
 10
195.7396625717
 20
103.9111825082
  0
LWPOLYLINE
  5
E3
330
1F
100
AcDbEntity
  8
0
  6
HIDDEN
 62
     7
370
     0
100
AcDbPolyline
 90
        6
 70
   128
 43
0.0
 10
195.9110214665
 20
103.8432119795
 10
195.9054951718
 20
104.2085121659
 10
195.9050608959
 20
104.5000854109
 10
195.9097656995
 20
104.6863352292
 10
195.9190997441
 20
104.7470785629
 10
195.923039602
 20
104.7380350941
  0
ARC
  5
E4
330
1F
100
AcDbEntity
  8
0
  6
HIDDEN
 62
     7
370
     0
100
AcDbCircle
 10
208.3997993649
 20
103.7017513547
 30
0.0
 40
12.4895790363151
100
AcDbArc
 50
179.3510373691
 51
186.3952301452
  0
LINE
  5
E5
330
1F
100
AcDbEntity
  8
0
  6
HIDDEN
 62
     7
370
     0
100
AcDbLine
 10
195.9524844638
 20
104.1405303363
 30
0.0
 11
195.9819293257
 21
103.3044228979
 31
0.0
  0
LINE
  5
E6
330
1F
100
AcDbEntity
  8
0
  6
HIDDEN
 62
     7
370
     0
100
AcDbLine
 10
193.9540263914
 20
104.0850085724
 30
0.0
 11
193.9834712532
 21
103.248901134
 31
0.0
  0
LINE
  5
E7
330
1F
100
AcDbEntity
  8
0
  6
HIDDEN
 62
     7
370
     0
100
AcDbLine
 10
193.9834712532
 20
102.6365286983
 30
0.0
 11
193.9834712532
 21
103.248901134
 31
0.0
  0
LINE
  5
E8
330
1F
100
AcDbEntity
  8
0
  6
HIDDEN
 62
     7
370
     0
100
AcDbLine
 10
193.9834712532
 20
103.248901134
 30
0.0
 11
195.9819293257
 21
103.3044228979
 31
0.0
  0
LINE
  5
E9
330
1F
100
AcDbEntity
  8
0
  6
HIDDEN
 62
     7
370
     0
100
AcDbLine
 10
195.9819293257
 20
102.6920504622
 30
0.0
 11
195.9819293257
 21
103.3044228979
 31
0.0
  0
LINE
  5
EA
330
1F
100
AcDbEntity
  8
0
  6
HIDDEN
 62
     7
370
     0
100
AcDbLine
 10
193.9245815295
 20
104.3087435752
 30
0.0
 11
193.9540263914
 21
104.0850085724
 31
0.0
  0
LINE
  5
EB
330
1F
100
AcDbEntity
  8
0
  6
HIDDEN
 62
     7
370
     0
100
AcDbLine
 10
193.9540263914
 20
104.0850085724
 30
0.0
 11
195.9524844638
 21
104.1405303363
 31
0.0
  0
LINE
  5
EC
330
1F
100
AcDbEntity
  8
0
  6
HIDDEN
 62
     7
370
     0
100
AcDbLine
 10
195.923039602
 20
104.3642653391
 30
0.0
 11
195.9524844638
 21
104.1405303363
 31
0.0
  0
LINE
  5
ED
330
1F
100
AcDbEntity
  8
0
  6
HIDDEN
 62
     7
370
     0
100
AcDbLine
 10
193.9540263914
 20
102.860263701
 30
0.0
 11
195.9524844638
 21
102.9157854649
 31
0.0
  0
LINE
  5
EE
330
1F
100
AcDbEntity
  8
0
  6
HIDDEN
 62
     7
370
     0
100
AcDbLine
 10
193.9834712532
 20
102.6365286983
 30
0.0
 11
195.9819293257
 21
102.6920504622
 31
0.0
  0
LINE
  5
EF
330
1F
100
AcDbEntity
  8
0
  6
HIDDEN
 62
     7
370
     0
100
AcDbLine
 10
193.9540263914
 20
102.860263701
 30
0.0
 11
193.9834712532
 21
102.6365286983
 31
0.0
  0
LINE
  5
F0
330
1F
100
AcDbEntity
  8
0
  6
HIDDEN
 62
     7
370
     0
100
AcDbLine
 10
195.9524844638
 20
102.9157854649
 30
0.0
 11
195.9819293257
 21
102.6920504622
 31
0.0
  0
LINE
  5
F1
330
1F
100
AcDbEntity
  8
0
  6
HIDDEN
 62
     7
370
     0
100
AcDbLine
 10
193.9245815295
 20
103.6963711395
 30
0.0
 11
195.923039602
 21
103.7518929034
 31
0.0
  0
LINE
  5
F2
330
1F
100
AcDbEntity
  8
0
  6
HIDDEN
 62
     7
370
     0
100
AcDbLine
 10
193.9245815295
 20
104.3087435752
 30
0.0
 11
195.923039602
 21
104.3642653391
 31
0.0
  0
LINE
  5
F3
330
1F
100
AcDbEntity
  8
0
  6
HIDDEN
 62
     7
370
     0
100
AcDbLine
 10
193.9245815295
 20
104.3087435752
 30
0.0
 11
193.9245815295
 21
103.6963711395
 31
0.0
  0
LINE
  5
F4
330
1F
100
AcDbEntity
  8
0
  6
HIDDEN
 62
     7
370
     0
100
AcDbLine
 10
193.9540263914
 20
102.860263701
 30
0.0
 11
193.9245815295
 21
103.6963711395
 31
0.0
  0
LINE
  5
F5
330
1F
100
AcDbEntity
  8
0
  6
HIDDEN
 62
     7
370
     0
100
AcDbLine
 10
195.9524844638
 20
102.9157854649
 30
0.0
 11
195.923039602
 21
103.7518929034
 31
0.0
  0
CIRCLE
  5
F6
330
1F
100
AcDbEntity
  8
0
  6
HIDDEN
 62
     7
370
     0
100
AcDbCircle
 10
178.423039602
 20
108.4770873229
 30
0.0
 40
3.999999999999998
  0
CIRCLE
  5
F7
330
1F
100
AcDbEntity
  8
0
  6
HIDDEN
 62
     7
370
     0
100
AcDbCircle
 10
178.423039602
 20
108.4770873229
 30
0.0
 40
1.849999999999989
  0
CIRCLE
  5
F8
330
1F
100
AcDbEntity
  8
0
  6
HIDDEN
 62
     7
370
     0
100
AcDbCircle
 10
178.423039602
 20
108.4770873229
 30
0.0
 40
2.749999999999988
  0
LINE
  5
F9
330
1F
100
AcDbEntity
  8
0
  6
HIDDEN
 62
     7
370
     0
100
AcDbLine
 10
145.5311067705
 20
132.9357769853
 30
0.0
 11
145.5311067705
 21
128.3270873229
 31
0.0
  0
ARC
  5
FA
330
1F
100
AcDbEntity
  8
0
  6
HIDDEN
 62
     7
370
     0
100
AcDbCircle
 10
139.2013926206
 20
120.9727109526
 30
0.0
 40
3.676262162620707
100
AcDbArc
 50
265.6576189176
 51
13.3157409697
  0
ARC
  5
FB
330
1F
100
AcDbEntity
  8
0
  6
HIDDEN
 62
     7
370
     0
100
AcDbCircle
 10
138.6466935846
 20
120.9778141636
 30
0.0
 40
3.681199535862931
100
AcDbArc
 50
167.7130218345
 51
274.3052188794
  0
LINE
  5
FC
330
1F
100
AcDbEntity
  8
0
  6
HIDDEN
 62
     7
370
     0
100
AcDbLine
 10
118.9181898066
 20
84.9524877001
 30
0.0
 11
118.6693249878
 21
84.9292247336
 31
0.0
  0
LINE
  5
FD
330
1F
100
AcDbEntity
  8
0
  6
HIDDEN
 62
     7
370
     0
100
AcDbLine
 10
118.5367642266
 20
132.0371736511
 30
0.0
 11
118.9180970863
 21
132.0016703529
 31
0.0
  0
SPLINE
  5
FE
330
1F
100
AcDbEntity
  8
0
  6
HIDDEN
 62
     7
370
     0
100
AcDbSpline
210
0.0
220
0.0
230
1.0
 70
     8
 71
     3
 72
    15
 73
    11
 74
     0
 42
0.00000001
 43
0.00000001
 40
0.0
 40
0.0
 40
0.0
 40
0.0
 40
0.1100669265844109
 40
0.2209080093748098
 40
0.3341769740432297
 40
0.4482804587670595
 40
0.5583703476739169
 40
0.782256927793904
 40
0.8963142562282154
 40
1.0
 40
1.0
 40
1.0
 40
1.0
 10
124.6780416036184
 20
128.3146157987398
 30
0.0
 10
124.7456355899373
 20
128.323684052822
 30
0.0
 10
124.8812989851712
 20
128.341884342591
 30
0.0
 10
125.0617444119596
 20
128.3626053980559
 30
0.0
 10
125.2238931781464
 20
128.3793450828632
 30
0.0
 10
125.3619443559481
 20
128.3919271967569
 30
0.0
 10
125.5135849172948
 20
128.4043059865764
 30
0.0
 10
125.6150315386083
 20
128.4112633343244
 30
0.0
 10
125.6664489969073
 20
128.4145602147222
 30
0.0
 10
125.6704038994243
 20
128.4148055233449
 30
0.0
 10
125.6722871603008
 20
128.4149223353598
 30
0.0
  0
SPLINE
  5
FF
330
1F
100
AcDbEntity
  8
0
  6
HIDDEN
 62
     7
370
     0
100
AcDbSpline
210
0.0
220
0.0
230
1.0
 70
     8
 71
     3
 72
    17
 73
    13
 74
     0
 42
0.00000001
 43
0.00000001
 40
0.0
 40
0.0
 40
0.0
 40
0.0
 40
0.0069104784360877
 40
0.1182598694300162
 40
0.2320234272857161
 40
0.346621757310442
 40
0.4573470738479732
 40
0.5688448935886143
 40
0.6827869484776861
 40
0.7975786778457963
 40
0.8984916967518345
 40
1.0
 40
1.0
 40
1.0
 40
1.0
 10
125.6722914270469
 20
88.53925204094641
 30
0.0
 10
125.6725389068678
 20
88.53923641228099
 30
0.0
 10
125.6767740595533
 20
88.53896895700267
 30
0.0
 10
125.6608513324261
 20
88.53996600572711
 30
0.0
 10
125.6218398196843
 20
88.54248228335662
 30
0.0
 10
125.5533865138973
 20
88.5471799666433
 30
0.0
 10
125.460634847279
 20
88.55412981421411
 30
0.0
 10
125.343343194737
 20
88.56385930388738
 30
0.0
 10
125.2005065748441
 20
88.57710630941074
 30
0.0
 10
125.0389571785197
 20
88.59409339828844
 30
0.0
 10
124.8651538390625
 20
88.61438603865537
 30
0.0
 10
124.740534509704
 20
88.6311514762541
 30
0.0
 10
124.6780416036184
 20
88.63955884710691
 30
0.0
  0
SPLINE
  5
100
330
1F
100
AcDbEntity
  8
0
  6
HIDDEN
 62
     7
370
     0
100
AcDbSpline
210
0.0
220
0.0
230
1.0
 70
     8
 71
     3
 72
    32
 73
    28
 74
     0
 42
0.00000001
 43
0.00000001
 40
0.0
 40
0.0
 40
0.0
 40
0.0
 40
0.0346246159901393
 40
0.0694870388940023
 40
0.105100760954932
 40
0.1409753874086758
 40
0.1756005721189328
 40
0.210469240812561
 40
0.2461122854708169
 40
0.2820258067991321
 40
0.3162663828049037
 40
0.3859338563640312
 40
0.4214461814158482
 40
0.4553763558770598
 40
0.5243713305904967
 40
0.5595124638219118
 40
0.593798734303577
 40
0.6635059787021123
 40
0.6990055363805018
 40
0.7337623601246063
 40
0.7687606633024604
 40
0.8045245907686109
 40
0.8405553812432468
 40
0.875170121130555
 40
0.9456085132854553
 40
0.9815233266320907
 40
1.0
 40
1.0
 40
1.0
 40
1.0
 10
124.6780416036184
 20
88.63955884710691
 30
0.0
 10
124.606043301772
 20
88.64934679001524
 30
0.0
 10
124.4615522032388
 20
88.66898990085166
 30
0.0
 10
124.2202322689803
 20
88.69843911947338
 30
0.0
 10
123.9609340179947
 20
88.72698950156379
 30
0.0
 10
123.6869465988621
 20
88.75342072051863
 30
0.0
 10
123.4023188178405
 20
88.77687319786993
 30
0.0
 10
123.1077338588724
 20
88.79687065432853
 30
0.0
 10
122.8008029499041
 20
88.81302633283228
 30
0.0
 10
122.4890714841516
 20
88.82446832052779
 30
0.0
 10
122.0718059354662
 20
88.83315944822562
 30
0.0
 10
121.6511629421086
 20
88.83187139176543
 30
0.0
 10
121.2377593889432
 20
88.82064358039796
 30
0.0
 10
120.8329154258759
 20
88.8033453083171
 30
0.0
 10
120.4422773413137
 20
88.77762966454885
 30
0.0
 10
120.0734962632724
 20
88.74553635365196
 30
0.0
 10
119.720078481024
 20
88.7099781451495
 30
0.0
 10
119.3946373907031
 20
88.6707296888139
 30
0.0
 10
119.1052601849858
 20
88.63109817144158
 30
0.0
 10
118.9073463080105
 20
88.60196242829932
 30
0.0
 10
118.730019343973
 20
88.57422819598658
 30
0.0
 10
118.5734100154605
 20
88.5484476517322
 30
0.0
 10
118.4417624957577
 20
88.52584101499801
 30
0.0
 10
118.299901300186
 20
88.50065496969137
 30
0.0
 10
118.2110827123704
 20
88.48420942056775
 30
0.0
 10
118.17425977382
 20
88.47731658975157
 30
0.0
 10
118.1756759209932
 20
88.47758157566076
 30
0.0
 10
118.1761569832024
 20
88.47767159081548
 30
0.0
  0
SPLINE
  5
101
330
1F
100
AcDbEntity
  8
0
  6
HIDDEN
 62
     7
370
     0
100
AcDbSpline
210
0.0
220
0.0
230
1.0
 70
     8
 71
     3
 72
    30
 73
    26
 74
     0
 42
0.00000001
 43
0.00000001
 40
0.0
 40
0.0
 40
0.0
 40
0.0
 40
0.0156161600804337
 40
0.0849748372628082
 40
0.1203204532886746
 40
0.15431851909124
 40
0.2234436946574013
 40
0.2586467089786606
 40
0.2931107206687011
 40
0.3631864361325603
 40
0.3988795186727328
 40
0.4336750628309723
 40
0.4687145712104809
 40
0.5045294144990544
 40
0.5406151111978532
 40
0.5750767863722916
 40
0.6452033649630275
 40
0.6809575734718859
 40
0.7149323277721685
 40
0.784033058295527
 40
0.8192378401372485
 40
0.8533347063218409
 40
0.9226550151093995
 40
0.9579547149334489
 40
1.0
 40
1.0
 40
1.0
 40
1.0
 10
118.1761569832024
 20
128.4765030550313
 30
0.0
 10
118.1755592441173
 20
128.476615307913
 30
0.0
 10
118.1723066659406
 20
128.4772261283902
 30
0.0
 10
118.222627568389
 20
128.4677669939331
 30
0.0
 10
118.3229325974303
 20
128.449462157837
 30
0.0
 10
118.4575495854999
 20
128.4254788524632
 30
0.0
 10
118.63960823053
 20
128.3943800583167
 30
0.0
 10
118.8665308041953
 20
128.3584609142744
 30
0.0
 10
119.1231172095727
 20
128.3201418931353
 30
0.0
 10
119.4211538680454
 20
128.2798967578271
 30
0.0
 10
119.7537031220451
 20
128.2412357344247
 30
0.0
 10
120.0189008274494
 20
128.2138330756935
 30
0.0
 10
120.2979586527083
 20
128.1887882390814
 30
0.0
 10
120.5924096686025
 20
128.1666205417858
 30
0.0
 10
120.8952746019187
 20
128.1484584545158
 30
0.0
 10
121.3056605887875
 20
128.1302003495214
 30
0.0
 10
121.7265014277423
 20
128.121353115517
 30
0.0
 10
122.1464053449712
 20
128.1228185099582
 30
0.0
 10
122.5610198658249
 20
128.1308619031255
 30
0.0
 10
122.9672409853008
 20
128.1483686887247
 30
0.0
 10
123.3567714850227
 20
128.1739340017526
 30
0.0
 10
123.7335921862611
 20
128.2041182374668
 30
0.0
 10
124.0867293459651
 20
128.2400158123142
 30
0.0
 10
124.4284808337867
 20
128.2808340901728
 30
0.0
 10
124.5901545947962
 20
128.3027190037393
 30
0.0
 10
124.6780416036184
 20
128.3146157987398
 30
0.0
  0
LINE
  5
102
330
1F
100
AcDbEntity
  8
0
  6
HIDDEN
 62
     7
370
     0
100
AcDbLine
 10
111.9270141982
 20
91.4770873229
 30
0.0
 11
111.9270141982
 21
125.4770873229
 31
0.0
  0
LWPOLYLINE
  5
103
330
1F
100
AcDbEntity
  8
0
  6
HIDDEN
 62
     7
370
     0
100
AcDbPolyline
 90
       29
 70
   128
 43
0.0
 10
141.3116129883
 20
134.0269588218
 10
141.6178221766
 20
133.900707572
 10
142.1151085111
 20
133.6279590103
 10
142.5036927674
 20
133.3141664491
 10
142.7703421747
 20
132.9700157177
 10
142.9059763072
 20
132.6072264565
 10
142.9059763072
 20
132.2381530186
 10
142.7703421747
 20
131.8753637574
 10
142.5036927674
 20
131.531213026
 10
142.1151085111
 20
131.2174204648
 10
141.6178221766
 20
130.9446719031
 10
141.0287682535
 20
130.7222554661
 10
140.3680062668
 20
130.5577452788
 10
139.6580376733
 20
130.4567435382
 10
138.923039602
 20
130.4226897376
 10
138.1880415308
 20
130.4567435382
 10
137.4780729373
 20
130.5577452788
 10
136.8173109505
 20
130.7222554661
 10
136.2282570274
 20
130.9446719031
 10
135.7309706929
 20
131.2174204648
 10
135.3423864366
 20
131.531213026
 10
135.0757370293
 20
131.8753637574
 10
134.9401028968
 20
132.2381530186
 10
134.9401028968
 20
132.6072264565
 10
135.0757370293
 20
132.9700157177
 10
135.3423864366
 20
133.3141664491
 10
135.7309706929
 20
133.6279590103
 10
136.2282570274
 20
133.900707572
 10
136.5343788026
 20
134.0269262838
  0
SPLINE
  5
104
330
1F
100
AcDbEntity
  8
0
  6
HIDDEN
 62
     7
370
     0
100
AcDbSpline
210
0.0
220
0.0
230
1.0
 70
     8
 71
     3
 72
    11
 73
     7
 74
     0
 42
0.00000001
 43
0.00000001
 40
0.0
 40
0.0
 40
0.0
 40
0.0
 40
0.0005779865010845
 40
0.0005779865010845
 40
0.0005779865010845
 40
0.0011559733324421
 40
0.0011559733324421
 40
0.0011559733324421
 40
0.0011559733324421
 10
99.02303960201681
 20
110.4769279310772
 30
0.0
 10
99.18970685682277
 20
110.4749442917362
 30
0.0
 10
99.35637328650043
 20
110.4729066847336
 30
0.0
 10
99.52303962495225
 20
110.4707952213272
 30
0.0
 10
99.68970605377865
 20
110.4686837567758
 30
0.0
 10
99.85637242741635
 20
110.4664981936195
 30
0.0
 10
100.0230396020168
 20
110.4642156162879
 30
0.0
  0
SPLINE
  5
105
330
1F
100
AcDbEntity
  8
0
  6
HIDDEN
 62
     7
370
     0
100
AcDbSpline
210
0.0
220
0.0
230
1.0
 70
     8
 71
     3
 72
     8
 73
     4
 74
     0
 42
0.00000001
 43
0.00000001
 40
0.0
 40
0.0
 40
0.0
 40
0.0
 40
0.0011564765856722
 40
0.0011564765856722
 40
0.0011564765856722
 40
0.0011564765856722
 10
100.0230396020168
 20
106.4803870207071
 30
0.0
 10
99.68973167144794
 20
106.4795118651238
 30
0.0
 10
99.35639643905574
 20
106.4784570138723
 30
0.0
 10
99.0230396020168
 20
106.4772859268348
 30
0.0
  0
LINE
  5
106
330
1F
100
AcDbEntity
  8
0
  6
HIDDEN
 62
     7
370
     0
100
AcDbLine
 10
138.5828655706
 20
91.4770873229
 30
0.0
 11
138.5828655706
 21
125.4770873229
 31
0.0
  0
LINE
  5
107
330
1F
100
AcDbEntity
  8
0
  6
HIDDEN
 62
     7
370
     0
100
AcDbLine
 10
140.873039602
 20
92.7520873229
 30
0.0
 11
140.873039602
 21
124.2020873064
 31
0.0
  0
SPLINE
  5
108
330
1F
100
AcDbEntity
  8
0
  6
HIDDEN
 62
     7
370
     0
100
AcDbSpline
210
0.0
220
0.0
230
1.0
 70
     8
 71
     3
 72
    16
 73
    12
 74
     0
 42
0.00000001
 43
0.00000001
 40
0.0
 40
0.0
 40
0.0
 40
0.0
 40
0.124999999999998
 40
0.124999999999998
 40
0.249999999999996
 40
0.249999999999996
 40
0.4999999999999973
 40
0.4999999999999973
 40
0.7499999999999987
 40
0.7499999999999987
 40
1.0
 40
1.0
 40
1.0
 40
1.0
 10
107.7230396020168
 20
92.67559688689171
 30
0.0
 10
107.8181613566826
 20
92.67559688689171
 30
0.0
 10
107.9114914254107
 20
92.6717810534989
 30
0.0
 10
108.0947531861487
 20
92.6570105007691
 30
0.0
 10
108.1856309017057
 20
92.64585245279352
 30
0.0
 10
108.4424325992254
 20
92.6033811826518
 30
0.0
 10
108.5974999640974
 20
92.562334985449
 30
0.0
 10
108.8512464256521
 20
92.46718886886711
 30
0.0
 10
108.9521168773199
 20
92.41242613478553
 30
0.0
 10
109.0873632920148
 20
92.30116501088165
 30
0.0
 10
109.1230396020168
 20
92.24399527355297
 30
0.0
 10
109.1230396020168
 20
92.18957370051925
 30
0.0
  0
SPLINE
  5
109
330
1F
100
AcDbEntity
  8
0
  6
HIDDEN
 62
     7
370
     0
100
AcDbSpline
210
0.0
220
0.0
230
1.0
 70
     8
 71
     3
 72
     8
 73
     4
 74
     0
 42
0.00000001
 43
0.00000001
 40
0.0
 40
0.0
 40
0.0
 40
0.0
 40
1.0
 40
1.0
 40
1.0
 40
1.0
 10
100.323039605332
 20
94.82039983297395
 30
0.0
 10
100.3230396053339
 20
93.93650269065702
 30
0.0
 10
100.3095589794241
 20
93.22191944559508
 30
0.0
 10
100.3082076112348
 20
92.67559688689171
 30
0.0
  0
SPLINE
  5
10A
330
1F
100
AcDbEntity
  8
0
  6
HIDDEN
 62
     7
370
     0
100
AcDbSpline
210
0.0
220
0.0
230
1.0
 70
     8
 71
     3
 72
    10
 73
     6
 74
     0
 42
0.00000001
 43
0.00000001
 40
0.0
 40
0.0
 40
0.0
 40
0.0
 40
0.5
 40
0.5
 40
1.0
 40
1.0
 40
1.0
 40
1.0
 10
100.0230396020168
 20
95.84531009867715
 30
0.0
 10
100.1144307177097
 20
95.67067131105973
 30
0.0
 10
100.1870825514427
 20
95.49706948380415
 30
0.0
 10
100.2945814444509
 20
95.15345606479744
 30
0.0
 10
100.3230396053264
 20
94.985130238266
 30
0.0
 10
100.323039605332
 20
94.82039983303342
 30
0.0
  0
LINE
  5
10B
330
1F
100
AcDbEntity
  8
0
  6
HIDDEN
 62
     7
370
     0
100
AcDbLine
 10
100.023039602
 20
98.8762605305
 30
0.0
 11
100.023039602
 21
95.8453100987
 31
0.0
  0
SPLINE
  5
10C
330
1F
100
AcDbEntity
  8
0
  6
HIDDEN
 62
     7
370
     0
100
AcDbSpline
210
0.0
220
0.0
230
1.0
 70
     8
 71
     3
 72
    10
 73
     6
 74
     0
 42
0.00000001
 43
0.00000001
 40
0.0
 40
0.0
 40
0.0
 40
0.0
 40
0.5
 40
0.5
 40
1.0
 40
1.0
 40
1.0
 40
1.0
 10
100.3230396052045
 20
100.2441009472805
 30
0.0
 10
100.3230396052045
 20
100.0021169796737
 30
0.0
 10
100.2948895761339
 20
99.76777455070872
 30
0.0
 10
100.1912996619915
 20
99.31239952843103
 30
0.0
 10
100.1146709524
 20
99.09079496532367
 30
0.0
 10
100.0230396020168
 20
98.87626053052573
 30
0.0
  0
LINE
  5
10D
330
1F
100
AcDbEntity
  8
0
  6
HIDDEN
 62
     7
370
     0
100
AcDbLine
 10
100.3230396052
 20
112.0817209445
 30
0.0
 11
100.3230396052
 21
100.2441009472
 31
0.0
  0
SPLINE
  5
10E
330
1F
100
AcDbEntity
  8
0
  6
HIDDEN
 62
     7
370
     0
100
AcDbSpline
210
0.0
220
0.0
230
1.0
 70
     8
 71
     3
 72
     8
 73
     4
 74
     0
 42
0.00000001
 43
0.00000001
 40
0.0
 40
0.0
 40
0.0
 40
0.0
 40
1.0
 40
1.0
 40
1.0
 40
1.0
 10
100.0230396020168
 20
118.0840266439917
 30
0.0
 10
100.2040710685757
 20
117.651919158329
 30
0.0
 10
100.3230396052102
 20
117.1977737522294
 30
0.0
 10
100.3230396052045
 20
116.7100736985353
 30
0.0
  0
LINE
  5
10F
330
1F
100
AcDbEntity
  8
0
  6
HIDDEN
 62
     7
370
     0
100
AcDbLine
 10
100.023039602
 20
121.11722963
 30
0.0
 11
100.023039602
 21
118.084026644
 31
0.0
  0
SPLINE
  5
110
330
1F
100
AcDbEntity
  8
0
  6
HIDDEN
 62
     7
370
     0
100
AcDbSpline
210
0.0
220
0.0
230
1.0
 70
     8
 71
     3
 72
    10
 73
     6
 74
     0
 42
0.00000001
 43
0.00000001
 40
0.0
 40
0.0
 40
0.0
 40
0.0
 40
0.5
 40
0.5
 40
1.0
 40
1.0
 40
1.0
 40
1.0
 10
100.32303960541
 20
122.1337748128432
 30
0.0
 10
100.3230396054082
 20
121.9691384662372
 30
0.0
 10
100.2958809346527
 20
121.8019832424067
 30
0.0
 10
100.1901159393343
 20
121.4633602346051
 30
0.0
 10
100.1137011510371
 20
121.291088457314
 30
0.0
 10
100.0230396020168
 20
121.1172296299701
 30
0.0
  0
SPLINE
  5
111
330
1F
100
AcDbEntity
  8
0
  6
HIDDEN
 62
     7
370
     0
100
AcDbSpline
210
0.0
220
0.0
230
1.0
 70
     8
 71
     3
 72
    18
 73
    14
 74
     0
 42
0.00000001
 43
0.00000001
 40
0.0
 40
0.0
 40
0.0
 40
0.0
 40
0.2500000000000033
 40
0.2500000000000033
 40
0.3750000000000029
 40
0.3750000000000029
 40
0.5000000000000026
 40
0.5000000000000026
 40
0.6250000000000022
 40
0.6250000000000022
 40
0.7500000000000018
 40
0.7500000000000018
 40
1.0
 40
1.0
 40
1.0
 40
1.0
 10
105.1230396020168
 20
124.7646009453275
 30
0.0
 10
105.1230396020168
 20
124.7101264247753
 30
0.0
 10
105.0881289106246
 20
124.6537453654228
 30
0.0
 10
104.9861196092916
 20
124.5696685245693
 30
0.0
 10
104.9444832546134
 20
124.5423348205784
 30
0.0
 10
104.8460774591247
 20
124.4893809049794
 30
0.0
 10
104.7885342474204
 20
124.4634935512623
 30
0.0
 10
104.6612360738475
 20
124.415716006429
 30
0.0
 10
104.59164876909
 20
124.3937680882511
 30
0.0
 10
104.4402145239351
 20
124.3543355233384
 30
0.0
 10
104.3575306208411
 20
124.3367792741125
 30
0.0
 10
104.1014191588031
 20
124.294340508692
 30
0.0
 10
103.9135041549151
 20
124.278577758955
 30
0.0
 10
103.7230396020168
 20
124.278577758955
 30
0.0
  0
LINE
  5
112
330
1F
100
AcDbEntity
  8
0
  6
HIDDEN
 62
     7
370
     0
100
AcDbLine
 10
103.723039602
 20
124.278577759
 30
0.0
 11
100.3230396054
 21
124.278577759
 31
0.0
  0
LINE
  5
113
330
1F
100
AcDbEntity
  8
0
  6
HIDDEN
 62
     7
370
     0
100
AcDbLine
 10
100.2540706154
 20
92.6755968869
 30
0.0
 11
107.723039602
 21
92.6755968869
 31
0.0
  0
SPLINE
  5
114
330
1F
100
AcDbEntity
  8
0
  6
HIDDEN
 62
     7
370
     0
100
AcDbSpline
210
0.0
220
0.0
230
1.0
 70
     8
 71
     3
 72
    22
 73
    18
 74
     0
 42
0.00000001
 43
0.00000001
 40
0.0
 40
0.0
 40
0.0
 40
0.0
 40
0.1249999999999998
 40
0.1249999999999998
 40
0.2499999999999995
 40
0.2499999999999995
 40
0.4999999999999992
 40
0.4999999999999992
 40
0.5624999999999993
 40
0.5624999999999993
 40
0.6249999999999994
 40
0.6249999999999994
 40
0.7499999999999996
 40
0.7499999999999996
 40
0.8749999999999998
 40
0.8749999999999998
 40
1.0
 40
1.0
 40
1.0
 40
1.0
 10
100.2540706153747
 20
92.67559688689171
 30
0.0
 10
100.2409882226464
 20
92.93070259703939
 30
0.0
 10
100.2277686592065
 20
93.22386085614329
 30
0.0
 10
100.2053214814124
 20
93.8861613217681
 30
0.0
 10
100.1958430143879
 20
94.25643524237948
 30
0.0
 10
100.1766450534514
 20
95.47899204549326
 30
0.0
 10
100.1777588264483
 20
96.41613097162514
 30
0.0
 10
100.1966696194013
 20
97.73600220114012
 30
0.0
 10
100.2012991472603
 20
98.00750411011644
 30
0.0
 10
100.2117803670063
 20
98.56588894491874
 30
0.0
 10
100.2175756282907
 20
98.85301180085834
 30
0.0
 10
100.2358848491957
 20
99.72560105523003
 30
0.0
 10
100.249919783476
 20
100.3260567315859
 30
0.0
 10
100.2793769556128
 20
101.563531224082
 30
0.0
 10
100.2949326465944
 20
102.2005473807254
 30
0.0
 10
100.3187271965913
 20
103.51203597841
 30
0.0
 10
100.3267462487367
 20
104.1881585900705
 30
0.0
 10
100.3230396020168
 20
104.8724537013553
 30
0.0
  0
LINE
  5
115
330
1F
100
AcDbEntity
  8
0
  6
HIDDEN
 62
     7
370
     0
100
AcDbLine
 10
100.3230396054
 20
112.0817209445
 30
0.0
 11
100.3230396054
 21
124.278577759
 31
0.0
  0
SPLINE
  5
116
330
1F
100
AcDbEntity
  8
0
  6
HIDDEN
 62
     7
370
     0
100
AcDbSpline
210
0.0
220
0.0
230
1.0
 70
     8
 71
     3
 72
    10
 73
     6
 74
     0
 42
0.00000001
 43
0.00000001
 40
0.0
 40
0.0
 40
0.0
 40
0.0
 40
0.5
 40
0.5
 40
1.0
 40
1.0
 40
1.0
 40
1.0
 10
100.3230396020168
 20
104.8724537013402
 30
0.0
 10
100.3230396020166
 20
105.1463688494146
 30
0.0
 10
100.2972803721489
 20
105.4173104281446
 30
0.0
 10
100.1940744394158
 20
105.9530015097475
 30
0.0
 10
100.1167362755405
 20
106.2187483132695
 30
0.0
 10
100.0230396020168
 20
106.4803870207071
 30
0.0
  0
SPLINE
  5
117
330
1F
100
AcDbEntity
  8
0
  6
HIDDEN
 62
     7
370
     0
100
AcDbSpline
210
0.0
220
0.0
230
1.0
 70
     8
 71
     3
 72
    10
 73
     6
 74
     0
 42
0.00000001
 43
0.00000001
 40
0.0
 40
0.0
 40
0.0
 40
0.0
 40
0.5
 40
0.5
 40
1.0
 40
1.0
 40
1.0
 40
1.0
 10
100.0230396020168
 20
110.4642156162879
 30
0.0
 10
100.1162701834078
 20
110.728109424358
 30
0.0
 10
100.1912997956446
 20
110.9942897349963
 30
0.0
 10
100.2963668948227
 20
111.5326123099545
 30
0.0
 10
100.3230396054089
 20
111.8053604262
 30
0.0
 10
100.3230396054101
 20
112.0817209444905
 30
0.0
  0
LINE
  5
118
330
1F
100
AcDbEntity
  8
0
  6
HIDDEN
 62
     7
370
     0
100
AcDbLine
 10
100.023039602
 20
106.4803870207
 30
0.0
 11
100.023039602
 21
110.4642156163
 31
0.0
  0
SPLINE
  5
119
330
1F
100
AcDbEntity
  8
0
  6
HIDDEN
 62
     7
370
     0
100
AcDbSpline
210
0.0
220
0.0
230
1.0
 70
     8
 71
     3
 72
    72
 73
    68
 74
     0
 42
0.00000001
 43
0.00000001
 40
0.0
 40
0.0
 40
0.0
 40
0.0
 40
0.0312499999999999
 40
0.0312499999999999
 40
0.0624999999999997
 40
0.0624999999999997
 40
0.0937499999999996
 40
0.0937499999999996
 40
0.1249999999999994
 40
0.1249999999999994
 40
0.1562499999999993
 40
0.1562499999999993
 40
0.1874999999999992
 40
0.1874999999999992
 40
0.2187499999999991
 40
0.2187499999999991
 40
0.2499999999999989
 40
0.2499999999999989
 40
0.2812499999999988
 40
0.2812499999999988
 40
0.3124999999999987
 40
0.3124999999999987
 40
0.3437499999999985
 40
0.3437499999999985
 40
0.3749999999999983
 40
0.3749999999999983
 40
0.4062499999999982
 40
0.4062499999999982
 40
0.4218749999999982
 40
0.4218749999999982
 40
0.4374999999999981
 40
0.4374999999999981
 40
0.4687499999999982
 40
0.4687499999999982
 40
0.4999999999999983
 40
0.4999999999999983
 40
0.5312499999999986
 40
0.5312499999999986
 40
0.5624999999999987
 40
0.5624999999999987
 40
0.5937499999999989
 40
0.5937499999999989
 40
0.6249999999999991
 40
0.6249999999999991
 40
0.6562499999999991
 40
0.6562499999999991
 40
0.6874999999999992
 40
0.6874999999999992
 40
0.7187499999999993
 40
0.7187499999999993
 40
0.7499999999999993
 40
0.7499999999999993
 40
0.7812499999999994
 40
0.7812499999999994
 40
0.8124999999999996
 40
0.8124999999999996
 40
0.8437499999999997
 40
0.8437499999999997
 40
0.8749999999999997
 40
0.8749999999999997
 40
0.9062499999999998
 40
0.9062499999999998
 40
0.9374999999999999
 40
0.9374999999999999
 40
0.9687499999999999
 40
0.9687499999999999
 40
1.0
 40
1.0
 40
1.0
 40
1.0
 10
183.0559980789595
 20
106.8727908521383
 30
0.0
 10
182.9497622747343
 20
106.581562195356
 30
0.0
 10
182.817225542301
 20
106.3065284830305
 30
0.0
 10
182.5034074479107
 20
105.7859867045197
 30
0.0
 10
182.3204517798015
 20
105.5387371921734
 30
0.0
 10
181.9120595882086
 20
105.082248573296
 30
0.0
 10
181.6895729320983
 20
104.8755589840308
 30
0.0
 10
181.2099855081977
 20
104.502013668662
 30
0.0
 10
180.9503181589023
 20
104.3339977305476
 30
0.0
 10
180.4104830638475
 20
104.0459361113163
 30
0.0
 10
180.1304415949088
 20
103.9252453586334
 30
0.0
 10
179.5507108713046
 20
103.7282772010224
 30
0.0
 10
179.2484808266023
 20
103.651796950757
 30
0.0
 10
178.6422998898259
 20
103.5475868232901
 30
0.0
 10
178.337142967526
 20
103.5190308795045
 30
0.0
 10
177.7227461217653
 20
103.5081975186748
 30
0.0
 10
177.4107819366195
 20
103.5264678121908
 30
0.0
 10
176.8008415791117
 20
103.6096907383015
 30
0.0
 10
176.5019861244315
 20
103.6741598944362
 30
0.0
 10
175.9164836461379
 20
103.8492729409624
 30
0.0
 10
175.6272242169589
 20
103.961282514083
 30
0.0
 10
175.0763399613226
 20
104.2290038101234
 30
0.0
 10
174.8153211733732
 20
104.3837802176896
 30
0.0
 10
174.3222607551674
 20
104.736305454619
 30
0.0
 10
174.0882711651598
 20
104.9360843959913
 30
0.0
 10
173.661549246827
 20
105.3741178681476
 30
0.0
 10
173.4707437753945
 20
105.6096132857455
 30
0.0
 10
173.2185132185221
 20
105.9882248907611
 30
0.0
 10
173.1401320857836
 20
106.1186804278375
 30
0.0
 10
172.9952255186368
 20
106.3885259635109
 30
0.0
 10
172.9283970523686
 20
106.5287614166235
 30
0.0
 10
172.7505164951797
 20
106.9545924006329
 30
0.0
 10
172.6607308497145
 20
107.246625565033
 30
0.0
 10
172.5386690277473
 20
107.8471424366737
 30
0.0
 10
172.5066944166305
 20
108.1594603049493
 30
0.0
 10
172.5054569314486
 20
108.7759882388134
 30
0.0
 10
172.5351196782295
 20
109.0814635109222
 30
0.0
 10
172.6549988596303
 20
109.6868587423891
 30
0.0
 10
172.7457486386463
 20
109.9852644324734
 30
0.0
 10
172.9795127727506
 20
110.5505280756326
 30
0.0
 10
173.123901173394
 20
110.8220334633285
 30
0.0
 10
173.4634074558795
 20
111.335350555466
 30
0.0
 10
173.6548430120747
 20
111.5721293794547
 30
0.0
 10
174.0785248379407
 20
112.00908926621
 30
0.0
 10
174.3131756672872
 20
112.2107031661247
 30
0.0
 10
174.8093121342971
 20
112.5667484725064
 30
0.0
 10
175.071017901089
 20
112.7221836419298
 30
0.0
 10
175.620892445345
 20
112.9902073405704
 30
0.0
 10
175.9109025158975
 20
113.1029638605776
 30
0.0
 10
176.4982776540006
 20
113.2791700321203
 30
0.0
 10
176.7976272706016
 20
113.3438763313675
 30
0.0
 10
177.4075552408044
 20
113.42743379583
 30
0.0
 10
177.7198965127259
 20
113.4459012970155
 30
0.0
 10
178.3350440384239
 20
113.4353058415092
 30
0.0
 10
178.6402046576004
 20
113.4068178526909
 30
0.0
 10
179.2456766125778
 20
113.3029888922837
 30
0.0
 10
179.548320515742
 20
113.2265842750894
 30
0.0
 10
180.1286181664875
 20
113.0296732170863
 30
0.0
 10
180.408120130541
 20
112.9092438494037
 30
0.0
 10
180.9455474467345
 20
112.6229748170295
 30
0.0
 10
181.2059063836133
 20
112.4550382458799
 30
0.0
 10
181.6873058869113
 20
112.0806774250939
 30
0.0
 10
181.9090813765895
 20
111.8746111888417
 30
0.0
 10
182.3141246257915
 20
111.4231389622387
 30
0.0
 10
182.4989169779897
 20
111.175009751415
 30
0.0
 10
182.816513225474
 20
110.6494442171334
 30
0.0
 10
182.9496924931753
 20
110.3728037455993
 30
0.0
 10
183.0559980789595
 20
110.0813837937084
 30
0.0
  0
LINE
  5
11A
330
1F
100
AcDbEntity
  8
0
  6
HIDDEN
 62
     7
370
     0
100
AcDbLine
 10
178.423039602
 20
105.0770873229
 30
0.0
 11
178.6160837031
 21
105.1104034092
 31
0.0
  0
ARC
  5
11B
330
1F
100
AcDbEntity
  8
0
  6
HIDDEN
 62
     7
370
     0
100
AcDbCircle
 10
178.3807871996
 20
108.4714444311
 30
0.0
 40
3.394620073509887
100
AcDbArc
 50
295.7944309368
 51
270.7131716635
  0
SPLINE
  5
11C
330
1F
100
AcDbEntity
  8
0
  6
HIDDEN
 62
     7
370
     0
100
AcDbSpline
210
0.0
220
0.0
230
1.0
 70
     8
 71
     3
 72
    12
 73
     8
 74
     0
 42
0.00000001
 43
0.00000001
 40
0.0
 40
0.0
 40
0.0
 40
0.0
 40
0.5
 40
0.5
 40
0.75
 40
0.75
 40
1.0
 40
1.0
 40
1.0
 40
1.0
 10
183.0559980789595
 20
110.0813837937084
 30
0.0
 10
183.2097449247858
 20
109.5575220956495
 30
0.0
 10
183.2868382234892
 20
109.0243723776565
 30
0.0
 10
183.2875424996499
 20
108.2107945840407
 30
0.0
 10
183.2680021197953
 20
107.9370631633458
 30
0.0
 10
183.1906209063668
 20
107.3999991642597
 30
0.0
 10
183.1328778210055
 20
107.1347432323521
 30
0.0
 10
183.0559980789595
 20
106.8727908521383
 30
0.0
  0
LINE
  5
11D
330
1F
100
AcDbEntity
  8
0
  6
HIDDEN
 62
     7
370
     0
100
AcDbLine
 10
100.173039602
 20
90.4870873229
 30
0.0
 11
100.173039602
 21
87.6071495575
 31
0.0
  0
LINE
  5
11E
330
1F
100
AcDbEntity
  8
0
  6
HIDDEN
 62
     7
370
     0
100
AcDbLine
 10
109.123039602
 20
90.4870873229
 30
0.0
 11
109.123039602
 21
86.5133497917
 31
0.0
  0
LINE
  5
11F
330
1F
100
AcDbEntity
  8
0
  6
HIDDEN
 62
     7
370
     0
100
AcDbLine
 10
100.173039602
 20
126.4670873229
 30
0.0
 11
100.173039602
 21
129.3470250883
 31
0.0
  0
LINE
  5
120
330
1F
100
AcDbEntity
  8
0
  6
HIDDEN
 62
     7
370
     0
100
AcDbLine
 10
105.123039602
 20
126.4670873229
 30
0.0
 11
105.123039602
 21
130.3211949953
 31
0.0
  0
LINE
  5
121
330
1F
100
AcDbEntity
  8
0
  6
HIDDEN
 62
     7
370
     0
100
AcDbLine
 10
149.723039602
 20
98.9770873229
 30
0.0
 11
149.723039602
 21
117.9770873229
 31
0.0
  0
LINE
  5
122
330
1F
100
AcDbEntity
  8
0
  6
HIDDEN
 62
     7
370
     0
100
AcDbLine
 10
152.723039602
 20
98.9770873229
 30
0.0
 11
152.723039602
 21
117.9770873229
 31
0.0
  0
LINE
  5
123
330
1F
100
AcDbEntity
  8
0
  6
HIDDEN
 62
     7
370
     0
100
AcDbLine
 10
141.373039602
 20
99.9770873229
 30
0.0
 11
141.373039602
 21
116.9770873229
 31
0.0
  0
LINE
  5
124
330
1F
100
AcDbEntity
  8
0
  6
HIDDEN
 62
     7
370
     0
100
AcDbLine
 10
156.873039602
 20
82.0770873229
 30
0.0
 11
150.7353647997
 21
82.0770873229
 31
0.0
  0
LINE
  5
125
330
1F
100
AcDbEntity
  8
0
  6
HIDDEN
 62
     7
370
     0
100
AcDbLine
 10
135.873039602
 20
76.9929643401
 30
0.0
 11
135.873039602
 21
82.0770873229
 31
0.0
  0
LINE
  5
126
330
1F
100
AcDbEntity
  8
0
  6
HIDDEN
 62
     7
370
     0
100
AcDbLine
 10
143.873039602
 20
82.0770873229
 30
0.0
 11
135.873039602
 21
82.0770873229
 31
0.0
  0
LINE
  5
127
330
1F
100
AcDbEntity
  8
0
  6
HIDDEN
 62
     7
370
     0
100
AcDbLine
 10
147.1107144043
 20
82.0770873229
 30
0.0
 11
143.873039602
 21
82.0770873229
 31
0.0
  0
SPLINE
  5
128
330
1F
100
AcDbEntity
  8
0
  6
HIDDEN
 62
     7
370
     0
100
AcDbSpline
210
0.0
220
0.0
230
1.0
 70
     8
 71
     3
 72
    14
 73
    10
 74
     0
 42
0.00000001
 43
0.00000001
 40
0.0
 40
0.0
 40
0.0
 40
0.0
 40
0.25
 40
0.25
 40
0.5
 40
0.5
 40
0.75
 40
0.75
 40
1.0
 40
1.0
 40
1.0
 40
1.0
 10
159.929289396066
 20
102.120473295618
 30
0.0
 10
159.8947249696636
 20
102.0840139018481
 30
0.0
 10
159.8613347659155
 20
102.0490413706212
 30
0.0
 10
159.8057380202506
 20
101.9704549824302
 30
0.0
 10
159.7826056925202
 20
101.9254452850252
 30
0.0
 10
159.7940419820532
 20
101.7821929039866
 30
0.0
 10
159.8250855626045
 20
101.697024576228
 30
0.0
 10
159.8919416715449
 20
101.5350286864727
 30
0.0
 10
159.9299437999051
 20
101.4549379359506
 30
0.0
 10
159.9692974641567
 20
101.3762952394469
 30
0.0
  0
SPLINE
  5
129
330
1F
100
AcDbEntity
  8
0
  6
HIDDEN
 62
     7
370
     0
100
AcDbSpline
210
0.0
220
0.0
230
1.0
 70
     8
 71
     3
 72
    14
 73
    10
 74
     0
 42
0.00000001
 43
0.00000001
 40
0.0
 40
0.0
 40
0.0
 40
0.0
 40
0.25
 40
0.25
 40
0.5
 40
0.5
 40
0.75
 40
0.75
 40
1.0
 40
1.0
 40
1.0
 40
1.0
 10
159.9692974641589
 20
101.3762952394453
 30
0.0
 10
160.0070444417462
 20
101.4094109113689
 30
0.0
 10
160.0401436339464
 20
101.4500805691336
 30
0.0
 10
160.0861140878529
 20
101.5513512518305
 30
0.0
 10
160.0973420587743
 20
101.6099968315072
 30
0.0
 10
160.0884881573566
 20
101.7436685803356
 30
0.0
 10
160.0684687075816
 20
101.8161565465006
 30
0.0
 10
160.0089110137152
 20
101.9664391191121
 30
0.0
 10
159.9707448104138
 20
102.0424773152718
 30
0.0
 10
159.9292893960661
 20
102.1204732956182
 30
0.0
  0
SPLINE
  5
12A
330
1F
100
AcDbEntity
  8
0
  6
HIDDEN
 62
     7
370
     0
100
AcDbSpline
210
0.0
220
0.0
230
1.0
 70
     8
 71
     3
 72
    10
 73
     6
 74
     0
 42
0.00000001
 43
0.00000001
 40
0.0
 40
0.0
 40
0.0
 40
0.0
 40
0.5
 40
0.5
 40
1.0
 40
1.0
 40
1.0
 40
1.0
 10
159.4230396020163
 20
102.7941865390698
 30
0.0
 10
159.4230396020163
 20
102.8190100698458
 30
0.0
 10
159.4242697509245
 20
102.8415486279842
 30
0.0
 10
159.4290045396026
 20
102.8822969252457
 30
0.0
 10
159.4325101670463
 20
102.9005087431303
 30
0.0
 10
159.4370794072576
 20
102.9165174539398
 30
0.0
  0
SPLINE
  5
12B
330
1F
100
AcDbEntity
  8
0
  6
HIDDEN
 62
     7
370
     0
100
AcDbSpline
210
0.0
220
0.0
230
1.0
 70
     8
 71
     3
 72
    18
 73
    14
 74
     0
 42
0.00000001
 43
0.00000001
 40
0.0
 40
0.0
 40
0.0
 40
0.0
 40
0.0772759599426426
 40
0.1655767670744012
 40
0.2251187958671486
 40
0.2700431158235979
 40
0.3151044203741087
 40
0.3748376078086425
 40
0.478802412239675
 40
0.6283518597251687
 40
0.7774437918839976
 40
0.9120098986051312
 40
1.0
 40
1.0
 40
1.0
 40
1.0
 10
159.4547172812833
 20
102.9472711504524
 30
0.0
 10
159.4609127944095
 20
102.9608079477549
 30
0.0
 10
159.4741877253785
 20
102.9898128172583
 30
0.0
 10
159.4998209932203
 20
102.9912722460941
 30
0.0
 10
159.5175686948505
 20
102.9721442120915
 30
0.0
 10
159.5245171613569
 20
102.934780651438
 30
0.0
 10
159.5216226047839
 20
102.8780419263174
 30
0.0
 10
159.5055348057339
 20
102.7834457573207
 30
0.0
 10
159.4725393300428
 20
102.6350418618605
 30
0.0
 10
159.4352478849422
 20
102.4475772733326
 30
0.0
 10
159.4186713740418
 20
102.2724420522884
 30
0.0
 10
159.4279753205604
 20
102.1588858960921
 30
0.0
 10
159.4467504153823
 20
102.1294893972969
 30
0.0
 10
159.454173360404
 20
102.1178671606873
 30
0.0
  0
LWPOLYLINE
  5
12C
330
1F
100
AcDbEntity
  8
0
  6
HIDDEN
 62
     7
370
     0
100
AcDbPolyline
 90
       10
 70
   128
 43
0.0
 10
159.4642849911
 20
102.097398119
 10
159.5010970522
 20
102.0911748756
 10
159.5161549534
 20
102.1119560267
 10
159.52290567
 20
102.1475624551
 10
159.5204548323
 20
102.2023790856
 10
159.508396346
 20
102.2756070985
 10
159.4804441911
 20
102.40409852
 10
159.4410180093
 20
102.6015628654
 10
159.423039602
 20
102.7941865391
 10
159.423039602
 20
102.7941865391
  0
SPLINE
  5
12D
330
1F
100
AcDbEntity
  8
0
  6
HIDDEN
 62
     7
370
     0
100
AcDbSpline
210
0.0
220
0.0
230
1.0
 70
     8
 71
     3
 72
     8
 73
     4
 74
     0
 42
0.00000001
 43
0.00000001
 40
0.0
 40
0.0
 40
0.0
 40
0.0
 40
1.0
 40
1.0
 40
1.0
 40
1.0
 10
162.1650736412273
 20
106.1073567711327
 30
0.0
 10
162.1234592779329
 20
106.1486064541023
 30
0.0
 10
162.0777650759777
 20
106.1920019906348
 30
0.0
 10
162.0282655838971
 20
106.2394047298052
 30
0.0
  0
SPLINE
  5
12E
330
1F
100
AcDbEntity
  8
0
  6
HIDDEN
 62
     7
370
     0
100
AcDbSpline
210
0.0
220
0.0
230
1.0
 70
     8
 71
     3
 72
    32
 73
    28
 74
     0
 42
0.00000001
 43
0.00000001
 40
0.0
 40
0.0
 40
0.0
 40
0.0
 40
0.0624999999999997
 40
0.0624999999999997
 40
0.1249999999999994
 40
0.1249999999999994
 40
0.1874999999999992
 40
0.1874999999999992
 40
0.2499999999999989
 40
0.2499999999999989
 40
0.3749999999999983
 40
0.3749999999999983
 40
0.4374999999999983
 40
0.4374999999999983
 40
0.4999999999999983
 40
0.4999999999999983
 40
0.6249999999999987
 40
0.6249999999999987
 40
0.749999999999999
 40
0.749999999999999
 40
0.8124999999999992
 40
0.8124999999999992
 40
0.8749999999999994
 40
0.8749999999999994
 40
0.9374999999999998
 40
0.9374999999999998
 40
1.0
 40
1.0
 40
1.0
 40
1.0
 10
162.0282655838971
 20
106.2394047298052
 30
0.0
 10
161.9267643028098
 20
106.336606510078
 30
0.0
 10
161.8116243236308
 20
106.4215146357245
 30
0.0
 10
161.5533371654746
 20
106.5625639163118
 30
0.0
 10
161.4133155589656
 20
106.6163970239093
 30
0.0
 10
161.1205618774221
 20
106.682757212998
 30
0.0
 10
160.9673557505608
 20
106.6948595778318
 30
0.0
 10
160.6670112417321
 20
106.6742579049231
 30
0.0
 10
160.5169968326243
 20
106.6412833942373
 30
0.0
 10
160.0990684965866
 20
106.4863185965859
 30
0.0
 10
159.8546437550222
 20
106.3047539049501
 30
0.0
 10
159.602659511803
 20
105.9931106243065
 30
0.0
 10
159.5357347449381
 20
105.8805713005208
 30
0.0
 10
159.4465114609209
 20
105.6572462241543
 30
0.0
 10
159.4231659881391
 20
105.544311719289
 30
0.0
 10
159.422788390276
 20
105.2236113936916
 30
0.0
 10
159.5161681773391
 20
105.036461854081
 30
0.0
 10
159.854912624775
 20
104.7571046150669
 30
0.0
 10
160.0946196324568
 20
104.6651157745949
 30
0.0
 10
160.5145054435517
 20
104.5885121191966
 30
0.0
 10
160.662689405495
 20
104.5735748386904
 30
0.0
 10
160.9634756686642
 20
104.5637428622886
 30
0.0
 10
161.1168993749775
 20
104.5689752761436
 30
0.0
 10
161.409655283208
 20
104.599771319439
 30
0.0
 10
161.5515641420279
 20
104.6256634471414
 30
0.0
 10
161.8086839567806
 20
104.6983913829967
 30
0.0
 10
161.9267242582887
 20
104.7459382602549
 30
0.0
 10
162.0282655838971
 20
104.8051972629603
 30
0.0
  0
SPLINE
  5
12F
330
1F
100
AcDbEntity
  8
0
  6
HIDDEN
 62
     7
370
     0
100
AcDbSpline
210
0.0
220
0.0
230
1.0
 70
     8
 71
     3
 72
     8
 73
     4
 74
     0
 42
0.00000001
 43
0.00000001
 40
0.0
 40
0.0
 40
0.0
 40
0.0
 40
1.0
 40
1.0
 40
1.0
 40
1.0
 10
162.0282655838971
 20
104.8051972629603
 30
0.0
 10
162.0777650759777
 20
104.8340849155249
 30
0.0
 10
162.1234592779329
 20
104.8722827435209
 30
0.0
 10
162.1650736412273
 20
104.9179439366279
 30
0.0
  0
SPLINE
  5
130
330
1F
100
AcDbEntity
  8
0
  6
HIDDEN
 62
     7
370
     0
100
AcDbSpline
210
0.0
220
0.0
230
1.0
 70
     8
 71
     3
 72
    12
 73
     8
 74
     0
 42
0.00000001
 43
0.00000001
 40
0.0
 40
0.0
 40
0.0
 40
0.0
 40
0.2499999999999999
 40
0.2499999999999999
 40
0.4999999999999998
 40
0.4999999999999998
 40
1.0
 40
1.0
 40
1.0
 40
1.0
 10
162.1650736412273
 20
104.9179439366279
 30
0.0
 10
162.2491661888307
 20
105.0102141469829
 30
0.0
 10
162.3129923846168
 20
105.1061000231466
 30
0.0
 10
162.400675808816
 20
105.3092492428245
 30
0.0
 10
162.4229040061277
 20
105.4139476383179
 30
0.0
 10
162.4233089370581
 20
105.7291460237181
 30
0.0
 10
162.3332495773771
 20
105.9406546159124
 30
0.0
 10
162.1650736412273
 20
106.1073567711327
 30
0.0
  0
SPLINE
  5
131
330
1F
100
AcDbEntity
  8
0
  6
HIDDEN
 62
     7
370
     0
100
AcDbSpline
210
0.0
220
0.0
230
1.0
 70
     8
 71
     3
 72
    18
 73
    14
 74
     0
 42
0.00000001
 43
0.00000001
 40
0.0
 40
0.0
 40
0.0
 40
0.0
 40
0.2500000000000006
 40
0.2500000000000006
 40
0.3749999999999998
 40
0.3749999999999998
 40
0.4999999999999991
 40
0.4999999999999991
 40
0.6249999999999983
 40
0.6249999999999983
 40
0.7499999999999977
 40
0.7499999999999977
 40
1.0
 40
1.0
 40
1.0
 40
1.0
 10
159.9692974641589
 20
103.0135954162452
 30
0.0
 10
159.9298490880304
 20
103.0464693103235
 30
0.0
 10
159.8916924075268
 20
103.0773578094184
 30
0.0
 10
159.8414621262928
 20
103.1275921767647
 30
0.0
 10
159.8259328144555
 20
103.1449883600002
 30
0.0
 10
159.8006734104645
 20
103.186231295704
 30
0.0
 10
159.7911017411547
 20
103.2106968501937
 30
0.0
 10
159.785517633238
 20
103.2720230884216
 30
0.0
 10
159.7898489800113
 20
103.3094612889434
 30
0.0
 10
159.8072521141036
 20
103.387344735708
 30
0.0
 10
159.8198611592217
 20
103.4280982939972
 30
0.0
 10
159.8615621060954
 20
103.5492176631901
 30
0.0
 10
159.8948013032953
 20
103.6299571833748
 30
0.0
 10
159.9292893960661
 20
103.7094733133479
 30
0.0
  0
SPLINE
  5
132
330
1F
100
AcDbEntity
  8
0
  6
HIDDEN
 62
     7
370
     0
100
AcDbSpline
210
0.0
220
0.0
230
1.0
 70
     8
 71
     3
 72
    12
 73
     8
 74
     0
 42
0.00000001
 43
0.00000001
 40
0.0
 40
0.0
 40
0.0
 40
0.0
 40
0.4999999999999998
 40
0.4999999999999998
 40
0.7499999999999999
 40
0.7499999999999999
 40
1.0
 40
1.0
 40
1.0
 40
1.0
 10
159.9292893960661
 20
103.7094733133479
 30
0.0
 10
160.0120960412992
 20
103.6572508352375
 30
0.0
 10
160.0836794854139
 20
103.5705909028304
 30
0.0
 10
160.0974460551259
 20
103.3814517325652
 30
0.0
 10
160.0861056156096
 20
103.3121962490196
 30
0.0
 10
160.0401429528238
 20
103.1654727593075
 30
0.0
 10
160.0070472304215
 20
103.0906926941512
 30
0.0
 10
159.9692974641589
 20
103.0135954162453
 30
0.0
  0
SPLINE
  5
133
330
1F
100
AcDbEntity
  8
0
  6
HIDDEN
 62
     7
370
     0
100
AcDbSpline
210
0.0
220
0.0
230
1.0
 70
     8
 71
     3
 72
    48
 73
    44
 74
     0
 42
0.00000001
 43
0.00000001
 40
-0.0624999999999997
 40
-0.0624999999999997
 40
0.0
 40
0.0
 40
0.0312500000000001
 40
0.0312500000000001
 40
0.0625000000000002
 40
0.0625000000000002
 40
0.1250000000000004
 40
0.1250000000000004
 40
0.1875000000000006
 40
0.1875000000000006
 40
0.2500000000000007
 40
0.2500000000000007
 40
0.3125000000000009
 40
0.3125000000000009
 40
0.3437500000000008
 40
0.3437500000000008
 40
0.3750000000000006
 40
0.3750000000000006
 40
0.4062500000000005
 40
0.4062500000000005
 40
0.4375000000000004
 40
0.4375000000000004
 40
0.5
 40
0.5
 40
0.5625000000000002
 40
0.5625000000000002
 40
0.6250000000000003
 40
0.6250000000000003
 40
0.6875000000000006
 40
0.6875000000000006
 40
0.7500000000000007
 40
0.7500000000000007
 40
0.8125000000000009
 40
0.8125000000000009
 40
0.8437500000000008
 40
0.8437500000000008
 40
0.8750000000000007
 40
0.8750000000000007
 40
0.9062500000000006
 40
0.9062500000000006
 40
0.9375000000000003
 40
0.9375000000000003
 40
1.0
 40
1.0
 40
1.03125
 40
1.03125
 10
162.0538295793684
 20
101.3358929466872
 30
0.0
 10
162.1758974098854
 20
101.3392842719091
 30
0.0
 10
162.214359739803
 20
101.3477310878554
 30
0.0
 10
162.2845092155695
 20
101.3800059519096
 30
0.0
 10
162.3165263483446
 20
101.4042787093754
 30
0.0
 10
162.3952619352623
 20
101.5011013708967
 30
0.0
 10
162.4249903360831
 20
101.6002510086316
 30
0.0
 10
162.420878582053
 20
101.8491728104014
 30
0.0
 10
162.3868324893876
 20
101.9997742574959
 30
0.0
 10
162.2754663308629
 20
102.3086894280244
 30
0.0
 10
162.1990674072722
 20
102.4674493076503
 30
0.0
 10
162.0358942270079
 20
102.7752205544885
 30
0.0
 10
161.9472547609923
 20
102.9259580873987
 30
0.0
 10
161.8380406602634
 20
103.1438833009212
 30
0.0
 10
161.8051191125515
 20
103.2170389606136
 30
0.0
 10
161.7606683995517
 20
103.3565756042594
 30
0.0
 10
161.7494355811276
 20
103.424576239628
 30
0.0
 10
161.7562233795516
 20
103.5445097511392
 30
0.0
 10
161.7739703428371
 20
103.597928485794
 30
0.0
 10
161.8261208693099
 20
103.6860755641236
 30
0.0
 10
161.8604940337771
 20
103.7221977502079
 30
0.0
 10
161.9724406944751
 20
103.8082971005586
 30
0.0
 10
162.0579246716285
 20
103.837394117953
 30
0.0
 10
162.216076149529
 20
103.8409327133877
 30
0.0
 10
162.2883210249639
 20
103.8149678599075
 30
0.0
 10
162.3940110813489
 20
103.6932707959602
 30
0.0
 10
162.4245101271071
 20
103.5964220367325
 30
0.0
 10
162.4214537511891
 20
103.3472729662652
 30
0.0
 10
162.3875311007948
 20
103.1943376433985
 30
0.0
 10
162.2775656731966
 20
102.8814567472322
 30
0.0
 10
162.2024104078038
 20
102.720500825173
 30
0.0
 10
162.0436504780574
 20
102.410998362969
 30
0.0
 10
161.9570057574157
 20
102.2581198964381
 30
0.0
 10
161.84853562297
 20
102.0394962809462
 30
0.0
 10
161.8155860563192
 20
101.967349295161
 30
0.0
 10
161.7667965165589
 20
101.8250012852992
 30
0.0
 10
161.7522049224353
 20
101.7567126333783
 30
0.0
 10
161.7521866856037
 20
101.631631871389
 30
0.0
 10
161.7668689125629
 20
101.5767703159084
 30
0.0
 10
161.8168812885875
 20
101.4848242924609
 30
0.0
 10
161.8508675946183
 20
101.4485057273885
 30
0.0
 10
161.9651651632108
 20
101.3620326384495
 30
0.0
 10
162.0538295793684
 20
101.3358929466872
 30
0.0
 10
162.1758974098854
 20
101.3392842719091
 30
0.0
  0
LWPOLYLINE
  5
134
330
1F
100
AcDbEntity
  8
0
  6
HIDDEN
 62
     7
370
     0
100
AcDbPolyline
 90
       22
 70
   128
 43
0.0
 10
160.923039602
 20
100.3453593393
 10
160.4809068404
 20
100.3924814947
 10
160.0780595149
 20
100.5296609508
 10
159.7502923783
 20
100.7447087107
 10
159.5267289791
 20
101.0185168374
 10
159.4272339062
 20
101.3267562772
 10
159.4606477337
 20
101.6420386031
 10
159.6240014963
 20
101.9363495969
 10
159.9027804954
 20
102.1835384354
 10
160.2722139933
 20
102.3616413053
 10
160.6994762028
 20
102.4548329851
 10
161.1466030013
 20
102.4548329851
 10
161.5738652107
 20
102.3616413053
 10
161.9432987087
 20
102.1835384354
 10
162.2220777077
 20
101.9363495969
 10
162.3854314703
 20
101.6420386031
 10
162.4188452978
 20
101.3267562772
 10
162.319350225
 20
101.0185168374
 10
162.0957868257
 20
100.7447087107
 10
161.7680196891
 20
100.5296609508
 10
161.3651723636
 20
100.3924814947
 10
160.923039602
 20
100.3453593393
  0
LINE
  5
135
330
1F
100
AcDbEntity
  8
0
  6
HIDDEN
 62
     7
370
     0
100
AcDbLine
 10
147.4073371337
 20
134.8770873229
 30
0.0
 11
143.873039602
 21
134.8770873229
 31
0.0
  0
LINE
  5
136
330
1F
100
AcDbEntity
  8
0
  6
HIDDEN
 62
     7
370
     0
100
AcDbLine
 10
156.873039602
 20
134.8770873229
 30
0.0
 11
150.4387420703
 21
134.8770873229
 31
0.0
  0
LINE
  5
137
330
1F
100
AcDbEntity
  8
0
  6
HIDDEN
 62
     7
370
     0
100
AcDbLine
 10
143.873039602
 20
134.8770873229
 30
0.0
 11
135.873039602
 21
134.8770873229
 31
0.0
  0
SPLINE
  5
138
330
1F
100
AcDbEntity
  8
0
  6
HIDDEN
 62
     7
370
     0
100
AcDbSpline
210
0.0
220
0.0
230
1.0
 70
     8
 71
     3
 72
    11
 73
     7
 74
     0
 42
0.00000001
 43
0.00000001
 40
0.0
 40
0.0
 40
0.0
 40
0.0
 40
0.0008203708524183
 40
0.0008203708524183
 40
0.0008203708524183
 40
0.0016409967870154
 40
0.0016409967870154
 40
0.0016409967870154
 40
0.0016409967870154
 10
100.1730396020168
 20
92.62505457228063
 30
0.0
 10
99.98188130171813
 20
92.5838755436615
 30
0.0
 10
99.79045423164595
 20
92.5451215714315
 30
0.0
 10
99.59880860812532
 20
92.50875381215296
 30
0.0
 10
99.40710320304487
 20
92.47237470838692
 30
0.0
 10
99.21516425098591
 20
92.43838045761937
 30
0.0
 10
99.0230396039151
 20
92.40673233222817
 30
0.0
  0
ELLIPSE
  5
139
330
1F
100
AcDbEntity
  8
0
  6
HIDDEN
 62
     7
370
     0
100
AcDbEllipse
 10
94.7806077334
 20
108.4770873229
 30
0.0
 11
20.19992453366626
 21
-1.421085471520200E-14
 31
0.0
210
0.0
220
0.0
230
1.0
 40
0.8164965809
 41
1.300566354718001
 42
1.359198697209605
  0
ARC
  5
13A
330
1F
100
AcDbEntity
  8
0
  6
HIDDEN
 62
     7
370
     0
100
AcDbCircle
 10
146.9106283902
 20
102.6119031422
 30
0.0
 40
13.0648457575009
100
AcDbArc
 50
1.7618960119
 51
4.8190653226
  0
LINE
  5
13B
330
1F
100
AcDbEntity
  8
0
  6
HIDDEN
 62
     7
370
     0
100
AcDbLine
 10
109.123039602
 20
90.4870873229
 30
0.0
 11
109.123039602
 21
92.1895737005
 31
0.0
  0
LINE
  5
13C
330
1F
100
AcDbEntity
  8
0
  6
HIDDEN
 62
     7
370
     0
100
AcDbLine
 10
100.173039602
 20
90.4870873229
 30
0.0
 11
100.173039602
 21
92.6250545723
 31
0.0
  0
LINE
  5
13D
330
1F
100
AcDbEntity
  8
0
  6
HIDDEN
 62
     7
370
     0
100
AcDbLine
 10
100.2540706154
 20
92.6755968869
 30
0.0
 11
100.173039602
 21
92.6250545723
 31
0.0
  0
LINE
  5
13E
330
1F
100
AcDbEntity
  8
0
  6
HIDDEN
 62
     7
370
     0
100
AcDbLine
 10
105.123039602
 20
126.4670873229
 30
0.0
 11
105.123039602
 21
124.7646009453
 31
0.0
  0
LINE
  5
13F
330
1F
100
AcDbEntity
  8
0
  6
HIDDEN
 62
     7
370
     0
100
AcDbLine
 10
100.173039602
 20
126.4670873229
 30
0.0
 11
100.173039602
 21
124.371711774
 31
0.0
  0
SPLINE
  5
140
330
1F
100
AcDbEntity
  8
0
  6
HIDDEN
 62
     7
370
     0
100
AcDbSpline
210
0.0
220
0.0
230
1.0
 70
     8
 71
     3
 72
     8
 73
     4
 74
     0
 42
0.00000001
 43
0.00000001
 40
0.0
 40
0.0
 40
0.0
 40
0.0
 40
1.0
 40
1.0
 40
1.0
 40
1.0
 10
100.1730396020168
 20
124.371711773982
 30
0.0
 10
100.2230451009605
 20
124.3406759997629
 30
0.0
 10
100.2730451716249
 20
124.3096313547353
 30
0.0
 10
100.3230396054101
 20
124.278577758955
 30
0.0
  0
ARC
  5
141
330
1F
100
AcDbEntity
  8
0
  6
HIDDEN
 62
     7
370
     0
100
AcDbCircle
 10
176.0593725208
 20
102.6144849754
 30
0.0
 40
16.13764633247795
100
AcDbArc
 50
181.7542339436
 51
184.4004458048
  0
SPLINE
  5
142
330
1F
100
AcDbEntity
  8
0
  6
HIDDEN
 62
     7
370
     0
100
AcDbSpline
210
0.0
220
0.0
230
1.0
 70
     8
 71
     3
 72
    27
 73
    23
 74
     0
 42
0.00000001
 43
0.00000001
 40
0.0
 40
0.0
 40
0.0
 40
0.0
 40
0.0524809871611386
 40
0.1118478463875825
 40
0.1772462483340226
 40
0.2122789604913938
 40
0.2488471429598136
 40
0.3294467201781816
 40
0.3980923284948498
 40
0.4372409890607389
 40
0.4710640939922707
 40
0.4995708044892083
 40
0.5540645676755962
 40
0.6138045200494485
 40
0.678850307445111
 40
0.7134289054523831
 40
0.7493558537945016
 40
0.8293540554283408
 40
0.8976715432313676
 40
0.9542944908280148
 40
0.9992202033171105
 40
1.0
 40
1.0
 40
1.0
 40
1.0
 10
125.6721299357689
 20
84.87705104304274
 30
0.0
 10
125.6624945155992
 20
84.88016045460263
 30
0.0
 10
125.6419594408357
 20
84.88678725423654
 30
0.0
 10
125.4555566995125
 20
84.93656796214832
 30
0.0
 10
125.1806651806137
 20
85.00027702765561
 30
0.0
 10
124.8725235308546
 20
85.06616489290627
 30
0.0
 10
124.4794045237357
 20
85.14864776169111
 30
0.0
 10
123.9030410532782
 20
85.25100315194555
 30
0.0
 10
123.229827644365
 20
85.34354567474338
 30
0.0
 10
122.6939720659458
 20
85.405128603645
 30
0.0
 10
122.300238994045
 20
85.44334208614633
 30
0.0
 10
121.8420623699574
 20
85.477165927298
 30
0.0
 10
121.2796526222148
 20
85.49674426664137
 30
0.0
 10
120.59430716235
 20
85.49767289840038
 30
0.0
 10
120.0276347791589
 20
85.47948537485858
 30
0.0
 10
119.5915454674086
 20
85.45463286167579
 30
0.0
 10
119.1480968339189
 20
85.4186495638273
 30
0.0
 10
118.6980019228609
 20
85.3731680239081
 30
0.0
 10
118.3561863357652
 20
85.33131492984916
 30
0.0
 10
118.2104266939959
 20
85.30769438982348
 30
0.0
 10
118.1610021259045
 20
85.29587227527573
 30
0.0
 10
118.1734749624062
 20
85.29856195735674
 30
0.0
 10
118.1736877655608
 20
85.2986078469049
 30
0.0
  0
LINE
  5
143
330
1F
100
AcDbEntity
  8
0
  6
HIDDEN
 62
     7
370
     0
100
AcDbLine
 10
119.0830515144
 20
85.4094254664
 30
0.0
 11
119.2668968275
 21
85.4276148089
 31
0.0
  0
SPLINE
  5
144
330
1F
100
AcDbEntity
  8
0
  6
HIDDEN
 62
     7
370
     0
100
AcDbSpline
210
0.0
220
0.0
230
1.0
 70
     8
 71
     3
 72
    27
 73
    23
 74
     0
 42
0.00000001
 43
0.00000001
 40
0.0
 40
0.0
 40
0.0
 40
0.0
 40
0.0008228672017529
 40
0.0457055245891655
 40
0.10228737422212
 40
0.1705656864803495
 40
0.2091574841380411
 40
0.2506848582437102
 40
0.3211308646991408
 40
0.3862248108170453
 40
0.4267040922787764
 40
0.4648354691906021
 40
0.5006399024032143
 40
0.5452318117587255
 40
0.6017262516731922
 40
0.6701324489694233
 40
0.708869905080335
 40
0.7505987863526696
 40
0.8222636048825664
 40
0.8878032428064209
 40
0.9472771913538107
 40
0.9999999999999999
 40
0.9999999999999999
 40
0.9999999999999999
 40
0.9999999999999999
 10
118.1737196593584
 20
131.6554989728399
 30
0.0
 10
118.173493323601
 20
131.6555477642137
 30
0.0
 10
118.1609216783741
 20
131.6582578434723
 30
0.0
 10
118.2099941268678
 20
131.646426721081
 30
0.0
 10
118.3551041675488
 20
131.6229812326365
 30
0.0
 10
118.6281546146466
 20
131.5890774836664
 30
0.0
 10
118.9566813730988
 20
131.5555086218975
 30
0.0
 10
119.3494090638106
 20
131.5173253007052
 30
0.0
 10
119.899137071253
 20
131.4783566206515
 30
0.0
 10
120.5251597078358
 20
131.4588955182631
 30
0.0
 10
121.0683512196387
 20
131.456709840109
 30
0.0
 10
121.5134201161763
 20
131.4652247213493
 30
0.0
 10
121.9798679127791
 20
131.4850081182766
 30
0.0
 10
122.5171085615291
 20
131.5291705037047
 30
0.0
 10
123.1653219942295
 20
131.6015861242061
 30
0.0
 10
123.7508606166741
 20
131.6824882154443
 30
0.0
 10
124.2318302492078
 20
131.7606542085585
 30
0.0
 10
124.6772450687959
 20
131.8454263276892
 30
0.0
 10
125.1157452806639
 20
131.9392094966296
 30
0.0
 10
125.4547687459501
 20
132.0171128021149
 30
0.0
 10
125.6420970315725
 20
132.0673009814872
 30
0.0
 10
125.6625861413873
 20
132.0739670277008
 30
0.0
 10
125.6722142575925
 20
132.0770994950531
 30
0.0
  0
SPLINE
  5
145
330
1F
100
AcDbEntity
  8
0
  6
HIDDEN
 62
     7
370
     0
100
AcDbSpline
210
0.0
220
0.0
230
1.0
 70
     8
 71
     3
 72
    32
 73
    28
 74
     0
 42
0.00000001
 43
0.00000001
 40
0.0
 40
0.0
 40
0.0
 40
0.0
 40
0.0624999999999996
 40
0.0624999999999996
 40
0.1249999999999993
 40
0.1249999999999993
 40
0.187499999999999
 40
0.187499999999999
 40
0.2499999999999987
 40
0.2499999999999987
 40
0.3749999999999981
 40
0.3749999999999981
 40
0.4374999999999982
 40
0.4374999999999982
 40
0.4999999999999984
 40
0.4999999999999984
 40
0.6249999999999988
 40
0.6249999999999988
 40
0.7499999999999992
 40
0.7499999999999992
 40
0.8124999999999994
 40
0.8124999999999994
 40
0.8749999999999996
 40
0.8749999999999996
 40
0.9374999999999998
 40
0.9374999999999998
 40
1.0
 40
1.0
 40
1.0
 40
1.0
 10
162.0282655838971
 20
110.7147699160415
 30
0.0
 10
161.9267643028098
 20
110.6175681357688
 30
0.0
 10
161.8116243236308
 20
110.5326600101222
 30
0.0
 10
161.5533371654746
 20
110.3916107295349
 30
0.0
 10
161.4133155589656
 20
110.3377776219374
 30
0.0
 10
161.1205618774221
 20
110.2714174328488
 30
0.0
 10
160.9673557505608
 20
110.2593150680149
 30
0.0
 10
160.6670112417321
 20
110.2799167409236
 30
0.0
 10
160.5169968326243
 20
110.3128912516094
 30
0.0
 10
160.0990684965866
 20
110.4678560492608
 30
0.0
 10
159.8546437550222
 20
110.6494207408966
 30
0.0
 10
159.602659511803
 20
110.9610640215403
 30
0.0
 10
159.5357347449381
 20
111.073603345326
 30
0.0
 10
159.4465114609209
 20
111.2969284216924
 30
0.0
 10
159.4231659881391
 20
111.4098629265578
 30
0.0
 10
159.422788390276
 20
111.7305632521552
 30
0.0
 10
159.5161681773391
 20
111.9177127917658
 30
0.0
 10
159.854912624775
 20
112.1970700307799
 30
0.0
 10
160.0946196324568
 20
112.2890588712519
 30
0.0
 10
160.5145054435517
 20
112.3656625266501
 30
0.0
 10
160.662689405495
 20
112.3805998071564
 30
0.0
 10
160.9634756686642
 20
112.3904317835581
 30
0.0
 10
161.1168993749775
 20
112.3851993697032
 30
0.0
 10
161.409655283208
 20
112.3544033264078
 30
0.0
 10
161.5515641420279
 20
112.3285111987053
 30
0.0
 10
161.8086839567806
 20
112.2557832628501
 30
0.0
 10
161.9267242582887
 20
112.2082363855918
 30
0.0
 10
162.0282655838971
 20
112.1489773828865
 30
0.0
  0
LINE
  5
146
330
1F
100
AcDbEntity
  8
0
  6
HIDDEN
 62
     7
370
     0
100
AcDbLine
 10
158.923039602
 20
104.5770873229
 30
0.0
 11
158.923039602
 21
112.3770873229
 31
0.0
  0
SPLINE
  5
147
330
1F
100
AcDbEntity
  8
0
  6
HIDDEN
 62
     7
370
     0
100
AcDbSpline
210
0.0
220
0.0
230
1.0
 70
     8
 71
     3
 72
     8
 73
     4
 74
     0
 42
0.00000001
 43
0.00000001
 40
0.0
 40
0.0
 40
0.0
 40
0.0
 40
1.0
 40
1.0
 40
1.0
 40
1.0
 10
162.0282655838971
 20
112.1489773828865
 30
0.0
 10
162.0777650759777
 20
112.1200897303218
 30
0.0
 10
162.1234592779329
 20
112.0818919023258
 30
0.0
 10
162.1650736412273
 20
112.0362307092189
 30
0.0
  0
SPLINE
  5
148
330
1F
100
AcDbEntity
  8
0
  6
HIDDEN
 62
     7
370
     0
100
AcDbSpline
210
0.0
220
0.0
230
1.0
 70
     8
 71
     3
 72
    12
 73
     8
 74
     0
 42
0.00000001
 43
0.00000001
 40
0.0
 40
0.0
 40
0.0
 40
0.0
 40
0.2500000000000002
 40
0.2500000000000002
 40
0.5000000000000003
 40
0.5000000000000003
 40
1.0
 40
1.0
 40
1.0
 40
1.0
 10
162.1650736412273
 20
112.0362307092189
 30
0.0
 10
162.2491661888307
 20
111.9439604988638
 30
0.0
 10
162.3129923846168
 20
111.8480746227001
 30
0.0
 10
162.400675808816
 20
111.6449254030223
 30
0.0
 10
162.4229040061277
 20
111.5402270075289
 30
0.0
 10
162.4233089370581
 20
111.2250286221287
 30
0.0
 10
162.3332495773771
 20
111.0135200299343
 30
0.0
 10
162.1650736412273
 20
110.8468178747141
 30
0.0
  0
LINE
  5
149
330
1F
100
AcDbEntity
  8
0
  6
HIDDEN
 62
     7
370
     0
100
AcDbLine
 10
162.923039602
 20
104.4770873229
 30
0.0
 11
162.923039602
 21
112.4770873229
 31
0.0
  0
LINE
  5
14A
330
1F
100
AcDbEntity
  8
0
  6
HIDDEN
 62
     7
370
     0
100
AcDbLine
 10
168.373039602
 20
93.0544375921
 30
0.0
 11
163.373039602
 21
93.0544375921
 31
0.0
  0
LINE
  5
14B
330
1F
100
AcDbEntity
  8
0
  6
HIDDEN
 62
     7
370
     0
100
AcDbLine
 10
165.873039602
 20
123.8997370537
 30
0.0
 11
168.373039602
 21
123.8997370537
 31
0.0
  0
LINE
  5
14C
330
1F
100
AcDbEntity
  8
0
  6
HIDDEN
 62
     7
370
     0
100
AcDbLine
 10
163.373039602
 20
123.8997370537
 30
0.0
 11
165.873039602
 21
123.8997370537
 31
0.0
  0
LINE
  5
14D
330
1F
100
AcDbEntity
  8
0
  6
HIDDEN
 62
     7
370
     0
100
AcDbLine
 10
165.873039602
 20
115.4770873229
 30
0.0
 11
168.373039602
 21
115.4770873229
 31
0.0
  0
LINE
  5
14E
330
1F
100
AcDbEntity
  8
0
  6
HIDDEN
 62
     7
370
     0
100
AcDbLine
 10
163.373039602
 20
115.4770873229
 30
0.0
 11
165.873039602
 21
115.4770873229
 31
0.0
  0
LINE
  5
14F
330
1F
100
AcDbEntity
  8
0
  6
HIDDEN
 62
     7
370
     0
100
AcDbLine
 10
168.373039602
 20
101.4770873229
 30
0.0
 11
163.373039602
 21
101.4770873229
 31
0.0
  0
SPLINE
  5
150
330
1F
100
AcDbEntity
  8
0
  6
HIDDEN
 62
     7
370
     0
100
AcDbSpline
210
0.0
220
0.0
230
1.0
 70
     8
 71
     3
 72
     8
 73
     4
 74
     0
 42
0.00000001
 43
0.00000001
 40
0.0
 40
0.0
 40
0.0
 40
0.0
 40
1.0
 40
1.0
 40
1.0
 40
1.0
 10
162.1650736412273
 20
110.8468178747141
 30
0.0
 10
162.1234592779329
 20
110.8055681917444
 30
0.0
 10
162.0777650759777
 20
110.762172655212
 30
0.0
 10
162.0282655838971
 20
110.7147699160416
 30
0.0
  0
SPLINE
  5
151
330
1F
100
AcDbEntity
  8
0
  6
HIDDEN
 62
     7
370
     0
100
AcDbSpline
210
0.0
220
0.0
230
1.0
 70
     8
 71
     3
 72
    48
 73
    44
 74
     0
 42
0.00000001
 43
0.00000001
 40
-0.0624999999999992
 40
-0.0624999999999992
 40
0.0
 40
0.0
 40
0.0624999999999997
 40
0.0624999999999997
 40
0.1249999999999993
 40
0.1249999999999993
 40
0.1874999999999989
 40
0.1874999999999989
 40
0.2499999999999986
 40
0.2499999999999986
 40
0.3124999999999983
 40
0.3124999999999983
 40
0.3437499999999987
 40
0.3437499999999987
 40
0.374999999999999
 40
0.374999999999999
 40
0.4062499999999994
 40
0.4062499999999994
 40
0.4374999999999998
 40
0.4374999999999998
 40
0.5000000000000003
 40
0.5000000000000003
 40
0.5625000000000009
 40
0.5625000000000009
 40
0.6250000000000014
 40
0.6250000000000014
 40
0.6562500000000016
 40
0.6562500000000016
 40
0.6875000000000018
 40
0.6875000000000018
 40
0.7500000000000013
 40
0.7500000000000013
 40
0.812500000000001
 40
0.812500000000001
 40
0.843750000000001
 40
0.843750000000001
 40
0.8750000000000009
 40
0.8750000000000009
 40
0.9062500000000009
 40
0.9062500000000009
 40
0.9375000000000008
 40
0.9375000000000008
 40
1.0
 40
1.0
 40
1.0625
 40
1.0625
 10
162.2167858110416
 20
114.5225150104794
 30
0.0
 10
162.0536304550512
 20
114.2104908830271
 30
0.0
 10
161.9659265458
 20
114.0611596297274
 30
0.0
 10
161.8139347163491
 20
113.7656755931428
 30
0.0
 10
161.7530470986574
 20
113.6207122661806
 30
0.0
 10
161.7513632622123
 20
113.3694701793207
 30
0.0
 10
161.8098099627159
 20
113.2771745877359
 30
0.0
 10
161.954833032075
 20
113.1543786959153
 30
0.0
 10
162.0403521403356
 20
113.1216187682933
 30
0.0
 10
162.1996444826134
 20
113.1100268809226
 30
0.0
 10
162.2743585243985
 20
113.1317740521487
 30
0.0
 10
162.3580129314491
 20
113.2163306141417
 30
0.0
 10
162.3805762892802
 20
113.2527228423582
 30
0.0
 10
162.4124132626115
 20
113.3426522972379
 30
0.0
 10
162.4215642612284
 20
113.3969007755278
 30
0.0
 10
162.4241760354179
 20
113.5174641284312
 30
0.0
 10
162.4177210480247
 20
113.5855599161357
 30
0.0
 10
162.3905336975483
 20
113.7294490515352
 30
0.0
 10
162.3700139130783
 20
113.8051482868782
 30
0.0
 10
162.2915983435578
 20
114.039497594723
 30
0.0
 10
162.218412349181
 20
114.2002045794708
 30
0.0
 10
162.0614330934582
 20
114.5103507773446
 30
0.0
 10
161.9750577924086
 20
114.6633117638191
 30
0.0
 10
161.8259563381536
 20
114.9572722587319
 30
0.0
 10
161.7612039888856
 20
115.1045173935952
 30
0.0
 10
161.7490314516205
 20
115.2963069093302
 30
0.0
 10
161.7594126794855
 20
115.3534293678967
 30
0.0
 10
161.8030536108382
 20
115.45042466361
 30
0.0
 10
161.8348524851163
 20
115.4892290046776
 30
0.0
 10
161.9449060441783
 20
115.5830295115662
 30
0.0
 10
162.0325725511078
 20
115.6133518216075
 30
0.0
 10
162.1973092187264
 20
115.6185985628472
 30
0.0
 10
162.2726224103806
 20
115.5927430913138
 30
0.0
 10
162.3573363563148
 20
115.5034182192249
 30
0.0
 10
162.3800334242387
 20
115.4658948044694
 30
0.0
 10
162.41228669225
 20
115.3737675966237
 30
0.0
 10
162.4214454338977
 20
115.3193273553616
 30
0.0
 10
162.4242447327308
 20
115.1987296410334
 30
0.0
 10
162.4178507910283
 20
115.1307868358641
 30
0.0
 10
162.390757726946
 20
114.9883298216274
 30
0.0
 10
162.3701359551556
 20
114.9132013786689
 30
0.0
 10
162.2910411388153
 20
114.6813323748105
 30
0.0
 10
162.2167858110416
 20
114.5225150104794
 30
0.0
 10
162.0536304550512
 20
114.2104908830271
 30
0.0
  0
SPLINE
  5
152
330
1F
100
AcDbEntity
  8
0
  6
HIDDEN
 62
     7
370
     0
100
AcDbSpline
210
0.0
220
0.0
230
1.0
 70
     8
 71
     3
 72
    18
 73
    14
 74
     0
 42
0.00000001
 43
0.00000001
 40
0.0
 40
0.0
 40
0.0
 40
0.0
 40
0.249999999999998
 40
0.249999999999998
 40
0.3749999999999982
 40
0.3749999999999982
 40
0.4999999999999984
 40
0.4999999999999984
 40
0.6249999999999987
 40
0.6249999999999987
 40
0.7499999999999989
 40
0.7499999999999989
 40
1.0
 40
1.0
 40
1.0
 40
1.0
 10
159.9692974641589
 20
113.9405792296016
 30
0.0
 10
159.9298490880304
 20
113.9077053355234
 30
0.0
 10
159.8916924075268
 20
113.8768168364284
 30
0.0
 10
159.8414621262927
 20
113.8265824690821
 30
0.0
 10
159.8259328144554
 20
113.8091862858466
 30
0.0
 10
159.8006734104644
 20
113.7679433501428
 30
0.0
 10
159.7911017411546
 20
113.7434777956531
 30
0.0
 10
159.7855176332379
 20
113.6821515574252
 30
0.0
 10
159.7898489800112
 20
113.6447133569035
 30
0.0
 10
159.8072521141036
 20
113.5668299101388
 30
0.0
 10
159.8198611592216
 20
113.5260763518495
 30
0.0
 10
159.8615621060953
 20
113.4049569826566
 30
0.0
 10
159.8948013032952
 20
113.3242174624719
 30
0.0
 10
159.9292893960661
 20
113.2447013324988
 30
0.0
  0
SPLINE
  5
153
330
1F
100
AcDbEntity
  8
0
  6
HIDDEN
 62
     7
370
     0
100
AcDbSpline
210
0.0
220
0.0
230
1.0
 70
     8
 71
     3
 72
    12
 73
     8
 74
     0
 42
0.00000001
 43
0.00000001
 40
0.0
 40
0.0
 40
0.0
 40
0.0
 40
0.4999999999999991
 40
0.4999999999999991
 40
0.7499999999999996
 40
0.7499999999999996
 40
1.0
 40
1.0
 40
1.0
 40
1.0
 10
159.929289396066
 20
113.2447013324987
 30
0.0
 10
160.0120960412992
 20
113.2969238106091
 30
0.0
 10
160.083679485414
 20
113.3835837430162
 30
0.0
 10
160.097446055126
 20
113.5727229132815
 30
0.0
 10
160.0861056156097
 20
113.6419783968271
 30
0.0
 10
160.0401429528238
 20
113.7887018865393
 30
0.0
 10
160.0070472304215
 20
113.8634819516957
 30
0.0
 10
159.9692974641588
 20
113.9405792296017
 30
0.0
  0
LWPOLYLINE
  5
154
330
1F
100
AcDbEntity
  8
0
  6
HIDDEN
 62
     7
370
     0
100
AcDbPolyline
 90
       22
 70
   128
 43
0.0
 10
160.923039602
 20
114.487494963
 10
161.3651723636
 20
114.5346171185
 10
161.7680196891
 20
114.6717965745
 10
162.0957868257
 20
114.8868443344
 10
162.319350225
 20
115.1606524611
 10
162.4188452978
 20
115.4688919009
 10
162.3854314703
 20
115.7841742268
 10
162.2220777077
 20
116.0784852207
 10
161.9432987087
 20
116.3256740591
 10
161.5738652107
 20
116.503776929
 10
161.1466030013
 20
116.5969686088
 10
160.6994762028
 20
116.5969686088
 10
160.2722139933
 20
116.503776929
 10
159.9027804954
 20
116.3256740591
 10
159.6240014963
 20
116.0784852207
 10
159.4606477337
 20
115.7841742268
 10
159.4272339062
 20
115.4688919009
 10
159.5267289791
 20
115.1606524611
 10
159.7502923783
 20
114.8868443344
 10
160.0780595149
 20
114.6717965745
 10
160.4809068404
 20
114.5346171185
 10
160.923039602
 20
114.487494963
  0
SPLINE
  5
155
330
1F
100
AcDbEntity
  8
0
  6
HIDDEN
 62
     7
370
     0
100
AcDbSpline
210
0.0
220
0.0
230
1.0
 70
     8
 71
     3
 72
    34
 73
    30
 74
     0
 42
0.00000001
 43
0.00000001
 40
-0.0625000000000001
 40
-0.0625000000000001
 40
0.0
 40
0.0
 40
0.1249999999999984
 40
0.1249999999999984
 40
0.2499999999999969
 40
0.2499999999999969
 40
0.3124999999999966
 40
0.3124999999999966
 40
0.3437499999999962
 40
0.3437499999999962
 40
0.3749999999999959
 40
0.3749999999999959
 40
0.4374999999999967
 40
0.4374999999999967
 40
0.4999999999999974
 40
0.4999999999999974
 40
0.6249999999999982
 40
0.6249999999999982
 40
0.749999999999999
 40
0.749999999999999
 40
0.8124999999999994
 40
0.8124999999999994
 40
0.8437499999999996
 40
0.8437499999999996
 40
0.8749999999999998
 40
0.8749999999999998
 40
0.9374999999999999
 40
0.9374999999999999
 40
1.0
 40
1.0
 40
1.124999999999998
 40
1.124999999999998
 10
159.4515380127918
 20
114.4255100844698
 30
0.0
 10
159.4246756673823
 20
114.5921332596857
 30
0.0
 10
159.418444932466
 20
114.6897034973499
 30
0.0
 10
159.4355870700981
 20
114.8250387407865
 30
0.0
 10
159.4586811220566
 20
114.863363671946
 30
0.0
 10
159.4960682410675
 20
114.8688843890278
 30
0.0
 10
159.5097197121904
 20
114.8625345714348
 30
0.0
 10
159.5215831584875
 20
114.8258284767778
 30
0.0
 10
159.5237933714309
 20
114.8083728595851
 30
0.0
 10
159.5224186890847
 20
114.763430916045
 30
0.0
 10
159.5188553267453
 20
114.7361099820869
 30
0.0
 10
159.5039647240514
 20
114.6513371390409
 30
0.0
 10
159.4895487142628
 20
114.5912804044706
 30
0.0
 10
159.463684988812
 20
114.4744376426402
 30
0.0
 10
159.4519678724313
 20
114.4180700094296
 30
0.0
 10
159.4247202787573
 20
114.2556653957799
 30
0.0
 10
159.4184472567213
 20
114.1584150447655
 30
0.0
 10
159.4356086406592
 20
114.0195687079129
 30
0.0
 10
159.4590552863457
 20
113.9745547206338
 30
0.0
 10
159.4984785678829
 20
113.9631479941819
 30
0.0
 10
159.512770941391
 20
113.9684396774785
 30
0.0
 10
159.5230469026647
 20
114.0099393410554
 30
0.0
 10
159.5240921291354
 20
114.0299610397915
 30
0.0
 10
159.5207155908728
 20
114.0782139098332
 30
0.0
 10
159.5165310080269
 20
114.1061060271185
 30
0.0
 10
159.5011272712758
 20
114.1915528617309
 30
0.0
 10
159.4876316456906
 20
114.2508876446602
 30
0.0
 10
159.4628400518472
 20
114.3685267696632
 30
0.0
 10
159.4515380127918
 20
114.4255100844698
 30
0.0
 10
159.4246756673823
 20
114.5921332596857
 30
0.0
  0
SPLINE
  5
156
330
1F
100
AcDbEntity
  8
0
  6
HIDDEN
 62
     7
370
     0
100
AcDbSpline
210
0.0
220
0.0
230
1.0
 70
     8
 71
     3
 72
    14
 73
    10
 74
     0
 42
0.00000001
 43
0.00000001
 40
0.0
 40
0.0
 40
0.0
 40
0.0
 40
0.25
 40
0.25
 40
0.5
 40
0.5
 40
0.75
 40
0.75
 40
1.0
 40
1.0
 40
1.0
 40
1.0
 10
159.929289396066
 20
114.8337013502288
 30
0.0
 10
159.8947249696636
 20
114.8701607439987
 30
0.0
 10
159.8613347659155
 20
114.9051332752257
 30
0.0
 10
159.8057380202507
 20
114.9837196634166
 30
0.0
 10
159.7826056925203
 20
115.0287293608216
 30
0.0
 10
159.7940419820533
 20
115.1719817418603
 30
0.0
 10
159.8250855626046
 20
115.2571500696188
 30
0.0
 10
159.891941671545
 20
115.419145959374
 30
0.0
 10
159.9299437999052
 20
115.4992367098961
 30
0.0
 10
159.9692974641567
 20
115.5778794063997
 30
0.0
  0
SPLINE
  5
157
330
1F
100
AcDbEntity
  8
0
  6
HIDDEN
 62
     7
370
     0
100
AcDbSpline
210
0.0
220
0.0
230
1.0
 70
     8
 71
     3
 72
    14
 73
    10
 74
     0
 42
0.00000001
 43
0.00000001
 40
0.0
 40
0.0
 40
0.0
 40
0.0
 40
0.25
 40
0.25
 40
0.5
 40
0.5
 40
0.75
 40
0.75
 40
1.0
 40
1.0
 40
1.0
 40
1.0
 10
159.9692974641589
 20
115.5778794064014
 30
0.0
 10
160.0070444417461
 20
115.5447637344777
 30
0.0
 10
160.0401436339463
 20
115.504094076713
 30
0.0
 10
160.0861140878528
 20
115.4028233940161
 30
0.0
 10
160.0973420587742
 20
115.3441778143395
 30
0.0
 10
160.0884881573564
 20
115.2105060655111
 30
0.0
 10
160.0684687075816
 20
115.1380180993462
 30
0.0
 10
160.0089110137152
 20
114.9877355267347
 30
0.0
 10
159.9707448104137
 20
114.911697330575
 30
0.0
 10
159.929289396066
 20
114.8337013502287
 30
0.0
  0
ARC
  5
158
330
1F
100
AcDbEntity
  8
0
  6
HIDDEN
 62
     7
370
     0
100
AcDbCircle
 10
176.0593725207
 20
114.3396896704
 30
0.0
 40
16.13764633236865
100
AcDbArc
 50
175.5995541952
 51
178.2457660564
  0
SPLINE
  5
159
330
1F
100
AcDbEntity
  8
0
  6
HIDDEN
 62
     7
370
     0
100
AcDbSpline
210
0.0
220
0.0
230
1.0
 70
     8
 71
     3
 72
     8
 73
     4
 74
     0
 42
0.00000001
 43
0.00000001
 40
0.0
 40
0.0
 40
0.0
 40
0.0
 40
0.000159097695343
 40
0.000159097695343
 40
0.000159097695343
 40
0.000159097695343
 10
100.3082076112348
 20
92.67559688689171
 30
0.0
 10
100.2631561407305
 20
92.64761800256794
 30
0.0
 10
100.2181001023157
 20
92.61964647219287
 30
0.0
 10
100.1730396020168
 20
92.59168213284035
 30
0.0
  0
SPLINE
  5
15A
330
1F
100
AcDbEntity
  8
0
  6
HIDDEN
 62
     7
370
     0
100
AcDbSpline
210
0.0
220
0.0
230
1.0
 70
     8
 71
     3
 72
    11
 73
     7
 74
     0
 42
0.00000001
 43
0.00000001
 40
0.0
 40
0.0
 40
0.0
 40
0.0
 40
0.0008212909311456
 40
0.0008212909311456
 40
0.0008212909311456
 40
0.001642825724306
 40
0.001642825724306
 40
0.001642825724306
 40
0.001642825724306
 10
100.1730396020168
 20
92.59168213284035
 30
0.0
 10
99.98189458053461
 20
92.54839594398779
 30
0.0
 10
99.79047624485814
 20
92.50745943435051
 30
0.0
 10
99.59883017019699
 20
92.46885766296393
 30
0.0
 10
99.4071270886554
 20
92.43024440912684
 30
0.0
 10
99.21518196536988
 20
92.39396419984084
 30
0.0
 10
99.02303960201671
 20
92.35999729348931
 30
0.0
  0
ARC
  5
15B
330
1F
100
AcDbEntity
  8
0
  6
HIDDEN
 62
     7
370
     0
100
AcDbCircle
 10
146.9106283902
 20
114.3422715036
 30
0.0
 40
13.06484575750377
100
AcDbArc
 50
355.1809346774
 51
358.2381039881
  0
LINE
  5
15C
330
1F
100
AcDbEntity
  8
0
  6
HIDDEN
 62
     7
370
     0
100
AcDbLine
 10
147.013039602
 20
128.6591045415
 30
0.0
 11
147.013039602
 21
128.3270873229
 31
0.0
  0
LINE
  5
15D
330
1F
100
AcDbEntity
  8
0
  6
HIDDEN
 62
     7
370
     0
100
AcDbLine
 10
150.833039602
 20
128.6591045414
 30
0.0
 11
150.833039602
 21
128.3270873229
 31
0.0
  0
LINE
  5
15E
330
1F
100
AcDbEntity
  8
0
  6
HIDDEN
 62
     7
370
     0
100
AcDbLine
 10
152.3149724335
 20
132.9357769853
 30
0.0
 11
152.3149724335
 21
128.3270873229
 31
0.0
  0
SPLINE
  5
15F
330
1F
100
AcDbEntity
  8
0
  6
HIDDEN
 62
     7
370
     0
100
AcDbSpline
210
0.0
220
0.0
230
1.0
 70
     8
 71
     3
 72
    24
 73
    20
 74
     0
 42
0.00000001
 43
0.00000001
 40
0.0
 40
0.0
 40
0.0
 40
0.0
 40
0.25
 40
0.25
 40
0.374999999999999
 40
0.374999999999999
 40
0.4374999999999993
 40
0.4374999999999993
 40
0.4687499999999994
 40
0.4687499999999994
 40
0.4999999999999995
 40
0.4999999999999995
 40
0.5624999999999971
 40
0.5624999999999971
 40
0.6249999999999947
 40
0.6249999999999947
 40
0.7499999999999947
 40
0.7499999999999947
 40
1.0
 40
1.0
 40
1.0
 40
1.0
 10
99.08570297674018
 20
88.80253477814263
 30
0.0
 10
99.09945609541043
 20
88.8731848361329
 30
0.0
 10
99.11722866281629
 20
88.93978294889784
 30
0.0
 10
99.16947975437165
 20
89.01388096913104
 30
0.0
 10
99.1905148299532
 20
89.0351387762926
 30
0.0
 10
99.24341523758164
 20
89.04328470243884
 30
0.0
 10
99.26452091045957
 20
89.04234489904307
 30
0.0
 10
99.31057307913751
 20
89.02132890746573
 30
0.0
 10
99.32894355112091
 20
89.01042010135811
 30
0.0
 10
99.37049518618663
 20
88.97778519041074
 30
0.0
 10
99.39306185894353
 20
88.95629321003936
 30
0.0
 10
99.45584287540355
 20
88.88782726645306
 30
0.0
 10
99.48897263637144
 20
88.84175280824796
 30
0.0
 10
99.54589032285647
 20
88.7567449199133
 30
0.0
 10
99.57007634836023
 20
88.71646461873192
 30
0.0
 10
99.63528429873999
 20
88.60152839226596
 30
0.0
 10
99.67000035893123
 20
88.53094540711896
 30
0.0
 10
99.7632156292621
 20
88.32673964804036
 30
0.0
 10
99.80888816462279
 20
88.203841265713
 30
0.0
 10
99.84719324812133
 20
88.08696798932542
 30
0.0
  0
SPLINE
  5
160
330
1F
100
AcDbEntity
  8
0
  6
HIDDEN
 62
     7
370
     0
100
AcDbSpline
210
0.0
220
0.0
230
1.0
 70
     8
 71
     3
 72
    11
 73
     7
 74
     0
 42
0.00000001
 43
0.00000001
 40
0.0
 40
0.0
 40
0.0
 40
0.0
 40
0.0005781862223978
 40
0.0005781862223978
 40
0.0005781862223978
 40
0.0011563724723928
 40
0.0011563724723928
 40
0.0011563724723928
 40
0.0011563724723928
 10
100.0230396020168
 20
121.1172296299701
 30
0.0
 10
99.85637904774117
 20
121.1817591413837
 30
0.0
 10
99.68971575083468
 20
121.2462618452275
 30
0.0
 10
99.52304916700444
 20
121.3107482936611
 30
0.0
 10
99.35638257474535
 20
121.3752347453561
 30
0.0
 10
99.18971270911949
 20
121.4397047540842
 30
0.0
 10
99.02303960201675
 20
121.5041605208168
 30
0.0
  0
SPLINE
  5
161
330
1F
100
AcDbEntity
  8
0
  6
HIDDEN
 62
     7
370
     0
100
AcDbSpline
210
0.0
220
0.0
230
1.0
 70
     8
 71
     3
 72
    11
 73
     7
 74
     0
 42
0.00000001
 43
0.00000001
 40
0.0
 40
0.0
 40
0.0
 40
0.0
 40
0.0005778746105108
 40
0.0005778746105108
 40
0.0005778746105108
 40
0.0011557494857226
 40
0.0011557494857226
 40
0.0011557494857226
 40
0.0011557494857226
 10
99.02303960201677
 20
95.44986546743347
 30
0.0
 10
99.1897064784301
 20
95.51567759412734
 30
0.0
 10
99.35637319799156
 20
95.58153607426493
 30
0.0
 10
99.5230398460402
 20
95.64744364719557
 30
0.0
 10
99.68970657055887
 20
95.71335125036593
 30
0.0
 10
99.85637326497945
 20
95.77930835875445
 30
0.0
 10
100.0230396020168
 20
95.84531009867715
 30
0.0
  0
SPLINE
  5
162
330
1F
100
AcDbEntity
  8
0
  6
HIDDEN
 62
     7
370
     0
100
AcDbSpline
210
0.0
220
0.0
230
1.0
 70
     8
 71
     3
 72
    11
 73
     7
 74
     0
 42
0.00000001
 43
0.00000001
 40
0.0000000000000006
 40
0.0000000000000006
 40
0.0000000000000006
 40
0.0000000000000006
 40
0.0005780486062768
 40
0.0005780486062768
 40
0.0005780486062768
 40
0.0011560973514127
 40
0.0011560973514127
 40
0.0011560973514127
 40
0.0011560973514127
 10
99.02303960201677
 20
118.4579018246151
 30
0.0
 10
99.18970945806169
 20
118.3955299631006
 30
0.0
 10
99.35637716214595
 20
118.3331761028029
 30
0.0
 10
99.5230434665996
 20
118.2708565426169
 30
0.0
 10
99.68970980729333
 20
118.2085369688799
 30
0.0
 10
99.85637476392212
 20
118.1462517645603
 30
0.0
 10
100.0230396020168
 20
118.0840266439917
 30
0.0
  0
SPLINE
  5
163
330
1F
100
AcDbEntity
  8
0
  6
HIDDEN
 62
     7
370
     0
100
AcDbSpline
210
0.0
220
0.0
230
1.0
 70
     8
 71
     3
 72
    11
 73
     7
 74
     0
 42
0.00000001
 43
0.00000001
 40
0.0
 40
0.0
 40
0.0
 40
0.0
 40
0.0005782401583533
 40
0.0005782401583533
 40
0.0005782401583533
 40
0.0011564805960993
 40
0.0011564805960993
 40
0.0011564805960993
 40
0.0011564805960993
 10
100.0230396020168
 20
98.87626053052571
 30
0.0
 10
99.85638865166787
 20
98.81283507246492
 30
0.0
 10
99.68972905908521
 20
98.74947954880963
 30
0.0
 10
99.52306200665666
 20
98.68618196445966
 30
0.0
 10
99.35639487009284
 20
98.62288434815642
 30
0.0
 10
99.1897202626468
 20
98.55964455321573
 30
0.0
 10
99.02303960201672
 20
98.49644454657691
 30
0.0
  0
CIRCLE
  5
164
330
1F
100
AcDbEntity
  8
0
  6
HIDDEN
 62
     7
370
     0
100
AcDbCircle
 10
137.923039602
 20
108.4770873229
 30
0.0
 40
5.0
  0
LINE
  5
165
330
1F
100
AcDbEntity
  8
0
  6
HIDDEN
 62
     7
370
     0
100
AcDbLine
 10
195.6921659376
 20
111.9344072244
 30
0.0
 11
195.8613943247
 21
112.2099890811
 31
0.0
  0
LINE
  5
166
330
1F
100
AcDbEntity
  8
0
  6
HIDDEN
 62
     7
370
     0
100
AcDbLine
 10
195.923039602
 20
114.6563574276
 30
0.0
 11
195.7753842517
 21
114.9297787651
 31
0.0
  0
LINE
  5
167
330
1F
100
AcDbEntity
  8
0
  6
HIDDEN
 62
     7
370
     0
100
AcDbLine
 10
195.7734302228
 20
114.9315700646
 30
0.0
 11
190.4394924189
 21
115.0797591307
 31
0.0
  0
LINE
  5
168
330
1F
100
AcDbEntity
  8
0
  6
HIDDEN
 62
     7
370
     0
100
AcDbLine
 10
190.3561776629
 20
112.0809162453
 30
0.0
 11
195.6901154668
 21
111.9327271792
 31
0.0
  0
LINE
  5
169
330
1F
100
AcDbEntity
  8
0
  6
HIDDEN
 62
     7
370
     0
100
AcDbLine
 10
190.4383203519
 20
115.0792129129
 30
0.0
 11
189.9252107301
 21
114.5934682789
 31
0.0
  0
LINE
  5
16A
330
1F
100
AcDbEntity
  8
0
  6
HIDDEN
 62
     7
370
     0
100
AcDbLine
 10
189.8696889827
 20
112.5950108008
 30
0.0
 11
190.3550377308
 21
112.0815266957
 31
0.0
  0
LINE
  5
16B
330
1F
100
AcDbEntity
  8
0
  6
HIDDEN
 62
     7
370
     0
100
AcDbLine
 10
190.4139274545
 20
104.8742840422
 30
0.0
 11
189.9285787064
 21
104.3607999371
 31
0.0
  0
LINE
  5
16C
330
1F
100
AcDbEntity
  8
0
  6
HIDDEN
 62
     7
370
     0
100
AcDbLine
 10
189.9841004537
 20
102.362342459
 30
0.0
 11
190.4972100755
 21
101.876597825
 31
0.0
  0
LINE
  5
16D
330
1F
100
AcDbEntity
  8
0
  6
HIDDEN
 62
     7
370
     0
100
AcDbLine
 10
195.7490051904
 20
105.0230835587
 30
0.0
 11
190.4150673865
 21
104.8748944926
 31
0.0
  0
LINE
  5
16E
330
1F
100
AcDbEntity
  8
0
  6
HIDDEN
 62
     7
370
     0
100
AcDbLine
 10
190.4983821425
 20
101.8760516072
 30
0.0
 11
195.8323199464
 21
102.0242406733
 31
0.0
  0
LINE
  5
16F
330
1F
100
AcDbEntity
  8
0
  6
HIDDEN
 62
     7
370
     0
100
AcDbLine
 10
195.8342739753
 20
102.0260319728
 30
0.0
 11
195.923039602
 21
102.1904040482
 31
0.0
  0
LINE
  5
170
330
1F
100
AcDbEntity
  8
0
  6
HIDDEN
 62
     7
370
     0
100
AcDbLine
 10
195.9202840483
 20
104.7458216568
 30
0.0
 11
195.7510556613
 21
105.0214035134
 31
0.0
  0
LINE
  5
171
330
1F
100
AcDbEntity
  8
0
  6
HIDDEN
 62
     7
370
     0
100
AcDbLine
 10
134.923039602
 20
122.7777524269
 30
0.0
 11
134.923039602
 21
120.8710279658
 31
0.0
  0
LINE
  5
172
330
1F
100
AcDbEntity
  8
0
  6
HIDDEN
 62
     7
370
     0
100
AcDbLine
 10
142.923039602
 20
120.8710279658
 30
0.0
 11
142.923039602
 21
122.7770317831
 31
0.0
  0
LINE
  5
173
330
1F
100
AcDbEntity
  8
0
  6
HIDDEN
 62
     7
370
     0
100
AcDbLine
 10
130.923039602
 20
83.1531561769
 30
0.0
 11
131.0172003775
 21
83.8231449082
 31
0.0
  0
LINE
  5
174
330
1F
100
AcDbEntity
  8
0
  6
HIDDEN
 62
     7
370
     0
100
AcDbLine
 10
131.0172003775
 20
133.1310297377
 30
0.0
 11
130.923039602
 21
133.8010184689
 31
0.0
  0
ARC
  5
175
330
1F
100
AcDbEntity
  8
0
  6
HIDDEN
 62
     7
370
     0
100
AcDbCircle
 10
130.4230328493
 20
83.9066497085
 30
0.0
 40
0.6000067526677062
100
AcDbArc
 50
352.0
 51
0.0
  0
ARC
  5
176
330
1F
100
AcDbEntity
  8
0
  6
HIDDEN
 62
     7
370
     0
100
AcDbCircle
 10
130.4230328493
 20
83.9066497085
 30
0.0
 40
0.6000067526677124
100
AcDbArc
 50
0.0
 51
33.5571153394
  0
ARC
  5
177
330
1F
100
AcDbEntity
  8
0
  6
HIDDEN
 62
     7
370
     0
100
AcDbCircle
 10
130.4230328493
 20
133.0475249373
 30
0.0
 40
0.6000067526677042
100
AcDbArc
 50
348.75
 51
8.0
  0
LWPOLYLINE
  5
178
330
1F
100
AcDbEntity
  8
0
  6
HIDDEN
 62
     7
370
     0
100
AcDbPolyline
 90
        3
 70
   128
 43
0.0
 10
131.0115106405
 20
132.9304694267
 10
130.9773668075
 20
132.8179122938
 10
130.923039602
 20
132.7158604223
  0
LINE
  5
179
330
1F
100
AcDbEntity
  8
0
  6
HIDDEN
 62
     7
370
     0
100
AcDbLine
 10
131.023039602
 20
83.9066497085
 30
0.0
 11
131.023039602
 21
133.0475249373
 31
0.0
  0
ARC
  5
17A
330
1F
100
AcDbEntity
  8
0
  6
HIDDEN
 62
     7
370
     0
100
AcDbCircle
 10
114.0054751673
 20
89.0770873229
 30
0.0
 40
0.5999999999999962
100
AcDbArc
 50
210.0
 51
270.0
  0
ARC
  5
17B
330
1F
100
AcDbEntity
  8
0
  6
HIDDEN
 62
     7
370
     0
100
AcDbCircle
 10
114.0054751673
 20
127.8770873229
 30
0.0
 40
0.5999999999999943
100
AcDbArc
 50
90.0
 51
150.0
  0
ARC
  5
17C
330
1F
100
AcDbEntity
  8
0
  6
HIDDEN
 62
     7
370
     0
100
AcDbCircle
 10
124.6780416036
 20
96.4770873229
 30
0.0
 40
7.999999999999996
100
AcDbArc
 50
277.1432160558
 51
321.3178125465
  0
ARC
  5
17D
330
1F
100
AcDbEntity
  8
0
  6
HIDDEN
 62
     7
370
     0
100
AcDbCircle
 10
124.6780416036
 20
120.4770873229
 30
0.0
 40
7.999999999999998
100
AcDbArc
 50
38.6821874535
 51
82.8655119288
  0
LINE
  5
17E
330
1F
100
AcDbEntity
  8
0
  6
HIDDEN
 62
     7
370
     0
100
AcDbLine
 10
114.0054751673
 20
88.4770873229
 30
0.0
 11
118.1761569832
 21
88.4770873229
 31
0.0
  0
LINE
  5
17F
330
1F
100
AcDbEntity
  8
0
  6
HIDDEN
 62
     7
370
     0
100
AcDbLine
 10
118.1761569832
 20
128.4770873229
 30
0.0
 11
114.0054751673
 21
128.4770873229
 31
0.0
  0
LINE
  5
180
330
1F
100
AcDbEntity
  8
0
  6
HIDDEN
 62
     7
370
     0
100
AcDbLine
 10
113.485859925
 20
128.1770873229
 30
0.0
 11
111.9270141982
 21
125.4770873229
 31
0.0
  0
LINE
  5
181
330
1F
100
AcDbEntity
  8
0
  6
HIDDEN
 62
     7
370
     0
100
AcDbLine
 10
111.9270141982
 20
91.4770873229
 30
0.0
 11
113.485859925
 21
88.7770873229
 31
0.0
  0
LINE
  5
182
330
1F
100
AcDbEntity
  8
0
  6
HIDDEN
 62
     7
370
     0
100
AcDbLine
 10
142.923039602
 20
132.4226897376
 30
0.0
 11
142.923039602
 21
135.7555876762
 31
0.0
  0
LINE
  5
183
330
1F
100
AcDbEntity
  8
0
  6
HIDDEN
 62
     7
370
     0
100
AcDbLine
 10
134.923039602
 20
135.7568875421
 30
0.0
 11
134.923039602
 21
132.4226897376
 31
0.0
  0
ARC
  5
184
330
1F
100
AcDbEntity
  8
0
  6
HIDDEN
 62
     7
370
     0
100
AcDbCircle
 10
139.373039602
 20
92.7520873229
 30
0.0
 40
1.500000000000004
100
AcDbArc
 50
238.2116693829
 51
0.0
  0
ARC
  5
185
330
1F
100
AcDbEntity
  8
0
  6
HIDDEN
 62
     7
370
     0
100
AcDbCircle
 10
139.373039602
 20
124.2020873229
 30
0.0
 40
1.500000000000004
100
AcDbArc
 50
0.0
 51
121.7883306171
  0
LINE
  5
186
330
1F
100
AcDbEntity
  8
0
  6
HIDDEN
 62
     7
370
     0
100
AcDbLine
 10
130.923039602
 20
91.4770873229
 30
0.0
 11
138.5828655706
 21
91.4770873229
 31
0.0
  0
LINE
  5
187
330
1F
100
AcDbEntity
  8
0
  6
HIDDEN
 62
     7
370
     0
100
AcDbLine
 10
138.5828655706
 20
125.4770873229
 30
0.0
 11
130.923039602
 21
125.4770873229
 31
0.0
  0
LINE
  5
188
330
1F
100
AcDbEntity
  8
0
  6
HIDDEN
 62
     7
370
     0
100
AcDbLine
 10
109.123039602
 20
91.4770873229
 30
0.0
 11
111.9270141982
 21
91.4770873229
 31
0.0
  0
LINE
  5
189
330
1F
100
AcDbEntity
  8
0
  6
HIDDEN
 62
     7
370
     0
100
AcDbLine
 10
111.9270141982
 20
125.4770873229
 30
0.0
 11
105.123039602
 21
125.4770873229
 31
0.0
  0
LINE
  5
18A
330
1F
100
AcDbEntity
  8
0
  6
HIDDEN
 62
     7
370
     0
100
AcDbLine
 10
149.723039602
 20
98.9770873229
 30
0.0
 11
152.723039602
 21
98.9770873229
 31
0.0
  0
LINE
  5
18B
330
1F
100
AcDbEntity
  8
0
  6
HIDDEN
 62
     7
370
     0
100
AcDbLine
 10
152.723039602
 20
117.9770873229
 30
0.0
 11
149.723039602
 21
117.9770873229
 31
0.0
  0
LINE
  5
18C
330
1F
100
AcDbEntity
  8
0
  6
HIDDEN
 62
     7
370
     0
100
AcDbLine
 10
140.873039602
 20
99.4770873229
 30
0.0
 11
141.373039602
 21
99.9770873229
 31
0.0
  0
LINE
  5
18D
330
1F
100
AcDbEntity
  8
0
  6
HIDDEN
 62
     7
370
     0
100
AcDbLine
 10
141.373039602
 20
116.9770873229
 30
0.0
 11
140.873039602
 21
117.4770873229
 31
0.0
  0
LINE
  5
18E
330
1F
100
AcDbEntity
  8
0
  6
HIDDEN
 62
     7
370
     0
100
AcDbLine
 10
141.373039602
 20
99.9770873229
 30
0.0
 11
149.723039602
 21
99.9770873229
 31
0.0
  0
LINE
  5
18F
330
1F
100
AcDbEntity
  8
0
  6
HIDDEN
 62
     7
370
     0
100
AcDbLine
 10
149.723039602
 20
116.9770873229
 30
0.0
 11
141.373039602
 21
116.9770873229
 31
0.0
  0
LINE
  5
190
330
1F
100
AcDbEntity
  8
0
  6
HIDDEN
 62
     7
370
     0
100
AcDbLine
 10
162.423039602
 20
103.4727782838
 30
0.0
 11
162.423039602
 21
105.5198654498
 31
0.0
  0
LINE
  5
191
330
1F
100
AcDbEntity
  8
0
  6
HIDDEN
 62
     7
370
     0
100
AcDbLine
 10
162.423039602
 20
101.4060195111
 30
0.0
 11
162.423039602
 21
101.7139775736
 31
0.0
  0
LINE
  5
192
330
1F
100
AcDbEntity
  8
0
  6
HIDDEN
 62
     7
370
     0
100
AcDbLine
 10
159.423039602
 20
102.2679989749
 30
0.0
 11
159.423039602
 21
101.4060195111
 31
0.0
  0
LINE
  5
193
330
1F
100
AcDbEntity
  8
0
  6
HIDDEN
 62
     7
370
     0
100
AcDbLine
 10
159.423039602
 20
105.4398100656
 30
0.0
 11
159.423039602
 21
102.7941865391
 31
0.0
  0
LINE
  5
194
330
1F
100
AcDbEntity
  8
0
  6
HIDDEN
 62
     7
370
     0
100
AcDbLine
 10
135.873039602
 20
139.9770873229
 30
0.0
 11
135.873039602
 21
134.8770873229
 31
0.0
  0
LINE
  5
195
330
1F
100
AcDbEntity
  8
0
  6
HIDDEN
 62
     7
370
     0
100
AcDbLine
 10
162.135208133
 20
101.3381538302
 30
0.0
 11
195.923039602
 21
102.2768575375
 31
0.0
  0
LINE
  5
196
330
1F
100
AcDbEntity
  8
0
  6
HIDDEN
 62
     7
370
     0
100
AcDbLine
 10
195.923039602
 20
104.7778221717
 30
0.0
 11
162.1337958204
 21
103.8390792271
 31
0.0
  0
LINE
  5
197
330
1F
100
AcDbEntity
  8
0
  6
HIDDEN
 62
     7
370
     0
100
AcDbLine
 10
159.4496448551
 20
102.9501271253
 30
0.0
 11
159.2002975758
 21
102.5070975785
 31
0.0
  0
LINE
  5
198
330
1F
100
AcDbEntity
  8
0
  6
HIDDEN
 62
     7
370
     0
100
AcDbLine
 10
159.2002975758
 20
102.5070975785
 30
0.0
 11
159.4503520542
 21
102.1154150685
 31
0.0
  0
LINE
  5
199
330
1F
100
AcDbEntity
  8
0
  6
HIDDEN
 62
     7
370
     0
100
AcDbLine
 10
126.1074774325
 20
84.3977159894
 30
0.0
 11
125.673045283
 21
84.8767820085
 31
0.0
  0
LINE
  5
19A
330
1F
100
AcDbEntity
  8
0
  6
HIDDEN
 62
     7
370
     0
100
AcDbLine
 10
118.1730419579
 20
85.2984699676
 30
0.0
 11
117.6906082146
 21
84.8194039922
 31
0.0
  0
LINE
  5
19B
330
1F
100
AcDbEntity
  8
0
  6
HIDDEN
 62
     7
370
     0
100
AcDbLine
 10
117.6904862863
 20
132.1347653633
 30
0.0
 11
118.1730370373
 21
131.6556451053
 31
0.0
  0
LINE
  5
19C
330
1F
100
AcDbEntity
  8
0
  6
HIDDEN
 62
     7
370
     0
100
AcDbLine
 10
125.673039484
 20
132.077342883
 30
0.0
 11
126.1075818744
 21
132.5564631336
 31
0.0
  0
ARC
  5
19D
330
1F
100
AcDbEntity
  8
0
  6
HIDDEN
 62
     7
370
     0
100
AcDbCircle
 10
195.623039602
 20
104.1770873229
 30
0.0
 40
0.2999999999999972
100
AcDbArc
 50
0.0
 51
90.0
  0
ARC
  5
19E
330
1F
100
AcDbEntity
  8
0
  6
HIDDEN
 62
     7
370
     0
100
AcDbCircle
 10
195.623039602
 20
112.7770873229
 30
0.0
 40
0.2999999999999972
100
AcDbArc
 50
270.0
 51
0.0
  0
LINE
  5
19F
330
1F
100
AcDbEntity
  8
0
  6
HIDDEN
 62
     7
370
     0
100
AcDbLine
 10
159.323039602
 20
104.1770873229
 30
0.0
 11
162.0282655839
 21
104.1770873229
 31
0.0
  0
LINE
  5
1A0
330
1F
100
AcDbEntity
  8
0
  6
HIDDEN
 62
     7
370
     0
100
AcDbLine
 10
162.0282655839
 20
112.7770873229
 30
0.0
 11
159.323039602
 21
112.7770873229
 31
0.0
  0
ARC
  5
1A1
330
1F
100
AcDbEntity
  8
0
  6
HIDDEN
 62
     7
370
     0
100
AcDbCircle
 10
159.323039602
 20
104.5770873229
 30
0.0
 40
0.3999999999999915
100
AcDbArc
 50
180.0
 51
270.0
  0
ARC
  5
1A2
330
1F
100
AcDbEntity
  8
0
  6
HIDDEN
 62
     7
370
     0
100
AcDbCircle
 10
159.323039602
 20
112.3770873229
 30
0.0
 40
0.3999999999999915
100
AcDbArc
 50
90.0
 51
180.0
  0
ARC
  5
1A3
330
1F
100
AcDbEntity
  8
0
  6
HIDDEN
 62
     7
370
     0
100
AcDbCircle
 10
162.0282655839
 20
112.3770873229
 30
0.0
 40
0.3999999999999915
100
AcDbArc
 50
70.0
 51
90.0
  0
LINE
  5
1A4
330
1F
100
AcDbEntity
  8
0
  6
HIDDEN
 62
     7
370
     0
100
AcDbLine
 10
162.1650736412
 20
104.2012102746
 30
0.0
 11
162.923039602
 21
104.4770873229
 31
0.0
  0
LINE
  5
1A5
330
1F
100
AcDbEntity
  8
0
  6
HIDDEN
 62
     7
370
     0
100
AcDbLine
 10
162.923039602
 20
112.4770873229
 30
0.0
 11
162.1650736412
 21
112.7529643712
 31
0.0
  0
LINE
  5
1A6
330
1F
100
AcDbEntity
  8
0
  6
HIDDEN
 62
     7
370
     0
100
AcDbLine
 10
162.923039602
 20
104.4770873229
 30
0.0
 11
195.623039602
 21
104.4770873229
 31
0.0
  0
LINE
  5
1A7
330
1F
100
AcDbEntity
  8
0
  6
HIDDEN
 62
     7
370
     0
100
AcDbLine
 10
195.623039602
 20
112.4770873229
 30
0.0
 11
162.923039602
 21
112.4770873229
 31
0.0
  0
LINE
  5
1A8
330
1F
100
AcDbEntity
  8
0
  6
HIDDEN
 62
     7
370
     0
100
AcDbLine
 10
125.673039602
 20
84.8770369746
 30
0.0
 11
125.673039602
 21
88.5392511323
 31
0.0
  0
LINE
  5
1A9
330
1F
100
AcDbEntity
  8
0
  6
HIDDEN
 62
     7
370
     0
100
AcDbLine
 10
118.173039602
 20
88.4776715842
 30
0.0
 11
118.173039602
 21
85.2986513927
 31
0.0
  0
LINE
  5
1AA
330
1F
100
AcDbEntity
  8
0
  6
HIDDEN
 62
     7
370
     0
100
AcDbLine
 10
125.673039602
 20
128.4149235136
 30
0.0
 11
125.673039602
 21
132.0770515769
 31
0.0
  0
LINE
  5
1AB
330
1F
100
AcDbEntity
  8
0
  6
HIDDEN
 62
     7
370
     0
100
AcDbLine
 10
118.173039602
 20
131.6555013261
 30
0.0
 11
118.173039602
 21
128.4765030617
 31
0.0
  0
LINE
  5
1AC
330
1F
100
AcDbEntity
  8
0
  6
HIDDEN
 62
     7
370
     0
100
AcDbLine
 10
169.373039602
 20
92.4770873229
 30
0.0
 11
168.373039602
 21
93.0544375921
 31
0.0
  0
LINE
  5
1AD
330
1F
100
AcDbEntity
  8
0
  6
HIDDEN
 62
     7
370
     0
100
AcDbLine
 10
163.373039602
 20
93.0544375921
 30
0.0
 11
162.373039602
 21
92.4770873229
 31
0.0
  0
LINE
  5
1AE
330
1F
100
AcDbEntity
  8
0
  6
HIDDEN
 62
     7
370
     0
100
AcDbLine
 10
162.373039602
 20
124.4770873229
 30
0.0
 11
163.373039602
 21
123.8997370537
 31
0.0
  0
LINE
  5
1AF
330
1F
100
AcDbEntity
  8
0
  6
HIDDEN
 62
     7
370
     0
100
AcDbLine
 10
168.373039602
 20
123.8997370537
 30
0.0
 11
169.373039602
 21
124.4770873229
 31
0.0
  0
LINE
  5
1B0
330
1F
100
AcDbEntity
  8
0
  6
HIDDEN
 62
     7
370
     0
100
AcDbLine
 10
163.373039602
 20
123.8997370537
 30
0.0
 11
163.373039602
 21
115.4770873229
 31
0.0
  0
LINE
  5
1B1
330
1F
100
AcDbEntity
  8
0
  6
HIDDEN
 62
     7
370
     0
100
AcDbLine
 10
168.373039602
 20
115.4770873229
 30
0.0
 11
168.373039602
 21
123.8997370537
 31
0.0
  0
LINE
  5
1B2
330
1F
100
AcDbEntity
  8
0
  6
HIDDEN
 62
     7
370
     0
100
AcDbLine
 10
152.723039602
 20
105.9770873229
 30
0.0
 11
158.923039602
 21
105.9770873229
 31
0.0
  0
LINE
  5
1B3
330
1F
100
AcDbEntity
  8
0
  6
HIDDEN
 62
     7
370
     0
100
AcDbLine
 10
158.923039602
 20
110.9770873229
 30
0.0
 11
152.723039602
 21
110.9770873229
 31
0.0
  0
LINE
  5
1B4
330
1F
100
AcDbEntity
  8
0
  6
HIDDEN
 62
     7
370
     0
100
AcDbLine
 10
163.373039602
 20
115.4770873229
 30
0.0
 11
165.873039602
 21
113.9749357754
 31
0.0
  0
LINE
  5
1B5
330
1F
100
AcDbEntity
  8
0
  6
HIDDEN
 62
     7
370
     0
100
AcDbLine
 10
165.873039602
 20
113.9749357754
 30
0.0
 11
168.373039602
 21
115.4770873229
 31
0.0
  0
LINE
  5
1B6
330
1F
100
AcDbEntity
  8
0
  6
HIDDEN
 62
     7
370
     0
100
AcDbLine
 10
168.373039602
 20
93.0544375921
 30
0.0
 11
168.373039602
 21
101.4770873229
 31
0.0
  0
LINE
  5
1B7
330
1F
100
AcDbEntity
  8
0
  6
HIDDEN
 62
     7
370
     0
100
AcDbLine
 10
163.373039602
 20
101.4770873229
 30
0.0
 11
163.373039602
 21
93.0544375921
 31
0.0
  0
LINE
  5
1B8
330
1F
100
AcDbEntity
  8
0
  6
HIDDEN
 62
     7
370
     0
100
AcDbLine
 10
168.373039602
 20
101.4770873229
 30
0.0
 11
165.873039602
 21
102.9792388705
 31
0.0
  0
LINE
  5
1B9
330
1F
100
AcDbEntity
  8
0
  6
HIDDEN
 62
     7
370
     0
100
AcDbLine
 10
165.873039602
 20
102.9792388705
 30
0.0
 11
163.373039602
 21
101.4770873229
 31
0.0
  0
ARC
  5
1BA
330
1F
100
AcDbEntity
  8
0
  6
HIDDEN
 62
     7
370
     0
100
AcDbCircle
 10
162.0282655839
 20
104.5770873229
 30
0.0
 40
0.3999999999999915
100
AcDbArc
 50
270.0
 51
290.0
  0
LINE
  5
1BB
330
1F
100
AcDbEntity
  8
0
  6
HIDDEN
 62
     7
370
     0
100
AcDbLine
 10
162.423039602
 20
115.2403841791
 30
0.0
 11
162.423039602
 21
115.5481551348
 31
0.0
  0
LINE
  5
1BC
330
1F
100
AcDbEntity
  8
0
  6
HIDDEN
 62
     7
370
     0
100
AcDbLine
 10
162.423039602
 20
111.4342204268
 30
0.0
 11
162.423039602
 21
113.4736322026
 31
0.0
  0
LINE
  5
1BD
330
1F
100
AcDbEntity
  8
0
  6
HIDDEN
 62
     7
370
     0
100
AcDbLine
 10
159.423039602
 20
114.1606517889
 30
0.0
 11
159.423039602
 21
111.5164767265
 31
0.0
  0
LINE
  5
1BE
330
1F
100
AcDbEntity
  8
0
  6
HIDDEN
 62
     7
370
     0
100
AcDbLine
 10
159.423039602
 20
115.5481551348
 30
0.0
 11
159.423039602
 21
114.6859102454
 31
0.0
  0
LINE
  5
1BF
330
1F
100
AcDbEntity
  8
0
  6
HIDDEN
 62
     7
370
     0
100
AcDbLine
 10
162.1347501229
 20
113.115068906
 30
0.0
 11
195.923039602
 21
112.1763524741
 31
0.0
  0
LINE
  5
1C0
330
1F
100
AcDbEntity
  8
0
  6
HIDDEN
 62
     7
370
     0
100
AcDbLine
 10
195.923039602
 20
114.6773171083
 30
0.0
 11
162.1349021037
 21
115.6160293179
 31
0.0
  0
LINE
  5
1C1
330
1F
100
AcDbEntity
  8
0
  6
HIDDEN
 62
     7
370
     0
100
AcDbLine
 10
159.4522840591
 20
114.8417858479
 30
0.0
 11
159.2002975758
 21
114.4470770674
 31
0.0
  0
LINE
  5
1C2
330
1F
100
AcDbEntity
  8
0
  6
HIDDEN
 62
     7
370
     0
100
AcDbLine
 10
159.2002975758
 20
114.4470770674
 30
0.0
 11
159.4524232842
 21
113.999110927
 31
0.0
  0
DIMENSION
  5
1C3
330
1F
100
AcDbEntity
  8
VERMASSUNG
100
AcDbDimension
  2
*D1
 10
93.3878340022
 20
76.9770873229
 30
0.0
 11
93.3878340022
 21
106.9885716255
 31
0.0
 70
   160
  1
HSK A %%c<>
 71
     2
 42
-1.0
  3
SLDDIMSTYLE0
100
AcDbAlignedDimension
 13
131.223039602
 23
139.9770873229
 33
0.0
 14
131.223039602
 24
76.9770873229
 34
0.0
 50
90.0
100
AcDbRotatedDimension
  0
DIMENSION
  5
1D0
330
1F
100
AcDbEntity
  8
VERMASSUNG
100
AcDbDimension
  2
*D2
 10
195.923039602
 20
156.3091003061
 30
0.0
 11
147.473039602
 21
156.3091003061
 31
0.0
 70
   160
 71
     2
 42
-1.0
  3
SLDDIMSTYLE0
100
AcDbAlignedDimension
 13
99.023039602
 23
128.1677650694
 33
0.0
 14
195.923039602
 24
117.2029468013
 34
0.0
100
AcDbRotatedDimension
  0
DIMENSION
  5
1DA
330
1F
100
AcDbEntity
  8
VERMASSUNG
100
AcDbDimension
  2
*D3
 10
195.923039602
 20
150.3091003061
 30
0.0
 11
163.423039602
 21
150.3091003061
 31
0.0
 70
   160
 71
     2
 42
-1.0
  3
SLDDIMSTYLE0
100
AcDbAlignedDimension
 13
130.923039602
 23
139.6770873229
 33
0.0
 14
195.923039602
 24
117.2029468013
 34
0.0
100
AcDbRotatedDimension
  0
DIMENSION
  5
1E4
330
1F
100
AcDbEntity
  8
VERMASSUNG
100
AcDbDimension
  2
*D4
 10
195.923039602
 20
144.3091003061
 30
0.0
 11
176.398039602
 21
144.3091003061
 31
0.0
 70
   160
 71
     2
 42
-1.0
  3
SLDDIMSTYLE0
100
AcDbAlignedDimension
 13
156.873039602
 23
138.3235276467
 33
0.0
 14
195.923039602
 24
117.2029468013
 34
0.0
100
AcDbRotatedDimension
  0
DIMENSION
  5
1EE
330
1F
100
AcDbEntity
  8
VERMASSUNG
100
AcDbDimension
  2
*D5
 10
203.0839281393
 20
104.4770873229
 30
0.0
 11
203.0839281393
 21
108.3047688745
 31
0.0
 70
   160
  1
%%c<>
 71
     2
 42
-1.0
  3
SLDDIMSTYLE1
100
AcDbAlignedDimension
 13
195.623039602
 23
112.4770873229
 33
0.0
 14
195.623039602
 24
104.4770873229
 34
0.0
 50
90.0
100
AcDbRotatedDimension
  0
DIMENSION
  5
1FC
330
1F
100
AcDbEntity
  8
VERMASSUNG
100
AcDbDimension
  2
*D6
 10
209.0839281393
 20
92.4770873229
 30
0.0
 11
209.0839281393
 21
108.3047688745
 31
0.0
 70
   160
  1
%%c<>
 71
     2
 42
-1.0
  3
SLDDIMSTYLE0
100
AcDbAlignedDimension
 13
183.055998079
 23
124.4770873229
 33
0.0
 14
183.055998079
 24
92.4770873229
 34
0.0
 50
90.0
100
AcDbRotatedDimension
  0
LINE
  5
207
330
1F
100
AcDbEntity
  8
VERMASSUNG
  6
CENTERX2
370
     0
100
AcDbLine
 10
96.943927469
 20
108.4770873229
 30
0.0
 11
198.5902979999
 21
108.4770873229
 31
0.0
  0
OLE2FRAME
  5
208
330
1F
100
AcDbEntity
  8
0
100
AcDbOle2Frame
 70
     2
  3
Bitmap Image
 10
13.8511154363
 20
38.264191557
 30
0.0
 11
51.6290888628
 21
31.9806341108
 31
0.0
 71
     2
 72
     0
 73
     1
 90
    12928
310
80552BED0767C5B32B40DDAF6807D121434000000000000000006FFBDDFB85D0
310
4940DDAF6807D121434000000000000000006FFBDDFB85D04940416F4BD60AFB
310
3F4000000000000000002BED0767C5B32B40416F4BD60AFB3F40000000000000
310
0000000000000100000000010000010000000100000000000100000000320000
310
D0CF11E0A1B11AE1000000000000000000000000000000003E000300FEFF0900
310
0600000000000000000000000100000001000000000000000010000002000000
310
01000000FEFFFFFF0000000000000000FFFFFFFFFFFFFFFFFFFFFFFFFFFFFFFF
310
FFFFFFFFFFFFFFFFFFFFFFFFFFFFFFFFFFFFFFFFFFFFFFFFFFFFFFFFFFFFFFFF
310
FFFFFFFFFFFFFFFFFFFFFFFFFFFFFFFFFFFFFFFFFFFFFFFFFFFFFFFFFFFFFFFF
310
FFFFFFFFFFFFFFFFFFFFFFFFFFFFFFFFFFFFFFFFFFFFFFFFFFFFFFFFFFFFFFFF
310
FFFFFFFFFFFFFFFFFFFFFFFFFFFFFFFFFFFFFFFFFFFFFFFFFFFFFFFFFFFFFFFF
310
FFFFFFFFFFFFFFFFFFFFFFFFFFFFFFFFFFFFFFFFFFFFFFFFFFFFFFFFFFFFFFFF
310
FFFFFFFFFFFFFFFFFFFFFFFFFFFFFFFFFFFFFFFFFFFFFFFFFFFFFFFFFFFFFFFF
310
FFFFFFFFFFFFFFFFFFFFFFFFFFFFFFFFFFFFFFFFFFFFFFFFFFFFFFFFFFFFFFFF
310
FFFFFFFFFFFFFFFFFFFFFFFFFFFFFFFFFFFFFFFFFFFFFFFFFFFFFFFFFFFFFFFF
310
FFFFFFFFFFFFFFFFFFFFFFFFFFFFFFFFFFFFFFFFFFFFFFFFFFFFFFFFFFFFFFFF
310
FFFFFFFFFFFFFFFFFFFFFFFFFFFFFFFFFFFFFFFFFFFFFFFFFFFFFFFFFFFFFFFF
310
FFFFFFFFFFFFFFFFFFFFFFFFFFFFFFFFFFFFFFFFFFFFFFFFFFFFFFFFFFFFFFFF
310
FFFFFFFFFFFFFFFFFFFFFFFFFFFFFFFFFFFFFFFFFFFFFFFFFFFFFFFFFFFFFFFF
310
FFFFFFFFFFFFFFFFFFFFFFFFFFFFFFFFFFFFFFFFFFFFFFFFFFFFFFFFFFFFFFFF
310
FDFFFFFFFEFFFFFFFEFFFFFFFEFFFFFF05000000060000000700000008000000
310
090000000A0000000B0000000C0000000D0000000E0000000F00000010000000
310
11000000120000001300000014000000150000001600000017000000FEFFFFFF
310
FFFFFFFFFFFFFFFFFFFFFFFFFFFFFFFFFFFFFFFFFFFFFFFFFFFFFFFFFFFFFFFF
310
FFFFFFFFFFFFFFFFFFFFFFFFFFFFFFFFFFFFFFFFFFFFFFFFFFFFFFFFFFFFFFFF
310
FFFFFFFFFFFFFFFFFFFFFFFFFFFFFFFFFFFFFFFFFFFFFFFFFFFFFFFFFFFFFFFF
310
FFFFFFFFFFFFFFFFFFFFFFFFFFFFFFFFFFFFFFFFFFFFFFFFFFFFFFFFFFFFFFFF
310
FFFFFFFFFFFFFFFFFFFFFFFFFFFFFFFFFFFFFFFFFFFFFFFFFFFFFFFFFFFFFFFF
310
FFFFFFFFFFFFFFFFFFFFFFFFFFFFFFFFFFFFFFFFFFFFFFFFFFFFFFFFFFFFFFFF
310
FFFFFFFFFFFFFFFFFFFFFFFFFFFFFFFFFFFFFFFFFFFFFFFFFFFFFFFFFFFFFFFF
310
FFFFFFFFFFFFFFFFFFFFFFFFFFFFFFFFFFFFFFFFFFFFFFFFFFFFFFFFFFFFFFFF
310
FFFFFFFFFFFFFFFFFFFFFFFFFFFFFFFFFFFFFFFFFFFFFFFFFFFFFFFFFFFFFFFF
310
FFFFFFFFFFFFFFFFFFFFFFFFFFFFFFFFFFFFFFFFFFFFFFFFFFFFFFFFFFFFFFFF
310
FFFFFFFFFFFFFFFFFFFFFFFFFFFFFFFFFFFFFFFFFFFFFFFFFFFFFFFFFFFFFFFF
310
FFFFFFFFFFFFFFFFFFFFFFFFFFFFFFFFFFFFFFFFFFFFFFFFFFFFFFFFFFFFFFFF
310
FFFFFFFFFFFFFFFFFFFFFFFFFFFFFFFFFFFFFFFFFFFFFFFFFFFFFFFFFFFFFFFF
310
52006F006F007400200045006E00740072007900000000000000000000000000
310
0000000000000000000000000000000000000000000000000000000000000000
310
16000500FFFFFFFFFFFFFFFF020000000A00030000000000C000000000000046
310
000000000000000000000000D06457FDF3FFCB0103000000C000000000000000
310
01004F006C006500000000000000000000000000000000000000000000000000
310
0000000000000000000000000000000000000000000000000000000000000000
310
0A000200FFFFFFFFFFFFFFFFFFFFFFFF00000000000000000000000000000000
310
0000000000000000000000000000000000000000000000001400000000000000
310
010043006F006D0070004F0062006A0000000000000000000000000000000000
310
0000000000000000000000000000000000000000000000000000000000000000
310
120002010100000003000000FFFFFFFF00000000000000000000000000000000
310
0000000000000000000000000000000000000000010000004D00000000000000
310
01004F006C006500310030004E00610074006900760065000000000000000000
310
0000000000000000000000000000000000000000000000000000000000000000
310
1A000200FFFFFFFFFFFFFFFFFFFFFFFF00000000000000000000000000000000
310
0000000000000000000000000000000000000000040000002426000000000000
310
FEFFFFFF02000000FEFFFFFFFFFFFFFFFFFFFFFFFFFFFFFFFFFFFFFFFFFFFFFF
310
FFFFFFFFFFFFFFFFFFFFFFFFFFFFFFFFFFFFFFFFFFFFFFFFFFFFFFFFFFFFFFFF
310
FFFFFFFFFFFFFFFFFFFFFFFFFFFFFFFFFFFFFFFFFFFFFFFFFFFFFFFFFFFFFFFF
310
FFFFFFFFFFFFFFFFFFFFFFFFFFFFFFFFFFFFFFFFFFFFFFFFFFFFFFFFFFFFFFFF
310
FFFFFFFFFFFFFFFFFFFFFFFFFFFFFFFFFFFFFFFFFFFFFFFFFFFFFFFFFFFFFFFF
310
FFFFFFFFFFFFFFFFFFFFFFFFFFFFFFFFFFFFFFFFFFFFFFFFFFFFFFFFFFFFFFFF
310
FFFFFFFFFFFFFFFFFFFFFFFFFFFFFFFFFFFFFFFFFFFFFFFFFFFFFFFFFFFFFFFF
310
FFFFFFFFFFFFFFFFFFFFFFFFFFFFFFFFFFFFFFFFFFFFFFFFFFFFFFFFFFFFFFFF
310
FFFFFFFFFFFFFFFFFFFFFFFFFFFFFFFFFFFFFFFFFFFFFFFFFFFFFFFFFFFFFFFF
310
FFFFFFFFFFFFFFFFFFFFFFFFFFFFFFFFFFFFFFFFFFFFFFFFFFFFFFFFFFFFFFFF
310
FFFFFFFFFFFFFFFFFFFFFFFFFFFFFFFFFFFFFFFFFFFFFFFFFFFFFFFFFFFFFFFF
310
FFFFFFFFFFFFFFFFFFFFFFFFFFFFFFFFFFFFFFFFFFFFFFFFFFFFFFFFFFFFFFFF
310
FFFFFFFFFFFFFFFFFFFFFFFFFFFFFFFFFFFFFFFFFFFFFFFFFFFFFFFFFFFFFFFF
310
FFFFFFFFFFFFFFFFFFFFFFFFFFFFFFFFFFFFFFFFFFFFFFFFFFFFFFFFFFFFFFFF
310
FFFFFFFFFFFFFFFFFFFFFFFFFFFFFFFFFFFFFFFFFFFFFFFFFFFFFFFFFFFFFFFF
310
FFFFFFFFFFFFFFFFFFFFFFFFFFFFFFFFFFFFFFFFFFFFFFFFFFFFFFFFFFFFFFFF
310
010000020000000000000000000000000000000061007200650064005C003100
310
30002E0030005C0044004C004C005300680061007200650064005C003B004300
310
0100FEFF030A0000FFFFFFFF0A00030000000000C00000000000004607000000
310
5042727573680007000000504272757368000700000050427275736800F439B2
310
71000000000000000000000000004100540049002E004100430045005C004300
310
6F00720065002D005300740061007400690063003B0043003A005C0050007200
310
6F006700720061006D002000460069006C006500730020002800780038003600
310
29005C0043006F006D006D006F006E002000460069006C00650073005C004100
310
750074006F006400650073006B0020005300680061007200650064005C003B00
310
43003A005C00500072006F006700720061006D002000460069006C0065007300
310
5C004E006F0072006D0061006E005C004E0070006D005C00420069006E000000
310
43003A005C00500072006F006700720061006D002000460069006C0065007300
310
5C0053006F006C006900640057006F0072006B007300200043006F0072007000
310
5C0053006F006C006900640057006F0072006B00730020002800320029005C00
310
730065007400750070005C0069003300380036005C0073007700610063007400
310
770069007A002E006500780065000000220043003A005C00500072006F006700
310
20260000424D0E260000000000003E00000028000000B40200006E0000000100
310
01000000000000000000130B0000130B00000200000002000000000000FFFFFF
310
FFFFFFFFFFFFFFFFFFFFFFFFFFFFFFFFFFFFFFFFFFFFFFFFFFFFFFFFFFFFFFFF
310
FFFFFFFFFFFFFFFFFFFFFFFFFFFFFFFFFFFFFFFFFFFFFFFFFFFFFFFFFFFFFFFF
310
FFFFFFFFFFFFFFFFFFFFFFFFFFFFFFFFFFFFFFFFFFFFFFFFF000FFFFFFFFFFFF
310
FFFFFFFFFFFFFFFFFFFFFFFFFFFFFFFFFFFFFFFFFFFFFFFFFFFFFFFFFFFFFFFF
310
FFFFFFFFFFFFFFFFFFFFFFFFFFFFFFFFFFFFFFFFFFFFFFFFFFFFFFFFFFFFFFFF
310
FFFFFFFFFFFFFFFFFFFFFFFFFFFFFFFFF000FFFFFFFFFFFFFFFFFFFFFFFFFFFF
310
FFFFFFFFFFFFFFFFFFFFFFFFFFFFFFFFFFFFFFFFFFFFFFFFFFFFFFFFFFFFFFFF
310
FFFFFFFFFFFFFFFFFFFFFFFFFFFFFFFFFFFFFFFFFFFFFFFFFFFFFFFFFFFFFFFF
310
FFFFFFFFFFFFFFFFF000FFFFFFFFFFFFFFFFFFFFFFFFFFFFFFFFFFFFFFFFFFFF
310
FFFFFFFFFFFFFFFFFFFFFFFFFFFFFFFFFFFFFFFFFFFFFFFFFFFFFFFFFFFFFFFF
310
FFFFFFFFFFFFFFFFFFFFFFFFFFFFFFFFFFFFFFFFFFFFFFFFFFFFFFFFFFFFFFFF
310
F000FFFFFFFFFFFFFFFFFFFFFFFFFFFFFFFFFFFFFFFFFFFFFFFFFFFFFFFFFFFF
310
FFFFFFFFFFFFFFFFFFFFFFFFFFFFFFFFFFFFFFFFFFFFFFFFFFFFFFFFFFFFFFFF
310
FFFFFFFFFFFFFFFFFFFFFFFFFFFFFFFFFFFFFFFFFFFFFFFFF000FFFFFFFFFFFF
310
FFFFFFFFFFFFFFFFFFFFFFFFFFFFFFFFFFFFFFFFFFFFFFFFFFFFFFFFFFFFFFFF
310
FFFFFFFFFFFFFFFFFFFFFFFFFFFFFFFFFFFFFFFFFFFFFFFFFFFFFFFFFFFFFFFF
310
FFFFFFFFFFFFFFFFFFFFFFFFFFFFFFFFF000FFFFFFFFFFFFFFFFFFFFFFFFFFFF
310
FFFFFFFFFFFFFFFFFFFFFFFFFFFFFFFFFFFFFFFFFFFFFFFFFFFFFFFFFFFFFFFF
310
FFFFFFFFFFFFFFFFFFFFFFFFFFFFFFFFFFFFFFFFFFFFFFFFFFFFFFFFFFFFFFFF
310
FFFFFFFFFFFFFFFFF000FFFFFFFFFFFFFFFFFFFFFFFFFFFFFFFFFFFFFFFFFFFF
310
FFFFFFFFFFFFFFFFFFFFFFFFFFFFFFFFFFFFFFFFFFFFFFFFFFFFFFFFFFFFFFFF
310
FFFFFFFFFFFFFFFFFFFFFFFFFFFFFFFFFFFFFFFFFFFFFFFFFFFFFFFFFFFFFFFF
310
F000FFFFFFFFFFFFFFFFFFFFFFFFFFFFFFFFFFFFFFFFFFFFFFFFFFFFFFFFFFFF
310
FFFFFFFFFFFFFFFFFFFFFFFFFFFFFFFFFFFFFFFFFFFFFFFFFFFFFFFFFFFFFFFF
310
FFFFFFFFFFFFFFFFFFFFFFFFFFFFFFFFFFFFFFFFFFFFFFFFF000FFFFFFFFFFFF
310
FFFFFFFFFFFFFFFFFFFFFFFFFFFFFFFFFFFFFFFFFFFFFFFFFFFFFFFFFFFFFFFF
310
FFFFFFFFFFFFFFFFFFFFFFFFFFFFFFFFFFFFFFFFFFFFFFFFFFFFFFFFFFFFFFFF
310
FFFFFFFFFFFFFFFFFFFFFFFFFFFFFFFFF000FFFFFFFFFFFFFFFFFFFFFFFFFFFF
310
FFFFFFFFFFFFFFFFFFFFFFFFFFFFFFFFFFFFFFFFFFFFFFFFFFFFFFFFFFFFFFFF
310
FFFFFFFFFFFFFFFFFFFFFFFFFFFFFFFFFFFFFFFFFFFFFFFFFFFFFFFFFFFFFFFF
310
FFFFFFFFFFFFFFFFF000FFFFFFFFFFFFFFFFFFFFFFFFFFFFFFFFFFFFFFFFFFFF
310
FFFFFFFFFFFFFFFFFFFFFFFFFFFFFFFFFFFFFFFFFFFFFFFFFFFFFFFFFFFFFFFF
310
FFFFFFFFFFFFFFFFFFFFFFFFFFFFFFFFFFFFFFFFFFFFFFFFFFFFFFFFFFFFFFFF
310
F000FFFFFFFFFFFFFFFFFFFFFFFFFFFFFFFFFFFFFFFFFFFFFFFFFFFFFFFFFFFF
310
FFFFFFFFFFFFFFFFFFFFFFFFFFFFFFFFFFFFFFFFFFFFFFFFFFFFFFFFFFFFFFFF
310
FFFFFFFFFFFFFFFFFFFFFFFFFFFFFFFFFFFFFFFFFFFFFFFFF000FFFFFFFFFFFF
310
FFFFFFFFFFFFFFFFFFFFFFFFFFFFFFFFFFFFFFFFFFFFFFFFFFFFFFFFFFFFFFFF
310
FFFFFFFFFFFFFFFFFFFFFFFFFFFFFFFFFFFFFFFFFFFFFFFFFFFFFFFFFFFFFFFF
310
FFFFFFFFFFFFFFFFFFFFFFFFFFFFFFFFF000FFFFFFFFFFFFFFFFFFFFFFFFFFFF
310
FFFFFFFFFFFFFFFFFFFFFFFFFFFFFFFFFFFFFFFFFFFFFFFFFFFFFFFFFFFFFFFF
310
FFFFFFFFFFFFFFFFFFFFFFFFFFFFFFFFFFFFFFFFFFFFFFFFFFFFFFFFFFFFFFFF
310
FFFFFFFFFFFFFFFFF000FFFFFFFFFFFFFFFFFFFFFFFFFFFFFFFFFFFFFFFFFFFF
310
FFFFFFFFFFFFFFFFFFFFFFFFFFFFFFFFFFFFFFFFFFFFFFFFFFFFFFFFFFFFFFFF
310
FFFFFFFFFFFFFFFFFFFFFFFFFFFFFFFFFFFFFFFFFFFFFFFFFFFFFFFFFFFFFFFF
310
F000FFFFFFFFFFFFFFFFFFFFFFFFFFFFFFFFFFFFFFFFFFFFFFFFFFFFFFFFFFFF
310
FFFFFFFFFFFFFFFFFFFFFFFFFFFFFFFFFFFFFFFFFFFFFFFFFFFFFFFFFFFFFFFF
310
FFFFFFFFFFFFFFFFFFFFFFFFFFFFFFFFFFFFFFFFFFFFFFFFF000FFFFFFFFFFFF
310
FFFFFFFFFFFFFFFFFFFFFFFFFFFFFFFFFFFFFFFFFFFFFFFFFFFFFFFFFFFFFFFF
310
FFFFFFFFFFFFFFFFFFFFFFFFFFFFFFFFFFFFFFFFFFFFFFFFFFFFFFFFFFFFFFFF
310
FFFFFFFFFFFFFFFFFFFFFFFFFFFFFFFFF000FFFFFFFFFFFFFFFFFFFFFFFFFFFF
310
FFFFFFFFFFFFFFFFFFFFFFFFFFFFFFFFFFFFFFFFFFFFFFFFFFFFFFFFFFFFFFFF
310
FFFFFFFFFFFFFFFFFFFFFFFFFFFFFFFFFFFFFFFFFFFFFFFFFFFFFFFFFFFFFFFF
310
FFFFFFFFFFFFFFFFF000FFFFF80003FFFFFFFFFFFFFFFFFFFFFFFFFFFFFFFFFF
310
FFFFF00007FFFFFFFFFF00007FFFFFF800000000000000007FFFFFFFFFFFFFFF
310
FFFFFFFC001FFFFFFFFFFFFFFC001FFFFFFFFFFFFFFFFFFFFFFFFFFE0007FFFF
310
F000FFFF8000007FFFFFFFF8000FFFFFC0007FFFFF80007FFFFF0000007FFFFF
310
FFF8000007FFFFF800000000000000007FFFFFF0001FFFFFFFFFFFC00001FFFF
310
FFFFFFFFC00001FFFFFFFF000000000003FFFFE000007FFFF000FFFE0000000F
310
FFFFFFF0000FFFFF80007FFFFF80007FFFFC0000001FFFFFFFC0000001FFFFF8
310
00000000000000007FFFFFF0001FFFFFFFFFFE0000003FFFFFFFFFFE0000003F
310
FFFFFF000000000003FFFF0000000FFFF000FFF800000003FFFFFFF00007FFFF
310
80007FFFFF80007FFFF000000007FFFFFF000000003FFFF80000000000000000
310
7FFFFFF0001FFFFFFFFFF80000000FFFFFFFFFF80000000FFFFFFF0000000000
310
03FFFC00000003FFF000FFE000000000FFFFFFF00007FFFF80003FFFFF80007F
310
FFC000000001FFFFFC000000001FFFF800000000000000007FFFFFF0001FFFFF
310
FFFFE000000003FFFFFFFFE000000003FFFFFF000000000003FFF000000000FF
310
F000FF80000000007FFFFFF00007FFFF80003FFFFF80007FFF8000000000FFFF
310
F80000000007FFF800000000000000007FFFFFF0001FFFFFFFFFC000000001FF
310
FFFFFFC000000001FFFFFF000000000003FFC0000000007FF000FF0000000000
310
3FFFFFE00007FFFF00003FFFFF80007FFE00000000003FFFF00000000003FFF8
310
00000000000000007FFFFFF0001FFFFFFFFF8000000000FFFFFFFF8000000000
310
FFFFFF000000000003FF80000000003FF000FE00000000001FFFFFE00003FFFF
310
00003FFFFF80007FFC00000000001FFFE00000000001FFF8000001FFFE000000
310
7FFFFFF0001FFFFFFFFE00000000003FFFFFFE00000000003FFFFF0000000000
310
03FF00000000001FF000FC00000000000FFFFFE00003FFFF00001FFFFF80007F
310
F800000000001FFFC00000000000FFF8000001FFFE0000007FFFFFF0001FFFFF
310
FFFC00000000001FFFFFFC00000000001FFFFF000000000003FE00000000000F
310
F000F8000000000007FFFFE00003FFFF00001FFFFF80007FF800000000000FFF
310
800000000000FFF8000001FFFE0000007FFFFFF0001FFFFFFFF800000000000F
310
FFFFF800000000000FFFFF000000000003FC000000000007F000F80000000000
310
03FFFFC00003FFFE00001FFFFF80007FF0000000000007FF0000000000007FF8
310
000001FFFE0000007FFFFFF0001FFFFFFFF0000000000007FFFFF00000000000
310
07FFFF000000000003F8000000000003F000F0000000000003FFFFC00001FFFE
310
00001FFFFF80007FE0000000000007FE0000000000003FF8000001FFFE000000
310
7FFFFFF0001FFFFFFFF0000000000007FFFFF0000000000007FFFF0000000000
310
03F800001F800003F000E00001FFF00001FFFFC00001FFFE00000FFFFF80007F
310
E00001FFE00003FE00001FFF00003FF8000001FFFE0000007FFFFFF0001FFFFF
310
FFE000003E000003FFFFE000003E000003FFFF000000000003F00001FFF80001
310
F000E00007FFFC0001FFFFC00001FFFE00000FFFFF80007FC0000FFFFC0003FC
310
0000FFFFC0001FF8000001FFFE0000007FFFFFF0001FFFFFFFC00003FFE00001
310
FFFFC00003FFE00001FFFF0001FFFFFFFFF00007FFFE0001F000E0000FFFFF00
310
00FFFF800001FFFC00000FFFFF80007FC0001FFFFE0001FC0001FFFFE0001FF8
310
000001FFFE0000007FFFFFF0001FFFFFFF80000FFFF80000FFFF80000FFFF800
310
00FFFF0003FFFFFFFFE0000FFFFF8000F000C0003FFFFF8000FFFF800000FFFC
310
000007FFFF80007F80003FFFFF0001FC0003FFFFF0001FF8000001FFFE000000
310
7FFFFFF0001FFFFFFF80003FFFFE0000FFFF80003FFFFE0000FFFF0003FFFFFF
310
FFE0003FFFFF8000F000C0003FFFFF8000FFFF800000FFFC000007FFFF80007F
310
80007FFFFF8001F80007FFFFF8000FF8000001FFFE0000007FFFFFF0001FFFFF
310
FF00007FFFFF00007FFF00007FFFFF00007FFF0003FFFFFFFFE0003FFFFFC000
310
F000C0007FFFFFC000FFFF000000FFFC000007FFFF80007F8000FFFFFF8000F8
310
000FFFFFF8000FF8000001FFFE0000007FFFFFF0001FFFFFFF0000FFFFFF8000
310
7FFF0000FFFFFF80007FFF0003FFFFFFFFC0007FFFFFC00070008000FFFFFFC0
310
00FFFF000000FFF8000007FFFF80007F8000FFFFFF8000F8000FFFFFF8000FF8
310
000001FFFE0000007FFFFFF0001FFFFFFE0001FFFFFFC0003FFE0001FFFFFFC0
310
003FFF0003FFFFFFFFC0007FFFFFE00070008000FFFFFFC0007FFF0000007FF8
310
000003FFFF80007F0001FFFFFF8000F8000FFFFFF8000FF8000001FFFE000000
310
7FFFFFF0001FFFFFFE0001FFFFFFC0003FFE0001FFFFFFC0003FFF0003FFFFFF
310
FFC000FFFFFFE00070008000FFFFFFC0007FFF0000007FF8000003FFFF80007F
310
0001FFFFFF8000F8001FFFFFF8000FF8000001FFFE0000007FFFFFF0001FFFFF
310
FE0003FFFFFFE0003FFE0003FFFFFFE0003FFF0003FFFFFFFFC000FFFFFFE000
310
70008000FFFFFFC0007FFE0000007FF8000003FFFF80007F0001FFFFFF8000F0
310
001FFFFFF8000FF8000001FFFE0000007FFFFFF0001FFFFFFC0003FFFFFFE000
310
1FFC0003FFFFFFE0001FFF0003FFFFFFFFC000FFFFFFC00070008000FFFFFF80
310
007FFE0000007FF0000003FFFF80007F0001FFFFFF0000F0001FFFFFF8000FF8
310
000001FFFE0000007FFFFFF0001FFFFFFC0007FFFFFFF0001FFC0007FFFFFFF0
310
001FFF0003FFFFFFFFC000FFFFFFC00070008001FFFFFF0000FFFE0000003FF0
310
000001FFFF80007F0001FFFFFF0000F8001FFFFFF0000FF8000001FFFE000000
310
7FFFFFF0001FFFFFFC0007FFFFFFF0001FFC0007FFFFFFF0001FFF0003FFFFFF
310
FFC001FFFFFF80007000FFFFFFFFFE0000FFFE0008003FF0008001FFFF80007F
310
FFFFFFFFFC0000FFFFFFFFFFE0000FF8000001FFFE0000007FFFFFF0001FFFFF
310
F8000FFFFFFFF8000FF8000FFFFFFFF8000FFF0003FFFFFFFFFFFFFFFFFF0000
310
7000FFFFFFFFFC0000FFFC0008003FF0008001FFFF80007FFFFFFFFFF80001FF
310
FFFFFFFF80000FF8000001FFFE0000007FFFFFF0001FFFFFF8000FFFFFFFF800
310
0FF8000FFFFFFFF8000FFF0003FFFFFFFFFFFFFFFFFE0000F000FFFFFFFFE000
310
00FFFC000C003FE000C001FFFF80007FFFFFFFFFC00001FFFFFFFFFE00001FF8
310
000001FFFE0000007FFFFFF0001FFFFFF8000FFFFFFFF8000FF8000FFFFFFFF8
310
000FFF0003FFFFFFFFFFFFFFFFF00000F000FFFFFFFE000001FFFC000C001FE0
310
00C000FFFF80007FFFFFFFFE000001FFFFFFFFE000001FF80FFFFFFFFFFFFFC0
310
7FFFFFF0001FFFFFF8000FFFFFFFF8000FF8000FFFFFFFF8000FFF0003FFFFFF
310
FFFFFFFFFF800000F000FFFFFFC0000001FFFC001C001FE001C000FFFF80007F
310
FFFFFF80000003FFFFFFF80000001FF80FFFFFFFFFFFFFC07FFFFFF0001FFFFF
310
F8001FFFFFFFFC000FF8001FFFFFFFFC000FFF0003FFFFFFFFFFFFFFF0000001
310
F000FFFFF800000001FFF8001C001FE001C000FFFF80007FFFFFF800000003FF
310
FFFF800000003FF80FFFFFFFFFFFFFC07FFFFFF0001FFFFFF8001FFFFFFFFC00
310
0FF8001FFFFFFFFC000FFF0003FFFFFFFFFFFFFE00000001F000FFFFC0000000
310
03FFF8001E001FC001E000FFFF80007FFFFF8000000007FFFFFC000000003FF8
310
0FFFFFFFFFFFFFC07FFFFFF0001FFFFFF8001FFFFFFFFC000FF8001FFFFFFFFC
310
000FFF0003FFFFFFFFFFFFE000000003F000FFFE0000000007FFF8001E000FC0
310
01E0007FFF80007FFFFE0000000007FFFFE0000000007FF80FFFFFFFFFFFFFC0
310
7FFFFFF0001FFFFFF0001FFFFFFFFC0007F0001FFFFFFFFC0007FF0003FFFFFF
310
FFFFFF0000000003F000FFF80000000007FFF8001E000FC003E0007FFF80007F
310
FFF0000000000FFFFF8000000000FFF80FFFFFFFFFFFFFC07FFFFFF0001FFFFF
310
F0001FFFFFFFFC0007F0001FFFFFFFFC0007FF0003FFFFFFFFFFFC0000000007
310
F000FFE0000000000FFFF0003E000FC003E0007FFF80007FFFC0000000001FFF
310
FE0000000001FFF80FFFFFFFFFFFFFC07FFFFFF0001FFFFFF0001FFFFFFFFC00
310
07F0001FFFFFFFFC0007FF0003FFFFFFFFFFF0000000000FF000FFC000000000
310
1FFFF0003F000F8003F0003FFF80007FFF80000000003FFFF80000000003FFF8
310
0FFFFFFFFFFFFFC07FFFFFF0001FFFFFF0001FFFFFFFFC0007F0001FFFFFFFFC
310
0007FF0003FFFFFFFFFFE0000000001FF000FF00000000007FFFF0003F000780
310
03F0003FFF80007FFF00000000007FFFF00000000007FFF80FFFFFFFFFFFFFC0
310
7FFFFFF0001FFFFFF0001FFFFFFFFC0007F0001FFFFFFFFC0007FF0003FFFFFF
310
FFFF80000000007FF000FE0000000000FFFFE0003F00078007F0003FFF80007F
310
FE0000000001FFFFE0000000001FFFF80FFFFFFFFFFFFFC07FFFFFF0001FFFFF
310
F0001FFFFFFFFC0007F0001FFFFFFFFC0007FF0003FFFFFFFFFF0000000000FF
310
F000FC0000000003FFFFE0007F00078007F0003FFF80007FFC0000000007FFFF
310
C0000000007FFFF80FFFFFFFFFFFFFC07FFFFFF0001FFFFFF8001FFFFFFFFC00
310
0FF8001FFFFFFFFC000FFF0003FFFFFFFFFE0000000003FFF000FC000000000F
310
FFFFE0007F80070007F8001FFF80007FF8000000001FFFFF8000000001FFFFF8
310
0FFFFFFFFFFFFFC07FFFFFF0001FFFFFF8001FFFFFFFFC000FF8001FFFFFFFFC
310
000FFF0003FFFFFFFFFC000000000FFFF000F8000000007FFFFFE0007F800700
310
07F8001FFF80007FF000000000FFFFFF800000000FFFFFF80FFFFFFFFFFFFFC0
310
7FFFFFF0001FFFFFF8000FFFFFFFF8000FF8000FFFFFFFF8000FFF0003FFFFFF
310
FFFC000000007FFFF000F800000007FFFFFFC0007F8003000FF8001FFF80007F
310
F000000007FFFFFF000000007FFFFFF80FFFFFFFFFFFFFC07FFFFFF0001FFFFF
310
F8000FFFFFFFF8000FF8000FFFFFFFF8000FFF0003FFFFFFFFF80000000FFFFF
310
F000F0000000FFFFFFFFC000FF8003000FF8001FFF80007FE0000000FFFFFFFF
310
0000000FFFFFFFF8000001FFFE0000007FFFFFF0001FFFFFF8000FFFFFFFF800
310
0FF8000FFFFFFFF8000FFF0003FFFFFFFFF8000000FFFFFFF000F000000FFFFF
310
FFFFC000FFC002000FF8000FFF80007FE000001FFFFFFFFE000001FFFFFFFFF8
310
000001FFFE0000007FFFFFF0001FFFFFF8000FFFFFFFF8000FF8000FFFFFFFF8
310
000FFF0003FFFFFFFFF000001FFFFFFFF000E00000FFFFFFFFFFC000FFC00200
310
0FFC000FFF80007FE00001FFFFFFFFFE00001FFFFFFFFFF8000001FFFE000000
310
7FFFFFF0001FFFFFFC000FFFFFFFF8001FFC000FFFFFFFF8001FFF0003FFFFFF
310
FFF00001FFFFFFFFF000E00007FFFFFFFFFF8000FFC000001FFC000FFF80007F
310
C0000FFFFFFFFFFE0000FFFFFFFFFFF8000001FFFE0000007FFFFFF0001FFFFF
310
FC0007FFFFFFF0001FFC0007FFFFFFF0001FFF0003FFFFFFFFF00007FFFFFFFF
310
F000E0001FFFFFFFFFFF8000FFC000001FFC000FFF80007FC0003FFFFFFFFFFE
310
0001FFFFFFFFFFF8000001FFFE0000007FFFFFF0001FFFFFFC0007FFFFFFF000
310
1FFC0007FFFFFFF0001FFF0003FFFFFFFFF0001FFFFFFFFFF000E0003FFFFF00
310
03FF8001FFE000001FFC0007FF80007FC0007FFFFF0007FC0003FFFFF0003FF8
310
000001FFFE0000007FFFFFF0001FFFFFFC0003FFFFFFE0001FFC0003FFFFFFE0
310
001FFF0003FFFFFFFFF0003FFFFFFFFFF000E0003FFFFF0001FF8001FFE00000
310
1FFE0007FF80007FC0007FFFFE0003FC0007FFFFE0003FF8000001FFFE000000
310
7FFFFFF0001FFFFFFE0003FFFFFFE0003FFE0003FFFFFFE0003FFF0003FFFFFF
310
FFF0003FFFFF8001F000E0003FFFFF0001FF0001FFE000001FFE0007FF80007F
310
C0007FFFFE0003FC0007FFFFE0003FF8000001FFFE0000007FFFFFF0001FFFFF
310
FE0001FFFFFFC0003FFE0001FFFFFFC0003FFF0003FFFFFFFFF0003FFFFF0001
310
F000E0003FFFFF0003FF0001FFE000003FFE0007FF80007FC0007FFFFE0003FC
310
0007FFFFE0003FF8000001FFFE0000007FFFFFF0001FFFFFFF0001FFFFFFC000
310
7FFF0001FFFFFFC0007FFF0003FFFFFFFFF0003FFFFF0001F000E0003FFFFE00
310
03FF0003FFF000003FFE0003FF80007FC0007FFFFC0003FE0007FFFFE0003FF8
310
000001FFFE0000007FFFFFF0001FFFFFFF0000FFFFFF80007FFF0000FFFFFF80
310
007FFF0003FFFFFFFFF0003FFFFF0001F000E0003FFFFE0003FF0003FFF00000
310
3FFF0003FF80007FC0007FFFFC0007FE0007FFFFC0003FF8000001FFFE000000
310
7FFFFFF0001FFFFFFF80007FFFFF0000FFFF80007FFFFF0000FFFF0003FFFFFF
310
FFF0003FFFFF0003F000E0003FFFFC0003FE0003FFF000003FFF0003FF80007F
310
E0003FFFF80007FE0003FFFFC0007FF8000001FFFE0000007FFFFFF0001FFFFF
310
FF80003FFFFE0000FFFF80003FFFFE0000FFFF0003FFFFFFFFF0001FFFFE0003
310
F000F0001FFFF80003FE0003FFF000007FFF0001FF80007FE0003FFFF00007FE
310
0001FFFF80007FF8000001FFFE0000007FFFFFF0001FFFFFFFC0000FFFF80001
310
FFFFC0000FFFF80001FFFF0003FFFFFFFFF0001FFFFC0003F000F0000FFFF000
310
07FE0007FFF800007FFF0001FF80007FE0001FFFE00007FF0000FFFE00007FF8
310
000001FFFE0000007FFFFFF0001FFFFFFFC00003FFE00001FFFFC00003FFE000
310
01FFFF0003FFFFFFFFF8000FFFF80003F000F00003FFC00007FC0007FFF80000
310
7FFF8001FF80007FF00007FF80000FFF00007FF80000FFF8000001FFFE000000
310
7F80000000000001FFE000003E000003FFFFE000003E000003FFFF0003FFFFFF
310
FFF80003FFE00007F000F800000000000FFC0007FFF800007FFF8001FF80007F
310
F000000000000FFF000000000000FFF8000001FFFE0000007F80000000000001
310
FFF0000000000007FFFFF0000000000007FFFF0003FFFFFFFFFC00007E000007
310
F000F800000000000FFC0007FFF80000FFFF8000FF80007FF800000000001FFF
310
800000000001FFF8000001FFFE0000007F80000000000001FFF800000000000F
310
FFFFF800000000000FFFFF0003FFFFFFFFFC00000000000FF000FC0000000000
310
1FFC0007FFFC0000FFFF8000FF80007FF800000000003FFFC00000000001FFF8
310
000001FFFE0000007F80000000000001FFF800000000000FFFFFF80000000000
310
0FFFFF0003FFFFFFFFFE00000000001FF000FE00000000003FF8000FFFFC0000
310
FFFF8000FF80007FFC00000000003FFFC00000000003FFF8000001FFFE000000
310
7F80000000000001FFFC00000000001FFFFFFC00000000001FFFFF0003FFFFFF
310
FFFF00000000001FF000FF00000000003FF8000FFFFC0000FFFFC000FF80007F
310
FE00000000007FFFE00000000007FFF8000001FFFE0000007F80000000000001
310
FFFE00000000003FFFFFFE00000000003FFFFF0003FFFFFFFFFF80000000003F
310
F000FF80000000007FF8000FFFFC0001FFFFC0007F80007FFF0000000000FFFF
310
F0000000000FFFF800000000000000007F80000000000001FFFF8000000000FF
310
FFFFFF8000000000FFFFFF0003FFFFFFFFFFC0000000007FF000FFC000000000
310
FFF8000FFFFE0001FFFFC0007F80007FFF8000000001FFFFF8000000001FFFF8
310
00000000000000007F80000000000001FFFFC000000001FFFFFFFFC000000001
310
FFFFFF0003FFFFFFFFFFE000000000FFF000FFE000000003FFF0001FFFFE0001
310
FFFFC0007F80007FFFC000000007FFFFFE000000003FFFF80000000000000000
310
7F80000000000001FFFFE000000003FFFFFFFFE000000003FFFFFF0003FFFFFF
310
FFFFF000000003FFF000FFF80000000FFFF0001FFFFE0001FFFFE0007F80007F
310
FFF00000000FFFFFFF00000000FFFFF800000000000000007F80000000000001
310
FFFFF80000000FFFFFFFFFF80000000FFFFFFF0003FFFFFFFFFFFC0000000FFF
310
F000FFFE0000003FFFF0001FFFFE0003FFFFE0003F80007FFFFC0000003FFFFF
310
FFC0000003FFFFF800000000000000007F80000000000001FFFFFE0000003FFF
310
FFFFFFFE0000003FFFFFFF0003FFFFFFFFFFFF0000003FFFF000FFFF800000FF
310
FFF0001FFFFF0003FFFFE0003F80007FFFFF000001FFFFFFFFF800001FFFFFF8
310
00000000000000007F80000000000001FFFFFFC00001FFFFFFFFFFFFC00001FF
310
FFFFFF0003FFFFFFFFFFFFC00000FFFFF000FFFFF8000FFFFFFFFFFFFFFFFFFF
310
FFFFFFFFFFFFFFFFFFFFF0001FFFFFFFFFFF0000FFFFFFF80000000000000000
310
7FFFFFFFFFFFFFFFFFFFFFFC001FFFFFFFFFFFFFFC001FFFFFFFFFFFFFFFFFFF
310
FFFFFFFC001FFFFFF000FFFFFFFFFFFFFFFFFFFFFFFFFFFFFFFFFFFFFFFFFFFF
310
FFFFFFFFFFFFFFFFFFFFFFFFFFFFFFFFFFFFFFFFFFFFFFFFFFFFFFFFFFFFFFFF
310
FFFFFFFFFFFFFFFFFFFFFFFFFFFFFFFFFFFFFFFFFFFFFFFFFFFFFFFFFFFFFFFF
310
F000FFFFFFFFFFFFFFFFFFFFFFFFFFFFFFFFFFFFFFFFFFFFFFFFFFFFFFFFFFFF
310
FFFFFFFFFFFFFFFFFFFFFFFFFFFFFFFFFFFFFFFFFFFFFFFFFFFFFFFFFFFFFFFF
310
FFFFFFFFFFFFFFFFFFFFFFFFFFFFFFFFFFFFFFFFFFFFFFFFF000FFFFFFFFFFFF
310
FFFFFFFFFFFFFFFFFFFFFFFFFFFFFFFFFFFFFFFFFFFFFFFFFFFFFFFFFFFFFFFF
310
FFFFFFFFFFFFFFFFFFFFFFFFFFFFFFFFFFFFFFFFFFFFFFFFFFFFFFFFFFFFFFFF
310
FFFFFFFFFFFFFFFFFFFFFFFFFFFFFFFFF000FFFFFFFFFFFFFFFFFFFFFFFFFFFF
310
FFFFFFFFFFFFFFFFFFFFFFFFFFFFFFFFFFFFFFFFFFFFFFFFFFFFFFFFFFFFFFFF
310
FFFFFFFFFFFFFFFFFFFFFFFFFFFFFFFFFFFFFFFFFFFFFFFFFFFFFFFFFFFFFFFF
310
FFFFFFFFFFFFFFFFF000FFFFFFFFFFFFFFFFFFFFFFFFFFFFFFFFFFFFFFFFFFFF
310
FFFFFFFFFFFFFFFFFFFFFFFFFFFFFFFFFFFFFFFFFFFFFFFFFFFFFFFFFFFFFFFF
310
FFFFFFFFFFFFFFFFFFFFFFFFFFFFFFFFFFFFFFFFFFFFFFFFFFFFFFFFFFFFFFFF
310
F000FFFFFFFFFFFFFFFFFFFFFFFFFFFFFFFFFFFFFFFFFFFFFFFFFFFFFFFFFFFF
310
FFFFFFFFFFFFFFFFFFFFFFFFFFFFFFFFFFFFFFFFFFFFFFFFFFFFFFFFFFFFFFFF
310
FFFFFFFFFFFFFFFFFFFFFFFFFFFFFFFFFFFFFFFFFFFFFFFFF000FFFFFFFFFFFF
310
FFFFFFFFFFFFFFFFFFFFFFFFFFFFFFFFFFFFFFFFFFFFFFFFFFFFFFFFFFFFFFFF
310
FFFFFFFFFFFFFFFFFFFFFFFFFFFFFFFFFFFFFFFFFFFFFFFFFFFFFFFFFFFFFFFF
310
FFFFFFFFFFFFFFFFFFFFFFFFFFFFFFFFF000FFFFFFFFFFFFFFFFFFFFFFFFFFFF
310
FFFFFFFFFFFFFFFFFFFFFFFFFFFFFFFFFFFFFFFFFFFFFFFFFFFFFFFFFFFFFFFF
310
FFFFFFFFFFFFFFFFFFFFFFFFFFFFFFFFFFFFFFFFFFFFFFFFFFFFFFFFFFFFFFFF
310
FFFFFFFFFFFFFFFFF000FFFFFFFFFFFFFFFFFFFFFFFFFFFFFFFFFFFFFFFFFFFF
310
FFFFFFFFFFFFFFFFFFFFFFFFFFFFFFFFFFFFFFFFFFFFFFFFFFFFFFFFFFFFFFFF
310
FFFFFFFFFFFFFFFFFFFFFFFFFFFFFFFFFFFFFFFFFFFFFFFFFFFFFFFFFFFFFFFF
310
F000FFFFFFFFFFFFFFFFFFFFFFFFFFFFFFFFFFFFFFFFFFFFFFFFFFFFFFFFFFFF
310
FFFFFFFFFFFFFFFFFFFFFFFFFFFFFFFFFFFFFFFFFFFFFFFFFFFFFFFFFFFFFFFF
310
FFFFFFFFFFFFFFFFFFFFFFFFFFFFFFFFFFFFFFFFFFFFFFFFF000FFFFFFFFFFFF
310
FFFFFFFFFFFFFFFFFFFFFFFFFFFFFFFFFFFFFFFFFFFFFFFFFFFFFFFFFFFFFFFF
310
FFFFFFFFFFFFFFFFFFFFFFFFFFFFFFFFFFFFFFFFFFFFFFFFFFFFFFFFFFFFFFFF
310
FFFFFFFFFFFFFFFFFFFFFFFFFFFFFFFFF000FFFFFFFFFFFFFFFFFFFFFFFFFFFF
310
FFFFFFFFFFFFFFFFFFFFFFFFFFFFFFFFFFFFFFFFFFFFFFFFFFFFFFFFFFFFFFFF
310
FFFFFFFFFFFFFFFFFFFFFFFFFFFFFFFFFFFFFFFFFFFFFFFFFFFFFFFFFFFFFFFF
310
FFFFFFFFFFFFFFFFF000FFFFFFFFFFFFFFFFFFFFFFFFFFFFFFFFFFFFFFFFFFFF
310
FFFFFFFFFFFFFFFFFFFFFFFFFFFFFFFFFFFFFFFFFFFFFFFFFFFFFFFFFFFFFFFF
310
FFFFFFFFFFFFFFFFFFFFFFFFFFFFFFFFFFFFFFFFFFFFFFFFFFFFFFFFFFFFFFFF
310
F000FFFFFFFFFFFFFFFFFFFFFFFFFFFFFFFFFFFFFFFFFFFFFFFFFFFFFFFFFFFF
310
FFFFFFFFFFFFFFFFFFFFFFFFFFFFFFFFFFFFFFFFFFFFFFFFFFFFFFFFFFFFFFFF
310
FFFFFFFFFFFFFFFFFFFFFFFFFFFFFFFFFFFFFFFFFFFFFFFFF000FFFFFFFFFFFF
310
FFFFFFFFFFFFFFFFFFFFFFFFFFFFFFFFFFFFFFFFFFFFFFFFFFFFFFFFFFFFFFFF
310
FFFFFFFFFFFFFFFFFFFFFFFFFFFFFFFFFFFFFFFFFFFFFFFFFFFFFFFFFFFFFFFF
310
FFFFFFFFFFFFFFFFFFFFFFFFFFFFFFFFF000FFFFFFFFFFFFFFFFFFFFFFFFFFFF
310
FFFFFFFFFFFFFFFFFFFFFFFFFFFFFFFFFFFFFFFFFFFFFFFFFFFFFFFFFFFFFFFF
310
FFFFFFFFFFFFFFFFFFFFFFFFFFFFFFFFFFFFFFFFFFFFFFFFFFFFFFFFFFFFFFFF
310
FFFFFFFFFFFFFFFFF000FFFFFFFFFFFFFFFFFFFFFFFFFFFFFFFFFFFFFFFFFFFF
310
FFFFFFFFFFFFFFFFFFFFFFFFFFFFFFFFFFFFFFFFFFFFFFFFFFFFFFFFFFFFFFFF
310
FFFFFFFFFFFFFFFFFFFFFFFFFFFFFFFFFFFFFFFFFFFFFFFFFFFFFFFFFFFFFFFF
310
F000FFFFFFFFFFFFFFFFFFFFFFFFFFFFFFFFFFFFFFFFFFFFFFFFFFFFFFFFFFFF
310
FFFFFFFFFFFFFFFFFFFFFFFFFFFFFFFFFFFFFFFFFFFFFFFFFFFFFFFFFFFFFFFF
310
FFFFFFFFFFFFFFFFFFFFFFFFFFFFFFFFFFFFFFFFFFFFFFFFF000FFFFFFFFFFFF
310
FFFFFFFFFFFFFFFFFFFFFFFFFFFFFFFFFFFFFFFFFFFFFFFFFFFFFFFFFFFFFFFF
310
FFFFFFFFFFFFFFFFFFFFFFFFFFFFFFFFFFFFFFFFFFFFFFFFFFFFFFFFFFFFFFFF
310
FFFFFFFFFFFFFFFFFFFFFFFFFFFFFFFFF000FFFFFFFFFFFFFFFFFFFFFFFFFFFF
310
FFFFFFFFFFFFFFFFFFFFFFFFFFFFFFFFFFFFFFFFFFFFFFFFFFFFFFFFFFFFFFFF
310
FFFFFFFFFFFFFFFFFFFFFFFFFFFFFFFFFFFFFFFFFFFFFFFFFFFFFFFFFFFFFFFF
310
FFFFFFFFFFFFFFFFF000FFFFFFFFFFFFFFFFFFFFFFFFFFFFFFFFFFFFFFFFFFFF
310
FFFFFFFFFFFFFFFFFFFFFFFFFFFFFFFFFFFFFFFFFFFFFFFFFFFFFFFFFFFFFFFF
310
FFFFFFFFFFFFFFFFFFFFFFFFFFFFFFFFFFFFFFFFFFFFFFFFFFFFFFFFFFFFFFFF
310
F000FFFFFFFFFFFFFFFFFFFFFFFFFFFFFFFFFFFFFFFFFFFFFFFFFFFFFFFFFFFF
310
FFFFFFFFFFFFFFFFFFFFFFFFFFFFFFFFFFFFFFFFFFFFFFFFFFFFFFFFFFFFFFFF
310
FFFFFFFFFFFFFFFFFFFFFFFFFFFFFFFFFFFFFFFFFFFFFFFFF000FFFFFFFFFFFF
310
FFFFFFFFFFFFFFFFFFFFFFFFFFFFFFFFFFFFFFFFFFFFFFFFFFFFFFFFFFFFFFFF
310
FFFFFFFFFFFFFFFFFFFFFFFFFFFFFFFFFFFFFFFFFFFFFFFFFFFFFFFFFFFFFFFF
310
FFFFFFFFFFFFFFFFFFFFFFFFFFFFFFFFF0000000000000000000000000000000
310
00000000000000000000000042006C00610063006B0000000000000000000000
310
0000000000000000000000000000000000000000000000000000000000000000
310
0000000000000000000000000000FFFFFFFFFFFFFFFFFFFFFFFFFFFFFFFFFFFF
310
FFFFFFFFFFFFFFFFFFFFFFFFFFFFFFFFFFFFFFFFFFFFFFFFFFFFFFFFFFFFFFFF
310
FFFFFFFFFFFFFFFFFFFFFFFF6476000800000000FFFFFFFF20FF202026000000
310
1E00000008000000060000000000000011000000200000008403000000000000
310
6000000060000000200002FB200020000000002B00FFFFFF40002200E8030000
310
A80400001C020000AF0000804A20004000000000000000000100000000000000
310
616C000800000000E40100007001000002000000270000001100000000000000
310
00000000BC0200000000000003020122420065006C006C00200047006F007400
310
680069006300200053007400640020004C006900670068007400000000000000
310
00000000000000000000000000000000420065006C006C0047006F0074006800
310
690063005300740064002D0042006F006C006400000000000000000000000000
310
0000000000000000000000000000000000000000000000000000000000000000
310
0000000000000000000000000000000000000000000000000000000000000000
  1
OLE
  0
ENDSEC
  0
SECTION
  2
OBJECTS
  0
DICTIONARY
  5
C
330
0
100
AcDbDictionary
281
     1
  3
ACAD_GROUP
350
D
  3
ACAD_LAYOUT
350
1A
  3
ACAD_MLEADERSTYLE
350
20A
  3
ACAD_MLINESTYLE
350
17
  3
ACAD_PLOTSETTINGS
350
19
  3
ACAD_PLOTSTYLENAME
350
E
  3
ACAD_TABLESTYLE
350
209
  3
ACAD_VISUALSTYLE
350
2A
  3
AcDbVariableDictionary
350
20B
  0
DICTIONARY
  5
D
102
{ACAD_REACTORS
330
C
102
}
330
C
100
AcDbDictionary
281
     1
  0
DICTIONARY
  5
1A
102
{ACAD_REACTORS
330
C
102
}
330
C
100
AcDbDictionary
281
     1
  3
Layout1
350
1E
  3
Layout2
350
26
  3
Model
350
22
  0
DICTIONARY
  5
20A
102
{ACAD_REACTORS
330
C
102
}
330
C
100
AcDbDictionary
281
     1
  0
DICTIONARY
  5
17
102
{ACAD_REACTORS
330
C
102
}
330
C
100
AcDbDictionary
281
     1
  3
Standard
350
18
  0
DICTIONARY
  5
19
102
{ACAD_REACTORS
330
C
102
}
330
C
100
AcDbDictionary
281
     1
  0
ACDBDICTIONARYWDFLT
  5
E
102
{ACAD_REACTORS
330
C
102
}
330
C
100
AcDbDictionary
281
     1
  3
Normal
350
F
100
AcDbDictionaryWithDefault
340
F
  0
DICTIONARY
  5
209
102
{ACAD_REACTORS
330
C
102
}
330
C
100
AcDbDictionary
281
     1
  0
DICTIONARY
  5
2A
102
{ACAD_REACTORS
330
C
102
}
330
C
100
AcDbDictionary
281
     1
  3
2dWireframe
350
2F
  3
3D Hidden
350
31
  3
3dWireframe
350
30
  3
Basic
350
32
  3
Brighten
350
36
  3
ColorChange
350
3A
  3
Conceptual
350
34
  3
Dim
350
35
  3
Facepattern
350
39
  3
Flat
350
2B
  3
FlatWithEdges
350
2C
  3
Gouraud
350
2D
  3
GouraudWithEdges
350
2E
  3
Linepattern
350
38
  3
Realistic
350
33
  3
Thicken
350
37
  0
DICTIONARY
  5
20B
102
{ACAD_REACTORS
330
C
102
}
330
C
100
AcDbDictionary
281
     1
  3
PSOLHEIGHT
350
20D
  3
PSOLWIDTH
350
20C
  0
LAYOUT
  5
1E
102
{ACAD_REACTORS
330
1A
102
}
330
1A
100
AcDbPlotSettings
  1

  2
none_device
  4

  6

 40
0.0
 41
0.0
 42
0.0
 43
0.0
 44
0.0
 45
0.0
 46
0.0
 47
0.0
 48
0.0
 49
0.0
140
0.0
141
0.0
142
1.0
143
1.0
 70
   688
 72
     0
 73
     0
 74
     5
  7

 75
    16
147
1.0
148
0.0
149
0.0
100
AcDbLayout
  1
Layout1
 70
     1
 71
     1
 10
0.0
 20
0.0
 11
420.0
 21
297.0
 12
0.0
 22
0.0
 32
0.0
 14
1.0000000000E+20
 24
1.0000000000E+20
 34
1.0000000000E+20
 15
-1.0000000000E+20
 25
-1.0000000000E+20
 35
-1.0000000000E+20
146
0.0
 13
0.0
 23
0.0
 33
0.0
 16
1.0
 26
0.0
 36
0.0
 17
0.0
 27
1.0
 37
0.0
 76
     0
330
1B
  0
LAYOUT
  5
26
102
{ACAD_REACTORS
330
1A
102
}
330
1A
100
AcDbPlotSettings
  1

  2
none_device
  4

  6

 40
0.0
 41
0.0
 42
0.0
 43
0.0
 44
0.0
 45
0.0
 46
0.0
 47
0.0
 48
0.0
 49
0.0
140
0.0
141
0.0
142
1.0
143
1.0
 70
   688
 72
     0
 73
     0
 74
     5
  7

 75
    16
147
1.0
148
0.0
149
0.0
100
AcDbLayout
  1
Layout2
 70
     1
 71
     2
 10
0.0
 20
0.0
 11
0.0
 21
0.0
 12
0.0
 22
0.0
 32
0.0
 14
0.0
 24
0.0
 34
0.0
 15
0.0
 25
0.0
 35
0.0
146
0.0
 13
0.0
 23
0.0
 33
0.0
 16
1.0
 26
0.0
 36
0.0
 17
0.0
 27
1.0
 37
0.0
 76
     0
330
23
  0
LAYOUT
  5
22
102
{ACAD_REACTORS
330
1A
102
}
330
1A
100
AcDbPlotSettings
  1

  2
none_device
  4

  6

 40
0.0
 41
0.0
 42
0.0
 43
0.0
 44
0.0
 45
0.0
 46
0.0
 47
0.0
 48
0.0
 49
0.0
140
0.0
141
0.0
142
1.0
143
1.0
 70
  1712
 72
     0
 73
     0
 74
     0
  7

 75
     0
147
1.0
148
0.0
149
0.0
100
AcDbLayout
  1
Model
 70
     1
 71
     0
 10
0.0
 20
0.0
 11
297.0
 21
210.0
 12
0.0
 22
0.0
 32
0.0
 14
0.0
 24
0.0
 34
0.0
 15
297.0
 25
210.0
 35
0.0
146
0.0
 13
0.0
 23
0.0
 33
0.0
 16
1.0
 26
0.0
 36
0.0
 17
0.0
 27
1.0
 37
0.0
 76
     0
330
1F
331
29
  0
MLINESTYLE
  5
18
102
{ACAD_REACTORS
330
17
102
}
330
17
100
AcDbMlineStyle
  2
Standard
 70
     0
  3

 62
   256
 51
90.0
 52
90.0
 71
     2
 49
0.5
 62
   256
  6
BYLAYER
 49
-0.5
 62
   256
  6
BYLAYER
  0
ACDBPLACEHOLDER
  5
F
102
{ACAD_REACTORS
330
E
102
}
330
E
  0
VISUALSTYLE
  5
2F
102
{ACAD_REACTORS
330
2A
102
}
330
2A
100
AcDbVisualStyle
  2
2dWireframe
 70
     4
 71
     0
 72
     2
 73
     0
 90
        0
 40
-0.6
 41
-30.0
 62
     5
 63
     7
 74
     1
 91
        4
 64
     7
 65
   257
 75
     1
175
     1
 42
1.0
 92
        0
 66
   257
 43
1.0
 76
     1
 77
     6
 78
     2
 67
     7
 79
     5
170
     0
171
     0
290
     0
174
     0
 93
        1
 44
0.0
173
     0
291
     0
 45
0.0
1001
ACAD
1000
AcDbSavedByObjectVersion
1070
     0
  0
VISUALSTYLE
  5
31
102
{ACAD_REACTORS
330
2A
102
}
330
2A
100
AcDbVisualStyle
  2
3D Hidden
 70
     6
 71
     1
 72
     2
 73
     2
 90
        0
 40
-0.6
 41
-30.0
 62
     5
 63
     7
 74
     2
 91
        2
 64
     7
 65
   257
 75
     2
175
     1
 42
40.0
 92
        0
 66
   257
 43
1.0
 76
     1
 77
     6
 78
     2
 67
     7
 79
     3
170
     0
171
     0
290
     0
174
     0
 93
        1
 44
0.0
173
     0
291
     0
 45
0.0
1001
ACAD
1000
AcDbSavedByObjectVersion
1070
     0
  0
VISUALSTYLE
  5
30
102
{ACAD_REACTORS
330
2A
102
}
330
2A
100
AcDbVisualStyle
  2
3dWireframe
 70
     5
 71
     0
 72
     2
 73
     0
 90
        0
 40
-0.6
 41
-30.0
 62
     5
 63
     7
 74
     1
 91
        4
 64
     7
 65
   257
 75
     1
175
     1
 42
1.0
 92
        0
 66
   257
 43
1.0
 76
     1
 77
     6
 78
     2
 67
     7
 79
     5
170
     0
171
     0
290
     0
174
     0
 93
        1
 44
0.0
173
     0
291
     0
 45
0.0
1001
ACAD
1000
AcDbSavedByObjectVersion
1070
     0
  0
VISUALSTYLE
  5
32
102
{ACAD_REACTORS
330
2A
102
}
330
2A
100
AcDbVisualStyle
  2
Basic
 70
     7
 71
     1
 72
     0
 73
     1
 90
        0
 40
-0.6
 41
-30.0
 62
     5
 63
     7
 74
     0
 91
        4
 64
     7
 65
   257
 75
     1
175
     1
 42
1.0
 92
        8
 66
     7
 43
1.0
 76
     1
 77
     6
 78
     2
 67
     7
 79
     5
170
     0
171
     0
290
     0
174
     0
 93
        1
 44
0.0
173
     0
291
     1
 45
0.0
1001
ACAD
1000
AcDbSavedByObjectVersion
1070
     0
  0
VISUALSTYLE
  5
36
102
{ACAD_REACTORS
330
2A
102
}
330
2A
100
AcDbVisualStyle
  2
Brighten
 70
    12
 71
     2
 72
     2
 73
     0
 90
        0
 40
-0.6
 41
-30.0
 62
     5
 63
     7
 74
     1
 91
        4
 64
     7
 65
   257
 75
     1
175
     1
 42
1.0
 92
        8
 66
     7
 43
1.0
 76
     1
 77
     6
 78
     2
 67
     7
 79
     5
170
     0
171
     0
290
     0
174
     0
 93
        1
 44
50.0
173
     0
291
     1
 45
0.0
1001
ACAD
1000
AcDbSavedByObjectVersion
1070
     0
  0
VISUALSTYLE
  5
3A
102
{ACAD_REACTORS
330
2A
102
}
330
2A
100
AcDbVisualStyle
  2
ColorChange
 70
    16
 71
     2
 72
     2
 73
     3
 90
        0
 40
-0.6
 41
-30.0
 62
     5
 63
     8
 74
     1
 91
        4
 64
     7
 65
   257
 75
     1
175
     1
 42
1.0
 92
        8
 66
     8
 43
1.0
 76
     1
 77
     6
 78
     2
 67
     7
 79
     5
170
     0
171
     0
290
     0
174
     0
 93
        1
 44
0.0
173
     0
291
     1
 45
0.0
1001
ACAD
1000
AcDbSavedByObjectVersion
1070
     0
  0
VISUALSTYLE
  5
34
102
{ACAD_REACTORS
330
2A
102
}
330
2A
100
AcDbVisualStyle
  2
Conceptual
 70
     9
 71
     3
 72
     2
 73
     0
 90
        0
 40
-0.6
 41
-30.0
 62
     5
 63
     7
 74
     2
 91
        2
 64
     7
 65
   257
 75
     1
175
     1
 42
40.0
 92
        8
 66
     7
 43
1.0
 76
     1
 77
     6
 78
     2
 67
     7
 79
     3
170
     0
171
     0
290
     0
174
     0
 93
        1
 44
0.0
173
     0
291
     0
 45
0.0
1001
ACAD
1000
AcDbSavedByObjectVersion
1070
     0
  0
VISUALSTYLE
  5
35
102
{ACAD_REACTORS
330
2A
102
}
330
2A
100
AcDbVisualStyle
  2
Dim
 70
    11
 71
     2
 72
     2
 73
     0
 90
        0
 40
-0.6
 41
-30.0
 62
     5
 63
     7
 74
     1
 91
        4
 64
     7
 65
   257
 75
     1
175
     1
 42
1.0
 92
        8
 66
     7
 43
1.0
 76
     1
 77
     6
 78
     2
 67
     7
 79
     5
170
     0
171
     0
290
     0
174
     0
 93
        1
 44
-50.0
173
     0
291
     1
 45
0.0
1001
ACAD
1000
AcDbSavedByObjectVersion
1070
     0
  0
VISUALSTYLE
  5
39
102
{ACAD_REACTORS
330
2A
102
}
330
2A
100
AcDbVisualStyle
  2
Facepattern
 70
    15
 71
     2
 72
     2
 73
     0
 90
        0
 40
-0.6
 41
-30.0
 62
     5
 63
     7
 74
     1
 91
        4
 64
     7
 65
   257
 75
     1
175
     1
 42
1.0
 92
        8
 66
     7
 43
1.0
 76
     1
 77
     6
 78
     2
 67
     7
 79
     5
170
     0
171
     0
290
     0
174
     0
 93
        1
 44
0.0
173
     0
291
     1
 45
0.0
1001
ACAD
1000
AcDbSavedByObjectVersion
1070
     0
  0
VISUALSTYLE
  5
2B
102
{ACAD_REACTORS
330
2A
102
}
330
2A
100
AcDbVisualStyle
  2
Flat
 70
     0
 71
     2
 72
     1
 73
     1
 90
        2
 40
-0.6
 41
30.0
 62
     5
 63
     7
 74
     0
 91
        4
 64
     7
 65
   257
 75
     1
175
     1
 42
1.0
 92
        8
 66
     7
 43
1.0
 76
     1
 77
     6
 78
     2
 67
     7
 79
     5
170
     0
171
     0
290
     0
174
     0
 93
       13
 44
0.0
173
     0
291
     1
 45
0.0
1001
ACAD
1000
AcDbSavedByObjectVersion
1070
     0
  0
VISUALSTYLE
  5
2C
102
{ACAD_REACTORS
330
2A
102
}
330
2A
100
AcDbVisualStyle
  2
FlatWithEdges
 70
     1
 71
     2
 72
     1
 73
     1
 90
        2
 40
-0.6
 41
30.0
 62
     5
 63
     7
 74
     1
 91
        4
 64
     7
 65
   257
 75
     1
175
     1
 42
1.0
 92
        0
 66
   257
 43
1.0
 76
     1
 77
     6
 78
     2
 67
     7
 79
     5
170
     0
171
     0
290
     0
174
     0
 93
       13
 44
0.0
173
     0
291
     1
 45
0.0
1001
ACAD
1000
AcDbSavedByObjectVersion
1070
     0
  0
VISUALSTYLE
  5
2D
102
{ACAD_REACTORS
330
2A
102
}
330
2A
100
AcDbVisualStyle
  2
Gouraud
 70
     2
 71
     2
 72
     2
 73
     1
 90
        2
 40
-0.6
 41
30.0
 62
     5
 63
     7
 74
     0
 91
        4
 64
     7
 65
   257
 75
     1
175
     1
 42
1.0
 92
        0
 66
     7
 43
1.0
 76
     1
 77
     6
 78
     2
 67
     7
 79
     5
170
     0
171
     0
290
     0
174
     0
 93
       13
 44
0.0
173
     0
291
     1
 45
0.0
1001
ACAD
1000
AcDbSavedByObjectVersion
1070
     0
  0
VISUALSTYLE
  5
2E
102
{ACAD_REACTORS
330
2A
102
}
330
2A
100
AcDbVisualStyle
  2
GouraudWithEdges
 70
     3
 71
     2
 72
     2
 73
     1
 90
        2
 40
-0.6
 41
30.0
 62
     5
 63
     7
 74
     1
 91
        4
 64
     7
 65
   257
 75
     1
175
     1
 42
1.0
 92
        0
 66
   257
 43
1.0
 76
     1
 77
     6
 78
     2
 67
     7
 79
     5
170
     0
171
     0
290
     0
174
     0
 93
       13
 44
0.0
173
     0
291
     1
 45
0.0
1001
ACAD
1000
AcDbSavedByObjectVersion
1070
     0
  0
VISUALSTYLE
  5
38
102
{ACAD_REACTORS
330
2A
102
}
330
2A
100
AcDbVisualStyle
  2
Linepattern
 70
    14
 71
     2
 72
     2
 73
     0
 90
        0
 40
-0.6
 41
-30.0
 62
     5
 63
     7
 74
     1
 91
        4
 64
     7
 65
   257
 75
     7
175
     7
 42
1.0
 92
        8
 66
     7
 43
1.0
 76
     1
 77
     6
 78
     2
 67
     7
 79
     5
170
     0
171
     0
290
     0
174
     0
 93
        1
 44
0.0
173
     0
291
     1
 45
0.0
1001
ACAD
1000
AcDbSavedByObjectVersion
1070
     0
  0
VISUALSTYLE
  5
33
102
{ACAD_REACTORS
330
2A
102
}
330
2A
100
AcDbVisualStyle
  2
Realistic
 70
     8
 71
     2
 72
     2
 73
     0
 90
        0
 40
-0.6
 41
-30.0
 62
     5
 63
     7
 74
     1
 91
        0
 64
     7
 65
   257
 75
     1
175
     1
 42
1.0
 92
        8
 66
     8
 43
1.0
 76
     1
 77
     6
 78
     2
 67
     7
 79
     5
170
     0
171
     0
290
     0
174
     0
 93
       13
 44
0.0
173
     0
291
     0
 45
0.0
1001
ACAD
1000
AcDbSavedByObjectVersion
1070
     0
  0
VISUALSTYLE
  5
37
102
{ACAD_REACTORS
330
2A
102
}
330
2A
100
AcDbVisualStyle
  2
Thicken
 70
    13
 71
     2
 72
     2
 73
     0
 90
        0
 40
-0.6
 41
-30.0
 62
     5
 63
     7
 74
     1
 91
        4
 64
     7
 65
   257
 75
     1
175
     1
 42
1.0
 92
       12
 66
     7
 43
1.0
 76
     1
 77
     6
 78
     2
 67
     7
 79
     5
170
     0
171
     0
290
     0
174
     0
 93
        1
 44
0.0
173
     0
291
     1
 45
0.0
1001
ACAD
1000
AcDbSavedByObjectVersion
1070
     0
  0
DICTIONARYVAR
  5
20D
102
{ACAD_REACTORS
330
20B
102
}
330
20B
100
DictionaryVariables
280
     0
  1
80.000000
  0
DICTIONARYVAR
  5
20C
102
{ACAD_REACTORS
330
20B
102
}
330
20B
100
DictionaryVariables
280
     0
  1
5.000000
  0
ENDSEC
  0
EOF
