  0
SECTION
  2
HEADER
  9
$ACADVER
  1
AC1015
  9
$ACADMAINTVER
 70
     6
  9
$DWGCODEPAGE
  3
ANSI_1252
  9
$INSBASE
 10
0.0
 20
0.0
 30
0.0
  9
$EXTMIN
 10
0.0
 20
0.0
 30
0.0
  9
$EXTMAX
 10
297.0
 20
210.0
 30
0.0
  9
$LIMMIN
 10
0.0
 20
0.0
  9
$LIMMAX
 10
297.0
 20
210.0
  9
$ORTHOMODE
 70
     0
  9
$REGENMODE
 70
     1
  9
$FILLMODE
 70
     1
  9
$QTEXTMODE
 70
     0
  9
$MIRRTEXT
 70
     1
  9
$LTSCALE
 40
1.0
  9
$ATTMODE
 70
     1
  9
$TEXTSIZE
 40
2.0
  9
$TRACEWID
 40
1.0
  9
$TEXTSTYLE
  7
Standard
  9
$CLAYER
  8
0
  9
$CELTYPE
  6
ByLayer
  9
$CECOLOR
 62
   256
  9
$CELTSCALE
 40
1.0
  9
$DISPSILH
 70
     0
  9
$DIMSCALE
 40
1.0
  9
$DIMASZ
 40
3.0
  9
$DIMEXO
 40
0.0
  9
$DIMDLI
 40
3.75
  9
$DIMRND
 40
0.0
  9
$DIMDLE
 40
0.0
  9
$DIMEXE
 40
1.0
  9
$DIMTP
 40
0.0
  9
$DIMTM
 40
0.0
  9
$DIMTXT
 40
2.0
  9
$DIMCEN
 40
2.5
  9
$DIMTSZ
 40
0.0
  9
$DIMTOL
 70
     0
  9
$DIMLIM
 70
     0
  9
$DIMTIH
 70
     1
  9
$DIMTOH
 70
     1
  9
$DIMSE1
 70
     0
  9
$DIMSE2
 70
     0
  9
$DIMTAD
 70
     1
  9
$DIMZIN
 70
     0
  9
$DIMBLK
  1

  9
$DIMASO
 70
     1
  9
$DIMSHO
 70
     1
  9
$DIMPOST
  1

  9
$DIMAPOST
  1

  9
$DIMALT
 70
     0
  9
$DIMALTD
 70
     3
  9
$DIMALTF
 40
0.0393700787
  9
$DIMLFAC
 40
1.0
  9
$DIMTOFL
 70
     1
  9
$DIMTVP
 40
0.0
  9
$DIMTIX
 70
     0
  9
$DIMSOXD
 70
     0
  9
$DIMSAH
 70
     0
  9
$DIMBLK1
  1

  9
$DIMBLK2
  1

  9
$DIMSTYLE
  2
ISO-25
  9
$DIMCLRD
 70
     0
  9
$DIMCLRE
 70
     0
  9
$DIMCLRT
 70
     0
  9
$DIMTFAC
 40
1.0
  9
$DIMGAP
 40
1.524
  9
$DIMJUST
 70
     0
  9
$DIMSD1
 70
     0
  9
$DIMSD2
 70
     0
  9
$DIMTOLJ
 70
     0
  9
$DIMTZIN
 70
     0
  9
$DIMALTZ
 70
     0
  9
$DIMALTTZ
 70
     0
  9
$DIMUPT
 70
     0
  9
$DIMDEC
 70
     2
  9
$DIMTDEC
 70
     3
  9
$DIMALTU
 70
     2
  9
$DIMALTTD
 70
     3
  9
$DIMTXSTY
  7
Standard
  9
$DIMAUNIT
 70
     0
  9
$DIMADEC
 70
     2
  9
$DIMALTRND
 40
0.0
  9
$DIMAZIN
 70
     0
  9
$DIMDSEP
 70
    44
  9
$DIMATFIT
 70
     3
  9
$DIMFRAC
 70
     0
  9
$DIMLDRBLK
  1

  9
$DIMLUNIT
 70
     2
  9
$DIMLWD
 70
    -2
  9
$DIMLWE
 70
    -2
  9
$DIMTMOVE
 70
     0
  9
$LUNITS
 70
     2
  9
$LUPREC
 70
     2
  9
$SKETCHINC
 40
1.0
  9
$FILLETRAD
 40
10.0
  9
$AUNITS
 70
     0
  9
$AUPREC
 70
     2
  9
$MENU
  1
.
  9
$ELEVATION
 40
0.0
  9
$PELEVATION
 40
0.0
  9
$THICKNESS
 40
0.0
  9
$LIMCHECK
 70
     0
  9
$CHAMFERA
 40
10.0
  9
$CHAMFERB
 40
10.0
  9
$CHAMFERC
 40
20.0
  9
$CHAMFERD
 40
0.0
  9
$SKPOLY
 70
     0
  9
$TDCREATE
 40
2456231.397380961
  9
$TDUCREATE
 40
2456231.355714294
  9
$TDUPDATE
 40
2456231.397382048
  9
$TDUUPDATE
 40
2456231.355715382
  9
$TDINDWG
 40
0.0000000116
  9
$TDUSRTIMER
 40
0.0000000116
  9
$USRTIMER
 70
     1
  9
$ANGBASE
 50
0.0
  9
$ANGDIR
 70
     0
  9
$PDMODE
 70
     0
  9
$PDSIZE
 40
-1.0
  9
$PLINEWID
 40
0.0
  9
$SPLFRAME
 70
     0
  9
$SPLINETYPE
 70
     6
  9
$SPLINESEGS
 70
     8
  9
$HANDSEED
  5
180
  9
$SURFTAB1
 70
     6
  9
$SURFTAB2
 70
     6
  9
$SURFTYPE
 70
     6
  9
$SURFU
 70
     6
  9
$SURFV
 70
     6
  9
$UCSBASE
  2

  9
$UCSNAME
  2

  9
$UCSORG
 10
0.0
 20
0.0
 30
0.0
  9
$UCSXDIR
 10
1.0
 20
0.0
 30
0.0
  9
$UCSYDIR
 10
0.0
 20
1.0
 30
0.0
  9
$UCSORTHOREF
  2

  9
$UCSORTHOVIEW
 70
     0
  9
$UCSORGTOP
 10
0.0
 20
0.0
 30
0.0
  9
$UCSORGBOTTOM
 10
0.0
 20
0.0
 30
0.0
  9
$UCSORGLEFT
 10
0.0
 20
0.0
 30
0.0
  9
$UCSORGRIGHT
 10
0.0
 20
0.0
 30
0.0
  9
$UCSORGFRONT
 10
0.0
 20
0.0
 30
0.0
  9
$UCSORGBACK
 10
0.0
 20
0.0
 30
0.0
  9
$PUCSBASE
  2

  9
$PUCSNAME
  2

  9
$PUCSORG
 10
0.0
 20
0.0
 30
0.0
  9
$PUCSXDIR
 10
1.0
 20
0.0
 30
0.0
  9
$PUCSYDIR
 10
0.0
 20
1.0
 30
0.0
  9
$PUCSORTHOREF
  2

  9
$PUCSORTHOVIEW
 70
     0
  9
$PUCSORGTOP
 10
0.0
 20
0.0
 30
0.0
  9
$PUCSORGBOTTOM
 10
0.0
 20
0.0
 30
0.0
  9
$PUCSORGLEFT
 10
0.0
 20
0.0
 30
0.0
  9
$PUCSORGRIGHT
 10
0.0
 20
0.0
 30
0.0
  9
$PUCSORGFRONT
 10
0.0
 20
0.0
 30
0.0
  9
$PUCSORGBACK
 10
0.0
 20
0.0
 30
0.0
  9
$USERI1
 70
     0
  9
$USERI2
 70
     0
  9
$USERI3
 70
     0
  9
$USERI4
 70
     0
  9
$USERI5
 70
     0
  9
$USERR1
 40
0.0
  9
$USERR2
 40
0.0
  9
$USERR3
 40
0.0
  9
$USERR4
 40
0.0
  9
$USERR5
 40
0.0
  9
$WORLDVIEW
 70
     1
  9
$SHADEDGE
 70
     3
  9
$SHADEDIF
 70
    70
  9
$TILEMODE
 70
     1
  9
$MAXACTVP
 70
    64
  9
$PINSBASE
 10
0.0
 20
0.0
 30
0.0
  9
$PLIMCHECK
 70
     0
  9
$PEXTMIN
 10
1.0000000000E+20
 20
1.0000000000E+20
 30
1.0000000000E+20
  9
$PEXTMAX
 10
-1.0000000000E+20
 20
-1.0000000000E+20
 30
-1.0000000000E+20
  9
$PLIMMIN
 10
0.0
 20
0.0
  9
$PLIMMAX
 10
420.0
 20
297.0
  9
$UNITMODE
 70
     0
  9
$VISRETAIN
 70
     1
  9
$PLINEGEN
 70
     0
  9
$PSLTSCALE
 70
     1
  9
$TREEDEPTH
 70
  3020
  9
$CMLSTYLE
  2
Standard
  9
$CMLJUST
 70
     0
  9
$CMLSCALE
 40
20.0
  9
$PROXYGRAPHICS
 70
     1
  9
$MEASUREMENT
 70
     1
  9
$CELWEIGHT
370
    -1
  9
$ENDCAPS
280
     0
  9
$JOINSTYLE
280
     0
  9
$LWDISPLAY
290
     1
  9
$INSUNITS
 70
     4
  9
$HYPERLINKBASE
  1

  9
$STYLESHEET
  1

  9
$XEDIT
290
     1
  9
$CEPSNTYPE
380
     0
  9
$PSTYLEMODE
290
     1
  9
$FINGERPRINTGUID
  2
{454B320A-85E3-483C-9997-6EC4211B9651}
  9
$VERSIONGUID
  2
{FAEB1C32-E019-11D5-929B-00C0DF256EC4}
  9
$EXTNAMES
290
     1
  9
$PSVPSCALE
 40
0.0
  9
$OLESTARTUP
290
     0
  0
ENDSEC
  0
SECTION
  2
CLASSES
  0
CLASS
  1
ACDBDICTIONARYWDFLT
  2
AcDbDictionaryWithDefault
  3
ObjectDBX Classes
 90
        0
280
     0
281
     0
  0
CLASS
  1
VISUALSTYLE
  2
AcDbVisualStyle
  3
ObjectDBX Classes
 90
     4095
280
     0
281
     0
  0
CLASS
  1
MATERIAL
  2
AcDbMaterial
  3
ObjectDBX Classes
 90
     1153
280
     0
281
     0
  0
CLASS
  1
ACDBPLACEHOLDER
  2
AcDbPlaceHolder
  3
ObjectDBX Classes
 90
        0
280
     0
281
     0
  0
CLASS
  1
LAYOUT
  2
AcDbLayout
  3
ObjectDBX Classes
 90
        0
280
     0
281
     0
  0
ENDSEC
  0
SECTION
  2
TABLES
  0
TABLE
  2
VPORT
  5
8
330
0
100
AcDbSymbolTable
 70
     1
  0
VPORT
  5
29
330
8
100
AcDbSymbolTableRecord
100
AcDbViewportTableRecord
  2
*Active
 70
     0
 10
0.0
 20
0.0
 11
1.0
 21
1.0
 12
148.5
 22
105.0
 13
0.0
 23
0.0
 14
10.0
 24
10.0
 15
10.0
 25
10.0
 16
0.0
 26
0.0
 36
1.0
 17
0.0
 27
0.0
 37
0.0
 40
210.0
 41
1.4142857143
 42
50.0
 43
0.0
 44
0.0
 50
0.0
 51
0.0
 71
     0
 72
  2000
 73
     1
 74
     3
 75
     0
 76
     0
 77
     0
 78
     0
281
     0
 65
     1
110
0.0
120
0.0
130
0.0
111
1.0
121
0.0
131
0.0
112
0.0
122
1.0
132
0.0
 79
     0
146
0.0
  0
ENDTAB
  0
TABLE
  2
LTYPE
  5
5
330
0
100
AcDbSymbolTable
 70
     6
  0
LTYPE
  5
14
330
5
100
AcDbSymbolTableRecord
100
AcDbLinetypeTableRecord
  2
ByBlock
 70
     0
  3

 72
    65
 73
     0
 40
0.0
  0
LTYPE
  5
15
330
5
100
AcDbSymbolTableRecord
100
AcDbLinetypeTableRecord
  2
ByLayer
 70
     0
  3

 72
    65
 73
     0
 40
0.0
  0
LTYPE
  5
16
330
5
100
AcDbSymbolTableRecord
100
AcDbLinetypeTableRecord
  2
Continuous
 70
     0
  3
Solid line
 72
    65
 73
     0
 40
0.0
  0
LTYPE
  5
3F
330
5
100
AcDbSymbolTableRecord
100
AcDbLinetypeTableRecord
  2
HIDDEN
 70
     0
  3
Hidden __ __ __ __ __ __ __ __ __ __ __ __ __ __
 72
    65
 73
     2
 40
1.905
 49
1.27
 74
     0
 49
-0.635
 74
     0
  0
LTYPE
  5
40
330
5
100
AcDbSymbolTableRecord
100
AcDbLinetypeTableRecord
  2
PHANTOM
 70
     0
  3
Phantom ______  __  __  ______  __  __  ______
 72
    65
 73
     6
 40
12.7
 49
6.35
 74
     0
 49
-1.27
 74
     0
 49
1.27
 74
     0
 49
-1.27
 74
     0
 49
1.27
 74
     0
 49
-1.27
 74
     0
  0
LTYPE
  5
41
330
5
100
AcDbSymbolTableRecord
100
AcDbLinetypeTableRecord
  2
CENTER
 70
     0
  3
Center ____ _ ____ _ ____ _ ____ _ ____ _ ____
 72
    65
 73
     4
 40
10.16
 49
6.35
 74
     0
 49
-1.27
 74
     0
 49
1.27
 74
     0
 49
-1.27
 74
     0
  0
LTYPE
  5
42
330
5
100
AcDbSymbolTableRecord
100
AcDbLinetypeTableRecord
  2
CENTERX2
 70
     0
  3
Center (2x) ________  __  ________  __  _____
 72
    65
 73
     4
 40
20.32
 49
12.7
 74
     0
 49
-2.54
 74
     0
 49
2.54
 74
     0
 49
-2.54
 74
     0
  0
LTYPE
  5
43
330
5
100
AcDbSymbolTableRecord
100
AcDbLinetypeTableRecord
  2
DOT2
 70
     0
  3
Dot (.5x) ........................................
 72
    65
 73
     2
 40
0.635
 49
0.0
 74
     0
 49
-0.635
 74
     0
  0
ENDTAB
  0
TABLE
  2
LAYER
  5
2
330
0
100
AcDbSymbolTable
 70
     5
  0
LAYER
  5
10
330
2
100
AcDbSymbolTableRecord
100
AcDbLayerTableRecord
  2
0
 70
     0
 62
     7
  6
Continuous
370
    -3
390
F
  0
LAYER
  5
44
330
2
100
AcDbSymbolTableRecord
100
AcDbLayerTableRecord
  2
FORMAT
 70
     0
 62
     7
  6
Continuous
370
    -3
390
F
  0
LAYER
  5
45
330
2
100
AcDbSymbolTableRecord
100
AcDbLayerTableRecord
  2
VERMASSUNG
 70
     0
 62
     7
  6
Continuous
370
    -3
390
F
  0
LAYER
  5
46
330
2
100
AcDbSymbolTableRecord
100
AcDbLayerTableRecord
  2
KOPF_DÜNN
 70
     0
 62
     7
  6
Continuous
370
    -3
390
F
  0
LAYER
  5
47
330
2
100
AcDbSymbolTableRecord
100
AcDbLayerTableRecord
  2
KOPF_DICK
 70
     0
 62
     7
  6
Continuous
370
    15
390
F
  0
ENDTAB
  0
TABLE
  2
STYLE
  5
3
330
0
100
AcDbSymbolTable
 70
     3
  0
STYLE
  5
11
330
3
100
AcDbSymbolTableRecord
100
AcDbTextStyleTableRecord
  2
Standard
 70
     0
 40
0.0
 41
1.0
 50
0.0
 71
     0
 42
2.0
  3
txt
  4

  0
STYLE
  5
48
330
3
100
AcDbSymbolTableRecord
100
AcDbTextStyleTableRecord
  2
SLDTEXTSTYLE0
 70
     0
 40
0.0
 41
0.7
 50
0.0
 71
     0
 42
0.2
  3
TXT
  4

  0
STYLE
  5
4C
330
3
100
AcDbSymbolTableRecord
100
AcDbTextStyleTableRecord
  2
SLDTEXTSTYLE1
 70
     0
 40
0.0
 41
0.6473684211
 50
0.0
 71
     0
 42
0.2
  3
TXT
  4

  0
ENDTAB
  0
TABLE
  2
VIEW
  5
6
330
0
100
AcDbSymbolTable
 70
     0
  0
ENDTAB
  0
TABLE
  2
UCS
  5
7
330
0
100
AcDbSymbolTable
 70
     0
  0
ENDTAB
  0
TABLE
  2
APPID
  5
9
330
0
100
AcDbSymbolTable
 70
     1
  0
APPID
  5
12
330
9
100
AcDbSymbolTableRecord
100
AcDbRegAppTableRecord
  2
ACAD
 70
     0
  0
ENDTAB
  0
TABLE
  2
DIMSTYLE
  5
A
330
0
100
AcDbSymbolTable
 70
     2
100
AcDbDimStyleTable
  0
DIMSTYLE
105
27
330
A
100
AcDbSymbolTableRecord
100
AcDbDimStyleTableRecord
  2
ISO-25
 70
     0
 41
2.5
 42
0.625
 43
3.75
 44
1.25
 73
     0
 74
     0
 77
     1
 78
     8
140
2.5
141
2.5
143
0.0393700787
147
0.625
171
     3
172
     1
178
     0
271
     2
272
     2
274
     3
278
    44
283
     0
284
     8
340
11
  0
DIMSTYLE
105
13E
102
{ACAD_REACTORS
330
13D
330
149
330
154
330
15E
330
168
330
172
102
}
330
A
100
AcDbSymbolTableRecord
100
AcDbDimStyleTableRecord
  2
SLDDIMSTYLE0
 70
     0
 41
3.0
 44
0.0
 45
0.000000001
 73
     0
 74
     0
 77
     1
 78
    12
 79
     3
140
2.0
147
0.5
173
     1
178
     0
271
     2
272
     3
276
     2
284
    12
340
48
  0
ENDTAB
  0
TABLE
  2
BLOCK_RECORD
  5
1
330
0
100
AcDbSymbolTable
 70
     7
  0
BLOCK_RECORD
  5
1F
330
1
100
AcDbSymbolTableRecord
100
AcDbBlockTableRecord
  2
*Model_Space
340
22
  0
BLOCK_RECORD
  5
1B
330
1
100
AcDbSymbolTableRecord
100
AcDbBlockTableRecord
  2
*Paper_Space
340
1E
  0
BLOCK_RECORD
  5
23
330
1
100
AcDbSymbolTableRecord
100
AcDbBlockTableRecord
  2
*Paper_Space0
340
26
  0
BLOCK_RECORD
  5
13F
330
1
100
AcDbSymbolTableRecord
100
AcDbBlockTableRecord
  2
_D
340
0
  0
BLOCK_RECORD
  5
14A
330
1
100
AcDbSymbolTableRecord
100
AcDbBlockTableRecord
  2
_D_1
340
0
  0
BLOCK_RECORD
  5
155
330
1
100
AcDbSymbolTableRecord
100
AcDbBlockTableRecord
  2
_D_2
340
0
  0
BLOCK_RECORD
  5
15F
330
1
100
AcDbSymbolTableRecord
100
AcDbBlockTableRecord
  2
_D_3
340
0
  0
BLOCK_RECORD
  5
169
330
1
100
AcDbSymbolTableRecord
100
AcDbBlockTableRecord
  2
_D_4
340
0
  0
BLOCK_RECORD
  5
173
330
1
100
AcDbSymbolTableRecord
100
AcDbBlockTableRecord
  2
_D_5
340
0
  0
ENDTAB
  0
ENDSEC
  0
SECTION
  2
BLOCKS
  0
BLOCK
  5
20
330
1F
100
AcDbEntity
  8
0
100
AcDbBlockBegin
  2
*Model_Space
 70
     0
 10
0.0
 20
0.0
 30
0.0
  3
*Model_Space
  1

  0
ENDBLK
  5
21
330
1F
100
AcDbEntity
  8
0
100
AcDbBlockEnd
  0
BLOCK
  5
1C
330
1B
100
AcDbEntity
 67
     1
  8
0
100
AcDbBlockBegin
  2
*Paper_Space
 70
     0
 10
0.0
 20
0.0
 30
0.0
  3
*Paper_Space
  1

  0
ENDBLK
  5
1D
330
1B
100
AcDbEntity
 67
     1
  8
0
100
AcDbBlockEnd
  0
BLOCK
  5
24
330
23
100
AcDbEntity
  8
0
100
AcDbBlockBegin
  2
*Paper_Space0
 70
     0
 10
0.0
 20
0.0
 30
0.0
  3
*Paper_Space0
  1

  0
ENDBLK
  5
25
330
23
100
AcDbEntity
  8
0
100
AcDbBlockEnd
  0
BLOCK
  5
140
330
13F
100
AcDbEntity
  8
0
100
AcDbBlockBegin
  2
_D
 70
     0
 10
0.0
 20
0.0
 30
0.0
  3
_D
  1

  0
SOLID
  5
142
330
13F
100
AcDbEntity
  8
VERMASSUNG
100
AcDbTrace
 10
239.1049200885
 20
116.4304272677
 30
0.0
 11
238.6549200885
 21
113.4304272677
 31
0.0
 12
239.5549200885
 22
113.4304272677
 32
0.0
 13
239.5549200885
 23
113.4304272677
 33
0.0
  0
SOLID
  5
143
330
13F
100
AcDbEntity
  8
VERMASSUNG
100
AcDbTrace
 10
239.1049200885
 20
108.4304272677
 30
0.0
 11
239.5549200885
 21
111.4304272677
 31
0.0
 12
238.6549200885
 22
111.4304272677
 32
0.0
 13
238.6549200885
 23
111.4304272677
 33
0.0
  0
LINE
  5
144
330
13F
100
AcDbEntity
  8
VERMASSUNG
100
AcDbLine
 10
231.177084469
 20
116.4304272677
 30
0.0
 11
240.1049200885
 21
116.4304272677
 31
0.0
  0
LINE
  5
145
330
13F
100
AcDbEntity
  8
VERMASSUNG
100
AcDbLine
 10
231.177084469
 20
108.4304272677
 30
0.0
 11
240.1049200885
 21
108.4304272677
 31
0.0
  0
LINE
  5
146
330
13F
100
AcDbEntity
  8
VERMASSUNG
100
AcDbLine
 10
239.1049200885
 20
116.4304272677
 30
0.0
 11
239.1049200885
 21
108.4304272677
 31
0.0
  0
MTEXT
  5
147
330
13F
100
AcDbEntity
  8
VERMASSUNG
100
AcDbMText
 10
236.526784609
 20
109.926180261
 30
0.0
 40
2.0
 41
0.0
 71
     1
 72
     1
  1
%%c
  7
SLDTEXTSTYLE0
 11
-7.044195017643634E-15
 21
1.0
 31
0.0
 73
     1
 44
1.0
  0
MTEXT
  5
148
330
13F
100
AcDbEntity
  8
VERMASSUNG
100
AcDbMText
 10
236.5267847254
 20
113.5350804828
 30
0.0
 40
2.0
 41
0.0
 71
     1
 72
     1
  1
8
  7
SLDTEXTSTYLE0
 11
-7.044195017643634E-15
 21
1.0
 31
0.0
 73
     1
 44
1.0
  0
ENDBLK
  5
141
330
13F
100
AcDbEntity
  8
0
100
AcDbBlockEnd
  0
BLOCK
  5
14B
330
14A
100
AcDbEntity
  8
0
100
AcDbBlockBegin
  2
_D_1
 70
     0
 10
0.0
 20
0.0
 30
0.0
  3
_D_1
  1

  0
SOLID
  5
14D
330
14A
100
AcDbEntity
  8
VERMASSUNG
100
AcDbTrace
 10
245.1049200885
 20
128.4304272677
 30
0.0
 11
244.6549200885
 21
125.4304272677
 31
0.0
 12
245.5549200885
 22
125.4304272677
 32
0.0
 13
245.5549200885
 23
125.4304272677
 33
0.0
  0
SOLID
  5
14E
330
14A
100
AcDbEntity
  8
VERMASSUNG
100
AcDbTrace
 10
245.1049200885
 20
96.4304272677
 30
0.0
 11
245.5549200885
 21
99.4304272677
 31
0.0
 12
244.6549200885
 22
99.4304272677
 32
0.0
 13
244.6549200885
 23
99.4304272677
 33
0.0
  0
LINE
  5
14F
330
14A
100
AcDbEntity
  8
VERMASSUNG
100
AcDbLine
 10
218.610042946
 20
128.4304272677
 30
0.0
 11
246.1049200885
 21
128.4304272677
 31
0.0
  0
LINE
  5
150
330
14A
100
AcDbEntity
  8
VERMASSUNG
100
AcDbLine
 10
218.610042946
 20
96.4304272677
 30
0.0
 11
246.1049200885
 21
96.4304272677
 31
0.0
  0
LINE
  5
151
330
14A
100
AcDbEntity
  8
VERMASSUNG
100
AcDbLine
 10
245.1049200885
 20
128.4304272677
 30
0.0
 11
245.1049200885
 21
96.4304272677
 31
0.0
  0
MTEXT
  5
152
330
14A
100
AcDbEntity
  8
VERMASSUNG
100
AcDbMText
 10
242.526784609
 20
109.2263833652
 30
0.0
 40
2.0
 41
0.0
 71
     1
 72
     1
  1
%%c
  7
SLDTEXTSTYLE0
 11
-7.044195017643634E-15
 21
1.0
 31
0.0
 73
     1
 44
1.0
  0
MTEXT
  5
153
330
14A
100
AcDbEntity
  8
VERMASSUNG
100
AcDbMText
 10
242.5267847254
 20
112.835283587
 30
0.0
 40
2.0
 41
0.0
 71
     1
 72
     1
  1
32
  7
SLDTEXTSTYLE0
 11
-7.044195017643634E-15
 21
1.0
 31
0.0
 73
     1
 44
1.0
  0
ENDBLK
  5
14C
330
14A
100
AcDbEntity
  8
0
100
AcDbBlockEnd
  0
BLOCK
  5
156
330
155
100
AcDbEntity
  8
0
100
AcDbBlockBegin
  2
_D_2
 70
     0
 10
0.0
 20
0.0
 30
0.0
  3
_D_2
  1

  0
SOLID
  5
158
330
155
100
AcDbEntity
  8
VERMASSUNG
100
AcDbTrace
 10
127.427084469
 20
147.2408281344
 30
0.0
 11
130.427084469
 21
146.7908281344
 31
0.0
 12
130.427084469
 22
147.6908281344
 32
0.0
 13
130.427084469
 23
147.6908281344
 33
0.0
  0
SOLID
  5
159
330
155
100
AcDbEntity
  8
VERMASSUNG
100
AcDbTrace
 10
231.477084469
 20
147.2408281344
 30
0.0
 11
228.477084469
 21
147.6908281344
 31
0.0
 12
228.477084469
 22
146.7908281344
 32
0.0
 13
228.477084469
 23
146.7908281344
 33
0.0
  0
LINE
  5
15A
330
155
100
AcDbEntity
  8
VERMASSUNG
100
AcDbLine
 10
127.427084469
 20
142.2768675914
 30
0.0
 11
127.427084469
 21
148.2408281344
 31
0.0
  0
LINE
  5
15B
330
155
100
AcDbEntity
  8
VERMASSUNG
100
AcDbLine
 10
231.477084469
 20
121.1562867461
 30
0.0
 11
231.477084469
 21
148.2408281344
 31
0.0
  0
LINE
  5
15C
330
155
100
AcDbEntity
  8
VERMASSUNG
100
AcDbLine
 10
127.427084469
 20
147.2408281344
 30
0.0
 11
231.477084469
 21
147.2408281344
 31
0.0
  0
MTEXT
  5
15D
330
155
100
AcDbEntity
  8
VERMASSUNG
100
AcDbMText
 10
175.753419724
 20
149.8189634976
 30
0.0
 40
2.0
 41
0.0
 71
     1
 72
     1
  1
104.05
  7
SLDTEXTSTYLE0
 73
     1
 44
1.0
  0
ENDBLK
  5
157
330
155
100
AcDbEntity
  8
0
100
AcDbBlockEnd
  0
BLOCK
  5
160
330
15F
100
AcDbEntity
  8
0
100
AcDbBlockBegin
  2
_D_3
 70
     0
 10
0.0
 20
0.0
 30
0.0
  3
_D_3
  1

  0
SOLID
  5
162
330
15F
100
AcDbEntity
  8
VERMASSUNG
100
AcDbTrace
 10
101.477084469
 20
153.2408281344
 30
0.0
 11
104.477084469
 21
152.7908281344
 31
0.0
 12
104.477084469
 22
153.6908281344
 32
0.0
 13
104.477084469
 23
153.6908281344
 33
0.0
  0
SOLID
  5
163
330
15F
100
AcDbEntity
  8
VERMASSUNG
100
AcDbTrace
 10
231.477084469
 20
153.2408281344
 30
0.0
 11
228.477084469
 21
153.6908281344
 31
0.0
 12
228.477084469
 22
152.7908281344
 32
0.0
 13
228.477084469
 23
152.7908281344
 33
0.0
  0
LINE
  5
164
330
15F
100
AcDbEntity
  8
VERMASSUNG
100
AcDbLine
 10
101.477084469
 20
143.6304272677
 30
0.0
 11
101.477084469
 21
154.2408281344
 31
0.0
  0
LINE
  5
165
330
15F
100
AcDbEntity
  8
VERMASSUNG
100
AcDbLine
 10
231.477084469
 20
121.1562867461
 30
0.0
 11
231.477084469
 21
154.2408281344
 31
0.0
  0
LINE
  5
166
330
15F
100
AcDbEntity
  8
VERMASSUNG
100
AcDbLine
 10
101.477084469
 20
153.2408281344
 30
0.0
 11
231.477084469
 21
153.2408281344
 31
0.0
  0
MTEXT
  5
167
330
15F
100
AcDbEntity
  8
VERMASSUNG
100
AcDbMText
 10
164.5773740478
 20
155.8189634976
 30
0.0
 40
2.0
 41
0.0
 71
     1
 72
     1
  1
130
  7
SLDTEXTSTYLE0
 73
     1
 44
1.0
  0
ENDBLK
  5
161
330
15F
100
AcDbEntity
  8
0
100
AcDbBlockEnd
  0
BLOCK
  5
16A
330
169
100
AcDbEntity
  8
0
100
AcDbBlockBegin
  2
_D_4
 70
     0
 10
0.0
 20
0.0
 30
0.0
  3
_D_4
  1

  0
SOLID
  5
16C
330
169
100
AcDbEntity
  8
VERMASSUNG
100
AcDbTrace
 10
69.577084469
 20
159.2408281344
 30
0.0
 11
72.577084469
 21
158.7908281344
 31
0.0
 12
72.577084469
 22
159.6908281344
 32
0.0
 13
72.577084469
 23
159.6908281344
 33
0.0
  0
SOLID
  5
16D
330
169
100
AcDbEntity
  8
VERMASSUNG
100
AcDbTrace
 10
231.477084469
 20
159.2408281344
 30
0.0
 11
228.477084469
 21
159.6908281344
 31
0.0
 12
228.477084469
 22
158.7908281344
 32
0.0
 13
228.477084469
 23
158.7908281344
 33
0.0
  0
LINE
  5
16E
330
169
100
AcDbEntity
  8
VERMASSUNG
100
AcDbLine
 10
69.577084469
 20
132.1211050142
 30
0.0
 11
69.577084469
 21
160.2408281344
 31
0.0
  0
LINE
  5
16F
330
169
100
AcDbEntity
  8
VERMASSUNG
100
AcDbLine
 10
231.477084469
 20
121.1562867461
 30
0.0
 11
231.477084469
 21
160.2408281344
 31
0.0
  0
LINE
  5
170
330
169
100
AcDbEntity
  8
VERMASSUNG
100
AcDbLine
 10
69.577084469
 20
159.2408281344
 30
0.0
 11
231.477084469
 21
159.2408281344
 31
0.0
  0
MTEXT
  5
171
330
169
100
AcDbEntity
  8
VERMASSUNG
100
AcDbMText
 10
147.8286529835
 20
161.8189634976
 30
0.0
 40
2.0
 41
0.0
 71
     1
 72
     1
  1
161.9
  7
SLDTEXTSTYLE0
 73
     1
 44
1.0
  0
ENDBLK
  5
16B
330
169
100
AcDbEntity
  8
0
100
AcDbBlockEnd
  0
BLOCK
  5
174
330
173
100
AcDbEntity
  8
0
100
AcDbBlockBegin
  2
_D_5
 70
     0
 10
0.0
 20
0.0
 30
0.0
  3
_D_5
  1

  0
SOLID
  5
176
330
173
100
AcDbEntity
  8
VERMASSUNG
100
AcDbTrace
 10
63.1963610419
 20
143.9304272677
 30
0.0
 11
62.7463610419
 21
140.9304272677
 31
0.0
 12
63.6463610419
 22
140.9304272677
 32
0.0
 13
63.6463610419
 23
140.9304272677
 33
0.0
  0
SOLID
  5
177
330
173
100
AcDbEntity
  8
VERMASSUNG
100
AcDbTrace
 10
63.1963610419
 20
80.9304272677
 30
0.0
 11
63.6463610419
 21
83.9304272677
 31
0.0
 12
62.7463610419
 22
83.9304272677
 32
0.0
 13
62.7463610419
 23
83.9304272677
 33
0.0
  0
LINE
  5
178
330
173
100
AcDbEntity
  8
VERMASSUNG
100
AcDbLine
 10
101.777084469
 20
143.9304272677
 30
0.0
 11
62.1963610419
 21
143.9304272677
 31
0.0
  0
LINE
  5
179
330
173
100
AcDbEntity
  8
VERMASSUNG
100
AcDbLine
 10
101.777084469
 20
80.9304272677
 30
0.0
 11
62.1963610419
 21
80.9304272677
 31
0.0
  0
LINE
  5
17A
330
173
100
AcDbEntity
  8
VERMASSUNG
100
AcDbLine
 10
63.1963610419
 20
143.9304272677
 30
0.0
 11
63.1963610419
 21
80.9304272677
 31
0.0
  0
MTEXT
  5
17B
330
173
100
AcDbEntity
  8
VERMASSUNG
100
AcDbMText
 10
60.4182255529
 20
104.7271656269
 30
0.0
 40
2.0
 41
0.0
 71
     1
 72
     1
  1
HSK A
  7
SLDTEXTSTYLE0
 11
-7.044195017643634E-15
 21
1.0
 31
0.0
 73
     1
 44
1.0
  0
MTEXT
  5
17C
330
173
100
AcDbEntity
  8
VERMASSUNG
100
AcDbMText
 10
60.6182255624
 20
113.7271661708
 30
0.0
 40
2.0
 41
0.0
 71
     1
 72
     1
  1
%%c
  7
SLDTEXTSTYLE0
 11
-7.044195017643634E-15
 21
1.0
 31
0.0
 73
     1
 44
1.0
  0
MTEXT
  5
17D
330
173
100
AcDbEntity
  8
VERMASSUNG
100
AcDbMText
 10
60.6182256788
 20
117.3345013253
 30
0.0
 40
2.0
 41
0.0
 71
     1
 72
     1
  1
63
  7
SLDTEXTSTYLE0
 11
-7.044195017643634E-15
 21
1.0
 31
0.0
 73
     1
 44
1.0
  0
ENDBLK
  5
175
330
173
100
AcDbEntity
  8
0
100
AcDbBlockEnd
  0
ENDSEC
  0
SECTION
  2
ENTITIES
  0
MTEXT
  5
49
330
1F
100
AcDbEntity
  8
KOPF_DÜNN
100
AcDbMText
 10
13.8892156294
 20
23.8442973028
 30
0.0
 40
3.0
 41
0.0
 71
     1
 72
     1
  1
HA6.W08.K01.130
  7
SLDTEXTSTYLE0
 73
     1
 44
1.0
  0
MTEXT
  5
4A
330
1F
100
AcDbEntity
  8
VERMASSUNG
100
AcDbMText
 10
13.9329988022
 20
28.8834360957
 30
0.0
 40
3.0
 41
0.0
 71
     1
 72
     1
  1
Flächenspannfutter_End mill adapter Weldon ø8
  7
SLDTEXTSTYLE0
 73
     1
 44
1.0
  0
MTEXT
  5
4B
330
1F
100
AcDbEntity
  8
VERMASSUNG
100
AcDbMText
 10
98.8601118557
 20
13.8365368179
 30
0.0
 40
2.0
 41
0.0
 71
     1
 72
     1
  1
Datum: 20.04.2011
  7
SLDTEXTSTYLE0
 73
     1
 44
1.0
  0
MTEXT
  5
4D
330
1F
100
AcDbEntity
  8
VERMASSUNG
100
AcDbMText
 10
13.933048693
 20
18.0482802738
 30
0.0
 40
2.0
 41
0.0
 71
     1
 72
     1
  1
DIN 69 893 HSK A 63
  7
SLDTEXTSTYLE1
 73
     1
 44
1.0
  0
MTEXT
  5
4E
330
1F
100
AcDbEntity
  8
VERMASSUNG
100
AcDbMText
 10
13.9808475933
 20
13.9090973692
 30
0.0
 40
2.0
 41
0.0
 71
     1
 72
     1
  1
Gewicht: 1248g
  7
SLDTEXTSTYLE0
 73
     1
 44
1.0
  0
LINE
  5
4F
330
1F
100
AcDbEntity
  8
0
  6
Continuous
 62
     7
370
    15
100
AcDbLine
 10
101.777084469
 20
80.9304272677
 30
0.0
 11
106.427084469
 21
80.9304272677
 31
0.0
  0
LINE
  5
50
330
1F
100
AcDbEntity
  8
0
  6
Continuous
 62
     7
370
    15
100
AcDbLine
 10
106.4550728281
 20
143.9304272677
 30
0.0
 11
101.777084469
 21
143.9304272677
 31
0.0
  0
ARC
  5
51
330
1F
100
AcDbEntity
  8
0
  6
Continuous
 62
     7
370
    15
100
AcDbCircle
 10
101.777084469
 20
81.2304272677
 30
0.0
 40
0.3000000000000114
100
AcDbArc
 50
180.0
 51
270.0
  0
ARC
  5
52
330
1F
100
AcDbEntity
  8
0
  6
Continuous
 62
     7
370
    15
100
AcDbCircle
 10
101.777084469
 20
143.6304272677
 30
0.0
 40
0.3000000000000114
100
AcDbArc
 50
90.0
 51
180.0
  0
ARC
  5
53
330
1F
100
AcDbEntity
  8
0
  6
Continuous
 62
     7
370
    15
100
AcDbCircle
 10
100.9770777164
 20
87.8599896533
 30
0.0
 40
0.6000067526677242
100
AcDbArc
 50
33.5571153394
 51
90.0
  0
ARC
  5
54
330
1F
100
AcDbEntity
  8
0
  6
Continuous
 62
     7
370
    15
100
AcDbCircle
 10
100.9770777164
 20
137.0008648821
 30
0.0
 40
0.6000067526677242
100
AcDbArc
 50
270.0
 51
326.4428846606
  0
LINE
  5
55
330
1F
100
AcDbEntity
  8
0
  6
Continuous
 62
     7
370
    15
100
AcDbLine
 10
99.477084469
 20
88.209996406
 30
0.0
 11
100.3337972424
 21
88.4395519017
 31
0.0
  0
LINE
  5
56
330
1F
100
AcDbEntity
  8
0
  6
Continuous
 62
     7
370
    15
100
AcDbLine
 10
100.3337972424
 20
136.4213026336
 30
0.0
 11
99.477084469
 21
136.6508581294
 31
0.0
  0
LINE
  5
57
330
1F
100
AcDbEntity
  8
0
  6
Continuous
 62
     7
370
    15
100
AcDbLine
 10
88.2466622865
 20
136.0882117275
 30
0.0
 11
75.677084469
 21
135.4584733599
 31
0.0
  0
LINE
  5
58
330
1F
100
AcDbEntity
  8
0
  6
Continuous
 62
     7
370
    15
100
AcDbLine
 10
99.477084469
 20
136.6508581294
 30
0.0
 11
96.6584751115
 21
136.5096452357
 31
0.0
  0
LINE
  5
59
330
1F
100
AcDbEntity
  8
0
  6
Continuous
 62
     7
370
    15
100
AcDbLine
 10
96.6586965867
 20
88.3511982037
 30
0.0
 11
99.477084469
 21
88.209996406
 31
0.0
  0
LINE
  5
5A
330
1F
100
AcDbEntity
  8
0
  6
Continuous
 62
     7
370
    15
100
AcDbLine
 10
79.677084469
 20
89.2019803739
 30
0.0
 11
88.2473612382
 21
88.7726077903
 31
0.0
  0
ARC
  5
5B
330
1F
100
AcDbEntity
  8
0
  6
Continuous
 62
     7
370
    15
100
AcDbCircle
 10
100.4890886695
 20
87.859996406
 30
0.0
 40
0.6000000000000085
100
AcDbArc
 50
90.0
 51
105.0
  0
ARC
  5
5C
330
1F
100
AcDbEntity
  8
0
  6
Continuous
 62
     7
370
    15
100
AcDbCircle
 10
100.4890886695
 20
137.0008581294
 30
0.0
 40
0.6000000000000227
100
AcDbArc
 50
255.0
 51
270.0
  0
LINE
  5
5D
330
1F
100
AcDbEntity
  8
0
  6
Continuous
 62
     7
370
    15
100
AcDbLine
 10
100.4890886695
 20
88.459996406
 30
0.0
 11
100.9770777164
 21
88.459996406
 31
0.0
  0
LINE
  5
5E
330
1F
100
AcDbEntity
  8
0
  6
Continuous
 62
     7
370
    15
100
AcDbLine
 10
100.9770777164
 20
136.4008581294
 30
0.0
 11
100.4890886695
 21
136.4008581294
 31
0.0
  0
ARC
  5
5F
330
1F
100
AcDbEntity
  8
0
  6
Continuous
 62
     7
370
    15
100
AcDbCircle
 10
130.427084469
 20
90.4144684662
 30
0.0
 40
3.000000000000003
100
AcDbArc
 50
104.3250519401
 51
180.0
  0
ARC
  5
60
330
1F
100
AcDbEntity
  8
0
  6
Continuous
 62
     7
370
    15
100
AcDbCircle
 10
130.427084469
 20
134.4463860692
 30
0.0
 40
3.000000000000016
100
AcDbArc
 50
180.0
 51
255.6749480599
  0
ARC
  5
61
330
1F
100
AcDbEntity
  8
0
  6
Continuous
 62
     7
370
    15
100
AcDbCircle
 10
154.427084469
 20
-3.5695727323
 30
0.0
 40
100.0
100
AcDbArc
 50
90.0
 51
104.3250519401
  0
ARC
  5
62
330
1F
100
AcDbEntity
  8
0
  6
Continuous
 62
     7
370
    15
100
AcDbCircle
 10
154.427084469
 20
228.4304272677
 30
0.0
 40
100.0
100
AcDbArc
 50
255.6749480599
 51
270.0
  0
LINE
  5
63
330
1F
100
AcDbEntity
  8
0
  6
Continuous
 62
     7
370
    15
100
AcDbLine
 10
154.427084469
 20
96.4304272677
 30
0.0
 11
218.610042946
 21
96.4304272677
 31
0.0
  0
LINE
  5
64
330
1F
100
AcDbEntity
  8
0
  6
Continuous
 62
     7
370
    15
100
AcDbLine
 10
218.610042946
 20
128.4304272677
 30
0.0
 11
154.427084469
 21
128.4304272677
 31
0.0
  0
LINE
  5
65
330
1F
100
AcDbEntity
  8
0
  6
Continuous
 62
     7
370
    15
100
AcDbLine
 10
218.610042946
 20
96.4304272677
 30
0.0
 11
230.3223209925
 21
101.8919522152
 31
0.0
  0
LINE
  5
66
330
1F
100
AcDbEntity
  8
0
  6
Continuous
 62
     7
370
    15
100
AcDbLine
 10
230.3223209925
 20
122.9689023201
 30
0.0
 11
218.610042946
 21
128.4304272677
 31
0.0
  0
LINE
  5
67
330
1F
100
AcDbEntity
  8
0
  6
Continuous
 62
     7
370
    15
100
AcDbLine
 10
70.860421109
 20
91.5604272677
 30
0.0
 11
78.277084469
 21
91.5604272677
 31
0.0
  0
ARC
  5
68
330
1F
100
AcDbEntity
  8
0
  6
Continuous
 62
     7
370
    15
100
AcDbCircle
 10
229.477084469
 20
103.7045677893
 30
0.0
 40
2.0
100
AcDbArc
 50
295.0
 51
0.0
  0
ARC
  5
69
330
1F
100
AcDbEntity
  8
0
  6
Continuous
 62
     7
370
    15
100
AcDbCircle
 10
229.477084469
 20
121.1562867461
 30
0.0
 40
2.000000000000001
100
AcDbArc
 50
0.0
 51
65.0
  0
ARC
  5
6A
330
1F
100
AcDbEntity
  8
0
  6
Continuous
 62
     7
370
    15
100
AcDbCircle
 10
78.277084469
 20
90.1604272677
 30
0.0
 40
1.399999999999997
100
AcDbArc
 50
42.2465410162
 51
90.0
  0
LINE
  5
6B
330
1F
100
AcDbEntity
  8
0
  6
Continuous
 62
     7
370
    15
100
AcDbLine
 10
69.5781169632
 20
92.7093947735
 30
0.0
 11
70.7182479272
 21
91.5692638095
 31
0.0
  0
LINE
  5
6C
330
1F
100
AcDbEntity
  8
0
  6
Continuous
 62
     7
370
    15
100
AcDbLine
 10
70.7182479272
 20
133.2915907259
 30
0.0
 11
69.5869852424
 21
132.1603280411
 31
0.0
  0
ARC
  5
6D
330
1F
100
AcDbEntity
  8
0
  6
Continuous
 62
     7
370
    15
100
AcDbCircle
 10
74.277084469
 20
134.7004272677
 30
0.0
 40
1.399999999999984
100
AcDbArc
 50
270.0
 51
301.7485287426
  0
LINE
  5
6E
330
1F
100
AcDbEntity
  8
0
  6
Continuous
 62
     7
370
    15
100
AcDbLine
 10
74.277084469
 20
133.3004272677
 30
0.0
 11
70.8513502029
 21
133.3004272677
 31
0.0
  0
CIRCLE
  5
6F
330
1F
100
AcDbEntity
  8
0
  6
Continuous
 62
     7
370
    15
100
AcDbCircle
 10
213.977084469
 20
112.4304272677
 30
0.0
 40
3.400000000000031
  0
LINE
  5
70
330
1F
100
AcDbEntity
  8
0
  6
Continuous
 62
     7
370
    15
100
AcDbLine
 10
215.8728718309
 20
113.7492614544
 30
0.0
 11
216.067122059
 21
111.4480443455
 31
0.0
  0
LINE
  5
71
330
1F
100
AcDbEntity
  8
0
  6
Continuous
 62
     7
370
    15
100
AcDbLine
 10
213.7828342409
 20
114.7316443766
 30
0.0
 11
211.8870468791
 21
113.4128101898
 31
0.0
  0
LINE
  5
72
330
1F
100
AcDbEntity
  8
0
  6
Continuous
 62
     7
370
    15
100
AcDbLine
 10
212.0812971072
 20
111.111593081
 30
0.0
 11
211.8870468791
 21
113.4128101898
 31
0.0
  0
LINE
  5
73
330
1F
100
AcDbEntity
  8
0
  6
Continuous
 62
     7
370
    15
100
AcDbLine
 10
212.0812971072
 20
111.111593081
 30
0.0
 11
214.1713346972
 21
110.1292101588
 31
0.0
  0
LINE
  5
74
330
1F
100
AcDbEntity
  8
0
  6
Continuous
 62
     7
370
    15
100
AcDbLine
 10
213.7828342409
 20
114.7316443766
 30
0.0
 11
215.8728718309
 21
113.7492614544
 31
0.0
  0
LINE
  5
75
330
1F
100
AcDbEntity
  8
0
  6
Continuous
 62
     7
370
    15
100
AcDbLine
 10
214.1713346972
 20
110.1292101588
 30
0.0
 11
216.067122059
 21
111.4480443455
 31
0.0
  0
LINE
  5
76
330
1F
100
AcDbEntity
  8
0
  6
Continuous
 62
     7
370
    15
100
AcDbLine
 10
126.827084469
 20
82.2435095714
 30
0.0
 11
122.8690173005
 21
82.2435095714
 31
0.0
  0
LINE
  5
77
330
1F
100
AcDbEntity
  8
0
  6
Continuous
 62
     7
370
    15
100
AcDbLine
 10
122.8690173005
 20
82.2435095714
 30
0.0
 11
122.8690173005
 21
132.2804272677
 31
0.0
  0
LINE
  5
78
330
1F
100
AcDbEntity
  8
0
  6
Continuous
 62
     7
370
    15
100
AcDbLine
 10
122.8690173005
 20
132.2804272677
 30
0.0
 11
126.827084469
 21
132.2804272677
 31
0.0
  0
LINE
  5
79
330
1F
100
AcDbEntity
  8
0
  6
Continuous
 62
     7
370
    15
100
AcDbLine
 10
127.427084469
 20
82.8701498671
 30
0.0
 11
127.427084469
 21
132.2804272677
 31
0.0
  0
SPLINE
  5
7A
330
1F
100
AcDbEntity
  8
0
  6
Continuous
 62
     7
370
    15
100
AcDbSpline
210
0.0
220
0.0
230
1.0
 70
     8
 71
     3
 72
    10
 73
     6
 74
     0
 42
0.00000001
 43
0.00000001
 12
1.0
 22
0.0
 32
0.0
 13
1.0
 23
0.0
 33
0.0
 40
0.0
 40
0.0
 40
0.0
 40
0.0
 40
0.5
 40
0.5
 40
1.0
 40
1.0
 40
1.0
 40
1.0
 10
127.4270844690419
 20
82.87014986708968
 30
0.0
 10
127.4270844690419
 20
82.71026259889602
 30
0.0
 10
127.3657748178061
 20
82.54913534338142
 30
0.0
 10
127.146675180271
 20
82.31503634502658
 30
0.0
 10
126.9886269739576
 20
82.24350957143537
 30
0.0
 10
126.8270844690419
 20
82.24350957143537
 30
0.0
  0
SPLINE
  5
7B
330
1F
100
AcDbEntity
  8
0
  6
Continuous
 62
     7
370
    15
100
AcDbSpline
210
0.0
220
0.0
230
1.0
 70
    24
 71
     3
 72
    12
 73
     8
 74
     0
 42
0.00000001
 43
0.00000001
 12
1.0
 22
0.0
 32
0.0
 13
1.0
 23
0.0
 33
0.0
 40
0.0
 40
0.0
 40
0.0
 40
0.0
 40
0.2500000000000033
 40
0.2500000000000033
 40
0.5000000000000067
 40
0.5000000000000067
 40
1.0
 40
1.0
 40
1.0
 40
1.0
 10
126.8270844690419
 20
132.2804272676825
 30
0.0
 10
126.917323536729
 20
132.2804272676825
 30
0.0
 10
127.0082216508355
 20
132.2804272676825
 30
0.0
 10
127.162818687324
 20
132.2804272676825
 30
0.0
 10
127.2277971034321
 20
132.2804272676825
 30
0.0
 10
127.3796321313684
 20
132.2804272676825
 30
0.0
 10
127.4270844690419
 20
132.2804272676825
 30
0.0
 10
127.4270844690419
 20
132.2804272676825
 30
0.0
  0
LINE
  5
7C
330
1F
100
AcDbEntity
  8
0
  6
Continuous
 62
     7
370
    15
100
AcDbLine
 10
106.427084469
 20
132.2804272677
 30
0.0
 11
116.0851516376
 21
132.2804272677
 31
0.0
  0
LINE
  5
7D
330
1F
100
AcDbEntity
  8
0
  6
Continuous
 62
     7
370
    15
100
AcDbLine
 10
116.0851516376
 20
82.2435095714
 30
0.0
 11
116.0851516376
 21
132.2804272677
 31
0.0
  0
LINE
  5
7E
330
1F
100
AcDbEntity
  8
0
  6
Continuous
 62
     7
370
    15
100
AcDbLine
 10
116.0851516376
 20
82.2435095714
 30
0.0
 11
114.427084469
 21
82.2435095714
 31
0.0
  0
SPLINE
  5
7F
330
1F
100
AcDbEntity
  8
0
  6
Continuous
 62
     7
370
    15
100
AcDbSpline
210
0.0
220
0.0
230
1.0
 70
     8
 71
     3
 72
    28
 73
    24
 74
     0
 42
0.00000001
 43
0.00000001
 12
1.0
 22
0.0
 32
0.0
 13
1.0
 23
0.0
 33
0.0
 40
0.0
 40
0.0
 40
0.0
 40
0.0
 40
0.1249999999999999
 40
0.1249999999999999
 40
0.1874999999999998
 40
0.1874999999999998
 40
0.2499999999999997
 40
0.2499999999999997
 40
0.3749999999999993
 40
0.3749999999999993
 40
0.4374999999999993
 40
0.4374999999999993
 40
0.4999999999999992
 40
0.4999999999999992
 40
0.6249999999999992
 40
0.6249999999999992
 40
0.7499999999999992
 40
0.7499999999999992
 40
0.8124999999999993
 40
0.8124999999999993
 40
0.8749999999999996
 40
0.8749999999999996
 40
1.0
 40
1.0
 40
1.0
 40
1.0
 10
114.4270844690419
 20
82.24350957143537
 30
0.0
 10
113.895376711549
 20
82.24350957143537
 30
0.0
 10
113.3731381462387
 20
82.22772485748514
 30
0.0
 10
112.6032676599637
 20
82.18272944340895
 30
0.0
 10
112.3489080877723
 20
82.16417444833321
 30
0.0
 10
111.8447865070738
 20
82.12032172588673
 30
0.0
 10
111.5950636896459
 20
82.09497711893451
 30
0.0
 10
110.8694737381995
 20
82.0115750411844
 30
0.0
 10
110.411113476618
 20
81.94570948203332
 30
0.0
 10
109.7606155332241
 20
81.83673914154154
 30
0.0
 10
109.5489334824316
 20
81.79849950577488
 30
0.0
 10
109.1448619932936
 20
81.72074076835553
 30
0.0
 10
108.9523554794728
 20
81.6812398061802
 30
0.0
 10
108.4025205084515
 20
81.56233206381418
 30
0.0
 10
108.0725917301427
 20
81.48251438238955
 30
0.0
 10
107.488120461574
 20
81.32917122059351
 30
0.0
 10
107.2418433235605
 20
81.25783746732425
 30
0.0
 10
106.9420005308625
 20
81.16389396024962
 30
0.0
 10
106.8535436737903
 20
81.1347001668897
 30
0.0
 10
106.7001823204852
 20
81.0812335926263
 30
0.0
 10
106.6350941062589
 20
81.05687425835112
 30
0.0
 10
106.4795000903181
 20
80.99328411290638
 30
0.0
 10
106.4270844690419
 20
80.96318117781712
 30
0.0
 10
106.4270844690419
 20
80.94630428482019
 30
0.0
  0
LINE
  5
80
330
1F
100
AcDbEntity
  8
0
  6
Continuous
 62
     7
370
    15
100
AcDbLine
 10
106.427084469
 20
80.9463042848
 30
0.0
 11
106.427084469
 21
80.9304272677
 31
0.0
  0
SPLINE
  5
81
330
1F
100
AcDbEntity
  8
0
  6
Continuous
 62
     7
370
    15
100
AcDbSpline
210
0.0
220
0.0
230
1.0
 70
     8
 71
     3
 72
    17
 73
    13
 74
     0
 42
0.00000001
 43
0.00000001
 12
1.0
 22
0.0
 32
0.0
 13
1.0
 23
0.0
 33
0.0
 40
0.0
 40
0.0
 40
0.0
 40
0.0
 40
0.1034796923964057
 40
0.210023918880785
 40
0.3134862136955584
 40
0.4198361274354883
 40
0.5254127712915682
 40
0.6339610695419793
 40
0.7409508756305033
 40
0.8511696089308177
 40
0.955899653455194
 40
1.0
 40
1.0
 40
1.0
 40
1.0
 10
114.4270844690419
 20
142.8976227408468
 30
0.0
 10
113.9918361199319
 20
142.9030709373801
 30
0.0
 10
113.1084496133669
 20
142.9141286778919
 30
0.0
 10
111.8276220281383
 20
143.0004870707935
 30
0.0
 10
110.6102054922642
 20
143.1283572473313
 30
0.0
 10
109.5023996400177
 20
143.2873025459244
 30
0.0
 10
108.5141608360695
 20
143.46179623364
 30
0.0
 10
107.6894372785379
 20
143.6309620842799
 30
0.0
 10
107.0404837778786
 20
143.7788458668082
 30
0.0
 10
106.6234489624169
 20
143.880636451039
 30
0.0
 10
106.4248522494524
 20
143.9309879736422
 30
0.0
 10
106.4481649708857
 20
143.9250822894198
 30
0.0
 10
106.4550728281232
 20
143.9233323597252
 30
0.0
  0
LINE
  5
82
330
1F
100
AcDbEntity
  8
0
  6
Continuous
 62
     7
370
    15
100
AcDbLine
 10
116.0851516376
 20
142.8976227408
 30
0.0
 11
114.427084469
 21
142.8976227408
 31
0.0
  0
LINE
  5
83
330
1F
100
AcDbEntity
  8
0
  6
Continuous
 62
     7
370
    15
100
AcDbLine
 10
116.0851516376
 20
136.88911693
 30
0.0
 11
116.0851516376
 21
142.8976227408
 31
0.0
  0
LINE
  5
84
330
1F
100
AcDbEntity
  8
0
  6
Continuous
 62
     7
370
    15
100
AcDbLine
 10
113.6727048147
 20
136.88911693
 30
0.0
 11
116.0851516376
 21
136.88911693
 31
0.0
  0
SPLINE
  5
85
330
1F
100
AcDbEntity
  8
0
  6
Continuous
 62
     7
370
    15
100
AcDbSpline
210
0.0
220
0.0
230
1.0
 70
     8
 71
     3
 72
    20
 73
    16
 74
     0
 42
0.00000001
 43
0.00000001
 12
1.0
 22
0.0
 32
0.0
 13
1.0
 23
0.0
 33
0.0
 40
0.0
 40
0.0
 40
0.0
 40
0.0
 40
0.2499999999999995
 40
0.2499999999999995
 40
0.3749999999999996
 40
0.3749999999999996
 40
0.4999999999999997
 40
0.4999999999999997
 40
0.6249999999999998
 40
0.6249999999999998
 40
0.7499999999999998
 40
0.7499999999999998
 40
0.8749999999999999
 40
0.8749999999999999
 40
1.0
 40
1.0
 40
1.0
 40
1.0
 10
106.4270844690419
 20
132.2804272676825
 30
0.0
 10
106.67545820333
 20
132.9342896959799
 30
0.0
 10
106.9950282956753
 20
133.5380754779771
 30
0.0
 10
107.61733452888
 20
134.3649142141457
 30
0.0
 10
107.8487587893107
 20
134.6273428520986
 30
0.0
 10
108.3699731289604
 20
135.1240055062036
 30
0.0
 10
108.6565936115955
 20
135.3545923852251
 30
0.0
 10
109.2760783529031
 20
135.7711466098077
 30
0.0
 10
109.6103787323901
 20
135.9586444117753
 30
0.0
 10
110.3356392050149
 20
136.2900413894116
 30
0.0
 10
110.7175542624053
 20
136.4295453769069
 30
0.0
 10
111.512342438577
 20
136.6549988843779
 30
0.0
 10
111.9265006327834
 20
136.7416249959215
 30
0.0
 10
112.7920469733648
 20
136.8596057847756
 30
0.0
 10
113.2299345883766
 20
136.88911693005
 30
0.0
 10
113.6727048147312
 20
136.88911693005
 30
0.0
  0
SPLINE
  5
86
330
1F
100
AcDbEntity
  8
0
  6
Continuous
 62
     7
370
    15
100
AcDbSpline
210
0.0
220
0.0
230
1.0
 70
     8
 71
     3
 72
    70
 73
    66
 74
     0
 42
0.00000001
 43
0.00000001
 12
1.0
 22
0.0
 32
0.0
 13
1.0
 23
0.0
 33
0.0
 40
-0.0312500000000001
 40
-0.0312500000000001
 40
0.0
 40
0.0
 40
0.0312499999999999
 40
0.0312499999999999
 40
0.0624999999999998
 40
0.0624999999999998
 40
0.0937499999999997
 40
0.0937499999999997
 40
0.1249999999999996
 40
0.1249999999999996
 40
0.1562499999999994
 40
0.1562499999999994
 40
0.1874999999999993
 40
0.1874999999999993
 40
0.2187499999999992
 40
0.2187499999999992
 40
0.2499999999999991
 40
0.2499999999999991
 40
0.281249999999999
 40
0.281249999999999
 40
0.3124999999999989
 40
0.3124999999999989
 40
0.3437499999999988
 40
0.3437499999999988
 40
0.3749999999999987
 40
0.3749999999999987
 40
0.4062499999999986
 40
0.4062499999999986
 40
0.4374999999999984
 40
0.4374999999999984
 40
0.4687499999999983
 40
0.4687499999999983
 40
0.4999999999999982
 40
0.4999999999999982
 40
0.5312499999999983
 40
0.5312499999999983
 40
0.5624999999999984
 40
0.5624999999999984
 40
0.5937499999999986
 40
0.5937499999999986
 40
0.6249999999999987
 40
0.6249999999999987
 40
0.6562499999999988
 40
0.6562499999999988
 40
0.6874999999999989
 40
0.6874999999999989
 40
0.718749999999999
 40
0.718749999999999
 40
0.7499999999999991
 40
0.7499999999999991
 40
0.7812499999999992
 40
0.7812499999999992
 40
0.8124999999999993
 40
0.8124999999999993
 40
0.8437499999999994
 40
0.8437499999999994
 40
0.8749999999999996
 40
0.8749999999999996
 40
0.9062499999999997
 40
0.9062499999999997
 40
0.9374999999999998
 40
0.9374999999999998
 40
0.9687499999999999
 40
0.9687499999999999
 40
1.0
 40
1.0
 40
1.03125
 40
1.03125
 10
109.7416298077021
 20
123.0513341536659
 30
0.0
 10
109.2125391303818
 20
123.0513341536659
 30
0.0
 10
108.9524684630047
 20
123.0760114484511
 30
0.0
 10
108.4408937831693
 20
123.172483121493
 30
0.0
 10
108.1867184994291
 20
123.245464037473
 30
0.0
 10
107.7024478693674
 20
123.4352046404117
 30
0.0
 10
107.4728067774862
 20
123.5510652988054
 30
0.0
 10
107.0382024292527
 20
123.8236831447631
 30
0.0
 10
106.8326366526061
 20
123.9817222268169
 30
0.0
 10
106.4640795120109
 20
124.3252650777875
 30
0.0
 10
106.2985985292754
 20
124.5120275218892
 30
0.0
 10
106.0061740198403
 20
124.915570696286
 30
0.0
 10
105.8820730432138
 20
125.1290676927152
 30
0.0
 10
105.6824938464641
 20
125.5684510066377
 30
0.0
 10
105.6055602606058
 20
125.7975909937833
 30
0.0
 10
105.5027032020854
 20
126.2635651165433
 30
0.0
 10
105.4772302926263
 20
126.4964475622195
 30
0.0
 10
105.4769398820586
 20
126.9618450972993
 30
0.0
 10
105.5029645158343
 20
127.1967208546936
 30
0.0
 10
105.6051128003263
 20
127.6482140019399
 30
0.0
 10
105.6806892479095
 20
127.8662604773512
 30
0.0
 10
105.8811867790544
 20
128.2873550023891
 30
0.0
 10
106.0063156205628
 20
128.4892763869074
 30
0.0
 10
106.2956744215843
 20
128.8613058694263
 30
0.0
 10
106.4610854086398
 20
129.0339341730067
 30
0.0
 10
106.8340759667876
 20
129.3512521775527
 30
0.0
 10
107.0358089998767
 20
129.4910391110543
 30
0.0
 10
107.4686682507046
 20
129.7352153646061
 30
0.0
 10
107.702586783594
 20
129.8404448756476
 30
0.0
 10
108.1867705187366
 20
130.0086020220227
 30
0.0
 10
108.4360861446921
 20
130.0718529126166
 30
0.0
 10
108.9491186691198
 20
130.1574321217192
 30
0.0
 10
109.2144124920245
 20
130.1793042866416
 30
0.0
 10
109.7367471118942
 20
130.1794679362855
 30
0.0
 10
109.996500774376
 20
130.1584662441895
 30
0.0
 10
110.5131125900212
 20
130.0730638891119
 30
0.0
 10
110.7654786305215
 20
130.0090577058249
 30
0.0
 10
111.2470037520543
 20
129.8422431857837
 30
0.0
 10
111.4798544841679
 20
129.7381100223846
 30
0.0
 10
111.9169443326066
 20
129.4921233698896
 30
0.0
 10
112.1182653212638
 20
129.3523735389408
 30
0.0
 10
112.4873513465637
 20
129.0392354692162
 30
0.0
 10
112.6563360976154
 20
128.863779309946
 30
0.0
 10
112.9467921542746
 20
128.4909390458459
 30
0.0
 10
113.0698639656367
 20
128.2928172357349
 30
0.0
 10
113.2712002070588
 20
127.8721058930012
 30
0.0
 10
113.348412753001
 20
127.6501158723337
 30
0.0
 10
113.4506162959011
 20
127.2002509326254
 30
0.0
 10
113.4768446473534
 20
126.9699955195086
 30
0.0
 10
113.4773210466705
 20
126.4986795769595
 30
0.0
 10
113.4515786341725
 20
126.2654421612454
 30
0.0
 10
113.3502678578087
 20
125.8037656217473
 30
0.0
 10
113.2734352184177
 20
125.5728682346352
 30
0.0
 10
113.0730313792025
 20
125.1305922208435
 30
0.0
 10
112.9503598809105
 20
124.9195297895576
 30
0.0
 10
112.6604125917463
 20
124.5180312788249
 30
0.0
 10
112.491841612381
 20
124.327124756749
 30
0.0
 10
112.1235720182679
 20
123.9833994247519
 30
0.0
 10
111.9225101609975
 20
123.8282622385378
 30
0.0
 10
111.4854792424126
 20
123.5531848784581
 30
0.0
 10
111.253331029283
 20
123.4360686490361
 30
0.0
 10
110.7723207477841
 20
123.2471421639716
 30
0.0
 10
110.5202206649537
 20
123.1740671935773
 30
0.0
 10
110.0031511786947
 20
123.0760151344428
 30
0.0
 10
109.7416298077021
 20
123.0513341536659
 30
0.0
 10
109.2125391303818
 20
123.0513341536659
 30
0.0
  0
SPLINE
  5
87
330
1F
100
AcDbEntity
  8
0
  6
Continuous
 62
     7
370
    15
100
AcDbSpline
210
0.0
220
0.0
230
1.0
 70
     8
 71
     3
 72
    70
 73
    66
 74
     0
 42
0.00000001
 43
0.00000001
 12
1.0
 22
0.0
 32
0.0
 13
1.0
 23
0.0
 33
0.0
 40
-0.0312500000000001
 40
-0.0312500000000001
 40
0.0
 40
0.0
 40
0.0312500000000001
 40
0.0312500000000001
 40
0.0625000000000002
 40
0.0625000000000002
 40
0.0937500000000003
 40
0.0937500000000003
 40
0.1250000000000004
 40
0.1250000000000004
 40
0.1562500000000005
 40
0.1562500000000005
 40
0.1875000000000006
 40
0.1875000000000006
 40
0.2187500000000007
 40
0.2187500000000007
 40
0.2500000000000008
 40
0.2500000000000008
 40
0.2812500000000007
 40
0.2812500000000007
 40
0.3125000000000006
 40
0.3125000000000006
 40
0.3437500000000006
 40
0.3437500000000006
 40
0.3750000000000005
 40
0.3750000000000005
 40
0.4062500000000004
 40
0.4062500000000004
 40
0.4375000000000003
 40
0.4375000000000003
 40
0.4687500000000003
 40
0.4687500000000003
 40
0.5000000000000002
 40
0.5000000000000002
 40
0.5312500000000001
 40
0.5312500000000001
 40
0.5625
 40
0.5625
 40
0.5937499999999999
 40
0.5937499999999999
 40
0.6249999999999997
 40
0.6249999999999997
 40
0.6562499999999996
 40
0.6562499999999996
 40
0.6874999999999994
 40
0.6874999999999994
 40
0.7187499999999993
 40
0.7187499999999993
 40
0.7499999999999992
 40
0.7499999999999992
 40
0.7812499999999993
 40
0.7812499999999993
 40
0.8124999999999994
 40
0.8124999999999994
 40
0.8437499999999996
 40
0.8437499999999996
 40
0.8749999999999996
 40
0.8749999999999996
 40
0.9062499999999997
 40
0.9062499999999997
 40
0.9374999999999998
 40
0.9374999999999998
 40
0.9687499999999999
 40
0.9687499999999999
 40
1.0
 40
1.0
 40
1.03125
 40
1.03125
 10
109.7416298077021
 20
137.4893906624617
 30
0.0
 10
109.2125391303818
 20
137.4893906624617
 30
0.0
 10
108.9524684630047
 20
137.5052911028765
 30
0.0
 10
108.4408937831693
 20
137.5672354530508
 30
0.0
 10
108.1867184994291
 20
137.6140376871421
 30
0.0
 10
107.7024478693674
 20
137.7350146705971
 30
0.0
 10
107.4728067774862
 20
137.808616998404
 30
0.0
 10
107.0382024292527
 20
137.9804412693821
 30
0.0
 10
106.8326366526061
 20
138.0794446923095
 30
0.0
 10
106.4640795120109
 20
138.2925411062223
 30
0.0
 10
106.2985985292754
 20
138.407440822352
 30
0.0
 10
106.0061740198403
 20
138.6528077210423
 30
0.0
 10
105.8820730432138
 20
138.7812476215126
 30
0.0
 10
105.6824938464641
 20
139.0421397695985
 30
0.0
 10
105.6055602606058
 20
139.176520940938
 30
0.0
 10
105.5027032020854
 20
139.4458408920443
 30
0.0
 10
105.4772302926263
 20
139.5785221562624
 30
0.0
 10
105.4769398820586
 20
139.8397086303935
 30
0.0
 10
105.5029645158343
 20
139.9694736685582
 30
0.0
 10
105.6051128003263
 20
140.2150563028308
 30
0.0
 10
105.6806892479095
 20
140.3317178401397
 30
0.0
 10
105.8811867790544
 20
140.5536230302943
 30
0.0
 10
106.0063156205628
 20
140.6582342842173
 30
0.0
 10
106.2956744215843
 20
140.8482806958254
 30
0.0
 10
106.4610854086398
 20
140.935040367275
 30
0.0
 10
106.8340759667876
 20
141.0925447430266
 30
0.0
 10
107.0358089998767
 20
141.1608700078138
 30
0.0
 10
107.4686682507046
 20
141.279099731433
 30
0.0
 10
107.702586783594
 20
141.3293946475368
 30
0.0
 10
108.1867705187366
 20
141.4092601844265
 30
0.0
 10
108.4360861446921
 20
141.4390013122261
 30
0.0
 10
108.9491186691198
 20
141.4791540537343
 30
0.0
 10
109.2144124920245
 20
141.4893523231441
 30
0.0
 10
109.7367471118942
 20
141.4894287815289
 30
0.0
 10
109.9965007743759
 20
141.4796377699198
 30
0.0
 10
110.5131125900212
 20
141.4395709311811
 30
0.0
 10
110.7654786305215
 20
141.4094737643243
 30
0.0
 10
111.2470037520543
 20
141.330251554494
 30
0.0
 10
111.4798544841679
 20
141.2804940750307
 30
0.0
 10
111.9169443326066
 20
141.1614021325803
 30
0.0
 10
112.1182653212638
 20
141.093086871033
 30
0.0
 10
112.4873513465637
 20
140.9376859040995
 30
0.0
 10
112.6563360976154
 20
140.8495335620325
 30
0.0
 10
112.9467921542746
 20
140.6590941729162
 30
0.0
 10
113.0698639656367
 20
140.5564695952172
 30
0.0
 10
113.2712002070588
 20
140.334829248609
 30
0.0
 10
113.348412753001
 20
140.2160751730615
 30
0.0
 10
113.4506162959011
 20
139.9714092341439
 30
0.0
 10
113.4768446473534
 20
139.8442525086953
 30
0.0
 10
113.4773210466705
 20
139.5798043628398
 30
0.0
 10
113.4515786341725
 20
139.4469036825826
 30
0.0
 10
113.3502678578087
 20
139.1801114091005
 30
0.0
 10
113.2734352184177
 20
139.044747507632
 30
0.0
 10
113.0730313792025
 20
138.7821677123294
 30
0.0
 10
112.9503598809105
 20
138.6551925525757
 30
0.0
 10
112.6604125917463
 20
138.4111131664932
 30
0.0
 10
112.491841612381
 20
138.2936880417394
 30
0.0
 10
112.1235720182679
 20
138.0804915807909
 30
0.0
 10
111.9225101609975
 20
137.983317462366
 30
0.0
 10
111.4854792424126
 20
137.8099625751519
 30
0.0
 10
111.253331029283
 20
137.7355630234952
 30
0.0
 10
110.7723207477842
 20
137.6151101439905
 30
0.0
 10
110.5202206649537
 20
137.5682517687245
 30
0.0
 10
110.0031511786947
 20
137.5052942717408
 30
0.0
 10
109.7416298077021
 20
137.4893906624617
 30
0.0
 10
109.2125391303818
 20
137.4893906624617
 30
0.0
  0
LINE
  5
88
330
1F
100
AcDbEntity
  8
0
  6
Continuous
 62
     7
370
    15
100
AcDbLine
 10
117.567084469
 20
84.9325901086
 30
0.0
 11
117.567084469
 21
132.2804272677
 31
0.0
  0
SPLINE
  5
89
330
1F
100
AcDbEntity
  8
0
  6
Continuous
 62
     7
370
    15
100
AcDbSpline
210
0.0
220
0.0
230
1.0
 70
     8
 71
     3
 72
     8
 73
     4
 74
     0
 42
0.00000001
 43
0.00000001
 12
1.0
 22
0.0
 32
0.0
 13
1.0
 23
0.0
 33
0.0
 40
0.0
 40
0.0
 40
0.0
 40
0.0
 40
1.0
 40
1.0
 40
1.0
 40
1.0
 10
117.567084469042
 20
84.93259010862766
 30
0.0
 10
117.0747453462608
 20
84.03532007442097
 30
0.0
 10
116.5806312982186
 20
83.13903565936873
 30
0.0
 10
116.0851516375529
 20
82.24350957143537
 30
0.0
  0
SPLINE
  5
8A
330
1F
100
AcDbEntity
  8
0
  6
Continuous
 62
     7
370
    15
100
AcDbSpline
210
0.0
220
0.0
230
1.0
 70
    24
 71
     3
 72
     8
 73
     4
 74
     0
 42
0.00000001
 43
0.00000001
 12
1.0
 22
0.0
 32
0.0
 13
1.0
 23
0.0
 33
0.0
 40
0.0
 40
0.0
 40
0.0
 40
0.0
 40
1.0
 40
1.0
 40
1.0
 40
1.0
 10
116.0851516375529
 20
132.2804272676825
 30
0.0
 10
116.5918317457034
 20
132.2804272676825
 30
0.0
 10
117.0871324746771
 20
132.2804272676825
 30
0.0
 10
117.567084469042
 20
132.2804272676825
 30
0.0
  0
SPLINE
  5
8B
330
1F
100
AcDbEntity
  8
0
  6
Continuous
 62
     7
370
    15
100
AcDbSpline
210
0.0
220
0.0
230
1.0
 70
     8
 71
     3
 72
     8
 73
     4
 74
     0
 42
0.00000001
 43
0.00000001
 12
1.0
 22
0.0
 32
0.0
 13
1.0
 23
0.0
 33
0.0
 40
0.0
 40
0.0
 40
0.0
 40
0.0
 40
1.0
 40
1.0
 40
1.0
 40
1.0
 10
122.869017300531
 20
82.24350957143537
 30
0.0
 10
122.3735376398653
 20
83.13903565936873
 30
0.0
 10
121.8794235918231
 20
84.03532007442098
 30
0.0
 10
121.387084469042
 20
84.93259010862768
 30
0.0
  0
LINE
  5
8C
330
1F
100
AcDbEntity
  8
0
  6
Continuous
 62
     7
370
    15
100
AcDbLine
 10
121.387084469
 20
84.9325901086
 30
0.0
 11
121.387084469
 21
132.2804272677
 31
0.0
  0
SPLINE
  5
8D
330
1F
100
AcDbEntity
  8
0
  6
Continuous
 62
     7
370
    15
100
AcDbSpline
210
0.0
220
0.0
230
1.0
 70
    24
 71
     3
 72
     8
 73
     4
 74
     0
 42
0.00000001
 43
0.00000001
 12
1.0
 22
0.0
 32
0.0
 13
1.0
 23
0.0
 33
0.0
 40
0.0
 40
0.0
 40
0.0
 40
0.0
 40
1.0
 40
1.0
 40
1.0
 40
1.0
 10
121.387084469042
 20
132.2804272676825
 30
0.0
 10
121.8670364634068
 20
132.2804272676825
 30
0.0
 10
122.3623371923805
 20
132.2804272676825
 30
0.0
 10
122.869017300531
 20
132.2804272676825
 30
0.0
  0
LINE
  5
8E
330
1F
100
AcDbEntity
  8
0
  6
Continuous
 62
     7
370
    15
100
AcDbLine
 10
101.477084469
 20
81.2304272677
 30
0.0
 11
101.477084469
 21
143.6304272642
 31
0.0
  0
ARC
  5
8F
330
1F
100
AcDbEntity
  8
0
  6
Continuous
 62
     7
370
    15
100
AcDbCircle
 10
109.4740793248
 20
124.328658345
 30
0.0
 40
4.115011572779893
100
AcDbArc
 50
19.3349591234
 51
159.3357509812
  0
SPLINE
  5
90
330
1F
100
AcDbEntity
  8
0
  6
Continuous
 62
     7
370
    15
100
AcDbSpline
210
0.0
220
0.0
230
1.0
 70
     8
 71
     3
 72
    10
 73
     6
 74
     0
 42
0.00000001
 43
0.00000001
 12
1.0
 22
0.0
 32
0.0
 13
1.0
 23
0.0
 33
0.0
 40
0.0
 40
0.0
 40
0.0
 40
0.0
 40
0.5
 40
0.5
 40
1.0
 40
1.0
 40
1.0
 40
1.0
 10
117.9613820007329
 20
138.8304272676825
 30
0.0
 10
117.8398417370644
 20
138.9051534348943
 30
0.0
 10
117.7385073767155
 20
139.0140984508111
 30
0.0
 10
117.602868433827
 20
139.2645289315727
 30
0.0
 10
117.567084469042
 20
139.4069482936716
 30
0.0
 10
117.567084469042
 20
139.5500811187183
 30
0.0
  0
SPLINE
  5
91
330
1F
100
AcDbEntity
  8
0
  6
Continuous
 62
     7
370
    15
100
AcDbSpline
210
0.0
220
0.0
230
1.0
 70
    24
 71
     3
 72
    12
 73
     8
 74
     0
 42
0.00000001
 43
0.00000001
 12
1.0
 22
0.0
 32
0.0
 13
1.0
 23
0.0
 33
0.0
 40
0.0
 40
0.0
 40
0.0
 40
0.0
 40
0.2499999999999971
 40
0.2499999999999971
 40
0.4999999999999942
 40
0.4999999999999942
 40
1.0
 40
1.0
 40
1.0
 40
1.0
 10
118.367084469042
 20
138.8304272676825
 30
0.0
 10
118.3172077867245
 20
138.8304272676825
 30
0.0
 10
118.2692045933209
 20
138.8304272676825
 30
0.0
 10
118.1861564906089
 20
138.8304272676825
 30
0.0
 10
118.1500269111411
 20
138.8304272676825
 30
0.0
 10
118.0541148801969
 20
138.8304272676825
 30
0.0
 10
118.0043562122281
 20
138.8304272676825
 30
0.0
 10
117.9613820007329
 20
138.8304272676825
 30
0.0
  0
SPLINE
  5
92
330
1F
100
AcDbEntity
  8
0
  6
Continuous
 62
     7
370
    15
100
AcDbSpline
210
0.0
220
0.0
230
1.0
 70
    24
 71
     3
 72
    14
 73
    10
 74
     0
 42
0.00000001
 43
0.00000001
 12
1.0
 22
0.0
 32
0.0
 13
1.0
 23
0.0
 33
0.0
 40
0.0
 40
0.0
 40
0.0
 40
0.0
 40
0.1250000000000017
 40
0.1250000000000017
 40
0.2500000000000034
 40
0.2500000000000034
 40
0.5000000000000032
 40
0.5000000000000032
 40
1.0
 40
1.0
 40
1.0
 40
1.0
 10
118.3670844690419
 20
86.03042726768254
 30
0.0
 10
118.2986466211555
 20
86.03042726768254
 30
0.0
 10
118.2330965823904
 20
86.03042726768254
 30
0.0
 10
118.1286699429825
 20
86.03042726768254
 30
0.0
 10
118.0861253332211
 20
86.03042726768254
 30
0.0
 10
117.9735158726808
 20
86.03042726768254
 30
0.0
 10
117.9179768256613
 20
86.03042726768253
 30
0.0
 10
117.7753651301975
 20
86.03042726768254
 30
0.0
 10
117.7119597752018
 20
86.03042726768254
 30
0.0
 10
117.6647592713742
 20
86.03042726768254
 30
0.0
  0
SPLINE
  5
93
330
1F
100
AcDbEntity
  8
0
  6
Continuous
 62
     7
370
    15
100
AcDbSpline
210
0.0
220
0.0
230
1.0
 70
     8
 71
     3
 72
    10
 73
     6
 74
     0
 42
0.00000001
 43
0.00000001
 12
1.0
 22
0.0
 32
0.0
 13
1.0
 23
0.0
 33
0.0
 40
0.0
 40
0.0
 40
0.0
 40
0.0
 40
0.5
 40
0.5
 40
1.0
 40
1.0
 40
1.0
 40
1.0
 10
117.567084469042
 20
132.5662938991439
 30
0.0
 10
117.567084469042
 20
132.5185223911506
 30
0.0
 10
117.5692457126391
 20
132.470812669089
 30
0.0
 10
117.5779170864993
 20
132.3755175515406
 30
0.0
 10
117.5844462694553
 20
132.327824987574
 30
0.0
 10
117.5932320922021
 20
132.2804272676825
 30
0.0
  0
SPLINE
  5
94
330
1F
100
AcDbEntity
  8
0
  6
Continuous
 62
     7
370
    15
100
AcDbSpline
210
0.0
220
0.0
230
1.0
 70
    24
 71
     3
 72
    14
 73
    10
 74
     0
 42
0.00000001
 43
0.00000001
 12
1.0
 22
0.0
 32
0.0
 13
1.0
 23
0.0
 33
0.0
 40
0.0
 40
0.0
 40
0.0
 40
0.0
 40
0.5
 40
0.5
 40
0.75
 40
0.75
 40
0.875
 40
0.875
 40
1.0
 40
1.0
 40
1.0
 40
1.0
 10
121.2894096667097
 20
86.03042726768254
 30
0.0
 10
121.2426249616614
 20
86.03042726768254
 30
0.0
 10
121.1805737648818
 20
86.03042726768254
 30
0.0
 10
121.0371821263312
 20
86.03042726768253
 30
0.0
 10
120.9810384727801
 20
86.03042726768254
 30
0.0
 10
120.8680874506439
 20
86.03042726768253
 30
0.0
 10
120.8250866886058
 20
86.03042726768254
 30
0.0
 10
120.7210239782993
 20
86.03042726768253
 30
0.0
 10
120.6556917399424
 20
86.03042726768253
 30
0.0
 10
120.587084469042
 20
86.03042726768254
 30
0.0
  0
SPLINE
  5
95
330
1F
100
AcDbEntity
  8
0
  6
Continuous
 62
     7
370
    15
100
AcDbSpline
210
0.0
220
0.0
230
1.0
 70
    24
 71
     3
 72
    12
 73
     8
 74
     0
 42
0.00000001
 43
0.00000001
 12
1.0
 22
0.0
 32
0.0
 13
1.0
 23
0.0
 33
0.0
 40
0.0
 40
0.0
 40
0.0
 40
0.0
 40
0.5000000000000074
 40
0.5000000000000074
 40
0.7500000000000037
 40
0.7500000000000037
 40
1.0
 40
1.0
 40
1.0
 40
1.0
 10
120.992786937351
 20
138.8304272676825
 30
0.0
 10
120.94970138774
 20
138.8304272676825
 30
0.0
 10
120.9005491859907
 20
138.8304272676825
 30
0.0
 10
120.8040765917028
 20
138.8304272676825
 30
0.0
 10
120.7679750065682
 20
138.8304272676825
 30
0.0
 10
120.684869248707
 20
138.8304272676825
 30
0.0
 10
120.6368726517407
 20
138.8304272676825
 30
0.0
 10
120.587084469042
 20
138.8304272676825
 30
0.0
  0
SPLINE
  5
96
330
1F
100
AcDbEntity
  8
0
  6
Continuous
 62
     7
370
    15
100
AcDbSpline
210
0.0
220
0.0
230
1.0
 70
     8
 71
     3
 72
    10
 73
     6
 74
     0
 42
0.00000001
 43
0.00000001
 12
1.0
 22
0.0
 32
0.0
 13
1.0
 23
0.0
 33
0.0
 40
0.0
 40
0.0
 40
0.0
 40
0.0
 40
0.5
 40
0.5
 40
1.0
 40
1.0
 40
1.0
 40
1.0
 10
121.387084469042
 20
139.5500811187183
 30
0.0
 10
121.387084469042
 20
139.4063110609003
 30
0.0
 10
121.3510354103231
 20
139.2638916984051
 30
0.0
 10
121.2155265495491
 20
139.0139974050479
 30
0.0
 10
121.1156505564529
 20
138.9059670687997
 30
0.0
 10
120.992786937351
 20
138.8304272676825
 30
0.0
  0
SPLINE
  5
97
330
1F
100
AcDbEntity
  8
0
  6
Continuous
 62
     7
370
    15
100
AcDbSpline
210
0.0
220
0.0
230
1.0
 70
     8
 71
     3
 72
    10
 73
     6
 74
     0
 42
0.00000001
 43
0.00000001
 12
1.0
 22
0.0
 32
0.0
 13
1.0
 23
0.0
 33
0.0
 40
0.0
 40
0.0
 40
0.0
 40
0.0
 40
0.5
 40
0.5
 40
1.0
 40
1.0
 40
1.0
 40
1.0
 10
121.3609368458818
 20
132.2804272676825
 30
0.0
 10
121.3696264887935
 20
132.3273061170007
 30
0.0
 10
121.376165553544
 20
132.374728582402
 30
0.0
 10
121.384924187937
 20
132.4706653809888
 30
0.0
 10
121.387084469042
 20
132.5185806689994
 30
0.0
 10
121.387084469042
 20
132.5662938991439
 30
0.0
  0
LINE
  5
98
330
1F
100
AcDbEntity
  8
0
  6
Continuous
 62
     7
370
    15
100
AcDbLine
 10
120.587084469
 20
138.8304272677
 30
0.0
 11
118.367084469
 21
138.8304272677
 31
0.0
  0
LINE
  5
99
330
1F
100
AcDbEntity
  8
0
  6
Continuous
 62
     7
370
    15
100
AcDbLine
 10
120.587084469
 20
86.0304272677
 30
0.0
 11
118.367084469
 21
86.0304272677
 31
0.0
  0
LINE
  5
9A
330
1F
100
AcDbEntity
  8
0
  6
Continuous
 62
     7
370
    15
100
AcDbLine
 10
99.477084469
 20
88.209996406
 30
0.0
 11
99.477084469
 21
136.6508581294
 31
0.0
  0
LINE
  5
9B
330
1F
100
AcDbEntity
  8
0
  6
Continuous
 62
     7
370
    15
100
AcDbLine
 10
79.677084469
 20
89.2019803739
 30
0.0
 11
79.677084469
 21
90.4666897365
 31
0.0
  0
SPLINE
  5
9C
330
1F
100
AcDbEntity
  8
0
  6
Continuous
 62
     7
370
    15
100
AcDbSpline
210
0.0
220
0.0
230
1.0
 70
     8
 71
     3
 72
    14
 73
    10
 74
     0
 42
0.00000001
 43
0.00000001
 12
1.0
 22
0.0
 32
0.0
 13
1.0
 23
0.0
 33
0.0
 40
0.0
 40
0.0
 40
0.0
 40
0.0
 40
0.25
 40
0.25
 40
0.5
 40
0.5
 40
0.75
 40
0.75
 40
1.0
 40
1.0
 40
1.0
 40
1.0
 10
78.89879735112623
 20
91.59727594412257
 30
0.0
 10
78.95542402632832
 20
91.48957849028572
 30
0.0
 10
79.04994668661804
 20
91.3867889085664
 30
0.0
 10
79.23299166218027
 20
91.18843159634625
 30
0.0
 10
79.324618239135
 20
91.092372087668
 30
0.0
 10
79.48347155682819
 20
90.90484304495875
 30
0.0
 10
79.55136216444988
 20
90.81343407217521
 30
0.0
 10
79.64827919015748
 20
90.63505785126505
 30
0.0
 10
79.67708446904254
 20
90.54783594501887
 30
0.0
 10
79.67708446904253
 20
90.46668973648461
 30
0.0
  0
SPLINE
  5
9D
330
1F
100
AcDbEntity
  8
0
  6
Continuous
 62
     7
370
    15
100
AcDbSpline
210
0.0
220
0.0
230
1.0
 70
     8
 71
     3
 72
    14
 73
    10
 74
     0
 42
0.00000001
 43
0.00000001
 12
1.0
 22
0.0
 32
0.0
 13
1.0
 23
0.0
 33
0.0
 40
0.0
 40
0.0
 40
0.0
 40
0.0
 40
0.125
 40
0.125
 40
0.25
 40
0.25
 40
0.5
 40
0.5
 40
1.0
 40
1.0
 40
1.0
 40
1.0
 10
78.27708446904195
 20
92.0439578064019
 30
0.0
 10
78.32562887769912
 20
92.04970611968218
 30
0.0
 10
78.37854423248403
 20
92.04660523102595
 30
0.0
 10
78.47383957746706
 20
92.02441038686362
 30
0.0
 10
78.51409057475202
 20
92.00717815976776
 30
0.0
 10
78.61836058826498
 20
91.9508502433157
 30
0.0
 10
78.66868256341832
 20
91.9066638973699
 30
0.0
 10
78.79636551094369
 20
91.77565599851928
 30
0.0
 10
78.85245095800596
 20
91.68542147828899
 30
0.0
 10
78.8987973511277
 20
91.59727594412311
 30
0.0
  0
SPLINE
  5
9E
330
1F
100
AcDbEntity
  8
0
  6
Continuous
 62
     7
370
    15
100
AcDbSpline
210
0.0
220
0.0
230
1.0
 70
     8
 71
     3
 72
     8
 73
     4
 74
     0
 42
0.00000001
 43
0.00000001
 12
1.0
 22
0.0
 32
0.0
 13
1.0
 23
0.0
 33
0.0
 40
0.0
 40
0.0
 40
0.0
 40
0.0
 40
1.0
 40
1.0
 40
1.0
 40
1.0
 10
76.00855937609569
 20
91.73411251981909
 30
0.0
 10
76.74313640257866
 20
91.85273753088806
 30
0.0
 10
77.50661147197432
 20
91.95272340302435
 30
0.0
 10
78.27708446904195
 20
92.0439578064019
 30
0.0
  0
SPLINE
  5
9F
330
1F
100
AcDbEntity
  8
0
  6
Continuous
 62
     7
370
    15
100
AcDbSpline
210
0.0
220
0.0
230
1.0
 70
     8
 71
     3
 72
    14
 73
    10
 74
     0
 42
0.00000001
 43
0.00000001
 12
1.0
 22
0.0
 32
0.0
 13
1.0
 23
0.0
 33
0.0
 40
0.0
 40
0.0
 40
0.0
 40
0.0
 40
0.5000000000000002
 40
0.5000000000000002
 40
0.7500000000000002
 40
0.7500000000000002
 40
0.8750000000000001
 40
0.8750000000000001
 40
1.0
 40
1.0
 40
1.0
 40
1.0
 10
70.72708446904196
 20
91.56048950228745
 30
0.0
 10
71.61923059959551
 20
91.5597672760868
 30
0.0
 10
72.5092070353891
 20
91.56435348254426
 30
0.0
 10
73.83580220246469
 20
91.5920784869358
 30
0.0
 10
74.27664913096342
 20
91.60468502455998
 30
0.0
 10
74.93308936838585
 20
91.63570117256742
 30
0.0
 10
75.15110302497773
 20
91.64804434519421
 30
0.0
 10
75.58381187866048
 20
91.68106840035747
 30
0.0
 10
75.79908834382529
 20
91.70028556549592
 30
0.0
 10
76.00855937609569
 20
91.73411251981909
 30
0.0
  0
SPLINE
  5
A0
330
1F
100
AcDbEntity
  8
0
  6
Continuous
 62
     7
370
    15
100
AcDbSpline
210
0.0
220
0.0
230
1.0
 70
     8
 71
     3
 72
     8
 73
     4
 74
     0
 42
0.00000001
 43
0.00000001
 12
1.0
 22
0.0
 32
0.0
 13
1.0
 23
0.0
 33
0.0
 40
0.0000005163856712
 40
0.0000005163856712
 40
0.0000005163856712
 40
0.0000005163856712
 40
0.000026289209185
 40
0.000026289209185
 40
0.000026289209185
 40
0.000026289209185
 10
70.71703953862327
 20
91.57047337539532
 30
0.0
 10
70.72036727683474
 20
91.5671391285225
 30
0.0
 10
70.72371572981403
 20
91.56381117124349
 30
0.0
 10
70.72708446904193
 20
91.56048950228744
 30
0.0
  0
SPLINE
  5
A1
330
1F
100
AcDbEntity
  8
0
  6
Continuous
 62
     7
370
    15
100
AcDbSpline
210
0.0
220
0.0
230
1.0
 70
     8
 71
     3
 72
     8
 73
     4
 74
     0
 42
0.00000001
 43
0.00000001
 12
1.0
 22
0.0
 32
0.0
 13
1.0
 23
0.0
 33
0.0
 40
0.0000005099763573
 40
0.0000005099763573
 40
0.0000005099763573
 40
0.0000005099763573
 40
0.0000262827998699
 40
0.0000262827998699
 40
0.0000262827998699
 40
0.0000262827998699
 10
70.72708446904194
 20
133.3003650330776
 30
0.0
 10
70.7237157298142
 20
133.2970433641217
 30
0.0
 10
70.72036727683506
 20
133.2937154068429
 30
0.0
 10
70.71703953862374
 20
133.2903811599702
 30
0.0
  0
SPLINE
  5
A2
330
1F
100
AcDbEntity
  8
0
  6
Continuous
 62
     7
370
    15
100
AcDbSpline
210
0.0
220
0.0
230
1.0
 70
     8
 71
     3
 72
    10
 73
     6
 74
     0
 42
0.00000001
 43
0.00000001
 12
1.0
 22
0.0
 32
0.0
 13
1.0
 23
0.0
 33
0.0
 40
0.0
 40
0.0
 40
0.0
 40
0.0
 40
0.5
 40
0.5
 40
1.0
 40
1.0
 40
1.0
 40
1.0
 10
74.27708446904197
 20
133.2535146595103
 30
0.0
 10
73.68949892195137
 20
133.2745801797467
 30
0.0
 10
73.09875252849098
 20
133.2853386656189
 30
0.0
 10
71.91473336319213
 20
133.2987034461546
 30
0.0
 10
71.32131937498666
 20
133.3008460888192
 30
0.0
 10
70.72708446904196
 20
133.3003650330776
 30
0.0
  0
SPLINE
  5
A3
330
1F
100
AcDbEntity
  8
0
  6
Continuous
 62
     7
370
    15
100
AcDbSpline
210
0.0
220
0.0
230
1.0
 70
     8
 71
     3
 72
    18
 73
    14
 74
     0
 42
0.00000001
 43
0.00000001
 12
1.0
 22
0.0
 32
0.0
 13
1.0
 23
0.0
 33
0.0
 40
0.0
 40
0.0
 40
0.0
 40
0.0
 40
0.2500000000000008
 40
0.2500000000000008
 40
0.5000000000000009
 40
0.5000000000000009
 40
0.7500000000000009
 40
0.7500000000000009
 40
0.875000000000001
 40
0.875000000000001
 40
0.9375000000000006
 40
0.9375000000000006
 40
1.0
 40
1.0
 40
1.0
 40
1.0
 10
75.67708446904196
 20
134.2745349400455
 30
0.0
 10
75.67708446904197
 20
134.1913280311883
 30
0.0
 10
75.64123536910371
 20
134.1025913758747
 30
0.0
 10
75.51636363306979
 20
133.9204661853145
 30
0.0
 10
75.42596321542192
 20
133.8253361366879
 30
0.0
 10
75.20372056067973
 20
133.6361546275636
 30
0.0
 10
75.07395577423395
 20
133.5412094594689
 30
0.0
 10
74.83331831692246
 20
133.4029307518889
 30
0.0
 10
74.74555101878502
 20
133.3572203185865
 30
0.0
 10
74.59102693157818
 20
133.2993970133651
 30
0.0
 10
74.53441604552344
 20
133.2816822493272
 30
0.0
 10
74.41037201461684
 20
133.2571429460943
 30
0.0
 10
74.34265733959855
 20
133.251163807556
 30
0.0
 10
74.27708446904195
 20
133.2535146595103
 30
0.0
  0
LINE
  5
A4
330
1F
100
AcDbEntity
  8
0
  6
Continuous
 62
     7
370
    15
100
AcDbLine
 10
75.677084469
 20
134.27453494
 30
0.0
 11
75.677084469
 21
135.4584733599
 31
0.0
  0
SPLINE
  5
A5
330
1F
100
AcDbEntity
  8
0
  6
Continuous
 62
     7
370
    15
100
AcDbSpline
210
0.0
220
0.0
230
1.0
 70
     8
 71
     3
 72
    18
 73
    14
 74
     0
 42
0.00000001
 43
0.00000001
 12
1.0
 22
0.0
 32
0.0
 13
1.0
 23
0.0
 33
0.0
 40
0.0
 40
0.0
 40
0.0
 40
0.0
 40
0.0010671296451824
 40
0.127094779573163
 40
0.2524053457512755
 40
0.3766468878987078
 40
0.4391415999051341
 40
0.5008278021400385
 40
0.5624255708809358
 40
0.6253162439161155
 40
0.7499985144706713
 40
0.8752758950341255
 40
0.9999999999999999
 40
0.9999999999999999
 40
0.9999999999999999
 40
0.9999999999999999
 10
88.24738530911463
 20
88.77308824476619
 30
0.0
 10
88.24647347647613
 20
88.77297346622954
 30
0.0
 10
88.13787451783908
 20
88.75930338136324
 30
0.0
 10
88.52551558548907
 20
88.8102228819794
 30
0.0
 10
89.39148026732413
 20
88.90980605502565
 30
0.0
 10
90.59188419209396
 20
88.97892993816939
 30
0.0
 10
91.64946010658271
 20
88.98288216730822
 30
0.0
 10
92.47659419348922
 20
88.95539322885315
 30
0.0
 10
93.30186606112362
 20
88.89685305244544
 30
0.0
 10
94.35623128112333
 20
88.78333189270974
 30
0.0
 10
95.51806756259845
 20
88.60018106846121
 30
0.0
 10
96.47030234398198
 20
88.39557785882626
 30
0.0
 10
96.59600740478987
 20
88.3662925080502
 30
0.0
 10
96.65872083693507
 20
88.3516822382095
 30
0.0
  0
SPLINE
  5
A6
330
1F
100
AcDbEntity
  8
0
  6
Continuous
 62
     7
370
    15
100
AcDbSpline
210
0.0
220
0.0
230
1.0
 70
     8
 71
     3
 72
    18
 73
    14
 74
     0
 42
0.00000001
 43
0.00000001
 12
1.0
 22
0.0
 32
0.0
 13
1.0
 23
0.0
 33
0.0
 40
0.0
 40
0.0
 40
0.0
 40
0.0
 40
0.1248907792210138
 40
0.2505384020341688
 40
0.3748721840485263
 40
0.4374907653349633
 40
0.4990776265894304
 40
0.5607931536354568
 40
0.6233901338664956
 40
0.7478191038417366
 40
0.8731940995934963
 40
0.9991614644710076
 40
0.9999999999999999
 40
0.9999999999999999
 40
0.9999999999999999
 40
0.9999999999999999
 10
96.65850207141116
 20
136.5091071166012
 30
0.0
 10
96.59476131869951
 20
136.4944458240031
 30
0.0
 10
96.46689354152302
 20
136.4650343907316
 30
0.0
 10
95.51489432046264
 20
136.2600812866692
 30
0.0
 10
94.35435061525929
 20
136.0768175108583
 30
0.0
 10
93.30208616317138
 20
135.9637899186093
 30
0.0
 10
92.47785904810321
 20
135.9055262710679
 30
0.0
 10
91.65025527858275
 20
135.8780798830637
 30
0.0
 10
90.59143808609778
 20
135.882064688993
 30
0.0
 10
89.38921938806315
 20
135.9511541653743
 30
0.0
 10
88.52403544837598
 20
136.0507803819311
 30
0.0
 10
88.13789502684538
 20
136.1015964555313
 30
0.0
 10
88.24596656762601
 20
136.0879242754684
 30
0.0
 10
88.2466812175463
 20
136.08783386478
 30
0.0
  0
SPLINE
  5
A7
330
1F
100
AcDbEntity
  8
0
  6
Continuous
 62
     7
370
    15
100
AcDbSpline
210
0.0
220
0.0
230
1.0
 70
     8
 71
     3
 72
     9
 73
     5
 74
     0
 42
0.00000001
 43
0.00000001
 12
1.0
 22
0.0
 32
0.0
 13
1.0
 23
0.0
 33
0.0
 40
0.0
 40
0.0
 40
0.0
 40
0.0
 40
0.7009329310330151
 40
1.0
 40
1.0
 40
1.0
 40
1.0
 10
69.59786915327741
 20
92.72914696357991
 30
0.0
 10
69.60700842995269
 20
92.71131767803838
 30
0.0
 10
69.62004716200629
 20
92.68588117084612
 30
0.0
 10
69.63521241577162
 20
92.7397610310379
 30
0.0
 10
69.63974784376533
 20
92.75587472290181
 30
0.0
  0
LINE
  5
A8
330
1F
100
AcDbEntity
  8
0
  6
Continuous
 62
     7
370
    15
100
AcDbLine
 10
69.577084469
 20
92.7397495212
 30
0.0
 11
69.577084469
 21
132.1211050142
 31
0.0
  0
SPLINE
  5
A9
330
1F
100
AcDbEntity
  8
0
  6
Continuous
 62
     7
370
    15
100
AcDbSpline
210
0.0
220
0.0
230
1.0
 70
     8
 71
     3
 72
    10
 73
     6
 74
     0
 42
0.00000001
 43
0.00000001
 12
1.0
 22
0.0
 32
0.0
 13
1.0
 23
0.0
 33
0.0
 40
0.0
 40
0.0
 40
0.0
 40
0.0
 40
0.5
 40
0.5
 40
1.0
 40
1.0
 40
1.0
 40
1.0
 10
69.63974784376536
 20
132.1049798124633
 30
0.0
 10
69.6308435546566
 20
132.1507213316764
 30
0.0
 10
69.61432817446361
 20
132.1679121711454
 30
0.0
 10
69.587220228402
 20
132.1675888942097
 30
0.0
 10
69.57708446904195
 20
132.1497113519133
 30
0.0
 10
69.57708446904195
 20
132.1211050141607
 30
0.0
  0
SPLINE
  5
AA
330
1F
100
AcDbEntity
  8
0
  6
Continuous
 62
     7
370
    15
100
AcDbSpline
210
0.0
220
0.0
230
1.0
 70
     8
 71
     3
 72
    26
 73
    22
 74
     0
 42
0.00000001
 43
0.00000001
 12
1.0
 22
0.0
 32
0.0
 13
1.0
 23
0.0
 33
0.0
 40
0.0
 40
0.0
 40
0.0
 40
0.0
 40
0.2500000000000165
 40
0.2500000000000165
 40
0.3750000000000256
 40
0.3750000000000256
 40
0.4375000000000291
 40
0.4375000000000291
 40
0.4687500000000291
 40
0.4687500000000291
 40
0.5000000000000292
 40
0.5000000000000292
 40
0.5312500000000293
 40
0.5312500000000293
 40
0.5625000000000293
 40
0.5625000000000293
 40
0.625000000000026
 40
0.625000000000026
 40
0.7500000000000173
 40
0.7500000000000173
 40
1.0
 40
1.0
 40
1.0
 40
1.0
 10
70.40123811514647
 20
132.8205466012804
 30
0.0
 10
70.36263759227799
 20
132.7027719049249
 30
0.0
 10
70.31634058972374
 20
132.578382218763
 30
0.0
 10
70.22240124128982
 20
132.3731628864095
 30
0.0
 10
70.18708977437635
 20
132.3015900199631
 30
0.0
 10
70.12090979863068
 20
132.1856367873626
 30
0.0
 10
70.09637143196245
 20
132.1450522525524
 30
0.0
 10
70.05299868640866
 20
132.0809105706806
 30
0.0
 10
70.03749028498346
 20
132.0590441453956
 30
0.0
 10
70.00244764039643
 20
132.0134498770524
 30
0.0
 10
69.98289734967666
 20
131.9897795860849
 30
0.0
 10
69.94097006930605
 20
131.945163026745
 30
0.0
 10
69.91831795907441
 20
131.9242830142271
 30
0.0
 10
69.87734424498778
 20
131.8934096004763
 30
0.0
 10
69.85974494509237
 20
131.8835707306439
 30
0.0
 10
69.81511795923622
 20
131.8645811149477
 30
0.0
 10
69.79455873658289
 20
131.8642567902943
 30
0.0
 10
69.74343329708621
 20
131.8734802311705
 30
0.0
 10
69.72252188409766
 20
131.8947271273875
 30
0.0
 10
69.67107197653674
 20
131.9686960062182
 30
0.0
 10
69.65340667723218
 20
132.034814099533
 30
0.0
 10
69.63974784376536
 20
132.1049798124633
 30
0.0
  0
SPLINE
  5
AB
330
1F
100
AcDbEntity
  8
0
  6
Continuous
 62
     7
370
    15
100
AcDbSpline
210
0.0
220
0.0
230
1.0
 70
     8
 71
     3
 72
    10
 73
     6
 74
     0
 42
0.00000001
 43
0.00000001
 12
1.0
 22
0.0
 32
0.0
 13
1.0
 23
0.0
 33
0.0
 40
0.0
 40
0.0
 40
0.0
 40
0.0
 40
0.5
 40
0.5
 40
1.0
 40
1.0
 40
1.0
 40
1.0
 10
70.71703953862377
 20
133.2903811599702
 30
0.0
 10
70.64948028370551
 20
133.2226897671604
 30
0.0
 10
70.58584362836902
 20
133.1479826024068
 30
0.0
 10
70.47562287379715
 20
132.9890164699802
 30
0.0
 10
70.42880658057453
 20
132.9046612039722
 30
0.0
 10
70.40123811514646
 20
132.8205466012804
 30
0.0
  0
SPLINE
  5
AC
330
1F
100
AcDbEntity
  8
0
  6
Continuous
 62
     7
370
    15
100
AcDbSpline
210
0.0
220
0.0
230
1.0
 70
     8
 71
     3
 72
    10
 73
     6
 74
     0
 42
0.00000001
 43
0.00000001
 12
1.0
 22
0.0
 32
0.0
 13
1.0
 23
0.0
 33
0.0
 40
0.0
 40
0.0
 40
0.0
 40
0.0
 40
0.5
 40
0.5
 40
1.0
 40
1.0
 40
1.0
 40
1.0
 10
70.40123811514651
 20
92.04030793408457
 30
0.0
 10
70.4287155298997
 20
91.95647113761898
 30
0.0
 10
70.47542416018737
 20
91.87216065003213
 30
0.0
 10
70.58570262292932
 20
91.71303941954928
 30
0.0
 10
70.64959016154096
 20
91.63805467546119
 30
0.0
 10
70.7170395386233
 20
91.57047337539532
 30
0.0
  0
SPLINE
  5
AD
330
1F
100
AcDbEntity
  8
0
  6
Continuous
 62
     7
370
    15
100
AcDbSpline
210
0.0
220
0.0
230
1.0
 70
     8
 71
     3
 72
    24
 73
    20
 74
     0
 42
0.00000001
 43
0.00000001
 12
1.0
 22
0.0
 32
0.0
 13
1.0
 23
0.0
 33
0.0
 40
0.0
 40
0.0
 40
0.0
 40
0.0
 40
0.2499999999999952
 40
0.2499999999999952
 40
0.3749999999999937
 40
0.3749999999999937
 40
0.4374999999999931
 40
0.4374999999999931
 40
0.468749999999992
 40
0.468749999999992
 40
0.4999999999999909
 40
0.4999999999999909
 40
0.5624999999999933
 40
0.5624999999999933
 40
0.6249999999999958
 40
0.6249999999999958
 40
0.7499999999999981
 40
0.7499999999999981
 40
1.0
 40
1.0
 40
1.0
 40
1.0
 10
69.63974784376536
 20
92.75587472290178
 30
0.0
 10
69.65350096243559
 20
92.82652478089207
 30
0.0
 10
69.67127352984144
 20
92.89312289365701
 30
0.0
 10
69.7235246213968
 20
92.96722091389019
 30
0.0
 10
69.74455969697834
 20
92.98847872105176
 30
0.0
 10
69.7974601046068
 20
92.996624647198
 30
0.0
 10
69.81856577748471
 20
92.99568484380224
 30
0.0
 10
69.86461794616267
 20
92.9746688522249
 30
0.0
 10
69.88298841814606
 20
92.96376004611729
 30
0.0
 10
69.92454005321176
 20
92.93112513516992
 30
0.0
 10
69.94710672596868
 20
92.90963315479856
 30
0.0
 10
70.0098877424287
 20
92.84116721121224
 30
0.0
 10
70.04301750339658
 20
92.79509275300715
 30
0.0
 10
70.0999351898816
 20
92.71008486467247
 30
0.0
 10
70.12412121538537
 20
92.66980456349108
 30
0.0
 10
70.18932916576514
 20
92.55486833702514
 30
0.0
 10
70.22404522595639
 20
92.48428535187814
 30
0.0
 10
70.31726049628728
 20
92.28007959279954
 30
0.0
 10
70.36293303164796
 20
92.15718121047216
 30
0.0
 10
70.4012381151465
 20
92.04030793408458
 30
0.0
  0
SPLINE
  5
AE
330
1F
100
AcDbEntity
  8
0
  6
Continuous
 62
     7
370
    15
100
AcDbSpline
210
0.0
220
0.0
230
1.0
 70
     8
 71
     3
 72
     8
 73
     4
 74
     0
 42
0.00000001
 43
0.00000001
 12
1.0
 22
0.0
 32
0.0
 13
1.0
 23
0.0
 33
0.0
 40
0.0
 40
0.0
 40
0.0
 40
0.0
 40
1.0
 40
1.0
 40
1.0
 40
1.0
 10
117.567084469042
 20
140.2356614588541
 30
0.0
 10
117.0743743721962
 20
141.1236804569805
 30
0.0
 10
116.5802916669172
 20
142.0109430926665
 30
0.0
 10
116.0851516375529
 20
142.8976227408468
 30
0.0
  0
SPLINE
  5
AF
330
1F
100
AcDbEntity
  8
0
  6
Continuous
 62
     7
370
    15
100
AcDbSpline
210
0.0
220
0.0
230
1.0
 70
     8
 71
     3
 72
     8
 73
     4
 74
     0
 42
0.00000001
 43
0.00000001
 12
1.0
 22
0.0
 32
0.0
 13
1.0
 23
0.0
 33
0.0
 40
0.0
 40
0.0
 40
0.0
 40
0.0
 40
1.0
 40
1.0
 40
1.0
 40
1.0
 10
116.0851516375529
 20
136.88911693005
 30
0.0
 10
116.5922384793122
 20
135.7579665758863
 30
0.0
 10
117.0878063184521
 20
134.6215821651185
 30
0.0
 10
117.567084469042
 20
133.4805709352659
 30
0.0
  0
LINE
  5
B0
330
1F
100
AcDbEntity
  8
0
  6
Continuous
 62
     7
370
    15
100
AcDbLine
 10
117.567084469
 20
133.4805709353
 30
0.0
 11
117.567084469
 21
140.2356614589
 31
0.0
  0
SPLINE
  5
B1
330
1F
100
AcDbEntity
  8
0
  6
Continuous
 62
     7
370
    15
100
AcDbSpline
210
0.0
220
0.0
230
1.0
 70
     8
 71
     3
 72
    10
 73
     6
 74
     0
 42
0.00000001
 43
0.00000001
 12
1.0
 22
0.0
 32
0.0
 13
1.0
 23
0.0
 33
0.0
 40
0.0
 40
0.0
 40
0.0
 40
0.0
 40
0.5
 40
0.5
 40
1.0
 40
1.0
 40
1.0
 40
1.0
 10
127.4270844690419
 20
142.2768675914464
 30
0.0
 10
127.4270844690419
 20
142.4372728577972
 30
0.0
 10
127.3648466379351
 20
142.5963346707858
 30
0.0
 10
127.1457117141925
 20
142.8272471364161
 30
0.0
 10
126.9881230192007
 20
142.8976227408468
 30
0.0
 10
126.8270844690419
 20
142.8976227408468
 30
0.0
  0
SPLINE
  5
B2
330
1F
100
AcDbEntity
  8
0
  6
Continuous
 62
     7
370
    15
100
AcDbSpline
210
0.0
220
0.0
230
1.0
 70
     8
 71
     3
 72
    12
 73
     8
 74
     0
 42
0.00000001
 43
0.00000001
 12
1.0
 22
0.0
 32
0.0
 13
1.0
 23
0.0
 33
0.0
 40
0.0
 40
0.0
 40
0.0
 40
0.0
 40
0.25
 40
0.25
 40
0.5
 40
0.5
 40
1.0
 40
1.0
 40
1.0
 40
1.0
 10
126.8270844690419
 20
136.88911693005
 30
0.0
 10
126.9182841908676
 20
136.88911693005
 30
0.0
 10
127.0088792000036
 20
136.8608972314621
 30
0.0
 10
127.1622919264503
 20
136.766454224214
 30
0.0
 10
127.227500793774
 20
136.7001672475087
 30
0.0
 10
127.3802853231139
 20
136.4745424242203
 30
0.0
 10
127.4270844690419
 20
136.2921161611878
 30
0.0
 10
127.4270844690419
 20
136.1113795289409
 30
0.0
  0
LINE
  5
B3
330
1F
100
AcDbEntity
  8
0
  6
Continuous
 62
     7
370
    15
100
AcDbLine
 10
127.427084469
 20
136.1113795289
 30
0.0
 11
127.427084469
 21
142.2768675914
 31
0.0
  0
LINE
  5
B4
330
1F
100
AcDbEntity
  8
0
  6
Continuous
 62
     7
370
    15
100
AcDbLine
 10
117.567084469
 20
133.4805709353
 30
0.0
 11
117.567084469
 21
132.5662938991
 31
0.0
  0
LINE
  5
B5
330
1F
100
AcDbEntity
  8
0
  6
Continuous
 62
     7
370
    15
100
AcDbLine
 10
126.827084469
 20
142.8976227408
 30
0.0
 11
122.8690173005
 21
142.8976227408
 31
0.0
  0
LINE
  5
B6
330
1F
100
AcDbEntity
  8
0
  6
Continuous
 62
     7
370
    15
100
AcDbLine
 10
122.8690173005
 20
136.88911693
 30
0.0
 11
126.827084469
 21
136.88911693
 31
0.0
  0
LINE
  5
B7
330
1F
100
AcDbEntity
  8
0
  6
Continuous
 62
     7
370
    15
100
AcDbLine
 10
122.8690173005
 20
136.88911693
 30
0.0
 11
122.8690173005
 21
142.8976227408
 31
0.0
  0
SPLINE
  5
B8
330
1F
100
AcDbEntity
  8
0
  6
Continuous
 62
     7
370
    15
100
AcDbSpline
210
0.0
220
0.0
230
1.0
 70
     8
 71
     3
 72
     8
 73
     4
 74
     0
 42
0.00000001
 43
0.00000001
 12
1.0
 22
0.0
 32
0.0
 13
1.0
 23
0.0
 33
0.0
 40
0.0
 40
0.0
 40
0.0
 40
0.0
 40
1.0
 40
1.0
 40
1.0
 40
1.0
 10
122.869017300531
 20
142.8976227408468
 30
0.0
 10
122.3738772711667
 20
142.0109430926665
 30
0.0
 10
121.8797945658877
 20
141.1236804569805
 30
0.0
 10
121.387084469042
 20
140.2356614588541
 30
0.0
  0
SPLINE
  5
B9
330
1F
100
AcDbEntity
  8
0
  6
Continuous
 62
     7
370
    15
100
AcDbSpline
210
0.0
220
0.0
230
1.0
 70
     8
 71
     3
 72
     8
 73
     4
 74
     0
 42
0.00000001
 43
0.00000001
 12
1.0
 22
0.0
 32
0.0
 13
1.0
 23
0.0
 33
0.0
 40
0.0
 40
0.0
 40
0.0
 40
0.0
 40
1.0
 40
1.0
 40
1.0
 40
1.0
 10
121.387084469042
 20
133.4805709352659
 30
0.0
 10
121.8663626196318
 20
134.6215821651185
 30
0.0
 10
122.3619304587717
 20
135.7579665758863
 30
0.0
 10
122.869017300531
 20
136.88911693005
 30
0.0
  0
LINE
  5
BA
330
1F
100
AcDbEntity
  8
0
  6
Continuous
 62
     7
370
    15
100
AcDbLine
 10
121.387084469
 20
133.4805709353
 30
0.0
 11
121.387084469
 21
140.2356614589
 31
0.0
  0
LINE
  5
BB
330
1F
100
AcDbEntity
  8
0
  6
Continuous
 62
     7
370
    15
100
AcDbLine
 10
121.387084469
 20
132.5662938991
 30
0.0
 11
121.387084469
 21
133.4805709353
 31
0.0
  0
LINE
  5
BC
330
1F
100
AcDbEntity
  8
0
  6
Continuous
 62
     7
370
    15
100
AcDbLine
 10
127.427084469
 20
136.1113795289
 30
0.0
 11
127.427084469
 21
132.2804272677
 31
0.0
  0
ARC
  5
BD
330
1F
100
AcDbEntity
  8
0
  6
Continuous
 62
     7
370
    15
100
AcDbCircle
 10
109.4772945744
 20
131.1602976344
 30
0.0
 40
7.226579600532167
100
AcDbArc
 50
70.8977090435
 51
109.1655022323
  0
SPLINE
  5
BE
330
1F
100
AcDbEntity
  8
0
  6
Continuous
 62
     7
370
    15
100
AcDbSpline
210
0.0
220
0.0
230
1.0
 70
     8
 71
     3
 72
    39
 73
    35
 74
     0
 42
0.00000001
 43
0.00000001
 12
1.0
 22
0.0
 32
0.0
 13
1.0
 23
0.0
 33
0.0
 40
-0.0931102473294801
 40
-0.0619213968680529
 40
-0.030670830648567
 40
0.0
 40
0.0306856150679116
 40
0.0619482236497684
 40
0.0931389682130277
 40
0.1242353660049208
 40
0.15537917177916
 40
0.1869236166023136
 40
0.2186032199226303
 40
0.2499252161707507
 40
0.2812618749388126
 40
0.313005861157039
 40
0.3446066213882769
 40
0.375805098522173
 40
0.4068941952444538
 40
0.4380461897407772
 40
0.4692609185498012
 40
0.5000121821429336
 40
0.5307427550039816
 40
0.5620031531144519
 40
0.5931559557603082
 40
0.6242689070960004
 40
0.6554398400965996
 40
0.6870342707186188
 40
0.7187291690321217
 40
0.7500762020617063
 40
0.7813835916546639
 40
0.8131037368899464
 40
0.8446515541915588
 40
0.875821037225117
 40
0.9068897526705199
 40
0.9380786031319471
 40
0.969329169351433
 40
1.0
 40
1.030685615067912
 40
1.061948223649768
 40
1.093138968213028
 10
214.724864699062
 20
108.6014579620372
 30
0.0
 10
213.9769605016351
 20
108.5257635928831
 30
0.0
 10
213.2289866371417
 20
108.6016147772284
 30
0.0
 10
212.5105469014039
 20
108.8294922475725
 30
0.0
 10
211.8464285929481
 20
109.1877453516854
 30
0.0
 10
211.2699215088986
 20
109.6710018333674
 30
0.0
 10
210.7964026537407
 20
110.2591618323205
 30
0.0
 10
210.446086145922
 20
110.9349274092061
 30
0.0
 10
210.2236463603937
 20
111.6669255879404
 30
0.0
 10
210.1500779518538
 20
112.4287127108485
 30
0.0
 10
210.2240022572727
 20
113.1909663552045
 30
0.0
 10
210.4464721276524
 20
113.924069370569
 30
0.0
 10
210.7968048871184
 20
114.6014204688401
 30
0.0
 10
211.2705370652345
 20
115.1904971290581
 30
0.0
 10
211.8467889073937
 20
115.6741221582363
 30
0.0
 10
212.510078650338
 20
116.0323780668362
 30
0.0
 10
213.2285731154276
 20
116.2596894009703
 30
0.0
 10
213.9772021543407
 20
116.3349795982919
 30
0.0
 10
214.7261862657823
 20
116.2595313578323
 30
0.0
 10
215.4447971644055
 20
116.0318873034262
 30
0.0
 10
216.1085477467152
 20
115.6733135551602
 30
0.0
 10
216.6846218386982
 20
115.1894808217564
 30
0.0
 10
217.1580908771453
 20
114.6003195257541
 30
0.0
 10
217.5080436930236
 20
113.923510436061
 30
0.0
 10
217.7301857402162
 20
113.1907009306548
 30
0.0
 10
217.8040822131815
 20
112.4288854335701
 30
0.0
 10
217.7305419381
 20
111.6667979461484
 30
0.0
 10
217.5078953549761
 20
110.9346037608517
 30
0.0
 10
217.1573026314335
 20
110.2583583180226
 30
0.0
 10
216.6835836197293
 20
109.6703229945773
 30
0.0
 10
216.1069525567204
 20
109.187277179825
 30
0.0
 10
215.443064402837
 20
108.8293198110569
 30
0.0
 10
214.724864699062
 20
108.6014579620372
 30
0.0
 10
213.9769605016351
 20
108.5257635928831
 30
0.0
 10
213.2289866371417
 20
108.6016147772284
 30
0.0
  0
LINE
  5
BF
330
1F
100
AcDbEntity
  8
0
  6
Continuous
 62
     7
370
    15
100
AcDbLine
 10
218.610042946
 20
96.4304272677
 30
0.0
 11
218.610042946
 21
128.4304272677
 31
0.0
  0
LINE
  5
C0
330
1F
100
AcDbEntity
  8
0
  6
Continuous
 62
     7
370
    15
100
AcDbLine
 10
231.477084469
 20
103.7045677893
 30
0.0
 11
231.477084469
 21
121.1562865739
 31
0.0
  0
CIRCLE
  5
C1
330
1F
100
AcDbEntity
  8
0
  6
HIDDEN
 62
     7
370
     0
100
AcDbCircle
 10
213.977084469
 20
112.4304272677
 30
0.0
 40
4.000000000000008
  0
CIRCLE
  5
C2
330
1F
100
AcDbEntity
  8
0
  6
HIDDEN
 62
     7
370
     0
100
AcDbCircle
 10
213.977084469
 20
112.4304272677
 30
0.0
 40
1.850000000000021
  0
CIRCLE
  5
C3
330
1F
100
AcDbEntity
  8
0
  6
HIDDEN
 62
     7
370
     0
100
AcDbCircle
 10
213.977084469
 20
112.4304272677
 30
0.0
 40
2.75000000000004
  0
LINE
  5
C4
330
1F
100
AcDbEntity
  8
0
  6
HIDDEN
 62
     7
370
     0
100
AcDbLine
 10
116.0851516376
 20
136.88911693
 30
0.0
 11
116.0851516376
 21
132.2804272677
 31
0.0
  0
ARC
  5
C5
330
1F
100
AcDbEntity
  8
0
  6
HIDDEN
 62
     7
370
     0
100
AcDbCircle
 10
109.7783094841
 20
124.9107225895
 30
0.0
 40
3.662788052458486
100
AcDbArc
 50
265.2827092948
 51
12.3014501683
  0
ARC
  5
C6
330
1F
100
AcDbEntity
  8
0
  6
HIDDEN
 62
     7
370
     0
100
AcDbCircle
 10
109.1950165475
 20
124.9224170343
 30
0.0
 40
3.672922165405657
100
AcDbArc
 50
166.4845093491
 51
274.4044574913
  0
LINE
  5
C7
330
1F
100
AcDbEntity
  8
0
  6
HIDDEN
 62
     7
370
     0
100
AcDbLine
 10
89.4722346736
 20
88.9058276449
 30
0.0
 11
88.9380892445
 21
88.8512130454
 31
0.0
  0
LINE
  5
C8
330
1F
100
AcDbEntity
  8
0
  6
HIDDEN
 62
     7
370
     0
100
AcDbLine
 10
88.7004355724
 20
136.0337604482
 30
0.0
 11
89.4721419533
 21
135.9550102977
 31
0.0
  0
SPLINE
  5
C9
330
1F
100
AcDbEntity
  8
0
  6
HIDDEN
 62
     7
370
     0
100
AcDbSpline
210
0.0
220
0.0
230
1.0
 70
     8
 71
     3
 72
    15
 73
    11
 74
     0
 42
0.00000001
 43
0.00000001
 12
1.0
 22
0.0
 32
0.0
 13
1.0
 23
0.0
 33
0.0
 40
0.0
 40
0.0
 40
0.0
 40
0.0
 40
0.1409172169897705
 40
0.2818898291171906
 40
0.4212989265166057
 40
0.5593768372264388
 40
0.6988856205980569
 40
0.8403671979046411
 40
0.981316445467027
 40
1.0
 40
1.0
 40
1.0
 40
1.0
 10
95.23208647064355
 20
92.59289879186606
 30
0.0
 10
94.916044784371
 20
92.63325260918768
 30
0.0
 10
94.28383717453897
 20
92.71397610708253
 30
0.0
 10
93.04967405286175
 20
92.7905312046848
 30
0.0
 10
91.77895205200323
 20
92.78585515354574
 30
0.0
 10
90.59039264697577
 20
92.70505914181354
 30
0.0
 10
89.59726997419473
 20
92.58066234530177
 30
0.0
 10
88.95786096789813
 20
92.47425880663968
 30
0.0
 10
88.6768408613146
 20
92.42117814596251
 30
0.0
 10
88.74340159900777
 20
92.43343418597675
 30
0.0
 10
88.751191922526
 20
92.4348686429866
 30
0.0
  0
SPLINE
  5
CA
330
1F
100
AcDbEntity
  8
0
  6
HIDDEN
 62
     7
370
     0
100
AcDbSpline
210
0.0
220
0.0
230
1.0
 70
     8
 71
     3
 72
    15
 73
    11
 74
     0
 42
0.00000001
 43
0.00000001
 12
1.0
 22
0.0
 32
0.0
 13
1.0
 23
0.0
 33
0.0
 40
0.0
 40
0.0
 40
0.0
 40
0.0
 40
0.1201202395113831
 40
0.2584739316900695
 40
0.3987301965958642
 40
0.5404022890432704
 40
0.680739540300365
 40
0.819035606386088
 40
0.9577823106998845
 40
1.0
 40
1.0
 40
1.0
 40
1.0
 10
88.751191922526
 20
132.4259858923785
 30
0.0
 10
88.77190105899648
 20
132.4219612985248
 30
0.0
 10
88.81646284098427
 20
132.413301204264
 30
0.0
 10
89.37890244685698
 20
132.3140100776553
 30
0.0
 10
90.27236465917832
 20
132.190092487674
 30
0.0
 10
91.43134381337049
 20
132.0903820508526
 30
0.0
 10
92.70438069349585
 20
132.063243561777
 30
0.0
 10
93.93866596813945
 20
132.1185823959409
 30
0.0
 10
94.76662876490546
 20
132.2050609949251
 30
0.0
 10
95.14403930956942
 20
132.256058413215
 30
0.0
 10
95.23208647064358
 20
132.267955743499
 30
0.0
  0
SPLINE
  5
CB
330
1F
100
AcDbEntity
  8
0
  6
HIDDEN
 62
     7
370
     0
100
AcDbSpline
210
0.0
220
0.0
230
1.0
 70
     8
 71
     3
 72
    10
 73
     6
 74
     0
 42
0.00000001
 43
0.00000001
 12
1.0
 22
0.0
 32
0.0
 13
1.0
 23
0.0
 33
0.0
 40
0.0
 40
0.0
 40
0.0
 40
0.0
 40
0.4474980330246504
 40
0.8949793102011562
 40
1.0
 40
1.0
 40
1.0
 40
1.0
 10
95.23208647064355
 20
132.267955743499
 30
0.0
 10
95.47879633632914
 20
132.2974684519784
 30
0.0
 10
95.97220683004393
 20
132.356492763881
 30
0.0
 10
96.26122469602753
 20
132.370430737454
 30
0.0
 10
96.20081842361405
 20
132.3665378322758
 30
0.0
 10
96.1893362773481
 20
132.3657978609968
 30
0.0
  0
SPLINE
  5
CC
330
1F
100
AcDbEntity
  8
0
  6
HIDDEN
 62
     7
370
     0
100
AcDbSpline
210
0.0
220
0.0
230
1.0
 70
     8
 71
     3
 72
    10
 73
     6
 74
     0
 42
0.00000001
 43
0.00000001
 12
1.0
 22
0.0
 32
0.0
 13
1.0
 23
0.0
 33
0.0
 40
0.0
 40
0.0
 40
0.0
 40
0.0
 40
0.3454371160332159
 40
0.796685321207651
 40
0.9999999999999999
 40
0.9999999999999999
 40
0.9999999999999999
 40
0.9999999999999999
 10
96.18934755903373
 20
92.49505590746708
 30
0.0
 10
96.17978748849427
 20
92.49561154274353
 30
0.0
 10
96.15773899539674
 20
92.49689301033386
 30
0.0
 10
95.74081309014367
 20
92.52684928387467
 30
0.0
 10
95.35265331342718
 20
92.57724523582891
 30
0.0
 10
95.23208647064355
 20
92.59289879186606
 30
0.0
  0
LINE
  5
CD
330
1F
100
AcDbEntity
  8
0
  6
HIDDEN
 62
     7
370
     0
100
AcDbLine
 10
82.4810590653
 20
95.4304272677
 30
0.0
 11
82.4810590653
 21
129.4304272677
 31
0.0
  0
LWPOLYLINE
  5
CE
330
1F
100
AcDbEntity
  8
0
  6
HIDDEN
 62
     7
370
     0
100
AcDbPolyline
 90
       13
 70
   128
 43
0.0
 10
109.477084469
 20
134.3760296823
 10
110.3369662299
 20
134.4227885709
 10
111.1566408753
 20
134.560878843
 10
111.8977813298
 20
134.7838435509
 10
112.5257326896
 20
135.0812571128
 10
113.0111326468
 20
135.4392128009
 10
113.3312844391
 20
135.8409730053
 10
113.4712181244
 20
136.2677518652
 10
113.4243905592
 20
136.6995936754
 10
113.1929913483
 20
137.116305993
 10
112.7878404617
 20
137.498403813
 10
112.2278823045
 20
137.8280206662
 10
111.8422338119
 20
137.9889516105
  0
LWPOLYLINE
  5
CF
330
1F
100
AcDbEntity
  8
0
  6
HIDDEN
 62
     7
370
     0
100
AcDbPolyline
 90
       13
 70
   128
 43
0.0
 10
107.1048231001
 20
137.9863383482
 10
106.7262866336
 20
137.8280206662
 10
106.1663284764
 20
137.498403813
 10
105.7611775898
 20
137.116305993
 10
105.5297783789
 20
136.6995936754
 10
105.4829508136
 20
136.2677518652
 10
105.622884499
 20
135.8409730053
 10
105.9430362913
 20
135.4392128009
 10
106.4284362485
 20
135.0812571128
 10
107.0563876083
 20
134.7838435509
 10
107.7975280628
 20
134.560878843
 10
108.6172027082
 20
134.4227885709
 10
109.477084469
 20
134.3760296823
  0
SPLINE
  5
D0
330
1F
100
AcDbEntity
  8
0
  6
HIDDEN
 62
     7
370
     0
100
AcDbSpline
210
0.0
220
0.0
230
1.0
 70
     8
 71
     3
 72
     8
 73
     4
 74
     0
 42
0.00000001
 43
0.00000001
 12
1.0
 22
0.0
 32
0.0
 13
1.0
 23
0.0
 33
0.0
 40
0.0
 40
0.0
 40
0.0
 40
0.0
 40
0.0011559732291307
 40
0.0011559732291307
 40
0.0011559732291307
 40
0.0011559732291307
 10
69.57708446904194
 20
114.4302678863092
 30
0.0
 10
69.91041904410926
 20
114.4263006065097
 30
0.0
 10
70.24375023513602
 20
114.4221207239387
 30
0.0
 10
70.57708446904195
 20
114.4175555705307
 30
0.0
  0
SPLINE
  5
D1
330
1F
100
AcDbEntity
  8
0
  6
HIDDEN
 62
     7
370
     0
100
AcDbSpline
210
0.0
220
0.0
230
1.0
 70
     8
 71
     3
 72
     8
 73
     4
 74
     0
 42
0.00000001
 43
0.00000001
 12
1.0
 22
0.0
 32
0.0
 13
1.0
 23
0.0
 33
0.0
 40
0.0
 40
0.0
 40
0.0
 40
0.0
 40
0.0011564765856722
 40
0.0011564765856722
 40
0.0011564765856722
 40
0.0011564765856722
 10
70.57708446904195
 20
110.4337269654654
 30
0.0
 10
70.24377653847311
 20
110.4328518098824
 30
0.0
 10
69.9104413060809
 20
110.4317969586312
 30
0.0
 10
69.57708446904195
 20
110.4306258715939
 30
0.0
  0
LINE
  5
D2
330
1F
100
AcDbEntity
  8
0
  6
HIDDEN
 62
     7
370
     0
100
AcDbLine
 10
109.1369104376
 20
95.4304272677
 30
0.0
 11
109.1369104376
 21
129.4304272677
 31
0.0
  0
LINE
  5
D3
330
1F
100
AcDbEntity
  8
0
  6
HIDDEN
 62
     7
370
     0
100
AcDbLine
 10
111.427084469
 20
96.7054272677
 30
0.0
 11
111.427084469
 21
128.155427267
 31
0.0
  0
SPLINE
  5
D4
330
1F
100
AcDbEntity
  8
0
  6
HIDDEN
 62
     7
370
     0
100
AcDbSpline
210
0.0
220
0.0
230
1.0
 70
     8
 71
     3
 72
    16
 73
    12
 74
     0
 42
0.00000001
 43
0.00000001
 12
1.0
 22
0.0
 32
0.0
 13
1.0
 23
0.0
 33
0.0
 40
0.0
 40
0.0
 40
0.0
 40
0.0
 40
0.124999999999998
 40
0.124999999999998
 40
0.249999999999996
 40
0.249999999999996
 40
0.4999999999999973
 40
0.4999999999999973
 40
0.7499999999999987
 40
0.7499999999999987
 40
1.0
 40
1.0
 40
1.0
 40
1.0
 10
78.27708446904195
 20
96.62893683165088
 30
0.0
 10
78.37220622370778
 20
96.62893683165088
 30
0.0
 10
78.46553629243586
 20
96.62512099825807
 30
0.0
 10
78.64879805317386
 20
96.61035044552827
 30
0.0
 10
78.73967576873086
 20
96.59919239755268
 30
0.0
 10
78.99647746625061
 20
96.55672112741095
 30
0.0
 10
79.1515448311226
 20
96.51567493020815
 30
0.0
 10
79.40529129267722
 20
96.42052881362626
 30
0.0
 10
79.50616174434508
 20
96.3657660795447
 30
0.0
 10
79.64140815903991
 20
96.25450495564081
 30
0.0
 10
79.67708446904196
 20
96.19733521831213
 30
0.0
 10
79.67708446904196
 20
96.14291364527841
 30
0.0
  0
SPLINE
  5
D5
330
1F
100
AcDbEntity
  8
0
  6
HIDDEN
 62
     7
370
     0
100
AcDbSpline
210
0.0
220
0.0
230
1.0
 70
     8
 71
     3
 72
     8
 73
     4
 74
     0
 42
0.00000001
 43
0.00000001
 12
1.0
 22
0.0
 32
0.0
 13
1.0
 23
0.0
 33
0.0
 40
0.0
 40
0.0
 40
0.0
 40
0.0
 40
1.0
 40
1.0
 40
1.0
 40
1.0
 10
70.87708446913459
 20
98.77373977773311
 30
0.0
 10
70.8770844691365
 20
97.88984263541619
 30
0.0
 10
70.86360384322597
 20
97.17525939035424
 30
0.0
 10
70.86225247503486
 20
96.62893683165088
 30
0.0
  0
LINE
  5
D6
330
1F
100
AcDbEntity
  8
0
  6
HIDDEN
 62
     7
370
     0
100
AcDbLine
 10
70.577084469
 20
102.8296004827
 30
0.0
 11
70.577084469
 21
99.7986500372
 31
0.0
  0
SPLINE
  5
D7
330
1F
100
AcDbEntity
  8
0
  6
HIDDEN
 62
     7
370
     0
100
AcDbSpline
210
0.0
220
0.0
230
1.0
 70
     8
 71
     3
 72
    10
 73
     6
 74
     0
 42
0.00000001
 43
0.00000001
 12
1.0
 22
0.0
 32
0.0
 13
1.0
 23
0.0
 33
0.0
 40
0.0
 40
0.0
 40
0.0
 40
0.0
 40
0.5
 40
0.5
 40
1.0
 40
1.0
 40
1.0
 40
1.0
 10
70.87708446912849
 20
104.1974408920397
 30
0.0
 10
70.87708446912849
 20
103.9554569258253
 30
0.0
 10
70.84893444037006
 20
103.7211144981667
 30
0.0
 10
70.74534452735482
 20
103.2657394783583
 30
0.0
 10
70.66871581856122
 20
103.0441349164408
 30
0.0
 10
70.57708446904195
 20
102.8296004827014
 30
0.0
  0
LINE
  5
D8
330
1F
100
AcDbEntity
  8
0
  6
HIDDEN
 62
     7
370
     0
100
AcDbLine
 10
70.8770844691
 20
116.0350608892
 30
0.0
 11
70.8770844691
 21
104.197440892
 31
0.0
  0
SPLINE
  5
D9
330
1F
100
AcDbEntity
  8
0
  6
HIDDEN
 62
     7
370
     0
100
AcDbSpline
210
0.0
220
0.0
230
1.0
 70
     8
 71
     3
 72
     8
 73
     4
 74
     0
 42
0.00000001
 43
0.00000001
 12
1.0
 22
0.0
 32
0.0
 13
1.0
 23
0.0
 33
0.0
 40
0.0
 40
0.0
 40
0.0
 40
0.0
 40
1.0
 40
1.0
 40
1.0
 40
1.0
 10
70.57708446904195
 20
122.0373665811881
 30
0.0
 10
70.75811593378077
 20
121.6052590977136
 30
0.0
 10
70.87708446913416
 20
121.1511136940647
 30
0.0
 10
70.87708446912843
 20
120.6634136432945
 30
0.0
  0
LINE
  5
DA
330
1F
100
AcDbEntity
  8
0
  6
HIDDEN
 62
     7
370
     0
100
AcDbLine
 10
70.577084469
 20
125.0705695812
 30
0.0
 11
70.577084469
 21
122.0373665812
 31
0.0
  0
SPLINE
  5
DB
330
1F
100
AcDbEntity
  8
0
  6
HIDDEN
 62
     7
370
     0
100
AcDbSpline
210
0.0
220
0.0
230
1.0
 70
     8
 71
     3
 72
    10
 73
     6
 74
     0
 42
0.00000001
 43
0.00000001
 12
1.0
 22
0.0
 32
0.0
 13
1.0
 23
0.0
 33
0.0
 40
0.0
 40
0.0
 40
0.0
 40
0.0
 40
0.5
 40
0.5
 40
1.0
 40
1.0
 40
1.0
 40
1.0
 10
70.8770844691475
 20
126.0871147576024
 30
0.0
 10
70.87708446914573
 20
125.922478412009
 30
0.0
 10
70.84992579872068
 20
125.7553231892226
 30
0.0
 10
70.74416080466104
 20
125.4167001835602
 30
0.0
 10
70.66774601714022
 20
125.2444284074034
 30
0.0
 10
70.57708446904198
 20
125.0705695811529
 30
0.0
  0
SPLINE
  5
DC
330
1F
100
AcDbEntity
  8
0
  6
HIDDEN
 62
     7
370
     0
100
AcDbSpline
210
0.0
220
0.0
230
1.0
 70
     8
 71
     3
 72
    18
 73
    14
 74
     0
 42
0.00000001
 43
0.00000001
 12
1.0
 22
0.0
 32
0.0
 13
1.0
 23
0.0
 33
0.0
 40
0.0
 40
0.0
 40
0.0
 40
0.0
 40
0.2500000000000033
 40
0.2500000000000033
 40
0.3750000000000029
 40
0.3750000000000029
 40
0.5000000000000026
 40
0.5000000000000026
 40
0.6250000000000022
 40
0.6250000000000022
 40
0.7500000000000018
 40
0.7500000000000018
 40
1.0
 40
1.0
 40
1.0
 40
1.0
 10
75.67708446904194
 20
128.7179408900867
 30
0.0
 10
75.67708446904194
 20
128.6634663695345
 30
0.0
 10
75.64217377764979
 20
128.607085310182
 30
0.0
 10
75.54016447631673
 20
128.5230084693285
 30
0.0
 10
75.49852812163863
 20
128.4956747653376
 30
0.0
 10
75.40012232614987
 20
128.4427208497386
 30
0.0
 10
75.34257911444558
 20
128.4168334960214
 30
0.0
 10
75.21528094087265
 20
128.3690559511882
 30
0.0
 10
75.14569363611517
 20
128.3471080330103
 30
0.0
 10
74.99425939096021
 20
128.3076754680976
 30
0.0
 10
74.91157548786627
 20
128.2901192188717
 30
0.0
 10
74.65546402582822
 20
128.2476804534512
 30
0.0
 10
74.46754902194023
 20
128.2319177037142
 30
0.0
 10
74.27708446904195
 20
128.2319177037142
 30
0.0
  0
LINE
  5
DD
330
1F
100
AcDbEntity
  8
0
  6
HIDDEN
 62
     7
370
     0
100
AcDbLine
 10
74.277084469
 20
128.2319177037
 30
0.0
 11
70.8770844691
 21
128.2319177037
 31
0.0
  0
LINE
  5
DE
330
1F
100
AcDbEntity
  8
0
  6
HIDDEN
 62
     7
370
     0
100
AcDbLine
 10
70.8081154824
 20
96.6289368317
 30
0.0
 11
78.277084469
 21
96.6289368317
 31
0.0
  0
SPLINE
  5
DF
330
1F
100
AcDbEntity
  8
0
  6
HIDDEN
 62
     7
370
     0
100
AcDbSpline
210
0.0
220
0.0
230
1.0
 70
     8
 71
     3
 72
    22
 73
    18
 74
     0
 42
0.00000001
 43
0.00000001
 12
1.0
 22
0.0
 32
0.0
 13
1.0
 23
0.0
 33
0.0
 40
0.0
 40
0.0
 40
0.0
 40
0.0
 40
0.1249999999999998
 40
0.1249999999999998
 40
0.2499999999999996
 40
0.2499999999999996
 40
0.4999999999999992
 40
0.4999999999999992
 40
0.5624999999999992
 40
0.5624999999999992
 40
0.6249999999999992
 40
0.6249999999999992
 40
0.7499999999999994
 40
0.7499999999999994
 40
0.8749999999999998
 40
0.8749999999999998
 40
1.0
 40
1.0
 40
1.0
 40
1.0
 10
70.80811548239987
 20
96.62893683165088
 30
0.0
 10
70.7950330896715
 20
96.88404254179854
 30
0.0
 10
70.78181352623169
 20
97.17720080090244
 30
0.0
 10
70.75936634843755
 20
97.83950126652725
 30
0.0
 10
70.74988788141309
 20
98.20977518713862
 30
0.0
 10
70.73068992047654
 20
99.43233199025242
 30
0.0
 10
70.73180369347342
 20
100.3694709163843
 30
0.0
 10
70.7507144864265
 20
101.6893421458993
 30
0.0
 10
70.7553440142855
 20
101.9608440548756
 30
0.0
 10
70.76582523403147
 20
102.5192288896779
 30
0.0
 10
70.77162049531587
 20
102.8063517456175
 30
0.0
 10
70.78992971622081
 20
103.6789409999892
 30
0.0
 10
70.80396465050117
 20
104.279396676345
 30
0.0
 10
70.833421822638
 20
105.5168711688411
 30
0.0
 10
70.84897751361957
 20
106.1538873254846
 30
0.0
 10
70.87277206361647
 20
107.4653759231691
 30
0.0
 10
70.88079111576182
 20
108.1414985348296
 30
0.0
 10
70.87708446904195
 20
108.8257936461144
 30
0.0
  0
LINE
  5
E0
330
1F
100
AcDbEntity
  8
0
  6
HIDDEN
 62
     7
370
     0
100
AcDbLine
 10
70.8770844691
 20
116.0350608892
 30
0.0
 11
70.8770844691
 21
128.2319177037
 31
0.0
  0
SPLINE
  5
E1
330
1F
100
AcDbEntity
  8
0
  6
HIDDEN
 62
     7
370
     0
100
AcDbSpline
210
0.0
220
0.0
230
1.0
 70
     8
 71
     3
 72
    10
 73
     6
 74
     0
 42
0.00000001
 43
0.00000001
 12
1.0
 22
0.0
 32
0.0
 13
1.0
 23
0.0
 33
0.0
 40
0.0
 40
0.0
 40
0.0
 40
0.0
 40
0.5
 40
0.5
 40
1.0
 40
1.0
 40
1.0
 40
1.0
 10
70.87708446904195
 20
108.8257936460994
 30
0.0
 10
70.87708446904176
 20
109.0997087941736
 30
0.0
 10
70.85132523917392
 20
109.3706503729035
 30
0.0
 10
70.74811930644078
 20
109.9063414545061
 30
0.0
 10
70.67078114256566
 20
110.1720882580279
 30
0.0
 10
70.57708446904195
 20
110.4337269654654
 30
0.0
  0
SPLINE
  5
E2
330
1F
100
AcDbEntity
  8
0
  6
HIDDEN
 62
     7
370
     0
100
AcDbSpline
210
0.0
220
0.0
230
1.0
 70
     8
 71
     3
 72
    10
 73
     6
 74
     0
 42
0.00000001
 43
0.00000001
 12
1.0
 22
0.0
 32
0.0
 13
1.0
 23
0.0
 33
0.0
 40
0.0
 40
0.0
 40
0.0
 40
0.0
 40
0.5
 40
0.5
 40
1.0
 40
1.0
 40
1.0
 40
1.0
 10
70.57708446904195
 20
114.4175555705307
 30
0.0
 10
70.6703150493932
 20
114.6814493771291
 30
0.0
 10
70.745344660922
 20
114.9476296862276
 30
0.0
 10
70.85041175890167
 20
115.4859522580465
 30
0.0
 10
70.8770844691463
 20
115.7587003726623
 30
0.0
 10
70.87708446914748
 20
116.0350608892496
 30
0.0
  0
LINE
  5
E3
330
1F
100
AcDbEntity
  8
0
  6
HIDDEN
 62
     7
370
     0
100
AcDbLine
 10
70.577084469
 20
110.4337269655
 30
0.0
 11
70.577084469
 21
114.4175555705
 31
0.0
  0
SPLINE
  5
E4
330
1F
100
AcDbEntity
  8
0
  6
HIDDEN
 62
     7
370
     0
100
AcDbSpline
210
0.0
220
0.0
230
1.0
 70
     8
 71
     3
 72
    44
 73
    40
 74
     0
 42
0.00000001
 43
0.00000001
 12
1.0
 22
0.0
 32
0.0
 13
1.0
 23
0.0
 33
0.0
 40
-0.0542986170248081
 40
-0.0343720013570004
 40
-0.0162772998245332
 40
0.0
 40
0.019753351702775
 40
0.0421172912114293
 40
0.0671142568493629
 40
0.0947596943525426
 40
0.1250644115378896
 40
0.1550045412105575
 40
0.18246180309249
 40
0.2074477368089327
 40
0.229978317372746
 40
0.2500760254514724
 40
0.2849173337316047
 40
0.3265109732473808
 40
0.374920874078257
 40
0.4004148468406265
 40
0.4240456092327327
 40
0.445819130670031
 40
0.4657433144457457
 40
0.4838287567069613
 40
0.5000899210327451
 40
0.5343674268983553
 40
0.5759569854538416
 40
0.624918100295836
 40
0.6500699256062688
 40
0.673497376854196
 40
0.6952068738890907
 40
0.7152066970113047
 40
0.7335076558364012
 40
0.7501240871983411
 40
0.784904425723517
 40
0.8264538241657982
 40
0.8748362900579292
 40
0.9003125129971519
 40
0.9239322054289388
 40
0.9457013829751919
 40
0.9656279986429996
 40
0.9837227001754668
 40
1.0
 40
1.019753351702775
 40
1.042117291211429
 40
1.067114256849363
 10
213.6152330285423
 20
109.0430429985554
 30
0.0
 10
214.0019000819613
 20
109.0231745087801
 30
0.0
 10
214.4192013342231
 20
109.0492008306865
 30
0.0
 10
214.8901401891081
 20
109.1422356063732
 30
0.0
 10
215.3944971695097
 20
109.3229028775548
 30
0.0
 10
215.9110749141182
 20
109.6113309029376
 30
0.0
 10
216.3933966966125
 20
110.0099273248149
 30
0.0
 10
216.7917434248949
 20
110.4906122583838
 30
0.0
 10
217.0798084790874
 20
111.0028189270217
 30
0.0
 10
217.2622843318977
 20
111.5063280666035
 30
0.0
 10
217.3575219885567
 20
111.9805932719644
 30
0.0
 10
217.3929837342857
 20
112.5339943316301
 30
0.0
 10
217.3170227115003
 20
113.2250365919011
 30
0.0
 10
217.0086567984125
 20
114.0684829717495
 30
0.0
 10
216.5159298203017
 20
114.7387396315091
 30
0.0
 10
215.9888930135034
 20
115.1879154049987
 30
0.0
 10
215.5592067905068
 20
115.4529055338743
 30
0.0
 10
215.1321448219848
 20
115.6385592151066
 30
0.0
 10
214.7218909218523
 20
115.756171759648
 30
0.0
 10
214.3388697377494
 20
115.8177991677058
 30
0.0
 10
213.8487465991985
 20
115.8430445079099
 30
0.0
 10
213.1892606332318
 20
115.7714739532722
 30
0.0
 10
212.3451245796552
 20
115.4659305229834
 30
0.0
 10
211.6726880877746
 20
114.9731627027177
 30
0.0
 10
211.2230916065226
 20
114.4465145512213
 30
0.0
 10
210.9592858785907
 20
114.0211719025753
 30
0.0
 10
210.7727276443864
 20
113.5959395733049
 30
0.0
 10
210.6532906509385
 20
113.1844614043417
 30
0.0
 10
210.5900014757662
 20
112.7969754473195
 30
0.0
 10
210.5640724843256
 20
112.299167480754
 30
0.0
 10
210.6377178285168
 20
111.6337883893776
 30
0.0
 10
210.9461085399773
 20
110.7914346761416
 30
0.0
 10
211.4385677083107
 20
110.1218111474144
 30
0.0
 10
211.9653114360107
 20
109.6729331618006
 30
0.0
 10
212.3947822835921
 20
109.4080526236378
 30
0.0
 10
212.8217395014429
 20
109.2223973860985
 30
0.0
 10
213.2320426618488
 20
109.1047340223488
 30
0.0
 10
213.6152330285423
 20
109.0430429985554
 30
0.0
 10
214.0019000819613
 20
109.0231745087801
 30
0.0
 10
214.4192013342231
 20
109.0492008306865
 30
0.0
  0
SPLINE
  5
E5
330
1F
100
AcDbEntity
  8
0
  6
HIDDEN
 62
     7
370
     0
100
AcDbSpline
210
0.0
220
0.0
230
1.0
 70
     8
 71
     3
 72
    81
 73
    77
 74
     0
 42
0.00000001
 43
0.00000001
 12
1.0
 22
0.0
 32
0.0
 13
1.0
 23
0.0
 33
0.0
 40
-0.0312499999999999
 40
-0.0312499999999999
 40
0.0
 40
0.0
 40
0.0312500000000013
 40
0.0312500000000013
 40
0.0625000000000025
 40
0.0625000000000025
 40
0.0937500000000038
 40
0.0937500000000038
 40
0.1093750000000038
 40
0.1093750000000038
 40
0.1250000000000039
 40
0.1250000000000039
 40
0.156250000000004
 40
0.156250000000004
 40
0.1875000000000041
 40
0.1875000000000041
 40
0.2187500000000042
 40
0.2187500000000042
 40
0.2343750000000043
 40
0.2343750000000043
 40
0.2500000000000044
 40
0.2656250000000044
 40
0.2656250000000044
 40
0.2812500000000046
 40
0.2812500000000046
 40
0.3125000000000047
 40
0.3125000000000047
 40
0.3281250000000048
 40
0.3281250000000048
 40
0.3437500000000048
 40
0.3437500000000048
 40
0.3593750000000049
 40
0.3593750000000049
 40
0.3750000000000049
 40
0.3750000000000049
 40
0.4062500000000042
 40
0.4062500000000042
 40
0.4375000000000035
 40
0.4375000000000035
 40
0.4687500000000027
 40
0.4687500000000027
 40
0.500000000000002
 40
0.500000000000002
 40
0.5312500000000012
 40
0.5312500000000012
 40
0.5625000000000006
 40
0.5625000000000006
 40
0.5937499999999998
 40
0.5937499999999998
 40
0.624999999999999
 40
0.624999999999999
 40
0.6406249999999991
 40
0.6406249999999991
 40
0.6562499999999992
 40
0.6562499999999992
 40
0.6874999999999993
 40
0.6874999999999993
 40
0.7187499999999994
 40
0.7187499999999994
 40
0.7499999999999996
 40
0.7499999999999996
 40
0.7812499999999998
 40
0.7812499999999998
 40
0.8124999999999999
 40
0.8124999999999999
 40
0.8437499999999999
 40
0.8437499999999999
 40
0.875
 40
0.875
 40
0.90625
 40
0.90625
 40
0.9375
 40
0.9375
 40
0.9687500000000001
 40
0.9687500000000001
 40
1.0
 40
1.0
 40
1.031250000000001
 40
1.031250000000001
 10
211.8221766806833
 20
107.4660117414014
 30
0.0
 10
211.1319922574006
 20
107.4660117414014
 30
0.0
 10
210.7920587873353
 20
107.4951804086966
 30
0.0
 10
210.122139655749
 20
107.6100709116917
 30
0.0
 10
209.7899839467326
 20
107.6965849933328
 30
0.0
 10
209.1461052060571
 20
107.9275185507009
 30
0.0
 10
208.8394024003343
 20
108.0696923916013
 30
0.0
 10
208.4020749722116
 20
108.3236951130244
 30
0.0
 10
208.2601116870895
 20
108.415199043021
 30
0.0
 10
207.984110821077
 20
108.6126028109409
 30
0.0
 10
207.8496288935525
 20
108.7189977308986
 30
0.0
 10
207.4673245175553
 20
109.0535853475839
 30
0.0
 10
207.2376022772573
 20
109.2987473515574
 30
0.0
 10
206.8294814924806
 20
109.8353395309209
 30
0.0
 10
206.6497071678392
 20
110.1307954340472
 30
0.0
 10
206.3616798749311
 20
110.7447887857261
 30
0.0
 10
206.2511410384068
 20
111.0648856819594
 30
0.0
 10
206.1377154234431
 20
111.5658176660596
 30
0.0
 10
206.1087344597129
 20
111.7370672180461
 30
0.0
 10
206.070314628058
 20
112.0776596053312
 30
0.0
 10
206.050820763747
 20
112.4183208693282
 30
0.0
 10
206.0685509559556
 20
112.7591177722632
 30
0.0
 10
206.1052220498303
 20
113.0999836140351
 30
0.0
 10
206.1333098275107
 20
113.2713445136755
 30
0.0
 10
206.2442973614553
 20
113.7733873776345
 30
0.0
 10
206.3535657718571
 20
114.0952716010333
 30
0.0
 10
206.5690109991805
 20
114.5596360521441
 30
0.0
 10
206.6498981216214
 20
114.711828373989
 30
0.0
 10
206.8253620661302
 20
115.0034547137591
 30
0.0
 10
206.9202391150232
 20
115.1436938288049
 30
0.0
 10
207.123807545501
 20
115.4135167883368
 30
0.0
 10
207.2325006642901
 20
115.5430990774096
 30
0.0
 10
207.4636638953778
 20
115.7917669690933
 30
0.0
 10
207.5866731002624
 20
115.911236275448
 30
0.0
 10
207.9690980349481
 20
116.2473404477005
 30
0.0
 10
208.2434808454987
 20
116.4440828016902
 30
0.0
 10
208.829603426393
 20
116.7863984470187
 30
0.0
 10
209.1424473521653
 20
116.9316130542336
 30
0.0
 10
209.7814521006612
 20
117.1616127502078
 30
0.0
 10
210.1104191653254
 20
117.2482842779649
 30
0.0
 10
210.7874448861004
 20
117.3653604770456
 30
0.0
 10
211.1305969991161
 20
117.3945096676172
 30
0.0
 10
211.8118114090007
 20
117.3951702184033
 30
0.0
 10
212.1520886436604
 20
117.3670892801513
 30
0.0
 10
212.8319057372962
 20
117.2511038406549
 30
0.0
 10
213.1611158158757
 20
117.1649540215408
 30
0.0
 10
213.7987422786439
 20
116.9370875141218
 30
0.0
 10
214.1089251155436
 20
116.79436018286
 30
0.0
 10
214.6990917072545
 20
116.4519753222155
 30
0.0
 10
214.9733099902505
 20
116.2560925053245
 30
0.0
 10
215.3534101211409
 20
115.9243471226662
 30
0.0
 10
215.4748707404401
 20
115.8074026682417
 30
0.0
 10
215.7068608973641
 20
115.5600642673332
 30
0.0
 10
215.8178484500031
 20
115.4289412774189
 30
0.0
 10
216.1261252810844
 20
115.0236282712832
 30
0.0
 10
216.3013463159161
 20
114.7355901708736
 30
0.0
 10
216.5900297913615
 20
114.1223971662717
 30
0.0
 10
216.7036947524923
 20
113.7933494445638
 30
0.0
 10
216.8540324302896
 20
113.1287470222873
 30
0.0
 10
216.89294245011
 20
112.7902275714387
 30
0.0
 10
216.8951264146479
 20
112.1001532357763
 30
0.0
 10
216.8578738488831
 20
111.7579209249855
 30
0.0
 10
216.7110975322821
 20
111.0920430945306
 30
0.0
 10
216.5994732261474
 20
110.7628046650505
 30
0.0
 10
216.3127705250322
 20
110.1455416032114
 30
0.0
 10
216.1379962694352
 20
109.8550994349518
 30
0.0
 10
215.7263181271057
 20
109.309429744244
 30
0.0
 10
215.4944798190244
 20
109.0612968719851
 30
0.0
 10
214.9868518725879
 20
108.6150041171216
 30
0.0
 10
214.7072535371837
 20
108.4144563795734
 30
0.0
 10
214.1205726019594
 20
108.0724374924273
 30
0.0
 10
213.8132369585034
 20
107.9297867732792
 30
0.0
 10
213.1711972261138
 20
107.6986949673485
 30
0.0
 10
212.836308052506
 20
107.6109728049263
 30
0.0
 10
212.1635239565703
 20
107.4952562030699
 30
0.0
 10
211.8221766806833
 20
107.4660117414014
 30
0.0
 10
211.1319922574006
 20
107.4660117414014
 30
0.0
  0
LINE
  5
E6
330
1F
100
AcDbEntity
  8
0
  6
HIDDEN
 62
     7
370
     0
100
AcDbLine
 10
70.727084469
 20
94.4404272677
 30
0.0
 11
70.727084469
 21
91.5604895023
 31
0.0
  0
LINE
  5
E7
330
1F
100
AcDbEntity
  8
0
  6
HIDDEN
 62
     7
370
     0
100
AcDbLine
 10
79.677084469
 20
94.4404272677
 30
0.0
 11
79.677084469
 21
90.4666897365
 31
0.0
  0
LINE
  5
E8
330
1F
100
AcDbEntity
  8
0
  6
HIDDEN
 62
     7
370
     0
100
AcDbLine
 10
70.727084469
 20
130.4204272677
 30
0.0
 11
70.727084469
 21
133.3003650331
 31
0.0
  0
LINE
  5
E9
330
1F
100
AcDbEntity
  8
0
  6
HIDDEN
 62
     7
370
     0
100
AcDbLine
 10
75.677084469
 20
130.4204272677
 30
0.0
 11
75.677084469
 21
134.27453494
 31
0.0
  0
LINE
  5
EA
330
1F
100
AcDbEntity
  8
0
  6
HIDDEN
 62
     7
370
     0
100
AcDbLine
 10
120.277084469
 20
102.9304272677
 30
0.0
 11
120.277084469
 21
121.9304272677
 31
0.0
  0
LINE
  5
EB
330
1F
100
AcDbEntity
  8
0
  6
HIDDEN
 62
     7
370
     0
100
AcDbLine
 10
123.277084469
 20
102.9304272677
 30
0.0
 11
123.277084469
 21
121.9304272677
 31
0.0
  0
LINE
  5
EC
330
1F
100
AcDbEntity
  8
0
  6
HIDDEN
 62
     7
370
     0
100
AcDbLine
 10
111.927084469
 20
103.9304272677
 30
0.0
 11
111.927084469
 21
120.9304272677
 31
0.0
  0
LINE
  5
ED
330
1F
100
AcDbEntity
  8
0
  6
HIDDEN
 62
     7
370
     0
100
AcDbLine
 10
106.427084469
 20
80.9463042848
 30
0.0
 11
106.427084469
 21
86.0304272677
 31
0.0
  0
LINE
  5
EE
330
1F
100
AcDbEntity
  8
0
  6
HIDDEN
 62
     7
370
     0
100
AcDbLine
 10
114.427084469
 20
86.0304272677
 30
0.0
 11
106.427084469
 21
86.0304272677
 31
0.0
  0
LINE
  5
EF
330
1F
100
AcDbEntity
  8
0
  6
HIDDEN
 62
     7
370
     0
100
AcDbLine
 10
117.6647592714
 20
86.0304272677
 30
0.0
 11
114.427084469
 21
86.0304272677
 31
0.0
  0
LINE
  5
F0
330
1F
100
AcDbEntity
  8
0
  6
HIDDEN
 62
     7
370
     0
100
AcDbLine
 10
127.427084469
 20
86.0304272677
 30
0.0
 11
121.2894096667
 21
86.0304272677
 31
0.0
  0
LINE
  5
F1
330
1F
100
AcDbEntity
  8
0
  6
HIDDEN
 62
     7
370
     0
100
AcDbLine
 10
114.427084469
 20
138.8304272677
 30
0.0
 11
106.427084469
 21
138.8304272677
 31
0.0
  0
LINE
  5
F2
330
1F
100
AcDbEntity
  8
0
  6
HIDDEN
 62
     7
370
     0
100
AcDbLine
 10
117.9613820007
 20
138.8304272677
 30
0.0
 11
114.427084469
 21
138.8304272677
 31
0.0
  0
LINE
  5
F3
330
1F
100
AcDbEntity
  8
0
  6
HIDDEN
 62
     7
370
     0
100
AcDbLine
 10
127.427084469
 20
138.8304272677
 30
0.0
 11
120.9927869374
 21
138.8304272677
 31
0.0
  0
SPLINE
  5
F4
330
1F
100
AcDbEntity
  8
0
  6
HIDDEN
 62
     7
370
     0
100
AcDbSpline
210
0.0
220
0.0
230
1.0
 70
     8
 71
     3
 72
    11
 73
     7
 74
     0
 42
0.00000001
 43
0.00000001
 12
1.0
 22
0.0
 32
0.0
 13
1.0
 23
0.0
 33
0.0
 40
0.0
 40
0.0
 40
0.0
 40
0.0
 40
0.0008203708524183
 40
0.0008203708524183
 40
0.0008203708524183
 40
0.0016409967870154
 40
0.0016409967870154
 40
0.0016409967870154
 40
0.0016409967870154
 10
70.72708446904196
 20
96.5783945170398
 30
0.0
 10
70.5359261687433
 20
96.53721548842066
 30
0.0
 10
70.34449909867112
 20
96.49846151619067
 30
0.0
 10
70.1528534751505
 20
96.46209375691213
 30
0.0
 10
69.96114807007004
 20
96.4257146531461
 30
0.0
 10
69.76920911801108
 20
96.39172040237854
 30
0.0
 10
69.57708447094024
 20
96.36007227698731
 30
0.0
  0
ELLIPSE
  5
F5
330
1F
100
AcDbEntity
  8
0
  6
HIDDEN
 62
     7
370
     0
100
AcDbEllipse
 10
65.3346526063
 20
112.4304272677
 30
0.0
 11
20.19992452771987
 21
-1.421085471520200E-14
 31
0.0
210
0.0
220
0.0
230
1.0
 40
0.816496581
 41
1.300566354937426
 42
1.359198697443034
  0
LINE
  5
F6
330
1F
100
AcDbEntity
  8
0
  6
HIDDEN
 62
     7
370
     0
100
AcDbLine
 10
79.677084469
 20
94.4404272677
 30
0.0
 11
79.677084469
 21
96.1429136453
 31
0.0
  0
LINE
  5
F7
330
1F
100
AcDbEntity
  8
0
  6
HIDDEN
 62
     7
370
     0
100
AcDbLine
 10
70.727084469
 20
94.4404272677
 30
0.0
 11
70.727084469
 21
96.578394517
 31
0.0
  0
LINE
  5
F8
330
1F
100
AcDbEntity
  8
0
  6
HIDDEN
 62
     7
370
     0
100
AcDbLine
 10
70.8081154824
 20
96.6289368317
 30
0.0
 11
70.727084469
 21
96.578394517
 31
0.0
  0
LINE
  5
F9
330
1F
100
AcDbEntity
  8
0
  6
HIDDEN
 62
     7
370
     0
100
AcDbLine
 10
75.677084469
 20
130.4204272677
 30
0.0
 11
75.677084469
 21
128.7179408901
 31
0.0
  0
LINE
  5
FA
330
1F
100
AcDbEntity
  8
0
  6
HIDDEN
 62
     7
370
     0
100
AcDbLine
 10
70.727084469
 20
130.4204272677
 30
0.0
 11
70.727084469
 21
128.3250517167
 31
0.0
  0
SPLINE
  5
FB
330
1F
100
AcDbEntity
  8
0
  6
HIDDEN
 62
     7
370
     0
100
AcDbSpline
210
0.0
220
0.0
230
1.0
 70
     8
 71
     3
 72
     8
 73
     4
 74
     0
 42
0.00000001
 43
0.00000001
 12
1.0
 22
0.0
 32
0.0
 13
1.0
 23
0.0
 33
0.0
 40
0.0
 40
0.0
 40
0.0
 40
0.0
 40
1.0
 40
1.0
 40
1.0
 40
1.0
 10
70.72708446904196
 20
128.3250517166813
 30
0.0
 10
70.77708996688955
 20
128.2940159431484
 30
0.0
 10
70.82709003645805
 20
128.2629712988075
 30
0.0
 10
70.87708446914749
 20
128.2319177037142
 30
0.0
  0
SPLINE
  5
FC
330
1F
100
AcDbEntity
  8
0
  6
HIDDEN
 62
     7
370
     0
100
AcDbSpline
210
0.0
220
0.0
230
1.0
 70
     8
 71
     3
 72
    20
 73
    16
 74
     0
 42
0.00000001
 43
0.00000001
 12
1.0
 22
0.0
 32
0.0
 13
1.0
 23
0.0
 33
0.0
 40
0.0
 40
0.0
 40
0.0
 40
0.0
 40
0.1119595197645658
 40
0.1774767634618356
 40
0.2490961890178973
 40
0.3298422315149356
 40
0.3986125823955669
 40
0.4998893016460264
 40
0.6138510292917939
 40
0.679015017669575
 40
0.749539420331935
 40
0.8296829944359103
 40
0.8981246285464773
 40
0.9995320175861896
 40
1.0
 40
1.0
 40
1.0
 40
1.0
 10
96.225924918905
 20
88.8304335059147
 30
0.0
 10
96.18260118060924
 20
88.8438628239524
 30
0.0
 10
96.11392495843566
 20
88.86515080290982
 30
0.0
 10
95.66874583239485
 20
88.96846161455765
 30
0.0
 10
95.14218754870468
 20
89.08176484461933
 30
0.0
 10
94.45676252753684
 20
89.20469771241244
 30
0.0
 10
93.56344513022869
 20
89.32673217159473
 30
0.0
 10
92.45008574314812
 20
89.4444684793812
 30
0.0
 10
91.33931166256886
 20
89.4564439817472
 30
0.0
 10
90.45456336065232
 20
89.42938569161798
 30
0.0
 10
89.7873667659395
 20
89.38145362721491
 30
0.0
 10
89.2460942636601
 20
89.32516011485389
 30
0.0
 10
88.85851430463762
 20
89.28007720422043
 30
0.0
 10
88.66457778461829
 20
89.24120402951375
 30
0.0
 10
88.72768024483027
 20
89.25191008675374
 30
0.0
 10
88.7279701170656
 20
89.25195926690824
 30
0.0
  0
LINE
  5
FD
330
1F
100
AcDbEntity
  8
0
  6
HIDDEN
 62
     7
370
     0
100
AcDbLine
 10
89.6370963834
 20
89.3627654113
 30
0.0
 11
89.8209416945
 21
89.3809547537
 31
0.0
  0
LINE
  5
FE
330
1F
100
AcDbEntity
  8
0
  6
HIDDEN
 62
     7
370
     0
100
AcDbLine
 10
89.8209389961
 20
135.4798303505
 30
0.0
 11
89.6468657139
 21
135.4970398766
 31
0.0
  0
SPLINE
  5
FF
330
1F
100
AcDbEntity
  8
0
  6
HIDDEN
 62
     7
370
     0
100
AcDbSpline
210
0.0
220
0.0
230
1.0
 70
     8
 71
     3
 72
    20
 73
    16
 74
     0
 42
0.00000001
 43
0.00000001
 12
1.0
 22
0.0
 32
0.0
 13
1.0
 23
0.0
 33
0.0
 40
0.0
 40
0.0
 40
0.0
 40
0.0
 40
0.0004889684280501
 40
0.1018319933901125
 40
0.1702475582131287
 40
0.2503692056770502
 40
0.3209568221786551
 40
0.3861816196708298
 40
0.5002554836817573
 40
0.6012243489362008
 40
0.6697680558686374
 40
0.7502401907581328
 40
0.8220490693794319
 40
0.8877204546033431
 40
1.0
 40
1.0
 40
1.0
 40
1.0
 10
88.7280035018271
 20
135.608828721875
 30
0.0
 10
88.72769986083019
 20
135.6088803090252
 30
0.0
 10
88.66446394166483
 20
135.6196237886392
 30
0.0
 10
88.85766797545539
 20
135.5807677979811
 30
0.0
 10
89.24461503035587
 20
135.5357443075764
 30
0.0
 10
89.78562195368475
 20
135.4794813454831
 30
0.0
 10
90.45312221515069
 20
135.4315501528891
 30
0.0
 10
91.33895006650239
 20
135.40447669716
 30
0.0
 10
92.4497566386174
 20
135.4163027007403
 30
0.0
 10
93.56182700466474
 20
135.5337517758917
 30
0.0
 10
94.45292731085517
 20
135.6554561641334
 30
0.0
 10
95.13841176163247
 20
135.7782772097086
 30
0.0
 10
95.66639966115225
 20
135.8917154613916
 30
0.0
 10
96.11378361265494
 20
135.9954560170309
 30
0.0
 10
96.18259407901292
 20
136.0168788103067
 30
0.0
 10
96.22601058632908
 20
136.0303956909532
 30
0.0
  0
LINE
  5
100
330
1F
100
AcDbEntity
  8
0
  6
HIDDEN
 62
     7
370
     0
100
AcDbLine
 10
198.3569123452
 20
108.2304272677
 30
0.0
 11
198.3569123452
 21
116.6304272677
 31
0.0
  0
LINE
  5
101
330
1F
100
AcDbEntity
  8
0
  6
HIDDEN
 62
     7
370
     0
100
AcDbLine
 10
198.477084469
 20
108.4304272677
 30
0.0
 11
198.477084469
 21
116.4304272677
 31
0.0
  0
SPLINE
  5
102
330
1F
100
AcDbEntity
  8
0
  6
HIDDEN
 62
     7
370
     0
100
AcDbSpline
210
0.0
220
0.0
230
1.0
 70
     8
 71
     3
 72
     8
 73
     4
 74
     0
 42
0.00000001
 43
0.00000001
 12
1.0
 22
0.0
 32
0.0
 13
1.0
 23
0.0
 33
0.0
 40
0.0
 40
0.0
 40
0.0
 40
0.0
 40
0.0001590976915385
 40
0.0001590976915385
 40
0.0001590976915385
 40
0.0001590976915385
 10
70.86225247503486
 20
96.62893683165088
 30
0.0
 10
70.81720100560533
 20
96.6009579480002
 30
0.0
 10
70.77214496826558
 20
96.5729864182979
 30
0.0
 10
70.72708446904197
 20
96.54502207961781
 30
0.0
  0
SPLINE
  5
103
330
1F
100
AcDbEntity
  8
0
  6
HIDDEN
 62
     7
370
     0
100
AcDbSpline
210
0.0
220
0.0
230
1.0
 70
     8
 71
     3
 72
    11
 73
     7
 74
     0
 42
0.00000001
 43
0.00000001
 12
1.0
 22
0.0
 32
0.0
 13
1.0
 23
0.0
 33
0.0
 40
0.0
 40
0.0
 40
0.0
 40
0.0
 40
0.000821290931132
 40
0.000821290931132
 40
0.000821290931132
 40
0.0016428257242788
 40
0.0016428257242788
 40
0.0016428257242788
 40
0.0016428257242788
 10
70.72708446904196
 20
96.54502207961781
 30
0.0
 10
70.53593944755953
 20
96.50173589079617
 30
0.0
 10
70.34452111188293
 20
96.4607993811904
 30
0.0
 10
70.1528750372218
 20
96.42219760983593
 30
0.0
 10
69.96117195568019
 20
96.38358435603098
 30
0.0
 10
69.76922683239485
 20
96.34730414677773
 30
0.0
 10
69.57708446904195
 20
96.3133372404596
 30
0.0
  0
LINE
  5
104
330
1F
100
AcDbEntity
  8
0
  6
HIDDEN
 62
     7
370
     0
100
AcDbLine
 10
117.567084469
 20
132.5662938991
 30
0.0
 11
117.567084469
 21
132.2804272677
 31
0.0
  0
LINE
  5
105
330
1F
100
AcDbEntity
  8
0
  6
HIDDEN
 62
     7
370
     0
100
AcDbLine
 10
121.387084469
 20
132.5746704376
 30
0.0
 11
121.387084469
 21
132.2804272677
 31
0.0
  0
LINE
  5
106
330
1F
100
AcDbEntity
  8
0
  6
HIDDEN
 62
     7
370
     0
100
AcDbLine
 10
122.8690173005
 20
136.88911693
 30
0.0
 11
122.8690173005
 21
132.2804272677
 31
0.0
  0
SPLINE
  5
107
330
1F
100
AcDbEntity
  8
0
  6
HIDDEN
 62
     7
370
     0
100
AcDbSpline
210
0.0
220
0.0
230
1.0
 70
     8
 71
     3
 72
    24
 73
    20
 74
     0
 42
0.00000001
 43
0.00000001
 12
1.0
 22
0.0
 32
0.0
 13
1.0
 23
0.0
 33
0.0
 40
0.0
 40
0.0
 40
0.0
 40
0.0
 40
0.2499999999999952
 40
0.2499999999999952
 40
0.3749999999999937
 40
0.3749999999999937
 40
0.4374999999999931
 40
0.4374999999999931
 40
0.468749999999992
 40
0.468749999999992
 40
0.4999999999999909
 40
0.4999999999999909
 40
0.5624999999999933
 40
0.5624999999999933
 40
0.6249999999999958
 40
0.6249999999999958
 40
0.7499999999999981
 40
0.7499999999999981
 40
1.0
 40
1.0
 40
1.0
 40
1.0
 10
69.63974784376536
 20
92.75587472290178
 30
0.0
 10
69.65350096243559
 20
92.82652478089207
 30
0.0
 10
69.67127352984144
 20
92.89312289365701
 30
0.0
 10
69.7235246213968
 20
92.96722091389019
 30
0.0
 10
69.74455969697834
 20
92.98847872105176
 30
0.0
 10
69.7974601046068
 20
92.996624647198
 30
0.0
 10
69.81856577748471
 20
92.99568484380224
 30
0.0
 10
69.86461794616267
 20
92.9746688522249
 30
0.0
 10
69.88298841814606
 20
92.96376004611729
 30
0.0
 10
69.92454005321176
 20
92.93112513516992
 30
0.0
 10
69.94710672596868
 20
92.90963315479856
 30
0.0
 10
70.0098877424287
 20
92.84116721121224
 30
0.0
 10
70.04301750339658
 20
92.79509275300715
 30
0.0
 10
70.0999351898816
 20
92.71008486467247
 30
0.0
 10
70.12412121538537
 20
92.66980456349108
 30
0.0
 10
70.18932916576514
 20
92.55486833702514
 30
0.0
 10
70.22404522595639
 20
92.48428535187814
 30
0.0
 10
70.31726049628728
 20
92.28007959279954
 30
0.0
 10
70.36293303164796
 20
92.15718121047216
 30
0.0
 10
70.4012381151465
 20
92.04030793408458
 30
0.0
  0
SPLINE
  5
108
330
1F
100
AcDbEntity
  8
0
  6
HIDDEN
 62
     7
370
     0
100
AcDbSpline
210
0.0
220
0.0
230
1.0
 70
     8
 71
     3
 72
     8
 73
     4
 74
     0
 42
0.00000001
 43
0.00000001
 12
1.0
 22
0.0
 32
0.0
 13
1.0
 23
0.0
 33
0.0
 40
0.0
 40
0.0
 40
0.0
 40
0.0
 40
0.0011563724678166
 40
0.0011563724678166
 40
0.0011563724678166
 40
0.0011563724678166
 10
70.57708446904195
 20
125.0705695811529
 30
0.0
 10
70.2437633538448
 20
125.1996286067798
 30
0.0
 10
69.91043067303681
 20
125.3285889429535
 30
0.0
 10
69.57708446904192
 20
125.4575004727265
 30
0.0
  0
SPLINE
  5
109
330
1F
100
AcDbEntity
  8
0
  6
HIDDEN
 62
     7
370
     0
100
AcDbSpline
210
0.0
220
0.0
230
1.0
 70
     8
 71
     3
 72
     8
 73
     4
 74
     0
 42
0.00000001
 43
0.00000001
 12
1.0
 22
0.0
 32
0.0
 13
1.0
 23
0.0
 33
0.0
 40
0.0
 40
0.0
 40
0.0
 40
0.0
 40
0.0011557494192775
 40
0.0011557494192775
 40
0.0011557494192775
 40
0.0011557494192775
 10
69.57708446904192
 20
99.40320540523167
 30
0.0
 10
69.91041827905609
 20
99.53482968142657
 30
0.0
 10
70.24375189071876
 20
99.66664659500002
 30
0.0
 10
70.57708446904196
 20
99.79865003716291
 30
0.0
  0
SPLINE
  5
10A
330
1F
100
AcDbEntity
  8
0
  6
HIDDEN
 62
     7
370
     0
100
AcDbSpline
210
0.0
220
0.0
230
1.0
 70
     8
 71
     3
 72
     8
 73
     4
 74
     0
 42
0.00000001
 43
0.00000001
 12
1.0
 22
0.0
 32
0.0
 13
1.0
 23
0.0
 33
0.0
 40
0.0000000000000006
 40
0.0000000000000006
 40
0.0000000000000006
 40
0.0000000000000006
 40
0.0011560973009451
 40
0.0011560973009451
 40
0.0011560973009451
 40
0.0011560973009451
 10
69.57708446904192
 20
122.4112417609697
 30
0.0
 10
69.91042420662868
 20
122.2864980286964
 30
0.0
 10
70.2437548398373
 20
122.1618168045194
 30
0.0
 10
70.57708446904195
 20
122.0373665811881
 30
0.0
  0
SPLINE
  5
10B
330
1F
100
AcDbEntity
  8
0
  6
HIDDEN
 62
     7
370
     0
100
AcDbSpline
210
0.0
220
0.0
230
1.0
 70
     8
 71
     3
 72
     8
 73
     4
 74
     0
 42
0.00000001
 43
0.00000001
 12
1.0
 22
0.0
 32
0.0
 13
1.0
 23
0.0
 33
0.0
 40
0.0
 40
0.0
 40
0.0
 40
0.0
 40
0.0011564805411644
 40
0.0011564805411644
 40
0.0011564805411644
 40
0.0011564805411644
 10
70.57708446904195
 20
102.8296004827014
 30
0.0
 10
70.24378250364047
 20
102.7027495422671
 30
0.0
 10
69.91044568673382
 20
102.5761844734049
 30
0.0
 10
69.57708446904195
 20
102.4497844997442
 30
0.0
  0
CIRCLE
  5
10C
330
1F
100
AcDbEntity
  8
0
  6
HIDDEN
 62
     7
370
     0
100
AcDbCircle
 10
108.477084469
 20
112.4304272677
 30
0.0
 40
5.000000000000014
  0
LINE
  5
10D
330
1F
100
AcDbEntity
  8
0
  6
HIDDEN
 62
     7
370
     0
100
AcDbLine
 10
105.477084469
 20
126.7282624174
 30
0.0
 11
105.477084469
 21
124.8243679106
 31
0.0
  0
LINE
  5
10E
330
1F
100
AcDbEntity
  8
0
  6
HIDDEN
 62
     7
370
     0
100
AcDbLine
 10
113.477084469
 20
124.8243679106
 30
0.0
 11
113.477084469
 21
126.7310577734
 31
0.0
  0
LINE
  5
10F
330
1F
100
AcDbEntity
  8
0
  6
HIDDEN
 62
     7
370
     0
100
AcDbLine
 10
101.477084469
 20
87.1064961217
 30
0.0
 11
101.5712452446
 21
87.7764848529
 31
0.0
  0
LINE
  5
110
330
1F
100
AcDbEntity
  8
0
  6
HIDDEN
 62
     7
370
     0
100
AcDbLine
 10
101.5712452446
 20
137.0843696824
 30
0.0
 11
101.477084469
 21
137.7543584137
 31
0.0
  0
ARC
  5
111
330
1F
100
AcDbEntity
  8
0
  6
HIDDEN
 62
     7
370
     0
100
AcDbCircle
 10
100.9770777164
 20
87.8599896533
 30
0.0
 40
0.60000675266771
100
AcDbArc
 50
352.0
 51
0.0
  0
ARC
  5
112
330
1F
100
AcDbEntity
  8
0
  6
HIDDEN
 62
     7
370
     0
100
AcDbCircle
 10
100.9770777164
 20
87.8599896533
 30
0.0
 40
0.6000067526677164
100
AcDbArc
 50
0.0
 51
33.5571153394
  0
ARC
  5
113
330
1F
100
AcDbEntity
  8
0
  6
HIDDEN
 62
     7
370
     0
100
AcDbCircle
 10
100.9770777164
 20
137.0008648821
 30
0.0
 40
0.6000067526677169
100
AcDbArc
 50
348.75
 51
8.0
  0
LWPOLYLINE
  5
114
330
1F
100
AcDbEntity
  8
0
  6
HIDDEN
 62
     7
370
     0
100
AcDbPolyline
 90
        3
 70
   128
 43
0.0
 10
101.5655555075
 20
136.8838093715
 10
101.5314116745
 20
136.7712522385
 10
101.477084469
 20
136.669200367
  0
LINE
  5
115
330
1F
100
AcDbEntity
  8
0
  6
HIDDEN
 62
     7
370
     0
100
AcDbLine
 10
101.577084469
 20
87.8599896533
 30
0.0
 11
101.577084469
 21
137.0008648821
 31
0.0
  0
LINE
  5
116
330
1F
100
AcDbEntity
  8
0
  6
HIDDEN
 62
     7
370
     0
100
AcDbLine
 10
84.5595200343
 20
92.4304272677
 30
0.0
 11
88.7511919225
 21
92.4304272677
 31
0.0
  0
LINE
  5
117
330
1F
100
AcDbEntity
  8
0
  6
HIDDEN
 62
     7
370
     0
100
AcDbLine
 10
88.7511919225
 20
132.4304272677
 30
0.0
 11
84.5595200343
 21
132.4304272677
 31
0.0
  0
ARC
  5
118
330
1F
100
AcDbEntity
  8
0
  6
HIDDEN
 62
     7
370
     0
100
AcDbCircle
 10
95.2320864706
 20
100.4304272677
 30
0.0
 40
8.000000000000004
100
AcDbArc
 50
276.8813033455
 51
321.3178125465
  0
ARC
  5
119
330
1F
100
AcDbEntity
  8
0
  6
HIDDEN
 62
     7
370
     0
100
AcDbCircle
 10
95.2320864706
 20
124.4304272677
 30
0.0
 40
7.999999999999996
100
AcDbArc
 50
38.6821874535
 51
83.1303396552
  0
ARC
  5
11A
330
1F
100
AcDbEntity
  8
0
  6
HIDDEN
 62
     7
370
     0
100
AcDbCircle
 10
84.5595200343
 20
93.0304272677
 30
0.0
 40
0.6000000000000085
100
AcDbArc
 50
210.0
 51
270.0
  0
ARC
  5
11B
330
1F
100
AcDbEntity
  8
0
  6
HIDDEN
 62
     7
370
     0
100
AcDbCircle
 10
84.5595200343
 20
131.8304272677
 30
0.0
 40
0.5999999999999943
100
AcDbArc
 50
90.0
 51
150.0
  0
LINE
  5
11C
330
1F
100
AcDbEntity
  8
0
  6
HIDDEN
 62
     7
370
     0
100
AcDbLine
 10
84.0399047921
 20
132.1304272677
 30
0.0
 11
82.4810590653
 21
129.4304272677
 31
0.0
  0
LINE
  5
11D
330
1F
100
AcDbEntity
  8
0
  6
HIDDEN
 62
     7
370
     0
100
AcDbLine
 10
82.4810590653
 20
95.4304272677
 30
0.0
 11
84.0399047921
 21
92.7304272677
 31
0.0
  0
LINE
  5
11E
330
1F
100
AcDbEntity
  8
0
  6
HIDDEN
 62
     7
370
     0
100
AcDbLine
 10
105.477084469
 20
139.7047611269
 30
0.0
 11
105.477084469
 21
136.3760296823
 31
0.0
  0
LINE
  5
11F
330
1F
100
AcDbEntity
  8
0
  6
HIDDEN
 62
     7
370
     0
100
AcDbLine
 10
113.477084469
 20
136.3760296823
 30
0.0
 11
113.477084469
 21
139.7100935056
 31
0.0
  0
ARC
  5
120
330
1F
100
AcDbEntity
  8
0
  6
HIDDEN
 62
     7
370
     0
100
AcDbCircle
 10
109.927084469
 20
96.7054272677
 30
0.0
 40
1.5
100
AcDbArc
 50
238.2116693829
 51
0.0
  0
ARC
  5
121
330
1F
100
AcDbEntity
  8
0
  6
HIDDEN
 62
     7
370
     0
100
AcDbCircle
 10
109.927084469
 20
128.1554272677
 30
0.0
 40
1.5
100
AcDbArc
 50
0.0
 51
121.7883306171
  0
LINE
  5
122
330
1F
100
AcDbEntity
  8
0
  6
HIDDEN
 62
     7
370
     0
100
AcDbLine
 10
101.477084469
 20
95.4304272677
 30
0.0
 11
109.1369104376
 21
95.4304272677
 31
0.0
  0
LINE
  5
123
330
1F
100
AcDbEntity
  8
0
  6
HIDDEN
 62
     7
370
     0
100
AcDbLine
 10
109.1369104376
 20
129.4304272677
 30
0.0
 11
101.477084469
 21
129.4304272677
 31
0.0
  0
LINE
  5
124
330
1F
100
AcDbEntity
  8
0
  6
HIDDEN
 62
     7
370
     0
100
AcDbLine
 10
79.677084469
 20
95.4304272677
 30
0.0
 11
82.4810590653
 21
95.4304272677
 31
0.0
  0
LINE
  5
125
330
1F
100
AcDbEntity
  8
0
  6
HIDDEN
 62
     7
370
     0
100
AcDbLine
 10
82.4810590653
 20
129.4304272677
 30
0.0
 11
75.677084469
 21
129.4304272677
 31
0.0
  0
LINE
  5
126
330
1F
100
AcDbEntity
  8
0
  6
HIDDEN
 62
     7
370
     0
100
AcDbLine
 10
120.277084469
 20
102.9304272677
 30
0.0
 11
123.277084469
 21
102.9304272677
 31
0.0
  0
LINE
  5
127
330
1F
100
AcDbEntity
  8
0
  6
HIDDEN
 62
     7
370
     0
100
AcDbLine
 10
123.277084469
 20
121.9304272677
 30
0.0
 11
120.277084469
 21
121.9304272677
 31
0.0
  0
LINE
  5
128
330
1F
100
AcDbEntity
  8
0
  6
HIDDEN
 62
     7
370
     0
100
AcDbLine
 10
111.427084469
 20
103.4304272677
 30
0.0
 11
111.927084469
 21
103.9304272677
 31
0.0
  0
LINE
  5
129
330
1F
100
AcDbEntity
  8
0
  6
HIDDEN
 62
     7
370
     0
100
AcDbLine
 10
111.927084469
 20
120.9304272677
 30
0.0
 11
111.427084469
 21
121.4304272677
 31
0.0
  0
LINE
  5
12A
330
1F
100
AcDbEntity
  8
0
  6
HIDDEN
 62
     7
370
     0
100
AcDbLine
 10
111.927084469
 20
103.9304272677
 30
0.0
 11
120.277084469
 21
103.9304272677
 31
0.0
  0
LINE
  5
12B
330
1F
100
AcDbEntity
  8
0
  6
HIDDEN
 62
     7
370
     0
100
AcDbLine
 10
120.277084469
 20
120.9304272677
 30
0.0
 11
111.927084469
 21
120.9304272677
 31
0.0
  0
LINE
  5
12C
330
1F
100
AcDbEntity
  8
0
  6
HIDDEN
 62
     7
370
     0
100
AcDbLine
 10
106.427084469
 20
143.9304272677
 30
0.0
 11
106.427084469
 21
138.8304272677
 31
0.0
  0
LINE
  5
12D
330
1F
100
AcDbEntity
  8
0
  6
HIDDEN
 62
     7
370
     0
100
AcDbLine
 10
96.6615222995
 20
88.3510559341
 30
0.0
 11
96.22709015
 21
88.8301219532
 31
0.0
  0
LINE
  5
12E
330
1F
100
AcDbEntity
  8
0
  6
HIDDEN
 62
     7
370
     0
100
AcDbLine
 10
88.7270868249
 20
89.2518099124
 30
0.0
 11
88.2446530816
 21
88.7727439369
 31
0.0
  0
LINE
  5
12F
330
1F
100
AcDbEntity
  8
0
  6
HIDDEN
 62
     7
370
     0
100
AcDbLine
 10
88.2445311534
 20
136.088105308
 30
0.0
 11
88.7270819043
 21
135.6089850501
 31
0.0
  0
LINE
  5
130
330
1F
100
AcDbEntity
  8
0
  6
HIDDEN
 62
     7
370
     0
100
AcDbLine
 10
96.227084351
 20
136.0306828278
 30
0.0
 11
96.6616267414
 21
136.5098030783
 31
0.0
  0
ARC
  5
131
330
1F
100
AcDbEntity
  8
0
  6
HIDDEN
 62
     7
370
     0
100
AcDbCircle
 10
231.177084469
 20
108.1304272677
 30
0.0
 40
0.3000000000000398
100
AcDbArc
 50
0.0
 51
90.0
  0
ARC
  5
132
330
1F
100
AcDbEntity
  8
0
  6
HIDDEN
 62
     7
370
     0
100
AcDbCircle
 10
231.177084469
 20
116.7304272677
 30
0.0
 40
0.3000000000000398
100
AcDbArc
 50
270.0
 51
0.0
  0
LINE
  5
133
330
1F
100
AcDbEntity
  8
0
  6
HIDDEN
 62
     7
370
     0
100
AcDbLine
 10
123.277084469
 20
108.2304272677
 30
0.0
 11
198.3569123452
 21
108.2304272677
 31
0.0
  0
LINE
  5
134
330
1F
100
AcDbEntity
  8
0
  6
HIDDEN
 62
     7
370
     0
100
AcDbLine
 10
198.3569123452
 20
116.6304272677
 30
0.0
 11
123.277084469
 21
116.6304272677
 31
0.0
  0
LINE
  5
135
330
1F
100
AcDbEntity
  8
0
  6
HIDDEN
 62
     7
370
     0
100
AcDbLine
 10
198.3569123452
 20
108.2304272677
 30
0.0
 11
198.477084469
 21
108.4304272677
 31
0.0
  0
LINE
  5
136
330
1F
100
AcDbEntity
  8
0
  6
HIDDEN
 62
     7
370
     0
100
AcDbLine
 10
198.477084469
 20
116.4304272677
 30
0.0
 11
198.3569123452
 21
116.6304272677
 31
0.0
  0
LINE
  5
137
330
1F
100
AcDbEntity
  8
0
  6
HIDDEN
 62
     7
370
     0
100
AcDbLine
 10
198.477084469
 20
108.4304272677
 30
0.0
 11
231.177084469
 21
108.4304272677
 31
0.0
  0
LINE
  5
138
330
1F
100
AcDbEntity
  8
0
  6
HIDDEN
 62
     7
370
     0
100
AcDbLine
 10
231.177084469
 20
116.4304272677
 30
0.0
 11
198.477084469
 21
116.4304272677
 31
0.0
  0
LINE
  5
139
330
1F
100
AcDbEntity
  8
0
  6
HIDDEN
 62
     7
370
     0
100
AcDbLine
 10
96.227084469
 20
132.3658276059
 30
0.0
 11
96.227084469
 21
136.0301294062
 31
0.0
  0
LINE
  5
13A
330
1F
100
AcDbEntity
  8
0
  6
HIDDEN
 62
     7
370
     0
100
AcDbLine
 10
88.727084469
 20
135.6087298588
 30
0.0
 11
88.727084469
 21
132.4260494996
 31
0.0
  0
LINE
  5
13B
330
1F
100
AcDbEntity
  8
0
  6
HIDDEN
 62
     7
370
     0
100
AcDbLine
 10
96.227084469
 20
88.8306058549
 30
0.0
 11
96.227084469
 21
92.4950269294
 31
0.0
  0
LINE
  5
13C
330
1F
100
AcDbEntity
  8
0
  6
HIDDEN
 62
     7
370
     0
100
AcDbLine
 10
88.727084469
 20
92.4348050357
 30
0.0
 11
88.727084469
 21
89.2521331502
 31
0.0
  0
DIMENSION
  5
13D
330
1F
100
AcDbEntity
  8
VERMASSUNG
100
AcDbDimension
  2
_D
 10
239.1049200885
 20
108.4304272677
 30
0.0
 11
239.1049200885
 21
112.4304272677
 31
0.0
 70
   160
  1
%%c<>
 71
     2
 42
-1.0
  3
SLDDIMSTYLE0
100
AcDbAlignedDimension
 13
231.177084469
 23
116.4304272677
 33
0.0
 14
231.177084469
 24
108.4304272677
 34
0.0
 50
90.0
100
AcDbRotatedDimension
  0
DIMENSION
  5
149
330
1F
100
AcDbEntity
  8
VERMASSUNG
100
AcDbDimension
  2
_D_1
 10
245.1049200885
 20
96.4304272677
 30
0.0
 11
245.1049200885
 21
112.4304272677
 31
0.0
 70
   160
  1
%%c<>
 71
     2
 42
-1.0
  3
SLDDIMSTYLE0
100
AcDbAlignedDimension
 13
218.610042946
 23
128.4304272677
 33
0.0
 14
218.610042946
 24
96.4304272677
 34
0.0
 50
90.0
100
AcDbRotatedDimension
  0
DIMENSION
  5
154
330
1F
100
AcDbEntity
  8
VERMASSUNG
100
AcDbDimension
  2
_D_2
 10
231.477084469
 20
147.2408281344
 30
0.0
 11
179.452084469
 21
147.2408281344
 31
0.0
 70
   160
  1
<>
 71
     2
 42
-1.0
  3
SLDDIMSTYLE0
100
AcDbAlignedDimension
 13
127.427084469
 23
142.2768675914
 33
0.0
 14
231.477084469
 24
121.1562867461
 34
0.0
100
AcDbRotatedDimension
  0
DIMENSION
  5
15E
330
1F
100
AcDbEntity
  8
VERMASSUNG
100
AcDbDimension
  2
_D_3
 10
231.477084469
 20
153.2408281344
 30
0.0
 11
166.477084469
 21
153.2408281344
 31
0.0
 70
   160
  1
<>
 71
     2
 42
-1.0
  3
SLDDIMSTYLE0
100
AcDbAlignedDimension
 13
101.477084469
 23
143.6304272677
 33
0.0
 14
231.477084469
 24
121.1562867461
 34
0.0
100
AcDbRotatedDimension
  0
DIMENSION
  5
168
330
1F
100
AcDbEntity
  8
VERMASSUNG
100
AcDbDimension
  2
_D_4
 10
231.477084469
 20
159.2408281344
 30
0.0
 11
150.527084469
 21
159.2408281344
 31
0.0
 70
   160
  1
<>
 71
     2
 42
-1.0
  3
SLDDIMSTYLE0
100
AcDbAlignedDimension
 13
69.577084469
 23
132.1211050142
 33
0.0
 14
231.477084469
 24
121.1562867461
 34
0.0
100
AcDbRotatedDimension
  0
DIMENSION
  5
172
330
1F
100
AcDbEntity
  8
VERMASSUNG
100
AcDbDimension
  2
_D_5
 10
63.1963610419
 20
80.9304272677
 30
0.0
 11
63.1963610419
 21
112.4304272677
 31
0.0
 70
   160
  1
HSK A %%c<>
 71
     2
 42
-1.0
  3
SLDDIMSTYLE0
100
AcDbAlignedDimension
 13
101.777084469
 23
143.9304272677
 33
0.0
 14
101.777084469
 24
80.9304272677
 34
0.0
 50
90.0
100
AcDbRotatedDimension
  0
LINE
  5
17E
330
1F
100
AcDbEntity
  8
VERMASSUNG
  6
CENTERX2
370
     0
100
AcDbLine
 10
65.9811931113
 20
112.4304272677
 30
0.0
 11
233.3031866107
 21
112.4304272677
 31
0.0
  0
OLE2FRAME
  5
17F
330
1F
100
AcDbEntity
  8
0
100
AcDbOle2Frame
 70
     2
  3
Paintbrush-Bild
 10
13.8511154363
 20
38.264191557
 30
0.0
 11
51.6290888628
 21
31.9806341108
 31
0.0
 71
     2
 72
     0
 73
     1
 90
    12928
310
80552BED0767C5B32B40DDAF6807D121434000000000000000006FFBDDFB85D0
310
4940DDAF6807D121434000000000000000006FFBDDFB85D04940416F4BD60AFB
310
3F4000000000000000002BED0767C5B32B40416F4BD60AFB3F40000000000000
310
0000000000000100000000010000010000000100000000000100000000320000
310
D0CF11E0A1B11AE1000000000000000000000000000000003E000300FEFF0900
310
0600000000000000000000000100000001000000000000000010000002000000
310
01000000FEFFFFFF0000000000000000FFFFFFFFFFFFFFFFFFFFFFFFFFFFFFFF
310
FFFFFFFFFFFFFFFFFFFFFFFFFFFFFFFFFFFFFFFFFFFFFFFFFFFFFFFFFFFFFFFF
310
FFFFFFFFFFFFFFFFFFFFFFFFFFFFFFFFFFFFFFFFFFFFFFFFFFFFFFFFFFFFFFFF
310
FFFFFFFFFFFFFFFFFFFFFFFFFFFFFFFFFFFFFFFFFFFFFFFFFFFFFFFFFFFFFFFF
310
FFFFFFFFFFFFFFFFFFFFFFFFFFFFFFFFFFFFFFFFFFFFFFFFFFFFFFFFFFFFFFFF
310
FFFFFFFFFFFFFFFFFFFFFFFFFFFFFFFFFFFFFFFFFFFFFFFFFFFFFFFFFFFFFFFF
310
FFFFFFFFFFFFFFFFFFFFFFFFFFFFFFFFFFFFFFFFFFFFFFFFFFFFFFFFFFFFFFFF
310
FFFFFFFFFFFFFFFFFFFFFFFFFFFFFFFFFFFFFFFFFFFFFFFFFFFFFFFFFFFFFFFF
310
FFFFFFFFFFFFFFFFFFFFFFFFFFFFFFFFFFFFFFFFFFFFFFFFFFFFFFFFFFFFFFFF
310
FFFFFFFFFFFFFFFFFFFFFFFFFFFFFFFFFFFFFFFFFFFFFFFFFFFFFFFFFFFFFFFF
310
FFFFFFFFFFFFFFFFFFFFFFFFFFFFFFFFFFFFFFFFFFFFFFFFFFFFFFFFFFFFFFFF
310
FFFFFFFFFFFFFFFFFFFFFFFFFFFFFFFFFFFFFFFFFFFFFFFFFFFFFFFFFFFFFFFF
310
FFFFFFFFFFFFFFFFFFFFFFFFFFFFFFFFFFFFFFFFFFFFFFFFFFFFFFFFFFFFFFFF
310
FFFFFFFFFFFFFFFFFFFFFFFFFFFFFFFFFFFFFFFFFFFFFFFFFFFFFFFFFFFFFFFF
310
FDFFFFFFFEFFFFFFFEFFFFFFFEFFFFFF05000000060000000700000008000000
310
090000000A0000000B0000000C0000000D0000000E0000000F00000010000000
310
11000000120000001300000014000000150000001600000017000000FEFFFFFF
310
FFFFFFFFFFFFFFFFFFFFFFFFFFFFFFFFFFFFFFFFFFFFFFFFFFFFFFFFFFFFFFFF
310
FFFFFFFFFFFFFFFFFFFFFFFFFFFFFFFFFFFFFFFFFFFFFFFFFFFFFFFFFFFFFFFF
310
FFFFFFFFFFFFFFFFFFFFFFFFFFFFFFFFFFFFFFFFFFFFFFFFFFFFFFFFFFFFFFFF
310
FFFFFFFFFFFFFFFFFFFFFFFFFFFFFFFFFFFFFFFFFFFFFFFFFFFFFFFFFFFFFFFF
310
FFFFFFFFFFFFFFFFFFFFFFFFFFFFFFFFFFFFFFFFFFFFFFFFFFFFFFFFFFFFFFFF
310
FFFFFFFFFFFFFFFFFFFFFFFFFFFFFFFFFFFFFFFFFFFFFFFFFFFFFFFFFFFFFFFF
310
FFFFFFFFFFFFFFFFFFFFFFFFFFFFFFFFFFFFFFFFFFFFFFFFFFFFFFFFFFFFFFFF
310
FFFFFFFFFFFFFFFFFFFFFFFFFFFFFFFFFFFFFFFFFFFFFFFFFFFFFFFFFFFFFFFF
310
FFFFFFFFFFFFFFFFFFFFFFFFFFFFFFFFFFFFFFFFFFFFFFFFFFFFFFFFFFFFFFFF
310
FFFFFFFFFFFFFFFFFFFFFFFFFFFFFFFFFFFFFFFFFFFFFFFFFFFFFFFFFFFFFFFF
310
FFFFFFFFFFFFFFFFFFFFFFFFFFFFFFFFFFFFFFFFFFFFFFFFFFFFFFFFFFFFFFFF
310
FFFFFFFFFFFFFFFFFFFFFFFFFFFFFFFFFFFFFFFFFFFFFFFFFFFFFFFFFFFFFFFF
310
FFFFFFFFFFFFFFFFFFFFFFFFFFFFFFFFFFFFFFFFFFFFFFFFFFFFFFFFFFFFFFFF
310
52006F006F007400200045006E00740072007900000000000000000000000000
310
0000000000000000000000000000000000000000000000000000000000000000
310
16000500FFFFFFFFFFFFFFFF020000000A00030000000000C000000000000046
310
00000000000000000000000010D6EC0F79B6CD0103000000C000000000000000
310
01004F006C006500000000000000000000000000000000000000000000000000
310
0000000000000000000000000000000000000000000000000000000000000000
310
0A000200FFFFFFFFFFFFFFFFFFFFFFFF00000000000000000000000000000000
310
0000000000000000000000000000000000000000000000001400000000000000
310
010043006F006D0070004F0062006A0000000000000000000000000000000000
310
0000000000000000000000000000000000000000000000000000000000000000
310
120002010100000003000000FFFFFFFF00000000000000000000000000000000
310
0000000000000000000000000000000000000000010000004D00000000000000
310
01004F006C006500310030004E00610074006900760065000000000000000000
310
0000000000000000000000000000000000000000000000000000000000000000
310
1A000200FFFFFFFFFFFFFFFFFFFFFFFF00000000000000000000000000000000
310
0000000000000000000000000000000000000000040000002426000000000000
310
FEFFFFFF02000000FEFFFFFFFFFFFFFFFFFFFFFFFFFFFFFFFFFFFFFFFFFFFFFF
310
FFFFFFFFFFFFFFFFFFFFFFFFFFFFFFFFFFFFFFFFFFFFFFFFFFFFFFFFFFFFFFFF
310
FFFFFFFFFFFFFFFFFFFFFFFFFFFFFFFFFFFFFFFFFFFFFFFFFFFFFFFFFFFFFFFF
310
FFFFFFFFFFFFFFFFFFFFFFFFFFFFFFFFFFFFFFFFFFFFFFFFFFFFFFFFFFFFFFFF
310
FFFFFFFFFFFFFFFFFFFFFFFFFFFFFFFFFFFFFFFFFFFFFFFFFFFFFFFFFFFFFFFF
310
FFFFFFFFFFFFFFFFFFFFFFFFFFFFFFFFFFFFFFFFFFFFFFFFFFFFFFFFFFFFFFFF
310
FFFFFFFFFFFFFFFFFFFFFFFFFFFFFFFFFFFFFFFFFFFFFFFFFFFFFFFFFFFFFFFF
310
FFFFFFFFFFFFFFFFFFFFFFFFFFFFFFFFFFFFFFFFFFFFFFFFFFFFFFFFFFFFFFFF
310
FFFFFFFFFFFFFFFFFFFFFFFFFFFFFFFFFFFFFFFFFFFFFFFFFFFFFFFFFFFFFFFF
310
FFFFFFFFFFFFFFFFFFFFFFFFFFFFFFFFFFFFFFFFFFFFFFFFFFFFFFFFFFFFFFFF
310
FFFFFFFFFFFFFFFFFFFFFFFFFFFFFFFFFFFFFFFFFFFFFFFFFFFFFFFFFFFFFFFF
310
FFFFFFFFFFFFFFFFFFFFFFFFFFFFFFFFFFFFFFFFFFFFFFFFFFFFFFFFFFFFFFFF
310
FFFFFFFFFFFFFFFFFFFFFFFFFFFFFFFFFFFFFFFFFFFFFFFFFFFFFFFFFFFFFFFF
310
FFFFFFFFFFFFFFFFFFFFFFFFFFFFFFFFFFFFFFFFFFFFFFFFFFFFFFFFFFFFFFFF
310
FFFFFFFFFFFFFFFFFFFFFFFFFFFFFFFFFFFFFFFFFFFFFFFFFFFFFFFFFFFFFFFF
310
FFFFFFFFFFFFFFFFFFFFFFFFFFFFFFFFFFFFFFFFFFFFFFFFFFFFFFFFFFFFFFFF
310
0100000200000000000000000000000000000000000000000000000000000000
310
0000000000000000000000000000000000000000000000000000000000000000
310
0100FEFF030A0000FFFFFFFF0A00030000000000C00000000000004607000000
310
5042727573680007000000504272757368000700000050427275736800F439B2
310
7100000000000000000000000000000000000000000000000000000000000000
310
0000000000000000000000000000000000000000000000000000000000000000
310
0000000000000000000000000000000000000000000000000000000000000000
310
0000000000000000000000000000000000000000000000000000000000000000
310
0000000000000000000000000000000000000000000000000000000000000000
310
0000000000000000000000000000000000000000000000000000000000000000
310
0000000000000000000000000000000000000000000000000000000000000000
310
0000000000000000000000000000000000000000000000000000000000000000
310
0000000000000000000000000000000000000000000000000000000000000000
310
0000000000000000000000000000000000000000000000000000000000000000
310
0000000000000000000000000000000000000000000000000000000000000000
310
0000000000000000000000000000000000000000000000000000000000000000
310
20260000424D0E260000000000003E00000028000000B40200006E0000000100
310
01000000000000000000130B0000130B00000200000002000000000000FFFFFF
310
FFFFFFFFFFFFFFFFFFFFFFFFFFFFFFFFFFFFFFFFFFFFFFFFFFFFFFFFFFFFFFFF
310
FFFFFFFFFFFFFFFFFFFFFFFFFFFFFFFFFFFFFFFFFFFFFFFFFFFFFFFFFFFFFFFF
310
FFFFFFFFFFFFFFFFFFFFFFFFFFFFFFFFFFFFFFFFFFFFFFFFF000FFFFFFFFFFFF
310
FFFFFFFFFFFFFFFFFFFFFFFFFFFFFFFFFFFFFFFFFFFFFFFFFFFFFFFFFFFFFFFF
310
FFFFFFFFFFFFFFFFFFFFFFFFFFFFFFFFFFFFFFFFFFFFFFFFFFFFFFFFFFFFFFFF
310
FFFFFFFFFFFFFFFFFFFFFFFFFFFFFFFFF000FFFFFFFFFFFFFFFFFFFFFFFFFFFF
310
FFFFFFFFFFFFFFFFFFFFFFFFFFFFFFFFFFFFFFFFFFFFFFFFFFFFFFFFFFFFFFFF
310
FFFFFFFFFFFFFFFFFFFFFFFFFFFFFFFFFFFFFFFFFFFFFFFFFFFFFFFFFFFFFFFF
310
FFFFFFFFFFFFFFFFF000FFFFFFFFFFFFFFFFFFFFFFFFFFFFFFFFFFFFFFFFFFFF
310
FFFFFFFFFFFFFFFFFFFFFFFFFFFFFFFFFFFFFFFFFFFFFFFFFFFFFFFFFFFFFFFF
310
FFFFFFFFFFFFFFFFFFFFFFFFFFFFFFFFFFFFFFFFFFFFFFFFFFFFFFFFFFFFFFFF
310
F000FFFFFFFFFFFFFFFFFFFFFFFFFFFFFFFFFFFFFFFFFFFFFFFFFFFFFFFFFFFF
310
FFFFFFFFFFFFFFFFFFFFFFFFFFFFFFFFFFFFFFFFFFFFFFFFFFFFFFFFFFFFFFFF
310
FFFFFFFFFFFFFFFFFFFFFFFFFFFFFFFFFFFFFFFFFFFFFFFFF000FFFFFFFFFFFF
310
FFFFFFFFFFFFFFFFFFFFFFFFFFFFFFFFFFFFFFFFFFFFFFFFFFFFFFFFFFFFFFFF
310
FFFFFFFFFFFFFFFFFFFFFFFFFFFFFFFFFFFFFFFFFFFFFFFFFFFFFFFFFFFFFFFF
310
FFFFFFFFFFFFFFFFFFFFFFFFFFFFFFFFF000FFFFFFFFFFFFFFFFFFFFFFFFFFFF
310
FFFFFFFFFFFFFFFFFFFFFFFFFFFFFFFFFFFFFFFFFFFFFFFFFFFFFFFFFFFFFFFF
310
FFFFFFFFFFFFFFFFFFFFFFFFFFFFFFFFFFFFFFFFFFFFFFFFFFFFFFFFFFFFFFFF
310
FFFFFFFFFFFFFFFFF000FFFFFFFFFFFFFFFFFFFFFFFFFFFFFFFFFFFFFFFFFFFF
310
FFFFFFFFFFFFFFFFFFFFFFFFFFFFFFFFFFFFFFFFFFFFFFFFFFFFFFFFFFFFFFFF
310
FFFFFFFFFFFFFFFFFFFFFFFFFFFFFFFFFFFFFFFFFFFFFFFFFFFFFFFFFFFFFFFF
310
F000FFFFFFFFFFFFFFFFFFFFFFFFFFFFFFFFFFFFFFFFFFFFFFFFFFFFFFFFFFFF
310
FFFFFFFFFFFFFFFFFFFFFFFFFFFFFFFFFFFFFFFFFFFFFFFFFFFFFFFFFFFFFFFF
310
FFFFFFFFFFFFFFFFFFFFFFFFFFFFFFFFFFFFFFFFFFFFFFFFF000FFFFFFFFFFFF
310
FFFFFFFFFFFFFFFFFFFFFFFFFFFFFFFFFFFFFFFFFFFFFFFFFFFFFFFFFFFFFFFF
310
FFFFFFFFFFFFFFFFFFFFFFFFFFFFFFFFFFFFFFFFFFFFFFFFFFFFFFFFFFFFFFFF
310
FFFFFFFFFFFFFFFFFFFFFFFFFFFFFFFFF000FFFFFFFFFFFFFFFFFFFFFFFFFFFF
310
FFFFFFFFFFFFFFFFFFFFFFFFFFFFFFFFFFFFFFFFFFFFFFFFFFFFFFFFFFFFFFFF
310
FFFFFFFFFFFFFFFFFFFFFFFFFFFFFFFFFFFFFFFFFFFFFFFFFFFFFFFFFFFFFFFF
310
FFFFFFFFFFFFFFFFF000FFFFFFFFFFFFFFFFFFFFFFFFFFFFFFFFFFFFFFFFFFFF
310
FFFFFFFFFFFFFFFFFFFFFFFFFFFFFFFFFFFFFFFFFFFFFFFFFFFFFFFFFFFFFFFF
310
FFFFFFFFFFFFFFFFFFFFFFFFFFFFFFFFFFFFFFFFFFFFFFFFFFFFFFFFFFFFFFFF
310
F000FFFFFFFFFFFFFFFFFFFFFFFFFFFFFFFFFFFFFFFFFFFFFFFFFFFFFFFFFFFF
310
FFFFFFFFFFFFFFFFFFFFFFFFFFFFFFFFFFFFFFFFFFFFFFFFFFFFFFFFFFFFFFFF
310
FFFFFFFFFFFFFFFFFFFFFFFFFFFFFFFFFFFFFFFFFFFFFFFFF000FFFFFFFFFFFF
310
FFFFFFFFFFFFFFFFFFFFFFFFFFFFFFFFFFFFFFFFFFFFFFFFFFFFFFFFFFFFFFFF
310
FFFFFFFFFFFFFFFFFFFFFFFFFFFFFFFFFFFFFFFFFFFFFFFFFFFFFFFFFFFFFFFF
310
FFFFFFFFFFFFFFFFFFFFFFFFFFFFFFFFF000FFFFFFFFFFFFFFFFFFFFFFFFFFFF
310
FFFFFFFFFFFFFFFFFFFFFFFFFFFFFFFFFFFFFFFFFFFFFFFFFFFFFFFFFFFFFFFF
310
FFFFFFFFFFFFFFFFFFFFFFFFFFFFFFFFFFFFFFFFFFFFFFFFFFFFFFFFFFFFFFFF
310
FFFFFFFFFFFFFFFFF000FFFFFFFFFFFFFFFFFFFFFFFFFFFFFFFFFFFFFFFFFFFF
310
FFFFFFFFFFFFFFFFFFFFFFFFFFFFFFFFFFFFFFFFFFFFFFFFFFFFFFFFFFFFFFFF
310
FFFFFFFFFFFFFFFFFFFFFFFFFFFFFFFFFFFFFFFFFFFFFFFFFFFFFFFFFFFFFFFF
310
F000FFFFFFFFFFFFFFFFFFFFFFFFFFFFFFFFFFFFFFFFFFFFFFFFFFFFFFFFFFFF
310
FFFFFFFFFFFFFFFFFFFFFFFFFFFFFFFFFFFFFFFFFFFFFFFFFFFFFFFFFFFFFFFF
310
FFFFFFFFFFFFFFFFFFFFFFFFFFFFFFFFFFFFFFFFFFFFFFFFF000FFFFFFFFFFFF
310
FFFFFFFFFFFFFFFFFFFFFFFFFFFFFFFFFFFFFFFFFFFFFFFFFFFFFFFFFFFFFFFF
310
FFFFFFFFFFFFFFFFFFFFFFFFFFFFFFFFFFFFFFFFFFFFFFFFFFFFFFFFFFFFFFFF
310
FFFFFFFFFFFFFFFFFFFFFFFFFFFFFFFFF000FFFFFFFFFFFFFFFFFFFFFFFFFFFF
310
FFFFFFFFFFFFFFFFFFFFFFFFFFFFFFFFFFFFFFFFFFFFFFFFFFFFFFFFFFFFFFFF
310
FFFFFFFFFFFFFFFFFFFFFFFFFFFFFFFFFFFFFFFFFFFFFFFFFFFFFFFFFFFFFFFF
310
FFFFFFFFFFFFFFFFF000FFFFF80003FFFFFFFFFFFFFFFFFFFFFFFFFFFFFFFFFF
310
FFFFF00007FFFFFFFFFF00007FFFFFF800000000000000007FFFFFFFFFFFFFFF
310
FFFFFFFC001FFFFFFFFFFFFFFC001FFFFFFFFFFFFFFFFFFFFFFFFFFE0007FFFF
310
F000FFFF8000007FFFFFFFF8000FFFFFC0007FFFFF80007FFFFF0000007FFFFF
310
FFF8000007FFFFF800000000000000007FFFFFF0001FFFFFFFFFFFC00001FFFF
310
FFFFFFFFC00001FFFFFFFF000000000003FFFFE000007FFFF000FFFE0000000F
310
FFFFFFF0000FFFFF80007FFFFF80007FFFFC0000001FFFFFFFC0000001FFFFF8
310
00000000000000007FFFFFF0001FFFFFFFFFFE0000003FFFFFFFFFFE0000003F
310
FFFFFF000000000003FFFF0000000FFFF000FFF800000003FFFFFFF00007FFFF
310
80007FFFFF80007FFFF000000007FFFFFF000000003FFFF80000000000000000
310
7FFFFFF0001FFFFFFFFFF80000000FFFFFFFFFF80000000FFFFFFF0000000000
310
03FFFC00000003FFF000FFE000000000FFFFFFF00007FFFF80003FFFFF80007F
310
FFC000000001FFFFFC000000001FFFF800000000000000007FFFFFF0001FFFFF
310
FFFFE000000003FFFFFFFFE000000003FFFFFF000000000003FFF000000000FF
310
F000FF80000000007FFFFFF00007FFFF80003FFFFF80007FFF8000000000FFFF
310
F80000000007FFF800000000000000007FFFFFF0001FFFFFFFFFC000000001FF
310
FFFFFFC000000001FFFFFF000000000003FFC0000000007FF000FF0000000000
310
3FFFFFE00007FFFF00003FFFFF80007FFE00000000003FFFF00000000003FFF8
310
00000000000000007FFFFFF0001FFFFFFFFF8000000000FFFFFFFF8000000000
310
FFFFFF000000000003FF80000000003FF000FE00000000001FFFFFE00003FFFF
310
00003FFFFF80007FFC00000000001FFFE00000000001FFF8000001FFFE000000
310
7FFFFFF0001FFFFFFFFE00000000003FFFFFFE00000000003FFFFF0000000000
310
03FF00000000001FF000FC00000000000FFFFFE00003FFFF00001FFFFF80007F
310
F800000000001FFFC00000000000FFF8000001FFFE0000007FFFFFF0001FFFFF
310
FFFC00000000001FFFFFFC00000000001FFFFF000000000003FE00000000000F
310
F000F8000000000007FFFFE00003FFFF00001FFFFF80007FF800000000000FFF
310
800000000000FFF8000001FFFE0000007FFFFFF0001FFFFFFFF800000000000F
310
FFFFF800000000000FFFFF000000000003FC000000000007F000F80000000000
310
03FFFFC00003FFFE00001FFFFF80007FF0000000000007FF0000000000007FF8
310
000001FFFE0000007FFFFFF0001FFFFFFFF0000000000007FFFFF00000000000
310
07FFFF000000000003F8000000000003F000F0000000000003FFFFC00001FFFE
310
00001FFFFF80007FE0000000000007FE0000000000003FF8000001FFFE000000
310
7FFFFFF0001FFFFFFFF0000000000007FFFFF0000000000007FFFF0000000000
310
03F800001F800003F000E00001FFF00001FFFFC00001FFFE00000FFFFF80007F
310
E00001FFE00003FE00001FFF00003FF8000001FFFE0000007FFFFFF0001FFFFF
310
FFE000003E000003FFFFE000003E000003FFFF000000000003F00001FFF80001
310
F000E00007FFFC0001FFFFC00001FFFE00000FFFFF80007FC0000FFFFC0003FC
310
0000FFFFC0001FF8000001FFFE0000007FFFFFF0001FFFFFFFC00003FFE00001
310
FFFFC00003FFE00001FFFF0001FFFFFFFFF00007FFFE0001F000E0000FFFFF00
310
00FFFF800001FFFC00000FFFFF80007FC0001FFFFE0001FC0001FFFFE0001FF8
310
000001FFFE0000007FFFFFF0001FFFFFFF80000FFFF80000FFFF80000FFFF800
310
00FFFF0003FFFFFFFFE0000FFFFF8000F000C0003FFFFF8000FFFF800000FFFC
310
000007FFFF80007F80003FFFFF0001FC0003FFFFF0001FF8000001FFFE000000
310
7FFFFFF0001FFFFFFF80003FFFFE0000FFFF80003FFFFE0000FFFF0003FFFFFF
310
FFE0003FFFFF8000F000C0003FFFFF8000FFFF800000FFFC000007FFFF80007F
310
80007FFFFF8001F80007FFFFF8000FF8000001FFFE0000007FFFFFF0001FFFFF
310
FF00007FFFFF00007FFF00007FFFFF00007FFF0003FFFFFFFFE0003FFFFFC000
310
F000C0007FFFFFC000FFFF000000FFFC000007FFFF80007F8000FFFFFF8000F8
310
000FFFFFF8000FF8000001FFFE0000007FFFFFF0001FFFFFFF0000FFFFFF8000
310
7FFF0000FFFFFF80007FFF0003FFFFFFFFC0007FFFFFC00070008000FFFFFFC0
310
00FFFF000000FFF8000007FFFF80007F8000FFFFFF8000F8000FFFFFF8000FF8
310
000001FFFE0000007FFFFFF0001FFFFFFE0001FFFFFFC0003FFE0001FFFFFFC0
310
003FFF0003FFFFFFFFC0007FFFFFE00070008000FFFFFFC0007FFF0000007FF8
310
000003FFFF80007F0001FFFFFF8000F8000FFFFFF8000FF8000001FFFE000000
310
7FFFFFF0001FFFFFFE0001FFFFFFC0003FFE0001FFFFFFC0003FFF0003FFFFFF
310
FFC000FFFFFFE00070008000FFFFFFC0007FFF0000007FF8000003FFFF80007F
310
0001FFFFFF8000F8001FFFFFF8000FF8000001FFFE0000007FFFFFF0001FFFFF
310
FE0003FFFFFFE0003FFE0003FFFFFFE0003FFF0003FFFFFFFFC000FFFFFFE000
310
70008000FFFFFFC0007FFE0000007FF8000003FFFF80007F0001FFFFFF8000F0
310
001FFFFFF8000FF8000001FFFE0000007FFFFFF0001FFFFFFC0003FFFFFFE000
310
1FFC0003FFFFFFE0001FFF0003FFFFFFFFC000FFFFFFC00070008000FFFFFF80
310
007FFE0000007FF0000003FFFF80007F0001FFFFFF0000F0001FFFFFF8000FF8
310
000001FFFE0000007FFFFFF0001FFFFFFC0007FFFFFFF0001FFC0007FFFFFFF0
310
001FFF0003FFFFFFFFC000FFFFFFC00070008001FFFFFF0000FFFE0000003FF0
310
000001FFFF80007F0001FFFFFF0000F8001FFFFFF0000FF8000001FFFE000000
310
7FFFFFF0001FFFFFFC0007FFFFFFF0001FFC0007FFFFFFF0001FFF0003FFFFFF
310
FFC001FFFFFF80007000FFFFFFFFFE0000FFFE0008003FF0008001FFFF80007F
310
FFFFFFFFFC0000FFFFFFFFFFE0000FF8000001FFFE0000007FFFFFF0001FFFFF
310
F8000FFFFFFFF8000FF8000FFFFFFFF8000FFF0003FFFFFFFFFFFFFFFFFF0000
310
7000FFFFFFFFFC0000FFFC0008003FF0008001FFFF80007FFFFFFFFFF80001FF
310
FFFFFFFF80000FF8000001FFFE0000007FFFFFF0001FFFFFF8000FFFFFFFF800
310
0FF8000FFFFFFFF8000FFF0003FFFFFFFFFFFFFFFFFE0000F000FFFFFFFFE000
310
00FFFC000C003FE000C001FFFF80007FFFFFFFFFC00001FFFFFFFFFE00001FF8
310
000001FFFE0000007FFFFFF0001FFFFFF8000FFFFFFFF8000FF8000FFFFFFFF8
310
000FFF0003FFFFFFFFFFFFFFFFF00000F000FFFFFFFE000001FFFC000C001FE0
310
00C000FFFF80007FFFFFFFFE000001FFFFFFFFE000001FF80FFFFFFFFFFFFFC0
310
7FFFFFF0001FFFFFF8000FFFFFFFF8000FF8000FFFFFFFF8000FFF0003FFFFFF
310
FFFFFFFFFF800000F000FFFFFFC0000001FFFC001C001FE001C000FFFF80007F
310
FFFFFF80000003FFFFFFF80000001FF80FFFFFFFFFFFFFC07FFFFFF0001FFFFF
310
F8001FFFFFFFFC000FF8001FFFFFFFFC000FFF0003FFFFFFFFFFFFFFF0000001
310
F000FFFFF800000001FFF8001C001FE001C000FFFF80007FFFFFF800000003FF
310
FFFF800000003FF80FFFFFFFFFFFFFC07FFFFFF0001FFFFFF8001FFFFFFFFC00
310
0FF8001FFFFFFFFC000FFF0003FFFFFFFFFFFFFE00000001F000FFFFC0000000
310
03FFF8001E001FC001E000FFFF80007FFFFF8000000007FFFFFC000000003FF8
310
0FFFFFFFFFFFFFC07FFFFFF0001FFFFFF8001FFFFFFFFC000FF8001FFFFFFFFC
310
000FFF0003FFFFFFFFFFFFE000000003F000FFFE0000000007FFF8001E000FC0
310
01E0007FFF80007FFFFE0000000007FFFFE0000000007FF80FFFFFFFFFFFFFC0
310
7FFFFFF0001FFFFFF0001FFFFFFFFC0007F0001FFFFFFFFC0007FF0003FFFFFF
310
FFFFFF0000000003F000FFF80000000007FFF8001E000FC003E0007FFF80007F
310
FFF0000000000FFFFF8000000000FFF80FFFFFFFFFFFFFC07FFFFFF0001FFFFF
310
F0001FFFFFFFFC0007F0001FFFFFFFFC0007FF0003FFFFFFFFFFFC0000000007
310
F000FFE0000000000FFFF0003E000FC003E0007FFF80007FFFC0000000001FFF
310
FE0000000001FFF80FFFFFFFFFFFFFC07FFFFFF0001FFFFFF0001FFFFFFFFC00
310
07F0001FFFFFFFFC0007FF0003FFFFFFFFFFF0000000000FF000FFC000000000
310
1FFFF0003F000F8003F0003FFF80007FFF80000000003FFFF80000000003FFF8
310
0FFFFFFFFFFFFFC07FFFFFF0001FFFFFF0001FFFFFFFFC0007F0001FFFFFFFFC
310
0007FF0003FFFFFFFFFFE0000000001FF000FF00000000007FFFF0003F000780
310
03F0003FFF80007FFF00000000007FFFF00000000007FFF80FFFFFFFFFFFFFC0
310
7FFFFFF0001FFFFFF0001FFFFFFFFC0007F0001FFFFFFFFC0007FF0003FFFFFF
310
FFFF80000000007FF000FE0000000000FFFFE0003F00078007F0003FFF80007F
310
FE0000000001FFFFE0000000001FFFF80FFFFFFFFFFFFFC07FFFFFF0001FFFFF
310
F0001FFFFFFFFC0007F0001FFFFFFFFC0007FF0003FFFFFFFFFF0000000000FF
310
F000FC0000000003FFFFE0007F00078007F0003FFF80007FFC0000000007FFFF
310
C0000000007FFFF80FFFFFFFFFFFFFC07FFFFFF0001FFFFFF8001FFFFFFFFC00
310
0FF8001FFFFFFFFC000FFF0003FFFFFFFFFE0000000003FFF000FC000000000F
310
FFFFE0007F80070007F8001FFF80007FF8000000001FFFFF8000000001FFFFF8
310
0FFFFFFFFFFFFFC07FFFFFF0001FFFFFF8001FFFFFFFFC000FF8001FFFFFFFFC
310
000FFF0003FFFFFFFFFC000000000FFFF000F8000000007FFFFFE0007F800700
310
07F8001FFF80007FF000000000FFFFFF800000000FFFFFF80FFFFFFFFFFFFFC0
310
7FFFFFF0001FFFFFF8000FFFFFFFF8000FF8000FFFFFFFF8000FFF0003FFFFFF
310
FFFC000000007FFFF000F800000007FFFFFFC0007F8003000FF8001FFF80007F
310
F000000007FFFFFF000000007FFFFFF80FFFFFFFFFFFFFC07FFFFFF0001FFFFF
310
F8000FFFFFFFF8000FF8000FFFFFFFF8000FFF0003FFFFFFFFF80000000FFFFF
310
F000F0000000FFFFFFFFC000FF8003000FF8001FFF80007FE0000000FFFFFFFF
310
0000000FFFFFFFF8000001FFFE0000007FFFFFF0001FFFFFF8000FFFFFFFF800
310
0FF8000FFFFFFFF8000FFF0003FFFFFFFFF8000000FFFFFFF000F000000FFFFF
310
FFFFC000FFC002000FF8000FFF80007FE000001FFFFFFFFE000001FFFFFFFFF8
310
000001FFFE0000007FFFFFF0001FFFFFF8000FFFFFFFF8000FF8000FFFFFFFF8
310
000FFF0003FFFFFFFFF000001FFFFFFFF000E00000FFFFFFFFFFC000FFC00200
310
0FFC000FFF80007FE00001FFFFFFFFFE00001FFFFFFFFFF8000001FFFE000000
310
7FFFFFF0001FFFFFFC000FFFFFFFF8001FFC000FFFFFFFF8001FFF0003FFFFFF
310
FFF00001FFFFFFFFF000E00007FFFFFFFFFF8000FFC000001FFC000FFF80007F
310
C0000FFFFFFFFFFE0000FFFFFFFFFFF8000001FFFE0000007FFFFFF0001FFFFF
310
FC0007FFFFFFF0001FFC0007FFFFFFF0001FFF0003FFFFFFFFF00007FFFFFFFF
310
F000E0001FFFFFFFFFFF8000FFC000001FFC000FFF80007FC0003FFFFFFFFFFE
310
0001FFFFFFFFFFF8000001FFFE0000007FFFFFF0001FFFFFFC0007FFFFFFF000
310
1FFC0007FFFFFFF0001FFF0003FFFFFFFFF0001FFFFFFFFFF000E0003FFFFF00
310
03FF8001FFE000001FFC0007FF80007FC0007FFFFF0007FC0003FFFFF0003FF8
310
000001FFFE0000007FFFFFF0001FFFFFFC0003FFFFFFE0001FFC0003FFFFFFE0
310
001FFF0003FFFFFFFFF0003FFFFFFFFFF000E0003FFFFF0001FF8001FFE00000
310
1FFE0007FF80007FC0007FFFFE0003FC0007FFFFE0003FF8000001FFFE000000
310
7FFFFFF0001FFFFFFE0003FFFFFFE0003FFE0003FFFFFFE0003FFF0003FFFFFF
310
FFF0003FFFFF8001F000E0003FFFFF0001FF0001FFE000001FFE0007FF80007F
310
C0007FFFFE0003FC0007FFFFE0003FF8000001FFFE0000007FFFFFF0001FFFFF
310
FE0001FFFFFFC0003FFE0001FFFFFFC0003FFF0003FFFFFFFFF0003FFFFF0001
310
F000E0003FFFFF0003FF0001FFE000003FFE0007FF80007FC0007FFFFE0003FC
310
0007FFFFE0003FF8000001FFFE0000007FFFFFF0001FFFFFFF0001FFFFFFC000
310
7FFF0001FFFFFFC0007FFF0003FFFFFFFFF0003FFFFF0001F000E0003FFFFE00
310
03FF0003FFF000003FFE0003FF80007FC0007FFFFC0003FE0007FFFFE0003FF8
310
000001FFFE0000007FFFFFF0001FFFFFFF0000FFFFFF80007FFF0000FFFFFF80
310
007FFF0003FFFFFFFFF0003FFFFF0001F000E0003FFFFE0003FF0003FFF00000
310
3FFF0003FF80007FC0007FFFFC0007FE0007FFFFC0003FF8000001FFFE000000
310
7FFFFFF0001FFFFFFF80007FFFFF0000FFFF80007FFFFF0000FFFF0003FFFFFF
310
FFF0003FFFFF0003F000E0003FFFFC0003FE0003FFF000003FFF0003FF80007F
310
E0003FFFF80007FE0003FFFFC0007FF8000001FFFE0000007FFFFFF0001FFFFF
310
FF80003FFFFE0000FFFF80003FFFFE0000FFFF0003FFFFFFFFF0001FFFFE0003
310
F000F0001FFFF80003FE0003FFF000007FFF0001FF80007FE0003FFFF00007FE
310
0001FFFF80007FF8000001FFFE0000007FFFFFF0001FFFFFFFC0000FFFF80001
310
FFFFC0000FFFF80001FFFF0003FFFFFFFFF0001FFFFC0003F000F0000FFFF000
310
07FE0007FFF800007FFF0001FF80007FE0001FFFE00007FF0000FFFE00007FF8
310
000001FFFE0000007FFFFFF0001FFFFFFFC00003FFE00001FFFFC00003FFE000
310
01FFFF0003FFFFFFFFF8000FFFF80003F000F00003FFC00007FC0007FFF80000
310
7FFF8001FF80007FF00007FF80000FFF00007FF80000FFF8000001FFFE000000
310
7F80000000000001FFE000003E000003FFFFE000003E000003FFFF0003FFFFFF
310
FFF80003FFE00007F000F800000000000FFC0007FFF800007FFF8001FF80007F
310
F000000000000FFF000000000000FFF8000001FFFE0000007F80000000000001
310
FFF0000000000007FFFFF0000000000007FFFF0003FFFFFFFFFC00007E000007
310
F000F800000000000FFC0007FFF80000FFFF8000FF80007FF800000000001FFF
310
800000000001FFF8000001FFFE0000007F80000000000001FFF800000000000F
310
FFFFF800000000000FFFFF0003FFFFFFFFFC00000000000FF000FC0000000000
310
1FFC0007FFFC0000FFFF8000FF80007FF800000000003FFFC00000000001FFF8
310
000001FFFE0000007F80000000000001FFF800000000000FFFFFF80000000000
310
0FFFFF0003FFFFFFFFFE00000000001FF000FE00000000003FF8000FFFFC0000
310
FFFF8000FF80007FFC00000000003FFFC00000000003FFF8000001FFFE000000
310
7F80000000000001FFFC00000000001FFFFFFC00000000001FFFFF0003FFFFFF
310
FFFF00000000001FF000FF00000000003FF8000FFFFC0000FFFFC000FF80007F
310
FE00000000007FFFE00000000007FFF8000001FFFE0000007F80000000000001
310
FFFE00000000003FFFFFFE00000000003FFFFF0003FFFFFFFFFF80000000003F
310
F000FF80000000007FF8000FFFFC0001FFFFC0007F80007FFF0000000000FFFF
310
F0000000000FFFF800000000000000007F80000000000001FFFF8000000000FF
310
FFFFFF8000000000FFFFFF0003FFFFFFFFFFC0000000007FF000FFC000000000
310
FFF8000FFFFE0001FFFFC0007F80007FFF8000000001FFFFF8000000001FFFF8
310
00000000000000007F80000000000001FFFFC000000001FFFFFFFFC000000001
310
FFFFFF0003FFFFFFFFFFE000000000FFF000FFE000000003FFF0001FFFFE0001
310
FFFFC0007F80007FFFC000000007FFFFFE000000003FFFF80000000000000000
310
7F80000000000001FFFFE000000003FFFFFFFFE000000003FFFFFF0003FFFFFF
310
FFFFF000000003FFF000FFF80000000FFFF0001FFFFE0001FFFFE0007F80007F
310
FFF00000000FFFFFFF00000000FFFFF800000000000000007F80000000000001
310
FFFFF80000000FFFFFFFFFF80000000FFFFFFF0003FFFFFFFFFFFC0000000FFF
310
F000FFFE0000003FFFF0001FFFFE0003FFFFE0003F80007FFFFC0000003FFFFF
310
FFC0000003FFFFF800000000000000007F80000000000001FFFFFE0000003FFF
310
FFFFFFFE0000003FFFFFFF0003FFFFFFFFFFFF0000003FFFF000FFFF800000FF
310
FFF0001FFFFF0003FFFFE0003F80007FFFFF000001FFFFFFFFF800001FFFFFF8
310
00000000000000007F80000000000001FFFFFFC00001FFFFFFFFFFFFC00001FF
310
FFFFFF0003FFFFFFFFFFFFC00000FFFFF000FFFFF8000FFFFFFFFFFFFFFFFFFF
310
FFFFFFFFFFFFFFFFFFFFF0001FFFFFFFFFFF0000FFFFFFF80000000000000000
310
7FFFFFFFFFFFFFFFFFFFFFFC001FFFFFFFFFFFFFFC001FFFFFFFFFFFFFFFFFFF
310
FFFFFFFC001FFFFFF000FFFFFFFFFFFFFFFFFFFFFFFFFFFFFFFFFFFFFFFFFFFF
310
FFFFFFFFFFFFFFFFFFFFFFFFFFFFFFFFFFFFFFFFFFFFFFFFFFFFFFFFFFFFFFFF
310
FFFFFFFFFFFFFFFFFFFFFFFFFFFFFFFFFFFFFFFFFFFFFFFFFFFFFFFFFFFFFFFF
310
F000FFFFFFFFFFFFFFFFFFFFFFFFFFFFFFFFFFFFFFFFFFFFFFFFFFFFFFFFFFFF
310
FFFFFFFFFFFFFFFFFFFFFFFFFFFFFFFFFFFFFFFFFFFFFFFFFFFFFFFFFFFFFFFF
310
FFFFFFFFFFFFFFFFFFFFFFFFFFFFFFFFFFFFFFFFFFFFFFFFF000FFFFFFFFFFFF
310
FFFFFFFFFFFFFFFFFFFFFFFFFFFFFFFFFFFFFFFFFFFFFFFFFFFFFFFFFFFFFFFF
310
FFFFFFFFFFFFFFFFFFFFFFFFFFFFFFFFFFFFFFFFFFFFFFFFFFFFFFFFFFFFFFFF
310
FFFFFFFFFFFFFFFFFFFFFFFFFFFFFFFFF000FFFFFFFFFFFFFFFFFFFFFFFFFFFF
310
FFFFFFFFFFFFFFFFFFFFFFFFFFFFFFFFFFFFFFFFFFFFFFFFFFFFFFFFFFFFFFFF
310
FFFFFFFFFFFFFFFFFFFFFFFFFFFFFFFFFFFFFFFFFFFFFFFFFFFFFFFFFFFFFFFF
310
FFFFFFFFFFFFFFFFF000FFFFFFFFFFFFFFFFFFFFFFFFFFFFFFFFFFFFFFFFFFFF
310
FFFFFFFFFFFFFFFFFFFFFFFFFFFFFFFFFFFFFFFFFFFFFFFFFFFFFFFFFFFFFFFF
310
FFFFFFFFFFFFFFFFFFFFFFFFFFFFFFFFFFFFFFFFFFFFFFFFFFFFFFFFFFFFFFFF
310
F000FFFFFFFFFFFFFFFFFFFFFFFFFFFFFFFFFFFFFFFFFFFFFFFFFFFFFFFFFFFF
310
FFFFFFFFFFFFFFFFFFFFFFFFFFFFFFFFFFFFFFFFFFFFFFFFFFFFFFFFFFFFFFFF
310
FFFFFFFFFFFFFFFFFFFFFFFFFFFFFFFFFFFFFFFFFFFFFFFFF000FFFFFFFFFFFF
310
FFFFFFFFFFFFFFFFFFFFFFFFFFFFFFFFFFFFFFFFFFFFFFFFFFFFFFFFFFFFFFFF
310
FFFFFFFFFFFFFFFFFFFFFFFFFFFFFFFFFFFFFFFFFFFFFFFFFFFFFFFFFFFFFFFF
310
FFFFFFFFFFFFFFFFFFFFFFFFFFFFFFFFF000FFFFFFFFFFFFFFFFFFFFFFFFFFFF
310
FFFFFFFFFFFFFFFFFFFFFFFFFFFFFFFFFFFFFFFFFFFFFFFFFFFFFFFFFFFFFFFF
310
FFFFFFFFFFFFFFFFFFFFFFFFFFFFFFFFFFFFFFFFFFFFFFFFFFFFFFFFFFFFFFFF
310
FFFFFFFFFFFFFFFFF000FFFFFFFFFFFFFFFFFFFFFFFFFFFFFFFFFFFFFFFFFFFF
310
FFFFFFFFFFFFFFFFFFFFFFFFFFFFFFFFFFFFFFFFFFFFFFFFFFFFFFFFFFFFFFFF
310
FFFFFFFFFFFFFFFFFFFFFFFFFFFFFFFFFFFFFFFFFFFFFFFFFFFFFFFFFFFFFFFF
310
F000FFFFFFFFFFFFFFFFFFFFFFFFFFFFFFFFFFFFFFFFFFFFFFFFFFFFFFFFFFFF
310
FFFFFFFFFFFFFFFFFFFFFFFFFFFFFFFFFFFFFFFFFFFFFFFFFFFFFFFFFFFFFFFF
310
FFFFFFFFFFFFFFFFFFFFFFFFFFFFFFFFFFFFFFFFFFFFFFFFF000FFFFFFFFFFFF
310
FFFFFFFFFFFFFFFFFFFFFFFFFFFFFFFFFFFFFFFFFFFFFFFFFFFFFFFFFFFFFFFF
310
FFFFFFFFFFFFFFFFFFFFFFFFFFFFFFFFFFFFFFFFFFFFFFFFFFFFFFFFFFFFFFFF
310
FFFFFFFFFFFFFFFFFFFFFFFFFFFFFFFFF000FFFFFFFFFFFFFFFFFFFFFFFFFFFF
310
FFFFFFFFFFFFFFFFFFFFFFFFFFFFFFFFFFFFFFFFFFFFFFFFFFFFFFFFFFFFFFFF
310
FFFFFFFFFFFFFFFFFFFFFFFFFFFFFFFFFFFFFFFFFFFFFFFFFFFFFFFFFFFFFFFF
310
FFFFFFFFFFFFFFFFF000FFFFFFFFFFFFFFFFFFFFFFFFFFFFFFFFFFFFFFFFFFFF
310
FFFFFFFFFFFFFFFFFFFFFFFFFFFFFFFFFFFFFFFFFFFFFFFFFFFFFFFFFFFFFFFF
310
FFFFFFFFFFFFFFFFFFFFFFFFFFFFFFFFFFFFFFFFFFFFFFFFFFFFFFFFFFFFFFFF
310
F000FFFFFFFFFFFFFFFFFFFFFFFFFFFFFFFFFFFFFFFFFFFFFFFFFFFFFFFFFFFF
310
FFFFFFFFFFFFFFFFFFFFFFFFFFFFFFFFFFFFFFFFFFFFFFFFFFFFFFFFFFFFFFFF
310
FFFFFFFFFFFFFFFFFFFFFFFFFFFFFFFFFFFFFFFFFFFFFFFFF000FFFFFFFFFFFF
310
FFFFFFFFFFFFFFFFFFFFFFFFFFFFFFFFFFFFFFFFFFFFFFFFFFFFFFFFFFFFFFFF
310
FFFFFFFFFFFFFFFFFFFFFFFFFFFFFFFFFFFFFFFFFFFFFFFFFFFFFFFFFFFFFFFF
310
FFFFFFFFFFFFFFFFFFFFFFFFFFFFFFFFF000FFFFFFFFFFFFFFFFFFFFFFFFFFFF
310
FFFFFFFFFFFFFFFFFFFFFFFFFFFFFFFFFFFFFFFFFFFFFFFFFFFFFFFFFFFFFFFF
310
FFFFFFFFFFFFFFFFFFFFFFFFFFFFFFFFFFFFFFFFFFFFFFFFFFFFFFFFFFFFFFFF
310
FFFFFFFFFFFFFFFFF000FFFFFFFFFFFFFFFFFFFFFFFFFFFFFFFFFFFFFFFFFFFF
310
FFFFFFFFFFFFFFFFFFFFFFFFFFFFFFFFFFFFFFFFFFFFFFFFFFFFFFFFFFFFFFFF
310
FFFFFFFFFFFFFFFFFFFFFFFFFFFFFFFFFFFFFFFFFFFFFFFFFFFFFFFFFFFFFFFF
310
F000FFFFFFFFFFFFFFFFFFFFFFFFFFFFFFFFFFFFFFFFFFFFFFFFFFFFFFFFFFFF
310
FFFFFFFFFFFFFFFFFFFFFFFFFFFFFFFFFFFFFFFFFFFFFFFFFFFFFFFFFFFFFFFF
310
FFFFFFFFFFFFFFFFFFFFFFFFFFFFFFFFFFFFFFFFFFFFFFFFF000FFFFFFFFFFFF
310
FFFFFFFFFFFFFFFFFFFFFFFFFFFFFFFFFFFFFFFFFFFFFFFFFFFFFFFFFFFFFFFF
310
FFFFFFFFFFFFFFFFFFFFFFFFFFFFFFFFFFFFFFFFFFFFFFFFFFFFFFFFFFFFFFFF
310
FFFFFFFFFFFFFFFFFFFFFFFFFFFFFFFFF000FFFFFFFFFFFFFFFFFFFFFFFFFFFF
310
FFFFFFFFFFFFFFFFFFFFFFFFFFFFFFFFFFFFFFFFFFFFFFFFFFFFFFFFFFFFFFFF
310
FFFFFFFFFFFFFFFFFFFFFFFFFFFFFFFFFFFFFFFFFFFFFFFFFFFFFFFFFFFFFFFF
310
FFFFFFFFFFFFFFFFF000FFFFFFFFFFFFFFFFFFFFFFFFFFFFFFFFFFFFFFFFFFFF
310
FFFFFFFFFFFFFFFFFFFFFFFFFFFFFFFFFFFFFFFFFFFFFFFFFFFFFFFFFFFFFFFF
310
FFFFFFFFFFFFFFFFFFFFFFFFFFFFFFFFFFFFFFFFFFFFFFFFFFFFFFFFFFFFFFFF
310
F000FFFFFFFFFFFFFFFFFFFFFFFFFFFFFFFFFFFFFFFFFFFFFFFFFFFFFFFFFFFF
310
FFFFFFFFFFFFFFFFFFFFFFFFFFFFFFFFFFFFFFFFFFFFFFFFFFFFFFFFFFFFFFFF
310
FFFFFFFFFFFFFFFFFFFFFFFFFFFFFFFFFFFFFFFFFFFFFFFFF000FFFFFFFFFFFF
310
FFFFFFFFFFFFFFFFFFFFFFFFFFFFFFFFFFFFFFFFFFFFFFFFFFFFFFFFFFFFFFFF
310
FFFFFFFFFFFFFFFFFFFFFFFFFFFFFFFFFFFFFFFFFFFFFFFFFFFFFFFFFFFFFFFF
310
FFFFFFFFFFFFFFFFFFFFFFFFFFFFFFFFF0000000000000000000000000000000
310
0000000000000000000000000000000000000000000000000000000000000000
310
0000000000000000000000000000000000000000000000000000000000000000
310
0000000000000000000000000000000000000000000000000000000000000000
310
0000000000000000000000000000000000000000000000000000000000000000
310
0000000000000000000000000000000000000000000000000000000000000000
310
0000000000000000000000000000000000000000000000000000000000000000
310
0000000000000000000000000000000000000000000000000000000000000000
310
0000000000000000000000000000000000000000000000000000000000000000
310
0000000000000000000000000000000000000000000000000000000000000000
310
0000000000000000000000000000000000000000000000000000000000000000
310
0000000000000000000000000000000000000000000000000000000000000000
310
0000000000000000000000000000000000000000000000000000000000000000
310
0000000000000000000000000000000000000000000000000000000000000000
310
0000000000000000000000000000000000000000000000000000000000000000
310
0000000000000000000000000000000000000000000000000000000000000000
  1
OLE
  0
ENDSEC
  0
SECTION
  2
OBJECTS
  0
DICTIONARY
  5
C
330
0
100
AcDbDictionary
281
     1
  3
ACAD_GROUP
350
D
  3
ACAD_LAYOUT
350
1A
  3
ACAD_MLINESTYLE
350
17
  3
ACAD_PLOTSETTINGS
350
19
  3
ACAD_PLOTSTYLENAME
350
E
  0
DICTIONARY
  5
D
102
{ACAD_REACTORS
330
C
102
}
330
C
100
AcDbDictionary
281
     1
  0
DICTIONARY
  5
1A
102
{ACAD_REACTORS
330
C
102
}
330
C
100
AcDbDictionary
281
     1
  3
Layout1
350
1E
  3
Layout2
350
26
  3
Model
350
22
  0
DICTIONARY
  5
17
102
{ACAD_REACTORS
330
C
102
}
330
C
100
AcDbDictionary
281
     1
  3
Standard
350
18
  0
DICTIONARY
  5
19
102
{ACAD_REACTORS
330
C
102
}
330
C
100
AcDbDictionary
281
     1
  0
ACDBDICTIONARYWDFLT
  5
E
102
{ACAD_REACTORS
330
C
102
}
330
C
100
AcDbDictionary
281
     1
  3
Normal
350
F
100
AcDbDictionaryWithDefault
340
F
  0
LAYOUT
  5
1E
102
{ACAD_REACTORS
330
1A
102
}
330
1A
100
AcDbPlotSettings
  1

  2
none_device
  4

  6

 40
0.0
 41
0.0
 42
0.0
 43
0.0
 44
0.0
 45
0.0
 46
0.0
 47
0.0
 48
0.0
 49
0.0
140
0.0
141
0.0
142
1.0
143
1.0
 70
   688
 72
     0
 73
     0
 74
     5
  7

 75
    16
147
1.0
148
0.0
149
0.0
100
AcDbLayout
  1
Layout1
 70
     1
 71
     1
 10
0.0
 20
0.0
 11
420.0
 21
297.0
 12
0.0
 22
0.0
 32
0.0
 14
1.0000000000E+20
 24
1.0000000000E+20
 34
1.0000000000E+20
 15
-1.0000000000E+20
 25
-1.0000000000E+20
 35
-1.0000000000E+20
146
0.0
 13
0.0
 23
0.0
 33
0.0
 16
1.0
 26
0.0
 36
0.0
 17
0.0
 27
1.0
 37
0.0
 76
     0
330
1B
  0
LAYOUT
  5
26
102
{ACAD_REACTORS
330
1A
102
}
330
1A
100
AcDbPlotSettings
  1

  2
none_device
  4

  6

 40
0.0
 41
0.0
 42
0.0
 43
0.0
 44
0.0
 45
0.0
 46
0.0
 47
0.0
 48
0.0
 49
0.0
140
0.0
141
0.0
142
1.0
143
1.0
 70
   688
 72
     0
 73
     0
 74
     5
  7

 75
    16
147
1.0
148
0.0
149
0.0
100
AcDbLayout
  1
Layout2
 70
     1
 71
     2
 10
0.0
 20
0.0
 11
0.0
 21
0.0
 12
0.0
 22
0.0
 32
0.0
 14
0.0
 24
0.0
 34
0.0
 15
0.0
 25
0.0
 35
0.0
146
0.0
 13
0.0
 23
0.0
 33
0.0
 16
1.0
 26
0.0
 36
0.0
 17
0.0
 27
1.0
 37
0.0
 76
     0
330
23
  0
LAYOUT
  5
22
102
{ACAD_REACTORS
330
1A
102
}
330
1A
100
AcDbPlotSettings
  1

  2
none_device
  4

  6

 40
0.0
 41
0.0
 42
0.0
 43
0.0
 44
0.0
 45
0.0
 46
0.0
 47
0.0
 48
0.0
 49
0.0
140
0.0
141
0.0
142
1.0
143
1.0
 70
  1712
 72
     0
 73
     0
 74
     0
  7

 75
     0
147
1.0
148
0.0
149
0.0
100
AcDbLayout
  1
Model
 70
     1
 71
     0
 10
0.0
 20
0.0
 11
297.0
 21
210.0
 12
0.0
 22
0.0
 32
0.0
 14
0.0
 24
0.0
 34
0.0
 15
297.0
 25
210.0
 35
0.0
146
0.0
 13
0.0
 23
0.0
 33
0.0
 16
1.0
 26
0.0
 36
0.0
 17
0.0
 27
1.0
 37
0.0
 76
     0
330
1F
331
29
  0
MLINESTYLE
  5
18
102
{ACAD_REACTORS
330
17
102
}
330
17
100
AcDbMlineStyle
  2
Standard
 70
     0
  3

 62
   256
 51
90.0
 52
90.0
 71
     2
 49
0.5
 62
   256
  6
BYLAYER
 49
-0.5
 62
   256
  6
BYLAYER
  0
ACDBPLACEHOLDER
  5
F
102
{ACAD_REACTORS
330
E
102
}
330
E
  0
ENDSEC
  0
EOF
