  0
SECTION
  2
HEADER
  9
$ACADVER
  1
AC1015
  9
$ACADMAINTVER
 70
     6
  9
$DWGCODEPAGE
  3
ANSI_1252
  9
$INSBASE
 10
0.0
 20
0.0
 30
0.0
  9
$EXTMIN
 10
0.0
 20
0.0
 30
0.0
  9
$EXTMAX
 10
297.0
 20
210.0
 30
0.0
  9
$LIMMIN
 10
0.0
 20
0.0
  9
$LIMMAX
 10
297.0
 20
210.0
  9
$ORTHOMODE
 70
     0
  9
$REGENMODE
 70
     1
  9
$FILLMODE
 70
     1
  9
$QTEXTMODE
 70
     0
  9
$MIRRTEXT
 70
     1
  9
$LTSCALE
 40
1.0
  9
$ATTMODE
 70
     1
  9
$TEXTSIZE
 40
2.0
  9
$TRACEWID
 40
1.0
  9
$TEXTSTYLE
  7
Standard
  9
$CLAYER
  8
0
  9
$CELTYPE
  6
ByLayer
  9
$CECOLOR
 62
   256
  9
$CELTSCALE
 40
1.0
  9
$DISPSILH
 70
     0
  9
$DIMSCALE
 40
1.0
  9
$DIMASZ
 40
3.0
  9
$DIMEXO
 40
0.0
  9
$DIMDLI
 40
3.75
  9
$DIMRND
 40
0.0
  9
$DIMDLE
 40
0.0
  9
$DIMEXE
 40
1.0
  9
$DIMTP
 40
0.0
  9
$DIMTM
 40
0.0
  9
$DIMTXT
 40
2.0
  9
$DIMCEN
 40
2.5
  9
$DIMTSZ
 40
0.0
  9
$DIMTOL
 70
     0
  9
$DIMLIM
 70
     0
  9
$DIMTIH
 70
     1
  9
$DIMTOH
 70
     1
  9
$DIMSE1
 70
     0
  9
$DIMSE2
 70
     0
  9
$DIMTAD
 70
     1
  9
$DIMZIN
 70
     0
  9
$DIMBLK
  1

  9
$DIMASO
 70
     1
  9
$DIMSHO
 70
     1
  9
$DIMPOST
  1

  9
$DIMAPOST
  1

  9
$DIMALT
 70
     0
  9
$DIMALTD
 70
     3
  9
$DIMALTF
 40
0.0393700787
  9
$DIMLFAC
 40
1.0
  9
$DIMTOFL
 70
     1
  9
$DIMTVP
 40
0.0
  9
$DIMTIX
 70
     0
  9
$DIMSOXD
 70
     0
  9
$DIMSAH
 70
     0
  9
$DIMBLK1
  1

  9
$DIMBLK2
  1

  9
$DIMSTYLE
  2
ISO-25
  9
$DIMCLRD
 70
     0
  9
$DIMCLRE
 70
     0
  9
$DIMCLRT
 70
     0
  9
$DIMTFAC
 40
1.0
  9
$DIMGAP
 40
1.524
  9
$DIMJUST
 70
     0
  9
$DIMSD1
 70
     0
  9
$DIMSD2
 70
     0
  9
$DIMTOLJ
 70
     0
  9
$DIMTZIN
 70
     0
  9
$DIMALTZ
 70
     0
  9
$DIMALTTZ
 70
     0
  9
$DIMUPT
 70
     0
  9
$DIMDEC
 70
     2
  9
$DIMTDEC
 70
     3
  9
$DIMALTU
 70
     2
  9
$DIMALTTD
 70
     3
  9
$DIMTXSTY
  7
Standard
  9
$DIMAUNIT
 70
     0
  9
$DIMADEC
 70
     2
  9
$DIMALTRND
 40
0.0
  9
$DIMAZIN
 70
     0
  9
$DIMDSEP
 70
    44
  9
$DIMATFIT
 70
     3
  9
$DIMFRAC
 70
     0
  9
$DIMLDRBLK
  1

  9
$DIMLUNIT
 70
     2
  9
$DIMLWD
 70
    -2
  9
$DIMLWE
 70
    -2
  9
$DIMTMOVE
 70
     0
  9
$LUNITS
 70
     2
  9
$LUPREC
 70
     2
  9
$SKETCHINC
 40
1.0
  9
$FILLETRAD
 40
10.0
  9
$AUNITS
 70
     0
  9
$AUPREC
 70
     2
  9
$MENU
  1
.
  9
$ELEVATION
 40
0.0
  9
$PELEVATION
 40
0.0
  9
$THICKNESS
 40
0.0
  9
$LIMCHECK
 70
     0
  9
$CHAMFERA
 40
10.0
  9
$CHAMFERB
 40
10.0
  9
$CHAMFERC
 40
20.0
  9
$CHAMFERD
 40
0.0
  9
$SKPOLY
 70
     0
  9
$TDCREATE
 40
2455673.443145128
  9
$TDUCREATE
 40
2455673.359811794
  9
$TDUPDATE
 40
2455673.443145139
  9
$TDUUPDATE
 40
2455673.359811806
  9
$TDINDWG
 40
0.0000000116
  9
$TDUSRTIMER
 40
0.0000000116
  9
$USRTIMER
 70
     1
  9
$ANGBASE
 50
0.0
  9
$ANGDIR
 70
     0
  9
$PDMODE
 70
     0
  9
$PDSIZE
 40
-1.0
  9
$PLINEWID
 40
0.0
  9
$SPLFRAME
 70
     0
  9
$SPLINETYPE
 70
     6
  9
$SPLINESEGS
 70
     8
  9
$HANDSEED
  5
21B
  9
$SURFTAB1
 70
     6
  9
$SURFTAB2
 70
     6
  9
$SURFTYPE
 70
     6
  9
$SURFU
 70
     6
  9
$SURFV
 70
     6
  9
$UCSBASE
  2

  9
$UCSNAME
  2

  9
$UCSORG
 10
0.0
 20
0.0
 30
0.0
  9
$UCSXDIR
 10
1.0
 20
0.0
 30
0.0
  9
$UCSYDIR
 10
0.0
 20
1.0
 30
0.0
  9
$UCSORTHOREF
  2

  9
$UCSORTHOVIEW
 70
     0
  9
$UCSORGTOP
 10
0.0
 20
0.0
 30
0.0
  9
$UCSORGBOTTOM
 10
0.0
 20
0.0
 30
0.0
  9
$UCSORGLEFT
 10
0.0
 20
0.0
 30
0.0
  9
$UCSORGRIGHT
 10
0.0
 20
0.0
 30
0.0
  9
$UCSORGFRONT
 10
0.0
 20
0.0
 30
0.0
  9
$UCSORGBACK
 10
0.0
 20
0.0
 30
0.0
  9
$PUCSBASE
  2

  9
$PUCSNAME
  2

  9
$PUCSORG
 10
0.0
 20
0.0
 30
0.0
  9
$PUCSXDIR
 10
1.0
 20
0.0
 30
0.0
  9
$PUCSYDIR
 10
0.0
 20
1.0
 30
0.0
  9
$PUCSORTHOREF
  2

  9
$PUCSORTHOVIEW
 70
     0
  9
$PUCSORGTOP
 10
0.0
 20
0.0
 30
0.0
  9
$PUCSORGBOTTOM
 10
0.0
 20
0.0
 30
0.0
  9
$PUCSORGLEFT
 10
0.0
 20
0.0
 30
0.0
  9
$PUCSORGRIGHT
 10
0.0
 20
0.0
 30
0.0
  9
$PUCSORGFRONT
 10
0.0
 20
0.0
 30
0.0
  9
$PUCSORGBACK
 10
0.0
 20
0.0
 30
0.0
  9
$USERI1
 70
     0
  9
$USERI2
 70
     0
  9
$USERI3
 70
     0
  9
$USERI4
 70
     0
  9
$USERI5
 70
     0
  9
$USERR1
 40
0.0
  9
$USERR2
 40
0.0
  9
$USERR3
 40
0.0
  9
$USERR4
 40
0.0
  9
$USERR5
 40
0.0
  9
$WORLDVIEW
 70
     1
  9
$SHADEDGE
 70
     3
  9
$SHADEDIF
 70
    70
  9
$TILEMODE
 70
     1
  9
$MAXACTVP
 70
    64
  9
$PINSBASE
 10
0.0
 20
0.0
 30
0.0
  9
$PLIMCHECK
 70
     0
  9
$PEXTMIN
 10
1.0000000000E+20
 20
1.0000000000E+20
 30
1.0000000000E+20
  9
$PEXTMAX
 10
-1.0000000000E+20
 20
-1.0000000000E+20
 30
-1.0000000000E+20
  9
$PLIMMIN
 10
0.0
 20
0.0
  9
$PLIMMAX
 10
420.0
 20
297.0
  9
$UNITMODE
 70
     0
  9
$VISRETAIN
 70
     1
  9
$PLINEGEN
 70
     0
  9
$PSLTSCALE
 70
     1
  9
$TREEDEPTH
 70
  3020
  9
$CMLSTYLE
  2
Standard
  9
$CMLJUST
 70
     0
  9
$CMLSCALE
 40
20.0
  9
$PROXYGRAPHICS
 70
     1
  9
$MEASUREMENT
 70
     1
  9
$CELWEIGHT
370
    -1
  9
$ENDCAPS
280
     0
  9
$JOINSTYLE
280
     0
  9
$LWDISPLAY
290
     1
  9
$INSUNITS
 70
     4
  9
$HYPERLINKBASE
  1

  9
$STYLESHEET
  1

  9
$XEDIT
290
     1
  9
$CEPSNTYPE
380
     0
  9
$PSTYLEMODE
290
     1
  9
$FINGERPRINTGUID
  2
{19C66FF7-279C-4306-AAD0-5E6930CC18C7}
  9
$VERSIONGUID
  2
{FAEB1C32-E019-11D5-929B-00C0DF256EC4}
  9
$EXTNAMES
290
     1
  9
$PSVPSCALE
 40
0.0
  9
$OLESTARTUP
290
     0
  0
ENDSEC
  0
SECTION
  2
CLASSES
  0
CLASS
  1
ACDBDICTIONARYWDFLT
  2
AcDbDictionaryWithDefault
  3
ObjectDBX Classes
 90
        0
280
     0
281
     0
  0
CLASS
  1
VISUALSTYLE
  2
AcDbVisualStyle
  3
ObjectDBX Classes
 90
     4095
280
     0
281
     0
  0
CLASS
  1
DICTIONARYVAR
  2
AcDbDictionaryVar
  3
ObjectDBX Classes
 90
        0
280
     0
281
     0
  0
CLASS
  1
ACDBPLACEHOLDER
  2
AcDbPlaceHolder
  3
ObjectDBX Classes
 90
        0
280
     0
281
     0
  0
CLASS
  1
LAYOUT
  2
AcDbLayout
  3
ObjectDBX Classes
 90
        0
280
     0
281
     0
  0
ENDSEC
  0
SECTION
  2
TABLES
  0
TABLE
  2
VPORT
  5
8
330
0
100
AcDbSymbolTable
 70
     1
  0
VPORT
  5
29
330
8
100
AcDbSymbolTableRecord
100
AcDbViewportTableRecord
  2
*Active
 70
     0
 10
0.0
 20
0.0
 11
1.0
 21
1.0
 12
148.5
 22
105.0
 13
0.0
 23
0.0
 14
10.0
 24
10.0
 15
10.0
 25
10.0
 16
0.0
 26
0.0
 36
1.0
 17
0.0
 27
0.0
 37
0.0
 40
210.0
 41
1.4142857143
 42
50.0
 43
0.0
 44
0.0
 50
0.0
 51
0.0
 71
     0
 72
  2000
 73
     1
 74
     3
 75
     0
 76
     0
 77
     0
 78
     0
281
     0
 65
     1
110
0.0
120
0.0
130
0.0
111
1.0
121
0.0
131
0.0
112
0.0
122
1.0
132
0.0
 79
     0
146
0.0
  0
ENDTAB
  0
TABLE
  2
LTYPE
  5
5
330
0
100
AcDbSymbolTable
 70
     6
  0
LTYPE
  5
14
330
5
100
AcDbSymbolTableRecord
100
AcDbLinetypeTableRecord
  2
ByBlock
 70
     0
  3

 72
    65
 73
     0
 40
0.0
  0
LTYPE
  5
15
330
5
100
AcDbSymbolTableRecord
100
AcDbLinetypeTableRecord
  2
ByLayer
 70
     0
  3

 72
    65
 73
     0
 40
0.0
  0
LTYPE
  5
16
330
5
100
AcDbSymbolTableRecord
100
AcDbLinetypeTableRecord
  2
Continuous
 70
     0
  3
Solid line
 72
    65
 73
     0
 40
0.0
  0
LTYPE
  5
3B
330
5
100
AcDbSymbolTableRecord
100
AcDbLinetypeTableRecord
  2
HIDDEN
 70
     0
  3
Hidden __ __ __ __ __ __ __ __ __ __ __ __ __ __
 72
    65
 73
     2
 40
1.905
 49
1.27
 74
     0
 49
-0.635
 74
     0
  0
LTYPE
  5
3C
330
5
100
AcDbSymbolTableRecord
100
AcDbLinetypeTableRecord
  2
PHANTOM
 70
     0
  3
Phantom ______  __  __  ______  __  __  ______
 72
    65
 73
     6
 40
12.7
 49
6.35
 74
     0
 49
-1.27
 74
     0
 49
1.27
 74
     0
 49
-1.27
 74
     0
 49
1.27
 74
     0
 49
-1.27
 74
     0
  0
LTYPE
  5
3D
330
5
100
AcDbSymbolTableRecord
100
AcDbLinetypeTableRecord
  2
CENTER
 70
     0
  3
Center ____ _ ____ _ ____ _ ____ _ ____ _ ____
 72
    65
 73
     4
 40
10.16
 49
6.35
 74
     0
 49
-1.27
 74
     0
 49
1.27
 74
     0
 49
-1.27
 74
     0
  0
LTYPE
  5
3E
330
5
100
AcDbSymbolTableRecord
100
AcDbLinetypeTableRecord
  2
CENTERX2
 70
     0
  3
Center (2x) ________  __  ________  __  _____
 72
    65
 73
     4
 40
20.32
 49
12.7
 74
     0
 49
-2.54
 74
     0
 49
2.54
 74
     0
 49
-2.54
 74
     0
  0
LTYPE
  5
3F
330
5
100
AcDbSymbolTableRecord
100
AcDbLinetypeTableRecord
  2
DOT2
 70
     0
  3
Dot (.5x) ........................................
 72
    65
 73
     2
 40
0.635
 49
0.0
 74
     0
 49
-0.635
 74
     0
  0
ENDTAB
  0
TABLE
  2
LAYER
  5
2
330
0
100
AcDbSymbolTable
 70
     5
  0
LAYER
  5
10
330
2
100
AcDbSymbolTableRecord
100
AcDbLayerTableRecord
  2
0
 70
     0
 62
     7
  6
Continuous
370
    -3
390
F
  0
LAYER
  5
40
330
2
100
AcDbSymbolTableRecord
100
AcDbLayerTableRecord
  2
FORMAT
 70
     0
 62
     7
  6
Continuous
370
    -3
390
F
  0
LAYER
  5
41
330
2
100
AcDbSymbolTableRecord
100
AcDbLayerTableRecord
  2
VERMASSUNG
 70
     0
 62
     7
  6
Continuous
370
    -3
390
F
  0
LAYER
  5
42
330
2
100
AcDbSymbolTableRecord
100
AcDbLayerTableRecord
  2
KOPF_DÜNN
 70
     0
 62
     7
  6
Continuous
370
    -3
390
F
  0
LAYER
  5
43
330
2
100
AcDbSymbolTableRecord
100
AcDbLayerTableRecord
  2
KOPF_DICK
 70
     0
 62
     7
  6
Continuous
370
    15
390
F
  0
ENDTAB
  0
TABLE
  2
STYLE
  5
3
330
0
100
AcDbSymbolTable
 70
     3
  0
STYLE
  5
11
330
3
100
AcDbSymbolTableRecord
100
AcDbTextStyleTableRecord
  2
Standard
 70
     0
 40
0.0
 41
1.0
 50
0.0
 71
     0
 42
2.5
  3
txt
  4

  0
STYLE
  5
44
330
3
100
AcDbSymbolTableRecord
100
AcDbTextStyleTableRecord
  2
SLDTEXTSTYLE0
 70
     0
 40
0.0
 41
0.7
 50
0.0
 71
     0
 42
0.2
  3
TXT
  4

  0
STYLE
  5
48
330
3
100
AcDbSymbolTableRecord
100
AcDbTextStyleTableRecord
  2
SLDTEXTSTYLE1
 70
     0
 40
0.0
 41
0.6473684211
 50
0.0
 71
     0
 42
0.2
  3
TXT
  4

  0
ENDTAB
  0
TABLE
  2
VIEW
  5
6
330
0
100
AcDbSymbolTable
 70
     0
  0
ENDTAB
  0
TABLE
  2
UCS
  5
7
330
0
100
AcDbSymbolTable
 70
     0
  0
ENDTAB
  0
TABLE
  2
APPID
  5
9
330
0
100
AcDbSymbolTable
 70
     1
  0
APPID
  5
12
330
9
100
AcDbSymbolTableRecord
100
AcDbRegAppTableRecord
  2
ACAD
 70
     0
  0
ENDTAB
  0
TABLE
  2
DIMSTYLE
  5
A
330
0
100
AcDbSymbolTable
 70
     3
100
AcDbDimStyleTable
  0
DIMSTYLE
105
27
330
A
100
AcDbSymbolTableRecord
100
AcDbDimStyleTableRecord
  2
ISO-25
 70
     0
 41
2.5
 42
0.625
 43
3.75
 44
1.25
 73
     0
 74
     0
 77
     1
 78
     8
140
2.5
141
2.5
143
0.0393700787
147
0.625
171
     3
172
     1
271
     2
272
     2
274
     3
278
    44
283
     0
284
     8
340
11
  0
DIMSTYLE
105
1D1
102
{ACAD_REACTORS
330
1D0
330
1EB
330
1F5
330
1FF
330
209
102
}
330
A
100
AcDbSymbolTableRecord
100
AcDbDimStyleTableRecord
  2
SLDDIMSTYLE0
 70
     0
 41
3.0
 44
0.0
 45
0.000000001
 73
     0
 74
     0
 77
     1
 78
    12
140
2.0
147
0.5
173
     1
271
     2
272
     3
284
    12
340
44
  0
DIMSTYLE
105
1DE
102
{ACAD_REACTORS
330
1DD
102
}
330
A
100
AcDbSymbolTableRecord
100
AcDbDimStyleTableRecord
  2
SLDDIMSTYLE1
 70
     0
 41
3.0
 44
0.0
 45
0.000000001
 73
     0
 74
     0
 77
     1
 78
    12
140
2.0
147
0.5
173
     1
271
     2
272
     3
284
    12
340
44
  0
ENDTAB
  0
TABLE
  2
BLOCK_RECORD
  5
1
330
0
100
AcDbSymbolTable
 70
     7
  0
BLOCK_RECORD
  5
1F
330
1
100
AcDbSymbolTableRecord
100
AcDbBlockTableRecord
  2
*Model_Space
340
22
  0
BLOCK_RECORD
  5
1B
330
1
100
AcDbSymbolTableRecord
100
AcDbBlockTableRecord
  2
*Paper_Space
340
1E
  0
BLOCK_RECORD
  5
23
330
1
100
AcDbSymbolTableRecord
100
AcDbBlockTableRecord
  2
*Paper_Space0
340
26
  0
BLOCK_RECORD
  5
1D2
330
1
100
AcDbSymbolTableRecord
100
AcDbBlockTableRecord
  2
*D1
340
0
  0
BLOCK_RECORD
  5
1DF
330
1
100
AcDbSymbolTableRecord
100
AcDbBlockTableRecord
  2
*D2
340
0
  0
BLOCK_RECORD
  5
1EC
330
1
100
AcDbSymbolTableRecord
100
AcDbBlockTableRecord
  2
*D3
340
0
  0
BLOCK_RECORD
  5
1F6
330
1
100
AcDbSymbolTableRecord
100
AcDbBlockTableRecord
  2
*D4
340
0
  0
BLOCK_RECORD
  5
200
330
1
100
AcDbSymbolTableRecord
100
AcDbBlockTableRecord
  2
*D5
340
0
  0
BLOCK_RECORD
  5
20A
330
1
100
AcDbSymbolTableRecord
100
AcDbBlockTableRecord
  2
*D6
340
0
  0
ENDTAB
  0
ENDSEC
  0
SECTION
  2
BLOCKS
  0
BLOCK
  5
20
330
1F
100
AcDbEntity
  8
0
100
AcDbBlockBegin
  2
*Model_Space
 70
     0
 10
0.0
 20
0.0
 30
0.0
  3
*Model_Space
  1

  0
ENDBLK
  5
21
330
1F
100
AcDbEntity
  8
0
100
AcDbBlockEnd
  0
BLOCK
  5
1C
330
1B
100
AcDbEntity
 67
     1
  8
0
100
AcDbBlockBegin
  2
*Paper_Space
 70
     0
 10
0.0
 20
0.0
 30
0.0
  3
*Paper_Space
  1

  0
ENDBLK
  5
1D
330
1B
100
AcDbEntity
 67
     1
  8
0
100
AcDbBlockEnd
  0
BLOCK
  5
24
330
23
100
AcDbEntity
  8
0
100
AcDbBlockBegin
  2
*Paper_Space0
 70
     0
 10
0.0
 20
0.0
 30
0.0
  3
*Paper_Space0
  1

  0
ENDBLK
  5
25
330
23
100
AcDbEntity
  8
0
100
AcDbBlockEnd
  0
BLOCK
  5
1D3
330
1D2
100
AcDbEntity
  8
0
100
AcDbBlockBegin
  2
*D1
 70
     1
 10
0.0
 20
0.0
 30
0.0
  3
*D1
  1

  0
SOLID
  5
1D5
330
1D2
100
AcDbEntity
  8
VERMASSUNG
100
AcDbTrace
 10
50.7742170541
 20
137.179735057
 30
0.0
 11
50.3242170541
 21
134.179735057
 31
0.0
 12
51.2242170541
 22
134.179735057
 32
0.0
 13
51.2242170541
 23
134.179735057
 33
0.0
  0
SOLID
  5
1D6
330
1D2
100
AcDbEntity
  8
VERMASSUNG
100
AcDbTrace
 10
50.7742170541
 20
74.179735057
 30
0.0
 11
51.2242170541
 21
77.179735057
 31
0.0
 12
50.3242170541
 22
77.179735057
 32
0.0
 13
50.3242170541
 23
77.179735057
 33
0.0
  0
LINE
  5
1D7
330
1D2
100
AcDbEntity
  8
VERMASSUNG
100
AcDbLine
 10
90.8066043826
 20
137.179735057
 30
0.0
 11
49.7742170541
 21
137.179735057
 31
0.0
  0
LINE
  5
1D8
330
1D2
100
AcDbEntity
  8
VERMASSUNG
100
AcDbLine
 10
90.8066043826
 20
74.179735057
 30
0.0
 11
49.7742170541
 21
74.179735057
 31
0.0
  0
LINE
  5
1D9
330
1D2
100
AcDbEntity
  8
VERMASSUNG
100
AcDbLine
 10
50.7742170541
 20
137.179735057
 30
0.0
 11
50.7742170541
 21
74.179735057
 31
0.0
  0
MTEXT
  5
1DA
330
1D2
100
AcDbEntity
  8
VERMASSUNG
100
AcDbMText
 10
47.9960815651
 20
95.9485764053
 30
0.0
 40
2.0
 41
0.0
 71
     1
 72
     1
  1
HSK A 
  7
SLDTEXTSTYLE0
 11
-7.044195017643634E-15
 21
1.0
 31
0.0
 73
     1
 44
1.0
  0
MTEXT
  5
1DB
330
1D2
100
AcDbEntity
  8
VERMASSUNG
100
AcDbMText
 10
48.1960815746
 20
104.9485769492
 30
0.0
 40
2.0
 41
0.0
 71
     1
 72
     1
  1
%%c
  7
SLDTEXTSTYLE0
 11
-7.044195017643634E-15
 21
1.0
 31
0.0
 73
     1
 44
1.0
  0
MTEXT
  5
1DC
330
1D2
100
AcDbEntity
  8
VERMASSUNG
100
AcDbMText
 10
48.196081691
 20
108.5569035993
 30
0.0
 40
2.0
 41
0.0
 71
     1
 72
     1
  1
63
  7
SLDTEXTSTYLE0
 11
-7.044195017643634E-15
 21
1.0
 31
0.0
 73
     1
 44
1.0
  0
ENDBLK
  5
1D4
330
1D2
100
AcDbEntity
  8
0
100
AcDbBlockEnd
  0
BLOCK
  5
1E0
330
1DF
100
AcDbEntity
  8
0
100
AcDbBlockBegin
  2
*D2
 70
     1
 10
0.0
 20
0.0
 30
0.0
  3
*D2
  1

  0
SOLID
  5
1E2
330
1DF
100
AcDbEntity
  8
VERMASSUNG
100
AcDbTrace
 10
256.0366418314
 20
108.679735057
 30
0.0
 11
256.4866418314
 21
111.679735057
 31
0.0
 12
255.5866418314
 22
111.679735057
 32
0.0
 13
255.5866418314
 23
111.679735057
 33
0.0
  0
SOLID
  5
1E3
330
1DF
100
AcDbEntity
  8
VERMASSUNG
100
AcDbTrace
 10
256.0366418314
 20
102.679735057
 30
0.0
 11
255.5866418314
 21
99.679735057
 31
0.0
 12
256.4866418314
 22
99.679735057
 32
0.0
 13
256.4866418314
 23
99.679735057
 33
0.0
  0
LINE
  5
1E4
330
1DF
100
AcDbEntity
  8
VERMASSUNG
100
AcDbLine
 10
250.2066043826
 20
108.679735057
 30
0.0
 11
257.0366418314
 21
108.679735057
 31
0.0
  0
LINE
  5
1E5
330
1DF
100
AcDbEntity
  8
VERMASSUNG
100
AcDbLine
 10
250.2066043826
 20
102.679735057
 30
0.0
 11
257.0366418314
 21
102.679735057
 31
0.0
  0
LINE
  5
1E6
330
1DF
100
AcDbEntity
  8
VERMASSUNG
100
AcDbLine
 10
256.0366418314
 20
108.679735057
 30
0.0
 11
256.0366418314
 21
114.679735057
 31
0.0
  0
LINE
  5
1E7
330
1DF
100
AcDbEntity
  8
VERMASSUNG
100
AcDbLine
 10
256.0366418314
 20
108.679735057
 30
0.0
 11
256.0366418314
 21
102.679735057
 31
0.0
  0
LINE
  5
1E8
330
1DF
100
AcDbEntity
  8
VERMASSUNG
100
AcDbLine
 10
256.0366418314
 20
102.679735057
 30
0.0
 11
256.0366418314
 21
96.679735057
 31
0.0
  0
MTEXT
  5
1E9
330
1DF
100
AcDbEntity
  8
VERMASSUNG
100
AcDbMText
 10
253.4585063519
 20
103.175706888
 30
0.0
 40
2.0
 41
0.0
 71
     1
 72
     1
  1
%%c
  7
SLDTEXTSTYLE0
 11
-7.044195017643634E-15
 21
1.0
 31
0.0
 73
     1
 44
1.0
  0
MTEXT
  5
1EA
330
1DF
100
AcDbEntity
  8
VERMASSUNG
100
AcDbMText
 10
253.4585064683
 20
106.7843851112
 30
0.0
 40
2.0
 41
0.0
 71
     1
 72
     1
  1
6
  7
SLDTEXTSTYLE0
 11
-7.044195017643634E-15
 21
1.0
 31
0.0
 73
     1
 44
1.0
  0
ENDBLK
  5
1E1
330
1DF
100
AcDbEntity
  8
0
100
AcDbBlockEnd
  0
BLOCK
  5
1ED
330
1EC
100
AcDbEntity
  8
0
100
AcDbBlockBegin
  2
*D3
 70
     1
 10
0.0
 20
0.0
 30
0.0
  3
*D3
  1

  0
SOLID
  5
1EF
330
1EC
100
AcDbEntity
  8
VERMASSUNG
100
AcDbTrace
 10
250.5066043826
 20
142.9433369447
 30
0.0
 11
247.5066043826
 21
143.3933369447
 31
0.0
 12
247.5066043826
 22
142.4933369447
 32
0.0
 13
247.5066043826
 23
142.4933369447
 33
0.0
  0
SOLID
  5
1F0
330
1EC
100
AcDbEntity
  8
VERMASSUNG
100
AcDbTrace
 10
116.4566043826
 20
142.9433369447
 30
0.0
 11
119.4566043826
 21
142.4933369447
 31
0.0
 12
119.4566043826
 22
143.3933369447
 32
0.0
 13
119.4566043826
 23
143.3933369447
 33
0.0
  0
LINE
  5
1F1
330
1EC
100
AcDbEntity
  8
VERMASSUNG
100
AcDbLine
 10
250.5066043826
 20
112.9055945354
 30
0.0
 11
250.5066043826
 21
143.9433369447
 31
0.0
  0
LINE
  5
1F2
330
1EC
100
AcDbEntity
  8
VERMASSUNG
100
AcDbLine
 10
116.4566043826
 20
135.5261753808
 30
0.0
 11
116.4566043826
 21
143.9433369447
 31
0.0
  0
LINE
  5
1F3
330
1EC
100
AcDbEntity
  8
VERMASSUNG
100
AcDbLine
 10
250.5066043826
 20
142.9433369447
 30
0.0
 11
116.4566043826
 21
142.9433369447
 31
0.0
  0
MTEXT
  5
1F4
330
1EC
100
AcDbEntity
  8
VERMASSUNG
100
AcDbMText
 10
179.7824191171
 20
145.5214723079
 30
0.0
 40
2.0
 41
0.0
 71
     1
 72
     1
  1
134.05
  7
SLDTEXTSTYLE0
 73
     1
 44
1.0
  0
ENDBLK
  5
1EE
330
1EC
100
AcDbEntity
  8
0
100
AcDbBlockEnd
  0
BLOCK
  5
1F7
330
1F6
100
AcDbEntity
  8
0
100
AcDbBlockBegin
  2
*D4
 70
     1
 10
0.0
 20
0.0
 30
0.0
  3
*D4
  1

  0
SOLID
  5
1F9
330
1F6
100
AcDbEntity
  8
VERMASSUNG
100
AcDbTrace
 10
90.5066043826
 20
148.9433369447
 30
0.0
 11
93.5066043826
 21
148.4933369447
 31
0.0
 12
93.5066043826
 22
149.3933369447
 32
0.0
 13
93.5066043826
 23
149.3933369447
 33
0.0
  0
SOLID
  5
1FA
330
1F6
100
AcDbEntity
  8
VERMASSUNG
100
AcDbTrace
 10
250.5066043826
 20
148.9433369447
 30
0.0
 11
247.5066043826
 21
149.3933369447
 31
0.0
 12
247.5066043826
 22
148.4933369447
 32
0.0
 13
247.5066043826
 23
148.4933369447
 33
0.0
  0
LINE
  5
1FB
330
1F6
100
AcDbEntity
  8
VERMASSUNG
100
AcDbLine
 10
90.5066043826
 20
136.879735057
 30
0.0
 11
90.5066043826
 21
149.9433369447
 31
0.0
  0
LINE
  5
1FC
330
1F6
100
AcDbEntity
  8
VERMASSUNG
100
AcDbLine
 10
250.5066043826
 20
112.9055945354
 30
0.0
 11
250.5066043826
 21
149.9433369447
 31
0.0
  0
LINE
  5
1FD
330
1F6
100
AcDbEntity
  8
VERMASSUNG
100
AcDbLine
 10
90.5066043826
 20
148.9433369447
 30
0.0
 11
250.5066043826
 21
148.9433369447
 31
0.0
  0
MTEXT
  5
1FE
330
1F6
100
AcDbEntity
  8
VERMASSUNG
100
AcDbMText
 10
168.6071168419
 20
151.5214723079
 30
0.0
 40
2.0
 41
0.0
 71
     1
 72
     1
  1
160
  7
SLDTEXTSTYLE0
 73
     1
 44
1.0
  0
ENDBLK
  5
1F8
330
1F6
100
AcDbEntity
  8
0
100
AcDbBlockEnd
  0
BLOCK
  5
201
330
200
100
AcDbEntity
  8
0
100
AcDbBlockBegin
  2
*D5
 70
     1
 10
0.0
 20
0.0
 30
0.0
  3
*D5
  1

  0
SOLID
  5
203
330
200
100
AcDbEntity
  8
VERMASSUNG
100
AcDbTrace
 10
250.5066043826
 20
154.9433369447
 30
0.0
 11
247.5066043826
 21
155.3933369447
 31
0.0
 12
247.5066043826
 22
154.4933369447
 32
0.0
 13
247.5066043826
 23
154.4933369447
 33
0.0
  0
SOLID
  5
204
330
200
100
AcDbEntity
  8
VERMASSUNG
100
AcDbTrace
 10
58.6066043826
 20
154.9433369447
 30
0.0
 11
61.6066043826
 21
154.4933369447
 31
0.0
 12
61.6066043826
 22
155.3933369447
 32
0.0
 13
61.6066043826
 23
155.3933369447
 33
0.0
  0
LINE
  5
205
330
200
100
AcDbEntity
  8
VERMASSUNG
100
AcDbLine
 10
250.5066043826
 20
112.9055945354
 30
0.0
 11
250.5066043826
 21
155.9433369447
 31
0.0
  0
LINE
  5
206
330
200
100
AcDbEntity
  8
VERMASSUNG
100
AcDbLine
 10
58.6066043826
 20
125.3704128035
 30
0.0
 11
58.6066043826
 21
155.9433369447
 31
0.0
  0
LINE
  5
207
330
200
100
AcDbEntity
  8
VERMASSUNG
100
AcDbLine
 10
250.5066043826
 20
154.9433369447
 30
0.0
 11
58.6066043826
 21
154.9433369447
 31
0.0
  0
MTEXT
  5
208
330
200
100
AcDbEntity
  8
VERMASSUNG
100
AcDbMText
 10
151.8576379687
 20
157.5214723079
 30
0.0
 40
2.0
 41
0.0
 71
     1
 72
     1
  1
191.9
  7
SLDTEXTSTYLE0
 73
     1
 44
1.0
  0
ENDBLK
  5
202
330
200
100
AcDbEntity
  8
0
100
AcDbBlockEnd
  0
BLOCK
  5
20B
330
20A
100
AcDbEntity
  8
0
100
AcDbBlockBegin
  2
*D6
 70
     1
 10
0.0
 20
0.0
 30
0.0
  3
*D6
  1

  0
SOLID
  5
20D
330
20A
100
AcDbEntity
  8
VERMASSUNG
100
AcDbTrace
 10
262.0366418314
 20
120.679735057
 30
0.0
 11
261.5866418314
 21
117.679735057
 31
0.0
 12
262.4866418314
 22
117.679735057
 32
0.0
 13
262.4866418314
 23
117.679735057
 33
0.0
  0
SOLID
  5
20E
330
20A
100
AcDbEntity
  8
VERMASSUNG
100
AcDbTrace
 10
262.0366418314
 20
90.679735057
 30
0.0
 11
262.4866418314
 21
93.679735057
 31
0.0
 12
261.5866418314
 22
93.679735057
 32
0.0
 13
261.5866418314
 23
93.679735057
 33
0.0
  0
LINE
  5
20F
330
20A
100
AcDbEntity
  8
VERMASSUNG
100
AcDbLine
 10
236.5673093993
 20
120.679735057
 30
0.0
 11
263.0366418314
 21
120.679735057
 31
0.0
  0
LINE
  5
210
330
20A
100
AcDbEntity
  8
VERMASSUNG
100
AcDbLine
 10
236.5673093993
 20
90.679735057
 30
0.0
 11
263.0366418314
 21
90.679735057
 31
0.0
  0
LINE
  5
211
330
20A
100
AcDbEntity
  8
VERMASSUNG
100
AcDbLine
 10
262.0366418314
 20
120.679735057
 30
0.0
 11
262.0366418314
 21
90.679735057
 31
0.0
  0
MTEXT
  5
212
330
20A
100
AcDbEntity
  8
VERMASSUNG
100
AcDbMText
 10
259.4585063519
 20
102.4760178306
 30
0.0
 40
2.0
 41
0.0
 71
     1
 72
     1
  1
%%c
  7
SLDTEXTSTYLE0
 11
-7.044195017643634E-15
 21
1.0
 31
0.0
 73
     1
 44
1.0
  0
MTEXT
  5
213
330
20A
100
AcDbEntity
  8
VERMASSUNG
100
AcDbMText
 10
259.4585064683
 20
106.0846960538
 30
0.0
 40
2.0
 41
0.0
 71
     1
 72
     1
  1
30
  7
SLDTEXTSTYLE0
 11
-7.044195017643634E-15
 21
1.0
 31
0.0
 73
     1
 44
1.0
  0
ENDBLK
  5
20C
330
20A
100
AcDbEntity
  8
0
100
AcDbBlockEnd
  0
ENDSEC
  0
SECTION
  2
ENTITIES
  0
MTEXT
  5
45
330
1F
100
AcDbEntity
  8
KOPF_DÜNN
100
AcDbMText
 10
13.8892156294
 20
23.8442973028
 30
0.0
 40
3.0
 41
0.0
 71
     1
 72
     1
  1
HA6.W06.K21.160
  7
SLDTEXTSTYLE0
 73
     1
 44
1.0
  0
MTEXT
  5
46
330
1F
100
AcDbEntity
  8
VERMASSUNG
100
AcDbMText
 10
13.9329988022
 20
28.8834360957
 30
0.0
 40
3.0
 41
0.0
 71
     1
 72
     1
  1
Flächenspannfutter_End mill adapter Weldon ø6
  7
SLDTEXTSTYLE0
 73
     1
 44
1.0
  0
MTEXT
  5
47
330
1F
100
AcDbEntity
  8
VERMASSUNG
100
AcDbMText
 10
98.8601118557
 20
13.8365368179
 30
0.0
 40
2.0
 41
0.0
 71
     1
 72
     1
  1
Datum: 09.10.2006
  7
SLDTEXTSTYLE0
 73
     1
 44
1.0
  0
MTEXT
  5
49
330
1F
100
AcDbEntity
  8
VERMASSUNG
100
AcDbMText
 10
13.933048693
 20
18.0482802738
 30
0.0
 40
2.0
 41
0.0
 71
     1
 72
     1
  1
DIN 69 893 HSK A 63
  7
SLDTEXTSTYLE1
 73
     1
 44
1.0
  0
MTEXT
  5
4A
330
1F
100
AcDbEntity
  8
VERMASSUNG
100
AcDbMText
 10
13.9808475933
 20
13.9090973692
 30
0.0
 40
2.0
 41
0.0
 71
     1
 72
     1
  1
Gewicht: 1336g
  7
SLDTEXTSTYLE0
 73
     1
 44
1.0
  0
LINE
  5
4B
330
1F
100
AcDbEntity
  8
0
  6
Continuous
 62
     7
370
    15
100
AcDbLine
 10
250.5066008063
 20
100.2769353613
 30
0.0
 11
250.5715102645
 21
100.3971160203
 31
0.0
  0
LINE
  5
4C
330
1F
100
AcDbEntity
  8
0
  6
Continuous
 62
     7
370
    15
100
AcDbLine
 10
250.5133659335
 20
110.9639694728
 30
0.0
 11
250.5066008063
 21
110.9765013493
 31
0.0
  0
ARC
  5
4D
330
1F
100
AcDbEntity
  8
0
  6
Continuous
 62
     7
370
    15
100
AcDbCircle
 10
90.8066043826
 20
74.479735057
 30
0.0
 40
0.3000000000000114
100
AcDbArc
 50
180.0
 51
270.0
  0
ARC
  5
4E
330
1F
100
AcDbEntity
  8
0
  6
Continuous
 62
     7
370
    15
100
AcDbCircle
 10
90.8066043826
 20
136.879735057
 30
0.0
 40
0.3000000000000114
100
AcDbArc
 50
90.0
 51
180.0
  0
LINE
  5
4F
330
1F
100
AcDbEntity
  8
0
  6
Continuous
 62
     7
370
    15
100
AcDbLine
 10
90.8066043968
 20
74.1797345504
 30
0.0
 11
95.4566043558
 21
74.1797345504
 31
0.0
  0
LINE
  5
50
330
1F
100
AcDbEntity
  8
0
  6
Continuous
 62
     7
370
    15
100
AcDbLine
 10
95.4845929274
 20
137.1797355637
 30
0.0
 11
90.8066043968
 21
137.1797355637
 31
0.0
  0
ARC
  5
51
330
1F
100
AcDbEntity
  8
0
  6
Continuous
 62
     7
370
    15
100
AcDbCircle
 10
90.0065976299
 20
81.1092974426
 30
0.0
 40
0.6000067526677242
100
AcDbArc
 50
33.5571153394
 51
90.0
  0
ARC
  5
52
330
1F
100
AcDbEntity
  8
0
  6
Continuous
 62
     7
370
    15
100
AcDbCircle
 10
90.0065976299
 20
130.2501726714
 30
0.0
 40
0.6000067526677242
100
AcDbArc
 50
270.0
 51
326.4428846606
  0
LINE
  5
53
330
1F
100
AcDbEntity
  8
0
  6
Continuous
 62
     7
370
    15
100
AcDbLine
 10
77.2761818709
 20
129.3375189229
 30
0.0
 11
64.7066035064
 21
128.7077809497
 31
0.0
  0
LINE
  5
54
330
1F
100
AcDbEntity
  8
0
  6
Continuous
 62
     7
370
    15
100
AcDbLine
 10
88.5066042876
 20
129.9001662805
 30
0.0
 11
85.6879949326
 21
129.7589535638
 31
0.0
  0
LINE
  5
55
330
1F
100
AcDbEntity
  8
0
  6
Continuous
 62
     7
370
    15
100
AcDbLine
 10
85.6882165873
 20
81.6005053743
 30
0.0
 11
88.5066042876
 21
81.4593038335
 31
0.0
  0
LINE
  5
56
330
1F
100
AcDbEntity
  8
0
  6
Continuous
 62
     7
370
    15
100
AcDbLine
 10
68.706604162
 20
82.4512890353
 30
0.0
 11
77.2768812941
 21
82.0219158008
 31
0.0
  0
LINE
  5
57
330
1F
100
AcDbEntity
  8
0
  6
Continuous
 62
     7
370
    15
100
AcDbLine
 10
88.5066042876
 20
81.4593038335
 30
0.0
 11
89.3633172138
 21
81.688859947
 31
0.0
  0
LINE
  5
58
330
1F
100
AcDbEntity
  8
0
  6
Continuous
 62
     7
370
    15
100
AcDbLine
 10
89.3633172138
 20
129.6706101671
 30
0.0
 11
88.5066042876
 21
129.9001662805
 31
0.0
  0
ARC
  5
59
330
1F
100
AcDbEntity
  8
0
  6
Continuous
 62
     7
370
    15
100
AcDbCircle
 10
89.518608583
 20
81.1093041953
 30
0.0
 40
0.5999999999999943
100
AcDbArc
 50
90.0
 51
105.0
  0
ARC
  5
5A
330
1F
100
AcDbEntity
  8
0
  6
Continuous
 62
     7
370
    15
100
AcDbCircle
 10
89.518608583
 20
130.2501659187
 30
0.0
 40
0.5999999999999943
100
AcDbArc
 50
255.0
 51
270.0
  0
LINE
  5
5B
330
1F
100
AcDbEntity
  8
0
  6
Continuous
 62
     7
370
    15
100
AcDbLine
 10
89.5186086174
 20
81.7093043401
 30
0.0
 11
90.0065976067
 21
81.7093043401
 31
0.0
  0
LINE
  5
5C
330
1F
100
AcDbEntity
  8
0
  6
Continuous
 62
     7
370
    15
100
AcDbLine
 10
90.0065976067
 20
129.6501657739
 30
0.0
 11
89.5186086174
 21
129.6501657739
 31
0.0
  0
ARC
  5
5D
330
1F
100
AcDbEntity
  8
0
  6
Continuous
 62
     7
370
    15
100
AcDbCircle
 10
119.4566043826
 20
84.6637762555
 30
0.0
 40
3.000000000000007
100
AcDbArc
 50
104.3250519401
 51
180.0
  0
ARC
  5
5E
330
1F
100
AcDbEntity
  8
0
  6
Continuous
 62
     7
370
    15
100
AcDbCircle
 10
119.4566043826
 20
126.6956938585
 30
0.0
 40
3.000000000000007
100
AcDbArc
 50
180.0
 51
255.6749480599
  0
ARC
  5
5F
330
1F
100
AcDbEntity
  8
0
  6
Continuous
 62
     7
370
    15
100
AcDbCircle
 10
143.4566043826
 20
-9.320264943
 30
0.0
 40
100.0
100
AcDbArc
 50
90.0
 51
104.3250519401
  0
ARC
  5
60
330
1F
100
AcDbEntity
  8
0
  6
Continuous
 62
     7
370
    15
100
AcDbCircle
 10
143.4566043826
 20
220.679735057
 30
0.0
 40
100.0
100
AcDbArc
 50
255.6749480599
 51
270.0
  0
LINE
  5
61
330
1F
100
AcDbEntity
  8
0
  6
Continuous
 62
     7
370
    15
100
AcDbLine
 10
165.9311116429
 20
90.6797353923
 30
0.0
 11
236.5673095675
 21
90.6797353923
 31
0.0
  0
LINE
  5
62
330
1F
100
AcDbEntity
  8
0
  6
Continuous
 62
     7
370
    15
100
AcDbLine
 10
143.4566029103
 20
90.6797353923
 30
0.0
 11
158.9923635812
 21
90.6797353923
 31
0.0
  0
LINE
  5
63
330
1F
100
AcDbEntity
  8
0
  6
Continuous
 62
     7
370
    15
100
AcDbLine
 10
158.9613915177
 20
120.6797347217
 30
0.0
 11
143.4566029103
 21
120.6797347217
 31
0.0
  0
LINE
  5
64
330
1F
100
AcDbEntity
  8
0
  6
Continuous
 62
     7
370
    15
100
AcDbLine
 10
236.5673095675
 20
120.6797347217
 30
0.0
 11
165.9167469235
 21
120.6797347217
 31
0.0
  0
LINE
  5
65
330
1F
100
AcDbEntity
  8
0
  6
Continuous
 62
     7
370
    15
100
AcDbLine
 10
236.5673095675
 20
90.6797353923
 30
0.0
 11
249.3518353196
 21
96.6412597149
 31
0.0
  0
LINE
  5
66
330
1F
100
AcDbEntity
  8
0
  6
Continuous
 62
     7
370
    15
100
AcDbLine
 10
249.3518353196
 20
114.7182103991
 30
0.0
 11
236.5673095675
 21
120.6797347217
 31
0.0
  0
LINE
  5
67
330
1F
100
AcDbEntity
  8
0
  6
Continuous
 62
     7
370
    15
100
AcDbLine
 10
59.8899409862
 20
84.809734933
 30
0.0
 11
67.3066046776
 21
84.809734933
 31
0.0
  0
ARC
  5
68
330
1F
100
AcDbEntity
  8
0
  6
Continuous
 62
     7
370
    15
100
AcDbCircle
 10
67.3066043826
 20
83.409735057
 30
0.0
 40
1.400000000000006
100
AcDbArc
 50
42.2465410162
 51
90.0
  0
LINE
  5
69
330
1F
100
AcDbEntity
  8
0
  6
Continuous
 62
     7
370
    15
100
AcDbLine
 10
58.6076364608
 20
85.9587020054
 30
0.0
 11
59.7477671446
 21
84.8185713216
 31
0.0
  0
LINE
  5
6A
330
1F
100
AcDbEntity
  8
0
  6
Continuous
 62
     7
370
    15
100
AcDbLine
 10
59.7477671446
 20
126.5408987924
 30
0.0
 11
58.616506377
 21
125.4096361622
 31
0.0
  0
ARC
  5
6B
330
1F
100
AcDbEntity
  8
0
  6
Continuous
 62
     7
370
    15
100
AcDbCircle
 10
63.3066043826
 20
127.949735057
 30
0.0
 40
1.400000000000012
100
AcDbArc
 50
270.0
 51
301.7485287426
  0
LINE
  5
6C
330
1F
100
AcDbEntity
  8
0
  6
Continuous
 62
     7
370
    15
100
AcDbLine
 10
63.306604022
 20
126.549735181
 30
0.0
 11
59.8808699043
 21
126.549735181
 31
0.0
  0
ARC
  5
6D
330
1F
100
AcDbEntity
  8
0
  6
Continuous
 62
     7
370
    15
100
AcDbCircle
 10
248.5066043826
 20
98.4538755786
 30
0.0
 40
2.000000000000001
100
AcDbArc
 50
295.0
 51
0.0
  0
ARC
  5
6E
330
1F
100
AcDbEntity
  8
0
  6
Continuous
 62
     7
370
    15
100
AcDbCircle
 10
248.5066043826
 20
112.9055945354
 30
0.0
 40
2.0
100
AcDbArc
 50
0.0
 51
65.0
  0
LINE
  5
6F
330
1F
100
AcDbEntity
  8
0
  6
Continuous
 62
     7
370
    15
100
AcDbLine
 10
250.5775154324
 20
100.4373184219
 30
0.0
 11
250.5715102645
 21
100.3971160203
 31
0.0
  0
ARC
  5
70
330
1F
100
AcDbEntity
  8
0
  6
Continuous
 62
     7
370
    15
100
AcDbCircle
 10
229.6964574623
 20
101.011711402
 30
0.0
 40
20.88895663377967
100
AcDbArc
 50
358.4243137257
 51
4.9786962031
  0
LWPOLYLINE
  5
71
330
1F
100
AcDbEntity
  8
0
  6
Continuous
 62
     7
370
    15
100
AcDbPolyline
 90
        7
 70
   128
 43
0.0
 10
250.5066008063
 20
109.5723404828
 10
250.5105794163
 20
109.7036916576
 10
250.5214870663
 20
110.1731587946
 10
250.5257636996
 20
110.5776550062
 10
250.522753665
 20
110.855599381
 10
250.5129188986
 20
110.9646777436
 10
250.5066008063
 20
110.953069739
  0
LINE
  5
72
330
1F
100
AcDbEntity
  8
0
  6
Continuous
 62
     7
370
    15
100
AcDbLine
 10
250.5104304047
 20
110.1527130045
 30
0.0
 11
250.5066008063
 21
110.3821345418
 31
0.0
  0
LINE
  5
73
330
1F
100
AcDbEntity
  8
0
  6
Continuous
 62
     7
370
    15
100
AcDbLine
 10
250.5066008063
 20
110.0194812566
 30
0.0
 11
250.5104304047
 21
110.1527130045
 31
0.0
  0
LINE
  5
74
330
1F
100
AcDbEntity
  8
0
  6
Continuous
 62
     7
370
    15
100
AcDbLine
 10
250.5066008063
 20
110.1528191752
 30
0.0
 11
250.5104304047
 21
110.1527130045
 31
0.0
  0
LINE
  5
75
330
1F
100
AcDbEntity
  8
0
  6
Continuous
 62
     7
370
    15
100
AcDbLine
 10
232.3809922429
 20
107.2948567848
 30
0.0
 11
231.2950701209
 21
105.9455061145
 31
0.0
  0
LINE
  5
76
330
1F
100
AcDbEntity
  8
0
  6
Continuous
 62
     7
370
    15
100
AcDbLine
 10
233.632212946
 20
104.0646133292
 30
0.0
 11
234.7181499692
 21
105.4139639996
 31
0.0
  0
LINE
  5
77
330
1F
100
AcDbEntity
  8
0
  6
Continuous
 62
     7
370
    15
100
AcDbLine
 10
234.0925396176
 20
107.0290857274
 30
0.0
 11
232.3809922429
 21
107.2948567848
 31
0.0
  0
LWPOLYLINE
  5
78
330
1F
100
AcDbEntity
  8
0
  6
Continuous
 62
     7
370
    15
100
AcDbPolyline
 90
        3
 70
   128
 43
0.0
 10
232.9281330796
 20
103.180966787
 10
233.5520446988
 20
103.2399628125
 10
233.8426918479
 20
103.3236856851
  0
LINE
  5
79
330
1F
100
AcDbEntity
  8
0
  6
Continuous
 62
     7
370
    15
100
AcDbLine
 10
231.9206655713
 20
104.3303843867
 30
0.0
 11
231.2950701209
 21
105.9455061145
 31
0.0
  0
LINE
  5
7A
330
1F
100
AcDbEntity
  8
0
  6
Continuous
 62
     7
370
    15
100
AcDbLine
 10
233.632212946
 20
104.0646133292
 30
0.0
 11
231.9206655713
 21
104.3303843867
 31
0.0
  0
LINE
  5
7B
330
1F
100
AcDbEntity
  8
0
  6
Continuous
 62
     7
370
    15
100
AcDbLine
 10
234.0925396176
 20
107.0290857274
 30
0.0
 11
234.7181499692
 21
105.4139639996
 31
0.0
  0
LINE
  5
7C
330
1F
100
AcDbEntity
  8
0
  6
Continuous
 62
     7
370
    15
100
AcDbLine
 10
106.5966044309
 20
78.1818977371
 30
0.0
 11
106.5966044309
 21
125.5297357961
 31
0.0
  0
SPLINE
  5
7D
330
1F
100
AcDbEntity
  8
0
  6
Continuous
 62
     7
370
    15
100
AcDbSpline
210
0.0
220
0.0
230
1.0
 70
     8
 71
     3
 72
     8
 73
     4
 74
     0
 42
0.00000001
 43
0.00000001
 40
0.0
 40
0.0
 40
0.0
 40
0.0
 40
1.0
 40
1.0
 40
1.0
 40
1.0
 10
106.5966043825757
 20
78.1818978979662
 30
0.0
 10
106.1042652597945
 20
77.2846278637595
 30
0.0
 10
105.6101512117524
 20
76.38834344870726
 30
0.0
 10
105.1146715510867
 20
75.4928173607739
 30
0.0
  0
LINE
  5
7E
330
1F
100
AcDbEntity
  8
0
  6
Continuous
 62
     7
370
    15
100
AcDbLine
 10
105.1146718429
 20
75.4928174242
 30
0.0
 11
105.1146718429
 21
125.5297357961
 31
0.0
  0
SPLINE
  5
7F
330
1F
100
AcDbEntity
  8
0
  6
Continuous
 62
     7
370
    15
100
AcDbSpline
210
0.0
220
0.0
230
1.0
 70
    24
 71
     3
 72
     8
 73
     4
 74
     0
 42
0.00000001
 43
0.00000001
 40
0.0
 40
0.0
 40
0.0
 40
0.0
 40
1.0
 40
1.0
 40
1.0
 40
1.0
 10
105.1146715510866
 20
125.5297350570211
 30
0.0
 10
105.6213516592372
 20
125.5297350570211
 30
0.0
 10
106.1166523882108
 20
125.5297350570211
 30
0.0
 10
106.5966043825757
 20
125.5297350570211
 30
0.0
  0
LINE
  5
80
330
1F
100
AcDbEntity
  8
0
  6
Continuous
 62
     7
370
    15
100
AcDbLine
 10
90.5066043826
 20
74.4797359034
 30
0.0
 11
90.5066043826
 21
136.8797342106
 31
0.0
  0
LINE
  5
81
330
1F
100
AcDbEntity
  8
0
  6
Continuous
 62
     7
370
    15
100
AcDbLine
 10
116.4566040726
 20
76.1194578185
 30
0.0
 11
116.4566040726
 21
125.5297357961
 31
0.0
  0
SPLINE
  5
82
330
1F
100
AcDbEntity
  8
0
  6
Continuous
 62
     7
370
    15
100
AcDbSpline
210
0.0
220
0.0
230
1.0
 70
     8
 71
     3
 72
    10
 73
     6
 74
     0
 42
0.00000001
 43
0.00000001
 40
0.0
 40
0.0
 40
0.0
 40
0.0
 40
0.5
 40
0.5
 40
1.0
 40
1.0
 40
1.0
 40
1.0
 10
116.4566043825757
 20
76.11945765642822
 30
0.0
 10
116.4566043825757
 20
75.95957038823455
 30
0.0
 10
116.3952947313399
 20
75.79844313271995
 30
0.0
 10
116.1761950938048
 20
75.56434413436511
 30
0.0
 10
116.0181468874913
 20
75.4928173607739
 30
0.0
 10
115.8566043825757
 20
75.4928173607739
 30
0.0
  0
SPLINE
  5
83
330
1F
100
AcDbEntity
  8
0
  6
Continuous
 62
     7
370
    15
100
AcDbSpline
210
0.0
220
0.0
230
1.0
 70
    24
 71
     3
 72
    12
 73
     8
 74
     0
 42
0.00000001
 43
0.00000001
 40
0.0
 40
0.0
 40
0.0
 40
0.0
 40
0.2500000000000033
 40
0.2500000000000033
 40
0.5000000000000067
 40
0.5000000000000067
 40
1.0
 40
1.0
 40
1.0
 40
1.0
 10
115.8566043825757
 20
125.5297350570211
 30
0.0
 10
115.9468434502628
 20
125.5297350570211
 30
0.0
 10
116.0377415643693
 20
125.5297350570211
 30
0.0
 10
116.1923386008578
 20
125.5297350570211
 30
0.0
 10
116.2573170169659
 20
125.5297350570211
 30
0.0
 10
116.4091520449021
 20
125.5297350570211
 30
0.0
 10
116.4566043825757
 20
125.5297350570211
 30
0.0
 10
116.4566043825757
 20
125.5297350570211
 30
0.0
  0
LINE
  5
84
330
1F
100
AcDbEntity
  8
0
  6
Continuous
 62
     7
370
    15
100
AcDbLine
 10
111.8985363038
 20
75.4928174242
 30
0.0
 11
111.8985363038
 21
125.5297357961
 31
0.0
  0
SPLINE
  5
85
330
1F
100
AcDbEntity
  8
0
  6
Continuous
 62
     7
370
    15
100
AcDbSpline
210
0.0
220
0.0
230
1.0
 70
     8
 71
     3
 72
     8
 73
     4
 74
     0
 42
0.00000001
 43
0.00000001
 40
0.0
 40
0.0
 40
0.0
 40
0.0
 40
1.0
 40
1.0
 40
1.0
 40
1.0
 10
111.8985372140648
 20
75.4928173607739
 30
0.0
 10
111.403057553399
 20
76.38834344870726
 30
0.0
 10
110.9089435053569
 20
77.28462786375951
 30
0.0
 10
110.4166043825757
 20
78.18189789796621
 30
0.0
  0
LINE
  5
86
330
1F
100
AcDbEntity
  8
0
  6
Continuous
 62
     7
370
    15
100
AcDbLine
 10
110.4166046472
 20
78.1818977371
 30
0.0
 11
110.4166046472
 21
125.5297357961
 31
0.0
  0
SPLINE
  5
87
330
1F
100
AcDbEntity
  8
0
  6
Continuous
 62
     7
370
    15
100
AcDbSpline
210
0.0
220
0.0
230
1.0
 70
    24
 71
     3
 72
     8
 73
     4
 74
     0
 42
0.00000001
 43
0.00000001
 40
0.0
 40
0.0
 40
0.0
 40
0.0
 40
1.0
 40
1.0
 40
1.0
 40
1.0
 10
110.4166043825757
 20
125.5297350570211
 30
0.0
 10
110.8965563769406
 20
125.5297350570211
 30
0.0
 10
111.3918571059142
 20
125.5297350570211
 30
0.0
 10
111.8985372140648
 20
125.5297350570211
 30
0.0
  0
LINE
  5
88
330
1F
100
AcDbEntity
  8
0
  6
Continuous
 62
     7
370
    15
100
AcDbLine
 10
115.8566050919
 20
75.4928174242
 30
0.0
 11
111.8985363038
 21
75.4928174242
 31
0.0
  0
LINE
  5
89
330
1F
100
AcDbEntity
  8
0
  6
Continuous
 62
     7
370
    15
100
AcDbLine
 10
111.8985363038
 20
125.5297357961
 30
0.0
 11
115.8566050919
 21
125.5297357961
 31
0.0
  0
SPLINE
  5
8A
330
1F
100
AcDbEntity
  8
0
  6
Continuous
 62
     7
370
    15
100
AcDbSpline
210
0.0
220
0.0
230
1.0
 70
     8
 71
     3
 72
    70
 73
    66
 74
     0
 42
0.00000001
 43
0.00000001
 40
-0.03125
 40
-0.03125
 40
0.0
 40
0.0
 40
0.0312500000000002
 40
0.0312500000000002
 40
0.0625000000000004
 40
0.0625000000000004
 40
0.0937500000000005
 40
0.0937500000000005
 40
0.1250000000000007
 40
0.1250000000000007
 40
0.1562500000000009
 40
0.1562500000000009
 40
0.1875000000000011
 40
0.1875000000000011
 40
0.2187500000000013
 40
0.2187500000000013
 40
0.2500000000000014
 40
0.2500000000000014
 40
0.2812500000000014
 40
0.2812500000000014
 40
0.3125000000000014
 40
0.3125000000000014
 40
0.3437500000000015
 40
0.3437500000000015
 40
0.3750000000000015
 40
0.3750000000000015
 40
0.4062500000000015
 40
0.4062500000000015
 40
0.4375000000000015
 40
0.4375000000000015
 40
0.4687500000000016
 40
0.4687500000000016
 40
0.5000000000000016
 40
0.5000000000000016
 40
0.5312500000000014
 40
0.5312500000000014
 40
0.5625000000000012
 40
0.5625000000000012
 40
0.5937500000000011
 40
0.5937500000000011
 40
0.6250000000000009
 40
0.6250000000000009
 40
0.6562500000000008
 40
0.6562500000000008
 40
0.6875000000000007
 40
0.6875000000000007
 40
0.7187500000000004
 40
0.7187500000000004
 40
0.7500000000000003
 40
0.7500000000000003
 40
0.7812500000000003
 40
0.7812500000000003
 40
0.8125000000000002
 40
0.8125000000000002
 40
0.8437500000000002
 40
0.8437500000000002
 40
0.8750000000000001
 40
0.8750000000000001
 40
0.9062500000000001
 40
0.9062500000000001
 40
0.9375000000000001
 40
0.9375000000000001
 40
0.96875
 40
0.96875
 40
1.0
 40
1.0
 40
1.03125
 40
1.03125
 10
98.24205904391559
 20
130.7386984518002
 30
0.0
 10
98.77114972123587
 20
130.7386984518002
 30
0.0
 10
99.03122038861298
 20
130.754598892215
 30
0.0
 10
99.54279506844838
 20
130.8165432423893
 30
0.0
 10
99.79697035218858
 20
130.8633454764806
 30
0.0
 10
100.2812409822503
 20
130.9843224599357
 30
0.0
 10
100.5108820741314
 20
131.0579247877425
 30
0.0
 10
100.945486422365
 20
131.2297490587206
 30
0.0
 10
101.1510521990115
 20
131.3287524816481
 30
0.0
 10
101.5196093396068
 20
131.5418488955609
 30
0.0
 10
101.6850903223423
 20
131.6567486116905
 30
0.0
 10
101.9775148317774
 20
131.9021155103808
 30
0.0
 10
102.1016158084039
 20
132.0305554108511
 30
0.0
 10
102.3011950051536
 20
132.2914475589371
 30
0.0
 10
102.3781285910119
 20
132.4258287302765
 30
0.0
 10
102.4809856495322
 20
132.6951486813828
 30
0.0
 10
102.5064585589914
 20
132.8278299456009
 30
0.0
 10
102.5067489695591
 20
133.089016419732
 30
0.0
 10
102.4807243357834
 20
133.2187814578967
 30
0.0
 10
102.3785760512914
 20
133.4643640921694
 30
0.0
 10
102.3029996037082
 20
133.5810256294783
 30
0.0
 10
102.1025020725633
 20
133.8029308196328
 30
0.0
 10
101.9773732310549
 20
133.9075420735558
 30
0.0
 10
101.6880144300333
 20
134.0975884851639
 30
0.0
 10
101.5226034429779
 20
134.1843481566136
 30
0.0
 10
101.14961288483
 20
134.3418525323651
 30
0.0
 10
100.947879851741
 20
134.4101777971523
 30
0.0
 10
100.5150206009131
 20
134.5284075207715
 30
0.0
 10
100.2811020680237
 20
134.5787024368754
 30
0.0
 10
99.79691833288108
 20
134.658567973765
 30
0.0
 10
99.54760270692559
 20
134.6883091015646
 30
0.0
 10
99.03457018249784
 20
134.7284618430728
 30
0.0
 10
98.7692763595932
 20
134.7386601124827
 30
0.0
 10
98.24694173972345
 20
134.7387365708674
 30
0.0
 10
97.98718807724173
 20
134.7289455592584
 30
0.0
 10
97.47057626159648
 20
134.6888787205196
 30
0.0
 10
97.21821022109621
 20
134.6587815536628
 30
0.0
 10
96.73668509956337
 20
134.5795593438326
 30
0.0
 10
96.50383436744981
 20
134.5298018643692
 30
0.0
 10
96.06674451901105
 20
134.4107099219188
 30
0.0
 10
95.86542353035388
 20
134.3423946603715
 30
0.0
 10
95.49633750505397
 20
134.186993693438
 30
0.0
 10
95.32735275400228
 20
134.0988413513711
 30
0.0
 10
95.03689669734307
 20
133.9084019622548
 30
0.0
 10
94.91382488598093
 20
133.8057773845557
 30
0.0
 10
94.71248864455892
 20
133.5841370379476
 30
0.0
 10
94.63527609861669
 20
133.4653829624001
 30
0.0
 10
94.53307255571661
 20
133.2207170234824
 30
0.0
 10
94.50684420426431
 20
133.0935602980339
 30
0.0
 10
94.5063678049472
 20
132.8291121521783
 30
0.0
 10
94.53211021744517
 20
132.6962114719211
 30
0.0
 10
94.63342099380903
 20
132.4294191984391
 30
0.0
 10
94.71025363319995
 20
132.2940552969705
 30
0.0
 10
94.91065747241514
 20
132.0314755016679
 30
0.0
 10
95.03332897070719
 20
131.9045003419142
 30
0.0
 10
95.32327625987143
 20
131.6604209558318
 30
0.0
 10
95.49184723923665
 20
131.5429958310779
 30
0.0
 10
95.86011683334982
 20
131.3297993701295
 30
0.0
 10
96.06117869062012
 20
131.2326252517046
 30
0.0
 10
96.49820960920505
 20
131.0592703644904
 30
0.0
 10
96.73035782233467
 20
130.9848708128337
 30
0.0
 10
97.21136810383352
 20
130.8644179333291
 30
0.0
 10
97.46346818666396
 20
130.8175595580631
 30
0.0
 10
97.98053767292296
 20
130.7546020610793
 30
0.0
 10
98.24205904391559
 20
130.7386984518002
 30
0.0
 10
98.77114972123587
 20
130.7386984518002
 30
0.0
  0
SPLINE
  5
8B
330
1F
100
AcDbEntity
  8
0
  6
Continuous
 62
     7
370
    15
100
AcDbSpline
210
0.0
220
0.0
230
1.0
 70
     8
 71
     3
 72
    70
 73
    66
 74
     0
 42
0.00000001
 43
0.00000001
 40
-0.0312499999999998
 40
-0.0312499999999998
 40
0.0
 40
0.0
 40
0.0312500000000001
 40
0.0312500000000001
 40
0.0625000000000002
 40
0.0625000000000002
 40
0.0937500000000003
 40
0.0937500000000003
 40
0.1250000000000004
 40
0.1250000000000004
 40
0.1562500000000005
 40
0.1562500000000005
 40
0.1875000000000006
 40
0.1875000000000006
 40
0.2187500000000007
 40
0.2187500000000007
 40
0.2500000000000008
 40
0.2500000000000008
 40
0.2812500000000009
 40
0.2812500000000009
 40
0.3125000000000011
 40
0.3125000000000011
 40
0.3437500000000012
 40
0.3437500000000012
 40
0.3750000000000012
 40
0.3750000000000012
 40
0.4062500000000013
 40
0.4062500000000013
 40
0.4375000000000014
 40
0.4375000000000014
 40
0.4687500000000016
 40
0.4687500000000016
 40
0.5000000000000017
 40
0.5000000000000017
 40
0.5312500000000018
 40
0.5312500000000018
 40
0.5625000000000019
 40
0.5625000000000019
 40
0.593750000000002
 40
0.593750000000002
 40
0.6250000000000021
 40
0.6250000000000021
 40
0.6562500000000022
 40
0.6562500000000022
 40
0.6875000000000023
 40
0.6875000000000023
 40
0.7187500000000021
 40
0.7187500000000021
 40
0.7500000000000018
 40
0.7500000000000018
 40
0.7812500000000016
 40
0.7812500000000016
 40
0.8125000000000013
 40
0.8125000000000013
 40
0.8437500000000011
 40
0.8437500000000011
 40
0.8750000000000009
 40
0.8750000000000009
 40
0.9062500000000007
 40
0.9062500000000007
 40
0.9375000000000004
 40
0.9375000000000004
 40
0.9687500000000002
 40
0.9687500000000002
 40
1.0
 40
1.0
 40
1.03125
 40
1.03125
 10
98.24205904391559
 20
116.3006419430044
 30
0.0
 10
98.77114972123587
 20
116.3006419430044
 30
0.0
 10
99.03122038861298
 20
116.3253192377896
 30
0.0
 10
99.54279506844838
 20
116.4217909108315
 30
0.0
 10
99.79697035218858
 20
116.4947718268116
 30
0.0
 10
100.2812409822503
 20
116.6845124297502
 30
0.0
 10
100.5108820741314
 20
116.8003730881439
 30
0.0
 10
100.9454864223649
 20
117.0729909341016
 30
0.0
 10
101.1510521990115
 20
117.2310300161554
 30
0.0
 10
101.5196093396068
 20
117.5745728671261
 30
0.0
 10
101.6850903223423
 20
117.7613353112277
 30
0.0
 10
101.9775148317774
 20
118.1648784856245
 30
0.0
 10
102.1016158084039
 20
118.3783754820537
 30
0.0
 10
102.3011950051536
 20
118.8177587959762
 30
0.0
 10
102.3781285910119
 20
119.0468987831218
 30
0.0
 10
102.4809856495322
 20
119.5128729058818
 30
0.0
 10
102.5064585589914
 20
119.745755351558
 30
0.0
 10
102.5067489695591
 20
120.2111528866378
 30
0.0
 10
102.4807243357834
 20
120.4460286440322
 30
0.0
 10
102.3785760512914
 20
120.8975217912784
 30
0.0
 10
102.3029996037082
 20
121.1155682666898
 30
0.0
 10
102.1025020725633
 20
121.5366627917276
 30
0.0
 10
101.9773732310549
 20
121.7385841762459
 30
0.0
 10
101.6880144300333
 20
122.1106136587648
 30
0.0
 10
101.5226034429779
 20
122.2832419623452
 30
0.0
 10
101.14961288483
 20
122.6005599668912
 30
0.0
 10
100.9478798517409
 20
122.7403469003928
 30
0.0
 10
100.5150206009131
 20
122.9845231539447
 30
0.0
 10
100.2811020680237
 20
123.0897526649861
 30
0.0
 10
99.79691833288106
 20
123.2579098113613
 30
0.0
 10
99.54760270692557
 20
123.3211607019551
 30
0.0
 10
99.03457018249784
 20
123.4067399110577
 30
0.0
 10
98.7692763595932
 20
123.4286120759801
 30
0.0
 10
98.24694173972345
 20
123.428775725624
 30
0.0
 10
97.98718807724171
 20
123.4077740335281
 30
0.0
 10
97.47057626159648
 20
123.3223716784504
 30
0.0
 10
97.2182102210962
 20
123.2583654951634
 30
0.0
 10
96.73668509956337
 20
123.0915509751223
 30
0.0
 10
96.5038343674498
 20
122.9874178117231
 30
0.0
 10
96.06674451901104
 20
122.7414311592281
 30
0.0
 10
95.86542353035387
 20
122.6016813282793
 30
0.0
 10
95.49633750505397
 20
122.2885432585547
 30
0.0
 10
95.32735275400228
 20
122.1130870992846
 30
0.0
 10
95.03689669734307
 20
121.7402468351844
 30
0.0
 10
94.91382488598093
 20
121.5421250250735
 30
0.0
 10
94.71248864455892
 20
121.1214136823398
 30
0.0
 10
94.63527609861669
 20
120.8994236616722
 30
0.0
 10
94.53307255571661
 20
120.4495587219639
 30
0.0
 10
94.50684420426431
 20
120.2193033088471
 30
0.0
 10
94.5063678049472
 20
119.747987366298
 30
0.0
 10
94.53211021744518
 20
119.5147499505839
 30
0.0
 10
94.63342099380903
 20
119.0530734110859
 30
0.0
 10
94.71025363319995
 20
118.8221760239737
 30
0.0
 10
94.91065747241514
 20
118.379900010182
 30
0.0
 10
95.03332897070719
 20
118.1688375788961
 30
0.0
 10
95.32327625987143
 20
117.7673390681635
 30
0.0
 10
95.49184723923666
 20
117.5764325460876
 30
0.0
 10
95.86011683334982
 20
117.2327072140905
 30
0.0
 10
96.06117869062012
 20
117.0775700278764
 30
0.0
 10
96.49820960920505
 20
116.8024926677967
 30
0.0
 10
96.73035782233467
 20
116.6853764383746
 30
0.0
 10
97.21136810383354
 20
116.4964499533101
 30
0.0
 10
97.46346818666396
 20
116.4233749829158
 30
0.0
 10
97.98053767292296
 20
116.3253229237813
 30
0.0
 10
98.24205904391559
 20
116.3006419430044
 30
0.0
 10
98.77114972123587
 20
116.3006419430044
 30
0.0
  0
LINE
  5
8C
330
1F
100
AcDbEntity
  8
0
  6
Continuous
 62
     7
370
    15
100
AcDbLine
 10
95.4566043558
 20
125.5297357961
 30
0.0
 11
105.1146718429
 21
125.5297357961
 31
0.0
  0
LINE
  5
8D
330
1F
100
AcDbEntity
  8
0
  6
Continuous
 62
     7
370
    15
100
AcDbLine
 10
105.1146718429
 20
75.4928174242
 30
0.0
 11
103.4566047357
 21
75.4928174242
 31
0.0
  0
SPLINE
  5
8E
330
1F
100
AcDbEntity
  8
0
  6
Continuous
 62
     7
370
    15
100
AcDbSpline
210
0.0
220
0.0
230
1.0
 70
     8
 71
     3
 72
    28
 73
    24
 74
     0
 42
0.00000001
 43
0.00000001
 40
0.0
 40
0.0
 40
0.0
 40
0.0
 40
0.1250000000000001
 40
0.1250000000000001
 40
0.1875000000000001
 40
0.1875000000000001
 40
0.2500000000000001
 40
0.2500000000000001
 40
0.3749999999999999
 40
0.3749999999999999
 40
0.4375
 40
0.4375
 40
0.4999999999999999
 40
0.4999999999999999
 40
0.6249999999999999
 40
0.6249999999999999
 40
0.7499999999999997
 40
0.7499999999999997
 40
0.8124999999999998
 40
0.8124999999999998
 40
0.8749999999999998
 40
0.8749999999999998
 40
1.0
 40
1.0
 40
1.0
 40
1.0
 10
103.4566043825757
 20
75.4928173607739
 30
0.0
 10
102.9248966250828
 20
75.4928173607739
 30
0.0
 10
102.4026580597725
 20
75.47703264682369
 30
0.0
 10
101.6327875734975
 20
75.43203723274749
 30
0.0
 10
101.3784280013061
 20
75.41348223767174
 30
0.0
 10
100.8743064206076
 20
75.36962951522524
 30
0.0
 10
100.6245836031797
 20
75.34428490827305
 30
0.0
 10
99.89899365173326
 20
75.26088283052296
 30
0.0
 10
99.44063339015173
 20
75.19501727137187
 30
0.0
 10
98.79013544675786
 20
75.08604693088007
 30
0.0
 10
98.5784533959654
 20
75.04780729511343
 30
0.0
 10
98.17438190682739
 20
74.97004855769407
 30
0.0
 10
97.98187539300655
 20
74.9305475955187
 30
0.0
 10
97.43204042198525
 20
74.81163985315271
 30
0.0
 10
97.10211164367644
 20
74.73182217172811
 30
0.0
 10
96.51764037510775
 20
74.57847900993204
 30
0.0
 10
96.27136323709432
 20
74.5071452566628
 30
0.0
 10
95.97152044439625
 20
74.41320174958817
 30
0.0
 10
95.88306358732407
 20
74.38400795622823
 30
0.0
 10
95.72970223401894
 20
74.33054138196482
 30
0.0
 10
95.66461401979271
 20
74.30618204768965
 30
0.0
 10
95.50902000385192
 20
74.24259190224491
 30
0.0
 10
95.45660438257572
 20
74.21248896715565
 30
0.0
 10
95.45660438257572
 20
74.19561207415873
 30
0.0
  0
LINE
  5
8F
330
1F
100
AcDbEntity
  8
0
  6
Continuous
 62
     7
370
    15
100
AcDbLine
 10
95.4566043558
 20
74.1956117376
 30
0.0
 11
95.4566043558
 21
74.1797345504
 31
0.0
  0
SPLINE
  5
90
330
1F
100
AcDbEntity
  8
0
  6
Continuous
 62
     7
370
    15
100
AcDbSpline
210
0.0
220
0.0
230
1.0
 70
     8
 71
     3
 72
    17
 73
    13
 74
     0
 42
0.00000001
 43
0.00000001
 40
0.0
 40
0.0
 40
0.0
 40
0.0
 40
0.1034797280380778
 40
0.2100239090909901
 40
0.3134862262879433
 40
0.4198361712144981
 40
0.5254127947779869
 40
0.6339610881168427
 40
0.7409508662120068
 40
0.8511696072047016
 40
0.9558996557845765
 40
1.0
 40
1.0
 40
1.0
 40
1.0
 10
103.4566047357333
 20
136.1469304933795
 30
0.0
 10
103.0213562440074
 20
136.1523784850172
 30
0.0
 10
102.1379697934303
 20
136.1634358053458
 30
0.0
 10
100.8571419312076
 20
136.2497945657208
 30
0.0
 10
99.63972573576565
 20
136.3776657088538
 30
0.0
 10
98.53191911943985
 20
136.5366101161723
 30
0.0
 10
97.543680640111
 20
136.7111046891569
 30
0.0
 10
96.71895754029518
 20
136.8802711223438
 30
0.0
 10
96.07000388279654
 20
137.0281519308115
 30
0.0
 10
95.6529685793169
 20
137.129942682334
 30
0.0
 10
95.45437183643894
 20
137.1802995819685
 30
0.0
 10
95.47768495342685
 20
137.174389976993
 30
0.0
 10
95.48459292742727
 20
137.172638885642
 30
0.0
  0
LINE
  5
91
330
1F
100
AcDbEntity
  8
0
  6
Continuous
 62
     7
370
    15
100
AcDbLine
 10
105.1146718429
 20
136.1469304934
 30
0.0
 11
103.4566047357
 21
136.1469304934
 31
0.0
  0
LINE
  5
92
330
1F
100
AcDbEntity
  8
0
  6
Continuous
 62
     7
370
    15
100
AcDbLine
 10
105.1146718429
 20
130.1384246722
 30
0.0
 11
105.1146718429
 21
136.1469304934
 31
0.0
  0
LINE
  5
93
330
1F
100
AcDbEntity
  8
0
  6
Continuous
 62
     7
370
    15
100
AcDbLine
 10
102.7022250684
 20
130.1384246722
 30
0.0
 11
105.1146718429
 21
130.1384246722
 31
0.0
  0
SPLINE
  5
94
330
1F
100
AcDbEntity
  8
0
  6
Continuous
 62
     7
370
    15
100
AcDbSpline
210
0.0
220
0.0
230
1.0
 70
     8
 71
     3
 72
    20
 73
    16
 74
     0
 42
0.00000001
 43
0.00000001
 40
0.0
 40
0.0
 40
0.0
 40
0.0
 40
0.2499999999999997
 40
0.2499999999999997
 40
0.3749999999999997
 40
0.3749999999999997
 40
0.4999999999999998
 40
0.4999999999999998
 40
0.6249999999999998
 40
0.6249999999999998
 40
0.7499999999999999
 40
0.7499999999999999
 40
0.8749999999999999
 40
0.8749999999999999
 40
1.0
 40
1.0
 40
1.0
 40
1.0
 10
95.45660438257572
 20
125.5297350570211
 30
0.0
 10
95.70497811686378
 20
126.1835974853185
 30
0.0
 10
96.02454820920904
 20
126.7873832673156
 30
0.0
 10
96.64685444241373
 20
127.6142220034842
 30
0.0
 10
96.87827870284448
 20
127.8766506414371
 30
0.0
 10
97.3994930424942
 20
128.3733132955421
 30
0.0
 10
97.68611352512926
 20
128.6039001745636
 30
0.0
 10
98.30559826643689
 20
129.0204543991463
 30
0.0
 10
98.63989864592385
 20
129.2079522011138
 30
0.0
 10
99.36515911854863
 20
129.5393491787502
 30
0.0
 10
99.7470741759391
 20
129.6788531662455
 30
0.0
 10
100.5418623521108
 20
129.9043066737164
 30
0.0
 10
100.9560205463172
 20
129.99093278526
 30
0.0
 10
101.8215668868986
 20
130.1089135741142
 30
0.0
 10
102.2594545019104
 20
130.1384247193885
 30
0.0
 10
102.702224728265
 20
130.1384247193885
 30
0.0
  0
ARC
  5
95
330
1F
100
AcDbEntity
  8
0
  6
Continuous
 62
     7
370
    15
100
AcDbCircle
 10
98.5038806032
 20
117.5869540334
 30
0.0
 40
4.113519740334443
100
AcDbArc
 50
19.620683281
 51
159.096392124
  0
SPLINE
  5
96
330
1F
100
AcDbEntity
  8
0
  6
Continuous
 62
     7
370
    15
100
AcDbSpline
210
0.0
220
0.0
230
1.0
 70
    24
 71
     3
 72
    14
 73
    10
 74
     0
 42
0.00000001
 43
0.00000001
 40
0.0
 40
0.0
 40
0.0
 40
0.0
 40
0.4999999999999984
 40
0.4999999999999984
 40
0.7499999999999992
 40
0.7499999999999992
 40
0.8749999999999996
 40
0.8749999999999996
 40
1.0
 40
1.0
 40
1.0
 40
1.0
 10
110.3189295802434
 20
79.27973505702107
 30
0.0
 10
110.2721448751952
 20
79.27973505702107
 30
0.0
 10
110.2100936784156
 20
79.27973505702107
 30
0.0
 10
110.066702039865
 20
79.27973505702106
 30
0.0
 10
110.0105583863138
 20
79.27973505702107
 30
0.0
 10
109.8976073641777
 20
79.27973505702107
 30
0.0
 10
109.8546066021395
 20
79.27973505702107
 30
0.0
 10
109.7505438918331
 20
79.27973505702107
 30
0.0
 10
109.6852116534761
 20
79.27973505702107
 30
0.0
 10
109.6166043825757
 20
79.27973505702107
 30
0.0
  0
SPLINE
  5
97
330
1F
100
AcDbEntity
  8
0
  6
Continuous
 62
     7
370
    15
100
AcDbSpline
210
0.0
220
0.0
230
1.0
 70
    24
 71
     3
 72
    12
 73
     8
 74
     0
 42
0.00000001
 43
0.00000001
 40
0.0
 40
0.0
 40
0.0
 40
0.0
 40
0.5000000000000017
 40
0.5000000000000017
 40
0.7500000000000008
 40
0.7500000000000008
 40
1.0
 40
1.0
 40
1.0
 40
1.0
 10
110.0223068508847
 20
132.0797350570211
 30
0.0
 10
109.9792213012738
 20
132.0797350570211
 30
0.0
 10
109.9300690995245
 20
132.0797350570211
 30
0.0
 10
109.8335965052366
 20
132.0797350570211
 30
0.0
 10
109.797494920102
 20
132.0797350570211
 30
0.0
 10
109.7143891622407
 20
132.0797350570211
 30
0.0
 10
109.6663925652744
 20
132.0797350570211
 30
0.0
 10
109.6166043825757
 20
132.0797350570211
 30
0.0
  0
SPLINE
  5
98
330
1F
100
AcDbEntity
  8
0
  6
Continuous
 62
     7
370
    15
100
AcDbSpline
210
0.0
220
0.0
230
1.0
 70
     8
 71
     3
 72
    10
 73
     6
 74
     0
 42
0.00000001
 43
0.00000001
 40
0.0
 40
0.0
 40
0.0
 40
0.0
 40
0.5
 40
0.5
 40
1.0
 40
1.0
 40
1.0
 40
1.0
 10
110.4166043825757
 20
132.7993889080568
 30
0.0
 10
110.4166043825757
 20
132.6556188502388
 30
0.0
 10
110.3805553238568
 20
132.5131994877437
 30
0.0
 10
110.2450464630828
 20
132.2633051943864
 30
0.0
 10
110.1451704699867
 20
132.1552748581383
 30
0.0
 10
110.0223068508847
 20
132.079735057021
 30
0.0
  0
SPLINE
  5
99
330
1F
100
AcDbEntity
  8
0
  6
Continuous
 62
     7
370
    15
100
AcDbSpline
210
0.0
220
0.0
230
1.0
 70
     8
 71
     3
 72
    10
 73
     6
 74
     0
 42
0.00000001
 43
0.00000001
 40
0.0
 40
0.0
 40
0.0
 40
0.0
 40
0.5
 40
0.5
 40
1.0
 40
1.0
 40
1.0
 40
1.0
 10
110.3904567594156
 20
125.5297350570211
 30
0.0
 10
110.3991464023273
 20
125.5766139063392
 30
0.0
 10
110.4056854670778
 20
125.6240363717405
 30
0.0
 10
110.4144441014708
 20
125.7199731703273
 30
0.0
 10
110.4166043825757
 20
125.7678884583379
 30
0.0
 10
110.4166043825757
 20
125.8156016884824
 30
0.0
  0
SPLINE
  5
9A
330
1F
100
AcDbEntity
  8
0
  6
Continuous
 62
     7
370
    15
100
AcDbSpline
210
0.0
220
0.0
230
1.0
 70
     8
 71
     3
 72
    10
 73
     6
 74
     0
 42
0.00000001
 43
0.00000001
 40
0.0
 40
0.0
 40
0.0
 40
0.0
 40
0.5
 40
0.5
 40
1.0
 40
1.0
 40
1.0
 40
1.0
 10
106.9909019142667
 20
132.0797350570211
 30
0.0
 10
106.8693616505982
 20
132.1544612242328
 30
0.0
 10
106.7680272902492
 20
132.2634062401496
 30
0.0
 10
106.6323883473608
 20
132.5138367209112
 30
0.0
 10
106.5966043825757
 20
132.6562560830102
 30
0.0
 10
106.5966043825757
 20
132.7993889080568
 30
0.0
  0
SPLINE
  5
9B
330
1F
100
AcDbEntity
  8
0
  6
Continuous
 62
     7
370
    15
100
AcDbSpline
210
0.0
220
0.0
230
1.0
 70
    24
 71
     3
 72
    12
 73
     8
 74
     0
 42
0.00000001
 43
0.00000001
 40
0.0
 40
0.0
 40
0.0
 40
0.0
 40
0.2500000000000037
 40
0.2500000000000037
 40
0.5000000000000074
 40
0.5000000000000074
 40
1.0
 40
1.0
 40
1.0
 40
1.0
 10
107.3966043825757
 20
132.0797350570211
 30
0.0
 10
107.3467277002583
 20
132.0797350570211
 30
0.0
 10
107.2987245068547
 20
132.0797350570211
 30
0.0
 10
107.2156764041427
 20
132.0797350570211
 30
0.0
 10
107.1795468246749
 20
132.0797350570211
 30
0.0
 10
107.0836347937307
 20
132.0797350570211
 30
0.0
 10
107.0338761257619
 20
132.0797350570211
 30
0.0
 10
106.9909019142667
 20
132.0797350570211
 30
0.0
  0
SPLINE
  5
9C
330
1F
100
AcDbEntity
  8
0
  6
Continuous
 62
     7
370
    15
100
AcDbSpline
210
0.0
220
0.0
230
1.0
 70
    24
 71
     3
 72
    14
 73
    10
 74
     0
 42
0.00000001
 43
0.00000001
 40
0.0
 40
0.0
 40
0.0
 40
0.0
 40
0.1249999999999991
 40
0.1249999999999991
 40
0.2499999999999982
 40
0.2499999999999982
 40
0.4999999999999998
 40
0.4999999999999998
 40
1.0
 40
1.0
 40
1.0
 40
1.0
 10
107.3966043825757
 20
79.27973505702107
 30
0.0
 10
107.3281665346893
 20
79.27973505702107
 30
0.0
 10
107.2626164959242
 20
79.27973505702107
 30
0.0
 10
107.1581898565163
 20
79.27973505702107
 30
0.0
 10
107.1156452467549
 20
79.27973505702107
 30
0.0
 10
107.0030357862146
 20
79.27973505702106
 30
0.0
 10
106.9474967391951
 20
79.27973505702107
 30
0.0
 10
106.8048850437313
 20
79.27973505702106
 30
0.0
 10
106.7414796887355
 20
79.27973505702106
 30
0.0
 10
106.694279184908
 20
79.27973505702107
 30
0.0
  0
SPLINE
  5
9D
330
1F
100
AcDbEntity
  8
0
  6
Continuous
 62
     7
370
    15
100
AcDbSpline
210
0.0
220
0.0
230
1.0
 70
     8
 71
     3
 72
    10
 73
     6
 74
     0
 42
0.00000001
 43
0.00000001
 40
0.0
 40
0.0
 40
0.0
 40
0.0
 40
0.5
 40
0.5
 40
1.0
 40
1.0
 40
1.0
 40
1.0
 10
106.5966043825757
 20
125.8156016884824
 30
0.0
 10
106.5966043825757
 20
125.7678301804891
 30
0.0
 10
106.5987656261729
 20
125.7201204584275
 30
0.0
 10
106.607437000033
 20
125.6248253408792
 30
0.0
 10
106.613966182989
 20
125.5771327769126
 30
0.0
 10
106.6227520057359
 20
125.5297350570211
 30
0.0
  0
LINE
  5
9E
330
1F
100
AcDbEntity
  8
0
  6
Continuous
 62
     7
370
    15
100
AcDbLine
 10
109.6166041436
 20
132.079734914
 30
0.0
 11
107.3966049345
 21
132.079734914
 31
0.0
  0
LINE
  5
9F
330
1F
100
AcDbEntity
  8
0
  6
Continuous
 62
     7
370
    15
100
AcDbLine
 10
109.6166041436
 20
79.2797352001
 30
0.0
 11
107.3966049345
 21
79.2797352001
 31
0.0
  0
LINE
  5
A0
330
1F
100
AcDbEntity
  8
0
  6
Continuous
 62
     7
370
    15
100
AcDbLine
 10
68.706604162
 20
82.4512890353
 30
0.0
 11
68.706604162
 21
83.715997152
 31
0.0
  0
SPLINE
  5
A1
330
1F
100
AcDbEntity
  8
0
  6
Continuous
 62
     7
370
    15
100
AcDbSpline
210
0.0
220
0.0
230
1.0
 70
     8
 71
     3
 72
    14
 73
    10
 74
     0
 42
0.00000001
 43
0.00000001
 40
0.0
 40
0.0
 40
0.0
 40
0.0
 40
0.25
 40
0.25
 40
0.5
 40
0.5
 40
0.75
 40
0.75
 40
1.0
 40
1.0
 40
1.0
 40
1.0
 10
67.92831726466001
 20
84.84658373346112
 30
0.0
 10
67.98494393986208
 20
84.73888627962425
 30
0.0
 10
68.0794666001518
 20
84.63609669790493
 30
0.0
 10
68.26251157571404
 20
84.4377393856848
 30
0.0
 10
68.35413815266878
 20
84.34167987700654
 30
0.0
 10
68.51299147036197
 20
84.1541508342973
 30
0.0
 10
68.58088207798366
 20
84.06274186151374
 30
0.0
 10
68.67779910369124
 20
83.88436564060359
 30
0.0
 10
68.7066043825763
 20
83.79714373435742
 30
0.0
 10
68.70660438257629
 20
83.71599752582316
 30
0.0
  0
SPLINE
  5
A2
330
1F
100
AcDbEntity
  8
0
  6
Continuous
 62
     7
370
    15
100
AcDbSpline
210
0.0
220
0.0
230
1.0
 70
     8
 71
     3
 72
    14
 73
    10
 74
     0
 42
0.00000001
 43
0.00000001
 40
0.0
 40
0.0
 40
0.0
 40
0.0
 40
0.1249999999999975
 40
0.1249999999999975
 40
0.249999999999995
 40
0.249999999999995
 40
0.4999999999999953
 40
0.4999999999999953
 40
1.0
 40
1.0
 40
1.0
 40
1.0
 10
67.30660438257573
 20
85.29326559574044
 30
0.0
 10
67.35514879123289
 20
85.29901390902073
 30
0.0
 10
67.4080641460178
 20
85.2959130203645
 30
0.0
 10
67.50335949100084
 20
85.27371817620217
 30
0.0
 10
67.5436104882858
 20
85.2564859491063
 30
0.0
 10
67.64788050179877
 20
85.20015803265424
 30
0.0
 10
67.69820247695209
 20
85.15597168670844
 30
0.0
 10
67.82588542447746
 20
85.02496378785781
 30
0.0
 10
67.88197087153974
 20
84.93472926762752
 30
0.0
 10
67.92831726466147
 20
84.84658373346164
 30
0.0
  0
SPLINE
  5
A3
330
1F
100
AcDbEntity
  8
0
  6
Continuous
 62
     7
370
    15
100
AcDbSpline
210
0.0
220
0.0
230
1.0
 70
     8
 71
     3
 72
     8
 73
     4
 74
     0
 42
0.00000001
 43
0.00000001
 40
0.0
 40
0.0
 40
0.0
 40
0.0
 40
1.0
 40
1.0
 40
1.0
 40
1.0
 10
65.0380792896295
 20
84.98342030915765
 30
0.0
 10
65.77265631611246
 20
85.10204532022661
 30
0.0
 10
66.53613138550813
 20
85.20203119236288
 30
0.0
 10
67.30660438257574
 20
85.29326559574044
 30
0.0
  0
SPLINE
  5
A4
330
1F
100
AcDbEntity
  8
0
  6
Continuous
 62
     7
370
    15
100
AcDbSpline
210
0.0
220
0.0
230
1.0
 70
     8
 71
     3
 72
    14
 73
    10
 74
     0
 42
0.00000001
 43
0.00000001
 40
0.0
 40
0.0
 40
0.0
 40
0.0
 40
0.500000000000001
 40
0.500000000000001
 40
0.7500000000000004
 40
0.7500000000000004
 40
0.8750000000000003
 40
0.8750000000000003
 40
1.0
 40
1.0
 40
1.0
 40
1.0
 10
59.75660438257572
 20
84.809797291626
 30
0.0
 10
60.64875051312931
 20
84.80907506542535
 30
0.0
 10
61.5387269489229
 20
84.81366127188281
 30
0.0
 10
62.86532211599852
 20
84.84138627627433
 30
0.0
 10
63.30616904449723
 20
84.85399281389851
 30
0.0
 10
63.96260928191965
 20
84.88500896190597
 30
0.0
 10
64.18062293851153
 20
84.89735213453274
 30
0.0
 10
64.61333179219432
 20
84.93037618969602
 30
0.0
 10
64.82860825735912
 20
84.94959335483446
 30
0.0
 10
65.03807928962951
 20
84.98342030915765
 30
0.0
  0
SPLINE
  5
A5
330
1F
100
AcDbEntity
  8
0
  6
Continuous
 62
     7
370
    15
100
AcDbSpline
210
0.0
220
0.0
230
1.0
 70
     8
 71
     3
 72
     8
 73
     4
 74
     0
 42
0.00000001
 43
0.00000001
 40
0.0000005163856712
 40
0.0000005163856712
 40
0.0000005163856712
 40
0.0000005163856712
 40
0.000026289209185
 40
0.000026289209185
 40
0.000026289209185
 40
0.000026289209185
 10
59.74655945215704
 20
84.81978116473387
 30
0.0
 10
59.74988719036851
 20
84.81644691786104
 30
0.0
 10
59.75323564334781
 20
84.81311896058202
 30
0.0
 10
59.75660438257569
 20
84.80979729162598
 30
0.0
  0
SPLINE
  5
A6
330
1F
100
AcDbEntity
  8
0
  6
Continuous
 62
     7
370
    15
100
AcDbSpline
210
0.0
220
0.0
230
1.0
 70
     8
 71
     3
 72
     8
 73
     4
 74
     0
 42
0.00000001
 43
0.00000001
 40
0.0000005099763573
 40
0.0000005099763573
 40
0.0000005099763573
 40
0.0000005099763573
 40
0.0000262827998699
 40
0.0000262827998699
 40
0.0000262827998699
 40
0.0000262827998699
 10
59.75660438257571
 20
126.5496728224161
 30
0.0
 10
59.75323564334797
 20
126.5463511534603
 30
0.0
 10
59.74988719036883
 20
126.5430231961814
 30
0.0
 10
59.74655945215751
 20
126.5396889493087
 30
0.0
  0
SPLINE
  5
A7
330
1F
100
AcDbEntity
  8
0
  6
Continuous
 62
     7
370
    15
100
AcDbSpline
210
0.0
220
0.0
230
1.0
 70
     8
 71
     3
 72
    10
 73
     6
 74
     0
 42
0.00000001
 43
0.00000001
 40
0.0
 40
0.0
 40
0.0
 40
0.0
 40
0.5
 40
0.5
 40
1.0
 40
1.0
 40
1.0
 40
1.0
 10
63.30660438257573
 20
126.5028224488488
 30
0.0
 10
62.71901883548514
 20
126.5238879690852
 30
0.0
 10
62.12827244202475
 20
126.5346464549574
 30
0.0
 10
60.9442532767259
 20
126.5480112354931
 30
0.0
 10
60.35083928852043
 20
126.5501538781577
 30
0.0
 10
59.75660438257572
 20
126.5496728224161
 30
0.0
  0
SPLINE
  5
A8
330
1F
100
AcDbEntity
  8
0
  6
Continuous
 62
     7
370
    15
100
AcDbSpline
210
0.0
220
0.0
230
1.0
 70
     8
 71
     3
 72
    18
 73
    14
 74
     0
 42
0.00000001
 43
0.00000001
 40
0.0
 40
0.0
 40
0.0
 40
0.0
 40
0.2500000000000009
 40
0.2500000000000009
 40
0.500000000000001
 40
0.500000000000001
 40
0.7500000000000011
 40
0.7500000000000011
 40
0.875000000000001
 40
0.875000000000001
 40
0.9375000000000006
 40
0.9375000000000006
 40
1.0
 40
1.0
 40
1.0
 40
1.0
 10
64.70660438257573
 20
127.5238427293841
 30
0.0
 10
64.70660438257575
 20
127.4406358205269
 30
0.0
 10
64.67075528263747
 20
127.3518991652133
 30
0.0
 10
64.54588354660353
 20
127.1697739746531
 30
0.0
 10
64.45548312895568
 20
127.0746439260264
 30
0.0
 10
64.2332404742135
 20
126.8854624169021
 30
0.0
 10
64.10347568776773
 20
126.7905172488074
 30
0.0
 10
63.86283823045621
 20
126.6522385412275
 30
0.0
 10
63.77507093231877
 20
126.6065281079251
 30
0.0
 10
63.62054684511197
 20
126.5487048027036
 30
0.0
 10
63.56393595905721
 20
126.5309900386657
 30
0.0
 10
63.43989192815061
 20
126.5064507354328
 30
0.0
 10
63.37217725313232
 20
126.5004715968945
 30
0.0
 10
63.30660438257572
 20
126.5028224488488
 30
0.0
  0
LINE
  5
A9
330
1F
100
AcDbEntity
  8
0
  6
Continuous
 62
     7
370
    15
100
AcDbLine
 10
64.7066035064
 20
127.5238427147
 30
0.0
 11
64.7066035064
 21
128.7077809497
 31
0.0
  0
LINE
  5
AA
330
1F
100
AcDbEntity
  8
0
  6
Continuous
 62
     7
370
    15
100
AcDbLine
 10
88.5066042876
 20
81.4593038335
 30
0.0
 11
88.5066042876
 21
129.9001662805
 31
0.0
  0
SPLINE
  5
AB
330
1F
100
AcDbEntity
  8
0
  6
Continuous
 62
     7
370
    15
100
AcDbSpline
210
0.0
220
0.0
230
1.0
 70
     8
 71
     3
 72
    18
 73
    14
 74
     0
 42
0.00000001
 43
0.00000001
 40
0.0
 40
0.0
 40
0.0
 40
0.0
 40
0.001067142096085
 40
0.1270947925777493
 40
0.2524053537361832
 40
0.3766468838452861
 40
0.4391416358858051
 40
0.5008278334298175
 40
0.5624255844801763
 40
0.6253162510714301
 40
0.7499985254815132
 40
0.8752758926324193
 40
1.0
 40
1.0
 40
1.0
 40
1.0
 10
77.27690550851939
 20
82.02239636328308
 30
0.0
 10
77.27599343323665
 20
82.02228119539105
 30
0.0
 10
77.16736683205613
 20
82.00856489706129
 30
0.0
 10
77.55504830409888
 20
82.05955115844293
 30
0.0
 10
78.42099676420843
 20
82.15910819431744
 30
0.0
 10
79.62140455793124
 20
82.22823882393652
 30
0.0
 10
80.67898010778897
 20
82.23218952420326
 30
0.0
 10
81.50611447191223
 20
82.20470265627901
 30
0.0
 10
82.33138610796006
 20
82.1461601674667
 30
0.0
 10
83.38575131506886
 20
82.03264156550699
 30
0.0
 10
84.54758752132227
 20
81.84948740967346
 30
0.0
 10
85.49982224199542
 20
81.64488726100731
 30
0.0
 10
85.62552734470405
 20
81.6156005909982
 30
0.0
 10
85.68824080172298
 20
81.60098966207592
 30
0.0
  0
SPLINE
  5
AC
330
1F
100
AcDbEntity
  8
0
  6
Continuous
 62
     7
370
    15
100
AcDbSpline
210
0.0
220
0.0
230
1.0
 70
     8
 71
     3
 72
    18
 73
    14
 74
     0
 42
0.00000001
 43
0.00000001
 40
0.0
 40
0.0
 40
0.0
 40
0.0
 40
0.1248907819469273
 40
0.2505384063477967
 40
0.3748721756041158
 40
0.4374907331267689
 40
0.4990776026247599
 40
0.5607931145009658
 40
0.6233901196104445
 40
0.7478191009174896
 40
0.8731941046696081
 40
0.9991614615322162
 40
0.9999999999999999
 40
0.9999999999999999
 40
0.9999999999999999
 40
0.9999999999999999
 10
85.68802194091795
 20
129.758415259386
 30
0.0
 10
85.62428110895023
 20
129.743753793159
 30
0.0
 10
85.49641317337067
 20
129.7143420117129
 30
0.0
 10
84.54441433678214
 20
129.5093880523554
 30
0.0
 10
83.38387026592952
 20
129.3261267904917
 30
0.0
 10
82.33160649426614
 20
129.2130962361167
 30
0.0
 10
81.50737919524786
 20
129.154835428644
 30
0.0
 10
80.67977544992318
 20
129.1273882925219
 30
0.0
 10
79.62095812022896
 20
129.1313730863965
 30
0.0
 10
78.41873838060312
 20
129.2004658708924
 30
0.0
 10
77.55355760960423
 20
129.3000746080796
 30
0.0
 10
77.16740886196655
 20
129.3509322137229
 30
0.0
 10
77.27548673433016
 20
129.3372314062995
 30
0.0
 10
77.27620142865298
 20
129.3371408059844
 30
0.0
  0
SPLINE
  5
AD
330
1F
100
AcDbEntity
  8
0
  6
Continuous
 62
     7
370
    15
100
AcDbSpline
210
0.0
220
0.0
230
1.0
 70
     8
 71
     3
 72
     9
 73
     5
 74
     0
 42
0.00000001
 43
0.00000001
 40
0.0
 40
0.0
 40
0.0
 40
0.0
 40
0.7009339503679092
 40
0.9999999999999999
 40
0.9999999999999999
 40
0.9999999999999999
 40
0.9999999999999999
 10
58.62738795000431
 20
85.97845535721866
 30
0.0
 10
58.63652862095415
 20
85.96062607345776
 30
0.0
 10
58.64956932321296
 20
85.93518960579696
 30
0.0
 10
58.66473278648124
 20
85.98906896527052
 30
0.0
 10
58.66926766353962
 20
86.00518245246498
 30
0.0
  0
LINE
  5
AE
330
1F
100
AcDbEntity
  8
0
  6
Continuous
 62
     7
370
    15
100
AcDbLine
 10
58.6066045554
 20
85.9890575334
 30
0.0
 11
58.6066045554
 21
125.3704125806
 31
0.0
  0
SPLINE
  5
AF
330
1F
100
AcDbEntity
  8
0
  6
Continuous
 62
     7
370
    15
100
AcDbSpline
210
0.0
220
0.0
230
1.0
 70
     8
 71
     3
 72
    10
 73
     6
 74
     0
 42
0.00000001
 43
0.00000001
 40
0.0
 40
0.0
 40
0.0
 40
0.0
 40
0.5
 40
0.5
 40
1.0
 40
1.0
 40
1.0
 40
1.0
 10
58.66926775729914
 20
125.3542876018018
 30
0.0
 10
58.66036346819037
 20
125.400029121015
 30
0.0
 10
58.64384808799738
 20
125.417219960484
 30
0.0
 10
58.61674014193577
 20
125.4168966835483
 30
0.0
 10
58.60660438257572
 20
125.3990191412518
 30
0.0
 10
58.60660438257572
 20
125.3704128034992
 30
0.0
  0
SPLINE
  5
B0
330
1F
100
AcDbEntity
  8
0
  6
Continuous
 62
     7
370
    15
100
AcDbSpline
210
0.0
220
0.0
230
1.0
 70
     8
 71
     3
 72
    26
 73
    22
 74
     0
 42
0.00000001
 43
0.00000001
 40
0.0
 40
0.0
 40
0.0
 40
0.0
 40
0.2500000000000165
 40
0.2500000000000165
 40
0.3750000000000256
 40
0.3750000000000256
 40
0.4375000000000291
 40
0.4375000000000291
 40
0.4687500000000291
 40
0.4687500000000291
 40
0.5000000000000292
 40
0.5000000000000292
 40
0.5312500000000293
 40
0.5312500000000293
 40
0.5625000000000293
 40
0.5625000000000293
 40
0.625000000000026
 40
0.625000000000026
 40
0.7500000000000173
 40
0.7500000000000173
 40
1.0
 40
1.0
 40
1.0
 40
1.0
 10
59.43075802868024
 20
126.0698543906189
 30
0.0
 10
59.39215750581177
 20
125.9520796942635
 30
0.0
 10
59.34586050325751
 20
125.8276900081015
 30
0.0
 10
59.25192115482358
 20
125.622470675748
 30
0.0
 10
59.21660968791012
 20
125.5508978093016
 30
0.0
 10
59.15042971216445
 20
125.4349445767012
 30
0.0
 10
59.12589134549623
 20
125.3943600418909
 30
0.0
 10
59.08251859994243
 20
125.3302183600192
 30
0.0
 10
59.06701019851723
 20
125.3083519347341
 30
0.0
 10
59.0319675539302
 20
125.2627576663909
 30
0.0
 10
59.01241726321044
 20
125.2390873754235
 30
0.0
 10
58.97048998283982
 20
125.1944708160836
 30
0.0
 10
58.94783787260818
 20
125.1735908035657
 30
0.0
 10
58.90686415852156
 20
125.1427173898148
 30
0.0
 10
58.88926485862614
 20
125.1328785199824
 30
0.0
 10
58.84463787276999
 20
125.1138889042863
 30
0.0
 10
58.82407865011665
 20
125.1135645796328
 30
0.0
 10
58.77295321061998
 20
125.122788020509
 30
0.0
 10
58.75204179763143
 20
125.144034916726
 30
0.0
 10
58.70059189007051
 20
125.2180037955568
 30
0.0
 10
58.68292659076596
 20
125.2841218888715
 30
0.0
 10
58.66926775729914
 20
125.3542876018018
 30
0.0
  0
SPLINE
  5
B1
330
1F
100
AcDbEntity
  8
0
  6
Continuous
 62
     7
370
    15
100
AcDbSpline
210
0.0
220
0.0
230
1.0
 70
     8
 71
     3
 72
    10
 73
     6
 74
     0
 42
0.00000001
 43
0.00000001
 40
0.0
 40
0.0
 40
0.0
 40
0.0
 40
0.5
 40
0.5
 40
1.0
 40
1.0
 40
1.0
 40
1.0
 10
59.74655945215754
 20
126.5396889493087
 30
0.0
 10
59.67900019723929
 20
126.471997556499
 30
0.0
 10
59.61536354190279
 20
126.3972903917453
 30
0.0
 10
59.50514278733092
 20
126.2383242593187
 30
0.0
 10
59.4583264941083
 20
126.1539689933107
 30
0.0
 10
59.43075802868022
 20
126.0698543906189
 30
0.0
  0
SPLINE
  5
B2
330
1F
100
AcDbEntity
  8
0
  6
Continuous
 62
     7
370
    15
100
AcDbSpline
210
0.0
220
0.0
230
1.0
 70
     8
 71
     3
 72
    10
 73
     6
 74
     0
 42
0.00000001
 43
0.00000001
 40
0.0
 40
0.0
 40
0.0
 40
0.0
 40
0.5
 40
0.5
 40
1.0
 40
1.0
 40
1.0
 40
1.0
 10
59.43075802868028
 20
85.2896157234231
 30
0.0
 10
59.45823544343348
 20
85.2057789269575
 30
0.0
 10
59.50494407372114
 20
85.12146843937067
 30
0.0
 10
59.61522253646309
 20
84.96234720888782
 30
0.0
 10
59.67911007507473
 20
84.88736246479974
 30
0.0
 10
59.74655945215707
 20
84.81978116473387
 30
0.0
  0
SPLINE
  5
B3
330
1F
100
AcDbEntity
  8
0
  6
Continuous
 62
     7
370
    15
100
AcDbSpline
210
0.0
220
0.0
230
1.0
 70
     8
 71
     3
 72
    24
 73
    20
 74
     0
 42
0.00000001
 43
0.00000001
 40
0.0
 40
0.0
 40
0.0
 40
0.0
 40
0.25
 40
0.25
 40
0.374999999999999
 40
0.374999999999999
 40
0.4374999999999993
 40
0.4374999999999993
 40
0.4687499999999994
 40
0.4687499999999994
 40
0.4999999999999995
 40
0.4999999999999995
 40
0.5624999999999971
 40
0.5624999999999971
 40
0.6249999999999947
 40
0.6249999999999947
 40
0.7499999999999947
 40
0.7499999999999947
 40
1.0
 40
1.0
 40
1.0
 40
1.0
 10
58.66926775729914
 20
86.00518251224032
 30
0.0
 10
58.68302087596935
 20
86.0758325702306
 30
0.0
 10
58.70079344337523
 20
86.14243068299554
 30
0.0
 10
58.75304453493057
 20
86.21652870322875
 30
0.0
 10
58.77407961051215
 20
86.2377865103903
 30
0.0
 10
58.82698001814057
 20
86.24593243653653
 30
0.0
 10
58.84808569101849
 20
86.24499263314077
 30
0.0
 10
58.89413785969646
 20
86.22397664156343
 30
0.0
 10
58.91250833167985
 20
86.2130678354558
 30
0.0
 10
58.95405996674555
 20
86.18043292450844
 30
0.0
 10
58.97662663950247
 20
86.15894094413706
 30
0.0
 10
59.03940765596248
 20
86.09047500055075
 30
0.0
 10
59.07253741693039
 20
86.04440054234566
 30
0.0
 10
59.12945510341538
 20
85.959392654011
 30
0.0
 10
59.15364112891916
 20
85.91911235282961
 30
0.0
 10
59.21884907929892
 20
85.80417612636367
 30
0.0
 10
59.25356513949016
 20
85.73359314121666
 30
0.0
 10
59.34678040982105
 20
85.52938738213805
 30
0.0
 10
59.39245294518172
 20
85.40648899981069
 30
0.0
 10
59.43075802868027
 20
85.28961572342311
 30
0.0
  0
LINE
  5
B4
330
1F
100
AcDbEntity
  8
0
  6
Continuous
 62
     7
370
    15
100
AcDbLine
 10
115.8566050919
 20
136.1469304934
 30
0.0
 11
111.8985363038
 21
136.1469304934
 31
0.0
  0
LINE
  5
B5
330
1F
100
AcDbEntity
  8
0
  6
Continuous
 62
     7
370
    15
100
AcDbLine
 10
111.8985363038
 20
130.1384246722
 30
0.0
 11
115.8566050919
 21
130.1384246722
 31
0.0
  0
LINE
  5
B6
330
1F
100
AcDbEntity
  8
0
  6
Continuous
 62
     7
370
    15
100
AcDbLine
 10
111.8985363038
 20
130.1384246722
 30
0.0
 11
111.8985363038
 21
136.1469304934
 31
0.0
  0
SPLINE
  5
B7
330
1F
100
AcDbEntity
  8
0
  6
Continuous
 62
     7
370
    15
100
AcDbSpline
210
0.0
220
0.0
230
1.0
 70
     8
 71
     3
 72
     8
 73
     4
 74
     0
 42
0.00000001
 43
0.00000001
 40
0.0
 40
0.0
 40
0.0
 40
0.0
 40
1.0
 40
1.0
 40
1.0
 40
1.0
 10
106.5966043825757
 20
133.4849692481927
 30
0.0
 10
106.10389428573
 20
134.3729882463191
 30
0.0
 10
105.609811580451
 20
135.260250882005
 30
0.0
 10
105.1146715510867
 20
136.1469305301853
 30
0.0
  0
LINE
  5
B8
330
1F
100
AcDbEntity
  8
0
  6
Continuous
 62
     7
370
    15
100
AcDbLine
 10
106.5966044309
 20
126.729879044
 30
0.0
 11
106.5966044309
 21
133.4849684313
 31
0.0
  0
SPLINE
  5
B9
330
1F
100
AcDbEntity
  8
0
  6
Continuous
 62
     7
370
    15
100
AcDbSpline
210
0.0
220
0.0
230
1.0
 70
     8
 71
     3
 72
     8
 73
     4
 74
     0
 42
0.00000001
 43
0.00000001
 40
0.0
 40
0.0
 40
0.0
 40
0.0
 40
1.0
 40
1.0
 40
1.0
 40
1.0
 10
105.1146715510867
 20
130.1384247193885
 30
0.0
 10
105.6217583928459
 20
129.0072743652248
 30
0.0
 10
106.1173262319859
 20
127.870889954457
 30
0.0
 10
106.5966043825757
 20
126.7298787246044
 30
0.0
  0
SPLINE
  5
BA
330
1F
100
AcDbEntity
  8
0
  6
Continuous
 62
     7
370
    15
100
AcDbSpline
210
0.0
220
0.0
230
1.0
 70
     8
 71
     3
 72
     8
 73
     4
 74
     0
 42
0.00000001
 43
0.00000001
 40
0.0
 40
0.0
 40
0.0
 40
0.0
 40
1.0
 40
1.0
 40
1.0
 40
1.0
 10
110.4166043825757
 20
126.7298787246044
 30
0.0
 10
110.8958825331656
 20
127.870889954457
 30
0.0
 10
111.3914503723055
 20
129.0072743652248
 30
0.0
 10
111.8985372140648
 20
130.1384247193885
 30
0.0
  0
SPLINE
  5
BB
330
1F
100
AcDbEntity
  8
0
  6
Continuous
 62
     7
370
    15
100
AcDbSpline
210
0.0
220
0.0
230
1.0
 70
     8
 71
     3
 72
    12
 73
     8
 74
     0
 42
0.00000001
 43
0.00000001
 40
0.0
 40
0.0
 40
0.0
 40
0.0
 40
0.25
 40
0.25
 40
0.5
 40
0.5
 40
1.0
 40
1.0
 40
1.0
 40
1.0
 10
115.8566043825757
 20
130.1384247193885
 30
0.0
 10
115.9478041044014
 20
130.1384247193885
 30
0.0
 10
116.0383991135374
 20
130.1102050208006
 30
0.0
 10
116.191811839984
 20
130.0157620135525
 30
0.0
 10
116.2570207073077
 20
129.9494750368472
 30
0.0
 10
116.4098052366477
 20
129.7238502135589
 30
0.0
 10
116.4566043825757
 20
129.5414239505264
 30
0.0
 10
116.4566043825757
 20
129.3606873182795
 30
0.0
  0
LINE
  5
BC
330
1F
100
AcDbEntity
  8
0
  6
Continuous
 62
     7
370
    15
100
AcDbLine
 10
110.4166046472
 20
125.8156015351
 30
0.0
 11
110.4166046472
 21
126.729879044
 31
0.0
  0
LINE
  5
BD
330
1F
100
AcDbEntity
  8
0
  6
Continuous
 62
     7
370
    15
100
AcDbLine
 10
116.4566040726
 20
129.3606865033
 30
0.0
 11
116.4566040726
 21
125.5297357961
 31
0.0
  0
SPLINE
  5
BE
330
1F
100
AcDbEntity
  8
0
  6
Continuous
 62
     7
370
    15
100
AcDbSpline
210
0.0
220
0.0
230
1.0
 70
     8
 71
     3
 72
    10
 73
     6
 74
     0
 42
0.00000001
 43
0.00000001
 40
0.0
 40
0.0
 40
0.0
 40
0.0
 40
0.5
 40
0.5
 40
1.0
 40
1.0
 40
1.0
 40
1.0
 10
116.4566043825757
 20
135.526175380785
 30
0.0
 10
116.4566043825757
 20
135.6865806471358
 30
0.0
 10
116.3943665514689
 20
135.8456424601244
 30
0.0
 10
116.1752316277263
 20
136.0765549257547
 30
0.0
 10
116.0176429327344
 20
136.1469305301853
 30
0.0
 10
115.8566043825757
 20
136.1469305301853
 30
0.0
  0
LINE
  5
BF
330
1F
100
AcDbEntity
  8
0
  6
Continuous
 62
     7
370
    15
100
AcDbLine
 10
116.4566040726
 20
129.3606865033
 30
0.0
 11
116.4566040726
 21
135.5261760577
 31
0.0
  0
SPLINE
  5
C0
330
1F
100
AcDbEntity
  8
0
  6
Continuous
 62
     7
370
    15
100
AcDbSpline
210
0.0
220
0.0
230
1.0
 70
     8
 71
     3
 72
     8
 73
     4
 74
     0
 42
0.00000001
 43
0.00000001
 40
0.0
 40
0.0
 40
0.0
 40
0.0
 40
1.0
 40
1.0
 40
1.0
 40
1.0
 10
111.8985372140648
 20
136.1469305301853
 30
0.0
 10
111.4033971847005
 20
135.260250882005
 30
0.0
 10
110.9093144794215
 20
134.372988246319
 30
0.0
 10
110.4166043825757
 20
133.4849692481927
 30
0.0
  0
LINE
  5
C1
330
1F
100
AcDbEntity
  8
0
  6
Continuous
 62
     7
370
    15
100
AcDbLine
 10
110.4166046472
 20
126.729879044
 30
0.0
 11
110.4166046472
 21
133.4849684313
 31
0.0
  0
LINE
  5
C2
330
1F
100
AcDbEntity
  8
0
  6
Continuous
 62
     7
370
    15
100
AcDbLine
 10
106.5966044309
 20
126.729879044
 30
0.0
 11
106.5966044309
 21
125.8156015351
 31
0.0
  0
ARC
  5
C3
330
1F
100
AcDbEntity
  8
0
  6
Continuous
 62
     7
370
    15
100
AcDbCircle
 10
98.5064681713
 20
124.440299318
 30
0.0
 40
7.197556098821867
100
AcDbArc
 50
70.7482971842
 51
109.2067721816
  0
SPLINE
  5
C4
330
1F
100
AcDbEntity
  8
0
  6
Continuous
 62
     7
370
    15
100
AcDbSpline
210
0.0
220
0.0
230
1.0
 70
     8
 71
     3
 72
    37
 73
    33
 74
     0
 42
0.00000001
 43
0.00000001
 40
-0.067296199240571
 40
-0.0422745354165834
 40
-0.0198477749538895
 40
0.0
 40
0.0252075669987627
 40
0.0544363278070817
 40
0.0877117524171495
 40
0.1250489433360378
 40
0.1620915304691853
 40
0.1952559607563104
 40
0.2245582096132385
 40
0.2500241769224359
 40
0.2848342141693757
 40
0.3264523844552495
 40
0.3749196230365334
 40
0.412314776433037
 40
0.4456207602114306
 40
0.4748524896767499
 40
0.5000352833317029
 40
0.5344594906465229
 40
0.5760834699268524
 40
0.6249453020700586
 40
0.6620128839145539
 40
0.6952092116710379
 40
0.7245502584388441
 40
0.7500618788844043
 40
0.7848149950164596
 40
0.8263926145825308
 40
0.8748356825798638
 40
0.9050763678479885
 40
0.932703800759429
 40
0.9577254645834166
 40
0.9801522250461105
 40
1.0
 40
1.025207566998763
 40
1.054436327807082
 40
1.08771175241715
 10
232.6807596324638
 20
103.1936095383323
 30
0.0
 10
233.034686850419
 20
103.1714561403933
 30
0.0
 10
233.4245296691128
 20
103.2024588614038
 30
0.0
 10
233.871637799643
 20
103.3169663077633
 30
0.0
 10
234.3452016086635
 20
103.5440282616329
 30
0.0
 10
234.7892638714573
 20
103.894758513137
 30
0.0
 10
235.1400252149879
 20
104.3379508016041
 30
0.0
 10
235.3674177820382
 20
104.8094126988337
 30
0.0
 10
235.4832779959395
 20
105.2574602055181
 30
0.0
 10
235.5213389701061
 20
105.7273782686651
 30
0.0
 10
235.4626855340953
 20
106.262697161132
 30
0.0
 10
235.2363683968289
 20
106.8830058854211
 30
0.0
 10
234.8369002912454
 20
107.4271609896906
 30
0.0
 10
234.3456171744828
 20
107.8151963319605
 30
0.0
 10
233.8715949784689
 20
108.0425572048081
 30
0.0
 10
233.4243919830209
 20
108.1570061077074
 30
0.0
 10
232.958345024296
 20
108.1941217981607
 30
0.0
 10
232.42657583017
 20
108.1362631804648
 30
0.0
 10
231.8058008936793
 20
107.9111813328495
 30
0.0
 10
231.2608991598895
 20
107.5117678987051
 30
0.0
 10
230.8728201195298
 20
107.0209339860672
 30
0.0
 10
230.645306811972
 20
106.5488819225194
 30
0.0
 10
230.5295820854872
 20
106.1001700316109
 30
0.0
 10
230.4919141674859
 20
105.6300662288305
 30
0.0
 10
230.5510005087531
 20
105.0950758022674
 30
0.0
 10
230.7773529294986
 20
104.4755604102861
 30
0.0
 10
231.1546060400773
 20
103.9621621582428
 30
0.0
 10
231.5835788416633
 20
103.6076160490016
 30
0.0
 10
231.9630854574045
 20
103.3953797974036
 30
0.0
 10
232.3339666441607
 20
103.2622841496498
 30
0.0
 10
232.6807596324638
 20
103.1936095383323
 30
0.0
 10
233.034686850419
 20
103.1714561403933
 30
0.0
 10
233.4245296691128
 20
103.2024588614038
 30
0.0
  0
SPLINE
  5
C5
330
1F
100
AcDbEntity
  8
0
  6
Continuous
 62
     7
370
    15
100
AcDbSpline
210
0.0
220
0.0
230
1.0
 70
     8
 71
     3
 72
    39
 73
    35
 74
     0
 42
0.00000001
 43
0.00000001
 40
-0.0930101214665907
 40
-0.0618280028303779
 40
-0.0306436199917423
 40
0.0
 40
0.0306596107137421
 40
0.0618452964001042
 40
0.0930163102304085
 40
0.124078594507491
 40
0.1552163478462354
 40
0.1868112107939092
 40
0.2185267826050299
 40
0.2499192584027214
 40
0.281317741718739
 40
0.3130921101017173
 40
0.3447271324220555
 40
0.3759220232796968
 40
0.4069779730815166
 40
0.4381192479310189
 40
0.4692677792212426
 40
0.500009339200717
 40
0.5307192062577448
 40
0.5619180231307671
 40
0.593048639429455
 40
0.624133176256131
 40
0.6552964593285217
 40
0.6869387764013567
 40
0.718665975160779
 40
0.7500826423953667
 40
0.78145237121099
 40
0.8132065805149582
 40
0.8447916839894715
 40
0.8759584677019113
 40
0.9069898785334092
 40
0.938171997169622
 40
0.9693563800082576
 40
0.9999999999999999
 40
1.030659610713742
 40
1.061845296400104
 40
1.093016310230408
 10
233.5792205362234
 20
102.7348106310231
 30
0.0
 10
233.0064988844689
 20
102.6767599871274
 30
0.0
 10
232.433808272602
 20
102.734994421008
 30
0.0
 10
231.8833243720118
 20
102.9100297077471
 30
0.0
 10
231.3742566565117
 20
103.1855693813939
 30
0.0
 10
230.9319760566342
 20
103.5575545703467
 30
0.0
 10
230.5688094629475
 20
104.0104033830012
 30
0.0
 10
230.3004942785724
 20
104.5303948026849
 30
0.0
 10
230.1302276223587
 20
105.0931519347122
 30
0.0
 10
230.0739754057966
 20
105.6782772702298
 30
0.0
 10
230.1303989509243
 20
106.263729814195
 30
0.0
 10
230.3004989509064
 20
106.8271950246621
 30
0.0
 10
230.5687035750526
 20
107.3483350751102
 30
0.0
 10
230.9319325063591
 20
107.8018710829875
 30
0.0
 10
231.373994399702
 20
108.1742831886955
 30
0.0
 10
231.8824696336819
 20
108.4500140548723
 30
0.0
 10
232.433171690999
 20
108.6248054803349
 30
0.0
 10
233.0065791816021
 20
108.6826327902825
 30
0.0
 10
233.5802934275565
 20
108.6247502088782
 30
0.0
 10
234.130994892773
 20
108.4497667632364
 30
0.0
 10
234.6398269332774
 20
108.1738351365574
 30
0.0
 10
235.0817583166907
 20
107.801373721661
 30
0.0
 10
235.4449066817586
 20
107.3477572434239
 30
0.0
 10
235.712879114437
 20
106.8269832356253
 30
0.0
 10
235.8828259436524
 20
106.2636231205446
 30
0.0
 10
235.9392266211222
 20
105.678490820991
 30
0.0
 10
235.8829942124826
 20
105.0931549137157
 30
0.0
 10
235.7126690364213
 20
104.5303666144378
 30
0.0
 10
235.4442084021933
 20
104.0100541318864
 30
0.0
 10
235.0809990183884
 20
103.55731535513
 30
0.0
 10
234.6386126999833
 20
103.1853747490236
 30
0.0
 10
234.1296211507849
 20
102.9099861840904
 30
0.0
 10
233.5792205362234
 20
102.7348106310231
 30
0.0
 10
233.0064988844689
 20
102.6767599871274
 30
0.0
 10
232.433808272602
 20
102.734994421008
 30
0.0
  0
LINE
  5
C6
330
1F
100
AcDbEntity
  8
0
  6
Continuous
 62
     7
370
    15
100
AcDbLine
 10
236.5673095675
 20
90.6797353923
 30
0.0
 11
236.5673095675
 21
120.6797347217
 31
0.0
  0
LINE
  5
C7
330
1F
100
AcDbEntity
  8
0
  6
Continuous
 62
     7
370
    15
100
AcDbLine
 10
160.1301789971
 20
120.5148300901
 30
0.0
 11
160.3460148664
 21
120.495734252
 31
0.0
  0
SPLINE
  5
C8
330
1F
100
AcDbEntity
  8
0
  6
Continuous
 62
     7
370
    15
100
AcDbSpline
210
0.0
220
0.0
230
1.0
 70
     8
 71
     3
 72
    17
 73
    13
 74
     0
 42
0.00000001
 43
0.00000001
 40
0.0
 40
0.0
 40
0.0
 40
0.0
 40
0.0484987774625112
 40
0.130173484380356
 40
0.2172839737707572
 40
0.3173414436042765
 40
0.4328119766004636
 40
0.5594430811965845
 40
0.6897703204247365
 40
0.8168948700113572
 40
0.909535849294173
 40
0.9999999999999999
 40
0.9999999999999999
 40
0.9999999999999999
 40
0.9999999999999999
 10
165.9167469235074
 20
120.6731465458521
 30
0.0
 10
165.9228011171217
 20
120.6741319962556
 30
0.0
 10
165.9390509180263
 20
120.6767770013345
 30
0.0
 10
165.6380154535829
 20
120.6275884125842
 30
0.0
 10
165.0807597892719
 20
120.5473575069211
 30
0.0
 10
164.2302275616791
 20
120.4511542394222
 30
0.0
 10
163.1160533934227
 20
120.3786616987781
 30
0.0
 10
161.8326715068974
 20
120.3755250433346
 30
0.0
 10
160.5721739531522
 20
120.4581341536718
 30
0.0
 10
159.6315510426719
 20
120.5733900491322
 30
0.0
 10
159.0582885923267
 20
120.6624821800495
 30
0.0
 10
158.9934335347705
 20
120.6735085125799
 30
0.0
 10
158.9613915177
 20
120.6789561360726
 30
0.0
  0
LINE
  5
C9
330
1F
100
AcDbEntity
  8
0
  6
Continuous
 62
     7
370
    15
100
AcDbLine
 10
159.6850589605
 20
120.5719164386
 30
0.0
 11
160.1301789971
 21
120.5148300901
 31
0.0
  0
SPLINE
  5
CA
330
1F
100
AcDbEntity
  8
0
  6
Continuous
 62
     7
370
    15
100
AcDbSpline
210
0.0
220
0.0
230
1.0
 70
     8
 71
     3
 72
    60
 73
    56
 74
     0
 42
0.00000001
 43
0.00000001
 40
-0.0312499999999998
 40
-0.0312499999999998
 40
0.0
 40
0.0
 40
0.0625000000000013
 40
0.0625000000000013
 40
0.093750000000001
 40
0.093750000000001
 40
0.1250000000000007
 40
0.1250000000000007
 40
0.1875000000000002
 40
0.1875000000000002
 40
0.2499999999999996
 40
0.2499999999999996
 40
0.2812499999999993
 40
0.2812499999999993
 40
0.312499999999999
 40
0.312499999999999
 40
0.3437499999999987
 40
0.3437499999999987
 40
0.3749999999999984
 40
0.3749999999999984
 40
0.4062499999999982
 40
0.4062499999999982
 40
0.4374999999999979
 40
0.4374999999999979
 40
0.4687499999999976
 40
0.4687499999999976
 40
0.4999999999999973
 40
0.4999999999999973
 40
0.5624999999999984
 40
0.5624999999999984
 40
0.593749999999999
 40
0.593749999999999
 40
0.6249999999999996
 40
0.6249999999999996
 40
0.6562500000000001
 40
0.6562500000000001
 40
0.6875000000000007
 40
0.6875000000000007
 40
0.7500000000000018
 40
0.7500000000000018
 40
0.7812500000000016
 40
0.7812500000000016
 40
0.8125000000000013
 40
0.8125000000000013
 40
0.8437500000000011
 40
0.8437500000000011
 40
0.8750000000000009
 40
0.8750000000000009
 40
0.9062500000000007
 40
0.9062500000000007
 40
0.9375000000000004
 40
0.9375000000000004
 40
0.9687500000000002
 40
0.9687500000000002
 40
1.0
 40
1.0
 40
1.062500000000001
 40
1.062500000000001
 10
159.9604712372006
 20
107.7684088446771
 30
0.0
 10
160.4696003612377
 20
108.1566856381707
 30
0.0
 10
160.8468185167673
 20
108.3475335806402
 30
0.0
 10
161.4569035864783
 20
108.5408188006515
 30
0.0
 10
161.6632048860451
 20
108.5879311942082
 30
0.0
 10
162.0814008046439
 20
108.6493897445303
 30
0.0
 10
162.2945086283614
 20
108.6636963355863
 30
0.0
 10
162.9344244218335
 20
108.6555620031073
 30
0.0
 10
163.3515479221766
 20
108.5842220357276
 30
0.0
 10
164.1581751817691
 20
108.3055231862848
 30
0.0
 10
164.5277441862872
 20
108.1060555416173
 30
0.0
 10
165.0252946344343
 20
107.7037045656778
 30
0.0
 10
165.1765539086936
 20
107.5556979274758
 30
0.0
 10
165.4464428197584
 20
107.2315809248728
 30
0.0
 10
165.5666369765908
 20
107.0525063452594
 30
0.0
 10
165.7606398418559
 20
106.67630003543
 30
0.0
 10
165.8351940010508
 20
106.4795431369362
 30
0.0
 10
165.935317580362
 20
106.0670572437747
 30
0.0
 10
165.9596603810621
 20
105.8515669037857
 30
0.0
 10
165.9529150004238
 20
105.4284370334412
 30
0.0
 10
165.9218971928686
 20
105.2144251112551
 30
0.0
 10
165.8086623613159
 20
104.8037750749599
 30
0.0
 10
165.7276144275447
 20
104.6077758146811
 30
0.0
 10
165.5198198918787
 20
104.2331334229714
 30
0.0
 10
165.3964228592224
 20
104.0605591666516
 30
0.0
 10
165.1162040026825
 20
103.742198083396
 30
0.0
 10
164.9583427927889
 20
103.59607641379
 30
0.0
 10
164.4546769626142
 20
103.209792873441
 30
0.0
 10
164.0688320023888
 20
103.0134283497581
 30
0.0
 10
163.4640147002205
 20
102.8207425987397
 30
0.0
 10
163.2555286080424
 20
102.7725398450909
 30
0.0
 10
162.8331555867613
 20
102.7100924636354
 30
0.0
 10
162.6217797169843
 20
102.6959909902434
 30
0.0
 10
162.1986615624975
 20
102.7008625506196
 30
0.0
 10
161.9857171999222
 20
102.7200514615246
 30
0.0
 10
161.5648153609033
 20
102.7925325601285
 30
0.0
 10
161.3599536842123
 20
102.8450790379062
 30
0.0
 10
160.7619194558216
 20
103.051292425246
 30
0.0
 10
160.3801209716659
 20
103.2576985418418
 30
0.0
 10
159.8903134154278
 20
103.6538439553144
 30
0.0
 10
159.7391640369776
 20
103.8008271112994
 30
0.0
 10
159.4650585857864
 20
104.1298715351259
 30
0.0
 10
159.3471681858072
 20
104.3059427735783
 30
0.0
 10
159.1527168524949
 20
104.6827482094335
 30
0.0
 10
159.0760522177683
 20
104.8859757114448
 30
0.0
 10
158.9770849748861
 20
105.2978282667148
 30
0.0
 10
158.9531589631451
 20
105.509048434235
 30
0.0
 10
158.9608445353249
 20
105.9394354665308
 30
0.0
 10
158.9921538732458
 20
106.1495213859831
 30
0.0
 10
159.1061761691278
 20
106.5601524230548
 30
0.0
 10
159.1894950465306
 20
106.7598001677827
 30
0.0
 10
159.3963094590569
 20
107.1304931749333
 30
0.0
 10
159.5220459568606
 20
107.3058121717082
 30
0.0
 10
159.8038819766879
 20
107.62411934563
 30
0.0
 10
159.9604712372006
 20
107.7684088446771
 30
0.0
 10
160.4696003612377
 20
108.1566856381707
 30
0.0
  0
LINE
  5
CB
330
1F
100
AcDbEntity
  8
0
  6
Continuous
 62
     7
370
    15
100
AcDbLine
 10
160.1301789971
 20
90.844640024
 30
0.0
 11
159.8982573243
 21
90.8142723888
 31
0.0
  0
SPLINE
  5
CC
330
1F
100
AcDbEntity
  8
0
  6
Continuous
 62
     7
370
    15
100
AcDbSpline
210
0.0
220
0.0
230
1.0
 70
     8
 71
     3
 72
    18
 73
    14
 74
     0
 42
0.00000001
 43
0.00000001
 40
0.0
 40
0.0
 40
0.0
 40
0.0
 40
0.0288138266656098
 40
0.1106952653881851
 40
0.1956264050294428
 40
0.2921010068428503
 40
0.4039728681377541
 40
0.5285624941714937
 40
0.6585588835899698
 40
0.7871681751833873
 40
0.8841273986230448
 40
0.9815871031705198
 40
1.0
 40
1.0
 40
1.0
 40
1.0
 10
158.9923635812414
 20
90.6856343894848
 30
0.0
 10
158.9822485916685
 20
90.68396837753527
 30
0.0
 10
158.9433894193636
 20
90.67756799076842
 30
0.0
 10
159.1815335148367
 20
90.71704076010145
 30
0.0
 10
159.6708815784862
 20
90.79017288270352
 30
0.0
 10
160.455203409276
 20
90.88589179228893
 30
0.0
 10
161.5094312298914
 20
90.968165568906
 30
0.0
 10
162.7688951587415
 20
90.99119023600356
 30
0.0
 10
164.0508384046237
 20
90.92795870053683
 30
0.0
 10
165.0860990221695
 20
90.8127939945818
 30
0.0
 10
165.7217502380667
 20
90.71905867756318
 30
0.0
 10
165.9880751621042
 20
90.67455737968285
 30
0.0
 10
165.9389223403764
 20
90.68264571269295
 30
0.0
 10
165.9311116428983
 20
90.68393100049583
 30
0.0
  0
SPLINE
  5
CD
330
1F
100
AcDbEntity
  8
0
  6
Continuous
 62
     7
370
    15
100
AcDbSpline
210
0.0
220
0.0
230
1.0
 70
     8
 71
     3
 72
     9
 73
     5
 74
     0
 42
0.00000001
 43
0.00000001
 40
0.0
 40
0.0
 40
0.0
 40
0.0
 40
0.1193745775332962
 40
1.0
 40
1.0
 40
1.0
 40
1.0
 10
160.3780747147214
 20
90.87053265419094
 30
0.0
 10
160.3670273897424
 20
90.86972737415331
 30
0.0
 10
160.2744840257596
 20
90.86298154891769
 30
0.0
 10
160.1977515584989
 20
90.85322866313453
 30
0.0
 10
160.1301789971006
 20
90.84464002397148
 30
0.0
  0
CIRCLE
  5
CE
330
1F
100
AcDbEntity
  8
0
  6
Continuous
 62
     7
370
    15
100
AcDbCircle
 10
162.4566043826
 20
105.679735057
 30
0.0
 40
2.5
  0
LINE
  5
CF
330
1F
100
AcDbEntity
  8
0
  6
Continuous
 62
     7
370
    15
100
AcDbLine
 10
250.5066008063
 20
98.4538756124
 30
0.0
 11
250.5066008063
 21
112.9055940359
 31
0.0
  0
LWPOLYLINE
  5
D0
330
1F
100
AcDbEntity
  8
0
  6
HIDDEN
 62
     7
370
     0
100
AcDbPolyline
 90
       17
 70
   128
 43
0.0
 10
245.091295311
 20
100.0138236954
 10
245.0761408301
 20
99.9753349274
 10
245.0555325242
 20
100.1631775684
 10
245.0325996371
 20
100.5487553589
 10
245.0108439417
 20
101.0733670368
 10
244.9935734959
 20
101.6571447067
 10
244.983410904
 20
102.2112143505
 10
244.9819058867
 20
102.6512235216
 10
244.9892968627
 20
102.9101847484
 10
245.0044364424
 20
102.9486737493
 10
245.0250447484
 20
102.7608306426
 10
245.0479776354
 20
102.375253085
 10
245.0697333308
 20
101.8506416399
 10
245.0870037766
 20
101.2668637372
 10
245.0971663685
 20
100.7127943262
 10
245.0986713858
 20
100.2727849222
 10
245.091295311
 20
100.0138236954
  0
LWPOLYLINE
  5
D1
330
1F
100
AcDbEntity
  8
0
  6
HIDDEN
 62
     7
370
     0
100
AcDbPolyline
 90
       17
 70
   128
 43
0.0
 10
244.5746720524
 20
100.482670106
 10
244.5645690652
 20
100.457010772
 10
244.5508301945
 20
100.5822396651
 10
244.5355565043
 20
100.8392912149
 10
244.5210427733
 20
101.1890321783
 10
244.5095241757
 20
101.5782174468
 10
244.5027590485
 20
101.9475972093
 10
244.5017457696
 20
102.2409365791
 10
244.5066780539
 20
102.4135774746
 10
244.5167810412
 20
102.4392368085
 10
244.5305199118
 20
102.3140081484
 10
244.5457936021
 20
102.0569563657
 10
244.5603073331
 20
101.7072154022
 10
244.5718259307
 20
101.3180301338
 10
244.5785910578
 20
100.9486503712
 10
244.5796043368
 20
100.6553107686
 10
244.5746720524
 20
100.482670106
  0
LWPOLYLINE
  5
D2
330
1F
100
AcDbEntity
  8
0
  6
HIDDEN
 62
     7
370
     0
100
AcDbPolyline
 90
       17
 70
   128
 43
0.0
 10
250.425225565
 20
100.1620129496
 10
250.4100710841
 20
100.1235237158
 10
250.3894627782
 20
100.3113668225
 10
250.3665447922
 20
100.696944613
 10
250.3447890969
 20
101.2215558253
 10
250.3275037499
 20
101.8053339608
 10
250.317341158
 20
102.3594033718
 10
250.3158361407
 20
102.7994125429
 10
250.3232271166
 20
103.0583740025
 10
250.3383815976
 20
103.0968627706
 10
250.3589899035
 20
102.9090198967
 10
250.3819078894
 20
102.5234421063
 10
250.4036784859
 20
101.9988306611
 10
250.4209489318
 20
101.4150529913
 10
250.4311115237
 20
100.8609831147
 10
250.432616541
 20
100.4209741763
 10
250.425225565
 20
100.1620129496
  0
ARC
  5
D3
330
1F
100
AcDbEntity
  8
0
  6
HIDDEN
 62
     7
370
     0
100
AcDbCircle
 10
263.9795935402
 20
101.9702380686
 30
0.0
 40
13.50005222610975
100
AcDbArc
 50
176.3717074621
 51
186.6917141612
  0
LINE
  5
D4
330
1F
100
AcDbEntity
  8
0
  6
HIDDEN
 62
     7
370
     0
100
AcDbLine
 10
248.567035863
 20
101.3354323618
 30
0.0
 11
248.567035863
 21
100.7230598293
 31
0.0
  0
LINE
  5
D5
330
1F
100
AcDbEntity
  8
0
  6
HIDDEN
 62
     7
370
     0
100
AcDbLine
 10
250.5654901953
 20
101.3909540884
 30
0.0
 11
250.5654901953
 21
100.7785815559
 31
0.0
  0
LINE
  5
D6
330
1F
100
AcDbEntity
  8
0
  6
HIDDEN
 62
     7
370
     0
100
AcDbLine
 10
248.567035863
 20
101.3354323618
 30
0.0
 11
250.5654901953
 21
101.3909540884
 31
0.0
  0
LINE
  5
D7
330
1F
100
AcDbEntity
  8
0
  6
HIDDEN
 62
     7
370
     0
100
AcDbLine
 10
248.567035863
 20
101.3354323618
 30
0.0
 11
248.5375911685
 21
102.171539776
 31
0.0
  0
LINE
  5
D8
330
1F
100
AcDbEntity
  8
0
  6
HIDDEN
 62
     7
370
     0
100
AcDbLine
 10
250.5654901953
 20
101.3909540884
 30
0.0
 11
250.5360455008
 21
102.2270615026
 31
0.0
  0
LINE
  5
D9
330
1F
100
AcDbEntity
  8
0
  6
HIDDEN
 62
     7
370
     0
100
AcDbLine
 10
248.5375911685
 20
102.171539776
 30
0.0
 11
250.5360455008
 21
102.2270615026
 31
0.0
  0
LINE
  5
DA
330
1F
100
AcDbEntity
  8
0
  6
HIDDEN
 62
     7
370
     0
100
AcDbLine
 10
248.5375911685
 20
102.171539776
 30
0.0
 11
248.5081464739
 21
102.3952748906
 31
0.0
  0
LINE
  5
DB
330
1F
100
AcDbEntity
  8
0
  6
HIDDEN
 62
     7
370
     0
100
AcDbLine
 10
250.5360455008
 20
102.2270615026
 30
0.0
 11
250.5066008063
 21
102.4507966172
 31
0.0
  0
LINE
  5
DC
330
1F
100
AcDbEntity
  8
0
  6
HIDDEN
 62
     7
370
     0
100
AcDbLine
 10
248.5375911685
 20
100.946794711
 30
0.0
 11
250.5360455008
 21
101.0023169033
 31
0.0
  0
LINE
  5
DD
330
1F
100
AcDbEntity
  8
0
  6
HIDDEN
 62
     7
370
     0
100
AcDbLine
 10
248.567035863
 20
100.7230598293
 30
0.0
 11
250.5654901953
 21
100.7785815559
 31
0.0
  0
LINE
  5
DE
330
1F
100
AcDbEntity
  8
0
  6
HIDDEN
 62
     7
370
     0
100
AcDbLine
 10
248.5375911685
 20
100.946794711
 30
0.0
 11
248.567035863
 21
100.7230598293
 31
0.0
  0
LINE
  5
DF
330
1F
100
AcDbEntity
  8
0
  6
HIDDEN
 62
     7
370
     0
100
AcDbLine
 10
250.5360455008
 20
101.0023169033
 30
0.0
 11
250.5654901953
 21
100.7785815559
 31
0.0
  0
LINE
  5
E0
330
1F
100
AcDbEntity
  8
0
  6
HIDDEN
 62
     7
370
     0
100
AcDbLine
 10
248.5081464739
 20
101.7829023581
 30
0.0
 11
250.5066008063
 21
101.8384240847
 31
0.0
  0
LINE
  5
E1
330
1F
100
AcDbEntity
  8
0
  6
HIDDEN
 62
     7
370
     0
100
AcDbLine
 10
248.5081464739
 20
102.3952748906
 30
0.0
 11
250.5066008063
 21
102.4507966172
 31
0.0
  0
LINE
  5
E2
330
1F
100
AcDbEntity
  8
0
  6
HIDDEN
 62
     7
370
     0
100
AcDbLine
 10
248.5081464739
 20
101.7829023581
 30
0.0
 11
248.5081464739
 21
102.3952748906
 31
0.0
  0
LINE
  5
E3
330
1F
100
AcDbEntity
  8
0
  6
HIDDEN
 62
     7
370
     0
100
AcDbLine
 10
248.5375911685
 20
100.946794711
 30
0.0
 11
248.5081464739
 21
101.7829023581
 31
0.0
  0
LINE
  5
E4
330
1F
100
AcDbEntity
  8
0
  6
HIDDEN
 62
     7
370
     0
100
AcDbLine
 10
250.5360455008
 20
101.0023169033
 30
0.0
 11
250.5066008063
 21
101.8384240847
 31
0.0
  0
ARC
  5
E5
330
1F
100
AcDbEntity
  8
0
  6
HIDDEN
 62
     7
370
     0
100
AcDbCircle
 10
241.6204643978
 20
109.5902525351
 30
0.0
 40
8.886154461446374
100
AcDbArc
 50
353.1351767462
 51
359.8845073316
  0
ARC
  5
E6
330
1F
100
AcDbEntity
  8
0
  6
HIDDEN
 62
     7
370
     0
100
AcDbCircle
 10
270.0442393733
 20
109.2266309919
 30
0.0
 40
19.61376841719756
100
AcDbArc
 50
174.9501884589
 51
182.0409397348
  0
LWPOLYLINE
  5
E7
330
1F
100
AcDbEntity
  8
0
  6
HIDDEN
 62
     7
370
     0
100
AcDbPolyline
 90
       17
 70
   128
 43
0.0
 10
250.2730400057
 20
108.2523902692
 10
250.2916813584
 20
108.3463558275
 10
250.3140480014
 20
108.6541493237
 10
250.3367275687
 20
109.128911728
 10
250.356262991
 20
109.6983649581
 10
250.3696889372
 20
110.2758152224
 10
250.3749490471
 20
110.7733505591
 10
250.3712535592
 20
111.1152255721
 10
250.3591538163
 20
111.2493932992
 10
250.3404975625
 20
111.1554279737
 10
250.3181309195
 20
110.8476347103
 10
250.2954513522
 20
110.3728720732
 10
250.2759159299
 20
109.8034186102
 10
250.2625048848
 20
109.2259685788
 10
250.2572447749
 20
108.728433242
 10
250.2609402629
 20
108.3865579962
 10
250.2730400057
 20
108.2523902692
  0
LWPOLYLINE
  5
E8
330
1F
100
AcDbEntity
  8
0
  6
HIDDEN
 62
     7
370
     0
100
AcDbPolyline
 90
       17
 70
   128
 43
0.0
 10
244.9390948506
 20
108.4005792904
 10
244.9577511044
 20
108.4945448488
 10
244.9801177474
 20
108.8023383449
 10
245.0027973147
 20
109.2771007493
 10
245.022332737
 20
109.8465542122
 10
245.0357437821
 20
110.4240044765
 10
245.041003892
 20
110.9215393476
 10
245.037308404
 20
111.2634148262
 10
245.0252086611
 20
111.3975825533
 10
245.0065673085
 20
111.3036167621
 10
244.9842006655
 20
110.9958234988
 10
244.9615210982
 20
110.5210608616
 10
244.9419856759
 20
109.9516078643
 10
244.9285597296
 20
109.3741576001
 10
244.9232996197
 20
108.8766222633
 10
244.9269951077
 20
108.5347470175
 10
244.9390948506
 20
108.4005792904
  0
LWPOLYLINE
  5
E9
330
1F
100
AcDbEntity
  8
0
  6
HIDDEN
 62
     7
370
     0
100
AcDbPolyline
 90
       17
 70
   128
 43
0.0
 10
244.4538385363
 20
108.9139603823
 10
244.4662661048
 20
108.9766039326
 10
244.4811821671
 20
109.1817996744
 10
244.4963068457
 20
109.4983080215
 10
244.5093304606
 20
109.8779435083
 10
244.5182711573
 20
110.2629103511
 10
244.5217729302
 20
110.5946004204
 10
244.5193142386
 20
110.8225174062
 10
244.5112527104
 20
110.9119625575
 10
244.4988102408
 20
110.8493185416
 10
244.4839090796
 20
110.6441230327
 10
244.468784401
 20
110.3276149183
 10
244.4557607861
 20
109.9479794316
 10
244.4468051882
 20
109.5630125887
 10
244.4433034154
 20
109.2313222866
 10
244.4457770081
 20
109.0034055337
 10
244.4538385363
 20
108.9139603823
  0
LINE
  5
EA
330
1F
100
AcDbEntity
  8
0
  6
HIDDEN
 62
     7
370
     0
100
AcDbLine
 10
250.5066008063
 20
110.3821345418
 30
0.0
 11
250.5027712079
 21
110.6115565449
 31
0.0
  0
LINE
  5
EB
330
1F
100
AcDbEntity
  8
0
  6
HIDDEN
 62
     7
370
     0
100
AcDbLine
 10
250.4702568741
 20
110.2052395977
 30
0.0
 11
250.5027712079
 21
110.6115565449
 31
0.0
  0
LINE
  5
EC
330
1F
100
AcDbEntity
  8
0
  6
HIDDEN
 62
     7
370
     0
100
AcDbLine
 10
250.4454017373
 20
109.3400793429
 30
0.0
 11
250.4702568741
 21
110.2052395977
 31
0.0
  0
LINE
  5
ED
330
1F
100
AcDbEntity
  8
0
  6
HIDDEN
 62
     7
370
     0
100
AcDbLine
 10
250.4454017373
 20
109.3400793429
 30
0.0
 11
250.4530609341
 21
108.8812358025
 31
0.0
  0
LINE
  5
EE
330
1F
100
AcDbEntity
  8
0
  6
HIDDEN
 62
     7
370
     0
100
AcDbLine
 10
250.4855752679
 20
109.2875525169
 30
0.0
 11
250.4530609341
 21
108.8812358025
 31
0.0
  0
LINE
  5
EF
330
1F
100
AcDbEntity
  8
0
  6
HIDDEN
 62
     7
370
     0
100
AcDbLine
 10
250.4855752679
 20
109.2875525169
 30
0.0
 11
250.5066008063
 21
110.0194812566
 31
0.0
  0
LINE
  5
F0
330
1F
100
AcDbEntity
  8
0
  6
HIDDEN
 62
     7
370
     0
100
AcDbLine
 10
248.4469474049
 20
109.3956010695
 30
0.0
 11
250.4454017373
 21
109.3400793429
 31
0.0
  0
LINE
  5
F1
330
1F
100
AcDbEntity
  8
0
  6
HIDDEN
 62
     7
370
     0
100
AcDbLine
 10
248.4718025418
 20
110.2607613243
 30
0.0
 11
250.4702568741
 21
110.2052395977
 31
0.0
  0
LINE
  5
F2
330
1F
100
AcDbEntity
  8
0
  6
HIDDEN
 62
     7
370
     0
100
AcDbLine
 10
248.5119760724
 20
110.2082347311
 30
0.0
 11
248.5043168755
 21
110.6670782715
 31
0.0
  0
LINE
  5
F3
330
1F
100
AcDbEntity
  8
0
  6
HIDDEN
 62
     7
370
     0
100
AcDbLine
 10
248.4871209355
 20
109.3430742435
 30
0.0
 11
248.5119760724
 21
110.2082347311
 31
0.0
  0
LINE
  5
F4
330
1F
100
AcDbEntity
  8
0
  6
HIDDEN
 62
     7
370
     0
100
AcDbLine
 10
248.4871209355
 20
109.3430742435
 30
0.0
 11
248.4545917006
 21
108.9367575291
 31
0.0
  0
LINE
  5
F5
330
1F
100
AcDbEntity
  8
0
  6
HIDDEN
 62
     7
370
     0
100
AcDbLine
 10
248.4718025418
 20
110.2607613243
 30
0.0
 11
248.5043168755
 21
110.6670782715
 31
0.0
  0
LINE
  5
F6
330
1F
100
AcDbEntity
  8
0
  6
HIDDEN
 62
     7
370
     0
100
AcDbLine
 10
248.4469474049
 20
109.3956010695
 30
0.0
 11
248.4718025418
 21
110.2607613243
 31
0.0
  0
LINE
  5
F7
330
1F
100
AcDbEntity
  8
0
  6
HIDDEN
 62
     7
370
     0
100
AcDbLine
 10
248.4469474049
 20
109.3956010695
 30
0.0
 11
248.4545917006
 21
108.9367575291
 31
0.0
  0
LINE
  5
F8
330
1F
100
AcDbEntity
  8
0
  6
HIDDEN
 62
     7
370
     0
100
AcDbLine
 10
248.4871209355
 20
109.3430742435
 30
0.0
 11
250.4855752679
 21
109.2875525169
 31
0.0
  0
LINE
  5
F9
330
1F
100
AcDbEntity
  8
0
  6
HIDDEN
 62
     7
370
     0
100
AcDbLine
 10
248.4545917006
 20
108.9367575291
 30
0.0
 11
250.4530609341
 21
108.8812358025
 31
0.0
  0
LINE
  5
FA
330
1F
100
AcDbEntity
  8
0
  6
HIDDEN
 62
     7
370
     0
100
AcDbLine
 10
248.5119760724
 20
110.2082347311
 30
0.0
 11
250.5066008063
 21
110.1528191752
 31
0.0
  0
LINE
  5
FB
330
1F
100
AcDbEntity
  8
0
  6
HIDDEN
 62
     7
370
     0
100
AcDbLine
 10
248.5043168755
 20
110.6670782715
 30
0.0
 11
250.5027712079
 21
110.6115565449
 31
0.0
  0
ARC
  5
FC
330
1F
100
AcDbEntity
  8
0
  6
HIDDEN
 62
     7
370
     0
100
AcDbCircle
 10
233.0066043826
 20
105.679735057
 30
0.0
 40
2.500000000000028
100
AcDbArc
 50
344.0199308506
 51
8.5857027173
  0
ARC
  5
FD
330
1F
100
AcDbEntity
  8
0
  6
HIDDEN
 62
     7
370
     0
100
AcDbCircle
 10
233.0066043826
 20
105.679735057
 30
0.0
 40
3.000000000000006
100
AcDbArc
 50
351.1734935942
 51
45.3272415194
  0
ARC
  5
FE
330
1F
100
AcDbEntity
  8
0
  6
HIDDEN
 62
     7
370
     0
100
AcDbCircle
 10
233.0066043826
 20
105.679735057
 30
0.0
 40
3.0
100
AcDbArc
 50
268.9568409893
 51
351.1734935942
  0
CIRCLE
  5
FF
330
1F
100
AcDbEntity
  8
0
  6
HIDDEN
 62
     7
370
     0
100
AcDbCircle
 10
233.0066043826
 20
105.679735057
 30
0.0
 40
1.250000000000005
  0
CIRCLE
  5
100
330
1F
100
AcDbEntity
  8
0
  6
HIDDEN
 62
     7
370
     0
100
AcDbCircle
 10
233.0066043826
 20
105.679735057
 30
0.0
 40
2.10000000000002
  0
LINE
  5
101
330
1F
100
AcDbEntity
  8
0
  6
HIDDEN
 62
     7
370
     0
100
AcDbLine
 10
105.1146718429
 20
130.1384246722
 30
0.0
 11
105.1146718429
 21
125.5297357961
 31
0.0
  0
ARC
  5
102
330
1F
100
AcDbEntity
  8
0
  6
HIDDEN
 62
     7
370
     0
100
AcDbCircle
 10
98.7875776183
 20
118.1761892958
 30
0.0
 40
3.677289218141747
100
AcDbArc
 50
265.6178958577
 51
12.4383908852
  0
ARC
  5
103
330
1F
100
AcDbEntity
  8
0
  6
HIDDEN
 62
     7
370
     0
100
AcDbCircle
 10
98.2225143129
 20
118.1686102496
 30
0.0
 40
3.669972388520403
100
AcDbArc
 50
166.0291549965
 51
274.4396747729
  0
LINE
  5
104
330
1F
100
AcDbEntity
  8
0
  6
HIDDEN
 62
     7
370
     0
100
AcDbLine
 10
78.5017548816
 20
82.1551359072
 30
0.0
 11
77.9676087888
 21
82.1005212888
 31
0.0
  0
LINE
  5
105
330
1F
100
AcDbEntity
  8
0
  6
HIDDEN
 62
     7
370
     0
100
AcDbLine
 10
77.7299557568
 20
129.2830682173
 30
0.0
 11
78.5016617494
 21
129.204317443
 31
0.0
  0
SPLINE
  5
106
330
1F
100
AcDbEntity
  8
0
  6
HIDDEN
 62
     7
370
     0
100
AcDbSpline
210
0.0
220
0.0
230
1.0
 70
     8
 71
     3
 72
    15
 73
    11
 74
     0
 42
0.00000001
 43
0.00000001
 40
0.0
 40
0.0
 40
0.0
 40
0.0
 40
0.1409172263352446
 40
0.281889861653346
 40
0.4212989542022905
 40
0.5593768841673977
 40
0.6988856533029646
 40
0.840367202775075
 40
0.9813164473602943
 40
1.0
 40
1.0
 40
1.0
 40
1.0
 10
84.26160642299173
 20
85.84220658984272
 30
0.0
 10
83.94556470337905
 20
85.8825599116174
 30
0.0
 10
83.31335699581066
 20
85.96328242218723
 30
0.0
 10
82.07919382349645
 20
86.03984036856998
 30
0.0
 10
80.8084716996808
 20
86.03516230055506
 30
0.0
 10
79.61991223314433
 20
85.95436583533184
 30
0.0
 10
78.62678955385391
 20
85.82997128847761
 30
0.0
 10
77.98738102254015
 20
85.72356434171638
 30
0.0
 10
77.70636103418674
 20
85.67048728240682
 30
0.0
 10
77.77292160267554
 20
85.68274177436872
 30
0.0
 10
77.78071190583823
 20
85.68417605009166
 30
0.0
  0
SPLINE
  5
107
330
1F
100
AcDbEntity
  8
0
  6
HIDDEN
 62
     7
370
     0
100
AcDbSpline
210
0.0
220
0.0
230
1.0
 70
     8
 71
     3
 72
    15
 73
    11
 74
     0
 42
0.00000001
 43
0.00000001
 40
0.0
 40
0.0
 40
0.0
 40
0.0
 40
0.1201202497733958
 40
0.2584739452442804
 40
0.3987302041697883
 40
0.5404022600041716
 40
0.680739511736143
 40
0.8190355942651634
 40
0.9577823154231621
 40
1.0
 40
1.0
 40
1.0
 40
1.0
 10
77.78071190583823
 20
125.6752940639504
 30
0.0
 10
77.8014211546417
 20
125.6712695598762
 30
0.0
 10
77.84598317687673
 20
125.6626096590876
 30
0.0
 10
78.40842264660515
 20
125.5633167403764
 30
0.0
 10
79.30188490205241
 20
125.4394007286651
 30
0.0
 10
80.46086372590457
 20
125.3396893531314
 30
0.0
 10
81.7339005947243
 20
125.3125522954334
 30
0.0
 10
82.96818594145142
 20
125.3678896575635
 30
0.0
 10
83.79614901914728
 20
125.4543693933549
 30
0.0
 10
84.1735593317936
 20
125.505366312492
 30
0.0
 10
84.26160642299173
 20
125.5172635241994
 30
0.0
  0
SPLINE
  5
108
330
1F
100
AcDbEntity
  8
0
  6
HIDDEN
 62
     7
370
     0
100
AcDbSpline
210
0.0
220
0.0
230
1.0
 70
     8
 71
     3
 72
    10
 73
     6
 74
     0
 42
0.00000001
 43
0.00000001
 40
0.0
 40
0.0
 40
0.0
 40
0.0
 40
0.447481803028057
 40
0.8949469514968622
 40
1.0
 40
1.0
 40
1.0
 40
1.0
 10
84.26160642299173
 20
125.5172635241994
 30
0.0
 10
84.5083171402935
 20
125.5467754583455
 30
0.0
 10
85.00172939271751
 20
125.6057982282506
 30
0.0
 10
85.2907472258955
 20
125.6197415267068
 30
0.0
 10
85.23033392271951
 20
125.6158453484575
 30
0.0
 10
85.21884723919747
 20
125.6151045485982
 30
0.0
  0
SPLINE
  5
109
330
1F
100
AcDbEntity
  8
0
  6
HIDDEN
 62
     7
370
     0
100
AcDbSpline
210
0.0
220
0.0
230
1.0
 70
     8
 71
     3
 72
    10
 73
     6
 74
     0
 42
0.00000001
 43
0.00000001
 40
0.0
 40
0.0
 40
0.0
 40
0.0
 40
0.3453897529067758
 40
0.7966706498392555
 40
1.0
 40
1.0
 40
1.0
 40
1.0
 10
85.21884910184262
 20
85.74436556544391
 30
0.0
 10
85.20928889660448
 20
85.74492057147889
 30
0.0
 10
85.18723747540406
 20
85.74620073979543
 30
0.0
 10
84.77033184965154
 20
85.77615766398256
 30
0.0
 10
84.38217296490689
 20
85.82655317412797
 30
0.0
 10
84.26160642299173
 20
85.84220658984272
 30
0.0
  0
LINE
  5
10A
330
1F
100
AcDbEntity
  8
0
  6
HIDDEN
 62
     7
370
     0
100
AcDbLine
 10
71.5105798783
 20
88.6797341331
 30
0.0
 11
71.5105798783
 21
122.6797359809
 31
0.0
  0
LWPOLYLINE
  5
10B
330
1F
100
AcDbEntity
  8
0
  6
HIDDEN
 62
     7
370
     0
100
AcDbPolyline
 90
       12
 70
   128
 43
0.0
 10
98.5066047626
 20
127.6253382489
 10
99.4290676655
 20
127.6792469248
 10
100.301800737
 20
127.838072814
 10
101.0777544917
 20
128.0932477489
 10
101.7150967138
 20
128.4310198202
 10
102.1794690506
 20
128.8331779465
 10
102.4458356889
 20
129.278040938
 10
102.4998365657
 20
129.7416272387
 10
102.3385622295
 20
130.1989438757
 10
101.970705645
 20
130.625336878
 10
101.4160993265
 20
130.9978212043
 10
100.8796370344
 20
131.2353624776
  0
LWPOLYLINE
  5
10C
330
1F
100
AcDbEntity
  8
0
  6
HIDDEN
 62
     7
370
     0
100
AcDbPolyline
 90
       12
 70
   128
 43
0.0
 10
96.138628641
 20
131.2372213974
 10
95.597109733
 20
130.9978212043
 10
95.0425029488
 20
130.625336878
 10
94.6746463643
 20
130.1989438757
 10
94.5133715624
 20
129.7416272387
 10
94.5673733706
 20
129.278040938
 10
94.8337400088
 20
128.8331779465
 10
95.2981114143
 20
128.4310198202
 10
95.935454102
 20
128.0932477489
 10
96.7114078568
 20
127.838072814
 10
97.5841409283
 20
127.6792469248
 10
98.5066047626
 20
127.6253382489
  0
SPLINE
  5
10D
330
1F
100
AcDbEntity
  8
0
  6
HIDDEN
 62
     7
370
     0
100
AcDbSpline
210
0.0
220
0.0
230
1.0
 70
     8
 71
     3
 72
    11
 73
     7
 74
     0
 42
0.00000001
 43
0.00000001
 40
0.0
 40
0.0
 40
0.0
 40
0.0
 40
0.0005779865010845
 40
0.0005779865010845
 40
0.0005779865010845
 40
0.0011559733324421
 40
0.0011559733324421
 40
0.0011559733324421
 40
0.0011559733324421
 10
58.60660438257574
 20
107.6795756651749
 30
0.0
 10
58.7732716373817
 20
107.6775920258339
 30
0.0
 10
58.93993806705937
 20
107.6755544188313
 30
0.0
 10
59.10660440551118
 20
107.6734429554249
 30
0.0
 10
59.27327083433759
 20
107.6713314908736
 30
0.0
 10
59.43993720797529
 20
107.6691459277172
 30
0.0
 10
59.60660438257573
 20
107.6668633503856
 30
0.0
  0
SPLINE
  5
10E
330
1F
100
AcDbEntity
  8
0
  6
HIDDEN
 62
     7
370
     0
100
AcDbSpline
210
0.0
220
0.0
230
1.0
 70
     8
 71
     3
 72
     8
 73
     4
 74
     0
 42
0.00000001
 43
0.00000001
 40
0.0
 40
0.0
 40
0.0
 40
0.0
 40
0.0011564765856722
 40
0.0011564765856722
 40
0.0011564765856722
 40
0.0011564765856722
 10
59.60660438257573
 20
103.6830347548048
 30
0.0
 10
59.27329645200688
 20
103.6821595992215
 30
0.0
 10
58.93996121961467
 20
103.68110474797
 30
0.0
 10
58.60660438257572
 20
103.6799336609324
 30
0.0
  0
LINE
  5
10F
330
1F
100
AcDbEntity
  8
0
  6
HIDDEN
 62
     7
370
     0
100
AcDbLine
 10
98.1664303446
 20
88.6797341331
 30
0.0
 11
98.1664303446
 21
122.6797359809
 31
0.0
  0
LINE
  5
110
330
1F
100
AcDbEntity
  8
0
  6
HIDDEN
 62
     7
370
     0
100
AcDbLine
 10
100.456604244
 20
89.9547352269
 30
0.0
 11
100.456604244
 21
121.4047348871
 31
0.0
  0
SPLINE
  5
111
330
1F
100
AcDbEntity
  8
0
  6
HIDDEN
 62
     7
370
     0
100
AcDbSpline
210
0.0
220
0.0
230
1.0
 70
     8
 71
     3
 72
    16
 73
    12
 74
     0
 42
0.00000001
 43
0.00000001
 40
0.0
 40
0.0
 40
0.0
 40
0.0
 40
0.124999999999998
 40
0.124999999999998
 40
0.249999999999996
 40
0.249999999999996
 40
0.4999999999999973
 40
0.4999999999999973
 40
0.7499999999999987
 40
0.7499999999999987
 40
1.0
 40
1.0
 40
1.0
 40
1.0
 10
67.30660438257573
 20
89.8782446209894
 30
0.0
 10
67.40172613724155
 20
89.8782446209894
 30
0.0
 10
67.49505620596963
 20
89.8744287875966
 30
0.0
 10
67.67831796670764
 20
89.8596582348668
 30
0.0
 10
67.76919568226464
 20
89.84850018689123
 30
0.0
 10
68.02599737978437
 20
89.8060289167495
 30
0.0
 10
68.18106474465638
 20
89.7649827195467
 30
0.0
 10
68.434811206211
 20
89.6698366029648
 30
0.0
 10
68.53568165787885
 20
89.61507386888323
 30
0.0
 10
68.67092807257369
 20
89.50381274497934
 30
0.0
 10
68.70660438257572
 20
89.44664300765066
 30
0.0
 10
68.70660438257572
 20
89.39222143461694
 30
0.0
  0
SPLINE
  5
112
330
1F
100
AcDbEntity
  8
0
  6
HIDDEN
 62
     7
370
     0
100
AcDbSpline
210
0.0
220
0.0
230
1.0
 70
     8
 71
     3
 72
     8
 73
     4
 74
     0
 42
0.00000001
 43
0.00000001
 40
0.0
 40
0.0
 40
0.0
 40
0.0
 40
1.0
 40
1.0
 40
1.0
 40
1.0
 10
59.90660438589092
 20
92.02304756707166
 30
0.0
 10
59.90660438589285
 20
91.13915042475472
 30
0.0
 10
59.89312375998306
 20
90.42456717969277
 30
0.0
 10
59.89177239179374
 20
89.8782446209894
 30
0.0
  0
LINE
  5
113
330
1F
100
AcDbEntity
  8
0
  6
HIDDEN
 62
     7
370
     0
100
AcDbLine
 10
59.6066047193
 20
96.0789085179
 30
0.0
 11
59.6066047193
 21
93.0479573831
 31
0.0
  0
LINE
  5
114
330
1F
100
AcDbEntity
  8
0
  6
HIDDEN
 62
     7
370
     0
100
AcDbLine
 10
59.9066042097
 20
109.2843687907
 30
0.0
 11
59.9066042097
 21
97.4467485025
 31
0.0
  0
SPLINE
  5
115
330
1F
100
AcDbEntity
  8
0
  6
HIDDEN
 62
     7
370
     0
100
AcDbSpline
210
0.0
220
0.0
230
1.0
 70
     8
 71
     3
 72
     8
 73
     4
 74
     0
 42
0.00000001
 43
0.00000001
 40
0.0
 40
0.0
 40
0.0
 40
0.0
 40
1.0
 40
1.0
 40
1.0
 40
1.0
 10
59.60660438257572
 20
115.2866743780894
 30
0.0
 10
59.78763584913463
 20
114.8545668924267
 30
0.0
 10
59.90660438576916
 20
114.400421486327
 30
0.0
 10
59.90660438576345
 20
113.912721432633
 30
0.0
  0
LINE
  5
116
330
1F
100
AcDbEntity
  8
0
  6
HIDDEN
 62
     7
370
     0
100
AcDbLine
 10
59.6066047193
 20
118.319876939
 30
0.0
 11
59.6066047193
 21
115.2866747975
 31
0.0
  0
SPLINE
  5
117
330
1F
100
AcDbEntity
  8
0
  6
HIDDEN
 62
     7
370
     0
100
AcDbSpline
210
0.0
220
0.0
230
1.0
 70
     8
 71
     3
 72
    10
 73
     6
 74
     0
 42
0.00000001
 43
0.00000001
 40
0.0
 40
0.0
 40
0.0
 40
0.0
 40
0.5
 40
0.5
 40
1.0
 40
1.0
 40
1.0
 40
1.0
 10
59.90660438596894
 20
119.3364225469409
 30
0.0
 10
59.90660438596715
 20
119.1717862003349
 30
0.0
 10
59.87944571521166
 20
119.0046309765044
 30
0.0
 10
59.77368071989325
 20
118.6660079687028
 30
0.0
 10
59.69726593159609
 20
118.4937361914118
 30
0.0
 10
59.60660438257575
 20
118.3198773640678
 30
0.0
  0
SPLINE
  5
118
330
1F
100
AcDbEntity
  8
0
  6
HIDDEN
 62
     7
370
     0
100
AcDbSpline
210
0.0
220
0.0
230
1.0
 70
     8
 71
     3
 72
    18
 73
    14
 74
     0
 42
0.00000001
 43
0.00000001
 40
0.0
 40
0.0
 40
0.0
 40
0.0
 40
0.2500000000000033
 40
0.2500000000000033
 40
0.3750000000000029
 40
0.3750000000000029
 40
0.5000000000000026
 40
0.5000000000000026
 40
0.6250000000000022
 40
0.6250000000000022
 40
0.7500000000000018
 40
0.7500000000000018
 40
1.0
 40
1.0
 40
1.0
 40
1.0
 10
64.70660438257572
 20
121.9672486794252
 30
0.0
 10
64.70660438257572
 20
121.912774158873
 30
0.0
 10
64.67169369118356
 20
121.8563930995205
 30
0.0
 10
64.56968438985051
 20
121.772316258667
 30
0.0
 10
64.5280480351724
 20
121.7449825546761
 30
0.0
 10
64.42964223968364
 20
121.6920286390771
 30
0.0
 10
64.37209902797936
 20
121.66614128536
 30
0.0
 10
64.2448008544064
 20
121.6183637405267
 30
0.0
 10
64.17521354964894
 20
121.5964158223488
 30
0.0
 10
64.02377930449398
 20
121.5569832574361
 30
0.0
 10
63.94109540140004
 20
121.5394270082102
 30
0.0
 10
63.68498393936199
 20
121.4969882427897
 30
0.0
 10
63.497068935474
 20
121.4812254930527
 30
0.0
 10
63.30660438257572
 20
121.4812254930527
 30
0.0
  0
LINE
  5
119
330
1F
100
AcDbEntity
  8
0
  6
HIDDEN
 62
     7
370
     0
100
AcDbLine
 10
63.306604022
 20
121.4812262728
 30
0.0
 11
59.9066042097
 21
121.4812262728
 31
0.0
  0
LINE
  5
11A
330
1F
100
AcDbEntity
  8
0
  6
HIDDEN
 62
     7
370
     0
100
AcDbLine
 10
59.8376360478
 20
89.8782438412
 30
0.0
 11
67.3066046776
 21
89.8782438412
 31
0.0
  0
SPLINE
  5
11B
330
1F
100
AcDbEntity
  8
0
  6
HIDDEN
 62
     7
370
     0
100
AcDbSpline
210
0.0
220
0.0
230
1.0
 70
     8
 71
     3
 72
    22
 73
    18
 74
     0
 42
0.00000001
 43
0.00000001
 40
0.0
 40
0.0
 40
0.0
 40
0.0
 40
0.1249999999999998
 40
0.1249999999999998
 40
0.2499999999999995
 40
0.2499999999999995
 40
0.4999999999999992
 40
0.4999999999999992
 40
0.5624999999999993
 40
0.5624999999999993
 40
0.6249999999999994
 40
0.6249999999999994
 40
0.7499999999999996
 40
0.7499999999999996
 40
0.8749999999999998
 40
0.8749999999999998
 40
1.0
 40
1.0
 40
1.0
 40
1.0
 10
59.83763539593365
 20
89.8782446209894
 30
0.0
 10
59.82455300320527
 20
90.13335033113708
 30
0.0
 10
59.81133343976544
 20
90.42650859024099
 30
0.0
 10
59.78888626197132
 20
91.0888090558658
 30
0.0
 10
59.77940779494686
 20
91.45908297647718
 30
0.0
 10
59.76020983401031
 20
92.68163977959095
 30
0.0
 10
59.7613236070072
 20
93.61877870572283
 30
0.0
 10
59.78023439996028
 20
94.93864993523782
 30
0.0
 10
59.78486392781929
 20
95.21015184421414
 30
0.0
 10
59.79534514756524
 20
95.76853667901644
 30
0.0
 10
59.80114040884965
 20
96.05565953495604
 30
0.0
 10
59.81944962975459
 20
96.92824878932772
 30
0.0
 10
59.83348456403495
 20
97.52870446568359
 30
0.0
 10
59.86294173617176
 20
98.76617895817965
 30
0.0
 10
59.87849742715334
 20
99.4031951148231
 30
0.0
 10
59.90229197715023
 20
100.7146837125077
 30
0.0
 10
59.91031102929558
 20
101.3908063241682
 30
0.0
 10
59.90660438257572
 20
102.075101435453
 30
0.0
  0
LINE
  5
11C
330
1F
100
AcDbEntity
  8
0
  6
HIDDEN
 62
     7
370
     0
100
AcDbLine
 10
59.9066042097
 20
109.2843687907
 30
0.0
 11
59.9066042097
 21
121.4812262728
 31
0.0
  0
SPLINE
  5
11D
330
1F
100
AcDbEntity
  8
0
  6
HIDDEN
 62
     7
370
     0
100
AcDbSpline
210
0.0
220
0.0
230
1.0
 70
     8
 71
     3
 72
    10
 73
     6
 74
     0
 42
0.00000001
 43
0.00000001
 40
0.0
 40
0.0
 40
0.0
 40
0.0
 40
0.5
 40
0.5
 40
1.0
 40
1.0
 40
1.0
 40
1.0
 10
59.90660438257572
 20
102.0751014354379
 30
0.0
 10
59.90660438257554
 20
102.3490165835123
 30
0.0
 10
59.88084515270783
 20
102.6199581622423
 30
0.0
 10
59.77763921997472
 20
103.1556492438452
 30
0.0
 10
59.70030105609948
 20
103.4213960473672
 30
0.0
 10
59.60660438257572
 20
103.6830347548048
 30
0.0
  0
SPLINE
  5
11E
330
1F
100
AcDbEntity
  8
0
  6
HIDDEN
 62
     7
370
     0
100
AcDbSpline
210
0.0
220
0.0
230
1.0
 70
     8
 71
     3
 72
    10
 73
     6
 74
     0
 42
0.00000001
 43
0.00000001
 40
0.0
 40
0.0
 40
0.0
 40
0.0
 40
0.5
 40
0.5
 40
1.0
 40
1.0
 40
1.0
 40
1.0
 10
59.60660438257572
 20
107.6668633503856
 30
0.0
 10
59.69983496396673
 20
107.9307571584557
 30
0.0
 10
59.77486457620348
 20
108.196937469094
 30
0.0
 10
59.87993167538163
 20
108.7352600440522
 30
0.0
 10
59.90660438596782
 20
109.0080081602977
 30
0.0
 10
59.90660438596901
 20
109.2843686785882
 30
0.0
  0
LINE
  5
11F
330
1F
100
AcDbEntity
  8
0
  6
HIDDEN
 62
     7
370
     0
100
AcDbLine
 10
59.6066047193
 20
103.6830348707
 30
0.0
 11
59.6066047193
 21
107.6668633427
 31
0.0
  0
SPLINE
  5
120
330
1F
100
AcDbEntity
  8
0
  6
HIDDEN
 62
     7
370
     0
100
AcDbSpline
210
0.0
220
0.0
230
1.0
 70
     8
 71
     3
 72
    78
 73
    74
 74
     0
 42
0.00000001
 43
0.00000001
 40
-0.0312499999999994
 40
-0.0312499999999994
 40
0.0
 40
0.0
 40
0.0312500000000002
 40
0.0312500000000002
 40
0.0625000000000005
 40
0.0625000000000005
 40
0.0937500000000007
 40
0.0937500000000007
 40
0.125000000000001
 40
0.125000000000001
 40
0.1562500000000012
 40
0.1562500000000012
 40
0.1718750000000013
 40
0.1718750000000013
 40
0.1875000000000015
 40
0.1875000000000015
 40
0.2187500000000017
 40
0.2187500000000017
 40
0.2500000000000019
 40
0.2500000000000019
 40
0.2812500000000021
 40
0.2812500000000021
 40
0.3125000000000023
 40
0.3125000000000023
 40
0.3437500000000024
 40
0.3437500000000024
 40
0.3750000000000027
 40
0.3750000000000027
 40
0.4062500000000028
 40
0.4062500000000028
 40
0.4375000000000031
 40
0.4375000000000031
 40
0.4687500000000032
 40
0.4687500000000032
 40
0.5000000000000034
 40
0.5000000000000034
 40
0.5312500000000037
 40
0.5312500000000037
 40
0.5625000000000039
 40
0.5625000000000039
 40
0.5937500000000042
 40
0.5937500000000042
 40
0.6250000000000044
 40
0.6250000000000044
 40
0.6562500000000047
 40
0.6562500000000047
 40
0.6875000000000049
 40
0.6875000000000049
 40
0.7031250000000044
 40
0.7031250000000044
 40
0.7187500000000039
 40
0.7187500000000039
 40
0.7500000000000034
 40
0.7500000000000034
 40
0.7656250000000032
 40
0.7656250000000032
 40
0.781250000000003
 40
0.781250000000003
 40
0.7968750000000028
 40
0.7968750000000028
 40
0.8125000000000026
 40
0.8125000000000026
 40
0.8437500000000022
 40
0.8437500000000022
 40
0.8750000000000018
 40
0.8750000000000018
 40
0.9062500000000013
 40
0.9062500000000013
 40
0.9375000000000009
 40
0.9375000000000009
 40
0.9687500000000006
 40
0.9687500000000006
 40
1.0
 40
1.0
 40
1.03125
 40
1.03125
 10
230.8011220194847
 20
101.5075270829739
 30
0.0
 10
230.2120867456667
 20
101.5075270829739
 30
0.0
 10
229.9216515542106
 20
101.5313062717822
 30
0.0
 10
229.3486916925052
 20
101.6251326246087
 30
0.0
 10
229.0651544466857
 20
101.6955128194841
 30
0.0
 10
228.5108436773684
 20
101.8850580727793
 30
0.0
 10
228.2461151273893
 20
102.0019756662776
 30
0.0
 10
227.741573058877
 20
102.2809813600771
 30
0.0
 10
227.5000615628419
 20
102.4444411420356
 30
0.0
 10
227.0524025210093
 20
102.816513199899
 30
0.0
 10
226.850230218966
 20
103.0212808211224
 30
0.0
 10
226.5802173079612
 20
103.357755035513
 30
0.0
 10
226.4957917305991
 20
103.4748330939799
 30
0.0
 10
226.33876317618
 20
103.7195088466866
 30
0.0
 10
226.2659025235259
 20
103.8478231710857
 30
0.0
 10
226.0717002242293
 20
104.2390337689096
 30
0.0
 10
225.9724210168973
 20
104.5107344526545
 30
0.0
 10
225.8361767109837
 20
105.0768684493844
 30
0.0
 10
225.8002064111781
 20
105.3731511924891
 30
0.0
 10
225.797842734196
 20
105.9557090179958
 30
0.0
 10
225.8306269627244
 20
106.248523476472
 30
0.0
 10
225.963372373897
 20
106.8210242391298
 30
0.0
 10
226.0613263912077
 20
107.0948242200321
 30
0.0
 10
226.3170997401566
 20
107.6190775293047
 30
0.0
 10
226.4751049873042
 20
107.8678996546457
 30
0.0
 10
226.8348897645474
 20
108.3216745960576
 30
0.0
 10
227.0403069596659
 20
108.5314198966469
 30
0.0
 10
227.4860923794429
 20
108.9048181206043
 30
0.0
 10
227.7249746956898
 20
109.0680915966006
 30
0.0
 10
228.2329040900882
 20
109.3513379769409
 30
0.0
 10
228.502518656137
 20
109.4708664349624
 30
0.0
 10
229.0519269807635
 20
109.6601062034627
 30
0.0
 10
229.3340632135289
 20
109.731275601529
 30
0.0
 10
229.9131530381036
 20
109.8274124309968
 30
0.0
 10
230.2064052341202
 20
109.8514404137122
 30
0.0
 10
230.7883685780743
 20
109.8524299751846
 30
0.0
 10
231.0789085079639
 20
109.8297156645006
 30
0.0
 10
231.6590679928857
 20
109.7357333514534
 30
0.0
 10
231.9431137875176
 20
109.665128527551
 30
0.0
 10
232.4911670513446
 20
109.4787443103697
 30
0.0
 10
232.7565225204485
 20
109.3627863637961
 30
0.0
 10
233.2684814833003
 20
109.0807721276469
 30
0.0
 10
233.5093911978401
 20
108.9174820456961
 30
0.0
 10
233.9524658908895
 20
108.550539708723
 30
0.0
 10
234.1560703645141
 20
108.3461912597888
 30
0.0
 10
234.5232038914176
 20
107.8898932704019
 30
0.0
 10
234.6800767793666
 20
107.6459259794448
 30
0.0
 10
234.8734058819634
 20
107.2581808953544
 30
0.0
 10
234.930904168664
 20
107.1251459665481
 30
0.0
 10
235.0313044841046
 20
106.8510671182298
 30
0.0
 10
235.0743673423191
 20
106.709046514023
 30
0.0
 10
235.1773281964005
 20
106.2816822845868
 30
0.0
 10
235.2125950920067
 20
105.9928050894224
 30
0.0
 10
235.2149444239728
 20
105.5534556703234
 30
0.0
 10
235.2070609465887
 20
105.4049732476956
 30
0.0
 10
235.1742959674642
 20
105.1128589608495
 30
0.0
 10
235.1495501991526
 20
104.9688709023866
 30
0.0
 10
235.0838787584167
 20
104.6848866328267
 30
0.0
 10
235.0429513248946
 20
104.5448908728248
 30
0.0
 10
234.9448893264774
 20
104.2688798528109
 30
0.0
 10
234.8874571323763
 20
104.1324765675026
 30
0.0
 10
234.6952233806913
 20
103.7388155132699
 30
0.0
 10
234.5397779741944
 20
103.4937036007662
 30
0.0
 10
234.1768816801297
 20
103.0359611480131
 30
0.0
 10
233.971852981283
 20
102.8271427383138
 30
0.0
 10
233.5276422166554
 20
102.4551214376873
 30
0.0
 10
233.2845967386672
 20
102.289014209471
 30
0.0
 10
232.7754535289188
 20
102.0057685034826
 30
0.0
 10
232.5099902417545
 20
101.8882437217977
 30
0.0
 10
231.9582511480011
 20
101.6984397292336
 30
0.0
 10
231.6708362947386
 20
101.6264081174614
 30
0.0
 10
231.0937284647273
 20
101.5314246708794
 30
0.0
 10
230.8011220194847
 20
101.5075270829739
 30
0.0
 10
230.2120867456667
 20
101.5075270829739
 30
0.0
  0
LINE
  5
121
330
1F
100
AcDbEntity
  8
0
  6
HIDDEN
 62
     7
370
     0
100
AcDbLine
 10
59.7566035332
 20
87.689734511
 30
0.0
 11
59.7566035332
 21
84.8097964003
 31
0.0
  0
LINE
  5
122
330
1F
100
AcDbEntity
  8
0
  6
HIDDEN
 62
     7
370
     0
100
AcDbLine
 10
68.706604162
 20
87.689734511
 30
0.0
 11
68.706604162
 21
83.715997152
 31
0.0
  0
LINE
  5
123
330
1F
100
AcDbEntity
  8
0
  6
HIDDEN
 62
     7
370
     0
100
AcDbLine
 10
59.7566035332
 20
123.669735603
 30
0.0
 11
59.7566035332
 21
126.5496737137
 31
0.0
  0
LINE
  5
124
330
1F
100
AcDbEntity
  8
0
  6
HIDDEN
 62
     7
370
     0
100
AcDbLine
 10
64.7066035064
 20
123.669735603
 30
0.0
 11
64.7066035064
 21
127.5238427147
 31
0.0
  0
LINE
  5
125
330
1F
100
AcDbEntity
  8
0
  6
HIDDEN
 62
     7
370
     0
100
AcDbLine
 10
109.3066041114
 20
96.1797353625
 30
0.0
 11
109.3066041114
 21
115.1797347515
 31
0.0
  0
LINE
  5
126
330
1F
100
AcDbEntity
  8
0
  6
HIDDEN
 62
     7
370
     0
100
AcDbLine
 10
112.3066046031
 20
96.1797353625
 30
0.0
 11
112.3066046031
 21
115.1797347515
 31
0.0
  0
LINE
  5
127
330
1F
100
AcDbEntity
  8
0
  6
HIDDEN
 62
     7
370
     0
100
AcDbLine
 10
100.956604326
 20
97.1797345951
 30
0.0
 11
100.956604326
 21
114.179735519
 31
0.0
  0
LINE
  5
128
330
1F
100
AcDbEntity
  8
0
  6
HIDDEN
 62
     7
370
     0
100
AcDbLine
 10
106.6942796798
 20
79.2797352001
 30
0.0
 11
103.4566047357
 21
79.2797352001
 31
0.0
  0
LINE
  5
129
330
1F
100
AcDbEntity
  8
0
  6
HIDDEN
 62
     7
370
     0
100
AcDbLine
 10
95.4566043558
 20
74.1956117376
 30
0.0
 11
95.4566043558
 21
79.2797352001
 31
0.0
  0
LINE
  5
12A
330
1F
100
AcDbEntity
  8
0
  6
HIDDEN
 62
     7
370
     0
100
AcDbLine
 10
103.4566047357
 20
79.2797352001
 30
0.0
 11
95.4566043558
 21
79.2797352001
 31
0.0
  0
LINE
  5
12B
330
1F
100
AcDbEntity
  8
0
  6
HIDDEN
 62
     7
370
     0
100
AcDbLine
 10
116.4566040726
 20
79.2797352001
 30
0.0
 11
110.3189293982
 21
79.2797352001
 31
0.0
  0
LINE
  5
12C
330
1F
100
AcDbEntity
  8
0
  6
HIDDEN
 62
     7
370
     0
100
AcDbLine
 10
106.9909021946
 20
132.079734914
 30
0.0
 11
103.4566047357
 21
132.079734914
 31
0.0
  0
LINE
  5
12D
330
1F
100
AcDbEntity
  8
0
  6
HIDDEN
 62
     7
370
     0
100
AcDbLine
 10
103.4566047357
 20
132.079734914
 30
0.0
 11
95.4566043558
 21
132.079734914
 31
0.0
  0
LINE
  5
12E
330
1F
100
AcDbEntity
  8
0
  6
HIDDEN
 62
     7
370
     0
100
AcDbLine
 10
116.4566040726
 20
132.079734914
 30
0.0
 11
110.0223068835
 21
132.079734914
 31
0.0
  0
LWPOLYLINE
  5
12F
330
1F
100
AcDbEntity
  8
0
  6
HIDDEN
 62
     7
370
     0
100
AcDbPolyline
 90
       17
 70
   128
 43
0.0
 10
215.5066043826
 20
98.2551136799
 10
214.9325818511
 20
98.3358518965
 10
214.4459471794
 20
98.5657740198
 10
214.1207814904
 20
98.9098767563
 10
214.0066013427
 20
99.3157741427
 10
214.1207814904
 20
99.7216710634
 10
214.4459471794
 20
100.0657738
 10
214.9325818511
 20
100.2956963889
 10
215.5066043826
 20
100.3764341399
 10
216.0806269141
 20
100.2956963889
 10
216.5672690364
 20
100.0657738
 10
216.8924272748
 20
99.7216710634
 10
217.0065999718
 20
99.3157741427
 10
216.8924272748
 20
98.9098767563
 10
216.5672690364
 20
98.5657740198
 10
216.0806269141
 20
98.3358518965
 10
215.5066043826
 20
98.2551136799
  0
SPLINE
  5
130
330
1F
100
AcDbEntity
  8
0
  6
HIDDEN
 62
     7
370
     0
100
AcDbSpline
210
0.0
220
0.0
230
1.0
 70
     8
 71
     3
 72
    14
 73
    10
 74
     0
 42
0.00000001
 43
0.00000001
 40
0.0
 40
0.0
 40
0.0
 40
0.0
 40
0.25
 40
0.25
 40
0.5
 40
0.5
 40
0.75
 40
0.75
 40
1.0
 40
1.0
 40
1.0
 40
1.0
 10
214.5528622447177
 20
99.46282645002626
 30
0.0
 10
214.5906092223052
 20
99.49594212195007
 30
0.0
 10
214.6237084145039
 20
99.53661177971229
 30
0.0
 10
214.6696788684112
 20
99.63788246240911
 30
0.0
 10
214.680906839333
 20
99.69652804208597
 30
0.0
 10
214.6720529379159
 20
99.83019979091469
 30
0.0
 10
214.652033488141
 20
99.90268775708005
 30
0.0
 10
214.5924757942745
 20
100.0529703296923
 30
0.0
 10
214.5543095909729
 20
100.1290085258523
 30
0.0
 10
214.5128541766249
 20
100.207004506199
 30
0.0
  0
SPLINE
  5
131
330
1F
100
AcDbEntity
  8
0
  6
HIDDEN
 62
     7
370
     0
100
AcDbSpline
210
0.0
220
0.0
230
1.0
 70
     8
 71
     3
 72
    14
 73
    10
 74
     0
 42
0.00000001
 43
0.00000001
 40
0.0
 40
0.0
 40
0.0
 40
0.0
 40
0.25
 40
0.25
 40
0.5
 40
0.5
 40
0.75
 40
0.75
 40
1.0
 40
1.0
 40
1.0
 40
1.0
 10
214.5128541766249
 20
100.207004506199
 30
0.0
 10
214.4782897502223
 20
100.1705451124289
 30
0.0
 10
214.4448995464741
 20
100.1355725812019
 30
0.0
 10
214.3893028008091
 20
100.0569861930106
 30
0.0
 10
214.3661704730788
 20
100.0119764956053
 30
0.0
 10
214.3776067626125
 20
99.86872411456547
 30
0.0
 10
214.4086503431642
 20
99.7835557868066
 30
0.0
 10
214.4755064521051
 20
99.62155989705077
 30
0.0
 10
214.5135085804655
 20
99.54146914652834
 30
0.0
 10
214.5528622447173
 20
99.4628264500245
 30
0.0
  0
SPLINE
  5
132
330
1F
100
AcDbEntity
  8
0
  6
HIDDEN
 62
     7
370
     0
100
AcDbSpline
210
0.0
220
0.0
230
1.0
 70
     8
 71
     3
 72
    48
 73
    44
 74
     0
 42
0.00000001
 43
0.00000001
 40
-0.0625000000000033
 40
-0.0625000000000033
 40
0.0
 40
0.0
 40
0.0312499999999997
 40
0.0312499999999997
 40
0.0624999999999993
 40
0.0624999999999993
 40
0.1249999999999987
 40
0.1249999999999987
 40
0.1874999999999981
 40
0.1874999999999981
 40
0.2499999999999976
 40
0.2499999999999976
 40
0.3124999999999969
 40
0.3124999999999969
 40
0.3437499999999965
 40
0.3437499999999965
 40
0.3749999999999961
 40
0.3749999999999961
 40
0.4062499999999956
 40
0.4062499999999956
 40
0.4374999999999951
 40
0.4374999999999951
 40
0.4999999999999942
 40
0.4999999999999942
 40
0.5624999999999933
 40
0.5624999999999933
 40
0.6249999999999925
 40
0.6249999999999925
 40
0.6874999999999915
 40
0.6874999999999915
 40
0.7499999999999906
 40
0.7499999999999906
 40
0.8124999999999897
 40
0.8124999999999897
 40
0.8437499999999915
 40
0.8437499999999915
 40
0.8749999999999931
 40
0.8749999999999931
 40
0.9062499999999949
 40
0.9062499999999949
 40
0.9374999999999967
 40
0.9374999999999967
 40
1.0
 40
1.0
 40
1.03125
 40
1.03125
 10
216.6373943599274
 20
99.42242415726804
 30
0.0
 10
216.7594621904443
 20
99.42581548248994
 30
0.0
 10
216.7979245203619
 20
99.43426229843622
 30
0.0
 10
216.8680739961284
 20
99.46653716249044
 30
0.0
 10
216.9000911289035
 20
99.49080991995626
 30
0.0
 10
216.9788267158212
 20
99.58763258147754
 30
0.0
 10
217.0085551166421
 20
99.68678221921252
 30
0.0
 10
217.0044433626119
 20
99.93570402098224
 30
0.0
 10
216.9703972699465
 20
100.0863054680768
 30
0.0
 10
216.8590311114217
 20
100.3952206386053
 30
0.0
 10
216.782632187831
 20
100.5539805182311
 30
0.0
 10
216.6194590075669
 20
100.8617517650694
 30
0.0
 10
216.5308195415512
 20
101.0124892979796
 30
0.0
 10
216.4216054408223
 20
101.2304145115021
 30
0.0
 10
216.3886838931105
 20
101.3035701711945
 30
0.0
 10
216.3442331801106
 20
101.4431068148403
 30
0.0
 10
216.3330003616865
 20
101.5111074502089
 30
0.0
 10
216.3397881601104
 20
101.63104096172
 30
0.0
 10
216.357535123396
 20
101.6844596963749
 30
0.0
 10
216.4096856498688
 20
101.7726067747044
 30
0.0
 10
216.444058814336
 20
101.8087289607888
 30
0.0
 10
216.556005475034
 20
101.8948283111395
 30
0.0
 10
216.6414894521875
 20
101.9239253285339
 30
0.0
 10
216.7996409300879
 20
101.9274639239686
 30
0.0
 10
216.8718858055227
 20
101.9014990704884
 30
0.0
 10
216.9775758619078
 20
101.7798020065411
 30
0.0
 10
217.008074907666
 20
101.6829532473134
 30
0.0
 10
217.0050185317481
 20
101.4338041768462
 30
0.0
 10
216.9710958813538
 20
101.2808688539794
 30
0.0
 10
216.8611304537555
 20
100.9679879578132
 30
0.0
 10
216.7859751883627
 20
100.8070320357539
 30
0.0
 10
216.6272152586164
 20
100.4975295735499
 30
0.0
 10
216.5405705379746
 20
100.344651107019
 30
0.0
 10
216.4321004035289
 20
100.1260274915271
 30
0.0
 10
216.3991508368782
 20
100.0538805057419
 30
0.0
 10
216.3503612971178
 20
99.91153249588011
 30
0.0
 10
216.3357697029942
 20
99.84324384395916
 30
0.0
 10
216.3357514661626
 20
99.71816308196982
 30
0.0
 10
216.3504336931218
 20
99.66330152648925
 30
0.0
 10
216.4004460691464
 20
99.57135550304179
 30
0.0
 10
216.4344323751772
 20
99.53503693796941
 30
0.0
 10
216.5487299437697
 20
99.44856384903036
 30
0.0
 10
216.6373943599274
 20
99.42242415726804
 30
0.0
 10
216.7594621904443
 20
99.42581548248994
 30
0.0
  0
SPLINE
  5
133
330
1F
100
AcDbEntity
  8
0
  6
HIDDEN
 62
     7
370
     0
100
AcDbSpline
210
0.0
220
0.0
230
1.0
 70
     8
 71
     3
 72
     8
 73
     4
 74
     0
 42
0.00000001
 43
0.00000001
 40
0.0
 40
0.0
 40
0.0
 40
0.0
 40
1.0
 40
1.0
 40
1.0
 40
1.0
 10
216.7486384217862
 20
104.0356897026125
 30
0.0
 10
216.7067699949718
 20
104.0798752961495
 30
0.0
 10
216.660998075886
 20
104.1261811702148
 30
0.0
 10
216.611830364456
 20
104.1763068191556
 30
0.0
  0
SPLINE
  5
134
330
1F
100
AcDbEntity
  8
0
  6
HIDDEN
 62
     7
370
     0
100
AcDbSpline
210
0.0
220
0.0
230
1.0
 70
     8
 71
     3
 72
    34
 73
    30
 74
     0
 42
0.00000001
 43
0.00000001
 40
0.0
 40
0.0
 40
0.0
 40
0.0
 40
0.0624999999999945
 40
0.0624999999999945
 40
0.1249999999999889
 40
0.1249999999999889
 40
0.1874999999999834
 40
0.1874999999999834
 40
0.2499999999999836
 40
0.2499999999999836
 40
0.3749999999999891
 40
0.3749999999999891
 40
0.4374999999999919
 40
0.4374999999999919
 40
0.4999999999999947
 40
0.4999999999999947
 40
0.5624999999999974
 40
0.5624999999999974
 40
0.6250000000000002
 40
0.6250000000000002
 40
0.687500000000003
 40
0.687500000000003
 40
0.7500000000000058
 40
0.7500000000000058
 40
0.8125000000000087
 40
0.8125000000000087
 40
0.8750000000000058
 40
0.8750000000000058
 40
1.0
 40
1.0
 40
1.0
 40
1.0
 10
216.611830364456
 20
104.1763068191556
 30
0.0
 10
216.5109270433459
 20
104.2791760458052
 30
0.0
 10
216.3966402831768
 20
104.3701128973841
 30
0.0
 10
216.1397454643225
 20
104.5227285100237
 30
0.0
 10
216.0000404678368
 20
104.5819878951061
 30
0.0
 10
215.7068332508664
 20
104.6555572606315
 30
0.0
 10
215.5524384719787
 20
104.6693173479481
 30
0.0
 10
215.2504216840182
 20
104.6466700777706
 30
0.0
 10
215.0998007491668
 20
104.610088264689
 30
0.0
 10
214.6814585113173
 20
104.440372492249
 30
0.0
 10
214.4395834272431
 20
104.2454821825799
 30
0.0
 10
214.187911358136
 20
103.9185286851958
 30
0.0
 10
214.1205567105082
 20
103.8010914441403
 30
0.0
 10
214.0306809073462
 20
103.5710714105498
 30
0.0
 10
214.0068183486605
 20
103.4551621831046
 30
0.0
 10
214.006393356537
 20
103.2403739911431
 30
0.0
 10
214.0296273897498
 20
103.1401461984842
 30
0.0
 10
214.1194018155227
 20
102.9642213542492
 30
0.0
 10
214.1859532852571
 20
102.8879825140654
 30
0.0
 10
214.3543082791836
 20
102.7608060963069
 30
0.0
 10
214.4561220811064
 20
102.7095569732223
 30
0.0
 10
214.6881630768008
 20
102.6285965225191
 30
0.0
 10
214.8160064342003
 20
102.5992999819976
 30
0.0
 10
215.0976539253286
 20
102.5574615035595
 30
0.0
 10
215.2439183637101
 20
102.5459372036339
 30
0.0
 10
215.5481162689159
 20
102.5381226050318
 30
0.0
 10
215.7012052944569
 20
102.5421594558973
 30
0.0
 10
216.1440538060688
 20
102.5793233680075
 30
0.0
 10
216.4097846254567
 20
102.6366814245081
 30
0.0
 10
216.6118303644559
 20
102.7420993523107
 30
0.0
  0
SPLINE
  5
135
330
1F
100
AcDbEntity
  8
0
  6
HIDDEN
 62
     7
370
     0
100
AcDbSpline
210
0.0
220
0.0
230
1.0
 70
     8
 71
     3
 72
     8
 73
     4
 74
     0
 42
0.00000001
 43
0.00000001
 40
0.0
 40
0.0
 40
0.0
 40
0.0
 40
1.0
 40
1.0
 40
1.0
 40
1.0
 10
216.611830364456
 20
102.7420993523108
 30
0.0
 10
216.660998075886
 20
102.7677527428718
 30
0.0
 10
216.7067699949718
 20
102.8030209783126
 30
0.0
 10
216.7486384217862
 20
102.8462768681076
 30
0.0
  0
SPLINE
  5
136
330
1F
100
AcDbEntity
  8
0
  6
HIDDEN
 62
     7
370
     0
100
AcDbSpline
210
0.0
220
0.0
230
1.0
 70
     8
 71
     3
 72
    14
 73
    10
 74
     0
 42
0.00000001
 43
0.00000001
 40
0.0
 40
0.0
 40
0.0
 40
0.0
 40
0.2499999999999998
 40
0.2499999999999998
 40
0.4999999999999999
 40
0.4999999999999999
 40
0.7499999999999999
 40
0.7499999999999999
 40
1.0
 40
1.0
 40
1.0
 40
1.0
 10
216.7486384217862
 20
102.8462768681076
 30
0.0
 10
216.8328022499196
 20
102.9332297715594
 30
0.0
 10
216.8965869304944
 20
103.02438615844
 30
0.0
 10
216.9842343865253
 20
103.2208240204318
 30
0.0
 10
217.0064653767539
 20
103.3237106196255
 30
0.0
 10
217.0067420872974
 20
103.533777408425
 30
0.0
 10
216.9844329029729
 20
103.6413096153611
 30
0.0
 10
216.8978746376641
 20
103.8468160077722
 30
0.0
 10
216.8327974435905
 20
103.9468729828825
 30
0.0
 10
216.7486384217862
 20
104.0356897026125
 30
0.0
  0
SPLINE
  5
137
330
1F
100
AcDbEntity
  8
0
  6
HIDDEN
 62
     7
370
     0
100
AcDbSpline
210
0.0
220
0.0
230
1.0
 70
     8
 71
     3
 72
    12
 73
     8
 74
     0
 42
0.00000001
 43
0.00000001
 40
0.0
 40
0.0
 40
0.0
 40
0.0
 40
0.4999999999999991
 40
0.4999999999999991
 40
0.7499999999999996
 40
0.7499999999999996
 40
1.0
 40
1.0
 40
1.0
 40
1.0
 10
214.5128541766249
 20
101.7960045239287
 30
0.0
 10
214.5956608218582
 20
101.7437820458183
 30
0.0
 10
214.6672442659729
 20
101.6571221134112
 30
0.0
 10
214.6810108356848
 20
101.4679829431459
 30
0.0
 10
214.6696703961685
 20
101.3987274596003
 30
0.0
 10
214.6237077333826
 20
101.2520039698882
 30
0.0
 10
214.5906120109805
 20
101.1772239047321
 30
0.0
 10
214.5528622447177
 20
101.1001266268261
 30
0.0
  0
SPLINE
  5
138
330
1F
100
AcDbEntity
  8
0
  6
HIDDEN
 62
     7
370
     0
100
AcDbSpline
210
0.0
220
0.0
230
1.0
 70
     8
 71
     3
 72
    18
 73
    14
 74
     0
 42
0.00000001
 43
0.00000001
 40
0.0
 40
0.0
 40
0.0
 40
0.0
 40
0.2500000000000127
 40
0.2500000000000127
 40
0.375000000000011
 40
0.375000000000011
 40
0.5000000000000094
 40
0.5000000000000094
 40
0.6250000000000078
 40
0.6250000000000078
 40
0.7500000000000061
 40
0.7500000000000061
 40
1.0
 40
1.0
 40
1.0
 40
1.0
 10
214.5528622447178
 20
101.100126626826
 30
0.0
 10
214.5134138685894
 20
101.1330005209042
 30
0.0
 10
214.4752571880857
 20
101.1638890199991
 30
0.0
 10
214.4250269068517
 20
101.2141233873455
 30
0.0
 10
214.4094975950144
 20
101.231519570581
 30
0.0
 10
214.3842381910233
 20
101.2727625062847
 30
0.0
 10
214.3746665217136
 20
101.2972280607744
 30
0.0
 10
214.3690824137968
 20
101.3585542990023
 30
0.0
 10
214.3734137605701
 20
101.395992499524
 30
0.0
 10
214.3908168946624
 20
101.4738759462887
 30
0.0
 10
214.4034259397805
 20
101.514629504578
 30
0.0
 10
214.4451268866541
 20
101.6357488737709
 30
0.0
 10
214.478366083854
 20
101.7164883939556
 30
0.0
 10
214.5128541766249
 20
101.7960045239287
 30
0.0
  0
SPLINE
  5
139
330
1F
100
AcDbEntity
  8
0
  6
HIDDEN
 62
     7
370
     0
100
AcDbSpline
210
0.0
220
0.0
230
1.0
 70
     8
 71
     3
 72
    10
 73
     6
 74
     0
 42
0.00000001
 43
0.00000001
 40
0.0
 40
0.0
 40
0.0
 40
0.0
 40
0.5
 40
0.5
 40
1.0
 40
1.0
 40
1.0
 40
1.0
 10
214.0066043825752
 20
100.8807177496508
 30
0.0
 10
214.0066043825752
 20
100.9055412804267
 30
0.0
 10
214.0078345314833
 20
100.9280798385652
 30
0.0
 10
214.0125693201615
 20
100.9688281358267
 30
0.0
 10
214.0160749476051
 20
100.9870399537112
 30
0.0
 10
214.0206441878165
 20
101.0030486645208
 30
0.0
  0
SPLINE
  5
13A
330
1F
100
AcDbEntity
  8
0
  6
HIDDEN
 62
     7
370
     0
100
AcDbSpline
210
0.0
220
0.0
230
1.0
 70
     8
 71
     3
 72
    18
 73
    14
 74
     0
 42
0.00000001
 43
0.00000001
 40
0.0
 40
0.0
 40
0.0
 40
0.0
 40
0.0772763109699865
 40
0.1655767526006106
 40
0.2251189340580694
 40
0.2700433600125228
 40
0.3151045445281846
 40
0.3748373033041247
 40
0.4788030357026816
 40
0.6283518625705938
 40
0.7774438359676922
 40
0.9120098448759759
 40
1.0
 40
1.0
 40
1.0
 40
1.0
 10
214.038281211437
 20
101.0338025912294
 30
0.0
 10
214.044477719693
 20
101.0473394172814
 30
0.0
 10
214.0577547214238
 20
101.0763442140954
 30
0.0
 10
214.083384633294
 20
101.0778032570291
 30
0.0
 10
214.1011339149442
 20
101.0586755062011
 30
0.0
 10
214.1080869489082
 20
101.0213117266926
 30
0.0
 10
214.1051854483978
 20
100.9645732513744
 30
0.0
 10
214.0891071157927
 20
100.8699761258095
 30
0.0
 10
214.0560956268359
 20
100.7215747000941
 30
0.0
 10
214.0188197868269
 20
100.53410736225
 30
0.0
 10
214.0022319328227
 20
100.35897331159
 30
0.0
 10
214.0115382451779
 20
100.2454167710547
 30
0.0
 10
214.0303140767472
 20
100.2160205195025
 30
0.0
 10
214.0377373190534
 20
100.2043983712444
 30
0.0
  0
LWPOLYLINE
  5
13B
330
1F
100
AcDbEntity
  8
0
  6
HIDDEN
 62
     7
370
     0
100
AcDbPolyline
 90
       10
 70
   128
 43
0.0
 10
214.0478477569
 20
100.183929298
 10
214.0846610757
 20
100.1777062006
 10
214.099718699
 20
100.1984872669
 10
214.1064689251
 20
100.2340935915
 10
214.104017684
 20
100.288910307
 10
214.0919626446
 20
100.3621383384
 10
214.0640080662
 20
100.4906296543
 10
214.0245795937
 20
100.6880942545
 10
214.0066013427
 20
100.88071784
 10
214.0066013427
 20
100.88071784
  0
SPLINE
  5
13C
330
1F
100
AcDbEntity
  8
0
  6
HIDDEN
 62
     7
370
     0
100
AcDbSpline
210
0.0
220
0.0
230
1.0
 70
     8
 71
     3
 72
    11
 73
     7
 74
     0
 42
0.00000001
 43
0.00000001
 40
0.0
 40
0.0
 40
0.0
 40
0.0
 40
0.0008203708524183
 40
0.0008203708524183
 40
0.0008203708524183
 40
0.0016409967870154
 40
0.0016409967870154
 40
0.0016409967870154
 40
0.0016409967870154
 10
59.75660438257572
 20
89.82770230637834
 30
0.0
 10
59.56544608227707
 20
89.7865232777592
 30
0.0
 10
59.37401901220489
 20
89.74776930552919
 30
0.0
 10
59.18237338868426
 20
89.71140154625066
 30
0.0
 10
58.99066798360381
 20
89.67502244248463
 30
0.0
 10
58.79872903154484
 20
89.64102819171707
 30
0.0
 10
58.60660438447404
 20
89.60938006632587
 30
0.0
  0
ELLIPSE
  5
13D
330
1F
100
AcDbEntity
  8
0
  6
HIDDEN
 62
     7
370
     0
100
AcDbEllipse
 10
54.364172514
 20
105.679735057
 30
0.0
 11
20.19992453366628
 21
-1.421085471520200E-14
 31
0.0
210
0.0
220
0.0
230
1.0
 40
0.8164965809
 41
1.300566354718001
 42
1.359198697209606
  0
LINE
  5
13E
330
1F
100
AcDbEntity
  8
0
  6
HIDDEN
 62
     7
370
     0
100
AcDbLine
 10
59.7566035332
 20
87.689734511
 30
0.0
 11
59.7566035332
 21
89.8277028277
 31
0.0
  0
LINE
  5
13F
330
1F
100
AcDbEntity
  8
0
  6
HIDDEN
 62
     7
370
     0
100
AcDbLine
 10
59.8376360478
 20
89.8782438412
 30
0.0
 11
59.7566035332
 21
89.8277028277
 31
0.0
  0
LINE
  5
140
330
1F
100
AcDbEntity
  8
0
  6
HIDDEN
 62
     7
370
     0
100
AcDbLine
 10
68.706604162
 20
87.689734511
 30
0.0
 11
68.706604162
 21
89.3922219798
 31
0.0
  0
LINE
  5
141
330
1F
100
AcDbEntity
  8
0
  6
HIDDEN
 62
     7
370
     0
100
AcDbLine
 10
64.7066035064
 20
123.669735603
 30
0.0
 11
64.7066035064
 21
121.9672481343
 31
0.0
  0
LINE
  5
142
330
1F
100
AcDbEntity
  8
0
  6
HIDDEN
 62
     7
370
     0
100
AcDbLine
 10
59.7566035332
 20
123.669735603
 30
0.0
 11
59.7566035332
 21
121.574360393
 31
0.0
  0
SPLINE
  5
143
330
1F
100
AcDbEntity
  8
0
  6
HIDDEN
 62
     7
370
     0
100
AcDbSpline
210
0.0
220
0.0
230
1.0
 70
     8
 71
     3
 72
     8
 73
     4
 74
     0
 42
0.00000001
 43
0.00000001
 40
0.0
 40
0.0
 40
0.0
 40
0.0
 40
1.0
 40
1.0
 40
1.0
 40
1.0
 10
59.75660438257572
 20
121.5743595080797
 30
0.0
 10
59.80660988151945
 20
121.5433237338606
 30
0.0
 10
59.85660995218387
 20
121.512279088833
 30
0.0
 10
59.90660438596898
 20
121.4812254930527
 30
0.0
  0
ARC
  5
144
330
1F
100
AcDbEntity
  8
0
  6
HIDDEN
 62
     7
370
     0
100
AcDbCircle
 10
201.4920062511
 20
100.6982793831
 30
0.0
 40
13.06703717722243
100
AcDbArc
 50
1.7622807099
 51
4.8189367578
  0
ARC
  5
145
330
1F
100
AcDbEntity
  8
0
  6
HIDDEN
 62
     7
370
     0
100
AcDbCircle
 10
230.6408183005
 20
100.7009353667
 30
0.0
 40
16.13552662853456
100
AcDbArc
 50
181.7541767424
 51
184.4007379005
  0
SPLINE
  5
146
330
1F
100
AcDbEntity
  8
0
  6
HIDDEN
 62
     7
370
     0
100
AcDbSpline
210
0.0
220
0.0
230
1.0
 70
     8
 71
     3
 72
    20
 73
    16
 74
     0
 42
0.00000001
 43
0.00000001
 40
0.0
 40
0.0
 40
0.0
 40
0.0
 40
0.1119595197270015
 40
0.1774767654920859
 40
0.249096185325418
 40
0.3298422369283467
 40
0.3986125725171922
 40
0.4998892967520781
 40
0.6138510411462624
 40
0.6790150058045442
 40
0.7495394119902732
 40
0.8296829969661308
 40
0.8981246339666275
 40
0.9995320129300933
 40
0.9999999999999999
 40
0.9999999999999999
 40
0.9999999999999999
 40
0.9999999999999999
 10
85.25544495675085
 20
82.07974161949245
 30
0.0
 10
85.21212104028348
 20
82.0931699877099
 30
0.0
 10
85.1434445348659
 20
82.11445646127532
 30
0.0
 10
84.69826602549571
 20
82.21777137494166
 30
0.0
 10
84.17170731879611
 20
82.3310716176598
 30
0.0
 10
83.48628232209518
 20
82.45400627095195
 30
0.0
 10
82.59296514430658
 20
82.57604095809735
 30
0.0
 10
81.47960549370008
 20
82.69377659528055
 30
0.0
 10
80.36883136504872
 20
82.70575046752317
 30
0.0
 10
79.48408308778609
 20
82.67869492892886
 30
0.0
 10
78.81688681772813
 20
82.63076186272858
 30
0.0
 10
78.2756123277209
 20
82.5744647533245
 30
0.0
 10
77.88803991051216
 20
82.52939305897482
 30
0.0
 10
77.69407720538916
 20
82.49048863642004
 30
0.0
 10
77.7572003386617
 20
82.50121824117201
 30
0.0
 10
77.75749030876277
 20
82.50126752998916
 30
0.0
  0
LINE
  5
147
330
1F
100
AcDbEntity
  8
0
  6
HIDDEN
 62
     7
370
     0
100
AcDbLine
 10
78.6666166725
 20
82.6120725646
 30
0.0
 11
78.8504616113
 21
82.6302631572
 31
0.0
  0
LINE
  5
148
330
1F
100
AcDbEntity
  8
0
  6
HIDDEN
 62
     7
370
     0
100
AcDbLine
 10
78.8504588174
 20
128.729138039
 30
0.0
 11
78.6763853149
 21
128.7463470176
 31
0.0
  0
SPLINE
  5
149
330
1F
100
AcDbEntity
  8
0
  6
HIDDEN
 62
     7
370
     0
100
AcDbSpline
210
0.0
220
0.0
230
1.0
 70
     8
 71
     3
 72
    20
 73
    16
 74
     0
 42
0.00000001
 43
0.00000001
 40
0.0
 40
0.0
 40
0.0
 40
0.0
 40
0.0004889697591047
 40
0.1018319945141926
 40
0.1702475571949642
 40
0.2503691863856972
 40
0.3209567830713191
 40
0.3861815969282947
 40
0.5002554405931924
 40
0.6012243594512068
 40
0.6697680251707869
 40
0.7502401868573377
 40
0.8220490723920678
 40
0.8877204424947721
 40
1.0
 40
1.0
 40
1.0
 40
1.0
 10
77.75752383637546
 20
128.8581373914727
 30
0.0
 10
77.75722009252013
 20
128.8581885637759
 30
0.0
 10
77.69396292368079
 20
128.8688456189219
 30
0.0
 10
77.88719497510604
 20
128.8301038579825
 30
0.0
 10
78.27413332025704
 20
128.7850434451508
 30
0.0
 10
78.81514213865215
 20
128.7287910372255
 30
0.0
 10
79.48264180674647
 20
128.6808579710668
 30
0.0
 10
80.36846962392367
 20
128.6537848977347
 30
0.0
 10
81.47927644273928
 20
128.6656101867937
 30
0.0
 10
82.5913465602102
 20
128.7830611620568
 30
0.0
 10
83.4824474852016
 20
128.9047622899168
 30
0.0
 10
84.16793136226089
 20
129.027585407887
 30
0.0
 10
84.69591990027882
 20
129.1410244045654
 30
0.0
 10
85.14330328390774
 20
129.2447630569016
 30
0.0
 10
85.21211398045475
 20
129.2661867990996
 30
0.0
 10
85.25553063842771
 20
129.2797042801627
 30
0.0
  0
LINE
  5
14A
330
1F
100
AcDbEntity
  8
0
  6
HIDDEN
 62
     7
370
     0
100
AcDbLine
 10
153.6066070886
 20
101.4297348261
 30
0.0
 11
153.6066070886
 21
109.929735288
 31
0.0
  0
LINE
  5
14B
330
1F
100
AcDbEntity
  8
0
  6
HIDDEN
 62
     7
370
     0
100
AcDbLine
 10
154.8984558077
 20
103.5797351319
 30
0.0
 11
154.8984558077
 21
107.7797349821
 31
0.0
  0
LINE
  5
14C
330
1F
100
AcDbEntity
  8
0
  6
HIDDEN
 62
     7
370
     0
100
AcDbLine
 10
213.50660778
 20
102.7797350939
 30
0.0
 11
213.50660778
 21
108.5797347873
 31
0.0
  0
SPLINE
  5
14D
330
1F
100
AcDbEntity
  8
0
  6
HIDDEN
 62
     7
370
     0
100
AcDbSpline
210
0.0
220
0.0
230
1.0
 70
     8
 71
     3
 72
    34
 73
    30
 74
     0
 42
0.00000001
 43
0.00000001
 40
0.0
 40
0.0
 40
0.0
 40
0.0
 40
0.0624999999999945
 40
0.0624999999999945
 40
0.124999999999989
 40
0.124999999999989
 40
0.1874999999999835
 40
0.1874999999999835
 40
0.2499999999999837
 40
0.2499999999999837
 40
0.3749999999999895
 40
0.3749999999999895
 40
0.4374999999999923
 40
0.4374999999999923
 40
0.4999999999999951
 40
0.4999999999999951
 40
0.5624999999999979
 40
0.5624999999999979
 40
0.6250000000000007
 40
0.6250000000000007
 40
0.6875000000000033
 40
0.6875000000000033
 40
0.7500000000000061
 40
0.7500000000000061
 40
0.8125000000000088
 40
0.8125000000000088
 40
0.8750000000000059
 40
0.8750000000000059
 40
1.0
 40
1.0
 40
1.0
 40
1.0
 10
216.611830364456
 20
107.1831632948865
 30
0.0
 10
216.510927043346
 20
107.080294068237
 30
0.0
 10
216.3966402831768
 20
106.9893572166581
 30
0.0
 10
216.1397454643225
 20
106.8367416040185
 30
0.0
 10
216.0000404678368
 20
106.777482218936
 30
0.0
 10
215.7068332508664
 20
106.7039128534106
 30
0.0
 10
215.5524384719787
 20
106.690152766094
 30
0.0
 10
215.2504216840182
 20
106.7128000362715
 30
0.0
 10
215.0998007491668
 20
106.7493818493531
 30
0.0
 10
214.6814585113173
 20
106.9190976217931
 30
0.0
 10
214.4395834272431
 20
107.1139879314622
 30
0.0
 10
214.187911358136
 20
107.4409414288463
 30
0.0
 10
214.1205567105082
 20
107.5583786699019
 30
0.0
 10
214.0306809073462
 20
107.7883987034923
 30
0.0
 10
214.0068183486605
 20
107.9043079309375
 30
0.0
 10
214.006393356537
 20
108.1190961228991
 30
0.0
 10
214.0296273897498
 20
108.219323915558
 30
0.0
 10
214.1194018155227
 20
108.3952487597929
 30
0.0
 10
214.1859532852571
 20
108.4714875999767
 30
0.0
 10
214.3543082791836
 20
108.5986640177353
 30
0.0
 10
214.4561220811064
 20
108.6499131408198
 30
0.0
 10
214.6881630768008
 20
108.730873591523
 30
0.0
 10
214.8160064342004
 20
108.7601701320446
 30
0.0
 10
215.0976539253287
 20
108.8020086104826
 30
0.0
 10
215.2439183637101
 20
108.8135329104082
 30
0.0
 10
215.5481162689159
 20
108.8213475090103
 30
0.0
 10
215.7012052944569
 20
108.8173106581448
 30
0.0
 10
216.1440538060688
 20
108.7801467460346
 30
0.0
 10
216.4097846254566
 20
108.722788689534
 30
0.0
 10
216.6118303644559
 20
108.6173707617314
 30
0.0
  0
SPLINE
  5
14E
330
1F
100
AcDbEntity
  8
0
  6
HIDDEN
 62
     7
370
     0
100
AcDbSpline
210
0.0
220
0.0
230
1.0
 70
     8
 71
     3
 72
     8
 73
     4
 74
     0
 42
0.00000001
 43
0.00000001
 40
0.0
 40
0.0
 40
0.0
 40
0.0
 40
1.0
 40
1.0
 40
1.0
 40
1.0
 10
216.611830364456
 20
108.6173707617314
 30
0.0
 10
216.660998075886
 20
108.5917173711703
 30
0.0
 10
216.7067699949718
 20
108.5564491357295
 30
0.0
 10
216.7486384217862
 20
108.5131932459345
 30
0.0
  0
SPLINE
  5
14F
330
1F
100
AcDbEntity
  8
0
  6
HIDDEN
 62
     7
370
     0
100
AcDbSpline
210
0.0
220
0.0
230
1.0
 70
     8
 71
     3
 72
    14
 73
    10
 74
     0
 42
0.00000001
 43
0.00000001
 40
0.0
 40
0.0
 40
0.0
 40
0.0
 40
0.2500000000000002
 40
0.2500000000000002
 40
0.5000000000000001
 40
0.5000000000000001
 40
0.75
 40
0.75
 40
1.0
 40
1.0
 40
1.0
 40
1.0
 10
216.7486384217862
 20
108.5131932459345
 30
0.0
 10
216.8328022499195
 20
108.4262403424827
 30
0.0
 10
216.8965869304944
 20
108.3350839556022
 30
0.0
 10
216.9842343865253
 20
108.1386460936103
 30
0.0
 10
217.0064653767539
 20
108.0357594944166
 30
0.0
 10
217.0067420872974
 20
107.8256927056171
 30
0.0
 10
216.9844329029729
 20
107.718160498681
 30
0.0
 10
216.8978746376641
 20
107.5126541062699
 30
0.0
 10
216.8327974435904
 20
107.4125971311596
 30
0.0
 10
216.7486384217862
 20
107.3237804114296
 30
0.0
  0
LINE
  5
150
330
1F
100
AcDbEntity
  8
0
  6
HIDDEN
 62
     7
370
     0
100
AcDbLine
 10
217.5066084357
 20
102.6797350309
 30
0.0
 11
217.5066084357
 21
108.6797350831
 31
0.0
  0
LINE
  5
151
330
1F
100
AcDbEntity
  8
0
  6
HIDDEN
 62
     7
370
     0
100
AcDbLine
 10
164.9566055031
 20
91.2570855394
 30
0.0
 11
159.9566028209
 21
91.2570855394
 31
0.0
  0
LINE
  5
152
330
1F
100
AcDbEntity
  8
0
  6
HIDDEN
 62
     7
370
     0
100
AcDbLine
 10
162.4566078873
 20
120.1023845747
 30
0.0
 11
164.9566055031
 21
120.1023845747
 31
0.0
  0
LINE
  5
153
330
1F
100
AcDbEntity
  8
0
  6
HIDDEN
 62
     7
370
     0
100
AcDbLine
 10
159.9566028209
 20
120.1023845747
 30
0.0
 11
162.4566078873
 21
120.1023845747
 31
0.0
  0
LINE
  5
154
330
1F
100
AcDbEntity
  8
0
  6
HIDDEN
 62
     7
370
     0
100
AcDbLine
 10
162.4566078873
 20
111.6797351092
 30
0.0
 11
164.9566055031
 21
111.6797351092
 31
0.0
  0
LINE
  5
155
330
1F
100
AcDbEntity
  8
0
  6
HIDDEN
 62
     7
370
     0
100
AcDbLine
 10
159.9566028209
 20
111.6797351092
 30
0.0
 11
162.4566078873
 21
111.6797351092
 31
0.0
  0
LINE
  5
156
330
1F
100
AcDbEntity
  8
0
  6
HIDDEN
 62
     7
370
     0
100
AcDbLine
 10
164.9566055031
 20
99.6797350049
 30
0.0
 11
159.9566028209
 21
99.6797350049
 31
0.0
  0
SPLINE
  5
157
330
1F
100
AcDbEntity
  8
0
  6
HIDDEN
 62
     7
370
     0
100
AcDbSpline
210
0.0
220
0.0
230
1.0
 70
     8
 71
     3
 72
     8
 73
     4
 74
     0
 42
0.00000001
 43
0.00000001
 40
0.0
 40
0.0
 40
0.0
 40
0.0
 40
1.0
 40
1.0
 40
1.0
 40
1.0
 10
216.7486384217862
 20
107.3237804114296
 30
0.0
 10
216.7067699949718
 20
107.2795948178926
 30
0.0
 10
216.660998075886
 20
107.2332889438274
 30
0.0
 10
216.611830364456
 20
107.1831632948865
 30
0.0
  0
SPLINE
  5
158
330
1F
100
AcDbEntity
  8
0
  6
HIDDEN
 62
     7
370
     0
100
AcDbSpline
210
0.0
220
0.0
230
1.0
 70
     8
 71
     3
 72
    10
 73
     6
 74
     0
 42
0.00000001
 43
0.00000001
 40
0.0
 40
0.0
 40
0.0
 40
0.0
 40
0.5
 40
0.5
 40
1.0
 40
1.0
 40
1.0
 40
1.0
 10
214.0261486782142
 20
110.7998154004897
 30
0.0
 10
214.0161664329232
 20
110.8617337989321
 30
0.0
 10
214.0095958026799
 20
110.9186351223799
 30
0.0
 10
214.0052106541848
 20
111.021436478715
 30
0.0
 10
214.0075582992079
 20
111.0641657316959
 30
0.0
 10
214.0140704841938
 20
111.0983560077958
 30
0.0
  0
SPLINE
  5
159
330
1F
100
AcDbEntity
  8
0
  6
HIDDEN
 62
     7
370
     0
100
AcDbSpline
210
0.0
220
0.0
230
1.0
 70
     8
 71
     3
 72
    18
 73
    14
 74
     0
 42
0.00000001
 43
0.00000001
 40
0.0
 40
0.0
 40
0.0
 40
0.0
 40
0.0196116391566919
 40
0.1648747197113271
 40
0.2236904118717754
 40
0.2831431379483991
 40
0.3347404707873595
 40
0.3933556031040114
 40
0.4938619696702954
 40
0.6439164857949781
 40
0.7947422496177674
 40
0.9415554990261216
 40
1.0
 40
1.0
 40
1.0
 40
1.0
 10
214.0372381301534
 20
111.1579029634246
 30
0.0
 10
214.0385532698037
 20
111.161530073318
 30
0.0
 10
214.0496096266682
 20
111.1920231250336
 30
0.0
 10
214.0763660497768
 20
111.1921585584107
 30
0.0
 10
214.0999027967225
 20
111.1674708779992
 30
0.0
 10
214.1088400822648
 20
111.1269590531856
 30
0.0
 10
214.1041157126224
 20
111.0603096579369
 30
0.0
 10
214.0858094215627
 20
110.9633884188216
 30
0.0
 10
214.0518454812877
 20
110.8180332988503
 30
0.0
 10
214.015383800718
 20
110.6360311434093
 30
0.0
 10
214.0020757751129
 20
110.4651831308905
 30
0.0
 10
214.0134088420205
 20
110.3570254543686
 30
0.0
 10
214.0326527460022
 20
110.3324658947123
 30
0.0
 10
214.038132199825
 20
110.3254728763947
 30
0.0
  0
LWPOLYLINE
  5
15A
330
1F
100
AcDbEntity
  8
0
  6
HIDDEN
 62
     7
370
     0
100
AcDbPolyline
 90
        8
 70
   128
 43
0.0
 10
214.0615642758
 20
110.2888979762
 10
214.0868813487
 20
110.2878255583
 10
214.1017378064
 20
110.3097437694
 10
214.1067222448
 20
110.3444644063
 10
214.1039431782
 20
110.394470375
 10
214.0906513425
 20
110.4763811268
 10
214.0589416714
 20
110.6278002076
 10
214.0261516662
 20
110.7998154871
  0
SPLINE
  5
15B
330
1F
100
AcDbEntity
  8
0
  6
HIDDEN
 62
     7
370
     0
100
AcDbSpline
210
0.0
220
0.0
230
1.0
 70
     8
 71
     3
 72
    14
 73
    10
 74
     0
 42
0.00000001
 43
0.00000001
 40
0.0
 40
0.0
 40
0.0
 40
0.0
 40
0.25
 40
0.25
 40
0.5
 40
0.5
 40
0.75
 40
0.75
 40
1.0
 40
1.0
 40
1.0
 40
1.0
 10
214.5528622447177
 20
111.8966436640158
 30
0.0
 10
214.5906092223052
 20
111.863527992092
 30
0.0
 10
214.6237084145038
 20
111.8228583343298
 30
0.0
 10
214.6696788684111
 20
111.721587651633
 30
0.0
 10
214.6809068393329
 20
111.6629420719561
 30
0.0
 10
214.6720529379157
 20
111.5292703231274
 30
0.0
 10
214.652033488141
 20
111.4567823569621
 30
0.0
 10
214.5924757942744
 20
111.3064997843498
 30
0.0
 10
214.5543095909728
 20
111.2304615881899
 30
0.0
 10
214.5128541766249
 20
111.1524656078431
 30
0.0
  0
SPLINE
  5
15C
330
1F
100
AcDbEntity
  8
0
  6
HIDDEN
 62
     7
370
     0
100
AcDbSpline
210
0.0
220
0.0
230
1.0
 70
     8
 71
     3
 72
    14
 73
    10
 74
     0
 42
0.00000001
 43
0.00000001
 40
0.0
 40
0.0
 40
0.0
 40
0.0
 40
0.25
 40
0.25
 40
0.5
 40
0.5
 40
0.75
 40
0.75
 40
1.0
 40
1.0
 40
1.0
 40
1.0
 10
214.5128541766249
 20
111.1524656078432
 30
0.0
 10
214.4782897502224
 20
111.1889250016133
 30
0.0
 10
214.4448995464742
 20
111.2238975328403
 30
0.0
 10
214.3893028008092
 20
111.3024839210316
 30
0.0
 10
214.3661704730789
 20
111.3474936184369
 30
0.0
 10
214.3776067626127
 20
111.4907459994768
 30
0.0
 10
214.4086503431643
 20
111.5759143272356
 30
0.0
 10
214.4755064521051
 20
111.7379102169914
 30
0.0
 10
214.5135085804656
 20
111.8180009675138
 30
0.0
 10
214.5528622447173
 20
111.8966436640176
 30
0.0
  0
LWPOLYLINE
  5
15D
330
1F
100
AcDbEntity
  8
0
  6
HIDDEN
 62
     7
370
     0
100
AcDbPolyline
 90
       17
 70
   128
 43
0.0
 10
215.5066043826
 20
110.9830359742
 10
216.0806269141
 20
111.0637737251
 10
216.5672690364
 20
111.2936963141
 10
216.8924272748
 20
111.6377990506
 10
217.0065999718
 20
112.0436959713
 10
216.8924272748
 20
112.4495933577
 10
216.5672690364
 20
112.7936960943
 10
216.0806269141
 20
113.0236182175
 10
215.5066043826
 20
113.1043564342
 10
214.9325818511
 20
113.0236182175
 10
214.4459471794
 20
112.7936960943
 10
214.1207814904
 20
112.4495933577
 10
214.0066013427
 20
112.0436959713
 10
214.1207814904
 20
111.6377990506
 10
214.4459471794
 20
111.2936963141
 10
214.9325818511
 20
111.0637737251
 10
215.5066043826
 20
110.9830359742
  0
SPLINE
  5
15E
330
1F
100
AcDbEntity
  8
0
  6
HIDDEN
 62
     7
370
     0
100
AcDbSpline
210
0.0
220
0.0
230
1.0
 70
     8
 71
     3
 72
    48
 73
    44
 74
     0
 42
0.00000001
 43
0.00000001
 40
-0.0624999999999997
 40
-0.0624999999999997
 40
0.0
 40
0.0
 40
0.0624999999999998
 40
0.0624999999999998
 40
0.1249999999999995
 40
0.1249999999999995
 40
0.1874999999999993
 40
0.1874999999999993
 40
0.249999999999999
 40
0.249999999999999
 40
0.3124999999999987
 40
0.3124999999999987
 40
0.3437499999999984
 40
0.3437499999999984
 40
0.3749999999999982
 40
0.3749999999999982
 40
0.4062499999999978
 40
0.4062499999999978
 40
0.4374999999999976
 40
0.4374999999999976
 40
0.4999999999999969
 40
0.4999999999999969
 40
0.5624999999999963
 40
0.5624999999999963
 40
0.6249999999999958
 40
0.6249999999999958
 40
0.6562499999999953
 40
0.6562499999999953
 40
0.6874999999999949
 40
0.6874999999999949
 40
0.7499999999999978
 40
0.7499999999999978
 40
0.8125000000000008
 40
0.8125000000000008
 40
0.8437500000000007
 40
0.8437500000000007
 40
0.8750000000000006
 40
0.8750000000000006
 40
0.9062500000000004
 40
0.9062500000000004
 40
0.9375000000000003
 40
0.9375000000000003
 40
1.0
 40
1.0
 40
1.0625
 40
1.0625
 10
216.8003505916006
 20
110.8412792680939
 30
0.0
 10
216.6371952356101
 20
110.5292551406416
 30
0.0
 10
216.5494913263589
 20
110.3799238873419
 30
0.0
 10
216.397499496908
 20
110.0844398507573
 30
0.0
 10
216.3366118792163
 20
109.9394765237951
 30
0.0
 10
216.3349280427712
 20
109.6882344369352
 30
0.0
 10
216.3933747432748
 20
109.5959388453504
 30
0.0
 10
216.5383978126339
 20
109.4731429535298
 30
0.0
 10
216.6239169208945
 20
109.4403830259078
 30
0.0
 10
216.7832092631723
 20
109.4287911385371
 30
0.0
 10
216.8579233049574
 20
109.4505383097632
 30
0.0
 10
216.941577712008
 20
109.5350948717562
 30
0.0
 10
216.9641410698391
 20
109.5714870999727
 30
0.0
 10
216.9959780431704
 20
109.6614165548524
 30
0.0
 10
217.0051290417873
 20
109.7156650331423
 30
0.0
 10
217.0077408159767
 20
109.8362283860457
 30
0.0
 10
217.0012858285837
 20
109.9043241737502
 30
0.0
 10
216.9740984781072
 20
110.0482133091497
 30
0.0
 10
216.9535786936372
 20
110.1239125444928
 30
0.0
 10
216.8751631241167
 20
110.3582618523375
 30
0.0
 10
216.8019771297399
 20
110.5189688370853
 30
0.0
 10
216.6449978740172
 20
110.8291150349592
 30
0.0
 10
216.5586225729675
 20
110.9820760214337
 30
0.0
 10
216.4095211187125
 20
111.2760365163465
 30
0.0
 10
216.3447687694444
 20
111.4232816512097
 30
0.0
 10
216.3325962321794
 20
111.6150711669447
 30
0.0
 10
216.3429774600445
 20
111.6721936255112
 30
0.0
 10
216.3866183913971
 20
111.7691889212246
 30
0.0
 10
216.4184172656753
 20
111.8079932622922
 30
0.0
 10
216.5284708247373
 20
111.9017937691807
 30
0.0
 10
216.6161373316666
 20
111.9321160792221
 30
0.0
 10
216.7808739992854
 20
111.9373628204618
 30
0.0
 10
216.8561871909396
 20
111.9115073489284
 30
0.0
 10
216.9409011368737
 20
111.8221824768394
 30
0.0
 10
216.9635982047976
 20
111.7846590620839
 30
0.0
 10
216.9958514728089
 20
111.6925318542383
 30
0.0
 10
217.0050102144567
 20
111.6380916129761
 30
0.0
 10
217.0078095132898
 20
111.517493898648
 30
0.0
 10
217.0014155715872
 20
111.4495510934786
 30
0.0
 10
216.9743225075049
 20
111.3070940792419
 30
0.0
 10
216.9537007357146
 20
111.2319656362834
 30
0.0
 10
216.8746059193742
 20
111.000096632425
 30
0.0
 10
216.8003505916006
 20
110.8412792680939
 30
0.0
 10
216.6371952356101
 20
110.5292551406416
 30
0.0
  0
SPLINE
  5
15F
330
1F
100
AcDbEntity
  8
0
  6
HIDDEN
 62
     7
370
     0
100
AcDbSpline
210
0.0
220
0.0
230
1.0
 70
     8
 71
     3
 72
    12
 73
     8
 74
     0
 42
0.00000001
 43
0.00000001
 40
0.0
 40
0.0
 40
0.0
 40
0.0
 40
0.5000000000000009
 40
0.5000000000000009
 40
0.7500000000000004
 40
0.7500000000000004
 40
1.0
 40
1.0
 40
1.0
 40
1.0
 10
214.5128541766249
 20
109.5634655901134
 30
0.0
 10
214.5956608218581
 20
109.6156880682237
 30
0.0
 10
214.667244265973
 20
109.7023480006308
 30
0.0
 10
214.6810108356849
 20
109.8914871708961
 30
0.0
 10
214.6696703961686
 20
109.9607426544416
 30
0.0
 10
214.6237077333827
 20
110.1074661441537
 30
0.0
 10
214.5906120109805
 20
110.1822462093101
 30
0.0
 10
214.5528622447178
 20
110.2593434872161
 30
0.0
  0
SPLINE
  5
160
330
1F
100
AcDbEntity
  8
0
  6
HIDDEN
 62
     7
370
     0
100
AcDbSpline
210
0.0
220
0.0
230
1.0
 70
     8
 71
     3
 72
    18
 73
    14
 74
     0
 42
0.00000001
 43
0.00000001
 40
0.0
 40
0.0
 40
0.0
 40
0.0
 40
0.2499999999999857
 40
0.2499999999999857
 40
0.3749999999999861
 40
0.3749999999999861
 40
0.4999999999999865
 40
0.4999999999999865
 40
0.6249999999999868
 40
0.6249999999999868
 40
0.7499999999999872
 40
0.7499999999999872
 40
1.0
 40
1.0
 40
1.0
 40
1.0
 10
214.5528622447177
 20
110.2593434872161
 30
0.0
 10
214.5134138685893
 20
110.2264695931379
 30
0.0
 10
214.4752571880856
 20
110.195581094043
 30
0.0
 10
214.4250269068515
 20
110.1453467266967
 30
0.0
 10
214.4094975950143
 20
110.1279505434612
 30
0.0
 10
214.3842381910233
 20
110.0867076077574
 30
0.0
 10
214.3746665217134
 20
110.0622420532677
 30
0.0
 10
214.3690824137967
 20
110.0009158150398
 30
0.0
 10
214.37341376057
 20
109.9634776145181
 30
0.0
 10
214.3908168946623
 20
109.8855941677534
 30
0.0
 10
214.4034259397804
 20
109.8448406094641
 30
0.0
 10
214.4451268866542
 20
109.7237212402712
 30
0.0
 10
214.4783660838541
 20
109.6429817200865
 30
0.0
 10
214.5128541766249
 20
109.5634655901134
 30
0.0
  0
ARC
  5
161
330
1F
100
AcDbEntity
  8
0
  6
HIDDEN
 62
     7
370
     0
100
AcDbCircle
 10
230.6408183005
 20
110.6585347473
 30
0.0
 40
16.13552662853455
100
AcDbArc
 50
175.5992620995
 51
178.2458232576
  0
ARC
  5
162
330
1F
100
AcDbEntity
  8
0
  6
HIDDEN
 62
     7
370
     0
100
AcDbCircle
 10
201.4920062511
 20
110.661190731
 30
0.0
 40
13.0670371772224
100
AcDbArc
 50
355.1810632422
 51
358.2377192901
  0
SPLINE
  5
163
330
1F
100
AcDbEntity
  8
0
  6
HIDDEN
 62
     7
370
     0
100
AcDbSpline
210
0.0
220
0.0
230
1.0
 70
     8
 71
     3
 72
     8
 73
     4
 74
     0
 42
0.00000001
 43
0.00000001
 40
0.0
 40
0.0
 40
0.0
 40
0.0
 40
0.000159097695343
 40
0.000159097695343
 40
0.000159097695343
 40
0.000159097695343
 10
59.89177239179374
 20
89.8782446209894
 30
0.0
 10
59.8467209212894
 20
89.85026573666563
 30
0.0
 10
59.8016648828746
 20
89.82229420629056
 30
0.0
 10
59.75660438257572
 20
89.79432986693804
 30
0.0
  0
SPLINE
  5
164
330
1F
100
AcDbEntity
  8
0
  6
HIDDEN
 62
     7
370
     0
100
AcDbSpline
210
0.0
220
0.0
230
1.0
 70
     8
 71
     3
 72
    11
 73
     7
 74
     0
 42
0.00000001
 43
0.00000001
 40
0.0
 40
0.0
 40
0.0
 40
0.0
 40
0.0008212909311456
 40
0.0008212909311456
 40
0.0008212909311456
 40
0.001642825724306
 40
0.001642825724306
 40
0.001642825724306
 40
0.001642825724306
 10
59.75660438257574
 20
89.79432986693804
 30
0.0
 10
59.56545936109354
 20
89.75104367808548
 30
0.0
 10
59.37404102541707
 20
89.71010716844822
 30
0.0
 10
59.18239495075593
 20
89.67150539706162
 30
0.0
 10
58.99069186921432
 20
89.63289214322454
 30
0.0
 10
58.79874674592882
 20
89.59661193393853
 30
0.0
 10
58.60660438257565
 20
89.56264502758701
 30
0.0
  0
LINE
  5
165
330
1F
100
AcDbEntity
  8
0
  6
HIDDEN
 62
     7
370
     0
100
AcDbLine
 10
106.5966044309
 20
125.8156015351
 30
0.0
 11
106.5966044309
 21
125.5297357961
 31
0.0
  0
LINE
  5
166
330
1F
100
AcDbEntity
  8
0
  6
HIDDEN
 62
     7
370
     0
100
AcDbLine
 10
110.4166046472
 20
125.860880576
 30
0.0
 11
110.4166046472
 21
125.5297357961
 31
0.0
  0
LINE
  5
167
330
1F
100
AcDbEntity
  8
0
  6
HIDDEN
 62
     7
370
     0
100
AcDbLine
 10
111.8985363038
 20
130.1384246722
 30
0.0
 11
111.8985363038
 21
125.5297357961
 31
0.0
  0
SPLINE
  5
168
330
1F
100
AcDbEntity
  8
0
  6
HIDDEN
 62
     7
370
     0
100
AcDbSpline
210
0.0
220
0.0
230
1.0
 70
     8
 71
     3
 72
    24
 73
    20
 74
     0
 42
0.00000001
 43
0.00000001
 40
0.0
 40
0.0
 40
0.0
 40
0.0
 40
0.25
 40
0.25
 40
0.374999999999999
 40
0.374999999999999
 40
0.4374999999999993
 40
0.4374999999999993
 40
0.4687499999999994
 40
0.4687499999999994
 40
0.4999999999999995
 40
0.4999999999999995
 40
0.5624999999999971
 40
0.5624999999999971
 40
0.6249999999999947
 40
0.6249999999999947
 40
0.7499999999999947
 40
0.7499999999999947
 40
1.0
 40
1.0
 40
1.0
 40
1.0
 10
58.66926775729914
 20
86.00518251224032
 30
0.0
 10
58.68302087596935
 20
86.0758325702306
 30
0.0
 10
58.70079344337523
 20
86.14243068299554
 30
0.0
 10
58.75304453493057
 20
86.21652870322875
 30
0.0
 10
58.77407961051215
 20
86.2377865103903
 30
0.0
 10
58.82698001814057
 20
86.24593243653653
 30
0.0
 10
58.84808569101849
 20
86.24499263314077
 30
0.0
 10
58.89413785969646
 20
86.22397664156343
 30
0.0
 10
58.91250833167985
 20
86.2130678354558
 30
0.0
 10
58.95405996674555
 20
86.18043292450844
 30
0.0
 10
58.97662663950247
 20
86.15894094413706
 30
0.0
 10
59.03940765596248
 20
86.09047500055075
 30
0.0
 10
59.07253741693039
 20
86.04440054234566
 30
0.0
 10
59.12945510341538
 20
85.959392654011
 30
0.0
 10
59.15364112891916
 20
85.91911235282961
 30
0.0
 10
59.21884907929892
 20
85.80417612636367
 30
0.0
 10
59.25356513949016
 20
85.73359314121666
 30
0.0
 10
59.34678040982105
 20
85.52938738213805
 30
0.0
 10
59.39245294518172
 20
85.40648899981069
 30
0.0
 10
59.43075802868027
 20
85.28961572342311
 30
0.0
  0
SPLINE
  5
169
330
1F
100
AcDbEntity
  8
0
  6
HIDDEN
 62
     7
370
     0
100
AcDbSpline
210
0.0
220
0.0
230
1.0
 70
     8
 71
     3
 72
    11
 73
     7
 74
     0
 42
0.00000001
 43
0.00000001
 40
0.0
 40
0.0
 40
0.0
 40
0.0
 40
0.0005781862223978
 40
0.0005781862223978
 40
0.0005781862223978
 40
0.0011563724723928
 40
0.0011563724723928
 40
0.0011563724723928
 40
0.0011563724723928
 10
59.60660438257573
 20
118.3198773640678
 30
0.0
 10
59.4399438283001
 20
118.3844068754814
 30
0.0
 10
59.27328053139362
 20
118.4489095793252
 30
0.0
 10
59.10661394756339
 20
118.5133960277588
 30
0.0
 10
58.93994735530431
 20
118.5778824794538
 30
0.0
 10
58.77327748967842
 20
118.6423524881819
 30
0.0
 10
58.60660438257569
 20
118.7068082549145
 30
0.0
  0
SPLINE
  5
16A
330
1F
100
AcDbEntity
  8
0
  6
HIDDEN
 62
     7
370
     0
100
AcDbSpline
210
0.0
220
0.0
230
1.0
 70
     8
 71
     3
 72
    11
 73
     7
 74
     0
 42
0.00000001
 43
0.00000001
 40
0.0
 40
0.0
 40
0.0
 40
0.0
 40
0.0005778746105108
 40
0.0005778746105108
 40
0.0005778746105108
 40
0.0011557494857226
 40
0.0011557494857226
 40
0.0011557494857226
 40
0.0011557494857226
 10
58.6066043825757
 20
92.65251320153118
 30
0.0
 10
58.77327125898904
 20
92.71832532822503
 30
0.0
 10
58.93993797855049
 20
92.78418380836263
 30
0.0
 10
59.10660462659914
 20
92.85009138129327
 30
0.0
 10
59.27327135111781
 20
92.91599898446364
 30
0.0
 10
59.43993804553838
 20
92.98195609285214
 30
0.0
 10
59.60660438257573
 20
93.04795783277486
 30
0.0
  0
SPLINE
  5
16B
330
1F
100
AcDbEntity
  8
0
  6
HIDDEN
 62
     7
370
     0
100
AcDbSpline
210
0.0
220
0.0
230
1.0
 70
     8
 71
     3
 72
    11
 73
     7
 74
     0
 42
0.00000001
 43
0.00000001
 40
0.0000000000000006
 40
0.0000000000000006
 40
0.0000000000000006
 40
0.0000000000000006
 40
0.0005780486062768
 40
0.0005780486062768
 40
0.0005780486062768
 40
0.0011560973514127
 40
0.0011560973514127
 40
0.0011560973514127
 40
0.0011560973514127
 10
58.6066043825757
 20
115.6605495587128
 30
0.0
 10
58.77327423862061
 20
115.5981776971983
 30
0.0
 10
58.93994194270488
 20
115.5358238369006
 30
0.0
 10
59.10660824715852
 20
115.4735042767146
 30
0.0
 10
59.27327458785227
 20
115.4111847029776
 30
0.0
 10
59.43993954448106
 20
115.348899498658
 30
0.0
 10
59.60660438257573
 20
115.2866743780894
 30
0.0
  0
SPLINE
  5
16C
330
1F
100
AcDbEntity
  8
0
  6
HIDDEN
 62
     7
370
     0
100
AcDbSpline
210
0.0
220
0.0
230
1.0
 70
     8
 71
     3
 72
    11
 73
     7
 74
     0
 42
0.00000001
 43
0.00000001
 40
0.0
 40
0.0
 40
0.0
 40
0.0
 40
0.0005782401583533
 40
0.0005782401583533
 40
0.0005782401583533
 40
0.0011564805960992
 40
0.0011564805960992
 40
0.0011564805960992
 40
0.0011564805960992
 10
59.60660438257573
 20
96.07890826462341
 30
0.0
 10
59.43995343222682
 20
96.01548280656262
 30
0.0
 10
59.27329383964415
 20
95.95212728290734
 30
0.0
 10
59.1066267872156
 20
95.88882969855736
 30
0.0
 10
58.93995965065178
 20
95.82553208225411
 30
0.0
 10
58.77328504320572
 20
95.76229228731344
 30
0.0
 10
58.60660438257568
 20
95.6990922806746
 30
0.0
  0
CIRCLE
  5
16D
330
1F
100
AcDbEntity
  8
0
  6
HIDDEN
 62
     7
370
     0
100
AcDbCircle
 10
97.5066043826
 20
105.679735057
 30
0.0
 40
5.0
  0
LINE
  5
16E
330
1F
100
AcDbEntity
  8
0
  6
HIDDEN
 62
     7
370
     0
100
AcDbLine
 10
244.9974925013
 20
102.9608151689
 30
0.0
 11
244.5121467801
 21
102.4473311659
 31
0.0
  0
LINE
  5
16F
330
1F
100
AcDbEntity
  8
0
  6
HIDDEN
 62
     7
370
     0
100
AcDbLine
 10
244.5676685067
 20
100.4488738067
 30
0.0
 11
245.0807750912
 21
99.9631290137
 31
0.0
  0
LINE
  5
170
330
1F
100
AcDbEntity
  8
0
  6
HIDDEN
 62
     7
370
     0
100
AcDbLine
 10
250.3325701447
 20
103.1096146721
 30
0.0
 11
244.9986249896
 21
102.9614256508
 31
0.0
  0
LINE
  5
171
330
1F
100
AcDbEntity
  8
0
  6
HIDDEN
 62
     7
370
     0
100
AcDbLine
 10
245.081952283
 20
99.9625827931
 30
0.0
 11
250.4158825369
 21
100.1107720472
 31
0.0
  0
LINE
  5
172
330
1F
100
AcDbEntity
  8
0
  6
HIDDEN
 62
     7
370
     0
100
AcDbLine
 10
250.4178345891
 20
100.1125629805
 30
0.0
 11
250.5066008063
 21
100.2769353613
 31
0.0
  0
LINE
  5
173
330
1F
100
AcDbEntity
  8
0
  6
HIDDEN
 62
     7
370
     0
100
AcDbLine
 10
250.5038440915
 20
102.8323529567
 30
0.0
 11
250.334626505
 21
103.107934799
 31
0.0
  0
LINE
  5
174
330
1F
100
AcDbEntity
  8
0
  6
HIDDEN
 62
     7
370
     0
100
AcDbLine
 10
250.276482174
 20
108.2531504612
 30
0.0
 11
250.4457146617
 21
108.5287323035
 31
0.0
  0
LINE
  5
175
330
1F
100
AcDbEntity
  8
0
  6
HIDDEN
 62
     7
370
     0
100
AcDbLine
 10
250.5066008063
 20
110.9765013493
 30
0.0
 11
250.3597051592
 21
111.2485220469
 31
0.0
  0
LINE
  5
176
330
1F
100
AcDbEntity
  8
0
  6
HIDDEN
 62
     7
370
     0
100
AcDbLine
 10
250.3577531071
 20
111.2503134459
 30
0.0
 11
245.023807952
 21
111.3985022343
 31
0.0
  0
LINE
  5
177
330
1F
100
AcDbEntity
  8
0
  6
HIDDEN
 62
     7
370
     0
100
AcDbLine
 10
244.9404955598
 20
108.3996593766
 30
0.0
 11
250.2744407149
 21
108.2514703553
 31
0.0
  0
LINE
  5
178
330
1F
100
AcDbEntity
  8
0
  6
HIDDEN
 62
     7
370
     0
100
AcDbLine
 10
245.0226456614
 20
111.3979560136
 30
0.0
 11
244.5095390769
 21
110.9122116863
 31
0.0
  0
LINE
  5
179
330
1F
100
AcDbEntity
  8
0
  6
HIDDEN
 62
     7
370
     0
100
AcDbLine
 10
244.4540173503
 20
108.9137540944
 30
0.0
 11
244.9393630715
 21
108.4002698585
 31
0.0
  0
LINE
  5
17A
330
1F
100
AcDbEntity
  8
0
  6
HIDDEN
 62
     7
370
     0
100
AcDbLine
 10
94.5066045726
 20
119.9803654849
 30
0.0
 11
94.5066045726
 21
118.0736752972
 31
0.0
  0
LINE
  5
17B
330
1F
100
AcDbEntity
  8
0
  6
HIDDEN
 62
     7
370
     0
100
AcDbLine
 10
102.5066044869
 20
118.0736752972
 30
0.0
 11
102.5066044869
 21
119.9775705859
 31
0.0
  0
LINE
  5
17C
330
1F
100
AcDbEntity
  8
0
  6
HIDDEN
 62
     7
370
     0
100
AcDbLine
 10
90.5066043826
 20
80.3558039292
 30
0.0
 11
90.6007651549
 21
81.0257918015
 31
0.0
  0
LINE
  5
17D
330
1F
100
AcDbEntity
  8
0
  6
HIDDEN
 62
     7
370
     0
100
AcDbLine
 10
90.6007651549
 20
130.3336783126
 30
0.0
 11
90.5066043826
 21
131.0036661848
 31
0.0
  0
ARC
  5
17E
330
1F
100
AcDbEntity
  8
0
  6
HIDDEN
 62
     7
370
     0
100
AcDbCircle
 10
90.0065976299
 20
81.1092974426
 30
0.0
 40
0.60000675266771
100
AcDbArc
 50
352.0
 51
0.0
  0
ARC
  5
17F
330
1F
100
AcDbEntity
  8
0
  6
HIDDEN
 62
     7
370
     0
100
AcDbCircle
 10
90.0065976299
 20
81.1092974426
 30
0.0
 40
0.6000067526677242
100
AcDbArc
 50
0.0
 51
33.5571153394
  0
ARC
  5
180
330
1F
100
AcDbEntity
  8
0
  6
HIDDEN
 62
     7
370
     0
100
AcDbCircle
 10
90.0065976299
 20
130.2501726714
 30
0.0
 40
0.6000067526677169
100
AcDbArc
 50
348.75
 51
8.0
  0
LWPOLYLINE
  5
181
330
1F
100
AcDbEntity
  8
0
  6
HIDDEN
 62
     7
370
     0
100
AcDbPolyline
 90
        3
 70
   128
 43
0.0
 10
90.5950754215
 20
130.1331179961
 10
90.5609315898
 20
130.0205602124
 10
90.5066043826
 20
129.9185077473
  0
LINE
  5
182
330
1F
100
AcDbEntity
  8
0
  6
HIDDEN
 62
     7
370
     0
100
AcDbLine
 10
90.60660438
 20
81.1092979088
 30
0.0
 11
90.60660438
 21
130.2501722052
 31
0.0
  0
ARC
  5
183
330
1F
100
AcDbEntity
  8
0
  6
HIDDEN
 62
     7
370
     0
100
AcDbCircle
 10
73.5890399479
 20
86.279735057
 30
0.0
 40
0.6000000000000085
100
AcDbArc
 50
210.0
 51
270.0
  0
ARC
  5
184
330
1F
100
AcDbEntity
  8
0
  6
HIDDEN
 62
     7
370
     0
100
AcDbCircle
 10
73.5890399479
 20
125.079735057
 30
0.0
 40
0.5999999999999962
100
AcDbArc
 50
90.0
 51
150.0
  0
LINE
  5
185
330
1F
100
AcDbEntity
  8
0
  6
HIDDEN
 62
     7
370
     0
100
AcDbLine
 10
73.5890404077
 20
85.6797355041
 30
0.0
 11
77.7807119058
 21
85.6797355041
 31
0.0
  0
LINE
  5
186
330
1F
100
AcDbEntity
  8
0
  6
HIDDEN
 62
     7
370
     0
100
AcDbLine
 10
77.7807119058
 20
125.67973461
 30
0.0
 11
73.5890404077
 21
125.67973461
 31
0.0
  0
ARC
  5
187
330
1F
100
AcDbEntity
  8
0
  6
HIDDEN
 62
     7
370
     0
100
AcDbCircle
 10
84.2616063842
 20
93.679735057
 30
0.0
 40
8.00000000000001
100
AcDbArc
 50
276.8677048148
 51
321.3178125465
  0
ARC
  5
188
330
1F
100
AcDbEntity
  8
0
  6
HIDDEN
 62
     7
370
     0
100
AcDbCircle
 10
84.2616063842
 20
117.679735057
 30
0.0
 40
8.000000000000004
100
AcDbArc
 50
38.6821874535
 51
83.1185947581
  0
LINE
  5
189
330
1F
100
AcDbEntity
  8
0
  6
HIDDEN
 62
     7
370
     0
100
AcDbLine
 10
73.0694238784
 20
125.3797351196
 30
0.0
 11
71.5105798783
 21
122.6797359809
 31
0.0
  0
LINE
  5
18A
330
1F
100
AcDbEntity
  8
0
  6
HIDDEN
 62
     7
370
     0
100
AcDbLine
 10
71.5105798783
 20
88.6797341331
 30
0.0
 11
73.0694238784
 21
85.9797349944
 31
0.0
  0
LINE
  5
18B
330
1F
100
AcDbEntity
  8
0
  6
HIDDEN
 62
     7
370
     0
100
AcDbLine
 10
94.5066045726
 20
132.9594007507
 30
0.0
 11
94.5066045726
 21
129.6253367141
 31
0.0
  0
LINE
  5
18C
330
1F
100
AcDbEntity
  8
0
  6
HIDDEN
 62
     7
370
     0
100
AcDbLine
 10
102.5066044869
 20
129.6253367141
 30
0.0
 11
102.5066044869
 21
132.9540679976
 31
0.0
  0
ARC
  5
18D
330
1F
100
AcDbEntity
  8
0
  6
HIDDEN
 62
     7
370
     0
100
AcDbCircle
 10
98.9566043826
 20
89.954735057
 30
0.0
 40
1.500000000000001
100
AcDbArc
 50
238.2116693829
 51
0.0
  0
ARC
  5
18E
330
1F
100
AcDbEntity
  8
0
  6
HIDDEN
 62
     7
370
     0
100
AcDbCircle
 10
98.9566043826
 20
121.404735057
 30
0.0
 40
1.5
100
AcDbArc
 50
0.0
 51
121.7883306171
  0
LINE
  5
18F
330
1F
100
AcDbEntity
  8
0
  6
HIDDEN
 62
     7
370
     0
100
AcDbLine
 10
90.5066043826
 20
88.6797341331
 30
0.0
 11
98.1664303446
 21
88.6797341331
 31
0.0
  0
LINE
  5
190
330
1F
100
AcDbEntity
  8
0
  6
HIDDEN
 62
     7
370
     0
100
AcDbLine
 10
98.1664303446
 20
122.6797359809
 30
0.0
 11
90.5066043826
 21
122.6797359809
 31
0.0
  0
LINE
  5
191
330
1F
100
AcDbEntity
  8
0
  6
HIDDEN
 62
     7
370
     0
100
AcDbLine
 10
68.706604162
 20
88.6797341331
 30
0.0
 11
71.5105798783
 21
88.6797341331
 31
0.0
  0
LINE
  5
192
330
1F
100
AcDbEntity
  8
0
  6
HIDDEN
 62
     7
370
     0
100
AcDbLine
 10
71.5105798783
 20
122.6797359809
 30
0.0
 11
64.7066035064
 21
122.6797359809
 31
0.0
  0
LINE
  5
193
330
1F
100
AcDbEntity
  8
0
  6
HIDDEN
 62
     7
370
     0
100
AcDbLine
 10
109.3066041114
 20
96.1797353625
 30
0.0
 11
112.3066046031
 21
96.1797353625
 31
0.0
  0
LINE
  5
194
330
1F
100
AcDbEntity
  8
0
  6
HIDDEN
 62
     7
370
     0
100
AcDbLine
 10
112.3066046031
 20
115.1797347515
 30
0.0
 11
109.3066041114
 21
115.1797347515
 31
0.0
  0
LINE
  5
195
330
1F
100
AcDbEntity
  8
0
  6
HIDDEN
 62
     7
370
     0
100
AcDbLine
 10
100.456604244
 20
96.6797354445
 30
0.0
 11
100.956604326
 21
97.1797345951
 31
0.0
  0
LINE
  5
196
330
1F
100
AcDbEntity
  8
0
  6
HIDDEN
 62
     7
370
     0
100
AcDbLine
 10
100.956604326
 20
114.179735519
 30
0.0
 11
100.456604244
 21
114.6797346696
 31
0.0
  0
LINE
  5
197
330
1F
100
AcDbEntity
  8
0
  6
HIDDEN
 62
     7
370
     0
100
AcDbLine
 10
100.956604326
 20
97.1797345951
 30
0.0
 11
109.3066041114
 21
97.1797345951
 31
0.0
  0
LINE
  5
198
330
1F
100
AcDbEntity
  8
0
  6
HIDDEN
 62
     7
370
     0
100
AcDbLine
 10
109.3066041114
 20
114.179735519
 30
0.0
 11
100.956604326
 21
114.179735519
 31
0.0
  0
LINE
  5
199
330
1F
100
AcDbEntity
  8
0
  6
HIDDEN
 62
     7
370
     0
100
AcDbLine
 10
95.4566043558
 20
137.1797355637
 30
0.0
 11
95.4566043558
 21
132.079734914
 31
0.0
  0
LINE
  5
19A
330
1F
100
AcDbEntity
  8
0
  6
HIDDEN
 62
     7
370
     0
100
AcDbLine
 10
217.0065999718
 20
101.5593092702
 30
0.0
 11
217.0065999718
 21
103.4308092016
 31
0.0
  0
LINE
  5
19B
330
1F
100
AcDbEntity
  8
0
  6
HIDDEN
 62
     7
370
     0
100
AcDbLine
 10
217.0065999718
 20
99.3157741427
 30
0.0
 11
217.0065999718
 21
99.8071133904
 31
0.0
  0
LINE
  5
19C
330
1F
100
AcDbEntity
  8
0
  6
HIDDEN
 62
     7
370
     0
100
AcDbLine
 10
214.0066013427
 20
100.3545303642
 30
0.0
 11
214.0066013427
 21
99.3157741427
 31
0.0
  0
LINE
  5
19D
330
1F
100
AcDbEntity
  8
0
  6
HIDDEN
 62
     7
370
     0
100
AcDbLine
 10
214.0066013427
 20
103.3513033576
 30
0.0
 11
214.0066013427
 21
100.88071784
 31
0.0
  0
LINE
  5
19E
330
1F
100
AcDbEntity
  8
0
  6
HIDDEN
 62
     7
370
     0
100
AcDbLine
 10
216.7187691422
 20
99.4246848672
 30
0.0
 11
250.5066008063
 21
100.3633886389
 31
0.0
  0
LINE
  5
19F
330
1F
100
AcDbEntity
  8
0
  6
HIDDEN
 62
     7
370
     0
100
AcDbLine
 10
250.5066008063
 20
102.8643534332
 30
0.0
 11
216.7143882008
 21
101.9255278911
 31
0.0
  0
LINE
  5
1A0
330
1F
100
AcDbEntity
  8
0
  6
HIDDEN
 62
     7
370
     0
100
AcDbLine
 10
214.0332073661
 20
101.0366584919
 30
0.0
 11
213.7838587852
 21
100.5936288088
 31
0.0
  0
LINE
  5
1A1
330
1F
100
AcDbEntity
  8
0
  6
HIDDEN
 62
     7
370
     0
100
AcDbLine
 10
213.7838587852
 20
100.5936288088
 30
0.0
 11
214.0339151712
 21
100.2019461989
 31
0.0
  0
LINE
  5
1A2
330
1F
100
AcDbEntity
  8
0
  6
HIDDEN
 62
     7
370
     0
100
AcDbLine
 10
85.69104222
 20
81.6003638133
 30
0.0
 11
85.2566100413
 21
82.0794305578
 31
0.0
  0
LINE
  5
1A3
330
1F
100
AcDbEntity
  8
0
  6
HIDDEN
 62
     7
370
     0
100
AcDbLine
 10
77.7566064836
 20
82.5011185184
 30
0.0
 11
77.2741730081
 21
82.0220517739
 31
0.0
  0
LINE
  5
1A4
330
1F
100
AcDbEntity
  8
0
  6
HIDDEN
 62
     7
370
     0
100
AcDbLine
 10
77.2740510048
 20
129.3374127522
 30
0.0
 11
77.756601827
 21
128.858291991
 31
0.0
  0
LINE
  5
1A5
330
1F
100
AcDbEntity
  8
0
  6
HIDDEN
 62
     7
370
     0
100
AcDbLine
 10
85.2566044534
 20
129.2799911275
 30
0.0
 11
85.6911465282
 21
129.759110026
 31
0.0
  0
LINE
  5
1A6
330
1F
100
AcDbEntity
  8
0
  6
HIDDEN
 62
     7
370
     0
100
AcDbLine
 10
112.3066046031
 20
101.4297348261
 30
0.0
 11
153.6066070886
 21
101.4297348261
 31
0.0
  0
LINE
  5
1A7
330
1F
100
AcDbEntity
  8
0
  6
HIDDEN
 62
     7
370
     0
100
AcDbLine
 10
153.6066070886
 20
109.929735288
 30
0.0
 11
112.3066046031
 21
109.929735288
 31
0.0
  0
LINE
  5
1A8
330
1F
100
AcDbEntity
  8
0
  6
HIDDEN
 62
     7
370
     0
100
AcDbLine
 10
153.6066070886
 20
101.4297348261
 30
0.0
 11
154.8984558077
 21
103.5797351319
 31
0.0
  0
LINE
  5
1A9
330
1F
100
AcDbEntity
  8
0
  6
HIDDEN
 62
     7
370
     0
100
AcDbLine
 10
154.8984558077
 20
107.7797349821
 30
0.0
 11
153.6066070886
 21
109.929735288
 31
0.0
  0
LINE
  5
1AA
330
1F
100
AcDbEntity
  8
0
  6
HIDDEN
 62
     7
370
     0
100
AcDbLine
 10
85.2566044534
 20
125.6151362136
 30
0.0
 11
85.2566044534
 21
129.38002076
 31
0.0
  0
LINE
  5
1AB
330
1F
100
AcDbEntity
  8
0
  6
HIDDEN
 62
     7
370
     0
100
AcDbLine
 10
77.756604621
 20
128.8580368086
 30
0.0
 11
77.756604621
 21
125.6753573939
 31
0.0
  0
LINE
  5
1AC
330
1F
100
AcDbEntity
  8
0
  6
HIDDEN
 62
     7
370
     0
100
AcDbLine
 10
85.2566044534
 20
81.979371123
 30
0.0
 11
85.2566044534
 21
85.7443339005
 31
0.0
  0
LINE
  5
1AD
330
1F
100
AcDbEntity
  8
0
  6
HIDDEN
 62
     7
370
     0
100
AcDbLine
 10
77.756604621
 20
85.6841127202
 30
0.0
 11
77.756604621
 21
82.501440756
 31
0.0
  0
ARC
  5
1AE
330
1F
100
AcDbEntity
  8
0
  6
HIDDEN
 62
     7
370
     0
100
AcDbCircle
 10
213.9066043826
 20
102.779735057
 30
0.0
 40
0.4000000000000199
100
AcDbArc
 50
180.0
 51
270.0
  0
ARC
  5
1AF
330
1F
100
AcDbEntity
  8
0
  6
HIDDEN
 62
     7
370
     0
100
AcDbCircle
 10
213.9066043826
 20
108.579735057
 30
0.0
 40
0.4000000000000057
100
AcDbArc
 50
90.0
 51
180.0
  0
LINE
  5
1B0
330
1F
100
AcDbEntity
  8
0
  6
HIDDEN
 62
     7
370
     0
100
AcDbLine
 10
213.9066071005
 20
102.3797350749
 30
0.0
 11
216.6118235083
 21
102.3797350749
 31
0.0
  0
LINE
  5
1B1
330
1F
100
AcDbEntity
  8
0
  6
HIDDEN
 62
     7
370
     0
100
AcDbLine
 10
216.6118235083
 20
108.9797350391
 30
0.0
 11
213.9066071005
 21
108.9797350391
 31
0.0
  0
ARC
  5
1B2
330
1F
100
AcDbEntity
  8
0
  6
HIDDEN
 62
     7
370
     0
100
AcDbCircle
 10
250.2066043826
 20
102.379735057
 30
0.0
 40
0.2999999999999972
100
AcDbArc
 50
0.0
 51
90.0
  0
ARC
  5
1B3
330
1F
100
AcDbEntity
  8
0
  6
HIDDEN
 62
     7
370
     0
100
AcDbCircle
 10
250.2066043826
 20
108.979735057
 30
0.0
 40
0.2999999999999972
100
AcDbArc
 50
270.0
 51
0.0
  0
ARC
  5
1B4
330
1F
100
AcDbEntity
  8
0
  6
HIDDEN
 62
     7
370
     0
100
AcDbCircle
 10
216.6118303645
 20
108.579735057
 30
0.0
 40
0.3999999999999915
100
AcDbArc
 50
70.0
 51
90.0
  0
LINE
  5
1B5
330
1F
100
AcDbEntity
  8
0
  6
HIDDEN
 62
     7
370
     0
100
AcDbLine
 10
216.7486310692
 20
102.4038579594
 30
0.0
 11
217.5066084357
 21
102.6797350309
 31
0.0
  0
LINE
  5
1B6
330
1F
100
AcDbEntity
  8
0
  6
HIDDEN
 62
     7
370
     0
100
AcDbLine
 10
217.5066084357
 20
108.6797350831
 30
0.0
 11
216.7486310692
 21
108.9556121546
 31
0.0
  0
LINE
  5
1B7
330
1F
100
AcDbEntity
  8
0
  6
HIDDEN
 62
     7
370
     0
100
AcDbLine
 10
165.9566075297
 20
90.6797353923
 30
0.0
 11
164.9566055031
 21
91.2570855394
 31
0.0
  0
LINE
  5
1B8
330
1F
100
AcDbEntity
  8
0
  6
HIDDEN
 62
     7
370
     0
100
AcDbLine
 10
159.9566028209
 20
91.2570855394
 30
0.0
 11
158.9566007944
 21
90.6797353923
 31
0.0
  0
LINE
  5
1B9
330
1F
100
AcDbEntity
  8
0
  6
HIDDEN
 62
     7
370
     0
100
AcDbLine
 10
158.9566007944
 20
120.6797347217
 30
0.0
 11
159.9566028209
 21
120.1023845747
 31
0.0
  0
LINE
  5
1BA
330
1F
100
AcDbEntity
  8
0
  6
HIDDEN
 62
     7
370
     0
100
AcDbLine
 10
164.9566055031
 20
120.1023845747
 30
0.0
 11
165.9566075297
 21
120.6797347217
 31
0.0
  0
LINE
  5
1BB
330
1F
100
AcDbEntity
  8
0
  6
HIDDEN
 62
     7
370
     0
100
AcDbLine
 10
217.5066084357
 20
102.6797350309
 30
0.0
 11
250.2066106291
 21
102.6797350309
 31
0.0
  0
LINE
  5
1BC
330
1F
100
AcDbEntity
  8
0
  6
HIDDEN
 62
     7
370
     0
100
AcDbLine
 10
250.2066106291
 20
108.6797350831
 30
0.0
 11
217.5066084357
 21
108.6797350831
 31
0.0
  0
LINE
  5
1BD
330
1F
100
AcDbEntity
  8
0
  6
HIDDEN
 62
     7
370
     0
100
AcDbLine
 10
159.9566028209
 20
120.1023845747
 30
0.0
 11
159.9566028209
 21
111.6797351092
 31
0.0
  0
LINE
  5
1BE
330
1F
100
AcDbEntity
  8
0
  6
HIDDEN
 62
     7
370
     0
100
AcDbLine
 10
164.9566055031
 20
111.6797351092
 30
0.0
 11
164.9566055031
 21
120.1023845747
 31
0.0
  0
LINE
  5
1BF
330
1F
100
AcDbEntity
  8
0
  6
HIDDEN
 62
     7
370
     0
100
AcDbLine
 10
159.9566028209
 20
111.6797351092
 30
0.0
 11
162.4566078873
 21
110.1775835082
 31
0.0
  0
LINE
  5
1C0
330
1F
100
AcDbEntity
  8
0
  6
HIDDEN
 62
     7
370
     0
100
AcDbLine
 10
162.4566078873
 20
110.1775835082
 30
0.0
 11
164.9566055031
 21
111.6797351092
 31
0.0
  0
LINE
  5
1C1
330
1F
100
AcDbEntity
  8
0
  6
HIDDEN
 62
     7
370
     0
100
AcDbLine
 10
164.9566055031
 20
91.2570855394
 30
0.0
 11
164.9566055031
 21
99.6797350049
 31
0.0
  0
LINE
  5
1C2
330
1F
100
AcDbEntity
  8
0
  6
HIDDEN
 62
     7
370
     0
100
AcDbLine
 10
159.9566028209
 20
99.6797350049
 30
0.0
 11
159.9566028209
 21
91.2570855394
 31
0.0
  0
LINE
  5
1C3
330
1F
100
AcDbEntity
  8
0
  6
HIDDEN
 62
     7
370
     0
100
AcDbLine
 10
164.9566055031
 20
99.6797350049
 30
0.0
 11
162.4566078873
 21
101.1818866059
 31
0.0
  0
LINE
  5
1C4
330
1F
100
AcDbEntity
  8
0
  6
HIDDEN
 62
     7
370
     0
100
AcDbLine
 10
162.4566078873
 20
101.1818866059
 30
0.0
 11
159.9566028209
 21
99.6797350049
 31
0.0
  0
LINE
  5
1C5
330
1F
100
AcDbEntity
  8
0
  6
HIDDEN
 62
     7
370
     0
100
AcDbLine
 10
154.8984558077
 20
103.5797351319
 30
0.0
 11
213.50660778
 21
103.5797351319
 31
0.0
  0
LINE
  5
1C6
330
1F
100
AcDbEntity
  8
0
  6
HIDDEN
 62
     7
370
     0
100
AcDbLine
 10
213.50660778
 20
107.7797349821
 30
0.0
 11
154.8984558077
 21
107.7797349821
 31
0.0
  0
ARC
  5
1C7
330
1F
100
AcDbEntity
  8
0
  6
HIDDEN
 62
     7
370
     0
100
AcDbCircle
 10
216.6118303645
 20
102.779735057
 30
0.0
 40
0.4000000000000057
100
AcDbArc
 50
270.0
 51
290.0
  0
LINE
  5
1C8
330
1F
100
AcDbEntity
  8
0
  6
HIDDEN
 62
     7
370
     0
100
AcDbLine
 10
217.0065999718
 20
111.5524158626
 30
0.0
 11
217.0065999718
 21
112.0436959713
 31
0.0
  0
LINE
  5
1C9
330
1F
100
AcDbEntity
  8
0
  6
HIDDEN
 62
     7
370
     0
100
AcDbLine
 10
217.0065999718
 20
107.9286609124
 30
0.0
 11
217.0065999718
 21
109.80049612
 31
0.0
  0
LINE
  5
1CA
330
1F
100
AcDbEntity
  8
0
  6
HIDDEN
 62
     7
370
     0
100
AcDbLine
 10
214.0066013427
 20
110.4801441356
 30
0.0
 11
214.0066013427
 21
108.0081667564
 31
0.0
  0
LINE
  5
1CB
330
1F
100
AcDbEntity
  8
0
  6
HIDDEN
 62
     7
370
     0
100
AcDbLine
 10
214.0066013427
 20
112.0436959713
 30
0.0
 11
214.0066013427
 21
111.001946479
 31
0.0
  0
LINE
  5
1CC
330
1F
100
AcDbEntity
  8
0
  6
HIDDEN
 62
     7
370
     0
100
AcDbLine
 10
216.7175919505
 20
109.4338530488
 30
0.0
 11
250.5066008063
 21
108.4951166808
 31
0.0
  0
LINE
  5
1CD
330
1F
100
AcDbEntity
  8
0
  6
HIDDEN
 62
     7
370
     0
100
AcDbLine
 10
250.5066008063
 20
110.9960814751
 30
0.0
 11
216.7151928635
 21
111.9348844327
 31
0.0
  0
LINE
  5
1CE
330
1F
100
AcDbEntity
  8
0
  6
HIDDEN
 62
     7
370
     0
100
AcDbLine
 10
214.03505511
 20
111.1593111232
 30
0.0
 11
213.7838587852
 21
110.7658413052
 31
0.0
  0
LINE
  5
1CF
330
1F
100
AcDbEntity
  8
0
  6
HIDDEN
 62
     7
370
     0
100
AcDbLine
 10
213.7838587852
 20
110.7658413052
 30
0.0
 11
214.0332595201
 21
110.3227250091
 31
0.0
  0
DIMENSION
  5
1D0
330
1F
100
AcDbEntity
  8
VERMASSUNG
100
AcDbDimension
  2
*D1
 10
50.7742170541
 20
74.179735057
 30
0.0
 11
50.7742170541
 21
103.6521181172
 31
0.0
 70
   160
  1
HSK A %%c<>
 71
     2
 42
-1.0
  3
SLDDIMSTYLE0
100
AcDbAlignedDimension
 13
90.8066043826
 23
137.179735057
 33
0.0
 14
90.8066043826
 24
74.179735057
 34
0.0
 50
90.0
100
AcDbRotatedDimension
  0
DIMENSION
  5
1DD
330
1F
100
AcDbEntity
  8
VERMASSUNG
100
AcDbDimension
  2
*D2
 10
256.0366418314
 20
102.679735057
 30
0.0
 11
256.0366418314
 21
105.679735057
 31
0.0
 70
   160
  1
%%c<>
 71
     2
 42
-1.0
  3
SLDDIMSTYLE1
100
AcDbAlignedDimension
 13
250.2066043826
 23
108.679735057
 33
0.0
 14
250.2066043826
 24
102.679735057
 34
0.0
 50
90.0
100
AcDbRotatedDimension
  0
DIMENSION
  5
1EB
330
1F
100
AcDbEntity
  8
VERMASSUNG
100
AcDbDimension
  2
*D3
 10
116.4566043826
 20
142.9433369447
 30
0.0
 11
183.4816043826
 21
142.9433369447
 31
0.0
 70
   160
 71
     2
 42
-1.0
  3
SLDDIMSTYLE0
100
AcDbAlignedDimension
 13
250.5066043826
 23
112.9055945354
 33
0.0
 14
116.4566043826
 24
135.5261753808
 34
0.0
100
AcDbRotatedDimension
  0
DIMENSION
  5
1F5
330
1F
100
AcDbEntity
  8
VERMASSUNG
100
AcDbDimension
  2
*D4
 10
250.5066043826
 20
148.9433369447
 30
0.0
 11
170.5066043826
 21
148.9433369447
 31
0.0
 70
   160
 71
     2
 42
-1.0
  3
SLDDIMSTYLE0
100
AcDbAlignedDimension
 13
90.5066043826
 23
136.879735057
 33
0.0
 14
250.5066043826
 24
112.9055945354
 34
0.0
100
AcDbRotatedDimension
  0
DIMENSION
  5
1FF
330
1F
100
AcDbEntity
  8
VERMASSUNG
100
AcDbDimension
  2
*D5
 10
58.6066043826
 20
154.9433369447
 30
0.0
 11
154.5566043826
 21
154.9433369447
 31
0.0
 70
   160
 71
     2
 42
-1.0
  3
SLDDIMSTYLE0
100
AcDbAlignedDimension
 13
250.5066043826
 23
112.9055945354
 33
0.0
 14
58.6066043826
 24
125.3704128035
 34
0.0
100
AcDbRotatedDimension
  0
DIMENSION
  5
209
330
1F
100
AcDbEntity
  8
VERMASSUNG
100
AcDbDimension
  2
*D6
 10
262.0366418314
 20
90.679735057
 30
0.0
 11
262.0366418314
 21
105.679735057
 31
0.0
 70
   160
  1
%%c<>
 71
     2
 42
-1.0
  3
SLDDIMSTYLE0
100
AcDbAlignedDimension
 13
236.5673093993
 23
120.679735057
 33
0.0
 14
236.5673093993
 24
90.679735057
 34
0.0
 50
90.0
100
AcDbRotatedDimension
  0
LINE
  5
214
330
1F
100
AcDbEntity
  8
VERMASSUNG
  6
CENTERX2
370
     0
100
AcDbLine
 10
55.4035157681
 20
105.679735057
 30
0.0
 11
251.7341766565
 21
105.679735057
 31
0.0
  0
OLE2FRAME
  5
215
330
1F
100
AcDbEntity
  8
0
100
AcDbOle2Frame
 70
     2
  3
Bitmap Image
 10
13.8511154363
 20
38.264191557
 30
0.0
 11
51.6290888628
 21
31.9806341108
 31
0.0
 71
     2
 72
     0
 73
     1
 90
    12928
310
80552BED0767C5B32B40DDAF6807D121434000000000000000006FFBDDFB85D0
310
4940DDAF6807D121434000000000000000006FFBDDFB85D04940416F4BD60AFB
310
3F4000000000000000002BED0767C5B32B40416F4BD60AFB3F40000000000000
310
0000000000000100000000010000010000000100000000000100000000320000
310
D0CF11E0A1B11AE1000000000000000000000000000000003E000300FEFF0900
310
0600000000000000000000000100000001000000000000000010000002000000
310
01000000FEFFFFFF0000000000000000FFFFFFFFFFFFFFFFFFFFFFFFFFFFFFFF
310
FFFFFFFFFFFFFFFFFFFFFFFFFFFFFFFFFFFFFFFFFFFFFFFFFFFFFFFFFFFFFFFF
310
FFFFFFFFFFFFFFFFFFFFFFFFFFFFFFFFFFFFFFFFFFFFFFFFFFFFFFFFFFFFFFFF
310
FFFFFFFFFFFFFFFFFFFFFFFFFFFFFFFFFFFFFFFFFFFFFFFFFFFFFFFFFFFFFFFF
310
FFFFFFFFFFFFFFFFFFFFFFFFFFFFFFFFFFFFFFFFFFFFFFFFFFFFFFFFFFFFFFFF
310
FFFFFFFFFFFFFFFFFFFFFFFFFFFFFFFFFFFFFFFFFFFFFFFFFFFFFFFFFFFFFFFF
310
FFFFFFFFFFFFFFFFFFFFFFFFFFFFFFFFFFFFFFFFFFFFFFFFFFFFFFFFFFFFFFFF
310
FFFFFFFFFFFFFFFFFFFFFFFFFFFFFFFFFFFFFFFFFFFFFFFFFFFFFFFFFFFFFFFF
310
FFFFFFFFFFFFFFFFFFFFFFFFFFFFFFFFFFFFFFFFFFFFFFFFFFFFFFFFFFFFFFFF
310
FFFFFFFFFFFFFFFFFFFFFFFFFFFFFFFFFFFFFFFFFFFFFFFFFFFFFFFFFFFFFFFF
310
FFFFFFFFFFFFFFFFFFFFFFFFFFFFFFFFFFFFFFFFFFFFFFFFFFFFFFFFFFFFFFFF
310
FFFFFFFFFFFFFFFFFFFFFFFFFFFFFFFFFFFFFFFFFFFFFFFFFFFFFFFFFFFFFFFF
310
FFFFFFFFFFFFFFFFFFFFFFFFFFFFFFFFFFFFFFFFFFFFFFFFFFFFFFFFFFFFFFFF
310
FFFFFFFFFFFFFFFFFFFFFFFFFFFFFFFFFFFFFFFFFFFFFFFFFFFFFFFFFFFFFFFF
310
FDFFFFFFFEFFFFFFFEFFFFFFFEFFFFFF05000000060000000700000008000000
310
090000000A0000000B0000000C0000000D0000000E0000000F00000010000000
310
11000000120000001300000014000000150000001600000017000000FEFFFFFF
310
FFFFFFFFFFFFFFFFFFFFFFFFFFFFFFFFFFFFFFFFFFFFFFFFFFFFFFFFFFFFFFFF
310
FFFFFFFFFFFFFFFFFFFFFFFFFFFFFFFFFFFFFFFFFFFFFFFFFFFFFFFFFFFFFFFF
310
FFFFFFFFFFFFFFFFFFFFFFFFFFFFFFFFFFFFFFFFFFFFFFFFFFFFFFFFFFFFFFFF
310
FFFFFFFFFFFFFFFFFFFFFFFFFFFFFFFFFFFFFFFFFFFFFFFFFFFFFFFFFFFFFFFF
310
FFFFFFFFFFFFFFFFFFFFFFFFFFFFFFFFFFFFFFFFFFFFFFFFFFFFFFFFFFFFFFFF
310
FFFFFFFFFFFFFFFFFFFFFFFFFFFFFFFFFFFFFFFFFFFFFFFFFFFFFFFFFFFFFFFF
310
FFFFFFFFFFFFFFFFFFFFFFFFFFFFFFFFFFFFFFFFFFFFFFFFFFFFFFFFFFFFFFFF
310
FFFFFFFFFFFFFFFFFFFFFFFFFFFFFFFFFFFFFFFFFFFFFFFFFFFFFFFFFFFFFFFF
310
FFFFFFFFFFFFFFFFFFFFFFFFFFFFFFFFFFFFFFFFFFFFFFFFFFFFFFFFFFFFFFFF
310
FFFFFFFFFFFFFFFFFFFFFFFFFFFFFFFFFFFFFFFFFFFFFFFFFFFFFFFFFFFFFFFF
310
FFFFFFFFFFFFFFFFFFFFFFFFFFFFFFFFFFFFFFFFFFFFFFFFFFFFFFFFFFFFFFFF
310
FFFFFFFFFFFFFFFFFFFFFFFFFFFFFFFFFFFFFFFFFFFFFFFFFFFFFFFFFFFFFFFF
310
FFFFFFFFFFFFFFFFFFFFFFFFFFFFFFFFFFFFFFFFFFFFFFFFFFFFFFFFFFFFFFFF
310
52006F006F007400200045006E00740072007900000000000000000000000000
310
0000000000000000000000000000000000000000000000000000000000000000
310
16000500FFFFFFFFFFFFFFFF020000000A00030000000000C000000000000046
310
00000000000000000000000070217770FFFFCB0103000000C000000000000000
310
01004F006C006500000000000000000000000000000000000000000000000000
310
0000000000000000000000000000000000000000000000000000000000000000
310
0A000200FFFFFFFFFFFFFFFFFFFFFFFF00000000000000000000000000000000
310
0000000000000000000000000000000000000000000000001400000000000000
310
010043006F006D0070004F0062006A0000000000000000000000000000000000
310
0000000000000000000000000000000000000000000000000000000000000000
310
120002010100000003000000FFFFFFFF00000000000000000000000000000000
310
0000000000000000000000000000000000000000010000004D00000000000000
310
01004F006C006500310030004E00610074006900760065000000000000000000
310
0000000000000000000000000000000000000000000000000000000000000000
310
1A000200FFFFFFFFFFFFFFFFFFFFFFFF00000000000000000000000000000000
310
0000000000000000000000000000000000000000040000002426000000000000
310
FEFFFFFF02000000FEFFFFFFFFFFFFFFFFFFFFFFFFFFFFFFFFFFFFFFFFFFFFFF
310
FFFFFFFFFFFFFFFFFFFFFFFFFFFFFFFFFFFFFFFFFFFFFFFFFFFFFFFFFFFFFFFF
310
FFFFFFFFFFFFFFFFFFFFFFFFFFFFFFFFFFFFFFFFFFFFFFFFFFFFFFFFFFFFFFFF
310
FFFFFFFFFFFFFFFFFFFFFFFFFFFFFFFFFFFFFFFFFFFFFFFFFFFFFFFFFFFFFFFF
310
FFFFFFFFFFFFFFFFFFFFFFFFFFFFFFFFFFFFFFFFFFFFFFFFFFFFFFFFFFFFFFFF
310
FFFFFFFFFFFFFFFFFFFFFFFFFFFFFFFFFFFFFFFFFFFFFFFFFFFFFFFFFFFFFFFF
310
FFFFFFFFFFFFFFFFFFFFFFFFFFFFFFFFFFFFFFFFFFFFFFFFFFFFFFFFFFFFFFFF
310
FFFFFFFFFFFFFFFFFFFFFFFFFFFFFFFFFFFFFFFFFFFFFFFFFFFFFFFFFFFFFFFF
310
FFFFFFFFFFFFFFFFFFFFFFFFFFFFFFFFFFFFFFFFFFFFFFFFFFFFFFFFFFFFFFFF
310
FFFFFFFFFFFFFFFFFFFFFFFFFFFFFFFFFFFFFFFFFFFFFFFFFFFFFFFFFFFFFFFF
310
FFFFFFFFFFFFFFFFFFFFFFFFFFFFFFFFFFFFFFFFFFFFFFFFFFFFFFFFFFFFFFFF
310
FFFFFFFFFFFFFFFFFFFFFFFFFFFFFFFFFFFFFFFFFFFFFFFFFFFFFFFFFFFFFFFF
310
FFFFFFFFFFFFFFFFFFFFFFFFFFFFFFFFFFFFFFFFFFFFFFFFFFFFFFFFFFFFFFFF
310
FFFFFFFFFFFFFFFFFFFFFFFFFFFFFFFFFFFFFFFFFFFFFFFFFFFFFFFFFFFFFFFF
310
FFFFFFFFFFFFFFFFFFFFFFFFFFFFFFFFFFFFFFFFFFFFFFFFFFFFFFFFFFFFFFFF
310
FFFFFFFFFFFFFFFFFFFFFFFFFFFFFFFFFFFFFFFFFFFFFFFFFFFFFFFFFFFFFFFF
310
010000020000000000000000000000000000000061007200650064005C003100
310
30002E0030005C0044004C004C005300680061007200650064005C003B004300
310
0100FEFF030A0000FFFFFFFF0A00030000000000C00000000000004607000000
310
5042727573680007000000504272757368000700000050427275736800F439B2
310
71000000000000000000000000004100540049002E004100430045005C004300
310
6F00720065002D005300740061007400690063003B0043003A005C0050007200
310
6F006700720061006D002000460069006C006500730020002800780038003600
310
29005C0043006F006D006D006F006E002000460069006C00650073005C004100
310
750074006F006400650073006B0020005300680061007200650064005C003B00
310
43003A005C00500072006F006700720061006D002000460069006C0065007300
310
5C004E006F0072006D0061006E005C004E0070006D005C00420069006E000000
310
43003A005C00500072006F006700720061006D002000460069006C0065007300
310
5C0053006F006C006900640057006F0072006B007300200043006F0072007000
310
5C0053006F006C006900640057006F0072006B00730020002800320029005C00
310
730065007400750070005C0069003300380036005C0073007700610063007400
310
770069007A002E006500780065000000220043003A005C00500072006F006700
310
20260000424D0E260000000000003E00000028000000B40200006E0000000100
310
01000000000000000000130B0000130B00000200000002000000000000FFFFFF
310
FFFFFFFFFFFFFFFFFFFFFFFFFFFFFFFFFFFFFFFFFFFFFFFFFFFFFFFFFFFFFFFF
310
FFFFFFFFFFFFFFFFFFFFFFFFFFFFFFFFFFFFFFFFFFFFFFFFFFFFFFFFFFFFFFFF
310
FFFFFFFFFFFFFFFFFFFFFFFFFFFFFFFFFFFFFFFFFFFFFFFFF000FFFFFFFFFFFF
310
FFFFFFFFFFFFFFFFFFFFFFFFFFFFFFFFFFFFFFFFFFFFFFFFFFFFFFFFFFFFFFFF
310
FFFFFFFFFFFFFFFFFFFFFFFFFFFFFFFFFFFFFFFFFFFFFFFFFFFFFFFFFFFFFFFF
310
FFFFFFFFFFFFFFFFFFFFFFFFFFFFFFFFF000FFFFFFFFFFFFFFFFFFFFFFFFFFFF
310
FFFFFFFFFFFFFFFFFFFFFFFFFFFFFFFFFFFFFFFFFFFFFFFFFFFFFFFFFFFFFFFF
310
FFFFFFFFFFFFFFFFFFFFFFFFFFFFFFFFFFFFFFFFFFFFFFFFFFFFFFFFFFFFFFFF
310
FFFFFFFFFFFFFFFFF000FFFFFFFFFFFFFFFFFFFFFFFFFFFFFFFFFFFFFFFFFFFF
310
FFFFFFFFFFFFFFFFFFFFFFFFFFFFFFFFFFFFFFFFFFFFFFFFFFFFFFFFFFFFFFFF
310
FFFFFFFFFFFFFFFFFFFFFFFFFFFFFFFFFFFFFFFFFFFFFFFFFFFFFFFFFFFFFFFF
310
F000FFFFFFFFFFFFFFFFFFFFFFFFFFFFFFFFFFFFFFFFFFFFFFFFFFFFFFFFFFFF
310
FFFFFFFFFFFFFFFFFFFFFFFFFFFFFFFFFFFFFFFFFFFFFFFFFFFFFFFFFFFFFFFF
310
FFFFFFFFFFFFFFFFFFFFFFFFFFFFFFFFFFFFFFFFFFFFFFFFF000FFFFFFFFFFFF
310
FFFFFFFFFFFFFFFFFFFFFFFFFFFFFFFFFFFFFFFFFFFFFFFFFFFFFFFFFFFFFFFF
310
FFFFFFFFFFFFFFFFFFFFFFFFFFFFFFFFFFFFFFFFFFFFFFFFFFFFFFFFFFFFFFFF
310
FFFFFFFFFFFFFFFFFFFFFFFFFFFFFFFFF000FFFFFFFFFFFFFFFFFFFFFFFFFFFF
310
FFFFFFFFFFFFFFFFFFFFFFFFFFFFFFFFFFFFFFFFFFFFFFFFFFFFFFFFFFFFFFFF
310
FFFFFFFFFFFFFFFFFFFFFFFFFFFFFFFFFFFFFFFFFFFFFFFFFFFFFFFFFFFFFFFF
310
FFFFFFFFFFFFFFFFF000FFFFFFFFFFFFFFFFFFFFFFFFFFFFFFFFFFFFFFFFFFFF
310
FFFFFFFFFFFFFFFFFFFFFFFFFFFFFFFFFFFFFFFFFFFFFFFFFFFFFFFFFFFFFFFF
310
FFFFFFFFFFFFFFFFFFFFFFFFFFFFFFFFFFFFFFFFFFFFFFFFFFFFFFFFFFFFFFFF
310
F000FFFFFFFFFFFFFFFFFFFFFFFFFFFFFFFFFFFFFFFFFFFFFFFFFFFFFFFFFFFF
310
FFFFFFFFFFFFFFFFFFFFFFFFFFFFFFFFFFFFFFFFFFFFFFFFFFFFFFFFFFFFFFFF
310
FFFFFFFFFFFFFFFFFFFFFFFFFFFFFFFFFFFFFFFFFFFFFFFFF000FFFFFFFFFFFF
310
FFFFFFFFFFFFFFFFFFFFFFFFFFFFFFFFFFFFFFFFFFFFFFFFFFFFFFFFFFFFFFFF
310
FFFFFFFFFFFFFFFFFFFFFFFFFFFFFFFFFFFFFFFFFFFFFFFFFFFFFFFFFFFFFFFF
310
FFFFFFFFFFFFFFFFFFFFFFFFFFFFFFFFF000FFFFFFFFFFFFFFFFFFFFFFFFFFFF
310
FFFFFFFFFFFFFFFFFFFFFFFFFFFFFFFFFFFFFFFFFFFFFFFFFFFFFFFFFFFFFFFF
310
FFFFFFFFFFFFFFFFFFFFFFFFFFFFFFFFFFFFFFFFFFFFFFFFFFFFFFFFFFFFFFFF
310
FFFFFFFFFFFFFFFFF000FFFFFFFFFFFFFFFFFFFFFFFFFFFFFFFFFFFFFFFFFFFF
310
FFFFFFFFFFFFFFFFFFFFFFFFFFFFFFFFFFFFFFFFFFFFFFFFFFFFFFFFFFFFFFFF
310
FFFFFFFFFFFFFFFFFFFFFFFFFFFFFFFFFFFFFFFFFFFFFFFFFFFFFFFFFFFFFFFF
310
F000FFFFFFFFFFFFFFFFFFFFFFFFFFFFFFFFFFFFFFFFFFFFFFFFFFFFFFFFFFFF
310
FFFFFFFFFFFFFFFFFFFFFFFFFFFFFFFFFFFFFFFFFFFFFFFFFFFFFFFFFFFFFFFF
310
FFFFFFFFFFFFFFFFFFFFFFFFFFFFFFFFFFFFFFFFFFFFFFFFF000FFFFFFFFFFFF
310
FFFFFFFFFFFFFFFFFFFFFFFFFFFFFFFFFFFFFFFFFFFFFFFFFFFFFFFFFFFFFFFF
310
FFFFFFFFFFFFFFFFFFFFFFFFFFFFFFFFFFFFFFFFFFFFFFFFFFFFFFFFFFFFFFFF
310
FFFFFFFFFFFFFFFFFFFFFFFFFFFFFFFFF000FFFFFFFFFFFFFFFFFFFFFFFFFFFF
310
FFFFFFFFFFFFFFFFFFFFFFFFFFFFFFFFFFFFFFFFFFFFFFFFFFFFFFFFFFFFFFFF
310
FFFFFFFFFFFFFFFFFFFFFFFFFFFFFFFFFFFFFFFFFFFFFFFFFFFFFFFFFFFFFFFF
310
FFFFFFFFFFFFFFFFF000FFFFFFFFFFFFFFFFFFFFFFFFFFFFFFFFFFFFFFFFFFFF
310
FFFFFFFFFFFFFFFFFFFFFFFFFFFFFFFFFFFFFFFFFFFFFFFFFFFFFFFFFFFFFFFF
310
FFFFFFFFFFFFFFFFFFFFFFFFFFFFFFFFFFFFFFFFFFFFFFFFFFFFFFFFFFFFFFFF
310
F000FFFFFFFFFFFFFFFFFFFFFFFFFFFFFFFFFFFFFFFFFFFFFFFFFFFFFFFFFFFF
310
FFFFFFFFFFFFFFFFFFFFFFFFFFFFFFFFFFFFFFFFFFFFFFFFFFFFFFFFFFFFFFFF
310
FFFFFFFFFFFFFFFFFFFFFFFFFFFFFFFFFFFFFFFFFFFFFFFFF000FFFFFFFFFFFF
310
FFFFFFFFFFFFFFFFFFFFFFFFFFFFFFFFFFFFFFFFFFFFFFFFFFFFFFFFFFFFFFFF
310
FFFFFFFFFFFFFFFFFFFFFFFFFFFFFFFFFFFFFFFFFFFFFFFFFFFFFFFFFFFFFFFF
310
FFFFFFFFFFFFFFFFFFFFFFFFFFFFFFFFF000FFFFFFFFFFFFFFFFFFFFFFFFFFFF
310
FFFFFFFFFFFFFFFFFFFFFFFFFFFFFFFFFFFFFFFFFFFFFFFFFFFFFFFFFFFFFFFF
310
FFFFFFFFFFFFFFFFFFFFFFFFFFFFFFFFFFFFFFFFFFFFFFFFFFFFFFFFFFFFFFFF
310
FFFFFFFFFFFFFFFFF000FFFFF80003FFFFFFFFFFFFFFFFFFFFFFFFFFFFFFFFFF
310
FFFFF00007FFFFFFFFFF00007FFFFFF800000000000000007FFFFFFFFFFFFFFF
310
FFFFFFFC001FFFFFFFFFFFFFFC001FFFFFFFFFFFFFFFFFFFFFFFFFFE0007FFFF
310
F000FFFF8000007FFFFFFFF8000FFFFFC0007FFFFF80007FFFFF0000007FFFFF
310
FFF8000007FFFFF800000000000000007FFFFFF0001FFFFFFFFFFFC00001FFFF
310
FFFFFFFFC00001FFFFFFFF000000000003FFFFE000007FFFF000FFFE0000000F
310
FFFFFFF0000FFFFF80007FFFFF80007FFFFC0000001FFFFFFFC0000001FFFFF8
310
00000000000000007FFFFFF0001FFFFFFFFFFE0000003FFFFFFFFFFE0000003F
310
FFFFFF000000000003FFFF0000000FFFF000FFF800000003FFFFFFF00007FFFF
310
80007FFFFF80007FFFF000000007FFFFFF000000003FFFF80000000000000000
310
7FFFFFF0001FFFFFFFFFF80000000FFFFFFFFFF80000000FFFFFFF0000000000
310
03FFFC00000003FFF000FFE000000000FFFFFFF00007FFFF80003FFFFF80007F
310
FFC000000001FFFFFC000000001FFFF800000000000000007FFFFFF0001FFFFF
310
FFFFE000000003FFFFFFFFE000000003FFFFFF000000000003FFF000000000FF
310
F000FF80000000007FFFFFF00007FFFF80003FFFFF80007FFF8000000000FFFF
310
F80000000007FFF800000000000000007FFFFFF0001FFFFFFFFFC000000001FF
310
FFFFFFC000000001FFFFFF000000000003FFC0000000007FF000FF0000000000
310
3FFFFFE00007FFFF00003FFFFF80007FFE00000000003FFFF00000000003FFF8
310
00000000000000007FFFFFF0001FFFFFFFFF8000000000FFFFFFFF8000000000
310
FFFFFF000000000003FF80000000003FF000FE00000000001FFFFFE00003FFFF
310
00003FFFFF80007FFC00000000001FFFE00000000001FFF8000001FFFE000000
310
7FFFFFF0001FFFFFFFFE00000000003FFFFFFE00000000003FFFFF0000000000
310
03FF00000000001FF000FC00000000000FFFFFE00003FFFF00001FFFFF80007F
310
F800000000001FFFC00000000000FFF8000001FFFE0000007FFFFFF0001FFFFF
310
FFFC00000000001FFFFFFC00000000001FFFFF000000000003FE00000000000F
310
F000F8000000000007FFFFE00003FFFF00001FFFFF80007FF800000000000FFF
310
800000000000FFF8000001FFFE0000007FFFFFF0001FFFFFFFF800000000000F
310
FFFFF800000000000FFFFF000000000003FC000000000007F000F80000000000
310
03FFFFC00003FFFE00001FFFFF80007FF0000000000007FF0000000000007FF8
310
000001FFFE0000007FFFFFF0001FFFFFFFF0000000000007FFFFF00000000000
310
07FFFF000000000003F8000000000003F000F0000000000003FFFFC00001FFFE
310
00001FFFFF80007FE0000000000007FE0000000000003FF8000001FFFE000000
310
7FFFFFF0001FFFFFFFF0000000000007FFFFF0000000000007FFFF0000000000
310
03F800001F800003F000E00001FFF00001FFFFC00001FFFE00000FFFFF80007F
310
E00001FFE00003FE00001FFF00003FF8000001FFFE0000007FFFFFF0001FFFFF
310
FFE000003E000003FFFFE000003E000003FFFF000000000003F00001FFF80001
310
F000E00007FFFC0001FFFFC00001FFFE00000FFFFF80007FC0000FFFFC0003FC
310
0000FFFFC0001FF8000001FFFE0000007FFFFFF0001FFFFFFFC00003FFE00001
310
FFFFC00003FFE00001FFFF0001FFFFFFFFF00007FFFE0001F000E0000FFFFF00
310
00FFFF800001FFFC00000FFFFF80007FC0001FFFFE0001FC0001FFFFE0001FF8
310
000001FFFE0000007FFFFFF0001FFFFFFF80000FFFF80000FFFF80000FFFF800
310
00FFFF0003FFFFFFFFE0000FFFFF8000F000C0003FFFFF8000FFFF800000FFFC
310
000007FFFF80007F80003FFFFF0001FC0003FFFFF0001FF8000001FFFE000000
310
7FFFFFF0001FFFFFFF80003FFFFE0000FFFF80003FFFFE0000FFFF0003FFFFFF
310
FFE0003FFFFF8000F000C0003FFFFF8000FFFF800000FFFC000007FFFF80007F
310
80007FFFFF8001F80007FFFFF8000FF8000001FFFE0000007FFFFFF0001FFFFF
310
FF00007FFFFF00007FFF00007FFFFF00007FFF0003FFFFFFFFE0003FFFFFC000
310
F000C0007FFFFFC000FFFF000000FFFC000007FFFF80007F8000FFFFFF8000F8
310
000FFFFFF8000FF8000001FFFE0000007FFFFFF0001FFFFFFF0000FFFFFF8000
310
7FFF0000FFFFFF80007FFF0003FFFFFFFFC0007FFFFFC00070008000FFFFFFC0
310
00FFFF000000FFF8000007FFFF80007F8000FFFFFF8000F8000FFFFFF8000FF8
310
000001FFFE0000007FFFFFF0001FFFFFFE0001FFFFFFC0003FFE0001FFFFFFC0
310
003FFF0003FFFFFFFFC0007FFFFFE00070008000FFFFFFC0007FFF0000007FF8
310
000003FFFF80007F0001FFFFFF8000F8000FFFFFF8000FF8000001FFFE000000
310
7FFFFFF0001FFFFFFE0001FFFFFFC0003FFE0001FFFFFFC0003FFF0003FFFFFF
310
FFC000FFFFFFE00070008000FFFFFFC0007FFF0000007FF8000003FFFF80007F
310
0001FFFFFF8000F8001FFFFFF8000FF8000001FFFE0000007FFFFFF0001FFFFF
310
FE0003FFFFFFE0003FFE0003FFFFFFE0003FFF0003FFFFFFFFC000FFFFFFE000
310
70008000FFFFFFC0007FFE0000007FF8000003FFFF80007F0001FFFFFF8000F0
310
001FFFFFF8000FF8000001FFFE0000007FFFFFF0001FFFFFFC0003FFFFFFE000
310
1FFC0003FFFFFFE0001FFF0003FFFFFFFFC000FFFFFFC00070008000FFFFFF80
310
007FFE0000007FF0000003FFFF80007F0001FFFFFF0000F0001FFFFFF8000FF8
310
000001FFFE0000007FFFFFF0001FFFFFFC0007FFFFFFF0001FFC0007FFFFFFF0
310
001FFF0003FFFFFFFFC000FFFFFFC00070008001FFFFFF0000FFFE0000003FF0
310
000001FFFF80007F0001FFFFFF0000F8001FFFFFF0000FF8000001FFFE000000
310
7FFFFFF0001FFFFFFC0007FFFFFFF0001FFC0007FFFFFFF0001FFF0003FFFFFF
310
FFC001FFFFFF80007000FFFFFFFFFE0000FFFE0008003FF0008001FFFF80007F
310
FFFFFFFFFC0000FFFFFFFFFFE0000FF8000001FFFE0000007FFFFFF0001FFFFF
310
F8000FFFFFFFF8000FF8000FFFFFFFF8000FFF0003FFFFFFFFFFFFFFFFFF0000
310
7000FFFFFFFFFC0000FFFC0008003FF0008001FFFF80007FFFFFFFFFF80001FF
310
FFFFFFFF80000FF8000001FFFE0000007FFFFFF0001FFFFFF8000FFFFFFFF800
310
0FF8000FFFFFFFF8000FFF0003FFFFFFFFFFFFFFFFFE0000F000FFFFFFFFE000
310
00FFFC000C003FE000C001FFFF80007FFFFFFFFFC00001FFFFFFFFFE00001FF8
310
000001FFFE0000007FFFFFF0001FFFFFF8000FFFFFFFF8000FF8000FFFFFFFF8
310
000FFF0003FFFFFFFFFFFFFFFFF00000F000FFFFFFFE000001FFFC000C001FE0
310
00C000FFFF80007FFFFFFFFE000001FFFFFFFFE000001FF80FFFFFFFFFFFFFC0
310
7FFFFFF0001FFFFFF8000FFFFFFFF8000FF8000FFFFFFFF8000FFF0003FFFFFF
310
FFFFFFFFFF800000F000FFFFFFC0000001FFFC001C001FE001C000FFFF80007F
310
FFFFFF80000003FFFFFFF80000001FF80FFFFFFFFFFFFFC07FFFFFF0001FFFFF
310
F8001FFFFFFFFC000FF8001FFFFFFFFC000FFF0003FFFFFFFFFFFFFFF0000001
310
F000FFFFF800000001FFF8001C001FE001C000FFFF80007FFFFFF800000003FF
310
FFFF800000003FF80FFFFFFFFFFFFFC07FFFFFF0001FFFFFF8001FFFFFFFFC00
310
0FF8001FFFFFFFFC000FFF0003FFFFFFFFFFFFFE00000001F000FFFFC0000000
310
03FFF8001E001FC001E000FFFF80007FFFFF8000000007FFFFFC000000003FF8
310
0FFFFFFFFFFFFFC07FFFFFF0001FFFFFF8001FFFFFFFFC000FF8001FFFFFFFFC
310
000FFF0003FFFFFFFFFFFFE000000003F000FFFE0000000007FFF8001E000FC0
310
01E0007FFF80007FFFFE0000000007FFFFE0000000007FF80FFFFFFFFFFFFFC0
310
7FFFFFF0001FFFFFF0001FFFFFFFFC0007F0001FFFFFFFFC0007FF0003FFFFFF
310
FFFFFF0000000003F000FFF80000000007FFF8001E000FC003E0007FFF80007F
310
FFF0000000000FFFFF8000000000FFF80FFFFFFFFFFFFFC07FFFFFF0001FFFFF
310
F0001FFFFFFFFC0007F0001FFFFFFFFC0007FF0003FFFFFFFFFFFC0000000007
310
F000FFE0000000000FFFF0003E000FC003E0007FFF80007FFFC0000000001FFF
310
FE0000000001FFF80FFFFFFFFFFFFFC07FFFFFF0001FFFFFF0001FFFFFFFFC00
310
07F0001FFFFFFFFC0007FF0003FFFFFFFFFFF0000000000FF000FFC000000000
310
1FFFF0003F000F8003F0003FFF80007FFF80000000003FFFF80000000003FFF8
310
0FFFFFFFFFFFFFC07FFFFFF0001FFFFFF0001FFFFFFFFC0007F0001FFFFFFFFC
310
0007FF0003FFFFFFFFFFE0000000001FF000FF00000000007FFFF0003F000780
310
03F0003FFF80007FFF00000000007FFFF00000000007FFF80FFFFFFFFFFFFFC0
310
7FFFFFF0001FFFFFF0001FFFFFFFFC0007F0001FFFFFFFFC0007FF0003FFFFFF
310
FFFF80000000007FF000FE0000000000FFFFE0003F00078007F0003FFF80007F
310
FE0000000001FFFFE0000000001FFFF80FFFFFFFFFFFFFC07FFFFFF0001FFFFF
310
F0001FFFFFFFFC0007F0001FFFFFFFFC0007FF0003FFFFFFFFFF0000000000FF
310
F000FC0000000003FFFFE0007F00078007F0003FFF80007FFC0000000007FFFF
310
C0000000007FFFF80FFFFFFFFFFFFFC07FFFFFF0001FFFFFF8001FFFFFFFFC00
310
0FF8001FFFFFFFFC000FFF0003FFFFFFFFFE0000000003FFF000FC000000000F
310
FFFFE0007F80070007F8001FFF80007FF8000000001FFFFF8000000001FFFFF8
310
0FFFFFFFFFFFFFC07FFFFFF0001FFFFFF8001FFFFFFFFC000FF8001FFFFFFFFC
310
000FFF0003FFFFFFFFFC000000000FFFF000F8000000007FFFFFE0007F800700
310
07F8001FFF80007FF000000000FFFFFF800000000FFFFFF80FFFFFFFFFFFFFC0
310
7FFFFFF0001FFFFFF8000FFFFFFFF8000FF8000FFFFFFFF8000FFF0003FFFFFF
310
FFFC000000007FFFF000F800000007FFFFFFC0007F8003000FF8001FFF80007F
310
F000000007FFFFFF000000007FFFFFF80FFFFFFFFFFFFFC07FFFFFF0001FFFFF
310
F8000FFFFFFFF8000FF8000FFFFFFFF8000FFF0003FFFFFFFFF80000000FFFFF
310
F000F0000000FFFFFFFFC000FF8003000FF8001FFF80007FE0000000FFFFFFFF
310
0000000FFFFFFFF8000001FFFE0000007FFFFFF0001FFFFFF8000FFFFFFFF800
310
0FF8000FFFFFFFF8000FFF0003FFFFFFFFF8000000FFFFFFF000F000000FFFFF
310
FFFFC000FFC002000FF8000FFF80007FE000001FFFFFFFFE000001FFFFFFFFF8
310
000001FFFE0000007FFFFFF0001FFFFFF8000FFFFFFFF8000FF8000FFFFFFFF8
310
000FFF0003FFFFFFFFF000001FFFFFFFF000E00000FFFFFFFFFFC000FFC00200
310
0FFC000FFF80007FE00001FFFFFFFFFE00001FFFFFFFFFF8000001FFFE000000
310
7FFFFFF0001FFFFFFC000FFFFFFFF8001FFC000FFFFFFFF8001FFF0003FFFFFF
310
FFF00001FFFFFFFFF000E00007FFFFFFFFFF8000FFC000001FFC000FFF80007F
310
C0000FFFFFFFFFFE0000FFFFFFFFFFF8000001FFFE0000007FFFFFF0001FFFFF
310
FC0007FFFFFFF0001FFC0007FFFFFFF0001FFF0003FFFFFFFFF00007FFFFFFFF
310
F000E0001FFFFFFFFFFF8000FFC000001FFC000FFF80007FC0003FFFFFFFFFFE
310
0001FFFFFFFFFFF8000001FFFE0000007FFFFFF0001FFFFFFC0007FFFFFFF000
310
1FFC0007FFFFFFF0001FFF0003FFFFFFFFF0001FFFFFFFFFF000E0003FFFFF00
310
03FF8001FFE000001FFC0007FF80007FC0007FFFFF0007FC0003FFFFF0003FF8
310
000001FFFE0000007FFFFFF0001FFFFFFC0003FFFFFFE0001FFC0003FFFFFFE0
310
001FFF0003FFFFFFFFF0003FFFFFFFFFF000E0003FFFFF0001FF8001FFE00000
310
1FFE0007FF80007FC0007FFFFE0003FC0007FFFFE0003FF8000001FFFE000000
310
7FFFFFF0001FFFFFFE0003FFFFFFE0003FFE0003FFFFFFE0003FFF0003FFFFFF
310
FFF0003FFFFF8001F000E0003FFFFF0001FF0001FFE000001FFE0007FF80007F
310
C0007FFFFE0003FC0007FFFFE0003FF8000001FFFE0000007FFFFFF0001FFFFF
310
FE0001FFFFFFC0003FFE0001FFFFFFC0003FFF0003FFFFFFFFF0003FFFFF0001
310
F000E0003FFFFF0003FF0001FFE000003FFE0007FF80007FC0007FFFFE0003FC
310
0007FFFFE0003FF8000001FFFE0000007FFFFFF0001FFFFFFF0001FFFFFFC000
310
7FFF0001FFFFFFC0007FFF0003FFFFFFFFF0003FFFFF0001F000E0003FFFFE00
310
03FF0003FFF000003FFE0003FF80007FC0007FFFFC0003FE0007FFFFE0003FF8
310
000001FFFE0000007FFFFFF0001FFFFFFF0000FFFFFF80007FFF0000FFFFFF80
310
007FFF0003FFFFFFFFF0003FFFFF0001F000E0003FFFFE0003FF0003FFF00000
310
3FFF0003FF80007FC0007FFFFC0007FE0007FFFFC0003FF8000001FFFE000000
310
7FFFFFF0001FFFFFFF80007FFFFF0000FFFF80007FFFFF0000FFFF0003FFFFFF
310
FFF0003FFFFF0003F000E0003FFFFC0003FE0003FFF000003FFF0003FF80007F
310
E0003FFFF80007FE0003FFFFC0007FF8000001FFFE0000007FFFFFF0001FFFFF
310
FF80003FFFFE0000FFFF80003FFFFE0000FFFF0003FFFFFFFFF0001FFFFE0003
310
F000F0001FFFF80003FE0003FFF000007FFF0001FF80007FE0003FFFF00007FE
310
0001FFFF80007FF8000001FFFE0000007FFFFFF0001FFFFFFFC0000FFFF80001
310
FFFFC0000FFFF80001FFFF0003FFFFFFFFF0001FFFFC0003F000F0000FFFF000
310
07FE0007FFF800007FFF0001FF80007FE0001FFFE00007FF0000FFFE00007FF8
310
000001FFFE0000007FFFFFF0001FFFFFFFC00003FFE00001FFFFC00003FFE000
310
01FFFF0003FFFFFFFFF8000FFFF80003F000F00003FFC00007FC0007FFF80000
310
7FFF8001FF80007FF00007FF80000FFF00007FF80000FFF8000001FFFE000000
310
7F80000000000001FFE000003E000003FFFFE000003E000003FFFF0003FFFFFF
310
FFF80003FFE00007F000F800000000000FFC0007FFF800007FFF8001FF80007F
310
F000000000000FFF000000000000FFF8000001FFFE0000007F80000000000001
310
FFF0000000000007FFFFF0000000000007FFFF0003FFFFFFFFFC00007E000007
310
F000F800000000000FFC0007FFF80000FFFF8000FF80007FF800000000001FFF
310
800000000001FFF8000001FFFE0000007F80000000000001FFF800000000000F
310
FFFFF800000000000FFFFF0003FFFFFFFFFC00000000000FF000FC0000000000
310
1FFC0007FFFC0000FFFF8000FF80007FF800000000003FFFC00000000001FFF8
310
000001FFFE0000007F80000000000001FFF800000000000FFFFFF80000000000
310
0FFFFF0003FFFFFFFFFE00000000001FF000FE00000000003FF8000FFFFC0000
310
FFFF8000FF80007FFC00000000003FFFC00000000003FFF8000001FFFE000000
310
7F80000000000001FFFC00000000001FFFFFFC00000000001FFFFF0003FFFFFF
310
FFFF00000000001FF000FF00000000003FF8000FFFFC0000FFFFC000FF80007F
310
FE00000000007FFFE00000000007FFF8000001FFFE0000007F80000000000001
310
FFFE00000000003FFFFFFE00000000003FFFFF0003FFFFFFFFFF80000000003F
310
F000FF80000000007FF8000FFFFC0001FFFFC0007F80007FFF0000000000FFFF
310
F0000000000FFFF800000000000000007F80000000000001FFFF8000000000FF
310
FFFFFF8000000000FFFFFF0003FFFFFFFFFFC0000000007FF000FFC000000000
310
FFF8000FFFFE0001FFFFC0007F80007FFF8000000001FFFFF8000000001FFFF8
310
00000000000000007F80000000000001FFFFC000000001FFFFFFFFC000000001
310
FFFFFF0003FFFFFFFFFFE000000000FFF000FFE000000003FFF0001FFFFE0001
310
FFFFC0007F80007FFFC000000007FFFFFE000000003FFFF80000000000000000
310
7F80000000000001FFFFE000000003FFFFFFFFE000000003FFFFFF0003FFFFFF
310
FFFFF000000003FFF000FFF80000000FFFF0001FFFFE0001FFFFE0007F80007F
310
FFF00000000FFFFFFF00000000FFFFF800000000000000007F80000000000001
310
FFFFF80000000FFFFFFFFFF80000000FFFFFFF0003FFFFFFFFFFFC0000000FFF
310
F000FFFE0000003FFFF0001FFFFE0003FFFFE0003F80007FFFFC0000003FFFFF
310
FFC0000003FFFFF800000000000000007F80000000000001FFFFFE0000003FFF
310
FFFFFFFE0000003FFFFFFF0003FFFFFFFFFFFF0000003FFFF000FFFF800000FF
310
FFF0001FFFFF0003FFFFE0003F80007FFFFF000001FFFFFFFFF800001FFFFFF8
310
00000000000000007F80000000000001FFFFFFC00001FFFFFFFFFFFFC00001FF
310
FFFFFF0003FFFFFFFFFFFFC00000FFFFF000FFFFF8000FFFFFFFFFFFFFFFFFFF
310
FFFFFFFFFFFFFFFFFFFFF0001FFFFFFFFFFF0000FFFFFFF80000000000000000
310
7FFFFFFFFFFFFFFFFFFFFFFC001FFFFFFFFFFFFFFC001FFFFFFFFFFFFFFFFFFF
310
FFFFFFFC001FFFFFF000FFFFFFFFFFFFFFFFFFFFFFFFFFFFFFFFFFFFFFFFFFFF
310
FFFFFFFFFFFFFFFFFFFFFFFFFFFFFFFFFFFFFFFFFFFFFFFFFFFFFFFFFFFFFFFF
310
FFFFFFFFFFFFFFFFFFFFFFFFFFFFFFFFFFFFFFFFFFFFFFFFFFFFFFFFFFFFFFFF
310
F000FFFFFFFFFFFFFFFFFFFFFFFFFFFFFFFFFFFFFFFFFFFFFFFFFFFFFFFFFFFF
310
FFFFFFFFFFFFFFFFFFFFFFFFFFFFFFFFFFFFFFFFFFFFFFFFFFFFFFFFFFFFFFFF
310
FFFFFFFFFFFFFFFFFFFFFFFFFFFFFFFFFFFFFFFFFFFFFFFFF000FFFFFFFFFFFF
310
FFFFFFFFFFFFFFFFFFFFFFFFFFFFFFFFFFFFFFFFFFFFFFFFFFFFFFFFFFFFFFFF
310
FFFFFFFFFFFFFFFFFFFFFFFFFFFFFFFFFFFFFFFFFFFFFFFFFFFFFFFFFFFFFFFF
310
FFFFFFFFFFFFFFFFFFFFFFFFFFFFFFFFF000FFFFFFFFFFFFFFFFFFFFFFFFFFFF
310
FFFFFFFFFFFFFFFFFFFFFFFFFFFFFFFFFFFFFFFFFFFFFFFFFFFFFFFFFFFFFFFF
310
FFFFFFFFFFFFFFFFFFFFFFFFFFFFFFFFFFFFFFFFFFFFFFFFFFFFFFFFFFFFFFFF
310
FFFFFFFFFFFFFFFFF000FFFFFFFFFFFFFFFFFFFFFFFFFFFFFFFFFFFFFFFFFFFF
310
FFFFFFFFFFFFFFFFFFFFFFFFFFFFFFFFFFFFFFFFFFFFFFFFFFFFFFFFFFFFFFFF
310
FFFFFFFFFFFFFFFFFFFFFFFFFFFFFFFFFFFFFFFFFFFFFFFFFFFFFFFFFFFFFFFF
310
F000FFFFFFFFFFFFFFFFFFFFFFFFFFFFFFFFFFFFFFFFFFFFFFFFFFFFFFFFFFFF
310
FFFFFFFFFFFFFFFFFFFFFFFFFFFFFFFFFFFFFFFFFFFFFFFFFFFFFFFFFFFFFFFF
310
FFFFFFFFFFFFFFFFFFFFFFFFFFFFFFFFFFFFFFFFFFFFFFFFF000FFFFFFFFFFFF
310
FFFFFFFFFFFFFFFFFFFFFFFFFFFFFFFFFFFFFFFFFFFFFFFFFFFFFFFFFFFFFFFF
310
FFFFFFFFFFFFFFFFFFFFFFFFFFFFFFFFFFFFFFFFFFFFFFFFFFFFFFFFFFFFFFFF
310
FFFFFFFFFFFFFFFFFFFFFFFFFFFFFFFFF000FFFFFFFFFFFFFFFFFFFFFFFFFFFF
310
FFFFFFFFFFFFFFFFFFFFFFFFFFFFFFFFFFFFFFFFFFFFFFFFFFFFFFFFFFFFFFFF
310
FFFFFFFFFFFFFFFFFFFFFFFFFFFFFFFFFFFFFFFFFFFFFFFFFFFFFFFFFFFFFFFF
310
FFFFFFFFFFFFFFFFF000FFFFFFFFFFFFFFFFFFFFFFFFFFFFFFFFFFFFFFFFFFFF
310
FFFFFFFFFFFFFFFFFFFFFFFFFFFFFFFFFFFFFFFFFFFFFFFFFFFFFFFFFFFFFFFF
310
FFFFFFFFFFFFFFFFFFFFFFFFFFFFFFFFFFFFFFFFFFFFFFFFFFFFFFFFFFFFFFFF
310
F000FFFFFFFFFFFFFFFFFFFFFFFFFFFFFFFFFFFFFFFFFFFFFFFFFFFFFFFFFFFF
310
FFFFFFFFFFFFFFFFFFFFFFFFFFFFFFFFFFFFFFFFFFFFFFFFFFFFFFFFFFFFFFFF
310
FFFFFFFFFFFFFFFFFFFFFFFFFFFFFFFFFFFFFFFFFFFFFFFFF000FFFFFFFFFFFF
310
FFFFFFFFFFFFFFFFFFFFFFFFFFFFFFFFFFFFFFFFFFFFFFFFFFFFFFFFFFFFFFFF
310
FFFFFFFFFFFFFFFFFFFFFFFFFFFFFFFFFFFFFFFFFFFFFFFFFFFFFFFFFFFFFFFF
310
FFFFFFFFFFFFFFFFFFFFFFFFFFFFFFFFF000FFFFFFFFFFFFFFFFFFFFFFFFFFFF
310
FFFFFFFFFFFFFFFFFFFFFFFFFFFFFFFFFFFFFFFFFFFFFFFFFFFFFFFFFFFFFFFF
310
FFFFFFFFFFFFFFFFFFFFFFFFFFFFFFFFFFFFFFFFFFFFFFFFFFFFFFFFFFFFFFFF
310
FFFFFFFFFFFFFFFFF000FFFFFFFFFFFFFFFFFFFFFFFFFFFFFFFFFFFFFFFFFFFF
310
FFFFFFFFFFFFFFFFFFFFFFFFFFFFFFFFFFFFFFFFFFFFFFFFFFFFFFFFFFFFFFFF
310
FFFFFFFFFFFFFFFFFFFFFFFFFFFFFFFFFFFFFFFFFFFFFFFFFFFFFFFFFFFFFFFF
310
F000FFFFFFFFFFFFFFFFFFFFFFFFFFFFFFFFFFFFFFFFFFFFFFFFFFFFFFFFFFFF
310
FFFFFFFFFFFFFFFFFFFFFFFFFFFFFFFFFFFFFFFFFFFFFFFFFFFFFFFFFFFFFFFF
310
FFFFFFFFFFFFFFFFFFFFFFFFFFFFFFFFFFFFFFFFFFFFFFFFF000FFFFFFFFFFFF
310
FFFFFFFFFFFFFFFFFFFFFFFFFFFFFFFFFFFFFFFFFFFFFFFFFFFFFFFFFFFFFFFF
310
FFFFFFFFFFFFFFFFFFFFFFFFFFFFFFFFFFFFFFFFFFFFFFFFFFFFFFFFFFFFFFFF
310
FFFFFFFFFFFFFFFFFFFFFFFFFFFFFFFFF000FFFFFFFFFFFFFFFFFFFFFFFFFFFF
310
FFFFFFFFFFFFFFFFFFFFFFFFFFFFFFFFFFFFFFFFFFFFFFFFFFFFFFFFFFFFFFFF
310
FFFFFFFFFFFFFFFFFFFFFFFFFFFFFFFFFFFFFFFFFFFFFFFFFFFFFFFFFFFFFFFF
310
FFFFFFFFFFFFFFFFF000FFFFFFFFFFFFFFFFFFFFFFFFFFFFFFFFFFFFFFFFFFFF
310
FFFFFFFFFFFFFFFFFFFFFFFFFFFFFFFFFFFFFFFFFFFFFFFFFFFFFFFFFFFFFFFF
310
FFFFFFFFFFFFFFFFFFFFFFFFFFFFFFFFFFFFFFFFFFFFFFFFFFFFFFFFFFFFFFFF
310
F000FFFFFFFFFFFFFFFFFFFFFFFFFFFFFFFFFFFFFFFFFFFFFFFFFFFFFFFFFFFF
310
FFFFFFFFFFFFFFFFFFFFFFFFFFFFFFFFFFFFFFFFFFFFFFFFFFFFFFFFFFFFFFFF
310
FFFFFFFFFFFFFFFFFFFFFFFFFFFFFFFFFFFFFFFFFFFFFFFFF000FFFFFFFFFFFF
310
FFFFFFFFFFFFFFFFFFFFFFFFFFFFFFFFFFFFFFFFFFFFFFFFFFFFFFFFFFFFFFFF
310
FFFFFFFFFFFFFFFFFFFFFFFFFFFFFFFFFFFFFFFFFFFFFFFFFFFFFFFFFFFFFFFF
310
FFFFFFFFFFFFFFFFFFFFFFFFFFFFFFFFF000FFFFFFFFFFFFFFFFFFFFFFFFFFFF
310
FFFFFFFFFFFFFFFFFFFFFFFFFFFFFFFFFFFFFFFFFFFFFFFFFFFFFFFFFFFFFFFF
310
FFFFFFFFFFFFFFFFFFFFFFFFFFFFFFFFFFFFFFFFFFFFFFFFFFFFFFFFFFFFFFFF
310
FFFFFFFFFFFFFFFFF000FFFFFFFFFFFFFFFFFFFFFFFFFFFFFFFFFFFFFFFFFFFF
310
FFFFFFFFFFFFFFFFFFFFFFFFFFFFFFFFFFFFFFFFFFFFFFFFFFFFFFFFFFFFFFFF
310
FFFFFFFFFFFFFFFFFFFFFFFFFFFFFFFFFFFFFFFFFFFFFFFFFFFFFFFFFFFFFFFF
310
F000FFFFFFFFFFFFFFFFFFFFFFFFFFFFFFFFFFFFFFFFFFFFFFFFFFFFFFFFFFFF
310
FFFFFFFFFFFFFFFFFFFFFFFFFFFFFFFFFFFFFFFFFFFFFFFFFFFFFFFFFFFFFFFF
310
FFFFFFFFFFFFFFFFFFFFFFFFFFFFFFFFFFFFFFFFFFFFFFFFF000FFFFFFFFFFFF
310
FFFFFFFFFFFFFFFFFFFFFFFFFFFFFFFFFFFFFFFFFFFFFFFFFFFFFFFFFFFFFFFF
310
FFFFFFFFFFFFFFFFFFFFFFFFFFFFFFFFFFFFFFFFFFFFFFFFFFFFFFFFFFFFFFFF
310
FFFFFFFFFFFFFFFFFFFFFFFFFFFFFFFFF0000000000000000000000000000000
310
0000000000000000000000000000000000000000000000000000000000000000
310
0000000000000000000000000000000000000000000000000000000000000000
310
0000000000000000000000000000000000000000000000000000000000000000
310
0000000000000000000000000000000000000000000000000000000000000000
310
00003A005C005A00485AE30D000000000000197FFF070000190000005C005300
310
900444648B4CD1118B70080036B11A03070000001F0000000000140000001100
310
00004B0061006E00E4006C006500000000000000000000000000000000000000
310
0000000000000000000000000000000000000000000000000000000000000000
310
0000000000000000000000000000000000000000000000000000000000000000
310
0000000000000000000000000000000000000000000000000000000000000000
310
0000000000000000000000000000000000000000000000000000000000000000
310
0000000000000000000000000000000000000000000000000000000000000000
310
0000000000000000000000000000000000000000000000000000000000000000
310
0000000000000000000000000000000000000000000000000000000000000000
310
0000000000000000000000000000000000000000000000000000000000000000
  1
OLE
  0
ENDSEC
  0
SECTION
  2
OBJECTS
  0
DICTIONARY
  5
C
330
0
100
AcDbDictionary
281
     1
  3
ACAD_GROUP
350
D
  3
ACAD_LAYOUT
350
1A
  3
ACAD_MLEADERSTYLE
350
217
  3
ACAD_MLINESTYLE
350
17
  3
ACAD_PLOTSETTINGS
350
19
  3
ACAD_PLOTSTYLENAME
350
E
  3
ACAD_TABLESTYLE
350
216
  3
ACAD_VISUALSTYLE
350
2A
  3
AcDbVariableDictionary
350
218
  0
DICTIONARY
  5
D
102
{ACAD_REACTORS
330
C
102
}
330
C
100
AcDbDictionary
281
     1
  0
DICTIONARY
  5
1A
102
{ACAD_REACTORS
330
C
102
}
330
C
100
AcDbDictionary
281
     1
  3
Layout1
350
1E
  3
Layout2
350
26
  3
Model
350
22
  0
DICTIONARY
  5
217
102
{ACAD_REACTORS
330
C
102
}
330
C
100
AcDbDictionary
281
     1
  0
DICTIONARY
  5
17
102
{ACAD_REACTORS
330
C
102
}
330
C
100
AcDbDictionary
281
     1
  3
Standard
350
18
  0
DICTIONARY
  5
19
102
{ACAD_REACTORS
330
C
102
}
330
C
100
AcDbDictionary
281
     1
  0
ACDBDICTIONARYWDFLT
  5
E
102
{ACAD_REACTORS
330
C
102
}
330
C
100
AcDbDictionary
281
     1
  3
Normal
350
F
100
AcDbDictionaryWithDefault
340
F
  0
DICTIONARY
  5
216
102
{ACAD_REACTORS
330
C
102
}
330
C
100
AcDbDictionary
281
     1
  0
DICTIONARY
  5
2A
102
{ACAD_REACTORS
330
C
102
}
330
C
100
AcDbDictionary
281
     1
  3
2dWireframe
350
2F
  3
3D Hidden
350
31
  3
3dWireframe
350
30
  3
Basic
350
32
  3
Brighten
350
36
  3
ColorChange
350
3A
  3
Conceptual
350
34
  3
Dim
350
35
  3
Facepattern
350
39
  3
Flat
350
2B
  3
FlatWithEdges
350
2C
  3
Gouraud
350
2D
  3
GouraudWithEdges
350
2E
  3
Linepattern
350
38
  3
Realistic
350
33
  3
Thicken
350
37
  0
DICTIONARY
  5
218
102
{ACAD_REACTORS
330
C
102
}
330
C
100
AcDbDictionary
281
     1
  3
PSOLHEIGHT
350
21A
  3
PSOLWIDTH
350
219
  0
LAYOUT
  5
1E
102
{ACAD_REACTORS
330
1A
102
}
330
1A
100
AcDbPlotSettings
  1

  2
none_device
  4

  6

 40
0.0
 41
0.0
 42
0.0
 43
0.0
 44
0.0
 45
0.0
 46
0.0
 47
0.0
 48
0.0
 49
0.0
140
0.0
141
0.0
142
1.0
143
1.0
 70
   688
 72
     0
 73
     0
 74
     5
  7

 75
    16
147
1.0
148
0.0
149
0.0
100
AcDbLayout
  1
Layout1
 70
     1
 71
     1
 10
0.0
 20
0.0
 11
420.0
 21
297.0
 12
0.0
 22
0.0
 32
0.0
 14
1.0000000000E+20
 24
1.0000000000E+20
 34
1.0000000000E+20
 15
-1.0000000000E+20
 25
-1.0000000000E+20
 35
-1.0000000000E+20
146
0.0
 13
0.0
 23
0.0
 33
0.0
 16
1.0
 26
0.0
 36
0.0
 17
0.0
 27
1.0
 37
0.0
 76
     0
330
1B
  0
LAYOUT
  5
26
102
{ACAD_REACTORS
330
1A
102
}
330
1A
100
AcDbPlotSettings
  1

  2
none_device
  4

  6

 40
0.0
 41
0.0
 42
0.0
 43
0.0
 44
0.0
 45
0.0
 46
0.0
 47
0.0
 48
0.0
 49
0.0
140
0.0
141
0.0
142
1.0
143
1.0
 70
   688
 72
     0
 73
     0
 74
     5
  7

 75
    16
147
1.0
148
0.0
149
0.0
100
AcDbLayout
  1
Layout2
 70
     1
 71
     2
 10
0.0
 20
0.0
 11
0.0
 21
0.0
 12
0.0
 22
0.0
 32
0.0
 14
0.0
 24
0.0
 34
0.0
 15
0.0
 25
0.0
 35
0.0
146
0.0
 13
0.0
 23
0.0
 33
0.0
 16
1.0
 26
0.0
 36
0.0
 17
0.0
 27
1.0
 37
0.0
 76
     0
330
23
  0
LAYOUT
  5
22
102
{ACAD_REACTORS
330
1A
102
}
330
1A
100
AcDbPlotSettings
  1

  2
none_device
  4

  6

 40
0.0
 41
0.0
 42
0.0
 43
0.0
 44
0.0
 45
0.0
 46
0.0
 47
0.0
 48
0.0
 49
0.0
140
0.0
141
0.0
142
1.0
143
1.0
 70
  1712
 72
     0
 73
     0
 74
     0
  7

 75
     0
147
1.0
148
0.0
149
0.0
100
AcDbLayout
  1
Model
 70
     1
 71
     0
 10
0.0
 20
0.0
 11
297.0
 21
210.0
 12
0.0
 22
0.0
 32
0.0
 14
0.0
 24
0.0
 34
0.0
 15
297.0
 25
210.0
 35
0.0
146
0.0
 13
0.0
 23
0.0
 33
0.0
 16
1.0
 26
0.0
 36
0.0
 17
0.0
 27
1.0
 37
0.0
 76
     0
330
1F
331
29
  0
MLINESTYLE
  5
18
102
{ACAD_REACTORS
330
17
102
}
330
17
100
AcDbMlineStyle
  2
Standard
 70
     0
  3

 62
   256
 51
90.0
 52
90.0
 71
     2
 49
0.5
 62
   256
  6
BYLAYER
 49
-0.5
 62
   256
  6
BYLAYER
  0
ACDBPLACEHOLDER
  5
F
102
{ACAD_REACTORS
330
E
102
}
330
E
  0
VISUALSTYLE
  5
2F
102
{ACAD_REACTORS
330
2A
102
}
330
2A
100
AcDbVisualStyle
  2
2dWireframe
 70
     4
 71
     0
 72
     2
 73
     0
 90
        0
 40
-0.6
 41
-30.0
 62
     5
 63
     7
 74
     1
 91
        4
 64
     7
 65
   257
 75
     1
175
     1
 42
1.0
 92
        0
 66
   257
 43
1.0
 76
     1
 77
     6
 78
     2
 67
     7
 79
     5
170
     0
171
     0
290
     0
174
     0
 93
        1
 44
0.0
173
     0
291
     0
 45
0.0
1001
ACAD
1000
AcDbSavedByObjectVersion
1070
     0
  0
VISUALSTYLE
  5
31
102
{ACAD_REACTORS
330
2A
102
}
330
2A
100
AcDbVisualStyle
  2
3D Hidden
 70
     6
 71
     1
 72
     2
 73
     2
 90
        0
 40
-0.6
 41
-30.0
 62
     5
 63
     7
 74
     2
 91
        2
 64
     7
 65
   257
 75
     2
175
     1
 42
40.0
 92
        0
 66
   257
 43
1.0
 76
     1
 77
     6
 78
     2
 67
     7
 79
     3
170
     0
171
     0
290
     0
174
     0
 93
        1
 44
0.0
173
     0
291
     0
 45
0.0
1001
ACAD
1000
AcDbSavedByObjectVersion
1070
     0
  0
VISUALSTYLE
  5
30
102
{ACAD_REACTORS
330
2A
102
}
330
2A
100
AcDbVisualStyle
  2
3dWireframe
 70
     5
 71
     0
 72
     2
 73
     0
 90
        0
 40
-0.6
 41
-30.0
 62
     5
 63
     7
 74
     1
 91
        4
 64
     7
 65
   257
 75
     1
175
     1
 42
1.0
 92
        0
 66
   257
 43
1.0
 76
     1
 77
     6
 78
     2
 67
     7
 79
     5
170
     0
171
     0
290
     0
174
     0
 93
        1
 44
0.0
173
     0
291
     0
 45
0.0
1001
ACAD
1000
AcDbSavedByObjectVersion
1070
     0
  0
VISUALSTYLE
  5
32
102
{ACAD_REACTORS
330
2A
102
}
330
2A
100
AcDbVisualStyle
  2
Basic
 70
     7
 71
     1
 72
     0
 73
     1
 90
        0
 40
-0.6
 41
-30.0
 62
     5
 63
     7
 74
     0
 91
        4
 64
     7
 65
   257
 75
     1
175
     1
 42
1.0
 92
        8
 66
     7
 43
1.0
 76
     1
 77
     6
 78
     2
 67
     7
 79
     5
170
     0
171
     0
290
     0
174
     0
 93
        1
 44
0.0
173
     0
291
     1
 45
0.0
1001
ACAD
1000
AcDbSavedByObjectVersion
1070
     0
  0
VISUALSTYLE
  5
36
102
{ACAD_REACTORS
330
2A
102
}
330
2A
100
AcDbVisualStyle
  2
Brighten
 70
    12
 71
     2
 72
     2
 73
     0
 90
        0
 40
-0.6
 41
-30.0
 62
     5
 63
     7
 74
     1
 91
        4
 64
     7
 65
   257
 75
     1
175
     1
 42
1.0
 92
        8
 66
     7
 43
1.0
 76
     1
 77
     6
 78
     2
 67
     7
 79
     5
170
     0
171
     0
290
     0
174
     0
 93
        1
 44
50.0
173
     0
291
     1
 45
0.0
1001
ACAD
1000
AcDbSavedByObjectVersion
1070
     0
  0
VISUALSTYLE
  5
3A
102
{ACAD_REACTORS
330
2A
102
}
330
2A
100
AcDbVisualStyle
  2
ColorChange
 70
    16
 71
     2
 72
     2
 73
     3
 90
        0
 40
-0.6
 41
-30.0
 62
     5
 63
     8
 74
     1
 91
        4
 64
     7
 65
   257
 75
     1
175
     1
 42
1.0
 92
        8
 66
     8
 43
1.0
 76
     1
 77
     6
 78
     2
 67
     7
 79
     5
170
     0
171
     0
290
     0
174
     0
 93
        1
 44
0.0
173
     0
291
     1
 45
0.0
1001
ACAD
1000
AcDbSavedByObjectVersion
1070
     0
  0
VISUALSTYLE
  5
34
102
{ACAD_REACTORS
330
2A
102
}
330
2A
100
AcDbVisualStyle
  2
Conceptual
 70
     9
 71
     3
 72
     2
 73
     0
 90
        0
 40
-0.6
 41
-30.0
 62
     5
 63
     7
 74
     2
 91
        2
 64
     7
 65
   257
 75
     1
175
     1
 42
40.0
 92
        8
 66
     7
 43
1.0
 76
     1
 77
     6
 78
     2
 67
     7
 79
     3
170
     0
171
     0
290
     0
174
     0
 93
        1
 44
0.0
173
     0
291
     0
 45
0.0
1001
ACAD
1000
AcDbSavedByObjectVersion
1070
     0
  0
VISUALSTYLE
  5
35
102
{ACAD_REACTORS
330
2A
102
}
330
2A
100
AcDbVisualStyle
  2
Dim
 70
    11
 71
     2
 72
     2
 73
     0
 90
        0
 40
-0.6
 41
-30.0
 62
     5
 63
     7
 74
     1
 91
        4
 64
     7
 65
   257
 75
     1
175
     1
 42
1.0
 92
        8
 66
     7
 43
1.0
 76
     1
 77
     6
 78
     2
 67
     7
 79
     5
170
     0
171
     0
290
     0
174
     0
 93
        1
 44
-50.0
173
     0
291
     1
 45
0.0
1001
ACAD
1000
AcDbSavedByObjectVersion
1070
     0
  0
VISUALSTYLE
  5
39
102
{ACAD_REACTORS
330
2A
102
}
330
2A
100
AcDbVisualStyle
  2
Facepattern
 70
    15
 71
     2
 72
     2
 73
     0
 90
        0
 40
-0.6
 41
-30.0
 62
     5
 63
     7
 74
     1
 91
        4
 64
     7
 65
   257
 75
     1
175
     1
 42
1.0
 92
        8
 66
     7
 43
1.0
 76
     1
 77
     6
 78
     2
 67
     7
 79
     5
170
     0
171
     0
290
     0
174
     0
 93
        1
 44
0.0
173
     0
291
     1
 45
0.0
1001
ACAD
1000
AcDbSavedByObjectVersion
1070
     0
  0
VISUALSTYLE
  5
2B
102
{ACAD_REACTORS
330
2A
102
}
330
2A
100
AcDbVisualStyle
  2
Flat
 70
     0
 71
     2
 72
     1
 73
     1
 90
        2
 40
-0.6
 41
30.0
 62
     5
 63
     7
 74
     0
 91
        4
 64
     7
 65
   257
 75
     1
175
     1
 42
1.0
 92
        8
 66
     7
 43
1.0
 76
     1
 77
     6
 78
     2
 67
     7
 79
     5
170
     0
171
     0
290
     0
174
     0
 93
       13
 44
0.0
173
     0
291
     1
 45
0.0
1001
ACAD
1000
AcDbSavedByObjectVersion
1070
     0
  0
VISUALSTYLE
  5
2C
102
{ACAD_REACTORS
330
2A
102
}
330
2A
100
AcDbVisualStyle
  2
FlatWithEdges
 70
     1
 71
     2
 72
     1
 73
     1
 90
        2
 40
-0.6
 41
30.0
 62
     5
 63
     7
 74
     1
 91
        4
 64
     7
 65
   257
 75
     1
175
     1
 42
1.0
 92
        0
 66
   257
 43
1.0
 76
     1
 77
     6
 78
     2
 67
     7
 79
     5
170
     0
171
     0
290
     0
174
     0
 93
       13
 44
0.0
173
     0
291
     1
 45
0.0
1001
ACAD
1000
AcDbSavedByObjectVersion
1070
     0
  0
VISUALSTYLE
  5
2D
102
{ACAD_REACTORS
330
2A
102
}
330
2A
100
AcDbVisualStyle
  2
Gouraud
 70
     2
 71
     2
 72
     2
 73
     1
 90
        2
 40
-0.6
 41
30.0
 62
     5
 63
     7
 74
     0
 91
        4
 64
     7
 65
   257
 75
     1
175
     1
 42
1.0
 92
        0
 66
     7
 43
1.0
 76
     1
 77
     6
 78
     2
 67
     7
 79
     5
170
     0
171
     0
290
     0
174
     0
 93
       13
 44
0.0
173
     0
291
     1
 45
0.0
1001
ACAD
1000
AcDbSavedByObjectVersion
1070
     0
  0
VISUALSTYLE
  5
2E
102
{ACAD_REACTORS
330
2A
102
}
330
2A
100
AcDbVisualStyle
  2
GouraudWithEdges
 70
     3
 71
     2
 72
     2
 73
     1
 90
        2
 40
-0.6
 41
30.0
 62
     5
 63
     7
 74
     1
 91
        4
 64
     7
 65
   257
 75
     1
175
     1
 42
1.0
 92
        0
 66
   257
 43
1.0
 76
     1
 77
     6
 78
     2
 67
     7
 79
     5
170
     0
171
     0
290
     0
174
     0
 93
       13
 44
0.0
173
     0
291
     1
 45
0.0
1001
ACAD
1000
AcDbSavedByObjectVersion
1070
     0
  0
VISUALSTYLE
  5
38
102
{ACAD_REACTORS
330
2A
102
}
330
2A
100
AcDbVisualStyle
  2
Linepattern
 70
    14
 71
     2
 72
     2
 73
     0
 90
        0
 40
-0.6
 41
-30.0
 62
     5
 63
     7
 74
     1
 91
        4
 64
     7
 65
   257
 75
     7
175
     7
 42
1.0
 92
        8
 66
     7
 43
1.0
 76
     1
 77
     6
 78
     2
 67
     7
 79
     5
170
     0
171
     0
290
     0
174
     0
 93
        1
 44
0.0
173
     0
291
     1
 45
0.0
1001
ACAD
1000
AcDbSavedByObjectVersion
1070
     0
  0
VISUALSTYLE
  5
33
102
{ACAD_REACTORS
330
2A
102
}
330
2A
100
AcDbVisualStyle
  2
Realistic
 70
     8
 71
     2
 72
     2
 73
     0
 90
        0
 40
-0.6
 41
-30.0
 62
     5
 63
     7
 74
     1
 91
        0
 64
     7
 65
   257
 75
     1
175
     1
 42
1.0
 92
        8
 66
     8
 43
1.0
 76
     1
 77
     6
 78
     2
 67
     7
 79
     5
170
     0
171
     0
290
     0
174
     0
 93
       13
 44
0.0
173
     0
291
     0
 45
0.0
1001
ACAD
1000
AcDbSavedByObjectVersion
1070
     0
  0
VISUALSTYLE
  5
37
102
{ACAD_REACTORS
330
2A
102
}
330
2A
100
AcDbVisualStyle
  2
Thicken
 70
    13
 71
     2
 72
     2
 73
     0
 90
        0
 40
-0.6
 41
-30.0
 62
     5
 63
     7
 74
     1
 91
        4
 64
     7
 65
   257
 75
     1
175
     1
 42
1.0
 92
       12
 66
     7
 43
1.0
 76
     1
 77
     6
 78
     2
 67
     7
 79
     5
170
     0
171
     0
290
     0
174
     0
 93
        1
 44
0.0
173
     0
291
     1
 45
0.0
1001
ACAD
1000
AcDbSavedByObjectVersion
1070
     0
  0
DICTIONARYVAR
  5
21A
102
{ACAD_REACTORS
330
218
102
}
330
218
100
DictionaryVariables
280
     0
  1
80.000000
  0
DICTIONARYVAR
  5
219
102
{ACAD_REACTORS
330
218
102
}
330
218
100
DictionaryVariables
280
     0
  1
5.000000
  0
ENDSEC
  0
EOF
