  0
SECTION
  2
HEADER
  9
$ACADVER
  1
AC1015
  9
$ACADMAINTVER
 70
     6
  9
$DWGCODEPAGE
  3
ANSI_1252
  9
$INSBASE
 10
0.0
 20
0.0
 30
0.0
  9
$EXTMIN
 10
0.0
 20
0.0
 30
0.0
  9
$EXTMAX
 10
297.0
 20
210.0
 30
0.0
  9
$LIMMIN
 10
0.0
 20
0.0
  9
$LIMMAX
 10
297.0
 20
210.0
  9
$ORTHOMODE
 70
     0
  9
$REGENMODE
 70
     1
  9
$FILLMODE
 70
     1
  9
$QTEXTMODE
 70
     0
  9
$MIRRTEXT
 70
     1
  9
$LTSCALE
 40
1.0
  9
$ATTMODE
 70
     1
  9
$TEXTSIZE
 40
2.0
  9
$TRACEWID
 40
1.0
  9
$TEXTSTYLE
  7
Standard
  9
$CLAYER
  8
0
  9
$CELTYPE
  6
ByLayer
  9
$CECOLOR
 62
   256
  9
$CELTSCALE
 40
1.0
  9
$DISPSILH
 70
     0
  9
$DIMSCALE
 40
1.0
  9
$DIMASZ
 40
3.0
  9
$DIMEXO
 40
0.0
  9
$DIMDLI
 40
3.75
  9
$DIMRND
 40
0.0
  9
$DIMDLE
 40
0.0
  9
$DIMEXE
 40
1.0
  9
$DIMTP
 40
0.0
  9
$DIMTM
 40
0.0
  9
$DIMTXT
 40
2.0
  9
$DIMCEN
 40
2.5
  9
$DIMTSZ
 40
0.0
  9
$DIMTOL
 70
     0
  9
$DIMLIM
 70
     0
  9
$DIMTIH
 70
     1
  9
$DIMTOH
 70
     1
  9
$DIMSE1
 70
     0
  9
$DIMSE2
 70
     0
  9
$DIMTAD
 70
     1
  9
$DIMZIN
 70
     0
  9
$DIMBLK
  1

  9
$DIMASO
 70
     1
  9
$DIMSHO
 70
     1
  9
$DIMPOST
  1

  9
$DIMAPOST
  1

  9
$DIMALT
 70
     0
  9
$DIMALTD
 70
     3
  9
$DIMALTF
 40
0.0393700787
  9
$DIMLFAC
 40
1.0
  9
$DIMTOFL
 70
     1
  9
$DIMTVP
 40
0.0
  9
$DIMTIX
 70
     0
  9
$DIMSOXD
 70
     0
  9
$DIMSAH
 70
     0
  9
$DIMBLK1
  1

  9
$DIMBLK2
  1

  9
$DIMSTYLE
  2
ISO-25
  9
$DIMCLRD
 70
     0
  9
$DIMCLRE
 70
     0
  9
$DIMCLRT
 70
     0
  9
$DIMTFAC
 40
1.0
  9
$DIMGAP
 40
1.524
  9
$DIMJUST
 70
     0
  9
$DIMSD1
 70
     0
  9
$DIMSD2
 70
     0
  9
$DIMTOLJ
 70
     0
  9
$DIMTZIN
 70
     0
  9
$DIMALTZ
 70
     0
  9
$DIMALTTZ
 70
     0
  9
$DIMUPT
 70
     0
  9
$DIMDEC
 70
     2
  9
$DIMTDEC
 70
     3
  9
$DIMALTU
 70
     2
  9
$DIMALTTD
 70
     3
  9
$DIMTXSTY
  7
Standard
  9
$DIMAUNIT
 70
     0
  9
$DIMADEC
 70
     2
  9
$DIMALTRND
 40
0.0
  9
$DIMAZIN
 70
     0
  9
$DIMDSEP
 70
    44
  9
$DIMATFIT
 70
     3
  9
$DIMFRAC
 70
     0
  9
$DIMLDRBLK
  1

  9
$DIMLUNIT
 70
     2
  9
$DIMLWD
 70
    -2
  9
$DIMLWE
 70
    -2
  9
$DIMTMOVE
 70
     0
  9
$LUNITS
 70
     2
  9
$LUPREC
 70
     2
  9
$SKETCHINC
 40
1.0
  9
$FILLETRAD
 40
10.0
  9
$AUNITS
 70
     0
  9
$AUPREC
 70
     2
  9
$MENU
  1
.
  9
$ELEVATION
 40
0.0
  9
$PELEVATION
 40
0.0
  9
$THICKNESS
 40
0.0
  9
$LIMCHECK
 70
     0
  9
$CHAMFERA
 40
10.0
  9
$CHAMFERB
 40
10.0
  9
$CHAMFERC
 40
20.0
  9
$CHAMFERD
 40
0.0
  9
$SKPOLY
 70
     0
  9
$TDCREATE
 40
2455673.382846539
  9
$TDUCREATE
 40
2455673.299513206
  9
$TDUPDATE
 40
2455673.382846551
  9
$TDUUPDATE
 40
2455673.299513218
  9
$TDINDWG
 40
0.0000000116
  9
$TDUSRTIMER
 40
0.0000000116
  9
$USRTIMER
 70
     1
  9
$ANGBASE
 50
0.0
  9
$ANGDIR
 70
     0
  9
$PDMODE
 70
     0
  9
$PDSIZE
 40
-1.0
  9
$PLINEWID
 40
0.0
  9
$SPLFRAME
 70
     0
  9
$SPLINETYPE
 70
     6
  9
$SPLINESEGS
 70
     8
  9
$HANDSEED
  5
218
  9
$SURFTAB1
 70
     6
  9
$SURFTAB2
 70
     6
  9
$SURFTYPE
 70
     6
  9
$SURFU
 70
     6
  9
$SURFV
 70
     6
  9
$UCSBASE
  2

  9
$UCSNAME
  2

  9
$UCSORG
 10
0.0
 20
0.0
 30
0.0
  9
$UCSXDIR
 10
1.0
 20
0.0
 30
0.0
  9
$UCSYDIR
 10
0.0
 20
1.0
 30
0.0
  9
$UCSORTHOREF
  2

  9
$UCSORTHOVIEW
 70
     0
  9
$UCSORGTOP
 10
0.0
 20
0.0
 30
0.0
  9
$UCSORGBOTTOM
 10
0.0
 20
0.0
 30
0.0
  9
$UCSORGLEFT
 10
0.0
 20
0.0
 30
0.0
  9
$UCSORGRIGHT
 10
0.0
 20
0.0
 30
0.0
  9
$UCSORGFRONT
 10
0.0
 20
0.0
 30
0.0
  9
$UCSORGBACK
 10
0.0
 20
0.0
 30
0.0
  9
$PUCSBASE
  2

  9
$PUCSNAME
  2

  9
$PUCSORG
 10
0.0
 20
0.0
 30
0.0
  9
$PUCSXDIR
 10
1.0
 20
0.0
 30
0.0
  9
$PUCSYDIR
 10
0.0
 20
1.0
 30
0.0
  9
$PUCSORTHOREF
  2

  9
$PUCSORTHOVIEW
 70
     0
  9
$PUCSORGTOP
 10
0.0
 20
0.0
 30
0.0
  9
$PUCSORGBOTTOM
 10
0.0
 20
0.0
 30
0.0
  9
$PUCSORGLEFT
 10
0.0
 20
0.0
 30
0.0
  9
$PUCSORGRIGHT
 10
0.0
 20
0.0
 30
0.0
  9
$PUCSORGFRONT
 10
0.0
 20
0.0
 30
0.0
  9
$PUCSORGBACK
 10
0.0
 20
0.0
 30
0.0
  9
$USERI1
 70
     0
  9
$USERI2
 70
     0
  9
$USERI3
 70
     0
  9
$USERI4
 70
     0
  9
$USERI5
 70
     0
  9
$USERR1
 40
0.0
  9
$USERR2
 40
0.0
  9
$USERR3
 40
0.0
  9
$USERR4
 40
0.0
  9
$USERR5
 40
0.0
  9
$WORLDVIEW
 70
     1
  9
$SHADEDGE
 70
     3
  9
$SHADEDIF
 70
    70
  9
$TILEMODE
 70
     1
  9
$MAXACTVP
 70
    64
  9
$PINSBASE
 10
0.0
 20
0.0
 30
0.0
  9
$PLIMCHECK
 70
     0
  9
$PEXTMIN
 10
1.0000000000E+20
 20
1.0000000000E+20
 30
1.0000000000E+20
  9
$PEXTMAX
 10
-1.0000000000E+20
 20
-1.0000000000E+20
 30
-1.0000000000E+20
  9
$PLIMMIN
 10
0.0
 20
0.0
  9
$PLIMMAX
 10
420.0
 20
297.0
  9
$UNITMODE
 70
     0
  9
$VISRETAIN
 70
     1
  9
$PLINEGEN
 70
     0
  9
$PSLTSCALE
 70
     1
  9
$TREEDEPTH
 70
  3020
  9
$CMLSTYLE
  2
Standard
  9
$CMLJUST
 70
     0
  9
$CMLSCALE
 40
20.0
  9
$PROXYGRAPHICS
 70
     1
  9
$MEASUREMENT
 70
     1
  9
$CELWEIGHT
370
    -1
  9
$ENDCAPS
280
     0
  9
$JOINSTYLE
280
     0
  9
$LWDISPLAY
290
     1
  9
$INSUNITS
 70
     4
  9
$HYPERLINKBASE
  1

  9
$STYLESHEET
  1

  9
$XEDIT
290
     1
  9
$CEPSNTYPE
380
     0
  9
$PSTYLEMODE
290
     1
  9
$FINGERPRINTGUID
  2
{66E34C94-0B48-45AB-8064-DF36459D2929}
  9
$VERSIONGUID
  2
{FAEB1C32-E019-11D5-929B-00C0DF256EC4}
  9
$EXTNAMES
290
     1
  9
$PSVPSCALE
 40
0.0
  9
$OLESTARTUP
290
     0
  0
ENDSEC
  0
SECTION
  2
CLASSES
  0
CLASS
  1
ACDBDICTIONARYWDFLT
  2
AcDbDictionaryWithDefault
  3
ObjectDBX Classes
 90
        0
280
     0
281
     0
  0
CLASS
  1
VISUALSTYLE
  2
AcDbVisualStyle
  3
ObjectDBX Classes
 90
     4095
280
     0
281
     0
  0
CLASS
  1
DICTIONARYVAR
  2
AcDbDictionaryVar
  3
ObjectDBX Classes
 90
        0
280
     0
281
     0
  0
CLASS
  1
ACDBPLACEHOLDER
  2
AcDbPlaceHolder
  3
ObjectDBX Classes
 90
        0
280
     0
281
     0
  0
CLASS
  1
LAYOUT
  2
AcDbLayout
  3
ObjectDBX Classes
 90
        0
280
     0
281
     0
  0
ENDSEC
  0
SECTION
  2
TABLES
  0
TABLE
  2
VPORT
  5
8
330
0
100
AcDbSymbolTable
 70
     1
  0
VPORT
  5
29
330
8
100
AcDbSymbolTableRecord
100
AcDbViewportTableRecord
  2
*Active
 70
     0
 10
0.0
 20
0.0
 11
1.0
 21
1.0
 12
148.5
 22
105.0
 13
0.0
 23
0.0
 14
10.0
 24
10.0
 15
10.0
 25
10.0
 16
0.0
 26
0.0
 36
1.0
 17
0.0
 27
0.0
 37
0.0
 40
210.0
 41
1.4142857143
 42
50.0
 43
0.0
 44
0.0
 50
0.0
 51
0.0
 71
     0
 72
  2000
 73
     1
 74
     3
 75
     0
 76
     0
 77
     0
 78
     0
281
     0
 65
     1
110
0.0
120
0.0
130
0.0
111
1.0
121
0.0
131
0.0
112
0.0
122
1.0
132
0.0
 79
     0
146
0.0
  0
ENDTAB
  0
TABLE
  2
LTYPE
  5
5
330
0
100
AcDbSymbolTable
 70
     6
  0
LTYPE
  5
14
330
5
100
AcDbSymbolTableRecord
100
AcDbLinetypeTableRecord
  2
ByBlock
 70
     0
  3

 72
    65
 73
     0
 40
0.0
  0
LTYPE
  5
15
330
5
100
AcDbSymbolTableRecord
100
AcDbLinetypeTableRecord
  2
ByLayer
 70
     0
  3

 72
    65
 73
     0
 40
0.0
  0
LTYPE
  5
16
330
5
100
AcDbSymbolTableRecord
100
AcDbLinetypeTableRecord
  2
Continuous
 70
     0
  3
Solid line
 72
    65
 73
     0
 40
0.0
  0
LTYPE
  5
3B
330
5
100
AcDbSymbolTableRecord
100
AcDbLinetypeTableRecord
  2
HIDDEN
 70
     0
  3
Hidden __ __ __ __ __ __ __ __ __ __ __ __ __ __
 72
    65
 73
     2
 40
1.905
 49
1.27
 74
     0
 49
-0.635
 74
     0
  0
LTYPE
  5
3C
330
5
100
AcDbSymbolTableRecord
100
AcDbLinetypeTableRecord
  2
PHANTOM
 70
     0
  3
Phantom ______  __  __  ______  __  __  ______
 72
    65
 73
     6
 40
12.7
 49
6.35
 74
     0
 49
-1.27
 74
     0
 49
1.27
 74
     0
 49
-1.27
 74
     0
 49
1.27
 74
     0
 49
-1.27
 74
     0
  0
LTYPE
  5
3D
330
5
100
AcDbSymbolTableRecord
100
AcDbLinetypeTableRecord
  2
CENTER
 70
     0
  3
Center ____ _ ____ _ ____ _ ____ _ ____ _ ____
 72
    65
 73
     4
 40
10.16
 49
6.35
 74
     0
 49
-1.27
 74
     0
 49
1.27
 74
     0
 49
-1.27
 74
     0
  0
LTYPE
  5
3E
330
5
100
AcDbSymbolTableRecord
100
AcDbLinetypeTableRecord
  2
CENTERX2
 70
     0
  3
Center (2x) ________  __  ________  __  _____
 72
    65
 73
     4
 40
20.32
 49
12.7
 74
     0
 49
-2.54
 74
     0
 49
2.54
 74
     0
 49
-2.54
 74
     0
  0
LTYPE
  5
3F
330
5
100
AcDbSymbolTableRecord
100
AcDbLinetypeTableRecord
  2
DOT2
 70
     0
  3
Dot (.5x) ........................................
 72
    65
 73
     2
 40
0.635
 49
0.0
 74
     0
 49
-0.635
 74
     0
  0
ENDTAB
  0
TABLE
  2
LAYER
  5
2
330
0
100
AcDbSymbolTable
 70
     5
  0
LAYER
  5
10
330
2
100
AcDbSymbolTableRecord
100
AcDbLayerTableRecord
  2
0
 70
     0
 62
     7
  6
Continuous
370
    -3
390
F
  0
LAYER
  5
40
330
2
100
AcDbSymbolTableRecord
100
AcDbLayerTableRecord
  2
FORMAT
 70
     0
 62
     7
  6
Continuous
370
    -3
390
F
  0
LAYER
  5
41
330
2
100
AcDbSymbolTableRecord
100
AcDbLayerTableRecord
  2
VERMASSUNG
 70
     0
 62
     7
  6
Continuous
370
    -3
390
F
  0
LAYER
  5
42
330
2
100
AcDbSymbolTableRecord
100
AcDbLayerTableRecord
  2
KOPF_DÜNN
 70
     0
 62
     7
  6
Continuous
370
    -3
390
F
  0
LAYER
  5
43
330
2
100
AcDbSymbolTableRecord
100
AcDbLayerTableRecord
  2
KOPF_DICK
 70
     0
 62
     7
  6
Continuous
370
    15
390
F
  0
ENDTAB
  0
TABLE
  2
STYLE
  5
3
330
0
100
AcDbSymbolTable
 70
     3
  0
STYLE
  5
11
330
3
100
AcDbSymbolTableRecord
100
AcDbTextStyleTableRecord
  2
Standard
 70
     0
 40
0.0
 41
1.0
 50
0.0
 71
     0
 42
2.5
  3
txt
  4

  0
STYLE
  5
44
330
3
100
AcDbSymbolTableRecord
100
AcDbTextStyleTableRecord
  2
SLDTEXTSTYLE0
 70
     0
 40
0.0
 41
0.7
 50
0.0
 71
     0
 42
0.2
  3
TXT
  4

  0
STYLE
  5
48
330
3
100
AcDbSymbolTableRecord
100
AcDbTextStyleTableRecord
  2
SLDTEXTSTYLE1
 70
     0
 40
0.0
 41
0.6473684211
 50
0.0
 71
     0
 42
0.2
  3
TXT
  4

  0
ENDTAB
  0
TABLE
  2
VIEW
  5
6
330
0
100
AcDbSymbolTable
 70
     0
  0
ENDTAB
  0
TABLE
  2
UCS
  5
7
330
0
100
AcDbSymbolTable
 70
     0
  0
ENDTAB
  0
TABLE
  2
APPID
  5
9
330
0
100
AcDbSymbolTable
 70
     1
  0
APPID
  5
12
330
9
100
AcDbSymbolTableRecord
100
AcDbRegAppTableRecord
  2
ACAD
 70
     0
  0
ENDTAB
  0
TABLE
  2
DIMSTYLE
  5
A
330
0
100
AcDbSymbolTable
 70
     3
100
AcDbDimStyleTable
  0
DIMSTYLE
105
27
330
A
100
AcDbSymbolTableRecord
100
AcDbDimStyleTableRecord
  2
ISO-25
 70
     0
 41
2.5
 42
0.625
 43
3.75
 44
1.25
 73
     0
 74
     0
 77
     1
 78
     8
140
2.5
141
2.5
143
0.0393700787
147
0.625
171
     3
172
     1
271
     2
272
     2
274
     3
278
    44
283
     0
284
     8
340
11
  0
DIMSTYLE
105
1CE
102
{ACAD_REACTORS
330
1CD
330
1E8
330
1F2
330
1FC
330
206
102
}
330
A
100
AcDbSymbolTableRecord
100
AcDbDimStyleTableRecord
  2
SLDDIMSTYLE0
 70
     0
 41
3.0
 44
0.0
 45
0.000000001
 73
     0
 74
     0
 77
     1
 78
    12
140
2.0
147
0.5
173
     1
271
     2
272
     3
284
    12
340
44
  0
DIMSTYLE
105
1DB
102
{ACAD_REACTORS
330
1DA
102
}
330
A
100
AcDbSymbolTableRecord
100
AcDbDimStyleTableRecord
  2
SLDDIMSTYLE1
 70
     0
 41
3.0
 44
0.0
 45
0.000000001
 73
     0
 74
     0
 77
     1
 78
    12
140
2.0
147
0.5
173
     1
271
     2
272
     3
284
    12
340
44
  0
ENDTAB
  0
TABLE
  2
BLOCK_RECORD
  5
1
330
0
100
AcDbSymbolTable
 70
     7
  0
BLOCK_RECORD
  5
1F
330
1
100
AcDbSymbolTableRecord
100
AcDbBlockTableRecord
  2
*Model_Space
340
22
  0
BLOCK_RECORD
  5
1B
330
1
100
AcDbSymbolTableRecord
100
AcDbBlockTableRecord
  2
*Paper_Space
340
1E
  0
BLOCK_RECORD
  5
23
330
1
100
AcDbSymbolTableRecord
100
AcDbBlockTableRecord
  2
*Paper_Space0
340
26
  0
BLOCK_RECORD
  5
1CF
330
1
100
AcDbSymbolTableRecord
100
AcDbBlockTableRecord
  2
*D1
340
0
  0
BLOCK_RECORD
  5
1DC
330
1
100
AcDbSymbolTableRecord
100
AcDbBlockTableRecord
  2
*D2
340
0
  0
BLOCK_RECORD
  5
1E9
330
1
100
AcDbSymbolTableRecord
100
AcDbBlockTableRecord
  2
*D3
340
0
  0
BLOCK_RECORD
  5
1F3
330
1
100
AcDbSymbolTableRecord
100
AcDbBlockTableRecord
  2
*D4
340
0
  0
BLOCK_RECORD
  5
1FD
330
1
100
AcDbSymbolTableRecord
100
AcDbBlockTableRecord
  2
*D5
340
0
  0
BLOCK_RECORD
  5
207
330
1
100
AcDbSymbolTableRecord
100
AcDbBlockTableRecord
  2
*D6
340
0
  0
ENDTAB
  0
ENDSEC
  0
SECTION
  2
BLOCKS
  0
BLOCK
  5
20
330
1F
100
AcDbEntity
  8
0
100
AcDbBlockBegin
  2
*Model_Space
 70
     0
 10
0.0
 20
0.0
 30
0.0
  3
*Model_Space
  1

  0
ENDBLK
  5
21
330
1F
100
AcDbEntity
  8
0
100
AcDbBlockEnd
  0
BLOCK
  5
1C
330
1B
100
AcDbEntity
 67
     1
  8
0
100
AcDbBlockBegin
  2
*Paper_Space
 70
     0
 10
0.0
 20
0.0
 30
0.0
  3
*Paper_Space
  1

  0
ENDBLK
  5
1D
330
1B
100
AcDbEntity
 67
     1
  8
0
100
AcDbBlockEnd
  0
BLOCK
  5
24
330
23
100
AcDbEntity
  8
0
100
AcDbBlockBegin
  2
*Paper_Space0
 70
     0
 10
0.0
 20
0.0
 30
0.0
  3
*Paper_Space0
  1

  0
ENDBLK
  5
25
330
23
100
AcDbEntity
  8
0
100
AcDbBlockEnd
  0
BLOCK
  5
1D0
330
1CF
100
AcDbEntity
  8
0
100
AcDbBlockBegin
  2
*D1
 70
     1
 10
0.0
 20
0.0
 30
0.0
  3
*D1
  1

  0
SOLID
  5
1D2
330
1CF
100
AcDbEntity
  8
VERMASSUNG
100
AcDbTrace
 10
77.8464692309
 20
143.3027632973
 30
0.0
 11
77.3964692309
 21
140.3027632973
 31
0.0
 12
78.2964692309
 22
140.3027632973
 32
0.0
 13
78.2964692309
 23
140.3027632973
 33
0.0
  0
SOLID
  5
1D3
330
1CF
100
AcDbEntity
  8
VERMASSUNG
100
AcDbTrace
 10
77.8464692309
 20
80.3027632973
 30
0.0
 11
78.2964692309
 21
83.3027632973
 31
0.0
 12
77.3964692309
 22
83.3027632973
 32
0.0
 13
77.3964692309
 23
83.3027632973
 33
0.0
  0
LINE
  5
1D4
330
1CF
100
AcDbEntity
  8
VERMASSUNG
100
AcDbLine
 10
117.4303467495
 20
143.3027632973
 30
0.0
 11
76.8464692309
 21
143.3027632973
 31
0.0
  0
LINE
  5
1D5
330
1CF
100
AcDbEntity
  8
VERMASSUNG
100
AcDbLine
 10
117.4303467495
 20
80.3027632973
 30
0.0
 11
76.8464692309
 21
80.3027632973
 31
0.0
  0
LINE
  5
1D6
330
1CF
100
AcDbEntity
  8
VERMASSUNG
100
AcDbLine
 10
77.8464692309
 20
143.3027632973
 30
0.0
 11
77.8464692309
 21
80.3027632973
 31
0.0
  0
MTEXT
  5
1D7
330
1CF
100
AcDbEntity
  8
VERMASSUNG
100
AcDbMText
 10
75.0683337419
 20
101.4271229703
 30
0.0
 40
2.0
 41
0.0
 71
     1
 72
     1
  1
HSK A 
  7
SLDTEXTSTYLE0
 11
-7.044195017643634E-15
 21
1.0
 31
0.0
 73
     1
 44
1.0
  0
MTEXT
  5
1D8
330
1CF
100
AcDbEntity
  8
VERMASSUNG
100
AcDbMText
 10
75.2683337514
 20
110.4271235142
 30
0.0
 40
2.0
 41
0.0
 71
     1
 72
     1
  1
%%c
  7
SLDTEXTSTYLE0
 11
-7.044195017643634E-15
 21
1.0
 31
0.0
 73
     1
 44
1.0
  0
MTEXT
  5
1D9
330
1CF
100
AcDbEntity
  8
VERMASSUNG
100
AcDbMText
 10
75.2683338678
 20
114.0354501643
 30
0.0
 40
2.0
 41
0.0
 71
     1
 72
     1
  1
63
  7
SLDTEXTSTYLE0
 11
-7.044195017643634E-15
 21
1.0
 31
0.0
 73
     1
 44
1.0
  0
ENDBLK
  5
1D1
330
1CF
100
AcDbEntity
  8
0
100
AcDbBlockEnd
  0
BLOCK
  5
1DD
330
1DC
100
AcDbEntity
  8
0
100
AcDbBlockBegin
  2
*D2
 70
     1
 10
0.0
 20
0.0
 30
0.0
  3
*D2
  1

  0
SOLID
  5
1DF
330
1DC
100
AcDbEntity
  8
VERMASSUNG
100
AcDbTrace
 10
222.0884268468
 20
114.8027632973
 30
0.0
 11
222.5384268468
 21
117.8027632973
 31
0.0
 12
221.6384268468
 22
117.8027632973
 32
0.0
 13
221.6384268468
 23
117.8027632973
 33
0.0
  0
SOLID
  5
1E0
330
1DC
100
AcDbEntity
  8
VERMASSUNG
100
AcDbTrace
 10
222.0884268468
 20
108.8027632973
 30
0.0
 11
221.6384268468
 21
105.8027632973
 31
0.0
 12
222.5384268468
 22
105.8027632973
 32
0.0
 13
222.5384268468
 23
105.8027632973
 33
0.0
  0
LINE
  5
1E1
330
1DC
100
AcDbEntity
  8
VERMASSUNG
100
AcDbLine
 10
216.8303467495
 20
114.8027632973
 30
0.0
 11
223.0884268468
 21
114.8027632973
 31
0.0
  0
LINE
  5
1E2
330
1DC
100
AcDbEntity
  8
VERMASSUNG
100
AcDbLine
 10
216.8303467495
 20
108.8027632973
 30
0.0
 11
223.0884268468
 21
108.8027632973
 31
0.0
  0
LINE
  5
1E3
330
1DC
100
AcDbEntity
  8
VERMASSUNG
100
AcDbLine
 10
222.0884268468
 20
114.8027632973
 30
0.0
 11
222.0884268468
 21
120.8027632973
 31
0.0
  0
LINE
  5
1E4
330
1DC
100
AcDbEntity
  8
VERMASSUNG
100
AcDbLine
 10
222.0884268468
 20
114.8027632973
 30
0.0
 11
222.0884268468
 21
108.8027632973
 31
0.0
  0
LINE
  5
1E5
330
1DC
100
AcDbEntity
  8
VERMASSUNG
100
AcDbLine
 10
222.0884268468
 20
108.8027632973
 30
0.0
 11
222.0884268468
 21
102.8027632973
 31
0.0
  0
MTEXT
  5
1E6
330
1DC
100
AcDbEntity
  8
VERMASSUNG
100
AcDbMText
 10
219.5102913673
 20
109.2987351283
 30
0.0
 40
2.0
 41
0.0
 71
     1
 72
     1
  1
%%c
  7
SLDTEXTSTYLE0
 11
-7.044195017643634E-15
 21
1.0
 31
0.0
 73
     1
 44
1.0
  0
MTEXT
  5
1E7
330
1DC
100
AcDbEntity
  8
VERMASSUNG
100
AcDbMText
 10
219.5102914837
 20
112.9074133515
 30
0.0
 40
2.0
 41
0.0
 71
     1
 72
     1
  1
6
  7
SLDTEXTSTYLE0
 11
-7.044195017643634E-15
 21
1.0
 31
0.0
 73
     1
 44
1.0
  0
ENDBLK
  5
1DE
330
1DC
100
AcDbEntity
  8
0
100
AcDbBlockEnd
  0
BLOCK
  5
1EA
330
1E9
100
AcDbEntity
  8
0
100
AcDbBlockBegin
  2
*D3
 70
     1
 10
0.0
 20
0.0
 30
0.0
  3
*D3
  1

  0
SOLID
  5
1EC
330
1E9
100
AcDbEntity
  8
VERMASSUNG
100
AcDbTrace
 10
143.0803467495
 20
145.5916636236
 30
0.0
 11
146.0803467495
 21
145.1416636236
 31
0.0
 12
146.0803467495
 22
146.0416636236
 32
0.0
 13
146.0803467495
 23
146.0416636236
 33
0.0
  0
SOLID
  5
1ED
330
1E9
100
AcDbEntity
  8
VERMASSUNG
100
AcDbTrace
 10
217.1303467495
 20
145.5916636236
 30
0.0
 11
214.1303467495
 21
146.0416636236
 31
0.0
 12
214.1303467495
 22
145.1416636236
 32
0.0
 13
214.1303467495
 23
145.1416636236
 33
0.0
  0
LINE
  5
1EE
330
1E9
100
AcDbEntity
  8
VERMASSUNG
100
AcDbLine
 10
143.0803467495
 20
141.6492036211
 30
0.0
 11
143.0803467495
 21
146.5916636236
 31
0.0
  0
LINE
  5
1EF
330
1E9
100
AcDbEntity
  8
VERMASSUNG
100
AcDbLine
 10
217.1303467495
 20
119.0286227757
 30
0.0
 11
217.1303467495
 21
146.5916636236
 31
0.0
  0
LINE
  5
1F0
330
1E9
100
AcDbEntity
  8
VERMASSUNG
100
AcDbLine
 10
143.0803467495
 20
145.5916636236
 30
0.0
 11
217.1303467495
 21
145.5916636236
 31
0.0
  0
MTEXT
  5
1F1
330
1E9
100
AcDbEntity
  8
VERMASSUNG
100
AcDbMText
 10
176.9062709099
 20
148.1697989867
 30
0.0
 40
2.0
 41
0.0
 71
     1
 72
     1
  1
74.05
  7
SLDTEXTSTYLE0
 73
     1
 44
1.0
  0
ENDBLK
  5
1EB
330
1E9
100
AcDbEntity
  8
0
100
AcDbBlockEnd
  0
BLOCK
  5
1F4
330
1F3
100
AcDbEntity
  8
0
100
AcDbBlockBegin
  2
*D4
 70
     1
 10
0.0
 20
0.0
 30
0.0
  3
*D4
  1

  0
SOLID
  5
1F6
330
1F3
100
AcDbEntity
  8
VERMASSUNG
100
AcDbTrace
 10
117.1303467495
 20
151.5916636236
 30
0.0
 11
120.1303467495
 21
151.1416636236
 31
0.0
 12
120.1303467495
 22
152.0416636236
 32
0.0
 13
120.1303467495
 23
152.0416636236
 33
0.0
  0
SOLID
  5
1F7
330
1F3
100
AcDbEntity
  8
VERMASSUNG
100
AcDbTrace
 10
217.1303467495
 20
151.5916636236
 30
0.0
 11
214.1303467495
 21
152.0416636236
 31
0.0
 12
214.1303467495
 22
151.1416636236
 32
0.0
 13
214.1303467495
 23
151.1416636236
 33
0.0
  0
LINE
  5
1F8
330
1F3
100
AcDbEntity
  8
VERMASSUNG
100
AcDbLine
 10
117.1303467495
 20
143.0027632973
 30
0.0
 11
117.1303467495
 21
152.5916636236
 31
0.0
  0
LINE
  5
1F9
330
1F3
100
AcDbEntity
  8
VERMASSUNG
100
AcDbLine
 10
217.1303467495
 20
119.0286227757
 30
0.0
 11
217.1303467495
 21
152.5916636236
 31
0.0
  0
LINE
  5
1FA
330
1F3
100
AcDbEntity
  8
VERMASSUNG
100
AcDbLine
 10
117.1303467495
 20
151.5916636236
 30
0.0
 11
217.1303467495
 21
151.5916636236
 31
0.0
  0
MTEXT
  5
1FB
330
1F3
100
AcDbEntity
  8
VERMASSUNG
100
AcDbMText
 10
165.2308592089
 20
154.1697989867
 30
0.0
 40
2.0
 41
0.0
 71
     1
 72
     1
  1
100
  7
SLDTEXTSTYLE0
 73
     1
 44
1.0
  0
ENDBLK
  5
1F5
330
1F3
100
AcDbEntity
  8
0
100
AcDbBlockEnd
  0
BLOCK
  5
1FE
330
1FD
100
AcDbEntity
  8
0
100
AcDbBlockBegin
  2
*D5
 70
     1
 10
0.0
 20
0.0
 30
0.0
  3
*D5
  1

  0
SOLID
  5
200
330
1FD
100
AcDbEntity
  8
VERMASSUNG
100
AcDbTrace
 10
85.2303467495
 20
157.5916636236
 30
0.0
 11
88.2303467495
 21
157.1416636236
 31
0.0
 12
88.2303467495
 22
158.0416636236
 32
0.0
 13
88.2303467495
 23
158.0416636236
 33
0.0
  0
SOLID
  5
201
330
1FD
100
AcDbEntity
  8
VERMASSUNG
100
AcDbTrace
 10
217.1303467495
 20
157.5916636236
 30
0.0
 11
214.1303467495
 21
158.0416636236
 31
0.0
 12
214.1303467495
 22
157.1416636236
 32
0.0
 13
214.1303467495
 23
157.1416636236
 33
0.0
  0
LINE
  5
202
330
1FD
100
AcDbEntity
  8
VERMASSUNG
100
AcDbLine
 10
85.2303467495
 20
131.4934410438
 30
0.0
 11
85.2303467495
 21
158.5916636236
 31
0.0
  0
LINE
  5
203
330
1FD
100
AcDbEntity
  8
VERMASSUNG
100
AcDbLine
 10
217.1303467495
 20
119.0286227757
 30
0.0
 11
217.1303467495
 21
158.5916636236
 31
0.0
  0
LINE
  5
204
330
1FD
100
AcDbEntity
  8
VERMASSUNG
100
AcDbLine
 10
85.2303467495
 20
157.5916636236
 30
0.0
 11
217.1303467495
 21
157.5916636236
 31
0.0
  0
MTEXT
  5
205
330
1FD
100
AcDbEntity
  8
VERMASSUNG
100
AcDbMText
 10
148.4813803357
 20
160.1697989867
 30
0.0
 40
2.0
 41
0.0
 71
     1
 72
     1
  1
131.9
  7
SLDTEXTSTYLE0
 73
     1
 44
1.0
  0
ENDBLK
  5
1FF
330
1FD
100
AcDbEntity
  8
0
100
AcDbBlockEnd
  0
BLOCK
  5
208
330
207
100
AcDbEntity
  8
0
100
AcDbBlockBegin
  2
*D6
 70
     1
 10
0.0
 20
0.0
 30
0.0
  3
*D6
  1

  0
SOLID
  5
20A
330
207
100
AcDbEntity
  8
VERMASSUNG
100
AcDbTrace
 10
228.0884268468
 20
126.8027632973
 30
0.0
 11
227.6384268468
 21
123.8027632973
 31
0.0
 12
228.5384268468
 22
123.8027632973
 32
0.0
 13
228.5384268468
 23
123.8027632973
 33
0.0
  0
SOLID
  5
20B
330
207
100
AcDbEntity
  8
VERMASSUNG
100
AcDbTrace
 10
228.0884268468
 20
96.8027632973
 30
0.0
 11
228.5384268468
 21
99.8027632973
 31
0.0
 12
227.6384268468
 22
99.8027632973
 32
0.0
 13
227.6384268468
 23
99.8027632973
 33
0.0
  0
LINE
  5
20C
330
207
100
AcDbEntity
  8
VERMASSUNG
100
AcDbLine
 10
203.1910517662
 20
126.8027632973
 30
0.0
 11
229.0884268468
 21
126.8027632973
 31
0.0
  0
LINE
  5
20D
330
207
100
AcDbEntity
  8
VERMASSUNG
100
AcDbLine
 10
203.1910517662
 20
96.8027632973
 30
0.0
 11
229.0884268468
 21
96.8027632973
 31
0.0
  0
LINE
  5
20E
330
207
100
AcDbEntity
  8
VERMASSUNG
100
AcDbLine
 10
228.0884268468
 20
126.8027632973
 30
0.0
 11
228.0884268468
 21
96.8027632973
 31
0.0
  0
MTEXT
  5
20F
330
207
100
AcDbEntity
  8
VERMASSUNG
100
AcDbMText
 10
225.5102913673
 20
108.5990460709
 30
0.0
 40
2.0
 41
0.0
 71
     1
 72
     1
  1
%%c
  7
SLDTEXTSTYLE0
 11
-7.044195017643634E-15
 21
1.0
 31
0.0
 73
     1
 44
1.0
  0
MTEXT
  5
210
330
207
100
AcDbEntity
  8
VERMASSUNG
100
AcDbMText
 10
225.5102914837
 20
112.2077242941
 30
0.0
 40
2.0
 41
0.0
 71
     1
 72
     1
  1
30
  7
SLDTEXTSTYLE0
 11
-7.044195017643634E-15
 21
1.0
 31
0.0
 73
     1
 44
1.0
  0
ENDBLK
  5
209
330
207
100
AcDbEntity
  8
0
100
AcDbBlockEnd
  0
ENDSEC
  0
SECTION
  2
ENTITIES
  0
MTEXT
  5
45
330
1F
100
AcDbEntity
  8
KOPF_DÜNN
100
AcDbMText
 10
13.8892156294
 20
23.8442973028
 30
0.0
 40
3.0
 41
0.0
 71
     1
 72
     1
  1
HA6.W06.K21.100
  7
SLDTEXTSTYLE0
 73
     1
 44
1.0
  0
MTEXT
  5
46
330
1F
100
AcDbEntity
  8
VERMASSUNG
100
AcDbMText
 10
13.9329988022
 20
28.8834360957
 30
0.0
 40
3.0
 41
0.0
 71
     1
 72
     1
  1
Flächenspannfutter_End mill adapter Weldon ø6
  7
SLDTEXTSTYLE0
 73
     1
 44
1.0
  0
MTEXT
  5
47
330
1F
100
AcDbEntity
  8
VERMASSUNG
100
AcDbMText
 10
98.8601118557
 20
13.8365368179
 30
0.0
 40
2.0
 41
0.0
 71
     1
 72
     1
  1
Datum: 09.10.2006
  7
SLDTEXTSTYLE0
 73
     1
 44
1.0
  0
MTEXT
  5
49
330
1F
100
AcDbEntity
  8
VERMASSUNG
100
AcDbMText
 10
13.933048693
 20
18.0482802738
 30
0.0
 40
2.0
 41
0.0
 71
     1
 72
     1
  1
DIN 69 893 HSK A 63
  7
SLDTEXTSTYLE1
 73
     1
 44
1.0
  0
MTEXT
  5
4A
330
1F
100
AcDbEntity
  8
VERMASSUNG
100
AcDbMText
 10
13.9808475933
 20
13.9090973692
 30
0.0
 40
2.0
 41
0.0
 71
     1
 72
     1
  1
Gewicht: 1013g
  7
SLDTEXTSTYLE0
 73
     1
 44
1.0
  0
LINE
  5
4B
330
1F
100
AcDbEntity
  8
0
  6
Continuous
 62
     7
370
    15
100
AcDbLine
 10
217.1502125634
 20
117.0866337289
 30
0.0
 11
217.1303467495
 21
117.1234203227
 31
0.0
  0
LINE
  5
4C
330
1F
100
AcDbEntity
  8
0
  6
Continuous
 62
     7
370
    15
100
AcDbLine
 10
217.1303467495
 20
106.3999634991
 30
0.0
 11
217.1952476851
 21
106.5201440451
 31
0.0
  0
ARC
  5
4D
330
1F
100
AcDbEntity
  8
0
  6
Continuous
 62
     7
370
    15
100
AcDbCircle
 10
117.4303467495
 20
80.6027632973
 30
0.0
 40
0.3000000000000114
100
AcDbArc
 50
180.0
 51
270.0
  0
ARC
  5
4E
330
1F
100
AcDbEntity
  8
0
  6
Continuous
 62
     7
370
    15
100
AcDbCircle
 10
117.4303467495
 20
143.0027632973
 30
0.0
 40
0.3000000000000114
100
AcDbArc
 50
90.0
 51
180.0
  0
LINE
  5
4F
330
1F
100
AcDbEntity
  8
0
  6
Continuous
 62
     7
370
    15
100
AcDbLine
 10
117.4303467495
 20
80.3027632973
 30
0.0
 11
122.0803467495
 21
80.3027632973
 31
0.0
  0
LINE
  5
50
330
1F
100
AcDbEntity
  8
0
  6
Continuous
 62
     7
370
    15
100
AcDbLine
 10
122.1083351086
 20
143.3027632973
 30
0.0
 11
117.4303467495
 21
143.3027632973
 31
0.0
  0
ARC
  5
51
330
1F
100
AcDbEntity
  8
0
  6
Continuous
 62
     7
370
    15
100
AcDbCircle
 10
116.6303399969
 20
87.2323256829
 30
0.0
 40
0.6000067526677164
100
AcDbArc
 50
33.5571153394
 51
90.0
  0
ARC
  5
52
330
1F
100
AcDbEntity
  8
0
  6
Continuous
 62
     7
370
    15
100
AcDbCircle
 10
116.6303399969
 20
136.3732009117
 30
0.0
 40
0.6000067526677242
100
AcDbArc
 50
270.0
 51
326.4428846606
  0
LINE
  5
53
330
1F
100
AcDbEntity
  8
0
  6
Continuous
 62
     7
370
    15
100
AcDbLine
 10
103.8988379507
 20
135.4604933174
 30
0.0
 11
91.3303467495
 21
134.8308093895
 31
0.0
  0
LINE
  5
54
330
1F
100
AcDbEntity
  8
0
  6
Continuous
 62
     7
370
    15
100
AcDbLine
 10
115.1303467495
 20
136.0231941591
 30
0.0
 11
112.3133450922
 21
135.8820618115
 31
0.0
  0
LINE
  5
55
330
1F
100
AcDbEntity
  8
0
  6
Continuous
 62
     7
370
    15
100
AcDbLine
 10
112.3134011822
 20
87.7234619731
 30
0.0
 11
115.1303467495
 21
87.5823324356
 31
0.0
  0
LINE
  5
56
330
1F
100
AcDbEntity
  8
0
  6
Continuous
 62
     7
370
    15
100
AcDbLine
 10
95.3303467495
 20
88.5743164035
 30
0.0
 11
103.8992404694
 21
88.145013111
 31
0.0
  0
LINE
  5
57
330
1F
100
AcDbEntity
  8
0
  6
Continuous
 62
     7
370
    15
100
AcDbLine
 10
115.1303467495
 20
87.5823324356
 30
0.0
 11
115.9870595229
 21
87.8118879314
 31
0.0
  0
LINE
  5
58
330
1F
100
AcDbEntity
  8
0
  6
Continuous
 62
     7
370
    15
100
AcDbLine
 10
115.9870595229
 20
135.7936386633
 30
0.0
 11
115.1303467495
 21
136.0231941591
 31
0.0
  0
ARC
  5
59
330
1F
100
AcDbEntity
  8
0
  6
Continuous
 62
     7
370
    15
100
AcDbCircle
 10
116.14235095
 20
87.2323324356
 30
0.0
 40
0.6000000000000071
100
AcDbArc
 50
90.0
 51
105.0
  0
ARC
  5
5A
330
1F
100
AcDbEntity
  8
0
  6
Continuous
 62
     7
370
    15
100
AcDbCircle
 10
116.14235095
 20
136.3731941591
 30
0.0
 40
0.6000000000000227
100
AcDbArc
 50
255.0
 51
270.0
  0
LINE
  5
5B
330
1F
100
AcDbEntity
  8
0
  6
Continuous
 62
     7
370
    15
100
AcDbLine
 10
116.14235095
 20
87.8323324356
 30
0.0
 11
116.6303399969
 21
87.8323324356
 31
0.0
  0
LINE
  5
5C
330
1F
100
AcDbEntity
  8
0
  6
Continuous
 62
     7
370
    15
100
AcDbLine
 10
116.6303399969
 20
135.7731941591
 30
0.0
 11
116.14235095
 21
135.7731941591
 31
0.0
  0
ARC
  5
5D
330
1F
100
AcDbEntity
  8
0
  6
Continuous
 62
     7
370
    15
100
AcDbCircle
 10
146.0803467495
 20
90.7868044958
 30
0.0
 40
3.000000000000003
100
AcDbArc
 50
104.3250519401
 51
180.0
  0
ARC
  5
5E
330
1F
100
AcDbEntity
  8
0
  6
Continuous
 62
     7
370
    15
100
AcDbCircle
 10
146.0803467495
 20
132.8187220988
 30
0.0
 40
3.0
100
AcDbArc
 50
180.0
 51
255.6749480599
  0
ARC
  5
5F
330
1F
100
AcDbEntity
  8
0
  6
Continuous
 62
     7
370
    15
100
AcDbCircle
 10
170.0803467495
 20
-3.1972367027
 30
0.0
 40
100.0
100
AcDbArc
 50
90.0
 51
104.3250519401
  0
ARC
  5
60
330
1F
100
AcDbEntity
  8
0
  6
Continuous
 62
     7
370
    15
100
AcDbCircle
 10
170.0803467495
 20
226.8027632973
 30
0.0
 40
100.0
100
AcDbArc
 50
255.6749480599
 51
270.0
  0
LINE
  5
61
330
1F
100
AcDbEntity
  8
0
  6
Continuous
 62
     7
370
    15
100
AcDbLine
 10
182.5793341258
 20
96.8027632973
 30
0.0
 11
203.1910517662
 21
96.8027632973
 31
0.0
  0
LINE
  5
62
330
1F
100
AcDbEntity
  8
0
  6
Continuous
 62
     7
370
    15
100
AcDbLine
 10
170.0803467495
 20
96.8027632973
 30
0.0
 11
175.585197118
 21
96.8027632973
 31
0.0
  0
LINE
  5
63
330
1F
100
AcDbEntity
  8
0
  6
Continuous
 62
     7
370
    15
100
AcDbLine
 10
175.5814736374
 20
126.8027632973
 30
0.0
 11
170.0803467495
 21
126.8027632973
 31
0.0
  0
LINE
  5
64
330
1F
100
AcDbEntity
  8
0
  6
Continuous
 62
     7
370
    15
100
AcDbLine
 10
203.1910517662
 20
126.8027632973
 30
0.0
 11
182.5705845899
 21
126.8027632973
 31
0.0
  0
LINE
  5
65
330
1F
100
AcDbEntity
  8
0
  6
Continuous
 62
     7
370
    15
100
AcDbLine
 10
203.1910517662
 20
96.8027632973
 30
0.0
 11
215.975583273
 21
102.7642882449
 31
0.0
  0
LINE
  5
66
330
1F
100
AcDbEntity
  8
0
  6
Continuous
 62
     7
370
    15
100
AcDbLine
 10
215.975583273
 20
120.8412383498
 30
0.0
 11
203.1910517662
 21
126.8027632973
 31
0.0
  0
LINE
  5
67
330
1F
100
AcDbEntity
  8
0
  6
Continuous
 62
     7
370
    15
100
AcDbLine
 10
86.5136833895
 20
90.9327632973
 30
0.0
 11
93.9303467495
 21
90.9327632973
 31
0.0
  0
ARC
  5
68
330
1F
100
AcDbEntity
  8
0
  6
Continuous
 62
     7
370
    15
100
AcDbCircle
 10
93.9303467495
 20
89.5327632973
 30
0.0
 40
1.400000000000006
100
AcDbArc
 50
42.2465410162
 51
90.0
  0
LINE
  5
69
330
1F
100
AcDbEntity
  8
0
  6
Continuous
 62
     7
370
    15
100
AcDbLine
 10
85.2415071846
 20
92.0716028622
 30
0.0
 11
86.3715102077
 21
90.9415998392
 31
0.0
  0
LINE
  5
6A
330
1F
100
AcDbEntity
  8
0
  6
Continuous
 62
     7
370
    15
100
AcDbLine
 10
86.3715102077
 20
132.6639267555
 30
0.0
 11
85.2402475229
 21
131.5326640707
 31
0.0
  0
ARC
  5
6B
330
1F
100
AcDbEntity
  8
0
  6
Continuous
 62
     7
370
    15
100
AcDbCircle
 10
89.9303467495
 20
134.0727632973
 30
0.0
 40
1.399999999999984
100
AcDbArc
 50
270.0
 51
301.7485287426
  0
LINE
  5
6C
330
1F
100
AcDbEntity
  8
0
  6
Continuous
 62
     7
370
    15
100
AcDbLine
 10
89.9303467495
 20
132.6727632973
 30
0.0
 11
86.5046124834
 21
132.6727632973
 31
0.0
  0
ARC
  5
6D
330
1F
100
AcDbEntity
  8
0
  6
Continuous
 62
     7
370
    15
100
AcDbCircle
 10
215.1303467495
 20
104.576903819
 30
0.0
 40
2.000000000000014
100
AcDbArc
 50
295.0
 51
0.0
  0
ARC
  5
6E
330
1F
100
AcDbEntity
  8
0
  6
Continuous
 62
     7
370
    15
100
AcDbCircle
 10
215.1303467495
 20
119.0286227757
 30
0.0
 40
2.000000000000014
100
AcDbArc
 50
0.0
 51
65.0
  0
LINE
  5
6F
330
1F
100
AcDbEntity
  8
0
  6
Continuous
 62
     7
370
    15
100
AcDbLine
 10
198.9531224391
 20
110.2085966707
 30
0.0
 11
197.9111457978
 21
111.5921734409
 31
0.0
  0
LINE
  5
70
330
1F
100
AcDbEntity
  8
0
  6
Continuous
 62
     7
370
    15
100
AcDbLine
 10
200.6723233908
 20
110.4191865272
 30
0.0
 11
201.3495477012
 21
112.0133531538
 31
0.0
  0
CIRCLE
  5
71
330
1F
100
AcDbEntity
  8
0
  6
Continuous
 62
     7
370
    15
100
AcDbCircle
 10
199.6303467495
 20
111.8027632973
 30
0.0
 40
2.499999999999964
  0
LINE
  5
72
330
1F
100
AcDbEntity
  8
0
  6
Continuous
 62
     7
370
    15
100
AcDbLine
 10
200.3075710599
 20
113.396929924
 30
0.0
 11
198.5883701082
 21
113.1863400675
 31
0.0
  0
LINE
  5
73
330
1F
100
AcDbEntity
  8
0
  6
Continuous
 62
     7
370
    15
100
AcDbLine
 10
200.3075710599
 20
113.396929924
 30
0.0
 11
201.3495477012
 21
112.0133531538
 31
0.0
  0
LINE
  5
74
330
1F
100
AcDbEntity
  8
0
  6
Continuous
 62
     7
370
    15
100
AcDbLine
 10
198.5883701082
 20
113.1863400675
 30
0.0
 11
197.9111457978
 21
111.5921734409
 31
0.0
  0
LINE
  5
75
330
1F
100
AcDbEntity
  8
0
  6
Continuous
 62
     7
370
    15
100
AcDbLine
 10
200.6723233908
 20
110.4191865272
 30
0.0
 11
198.9531224391
 21
110.2085966707
 31
0.0
  0
LWPOLYLINE
  5
76
330
1F
100
AcDbEntity
  8
0
  6
Continuous
 62
     7
370
    15
100
AcDbPolyline
 90
        9
 70
   128
 43
0.0
 10
217.1303467495
 20
115.3343210524
 10
217.1305069714
 20
115.3382041474
 10
217.1457759848
 20
115.7704682501
 10
217.1568556435
 20
116.216047772
 10
217.1622495781
 20
116.6147647296
 10
217.161229308
 20
116.9127701884
 10
217.1539326263
 20
117.06981686
 10
217.1413449902
 20
117.064694721
 10
217.1303467495
 20
116.9649577716
  0
LINE
  5
77
330
1F
100
AcDbEntity
  8
0
  6
Continuous
 62
     7
370
    15
100
AcDbLine
 10
217.1447683038
 20
116.6969609951
 30
0.0
 11
217.1303467495
 21
116.5995326244
 31
0.0
  0
LINE
  5
78
330
1F
100
AcDbEntity
  8
0
  6
Continuous
 62
     7
370
    15
100
AcDbLine
 10
217.1435995981
 20
116.063917164
 30
0.0
 11
217.1303467495
 21
115.6983264381
 31
0.0
  0
LINE
  5
79
330
1F
100
AcDbEntity
  8
0
  6
Continuous
 62
     7
370
    15
100
AcDbLine
 10
217.1435995981
 20
116.063917164
 30
0.0
 11
217.1447683038
 21
116.6969609951
 31
0.0
  0
LINE
  5
7A
330
1F
100
AcDbEntity
  8
0
  6
Continuous
 62
     7
370
    15
100
AcDbLine
 10
217.1303467495
 20
116.0642853586
 30
0.0
 11
217.1435995981
 21
116.063917164
 31
0.0
  0
LINE
  5
7B
330
1F
100
AcDbEntity
  8
0
  6
Continuous
 62
     7
370
    15
100
AcDbLine
 10
217.2012546086
 20
106.560346553
 30
0.0
 11
217.1952476851
 21
106.5201440451
 31
0.0
  0
ARC
  5
7C
330
1F
100
AcDbEntity
  8
0
  6
Continuous
 62
     7
370
    15
100
AcDbCircle
 10
195.4065254594
 20
107.1076599741
 30
0.0
 40
21.80160018597278
100
AcDbArc
 50
358.5614797257
 51
4.841205646
  0
LINE
  5
7D
330
1F
100
AcDbEntity
  8
0
  6
Continuous
 62
     7
370
    15
100
AcDbLine
 10
133.2203467495
 20
84.3049261383
 30
0.0
 11
133.2203467495
 21
131.6527632973
 31
0.0
  0
SPLINE
  5
7E
330
1F
100
AcDbEntity
  8
0
  6
Continuous
 62
     7
370
    15
100
AcDbSpline
210
0.0
220
0.0
230
1.0
 70
     8
 71
     3
 72
     8
 73
     4
 74
     0
 42
0.00000001
 43
0.00000001
 40
0.0
 40
0.0
 40
0.0
 40
0.0
 40
1.0
 40
1.0
 40
1.0
 40
1.0
 10
133.2203467495182
 20
84.30492613828103
 30
0.0
 10
132.728007626737
 20
83.40765610407433
 30
0.0
 10
132.2338935786949
 20
82.51137168902208
 30
0.0
 10
131.7384139180292
 20
81.61584560108872
 30
0.0
  0
LINE
  5
7F
330
1F
100
AcDbEntity
  8
0
  6
Continuous
 62
     7
370
    15
100
AcDbLine
 10
131.738413918
 20
81.6158456011
 30
0.0
 11
131.738413918
 21
131.6527632973
 31
0.0
  0
SPLINE
  5
80
330
1F
100
AcDbEntity
  8
0
  6
Continuous
 62
     7
370
    15
100
AcDbSpline
210
0.0
220
0.0
230
1.0
 70
    24
 71
     3
 72
     8
 73
     4
 74
     0
 42
0.00000001
 43
0.00000001
 40
0.0
 40
0.0
 40
0.0
 40
0.0
 40
1.0
 40
1.0
 40
1.0
 40
1.0
 10
131.7384139180291
 20
131.6527632973359
 30
0.0
 10
132.2450940261797
 20
131.6527632973359
 30
0.0
 10
132.7403947551533
 20
131.6527632973359
 30
0.0
 10
133.2203467495182
 20
131.6527632973359
 30
0.0
  0
LINE
  5
81
330
1F
100
AcDbEntity
  8
0
  6
Continuous
 62
     7
370
    15
100
AcDbLine
 10
117.1303467495
 20
80.6027632973
 30
0.0
 11
117.1303467495
 21
143.0027632968
 31
0.0
  0
LINE
  5
82
330
1F
100
AcDbEntity
  8
0
  6
Continuous
 62
     7
370
    15
100
AcDbLine
 10
143.0803467495
 20
82.2424858967
 30
0.0
 11
143.0803467495
 21
131.6527632973
 31
0.0
  0
SPLINE
  5
83
330
1F
100
AcDbEntity
  8
0
  6
Continuous
 62
     7
370
    15
100
AcDbSpline
210
0.0
220
0.0
230
1.0
 70
     8
 71
     3
 72
    10
 73
     6
 74
     0
 42
0.00000001
 43
0.00000001
 40
0.0
 40
0.0
 40
0.0
 40
0.0
 40
0.5
 40
0.5
 40
1.0
 40
1.0
 40
1.0
 40
1.0
 10
143.0803467495182
 20
82.24248589674305
 30
0.0
 10
143.0803467495182
 20
82.08259862854939
 30
0.0
 10
143.0190370982824
 20
81.92147137303478
 30
0.0
 10
142.7999374607473
 20
81.68737237467995
 30
0.0
 10
142.6418892544338
 20
81.61584560108872
 30
0.0
 10
142.4803467495182
 20
81.61584560108872
 30
0.0
  0
SPLINE
  5
84
330
1F
100
AcDbEntity
  8
0
  6
Continuous
 62
     7
370
    15
100
AcDbSpline
210
0.0
220
0.0
230
1.0
 70
    24
 71
     3
 72
    12
 73
     8
 74
     0
 42
0.00000001
 43
0.00000001
 40
0.0
 40
0.0
 40
0.0
 40
0.0
 40
0.2500000000000033
 40
0.2500000000000033
 40
0.5000000000000067
 40
0.5000000000000067
 40
1.0
 40
1.0
 40
1.0
 40
1.0
 10
142.4803467495182
 20
131.6527632973359
 30
0.0
 10
142.5705858172053
 20
131.6527632973359
 30
0.0
 10
142.6614839313117
 20
131.6527632973359
 30
0.0
 10
142.8160809678003
 20
131.6527632973359
 30
0.0
 10
142.8810593839084
 20
131.6527632973359
 30
0.0
 10
143.0328944118446
 20
131.6527632973359
 30
0.0
 10
143.0803467495182
 20
131.6527632973359
 30
0.0
 10
143.0803467495182
 20
131.6527632973359
 30
0.0
  0
LINE
  5
85
330
1F
100
AcDbEntity
  8
0
  6
Continuous
 62
     7
370
    15
100
AcDbLine
 10
138.522279581
 20
81.6158456011
 30
0.0
 11
138.522279581
 21
131.6527632973
 31
0.0
  0
SPLINE
  5
86
330
1F
100
AcDbEntity
  8
0
  6
Continuous
 62
     7
370
    15
100
AcDbSpline
210
0.0
220
0.0
230
1.0
 70
     8
 71
     3
 72
     8
 73
     4
 74
     0
 42
0.00000001
 43
0.00000001
 40
0.0
 40
0.0
 40
0.0
 40
0.0
 40
1.0
 40
1.0
 40
1.0
 40
1.0
 10
138.5222795810073
 20
81.61584560108872
 30
0.0
 10
138.0267999203415
 20
82.51137168902208
 30
0.0
 10
137.5326858722994
 20
83.40765610407435
 30
0.0
 10
137.0403467495182
 20
84.30492613828105
 30
0.0
  0
LINE
  5
87
330
1F
100
AcDbEntity
  8
0
  6
Continuous
 62
     7
370
    15
100
AcDbLine
 10
137.0403467495
 20
84.3049261383
 30
0.0
 11
137.0403467495
 21
131.6527632973
 31
0.0
  0
SPLINE
  5
88
330
1F
100
AcDbEntity
  8
0
  6
Continuous
 62
     7
370
    15
100
AcDbSpline
210
0.0
220
0.0
230
1.0
 70
    24
 71
     3
 72
     8
 73
     4
 74
     0
 42
0.00000001
 43
0.00000001
 40
0.0
 40
0.0
 40
0.0
 40
0.0
 40
1.0
 40
1.0
 40
1.0
 40
1.0
 10
137.0403467495182
 20
131.6527632973359
 30
0.0
 10
137.5202987438831
 20
131.6527632973359
 30
0.0
 10
138.0155994728567
 20
131.6527632973359
 30
0.0
 10
138.5222795810073
 20
131.6527632973359
 30
0.0
  0
LINE
  5
89
330
1F
100
AcDbEntity
  8
0
  6
Continuous
 62
     7
370
    15
100
AcDbLine
 10
142.4803467495
 20
81.6158456011
 30
0.0
 11
138.522279581
 21
81.6158456011
 31
0.0
  0
LINE
  5
8A
330
1F
100
AcDbEntity
  8
0
  6
Continuous
 62
     7
370
    15
100
AcDbLine
 10
138.522279581
 20
131.6527632973
 30
0.0
 11
142.4803467495
 21
131.6527632973
 31
0.0
  0
SPLINE
  5
8B
330
1F
100
AcDbEntity
  8
0
  6
Continuous
 62
     7
370
    15
100
AcDbSpline
210
0.0
220
0.0
230
1.0
 70
     8
 71
     3
 72
    70
 73
    66
 74
     0
 42
0.00000001
 43
0.00000001
 40
-0.03125
 40
-0.03125
 40
0.0
 40
0.0
 40
0.0312500000000002
 40
0.0312500000000002
 40
0.0625000000000004
 40
0.0625000000000004
 40
0.0937500000000005
 40
0.0937500000000005
 40
0.1250000000000007
 40
0.1250000000000007
 40
0.1562500000000009
 40
0.1562500000000009
 40
0.1875000000000011
 40
0.1875000000000011
 40
0.2187500000000013
 40
0.2187500000000013
 40
0.2500000000000014
 40
0.2500000000000014
 40
0.2812500000000014
 40
0.2812500000000014
 40
0.3125000000000014
 40
0.3125000000000014
 40
0.3437500000000015
 40
0.3437500000000015
 40
0.3750000000000015
 40
0.3750000000000015
 40
0.4062500000000015
 40
0.4062500000000015
 40
0.4375000000000015
 40
0.4375000000000015
 40
0.4687500000000016
 40
0.4687500000000016
 40
0.5000000000000016
 40
0.5000000000000016
 40
0.5312500000000014
 40
0.5312500000000014
 40
0.5625000000000012
 40
0.5625000000000012
 40
0.5937500000000011
 40
0.5937500000000011
 40
0.6250000000000009
 40
0.6250000000000009
 40
0.6562500000000008
 40
0.6562500000000008
 40
0.6875000000000007
 40
0.6875000000000007
 40
0.7187500000000004
 40
0.7187500000000004
 40
0.7500000000000003
 40
0.7500000000000003
 40
0.7812500000000003
 40
0.7812500000000003
 40
0.8125000000000002
 40
0.8125000000000002
 40
0.8437500000000002
 40
0.8437500000000002
 40
0.8750000000000001
 40
0.8750000000000001
 40
0.9062500000000001
 40
0.9062500000000001
 40
0.9375000000000001
 40
0.9375000000000001
 40
0.96875
 40
0.96875
 40
1.0
 40
1.0
 40
1.03125
 40
1.03125
 10
124.8658014108581
 20
136.8617266921151
 30
0.0
 10
125.3948920881784
 20
136.861726692115
 30
0.0
 10
125.6549627555555
 20
136.8776271325299
 30
0.0
 10
126.1665374353909
 20
136.9395714827041
 30
0.0
 10
126.4207127191311
 20
136.9863737167954
 30
0.0
 10
126.9049833491928
 20
137.1073507002505
 30
0.0
 10
127.1346244410739
 20
137.1809530280573
 30
0.0
 10
127.5692287893074
 20
137.3527772990354
 30
0.0
 10
127.774794565954
 20
137.4517807219629
 30
0.0
 10
128.1433517065493
 20
137.6648771358757
 30
0.0
 10
128.3088326892847
 20
137.7797768520054
 30
0.0
 10
128.6012571987199
 20
138.0251437506957
 30
0.0
 10
128.7253581753464
 20
138.1535836511659
 30
0.0
 10
128.9249373720961
 20
138.4144757992519
 30
0.0
 10
129.0018709579543
 20
138.5488569705913
 30
0.0
 10
129.1047280164747
 20
138.8181769216976
 30
0.0
 10
129.1302009259338
 20
138.9508581859158
 30
0.0
 10
129.1304913365016
 20
139.2120446600468
 30
0.0
 10
129.1044667027259
 20
139.3418096982116
 30
0.0
 10
129.0023184182339
 20
139.5873923324842
 30
0.0
 10
128.9267419706507
 20
139.7040538697931
 30
0.0
 10
128.7262444395058
 20
139.9259590599476
 30
0.0
 10
128.6011155979974
 20
140.0305703138706
 30
0.0
 10
128.3117567969758
 20
140.2206167254787
 30
0.0
 10
128.1463458099203
 20
140.3073763969284
 30
0.0
 10
127.7733552517725
 20
140.4648807726799
 30
0.0
 10
127.5716222186834
 20
140.5332060374672
 30
0.0
 10
127.1387629678556
 20
140.6514357610864
 30
0.0
 10
126.9048444349662
 20
140.7017306771902
 30
0.0
 10
126.4206606998236
 20
140.7815962140799
 30
0.0
 10
126.1713450738681
 20
140.8113373418794
 30
0.0
 10
125.6583125494403
 20
140.8514900833877
 30
0.0
 10
125.3930187265357
 20
140.8616883527975
 30
0.0
 10
124.8706841066659
 20
140.8617648111822
 30
0.0
 10
124.6109304441842
 20
140.8519737995732
 30
0.0
 10
124.094318628539
 20
140.8119069608344
 30
0.0
 10
123.8419525880387
 20
140.7818097939776
 30
0.0
 10
123.3604274665059
 20
140.7025875841474
 30
0.0
 10
123.1275767343923
 20
140.6528301046841
 30
0.0
 10
122.6904868859535
 20
140.5337381622336
 30
0.0
 10
122.4891658972964
 20
140.4654229006864
 30
0.0
 10
122.1200798719965
 20
140.3100219337528
 30
0.0
 10
121.9510951209448
 20
140.2218695916859
 30
0.0
 10
121.6606390642855
 20
140.0314302025696
 30
0.0
 10
121.5375672529234
 20
139.9288056248705
 30
0.0
 10
121.3362310115014
 20
139.7071652782624
 30
0.0
 10
121.2590184655592
 20
139.5884112027149
 30
0.0
 10
121.1568149226591
 20
139.3437452637972
 30
0.0
 10
121.1305865712068
 20
139.2165885383487
 30
0.0
 10
121.1301101718897
 20
138.9521403924931
 30
0.0
 10
121.1558525843876
 20
138.8192397122359
 30
0.0
 10
121.2571633607515
 20
138.5524474387539
 30
0.0
 10
121.3339960001424
 20
138.4170835372853
 30
0.0
 10
121.5343998393576
 20
138.1545037419828
 30
0.0
 10
121.6570713376497
 20
138.027528582229
 30
0.0
 10
121.9470186268139
 20
137.7834491961466
 30
0.0
 10
122.1155896061791
 20
137.6660240713927
 30
0.0
 10
122.4838592002923
 20
137.4528276104443
 30
0.0
 10
122.6849210575626
 20
137.3556534920194
 30
0.0
 10
123.1219519761475
 20
137.1822986048053
 30
0.0
 10
123.3541001892771
 20
137.1078990531485
 30
0.0
 10
123.835110470776
 20
136.9874461736439
 30
0.0
 10
124.0872105536064
 20
136.9405877983779
 30
0.0
 10
124.6042800398654
 20
136.8776303013942
 30
0.0
 10
124.8658014108581
 20
136.8617266921151
 30
0.0
 10
125.3948920881784
 20
136.861726692115
 30
0.0
  0
SPLINE
  5
8C
330
1F
100
AcDbEntity
  8
0
  6
Continuous
 62
     7
370
    15
100
AcDbSpline
210
0.0
220
0.0
230
1.0
 70
     8
 71
     3
 72
    70
 73
    66
 74
     0
 42
0.00000001
 43
0.00000001
 40
-0.0312499999999998
 40
-0.0312499999999998
 40
0.0
 40
0.0
 40
0.0312500000000001
 40
0.0312500000000001
 40
0.0625000000000002
 40
0.0625000000000002
 40
0.0937500000000003
 40
0.0937500000000003
 40
0.1250000000000004
 40
0.1250000000000004
 40
0.1562500000000005
 40
0.1562500000000005
 40
0.1875000000000006
 40
0.1875000000000006
 40
0.2187500000000007
 40
0.2187500000000007
 40
0.2500000000000008
 40
0.2500000000000008
 40
0.2812500000000009
 40
0.2812500000000009
 40
0.3125000000000011
 40
0.3125000000000011
 40
0.3437500000000012
 40
0.3437500000000012
 40
0.3750000000000012
 40
0.3750000000000012
 40
0.4062500000000013
 40
0.4062500000000013
 40
0.4375000000000014
 40
0.4375000000000014
 40
0.4687500000000016
 40
0.4687500000000016
 40
0.5000000000000017
 40
0.5000000000000017
 40
0.5312500000000018
 40
0.5312500000000018
 40
0.5625000000000019
 40
0.5625000000000019
 40
0.593750000000002
 40
0.593750000000002
 40
0.6250000000000021
 40
0.6250000000000021
 40
0.6562500000000022
 40
0.6562500000000022
 40
0.6875000000000023
 40
0.6875000000000023
 40
0.7187500000000021
 40
0.7187500000000021
 40
0.7500000000000018
 40
0.7500000000000018
 40
0.7812500000000016
 40
0.7812500000000016
 40
0.8125000000000013
 40
0.8125000000000013
 40
0.8437500000000011
 40
0.8437500000000011
 40
0.8750000000000009
 40
0.8750000000000009
 40
0.9062500000000007
 40
0.9062500000000007
 40
0.9375000000000004
 40
0.9375000000000004
 40
0.9687500000000002
 40
0.9687500000000002
 40
1.0
 40
1.0
 40
1.03125
 40
1.03125
 10
124.8658014108581
 20
122.4236701833192
 30
0.0
 10
125.3948920881784
 20
122.4236701833192
 30
0.0
 10
125.6549627555555
 20
122.4483474781044
 30
0.0
 10
126.1665374353909
 20
122.5448191511463
 30
0.0
 10
126.420712719131
 20
122.6178000671264
 30
0.0
 10
126.9049833491928
 20
122.807540670065
 30
0.0
 10
127.1346244410739
 20
122.9234013284588
 30
0.0
 10
127.5692287893074
 20
123.1960191744165
 30
0.0
 10
127.774794565954
 20
123.3540582564702
 30
0.0
 10
128.1433517065493
 20
123.6976011074409
 30
0.0
 10
128.3088326892847
 20
123.8843635515426
 30
0.0
 10
128.6012571987198
 20
124.2879067259394
 30
0.0
 10
128.7253581753464
 20
124.5014037223685
 30
0.0
 10
128.9249373720961
 20
124.940787036291
 30
0.0
 10
129.0018709579543
 20
125.1699270234367
 30
0.0
 10
129.1047280164747
 20
125.6359011461967
 30
0.0
 10
129.1302009259338
 20
125.8687835918728
 30
0.0
 10
129.1304913365016
 20
126.3341811269526
 30
0.0
 10
129.1044667027259
 20
126.569056884347
 30
0.0
 10
129.0023184182339
 20
127.0205500315932
 30
0.0
 10
128.9267419706507
 20
127.2385965070046
 30
0.0
 10
128.7262444395058
 20
127.6596910320424
 30
0.0
 10
128.6011155979974
 20
127.8616124165607
 30
0.0
 10
128.3117567969758
 20
128.2336418990797
 30
0.0
 10
128.1463458099203
 20
128.40627020266
 30
0.0
 10
127.7733552517725
 20
128.723588207206
 30
0.0
 10
127.5716222186834
 20
128.8633751407076
 30
0.0
 10
127.1387629678555
 20
129.1075513942595
 30
0.0
 10
126.9048444349662
 20
129.2127809053009
 30
0.0
 10
126.4206606998236
 20
129.3809380516761
 30
0.0
 10
126.1713450738681
 20
129.4441889422699
 30
0.0
 10
125.6583125494403
 20
129.5297681513725
 30
0.0
 10
125.3930187265357
 20
129.5516403162949
 30
0.0
 10
124.8706841066659
 20
129.5518039659389
 30
0.0
 10
124.6109304441842
 20
129.5308022738429
 30
0.0
 10
124.094318628539
 20
129.4453999187652
 30
0.0
 10
123.8419525880387
 20
129.3813937354783
 30
0.0
 10
123.3604274665059
 20
129.2145792154371
 30
0.0
 10
123.1275767343923
 20
129.110446052038
 30
0.0
 10
122.6904868859535
 20
128.864459399543
 30
0.0
 10
122.4891658972963
 20
128.7247095685941
 30
0.0
 10
122.1200798719965
 20
128.4115714988695
 30
0.0
 10
121.9510951209448
 20
128.2361153395994
 30
0.0
 10
121.6606390642855
 20
127.8632750754992
 30
0.0
 10
121.5375672529234
 20
127.6651532653883
 30
0.0
 10
121.3362310115014
 20
127.2444419226546
 30
0.0
 10
121.2590184655592
 20
127.0224519019871
 30
0.0
 10
121.1568149226591
 20
126.5725869622787
 30
0.0
 10
121.1305865712068
 20
126.3423315491619
 30
0.0
 10
121.1301101718897
 20
125.8710156066129
 30
0.0
 10
121.1558525843877
 20
125.6377781908987
 30
0.0
 10
121.2571633607515
 20
125.1761016514007
 30
0.0
 10
121.3339960001424
 20
124.9452042642885
 30
0.0
 10
121.5343998393576
 20
124.5029282504969
 30
0.0
 10
121.6570713376497
 20
124.291865819211
 30
0.0
 10
121.9470186268139
 20
123.8903673084783
 30
0.0
 10
122.1155896061791
 20
123.6994607864024
 30
0.0
 10
122.4838592002923
 20
123.3557354544053
 30
0.0
 10
122.6849210575626
 20
123.2005982681912
 30
0.0
 10
123.1219519761475
 20
122.9255209081115
 30
0.0
 10
123.3541001892771
 20
122.8084046786895
 30
0.0
 10
123.835110470776
 20
122.6194781936249
 30
0.0
 10
124.0872105536064
 20
122.5464032232307
 30
0.0
 10
124.6042800398654
 20
122.4483511640961
 30
0.0
 10
124.8658014108581
 20
122.4236701833192
 30
0.0
 10
125.3948920881784
 20
122.4236701833192
 30
0.0
  0
LINE
  5
8D
330
1F
100
AcDbEntity
  8
0
  6
Continuous
 62
     7
370
    15
100
AcDbLine
 10
122.0803467495
 20
131.6527632973
 30
0.0
 11
131.738413918
 21
131.6527632973
 31
0.0
  0
LINE
  5
8E
330
1F
100
AcDbEntity
  8
0
  6
Continuous
 62
     7
370
    15
100
AcDbLine
 10
131.738413918
 20
81.6158456011
 30
0.0
 11
130.0803467495
 21
81.6158456011
 31
0.0
  0
SPLINE
  5
8F
330
1F
100
AcDbEntity
  8
0
  6
Continuous
 62
     7
370
    15
100
AcDbSpline
210
0.0
220
0.0
230
1.0
 70
     8
 71
     3
 72
    28
 73
    24
 74
     0
 42
0.00000001
 43
0.00000001
 40
0.0
 40
0.0
 40
0.0
 40
0.0
 40
0.1250000000000001
 40
0.1250000000000001
 40
0.1875000000000001
 40
0.1875000000000001
 40
0.2500000000000001
 40
0.2500000000000001
 40
0.3749999999999999
 40
0.3749999999999999
 40
0.4375
 40
0.4375
 40
0.4999999999999999
 40
0.4999999999999999
 40
0.6249999999999999
 40
0.6249999999999999
 40
0.7499999999999997
 40
0.7499999999999997
 40
0.8124999999999998
 40
0.8124999999999998
 40
0.8749999999999998
 40
0.8749999999999998
 40
1.0
 40
1.0
 40
1.0
 40
1.0
 10
130.0803467495182
 20
81.61584560108872
 30
0.0
 10
129.5486389920253
 20
81.61584560108872
 30
0.0
 10
129.0264004267149
 20
81.60006088713851
 30
0.0
 10
128.2565299404399
 20
81.55506547306233
 30
0.0
 10
128.0021703682486
 20
81.53651047798657
 30
0.0
 10
127.4980487875501
 20
81.49265775554007
 30
0.0
 10
127.2483259701222
 20
81.46731314858788
 30
0.0
 10
126.5227360186758
 20
81.38391107083778
 30
0.0
 10
126.0643757570942
 20
81.3180455116867
 30
0.0
 10
125.4138778137003
 20
81.2090751711949
 30
0.0
 10
125.2021957629079
 20
81.17083553542825
 30
0.0
 10
124.7981242737699
 20
81.0930767980089
 30
0.0
 10
124.605617759949
 20
81.05357583583353
 30
0.0
 10
124.0557827889277
 20
80.93466809346754
 30
0.0
 10
123.7258540106189
 20
80.85485041204294
 30
0.0
 10
123.1413827420502
 20
80.70150725024688
 30
0.0
 10
122.8951056040368
 20
80.63017349697762
 30
0.0
 10
122.5952628113387
 20
80.53622998990299
 30
0.0
 10
122.5068059542666
 20
80.50703619654307
 30
0.0
 10
122.3534446009614
 20
80.45356962227964
 30
0.0
 10
122.2883563867352
 20
80.42921028800447
 30
0.0
 10
122.1327623707944
 20
80.36562014255973
 30
0.0
 10
122.0803467495182
 20
80.33551720747047
 30
0.0
 10
122.0803467495182
 20
80.31864031447356
 30
0.0
  0
LINE
  5
90
330
1F
100
AcDbEntity
  8
0
  6
Continuous
 62
     7
370
    15
100
AcDbLine
 10
122.0803467495
 20
80.3186403145
 30
0.0
 11
122.0803467495
 21
80.3027632973
 31
0.0
  0
SPLINE
  5
91
330
1F
100
AcDbEntity
  8
0
  6
Continuous
 62
     7
370
    15
100
AcDbSpline
210
0.0
220
0.0
230
1.0
 70
     8
 71
     3
 72
    17
 73
    13
 74
     0
 42
0.00000001
 43
0.00000001
 40
0.0
 40
0.0
 40
0.0
 40
0.0
 40
0.1034796923964056
 40
0.210023918880785
 40
0.3134862136955583
 40
0.4198361274354882
 40
0.5254127712915682
 40
0.633961069541979
 40
0.7409508756305031
 40
0.8511696089308174
 40
0.9558996534551937
 40
1.0
 40
1.0
 40
1.0
 40
1.0
 10
130.0803467495182
 20
142.2699587705001
 30
0.0
 10
129.6450984004082
 20
142.2754069670335
 30
0.0
 10
128.7617118938432
 20
142.2864647075453
 30
0.0
 10
127.4808843086145
 20
142.3728231004469
 30
0.0
 10
126.2634677727405
 20
142.5006932769846
 30
0.0
 10
125.1556619204939
 20
142.6596385755778
 30
0.0
 10
124.1674231165457
 20
142.8341322632934
 30
0.0
 10
123.3426995590142
 20
143.0032981139332
 30
0.0
 10
122.6937460583549
 20
143.1511818964616
 30
0.0
 10
122.2767112428932
 20
143.2529724806924
 30
0.0
 10
122.0781145299286
 20
143.3033240032955
 30
0.0
 10
122.1014272513619
 20
143.2974183190732
 30
0.0
 10
122.1083351085994
 20
143.2956683893786
 30
0.0
  0
LINE
  5
92
330
1F
100
AcDbEntity
  8
0
  6
Continuous
 62
     7
370
    15
100
AcDbLine
 10
131.738413918
 20
142.2699587705
 30
0.0
 11
130.0803467495
 21
142.2699587705
 31
0.0
  0
LINE
  5
93
330
1F
100
AcDbEntity
  8
0
  6
Continuous
 62
     7
370
    15
100
AcDbLine
 10
131.738413918
 20
136.2614529597
 30
0.0
 11
131.738413918
 21
142.2699587705
 31
0.0
  0
LINE
  5
94
330
1F
100
AcDbEntity
  8
0
  6
Continuous
 62
     7
370
    15
100
AcDbLine
 10
129.3259670952
 20
136.2614529597
 30
0.0
 11
131.738413918
 21
136.2614529597
 31
0.0
  0
SPLINE
  5
95
330
1F
100
AcDbEntity
  8
0
  6
Continuous
 62
     7
370
    15
100
AcDbSpline
210
0.0
220
0.0
230
1.0
 70
     8
 71
     3
 72
    20
 73
    16
 74
     0
 42
0.00000001
 43
0.00000001
 40
0.0
 40
0.0
 40
0.0
 40
0.0
 40
0.2499999999999997
 40
0.2499999999999997
 40
0.3749999999999997
 40
0.3749999999999997
 40
0.4999999999999998
 40
0.4999999999999998
 40
0.6249999999999998
 40
0.6249999999999998
 40
0.7499999999999999
 40
0.7499999999999999
 40
0.8749999999999999
 40
0.8749999999999999
 40
1.0
 40
1.0
 40
1.0
 40
1.0
 10
122.0803467495182
 20
131.6527632973359
 30
0.0
 10
122.3287204838063
 20
132.3066257256333
 30
0.0
 10
122.6482905761515
 20
132.9104115076304
 30
0.0
 10
123.2705968093562
 20
133.737250243799
 30
0.0
 10
123.502021069787
 20
133.9996788817519
 30
0.0
 10
124.0232354094367
 20
134.4963415358569
 30
0.0
 10
124.3098558920718
 20
134.7269284148785
 30
0.0
 10
124.9293406333794
 20
135.1434826394611
 30
0.0
 10
125.2636410128663
 20
135.3309804414286
 30
0.0
 10
125.9889014854911
 20
135.662377419065
 30
0.0
 10
126.3708165428816
 20
135.8018814065603
 30
0.0
 10
127.1656047190533
 20
136.0273349140312
 30
0.0
 10
127.5797629132596
 20
136.1139610255749
 30
0.0
 10
128.445309253841
 20
136.231941814429
 30
0.0
 10
128.8831968688528
 20
136.2614529597033
 30
0.0
 10
129.3259670952075
 20
136.2614529597033
 30
0.0
  0
ARC
  5
96
330
1F
100
AcDbEntity
  8
0
  6
Continuous
 62
     7
370
    15
100
AcDbCircle
 10
125.1279637204
 20
123.6884669603
 30
0.0
 40
4.120515271238683
100
AcDbArc
 50
19.9129299567
 51
159.0638983285
  0
SPLINE
  5
97
330
1F
100
AcDbEntity
  8
0
  6
Continuous
 62
     7
370
    15
100
AcDbSpline
210
0.0
220
0.0
230
1.0
 70
    24
 71
     3
 72
    14
 73
    10
 74
     0
 42
0.00000001
 43
0.00000001
 40
0.0
 40
0.0
 40
0.0
 40
0.0
 40
0.4999999999999984
 40
0.4999999999999984
 40
0.7499999999999992
 40
0.7499999999999992
 40
0.8749999999999996
 40
0.8749999999999996
 40
1.0
 40
1.0
 40
1.0
 40
1.0
 10
136.9426719471859
 20
85.4027632973359
 30
0.0
 10
136.8958872421377
 20
85.4027632973359
 30
0.0
 10
136.8338360453581
 20
85.4027632973359
 30
0.0
 10
136.6904444068075
 20
85.40276329733588
 30
0.0
 10
136.6343007532563
 20
85.4027632973359
 30
0.0
 10
136.5213497311202
 20
85.4027632973359
 30
0.0
 10
136.478348969082
 20
85.4027632973359
 30
0.0
 10
136.3742862587755
 20
85.4027632973359
 30
0.0
 10
136.3089540204186
 20
85.4027632973359
 30
0.0
 10
136.2403467495182
 20
85.4027632973359
 30
0.0
  0
SPLINE
  5
98
330
1F
100
AcDbEntity
  8
0
  6
Continuous
 62
     7
370
    15
100
AcDbSpline
210
0.0
220
0.0
230
1.0
 70
    24
 71
     3
 72
    12
 73
     8
 74
     0
 42
0.00000001
 43
0.00000001
 40
0.0
 40
0.0
 40
0.0
 40
0.0
 40
0.5000000000000017
 40
0.5000000000000017
 40
0.7500000000000008
 40
0.7500000000000008
 40
1.0
 40
1.0
 40
1.0
 40
1.0
 10
136.6460492178273
 20
138.2027632973359
 30
0.0
 10
136.6029636682163
 20
138.2027632973359
 30
0.0
 10
136.553811466467
 20
138.2027632973359
 30
0.0
 10
136.457338872179
 20
138.2027632973359
 30
0.0
 10
136.4212372870445
 20
138.2027632973359
 30
0.0
 10
136.3381315291832
 20
138.2027632973359
 30
0.0
 10
136.2901349322169
 20
138.2027632973359
 30
0.0
 10
136.2403467495182
 20
138.2027632973359
 30
0.0
  0
SPLINE
  5
99
330
1F
100
AcDbEntity
  8
0
  6
Continuous
 62
     7
370
    15
100
AcDbSpline
210
0.0
220
0.0
230
1.0
 70
     8
 71
     3
 72
    10
 73
     6
 74
     0
 42
0.00000001
 43
0.00000001
 40
0.0
 40
0.0
 40
0.0
 40
0.0
 40
0.5
 40
0.5
 40
1.0
 40
1.0
 40
1.0
 40
1.0
 10
137.0403467495182
 20
138.9224171483717
 30
0.0
 10
137.0403467495182
 20
138.7786470905536
 30
0.0
 10
137.0042976907993
 20
138.6362277280585
 30
0.0
 10
136.8687888300253
 20
138.3863334347013
 30
0.0
 10
136.7689128369291
 20
138.2783030984531
 30
0.0
 10
136.6460492178272
 20
138.2027632973358
 30
0.0
  0
SPLINE
  5
9A
330
1F
100
AcDbEntity
  8
0
  6
Continuous
 62
     7
370
    15
100
AcDbSpline
210
0.0
220
0.0
230
1.0
 70
     8
 71
     3
 72
    10
 73
     6
 74
     0
 42
0.00000001
 43
0.00000001
 40
0.0
 40
0.0
 40
0.0
 40
0.0
 40
0.5
 40
0.5
 40
1.0
 40
1.0
 40
1.0
 40
1.0
 10
137.0141991263581
 20
131.6527632973359
 30
0.0
 10
137.0228887692697
 20
131.6996421466541
 30
0.0
 10
137.0294278340203
 20
131.7470646120554
 30
0.0
 10
137.0381864684133
 20
131.8430014106422
 30
0.0
 10
137.0403467495182
 20
131.8909166986527
 30
0.0
 10
137.0403467495182
 20
131.9386299287973
 30
0.0
  0
SPLINE
  5
9B
330
1F
100
AcDbEntity
  8
0
  6
Continuous
 62
     7
370
    15
100
AcDbSpline
210
0.0
220
0.0
230
1.0
 70
     8
 71
     3
 72
    10
 73
     6
 74
     0
 42
0.00000001
 43
0.00000001
 40
0.0
 40
0.0
 40
0.0
 40
0.0
 40
0.5
 40
0.5
 40
1.0
 40
1.0
 40
1.0
 40
1.0
 10
133.6146442812092
 20
138.2027632973359
 30
0.0
 10
133.4931040175406
 20
138.2774894645476
 30
0.0
 10
133.3917696571917
 20
138.3864344804645
 30
0.0
 10
133.2561307143033
 20
138.6368649612261
 30
0.0
 10
133.2203467495182
 20
138.779284323325
 30
0.0
 10
133.2203467495182
 20
138.9224171483717
 30
0.0
  0
SPLINE
  5
9C
330
1F
100
AcDbEntity
  8
0
  6
Continuous
 62
     7
370
    15
100
AcDbSpline
210
0.0
220
0.0
230
1.0
 70
    24
 71
     3
 72
    12
 73
     8
 74
     0
 42
0.00000001
 43
0.00000001
 40
0.0
 40
0.0
 40
0.0
 40
0.0
 40
0.2500000000000037
 40
0.2500000000000037
 40
0.5000000000000074
 40
0.5000000000000074
 40
1.0
 40
1.0
 40
1.0
 40
1.0
 10
134.0203467495182
 20
138.2027632973359
 30
0.0
 10
133.9704700672008
 20
138.2027632973359
 30
0.0
 10
133.9224668737972
 20
138.2027632973359
 30
0.0
 10
133.8394187710852
 20
138.2027632973359
 30
0.0
 10
133.8032891916174
 20
138.2027632973359
 30
0.0
 10
133.7073771606731
 20
138.2027632973359
 30
0.0
 10
133.6576184927043
 20
138.2027632973359
 30
0.0
 10
133.6146442812092
 20
138.2027632973359
 30
0.0
  0
SPLINE
  5
9D
330
1F
100
AcDbEntity
  8
0
  6
Continuous
 62
     7
370
    15
100
AcDbSpline
210
0.0
220
0.0
230
1.0
 70
    24
 71
     3
 72
    14
 73
    10
 74
     0
 42
0.00000001
 43
0.00000001
 40
0.0
 40
0.0
 40
0.0
 40
0.0
 40
0.1249999999999991
 40
0.1249999999999991
 40
0.2499999999999982
 40
0.2499999999999982
 40
0.4999999999999998
 40
0.4999999999999998
 40
1.0
 40
1.0
 40
1.0
 40
1.0
 10
134.0203467495182
 20
85.4027632973359
 30
0.0
 10
133.9519089016318
 20
85.4027632973359
 30
0.0
 10
133.8863588628667
 20
85.4027632973359
 30
0.0
 10
133.7819322234587
 20
85.4027632973359
 30
0.0
 10
133.7393876136973
 20
85.4027632973359
 30
0.0
 10
133.6267781531571
 20
85.40276329733588
 30
0.0
 10
133.5712391061376
 20
85.4027632973359
 30
0.0
 10
133.4286274106738
 20
85.40276329733588
 30
0.0
 10
133.365222055678
 20
85.40276329733588
 30
0.0
 10
133.3180215518505
 20
85.4027632973359
 30
0.0
  0
SPLINE
  5
9E
330
1F
100
AcDbEntity
  8
0
  6
Continuous
 62
     7
370
    15
100
AcDbSpline
210
0.0
220
0.0
230
1.0
 70
     8
 71
     3
 72
    10
 73
     6
 74
     0
 42
0.00000001
 43
0.00000001
 40
0.0
 40
0.0
 40
0.0
 40
0.0
 40
0.5
 40
0.5
 40
1.0
 40
1.0
 40
1.0
 40
1.0
 10
133.2203467495182
 20
131.9386299287973
 30
0.0
 10
133.2203467495182
 20
131.890858420804
 30
0.0
 10
133.2225079931154
 20
131.8431486987423
 30
0.0
 10
133.2311793669755
 20
131.747853581194
 30
0.0
 10
133.2377085499315
 20
131.7001610172274
 30
0.0
 10
133.2464943726783
 20
131.6527632973359
 30
0.0
  0
LINE
  5
9F
330
1F
100
AcDbEntity
  8
0
  6
Continuous
 62
     7
370
    15
100
AcDbLine
 10
136.2403467495
 20
138.2027632973
 30
0.0
 11
134.0203467495
 21
138.2027632973
 31
0.0
  0
LINE
  5
A0
330
1F
100
AcDbEntity
  8
0
  6
Continuous
 62
     7
370
    15
100
AcDbLine
 10
136.2403467495
 20
85.4027632973
 30
0.0
 11
134.0203467495
 21
85.4027632973
 31
0.0
  0
LINE
  5
A1
330
1F
100
AcDbEntity
  8
0
  6
Continuous
 62
     7
370
    15
100
AcDbLine
 10
95.3303467495
 20
88.5743164035
 30
0.0
 11
95.3303467495
 21
89.8390257661
 31
0.0
  0
SPLINE
  5
A2
330
1F
100
AcDbEntity
  8
0
  6
Continuous
 62
     7
370
    15
100
AcDbSpline
210
0.0
220
0.0
230
1.0
 70
     8
 71
     3
 72
    14
 73
    10
 74
     0
 42
0.00000001
 43
0.00000001
 40
0.0
 40
0.0
 40
0.0
 40
0.0
 40
0.25
 40
0.25
 40
0.5
 40
0.5
 40
0.75
 40
0.75
 40
1.0
 40
1.0
 40
1.0
 40
1.0
 10
94.55205963160249
 20
90.96961197377594
 30
0.0
 10
94.60868630680457
 20
90.86191451993908
 30
0.0
 10
94.70320896709428
 20
90.75912493821976
 30
0.0
 10
94.88625394265652
 20
90.56076762599962
 30
0.0
 10
94.97788051961126
 20
90.46470811732136
 30
0.0
 10
95.13673383730445
 20
90.27717907461212
 30
0.0
 10
95.20462444492614
 20
90.18577010182857
 30
0.0
 10
95.30154147063374
 20
90.00739388091841
 30
0.0
 10
95.3303467495188
 20
89.92017197467224
 30
0.0
 10
95.33034674951878
 20
89.83902576613798
 30
0.0
  0
SPLINE
  5
A3
330
1F
100
AcDbEntity
  8
0
  6
Continuous
 62
     7
370
    15
100
AcDbSpline
210
0.0
220
0.0
230
1.0
 70
     8
 71
     3
 72
    14
 73
    10
 74
     0
 42
0.00000001
 43
0.00000001
 40
0.0
 40
0.0
 40
0.0
 40
0.0
 40
0.1249999999999975
 40
0.1249999999999975
 40
0.249999999999995
 40
0.249999999999995
 40
0.4999999999999953
 40
0.4999999999999953
 40
1.0
 40
1.0
 40
1.0
 40
1.0
 10
93.93034674951821
 20
91.41629383605526
 30
0.0
 10
93.97889115817537
 20
91.42204214933555
 30
0.0
 10
94.03180651296029
 20
91.41894126067932
 30
0.0
 10
94.12710185794332
 20
91.39674641651699
 30
0.0
 10
94.16735285522827
 20
91.37951418942113
 30
0.0
 10
94.27162286874125
 20
91.32318627296907
 30
0.0
 10
94.32194484389457
 20
91.27899992702326
 30
0.0
 10
94.44962779141996
 20
91.14799202817264
 30
0.0
 10
94.50571323848222
 20
91.05775750794234
 30
0.0
 10
94.55205963160395
 20
90.96961197377647
 30
0.0
  0
SPLINE
  5
A4
330
1F
100
AcDbEntity
  8
0
  6
Continuous
 62
     7
370
    15
100
AcDbSpline
210
0.0
220
0.0
230
1.0
 70
     8
 71
     3
 72
     8
 73
     4
 74
     0
 42
0.00000001
 43
0.00000001
 40
0.0
 40
0.0
 40
0.0
 40
0.0
 40
1.0
 40
1.0
 40
1.0
 40
1.0
 10
91.66182165657199
 20
91.10644854947247
 30
0.0
 10
92.39639868305494
 20
91.22507356054143
 30
0.0
 10
93.15987375245061
 20
91.32505943267772
 30
0.0
 10
93.93034674951822
 20
91.41629383605526
 30
0.0
  0
SPLINE
  5
A5
330
1F
100
AcDbEntity
  8
0
  6
Continuous
 62
     7
370
    15
100
AcDbSpline
210
0.0
220
0.0
230
1.0
 70
     8
 71
     3
 72
    14
 73
    10
 74
     0
 42
0.00000001
 43
0.00000001
 40
0.0
 40
0.0
 40
0.0
 40
0.0
 40
0.500000000000001
 40
0.500000000000001
 40
0.7500000000000004
 40
0.7500000000000004
 40
0.8750000000000003
 40
0.8750000000000003
 40
1.0
 40
1.0
 40
1.0
 40
1.0
 10
86.38034674951821
 20
90.93282553194082
 30
0.0
 10
87.27249288007178
 20
90.93210330574017
 30
0.0
 10
88.16246931586538
 20
90.93668951219763
 30
0.0
 10
89.489064482941
 20
90.96441451658917
 30
0.0
 10
89.92991141143972
 20
90.97702105421335
 30
0.0
 10
90.58635164886213
 20
91.00803720222079
 30
0.0
 10
90.80436530545403
 20
91.02038037484756
 30
0.0
 10
91.2370741591368
 20
91.05340443001086
 30
0.0
 10
91.4523506243016
 20
91.07262159514929
 30
0.0
 10
91.661821656572
 20
91.10644854947247
 30
0.0
  0
SPLINE
  5
A6
330
1F
100
AcDbEntity
  8
0
  6
Continuous
 62
     7
370
    15
100
AcDbSpline
210
0.0
220
0.0
230
1.0
 70
     8
 71
     3
 72
     8
 73
     4
 74
     0
 42
0.00000001
 43
0.00000001
 40
0.0000005163856712
 40
0.0000005163856712
 40
0.0000005163856712
 40
0.0000005163856712
 40
0.000026289209185
 40
0.000026289209185
 40
0.000026289209185
 40
0.000026289209185
 10
86.37030181909952
 20
90.94280940504869
 30
0.0
 10
86.37362955731099
 20
90.93947515817587
 30
0.0
 10
86.37697801029029
 20
90.93614720089685
 30
0.0
 10
86.38034674951818
 20
90.93282553194081
 30
0.0
  0
SPLINE
  5
A7
330
1F
100
AcDbEntity
  8
0
  6
Continuous
 62
     7
370
    15
100
AcDbSpline
210
0.0
220
0.0
230
1.0
 70
     8
 71
     3
 72
     8
 73
     4
 74
     0
 42
0.00000001
 43
0.00000001
 40
0.0000005099763573
 40
0.0000005099763573
 40
0.0000005099763573
 40
0.0000005099763573
 40
0.0000262827998699
 40
0.0000262827998699
 40
0.0000262827998699
 40
0.0000262827998699
 10
86.3803467495182
 20
132.672701062731
 30
0.0
 10
86.37697801029046
 20
132.6693793937751
 30
0.0
 10
86.37362955731132
 20
132.6660514364962
 30
0.0
 10
86.37030181909999
 20
132.6627171896235
 30
0.0
  0
SPLINE
  5
A8
330
1F
100
AcDbEntity
  8
0
  6
Continuous
 62
     7
370
    15
100
AcDbSpline
210
0.0
220
0.0
230
1.0
 70
     8
 71
     3
 72
    10
 73
     6
 74
     0
 42
0.00000001
 43
0.00000001
 40
0.0
 40
0.0
 40
0.0
 40
0.0
 40
0.5
 40
0.5
 40
1.0
 40
1.0
 40
1.0
 40
1.0
 10
89.93034674951822
 20
132.6258506891636
 30
0.0
 10
89.34276120242762
 20
132.6469162094
 30
0.0
 10
88.75201480896723
 20
132.6576746952722
 30
0.0
 10
87.56799564366838
 20
132.6710394758079
 30
0.0
 10
86.97458165546291
 20
132.6731821184725
 30
0.0
 10
86.38034674951821
 20
132.672701062731
 30
0.0
  0
SPLINE
  5
A9
330
1F
100
AcDbEntity
  8
0
  6
Continuous
 62
     7
370
    15
100
AcDbSpline
210
0.0
220
0.0
230
1.0
 70
     8
 71
     3
 72
    18
 73
    14
 74
     0
 42
0.00000001
 43
0.00000001
 40
0.0
 40
0.0
 40
0.0
 40
0.0
 40
0.2500000000000009
 40
0.2500000000000009
 40
0.500000000000001
 40
0.500000000000001
 40
0.7500000000000011
 40
0.7500000000000011
 40
0.875000000000001
 40
0.875000000000001
 40
0.9375000000000006
 40
0.9375000000000006
 40
1.0
 40
1.0
 40
1.0
 40
1.0
 10
91.33034674951821
 20
133.6468709696989
 30
0.0
 10
91.33034674951823
 20
133.5636640608417
 30
0.0
 10
91.29449764957995
 20
133.4749274055281
 30
0.0
 10
91.16962591354601
 20
133.2928022149679
 30
0.0
 10
91.07922549589816
 20
133.1976721663412
 30
0.0
 10
90.85698284115598
 20
133.0084906572169
 30
0.0
 10
90.7272180547102
 20
132.9135454891222
 30
0.0
 10
90.4865805973987
 20
132.7752667815423
 30
0.0
 10
90.39881329926125
 20
132.7295563482399
 30
0.0
 10
90.24428921205445
 20
132.6717330430184
 30
0.0
 10
90.1876783259997
 20
132.6540182789806
 30
0.0
 10
90.0636342950931
 20
132.6294789757476
 30
0.0
 10
89.9959196200748
 20
132.6234998372094
 30
0.0
 10
89.93034674951821
 20
132.6258506891636
 30
0.0
  0
LINE
  5
AA
330
1F
100
AcDbEntity
  8
0
  6
Continuous
 62
     7
370
    15
100
AcDbLine
 10
91.3303467495
 20
133.6468709697
 30
0.0
 11
91.3303467495
 21
134.8308093895
 31
0.0
  0
LINE
  5
AB
330
1F
100
AcDbEntity
  8
0
  6
Continuous
 62
     7
370
    15
100
AcDbLine
 10
115.1303467495
 20
87.5823324356
 30
0.0
 11
115.1303467495
 21
136.0231941591
 31
0.0
  0
SPLINE
  5
AC
330
1F
100
AcDbEntity
  8
0
  6
Continuous
 62
     7
370
    15
100
AcDbSpline
210
0.0
220
0.0
230
1.0
 70
     8
 71
     3
 72
    24
 73
    20
 74
     0
 42
0.00000001
 43
0.00000001
 40
0.0
 40
0.0
 40
0.0
 40
0.0
 40
0.0010489762969682
 40
0.0637843125639766
 40
0.1272220590447888
 40
0.1903788924487598
 40
0.252674865369363
 40
0.3146354154424954
 40
0.377089199714964
 40
0.4393540298504154
 40
0.5008133242537826
 40
0.562184510458698
 40
0.624843845111553
 40
0.6874304766616532
 40
0.7496743174679398
 40
0.8119848426977657
 40
0.8750960525413161
 40
0.9384412526965076
 40
0.9999999999999999
 40
0.9999999999999999
 40
0.9999999999999999
 40
0.9999999999999999
 10
103.8992525814939
 20
88.14525486875574
 30
0.0
 10
103.8988061213897
 20
88.14519658293685
 30
0.0
 10
103.8716585576959
 20
88.14165244099432
 30
0.0
 10
103.9672703353096
 20
88.15448618567707
 30
0.0
 10
104.200830593204
 20
88.18373287087726
 30
0.0
 10
104.5963849005213
 20
88.2303471939401
 30
0.0
 10
105.1234252043588
 20
88.28053033559947
 30
0.0
 10
105.7669556163486
 20
88.32490679804907
 30
0.0
 10
106.5056294715877
 20
88.35185157898727
 30
0.0
 10
107.303143977021
 20
88.35532342969405
 30
0.0
 10
108.1297228594637
 20
88.32769618566381
 30
0.0
 10
108.9552458770745
 20
88.26921729669048
 30
0.0
 10
109.7473724250757
 20
88.1837722673304
 30
0.0
 10
110.4799446990816
 20
88.08203802749408
 30
0.0
 10
111.1155849358096
 20
87.9741949055211
 30
0.0
 10
111.637496042819
 20
87.87256474878203
 30
0.0
 10
112.0191248199346
 20
87.79007959210381
 30
0.0
 10
112.2699392901684
 20
87.73393038575418
 30
0.0
 10
112.2990608461527
 20
87.72708092714043
 30
0.0
 10
112.3134133669689
 20
87.72370518041227
 30
0.0
  0
SPLINE
  5
AD
330
1F
100
AcDbEntity
  8
0
  6
Continuous
 62
     7
370
    15
100
AcDbSpline
210
0.0
220
0.0
230
1.0
 70
     8
 71
     3
 72
    24
 73
    20
 74
     0
 42
0.00000001
 43
0.00000001
 40
0.0
 40
0.0
 40
0.0
 40
0.0
 40
0.0614384276250176
 40
0.1250736755369651
 40
0.1884253490729237
 40
0.2508623904037427
 40
0.3129665632511172
 40
0.3753451453465143
 40
0.4377328972324873
 40
0.4990927322917189
 40
0.5605807588447405
 40
0.6229469893028771
 40
0.6854686282025979
 40
0.7475477813740068
 40
0.8098225060804932
 40
0.8730684085990272
 40
0.9364041844536292
 40
0.9991757196257863
 40
1.0
 40
1.0
 40
1.0
 40
1.0
 10
112.313358596166
 20
135.8817922717933
 30
0.0
 10
112.2987578718625
 20
135.8784242149407
 30
0.0
 10
112.2690343531346
 20
135.8715676714669
 30
0.0
 10
112.0162965374859
 20
135.8152290509409
 30
0.0
 10
111.6333006210363
 20
135.732371968811
 30
0.0
 10
111.1109450365992
 20
135.6304649388597
 30
0.0
 10
110.4761605585993
 20
135.5226257998158
 30
0.0
 10
109.7459369544266
 20
135.4211588478408
 30
0.0
 10
108.9554683691926
 20
135.3360991341501
 30
0.0
 10
108.1309848543645
 20
135.2778948402637
 30
0.0
 10
107.303948395481
 20
135.250311401437
 30
0.0
 10
106.5056241278293
 20
135.2538043789298
 30
0.0
 10
105.76580016354
 20
135.280760298783
 30
0.0
 10
105.1215459305649
 20
135.3251142407822
 30
0.0
 10
104.5941386753489
 20
135.3753196905401
 30
0.0
 10
104.1994740731987
 20
135.4219295457385
 30
0.0
 10
103.9669447940104
 20
135.4511251382858
 30
0.0
 10
103.8715647614619
 20
135.4639032072271
 30
0.0
 10
103.8984983983628
 20
135.4603489487193
 30
0.0
 10
103.8988474915871
 20
135.460302881136
 30
0.0
  0
SPLINE
  5
AE
330
1F
100
AcDbEntity
  8
0
  6
Continuous
 62
     7
370
    15
100
AcDbSpline
210
0.0
220
0.0
230
1.0
 70
     8
 71
     3
 72
    10
 73
     6
 74
     0
 42
0.00000001
 43
0.00000001
 40
0.0
 40
0.0
 40
0.0
 40
0.0
 40
0.0840381716605994
 40
0.7011125076933077
 40
1.0
 40
1.0
 40
1.0
 40
1.0
 10
85.24389371205388
 20
92.07398938965255
 30
0.0
 10
85.2445682693888
 20
92.07178376281666
 30
0.0
 10
85.25019595708503
 20
92.05338268945445
 30
0.0
 10
85.27651743721184
 20
92.0676172521776
 30
0.0
 10
85.28895245405653
 20
92.11330302772859
 30
0.0
 10
85.29301012424159
 20
92.12821075255518
 30
0.0
  0
LINE
  5
AF
330
1F
100
AcDbEntity
  8
0
  6
Continuous
 62
     7
370
    15
100
AcDbLine
 10
85.2303467495
 20
92.1120855509
 30
0.0
 11
85.2303467495
 21
131.4934410438
 31
0.0
  0
SPLINE
  5
B0
330
1F
100
AcDbEntity
  8
0
  6
Continuous
 62
     7
370
    15
100
AcDbSpline
210
0.0
220
0.0
230
1.0
 70
     8
 71
     3
 72
    10
 73
     6
 74
     0
 42
0.00000001
 43
0.00000001
 40
0.0
 40
0.0
 40
0.0
 40
0.0
 40
0.5
 40
0.5
 40
1.0
 40
1.0
 40
1.0
 40
1.0
 10
85.29301012424162
 20
131.4773158421166
 30
0.0
 10
85.28410583513285
 20
131.5230573613298
 30
0.0
 10
85.26759045493986
 20
131.5402482007988
 30
0.0
 10
85.24048250887824
 20
131.5399249238631
 30
0.0
 10
85.2303467495182
 20
131.5220473815666
 30
0.0
 10
85.2303467495182
 20
131.493441043814
 30
0.0
  0
SPLINE
  5
B1
330
1F
100
AcDbEntity
  8
0
  6
Continuous
 62
     7
370
    15
100
AcDbSpline
210
0.0
220
0.0
230
1.0
 70
     8
 71
     3
 72
    26
 73
    22
 74
     0
 42
0.00000001
 43
0.00000001
 40
0.0
 40
0.0
 40
0.0
 40
0.0
 40
0.2500000000000165
 40
0.2500000000000165
 40
0.3750000000000256
 40
0.3750000000000256
 40
0.4375000000000291
 40
0.4375000000000291
 40
0.4687500000000291
 40
0.4687500000000291
 40
0.5000000000000292
 40
0.5000000000000292
 40
0.5312500000000293
 40
0.5312500000000293
 40
0.5625000000000293
 40
0.5625000000000293
 40
0.625000000000026
 40
0.625000000000026
 40
0.7500000000000173
 40
0.7500000000000173
 40
1.0
 40
1.0
 40
1.0
 40
1.0
 10
86.05450039562272
 20
132.1928826309337
 30
0.0
 10
86.01589987275425
 20
132.0751079345783
 30
0.0
 10
85.96960287019999
 20
131.9507182484164
 30
0.0
 10
85.87566352176607
 20
131.7454989160629
 30
0.0
 10
85.8403520548526
 20
131.6739260496165
 30
0.0
 10
85.77417207910692
 20
131.557972817016
 30
0.0
 10
85.74963371243871
 20
131.5173882822058
 30
0.0
 10
85.70626096688491
 20
131.453246600334
 30
0.0
 10
85.69075256545972
 20
131.431380175049
 30
0.0
 10
85.65570992087268
 20
131.3857859067057
 30
0.0
 10
85.63615963015292
 20
131.3621156157383
 30
0.0
 10
85.5942323497823
 20
131.3174990563984
 30
0.0
 10
85.57158023955067
 20
131.2966190438805
 30
0.0
 10
85.53060652546404
 20
131.2657456301297
 30
0.0
 10
85.51300722556861
 20
131.2559067602973
 30
0.0
 10
85.46838023971247
 20
131.2369171446011
 30
0.0
 10
85.44782101705914
 20
131.2365928199476
 30
0.0
 10
85.39669557756247
 20
131.2458162608239
 30
0.0
 10
85.37578416457391
 20
131.2670631570408
 30
0.0
 10
85.32433425701299
 20
131.3410320358716
 30
0.0
 10
85.30666895770844
 20
131.4071501291864
 30
0.0
 10
85.29301012424162
 20
131.4773158421166
 30
0.0
  0
SPLINE
  5
B2
330
1F
100
AcDbEntity
  8
0
  6
Continuous
 62
     7
370
    15
100
AcDbSpline
210
0.0
220
0.0
230
1.0
 70
     8
 71
     3
 72
    10
 73
     6
 74
     0
 42
0.00000001
 43
0.00000001
 40
0.0
 40
0.0
 40
0.0
 40
0.0
 40
0.5
 40
0.5
 40
1.0
 40
1.0
 40
1.0
 40
1.0
 10
86.37030181910002
 20
132.6627171896235
 30
0.0
 10
86.30274256418177
 20
132.5950257968138
 30
0.0
 10
86.23910590884527
 20
132.5203186320601
 30
0.0
 10
86.1288851542734
 20
132.3613524996335
 30
0.0
 10
86.08206886105079
 20
132.2769972336255
 30
0.0
 10
86.05450039562271
 20
132.1928826309337
 30
0.0
  0
SPLINE
  5
B3
330
1F
100
AcDbEntity
  8
0
  6
Continuous
 62
     7
370
    15
100
AcDbSpline
210
0.0
220
0.0
230
1.0
 70
     8
 71
     3
 72
    10
 73
     6
 74
     0
 42
0.00000001
 43
0.00000001
 40
0.0
 40
0.0
 40
0.0
 40
0.0
 40
0.5
 40
0.5
 40
1.0
 40
1.0
 40
1.0
 40
1.0
 10
86.05450039562277
 20
91.41264396373792
 30
0.0
 10
86.08197781037596
 20
91.32880716727233
 30
0.0
 10
86.12868644066363
 20
91.2444966796855
 30
0.0
 10
86.23896490340557
 20
91.08537544920264
 30
0.0
 10
86.30285244201721
 20
91.01039070511456
 30
0.0
 10
86.37030181909955
 20
90.94280940504869
 30
0.0
  0
SPLINE
  5
B4
330
1F
100
AcDbEntity
  8
0
  6
Continuous
 62
     7
370
    15
100
AcDbSpline
210
0.0
220
0.0
230
1.0
 70
     8
 71
     3
 72
    24
 73
    20
 74
     0
 42
0.00000001
 43
0.00000001
 40
0.0
 40
0.0
 40
0.0
 40
0.0
 40
0.25
 40
0.25
 40
0.374999999999999
 40
0.374999999999999
 40
0.4374999999999993
 40
0.4374999999999993
 40
0.4687499999999994
 40
0.4687499999999994
 40
0.4999999999999995
 40
0.4999999999999995
 40
0.5624999999999971
 40
0.5624999999999971
 40
0.6249999999999947
 40
0.6249999999999947
 40
0.7499999999999947
 40
0.7499999999999947
 40
1.0
 40
1.0
 40
1.0
 40
1.0
 10
85.29301012424162
 20
92.12821075255515
 30
0.0
 10
85.30676324291184
 20
92.19886081054543
 30
0.0
 10
85.32453581031771
 20
92.26545892331036
 30
0.0
 10
85.37678690187306
 20
92.33955694354357
 30
0.0
 10
85.39782197745463
 20
92.36081475070512
 30
0.0
 10
85.45072238508305
 20
92.36896067685137
 30
0.0
 10
85.47182805796096
 20
92.36802087345559
 30
0.0
 10
85.51788022663895
 20
92.34700488187825
 30
0.0
 10
85.53625069862234
 20
92.33609607577063
 30
0.0
 10
85.57780233368803
 20
92.30346116482328
 30
0.0
 10
85.60036900644495
 20
92.2819691844519
 30
0.0
 10
85.66315002290496
 20
92.21350324086558
 30
0.0
 10
85.69627978387287
 20
92.1674287826605
 30
0.0
 10
85.75319747035786
 20
92.08242089432582
 30
0.0
 10
85.77738349586164
 20
92.04214059314444
 30
0.0
 10
85.8425914462414
 20
91.9272043666785
 30
0.0
 10
85.87730750643264
 20
91.85662138153148
 30
0.0
 10
85.97052277676353
 20
91.65241562245288
 30
0.0
 10
86.01619531212421
 20
91.52951724012551
 30
0.0
 10
86.05450039562275
 20
91.41264396373793
 30
0.0
  0
LINE
  5
B5
330
1F
100
AcDbEntity
  8
0
  6
Continuous
 62
     7
370
    15
100
AcDbLine
 10
142.4803467495
 20
142.2699587705
 30
0.0
 11
138.522279581
 21
142.2699587705
 31
0.0
  0
LINE
  5
B6
330
1F
100
AcDbEntity
  8
0
  6
Continuous
 62
     7
370
    15
100
AcDbLine
 10
138.522279581
 20
136.2614529597
 30
0.0
 11
142.4803467495
 21
136.2614529597
 31
0.0
  0
LINE
  5
B7
330
1F
100
AcDbEntity
  8
0
  6
Continuous
 62
     7
370
    15
100
AcDbLine
 10
138.522279581
 20
136.2614529597
 30
0.0
 11
138.522279581
 21
142.2699587705
 31
0.0
  0
SPLINE
  5
B8
330
1F
100
AcDbEntity
  8
0
  6
Continuous
 62
     7
370
    15
100
AcDbSpline
210
0.0
220
0.0
230
1.0
 70
     8
 71
     3
 72
     8
 73
     4
 74
     0
 42
0.00000001
 43
0.00000001
 40
0.0
 40
0.0
 40
0.0
 40
0.0
 40
1.0
 40
1.0
 40
1.0
 40
1.0
 10
133.2203467495182
 20
139.6079974885075
 30
0.0
 10
132.7276366526725
 20
140.4960164866339
 30
0.0
 10
132.2335539473935
 20
141.3832791223199
 30
0.0
 10
131.7384139180292
 20
142.2699587705001
 30
0.0
  0
LINE
  5
B9
330
1F
100
AcDbEntity
  8
0
  6
Continuous
 62
     7
370
    15
100
AcDbLine
 10
133.2203467495
 20
132.8529069649
 30
0.0
 11
133.2203467495
 21
139.6079974885
 31
0.0
  0
SPLINE
  5
BA
330
1F
100
AcDbEntity
  8
0
  6
Continuous
 62
     7
370
    15
100
AcDbSpline
210
0.0
220
0.0
230
1.0
 70
     8
 71
     3
 72
     8
 73
     4
 74
     0
 42
0.00000001
 43
0.00000001
 40
0.0
 40
0.0
 40
0.0
 40
0.0
 40
1.0
 40
1.0
 40
1.0
 40
1.0
 10
131.7384139180292
 20
136.2614529597033
 30
0.0
 10
132.2455007597884
 20
135.1303026055396
 30
0.0
 10
132.7410685989284
 20
133.9939181947718
 30
0.0
 10
133.2203467495182
 20
132.8529069649192
 30
0.0
  0
SPLINE
  5
BB
330
1F
100
AcDbEntity
  8
0
  6
Continuous
 62
     7
370
    15
100
AcDbSpline
210
0.0
220
0.0
230
1.0
 70
     8
 71
     3
 72
     8
 73
     4
 74
     0
 42
0.00000001
 43
0.00000001
 40
0.0
 40
0.0
 40
0.0
 40
0.0
 40
1.0
 40
1.0
 40
1.0
 40
1.0
 10
137.0403467495182
 20
132.8529069649192
 30
0.0
 10
137.5196249001081
 20
133.9939181947718
 30
0.0
 10
138.015192739248
 20
135.1303026055396
 30
0.0
 10
138.5222795810073
 20
136.2614529597033
 30
0.0
  0
SPLINE
  5
BC
330
1F
100
AcDbEntity
  8
0
  6
Continuous
 62
     7
370
    15
100
AcDbSpline
210
0.0
220
0.0
230
1.0
 70
     8
 71
     3
 72
    12
 73
     8
 74
     0
 42
0.00000001
 43
0.00000001
 40
0.0
 40
0.0
 40
0.0
 40
0.0
 40
0.25
 40
0.25
 40
0.5
 40
0.5
 40
1.0
 40
1.0
 40
1.0
 40
1.0
 10
142.4803467495182
 20
136.2614529597033
 30
0.0
 10
142.5715464713439
 20
136.2614529597033
 30
0.0
 10
142.6621414804799
 20
136.2332332611154
 30
0.0
 10
142.8155542069265
 20
136.1387902538673
 30
0.0
 10
142.8807630742502
 20
136.072503277162
 30
0.0
 10
143.0335476035901
 20
135.8468784538737
 30
0.0
 10
143.0803467495182
 20
135.6644521908412
 30
0.0
 10
143.0803467495182
 20
135.4837155585943
 30
0.0
  0
LINE
  5
BD
330
1F
100
AcDbEntity
  8
0
  6
Continuous
 62
     7
370
    15
100
AcDbLine
 10
137.0403467495
 20
131.9386299288
 30
0.0
 11
137.0403467495
 21
132.8529069649
 31
0.0
  0
LINE
  5
BE
330
1F
100
AcDbEntity
  8
0
  6
Continuous
 62
     7
370
    15
100
AcDbLine
 10
143.0803467495
 20
135.4837155586
 30
0.0
 11
143.0803467495
 21
131.6527632973
 31
0.0
  0
SPLINE
  5
BF
330
1F
100
AcDbEntity
  8
0
  6
Continuous
 62
     7
370
    15
100
AcDbSpline
210
0.0
220
0.0
230
1.0
 70
     8
 71
     3
 72
    10
 73
     6
 74
     0
 42
0.00000001
 43
0.00000001
 40
0.0
 40
0.0
 40
0.0
 40
0.0
 40
0.5
 40
0.5
 40
1.0
 40
1.0
 40
1.0
 40
1.0
 10
143.0803467495182
 20
141.6492036210998
 30
0.0
 10
143.0803467495182
 20
141.8096088874506
 30
0.0
 10
143.0181089184113
 20
141.9686707004392
 30
0.0
 10
142.7989739946688
 20
142.1995831660695
 30
0.0
 10
142.6413852996769
 20
142.2699587705001
 30
0.0
 10
142.4803467495182
 20
142.2699587705001
 30
0.0
  0
LINE
  5
C0
330
1F
100
AcDbEntity
  8
0
  6
Continuous
 62
     7
370
    15
100
AcDbLine
 10
143.0803467495
 20
135.4837155586
 30
0.0
 11
143.0803467495
 21
141.6492036211
 31
0.0
  0
SPLINE
  5
C1
330
1F
100
AcDbEntity
  8
0
  6
Continuous
 62
     7
370
    15
100
AcDbSpline
210
0.0
220
0.0
230
1.0
 70
     8
 71
     3
 72
     8
 73
     4
 74
     0
 42
0.00000001
 43
0.00000001
 40
0.0
 40
0.0
 40
0.0
 40
0.0
 40
1.0
 40
1.0
 40
1.0
 40
1.0
 10
138.5222795810073
 20
142.2699587705001
 30
0.0
 10
138.027139551643
 20
141.3832791223199
 30
0.0
 10
137.533056846364
 20
140.4960164866339
 30
0.0
 10
137.0403467495182
 20
139.6079974885075
 30
0.0
  0
LINE
  5
C2
330
1F
100
AcDbEntity
  8
0
  6
Continuous
 62
     7
370
    15
100
AcDbLine
 10
137.0403467495
 20
132.8529069649
 30
0.0
 11
137.0403467495
 21
139.6079974885
 31
0.0
  0
LINE
  5
C3
330
1F
100
AcDbEntity
  8
0
  6
Continuous
 62
     7
370
    15
100
AcDbLine
 10
133.2203467495
 20
132.8529069649
 30
0.0
 11
133.2203467495
 21
131.9386299288
 31
0.0
  0
ARC
  5
C4
330
1F
100
AcDbEntity
  8
0
  6
Continuous
 62
     7
370
    15
100
AcDbCircle
 10
125.1301890167
 20
130.5081441115
 30
0.0
 40
7.249691764955021
100
AcDbArc
 50
70.8954495701
 51
109.0601329037
  0
SPLINE
  5
C5
330
1F
100
AcDbEntity
  8
0
  6
Continuous
 62
     7
370
    15
100
AcDbSpline
210
0.0
220
0.0
230
1.0
 70
     8
 71
     3
 72
    39
 73
    35
 74
     0
 42
0.00000001
 43
0.00000001
 40
-0.0930101214669551
 40
-0.0618280028303945
 40
-0.0306436199920217
 40
0.0
 40
0.0306596107138098
 40
0.0618452964001
 40
0.0930163102304051
 40
0.1240785945074867
 40
0.1552163478462293
 40
0.1868112107939041
 40
0.2185267826062754
 40
0.2499192584027632
 40
0.2813177417187948
 40
0.3130921101016684
 40
0.3447271324217637
 40
0.3759220232797263
 40
0.4069779730814039
 40
0.4381192479309727
 40
0.4692677792203458
 40
0.5000093392007176
 40
0.5307192062576775
 40
0.5619180231307562
 40
0.5930486394301976
 40
0.6241331762561616
 40
0.6552964593282322
 40
0.6869387764013095
 40
0.7186659751595813
 40
0.7500826423953632
 40
0.781452371213365
 40
0.8132065805150444
 40
0.8447916839918377
 40
0.8759584677019076
 40
0.9069898785330448
 40
0.9381719971696054
 40
0.9693563800079782
 40
0.9999999999999999
 40
1.03065961071381
 40
1.0618452964001
 40
1.093016310230405
 10
200.2029629031681
 20
108.8578388713358
 30
0.0
 10
199.6302412514127
 20
108.7997882274425
 30
0.0
 10
199.0575506395442
 20
108.8580226613231
 30
0.0
 10
198.5070667389539
 20
109.0330579480621
 30
0.0
 10
197.9979990234543
 20
109.3085976217087
 30
0.0
 10
197.5557184235768
 20
109.6805828106615
 30
0.0
 10
197.1925518298896
 20
110.1334316233158
 30
0.0
 10
196.924236645513
 20
110.6534230430071
 30
0.0
 10
196.7539699892932
 20
111.2161801750331
 30
0.0
 10
196.6977177727381
 20
111.8013055105529
 30
0.0
 10
196.7541413178801
 20
112.3867580545077
 30
0.0
 10
196.9242413178478
 20
112.9502232649756
 30
0.0
 10
197.1924459419848
 20
113.4713633154296
 30
0.0
 10
197.5556748733001
 20
113.9248993233008
 30
0.0
 10
197.9977367666499
 20
114.2973114290014
 30
0.0
 10
198.5062120006184
 20
114.5730422951854
 30
0.0
 10
199.056914057935
 20
114.7478337206544
 30
0.0
 10
199.6303215485389
 20
114.8056610305966
 30
0.0
 10
200.2040357944985
 20
114.7477784491926
 30
0.0
 10
200.7547372597191
 20
114.572795003549
 30
0.0
 10
201.2635693002267
 20
114.2968633768743
 30
0.0
 10
201.7055006836361
 20
113.9244019619743
 30
0.0
 10
202.0686490486903
 20
113.4707854837338
 30
0.0
 10
202.3366214813767
 20
112.950011475949
 30
0.0
 10
202.506568310601
 20
112.3866513608676
 30
0.0
 10
202.5629689880617
 20
111.8015190612987
 30
0.0
 10
202.5067365794363
 20
111.2161831540136
 30
0.0
 10
202.3364114033529
 20
110.6533948547256
 30
0.0
 10
202.0679507691164
 20
110.1330823721966
 30
0.0
 10
201.7047413853244
 20
109.6803435954345
 30
0.0
 10
201.2623550669257
 20
109.3084029893419
 30
0.0
 10
200.7533635177313
 20
109.0330144244067
 30
0.0
 10
200.2029629031681
 20
108.8578388713358
 30
0.0
 10
199.6302412514127
 20
108.7997882274425
 30
0.0
 10
199.0575506395442
 20
108.8580226613231
 30
0.0
  0
LINE
  5
C6
330
1F
100
AcDbEntity
  8
0
  6
Continuous
 62
     7
370
    15
100
AcDbLine
 10
203.1910517662
 20
96.8027632973
 30
0.0
 11
203.1910517662
 21
126.8027632973
 31
0.0
  0
LINE
  5
C7
330
1F
100
AcDbEntity
  8
0
  6
Continuous
 62
     7
370
    15
100
AcDbLine
 10
176.7539233109
 20
126.6378580093
 30
0.0
 11
176.9260884171
 21
126.6192145478
 31
0.0
  0
SPLINE
  5
C8
330
1F
100
AcDbEntity
  8
0
  6
Continuous
 62
     7
370
    15
100
AcDbSpline
210
0.0
220
0.0
230
1.0
 70
     8
 71
     3
 72
    37
 73
    33
 74
     0
 42
0.00000001
 43
0.00000001
 40
0.0
 40
0.0
 40
0.0
 40
0.0
 40
0.0260745690363589
 40
0.0485613789562384
 40
0.0686516358259709
 40
0.1094511196058709
 40
0.1301874919269442
 40
0.1516489175492173
 40
0.1951472409224589
 40
0.2172029083284273
 40
0.2418582355108127
 40
0.2918187188911567
 40
0.3171485545383647
 40
0.345575068218709
 40
0.4032428283255149
 40
0.432528464247258
 40
0.4636592982830784
 40
0.5269199854930223
 40
0.5591193170383675
 40
0.5911186074605724
 40
0.6233445310618143
 40
0.6563033069143737
 40
0.6895250809470382
 40
0.7206642780458481
 40
0.7842158098972059
 40
0.8167789331396232
 40
0.8395613286466248
 40
0.885832678063717
 40
0.909399447297145
 40
0.9321878521921783
 40
0.9787112702307842
 40
1.0
 40
1.0
 40
1.0
 40
1.0
 10
182.5705845899003
 20
126.8011433745076
 30
0.0
 10
182.5720504474736
 20
126.8013851387272
 30
0.0
 10
182.5747804663288
 20
126.8018354013515
 30
0.0
 10
182.5352592610027
 20
126.7952996516875
 30
0.0
 10
182.4695761789518
 20
126.7845699415279
 30
0.0
 10
182.3715415195133
 20
126.7688566643853
 30
0.0
 10
182.2432990625243
 20
126.7490991005534
 30
0.0
 10
182.091560598694
 20
126.7264143143235
 30
0.0
 10
181.9095508711207
 20
126.7005975742417
 30
0.0
 10
181.6970983257478
 20
126.6726877810237
 30
0.0
 10
181.4528410039823
 20
126.6424897268089
 30
0.0
 10
181.1756214716571
 20
126.6118600668071
 30
0.0
 10
180.8688029564298
 20
126.5828454427669
 30
0.0
 10
180.5262023233749
 20
126.5544265272001
 30
0.0
 10
180.1529507641526
 20
126.5307257876302
 30
0.0
 10
179.7602155134564
 20
126.5143053145817
 30
0.0
 10
179.3431349872354
 20
126.5031800467416
 30
0.0
 10
178.910461032473
 20
126.5021189632449
 30
0.0
 10
178.479395564807
 20
126.5116580218518
 30
0.0
 10
178.1573396049195
 20
126.5240046944943
 30
0.0
 10
177.8392756253531
 20
126.5412505839448
 30
0.0
 10
177.5263217615171
 20
126.5630894339899
 30
0.0
 10
177.2285254946898
 20
126.5883658084417
 30
0.0
 10
176.8558589299108
 20
126.6251287406471
 30
0.0
 10
176.5164787384262
 20
126.6652939961937
 30
0.0
 10
176.242339627378
 20
126.7019598221846
 30
0.0
 10
176.0321670386716
 20
126.7317276247808
 30
0.0
 10
175.8705907186544
 20
126.7561562360708
 30
0.0
 10
175.7456217092356
 20
126.7758288604931
 30
0.0
 10
175.6470382794556
 20
126.7917025257661
 30
0.0
 10
175.5876224610452
 20
126.8015546424265
 30
0.0
 10
175.5829427659667
 20
126.8023321502799
 30
0.0
 10
175.5814736373939
 20
126.8025762386198
 30
0.0
  0
SPLINE
  5
C9
330
1F
100
AcDbEntity
  8
0
  6
Continuous
 62
     7
370
    15
100
AcDbSpline
210
0.0
220
0.0
230
1.0
 70
     8
 71
     3
 72
     9
 73
     5
 74
     0
 42
0.00000001
 43
0.00000001
 40
0.0
 40
0.0
 40
0.0
 40
0.0
 40
0.3625033216874962
 40
0.9999999999999999
 40
0.9999999999999999
 40
0.9999999999999999
 40
0.9999999999999999
 10
176.4915650190726
 20
126.6698153134815
 30
0.0
 10
176.5209308347912
 20
126.6659584653262
 30
0.0
 10
176.6019392392988
 20
126.6553189817006
 30
0.0
 10
176.6947541277846
 20
126.6446557708475
 30
0.0
 10
176.7539233108923
 20
126.6378580093485
 30
0.0
  0
SPLINE
  5
CA
330
1F
100
AcDbEntity
  8
0
  6
Continuous
 62
     7
370
    15
100
AcDbSpline
210
0.0
220
0.0
230
1.0
 70
     8
 71
     3
 72
    60
 73
    56
 74
     0
 42
0.00000001
 43
0.00000001
 40
-0.0312499999999997
 40
-0.0312499999999997
 40
0.0
 40
0.0
 40
0.0625000000000016
 40
0.0625000000000016
 40
0.0937500000000024
 40
0.0937500000000024
 40
0.1250000000000032
 40
0.1250000000000032
 40
0.1875000000000037
 40
0.1875000000000037
 40
0.2500000000000042
 40
0.2500000000000042
 40
0.2812500000000045
 40
0.2812500000000045
 40
0.3125000000000048
 40
0.3125000000000048
 40
0.3437500000000049
 40
0.3437500000000049
 40
0.3750000000000051
 40
0.3750000000000051
 40
0.4062500000000053
 40
0.4062500000000053
 40
0.4375000000000055
 40
0.4375000000000055
 40
0.4687500000000057
 40
0.4687500000000057
 40
0.5000000000000059
 40
0.5000000000000059
 40
0.5625000000000046
 40
0.5625000000000046
 40
0.593750000000004
 40
0.593750000000004
 40
0.6250000000000033
 40
0.6250000000000033
 40
0.6562500000000027
 40
0.6562500000000027
 40
0.687500000000002
 40
0.687500000000002
 40
0.7500000000000017
 40
0.7500000000000017
 40
0.7812500000000016
 40
0.7812500000000016
 40
0.8125000000000013
 40
0.8125000000000013
 40
0.8437500000000011
 40
0.8437500000000011
 40
0.8750000000000009
 40
0.8750000000000009
 40
0.9062500000000007
 40
0.9062500000000007
 40
0.9375000000000006
 40
0.9375000000000006
 40
0.9687500000000003
 40
0.9687500000000003
 40
1.0
 40
1.0
 40
1.062500000000002
 40
1.062500000000002
 10
176.5842136041431
 20
113.8914370849919
 30
0.0
 10
177.0933427281802
 20
114.2797138784855
 30
0.0
 10
177.4705608837098
 20
114.470561820955
 30
0.0
 10
178.0806459534209
 20
114.6638470409664
 30
0.0
 10
178.2869472529876
 20
114.7109594345231
 30
0.0
 10
178.7051431715864
 20
114.7724179848452
 30
0.0
 10
178.9182509953039
 20
114.7867245759012
 30
0.0
 10
179.5581667887761
 20
114.7785902434221
 30
0.0
 10
179.9752902891192
 20
114.7072502760424
 30
0.0
 10
180.7819175487116
 20
114.4285514265997
 30
0.0
 10
181.1514865532297
 20
114.2290837819321
 30
0.0
 10
181.6490370013769
 20
113.8267328059926
 30
0.0
 10
181.8002962756362
 20
113.6787261677906
 30
0.0
 10
182.0701851867009
 20
113.3546091651876
 30
0.0
 10
182.1903793435333
 20
113.1755345855742
 30
0.0
 10
182.3843822087984
 20
112.7993282757448
 30
0.0
 10
182.4589363679933
 20
112.6025713772511
 30
0.0
 10
182.5590599473044
 20
112.1900854840895
 30
0.0
 10
182.5834027480045
 20
111.9745951441005
 30
0.0
 10
182.5766573673662
 20
111.551465273756
 30
0.0
 10
182.545639559811
 20
111.3374533515699
 30
0.0
 10
182.4324047282583
 20
110.9268033152748
 30
0.0
 10
182.3513567944872
 20
110.730804054996
 30
0.0
 10
182.1435622588212
 20
110.3561616632863
 30
0.0
 10
182.0201652261649
 20
110.1835874069664
 30
0.0
 10
181.739946369625
 20
109.8652263237108
 30
0.0
 10
181.5820851597313
 20
109.7191046541049
 30
0.0
 10
181.0784193295567
 20
109.3328211137559
 30
0.0
 10
180.6925743693313
 20
109.1364565900729
 30
0.0
 10
180.087757067163
 20
108.9437708390545
 30
0.0
 10
179.8792709749849
 20
108.8955680854058
 30
0.0
 10
179.4568979537038
 20
108.8331207039502
 30
0.0
 10
179.2455220839268
 20
108.8190192305582
 30
0.0
 10
178.82240392944
 20
108.8238907909345
 30
0.0
 10
178.6094595668647
 20
108.8430797018394
 30
0.0
 10
178.1885577278458
 20
108.9155608004433
 30
0.0
 10
177.9836960511548
 20
108.968107278221
 30
0.0
 10
177.3856618227641
 20
109.1743206655608
 30
0.0
 10
177.0038633386084
 20
109.3807267821566
 30
0.0
 10
176.5140557823702
 20
109.7768721956292
 30
0.0
 10
176.3629064039201
 20
109.9238553516143
 30
0.0
 10
176.0888009527289
 20
110.2528997754407
 30
0.0
 10
175.9709105527497
 20
110.4289710138931
 30
0.0
 10
175.7764592194374
 20
110.8057764497483
 30
0.0
 10
175.6997945847108
 20
111.0090039517596
 30
0.0
 10
175.6008273418285
 20
111.4208565070296
 30
0.0
 10
175.5769013300876
 20
111.6320766745498
 30
0.0
 10
175.5845869022673
 20
112.0624637068457
 30
0.0
 10
175.6158962401883
 20
112.272549626298
 30
0.0
 10
175.7299185360702
 20
112.6831806633696
 30
0.0
 10
175.813237413473
 20
112.8828284080975
 30
0.0
 10
176.0200518259993
 20
113.2535214152482
 30
0.0
 10
176.1457883238031
 20
113.428840412023
 30
0.0
 10
176.4276243436304
 20
113.7471475859449
 30
0.0
 10
176.5842136041431
 20
113.8914370849919
 30
0.0
 10
177.0933427281802
 20
114.2797138784855
 30
0.0
  0
SPLINE
  5
CB
330
1F
100
AcDbEntity
  8
0
  6
Continuous
 62
     7
370
    15
100
AcDbSpline
210
0.0
220
0.0
230
1.0
 70
     8
 71
     3
 72
     9
 73
     5
 74
     0
 42
0.00000001
 43
0.00000001
 40
0.0
 40
0.0
 40
0.0
 40
0.0
 40
0.8306961451677634
 40
1.0
 40
1.0
 40
1.0
 40
1.0
 10
176.7539233112
 20
96.96766858535813
 30
0.0
 10
176.6820131543419
 20
96.95946153392754
 30
0.0
 10
176.5954470166797
 20
96.94958180657073
 30
0.0
 10
176.522601000878
 20
96.93987314883795
 30
0.0
 10
176.5102678895936
 20
96.93822943565856
 30
0.0
  0
SPLINE
  5
CC
330
1F
100
AcDbEntity
  8
0
  6
Continuous
 62
     7
370
    15
100
AcDbSpline
210
0.0
220
0.0
230
1.0
 70
     8
 71
     3
 72
    39
 73
    35
 74
     0
 42
0.00000001
 43
0.00000001
 40
0.0
 40
0.0
 40
0.0
 40
0.0
 40
0.0060930915915707
 40
0.0287231216979005
 40
0.0488575597471498
 40
0.0897791026067263
 40
0.1105983631044339
 40
0.1315246787516562
 40
0.1739506973677861
 40
0.1954697364836922
 40
0.2192513009537078
 40
0.2674372844787146
 40
0.2918637061366415
 40
0.319421174821042
 40
0.3753053589442875
 40
0.4036706937147588
 40
0.4343190429066362
 40
0.4965752772228844
 40
0.5282468941304266
 40
0.5601856082086002
 40
0.592346556057351
 40
0.6252194849322178
 40
0.6583446550624817
 40
0.6898805263369195
 40
0.7216586971763914
 40
0.754253995627786
 40
0.7871589908225307
 40
0.8110125140027775
 40
0.8594545121918974
 40
0.8841254510707379
 40
0.9079858265415885
 40
0.9567347565320071
 40
0.9817327968062026
 40
1.0
 40
1.0
 40
1.0
 40
1.0
 10
175.5851971180336
 20
96.80356660581373
 30
0.0
 10
175.5835485991467
 20
96.80329365665268
 30
0.0
 10
175.5757774032112
 20
96.80200696140906
 30
0.0
 10
175.595333465798
 20
96.80525362863693
 30
0.0
 10
175.6371489104747
 20
96.81215516065295
 30
0.0
 10
175.7159317390989
 20
96.82499991511096
 30
0.0
 10
175.824973590593
 20
96.84219904275247
 30
0.0
 10
175.9562791182633
 20
96.86239754330443
 30
0.0
 10
176.1173487879279
 20
96.88612403093491
 30
0.0
 10
176.3086626353433
 20
96.9125163700166
 30
0.0
 10
176.52973292754
 20
96.94148658853196
 30
0.0
 10
176.7832613192124
 20
96.97173895957596
 30
0.0
 10
177.0671294487159
 20
97.00148931233859
 30
0.0
 10
177.3868975263953
 20
97.03159493029649
 30
0.0
 10
177.7388075828661
 20
97.05840699644293
 30
0.0
 10
178.1137745347101
 20
97.07931838638163
 30
0.0
 10
178.5174317064804
 20
97.09600119303377
 30
0.0
 10
178.9415461983602
 20
97.10359884483896
 30
0.0
 10
179.3696894977573
 20
97.10084729831608
 30
0.0
 10
179.6936214995595
 20
97.09349202647553
 30
0.0
 10
180.0173263988308
 20
97.08088980653842
 30
0.0
 10
180.3382623754206
 20
97.06324255824637
 30
0.0
 10
180.6478637560165
 20
97.0413494101826
 30
0.0
 10
180.9424388807145
 20
97.0161967364662
 30
0.0
 10
181.2216918806409
 20
96.98855874139215
 30
0.0
 10
181.4880148211516
 20
96.95876907164315
 30
0.0
 10
181.7139869291418
 20
96.93077795344202
 30
0.0
 10
181.9574905823353
 20
96.89837695591788
 30
0.0
 10
182.153070073242
 20
96.87013146655184
 30
0.0
 10
182.3119159035919
 20
96.84592176076939
 30
0.0
 10
182.4450445019314
 20
96.82499687880191
 30
0.0
 10
182.5347766717403
 20
96.81031713097737
 30
0.0
 10
182.576080075054
 20
96.80347315911789
 30
0.0
 10
182.5783680922937
 20
96.80309226020779
 30
0.0
 10
182.5793341258227
 20
96.80293143925248
 30
0.0
  0
LINE
  5
CD
330
1F
100
AcDbEntity
  8
0
  6
Continuous
 62
     7
370
    15
100
AcDbLine
 10
176.8231095342
 20
96.9752104472
 30
0.0
 11
176.7539233112
 21
96.9676685854
 31
0.0
  0
CIRCLE
  5
CE
330
1F
100
AcDbEntity
  8
0
  6
Continuous
 62
     7
370
    15
100
AcDbCircle
 10
179.0803467495
 20
111.8027632973
 30
0.0
 40
2.5
  0
LINE
  5
CF
330
1F
100
AcDbEntity
  8
0
  6
Continuous
 62
     7
370
    15
100
AcDbLine
 10
217.1303467495
 20
104.576903819
 30
0.0
 11
217.1303467495
 21
119.0286227757
 31
0.0
  0
CIRCLE
  5
D0
330
1F
100
AcDbEntity
  8
0
  6
HIDDEN
 62
     7
370
     0
100
AcDbCircle
 10
199.6303467495
 20
111.8027632973
 30
0.0
 40
2.999999999999979
  0
CIRCLE
  5
D1
330
1F
100
AcDbEntity
  8
0
  6
HIDDEN
 62
     7
370
     0
100
AcDbCircle
 10
199.6303467495
 20
111.8027632973
 30
0.0
 40
1.249999999999969
  0
CIRCLE
  5
D2
330
1F
100
AcDbEntity
  8
0
  6
HIDDEN
 62
     7
370
     0
100
AcDbCircle
 10
199.6303467495
 20
111.8027632973
 30
0.0
 40
2.099999999999975
  0
LINE
  5
D3
330
1F
100
AcDbEntity
  8
0
  6
HIDDEN
 62
     7
370
     0
100
AcDbLine
 10
217.1131107681
 20
114.9776351262
 30
0.0
 11
217.1303467495
 21
115.3343210524
 31
0.0
  0
LWPOLYLINE
  5
D4
330
1F
100
AcDbEntity
  8
0
  6
HIDDEN
 62
     7
370
     0
100
AcDbPolyline
 90
       12
 70
   128
 43
0.0
 10
217.1303467495
 20
116.9649577716
 10
217.1251664297
 20
116.8980955448
 10
217.1075819492
 20
116.5925194732
 10
217.0909664301
 20
116.189236248
 10
217.0775638904
 20
115.7427115034
 10
217.0691844172
 20
115.3132508805
 10
217.066959705
 20
114.958855416
 10
217.0711902134
 20
114.7273881813
 10
217.0813045887
 20
114.6501101089
 10
217.0959368287
 20
114.7374580309
 10
217.1131107681
 20
114.9776351262
 10
217.1131107681
 20
114.9776351262
  0
LWPOLYLINE
  5
D5
330
1F
100
AcDbEntity
  8
0
  6
HIDDEN
 62
     7
370
     0
100
AcDbPolyline
 90
       20
 70
   128
 43
0.0
 10
216.9509103365
 20
114.7770921281
 10
216.9701301786
 20
115.1685903333
 10
216.9874866122
 20
115.6364825296
 10
217.0010987986
 20
116.1300653375
 10
217.009491646
 20
116.5958514009
 10
217.0117556594
 20
116.9833655725
 10
217.0076454976
 20
117.2506146789
 10
216.9976065604
 20
117.3686381326
 10
216.9827267226
 20
117.3246462611
 10
216.9646184454
 20
117.1234062662
 10
216.9452440416
 20
116.7867256241
 10
216.9267030285
 20
116.3510889063
 10
216.9110046126
 20
115.8637041109
 10
216.8998499608
 20
115.3773869429
 10
216.8944478527
 20
114.9448374136
 10
216.8953836905
 20
114.6129289761
 10
216.9025560618
 20
114.4176290598
 10
216.9151877287
 20
114.3801014409
 10
216.9319098542
 20
114.5044128192
 10
216.9509103365
 20
114.7770921281
  0
LWPOLYLINE
  5
D6
330
1F
100
AcDbEntity
  8
0
  6
HIDDEN
 62
     7
370
     0
100
AcDbPolyline
 90
       20
 70
   128
 43
0.0
 10
211.6169725326
 20
114.9252811942
 10
211.6361923747
 20
115.3167793994
 10
211.6535488083
 20
115.7846715957
 10
211.6671609947
 20
116.2782544036
 10
211.6755538422
 20
116.744040467
 10
211.6778178555
 20
117.1315546386
 10
211.6737076937
 20
117.398803745
 10
211.6636687565
 20
117.5168271987
 10
211.6487889187
 20
117.4728353272
 10
211.6306806415
 20
117.2715953324
 10
211.6113062377
 20
116.9349146902
 10
211.5927652246
 20
116.4992779724
 10
211.5770668087
 20
116.011893177
 10
211.5659121569
 20
115.525576009
 10
211.5605100488
 20
115.0930264797
 10
211.5614458866
 20
114.7611180423
 10
211.5686182579
 20
114.5658181259
 10
211.5812499248
 20
114.528290507
 10
211.5979720503
 20
114.6526018853
 10
211.6169725326
 20
114.9252811942
  0
LWPOLYLINE
  5
D7
330
1F
100
AcDbEntity
  8
0
  6
HIDDEN
 62
     7
370
     0
100
AcDbPolyline
 90
       17
 70
   128
 43
0.0
 10
211.1180327671
 20
115.3046496615
 10
211.1331506946
 20
115.6212200867
 10
211.1461725046
 20
116.000880012
 10
211.1551157446
 20
116.3858296556
 10
211.1586188873
 20
116.7174639236
 10
211.156148611
 20
116.9452945052
 10
211.148080993
 20
117.0346362595
 10
211.1356442548
 20
116.9718877143
 10
211.1207317772
 20
116.7666017668
 10
211.1056138497
 20
116.4500313417
 10
211.0925920397
 20
116.0703714163
 10
211.0836487997
 20
115.6854217728
 10
211.080145657
 20
115.3537875047
 10
211.0826159332
 20
115.1259569232
 10
211.0906835513
 20
115.0366151689
 10
211.1031202895
 20
115.099363714
 10
211.1180327671
 20
115.3046496615
  0
LINE
  5
D8
330
1F
100
AcDbEntity
  8
0
  6
HIDDEN
 62
     7
370
     0
100
AcDbLine
 10
217.1303467495
 20
116.5995326244
 30
0.0
 11
217.1159251953
 21
116.5021042536
 31
0.0
  0
LINE
  5
D9
330
1F
100
AcDbEntity
  8
0
  6
HIDDEN
 62
     7
370
     0
100
AcDbLine
 10
217.085913381
 20
115.6742036809
 30
0.0
 11
217.1159251953
 21
116.5021042536
 31
0.0
  0
LINE
  5
DA
330
1F
100
AcDbEntity
  8
0
  6
HIDDEN
 62
     7
370
     0
100
AcDbLine
 10
217.0847446754
 20
115.0411598498
 30
0.0
 11
217.085913381
 21
115.6742036809
 31
0.0
  0
LINE
  5
DB
330
1F
100
AcDbEntity
  8
0
  6
HIDDEN
 62
     7
370
     0
100
AcDbLine
 10
217.0847446754
 20
115.0411598498
 30
0.0
 11
217.1135877839
 21
115.2360165913
 31
0.0
  0
LINE
  5
DC
330
1F
100
AcDbEntity
  8
0
  6
HIDDEN
 62
     7
370
     0
100
AcDbLine
 10
217.1303467495
 20
115.6983264381
 30
0.0
 11
217.1135877839
 21
115.2360165913
 31
0.0
  0
LINE
  5
DD
330
1F
100
AcDbEntity
  8
0
  6
HIDDEN
 62
     7
370
     0
100
AcDbLine
 10
215.0862866029
 20
115.0966816137
 30
0.0
 11
215.1151297114
 21
115.2915383552
 31
0.0
  0
LINE
  5
DE
330
1F
100
AcDbEntity
  8
0
  6
HIDDEN
 62
     7
370
     0
100
AcDbLine
 10
215.0862866029
 20
115.0966816137
 30
0.0
 11
215.0874553086
 21
115.7297254448
 31
0.0
  0
LINE
  5
DF
330
1F
100
AcDbEntity
  8
0
  6
HIDDEN
 62
     7
370
     0
100
AcDbLine
 10
215.1463102313
 20
116.752482759
 30
0.0
 11
215.1174671228
 21
116.5576260175
 31
0.0
  0
LINE
  5
E0
330
1F
100
AcDbEntity
  8
0
  6
HIDDEN
 62
     7
370
     0
100
AcDbLine
 10
215.1451415256
 20
116.1194389279
 30
0.0
 11
215.1463102313
 21
116.752482759
 31
0.0
  0
LINE
  5
E1
330
1F
100
AcDbEntity
  8
0
  6
HIDDEN
 62
     7
370
     0
100
AcDbLine
 10
215.1451415256
 20
116.1194389279
 30
0.0
 11
215.1151297114
 21
115.2915383552
 31
0.0
  0
LINE
  5
E2
330
1F
100
AcDbEntity
  8
0
  6
HIDDEN
 62
     7
370
     0
100
AcDbLine
 10
215.0874553086
 20
115.7297254448
 30
0.0
 11
215.1174671228
 21
116.5576260175
 31
0.0
  0
LINE
  5
E3
330
1F
100
AcDbEntity
  8
0
  6
HIDDEN
 62
     7
370
     0
100
AcDbLine
 10
215.0874553086
 20
115.7297254448
 30
0.0
 11
217.085913381
 21
115.6742036809
 31
0.0
  0
LINE
  5
E4
330
1F
100
AcDbEntity
  8
0
  6
HIDDEN
 62
     7
370
     0
100
AcDbLine
 10
215.1174671228
 20
116.5576260175
 30
0.0
 11
217.1159251953
 21
116.5021042536
 31
0.0
  0
LINE
  5
E5
330
1F
100
AcDbEntity
  8
0
  6
HIDDEN
 62
     7
370
     0
100
AcDbLine
 10
215.1151297114
 20
115.2915383552
 30
0.0
 11
217.1135877839
 21
115.2360165913
 31
0.0
  0
LINE
  5
E6
330
1F
100
AcDbEntity
  8
0
  6
HIDDEN
 62
     7
370
     0
100
AcDbLine
 10
215.0862866029
 20
115.0966816137
 30
0.0
 11
217.0847446754
 21
115.0411598498
 31
0.0
  0
LINE
  5
E7
330
1F
100
AcDbEntity
  8
0
  6
HIDDEN
 62
     7
370
     0
100
AcDbLine
 10
215.1451415256
 20
116.1194389279
 30
0.0
 11
217.1303467495
 21
116.0642853586
 31
0.0
  0
LINE
  5
E8
330
1F
100
AcDbEntity
  8
0
  6
HIDDEN
 62
     7
370
     0
100
AcDbLine
 10
215.1463102313
 20
116.752482759
 30
0.0
 11
217.1447683038
 21
116.6969609951
 31
0.0
  0
LWPOLYLINE
  5
E9
330
1F
100
AcDbEntity
  8
0
  6
HIDDEN
 62
     7
370
     0
100
AcDbPolyline
 90
       20
 70
   128
 43
0.0
 10
211.7150319087
 20
106.1368519368
 10
211.7027078572
 20
106.0891279861
 10
211.6861926669
 20
106.2035085009
 10
211.667276015
 20
106.4675985776
 10
211.6480078142
 20
106.8527799587
 10
211.630476073
 20
107.3173122648
 10
211.6165806276
 20
107.8108562126
 10
211.6078272652
 20
108.2799286572
 10
211.6051645484
 20
108.6736983208
 10
211.6088810238
 20
108.9494941504
 10
211.6185739538
 20
109.0774293885
 10
211.6331929588
 20
109.0436402669
 10
211.651153843
 20
108.8517883612
 10
211.6705102657
 20
108.5226638022
 10
211.6891646584
 20
108.091932343
 10
211.7050955279
 20
107.6062704204
 10
211.7165765175
 20
107.1183070397
 10
211.7223634838
 20
106.6809206048
 10
211.7218293192
 20
106.3415087225
 10
211.7150319087
 20
106.1368519368
  0
LWPOLYLINE
  5
EA
330
1F
100
AcDbEntity
  8
0
  6
HIDDEN
 62
     7
370
     0
100
AcDbPolyline
 90
       17
 70
   128
 43
0.0
 10
211.1984173917
 20
106.6056983505
 10
211.1883172554
 20
106.580039067
 10
211.1745785819
 20
106.7052677522
 10
211.1592929596
 20
106.962319474
 10
211.144787486
 20
107.3120604379
 10
211.1332704879
 20
107.7012457525
 10
211.1264953239
 20
108.0706254818
 10
211.1254934513
 20
108.3639649103
 10
211.1304173961
 20
108.5366057692
 10
211.1405175323
 20
108.5622650526
 10
211.1542562059
 20
108.4370363674
 10
211.1695418282
 20
108.1799846457
 10
211.1840473018
 20
107.8302436818
 10
211.1955642999
 20
107.4410583671
 10
211.2023394639
 20
107.0716786379
 10
211.2033413365
 20
106.7783392094
 10
211.1984173917
 20
106.6056983505
  0
LWPOLYLINE
  5
EB
330
1F
100
AcDbEntity
  8
0
  6
HIDDEN
 62
     7
370
     0
100
AcDbPolyline
 90
       20
 70
   128
 43
0.0
 10
217.0489697126
 20
106.2850410029
 10
217.0366456611
 20
106.2373170522
 10
217.0201304708
 20
106.351697567
 10
217.0012138189
 20
106.6157876438
 10
216.9819456181
 20
107.0009690248
 10
216.9644138769
 20
107.4655013309
 10
216.9505184315
 20
107.9590452787
 10
216.9417650691
 20
108.4281177233
 10
216.9391023523
 20
108.8218873869
 10
216.9428188277
 20
109.0976832165
 10
216.9525117577
 20
109.2256184546
 10
216.9671307627
 20
109.191829333
 10
216.9850916469
 20
108.9999774273
 10
217.0044480696
 20
108.6708528684
 10
217.0231024622
 20
108.2401214091
 10
217.0390333318
 20
107.7544594865
 10
217.0505143214
 20
107.2664961058
 10
217.0563012877
 20
106.8291096709
 10
217.0557671231
 20
106.4896977886
 10
217.0489697126
 20
106.2850410029
  0
LWPOLYLINE
  5
EC
330
1F
100
AcDbEntity
  8
0
  6
HIDDEN
 62
     7
370
     0
100
AcDbPolyline
 90
       11
 70
   128
 43
0.0
 10
217.1952476851
 20
106.5201440451
 10
217.1898070589
 20
106.5257130547
 10
217.1743057566
 20
106.6547674526
 10
217.1568442386
 20
106.9300802352
 10
217.1397807796
 20
107.3144688857
 10
217.1254198943
 20
107.7560195867
 10
217.1157010998
 20
108.1950984695
 10
217.1119369733
 20
108.5724054979
 10
217.1146358808
 20
108.8369832669
 10
217.1234333199
 20
108.9530990828
 10
217.1303467495
 20
108.947594545
  0
LINE
  5
ED
330
1F
100
AcDbEntity
  8
0
  6
HIDDEN
 62
     7
370
     0
100
AcDbLine
 10
217.1892364732
 20
107.5139823488
 30
0.0
 11
217.1892364732
 21
106.9016099131
 31
0.0
  0
LINE
  5
EE
330
1F
100
AcDbEntity
  8
0
  6
HIDDEN
 62
     7
370
     0
100
AcDbLine
 10
215.1907784007
 20
107.4584605849
 30
0.0
 11
215.1907784007
 21
106.8460881492
 31
0.0
  0
LINE
  5
EF
330
1F
100
AcDbEntity
  8
0
  6
HIDDEN
 62
     7
370
     0
100
AcDbLine
 10
215.1907784007
 20
107.4584605849
 30
0.0
 11
215.1613335389
 21
108.2945680233
 31
0.0
  0
LINE
  5
F0
330
1F
100
AcDbEntity
  8
0
  6
HIDDEN
 62
     7
370
     0
100
AcDbLine
 10
215.1907784007
 20
107.4584605849
 30
0.0
 11
217.1892364732
 21
107.5139823488
 31
0.0
  0
LINE
  5
F1
330
1F
100
AcDbEntity
  8
0
  6
HIDDEN
 62
     7
370
     0
100
AcDbLine
 10
217.1892364732
 20
107.5139823488
 30
0.0
 11
217.1597916113
 21
108.3500897872
 31
0.0
  0
LINE
  5
F2
330
1F
100
AcDbEntity
  8
0
  6
HIDDEN
 62
     7
370
     0
100
AcDbLine
 10
215.1613335389
 20
108.2945680233
 30
0.0
 11
217.1597916113
 21
108.3500897872
 31
0.0
  0
LINE
  5
F3
330
1F
100
AcDbEntity
  8
0
  6
HIDDEN
 62
     7
370
     0
100
AcDbLine
 10
215.1613335389
 20
108.2945680233
 30
0.0
 11
215.131888677
 21
108.5183030261
 31
0.0
  0
LINE
  5
F4
330
1F
100
AcDbEntity
  8
0
  6
HIDDEN
 62
     7
370
     0
100
AcDbLine
 10
217.1597916113
 20
108.3500897872
 30
0.0
 11
217.1303467495
 21
108.57382479
 31
0.0
  0
LINE
  5
F5
330
1F
100
AcDbEntity
  8
0
  6
HIDDEN
 62
     7
370
     0
100
AcDbLine
 10
215.1613335389
 20
107.0698231519
 30
0.0
 11
217.1597916113
 21
107.1253449158
 31
0.0
  0
LINE
  5
F6
330
1F
100
AcDbEntity
  8
0
  6
HIDDEN
 62
     7
370
     0
100
AcDbLine
 10
215.1613335389
 20
107.0698231519
 30
0.0
 11
215.1907784007
 21
106.8460881492
 31
0.0
  0
LINE
  5
F7
330
1F
100
AcDbEntity
  8
0
  6
HIDDEN
 62
     7
370
     0
100
AcDbLine
 10
215.1907784007
 20
106.8460881492
 30
0.0
 11
217.1892364732
 21
106.9016099131
 31
0.0
  0
LINE
  5
F8
330
1F
100
AcDbEntity
  8
0
  6
HIDDEN
 62
     7
370
     0
100
AcDbLine
 10
217.1597916113
 20
107.1253449158
 30
0.0
 11
217.1892364732
 21
106.9016099131
 31
0.0
  0
LINE
  5
F9
330
1F
100
AcDbEntity
  8
0
  6
HIDDEN
 62
     7
370
     0
100
AcDbLine
 10
215.131888677
 20
107.9059305904
 30
0.0
 11
217.1303467495
 21
107.9614523543
 31
0.0
  0
LINE
  5
FA
330
1F
100
AcDbEntity
  8
0
  6
HIDDEN
 62
     7
370
     0
100
AcDbLine
 10
215.131888677
 20
108.5183030261
 30
0.0
 11
217.1303467495
 21
108.57382479
 31
0.0
  0
LINE
  5
FB
330
1F
100
AcDbEntity
  8
0
  6
HIDDEN
 62
     7
370
     0
100
AcDbLine
 10
215.131888677
 20
107.9059305904
 30
0.0
 11
215.131888677
 21
108.5183030261
 31
0.0
  0
LINE
  5
FC
330
1F
100
AcDbEntity
  8
0
  6
HIDDEN
 62
     7
370
     0
100
AcDbLine
 10
215.1613335389
 20
107.0698231519
 30
0.0
 11
215.131888677
 21
107.9059305904
 31
0.0
  0
LINE
  5
FD
330
1F
100
AcDbEntity
  8
0
  6
HIDDEN
 62
     7
370
     0
100
AcDbLine
 10
217.1597916113
 20
107.1253449158
 30
0.0
 11
217.1303467495
 21
107.9614523543
 31
0.0
  0
LINE
  5
FE
330
1F
100
AcDbEntity
  8
0
  6
HIDDEN
 62
     7
370
     0
100
AcDbLine
 10
131.738413918
 20
136.2614529597
 30
0.0
 11
131.738413918
 21
131.6527632973
 31
0.0
  0
ARC
  5
FF
330
1F
100
AcDbEntity
  8
0
  6
HIDDEN
 62
     7
370
     0
100
AcDbCircle
 10
125.4296227153
 20
124.283291208
 30
0.0
 40
3.66286009023906
100
AcDbArc
 50
265.3133929614
 51
12.753293832
  0
ARC
  5
100
330
1F
100
AcDbEntity
  8
0
  6
HIDDEN
 62
     7
370
     0
100
AcDbCircle
 10
124.8286666632
 20
124.277634834
 30
0.0
 40
3.657420175129259
100
AcDbArc
 50
166.0259653719
 51
274.7313831557
  0
LINE
  5
101
330
1F
100
AcDbEntity
  8
0
  6
HIDDEN
 62
     7
370
     0
100
AcDbLine
 10
105.1254969541
 20
88.2781636745
 30
0.0
 11
104.8766321353
 21
88.254900708
 31
0.0
  0
LINE
  5
102
330
1F
100
AcDbEntity
  8
0
  6
HIDDEN
 62
     7
370
     0
100
AcDbLine
 10
104.7440713742
 20
135.3628496256
 30
0.0
 11
105.1254042338
 21
135.3273463273
 31
0.0
  0
SPLINE
  5
103
330
1F
100
AcDbEntity
  8
0
  6
HIDDEN
 62
     7
370
     0
100
AcDbSpline
210
0.0
220
0.0
230
1.0
 70
     8
 71
     3
 72
    32
 73
    28
 74
     0
 42
0.00000001
 43
0.00000001
 40
0.0
 40
0.0
 40
0.0
 40
0.0
 40
0.0346246159901393
 40
0.0694870388940023
 40
0.105100760954932
 40
0.1409753874086758
 40
0.1756005721189328
 40
0.210469240812561
 40
0.2461122854708169
 40
0.2820258067991321
 40
0.3162663828049037
 40
0.3859338563640312
 40
0.4214461814158482
 40
0.4553763558770598
 40
0.5243713305904967
 40
0.5595124638219118
 40
0.593798734303577
 40
0.6635059787021123
 40
0.6990055363805018
 40
0.7337623601246063
 40
0.7687606633024604
 40
0.8045245907686109
 40
0.8405553812432468
 40
0.875170121130555
 40
0.9456085132854553
 40
0.9815233266320907
 40
1.0
 40
1.0
 40
1.0
 40
1.0
 10
110.8853487511198
 20
91.96523482151943
 30
0.0
 10
110.8133504492734
 20
91.97502276442776
 30
0.0
 10
110.6688593507402
 20
91.99466587526419
 30
0.0
 10
110.4275394164817
 20
92.0241150938859
 30
0.0
 10
110.1682411654961
 20
92.05266547597633
 30
0.0
 10
109.8942537463635
 20
92.07909669493115
 30
0.0
 10
109.609625965342
 20
92.10254917228245
 30
0.0
 10
109.3150410063738
 20
92.12254662874106
 30
0.0
 10
109.0081100974055
 20
92.1387023072448
 30
0.0
 10
108.696378631653
 20
92.15014429494032
 30
0.0
 10
108.2791130829676
 20
92.15883542263813
 30
0.0
 10
107.8584700896101
 20
92.15754736617795
 30
0.0
 10
107.4450665364446
 20
92.14631955481047
 30
0.0
 10
107.0402225733773
 20
92.12902128272962
 30
0.0
 10
106.6495844888151
 20
92.10330563896137
 30
0.0
 10
106.2808034107739
 20
92.07121232806448
 30
0.0
 10
105.9273856285254
 20
92.03565411956204
 30
0.0
 10
105.6019445382045
 20
91.99640566322644
 30
0.0
 10
105.3125673324872
 20
91.9567741458541
 30
0.0
 10
105.1146534555119
 20
91.92763840271184
 30
0.0
 10
104.9373264914744
 20
91.8999041703991
 30
0.0
 10
104.7807171629619
 20
91.87412362614472
 30
0.0
 10
104.6490696432592
 20
91.85151698941053
 30
0.0
 10
104.5072084476875
 20
91.82633094410389
 30
0.0
 10
104.4183898598718
 20
91.80988539498028
 30
0.0
 10
104.3815669213214
 20
91.80299256416409
 30
0.0
 10
104.3829830684946
 20
91.8032575500733
 30
0.0
 10
104.3834641307038
 20
91.803347565228
 30
0.0
  0
SPLINE
  5
104
330
1F
100
AcDbEntity
  8
0
  6
HIDDEN
 62
     7
370
     0
100
AcDbSpline
210
0.0
220
0.0
230
1.0
 70
     8
 71
     3
 72
    30
 73
    26
 74
     0
 42
0.00000001
 43
0.00000001
 40
0.0
 40
0.0
 40
0.0
 40
0.0
 40
0.0156161600804337
 40
0.0849748372628082
 40
0.1203204532886746
 40
0.15431851909124
 40
0.2234436946574013
 40
0.2586467089786606
 40
0.2931107206687011
 40
0.3631864361325603
 40
0.3988795186727328
 40
0.4336750628309723
 40
0.4687145712104809
 40
0.5045294144990544
 40
0.5406151111978532
 40
0.5750767863722916
 40
0.6452033649630275
 40
0.6809575734718859
 40
0.7149323277721685
 40
0.784033058295527
 40
0.8192378401372485
 40
0.8533347063218409
 40
0.9226550151093995
 40
0.9579547149334489
 40
1.0
 40
1.0
 40
1.0
 40
1.0
 10
104.3834641307038
 20
131.8021790294438
 30
0.0
 10
104.3828663916187
 20
131.8022912823255
 30
0.0
 10
104.379613813442
 20
131.8029021028028
 30
0.0
 10
104.4299347158904
 20
131.7934429683456
 30
0.0
 10
104.5302397449317
 20
131.7751381322495
 30
0.0
 10
104.6648567330014
 20
131.7511548268757
 30
0.0
 10
104.8469153780314
 20
131.7200560327292
 30
0.0
 10
105.0738379516967
 20
131.6841368886869
 30
0.0
 10
105.3304243570741
 20
131.6458178675478
 30
0.0
 10
105.6284610155468
 20
131.6055727322396
 30
0.0
 10
105.9610102695465
 20
131.5669117088372
 30
0.0
 10
106.2262079749508
 20
131.5395090501061
 30
0.0
 10
106.5052658002097
 20
131.5144642134939
 30
0.0
 10
106.7997168161039
 20
131.4922965161983
 30
0.0
 10
107.1025817494201
 20
131.4741344289283
 30
0.0
 10
107.5129677362889
 20
131.4558763239339
 30
0.0
 10
107.9338085752437
 20
131.4470290899295
 30
0.0
 10
108.3537124924727
 20
131.4484944843707
 30
0.0
 10
108.7683270133264
 20
131.456537877538
 30
0.0
 10
109.1745481328022
 20
131.4740446631372
 30
0.0
 10
109.5640786325242
 20
131.4996099761651
 30
0.0
 10
109.9408993337625
 20
131.5297942118793
 30
0.0
 10
110.2940364934665
 20
131.5656917867267
 30
0.0
 10
110.6357879812881
 20
131.6065100645854
 30
0.0
 10
110.7974617422977
 20
131.6283949781518
 30
0.0
 10
110.8853487511198
 20
131.6402917731523
 30
0.0
  0
SPLINE
  5
105
330
1F
100
AcDbEntity
  8
0
  6
HIDDEN
 62
     7
370
     0
100
AcDbSpline
210
0.0
220
0.0
230
1.0
 70
     8
 71
     3
 72
    15
 73
    11
 74
     0
 42
0.00000001
 43
0.00000001
 40
0.0
 40
0.0
 40
0.0
 40
0.0
 40
0.1100514953777004
 40
0.2208770384259293
 40
0.334130122967031
 40
0.4482176105651682
 40
0.5582920650460343
 40
0.782147256626296
 40
0.8961885944059527
 40
1.0
 40
1.0
 40
1.0
 40
1.0
 10
110.8853487511198
 20
131.6402917731523
 30
0.0
 10
110.952942737043
 20
131.6493600272091
 30
0.0
 10
111.0886061314827
 20
131.6675603169267
 30
0.0
 10
111.2690515643035
 20
131.6882813727808
 30
0.0
 10
111.4312003069904
 20
131.7050210560722
 30
0.0
 10
111.5692515725793
 20
131.7176031756288
 30
0.0
 10
111.7208917090422
 20
131.7299819380403
 30
0.0
 10
111.8223409654897
 20
131.7369394557725
 30
0.0
 10
111.8737686343155
 20
131.7402369885018
 30
0.0
 10
111.8777237930538
 20
131.7404823073356
 30
0.0
 10
111.8796085092231
 20
131.7405992069099
 30
0.0
  0
SPLINE
  5
106
330
1F
100
AcDbEntity
  8
0
  6
HIDDEN
 62
     7
370
     0
100
AcDbSpline
210
0.0
220
0.0
230
1.0
 70
     8
 71
     3
 72
    17
 73
    13
 74
     0
 42
0.00000001
 43
0.00000001
 40
0.0
 40
0.0
 40
0.0
 40
0.0
 40
0.0067793691499361
 40
0.118143460670705
 40
0.2319220377754621
 40
0.3465354972572183
 40
0.4572754319302699
 40
0.5687879717935548
 40
0.6827450694971511
 40
0.797551953855186
 40
0.8984782954613281
 40
1.0
 40
1.0
 40
1.0
 40
1.0
 10
111.8796119510582
 20
91.864927170333
 30
0.0
 10
111.8798544573836
 20
91.86491185566389
 30
0.0
 10
111.8840805934562
 20
91.86464496829306
 30
0.0
 10
111.8681546430335
 20
91.86564222109978
 30
0.0
 10
111.8291480142265
 20
91.86815819201412
 30
0.0
 10
111.7606933906227
 20
91.87285595806078
 30
0.0
 10
111.6679420667824
 20
91.87980578410483
 30
0.0
 10
111.5506503224155
 20
91.88953527954482
 30
0.0
 10
111.4078137277712
 20
91.90278228348251
 30
0.0
 10
111.2462643247645
 20
91.91976937277988
 30
0.0
 10
111.0724609868631
 20
91.9400620130491
 30
0.0
 10
110.9478416573053
 20
91.95682745066036
 30
0.0
 10
110.8853487511198
 20
91.96523482151943
 30
0.0
  0
LINE
  5
107
330
1F
100
AcDbEntity
  8
0
  6
HIDDEN
 62
     7
370
     0
100
AcDbLine
 10
98.1343213457
 20
94.8027632973
 30
0.0
 11
98.1343213457
 21
128.8027632973
 31
0.0
  0
LWPOLYLINE
  5
108
330
1F
100
AcDbEntity
  8
0
  6
HIDDEN
 62
     7
370
     0
100
AcDbPolyline
 90
       14
 70
   128
 43
0.0
 10
125.1303467495
 20
133.748365712
 10
125.9355408299
 20
133.7893058295
 10
126.70777017
 20
133.9104500887
 10
127.4154196099
 20
134.1068388296
 10
128.0295178984
 20
134.3704318738
 10
128.5249237795
 20
134.6904376913
 10
128.8813552781
 20
135.0537552063
 10
129.0842200468
 20
135.445510157
 10
129.1252127782
 20
135.8496640497
 10
129.002655225
 20
136.2496707765
 10
128.7215649078
 20
136.6291540151
 10
128.2934496973
 20
136.9725776771
 10
127.7358366804
 20
137.2658819574
 10
127.5029619904
 20
137.3585440343
  0
LWPOLYLINE
  5
109
330
1F
100
AcDbEntity
  8
0
  6
HIDDEN
 62
     7
370
     0
100
AcDbPolyline
 90
       14
 70
   128
 43
0.0
 10
122.7627274052
 20
137.3603814253
 10
122.5248568186
 20
137.2658819574
 10
121.9672438018
 20
136.9725776771
 10
121.5391285912
 20
136.6291540151
 10
121.2580382741
 20
136.2496707765
 10
121.1354807208
 20
135.8496640497
 10
121.1764734522
 20
135.445510157
 10
121.3793382209
 20
135.0537552063
 10
121.7357697195
 20
134.6904376913
 10
122.2311756006
 20
134.3704318738
 10
122.8452738891
 20
134.1068388296
 10
123.5529233291
 20
133.9104500887
 10
124.3251526692
 20
133.7893058295
 10
125.1303467495
 20
133.748365712
  0
SPLINE
  5
10A
330
1F
100
AcDbEntity
  8
0
  6
HIDDEN
 62
     7
370
     0
100
AcDbSpline
210
0.0
220
0.0
230
1.0
 70
     8
 71
     3
 72
    11
 73
     7
 74
     0
 42
0.00000001
 43
0.00000001
 40
0.0
 40
0.0
 40
0.0
 40
0.0
 40
0.0005779865010845
 40
0.0005779865010845
 40
0.0005779865010845
 40
0.0011559733324421
 40
0.0011559733324421
 40
0.0011559733324421
 40
0.0011559733324421
 10
85.23034674951822
 20
113.8026039054897
 30
0.0
 10
85.39701400432419
 20
113.8006202661487
 30
0.0
 10
85.56368043400185
 20
113.7985826591461
 30
0.0
 10
85.73034677245367
 20
113.7964711957397
 30
0.0
 10
85.89701320128007
 20
113.7943597311884
 30
0.0
 10
86.06367957491777
 20
113.792174168032
 30
0.0
 10
86.2303467495182
 20
113.7898915907004
 30
0.0
  0
SPLINE
  5
10B
330
1F
100
AcDbEntity
  8
0
  6
HIDDEN
 62
     7
370
     0
100
AcDbSpline
210
0.0
220
0.0
230
1.0
 70
     8
 71
     3
 72
     8
 73
     4
 74
     0
 42
0.00000001
 43
0.00000001
 40
0.0
 40
0.0
 40
0.0
 40
0.0
 40
0.0011564765856722
 40
0.0011564765856722
 40
0.0011564765856722
 40
0.0011564765856722
 10
86.2303467495182
 20
109.8060629951196
 30
0.0
 10
85.89703881894935
 20
109.8051878395364
 30
0.0
 10
85.56370358655715
 20
109.8041329882848
 30
0.0
 10
85.2303467495182
 20
109.8029619012473
 30
0.0
  0
LINE
  5
10C
330
1F
100
AcDbEntity
  8
0
  6
HIDDEN
 62
     7
370
     0
100
AcDbLine
 10
124.7901727181
 20
94.8027632973
 30
0.0
 11
124.7901727181
 21
128.8027632973
 31
0.0
  0
LINE
  5
10D
330
1F
100
AcDbEntity
  8
0
  6
HIDDEN
 62
     7
370
     0
100
AcDbLine
 10
127.0803467495
 20
96.0777632973
 30
0.0
 11
127.0803467495
 21
127.5277632973
 31
0.0
  0
SPLINE
  5
10E
330
1F
100
AcDbEntity
  8
0
  6
HIDDEN
 62
     7
370
     0
100
AcDbSpline
210
0.0
220
0.0
230
1.0
 70
     8
 71
     3
 72
    16
 73
    12
 74
     0
 42
0.00000001
 43
0.00000001
 40
0.0
 40
0.0
 40
0.0
 40
0.0
 40
0.124999999999998
 40
0.124999999999998
 40
0.249999999999996
 40
0.249999999999996
 40
0.4999999999999973
 40
0.4999999999999973
 40
0.7499999999999987
 40
0.7499999999999987
 40
1.0
 40
1.0
 40
1.0
 40
1.0
 10
93.93034674951821
 20
96.00127286130423
 30
0.0
 10
94.02546850418403
 20
96.00127286130423
 30
0.0
 10
94.11879857291211
 20
95.99745702791144
 30
0.0
 10
94.30206033365012
 20
95.98268647518162
 30
0.0
 10
94.39293804920712
 20
95.97152842720605
 30
0.0
 10
94.64973974672685
 20
95.92905715706432
 30
0.0
 10
94.80480711159886
 20
95.88801095986152
 30
0.0
 10
95.05855357315347
 20
95.79286484327963
 30
0.0
 10
95.15942402482133
 20
95.73810210919805
 30
0.0
 10
95.29467043951617
 20
95.62684098529417
 30
0.0
 10
95.33034674951821
 20
95.56967124796549
 30
0.0
 10
95.33034674951821
 20
95.51524967493178
 30
0.0
  0
SPLINE
  5
10F
330
1F
100
AcDbEntity
  8
0
  6
HIDDEN
 62
     7
370
     0
100
AcDbSpline
210
0.0
220
0.0
230
1.0
 70
     8
 71
     3
 72
     8
 73
     4
 74
     0
 42
0.00000001
 43
0.00000001
 40
0.0
 40
0.0
 40
0.0
 40
0.0
 40
1.0
 40
1.0
 40
1.0
 40
1.0
 10
86.5303467528334
 20
98.14607580738648
 30
0.0
 10
86.53034675283533
 20
97.26217866506954
 30
0.0
 10
86.51686612692554
 20
96.5475954200076
 30
0.0
 10
86.51551475873623
 20
96.00127286130423
 30
0.0
  0
SPLINE
  5
110
330
1F
100
AcDbEntity
  8
0
  6
HIDDEN
 62
     7
370
     0
100
AcDbSpline
210
0.0
220
0.0
230
1.0
 70
     8
 71
     3
 72
    10
 73
     6
 74
     0
 42
0.00000001
 43
0.00000001
 40
0.0
 40
0.0
 40
0.0
 40
0.0
 40
0.5
 40
0.5
 40
1.0
 40
1.0
 40
1.0
 40
1.0
 10
86.2303467495182
 20
99.17098607308968
 30
0.0
 10
86.3217378652111
 20
98.99634728547225
 30
0.0
 10
86.39438969894415
 20
98.82274545821667
 30
0.0
 10
86.50188859195234
 20
98.47913203920996
 30
0.0
 10
86.53034675282778
 20
98.31080621267851
 30
0.0
 10
86.53034675283341
 20
98.14607580744594
 30
0.0
  0
LINE
  5
111
330
1F
100
AcDbEntity
  8
0
  6
HIDDEN
 62
     7
370
     0
100
AcDbLine
 10
86.2303467495
 20
102.2019365049
 30
0.0
 11
86.2303467495
 21
99.1709860731
 31
0.0
  0
SPLINE
  5
112
330
1F
100
AcDbEntity
  8
0
  6
HIDDEN
 62
     7
370
     0
100
AcDbSpline
210
0.0
220
0.0
230
1.0
 70
     8
 71
     3
 72
    10
 73
     6
 74
     0
 42
0.00000001
 43
0.00000001
 40
0.0
 40
0.0
 40
0.0
 40
0.0
 40
0.5
 40
0.5
 40
1.0
 40
1.0
 40
1.0
 40
1.0
 10
86.53034675270592
 20
103.5697769216931
 30
0.0
 10
86.5303467527059
 20
103.3277929540862
 30
0.0
 10
86.50219672363532
 20
103.0934505251212
 30
0.0
 10
86.3986068094929
 20
102.6380755028435
 30
0.0
 10
86.32197809990141
 20
102.4164709397362
 30
0.0
 10
86.2303467495182
 20
102.2019365049382
 30
0.0
  0
LINE
  5
113
330
1F
100
AcDbEntity
  8
0
  6
HIDDEN
 62
     7
370
     0
100
AcDbLine
 10
86.5303467527
 20
115.4073969189
 30
0.0
 11
86.5303467527
 21
103.5697769216
 31
0.0
  0
SPLINE
  5
114
330
1F
100
AcDbEntity
  8
0
  6
HIDDEN
 62
     7
370
     0
100
AcDbSpline
210
0.0
220
0.0
230
1.0
 70
     8
 71
     3
 72
     8
 73
     4
 74
     0
 42
0.00000001
 43
0.00000001
 40
0.0
 40
0.0
 40
0.0
 40
0.0
 40
1.0
 40
1.0
 40
1.0
 40
1.0
 10
86.23034674951819
 20
121.4097026184042
 30
0.0
 10
86.41137821607711
 20
120.9775951327415
 30
0.0
 10
86.53034675271164
 20
120.5234497266419
 30
0.0
 10
86.53034675270594
 20
120.0357496729478
 30
0.0
  0
LINE
  5
115
330
1F
100
AcDbEntity
  8
0
  6
HIDDEN
 62
     7
370
     0
100
AcDbLine
 10
86.2303467495
 20
124.4429056044
 30
0.0
 11
86.2303467495
 21
121.4097026184
 31
0.0
  0
SPLINE
  5
116
330
1F
100
AcDbEntity
  8
0
  6
HIDDEN
 62
     7
370
     0
100
AcDbSpline
210
0.0
220
0.0
230
1.0
 70
     8
 71
     3
 72
    10
 73
     6
 74
     0
 42
0.00000001
 43
0.00000001
 40
0.0
 40
0.0
 40
0.0
 40
0.0
 40
0.5
 40
0.5
 40
1.0
 40
1.0
 40
1.0
 40
1.0
 10
86.53034675291143
 20
125.4594507872557
 30
0.0
 10
86.53034675290964
 20
125.2948144406497
 30
0.0
 10
86.50318808215414
 20
125.1276592168192
 30
0.0
 10
86.39742308683573
 20
124.7890362090176
 30
0.0
 10
86.32100829853857
 20
124.6167644317266
 30
0.0
 10
86.23034674951823
 20
124.4429056043826
 30
0.0
  0
SPLINE
  5
117
330
1F
100
AcDbEntity
  8
0
  6
HIDDEN
 62
     7
370
     0
100
AcDbSpline
210
0.0
220
0.0
230
1.0
 70
     8
 71
     3
 72
    18
 73
    14
 74
     0
 42
0.00000001
 43
0.00000001
 40
0.0
 40
0.0
 40
0.0
 40
0.0
 40
0.2500000000000033
 40
0.2500000000000033
 40
0.3750000000000029
 40
0.3750000000000029
 40
0.5000000000000026
 40
0.5000000000000026
 40
0.6250000000000022
 40
0.6250000000000022
 40
0.7500000000000018
 40
0.7500000000000018
 40
1.0
 40
1.0
 40
1.0
 40
1.0
 10
91.3303467495182
 20
128.09027691974
 30
0.0
 10
91.3303467495182
 20
128.0358023991878
 30
0.0
 10
91.29543605812604
 20
127.9794213398353
 30
0.0
 10
91.19342675679299
 20
127.8953444989819
 30
0.0
 10
91.15179040211488
 20
127.8680107949909
 30
0.0
 10
91.05338460662612
 20
127.815056879392
 30
0.0
 10
90.99584139492184
 20
127.7891695256748
 30
0.0
 10
90.86854322134889
 20
127.7413919808415
 30
0.0
 10
90.79895591659142
 20
127.7194440626636
 30
0.0
 10
90.64752167143646
 20
127.6800114977509
 30
0.0
 10
90.56483776834253
 20
127.6624552485251
 30
0.0
 10
90.30872630630448
 20
127.6200164831046
 30
0.0
 10
90.12081130241648
 20
127.6042537333675
 30
0.0
 10
89.93034674951821
 20
127.6042537333676
 30
0.0
  0
LINE
  5
118
330
1F
100
AcDbEntity
  8
0
  6
HIDDEN
 62
     7
370
     0
100
AcDbLine
 10
89.9303467495
 20
127.6042537334
 30
0.0
 11
86.5303467529
 21
127.6042537334
 31
0.0
  0
LINE
  5
119
330
1F
100
AcDbEntity
  8
0
  6
HIDDEN
 62
     7
370
     0
100
AcDbLine
 10
86.4613777629
 20
96.0012728613
 30
0.0
 11
93.9303467495
 21
96.0012728613
 31
0.0
  0
SPLINE
  5
11A
330
1F
100
AcDbEntity
  8
0
  6
HIDDEN
 62
     7
370
     0
100
AcDbSpline
210
0.0
220
0.0
230
1.0
 70
     8
 71
     3
 72
    22
 73
    18
 74
     0
 42
0.00000001
 43
0.00000001
 40
0.0
 40
0.0
 40
0.0
 40
0.0
 40
0.1249999999999998
 40
0.1249999999999998
 40
0.2499999999999995
 40
0.2499999999999995
 40
0.4999999999999992
 40
0.4999999999999992
 40
0.5624999999999993
 40
0.5624999999999993
 40
0.6249999999999994
 40
0.6249999999999994
 40
0.7499999999999996
 40
0.7499999999999996
 40
0.8749999999999998
 40
0.8749999999999998
 40
1.0
 40
1.0
 40
1.0
 40
1.0
 10
86.46137776287613
 20
96.00127286130423
 30
0.0
 10
86.44829537014775
 20
96.2563785714519
 30
0.0
 10
86.43507580670793
 20
96.54953683055581
 30
0.0
 10
86.41262862891381
 20
97.21183729618062
 30
0.0
 10
86.40315016188934
 20
97.582111216792
 30
0.0
 10
86.38395220095279
 20
98.80466801990579
 30
0.0
 10
86.38506597394968
 20
99.74180694603766
 30
0.0
 10
86.40397676690276
 20
101.0616781755526
 30
0.0
 10
86.40860629476177
 20
101.333180084529
 30
0.0
 10
86.41908751450772
 20
101.8915649193313
 30
0.0
 10
86.42488277579213
 20
102.1786877752709
 30
0.0
 10
86.44319199669708
 20
103.0512770296425
 30
0.0
 10
86.45722693097743
 20
103.6517327059984
 30
0.0
 10
86.48668410311424
 20
104.8892071984945
 30
0.0
 10
86.50223979409583
 20
105.5262233551379
 30
0.0
 10
86.52603434409271
 20
106.8377119528225
 30
0.0
 10
86.53405339623806
 20
107.513834564483
 30
0.0
 10
86.5303467495182
 20
108.1981296757678
 30
0.0
  0
LINE
  5
11B
330
1F
100
AcDbEntity
  8
0
  6
HIDDEN
 62
     7
370
     0
100
AcDbLine
 10
86.5303467529
 20
115.4073969189
 30
0.0
 11
86.5303467529
 21
127.6042537334
 31
0.0
  0
SPLINE
  5
11C
330
1F
100
AcDbEntity
  8
0
  6
HIDDEN
 62
     7
370
     0
100
AcDbSpline
210
0.0
220
0.0
230
1.0
 70
     8
 71
     3
 72
    10
 73
     6
 74
     0
 42
0.00000001
 43
0.00000001
 40
0.0
 40
0.0
 40
0.0
 40
0.0
 40
0.5
 40
0.5
 40
1.0
 40
1.0
 40
1.0
 40
1.0
 10
86.5303467495182
 20
108.1981296757527
 30
0.0
 10
86.53034674951803
 20
108.4720448238271
 30
0.0
 10
86.50458751965031
 20
108.7429864025572
 30
0.0
 10
86.40138158691721
 20
109.27867748416
 30
0.0
 10
86.32404342304197
 20
109.544424287682
 30
0.0
 10
86.23034674951819
 20
109.8060629951196
 30
0.0
  0
SPLINE
  5
11D
330
1F
100
AcDbEntity
  8
0
  6
HIDDEN
 62
     7
370
     0
100
AcDbSpline
210
0.0
220
0.0
230
1.0
 70
     8
 71
     3
 72
    10
 73
     6
 74
     0
 42
0.00000001
 43
0.00000001
 40
0.0
 40
0.0
 40
0.0
 40
0.0
 40
0.5
 40
0.5
 40
1.0
 40
1.0
 40
1.0
 40
1.0
 10
86.23034674951819
 20
113.7898915907004
 30
0.0
 10
86.32357733090922
 20
114.0537853987705
 30
0.0
 10
86.39860694314596
 20
114.3199657094088
 30
0.0
 10
86.50367404232412
 20
114.858288284367
 30
0.0
 10
86.5303467529103
 20
115.1310364006125
 30
0.0
 10
86.5303467529115
 20
115.407396918903
 30
0.0
  0
LINE
  5
11E
330
1F
100
AcDbEntity
  8
0
  6
HIDDEN
 62
     7
370
     0
100
AcDbLine
 10
86.2303467495
 20
109.8060629951
 30
0.0
 11
86.2303467495
 21
113.7898915907
 31
0.0
  0
SPLINE
  5
11F
330
1F
100
AcDbEntity
  8
0
  6
HIDDEN
 62
     7
370
     0
100
AcDbSpline
210
0.0
220
0.0
230
1.0
 70
     8
 71
     3
 72
    37
 73
    33
 74
     0
 42
0.00000001
 43
0.00000001
 40
-0.0672961992408418
 40
-0.0422745354168547
 40
-0.0198477749540698
 40
0.0
 40
0.0252075669982963
 40
0.0544363278064591
 40
0.0877117524166832
 40
0.1250489433360344
 40
0.1620915304696407
 40
0.1952559607569201
 40
0.2245582096136944
 40
0.2500241769224294
 40
0.2848342141695773
 40
0.3264523844554512
 40
0.374919623036529
 40
0.4123147764331268
 40
0.445620760211552
 40
0.4748524896768406
 40
0.5000352833317014
 40
0.5344594906463003
 40
0.5760834699266304
 40
0.6249453020700539
 40
0.6620128839147225
 40
0.6952092116712646
 40
0.7245502584390129
 40
0.750061878884397
 40
0.7848149950163713
 40
0.826392614582443
 40
0.8748356825798592
 40
0.9050763678478062
 40
0.9327038007591582
 40
0.9577254645831453
 40
0.9801522250459302
 40
1.0
 40
1.025207566998296
 40
1.054436327806459
 40
1.087711752416683
 10
199.3045019994039
 20
109.3166377786473
 30
0.0
 10
199.6584292173581
 20
109.2944843807083
 30
0.0
 10
200.0482720360496
 20
109.325487101718
 30
0.0
 10
200.4953801665778
 20
109.4399945480753
 30
0.0
 10
200.9689439756013
 20
109.6670565019443
 30
0.0
 10
201.4130062384002
 20
110.0177867534514
 30
0.0
 10
201.7637675819338
 20
110.4609790419237
 30
0.0
 10
201.9911601489837
 20
110.9324409391562
 30
0.0
 10
202.1070203628827
 20
111.3804884458386
 30
0.0
 10
202.1450813370485
 20
111.8504065089834
 30
0.0
 10
202.0864279010374
 20
112.385725401449
 30
0.0
 10
201.8601107637703
 20
113.0060341257378
 30
0.0
 10
201.4606426581867
 20
113.5501892300064
 30
0.0
 10
200.9693595414245
 20
113.938224572276
 30
0.0
 10
200.4953373454099
 20
114.1655854451235
 30
0.0
 10
200.0481343499624
 20
114.2800343480224
 30
0.0
 10
199.5820873912392
 20
114.3171500384754
 30
0.0
 10
199.0503181971149
 20
114.25929142078
 30
0.0
 10
198.429543260624
 20
114.0342095731657
 30
0.0
 10
197.884641526832
 20
113.6347961390203
 30
0.0
 10
197.496562486471
 20
113.1439622263803
 30
0.0
 10
197.2690491789135
 20
112.6719101628313
 30
0.0
 10
197.1533244524296
 20
112.2231982719235
 30
0.0
 10
197.1156565344286
 20
111.7530944691449
 30
0.0
 10
197.1747428756955
 20
111.2181040425831
 30
0.0
 10
197.4010952964407
 20
110.5985886506016
 30
0.0
 10
197.778348407019
 20
110.0851903985587
 30
0.0
 10
198.2073212086039
 20
109.7306442893179
 30
0.0
 10
198.5868278243436
 20
109.5184080377201
 30
0.0
 10
198.9577090110997
 20
109.3853123899656
 30
0.0
 10
199.3045019994039
 20
109.3166377786473
 30
0.0
 10
199.6584292173581
 20
109.2944843807083
 30
0.0
 10
200.0482720360496
 20
109.325487101718
 30
0.0
  0
SPLINE
  5
120
330
1F
100
AcDbEntity
  8
0
  6
HIDDEN
 62
     7
370
     0
100
AcDbSpline
210
0.0
220
0.0
230
1.0
 70
     8
 71
     3
 72
    78
 73
    74
 74
     0
 42
0.00000001
 43
0.00000001
 40
-0.0312499999999997
 40
-0.0312499999999997
 40
0.0
 40
0.0
 40
0.0312500000000003
 40
0.0312500000000003
 40
0.0625000000000007
 40
0.0625000000000007
 40
0.093750000000001
 40
0.093750000000001
 40
0.1250000000000014
 40
0.1250000000000014
 40
0.1562500000000017
 40
0.1562500000000017
 40
0.1718750000000014
 40
0.1718750000000014
 40
0.1875000000000011
 40
0.1875000000000011
 40
0.2187500000000012
 40
0.2187500000000012
 40
0.2500000000000013
 40
0.2500000000000013
 40
0.2812500000000013
 40
0.2812500000000013
 40
0.3125000000000014
 40
0.3125000000000014
 40
0.3437500000000015
 40
0.3437500000000015
 40
0.3750000000000016
 40
0.3750000000000016
 40
0.4062500000000016
 40
0.4062500000000016
 40
0.4375000000000017
 40
0.4375000000000017
 40
0.4687500000000018
 40
0.4687500000000018
 40
0.5000000000000018
 40
0.5000000000000018
 40
0.5312500000000019
 40
0.5312500000000019
 40
0.562500000000002
 40
0.562500000000002
 40
0.5937500000000021
 40
0.5937500000000021
 40
0.6250000000000022
 40
0.6250000000000022
 40
0.6562500000000024
 40
0.6562500000000024
 40
0.6875000000000026
 40
0.6875000000000026
 40
0.7031250000000026
 40
0.7031250000000026
 40
0.7187500000000027
 40
0.7187500000000027
 40
0.7500000000000024
 40
0.7500000000000024
 40
0.7656250000000023
 40
0.7656250000000023
 40
0.7812500000000021
 40
0.7812500000000021
 40
0.796875000000002
 40
0.796875000000002
 40
0.8125000000000018
 40
0.8125000000000018
 40
0.8437500000000016
 40
0.8437500000000016
 40
0.8750000000000012
 40
0.8750000000000012
 40
0.906250000000001
 40
0.906250000000001
 40
0.9375000000000007
 40
0.9375000000000007
 40
0.9687500000000003
 40
0.9687500000000003
 40
1.0
 40
1.0
 40
1.03125
 40
1.03125
 10
197.4248643864272
 20
107.6305553232887
 30
0.0
 10
196.8358291126093
 20
107.6305553232887
 30
0.0
 10
196.5453939211531
 20
107.6543345120971
 30
0.0
 10
195.9724340594477
 20
107.7481608649235
 30
0.0
 10
195.6888968136283
 20
107.8185410597989
 30
0.0
 10
195.134586044311
 20
108.0080863130941
 30
0.0
 10
194.869857494332
 20
108.1250039065924
 30
0.0
 10
194.3653154258196
 20
108.404009600392
 30
0.0
 10
194.1238039297844
 20
108.5674693823505
 30
0.0
 10
193.6761448879518
 20
108.9395414402138
 30
0.0
 10
193.4739725859085
 20
109.1443090614372
 30
0.0
 10
193.2039596749038
 20
109.4807832758278
 30
0.0
 10
193.1195340975416
 20
109.5978613342947
 30
0.0
 10
192.9625055431225
 20
109.8425370870014
 30
0.0
 10
192.8896448904684
 20
109.9708514114005
 30
0.0
 10
192.6954425911718
 20
110.3620620092245
 30
0.0
 10
192.5961633838398
 20
110.6337626929693
 30
0.0
 10
192.4599190779263
 20
111.1998966896992
 30
0.0
 10
192.4239487781207
 20
111.496179432804
 30
0.0
 10
192.4215851011386
 20
112.0787372583106
 30
0.0
 10
192.4543693296669
 20
112.3715517167868
 30
0.0
 10
192.5871147408395
 20
112.9440524794447
 30
0.0
 10
192.6850687581503
 20
113.217852460347
 30
0.0
 10
192.9408421070991
 20
113.7421057696196
 30
0.0
 10
193.0988473542467
 20
113.9909278949605
 30
0.0
 10
193.45863213149
 20
114.4447028363724
 30
0.0
 10
193.6640493266084
 20
114.6544481369617
 30
0.0
 10
194.1098347463854
 20
115.0278463609191
 30
0.0
 10
194.3487170626323
 20
115.1911198369154
 30
0.0
 10
194.8566464570307
 20
115.4743662172557
 30
0.0
 10
195.1262610230795
 20
115.5938946752772
 30
0.0
 10
195.6756693477061
 20
115.7831344437775
 30
0.0
 10
195.9578055804713
 20
115.8543038418438
 30
0.0
 10
196.5368954050461
 20
115.9504406713117
 30
0.0
 10
196.8301476010628
 20
115.974468654027
 30
0.0
 10
197.4121109450167
 20
115.9754582154994
 30
0.0
 10
197.7026508749064
 20
115.9527439048154
 30
0.0
 10
198.2828103598282
 20
115.8587615917683
 30
0.0
 10
198.5668561544601
 20
115.7881567678658
 30
0.0
 10
199.1149094182871
 20
115.6017725506845
 30
0.0
 10
199.380264887391
 20
115.4858146041109
 30
0.0
 10
199.8922238502428
 20
115.2038003679617
 30
0.0
 10
200.1331335647826
 20
115.0405102860109
 30
0.0
 10
200.576208257832
 20
114.6735679490378
 30
0.0
 10
200.7798127314567
 20
114.4692195001036
 30
0.0
 10
201.1469462583601
 20
114.0129215107167
 30
0.0
 10
201.3038191463091
 20
113.7689542197597
 30
0.0
 10
201.4971482489059
 20
113.3812091356692
 30
0.0
 10
201.5546465356065
 20
113.2481742068629
 30
0.0
 10
201.6550468510471
 20
112.9740953585446
 30
0.0
 10
201.6981097092616
 20
112.8320747543378
 30
0.0
 10
201.801070563343
 20
112.4047105249016
 30
0.0
 10
201.8363374589491
 20
112.1158333297373
 30
0.0
 10
201.8386867909154
 20
111.6764839106382
 30
0.0
 10
201.8308033135311
 20
111.5280014880105
 30
0.0
 10
201.7980383344068
 20
111.2358872011644
 30
0.0
 10
201.7732925660952
 20
111.0918991427015
 30
0.0
 10
201.7076211253593
 20
110.8079148731415
 30
0.0
 10
201.6666936918371
 20
110.6679191131396
 30
0.0
 10
201.5686316934199
 20
110.3919080931258
 30
0.0
 10
201.5111994993189
 20
110.2555048078175
 30
0.0
 10
201.3189657476338
 20
109.8618437535848
 30
0.0
 10
201.1635203411369
 20
109.616731841081
 30
0.0
 10
200.8006240470723
 20
109.158989388328
 30
0.0
 10
200.5955953482256
 20
108.9501709786286
 30
0.0
 10
200.1513845835979
 20
108.5781496780022
 30
0.0
 10
199.9083391056098
 20
108.4120424497859
 30
0.0
 10
199.3991958958615
 20
108.1287967437975
 30
0.0
 10
199.133732608697
 20
108.0112719621126
 30
0.0
 10
198.5819935149437
 20
107.8214679695484
 30
0.0
 10
198.2945786616811
 20
107.7494363577762
 30
0.0
 10
197.7174708316698
 20
107.6544529111943
 30
0.0
 10
197.4248643864272
 20
107.6305553232887
 30
0.0
 10
196.8358291126093
 20
107.6305553232887
 30
0.0
  0
LINE
  5
121
330
1F
100
AcDbEntity
  8
0
  6
HIDDEN
 62
     7
370
     0
100
AcDbLine
 10
86.3803467495
 20
93.8127632973
 30
0.0
 11
86.3803467495
 21
90.9328255319
 31
0.0
  0
LINE
  5
122
330
1F
100
AcDbEntity
  8
0
  6
HIDDEN
 62
     7
370
     0
100
AcDbLine
 10
95.3303467495
 20
93.8127632973
 30
0.0
 11
95.3303467495
 21
89.8390257661
 31
0.0
  0
LINE
  5
123
330
1F
100
AcDbEntity
  8
0
  6
HIDDEN
 62
     7
370
     0
100
AcDbLine
 10
86.3803467495
 20
129.7927632973
 30
0.0
 11
86.3803467495
 21
132.6727010627
 31
0.0
  0
LINE
  5
124
330
1F
100
AcDbEntity
  8
0
  6
HIDDEN
 62
     7
370
     0
100
AcDbLine
 10
91.3303467495
 20
129.7927632973
 30
0.0
 11
91.3303467495
 21
133.6468709697
 31
0.0
  0
LINE
  5
125
330
1F
100
AcDbEntity
  8
0
  6
HIDDEN
 62
     7
370
     0
100
AcDbLine
 10
135.9303467495
 20
102.3027632973
 30
0.0
 11
135.9303467495
 21
121.3027632973
 31
0.0
  0
LINE
  5
126
330
1F
100
AcDbEntity
  8
0
  6
HIDDEN
 62
     7
370
     0
100
AcDbLine
 10
138.9303467495
 20
102.3027632973
 30
0.0
 11
138.9303467495
 21
121.3027632973
 31
0.0
  0
LINE
  5
127
330
1F
100
AcDbEntity
  8
0
  6
HIDDEN
 62
     7
370
     0
100
AcDbLine
 10
127.5803467495
 20
103.3027632973
 30
0.0
 11
127.5803467495
 21
120.3027632973
 31
0.0
  0
LINE
  5
128
330
1F
100
AcDbEntity
  8
0
  6
HIDDEN
 62
     7
370
     0
100
AcDbLine
 10
143.0803467495
 20
85.4027632973
 30
0.0
 11
136.9426719472
 21
85.4027632973
 31
0.0
  0
LINE
  5
129
330
1F
100
AcDbEntity
  8
0
  6
HIDDEN
 62
     7
370
     0
100
AcDbLine
 10
133.3180215519
 20
85.4027632973
 30
0.0
 11
130.0803467495
 21
85.4027632973
 31
0.0
  0
LINE
  5
12A
330
1F
100
AcDbEntity
  8
0
  6
HIDDEN
 62
     7
370
     0
100
AcDbLine
 10
122.0803467495
 20
80.3186403145
 30
0.0
 11
122.0803467495
 21
85.4027632973
 31
0.0
  0
LINE
  5
12B
330
1F
100
AcDbEntity
  8
0
  6
HIDDEN
 62
     7
370
     0
100
AcDbLine
 10
130.0803467495
 20
85.4027632973
 30
0.0
 11
122.0803467495
 21
85.4027632973
 31
0.0
  0
LINE
  5
12C
330
1F
100
AcDbEntity
  8
0
  6
HIDDEN
 62
     7
370
     0
100
AcDbLine
 10
133.6146442812
 20
138.2027632973
 30
0.0
 11
130.0803467495
 21
138.2027632973
 31
0.0
  0
LINE
  5
12D
330
1F
100
AcDbEntity
  8
0
  6
HIDDEN
 62
     7
370
     0
100
AcDbLine
 10
143.0803467495
 20
138.2027632973
 30
0.0
 11
136.6460492178
 21
138.2027632973
 31
0.0
  0
LINE
  5
12E
330
1F
100
AcDbEntity
  8
0
  6
HIDDEN
 62
     7
370
     0
100
AcDbLine
 10
130.0803467495
 20
138.2027632973
 30
0.0
 11
122.0803467495
 21
138.2027632973
 31
0.0
  0
LWPOLYLINE
  5
12F
330
1F
100
AcDbEntity
  8
0
  6
HIDDEN
 62
     7
370
     0
100
AcDbPolyline
 90
       20
 70
   128
 43
0.0
 10
182.1303467495
 20
104.3781420949
 10
181.6432975457
 20
104.4356115886
 10
181.2090276805
 20
104.6017923584
 10
180.8745970321
 20
104.8586761393
 10
180.6762463506
 20
105.1784255877
 10
180.63547001
 20
105.5263908894
 10
180.7566867595
 20
105.8648646048
 10
181.0267608835
 20
106.1571678548
 10
181.41642566
 20
106.3716250467
 10
181.8834548641
 20
106.4849964162
 10
182.3772386349
 20
106.4849964162
 10
182.8442678391
 20
106.3716250467
 10
183.2339326155
 20
106.1571678548
 10
183.5040067395
 20
105.8648646048
 10
183.625223489
 20
105.5263908894
 10
183.5844471484
 20
105.1784255877
 10
183.3860964669
 20
104.8586761393
 10
183.0516658186
 20
104.6017923584
 10
182.6173959533
 20
104.4356115886
 10
182.1303467495
 20
104.3781420949
  0
SPLINE
  5
130
330
1F
100
AcDbEntity
  8
0
  6
HIDDEN
 62
     7
370
     0
100
AcDbSpline
210
0.0
220
0.0
230
1.0
 70
     8
 71
     3
 72
    14
 73
    10
 74
     0
 42
0.00000001
 43
0.00000001
 40
0.0
 40
0.0
 40
0.0
 40
0.0
 40
0.25
 40
0.25
 40
0.5
 40
0.5
 40
0.75
 40
0.75
 40
1.0
 40
1.0
 40
1.0
 40
1.0
 10
181.1766046116603
 20
105.5858546903411
 30
0.0
 10
181.2143515892478
 20
105.6189703622649
 30
0.0
 10
181.2474507814463
 20
105.6596400200271
 30
0.0
 10
181.2934212353537
 20
105.7609107027239
 30
0.0
 10
181.3046492062755
 20
105.8195562824008
 30
0.0
 10
181.2957953048583
 20
105.9532280312295
 30
0.0
 10
181.2757758550835
 20
106.0257159973949
 30
0.0
 10
181.216218161217
 20
106.1759985700071
 30
0.0
 10
181.1780519579154
 20
106.2520367661671
 30
0.0
 10
181.1365965435675
 20
106.3300327465139
 30
0.0
  0
SPLINE
  5
131
330
1F
100
AcDbEntity
  8
0
  6
HIDDEN
 62
     7
370
     0
100
AcDbSpline
210
0.0
220
0.0
230
1.0
 70
     8
 71
     3
 72
    14
 73
    10
 74
     0
 42
0.00000001
 43
0.00000001
 40
0.0
 40
0.0
 40
0.0
 40
0.0
 40
0.25
 40
0.25
 40
0.5
 40
0.5
 40
0.75
 40
0.75
 40
1.0
 40
1.0
 40
1.0
 40
1.0
 10
181.1365965435675
 20
106.3300327465138
 30
0.0
 10
181.1020321171649
 20
106.2935733527437
 30
0.0
 10
181.0686419134167
 20
106.2586008215167
 30
0.0
 10
181.0130451677517
 20
106.1800144333254
 30
0.0
 10
180.9899128400214
 20
106.13500473592
 30
0.0
 10
181.0013491295551
 20
105.9917523548802
 30
0.0
 10
181.0323927101068
 20
105.9065840271214
 30
0.0
 10
181.0992488190477
 20
105.7445881373656
 30
0.0
 10
181.1372509474081
 20
105.6644973868432
 30
0.0
 10
181.1766046116598
 20
105.5858546903393
 30
0.0
  0
SPLINE
  5
132
330
1F
100
AcDbEntity
  8
0
  6
HIDDEN
 62
     7
370
     0
100
AcDbSpline
210
0.0
220
0.0
230
1.0
 70
     8
 71
     3
 72
    48
 73
    44
 74
     0
 42
0.00000001
 43
0.00000001
 40
-0.062499999999999
 40
-0.062499999999999
 40
0.0
 40
0.0
 40
0.0312500000000015
 40
0.0312500000000015
 40
0.0625000000000029
 40
0.0625000000000029
 40
0.1250000000000044
 40
0.1250000000000044
 40
0.1875000000000058
 40
0.1875000000000058
 40
0.2500000000000073
 40
0.2500000000000073
 40
0.3125000000000087
 40
0.3125000000000087
 40
0.3437500000000084
 40
0.3437500000000084
 40
0.3750000000000081
 40
0.3750000000000081
 40
0.4062500000000078
 40
0.4062500000000078
 40
0.4375000000000075
 40
0.4375000000000075
 40
0.5000000000000068
 40
0.5000000000000068
 40
0.562500000000006
 40
0.562500000000006
 40
0.6250000000000053
 40
0.6250000000000053
 40
0.6875000000000046
 40
0.6875000000000046
 40
0.7500000000000039
 40
0.7500000000000039
 40
0.8125000000000031
 40
0.8125000000000031
 40
0.8437500000000027
 40
0.8437500000000027
 40
0.8750000000000021
 40
0.8750000000000021
 40
0.9062500000000016
 40
0.9062500000000016
 40
0.937500000000001
 40
0.937500000000001
 40
1.0
 40
1.0
 40
1.031250000000002
 40
1.031250000000002
 10
183.2611367268698
 20
105.5454523975829
 30
0.0
 10
183.3832045573868
 20
105.5488437228048
 30
0.0
 10
183.4216668873044
 20
105.5572905387511
 30
0.0
 10
183.4918163630709
 20
105.5895654028053
 30
0.0
 10
183.523833495846
 20
105.6138381602711
 30
0.0
 10
183.6025690827637
 20
105.7106608217924
 30
0.0
 10
183.6322974835846
 20
105.8098104595274
 30
0.0
 10
183.6281857295545
 20
106.0587322612971
 30
0.0
 10
183.594139636889
 20
106.2093337083916
 30
0.0
 10
183.4827734783643
 20
106.5182488789201
 30
0.0
 10
183.4063745547737
 20
106.677008758546
 30
0.0
 10
183.2432013745093
 20
106.9847800053842
 30
0.0
 10
183.1545619084938
 20
107.1355175382944
 30
0.0
 10
183.0453478077648
 20
107.3534427518169
 30
0.0
 10
183.0124262600529
 20
107.4265984115094
 30
0.0
 10
182.967975547053
 20
107.5661350551551
 30
0.0
 10
182.956742728629
 20
107.6341356905237
 30
0.0
 10
182.9635305270529
 20
107.7540692020349
 30
0.0
 10
182.9812774903386
 20
107.8074879366897
 30
0.0
 10
183.0334280168113
 20
107.8956350150193
 30
0.0
 10
183.0678011812785
 20
107.9317572011036
 30
0.0
 10
183.1797478419765
 20
108.0178565514543
 30
0.0
 10
183.26523181913
 20
108.0469535688487
 30
0.0
 10
183.4233832970305
 20
108.0504921642834
 30
0.0
 10
183.4956281724653
 20
108.0245273108032
 30
0.0
 10
183.6013182288503
 20
107.9028302468559
 30
0.0
 10
183.6318172746086
 20
107.8059814876282
 30
0.0
 10
183.6287608986906
 20
107.556832417161
 30
0.0
 10
183.5948382482962
 20
107.4038970942942
 30
0.0
 10
183.4848728206981
 20
107.091016198128
 30
0.0
 10
183.4097175553052
 20
106.9300602760687
 30
0.0
 10
183.2509576255589
 20
106.6205578138647
 30
0.0
 10
183.1643129049171
 20
106.4676793473339
 30
0.0
 10
183.0558427704714
 20
106.249055731842
 30
0.0
 10
183.0228932038207
 20
106.1769087460568
 30
0.0
 10
182.9741036640603
 20
106.0345607361949
 30
0.0
 10
182.9595120699367
 20
105.966272084274
 30
0.0
 10
182.9594938331052
 20
105.8411913222847
 30
0.0
 10
182.9741760600644
 20
105.7863297668041
 30
0.0
 10
183.024188436089
 20
105.6943837433566
 30
0.0
 10
183.0581747421197
 20
105.6580651782842
 30
0.0
 10
183.1724723107123
 20
105.5715920893452
 30
0.0
 10
183.2611367268698
 20
105.5454523975829
 30
0.0
 10
183.3832045573868
 20
105.5488437228048
 30
0.0
  0
SPLINE
  5
133
330
1F
100
AcDbEntity
  8
0
  6
HIDDEN
 62
     7
370
     0
100
AcDbSpline
210
0.0
220
0.0
230
1.0
 70
     8
 71
     3
 72
     8
 73
     4
 74
     0
 42
0.00000001
 43
0.00000001
 40
0.0
 40
0.0
 40
0.0
 40
0.0
 40
1.0
 40
1.0
 40
1.0
 40
1.0
 10
183.3723807887287
 20
110.1587179429273
 30
0.0
 10
183.3305123619144
 20
110.2029035364643
 30
0.0
 10
183.2847404428285
 20
110.2492094105296
 30
0.0
 10
183.2355727313985
 20
110.2993350594705
 30
0.0
  0
SPLINE
  5
134
330
1F
100
AcDbEntity
  8
0
  6
HIDDEN
 62
     7
370
     0
100
AcDbSpline
210
0.0
220
0.0
230
1.0
 70
     8
 71
     3
 72
    34
 73
    30
 74
     0
 42
0.00000001
 43
0.00000001
 40
0.0
 40
0.0
 40
0.0
 40
0.0
 40
0.0625000000000004
 40
0.0625000000000004
 40
0.1250000000000009
 40
0.1250000000000009
 40
0.1875000000000013
 40
0.1875000000000013
 40
0.2500000000000018
 40
0.2500000000000018
 40
0.3750000000000027
 40
0.3750000000000027
 40
0.4375000000000031
 40
0.4375000000000031
 40
0.5000000000000036
 40
0.5000000000000036
 40
0.5625000000000039
 40
0.5625000000000039
 40
0.6250000000000041
 40
0.6250000000000041
 40
0.6875000000000043
 40
0.6875000000000043
 40
0.7500000000000046
 40
0.7500000000000046
 40
0.8125000000000048
 40
0.8125000000000048
 40
0.875000000000005
 40
0.875000000000005
 40
1.0
 40
1.0
 40
1.0
 40
1.0
 10
183.2355727313985
 20
110.2993350594705
 30
0.0
 10
183.1346694102884
 20
110.40220428612
 30
0.0
 10
183.0203826501193
 20
110.4931411376989
 30
0.0
 10
182.7634878312651
 20
110.6457567503385
 30
0.0
 10
182.6237828347793
 20
110.705016135421
 30
0.0
 10
182.3305756178089
 20
110.7785855009464
 30
0.0
 10
182.1761808389213
 20
110.7923455882629
 30
0.0
 10
181.8741640509607
 20
110.7696983180854
 30
0.0
 10
181.7235431161093
 20
110.7331165050038
 30
0.0
 10
181.3052008782599
 20
110.5634007325638
 30
0.0
 10
181.0633257941857
 20
110.3685104228947
 30
0.0
 10
180.8116537250785
 20
110.0415569255106
 30
0.0
 10
180.7442990774507
 20
109.9241196844551
 30
0.0
 10
180.6544232742887
 20
109.6940996508646
 30
0.0
 10
180.6305607156031
 20
109.5781904234195
 30
0.0
 10
180.6301357234796
 20
109.3634022314579
 30
0.0
 10
180.6533697566923
 20
109.263174438799
 30
0.0
 10
180.7431441824652
 20
109.0872495945641
 30
0.0
 10
180.8096956521996
 20
109.0110107543802
 30
0.0
 10
180.9780506461261
 20
108.8838343366217
 30
0.0
 10
181.0798644480489
 20
108.8325852135372
 30
0.0
 10
181.3119054437433
 20
108.7516247628339
 30
0.0
 10
181.4397488011429
 20
108.7223282223124
 30
0.0
 10
181.7213962922712
 20
108.6804897438744
 30
0.0
 10
181.8676607306526
 20
108.6689654439488
 30
0.0
 10
182.1718586358584
 20
108.6611508453466
 30
0.0
 10
182.3249476613993
 20
108.6651876962122
 30
0.0
 10
182.7677961730112
 20
108.7023516083224
 30
0.0
 10
183.0335269923992
 20
108.759709664823
 30
0.0
 10
183.2355727313985
 20
108.8651275926256
 30
0.0
  0
SPLINE
  5
135
330
1F
100
AcDbEntity
  8
0
  6
HIDDEN
 62
     7
370
     0
100
AcDbSpline
210
0.0
220
0.0
230
1.0
 70
     8
 71
     3
 72
     8
 73
     4
 74
     0
 42
0.00000001
 43
0.00000001
 40
0.0
 40
0.0
 40
0.0
 40
0.0
 40
1.0
 40
1.0
 40
1.0
 40
1.0
 10
183.2355727313985
 20
108.8651275926256
 30
0.0
 10
183.2847404428285
 20
108.8907809831866
 30
0.0
 10
183.3305123619144
 20
108.9260492186274
 30
0.0
 10
183.3723807887287
 20
108.9693051084225
 30
0.0
  0
SPLINE
  5
136
330
1F
100
AcDbEntity
  8
0
  6
HIDDEN
 62
     7
370
     0
100
AcDbSpline
210
0.0
220
0.0
230
1.0
 70
     8
 71
     3
 72
    14
 73
    10
 74
     0
 42
0.00000001
 43
0.00000001
 40
0.0
 40
0.0
 40
0.0
 40
0.0
 40
0.25
 40
0.25
 40
0.5
 40
0.5
 40
0.75
 40
0.75
 40
1.0
 40
1.0
 40
1.0
 40
1.0
 10
183.3723807887287
 20
108.9693051084225
 30
0.0
 10
183.4565446168621
 20
109.0562580118743
 30
0.0
 10
183.5203292974368
 20
109.1474143987548
 30
0.0
 10
183.6079767534678
 20
109.3438522607467
 30
0.0
 10
183.6302077436964
 20
109.4467388599404
 30
0.0
 10
183.6304844542399
 20
109.6568056487398
 30
0.0
 10
183.6081752699154
 20
109.764337855676
 30
0.0
 10
183.5216170046067
 20
109.969844248087
 30
0.0
 10
183.4565398105329
 20
110.0699012231973
 30
0.0
 10
183.3723807887287
 20
110.1587179429273
 30
0.0
  0
SPLINE
  5
137
330
1F
100
AcDbEntity
  8
0
  6
HIDDEN
 62
     7
370
     0
100
AcDbSpline
210
0.0
220
0.0
230
1.0
 70
     8
 71
     3
 72
    12
 73
     8
 74
     0
 42
0.00000001
 43
0.00000001
 40
0.0
 40
0.0
 40
0.0
 40
0.0
 40
0.4999999999999991
 40
0.4999999999999991
 40
0.7499999999999996
 40
0.7499999999999996
 40
1.0
 40
1.0
 40
1.0
 40
1.0
 10
181.1365965435675
 20
107.9190327642436
 30
0.0
 10
181.2194031888006
 20
107.8668102861332
 30
0.0
 10
181.2909866329154
 20
107.7801503537261
 30
0.0
 10
181.3047532026273
 20
107.5910111834609
 30
0.0
 10
181.2934127631111
 20
107.5217556999153
 30
0.0
 10
181.2474501003252
 20
107.3750322102032
 30
0.0
 10
181.2143543779229
 20
107.3002521450469
 30
0.0
 10
181.1766046116603
 20
107.2231548671409
 30
0.0
  0
SPLINE
  5
138
330
1F
100
AcDbEntity
  8
0
  6
HIDDEN
 62
     7
370
     0
100
AcDbSpline
210
0.0
220
0.0
230
1.0
 70
     8
 71
     3
 72
    18
 73
    14
 74
     0
 42
0.00000001
 43
0.00000001
 40
0.0
 40
0.0
 40
0.0
 40
0.0
 40
0.2500000000000007
 40
0.2500000000000007
 40
0.3750000000000011
 40
0.3750000000000011
 40
0.5000000000000014
 40
0.5000000000000014
 40
0.6250000000000018
 40
0.6250000000000018
 40
0.7500000000000022
 40
0.7500000000000022
 40
1.0
 40
1.0
 40
1.0
 40
1.0
 10
181.1766046116603
 20
107.2231548671409
 30
0.0
 10
181.1371562355319
 20
107.2560287612191
 30
0.0
 10
181.0989995550282
 20
107.2869172603141
 30
0.0
 10
181.0487692737942
 20
107.3371516276604
 30
0.0
 10
181.0332399619569
 20
107.3545478108959
 30
0.0
 10
181.0079805579659
 20
107.3957907465997
 30
0.0
 10
180.9984088886561
 20
107.4202563010894
 30
0.0
 10
180.9928247807394
 20
107.4815825393173
 30
0.0
 10
180.9971561275127
 20
107.519020739839
 30
0.0
 10
181.0145592616051
 20
107.5969041866036
 30
0.0
 10
181.0271683067231
 20
107.6376577448929
 30
0.0
 10
181.0688692535968
 20
107.7587771140858
 30
0.0
 10
181.1021084507967
 20
107.8395166342705
 30
0.0
 10
181.1365965435675
 20
107.9190327642435
 30
0.0
  0
SPLINE
  5
139
330
1F
100
AcDbEntity
  8
0
  6
HIDDEN
 62
     7
370
     0
100
AcDbSpline
210
0.0
220
0.0
230
1.0
 70
     8
 71
     3
 72
    10
 73
     6
 74
     0
 42
0.00000001
 43
0.00000001
 40
0.0
 40
0.0
 40
0.0
 40
0.0
 40
0.5
 40
0.5
 40
1.0
 40
1.0
 40
1.0
 40
1.0
 10
180.6303467495178
 20
107.0037459899656
 30
0.0
 10
180.6303467495178
 20
107.0285695207415
 30
0.0
 10
180.6315768984259
 20
107.05110807888
 30
0.0
 10
180.636311687104
 20
107.0918563761415
 30
0.0
 10
180.6398173145477
 20
107.110068194026
 30
0.0
 10
180.644386554759
 20
107.1260769048356
 30
0.0
  0
SPLINE
  5
13A
330
1F
100
AcDbEntity
  8
0
  6
HIDDEN
 62
     7
370
     0
100
AcDbSpline
210
0.0
220
0.0
230
1.0
 70
     8
 71
     3
 72
    18
 73
    14
 74
     0
 42
0.00000001
 43
0.00000001
 40
0.0
 40
0.0
 40
0.0
 40
0.0
 40
0.0772759599426622
 40
0.1655767670744097
 40
0.2251187958671571
 40
0.2700431158236002
 40
0.3151044203741029
 40
0.3748376078086259
 40
0.4788024122396499
 40
0.6283518597251492
 40
0.7774437918839844
 40
0.9120098986051192
 40
1.0
 40
1.0
 40
1.0
 40
1.0
 10
180.6620244287847
 20
107.1568306013482
 30
0.0
 10
180.6682199419109
 20
107.1703673986507
 30
0.0
 10
180.6814948728799
 20
107.1993722681541
 30
0.0
 10
180.7071281407217
 20
107.2008316969898
 30
0.0
 10
180.724875842352
 20
107.1817036629872
 30
0.0
 10
180.7318243088583
 20
107.1443401023337
 30
0.0
 10
180.7289297522853
 20
107.0876013772132
 30
0.0
 10
180.7128419532354
 20
106.9930052082165
 30
0.0
 10
180.6798464775442
 20
106.8446013127563
 30
0.0
 10
180.6425550324437
 20
106.6571367242283
 30
0.0
 10
180.6259785215432
 20
106.4820015031842
 30
0.0
 10
180.6352824680618
 20
106.3684453469878
 30
0.0
 10
180.6540575628838
 20
106.3390488481926
 30
0.0
 10
180.6614805079055
 20
106.327426611583
 30
0.0
  0
LWPOLYLINE
  5
13B
330
1F
100
AcDbEntity
  8
0
  6
HIDDEN
 62
     7
370
     0
100
AcDbPolyline
 90
       10
 70
   128
 43
0.0
 10
180.6715921386
 20
106.3069575699
 10
180.7084041997
 20
106.3007343265
 10
180.7234621009
 20
106.3215154776
 10
180.7302128175
 20
106.357121906
 10
180.7277619798
 20
106.4119385364
 10
180.7157034935
 20
106.4851665494
 10
180.6877513386
 20
106.6136579709
 10
180.6483251568
 20
106.8111223163
 10
180.6303467495
 20
107.00374599
 10
180.6303467495
 20
107.00374599
  0
SPLINE
  5
13C
330
1F
100
AcDbEntity
  8
0
  6
HIDDEN
 62
     7
370
     0
100
AcDbSpline
210
0.0
220
0.0
230
1.0
 70
     8
 71
     3
 72
    11
 73
     7
 74
     0
 42
0.00000001
 43
0.00000001
 40
0.0
 40
0.0
 40
0.0
 40
0.0
 40
0.0008203708524183
 40
0.0008203708524183
 40
0.0008203708524183
 40
0.0016409967870154
 40
0.0016409967870154
 40
0.0016409967870154
 40
0.0016409967870154
 10
86.38034674951821
 20
95.95073054669317
 30
0.0
 10
86.18918844921956
 20
95.90955151807403
 30
0.0
 10
85.99776137914738
 20
95.87079754584401
 30
0.0
 10
85.80611575562675
 20
95.83442978656548
 30
0.0
 10
85.6144103505463
 20
95.79805068279946
 30
0.0
 10
85.42247139848733
 20
95.7640564320319
 30
0.0
 10
85.23034675141652
 20
95.73240830664069
 30
0.0
  0
ELLIPSE
  5
13D
330
1F
100
AcDbEntity
  8
0
  6
HIDDEN
 62
     7
370
     0
100
AcDbEllipse
 10
80.9879148809
 20
111.8027632973
 30
0.0
 11
20.19992453366628
 21
-1.421085471520200E-14
 31
0.0
210
0.0
220
0.0
230
1.0
 40
0.8164965809
 41
1.300566354718001
 42
1.359198697209606
  0
LINE
  5
13E
330
1F
100
AcDbEntity
  8
0
  6
HIDDEN
 62
     7
370
     0
100
AcDbLine
 10
95.3303467495
 20
93.8127632973
 30
0.0
 11
95.3303467495
 21
95.5152496749
 31
0.0
  0
LINE
  5
13F
330
1F
100
AcDbEntity
  8
0
  6
HIDDEN
 62
     7
370
     0
100
AcDbLine
 10
86.3803467495
 20
93.8127632973
 30
0.0
 11
86.3803467495
 21
95.9507305467
 31
0.0
  0
LINE
  5
140
330
1F
100
AcDbEntity
  8
0
  6
HIDDEN
 62
     7
370
     0
100
AcDbLine
 10
86.4613777629
 20
96.0012728613
 30
0.0
 11
86.3803467495
 21
95.9507305467
 31
0.0
  0
LINE
  5
141
330
1F
100
AcDbEntity
  8
0
  6
HIDDEN
 62
     7
370
     0
100
AcDbLine
 10
91.3303467495
 20
129.7927632973
 30
0.0
 11
91.3303467495
 21
128.0902769197
 31
0.0
  0
LINE
  5
142
330
1F
100
AcDbEntity
  8
0
  6
HIDDEN
 62
     7
370
     0
100
AcDbLine
 10
86.3803467495
 20
129.7927632973
 30
0.0
 11
86.3803467495
 21
127.6973877484
 31
0.0
  0
SPLINE
  5
143
330
1F
100
AcDbEntity
  8
0
  6
HIDDEN
 62
     7
370
     0
100
AcDbSpline
210
0.0
220
0.0
230
1.0
 70
     8
 71
     3
 72
     8
 73
     4
 74
     0
 42
0.00000001
 43
0.00000001
 40
0.0
 40
0.0
 40
0.0
 40
0.0
 40
1.0
 40
1.0
 40
1.0
 40
1.0
 10
86.38034674951821
 20
127.6973877483945
 30
0.0
 10
86.43035224846193
 20
127.6663519741754
 30
0.0
 10
86.48035231912635
 20
127.6353073291479
 30
0.0
 10
86.53034675291147
 20
127.6042537333675
 30
0.0
  0
ARC
  5
144
330
1F
100
AcDbEntity
  8
0
  6
HIDDEN
 62
     7
370
     0
100
AcDbCircle
 10
168.1179355377
 20
106.8214625931
 30
0.0
 40
13.06484575750316
100
AcDbArc
 50
1.7618960119
 51
4.8190653226
  0
ARC
  5
145
330
1F
100
AcDbEntity
  8
0
  6
HIDDEN
 62
     7
370
     0
100
AcDbCircle
 10
197.2666796682
 20
106.8240444263
 30
0.0
 40
16.13764633231506
100
AcDbArc
 50
181.7542339436
 51
184.4004458049
  0
SPLINE
  5
146
330
1F
100
AcDbEntity
  8
0
  6
HIDDEN
 62
     7
370
     0
100
AcDbSpline
210
0.0
220
0.0
230
1.0
 70
     8
 71
     3
 72
    20
 73
    16
 74
     0
 42
0.00000001
 43
0.00000001
 40
0.0
 40
0.0
 40
0.0
 40
0.0
 40
0.1119050023748093
 40
0.1774240605889937
 40
0.2490454696616531
 40
0.3297937484366263
 40
0.3985660039289137
 40
0.4998455280731114
 40
0.6138104119284862
 40
0.6789762050384485
 40
0.7495025608867977
 40
0.8296483545740833
 40
0.898091884189366
 40
0.9995020817538323
 40
1.0
 40
1.0
 40
1.0
 40
1.0
 10
111.8790694201311
 20
88.20280098339
 30
0.0
 10
111.8357622459076
 20
88.21622459704383
 30
0.0
 10
111.7670992322772
 20
88.23750757806965
 30
0.0
 10
111.3220047094087
 20
88.34079836077584
 30
0.0
 10
110.795450913993
 20
88.45410064578193
 30
0.0
 10
110.110024557229
 20
88.5770337952705
 30
0.0
 10
109.2167075037372
 20
88.69906818018971
 30
0.0
 10
108.1033480115185
 20
88.8168045206235
 30
0.0
 10
106.9925738707271
 20
88.82877999561498
 30
0.0
 10
106.1078258001121
 20
88.80172175189439
 30
0.0
 10
105.4406283428804
 20
88.7537895233263
 30
0.0
 10
104.899359379685
 20
88.69749668213865
 30
0.0
 10
104.5117659674346
 20
88.65241122075591
 30
0.0
 10
104.3178408334256
 20
88.61353983534231
 30
0.0
 10
104.3809792663775
 20
88.62425234343543
 30
0.0
 10
104.3812877577823
 20
88.62430468424459
 30
0.0
  0
LINE
  5
147
330
1F
100
AcDbEntity
  8
0
  6
HIDDEN
 62
     7
370
     0
100
AcDbLine
 10
105.2903586619
 20
88.7351014408
 30
0.0
 11
105.474203975
 21
88.7532907833
 31
0.0
  0
SPLINE
  5
148
330
1F
100
AcDbEntity
  8
0
  6
HIDDEN
 62
     7
370
     0
100
AcDbSpline
210
0.0
220
0.0
230
1.0
 70
     8
 71
     3
 72
    27
 73
    23
 74
     0
 42
0.00000001
 43
0.00000001
 40
0.0
 40
0.0
 40
0.0
 40
0.0
 40
0.0007883268396828
 40
0.0456706305046137
 40
0.1022520342131636
 40
0.1705298083665779
 40
0.2091213018803698
 40
0.2506483487067135
 40
0.321093799973622
 40
0.3861872330828611
 40
0.4266661955253377
 40
0.4647972719218629
 40
0.5006014229579351
 40
0.5451929808823643
 40
0.6016869755613068
 40
0.6700926337448543
 40
0.7088297845639248
 40
0.750558336968846
 40
0.8222225907047012
 40
0.8877617121073706
 40
0.9472351919375788
 40
1.0
 40
1.0
 40
1.0
 40
1.0
 10
104.38099877953
 20
134.9811809815122
 30
0.0
 10
104.3807820895854
 20
134.9812276911469
 30
0.0
 10
104.3682284558692
 20
134.9839337495495
 30
0.0
 10
104.4173111077526
 20
134.9721004161763
 30
0.0
 10
104.5624077050322
 20
134.9486580438288
 30
0.0
 10
104.8354623145728
 20
134.9147533300303
 30
0.0
 10
105.163988401033
 20
134.8811846240249
 30
0.0
 10
105.5567162707285
 20
134.8430012613454
 30
0.0
 10
106.106444200779
 20
134.8040325992298
 30
0.0
 10
106.7324668580897
 20
134.78457149204
 30
0.0
 10
107.2756583665815
 20
134.7823858146459
 30
0.0
 10
107.7207272638461
 20
134.7909006957404
 30
0.0
 10
108.1871750600979
 20
134.8106840926638
 30
0.0
 10
108.7244157097867
 20
134.8548464783026
 30
0.0
 10
109.3726291378372
 20
134.9272620976252
 30
0.0
 10
109.9581677786346
 20
135.0081641935561
 30
0.0
 10
110.4391373672358
 20
135.0863301754295
 30
0.0
 10
110.8845523751652
 20
135.1711023427527
 30
0.0
 10
111.3230513892446
 20
135.2648852052037
 30
0.0
 10
111.662079212169
 20
135.3427896257189
 30
0.0
 10
111.8494382744689
 20
135.3929862182807
 30
0.0
 10
111.8699290201229
 20
135.399653221143
 30
0.0
 10
111.8795620097361
 20
135.4027874735714
 30
0.0
  0
LINE
  5
149
330
1F
100
AcDbEntity
  8
0
  6
HIDDEN
 62
     7
370
     0
100
AcDbLine
 10
172.2303467495
 20
107.5527632973
 30
0.0
 11
172.2303467495
 21
116.0527632973
 31
0.0
  0
LINE
  5
14A
330
1F
100
AcDbEntity
  8
0
  6
HIDDEN
 62
     7
370
     0
100
AcDbLine
 10
173.5221970804
 20
109.7027632973
 30
0.0
 11
173.5221970804
 21
113.9027632973
 31
0.0
  0
SPLINE
  5
14B
330
1F
100
AcDbEntity
  8
0
  6
HIDDEN
 62
     7
370
     0
100
AcDbSpline
210
0.0
220
0.0
230
1.0
 70
     8
 71
     3
 72
     8
 73
     4
 74
     0
 42
0.00000001
 43
0.00000001
 40
0.0
 40
0.0
 40
0.0
 40
0.0
 40
1.0
 40
1.0
 40
1.0
 40
1.0
 10
183.2355727313985
 20
114.7403990020462
 30
0.0
 10
183.2847404428285
 20
114.7147456114851
 30
0.0
 10
183.3305123619144
 20
114.6794773760443
 30
0.0
 10
183.3723807887287
 20
114.6362214862493
 30
0.0
  0
SPLINE
  5
14C
330
1F
100
AcDbEntity
  8
0
  6
HIDDEN
 62
     7
370
     0
100
AcDbSpline
210
0.0
220
0.0
230
1.0
 70
     8
 71
     3
 72
    18
 73
    14
 74
     0
 42
0.00000001
 43
0.00000001
 40
0.0
 40
0.0
 40
0.0
 40
0.0
 40
0.097342832395363
 40
0.1973712277799775
 40
0.2947568574904014
 40
0.395374806306626
 40
0.4859237160443827
 40
0.5794902892194113
 40
0.664432950453863
 40
0.7515680255530661
 40
0.8420691237552371
 40
0.9347670954919026
 40
1.0
 40
1.0
 40
1.0
 40
1.0
 10
183.2355727313985
 20
113.3061915352013
 30
0.0
 10
183.1765006918932
 20
113.2506821260955
 30
0.0
 10
183.0567268916273
 20
113.1381318749989
 30
0.0
 10
182.8428594633657
 20
113.0008266965544
 30
0.0
 10
182.6063395870279
 20
112.894519514773
 30
0.0
 10
182.3604436868507
 20
112.8319743859647
 30
0.0
 10
182.1103712490141
 20
112.8136824725434
 30
0.0
 10
181.8744868380168
 20
112.8374444460144
 30
0.0
 10
181.6497158277416
 20
112.8982157184498
 30
0.0
 10
181.4400114132014
 20
112.9897352147479
 30
0.0
 10
181.243194276674
 20
113.1127871128212
 30
0.0
 10
181.0787477550078
 20
113.2452762607926
 30
0.0
 10
180.9948461379127
 20
113.3422243815224
 30
0.0
 10
180.9601908108089
 20
113.3822685302802
 30
0.0
  0
SPLINE
  5
14D
330
1F
100
AcDbEntity
  8
0
  6
HIDDEN
 62
     7
370
     0
100
AcDbSpline
210
0.0
220
0.0
230
1.0
 70
     8
 71
     3
 72
    26
 73
    22
 74
     0
 42
0.00000001
 43
0.00000001
 40
0.0
 40
0.0
 40
0.0
 40
0.0
 40
0.0158253257031632
 40
0.0744452536486173
 40
0.1350823823841547
 40
0.1888481054822333
 40
0.2442889393613054
 40
0.2963850655274142
 40
0.3498394844482053
 40
0.40499851023365
 40
0.4615351574390273
 40
0.5209140798906547
 40
0.5820485010946784
 40
0.6404236773906223
 40
0.7008863644861358
 40
0.7534317807023084
 40
0.8075853880068725
 40
0.8590737458595448
 40
0.911821095821517
 40
0.9555795450118564
 40
1.0
 40
1.0
 40
1.0
 40
1.0
 10
180.8072631129004
 20
113.5893001509007
 30
0.0
 10
180.7955517933197
 20
113.606317755198
 30
0.0
 10
180.7404595839653
 20
113.6863717074621
 30
0.0
 10
180.6787865148266
 20
113.8388359175533
 30
0.0
 10
180.6304579160763
 20
114.0291728311997
 30
0.0
 10
180.6272779892541
 20
114.2066761328453
 30
0.0
 10
180.6612077131353
 20
114.3609874074159
 30
0.0
 10
180.7307061228171
 20
114.4973511008621
 30
0.0
 10
180.832253843806
 20
114.6144423692473
 30
0.0
 10
180.9674568822261
 20
114.714248713261
 30
0.0
 10
181.1367657422786
 20
114.7965872950926
 30
0.0
 10
181.339664174397
 20
114.8608584510307
 30
0.0
 10
181.5694672111504
 20
114.9058965653636
 30
0.0
 10
181.8197124312399
 20
114.9333197160045
 30
0.0
 10
182.0692490544093
 20
114.943815182784
 30
0.0
 10
182.3141717543185
 20
114.9401208397168
 30
0.0
 10
182.5405074341858
 20
114.9239863899446
 30
0.0
 10
182.755522221875
 20
114.8947105456881
 30
0.0
 10
182.9411718544494
 20
114.8538659629991
 30
0.0
 10
183.1031770529328
 20
114.8032185008336
 30
0.0
 10
183.1912205089377
 20
114.7614433776435
 30
0.0
 10
183.2355727313985
 20
114.7403990020462
 30
0.0
  0
LINE
  5
14E
330
1F
100
AcDbEntity
  8
0
  6
HIDDEN
 62
     7
370
     0
100
AcDbLine
 10
180.1303467495
 20
108.9027632973
 30
0.0
 11
180.1303467495
 21
114.7027632973
 31
0.0
  0
SPLINE
  5
14F
330
1F
100
AcDbEntity
  8
0
  6
HIDDEN
 62
     7
370
     0
100
AcDbSpline
210
0.0
220
0.0
230
1.0
 70
     8
 71
     3
 72
    14
 73
    10
 74
     0
 42
0.00000001
 43
0.00000001
 40
0.0
 40
0.0
 40
0.0
 40
0.0
 40
0.2500000000000002
 40
0.2500000000000002
 40
0.5
 40
0.5
 40
0.7499999999999999
 40
0.7499999999999999
 40
1.0
 40
1.0
 40
1.0
 40
1.0
 10
183.3723807887287
 20
114.6362214862493
 30
0.0
 10
183.4565446168621
 20
114.5492685827975
 30
0.0
 10
183.5203292974368
 20
114.458112195917
 30
0.0
 10
183.6079767534678
 20
114.2616743339251
 30
0.0
 10
183.6302077436964
 20
114.1587877347314
 30
0.0
 10
183.63048445424
 20
113.948720945932
 30
0.0
 10
183.6081752699154
 20
113.8411887389958
 30
0.0
 10
183.5216170046067
 20
113.6356823465848
 30
0.0
 10
183.4565398105329
 20
113.5356253714745
 30
0.0
 10
183.3723807887287
 20
113.4468086517444
 30
0.0
  0
LINE
  5
150
330
1F
100
AcDbEntity
  8
0
  6
HIDDEN
 62
     7
370
     0
100
AcDbLine
 10
184.1303467495
 20
108.8027632973
 30
0.0
 11
184.1303467495
 21
114.8027632973
 31
0.0
  0
LINE
  5
151
330
1F
100
AcDbEntity
  8
0
  6
HIDDEN
 62
     7
370
     0
100
AcDbLine
 10
181.5803467495
 20
97.3801135665
 30
0.0
 11
176.5803467495
 21
97.3801135665
 31
0.0
  0
LINE
  5
152
330
1F
100
AcDbEntity
  8
0
  6
HIDDEN
 62
     7
370
     0
100
AcDbLine
 10
179.0803467495
 20
126.2254130281
 30
0.0
 11
181.5803467495
 21
126.2254130281
 31
0.0
  0
LINE
  5
153
330
1F
100
AcDbEntity
  8
0
  6
HIDDEN
 62
     7
370
     0
100
AcDbLine
 10
176.5803467495
 20
126.2254130281
 30
0.0
 11
179.0803467495
 21
126.2254130281
 31
0.0
  0
LINE
  5
154
330
1F
100
AcDbEntity
  8
0
  6
HIDDEN
 62
     7
370
     0
100
AcDbLine
 10
179.0803467495
 20
117.8027632973
 30
0.0
 11
181.5803467495
 21
117.8027632973
 31
0.0
  0
LINE
  5
155
330
1F
100
AcDbEntity
  8
0
  6
HIDDEN
 62
     7
370
     0
100
AcDbLine
 10
176.5803467495
 20
117.8027632973
 30
0.0
 11
179.0803467495
 21
117.8027632973
 31
0.0
  0
LINE
  5
156
330
1F
100
AcDbEntity
  8
0
  6
HIDDEN
 62
     7
370
     0
100
AcDbLine
 10
181.5803467495
 20
105.8027632973
 30
0.0
 11
176.5803467495
 21
105.8027632973
 31
0.0
  0
SPLINE
  5
157
330
1F
100
AcDbEntity
  8
0
  6
HIDDEN
 62
     7
370
     0
100
AcDbSpline
210
0.0
220
0.0
230
1.0
 70
     8
 71
     3
 72
     8
 73
     4
 74
     0
 42
0.00000001
 43
0.00000001
 40
0.0
 40
0.0
 40
0.0
 40
0.0
 40
1.0
 40
1.0
 40
1.0
 40
1.0
 10
183.3723807887287
 20
113.4468086517444
 30
0.0
 10
183.3305123619144
 20
113.4026230582075
 30
0.0
 10
183.2847404428285
 20
113.3563171841422
 30
0.0
 10
183.2355727313985
 20
113.3061915352013
 30
0.0
  0
SPLINE
  5
158
330
1F
100
AcDbEntity
  8
0
  6
HIDDEN
 62
     7
370
     0
100
AcDbSpline
210
0.0
220
0.0
230
1.0
 70
     8
 71
     3
 72
    34
 73
    30
 74
     0
 42
0.00000001
 43
0.00000001
 40
-0.0624999999999993
 40
-0.0624999999999993
 40
0.0
 40
0.0
 40
0.1249999999999969
 40
0.1249999999999969
 40
0.2499999999999939
 40
0.2499999999999939
 40
0.3124999999999943
 40
0.3124999999999943
 40
0.3437499999999951
 40
0.3437499999999951
 40
0.3749999999999958
 40
0.3749999999999958
 40
0.4374999999999964
 40
0.4374999999999964
 40
0.4999999999999971
 40
0.4999999999999971
 40
0.6249999999999979
 40
0.6249999999999979
 40
0.7499999999999988
 40
0.7499999999999988
 40
0.8124999999999992
 40
0.8124999999999992
 40
0.8437500000000002
 40
0.8437500000000002
 40
0.8750000000000012
 40
0.8750000000000012
 40
0.9375000000000007
 40
0.9375000000000007
 40
1.0
 40
1.0
 40
1.124999999999997
 40
1.124999999999997
 10
180.6588451602932
 20
116.8673025823992
 30
0.0
 10
180.6319828148838
 20
117.0339257576151
 30
0.0
 10
180.6257520799675
 20
117.1314959952793
 30
0.0
 10
180.6428942175995
 20
117.2668312387158
 30
0.0
 10
180.6659882695581
 20
117.3051561698754
 30
0.0
 10
180.7033753885689
 20
117.3106768869572
 30
0.0
 10
180.7170268596919
 20
117.3043270693642
 30
0.0
 10
180.728890305989
 20
117.2676209747071
 30
0.0
 10
180.7311005189323
 20
117.2501653575145
 30
0.0
 10
180.7297258365862
 20
117.2052234139744
 30
0.0
 10
180.7261624742467
 20
117.1779024800162
 30
0.0
 10
180.7112718715528
 20
117.0931296369703
 30
0.0
 10
180.6968558617642
 20
117.0330729024
 30
0.0
 10
180.6709921363134
 20
116.9162301405696
 30
0.0
 10
180.6592750199328
 20
116.859862507359
 30
0.0
 10
180.6320274262588
 20
116.6974578937092
 30
0.0
 10
180.6257544042227
 20
116.6002075426949
 30
0.0
 10
180.6429157881606
 20
116.4613612058422
 30
0.0
 10
180.6663624338472
 20
116.4163472185632
 30
0.0
 10
180.7057857153844
 20
116.4049404921112
 30
0.0
 10
180.7200780888924
 20
116.4102321754078
 30
0.0
 10
180.7303540501661
 20
116.4517318389848
 30
0.0
 10
180.7313992766369
 20
116.4717535377208
 30
0.0
 10
180.7280227383742
 20
116.5200064077625
 30
0.0
 10
180.7238381555283
 20
116.5478985250478
 30
0.0
 10
180.7084344187773
 20
116.6333453596602
 30
0.0
 10
180.6949387931921
 20
116.6926801425895
 30
0.0
 10
180.6701471993487
 20
116.8103192675926
 30
0.0
 10
180.6588451602932
 20
116.8673025823992
 30
0.0
 10
180.6319828148838
 20
117.0339257576151
 30
0.0
  0
SPLINE
  5
159
330
1F
100
AcDbEntity
  8
0
  6
HIDDEN
 62
     7
370
     0
100
AcDbSpline
210
0.0
220
0.0
230
1.0
 70
     8
 71
     3
 72
    14
 73
    10
 74
     0
 42
0.00000001
 43
0.00000001
 40
0.0
 40
0.0
 40
0.0
 40
0.0
 40
0.25
 40
0.25
 40
0.5
 40
0.5
 40
0.75
 40
0.75
 40
1.0
 40
1.0
 40
1.0
 40
1.0
 10
181.1766046116603
 20
118.0196719043307
 30
0.0
 10
181.2143515892478
 20
117.9865562324068
 30
0.0
 10
181.2474507814463
 20
117.9458865746446
 30
0.0
 10
181.2934212353536
 20
117.8446158919478
 30
0.0
 10
181.3046492062755
 20
117.7859703122709
 30
0.0
 10
181.2957953048583
 20
117.6522985634423
 30
0.0
 10
181.2757758550835
 20
117.5798105972769
 30
0.0
 10
181.2162181612169
 20
117.4295280246646
 30
0.0
 10
181.1780519579154
 20
117.3534898285047
 30
0.0
 10
181.1365965435675
 20
117.2754938481579
 30
0.0
  0
SPLINE
  5
15A
330
1F
100
AcDbEntity
  8
0
  6
HIDDEN
 62
     7
370
     0
100
AcDbSpline
210
0.0
220
0.0
230
1.0
 70
     8
 71
     3
 72
    14
 73
    10
 74
     0
 42
0.00000001
 43
0.00000001
 40
0.0
 40
0.0
 40
0.0
 40
0.0
 40
0.25
 40
0.25
 40
0.5
 40
0.5
 40
0.75
 40
0.75
 40
1.0
 40
1.0
 40
1.0
 40
1.0
 10
181.1365965435675
 20
117.275493848158
 30
0.0
 10
181.102032117165
 20
117.3119532419281
 30
0.0
 10
181.0686419134167
 20
117.3469257731552
 30
0.0
 10
181.0130451677518
 20
117.4255121613465
 30
0.0
 10
180.9899128400215
 20
117.4705218587518
 30
0.0
 10
181.0013491295553
 20
117.6137742397917
 30
0.0
 10
181.0323927101068
 20
117.6989425675505
 30
0.0
 10
181.0992488190477
 20
117.8609384573062
 30
0.0
 10
181.1372509474081
 20
117.9410292078286
 30
0.0
 10
181.1766046116599
 20
118.0196719043324
 30
0.0
  0
LWPOLYLINE
  5
15B
330
1F
100
AcDbEntity
  8
0
  6
HIDDEN
 62
     7
370
     0
100
AcDbPolyline
 90
       20
 70
   128
 43
0.0
 10
182.1303467495
 20
117.1060641562
 10
182.6173959533
 20
117.16353365
 10
183.0516658186
 20
117.3297144198
 10
183.3860964669
 20
117.5865982007
 10
183.5844471484
 20
117.9063476491
 10
183.625223489
 20
118.2543129508
 10
183.5040067395
 20
118.5927866661
 10
183.2339326155
 20
118.8850899161
 10
182.8442678391
 20
119.099547108
 10
182.3772386349
 20
119.2129184775
 10
181.8834548641
 20
119.2129184775
 10
181.41642566
 20
119.099547108
 10
181.0267608835
 20
118.8850899161
 10
180.7566867595
 20
118.5927866661
 10
180.63547001
 20
118.2543129508
 10
180.6762463506
 20
117.9063476491
 10
180.8745970321
 20
117.5865982007
 10
181.2090276805
 20
117.3297144198
 10
181.6432975457
 20
117.16353365
 10
182.1303467495
 20
117.1060641562
  0
SPLINE
  5
15C
330
1F
100
AcDbEntity
  8
0
  6
HIDDEN
 62
     7
370
     0
100
AcDbSpline
210
0.0
220
0.0
230
1.0
 70
     8
 71
     3
 72
    48
 73
    44
 74
     0
 42
0.00000001
 43
0.00000001
 40
-0.0624999999999987
 40
-0.0624999999999987
 40
0.0
 40
0.0
 40
0.0625000000000019
 40
0.0625000000000019
 40
0.1250000000000037
 40
0.1250000000000037
 40
0.1875000000000056
 40
0.1875000000000056
 40
0.2500000000000074
 40
0.2500000000000074
 40
0.3125000000000092
 40
0.3125000000000092
 40
0.3437500000000094
 40
0.3437500000000094
 40
0.3750000000000097
 40
0.3750000000000097
 40
0.40625000000001
 40
0.40625000000001
 40
0.4375000000000102
 40
0.4375000000000102
 40
0.500000000000009
 40
0.500000000000009
 40
0.5625000000000078
 40
0.5625000000000078
 40
0.6250000000000064
 40
0.6250000000000064
 40
0.656250000000006
 40
0.656250000000006
 40
0.6875000000000054
 40
0.6875000000000054
 40
0.7500000000000044
 40
0.7500000000000044
 40
0.8125000000000034
 40
0.8125000000000034
 40
0.8437500000000029
 40
0.8437500000000029
 40
0.8750000000000023
 40
0.8750000000000023
 40
0.9062500000000019
 40
0.9062500000000019
 40
0.9375000000000013
 40
0.9375000000000013
 40
1.0
 40
1.0
 40
1.062500000000002
 40
1.062500000000002
 10
183.4240929585431
 20
116.9643075084087
 30
0.0
 10
183.2609376025527
 20
116.6522833809565
 30
0.0
 10
183.1732336933014
 20
116.5029521276567
 30
0.0
 10
183.0212418638505
 20
116.2074680910721
 30
0.0
 10
182.9603542461588
 20
116.0625047641099
 30
0.0
 10
182.9586704097137
 20
115.81126267725
 30
0.0
 10
183.0171171102174
 20
115.7189670856652
 30
0.0
 10
183.1621401795764
 20
115.5961711938447
 30
0.0
 10
183.2476592878371
 20
115.5634112662226
 30
0.0
 10
183.4069516301148
 20
115.5518193788519
 30
0.0
 10
183.4816656718999
 20
115.573566550078
 30
0.0
 10
183.5653200789504
 20
115.658123112071
 30
0.0
 10
183.5878834367816
 20
115.6945153402876
 30
0.0
 10
183.6197204101129
 20
115.7844447951672
 30
0.0
 10
183.6288714087298
 20
115.8386932734572
 30
0.0
 10
183.6314831829193
 20
115.9592566263605
 30
0.0
 10
183.6250281955262
 20
116.027352414065
 30
0.0
 10
183.5978408450497
 20
116.1712415494645
 30
0.0
 10
183.5773210605797
 20
116.2469407848076
 30
0.0
 10
183.4989054910592
 20
116.4812900926524
 30
0.0
 10
183.4257194966824
 20
116.6419970774001
 30
0.0
 10
183.2687402409597
 20
116.952143275274
 30
0.0
 10
183.18236493991
 20
117.1051042617485
 30
0.0
 10
183.0332634856551
 20
117.3990647566613
 30
0.0
 10
182.968511136387
 20
117.5463098915245
 30
0.0
 10
182.9563385991219
 20
117.7380994072595
 30
0.0
 10
182.966719826987
 20
117.795221865826
 30
0.0
 10
183.0103607583396
 20
117.8922171615394
 30
0.0
 10
183.0421596326177
 20
117.931021502607
 30
0.0
 10
183.1522131916797
 20
118.0248220094955
 30
0.0
 10
183.2398796986092
 20
118.0551443195369
 30
0.0
 10
183.4046163662279
 20
118.0603910607766
 30
0.0
 10
183.4799295578821
 20
118.0345355892432
 30
0.0
 10
183.5646435038163
 20
117.9452107171542
 30
0.0
 10
183.5873405717402
 20
117.9076873023987
 30
0.0
 10
183.6195938397514
 20
117.8155600945531
 30
0.0
 10
183.6287525813992
 20
117.7611198532909
 30
0.0
 10
183.6315518802323
 20
117.6405221389628
 30
0.0
 10
183.6251579385298
 20
117.5725793337934
 30
0.0
 10
183.5980648744474
 20
117.4301223195567
 30
0.0
 10
183.577443102657
 20
117.3549938765982
 30
0.0
 10
183.4983482863167
 20
117.1231248727398
 30
0.0
 10
183.4240929585431
 20
116.9643075084087
 30
0.0
 10
183.2609376025527
 20
116.6522833809565
 30
0.0
  0
SPLINE
  5
15D
330
1F
100
AcDbEntity
  8
0
  6
HIDDEN
 62
     7
370
     0
100
AcDbSpline
210
0.0
220
0.0
230
1.0
 70
     8
 71
     3
 72
    12
 73
     8
 74
     0
 42
0.00000001
 43
0.00000001
 40
0.0
 40
0.0
 40
0.0
 40
0.0
 40
0.5
 40
0.5
 40
0.75
 40
0.75
 40
1.0
 40
1.0
 40
1.0
 40
1.0
 10
181.1365965435675
 20
115.6864938304282
 30
0.0
 10
181.2194031888006
 20
115.7387163085386
 30
0.0
 10
181.2909866329154
 20
115.8253762409456
 30
0.0
 10
181.3047532026274
 20
116.0145154112109
 30
0.0
 10
181.2934127631111
 20
116.0837708947564
 30
0.0
 10
181.2474501003253
 20
116.2304943844686
 30
0.0
 10
181.214354377923
 20
116.3052744496249
 30
0.0
 10
181.1766046116604
 20
116.3823717275309
 30
0.0
  0
SPLINE
  5
15E
330
1F
100
AcDbEntity
  8
0
  6
HIDDEN
 62
     7
370
     0
100
AcDbSpline
210
0.0
220
0.0
230
1.0
 70
     8
 71
     3
 72
    18
 73
    14
 74
     0
 42
0.00000001
 43
0.00000001
 40
0.0
 40
0.0
 40
0.0
 40
0.0
 40
0.2500000000000011
 40
0.2500000000000011
 40
0.3750000000000011
 40
0.3750000000000011
 40
0.5000000000000011
 40
0.5000000000000011
 40
0.6250000000000011
 40
0.6250000000000011
 40
0.7500000000000011
 40
0.7500000000000011
 40
1.0
 40
1.0
 40
1.0
 40
1.0
 10
181.1766046116603
 20
116.3823717275309
 30
0.0
 10
181.1371562355318
 20
116.3494978334527
 30
0.0
 10
181.0989995550282
 20
116.3186093343578
 30
0.0
 10
181.0487692737942
 20
116.2683749670115
 30
0.0
 10
181.0332399619569
 20
116.2509787837759
 30
0.0
 10
181.0079805579658
 20
116.2097358480722
 30
0.0
 10
180.998408888656
 20
116.1852702935825
 30
0.0
 10
180.9928247807394
 20
116.1239440553546
 30
0.0
 10
180.9971561275126
 20
116.0865058548329
 30
0.0
 10
181.014559261605
 20
116.0086224080682
 30
0.0
 10
181.027168306723
 20
115.9678688497789
 30
0.0
 10
181.0688692535967
 20
115.846749480586
 30
0.0
 10
181.1021084507966
 20
115.7660099604013
 30
0.0
 10
181.1365965435675
 20
115.6864938304282
 30
0.0
  0
ARC
  5
15F
330
1F
100
AcDbEntity
  8
0
  6
HIDDEN
 62
     7
370
     0
100
AcDbCircle
 10
197.2666796682
 20
116.7814821684
 30
0.0
 40
16.13764633230972
100
AcDbArc
 50
175.5995541951
 51
178.2457660564
  0
ARC
  5
160
330
1F
100
AcDbEntity
  8
0
  6
HIDDEN
 62
     7
370
     0
100
AcDbCircle
 10
168.1179355376
 20
116.7840640015
 30
0.0
 40
13.06484575754818
100
AcDbArc
 50
355.1809346774
 51
358.2381039881
  0
SPLINE
  5
161
330
1F
100
AcDbEntity
  8
0
  6
HIDDEN
 62
     7
370
     0
100
AcDbSpline
210
0.0
220
0.0
230
1.0
 70
     8
 71
     3
 72
     8
 73
     4
 74
     0
 42
0.00000001
 43
0.00000001
 40
0.0
 40
0.0
 40
0.0
 40
0.0
 40
0.000159097695343
 40
0.000159097695343
 40
0.000159097695343
 40
0.000159097695343
 10
86.51551475873623
 20
96.00127286130423
 30
0.0
 10
86.47046328823188
 20
95.97329397698046
 30
0.0
 10
86.42540724981708
 20
95.94532244660539
 30
0.0
 10
86.38034674951821
 20
95.91735810725287
 30
0.0
  0
SPLINE
  5
162
330
1F
100
AcDbEntity
  8
0
  6
HIDDEN
 62
     7
370
     0
100
AcDbSpline
210
0.0
220
0.0
230
1.0
 70
     8
 71
     3
 72
    11
 73
     7
 74
     0
 42
0.00000001
 43
0.00000001
 40
0.0
 40
0.0
 40
0.0
 40
0.0
 40
0.0008212909311456
 40
0.0008212909311456
 40
0.0008212909311456
 40
0.001642825724306
 40
0.001642825724306
 40
0.001642825724306
 40
0.001642825724306
 10
86.38034674951822
 20
95.91735810725287
 30
0.0
 10
86.18920172803602
 20
95.8740719184003
 30
0.0
 10
85.99778339235955
 20
95.83313540876304
 30
0.0
 10
85.80613731769841
 20
95.79453363737645
 30
0.0
 10
85.61443423615681
 20
95.75592038353936
 30
0.0
 10
85.4224891128713
 20
95.71964017425336
 30
0.0
 10
85.23034674951813
 20
95.68567326790183
 30
0.0
  0
LINE
  5
163
330
1F
100
AcDbEntity
  8
0
  6
HIDDEN
 62
     7
370
     0
100
AcDbLine
 10
133.2203467495
 20
131.9386299288
 30
0.0
 11
133.2203467495
 21
131.6527632973
 31
0.0
  0
LINE
  5
164
330
1F
100
AcDbEntity
  8
0
  6
HIDDEN
 62
     7
370
     0
100
AcDbLine
 10
137.0403467495
 20
131.981072316
 30
0.0
 11
137.0403467495
 21
131.6527632973
 31
0.0
  0
LINE
  5
165
330
1F
100
AcDbEntity
  8
0
  6
HIDDEN
 62
     7
370
     0
100
AcDbLine
 10
138.522279581
 20
136.2614529597
 30
0.0
 11
138.522279581
 21
131.6527632973
 31
0.0
  0
SPLINE
  5
166
330
1F
100
AcDbEntity
  8
0
  6
HIDDEN
 62
     7
370
     0
100
AcDbSpline
210
0.0
220
0.0
230
1.0
 70
     8
 71
     3
 72
    11
 73
     7
 74
     0
 42
0.00000001
 43
0.00000001
 40
0.0
 40
0.0
 40
0.0
 40
0.0
 40
0.0005781862223978
 40
0.0005781862223978
 40
0.0005781862223978
 40
0.0011563724723928
 40
0.0011563724723928
 40
0.0011563724723928
 40
0.0011563724723928
 10
86.2303467495182
 20
124.4429056043826
 30
0.0
 10
86.06368619524258
 20
124.5074351157962
 30
0.0
 10
85.8970228983361
 20
124.57193781964
 30
0.0
 10
85.73035631450587
 20
124.6364242680737
 30
0.0
 10
85.56368972224679
 20
124.7009107197686
 30
0.0
 10
85.3970198566209
 20
124.7653807284967
 30
0.0
 10
85.23034674951816
 20
124.8298364952293
 30
0.0
  0
SPLINE
  5
167
330
1F
100
AcDbEntity
  8
0
  6
HIDDEN
 62
     7
370
     0
100
AcDbSpline
210
0.0
220
0.0
230
1.0
 70
     8
 71
     3
 72
    11
 73
     7
 74
     0
 42
0.00000001
 43
0.00000001
 40
0.0
 40
0.0
 40
0.0
 40
0.0
 40
0.0005778746105108
 40
0.0005778746105108
 40
0.0005778746105108
 40
0.0011557494857226
 40
0.0011557494857226
 40
0.0011557494857226
 40
0.0011557494857226
 10
85.23034674951818
 20
98.775541441846
 30
0.0
 10
85.39701362593152
 20
98.84135356853986
 30
0.0
 10
85.56368034549297
 20
98.90721204867747
 30
0.0
 10
85.73034699354162
 20
98.97311962160809
 30
0.0
 10
85.89701371806028
 20
99.03902722477847
 30
0.0
 10
86.06368041248086
 20
99.10498433316697
 30
0.0
 10
86.2303467495182
 20
99.17098607308968
 30
0.0
  0
SPLINE
  5
168
330
1F
100
AcDbEntity
  8
0
  6
HIDDEN
 62
     7
370
     0
100
AcDbSpline
210
0.0
220
0.0
230
1.0
 70
     8
 71
     3
 72
    11
 73
     7
 74
     0
 42
0.00000001
 43
0.00000001
 40
0.0000000000000006
 40
0.0000000000000006
 40
0.0000000000000006
 40
0.0000000000000006
 40
0.0005780486062768
 40
0.0005780486062768
 40
0.0005780486062768
 40
0.0011560973514127
 40
0.0011560973514127
 40
0.0011560973514127
 40
0.0011560973514127
 10
85.23034674951818
 20
121.7835777990277
 30
0.0
 10
85.3970166055631
 20
121.7212059375131
 30
0.0
 10
85.56368430964737
 20
121.6588520772154
 30
0.0
 10
85.730350614101
 20
121.5965325170294
 30
0.0
 10
85.89701695479475
 20
121.5342129432925
 30
0.0
 10
86.06368191142354
 20
121.4719277389729
 30
0.0
 10
86.2303467495182
 20
121.4097026184042
 30
0.0
  0
SPLINE
  5
169
330
1F
100
AcDbEntity
  8
0
  6
HIDDEN
 62
     7
370
     0
100
AcDbSpline
210
0.0
220
0.0
230
1.0
 70
     8
 71
     3
 72
    11
 73
     7
 74
     0
 42
0.00000001
 43
0.00000001
 40
0.0
 40
0.0
 40
0.0
 40
0.0
 40
0.0005782401583533
 40
0.0005782401583533
 40
0.0005782401583533
 40
0.0011564805960992
 40
0.0011564805960992
 40
0.0011564805960992
 40
0.0011564805960992
 10
86.2303467495182
 20
102.2019365049382
 30
0.0
 10
86.0636957991693
 20
102.1385110468775
 30
0.0
 10
85.89703620658663
 20
102.0751555232222
 30
0.0
 10
85.73036915415807
 20
102.0118579388722
 30
0.0
 10
85.56370201759427
 20
101.9485603225689
 30
0.0
 10
85.39702741014821
 20
101.8853205276283
 30
0.0
 10
85.23034674951815
 20
101.8221205209894
 30
0.0
  0
CIRCLE
  5
16A
330
1F
100
AcDbEntity
  8
0
  6
HIDDEN
 62
     7
370
     0
100
AcDbCircle
 10
124.1303467495
 20
111.8027632973
 30
0.0
 40
5.0
  0
LINE
  5
16B
330
1F
100
AcDbEntity
  8
0
  6
HIDDEN
 62
     7
370
     0
100
AcDbLine
 10
216.913327687
 20
114.3758148096
 30
0.0
 11
217.0825560741
 21
114.6513966663
 31
0.0
  0
LINE
  5
16C
330
1F
100
AcDbEntity
  8
0
  6
HIDDEN
 62
     7
370
     0
100
AcDbLine
 10
217.1303467495
 20
117.1234203227
 30
0.0
 11
216.996546001
 21
117.3711863503
 31
0.0
  0
LINE
  5
16D
330
1F
100
AcDbEntity
  8
0
  6
HIDDEN
 62
     7
370
     0
100
AcDbLine
 10
216.9945919721
 20
117.3729776498
 30
0.0
 11
211.6606541682
 21
117.5211667159
 31
0.0
  0
LINE
  5
16E
330
1F
100
AcDbEntity
  8
0
  6
HIDDEN
 62
     7
370
     0
100
AcDbLine
 10
211.5773394123
 20
114.5223238305
 30
0.0
 11
216.9112772161
 21
114.3741347644
 31
0.0
  0
LINE
  5
16F
330
1F
100
AcDbEntity
  8
0
  6
HIDDEN
 62
     7
370
     0
100
AcDbLine
 10
211.6594821013
 20
117.5206204981
 30
0.0
 11
211.1463724795
 21
117.0348758641
 31
0.0
  0
LINE
  5
170
330
1F
100
AcDbEntity
  8
0
  6
HIDDEN
 62
     7
370
     0
100
AcDbLine
 10
211.0908507321
 20
115.036418386
 30
0.0
 11
211.5761994802
 21
114.5229342809
 31
0.0
  0
LINE
  5
171
330
1F
100
AcDbEntity
  8
0
  6
HIDDEN
 62
     7
370
     0
100
AcDbLine
 10
211.621234602
 20
109.083843493
 30
0.0
 11
211.1358858539
 21
108.570359388
 31
0.0
  0
LINE
  5
172
330
1F
100
AcDbEntity
  8
0
  6
HIDDEN
 62
     7
370
     0
100
AcDbLine
 10
211.1914076013
 20
106.5719019099
 30
0.0
 11
211.704517223
 21
106.0861572759
 31
0.0
  0
LINE
  5
173
330
1F
100
AcDbEntity
  8
0
  6
HIDDEN
 62
     7
370
     0
100
AcDbLine
 10
216.9563123379
 20
109.2326430096
 30
0.0
 11
211.622374534
 21
109.0844539435
 31
0.0
  0
LINE
  5
174
330
1F
100
AcDbEntity
  8
0
  6
HIDDEN
 62
     7
370
     0
100
AcDbLine
 10
211.70568929
 20
106.0856110581
 30
0.0
 11
217.0396270939
 21
106.2338001242
 31
0.0
  0
LINE
  5
175
330
1F
100
AcDbEntity
  8
0
  6
HIDDEN
 62
     7
370
     0
100
AcDbLine
 10
217.0415811228
 20
106.2355914237
 30
0.0
 11
217.1303467495
 21
106.3999634991
 31
0.0
  0
LINE
  5
176
330
1F
100
AcDbEntity
  8
0
  6
HIDDEN
 62
     7
370
     0
100
AcDbLine
 10
217.1275911958
 20
108.9553811076
 30
0.0
 11
216.9583628088
 21
109.2309629643
 31
0.0
  0
LINE
  5
177
330
1F
100
AcDbEntity
  8
0
  6
HIDDEN
 62
     7
370
     0
100
AcDbLine
 10
121.1303467495
 20
126.1033938031
 30
0.0
 11
121.1303467495
 21
124.1967039402
 31
0.0
  0
LINE
  5
178
330
1F
100
AcDbEntity
  8
0
  6
HIDDEN
 62
     7
370
     0
100
AcDbLine
 10
129.1303467495
 20
124.1967039402
 30
0.0
 11
129.1303467495
 21
126.1005984471
 31
0.0
  0
LINE
  5
179
330
1F
100
AcDbEntity
  8
0
  6
HIDDEN
 62
     7
370
     0
100
AcDbLine
 10
117.1303467495
 20
86.4788321513
 30
0.0
 11
117.224507525
 21
87.1488208826
 31
0.0
  0
LINE
  5
17A
330
1F
100
AcDbEntity
  8
0
  6
HIDDEN
 62
     7
370
     0
100
AcDbLine
 10
117.224507525
 20
136.4567057121
 30
0.0
 11
117.1303467495
 21
137.1266944433
 31
0.0
  0
ARC
  5
17B
330
1F
100
AcDbEntity
  8
0
  6
HIDDEN
 62
     7
370
     0
100
AcDbCircle
 10
116.6303399969
 20
87.2323256829
 30
0.0
 40
0.60000675266771
100
AcDbArc
 50
352.0
 51
0.0
  0
ARC
  5
17C
330
1F
100
AcDbEntity
  8
0
  6
HIDDEN
 62
     7
370
     0
100
AcDbCircle
 10
116.6303399969
 20
87.2323256829
 30
0.0
 40
0.6000067526677164
100
AcDbArc
 50
0.0
 51
33.5571153394
  0
ARC
  5
17D
330
1F
100
AcDbEntity
  8
0
  6
HIDDEN
 62
     7
370
     0
100
AcDbCircle
 10
116.6303399969
 20
136.3732009117
 30
0.0
 40
0.6000067526677169
100
AcDbArc
 50
348.75
 51
8.0
  0
LWPOLYLINE
  5
17E
330
1F
100
AcDbEntity
  8
0
  6
HIDDEN
 62
     7
370
     0
100
AcDbPolyline
 90
        3
 70
   128
 43
0.0
 10
117.218817788
 20
136.2561454011
 10
117.184673955
 20
136.1435882682
 10
117.1303467495
 20
136.0415363967
  0
LINE
  5
17F
330
1F
100
AcDbEntity
  8
0
  6
HIDDEN
 62
     7
370
     0
100
AcDbLine
 10
117.2303467495
 20
87.2323256829
 30
0.0
 11
117.2303467495
 21
136.3732009117
 31
0.0
  0
ARC
  5
180
330
1F
100
AcDbEntity
  8
0
  6
HIDDEN
 62
     7
370
     0
100
AcDbCircle
 10
100.2127823148
 20
92.4027632973
 30
0.0
 40
0.6000000000000085
100
AcDbArc
 50
210.0
 51
270.0
  0
ARC
  5
181
330
1F
100
AcDbEntity
  8
0
  6
HIDDEN
 62
     7
370
     0
100
AcDbCircle
 10
100.2127823148
 20
131.2027632973
 30
0.0
 40
0.5999999999999943
100
AcDbArc
 50
90.0
 51
150.0
  0
LINE
  5
182
330
1F
100
AcDbEntity
  8
0
  6
HIDDEN
 62
     7
370
     0
100
AcDbLine
 10
100.2127823148
 20
91.8027632973
 30
0.0
 11
104.3834641307
 21
91.8027632973
 31
0.0
  0
LINE
  5
183
330
1F
100
AcDbEntity
  8
0
  6
HIDDEN
 62
     7
370
     0
100
AcDbLine
 10
104.3834641307
 20
131.8027632973
 30
0.0
 11
100.2127823148
 21
131.8027632973
 31
0.0
  0
ARC
  5
184
330
1F
100
AcDbEntity
  8
0
  6
HIDDEN
 62
     7
370
     0
100
AcDbCircle
 10
110.8853487511
 20
99.8027632973
 30
0.0
 40
8.000000000000012
100
AcDbArc
 50
277.139527204
 51
321.3178125465
  0
ARC
  5
185
330
1F
100
AcDbEntity
  8
0
  6
HIDDEN
 62
     7
370
     0
100
AcDbCircle
 10
110.8853487511
 20
123.8027632973
 30
0.0
 40
8.000000000000012
100
AcDbArc
 50
38.6821874535
 51
82.8520570301
  0
LINE
  5
186
330
1F
100
AcDbEntity
  8
0
  6
HIDDEN
 62
     7
370
     0
100
AcDbLine
 10
99.6931670725
 20
131.5027632973
 30
0.0
 11
98.1343213457
 21
128.8027632973
 31
0.0
  0
LINE
  5
187
330
1F
100
AcDbEntity
  8
0
  6
HIDDEN
 62
     7
370
     0
100
AcDbLine
 10
98.1343213457
 20
94.8027632973
 30
0.0
 11
99.6931670725
 21
92.1027632973
 31
0.0
  0
LINE
  5
188
330
1F
100
AcDbEntity
  8
0
  6
HIDDEN
 62
     7
370
     0
100
AcDbLine
 10
121.1303467495
 20
139.0824295353
 30
0.0
 11
121.1303467495
 21
135.748365712
 31
0.0
  0
LINE
  5
189
330
1F
100
AcDbEntity
  8
0
  6
HIDDEN
 62
     7
370
     0
100
AcDbLine
 10
129.1303467495
 20
135.748365712
 30
0.0
 11
129.1303467495
 21
139.0770971565
 31
0.0
  0
ARC
  5
18A
330
1F
100
AcDbEntity
  8
0
  6
HIDDEN
 62
     7
370
     0
100
AcDbCircle
 10
125.5803467495
 20
96.0777632973
 30
0.0
 40
1.500000000000001
100
AcDbArc
 50
238.2116693829
 51
0.0
  0
ARC
  5
18B
330
1F
100
AcDbEntity
  8
0
  6
HIDDEN
 62
     7
370
     0
100
AcDbCircle
 10
125.5803467495
 20
127.5277632973
 30
0.0
 40
1.500000000000001
100
AcDbArc
 50
0.0
 51
121.7883306171
  0
LINE
  5
18C
330
1F
100
AcDbEntity
  8
0
  6
HIDDEN
 62
     7
370
     0
100
AcDbLine
 10
117.1303467495
 20
94.8027632973
 30
0.0
 11
124.7901727181
 21
94.8027632973
 31
0.0
  0
LINE
  5
18D
330
1F
100
AcDbEntity
  8
0
  6
HIDDEN
 62
     7
370
     0
100
AcDbLine
 10
124.7901727181
 20
128.8027632973
 30
0.0
 11
117.1303467495
 21
128.8027632973
 31
0.0
  0
LINE
  5
18E
330
1F
100
AcDbEntity
  8
0
  6
HIDDEN
 62
     7
370
     0
100
AcDbLine
 10
95.3303467495
 20
94.8027632973
 30
0.0
 11
98.1343213457
 21
94.8027632973
 31
0.0
  0
LINE
  5
18F
330
1F
100
AcDbEntity
  8
0
  6
HIDDEN
 62
     7
370
     0
100
AcDbLine
 10
98.1343213457
 20
128.8027632973
 30
0.0
 11
91.3303467495
 21
128.8027632973
 31
0.0
  0
LINE
  5
190
330
1F
100
AcDbEntity
  8
0
  6
HIDDEN
 62
     7
370
     0
100
AcDbLine
 10
135.9303467495
 20
102.3027632973
 30
0.0
 11
138.9303467495
 21
102.3027632973
 31
0.0
  0
LINE
  5
191
330
1F
100
AcDbEntity
  8
0
  6
HIDDEN
 62
     7
370
     0
100
AcDbLine
 10
138.9303467495
 20
121.3027632973
 30
0.0
 11
135.9303467495
 21
121.3027632973
 31
0.0
  0
LINE
  5
192
330
1F
100
AcDbEntity
  8
0
  6
HIDDEN
 62
     7
370
     0
100
AcDbLine
 10
127.0803467495
 20
102.8027632973
 30
0.0
 11
127.5803467495
 21
103.3027632973
 31
0.0
  0
LINE
  5
193
330
1F
100
AcDbEntity
  8
0
  6
HIDDEN
 62
     7
370
     0
100
AcDbLine
 10
127.5803467495
 20
120.3027632973
 30
0.0
 11
127.0803467495
 21
120.8027632973
 31
0.0
  0
LINE
  5
194
330
1F
100
AcDbEntity
  8
0
  6
HIDDEN
 62
     7
370
     0
100
AcDbLine
 10
127.5803467495
 20
103.3027632973
 30
0.0
 11
135.9303467495
 21
103.3027632973
 31
0.0
  0
LINE
  5
195
330
1F
100
AcDbEntity
  8
0
  6
HIDDEN
 62
     7
370
     0
100
AcDbLine
 10
135.9303467495
 20
120.3027632973
 30
0.0
 11
127.5803467495
 21
120.3027632973
 31
0.0
  0
LINE
  5
196
330
1F
100
AcDbEntity
  8
0
  6
HIDDEN
 62
     7
370
     0
100
AcDbLine
 10
122.0803467495
 20
143.3027632973
 30
0.0
 11
122.0803467495
 21
138.2027632973
 31
0.0
  0
LINE
  5
197
330
1F
100
AcDbEntity
  8
0
  6
HIDDEN
 62
     7
370
     0
100
AcDbLine
 10
183.6303467495
 20
107.6823377347
 30
0.0
 11
183.6303467495
 21
109.5538373681
 31
0.0
  0
LINE
  5
198
330
1F
100
AcDbEntity
  8
0
  6
HIDDEN
 62
     7
370
     0
100
AcDbLine
 10
183.6303467495
 20
105.4388022667
 30
0.0
 11
183.6303467495
 21
105.9235370245
 31
0.0
  0
LINE
  5
199
330
1F
100
AcDbEntity
  8
0
  6
HIDDEN
 62
     7
370
     0
100
AcDbLine
 10
180.6303467495
 20
106.4775584257
 30
0.0
 11
180.6303467495
 21
105.4388022667
 31
0.0
  0
LINE
  5
19A
330
1F
100
AcDbEntity
  8
0
  6
HIDDEN
 62
     7
370
     0
100
AcDbLine
 10
180.6303467495
 20
109.4743316162
 30
0.0
 11
180.6303467495
 21
107.00374599
 31
0.0
  0
LINE
  5
19B
330
1F
100
AcDbEntity
  8
0
  6
HIDDEN
 62
     7
370
     0
100
AcDbLine
 10
183.3425152805
 20
105.5477132811
 30
0.0
 11
217.1303467495
 21
106.4864169884
 31
0.0
  0
LINE
  5
19C
330
1F
100
AcDbEntity
  8
0
  6
HIDDEN
 62
     7
370
     0
100
AcDbLine
 10
217.1303467495
 20
108.9873816226
 30
0.0
 11
183.3411029679
 21
108.048638678
 31
0.0
  0
LINE
  5
19D
330
1F
100
AcDbEntity
  8
0
  6
HIDDEN
 62
     7
370
     0
100
AcDbLine
 10
180.6569520026
 20
107.1596865762
 30
0.0
 11
180.4076047233
 21
106.7166570294
 31
0.0
  0
LINE
  5
19E
330
1F
100
AcDbEntity
  8
0
  6
HIDDEN
 62
     7
370
     0
100
AcDbLine
 10
180.4076047233
 20
106.7166570294
 30
0.0
 11
180.6576592017
 21
106.3249745194
 31
0.0
  0
LINE
  5
19F
330
1F
100
AcDbEntity
  8
0
  6
HIDDEN
 62
     7
370
     0
100
AcDbLine
 10
112.31478458
 20
87.7233919638
 30
0.0
 11
111.8803524305
 21
88.2024579829
 31
0.0
  0
LINE
  5
1A0
330
1F
100
AcDbEntity
  8
0
  6
HIDDEN
 62
     7
370
     0
100
AcDbLine
 10
104.3803491054
 20
88.624145942
 30
0.0
 11
103.8979153621
 21
88.1450799666
 31
0.0
  0
LINE
  5
1A1
330
1F
100
AcDbEntity
  8
0
  6
HIDDEN
 62
     7
370
     0
100
AcDbLine
 10
103.8977934338
 20
135.4604413377
 30
0.0
 11
104.3803441848
 21
134.9813210798
 31
0.0
  0
LINE
  5
1A2
330
1F
100
AcDbEntity
  8
0
  6
HIDDEN
 62
     7
370
     0
100
AcDbLine
 10
111.8803466315
 20
135.4030188574
 30
0.0
 11
112.3148890219
 21
135.882139108
 31
0.0
  0
LINE
  5
1A3
330
1F
100
AcDbEntity
  8
0
  6
HIDDEN
 62
     7
370
     0
100
AcDbLine
 10
172.2303467495
 20
107.5527632973
 30
0.0
 11
173.5221970804
 21
109.7027632973
 31
0.0
  0
LINE
  5
1A4
330
1F
100
AcDbEntity
  8
0
  6
HIDDEN
 62
     7
370
     0
100
AcDbLine
 10
173.5221970804
 20
113.9027632973
 30
0.0
 11
172.2303467495
 21
116.0527632973
 31
0.0
  0
LINE
  5
1A5
330
1F
100
AcDbEntity
  8
0
  6
HIDDEN
 62
     7
370
     0
100
AcDbLine
 10
138.9303467495
 20
107.5527632973
 30
0.0
 11
172.2303467495
 21
107.5527632973
 31
0.0
  0
LINE
  5
1A6
330
1F
100
AcDbEntity
  8
0
  6
HIDDEN
 62
     7
370
     0
100
AcDbLine
 10
172.2303467495
 20
116.0527632973
 30
0.0
 11
138.9303467495
 21
116.0527632973
 31
0.0
  0
LINE
  5
1A7
330
1F
100
AcDbEntity
  8
0
  6
HIDDEN
 62
     7
370
     0
100
AcDbLine
 10
111.8803467495
 20
131.740599488
 30
0.0
 11
111.8803467495
 21
135.4027275513
 31
0.0
  0
LINE
  5
1A8
330
1F
100
AcDbEntity
  8
0
  6
HIDDEN
 62
     7
370
     0
100
AcDbLine
 10
104.3803467495
 20
134.9811773005
 30
0.0
 11
104.3803467495
 21
131.8021790361
 31
0.0
  0
LINE
  5
1A9
330
1F
100
AcDbEntity
  8
0
  6
HIDDEN
 62
     7
370
     0
100
AcDbLine
 10
111.8803467495
 20
88.2029418846
 30
0.0
 11
111.8803467495
 21
91.8649271067
 31
0.0
  0
LINE
  5
1AA
330
1F
100
AcDbEntity
  8
0
  6
HIDDEN
 62
     7
370
     0
100
AcDbLine
 10
104.3803467495
 20
91.8033475586
 30
0.0
 11
104.3803467495
 21
88.6244691798
 31
0.0
  0
ARC
  5
1AB
330
1F
100
AcDbEntity
  8
0
  6
HIDDEN
 62
     7
370
     0
100
AcDbCircle
 10
183.2355727314
 20
114.7027632973
 30
0.0
 40
0.3999999999999977
100
AcDbArc
 50
70.0
 51
90.0
  0
ARC
  5
1AC
330
1F
100
AcDbEntity
  8
0
  6
HIDDEN
 62
     7
370
     0
100
AcDbCircle
 10
216.8303467495
 20
108.5027632973
 30
0.0
 40
0.2999999999999972
100
AcDbArc
 50
0.0
 51
90.0
  0
ARC
  5
1AD
330
1F
100
AcDbEntity
  8
0
  6
HIDDEN
 62
     7
370
     0
100
AcDbCircle
 10
216.8303467495
 20
115.1027632973
 30
0.0
 40
0.2999999999999829
100
AcDbArc
 50
270.0
 51
0.0
  0
LINE
  5
1AE
330
1F
100
AcDbEntity
  8
0
  6
HIDDEN
 62
     7
370
     0
100
AcDbLine
 10
180.5303467495
 20
108.5027632973
 30
0.0
 11
183.2355727314
 21
108.5027632973
 31
0.0
  0
LINE
  5
1AF
330
1F
100
AcDbEntity
  8
0
  6
HIDDEN
 62
     7
370
     0
100
AcDbLine
 10
183.2355727314
 20
115.1027632973
 30
0.0
 11
180.5303467495
 21
115.1027632973
 31
0.0
  0
ARC
  5
1B0
330
1F
100
AcDbEntity
  8
0
  6
HIDDEN
 62
     7
370
     0
100
AcDbCircle
 10
180.5303467495
 20
108.9027632973
 30
0.0
 40
0.4000000000000057
100
AcDbArc
 50
180.0
 51
270.0
  0
ARC
  5
1B1
330
1F
100
AcDbEntity
  8
0
  6
HIDDEN
 62
     7
370
     0
100
AcDbCircle
 10
180.5303467495
 20
114.7027632973
 30
0.0
 40
0.4000000000000057
100
AcDbArc
 50
90.0
 51
180.0
  0
LINE
  5
1B2
330
1F
100
AcDbEntity
  8
0
  6
HIDDEN
 62
     7
370
     0
100
AcDbLine
 10
183.3723807887
 20
108.526886249
 30
0.0
 11
184.1303467495
 21
108.8027632973
 31
0.0
  0
LINE
  5
1B3
330
1F
100
AcDbEntity
  8
0
  6
HIDDEN
 62
     7
370
     0
100
AcDbLine
 10
184.1303467495
 20
114.8027632973
 30
0.0
 11
183.3723807887
 21
115.0786403457
 31
0.0
  0
LINE
  5
1B4
330
1F
100
AcDbEntity
  8
0
  6
HIDDEN
 62
     7
370
     0
100
AcDbLine
 10
182.5803467495
 20
96.8027632973
 30
0.0
 11
181.5803467495
 21
97.3801135665
 31
0.0
  0
LINE
  5
1B5
330
1F
100
AcDbEntity
  8
0
  6
HIDDEN
 62
     7
370
     0
100
AcDbLine
 10
176.5803467495
 20
97.3801135665
 30
0.0
 11
175.5803467495
 21
96.8027632973
 31
0.0
  0
LINE
  5
1B6
330
1F
100
AcDbEntity
  8
0
  6
HIDDEN
 62
     7
370
     0
100
AcDbLine
 10
175.5803467495
 20
126.8027632973
 30
0.0
 11
176.5803467495
 21
126.2254130281
 31
0.0
  0
LINE
  5
1B7
330
1F
100
AcDbEntity
  8
0
  6
HIDDEN
 62
     7
370
     0
100
AcDbLine
 10
181.5803467495
 20
126.2254130281
 30
0.0
 11
182.5803467495
 21
126.8027632973
 31
0.0
  0
LINE
  5
1B8
330
1F
100
AcDbEntity
  8
0
  6
HIDDEN
 62
     7
370
     0
100
AcDbLine
 10
184.1303467495
 20
108.8027632973
 30
0.0
 11
216.8303467495
 21
108.8027632973
 31
0.0
  0
LINE
  5
1B9
330
1F
100
AcDbEntity
  8
0
  6
HIDDEN
 62
     7
370
     0
100
AcDbLine
 10
216.8303467495
 20
114.8027632973
 30
0.0
 11
184.1303467495
 21
114.8027632973
 31
0.0
  0
LINE
  5
1BA
330
1F
100
AcDbEntity
  8
0
  6
HIDDEN
 62
     7
370
     0
100
AcDbLine
 10
176.5803467495
 20
126.2254130281
 30
0.0
 11
176.5803467495
 21
117.8027632973
 31
0.0
  0
LINE
  5
1BB
330
1F
100
AcDbEntity
  8
0
  6
HIDDEN
 62
     7
370
     0
100
AcDbLine
 10
181.5803467495
 20
117.8027632973
 30
0.0
 11
181.5803467495
 21
126.2254130281
 31
0.0
  0
LINE
  5
1BC
330
1F
100
AcDbEntity
  8
0
  6
HIDDEN
 62
     7
370
     0
100
AcDbLine
 10
176.5803467495
 20
117.8027632973
 30
0.0
 11
179.0803467495
 21
116.3006117498
 31
0.0
  0
LINE
  5
1BD
330
1F
100
AcDbEntity
  8
0
  6
HIDDEN
 62
     7
370
     0
100
AcDbLine
 10
179.0803467495
 20
116.3006117498
 30
0.0
 11
181.5803467495
 21
117.8027632973
 31
0.0
  0
LINE
  5
1BE
330
1F
100
AcDbEntity
  8
0
  6
HIDDEN
 62
     7
370
     0
100
AcDbLine
 10
181.5803467495
 20
105.8027632973
 30
0.0
 11
179.0803467495
 21
107.3049148449
 31
0.0
  0
LINE
  5
1BF
330
1F
100
AcDbEntity
  8
0
  6
HIDDEN
 62
     7
370
     0
100
AcDbLine
 10
179.0803467495
 20
107.3049148449
 30
0.0
 11
176.5803467495
 21
105.8027632973
 31
0.0
  0
LINE
  5
1C0
330
1F
100
AcDbEntity
  8
0
  6
HIDDEN
 62
     7
370
     0
100
AcDbLine
 10
181.5803467495
 20
97.3801135665
 30
0.0
 11
181.5803467495
 21
105.8027632973
 31
0.0
  0
LINE
  5
1C1
330
1F
100
AcDbEntity
  8
0
  6
HIDDEN
 62
     7
370
     0
100
AcDbLine
 10
176.5803467495
 20
105.8027632973
 30
0.0
 11
176.5803467495
 21
97.3801135665
 31
0.0
  0
LINE
  5
1C2
330
1F
100
AcDbEntity
  8
0
  6
HIDDEN
 62
     7
370
     0
100
AcDbLine
 10
173.5221970804
 20
109.7027632973
 30
0.0
 11
180.1303467495
 21
109.7027632973
 31
0.0
  0
LINE
  5
1C3
330
1F
100
AcDbEntity
  8
0
  6
HIDDEN
 62
     7
370
     0
100
AcDbLine
 10
180.1303467495
 20
113.9027632973
 30
0.0
 11
173.5221970804
 21
113.9027632973
 31
0.0
  0
ARC
  5
1C4
330
1F
100
AcDbEntity
  8
0
  6
HIDDEN
 62
     7
370
     0
100
AcDbCircle
 10
183.2355727314
 20
108.9027632973
 30
0.0
 40
0.4000000000000057
100
AcDbArc
 50
270.0
 51
290.0
  0
LINE
  5
1C5
330
1F
100
AcDbEntity
  8
0
  6
HIDDEN
 62
     7
370
     0
100
AcDbLine
 10
183.6303467495
 20
117.682176677
 30
0.0
 11
183.6303467495
 21
118.166724328
 31
0.0
  0
LINE
  5
1C6
330
1F
100
AcDbEntity
  8
0
  6
HIDDEN
 62
     7
370
     0
100
AcDbLine
 10
183.6303467495
 20
114.0523565964
 30
0.0
 11
183.6303467495
 21
115.9154247006
 31
0.0
  0
LINE
  5
1C7
330
1F
100
AcDbEntity
  8
0
  6
HIDDEN
 62
     7
370
     0
100
AcDbLine
 10
180.6303467495
 20
116.6024442868
 30
0.0
 11
180.6303467495
 21
114.134784914
 31
0.0
  0
LINE
  5
1C8
330
1F
100
AcDbEntity
  8
0
  6
HIDDEN
 62
     7
370
     0
100
AcDbLine
 10
180.6303467495
 20
118.166724328
 30
0.0
 11
180.6303467495
 21
117.1277027434
 31
0.0
  0
LINE
  5
1C9
330
1F
100
AcDbEntity
  8
0
  6
HIDDEN
 62
     7
370
     0
100
AcDbLine
 10
183.3420572704
 20
115.556861404
 30
0.0
 11
217.1303467495
 21
114.6181449721
 31
0.0
  0
LINE
  5
1CA
330
1F
100
AcDbEntity
  8
0
  6
HIDDEN
 62
     7
370
     0
100
AcDbLine
 10
217.1303467495
 20
117.1191096063
 30
0.0
 11
183.3422092512
 21
118.0578218158
 31
0.0
  0
LINE
  5
1CB
330
1F
100
AcDbEntity
  8
0
  6
HIDDEN
 62
     7
370
     0
100
AcDbLine
 10
180.6595912066
 20
117.2835783459
 30
0.0
 11
180.4076047233
 21
116.8888695653
 31
0.0
  0
LINE
  5
1CC
330
1F
100
AcDbEntity
  8
0
  6
HIDDEN
 62
     7
370
     0
100
AcDbLine
 10
180.4076047233
 20
116.8888695653
 30
0.0
 11
180.6597304317
 21
116.4409034249
 31
0.0
  0
DIMENSION
  5
1CD
330
1F
100
AcDbEntity
  8
VERMASSUNG
100
AcDbDimension
  2
*D1
 10
77.8464692309
 20
80.3027632973
 30
0.0
 11
77.8464692309
 21
109.1306646822
 31
0.0
 70
   160
  1
HSK A %%c<>
 71
     2
 42
-1.0
  3
SLDDIMSTYLE0
100
AcDbAlignedDimension
 13
117.4303467495
 23
143.3027632973
 33
0.0
 14
117.4303467495
 24
80.3027632973
 34
0.0
 50
90.0
100
AcDbRotatedDimension
  0
DIMENSION
  5
1DA
330
1F
100
AcDbEntity
  8
VERMASSUNG
100
AcDbDimension
  2
*D2
 10
222.0884268468
 20
108.8027632973
 30
0.0
 11
222.0884268468
 21
111.8027632973
 31
0.0
 70
   160
  1
%%c<>
 71
     2
 42
-1.0
  3
SLDDIMSTYLE1
100
AcDbAlignedDimension
 13
216.8303467495
 23
114.8027632973
 33
0.0
 14
216.8303467495
 24
108.8027632973
 34
0.0
 50
90.0
100
AcDbRotatedDimension
  0
DIMENSION
  5
1E8
330
1F
100
AcDbEntity
  8
VERMASSUNG
100
AcDbDimension
  2
*D3
 10
217.1303467495
 20
145.5916636236
 30
0.0
 11
180.1053467495
 21
145.5916636236
 31
0.0
 70
   160
 71
     2
 42
-1.0
  3
SLDDIMSTYLE0
100
AcDbAlignedDimension
 13
143.0803467495
 23
141.6492036211
 33
0.0
 14
217.1303467495
 24
119.0286227757
 34
0.0
100
AcDbRotatedDimension
  0
DIMENSION
  5
1F2
330
1F
100
AcDbEntity
  8
VERMASSUNG
100
AcDbDimension
  2
*D4
 10
217.1303467495
 20
151.5916636236
 30
0.0
 11
167.1303467495
 21
151.5916636236
 31
0.0
 70
   160
 71
     2
 42
-1.0
  3
SLDDIMSTYLE0
100
AcDbAlignedDimension
 13
117.1303467495
 23
143.0027632973
 33
0.0
 14
217.1303467495
 24
119.0286227757
 34
0.0
100
AcDbRotatedDimension
  0
DIMENSION
  5
1FC
330
1F
100
AcDbEntity
  8
VERMASSUNG
100
AcDbDimension
  2
*D5
 10
217.1303467495
 20
157.5916636236
 30
0.0
 11
151.1803467495
 21
157.5916636236
 31
0.0
 70
   160
 71
     2
 42
-1.0
  3
SLDDIMSTYLE0
100
AcDbAlignedDimension
 13
85.2303467495
 23
131.4934410438
 33
0.0
 14
217.1303467495
 24
119.0286227757
 34
0.0
100
AcDbRotatedDimension
  0
DIMENSION
  5
206
330
1F
100
AcDbEntity
  8
VERMASSUNG
100
AcDbDimension
  2
*D6
 10
228.0884268468
 20
96.8027632973
 30
0.0
 11
228.0884268468
 21
111.8027632973
 31
0.0
 70
   160
  1
%%c<>
 71
     2
 42
-1.0
  3
SLDDIMSTYLE0
100
AcDbAlignedDimension
 13
203.1910517662
 23
126.8027632973
 33
0.0
 14
203.1910517662
 24
96.8027632973
 34
0.0
 50
90.0
100
AcDbRotatedDimension
  0
LINE
  5
211
330
1F
100
AcDbEntity
  8
VERMASSUNG
  6
CENTERX2
370
     0
100
AcDbLine
 10
83.984723727
 20
111.8027632973
 30
0.0
 11
217.8887323944
 21
111.8027632973
 31
0.0
  0
OLE2FRAME
  5
212
330
1F
100
AcDbEntity
  8
0
100
AcDbOle2Frame
 70
     2
  3
Bitmap Image
 10
13.8511154363
 20
38.264191557
 30
0.0
 11
51.6290888628
 21
31.9806341108
 31
0.0
 71
     2
 72
     0
 73
     1
 90
    12928
310
80552BED0767C5B32B40DDAF6807D121434000000000000000006FFBDDFB85D0
310
4940DDAF6807D121434000000000000000006FFBDDFB85D04940416F4BD60AFB
310
3F4000000000000000002BED0767C5B32B40416F4BD60AFB3F40000000000000
310
0000000000000100000000010000010000000100000000000100000000320000
310
D0CF11E0A1B11AE1000000000000000000000000000000003E000300FEFF0900
310
0600000000000000000000000100000001000000000000000010000002000000
310
01000000FEFFFFFF0000000000000000FFFFFFFFFFFFFFFFFFFFFFFFFFFFFFFF
310
FFFFFFFFFFFFFFFFFFFFFFFFFFFFFFFFFFFFFFFFFFFFFFFFFFFFFFFFFFFFFFFF
310
FFFFFFFFFFFFFFFFFFFFFFFFFFFFFFFFFFFFFFFFFFFFFFFFFFFFFFFFFFFFFFFF
310
FFFFFFFFFFFFFFFFFFFFFFFFFFFFFFFFFFFFFFFFFFFFFFFFFFFFFFFFFFFFFFFF
310
FFFFFFFFFFFFFFFFFFFFFFFFFFFFFFFFFFFFFFFFFFFFFFFFFFFFFFFFFFFFFFFF
310
FFFFFFFFFFFFFFFFFFFFFFFFFFFFFFFFFFFFFFFFFFFFFFFFFFFFFFFFFFFFFFFF
310
FFFFFFFFFFFFFFFFFFFFFFFFFFFFFFFFFFFFFFFFFFFFFFFFFFFFFFFFFFFFFFFF
310
FFFFFFFFFFFFFFFFFFFFFFFFFFFFFFFFFFFFFFFFFFFFFFFFFFFFFFFFFFFFFFFF
310
FFFFFFFFFFFFFFFFFFFFFFFFFFFFFFFFFFFFFFFFFFFFFFFFFFFFFFFFFFFFFFFF
310
FFFFFFFFFFFFFFFFFFFFFFFFFFFFFFFFFFFFFFFFFFFFFFFFFFFFFFFFFFFFFFFF
310
FFFFFFFFFFFFFFFFFFFFFFFFFFFFFFFFFFFFFFFFFFFFFFFFFFFFFFFFFFFFFFFF
310
FFFFFFFFFFFFFFFFFFFFFFFFFFFFFFFFFFFFFFFFFFFFFFFFFFFFFFFFFFFFFFFF
310
FFFFFFFFFFFFFFFFFFFFFFFFFFFFFFFFFFFFFFFFFFFFFFFFFFFFFFFFFFFFFFFF
310
FFFFFFFFFFFFFFFFFFFFFFFFFFFFFFFFFFFFFFFFFFFFFFFFFFFFFFFFFFFFFFFF
310
FDFFFFFFFEFFFFFFFEFFFFFFFEFFFFFF05000000060000000700000008000000
310
090000000A0000000B0000000C0000000D0000000E0000000F00000010000000
310
11000000120000001300000014000000150000001600000017000000FEFFFFFF
310
FFFFFFFFFFFFFFFFFFFFFFFFFFFFFFFFFFFFFFFFFFFFFFFFFFFFFFFFFFFFFFFF
310
FFFFFFFFFFFFFFFFFFFFFFFFFFFFFFFFFFFFFFFFFFFFFFFFFFFFFFFFFFFFFFFF
310
FFFFFFFFFFFFFFFFFFFFFFFFFFFFFFFFFFFFFFFFFFFFFFFFFFFFFFFFFFFFFFFF
310
FFFFFFFFFFFFFFFFFFFFFFFFFFFFFFFFFFFFFFFFFFFFFFFFFFFFFFFFFFFFFFFF
310
FFFFFFFFFFFFFFFFFFFFFFFFFFFFFFFFFFFFFFFFFFFFFFFFFFFFFFFFFFFFFFFF
310
FFFFFFFFFFFFFFFFFFFFFFFFFFFFFFFFFFFFFFFFFFFFFFFFFFFFFFFFFFFFFFFF
310
FFFFFFFFFFFFFFFFFFFFFFFFFFFFFFFFFFFFFFFFFFFFFFFFFFFFFFFFFFFFFFFF
310
FFFFFFFFFFFFFFFFFFFFFFFFFFFFFFFFFFFFFFFFFFFFFFFFFFFFFFFFFFFFFFFF
310
FFFFFFFFFFFFFFFFFFFFFFFFFFFFFFFFFFFFFFFFFFFFFFFFFFFFFFFFFFFFFFFF
310
FFFFFFFFFFFFFFFFFFFFFFFFFFFFFFFFFFFFFFFFFFFFFFFFFFFFFFFFFFFFFFFF
310
FFFFFFFFFFFFFFFFFFFFFFFFFFFFFFFFFFFFFFFFFFFFFFFFFFFFFFFFFFFFFFFF
310
FFFFFFFFFFFFFFFFFFFFFFFFFFFFFFFFFFFFFFFFFFFFFFFFFFFFFFFFFFFFFFFF
310
FFFFFFFFFFFFFFFFFFFFFFFFFFFFFFFFFFFFFFFFFFFFFFFFFFFFFFFFFFFFFFFF
310
52006F006F007400200045006E00740072007900000000000000000000000000
310
0000000000000000000000000000000000000000000000000000000000000000
310
16000500FFFFFFFFFFFFFFFF020000000A00030000000000C000000000000046
310
000000000000000000000000100B2F4FF3FFCB0103000000C000000000000000
310
01004F006C006500000000000000000000000000000000000000000000000000
310
0000000000000000000000000000000000000000000000000000000000000000
310
0A000200FFFFFFFFFFFFFFFFFFFFFFFF00000000000000000000000000000000
310
0000000000000000000000000000000000000000000000001400000000000000
310
010043006F006D0070004F0062006A0000000000000000000000000000000000
310
0000000000000000000000000000000000000000000000000000000000000000
310
120002010100000003000000FFFFFFFF00000000000000000000000000000000
310
0000000000000000000000000000000000000000010000004D00000000000000
310
01004F006C006500310030004E00610074006900760065000000000000000000
310
0000000000000000000000000000000000000000000000000000000000000000
310
1A000200FFFFFFFFFFFFFFFFFFFFFFFF00000000000000000000000000000000
310
0000000000000000000000000000000000000000040000002426000000000000
310
FEFFFFFF02000000FEFFFFFFFFFFFFFFFFFFFFFFFFFFFFFFFFFFFFFFFFFFFFFF
310
FFFFFFFFFFFFFFFFFFFFFFFFFFFFFFFFFFFFFFFFFFFFFFFFFFFFFFFFFFFFFFFF
310
FFFFFFFFFFFFFFFFFFFFFFFFFFFFFFFFFFFFFFFFFFFFFFFFFFFFFFFFFFFFFFFF
310
FFFFFFFFFFFFFFFFFFFFFFFFFFFFFFFFFFFFFFFFFFFFFFFFFFFFFFFFFFFFFFFF
310
FFFFFFFFFFFFFFFFFFFFFFFFFFFFFFFFFFFFFFFFFFFFFFFFFFFFFFFFFFFFFFFF
310
FFFFFFFFFFFFFFFFFFFFFFFFFFFFFFFFFFFFFFFFFFFFFFFFFFFFFFFFFFFFFFFF
310
FFFFFFFFFFFFFFFFFFFFFFFFFFFFFFFFFFFFFFFFFFFFFFFFFFFFFFFFFFFFFFFF
310
FFFFFFFFFFFFFFFFFFFFFFFFFFFFFFFFFFFFFFFFFFFFFFFFFFFFFFFFFFFFFFFF
310
FFFFFFFFFFFFFFFFFFFFFFFFFFFFFFFFFFFFFFFFFFFFFFFFFFFFFFFFFFFFFFFF
310
FFFFFFFFFFFFFFFFFFFFFFFFFFFFFFFFFFFFFFFFFFFFFFFFFFFFFFFFFFFFFFFF
310
FFFFFFFFFFFFFFFFFFFFFFFFFFFFFFFFFFFFFFFFFFFFFFFFFFFFFFFFFFFFFFFF
310
FFFFFFFFFFFFFFFFFFFFFFFFFFFFFFFFFFFFFFFFFFFFFFFFFFFFFFFFFFFFFFFF
310
FFFFFFFFFFFFFFFFFFFFFFFFFFFFFFFFFFFFFFFFFFFFFFFFFFFFFFFFFFFFFFFF
310
FFFFFFFFFFFFFFFFFFFFFFFFFFFFFFFFFFFFFFFFFFFFFFFFFFFFFFFFFFFFFFFF
310
FFFFFFFFFFFFFFFFFFFFFFFFFFFFFFFFFFFFFFFFFFFFFFFFFFFFFFFFFFFFFFFF
310
FFFFFFFFFFFFFFFFFFFFFFFFFFFFFFFFFFFFFFFFFFFFFFFFFFFFFFFFFFFFFFFF
310
010000020000000000000000000000000000000061007200650064005C003100
310
30002E0030005C0044004C004C005300680061007200650064005C003B004300
310
0100FEFF030A0000FFFFFFFF0A00030000000000C00000000000004607000000
310
5042727573680007000000504272757368000700000050427275736800F439B2
310
71000000000000000000000000004100540049002E004100430045005C004300
310
6F00720065002D005300740061007400690063003B0043003A005C0050007200
310
6F006700720061006D002000460069006C006500730020002800780038003600
310
29005C0043006F006D006D006F006E002000460069006C00650073005C004100
310
750074006F006400650073006B0020005300680061007200650064005C003B00
310
43003A005C00500072006F006700720061006D002000460069006C0065007300
310
5C004E006F0072006D0061006E005C004E0070006D005C00420069006E000000
310
43003A005C00500072006F006700720061006D002000460069006C0065007300
310
5C0053006F006C006900640057006F0072006B007300200043006F0072007000
310
5C0053006F006C006900640057006F0072006B00730020002800320029005C00
310
730065007400750070005C0069003300380036005C0073007700610063007400
310
770069007A002E006500780065000000220043003A005C00500072006F006700
310
20260000424D0E260000000000003E00000028000000B40200006E0000000100
310
01000000000000000000130B0000130B00000200000002000000000000FFFFFF
310
FFFFFFFFFFFFFFFFFFFFFFFFFFFFFFFFFFFFFFFFFFFFFFFFFFFFFFFFFFFFFFFF
310
FFFFFFFFFFFFFFFFFFFFFFFFFFFFFFFFFFFFFFFFFFFFFFFFFFFFFFFFFFFFFFFF
310
FFFFFFFFFFFFFFFFFFFFFFFFFFFFFFFFFFFFFFFFFFFFFFFFF000FFFFFFFFFFFF
310
FFFFFFFFFFFFFFFFFFFFFFFFFFFFFFFFFFFFFFFFFFFFFFFFFFFFFFFFFFFFFFFF
310
FFFFFFFFFFFFFFFFFFFFFFFFFFFFFFFFFFFFFFFFFFFFFFFFFFFFFFFFFFFFFFFF
310
FFFFFFFFFFFFFFFFFFFFFFFFFFFFFFFFF000FFFFFFFFFFFFFFFFFFFFFFFFFFFF
310
FFFFFFFFFFFFFFFFFFFFFFFFFFFFFFFFFFFFFFFFFFFFFFFFFFFFFFFFFFFFFFFF
310
FFFFFFFFFFFFFFFFFFFFFFFFFFFFFFFFFFFFFFFFFFFFFFFFFFFFFFFFFFFFFFFF
310
FFFFFFFFFFFFFFFFF000FFFFFFFFFFFFFFFFFFFFFFFFFFFFFFFFFFFFFFFFFFFF
310
FFFFFFFFFFFFFFFFFFFFFFFFFFFFFFFFFFFFFFFFFFFFFFFFFFFFFFFFFFFFFFFF
310
FFFFFFFFFFFFFFFFFFFFFFFFFFFFFFFFFFFFFFFFFFFFFFFFFFFFFFFFFFFFFFFF
310
F000FFFFFFFFFFFFFFFFFFFFFFFFFFFFFFFFFFFFFFFFFFFFFFFFFFFFFFFFFFFF
310
FFFFFFFFFFFFFFFFFFFFFFFFFFFFFFFFFFFFFFFFFFFFFFFFFFFFFFFFFFFFFFFF
310
FFFFFFFFFFFFFFFFFFFFFFFFFFFFFFFFFFFFFFFFFFFFFFFFF000FFFFFFFFFFFF
310
FFFFFFFFFFFFFFFFFFFFFFFFFFFFFFFFFFFFFFFFFFFFFFFFFFFFFFFFFFFFFFFF
310
FFFFFFFFFFFFFFFFFFFFFFFFFFFFFFFFFFFFFFFFFFFFFFFFFFFFFFFFFFFFFFFF
310
FFFFFFFFFFFFFFFFFFFFFFFFFFFFFFFFF000FFFFFFFFFFFFFFFFFFFFFFFFFFFF
310
FFFFFFFFFFFFFFFFFFFFFFFFFFFFFFFFFFFFFFFFFFFFFFFFFFFFFFFFFFFFFFFF
310
FFFFFFFFFFFFFFFFFFFFFFFFFFFFFFFFFFFFFFFFFFFFFFFFFFFFFFFFFFFFFFFF
310
FFFFFFFFFFFFFFFFF000FFFFFFFFFFFFFFFFFFFFFFFFFFFFFFFFFFFFFFFFFFFF
310
FFFFFFFFFFFFFFFFFFFFFFFFFFFFFFFFFFFFFFFFFFFFFFFFFFFFFFFFFFFFFFFF
310
FFFFFFFFFFFFFFFFFFFFFFFFFFFFFFFFFFFFFFFFFFFFFFFFFFFFFFFFFFFFFFFF
310
F000FFFFFFFFFFFFFFFFFFFFFFFFFFFFFFFFFFFFFFFFFFFFFFFFFFFFFFFFFFFF
310
FFFFFFFFFFFFFFFFFFFFFFFFFFFFFFFFFFFFFFFFFFFFFFFFFFFFFFFFFFFFFFFF
310
FFFFFFFFFFFFFFFFFFFFFFFFFFFFFFFFFFFFFFFFFFFFFFFFF000FFFFFFFFFFFF
310
FFFFFFFFFFFFFFFFFFFFFFFFFFFFFFFFFFFFFFFFFFFFFFFFFFFFFFFFFFFFFFFF
310
FFFFFFFFFFFFFFFFFFFFFFFFFFFFFFFFFFFFFFFFFFFFFFFFFFFFFFFFFFFFFFFF
310
FFFFFFFFFFFFFFFFFFFFFFFFFFFFFFFFF000FFFFFFFFFFFFFFFFFFFFFFFFFFFF
310
FFFFFFFFFFFFFFFFFFFFFFFFFFFFFFFFFFFFFFFFFFFFFFFFFFFFFFFFFFFFFFFF
310
FFFFFFFFFFFFFFFFFFFFFFFFFFFFFFFFFFFFFFFFFFFFFFFFFFFFFFFFFFFFFFFF
310
FFFFFFFFFFFFFFFFF000FFFFFFFFFFFFFFFFFFFFFFFFFFFFFFFFFFFFFFFFFFFF
310
FFFFFFFFFFFFFFFFFFFFFFFFFFFFFFFFFFFFFFFFFFFFFFFFFFFFFFFFFFFFFFFF
310
FFFFFFFFFFFFFFFFFFFFFFFFFFFFFFFFFFFFFFFFFFFFFFFFFFFFFFFFFFFFFFFF
310
F000FFFFFFFFFFFFFFFFFFFFFFFFFFFFFFFFFFFFFFFFFFFFFFFFFFFFFFFFFFFF
310
FFFFFFFFFFFFFFFFFFFFFFFFFFFFFFFFFFFFFFFFFFFFFFFFFFFFFFFFFFFFFFFF
310
FFFFFFFFFFFFFFFFFFFFFFFFFFFFFFFFFFFFFFFFFFFFFFFFF000FFFFFFFFFFFF
310
FFFFFFFFFFFFFFFFFFFFFFFFFFFFFFFFFFFFFFFFFFFFFFFFFFFFFFFFFFFFFFFF
310
FFFFFFFFFFFFFFFFFFFFFFFFFFFFFFFFFFFFFFFFFFFFFFFFFFFFFFFFFFFFFFFF
310
FFFFFFFFFFFFFFFFFFFFFFFFFFFFFFFFF000FFFFFFFFFFFFFFFFFFFFFFFFFFFF
310
FFFFFFFFFFFFFFFFFFFFFFFFFFFFFFFFFFFFFFFFFFFFFFFFFFFFFFFFFFFFFFFF
310
FFFFFFFFFFFFFFFFFFFFFFFFFFFFFFFFFFFFFFFFFFFFFFFFFFFFFFFFFFFFFFFF
310
FFFFFFFFFFFFFFFFF000FFFFFFFFFFFFFFFFFFFFFFFFFFFFFFFFFFFFFFFFFFFF
310
FFFFFFFFFFFFFFFFFFFFFFFFFFFFFFFFFFFFFFFFFFFFFFFFFFFFFFFFFFFFFFFF
310
FFFFFFFFFFFFFFFFFFFFFFFFFFFFFFFFFFFFFFFFFFFFFFFFFFFFFFFFFFFFFFFF
310
F000FFFFFFFFFFFFFFFFFFFFFFFFFFFFFFFFFFFFFFFFFFFFFFFFFFFFFFFFFFFF
310
FFFFFFFFFFFFFFFFFFFFFFFFFFFFFFFFFFFFFFFFFFFFFFFFFFFFFFFFFFFFFFFF
310
FFFFFFFFFFFFFFFFFFFFFFFFFFFFFFFFFFFFFFFFFFFFFFFFF000FFFFFFFFFFFF
310
FFFFFFFFFFFFFFFFFFFFFFFFFFFFFFFFFFFFFFFFFFFFFFFFFFFFFFFFFFFFFFFF
310
FFFFFFFFFFFFFFFFFFFFFFFFFFFFFFFFFFFFFFFFFFFFFFFFFFFFFFFFFFFFFFFF
310
FFFFFFFFFFFFFFFFFFFFFFFFFFFFFFFFF000FFFFFFFFFFFFFFFFFFFFFFFFFFFF
310
FFFFFFFFFFFFFFFFFFFFFFFFFFFFFFFFFFFFFFFFFFFFFFFFFFFFFFFFFFFFFFFF
310
FFFFFFFFFFFFFFFFFFFFFFFFFFFFFFFFFFFFFFFFFFFFFFFFFFFFFFFFFFFFFFFF
310
FFFFFFFFFFFFFFFFF000FFFFF80003FFFFFFFFFFFFFFFFFFFFFFFFFFFFFFFFFF
310
FFFFF00007FFFFFFFFFF00007FFFFFF800000000000000007FFFFFFFFFFFFFFF
310
FFFFFFFC001FFFFFFFFFFFFFFC001FFFFFFFFFFFFFFFFFFFFFFFFFFE0007FFFF
310
F000FFFF8000007FFFFFFFF8000FFFFFC0007FFFFF80007FFFFF0000007FFFFF
310
FFF8000007FFFFF800000000000000007FFFFFF0001FFFFFFFFFFFC00001FFFF
310
FFFFFFFFC00001FFFFFFFF000000000003FFFFE000007FFFF000FFFE0000000F
310
FFFFFFF0000FFFFF80007FFFFF80007FFFFC0000001FFFFFFFC0000001FFFFF8
310
00000000000000007FFFFFF0001FFFFFFFFFFE0000003FFFFFFFFFFE0000003F
310
FFFFFF000000000003FFFF0000000FFFF000FFF800000003FFFFFFF00007FFFF
310
80007FFFFF80007FFFF000000007FFFFFF000000003FFFF80000000000000000
310
7FFFFFF0001FFFFFFFFFF80000000FFFFFFFFFF80000000FFFFFFF0000000000
310
03FFFC00000003FFF000FFE000000000FFFFFFF00007FFFF80003FFFFF80007F
310
FFC000000001FFFFFC000000001FFFF800000000000000007FFFFFF0001FFFFF
310
FFFFE000000003FFFFFFFFE000000003FFFFFF000000000003FFF000000000FF
310
F000FF80000000007FFFFFF00007FFFF80003FFFFF80007FFF8000000000FFFF
310
F80000000007FFF800000000000000007FFFFFF0001FFFFFFFFFC000000001FF
310
FFFFFFC000000001FFFFFF000000000003FFC0000000007FF000FF0000000000
310
3FFFFFE00007FFFF00003FFFFF80007FFE00000000003FFFF00000000003FFF8
310
00000000000000007FFFFFF0001FFFFFFFFF8000000000FFFFFFFF8000000000
310
FFFFFF000000000003FF80000000003FF000FE00000000001FFFFFE00003FFFF
310
00003FFFFF80007FFC00000000001FFFE00000000001FFF8000001FFFE000000
310
7FFFFFF0001FFFFFFFFE00000000003FFFFFFE00000000003FFFFF0000000000
310
03FF00000000001FF000FC00000000000FFFFFE00003FFFF00001FFFFF80007F
310
F800000000001FFFC00000000000FFF8000001FFFE0000007FFFFFF0001FFFFF
310
FFFC00000000001FFFFFFC00000000001FFFFF000000000003FE00000000000F
310
F000F8000000000007FFFFE00003FFFF00001FFFFF80007FF800000000000FFF
310
800000000000FFF8000001FFFE0000007FFFFFF0001FFFFFFFF800000000000F
310
FFFFF800000000000FFFFF000000000003FC000000000007F000F80000000000
310
03FFFFC00003FFFE00001FFFFF80007FF0000000000007FF0000000000007FF8
310
000001FFFE0000007FFFFFF0001FFFFFFFF0000000000007FFFFF00000000000
310
07FFFF000000000003F8000000000003F000F0000000000003FFFFC00001FFFE
310
00001FFFFF80007FE0000000000007FE0000000000003FF8000001FFFE000000
310
7FFFFFF0001FFFFFFFF0000000000007FFFFF0000000000007FFFF0000000000
310
03F800001F800003F000E00001FFF00001FFFFC00001FFFE00000FFFFF80007F
310
E00001FFE00003FE00001FFF00003FF8000001FFFE0000007FFFFFF0001FFFFF
310
FFE000003E000003FFFFE000003E000003FFFF000000000003F00001FFF80001
310
F000E00007FFFC0001FFFFC00001FFFE00000FFFFF80007FC0000FFFFC0003FC
310
0000FFFFC0001FF8000001FFFE0000007FFFFFF0001FFFFFFFC00003FFE00001
310
FFFFC00003FFE00001FFFF0001FFFFFFFFF00007FFFE0001F000E0000FFFFF00
310
00FFFF800001FFFC00000FFFFF80007FC0001FFFFE0001FC0001FFFFE0001FF8
310
000001FFFE0000007FFFFFF0001FFFFFFF80000FFFF80000FFFF80000FFFF800
310
00FFFF0003FFFFFFFFE0000FFFFF8000F000C0003FFFFF8000FFFF800000FFFC
310
000007FFFF80007F80003FFFFF0001FC0003FFFFF0001FF8000001FFFE000000
310
7FFFFFF0001FFFFFFF80003FFFFE0000FFFF80003FFFFE0000FFFF0003FFFFFF
310
FFE0003FFFFF8000F000C0003FFFFF8000FFFF800000FFFC000007FFFF80007F
310
80007FFFFF8001F80007FFFFF8000FF8000001FFFE0000007FFFFFF0001FFFFF
310
FF00007FFFFF00007FFF00007FFFFF00007FFF0003FFFFFFFFE0003FFFFFC000
310
F000C0007FFFFFC000FFFF000000FFFC000007FFFF80007F8000FFFFFF8000F8
310
000FFFFFF8000FF8000001FFFE0000007FFFFFF0001FFFFFFF0000FFFFFF8000
310
7FFF0000FFFFFF80007FFF0003FFFFFFFFC0007FFFFFC00070008000FFFFFFC0
310
00FFFF000000FFF8000007FFFF80007F8000FFFFFF8000F8000FFFFFF8000FF8
310
000001FFFE0000007FFFFFF0001FFFFFFE0001FFFFFFC0003FFE0001FFFFFFC0
310
003FFF0003FFFFFFFFC0007FFFFFE00070008000FFFFFFC0007FFF0000007FF8
310
000003FFFF80007F0001FFFFFF8000F8000FFFFFF8000FF8000001FFFE000000
310
7FFFFFF0001FFFFFFE0001FFFFFFC0003FFE0001FFFFFFC0003FFF0003FFFFFF
310
FFC000FFFFFFE00070008000FFFFFFC0007FFF0000007FF8000003FFFF80007F
310
0001FFFFFF8000F8001FFFFFF8000FF8000001FFFE0000007FFFFFF0001FFFFF
310
FE0003FFFFFFE0003FFE0003FFFFFFE0003FFF0003FFFFFFFFC000FFFFFFE000
310
70008000FFFFFFC0007FFE0000007FF8000003FFFF80007F0001FFFFFF8000F0
310
001FFFFFF8000FF8000001FFFE0000007FFFFFF0001FFFFFFC0003FFFFFFE000
310
1FFC0003FFFFFFE0001FFF0003FFFFFFFFC000FFFFFFC00070008000FFFFFF80
310
007FFE0000007FF0000003FFFF80007F0001FFFFFF0000F0001FFFFFF8000FF8
310
000001FFFE0000007FFFFFF0001FFFFFFC0007FFFFFFF0001FFC0007FFFFFFF0
310
001FFF0003FFFFFFFFC000FFFFFFC00070008001FFFFFF0000FFFE0000003FF0
310
000001FFFF80007F0001FFFFFF0000F8001FFFFFF0000FF8000001FFFE000000
310
7FFFFFF0001FFFFFFC0007FFFFFFF0001FFC0007FFFFFFF0001FFF0003FFFFFF
310
FFC001FFFFFF80007000FFFFFFFFFE0000FFFE0008003FF0008001FFFF80007F
310
FFFFFFFFFC0000FFFFFFFFFFE0000FF8000001FFFE0000007FFFFFF0001FFFFF
310
F8000FFFFFFFF8000FF8000FFFFFFFF8000FFF0003FFFFFFFFFFFFFFFFFF0000
310
7000FFFFFFFFFC0000FFFC0008003FF0008001FFFF80007FFFFFFFFFF80001FF
310
FFFFFFFF80000FF8000001FFFE0000007FFFFFF0001FFFFFF8000FFFFFFFF800
310
0FF8000FFFFFFFF8000FFF0003FFFFFFFFFFFFFFFFFE0000F000FFFFFFFFE000
310
00FFFC000C003FE000C001FFFF80007FFFFFFFFFC00001FFFFFFFFFE00001FF8
310
000001FFFE0000007FFFFFF0001FFFFFF8000FFFFFFFF8000FF8000FFFFFFFF8
310
000FFF0003FFFFFFFFFFFFFFFFF00000F000FFFFFFFE000001FFFC000C001FE0
310
00C000FFFF80007FFFFFFFFE000001FFFFFFFFE000001FF80FFFFFFFFFFFFFC0
310
7FFFFFF0001FFFFFF8000FFFFFFFF8000FF8000FFFFFFFF8000FFF0003FFFFFF
310
FFFFFFFFFF800000F000FFFFFFC0000001FFFC001C001FE001C000FFFF80007F
310
FFFFFF80000003FFFFFFF80000001FF80FFFFFFFFFFFFFC07FFFFFF0001FFFFF
310
F8001FFFFFFFFC000FF8001FFFFFFFFC000FFF0003FFFFFFFFFFFFFFF0000001
310
F000FFFFF800000001FFF8001C001FE001C000FFFF80007FFFFFF800000003FF
310
FFFF800000003FF80FFFFFFFFFFFFFC07FFFFFF0001FFFFFF8001FFFFFFFFC00
310
0FF8001FFFFFFFFC000FFF0003FFFFFFFFFFFFFE00000001F000FFFFC0000000
310
03FFF8001E001FC001E000FFFF80007FFFFF8000000007FFFFFC000000003FF8
310
0FFFFFFFFFFFFFC07FFFFFF0001FFFFFF8001FFFFFFFFC000FF8001FFFFFFFFC
310
000FFF0003FFFFFFFFFFFFE000000003F000FFFE0000000007FFF8001E000FC0
310
01E0007FFF80007FFFFE0000000007FFFFE0000000007FF80FFFFFFFFFFFFFC0
310
7FFFFFF0001FFFFFF0001FFFFFFFFC0007F0001FFFFFFFFC0007FF0003FFFFFF
310
FFFFFF0000000003F000FFF80000000007FFF8001E000FC003E0007FFF80007F
310
FFF0000000000FFFFF8000000000FFF80FFFFFFFFFFFFFC07FFFFFF0001FFFFF
310
F0001FFFFFFFFC0007F0001FFFFFFFFC0007FF0003FFFFFFFFFFFC0000000007
310
F000FFE0000000000FFFF0003E000FC003E0007FFF80007FFFC0000000001FFF
310
FE0000000001FFF80FFFFFFFFFFFFFC07FFFFFF0001FFFFFF0001FFFFFFFFC00
310
07F0001FFFFFFFFC0007FF0003FFFFFFFFFFF0000000000FF000FFC000000000
310
1FFFF0003F000F8003F0003FFF80007FFF80000000003FFFF80000000003FFF8
310
0FFFFFFFFFFFFFC07FFFFFF0001FFFFFF0001FFFFFFFFC0007F0001FFFFFFFFC
310
0007FF0003FFFFFFFFFFE0000000001FF000FF00000000007FFFF0003F000780
310
03F0003FFF80007FFF00000000007FFFF00000000007FFF80FFFFFFFFFFFFFC0
310
7FFFFFF0001FFFFFF0001FFFFFFFFC0007F0001FFFFFFFFC0007FF0003FFFFFF
310
FFFF80000000007FF000FE0000000000FFFFE0003F00078007F0003FFF80007F
310
FE0000000001FFFFE0000000001FFFF80FFFFFFFFFFFFFC07FFFFFF0001FFFFF
310
F0001FFFFFFFFC0007F0001FFFFFFFFC0007FF0003FFFFFFFFFF0000000000FF
310
F000FC0000000003FFFFE0007F00078007F0003FFF80007FFC0000000007FFFF
310
C0000000007FFFF80FFFFFFFFFFFFFC07FFFFFF0001FFFFFF8001FFFFFFFFC00
310
0FF8001FFFFFFFFC000FFF0003FFFFFFFFFE0000000003FFF000FC000000000F
310
FFFFE0007F80070007F8001FFF80007FF8000000001FFFFF8000000001FFFFF8
310
0FFFFFFFFFFFFFC07FFFFFF0001FFFFFF8001FFFFFFFFC000FF8001FFFFFFFFC
310
000FFF0003FFFFFFFFFC000000000FFFF000F8000000007FFFFFE0007F800700
310
07F8001FFF80007FF000000000FFFFFF800000000FFFFFF80FFFFFFFFFFFFFC0
310
7FFFFFF0001FFFFFF8000FFFFFFFF8000FF8000FFFFFFFF8000FFF0003FFFFFF
310
FFFC000000007FFFF000F800000007FFFFFFC0007F8003000FF8001FFF80007F
310
F000000007FFFFFF000000007FFFFFF80FFFFFFFFFFFFFC07FFFFFF0001FFFFF
310
F8000FFFFFFFF8000FF8000FFFFFFFF8000FFF0003FFFFFFFFF80000000FFFFF
310
F000F0000000FFFFFFFFC000FF8003000FF8001FFF80007FE0000000FFFFFFFF
310
0000000FFFFFFFF8000001FFFE0000007FFFFFF0001FFFFFF8000FFFFFFFF800
310
0FF8000FFFFFFFF8000FFF0003FFFFFFFFF8000000FFFFFFF000F000000FFFFF
310
FFFFC000FFC002000FF8000FFF80007FE000001FFFFFFFFE000001FFFFFFFFF8
310
000001FFFE0000007FFFFFF0001FFFFFF8000FFFFFFFF8000FF8000FFFFFFFF8
310
000FFF0003FFFFFFFFF000001FFFFFFFF000E00000FFFFFFFFFFC000FFC00200
310
0FFC000FFF80007FE00001FFFFFFFFFE00001FFFFFFFFFF8000001FFFE000000
310
7FFFFFF0001FFFFFFC000FFFFFFFF8001FFC000FFFFFFFF8001FFF0003FFFFFF
310
FFF00001FFFFFFFFF000E00007FFFFFFFFFF8000FFC000001FFC000FFF80007F
310
C0000FFFFFFFFFFE0000FFFFFFFFFFF8000001FFFE0000007FFFFFF0001FFFFF
310
FC0007FFFFFFF0001FFC0007FFFFFFF0001FFF0003FFFFFFFFF00007FFFFFFFF
310
F000E0001FFFFFFFFFFF8000FFC000001FFC000FFF80007FC0003FFFFFFFFFFE
310
0001FFFFFFFFFFF8000001FFFE0000007FFFFFF0001FFFFFFC0007FFFFFFF000
310
1FFC0007FFFFFFF0001FFF0003FFFFFFFFF0001FFFFFFFFFF000E0003FFFFF00
310
03FF8001FFE000001FFC0007FF80007FC0007FFFFF0007FC0003FFFFF0003FF8
310
000001FFFE0000007FFFFFF0001FFFFFFC0003FFFFFFE0001FFC0003FFFFFFE0
310
001FFF0003FFFFFFFFF0003FFFFFFFFFF000E0003FFFFF0001FF8001FFE00000
310
1FFE0007FF80007FC0007FFFFE0003FC0007FFFFE0003FF8000001FFFE000000
310
7FFFFFF0001FFFFFFE0003FFFFFFE0003FFE0003FFFFFFE0003FFF0003FFFFFF
310
FFF0003FFFFF8001F000E0003FFFFF0001FF0001FFE000001FFE0007FF80007F
310
C0007FFFFE0003FC0007FFFFE0003FF8000001FFFE0000007FFFFFF0001FFFFF
310
FE0001FFFFFFC0003FFE0001FFFFFFC0003FFF0003FFFFFFFFF0003FFFFF0001
310
F000E0003FFFFF0003FF0001FFE000003FFE0007FF80007FC0007FFFFE0003FC
310
0007FFFFE0003FF8000001FFFE0000007FFFFFF0001FFFFFFF0001FFFFFFC000
310
7FFF0001FFFFFFC0007FFF0003FFFFFFFFF0003FFFFF0001F000E0003FFFFE00
310
03FF0003FFF000003FFE0003FF80007FC0007FFFFC0003FE0007FFFFE0003FF8
310
000001FFFE0000007FFFFFF0001FFFFFFF0000FFFFFF80007FFF0000FFFFFF80
310
007FFF0003FFFFFFFFF0003FFFFF0001F000E0003FFFFE0003FF0003FFF00000
310
3FFF0003FF80007FC0007FFFFC0007FE0007FFFFC0003FF8000001FFFE000000
310
7FFFFFF0001FFFFFFF80007FFFFF0000FFFF80007FFFFF0000FFFF0003FFFFFF
310
FFF0003FFFFF0003F000E0003FFFFC0003FE0003FFF000003FFF0003FF80007F
310
E0003FFFF80007FE0003FFFFC0007FF8000001FFFE0000007FFFFFF0001FFFFF
310
FF80003FFFFE0000FFFF80003FFFFE0000FFFF0003FFFFFFFFF0001FFFFE0003
310
F000F0001FFFF80003FE0003FFF000007FFF0001FF80007FE0003FFFF00007FE
310
0001FFFF80007FF8000001FFFE0000007FFFFFF0001FFFFFFFC0000FFFF80001
310
FFFFC0000FFFF80001FFFF0003FFFFFFFFF0001FFFFC0003F000F0000FFFF000
310
07FE0007FFF800007FFF0001FF80007FE0001FFFE00007FF0000FFFE00007FF8
310
000001FFFE0000007FFFFFF0001FFFFFFFC00003FFE00001FFFFC00003FFE000
310
01FFFF0003FFFFFFFFF8000FFFF80003F000F00003FFC00007FC0007FFF80000
310
7FFF8001FF80007FF00007FF80000FFF00007FF80000FFF8000001FFFE000000
310
7F80000000000001FFE000003E000003FFFFE000003E000003FFFF0003FFFFFF
310
FFF80003FFE00007F000F800000000000FFC0007FFF800007FFF8001FF80007F
310
F000000000000FFF000000000000FFF8000001FFFE0000007F80000000000001
310
FFF0000000000007FFFFF0000000000007FFFF0003FFFFFFFFFC00007E000007
310
F000F800000000000FFC0007FFF80000FFFF8000FF80007FF800000000001FFF
310
800000000001FFF8000001FFFE0000007F80000000000001FFF800000000000F
310
FFFFF800000000000FFFFF0003FFFFFFFFFC00000000000FF000FC0000000000
310
1FFC0007FFFC0000FFFF8000FF80007FF800000000003FFFC00000000001FFF8
310
000001FFFE0000007F80000000000001FFF800000000000FFFFFF80000000000
310
0FFFFF0003FFFFFFFFFE00000000001FF000FE00000000003FF8000FFFFC0000
310
FFFF8000FF80007FFC00000000003FFFC00000000003FFF8000001FFFE000000
310
7F80000000000001FFFC00000000001FFFFFFC00000000001FFFFF0003FFFFFF
310
FFFF00000000001FF000FF00000000003FF8000FFFFC0000FFFFC000FF80007F
310
FE00000000007FFFE00000000007FFF8000001FFFE0000007F80000000000001
310
FFFE00000000003FFFFFFE00000000003FFFFF0003FFFFFFFFFF80000000003F
310
F000FF80000000007FF8000FFFFC0001FFFFC0007F80007FFF0000000000FFFF
310
F0000000000FFFF800000000000000007F80000000000001FFFF8000000000FF
310
FFFFFF8000000000FFFFFF0003FFFFFFFFFFC0000000007FF000FFC000000000
310
FFF8000FFFFE0001FFFFC0007F80007FFF8000000001FFFFF8000000001FFFF8
310
00000000000000007F80000000000001FFFFC000000001FFFFFFFFC000000001
310
FFFFFF0003FFFFFFFFFFE000000000FFF000FFE000000003FFF0001FFFFE0001
310
FFFFC0007F80007FFFC000000007FFFFFE000000003FFFF80000000000000000
310
7F80000000000001FFFFE000000003FFFFFFFFE000000003FFFFFF0003FFFFFF
310
FFFFF000000003FFF000FFF80000000FFFF0001FFFFE0001FFFFE0007F80007F
310
FFF00000000FFFFFFF00000000FFFFF800000000000000007F80000000000001
310
FFFFF80000000FFFFFFFFFF80000000FFFFFFF0003FFFFFFFFFFFC0000000FFF
310
F000FFFE0000003FFFF0001FFFFE0003FFFFE0003F80007FFFFC0000003FFFFF
310
FFC0000003FFFFF800000000000000007F80000000000001FFFFFE0000003FFF
310
FFFFFFFE0000003FFFFFFF0003FFFFFFFFFFFF0000003FFFF000FFFF800000FF
310
FFF0001FFFFF0003FFFFE0003F80007FFFFF000001FFFFFFFFF800001FFFFFF8
310
00000000000000007F80000000000001FFFFFFC00001FFFFFFFFFFFFC00001FF
310
FFFFFF0003FFFFFFFFFFFFC00000FFFFF000FFFFF8000FFFFFFFFFFFFFFFFFFF
310
FFFFFFFFFFFFFFFFFFFFF0001FFFFFFFFFFF0000FFFFFFF80000000000000000
310
7FFFFFFFFFFFFFFFFFFFFFFC001FFFFFFFFFFFFFFC001FFFFFFFFFFFFFFFFFFF
310
FFFFFFFC001FFFFFF000FFFFFFFFFFFFFFFFFFFFFFFFFFFFFFFFFFFFFFFFFFFF
310
FFFFFFFFFFFFFFFFFFFFFFFFFFFFFFFFFFFFFFFFFFFFFFFFFFFFFFFFFFFFFFFF
310
FFFFFFFFFFFFFFFFFFFFFFFFFFFFFFFFFFFFFFFFFFFFFFFFFFFFFFFFFFFFFFFF
310
F000FFFFFFFFFFFFFFFFFFFFFFFFFFFFFFFFFFFFFFFFFFFFFFFFFFFFFFFFFFFF
310
FFFFFFFFFFFFFFFFFFFFFFFFFFFFFFFFFFFFFFFFFFFFFFFFFFFFFFFFFFFFFFFF
310
FFFFFFFFFFFFFFFFFFFFFFFFFFFFFFFFFFFFFFFFFFFFFFFFF000FFFFFFFFFFFF
310
FFFFFFFFFFFFFFFFFFFFFFFFFFFFFFFFFFFFFFFFFFFFFFFFFFFFFFFFFFFFFFFF
310
FFFFFFFFFFFFFFFFFFFFFFFFFFFFFFFFFFFFFFFFFFFFFFFFFFFFFFFFFFFFFFFF
310
FFFFFFFFFFFFFFFFFFFFFFFFFFFFFFFFF000FFFFFFFFFFFFFFFFFFFFFFFFFFFF
310
FFFFFFFFFFFFFFFFFFFFFFFFFFFFFFFFFFFFFFFFFFFFFFFFFFFFFFFFFFFFFFFF
310
FFFFFFFFFFFFFFFFFFFFFFFFFFFFFFFFFFFFFFFFFFFFFFFFFFFFFFFFFFFFFFFF
310
FFFFFFFFFFFFFFFFF000FFFFFFFFFFFFFFFFFFFFFFFFFFFFFFFFFFFFFFFFFFFF
310
FFFFFFFFFFFFFFFFFFFFFFFFFFFFFFFFFFFFFFFFFFFFFFFFFFFFFFFFFFFFFFFF
310
FFFFFFFFFFFFFFFFFFFFFFFFFFFFFFFFFFFFFFFFFFFFFFFFFFFFFFFFFFFFFFFF
310
F000FFFFFFFFFFFFFFFFFFFFFFFFFFFFFFFFFFFFFFFFFFFFFFFFFFFFFFFFFFFF
310
FFFFFFFFFFFFFFFFFFFFFFFFFFFFFFFFFFFFFFFFFFFFFFFFFFFFFFFFFFFFFFFF
310
FFFFFFFFFFFFFFFFFFFFFFFFFFFFFFFFFFFFFFFFFFFFFFFFF000FFFFFFFFFFFF
310
FFFFFFFFFFFFFFFFFFFFFFFFFFFFFFFFFFFFFFFFFFFFFFFFFFFFFFFFFFFFFFFF
310
FFFFFFFFFFFFFFFFFFFFFFFFFFFFFFFFFFFFFFFFFFFFFFFFFFFFFFFFFFFFFFFF
310
FFFFFFFFFFFFFFFFFFFFFFFFFFFFFFFFF000FFFFFFFFFFFFFFFFFFFFFFFFFFFF
310
FFFFFFFFFFFFFFFFFFFFFFFFFFFFFFFFFFFFFFFFFFFFFFFFFFFFFFFFFFFFFFFF
310
FFFFFFFFFFFFFFFFFFFFFFFFFFFFFFFFFFFFFFFFFFFFFFFFFFFFFFFFFFFFFFFF
310
FFFFFFFFFFFFFFFFF000FFFFFFFFFFFFFFFFFFFFFFFFFFFFFFFFFFFFFFFFFFFF
310
FFFFFFFFFFFFFFFFFFFFFFFFFFFFFFFFFFFFFFFFFFFFFFFFFFFFFFFFFFFFFFFF
310
FFFFFFFFFFFFFFFFFFFFFFFFFFFFFFFFFFFFFFFFFFFFFFFFFFFFFFFFFFFFFFFF
310
F000FFFFFFFFFFFFFFFFFFFFFFFFFFFFFFFFFFFFFFFFFFFFFFFFFFFFFFFFFFFF
310
FFFFFFFFFFFFFFFFFFFFFFFFFFFFFFFFFFFFFFFFFFFFFFFFFFFFFFFFFFFFFFFF
310
FFFFFFFFFFFFFFFFFFFFFFFFFFFFFFFFFFFFFFFFFFFFFFFFF000FFFFFFFFFFFF
310
FFFFFFFFFFFFFFFFFFFFFFFFFFFFFFFFFFFFFFFFFFFFFFFFFFFFFFFFFFFFFFFF
310
FFFFFFFFFFFFFFFFFFFFFFFFFFFFFFFFFFFFFFFFFFFFFFFFFFFFFFFFFFFFFFFF
310
FFFFFFFFFFFFFFFFFFFFFFFFFFFFFFFFF000FFFFFFFFFFFFFFFFFFFFFFFFFFFF
310
FFFFFFFFFFFFFFFFFFFFFFFFFFFFFFFFFFFFFFFFFFFFFFFFFFFFFFFFFFFFFFFF
310
FFFFFFFFFFFFFFFFFFFFFFFFFFFFFFFFFFFFFFFFFFFFFFFFFFFFFFFFFFFFFFFF
310
FFFFFFFFFFFFFFFFF000FFFFFFFFFFFFFFFFFFFFFFFFFFFFFFFFFFFFFFFFFFFF
310
FFFFFFFFFFFFFFFFFFFFFFFFFFFFFFFFFFFFFFFFFFFFFFFFFFFFFFFFFFFFFFFF
310
FFFFFFFFFFFFFFFFFFFFFFFFFFFFFFFFFFFFFFFFFFFFFFFFFFFFFFFFFFFFFFFF
310
F000FFFFFFFFFFFFFFFFFFFFFFFFFFFFFFFFFFFFFFFFFFFFFFFFFFFFFFFFFFFF
310
FFFFFFFFFFFFFFFFFFFFFFFFFFFFFFFFFFFFFFFFFFFFFFFFFFFFFFFFFFFFFFFF
310
FFFFFFFFFFFFFFFFFFFFFFFFFFFFFFFFFFFFFFFFFFFFFFFFF000FFFFFFFFFFFF
310
FFFFFFFFFFFFFFFFFFFFFFFFFFFFFFFFFFFFFFFFFFFFFFFFFFFFFFFFFFFFFFFF
310
FFFFFFFFFFFFFFFFFFFFFFFFFFFFFFFFFFFFFFFFFFFFFFFFFFFFFFFFFFFFFFFF
310
FFFFFFFFFFFFFFFFFFFFFFFFFFFFFFFFF000FFFFFFFFFFFFFFFFFFFFFFFFFFFF
310
FFFFFFFFFFFFFFFFFFFFFFFFFFFFFFFFFFFFFFFFFFFFFFFFFFFFFFFFFFFFFFFF
310
FFFFFFFFFFFFFFFFFFFFFFFFFFFFFFFFFFFFFFFFFFFFFFFFFFFFFFFFFFFFFFFF
310
FFFFFFFFFFFFFFFFF000FFFFFFFFFFFFFFFFFFFFFFFFFFFFFFFFFFFFFFFFFFFF
310
FFFFFFFFFFFFFFFFFFFFFFFFFFFFFFFFFFFFFFFFFFFFFFFFFFFFFFFFFFFFFFFF
310
FFFFFFFFFFFFFFFFFFFFFFFFFFFFFFFFFFFFFFFFFFFFFFFFFFFFFFFFFFFFFFFF
310
F000FFFFFFFFFFFFFFFFFFFFFFFFFFFFFFFFFFFFFFFFFFFFFFFFFFFFFFFFFFFF
310
FFFFFFFFFFFFFFFFFFFFFFFFFFFFFFFFFFFFFFFFFFFFFFFFFFFFFFFFFFFFFFFF
310
FFFFFFFFFFFFFFFFFFFFFFFFFFFFFFFFFFFFFFFFFFFFFFFFF000FFFFFFFFFFFF
310
FFFFFFFFFFFFFFFFFFFFFFFFFFFFFFFFFFFFFFFFFFFFFFFFFFFFFFFFFFFFFFFF
310
FFFFFFFFFFFFFFFFFFFFFFFFFFFFFFFFFFFFFFFFFFFFFFFFFFFFFFFFFFFFFFFF
310
FFFFFFFFFFFFFFFFFFFFFFFFFFFFFFFFF000FFFFFFFFFFFFFFFFFFFFFFFFFFFF
310
FFFFFFFFFFFFFFFFFFFFFFFFFFFFFFFFFFFFFFFFFFFFFFFFFFFFFFFFFFFFFFFF
310
FFFFFFFFFFFFFFFFFFFFFFFFFFFFFFFFFFFFFFFFFFFFFFFFFFFFFFFFFFFFFFFF
310
FFFFFFFFFFFFFFFFF000FFFFFFFFFFFFFFFFFFFFFFFFFFFFFFFFFFFFFFFFFFFF
310
FFFFFFFFFFFFFFFFFFFFFFFFFFFFFFFFFFFFFFFFFFFFFFFFFFFFFFFFFFFFFFFF
310
FFFFFFFFFFFFFFFFFFFFFFFFFFFFFFFFFFFFFFFFFFFFFFFFFFFFFFFFFFFFFFFF
310
F000FFFFFFFFFFFFFFFFFFFFFFFFFFFFFFFFFFFFFFFFFFFFFFFFFFFFFFFFFFFF
310
FFFFFFFFFFFFFFFFFFFFFFFFFFFFFFFFFFFFFFFFFFFFFFFFFFFFFFFFFFFFFFFF
310
FFFFFFFFFFFFFFFFFFFFFFFFFFFFFFFFFFFFFFFFFFFFFFFFF000FFFFFFFFFFFF
310
FFFFFFFFFFFFFFFFFFFFFFFFFFFFFFFFFFFFFFFFFFFFFFFFFFFFFFFFFFFFFFFF
310
FFFFFFFFFFFFFFFFFFFFFFFFFFFFFFFFFFFFFFFFFFFFFFFFFFFFFFFFFFFFFFFF
310
FFFFFFFFFFFFFFFFFFFFFFFFFFFFFFFFF0000000000000000000000000000000
310
00000000000000000000000042006C00610063006B0000000000000000000000
310
0000000000000000000000000000000000000000000000000000000000000000
310
0000000000000000000000000000FFFFFFFFFFFFFFFFFFFFFFFFFFFFFFFFFFFF
310
FFFFFFFFFFFFFFFFFFFFFFFFFFFFFFFFFFFFFFFFFFFFFFFFFFFFFFFFFFFFFFFF
310
FFFFFFFFFFFFFFFFFFFFFFFF6476000800000000FFFFFFFF20FF202026000000
310
1E00000008000000060000000000000011000000200000008403000000000000
310
6000000060000000200002FB200020000000002B00FFFFFF40002200E8030000
310
A80400001C020000AF0000804A20004000000000000000000100000000000000
310
616C000800000000E40100007001000002000000270000001100000000000000
310
00000000BC0200000000000003020122420065006C006C00200047006F007400
310
680069006300200053007400640020004C006900670068007400000000000000
310
00000000000000000000000000000000420065006C006C0047006F0074006800
310
690063005300740064002D0042006F006C006400000000000000000000000000
310
0000000000000000000000000000000000000000000000000000000000000000
310
0000000000000000000000000000000000000000000000000000000000000000
  1
OLE
  0
ENDSEC
  0
SECTION
  2
OBJECTS
  0
DICTIONARY
  5
C
330
0
100
AcDbDictionary
281
     1
  3
ACAD_GROUP
350
D
  3
ACAD_LAYOUT
350
1A
  3
ACAD_MLEADERSTYLE
350
214
  3
ACAD_MLINESTYLE
350
17
  3
ACAD_PLOTSETTINGS
350
19
  3
ACAD_PLOTSTYLENAME
350
E
  3
ACAD_TABLESTYLE
350
213
  3
ACAD_VISUALSTYLE
350
2A
  3
AcDbVariableDictionary
350
215
  0
DICTIONARY
  5
D
102
{ACAD_REACTORS
330
C
102
}
330
C
100
AcDbDictionary
281
     1
  0
DICTIONARY
  5
1A
102
{ACAD_REACTORS
330
C
102
}
330
C
100
AcDbDictionary
281
     1
  3
Layout1
350
1E
  3
Layout2
350
26
  3
Model
350
22
  0
DICTIONARY
  5
214
102
{ACAD_REACTORS
330
C
102
}
330
C
100
AcDbDictionary
281
     1
  0
DICTIONARY
  5
17
102
{ACAD_REACTORS
330
C
102
}
330
C
100
AcDbDictionary
281
     1
  3
Standard
350
18
  0
DICTIONARY
  5
19
102
{ACAD_REACTORS
330
C
102
}
330
C
100
AcDbDictionary
281
     1
  0
ACDBDICTIONARYWDFLT
  5
E
102
{ACAD_REACTORS
330
C
102
}
330
C
100
AcDbDictionary
281
     1
  3
Normal
350
F
100
AcDbDictionaryWithDefault
340
F
  0
DICTIONARY
  5
213
102
{ACAD_REACTORS
330
C
102
}
330
C
100
AcDbDictionary
281
     1
  0
DICTIONARY
  5
2A
102
{ACAD_REACTORS
330
C
102
}
330
C
100
AcDbDictionary
281
     1
  3
2dWireframe
350
2F
  3
3D Hidden
350
31
  3
3dWireframe
350
30
  3
Basic
350
32
  3
Brighten
350
36
  3
ColorChange
350
3A
  3
Conceptual
350
34
  3
Dim
350
35
  3
Facepattern
350
39
  3
Flat
350
2B
  3
FlatWithEdges
350
2C
  3
Gouraud
350
2D
  3
GouraudWithEdges
350
2E
  3
Linepattern
350
38
  3
Realistic
350
33
  3
Thicken
350
37
  0
DICTIONARY
  5
215
102
{ACAD_REACTORS
330
C
102
}
330
C
100
AcDbDictionary
281
     1
  3
PSOLHEIGHT
350
217
  3
PSOLWIDTH
350
216
  0
LAYOUT
  5
1E
102
{ACAD_REACTORS
330
1A
102
}
330
1A
100
AcDbPlotSettings
  1

  2
none_device
  4

  6

 40
0.0
 41
0.0
 42
0.0
 43
0.0
 44
0.0
 45
0.0
 46
0.0
 47
0.0
 48
0.0
 49
0.0
140
0.0
141
0.0
142
1.0
143
1.0
 70
   688
 72
     0
 73
     0
 74
     5
  7

 75
    16
147
1.0
148
0.0
149
0.0
100
AcDbLayout
  1
Layout1
 70
     1
 71
     1
 10
0.0
 20
0.0
 11
420.0
 21
297.0
 12
0.0
 22
0.0
 32
0.0
 14
1.0000000000E+20
 24
1.0000000000E+20
 34
1.0000000000E+20
 15
-1.0000000000E+20
 25
-1.0000000000E+20
 35
-1.0000000000E+20
146
0.0
 13
0.0
 23
0.0
 33
0.0
 16
1.0
 26
0.0
 36
0.0
 17
0.0
 27
1.0
 37
0.0
 76
     0
330
1B
  0
LAYOUT
  5
26
102
{ACAD_REACTORS
330
1A
102
}
330
1A
100
AcDbPlotSettings
  1

  2
none_device
  4

  6

 40
0.0
 41
0.0
 42
0.0
 43
0.0
 44
0.0
 45
0.0
 46
0.0
 47
0.0
 48
0.0
 49
0.0
140
0.0
141
0.0
142
1.0
143
1.0
 70
   688
 72
     0
 73
     0
 74
     5
  7

 75
    16
147
1.0
148
0.0
149
0.0
100
AcDbLayout
  1
Layout2
 70
     1
 71
     2
 10
0.0
 20
0.0
 11
0.0
 21
0.0
 12
0.0
 22
0.0
 32
0.0
 14
0.0
 24
0.0
 34
0.0
 15
0.0
 25
0.0
 35
0.0
146
0.0
 13
0.0
 23
0.0
 33
0.0
 16
1.0
 26
0.0
 36
0.0
 17
0.0
 27
1.0
 37
0.0
 76
     0
330
23
  0
LAYOUT
  5
22
102
{ACAD_REACTORS
330
1A
102
}
330
1A
100
AcDbPlotSettings
  1

  2
none_device
  4

  6

 40
0.0
 41
0.0
 42
0.0
 43
0.0
 44
0.0
 45
0.0
 46
0.0
 47
0.0
 48
0.0
 49
0.0
140
0.0
141
0.0
142
1.0
143
1.0
 70
  1712
 72
     0
 73
     0
 74
     0
  7

 75
     0
147
1.0
148
0.0
149
0.0
100
AcDbLayout
  1
Model
 70
     1
 71
     0
 10
0.0
 20
0.0
 11
297.0
 21
210.0
 12
0.0
 22
0.0
 32
0.0
 14
0.0
 24
0.0
 34
0.0
 15
297.0
 25
210.0
 35
0.0
146
0.0
 13
0.0
 23
0.0
 33
0.0
 16
1.0
 26
0.0
 36
0.0
 17
0.0
 27
1.0
 37
0.0
 76
     0
330
1F
331
29
  0
MLINESTYLE
  5
18
102
{ACAD_REACTORS
330
17
102
}
330
17
100
AcDbMlineStyle
  2
Standard
 70
     0
  3

 62
   256
 51
90.0
 52
90.0
 71
     2
 49
0.5
 62
   256
  6
BYLAYER
 49
-0.5
 62
   256
  6
BYLAYER
  0
ACDBPLACEHOLDER
  5
F
102
{ACAD_REACTORS
330
E
102
}
330
E
  0
VISUALSTYLE
  5
2F
102
{ACAD_REACTORS
330
2A
102
}
330
2A
100
AcDbVisualStyle
  2
2dWireframe
 70
     4
 71
     0
 72
     2
 73
     0
 90
        0
 40
-0.6
 41
-30.0
 62
     5
 63
     7
 74
     1
 91
        4
 64
     7
 65
   257
 75
     1
175
     1
 42
1.0
 92
        0
 66
   257
 43
1.0
 76
     1
 77
     6
 78
     2
 67
     7
 79
     5
170
     0
171
     0
290
     0
174
     0
 93
        1
 44
0.0
173
     0
291
     0
 45
0.0
1001
ACAD
1000
AcDbSavedByObjectVersion
1070
     0
  0
VISUALSTYLE
  5
31
102
{ACAD_REACTORS
330
2A
102
}
330
2A
100
AcDbVisualStyle
  2
3D Hidden
 70
     6
 71
     1
 72
     2
 73
     2
 90
        0
 40
-0.6
 41
-30.0
 62
     5
 63
     7
 74
     2
 91
        2
 64
     7
 65
   257
 75
     2
175
     1
 42
40.0
 92
        0
 66
   257
 43
1.0
 76
     1
 77
     6
 78
     2
 67
     7
 79
     3
170
     0
171
     0
290
     0
174
     0
 93
        1
 44
0.0
173
     0
291
     0
 45
0.0
1001
ACAD
1000
AcDbSavedByObjectVersion
1070
     0
  0
VISUALSTYLE
  5
30
102
{ACAD_REACTORS
330
2A
102
}
330
2A
100
AcDbVisualStyle
  2
3dWireframe
 70
     5
 71
     0
 72
     2
 73
     0
 90
        0
 40
-0.6
 41
-30.0
 62
     5
 63
     7
 74
     1
 91
        4
 64
     7
 65
   257
 75
     1
175
     1
 42
1.0
 92
        0
 66
   257
 43
1.0
 76
     1
 77
     6
 78
     2
 67
     7
 79
     5
170
     0
171
     0
290
     0
174
     0
 93
        1
 44
0.0
173
     0
291
     0
 45
0.0
1001
ACAD
1000
AcDbSavedByObjectVersion
1070
     0
  0
VISUALSTYLE
  5
32
102
{ACAD_REACTORS
330
2A
102
}
330
2A
100
AcDbVisualStyle
  2
Basic
 70
     7
 71
     1
 72
     0
 73
     1
 90
        0
 40
-0.6
 41
-30.0
 62
     5
 63
     7
 74
     0
 91
        4
 64
     7
 65
   257
 75
     1
175
     1
 42
1.0
 92
        8
 66
     7
 43
1.0
 76
     1
 77
     6
 78
     2
 67
     7
 79
     5
170
     0
171
     0
290
     0
174
     0
 93
        1
 44
0.0
173
     0
291
     1
 45
0.0
1001
ACAD
1000
AcDbSavedByObjectVersion
1070
     0
  0
VISUALSTYLE
  5
36
102
{ACAD_REACTORS
330
2A
102
}
330
2A
100
AcDbVisualStyle
  2
Brighten
 70
    12
 71
     2
 72
     2
 73
     0
 90
        0
 40
-0.6
 41
-30.0
 62
     5
 63
     7
 74
     1
 91
        4
 64
     7
 65
   257
 75
     1
175
     1
 42
1.0
 92
        8
 66
     7
 43
1.0
 76
     1
 77
     6
 78
     2
 67
     7
 79
     5
170
     0
171
     0
290
     0
174
     0
 93
        1
 44
50.0
173
     0
291
     1
 45
0.0
1001
ACAD
1000
AcDbSavedByObjectVersion
1070
     0
  0
VISUALSTYLE
  5
3A
102
{ACAD_REACTORS
330
2A
102
}
330
2A
100
AcDbVisualStyle
  2
ColorChange
 70
    16
 71
     2
 72
     2
 73
     3
 90
        0
 40
-0.6
 41
-30.0
 62
     5
 63
     8
 74
     1
 91
        4
 64
     7
 65
   257
 75
     1
175
     1
 42
1.0
 92
        8
 66
     8
 43
1.0
 76
     1
 77
     6
 78
     2
 67
     7
 79
     5
170
     0
171
     0
290
     0
174
     0
 93
        1
 44
0.0
173
     0
291
     1
 45
0.0
1001
ACAD
1000
AcDbSavedByObjectVersion
1070
     0
  0
VISUALSTYLE
  5
34
102
{ACAD_REACTORS
330
2A
102
}
330
2A
100
AcDbVisualStyle
  2
Conceptual
 70
     9
 71
     3
 72
     2
 73
     0
 90
        0
 40
-0.6
 41
-30.0
 62
     5
 63
     7
 74
     2
 91
        2
 64
     7
 65
   257
 75
     1
175
     1
 42
40.0
 92
        8
 66
     7
 43
1.0
 76
     1
 77
     6
 78
     2
 67
     7
 79
     3
170
     0
171
     0
290
     0
174
     0
 93
        1
 44
0.0
173
     0
291
     0
 45
0.0
1001
ACAD
1000
AcDbSavedByObjectVersion
1070
     0
  0
VISUALSTYLE
  5
35
102
{ACAD_REACTORS
330
2A
102
}
330
2A
100
AcDbVisualStyle
  2
Dim
 70
    11
 71
     2
 72
     2
 73
     0
 90
        0
 40
-0.6
 41
-30.0
 62
     5
 63
     7
 74
     1
 91
        4
 64
     7
 65
   257
 75
     1
175
     1
 42
1.0
 92
        8
 66
     7
 43
1.0
 76
     1
 77
     6
 78
     2
 67
     7
 79
     5
170
     0
171
     0
290
     0
174
     0
 93
        1
 44
-50.0
173
     0
291
     1
 45
0.0
1001
ACAD
1000
AcDbSavedByObjectVersion
1070
     0
  0
VISUALSTYLE
  5
39
102
{ACAD_REACTORS
330
2A
102
}
330
2A
100
AcDbVisualStyle
  2
Facepattern
 70
    15
 71
     2
 72
     2
 73
     0
 90
        0
 40
-0.6
 41
-30.0
 62
     5
 63
     7
 74
     1
 91
        4
 64
     7
 65
   257
 75
     1
175
     1
 42
1.0
 92
        8
 66
     7
 43
1.0
 76
     1
 77
     6
 78
     2
 67
     7
 79
     5
170
     0
171
     0
290
     0
174
     0
 93
        1
 44
0.0
173
     0
291
     1
 45
0.0
1001
ACAD
1000
AcDbSavedByObjectVersion
1070
     0
  0
VISUALSTYLE
  5
2B
102
{ACAD_REACTORS
330
2A
102
}
330
2A
100
AcDbVisualStyle
  2
Flat
 70
     0
 71
     2
 72
     1
 73
     1
 90
        2
 40
-0.6
 41
30.0
 62
     5
 63
     7
 74
     0
 91
        4
 64
     7
 65
   257
 75
     1
175
     1
 42
1.0
 92
        8
 66
     7
 43
1.0
 76
     1
 77
     6
 78
     2
 67
     7
 79
     5
170
     0
171
     0
290
     0
174
     0
 93
       13
 44
0.0
173
     0
291
     1
 45
0.0
1001
ACAD
1000
AcDbSavedByObjectVersion
1070
     0
  0
VISUALSTYLE
  5
2C
102
{ACAD_REACTORS
330
2A
102
}
330
2A
100
AcDbVisualStyle
  2
FlatWithEdges
 70
     1
 71
     2
 72
     1
 73
     1
 90
        2
 40
-0.6
 41
30.0
 62
     5
 63
     7
 74
     1
 91
        4
 64
     7
 65
   257
 75
     1
175
     1
 42
1.0
 92
        0
 66
   257
 43
1.0
 76
     1
 77
     6
 78
     2
 67
     7
 79
     5
170
     0
171
     0
290
     0
174
     0
 93
       13
 44
0.0
173
     0
291
     1
 45
0.0
1001
ACAD
1000
AcDbSavedByObjectVersion
1070
     0
  0
VISUALSTYLE
  5
2D
102
{ACAD_REACTORS
330
2A
102
}
330
2A
100
AcDbVisualStyle
  2
Gouraud
 70
     2
 71
     2
 72
     2
 73
     1
 90
        2
 40
-0.6
 41
30.0
 62
     5
 63
     7
 74
     0
 91
        4
 64
     7
 65
   257
 75
     1
175
     1
 42
1.0
 92
        0
 66
     7
 43
1.0
 76
     1
 77
     6
 78
     2
 67
     7
 79
     5
170
     0
171
     0
290
     0
174
     0
 93
       13
 44
0.0
173
     0
291
     1
 45
0.0
1001
ACAD
1000
AcDbSavedByObjectVersion
1070
     0
  0
VISUALSTYLE
  5
2E
102
{ACAD_REACTORS
330
2A
102
}
330
2A
100
AcDbVisualStyle
  2
GouraudWithEdges
 70
     3
 71
     2
 72
     2
 73
     1
 90
        2
 40
-0.6
 41
30.0
 62
     5
 63
     7
 74
     1
 91
        4
 64
     7
 65
   257
 75
     1
175
     1
 42
1.0
 92
        0
 66
   257
 43
1.0
 76
     1
 77
     6
 78
     2
 67
     7
 79
     5
170
     0
171
     0
290
     0
174
     0
 93
       13
 44
0.0
173
     0
291
     1
 45
0.0
1001
ACAD
1000
AcDbSavedByObjectVersion
1070
     0
  0
VISUALSTYLE
  5
38
102
{ACAD_REACTORS
330
2A
102
}
330
2A
100
AcDbVisualStyle
  2
Linepattern
 70
    14
 71
     2
 72
     2
 73
     0
 90
        0
 40
-0.6
 41
-30.0
 62
     5
 63
     7
 74
     1
 91
        4
 64
     7
 65
   257
 75
     7
175
     7
 42
1.0
 92
        8
 66
     7
 43
1.0
 76
     1
 77
     6
 78
     2
 67
     7
 79
     5
170
     0
171
     0
290
     0
174
     0
 93
        1
 44
0.0
173
     0
291
     1
 45
0.0
1001
ACAD
1000
AcDbSavedByObjectVersion
1070
     0
  0
VISUALSTYLE
  5
33
102
{ACAD_REACTORS
330
2A
102
}
330
2A
100
AcDbVisualStyle
  2
Realistic
 70
     8
 71
     2
 72
     2
 73
     0
 90
        0
 40
-0.6
 41
-30.0
 62
     5
 63
     7
 74
     1
 91
        0
 64
     7
 65
   257
 75
     1
175
     1
 42
1.0
 92
        8
 66
     8
 43
1.0
 76
     1
 77
     6
 78
     2
 67
     7
 79
     5
170
     0
171
     0
290
     0
174
     0
 93
       13
 44
0.0
173
     0
291
     0
 45
0.0
1001
ACAD
1000
AcDbSavedByObjectVersion
1070
     0
  0
VISUALSTYLE
  5
37
102
{ACAD_REACTORS
330
2A
102
}
330
2A
100
AcDbVisualStyle
  2
Thicken
 70
    13
 71
     2
 72
     2
 73
     0
 90
        0
 40
-0.6
 41
-30.0
 62
     5
 63
     7
 74
     1
 91
        4
 64
     7
 65
   257
 75
     1
175
     1
 42
1.0
 92
       12
 66
     7
 43
1.0
 76
     1
 77
     6
 78
     2
 67
     7
 79
     5
170
     0
171
     0
290
     0
174
     0
 93
        1
 44
0.0
173
     0
291
     1
 45
0.0
1001
ACAD
1000
AcDbSavedByObjectVersion
1070
     0
  0
DICTIONARYVAR
  5
217
102
{ACAD_REACTORS
330
215
102
}
330
215
100
DictionaryVariables
280
     0
  1
80.000000
  0
DICTIONARYVAR
  5
216
102
{ACAD_REACTORS
330
215
102
}
330
215
100
DictionaryVariables
280
     0
  1
5.000000
  0
ENDSEC
  0
EOF
