  0
SECTION
  2
HEADER
  9
$ACADVER
  1
AC1015
  9
$ACADMAINTVER
 70
     6
  9
$DWGCODEPAGE
  3
ANSI_1252
  9
$INSBASE
 10
0.0
 20
0.0
 30
0.0
  9
$EXTMIN
 10
0.0
 20
0.0
 30
0.0
  9
$EXTMAX
 10
297.0
 20
210.0
 30
0.0
  9
$LIMMIN
 10
0.0
 20
0.0
  9
$LIMMAX
 10
297.0
 20
210.0
  9
$ORTHOMODE
 70
     0
  9
$REGENMODE
 70
     1
  9
$FILLMODE
 70
     1
  9
$QTEXTMODE
 70
     0
  9
$MIRRTEXT
 70
     1
  9
$LTSCALE
 40
1.0
  9
$ATTMODE
 70
     1
  9
$TEXTSIZE
 40
2.0
  9
$TRACEWID
 40
1.0
  9
$TEXTSTYLE
  7
Standard
  9
$CLAYER
  8
0
  9
$CELTYPE
  6
ByLayer
  9
$CECOLOR
 62
   256
  9
$CELTSCALE
 40
1.0
  9
$DISPSILH
 70
     0
  9
$DIMSCALE
 40
1.0
  9
$DIMASZ
 40
3.0
  9
$DIMEXO
 40
0.0
  9
$DIMDLI
 40
3.75
  9
$DIMRND
 40
0.0
  9
$DIMDLE
 40
0.0
  9
$DIMEXE
 40
1.0
  9
$DIMTP
 40
0.0
  9
$DIMTM
 40
0.0
  9
$DIMTXT
 40
2.0
  9
$DIMCEN
 40
2.5
  9
$DIMTSZ
 40
0.0
  9
$DIMTOL
 70
     0
  9
$DIMLIM
 70
     0
  9
$DIMTIH
 70
     1
  9
$DIMTOH
 70
     1
  9
$DIMSE1
 70
     0
  9
$DIMSE2
 70
     0
  9
$DIMTAD
 70
     1
  9
$DIMZIN
 70
     0
  9
$DIMBLK
  1

  9
$DIMASO
 70
     1
  9
$DIMSHO
 70
     1
  9
$DIMPOST
  1

  9
$DIMAPOST
  1

  9
$DIMALT
 70
     0
  9
$DIMALTD
 70
     3
  9
$DIMALTF
 40
0.0393700787
  9
$DIMLFAC
 40
1.0
  9
$DIMTOFL
 70
     1
  9
$DIMTVP
 40
0.0
  9
$DIMTIX
 70
     0
  9
$DIMSOXD
 70
     0
  9
$DIMSAH
 70
     0
  9
$DIMBLK1
  1

  9
$DIMBLK2
  1

  9
$DIMSTYLE
  2
ISO-25
  9
$DIMCLRD
 70
     0
  9
$DIMCLRE
 70
     0
  9
$DIMCLRT
 70
     0
  9
$DIMTFAC
 40
1.0
  9
$DIMGAP
 40
1.524
  9
$DIMJUST
 70
     0
  9
$DIMSD1
 70
     0
  9
$DIMSD2
 70
     0
  9
$DIMTOLJ
 70
     0
  9
$DIMTZIN
 70
     0
  9
$DIMALTZ
 70
     0
  9
$DIMALTTZ
 70
     0
  9
$DIMUPT
 70
     0
  9
$DIMDEC
 70
     2
  9
$DIMTDEC
 70
     3
  9
$DIMALTU
 70
     2
  9
$DIMALTTD
 70
     3
  9
$DIMTXSTY
  7
Standard
  9
$DIMAUNIT
 70
     0
  9
$DIMADEC
 70
     2
  9
$DIMALTRND
 40
0.0
  9
$DIMAZIN
 70
     0
  9
$DIMDSEP
 70
    44
  9
$DIMATFIT
 70
     3
  9
$DIMFRAC
 70
     0
  9
$DIMLDRBLK
  1

  9
$DIMLUNIT
 70
     2
  9
$DIMLWD
 70
    -2
  9
$DIMLWE
 70
    -2
  9
$DIMTMOVE
 70
     0
  9
$LUNITS
 70
     2
  9
$LUPREC
 70
     2
  9
$SKETCHINC
 40
1.0
  9
$FILLETRAD
 40
10.0
  9
$AUNITS
 70
     0
  9
$AUPREC
 70
     2
  9
$MENU
  1
.
  9
$ELEVATION
 40
0.0
  9
$PELEVATION
 40
0.0
  9
$THICKNESS
 40
0.0
  9
$LIMCHECK
 70
     0
  9
$CHAMFERA
 40
10.0
  9
$CHAMFERB
 40
10.0
  9
$CHAMFERC
 40
20.0
  9
$CHAMFERD
 40
0.0
  9
$SKPOLY
 70
     0
  9
$TDCREATE
 40
2455672.361530359
  9
$TDUCREATE
 40
2455672.278197025
  9
$TDUPDATE
 40
2455672.361530371
  9
$TDUUPDATE
 40
2455672.278197037
  9
$TDINDWG
 40
0.0000000116
  9
$TDUSRTIMER
 40
0.0000000116
  9
$USRTIMER
 70
     1
  9
$ANGBASE
 50
0.0
  9
$ANGDIR
 70
     0
  9
$PDMODE
 70
     0
  9
$PDSIZE
 40
-1.0
  9
$PLINEWID
 40
0.0
  9
$SPLFRAME
 70
     0
  9
$SPLINETYPE
 70
     6
  9
$SPLINESEGS
 70
     8
  9
$HANDSEED
  5
181
  9
$SURFTAB1
 70
     6
  9
$SURFTAB2
 70
     6
  9
$SURFTYPE
 70
     6
  9
$SURFU
 70
     6
  9
$SURFV
 70
     6
  9
$UCSBASE
  2

  9
$UCSNAME
  2

  9
$UCSORG
 10
0.0
 20
0.0
 30
0.0
  9
$UCSXDIR
 10
1.0
 20
0.0
 30
0.0
  9
$UCSYDIR
 10
0.0
 20
1.0
 30
0.0
  9
$UCSORTHOREF
  2

  9
$UCSORTHOVIEW
 70
     0
  9
$UCSORGTOP
 10
0.0
 20
0.0
 30
0.0
  9
$UCSORGBOTTOM
 10
0.0
 20
0.0
 30
0.0
  9
$UCSORGLEFT
 10
0.0
 20
0.0
 30
0.0
  9
$UCSORGRIGHT
 10
0.0
 20
0.0
 30
0.0
  9
$UCSORGFRONT
 10
0.0
 20
0.0
 30
0.0
  9
$UCSORGBACK
 10
0.0
 20
0.0
 30
0.0
  9
$PUCSBASE
  2

  9
$PUCSNAME
  2

  9
$PUCSORG
 10
0.0
 20
0.0
 30
0.0
  9
$PUCSXDIR
 10
1.0
 20
0.0
 30
0.0
  9
$PUCSYDIR
 10
0.0
 20
1.0
 30
0.0
  9
$PUCSORTHOREF
  2

  9
$PUCSORTHOVIEW
 70
     0
  9
$PUCSORGTOP
 10
0.0
 20
0.0
 30
0.0
  9
$PUCSORGBOTTOM
 10
0.0
 20
0.0
 30
0.0
  9
$PUCSORGLEFT
 10
0.0
 20
0.0
 30
0.0
  9
$PUCSORGRIGHT
 10
0.0
 20
0.0
 30
0.0
  9
$PUCSORGFRONT
 10
0.0
 20
0.0
 30
0.0
  9
$PUCSORGBACK
 10
0.0
 20
0.0
 30
0.0
  9
$USERI1
 70
     0
  9
$USERI2
 70
     0
  9
$USERI3
 70
     0
  9
$USERI4
 70
     0
  9
$USERI5
 70
     0
  9
$USERR1
 40
0.0
  9
$USERR2
 40
0.0
  9
$USERR3
 40
0.0
  9
$USERR4
 40
0.0
  9
$USERR5
 40
0.0
  9
$WORLDVIEW
 70
     1
  9
$SHADEDGE
 70
     3
  9
$SHADEDIF
 70
    70
  9
$TILEMODE
 70
     1
  9
$MAXACTVP
 70
    64
  9
$PINSBASE
 10
0.0
 20
0.0
 30
0.0
  9
$PLIMCHECK
 70
     0
  9
$PEXTMIN
 10
1.0000000000E+20
 20
1.0000000000E+20
 30
1.0000000000E+20
  9
$PEXTMAX
 10
-1.0000000000E+20
 20
-1.0000000000E+20
 30
-1.0000000000E+20
  9
$PLIMMIN
 10
0.0
 20
0.0
  9
$PLIMMAX
 10
420.0
 20
297.0
  9
$UNITMODE
 70
     0
  9
$VISRETAIN
 70
     1
  9
$PLINEGEN
 70
     0
  9
$PSLTSCALE
 70
     1
  9
$TREEDEPTH
 70
  3020
  9
$CMLSTYLE
  2
Standard
  9
$CMLJUST
 70
     0
  9
$CMLSCALE
 40
20.0
  9
$PROXYGRAPHICS
 70
     1
  9
$MEASUREMENT
 70
     1
  9
$CELWEIGHT
370
    -1
  9
$ENDCAPS
280
     0
  9
$JOINSTYLE
280
     0
  9
$LWDISPLAY
290
     1
  9
$INSUNITS
 70
     4
  9
$HYPERLINKBASE
  1

  9
$STYLESHEET
  1

  9
$XEDIT
290
     1
  9
$CEPSNTYPE
380
     0
  9
$PSTYLEMODE
290
     1
  9
$FINGERPRINTGUID
  2
{0ECC68C0-51FF-4481-B09E-0FA1C04EF822}
  9
$VERSIONGUID
  2
{FAEB1C32-E019-11D5-929B-00C0DF256EC4}
  9
$EXTNAMES
290
     1
  9
$PSVPSCALE
 40
0.0
  9
$OLESTARTUP
290
     0
  0
ENDSEC
  0
SECTION
  2
CLASSES
  0
CLASS
  1
ACDBDICTIONARYWDFLT
  2
AcDbDictionaryWithDefault
  3
ObjectDBX Classes
 90
        0
280
     0
281
     0
  0
CLASS
  1
VISUALSTYLE
  2
AcDbVisualStyle
  3
ObjectDBX Classes
 90
     4095
280
     0
281
     0
  0
CLASS
  1
DICTIONARYVAR
  2
AcDbDictionaryVar
  3
ObjectDBX Classes
 90
        0
280
     0
281
     0
  0
CLASS
  1
ACDBPLACEHOLDER
  2
AcDbPlaceHolder
  3
ObjectDBX Classes
 90
        0
280
     0
281
     0
  0
CLASS
  1
LAYOUT
  2
AcDbLayout
  3
ObjectDBX Classes
 90
        0
280
     0
281
     0
  0
ENDSEC
  0
SECTION
  2
TABLES
  0
TABLE
  2
VPORT
  5
8
330
0
100
AcDbSymbolTable
 70
     1
  0
VPORT
  5
29
330
8
100
AcDbSymbolTableRecord
100
AcDbViewportTableRecord
  2
*Active
 70
     0
 10
0.0
 20
0.0
 11
1.0
 21
1.0
 12
148.5
 22
105.0
 13
0.0
 23
0.0
 14
10.0
 24
10.0
 15
10.0
 25
10.0
 16
0.0
 26
0.0
 36
1.0
 17
0.0
 27
0.0
 37
0.0
 40
210.0
 41
1.4142857143
 42
50.0
 43
0.0
 44
0.0
 50
0.0
 51
0.0
 71
     0
 72
  2000
 73
     1
 74
     3
 75
     0
 76
     0
 77
     0
 78
     0
281
     0
 65
     1
110
0.0
120
0.0
130
0.0
111
1.0
121
0.0
131
0.0
112
0.0
122
1.0
132
0.0
 79
     0
146
0.0
  0
ENDTAB
  0
TABLE
  2
LTYPE
  5
5
330
0
100
AcDbSymbolTable
 70
     6
  0
LTYPE
  5
14
330
5
100
AcDbSymbolTableRecord
100
AcDbLinetypeTableRecord
  2
ByBlock
 70
     0
  3

 72
    65
 73
     0
 40
0.0
  0
LTYPE
  5
15
330
5
100
AcDbSymbolTableRecord
100
AcDbLinetypeTableRecord
  2
ByLayer
 70
     0
  3

 72
    65
 73
     0
 40
0.0
  0
LTYPE
  5
16
330
5
100
AcDbSymbolTableRecord
100
AcDbLinetypeTableRecord
  2
Continuous
 70
     0
  3
Solid line
 72
    65
 73
     0
 40
0.0
  0
LTYPE
  5
3B
330
5
100
AcDbSymbolTableRecord
100
AcDbLinetypeTableRecord
  2
HIDDEN
 70
     0
  3
Hidden __ __ __ __ __ __ __ __ __ __ __ __ __ __
 72
    65
 73
     2
 40
1.905
 49
1.27
 74
     0
 49
-0.635
 74
     0
  0
LTYPE
  5
3C
330
5
100
AcDbSymbolTableRecord
100
AcDbLinetypeTableRecord
  2
PHANTOM
 70
     0
  3
Phantom ______  __  __  ______  __  __  ______
 72
    65
 73
     6
 40
12.7
 49
6.35
 74
     0
 49
-1.27
 74
     0
 49
1.27
 74
     0
 49
-1.27
 74
     0
 49
1.27
 74
     0
 49
-1.27
 74
     0
  0
LTYPE
  5
3D
330
5
100
AcDbSymbolTableRecord
100
AcDbLinetypeTableRecord
  2
CENTER
 70
     0
  3
Center ____ _ ____ _ ____ _ ____ _ ____ _ ____
 72
    65
 73
     4
 40
10.16
 49
6.35
 74
     0
 49
-1.27
 74
     0
 49
1.27
 74
     0
 49
-1.27
 74
     0
  0
LTYPE
  5
3E
330
5
100
AcDbSymbolTableRecord
100
AcDbLinetypeTableRecord
  2
CENTERX2
 70
     0
  3
Center (2x) ________  __  ________  __  _____
 72
    65
 73
     4
 40
20.32
 49
12.7
 74
     0
 49
-2.54
 74
     0
 49
2.54
 74
     0
 49
-2.54
 74
     0
  0
LTYPE
  5
3F
330
5
100
AcDbSymbolTableRecord
100
AcDbLinetypeTableRecord
  2
DOT2
 70
     0
  3
Dot (.5x) ........................................
 72
    65
 73
     2
 40
0.635
 49
0.0
 74
     0
 49
-0.635
 74
     0
  0
ENDTAB
  0
TABLE
  2
LAYER
  5
2
330
0
100
AcDbSymbolTable
 70
     5
  0
LAYER
  5
10
330
2
100
AcDbSymbolTableRecord
100
AcDbLayerTableRecord
  2
0
 70
     0
 62
     7
  6
Continuous
370
    -3
390
F
  0
LAYER
  5
40
330
2
100
AcDbSymbolTableRecord
100
AcDbLayerTableRecord
  2
FORMAT
 70
     0
 62
     7
  6
Continuous
370
    -3
390
F
  0
LAYER
  5
41
330
2
100
AcDbSymbolTableRecord
100
AcDbLayerTableRecord
  2
VERMASSUNG
 70
     0
 62
     7
  6
Continuous
370
    -3
390
F
  0
LAYER
  5
42
330
2
100
AcDbSymbolTableRecord
100
AcDbLayerTableRecord
  2
KOPF_DÜNN
 70
     0
 62
     7
  6
Continuous
370
    -3
390
F
  0
LAYER
  5
43
330
2
100
AcDbSymbolTableRecord
100
AcDbLayerTableRecord
  2
KOPF_DICK
 70
     0
 62
     7
  6
Continuous
370
    15
390
F
  0
ENDTAB
  0
TABLE
  2
STYLE
  5
3
330
0
100
AcDbSymbolTable
 70
     3
  0
STYLE
  5
11
330
3
100
AcDbSymbolTableRecord
100
AcDbTextStyleTableRecord
  2
Standard
 70
     0
 40
0.0
 41
1.0
 50
0.0
 71
     0
 42
2.5
  3
txt
  4

  0
STYLE
  5
44
330
3
100
AcDbSymbolTableRecord
100
AcDbTextStyleTableRecord
  2
SLDTEXTSTYLE0
 70
     0
 40
0.0
 41
0.7
 50
0.0
 71
     0
 42
0.2
  3
TXT
  4

  0
STYLE
  5
48
330
3
100
AcDbSymbolTableRecord
100
AcDbTextStyleTableRecord
  2
SLDTEXTSTYLE1
 70
     0
 40
0.0
 41
0.6473684211
 50
0.0
 71
     0
 42
0.2
  3
TXT
  4

  0
ENDTAB
  0
TABLE
  2
VIEW
  5
6
330
0
100
AcDbSymbolTable
 70
     0
  0
ENDTAB
  0
TABLE
  2
UCS
  5
7
330
0
100
AcDbSymbolTable
 70
     0
  0
ENDTAB
  0
TABLE
  2
APPID
  5
9
330
0
100
AcDbSymbolTable
 70
     1
  0
APPID
  5
12
330
9
100
AcDbSymbolTableRecord
100
AcDbRegAppTableRecord
  2
ACAD
 70
     0
  0
ENDTAB
  0
TABLE
  2
DIMSTYLE
  5
A
330
0
100
AcDbSymbolTable
 70
     3
100
AcDbDimStyleTable
  0
DIMSTYLE
105
27
330
A
100
AcDbSymbolTableRecord
100
AcDbDimStyleTableRecord
  2
ISO-25
 70
     0
 41
2.5
 42
0.625
 43
3.75
 44
1.25
 73
     0
 74
     0
 77
     1
 78
     8
140
2.5
141
2.5
143
0.0393700787
147
0.625
171
     3
172
     1
271
     2
272
     2
274
     3
278
    44
283
     0
284
     8
340
11
  0
DIMSTYLE
105
137
102
{ACAD_REACTORS
330
136
102
}
330
A
100
AcDbSymbolTableRecord
100
AcDbDimStyleTableRecord
  2
SLDDIMSTYLE0
 70
     0
 41
3.0
 44
0.0
 45
0.000000001
 73
     0
 74
     0
 77
     1
 78
    12
140
2.0
147
0.5
173
     1
271
     2
272
     3
284
    12
340
44
  0
DIMSTYLE
105
145
102
{ACAD_REACTORS
330
144
330
150
330
15A
330
164
330
16E
102
}
330
A
100
AcDbSymbolTableRecord
100
AcDbDimStyleTableRecord
  2
SLDDIMSTYLE1
 70
     0
 41
3.0
 44
0.0
 45
0.000000001
 73
     0
 74
     0
 77
     1
 78
    12
140
2.0
147
0.5
173
     1
271
     2
272
     3
284
    12
340
44
  0
ENDTAB
  0
TABLE
  2
BLOCK_RECORD
  5
1
330
0
100
AcDbSymbolTable
 70
     7
  0
BLOCK_RECORD
  5
1F
330
1
100
AcDbSymbolTableRecord
100
AcDbBlockTableRecord
  2
*Model_Space
340
22
  0
BLOCK_RECORD
  5
1B
330
1
100
AcDbSymbolTableRecord
100
AcDbBlockTableRecord
  2
*Paper_Space
340
1E
  0
BLOCK_RECORD
  5
23
330
1
100
AcDbSymbolTableRecord
100
AcDbBlockTableRecord
  2
*Paper_Space0
340
26
  0
BLOCK_RECORD
  5
138
330
1
100
AcDbSymbolTableRecord
100
AcDbBlockTableRecord
  2
*D1
340
0
  0
BLOCK_RECORD
  5
146
330
1
100
AcDbSymbolTableRecord
100
AcDbBlockTableRecord
  2
*D2
340
0
  0
BLOCK_RECORD
  5
151
330
1
100
AcDbSymbolTableRecord
100
AcDbBlockTableRecord
  2
*D3
340
0
  0
BLOCK_RECORD
  5
15B
330
1
100
AcDbSymbolTableRecord
100
AcDbBlockTableRecord
  2
*D4
340
0
  0
BLOCK_RECORD
  5
165
330
1
100
AcDbSymbolTableRecord
100
AcDbBlockTableRecord
  2
*D5
340
0
  0
BLOCK_RECORD
  5
16F
330
1
100
AcDbSymbolTableRecord
100
AcDbBlockTableRecord
  2
*D6
340
0
  0
ENDTAB
  0
ENDSEC
  0
SECTION
  2
BLOCKS
  0
BLOCK
  5
20
330
1F
100
AcDbEntity
  8
0
100
AcDbBlockBegin
  2
*Model_Space
 70
     0
 10
0.0
 20
0.0
 30
0.0
  3
*Model_Space
  1

  0
ENDBLK
  5
21
330
1F
100
AcDbEntity
  8
0
100
AcDbBlockEnd
  0
BLOCK
  5
1C
330
1B
100
AcDbEntity
 67
     1
  8
0
100
AcDbBlockBegin
  2
*Paper_Space
 70
     0
 10
0.0
 20
0.0
 30
0.0
  3
*Paper_Space
  1

  0
ENDBLK
  5
1D
330
1B
100
AcDbEntity
 67
     1
  8
0
100
AcDbBlockEnd
  0
BLOCK
  5
24
330
23
100
AcDbEntity
  8
0
100
AcDbBlockBegin
  2
*Paper_Space0
 70
     0
 10
0.0
 20
0.0
 30
0.0
  3
*Paper_Space0
  1

  0
ENDBLK
  5
25
330
23
100
AcDbEntity
  8
0
100
AcDbBlockEnd
  0
BLOCK
  5
139
330
138
100
AcDbEntity
  8
0
100
AcDbBlockBegin
  2
*D1
 70
     1
 10
0.0
 20
0.0
 30
0.0
  3
*D1
  1

  0
SOLID
  5
13B
330
138
100
AcDbEntity
  8
VERMASSUNG
100
AcDbTrace
 10
206.5173347779
 20
115.7743228602
 30
0.0
 11
206.9673347779
 21
118.7743228602
 31
0.0
 12
206.0673347779
 22
118.7743228602
 32
0.0
 13
206.0673347779
 23
118.7743228602
 33
0.0
  0
SOLID
  5
13C
330
138
100
AcDbEntity
  8
VERMASSUNG
100
AcDbTrace
 10
206.5173347779
 20
109.7743228602
 30
0.0
 11
206.0673347779
 21
106.7743228602
 31
0.0
 12
206.9673347779
 22
106.7743228602
 32
0.0
 13
206.9673347779
 23
106.7743228602
 33
0.0
  0
LINE
  5
13D
330
138
100
AcDbEntity
  8
VERMASSUNG
100
AcDbLine
 10
199.2754146514
 20
115.7743228602
 30
0.0
 11
207.5173347779
 21
115.7743228602
 31
0.0
  0
LINE
  5
13E
330
138
100
AcDbEntity
  8
VERMASSUNG
100
AcDbLine
 10
199.2754146514
 20
109.7743228602
 30
0.0
 11
207.5173347779
 21
109.7743228602
 31
0.0
  0
LINE
  5
13F
330
138
100
AcDbEntity
  8
VERMASSUNG
100
AcDbLine
 10
206.5173347779
 20
115.7743228602
 30
0.0
 11
206.5173347779
 21
121.7743228602
 31
0.0
  0
LINE
  5
140
330
138
100
AcDbEntity
  8
VERMASSUNG
100
AcDbLine
 10
206.5173347779
 20
115.7743228602
 30
0.0
 11
206.5173347779
 21
109.7743228602
 31
0.0
  0
LINE
  5
141
330
138
100
AcDbEntity
  8
VERMASSUNG
100
AcDbLine
 10
206.5173347779
 20
109.7743228602
 30
0.0
 11
206.5173347779
 21
103.7743228602
 31
0.0
  0
MTEXT
  5
142
330
138
100
AcDbEntity
  8
VERMASSUNG
100
AcDbMText
 10
203.9391992984
 20
110.2702946912
 30
0.0
 40
2.0
 41
0.0
 71
     1
 72
     1
  1
%%c
  7
SLDTEXTSTYLE0
 11
-7.044195017643634E-15
 21
1.0
 31
0.0
 73
     1
 44
1.0
  0
MTEXT
  5
143
330
138
100
AcDbEntity
  8
VERMASSUNG
100
AcDbMText
 10
203.9391994148
 20
113.8789729144
 30
0.0
 40
2.0
 41
0.0
 71
     1
 72
     1
  1
6
  7
SLDTEXTSTYLE0
 11
-7.044195017643634E-15
 21
1.0
 31
0.0
 73
     1
 44
1.0
  0
ENDBLK
  5
13A
330
138
100
AcDbEntity
  8
0
100
AcDbBlockEnd
  0
BLOCK
  5
147
330
146
100
AcDbEntity
  8
0
100
AcDbBlockBegin
  2
*D2
 70
     1
 10
0.0
 20
0.0
 30
0.0
  3
*D2
  1

  0
SOLID
  5
149
330
146
100
AcDbEntity
  8
VERMASSUNG
100
AcDbTrace
 10
212.5173347779
 20
127.7743228602
 30
0.0
 11
212.0673347779
 21
124.7743228602
 31
0.0
 12
212.9673347779
 22
124.7743228602
 32
0.0
 13
212.9673347779
 23
124.7743228602
 33
0.0
  0
SOLID
  5
14A
330
146
100
AcDbEntity
  8
VERMASSUNG
100
AcDbTrace
 10
212.5173347779
 20
97.7743228602
 30
0.0
 11
212.9673347779
 21
100.7743228602
 31
0.0
 12
212.0673347779
 22
100.7743228602
 32
0.0
 13
212.0673347779
 23
100.7743228602
 33
0.0
  0
LINE
  5
14B
330
146
100
AcDbEntity
  8
VERMASSUNG
100
AcDbLine
 10
185.6361196681
 20
127.7743228602
 30
0.0
 11
213.5173347779
 21
127.7743228602
 31
0.0
  0
LINE
  5
14C
330
146
100
AcDbEntity
  8
VERMASSUNG
100
AcDbLine
 10
185.6361196681
 20
97.7743228602
 30
0.0
 11
213.5173347779
 21
97.7743228602
 31
0.0
  0
LINE
  5
14D
330
146
100
AcDbEntity
  8
VERMASSUNG
100
AcDbLine
 10
212.5173347779
 20
127.7743228602
 30
0.0
 11
212.5173347779
 21
97.7743228602
 31
0.0
  0
MTEXT
  5
14E
330
146
100
AcDbEntity
  8
VERMASSUNG
100
AcDbMText
 10
209.9391992984
 20
109.5706056338
 30
0.0
 40
2.0
 41
0.0
 71
     1
 72
     1
  1
%%c
  7
SLDTEXTSTYLE0
 11
-7.044195017643634E-15
 21
1.0
 31
0.0
 73
     1
 44
1.0
  0
MTEXT
  5
14F
330
146
100
AcDbEntity
  8
VERMASSUNG
100
AcDbMText
 10
209.9391994148
 20
113.179283857
 30
0.0
 40
2.0
 41
0.0
 71
     1
 72
     1
  1
30
  7
SLDTEXTSTYLE0
 11
-7.044195017643634E-15
 21
1.0
 31
0.0
 73
     1
 44
1.0
  0
ENDBLK
  5
148
330
146
100
AcDbEntity
  8
0
100
AcDbBlockEnd
  0
BLOCK
  5
152
330
151
100
AcDbEntity
  8
0
100
AcDbBlockBegin
  2
*D3
 70
     1
 10
0.0
 20
0.0
 30
0.0
  3
*D3
  1

  0
SOLID
  5
154
330
151
100
AcDbEntity
  8
VERMASSUNG
100
AcDbTrace
 10
160.5254146514
 20
146.9116726263
 30
0.0
 11
163.5254146514
 21
146.4616726263
 31
0.0
 12
163.5254146514
 22
147.3616726263
 32
0.0
 13
163.5254146514
 23
147.3616726263
 33
0.0
  0
SOLID
  5
155
330
151
100
AcDbEntity
  8
VERMASSUNG
100
AcDbTrace
 10
199.5754146514
 20
146.9116726263
 30
0.0
 11
196.5754146514
 21
147.3616726263
 31
0.0
 12
196.5754146514
 22
146.4616726263
 32
0.0
 13
196.5754146514
 23
146.4616726263
 33
0.0
  0
LINE
  5
156
330
151
100
AcDbEntity
  8
VERMASSUNG
100
AcDbLine
 10
160.5254146514
 20
142.620763184
 30
0.0
 11
160.5254146514
 21
147.9116726263
 31
0.0
  0
LINE
  5
157
330
151
100
AcDbEntity
  8
VERMASSUNG
100
AcDbLine
 10
199.5754146514
 20
120.0001823386
 30
0.0
 11
199.5754146514
 21
147.9116726263
 31
0.0
  0
LINE
  5
158
330
151
100
AcDbEntity
  8
VERMASSUNG
100
AcDbLine
 10
160.5254146514
 20
146.9116726263
 30
0.0
 11
199.5754146514
 21
146.9116726263
 31
0.0
  0
MTEXT
  5
159
330
151
100
AcDbEntity
  8
VERMASSUNG
100
AcDbMText
 10
176.9511286276
 20
149.4898079895
 30
0.0
 40
2.0
 41
0.0
 71
     1
 72
     1
  1
39.05
  7
SLDTEXTSTYLE0
 73
     1
 44
1.0
  0
ENDBLK
  5
153
330
151
100
AcDbEntity
  8
0
100
AcDbBlockEnd
  0
BLOCK
  5
15C
330
15B
100
AcDbEntity
  8
0
100
AcDbBlockBegin
  2
*D4
 70
     1
 10
0.0
 20
0.0
 30
0.0
  3
*D4
  1

  0
SOLID
  5
15E
330
15B
100
AcDbEntity
  8
VERMASSUNG
100
AcDbTrace
 10
134.5754146514
 20
152.9116726263
 30
0.0
 11
137.5754146514
 21
152.4616726263
 31
0.0
 12
137.5754146514
 22
153.3616726263
 32
0.0
 13
137.5754146514
 23
153.3616726263
 33
0.0
  0
SOLID
  5
15F
330
15B
100
AcDbEntity
  8
VERMASSUNG
100
AcDbTrace
 10
199.5754146514
 20
152.9116726263
 30
0.0
 11
196.5754146514
 21
153.3616726263
 31
0.0
 12
196.5754146514
 22
152.4616726263
 32
0.0
 13
196.5754146514
 23
152.4616726263
 33
0.0
  0
LINE
  5
160
330
15B
100
AcDbEntity
  8
VERMASSUNG
100
AcDbLine
 10
134.5754146514
 20
143.9743228602
 30
0.0
 11
134.5754146514
 21
153.9116726263
 31
0.0
  0
LINE
  5
161
330
15B
100
AcDbEntity
  8
VERMASSUNG
100
AcDbLine
 10
199.5754146514
 20
120.0001823386
 30
0.0
 11
199.5754146514
 21
153.9116726263
 31
0.0
  0
LINE
  5
162
330
15B
100
AcDbEntity
  8
VERMASSUNG
100
AcDbLine
 10
134.5754146514
 20
152.9116726263
 30
0.0
 11
199.5754146514
 21
152.9116726263
 31
0.0
  0
MTEXT
  5
163
330
15B
100
AcDbEntity
  8
VERMASSUNG
100
AcDbMText
 10
165.6760365366
 20
155.4898079895
 30
0.0
 40
2.0
 41
0.0
 71
     1
 72
     1
  1
65
  7
SLDTEXTSTYLE0
 73
     1
 44
1.0
  0
ENDBLK
  5
15D
330
15B
100
AcDbEntity
  8
0
100
AcDbBlockEnd
  0
BLOCK
  5
166
330
165
100
AcDbEntity
  8
0
100
AcDbBlockBegin
  2
*D5
 70
     1
 10
0.0
 20
0.0
 30
0.0
  3
*D5
  1

  0
SOLID
  5
168
330
165
100
AcDbEntity
  8
VERMASSUNG
100
AcDbTrace
 10
102.6754146514
 20
158.9116726263
 30
0.0
 11
105.6754146514
 21
158.4616726263
 31
0.0
 12
105.6754146514
 22
159.3616726263
 32
0.0
 13
105.6754146514
 23
159.3616726263
 33
0.0
  0
SOLID
  5
169
330
165
100
AcDbEntity
  8
VERMASSUNG
100
AcDbTrace
 10
199.5754146514
 20
158.9116726263
 30
0.0
 11
196.5754146514
 21
159.3616726263
 31
0.0
 12
196.5754146514
 22
158.4616726263
 32
0.0
 13
196.5754146514
 23
158.4616726263
 33
0.0
  0
LINE
  5
16A
330
165
100
AcDbEntity
  8
VERMASSUNG
100
AcDbLine
 10
102.6754146514
 20
132.4650006067
 30
0.0
 11
102.6754146514
 21
159.9116726263
 31
0.0
  0
LINE
  5
16B
330
165
100
AcDbEntity
  8
VERMASSUNG
100
AcDbLine
 10
199.5754146514
 20
120.0001823386
 30
0.0
 11
199.5754146514
 21
159.9116726263
 31
0.0
  0
LINE
  5
16C
330
165
100
AcDbEntity
  8
VERMASSUNG
100
AcDbLine
 10
102.6754146514
 20
158.9116726263
 30
0.0
 11
199.5754146514
 21
158.9116726263
 31
0.0
  0
MTEXT
  5
16D
330
165
100
AcDbEntity
  8
VERMASSUNG
100
AcDbMText
 10
148.725817685
 20
161.4898079895
 30
0.0
 40
2.0
 41
0.0
 71
     1
 72
     1
  1
96.9
  7
SLDTEXTSTYLE0
 73
     1
 44
1.0
  0
ENDBLK
  5
167
330
165
100
AcDbEntity
  8
0
100
AcDbBlockEnd
  0
BLOCK
  5
170
330
16F
100
AcDbEntity
  8
0
100
AcDbBlockBegin
  2
*D6
 70
     1
 10
0.0
 20
0.0
 30
0.0
  3
*D6
  1

  0
SOLID
  5
172
330
16F
100
AcDbEntity
  8
VERMASSUNG
100
AcDbTrace
 10
97.1905261386
 20
144.2743228602
 30
0.0
 11
96.7405261386
 21
141.2743228602
 31
0.0
 12
97.6405261386
 22
141.2743228602
 32
0.0
 13
97.6405261386
 23
141.2743228602
 33
0.0
  0
SOLID
  5
173
330
16F
100
AcDbEntity
  8
VERMASSUNG
100
AcDbTrace
 10
97.1905261386
 20
81.2743228602
 30
0.0
 11
97.6405261386
 21
84.2743228602
 31
0.0
 12
96.7405261386
 22
84.2743228602
 32
0.0
 13
96.7405261386
 23
84.2743228602
 33
0.0
  0
LINE
  5
174
330
16F
100
AcDbEntity
  8
VERMASSUNG
100
AcDbLine
 10
134.8754146514
 20
144.2743228602
 30
0.0
 11
96.1905261386
 21
144.2743228602
 31
0.0
  0
LINE
  5
175
330
16F
100
AcDbEntity
  8
VERMASSUNG
100
AcDbLine
 10
134.8754146514
 20
81.2743228602
 30
0.0
 11
96.1905261386
 21
81.2743228602
 31
0.0
  0
LINE
  5
176
330
16F
100
AcDbEntity
  8
VERMASSUNG
100
AcDbLine
 10
97.1905261386
 20
144.2743228602
 30
0.0
 11
97.1905261386
 21
81.2743228602
 31
0.0
  0
MTEXT
  5
177
330
16F
100
AcDbEntity
  8
VERMASSUNG
100
AcDbMText
 10
94.4123906495
 20
105.0707811484
 30
0.0
 40
2.0
 41
0.0
 71
     1
 72
     1
  1
HSK A 
  7
SLDTEXTSTYLE0
 11
-7.044195017643634E-15
 21
1.0
 31
0.0
 73
     1
 44
1.0
  0
MTEXT
  5
178
330
16F
100
AcDbEntity
  8
VERMASSUNG
100
AcDbMText
 10
94.612390659
 20
114.0707816923
 30
0.0
 40
2.0
 41
0.0
 71
     1
 72
     1
  1
%%c
  7
SLDTEXTSTYLE0
 11
-7.044195017643634E-15
 21
1.0
 31
0.0
 73
     1
 44
1.0
  0
MTEXT
  5
179
330
16F
100
AcDbEntity
  8
VERMASSUNG
100
AcDbMText
 10
94.6123907755
 20
117.6791083424
 30
0.0
 40
2.0
 41
0.0
 71
     1
 72
     1
  1
63
  7
SLDTEXTSTYLE0
 11
-7.044195017643634E-15
 21
1.0
 31
0.0
 73
     1
 44
1.0
  0
ENDBLK
  5
171
330
16F
100
AcDbEntity
  8
0
100
AcDbBlockEnd
  0
ENDSEC
  0
SECTION
  2
ENTITIES
  0
MTEXT
  5
45
330
1F
100
AcDbEntity
  8
KOPF_DÜNN
100
AcDbMText
 10
13.8892156294
 20
23.8442973028
 30
0.0
 40
3.0
 41
0.0
 71
     1
 72
     1
  1
HA6.W06.K01.065
  7
SLDTEXTSTYLE0
 73
     1
 44
1.0
  0
MTEXT
  5
46
330
1F
100
AcDbEntity
  8
VERMASSUNG
100
AcDbMText
 10
13.9329988022
 20
28.8834360957
 30
0.0
 40
3.0
 41
0.0
 71
     1
 72
     1
  1
Flächenspannfutter_End mill adapter Weldon ø6
  7
SLDTEXTSTYLE0
 73
     1
 44
1.0
  0
MTEXT
  5
47
330
1F
100
AcDbEntity
  8
VERMASSUNG
100
AcDbMText
 10
98.8601118557
 20
13.8365368179
 30
0.0
 40
2.0
 41
0.0
 71
     1
 72
     1
  1
Datum: 20.04.2011
  7
SLDTEXTSTYLE0
 73
     1
 44
1.0
  0
MTEXT
  5
49
330
1F
100
AcDbEntity
  8
VERMASSUNG
100
AcDbMText
 10
13.933048693
 20
18.0482802738
 30
0.0
 40
2.0
 41
0.0
 71
     1
 72
     1
  1
DIN 69 893 HSK A 63
  7
SLDTEXTSTYLE1
 73
     1
 44
1.0
  0
MTEXT
  5
4A
330
1F
100
AcDbEntity
  8
VERMASSUNG
100
AcDbMText
 10
13.9808475933
 20
13.9090973692
 30
0.0
 40
2.0
 41
0.0
 71
     1
 72
     1
  1
Gewicht: 814g
  7
SLDTEXTSTYLE0
 73
     1
 44
1.0
  0
LINE
  5
4B
330
1F
100
AcDbEntity
  8
0
  6
Continuous
 62
     7
370
    15
100
AcDbLine
 10
134.8754146514
 20
81.2743228602
 30
0.0
 11
139.5254146514
 21
81.2743228602
 31
0.0
  0
LINE
  5
4C
330
1F
100
AcDbEntity
  8
0
  6
Continuous
 62
     7
370
    15
100
AcDbLine
 10
139.5347227382
 20
144.2743228602
 30
0.0
 11
134.8754146514
 21
144.2743228602
 31
0.0
  0
ARC
  5
4D
330
1F
100
AcDbEntity
  8
0
  6
Continuous
 62
     7
370
    15
100
AcDbCircle
 10
134.8754146514
 20
81.5743228602
 30
0.0
 40
0.3000000000000398
100
AcDbArc
 50
180.0
 51
270.0
  0
ARC
  5
4E
330
1F
100
AcDbEntity
  8
0
  6
Continuous
 62
     7
370
    15
100
AcDbCircle
 10
134.8754146514
 20
143.9743228602
 30
0.0
 40
0.3000000000000398
100
AcDbArc
 50
90.0
 51
180.0
  0
ARC
  5
4F
330
1F
100
AcDbEntity
  8
0
  6
Continuous
 62
     7
370
    15
100
AcDbCircle
 10
134.0754078987
 20
88.2038852458
 30
0.0
 40
0.6000067526677124
100
AcDbArc
 50
33.5571153394
 51
90.0
  0
ARC
  5
50
330
1F
100
AcDbEntity
  8
0
  6
Continuous
 62
     7
370
    15
100
AcDbCircle
 10
134.0754078987
 20
137.3447604746
 30
0.0
 40
0.6000067526677242
100
AcDbArc
 50
270.0
 51
326.4428846606
  0
LINE
  5
51
330
1F
100
AcDbEntity
  8
0
  6
Continuous
 62
     7
370
    15
100
AcDbLine
 10
121.3439058526
 20
136.4320528803
 30
0.0
 11
108.7754146514
 21
135.8023689524
 31
0.0
  0
LINE
  5
52
330
1F
100
AcDbEntity
  8
0
  6
Continuous
 62
     7
370
    15
100
AcDbLine
 10
132.5754146514
 20
136.994753722
 30
0.0
 11
129.7584129941
 21
136.8536213744
 31
0.0
  0
LINE
  5
53
330
1F
100
AcDbEntity
  8
0
  6
Continuous
 62
     7
370
    15
100
AcDbLine
 10
129.7584690841
 20
88.695021536
 30
0.0
 11
132.5754146514
 21
88.5538919985
 31
0.0
  0
LINE
  5
54
330
1F
100
AcDbEntity
  8
0
  6
Continuous
 62
     7
370
    15
100
AcDbLine
 10
112.7754146514
 20
89.5458759665
 30
0.0
 11
121.3443083713
 21
89.1165726739
 31
0.0
  0
LINE
  5
55
330
1F
100
AcDbEntity
  8
0
  6
Continuous
 62
     7
370
    15
100
AcDbLine
 10
132.5754146514
 20
88.5538919985
 30
0.0
 11
133.4321274248
 21
88.7834474943
 31
0.0
  0
LINE
  5
56
330
1F
100
AcDbEntity
  8
0
  6
Continuous
 62
     7
370
    15
100
AcDbLine
 10
133.4321274248
 20
136.7651982262
 30
0.0
 11
132.5754146514
 21
136.994753722
 31
0.0
  0
ARC
  5
57
330
1F
100
AcDbEntity
  8
0
  6
Continuous
 62
     7
370
    15
100
AcDbCircle
 10
133.5874188518
 20
88.2038919985
 30
0.0
 40
0.6000000000000071
100
AcDbArc
 50
90.0
 51
105.0
  0
ARC
  5
58
330
1F
100
AcDbEntity
  8
0
  6
Continuous
 62
     7
370
    15
100
AcDbCircle
 10
133.5874188518
 20
137.344753722
 30
0.0
 40
0.6000000000000227
100
AcDbArc
 50
255.0
 51
270.0
  0
LINE
  5
59
330
1F
100
AcDbEntity
  8
0
  6
Continuous
 62
     7
370
    15
100
AcDbLine
 10
133.5874188518
 20
88.8038919985
 30
0.0
 11
134.0754078987
 21
88.8038919985
 31
0.0
  0
LINE
  5
5A
330
1F
100
AcDbEntity
  8
0
  6
Continuous
 62
     7
370
    15
100
AcDbLine
 10
134.0754078987
 20
136.744753722
 30
0.0
 11
133.5874188518
 21
136.744753722
 31
0.0
  0
ARC
  5
5B
330
1F
100
AcDbEntity
  8
0
  6
Continuous
 62
     7
370
    15
100
AcDbCircle
 10
163.5254146514
 20
94.7743228602
 30
0.0
 40
3.0
100
AcDbArc
 50
90.0
 51
180.0
  0
ARC
  5
5C
330
1F
100
AcDbEntity
  8
0
  6
Continuous
 62
     7
370
    15
100
AcDbCircle
 10
163.5254146514
 20
130.7743228602
 30
0.0
 40
3.000000000000014
100
AcDbArc
 50
180.0
 51
270.0
  0
LINE
  5
5D
330
1F
100
AcDbEntity
  8
0
  6
Continuous
 62
     7
370
    15
100
AcDbLine
 10
163.5254146514
 20
97.7743228602
 30
0.0
 11
185.6361196681
 21
97.7743228602
 31
0.0
  0
LINE
  5
5E
330
1F
100
AcDbEntity
  8
0
  6
Continuous
 62
     7
370
    15
100
AcDbLine
 10
185.6361196681
 20
127.7743228602
 30
0.0
 11
163.5254146514
 21
127.7743228602
 31
0.0
  0
LINE
  5
5F
330
1F
100
AcDbEntity
  8
0
  6
Continuous
 62
     7
370
    15
100
AcDbLine
 10
185.6361196681
 20
97.7743228602
 30
0.0
 11
198.4206511749
 21
103.7358478078
 31
0.0
  0
LINE
  5
60
330
1F
100
AcDbEntity
  8
0
  6
Continuous
 62
     7
370
    15
100
AcDbLine
 10
198.4206511749
 20
121.8127979127
 30
0.0
 11
185.6361196681
 21
127.7743228602
 31
0.0
  0
LINE
  5
61
330
1F
100
AcDbEntity
  8
0
  6
Continuous
 62
     7
370
    15
100
AcDbLine
 10
103.9587512914
 20
91.9043228602
 30
0.0
 11
111.3754146514
 21
91.9043228602
 31
0.0
  0
ARC
  5
62
330
1F
100
AcDbEntity
  8
0
  6
Continuous
 62
     7
370
    15
100
AcDbCircle
 10
111.3754146514
 20
90.5043228602
 30
0.0
 40
1.400000000000006
100
AcDbArc
 50
42.2465410162
 51
90.0
  0
LINE
  5
63
330
1F
100
AcDbEntity
  8
0
  6
Continuous
 62
     7
370
    15
100
AcDbLine
 10
102.6865750865
 20
93.0431624251
 30
0.0
 11
103.8165781096
 21
91.9131594021
 31
0.0
  0
LINE
  5
64
330
1F
100
AcDbEntity
  8
0
  6
Continuous
 62
     7
370
    15
100
AcDbLine
 10
103.8165781096
 20
133.6354863184
 30
0.0
 11
102.6865822706
 21
132.5054904794
 31
0.0
  0
ARC
  5
65
330
1F
100
AcDbEntity
  8
0
  6
Continuous
 62
     7
370
    15
100
AcDbCircle
 10
107.3754146514
 20
135.0443228602
 30
0.0
 40
1.399999999999984
100
AcDbArc
 50
270.0
 51
301.7485287426
  0
LINE
  5
66
330
1F
100
AcDbEntity
  8
0
  6
Continuous
 62
     7
370
    15
100
AcDbLine
 10
107.3754146514
 20
133.6443228602
 30
0.0
 11
103.9663030528
 21
133.6443228602
 31
0.0
  0
ARC
  5
67
330
1F
100
AcDbEntity
  8
0
  6
Continuous
 62
     7
370
    15
100
AcDbCircle
 10
197.5754146514
 20
105.5484633819
 30
0.0
 40
2.000000000000013
100
AcDbArc
 50
295.0
 51
0.0
  0
ARC
  5
68
330
1F
100
AcDbEntity
  8
0
  6
Continuous
 62
     7
370
    15
100
AcDbCircle
 10
197.5754146514
 20
120.0001823386
 30
0.0
 40
2.000000000000013
100
AcDbArc
 50
0.0
 51
65.0
  0
CIRCLE
  5
69
330
1F
100
AcDbEntity
  8
0
  6
Continuous
 62
     7
370
    15
100
AcDbCircle
 10
182.0754146514
 20
112.7743228602
 30
0.0
 40
2.500000000000018
  0
LINE
  5
6A
330
1F
100
AcDbEntity
  8
0
  6
Continuous
 62
     7
370
    15
100
AcDbLine
 10
182.6639176038
 20
114.4033300042
 30
0.0
 11
183.7804276972
 21
113.0791679252
 31
0.0
  0
LINE
  5
6B
330
1F
100
AcDbEntity
  8
0
  6
Continuous
 62
     7
370
    15
100
AcDbLine
 10
180.958904558
 20
114.0984849392
 30
0.0
 11
182.6639176038
 21
114.4033300042
 31
0.0
  0
LINE
  5
6C
330
1F
100
AcDbEntity
  8
0
  6
Continuous
 62
     7
370
    15
100
AcDbLine
 10
180.958904558
 20
114.0984849392
 30
0.0
 11
180.3704016056
 21
112.4694777953
 31
0.0
  0
LINE
  5
6D
330
1F
100
AcDbEntity
  8
0
  6
Continuous
 62
     7
370
    15
100
AcDbLine
 10
181.486911699
 20
111.1453157163
 30
0.0
 11
180.3704016056
 21
112.4694777953
 31
0.0
  0
LINE
  5
6E
330
1F
100
AcDbEntity
  8
0
  6
Continuous
 62
     7
370
    15
100
AcDbLine
 10
181.486911699
 20
111.1453157163
 30
0.0
 11
183.1919247448
 21
111.4501607813
 31
0.0
  0
LINE
  5
6F
330
1F
100
AcDbEntity
  8
0
  6
Continuous
 62
     7
370
    15
100
AcDbLine
 10
183.1919247448
 20
111.4501607813
 30
0.0
 11
183.7804276972
 21
113.0791679252
 31
0.0
  0
LINE
  5
70
330
1F
100
AcDbEntity
  8
0
  6
Continuous
 62
     7
370
    15
100
AcDbLine
 10
159.9254146514
 20
82.587405164
 30
0.0
 11
155.9673474829
 21
82.587405164
 31
0.0
  0
LINE
  5
71
330
1F
100
AcDbEntity
  8
0
  6
Continuous
 62
     7
370
    15
100
AcDbLine
 10
155.9673474829
 20
82.587405164
 30
0.0
 11
155.9673474829
 21
132.6243228602
 31
0.0
  0
LINE
  5
72
330
1F
100
AcDbEntity
  8
0
  6
Continuous
 62
     7
370
    15
100
AcDbLine
 10
155.9673474829
 20
132.6243228602
 30
0.0
 11
159.9254146514
 21
132.6243228602
 31
0.0
  0
LINE
  5
73
330
1F
100
AcDbEntity
  8
0
  6
Continuous
 62
     7
370
    15
100
AcDbLine
 10
160.5254146514
 20
83.2140454596
 30
0.0
 11
160.5254146514
 21
132.6243228602
 31
0.0
  0
SPLINE
  5
74
330
1F
100
AcDbEntity
  8
0
  6
Continuous
 62
     7
370
    15
100
AcDbSpline
210
0.0
220
0.0
230
1.0
 70
     8
 71
     3
 72
    10
 73
     6
 74
     0
 42
0.00000001
 43
0.00000001
 40
0.0
 40
0.0
 40
0.0
 40
0.0
 40
0.5
 40
0.5
 40
1.0
 40
1.0
 40
1.0
 40
1.0
 10
160.5254146513983
 20
83.21404545964556
 30
0.0
 10
160.5254146513983
 20
83.0541581914519
 30
0.0
 10
160.4641050001624
 20
82.89303093593729
 30
0.0
 10
160.2450053626274
 20
82.65893193758247
 30
0.0
 10
160.0869571563139
 20
82.58740516399124
 30
0.0
 10
159.9254146513983
 20
82.58740516399124
 30
0.0
  0
SPLINE
  5
75
330
1F
100
AcDbEntity
  8
0
  6
Continuous
 62
     7
370
    15
100
AcDbSpline
210
0.0
220
0.0
230
1.0
 70
    24
 71
     3
 72
    12
 73
     8
 74
     0
 42
0.00000001
 43
0.00000001
 40
0.0
 40
0.0
 40
0.0
 40
0.0
 40
0.250000000000002
 40
0.250000000000002
 40
0.500000000000004
 40
0.500000000000004
 40
1.0
 40
1.0
 40
1.0
 40
1.0
 10
159.9254146513983
 20
132.6243228602384
 30
0.0
 10
160.0156537190853
 20
132.6243228602384
 30
0.0
 10
160.1065518331918
 20
132.6243228602384
 30
0.0
 10
160.2611488696803
 20
132.6243228602384
 30
0.0
 10
160.3261272857885
 20
132.6243228602384
 30
0.0
 10
160.4779623137247
 20
132.6243228602384
 30
0.0
 10
160.5254146513983
 20
132.6243228602384
 30
0.0
 10
160.5254146513983
 20
132.6243228602384
 30
0.0
  0
LINE
  5
76
330
1F
100
AcDbEntity
  8
0
  6
Continuous
 62
     7
370
    15
100
AcDbLine
 10
139.5254146514
 20
132.6243228602
 30
0.0
 11
149.1834818199
 21
132.6243228602
 31
0.0
  0
LINE
  5
77
330
1F
100
AcDbEntity
  8
0
  6
Continuous
 62
     7
370
    15
100
AcDbLine
 10
149.1834818199
 20
82.587405164
 30
0.0
 11
149.1834818199
 21
132.6243228602
 31
0.0
  0
LINE
  5
78
330
1F
100
AcDbEntity
  8
0
  6
Continuous
 62
     7
370
    15
100
AcDbLine
 10
149.1834818199
 20
82.587405164
 30
0.0
 11
147.5254146514
 21
82.587405164
 31
0.0
  0
SPLINE
  5
79
330
1F
100
AcDbEntity
  8
0
  6
Continuous
 62
     7
370
    15
100
AcDbSpline
210
0.0
220
0.0
230
1.0
 70
     8
 71
     3
 72
    28
 73
    24
 74
     0
 42
0.00000001
 43
0.00000001
 40
0.0
 40
0.0
 40
0.0
 40
0.0
 40
0.1249999999999999
 40
0.1249999999999999
 40
0.1874999999999998
 40
0.1874999999999998
 40
0.2499999999999997
 40
0.2499999999999997
 40
0.3749999999999993
 40
0.3749999999999993
 40
0.4374999999999993
 40
0.4374999999999993
 40
0.4999999999999992
 40
0.4999999999999992
 40
0.6249999999999992
 40
0.6249999999999992
 40
0.7499999999999992
 40
0.7499999999999992
 40
0.8124999999999993
 40
0.8124999999999993
 40
0.8749999999999996
 40
0.8749999999999996
 40
1.0
 40
1.0
 40
1.0
 40
1.0
 10
147.5254146513983
 20
82.58740516399124
 30
0.0
 10
146.9937068939053
 20
82.58740516399124
 30
0.0
 10
146.471468328595
 20
82.57162045004101
 30
0.0
 10
145.70159784232
 20
82.52662503596483
 30
0.0
 10
145.4472382701287
 20
82.50807004088908
 30
0.0
 10
144.9431166894302
 20
82.46421731844259
 30
0.0
 10
144.6933938720022
 20
82.43887271149039
 30
0.0
 10
143.9678039205558
 20
82.35547063374028
 30
0.0
 10
143.5094436589743
 20
82.2896050745892
 30
0.0
 10
142.8589457155804
 20
82.18063473409742
 30
0.0
 10
142.6472636647879
 20
82.14239509833077
 30
0.0
 10
142.24319217565
 20
82.06463636091141
 30
0.0
 10
142.0506856618291
 20
82.02513539873607
 30
0.0
 10
141.5008506908078
 20
81.90622765637005
 30
0.0
 10
141.170921912499
 20
81.82640997494543
 30
0.0
 10
140.5864506439303
 20
81.67306681314939
 30
0.0
 10
140.3401735059169
 20
81.60173305988012
 30
0.0
 10
140.0403307132188
 20
81.5077895528055
 30
0.0
 10
139.9518738561466
 20
81.47859575944558
 30
0.0
 10
139.7985125028415
 20
81.42512918518217
 30
0.0
 10
139.7334242886153
 20
81.400769850907
 30
0.0
 10
139.5778302726745
 20
81.33717970546225
 30
0.0
 10
139.5254146513983
 20
81.30707677037299
 30
0.0
 10
139.5254146513983
 20
81.29019987737607
 30
0.0
  0
LINE
  5
7A
330
1F
100
AcDbEntity
  8
0
  6
Continuous
 62
     7
370
    15
100
AcDbLine
 10
139.5254146514
 20
81.2901998774
 30
0.0
 11
139.5254146514
 21
81.2743228602
 31
0.0
  0
SPLINE
  5
7B
330
1F
100
AcDbEntity
  8
0
  6
Continuous
 62
     7
370
    15
100
AcDbSpline
210
0.0
220
0.0
230
1.0
 70
     8
 71
     3
 72
    22
 73
    18
 74
     0
 42
0.00000001
 43
0.00000001
 40
0.0
 40
0.0
 40
0.0
 40
0.0
 40
0.0515773377536172
 40
0.1565264849943629
 40
0.2100197540385886
 40
0.2615951369298746
 40
0.3664424119934943
 40
0.4198226601719804
 40
0.4724528789006786
 40
0.5794488992297344
 40
0.6339397336480286
 40
0.6872670452602943
 40
0.7409741315029978
 40
0.7958968813361827
 40
0.8512481408256359
 40
0.9034470736265863
 40
1.0
 40
1.0
 40
1.0
 40
1.0
 10
147.5254146513983
 20
143.2415183334026
 30
0.0
 10
147.3086044553958
 20
143.2429149544712
 30
0.0
 10
146.6506306364811
 20
143.2471534087274
 30
0.0
 10
145.7755356591501
 20
143.2866857330817
 30
0.0
 10
144.9307101642933
 20
143.3496589799236
 30
0.0
 10
144.110984880689
 20
143.4276730131787
 30
0.0
 10
143.3351949026606
 20
143.5245561410539
 30
0.0
 10
142.6177064413542
 20
143.6328155529699
 30
0.0
 10
141.9384416941821
 20
143.7465339252743
 30
0.0
 10
141.3301267162732
 20
143.8630341102151
 30
0.0
 10
140.81003477555
 20
143.9721343616321
 30
0.0
 10
140.4661445978339
 20
144.0481382593622
 30
0.0
 10
140.1711908701063
 20
144.1161717152838
 30
0.0
 10
139.9254165827652
 20
144.1748847660424
 30
0.0
 10
139.7395142737917
 20
144.2205001459761
 30
0.0
 10
139.567917668068
 20
144.2634595975366
 30
0.0
 10
139.5477883928918
 20
144.2686206193387
 30
0.0
 10
139.5347227382181
 20
144.271970572481
 30
0.0
  0
LINE
  5
7C
330
1F
100
AcDbEntity
  8
0
  6
Continuous
 62
     7
370
    15
100
AcDbLine
 10
149.1834818199
 20
143.2415183334
 30
0.0
 11
147.5254146514
 21
143.2415183334
 31
0.0
  0
LINE
  5
7D
330
1F
100
AcDbEntity
  8
0
  6
Continuous
 62
     7
370
    15
100
AcDbLine
 10
149.1834818199
 20
137.2330125226
 30
0.0
 11
149.1834818199
 21
143.2415183334
 31
0.0
  0
LINE
  5
7E
330
1F
100
AcDbEntity
  8
0
  6
Continuous
 62
     7
370
    15
100
AcDbLine
 10
146.7710349971
 20
137.2330125226
 30
0.0
 11
149.1834818199
 21
137.2330125226
 31
0.0
  0
SPLINE
  5
7F
330
1F
100
AcDbEntity
  8
0
  6
Continuous
 62
     7
370
    15
100
AcDbSpline
210
0.0
220
0.0
230
1.0
 70
     8
 71
     3
 72
    20
 73
    16
 74
     0
 42
0.00000001
 43
0.00000001
 40
0.0
 40
0.0
 40
0.0
 40
0.0
 40
0.2499999999999995
 40
0.2499999999999995
 40
0.3749999999999996
 40
0.3749999999999996
 40
0.4999999999999997
 40
0.4999999999999997
 40
0.6249999999999998
 40
0.6249999999999998
 40
0.7499999999999998
 40
0.7499999999999998
 40
0.8749999999999999
 40
0.8749999999999999
 40
1.0
 40
1.0
 40
1.0
 40
1.0
 10
139.5254146513983
 20
132.6243228602384
 30
0.0
 10
139.7737883856863
 20
133.2781852885358
 30
0.0
 10
140.0933584780316
 20
133.881971070533
 30
0.0
 10
140.7156647112363
 20
134.7088098067016
 30
0.0
 10
140.9470889716671
 20
134.9712384446545
 30
0.0
 10
141.4683033113168
 20
135.4679010987595
 30
0.0
 10
141.7549237939518
 20
135.698487977781
 30
0.0
 10
142.3744085352594
 20
136.1150422023636
 30
0.0
 10
142.7087089147464
 20
136.3025400043311
 30
0.0
 10
143.4339693873712
 20
136.6339369819675
 30
0.0
 10
143.8158844447617
 20
136.7734409694628
 30
0.0
 10
144.6106726209333
 20
136.9988944769337
 30
0.0
 10
145.0248308151397
 20
137.0855205884774
 30
0.0
 10
145.8903771557211
 20
137.2035013773315
 30
0.0
 10
146.3282647707329
 20
137.2330125226058
 30
0.0
 10
146.7710349970876
 20
137.2330125226058
 30
0.0
  0
SPLINE
  5
80
330
1F
100
AcDbEntity
  8
0
  6
Continuous
 62
     7
370
    15
100
AcDbSpline
210
0.0
220
0.0
230
1.0
 70
     8
 71
     3
 72
    70
 73
    66
 74
     0
 42
0.00000001
 43
0.00000001
 40
-0.0312500000000001
 40
-0.0312500000000001
 40
0.0
 40
0.0
 40
0.0312499999999999
 40
0.0312499999999999
 40
0.0624999999999998
 40
0.0624999999999998
 40
0.0937499999999997
 40
0.0937499999999997
 40
0.1249999999999996
 40
0.1249999999999996
 40
0.1562499999999994
 40
0.1562499999999994
 40
0.1874999999999993
 40
0.1874999999999993
 40
0.2187499999999992
 40
0.2187499999999992
 40
0.2499999999999991
 40
0.2499999999999991
 40
0.281249999999999
 40
0.281249999999999
 40
0.3124999999999989
 40
0.3124999999999989
 40
0.3437499999999988
 40
0.3437499999999988
 40
0.3749999999999987
 40
0.3749999999999987
 40
0.4062499999999986
 40
0.4062499999999986
 40
0.4374999999999984
 40
0.4374999999999984
 40
0.4687499999999983
 40
0.4687499999999983
 40
0.4999999999999982
 40
0.4999999999999982
 40
0.5312499999999983
 40
0.5312499999999983
 40
0.5624999999999984
 40
0.5624999999999984
 40
0.5937499999999986
 40
0.5937499999999986
 40
0.6249999999999987
 40
0.6249999999999987
 40
0.6562499999999988
 40
0.6562499999999988
 40
0.6874999999999989
 40
0.6874999999999989
 40
0.718749999999999
 40
0.718749999999999
 40
0.7499999999999991
 40
0.7499999999999991
 40
0.7812499999999992
 40
0.7812499999999992
 40
0.8124999999999993
 40
0.8124999999999993
 40
0.8437499999999994
 40
0.8437499999999994
 40
0.8749999999999996
 40
0.8749999999999996
 40
0.9062499999999997
 40
0.9062499999999997
 40
0.9374999999999998
 40
0.9374999999999998
 40
0.9687499999999999
 40
0.9687499999999999
 40
1.0
 40
1.0
 40
1.03125
 40
1.03125
 10
142.8399599900584
 20
123.3952297462217
 30
0.0
 10
142.3108693127381
 20
123.3952297462217
 30
0.0
 10
142.0507986453611
 20
123.4199070410069
 30
0.0
 10
141.5392239655256
 20
123.5163787140489
 30
0.0
 10
141.2850486817854
 20
123.5893596300289
 30
0.0
 10
140.8007780517237
 20
123.7791002329675
 30
0.0
 10
140.5711369598426
 20
123.8949608913613
 30
0.0
 10
140.1365326116091
 20
124.167578737319
 30
0.0
 10
139.9309668349625
 20
124.3256178193728
 30
0.0
 10
139.5624096943672
 20
124.6691606703434
 30
0.0
 10
139.3969287116317
 20
124.8559231144451
 30
0.0
 10
139.1045042021966
 20
125.2594662888419
 30
0.0
 10
138.9804032255701
 20
125.472963285271
 30
0.0
 10
138.7808240288204
 20
125.9123465991935
 30
0.0
 10
138.7038904429622
 20
126.1414865863392
 30
0.0
 10
138.6010333844418
 20
126.6074607090992
 30
0.0
 10
138.5755604749826
 20
126.8403431547754
 30
0.0
 10
138.5752700644149
 20
127.3057406898552
 30
0.0
 10
138.6012946981906
 20
127.5406164472495
 30
0.0
 10
138.7034429826826
 20
127.9921095944957
 30
0.0
 10
138.7790194302658
 20
128.2101560699071
 30
0.0
 10
138.9795169614107
 20
128.6312505949449
 30
0.0
 10
139.1046458029191
 20
128.8331719794633
 30
0.0
 10
139.3940046039407
 20
129.2052014619822
 30
0.0
 10
139.5594155909962
 20
129.3778297655625
 30
0.0
 10
139.932406149144
 20
129.6951477701085
 30
0.0
 10
140.1341391822331
 20
129.8349347036101
 30
0.0
 10
140.5669984330609
 20
130.079110957162
 30
0.0
 10
140.8009169659503
 20
130.1843404682035
 30
0.0
 10
141.2851007010929
 20
130.3524976145786
 30
0.0
 10
141.5344163270484
 20
130.4157485051724
 30
0.0
 10
142.0474488514762
 20
130.501327714275
 30
0.0
 10
142.3127426743808
 20
130.5231998791974
 30
0.0
 10
142.8350772942505
 20
130.5233635288414
 30
0.0
 10
143.0948309567323
 20
130.5023618367454
 30
0.0
 10
143.6114427723775
 20
130.4169594816677
 30
0.0
 10
143.8638088128778
 20
130.3529532983808
 30
0.0
 10
144.3453339344106
 20
130.1861387783396
 30
0.0
 10
144.5781846665242
 20
130.0820056149405
 30
0.0
 10
145.015274514963
 20
129.8360189624455
 30
0.0
 10
145.2165955036201
 20
129.6962691314966
 30
0.0
 10
145.58568152892
 20
129.383131061772
 30
0.0
 10
145.7546662799718
 20
129.2076749025019
 30
0.0
 10
146.045122336631
 20
128.8348346384017
 30
0.0
 10
146.1681941479931
 20
128.6367128282908
 30
0.0
 10
146.3695303894151
 20
128.2160014855571
 30
0.0
 10
146.4467429353573
 20
127.9940114648896
 30
0.0
 10
146.5489464782574
 20
127.5441465251812
 30
0.0
 10
146.5751748297097
 20
127.3138911120645
 30
0.0
 10
146.5756512290268
 20
126.8425751695154
 30
0.0
 10
146.5499088165288
 20
126.6093377538013
 30
0.0
 10
146.448598040165
 20
126.1476612143032
 30
0.0
 10
146.3717654007741
 20
125.916763827191
 30
0.0
 10
146.1713615615589
 20
125.4744878133994
 30
0.0
 10
146.0486900632668
 20
125.2634253821135
 30
0.0
 10
145.7587427741026
 20
124.8619268713808
 30
0.0
 10
145.5901717947374
 20
124.6710203493049
 30
0.0
 10
145.2219022006242
 20
124.3272950173078
 30
0.0
 10
145.0208403433539
 20
124.1721578310937
 30
0.0
 10
144.583809424769
 20
123.897080471014
 30
0.0
 10
144.3516612116393
 20
123.779964241592
 30
0.0
 10
143.8706509301405
 20
123.5910377565275
 30
0.0
 10
143.6185508473101
 20
123.5179627861332
 30
0.0
 10
143.101481361051
 20
123.4199107269987
 30
0.0
 10
142.8399599900584
 20
123.3952297462217
 30
0.0
 10
142.3108693127381
 20
123.3952297462217
 30
0.0
  0
SPLINE
  5
81
330
1F
100
AcDbEntity
  8
0
  6
Continuous
 62
     7
370
    15
100
AcDbSpline
210
0.0
220
0.0
230
1.0
 70
     8
 71
     3
 72
    70
 73
    66
 74
     0
 42
0.00000001
 43
0.00000001
 40
-0.0312499999999999
 40
-0.0312499999999999
 40
0.0
 40
0.0
 40
0.0312499999999999
 40
0.0312499999999999
 40
0.0624999999999998
 40
0.0624999999999998
 40
0.0937499999999997
 40
0.0937499999999997
 40
0.1249999999999996
 40
0.1249999999999996
 40
0.1562499999999995
 40
0.1562499999999995
 40
0.1874999999999994
 40
0.1874999999999994
 40
0.2187499999999993
 40
0.2187499999999993
 40
0.2499999999999992
 40
0.2499999999999992
 40
0.2812499999999993
 40
0.2812499999999993
 40
0.3124999999999993
 40
0.3124999999999993
 40
0.3437499999999994
 40
0.3437499999999994
 40
0.3749999999999995
 40
0.3749999999999995
 40
0.4062499999999996
 40
0.4062499999999996
 40
0.4374999999999996
 40
0.4374999999999996
 40
0.4687499999999997
 40
0.4687499999999997
 40
0.4999999999999998
 40
0.4999999999999998
 40
0.5312499999999999
 40
0.5312499999999999
 40
0.5625
 40
0.5625
 40
0.5937500000000001
 40
0.5937500000000001
 40
0.6250000000000002
 40
0.6250000000000002
 40
0.6562500000000004
 40
0.6562500000000004
 40
0.6875000000000006
 40
0.6875000000000006
 40
0.7187500000000007
 40
0.7187500000000007
 40
0.7500000000000008
 40
0.7500000000000008
 40
0.7812500000000007
 40
0.7812500000000007
 40
0.8125000000000006
 40
0.8125000000000006
 40
0.8437500000000004
 40
0.8437500000000004
 40
0.8750000000000003
 40
0.8750000000000003
 40
0.9062500000000003
 40
0.9062500000000003
 40
0.9375000000000002
 40
0.9375000000000002
 40
0.9687500000000001
 40
0.9687500000000001
 40
1.0
 40
1.0
 40
1.03125
 40
1.03125
 10
142.8399599900584
 20
137.8332862550176
 30
0.0
 10
142.3108693127381
 20
137.8332862550176
 30
0.0
 10
142.0507986453611
 20
137.8491866954324
 30
0.0
 10
141.5392239655256
 20
137.9111310456066
 30
0.0
 10
141.2850486817854
 20
137.9579332796979
 30
0.0
 10
140.8007780517237
 20
138.078910263153
 30
0.0
 10
140.5711369598426
 20
138.1525125909598
 30
0.0
 10
140.1365326116091
 20
138.324336861938
 30
0.0
 10
139.9309668349625
 20
138.4233402848654
 30
0.0
 10
139.5624096943672
 20
138.6364366987782
 30
0.0
 10
139.3969287116317
 20
138.7513364149079
 30
0.0
 10
139.1045042021966
 20
138.9967033135982
 30
0.0
 10
138.9804032255701
 20
139.1251432140685
 30
0.0
 10
138.7808240288204
 20
139.3860353621544
 30
0.0
 10
138.7038904429622
 20
139.5204165334939
 30
0.0
 10
138.6010333844418
 20
139.7897364846002
 30
0.0
 10
138.5755604749826
 20
139.9224177488183
 30
0.0
 10
138.5752700644149
 20
140.1836042229494
 30
0.0
 10
138.6012946981906
 20
140.3133692611141
 30
0.0
 10
138.7034429826826
 20
140.5589518953867
 30
0.0
 10
138.7790194302658
 20
140.6756134326956
 30
0.0
 10
138.9795169614107
 20
140.8975186228502
 30
0.0
 10
139.1046458029191
 20
141.0021298767732
 30
0.0
 10
139.3940046039407
 20
141.1921762883812
 30
0.0
 10
139.5594155909962
 20
141.2789359598309
 30
0.0
 10
139.932406149144
 20
141.4364403355825
 30
0.0
 10
140.1341391822331
 20
141.5047656003697
 30
0.0
 10
140.5669984330609
 20
141.6229953239889
 30
0.0
 10
140.8009169659503
 20
141.6732902400927
 30
0.0
 10
141.2851007010929
 20
141.7531557769823
 30
0.0
 10
141.5344163270484
 20
141.7828969047819
 30
0.0
 10
142.0474488514762
 20
141.8230496462902
 30
0.0
 10
142.3127426743808
 20
141.8332479157
 30
0.0
 10
142.8350772942505
 20
141.8333243740847
 30
0.0
 10
143.0948309567323
 20
141.8235333624757
 30
0.0
 10
143.6114427723775
 20
141.7834665237369
 30
0.0
 10
143.8638088128778
 20
141.7533693568801
 30
0.0
 10
144.3453339344106
 20
141.6741471470499
 30
0.0
 10
144.5781846665242
 20
141.6243896675866
 30
0.0
 10
145.015274514963
 20
141.5052977251362
 30
0.0
 10
145.2165955036201
 20
141.4369824635889
 30
0.0
 10
145.58568152892
 20
141.2815814966553
 30
0.0
 10
145.7546662799718
 20
141.1934291545884
 30
0.0
 10
146.045122336631
 20
141.0029897654721
 30
0.0
 10
146.1681941479931
 20
140.900365187773
 30
0.0
 10
146.3695303894151
 20
140.6787248411649
 30
0.0
 10
146.4467429353573
 20
140.5599707656174
 30
0.0
 10
146.5489464782574
 20
140.3153048266997
 30
0.0
 10
146.5751748297097
 20
140.1881481012512
 30
0.0
 10
146.5756512290268
 20
139.9236999553956
 30
0.0
 10
146.5499088165288
 20
139.7907992751385
 30
0.0
 10
146.448598040165
 20
139.5240070016564
 30
0.0
 10
146.3717654007741
 20
139.3886431001878
 30
0.0
 10
146.1713615615589
 20
139.1260633048853
 30
0.0
 10
146.0486900632668
 20
138.9990881451315
 30
0.0
 10
145.7587427741026
 20
138.7550087590491
 30
0.0
 10
145.5901717947374
 20
138.6375836342952
 30
0.0
 10
145.2219022006242
 20
138.4243871733468
 30
0.0
 10
145.0208403433539
 20
138.3272130549219
 30
0.0
 10
144.583809424769
 20
138.1538581677078
 30
0.0
 10
144.3516612116393
 20
138.0794586160511
 30
0.0
 10
143.8706509301405
 20
137.9590057365464
 30
0.0
 10
143.6185508473101
 20
137.9121473612804
 30
0.0
 10
143.101481361051
 20
137.8491898642967
 30
0.0
 10
142.8399599900584
 20
137.8332862550176
 30
0.0
 10
142.3108693127381
 20
137.8332862550176
 30
0.0
  0
LINE
  5
82
330
1F
100
AcDbEntity
  8
0
  6
Continuous
 62
     7
370
    15
100
AcDbLine
 10
150.6654146514
 20
85.2764857012
 30
0.0
 11
150.6654146514
 21
132.6243228602
 31
0.0
  0
SPLINE
  5
83
330
1F
100
AcDbEntity
  8
0
  6
Continuous
 62
     7
370
    15
100
AcDbSpline
210
0.0
220
0.0
230
1.0
 70
     8
 71
     3
 72
     8
 73
     4
 74
     0
 42
0.00000001
 43
0.00000001
 40
0.0
 40
0.0
 40
0.0
 40
0.0
 40
1.0
 40
1.0
 40
1.0
 40
1.0
 10
150.6654146513983
 20
85.27648570118355
 30
0.0
 10
150.1730755286171
 20
84.37921566697685
 30
0.0
 10
149.678961480575
 20
83.4829312519246
 30
0.0
 10
149.1834818199092
 20
82.58740516399124
 30
0.0
  0
SPLINE
  5
84
330
1F
100
AcDbEntity
  8
0
  6
Continuous
 62
     7
370
    15
100
AcDbSpline
210
0.0
220
0.0
230
1.0
 70
    24
 71
     3
 72
     8
 73
     4
 74
     0
 42
0.00000001
 43
0.00000001
 40
0.0
 40
0.0
 40
0.0
 40
0.0
 40
1.0
 40
1.0
 40
1.0
 40
1.0
 10
149.1834818199092
 20
132.6243228602384
 30
0.0
 10
149.6901619280598
 20
132.6243228602384
 30
0.0
 10
150.1854626570334
 20
132.6243228602384
 30
0.0
 10
150.6654146513983
 20
132.6243228602384
 30
0.0
  0
SPLINE
  5
85
330
1F
100
AcDbEntity
  8
0
  6
Continuous
 62
     7
370
    15
100
AcDbSpline
210
0.0
220
0.0
230
1.0
 70
     8
 71
     3
 72
     8
 73
     4
 74
     0
 42
0.00000001
 43
0.00000001
 40
0.0
 40
0.0
 40
0.0
 40
0.0
 40
1.0
 40
1.0
 40
1.0
 40
1.0
 10
155.9673474828873
 20
82.58740516399124
 30
0.0
 10
155.4718678222216
 20
83.4829312519246
 30
0.0
 10
154.9777537741795
 20
84.37921566697686
 30
0.0
 10
154.4854146513983
 20
85.27648570118356
 30
0.0
  0
LINE
  5
86
330
1F
100
AcDbEntity
  8
0
  6
Continuous
 62
     7
370
    15
100
AcDbLine
 10
154.4854146514
 20
85.2764857012
 30
0.0
 11
154.4854146514
 21
132.6243228602
 31
0.0
  0
SPLINE
  5
87
330
1F
100
AcDbEntity
  8
0
  6
Continuous
 62
     7
370
    15
100
AcDbSpline
210
0.0
220
0.0
230
1.0
 70
    24
 71
     3
 72
     8
 73
     4
 74
     0
 42
0.00000001
 43
0.00000001
 40
0.0
 40
0.0
 40
0.0
 40
0.0
 40
1.0
 40
1.0
 40
1.0
 40
1.0
 10
154.4854146513983
 20
132.6243228602384
 30
0.0
 10
154.9653666457632
 20
132.6243228602384
 30
0.0
 10
155.4606673747368
 20
132.6243228602384
 30
0.0
 10
155.9673474828873
 20
132.6243228602384
 30
0.0
  0
LINE
  5
88
330
1F
100
AcDbEntity
  8
0
  6
Continuous
 62
     7
370
    15
100
AcDbLine
 10
134.5754146514
 20
81.5743228602
 30
0.0
 11
134.5754146514
 21
143.9743228557
 31
0.0
  0
ARC
  5
89
330
1F
100
AcDbEntity
  8
0
  6
Continuous
 62
     7
370
    15
100
AcDbCircle
 10
142.5772892281
 20
124.6663973711
 30
0.0
 40
4.117853047874314
100
AcDbArc
 50
20.6466328232
 51
160.1720833212
  0
SPLINE
  5
8A
330
1F
100
AcDbEntity
  8
0
  6
Continuous
 62
     7
370
    15
100
AcDbSpline
210
0.0
220
0.0
230
1.0
 70
     8
 71
     3
 72
    10
 73
     6
 74
     0
 42
0.00000001
 43
0.00000001
 40
0.0
 40
0.0
 40
0.0
 40
0.0
 40
0.5
 40
0.5
 40
1.0
 40
1.0
 40
1.0
 40
1.0
 10
151.0597121830892
 20
139.1743228602384
 30
0.0
 10
150.9381719194207
 20
139.2490490274502
 30
0.0
 10
150.8368375590718
 20
139.357994043367
 30
0.0
 10
150.7011986161834
 20
139.6084245241286
 30
0.0
 10
150.6654146513983
 20
139.7508438862275
 30
0.0
 10
150.6654146513983
 20
139.8939767112742
 30
0.0
  0
SPLINE
  5
8B
330
1F
100
AcDbEntity
  8
0
  6
Continuous
 62
     7
370
    15
100
AcDbSpline
210
0.0
220
0.0
230
1.0
 70
    24
 71
     3
 72
    12
 73
     8
 74
     0
 42
0.00000001
 43
0.00000001
 40
0.0
 40
0.0
 40
0.0
 40
0.0
 40
0.2499999999999992
 40
0.2499999999999992
 40
0.4999999999999983
 40
0.4999999999999983
 40
1.0
 40
1.0
 40
1.0
 40
1.0
 10
151.4654146513983
 20
139.1743228602384
 30
0.0
 10
151.415537969081
 20
139.1743228602384
 30
0.0
 10
151.3675347756772
 20
139.1743228602384
 30
0.0
 10
151.2844866729653
 20
139.1743228602384
 30
0.0
 10
151.2483570934974
 20
139.1743228602384
 30
0.0
 10
151.1524450625532
 20
139.1743228602384
 30
0.0
 10
151.1026863945844
 20
139.1743228602384
 30
0.0
 10
151.0597121830892
 20
139.1743228602384
 30
0.0
  0
SPLINE
  5
8C
330
1F
100
AcDbEntity
  8
0
  6
Continuous
 62
     7
370
    15
100
AcDbSpline
210
0.0
220
0.0
230
1.0
 70
    24
 71
     3
 72
    14
 73
    10
 74
     0
 42
0.00000001
 43
0.00000001
 40
0.0
 40
0.0
 40
0.0
 40
0.0
 40
0.1250000000000012
 40
0.1250000000000012
 40
0.2500000000000024
 40
0.2500000000000024
 40
0.5000000000000013
 40
0.5000000000000013
 40
1.0
 40
1.0
 40
1.0
 40
1.0
 10
151.4654146513982
 20
86.37432286023841
 30
0.0
 10
151.3969768035118
 20
86.37432286023841
 30
0.0
 10
151.3314267647468
 20
86.37432286023841
 30
0.0
 10
151.2270001253388
 20
86.37432286023841
 30
0.0
 10
151.1844555155774
 20
86.3743228602384
 30
0.0
 10
151.0718460550372
 20
86.3743228602384
 30
0.0
 10
151.0163070080177
 20
86.3743228602384
 30
0.0
 10
150.8736953125539
 20
86.37432286023841
 30
0.0
 10
150.8102899575581
 20
86.3743228602384
 30
0.0
 10
150.7630894537306
 20
86.37432286023841
 30
0.0
  0
SPLINE
  5
8D
330
1F
100
AcDbEntity
  8
0
  6
Continuous
 62
     7
370
    15
100
AcDbSpline
210
0.0
220
0.0
230
1.0
 70
     8
 71
     3
 72
    10
 73
     6
 74
     0
 42
0.00000001
 43
0.00000001
 40
0.0
 40
0.0
 40
0.0
 40
0.0
 40
0.5
 40
0.5
 40
1.0
 40
1.0
 40
1.0
 40
1.0
 10
150.6654146513983
 20
132.9101894916998
 30
0.0
 10
150.6654146513983
 20
132.8624179837065
 30
0.0
 10
150.6675758949954
 20
132.8147082616448
 30
0.0
 10
150.6762472688556
 20
132.7194131440965
 30
0.0
 10
150.6827764518116
 20
132.6717205801299
 30
0.0
 10
150.6915622745584
 20
132.6243228602384
 30
0.0
  0
SPLINE
  5
8E
330
1F
100
AcDbEntity
  8
0
  6
Continuous
 62
     7
370
    15
100
AcDbSpline
210
0.0
220
0.0
230
1.0
 70
    24
 71
     3
 72
    14
 73
    10
 74
     0
 42
0.00000001
 43
0.00000001
 40
0.0
 40
0.0
 40
0.0
 40
0.0
 40
0.5
 40
0.5
 40
0.75
 40
0.75
 40
0.875
 40
0.875
 40
1.0
 40
1.0
 40
1.0
 40
1.0
 10
154.387739849066
 20
86.37432286023841
 30
0.0
 10
154.3409551440178
 20
86.37432286023841
 30
0.0
 10
154.2789039472382
 20
86.37432286023841
 30
0.0
 10
154.1355123086876
 20
86.3743228602384
 30
0.0
 10
154.0793686551364
 20
86.37432286023841
 30
0.0
 10
153.9664176330002
 20
86.3743228602384
 30
0.0
 10
153.9234168709621
 20
86.37432286023841
 30
0.0
 10
153.8193541606556
 20
86.3743228602384
 30
0.0
 10
153.7540219222987
 20
86.3743228602384
 30
0.0
 10
153.6854146513983
 20
86.37432286023841
 30
0.0
  0
SPLINE
  5
8F
330
1F
100
AcDbEntity
  8
0
  6
Continuous
 62
     7
370
    15
100
AcDbSpline
210
0.0
220
0.0
230
1.0
 70
    24
 71
     3
 72
    12
 73
     8
 74
     0
 42
0.00000001
 43
0.00000001
 40
0.0
 40
0.0
 40
0.0
 40
0.0
 40
0.5000000000000017
 40
0.5000000000000017
 40
0.7500000000000008
 40
0.7500000000000008
 40
1.0
 40
1.0
 40
1.0
 40
1.0
 10
154.0911171197073
 20
139.1743228602384
 30
0.0
 10
154.0480315700964
 20
139.1743228602384
 30
0.0
 10
153.998879368347
 20
139.1743228602384
 30
0.0
 10
153.9024067740591
 20
139.1743228602384
 30
0.0
 10
153.8663051889245
 20
139.1743228602384
 30
0.0
 10
153.7831994310633
 20
139.1743228602384
 30
0.0
 10
153.735202834097
 20
139.1743228602384
 30
0.0
 10
153.6854146513983
 20
139.1743228602384
 30
0.0
  0
SPLINE
  5
90
330
1F
100
AcDbEntity
  8
0
  6
Continuous
 62
     7
370
    15
100
AcDbSpline
210
0.0
220
0.0
230
1.0
 70
     8
 71
     3
 72
    10
 73
     6
 74
     0
 42
0.00000001
 43
0.00000001
 40
0.0
 40
0.0
 40
0.0
 40
0.0
 40
0.5
 40
0.5
 40
1.0
 40
1.0
 40
1.0
 40
1.0
 10
154.4854146513983
 20
139.8939767112742
 30
0.0
 10
154.4854146513983
 20
139.7502066534562
 30
0.0
 10
154.4493655926794
 20
139.607787290961
 30
0.0
 10
154.3138567319054
 20
139.3578929976038
 30
0.0
 10
154.2139807388092
 20
139.2498626613556
 30
0.0
 10
154.0911171197073
 20
139.1743228602384
 30
0.0
  0
SPLINE
  5
91
330
1F
100
AcDbEntity
  8
0
  6
Continuous
 62
     7
370
    15
100
AcDbSpline
210
0.0
220
0.0
230
1.0
 70
     8
 71
     3
 72
    10
 73
     6
 74
     0
 42
0.00000001
 43
0.00000001
 40
0.0
 40
0.0
 40
0.0
 40
0.0
 40
0.5
 40
0.5
 40
1.0
 40
1.0
 40
1.0
 40
1.0
 10
154.4592670282381
 20
132.6243228602384
 30
0.0
 10
154.4679566711498
 20
132.6712017095566
 30
0.0
 10
154.4744957359003
 20
132.7186241749579
 30
0.0
 10
154.4832543702934
 20
132.8145609735447
 30
0.0
 10
154.4854146513983
 20
132.8624762615552
 30
0.0
 10
154.4854146513983
 20
132.9101894916998
 30
0.0
  0
LINE
  5
92
330
1F
100
AcDbEntity
  8
0
  6
Continuous
 62
     7
370
    15
100
AcDbLine
 10
153.6854146514
 20
139.1743228602
 30
0.0
 11
151.4654146514
 21
139.1743228602
 31
0.0
  0
LINE
  5
93
330
1F
100
AcDbEntity
  8
0
  6
Continuous
 62
     7
370
    15
100
AcDbLine
 10
153.6854146514
 20
86.3743228602
 30
0.0
 11
151.4654146514
 21
86.3743228602
 31
0.0
  0
LINE
  5
94
330
1F
100
AcDbEntity
  8
0
  6
Continuous
 62
     7
370
    15
100
AcDbLine
 10
112.7754146514
 20
89.5458759665
 30
0.0
 11
112.7754146514
 21
90.810585329
 31
0.0
  0
SPLINE
  5
95
330
1F
100
AcDbEntity
  8
0
  6
Continuous
 62
     7
370
    15
100
AcDbSpline
210
0.0
220
0.0
230
1.0
 70
     8
 71
     3
 72
    14
 73
    10
 74
     0
 42
0.00000001
 43
0.00000001
 40
0.0
 40
0.0
 40
0.0
 40
0.0
 40
0.25
 40
0.25
 40
0.5
 40
0.5
 40
0.75
 40
0.75
 40
1.0
 40
1.0
 40
1.0
 40
1.0
 10
111.9971275334826
 20
91.94117153667845
 30
0.0
 10
112.0537542086847
 20
91.83347408284159
 30
0.0
 10
112.1482768689744
 20
91.73068450112227
 30
0.0
 10
112.3313218445366
 20
91.53232718890213
 30
0.0
 10
112.4229484214913
 20
91.43626768022388
 30
0.0
 10
112.5818017391845
 20
91.24873863751463
 30
0.0
 10
112.6496923468062
 20
91.15732966473108
 30
0.0
 10
112.7466093725138
 20
90.97895344382093
 30
0.0
 10
112.7754146513989
 20
90.89173153757476
 30
0.0
 10
112.7754146513989
 20
90.81058532904049
 30
0.0
  0
SPLINE
  5
96
330
1F
100
AcDbEntity
  8
0
  6
Continuous
 62
     7
370
    15
100
AcDbSpline
210
0.0
220
0.0
230
1.0
 70
     8
 71
     3
 72
    14
 73
    10
 74
     0
 42
0.00000001
 43
0.00000001
 40
0.0
 40
0.0
 40
0.0
 40
0.0
 40
0.125
 40
0.125
 40
0.25
 40
0.25
 40
0.5
 40
0.5
 40
1.0
 40
1.0
 40
1.0
 40
1.0
 10
111.3754146513983
 20
92.38785339895777
 30
0.0
 10
111.4239590600555
 20
92.39360171223807
 30
0.0
 10
111.4768744148404
 20
92.39050082358183
 30
0.0
 10
111.5721697598234
 20
92.3683059794195
 30
0.0
 10
111.6124207571084
 20
92.35107375232364
 30
0.0
 10
111.7166907706213
 20
92.29474583587158
 30
0.0
 10
111.7670127457747
 20
92.25055948992578
 30
0.0
 10
111.8946956933
 20
92.11955159107515
 30
0.0
 10
111.9507811403623
 20
92.02931707084485
 30
0.0
 10
111.997127533484
 20
91.94117153667898
 30
0.0
  0
SPLINE
  5
97
330
1F
100
AcDbEntity
  8
0
  6
Continuous
 62
     7
370
    15
100
AcDbSpline
210
0.0
220
0.0
230
1.0
 70
     8
 71
     3
 72
     8
 73
     4
 74
     0
 42
0.00000001
 43
0.00000001
 40
0.0
 40
0.0
 40
0.0
 40
0.0
 40
1.0
 40
1.0
 40
1.0
 40
1.0
 10
109.106889558452
 20
92.07800811237497
 30
0.0
 10
109.841466584935
 20
92.19663312344393
 30
0.0
 10
110.6049416543307
 20
92.29661899558023
 30
0.0
 10
111.3754146513983
 20
92.38785339895777
 30
0.0
  0
SPLINE
  5
98
330
1F
100
AcDbEntity
  8
0
  6
Continuous
 62
     7
370
    15
100
AcDbSpline
210
0.0
220
0.0
230
1.0
 70
     8
 71
     3
 72
    14
 73
    10
 74
     0
 42
0.00000001
 43
0.00000001
 40
0.0
 40
0.0
 40
0.0
 40
0.0
 40
0.5000000000000002
 40
0.5000000000000002
 40
0.7500000000000002
 40
0.7500000000000002
 40
0.8750000000000001
 40
0.8750000000000001
 40
1.0
 40
1.0
 40
1.0
 40
1.0
 10
103.8254146513983
 20
91.90438509484333
 30
0.0
 10
104.7175607819518
 20
91.90366286864268
 30
0.0
 10
105.6075372177454
 20
91.90824907510014
 30
0.0
 10
106.934132384821
 20
91.93597407949169
 30
0.0
 10
107.3749793133198
 20
91.94858061711587
 30
0.0
 10
108.0314195507422
 20
91.97959676512329
 30
0.0
 10
108.2494332073341
 20
91.99193993775008
 30
0.0
 10
108.6821420610168
 20
92.02496399291336
 30
0.0
 10
108.8974185261816
 20
92.0441811580518
 30
0.0
 10
109.106889558452
 20
92.07800811237497
 30
0.0
  0
SPLINE
  5
99
330
1F
100
AcDbEntity
  8
0
  6
Continuous
 62
     7
370
    15
100
AcDbSpline
210
0.0
220
0.0
230
1.0
 70
     8
 71
     3
 72
     8
 73
     4
 74
     0
 42
0.00000001
 43
0.00000001
 40
0.0000005163856711
 40
0.0000005163856711
 40
0.0000005163856711
 40
0.0000005163856711
 40
0.000026289209185
 40
0.000026289209185
 40
0.000026289209185
 40
0.000026289209185
 10
103.8153697209796
 20
91.91436896795122
 30
0.0
 10
103.8186974591911
 20
91.9110347210784
 30
0.0
 10
103.8220459121704
 20
91.90770676379937
 30
0.0
 10
103.8254146513983
 20
91.90438509484332
 30
0.0
  0
SPLINE
  5
9A
330
1F
100
AcDbEntity
  8
0
  6
Continuous
 62
     7
370
    15
100
AcDbSpline
210
0.0
220
0.0
230
1.0
 70
     8
 71
     3
 72
     8
 73
     4
 74
     0
 42
0.00000001
 43
0.00000001
 40
0.0000005099763573
 40
0.0000005099763573
 40
0.0000005099763573
 40
0.0000005099763573
 40
0.0000262827998699
 40
0.0000262827998699
 40
0.0000262827998699
 40
0.0000262827998699
 10
103.8254146513983
 20
133.6442606256335
 30
0.0
 10
103.8220459121705
 20
133.6409389566776
 30
0.0
 10
103.8186974591914
 20
133.6376109993988
 30
0.0
 10
103.8153697209801
 20
133.6342767525261
 30
0.0
  0
SPLINE
  5
9B
330
1F
100
AcDbEntity
  8
0
  6
Continuous
 62
     7
370
    15
100
AcDbSpline
210
0.0
220
0.0
230
1.0
 70
     8
 71
     3
 72
    10
 73
     6
 74
     0
 42
0.00000001
 43
0.00000001
 40
0.0
 40
0.0
 40
0.0
 40
0.0
 40
0.5
 40
0.5
 40
1.0
 40
1.0
 40
1.0
 40
1.0
 10
107.3754146513983
 20
133.5974102520661
 30
0.0
 10
106.7878291043077
 20
133.6184757723026
 30
0.0
 10
106.1970827108473
 20
133.6292342581748
 30
0.0
 10
105.0130635455485
 20
133.6425990387104
 30
0.0
 10
104.419649557343
 20
133.644741681375
 30
0.0
 10
103.8254146513983
 20
133.6442606256335
 30
0.0
  0
SPLINE
  5
9C
330
1F
100
AcDbEntity
  8
0
  6
Continuous
 62
     7
370
    15
100
AcDbSpline
210
0.0
220
0.0
230
1.0
 70
     8
 71
     3
 72
    18
 73
    14
 74
     0
 42
0.00000001
 43
0.00000001
 40
0.0
 40
0.0
 40
0.0
 40
0.0
 40
0.2500000000000008
 40
0.2500000000000008
 40
0.5000000000000009
 40
0.5000000000000009
 40
0.7500000000000009
 40
0.7500000000000009
 40
0.875000000000001
 40
0.875000000000001
 40
0.9375000000000006
 40
0.9375000000000006
 40
1.0
 40
1.0
 40
1.0
 40
1.0
 10
108.7754146513983
 20
134.6184305326014
 30
0.0
 10
108.7754146513983
 20
134.5352236237442
 30
0.0
 10
108.73956555146
 20
134.4464869684306
 30
0.0
 10
108.6146938154261
 20
134.2643617778704
 30
0.0
 10
108.5242933977783
 20
134.1692317292438
 30
0.0
 10
108.3020507430361
 20
133.9800502201194
 30
0.0
 10
108.1722859565903
 20
133.8851050520247
 30
0.0
 10
107.9316484992788
 20
133.7468263444448
 30
0.0
 10
107.8438812011414
 20
133.7011159111424
 30
0.0
 10
107.6893571139345
 20
133.6432926059209
 30
0.0
 10
107.6327462278798
 20
133.6255778418831
 30
0.0
 10
107.5087021969732
 20
133.6010385386502
 30
0.0
 10
107.4409875219549
 20
133.5950594001119
 30
0.0
 10
107.3754146513983
 20
133.5974102520661
 30
0.0
  0
LINE
  5
9D
330
1F
100
AcDbEntity
  8
0
  6
Continuous
 62
     7
370
    15
100
AcDbLine
 10
108.7754146514
 20
134.6184305326
 30
0.0
 11
108.7754146514
 21
135.8023689524
 31
0.0
  0
LINE
  5
9E
330
1F
100
AcDbEntity
  8
0
  6
Continuous
 62
     7
370
    15
100
AcDbLine
 10
132.5754146514
 20
88.5538919985
 30
0.0
 11
132.5754146514
 21
136.994753722
 31
0.0
  0
SPLINE
  5
9F
330
1F
100
AcDbEntity
  8
0
  6
Continuous
 62
     7
370
    15
100
AcDbSpline
210
0.0
220
0.0
230
1.0
 70
     8
 71
     3
 72
    24
 73
    20
 74
     0
 42
0.00000001
 43
0.00000001
 40
0.0
 40
0.0
 40
0.0
 40
0.0
 40
0.0010489762969682
 40
0.0637843125639767
 40
0.1272220590447889
 40
0.19037889244876
 40
0.2526748653693632
 40
0.3146354154433589
 40
0.3770891997149993
 40
0.4393540298512636
 40
0.5008133242537819
 40
0.5621845104587263
 40
0.6248438451115537
 40
0.6874304766616293
 40
0.7496743174679374
 40
0.8119848426977089
 40
0.875096052541316
 40
0.9384412526965075
 40
0.9999999999999999
 40
0.9999999999999999
 40
0.9999999999999999
 40
0.9999999999999999
 10
121.344320483374
 20
89.11681443165826
 30
0.0
 10
121.3438740232698
 20
89.11675614583936
 30
0.0
 10
121.316726459576
 20
89.11321200389676
 30
0.0
 10
121.4123382371897
 20
89.12604574857963
 30
0.0
 10
121.6458984950841
 20
89.15529243377976
 30
0.0
 10
122.0414528024012
 20
89.20190675684266
 30
0.0
 10
122.5684931062419
 20
89.25208989850206
 30
0.0
 10
123.2120235182298
 20
89.29646636095232
 30
0.0
 10
123.9506973734748
 20
89.32341114188995
 30
0.0
 10
124.7482118789055
 20
89.32688299259584
 30
0.0
 10
125.5747907613476
 20
89.29925574856622
 30
0.0
 10
126.4003137789548
 20
89.24077685959297
 30
0.0
 10
127.1924403269558
 20
89.15533183023292
 30
0.0
 10
127.9250126009613
 20
89.05359759039658
 30
0.0
 10
128.5606528376894
 20
88.94575446842367
 30
0.0
 10
129.0825639446992
 20
88.84412431168457
 30
0.0
 10
129.4641927218146
 20
88.76163915500634
 30
0.0
 10
129.7150071920485
 20
88.7054899486567
 30
0.0
 10
129.7441287480328
 20
88.69864049004295
 30
0.0
 10
129.758481268849
 20
88.69526474331478
 30
0.0
  0
SPLINE
  5
A0
330
1F
100
AcDbEntity
  8
0
  6
Continuous
 62
     7
370
    15
100
AcDbSpline
210
0.0
220
0.0
230
1.0
 70
     8
 71
     3
 72
    24
 73
    20
 74
     0
 42
0.00000001
 43
0.00000001
 40
0.0
 40
0.0
 40
0.0
 40
0.0
 40
0.061438427625136
 40
0.1250736755369643
 40
0.1884253490730172
 40
0.2508623904037476
 40
0.3129665632512369
 40
0.3753451453465166
 40
0.4377328972325402
 40
0.4990927322917273
 40
0.5605807588448041
 40
0.6229469893028856
 40
0.6854686282026866
 40
0.7475477813740222
 40
0.8098225060807238
 40
0.8730684085990468
 40
0.9364041844533111
 40
0.9991757196257863
 40
1.0
 40
1.0
 40
1.0
 40
1.0
 10
129.758426498046
 20
136.8533518346958
 30
0.0
 10
129.7438257737423
 20
136.8499837778432
 30
0.0
 10
129.7141022550138
 20
136.8431272343694
 30
0.0
 10
129.4613644393656
 20
136.7867886138434
 30
0.0
 10
129.0783685229167
 20
136.7039315317134
 30
0.0
 10
128.5560129384786
 20
136.6020245017621
 30
0.0
 10
127.9212284604786
 20
136.4941853627184
 30
0.0
 10
127.1910048563061
 20
136.3927184107432
 30
0.0
 10
126.4005362710725
 20
136.3076586970525
 30
0.0
 10
125.5760527562441
 20
136.2494544031662
 30
0.0
 10
124.7490162973608
 20
136.2218709643396
 30
0.0
 10
123.9506920297088
 20
136.2253639418324
 30
0.0
 10
123.2108680654196
 20
136.2523198616855
 30
0.0
 10
122.5666138324441
 20
136.2966738036848
 30
0.0
 10
122.0392065772284
 20
136.3468792534426
 30
0.0
 10
121.6445419750786
 20
136.393489108641
 30
0.0
 10
121.4120126958937
 20
136.4226847011883
 30
0.0
 10
121.3166326633415
 20
136.4354627701301
 30
0.0
 10
121.3435663002429
 20
136.4319085116218
 30
0.0
 10
121.3439153934672
 20
136.4318624440385
 30
0.0
  0
SPLINE
  5
A1
330
1F
100
AcDbEntity
  8
0
  6
Continuous
 62
     7
370
    15
100
AcDbSpline
210
0.0
220
0.0
230
1.0
 70
     8
 71
     3
 72
    10
 73
     6
 74
     0
 42
0.00000001
 43
0.00000001
 40
0.0
 40
0.0
 40
0.0
 40
0.0
 40
0.0840381716605994
 40
0.7011125076933077
 40
1.0
 40
1.0
 40
1.0
 40
1.0
 10
102.688961613934
 20
93.04554895255507
 30
0.0
 10
102.6896361712689
 20
93.04334332571918
 30
0.0
 10
102.6952638589651
 20
93.02494225235696
 30
0.0
 10
102.7215853390919
 20
93.03917681508011
 30
0.0
 10
102.7340203559366
 20
93.0848625906311
 30
0.0
 10
102.7380780261217
 20
93.09977031545769
 30
0.0
  0
LINE
  5
A2
330
1F
100
AcDbEntity
  8
0
  6
Continuous
 62
     7
370
    15
100
AcDbLine
 10
102.6754146514
 20
93.0836451138
 30
0.0
 11
102.6754146514
 21
132.4650006067
 31
0.0
  0
SPLINE
  5
A3
330
1F
100
AcDbEntity
  8
0
  6
Continuous
 62
     7
370
    15
100
AcDbSpline
210
0.0
220
0.0
230
1.0
 70
     8
 71
     3
 72
    10
 73
     6
 74
     0
 42
0.00000001
 43
0.00000001
 40
0.0
 40
0.0
 40
0.0
 40
0.0
 40
0.5
 40
0.5
 40
1.0
 40
1.0
 40
1.0
 40
1.0
 10
102.7380780261217
 20
132.4488754050192
 30
0.0
 10
102.7291737370129
 20
132.4946169242323
 30
0.0
 10
102.7126583568199
 20
132.5118077637013
 30
0.0
 10
102.6855504107583
 20
132.5114844867656
 30
0.0
 10
102.6754146513983
 20
132.4936069444691
 30
0.0
 10
102.6754146513983
 20
132.4650006067165
 30
0.0
  0
SPLINE
  5
A4
330
1F
100
AcDbEntity
  8
0
  6
Continuous
 62
     7
370
    15
100
AcDbSpline
210
0.0
220
0.0
230
1.0
 70
     8
 71
     3
 72
    26
 73
    22
 74
     0
 42
0.00000001
 43
0.00000001
 40
0.0
 40
0.0
 40
0.0
 40
0.0
 40
0.2500000000000165
 40
0.2500000000000165
 40
0.3750000000000256
 40
0.3750000000000256
 40
0.4375000000000291
 40
0.4375000000000291
 40
0.4687500000000291
 40
0.4687500000000291
 40
0.5000000000000292
 40
0.5000000000000292
 40
0.5312500000000293
 40
0.5312500000000293
 40
0.5625000000000293
 40
0.5625000000000293
 40
0.625000000000026
 40
0.625000000000026
 40
0.7500000000000173
 40
0.7500000000000173
 40
1.0
 40
1.0
 40
1.0
 40
1.0
 10
103.4995682975028
 20
133.1644421938362
 30
0.0
 10
103.4609677746343
 20
133.0466674974808
 30
0.0
 10
103.4146707720801
 20
132.9222778113189
 30
0.0
 10
103.3207314236462
 20
132.7170584789654
 30
0.0
 10
103.2854199567327
 20
132.645485612519
 30
0.0
 10
103.219239980987
 20
132.5295323799185
 30
0.0
 10
103.1947016143188
 20
132.4889478451083
 30
0.0
 10
103.151328868765
 20
132.4248061632365
 30
0.0
 10
103.1358204673398
 20
132.4029397379515
 30
0.0
 10
103.1007778227528
 20
132.3573454696082
 30
0.0
 10
103.081227532033
 20
132.3336751786408
 30
0.0
 10
103.0393002516624
 20
132.2890586193009
 30
0.0
 10
103.0166481414307
 20
132.268178606783
 30
0.0
 10
102.9756744273441
 20
132.2373051930322
 30
0.0
 10
102.9580751274487
 20
132.2274663231998
 30
0.0
 10
102.9134481415926
 20
132.2084767075036
 30
0.0
 10
102.8928889189392
 20
132.2081523828502
 30
0.0
 10
102.8417634794425
 20
132.2173758237264
 30
0.0
 10
102.820852066454
 20
132.2386227199433
 30
0.0
 10
102.7694021588931
 20
132.3125915987741
 30
0.0
 10
102.7517368595885
 20
132.3787096920889
 30
0.0
 10
102.7380780261217
 20
132.4488754050192
 30
0.0
  0
SPLINE
  5
A5
330
1F
100
AcDbEntity
  8
0
  6
Continuous
 62
     7
370
    15
100
AcDbSpline
210
0.0
220
0.0
230
1.0
 70
     8
 71
     3
 72
    10
 73
     6
 74
     0
 42
0.00000001
 43
0.00000001
 40
0.0
 40
0.0
 40
0.0
 40
0.0
 40
0.5
 40
0.5
 40
1.0
 40
1.0
 40
1.0
 40
1.0
 10
103.8153697209801
 20
133.6342767525261
 30
0.0
 10
103.7478104660618
 20
133.5665853597163
 30
0.0
 10
103.6841738107254
 20
133.4918781949627
 30
0.0
 10
103.5739530561535
 20
133.332912062536
 30
0.0
 10
103.5271367629309
 20
133.248556796528
 30
0.0
 10
103.4995682975028
 20
133.1644421938362
 30
0.0
  0
SPLINE
  5
A6
330
1F
100
AcDbEntity
  8
0
  6
Continuous
 62
     7
370
    15
100
AcDbSpline
210
0.0
220
0.0
230
1.0
 70
     8
 71
     3
 72
    10
 73
     6
 74
     0
 42
0.00000001
 43
0.00000001
 40
0.0
 40
0.0
 40
0.0
 40
0.0
 40
0.5
 40
0.5
 40
1.0
 40
1.0
 40
1.0
 40
1.0
 10
103.4995682975028
 20
92.38420352664043
 30
0.0
 10
103.527045712256
 20
92.30036673017484
 30
0.0
 10
103.5737543425437
 20
92.21605624258802
 30
0.0
 10
103.6840328052857
 20
92.05693501210517
 30
0.0
 10
103.7479203438973
 20
91.98195026801709
 30
0.0
 10
103.8153697209796
 20
91.91436896795123
 30
0.0
  0
SPLINE
  5
A7
330
1F
100
AcDbEntity
  8
0
  6
Continuous
 62
     7
370
    15
100
AcDbSpline
210
0.0
220
0.0
230
1.0
 70
     8
 71
     3
 72
    24
 73
    20
 74
     0
 42
0.00000001
 43
0.00000001
 40
0.0
 40
0.0
 40
0.0
 40
0.0
 40
0.249999999999999
 40
0.249999999999999
 40
0.3749999999999983
 40
0.3749999999999983
 40
0.4374999999999987
 40
0.4374999999999987
 40
0.4687499999999975
 40
0.4687499999999975
 40
0.4999999999999963
 40
0.4999999999999963
 40
0.5624999999999984
 40
0.5624999999999984
 40
0.6250000000000006
 40
0.6250000000000006
 40
0.7500000000000001
 40
0.7500000000000001
 40
1.0
 40
1.0
 40
1.0
 40
1.0
 10
102.7380780261217
 20
93.09977031545766
 30
0.0
 10
102.7518311447919
 20
93.17042037344794
 30
0.0
 10
102.7696037121978
 20
93.23701848621288
 30
0.0
 10
102.8218548037531
 20
93.31111650644608
 30
0.0
 10
102.8428898793347
 20
93.33237431360763
 30
0.0
 10
102.8957902869631
 20
93.34052023975389
 30
0.0
 10
102.916895959841
 20
93.33958043635809
 30
0.0
 10
102.962948128519
 20
93.31856444478075
 30
0.0
 10
102.9813186005024
 20
93.30765563867314
 30
0.0
 10
103.0228702355681
 20
93.27502072772577
 30
0.0
 10
103.045436908325
 20
93.2535287473544
 30
0.0
 10
103.1082179247851
 20
93.18506280376808
 30
0.0
 10
103.1413476857529
 20
93.13898834556299
 30
0.0
 10
103.198265372238
 20
93.05398045722832
 30
0.0
 10
103.2224513977417
 20
93.01370015604694
 30
0.0
 10
103.2876593481215
 20
92.89876392958101
 30
0.0
 10
103.3223754083127
 20
92.82818094443398
 30
0.0
 10
103.4155906786436
 20
92.62397518535539
 30
0.0
 10
103.4612632140043
 20
92.50107680302803
 30
0.0
 10
103.4995682975028
 20
92.38420352664045
 30
0.0
  0
SPLINE
  5
A8
330
1F
100
AcDbEntity
  8
0
  6
Continuous
 62
     7
370
    15
100
AcDbSpline
210
0.0
220
0.0
230
1.0
 70
     8
 71
     3
 72
     8
 73
     4
 74
     0
 42
0.00000001
 43
0.00000001
 40
0.0
 40
0.0
 40
0.0
 40
0.0
 40
1.0
 40
1.0
 40
1.0
 40
1.0
 10
149.1834818199092
 20
137.2330125226058
 30
0.0
 10
149.6905686616685
 20
136.1018621684422
 30
0.0
 10
150.1861365008085
 20
134.9654777576743
 30
0.0
 10
150.6654146513983
 20
133.8244665278217
 30
0.0
  0
LINE
  5
A9
330
1F
100
AcDbEntity
  8
0
  6
Continuous
 62
     7
370
    15
100
AcDbLine
 10
150.6654146514
 20
133.8244665278
 30
0.0
 11
150.6654146514
 21
132.9101894917
 31
0.0
  0
SPLINE
  5
AA
330
1F
100
AcDbEntity
  8
0
  6
Continuous
 62
     7
370
    15
100
AcDbSpline
210
0.0
220
0.0
230
1.0
 70
     8
 71
     3
 72
     8
 73
     4
 74
     0
 42
0.00000001
 43
0.00000001
 40
0.0
 40
0.0
 40
0.0
 40
0.0
 40
1.0
 40
1.0
 40
1.0
 40
1.0
 10
150.6654146513983
 20
140.57955705141
 30
0.0
 10
150.1727045545525
 20
141.4675760495364
 30
0.0
 10
149.6786218492736
 20
142.3548386852224
 30
0.0
 10
149.1834818199092
 20
143.2415183334026
 30
0.0
  0
LINE
  5
AB
330
1F
100
AcDbEntity
  8
0
  6
Continuous
 62
     7
370
    15
100
AcDbLine
 10
150.6654146514
 20
133.8244665278
 30
0.0
 11
150.6654146514
 21
140.5795570514
 31
0.0
  0
LINE
  5
AC
330
1F
100
AcDbEntity
  8
0
  6
Continuous
 62
     7
370
    15
100
AcDbLine
 10
159.9254146514
 20
143.2415183334
 30
0.0
 11
155.9673474829
 21
143.2415183334
 31
0.0
  0
LINE
  5
AD
330
1F
100
AcDbEntity
  8
0
  6
Continuous
 62
     7
370
    15
100
AcDbLine
 10
155.9673474829
 20
137.2330125226
 30
0.0
 11
159.9254146514
 21
137.2330125226
 31
0.0
  0
LINE
  5
AE
330
1F
100
AcDbEntity
  8
0
  6
Continuous
 62
     7
370
    15
100
AcDbLine
 10
155.9673474829
 20
137.2330125226
 30
0.0
 11
155.9673474829
 21
143.2415183334
 31
0.0
  0
SPLINE
  5
AF
330
1F
100
AcDbEntity
  8
0
  6
Continuous
 62
     7
370
    15
100
AcDbSpline
210
0.0
220
0.0
230
1.0
 70
     8
 71
     3
 72
     8
 73
     4
 74
     0
 42
0.00000001
 43
0.00000001
 40
0.0
 40
0.0
 40
0.0
 40
0.0
 40
1.0
 40
1.0
 40
1.0
 40
1.0
 10
155.9673474828873
 20
143.2415183334026
 30
0.0
 10
155.472207453523
 20
142.3548386852224
 30
0.0
 10
154.9781247482441
 20
141.4675760495364
 30
0.0
 10
154.4854146513983
 20
140.57955705141
 30
0.0
  0
SPLINE
  5
B0
330
1F
100
AcDbEntity
  8
0
  6
Continuous
 62
     7
370
    15
100
AcDbSpline
210
0.0
220
0.0
230
1.0
 70
     8
 71
     3
 72
     8
 73
     4
 74
     0
 42
0.00000001
 43
0.00000001
 40
0.0
 40
0.0
 40
0.0
 40
0.0
 40
1.0
 40
1.0
 40
1.0
 40
1.0
 10
154.4854146513983
 20
133.8244665278217
 30
0.0
 10
154.9646928019881
 20
134.9654777576743
 30
0.0
 10
155.4602606411281
 20
136.1018621684422
 30
0.0
 10
155.9673474828873
 20
137.2330125226058
 30
0.0
  0
LINE
  5
B1
330
1F
100
AcDbEntity
  8
0
  6
Continuous
 62
     7
370
    15
100
AcDbLine
 10
154.4854146514
 20
133.8244665278
 30
0.0
 11
154.4854146514
 21
140.5795570514
 31
0.0
  0
SPLINE
  5
B2
330
1F
100
AcDbEntity
  8
0
  6
Continuous
 62
     7
370
    15
100
AcDbSpline
210
0.0
220
0.0
230
1.0
 70
     8
 71
     3
 72
    10
 73
     6
 74
     0
 42
0.00000001
 43
0.00000001
 40
0.0
 40
0.0
 40
0.0
 40
0.0
 40
0.5
 40
0.5
 40
1.0
 40
1.0
 40
1.0
 40
1.0
 10
160.5254146513983
 20
142.6207631840023
 30
0.0
 10
160.5254146513983
 20
142.7811684503531
 30
0.0
 10
160.4631768202914
 20
142.9402302633417
 30
0.0
 10
160.2440418965489
 20
143.171142728972
 30
0.0
 10
160.086453201557
 20
143.2415183334026
 30
0.0
 10
159.9254146513983
 20
143.2415183334026
 30
0.0
  0
SPLINE
  5
B3
330
1F
100
AcDbEntity
  8
0
  6
Continuous
 62
     7
370
    15
100
AcDbSpline
210
0.0
220
0.0
230
1.0
 70
     8
 71
     3
 72
    12
 73
     8
 74
     0
 42
0.00000001
 43
0.00000001
 40
0.0
 40
0.0
 40
0.0
 40
0.0
 40
0.2499999999999987
 40
0.2499999999999987
 40
0.4999999999999973
 40
0.4999999999999973
 40
1.0
 40
1.0
 40
1.0
 40
1.0
 10
159.9254146513983
 20
137.2330125226059
 30
0.0
 10
160.0166143732239
 20
137.2330125226059
 30
0.0
 10
160.1072093823599
 20
137.2047928240179
 30
0.0
 10
160.2606221088066
 20
137.1103498167699
 30
0.0
 10
160.3258309761303
 20
137.0440628400645
 30
0.0
 10
160.4786155054702
 20
136.8184380167762
 30
0.0
 10
160.5254146513983
 20
136.6360117537437
 30
0.0
 10
160.5254146513983
 20
136.4552751214968
 30
0.0
  0
LINE
  5
B4
330
1F
100
AcDbEntity
  8
0
  6
Continuous
 62
     7
370
    15
100
AcDbLine
 10
160.5254146514
 20
136.4552751215
 30
0.0
 11
160.5254146514
 21
142.620763184
 31
0.0
  0
LINE
  5
B5
330
1F
100
AcDbEntity
  8
0
  6
Continuous
 62
     7
370
    15
100
AcDbLine
 10
154.4854146514
 20
132.9101894917
 30
0.0
 11
154.4854146514
 21
133.8244665278
 31
0.0
  0
LINE
  5
B6
330
1F
100
AcDbEntity
  8
0
  6
Continuous
 62
     7
370
    15
100
AcDbLine
 10
160.5254146514
 20
136.4552751215
 30
0.0
 11
160.5254146514
 21
132.6243228602
 31
0.0
  0
ARC
  5
B7
330
1F
100
AcDbEntity
  8
0
  6
Continuous
 62
     7
370
    15
100
AcDbCircle
 10
142.5752657781
 20
131.4502868117
 30
0.0
 40
7.27700777311119
100
AcDbArc
 50
70.7942742176
 51
109.1686596225
  0
SPLINE
  5
B8
330
1F
100
AcDbEntity
  8
0
  6
Continuous
 62
     7
370
    15
100
AcDbSpline
210
0.0
220
0.0
230
1.0
 70
     8
 71
     3
 72
    39
 73
    35
 74
     0
 42
0.00000001
 43
0.00000001
 40
-0.093010121467447
 40
-0.0618280028304131
 40
-0.0306436199925724
 40
0.0
 40
0.0306596107137419
 40
0.0618452964001027
 40
0.0930163102304097
 40
0.1240785945074901
 40
0.1552163478468256
 40
0.1868112107939299
 40
0.2185267826068722
 40
0.2499192584027662
 40
0.2813177417187971
 40
0.3130921101016712
 40
0.3447271324213176
 40
0.3759220232797124
 40
0.4069779730811028
 40
0.4381192479309824
 40
0.4692677792204132
 40
0.5000093392007185
 40
0.5307192062576107
 40
0.5619180231307598
 40
0.593048639430098
 40
0.6241331762561606
 40
0.6552964593293159
 40
0.6869387764013567
 40
0.7186659751614038
 40
0.750082642395389
 40
0.78145237121286
 40
0.8132065805150042
 40
0.8447916839907131
 40
0.8759584677019101
 40
0.9069898785325529
 40
0.9381719971695868
 40
0.9693563800074275
 40
0.9999999999999999
 40
1.030659610713742
 40
1.061845296400103
 40
1.09301631023041
 10
182.648030805052
 20
109.8293984342366
 30
0.0
 10
182.0753091532965
 20
109.7713477903455
 30
0.0
 10
181.5026185414247
 20
109.8295822242249
 30
0.0
 10
180.9521346408345
 20
110.0046175109646
 30
0.0
 10
180.4430669253342
 20
110.2801571846111
 30
0.0
 10
180.0007863254548
 20
110.652142373567
 30
0.0
 10
179.6376197317648
 20
111.1049911862196
 30
0.0
 10
179.3693045473904
 20
111.6249826059164
 30
0.0
 10
179.199037891176
 20
112.1877397379399
 30
0.0
 10
179.1427856746177
 20
112.7728650734589
 30
0.0
 10
179.1992092197607
 20
113.3583176174101
 30
0.0
 10
179.3693092197265
 20
113.9217828278757
 30
0.0
 10
179.6375138438655
 20
114.4429228783284
 30
0.0
 10
180.0007427751771
 20
114.8964588861999
 30
0.0
 10
180.4428046685265
 20
115.2688709919056
 30
0.0
 10
180.9512799024973
 20
115.5446018580869
 30
0.0
 10
181.5019819598156
 20
115.7193932835559
 30
0.0
 10
182.075389450419
 20
115.7772205934991
 30
0.0
 10
182.6491036963782
 20
115.7193380120955
 30
0.0
 10
183.1998051615982
 20
115.5443545664518
 30
0.0
 10
183.7086372021063
 20
115.268422939777
 30
0.0
 10
184.1505685855194
 20
114.8959615248719
 30
0.0
 10
184.5137169505803
 20
114.4423450466349
 30
0.0
 10
184.7816893832628
 20
113.9215710388348
 30
0.0
 10
184.9516362124795
 20
113.3582109237586
 30
0.0
 10
185.0080368899438
 20
112.7730786241932
 30
0.0
 10
184.9518044813065
 20
112.1877427169211
 30
0.0
 10
184.7814793052374
 20
111.6249544176372
 30
0.0
 10
184.5130186710053
 20
111.1046419351016
 30
0.0
 10
184.1498092872109
 20
110.6519031583444
 30
0.0
 10
183.7074229688069
 20
110.2799625522483
 30
0.0
 10
183.1984314196173
 20
110.0045739873118
 30
0.0
 10
182.648030805052
 20
109.8293984342366
 30
0.0
 10
182.0753091532965
 20
109.7713477903455
 30
0.0
 10
181.5026185414247
 20
109.8295822242249
 30
0.0
  0
LINE
  5
B9
330
1F
100
AcDbEntity
  8
0
  6
Continuous
 62
     7
370
    15
100
AcDbLine
 10
185.6361196681
 20
97.7743228602
 30
0.0
 11
185.6361196681
 21
127.7743228602
 31
0.0
  0
LINE
  5
BA
330
1F
100
AcDbEntity
  8
0
  6
Continuous
 62
     7
370
    15
100
AcDbLine
 10
199.5754146514
 20
105.5484633819
 30
0.0
 11
199.5754146514
 21
120.0001823386
 31
0.0
  0
CIRCLE
  5
BB
330
1F
100
AcDbEntity
  8
0
  6
HIDDEN
 62
     7
370
     0
100
AcDbCircle
 10
182.0754146514
 20
112.7743228602
 30
0.0
 40
3.000000000000043
  0
CIRCLE
  5
BC
330
1F
100
AcDbEntity
  8
0
  6
HIDDEN
 62
     7
370
     0
100
AcDbCircle
 10
182.0754146514
 20
112.7743228602
 30
0.0
 40
1.250000000000034
  0
CIRCLE
  5
BD
330
1F
100
AcDbEntity
  8
0
  6
HIDDEN
 62
     7
370
     0
100
AcDbCircle
 10
182.0754146514
 20
112.7743228602
 30
0.0
 40
2.100000000000024
  0
LINE
  5
BE
330
1F
100
AcDbEntity
  8
0
  6
HIDDEN
 62
     7
370
     0
100
AcDbLine
 10
149.1834818199
 20
137.2330125226
 30
0.0
 11
149.1834818199
 21
132.6243228602
 31
0.0
  0
ARC
  5
BF
330
1F
100
AcDbEntity
  8
0
  6
HIDDEN
 62
     7
370
     0
100
AcDbCircle
 10
142.8538263329
 20
125.2697969966
 30
0.0
 40
3.676117540813878
100
AcDbArc
 50
265.6565308059
 51
13.3461199587
  0
ARC
  5
C0
330
1F
100
AcDbEntity
  8
0
  6
HIDDEN
 62
     7
370
     0
100
AcDbCircle
 10
142.2989049233
 20
125.2746342425
 30
0.0
 40
3.680797544585976
100
AcDbArc
 50
167.6298590444
 51
274.3082455117
  0
LINE
  5
C1
330
1F
100
AcDbEntity
  8
0
  6
HIDDEN
 62
     7
370
     0
100
AcDbLine
 10
122.570564856
 20
89.2497232374
 30
0.0
 11
122.3189072618
 21
89.226201616
 31
0.0
  0
LINE
  5
C2
330
1F
100
AcDbEntity
  8
0
  6
HIDDEN
 62
     7
370
     0
100
AcDbLine
 10
122.1962156431
 20
136.3337538928
 30
0.0
 11
122.5704721357
 21
136.2989058902
 31
0.0
  0
SPLINE
  5
C3
330
1F
100
AcDbEntity
  8
0
  6
HIDDEN
 62
     7
370
     0
100
AcDbSpline
210
0.0
220
0.0
230
1.0
 70
     8
 71
     3
 72
    32
 73
    28
 74
     0
 42
0.00000001
 43
0.00000001
 40
0.0
 40
0.0
 40
0.0
 40
0.0
 40
0.0346246159901393
 40
0.0694870388940024
 40
0.105100760954932
 40
0.1409753874086759
 40
0.175600572118933
 40
0.2104692408125612
 40
0.2461122854708171
 40
0.2820258067991323
 40
0.3162663828049038
 40
0.3859338563640314
 40
0.4214461814158482
 40
0.4553763558770599
 40
0.5243713305904969
 40
0.559512463821912
 40
0.5937987343035772
 40
0.6635059787021125
 40
0.6990055363805019
 40
0.7337623601246064
 40
0.7687606633024605
 40
0.8045245907686109
 40
0.8405553812432469
 40
0.8751701211305551
 40
0.9456085132854554
 40
0.9815233266320909
 40
1.0
 40
1.0
 40
1.0
 40
1.0
 10
128.3304166529999
 20
92.93679438442194
 30
0.0
 10
128.2584183511535
 20
92.94658232733026
 30
0.0
 10
128.1139272526203
 20
92.9662254381667
 30
0.0
 10
127.8726073183618
 20
92.99567465678841
 30
0.0
 10
127.6133090673762
 20
93.02422503887884
 30
0.0
 10
127.3393216482436
 20
93.05065625783365
 30
0.0
 10
127.054693867222
 20
93.07410873518498
 30
0.0
 10
126.7601089082539
 20
93.09410619164358
 30
0.0
 10
126.4531779992856
 20
93.11026187014731
 30
0.0
 10
126.1414465335331
 20
93.12170385784283
 30
0.0
 10
125.7241809848477
 20
93.13039498554066
 30
0.0
 10
125.3035379914901
 20
93.12910692908046
 30
0.0
 10
124.8901344383247
 20
93.11787911771299
 30
0.0
 10
124.4852904752574
 20
93.10058084563212
 30
0.0
 10
124.0946523906952
 20
93.0748652018639
 30
0.0
 10
123.7258713126539
 20
93.04277189096699
 30
0.0
 10
123.3724535304055
 20
93.00721368246455
 30
0.0
 10
123.0470124400846
 20
92.96796522612895
 30
0.0
 10
122.7576352343673
 20
92.92833370875661
 30
0.0
 10
122.559721357392
 20
92.89919796561435
 30
0.0
 10
122.3823943933545
 20
92.87146373330161
 30
0.0
 10
122.2257850648419
 20
92.84568318904722
 30
0.0
 10
122.0941375451393
 20
92.82307655231305
 30
0.0
 10
121.9522763495675
 20
92.79789050700639
 30
0.0
 10
121.8634577617519
 20
92.7814449578828
 30
0.0
 10
121.8266348232015
 20
92.77455212706658
 30
0.0
 10
121.8280509703747
 20
92.77481711297581
 30
0.0
 10
121.8285320325839
 20
92.77490712813052
 30
0.0
  0
SPLINE
  5
C4
330
1F
100
AcDbEntity
  8
0
  6
HIDDEN
 62
     7
370
     0
100
AcDbSpline
210
0.0
220
0.0
230
1.0
 70
     8
 71
     3
 72
    30
 73
    26
 74
     0
 42
0.00000001
 43
0.00000001
 40
0.0
 40
0.0
 40
0.0
 40
0.0
 40
0.0156161600804338
 40
0.0849748372628083
 40
0.1203204532886746
 40
0.15431851909124
 40
0.2234436946574014
 40
0.2586467089786606
 40
0.2931107206687012
 40
0.3631864361325605
 40
0.3988795186727329
 40
0.4336750628309725
 40
0.468714571210481
 40
0.5045294144990545
 40
0.5406151111978533
 40
0.575076786372292
 40
0.6452033649630279
 40
0.6809575734718862
 40
0.7149323277721686
 40
0.7840330582955269
 40
0.8192378401372485
 40
0.8533347063218408
 40
0.9226550151093995
 40
0.9579547149334489
 40
1.0
 40
1.0
 40
1.0
 40
1.0
 10
121.8285320325839
 20
132.7737385923463
 30
0.0
 10
121.8279342934988
 20
132.773850845228
 30
0.0
 10
121.8246817153221
 20
132.7744616657053
 30
0.0
 10
121.8750026177705
 20
132.7650025312481
 30
0.0
 10
121.9753076468117
 20
132.746697695152
 30
0.0
 10
122.1099246348814
 20
132.7227143897782
 30
0.0
 10
122.2919832799115
 20
132.6916155956318
 30
0.0
 10
122.5189058535768
 20
132.6556964515894
 30
0.0
 10
122.7754922589541
 20
132.6173774304503
 30
0.0
 10
123.0735289174268
 20
132.5771322951421
 30
0.0
 10
123.4060781714266
 20
132.5384712717398
 30
0.0
 10
123.6712758768309
 20
132.5110686130086
 30
0.0
 10
123.9503337020898
 20
132.4860237763964
 30
0.0
 10
124.244784717984
 20
132.4638560791008
 30
0.0
 10
124.5476496513002
 20
132.4456939918308
 30
0.0
 10
124.958035638169
 20
132.4274358868364
 30
0.0
 10
125.3788764771238
 20
132.418588652832
 30
0.0
 10
125.7987803943527
 20
132.4200540472732
 30
0.0
 10
126.2133949152065
 20
132.4280974404405
 30
0.0
 10
126.6196160346823
 20
132.4456042260398
 30
0.0
 10
127.0091465344042
 20
132.4711695390676
 30
0.0
 10
127.3859672356426
 20
132.5013537747818
 30
0.0
 10
127.7391043953466
 20
132.5372513496293
 30
0.0
 10
128.0808558831682
 20
132.5780696274879
 30
0.0
 10
128.2425296441777
 20
132.5999545410544
 30
0.0
 10
128.3304166529999
 20
132.6118513360549
 30
0.0
  0
SPLINE
  5
C5
330
1F
100
AcDbEntity
  8
0
  6
HIDDEN
 62
     7
370
     0
100
AcDbSpline
210
0.0
220
0.0
230
1.0
 70
     8
 71
     3
 72
    15
 73
    11
 74
     0
 42
0.00000001
 43
0.00000001
 40
0.0
 40
0.0
 40
0.0
 40
0.0
 40
0.1100669146264466
 40
0.2209079853747747
 40
0.3341769377373524
 40
0.4482804100646753
 40
0.5583702870110737
 40
0.7822568428074258
 40
0.896314158850245
 40
1.0
 40
1.0
 40
1.0
 40
1.0
 10
128.3304166529999
 20
132.6118513360549
 30
0.0
 10
128.3980106393184
 20
132.6209195901371
 30
0.0
 10
128.5336740345518
 20
132.639119879906
 30
0.0
 10
128.7141194613449
 20
132.6598409353712
 30
0.0
 10
128.8762682275135
 20
132.6765806201774
 30
0.0
 10
129.0143194053832
 20
132.6891627340754
 30
0.0
 10
129.1659599664004
 20
132.7015415238736
 30
0.0
 10
129.2674065897571
 20
132.7084988717534
 30
0.0
 10
129.3188240559657
 20
132.7117957526565
 30
0.0
 10
129.3227789586811
 20
132.7120410612872
 30
0.0
 10
129.3246622206858
 20
132.71215787337
 30
0.0
  0
SPLINE
  5
C6
330
1F
100
AcDbEntity
  8
0
  6
HIDDEN
 62
     7
370
     0
100
AcDbSpline
210
0.0
220
0.0
230
1.0
 70
     8
 71
     3
 72
    17
 73
    13
 74
     0
 42
0.00000001
 43
0.00000001
 40
0.0
 40
0.0
 40
0.0
 40
0.0
 40
0.0069097619628666
 40
0.1182592332907984
 40
0.2320228732222235
 40
0.3466212859249285
 40
0.4573466823462189
 40
0.5688445825279483
 40
0.6827867196215237
 40
0.7975785318071426
 40
0.898491623517771
 40
1.0
 40
1.0
 40
1.0
 40
1.0
 10
129.3246665495366
 20
92.83648757364301
 30
0.0
 10
129.324914002151
 20
92.83647194669524
 30
0.0
 10
129.3291491055606
 20
92.83620449452057
 30
0.0
 10
129.3132263608639
 20
92.83720154435743
 30
0.0
 10
129.2742148747811
 20
92.83971782031276
 30
0.0
 10
129.2057615618007
 20
92.84441550405117
 30
0.0
 10
129.1130098970535
 20
92.85136535150446
 30
0.0
 10
128.9957182440103
 20
92.86109484120922
 30
0.0
 10
128.8528816242552
 20
92.87434184672391
 30
0.0
 10
128.6913322278943
 20
92.89132893560391
 30
0.0
 10
128.5175288884456
 20
92.9116215759703
 30
0.0
 10
128.392909559086
 20
92.92838701356912
 30
0.0
 10
128.3304166529999
 20
92.93679438442194
 30
0.0
  0
LINE
  5
C7
330
1F
100
AcDbEntity
  8
0
  6
HIDDEN
 62
     7
370
     0
100
AcDbLine
 10
115.5793892476
 20
95.7743228602
 30
0.0
 11
115.5793892476
 21
129.7743228602
 31
0.0
  0
LWPOLYLINE
  5
C8
330
1F
100
AcDbEntity
  8
0
  6
HIDDEN
 62
     7
370
     0
100
AcDbPolyline
 90
       15
 70
   128
 43
0.0
 10
142.5754146514
 20
134.7199252749
 10
143.3104127227
 20
134.7539790755
 10
144.0203813161
 20
134.8549808161
 10
144.6811433029
 20
135.0194910034
 10
145.270197226
 20
135.2419074404
 10
145.7674835605
 20
135.5146560021
 10
146.1560678168
 20
135.8284485633
 10
146.4227172241
 20
136.1725992947
 10
146.5583513566
 20
136.535388556
 10
146.5583513566
 20
136.9044619938
 10
146.4227172241
 20
137.267251255
 10
146.1560678168
 20
137.6114019864
 10
145.7674835605
 20
137.9251945476
 10
145.270197226
 20
138.1979431093
 10
144.9691176789
 20
138.3222818064
  0
LWPOLYLINE
  5
C9
330
1F
100
AcDbEntity
  8
0
  6
HIDDEN
 62
     7
370
     0
100
AcDbPolyline
 90
       15
 70
   128
 43
0.0
 10
140.1858600537
 20
138.3238290146
 10
139.8806320768
 20
138.1979431093
 10
139.3833457423
 20
137.9251945476
 10
138.994761486
 20
137.6114019864
 10
138.7281120787
 20
137.267251255
 10
138.5924779462
 20
136.9044619938
 10
138.5924779462
 20
136.535388556
 10
138.7281120787
 20
136.1725992947
 10
138.994761486
 20
135.8284485633
 10
139.3833457423
 20
135.5146560021
 10
139.8806320768
 20
135.2419074404
 10
140.4696859999
 20
135.0194910034
 10
141.1304479866
 20
134.8549808161
 10
141.8404165801
 20
134.7539790755
 10
142.5754146514
 20
134.7199252749
  0
SPLINE
  5
CA
330
1F
100
AcDbEntity
  8
0
  6
HIDDEN
 62
     7
370
     0
100
AcDbSpline
210
0.0
220
0.0
230
1.0
 70
     8
 71
     3
 72
    11
 73
     7
 74
     0
 42
0.00000001
 43
0.00000001
 40
0.0
 40
0.0
 40
0.0
 40
0.0
 40
0.0005779865010846
 40
0.0005779865010846
 40
0.0005779865010846
 40
0.0011559733324422
 40
0.0011559733324422
 40
0.0011559733324422
 40
0.0011559733324422
 10
102.6754146513983
 20
114.7741634683984
 30
0.0
 10
102.8420819062043
 20
114.7721798290577
 30
0.0
 10
103.0087483358819
 20
114.7701422220494
 30
0.0
 10
103.1754146743338
 20
114.7680307586433
 30
0.0
 10
103.3420811031602
 20
114.7659192940922
 30
0.0
 10
103.5087474767978
 20
114.7637337309362
 30
0.0
 10
103.6754146513983
 20
114.7614511536048
 30
0.0
  0
SPLINE
  5
CB
330
1F
100
AcDbEntity
  8
0
  6
HIDDEN
 62
     7
370
     0
100
AcDbSpline
210
0.0
220
0.0
230
1.0
 70
     8
 71
     3
 72
    11
 73
     7
 74
     0
 42
0.00000001
 43
0.00000001
 40
0.0
 40
0.0
 40
0.0
 40
0.0
 40
0.0005782382535738
 40
0.0005782382535738
 40
0.0005782382535738
 40
0.0011564766069467
 40
0.0011564766069467
 40
0.0011564766069467
 40
0.0011564766069467
 10
103.6754146513983
 20
110.7776225580202
 30
0.0
 10
103.5087606974297
 20
110.7771849802585
 30
0.0
 10
103.3421000252277
 20
110.7767049155862
 30
0.0
 10
103.1754331365623
 20
110.7761853762168
 30
0.0
 10
103.0087662181662
 20
110.7756658367548
 30
0.0
 10
102.842093088333
 20
110.7751070077329
 30
0.0
 10
102.6754146513983
 20
110.7745214641497
 30
0.0
  0
LINE
  5
CC
330
1F
100
AcDbEntity
  8
0
  6
HIDDEN
 62
     7
370
     0
100
AcDbLine
 10
142.2352406199
 20
95.7743228602
 30
0.0
 11
142.2352406199
 21
129.7743228602
 31
0.0
  0
LINE
  5
CD
330
1F
100
AcDbEntity
  8
0
  6
HIDDEN
 62
     7
370
     0
100
AcDbLine
 10
144.5254146514
 20
97.0493228602
 30
0.0
 11
144.5254146514
 21
128.4993228434
 31
0.0
  0
SPLINE
  5
CE
330
1F
100
AcDbEntity
  8
0
  6
HIDDEN
 62
     7
370
     0
100
AcDbSpline
210
0.0
220
0.0
230
1.0
 70
     8
 71
     3
 72
    16
 73
    12
 74
     0
 42
0.00000001
 43
0.00000001
 40
0.0
 40
0.0
 40
0.0
 40
0.0
 40
0.124999999999998
 40
0.124999999999998
 40
0.249999999999996
 40
0.249999999999996
 40
0.4999999999999973
 40
0.4999999999999973
 40
0.7499999999999987
 40
0.7499999999999987
 40
1.0
 40
1.0
 40
1.0
 40
1.0
 10
111.3754146513983
 20
96.97283242420674
 30
0.0
 10
111.4705364060641
 20
96.97283242420674
 30
0.0
 10
111.5638664747922
 20
96.96901659081395
 30
0.0
 10
111.7471282355302
 20
96.95424603808414
 30
0.0
 10
111.8380059510872
 20
96.94308799010857
 30
0.0
 10
112.0948076486069
 20
96.90061671996683
 30
0.0
 10
112.2498750134789
 20
96.85957052276403
 30
0.0
 10
112.5036214750336
 20
96.76442440618214
 30
0.0
 10
112.6044919267014
 20
96.70966167210057
 30
0.0
 10
112.7397383413962
 20
96.59840054819668
 30
0.0
 10
112.7754146513983
 20
96.541230810868
 30
0.0
 10
112.7754146513983
 20
96.4868092378343
 30
0.0
  0
SPLINE
  5
CF
330
1F
100
AcDbEntity
  8
0
  6
HIDDEN
 62
     7
370
     0
100
AcDbSpline
210
0.0
220
0.0
230
1.0
 70
     8
 71
     3
 72
     8
 73
     4
 74
     0
 42
0.00000001
 43
0.00000001
 40
0.0
 40
0.0
 40
0.0
 40
0.0
 40
1.0
 40
1.0
 40
1.0
 40
1.0
 10
103.9754146546791
 20
99.11763537028898
 30
0.0
 10
103.975414654681
 20
98.23373822797204
 30
0.0
 10
103.9619340287716
 20
97.51915498291008
 30
0.0
 10
103.9605826605823
 20
96.97283242420673
 30
0.0
  0
SPLINE
  5
D0
330
1F
100
AcDbEntity
  8
0
  6
HIDDEN
 62
     7
370
     0
100
AcDbSpline
210
0.0
220
0.0
230
1.0
 70
     8
 71
     3
 72
    10
 73
     6
 74
     0
 42
0.00000001
 43
0.00000001
 40
0.0
 40
0.0
 40
0.0
 40
0.0
 40
0.5
 40
0.5
 40
1.0
 40
1.0
 40
1.0
 40
1.0
 10
103.6754146513983
 20
100.1425456359418
 30
0.0
 10
103.7668057670805
 20
99.96790684833248
 30
0.0
 10
103.839457600806
 20
99.79430502108549
 30
0.0
 10
103.9469564938016
 20
99.45069160209589
 30
0.0
 10
103.9754146546735
 20
99.28236577557283
 30
0.0
 10
103.9754146546791
 20
99.11763537034845
 30
0.0
  0
LINE
  5
D1
330
1F
100
AcDbEntity
  8
0
  6
HIDDEN
 62
     7
370
     0
100
AcDbLine
 10
103.6754146514
 20
103.173496068
 30
0.0
 11
103.6754146514
 21
100.1425456359
 31
0.0
  0
SPLINE
  5
D2
330
1F
100
AcDbEntity
  8
0
  6
HIDDEN
 62
     7
370
     0
100
AcDbSpline
210
0.0
220
0.0
230
1.0
 70
     8
 71
     3
 72
    10
 73
     6
 74
     0
 42
0.00000001
 43
0.00000001
 40
0.0
 40
0.0
 40
0.0
 40
0.0
 40
0.5
 40
0.5
 40
1.0
 40
1.0
 40
1.0
 40
1.0
 10
103.9754146544835
 20
104.5413364845956
 30
0.0
 10
103.9754146544835
 20
104.2993525170243
 30
0.0
 10
103.9472646254232
 20
104.0650100880922
 30
0.0
 10
103.8436747113178
 20
103.6096350658761
 30
0.0
 10
103.7670460017528
 20
103.3880305027984
 30
0.0
 10
103.6754146513983
 20
103.1734960680256
 30
0.0
  0
LINE
  5
D3
330
1F
100
AcDbEntity
  8
0
  6
HIDDEN
 62
     7
370
     0
100
AcDbLine
 10
103.9754146545
 20
116.3789564818
 30
0.0
 11
103.9754146545
 21
104.5413364845
 31
0.0
  0
SPLINE
  5
D4
330
1F
100
AcDbEntity
  8
0
  6
HIDDEN
 62
     7
370
     0
100
AcDbSpline
210
0.0
220
0.0
230
1.0
 70
     8
 71
     3
 72
     8
 73
     4
 74
     0
 42
0.00000001
 43
0.00000001
 40
0.0
 40
0.0
 40
0.0
 40
0.0
 40
1.0
 40
1.0
 40
1.0
 40
1.0
 10
103.6754146513983
 20
122.381262181119
 30
0.0
 10
103.8564461178976
 20
121.9491546955087
 30
0.0
 10
103.9754146544892
 20
121.495009289469
 30
0.0
 10
103.9754146544835
 20
121.0073092358503
 30
0.0
  0
LINE
  5
D5
330
1F
100
AcDbEntity
  8
0
  6
HIDDEN
 62
     7
370
     0
100
AcDbLine
 10
103.6754146514
 20
125.4144651673
 30
0.0
 11
103.6754146514
 21
122.3812621811
 31
0.0
  0
SPLINE
  5
D6
330
1F
100
AcDbEntity
  8
0
  6
HIDDEN
 62
     7
370
     0
100
AcDbSpline
210
0.0
220
0.0
230
1.0
 70
     8
 71
     3
 72
    10
 73
     6
 74
     0
 42
0.00000001
 43
0.00000001
 40
0.0
 40
0.0
 40
0.0
 40
0.0
 40
0.5
 40
0.5
 40
1.0
 40
1.0
 40
1.0
 40
1.0
 10
103.9754146547907
 20
126.4310103501582
 30
0.0
 10
103.9754146547889
 20
126.2663740035531
 30
0.0
 10
103.9482559840339
 20
126.0992187797234
 30
0.0
 10
103.8424909887165
 20
125.7605957719236
 30
0.0
 10
103.7660762004181
 20
125.5883239946295
 30
0.0
 10
103.6754146513983
 20
125.4144651672864
 30
0.0
  0
SPLINE
  5
D7
330
1F
100
AcDbEntity
  8
0
  6
HIDDEN
 62
     7
370
     0
100
AcDbSpline
210
0.0
220
0.0
230
1.0
 70
     8
 71
     3
 72
    18
 73
    14
 74
     0
 42
0.00000001
 43
0.00000001
 40
0.0
 40
0.0
 40
0.0
 40
0.0
 40
0.2500000000000033
 40
0.2500000000000033
 40
0.3750000000000029
 40
0.3750000000000029
 40
0.5000000000000026
 40
0.5000000000000026
 40
0.6250000000000022
 40
0.6250000000000022
 40
0.7500000000000018
 40
0.7500000000000018
 40
1.0
 40
1.0
 40
1.0
 40
1.0
 10
108.7754146513983
 20
129.0618364826425
 30
0.0
 10
108.7754146513983
 20
129.0073619620903
 30
0.0
 10
108.7405039600061
 20
128.9509809027379
 30
0.0
 10
108.6384946586731
 20
128.8669040618844
 30
0.0
 10
108.596858303995
 20
128.8395703578935
 30
0.0
 10
108.4984525085062
 20
128.7866164422945
 30
0.0
 10
108.4409092968019
 20
128.7607290885773
 30
0.0
 10
108.313611123229
 20
128.7129515437441
 30
0.0
 10
108.2440238184715
 20
128.6910036255661
 30
0.0
 10
108.0925895733165
 20
128.6515710606535
 30
0.0
 10
108.0099056702226
 20
128.6340148114276
 30
0.0
 10
107.7537942081846
 20
128.5915760460071
 30
0.0
 10
107.5658792042966
 20
128.57581329627
 30
0.0
 10
107.3754146513983
 20
128.5758132962701
 30
0.0
  0
LINE
  5
D8
330
1F
100
AcDbEntity
  8
0
  6
HIDDEN
 62
     7
370
     0
100
AcDbLine
 10
107.3754146514
 20
128.5758132963
 30
0.0
 11
103.9754146548
 21
128.5758132963
 31
0.0
  0
LINE
  5
D9
330
1F
100
AcDbEntity
  8
0
  6
HIDDEN
 62
     7
370
     0
100
AcDbLine
 10
103.9064456648
 20
96.9728324242
 30
0.0
 11
111.3754146514
 21
96.9728324242
 31
0.0
  0
SPLINE
  5
DA
330
1F
100
AcDbEntity
  8
0
  6
HIDDEN
 62
     7
370
     0
100
AcDbSpline
210
0.0
220
0.0
230
1.0
 70
     8
 71
     3
 72
    22
 73
    18
 74
     0
 42
0.00000001
 43
0.00000001
 40
0.0
 40
0.0
 40
0.0
 40
0.0
 40
0.125
 40
0.125
 40
0.25
 40
0.25
 40
0.5000000000000001
 40
0.5000000000000001
 40
0.5625000000000001
 40
0.5625000000000001
 40
0.6250000000000001
 40
0.6250000000000001
 40
0.75
 40
0.75
 40
0.875
 40
0.875
 40
1.0
 40
1.0
 40
1.0
 40
1.0
 10
103.9064456647562
 20
96.97283242420674
 30
0.0
 10
103.8933632720278
 20
97.22793813435442
 30
0.0
 10
103.880143708588
 20
97.52109639345832
 30
0.0
 10
103.8576965307939
 20
98.18339685908313
 30
0.0
 10
103.8482180637694
 20
98.55367077969451
 30
0.0
 10
103.8290201028329
 20
99.7762275828083
 30
0.0
 10
103.8301338758298
 20
100.7133665089402
 30
0.0
 10
103.8490446687828
 20
102.0332377384552
 30
0.0
 10
103.8536741966418
 20
102.3047396474315
 30
0.0
 10
103.8641554163878
 20
102.8631244822338
 30
0.0
 10
103.8699506776722
 20
103.1502473381734
 30
0.0
 10
103.8882598985771
 20
104.0228365925451
 30
0.0
 10
103.9022948328575
 20
104.6232922689009
 30
0.0
 10
103.9317520049944
 20
105.860766761397
 30
0.0
 10
103.9473076959759
 20
106.4977829180404
 30
0.0
 10
103.9711022459728
 20
107.809271515725
 30
0.0
 10
103.9791212981182
 20
108.4853941273855
 30
0.0
 10
103.9754146513983
 20
109.1696892386703
 30
0.0
  0
LINE
  5
DB
330
1F
100
AcDbEntity
  8
0
  6
HIDDEN
 62
     7
370
     0
100
AcDbLine
 10
103.9754146548
 20
116.3789564818
 30
0.0
 11
103.9754146548
 21
128.5758132963
 31
0.0
  0
SPLINE
  5
DC
330
1F
100
AcDbEntity
  8
0
  6
HIDDEN
 62
     7
370
     0
100
AcDbSpline
210
0.0
220
0.0
230
1.0
 70
     8
 71
     3
 72
    10
 73
     6
 74
     0
 42
0.00000001
 43
0.00000001
 40
0.0
 40
0.0
 40
0.0
 40
0.0
 40
0.5
 40
0.5
 40
1.0
 40
1.0
 40
1.0
 40
1.0
 10
103.9754146513983
 20
109.1696892386552
 30
0.0
 10
103.9754146513981
 20
109.4436043867293
 30
0.0
 10
103.9496554215293
 20
109.7145459654589
 30
0.0
 10
103.8464494887959
 20
110.2502370470611
 30
0.0
 10
103.7691113249215
 20
110.5159838505828
 30
0.0
 10
103.6754146513983
 20
110.7776225580202
 30
0.0
  0
SPLINE
  5
DD
330
1F
100
AcDbEntity
  8
0
  6
HIDDEN
 62
     7
370
     0
100
AcDbSpline
210
0.0
220
0.0
230
1.0
 70
     8
 71
     3
 72
    10
 73
     6
 74
     0
 42
0.00000001
 43
0.00000001
 40
0.0
 40
0.0
 40
0.0
 40
0.0
 40
0.5
 40
0.5
 40
1.0
 40
1.0
 40
1.0
 40
1.0
 10
103.6754146513983
 20
114.7614511536049
 30
0.0
 10
103.768645232789
 20
115.0253449616747
 30
0.0
 10
103.8436748450256
 20
115.2915252723126
 30
0.0
 10
103.9487419442035
 20
115.8298478472702
 30
0.0
 10
103.9754146547895
 20
116.1025959635154
 30
0.0
 10
103.9754146547907
 20
116.3789564818055
 30
0.0
  0
LINE
  5
DE
330
1F
100
AcDbEntity
  8
0
  6
HIDDEN
 62
     7
370
     0
100
AcDbLine
 10
103.6754146514
 20
110.777622558
 30
0.0
 11
103.6754146514
 21
114.7614511536
 31
0.0
  0
SPLINE
  5
DF
330
1F
100
AcDbEntity
  8
0
  6
HIDDEN
 62
     7
370
     0
100
AcDbSpline
210
0.0
220
0.0
230
1.0
 70
     8
 71
     3
 72
    37
 73
    33
 74
     0
 42
0.00000001
 43
0.00000001
 40
-0.0672961992410217
 40
-0.042274535417035
 40
-0.0198477749541904
 40
0.0
 40
0.0252075669982884
 40
0.0544363278064486
 40
0.0877117524166745
 40
0.1250489433360333
 40
0.1620915304696463
 40
0.1952559607569276
 40
0.224558209613699
 40
0.2500241769224261
 40
0.2848342141697394
 40
0.3264523844556126
 40
0.3749196230365261
 40
0.4123147764327117
 40
0.445620760210999
 40
0.4748524896764255
 40
0.5000352833316991
 40
0.5344594906462699
 40
0.5760834699265992
 40
0.624945302070052
 40
0.6620128839147549
 40
0.6952092116713077
 40
0.724550258439045
 40
0.750061878884397
 40
0.7848149950168629
 40
0.826392614582934
 40
0.8748356825798601
 40
0.9050763678476871
 40
0.9327038007589783
 40
0.957725464582965
 40
0.9801522250458096
 40
1.0
 40
1.025207566998288
 40
1.054436327806449
 40
1.087711752416674
 10
181.7495699012824
 20
110.28819734155
 30
0.0
 10
182.1034971192375
 20
110.2660439436107
 30
0.0
 10
182.4933399379295
 20
110.2970466646205
 30
0.0
 10
182.9404480684577
 20
110.4115541109777
 30
0.0
 10
183.4140118774812
 20
110.6386160648467
 30
0.0
 10
183.8580741402803
 20
110.9893463163539
 30
0.0
 10
184.2088354838139
 20
111.4325386048263
 30
0.0
 10
184.4362280508637
 20
111.9040005020588
 30
0.0
 10
184.5520882647628
 20
112.3520480087412
 30
0.0
 10
184.5901492389286
 20
112.8219660718868
 30
0.0
 10
184.5314958029172
 20
113.3572849643533
 30
0.0
 10
184.3051786656493
 20
113.9775936886419
 30
0.0
 10
183.9057105600674
 20
114.5217487929077
 30
0.0
 10
183.4144274433087
 20
114.9097841351755
 30
0.0
 10
182.9404052472968
 20
115.1371450080235
 30
0.0
 10
182.4932022518475
 20
115.2515939109243
 30
0.0
 10
182.0271552931216
 20
115.2887096013782
 30
0.0
 10
181.4953860989953
 20
115.2308509836826
 30
0.0
 10
180.8746111625042
 20
115.0057691360683
 30
0.0
 10
180.3297094287121
 20
114.6063557019228
 30
0.0
 10
179.9416303883508
 20
114.1155217892825
 30
0.0
 10
179.7141170807934
 20
113.6434697257333
 30
0.0
 10
179.5983923543095
 20
113.1947578348256
 30
0.0
 10
179.5607244363085
 20
112.7246540320446
 30
0.0
 10
179.6198107775765
 20
112.1896636054804
 30
0.0
 10
179.8461631983236
 20
111.5701482134996
 30
0.0
 10
180.2234163089007
 20
111.0567499614601
 30
0.0
 10
180.6523891104827
 20
110.7022038522214
 30
0.0
 10
181.0318957262214
 20
110.4899676006237
 30
0.0
 10
181.4027769129772
 20
110.3568719528687
 30
0.0
 10
181.7495699012824
 20
110.28819734155
 30
0.0
 10
182.1034971192375
 20
110.2660439436107
 30
0.0
 10
182.4933399379295
 20
110.2970466646205
 30
0.0
  0
SPLINE
  5
E0
330
1F
100
AcDbEntity
  8
0
  6
HIDDEN
 62
     7
370
     0
100
AcDbSpline
210
0.0
220
0.0
230
1.0
 70
     8
 71
     3
 72
    78
 73
    74
 74
     0
 42
0.00000001
 43
0.00000001
 40
-0.0312500000000002
 40
-0.0312500000000002
 40
0.0
 40
0.0
 40
0.0312499999999999
 40
0.0312499999999999
 40
0.0624999999999998
 40
0.0624999999999998
 40
0.0937499999999996
 40
0.0937499999999996
 40
0.1249999999999995
 40
0.1249999999999995
 40
0.1562499999999994
 40
0.1562499999999994
 40
0.1718749999999994
 40
0.1718749999999994
 40
0.1874999999999993
 40
0.1874999999999993
 40
0.2187499999999992
 40
0.2187499999999992
 40
0.2499999999999991
 40
0.2499999999999991
 40
0.2812499999999989
 40
0.2812499999999989
 40
0.3124999999999988
 40
0.3124999999999988
 40
0.3437499999999988
 40
0.3437499999999988
 40
0.3749999999999987
 40
0.3749999999999987
 40
0.4062499999999986
 40
0.4062499999999986
 40
0.4374999999999986
 40
0.4374999999999986
 40
0.4687499999999985
 40
0.4687499999999985
 40
0.4999999999999984
 40
0.4999999999999984
 40
0.5312499999999983
 40
0.5312499999999983
 40
0.5624999999999982
 40
0.5624999999999982
 40
0.5937499999999981
 40
0.5937499999999981
 40
0.624999999999998
 40
0.624999999999998
 40
0.6562499999999979
 40
0.6562499999999979
 40
0.6874999999999978
 40
0.6874999999999978
 40
0.7031249999999978
 40
0.7031249999999978
 40
0.7187499999999979
 40
0.7187499999999979
 40
0.749999999999998
 40
0.749999999999998
 40
0.7656249999999982
 40
0.7656249999999982
 40
0.7812499999999983
 40
0.7812499999999983
 40
0.7968749999999986
 40
0.7968749999999986
 40
0.8124999999999987
 40
0.8124999999999987
 40
0.8437499999999989
 40
0.8437499999999989
 40
0.8749999999999991
 40
0.8749999999999991
 40
0.9062499999999993
 40
0.9062499999999993
 40
0.9374999999999996
 40
0.9374999999999996
 40
0.9687499999999998
 40
0.9687499999999998
 40
1.0
 40
1.0
 40
1.03125
 40
1.03125
 10
179.8699322883073
 20
108.6021148861912
 30
0.0
 10
179.2808970144893
 20
108.6021148861912
 30
0.0
 10
178.9904618230332
 20
108.6258940749996
 30
0.0
 10
178.4175019613277
 20
108.719720427826
 30
0.0
 10
178.1339647155083
 20
108.7901006227014
 30
0.0
 10
177.5796539461911
 20
108.9796458759966
 30
0.0
 10
177.3149253962121
 20
109.0965634694949
 30
0.0
 10
176.8103833276997
 20
109.3755691632945
 30
0.0
 10
176.5688718316645
 20
109.539028945253
 30
0.0
 10
176.1212127898319
 20
109.9111010031163
 30
0.0
 10
175.9190404877886
 20
110.1158686243398
 30
0.0
 10
175.6490275767838
 20
110.4523428387303
 30
0.0
 10
175.5646019994217
 20
110.5694208971973
 30
0.0
 10
175.4075734450026
 20
110.8140966499039
 30
0.0
 10
175.3347127923485
 20
110.942410974303
 30
0.0
 10
175.1405104930519
 20
111.333621572127
 30
0.0
 10
175.0412312857199
 20
111.6053222558719
 30
0.0
 10
174.9049869798064
 20
112.1714562526018
 30
0.0
 10
174.8690166800007
 20
112.4677389957065
 30
0.0
 10
174.8666530030187
 20
113.0502968212131
 30
0.0
 10
174.899437231547
 20
113.3431112796893
 30
0.0
 10
175.0321826427195
 20
113.9156120423472
 30
0.0
 10
175.1301366600304
 20
114.1894120232495
 30
0.0
 10
175.3859100089792
 20
114.7136653325221
 30
0.0
 10
175.5439152561267
 20
114.9624874578631
 30
0.0
 10
175.9037000333701
 20
115.4162623992749
 30
0.0
 10
176.1091172284885
 20
115.6260076998643
 30
0.0
 10
176.5549026482655
 20
115.9994059238216
 30
0.0
 10
176.7937849645123
 20
116.1626793998179
 30
0.0
 10
177.3017143589108
 20
116.4459257801582
 30
0.0
 10
177.5713289249595
 20
116.5654542381797
 30
0.0
 10
178.1207372495861
 20
116.75469400668
 30
0.0
 10
178.4028734823514
 20
116.8258634047463
 30
0.0
 10
178.9819633069262
 20
116.9220002342142
 30
0.0
 10
179.2752155029428
 20
116.9460282169296
 30
0.0
 10
179.8571788468968
 20
116.9470177784019
 30
0.0
 10
180.1477187767865
 20
116.924303467718
 30
0.0
 10
180.7278782617083
 20
116.8303211546708
 30
0.0
 10
181.0119240563402
 20
116.7597163307683
 30
0.0
 10
181.5599773201672
 20
116.573332113587
 30
0.0
 10
181.8253327892711
 20
116.4573741670135
 30
0.0
 10
182.3372917521229
 20
116.1753599308642
 30
0.0
 10
182.5782014666628
 20
116.0120698489134
 30
0.0
 10
183.0212761597121
 20
115.6451275119403
 30
0.0
 10
183.2248806333367
 20
115.4407790630061
 30
0.0
 10
183.5920141602402
 20
114.9844810736192
 30
0.0
 10
183.7488870481892
 20
114.7405137826622
 30
0.0
 10
183.942216150786
 20
114.3527686985717
 30
0.0
 10
183.9997144374866
 20
114.2197337697654
 30
0.0
 10
184.1001147529271
 20
113.9456549214471
 30
0.0
 10
184.1431776111417
 20
113.8036343172403
 30
0.0
 10
184.2461384652231
 20
113.3762700878041
 30
0.0
 10
184.2814053608293
 20
113.0873928926398
 30
0.0
 10
184.2837546927955
 20
112.6480434735407
 30
0.0
 10
184.2758712154112
 20
112.499561050913
 30
0.0
 10
184.2431062362869
 20
112.2074467640668
 30
0.0
 10
184.2183604679752
 20
112.063458705604
 30
0.0
 10
184.1526890272394
 20
111.779474436044
 30
0.0
 10
184.1117615937172
 20
111.6394786760421
 30
0.0
 10
184.0136995953
 20
111.3634676560283
 30
0.0
 10
183.9562674011989
 20
111.22706437072
 30
0.0
 10
183.7640336495139
 20
110.8334033164872
 30
0.0
 10
183.608588243017
 20
110.5882914039835
 30
0.0
 10
183.2456919489523
 20
110.1305489512305
 30
0.0
 10
183.0406632501056
 20
109.9217305415311
 30
0.0
 10
182.596452485478
 20
109.5497092409046
 30
0.0
 10
182.3534070074898
 20
109.3836020126884
 30
0.0
 10
181.8442637977415
 20
109.1003563067
 30
0.0
 10
181.5788005105771
 20
108.9828315250151
 30
0.0
 10
181.0270614168237
 20
108.7930275324509
 30
0.0
 10
180.7396465635612
 20
108.7209959206787
 30
0.0
 10
180.1625387335498
 20
108.6260124740968
 30
0.0
 10
179.8699322883073
 20
108.6021148861912
 30
0.0
 10
179.2808970144893
 20
108.6021148861912
 30
0.0
  0
LINE
  5
E1
330
1F
100
AcDbEntity
  8
0
  6
HIDDEN
 62
     7
370
     0
100
AcDbLine
 10
103.8254146514
 20
94.7843228602
 30
0.0
 11
103.8254146514
 21
91.9043850948
 31
0.0
  0
LINE
  5
E2
330
1F
100
AcDbEntity
  8
0
  6
HIDDEN
 62
     7
370
     0
100
AcDbLine
 10
112.7754146514
 20
94.7843228602
 30
0.0
 11
112.7754146514
 21
90.810585329
 31
0.0
  0
LINE
  5
E3
330
1F
100
AcDbEntity
  8
0
  6
HIDDEN
 62
     7
370
     0
100
AcDbLine
 10
103.8254146514
 20
130.7643228602
 30
0.0
 11
103.8254146514
 21
133.6442606256
 31
0.0
  0
LINE
  5
E4
330
1F
100
AcDbEntity
  8
0
  6
HIDDEN
 62
     7
370
     0
100
AcDbLine
 10
108.7754146514
 20
130.7643228602
 30
0.0
 11
108.7754146514
 21
134.6184305326
 31
0.0
  0
LINE
  5
E5
330
1F
100
AcDbEntity
  8
0
  6
HIDDEN
 62
     7
370
     0
100
AcDbLine
 10
153.3754146514
 20
103.2743228602
 30
0.0
 11
153.3754146514
 21
122.2743228602
 31
0.0
  0
LINE
  5
E6
330
1F
100
AcDbEntity
  8
0
  6
HIDDEN
 62
     7
370
     0
100
AcDbLine
 10
156.3754146514
 20
103.2743228602
 30
0.0
 11
156.3754146514
 21
122.2743228602
 31
0.0
  0
LINE
  5
E7
330
1F
100
AcDbEntity
  8
0
  6
HIDDEN
 62
     7
370
     0
100
AcDbLine
 10
145.0254146514
 20
104.2743228602
 30
0.0
 11
145.0254146514
 21
121.2743228602
 31
0.0
  0
LINE
  5
E8
330
1F
100
AcDbEntity
  8
0
  6
HIDDEN
 62
     7
370
     0
100
AcDbLine
 10
150.7630894537
 20
86.3743228602
 30
0.0
 11
147.5254146514
 21
86.3743228602
 31
0.0
  0
LINE
  5
E9
330
1F
100
AcDbEntity
  8
0
  6
HIDDEN
 62
     7
370
     0
100
AcDbLine
 10
160.5254146514
 20
86.3743228602
 30
0.0
 11
154.3877398491
 21
86.3743228602
 31
0.0
  0
LINE
  5
EA
330
1F
100
AcDbEntity
  8
0
  6
HIDDEN
 62
     7
370
     0
100
AcDbLine
 10
139.5254146514
 20
81.2901998774
 30
0.0
 11
139.5254146514
 21
86.3743228602
 31
0.0
  0
LINE
  5
EB
330
1F
100
AcDbEntity
  8
0
  6
HIDDEN
 62
     7
370
     0
100
AcDbLine
 10
147.5254146514
 20
86.3743228602
 30
0.0
 11
139.5254146514
 21
86.3743228602
 31
0.0
  0
LINE
  5
EC
330
1F
100
AcDbEntity
  8
0
  6
HIDDEN
 62
     7
370
     0
100
AcDbLine
 10
147.5254146514
 20
139.1743228602
 30
0.0
 11
139.5254146514
 21
139.1743228602
 31
0.0
  0
LINE
  5
ED
330
1F
100
AcDbEntity
  8
0
  6
HIDDEN
 62
     7
370
     0
100
AcDbLine
 10
151.0597121831
 20
139.1743228602
 30
0.0
 11
147.5254146514
 21
139.1743228602
 31
0.0
  0
LINE
  5
EE
330
1F
100
AcDbEntity
  8
0
  6
HIDDEN
 62
     7
370
     0
100
AcDbLine
 10
160.5254146514
 20
139.1743228602
 30
0.0
 11
154.0911171197
 21
139.1743228602
 31
0.0
  0
SPLINE
  5
EF
330
1F
100
AcDbEntity
  8
0
  6
HIDDEN
 62
     7
370
     0
100
AcDbSpline
210
0.0
220
0.0
230
1.0
 70
     8
 71
     3
 72
    11
 73
     7
 74
     0
 42
0.00000001
 43
0.00000001
 40
0.0
 40
0.0
 40
0.0
 40
0.0
 40
0.0008203708524183
 40
0.0008203708524183
 40
0.0008203708524183
 40
0.0016409967870154
 40
0.0016409967870154
 40
0.0016409967870154
 40
0.0016409967870154
 10
103.8254146513983
 20
96.92229010959569
 30
0.0
 10
103.6342563510996
 20
96.88111108097655
 30
0.0
 10
103.4428292810274
 20
96.84235710874654
 30
0.0
 10
103.2511836575068
 20
96.805989349468
 30
0.0
 10
103.0594782524263
 20
96.76961024570197
 30
0.0
 10
102.8675393003674
 20
96.7356159949344
 30
0.0
 10
102.6754146532966
 20
96.7039678695432
 30
0.0
  0
ELLIPSE
  5
F0
330
1F
100
AcDbEntity
  8
0
  6
HIDDEN
 62
     7
370
     0
100
AcDbEllipse
 10
98.4329827828
 20
112.7743228602
 30
0.0
 11
20.19992453367506
 21
-1.421085471520200E-14
 31
0.0
210
0.0
220
0.0
230
1.0
 40
0.8164965809
 41
1.300566354717479
 42
1.359198697209065
  0
LINE
  5
F1
330
1F
100
AcDbEntity
  8
0
  6
HIDDEN
 62
     7
370
     0
100
AcDbLine
 10
103.8254146514
 20
94.7843228602
 30
0.0
 11
103.8254146514
 21
96.9222901096
 31
0.0
  0
LINE
  5
F2
330
1F
100
AcDbEntity
  8
0
  6
HIDDEN
 62
     7
370
     0
100
AcDbLine
 10
103.9064456648
 20
96.9728324242
 30
0.0
 11
103.8254146514
 21
96.9222901096
 31
0.0
  0
LINE
  5
F3
330
1F
100
AcDbEntity
  8
0
  6
HIDDEN
 62
     7
370
     0
100
AcDbLine
 10
112.7754146514
 20
94.7843228602
 30
0.0
 11
112.7754146514
 21
96.4868092378
 31
0.0
  0
LINE
  5
F4
330
1F
100
AcDbEntity
  8
0
  6
HIDDEN
 62
     7
370
     0
100
AcDbLine
 10
103.8254146514
 20
130.7643228602
 30
0.0
 11
103.8254146514
 21
128.6689473113
 31
0.0
  0
SPLINE
  5
F5
330
1F
100
AcDbEntity
  8
0
  6
HIDDEN
 62
     7
370
     0
100
AcDbSpline
210
0.0
220
0.0
230
1.0
 70
     8
 71
     3
 72
     8
 73
     4
 74
     0
 42
0.00000001
 43
0.00000001
 40
0.0
 40
0.0
 40
0.0
 40
0.0
 40
1.0
 40
1.0
 40
1.0
 40
1.0
 10
103.8254146513983
 20
128.6689473112966
 30
0.0
 10
103.8754201503417
 20
128.6379115370776
 30
0.0
 10
103.9254202210059
 20
128.6068668920502
 30
0.0
 10
103.9754146547907
 20
128.57581329627
 30
0.0
  0
LINE
  5
F6
330
1F
100
AcDbEntity
  8
0
  6
HIDDEN
 62
     7
370
     0
100
AcDbLine
 10
108.7754146514
 20
130.7643228602
 30
0.0
 11
108.7754146514
 21
129.0618364826
 31
0.0
  0
SPLINE
  5
F7
330
1F
100
AcDbEntity
  8
0
  6
HIDDEN
 62
     7
370
     0
100
AcDbSpline
210
0.0
220
0.0
230
1.0
 70
     8
 71
     3
 72
    27
 73
    23
 74
     0
 42
0.00000001
 43
0.00000001
 40
0.0
 40
0.0
 40
0.0
 40
0.0
 40
0.0524808647777106
 40
0.1118477254943011
 40
0.177246129002196
 40
0.212278841968819
 40
0.248847025264912
 40
0.3294466040471044
 40
0.3980922137952683
 40
0.4372408752430754
 40
0.471063980998196
 40
0.4995706922607955
 40
0.5540644566037805
 40
0.6138044102697404
 40
0.678850199093956
 40
0.713428797868054
 40
0.7493557470114884
 40
0.8293539501530618
 40
0.8976714393665504
 40
0.9542943882769905
 40
0.9992201019839524
 40
1.0
 40
1.0
 40
1.0
 40
1.0
 10
129.3245048665573
 20
89.1742866152268
 30
0.0
 10
129.3148694606861
 20
89.17739602169098
 30
0.0
 10
129.2943343907044
 20
89.18402281875552
 30
0.0
 10
129.1079317373401
 20
89.23380350258844
 30
0.0
 10
128.8330402281382
 20
89.29751256544694
 30
0.0
 10
128.5248985754214
 20
89.36340043128111
 30
0.0
 10
128.1317795681711
 20
89.44588329997124
 30
0.0
 10
127.555416097434
 20
89.54823869021646
 30
0.0
 10
126.882202688984
 20
89.64078121279586
 30
0.0
 10
126.3463471101627
 20
89.70236414156399
 30
0.0
 10
125.9526140371521
 20
89.74057762399349
 30
0.0
 10
125.4944374122175
 20
89.7744014649785
 30
0.0
 10
124.9320276641638
 20
89.7939798041006
 30
0.0
 10
124.246682204763
 20
89.79490843559022
 30
0.0
 10
123.6800098221257
 20
89.77672091188364
 30
0.0
 10
123.2439205107503
 20
89.75186839855436
 30
0.0
 10
122.8004718791745
 20
89.71588510076995
 30
0.0
 10
122.350376965763
 20
89.67040355992248
 30
0.0
 10
122.0085613940167
 20
89.62855046922365
 30
0.0
 10
121.8628017135161
 20
89.60492992026965
 30
0.0
 10
121.8133771757493
 20
89.59310781230391
 30
0.0
 10
121.8258500653376
 20
89.59579750619456
 30
0.0
 10
121.8260628965738
 20
89.59584340180454
 30
0.0
  0
LINE
  5
F8
330
1F
100
AcDbEntity
  8
0
  6
HIDDEN
 62
     7
370
     0
100
AcDbLine
 10
122.7354265366
 20
89.706661001
 30
0.0
 11
122.9192718824
 21
89.7248503467
 31
0.0
  0
SPLINE
  5
F9
330
1F
100
AcDbEntity
  8
0
  6
HIDDEN
 62
     7
370
     0
100
AcDbSpline
210
0.0
220
0.0
230
1.0
 70
     8
 71
     3
 72
    27
 73
    23
 74
     0
 42
0.00000001
 43
0.00000001
 40
0.0
 40
0.0
 40
0.0
 40
0.0
 40
0.0008229681927263
 40
0.0457056267976437
 40
0.1022874777999806
 40
0.1705657915800083
 40
0.2091575900571049
 40
0.2506849650205536
 40
0.3211309731286836
 40
0.3862249207613612
 40
0.4267042031574998
 40
0.4648355809429535
 40
0.5006400149688267
 40
0.5452319255102623
 40
0.6017263667837497
 40
0.6701325656129992
 40
0.7088700225571184
 40
0.750598904706524
 40
0.8222637249468001
 40
0.8878033644859397
 40
0.9472773145549916
 40
0.9999999999999999
 40
0.9999999999999999
 40
0.9999999999999999
 40
0.9999999999999999
 10
121.826094790686
 20
135.9527344925121
 30
0.0
 10
121.8258684267028
 20
135.9527832899777
 30
0.0
 10
121.8132967285186
 20
135.9554933810449
 30
0.0
 10
121.8623691468119
 20
135.9436622652088
 30
0.0
 10
122.007479226386
 20
135.9202167677569
 30
0.0
 10
122.2805296606784
 20
135.8863130216607
 30
0.0
 10
122.6090564200495
 20
135.8527441594717
 30
0.0
 10
123.0017841092196
 20
135.814560838389
 30
0.0
 10
123.5515121160068
 20
135.7755921581992
 30
0.0
 10
124.1775347521734
 20
135.7561310556787
 30
0.0
 10
124.7207262637327
 20
135.7539453773784
 30
0.0
 10
125.1657951600512
 20
135.7624602584815
 30
0.0
 10
125.6322429571272
 20
135.7822436552877
 30
0.0
 10
126.1694836066952
 20
135.8264060405764
 30
0.0
 10
126.8176970401641
 20
135.898821660985
 30
0.0
 10
127.4032356625765
 20
135.9797237521257
 30
0.0
 10
127.8842052949428
 20
136.0578897451766
 30
0.0
 10
128.3296201142014
 20
136.1426618641656
 30
0.0
 10
128.7681203305238
 20
136.2364450341079
 30
0.0
 10
129.1071437843392
 20
136.3143483364981
 30
0.0
 10
129.294471980581
 20
136.3645364913467
 30
0.0
 10
129.3149610857306
 20
136.3712025349178
 30
0.0
 10
129.3245891876866
 20
136.3743349971057
 30
0.0
  0
LINE
  5
FA
330
1F
100
AcDbEntity
  8
0
  6
HIDDEN
 62
     7
370
     0
100
AcDbLine
 10
165.8543819086
 20
108.5743228602
 30
0.0
 11
165.8543819086
 21
116.9743228602
 31
0.0
  0
LINE
  5
FB
330
1F
100
AcDbEntity
  8
0
  6
HIDDEN
 62
     7
370
     0
100
AcDbLine
 10
166.5754146514
 20
109.7743228602
 30
0.0
 11
166.5754146514
 21
115.7743228602
 31
0.0
  0
SPLINE
  5
FC
330
1F
100
AcDbEntity
  8
0
  6
HIDDEN
 62
     7
370
     0
100
AcDbSpline
210
0.0
220
0.0
230
1.0
 70
     8
 71
     3
 72
     8
 73
     4
 74
     0
 42
0.00000001
 43
0.00000001
 40
0.0
 40
0.0
 40
0.0
 40
0.0
 40
0.0001590976953043
 40
0.0001590976953043
 40
0.0001590976953043
 40
0.0001590976953043
 10
103.9605826605824
 20
96.97283242420674
 30
0.0
 10
103.9155311900893
 20
96.94485353988925
 30
0.0
 10
103.8704751516859
 20
96.91688200952046
 30
0.0
 10
103.8254146513983
 20
96.88891767017422
 30
0.0
  0
SPLINE
  5
FD
330
1F
100
AcDbEntity
  8
0
  6
HIDDEN
 62
     7
370
     0
100
AcDbSpline
210
0.0
220
0.0
230
1.0
 70
     8
 71
     3
 72
    11
 73
     7
 74
     0
 42
0.00000001
 43
0.00000001
 40
0.0
 40
0.0
 40
0.0
 40
0.0
 40
0.000821290931147
 40
0.000821290931147
 40
0.000821290931147
 40
0.0016428257243086
 40
0.0016428257243086
 40
0.0016428257243086
 40
0.0016428257243086
 10
103.8254146513983
 20
96.88891767017421
 30
0.0
 10
103.6342696299161
 20
96.8456314813186
 30
0.0
 10
103.4428512942397
 20
96.80469497167823
 30
0.0
 10
103.2512052195785
 20
96.76609320028852
 30
0.0
 10
103.0595021380369
 20
96.72747994644828
 30
0.0
 10
102.8675570147514
 20
96.69119973715908
 30
0.0
 10
102.6754146513982
 20
96.65723283080433
 30
0.0
  0
LINE
  5
FE
330
1F
100
AcDbEntity
  8
0
  6
HIDDEN
 62
     7
370
     0
100
AcDbLine
 10
150.6654146514
 20
132.9101894917
 30
0.0
 11
150.6654146514
 21
132.6243228602
 31
0.0
  0
LINE
  5
FF
330
1F
100
AcDbEntity
  8
0
  6
HIDDEN
 62
     7
370
     0
100
AcDbLine
 10
154.4854146514
 20
132.9562815203
 30
0.0
 11
154.4854146514
 21
132.6243228602
 31
0.0
  0
LINE
  5
100
330
1F
100
AcDbEntity
  8
0
  6
HIDDEN
 62
     7
370
     0
100
AcDbLine
 10
155.9673474829
 20
137.2330125226
 30
0.0
 11
155.9673474829
 21
132.6243228602
 31
0.0
  0
SPLINE
  5
101
330
1F
100
AcDbEntity
  8
0
  6
HIDDEN
 62
     7
370
     0
100
AcDbSpline
210
0.0
220
0.0
230
1.0
 70
     8
 71
     3
 72
    11
 73
     7
 74
     0
 42
0.00000001
 43
0.00000001
 40
0.0
 40
0.0
 40
0.0
 40
0.0
 40
0.0005781862223981
 40
0.0005781862223981
 40
0.0005781862223981
 40
0.0011563724723932
 40
0.0011563724723932
 40
0.0011563724723932
 40
0.0011563724723932
 10
103.6754146513986
 20
125.4144651672912
 30
0.0
 10
103.5087540971229
 20
125.4789946787046
 30
0.0
 10
103.3420908002164
 20
125.5434973825433
 30
0.0
 10
103.1754242163861
 20
125.6079838309767
 30
0.0
 10
103.008757624127
 20
125.6724702826715
 30
0.0
 10
102.842087758501
 20
125.7369402913994
 30
0.0
 10
102.6754146513983
 20
125.8013960581318
 30
0.0
  0
SPLINE
  5
102
330
1F
100
AcDbEntity
  8
0
  6
HIDDEN
 62
     7
370
     0
100
AcDbSpline
210
0.0
220
0.0
230
1.0
 70
     8
 71
     3
 72
    11
 73
     7
 74
     0
 42
0.00000001
 43
0.00000001
 40
0.0
 40
0.0
 40
0.0
 40
0.0
 40
0.0005778746105124
 40
0.0005778746105124
 40
0.0005778746105124
 40
0.0011557494857259
 40
0.0011557494857259
 40
0.0011557494857259
 40
0.0011557494857259
 10
102.6754146513982
 20
99.74710100474856
 30
0.0
 10
102.8420815278116
 20
99.81291313143362
 30
0.0
 10
103.008748247373
 20
99.8787716115626
 30
0.0
 10
103.1754148954217
 20
99.94467918448481
 30
0.0
 10
103.3420816199403
 20
100.0105867876467
 30
0.0
 10
103.5087483143609
 20
100.076543896027
 30
0.0
 10
103.6754146513983
 20
100.1425456359418
 30
0.0
  0
SPLINE
  5
103
330
1F
100
AcDbEntity
  8
0
  6
HIDDEN
 62
     7
370
     0
100
AcDbSpline
210
0.0
220
0.0
230
1.0
 70
     8
 71
     3
 72
    11
 73
     7
 74
     0
 42
0.00000001
 43
0.00000001
 40
0.0000000000000006
 40
0.0000000000000006
 40
0.0000000000000006
 40
0.0000000000000006
 40
0.0005780486062825
 40
0.0005780486062825
 40
0.0005780486062825
 40
0.0011560973514241
 40
0.0011560973514241
 40
0.0011560973514241
 40
0.0011560973514241
 10
102.6754146513983
 20
122.7551373619302
 30
0.0
 10
102.8420845074431
 20
122.6927655003832
 30
0.0
 10
103.0087522115274
 20
122.6304116400537
 30
0.0
 10
103.1754185159811
 20
122.5680920798363
 30
0.0
 10
103.3420848566748
 20
122.5057725060682
 30
0.0
 10
103.5087498133036
 20
122.4434873017179
 30
0.0
 10
103.6754146513983
 20
122.381262181119
 30
0.0
  0
SPLINE
  5
104
330
1F
100
AcDbEntity
  8
0
  6
HIDDEN
 62
     7
370
     0
100
AcDbSpline
210
0.0
220
0.0
230
1.0
 70
     8
 71
     3
 72
    11
 73
     7
 74
     0
 42
0.00000001
 43
0.00000001
 40
0.0
 40
0.0
 40
0.0
 40
0.0
 40
0.0005782401583596
 40
0.0005782401583596
 40
0.0005782401583596
 40
0.0011564805961118
 40
0.0011564805961118
 40
0.0011564805961118
 40
0.0011564805961118
 10
103.6754146513983
 20
103.1734960680256
 30
0.0
 10
103.5087637010494
 20
103.1100706099357
 30
0.0
 10
103.3421041084667
 20
103.0467150862505
 30
0.0
 10
103.1754370560381
 20
102.9834175018698
 30
0.0
 10
103.0087699194743
 20
102.9201198855357
 30
0.0
 10
102.8420953120283
 20
102.8568800905633
 30
0.0
 10
102.6754146513982
 20
102.7936800838919
 30
0.0
  0
CIRCLE
  5
105
330
1F
100
AcDbEntity
  8
0
  6
HIDDEN
 62
     7
370
     0
100
AcDbCircle
 10
141.5754146514
 20
112.7743228602
 30
0.0
 40
5.0
  0
LINE
  5
106
330
1F
100
AcDbEntity
  8
0
  6
HIDDEN
 62
     7
370
     0
100
AcDbLine
 10
138.5754146514
 20
127.0742673204
 30
0.0
 11
138.5754146514
 21
125.1682635031
 31
0.0
  0
LINE
  5
107
330
1F
100
AcDbEntity
  8
0
  6
HIDDEN
 62
     7
370
     0
100
AcDbLine
 10
146.5754146514
 20
125.1682635031
 30
0.0
 11
146.5754146514
 21
127.0749879642
 31
0.0
  0
LINE
  5
108
330
1F
100
AcDbEntity
  8
0
  6
HIDDEN
 62
     7
370
     0
100
AcDbLine
 10
134.5754146514
 20
87.4503917143
 30
0.0
 11
134.6695754269
 21
88.1203804455
 31
0.0
  0
LINE
  5
109
330
1F
100
AcDbEntity
  8
0
  6
HIDDEN
 62
     7
370
     0
100
AcDbLine
 10
134.6695754269
 20
137.428265275
 30
0.0
 11
134.5754146514
 21
138.0982540062
 31
0.0
  0
ARC
  5
10A
330
1F
100
AcDbEntity
  8
0
  6
HIDDEN
 62
     7
370
     0
100
AcDbCircle
 10
134.0754078987
 20
88.2038852458
 30
0.0
 40
0.6000067526677343
100
AcDbArc
 50
352.0
 51
0.0
  0
ARC
  5
10B
330
1F
100
AcDbEntity
  8
0
  6
HIDDEN
 62
     7
370
     0
100
AcDbCircle
 10
134.0754078987
 20
88.2038852458
 30
0.0
 40
0.6000067526677242
100
AcDbArc
 50
0.0
 51
33.5571153394
  0
ARC
  5
10C
330
1F
100
AcDbEntity
  8
0
  6
HIDDEN
 62
     7
370
     0
100
AcDbCircle
 10
134.0754078987
 20
137.3447604746
 30
0.0
 40
0.6000067526677587
100
AcDbArc
 50
348.75
 51
8.0
  0
LWPOLYLINE
  5
10D
330
1F
100
AcDbEntity
  8
0
  6
HIDDEN
 62
     7
370
     0
100
AcDbPolyline
 90
        3
 70
   128
 43
0.0
 10
134.6638856899
 20
137.227704964
 10
134.6297418569
 20
137.1151478311
 10
134.5754146514
 20
137.0130959596
  0
LINE
  5
10E
330
1F
100
AcDbEntity
  8
0
  6
HIDDEN
 62
     7
370
     0
100
AcDbLine
 10
134.6754146514
 20
88.2038852458
 30
0.0
 11
134.6754146514
 21
137.3447604746
 31
0.0
  0
LINE
  5
10F
330
1F
100
AcDbEntity
  8
0
  6
HIDDEN
 62
     7
370
     0
100
AcDbLine
 10
117.6578502167
 20
92.7743228602
 30
0.0
 11
121.8285320326
 21
92.7743228602
 31
0.0
  0
LINE
  5
110
330
1F
100
AcDbEntity
  8
0
  6
HIDDEN
 62
     7
370
     0
100
AcDbLine
 10
121.8285320326
 20
132.7743228602
 30
0.0
 11
117.6578502167
 21
132.7743228602
 31
0.0
  0
ARC
  5
111
330
1F
100
AcDbEntity
  8
0
  6
HIDDEN
 62
     7
370
     0
100
AcDbCircle
 10
117.6578502167
 20
93.3743228602
 30
0.0
 40
0.6000000000000085
100
AcDbArc
 50
210.0
 51
270.0
  0
ARC
  5
112
330
1F
100
AcDbEntity
  8
0
  6
HIDDEN
 62
     7
370
     0
100
AcDbCircle
 10
117.6578502167
 20
132.1743228602
 30
0.0
 40
0.5999999999999943
100
AcDbArc
 50
90.0
 51
150.0
  0
ARC
  5
113
330
1F
100
AcDbEntity
  8
0
  6
HIDDEN
 62
     7
370
     0
100
AcDbCircle
 10
128.330416653
 20
100.7743228602
 30
0.0
 40
8.00000000000002
100
AcDbArc
 50
277.1432848309
 51
321.3178125465
  0
ARC
  5
114
330
1F
100
AcDbEntity
  8
0
  6
HIDDEN
 62
     7
370
     0
100
AcDbCircle
 10
128.330416653
 20
124.7743228602
 30
0.0
 40
8.000000000000009
100
AcDbArc
 50
38.6821874535
 51
82.8655628177
  0
LINE
  5
115
330
1F
100
AcDbEntity
  8
0
  6
HIDDEN
 62
     7
370
     0
100
AcDbLine
 10
117.1382349744
 20
132.4743228602
 30
0.0
 11
115.5793892476
 21
129.7743228602
 31
0.0
  0
LINE
  5
116
330
1F
100
AcDbEntity
  8
0
  6
HIDDEN
 62
     7
370
     0
100
AcDbLine
 10
115.5793892476
 20
95.7743228602
 30
0.0
 11
117.1382349744
 21
93.0743228602
 31
0.0
  0
LINE
  5
117
330
1F
100
AcDbEntity
  8
0
  6
HIDDEN
 62
     7
370
     0
100
AcDbLine
 10
138.5754146514
 20
140.052680408
 30
0.0
 11
138.5754146514
 21
136.7199252749
 31
0.0
  0
LINE
  5
118
330
1F
100
AcDbEntity
  8
0
  6
HIDDEN
 62
     7
370
     0
100
AcDbLine
 10
146.5754146514
 20
136.7199252749
 30
0.0
 11
146.5754146514
 21
140.0540550973
 31
0.0
  0
ARC
  5
119
330
1F
100
AcDbEntity
  8
0
  6
HIDDEN
 62
     7
370
     0
100
AcDbCircle
 10
143.0254146514
 20
97.0493228602
 30
0.0
 40
1.500000000000001
100
AcDbArc
 50
238.2116693829
 51
0.0
  0
ARC
  5
11A
330
1F
100
AcDbEntity
  8
0
  6
HIDDEN
 62
     7
370
     0
100
AcDbCircle
 10
143.0254146514
 20
128.4993228602
 30
0.0
 40
1.500000000000001
100
AcDbArc
 50
0.0
 51
121.7883306171
  0
LINE
  5
11B
330
1F
100
AcDbEntity
  8
0
  6
HIDDEN
 62
     7
370
     0
100
AcDbLine
 10
112.7754146514
 20
95.7743228602
 30
0.0
 11
115.5793892476
 21
95.7743228602
 31
0.0
  0
LINE
  5
11C
330
1F
100
AcDbEntity
  8
0
  6
HIDDEN
 62
     7
370
     0
100
AcDbLine
 10
115.5793892476
 20
129.7743228602
 30
0.0
 11
108.7754146514
 21
129.7743228602
 31
0.0
  0
LINE
  5
11D
330
1F
100
AcDbEntity
  8
0
  6
HIDDEN
 62
     7
370
     0
100
AcDbLine
 10
134.5754146514
 20
95.7743228602
 30
0.0
 11
142.2352406199
 21
95.7743228602
 31
0.0
  0
LINE
  5
11E
330
1F
100
AcDbEntity
  8
0
  6
HIDDEN
 62
     7
370
     0
100
AcDbLine
 10
142.2352406199
 20
129.7743228602
 30
0.0
 11
134.5754146514
 21
129.7743228602
 31
0.0
  0
LINE
  5
11F
330
1F
100
AcDbEntity
  8
0
  6
HIDDEN
 62
     7
370
     0
100
AcDbLine
 10
153.3754146514
 20
103.2743228602
 30
0.0
 11
156.3754146514
 21
103.2743228602
 31
0.0
  0
LINE
  5
120
330
1F
100
AcDbEntity
  8
0
  6
HIDDEN
 62
     7
370
     0
100
AcDbLine
 10
156.3754146514
 20
122.2743228602
 30
0.0
 11
153.3754146514
 21
122.2743228602
 31
0.0
  0
LINE
  5
121
330
1F
100
AcDbEntity
  8
0
  6
HIDDEN
 62
     7
370
     0
100
AcDbLine
 10
144.5254146514
 20
103.7743228602
 30
0.0
 11
145.0254146514
 21
104.2743228602
 31
0.0
  0
LINE
  5
122
330
1F
100
AcDbEntity
  8
0
  6
HIDDEN
 62
     7
370
     0
100
AcDbLine
 10
145.0254146514
 20
121.2743228602
 30
0.0
 11
144.5254146514
 21
121.7743228602
 31
0.0
  0
LINE
  5
123
330
1F
100
AcDbEntity
  8
0
  6
HIDDEN
 62
     7
370
     0
100
AcDbLine
 10
145.0254146514
 20
104.2743228602
 30
0.0
 11
153.3754146514
 21
104.2743228602
 31
0.0
  0
LINE
  5
124
330
1F
100
AcDbEntity
  8
0
  6
HIDDEN
 62
     7
370
     0
100
AcDbLine
 10
153.3754146514
 20
121.2743228602
 30
0.0
 11
145.0254146514
 21
121.2743228602
 31
0.0
  0
LINE
  5
125
330
1F
100
AcDbEntity
  8
0
  6
HIDDEN
 62
     7
370
     0
100
AcDbLine
 10
139.5254146514
 20
144.2743228602
 30
0.0
 11
139.5254146514
 21
139.1743228602
 31
0.0
  0
LINE
  5
126
330
1F
100
AcDbEntity
  8
0
  6
HIDDEN
 62
     7
370
     0
100
AcDbLine
 10
129.7598524819
 20
88.6949515267
 30
0.0
 11
129.3254203324
 21
89.1740175458
 31
0.0
  0
LINE
  5
127
330
1F
100
AcDbEntity
  8
0
  6
HIDDEN
 62
     7
370
     0
100
AcDbLine
 10
121.8254170073
 20
89.5957055049
 30
0.0
 11
121.342983264
 21
89.1166395295
 31
0.0
  0
LINE
  5
128
330
1F
100
AcDbEntity
  8
0
  6
HIDDEN
 62
     7
370
     0
100
AcDbLine
 10
121.3428613357
 20
136.4320009006
 30
0.0
 11
121.8254120867
 21
135.9528806427
 31
0.0
  0
LINE
  5
129
330
1F
100
AcDbEntity
  8
0
  6
HIDDEN
 62
     7
370
     0
100
AcDbLine
 10
129.3254145334
 20
136.3745784203
 30
0.0
 11
129.7599569237
 21
136.8536986709
 31
0.0
  0
LINE
  5
12A
330
1F
100
AcDbEntity
  8
0
  6
HIDDEN
 62
     7
370
     0
100
AcDbLine
 10
165.8543819086
 20
108.5743228602
 30
0.0
 11
166.5754146514
 21
109.7743228602
 31
0.0
  0
LINE
  5
12B
330
1F
100
AcDbEntity
  8
0
  6
HIDDEN
 62
     7
370
     0
100
AcDbLine
 10
166.5754146514
 20
115.7743228602
 30
0.0
 11
165.8543819086
 21
116.9743228602
 31
0.0
  0
LINE
  5
12C
330
1F
100
AcDbEntity
  8
0
  6
HIDDEN
 62
     7
370
     0
100
AcDbLine
 10
156.3754146514
 20
108.5743228602
 30
0.0
 11
165.8543819086
 21
108.5743228602
 31
0.0
  0
LINE
  5
12D
330
1F
100
AcDbEntity
  8
0
  6
HIDDEN
 62
     7
370
     0
100
AcDbLine
 10
165.8543819086
 20
116.9743228602
 30
0.0
 11
156.3754146514
 21
116.9743228602
 31
0.0
  0
LINE
  5
12E
330
1F
100
AcDbEntity
  8
0
  6
HIDDEN
 62
     7
370
     0
100
AcDbLine
 10
129.3254146514
 20
89.1742725119
 30
0.0
 11
129.3254146514
 21
92.8364866696
 31
0.0
  0
LINE
  5
12F
330
1F
100
AcDbEntity
  8
0
  6
HIDDEN
 62
     7
370
     0
100
AcDbLine
 10
121.8254146514
 20
92.7749071215
 30
0.0
 11
121.8254146514
 21
89.5958869299
 31
0.0
  0
LINE
  5
130
330
1F
100
AcDbEntity
  8
0
  6
HIDDEN
 62
     7
370
     0
100
AcDbLine
 10
129.3254146514
 20
132.7121590509
 30
0.0
 11
129.3254146514
 21
136.3742871143
 31
0.0
  0
LINE
  5
131
330
1F
100
AcDbEntity
  8
0
  6
HIDDEN
 62
     7
370
     0
100
AcDbLine
 10
121.8254146514
 20
135.9527368635
 30
0.0
 11
121.8254146514
 21
132.773738599
 31
0.0
  0
ARC
  5
132
330
1F
100
AcDbEntity
  8
0
  6
HIDDEN
 62
     7
370
     0
100
AcDbCircle
 10
199.2754146514
 20
109.4743228602
 30
0.0
 40
0.2999999999999972
100
AcDbArc
 50
0.0
 51
90.0
  0
ARC
  5
133
330
1F
100
AcDbEntity
  8
0
  6
HIDDEN
 62
     7
370
     0
100
AcDbCircle
 10
199.2754146514
 20
116.0743228602
 30
0.0
 40
0.2999999999999829
100
AcDbArc
 50
270.0
 51
0.0
  0
LINE
  5
134
330
1F
100
AcDbEntity
  8
0
  6
HIDDEN
 62
     7
370
     0
100
AcDbLine
 10
166.5754146514
 20
109.7743228602
 30
0.0
 11
199.2754146514
 21
109.7743228602
 31
0.0
  0
LINE
  5
135
330
1F
100
AcDbEntity
  8
0
  6
HIDDEN
 62
     7
370
     0
100
AcDbLine
 10
199.2754146514
 20
115.7743228602
 30
0.0
 11
166.5754146514
 21
115.7743228602
 31
0.0
  0
DIMENSION
  5
136
330
1F
100
AcDbEntity
  8
VERMASSUNG
100
AcDbDimension
  2
*D1
 10
206.5173347779
 20
109.7743228602
 30
0.0
 11
206.5173347779
 21
112.7743228602
 31
0.0
 70
   160
  1
%%c<>
 71
     2
 42
-1.0
  3
SLDDIMSTYLE0
100
AcDbAlignedDimension
 13
199.2754146514
 23
115.7743228602
 33
0.0
 14
199.2754146514
 24
109.7743228602
 34
0.0
 50
90.0
100
AcDbRotatedDimension
  0
DIMENSION
  5
144
330
1F
100
AcDbEntity
  8
VERMASSUNG
100
AcDbDimension
  2
*D2
 10
212.5173347779
 20
97.7743228602
 30
0.0
 11
212.5173347779
 21
112.7743228602
 31
0.0
 70
   160
  1
%%c<>
 71
     2
 42
-1.0
  3
SLDDIMSTYLE1
100
AcDbAlignedDimension
 13
185.6361196681
 23
127.7743228602
 33
0.0
 14
185.6361196681
 24
97.7743228602
 34
0.0
 50
90.0
100
AcDbRotatedDimension
  0
DIMENSION
  5
150
330
1F
100
AcDbEntity
  8
VERMASSUNG
100
AcDbDimension
  2
*D3
 10
199.5754146514
 20
146.9116726263
 30
0.0
 11
180.0504146514
 21
146.9116726263
 31
0.0
 70
   160
 71
     2
 42
-1.0
  3
SLDDIMSTYLE1
100
AcDbAlignedDimension
 13
160.5254146514
 23
142.620763184
 33
0.0
 14
199.5754146514
 24
120.0001823386
 34
0.0
100
AcDbRotatedDimension
  0
DIMENSION
  5
15A
330
1F
100
AcDbEntity
  8
VERMASSUNG
100
AcDbDimension
  2
*D4
 10
199.5754146514
 20
152.9116726263
 30
0.0
 11
167.0754146514
 21
152.9116726263
 31
0.0
 70
   160
 71
     2
 42
-1.0
  3
SLDDIMSTYLE1
100
AcDbAlignedDimension
 13
134.5754146514
 23
143.9743228602
 33
0.0
 14
199.5754146514
 24
120.0001823386
 34
0.0
100
AcDbRotatedDimension
  0
DIMENSION
  5
164
330
1F
100
AcDbEntity
  8
VERMASSUNG
100
AcDbDimension
  2
*D5
 10
199.5754146514
 20
158.9116726263
 30
0.0
 11
151.1254146514
 21
158.9116726263
 31
0.0
 70
   160
 71
     2
 42
-1.0
  3
SLDDIMSTYLE1
100
AcDbAlignedDimension
 13
102.6754146514
 23
132.4650006067
 33
0.0
 14
199.5754146514
 24
120.0001823386
 34
0.0
100
AcDbRotatedDimension
  0
DIMENSION
  5
16E
330
1F
100
AcDbEntity
  8
VERMASSUNG
100
AcDbDimension
  2
*D6
 10
97.1905261386
 20
81.2743228602
 30
0.0
 11
97.1905261386
 21
112.7743228602
 31
0.0
 70
   160
  1
HSK A %%c<>
 71
     2
 42
-1.0
  3
SLDDIMSTYLE1
100
AcDbAlignedDimension
 13
134.8754146514
 23
144.2743228602
 33
0.0
 14
134.8754146514
 24
81.2743228602
 34
0.0
 50
90.0
100
AcDbRotatedDimension
  0
LINE
  5
17A
330
1F
100
AcDbEntity
  8
VERMASSUNG
  6
CENTERX2
370
     0
100
AcDbLine
 10
99.3013001083
 20
112.7743228602
 30
0.0
 11
201.1797399783
 21
112.7743228602
 31
0.0
  0
OLE2FRAME
  5
17B
330
1F
100
AcDbEntity
  8
0
100
AcDbOle2Frame
 70
     2
  3
Bitmap Image
 10
13.8511154363
 20
38.264191557
 30
0.0
 11
51.6290888628
 21
31.9806341108
 31
0.0
 71
     2
 72
     0
 73
     1
 90
    12928
310
80552BED0767C5B32B40DDAF6807D121434000000000000000006FFBDDFB85D0
310
4940DDAF6807D121434000000000000000006FFBDDFB85D04940416F4BD60AFB
310
3F4000000000000000002BED0767C5B32B40416F4BD60AFB3F40000000000000
310
0000000000000100000000010000010000000100000000000100000000320000
310
D0CF11E0A1B11AE1000000000000000000000000000000003E000300FEFF0900
310
0600000000000000000000000100000001000000000000000010000002000000
310
01000000FEFFFFFF0000000000000000FFFFFFFFFFFFFFFFFFFFFFFFFFFFFFFF
310
FFFFFFFFFFFFFFFFFFFFFFFFFFFFFFFFFFFFFFFFFFFFFFFFFFFFFFFFFFFFFFFF
310
FFFFFFFFFFFFFFFFFFFFFFFFFFFFFFFFFFFFFFFFFFFFFFFFFFFFFFFFFFFFFFFF
310
FFFFFFFFFFFFFFFFFFFFFFFFFFFFFFFFFFFFFFFFFFFFFFFFFFFFFFFFFFFFFFFF
310
FFFFFFFFFFFFFFFFFFFFFFFFFFFFFFFFFFFFFFFFFFFFFFFFFFFFFFFFFFFFFFFF
310
FFFFFFFFFFFFFFFFFFFFFFFFFFFFFFFFFFFFFFFFFFFFFFFFFFFFFFFFFFFFFFFF
310
FFFFFFFFFFFFFFFFFFFFFFFFFFFFFFFFFFFFFFFFFFFFFFFFFFFFFFFFFFFFFFFF
310
FFFFFFFFFFFFFFFFFFFFFFFFFFFFFFFFFFFFFFFFFFFFFFFFFFFFFFFFFFFFFFFF
310
FFFFFFFFFFFFFFFFFFFFFFFFFFFFFFFFFFFFFFFFFFFFFFFFFFFFFFFFFFFFFFFF
310
FFFFFFFFFFFFFFFFFFFFFFFFFFFFFFFFFFFFFFFFFFFFFFFFFFFFFFFFFFFFFFFF
310
FFFFFFFFFFFFFFFFFFFFFFFFFFFFFFFFFFFFFFFFFFFFFFFFFFFFFFFFFFFFFFFF
310
FFFFFFFFFFFFFFFFFFFFFFFFFFFFFFFFFFFFFFFFFFFFFFFFFFFFFFFFFFFFFFFF
310
FFFFFFFFFFFFFFFFFFFFFFFFFFFFFFFFFFFFFFFFFFFFFFFFFFFFFFFFFFFFFFFF
310
FFFFFFFFFFFFFFFFFFFFFFFFFFFFFFFFFFFFFFFFFFFFFFFFFFFFFFFFFFFFFFFF
310
FDFFFFFFFEFFFFFFFEFFFFFFFEFFFFFF05000000060000000700000008000000
310
090000000A0000000B0000000C0000000D0000000E0000000F00000010000000
310
11000000120000001300000014000000150000001600000017000000FEFFFFFF
310
FFFFFFFFFFFFFFFFFFFFFFFFFFFFFFFFFFFFFFFFFFFFFFFFFFFFFFFFFFFFFFFF
310
FFFFFFFFFFFFFFFFFFFFFFFFFFFFFFFFFFFFFFFFFFFFFFFFFFFFFFFFFFFFFFFF
310
FFFFFFFFFFFFFFFFFFFFFFFFFFFFFFFFFFFFFFFFFFFFFFFFFFFFFFFFFFFFFFFF
310
FFFFFFFFFFFFFFFFFFFFFFFFFFFFFFFFFFFFFFFFFFFFFFFFFFFFFFFFFFFFFFFF
310
FFFFFFFFFFFFFFFFFFFFFFFFFFFFFFFFFFFFFFFFFFFFFFFFFFFFFFFFFFFFFFFF
310
FFFFFFFFFFFFFFFFFFFFFFFFFFFFFFFFFFFFFFFFFFFFFFFFFFFFFFFFFFFFFFFF
310
FFFFFFFFFFFFFFFFFFFFFFFFFFFFFFFFFFFFFFFFFFFFFFFFFFFFFFFFFFFFFFFF
310
FFFFFFFFFFFFFFFFFFFFFFFFFFFFFFFFFFFFFFFFFFFFFFFFFFFFFFFFFFFFFFFF
310
FFFFFFFFFFFFFFFFFFFFFFFFFFFFFFFFFFFFFFFFFFFFFFFFFFFFFFFFFFFFFFFF
310
FFFFFFFFFFFFFFFFFFFFFFFFFFFFFFFFFFFFFFFFFFFFFFFFFFFFFFFFFFFFFFFF
310
FFFFFFFFFFFFFFFFFFFFFFFFFFFFFFFFFFFFFFFFFFFFFFFFFFFFFFFFFFFFFFFF
310
FFFFFFFFFFFFFFFFFFFFFFFFFFFFFFFFFFFFFFFFFFFFFFFFFFFFFFFFFFFFFFFF
310
FFFFFFFFFFFFFFFFFFFFFFFFFFFFFFFFFFFFFFFFFFFFFFFFFFFFFFFFFFFFFFFF
310
52006F006F007400200045006E00740072007900000000000000000000000000
310
0000000000000000000000000000000000000000000000000000000000000000
310
16000500FFFFFFFFFFFFFFFF020000000A00030000000000C000000000000046
310
000000000000000000000000D0D900DB25FFCB0103000000C000000000000000
310
01004F006C006500000000000000000000000000000000000000000000000000
310
0000000000000000000000000000000000000000000000000000000000000000
310
0A000200FFFFFFFFFFFFFFFFFFFFFFFF00000000000000000000000000000000
310
0000000000000000000000000000000000000000000000001400000000000000
310
010043006F006D0070004F0062006A0000000000000000000000000000000000
310
0000000000000000000000000000000000000000000000000000000000000000
310
120002010100000003000000FFFFFFFF00000000000000000000000000000000
310
0000000000000000000000000000000000000000010000004D00000000000000
310
01004F006C006500310030004E00610074006900760065000000000000000000
310
0000000000000000000000000000000000000000000000000000000000000000
310
1A000200FFFFFFFFFFFFFFFFFFFFFFFF00000000000000000000000000000000
310
0000000000000000000000000000000000000000040000002426000000000000
310
FEFFFFFF02000000FEFFFFFFFFFFFFFFFFFFFFFFFFFFFFFFFFFFFFFFFFFFFFFF
310
FFFFFFFFFFFFFFFFFFFFFFFFFFFFFFFFFFFFFFFFFFFFFFFFFFFFFFFFFFFFFFFF
310
FFFFFFFFFFFFFFFFFFFFFFFFFFFFFFFFFFFFFFFFFFFFFFFFFFFFFFFFFFFFFFFF
310
FFFFFFFFFFFFFFFFFFFFFFFFFFFFFFFFFFFFFFFFFFFFFFFFFFFFFFFFFFFFFFFF
310
FFFFFFFFFFFFFFFFFFFFFFFFFFFFFFFFFFFFFFFFFFFFFFFFFFFFFFFFFFFFFFFF
310
FFFFFFFFFFFFFFFFFFFFFFFFFFFFFFFFFFFFFFFFFFFFFFFFFFFFFFFFFFFFFFFF
310
FFFFFFFFFFFFFFFFFFFFFFFFFFFFFFFFFFFFFFFFFFFFFFFFFFFFFFFFFFFFFFFF
310
FFFFFFFFFFFFFFFFFFFFFFFFFFFFFFFFFFFFFFFFFFFFFFFFFFFFFFFFFFFFFFFF
310
FFFFFFFFFFFFFFFFFFFFFFFFFFFFFFFFFFFFFFFFFFFFFFFFFFFFFFFFFFFFFFFF
310
FFFFFFFFFFFFFFFFFFFFFFFFFFFFFFFFFFFFFFFFFFFFFFFFFFFFFFFFFFFFFFFF
310
FFFFFFFFFFFFFFFFFFFFFFFFFFFFFFFFFFFFFFFFFFFFFFFFFFFFFFFFFFFFFFFF
310
FFFFFFFFFFFFFFFFFFFFFFFFFFFFFFFFFFFFFFFFFFFFFFFFFFFFFFFFFFFFFFFF
310
FFFFFFFFFFFFFFFFFFFFFFFFFFFFFFFFFFFFFFFFFFFFFFFFFFFFFFFFFFFFFFFF
310
FFFFFFFFFFFFFFFFFFFFFFFFFFFFFFFFFFFFFFFFFFFFFFFFFFFFFFFFFFFFFFFF
310
FFFFFFFFFFFFFFFFFFFFFFFFFFFFFFFFFFFFFFFFFFFFFFFFFFFFFFFFFFFFFFFF
310
FFFFFFFFFFFFFFFFFFFFFFFFFFFFFFFFFFFFFFFFFFFFFFFFFFFFFFFFFFFFFFFF
310
0100000200000000000000000000000000000000FFFFFFFF0A6F820000100004
310
C802250000000000C8022500000000000A000000060000000000000010000000
310
0100FEFF030A0000FFFFFFFF0A00030000000000C00000000000004607000000
310
5042727573680007000000504272757368000700000050427275736800F439B2
310
710000000000000000000000006C000800000000E40100007001000002000000
310
2800000010000000000000000000000090010000FF0000000302011241006400
310
6F0062006500200047006100720061006D006F006E0064002000500072006F00
310
0000000000000000000000000000000000000000000000000000000041004700
310
6100720061006D006F006E006400500072006F002D004900740061006C006900
310
6300000000000000000000000000000000000000000000000000000000000000
310
0000000000000000000000000000000000000000000000000000000000000000
310
0000000000000000000000000000000000000000000000000000000049007400
310
61006C0069006300000000000000000000000000000000000000000000000000
310
000000000000000000000000000000000000000000000000000000000000FFFF
310
FFFFFFFFFFFFFFFFFFFFFFFFFFFFFFFFFFFFFFFFFFFFFFFFFFFFFFFFFFFFFFFF
310
FFFFFFFFFFFFFFFFFFFFFFFFFFFFFFFFFFFFFFFFFFFFFFFFFFFFFFFF64760008
310
20260000424D0E260000000000003E00000028000000B40200006E0000000100
310
01000000000000000000130B0000130B00000200000002000000000000FFFFFF
310
FFFFFFFFFFFFFFFFFFFFFFFFFFFFFFFFFFFFFFFFFFFFFFFFFFFFFFFFFFFFFFFF
310
FFFFFFFFFFFFFFFFFFFFFFFFFFFFFFFFFFFFFFFFFFFFFFFFFFFFFFFFFFFFFFFF
310
FFFFFFFFFFFFFFFFFFFFFFFFFFFFFFFFFFFFFFFFFFFFFFFFF000FFFFFFFFFFFF
310
FFFFFFFFFFFFFFFFFFFFFFFFFFFFFFFFFFFFFFFFFFFFFFFFFFFFFFFFFFFFFFFF
310
FFFFFFFFFFFFFFFFFFFFFFFFFFFFFFFFFFFFFFFFFFFFFFFFFFFFFFFFFFFFFFFF
310
FFFFFFFFFFFFFFFFFFFFFFFFFFFFFFFFF000FFFFFFFFFFFFFFFFFFFFFFFFFFFF
310
FFFFFFFFFFFFFFFFFFFFFFFFFFFFFFFFFFFFFFFFFFFFFFFFFFFFFFFFFFFFFFFF
310
FFFFFFFFFFFFFFFFFFFFFFFFFFFFFFFFFFFFFFFFFFFFFFFFFFFFFFFFFFFFFFFF
310
FFFFFFFFFFFFFFFFF000FFFFFFFFFFFFFFFFFFFFFFFFFFFFFFFFFFFFFFFFFFFF
310
FFFFFFFFFFFFFFFFFFFFFFFFFFFFFFFFFFFFFFFFFFFFFFFFFFFFFFFFFFFFFFFF
310
FFFFFFFFFFFFFFFFFFFFFFFFFFFFFFFFFFFFFFFFFFFFFFFFFFFFFFFFFFFFFFFF
310
F000FFFFFFFFFFFFFFFFFFFFFFFFFFFFFFFFFFFFFFFFFFFFFFFFFFFFFFFFFFFF
310
FFFFFFFFFFFFFFFFFFFFFFFFFFFFFFFFFFFFFFFFFFFFFFFFFFFFFFFFFFFFFFFF
310
FFFFFFFFFFFFFFFFFFFFFFFFFFFFFFFFFFFFFFFFFFFFFFFFF000FFFFFFFFFFFF
310
FFFFFFFFFFFFFFFFFFFFFFFFFFFFFFFFFFFFFFFFFFFFFFFFFFFFFFFFFFFFFFFF
310
FFFFFFFFFFFFFFFFFFFFFFFFFFFFFFFFFFFFFFFFFFFFFFFFFFFFFFFFFFFFFFFF
310
FFFFFFFFFFFFFFFFFFFFFFFFFFFFFFFFF000FFFFFFFFFFFFFFFFFFFFFFFFFFFF
310
FFFFFFFFFFFFFFFFFFFFFFFFFFFFFFFFFFFFFFFFFFFFFFFFFFFFFFFFFFFFFFFF
310
FFFFFFFFFFFFFFFFFFFFFFFFFFFFFFFFFFFFFFFFFFFFFFFFFFFFFFFFFFFFFFFF
310
FFFFFFFFFFFFFFFFF000FFFFFFFFFFFFFFFFFFFFFFFFFFFFFFFFFFFFFFFFFFFF
310
FFFFFFFFFFFFFFFFFFFFFFFFFFFFFFFFFFFFFFFFFFFFFFFFFFFFFFFFFFFFFFFF
310
FFFFFFFFFFFFFFFFFFFFFFFFFFFFFFFFFFFFFFFFFFFFFFFFFFFFFFFFFFFFFFFF
310
F000FFFFFFFFFFFFFFFFFFFFFFFFFFFFFFFFFFFFFFFFFFFFFFFFFFFFFFFFFFFF
310
FFFFFFFFFFFFFFFFFFFFFFFFFFFFFFFFFFFFFFFFFFFFFFFFFFFFFFFFFFFFFFFF
310
FFFFFFFFFFFFFFFFFFFFFFFFFFFFFFFFFFFFFFFFFFFFFFFFF000FFFFFFFFFFFF
310
FFFFFFFFFFFFFFFFFFFFFFFFFFFFFFFFFFFFFFFFFFFFFFFFFFFFFFFFFFFFFFFF
310
FFFFFFFFFFFFFFFFFFFFFFFFFFFFFFFFFFFFFFFFFFFFFFFFFFFFFFFFFFFFFFFF
310
FFFFFFFFFFFFFFFFFFFFFFFFFFFFFFFFF000FFFFFFFFFFFFFFFFFFFFFFFFFFFF
310
FFFFFFFFFFFFFFFFFFFFFFFFFFFFFFFFFFFFFFFFFFFFFFFFFFFFFFFFFFFFFFFF
310
FFFFFFFFFFFFFFFFFFFFFFFFFFFFFFFFFFFFFFFFFFFFFFFFFFFFFFFFFFFFFFFF
310
FFFFFFFFFFFFFFFFF000FFFFFFFFFFFFFFFFFFFFFFFFFFFFFFFFFFFFFFFFFFFF
310
FFFFFFFFFFFFFFFFFFFFFFFFFFFFFFFFFFFFFFFFFFFFFFFFFFFFFFFFFFFFFFFF
310
FFFFFFFFFFFFFFFFFFFFFFFFFFFFFFFFFFFFFFFFFFFFFFFFFFFFFFFFFFFFFFFF
310
F000FFFFFFFFFFFFFFFFFFFFFFFFFFFFFFFFFFFFFFFFFFFFFFFFFFFFFFFFFFFF
310
FFFFFFFFFFFFFFFFFFFFFFFFFFFFFFFFFFFFFFFFFFFFFFFFFFFFFFFFFFFFFFFF
310
FFFFFFFFFFFFFFFFFFFFFFFFFFFFFFFFFFFFFFFFFFFFFFFFF000FFFFFFFFFFFF
310
FFFFFFFFFFFFFFFFFFFFFFFFFFFFFFFFFFFFFFFFFFFFFFFFFFFFFFFFFFFFFFFF
310
FFFFFFFFFFFFFFFFFFFFFFFFFFFFFFFFFFFFFFFFFFFFFFFFFFFFFFFFFFFFFFFF
310
FFFFFFFFFFFFFFFFFFFFFFFFFFFFFFFFF000FFFFFFFFFFFFFFFFFFFFFFFFFFFF
310
FFFFFFFFFFFFFFFFFFFFFFFFFFFFFFFFFFFFFFFFFFFFFFFFFFFFFFFFFFFFFFFF
310
FFFFFFFFFFFFFFFFFFFFFFFFFFFFFFFFFFFFFFFFFFFFFFFFFFFFFFFFFFFFFFFF
310
FFFFFFFFFFFFFFFFF000FFFFFFFFFFFFFFFFFFFFFFFFFFFFFFFFFFFFFFFFFFFF
310
FFFFFFFFFFFFFFFFFFFFFFFFFFFFFFFFFFFFFFFFFFFFFFFFFFFFFFFFFFFFFFFF
310
FFFFFFFFFFFFFFFFFFFFFFFFFFFFFFFFFFFFFFFFFFFFFFFFFFFFFFFFFFFFFFFF
310
F000FFFFFFFFFFFFFFFFFFFFFFFFFFFFFFFFFFFFFFFFFFFFFFFFFFFFFFFFFFFF
310
FFFFFFFFFFFFFFFFFFFFFFFFFFFFFFFFFFFFFFFFFFFFFFFFFFFFFFFFFFFFFFFF
310
FFFFFFFFFFFFFFFFFFFFFFFFFFFFFFFFFFFFFFFFFFFFFFFFF000FFFFFFFFFFFF
310
FFFFFFFFFFFFFFFFFFFFFFFFFFFFFFFFFFFFFFFFFFFFFFFFFFFFFFFFFFFFFFFF
310
FFFFFFFFFFFFFFFFFFFFFFFFFFFFFFFFFFFFFFFFFFFFFFFFFFFFFFFFFFFFFFFF
310
FFFFFFFFFFFFFFFFFFFFFFFFFFFFFFFFF000FFFFFFFFFFFFFFFFFFFFFFFFFFFF
310
FFFFFFFFFFFFFFFFFFFFFFFFFFFFFFFFFFFFFFFFFFFFFFFFFFFFFFFFFFFFFFFF
310
FFFFFFFFFFFFFFFFFFFFFFFFFFFFFFFFFFFFFFFFFFFFFFFFFFFFFFFFFFFFFFFF
310
FFFFFFFFFFFFFFFFF000FFFFF80003FFFFFFFFFFFFFFFFFFFFFFFFFFFFFFFFFF
310
FFFFF00007FFFFFFFFFF00007FFFFFF800000000000000007FFFFFFFFFFFFFFF
310
FFFFFFFC001FFFFFFFFFFFFFFC001FFFFFFFFFFFFFFFFFFFFFFFFFFE0007FFFF
310
F000FFFF8000007FFFFFFFF8000FFFFFC0007FFFFF80007FFFFF0000007FFFFF
310
FFF8000007FFFFF800000000000000007FFFFFF0001FFFFFFFFFFFC00001FFFF
310
FFFFFFFFC00001FFFFFFFF000000000003FFFFE000007FFFF000FFFE0000000F
310
FFFFFFF0000FFFFF80007FFFFF80007FFFFC0000001FFFFFFFC0000001FFFFF8
310
00000000000000007FFFFFF0001FFFFFFFFFFE0000003FFFFFFFFFFE0000003F
310
FFFFFF000000000003FFFF0000000FFFF000FFF800000003FFFFFFF00007FFFF
310
80007FFFFF80007FFFF000000007FFFFFF000000003FFFF80000000000000000
310
7FFFFFF0001FFFFFFFFFF80000000FFFFFFFFFF80000000FFFFFFF0000000000
310
03FFFC00000003FFF000FFE000000000FFFFFFF00007FFFF80003FFFFF80007F
310
FFC000000001FFFFFC000000001FFFF800000000000000007FFFFFF0001FFFFF
310
FFFFE000000003FFFFFFFFE000000003FFFFFF000000000003FFF000000000FF
310
F000FF80000000007FFFFFF00007FFFF80003FFFFF80007FFF8000000000FFFF
310
F80000000007FFF800000000000000007FFFFFF0001FFFFFFFFFC000000001FF
310
FFFFFFC000000001FFFFFF000000000003FFC0000000007FF000FF0000000000
310
3FFFFFE00007FFFF00003FFFFF80007FFE00000000003FFFF00000000003FFF8
310
00000000000000007FFFFFF0001FFFFFFFFF8000000000FFFFFFFF8000000000
310
FFFFFF000000000003FF80000000003FF000FE00000000001FFFFFE00003FFFF
310
00003FFFFF80007FFC00000000001FFFE00000000001FFF8000001FFFE000000
310
7FFFFFF0001FFFFFFFFE00000000003FFFFFFE00000000003FFFFF0000000000
310
03FF00000000001FF000FC00000000000FFFFFE00003FFFF00001FFFFF80007F
310
F800000000001FFFC00000000000FFF8000001FFFE0000007FFFFFF0001FFFFF
310
FFFC00000000001FFFFFFC00000000001FFFFF000000000003FE00000000000F
310
F000F8000000000007FFFFE00003FFFF00001FFFFF80007FF800000000000FFF
310
800000000000FFF8000001FFFE0000007FFFFFF0001FFFFFFFF800000000000F
310
FFFFF800000000000FFFFF000000000003FC000000000007F000F80000000000
310
03FFFFC00003FFFE00001FFFFF80007FF0000000000007FF0000000000007FF8
310
000001FFFE0000007FFFFFF0001FFFFFFFF0000000000007FFFFF00000000000
310
07FFFF000000000003F8000000000003F000F0000000000003FFFFC00001FFFE
310
00001FFFFF80007FE0000000000007FE0000000000003FF8000001FFFE000000
310
7FFFFFF0001FFFFFFFF0000000000007FFFFF0000000000007FFFF0000000000
310
03F800001F800003F000E00001FFF00001FFFFC00001FFFE00000FFFFF80007F
310
E00001FFE00003FE00001FFF00003FF8000001FFFE0000007FFFFFF0001FFFFF
310
FFE000003E000003FFFFE000003E000003FFFF000000000003F00001FFF80001
310
F000E00007FFFC0001FFFFC00001FFFE00000FFFFF80007FC0000FFFFC0003FC
310
0000FFFFC0001FF8000001FFFE0000007FFFFFF0001FFFFFFFC00003FFE00001
310
FFFFC00003FFE00001FFFF0001FFFFFFFFF00007FFFE0001F000E0000FFFFF00
310
00FFFF800001FFFC00000FFFFF80007FC0001FFFFE0001FC0001FFFFE0001FF8
310
000001FFFE0000007FFFFFF0001FFFFFFF80000FFFF80000FFFF80000FFFF800
310
00FFFF0003FFFFFFFFE0000FFFFF8000F000C0003FFFFF8000FFFF800000FFFC
310
000007FFFF80007F80003FFFFF0001FC0003FFFFF0001FF8000001FFFE000000
310
7FFFFFF0001FFFFFFF80003FFFFE0000FFFF80003FFFFE0000FFFF0003FFFFFF
310
FFE0003FFFFF8000F000C0003FFFFF8000FFFF800000FFFC000007FFFF80007F
310
80007FFFFF8001F80007FFFFF8000FF8000001FFFE0000007FFFFFF0001FFFFF
310
FF00007FFFFF00007FFF00007FFFFF00007FFF0003FFFFFFFFE0003FFFFFC000
310
F000C0007FFFFFC000FFFF000000FFFC000007FFFF80007F8000FFFFFF8000F8
310
000FFFFFF8000FF8000001FFFE0000007FFFFFF0001FFFFFFF0000FFFFFF8000
310
7FFF0000FFFFFF80007FFF0003FFFFFFFFC0007FFFFFC00070008000FFFFFFC0
310
00FFFF000000FFF8000007FFFF80007F8000FFFFFF8000F8000FFFFFF8000FF8
310
000001FFFE0000007FFFFFF0001FFFFFFE0001FFFFFFC0003FFE0001FFFFFFC0
310
003FFF0003FFFFFFFFC0007FFFFFE00070008000FFFFFFC0007FFF0000007FF8
310
000003FFFF80007F0001FFFFFF8000F8000FFFFFF8000FF8000001FFFE000000
310
7FFFFFF0001FFFFFFE0001FFFFFFC0003FFE0001FFFFFFC0003FFF0003FFFFFF
310
FFC000FFFFFFE00070008000FFFFFFC0007FFF0000007FF8000003FFFF80007F
310
0001FFFFFF8000F8001FFFFFF8000FF8000001FFFE0000007FFFFFF0001FFFFF
310
FE0003FFFFFFE0003FFE0003FFFFFFE0003FFF0003FFFFFFFFC000FFFFFFE000
310
70008000FFFFFFC0007FFE0000007FF8000003FFFF80007F0001FFFFFF8000F0
310
001FFFFFF8000FF8000001FFFE0000007FFFFFF0001FFFFFFC0003FFFFFFE000
310
1FFC0003FFFFFFE0001FFF0003FFFFFFFFC000FFFFFFC00070008000FFFFFF80
310
007FFE0000007FF0000003FFFF80007F0001FFFFFF0000F0001FFFFFF8000FF8
310
000001FFFE0000007FFFFFF0001FFFFFFC0007FFFFFFF0001FFC0007FFFFFFF0
310
001FFF0003FFFFFFFFC000FFFFFFC00070008001FFFFFF0000FFFE0000003FF0
310
000001FFFF80007F0001FFFFFF0000F8001FFFFFF0000FF8000001FFFE000000
310
7FFFFFF0001FFFFFFC0007FFFFFFF0001FFC0007FFFFFFF0001FFF0003FFFFFF
310
FFC001FFFFFF80007000FFFFFFFFFE0000FFFE0008003FF0008001FFFF80007F
310
FFFFFFFFFC0000FFFFFFFFFFE0000FF8000001FFFE0000007FFFFFF0001FFFFF
310
F8000FFFFFFFF8000FF8000FFFFFFFF8000FFF0003FFFFFFFFFFFFFFFFFF0000
310
7000FFFFFFFFFC0000FFFC0008003FF0008001FFFF80007FFFFFFFFFF80001FF
310
FFFFFFFF80000FF8000001FFFE0000007FFFFFF0001FFFFFF8000FFFFFFFF800
310
0FF8000FFFFFFFF8000FFF0003FFFFFFFFFFFFFFFFFE0000F000FFFFFFFFE000
310
00FFFC000C003FE000C001FFFF80007FFFFFFFFFC00001FFFFFFFFFE00001FF8
310
000001FFFE0000007FFFFFF0001FFFFFF8000FFFFFFFF8000FF8000FFFFFFFF8
310
000FFF0003FFFFFFFFFFFFFFFFF00000F000FFFFFFFE000001FFFC000C001FE0
310
00C000FFFF80007FFFFFFFFE000001FFFFFFFFE000001FF80FFFFFFFFFFFFFC0
310
7FFFFFF0001FFFFFF8000FFFFFFFF8000FF8000FFFFFFFF8000FFF0003FFFFFF
310
FFFFFFFFFF800000F000FFFFFFC0000001FFFC001C001FE001C000FFFF80007F
310
FFFFFF80000003FFFFFFF80000001FF80FFFFFFFFFFFFFC07FFFFFF0001FFFFF
310
F8001FFFFFFFFC000FF8001FFFFFFFFC000FFF0003FFFFFFFFFFFFFFF0000001
310
F000FFFFF800000001FFF8001C001FE001C000FFFF80007FFFFFF800000003FF
310
FFFF800000003FF80FFFFFFFFFFFFFC07FFFFFF0001FFFFFF8001FFFFFFFFC00
310
0FF8001FFFFFFFFC000FFF0003FFFFFFFFFFFFFE00000001F000FFFFC0000000
310
03FFF8001E001FC001E000FFFF80007FFFFF8000000007FFFFFC000000003FF8
310
0FFFFFFFFFFFFFC07FFFFFF0001FFFFFF8001FFFFFFFFC000FF8001FFFFFFFFC
310
000FFF0003FFFFFFFFFFFFE000000003F000FFFE0000000007FFF8001E000FC0
310
01E0007FFF80007FFFFE0000000007FFFFE0000000007FF80FFFFFFFFFFFFFC0
310
7FFFFFF0001FFFFFF0001FFFFFFFFC0007F0001FFFFFFFFC0007FF0003FFFFFF
310
FFFFFF0000000003F000FFF80000000007FFF8001E000FC003E0007FFF80007F
310
FFF0000000000FFFFF8000000000FFF80FFFFFFFFFFFFFC07FFFFFF0001FFFFF
310
F0001FFFFFFFFC0007F0001FFFFFFFFC0007FF0003FFFFFFFFFFFC0000000007
310
F000FFE0000000000FFFF0003E000FC003E0007FFF80007FFFC0000000001FFF
310
FE0000000001FFF80FFFFFFFFFFFFFC07FFFFFF0001FFFFFF0001FFFFFFFFC00
310
07F0001FFFFFFFFC0007FF0003FFFFFFFFFFF0000000000FF000FFC000000000
310
1FFFF0003F000F8003F0003FFF80007FFF80000000003FFFF80000000003FFF8
310
0FFFFFFFFFFFFFC07FFFFFF0001FFFFFF0001FFFFFFFFC0007F0001FFFFFFFFC
310
0007FF0003FFFFFFFFFFE0000000001FF000FF00000000007FFFF0003F000780
310
03F0003FFF80007FFF00000000007FFFF00000000007FFF80FFFFFFFFFFFFFC0
310
7FFFFFF0001FFFFFF0001FFFFFFFFC0007F0001FFFFFFFFC0007FF0003FFFFFF
310
FFFF80000000007FF000FE0000000000FFFFE0003F00078007F0003FFF80007F
310
FE0000000001FFFFE0000000001FFFF80FFFFFFFFFFFFFC07FFFFFF0001FFFFF
310
F0001FFFFFFFFC0007F0001FFFFFFFFC0007FF0003FFFFFFFFFF0000000000FF
310
F000FC0000000003FFFFE0007F00078007F0003FFF80007FFC0000000007FFFF
310
C0000000007FFFF80FFFFFFFFFFFFFC07FFFFFF0001FFFFFF8001FFFFFFFFC00
310
0FF8001FFFFFFFFC000FFF0003FFFFFFFFFE0000000003FFF000FC000000000F
310
FFFFE0007F80070007F8001FFF80007FF8000000001FFFFF8000000001FFFFF8
310
0FFFFFFFFFFFFFC07FFFFFF0001FFFFFF8001FFFFFFFFC000FF8001FFFFFFFFC
310
000FFF0003FFFFFFFFFC000000000FFFF000F8000000007FFFFFE0007F800700
310
07F8001FFF80007FF000000000FFFFFF800000000FFFFFF80FFFFFFFFFFFFFC0
310
7FFFFFF0001FFFFFF8000FFFFFFFF8000FF8000FFFFFFFF8000FFF0003FFFFFF
310
FFFC000000007FFFF000F800000007FFFFFFC0007F8003000FF8001FFF80007F
310
F000000007FFFFFF000000007FFFFFF80FFFFFFFFFFFFFC07FFFFFF0001FFFFF
310
F8000FFFFFFFF8000FF8000FFFFFFFF8000FFF0003FFFFFFFFF80000000FFFFF
310
F000F0000000FFFFFFFFC000FF8003000FF8001FFF80007FE0000000FFFFFFFF
310
0000000FFFFFFFF8000001FFFE0000007FFFFFF0001FFFFFF8000FFFFFFFF800
310
0FF8000FFFFFFFF8000FFF0003FFFFFFFFF8000000FFFFFFF000F000000FFFFF
310
FFFFC000FFC002000FF8000FFF80007FE000001FFFFFFFFE000001FFFFFFFFF8
310
000001FFFE0000007FFFFFF0001FFFFFF8000FFFFFFFF8000FF8000FFFFFFFF8
310
000FFF0003FFFFFFFFF000001FFFFFFFF000E00000FFFFFFFFFFC000FFC00200
310
0FFC000FFF80007FE00001FFFFFFFFFE00001FFFFFFFFFF8000001FFFE000000
310
7FFFFFF0001FFFFFFC000FFFFFFFF8001FFC000FFFFFFFF8001FFF0003FFFFFF
310
FFF00001FFFFFFFFF000E00007FFFFFFFFFF8000FFC000001FFC000FFF80007F
310
C0000FFFFFFFFFFE0000FFFFFFFFFFF8000001FFFE0000007FFFFFF0001FFFFF
310
FC0007FFFFFFF0001FFC0007FFFFFFF0001FFF0003FFFFFFFFF00007FFFFFFFF
310
F000E0001FFFFFFFFFFF8000FFC000001FFC000FFF80007FC0003FFFFFFFFFFE
310
0001FFFFFFFFFFF8000001FFFE0000007FFFFFF0001FFFFFFC0007FFFFFFF000
310
1FFC0007FFFFFFF0001FFF0003FFFFFFFFF0001FFFFFFFFFF000E0003FFFFF00
310
03FF8001FFE000001FFC0007FF80007FC0007FFFFF0007FC0003FFFFF0003FF8
310
000001FFFE0000007FFFFFF0001FFFFFFC0003FFFFFFE0001FFC0003FFFFFFE0
310
001FFF0003FFFFFFFFF0003FFFFFFFFFF000E0003FFFFF0001FF8001FFE00000
310
1FFE0007FF80007FC0007FFFFE0003FC0007FFFFE0003FF8000001FFFE000000
310
7FFFFFF0001FFFFFFE0003FFFFFFE0003FFE0003FFFFFFE0003FFF0003FFFFFF
310
FFF0003FFFFF8001F000E0003FFFFF0001FF0001FFE000001FFE0007FF80007F
310
C0007FFFFE0003FC0007FFFFE0003FF8000001FFFE0000007FFFFFF0001FFFFF
310
FE0001FFFFFFC0003FFE0001FFFFFFC0003FFF0003FFFFFFFFF0003FFFFF0001
310
F000E0003FFFFF0003FF0001FFE000003FFE0007FF80007FC0007FFFFE0003FC
310
0007FFFFE0003FF8000001FFFE0000007FFFFFF0001FFFFFFF0001FFFFFFC000
310
7FFF0001FFFFFFC0007FFF0003FFFFFFFFF0003FFFFF0001F000E0003FFFFE00
310
03FF0003FFF000003FFE0003FF80007FC0007FFFFC0003FE0007FFFFE0003FF8
310
000001FFFE0000007FFFFFF0001FFFFFFF0000FFFFFF80007FFF0000FFFFFF80
310
007FFF0003FFFFFFFFF0003FFFFF0001F000E0003FFFFE0003FF0003FFF00000
310
3FFF0003FF80007FC0007FFFFC0007FE0007FFFFC0003FF8000001FFFE000000
310
7FFFFFF0001FFFFFFF80007FFFFF0000FFFF80007FFFFF0000FFFF0003FFFFFF
310
FFF0003FFFFF0003F000E0003FFFFC0003FE0003FFF000003FFF0003FF80007F
310
E0003FFFF80007FE0003FFFFC0007FF8000001FFFE0000007FFFFFF0001FFFFF
310
FF80003FFFFE0000FFFF80003FFFFE0000FFFF0003FFFFFFFFF0001FFFFE0003
310
F000F0001FFFF80003FE0003FFF000007FFF0001FF80007FE0003FFFF00007FE
310
0001FFFF80007FF8000001FFFE0000007FFFFFF0001FFFFFFFC0000FFFF80001
310
FFFFC0000FFFF80001FFFF0003FFFFFFFFF0001FFFFC0003F000F0000FFFF000
310
07FE0007FFF800007FFF0001FF80007FE0001FFFE00007FF0000FFFE00007FF8
310
000001FFFE0000007FFFFFF0001FFFFFFFC00003FFE00001FFFFC00003FFE000
310
01FFFF0003FFFFFFFFF8000FFFF80003F000F00003FFC00007FC0007FFF80000
310
7FFF8001FF80007FF00007FF80000FFF00007FF80000FFF8000001FFFE000000
310
7F80000000000001FFE000003E000003FFFFE000003E000003FFFF0003FFFFFF
310
FFF80003FFE00007F000F800000000000FFC0007FFF800007FFF8001FF80007F
310
F000000000000FFF000000000000FFF8000001FFFE0000007F80000000000001
310
FFF0000000000007FFFFF0000000000007FFFF0003FFFFFFFFFC00007E000007
310
F000F800000000000FFC0007FFF80000FFFF8000FF80007FF800000000001FFF
310
800000000001FFF8000001FFFE0000007F80000000000001FFF800000000000F
310
FFFFF800000000000FFFFF0003FFFFFFFFFC00000000000FF000FC0000000000
310
1FFC0007FFFC0000FFFF8000FF80007FF800000000003FFFC00000000001FFF8
310
000001FFFE0000007F80000000000001FFF800000000000FFFFFF80000000000
310
0FFFFF0003FFFFFFFFFE00000000001FF000FE00000000003FF8000FFFFC0000
310
FFFF8000FF80007FFC00000000003FFFC00000000003FFF8000001FFFE000000
310
7F80000000000001FFFC00000000001FFFFFFC00000000001FFFFF0003FFFFFF
310
FFFF00000000001FF000FF00000000003FF8000FFFFC0000FFFFC000FF80007F
310
FE00000000007FFFE00000000007FFF8000001FFFE0000007F80000000000001
310
FFFE00000000003FFFFFFE00000000003FFFFF0003FFFFFFFFFF80000000003F
310
F000FF80000000007FF8000FFFFC0001FFFFC0007F80007FFF0000000000FFFF
310
F0000000000FFFF800000000000000007F80000000000001FFFF8000000000FF
310
FFFFFF8000000000FFFFFF0003FFFFFFFFFFC0000000007FF000FFC000000000
310
FFF8000FFFFE0001FFFFC0007F80007FFF8000000001FFFFF8000000001FFFF8
310
00000000000000007F80000000000001FFFFC000000001FFFFFFFFC000000001
310
FFFFFF0003FFFFFFFFFFE000000000FFF000FFE000000003FFF0001FFFFE0001
310
FFFFC0007F80007FFFC000000007FFFFFE000000003FFFF80000000000000000
310
7F80000000000001FFFFE000000003FFFFFFFFE000000003FFFFFF0003FFFFFF
310
FFFFF000000003FFF000FFF80000000FFFF0001FFFFE0001FFFFE0007F80007F
310
FFF00000000FFFFFFF00000000FFFFF800000000000000007F80000000000001
310
FFFFF80000000FFFFFFFFFF80000000FFFFFFF0003FFFFFFFFFFFC0000000FFF
310
F000FFFE0000003FFFF0001FFFFE0003FFFFE0003F80007FFFFC0000003FFFFF
310
FFC0000003FFFFF800000000000000007F80000000000001FFFFFE0000003FFF
310
FFFFFFFE0000003FFFFFFF0003FFFFFFFFFFFF0000003FFFF000FFFF800000FF
310
FFF0001FFFFF0003FFFFE0003F80007FFFFF000001FFFFFFFFF800001FFFFFF8
310
00000000000000007F80000000000001FFFFFFC00001FFFFFFFFFFFFC00001FF
310
FFFFFF0003FFFFFFFFFFFFC00000FFFFF000FFFFF8000FFFFFFFFFFFFFFFFFFF
310
FFFFFFFFFFFFFFFFFFFFF0001FFFFFFFFFFF0000FFFFFFF80000000000000000
310
7FFFFFFFFFFFFFFFFFFFFFFC001FFFFFFFFFFFFFFC001FFFFFFFFFFFFFFFFFFF
310
FFFFFFFC001FFFFFF000FFFFFFFFFFFFFFFFFFFFFFFFFFFFFFFFFFFFFFFFFFFF
310
FFFFFFFFFFFFFFFFFFFFFFFFFFFFFFFFFFFFFFFFFFFFFFFFFFFFFFFFFFFFFFFF
310
FFFFFFFFFFFFFFFFFFFFFFFFFFFFFFFFFFFFFFFFFFFFFFFFFFFFFFFFFFFFFFFF
310
F000FFFFFFFFFFFFFFFFFFFFFFFFFFFFFFFFFFFFFFFFFFFFFFFFFFFFFFFFFFFF
310
FFFFFFFFFFFFFFFFFFFFFFFFFFFFFFFFFFFFFFFFFFFFFFFFFFFFFFFFFFFFFFFF
310
FFFFFFFFFFFFFFFFFFFFFFFFFFFFFFFFFFFFFFFFFFFFFFFFF000FFFFFFFFFFFF
310
FFFFFFFFFFFFFFFFFFFFFFFFFFFFFFFFFFFFFFFFFFFFFFFFFFFFFFFFFFFFFFFF
310
FFFFFFFFFFFFFFFFFFFFFFFFFFFFFFFFFFFFFFFFFFFFFFFFFFFFFFFFFFFFFFFF
310
FFFFFFFFFFFFFFFFFFFFFFFFFFFFFFFFF000FFFFFFFFFFFFFFFFFFFFFFFFFFFF
310
FFFFFFFFFFFFFFFFFFFFFFFFFFFFFFFFFFFFFFFFFFFFFFFFFFFFFFFFFFFFFFFF
310
FFFFFFFFFFFFFFFFFFFFFFFFFFFFFFFFFFFFFFFFFFFFFFFFFFFFFFFFFFFFFFFF
310
FFFFFFFFFFFFFFFFF000FFFFFFFFFFFFFFFFFFFFFFFFFFFFFFFFFFFFFFFFFFFF
310
FFFFFFFFFFFFFFFFFFFFFFFFFFFFFFFFFFFFFFFFFFFFFFFFFFFFFFFFFFFFFFFF
310
FFFFFFFFFFFFFFFFFFFFFFFFFFFFFFFFFFFFFFFFFFFFFFFFFFFFFFFFFFFFFFFF
310
F000FFFFFFFFFFFFFFFFFFFFFFFFFFFFFFFFFFFFFFFFFFFFFFFFFFFFFFFFFFFF
310
FFFFFFFFFFFFFFFFFFFFFFFFFFFFFFFFFFFFFFFFFFFFFFFFFFFFFFFFFFFFFFFF
310
FFFFFFFFFFFFFFFFFFFFFFFFFFFFFFFFFFFFFFFFFFFFFFFFF000FFFFFFFFFFFF
310
FFFFFFFFFFFFFFFFFFFFFFFFFFFFFFFFFFFFFFFFFFFFFFFFFFFFFFFFFFFFFFFF
310
FFFFFFFFFFFFFFFFFFFFFFFFFFFFFFFFFFFFFFFFFFFFFFFFFFFFFFFFFFFFFFFF
310
FFFFFFFFFFFFFFFFFFFFFFFFFFFFFFFFF000FFFFFFFFFFFFFFFFFFFFFFFFFFFF
310
FFFFFFFFFFFFFFFFFFFFFFFFFFFFFFFFFFFFFFFFFFFFFFFFFFFFFFFFFFFFFFFF
310
FFFFFFFFFFFFFFFFFFFFFFFFFFFFFFFFFFFFFFFFFFFFFFFFFFFFFFFFFFFFFFFF
310
FFFFFFFFFFFFFFFFF000FFFFFFFFFFFFFFFFFFFFFFFFFFFFFFFFFFFFFFFFFFFF
310
FFFFFFFFFFFFFFFFFFFFFFFFFFFFFFFFFFFFFFFFFFFFFFFFFFFFFFFFFFFFFFFF
310
FFFFFFFFFFFFFFFFFFFFFFFFFFFFFFFFFFFFFFFFFFFFFFFFFFFFFFFFFFFFFFFF
310
F000FFFFFFFFFFFFFFFFFFFFFFFFFFFFFFFFFFFFFFFFFFFFFFFFFFFFFFFFFFFF
310
FFFFFFFFFFFFFFFFFFFFFFFFFFFFFFFFFFFFFFFFFFFFFFFFFFFFFFFFFFFFFFFF
310
FFFFFFFFFFFFFFFFFFFFFFFFFFFFFFFFFFFFFFFFFFFFFFFFF000FFFFFFFFFFFF
310
FFFFFFFFFFFFFFFFFFFFFFFFFFFFFFFFFFFFFFFFFFFFFFFFFFFFFFFFFFFFFFFF
310
FFFFFFFFFFFFFFFFFFFFFFFFFFFFFFFFFFFFFFFFFFFFFFFFFFFFFFFFFFFFFFFF
310
FFFFFFFFFFFFFFFFFFFFFFFFFFFFFFFFF000FFFFFFFFFFFFFFFFFFFFFFFFFFFF
310
FFFFFFFFFFFFFFFFFFFFFFFFFFFFFFFFFFFFFFFFFFFFFFFFFFFFFFFFFFFFFFFF
310
FFFFFFFFFFFFFFFFFFFFFFFFFFFFFFFFFFFFFFFFFFFFFFFFFFFFFFFFFFFFFFFF
310
FFFFFFFFFFFFFFFFF000FFFFFFFFFFFFFFFFFFFFFFFFFFFFFFFFFFFFFFFFFFFF
310
FFFFFFFFFFFFFFFFFFFFFFFFFFFFFFFFFFFFFFFFFFFFFFFFFFFFFFFFFFFFFFFF
310
FFFFFFFFFFFFFFFFFFFFFFFFFFFFFFFFFFFFFFFFFFFFFFFFFFFFFFFFFFFFFFFF
310
F000FFFFFFFFFFFFFFFFFFFFFFFFFFFFFFFFFFFFFFFFFFFFFFFFFFFFFFFFFFFF
310
FFFFFFFFFFFFFFFFFFFFFFFFFFFFFFFFFFFFFFFFFFFFFFFFFFFFFFFFFFFFFFFF
310
FFFFFFFFFFFFFFFFFFFFFFFFFFFFFFFFFFFFFFFFFFFFFFFFF000FFFFFFFFFFFF
310
FFFFFFFFFFFFFFFFFFFFFFFFFFFFFFFFFFFFFFFFFFFFFFFFFFFFFFFFFFFFFFFF
310
FFFFFFFFFFFFFFFFFFFFFFFFFFFFFFFFFFFFFFFFFFFFFFFFFFFFFFFFFFFFFFFF
310
FFFFFFFFFFFFFFFFFFFFFFFFFFFFFFFFF000FFFFFFFFFFFFFFFFFFFFFFFFFFFF
310
FFFFFFFFFFFFFFFFFFFFFFFFFFFFFFFFFFFFFFFFFFFFFFFFFFFFFFFFFFFFFFFF
310
FFFFFFFFFFFFFFFFFFFFFFFFFFFFFFFFFFFFFFFFFFFFFFFFFFFFFFFFFFFFFFFF
310
FFFFFFFFFFFFFFFFF000FFFFFFFFFFFFFFFFFFFFFFFFFFFFFFFFFFFFFFFFFFFF
310
FFFFFFFFFFFFFFFFFFFFFFFFFFFFFFFFFFFFFFFFFFFFFFFFFFFFFFFFFFFFFFFF
310
FFFFFFFFFFFFFFFFFFFFFFFFFFFFFFFFFFFFFFFFFFFFFFFFFFFFFFFFFFFFFFFF
310
F000FFFFFFFFFFFFFFFFFFFFFFFFFFFFFFFFFFFFFFFFFFFFFFFFFFFFFFFFFFFF
310
FFFFFFFFFFFFFFFFFFFFFFFFFFFFFFFFFFFFFFFFFFFFFFFFFFFFFFFFFFFFFFFF
310
FFFFFFFFFFFFFFFFFFFFFFFFFFFFFFFFFFFFFFFFFFFFFFFFF000FFFFFFFFFFFF
310
FFFFFFFFFFFFFFFFFFFFFFFFFFFFFFFFFFFFFFFFFFFFFFFFFFFFFFFFFFFFFFFF
310
FFFFFFFFFFFFFFFFFFFFFFFFFFFFFFFFFFFFFFFFFFFFFFFFFFFFFFFFFFFFFFFF
310
FFFFFFFFFFFFFFFFFFFFFFFFFFFFFFFFF000FFFFFFFFFFFFFFFFFFFFFFFFFFFF
310
FFFFFFFFFFFFFFFFFFFFFFFFFFFFFFFFFFFFFFFFFFFFFFFFFFFFFFFFFFFFFFFF
310
FFFFFFFFFFFFFFFFFFFFFFFFFFFFFFFFFFFFFFFFFFFFFFFFFFFFFFFFFFFFFFFF
310
FFFFFFFFFFFFFFFFF000FFFFFFFFFFFFFFFFFFFFFFFFFFFFFFFFFFFFFFFFFFFF
310
FFFFFFFFFFFFFFFFFFFFFFFFFFFFFFFFFFFFFFFFFFFFFFFFFFFFFFFFFFFFFFFF
310
FFFFFFFFFFFFFFFFFFFFFFFFFFFFFFFFFFFFFFFFFFFFFFFFFFFFFFFFFFFFFFFF
310
F000FFFFFFFFFFFFFFFFFFFFFFFFFFFFFFFFFFFFFFFFFFFFFFFFFFFFFFFFFFFF
310
FFFFFFFFFFFFFFFFFFFFFFFFFFFFFFFFFFFFFFFFFFFFFFFFFFFFFFFFFFFFFFFF
310
FFFFFFFFFFFFFFFFFFFFFFFFFFFFFFFFFFFFFFFFFFFFFFFFF000FFFFFFFFFFFF
310
FFFFFFFFFFFFFFFFFFFFFFFFFFFFFFFFFFFFFFFFFFFFFFFFFFFFFFFFFFFFFFFF
310
FFFFFFFFFFFFFFFFFFFFFFFFFFFFFFFFFFFFFFFFFFFFFFFFFFFFFFFFFFFFFFFF
310
FFFFFFFFFFFFFFFFFFFFFFFFFFFFFFFFF0000000000000000000000000000000
310
0000000099020000AF0000804A20004000000000000000000100000000000000
310
616C000800000000E40100007001000002000000270000001300000000000000
310
0000000084030000FF0000000302011243006F006F0070006500720020005300
310
74006400200042006C00610063006B0000000000000000000000000000000000
310
0000000000000000000000000000000043006F006F0070006500720042006C00
310
610063006B005300740064002D004900740061006C0069006300000000000000
310
0000000000000000000000000000000000000000000000000000000000000000
310
0000000000000000000000000000000000000000000000000000000000000000
310
0000000000000000000000000000000042006C00610063006B00200049007400
310
61006C0069006300000000000000000000000000000000000000000000000000
310
000000000000000000000000000000000000FFFFFFFFFFFFFFFFFFFFFFFFFFFF
310
FFFFFFFFFFFFFFFFFFFFFFFFFFFFFFFFFFFFFFFFFFFFFFFFFFFFFFFFFFFFFFFF
310
FFFFFFFFFFFFFFFFFFFFFFFFFFFFFFFF6476000800000000FFFFFFFF20FF2020
310
270000001F000000080000000700000000000000130000002600000084030000
310
000000006000000060000000200002FB20002000FF00001B00FFFFFF01002200
  1
OLE
  0
ENDSEC
  0
SECTION
  2
OBJECTS
  0
DICTIONARY
  5
C
330
0
100
AcDbDictionary
281
     1
  3
ACAD_GROUP
350
D
  3
ACAD_LAYOUT
350
1A
  3
ACAD_MLEADERSTYLE
350
17D
  3
ACAD_MLINESTYLE
350
17
  3
ACAD_PLOTSETTINGS
350
19
  3
ACAD_PLOTSTYLENAME
350
E
  3
ACAD_TABLESTYLE
350
17C
  3
ACAD_VISUALSTYLE
350
2A
  3
AcDbVariableDictionary
350
17E
  0
DICTIONARY
  5
D
102
{ACAD_REACTORS
330
C
102
}
330
C
100
AcDbDictionary
281
     1
  0
DICTIONARY
  5
1A
102
{ACAD_REACTORS
330
C
102
}
330
C
100
AcDbDictionary
281
     1
  3
Layout1
350
1E
  3
Layout2
350
26
  3
Model
350
22
  0
DICTIONARY
  5
17D
102
{ACAD_REACTORS
330
C
102
}
330
C
100
AcDbDictionary
281
     1
  0
DICTIONARY
  5
17
102
{ACAD_REACTORS
330
C
102
}
330
C
100
AcDbDictionary
281
     1
  3
Standard
350
18
  0
DICTIONARY
  5
19
102
{ACAD_REACTORS
330
C
102
}
330
C
100
AcDbDictionary
281
     1
  0
ACDBDICTIONARYWDFLT
  5
E
102
{ACAD_REACTORS
330
C
102
}
330
C
100
AcDbDictionary
281
     1
  3
Normal
350
F
100
AcDbDictionaryWithDefault
340
F
  0
DICTIONARY
  5
17C
102
{ACAD_REACTORS
330
C
102
}
330
C
100
AcDbDictionary
281
     1
  0
DICTIONARY
  5
2A
102
{ACAD_REACTORS
330
C
102
}
330
C
100
AcDbDictionary
281
     1
  3
2dWireframe
350
2F
  3
3D Hidden
350
31
  3
3dWireframe
350
30
  3
Basic
350
32
  3
Brighten
350
36
  3
ColorChange
350
3A
  3
Conceptual
350
34
  3
Dim
350
35
  3
Facepattern
350
39
  3
Flat
350
2B
  3
FlatWithEdges
350
2C
  3
Gouraud
350
2D
  3
GouraudWithEdges
350
2E
  3
Linepattern
350
38
  3
Realistic
350
33
  3
Thicken
350
37
  0
DICTIONARY
  5
17E
102
{ACAD_REACTORS
330
C
102
}
330
C
100
AcDbDictionary
281
     1
  3
PSOLHEIGHT
350
180
  3
PSOLWIDTH
350
17F
  0
LAYOUT
  5
1E
102
{ACAD_REACTORS
330
1A
102
}
330
1A
100
AcDbPlotSettings
  1

  2
none_device
  4

  6

 40
0.0
 41
0.0
 42
0.0
 43
0.0
 44
0.0
 45
0.0
 46
0.0
 47
0.0
 48
0.0
 49
0.0
140
0.0
141
0.0
142
1.0
143
1.0
 70
   688
 72
     0
 73
     0
 74
     5
  7

 75
    16
147
1.0
148
0.0
149
0.0
100
AcDbLayout
  1
Layout1
 70
     1
 71
     1
 10
0.0
 20
0.0
 11
420.0
 21
297.0
 12
0.0
 22
0.0
 32
0.0
 14
1.0000000000E+20
 24
1.0000000000E+20
 34
1.0000000000E+20
 15
-1.0000000000E+20
 25
-1.0000000000E+20
 35
-1.0000000000E+20
146
0.0
 13
0.0
 23
0.0
 33
0.0
 16
1.0
 26
0.0
 36
0.0
 17
0.0
 27
1.0
 37
0.0
 76
     0
330
1B
  0
LAYOUT
  5
26
102
{ACAD_REACTORS
330
1A
102
}
330
1A
100
AcDbPlotSettings
  1

  2
none_device
  4

  6

 40
0.0
 41
0.0
 42
0.0
 43
0.0
 44
0.0
 45
0.0
 46
0.0
 47
0.0
 48
0.0
 49
0.0
140
0.0
141
0.0
142
1.0
143
1.0
 70
   688
 72
     0
 73
     0
 74
     5
  7

 75
    16
147
1.0
148
0.0
149
0.0
100
AcDbLayout
  1
Layout2
 70
     1
 71
     2
 10
0.0
 20
0.0
 11
0.0
 21
0.0
 12
0.0
 22
0.0
 32
0.0
 14
0.0
 24
0.0
 34
0.0
 15
0.0
 25
0.0
 35
0.0
146
0.0
 13
0.0
 23
0.0
 33
0.0
 16
1.0
 26
0.0
 36
0.0
 17
0.0
 27
1.0
 37
0.0
 76
     0
330
23
  0
LAYOUT
  5
22
102
{ACAD_REACTORS
330
1A
102
}
330
1A
100
AcDbPlotSettings
  1

  2
none_device
  4

  6

 40
0.0
 41
0.0
 42
0.0
 43
0.0
 44
0.0
 45
0.0
 46
0.0
 47
0.0
 48
0.0
 49
0.0
140
0.0
141
0.0
142
1.0
143
1.0
 70
  1712
 72
     0
 73
     0
 74
     0
  7

 75
     0
147
1.0
148
0.0
149
0.0
100
AcDbLayout
  1
Model
 70
     1
 71
     0
 10
0.0
 20
0.0
 11
297.0
 21
210.0
 12
0.0
 22
0.0
 32
0.0
 14
0.0
 24
0.0
 34
0.0
 15
297.0
 25
210.0
 35
0.0
146
0.0
 13
0.0
 23
0.0
 33
0.0
 16
1.0
 26
0.0
 36
0.0
 17
0.0
 27
1.0
 37
0.0
 76
     0
330
1F
331
29
  0
MLINESTYLE
  5
18
102
{ACAD_REACTORS
330
17
102
}
330
17
100
AcDbMlineStyle
  2
Standard
 70
     0
  3

 62
   256
 51
90.0
 52
90.0
 71
     2
 49
0.5
 62
   256
  6
BYLAYER
 49
-0.5
 62
   256
  6
BYLAYER
  0
ACDBPLACEHOLDER
  5
F
102
{ACAD_REACTORS
330
E
102
}
330
E
  0
VISUALSTYLE
  5
2F
102
{ACAD_REACTORS
330
2A
102
}
330
2A
100
AcDbVisualStyle
  2
2dWireframe
 70
     4
 71
     0
 72
     2
 73
     0
 90
        0
 40
-0.6
 41
-30.0
 62
     5
 63
     7
 74
     1
 91
        4
 64
     7
 65
   257
 75
     1
175
     1
 42
1.0
 92
        0
 66
   257
 43
1.0
 76
     1
 77
     6
 78
     2
 67
     7
 79
     5
170
     0
171
     0
290
     0
174
     0
 93
        1
 44
0.0
173
     0
291
     0
 45
0.0
1001
ACAD
1000
AcDbSavedByObjectVersion
1070
     0
  0
VISUALSTYLE
  5
31
102
{ACAD_REACTORS
330
2A
102
}
330
2A
100
AcDbVisualStyle
  2
3D Hidden
 70
     6
 71
     1
 72
     2
 73
     2
 90
        0
 40
-0.6
 41
-30.0
 62
     5
 63
     7
 74
     2
 91
        2
 64
     7
 65
   257
 75
     2
175
     1
 42
40.0
 92
        0
 66
   257
 43
1.0
 76
     1
 77
     6
 78
     2
 67
     7
 79
     3
170
     0
171
     0
290
     0
174
     0
 93
        1
 44
0.0
173
     0
291
     0
 45
0.0
1001
ACAD
1000
AcDbSavedByObjectVersion
1070
     0
  0
VISUALSTYLE
  5
30
102
{ACAD_REACTORS
330
2A
102
}
330
2A
100
AcDbVisualStyle
  2
3dWireframe
 70
     5
 71
     0
 72
     2
 73
     0
 90
        0
 40
-0.6
 41
-30.0
 62
     5
 63
     7
 74
     1
 91
        4
 64
     7
 65
   257
 75
     1
175
     1
 42
1.0
 92
        0
 66
   257
 43
1.0
 76
     1
 77
     6
 78
     2
 67
     7
 79
     5
170
     0
171
     0
290
     0
174
     0
 93
        1
 44
0.0
173
     0
291
     0
 45
0.0
1001
ACAD
1000
AcDbSavedByObjectVersion
1070
     0
  0
VISUALSTYLE
  5
32
102
{ACAD_REACTORS
330
2A
102
}
330
2A
100
AcDbVisualStyle
  2
Basic
 70
     7
 71
     1
 72
     0
 73
     1
 90
        0
 40
-0.6
 41
-30.0
 62
     5
 63
     7
 74
     0
 91
        4
 64
     7
 65
   257
 75
     1
175
     1
 42
1.0
 92
        8
 66
     7
 43
1.0
 76
     1
 77
     6
 78
     2
 67
     7
 79
     5
170
     0
171
     0
290
     0
174
     0
 93
        1
 44
0.0
173
     0
291
     1
 45
0.0
1001
ACAD
1000
AcDbSavedByObjectVersion
1070
     0
  0
VISUALSTYLE
  5
36
102
{ACAD_REACTORS
330
2A
102
}
330
2A
100
AcDbVisualStyle
  2
Brighten
 70
    12
 71
     2
 72
     2
 73
     0
 90
        0
 40
-0.6
 41
-30.0
 62
     5
 63
     7
 74
     1
 91
        4
 64
     7
 65
   257
 75
     1
175
     1
 42
1.0
 92
        8
 66
     7
 43
1.0
 76
     1
 77
     6
 78
     2
 67
     7
 79
     5
170
     0
171
     0
290
     0
174
     0
 93
        1
 44
50.0
173
     0
291
     1
 45
0.0
1001
ACAD
1000
AcDbSavedByObjectVersion
1070
     0
  0
VISUALSTYLE
  5
3A
102
{ACAD_REACTORS
330
2A
102
}
330
2A
100
AcDbVisualStyle
  2
ColorChange
 70
    16
 71
     2
 72
     2
 73
     3
 90
        0
 40
-0.6
 41
-30.0
 62
     5
 63
     8
 74
     1
 91
        4
 64
     7
 65
   257
 75
     1
175
     1
 42
1.0
 92
        8
 66
     8
 43
1.0
 76
     1
 77
     6
 78
     2
 67
     7
 79
     5
170
     0
171
     0
290
     0
174
     0
 93
        1
 44
0.0
173
     0
291
     1
 45
0.0
1001
ACAD
1000
AcDbSavedByObjectVersion
1070
     0
  0
VISUALSTYLE
  5
34
102
{ACAD_REACTORS
330
2A
102
}
330
2A
100
AcDbVisualStyle
  2
Conceptual
 70
     9
 71
     3
 72
     2
 73
     0
 90
        0
 40
-0.6
 41
-30.0
 62
     5
 63
     7
 74
     2
 91
        2
 64
     7
 65
   257
 75
     1
175
     1
 42
40.0
 92
        8
 66
     7
 43
1.0
 76
     1
 77
     6
 78
     2
 67
     7
 79
     3
170
     0
171
     0
290
     0
174
     0
 93
        1
 44
0.0
173
     0
291
     0
 45
0.0
1001
ACAD
1000
AcDbSavedByObjectVersion
1070
     0
  0
VISUALSTYLE
  5
35
102
{ACAD_REACTORS
330
2A
102
}
330
2A
100
AcDbVisualStyle
  2
Dim
 70
    11
 71
     2
 72
     2
 73
     0
 90
        0
 40
-0.6
 41
-30.0
 62
     5
 63
     7
 74
     1
 91
        4
 64
     7
 65
   257
 75
     1
175
     1
 42
1.0
 92
        8
 66
     7
 43
1.0
 76
     1
 77
     6
 78
     2
 67
     7
 79
     5
170
     0
171
     0
290
     0
174
     0
 93
        1
 44
-50.0
173
     0
291
     1
 45
0.0
1001
ACAD
1000
AcDbSavedByObjectVersion
1070
     0
  0
VISUALSTYLE
  5
39
102
{ACAD_REACTORS
330
2A
102
}
330
2A
100
AcDbVisualStyle
  2
Facepattern
 70
    15
 71
     2
 72
     2
 73
     0
 90
        0
 40
-0.6
 41
-30.0
 62
     5
 63
     7
 74
     1
 91
        4
 64
     7
 65
   257
 75
     1
175
     1
 42
1.0
 92
        8
 66
     7
 43
1.0
 76
     1
 77
     6
 78
     2
 67
     7
 79
     5
170
     0
171
     0
290
     0
174
     0
 93
        1
 44
0.0
173
     0
291
     1
 45
0.0
1001
ACAD
1000
AcDbSavedByObjectVersion
1070
     0
  0
VISUALSTYLE
  5
2B
102
{ACAD_REACTORS
330
2A
102
}
330
2A
100
AcDbVisualStyle
  2
Flat
 70
     0
 71
     2
 72
     1
 73
     1
 90
        2
 40
-0.6
 41
30.0
 62
     5
 63
     7
 74
     0
 91
        4
 64
     7
 65
   257
 75
     1
175
     1
 42
1.0
 92
        8
 66
     7
 43
1.0
 76
     1
 77
     6
 78
     2
 67
     7
 79
     5
170
     0
171
     0
290
     0
174
     0
 93
       13
 44
0.0
173
     0
291
     1
 45
0.0
1001
ACAD
1000
AcDbSavedByObjectVersion
1070
     0
  0
VISUALSTYLE
  5
2C
102
{ACAD_REACTORS
330
2A
102
}
330
2A
100
AcDbVisualStyle
  2
FlatWithEdges
 70
     1
 71
     2
 72
     1
 73
     1
 90
        2
 40
-0.6
 41
30.0
 62
     5
 63
     7
 74
     1
 91
        4
 64
     7
 65
   257
 75
     1
175
     1
 42
1.0
 92
        0
 66
   257
 43
1.0
 76
     1
 77
     6
 78
     2
 67
     7
 79
     5
170
     0
171
     0
290
     0
174
     0
 93
       13
 44
0.0
173
     0
291
     1
 45
0.0
1001
ACAD
1000
AcDbSavedByObjectVersion
1070
     0
  0
VISUALSTYLE
  5
2D
102
{ACAD_REACTORS
330
2A
102
}
330
2A
100
AcDbVisualStyle
  2
Gouraud
 70
     2
 71
     2
 72
     2
 73
     1
 90
        2
 40
-0.6
 41
30.0
 62
     5
 63
     7
 74
     0
 91
        4
 64
     7
 65
   257
 75
     1
175
     1
 42
1.0
 92
        0
 66
     7
 43
1.0
 76
     1
 77
     6
 78
     2
 67
     7
 79
     5
170
     0
171
     0
290
     0
174
     0
 93
       13
 44
0.0
173
     0
291
     1
 45
0.0
1001
ACAD
1000
AcDbSavedByObjectVersion
1070
     0
  0
VISUALSTYLE
  5
2E
102
{ACAD_REACTORS
330
2A
102
}
330
2A
100
AcDbVisualStyle
  2
GouraudWithEdges
 70
     3
 71
     2
 72
     2
 73
     1
 90
        2
 40
-0.6
 41
30.0
 62
     5
 63
     7
 74
     1
 91
        4
 64
     7
 65
   257
 75
     1
175
     1
 42
1.0
 92
        0
 66
   257
 43
1.0
 76
     1
 77
     6
 78
     2
 67
     7
 79
     5
170
     0
171
     0
290
     0
174
     0
 93
       13
 44
0.0
173
     0
291
     1
 45
0.0
1001
ACAD
1000
AcDbSavedByObjectVersion
1070
     0
  0
VISUALSTYLE
  5
38
102
{ACAD_REACTORS
330
2A
102
}
330
2A
100
AcDbVisualStyle
  2
Linepattern
 70
    14
 71
     2
 72
     2
 73
     0
 90
        0
 40
-0.6
 41
-30.0
 62
     5
 63
     7
 74
     1
 91
        4
 64
     7
 65
   257
 75
     7
175
     7
 42
1.0
 92
        8
 66
     7
 43
1.0
 76
     1
 77
     6
 78
     2
 67
     7
 79
     5
170
     0
171
     0
290
     0
174
     0
 93
        1
 44
0.0
173
     0
291
     1
 45
0.0
1001
ACAD
1000
AcDbSavedByObjectVersion
1070
     0
  0
VISUALSTYLE
  5
33
102
{ACAD_REACTORS
330
2A
102
}
330
2A
100
AcDbVisualStyle
  2
Realistic
 70
     8
 71
     2
 72
     2
 73
     0
 90
        0
 40
-0.6
 41
-30.0
 62
     5
 63
     7
 74
     1
 91
        0
 64
     7
 65
   257
 75
     1
175
     1
 42
1.0
 92
        8
 66
     8
 43
1.0
 76
     1
 77
     6
 78
     2
 67
     7
 79
     5
170
     0
171
     0
290
     0
174
     0
 93
       13
 44
0.0
173
     0
291
     0
 45
0.0
1001
ACAD
1000
AcDbSavedByObjectVersion
1070
     0
  0
VISUALSTYLE
  5
37
102
{ACAD_REACTORS
330
2A
102
}
330
2A
100
AcDbVisualStyle
  2
Thicken
 70
    13
 71
     2
 72
     2
 73
     0
 90
        0
 40
-0.6
 41
-30.0
 62
     5
 63
     7
 74
     1
 91
        4
 64
     7
 65
   257
 75
     1
175
     1
 42
1.0
 92
       12
 66
     7
 43
1.0
 76
     1
 77
     6
 78
     2
 67
     7
 79
     5
170
     0
171
     0
290
     0
174
     0
 93
        1
 44
0.0
173
     0
291
     1
 45
0.0
1001
ACAD
1000
AcDbSavedByObjectVersion
1070
     0
  0
DICTIONARYVAR
  5
180
102
{ACAD_REACTORS
330
17E
102
}
330
17E
100
DictionaryVariables
280
     0
  1
80.000000
  0
DICTIONARYVAR
  5
17F
102
{ACAD_REACTORS
330
17E
102
}
330
17E
100
DictionaryVariables
280
     0
  1
5.000000
  0
ENDSEC
  0
EOF
