  0
SECTION
  2
HEADER
  9
$ACADVER
  1
AC1015
  9
$ACADMAINTVER
 70
     6
  9
$DWGCODEPAGE
  3
ANSI_1252
  9
$INSBASE
 10
0.0
 20
0.0
 30
0.0
  9
$EXTMIN
 10
0.0
 20
0.0
 30
0.0
  9
$EXTMAX
 10
297.0
 20
210.0
 30
0.0
  9
$LIMMIN
 10
0.0
 20
0.0
  9
$LIMMAX
 10
297.0
 20
210.0
  9
$ORTHOMODE
 70
     0
  9
$REGENMODE
 70
     1
  9
$FILLMODE
 70
     1
  9
$QTEXTMODE
 70
     0
  9
$MIRRTEXT
 70
     1
  9
$LTSCALE
 40
1.0
  9
$ATTMODE
 70
     1
  9
$TEXTSIZE
 40
2.0
  9
$TRACEWID
 40
1.0
  9
$TEXTSTYLE
  7
STANDARD
  9
$CLAYER
  8
0
  9
$CELTYPE
  6
ByLayer
  9
$CECOLOR
 62
   256
  9
$CELTSCALE
 40
1.0
  9
$DISPSILH
 70
     0
  9
$DIMSCALE
 40
1.0
  9
$DIMASZ
 40
3.0
  9
$DIMEXO
 40
0.0
  9
$DIMDLI
 40
3.75
  9
$DIMRND
 40
0.0
  9
$DIMDLE
 40
0.0
  9
$DIMEXE
 40
1.0
  9
$DIMTP
 40
0.0
  9
$DIMTM
 40
0.0
  9
$DIMTXT
 40
2.0
  9
$DIMCEN
 40
2.5
  9
$DIMTSZ
 40
0.0
  9
$DIMTOL
 70
     0
  9
$DIMLIM
 70
     0
  9
$DIMTIH
 70
     1
  9
$DIMTOH
 70
     1
  9
$DIMSE1
 70
     0
  9
$DIMSE2
 70
     0
  9
$DIMTAD
 70
     1
  9
$DIMZIN
 70
     0
  9
$DIMBLK
  1

  9
$DIMASO
 70
     1
  9
$DIMSHO
 70
     1
  9
$DIMPOST
  1

  9
$DIMAPOST
  1

  9
$DIMALT
 70
     0
  9
$DIMALTD
 70
     3
  9
$DIMALTF
 40
0.0393700787
  9
$DIMLFAC
 40
1.0
  9
$DIMTOFL
 70
     1
  9
$DIMTVP
 40
0.0
  9
$DIMTIX
 70
     0
  9
$DIMSOXD
 70
     0
  9
$DIMSAH
 70
     0
  9
$DIMBLK1
  1

  9
$DIMBLK2
  1

  9
$DIMSTYLE
  2
ISO-25
  9
$DIMCLRD
 70
     0
  9
$DIMCLRE
 70
     0
  9
$DIMCLRT
 70
     0
  9
$DIMTFAC
 40
1.0
  9
$DIMGAP
 40
1.524
  9
$DIMJUST
 70
     0
  9
$DIMSD1
 70
     0
  9
$DIMSD2
 70
     0
  9
$DIMTOLJ
 70
     0
  9
$DIMTZIN
 70
     0
  9
$DIMALTZ
 70
     0
  9
$DIMALTTZ
 70
     0
  9
$DIMUPT
 70
     0
  9
$DIMDEC
 70
     2
  9
$DIMTDEC
 70
     3
  9
$DIMALTU
 70
     2
  9
$DIMALTTD
 70
     3
  9
$DIMTXSTY
  7
STANDARD
  9
$DIMAUNIT
 70
     0
  9
$DIMADEC
 70
     2
  9
$DIMALTRND
 40
0.0
  9
$DIMAZIN
 70
     0
  9
$DIMDSEP
 70
    44
  9
$DIMATFIT
 70
     3
  9
$DIMFRAC
 70
     0
  9
$DIMLDRBLK
  1

  9
$DIMLUNIT
 70
     2
  9
$DIMLWD
 70
    -2
  9
$DIMLWE
 70
    -2
  9
$DIMTMOVE
 70
     0
  9
$LUNITS
 70
     2
  9
$LUPREC
 70
     2
  9
$SKETCHINC
 40
1.0
  9
$FILLETRAD
 40
10.0
  9
$AUNITS
 70
     0
  9
$AUPREC
 70
     2
  9
$MENU
  1
.
  9
$ELEVATION
 40
0.0
  9
$PELEVATION
 40
0.0
  9
$THICKNESS
 40
0.0
  9
$LIMCHECK
 70
     0
  9
$CHAMFERA
 40
10.0
  9
$CHAMFERB
 40
10.0
  9
$CHAMFERC
 40
20.0
  9
$CHAMFERD
 40
0.0
  9
$SKPOLY
 70
     0
  9
$TDCREATE
 40
2456994.481804004
  9
$TDUCREATE
 40
2456994.440137338
  9
$TDUPDATE
 40
2456994.481804711
  9
$TDUUPDATE
 40
2456994.440138044
  9
$TDINDWG
 40
0.0000000116
  9
$TDUSRTIMER
 40
0.0000000116
  9
$USRTIMER
 70
     1
  9
$ANGBASE
 50
0.0
  9
$ANGDIR
 70
     0
  9
$PDMODE
 70
     0
  9
$PDSIZE
 40
-1.0
  9
$PLINEWID
 40
0.0
  9
$SPLFRAME
 70
     0
  9
$SPLINETYPE
 70
     6
  9
$SPLINESEGS
 70
     8
  9
$HANDSEED
  5
2B5
  9
$SURFTAB1
 70
     6
  9
$SURFTAB2
 70
     6
  9
$SURFTYPE
 70
     6
  9
$SURFU
 70
     6
  9
$SURFV
 70
     6
  9
$UCSBASE
  2

  9
$UCSNAME
  2

  9
$UCSORG
 10
0.0
 20
0.0
 30
0.0
  9
$UCSXDIR
 10
1.0
 20
0.0
 30
0.0
  9
$UCSYDIR
 10
0.0
 20
1.0
 30
0.0
  9
$UCSORTHOREF
  2

  9
$UCSORTHOVIEW
 70
     0
  9
$UCSORGTOP
 10
0.0
 20
0.0
 30
0.0
  9
$UCSORGBOTTOM
 10
0.0
 20
0.0
 30
0.0
  9
$UCSORGLEFT
 10
0.0
 20
0.0
 30
0.0
  9
$UCSORGRIGHT
 10
0.0
 20
0.0
 30
0.0
  9
$UCSORGFRONT
 10
0.0
 20
0.0
 30
0.0
  9
$UCSORGBACK
 10
0.0
 20
0.0
 30
0.0
  9
$PUCSBASE
  2

  9
$PUCSNAME
  2

  9
$PUCSORG
 10
0.0
 20
0.0
 30
0.0
  9
$PUCSXDIR
 10
1.0
 20
0.0
 30
0.0
  9
$PUCSYDIR
 10
0.0
 20
1.0
 30
0.0
  9
$PUCSORTHOREF
  2

  9
$PUCSORTHOVIEW
 70
     0
  9
$PUCSORGTOP
 10
0.0
 20
0.0
 30
0.0
  9
$PUCSORGBOTTOM
 10
0.0
 20
0.0
 30
0.0
  9
$PUCSORGLEFT
 10
0.0
 20
0.0
 30
0.0
  9
$PUCSORGRIGHT
 10
0.0
 20
0.0
 30
0.0
  9
$PUCSORGFRONT
 10
0.0
 20
0.0
 30
0.0
  9
$PUCSORGBACK
 10
0.0
 20
0.0
 30
0.0
  9
$USERI1
 70
     0
  9
$USERI2
 70
     0
  9
$USERI3
 70
     0
  9
$USERI4
 70
     0
  9
$USERI5
 70
     0
  9
$USERR1
 40
0.0
  9
$USERR2
 40
0.0
  9
$USERR3
 40
0.0
  9
$USERR4
 40
0.0
  9
$USERR5
 40
0.0
  9
$WORLDVIEW
 70
     1
  9
$SHADEDGE
 70
     3
  9
$SHADEDIF
 70
    70
  9
$TILEMODE
 70
     1
  9
$MAXACTVP
 70
    64
  9
$PINSBASE
 10
0.0
 20
0.0
 30
0.0
  9
$PLIMCHECK
 70
     0
  9
$PEXTMIN
 10
1.0000000000E+20
 20
1.0000000000E+20
 30
1.0000000000E+20
  9
$PEXTMAX
 10
-1.0000000000E+20
 20
-1.0000000000E+20
 30
-1.0000000000E+20
  9
$PLIMMIN
 10
0.0
 20
0.0
  9
$PLIMMAX
 10
420.0
 20
297.0
  9
$UNITMODE
 70
     0
  9
$VISRETAIN
 70
     1
  9
$PLINEGEN
 70
     0
  9
$PSLTSCALE
 70
     1
  9
$TREEDEPTH
 70
  3020
  9
$CMLSTYLE
  2
Standard
  9
$CMLJUST
 70
     0
  9
$CMLSCALE
 40
20.0
  9
$PROXYGRAPHICS
 70
     1
  9
$MEASUREMENT
 70
     1
  9
$CELWEIGHT
370
    -1
  9
$ENDCAPS
280
     0
  9
$JOINSTYLE
280
     0
  9
$LWDISPLAY
290
     1
  9
$INSUNITS
 70
     4
  9
$HYPERLINKBASE
  1

  9
$STYLESHEET
  1

  9
$XEDIT
290
     1
  9
$CEPSNTYPE
380
     0
  9
$PSTYLEMODE
290
     1
  9
$FINGERPRINTGUID
  2
{F4EF1021-38EC-4D4B-A604-3C43F4AD6BA9}
  9
$VERSIONGUID
  2
{FAEB1C32-E019-11D5-929B-00C0DF256EC4}
  9
$EXTNAMES
290
     1
  9
$PSVPSCALE
 40
0.0
  9
$OLESTARTUP
290
     0
  0
ENDSEC
  0
SECTION
  2
CLASSES
  0
CLASS
  1
ACDBDICTIONARYWDFLT
  2
AcDbDictionaryWithDefault
  3
ObjectDBX Classes
 90
        0
280
     0
281
     0
  0
CLASS
  1
VISUALSTYLE
  2
AcDbVisualStyle
  3
ObjectDBX Classes
 90
     4095
280
     0
281
     0
  0
CLASS
  1
MATERIAL
  2
AcDbMaterial
  3
ObjectDBX Classes
 90
     1153
280
     0
281
     0
  0
CLASS
  1
ACDBPLACEHOLDER
  2
AcDbPlaceHolder
  3
ObjectDBX Classes
 90
        0
280
     0
281
     0
  0
CLASS
  1
LAYOUT
  2
AcDbLayout
  3
ObjectDBX Classes
 90
        0
280
     0
281
     0
  0
ENDSEC
  0
SECTION
  2
TABLES
  0
TABLE
  2
VPORT
  5
8
330
0
100
AcDbSymbolTable
 70
     1
  0
VPORT
  5
29
330
8
100
AcDbSymbolTableRecord
100
AcDbViewportTableRecord
  2
*Active
 70
     0
 10
0.0
 20
0.0
 11
1.0
 21
1.0
 12
148.5
 22
105.0
 13
0.0
 23
0.0
 14
10.0
 24
10.0
 15
10.0
 25
10.0
 16
0.0
 26
0.0
 36
1.0
 17
0.0
 27
0.0
 37
0.0
 40
210.0
 41
1.4142857143
 42
50.0
 43
0.0
 44
0.0
 50
0.0
 51
0.0
 71
     0
 72
  2000
 73
     1
 74
     3
 75
     0
 76
     0
 77
     0
 78
     0
281
     0
 65
     1
110
0.0
120
0.0
130
0.0
111
1.0
121
0.0
131
0.0
112
0.0
122
1.0
132
0.0
 79
     0
146
0.0
  0
ENDTAB
  0
TABLE
  2
LTYPE
  5
5
330
0
100
AcDbSymbolTable
 70
     8
  0
LTYPE
  5
14
330
5
100
AcDbSymbolTableRecord
100
AcDbLinetypeTableRecord
  2
ByBlock
 70
     0
  3

 72
    65
 73
     0
 40
0.0
  0
LTYPE
  5
15
330
5
100
AcDbSymbolTableRecord
100
AcDbLinetypeTableRecord
  2
ByLayer
 70
     0
  3

 72
    65
 73
     0
 40
0.0
  0
LTYPE
  5
16
330
5
100
AcDbSymbolTableRecord
100
AcDbLinetypeTableRecord
  2
Continuous
 70
     0
  3
Solid line
 72
    65
 73
     0
 40
0.0
  0
LTYPE
  5
3F
330
5
100
AcDbSymbolTableRecord
100
AcDbLinetypeTableRecord
  2
SLD-Durchgehend
 70
     0
  3
SolidWorks Line Style
 72
    65
 73
     0
 40
0.0
  0
LTYPE
  5
40
330
5
100
AcDbSymbolTableRecord
100
AcDbLinetypeTableRecord
  2
SLD-Gestrichelt
 70
     0
  3
SolidWorks Line Style
 72
    65
 73
     2
 40
1.905
 49
1.27
 74
     0
 49
-0.635
 74
     0
  0
LTYPE
  5
41
330
5
100
AcDbSymbolTableRecord
100
AcDbLinetypeTableRecord
  2
SLD-Phantom
 70
     0
  3
SolidWorks Line Style
 72
    65
 73
     6
 40
12.7
 49
6.35
 74
     0
 49
-1.27
 74
     0
 49
1.27
 74
     0
 49
-1.27
 74
     0
 49
1.27
 74
     0
 49
-1.27
 74
     0
  0
LTYPE
  5
42
330
5
100
AcDbSymbolTableRecord
100
AcDbLinetypeTableRecord
  2
SLD-Kette
 70
     0
  3
SolidWorks Line Style
 72
    65
 73
     4
 40
10.16
 49
6.35
 74
     0
 49
-1.27
 74
     0
 49
1.27
 74
     0
 49
-1.27
 74
     0
  0
LTYPE
  5
43
330
5
100
AcDbSymbolTableRecord
100
AcDbLinetypeTableRecord
  2
SLD-Punktstrich
 70
     0
  3
SolidWorks Line Style
 72
    65
 73
     4
 40
19.05
 49
15.24
 74
     0
 49
-1.27
 74
     0
 49
1.27
 74
     0
 49
-1.27
 74
     0
  0
LTYPE
  5
44
330
5
100
AcDbSymbolTableRecord
100
AcDbLinetypeTableRecord
  2
SLD-Naht
 70
     0
  3
SolidWorks Line Style
 72
    65
 73
     2
 40
0.635
 49
0.0
 74
     0
 49
-0.635
 74
     0
  0
LTYPE
  5
45
330
5
100
AcDbSymbolTableRecord
100
AcDbLinetypeTableRecord
  2
SLD-Dicke-Dünne-Kette
 70
     0
  3
SolidWorks Line Style
 72
    65
 73
     4
 40
10.16
 49
6.35
 74
     0
 49
-1.27
 74
     0
 49
1.27
 74
     0
 49
-1.27
 74
     0
  0
ENDTAB
  0
TABLE
  2
LAYER
  5
2
330
0
100
AcDbSymbolTable
 70
     5
  0
LAYER
  5
10
330
2
100
AcDbSymbolTableRecord
100
AcDbLayerTableRecord
  2
0
 70
     0
 62
     7
  6
Continuous
370
    -3
390
F
  0
LAYER
  5
46
330
2
100
AcDbSymbolTableRecord
100
AcDbLayerTableRecord
  2
FORMAT
 70
     0
 62
     7
  6
SLD-Durchgehend
370
    -3
390
F
  0
LAYER
  5
47
330
2
100
AcDbSymbolTableRecord
100
AcDbLayerTableRecord
  2
VERMASSUNG
 70
     0
 62
     7
  6
SLD-Durchgehend
370
    -3
390
F
  0
LAYER
  5
48
330
2
100
AcDbSymbolTableRecord
100
AcDbLayerTableRecord
  2
KOPF_DÜNN
 70
     0
 62
     7
  6
SLD-Durchgehend
370
    -3
390
F
  0
LAYER
  5
49
330
2
100
AcDbSymbolTableRecord
100
AcDbLayerTableRecord
  2
KOPF_DICK
 70
     0
 62
     7
  6
SLD-Durchgehend
370
    15
390
F
  0
ENDTAB
  0
TABLE
  2
STYLE
  5
3
330
0
100
AcDbSymbolTable
 70
     2
  0
STYLE
  5
11
330
3
100
AcDbSymbolTableRecord
100
AcDbTextStyleTableRecord
  2
STANDARD
 70
     0
 40
0.0
 41
1.0
 50
0.0
 71
     0
 42
2.0
  3
ISOCPEUR.TTF
  4

1001
ACAD
1000
ISOCPEUR
1071
       34
  0
STYLE
  5
4A
330
3
100
AcDbSymbolTableRecord
100
AcDbTextStyleTableRecord
  2
SLDTEXTSTYLE0
 70
     0
 40
0.0
 41
1.0
 50
0.0
 71
     0
 42
0.2
  3
ISOCPEUR.TTF
  4

1001
ACAD
1000
ISOCPEUR
1071
      290
  0
ENDTAB
  0
TABLE
  2
VIEW
  5
6
330
0
100
AcDbSymbolTable
 70
     0
  0
ENDTAB
  0
TABLE
  2
UCS
  5
7
330
0
100
AcDbSymbolTable
 70
     0
  0
ENDTAB
  0
TABLE
  2
APPID
  5
9
330
0
100
AcDbSymbolTable
 70
     1
  0
APPID
  5
12
330
9
100
AcDbSymbolTableRecord
100
AcDbRegAppTableRecord
  2
ACAD
 70
     0
  0
ENDTAB
  0
TABLE
  2
DIMSTYLE
  5
A
330
0
100
AcDbSymbolTable
 70
     3
100
AcDbDimStyleTable
  0
DIMSTYLE
105
27
330
A
100
AcDbSymbolTableRecord
100
AcDbDimStyleTableRecord
  2
ISO-25
 70
     0
 41
2.5
 42
0.625
 43
3.75
 44
1.25
 73
     0
 74
     0
 77
     1
 78
     8
140
2.5
141
2.5
143
0.0393700787
147
0.625
171
     3
172
     1
178
     0
271
     2
272
     2
274
     3
278
    44
283
     0
284
     8
340
11
  0
DIMSTYLE
105
163
102
{ACAD_REACTORS
330
162
330
16D
330
179
330
1C9
330
1D3
330
1DD
330
1E7
330
1F1
330
1FB
330
2A9
102
}
330
A
100
AcDbSymbolTableRecord
100
AcDbDimStyleTableRecord
  2
SLDDIMSTYLE0
 70
     0
 41
3.0
 44
0.0
 45
0.000000001
 73
     0
 74
     0
 77
     1
 78
    12
 79
     3
140
2.0
147
0.5
173
     1
178
     0
271
     2
272
     3
276
     2
284
    12
340
4A
  0
DIMSTYLE
105
1C0
102
{ACAD_REACTORS
330
1BF
102
}
330
A
100
AcDbSymbolTableRecord
100
AcDbDimStyleTableRecord
  2
SLDDIMSTYLE1
 70
     0
 41
3.0
 44
0.0
 45
0.000000001
 73
     0
 74
     0
 77
     1
 78
    12
 79
     3
140
2.0
141
0.0
147
0.5
173
     1
178
     0
271
     2
272
     3
276
     2
284
    12
340
4A
  0
ENDTAB
  0
TABLE
  2
BLOCK_RECORD
  5
1
330
0
100
AcDbSymbolTable
 70
    13
  0
BLOCK_RECORD
  5
1F
330
1
100
AcDbSymbolTableRecord
100
AcDbBlockTableRecord
  2
*Model_Space
340
22
  0
BLOCK_RECORD
  5
1B
330
1
100
AcDbSymbolTableRecord
100
AcDbBlockTableRecord
  2
*Paper_Space
340
1E
  0
BLOCK_RECORD
  5
23
330
1
100
AcDbSymbolTableRecord
100
AcDbBlockTableRecord
  2
*Paper_Space0
340
26
  0
BLOCK_RECORD
  5
164
330
1
100
AcDbSymbolTableRecord
100
AcDbBlockTableRecord
  2
_D
340
0
  0
BLOCK_RECORD
  5
16E
330
1
100
AcDbSymbolTableRecord
100
AcDbBlockTableRecord
  2
_D_1
340
0
  0
BLOCK_RECORD
  5
17A
330
1
100
AcDbSymbolTableRecord
100
AcDbBlockTableRecord
  2
_D_2
340
0
  0
BLOCK_RECORD
  5
1C1
330
1
100
AcDbSymbolTableRecord
100
AcDbBlockTableRecord
  2
_D_3
340
0
  0
BLOCK_RECORD
  5
1CA
330
1
100
AcDbSymbolTableRecord
100
AcDbBlockTableRecord
  2
_D_4
340
0
  0
BLOCK_RECORD
  5
1D4
330
1
100
AcDbSymbolTableRecord
100
AcDbBlockTableRecord
  2
_D_5
340
0
  0
BLOCK_RECORD
  5
1DE
330
1
100
AcDbSymbolTableRecord
100
AcDbBlockTableRecord
  2
_D_6
340
0
  0
BLOCK_RECORD
  5
1E8
330
1
100
AcDbSymbolTableRecord
100
AcDbBlockTableRecord
  2
_D_7
340
0
  0
BLOCK_RECORD
  5
1F2
330
1
100
AcDbSymbolTableRecord
100
AcDbBlockTableRecord
  2
_D_8
340
0
  0
BLOCK_RECORD
  5
1FC
330
1
100
AcDbSymbolTableRecord
100
AcDbBlockTableRecord
  2
_D_9
340
0
  0
BLOCK_RECORD
  5
205
330
1
100
AcDbSymbolTableRecord
100
AcDbBlockTableRecord
  2
SW_CENTERMARKSYMBOL_0
340
0
102
{BLKREFS
331
210
102
}
  0
BLOCK_RECORD
  5
2AA
330
1
100
AcDbSymbolTableRecord
100
AcDbBlockTableRecord
  2
_D_10
340
0
  0
ENDTAB
  0
ENDSEC
  0
SECTION
  2
BLOCKS
  0
BLOCK
  5
20
330
1F
100
AcDbEntity
  8
0
100
AcDbBlockBegin
  2
*Model_Space
 70
     0
 10
0.0
 20
0.0
 30
0.0
  3
*Model_Space
  1

  0
ENDBLK
  5
21
330
1F
100
AcDbEntity
  8
0
100
AcDbBlockEnd
  0
BLOCK
  5
1C
330
1B
100
AcDbEntity
 67
     1
  8
0
100
AcDbBlockBegin
  2
*Paper_Space
 70
     0
 10
0.0
 20
0.0
 30
0.0
  3
*Paper_Space
  1

  0
ENDBLK
  5
1D
330
1B
100
AcDbEntity
 67
     1
  8
0
100
AcDbBlockEnd
  0
BLOCK
  5
24
330
23
100
AcDbEntity
  8
0
100
AcDbBlockBegin
  2
*Paper_Space0
 70
     0
 10
0.0
 20
0.0
 30
0.0
  3
*Paper_Space0
  1

  0
ENDBLK
  5
25
330
23
100
AcDbEntity
  8
0
100
AcDbBlockEnd
  0
BLOCK
  5
165
330
164
100
AcDbEntity
  8
0
100
AcDbBlockBegin
  2
_D
 70
     0
 10
0.0
 20
0.0
 30
0.0
  3
_D
  1

  0
SOLID
  5
167
330
164
100
AcDbEntity
  8
VERMASSUNG
100
AcDbTrace
 10
169.4536343474
 20
116.6105846182
 30
0.0
 11
172.4536343474
 21
116.1605846182
 31
0.0
 12
172.4536343474
 22
117.0605846182
 32
0.0
 13
172.4536343474
 23
117.0605846182
 33
0.0
  0
SOLID
  5
168
330
164
100
AcDbEntity
  8
VERMASSUNG
100
AcDbTrace
 10
269.4536343474
 20
116.6105846182
 30
0.0
 11
266.4536343474
 21
117.0605846182
 31
0.0
 12
266.4536343474
 22
116.1605846182
 32
0.0
 13
266.4536343474
 23
116.1605846182
 33
0.0
  0
LINE
  5
169
330
164
100
AcDbEntity
  8
VERMASSUNG
100
AcDbLine
 10
169.4536343474
 20
112.3105846182
 30
0.0
 11
169.4536343474
 21
117.6105846182
 31
0.0
  0
LINE
  5
16A
330
164
100
AcDbEntity
  8
VERMASSUNG
100
AcDbLine
 10
269.4536343474
 20
107.1105846182
 30
0.0
 11
269.4536343474
 21
117.6105846182
 31
0.0
  0
LINE
  5
16B
330
164
100
AcDbEntity
  8
VERMASSUNG
100
AcDbLine
 10
169.4536343474
 20
116.6105846182
 30
0.0
 11
269.4536343474
 21
116.6105846182
 31
0.0
  0
MTEXT
  5
16C
330
164
100
AcDbEntity
  8
VERMASSUNG
100
AcDbMText
 10
215.5437941714
 20
119.2105845018
 30
0.0
 40
2.0
 41
0.0
 71
     1
 72
     1
  1
100
  7
SLDTEXTSTYLE0
 73
     1
 44
1.0
  0
ENDBLK
  5
166
330
164
100
AcDbEntity
  8
0
100
AcDbBlockEnd
  0
BLOCK
  5
16F
330
16E
100
AcDbEntity
  8
0
100
AcDbBlockBegin
  2
_D_1
 70
     0
 10
0.0
 20
0.0
 30
0.0
  3
_D_1
  1

  0
SOLID
  5
171
330
16E
100
AcDbEntity
  8
VERMASSUNG
100
AcDbTrace
 10
132.4583472065
 20
112.6105846182
 30
0.0
 11
132.0083472065
 21
109.6105846182
 31
0.0
 12
132.9083472065
 22
109.6105846182
 32
0.0
 13
132.9083472065
 23
109.6105846182
 33
0.0
  0
SOLID
  5
172
330
16E
100
AcDbEntity
  8
VERMASSUNG
100
AcDbTrace
 10
132.4583472065
 20
49.6105846182
 30
0.0
 11
132.9083472065
 21
52.6105846182
 31
0.0
 12
132.0083472065
 22
52.6105846182
 32
0.0
 13
132.0083472065
 23
52.6105846182
 33
0.0
  0
LINE
  5
173
330
16E
100
AcDbEntity
  8
VERMASSUNG
100
AcDbLine
 10
169.7536343474
 20
112.6105846182
 30
0.0
 11
131.4583472065
 21
112.6105846182
 31
0.0
  0
LINE
  5
174
330
16E
100
AcDbEntity
  8
VERMASSUNG
100
AcDbLine
 10
169.7536343474
 20
49.6105846182
 30
0.0
 11
131.4583472065
 21
49.6105846182
 31
0.0
  0
LINE
  5
175
330
16E
100
AcDbEntity
  8
VERMASSUNG
100
AcDbLine
 10
132.4583472065
 20
112.6105846182
 30
0.0
 11
132.4583472065
 21
49.6105846182
 31
0.0
  0
MTEXT
  5
176
330
16E
100
AcDbEntity
  8
VERMASSUNG
100
AcDbMText
 10
129.658347197
 20
73.4010193505
 30
0.0
 40
2.0
 41
0.0
 71
     1
 72
     1
  1
HSK T
  7
SLDTEXTSTYLE0
 11
-7.044195017643634E-15
 21
1.0
 31
0.0
 73
     1
 44
1.0
  0
MTEXT
  5
177
330
16E
100
AcDbEntity
  8
VERMASSUNG
100
AcDbMText
 10
129.8583472065
 20
81.0010194787
 30
0.0
 40
2.0
 41
0.0
 71
     1
 72
     1
  1
%%c
  7
SLDTEXTSTYLE0
 11
-7.044195017643634E-15
 21
1.0
 31
0.0
 73
     1
 44
1.0
  0
MTEXT
  5
178
330
16E
100
AcDbEntity
  8
VERMASSUNG
100
AcDbMText
 10
129.8583473229
 20
84.6100431834
 30
0.0
 40
2.0
 41
0.0
 71
     1
 72
     1
  1
63
  7
SLDTEXTSTYLE0
 11
-7.044195017643634E-15
 21
1.0
 31
0.0
 73
     1
 44
1.0
  0
ENDBLK
  5
170
330
16E
100
AcDbEntity
  8
0
100
AcDbBlockEnd
  0
BLOCK
  5
17B
330
17A
100
AcDbEntity
  8
0
100
AcDbBlockBegin
  2
_D_2
 70
     0
 10
0.0
 20
0.0
 30
0.0
  3
_D_2
  1

  0
SOLID
  5
17D
330
17A
100
AcDbEntity
  8
VERMASSUNG
100
AcDbTrace
 10
137.5536343474
 20
122.6105846182
 30
0.0
 11
140.5536343474
 21
122.1605846182
 31
0.0
 12
140.5536343474
 22
123.0605846182
 32
0.0
 13
140.5536343474
 23
123.0605846182
 33
0.0
  0
SOLID
  5
17E
330
17A
100
AcDbEntity
  8
VERMASSUNG
100
AcDbTrace
 10
269.4536343474
 20
122.6105846182
 30
0.0
 11
266.4536343474
 21
123.0605846182
 31
0.0
 12
266.4536343474
 22
122.1605846182
 32
0.0
 13
266.4536343474
 23
122.1605846182
 33
0.0
  0
LINE
  5
17F
330
17A
100
AcDbEntity
  8
VERMASSUNG
100
AcDbLine
 10
137.5536343474
 20
101.0866451229
 30
0.0
 11
137.5536343474
 21
123.6105846182
 31
0.0
  0
LINE
  5
180
330
17A
100
AcDbEntity
  8
VERMASSUNG
100
AcDbLine
 10
269.4536343474
 20
107.1105846182
 30
0.0
 11
269.4536343474
 21
123.6105846182
 31
0.0
  0
LINE
  5
181
330
17A
100
AcDbEntity
  8
VERMASSUNG
100
AcDbLine
 10
137.5536343474
 20
122.6105846182
 30
0.0
 11
269.4536343474
 21
122.6105846182
 31
0.0
  0
MTEXT
  5
182
330
17A
100
AcDbEntity
  8
VERMASSUNG
100
AcDbMText
 10
201.6043647119
 20
125.2105845018
 30
0.0
 40
2.0
 41
0.0
 71
     1
 72
     1
  1
131.9
  7
SLDTEXTSTYLE0
 73
     1
 44
1.0
  0
ENDBLK
  5
17C
330
17A
100
AcDbEntity
  8
0
100
AcDbBlockEnd
  0
BLOCK
  5
1C2
330
1C1
100
AcDbEntity
  8
0
100
AcDbBlockBegin
  2
_D_3
 70
     0
 10
0.0
 20
0.0
 30
0.0
  3
_D_3
  1

  0
ARC
  5
1C4
330
1C1
100
AcDbEntity
  8
VERMASSUNG
100
AcDbCircle
 10
65.4962350975
 20
81.1105846182
 30
0.0
 40
51.0
100
AcDbArc
 50
323.4520471045
 51
340.2500772044
  0
SOLID
  5
1C5
330
1C1
100
AcDbEntity
  8
VERMASSUNG
100
AcDbTrace
 10
107.0550384954
 20
51.5493623813
 30
0.0
 11
109.2388396755
 21
49.4437716315
 31
0.0
 12
109.7605083032
 22
50.1771622797
 32
0.0
 13
109.7605083032
 23
50.1771622797
 33
0.0
  0
LINE
  5
1C6
330
1C1
100
AcDbEntity
  8
VERMASSUNG
100
AcDbLine
 10
107.0550384954
 20
51.5493623813
 30
0.0
 11
118.7009831864
 21
43.2654771146
 31
0.0
  0
MTEXT
  5
1C7
330
1C1
100
AcDbEntity
  8
VERMASSUNG
100
AcDbMText
 10
112.8787565744
 20
50.5963838179
 30
0.0
 40
2.0
 41
0.0
 71
     1
 72
     1
  1
%%c
  7
SLDTEXTSTYLE0
 11
0.8148784979969407
 21
-0.5796318085666538
 31
0.0
 73
     1
 44
1.0
  0
MTEXT
  5
1C8
330
1C1
100
AcDbEntity
  8
VERMASSUNG
100
AcDbMText
 10
115.8188828497
 20
48.5050403465
 30
0.0
 40
2.0
 41
0.0
 71
     1
 72
     1
  1
102
  7
SLDTEXTSTYLE0
 11
0.8148784979969407
 21
-0.5796318085666538
 31
0.0
 73
     1
 44
1.0
  0
ENDBLK
  5
1C3
330
1C1
100
AcDbEntity
  8
0
100
AcDbBlockEnd
  0
BLOCK
  5
1CB
330
1CA
100
AcDbEntity
  8
0
100
AcDbBlockBegin
  2
_D_4
 70
     0
 10
0.0
 20
0.0
 30
0.0
  3
_D_4
  1

  0
SOLID
  5
1CD
330
1CA
100
AcDbEntity
  8
VERMASSUNG
100
AcDbTrace
 10
65.4962350975
 20
116.9515709642
 30
0.0
 11
68.4962350975
 21
116.5015709642
 31
0.0
 12
68.4962350975
 22
117.4015709642
 32
0.0
 13
68.4962350975
 23
117.4015709642
 33
0.0
  0
SOLID
  5
1CE
330
1CA
100
AcDbEntity
  8
VERMASSUNG
100
AcDbTrace
 10
90.4962350975
 20
116.9515709642
 30
0.0
 11
87.4962350975
 21
117.4015709642
 31
0.0
 12
87.4962350975
 22
116.5015709642
 32
0.0
 13
87.4962350975
 23
116.5015709642
 33
0.0
  0
LINE
  5
1CF
330
1CA
100
AcDbEntity
  8
VERMASSUNG
100
AcDbLine
 10
65.4962350975
 20
116.7195016251
 30
0.0
 11
65.4962350975
 21
117.9515709642
 31
0.0
  0
LINE
  5
1D0
330
1CA
100
AcDbEntity
  8
VERMASSUNG
100
AcDbLine
 10
90.4962350975
 20
66.1105846182
 30
0.0
 11
90.4962350975
 21
117.9515709642
 31
0.0
  0
LINE
  5
1D1
330
1CA
100
AcDbEntity
  8
VERMASSUNG
100
AcDbLine
 10
65.4962350975
 20
116.9515709642
 30
0.0
 11
90.4962350975
 21
116.9515709642
 31
0.0
  0
MTEXT
  5
1D2
330
1CA
100
AcDbEntity
  8
VERMASSUNG
100
AcDbMText
 10
76.5963098034
 20
119.5515708478
 30
0.0
 40
2.0
 41
0.0
 71
     1
 72
     1
  1
25
  7
SLDTEXTSTYLE0
 73
     1
 44
1.0
  0
ENDBLK
  5
1CC
330
1CA
100
AcDbEntity
  8
0
100
AcDbBlockEnd
  0
BLOCK
  5
1D5
330
1D4
100
AcDbEntity
  8
0
100
AcDbBlockBegin
  2
_D_5
 70
     0
 10
0.0
 20
0.0
 30
0.0
  3
_D_5
  1

  0
SOLID
  5
1D7
330
1D4
100
AcDbEntity
  8
VERMASSUNG
100
AcDbTrace
 10
31.3223598008
 20
41.1105846182
 30
0.0
 11
31.7723598008
 21
44.1105846182
 31
0.0
 12
30.8723598008
 22
44.1105846182
 32
0.0
 13
30.8723598008
 23
44.1105846182
 33
0.0
  0
SOLID
  5
1D8
330
1D4
100
AcDbEntity
  8
VERMASSUNG
100
AcDbTrace
 10
31.3223598008
 20
66.1105846182
 30
0.0
 11
30.8723598008
 21
63.1105846182
 31
0.0
 12
31.7723598008
 22
63.1105846182
 32
0.0
 13
31.7723598008
 23
63.1105846182
 33
0.0
  0
LINE
  5
1D9
330
1D4
100
AcDbEntity
  8
VERMASSUNG
100
AcDbLine
 10
39.4962350975
 20
41.1105846182
 30
0.0
 11
30.3223598008
 21
41.1105846182
 31
0.0
  0
LINE
  5
1DA
330
1D4
100
AcDbEntity
  8
VERMASSUNG
100
AcDbLine
 10
64.4962350975
 20
66.1105846182
 30
0.0
 11
30.3223598008
 21
66.1105846182
 31
0.0
  0
LINE
  5
1DB
330
1D4
100
AcDbEntity
  8
VERMASSUNG
100
AcDbLine
 10
31.3223598008
 20
41.1105846182
 30
0.0
 11
31.3223598008
 21
66.1105846182
 31
0.0
  0
MTEXT
  5
1DC
330
1D4
100
AcDbEntity
  8
VERMASSUNG
100
AcDbMText
 10
28.7223599172
 20
53.2055645789
 30
0.0
 40
2.0
 41
0.0
 71
     1
 72
     1
  1
25
  7
SLDTEXTSTYLE0
 11
6.123233995736766E-17
 21
1.0
 31
0.0
 73
     1
 44
1.0
  0
ENDBLK
  5
1D6
330
1D4
100
AcDbEntity
  8
0
100
AcDbBlockEnd
  0
BLOCK
  5
1DF
330
1DE
100
AcDbEntity
  8
0
100
AcDbBlockBegin
  2
_D_6
 70
     0
 10
0.0
 20
0.0
 30
0.0
  3
_D_6
  1

  0
SOLID
  5
1E1
330
1DE
100
AcDbEntity
  8
VERMASSUNG
100
AcDbTrace
 10
19.3223598008
 20
41.1105846182
 30
0.0
 11
19.7723598008
 21
44.1105846182
 31
0.0
 12
18.8723598008
 22
44.1105846182
 32
0.0
 13
18.8723598008
 23
44.1105846182
 33
0.0
  0
SOLID
  5
1E2
330
1DE
100
AcDbEntity
  8
VERMASSUNG
100
AcDbTrace
 10
19.3223598008
 20
107.1105846182
 30
0.0
 11
18.8723598008
 21
104.1105846182
 31
0.0
 12
19.7723598008
 22
104.1105846182
 32
0.0
 13
19.7723598008
 23
104.1105846182
 33
0.0
  0
LINE
  5
1E3
330
1DE
100
AcDbEntity
  8
VERMASSUNG
100
AcDbLine
 10
39.4962350975
 20
41.1105846182
 30
0.0
 11
18.3223598008
 21
41.1105846182
 31
0.0
  0
LINE
  5
1E4
330
1DE
100
AcDbEntity
  8
VERMASSUNG
100
AcDbLine
 10
54.4962350975
 20
107.1105846182
 30
0.0
 11
18.3223598008
 21
107.1105846182
 31
0.0
  0
LINE
  5
1E5
330
1DE
100
AcDbEntity
  8
VERMASSUNG
100
AcDbLine
 10
19.3223598008
 20
41.1105846182
 30
0.0
 11
19.3223598008
 21
107.1105846182
 31
0.0
  0
MTEXT
  5
1E6
330
1DE
100
AcDbEntity
  8
VERMASSUNG
100
AcDbMText
 10
16.7223599172
 20
72.844199818
 30
0.0
 40
2.0
 41
0.0
 71
     1
 72
     1
  1
66
  7
SLDTEXTSTYLE0
 11
-1.608122649676637E-16
 21
1.0
 31
0.0
 73
     1
 44
1.0
  0
ENDBLK
  5
1E0
330
1DE
100
AcDbEntity
  8
0
100
AcDbBlockEnd
  0
BLOCK
  5
1E9
330
1E8
100
AcDbEntity
  8
0
100
AcDbBlockBegin
  2
_D_7
 70
     0
 10
0.0
 20
0.0
 30
0.0
  3
_D_7
  1

  0
SOLID
  5
1EB
330
1E8
100
AcDbEntity
  8
VERMASSUNG
100
AcDbTrace
 10
65.4962350975
 20
122.6105846182
 30
0.0
 11
68.4962350975
 21
122.1605846182
 31
0.0
 12
68.4962350975
 22
123.0605846182
 32
0.0
 13
68.4962350975
 23
123.0605846182
 33
0.0
  0
SOLID
  5
1EC
330
1E8
100
AcDbEntity
  8
VERMASSUNG
100
AcDbTrace
 10
113.4962350975
 20
122.6105846182
 30
0.0
 11
110.4962350975
 21
123.0605846182
 31
0.0
 12
110.4962350975
 22
122.1605846182
 32
0.0
 13
110.4962350975
 23
122.1605846182
 33
0.0
  0
LINE
  5
1ED
330
1E8
100
AcDbEntity
  8
VERMASSUNG
100
AcDbLine
 10
65.4962350975
 20
116.7195016251
 30
0.0
 11
65.4962350975
 21
123.6105846182
 31
0.0
  0
LINE
  5
1EE
330
1E8
100
AcDbEntity
  8
VERMASSUNG
100
AcDbLine
 10
113.4962350975
 20
92.1105846182
 30
0.0
 11
113.4962350975
 21
123.6105846182
 31
0.0
  0
LINE
  5
1EF
330
1E8
100
AcDbEntity
  8
VERMASSUNG
100
AcDbLine
 10
65.4962350975
 20
122.6105846182
 30
0.0
 11
113.4962350975
 21
122.6105846182
 31
0.0
  0
MTEXT
  5
1F0
330
1E8
100
AcDbEntity
  8
VERMASSUNG
100
AcDbMText
 10
87.9964869517
 20
125.2105845018
 30
0.0
 40
2.0
 41
0.0
 71
     1
 72
     1
  1
48
  7
SLDTEXTSTYLE0
 73
     1
 44
1.0
  0
ENDBLK
  5
1EA
330
1E8
100
AcDbEntity
  8
0
100
AcDbBlockEnd
  0
BLOCK
  5
1F3
330
1F2
100
AcDbEntity
  8
0
100
AcDbBlockBegin
  2
_D_8
 70
     0
 10
0.0
 20
0.0
 30
0.0
  3
_D_8
  1

  0
SOLID
  5
1F5
330
1F2
100
AcDbEntity
  8
VERMASSUNG
100
AcDbTrace
 10
25.3223598008
 20
41.1105846182
 30
0.0
 11
25.7723598008
 21
44.1105846182
 31
0.0
 12
24.8723598008
 22
44.1105846182
 32
0.0
 13
24.8723598008
 23
44.1105846182
 33
0.0
  0
SOLID
  5
1F6
330
1F2
100
AcDbEntity
  8
VERMASSUNG
100
AcDbTrace
 10
25.3223598008
 20
81.1105846182
 30
0.0
 11
24.8723598008
 21
78.1105846182
 31
0.0
 12
25.7723598008
 22
78.1105846182
 32
0.0
 13
25.7723598008
 23
78.1105846182
 33
0.0
  0
LINE
  5
1F7
330
1F2
100
AcDbEntity
  8
VERMASSUNG
100
AcDbLine
 10
39.4962350975
 20
41.1105846182
 30
0.0
 11
24.3223598008
 21
41.1105846182
 31
0.0
  0
LINE
  5
1F8
330
1F2
100
AcDbEntity
  8
VERMASSUNG
100
AcDbLine
 10
31.8238543587
 20
81.1105846182
 30
0.0
 11
24.3223598008
 21
81.1105846182
 31
0.0
  0
LINE
  5
1F9
330
1F2
100
AcDbEntity
  8
VERMASSUNG
100
AcDbLine
 10
25.3223598008
 20
41.1105846182
 30
0.0
 11
25.3223598008
 21
81.1105846182
 31
0.0
  0
MTEXT
  5
1FA
330
1F2
100
AcDbEntity
  8
VERMASSUNG
100
AcDbMText
 10
22.7223599172
 20
59.2690374151
 30
0.0
 40
2.0
 41
0.0
 71
     1
 72
     1
  1
40
  7
SLDTEXTSTYLE0
 11
6.123233995736766E-17
 21
1.0
 31
0.0
 73
     1
 44
1.0
  0
ENDBLK
  5
1F4
330
1F2
100
AcDbEntity
  8
0
100
AcDbBlockEnd
  0
BLOCK
  5
1FD
330
1FC
100
AcDbEntity
  8
0
100
AcDbBlockBegin
  2
_D_9
 70
     0
 10
0.0
 20
0.0
 30
0.0
  3
_D_9
  1

  0
SOLID
  5
1FF
330
1FC
100
AcDbEntity
  8
VERMASSUNG
100
AcDbTrace
 10
39.4962350975
 20
128.6105846182
 30
0.0
 11
42.4962350975
 21
128.1605846182
 31
0.0
 12
42.4962350975
 22
129.0605846182
 32
0.0
 13
42.4962350975
 23
129.0605846182
 33
0.0
  0
SOLID
  5
200
330
1FC
100
AcDbEntity
  8
VERMASSUNG
100
AcDbTrace
 10
113.4962350975
 20
128.6105846182
 30
0.0
 11
110.4962350975
 21
129.0605846182
 31
0.0
 12
110.4962350975
 22
128.1605846182
 32
0.0
 13
110.4962350975
 23
128.1605846182
 33
0.0
  0
LINE
  5
201
330
1FC
100
AcDbEntity
  8
VERMASSUNG
100
AcDbLine
 10
39.4962350975
 20
92.1105846182
 30
0.0
 11
39.4962350975
 21
129.6105846182
 31
0.0
  0
LINE
  5
202
330
1FC
100
AcDbEntity
  8
VERMASSUNG
100
AcDbLine
 10
113.4962350975
 20
92.1105846182
 30
0.0
 11
113.4962350975
 21
129.6105846182
 31
0.0
  0
LINE
  5
203
330
1FC
100
AcDbEntity
  8
VERMASSUNG
100
AcDbLine
 10
39.4962350975
 20
128.6105846182
 30
0.0
 11
113.4962350975
 21
128.6105846182
 31
0.0
  0
MTEXT
  5
204
330
1FC
100
AcDbEntity
  8
VERMASSUNG
100
AcDbMText
 10
74.9964869517
 20
131.2105845018
 30
0.0
 40
2.0
 41
0.0
 71
     1
 72
     1
  1
74
  7
SLDTEXTSTYLE0
 73
     1
 44
1.0
  0
ENDBLK
  5
1FE
330
1FC
100
AcDbEntity
  8
0
100
AcDbBlockEnd
  0
BLOCK
  5
206
330
205
100
AcDbEntity
  8
0
100
AcDbBlockBegin
  2
SW_CENTERMARKSYMBOL_0
 70
     0
 10
0.0
 20
0.0
 30
0.0
  3
SW_CENTERMARKSYMBOL_0
  1

  0
LINE
  5
208
330
205
100
AcDbEntity
  8
VERMASSUNG
 62
     0
100
AcDbLine
 10
0.0
 20
0.0
 30
0.0
 11
0.0
 21
2.5
 31
0.0
  0
LINE
  5
209
330
205
100
AcDbEntity
  8
VERMASSUNG
 62
     0
100
AcDbLine
 10
0.0
 20
0.0
 30
0.0
 11
-2.5
 21
0.0
 31
0.0
  0
LINE
  5
20A
330
205
100
AcDbEntity
  8
VERMASSUNG
 62
     0
100
AcDbLine
 10
0.0
 20
0.0
 30
0.0
 11
0.0
 21
-2.5
 31
0.0
  0
LINE
  5
20B
330
205
100
AcDbEntity
  8
VERMASSUNG
 62
     0
100
AcDbLine
 10
0.0
 20
0.0
 30
0.0
 11
2.5
 21
0.0
 31
0.0
  0
LINE
  5
20C
330
205
100
AcDbEntity
  8
VERMASSUNG
 62
     0
100
AcDbLine
 10
0.0
 20
5.0
 30
0.0
 11
0.0
 21
35.6089170069
 31
0.0
  0
LINE
  5
20D
330
205
100
AcDbEntity
  8
VERMASSUNG
 62
     0
100
AcDbLine
 10
-5.0
 20
0.0
 30
0.0
 11
-33.6723807388
 21
0.0
 31
0.0
  0
LINE
  5
20E
330
205
100
AcDbEntity
  8
VERMASSUNG
 62
     0
100
AcDbLine
 10
0.0
 20
-5.0
 30
0.0
 11
0.0
 21
-43.294658291
 31
0.0
  0
LINE
  5
20F
330
205
100
AcDbEntity
  8
VERMASSUNG
 62
     0
100
AcDbLine
 10
5.0
 20
0.0
 30
0.0
 11
51.3163390719
 21
0.0
 31
0.0
  0
ENDBLK
  5
207
330
205
100
AcDbEntity
  8
0
100
AcDbBlockEnd
  0
BLOCK
  5
2AB
330
2AA
100
AcDbEntity
  8
0
100
AcDbBlockBegin
  2
_D_10
 70
     0
 10
0.0
 20
0.0
 30
0.0
  3
_D_10
  1

  0
SOLID
  5
2AD
330
2AA
100
AcDbEntity
  8
VERMASSUNG
100
AcDbTrace
 10
269.4536343474
 20
206.0026223497
 30
0.0
 11
266.4536343474
 21
206.4526223497
 31
0.0
 12
266.4536343474
 22
205.5526223497
 32
0.0
 13
266.4536343474
 23
205.5526223497
 33
0.0
  0
SOLID
  5
2AE
330
2AA
100
AcDbEntity
  8
VERMASSUNG
100
AcDbTrace
 10
211.4536343474
 20
206.0026223497
 30
0.0
 11
214.4536343474
 21
205.5526223497
 31
0.0
 12
214.4536343474
 22
206.4526223497
 32
0.0
 13
214.4536343474
 23
206.4526223497
 33
0.0
  0
LINE
  5
2AF
330
2AA
100
AcDbEntity
  8
VERMASSUNG
100
AcDbLine
 10
269.4536343474
 20
200.6519578163
 30
0.0
 11
269.4536343474
 21
207.0026223497
 31
0.0
  0
LINE
  5
2B0
330
2AA
100
AcDbEntity
  8
VERMASSUNG
100
AcDbLine
 10
211.4536343474
 20
165.2519578163
 30
0.0
 11
211.4536343474
 21
207.0026223497
 31
0.0
  0
LINE
  5
2B1
330
2AA
100
AcDbEntity
  8
VERMASSUNG
100
AcDbLine
 10
269.4536343474
 20
206.0026223497
 30
0.0
 11
211.4536343474
 21
206.0026223497
 31
0.0
  0
MTEXT
  5
2B2
330
2AA
100
AcDbEntity
  8
VERMASSUNG
100
AcDbMText
 10
236.8670760157
 20
208.6026222333
 30
0.0
 40
2.0
 41
0.0
 71
     1
 72
     1
  1
58
  7
SLDTEXTSTYLE0
 73
     1
 44
1.0
  0
ENDBLK
  5
2AC
330
2AA
100
AcDbEntity
  8
0
100
AcDbBlockEnd
  0
ENDSEC
  0
SECTION
  2
ENTITIES
  0
MTEXT
  5
4B
330
1F
100
AcDbEntity
  8
KOPF_DÜNN
100
AcDbMText
 10
13.8892156294
 20
23.8770940835
 30
0.0
 40
3.0
 41
0.0
 71
     1
 72
     1
  1
HA6.V25.L11.100
  7
SLDTEXTSTYLE0
 73
     1
 44
1.0
  0
MTEXT
  5
4C
330
1F
100
AcDbEntity
  8
VERMASSUNG
100
AcDbMText
 10
13.9329988022
 20
28.9162328764
 30
0.0
 40
3.0
 41
0.0
 71
     1
 72
     1
  1
Werkzeughalter axial_Tool holder axial
  7
SLDTEXTSTYLE0
 73
     1
 44
1.0
  0
MTEXT
  5
4D
330
1F
100
AcDbEntity
  8
VERMASSUNG
100
AcDbMText
 10
98.8601118557
 20
13.8584013384
 30
0.0
 40
2.0
 41
0.0
 71
     1
 72
     1
  1
Datum: 16.02.2011
  7
SLDTEXTSTYLE0
 73
     1
 44
1.0
  0
MTEXT
  5
4E
330
1F
100
AcDbEntity
  8
VERMASSUNG
100
AcDbMText
 10
13.933048693
 20
18.0701447943
 30
0.0
 40
2.0
 41
0.0
 71
     1
 72
     1
  1
DIN 69893 HSK 63 A ICTM  / 25x25
  7
SLDTEXTSTYLE0
 73
     1
 44
1.0
  0
MTEXT
  5
4F
330
1F
100
AcDbEntity
  8
VERMASSUNG
100
AcDbMText
 10
13.9808475933
 20
13.9309618897
 30
0.0
 40
2.0
 41
0.0
 71
     1
 72
     1
  1
Gewicht: 2590g
  7
SLDTEXTSTYLE0
 73
     1
 44
1.0
  0
ARC
  5
50
330
1F
100
AcDbEntity
  8
0
  6
SLD-Durchgehend
 62
     7
370
    15
100
AcDbCircle
 10
267.3536343474
 20
71.1105846182
 30
0.0
 40
5.600000000000024
100
AcDbArc
 50
37.4349589689
 51
67.975687163
  0
ARC
  5
51
330
1F
100
AcDbEntity
  8
0
  6
SLD-Durchgehend
 62
     7
370
    15
100
AcDbCircle
 10
267.3536343474
 20
71.1105846182
 30
0.0
 40
5.600000000000041
100
AcDbArc
 50
292.024312837
 51
320.1396234106
  0
LINE
  5
52
330
1F
100
AcDbEntity
  8
0
  6
SLD-Durchgehend
 62
     7
370
    15
100
AcDbLine
 10
169.7536343474
 20
49.6105846182
 30
0.0
 11
174.4036343474
 21
49.6105846182
 31
0.0
  0
LINE
  5
53
330
1F
100
AcDbEntity
  8
0
  6
SLD-Durchgehend
 62
     7
370
    15
100
AcDbLine
 10
174.4316227065
 20
112.6105846182
 30
0.0
 11
169.7536343474
 21
112.6105846182
 31
0.0
  0
ARC
  5
54
330
1F
100
AcDbEntity
  8
0
  6
SLD-Durchgehend
 62
     7
370
    15
100
AcDbCircle
 10
169.7536343474
 20
49.9105846182
 30
0.0
 40
0.3000000000000398
100
AcDbArc
 50
180.0
 51
270.0
  0
ARC
  5
55
330
1F
100
AcDbEntity
  8
0
  6
SLD-Durchgehend
 62
     7
370
    15
100
AcDbCircle
 10
169.7536343474
 20
112.3105846182
 30
0.0
 40
0.3000000000000398
100
AcDbArc
 50
90.0
 51
180.0
  0
ARC
  5
56
330
1F
100
AcDbEntity
  8
0
  6
SLD-Durchgehend
 62
     7
370
    15
100
AcDbCircle
 10
196.4036343474
 20
54.1105846182
 30
0.0
 40
1.000000000000017
100
AcDbArc
 50
90.0
 51
143.1139143113
  0
ARC
  5
57
330
1F
100
AcDbEntity
  8
0
  6
SLD-Durchgehend
 62
     7
370
    15
100
AcDbCircle
 10
196.4036343474
 20
108.1105846182
 30
0.0
 40
1.000000000000018
100
AcDbArc
 50
216.9056849333
 51
270.0
  0
LINE
  5
58
330
1F
100
AcDbEntity
  8
0
  6
SLD-Durchgehend
 62
     7
370
    15
100
AcDbLine
 10
196.4036343474
 20
55.1105846182
 30
0.0
 11
208.5066387618
 21
55.1105846182
 31
0.0
  0
LINE
  5
59
330
1F
100
AcDbEntity
  8
0
  6
SLD-Durchgehend
 62
     7
370
    15
100
AcDbLine
 10
210.6863073595
 20
107.1105846182
 30
0.0
 11
196.4036343474
 21
107.1105846182
 31
0.0
  0
ARC
  5
5A
330
1F
100
AcDbEntity
  8
0
  6
SLD-Durchgehend
 62
     7
370
    15
100
AcDbCircle
 10
168.9536343474
 20
56.5401537565
 30
0.0
 40
0.6000000000000085
100
AcDbArc
 50
33.5573097619
 51
90.0
  0
ARC
  5
5B
330
1F
100
AcDbEntity
  8
0
  6
SLD-Durchgehend
 62
     7
370
    15
100
AcDbCircle
 10
168.9536343474
 20
105.68101548
 30
0.0
 40
0.6000000000000085
100
AcDbArc
 50
270.0
 51
326.4426902381
  0
LINE
  5
5C
330
1F
100
AcDbEntity
  8
0
  6
SLD-Durchgehend
 62
     7
370
    15
100
AcDbLine
 10
167.4536343474
 20
56.8901537565
 30
0.0
 11
168.3103471208
 21
57.1197092523
 31
0.0
  0
LINE
  5
5D
330
1F
100
AcDbEntity
  8
0
  6
SLD-Durchgehend
 62
     7
370
    15
100
AcDbLine
 10
168.3103471208
 20
105.1014599842
 30
0.0
 11
167.4536343474
 21
105.33101548
 31
0.0
  0
LINE
  5
5E
330
1F
100
AcDbEntity
  8
0
  6
SLD-Durchgehend
 62
     7
370
    15
100
AcDbLine
 10
156.2232121649
 20
104.768369078
 30
0.0
 11
143.6536343474
 21
104.1386307104
 31
0.0
  0
LINE
  5
5F
330
1F
100
AcDbEntity
  8
0
  6
SLD-Durchgehend
 62
     7
370
    15
100
AcDbLine
 10
167.4536343474
 20
105.33101548
 30
0.0
 11
164.6350249899
 21
105.1898025863
 31
0.0
  0
LINE
  5
60
330
1F
100
AcDbEntity
  8
0
  6
SLD-Durchgehend
 62
     7
370
    15
100
AcDbLine
 10
164.6352464651
 20
57.0313555542
 30
0.0
 11
167.4536343474
 21
56.8901537565
 31
0.0
  0
LINE
  5
61
330
1F
100
AcDbEntity
  8
0
  6
SLD-Durchgehend
 62
     7
370
    15
100
AcDbLine
 10
147.6536343474
 20
57.8821377245
 30
0.0
 11
156.2239111166
 21
57.4527651408
 31
0.0
  0
ARC
  5
62
330
1F
100
AcDbEntity
  8
0
  6
SLD-Durchgehend
 62
     7
370
    15
100
AcDbCircle
 10
168.4656385479
 20
56.5401537565
 30
0.0
 40
0.6000000000000227
100
AcDbArc
 50
90.0
 51
105.0
  0
ARC
  5
63
330
1F
100
AcDbEntity
  8
0
  6
SLD-Durchgehend
 62
     7
370
    15
100
AcDbCircle
 10
168.4656385479
 20
105.68101548
 30
0.0
 40
0.6000000000000227
100
AcDbArc
 50
255.0
 51
270.0
  0
LINE
  5
64
330
1F
100
AcDbEntity
  8
0
  6
SLD-Durchgehend
 62
     7
370
    15
100
AcDbLine
 10
168.4656385479
 20
57.1401537565
 30
0.0
 11
168.9536343474
 21
57.1401537565
 31
0.0
  0
LINE
  5
65
330
1F
100
AcDbEntity
  8
0
  6
SLD-Durchgehend
 62
     7
370
    15
100
AcDbLine
 10
168.9536343474
 20
105.08101548
 30
0.0
 11
168.4656385479
 21
105.08101548
 31
0.0
  0
LINE
  5
66
330
1F
100
AcDbEntity
  8
0
  6
SLD-Durchgehend
 62
     7
370
    15
100
AcDbLine
 10
138.7036343474
 20
60.2405846182
 30
0.0
 11
146.2536343474
 21
60.2405846182
 31
0.0
  0
ARC
  5
67
330
1F
100
AcDbEntity
  8
0
  6
SLD-Durchgehend
 62
     7
370
    15
100
AcDbCircle
 10
146.2536343474
 20
58.8405846182
 30
0.0
 40
1.400000000000008
100
AcDbArc
 50
41.1788388679
 51
90.0
  0
ARC
  5
68
330
1F
100
AcDbEntity
  8
0
  6
SLD-Durchgehend
 62
     7
370
    15
100
AcDbCircle
 10
142.2536343474
 20
103.3805846182
 30
0.0
 40
1.400000000000027
100
AcDbArc
 50
270.0
 51
301.7485287426
  0
LINE
  5
69
330
1F
100
AcDbEntity
  8
0
  6
SLD-Durchgehend
 62
     7
370
    15
100
AcDbLine
 10
142.2536343474
 20
101.9805846182
 30
0.0
 11
138.8279000813
 21
101.9805846182
 31
0.0
  0
LINE
  5
6A
330
1F
100
AcDbEntity
  8
0
  6
SLD-Durchgehend
 62
     7
370
    15
100
AcDbLine
 10
138.6865030281
 20
101.9706938464
 30
0.0
 11
137.8189211735
 21
101.4697952291
 31
0.0
  0
LINE
  5
6B
330
1F
100
AcDbEntity
  8
0
  6
SLD-Durchgehend
 62
     7
370
    15
100
AcDbLine
 10
138.6932468299
 20
60.2465818543
 30
0.0
 11
138.7036343474
 21
60.2405846182
 31
0.0
  0
LINE
  5
6C
330
1F
100
AcDbEntity
  8
0
  6
SLD-Durchgehend
 62
     7
370
    15
100
AcDbLine
 10
137.7792570215
 20
60.7742741162
 30
0.0
 11
138.6932468299
 21
60.2465818543
 31
0.0
  0
ARC
  5
6D
330
1F
100
AcDbEntity
  8
0
  6
SLD-Durchgehend
 62
     7
370
    15
100
AcDbCircle
 10
227.5852489148
 20
71.9524385015
 30
0.0
 40
44.2892048836941
100
AcDbArc
 50
354.2581258352
 51
3.3164565442
  0
LINE
  5
6E
330
1F
100
AcDbEntity
  8
0
  6
SLD-Durchgehend
 62
     7
370
    15
100
AcDbLine
 10
255.8056107009
 20
50.5636159508
 30
0.0
 11
253.9908702536
 21
53.5143306284
 31
0.0
  0
CIRCLE
  5
6F
330
1F
100
AcDbEntity
  8
0
  6
SLD-Durchgehend
 62
     7
370
    15
100
AcDbCircle
 10
257.4536343474
 20
53.6105846182
 30
0.0
 40
5.036000000000048
  0
LINE
  5
70
330
1F
100
AcDbEntity
  8
0
  6
SLD-Durchgehend
 62
     7
370
    15
100
AcDbLine
 10
255.6388939001
 20
56.5612992959
 30
0.0
 11
253.9908702536
 21
53.5143306284
 31
0.0
  0
LINE
  5
71
330
1F
100
AcDbEntity
  8
0
  6
SLD-Durchgehend
 62
     7
370
    15
100
AcDbLine
 10
259.101657994
 20
56.6575532857
 30
0.0
 11
255.6388939001
 21
56.5612992959
 31
0.0
  0
LINE
  5
72
330
1F
100
AcDbEntity
  8
0
  6
SLD-Durchgehend
 62
     7
370
    15
100
AcDbLine
 10
259.101657994
 20
56.6575532857
 30
0.0
 11
260.9163984413
 21
53.706838608
 31
0.0
  0
LINE
  5
73
330
1F
100
AcDbEntity
  8
0
  6
SLD-Durchgehend
 62
     7
370
    15
100
AcDbLine
 10
259.2683747947
 20
50.6598699406
 30
0.0
 11
260.9163984413
 21
53.706838608
 31
0.0
  0
LINE
  5
74
330
1F
100
AcDbEntity
  8
0
  6
SLD-Durchgehend
 62
     7
370
    15
100
AcDbLine
 10
259.2683747947
 20
50.6598699406
 30
0.0
 11
255.8056107009
 21
50.5636159508
 31
0.0
  0
LINE
  5
75
330
1F
100
AcDbEntity
  8
0
  6
SLD-Durchgehend
 62
     7
370
    15
100
AcDbLine
 10
230.3239740253
 20
51.6712161299
 30
0.0
 11
230.5683465646
 21
55.1266874526
 31
0.0
  0
LINE
  5
76
330
1F
100
AcDbEntity
  8
0
  6
SLD-Durchgehend
 62
     7
370
    15
100
AcDbLine
 10
227.6980068867
 20
57.0660559409
 30
0.0
 11
230.5683465646
 21
55.1266874526
 31
0.0
  0
LINE
  5
77
330
1F
100
AcDbEntity
  8
0
  6
SLD-Durchgehend
 62
     7
370
    15
100
AcDbLine
 10
224.5832946695
 20
55.5499531066
 30
0.0
 11
227.6980068867
 21
57.0660559409
 31
0.0
  0
LINE
  5
78
330
1F
100
AcDbEntity
  8
0
  6
SLD-Durchgehend
 62
     7
370
    15
100
AcDbLine
 10
227.2092618082
 20
50.1551132955
 30
0.0
 11
230.3239740253
 21
51.6712161299
 31
0.0
  0
CIRCLE
  5
79
330
1F
100
AcDbEntity
  8
0
  6
SLD-Durchgehend
 62
     7
370
    15
100
AcDbCircle
 10
227.4536343474
 20
53.6105846182
 30
0.0
 40
5.035999999999998
  0
LINE
  5
7A
330
1F
100
AcDbEntity
  8
0
  6
SLD-Durchgehend
 62
     7
370
    15
100
AcDbLine
 10
227.2092618082
 20
50.1551132955
 30
0.0
 11
224.3389221303
 21
52.0944817839
 31
0.0
  0
LINE
  5
7B
330
1F
100
AcDbEntity
  8
0
  6
SLD-Durchgehend
 62
     7
370
    15
100
AcDbLine
 10
224.5832946695
 20
55.5499531066
 30
0.0
 11
224.3389221303
 21
52.0944817839
 31
0.0
  0
LINE
  5
7C
330
1F
100
AcDbEntity
  8
0
  6
SLD-Durchgehend
 62
     7
370
    15
100
AcDbLine
 10
194.8036343474
 20
50.923666922
 30
0.0
 11
190.8455671789
 21
50.923666922
 31
0.0
  0
LINE
  5
7D
330
1F
100
AcDbEntity
  8
0
  6
SLD-Durchgehend
 62
     7
370
    15
100
AcDbLine
 10
190.8455671789
 20
50.923666922
 30
0.0
 11
190.8455671789
 21
100.9605846182
 31
0.0
  0
LINE
  5
7E
330
1F
100
AcDbEntity
  8
0
  6
SLD-Durchgehend
 62
     7
370
    15
100
AcDbLine
 10
190.8455671789
 20
100.9605846182
 30
0.0
 11
194.8036343474
 21
100.9605846182
 31
0.0
  0
LINE
  5
7F
330
1F
100
AcDbEntity
  8
0
  6
SLD-Durchgehend
 62
     7
370
    15
100
AcDbLine
 10
195.4036343474
 20
51.5503072176
 30
0.0
 11
195.4036343474
 21
100.9605846182
 31
0.0
  0
ARC
  5
80
330
1F
100
AcDbEntity
  8
0
  6
SLD-Durchgehend
 62
     7
370
    15
100
AcDbCircle
 10
194.7912099579
 20
51.5361293928
 30
0.0
 40
0.6125884781823233
100
AcDbArc
 50
271.1621405259
 51
1.3261791458
  0
LINE
  5
81
330
1F
100
AcDbEntity
  8
0
  6
SLD-Durchgehend
 62
     7
370
    15
100
AcDbLine
 10
194.8036343474
 20
100.9605846182
 30
0.0
 11
195.4036343474
 21
100.9605846182
 31
0.0
  0
LINE
  5
82
330
1F
100
AcDbEntity
  8
0
  6
SLD-Durchgehend
 62
     7
370
    15
100
AcDbLine
 10
185.5436343474
 20
53.6127474592
 30
0.0
 11
185.5436343474
 21
100.9605846182
 31
0.0
  0
LINE
  5
83
330
1F
100
AcDbEntity
  8
0
  6
SLD-Durchgehend
 62
     7
370
    15
100
AcDbLine
 10
185.5436343474
 20
53.6127474592
 30
0.0
 11
184.0617015159
 21
50.923666922
 31
0.0
  0
LINE
  5
84
330
1F
100
AcDbEntity
  8
0
  6
SLD-Durchgehend
 62
     7
370
    15
100
AcDbLine
 10
184.0617015159
 20
50.923666922
 30
0.0
 11
184.0617015159
 21
100.9605846182
 31
0.0
  0
LINE
  5
85
330
1F
100
AcDbEntity
  8
0
  6
SLD-Durchgehend
 62
     7
370
    15
100
AcDbLine
 10
184.0617015159
 20
100.9605846182
 30
0.0
 11
185.5436343474
 21
100.9605846182
 31
0.0
  0
LINE
  5
86
330
1F
100
AcDbEntity
  8
0
  6
SLD-Durchgehend
 62
     7
370
    15
100
AcDbLine
 10
190.8455671789
 20
50.923666922
 30
0.0
 11
189.3636343474
 21
53.6127474592
 31
0.0
  0
LINE
  5
87
330
1F
100
AcDbEntity
  8
0
  6
SLD-Durchgehend
 62
     7
370
    15
100
AcDbLine
 10
189.3636343474
 20
53.6127474592
 30
0.0
 11
189.3636343474
 21
100.9605846182
 31
0.0
  0
LINE
  5
88
330
1F
100
AcDbEntity
  8
0
  6
SLD-Durchgehend
 62
     7
370
    15
100
AcDbLine
 10
189.3636343474
 20
100.9605846182
 30
0.0
 11
190.8455671789
 21
100.9605846182
 31
0.0
  0
LINE
  5
89
330
1F
100
AcDbEntity
  8
0
  6
SLD-Durchgehend
 62
     7
370
    15
100
AcDbLine
 10
174.4036343474
 20
100.9605846182
 30
0.0
 11
184.0617015159
 21
100.9605846182
 31
0.0
  0
LINE
  5
8A
330
1F
100
AcDbEntity
  8
0
  6
SLD-Durchgehend
 62
     7
370
    15
100
AcDbLine
 10
184.0617015159
 20
50.923666922
 30
0.0
 11
182.4036343474
 21
50.923666922
 31
0.0
  0
ARC
  5
8B
330
1F
100
AcDbEntity
  8
0
  6
SLD-Durchgehend
 62
     7
370
    15
100
AcDbCircle
 10
181.7438974073
 20
29.6753143744
 30
0.0
 40
21.25859211744281
100
AcDbArc
 50
88.2216031875
 51
110.1991657056
  0
LINE
  5
8C
330
1F
100
AcDbEntity
  8
0
  6
SLD-Durchgehend
 62
     7
370
    15
100
AcDbLine
 10
174.4036343474
 20
49.6264616354
 30
0.0
 11
174.4036343474
 21
49.6105846182
 31
0.0
  0
LWPOLYLINE
  5
8D
330
1F
100
AcDbEntity
  8
0
  6
SLD-Durchgehend
 62
     7
370
    15
100
AcDbPolyline
 90
       11
 70
   128
 43
0.0
 10
182.4036343474
 20
111.5777800914
 10
181.1040263122
 20
111.6054855206
 10
179.804418277
 20
111.6884511916
 10
178.6149965731
 20
111.8124375947
 10
177.4991200283
 20
111.9700120385
 10
176.5267015522
 20
112.1394153903
 10
175.6934818901
 20
112.3079586424
 10
175.0601848718
 20
112.450275909
 10
174.6227719515
 20
112.5556449557
 10
174.4229640507
 20
112.6056810363
 10
174.4316227065
 20
112.6034897103
  0
LINE
  5
8E
330
1F
100
AcDbEntity
  8
0
  6
SLD-Durchgehend
 62
     7
370
    15
100
AcDbLine
 10
184.0617015159
 20
111.5777800914
 30
0.0
 11
182.4036343474
 21
111.5777800914
 31
0.0
  0
LINE
  5
8F
330
1F
100
AcDbEntity
  8
0
  6
SLD-Durchgehend
 62
     7
370
    15
100
AcDbLine
 10
184.0617015159
 20
105.5692742806
 30
0.0
 11
184.0617015159
 21
111.5777800914
 31
0.0
  0
LINE
  5
90
330
1F
100
AcDbEntity
  8
0
  6
SLD-Durchgehend
 62
     7
370
    15
100
AcDbLine
 10
181.6492546931
 20
105.5692742806
 30
0.0
 11
184.0617015159
 21
105.5692742806
 31
0.0
  0
ARC
  5
91
330
1F
100
AcDbEntity
  8
0
  6
SLD-Durchgehend
 62
     7
370
    15
100
AcDbCircle
 10
181.2794442364
 20
98.1506773182
 30
0.0
 40
7.427808604464014
100
AcDbArc
 50
87.1462186343
 51
157.7718520148
  0
LINE
  5
92
330
1F
100
AcDbEntity
  8
0
  6
SLD-Durchgehend
 62
     7
370
    15
100
AcDbLine
 10
169.4536343474
 20
49.9105846182
 30
0.0
 11
169.4536343474
 21
112.3105846086
 31
0.0
  0
LINE
  5
93
330
1F
100
AcDbEntity
  8
0
  6
SLD-Durchgehend
 62
     7
370
    15
100
AcDbLine
 10
189.2659595451
 20
54.7105846182
 30
0.0
 11
188.5636343474
 21
54.7105846182
 31
0.0
  0
LINE
  5
94
330
1F
100
AcDbEntity
  8
0
  6
SLD-Durchgehend
 62
     7
370
    15
100
AcDbLine
 10
188.9693368157
 20
107.5105846182
 30
0.0
 11
188.5636343474
 21
107.5105846182
 31
0.0
  0
ARC
  5
95
330
1F
100
AcDbEntity
  8
0
  6
SLD-Durchgehend
 62
     7
370
    15
100
AcDbCircle
 10
188.5252763025
 20
108.2217293832
 30
0.0
 40
0.838401226209911
100
AcDbArc
 50
301.9819148347
 51
0.581515243
  0
LWPOLYLINE
  5
96
330
1F
100
AcDbEntity
  8
0
  6
SLD-Durchgehend
 62
     7
370
    15
100
AcDbPolyline
 90
        3
 70
   128
 43
0.0
 10
189.3374867243
 20
100.9605846182
 10
189.3575822148
 20
101.1082980239
 10
189.3636343474
 20
101.2464512497
  0
ARC
  5
97
330
1F
100
AcDbEntity
  8
0
  6
SLD-Durchgehend
 62
     7
370
    15
100
AcDbCircle
 10
186.3835633437
 20
108.2225901056
 30
0.0
 40
0.8399638184161612
100
AcDbArc
 50
179.4782810815
 51
237.9582888408
  0
LINE
  5
98
330
1F
100
AcDbEntity
  8
0
  6
SLD-Durchgehend
 62
     7
370
    15
100
AcDbLine
 10
186.3436343474
 20
107.5105846182
 30
0.0
 11
185.9379318791
 21
107.5105846182
 31
0.0
  0
LINE
  5
99
330
1F
100
AcDbEntity
  8
0
  6
SLD-Durchgehend
 62
     7
370
    15
100
AcDbLine
 10
186.3436343474
 20
54.7105846182
 30
0.0
 11
185.6413091498
 21
54.7105846182
 31
0.0
  0
LINE
  5
9A
330
1F
100
AcDbEntity
  8
0
  6
SLD-Durchgehend
 62
     7
370
    15
100
AcDbLine
 10
185.5436343474
 20
101.2464512497
 30
0.0
 11
185.5697819706
 21
100.9605846182
 31
0.0
  0
LINE
  5
9B
330
1F
100
AcDbEntity
  8
0
  6
SLD-Durchgehend
 62
     7
370
    15
100
AcDbLine
 10
188.5636343474
 20
107.5105846182
 30
0.0
 11
186.3436343474
 21
107.5105846182
 31
0.0
  0
LINE
  5
9C
330
1F
100
AcDbEntity
  8
0
  6
SLD-Durchgehend
 62
     7
370
    15
100
AcDbLine
 10
188.5636343474
 20
54.7105846182
 30
0.0
 11
186.3436343474
 21
54.7105846182
 31
0.0
  0
LINE
  5
9D
330
1F
100
AcDbEntity
  8
0
  6
SLD-Durchgehend
 62
     7
370
    15
100
AcDbLine
 10
195.603633084
 20
107.5105846182
 30
0.0
 11
195.5880156494
 21
107.5105846182
 31
0.0
  0
LINE
  5
9E
330
1F
100
AcDbEntity
  8
0
  6
SLD-Durchgehend
 62
     7
370
    15
100
AcDbLine
 10
195.6036330293
 20
54.7105846182
 30
0.0
 11
195.5918591965
 21
54.7105846182
 31
0.0
  0
LINE
  5
9F
330
1F
100
AcDbEntity
  8
0
  6
SLD-Durchgehend
 62
     7
370
    15
100
AcDbLine
 10
210.6863073595
 20
107.1105846182
 30
0.0
 11
211.6522331857
 21
107.1105846182
 31
0.0
  0
ARC
  5
A0
330
1F
100
AcDbEntity
  8
0
  6
SLD-Durchgehend
 62
     7
370
    15
100
AcDbCircle
 10
234.977121156
 20
99.6105846182
 30
0.0
 40
23.65049213559407
100
AcDbArc
 50
170.4816420303
 51
189.5183579698
  0
ARC
  5
A1
330
1F
100
AcDbEntity
  8
0
  6
SLD-Durchgehend
 62
     7
370
    15
100
AcDbCircle
 10
151.3780331394
 20
93.4739981441
 30
0.0
 40
60.58321042150439
100
AcDbArc
 50
348.22474578
 51
354.2106102411
  0
ARC
  5
A2
330
1F
100
AcDbEntity
  8
0
  6
SLD-Durchgehend
 62
     7
370
    15
100
AcDbCircle
 10
153.7290247131
 20
69.1103810947
 30
0.0
 40
58.20770508329257
100
AcDbArc
 50
5.6671275497
 51
11.8975164291
  0
ARC
  5
A3
330
1F
100
AcDbEntity
  8
0
  6
SLD-Durchgehend
 62
     7
370
    15
100
AcDbCircle
 10
210.6853274654
 20
54.1292355538
 30
0.0
 40
1.000960335731072
100
AcDbArc
 50
14.9884330976
 51
39.8638460393
  0
ARC
  5
A4
330
1F
100
AcDbEntity
  8
0
  6
SLD-Durchgehend
 62
     7
370
    15
100
AcDbCircle
 10
210.6915077996
 20
54.1355164957
 30
0.0
 40
0.9921910039385291
100
AcDbArc
 50
39.8142022979
 51
90.3003097544
  0
LWPOLYLINE
  5
A5
330
1F
100
AcDbEntity
  8
0
  6
SLD-Durchgehend
 62
     7
370
    15
100
AcDbPolyline
 90
        6
 70
   128
 43
0.0
 10
217.2701258388
 20
41.1105846182
 10
215.4628921103
 20
49.4570352378
 10
213.8357945927
 20
57.8439553108
 10
212.5035692471
 20
66.3081766968
 10
212.00390449
 20
70.5760364744
 10
211.6522331857
 20
74.8583243179
  0
LINE
  5
A6
330
1F
100
AcDbEntity
  8
0
  6
SLD-Durchgehend
 62
     7
370
    15
100
AcDbLine
 10
211.6522331857
 20
87.3628449185
 30
0.0
 11
212.0514794846
 21
92.1105846182
 31
0.0
  0
LINE
  5
A7
330
1F
100
AcDbEntity
  8
0
  6
SLD-Durchgehend
 62
     7
370
    15
100
AcDbLine
 10
212.0514794846
 20
92.1105846182
 30
0.0
 11
269.4536343474
 21
92.1105846182
 31
0.0
  0
LINE
  5
A8
330
1F
100
AcDbEntity
  8
0
  6
SLD-Durchgehend
 62
     7
370
    15
100
AcDbLine
 10
269.4536343474
 20
92.1105846182
 30
0.0
 11
269.4536343474
 21
41.1105846182
 31
0.0
  0
LINE
  5
A9
330
1F
100
AcDbEntity
  8
0
  6
SLD-Durchgehend
 62
     7
370
    15
100
AcDbLine
 10
217.2701258388
 20
41.1105846182
 30
0.0
 11
269.4536343474
 21
41.1105846182
 31
0.0
  0
CIRCLE
  5
AA
330
1F
100
AcDbEntity
  8
0
  6
SLD-Durchgehend
 62
     7
370
    15
100
AcDbCircle
 10
257.4536343474
 20
53.6105846182
 30
0.0
 40
6.29999999999999
  0
CIRCLE
  5
AB
330
1F
100
AcDbEntity
  8
0
  6
SLD-Durchgehend
 62
     7
370
    15
100
AcDbCircle
 10
227.4536343474
 20
53.6105846182
 30
0.0
 40
6.29999999999999
  0
LINE
  5
AC
330
1F
100
AcDbEntity
  8
0
  6
SLD-Durchgehend
 62
     7
370
    15
100
AcDbLine
 10
212.0514794846
 20
92.1105846182
 30
0.0
 11
211.6522331857
 21
95.6996538555
 31
0.0
  0
LINE
  5
AD
330
1F
100
AcDbEntity
  8
0
  6
SLD-Durchgehend
 62
     7
370
    15
100
AcDbLine
 10
215.2082718832
 20
41.1105846182
 30
0.0
 11
217.2701258388
 21
41.1105846182
 31
0.0
  0
LINE
  5
AE
330
1F
100
AcDbEntity
  8
0
  6
SLD-Durchgehend
 62
     7
370
    15
100
AcDbLine
 10
211.6522331857
 20
54.3881079579
 30
0.0
 11
215.2082718832
 21
41.1105846182
 31
0.0
  0
LINE
  5
AF
330
1F
100
AcDbEntity
  8
0
  6
SLD-Durchgehend
 62
     7
370
    15
100
AcDbLine
 10
211.6522331857
 20
103.521515381
 30
0.0
 11
212.0514794846
 21
107.1105846182
 31
0.0
  0
LINE
  5
B0
330
1F
100
AcDbEntity
  8
0
  6
SLD-Durchgehend
 62
     7
370
    15
100
AcDbLine
 10
212.0514794846
 20
107.1105846182
 30
0.0
 11
269.4536343474
 21
107.1105846182
 31
0.0
  0
LINE
  5
B1
330
1F
100
AcDbEntity
  8
0
  6
SLD-Durchgehend
 62
     7
370
    15
100
AcDbLine
 10
269.4536343474
 20
107.1105846182
 30
0.0
 11
269.4536343474
 21
92.1105846182
 31
0.0
  0
LWPOLYLINE
  5
B2
330
1F
100
AcDbEntity
  8
0
  6
SLD-Durchgehend
 62
     7
370
    15
100
AcDbPolyline
 90
        3
 70
   128
 43
0.0
 10
210.6863073595
 20
55.1276938708
 10
209.0276442959
 20
55.113652652
 10
208.5066387618
 20
55.1156744925
  0
CIRCLE
  5
B3
330
1F
100
AcDbEntity
  8
0
  6
SLD-Durchgehend
 62
     7
370
    15
100
AcDbCircle
 10
227.4536343474
 20
53.6105846182
 30
0.0
 40
5.099999999999987
  0
CIRCLE
  5
B4
330
1F
100
AcDbEntity
  8
0
  6
SLD-Durchgehend
 62
     7
370
    15
100
AcDbCircle
 10
257.4536343474
 20
53.6105846182
 30
0.0
 40
5.099999999999987
  0
LINE
  5
B5
330
1F
100
AcDbEntity
  8
0
  6
SLD-Durchgehend
 62
     7
370
    15
100
AcDbLine
 10
167.4536343474
 20
56.8901537565
 30
0.0
 11
167.4536343474
 21
105.33101548
 31
0.0
  0
LINE
  5
B6
330
1F
100
AcDbEntity
  8
0
  6
SLD-Durchgehend
 62
     7
370
    15
100
AcDbLine
 10
147.6536343474
 20
57.8821377245
 30
0.0
 11
147.6536343474
 21
59.1362689101
 31
0.0
  0
LWPOLYLINE
  5
B7
330
1F
100
AcDbEntity
  8
0
  6
SLD-Durchgehend
 62
     7
370
    15
100
AcDbPolyline
 90
        5
 70
   128
 43
0.0
 10
146.9289616946
 20
60.2510917302
 10
146.9896676483
 20
60.1453653685
 10
147.4276001614
 20
59.6173257683
 10
147.6536155591
 20
59.1399074883
 10
147.6536343474
 20
59.1362689101
  0
ARC
  5
B8
330
1F
100
AcDbEntity
  8
0
  6
SLD-Durchgehend
 62
     7
370
    15
100
AcDbCircle
 10
146.2327697819
 20
60.068158956
 30
0.0
 40
0.719824686394068
100
AcDbArc
 50
14.722346387
 51
88.3390136111
  0
LWPOLYLINE
  5
B9
330
1F
100
AcDbEntity
  8
0
  6
SLD-Durchgehend
 62
     7
370
    15
100
AcDbPolyline
 90
        3
 70
   128
 43
0.0
 10
143.4815079707
 20
60.4142698704
 10
144.2812470938
 20
60.5370847094
 10
146.2536343474
 20
60.7876811927
  0
ARC
  5
BA
330
1F
100
AcDbEntity
  8
0
  6
SLD-Durchgehend
 62
     7
370
    15
100
AcDbCircle
 10
139.6832127934
 20
99.1564470319
 30
0.0
 40
38.92792490577599
100
AcDbArc
 50
268.5580624753
 51
275.5994016126
  0
LINE
  5
BB
330
1F
100
AcDbEntity
  8
0
  6
SLD-Durchgehend
 62
     7
370
    15
100
AcDbLine
 10
138.693589417
 20
60.2468448831
 30
0.0
 11
138.7036343474
 21
60.2408490854
 31
0.0
  0
LINE
  5
BC
330
1F
100
AcDbEntity
  8
0
  6
SLD-Durchgehend
 62
     7
370
    15
100
AcDbLine
 10
138.7036343474
 20
101.9805223836
 30
0.0
 11
138.693589417
 21
101.9747764907
 31
0.0
  0
LINE
  5
BD
330
1F
100
AcDbEntity
  8
0
  6
SLD-Durchgehend
 62
     7
370
    15
100
AcDbLine
 10
142.2536343474
 20
101.9336720101
 30
0.0
 11
138.7036343474
 21
101.9805223836
 31
0.0
  0
ARC
  5
BE
330
1F
100
AcDbEntity
  8
0
  6
SLD-Durchgehend
 62
     7
370
    15
100
AcDbCircle
 10
142.1957028283
 20
103.4834407694
 30
0.0
 40
1.550851143148477
100
AcDbArc
 50
272.1407624915
 51
340.0657950121
  0
LINE
  5
BF
330
1F
100
AcDbEntity
  8
0
  6
SLD-Durchgehend
 62
     7
370
    15
100
AcDbLine
 10
143.6536343474
 20
102.9546922906
 30
0.0
 11
143.6536343474
 21
104.1386307104
 31
0.0
  0
LWPOLYLINE
  5
C0
330
1F
100
AcDbEntity
  8
0
  6
SLD-Durchgehend
 62
     7
370
    15
100
AcDbPolyline
 90
       12
 70
   128
 43
0.0
 10
156.2239351875
 20
57.4532455953
 10
156.2212211063
 20
57.452904031
 10
156.5518186678
 20
57.4945318874
 10
157.4674727392
 20
57.5875016465
 10
158.8398819858
 20
57.6557693389
 10
159.6355876187
 20
57.6578983696
 10
160.4529368016
 20
57.6303993343
 10
161.2665497763
 20
57.5731145517
 10
162.0603919682
 20
57.4889035874
 10
163.4195002935
 20
57.2831345484
 10
164.320279326
 20
57.1023600537
 10
164.6352707153
 20
57.0318395888
  0
LWPOLYLINE
  5
C1
330
1F
100
AcDbEntity
  8
0
  6
SLD-Durchgehend
 62
     7
370
    15
100
AcDbPolyline
 90
       12
 70
   128
 43
0.0
 10
164.6350519498
 20
105.1892644672
 10
164.3175008962
 20
105.1185515847
 10
163.414026642
 20
104.9370239379
 10
162.0586784718
 20
104.7316665975
 10
161.2679725157
 20
104.6479416387
 10
160.4544047386
 20
104.5908222423
 10
159.6367098282
 20
104.5633817748
 10
158.8397439572
 20
104.5655293165
 10
157.4652229112
 20
104.6338273931
 10
156.5501809487
 20
104.7268020177
 10
156.2211003625
 20
104.7682607322
 10
156.2232310959
 20
104.7679912153
  0
LWPOLYLINE
  5
C2
330
1F
100
AcDbEntity
  8
0
  6
SLD-Durchgehend
 62
     7
370
    15
100
AcDbPolyline
 90
       10
 70
   128
 43
0.0
 10
138.693589417
 20
101.9747764907
 10
138.4512682958
 20
101.8244300314
 10
138.3279803263
 20
101.7444770467
 10
138.2131528509
 20
101.6732921544
 10
138.1211733989
 20
101.6210546762
 10
138.0352155375
 20
101.5766210511
 10
137.9143576753
 20
101.5183141551
 10
137.6806261149
 20
101.3726931662
 10
137.553664006
 20
101.0916302841
 10
137.5536343474
 20
101.0866451229
  0
LWPOLYLINE
  5
C3
330
1F
100
AcDbEntity
  8
0
  6
SLD-Durchgehend
 62
     7
370
    15
100
AcDbPolyline
 90
       11
 70
   128
 43
0.0
 10
137.5536343474
 20
61.1217621794
 10
137.5573679167
 20
61.0674881218
 10
137.6789146456
 20
60.844825235
 10
137.8320152295
 20
60.7466964778
 10
137.9589470678
 20
60.6898589331
 10
138.0498380068
 20
60.6489854572
 10
138.1321583886
 20
60.6074631664
 10
138.2196580038
 20
60.557257189
 10
138.3264286981
 20
60.4888978479
 10
138.5551975725
 20
60.3343267894
 10
138.693589417
 20
60.2468448831
  0
LINE
  5
C4
330
1F
100
AcDbEntity
  8
0
  6
SLD-Durchgehend
 62
     7
370
    15
100
AcDbLine
 10
137.5536343474
 20
61.1217621794
 30
0.0
 11
137.5536343474
 21
101.0866451229
 31
0.0
  0
LINE
  5
C5
330
1F
100
AcDbEntity
  8
0
  6
SLD-Durchgehend
 62
     7
370
    15
100
AcDbLine
 10
189.3636343474
 20
101.2464512497
 30
0.0
 11
189.3636343474
 21
102.1607282858
 31
0.0
  0
LWPOLYLINE
  5
C6
330
1F
100
AcDbEntity
  8
0
  6
SLD-Durchgehend
 62
     7
370
    15
100
AcDbPolyline
 90
        3
 70
   128
 43
0.0
 10
189.3636343474
 20
102.1607282858
 10
190.4900828034
 20
104.7710249448
 10
190.8455671789
 20
105.5692742806
  0
LINE
  5
C7
330
1F
100
AcDbEntity
  8
0
  6
SLD-Durchgehend
 62
     7
370
    15
100
AcDbLine
 10
190.8455671789
 20
105.5692742806
 30
0.0
 11
194.8036343474
 21
105.5692742806
 31
0.0
  0
ARC
  5
C8
330
1F
100
AcDbEntity
  8
0
  6
SLD-Durchgehend
 62
     7
370
    15
100
AcDbCircle
 10
194.7206062465
 20
104.8849114194
 30
0.0
 40
0.6893810204590373
100
AcDbArc
 50
352.2155357756
 51
83.0825825649
  0
LINE
  5
C9
330
1F
100
AcDbEntity
  8
0
  6
SLD-Durchgehend
 62
     7
370
    15
100
AcDbLine
 10
195.4036343474
 20
104.7915368795
 30
0.0
 11
195.4036343474
 21
100.9605846182
 31
0.0
  0
ARC
  5
CA
330
1F
100
AcDbEntity
  8
0
  6
SLD-Durchgehend
 62
     7
370
    15
100
AcDbCircle
 10
194.7955019527
 20
110.9695726283
 30
0.0
 40
0.6082618301448195
100
AcDbArc
 50
358.8179753659
 51
89.2339388106
  0
LINE
  5
CB
330
1F
100
AcDbEntity
  8
0
  6
SLD-Durchgehend
 62
     7
370
    15
100
AcDbLine
 10
195.4036343474
 20
104.7915368795
 30
0.0
 11
195.4036343474
 21
110.957024942
 31
0.0
  0
LINE
  5
CC
330
1F
100
AcDbEntity
  8
0
  6
SLD-Durchgehend
 62
     7
370
    15
100
AcDbLine
 10
194.8036343474
 20
111.5777800914
 30
0.0
 11
190.8455671789
 21
111.5777800914
 31
0.0
  0
LINE
  5
CD
330
1F
100
AcDbEntity
  8
0
  6
SLD-Durchgehend
 62
     7
370
    15
100
AcDbLine
 10
190.8455671789
 20
105.5692742806
 30
0.0
 11
190.8455671789
 21
111.5777800914
 31
0.0
  0
LWPOLYLINE
  5
CE
330
1F
100
AcDbEntity
  8
0
  6
SLD-Durchgehend
 62
     7
370
    15
100
AcDbPolyline
 90
        3
 70
   128
 43
0.0
 10
190.8455671789
 20
111.5777800914
 10
190.8375630871
 20
111.5634464228
 10
189.3636343474
 20
108.9158188094
  0
LINE
  5
CF
330
1F
100
AcDbEntity
  8
0
  6
SLD-Durchgehend
 62
     7
370
    15
100
AcDbLine
 10
189.3636343474
 20
102.1607282858
 30
0.0
 11
189.3636343474
 21
108.9158188094
 31
0.0
  0
LWPOLYLINE
  5
D0
330
1F
100
AcDbEntity
  8
0
  6
SLD-Durchgehend
 62
     7
370
    15
100
AcDbPolyline
 90
        3
 70
   128
 43
0.0
 10
184.0617015159
 20
105.5692742806
 10
184.4171858915
 20
104.7710249448
 10
185.5436343474
 20
102.1607282858
  0
LINE
  5
D1
330
1F
100
AcDbEntity
  8
0
  6
SLD-Durchgehend
 62
     7
370
    15
100
AcDbLine
 10
185.5436343474
 20
102.1607282858
 30
0.0
 11
185.5436343474
 21
101.2464512497
 31
0.0
  0
LWPOLYLINE
  5
D2
330
1F
100
AcDbEntity
  8
0
  6
SLD-Durchgehend
 62
     7
370
    15
100
AcDbPolyline
 90
        3
 70
   128
 43
0.0
 10
185.5436343474
 20
108.9158188094
 10
184.0697056078
 20
111.5634464228
 10
184.0617015159
 20
111.5777800914
  0
LINE
  5
D3
330
1F
100
AcDbEntity
  8
0
  6
SLD-Durchgehend
 62
     7
370
    15
100
AcDbLine
 10
185.5436343474
 20
102.1607282858
 30
0.0
 11
185.5436343474
 21
108.9158188094
 31
0.0
  0
LINE
  5
D4
330
1F
100
AcDbEntity
  8
0
  6
SLD-Durchgehend
 62
     7
370
    15
100
AcDbLine
 10
212.0514794846
 20
107.1105846182
 30
0.0
 11
211.6522331857
 21
107.1105846182
 31
0.0
  0
ARC
  5
D5
330
1F
100
AcDbEntity
  8
0
  6
SLD-Gestrichelt
 62
     7
370
     0
100
AcDbCircle
 10
272.8712939722
 20
67.9134472495
 30
0.0
 40
1.280530246537164
100
AcDbArc
 50
172.744846614
 51
197.8261585052
  0
ARC
  5
D6
330
1F
100
AcDbEntity
  8
0
  6
SLD-Gestrichelt
 62
     7
370
     0
100
AcDbCircle
 10
322.338695407
 20
69.7279244773
 30
0.0
 40
50.76459114940299
100
AcDbArc
 50
174.5894469256
 51
181.8657293729
  0
LWPOLYLINE
  5
D7
330
1F
100
AcDbEntity
  8
0
  6
SLD-Gestrichelt
 62
     7
370
     0
100
AcDbPolyline
 90
       34
 70
   128
 43
0.0
 10
264.66060862
 20
66.9597230441
 10
264.6776200708
 20
66.5238996834
 10
264.7002658027
 20
66.2557792137
 10
264.7277273398
 20
66.1650522074
 10
264.7590121508
 20
66.2549977748
 10
264.792989521
 20
66.5223650487
 10
264.8284314198
 20
66.9574906793
 10
264.8640568845
 20
67.5446480926
 10
264.8985783182
 20
68.2626158898
 10
264.9307480261
 20
69.0854448441
 10
264.9594033112
 20
69.9833957732
 10
264.983508497
 20
70.924014391
 10
265.0021923591
 20
71.8733042898
 10
265.0147796141
 20
72.7969556594
 10
265.0208153258
 20
73.6615853327
 10
265.0200813479
 20
74.4359433405
 10
265.0126042083
 20
75.0920423669
 10
264.9986541502
 20
75.6061692836
 10
264.978735365
 20
75.9597422043
 10
264.9535677697
 20
76.1399820825
 10
264.9240609866
 20
76.1403745792
 10
264.8912814678
 20
75.9609055087
 10
264.8564139505
 20
75.6080613508
 10
264.8207186376
 20
75.0945948126
 10
264.7854856508
 20
74.4390639127
 10
264.7519884019
 20
73.6651612457
 10
264.7214375688
 20
72.8008576705
 10
264.6949373382
 20
71.8773913702
 10
264.6734454976
 20
70.9281388228
 10
264.657738818
 20
69.9874084888
 10
264.6483849797
 20
69.0892008135
 10
264.6457220548
 20
68.2659793625
 10
264.6498462885
 20
67.5474975039
 10
264.66060862
 20
66.9597230441
  0
LWPOLYLINE
  5
D8
330
1F
100
AcDbEntity
  8
0
  6
SLD-Gestrichelt
 62
     7
370
     0
100
AcDbPolyline
 90
       24
 70
   128
 43
0.0
 10
267.2452948976
 20
69.0089430337
 10
267.2583993136
 20
68.7220842574
 10
267.2769435003
 20
68.6124039913
 10
267.2995521204
 20
68.688036719
 10
267.3245483958
 20
68.9433731071
 10
267.3500784673
 20
69.3594760238
 10
267.3742488861
 20
69.9054850192
 10
267.3952670429
 20
70.5409051041
 10
267.4115741171
 20
71.2186100776
 10
267.4219606877
 20
71.888337662
 10
267.4256564302
 20
72.5004172263
 10
267.4223872484
 20
73.0094536292
 10
267.4123956024
 20
73.3776939695
 10
267.3964225269
 20
73.5778275456
 10
267.375652672
 20
73.5950113658
 10
267.3516264426
 20
73.4279709848
 10
267.3261257544
 20
73.0890950234
 10
267.3010418767
 20
72.6035163615
 10
267.2782351659
 20
72.007248147
 10
267.2593970916
 20
71.3445128656
 10
267.2459247874
 20
70.6644625615
 10
267.2388174325
 20
70.0175334545
 10
267.238602147
 20
69.4517053171
 10
267.2452948976
 20
69.0089430337
  0
LWPOLYLINE
  5
D9
330
1F
100
AcDbEntity
  8
0
  6
SLD-Gestrichelt
 62
     7
370
     0
100
AcDbPolyline
 90
       24
 70
   128
 43
0.0
 10
271.1359494348
 20
68.9265820679
 10
271.1490538508
 20
68.6397232916
 10
271.1675980375
 20
68.5300430255
 10
271.1902066576
 20
68.6056757532
 10
271.215202933
 20
68.8610121413
 10
271.2407330045
 20
69.277115058
 10
271.2649034233
 20
69.8231240535
 10
271.2859215801
 20
70.4585441384
 10
271.3022286543
 20
71.1362491118
 10
271.3126152249
 20
71.8059766963
 10
271.3163109674
 20
72.4180562605
 10
271.3130417856
 20
72.9270926635
 10
271.3030501396
 20
73.2953330037
 10
271.2870770641
 20
73.4954665799
 10
271.2663072092
 20
73.5126504001
 10
271.2422809798
 20
73.345610019
 10
271.2167802916
 20
73.0067340577
 10
271.1916964139
 20
72.5211553957
 10
271.1688897031
 20
71.9248871812
 10
271.1500516288
 20
71.2621518999
 10
271.1365793246
 20
70.5821015957
 10
271.1294719697
 20
69.9351724887
 10
271.1292566842
 20
69.3693443513
 10
271.1359494348
 20
68.9265820679
  0
LWPOLYLINE
  5
DA
330
1F
100
AcDbEntity
  8
0
  6
SLD-Gestrichelt
 62
     7
370
     0
100
AcDbPolyline
 90
       27
 70
   128
 43
0.0
 10
271.6183063432
 20
68.4955840889
 10
271.6318571823
 20
68.1805701608
 10
271.6506495482
 20
68.0304637352
 10
271.6735912968
 20
68.053988452
 10
271.6993491371
 20
68.2497771402
 10
271.7264261171
 20
68.6064512728
 10
271.753248621
 20
69.1032822458
 10
271.7782578225
 20
69.7113960489
 10
271.8000002777
 20
70.3954513183
 10
271.817212394
 20
71.1156932481
 10
271.828893866
 20
71.8302639954
 10
271.8343658088
 20
72.4976353056
 10
271.833310213
 20
73.0790219842
 10
271.8257884261
 20
73.5406359504
 10
271.812237587
 20
73.8556498786
 10
271.7934452211
 20
74.0057563042
 10
271.7705034725
 20
73.9822315873
 10
271.7447456322
 20
73.7864428992
 10
271.7176686522
 20
73.4297687665
 10
271.6908461483
 20
72.9329377935
 10
271.6658369468
 20
72.3248239904
 10
271.6440944916
 20
71.6407687211
 10
271.6268823753
 20
70.9205267912
 10
271.6152009033
 20
70.205956044
 10
271.6097289605
 20
69.5385847337
 10
271.6107845563
 20
68.9571980552
 10
271.6183063432
 20
68.4955840889
  0
LINE
  5
DB
330
1F
100
AcDbEntity
  8
0
  6
SLD-Gestrichelt
 62
     7
370
     0
100
AcDbLine
 10
259.4536343474
 20
64.1105846182
 30
0.0
 11
259.4536343474
 21
78.1105846182
 31
0.0
  0
LINE
  5
DC
330
1F
100
AcDbEntity
  8
0
  6
SLD-Gestrichelt
 62
     7
370
     0
100
AcDbLine
 10
264.8317303049
 20
66.1105846182
 30
0.0
 11
264.8317303049
 21
76.1105846182
 31
0.0
  0
CIRCLE
  5
DD
330
1F
100
AcDbEntity
  8
0
  6
SLD-Gestrichelt
 62
     7
370
     0
100
AcDbCircle
 10
257.4536343474
 20
53.6105846182
 30
0.0
 40
6.000000000000036
  0
CIRCLE
  5
DE
330
1F
100
AcDbEntity
  8
0
  6
SLD-Gestrichelt
 62
     7
370
     0
100
AcDbCircle
 10
257.4536343474
 20
53.6105846182
 30
0.0
 40
4.250000000000061
  0
CIRCLE
  5
DF
330
1F
100
AcDbEntity
  8
0
  6
SLD-Gestrichelt
 62
     7
370
     0
100
AcDbCircle
 10
227.4536343474
 20
53.6105846182
 30
0.0
 40
6.000000000000004
  0
CIRCLE
  5
E0
330
1F
100
AcDbEntity
  8
0
  6
SLD-Gestrichelt
 62
     7
370
     0
100
AcDbCircle
 10
227.4536343474
 20
53.6105846182
 30
0.0
 40
4.249999999999997
  0
LINE
  5
E1
330
1F
100
AcDbEntity
  8
0
  6
SLD-Gestrichelt
 62
     7
370
     0
100
AcDbLine
 10
184.0617015159
 20
105.5692742806
 30
0.0
 11
184.0617015159
 21
100.9605846182
 31
0.0
  0
LWPOLYLINE
  5
E2
330
1F
100
AcDbEntity
  8
0
  6
SLD-Gestrichelt
 62
     7
370
     0
100
AcDbPolyline
 90
       10
 70
   128
 43
0.0
 10
208.5066387618
 20
55.1156744925
 10
207.6422337386
 20
55.1190289466
 10
206.6888230759
 20
55.196959686
 10
206.2705099355
 20
55.3870356365
 10
206.4125198956
 20
55.6937051304
 10
207.1077836552
 20
56.0861833812
 10
208.3279596446
 20
56.4898282564
 10
209.0806243956
 20
56.6548152929
 10
209.9363658248
 20
56.7827641025
 10
210.4536343475
 20
56.8318840509
  0
LINE
  5
E3
330
1F
100
AcDbEntity
  8
0
  6
SLD-Gestrichelt
 62
     7
370
     0
100
AcDbLine
 10
210.4536343474
 20
59.6630570912
 30
0.0
 11
210.4536343475
 21
56.8318840509
 31
0.0
  0
LWPOLYLINE
  5
E4
330
1F
100
AcDbEntity
  8
0
  6
SLD-Gestrichelt
 62
     7
370
     0
100
AcDbPolyline
 90
        8
 70
   128
 43
0.0
 10
210.4536343474
 20
59.6630570912
 10
209.2169556372
 20
59.9488159585
 10
208.0104237347
 20
60.5415503513
 10
207.0793744788
 20
61.4281347324
 10
206.6234188828
 20
62.2302311861
 10
206.3577942956
 20
63.1134646043
 10
206.2597657514
 20
64.5677586253
 10
206.4560630342
 20
66.1105846182
  0
LINE
  5
E5
330
1F
100
AcDbEntity
  8
0
  6
SLD-Gestrichelt
 62
     7
370
     0
100
AcDbLine
 10
157.448784552
 20
57.5859849954
 30
0.0
 11
156.9146391229
 21
57.5313703959
 31
0.0
  0
LINE
  5
E6
330
1F
100
AcDbEntity
  8
0
  6
SLD-Gestrichelt
 62
     7
370
     0
100
AcDbLine
 10
156.6769854508
 20
104.7139177988
 30
0.0
 11
157.4486918317
 21
104.6351676482
 31
0.0
  0
LWPOLYLINE
  5
E7
330
1F
100
AcDbEntity
  8
0
  6
SLD-Gestrichelt
 62
     7
370
     0
100
AcDbPolyline
 90
        4
 70
   128
 43
0.0
 10
163.208636349
 20
100.9481130941
 10
163.8900773778
 20
101.0250132553
 10
164.1923805129
 20
101.0477562327
 10
164.1659873802
 20
101.0459620925
  0
ARC
  5
E8
330
1F
100
AcDbEntity
  8
0
  6
SLD-Gestrichelt
 62
     7
370
     0
100
AcDbCircle
 10
165.0152828865
 20
74.2169599782
 30
0.0
 40
13.06937711680624
100
AcDbArc
 50
262.0542685705
 51
266.2739911372
  0
LWPOLYLINE
  5
E9
330
1F
100
AcDbEntity
  8
0
  6
SLD-Gestrichelt
 62
     7
370
     0
100
AcDbPolyline
 90
        9
 70
   128
 43
0.0
 10
163.208636349
 20
61.2730561424
 10
162.2121385132
 20
61.386745314
 10
161.0140424952
 20
61.457300992
 10
159.7645130434
 20
61.4532097128
 10
158.6040201337
 20
61.378413609
 10
157.6376769146
 20
61.2644989522
 10
156.9748626081
 20
61.1596610102
 10
156.7073234272
 20
61.1112759924
 10
156.7277418009
 20
61.1150259935
  0
ARC
  5
EA
330
1F
100
AcDbEntity
  8
0
  6
SLD-Gestrichelt
 62
     7
370
     0
100
AcDbCircle
 10
160.4504538317
 20
120.8050443123
 30
0.0
 40
20.04757561914263
100
AcDbArc
 50
259.2984104116
 51
277.9079423205
  0
LINE
  5
EB
330
1F
100
AcDbEntity
  8
0
  6
SLD-Gestrichelt
 62
     7
370
     0
100
AcDbLine
 10
150.4576089437
 20
64.1105846182
 30
0.0
 11
150.4576089437
 21
98.1105846182
 31
0.0
  0
LINE
  5
EC
330
1F
100
AcDbEntity
  8
0
  6
SLD-Gestrichelt
 62
     7
370
     0
100
AcDbLine
 10
177.113460316
 20
64.1105846182
 30
0.0
 11
177.113460316
 21
98.1105846182
 31
0.0
  0
LINE
  5
ED
330
1F
100
AcDbEntity
  8
0
  6
SLD-Gestrichelt
 62
     7
370
     0
100
AcDbLine
 10
179.4036343474
 20
65.3855846182
 30
0.0
 11
179.4036343474
 21
96.835584617
 31
0.0
  0
LWPOLYLINE
  5
EE
330
1F
100
AcDbEntity
  8
0
  6
SLD-Gestrichelt
 62
     7
370
     0
100
AcDbPolyline
 90
        6
 70
   128
 43
0.0
 10
143.6536343474
 20
97.3980982406
 10
143.5675077969
 20
97.2456530392
 10
143.3186686792
 20
97.0982936902
 10
142.9350066815
 20
96.9811654941
 10
142.482573762
 20
96.9195400544
 10
142.2536343474
 20
96.9120750543
  0
LINE
  5
EF
330
1F
100
AcDbEntity
  8
0
  6
SLD-Gestrichelt
 62
     7
370
     0
100
AcDbLine
 10
142.2536343474
 20
96.9120750543
 30
0.0
 11
138.7036343474
 21
96.9120750543
 31
0.0
  0
LINE
  5
F0
330
1F
100
AcDbEntity
  8
0
  6
SLD-Gestrichelt
 62
     7
370
     0
100
AcDbLine
 10
138.7036343474
 20
65.2863992127
 30
0.0
 11
146.2536343474
 21
65.2863992127
 31
0.0
  0
LWPOLYLINE
  5
F1
330
1F
100
AcDbEntity
  8
0
  6
SLD-Gestrichelt
 62
     7
370
     0
100
AcDbPolyline
 90
        6
 70
   128
 43
0.0
 10
146.2536343474
 20
65.2863992127
 10
146.694668295
 20
65.2585988475
 10
147.0856067437
 20
65.1815387301
 10
147.3982600233
 20
65.0659253473
 10
147.6005555085
 20
64.9235895235
 10
147.6536343474
 20
64.8059888321
  0
LINE
  5
F2
330
1F
100
AcDbEntity
  8
0
  6
SLD-Gestrichelt
 62
     7
370
     0
100
AcDbLine
 10
138.7036343474
 20
65.2863992127
 30
0.0
 11
138.7036343474
 21
96.9120750543
 31
0.0
  0
LWPOLYLINE
  5
F3
330
1F
100
AcDbEntity
  8
0
  6
SLD-Gestrichelt
 62
     7
370
     0
100
AcDbPolyline
 90
       11
 70
   128
 43
0.0
 10
234.5536343474
 20
77.1298717848
 10
234.9491180299
 20
77.6819317776
 10
235.368715863
 20
78.3501399972
 10
235.7749251193
 20
79.0718923011
 10
236.0855726032
 20
79.8393210057
 10
236.1231757934
 20
80.3712510029
 10
235.972586725
 20
80.8344781471
 10
235.5854171235
 20
81.2904933813
 10
235.1286020068
 20
81.4668091858
 10
234.6987870428
 20
81.3336824736
 10
234.5536343474
 20
81.2134678067
  0
LWPOLYLINE
  5
F4
330
1F
100
AcDbEntity
  8
0
  6
SLD-Gestrichelt
 62
     7
370
     0
100
AcDbPolyline
 90
       13
 70
   128
 43
0.0
 10
234.5536343474
 20
77.1298717848
 10
233.3018980495
 20
77.1365933817
 10
232.0424620013
 20
77.2134662533
 10
231.1982035345
 20
77.3594635127
 10
230.4863062587
 20
77.6597090024
 10
230.1122337157
 20
78.0450655993
 10
229.9464621872
 20
78.5648704262
 10
229.9983003217
 20
79.1384911336
 10
230.2463757619
 20
79.7152419388
 10
230.6776930587
 20
80.2378902641
 10
231.4570553834
 20
80.7528753731
 10
232.8699098945
 20
81.1455468494
 10
234.5536343474
 20
81.2134678067
  0
LINE
  5
F5
330
1F
100
AcDbEntity
  8
0
  6
SLD-Gestrichelt
 62
     7
370
     0
100
AcDbLine
 10
138.7036343474
 20
63.1205846182
 30
0.0
 11
138.7036343474
 21
60.2408490854
 31
0.0
  0
LINE
  5
F6
330
1F
100
AcDbEntity
  8
0
  6
SLD-Gestrichelt
 62
     7
370
     0
100
AcDbLine
 10
147.6536343474
 20
63.1205846182
 30
0.0
 11
147.6536343474
 21
59.1362689101
 31
0.0
  0
LINE
  5
F7
330
1F
100
AcDbEntity
  8
0
  6
SLD-Gestrichelt
 62
     7
370
     0
100
AcDbLine
 10
143.6536343474
 20
99.1005846182
 30
0.0
 11
143.6536343474
 21
102.9546922906
 31
0.0
  0
LINE
  5
F8
330
1F
100
AcDbEntity
  8
0
  6
SLD-Gestrichelt
 62
     7
370
     0
100
AcDbLine
 10
138.7036343474
 20
99.1005846182
 30
0.0
 11
138.7036343474
 21
101.9805223836
 31
0.0
  0
LINE
  5
F9
330
1F
100
AcDbEntity
  8
0
  6
SLD-Gestrichelt
 62
     7
370
     0
100
AcDbLine
 10
191.2536343474
 20
71.6105846182
 30
0.0
 11
191.2536343474
 21
90.6105846182
 31
0.0
  0
LINE
  5
FA
330
1F
100
AcDbEntity
  8
0
  6
SLD-Gestrichelt
 62
     7
370
     0
100
AcDbLine
 10
188.7536343474
 20
71.6105846182
 30
0.0
 11
188.7536343474
 21
90.6105846182
 31
0.0
  0
LINE
  5
FB
330
1F
100
AcDbEntity
  8
0
  6
SLD-Gestrichelt
 62
     7
370
     0
100
AcDbLine
 10
179.9036343474
 20
72.6105846182
 30
0.0
 11
179.9036343474
 21
89.6105846182
 31
0.0
  0
LINE
  5
FC
330
1F
100
AcDbEntity
  8
0
  6
SLD-Gestrichelt
 62
     7
370
     0
100
AcDbLine
 10
195.4036343474
 20
54.7105846182
 30
0.0
 11
189.2659595451
 21
54.7105846182
 31
0.0
  0
LINE
  5
FD
330
1F
100
AcDbEntity
  8
0
  6
SLD-Gestrichelt
 62
     7
370
     0
100
AcDbLine
 10
185.6413091498
 20
54.7105846182
 30
0.0
 11
182.4036343474
 21
54.7105846182
 31
0.0
  0
LINE
  5
FE
330
1F
100
AcDbEntity
  8
0
  6
SLD-Gestrichelt
 62
     7
370
     0
100
AcDbLine
 10
174.4036343474
 20
49.6264616354
 30
0.0
 11
174.4036343474
 21
54.7105846182
 31
0.0
  0
LINE
  5
FF
330
1F
100
AcDbEntity
  8
0
  6
SLD-Gestrichelt
 62
     7
370
     0
100
AcDbLine
 10
182.4036343474
 20
54.7105846182
 30
0.0
 11
174.4036343474
 21
54.7105846182
 31
0.0
  0
LINE
  5
100
330
1F
100
AcDbEntity
  8
0
  6
SLD-Gestrichelt
 62
     7
370
     0
100
AcDbLine
 10
195.4036343474
 20
107.5105846182
 30
0.0
 11
188.9693368157
 21
107.5105846182
 31
0.0
  0
LINE
  5
101
330
1F
100
AcDbEntity
  8
0
  6
SLD-Gestrichelt
 62
     7
370
     0
100
AcDbLine
 10
185.9379318791
 20
107.5105846182
 30
0.0
 11
182.4036343474
 21
107.5105846182
 31
0.0
  0
LINE
  5
102
330
1F
100
AcDbEntity
  8
0
  6
SLD-Gestrichelt
 62
     7
370
     0
100
AcDbLine
 10
182.4036343474
 20
107.5105846182
 30
0.0
 11
174.4036343474
 21
107.5105846182
 31
0.0
  0
LINE
  5
103
330
1F
100
AcDbEntity
  8
0
  6
SLD-Gestrichelt
 62
     7
370
     0
100
AcDbLine
 10
138.7036343474
 20
96.9120750543
 30
0.0
 11
137.5536343474
 21
97.356677296
 31
0.0
  0
LINE
  5
104
330
1F
100
AcDbEntity
  8
0
  6
SLD-Gestrichelt
 62
     7
370
     0
100
AcDbLine
 10
137.5536343474
 20
64.8400706246
 30
0.0
 11
138.7036343474
 21
65.2863992127
 31
0.0
  0
LINE
  5
105
330
1F
100
AcDbEntity
  8
0
  6
SLD-Gestrichelt
 62
     7
370
     0
100
AcDbLine
 10
143.6536343474
 20
99.1005846182
 30
0.0
 11
143.6536343474
 21
97.3980982406
 31
0.0
  0
LINE
  5
106
330
1F
100
AcDbEntity
  8
0
  6
SLD-Gestrichelt
 62
     7
370
     0
100
AcDbLine
 10
138.7036343474
 20
99.1005846182
 30
0.0
 11
138.7036343474
 21
96.9120750543
 31
0.0
  0
LINE
  5
107
330
1F
100
AcDbEntity
  8
0
  6
SLD-Gestrichelt
 62
     7
370
     0
100
AcDbLine
 10
147.6536343474
 20
63.1205846182
 30
0.0
 11
147.6536343474
 21
64.8059888321
 31
0.0
  0
LINE
  5
108
330
1F
100
AcDbEntity
  8
0
  6
SLD-Gestrichelt
 62
     7
370
     0
100
AcDbLine
 10
138.7036343474
 20
63.1205846182
 30
0.0
 11
138.7036343474
 21
65.2863992127
 31
0.0
  0
LWPOLYLINE
  5
109
330
1F
100
AcDbEntity
  8
0
  6
SLD-Gestrichelt
 62
     7
370
     0
100
AcDbPolyline
 90
       14
 70
   128
 43
0.0
 10
164.2024396865
 20
57.5106002313
 10
163.9736081086
 20
57.5716997435
 10
163.6364965718
 20
57.6493833934
 10
163.1178054479
 20
57.7583846181
 10
162.3760290401
 20
57.888489652
 10
161.6458197255
 20
57.9890684628
 10
160.4743995709
 20
58.1016474148
 10
159.152819588
 20
58.1277305907
 10
158.4642766807
 20
58.1065659441
 10
157.814150328
 20
58.0625971412
 10
157.23350432
 20
58.0056214895
 10
156.8975270262
 20
57.964858381
 10
156.7036541582
 20
57.9319697936
 10
156.7045199948
 20
57.9321166174
  0
LINE
  5
10A
330
1F
100
AcDbEntity
  8
0
  6
SLD-Gestrichelt
 62
     7
370
     0
100
AcDbLine
 10
157.6136462358
 20
58.0429227593
 30
0.0
 11
157.7974915784
 21
58.0611121047
 31
0.0
  0
LINE
  5
10B
330
1F
100
AcDbEntity
  8
0
  6
SLD-Gestrichelt
 62
     7
370
     0
100
AcDbLine
 10
157.7974888785
 20
104.1599877007
 30
0.0
 11
157.6234155767
 21
104.1771972287
 31
0.0
  0
LWPOLYLINE
  5
10C
330
1F
100
AcDbEntity
  8
0
  6
SLD-Gestrichelt
 62
     7
370
     0
100
AcDbPolyline
 90
       14
 70
   128
 43
0.0
 10
156.7045864153
 20
104.288980463
 10
156.7036465797
 20
104.2891400503
 10
156.8966134859
 20
104.25631719
 10
157.232041676
 20
104.2155976235
 10
157.8122168482
 20
104.1586726328
 10
158.4628949018
 20
104.1146858449
 10
159.1522625372
 20
104.0934983809
 10
160.4757093929
 20
104.1195214246
 10
161.6440702096
 20
104.2317099485
 10
162.3724406221
 20
104.3319925358
 10
163.1128643565
 20
104.4617340067
 10
163.6341416358
 20
104.5711247657
 10
163.9728057325
 20
104.6491052654
 10
164.2025604647
 20
104.7105530415
  0
LINE
  5
10D
330
1F
100
AcDbEntity
  8
0
  6
SLD-Gestrichelt
 62
     7
370
     0
100
AcDbLine
 10
234.5536343474
 20
77.1298717848
 30
0.0
 11
234.5536343474
 21
76.9105846182
 31
0.0
  0
LINE
  5
10E
330
1F
100
AcDbEntity
  8
0
  6
SLD-Gestrichelt
 62
     7
370
     0
100
AcDbLine
 10
234.5536343474
 20
77.1298717848
 30
0.0
 11
234.5536343474
 21
81.2134678067
 31
0.0
  0
LINE
  5
10F
330
1F
100
AcDbEntity
  8
0
  6
SLD-Gestrichelt
 62
     7
370
     0
100
AcDbLine
 10
234.5536343474
 20
85.3105846182
 30
0.0
 11
234.5536343474
 21
81.2134678067
 31
0.0
  0
LINE
  5
110
330
1F
100
AcDbEntity
  8
0
  6
SLD-Gestrichelt
 62
     7
370
     0
100
AcDbLine
 10
266.379244164
 20
82.6855846182
 30
0.0
 11
266.379244164
 21
79.5355846182
 31
0.0
  0
LINE
  5
111
330
1F
100
AcDbEntity
  8
0
  6
SLD-Gestrichelt
 62
     7
370
     0
100
AcDbLine
 10
264.4629610214
 20
82.6855846182
 30
0.0
 11
264.4629610214
 21
79.5355846182
 31
0.0
  0
LINE
  5
112
330
1F
100
AcDbEntity
  8
0
  6
SLD-Gestrichelt
 62
     7
370
     0
100
AcDbLine
 10
206.2536343474
 20
66.1105846182
 30
0.0
 11
211.4536343474
 21
66.1105846182
 31
0.0
  0
LINE
  5
113
330
1F
100
AcDbEntity
  8
0
  6
SLD-Gestrichelt
 62
     7
370
     0
100
AcDbLine
 10
211.4536343474
 20
66.1105846182
 30
0.0
 11
211.4536343474
 21
57.9036877146
 31
0.0
  0
ARC
  5
114
330
1F
100
AcDbEntity
  8
0
  6
SLD-Gestrichelt
 62
     7
370
     0
100
AcDbCircle
 10
244.0205753153
 20
26.5161083885
 30
0.0
 40
45.230363473578
100
AcDbArc
 50
136.056450527
 51
137.9134245605
  0
LINE
  5
115
330
1F
100
AcDbEntity
  8
0
  6
SLD-Gestrichelt
 62
     7
370
     0
100
AcDbLine
 10
211.4536343474
 20
66.1105846182
 30
0.0
 11
269.4536343474
 21
66.1105846182
 31
0.0
  0
LINE
  5
116
330
1F
100
AcDbEntity
  8
0
  6
SLD-Gestrichelt
 62
     7
370
     0
100
AcDbLine
 10
185.5436343474
 20
101.2464512497
 30
0.0
 11
185.5436343474
 21
100.9605846182
 31
0.0
  0
LINE
  5
117
330
1F
100
AcDbEntity
  8
0
  6
SLD-Gestrichelt
 62
     7
370
     0
100
AcDbLine
 10
189.3636343474
 20
101.2464512497
 30
0.0
 11
189.3636343474
 21
100.9605846182
 31
0.0
  0
LINE
  5
118
330
1F
100
AcDbEntity
  8
0
  6
SLD-Gestrichelt
 62
     7
370
     0
100
AcDbLine
 10
190.8455671789
 20
105.5692742806
 30
0.0
 11
190.8455671789
 21
100.9605846182
 31
0.0
  0
LWPOLYLINE
  5
119
330
1F
100
AcDbEntity
  8
0
  6
SLD-Gestrichelt
 62
     7
370
     0
100
AcDbPolyline
 90
        3
 70
   128
 43
0.0
 10
210.4536343474
 20
59.6630570912
 10
210.8871042827
 20
60.1245188895
 10
211.4536343474
 20
60.7694916314
  0
LINE
  5
11A
330
1F
100
AcDbEntity
  8
0
  6
SLD-Gestrichelt
 62
     7
370
     0
100
AcDbLine
 10
217.2701258388
 20
41.1105846182
 30
0.0
 11
217.126093473
 21
41.1105846182
 31
0.0
  0
ARC
  5
11B
330
1F
100
AcDbEntity
  8
0
  6
SLD-Gestrichelt
 62
     7
370
     0
100
AcDbCircle
 10
499.1649305473
 20
108.5342927404
 30
0.0
 40
289.9859686867238
100
AcDbArc
 50
188.4123190739
 51
193.4447022966
  0
CIRCLE
  5
11C
330
1F
100
AcDbEntity
  8
0
  6
SLD-Gestrichelt
 62
     7
370
     0
100
AcDbCircle
 10
176.4536343474
 20
81.1105846182
 30
0.0
 40
4.999999999999986
  0
LINE
  5
11D
330
1F
100
AcDbEntity
  8
0
  6
SLD-Gestrichelt
 62
     7
370
     0
100
AcDbLine
 10
218.1523641582
 20
41.1105846182
 30
0.0
 11
218.1523641582
 21
63.8768966786
 31
0.0
  0
ARC
  5
11E
330
1F
100
AcDbEntity
  8
0
  6
SLD-Gestrichelt
 62
     7
370
     0
100
AcDbCircle
 10
313.5619028545
 20
112.1228987804
 30
0.0
 40
97.9462265240605
100
AcDbArc
 50
182.933343645
 51
191.7896602365
  0
LINE
  5
11F
330
1F
100
AcDbEntity
  8
0
  6
SLD-Gestrichelt
 62
     7
370
     0
100
AcDbLine
 10
218.1523641582
 20
63.8768966786
 30
0.0
 11
269.4536343474
 21
63.8768966786
 31
0.0
  0
ARC
  5
120
330
1F
100
AcDbEntity
  8
0
  6
SLD-Gestrichelt
 62
     7
370
     0
100
AcDbCircle
 10
403.0444222226
 20
81.0784076487
 30
0.0
 40
185.6905089522583
100
AcDbArc
 50
176.5939582407
 51
185.3152368595
  0
ARC
  5
121
330
1F
100
AcDbEntity
  8
0
  6
SLD-Gestrichelt
 62
     7
370
     0
100
AcDbCircle
 10
267.3536343474
 20
71.1105846182
 30
0.0
 40
5.600000000000002
100
AcDbArc
 50
242.0078549983
 51
268.7872911897
  0
ARC
  5
122
330
1F
100
AcDbEntity
  8
0
  6
SLD-Gestrichelt
 62
     7
370
     0
100
AcDbCircle
 10
267.3536343474
 20
71.1105846182
 30
0.0
 40
5.600000000000024
100
AcDbArc
 50
67.975687163
 51
115.5667273811
  0
ARC
  5
123
330
1F
100
AcDbEntity
  8
0
  6
SLD-Gestrichelt
 62
     7
370
     0
100
AcDbCircle
 10
267.3536343474
 20
71.1105846182
 30
0.0
 40
5.600000000000024
100
AcDbArc
 50
268.7872911897
 51
292.024312837
  0
LINE
  5
124
330
1F
100
AcDbEntity
  8
0
  6
SLD-Gestrichelt
 62
     7
370
     0
100
AcDbLine
 10
264.7325601591
 20
66.1673624068
 30
0.0
 11
267.2812706671
 21
68.6127627151
 31
0.0
  0
LINE
  5
125
330
1F
100
AcDbEntity
  8
0
  6
SLD-Gestrichelt
 62
     7
370
     0
100
AcDbLine
 10
267.3870405232
 20
73.6092312098
 30
0.0
 11
264.9440998713
 21
76.1602993964
 31
0.0
  0
LINE
  5
126
330
1F
100
AcDbEntity
  8
0
  6
SLD-Gestrichelt
 62
     7
370
     0
100
AcDbLine
 10
271.7826175027
 20
74.0160523327
 30
0.0
 11
271.2728754011
 21
73.5269722711
 31
0.0
  0
LINE
  5
127
330
1F
100
AcDbEntity
  8
0
  6
SLD-Gestrichelt
 62
     7
370
     0
100
AcDbLine
 10
271.167105545
 20
68.5305037763
 30
0.0
 11
271.6556936754
 21
68.020290139
 31
0.0
  0
LINE
  5
128
330
1F
100
AcDbEntity
  8
0
  6
SLD-Gestrichelt
 62
     7
370
     0
100
AcDbLine
 10
267.2788353123
 20
68.6116079419
 30
0.0
 11
271.1694898495
 21
68.5292469761
 31
0.0
  0
LINE
  5
129
330
1F
100
AcDbEntity
  8
0
  6
SLD-Gestrichelt
 62
     7
370
     0
100
AcDbLine
 10
271.275310756
 20
73.5281270443
 30
0.0
 11
267.3846562188
 21
73.61048801
 31
0.0
  0
LINE
  5
12A
330
1F
100
AcDbEntity
  8
0
  6
SLD-Gestrichelt
 62
     7
370
     0
100
AcDbLine
 10
259.4536343474
 20
64.1105846182
 30
0.0
 11
269.4536343474
 21
64.1105846182
 31
0.0
  0
LINE
  5
12B
330
1F
100
AcDbEntity
  8
0
  6
SLD-Gestrichelt
 62
     7
370
     0
100
AcDbLine
 10
269.4536343474
 20
78.1105846182
 30
0.0
 11
259.4536343474
 21
78.1105846182
 31
0.0
  0
ARC
  5
12C
330
1F
100
AcDbEntity
  8
0
  6
SLD-Gestrichelt
 62
     7
370
     0
100
AcDbCircle
 10
267.3536343474
 20
71.1105846182
 30
0.0
 40
5.600000000000009
100
AcDbArc
 50
243.2344994232
 51
270.0
  0
ARC
  5
12D
330
1F
100
AcDbEntity
  8
0
  6
SLD-Gestrichelt
 62
     7
370
     0
100
AcDbCircle
 10
267.3536343474
 20
71.1105846182
 30
0.0
 40
5.600000000000024
100
AcDbArc
 50
67.975687163
 51
116.7655005768
  0
ARC
  5
12E
330
1F
100
AcDbEntity
  8
0
  6
SLD-Gestrichelt
 62
     7
370
     0
100
AcDbCircle
 10
267.3536343474
 20
71.1105846182
 30
0.0
 40
5.600000000000024
100
AcDbArc
 50
270.0
 51
292.024312837
  0
LINE
  5
12F
330
1F
100
AcDbEntity
  8
0
  6
SLD-Gestrichelt
 62
     7
370
     0
100
AcDbLine
 10
259.4536343474
 20
66.1105846182
 30
0.0
 11
264.8317303049
 21
66.1105846182
 31
0.0
  0
LINE
  5
130
330
1F
100
AcDbEntity
  8
0
  6
SLD-Gestrichelt
 62
     7
370
     0
100
AcDbLine
 10
264.8317303049
 20
76.1105846182
 30
0.0
 11
259.4536343474
 21
76.1105846182
 31
0.0
  0
LINE
  5
131
330
1F
100
AcDbEntity
  8
0
  6
SLD-Gestrichelt
 62
     7
370
     0
100
AcDbLine
 10
169.4536343474
 20
55.7866606971
 30
0.0
 11
169.5477951887
 21
56.4566498959
 31
0.0
  0
LINE
  5
132
330
1F
100
AcDbEntity
  8
0
  6
SLD-Gestrichelt
 62
     7
370
     0
100
AcDbLine
 10
169.5477951887
 20
105.7645193405
 30
0.0
 11
169.4536343474
 21
106.4345085394
 31
0.0
  0
ARC
  5
133
330
1F
100
AcDbEntity
  8
0
  6
SLD-Gestrichelt
 62
     7
370
     0
100
AcDbCircle
 10
168.9536343474
 20
56.5401537565
 30
0.0
 40
0.6000000000000227
100
AcDbArc
 50
352.0
 51
0.0
  0
ARC
  5
134
330
1F
100
AcDbEntity
  8
0
  6
SLD-Gestrichelt
 62
     7
370
     0
100
AcDbCircle
 10
168.9536343474
 20
56.5401537565
 30
0.0
 40
0.6000000000000227
100
AcDbArc
 50
0.0
 51
33.5573097619
  0
ARC
  5
135
330
1F
100
AcDbEntity
  8
0
  6
SLD-Gestrichelt
 62
     7
370
     0
100
AcDbCircle
 10
168.9536343474
 20
105.68101548
 30
0.0
 40
0.6000000000000286
100
AcDbArc
 50
348.75
 51
8.0
  0
LWPOLYLINE
  5
136
330
1F
100
AcDbEntity
  8
0
  6
SLD-Gestrichelt
 62
     7
370
     0
100
AcDbPolyline
 90
        3
 70
   128
 43
0.0
 10
169.5421055157
 20
105.5639612868
 10
169.5079620669
 20
105.4514054205
 10
169.4536343474
 20
105.3493530009
  0
LINE
  5
137
330
1F
100
AcDbEntity
  8
0
  6
SLD-Gestrichelt
 62
     7
370
     0
100
AcDbLine
 10
169.5536343474
 20
56.5401537565
 30
0.0
 11
169.5536343474
 21
105.68101548
 31
0.0
  0
ARC
  5
138
330
1F
100
AcDbEntity
  8
0
  6
SLD-Gestrichelt
 62
     7
370
     0
100
AcDbCircle
 10
152.5360699127
 20
61.7105846182
 30
0.0
 40
0.600000000000012
100
AcDbArc
 50
210.0
 51
270.0
  0
ARC
  5
139
330
1F
100
AcDbEntity
  8
0
  6
SLD-Gestrichelt
 62
     7
370
     0
100
AcDbCircle
 10
152.5360699127
 20
100.5105846182
 30
0.0
 40
0.6000000000000155
100
AcDbArc
 50
90.0
 51
150.0
  0
ARC
  5
13A
330
1F
100
AcDbEntity
  8
0
  6
SLD-Gestrichelt
 62
     7
370
     0
100
AcDbCircle
 10
163.208636349
 20
69.1105846182
 30
0.0
 40
8.000000000000004
100
AcDbArc
 50
276.8865319152
 51
321.3178125465
  0
ARC
  5
13B
330
1F
100
AcDbEntity
  8
0
  6
SLD-Gestrichelt
 62
     7
370
     0
100
AcDbCircle
 10
163.208636349
 20
93.1105846182
 30
0.0
 40
7.999999999999996
100
AcDbArc
 50
38.6821874535
 51
83.1199268672
  0
LINE
  5
13C
330
1F
100
AcDbEntity
  8
0
  6
SLD-Gestrichelt
 62
     7
370
     0
100
AcDbLine
 10
152.5360699127
 20
61.1105846182
 30
0.0
 11
156.7277418009
 21
61.1105846182
 31
0.0
  0
LINE
  5
13D
330
1F
100
AcDbEntity
  8
0
  6
SLD-Gestrichelt
 62
     7
370
     0
100
AcDbLine
 10
156.7277418009
 20
101.1105846182
 30
0.0
 11
152.5360699127
 21
101.1105846182
 31
0.0
  0
LINE
  5
13E
330
1F
100
AcDbEntity
  8
0
  6
SLD-Gestrichelt
 62
     7
370
     0
100
AcDbLine
 10
152.0164546705
 20
100.8105846182
 30
0.0
 11
150.4576089437
 21
98.1105846182
 31
0.0
  0
LINE
  5
13F
330
1F
100
AcDbEntity
  8
0
  6
SLD-Gestrichelt
 62
     7
370
     0
100
AcDbLine
 10
150.4576089437
 20
64.1105846182
 30
0.0
 11
152.0164546705
 21
61.4105846182
 31
0.0
  0
ARC
  5
140
330
1F
100
AcDbEntity
  8
0
  6
SLD-Gestrichelt
 62
     7
370
     0
100
AcDbCircle
 10
177.9036343474
 20
65.3855846182
 30
0.0
 40
1.500000000000001
100
AcDbArc
 50
238.2116693829
 51
0.0
  0
ARC
  5
141
330
1F
100
AcDbEntity
  8
0
  6
SLD-Gestrichelt
 62
     7
370
     0
100
AcDbCircle
 10
177.9036343474
 20
96.8355846182
 30
0.0
 40
1.500000000000001
100
AcDbArc
 50
0.0
 51
121.7883306171
  0
LINE
  5
142
330
1F
100
AcDbEntity
  8
0
  6
SLD-Gestrichelt
 62
     7
370
     0
100
AcDbLine
 10
147.6536343474
 20
64.1105846182
 30
0.0
 11
150.4576089437
 21
64.1105846182
 31
0.0
  0
LINE
  5
143
330
1F
100
AcDbEntity
  8
0
  6
SLD-Gestrichelt
 62
     7
370
     0
100
AcDbLine
 10
150.4576089437
 20
98.1105846182
 30
0.0
 11
143.6536343474
 21
98.1105846182
 31
0.0
  0
LINE
  5
144
330
1F
100
AcDbEntity
  8
0
  6
SLD-Gestrichelt
 62
     7
370
     0
100
AcDbLine
 10
169.4536343474
 20
64.1105846182
 30
0.0
 11
177.113460316
 21
64.1105846182
 31
0.0
  0
LINE
  5
145
330
1F
100
AcDbEntity
  8
0
  6
SLD-Gestrichelt
 62
     7
370
     0
100
AcDbLine
 10
177.113460316
 20
98.1105846182
 30
0.0
 11
169.4536343474
 21
98.1105846182
 31
0.0
  0
LINE
  5
146
330
1F
100
AcDbEntity
  8
0
  6
SLD-Gestrichelt
 62
     7
370
     0
100
AcDbLine
 10
231.1806755876
 20
77.3640864462
 30
0.0
 11
259.4536343474
 21
69.8021136796
 31
0.0
  0
LINE
  5
147
330
1F
100
AcDbEntity
  8
0
  6
SLD-Gestrichelt
 62
     7
370
     0
100
AcDbLine
 10
259.4536343474
 20
74.9778660445
 30
0.0
 11
235.2876742504
 21
81.4413682795
 31
0.0
  0
LINE
  5
148
330
1F
100
AcDbEntity
  8
0
  6
SLD-Gestrichelt
 62
     7
370
     0
100
AcDbLine
 10
188.7536343474
 20
71.6105846182
 30
0.0
 11
191.2536343474
 21
71.6105846182
 31
0.0
  0
LINE
  5
149
330
1F
100
AcDbEntity
  8
0
  6
SLD-Gestrichelt
 62
     7
370
     0
100
AcDbLine
 10
191.2536343474
 20
90.6105846182
 30
0.0
 11
188.7536343474
 21
90.6105846182
 31
0.0
  0
LINE
  5
14A
330
1F
100
AcDbEntity
  8
0
  6
SLD-Gestrichelt
 62
     7
370
     0
100
AcDbLine
 10
179.4036343474
 20
72.1105846182
 30
0.0
 11
179.9036343474
 21
72.6105846182
 31
0.0
  0
LINE
  5
14B
330
1F
100
AcDbEntity
  8
0
  6
SLD-Gestrichelt
 62
     7
370
     0
100
AcDbLine
 10
179.9036343474
 20
89.6105846182
 30
0.0
 11
179.4036343474
 21
90.1105846182
 31
0.0
  0
LINE
  5
14C
330
1F
100
AcDbEntity
  8
0
  6
SLD-Gestrichelt
 62
     7
370
     0
100
AcDbLine
 10
179.9036343474
 20
72.6105846182
 30
0.0
 11
188.7536343474
 21
72.6105846182
 31
0.0
  0
LINE
  5
14D
330
1F
100
AcDbEntity
  8
0
  6
SLD-Gestrichelt
 62
     7
370
     0
100
AcDbLine
 10
188.7536343474
 20
89.6105846182
 30
0.0
 11
179.9036343474
 21
89.6105846182
 31
0.0
  0
LINE
  5
14E
330
1F
100
AcDbEntity
  8
0
  6
SLD-Gestrichelt
 62
     7
370
     0
100
AcDbLine
 10
174.4036343474
 20
112.6105846182
 30
0.0
 11
174.4036343474
 21
107.5105846182
 31
0.0
  0
LINE
  5
14F
330
1F
100
AcDbEntity
  8
0
  6
SLD-Gestrichelt
 62
     7
370
     0
100
AcDbLine
 10
164.6380721779
 20
57.0312132847
 30
0.0
 11
164.2036400284
 21
57.5102793038
 31
0.0
  0
LINE
  5
150
330
1F
100
AcDbEntity
  8
0
  6
SLD-Gestrichelt
 62
     7
370
     0
100
AcDbLine
 10
156.7036367033
 20
57.9319672629
 30
0.0
 11
156.22120296
 21
57.4529012875
 31
0.0
  0
LINE
  5
151
330
1F
100
AcDbEntity
  8
0
  6
SLD-Gestrichelt
 62
     7
370
     0
100
AcDbLine
 10
156.2210810318
 20
104.7682626586
 30
0.0
 11
156.7036317827
 21
104.2891424007
 31
0.0
  0
LINE
  5
152
330
1F
100
AcDbEntity
  8
0
  6
SLD-Gestrichelt
 62
     7
370
     0
100
AcDbLine
 10
164.2036342294
 20
104.7108401783
 30
0.0
 11
164.6381766198
 21
105.1899604289
 31
0.0
  0
LINE
  5
153
330
1F
100
AcDbEntity
  8
0
  6
SLD-Gestrichelt
 62
     7
370
     0
100
AcDbLine
 10
234.5536343474
 20
76.9105846182
 30
0.0
 11
237.0772489474
 21
81.1105846182
 31
0.0
  0
LINE
  5
154
330
1F
100
AcDbEntity
  8
0
  6
SLD-Gestrichelt
 62
     7
370
     0
100
AcDbLine
 10
237.0772489474
 20
81.1105846182
 30
0.0
 11
234.5536343474
 21
85.3105846182
 31
0.0
  0
LINE
  5
155
330
1F
100
AcDbEntity
  8
0
  6
SLD-Gestrichelt
 62
     7
370
     0
100
AcDbLine
 10
191.2536343474
 20
76.9105846182
 30
0.0
 11
234.5536343474
 21
76.9105846182
 31
0.0
  0
LINE
  5
156
330
1F
100
AcDbEntity
  8
0
  6
SLD-Gestrichelt
 62
     7
370
     0
100
AcDbLine
 10
234.5536343474
 20
85.3105846182
 30
0.0
 11
191.2536343474
 21
85.3105846182
 31
0.0
  0
LINE
  5
157
330
1F
100
AcDbEntity
  8
0
  6
SLD-Gestrichelt
 62
     7
370
     0
100
AcDbLine
 10
164.2036343474
 20
101.0459849565
 30
0.0
 11
164.2036343474
 21
104.7102867567
 31
0.0
  0
LINE
  5
158
330
1F
100
AcDbEntity
  8
0
  6
SLD-Gestrichelt
 62
     7
370
     0
100
AcDbLine
 10
156.7036343474
 20
104.2888872095
 30
0.0
 11
156.7036343474
 21
101.1062068502
 31
0.0
  0
LINE
  5
159
330
1F
100
AcDbEntity
  8
0
  6
SLD-Gestrichelt
 62
     7
370
     0
100
AcDbLine
 10
164.2036343474
 20
57.5107632055
 30
0.0
 11
164.2036343474
 21
61.17518428
 31
0.0
  0
LINE
  5
15A
330
1F
100
AcDbEntity
  8
0
  6
SLD-Gestrichelt
 62
     7
370
     0
100
AcDbLine
 10
156.7036343474
 20
61.1149623863
 30
0.0
 11
156.7036343474
 21
57.9322905005
 31
0.0
  0
LINE
  5
15B
330
1F
100
AcDbEntity
  8
0
  6
SLD-Gestrichelt
 62
     7
370
     0
100
AcDbLine
 10
269.4536343474
 20
84.4605846182
 30
0.0
 11
266.379244164
 21
82.6855846182
 31
0.0
  0
LINE
  5
15C
330
1F
100
AcDbEntity
  8
0
  6
SLD-Gestrichelt
 62
     7
370
     0
100
AcDbLine
 10
266.379244164
 20
79.5355846182
 30
0.0
 11
269.4536343474
 21
77.7605846182
 31
0.0
  0
LINE
  5
15D
330
1F
100
AcDbEntity
  8
0
  6
SLD-Gestrichelt
 62
     7
370
     0
100
AcDbLine
 10
266.379244164
 20
82.6855846182
 30
0.0
 11
264.4629610214
 21
82.6855846182
 31
0.0
  0
LINE
  5
15E
330
1F
100
AcDbEntity
  8
0
  6
SLD-Gestrichelt
 62
     7
370
     0
100
AcDbLine
 10
264.4629610214
 20
79.5355846182
 30
0.0
 11
266.379244164
 21
79.5355846182
 31
0.0
  0
LINE
  5
15F
330
1F
100
AcDbEntity
  8
0
  6
SLD-Gestrichelt
 62
     7
370
     0
100
AcDbLine
 10
264.4629610214
 20
82.6855846182
 30
0.0
 11
263.5536343474
 21
81.1105846182
 31
0.0
  0
LINE
  5
160
330
1F
100
AcDbEntity
  8
0
  6
SLD-Gestrichelt
 62
     7
370
     0
100
AcDbLine
 10
263.5536343474
 20
81.1105846182
 30
0.0
 11
264.4629610214
 21
79.5355846182
 31
0.0
  0
LINE
  5
161
330
1F
100
AcDbEntity
  8
0
  6
SLD-Gestrichelt
 62
     7
370
     0
100
AcDbLine
 10
206.2536343474
 20
66.1105846182
 30
0.0
 11
206.2536343474
 21
55.4620231688
 31
0.0
  0
DIMENSION
  5
162
330
1F
100
AcDbEntity
  8
VERMASSUNG
100
AcDbDimension
  2
_D
 10
269.4536343474
 20
116.6105846182
 30
0.0
 11
217.4428337242
 21
116.6105846182
 31
0.0
 70
   160
  1
<>
 71
     2
 42
-1.0
  3
SLDDIMSTYLE0
100
AcDbAlignedDimension
 13
169.4536343474
 23
112.3105846182
 33
0.0
 14
269.4536343474
 24
107.1105846182
 34
0.0
100
AcDbRotatedDimension
  0
DIMENSION
  5
16D
330
1F
100
AcDbEntity
  8
VERMASSUNG
100
AcDbDimension
  2
_D_1
 10
132.4583472065
 20
49.6105846182
 30
0.0
 11
132.4583472065
 21
80.4054565611
 31
0.0
 70
   160
  1
HSK T%%c<>
 71
     2
 42
-1.0
  3
SLDDIMSTYLE0
100
AcDbAlignedDimension
 13
169.7536343474
 23
112.6105846182
 33
0.0
 14
169.7536343474
 24
49.6105846182
 34
0.0
 50
90.0
100
AcDbRotatedDimension
  0
DIMENSION
  5
179
330
1F
100
AcDbEntity
  8
VERMASSUNG
100
AcDbDimension
  2
_D_2
 10
269.4536343474
 20
122.6105846182
 30
0.0
 11
204.3031897635
 21
122.6105846182
 31
0.0
 70
   160
  1
<>
 71
     2
 42
-1.0
  3
SLDDIMSTYLE0
100
AcDbAlignedDimension
 13
137.5536343474
 23
101.0866451229
 33
0.0
 14
269.4536343474
 24
107.1105846182
 34
0.0
100
AcDbRotatedDimension
  0
LINE
  5
183
330
1F
100
AcDbEntity
  8
VERMASSUNG
  6
SLD-Punktstrich
 62
     7
370
     0
100
AcDbLine
 10
135.4193708337
 20
81.1105846182
 30
0.0
 11
271.4536343474
 21
81.1105846182
 31
0.0
  0
LINE
  5
184
330
1F
100
AcDbEntity
  8
0
  6
SLD-Durchgehend
 62
     7
370
    15
100
AcDbLine
 10
65.7462350975
 20
47.6105846182
 30
0.0
 11
67.4962350975
 21
49.3605846182
 31
0.0
  0
LINE
  5
185
330
1F
100
AcDbEntity
  8
0
  6
SLD-Durchgehend
 62
     7
370
    15
100
AcDbLine
 10
67.4962350975
 20
57.8605846182
 30
0.0
 11
65.7462350975
 21
59.6105846182
 31
0.0
  0
LINE
  5
186
330
1F
100
AcDbEntity
  8
0
  6
SLD-Durchgehend
 62
     7
370
    15
100
AcDbLine
 10
64.4962350975
 20
47.6105846182
 30
0.0
 11
65.7462350975
 21
47.6105846182
 31
0.0
  0
LINE
  5
187
330
1F
100
AcDbEntity
  8
0
  6
SLD-Durchgehend
 62
     7
370
    15
100
AcDbLine
 10
65.7462350975
 20
59.6105846182
 30
0.0
 11
64.4962350975
 21
59.6105846182
 31
0.0
  0
CIRCLE
  5
188
330
1F
100
AcDbEntity
  8
0
  6
SLD-Durchgehend
 62
     7
370
    15
100
AcDbCircle
 10
51.6300025447
 20
71.0183649403
 30
0.0
 40
3.49916903638485
  0
CIRCLE
  5
189
330
1F
100
AcDbEntity
  8
0
  6
SLD-Durchgehend
 62
     7
370
    15
100
AcDbCircle
 10
51.6302087626
 20
71.0184468644
 30
0.0
 40
2.999425494535029
  0
CIRCLE
  5
18A
330
1F
100
AcDbEntity
  8
0
  6
SLD-Durchgehend
 62
     7
370
    15
100
AcDbCircle
 10
51.6149962517
 20
71.0289914255
 30
0.0
 40
2.499530117324355
  0
ARC
  5
18B
330
1F
100
AcDbEntity
  8
0
  6
SLD-Durchgehend
 62
     7
370
    15
100
AcDbCircle
 10
51.4941731846
 20
71.1096613845
 30
0.0
 40
2.498085868439128
100
AcDbArc
 50
237.4138843332
 51
302.7614167757
  0
ARC
  5
18C
330
1F
100
AcDbEntity
  8
0
  6
SLD-Durchgehend
 62
     7
370
    15
100
AcDbCircle
 10
51.4946798572
 20
71.1119776165
 30
0.0
 40
2.499760042532431
100
AcDbArc
 50
302.722922064
 51
54.0230968155
  0
CIRCLE
  5
18D
330
1F
100
AcDbEntity
  8
0
  6
SLD-Durchgehend
 62
     7
370
    15
100
AcDbCircle
 10
51.4962350975
 20
71.1105846182
 30
0.0
 40
5.191338940966968
  0
CIRCLE
  5
18E
330
1F
100
AcDbEntity
  8
0
  6
SLD-Durchgehend
 62
     7
370
    15
100
AcDbCircle
 10
51.4962350975
 20
71.1105846182
 30
0.0
 40
7.000000000000001
  0
LINE
  5
18F
330
1F
100
AcDbEntity
  8
0
  6
SLD-Durchgehend
 62
     7
370
    15
100
AcDbLine
 10
65.7462350975
 20
53.777301419
 30
0.0
 11
65.7462350975
 21
59.6105846182
 31
0.0
  0
LINE
  5
190
330
1F
100
AcDbEntity
  8
0
  6
SLD-Durchgehend
 62
     7
370
    15
100
AcDbLine
 10
65.7462350975
 20
47.6105846182
 30
0.0
 11
65.7462350975
 21
53.777301419
 31
0.0
  0
LINE
  5
191
330
1F
100
AcDbEntity
  8
0
  6
SLD-Durchgehend
 62
     7
370
    15
100
AcDbLine
 10
67.4962350975
 20
53.7286756855
 30
0.0
 11
67.4962350975
 21
57.8605846182
 31
0.0
  0
LINE
  5
192
330
1F
100
AcDbEntity
  8
0
  6
SLD-Durchgehend
 62
     7
370
    15
100
AcDbLine
 10
67.4962350975
 20
49.3605846182
 30
0.0
 11
67.4962350975
 21
53.7286756855
 31
0.0
  0
LINE
  5
193
330
1F
100
AcDbEntity
  8
0
  6
SLD-Durchgehend
 62
     7
370
    15
100
AcDbLine
 10
64.4962350975
 20
66.1105846182
 30
0.0
 11
64.4962350975
 21
41.1105846182
 31
0.0
  0
LINE
  5
194
330
1F
100
AcDbEntity
  8
0
  6
SLD-Durchgehend
 62
     7
370
    15
100
AcDbLine
 10
39.4962350975
 20
41.1105846182
 30
0.0
 11
64.4962350975
 21
41.1105846182
 31
0.0
  0
LINE
  5
195
330
1F
100
AcDbEntity
  8
0
  6
SLD-Durchgehend
 62
     7
370
    15
100
AcDbLine
 10
39.4962350975
 20
92.1105846182
 30
0.0
 11
39.4962350975
 21
41.1105846182
 31
0.0
  0
LINE
  5
196
330
1F
100
AcDbEntity
  8
0
  6
SLD-Durchgehend
 62
     7
370
    15
100
AcDbLine
 10
54.4962350975
 20
107.1105846182
 30
0.0
 11
39.4962350975
 21
92.1105846182
 31
0.0
  0
LINE
  5
197
330
1F
100
AcDbEntity
  8
0
  6
SLD-Durchgehend
 62
     7
370
    15
100
AcDbLine
 10
98.4962350975
 20
107.1105846182
 30
0.0
 11
54.4962350975
 21
107.1105846182
 31
0.0
  0
LINE
  5
198
330
1F
100
AcDbEntity
  8
0
  6
SLD-Durchgehend
 62
     7
370
    15
100
AcDbLine
 10
113.4962350975
 20
92.1105846182
 30
0.0
 11
98.4962350975
 21
107.1105846182
 31
0.0
  0
LINE
  5
199
330
1F
100
AcDbEntity
  8
0
  6
SLD-Durchgehend
 62
     7
370
    15
100
AcDbLine
 10
113.4962350975
 20
63.8768966786
 30
0.0
 11
113.4962350975
 21
92.1105846182
 31
0.0
  0
ARC
  5
19A
330
1F
100
AcDbEntity
  8
0
  6
SLD-Durchgehend
 62
     7
370
    15
100
AcDbCircle
 10
65.4962350975
 20
81.1105846182
 30
0.0
 40
50.99999999999998
100
AcDbArc
 50
308.3427492605
 51
340.2500772044
  0
LINE
  5
19B
330
1F
100
AcDbEntity
  8
0
  6
SLD-Durchgehend
 62
     7
370
    15
100
AcDbLine
 10
90.4962350975
 20
41.1105846182
 30
0.0
 11
97.1348191366
 21
41.1105846182
 31
0.0
  0
LINE
  5
19C
330
1F
100
AcDbEntity
  8
0
  6
SLD-Durchgehend
 62
     7
370
    15
100
AcDbLine
 10
90.4962350975
 20
66.1105846182
 30
0.0
 11
90.4962350975
 21
41.1105846182
 31
0.0
  0
LINE
  5
19D
330
1F
100
AcDbEntity
  8
0
  6
SLD-Durchgehend
 62
     7
370
    15
100
AcDbLine
 10
64.4962350975
 20
66.1105846182
 30
0.0
 11
90.4962350975
 21
66.1105846182
 31
0.0
  0
CIRCLE
  5
19E
330
1F
100
AcDbEntity
  8
0
  6
SLD-Durchgehend
 62
     7
370
    15
100
AcDbCircle
 10
65.4962350975
 20
81.1105846182
 30
0.0
 40
3.350000000000009
  0
CIRCLE
  5
19F
330
1F
100
AcDbEntity
  8
0
  6
SLD-Durchgehend
 62
     7
370
    15
100
AcDbCircle
 10
65.4962350975
 20
81.1105846182
 30
0.0
 40
1.575000000000017
  0
ELLIPSE
  5
1A0
330
1F
100
AcDbEntity
  8
0
  6
SLD-Durchgehend
 62
     7
370
    15
100
AcDbEllipse
 10
53.0419350789
 20
72.3899898621
 30
0.0
 11
2.259585694853627
 21
1.582178936767349
 31
0.0
210
0.0
220
0.0
230
1.0
 40
0.906307787
 41
2.110744800563466
 42
4.399155088887024
  0
LINE
  5
1A1
330
1F
100
AcDbEntity
  8
0
  6
SLD-Durchgehend
 62
     7
370
    15
100
AcDbLine
 10
80.0962350975
 20
66.1105846182
 30
0.0
 11
80.0962350975
 21
60.7694916314
 31
0.0
  0
ARC
  5
1A2
330
1F
100
AcDbEntity
  8
0
  6
SLD-Durchgehend
 62
     7
370
    15
100
AcDbCircle
 10
65.4689336666
 20
81.1382763485
 30
0.0
 40
26.0382766713451
100
AcDbArc
 50
304.4362607451
 51
324.7504699404
  0
LWPOLYLINE
  5
1A3
330
1F
100
AcDbEntity
  8
0
  6
SLD-Durchgehend
 62
     7
370
    15
100
AcDbPolyline
 90
        3
 70
   128
 43
0.0
 10
80.1932947687
 20
59.6630570912
 10
80.1271884073
 20
60.1245188895
 10
80.0962350975
 20
60.7694916314
  0
LINE
  5
1A4
330
1F
100
AcDbEntity
  8
0
  6
SLD-Durchgehend
 62
     7
370
    15
100
AcDbLine
 10
74.8962350975
 20
66.1105846182
 30
0.0
 11
74.8962350975
 21
57.9036877146
 31
0.0
  0
ARC
  5
1A5
330
1F
100
AcDbEntity
  8
0
  6
SLD-Durchgehend
 62
     7
370
    15
100
AcDbCircle
 10
65.4962350975
 20
81.1105846182
 30
0.0
 40
25.03837183000931
100
AcDbArc
 50
292.0505069577
 51
305.6692300058
  0
ARC
  5
1A6
330
1F
100
AcDbEntity
  8
0
  6
SLD-Durchgehend
 62
     7
370
    15
100
AcDbCircle
 10
65.4962350975
 20
81.1105846182
 30
0.0
 40
25.99999999999999
100
AcDbArc
 50
290.9654789822
 51
304.42114867
  0
ARC
  5
1A7
330
1F
100
AcDbEntity
  8
0
  6
SLD-Durchgehend
 62
     7
370
    15
100
AcDbCircle
 10
68.6768002164
 20
57.9266065274
 30
0.0
 40
6.219477109273211
100
AcDbArc
 50
349.8622584084
 51
359.7888642087
  0
ARC
  5
1A8
330
1F
100
AcDbEntity
  8
0
  6
SLD-Durchgehend
 62
     7
370
    15
100
AcDbCircle
 10
65.5419653106
 20
80.9551334785
 30
0.0
 40
25.83848103260685
100
AcDbArc
 50
274.3376559989
 51
290.9941253614
  0
LINE
  5
1A9
330
1F
100
AcDbEntity
  8
0
  6
SLD-Durchgehend
 62
     7
370
    15
100
AcDbLine
 10
71.1566237768
 20
107.5105846182
 30
0.0
 11
59.8358464183
 21
107.5105846182
 31
0.0
  0
LINE
  5
1AA
330
1F
100
AcDbEntity
  8
0
  6
SLD-Durchgehend
 62
     7
370
    15
100
AcDbLine
 10
71.1566237768
 20
54.7105846182
 30
0.0
 11
67.4962350975
 21
54.7105846182
 31
0.0
  0
ARC
  5
1AB
330
1F
100
AcDbEntity
  8
0
  6
SLD-Durchgehend
 62
     7
370
    15
100
AcDbCircle
 10
65.4962350975
 20
81.1105846182
 30
0.0
 40
31.49999999999999
100
AcDbArc
 50
140.9381656697
 51
214.3712560241
  0
LINE
  5
1AC
330
1F
100
AcDbEntity
  8
0
  6
SLD-Durchgehend
 62
     7
370
    15
100
AcDbLine
 10
41.0375454352
 20
100.9605846182
 30
0.0
 11
41.8152828363
 21
100.9605846182
 31
0.0
  0
LINE
  5
1AD
330
1F
100
AcDbEntity
  8
0
  6
SLD-Durchgehend
 62
     7
370
    15
100
AcDbLine
 10
57.4962350975
 20
110.957024942
 30
0.0
 11
57.4962350975
 21
111.5777800914
 31
0.0
  0
LINE
  5
1AE
330
1F
100
AcDbEntity
  8
0
  6
SLD-Durchgehend
 62
     7
370
    15
100
AcDbLine
 10
45.6462350975
 20
105.5692742806
 30
0.0
 11
45.6462350975
 21
104.7915368795
 31
0.0
  0
ARC
  5
1AF
330
1F
100
AcDbEntity
  8
0
  6
SLD-Durchgehend
 62
     7
370
    15
100
AcDbCircle
 10
65.4962350975
 20
81.1105846182
 30
0.0
 40
31.5
100
AcDbArc
 50
104.7124579609
 51
129.0618343303
  0
LINE
  5
1B0
330
1F
100
AcDbEntity
  8
0
  6
SLD-Durchgehend
 62
     7
370
    15
100
AcDbLine
 10
73.4962350975
 20
111.5777800914
 30
0.0
 11
73.4962350975
 21
110.957024942
 31
0.0
  0
ARC
  5
1B1
330
1F
100
AcDbEntity
  8
0
  6
SLD-Durchgehend
 62
     7
370
    15
100
AcDbCircle
 10
65.4962350975
 20
81.1105846182
 30
0.0
 40
31.5
100
AcDbArc
 50
55.6287439759
 51
75.2875420391
  0
ARC
  5
1B2
330
1F
100
AcDbEntity
  8
0
  6
SLD-Durchgehend
 62
     7
370
    15
100
AcDbCircle
 10
65.4962350975
 20
81.1105846182
 30
0.0
 40
31.49999999999998
100
AcDbArc
 50
286.601549599
 51
322.5280048172
  0
LINE
  5
1B3
330
1F
100
AcDbEntity
  8
0
  6
SLD-Durchgehend
 62
     7
370
    15
100
AcDbLine
 10
74.4962350975
 20
50.923666922
 30
0.0
 11
74.4962350975
 21
51.5503072176
 31
0.0
  0
LINE
  5
1B4
330
1F
100
AcDbEntity
  8
0
  6
SLD-Durchgehend
 62
     7
370
    15
100
AcDbLine
 10
73.4962350975
 20
110.957024942
 30
0.0
 11
73.4962350975
 21
107.5105846182
 31
0.0
  0
LINE
  5
1B5
330
1F
100
AcDbEntity
  8
0
  6
SLD-Durchgehend
 62
     7
370
    15
100
AcDbLine
 10
74.4962350975
 20
51.5503072176
 30
0.0
 11
74.4962350975
 21
54.7105846182
 31
0.0
  0
LINE
  5
1B6
330
1F
100
AcDbEntity
  8
0
  6
SLD-Durchgehend
 62
     7
370
    15
100
AcDbLine
 10
73.4962350975
 20
107.5105846182
 30
0.0
 11
71.1566237768
 21
107.5105846182
 31
0.0
  0
LINE
  5
1B7
330
1F
100
AcDbEntity
  8
0
  6
SLD-Durchgehend
 62
     7
370
    15
100
AcDbLine
 10
74.4962350975
 20
54.7105846182
 30
0.0
 11
71.1566237768
 21
54.7105846182
 31
0.0
  0
LINE
  5
1B8
330
1F
100
AcDbEntity
  8
0
  6
SLD-Durchgehend
 62
     7
370
    15
100
AcDbLine
 10
57.4962350975
 20
107.5105846182
 30
0.0
 11
57.4962350975
 21
110.957024942
 31
0.0
  0
LINE
  5
1B9
330
1F
100
AcDbEntity
  8
0
  6
SLD-Durchgehend
 62
     7
370
    15
100
AcDbLine
 10
45.6462350975
 20
104.7915368795
 30
0.0
 11
45.6462350975
 21
100.9605846182
 31
0.0
  0
LINE
  5
1BA
330
1F
100
AcDbEntity
  8
0
  6
SLD-Durchgehend
 62
     7
370
    15
100
AcDbLine
 10
41.8152828363
 20
100.9605846182
 30
0.0
 11
45.6462350975
 21
100.9605846182
 31
0.0
  0
LINE
  5
1BB
330
1F
100
AcDbEntity
  8
0
  6
SLD-Durchgehend
 62
     7
370
    15
100
AcDbLine
 10
59.8358464183
 20
107.5105846182
 30
0.0
 11
57.4962350975
 21
107.5105846182
 31
0.0
  0
ARC
  5
1BC
330
1F
100
AcDbEntity
  8
0
  6
SLD-Durchgehend
 62
     7
370
    15
100
AcDbCircle
 10
65.6064432505
 20
80.6286966946
 30
0.0
 40
31.00672818721755
100
AcDbArc
 50
273.4942172425
 51
286.6608067458
  0
ARC
  5
1BD
330
1F
100
AcDbEntity
  8
0
  6
SLD-Durchgehend
 62
     7
370
    15
100
AcDbCircle
 10
65.4962350975
 20
81.1105846182
 30
0.0
 40
31.49999999999987
100
AcDbArc
 50
75.2875420391
 51
104.7124579609
  0
ARC
  5
1BE
330
1F
100
AcDbEntity
  8
0
  6
SLD-Durchgehend
 62
     7
370
    15
100
AcDbCircle
 10
65.4962350975
 20
81.1105846182
 30
0.0
 40
31.49999999999272
100
AcDbArc
 50
129.0618343303
 51
140.9381656697
  0
DIMENSION
  5
1BF
330
1F
100
AcDbEntity
  8
VERMASSUNG
100
AcDbDimension
  2
_D_3
 10
23.9374316997
 20
110.6718068551
 30
0.0
 11
114.4142823498
 21
46.3146704728
 31
0.0
 70
   163
  1
<>
 71
     1
 42
-1.0
  3
SLDDIMSTYLE1
100
AcDbDiametricDimension
 15
107.0550384954
 25
51.5493623813
 35
0.0
 40
0.0
  0
DIMENSION
  5
1C9
330
1F
100
AcDbEntity
  8
VERMASSUNG
100
AcDbDimension
  2
_D_4
 10
90.4962350975
 20
116.9515709642
 30
0.0
 11
77.9962350975
 21
116.9515709642
 31
0.0
 70
   160
  1
<>
 71
     2
 42
-1.0
  3
SLDDIMSTYLE0
100
AcDbAlignedDimension
 13
65.4962350975
 23
116.7195016251
 33
0.0
 14
90.4962350975
 24
66.1105846182
 34
0.0
100
AcDbRotatedDimension
  0
DIMENSION
  5
1D3
330
1F
100
AcDbEntity
  8
VERMASSUNG
100
AcDbDimension
  2
_D_5
 10
31.3223598008
 20
66.1105846182
 30
0.0
 11
31.3223598008
 21
54.6054898731
 31
0.0
 70
   160
  1
<>
 71
     2
 42
-1.0
  3
SLDDIMSTYLE0
100
AcDbAlignedDimension
 13
39.4962350975
 23
41.1105846182
 33
0.0
 14
64.4962350975
 24
66.1105846182
 34
0.0
 50
90.0
100
AcDbRotatedDimension
  0
DIMENSION
  5
1DD
330
1F
100
AcDbEntity
  8
VERMASSUNG
100
AcDbDimension
  2
_D_6
 10
19.3223598008
 20
107.1105846182
 30
0.0
 11
19.3223598008
 21
74.2441251121
 31
0.0
 70
   160
  1
<>
 71
     2
 42
-1.0
  3
SLDDIMSTYLE0
100
AcDbAlignedDimension
 13
39.4962350975
 23
41.1105846182
 33
0.0
 14
54.4962350975
 24
107.1105846182
 34
0.0
 50
90.0
100
AcDbRotatedDimension
  0
DIMENSION
  5
1E7
330
1F
100
AcDbEntity
  8
VERMASSUNG
100
AcDbDimension
  2
_D_7
 10
113.4962350975
 20
122.6105846182
 30
0.0
 11
89.4962350975
 21
122.6105846182
 31
0.0
 70
   160
  1
<>
 71
     2
 42
-1.0
  3
SLDDIMSTYLE0
100
AcDbAlignedDimension
 13
65.4962350975
 23
116.7195016251
 33
0.0
 14
113.4962350975
 24
92.1105846182
 34
0.0
100
AcDbRotatedDimension
  0
DIMENSION
  5
1F1
330
1F
100
AcDbEntity
  8
VERMASSUNG
100
AcDbDimension
  2
_D_8
 10
25.3223598008
 20
81.1105846182
 30
0.0
 11
25.3223598008
 21
60.768785561
 31
0.0
 70
   160
  1
<>
 71
     2
 42
-1.0
  3
SLDDIMSTYLE0
100
AcDbAlignedDimension
 13
39.4962350975
 23
41.1105846182
 33
0.0
 14
31.8238543587
 24
81.1105846182
 34
0.0
 50
90.0
100
AcDbRotatedDimension
  0
DIMENSION
  5
1FB
330
1F
100
AcDbEntity
  8
VERMASSUNG
100
AcDbDimension
  2
_D_9
 10
113.4962350975
 20
128.6105846182
 30
0.0
 11
76.4962350975
 21
128.6105846182
 31
0.0
 70
   160
  1
<>
 71
     2
 42
-1.0
  3
SLDDIMSTYLE0
100
AcDbAlignedDimension
 13
39.4962350975
 23
92.1105846182
 33
0.0
 14
113.4962350975
 24
92.1105846182
 34
0.0
100
AcDbRotatedDimension
  0
INSERT
  5
210
330
1F
100
AcDbEntity
  8
VERMASSUNG
100
AcDbBlockReference
  2
SW_CENTERMARKSYMBOL_0
 10
65.4962350975
 20
81.1105846182
 30
0.0
  0
ARC
  5
211
330
1F
100
AcDbEntity
  8
0
  6
SLD-Durchgehend
 62
     7
370
    15
100
AcDbCircle
 10
267.3536343474
 20
188.6519578163
 30
0.0
 40
5.600000000000037
100
AcDbArc
 50
36.8868364286
 51
67.975687163
  0
ARC
  5
212
330
1F
100
AcDbEntity
  8
0
  6
SLD-Durchgehend
 62
     7
370
    15
100
AcDbCircle
 10
267.3536343474
 20
188.6519578163
 30
0.0
 40
5.60000000000001
100
AcDbArc
 50
292.024312837
 51
319.5545013946
  0
LINE
  5
213
330
1F
100
AcDbEntity
  8
0
  6
SLD-Durchgehend
 62
     7
370
    15
100
AcDbLine
 10
251.4536343474
 20
175.6519578163
 30
0.0
 11
251.4536343474
 21
174.4019578163
 31
0.0
  0
LINE
  5
214
330
1F
100
AcDbEntity
  8
0
  6
SLD-Durchgehend
 62
     7
370
    15
100
AcDbLine
 10
263.4536343474
 20
174.4019578163
 30
0.0
 11
263.4536343474
 21
175.6519578163
 31
0.0
  0
LINE
  5
215
330
1F
100
AcDbEntity
  8
0
  6
SLD-Durchgehend
 62
     7
370
    15
100
AcDbLine
 10
251.4536343474
 20
174.4019578163
 30
0.0
 11
253.2036343474
 21
172.6519578163
 31
0.0
  0
LINE
  5
216
330
1F
100
AcDbEntity
  8
0
  6
SLD-Durchgehend
 62
     7
370
    15
100
AcDbLine
 10
261.7036343474
 20
172.6519578163
 30
0.0
 11
263.4536343474
 21
174.4019578163
 31
0.0
  0
LINE
  5
217
330
1F
100
AcDbEntity
  8
0
  6
SLD-Durchgehend
 62
     7
370
    15
100
AcDbLine
 10
221.4536343474
 20
175.6519578163
 30
0.0
 11
221.4536343474
 21
174.4019578163
 31
0.0
  0
LINE
  5
218
330
1F
100
AcDbEntity
  8
0
  6
SLD-Durchgehend
 62
     7
370
    15
100
AcDbLine
 10
233.4536343474
 20
174.4019578163
 30
0.0
 11
233.4536343474
 21
175.6519578163
 31
0.0
  0
LINE
  5
219
330
1F
100
AcDbEntity
  8
0
  6
SLD-Durchgehend
 62
     7
370
    15
100
AcDbLine
 10
221.4536343474
 20
174.4019578163
 30
0.0
 11
223.2036343474
 21
172.6519578163
 31
0.0
  0
LINE
  5
21A
330
1F
100
AcDbEntity
  8
0
  6
SLD-Durchgehend
 62
     7
370
    15
100
AcDbLine
 10
231.7036343474
 20
172.6519578163
 30
0.0
 11
233.4536343474
 21
174.4019578163
 31
0.0
  0
LINE
  5
21B
330
1F
100
AcDbEntity
  8
0
  6
SLD-Durchgehend
 62
     7
370
    15
100
AcDbLine
 10
211.6522331857
 20
147.9107768614
 30
0.0
 11
217.3485165809
 21
126.6519578163
 31
0.0
  0
LINE
  5
21C
330
1F
100
AcDbEntity
  8
0
  6
SLD-Durchgehend
 62
     7
370
    15
100
AcDbLine
 10
181.3897695526
 20
143.1519578163
 30
0.0
 11
184.0617015159
 21
143.1519578163
 31
0.0
  0
LINE
  5
21D
330
1F
100
AcDbEntity
  8
0
  6
SLD-Durchgehend
 62
     7
370
    15
100
AcDbLine
 10
169.7536343474
 20
143.1519578163
 30
0.0
 11
171.4536343474
 21
143.1519578163
 31
0.0
  0
LINE
  5
21E
330
1F
100
AcDbEntity
  8
0
  6
SLD-Durchgehend
 62
     7
370
    15
100
AcDbLine
 10
184.0617015159
 20
206.1519578163
 30
0.0
 11
169.7536343474
 21
206.1519578163
 31
0.0
  0
ARC
  5
21F
330
1F
100
AcDbEntity
  8
0
  6
SLD-Durchgehend
 62
     7
370
    15
100
AcDbCircle
 10
169.7536343474
 20
143.4519578163
 30
0.0
 40
0.3000000000000398
100
AcDbArc
 50
180.0
 51
270.0
  0
ARC
  5
220
330
1F
100
AcDbEntity
  8
0
  6
SLD-Durchgehend
 62
     7
370
    15
100
AcDbCircle
 10
169.7536343474
 20
205.8519578163
 30
0.0
 40
0.3000000000000398
100
AcDbArc
 50
90.0
 51
180.0
  0
ARC
  5
221
330
1F
100
AcDbEntity
  8
0
  6
SLD-Durchgehend
 62
     7
370
    15
100
AcDbCircle
 10
194.8036343474
 20
205.5519578163
 30
0.0
 40
0.6000000000000227
100
AcDbArc
 50
0.0
 51
90.0
  0
ARC
  5
222
330
1F
100
AcDbEntity
  8
0
  6
SLD-Durchgehend
 62
     7
370
    15
100
AcDbCircle
 10
194.8036343474
 20
143.7519578163
 30
0.0
 40
0.6000000000000227
100
AcDbArc
 50
270.0
 51
0.0
  0
LINE
  5
223
330
1F
100
AcDbEntity
  8
0
  6
SLD-Durchgehend
 62
     7
370
    15
100
AcDbLine
 10
190.8455671789
 20
143.1519578163
 30
0.0
 11
194.8036343474
 21
143.1519578163
 31
0.0
  0
LINE
  5
224
330
1F
100
AcDbEntity
  8
0
  6
SLD-Durchgehend
 62
     7
370
    15
100
AcDbLine
 10
194.8036343474
 20
206.1519578163
 30
0.0
 11
190.8455671789
 21
206.1519578163
 31
0.0
  0
LINE
  5
225
330
1F
100
AcDbEntity
  8
0
  6
SLD-Durchgehend
 62
     7
370
    15
100
AcDbLine
 10
189.3636343474
 20
145.7187407738
 30
0.0
 11
190.8455671789
 21
143.1519578163
 31
0.0
  0
LINE
  5
226
330
1F
100
AcDbEntity
  8
0
  6
SLD-Durchgehend
 62
     7
370
    15
100
AcDbLine
 10
190.8455671789
 20
206.1519578163
 30
0.0
 11
189.3636343474
 21
203.5851748588
 31
0.0
  0
LINE
  5
227
330
1F
100
AcDbEntity
  8
0
  6
SLD-Durchgehend
 62
     7
370
    15
100
AcDbLine
 10
185.5436343474
 20
203.5851748588
 30
0.0
 11
184.0617015159
 21
206.1519578163
 31
0.0
  0
LINE
  5
228
330
1F
100
AcDbEntity
  8
0
  6
SLD-Durchgehend
 62
     7
370
    15
100
AcDbLine
 10
184.0617015159
 20
143.1519578163
 30
0.0
 11
185.5436343474
 21
145.7187407738
 31
0.0
  0
ARC
  5
229
330
1F
100
AcDbEntity
  8
0
  6
SLD-Durchgehend
 62
     7
370
    15
100
AcDbCircle
 10
188.5636343474
 20
146.3769578163
 30
0.0
 40
0.8000000000000114
100
AcDbArc
 50
0.0
 51
90.0
  0
ARC
  5
22A
330
1F
100
AcDbEntity
  8
0
  6
SLD-Durchgehend
 62
     7
370
    15
100
AcDbCircle
 10
186.3436343474
 20
202.9269578163
 30
0.0
 40
0.8000000000000114
100
AcDbArc
 50
180.0
 51
270.0
  0
ARC
  5
22B
330
1F
100
AcDbEntity
  8
0
  6
SLD-Durchgehend
 62
     7
370
    15
100
AcDbCircle
 10
188.5636343474
 20
202.9269578163
 30
0.0
 40
0.8000000000000114
100
AcDbArc
 50
270.0
 51
0.0
  0
ARC
  5
22C
330
1F
100
AcDbEntity
  8
0
  6
SLD-Durchgehend
 62
     7
370
    15
100
AcDbCircle
 10
186.3436343474
 20
146.3769578163
 30
0.0
 40
0.799999999999983
100
AcDbArc
 50
90.0
 51
180.0
  0
ARC
  5
22D
330
1F
100
AcDbEntity
  8
0
  6
SLD-Durchgehend
 62
     7
370
    15
100
AcDbCircle
 10
196.4036343474
 20
147.6519578163
 30
0.0
 40
1.0
100
AcDbArc
 50
90.0
 51
180.0
  0
ARC
  5
22E
330
1F
100
AcDbEntity
  8
0
  6
SLD-Durchgehend
 62
     7
370
    15
100
AcDbCircle
 10
196.4036343474
 20
201.6519578163
 30
0.0
 40
1.0
100
AcDbArc
 50
180.0
 51
270.0
  0
LINE
  5
22F
330
1F
100
AcDbEntity
  8
0
  6
SLD-Durchgehend
 62
     7
370
    15
100
AcDbLine
 10
188.5636343474
 20
202.1269578163
 30
0.0
 11
186.3436343474
 21
202.1269578163
 31
0.0
  0
LINE
  5
230
330
1F
100
AcDbEntity
  8
0
  6
SLD-Durchgehend
 62
     7
370
    15
100
AcDbLine
 10
186.3436343474
 20
147.1769578163
 30
0.0
 11
188.5636343474
 21
147.1769578163
 31
0.0
  0
LINE
  5
231
330
1F
100
AcDbEntity
  8
0
  6
SLD-Durchgehend
 62
     7
370
    15
100
AcDbLine
 10
196.4036343474
 20
148.6519578163
 30
0.0
 11
210.6863073595
 21
148.6519578163
 31
0.0
  0
LINE
  5
232
330
1F
100
AcDbEntity
  8
0
  6
SLD-Durchgehend
 62
     7
370
    15
100
AcDbLine
 10
210.6863073595
 20
200.6519578163
 30
0.0
 11
196.4036343474
 21
200.6519578163
 31
0.0
  0
ARC
  5
233
330
1F
100
AcDbEntity
  8
0
  6
SLD-Durchgehend
 62
     7
370
    15
100
AcDbCircle
 10
168.9536343474
 20
150.0815269546
 30
0.0
 40
0.6000000000000019
100
AcDbArc
 50
33.5573097619
 51
90.0
  0
ARC
  5
234
330
1F
100
AcDbEntity
  8
0
  6
SLD-Durchgehend
 62
     7
370
    15
100
AcDbCircle
 10
168.9536343474
 20
199.222388678
 30
0.0
 40
0.6000000000000019
100
AcDbArc
 50
270.0
 51
326.4426902381
  0
LINE
  5
235
330
1F
100
AcDbEntity
  8
0
  6
SLD-Durchgehend
 62
     7
370
    15
100
AcDbLine
 10
167.4536343474
 20
150.4315269546
 30
0.0
 11
168.3103471208
 21
150.6610824504
 31
0.0
  0
LINE
  5
236
330
1F
100
AcDbEntity
  8
0
  6
SLD-Durchgehend
 62
     7
370
    15
100
AcDbLine
 10
168.3103471208
 20
198.6428331823
 30
0.0
 11
167.4536343474
 21
198.872388678
 31
0.0
  0
LINE
  5
237
330
1F
100
AcDbEntity
  8
0
  6
SLD-Durchgehend
 62
     7
370
    15
100
AcDbLine
 10
167.4536343474
 20
198.872388678
 30
0.0
 11
138.693589417
 21
197.4315046635
 31
0.0
  0
LINE
  5
238
330
1F
100
AcDbEntity
  8
0
  6
SLD-Durchgehend
 62
     7
370
    15
100
AcDbLine
 10
138.693589417
 20
151.8724109691
 30
0.0
 11
167.4536343474
 21
150.4315269546
 31
0.0
  0
ARC
  5
239
330
1F
100
AcDbEntity
  8
0
  6
SLD-Durchgehend
 62
     7
370
    15
100
AcDbCircle
 10
168.4656385479
 20
150.0815269546
 30
0.0
 40
0.6000000000000208
100
AcDbArc
 50
90.0
 51
105.0
  0
ARC
  5
23A
330
1F
100
AcDbEntity
  8
0
  6
SLD-Durchgehend
 62
     7
370
    15
100
AcDbCircle
 10
168.4656385479
 20
199.222388678
 30
0.0
 40
0.6000000000000227
100
AcDbArc
 50
255.0
 51
270.0
  0
LINE
  5
23B
330
1F
100
AcDbEntity
  8
0
  6
SLD-Durchgehend
 62
     7
370
    15
100
AcDbLine
 10
168.4656385479
 20
150.6815269546
 30
0.0
 11
168.9536343474
 21
150.6815269546
 31
0.0
  0
LINE
  5
23C
330
1F
100
AcDbEntity
  8
0
  6
SLD-Durchgehend
 62
     7
370
    15
100
AcDbLine
 10
168.9536343474
 20
198.622388678
 30
0.0
 11
168.4656385479
 21
198.622388678
 31
0.0
  0
ARC
  5
23D
330
1F
100
AcDbEntity
  8
0
  6
SLD-Durchgehend
 62
     7
370
    15
100
AcDbCircle
 10
138.7536343474
 20
196.2330078523
 30
0.0
 40
1.200000000000017
100
AcDbArc
 50
92.8681319407
 51
180.0
  0
ARC
  5
23E
330
1F
100
AcDbEntity
  8
0
  6
SLD-Durchgehend
 62
     7
370
    15
100
AcDbCircle
 10
138.7536343474
 20
153.0709077803
 30
0.0
 40
1.200000000000017
100
AcDbArc
 50
180.0
 51
267.1318680593
  0
ARC
  5
23F
330
1F
100
AcDbEntity
  8
0
  6
SLD-Durchgehend
 62
     7
370
    15
100
AcDbCircle
 10
210.6863073595
 20
147.6519578163
 30
0.0
 40
1.0
100
AcDbArc
 50
15.0
 51
90.0
  0
LWPOLYLINE
  5
240
330
1F
100
AcDbEntity
  8
0
  6
SLD-Durchgehend
 62
     7
370
    15
100
AcDbPolyline
 90
       29
 70
   128
 43
0.0
 10
271.6010161696
 20
186.6256400065
 10
271.6154803846
 20
187.3280163907
 10
271.635288314
 20
188.0899758856
 10
271.6594467054
 20
188.8733106602
 10
271.6867441564
 20
189.6387410381
 10
271.7158118586
 20
190.347885144
 10
271.7451922361
 20
190.9651835313
 10
271.7734120341
 20
191.4596822812
 10
271.7990561941
 20
191.8065851616
 10
271.8208388108
 20
191.9884970135
 10
271.837667613
 20
191.996296017
 10
271.8486987341
 20
191.8295910976
 10
271.8533790276
 20
191.496741536
 10
271.8514738042
 20
191.0144377991
 10
271.8430785997
 20
190.4068646101
 10
271.8286143847
 20
189.7044882259
 10
271.8088064553
 20
188.942528731
 10
271.7846480639
 20
188.1591939564
 10
271.7573506129
 20
187.3937635785
 10
271.7282829107
 20
186.6846194726
 10
271.6989025332
 20
186.0673210853
 10
271.6706827352
 20
185.5728223354
 10
271.6450385752
 20
185.225919455
 10
271.6232559585
 20
185.0440076031
 10
271.6064271563
 20
185.0362085995
 10
271.5953960352
 20
185.202913519
 10
271.5907157417
 20
185.5357630806
 10
271.5926209651
 20
186.0180668175
 10
271.6010161696
 20
186.6256400065
  0
LWPOLYLINE
  5
241
330
1F
100
AcDbEntity
  8
0
  6
SLD-Durchgehend
 62
     7
370
    15
100
AcDbPolyline
 90
       27
 70
   128
 43
0.0
 10
271.6183063432
 20
186.8957274782
 10
271.6318571823
 20
187.546596041
 10
271.6506495482
 20
188.2538175016
 10
271.6735912968
 20
188.9762907193
 10
271.6993491371
 20
189.6720281766
 10
271.7264261171
 20
190.3005961416
 10
271.753248621
 20
190.8254645288
 10
271.7782578225
 20
191.2161298954
 10
271.8000002777
 20
191.4498881903
 10
271.817212394
 20
191.513154231
 10
271.828893866
 20
191.4022512253
 10
271.8343658088
 20
191.1236244528
 10
271.833310213
 20
190.6934666886
 10
271.8257884261
 20
190.1367771384
 10
271.812237587
 20
189.4859085756
 10
271.7934452211
 20
188.778687115
 10
271.7705034725
 20
188.0562138973
 10
271.7447456322
 20
187.36047644
 10
271.7176686522
 20
186.731908475
 10
271.6908461483
 20
186.2070400878
 10
271.6658369468
 20
185.8163747212
 10
271.6440944916
 20
185.5826164263
 10
271.6268823753
 20
185.5193503856
 10
271.6152009033
 20
185.6302533913
 10
271.6097289605
 20
185.9088801638
 10
271.6107845563
 20
186.339037928
 10
271.6183063432
 20
186.8957274782
  0
LINE
  5
242
330
1F
100
AcDbEntity
  8
0
  6
SLD-Durchgehend
 62
     7
370
    15
100
AcDbLine
 10
251.4536343474
 20
174.4019578163
 30
0.0
 11
263.4536343474
 21
174.4019578163
 31
0.0
  0
LINE
  5
243
330
1F
100
AcDbEntity
  8
0
  6
SLD-Durchgehend
 62
     7
370
    15
100
AcDbLine
 10
253.2036343474
 20
172.6519578163
 30
0.0
 11
261.7036343474
 21
172.6519578163
 31
0.0
  0
LINE
  5
244
330
1F
100
AcDbEntity
  8
0
  6
SLD-Durchgehend
 62
     7
370
    15
100
AcDbLine
 10
222.0587945364
 20
174.4019578163
 30
0.0
 11
233.4536343474
 21
174.4019578163
 31
0.0
  0
LINE
  5
245
330
1F
100
AcDbEntity
  8
0
  6
SLD-Durchgehend
 62
     7
370
    15
100
AcDbLine
 10
221.4536343474
 20
174.4019578163
 30
0.0
 11
222.0587945364
 21
174.4019578163
 31
0.0
  0
LINE
  5
246
330
1F
100
AcDbEntity
  8
0
  6
SLD-Durchgehend
 62
     7
370
    15
100
AcDbLine
 10
223.6322894813
 20
172.6519578163
 30
0.0
 11
231.7036343474
 21
172.6519578163
 31
0.0
  0
LINE
  5
247
330
1F
100
AcDbEntity
  8
0
  6
SLD-Durchgehend
 62
     7
370
    15
100
AcDbLine
 10
223.2036343474
 20
172.6519578163
 30
0.0
 11
223.6322894813
 21
172.6519578163
 31
0.0
  0
LINE
  5
248
330
1F
100
AcDbEntity
  8
0
  6
SLD-Durchgehend
 62
     7
370
    15
100
AcDbLine
 10
218.1523641582
 20
126.6519578163
 30
0.0
 11
269.4536343474
 21
126.6519578163
 31
0.0
  0
LINE
  5
249
330
1F
100
AcDbEntity
  8
0
  6
SLD-Durchgehend
 62
     7
370
    15
100
AcDbLine
 10
218.1523641582
 20
143.0133737772
 30
0.0
 11
218.1523641582
 21
126.6519578163
 31
0.0
  0
LINE
  5
24A
330
1F
100
AcDbEntity
  8
0
  6
SLD-Durchgehend
 62
     7
370
    15
100
AcDbLine
 10
269.4536343474
 20
143.0133737772
 30
0.0
 11
218.1523641582
 21
143.0133737772
 31
0.0
  0
LINE
  5
24B
330
1F
100
AcDbEntity
  8
0
  6
SLD-Durchgehend
 62
     7
370
    15
100
AcDbLine
 10
269.4536343474
 20
143.0133737772
 30
0.0
 11
269.4536343474
 21
126.6519578163
 31
0.0
  0
LINE
  5
24C
330
1F
100
AcDbEntity
  8
0
  6
SLD-Durchgehend
 62
     7
370
    15
100
AcDbLine
 10
218.1523641582
 20
126.6519578163
 30
0.0
 11
217.3506866967
 21
126.6519578163
 31
0.0
  0
LINE
  5
24D
330
1F
100
AcDbEntity
  8
0
  6
SLD-Durchgehend
 62
     7
370
    15
100
AcDbLine
 10
212.2989496009
 20
149.6519578163
 30
0.0
 11
211.6522331858
 21
152.5139642563
 31
0.0
  0
LINE
  5
24E
330
1F
100
AcDbEntity
  8
0
  6
SLD-Durchgehend
 62
     7
370
    15
100
AcDbLine
 10
217.126093473
 20
149.6519578163
 30
0.0
 11
212.2989496009
 21
149.6519578163
 31
0.0
  0
LINE
  5
24F
330
1F
100
AcDbEntity
  8
0
  6
SLD-Durchgehend
 62
     7
370
    15
100
AcDbLine
 10
218.1523641582
 20
143.0133737772
 30
0.0
 11
217.126093473
 21
149.6519578163
 31
0.0
  0
ARC
  5
250
330
1F
100
AcDbEntity
  8
0
  6
SLD-Durchgehend
 62
     7
370
    15
100
AcDbCircle
 10
394.2867710149
 20
173.4676341792
 30
0.0
 40
179.0918203632016
100
AcDbArc
 50
171.2693337479
 51
179.3011650204
  0
LINE
  5
251
330
1F
100
AcDbEntity
  8
0
  6
SLD-Durchgehend
 62
     7
370
    15
100
AcDbLine
 10
217.2701258388
 20
200.6519578163
 30
0.0
 11
269.4536343474
 21
200.6519578163
 31
0.0
  0
LINE
  5
252
330
1F
100
AcDbEntity
  8
0
  6
SLD-Durchgehend
 62
     7
370
    15
100
AcDbLine
 10
269.4536343474
 20
200.6519578163
 30
0.0
 11
269.4536343474
 21
175.6519578163
 31
0.0
  0
LINE
  5
253
330
1F
100
AcDbEntity
  8
0
  6
SLD-Durchgehend
 62
     7
370
    15
100
AcDbLine
 10
215.2082718832
 20
175.6519578163
 30
0.0
 11
269.4536343474
 21
175.6519578163
 31
0.0
  0
LINE
  5
254
330
1F
100
AcDbEntity
  8
0
  6
SLD-Durchgehend
 62
     7
370
    15
100
AcDbLine
 10
217.2701258388
 20
200.6519578163
 30
0.0
 11
211.6522331857
 21
200.6519578163
 31
0.0
  0
LINE
  5
255
330
1F
100
AcDbEntity
  8
0
  6
SLD-Durchgehend
 62
     7
370
    15
100
AcDbLine
 10
211.6522331857
 20
175.6519578163
 30
0.0
 11
215.2082718832
 21
175.6519578163
 31
0.0
  0
LINE
  5
256
330
1F
100
AcDbEntity
  8
0
  6
SLD-Durchgehend
 62
     7
370
    15
100
AcDbLine
 10
269.4536343474
 20
149.6519578163
 30
0.0
 11
269.4536343474
 21
143.0133737772
 31
0.0
  0
LINE
  5
257
330
1F
100
AcDbEntity
  8
0
  6
SLD-Durchgehend
 62
     7
370
    15
100
AcDbLine
 10
269.4536343474
 20
149.6519578163
 30
0.0
 11
217.126093473
 21
149.6519578163
 31
0.0
  0
LINE
  5
258
330
1F
100
AcDbEntity
  8
0
  6
SLD-Durchgehend
 62
     7
370
    15
100
AcDbLine
 10
184.0617015159
 20
183.6519578163
 30
0.0
 11
184.0617015159
 21
206.1519578163
 31
0.0
  0
LINE
  5
259
330
1F
100
AcDbEntity
  8
0
  6
SLD-Durchgehend
 62
     7
370
    15
100
AcDbLine
 10
184.0617015159
 20
183.6519578163
 30
0.0
 11
182.4036343474
 21
183.6519578163
 31
0.0
  0
ARC
  5
25A
330
1F
100
AcDbEntity
  8
0
  6
SLD-Durchgehend
 62
     7
370
    15
100
AcDbCircle
 10
182.4050655921
 20
175.6505265717
 30
0.0
 40
8.001431372643937
100
AcDbArc
 50
90.010248701
 51
179.989751299
  0
LINE
  5
25B
330
1F
100
AcDbEntity
  8
0
  6
SLD-Durchgehend
 62
     7
370
    15
100
AcDbLine
 10
174.4036343474
 20
175.6519578163
 30
0.0
 11
174.4036343474
 21
173.6519578163
 31
0.0
  0
ARC
  5
25C
330
1F
100
AcDbEntity
  8
0
  6
SLD-Durchgehend
 62
     7
370
    15
100
AcDbCircle
 10
182.4051440715
 20
173.6534675404
 30
0.0
 40
8.001509866510247
100
AcDbArc
 50
180.010810562
 51
269.989189438
  0
LINE
  5
25D
330
1F
100
AcDbEntity
  8
0
  6
SLD-Durchgehend
 62
     7
370
    15
100
AcDbLine
 10
182.4036343474
 20
165.6519578163
 30
0.0
 11
184.0617015159
 21
165.6519578163
 31
0.0
  0
LINE
  5
25E
330
1F
100
AcDbEntity
  8
0
  6
SLD-Durchgehend
 62
     7
370
    15
100
AcDbLine
 10
184.0617015159
 20
143.1519578163
 30
0.0
 11
184.0617015159
 21
165.6519578163
 31
0.0
  0
LWPOLYLINE
  5
25F
330
1F
100
AcDbEntity
  8
0
  6
SLD-Durchgehend
 62
     7
370
    15
100
AcDbPolyline
 90
       11
 70
   128
 43
0.0
 10
171.4536343474
 20
143.1519578163
 10
171.7314034912
 20
143.1948526688
 10
172.5315920109
 20
143.3049896042
 10
173.7754386214
 20
143.4362128733
 10
175.3311337675
 20
143.5310643916
 10
177.0027317618
 20
143.546467819
 10
178.597346536
 20
143.4775211422
 10
179.9594688176
 20
143.3543400902
 10
180.9425798374
 20
143.229026196
 10
181.4191345466
 20
143.1574155553
 10
181.3897695526
 20
143.1620073569
  0
LINE
  5
260
330
1F
100
AcDbEntity
  8
0
  6
SLD-Durchgehend
 62
     7
370
    15
100
AcDbLine
 10
169.4536343474
 20
174.6519578163
 30
0.0
 11
169.4536343474
 21
205.8519578163
 31
0.0
  0
LINE
  5
261
330
1F
100
AcDbEntity
  8
0
  6
SLD-Durchgehend
 62
     7
370
    15
100
AcDbLine
 10
169.4536343474
 20
143.4519578163
 30
0.0
 11
169.4536343474
 21
174.6519578163
 31
0.0
  0
LINE
  5
262
330
1F
100
AcDbEntity
  8
0
  6
SLD-Durchgehend
 62
     7
370
    15
100
AcDbLine
 10
195.4036343474
 20
183.6519578163
 30
0.0
 11
195.4036343474
 21
205.5519578163
 31
0.0
  0
LINE
  5
263
330
1F
100
AcDbEntity
  8
0
  6
SLD-Durchgehend
 62
     7
370
    15
100
AcDbLine
 10
195.4036343474
 20
183.6519578163
 30
0.0
 11
194.8036343474
 21
183.6519578163
 31
0.0
  0
LINE
  5
264
330
1F
100
AcDbEntity
  8
0
  6
SLD-Durchgehend
 62
     7
370
    15
100
AcDbLine
 10
195.4036343474
 20
143.7519578163
 30
0.0
 11
195.4036343474
 21
165.6519578163
 31
0.0
  0
LINE
  5
265
330
1F
100
AcDbEntity
  8
0
  6
SLD-Durchgehend
 62
     7
370
    15
100
AcDbLine
 10
194.8036343474
 20
165.6519578163
 30
0.0
 11
195.4036343474
 21
165.6519578163
 31
0.0
  0
LINE
  5
266
330
1F
100
AcDbEntity
  8
0
  6
SLD-Durchgehend
 62
     7
370
    15
100
AcDbLine
 10
190.8455671789
 20
143.1519578163
 30
0.0
 11
190.8455671789
 21
165.6519578163
 31
0.0
  0
LINE
  5
267
330
1F
100
AcDbEntity
  8
0
  6
SLD-Durchgehend
 62
     7
370
    15
100
AcDbLine
 10
190.8455671789
 20
165.6519578163
 30
0.0
 11
194.8036343474
 21
165.6519578163
 31
0.0
  0
LINE
  5
268
330
1F
100
AcDbEntity
  8
0
  6
SLD-Durchgehend
 62
     7
370
    15
100
AcDbLine
 10
190.8455671789
 20
183.6519578163
 30
0.0
 11
190.8455671789
 21
206.1519578163
 31
0.0
  0
LINE
  5
269
330
1F
100
AcDbEntity
  8
0
  6
SLD-Durchgehend
 62
     7
370
    15
100
AcDbLine
 10
194.8036343474
 20
183.6519578163
 30
0.0
 11
190.8455671789
 21
183.6519578163
 31
0.0
  0
LINE
  5
26A
330
1F
100
AcDbEntity
  8
0
  6
SLD-Durchgehend
 62
     7
370
    15
100
AcDbLine
 10
189.3636343474
 20
145.7187407738
 30
0.0
 11
189.3636343474
 21
165.6519578163
 31
0.0
  0
LINE
  5
26B
330
1F
100
AcDbEntity
  8
0
  6
SLD-Durchgehend
 62
     7
370
    15
100
AcDbLine
 10
189.3636343474
 20
165.6519578163
 30
0.0
 11
190.8455671789
 21
165.6519578163
 31
0.0
  0
LINE
  5
26C
330
1F
100
AcDbEntity
  8
0
  6
SLD-Durchgehend
 62
     7
370
    15
100
AcDbLine
 10
189.3636343474
 20
183.6519578163
 30
0.0
 11
189.3636343474
 21
203.5851748588
 31
0.0
  0
LINE
  5
26D
330
1F
100
AcDbEntity
  8
0
  6
SLD-Durchgehend
 62
     7
370
    15
100
AcDbLine
 10
190.8455671789
 20
183.6519578163
 30
0.0
 11
189.3636343474
 21
183.6519578163
 31
0.0
  0
LINE
  5
26E
330
1F
100
AcDbEntity
  8
0
  6
SLD-Durchgehend
 62
     7
370
    15
100
AcDbLine
 10
185.5436343474
 20
183.6519578163
 30
0.0
 11
185.5436343474
 21
203.5851748588
 31
0.0
  0
LINE
  5
26F
330
1F
100
AcDbEntity
  8
0
  6
SLD-Durchgehend
 62
     7
370
    15
100
AcDbLine
 10
185.5436343474
 20
183.6519578163
 30
0.0
 11
184.0617015159
 21
183.6519578163
 31
0.0
  0
LINE
  5
270
330
1F
100
AcDbEntity
  8
0
  6
SLD-Durchgehend
 62
     7
370
    15
100
AcDbLine
 10
185.5436343474
 20
145.7187407738
 30
0.0
 11
185.5436343474
 21
165.6519578163
 31
0.0
  0
LINE
  5
271
330
1F
100
AcDbEntity
  8
0
  6
SLD-Durchgehend
 62
     7
370
    15
100
AcDbLine
 10
184.0617015159
 20
165.6519578163
 30
0.0
 11
185.5436343474
 21
165.6519578163
 31
0.0
  0
LWPOLYLINE
  5
272
330
1F
100
AcDbEntity
  8
0
  6
SLD-Durchgehend
 62
     7
370
    15
100
AcDbPolyline
 90
        7
 70
   128
 43
0.0
 10
188.5636343474
 20
167.0417262167
 10
188.6332508701
 20
167.0307770591
 10
188.7216576627
 20
166.9850147043
 10
188.841802878
 20
166.8634317688
 10
189.0697465952
 20
166.4140242702
 10
189.1345935267
 20
166.2174360594
 10
189.2659595451
 20
165.6519578163
  0
LWPOLYLINE
  5
273
330
1F
100
AcDbEntity
  8
0
  6
SLD-Durchgehend
 62
     7
370
    15
100
AcDbPolyline
 90
        6
 70
   128
 43
0.0
 10
186.3436343474
 20
182.2621894159
 10
186.2777894082
 20
182.2719830557
 10
186.1902525748
 20
182.3155979457
 10
186.0722601941
 20
182.4316978868
 10
185.8494612598
 20
182.8577263779
 10
185.6413091498
 20
183.6519578163
  0
LWPOLYLINE
  5
274
330
1F
100
AcDbEntity
  8
0
  6
SLD-Durchgehend
 62
     7
370
    15
100
AcDbPolyline
 90
        6
 70
   128
 43
0.0
 10
189.2659595451
 20
183.6519578163
 10
189.0092643168
 20
182.738105877
 10
188.8262920006
 20
182.4207722359
 10
188.7106124467
 20
182.3112066039
 10
188.6309565914
 20
182.272427963
 10
188.5636343474
 20
182.2621894159
  0
LWPOLYLINE
  5
275
330
1F
100
AcDbEntity
  8
0
  6
SLD-Durchgehend
 62
     7
370
    15
100
AcDbPolyline
 90
        7
 70
   128
 43
0.0
 10
185.6413091498
 20
165.6519578163
 10
185.7005642589
 20
165.9438508969
 10
185.934337082
 20
166.6446236787
 10
186.1444707377
 20
166.9512869245
 10
186.2323905979
 20
167.0137139186
 10
186.3119388835
 20
167.0394588337
 10
186.3436343474
 20
167.0417262167
  0
ARC
  5
276
330
1F
100
AcDbEntity
  8
0
  6
SLD-Durchgehend
 62
     7
370
    15
100
AcDbCircle
 10
211.4536343474
 20
170.4519578163
 30
0.0
 40
5.199999999989984
100
AcDbArc
 50
90.0
 51
98.4857183299
  0
LINE
  5
277
330
1F
100
AcDbEntity
  8
0
  6
SLD-Durchgehend
 62
     7
370
    15
100
AcDbLine
 10
210.6863073595
 20
200.6519578163
 30
0.0
 11
211.6522331857
 21
200.6519578163
 31
0.0
  0
LINE
  5
278
330
1F
100
AcDbEntity
  8
0
  6
SLD-Durchgehend
 62
     7
370
    15
100
AcDbLine
 10
211.6522331857
 20
175.6519578163
 30
0.0
 11
211.4536343474
 21
175.6519578163
 31
0.0
  0
ARC
  5
279
330
1F
100
AcDbEntity
  8
0
  6
SLD-Durchgehend
 62
     7
370
    15
100
AcDbCircle
 10
99.6436509172
 20
174.6519578163
 30
0.0
 40
95.92713081587719
100
AcDbArc
 50
356.6171730796
 51
3.3828269204
  0
LINE
  5
27A
330
1F
100
AcDbEntity
  8
0
  6
SLD-Durchgehend
 62
     7
370
    15
100
AcDbLine
 10
188.5636343474
 20
182.2621894159
 30
0.0
 11
186.3436343474
 21
182.2621894159
 31
0.0
  0
LINE
  5
27B
330
1F
100
AcDbEntity
  8
0
  6
SLD-Durchgehend
 62
     7
370
    15
100
AcDbLine
 10
186.3436343474
 20
167.0417262167
 30
0.0
 11
188.5636343474
 21
167.0417262167
 31
0.0
  0
LINE
  5
27C
330
1F
100
AcDbEntity
  8
0
  6
SLD-Durchgehend
 62
     7
370
    15
100
AcDbLine
 10
195.4036343474
 20
180.3123464955
 30
0.0
 11
195.4036343474
 21
183.6519578163
 31
0.0
  0
LINE
  5
27D
330
1F
100
AcDbEntity
  8
0
  6
SLD-Durchgehend
 62
     7
370
    15
100
AcDbLine
 10
195.4036343474
 20
165.6519578163
 30
0.0
 11
195.4036343474
 21
168.9915691371
 31
0.0
  0
LINE
  5
27E
330
1F
100
AcDbEntity
  8
0
  6
SLD-Durchgehend
 62
     7
370
    15
100
AcDbLine
 10
206.4560630342
 20
153.4151972347
 30
0.0
 11
210.6863073595
 21
153.4151972347
 31
0.0
  0
LINE
  5
27F
330
1F
100
AcDbEntity
  8
0
  6
SLD-Durchgehend
 62
     7
370
    15
100
AcDbLine
 10
210.4536343474
 20
159.9548981452
 30
0.0
 11
210.4536343475
 21
165.3490174874
 31
0.0
  0
ARC
  5
280
330
1F
100
AcDbEntity
  8
0
  6
SLD-Durchgehend
 62
     7
370
    15
100
AcDbCircle
 10
211.4534466914
 20
154.8520725262
 30
0.0
 40
5.199851345992506
100
AcDbArc
 50
101.0857031422
 51
196.0412933963
  0
ARC
  5
281
330
1F
100
AcDbEntity
  8
0
  6
SLD-Durchgehend
 62
     7
370
    15
100
AcDbCircle
 10
211.4536343474
 20
170.4519578163
 30
0.0
 40
5.200000000000014
100
AcDbArc
 50
98.4857183299
 51
258.9125107892
  0
LINE
  5
282
330
1F
100
AcDbEntity
  8
0
  6
SLD-Durchgehend
 62
     7
370
    15
100
AcDbLine
 10
211.4536343474
 20
160.0519578163
 30
0.0
 11
211.4536343474
 21
165.2519578163
 31
0.0
  0
LWPOLYLINE
  5
283
330
1F
100
AcDbEntity
  8
0
  6
SLD-Durchgehend
 62
     7
370
    15
100
AcDbPolyline
 90
        3
 70
   128
 43
0.0
 10
210.4536343474
 20
159.9548981452
 10
210.8871042827
 20
160.0210045065
 10
211.4536343474
 20
160.0519578163
  0
ARC
  5
284
330
1F
100
AcDbEntity
  8
0
  6
SLD-Durchgehend
 62
     7
370
    15
100
AcDbCircle
 10
211.4536343474
 20
170.4519578163
 30
0.0
 40
5.199999999998346
100
AcDbArc
 50
258.9125107892
 51
270.0
  0
LINE
  5
285
330
1F
100
AcDbEntity
  8
0
  6
SLD-Durchgehend
 62
     7
370
    15
100
AcDbLine
 10
167.4536343474
 20
174.6519578163
 30
0.0
 11
167.4536343474
 21
198.872388678
 31
0.0
  0
LINE
  5
286
330
1F
100
AcDbEntity
  8
0
  6
SLD-Durchgehend
 62
     7
370
    15
100
AcDbLine
 10
167.4536343474
 20
150.4315269546
 30
0.0
 11
167.4536343474
 21
174.6519578163
 31
0.0
  0
ARC
  5
287
330
1F
100
AcDbEntity
  8
0
  6
SLD-Durchgehend
 62
     7
370
    15
100
AcDbCircle
 10
136.8431625424
 20
143.5850954857
 30
0.0
 40
22.01409105368269
100
AcDbArc
 50
72.4492866562
 51
85.1519921902
  0
LWPOLYLINE
  5
288
330
1F
100
AcDbEntity
  8
0
  6
SLD-Durchgehend
 62
     7
370
    15
100
AcDbPolyline
 90
        3
 70
   128
 43
0.0
 10
143.4815079707
 20
164.5744398035
 10
144.2812470938
 20
164.2370088064
 10
146.2536343474
 20
163.5485006273
  0
LWPOLYLINE
  5
289
330
1F
100
AcDbEntity
  8
0
  6
SLD-Durchgehend
 62
     7
370
    15
100
AcDbPolyline
 90
        7
 70
   128
 43
0.0
 10
146.2536343474
 20
163.5485006273
 10
146.3304292862
 20
163.5367778961
 10
146.4065473621
 20
163.5495113847
 10
146.4933808786
 20
163.5945939493
 10
146.6122633364
 20
163.7140943421
 10
146.8327022545
 20
164.1677420229
 10
146.9289616946
 20
164.5150478176
  0
LWPOLYLINE
  5
28A
330
1F
100
AcDbEntity
  8
0
  6
SLD-Durchgehend
 62
     7
370
    15
100
AcDbPolyline
 90
        5
 70
   128
 43
0.0
 10
146.9289616946
 20
164.5150478176
 10
146.9896676483
 20
164.7284477935
 10
147.4276001614
 20
165.8727435662
 10
147.6536155591
 20
167.1120607468
 10
147.6536343474
 20
167.1226687227
  0
LINE
  5
28B
330
1F
100
AcDbEntity
  8
0
  6
SLD-Durchgehend
 62
     7
370
    15
100
AcDbLine
 10
147.6536343474
 20
167.1226687227
 30
0.0
 11
147.6536343474
 21
182.18124691
 31
0.0
  0
LWPOLYLINE
  5
28C
330
1F
100
AcDbEntity
  8
0
  6
SLD-Durchgehend
 62
     7
370
    15
100
AcDbPolyline
 90
        5
 70
   128
 43
0.0
 10
146.9289616946
 20
184.788867815
 10
146.9896676483
 20
184.5754678391
 10
147.4276001614
 20
183.4311720664
 10
147.6536155591
 20
182.1918548858
 10
147.6536343474
 20
182.18124691
  0
LWPOLYLINE
  5
28D
330
1F
100
AcDbEntity
  8
0
  6
SLD-Durchgehend
 62
     7
370
    15
100
AcDbPolyline
 90
        7
 70
   128
 43
0.0
 10
146.2536343474
 20
185.7554150053
 10
146.3304292862
 20
185.7671377365
 10
146.4065473621
 20
185.754404248
 10
146.4933808786
 20
185.7093216834
 10
146.6122633364
 20
185.5898212906
 10
146.8327022545
 20
185.1361736097
 10
146.9289616946
 20
184.788867815
  0
LWPOLYLINE
  5
28E
330
1F
100
AcDbEntity
  8
0
  6
SLD-Durchgehend
 62
     7
370
    15
100
AcDbPolyline
 90
        3
 70
   128
 43
0.0
 10
143.4815079707
 20
184.7294758291
 10
144.2812470938
 20
185.0669068262
 10
146.2536343474
 20
185.7554150053
  0
ARC
  5
28F
330
1F
100
AcDbEntity
  8
0
  6
SLD-Durchgehend
 62
     7
370
    15
100
AcDbCircle
 10
136.8431625424
 20
205.7188201469
 30
0.0
 40
22.0140910536848
100
AcDbArc
 50
274.8480078099
 51
287.5507133438
  0
LINE
  5
290
330
1F
100
AcDbEntity
  8
0
  6
SLD-Durchgehend
 62
     7
370
    15
100
AcDbLine
 10
138.693589417
 20
183.7959240689
 30
0.0
 11
138.7036343474
 21
183.7834867877
 31
0.0
  0
LINE
  5
291
330
1F
100
AcDbEntity
  8
0
  6
SLD-Durchgehend
 62
     7
370
    15
100
AcDbLine
 10
138.693589417
 20
165.5079915637
 30
0.0
 11
138.7036343474
 21
165.5204288449
 31
0.0
  0
LWPOLYLINE
  5
292
330
1F
100
AcDbEntity
  8
0
  6
SLD-Durchgehend
 62
     7
370
    15
100
AcDbPolyline
 90
       21
 70
   128
 43
0.0
 10
157.448784552
 20
171.6199631774
 10
156.541811717
 20
173.0186257312
 10
156.2212211063
 20
174.6659200625
 10
156.5518186678
 20
176.3108906411
 10
157.4674727392
 20
177.7029843608
 10
158.8398819858
 20
178.6246720814
 10
159.6355876187
 20
178.868663086
 10
160.4529368016
 20
178.9465142678
 10
161.2665497763
 20
178.8587905609
 10
162.0603919682
 20
178.6053895796
 10
163.4195002935
 20
177.6739299822
 10
164.320279326
 20
176.2812945275
 10
164.6380384821
 20
174.6376247536
 10
164.3074329376
 20
172.9945332426
 10
163.3964652663
 20
171.6064474437
 10
162.0339498067
 20
170.6862598815
 10
161.2413725267
 20
170.439649501
 10
160.427007873
 20
170.3573225271
 10
159.610549398
 20
170.44000826
 10
158.8157363995
 20
170.689037205
 10
157.448784552
 20
171.6199631774
  0
CIRCLE
  5
293
330
1F
100
AcDbEntity
  8
0
  6
SLD-Durchgehend
 62
     7
370
    15
100
AcDbCircle
 10
160.4536343474
 20
174.6519578163
 30
0.0
 40
3.749999999999903
  0
ARC
  5
294
330
1F
100
AcDbEntity
  8
0
  6
SLD-Durchgehend
 62
     7
370
    15
100
AcDbCircle
 10
146.2536343474
 20
169.8394578163
 30
0.0
 40
1.400000000000034
100
AcDbArc
 50
270.0
 51
0.0
  0
ARC
  5
295
330
1F
100
AcDbEntity
  8
0
  6
SLD-Durchgehend
 62
     7
370
    15
100
AcDbCircle
 10
146.2536343474
 20
179.4644578163
 30
0.0
 40
1.400000000000034
100
AcDbArc
 50
0.0
 51
90.0
  0
LWPOLYLINE
  5
296
330
1F
100
AcDbEntity
  8
0
  6
SLD-Durchgehend
 62
     7
370
    15
100
AcDbPolyline
 90
       11
 70
   128
 43
0.0
 10
137.5536343474
 20
166.5163141316
 10
137.5573679167
 20
166.3992305802
 10
137.6789146456
 20
165.7994415759
 10
137.8320152295
 20
165.4424409273
 10
137.9589470678
 20
165.2523093504
 10
138.0498380068
 20
165.1672123263
 10
138.1321583886
 20
165.127002734
 10
138.2196580038
 20
165.1208820682
 10
138.3264286981
 20
165.157411518
 10
138.5551975725
 20
165.3476094411
 10
138.693589417
 20
165.5079915637
  0
LINE
  5
297
330
1F
100
AcDbEntity
  8
0
  6
SLD-Durchgehend
 62
     7
370
    15
100
AcDbLine
 10
137.5536343474
 20
167.7755050067
 30
0.0
 11
137.5536343474
 21
166.5163141316
 31
0.0
  0
LINE
  5
298
330
1F
100
AcDbEntity
  8
0
  6
SLD-Durchgehend
 62
     7
370
    15
100
AcDbLine
 10
138.7036343474
 20
168.4394578163
 30
0.0
 11
137.5536343474
 21
167.7755050067
 31
0.0
  0
LINE
  5
299
330
1F
100
AcDbEntity
  8
0
  6
SLD-Durchgehend
 62
     7
370
    15
100
AcDbLine
 10
138.7036343474
 20
168.4394578163
 30
0.0
 11
138.7036343474
 21
165.5204288449
 31
0.0
  0
LWPOLYLINE
  5
29A
330
1F
100
AcDbEntity
  8
0
  6
SLD-Durchgehend
 62
     7
370
    15
100
AcDbPolyline
 90
       11
 70
   128
 43
0.0
 10
137.5536343474
 20
182.787601501
 10
137.5573679167
 20
182.9046850525
 10
137.6789146456
 20
183.5044740567
 10
137.8320152295
 20
183.8614747053
 10
137.9589470678
 20
184.0516062823
 10
138.0498380068
 20
184.1367033063
 10
138.1321583886
 20
184.1769128986
 10
138.2196580038
 20
184.1830335644
 10
138.3264286981
 20
184.1465041146
 10
138.5551975725
 20
183.9563061915
 10
138.693589417
 20
183.7959240689
  0
LINE
  5
29B
330
1F
100
AcDbEntity
  8
0
  6
SLD-Durchgehend
 62
     7
370
    15
100
AcDbLine
 10
137.5536343474
 20
182.787601501
 30
0.0
 11
137.5536343474
 21
196.2330078523
 31
0.0
  0
LINE
  5
29C
330
1F
100
AcDbEntity
  8
0
  6
SLD-Durchgehend
 62
     7
370
    15
100
AcDbLine
 10
138.7036343474
 20
180.8644578163
 30
0.0
 11
138.7036343474
 21
183.7834867877
 31
0.0
  0
LINE
  5
29D
330
1F
100
AcDbEntity
  8
0
  6
SLD-Durchgehend
 62
     7
370
    15
100
AcDbLine
 10
138.7036343474
 20
180.8644578163
 30
0.0
 11
137.5536343474
 21
181.5284106259
 31
0.0
  0
LINE
  5
29E
330
1F
100
AcDbEntity
  8
0
  6
SLD-Durchgehend
 62
     7
370
    15
100
AcDbLine
 10
137.5536343474
 20
181.5284106259
 30
0.0
 11
137.5536343474
 21
182.787601501
 31
0.0
  0
LINE
  5
29F
330
1F
100
AcDbEntity
  8
0
  6
SLD-Durchgehend
 62
     7
370
    15
100
AcDbLine
 10
137.5536343474
 20
153.0709077803
 30
0.0
 11
137.5536343474
 21
166.5163141316
 31
0.0
  0
LINE
  5
2A0
330
1F
100
AcDbEntity
  8
0
  6
SLD-Durchgehend
 62
     7
370
    15
100
AcDbLine
 10
146.2536343474
 20
168.4394578163
 30
0.0
 11
138.7036343474
 21
168.4394578163
 31
0.0
  0
LINE
  5
2A1
330
1F
100
AcDbEntity
  8
0
  6
SLD-Durchgehend
 62
     7
370
    15
100
AcDbLine
 10
146.2536343474
 20
180.8644578163
 30
0.0
 11
138.7036343474
 21
180.8644578163
 31
0.0
  0
LWPOLYLINE
  5
2A2
330
1F
100
AcDbEntity
  8
0
  6
SLD-Durchgehend
 62
     7
370
    15
100
AcDbPolyline
 90
        3
 70
   128
 43
0.0
 10
158.5531411939
 20
171.4312032356
 10
157.6376769146
 20
172.175491839
 10
157.0501380018
 20
173.1294993982
  0
LINE
  5
2A3
330
1F
100
AcDbEntity
  8
0
  6
SLD-Durchgehend
 62
     7
370
    15
100
AcDbLine
 10
163.1388641932
 20
177.2643877565
 30
0.0
 11
163.208636349
 21
177.1960615821
 31
0.0
  0
ARC
  5
2A4
330
1F
100
AcDbEntity
  8
0
  6
SLD-Durchgehend
 62
     7
370
    15
100
AcDbCircle
 10
142.3007709356
 20
169.7605224438
 30
0.0
 40
1.35303321695604
100
AcDbArc
 50
282.4796949207
 51
0.9077439791
  0
LINE
  5
2A5
330
1F
100
AcDbEntity
  8
0
  6
SLD-Durchgehend
 62
     7
370
    15
100
AcDbLine
 10
143.6536343474
 20
169.7819578163
 30
0.0
 11
143.6536343474
 21
179.5219578163
 31
0.0
  0
ARC
  5
2A6
330
1F
100
AcDbEntity
  8
0
  6
SLD-Durchgehend
 62
     7
370
    15
100
AcDbCircle
 10
142.3007709356
 20
179.5433931888
 30
0.0
 40
1.353033216956096
100
AcDbArc
 50
359.0922560209
 51
77.5203050793
  0
ARC
  5
2A7
330
1F
100
AcDbEntity
  8
0
  6
SLD-Durchgehend
 62
     7
370
    15
100
AcDbCircle
 10
210.6132014205
 20
152.3685958244
 30
0.0
 40
1.049151557349187
100
AcDbArc
 50
7.9644174957
 51
86.0043343638
  0
LINE
  5
2A8
330
1F
100
AcDbEntity
  8
0
  6
SLD-Durchgehend
 62
     7
370
    15
100
AcDbLine
 10
269.4536343474
 20
175.6519578163
 30
0.0
 11
269.4536343474
 21
149.6519578163
 31
0.0
  0
DIMENSION
  5
2A9
330
1F
100
AcDbEntity
  8
VERMASSUNG
100
AcDbDimension
  2
_D_10
 10
211.4536343474
 20
206.0026223497
 30
0.0
 11
238.2670013099
 21
206.0026223497
 31
0.0
 70
   160
  1
<>
 71
     2
 42
-1.0
  3
SLDDIMSTYLE0
100
AcDbAlignedDimension
 13
269.4536343474
 23
200.6519578163
 33
0.0
 14
211.4536343474
 24
165.2519578163
 34
0.0
100
AcDbRotatedDimension
  0
LINE
  5
2B3
330
1F
100
AcDbEntity
  8
VERMASSUNG
  6
SLD-Punktstrich
 62
     7
370
     0
100
AcDbLine
 10
135.4193708337
 20
174.6519578163
 30
0.0
 11
271.4536343474
 21
174.6519578163
 31
0.0
  0
OLE2FRAME
  5
2B4
330
1F
100
AcDbEntity
  8
0
100
AcDbOle2Frame
 70
     2
  3
Paintbrush-Bild
 10
13.8511154363
 20
38.264191557
 30
0.0
 11
51.6290888628
 21
31.9806341108
 31
0.0
 71
     2
 72
     0
 73
     1
 90
    12928
310
80552BED0767C5B32B40DDAF6807D121434000000000000000006FFBDDFB85D0
310
4940DDAF6807D121434000000000000000006FFBDDFB85D04940416F4BD60AFB
310
3F4000000000000000002BED0767C5B32B40416F4BD60AFB3F40000000000000
310
0000000000000100000000010000010000000100000000000100000000320000
310
D0CF11E0A1B11AE1000000000000000000000000000000003E000300FEFF0900
310
0600000000000000000000000100000001000000000000000010000002000000
310
01000000FEFFFFFF0000000000000000FFFFFFFFFFFFFFFFFFFFFFFFFFFFFFFF
310
FFFFFFFFFFFFFFFFFFFFFFFFFFFFFFFFFFFFFFFFFFFFFFFFFFFFFFFFFFFFFFFF
310
FFFFFFFFFFFFFFFFFFFFFFFFFFFFFFFFFFFFFFFFFFFFFFFFFFFFFFFFFFFFFFFF
310
FFFFFFFFFFFFFFFFFFFFFFFFFFFFFFFFFFFFFFFFFFFFFFFFFFFFFFFFFFFFFFFF
310
FFFFFFFFFFFFFFFFFFFFFFFFFFFFFFFFFFFFFFFFFFFFFFFFFFFFFFFFFFFFFFFF
310
FFFFFFFFFFFFFFFFFFFFFFFFFFFFFFFFFFFFFFFFFFFFFFFFFFFFFFFFFFFFFFFF
310
FFFFFFFFFFFFFFFFFFFFFFFFFFFFFFFFFFFFFFFFFFFFFFFFFFFFFFFFFFFFFFFF
310
FFFFFFFFFFFFFFFFFFFFFFFFFFFFFFFFFFFFFFFFFFFFFFFFFFFFFFFFFFFFFFFF
310
FFFFFFFFFFFFFFFFFFFFFFFFFFFFFFFFFFFFFFFFFFFFFFFFFFFFFFFFFFFFFFFF
310
FFFFFFFFFFFFFFFFFFFFFFFFFFFFFFFFFFFFFFFFFFFFFFFFFFFFFFFFFFFFFFFF
310
FFFFFFFFFFFFFFFFFFFFFFFFFFFFFFFFFFFFFFFFFFFFFFFFFFFFFFFFFFFFFFFF
310
FFFFFFFFFFFFFFFFFFFFFFFFFFFFFFFFFFFFFFFFFFFFFFFFFFFFFFFFFFFFFFFF
310
FFFFFFFFFFFFFFFFFFFFFFFFFFFFFFFFFFFFFFFFFFFFFFFFFFFFFFFFFFFFFFFF
310
FFFFFFFFFFFFFFFFFFFFFFFFFFFFFFFFFFFFFFFFFFFFFFFFFFFFFFFFFFFFFFFF
310
FDFFFFFFFEFFFFFFFEFFFFFFFEFFFFFF05000000060000000700000008000000
310
090000000A0000000B0000000C0000000D0000000E0000000F00000010000000
310
11000000120000001300000014000000150000001600000017000000FEFFFFFF
310
FFFFFFFFFFFFFFFFFFFFFFFFFFFFFFFFFFFFFFFFFFFFFFFFFFFFFFFFFFFFFFFF
310
FFFFFFFFFFFFFFFFFFFFFFFFFFFFFFFFFFFFFFFFFFFFFFFFFFFFFFFFFFFFFFFF
310
FFFFFFFFFFFFFFFFFFFFFFFFFFFFFFFFFFFFFFFFFFFFFFFFFFFFFFFFFFFFFFFF
310
FFFFFFFFFFFFFFFFFFFFFFFFFFFFFFFFFFFFFFFFFFFFFFFFFFFFFFFFFFFFFFFF
310
FFFFFFFFFFFFFFFFFFFFFFFFFFFFFFFFFFFFFFFFFFFFFFFFFFFFFFFFFFFFFFFF
310
FFFFFFFFFFFFFFFFFFFFFFFFFFFFFFFFFFFFFFFFFFFFFFFFFFFFFFFFFFFFFFFF
310
FFFFFFFFFFFFFFFFFFFFFFFFFFFFFFFFFFFFFFFFFFFFFFFFFFFFFFFFFFFFFFFF
310
FFFFFFFFFFFFFFFFFFFFFFFFFFFFFFFFFFFFFFFFFFFFFFFFFFFFFFFFFFFFFFFF
310
FFFFFFFFFFFFFFFFFFFFFFFFFFFFFFFFFFFFFFFFFFFFFFFFFFFFFFFFFFFFFFFF
310
FFFFFFFFFFFFFFFFFFFFFFFFFFFFFFFFFFFFFFFFFFFFFFFFFFFFFFFFFFFFFFFF
310
FFFFFFFFFFFFFFFFFFFFFFFFFFFFFFFFFFFFFFFFFFFFFFFFFFFFFFFFFFFFFFFF
310
FFFFFFFFFFFFFFFFFFFFFFFFFFFFFFFFFFFFFFFFFFFFFFFFFFFFFFFFFFFFFFFF
310
FFFFFFFFFFFFFFFFFFFFFFFFFFFFFFFFFFFFFFFFFFFFFFFFFFFFFFFFFFFFFFFF
310
52006F006F007400200045006E00740072007900000000000000000000000000
310
0000000000000000000000000000000000000000000000000000000000000000
310
16000500FFFFFFFFFFFFFFFF020000000A00030000000000C000000000000046
310
00000000000000000000000050DCBD741B0ED00103000000C000000000000000
310
01004F006C006500000000000000000000000000000000000000000000000000
310
0000000000000000000000000000000000000000000000000000000000000000
310
0A000200FFFFFFFFFFFFFFFFFFFFFFFF00000000000000000000000000000000
310
0000000000000000000000000000000000000000000000001400000000000000
310
010043006F006D0070004F0062006A0000000000000000000000000000000000
310
0000000000000000000000000000000000000000000000000000000000000000
310
120002010100000003000000FFFFFFFF00000000000000000000000000000000
310
0000000000000000000000000000000000000000010000004D00000000000000
310
01004F006C006500310030004E00610074006900760065000000000000000000
310
0000000000000000000000000000000000000000000000000000000000000000
310
1A000200FFFFFFFFFFFFFFFFFFFFFFFF00000000000000000000000000000000
310
0000000000000000000000000000000000000000040000002426000000000000
310
FEFFFFFF02000000FEFFFFFFFFFFFFFFFFFFFFFFFFFFFFFFFFFFFFFFFFFFFFFF
310
FFFFFFFFFFFFFFFFFFFFFFFFFFFFFFFFFFFFFFFFFFFFFFFFFFFFFFFFFFFFFFFF
310
FFFFFFFFFFFFFFFFFFFFFFFFFFFFFFFFFFFFFFFFFFFFFFFFFFFFFFFFFFFFFFFF
310
FFFFFFFFFFFFFFFFFFFFFFFFFFFFFFFFFFFFFFFFFFFFFFFFFFFFFFFFFFFFFFFF
310
FFFFFFFFFFFFFFFFFFFFFFFFFFFFFFFFFFFFFFFFFFFFFFFFFFFFFFFFFFFFFFFF
310
FFFFFFFFFFFFFFFFFFFFFFFFFFFFFFFFFFFFFFFFFFFFFFFFFFFFFFFFFFFFFFFF
310
FFFFFFFFFFFFFFFFFFFFFFFFFFFFFFFFFFFFFFFFFFFFFFFFFFFFFFFFFFFFFFFF
310
FFFFFFFFFFFFFFFFFFFFFFFFFFFFFFFFFFFFFFFFFFFFFFFFFFFFFFFFFFFFFFFF
310
FFFFFFFFFFFFFFFFFFFFFFFFFFFFFFFFFFFFFFFFFFFFFFFFFFFFFFFFFFFFFFFF
310
FFFFFFFFFFFFFFFFFFFFFFFFFFFFFFFFFFFFFFFFFFFFFFFFFFFFFFFFFFFFFFFF
310
FFFFFFFFFFFFFFFFFFFFFFFFFFFFFFFFFFFFFFFFFFFFFFFFFFFFFFFFFFFFFFFF
310
FFFFFFFFFFFFFFFFFFFFFFFFFFFFFFFFFFFFFFFFFFFFFFFFFFFFFFFFFFFFFFFF
310
FFFFFFFFFFFFFFFFFFFFFFFFFFFFFFFFFFFFFFFFFFFFFFFFFFFFFFFFFFFFFFFF
310
FFFFFFFFFFFFFFFFFFFFFFFFFFFFFFFFFFFFFFFFFFFFFFFFFFFFFFFFFFFFFFFF
310
FFFFFFFFFFFFFFFFFFFFFFFFFFFFFFFFFFFFFFFFFFFFFFFFFFFFFFFFFFFFFFFF
310
FFFFFFFFFFFFFFFFFFFFFFFFFFFFFFFFFFFFFFFFFFFFFFFFFFFFFFFFFFFFFFFF
310
0100000200000000000000000000000000000000000000000000000000000000
310
0000000000000000000000000000000000000000000000000000000000000000
310
0100FEFF030A0000FFFFFFFF0A00030000000000C00000000000004607000000
310
5042727573680007000000504272757368000700000050427275736800F439B2
310
7100000000000000000000000000000000000000000000000000000000000000
310
0000000000000000000000000000000000000000000000000000000000000000
310
0000000000000000000000000000000000000000000000000000000000000000
310
0000000000000000000000000000000000000000000000000000000000000000
310
0000000000000000000000000000000000000000000000000000000000000000
310
0000000000000000000000000000000000000000000000000000000000000000
310
0000000000000000000000000000000000000000000000000000000000000000
310
0000000000000000000000000000000000000000000000000000000000000000
310
0000000000000000000000000000000000000000000000000000000000000000
310
0000000000000000000000000000000000000000000000000000000000000000
310
0000000000000000000000000000000000000000000000000000000000000000
310
0000000000000000000000000000000000000000000000000000000000000000
310
20260000424D0E260000000000003E00000028000000B40200006E0000000100
310
01000000000000000000130B0000130B00000200000002000000000000FFFFFF
310
FFFFFFFFFFFFFFFFFFFFFFFFFFFFFFFFFFFFFFFFFFFFFFFFFFFFFFFFFFFFFFFF
310
FFFFFFFFFFFFFFFFFFFFFFFFFFFFFFFFFFFFFFFFFFFFFFFFFFFFFFFFFFFFFFFF
310
FFFFFFFFFFFFFFFFFFFFFFFFFFFFFFFFFFFFFFFFFFFFFFFFF000FFFFFFFFFFFF
310
FFFFFFFFFFFFFFFFFFFFFFFFFFFFFFFFFFFFFFFFFFFFFFFFFFFFFFFFFFFFFFFF
310
FFFFFFFFFFFFFFFFFFFFFFFFFFFFFFFFFFFFFFFFFFFFFFFFFFFFFFFFFFFFFFFF
310
FFFFFFFFFFFFFFFFFFFFFFFFFFFFFFFFF000FFFFFFFFFFFFFFFFFFFFFFFFFFFF
310
FFFFFFFFFFFFFFFFFFFFFFFFFFFFFFFFFFFFFFFFFFFFFFFFFFFFFFFFFFFFFFFF
310
FFFFFFFFFFFFFFFFFFFFFFFFFFFFFFFFFFFFFFFFFFFFFFFFFFFFFFFFFFFFFFFF
310
FFFFFFFFFFFFFFFFF000FFFFFFFFFFFFFFFFFFFFFFFFFFFFFFFFFFFFFFFFFFFF
310
FFFFFFFFFFFFFFFFFFFFFFFFFFFFFFFFFFFFFFFFFFFFFFFFFFFFFFFFFFFFFFFF
310
FFFFFFFFFFFFFFFFFFFFFFFFFFFFFFFFFFFFFFFFFFFFFFFFFFFFFFFFFFFFFFFF
310
F000FFFFFFFFFFFFFFFFFFFFFFFFFFFFFFFFFFFFFFFFFFFFFFFFFFFFFFFFFFFF
310
FFFFFFFFFFFFFFFFFFFFFFFFFFFFFFFFFFFFFFFFFFFFFFFFFFFFFFFFFFFFFFFF
310
FFFFFFFFFFFFFFFFFFFFFFFFFFFFFFFFFFFFFFFFFFFFFFFFF000FFFFFFFFFFFF
310
FFFFFFFFFFFFFFFFFFFFFFFFFFFFFFFFFFFFFFFFFFFFFFFFFFFFFFFFFFFFFFFF
310
FFFFFFFFFFFFFFFFFFFFFFFFFFFFFFFFFFFFFFFFFFFFFFFFFFFFFFFFFFFFFFFF
310
FFFFFFFFFFFFFFFFFFFFFFFFFFFFFFFFF000FFFFFFFFFFFFFFFFFFFFFFFFFFFF
310
FFFFFFFFFFFFFFFFFFFFFFFFFFFFFFFFFFFFFFFFFFFFFFFFFFFFFFFFFFFFFFFF
310
FFFFFFFFFFFFFFFFFFFFFFFFFFFFFFFFFFFFFFFFFFFFFFFFFFFFFFFFFFFFFFFF
310
FFFFFFFFFFFFFFFFF000FFFFFFFFFFFFFFFFFFFFFFFFFFFFFFFFFFFFFFFFFFFF
310
FFFFFFFFFFFFFFFFFFFFFFFFFFFFFFFFFFFFFFFFFFFFFFFFFFFFFFFFFFFFFFFF
310
FFFFFFFFFFFFFFFFFFFFFFFFFFFFFFFFFFFFFFFFFFFFFFFFFFFFFFFFFFFFFFFF
310
F000FFFFFFFFFFFFFFFFFFFFFFFFFFFFFFFFFFFFFFFFFFFFFFFFFFFFFFFFFFFF
310
FFFFFFFFFFFFFFFFFFFFFFFFFFFFFFFFFFFFFFFFFFFFFFFFFFFFFFFFFFFFFFFF
310
FFFFFFFFFFFFFFFFFFFFFFFFFFFFFFFFFFFFFFFFFFFFFFFFF000FFFFFFFFFFFF
310
FFFFFFFFFFFFFFFFFFFFFFFFFFFFFFFFFFFFFFFFFFFFFFFFFFFFFFFFFFFFFFFF
310
FFFFFFFFFFFFFFFFFFFFFFFFFFFFFFFFFFFFFFFFFFFFFFFFFFFFFFFFFFFFFFFF
310
FFFFFFFFFFFFFFFFFFFFFFFFFFFFFFFFF000FFFFFFFFFFFFFFFFFFFFFFFFFFFF
310
FFFFFFFFFFFFFFFFFFFFFFFFFFFFFFFFFFFFFFFFFFFFFFFFFFFFFFFFFFFFFFFF
310
FFFFFFFFFFFFFFFFFFFFFFFFFFFFFFFFFFFFFFFFFFFFFFFFFFFFFFFFFFFFFFFF
310
FFFFFFFFFFFFFFFFF000FFFFFFFFFFFFFFFFFFFFFFFFFFFFFFFFFFFFFFFFFFFF
310
FFFFFFFFFFFFFFFFFFFFFFFFFFFFFFFFFFFFFFFFFFFFFFFFFFFFFFFFFFFFFFFF
310
FFFFFFFFFFFFFFFFFFFFFFFFFFFFFFFFFFFFFFFFFFFFFFFFFFFFFFFFFFFFFFFF
310
F000FFFFFFFFFFFFFFFFFFFFFFFFFFFFFFFFFFFFFFFFFFFFFFFFFFFFFFFFFFFF
310
FFFFFFFFFFFFFFFFFFFFFFFFFFFFFFFFFFFFFFFFFFFFFFFFFFFFFFFFFFFFFFFF
310
FFFFFFFFFFFFFFFFFFFFFFFFFFFFFFFFFFFFFFFFFFFFFFFFF000FFFFFFFFFFFF
310
FFFFFFFFFFFFFFFFFFFFFFFFFFFFFFFFFFFFFFFFFFFFFFFFFFFFFFFFFFFFFFFF
310
FFFFFFFFFFFFFFFFFFFFFFFFFFFFFFFFFFFFFFFFFFFFFFFFFFFFFFFFFFFFFFFF
310
FFFFFFFFFFFFFFFFFFFFFFFFFFFFFFFFF000FFFFFFFFFFFFFFFFFFFFFFFFFFFF
310
FFFFFFFFFFFFFFFFFFFFFFFFFFFFFFFFFFFFFFFFFFFFFFFFFFFFFFFFFFFFFFFF
310
FFFFFFFFFFFFFFFFFFFFFFFFFFFFFFFFFFFFFFFFFFFFFFFFFFFFFFFFFFFFFFFF
310
FFFFFFFFFFFFFFFFF000FFFFFFFFFFFFFFFFFFFFFFFFFFFFFFFFFFFFFFFFFFFF
310
FFFFFFFFFFFFFFFFFFFFFFFFFFFFFFFFFFFFFFFFFFFFFFFFFFFFFFFFFFFFFFFF
310
FFFFFFFFFFFFFFFFFFFFFFFFFFFFFFFFFFFFFFFFFFFFFFFFFFFFFFFFFFFFFFFF
310
F000FFFFFFFFFFFFFFFFFFFFFFFFFFFFFFFFFFFFFFFFFFFFFFFFFFFFFFFFFFFF
310
FFFFFFFFFFFFFFFFFFFFFFFFFFFFFFFFFFFFFFFFFFFFFFFFFFFFFFFFFFFFFFFF
310
FFFFFFFFFFFFFFFFFFFFFFFFFFFFFFFFFFFFFFFFFFFFFFFFF000FFFFFFFFFFFF
310
FFFFFFFFFFFFFFFFFFFFFFFFFFFFFFFFFFFFFFFFFFFFFFFFFFFFFFFFFFFFFFFF
310
FFFFFFFFFFFFFFFFFFFFFFFFFFFFFFFFFFFFFFFFFFFFFFFFFFFFFFFFFFFFFFFF
310
FFFFFFFFFFFFFFFFFFFFFFFFFFFFFFFFF000FFFFFFFFFFFFFFFFFFFFFFFFFFFF
310
FFFFFFFFFFFFFFFFFFFFFFFFFFFFFFFFFFFFFFFFFFFFFFFFFFFFFFFFFFFFFFFF
310
FFFFFFFFFFFFFFFFFFFFFFFFFFFFFFFFFFFFFFFFFFFFFFFFFFFFFFFFFFFFFFFF
310
FFFFFFFFFFFFFFFFF000FFFFF80003FFFFFFFFFFFFFFFFFFFFFFFFFFFFFFFFFF
310
FFFFF00007FFFFFFFFFF00007FFFFFF800000000000000007FFFFFFFFFFFFFFF
310
FFFFFFFC001FFFFFFFFFFFFFFC001FFFFFFFFFFFFFFFFFFFFFFFFFFE0007FFFF
310
F000FFFF8000007FFFFFFFF8000FFFFFC0007FFFFF80007FFFFF0000007FFFFF
310
FFF8000007FFFFF800000000000000007FFFFFF0001FFFFFFFFFFFC00001FFFF
310
FFFFFFFFC00001FFFFFFFF000000000003FFFFE000007FFFF000FFFE0000000F
310
FFFFFFF0000FFFFF80007FFFFF80007FFFFC0000001FFFFFFFC0000001FFFFF8
310
00000000000000007FFFFFF0001FFFFFFFFFFE0000003FFFFFFFFFFE0000003F
310
FFFFFF000000000003FFFF0000000FFFF000FFF800000003FFFFFFF00007FFFF
310
80007FFFFF80007FFFF000000007FFFFFF000000003FFFF80000000000000000
310
7FFFFFF0001FFFFFFFFFF80000000FFFFFFFFFF80000000FFFFFFF0000000000
310
03FFFC00000003FFF000FFE000000000FFFFFFF00007FFFF80003FFFFF80007F
310
FFC000000001FFFFFC000000001FFFF800000000000000007FFFFFF0001FFFFF
310
FFFFE000000003FFFFFFFFE000000003FFFFFF000000000003FFF000000000FF
310
F000FF80000000007FFFFFF00007FFFF80003FFFFF80007FFF8000000000FFFF
310
F80000000007FFF800000000000000007FFFFFF0001FFFFFFFFFC000000001FF
310
FFFFFFC000000001FFFFFF000000000003FFC0000000007FF000FF0000000000
310
3FFFFFE00007FFFF00003FFFFF80007FFE00000000003FFFF00000000003FFF8
310
00000000000000007FFFFFF0001FFFFFFFFF8000000000FFFFFFFF8000000000
310
FFFFFF000000000003FF80000000003FF000FE00000000001FFFFFE00003FFFF
310
00003FFFFF80007FFC00000000001FFFE00000000001FFF8000001FFFE000000
310
7FFFFFF0001FFFFFFFFE00000000003FFFFFFE00000000003FFFFF0000000000
310
03FF00000000001FF000FC00000000000FFFFFE00003FFFF00001FFFFF80007F
310
F800000000001FFFC00000000000FFF8000001FFFE0000007FFFFFF0001FFFFF
310
FFFC00000000001FFFFFFC00000000001FFFFF000000000003FE00000000000F
310
F000F8000000000007FFFFE00003FFFF00001FFFFF80007FF800000000000FFF
310
800000000000FFF8000001FFFE0000007FFFFFF0001FFFFFFFF800000000000F
310
FFFFF800000000000FFFFF000000000003FC000000000007F000F80000000000
310
03FFFFC00003FFFE00001FFFFF80007FF0000000000007FF0000000000007FF8
310
000001FFFE0000007FFFFFF0001FFFFFFFF0000000000007FFFFF00000000000
310
07FFFF000000000003F8000000000003F000F0000000000003FFFFC00001FFFE
310
00001FFFFF80007FE0000000000007FE0000000000003FF8000001FFFE000000
310
7FFFFFF0001FFFFFFFF0000000000007FFFFF0000000000007FFFF0000000000
310
03F800001F800003F000E00001FFF00001FFFFC00001FFFE00000FFFFF80007F
310
E00001FFE00003FE00001FFF00003FF8000001FFFE0000007FFFFFF0001FFFFF
310
FFE000003E000003FFFFE000003E000003FFFF000000000003F00001FFF80001
310
F000E00007FFFC0001FFFFC00001FFFE00000FFFFF80007FC0000FFFFC0003FC
310
0000FFFFC0001FF8000001FFFE0000007FFFFFF0001FFFFFFFC00003FFE00001
310
FFFFC00003FFE00001FFFF0001FFFFFFFFF00007FFFE0001F000E0000FFFFF00
310
00FFFF800001FFFC00000FFFFF80007FC0001FFFFE0001FC0001FFFFE0001FF8
310
000001FFFE0000007FFFFFF0001FFFFFFF80000FFFF80000FFFF80000FFFF800
310
00FFFF0003FFFFFFFFE0000FFFFF8000F000C0003FFFFF8000FFFF800000FFFC
310
000007FFFF80007F80003FFFFF0001FC0003FFFFF0001FF8000001FFFE000000
310
7FFFFFF0001FFFFFFF80003FFFFE0000FFFF80003FFFFE0000FFFF0003FFFFFF
310
FFE0003FFFFF8000F000C0003FFFFF8000FFFF800000FFFC000007FFFF80007F
310
80007FFFFF8001F80007FFFFF8000FF8000001FFFE0000007FFFFFF0001FFFFF
310
FF00007FFFFF00007FFF00007FFFFF00007FFF0003FFFFFFFFE0003FFFFFC000
310
F000C0007FFFFFC000FFFF000000FFFC000007FFFF80007F8000FFFFFF8000F8
310
000FFFFFF8000FF8000001FFFE0000007FFFFFF0001FFFFFFF0000FFFFFF8000
310
7FFF0000FFFFFF80007FFF0003FFFFFFFFC0007FFFFFC00070008000FFFFFFC0
310
00FFFF000000FFF8000007FFFF80007F8000FFFFFF8000F8000FFFFFF8000FF8
310
000001FFFE0000007FFFFFF0001FFFFFFE0001FFFFFFC0003FFE0001FFFFFFC0
310
003FFF0003FFFFFFFFC0007FFFFFE00070008000FFFFFFC0007FFF0000007FF8
310
000003FFFF80007F0001FFFFFF8000F8000FFFFFF8000FF8000001FFFE000000
310
7FFFFFF0001FFFFFFE0001FFFFFFC0003FFE0001FFFFFFC0003FFF0003FFFFFF
310
FFC000FFFFFFE00070008000FFFFFFC0007FFF0000007FF8000003FFFF80007F
310
0001FFFFFF8000F8001FFFFFF8000FF8000001FFFE0000007FFFFFF0001FFFFF
310
FE0003FFFFFFE0003FFE0003FFFFFFE0003FFF0003FFFFFFFFC000FFFFFFE000
310
70008000FFFFFFC0007FFE0000007FF8000003FFFF80007F0001FFFFFF8000F0
310
001FFFFFF8000FF8000001FFFE0000007FFFFFF0001FFFFFFC0003FFFFFFE000
310
1FFC0003FFFFFFE0001FFF0003FFFFFFFFC000FFFFFFC00070008000FFFFFF80
310
007FFE0000007FF0000003FFFF80007F0001FFFFFF0000F0001FFFFFF8000FF8
310
000001FFFE0000007FFFFFF0001FFFFFFC0007FFFFFFF0001FFC0007FFFFFFF0
310
001FFF0003FFFFFFFFC000FFFFFFC00070008001FFFFFF0000FFFE0000003FF0
310
000001FFFF80007F0001FFFFFF0000F8001FFFFFF0000FF8000001FFFE000000
310
7FFFFFF0001FFFFFFC0007FFFFFFF0001FFC0007FFFFFFF0001FFF0003FFFFFF
310
FFC001FFFFFF80007000FFFFFFFFFE0000FFFE0008003FF0008001FFFF80007F
310
FFFFFFFFFC0000FFFFFFFFFFE0000FF8000001FFFE0000007FFFFFF0001FFFFF
310
F8000FFFFFFFF8000FF8000FFFFFFFF8000FFF0003FFFFFFFFFFFFFFFFFF0000
310
7000FFFFFFFFFC0000FFFC0008003FF0008001FFFF80007FFFFFFFFFF80001FF
310
FFFFFFFF80000FF8000001FFFE0000007FFFFFF0001FFFFFF8000FFFFFFFF800
310
0FF8000FFFFFFFF8000FFF0003FFFFFFFFFFFFFFFFFE0000F000FFFFFFFFE000
310
00FFFC000C003FE000C001FFFF80007FFFFFFFFFC00001FFFFFFFFFE00001FF8
310
000001FFFE0000007FFFFFF0001FFFFFF8000FFFFFFFF8000FF8000FFFFFFFF8
310
000FFF0003FFFFFFFFFFFFFFFFF00000F000FFFFFFFE000001FFFC000C001FE0
310
00C000FFFF80007FFFFFFFFE000001FFFFFFFFE000001FF80FFFFFFFFFFFFFC0
310
7FFFFFF0001FFFFFF8000FFFFFFFF8000FF8000FFFFFFFF8000FFF0003FFFFFF
310
FFFFFFFFFF800000F000FFFFFFC0000001FFFC001C001FE001C000FFFF80007F
310
FFFFFF80000003FFFFFFF80000001FF80FFFFFFFFFFFFFC07FFFFFF0001FFFFF
310
F8001FFFFFFFFC000FF8001FFFFFFFFC000FFF0003FFFFFFFFFFFFFFF0000001
310
F000FFFFF800000001FFF8001C001FE001C000FFFF80007FFFFFF800000003FF
310
FFFF800000003FF80FFFFFFFFFFFFFC07FFFFFF0001FFFFFF8001FFFFFFFFC00
310
0FF8001FFFFFFFFC000FFF0003FFFFFFFFFFFFFE00000001F000FFFFC0000000
310
03FFF8001E001FC001E000FFFF80007FFFFF8000000007FFFFFC000000003FF8
310
0FFFFFFFFFFFFFC07FFFFFF0001FFFFFF8001FFFFFFFFC000FF8001FFFFFFFFC
310
000FFF0003FFFFFFFFFFFFE000000003F000FFFE0000000007FFF8001E000FC0
310
01E0007FFF80007FFFFE0000000007FFFFE0000000007FF80FFFFFFFFFFFFFC0
310
7FFFFFF0001FFFFFF0001FFFFFFFFC0007F0001FFFFFFFFC0007FF0003FFFFFF
310
FFFFFF0000000003F000FFF80000000007FFF8001E000FC003E0007FFF80007F
310
FFF0000000000FFFFF8000000000FFF80FFFFFFFFFFFFFC07FFFFFF0001FFFFF
310
F0001FFFFFFFFC0007F0001FFFFFFFFC0007FF0003FFFFFFFFFFFC0000000007
310
F000FFE0000000000FFFF0003E000FC003E0007FFF80007FFFC0000000001FFF
310
FE0000000001FFF80FFFFFFFFFFFFFC07FFFFFF0001FFFFFF0001FFFFFFFFC00
310
07F0001FFFFFFFFC0007FF0003FFFFFFFFFFF0000000000FF000FFC000000000
310
1FFFF0003F000F8003F0003FFF80007FFF80000000003FFFF80000000003FFF8
310
0FFFFFFFFFFFFFC07FFFFFF0001FFFFFF0001FFFFFFFFC0007F0001FFFFFFFFC
310
0007FF0003FFFFFFFFFFE0000000001FF000FF00000000007FFFF0003F000780
310
03F0003FFF80007FFF00000000007FFFF00000000007FFF80FFFFFFFFFFFFFC0
310
7FFFFFF0001FFFFFF0001FFFFFFFFC0007F0001FFFFFFFFC0007FF0003FFFFFF
310
FFFF80000000007FF000FE0000000000FFFFE0003F00078007F0003FFF80007F
310
FE0000000001FFFFE0000000001FFFF80FFFFFFFFFFFFFC07FFFFFF0001FFFFF
310
F0001FFFFFFFFC0007F0001FFFFFFFFC0007FF0003FFFFFFFFFF0000000000FF
310
F000FC0000000003FFFFE0007F00078007F0003FFF80007FFC0000000007FFFF
310
C0000000007FFFF80FFFFFFFFFFFFFC07FFFFFF0001FFFFFF8001FFFFFFFFC00
310
0FF8001FFFFFFFFC000FFF0003FFFFFFFFFE0000000003FFF000FC000000000F
310
FFFFE0007F80070007F8001FFF80007FF8000000001FFFFF8000000001FFFFF8
310
0FFFFFFFFFFFFFC07FFFFFF0001FFFFFF8001FFFFFFFFC000FF8001FFFFFFFFC
310
000FFF0003FFFFFFFFFC000000000FFFF000F8000000007FFFFFE0007F800700
310
07F8001FFF80007FF000000000FFFFFF800000000FFFFFF80FFFFFFFFFFFFFC0
310
7FFFFFF0001FFFFFF8000FFFFFFFF8000FF8000FFFFFFFF8000FFF0003FFFFFF
310
FFFC000000007FFFF000F800000007FFFFFFC0007F8003000FF8001FFF80007F
310
F000000007FFFFFF000000007FFFFFF80FFFFFFFFFFFFFC07FFFFFF0001FFFFF
310
F8000FFFFFFFF8000FF8000FFFFFFFF8000FFF0003FFFFFFFFF80000000FFFFF
310
F000F0000000FFFFFFFFC000FF8003000FF8001FFF80007FE0000000FFFFFFFF
310
0000000FFFFFFFF8000001FFFE0000007FFFFFF0001FFFFFF8000FFFFFFFF800
310
0FF8000FFFFFFFF8000FFF0003FFFFFFFFF8000000FFFFFFF000F000000FFFFF
310
FFFFC000FFC002000FF8000FFF80007FE000001FFFFFFFFE000001FFFFFFFFF8
310
000001FFFE0000007FFFFFF0001FFFFFF8000FFFFFFFF8000FF8000FFFFFFFF8
310
000FFF0003FFFFFFFFF000001FFFFFFFF000E00000FFFFFFFFFFC000FFC00200
310
0FFC000FFF80007FE00001FFFFFFFFFE00001FFFFFFFFFF8000001FFFE000000
310
7FFFFFF0001FFFFFFC000FFFFFFFF8001FFC000FFFFFFFF8001FFF0003FFFFFF
310
FFF00001FFFFFFFFF000E00007FFFFFFFFFF8000FFC000001FFC000FFF80007F
310
C0000FFFFFFFFFFE0000FFFFFFFFFFF8000001FFFE0000007FFFFFF0001FFFFF
310
FC0007FFFFFFF0001FFC0007FFFFFFF0001FFF0003FFFFFFFFF00007FFFFFFFF
310
F000E0001FFFFFFFFFFF8000FFC000001FFC000FFF80007FC0003FFFFFFFFFFE
310
0001FFFFFFFFFFF8000001FFFE0000007FFFFFF0001FFFFFFC0007FFFFFFF000
310
1FFC0007FFFFFFF0001FFF0003FFFFFFFFF0001FFFFFFFFFF000E0003FFFFF00
310
03FF8001FFE000001FFC0007FF80007FC0007FFFFF0007FC0003FFFFF0003FF8
310
000001FFFE0000007FFFFFF0001FFFFFFC0003FFFFFFE0001FFC0003FFFFFFE0
310
001FFF0003FFFFFFFFF0003FFFFFFFFFF000E0003FFFFF0001FF8001FFE00000
310
1FFE0007FF80007FC0007FFFFE0003FC0007FFFFE0003FF8000001FFFE000000
310
7FFFFFF0001FFFFFFE0003FFFFFFE0003FFE0003FFFFFFE0003FFF0003FFFFFF
310
FFF0003FFFFF8001F000E0003FFFFF0001FF0001FFE000001FFE0007FF80007F
310
C0007FFFFE0003FC0007FFFFE0003FF8000001FFFE0000007FFFFFF0001FFFFF
310
FE0001FFFFFFC0003FFE0001FFFFFFC0003FFF0003FFFFFFFFF0003FFFFF0001
310
F000E0003FFFFF0003FF0001FFE000003FFE0007FF80007FC0007FFFFE0003FC
310
0007FFFFE0003FF8000001FFFE0000007FFFFFF0001FFFFFFF0001FFFFFFC000
310
7FFF0001FFFFFFC0007FFF0003FFFFFFFFF0003FFFFF0001F000E0003FFFFE00
310
03FF0003FFF000003FFE0003FF80007FC0007FFFFC0003FE0007FFFFE0003FF8
310
000001FFFE0000007FFFFFF0001FFFFFFF0000FFFFFF80007FFF0000FFFFFF80
310
007FFF0003FFFFFFFFF0003FFFFF0001F000E0003FFFFE0003FF0003FFF00000
310
3FFF0003FF80007FC0007FFFFC0007FE0007FFFFC0003FF8000001FFFE000000
310
7FFFFFF0001FFFFFFF80007FFFFF0000FFFF80007FFFFF0000FFFF0003FFFFFF
310
FFF0003FFFFF0003F000E0003FFFFC0003FE0003FFF000003FFF0003FF80007F
310
E0003FFFF80007FE0003FFFFC0007FF8000001FFFE0000007FFFFFF0001FFFFF
310
FF80003FFFFE0000FFFF80003FFFFE0000FFFF0003FFFFFFFFF0001FFFFE0003
310
F000F0001FFFF80003FE0003FFF000007FFF0001FF80007FE0003FFFF00007FE
310
0001FFFF80007FF8000001FFFE0000007FFFFFF0001FFFFFFFC0000FFFF80001
310
FFFFC0000FFFF80001FFFF0003FFFFFFFFF0001FFFFC0003F000F0000FFFF000
310
07FE0007FFF800007FFF0001FF80007FE0001FFFE00007FF0000FFFE00007FF8
310
000001FFFE0000007FFFFFF0001FFFFFFFC00003FFE00001FFFFC00003FFE000
310
01FFFF0003FFFFFFFFF8000FFFF80003F000F00003FFC00007FC0007FFF80000
310
7FFF8001FF80007FF00007FF80000FFF00007FF80000FFF8000001FFFE000000
310
7F80000000000001FFE000003E000003FFFFE000003E000003FFFF0003FFFFFF
310
FFF80003FFE00007F000F800000000000FFC0007FFF800007FFF8001FF80007F
310
F000000000000FFF000000000000FFF8000001FFFE0000007F80000000000001
310
FFF0000000000007FFFFF0000000000007FFFF0003FFFFFFFFFC00007E000007
310
F000F800000000000FFC0007FFF80000FFFF8000FF80007FF800000000001FFF
310
800000000001FFF8000001FFFE0000007F80000000000001FFF800000000000F
310
FFFFF800000000000FFFFF0003FFFFFFFFFC00000000000FF000FC0000000000
310
1FFC0007FFFC0000FFFF8000FF80007FF800000000003FFFC00000000001FFF8
310
000001FFFE0000007F80000000000001FFF800000000000FFFFFF80000000000
310
0FFFFF0003FFFFFFFFFE00000000001FF000FE00000000003FF8000FFFFC0000
310
FFFF8000FF80007FFC00000000003FFFC00000000003FFF8000001FFFE000000
310
7F80000000000001FFFC00000000001FFFFFFC00000000001FFFFF0003FFFFFF
310
FFFF00000000001FF000FF00000000003FF8000FFFFC0000FFFFC000FF80007F
310
FE00000000007FFFE00000000007FFF8000001FFFE0000007F80000000000001
310
FFFE00000000003FFFFFFE00000000003FFFFF0003FFFFFFFFFF80000000003F
310
F000FF80000000007FF8000FFFFC0001FFFFC0007F80007FFF0000000000FFFF
310
F0000000000FFFF800000000000000007F80000000000001FFFF8000000000FF
310
FFFFFF8000000000FFFFFF0003FFFFFFFFFFC0000000007FF000FFC000000000
310
FFF8000FFFFE0001FFFFC0007F80007FFF8000000001FFFFF8000000001FFFF8
310
00000000000000007F80000000000001FFFFC000000001FFFFFFFFC000000001
310
FFFFFF0003FFFFFFFFFFE000000000FFF000FFE000000003FFF0001FFFFE0001
310
FFFFC0007F80007FFFC000000007FFFFFE000000003FFFF80000000000000000
310
7F80000000000001FFFFE000000003FFFFFFFFE000000003FFFFFF0003FFFFFF
310
FFFFF000000003FFF000FFF80000000FFFF0001FFFFE0001FFFFE0007F80007F
310
FFF00000000FFFFFFF00000000FFFFF800000000000000007F80000000000001
310
FFFFF80000000FFFFFFFFFF80000000FFFFFFF0003FFFFFFFFFFFC0000000FFF
310
F000FFFE0000003FFFF0001FFFFE0003FFFFE0003F80007FFFFC0000003FFFFF
310
FFC0000003FFFFF800000000000000007F80000000000001FFFFFE0000003FFF
310
FFFFFFFE0000003FFFFFFF0003FFFFFFFFFFFF0000003FFFF000FFFF800000FF
310
FFF0001FFFFF0003FFFFE0003F80007FFFFF000001FFFFFFFFF800001FFFFFF8
310
00000000000000007F80000000000001FFFFFFC00001FFFFFFFFFFFFC00001FF
310
FFFFFF0003FFFFFFFFFFFFC00000FFFFF000FFFFF8000FFFFFFFFFFFFFFFFFFF
310
FFFFFFFFFFFFFFFFFFFFF0001FFFFFFFFFFF0000FFFFFFF80000000000000000
310
7FFFFFFFFFFFFFFFFFFFFFFC001FFFFFFFFFFFFFFC001FFFFFFFFFFFFFFFFFFF
310
FFFFFFFC001FFFFFF000FFFFFFFFFFFFFFFFFFFFFFFFFFFFFFFFFFFFFFFFFFFF
310
FFFFFFFFFFFFFFFFFFFFFFFFFFFFFFFFFFFFFFFFFFFFFFFFFFFFFFFFFFFFFFFF
310
FFFFFFFFFFFFFFFFFFFFFFFFFFFFFFFFFFFFFFFFFFFFFFFFFFFFFFFFFFFFFFFF
310
F000FFFFFFFFFFFFFFFFFFFFFFFFFFFFFFFFFFFFFFFFFFFFFFFFFFFFFFFFFFFF
310
FFFFFFFFFFFFFFFFFFFFFFFFFFFFFFFFFFFFFFFFFFFFFFFFFFFFFFFFFFFFFFFF
310
FFFFFFFFFFFFFFFFFFFFFFFFFFFFFFFFFFFFFFFFFFFFFFFFF000FFFFFFFFFFFF
310
FFFFFFFFFFFFFFFFFFFFFFFFFFFFFFFFFFFFFFFFFFFFFFFFFFFFFFFFFFFFFFFF
310
FFFFFFFFFFFFFFFFFFFFFFFFFFFFFFFFFFFFFFFFFFFFFFFFFFFFFFFFFFFFFFFF
310
FFFFFFFFFFFFFFFFFFFFFFFFFFFFFFFFF000FFFFFFFFFFFFFFFFFFFFFFFFFFFF
310
FFFFFFFFFFFFFFFFFFFFFFFFFFFFFFFFFFFFFFFFFFFFFFFFFFFFFFFFFFFFFFFF
310
FFFFFFFFFFFFFFFFFFFFFFFFFFFFFFFFFFFFFFFFFFFFFFFFFFFFFFFFFFFFFFFF
310
FFFFFFFFFFFFFFFFF000FFFFFFFFFFFFFFFFFFFFFFFFFFFFFFFFFFFFFFFFFFFF
310
FFFFFFFFFFFFFFFFFFFFFFFFFFFFFFFFFFFFFFFFFFFFFFFFFFFFFFFFFFFFFFFF
310
FFFFFFFFFFFFFFFFFFFFFFFFFFFFFFFFFFFFFFFFFFFFFFFFFFFFFFFFFFFFFFFF
310
F000FFFFFFFFFFFFFFFFFFFFFFFFFFFFFFFFFFFFFFFFFFFFFFFFFFFFFFFFFFFF
310
FFFFFFFFFFFFFFFFFFFFFFFFFFFFFFFFFFFFFFFFFFFFFFFFFFFFFFFFFFFFFFFF
310
FFFFFFFFFFFFFFFFFFFFFFFFFFFFFFFFFFFFFFFFFFFFFFFFF000FFFFFFFFFFFF
310
FFFFFFFFFFFFFFFFFFFFFFFFFFFFFFFFFFFFFFFFFFFFFFFFFFFFFFFFFFFFFFFF
310
FFFFFFFFFFFFFFFFFFFFFFFFFFFFFFFFFFFFFFFFFFFFFFFFFFFFFFFFFFFFFFFF
310
FFFFFFFFFFFFFFFFFFFFFFFFFFFFFFFFF000FFFFFFFFFFFFFFFFFFFFFFFFFFFF
310
FFFFFFFFFFFFFFFFFFFFFFFFFFFFFFFFFFFFFFFFFFFFFFFFFFFFFFFFFFFFFFFF
310
FFFFFFFFFFFFFFFFFFFFFFFFFFFFFFFFFFFFFFFFFFFFFFFFFFFFFFFFFFFFFFFF
310
FFFFFFFFFFFFFFFFF000FFFFFFFFFFFFFFFFFFFFFFFFFFFFFFFFFFFFFFFFFFFF
310
FFFFFFFFFFFFFFFFFFFFFFFFFFFFFFFFFFFFFFFFFFFFFFFFFFFFFFFFFFFFFFFF
310
FFFFFFFFFFFFFFFFFFFFFFFFFFFFFFFFFFFFFFFFFFFFFFFFFFFFFFFFFFFFFFFF
310
F000FFFFFFFFFFFFFFFFFFFFFFFFFFFFFFFFFFFFFFFFFFFFFFFFFFFFFFFFFFFF
310
FFFFFFFFFFFFFFFFFFFFFFFFFFFFFFFFFFFFFFFFFFFFFFFFFFFFFFFFFFFFFFFF
310
FFFFFFFFFFFFFFFFFFFFFFFFFFFFFFFFFFFFFFFFFFFFFFFFF000FFFFFFFFFFFF
310
FFFFFFFFFFFFFFFFFFFFFFFFFFFFFFFFFFFFFFFFFFFFFFFFFFFFFFFFFFFFFFFF
310
FFFFFFFFFFFFFFFFFFFFFFFFFFFFFFFFFFFFFFFFFFFFFFFFFFFFFFFFFFFFFFFF
310
FFFFFFFFFFFFFFFFFFFFFFFFFFFFFFFFF000FFFFFFFFFFFFFFFFFFFFFFFFFFFF
310
FFFFFFFFFFFFFFFFFFFFFFFFFFFFFFFFFFFFFFFFFFFFFFFFFFFFFFFFFFFFFFFF
310
FFFFFFFFFFFFFFFFFFFFFFFFFFFFFFFFFFFFFFFFFFFFFFFFFFFFFFFFFFFFFFFF
310
FFFFFFFFFFFFFFFFF000FFFFFFFFFFFFFFFFFFFFFFFFFFFFFFFFFFFFFFFFFFFF
310
FFFFFFFFFFFFFFFFFFFFFFFFFFFFFFFFFFFFFFFFFFFFFFFFFFFFFFFFFFFFFFFF
310
FFFFFFFFFFFFFFFFFFFFFFFFFFFFFFFFFFFFFFFFFFFFFFFFFFFFFFFFFFFFFFFF
310
F000FFFFFFFFFFFFFFFFFFFFFFFFFFFFFFFFFFFFFFFFFFFFFFFFFFFFFFFFFFFF
310
FFFFFFFFFFFFFFFFFFFFFFFFFFFFFFFFFFFFFFFFFFFFFFFFFFFFFFFFFFFFFFFF
310
FFFFFFFFFFFFFFFFFFFFFFFFFFFFFFFFFFFFFFFFFFFFFFFFF000FFFFFFFFFFFF
310
FFFFFFFFFFFFFFFFFFFFFFFFFFFFFFFFFFFFFFFFFFFFFFFFFFFFFFFFFFFFFFFF
310
FFFFFFFFFFFFFFFFFFFFFFFFFFFFFFFFFFFFFFFFFFFFFFFFFFFFFFFFFFFFFFFF
310
FFFFFFFFFFFFFFFFFFFFFFFFFFFFFFFFF000FFFFFFFFFFFFFFFFFFFFFFFFFFFF
310
FFFFFFFFFFFFFFFFFFFFFFFFFFFFFFFFFFFFFFFFFFFFFFFFFFFFFFFFFFFFFFFF
310
FFFFFFFFFFFFFFFFFFFFFFFFFFFFFFFFFFFFFFFFFFFFFFFFFFFFFFFFFFFFFFFF
310
FFFFFFFFFFFFFFFFF000FFFFFFFFFFFFFFFFFFFFFFFFFFFFFFFFFFFFFFFFFFFF
310
FFFFFFFFFFFFFFFFFFFFFFFFFFFFFFFFFFFFFFFFFFFFFFFFFFFFFFFFFFFFFFFF
310
FFFFFFFFFFFFFFFFFFFFFFFFFFFFFFFFFFFFFFFFFFFFFFFFFFFFFFFFFFFFFFFF
310
F000FFFFFFFFFFFFFFFFFFFFFFFFFFFFFFFFFFFFFFFFFFFFFFFFFFFFFFFFFFFF
310
FFFFFFFFFFFFFFFFFFFFFFFFFFFFFFFFFFFFFFFFFFFFFFFFFFFFFFFFFFFFFFFF
310
FFFFFFFFFFFFFFFFFFFFFFFFFFFFFFFFFFFFFFFFFFFFFFFFF000FFFFFFFFFFFF
310
FFFFFFFFFFFFFFFFFFFFFFFFFFFFFFFFFFFFFFFFFFFFFFFFFFFFFFFFFFFFFFFF
310
FFFFFFFFFFFFFFFFFFFFFFFFFFFFFFFFFFFFFFFFFFFFFFFFFFFFFFFFFFFFFFFF
310
FFFFFFFFFFFFFFFFFFFFFFFFFFFFFFFFF000FFFFFFFFFFFFFFFFFFFFFFFFFFFF
310
FFFFFFFFFFFFFFFFFFFFFFFFFFFFFFFFFFFFFFFFFFFFFFFFFFFFFFFFFFFFFFFF
310
FFFFFFFFFFFFFFFFFFFFFFFFFFFFFFFFFFFFFFFFFFFFFFFFFFFFFFFFFFFFFFFF
310
FFFFFFFFFFFFFFFFF000FFFFFFFFFFFFFFFFFFFFFFFFFFFFFFFFFFFFFFFFFFFF
310
FFFFFFFFFFFFFFFFFFFFFFFFFFFFFFFFFFFFFFFFFFFFFFFFFFFFFFFFFFFFFFFF
310
FFFFFFFFFFFFFFFFFFFFFFFFFFFFFFFFFFFFFFFFFFFFFFFFFFFFFFFFFFFFFFFF
310
F000FFFFFFFFFFFFFFFFFFFFFFFFFFFFFFFFFFFFFFFFFFFFFFFFFFFFFFFFFFFF
310
FFFFFFFFFFFFFFFFFFFFFFFFFFFFFFFFFFFFFFFFFFFFFFFFFFFFFFFFFFFFFFFF
310
FFFFFFFFFFFFFFFFFFFFFFFFFFFFFFFFFFFFFFFFFFFFFFFFF000FFFFFFFFFFFF
310
FFFFFFFFFFFFFFFFFFFFFFFFFFFFFFFFFFFFFFFFFFFFFFFFFFFFFFFFFFFFFFFF
310
FFFFFFFFFFFFFFFFFFFFFFFFFFFFFFFFFFFFFFFFFFFFFFFFFFFFFFFFFFFFFFFF
310
FFFFFFFFFFFFFFFFFFFFFFFFFFFFFFFFF0000000000000000000000000000000
310
0000000000000000000000000000000000000000000000000000000000000000
310
0000000000000000000000000000000000000000000000000000000000000000
310
0000000000000000000000000000000000000000000000000000000000000000
310
0000000000000000000000000000000000000000000000000000000000000000
310
0000000000000000000000000000000000000000000000000000000000000000
310
0000000000000000000000000000000000000000000000000000000000000000
310
0000000000000000000000000000000000000000000000000000000000000000
310
0000000000000000000000000000000000000000000000000000000000000000
310
0000000000000000000000000000000000000000000000000000000000000000
310
0000000000000000000000000000000000000000000000000000000000000000
310
0000000000000000000000000000000000000000000000000000000000000000
310
0000000000000000000000000000000000000000000000000000000000000000
310
0000000000000000000000000000000000000000000000000000000000000000
310
0000000000000000000000000000000000000000000000000000000000000000
310
0000000000000000000000000000000000000000000000000000000000000000
  1
OLE
  0
ENDSEC
  0
SECTION
  2
OBJECTS
  0
DICTIONARY
  5
C
330
0
100
AcDbDictionary
281
     1
  3
ACAD_GROUP
350
D
  3
ACAD_LAYOUT
350
1A
  3
ACAD_MLINESTYLE
350
17
  3
ACAD_PLOTSETTINGS
350
19
  3
ACAD_PLOTSTYLENAME
350
E
  0
DICTIONARY
  5
D
102
{ACAD_REACTORS
330
C
102
}
330
C
100
AcDbDictionary
281
     1
  0
DICTIONARY
  5
1A
102
{ACAD_REACTORS
330
C
102
}
330
C
100
AcDbDictionary
281
     1
  3
Layout1
350
1E
  3
Layout2
350
26
  3
Model
350
22
  0
DICTIONARY
  5
17
102
{ACAD_REACTORS
330
C
102
}
330
C
100
AcDbDictionary
281
     1
  3
Standard
350
18
  0
DICTIONARY
  5
19
102
{ACAD_REACTORS
330
C
102
}
330
C
100
AcDbDictionary
281
     1
  0
ACDBDICTIONARYWDFLT
  5
E
102
{ACAD_REACTORS
330
C
102
}
330
C
100
AcDbDictionary
281
     1
  3
Normal
350
F
100
AcDbDictionaryWithDefault
340
F
  0
LAYOUT
  5
1E
102
{ACAD_REACTORS
330
1A
102
}
330
1A
100
AcDbPlotSettings
  1

  2
none_device
  4

  6

 40
0.0
 41
0.0
 42
0.0
 43
0.0
 44
0.0
 45
0.0
 46
0.0
 47
0.0
 48
0.0
 49
0.0
140
0.0
141
0.0
142
1.0
143
1.0
 70
   688
 72
     0
 73
     0
 74
     5
  7

 75
    16
147
1.0
148
0.0
149
0.0
100
AcDbLayout
  1
Layout1
 70
     1
 71
     1
 10
0.0
 20
0.0
 11
420.0
 21
297.0
 12
0.0
 22
0.0
 32
0.0
 14
1.0000000000E+20
 24
1.0000000000E+20
 34
1.0000000000E+20
 15
-1.0000000000E+20
 25
-1.0000000000E+20
 35
-1.0000000000E+20
146
0.0
 13
0.0
 23
0.0
 33
0.0
 16
1.0
 26
0.0
 36
0.0
 17
0.0
 27
1.0
 37
0.0
 76
     0
330
1B
  0
LAYOUT
  5
26
102
{ACAD_REACTORS
330
1A
102
}
330
1A
100
AcDbPlotSettings
  1

  2
none_device
  4

  6

 40
0.0
 41
0.0
 42
0.0
 43
0.0
 44
0.0
 45
0.0
 46
0.0
 47
0.0
 48
0.0
 49
0.0
140
0.0
141
0.0
142
1.0
143
1.0
 70
   688
 72
     0
 73
     0
 74
     5
  7

 75
    16
147
1.0
148
0.0
149
0.0
100
AcDbLayout
  1
Layout2
 70
     1
 71
     2
 10
0.0
 20
0.0
 11
0.0
 21
0.0
 12
0.0
 22
0.0
 32
0.0
 14
0.0
 24
0.0
 34
0.0
 15
0.0
 25
0.0
 35
0.0
146
0.0
 13
0.0
 23
0.0
 33
0.0
 16
1.0
 26
0.0
 36
0.0
 17
0.0
 27
1.0
 37
0.0
 76
     0
330
23
  0
LAYOUT
  5
22
102
{ACAD_REACTORS
330
1A
102
}
330
1A
100
AcDbPlotSettings
  1

  2
none_device
  4

  6

 40
0.0
 41
0.0
 42
0.0
 43
0.0
 44
0.0
 45
0.0
 46
0.0
 47
0.0
 48
0.0
 49
0.0
140
0.0
141
0.0
142
1.0
143
1.0
 70
  1712
 72
     0
 73
     0
 74
     0
  7

 75
     0
147
1.0
148
0.0
149
0.0
100
AcDbLayout
  1
Model
 70
     1
 71
     0
 10
0.0
 20
0.0
 11
297.0
 21
210.0
 12
0.0
 22
0.0
 32
0.0
 14
0.0
 24
0.0
 34
0.0
 15
297.0
 25
210.0
 35
0.0
146
0.0
 13
0.0
 23
0.0
 33
0.0
 16
1.0
 26
0.0
 36
0.0
 17
0.0
 27
1.0
 37
0.0
 76
     0
330
1F
331
29
  0
MLINESTYLE
  5
18
102
{ACAD_REACTORS
330
17
102
}
330
17
100
AcDbMlineStyle
  2
Standard
 70
     0
  3

 62
   256
 51
90.0
 52
90.0
 71
     2
 49
0.5
 62
   256
  6
BYLAYER
 49
-0.5
 62
   256
  6
BYLAYER
  0
ACDBPLACEHOLDER
  5
F
102
{ACAD_REACTORS
330
E
102
}
330
E
  0
ENDSEC
  0
EOF
