  0
SECTION
  2
HEADER
  9
$ACADVER
  1
AC1015
  9
$ACADMAINTVER
 70
     6
  9
$DWGCODEPAGE
  3
ANSI_1252
  9
$INSBASE
 10
0.0
 20
0.0
 30
0.0
  9
$EXTMIN
 10
0.0
 20
0.0
 30
0.0
  9
$EXTMAX
 10
297.0
 20
210.0
 30
0.0
  9
$LIMMIN
 10
0.0
 20
0.0
  9
$LIMMAX
 10
297.0
 20
210.0
  9
$ORTHOMODE
 70
     0
  9
$REGENMODE
 70
     1
  9
$FILLMODE
 70
     1
  9
$QTEXTMODE
 70
     0
  9
$MIRRTEXT
 70
     1
  9
$LTSCALE
 40
1.0
  9
$ATTMODE
 70
     1
  9
$TEXTSIZE
 40
2.0
  9
$TRACEWID
 40
1.0
  9
$TEXTSTYLE
  7
Standard
  9
$CLAYER
  8
0
  9
$CELTYPE
  6
ByLayer
  9
$CECOLOR
 62
   256
  9
$CELTSCALE
 40
1.0
  9
$DISPSILH
 70
     0
  9
$DIMSCALE
 40
1.0
  9
$DIMASZ
 40
3.0
  9
$DIMEXO
 40
0.0
  9
$DIMDLI
 40
3.75
  9
$DIMRND
 40
0.0
  9
$DIMDLE
 40
0.0
  9
$DIMEXE
 40
1.0
  9
$DIMTP
 40
0.0
  9
$DIMTM
 40
0.0
  9
$DIMTXT
 40
2.0
  9
$DIMCEN
 40
2.5
  9
$DIMTSZ
 40
0.0
  9
$DIMTOL
 70
     0
  9
$DIMLIM
 70
     0
  9
$DIMTIH
 70
     1
  9
$DIMTOH
 70
     1
  9
$DIMSE1
 70
     0
  9
$DIMSE2
 70
     0
  9
$DIMTAD
 70
     1
  9
$DIMZIN
 70
     0
  9
$DIMBLK
  1

  9
$DIMASO
 70
     1
  9
$DIMSHO
 70
     1
  9
$DIMPOST
  1

  9
$DIMAPOST
  1

  9
$DIMALT
 70
     0
  9
$DIMALTD
 70
     3
  9
$DIMALTF
 40
0.0393700787
  9
$DIMLFAC
 40
1.0
  9
$DIMTOFL
 70
     1
  9
$DIMTVP
 40
0.0
  9
$DIMTIX
 70
     0
  9
$DIMSOXD
 70
     0
  9
$DIMSAH
 70
     0
  9
$DIMBLK1
  1

  9
$DIMBLK2
  1

  9
$DIMSTYLE
  2
ISO-25
  9
$DIMCLRD
 70
     0
  9
$DIMCLRE
 70
     0
  9
$DIMCLRT
 70
     0
  9
$DIMTFAC
 40
1.0
  9
$DIMGAP
 40
1.524
  9
$DIMJUST
 70
     0
  9
$DIMSD1
 70
     0
  9
$DIMSD2
 70
     0
  9
$DIMTOLJ
 70
     0
  9
$DIMTZIN
 70
     0
  9
$DIMALTZ
 70
     0
  9
$DIMALTTZ
 70
     0
  9
$DIMUPT
 70
     0
  9
$DIMDEC
 70
     2
  9
$DIMTDEC
 70
     3
  9
$DIMALTU
 70
     2
  9
$DIMALTTD
 70
     3
  9
$DIMTXSTY
  7
Standard
  9
$DIMAUNIT
 70
     0
  9
$DIMADEC
 70
     2
  9
$DIMALTRND
 40
0.0
  9
$DIMAZIN
 70
     0
  9
$DIMDSEP
 70
    44
  9
$DIMATFIT
 70
     3
  9
$DIMFRAC
 70
     0
  9
$DIMLDRBLK
  1

  9
$DIMLUNIT
 70
     2
  9
$DIMLWD
 70
    -2
  9
$DIMLWE
 70
    -2
  9
$DIMTMOVE
 70
     0
  9
$LUNITS
 70
     2
  9
$LUPREC
 70
     2
  9
$SKETCHINC
 40
1.0
  9
$FILLETRAD
 40
10.0
  9
$AUNITS
 70
     0
  9
$AUPREC
 70
     2
  9
$MENU
  1
.
  9
$ELEVATION
 40
0.0
  9
$PELEVATION
 40
0.0
  9
$THICKNESS
 40
0.0
  9
$LIMCHECK
 70
     0
  9
$CHAMFERA
 40
10.0
  9
$CHAMFERB
 40
10.0
  9
$CHAMFERC
 40
20.0
  9
$CHAMFERD
 40
0.0
  9
$SKPOLY
 70
     0
  9
$TDCREATE
 40
2455680.353930127
  9
$TDUCREATE
 40
2455680.270596794
  9
$TDUPDATE
 40
2455680.353930139
  9
$TDUUPDATE
 40
2455680.270596805
  9
$TDINDWG
 40
0.0000000116
  9
$TDUSRTIMER
 40
0.0000000116
  9
$USRTIMER
 70
     1
  9
$ANGBASE
 50
0.0
  9
$ANGDIR
 70
     0
  9
$PDMODE
 70
     0
  9
$PDSIZE
 40
-1.0
  9
$PLINEWID
 40
0.0
  9
$SPLFRAME
 70
     0
  9
$SPLINETYPE
 70
     6
  9
$SPLINESEGS
 70
     8
  9
$HANDSEED
  5
238
  9
$SURFTAB1
 70
     6
  9
$SURFTAB2
 70
     6
  9
$SURFTYPE
 70
     6
  9
$SURFU
 70
     6
  9
$SURFV
 70
     6
  9
$UCSBASE
  2

  9
$UCSNAME
  2

  9
$UCSORG
 10
0.0
 20
0.0
 30
0.0
  9
$UCSXDIR
 10
1.0
 20
0.0
 30
0.0
  9
$UCSYDIR
 10
0.0
 20
1.0
 30
0.0
  9
$UCSORTHOREF
  2

  9
$UCSORTHOVIEW
 70
     0
  9
$UCSORGTOP
 10
0.0
 20
0.0
 30
0.0
  9
$UCSORGBOTTOM
 10
0.0
 20
0.0
 30
0.0
  9
$UCSORGLEFT
 10
0.0
 20
0.0
 30
0.0
  9
$UCSORGRIGHT
 10
0.0
 20
0.0
 30
0.0
  9
$UCSORGFRONT
 10
0.0
 20
0.0
 30
0.0
  9
$UCSORGBACK
 10
0.0
 20
0.0
 30
0.0
  9
$PUCSBASE
  2

  9
$PUCSNAME
  2

  9
$PUCSORG
 10
0.0
 20
0.0
 30
0.0
  9
$PUCSXDIR
 10
1.0
 20
0.0
 30
0.0
  9
$PUCSYDIR
 10
0.0
 20
1.0
 30
0.0
  9
$PUCSORTHOREF
  2

  9
$PUCSORTHOVIEW
 70
     0
  9
$PUCSORGTOP
 10
0.0
 20
0.0
 30
0.0
  9
$PUCSORGBOTTOM
 10
0.0
 20
0.0
 30
0.0
  9
$PUCSORGLEFT
 10
0.0
 20
0.0
 30
0.0
  9
$PUCSORGRIGHT
 10
0.0
 20
0.0
 30
0.0
  9
$PUCSORGFRONT
 10
0.0
 20
0.0
 30
0.0
  9
$PUCSORGBACK
 10
0.0
 20
0.0
 30
0.0
  9
$USERI1
 70
     0
  9
$USERI2
 70
     0
  9
$USERI3
 70
     0
  9
$USERI4
 70
     0
  9
$USERI5
 70
     0
  9
$USERR1
 40
0.0
  9
$USERR2
 40
0.0
  9
$USERR3
 40
0.0
  9
$USERR4
 40
0.0
  9
$USERR5
 40
0.0
  9
$WORLDVIEW
 70
     1
  9
$SHADEDGE
 70
     3
  9
$SHADEDIF
 70
    70
  9
$TILEMODE
 70
     1
  9
$MAXACTVP
 70
    64
  9
$PINSBASE
 10
0.0
 20
0.0
 30
0.0
  9
$PLIMCHECK
 70
     0
  9
$PEXTMIN
 10
1.0000000000E+20
 20
1.0000000000E+20
 30
1.0000000000E+20
  9
$PEXTMAX
 10
-1.0000000000E+20
 20
-1.0000000000E+20
 30
-1.0000000000E+20
  9
$PLIMMIN
 10
0.0
 20
0.0
  9
$PLIMMAX
 10
420.0
 20
297.0
  9
$UNITMODE
 70
     0
  9
$VISRETAIN
 70
     1
  9
$PLINEGEN
 70
     0
  9
$PSLTSCALE
 70
     1
  9
$TREEDEPTH
 70
  3020
  9
$CMLSTYLE
  2
Standard
  9
$CMLJUST
 70
     0
  9
$CMLSCALE
 40
20.0
  9
$PROXYGRAPHICS
 70
     1
  9
$MEASUREMENT
 70
     1
  9
$CELWEIGHT
370
    -1
  9
$ENDCAPS
280
     0
  9
$JOINSTYLE
280
     0
  9
$LWDISPLAY
290
     1
  9
$INSUNITS
 70
     4
  9
$HYPERLINKBASE
  1

  9
$STYLESHEET
  1

  9
$XEDIT
290
     1
  9
$CEPSNTYPE
380
     0
  9
$PSTYLEMODE
290
     1
  9
$FINGERPRINTGUID
  2
{502B2514-DF21-407B-95CB-6C94C5E08D3D}
  9
$VERSIONGUID
  2
{FAEB1C32-E019-11D5-929B-00C0DF256EC4}
  9
$EXTNAMES
290
     1
  9
$PSVPSCALE
 40
0.0
  9
$OLESTARTUP
290
     0
  0
ENDSEC
  0
SECTION
  2
CLASSES
  0
CLASS
  1
ACDBDICTIONARYWDFLT
  2
AcDbDictionaryWithDefault
  3
ObjectDBX Classes
 90
        0
280
     0
281
     0
  0
CLASS
  1
VISUALSTYLE
  2
AcDbVisualStyle
  3
ObjectDBX Classes
 90
     4095
280
     0
281
     0
  0
CLASS
  1
DICTIONARYVAR
  2
AcDbDictionaryVar
  3
ObjectDBX Classes
 90
        0
280
     0
281
     0
  0
CLASS
  1
ACDBPLACEHOLDER
  2
AcDbPlaceHolder
  3
ObjectDBX Classes
 90
        0
280
     0
281
     0
  0
CLASS
  1
LAYOUT
  2
AcDbLayout
  3
ObjectDBX Classes
 90
        0
280
     0
281
     0
  0
ENDSEC
  0
SECTION
  2
TABLES
  0
TABLE
  2
VPORT
  5
8
330
0
100
AcDbSymbolTable
 70
     1
  0
VPORT
  5
29
330
8
100
AcDbSymbolTableRecord
100
AcDbViewportTableRecord
  2
*Active
 70
     0
 10
0.0
 20
0.0
 11
1.0
 21
1.0
 12
148.5
 22
105.0
 13
0.0
 23
0.0
 14
10.0
 24
10.0
 15
10.0
 25
10.0
 16
0.0
 26
0.0
 36
1.0
 17
0.0
 27
0.0
 37
0.0
 40
210.0
 41
1.4142857143
 42
50.0
 43
0.0
 44
0.0
 50
0.0
 51
0.0
 71
     0
 72
  2000
 73
     1
 74
     3
 75
     0
 76
     0
 77
     0
 78
     0
281
     0
 65
     1
110
0.0
120
0.0
130
0.0
111
1.0
121
0.0
131
0.0
112
0.0
122
1.0
132
0.0
 79
     0
146
0.0
  0
ENDTAB
  0
TABLE
  2
LTYPE
  5
5
330
0
100
AcDbSymbolTable
 70
     6
  0
LTYPE
  5
14
330
5
100
AcDbSymbolTableRecord
100
AcDbLinetypeTableRecord
  2
ByBlock
 70
     0
  3

 72
    65
 73
     0
 40
0.0
  0
LTYPE
  5
15
330
5
100
AcDbSymbolTableRecord
100
AcDbLinetypeTableRecord
  2
ByLayer
 70
     0
  3

 72
    65
 73
     0
 40
0.0
  0
LTYPE
  5
16
330
5
100
AcDbSymbolTableRecord
100
AcDbLinetypeTableRecord
  2
Continuous
 70
     0
  3
Solid line
 72
    65
 73
     0
 40
0.0
  0
LTYPE
  5
3B
330
5
100
AcDbSymbolTableRecord
100
AcDbLinetypeTableRecord
  2
HIDDEN
 70
     0
  3
Hidden __ __ __ __ __ __ __ __ __ __ __ __ __ __
 72
    65
 73
     2
 40
1.905
 49
1.27
 74
     0
 49
-0.635
 74
     0
  0
LTYPE
  5
3C
330
5
100
AcDbSymbolTableRecord
100
AcDbLinetypeTableRecord
  2
PHANTOM
 70
     0
  3
Phantom ______  __  __  ______  __  __  ______
 72
    65
 73
     6
 40
12.7
 49
6.35
 74
     0
 49
-1.27
 74
     0
 49
1.27
 74
     0
 49
-1.27
 74
     0
 49
1.27
 74
     0
 49
-1.27
 74
     0
  0
LTYPE
  5
3D
330
5
100
AcDbSymbolTableRecord
100
AcDbLinetypeTableRecord
  2
CENTER
 70
     0
  3
Center ____ _ ____ _ ____ _ ____ _ ____ _ ____
 72
    65
 73
     4
 40
10.16
 49
6.35
 74
     0
 49
-1.27
 74
     0
 49
1.27
 74
     0
 49
-1.27
 74
     0
  0
LTYPE
  5
3E
330
5
100
AcDbSymbolTableRecord
100
AcDbLinetypeTableRecord
  2
CENTERX2
 70
     0
  3
Center (2x) ________  __  ________  __  _____
 72
    65
 73
     4
 40
20.32
 49
12.7
 74
     0
 49
-2.54
 74
     0
 49
2.54
 74
     0
 49
-2.54
 74
     0
  0
LTYPE
  5
3F
330
5
100
AcDbSymbolTableRecord
100
AcDbLinetypeTableRecord
  2
DOT2
 70
     0
  3
Dot (.5x) ........................................
 72
    65
 73
     2
 40
0.635
 49
0.0
 74
     0
 49
-0.635
 74
     0
  0
ENDTAB
  0
TABLE
  2
LAYER
  5
2
330
0
100
AcDbSymbolTable
 70
     5
  0
LAYER
  5
10
330
2
100
AcDbSymbolTableRecord
100
AcDbLayerTableRecord
  2
0
 70
     0
 62
     7
  6
Continuous
370
    -3
390
F
  0
LAYER
  5
40
330
2
100
AcDbSymbolTableRecord
100
AcDbLayerTableRecord
  2
FORMAT
 70
     0
 62
     7
  6
Continuous
370
    -3
390
F
  0
LAYER
  5
41
330
2
100
AcDbSymbolTableRecord
100
AcDbLayerTableRecord
  2
VERMASSUNG
 70
     0
 62
     7
  6
Continuous
370
    -3
390
F
  0
LAYER
  5
42
330
2
100
AcDbSymbolTableRecord
100
AcDbLayerTableRecord
  2
KOPF_DÜNN
 70
     0
 62
     7
  6
Continuous
370
    -3
390
F
  0
LAYER
  5
43
330
2
100
AcDbSymbolTableRecord
100
AcDbLayerTableRecord
  2
KOPF_DICK
 70
     0
 62
     7
  6
Continuous
370
    15
390
F
  0
ENDTAB
  0
TABLE
  2
STYLE
  5
3
330
0
100
AcDbSymbolTable
 70
     3
  0
STYLE
  5
11
330
3
100
AcDbSymbolTableRecord
100
AcDbTextStyleTableRecord
  2
Standard
 70
     0
 40
0.0
 41
1.0
 50
0.0
 71
     0
 42
2.5
  3
txt
  4

  0
STYLE
  5
44
330
3
100
AcDbSymbolTableRecord
100
AcDbTextStyleTableRecord
  2
SLDTEXTSTYLE0
 70
     0
 40
0.0
 41
0.7
 50
0.0
 71
     0
 42
0.2
  3
TXT
  4

  0
STYLE
  5
48
330
3
100
AcDbSymbolTableRecord
100
AcDbTextStyleTableRecord
  2
SLDTEXTSTYLE1
 70
     0
 40
0.0
 41
0.6473684211
 50
0.0
 71
     0
 42
0.2
  3
TXT
  4

  0
ENDTAB
  0
TABLE
  2
VIEW
  5
6
330
0
100
AcDbSymbolTable
 70
     0
  0
ENDTAB
  0
TABLE
  2
UCS
  5
7
330
0
100
AcDbSymbolTable
 70
     0
  0
ENDTAB
  0
TABLE
  2
APPID
  5
9
330
0
100
AcDbSymbolTable
 70
     1
  0
APPID
  5
12
330
9
100
AcDbSymbolTableRecord
100
AcDbRegAppTableRecord
  2
ACAD
 70
     0
  0
ENDTAB
  0
TABLE
  2
DIMSTYLE
  5
A
330
0
100
AcDbSymbolTable
 70
     5
100
AcDbDimStyleTable
  0
DIMSTYLE
105
27
330
A
100
AcDbSymbolTableRecord
100
AcDbDimStyleTableRecord
  2
ISO-25
 70
     0
 41
2.5
 42
0.625
 43
3.75
 44
1.25
 73
     0
 74
     0
 77
     1
 78
     8
140
2.5
141
2.5
143
0.0393700787
147
0.625
171
     3
172
     1
271
     2
272
     2
274
     3
278
    44
283
     0
284
     8
340
11
  0
DIMSTYLE
105
1D9
102
{ACAD_REACTORS
330
1D8
330
208
330
212
330
21C
330
226
102
}
330
A
100
AcDbSymbolTableRecord
100
AcDbDimStyleTableRecord
  2
SLDDIMSTYLE0
 70
     0
 41
3.0
 44
0.0
 45
0.000000001
 73
     0
 74
     0
 77
     1
 78
    12
140
2.0
147
0.5
173
     1
271
     2
272
     3
284
    12
340
44
  0
DIMSTYLE
105
1E6
102
{ACAD_REACTORS
330
1E5
102
}
330
A
100
AcDbSymbolTableRecord
100
AcDbDimStyleTableRecord
  2
SLDDIMSTYLE1
 70
     0
 41
3.0
 44
0.0
 45
0.000000001
 73
     0
 74
     0
 77
     1
 78
    12
140
2.0
147
0.5
173
     1
271
     2
272
     2
284
    12
340
44
  0
DIMSTYLE
105
1F1
102
{ACAD_REACTORS
330
1F0
102
}
330
A
100
AcDbSymbolTableRecord
100
AcDbDimStyleTableRecord
  2
SLDDIMSTYLE2
 70
     0
 41
3.0
 44
0.0
 45
0.000000001
 73
     0
 74
     0
 77
     1
 78
    12
140
2.0
147
0.5
173
     1
271
     2
272
     2
284
    12
340
44
  0
DIMSTYLE
105
1FD
102
{ACAD_REACTORS
330
1FC
102
}
330
A
100
AcDbSymbolTableRecord
100
AcDbDimStyleTableRecord
  2
SLDDIMSTYLE3
 70
     0
 41
3.0
 44
0.0
 45
0.000000001
 73
     0
 74
     0
 77
     1
 78
    12
140
2.0
147
0.5
173
     1
271
     2
272
     3
284
    12
340
44
  0
ENDTAB
  0
TABLE
  2
BLOCK_RECORD
  5
1
330
0
100
AcDbSymbolTable
 70
     9
  0
BLOCK_RECORD
  5
1F
330
1
100
AcDbSymbolTableRecord
100
AcDbBlockTableRecord
  2
*Model_Space
340
22
  0
BLOCK_RECORD
  5
1B
330
1
100
AcDbSymbolTableRecord
100
AcDbBlockTableRecord
  2
*Paper_Space
340
1E
  0
BLOCK_RECORD
  5
23
330
1
100
AcDbSymbolTableRecord
100
AcDbBlockTableRecord
  2
*Paper_Space0
340
26
  0
BLOCK_RECORD
  5
1DA
330
1
100
AcDbSymbolTableRecord
100
AcDbBlockTableRecord
  2
*D1
340
0
  0
BLOCK_RECORD
  5
1E7
330
1
100
AcDbSymbolTableRecord
100
AcDbBlockTableRecord
  2
*D2
340
0
  0
BLOCK_RECORD
  5
1F2
330
1
100
AcDbSymbolTableRecord
100
AcDbBlockTableRecord
  2
*D3
340
0
  0
BLOCK_RECORD
  5
1FE
330
1
100
AcDbSymbolTableRecord
100
AcDbBlockTableRecord
  2
*D4
340
0
  0
BLOCK_RECORD
  5
209
330
1
100
AcDbSymbolTableRecord
100
AcDbBlockTableRecord
  2
*D5
340
0
  0
BLOCK_RECORD
  5
213
330
1
100
AcDbSymbolTableRecord
100
AcDbBlockTableRecord
  2
*D6
340
0
  0
BLOCK_RECORD
  5
21D
330
1
100
AcDbSymbolTableRecord
100
AcDbBlockTableRecord
  2
*D7
340
0
  0
BLOCK_RECORD
  5
227
330
1
100
AcDbSymbolTableRecord
100
AcDbBlockTableRecord
  2
*D8
340
0
  0
ENDTAB
  0
ENDSEC
  0
SECTION
  2
BLOCKS
  0
BLOCK
  5
20
330
1F
100
AcDbEntity
  8
0
100
AcDbBlockBegin
  2
*Model_Space
 70
     0
 10
0.0
 20
0.0
 30
0.0
  3
*Model_Space
  1

  0
ENDBLK
  5
21
330
1F
100
AcDbEntity
  8
0
100
AcDbBlockEnd
  0
BLOCK
  5
1C
330
1B
100
AcDbEntity
 67
     1
  8
0
100
AcDbBlockBegin
  2
*Paper_Space
 70
     0
 10
0.0
 20
0.0
 30
0.0
  3
*Paper_Space
  1

  0
ENDBLK
  5
1D
330
1B
100
AcDbEntity
 67
     1
  8
0
100
AcDbBlockEnd
  0
BLOCK
  5
24
330
23
100
AcDbEntity
  8
0
100
AcDbBlockBegin
  2
*Paper_Space0
 70
     0
 10
0.0
 20
0.0
 30
0.0
  3
*Paper_Space0
  1

  0
ENDBLK
  5
25
330
23
100
AcDbEntity
  8
0
100
AcDbBlockEnd
  0
BLOCK
  5
1DB
330
1DA
100
AcDbEntity
  8
0
100
AcDbBlockBegin
  2
*D1
 70
     1
 10
0.0
 20
0.0
 30
0.0
  3
*D1
  1

  0
SOLID
  5
1DD
330
1DA
100
AcDbEntity
  8
VERMASSUNG
100
AcDbTrace
 10
59.6174431203
 20
139.1687973998
 30
0.0
 11
59.1674431203
 21
136.1687973998
 31
0.0
 12
60.0674431203
 22
136.1687973998
 32
0.0
 13
60.0674431203
 23
136.1687973998
 33
0.0
  0
SOLID
  5
1DE
330
1DA
100
AcDbEntity
  8
VERMASSUNG
100
AcDbTrace
 10
59.6174431203
 20
76.1687973998
 30
0.0
 11
60.0674431203
 21
79.1687973998
 31
0.0
 12
59.1674431203
 22
79.1687973998
 32
0.0
 13
59.1674431203
 23
79.1687973998
 33
0.0
  0
LINE
  5
1DF
330
1DA
100
AcDbEntity
  8
VERMASSUNG
100
AcDbLine
 10
96.0545976352
 20
139.1687973998
 30
0.0
 11
58.6174431203
 21
139.1687973998
 31
0.0
  0
LINE
  5
1E0
330
1DA
100
AcDbEntity
  8
VERMASSUNG
100
AcDbLine
 10
96.0545976352
 20
76.1687973998
 30
0.0
 11
58.6174431203
 21
76.1687973998
 31
0.0
  0
LINE
  5
1E1
330
1DA
100
AcDbEntity
  8
VERMASSUNG
100
AcDbLine
 10
59.6174431203
 20
139.1687973998
 30
0.0
 11
59.6174431203
 21
76.1687973998
 31
0.0
  0
MTEXT
  5
1E2
330
1DA
100
AcDbEntity
  8
VERMASSUNG
100
AcDbMText
 10
56.8393076312
 20
99.965255688
 30
0.0
 40
2.0
 41
0.0
 71
     1
 72
     1
  1
HSK A 
  7
SLDTEXTSTYLE0
 11
-7.044195017643634E-15
 21
1.0
 31
0.0
 73
     1
 44
1.0
  0
MTEXT
  5
1E3
330
1DA
100
AcDbEntity
  8
VERMASSUNG
100
AcDbMText
 10
57.0393076407
 20
108.9652562319
 30
0.0
 40
2.0
 41
0.0
 71
     1
 72
     1
  1
%%c
  7
SLDTEXTSTYLE0
 11
-7.044195017643634E-15
 21
1.0
 31
0.0
 73
     1
 44
1.0
  0
MTEXT
  5
1E4
330
1DA
100
AcDbEntity
  8
VERMASSUNG
100
AcDbMText
 10
57.0393077571
 20
112.5735828819
 30
0.0
 40
2.0
 41
0.0
 71
     1
 72
     1
  1
63
  7
SLDTEXTSTYLE0
 11
-7.044195017643634E-15
 21
1.0
 31
0.0
 73
     1
 44
1.0
  0
ENDBLK
  5
1DC
330
1DA
100
AcDbEntity
  8
0
100
AcDbBlockEnd
  0
BLOCK
  5
1E8
330
1E7
100
AcDbEntity
  8
0
100
AcDbBlockBegin
  2
*D2
 70
     1
 10
0.0
 20
0.0
 30
0.0
  3
*D2
  1

  0
SOLID
  5
1EA
330
1E7
100
AcDbEntity
  8
VERMASSUNG
100
AcDbTrace
 10
176.2545976352
 20
137.6057421452
 30
0.0
 11
179.2545976352
 21
137.1557421452
 31
0.0
 12
179.2545976352
 22
138.0557421452
 32
0.0
 13
179.2545976352
 23
138.0557421452
 33
0.0
  0
SOLID
  5
1EB
330
1E7
100
AcDbEntity
  8
VERMASSUNG
100
AcDbTrace
 10
225.7545976352
 20
137.6057421452
 30
0.0
 11
222.7545976352
 21
138.0557421452
 31
0.0
 12
222.7545976352
 22
137.1557421452
 32
0.0
 13
222.7545976352
 23
137.1557421452
 33
0.0
  0
LINE
  5
1EC
330
1E7
100
AcDbEntity
  8
VERMASSUNG
100
AcDbLine
 10
176.2545976352
 20
116.5687973998
 30
0.0
 11
176.2545976352
 21
138.6057421452
 31
0.0
  0
LINE
  5
1ED
330
1E7
100
AcDbEntity
  8
VERMASSUNG
100
AcDbLine
 10
225.7545976352
 20
122.3200164165
 30
0.0
 11
225.7545976352
 21
138.6057421452
 31
0.0
  0
LINE
  5
1EE
330
1E7
100
AcDbEntity
  8
VERMASSUNG
100
AcDbLine
 10
176.2545976352
 20
137.6057421452
 30
0.0
 11
225.7545976352
 21
137.6057421452
 31
0.0
  0
MTEXT
  5
1EF
330
1E7
100
AcDbEntity
  8
VERMASSUNG
100
AcDbMText
 10
198.505210853
 20
140.1838775083
 30
0.0
 40
2.0
 41
0.0
 71
     1
 72
     1
  1
49.5
  7
SLDTEXTSTYLE0
 73
     1
 44
1.0
  0
ENDBLK
  5
1E9
330
1E7
100
AcDbEntity
  8
0
100
AcDbBlockEnd
  0
BLOCK
  5
1F3
330
1F2
100
AcDbEntity
  8
0
100
AcDbBlockBegin
  2
*D3
 70
     1
 10
0.0
 20
0.0
 30
0.0
  3
*D3
  1

  0
SOLID
  5
1F5
330
1F2
100
AcDbEntity
  8
VERMASSUNG
100
AcDbTrace
 10
235.8644873556
 20
98.6687973998
 30
0.0
 11
236.3144873556
 21
101.6687973998
 31
0.0
 12
235.4144873556
 22
101.6687973998
 32
0.0
 13
235.4144873556
 23
101.6687973998
 33
0.0
  0
SOLID
  5
1F6
330
1F2
100
AcDbEntity
  8
VERMASSUNG
100
AcDbTrace
 10
235.8644873556
 20
116.6687973998
 30
0.0
 11
235.4144873556
 21
113.6687973998
 31
0.0
 12
236.3144873556
 22
113.6687973998
 32
0.0
 13
236.3144873556
 23
113.6687973998
 33
0.0
  0
LINE
  5
1F7
330
1F2
100
AcDbEntity
  8
VERMASSUNG
100
AcDbLine
 10
222.2545976352
 20
98.6687973998
 30
0.0
 11
236.8644873556
 21
98.6687973998
 31
0.0
  0
LINE
  5
1F8
330
1F2
100
AcDbEntity
  8
VERMASSUNG
100
AcDbLine
 10
222.2545976352
 20
116.6687973998
 30
0.0
 11
236.8644873556
 21
116.6687973998
 31
0.0
  0
LINE
  5
1F9
330
1F2
100
AcDbEntity
  8
VERMASSUNG
100
AcDbLine
 10
235.8644873556
 20
98.6687973998
 30
0.0
 11
235.8644873556
 21
116.6687973998
 31
0.0
  0
MTEXT
  5
1FA
330
1F2
100
AcDbEntity
  8
VERMASSUNG
100
AcDbMText
 10
233.286351876
 20
104.664659805
 30
0.0
 40
2.0
 41
0.0
 71
     1
 72
     1
  1
%%c
  7
SLDTEXTSTYLE0
 11
6.123233995736766E-17
 21
1.0
 31
0.0
 73
     1
 44
1.0
  0
MTEXT
  5
1FB
330
1F2
100
AcDbEntity
  8
VERMASSUNG
100
AcDbMText
 10
233.2863519924
 20
108.2733380282
 30
0.0
 40
2.0
 41
0.0
 71
     1
 72
     1
  1
18
  7
SLDTEXTSTYLE0
 11
6.123233995736766E-17
 21
1.0
 31
0.0
 73
     1
 44
1.0
  0
ENDBLK
  5
1F4
330
1F2
100
AcDbEntity
  8
0
100
AcDbBlockEnd
  0
BLOCK
  5
1FF
330
1FE
100
AcDbEntity
  8
0
100
AcDbBlockBegin
  2
*D4
 70
     1
 10
0.0
 20
0.0
 30
0.0
  3
*D4
  1

  0
SOLID
  5
201
330
1FE
100
AcDbEntity
  8
VERMASSUNG
100
AcDbTrace
 10
241.8644873556
 20
91.1687973998
 30
0.0
 11
242.3144873556
 21
94.1687973998
 31
0.0
 12
241.4144873556
 22
94.1687973998
 32
0.0
 13
241.4144873556
 23
94.1687973998
 33
0.0
  0
SOLID
  5
202
330
1FE
100
AcDbEntity
  8
VERMASSUNG
100
AcDbTrace
 10
241.8644873556
 20
124.1687973998
 30
0.0
 11
241.4144873556
 21
121.1687973998
 31
0.0
 12
242.3144873556
 22
121.1687973998
 32
0.0
 13
242.3144873556
 23
121.1687973998
 33
0.0
  0
LINE
  5
203
330
1FE
100
AcDbEntity
  8
VERMASSUNG
100
AcDbLine
 10
225.7545976352
 20
91.1687973998
 30
0.0
 11
242.8644873556
 21
91.1687973998
 31
0.0
  0
LINE
  5
204
330
1FE
100
AcDbEntity
  8
VERMASSUNG
100
AcDbLine
 10
225.7545976352
 20
124.1687973998
 30
0.0
 11
242.8644873556
 21
124.1687973998
 31
0.0
  0
LINE
  5
205
330
1FE
100
AcDbEntity
  8
VERMASSUNG
100
AcDbLine
 10
241.8644873556
 20
91.1687973998
 30
0.0
 11
241.8644873556
 21
124.1687973998
 31
0.0
  0
MTEXT
  5
206
330
1FE
100
AcDbEntity
  8
VERMASSUNG
100
AcDbMText
 10
239.286351876
 20
104.4650801733
 30
0.0
 40
2.0
 41
0.0
 71
     1
 72
     1
  1
%%c
  7
SLDTEXTSTYLE0
 11
6.123233995736766E-17
 21
1.0
 31
0.0
 73
     1
 44
1.0
  0
MTEXT
  5
207
330
1FE
100
AcDbEntity
  8
VERMASSUNG
100
AcDbMText
 10
239.2863519924
 20
108.0737583965
 30
0.0
 40
2.0
 41
0.0
 71
     1
 72
     1
  1
33
  7
SLDTEXTSTYLE0
 11
6.123233995736766E-17
 21
1.0
 31
0.0
 73
     1
 44
1.0
  0
ENDBLK
  5
200
330
1FE
100
AcDbEntity
  8
0
100
AcDbBlockEnd
  0
BLOCK
  5
20A
330
209
100
AcDbEntity
  8
0
100
AcDbBlockBegin
  2
*D5
 70
     1
 10
0.0
 20
0.0
 30
0.0
  3
*D5
  1

  0
SOLID
  5
20C
330
209
100
AcDbEntity
  8
VERMASSUNG
100
AcDbTrace
 10
95.7545976352
 20
149.6057421452
 30
0.0
 11
98.7545976352
 21
149.1557421452
 31
0.0
 12
98.7545976352
 22
150.0557421452
 32
0.0
 13
98.7545976352
 23
150.0557421452
 33
0.0
  0
SOLID
  5
20D
330
209
100
AcDbEntity
  8
VERMASSUNG
100
AcDbTrace
 10
225.7545976352
 20
149.6057421452
 30
0.0
 11
222.7545976352
 21
150.0557421452
 31
0.0
 12
222.7545976352
 22
149.1557421452
 32
0.0
 13
222.7545976352
 23
149.1557421452
 33
0.0
  0
LINE
  5
20E
330
209
100
AcDbEntity
  8
VERMASSUNG
100
AcDbLine
 10
95.7545976352
 20
138.8687973998
 30
0.0
 11
95.7545976352
 21
150.6057421452
 31
0.0
  0
LINE
  5
20F
330
209
100
AcDbEntity
  8
VERMASSUNG
100
AcDbLine
 10
225.7545976352
 20
122.3200164165
 30
0.0
 11
225.7545976352
 21
150.6057421452
 31
0.0
  0
LINE
  5
210
330
209
100
AcDbEntity
  8
VERMASSUNG
100
AcDbLine
 10
95.7545976352
 20
149.6057421452
 30
0.0
 11
225.7545976352
 21
149.6057421452
 31
0.0
  0
MTEXT
  5
211
330
209
100
AcDbEntity
  8
VERMASSUNG
100
AcDbMText
 10
158.8551100946
 20
152.1838775083
 30
0.0
 40
2.0
 41
0.0
 71
     1
 72
     1
  1
130
  7
SLDTEXTSTYLE0
 73
     1
 44
1.0
  0
ENDBLK
  5
20B
330
209
100
AcDbEntity
  8
0
100
AcDbBlockEnd
  0
BLOCK
  5
214
330
213
100
AcDbEntity
  8
0
100
AcDbBlockBegin
  2
*D6
 70
     1
 10
0.0
 20
0.0
 30
0.0
  3
*D6
  1

  0
SOLID
  5
216
330
213
100
AcDbEntity
  8
VERMASSUNG
100
AcDbTrace
 10
121.7045976352
 20
143.6057421452
 30
0.0
 11
124.7045976352
 21
143.1557421452
 31
0.0
 12
124.7045976352
 22
144.0557421452
 32
0.0
 13
124.7045976352
 23
144.0557421452
 33
0.0
  0
SOLID
  5
217
330
213
100
AcDbEntity
  8
VERMASSUNG
100
AcDbTrace
 10
225.7545976352
 20
143.6057421452
 30
0.0
 11
222.7545976352
 21
144.0557421452
 31
0.0
 12
222.7545976352
 22
143.1557421452
 32
0.0
 13
222.7545976352
 23
143.1557421452
 33
0.0
  0
LINE
  5
218
330
213
100
AcDbEntity
  8
VERMASSUNG
100
AcDbLine
 10
121.7045976352
 20
137.5152377235
 30
0.0
 11
121.7045976352
 21
144.6057421452
 31
0.0
  0
LINE
  5
219
330
213
100
AcDbEntity
  8
VERMASSUNG
100
AcDbLine
 10
225.7545976352
 20
122.3200164165
 30
0.0
 11
225.7545976352
 21
144.6057421452
 31
0.0
  0
LINE
  5
21A
330
213
100
AcDbEntity
  8
VERMASSUNG
100
AcDbLine
 10
121.7045976352
 20
143.6057421452
 30
0.0
 11
225.7545976352
 21
143.6057421452
 31
0.0
  0
MTEXT
  5
21B
330
213
100
AcDbEntity
  8
VERMASSUNG
100
AcDbMText
 10
170.0304123698
 20
146.1838775083
 30
0.0
 40
2.0
 41
0.0
 71
     1
 72
     1
  1
104.05
  7
SLDTEXTSTYLE0
 73
     1
 44
1.0
  0
ENDBLK
  5
215
330
213
100
AcDbEntity
  8
0
100
AcDbBlockEnd
  0
BLOCK
  5
21E
330
21D
100
AcDbEntity
  8
0
100
AcDbBlockBegin
  2
*D7
 70
     1
 10
0.0
 20
0.0
 30
0.0
  3
*D7
  1

  0
SOLID
  5
220
330
21D
100
AcDbEntity
  8
VERMASSUNG
100
AcDbTrace
 10
63.8545976352
 20
155.6057421452
 30
0.0
 11
66.8545976352
 21
155.1557421452
 31
0.0
 12
66.8545976352
 22
156.0557421452
 32
0.0
 13
66.8545976352
 23
156.0557421452
 33
0.0
  0
SOLID
  5
221
330
21D
100
AcDbEntity
  8
VERMASSUNG
100
AcDbTrace
 10
225.7545976352
 20
155.6057421452
 30
0.0
 11
222.7545976352
 21
156.0557421452
 31
0.0
 12
222.7545976352
 22
155.1557421452
 32
0.0
 13
222.7545976352
 23
155.1557421452
 33
0.0
  0
LINE
  5
222
330
21D
100
AcDbEntity
  8
VERMASSUNG
100
AcDbLine
 10
63.8545976352
 20
127.3594751463
 30
0.0
 11
63.8545976352
 21
156.6057421452
 31
0.0
  0
LINE
  5
223
330
21D
100
AcDbEntity
  8
VERMASSUNG
100
AcDbLine
 10
225.7545976352
 20
122.3200164165
 30
0.0
 11
225.7545976352
 21
156.6057421452
 31
0.0
  0
LINE
  5
224
330
21D
100
AcDbEntity
  8
VERMASSUNG
100
AcDbLine
 10
63.8545976352
 20
155.6057421452
 30
0.0
 11
225.7545976352
 21
155.6057421452
 31
0.0
  0
MTEXT
  5
225
330
21D
100
AcDbEntity
  8
VERMASSUNG
100
AcDbMText
 10
142.1056312214
 20
158.1838775083
 30
0.0
 40
2.0
 41
0.0
 71
     1
 72
     1
  1
161.9
  7
SLDTEXTSTYLE0
 73
     1
 44
1.0
  0
ENDBLK
  5
21F
330
21D
100
AcDbEntity
  8
0
100
AcDbBlockEnd
  0
BLOCK
  5
228
330
227
100
AcDbEntity
  8
0
100
AcDbBlockBegin
  2
*D8
 70
     1
 10
0.0
 20
0.0
 30
0.0
  3
*D8
  1

  0
SOLID
  5
22A
330
227
100
AcDbEntity
  8
VERMASSUNG
100
AcDbTrace
 10
247.8644873556
 20
128.1687973998
 30
0.0
 11
247.4144873556
 21
125.1687973998
 31
0.0
 12
248.3144873556
 22
125.1687973998
 32
0.0
 13
248.3144873556
 23
125.1687973998
 33
0.0
  0
SOLID
  5
22B
330
227
100
AcDbEntity
  8
VERMASSUNG
100
AcDbTrace
 10
247.8644873556
 20
87.1687973998
 30
0.0
 11
248.3144873556
 21
90.1687973998
 31
0.0
 12
247.4144873556
 22
90.1687973998
 32
0.0
 13
247.4144873556
 23
90.1687973998
 33
0.0
  0
LINE
  5
22C
330
227
100
AcDbEntity
  8
VERMASSUNG
100
AcDbLine
 10
174.9297786905
 20
128.1687973998
 30
0.0
 11
248.8644873556
 21
128.1687973998
 31
0.0
  0
LINE
  5
22D
330
227
100
AcDbEntity
  8
VERMASSUNG
100
AcDbLine
 10
174.9297786905
 20
87.1687973998
 30
0.0
 11
248.8644873556
 21
87.1687973998
 31
0.0
  0
LINE
  5
22E
330
227
100
AcDbEntity
  8
VERMASSUNG
100
AcDbLine
 10
247.8644873556
 20
128.1687973998
 30
0.0
 11
247.8644873556
 21
87.1687973998
 31
0.0
  0
MTEXT
  5
22F
330
227
100
AcDbEntity
  8
VERMASSUNG
100
AcDbMText
 10
245.286351876
 20
104.5648699892
 30
0.0
 40
2.0
 41
0.0
 71
     1
 72
     1
  1
%%c
  7
SLDTEXTSTYLE0
 11
-7.044195017643634E-15
 21
1.0
 31
0.0
 73
     1
 44
1.0
  0
MTEXT
  5
230
330
227
100
AcDbEntity
  8
VERMASSUNG
100
AcDbMText
 10
245.2863519924
 20
108.1735482124
 30
0.0
 40
2.0
 41
0.0
 71
     1
 72
     1
  1
41
  7
SLDTEXTSTYLE0
 11
-7.044195017643634E-15
 21
1.0
 31
0.0
 73
     1
 44
1.0
  0
ENDBLK
  5
229
330
227
100
AcDbEntity
  8
0
100
AcDbBlockEnd
  0
ENDSEC
  0
SECTION
  2
ENTITIES
  0
MTEXT
  5
45
330
1F
100
AcDbEntity
  8
KOPF_DÜNN
100
AcDbMText
 10
13.8892156294
 20
23.8442973028
 30
0.0
 40
3.0
 41
0.0
 71
     1
 72
     1
  1
HA6.S18.K21.130
  7
SLDTEXTSTYLE0
 73
     1
 44
1.0
  0
MTEXT
  5
46
330
1F
100
AcDbEntity
  8
VERMASSUNG
100
AcDbMText
 10
13.9329988022
 20
28.8834360957
 30
0.0
 40
3.0
 41
0.0
 71
     1
 72
     1
  1
Schrumpffutter_Heat shrink chuck
  7
SLDTEXTSTYLE0
 73
     1
 44
1.0
  0
MTEXT
  5
47
330
1F
100
AcDbEntity
  8
VERMASSUNG
100
AcDbMText
 10
98.8601118557
 20
13.8365368179
 30
0.0
 40
2.0
 41
0.0
 71
     1
 72
     1
  1
Datum: 28.04.2011
  7
SLDTEXTSTYLE0
 73
     1
 44
1.0
  0
MTEXT
  5
49
330
1F
100
AcDbEntity
  8
VERMASSUNG
100
AcDbMText
 10
13.933048693
 20
18.0482802738
 30
0.0
 40
2.0
 41
0.0
 71
     1
 72
     1
  1
DIN 69 893 HSK A 63
  7
SLDTEXTSTYLE1
 73
     1
 44
1.0
  0
MTEXT
  5
4A
330
1F
100
AcDbEntity
  8
VERMASSUNG
100
AcDbMText
 10
13.9808475933
 20
13.9090973692
 30
0.0
 40
2.0
 41
0.0
 71
     1
 72
     1
  1
Gewicht: 1519g
  7
SLDTEXTSTYLE0
 73
     1
 44
1.0
  0
LINE
  5
4B
330
1F
100
AcDbEntity
  8
0
  6
Continuous
 62
     7
370
    15
100
AcDbLine
 10
96.0545976352
 20
76.1687973998
 30
0.0
 11
100.7045976352
 21
76.1687973998
 31
0.0
  0
LINE
  5
4C
330
1F
100
AcDbEntity
  8
0
  6
Continuous
 62
     7
370
    15
100
AcDbLine
 10
100.7325859943
 20
139.1687973998
 30
0.0
 11
96.0545976352
 21
139.1687973998
 31
0.0
  0
ARC
  5
4D
330
1F
100
AcDbEntity
  8
0
  6
Continuous
 62
     7
370
    15
100
AcDbCircle
 10
96.0545976352
 20
76.4687973998
 30
0.0
 40
0.3000000000000114
100
AcDbArc
 50
180.0
 51
270.0
  0
ARC
  5
4E
330
1F
100
AcDbEntity
  8
0
  6
Continuous
 62
     7
370
    15
100
AcDbCircle
 10
96.0545976352
 20
138.8687973998
 30
0.0
 40
0.3000000000000114
100
AcDbArc
 50
90.0
 51
180.0
  0
ARC
  5
4F
330
1F
100
AcDbEntity
  8
0
  6
Continuous
 62
     7
370
    15
100
AcDbCircle
 10
124.7045976352
 20
81.1528385983
 30
0.0
 40
3.0
100
AcDbArc
 50
104.3250519401
 51
180.0
  0
ARC
  5
50
330
1F
100
AcDbEntity
  8
0
  6
Continuous
 62
     7
370
    15
100
AcDbCircle
 10
124.7045976352
 20
134.1847562013
 30
0.0
 40
3.0
100
AcDbArc
 50
180.0
 51
255.6749480599
  0
ARC
  5
51
330
1F
100
AcDbEntity
  8
0
  6
Continuous
 62
     7
370
    15
100
AcDbCircle
 10
95.2545908826
 20
83.0983597854
 30
0.0
 40
0.6000067526677242
100
AcDbArc
 50
33.5571153394
 51
90.0
  0
ARC
  5
52
330
1F
100
AcDbEntity
  8
0
  6
Continuous
 62
     7
370
    15
100
AcDbCircle
 10
95.2545908826
 20
132.2392350142
 30
0.0
 40
0.6000067526677242
100
AcDbArc
 50
270.0
 51
326.4428846606
  0
LINE
  5
53
330
1F
100
AcDbEntity
  8
0
  6
Continuous
 62
     7
370
    15
100
AcDbLine
 10
82.5241754527
 20
131.3265818596
 30
0.0
 11
69.9545976352
 21
130.696843492
 31
0.0
  0
LINE
  5
54
330
1F
100
AcDbEntity
  8
0
  6
Continuous
 62
     7
370
    15
100
AcDbLine
 10
93.7545976352
 20
131.8892282615
 30
0.0
 11
90.9359882777
 21
131.7480153678
 31
0.0
  0
LINE
  5
55
330
1F
100
AcDbEntity
  8
0
  6
Continuous
 62
     7
370
    15
100
AcDbLine
 10
90.9362097529
 20
83.5895683358
 30
0.0
 11
93.7545976352
 21
83.4483665381
 31
0.0
  0
LINE
  5
56
330
1F
100
AcDbEntity
  8
0
  6
Continuous
 62
     7
370
    15
100
AcDbLine
 10
73.9545976352
 20
84.440350506
 30
0.0
 11
82.5248744044
 21
84.0109779224
 31
0.0
  0
LINE
  5
57
330
1F
100
AcDbEntity
  8
0
  6
Continuous
 62
     7
370
    15
100
AcDbLine
 10
93.7545976352
 20
83.4483665381
 30
0.0
 11
94.6113104086
 21
83.6779220338
 31
0.0
  0
LINE
  5
58
330
1F
100
AcDbEntity
  8
0
  6
Continuous
 62
     7
370
    15
100
AcDbLine
 10
94.6113104086
 20
131.6596727657
 30
0.0
 11
93.7545976352
 21
131.8892282615
 31
0.0
  0
ARC
  5
59
330
1F
100
AcDbEntity
  8
0
  6
Continuous
 62
     7
370
    15
100
AcDbCircle
 10
94.7666018357
 20
83.0983665381
 30
0.0
 40
0.6000000000000085
100
AcDbArc
 50
90.0
 51
105.0
  0
ARC
  5
5A
330
1F
100
AcDbEntity
  8
0
  6
Continuous
 62
     7
370
    15
100
AcDbCircle
 10
94.7666018357
 20
132.2392282615
 30
0.0
 40
0.6000000000000227
100
AcDbArc
 50
255.0
 51
270.0
  0
LINE
  5
5B
330
1F
100
AcDbEntity
  8
0
  6
Continuous
 62
     7
370
    15
100
AcDbLine
 10
94.7666018357
 20
83.6983665381
 30
0.0
 11
95.2545908826
 21
83.6983665381
 31
0.0
  0
LINE
  5
5C
330
1F
100
AcDbEntity
  8
0
  6
Continuous
 62
     7
370
    15
100
AcDbLine
 10
95.2545908826
 20
131.6392282615
 30
0.0
 11
94.7666018357
 21
131.6392282615
 31
0.0
  0
ARC
  5
5D
330
1F
100
AcDbEntity
  8
0
  6
Continuous
 62
     7
370
    15
100
AcDbCircle
 10
148.7045976352
 20
-12.8312026002
 30
0.0
 40
100.0
100
AcDbArc
 50
90.0
 51
104.3250519401
  0
ARC
  5
5E
330
1F
100
AcDbEntity
  8
0
  6
Continuous
 62
     7
370
    15
100
AcDbCircle
 10
148.7045976352
 20
228.1687973998
 30
0.0
 40
100.0
100
AcDbArc
 50
255.6749480599
 51
270.0
  0
LINE
  5
5F
330
1F
100
AcDbEntity
  8
0
  6
Continuous
 62
     7
370
    15
100
AcDbLine
 10
174.9297786905
 20
87.1687973998
 30
0.0
 11
223.9115158267
 21
91.0237437156
 31
0.0
  0
LINE
  5
60
330
1F
100
AcDbEntity
  8
0
  6
Continuous
 62
     7
370
    15
100
AcDbLine
 10
223.9115158267
 20
124.3138510839
 30
0.0
 11
174.9297786905
 21
128.1687973998
 31
0.0
  0
LINE
  5
61
330
1F
100
AcDbEntity
  8
0
  6
Continuous
 62
     7
370
    15
100
AcDbLine
 10
161.20335465
 20
87.1687973998
 30
0.0
 11
174.9297786905
 21
87.1687973998
 31
0.0
  0
LINE
  5
62
330
1F
100
AcDbEntity
  8
0
  6
Continuous
 62
     7
370
    15
100
AcDbLine
 10
148.7045976352
 20
87.1687973998
 30
0.0
 11
154.2151582166
 21
87.1687973998
 31
0.0
  0
LINE
  5
63
330
1F
100
AcDbEntity
  8
0
  6
Continuous
 62
     7
370
    15
100
AcDbLine
 10
154.2078257961
 20
128.1687973998
 30
0.0
 11
148.7045976352
 21
128.1687973998
 31
0.0
  0
LINE
  5
64
330
1F
100
AcDbEntity
  8
0
  6
Continuous
 62
     7
370
    15
100
AcDbLine
 10
174.9297786905
 20
128.1687973998
 30
0.0
 11
161.1955964579
 21
128.1687973998
 31
0.0
  0
ARC
  5
65
330
1F
100
AcDbEntity
  8
0
  6
Continuous
 62
     7
370
    15
100
AcDbCircle
 10
223.7545976352
 20
93.0175783831
 30
0.0
 40
2.0
100
AcDbArc
 50
274.5
 51
0.0
  0
ARC
  5
66
330
1F
100
AcDbEntity
  8
0
  6
Continuous
 62
     7
370
    15
100
AcDbCircle
 10
223.7545976352
 20
122.3200164165
 30
0.0
 40
2.0
100
AcDbArc
 50
0.0
 51
85.5
  0
LINE
  5
67
330
1F
100
AcDbEntity
  8
0
  6
Continuous
 62
     7
370
    15
100
AcDbLine
 10
65.1379342752
 20
86.7987973998
 30
0.0
 11
72.5545976352
 21
86.7987973998
 31
0.0
  0
ARC
  5
68
330
1F
100
AcDbEntity
  8
0
  6
Continuous
 62
     7
370
    15
100
AcDbCircle
 10
72.5545976352
 20
85.3987973998
 30
0.0
 40
1.400000000000006
100
AcDbArc
 50
42.2465410162
 51
90.0
  0
LINE
  5
69
330
1F
100
AcDbEntity
  8
0
  6
Continuous
 62
     7
370
    15
100
AcDbLine
 10
63.8657580703
 20
87.9376369647
 30
0.0
 11
64.9957610934
 21
86.8076339416
 31
0.0
  0
LINE
  5
6A
330
1F
100
AcDbEntity
  8
0
  6
Continuous
 62
     7
370
    15
100
AcDbLine
 10
64.9957610934
 20
128.529960858
 30
0.0
 11
63.8644984086
 21
127.3986981732
 31
0.0
  0
ARC
  5
6B
330
1F
100
AcDbEntity
  8
0
  6
Continuous
 62
     7
370
    15
100
AcDbCircle
 10
68.5545976352
 20
129.9387973998
 30
0.0
 40
1.399999999999984
100
AcDbArc
 50
270.0
 51
301.7485287426
  0
LINE
  5
6C
330
1F
100
AcDbEntity
  8
0
  6
Continuous
 62
     7
370
    15
100
AcDbLine
 10
68.5545976352
 20
128.5387973998
 30
0.0
 11
65.1454860366
 21
128.5387973998
 31
0.0
  0
LINE
  5
6D
330
1F
100
AcDbEntity
  8
0
  6
Continuous
 62
     7
370
    15
100
AcDbLine
 10
225.7545976352
 20
93.8044291394
 30
0.0
 11
225.8319198424
 21
93.9513944819
 31
0.0
  0
LINE
  5
6E
330
1F
100
AcDbEntity
  8
0
  6
Continuous
 62
     7
370
    15
100
AcDbLine
 10
225.7730301187
 20
121.3885141013
 30
0.0
 11
225.7545976352
 21
121.4235484898
 31
0.0
  0
SPLINE
  5
6F
330
1F
100
AcDbEntity
  8
0
  6
Continuous
 62
     7
370
    15
100
AcDbSpline
210
0.0
220
0.0
230
1.0
 70
     8
 71
     3
 72
    70
 73
    66
 74
     0
 42
0.00000001
 43
0.00000001
 40
-0.0312500000000002
 40
-0.0312500000000002
 40
0.0
 40
0.0
 40
0.0312499999999999
 40
0.0312499999999999
 40
0.0624999999999999
 40
0.0624999999999999
 40
0.0937499999999998
 40
0.0937499999999998
 40
0.1249999999999998
 40
0.1249999999999998
 40
0.1562499999999997
 40
0.1562499999999997
 40
0.1874999999999997
 40
0.1874999999999997
 40
0.2187499999999996
 40
0.2187499999999996
 40
0.2499999999999996
 40
0.2499999999999996
 40
0.2812499999999995
 40
0.2812499999999995
 40
0.3124999999999994
 40
0.3124999999999994
 40
0.3437499999999994
 40
0.3437499999999994
 40
0.3749999999999993
 40
0.3749999999999993
 40
0.4062499999999993
 40
0.4062499999999993
 40
0.4374999999999992
 40
0.4374999999999992
 40
0.4687499999999992
 40
0.4687499999999992
 40
0.4999999999999991
 40
0.4999999999999991
 40
0.5312499999999991
 40
0.5312499999999991
 40
0.562499999999999
 40
0.562499999999999
 40
0.5937499999999989
 40
0.5937499999999989
 40
0.6249999999999989
 40
0.6249999999999989
 40
0.6562499999999989
 40
0.6562499999999989
 40
0.6874999999999988
 40
0.6874999999999988
 40
0.7187499999999987
 40
0.7187499999999987
 40
0.7499999999999987
 40
0.7499999999999987
 40
0.7812499999999988
 40
0.7812499999999988
 40
0.812499999999999
 40
0.812499999999999
 40
0.8437499999999991
 40
0.8437499999999991
 40
0.8749999999999993
 40
0.8749999999999993
 40
0.9062499999999994
 40
0.9062499999999994
 40
0.9374999999999997
 40
0.9374999999999997
 40
0.9687499999999998
 40
0.9687499999999998
 40
1.0
 40
1.0
 40
1.03125
 40
1.03125
 10
103.4900522965594
 20
118.2897042857668
 30
0.0
 10
104.0191429738797
 20
118.2897042857668
 30
0.0
 10
104.2792136412568
 20
118.3143815805521
 30
0.0
 10
104.7907883210922
 20
118.4108532535939
 30
0.0
 10
105.0449636048324
 20
118.483834169574
 30
0.0
 10
105.5292342348941
 20
118.6735747725126
 30
0.0
 10
105.7588753267753
 20
118.7894354309064
 30
0.0
 10
106.1934796750088
 20
119.0620532768641
 30
0.0
 10
106.3990454516554
 20
119.2200923589178
 30
0.0
 10
106.7676025922506
 20
119.5636352098885
 30
0.0
 10
106.9330835749861
 20
119.7503976539902
 30
0.0
 10
107.2255080844212
 20
120.153940828387
 30
0.0
 10
107.3496090610477
 20
120.3674378248161
 30
0.0
 10
107.5491882577974
 20
120.8068211387386
 30
0.0
 10
107.6261218436557
 20
121.0359611258843
 30
0.0
 10
107.7289789021761
 20
121.5019352486443
 30
0.0
 10
107.7544518116352
 20
121.7348176943204
 30
0.0
 10
107.754742222203
 20
122.2002152294003
 30
0.0
 10
107.7287175884272
 20
122.4350909867946
 30
0.0
 10
107.6265693039352
 20
122.8865841340409
 30
0.0
 10
107.5509928563521
 20
123.1046306094522
 30
0.0
 10
107.3504953252071
 20
123.52572513449
 30
0.0
 10
107.2253664836987
 20
123.7276465190084
 30
0.0
 10
106.9360076826772
 20
124.0996760015273
 30
0.0
 10
106.7705966956217
 20
124.2723043051076
 30
0.0
 10
106.3976061374739
 20
124.5896223096536
 30
0.0
 10
106.1958731043848
 20
124.7294092431553
 30
0.0
 10
105.7630138535569
 20
124.9735854967071
 30
0.0
 10
105.5290953206675
 20
125.0788150077486
 30
0.0
 10
105.0449115855249
 20
125.2469721541237
 30
0.0
 10
104.7955959595694
 20
125.3102230447176
 30
0.0
 10
104.2825634351417
 20
125.3958022538201
 30
0.0
 10
104.017269612237
 20
125.4176744187426
 30
0.0
 10
103.4949349923673
 20
125.4178380683865
 30
0.0
 10
103.2351813298856
 20
125.3968363762905
 30
0.0
 10
102.7185695142403
 20
125.3114340212129
 30
0.0
 10
102.46620347374
 20
125.2474278379259
 30
0.0
 10
101.9846783522072
 20
125.0806133178847
 30
0.0
 10
101.7518276200936
 20
124.9764801544856
 30
0.0
 10
101.3147377716549
 20
124.7304935019906
 30
0.0
 10
101.1134167829977
 20
124.5907436710417
 30
0.0
 10
100.7443307576978
 20
124.2776056013171
 30
0.0
 10
100.5753460066461
 20
124.1021494420471
 30
0.0
 10
100.2848899499869
 20
123.7293091779468
 30
0.0
 10
100.1618181386248
 20
123.5311873678359
 30
0.0
 10
99.96048189720274
 20
123.1104760251022
 30
0.0
 10
99.88326935126052
 20
122.8884860044347
 30
0.0
 10
99.78106580836045
 20
122.4386210647263
 30
0.0
 10
99.75483745690813
 20
122.2083656516096
 30
0.0
 10
99.75436105759103
 20
121.7370497090605
 30
0.0
 10
99.78010347008899
 20
121.5038122933464
 30
0.0
 10
99.88141424645286
 20
121.0421357538483
 30
0.0
 10
99.95824688584379
 20
120.8112383667362
 30
0.0
 10
100.158650725059
 20
120.3689623529445
 30
0.0
 10
100.281322223351
 20
120.1578999216586
 30
0.0
 10
100.5712695125152
 20
119.7564014109259
 30
0.0
 10
100.7398404918805
 20
119.56549488885
 30
0.0
 10
101.1081100859936
 20
119.2217695568529
 30
0.0
 10
101.309171943264
 20
119.0666323706388
 30
0.0
 10
101.7462028618489
 20
118.7915550105591
 30
0.0
 10
101.9783510749785
 20
118.6744387811371
 30
0.0
 10
102.4593613564773
 20
118.4855122960726
 30
0.0
 10
102.7114614393078
 20
118.4124373256783
 30
0.0
 10
103.2285309255668
 20
118.3143852665438
 30
0.0
 10
103.4900522965594
 20
118.2897042857668
 30
0.0
 10
104.0191429738797
 20
118.2897042857668
 30
0.0
  0
LINE
  5
70
330
1F
100
AcDbEntity
  8
0
  6
Continuous
 62
     7
370
    15
100
AcDbLine
 10
100.7045976352
 20
127.5187973998
 30
0.0
 11
110.3626648037
 21
127.5187973998
 31
0.0
  0
LINE
  5
71
330
1F
100
AcDbEntity
  8
0
  6
Continuous
 62
     7
370
    15
100
AcDbLine
 10
110.3626648037
 20
77.4818797035
 30
0.0
 11
110.3626648037
 21
127.5187973998
 31
0.0
  0
LINE
  5
72
330
1F
100
AcDbEntity
  8
0
  6
Continuous
 62
     7
370
    15
100
AcDbLine
 10
110.3626648037
 20
77.4818797035
 30
0.0
 11
108.7045976352
 21
77.4818797035
 31
0.0
  0
SPLINE
  5
73
330
1F
100
AcDbEntity
  8
0
  6
Continuous
 62
     7
370
    15
100
AcDbSpline
210
0.0
220
0.0
230
1.0
 70
     8
 71
     3
 72
    28
 73
    24
 74
     0
 42
0.00000001
 43
0.00000001
 40
0.0
 40
0.0
 40
0.0
 40
0.0
 40
0.1250000000000001
 40
0.1250000000000001
 40
0.1875000000000001
 40
0.1875000000000001
 40
0.2500000000000001
 40
0.2500000000000001
 40
0.3749999999999999
 40
0.3749999999999999
 40
0.4375
 40
0.4375
 40
0.4999999999999999
 40
0.4999999999999999
 40
0.6249999999999999
 40
0.6249999999999999
 40
0.7499999999999997
 40
0.7499999999999997
 40
0.8124999999999998
 40
0.8124999999999998
 40
0.8749999999999998
 40
0.8749999999999998
 40
1.0
 40
1.0
 40
1.0
 40
1.0
 10
108.7045976352195
 20
77.48187970353635
 30
0.0
 10
108.1728898777266
 20
77.48187970353635
 30
0.0
 10
107.6506513124163
 20
77.46609498958614
 30
0.0
 10
106.8807808261413
 20
77.42109957550994
 30
0.0
 10
106.6264212539499
 20
77.4025445804342
 30
0.0
 10
106.1222996732514
 20
77.3586918579877
 30
0.0
 10
105.8725768558235
 20
77.33334725103549
 30
0.0
 10
105.1469869043771
 20
77.2499451732854
 30
0.0
 10
104.6886266427956
 20
77.18407961413432
 30
0.0
 10
104.0381286994017
 20
77.07510927364251
 30
0.0
 10
103.8264466486092
 20
77.03686963787587
 30
0.0
 10
103.4223751594712
 20
76.95911090045651
 30
0.0
 10
103.2298686456504
 20
76.91960993828114
 30
0.0
 10
102.6800336746291
 20
76.80070219591516
 30
0.0
 10
102.3501048963203
 20
76.72088451449055
 30
0.0
 10
101.7656336277516
 20
76.56754135269449
 30
0.0
 10
101.5193564897381
 20
76.49620759942525
 30
0.0
 10
101.2195136970401
 20
76.4022640923506
 30
0.0
 10
101.1310568399679
 20
76.37307029899068
 30
0.0
 10
100.9776954866628
 20
76.31960372472726
 30
0.0
 10
100.9126072724365
 20
76.29524439045208
 30
0.0
 10
100.7570132564958
 20
76.23165424500736
 30
0.0
 10
100.7045976352196
 20
76.2015513099181
 30
0.0
 10
100.7045976352196
 20
76.18467441692117
 30
0.0
  0
LINE
  5
74
330
1F
100
AcDbEntity
  8
0
  6
Continuous
 62
     7
370
    15
100
AcDbLine
 10
100.7045976352
 20
76.1846744169
 30
0.0
 11
100.7045976352
 21
76.1687973998
 31
0.0
  0
SPLINE
  5
75
330
1F
100
AcDbEntity
  8
0
  6
Continuous
 62
     7
370
    15
100
AcDbSpline
210
0.0
220
0.0
230
1.0
 70
     8
 71
     3
 72
    17
 73
    13
 74
     0
 42
0.00000001
 43
0.00000001
 40
0.0
 40
0.0
 40
0.0
 40
0.0
 40
0.1034796923964056
 40
0.210023918880785
 40
0.3134862136955583
 40
0.4198361274354882
 40
0.5254127712915682
 40
0.633961069541979
 40
0.7409508756305031
 40
0.8511696089308174
 40
0.9558996534551937
 40
1.0
 40
1.0
 40
1.0
 40
1.0
 10
108.7045976352195
 20
138.1359928729478
 30
0.0
 10
108.2693492861095
 20
138.1414410694811
 30
0.0
 10
107.3859627795445
 20
138.1524988099929
 30
0.0
 10
106.1051351943159
 20
138.2388572028945
 30
0.0
 10
104.8877186584418
 20
138.3667273794322
 30
0.0
 10
103.7799128061953
 20
138.5256726780254
 30
0.0
 10
102.7916740022471
 20
138.700166365741
 30
0.0
 10
101.9669504447155
 20
138.8693322163809
 30
0.0
 10
101.3179969440562
 20
139.0172159989092
 30
0.0
 10
100.9009621285945
 20
139.11900658314
 30
0.0
 10
100.70236541563
 20
139.1693581057432
 30
0.0
 10
100.7256781370633
 20
139.1634524215208
 30
0.0
 10
100.7325859943008
 20
139.1617024918262
 30
0.0
  0
LINE
  5
76
330
1F
100
AcDbEntity
  8
0
  6
Continuous
 62
     7
370
    15
100
AcDbLine
 10
110.3626648037
 20
138.1359928729
 30
0.0
 11
108.7045976352
 21
138.1359928729
 31
0.0
  0
LINE
  5
77
330
1F
100
AcDbEntity
  8
0
  6
Continuous
 62
     7
370
    15
100
AcDbLine
 10
110.3626648037
 20
132.1274870622
 30
0.0
 11
110.3626648037
 21
138.1359928729
 31
0.0
  0
LINE
  5
78
330
1F
100
AcDbEntity
  8
0
  6
Continuous
 62
     7
370
    15
100
AcDbLine
 10
107.9502179809
 20
132.1274870622
 30
0.0
 11
110.3626648037
 21
132.1274870622
 31
0.0
  0
SPLINE
  5
79
330
1F
100
AcDbEntity
  8
0
  6
Continuous
 62
     7
370
    15
100
AcDbSpline
210
0.0
220
0.0
230
1.0
 70
     8
 71
     3
 72
    20
 73
    16
 74
     0
 42
0.00000001
 43
0.00000001
 40
0.0
 40
0.0
 40
0.0
 40
0.0
 40
0.2499999999999997
 40
0.2499999999999997
 40
0.3749999999999997
 40
0.3749999999999997
 40
0.4999999999999998
 40
0.4999999999999998
 40
0.6249999999999998
 40
0.6249999999999998
 40
0.7499999999999999
 40
0.7499999999999999
 40
0.8749999999999999
 40
0.8749999999999999
 40
1.0
 40
1.0
 40
1.0
 40
1.0
 10
100.7045976352196
 20
127.5187973997835
 30
0.0
 10
100.9529713695076
 20
128.1726598280809
 30
0.0
 10
101.2725414618529
 20
128.7764456100781
 30
0.0
 10
101.8948476950575
 20
129.6032843462467
 30
0.0
 10
102.1262719554883
 20
129.8657129841996
 30
0.0
 10
102.647486295138
 20
130.3623756383045
 30
0.0
 10
102.9341067777731
 20
130.5929625173261
 30
0.0
 10
103.5535915190807
 20
131.0095167419087
 30
0.0
 10
103.8878918985677
 20
131.1970145438762
 30
0.0
 10
104.6131523711925
 20
131.5284115215126
 30
0.0
 10
104.9950674285829
 20
131.6679155090079
 30
0.0
 10
105.7898556047546
 20
131.8933690164789
 30
0.0
 10
106.204013798961
 20
131.9799951280225
 30
0.0
 10
107.0695601395424
 20
132.0979759168766
 30
0.0
 10
107.5074477545542
 20
132.1274870621509
 30
0.0
 10
107.9502179809088
 20
132.1274870621509
 30
0.0
  0
SPLINE
  5
7A
330
1F
100
AcDbEntity
  8
0
  6
Continuous
 62
     7
370
    15
100
AcDbSpline
210
0.0
220
0.0
230
1.0
 70
     8
 71
     3
 72
    70
 73
    66
 74
     0
 42
0.00000001
 43
0.00000001
 40
-0.0312499999999998
 40
-0.0312499999999998
 40
0.0
 40
0.0
 40
0.0312500000000003
 40
0.0312500000000003
 40
0.0625000000000006
 40
0.0625000000000006
 40
0.0937500000000009
 40
0.0937500000000009
 40
0.1250000000000012
 40
0.1250000000000012
 40
0.1562500000000014
 40
0.1562500000000014
 40
0.1875000000000017
 40
0.1875000000000017
 40
0.2187500000000021
 40
0.2187500000000021
 40
0.2500000000000023
 40
0.2500000000000023
 40
0.2812500000000024
 40
0.2812500000000024
 40
0.3125000000000026
 40
0.3125000000000026
 40
0.3437500000000027
 40
0.3437500000000027
 40
0.3750000000000028
 40
0.3750000000000028
 40
0.4062500000000029
 40
0.4062500000000029
 40
0.4375000000000031
 40
0.4375000000000031
 40
0.4687500000000032
 40
0.4687500000000032
 40
0.5000000000000033
 40
0.5000000000000033
 40
0.5312500000000032
 40
0.5312500000000032
 40
0.562500000000003
 40
0.562500000000003
 40
0.5937500000000029
 40
0.5937500000000029
 40
0.6250000000000027
 40
0.6250000000000027
 40
0.6562500000000026
 40
0.6562500000000026
 40
0.6875000000000024
 40
0.6875000000000024
 40
0.7187500000000022
 40
0.7187500000000022
 40
0.7500000000000021
 40
0.7500000000000021
 40
0.7812500000000019
 40
0.7812500000000019
 40
0.8125000000000016
 40
0.8125000000000016
 40
0.8437500000000013
 40
0.8437500000000013
 40
0.875000000000001
 40
0.875000000000001
 40
0.9062500000000008
 40
0.9062500000000008
 40
0.9375000000000006
 40
0.9375000000000006
 40
0.9687500000000002
 40
0.9687500000000002
 40
1.0
 40
1.0
 40
1.03125
 40
1.03125
 10
103.4900522965594
 20
132.7277607945627
 30
0.0
 10
104.0191429738797
 20
132.7277607945627
 30
0.0
 10
104.2792136412568
 20
132.7436612349775
 30
0.0
 10
104.7907883210922
 20
132.8056055851517
 30
0.0
 10
105.0449636048324
 20
132.852407819243
 30
0.0
 10
105.5292342348941
 20
132.9733848026981
 30
0.0
 10
105.7588753267753
 20
133.046987130505
 30
0.0
 10
106.1934796750088
 20
133.2188114014831
 30
0.0
 10
106.3990454516554
 20
133.3178148244105
 30
0.0
 10
106.7676025922506
 20
133.5309112383233
 30
0.0
 10
106.9330835749861
 20
133.645810954453
 30
0.0
 10
107.2255080844212
 20
133.8911778531433
 30
0.0
 10
107.3496090610477
 20
134.0196177536136
 30
0.0
 10
107.5491882577974
 20
134.2805099016995
 30
0.0
 10
107.6261218436557
 20
134.414891073039
 30
0.0
 10
107.7289789021761
 20
134.6842110241453
 30
0.0
 10
107.7544518116352
 20
134.8168922883634
 30
0.0
 10
107.754742222203
 20
135.0780787624944
 30
0.0
 10
107.7287175884272
 20
135.2078438006592
 30
0.0
 10
107.6265693039352
 20
135.4534264349318
 30
0.0
 10
107.5509928563521
 20
135.5700879722407
 30
0.0
 10
107.3504953252071
 20
135.7919931623953
 30
0.0
 10
107.2253664836987
 20
135.8966044163183
 30
0.0
 10
106.9360076826772
 20
136.0866508279263
 30
0.0
 10
106.7705966956217
 20
136.173410499376
 30
0.0
 10
106.3976061374739
 20
136.3309148751275
 30
0.0
 10
106.1958731043848
 20
136.3992401399148
 30
0.0
 10
105.7630138535569
 20
136.517469863534
 30
0.0
 10
105.5290953206675
 20
136.5677647796378
 30
0.0
 10
105.0449115855249
 20
136.6476303165275
 30
0.0
 10
104.7955959595694
 20
136.6773714443271
 30
0.0
 10
104.2825634351417
 20
136.7175241858353
 30
0.0
 10
104.017269612237
 20
136.7277224552452
 30
0.0
 10
103.4949349923673
 20
136.7277989136298
 30
0.0
 10
103.2351813298856
 20
136.7180079020208
 30
0.0
 10
102.7185695142403
 20
136.677941063282
 30
0.0
 10
102.46620347374
 20
136.6478438964252
 30
0.0
 10
101.9846783522072
 20
136.568621686595
 30
0.0
 10
101.7518276200937
 20
136.5188642071317
 30
0.0
 10
101.3147377716549
 20
136.3997722646812
 30
0.0
 10
101.1134167829977
 20
136.331457003134
 30
0.0
 10
100.7443307576978
 20
136.1760560362004
 30
0.0
 10
100.5753460066461
 20
136.0879036941335
 30
0.0
 10
100.2848899499869
 20
135.8974643050172
 30
0.0
 10
100.1618181386248
 20
135.7948397273181
 30
0.0
 10
99.96048189720274
 20
135.57319938071
 30
0.0
 10
99.88326935126052
 20
135.4544453051625
 30
0.0
 10
99.78106580836045
 20
135.2097793662448
 30
0.0
 10
99.75483745690813
 20
135.0826226407963
 30
0.0
 10
99.75436105759103
 20
134.8181744949407
 30
0.0
 10
99.780103470089
 20
134.6852738146836
 30
0.0
 10
99.88141424645286
 20
134.4184815412015
 30
0.0
 10
99.95824688584379
 20
134.283117639733
 30
0.0
 10
100.158650725059
 20
134.0205378444304
 30
0.0
 10
100.281322223351
 20
133.8935626846766
 30
0.0
 10
100.5712695125152
 20
133.6494832985942
 30
0.0
 10
100.7398404918805
 20
133.5320581738403
 30
0.0
 10
101.1081100859936
 20
133.3188617128919
 30
0.0
 10
101.309171943264
 20
133.221687594467
 30
0.0
 10
101.7462028618489
 20
133.0483327072529
 30
0.0
 10
101.9783510749785
 20
132.9739331555962
 30
0.0
 10
102.4593613564773
 20
132.8534802760915
 30
0.0
 10
102.7114614393078
 20
132.8066219008255
 30
0.0
 10
103.2285309255668
 20
132.7436644038418
 30
0.0
 10
103.4900522965594
 20
132.7277607945627
 30
0.0
 10
104.0191429738797
 20
132.7277607945627
 30
0.0
  0
LINE
  5
7B
330
1F
100
AcDbEntity
  8
0
  6
Continuous
 62
     7
370
    15
100
AcDbLine
 10
121.7045976352
 20
78.1085199992
 30
0.0
 11
121.7045976352
 21
127.5187973998
 31
0.0
  0
SPLINE
  5
7C
330
1F
100
AcDbEntity
  8
0
  6
Continuous
 62
     7
370
    15
100
AcDbSpline
210
0.0
220
0.0
230
1.0
 70
     8
 71
     3
 72
    10
 73
     6
 74
     0
 42
0.00000001
 43
0.00000001
 40
0.0
 40
0.0
 40
0.0
 40
0.0
 40
0.5
 40
0.5
 40
1.0
 40
1.0
 40
1.0
 40
1.0
 10
121.7045976352196
 20
78.10851999919066
 30
0.0
 10
121.7045976352195
 20
77.948632730997
 30
0.0
 10
121.6432879839837
 20
77.78750547548239
 30
0.0
 10
121.4241883464486
 20
77.55340647712757
 30
0.0
 10
121.2661401401351
 20
77.48187970353635
 30
0.0
 10
121.1045976352195
 20
77.48187970353635
 30
0.0
  0
SPLINE
  5
7D
330
1F
100
AcDbEntity
  8
0
  6
Continuous
 62
     7
370
    15
100
AcDbSpline
210
0.0
220
0.0
230
1.0
 70
    24
 71
     3
 72
    12
 73
     8
 74
     0
 42
0.00000001
 43
0.00000001
 40
0.0
 40
0.0
 40
0.0
 40
0.0
 40
0.2500000000000033
 40
0.2500000000000033
 40
0.5000000000000067
 40
0.5000000000000067
 40
1.0
 40
1.0
 40
1.0
 40
1.0
 10
121.1045976352195
 20
127.5187973997835
 30
0.0
 10
121.1948367029066
 20
127.5187973997835
 30
0.0
 10
121.2857348170131
 20
127.5187973997835
 30
0.0
 10
121.4403318535016
 20
127.5187973997835
 30
0.0
 10
121.5053102696097
 20
127.5187973997835
 30
0.0
 10
121.657145297546
 20
127.5187973997835
 30
0.0
 10
121.7045976352196
 20
127.5187973997835
 30
0.0
 10
121.7045976352195
 20
127.5187973997835
 30
0.0
  0
LINE
  5
7E
330
1F
100
AcDbEntity
  8
0
  6
Continuous
 62
     7
370
    15
100
AcDbLine
 10
117.1465304667
 20
77.4818797035
 30
0.0
 11
117.1465304667
 21
127.5187973998
 31
0.0
  0
SPLINE
  5
7F
330
1F
100
AcDbEntity
  8
0
  6
Continuous
 62
     7
370
    15
100
AcDbSpline
210
0.0
220
0.0
230
1.0
 70
     8
 71
     3
 72
     8
 73
     4
 74
     0
 42
0.00000001
 43
0.00000001
 40
0.0
 40
0.0
 40
0.0
 40
0.0
 40
1.0
 40
1.0
 40
1.0
 40
1.0
 10
117.1465304667086
 20
77.48187970353635
 30
0.0
 10
116.6510508060429
 20
78.37740579146971
 30
0.0
 10
116.1569367580007
 20
79.27369020652196
 30
0.0
 10
115.6645976352196
 20
80.17096024072866
 30
0.0
  0
LINE
  5
80
330
1F
100
AcDbEntity
  8
0
  6
Continuous
 62
     7
370
    15
100
AcDbLine
 10
115.6645976352
 20
80.1709602407
 30
0.0
 11
115.6645976352
 21
127.5187973998
 31
0.0
  0
SPLINE
  5
81
330
1F
100
AcDbEntity
  8
0
  6
Continuous
 62
     7
370
    15
100
AcDbSpline
210
0.0
220
0.0
230
1.0
 70
    24
 71
     3
 72
     8
 73
     4
 74
     0
 42
0.00000001
 43
0.00000001
 40
0.0
 40
0.0
 40
0.0
 40
0.0
 40
1.0
 40
1.0
 40
1.0
 40
1.0
 10
115.6645976352196
 20
127.5187973997835
 30
0.0
 10
116.1445496295844
 20
127.5187973997835
 30
0.0
 10
116.6398503585581
 20
127.5187973997835
 30
0.0
 10
117.1465304667086
 20
127.5187973997835
 30
0.0
  0
LINE
  5
82
330
1F
100
AcDbEntity
  8
0
  6
Continuous
 62
     7
370
    15
100
AcDbLine
 10
121.1045976352
 20
77.4818797035
 30
0.0
 11
117.1465304667
 21
77.4818797035
 31
0.0
  0
LINE
  5
83
330
1F
100
AcDbEntity
  8
0
  6
Continuous
 62
     7
370
    15
100
AcDbLine
 10
117.1465304667
 20
127.5187973998
 30
0.0
 11
121.1045976352
 21
127.5187973998
 31
0.0
  0
LINE
  5
84
330
1F
100
AcDbEntity
  8
0
  6
Continuous
 62
     7
370
    15
100
AcDbLine
 10
95.7545976352
 20
76.4687973998
 30
0.0
 11
95.7545976352
 21
138.868797396
 31
0.0
  0
LINE
  5
85
330
1F
100
AcDbEntity
  8
0
  6
Continuous
 62
     7
370
    15
100
AcDbLine
 10
111.8445976352
 20
80.1709602407
 30
0.0
 11
111.8445976352
 21
127.5187973998
 31
0.0
  0
SPLINE
  5
86
330
1F
100
AcDbEntity
  8
0
  6
Continuous
 62
     7
370
    15
100
AcDbSpline
210
0.0
220
0.0
230
1.0
 70
     8
 71
     3
 72
     8
 73
     4
 74
     0
 42
0.00000001
 43
0.00000001
 40
0.0
 40
0.0
 40
0.0
 40
0.0
 40
1.0
 40
1.0
 40
1.0
 40
1.0
 10
111.8445976352196
 20
80.17096024072865
 30
0.0
 10
111.3522585124384
 20
79.27369020652195
 30
0.0
 10
110.8581444643962
 20
78.37740579146971
 30
0.0
 10
110.3626648037305
 20
77.48187970353635
 30
0.0
  0
SPLINE
  5
87
330
1F
100
AcDbEntity
  8
0
  6
Continuous
 62
     7
370
    15
100
AcDbSpline
210
0.0
220
0.0
230
1.0
 70
    24
 71
     3
 72
     8
 73
     4
 74
     0
 42
0.00000001
 43
0.00000001
 40
0.0
 40
0.0
 40
0.0
 40
0.0
 40
1.0
 40
1.0
 40
1.0
 40
1.0
 10
110.3626648037305
 20
127.5187973997835
 30
0.0
 10
110.869344911881
 20
127.5187973997835
 30
0.0
 10
111.3646456408547
 20
127.5187973997835
 30
0.0
 10
111.8445976352196
 20
127.5187973997835
 30
0.0
  0
ARC
  5
88
330
1F
100
AcDbEntity
  8
0
  6
Continuous
 62
     7
370
    15
100
AcDbCircle
 10
103.7523416949
 20
119.5698588522
 30
0.0
 40
4.11270806427499
100
AcDbArc
 50
19.1552479729
 51
159.8574241332
  0
SPLINE
  5
89
330
1F
100
AcDbEntity
  8
0
  6
Continuous
 62
     7
370
    15
100
AcDbSpline
210
0.0
220
0.0
230
1.0
 70
    24
 71
     3
 72
    14
 73
    10
 74
     0
 42
0.00000001
 43
0.00000001
 40
0.0
 40
0.0
 40
0.0
 40
0.0
 40
0.4999999999999984
 40
0.4999999999999984
 40
0.7499999999999992
 40
0.7499999999999992
 40
0.8749999999999996
 40
0.8749999999999996
 40
1.0
 40
1.0
 40
1.0
 40
1.0
 10
115.5669228328873
 20
81.26879739978351
 30
0.0
 10
115.520138127839
 20
81.26879739978351
 30
0.0
 10
115.4580869310594
 20
81.26879739978351
 30
0.0
 10
115.3146952925088
 20
81.26879739978351
 30
0.0
 10
115.2585516389577
 20
81.26879739978351
 30
0.0
 10
115.1456006168215
 20
81.26879739978351
 30
0.0
 10
115.1025998547833
 20
81.26879739978351
 30
0.0
 10
114.9985371444769
 20
81.26879739978351
 30
0.0
 10
114.93320490612
 20
81.26879739978351
 30
0.0
 10
114.8645976352196
 20
81.26879739978351
 30
0.0
  0
SPLINE
  5
8A
330
1F
100
AcDbEntity
  8
0
  6
Continuous
 62
     7
370
    15
100
AcDbSpline
210
0.0
220
0.0
230
1.0
 70
    24
 71
     3
 72
    12
 73
     8
 74
     0
 42
0.00000001
 43
0.00000001
 40
0.0
 40
0.0
 40
0.0
 40
0.0
 40
0.5000000000000017
 40
0.5000000000000017
 40
0.7500000000000008
 40
0.7500000000000008
 40
1.0
 40
1.0
 40
1.0
 40
1.0
 10
115.2703001035286
 20
134.0687973997835
 30
0.0
 10
115.2272145539176
 20
134.0687973997835
 30
0.0
 10
115.1780623521683
 20
134.0687973997835
 30
0.0
 10
115.0815897578804
 20
134.0687973997835
 30
0.0
 10
115.0454881727458
 20
134.0687973997835
 30
0.0
 10
114.9623824148845
 20
134.0687973997835
 30
0.0
 10
114.9143858179183
 20
134.0687973997835
 30
0.0
 10
114.8645976352196
 20
134.0687973997835
 30
0.0
  0
SPLINE
  5
8B
330
1F
100
AcDbEntity
  8
0
  6
Continuous
 62
     7
370
    15
100
AcDbSpline
210
0.0
220
0.0
230
1.0
 70
     8
 71
     3
 72
    10
 73
     6
 74
     0
 42
0.00000001
 43
0.00000001
 40
0.0
 40
0.0
 40
0.0
 40
0.0
 40
0.5
 40
0.5
 40
1.0
 40
1.0
 40
1.0
 40
1.0
 10
115.6645976352196
 20
134.7884512508193
 30
0.0
 10
115.6645976352196
 20
134.6446811930013
 30
0.0
 10
115.6285485765007
 20
134.5022618305061
 30
0.0
 10
115.4930397157267
 20
134.2523675371489
 30
0.0
 10
115.3931637226305
 20
134.1443372009007
 30
0.0
 10
115.2703001035286
 20
134.0687973997835
 30
0.0
  0
SPLINE
  5
8C
330
1F
100
AcDbEntity
  8
0
  6
Continuous
 62
     7
370
    15
100
AcDbSpline
210
0.0
220
0.0
230
1.0
 70
     8
 71
     3
 72
    10
 73
     6
 74
     0
 42
0.00000001
 43
0.00000001
 40
0.0
 40
0.0
 40
0.0
 40
0.0
 40
0.5
 40
0.5
 40
1.0
 40
1.0
 40
1.0
 40
1.0
 10
115.6384500120594
 20
127.5187973997835
 30
0.0
 10
115.6471396549711
 20
127.5656762491017
 30
0.0
 10
115.6536787197216
 20
127.613098714503
 30
0.0
 10
115.6624373541146
 20
127.7090355130898
 30
0.0
 10
115.6645976352196
 20
127.7569508011003
 30
0.0
 10
115.6645976352196
 20
127.8046640312449
 30
0.0
  0
SPLINE
  5
8D
330
1F
100
AcDbEntity
  8
0
  6
Continuous
 62
     7
370
    15
100
AcDbSpline
210
0.0
220
0.0
230
1.0
 70
     8
 71
     3
 72
    10
 73
     6
 74
     0
 42
0.00000001
 43
0.00000001
 40
0.0
 40
0.0
 40
0.0
 40
0.0
 40
0.5
 40
0.5
 40
1.0
 40
1.0
 40
1.0
 40
1.0
 10
112.2388951669105
 20
134.0687973997835
 30
0.0
 10
112.117354903242
 20
134.1435235669953
 30
0.0
 10
112.0160205428931
 20
134.2524685829121
 30
0.0
 10
111.8803816000046
 20
134.5028990636737
 30
0.0
 10
111.8445976352196
 20
134.6453184257726
 30
0.0
 10
111.8445976352196
 20
134.7884512508193
 30
0.0
  0
SPLINE
  5
8E
330
1F
100
AcDbEntity
  8
0
  6
Continuous
 62
     7
370
    15
100
AcDbSpline
210
0.0
220
0.0
230
1.0
 70
    24
 71
     3
 72
    12
 73
     8
 74
     0
 42
0.00000001
 43
0.00000001
 40
0.0
 40
0.0
 40
0.0
 40
0.0
 40
0.2500000000000037
 40
0.2500000000000037
 40
0.5000000000000074
 40
0.5000000000000074
 40
1.0
 40
1.0
 40
1.0
 40
1.0
 10
112.6445976352196
 20
134.0687973997835
 30
0.0
 10
112.5947209529021
 20
134.0687973997835
 30
0.0
 10
112.5467177594985
 20
134.0687973997835
 30
0.0
 10
112.4636696567865
 20
134.0687973997835
 30
0.0
 10
112.4275400773187
 20
134.0687973997835
 30
0.0
 10
112.3316280463745
 20
134.0687973997835
 30
0.0
 10
112.2818693784057
 20
134.0687973997835
 30
0.0
 10
112.2388951669105
 20
134.0687973997835
 30
0.0
  0
SPLINE
  5
8F
330
1F
100
AcDbEntity
  8
0
  6
Continuous
 62
     7
370
    15
100
AcDbSpline
210
0.0
220
0.0
230
1.0
 70
    24
 71
     3
 72
    14
 73
    10
 74
     0
 42
0.00000001
 43
0.00000001
 40
0.0
 40
0.0
 40
0.0
 40
0.0
 40
0.1249999999999991
 40
0.1249999999999991
 40
0.2499999999999982
 40
0.2499999999999982
 40
0.4999999999999998
 40
0.4999999999999998
 40
1.0
 40
1.0
 40
1.0
 40
1.0
 10
112.6445976352195
 20
81.26879739978351
 30
0.0
 10
112.5761597873331
 20
81.26879739978351
 30
0.0
 10
112.510609748568
 20
81.26879739978351
 30
0.0
 10
112.4061831091601
 20
81.26879739978351
 30
0.0
 10
112.3636384993987
 20
81.26879739978351
 30
0.0
 10
112.2510290388584
 20
81.26879739978351
 30
0.0
 10
112.1954899918389
 20
81.26879739978351
 30
0.0
 10
112.0528782963751
 20
81.26879739978351
 30
0.0
 10
111.9894729413794
 20
81.26879739978351
 30
0.0
 10
111.9422724375518
 20
81.26879739978351
 30
0.0
  0
SPLINE
  5
90
330
1F
100
AcDbEntity
  8
0
  6
Continuous
 62
     7
370
    15
100
AcDbSpline
210
0.0
220
0.0
230
1.0
 70
     8
 71
     3
 72
    10
 73
     6
 74
     0
 42
0.00000001
 43
0.00000001
 40
0.0
 40
0.0
 40
0.0
 40
0.0
 40
0.5
 40
0.5
 40
1.0
 40
1.0
 40
1.0
 40
1.0
 10
111.8445976352196
 20
127.8046640312449
 30
0.0
 10
111.8445976352196
 20
127.7568925232516
 30
0.0
 10
111.8467588788167
 20
127.7091828011899
 30
0.0
 10
111.8554302526769
 20
127.6138876836416
 30
0.0
 10
111.8619594356329
 20
127.566195119675
 30
0.0
 10
111.8707452583797
 20
127.5187973997835
 30
0.0
  0
LINE
  5
91
330
1F
100
AcDbEntity
  8
0
  6
Continuous
 62
     7
370
    15
100
AcDbLine
 10
114.8645976352
 20
134.0687973998
 30
0.0
 11
112.6445976352
 21
134.0687973998
 31
0.0
  0
LINE
  5
92
330
1F
100
AcDbEntity
  8
0
  6
Continuous
 62
     7
370
    15
100
AcDbLine
 10
114.8645976352
 20
81.2687973998
 30
0.0
 11
112.6445976352
 21
81.2687973998
 31
0.0
  0
LINE
  5
93
330
1F
100
AcDbEntity
  8
0
  6
Continuous
 62
     7
370
    15
100
AcDbLine
 10
73.9545976352
 20
84.440350506
 30
0.0
 11
73.9545976352
 21
85.7050598686
 31
0.0
  0
SPLINE
  5
94
330
1F
100
AcDbEntity
  8
0
  6
Continuous
 62
     7
370
    15
100
AcDbSpline
210
0.0
220
0.0
230
1.0
 70
     8
 71
     3
 72
    14
 73
    10
 74
     0
 42
0.00000001
 43
0.00000001
 40
0.0
 40
0.0
 40
0.0
 40
0.0
 40
0.25
 40
0.25
 40
0.5
 40
0.5
 40
0.75
 40
0.75
 40
1.0
 40
1.0
 40
1.0
 40
1.0
 10
73.17631051730383
 20
86.83564607622355
 30
0.0
 10
73.23293719250591
 20
86.72794862238669
 30
0.0
 10
73.32745985279566
 20
86.62515904066738
 30
0.0
 10
73.51050482835788
 20
86.42680172844723
 30
0.0
 10
73.6021314053126
 20
86.33074221976898
 30
0.0
 10
73.76098472300579
 20
86.14321317705974
 30
0.0
 10
73.82887533062748
 20
86.0518042042762
 30
0.0
 10
73.92579235633508
 20
85.87342798336603
 30
0.0
 10
73.95459763522014
 20
85.78620607711986
 30
0.0
 10
73.95459763522013
 20
85.7050598685856
 30
0.0
  0
SPLINE
  5
95
330
1F
100
AcDbEntity
  8
0
  6
Continuous
 62
     7
370
    15
100
AcDbSpline
210
0.0
220
0.0
230
1.0
 70
     8
 71
     3
 72
    14
 73
    10
 74
     0
 42
0.00000001
 43
0.00000001
 40
0.0
 40
0.0
 40
0.0
 40
0.0
 40
0.1250000000000022
 40
0.1250000000000022
 40
0.2500000000000044
 40
0.2500000000000044
 40
0.5000000000000029
 40
0.5000000000000029
 40
1.0
 40
1.0
 40
1.0
 40
1.0
 10
72.55459763521955
 20
87.28232793850287
 30
0.0
 10
72.60314204387672
 20
87.28807625178317
 30
0.0
 10
72.65605739866163
 20
87.28497536312693
 30
0.0
 10
72.75135274364466
 20
87.2627805189646
 30
0.0
 10
72.79160374092963
 20
87.24554829186874
 30
0.0
 10
72.89587375444259
 20
87.18922037541668
 30
0.0
 10
72.94619572959591
 20
87.14503402947088
 30
0.0
 10
73.0738786771213
 20
87.01402613062027
 30
0.0
 10
73.12996412418357
 20
86.92379161038996
 30
0.0
 10
73.17631051730531
 20
86.83564607622408
 30
0.0
  0
SPLINE
  5
96
330
1F
100
AcDbEntity
  8
0
  6
Continuous
 62
     7
370
    15
100
AcDbSpline
210
0.0
220
0.0
230
1.0
 70
     8
 71
     3
 72
     8
 73
     4
 74
     0
 42
0.00000001
 43
0.00000001
 40
0.0
 40
0.0
 40
0.0
 40
0.0
 40
1.0
 40
1.0
 40
1.0
 40
1.0
 10
70.28607254227335
 20
86.97248265192009
 30
0.0
 10
71.0206495687563
 20
87.09110766298905
 30
0.0
 10
71.78412463815194
 20
87.19109353512533
 30
0.0
 10
72.55459763521955
 20
87.28232793850287
 30
0.0
  0
SPLINE
  5
97
330
1F
100
AcDbEntity
  8
0
  6
Continuous
 62
     7
370
    15
100
AcDbSpline
210
0.0
220
0.0
230
1.0
 70
     8
 71
     3
 72
    14
 73
    10
 74
     0
 42
0.00000001
 43
0.00000001
 40
0.0
 40
0.0
 40
0.0
 40
0.0
 40
0.5000000000000001
 40
0.5000000000000001
 40
0.7499999999999991
 40
0.7499999999999991
 40
0.8749999999999997
 40
0.8749999999999997
 40
1.0
 40
1.0
 40
1.0
 40
1.0
 10
65.00459763521955
 20
86.79885963438844
 30
0.0
 10
65.89674376577314
 20
86.79813740818778
 30
0.0
 10
66.78672020156672
 20
86.80272361464525
 30
0.0
 10
68.11331536864235
 20
86.8304486190368
 30
0.0
 10
68.55416229714108
 20
86.84305515666097
 30
0.0
 10
69.21060253456349
 20
86.87407130466842
 30
0.0
 10
69.42861619115538
 20
86.88641447729519
 30
0.0
 10
69.86132504483814
 20
86.91943853245846
 30
0.0
 10
70.07660151000293
 20
86.9386556975969
 30
0.0
 10
70.28607254227335
 20
86.97248265192009
 30
0.0
  0
SPLINE
  5
98
330
1F
100
AcDbEntity
  8
0
  6
Continuous
 62
     7
370
    15
100
AcDbSpline
210
0.0
220
0.0
230
1.0
 70
     8
 71
     3
 72
     8
 73
     4
 74
     0
 42
0.00000001
 43
0.00000001
 40
0.0000005163856712
 40
0.0000005163856712
 40
0.0000005163856712
 40
0.0000005163856712
 40
0.000026289209185
 40
0.000026289209185
 40
0.000026289209185
 40
0.000026289209185
 10
64.99455270480087
 20
86.8088435074963
 30
0.0
 10
64.99788044301235
 20
86.80550926062348
 30
0.0
 10
65.00122889599163
 20
86.80218130334447
 30
0.0
 10
65.00459763521953
 20
86.79885963438842
 30
0.0
  0
SPLINE
  5
99
330
1F
100
AcDbEntity
  8
0
  6
Continuous
 62
     7
370
    15
100
AcDbSpline
210
0.0
220
0.0
230
1.0
 70
     8
 71
     3
 72
     8
 73
     4
 74
     0
 42
0.00000001
 43
0.00000001
 40
0.0000005099763573
 40
0.0000005099763573
 40
0.0000005099763573
 40
0.0000005099763573
 40
0.0000262827998699
 40
0.0000262827998699
 40
0.0000262827998699
 40
0.0000262827998699
 10
65.00459763521954
 20
128.5387351651786
 30
0.0
 10
65.0012288959918
 20
128.5354134962227
 30
0.0
 10
64.99788044301266
 20
128.5320855389438
 30
0.0
 10
64.99455270480134
 20
128.5287512920712
 30
0.0
  0
SPLINE
  5
9A
330
1F
100
AcDbEntity
  8
0
  6
Continuous
 62
     7
370
    15
100
AcDbSpline
210
0.0
220
0.0
230
1.0
 70
     8
 71
     3
 72
    10
 73
     6
 74
     0
 42
0.00000001
 43
0.00000001
 40
0.0
 40
0.0
 40
0.0
 40
0.0
 40
0.5
 40
0.5
 40
1.0
 40
1.0
 40
1.0
 40
1.0
 10
68.55459763521957
 20
128.4918847916113
 30
0.0
 10
67.96701208812897
 20
128.5129503118477
 30
0.0
 10
67.37626569466858
 20
128.5237087977199
 30
0.0
 10
66.19224652936973
 20
128.5370735782556
 30
0.0
 10
65.59883254116426
 20
128.5392162209201
 30
0.0
 10
65.00459763521955
 20
128.5387351651786
 30
0.0
  0
SPLINE
  5
9B
330
1F
100
AcDbEntity
  8
0
  6
Continuous
 62
     7
370
    15
100
AcDbSpline
210
0.0
220
0.0
230
1.0
 70
     8
 71
     3
 72
    18
 73
    14
 74
     0
 42
0.00000001
 43
0.00000001
 40
0.0
 40
0.0
 40
0.0
 40
0.0
 40
0.249999999999999
 40
0.249999999999999
 40
0.499999999999998
 40
0.499999999999998
 40
0.749999999999997
 40
0.749999999999997
 40
0.874999999999998
 40
0.874999999999998
 40
0.937499999999999
 40
0.937499999999999
 40
1.0
 40
1.0
 40
1.0
 40
1.0
 10
69.95459763521957
 20
129.5129050721465
 30
0.0
 10
69.95459763521959
 20
129.4296981632893
 30
0.0
 10
69.9187485352813
 20
129.3409615079757
 30
0.0
 10
69.79387679924737
 20
129.1588363174155
 30
0.0
 10
69.7034763815995
 20
129.0637062687889
 30
0.0
 10
69.48123372685733
 20
128.8745247596646
 30
0.0
 10
69.35146894041155
 20
128.7795795915698
 30
0.0
 10
69.11083148310004
 20
128.6413008839899
 30
0.0
 10
69.0230641849626
 20
128.5955904506875
 30
0.0
 10
68.86854009775578
 20
128.5377671454661
 30
0.0
 10
68.81192921170104
 20
128.5200523814282
 30
0.0
 10
68.68788518079445
 20
128.4955130781953
 30
0.0
 10
68.62017050577614
 20
128.489533939657
 30
0.0
 10
68.55459763521955
 20
128.4918847916113
 30
0.0
  0
LINE
  5
9C
330
1F
100
AcDbEntity
  8
0
  6
Continuous
 62
     7
370
    15
100
AcDbLine
 10
69.9545976352
 20
129.5129050721
 30
0.0
 11
69.9545976352
 21
130.696843492
 31
0.0
  0
LINE
  5
9D
330
1F
100
AcDbEntity
  8
0
  6
Continuous
 62
     7
370
    15
100
AcDbLine
 10
93.7545976352
 20
83.4483665381
 30
0.0
 11
93.7545976352
 21
131.8892282615
 31
0.0
  0
SPLINE
  5
9E
330
1F
100
AcDbEntity
  8
0
  6
Continuous
 62
     7
370
    15
100
AcDbSpline
210
0.0
220
0.0
230
1.0
 70
     8
 71
     3
 72
    18
 73
    14
 74
     0
 42
0.00000001
 43
0.00000001
 40
0.0
 40
0.0
 40
0.0
 40
0.0
 40
0.0010671296451825
 40
0.1270947795731591
 40
0.2524053457512679
 40
0.3766468878986963
 40
0.4391415999051271
 40
0.5008278021400229
 40
0.5624255708816985
 40
0.6253162439161283
 40
0.7499985144706796
 40
0.8752758950341297
 40
1.0
 40
1.0
 40
1.0
 40
1.0
 10
82.52489847529223
 20
84.01145837686715
 30
0.0
 10
82.52398664265372
 20
84.01134359833053
 30
0.0
 10
82.41538768401692
 20
83.99767351346473
 30
0.0
 10
82.80302875166657
 20
84.04859301408015
 30
0.0
 10
83.66899343350178
 20
84.14817618712671
 30
0.0
 10
84.86939735827157
 20
84.21730007027034
 30
0.0
 10
85.92697327276038
 20
84.22125229940923
 30
0.0
 10
86.75410735967017
 20
84.19376336095388
 30
0.0
 10
87.57937922730541
 20
84.13522318454666
 30
0.0
 10
88.63374444730313
 20
84.02170202480997
 30
0.0
 10
89.79558072877624
 20
83.8385512005623
 30
0.0
 10
90.74781551015954
 20
83.63394799092723
 30
0.0
 10
90.87352057096746
 20
83.60466264015118
 30
0.0
 10
90.93623400311269
 20
83.59005237031049
 30
0.0
  0
SPLINE
  5
9F
330
1F
100
AcDbEntity
  8
0
  6
Continuous
 62
     7
370
    15
100
AcDbSpline
210
0.0
220
0.0
230
1.0
 70
     8
 71
     3
 72
    18
 73
    14
 74
     0
 42
0.00000001
 43
0.00000001
 40
0.0
 40
0.0
 40
0.0
 40
0.0
 40
0.1248907792210118
 40
0.2505384020341681
 40
0.3748721840485256
 40
0.4374907653350248
 40
0.499077626589441
 40
0.5607931536355697
 40
0.6233901338664959
 40
0.7478191038417357
 40
0.8731940995934964
 40
0.9991614644710061
 40
1.0
 40
1.0
 40
1.0
 40
1.0
 10
90.93601523758876
 20
131.7474772487022
 30
0.0
 10
90.87227448487711
 20
131.7328159561041
 30
0.0
 10
90.7444067077006
 20
131.7034045228326
 30
0.0
 10
89.79240748664033
 20
131.4984514187701
 30
0.0
 10
88.63186378143646
 20
131.3151876429593
 30
0.0
 10
87.57959932934902
 20
131.20216005071
 30
0.0
 10
86.75537221428003
 20
131.1438964031689
 30
0.0
 10
85.92776844476009
 20
131.1164500151649
 30
0.0
 10
84.8689512522748
 20
131.1204348210939
 30
0.0
 10
83.66673255424081
 20
131.1895242974752
 30
0.0
 10
82.80154861455348
 20
131.2891505140323
 30
0.0
 10
82.41540819302321
 20
131.3399665876317
 30
0.0
 10
82.52347973380361
 20
131.3262944075694
 30
0.0
 10
82.5241943837239
 20
131.326203996881
 30
0.0
  0
SPLINE
  5
A0
330
1F
100
AcDbEntity
  8
0
  6
Continuous
 62
     7
370
    15
100
AcDbSpline
210
0.0
220
0.0
230
1.0
 70
     8
 71
     3
 72
    10
 73
     6
 74
     0
 42
0.00000001
 43
0.00000001
 40
0.0
 40
0.0
 40
0.0
 40
0.0
 40
0.5
 40
0.5
 40
1.0
 40
1.0
 40
1.0
 40
1.0
 10
63.85459763521889
 20
87.97811965330601
 30
0.0
 10
63.85459763521885
 20
87.94924538844661
 30
0.0
 10
63.86479154497995
 20
87.93174183206808
 30
0.0
 10
63.89154214978811
 20
87.93121026924034
 30
0.0
 10
63.90842960171945
 20
87.94887772641991
 30
0.0
 10
63.91726100994297
 20
87.99424485500276
 30
0.0
  0
LINE
  5
A1
330
1F
100
AcDbEntity
  8
0
  6
Continuous
 62
     7
370
    15
100
AcDbLine
 10
63.8545976352
 20
87.9781196533
 30
0.0
 11
63.8545976352
 21
127.3594751463
 31
0.0
  0
SPLINE
  5
A2
330
1F
100
AcDbEntity
  8
0
  6
Continuous
 62
     7
370
    15
100
AcDbSpline
210
0.0
220
0.0
230
1.0
 70
     8
 71
     3
 72
    10
 73
     6
 74
     0
 42
0.00000001
 43
0.00000001
 40
0.0
 40
0.0
 40
0.0
 40
0.0
 40
0.5
 40
0.5
 40
1.0
 40
1.0
 40
1.0
 40
1.0
 10
63.91726100994297
 20
127.3433499445643
 30
0.0
 10
63.90835672083421
 20
127.3890914637774
 30
0.0
 10
63.89184134064123
 20
127.4062823032464
 30
0.0
 10
63.86473339457962
 20
127.4059590263107
 30
0.0
 10
63.85459763521956
 20
127.3880814840143
 30
0.0
 10
63.85459763521956
 20
127.3594751462617
 30
0.0
  0
SPLINE
  5
A3
330
1F
100
AcDbEntity
  8
0
  6
Continuous
 62
     7
370
    15
100
AcDbSpline
210
0.0
220
0.0
230
1.0
 70
     8
 71
     3
 72
    26
 73
    22
 74
     0
 42
0.00000001
 43
0.00000001
 40
0.0
 40
0.0
 40
0.0
 40
0.0
 40
0.2499999999999842
 40
0.2499999999999842
 40
0.3749999999999759
 40
0.3749999999999759
 40
0.4374999999999711
 40
0.4374999999999711
 40
0.4687499999999716
 40
0.4687499999999716
 40
0.4999999999999721
 40
0.4999999999999721
 40
0.5312499999999726
 40
0.5312499999999726
 40
0.562499999999973
 40
0.562499999999973
 40
0.624999999999976
 40
0.624999999999976
 40
0.749999999999984
 40
0.749999999999984
 40
1.0
 40
1.0
 40
1.0
 40
1.0
 10
64.67875128132407
 20
128.0589167333814
 30
0.0
 10
64.6401507584556
 20
127.9411420370259
 30
0.0
 10
64.59385375590134
 20
127.816752350864
 30
0.0
 10
64.49991440746741
 20
127.6115330185105
 30
0.0
 10
64.46460294055395
 20
127.5399601520641
 30
0.0
 10
64.39842296480828
 20
127.4240069194636
 30
0.0
 10
64.37388459814005
 20
127.3834223846534
 30
0.0
 10
64.33051185258623
 20
127.3192807027816
 30
0.0
 10
64.31500345116105
 20
127.2974142774966
 30
0.0
 10
64.27996080657401
 20
127.2518200091533
 30
0.0
 10
64.26041051585423
 20
127.2281497181859
 30
0.0
 10
64.21848323548366
 20
127.183533158846
 30
0.0
 10
64.19583112525201
 20
127.1626531463281
 30
0.0
 10
64.15485741116541
 20
127.1317797325773
 30
0.0
 10
64.13725811126997
 20
127.1219408627449
 30
0.0
 10
64.09263112541383
 20
127.1029512470487
 30
0.0
 10
64.07207190276048
 20
127.1026269223953
 30
0.0
 10
64.02094646326383
 20
127.1118503632715
 30
0.0
 10
64.00003505027527
 20
127.1330972594885
 30
0.0
 10
63.94858514271434
 20
127.2070661383192
 30
0.0
 10
63.93091984340978
 20
127.273184231634
 30
0.0
 10
63.91726100994297
 20
127.3433499445643
 30
0.0
  0
SPLINE
  5
A4
330
1F
100
AcDbEntity
  8
0
  6
Continuous
 62
     7
370
    15
100
AcDbSpline
210
0.0
220
0.0
230
1.0
 70
     8
 71
     3
 72
    10
 73
     6
 74
     0
 42
0.00000001
 43
0.00000001
 40
0.0
 40
0.0
 40
0.0
 40
0.0
 40
0.5
 40
0.5
 40
1.0
 40
1.0
 40
1.0
 40
1.0
 10
64.99455270480135
 20
128.5287512920712
 30
0.0
 10
64.92699344988311
 20
128.4610598992614
 30
0.0
 10
64.8633567945466
 20
128.3863527345078
 30
0.0
 10
64.75313603997475
 20
128.2273866020811
 30
0.0
 10
64.70631974675213
 20
128.1430313360731
 30
0.0
 10
64.67875128132405
 20
128.0589167333814
 30
0.0
  0
SPLINE
  5
A5
330
1F
100
AcDbEntity
  8
0
  6
Continuous
 62
     7
370
    15
100
AcDbSpline
210
0.0
220
0.0
230
1.0
 70
     8
 71
     3
 72
    10
 73
     6
 74
     0
 42
0.00000001
 43
0.00000001
 40
0.0
 40
0.0
 40
0.0
 40
0.0
 40
0.5
 40
0.5
 40
1.0
 40
1.0
 40
1.0
 40
1.0
 10
64.6787512813241
 20
87.27867806618553
 30
0.0
 10
64.70622869607732
 20
87.19484126971994
 30
0.0
 10
64.75293732636497
 20
87.11053078213311
 30
0.0
 10
64.86321578910692
 20
86.95140955165026
 30
0.0
 10
64.92710332771856
 20
86.87642480756217
 30
0.0
 10
64.9945527048009
 20
86.8088435074963
 30
0.0
  0
SPLINE
  5
A6
330
1F
100
AcDbEntity
  8
0
  6
Continuous
 62
     7
370
    15
100
AcDbSpline
210
0.0
220
0.0
230
1.0
 70
     8
 71
     3
 72
    24
 73
    20
 74
     0
 42
0.00000001
 43
0.00000001
 40
0.0
 40
0.0
 40
0.0
 40
0.0
 40
0.2499999999999937
 40
0.2499999999999937
 40
0.3749999999999912
 40
0.3749999999999912
 40
0.4374999999999901
 40
0.4374999999999901
 40
0.4687499999999891
 40
0.4687499999999891
 40
0.4999999999999881
 40
0.4999999999999881
 40
0.5624999999999888
 40
0.5624999999999888
 40
0.6249999999999893
 40
0.6249999999999893
 40
0.749999999999992
 40
0.749999999999992
 40
1.0
 40
1.0
 40
1.0
 40
1.0
 10
63.91726100994297
 20
87.99424485500276
 30
0.0
 10
63.93101412861319
 20
88.06489491299304
 30
0.0
 10
63.94878669601906
 20
88.13149302575798
 30
0.0
 10
64.0010377875744
 20
88.20559104599117
 30
0.0
 10
64.02207286315597
 20
88.22684885315273
 30
0.0
 10
64.0749732707844
 20
88.23499477929897
 30
0.0
 10
64.09607894366232
 20
88.23405497590319
 30
0.0
 10
64.14213111234028
 20
88.21303898432585
 30
0.0
 10
64.16050158432365
 20
88.20213017821824
 30
0.0
 10
64.20205321938936
 20
88.16949526727088
 30
0.0
 10
64.22461989214628
 20
88.14800328689951
 30
0.0
 10
64.28740090860633
 20
88.0795373433132
 30
0.0
 10
64.32053066957417
 20
88.03346288510812
 30
0.0
 10
64.3774483560592
 20
87.94845499677344
 30
0.0
 10
64.40163438156299
 20
87.90817469559207
 30
0.0
 10
64.46684233194273
 20
87.79323846912612
 30
0.0
 10
64.50155839213399
 20
87.7226554839791
 30
0.0
 10
64.59477366246487
 20
87.51844972490049
 30
0.0
 10
64.64044619782555
 20
87.39555134257313
 30
0.0
 10
64.6787512813241
 20
87.27867806618555
 30
0.0
  0
SPLINE
  5
A7
330
1F
100
AcDbEntity
  8
0
  6
Continuous
 62
     7
370
    15
100
AcDbSpline
210
0.0
220
0.0
230
1.0
 70
     8
 71
     3
 72
    68
 73
    64
 74
     0
 42
0.00000001
 43
0.00000001
 40
-0.03125
 40
-0.03125
 40
0.0
 40
0.0
 40
0.0312499999999994
 40
0.0312499999999994
 40
0.0624999999999989
 40
0.0624999999999989
 40
0.0937499999999983
 40
0.0937499999999983
 40
0.1249999999999978
 40
0.1249999999999978
 40
0.1562499999999972
 40
0.1562499999999972
 40
0.1874999999999976
 40
0.1874999999999976
 40
0.2187499999999981
 40
0.2187499999999981
 40
0.2499999999999985
 40
0.2499999999999985
 40
0.2812499999999989
 40
0.2812499999999989
 40
0.3124999999999994
 40
0.3124999999999994
 40
0.3437499999999998
 40
0.3437499999999998
 40
0.3750000000000002
 40
0.3750000000000002
 40
0.4062500000000007
 40
0.4062500000000007
 40
0.4375000000000011
 40
0.4375000000000011
 40
0.500000000000001
 40
0.500000000000001
 40
0.5312500000000009
 40
0.5312500000000009
 40
0.5625000000000008
 40
0.5625000000000008
 40
0.5937500000000007
 40
0.5937500000000007
 40
0.6250000000000006
 40
0.6250000000000006
 40
0.6562500000000004
 40
0.6562500000000004
 40
0.6875000000000003
 40
0.6875000000000003
 40
0.7187500000000002
 40
0.7187500000000002
 40
0.75
 40
0.75
 40
0.78125
 40
0.78125
 40
0.8125
 40
0.8125
 40
0.84375
 40
0.84375
 40
0.875
 40
0.875
 40
0.90625
 40
0.90625
 40
0.9375
 40
0.9375
 40
0.96875
 40
0.96875
 40
1.0
 40
1.0
 40
1.031249999999999
 40
1.031249999999999
 10
155.1840397490148
 20
109.8176564476725
 30
0.0
 10
155.5226964535793
 20
110.090152432892
 30
0.0
 10
155.7021656978188
 20
110.2082767726925
 30
0.0
 10
156.0795060108839
 20
110.4118304826334
 30
0.0
 10
156.278671731949
 20
110.4976308646538
 30
0.0
 10
156.6899979782906
 20
110.634230520595
 30
0.0
 10
156.8991515394935
 20
110.6842866216107
 30
0.0
 10
157.3241334315187
 20
110.7496230911745
 30
0.0
 10
157.5418747821889
 20
110.7648087039101
 30
0.0
 10
157.9743541599571
 20
110.7588905739613
 30
0.0
 10
158.188099429036
 20
110.7381744911944
 30
0.0
 10
158.6106664293724
 20
110.6616453870685
 30
0.0
 10
158.8214288842593
 20
110.6050734990056
 30
0.0
 10
159.2273179887868
 20
110.4576019929177
 30
0.0
 10
159.4216152522312
 20
110.3674534737541
 30
0.0
 10
159.7926420018764
 20
110.1536432663924
 30
0.0
 10
159.971186278506
 20
110.0283858823509
 30
0.0
 10
160.2988731500237
 20
109.747976358278
 30
0.0
 10
160.4472807056585
 20
109.594137713114
 30
0.0
 10
160.7116842353086
 20
109.2576722335888
 30
0.0
 10
160.8289471748319
 20
109.0721114878272
 30
0.0
 10
161.0170480158351
 20
108.6843937668205
 30
0.0
 10
161.0886795598085
 20
108.4825807962705
 30
0.0
 10
161.1844140338583
 20
108.0620431964419
 30
0.0
 10
161.2075655140529
 20
107.8427603753325
 30
0.0
 10
161.2010013089199
 20
107.4124330777904
 30
0.0
 10
161.1716362116408
 20
107.1959002986172
 30
0.0
 10
161.0627436043209
 20
106.7755508380173
 30
0.0
 10
160.9846414421998
 20
106.5747322670984
 30
0.0
 10
160.6838784281948
 20
105.9984778566774
 30
0.0
 10
160.398674373437
 20
105.6610186507088
 30
0.0
 10
159.8948116037341
 20
105.2534232792379
 30
0.0
 10
159.715544418139
 20
105.1344761144406
 30
0.0
 10
159.3356017592838
 20
104.9284099970977
 30
0.0
 10
159.1348230627868
 20
104.8417610398377
 30
0.0
 10
158.7264452436624
 20
104.7054123328228
 30
0.0
 10
158.5171128504357
 20
104.6546882218313
 30
0.0
 10
158.0881233824856
 20
104.5881559900908
 30
0.0
 10
157.8710155151511
 20
104.5730084240535
 30
0.0
 10
157.4409586991092
 20
104.5783537759184
 30
0.0
 10
157.2265808926603
 20
104.5986057078107
 30
0.0
 10
156.7991760185178
 20
104.6756559811037
 30
0.0
 10
156.5894907877231
 20
104.7320873687921
 30
0.0
 10
156.1860907569481
 20
104.878272146993
 30
0.0
 10
155.9910699500647
 20
104.9682232521587
 30
0.0
 10
155.6153797266902
 20
105.1845353214387
 30
0.0
 10
155.4379007051482
 20
105.3094220533108
 30
0.0
 10
155.1126233706092
 20
105.587529543394
 30
0.0
 10
154.9633928169198
 20
105.7414892674206
 30
0.0
 10
154.695074324947
 20
106.0831103764418
 30
0.0
 10
154.5797490209751
 20
106.2665327325347
 30
0.0
 10
154.3927536774078
 20
106.6519303553544
 30
0.0
 10
154.3196784154436
 20
106.85721696531
 30
0.0
 10
154.2237662615606
 20
107.2815138667445
 30
0.0
 10
154.2015059452984
 20
107.4956258994994
 30
0.0
 10
154.2083708645073
 20
107.9277802050534
 30
0.0
 10
154.2385310953966
 20
108.1465751852364
 30
0.0
 10
154.3473214997777
 20
108.5642539844801
 30
0.0
 10
154.4268872533769
 20
108.7683117914412
 30
0.0
 10
154.6285029036993
 20
109.1526168938662
 30
0.0
 10
154.7491018019157
 20
109.3314151086531
 30
0.0
 10
155.0269504505375
 20
109.6643998741589
 30
0.0
 10
155.1840397490148
 20
109.8176564476725
 30
0.0
 10
155.5226964535793
 20
110.090152432892
 30
0.0
  0
CIRCLE
  5
A8
330
1F
100
AcDbEntity
  8
0
  6
Continuous
 62
     7
370
    15
100
AcDbCircle
 10
157.7045976352
 20
107.6687973998
 30
0.0
 40
2.5
  0
LINE
  5
A9
330
1F
100
AcDbEntity
  8
0
  6
Continuous
 62
     7
370
    15
100
AcDbLine
 10
174.9297786905
 20
87.1687973998
 30
0.0
 11
174.9297786905
 21
128.1687973998
 31
0.0
  0
LINE
  5
AA
330
1F
100
AcDbEntity
  8
0
  6
Continuous
 62
     7
370
    15
100
AcDbLine
 10
155.3533681002
 20
128.0410404233
 30
0.0
 11
155.4386614072
 21
128.0337202533
 31
0.0
  0
SPLINE
  5
AB
330
1F
100
AcDbEntity
  8
0
  6
Continuous
 62
     7
370
    15
100
AcDbSpline
210
0.0
220
0.0
230
1.0
 70
     8
 71
     3
 72
    36
 73
    32
 74
     0
 42
0.00000001
 43
0.00000001
 40
0.0
 40
0.0
 40
0.0
 40
0.0
 40
0.0316636627240481
 40
0.0551239763724237
 40
0.076630679266582
 40
0.1203174111506416
 40
0.1425306175384997
 40
0.1652407202479302
 40
0.2113014363857092
 40
0.2346782741540893
 40
0.2599993935861576
 40
0.3113496050206845
 40
0.3374111038804617
 40
0.3656478992863459
 40
0.4229645179695732
 40
0.4520935844167567
 40
0.4823496268686082
 40
0.5438481947528163
 40
0.5751612163398164
 40
0.6059897222026036
 40
0.6370388948046295
 40
0.6688035933926132
 40
0.7008255880925748
 40
0.7306398602360489
 40
0.791465154217464
 40
0.8226064832595607
 40
0.849508425432361
 40
0.9044878985738433
 40
0.9326954327645656
 40
0.9560527454254207
 40
1.0
 40
1.0
 40
1.0
 40
1.0
 10
161.1955964579264
 20
128.1676137179841
 30
0.0
 10
161.1957251347256
 20
128.1676282283706
 30
0.0
 10
161.1959491510342
 20
128.1676534898261
 30
0.0
 10
161.1484376489802
 20
128.1614375060748
 30
0.0
 10
161.0733189568712
 20
128.1517517743523
 30
0.0
 10
160.9626317303702
 20
128.1378036859792
 30
0.0
 10
160.818852787969
 20
128.1205135804065
 30
0.0
 10
160.6501169244074
 20
128.1009302377442
 30
0.0
 10
160.4487253213158
 20
128.0789582448077
 30
0.0
 10
160.2157480886823
 20
128.0557361947831
 30
0.0
 10
159.9522425169578
 20
128.0312710023205
 30
0.0
 10
159.6560157776907
 20
128.007132091399
 30
0.0
 10
159.3319265750856
 20
127.9851166707701
 30
0.0
 10
158.9769372705289
 20
127.9644316756439
 30
0.0
 10
158.5948603460936
 20
127.9482032500422
 30
0.0
 10
158.1970215805329
 20
127.9381837484448
 30
0.0
 10
157.7806499081566
 20
127.9326369839627
 30
0.0
 10
157.3534390819712
 20
127.9349231020215
 30
0.0
 10
156.9313568346915
 20
127.9450698275205
 30
0.0
 10
156.6185430145401
 20
127.9564212946181
 30
0.0
 10
156.3119473572434
 20
127.9712024493263
 30
0.0
 10
156.0117709808764
 20
127.9891763676851
 30
0.0
 10
155.7283731244667
 20
128.0093509019233
 30
0.0
 10
155.3769757399641
 20
128.0379781156225
 30
0.0
 10
155.0609629540874
 20
128.0683672373123
 30
0.0
 10
154.7972571943901
 20
128.096731673175
 30
0.0
 10
154.5764524086126
 20
128.1219147082839
 30
0.0
 10
154.4058205707116
 20
128.1428687118845
 30
0.0
 10
154.2946228625369
 20
128.1570490716157
 30
0.0
 10
154.222287768119
 20
128.1664527478486
 30
0.0
 10
154.2135386370459
 20
128.1676150824769
 30
0.0
 10
154.207825796055
 20
128.1683740416073
 30
0.0
  0
SPLINE
  5
AC
330
1F
100
AcDbEntity
  8
0
  6
Continuous
 62
     7
370
    15
100
AcDbSpline
210
0.0
220
0.0
230
1.0
 70
     8
 71
     3
 72
     9
 73
     5
 74
     0
 42
0.00000001
 43
0.00000001
 40
0.0
 40
0.0
 40
0.0
 40
0.0
 40
0.4519147939478145
 40
1.0
 40
1.0
 40
1.0
 40
1.0
 10
155.0090180681692
 20
128.0743944452066
 30
0.0
 10
155.0579766450193
 20
128.0693772565905
 30
0.0
 10
155.1663125028088
 20
128.0582751889367
 30
0.0
 10
155.2871428011797
 20
128.0471422322193
 30
0.0
 10
155.3533681001596
 20
128.0410404233429
 30
0.0
  0
LINE
  5
AD
330
1F
100
AcDbEntity
  8
0
  6
Continuous
 62
     7
370
    15
100
AcDbLine
 10
155.3533681006
 20
87.2965543763
 30
0.0
 11
155.214590673
 21
87.2835063979
 31
0.0
  0
SPLINE
  5
AE
330
1F
100
AcDbEntity
  8
0
  6
Continuous
 62
     7
370
    15
100
AcDbSpline
210
0.0
220
0.0
230
1.0
 70
     8
 71
     3
 72
    37
 73
    33
 74
     0
 42
0.00000001
 43
0.00000001
 40
0.0
 40
0.0
 40
0.0
 40
0.0
 40
0.025326174198132
 40
0.0489570215777735
 40
0.0704550886072594
 40
0.1141316802208926
 40
0.1363445073937931
 40
0.1589123374054033
 40
0.2046871237713423
 40
0.2279203268405065
 40
0.2530328202229035
 40
0.3039583666132484
 40
0.3298030053225441
 40
0.3578513267111448
 40
0.4147803470495505
 40
0.4437088703578045
 40
0.4738681563404768
 40
0.5351642136129402
 40
0.5663699470167702
 40
0.5972052724205453
 40
0.6282601115384728
 40
0.6600249449185067
 40
0.6920442472314701
 40
0.7219902279867502
 40
0.7830733108366411
 40
0.8143385949535691
 40
0.8414935015496176
 40
0.896988654970477
 40
0.925461272550352
 40
0.9490310386877278
 40
0.9971218824265113
 40
1.0
 40
1.0
 40
1.0
 40
1.0
 10
154.2151582166429
 20
87.17018690352837
 30
0.0
 10
154.2131198188144
 20
87.16991971739493
 30
0.0
 10
154.2091794729218
 20
87.16940323049103
 30
0.0
 10
154.2483042154275
 20
87.17453529376465
 30
0.0
 10
154.3162931092414
 20
87.18333771849001
 30
0.0
 10
154.4206982744977
 20
87.19657928080453
 30
0.0
 10
154.5583051323692
 20
87.21327264285662
 30
0.0
 10
154.7205637136496
 20
87.2323039327529
 30
0.0
 10
154.9154402573666
 20
87.25386134580434
 30
0.0
 10
155.1420105905515
 20
87.27685151948089
 30
0.0
 10
155.3987669539238
 20
87.30120122918576
 30
0.0
 10
155.6883429293117
 20
87.32546792414654
 30
0.0
 10
156.0062583728346
 20
87.3478929494152
 30
0.0
 10
156.3554207253305
 20
87.36921601383517
 30
0.0
 10
156.7323921189855
 20
87.3863900793978
 30
0.0
 10
157.1263066744815
 20
87.39760827932416
 30
0.0
 10
157.5400334958058
 20
87.40452686539015
 30
0.0
 10
157.9660618249932
 20
87.40374288236285
 30
0.0
 10
158.3886005103158
 20
87.39506309940376
 30
0.0
 10
158.7028696217422
 20
87.38474167886707
 30
0.0
 10
159.0119407794028
 20
87.37087433226748
 30
0.0
 10
159.315277827711
 20
87.35368513968152
 30
0.0
 10
159.6028970285973
 20
87.33408694905702
 30
0.0
 10
159.9613433313087
 20
87.30590380046064
 30
0.0
 10
160.2859212696906
 20
87.27549823451014
 30
0.0
 10
160.5594137728134
 20
87.2466430576397
 30
0.0
 10
160.7908091603474
 20
87.22065662476523
 30
0.0
 10
160.9718453237888
 20
87.19866702831393
 30
0.0
 10
161.0949973868946
 20
87.18305983653381
 30
0.0
 10
161.175316213497
 20
87.17267521577439
 30
0.0
 10
161.2106998283089
 20
87.16799404147294
 30
0.0
 10
161.2037472485847
 20
87.16890931857091
 30
0.0
 10
161.2033546500037
 20
87.16896100247878
 30
0.0
  0
SPLINE
  5
AF
330
1F
100
AcDbEntity
  8
0
  6
Continuous
 62
     7
370
    15
100
AcDbSpline
210
0.0
220
0.0
230
1.0
 70
     8
 71
     3
 72
     9
 73
     5
 74
     0
 42
0.00000001
 43
0.00000001
 40
0.0
 40
0.0
 40
0.0
 40
0.0
 40
0.3691086322291127
 40
0.9999999999999999
 40
0.9999999999999999
 40
0.9999999999999999
 40
0.9999999999999999
 10
155.6627980098129
 20
87.32206047534457
 30
0.0
 10
155.6225973908714
 20
87.31909787210857
 30
0.0
 10
155.5136846875873
 20
87.31107149998581
 30
0.0
 10
155.4153847087148
 20
87.30217015682491
 30
0.0
 10
155.353368100592
 20
87.29655437626313
 30
0.0
  0
SPLINE
  5
B0
330
1F
100
AcDbEntity
  8
0
  6
Continuous
 62
     7
370
    15
100
AcDbSpline
210
0.0
220
0.0
230
1.0
 70
     8
 71
     3
 72
    10
 73
     6
 74
     0
 42
0.00000001
 43
0.00000001
 40
0.0
 40
0.0
 40
0.0
 40
0.0
 40
0.5
 40
0.5
 40
1.0
 40
1.0
 40
1.0
 40
1.0
 10
121.7045976352195
 20
137.5152377235474
 30
0.0
 10
121.7045976352195
 20
137.6756429898982
 30
0.0
 10
121.6423598041127
 20
137.8347048028868
 30
0.0
 10
121.4232248803701
 20
138.0656172685171
 30
0.0
 10
121.2656361853783
 20
138.1359928729478
 30
0.0
 10
121.1045976352195
 20
138.1359928729478
 30
0.0
  0
SPLINE
  5
B1
330
1F
100
AcDbEntity
  8
0
  6
Continuous
 62
     7
370
    15
100
AcDbSpline
210
0.0
220
0.0
230
1.0
 70
     8
 71
     3
 72
    12
 73
     8
 74
     0
 42
0.00000001
 43
0.00000001
 40
0.0
 40
0.0
 40
0.0
 40
0.0
 40
0.25
 40
0.25
 40
0.5
 40
0.5
 40
1.0
 40
1.0
 40
1.0
 40
1.0
 10
121.1045976352195
 20
132.127487062151
 30
0.0
 10
121.1957973570452
 20
132.127487062151
 30
0.0
 10
121.2863923661812
 20
132.0992673635631
 30
0.0
 10
121.4398050926279
 20
132.004824356315
 30
0.0
 10
121.5050139599516
 20
131.9385373796096
 30
0.0
 10
121.6577984892915
 20
131.7129125563213
 30
0.0
 10
121.7045976352196
 20
131.5304862932888
 30
0.0
 10
121.7045976352196
 20
131.3497496610419
 30
0.0
  0
LINE
  5
B2
330
1F
100
AcDbEntity
  8
0
  6
Continuous
 62
     7
370
    15
100
AcDbLine
 10
121.7045976352
 20
131.349749661
 30
0.0
 11
121.7045976352
 21
137.5152377235
 31
0.0
  0
SPLINE
  5
B3
330
1F
100
AcDbEntity
  8
0
  6
Continuous
 62
     7
370
    15
100
AcDbSpline
210
0.0
220
0.0
230
1.0
 70
     8
 71
     3
 72
     8
 73
     4
 74
     0
 42
0.00000001
 43
0.00000001
 40
0.0
 40
0.0
 40
0.0
 40
0.0
 40
1.0
 40
1.0
 40
1.0
 40
1.0
 10
117.1465304667086
 20
138.1359928729478
 30
0.0
 10
116.6513904373443
 20
137.2493132247675
 30
0.0
 10
116.1573077320653
 20
136.3620505890815
 30
0.0
 10
115.6645976352196
 20
135.4740315909551
 30
0.0
  0
LINE
  5
B4
330
1F
100
AcDbEntity
  8
0
  6
Continuous
 62
     7
370
    15
100
AcDbLine
 10
117.1465304667
 20
132.1274870622
 30
0.0
 11
117.1465304667
 21
138.1359928729
 31
0.0
  0
SPLINE
  5
B5
330
1F
100
AcDbEntity
  8
0
  6
Continuous
 62
     7
370
    15
100
AcDbSpline
210
0.0
220
0.0
230
1.0
 70
     8
 71
     3
 72
     8
 73
     4
 74
     0
 42
0.00000001
 43
0.00000001
 40
0.0
 40
0.0
 40
0.0
 40
0.0
 40
1.0
 40
1.0
 40
1.0
 40
1.0
 10
115.6645976352196
 20
128.7189410673668
 30
0.0
 10
116.1438757858094
 20
129.8599522972195
 30
0.0
 10
116.6394436249493
 20
130.9963367079873
 30
0.0
 10
117.1465304667086
 20
132.1274870621509
 30
0.0
  0
LINE
  5
B6
330
1F
100
AcDbEntity
  8
0
  6
Continuous
 62
     7
370
    15
100
AcDbLine
 10
115.6645976352
 20
128.7189410674
 30
0.0
 11
115.6645976352
 21
135.474031591
 31
0.0
  0
SPLINE
  5
B7
330
1F
100
AcDbEntity
  8
0
  6
Continuous
 62
     7
370
    15
100
AcDbSpline
210
0.0
220
0.0
230
1.0
 70
     8
 71
     3
 72
     8
 73
     4
 74
     0
 42
0.00000001
 43
0.00000001
 40
0.0
 40
0.0
 40
0.0
 40
0.0
 40
1.0
 40
1.0
 40
1.0
 40
1.0
 10
110.3626648037305
 20
132.1274870621509
 30
0.0
 10
110.8697516454898
 20
130.9963367079873
 30
0.0
 10
111.3653194846297
 20
129.8599522972195
 30
0.0
 10
111.8445976352196
 20
128.7189410673668
 30
0.0
  0
LINE
  5
B8
330
1F
100
AcDbEntity
  8
0
  6
Continuous
 62
     7
370
    15
100
AcDbLine
 10
111.8445976352
 20
128.7189410674
 30
0.0
 11
111.8445976352
 21
127.8046640312
 31
0.0
  0
LINE
  5
B9
330
1F
100
AcDbEntity
  8
0
  6
Continuous
 62
     7
370
    15
100
AcDbLine
 10
121.1045976352
 20
138.1359928729
 30
0.0
 11
117.1465304667
 21
138.1359928729
 31
0.0
  0
LINE
  5
BA
330
1F
100
AcDbEntity
  8
0
  6
Continuous
 62
     7
370
    15
100
AcDbLine
 10
117.1465304667
 20
132.1274870622
 30
0.0
 11
121.1045976352
 21
132.1274870622
 31
0.0
  0
SPLINE
  5
BB
330
1F
100
AcDbEntity
  8
0
  6
Continuous
 62
     7
370
    15
100
AcDbSpline
210
0.0
220
0.0
230
1.0
 70
     8
 71
     3
 72
     8
 73
     4
 74
     0
 42
0.00000001
 43
0.00000001
 40
0.0
 40
0.0
 40
0.0
 40
0.0
 40
1.0
 40
1.0
 40
1.0
 40
1.0
 10
111.8445976352196
 20
135.4740315909551
 30
0.0
 10
111.3518875383738
 20
136.3620505890815
 30
0.0
 10
110.8578048330948
 20
137.2493132247675
 30
0.0
 10
110.3626648037305
 20
138.1359928729478
 30
0.0
  0
LINE
  5
BC
330
1F
100
AcDbEntity
  8
0
  6
Continuous
 62
     7
370
    15
100
AcDbLine
 10
111.8445976352
 20
128.7189410674
 30
0.0
 11
111.8445976352
 21
135.474031591
 31
0.0
  0
LINE
  5
BD
330
1F
100
AcDbEntity
  8
0
  6
Continuous
 62
     7
370
    15
100
AcDbLine
 10
115.6645976352
 20
127.8046640312
 30
0.0
 11
115.6645976352
 21
128.7189410674
 31
0.0
  0
LINE
  5
BE
330
1F
100
AcDbEntity
  8
0
  6
Continuous
 62
     7
370
    15
100
AcDbLine
 10
121.7045976352
 20
131.349749661
 30
0.0
 11
121.7045976352
 21
127.5187973998
 31
0.0
  0
ARC
  5
BF
330
1F
100
AcDbEntity
  8
0
  6
Continuous
 62
     7
370
    15
100
AcDbCircle
 10
103.754546941
 20
126.4073947257
 30
0.0
 40
7.218013502892171
100
AcDbArc
 50
70.6963021116
 51
109.2888198142
  0
LINE
  5
C0
330
1F
100
AcDbEntity
  8
0
  6
Continuous
 62
     7
370
    15
100
AcDbLine
 10
225.7545976352
 20
93.0175783831
 30
0.0
 11
225.7545976352
 21
122.3200164118
 31
0.0
  0
LINE
  5
C1
330
1F
100
AcDbEntity
  8
0
  6
Continuous
 62
     7
370
    15
100
AcDbLine
 10
225.7545976352
 20
95.9193760687
 30
0.0
 11
225.8319198424
 21
93.9513944819
 31
0.0
  0
LINE
  5
C2
330
1F
100
AcDbEntity
  8
0
  6
Continuous
 62
     7
370
    15
100
AcDbLine
 10
225.7666157707
 20
121.2252580428
 30
0.0
 11
225.7545976352
 21
120.9193760687
 31
0.0
  0
LINE
  5
C3
330
1F
100
AcDbEntity
  8
0
  6
Continuous
 62
     7
370
    15
100
AcDbLine
 10
225.7730301187
 20
121.3885141013
 30
0.0
 11
225.7666157707
 21
121.2252580428
 31
0.0
  0
LINE
  5
C4
330
1F
100
AcDbEntity
  8
0
  6
HIDDEN
 62
     7
370
     0
100
AcDbLine
 10
110.3626648037
 20
132.1274870622
 30
0.0
 11
110.3626648037
 21
127.5187973998
 31
0.0
  0
ARC
  5
C5
330
1F
100
AcDbEntity
  8
0
  6
HIDDEN
 62
     7
370
     0
100
AcDbCircle
 10
104.0554502224
 20
120.1499363505
 30
0.0
 40
3.66359822197281
100
AcDbArc
 50
265.2895990822
 51
12.123397413
  0
ARC
  5
C6
330
1F
100
AcDbEntity
  8
0
  6
HIDDEN
 62
     7
370
     0
100
AcDbCircle
 10
103.4736776838
 20
120.1636590267
 30
0.0
 40
3.675697637757478
100
AcDbArc
 50
167.0705505165
 51
274.3831782294
  0
LINE
  5
C7
330
1F
100
AcDbEntity
  8
0
  6
HIDDEN
 62
     7
370
     0
100
AcDbLine
 10
83.7497478398
 20
84.144197777
 30
0.0
 11
83.2156024107
 21
84.0895831775
 31
0.0
  0
LINE
  5
C8
330
1F
100
AcDbEntity
  8
0
  6
HIDDEN
 62
     7
370
     0
100
AcDbLine
 10
82.9779487386
 20
131.2721305803
 30
0.0
 11
83.7496551195
 21
131.1933804298
 31
0.0
  0
SPLINE
  5
C9
330
1F
100
AcDbEntity
  8
0
  6
HIDDEN
 62
     7
370
     0
100
AcDbSpline
210
0.0
220
0.0
230
1.0
 70
     8
 71
     3
 72
    32
 73
    28
 74
     0
 42
0.00000001
 43
0.00000001
 40
0.0
 40
0.0
 40
0.0
 40
0.0
 40
0.0346246159901393
 40
0.0694870388940023
 40
0.105100760954932
 40
0.1409753874086758
 40
0.1756005721189328
 40
0.210469240812561
 40
0.2461122854708169
 40
0.2820258067991321
 40
0.3162663828049037
 40
0.3859338563640312
 40
0.4214461814158482
 40
0.4553763558770598
 40
0.5243713305904967
 40
0.5595124638219118
 40
0.593798734303577
 40
0.6635059787021123
 40
0.6990055363805018
 40
0.7337623601246063
 40
0.7687606633024604
 40
0.8045245907686109
 40
0.8405553812432468
 40
0.875170121130555
 40
0.9456085132854553
 40
0.9815233266320907
 40
1.0
 40
1.0
 40
1.0
 40
1.0
 10
89.50959963682115
 20
87.83126892396704
 30
0.0
 10
89.43760133497473
 20
87.84105686687538
 30
0.0
 10
89.29311023644156
 20
87.8606999777118
 30
0.0
 10
89.05179030218311
 20
87.89014919633352
 30
0.0
 10
88.79249205119747
 20
87.91869957842394
 30
0.0
 10
88.51850463206485
 20
87.94513079737877
 30
0.0
 10
88.2338768510433
 20
87.96858327473008
 30
0.0
 10
87.93929189207515
 20
87.98858073118868
 30
0.0
 10
87.63236098310684
 20
88.00473640969241
 30
0.0
 10
87.32062951735438
 20
88.01617839738793
 30
0.0
 10
86.90336396866896
 20
88.02486952508576
 30
0.0
 10
86.4827209753114
 20
88.02358146862558
 30
0.0
 10
86.06931742214593
 20
88.0123536572581
 30
0.0
 10
85.66447345907864
 20
87.99505538517724
 30
0.0
 10
85.27383537451647
 20
87.969339741409
 30
0.0
 10
84.9050542964752
 20
87.93724643051209
 30
0.0
 10
84.55163651422679
 20
87.90168822200965
 30
0.0
 10
84.22619542390589
 20
87.86243976567405
 30
0.0
 10
83.93681821818855
 20
87.82280824830171
 30
0.0
 10
83.73890434121324
 20
87.79367250515946
 30
0.0
 10
83.56157737717574
 20
87.76593827284672
 30
0.0
 10
83.40496804866322
 20
87.74015772859234
 30
0.0
 10
83.27332052896053
 20
87.71755109185816
 30
0.0
 10
83.1314593333888
 20
87.6923650465515
 30
0.0
 10
83.04264074557318
 20
87.6759194974279
 30
0.0
 10
83.00581780702278
 20
87.66902666661171
 30
0.0
 10
83.00723395419595
 20
87.66929165252091
 30
0.0
 10
83.00771501640514
 20
87.66938166767561
 30
0.0
  0
SPLINE
  5
CA
330
1F
100
AcDbEntity
  8
0
  6
HIDDEN
 62
     7
370
     0
100
AcDbSpline
210
0.0
220
0.0
230
1.0
 70
     8
 71
     3
 72
    30
 73
    26
 74
     0
 42
0.00000001
 43
0.00000001
 40
0.0
 40
0.0
 40
0.0
 40
0.0
 40
0.0156161600804337
 40
0.0849748372628082
 40
0.1203204532886746
 40
0.15431851909124
 40
0.2234436946574013
 40
0.2586467089786606
 40
0.2931107206687011
 40
0.3631864361325603
 40
0.3988795186727328
 40
0.4336750628309723
 40
0.4687145712104809
 40
0.5045294144990544
 40
0.5406151111978532
 40
0.5750767863722916
 40
0.6452033649630275
 40
0.6809575734718859
 40
0.7149323277721685
 40
0.784033058295527
 40
0.8192378401372485
 40
0.8533347063218409
 40
0.9226550151093995
 40
0.9579547149334489
 40
1.0
 40
1.0
 40
1.0
 40
1.0
 10
83.00771501640514
 20
127.6682131318914
 30
0.0
 10
83.00711727732005
 20
127.6683253847731
 30
0.0
 10
83.00386469914339
 20
127.6689362052504
 30
0.0
 10
83.05418560159173
 20
127.6594770707933
 30
0.0
 10
83.15449063063302
 20
127.6411722346971
 30
0.0
 10
83.2891076187027
 20
127.6171889293234
 30
0.0
 10
83.47116626373277
 20
127.5860901351769
 30
0.0
 10
83.69808883739805
 20
127.5501709911346
 30
0.0
 10
83.95467524277542
 20
127.5118519699954
 30
0.0
 10
84.2527119012481
 20
127.4716068346872
 30
0.0
 10
84.58526115524785
 20
127.4329458112849
 30
0.0
 10
84.85045886065213
 20
127.4055431525537
 30
0.0
 10
85.12951668591107
 20
127.3804983159415
 30
0.0
 10
85.42396770180524
 20
127.3583306186459
 30
0.0
 10
85.72683263512148
 20
127.340168531376
 30
0.0
 10
86.13721862199024
 20
127.3219104263815
 30
0.0
 10
86.55805946094505
 20
127.3130631923771
 30
0.0
 10
86.977963378174
 20
127.3145285868183
 30
0.0
 10
87.39257789902771
 20
127.3225719799856
 30
0.0
 10
87.79879901850354
 20
127.3400787655849
 30
0.0
 10
88.18832951822552
 20
127.3656440786127
 30
0.0
 10
88.56515021946387
 20
127.3958283143269
 30
0.0
 10
88.91828737916782
 20
127.4317258891744
 30
0.0
 10
89.26003886698943
 20
127.472544167033
 30
0.0
 10
89.421712627999
 20
127.4944290805995
 30
0.0
 10
89.50959963682115
 20
127.5063258756
 30
0.0
  0
SPLINE
  5
CB
330
1F
100
AcDbEntity
  8
0
  6
HIDDEN
 62
     7
370
     0
100
AcDbSpline
210
0.0
220
0.0
230
1.0
 70
     8
 71
     3
 72
    15
 73
    11
 74
     0
 42
0.00000001
 43
0.00000001
 40
0.0
 40
0.0
 40
0.0
 40
0.0
 40
0.110073497728565
 40
0.2209211978812889
 40
0.3341969248598607
 40
0.4483072217158166
 40
0.5584036831377097
 40
0.7823036295888718
 40
0.8963677673997164
 40
0.9999999999999999
 40
0.9999999999999999
 40
0.9999999999999999
 40
0.9999999999999999
 10
89.50959963682115
 20
127.5063258756
 30
0.0
 10
89.57719362330866
 20
127.5153941296931
 30
0.0
 10
89.71285701888104
 20
127.5335944194838
 30
0.0
 10
89.89330244309876
 20
127.5543154747829
 30
0.0
 10
90.05545121930025
 20
127.5710551602363
 30
0.0
 10
90.19350235969043
 20
127.5836372717167
 30
0.0
 10
90.34514310210606
 20
127.5960160732163
 30
0.0
 10
90.44658860042767
 20
127.6029733485237
 30
0.0
 10
90.49800171293612
 20
127.6062699512778
 30
0.0
 10
90.50195650641409
 20
127.6065152555562
 30
0.0
 10
90.50383914725381
 20
127.606632030264
 30
0.0
  0
SPLINE
  5
CC
330
1F
100
AcDbEntity
  8
0
  6
HIDDEN
 62
     7
370
     0
100
AcDbSpline
210
0.0
220
0.0
230
1.0
 70
     8
 71
     3
 72
    17
 73
    13
 74
     0
 42
0.00000001
 43
0.00000001
 40
0.0
 40
0.0
 40
0.0
 40
0.0
 40
0.0069728710572609
 40
0.1183152663270182
 40
0.2320716767842061
 40
0.3466628069643692
 40
0.4573811669863204
 40
0.5688719816774894
 40
0.6828068779536546
 40
0.7975913953265431
 40
0.8984980741921084
 40
1.0
 40
1.0
 40
1.0
 40
1.0
 10
90.5038430933616
 20
87.730962520018
 30
0.0
 10
90.50409294358396
 20
87.73094674170086
 30
0.0
 10
90.5083323874741
 20
87.73067901614282
 30
0.0
 10
90.49241118845951
 20
87.73167596811196
 30
0.0
 10
90.45339735545917
 20
87.73419239145565
 30
0.0
 10
90.3849446757402
 20
87.73889003542475
 30
0.0
 10
90.29219284627506
 20
87.74583989322245
 30
0.0
 10
90.17490123735719
 20
87.7555693801561
 30
0.0
 10
90.03206460546915
 20
87.76881638643275
 30
0.0
 10
89.87051521231943
 20
87.78580347511108
 30
0.0
 10
89.69671187212307
 20
87.80609611552444
 30
0.0
 10
89.57209254285928
 20
87.82286155311724
 30
0.0
 10
89.50959963682115
 20
87.83126892396704
 30
0.0
  0
LINE
  5
CD
330
1F
100
AcDbEntity
  8
0
  6
HIDDEN
 62
     7
370
     0
100
AcDbLine
 10
76.7585722314
 20
90.6687973998
 30
0.0
 11
76.7585722314
 21
124.6687973998
 31
0.0
  0
LWPOLYLINE
  5
CE
330
1F
100
AcDbEntity
  8
0
  6
HIDDEN
 62
     7
370
     0
100
AcDbPolyline
 90
       13
 70
   128
 43
0.0
 10
103.7545976352
 20
129.6143998144
 10
104.6144793961
 20
129.661158703
 10
105.4341540415
 20
129.7992489751
 10
106.175294496
 20
130.022213683
 10
106.8032458557
 20
130.3196272449
 10
107.288645813
 20
130.677582933
 10
107.6087976053
 20
131.0793431374
 10
107.7487312906
 20
131.5061219973
 10
107.7019037254
 20
131.9379638075
 10
107.4705045145
 20
132.3546761251
 10
107.0653536278
 20
132.7367739451
 10
106.5053954706
 20
133.0663907983
 10
106.140643958
 20
133.219608753
  0
LWPOLYLINE
  5
CF
330
1F
100
AcDbEntity
  8
0
  6
HIDDEN
 62
     7
370
     0
100
AcDbPolyline
 90
       13
 70
   128
 43
0.0
 10
101.3702189414
 20
133.2202281244
 10
101.0037997998
 20
133.0663907983
 10
100.4438416426
 20
132.7367739451
 10
100.038690756
 20
132.3546761251
 10
99.8072915451
 20
131.9379638075
 10
99.7604639798
 20
131.5061219973
 10
99.9003976651
 20
131.0793431374
 10
100.2205494574
 20
130.677582933
 10
100.7059494147
 20
130.3196272449
 10
101.3339007744
 20
130.022213683
 10
102.075041229
 20
129.7992489751
 10
102.8947158744
 20
129.661158703
 10
103.7545976352
 20
129.6143998144
  0
SPLINE
  5
D0
330
1F
100
AcDbEntity
  8
0
  6
HIDDEN
 62
     7
370
     0
100
AcDbSpline
210
0.0
220
0.0
230
1.0
 70
     8
 71
     3
 72
    11
 73
     7
 74
     0
 42
0.00000001
 43
0.00000001
 40
0.0
 40
0.0
 40
0.0
 40
0.0
 40
0.0005779865010845
 40
0.0005779865010845
 40
0.0005779865010845
 40
0.0011559733324421
 40
0.0011559733324421
 40
0.0011559733324421
 40
0.0011559733324421
 10
63.85459763521956
 20
109.6686380079434
 30
0.0
 10
64.02126489002552
 20
109.6666543686024
 30
0.0
 10
64.18793131970318
 20
109.6646167615938
 30
0.0
 10
64.35459765815501
 20
109.6625052981874
 30
0.0
 10
64.52126408698142
 20
109.660393833636
 30
0.0
 10
64.68793046061911
 20
109.6582082704797
 30
0.0
 10
64.85459763521956
 20
109.655925693148
 30
0.0
  0
SPLINE
  5
D1
330
1F
100
AcDbEntity
  8
0
  6
HIDDEN
 62
     7
370
     0
100
AcDbSpline
210
0.0
220
0.0
230
1.0
 70
     8
 71
     3
 72
     8
 73
     4
 74
     0
 42
0.00000001
 43
0.00000001
 40
0.0
 40
0.0
 40
0.0
 40
0.0
 40
0.0011564765856722
 40
0.0011564765856722
 40
0.0011564765856722
 40
0.0011564765856722
 10
64.85459763521956
 20
105.6720970975672
 30
0.0
 10
64.52128970465071
 20
105.671221941984
 30
0.0
 10
64.1879544722585
 20
105.6701670907324
 30
0.0
 10
63.85459763521956
 20
105.6689960036948
 30
0.0
  0
LINE
  5
D2
330
1F
100
AcDbEntity
  8
0
  6
HIDDEN
 62
     7
370
     0
100
AcDbLine
 10
103.4144236038
 20
90.6687973998
 30
0.0
 11
103.4144236038
 21
124.6687973998
 31
0.0
  0
LINE
  5
D3
330
1F
100
AcDbEntity
  8
0
  6
HIDDEN
 62
     7
370
     0
100
AcDbLine
 10
105.7045976352
 20
91.9437973998
 30
0.0
 11
105.7045976352
 21
123.3937973988
 31
0.0
  0
SPLINE
  5
D4
330
1F
100
AcDbEntity
  8
0
  6
HIDDEN
 62
     7
370
     0
100
AcDbSpline
210
0.0
220
0.0
230
1.0
 70
     8
 71
     3
 72
    16
 73
    12
 74
     0
 42
0.00000001
 43
0.00000001
 40
0.0
 40
0.0
 40
0.0
 40
0.0
 40
0.124999999999998
 40
0.124999999999998
 40
0.249999999999996
 40
0.249999999999996
 40
0.4999999999999973
 40
0.4999999999999973
 40
0.7499999999999987
 40
0.7499999999999987
 40
1.0
 40
1.0
 40
1.0
 40
1.0
 10
72.55459763521955
 20
91.86730696375186
 30
0.0
 10
72.64971938988538
 20
91.86730696375186
 30
0.0
 10
72.74304945861346
 20
91.86349113035905
 30
0.0
 10
72.92631121935146
 20
91.84872057762925
 30
0.0
 10
73.01718893490846
 20
91.83756252965367
 30
0.0
 10
73.27399063242821
 20
91.79509125951193
 30
0.0
 10
73.4290579973002
 20
91.75404506230913
 30
0.0
 10
73.68280445885482
 20
91.65889894572724
 30
0.0
 10
73.78367491052268
 20
91.60413621164568
 30
0.0
 10
73.91892132521753
 20
91.4928750877418
 30
0.0
 10
73.95459763521956
 20
91.4357053504131
 30
0.0
 10
73.95459763521956
 20
91.3812837773794
 30
0.0
  0
SPLINE
  5
D5
330
1F
100
AcDbEntity
  8
0
  6
HIDDEN
 62
     7
370
     0
100
AcDbSpline
210
0.0
220
0.0
230
1.0
 70
     8
 71
     3
 72
     8
 73
     4
 74
     0
 42
0.00000001
 43
0.00000001
 40
0.0
 40
0.0
 40
0.0
 40
0.0
 40
1.0
 40
1.0
 40
1.0
 40
1.0
 10
65.15459763853475
 20
94.0121099098341
 30
0.0
 10
65.15459763853667
 20
93.12821276751717
 30
0.0
 10
65.14111701262688
 20
92.41362952245521
 30
0.0
 10
65.13976564443757
 20
91.86730696375186
 30
0.0
  0
LINE
  5
D6
330
1F
100
AcDbEntity
  8
0
  6
HIDDEN
 62
     7
370
     0
100
AcDbLine
 10
64.8545976352
 20
98.0679706074
 30
0.0
 11
64.8545976352
 21
95.0370201755
 31
0.0
  0
SPLINE
  5
D7
330
1F
100
AcDbEntity
  8
0
  6
HIDDEN
 62
     7
370
     0
100
AcDbSpline
210
0.0
220
0.0
230
1.0
 70
     8
 71
     3
 72
    10
 73
     6
 74
     0
 42
0.00000001
 43
0.00000001
 40
0.0
 40
0.0
 40
0.0
 40
0.0
 40
0.5
 40
0.5
 40
1.0
 40
1.0
 40
1.0
 40
1.0
 10
65.15459763840727
 20
99.43581102414068
 30
0.0
 10
65.15459763840724
 20
99.19382705653386
 30
0.0
 10
65.12644760933667
 20
98.95948462756884
 30
0.0
 10
65.02285769519425
 20
98.50410960529116
 30
0.0
 10
64.94622898560276
 20
98.2825050421838
 30
0.0
 10
64.85459763521956
 20
98.06797060738587
 30
0.0
  0
LINE
  5
D8
330
1F
100
AcDbEntity
  8
0
  6
HIDDEN
 62
     7
370
     0
100
AcDbLine
 10
65.1545976384
 20
111.2734310214
 30
0.0
 11
65.1545976384
 21
99.4358110241
 31
0.0
  0
SPLINE
  5
D9
330
1F
100
AcDbEntity
  8
0
  6
HIDDEN
 62
     7
370
     0
100
AcDbSpline
210
0.0
220
0.0
230
1.0
 70
     8
 71
     3
 72
     8
 73
     4
 74
     0
 42
0.00000001
 43
0.00000001
 40
0.0
 40
0.0
 40
0.0
 40
0.0
 40
1.0
 40
1.0
 40
1.0
 40
1.0
 10
64.85459763521955
 20
117.2757367208518
 30
0.0
 10
65.03562910177845
 20
116.8436292351892
 30
0.0
 10
65.15459763841298
 20
116.3894838290895
 30
0.0
 10
65.15459763840728
 20
115.9017837753954
 30
0.0
  0
LINE
  5
DA
330
1F
100
AcDbEntity
  8
0
  6
HIDDEN
 62
     7
370
     0
100
AcDbLine
 10
64.8545976352
 20
120.3089397068
 30
0.0
 11
64.8545976352
 21
117.2757367209
 31
0.0
  0
SPLINE
  5
DB
330
1F
100
AcDbEntity
  8
0
  6
HIDDEN
 62
     7
370
     0
100
AcDbSpline
210
0.0
220
0.0
230
1.0
 70
     8
 71
     3
 72
    10
 73
     6
 74
     0
 42
0.00000001
 43
0.00000001
 40
0.0
 40
0.0
 40
0.0
 40
0.0
 40
0.5
 40
0.5
 40
1.0
 40
1.0
 40
1.0
 40
1.0
 10
65.15459763861277
 20
121.3254848897033
 30
0.0
 10
65.15459763861098
 20
121.1608485430973
 30
0.0
 10
65.12743896785548
 20
120.9936933192668
 30
0.0
 10
65.02167397253709
 20
120.6550703114652
 30
0.0
 10
64.94525918423992
 20
120.4827985341742
 30
0.0
 10
64.85459763521959
 20
120.3089397068302
 30
0.0
  0
SPLINE
  5
DC
330
1F
100
AcDbEntity
  8
0
  6
HIDDEN
 62
     7
370
     0
100
AcDbSpline
210
0.0
220
0.0
230
1.0
 70
     8
 71
     3
 72
    18
 73
    14
 74
     0
 42
0.00000001
 43
0.00000001
 40
0.0
 40
0.0
 40
0.0
 40
0.0
 40
0.2500000000000033
 40
0.2500000000000033
 40
0.3750000000000029
 40
0.3750000000000029
 40
0.5000000000000026
 40
0.5000000000000026
 40
0.6250000000000022
 40
0.6250000000000022
 40
0.7500000000000018
 40
0.7500000000000018
 40
1.0
 40
1.0
 40
1.0
 40
1.0
 10
69.95459763521956
 20
123.9563110221876
 30
0.0
 10
69.95459763521956
 20
123.9018365016354
 30
0.0
 10
69.91968694382739
 20
123.845455442283
 30
0.0
 10
69.81767764249433
 20
123.7613786014295
 30
0.0
 10
69.77604128781623
 20
123.7340448974386
 30
0.0
 10
69.67763549232747
 20
123.6810909818396
 30
0.0
 10
69.62009228062318
 20
123.6552036281224
 30
0.0
 10
69.49279410705024
 20
123.6074260832891
 30
0.0
 10
69.42320680229278
 20
123.5854781651112
 30
0.0
 10
69.27177255713782
 20
123.5460456001985
 30
0.0
 10
69.18908865404387
 20
123.5284893509727
 30
0.0
 10
68.93297719200582
 20
123.4860505855522
 30
0.0
 10
68.74506218811784
 20
123.4702878358152
 30
0.0
 10
68.55459763521955
 20
123.4702878358152
 30
0.0
  0
LINE
  5
DD
330
1F
100
AcDbEntity
  8
0
  6
HIDDEN
 62
     7
370
     0
100
AcDbLine
 10
68.5545976352
 20
123.4702878358
 30
0.0
 11
65.1545976386
 21
123.4702878358
 31
0.0
  0
LINE
  5
DE
330
1F
100
AcDbEntity
  8
0
  6
HIDDEN
 62
     7
370
     0
100
AcDbLine
 10
65.0856286486
 20
91.8673069638
 30
0.0
 11
72.5545976352
 21
91.8673069638
 31
0.0
  0
SPLINE
  5
DF
330
1F
100
AcDbEntity
  8
0
  6
HIDDEN
 62
     7
370
     0
100
AcDbSpline
210
0.0
220
0.0
230
1.0
 70
     8
 71
     3
 72
    22
 73
    18
 74
     0
 42
0.00000001
 43
0.00000001
 40
0.0
 40
0.0
 40
0.0
 40
0.0
 40
0.1249999999999998
 40
0.1249999999999998
 40
0.2499999999999995
 40
0.2499999999999995
 40
0.4999999999999992
 40
0.4999999999999992
 40
0.5624999999999993
 40
0.5624999999999993
 40
0.6249999999999994
 40
0.6249999999999994
 40
0.7499999999999996
 40
0.7499999999999996
 40
0.8749999999999998
 40
0.8749999999999998
 40
1.0
 40
1.0
 40
1.0
 40
1.0
 10
65.08562864857748
 20
91.86730696375186
 30
0.0
 10
65.0725462558491
 20
92.12241267389952
 30
0.0
 10
65.05932669240927
 20
92.41557093300342
 30
0.0
 10
65.03687951461515
 20
93.07787139862823
 30
0.0
 10
65.0274010475907
 20
93.44814531923961
 30
0.0
 10
65.00820308665415
 20
94.6707021223534
 30
0.0
 10
65.00931685965102
 20
95.60784104848527
 30
0.0
 10
65.0282276526041
 20
96.92771227800026
 30
0.0
 10
65.03285718046311
 20
97.19921418697658
 30
0.0
 10
65.04333840020907
 20
97.75759902177889
 30
0.0
 10
65.04913366149349
 20
98.04472187771849
 30
0.0
 10
65.06744288239842
 20
98.91731113209016
 30
0.0
 10
65.08147781667878
 20
99.51776680844603
 30
0.0
 10
65.1109349888156
 20
100.7552413009421
 30
0.0
 10
65.12649067979717
 20
101.3922574575856
 30
0.0
 10
65.15028522979406
 20
102.7037460552701
 30
0.0
 10
65.15830428193942
 20
103.3798686669306
 30
0.0
 10
65.15459763521955
 20
104.0641637782154
 30
0.0
  0
LINE
  5
E0
330
1F
100
AcDbEntity
  8
0
  6
HIDDEN
 62
     7
370
     0
100
AcDbLine
 10
65.1545976386
 20
111.2734310214
 30
0.0
 11
65.1545976386
 21
123.4702878358
 31
0.0
  0
SPLINE
  5
E1
330
1F
100
AcDbEntity
  8
0
  6
HIDDEN
 62
     7
370
     0
100
AcDbSpline
210
0.0
220
0.0
230
1.0
 70
     8
 71
     3
 72
    10
 73
     6
 74
     0
 42
0.00000001
 43
0.00000001
 40
0.0
 40
0.0
 40
0.0
 40
0.0
 40
0.5
 40
0.5
 40
1.0
 40
1.0
 40
1.0
 40
1.0
 10
65.15459763521955
 20
104.0641637782003
 30
0.0
 10
65.15459763521937
 20
104.3380789262747
 30
0.0
 10
65.12883840535167
 20
104.6090205050048
 30
0.0
 10
65.02563247261853
 20
105.1447115866077
 30
0.0
 10
64.94829430874331
 20
105.4104583901296
 30
0.0
 10
64.85459763521955
 20
105.6720970975672
 30
0.0
  0
SPLINE
  5
E2
330
1F
100
AcDbEntity
  8
0
  6
HIDDEN
 62
     7
370
     0
100
AcDbSpline
210
0.0
220
0.0
230
1.0
 70
     8
 71
     3
 72
    10
 73
     6
 74
     0
 42
0.00000001
 43
0.00000001
 40
0.0
 40
0.0
 40
0.0
 40
0.0
 40
0.5
 40
0.5
 40
1.0
 40
1.0
 40
1.0
 40
1.0
 10
64.85459763521955
 20
109.655925693148
 30
0.0
 10
64.94782821661056
 20
109.9198195012182
 30
0.0
 10
65.02285782884731
 20
110.1859998118564
 30
0.0
 10
65.12792492802545
 20
110.7243223868146
 30
0.0
 10
65.15459763861165
 20
110.9970705030602
 30
0.0
 10
65.15459763861284
 20
111.2734310213506
 30
0.0
  0
LINE
  5
E3
330
1F
100
AcDbEntity
  8
0
  6
HIDDEN
 62
     7
370
     0
100
AcDbLine
 10
64.8545976352
 20
105.6720970976
 30
0.0
 11
64.8545976352
 21
109.6559256931
 31
0.0
  0
LINE
  5
E4
330
1F
100
AcDbEntity
  8
0
  6
HIDDEN
 62
     7
370
     0
100
AcDbLine
 10
65.0045976352
 20
89.6787973998
 30
0.0
 11
65.0045976352
 21
86.7988596344
 31
0.0
  0
LINE
  5
E5
330
1F
100
AcDbEntity
  8
0
  6
HIDDEN
 62
     7
370
     0
100
AcDbLine
 10
73.9545976352
 20
89.6787973998
 30
0.0
 11
73.9545976352
 21
85.7050598686
 31
0.0
  0
LINE
  5
E6
330
1F
100
AcDbEntity
  8
0
  6
HIDDEN
 62
     7
370
     0
100
AcDbLine
 10
65.0045976352
 20
125.6587973998
 30
0.0
 11
65.0045976352
 21
128.5387351652
 31
0.0
  0
LINE
  5
E7
330
1F
100
AcDbEntity
  8
0
  6
HIDDEN
 62
     7
370
     0
100
AcDbLine
 10
69.9545976352
 20
125.6587973998
 30
0.0
 11
69.9545976352
 21
129.5129050721
 31
0.0
  0
LINE
  5
E8
330
1F
100
AcDbEntity
  8
0
  6
HIDDEN
 62
     7
370
     0
100
AcDbLine
 10
222.2545976352
 20
98.6687973998
 30
0.0
 11
222.2545976352
 21
116.6687973998
 31
0.0
  0
LINE
  5
E9
330
1F
100
AcDbEntity
  8
0
  6
HIDDEN
 62
     7
370
     0
100
AcDbLine
 10
114.5545976352
 20
98.1687973998
 30
0.0
 11
114.5545976352
 21
117.1687973998
 31
0.0
  0
LINE
  5
EA
330
1F
100
AcDbEntity
  8
0
  6
HIDDEN
 62
     7
370
     0
100
AcDbLine
 10
117.5545976352
 20
98.1687973998
 30
0.0
 11
117.5545976352
 21
117.1687973998
 31
0.0
  0
LINE
  5
EB
330
1F
100
AcDbEntity
  8
0
  6
HIDDEN
 62
     7
370
     0
100
AcDbLine
 10
176.2545976352
 20
98.7687973998
 30
0.0
 11
176.2545976352
 21
116.5687972897
 31
0.0
  0
SPLINE
  5
EC
330
1F
100
AcDbEntity
  8
0
  6
HIDDEN
 62
     7
370
     0
100
AcDbSpline
210
0.0
220
0.0
230
1.0
 70
     8
 71
     3
 72
    17
 73
    13
 74
     0
 42
0.00000001
 43
0.00000001
 40
0.0
 40
0.0
 40
0.0
 40
0.0
 40
0.1048980631687537
 40
0.2128630302536706
 40
0.3177541043257535
 40
0.4256403684454027
 40
0.531389517894383
 40
0.6401698560489025
 40
0.746466015412301
 40
0.8558958654811148
 40
0.9612619597807176
 40
1.0
 40
1.0
 40
1.0
 40
1.0
 10
178.2545976352196
 20
116.8470325242505
 30
0.0
 10
178.3371186193769
 20
116.8476822992442
 30
0.0
 10
178.50457325311
 20
116.8490008466984
 30
0.0
 10
178.7475075556643
 20
116.8593167051951
 30
0.0
 10
178.9785329067143
 20
116.8746391550084
 30
0.0
 10
179.1877119799232
 20
116.8936500768362
 30
0.0
 10
179.37304459589
 20
116.9144150423255
 30
0.0
 10
179.5258976316578
 20
116.9343336948998
 30
0.0
 10
179.6450279308893
 20
116.9515914773391
 30
0.0
 10
179.7206503198196
 20
116.9633255653219
 30
0.0
 10
179.7559475719989
 20
116.9690142147693
 30
0.0
 10
179.7509329272771
 20
116.9682075309885
 30
0.0
 10
179.7495848916391
 20
116.9679906784405
 30
0.0
  0
LINE
  5
ED
330
1F
100
AcDbEntity
  8
0
  6
HIDDEN
 62
     7
370
     0
100
AcDbLine
 10
178.3433404518
 20
116.8482235985
 30
0.0
 11
178.2273984212
 21
116.8475570511
 31
0.0
  0
SPLINE
  5
EE
330
1F
100
AcDbEntity
  8
0
  6
HIDDEN
 62
     7
370
     0
100
AcDbSpline
210
0.0
220
0.0
230
1.0
 70
     8
 71
     3
 72
    16
 73
    12
 74
     0
 42
0.00000001
 43
0.00000001
 40
0.0
 40
0.0
 40
0.0
 40
0.0
 40
0.0985039219621658
 40
0.2062073342757638
 40
0.3108020480291177
 40
0.4183674470984214
 40
0.5240903192058036
 40
0.6328402186068461
 40
0.7391737699531966
 40
0.8486393792590459
 40
1.0
 40
1.0
 40
1.0
 40
1.0
 10
176.7557206320857
 20
116.9686172670043
 30
0.0
 10
176.7587467550984
 20
116.9681256408249
 30
0.0
 10
176.7650816171749
 20
116.9670964744537
 30
0.0
 10
176.825976899929
 20
116.9574388749833
 30
0.0
 10
176.9248789477803
 20
116.9426193070858
 30
0.0
 10
177.0607325551709
 20
116.9239331393773
 30
0.0
 10
177.2315026583244
 20
116.9032746241982
 30
0.0
 10
177.4305546512617
 20
116.8831094836657
 30
0.0
 10
177.6555776607887
 20
116.865673225552
 30
0.0
 10
177.9299073816668
 20
116.8506822493005
 30
0.0
 10
178.1353669556567
 20
116.8483727529551
 30
0.0
 10
178.2545976352196
 20
116.8470325242505
 30
0.0
  0
SPLINE
  5
EF
330
1F
100
AcDbEntity
  8
0
  6
HIDDEN
 62
     7
370
     0
100
AcDbSpline
210
0.0
220
0.0
230
1.0
 70
     8
 71
     3
 72
    26
 73
    22
 74
     0
 42
0.00000001
 43
0.00000001
 40
0.0
 40
0.0
 40
0.0
 40
0.0
 40
0.0524570954627003
 40
0.1064474027299405
 40
0.1589011412007668
 40
0.2128533973697881
 40
0.265724615265223
 40
0.3201108869408744
 40
0.3732641153094275
 40
0.4279842021114391
 40
0.4806728790408911
 40
0.5349194888436078
 40
0.5871203781963058
 40
0.6408229555924186
 40
0.6932731670089011
 40
0.7472102985268808
 40
0.8002553927445204
 40
0.8548352252683857
 40
0.9079001265484417
 40
0.9625372372977373
 40
1.0
 40
1.0
 40
1.0
 40
1.0
 10
179.7545976352196
 20
98.3687973997835
 30
0.0
 10
179.7506483559304
 20
98.36943854997934
 30
0.0
 10
179.7426343681317
 20
98.37073958985779
 30
0.0
 10
179.678205483125
 20
98.38093330475488
 30
0.0
 10
179.5764096347166
 20
98.39611846636963
 30
0.0
 10
179.4378946067467
 20
98.41503137729158
 30
0.0
 10
179.264721709233
 20
98.43576964863149
 30
0.0
 10
179.0638062732288
 20
98.45578538202147
 30
0.0
 10
178.8373647609477
 20
98.47307800415682
 30
0.0
 10
178.5963368812958
 20
98.48531779275733
 30
0.0
 10
178.3438248608142
 20
98.49129199201785
 30
0.0
 10
178.0925520556145
 20
98.49027419261553
 30
0.0
 10
177.8445026121834
 20
98.48246118450128
 30
0.0
 10
177.6106775663996
 20
98.46892903173571
 30
0.0
 10
177.3925882323187
 20
98.45093504662945
 30
0.0
 10
177.199358263381
 20
98.43067493894713
 30
0.0
 10
177.0335370820617
 20
98.41008846238756
 30
0.0
 10
176.90259154801
 20
98.39173053575418
 30
0.0
 10
176.8104996687377
 20
98.37774355915279
 30
0.0
 10
176.7600368026463
 20
98.36967798153694
 30
0.0
 10
176.759138162931
 20
98.36952946500413
 30
0.0
 10
176.7587726301116
 20
98.36946905406741
 30
0.0
  0
LINE
  5
F0
330
1F
100
AcDbEntity
  8
0
  6
HIDDEN
 62
     7
370
     0
100
AcDbLine
 10
186.7545976352
 20
98.6687973998
 30
0.0
 11
186.7545976352
 21
116.6687973998
 31
0.0
  0
LINE
  5
F1
330
1F
100
AcDbEntity
  8
0
  6
HIDDEN
 62
     7
370
     0
100
AcDbLine
 10
106.2045976352
 20
99.1687973998
 30
0.0
 11
106.2045976352
 21
116.1687973998
 31
0.0
  0
LINE
  5
F2
330
1F
100
AcDbEntity
  8
0
  6
HIDDEN
 62
     7
370
     0
100
AcDbLine
 10
100.7045976352
 20
76.1846744169
 30
0.0
 11
100.7045976352
 21
81.2687973998
 31
0.0
  0
LINE
  5
F3
330
1F
100
AcDbEntity
  8
0
  6
HIDDEN
 62
     7
370
     0
100
AcDbLine
 10
108.7045976352
 20
81.2687973998
 30
0.0
 11
100.7045976352
 21
81.2687973998
 31
0.0
  0
LINE
  5
F4
330
1F
100
AcDbEntity
  8
0
  6
HIDDEN
 62
     7
370
     0
100
AcDbLine
 10
121.7045976352
 20
81.2687973998
 30
0.0
 11
115.5669228329
 21
81.2687973998
 31
0.0
  0
LINE
  5
F5
330
1F
100
AcDbEntity
  8
0
  6
HIDDEN
 62
     7
370
     0
100
AcDbLine
 10
111.9422724376
 20
81.2687973998
 30
0.0
 11
108.7045976352
 21
81.2687973998
 31
0.0
  0
LINE
  5
F6
330
1F
100
AcDbEntity
  8
0
  6
HIDDEN
 62
     7
370
     0
100
AcDbLine
 10
108.7045976352
 20
134.0687973998
 30
0.0
 11
100.7045976352
 21
134.0687973998
 31
0.0
  0
LINE
  5
F7
330
1F
100
AcDbEntity
  8
0
  6
HIDDEN
 62
     7
370
     0
100
AcDbLine
 10
121.7045976352
 20
134.0687973998
 30
0.0
 11
115.2703001035
 21
134.0687973998
 31
0.0
  0
LINE
  5
F8
330
1F
100
AcDbEntity
  8
0
  6
HIDDEN
 62
     7
370
     0
100
AcDbLine
 10
112.2388951669
 20
134.0687973998
 30
0.0
 11
108.7045976352
 21
134.0687973998
 31
0.0
  0
SPLINE
  5
F9
330
1F
100
AcDbEntity
  8
0
  6
HIDDEN
 62
     7
370
     0
100
AcDbSpline
210
0.0
220
0.0
230
1.0
 70
     8
 71
     3
 72
    11
 73
     7
 74
     0
 42
0.00000001
 43
0.00000001
 40
0.0
 40
0.0
 40
0.0
 40
0.0
 40
0.0008203708524183
 40
0.0008203708524183
 40
0.0008203708524183
 40
0.0016409967870154
 40
0.0016409967870154
 40
0.0016409967870154
 40
0.0016409967870154
 10
65.00459763521955
 20
91.81676464914078
 30
0.0
 10
64.8134393349209
 20
91.77558562052164
 30
0.0
 10
64.6220122648487
 20
91.73683164829164
 30
0.0
 10
64.43036664132806
 20
91.7004638890131
 30
0.0
 10
64.23866123624761
 20
91.66408478524707
 30
0.0
 10
64.04672228418868
 20
91.6300905344795
 30
0.0
 10
63.85459763711787
 20
91.59844240908829
 30
0.0
  0
ELLIPSE
  5
FA
330
1F
100
AcDbEntity
  8
0
  6
HIDDEN
 62
     7
370
     0
100
AcDbEllipse
 10
59.6121657666
 20
107.6687973998
 30
0.0
 11
20.19992453366649
 21
-1.421085471520200E-14
 31
0.0
210
0.0
220
0.0
230
1.0
 40
0.8164965809
 41
1.300566354717995
 42
1.359198697209599
  0
LINE
  5
FB
330
1F
100
AcDbEntity
  8
0
  6
HIDDEN
 62
     7
370
     0
100
AcDbLine
 10
65.0045976352
 20
89.6787973998
 30
0.0
 11
65.0045976352
 21
91.8167646491
 31
0.0
  0
LINE
  5
FC
330
1F
100
AcDbEntity
  8
0
  6
HIDDEN
 62
     7
370
     0
100
AcDbLine
 10
65.0856286486
 20
91.8673069638
 30
0.0
 11
65.0045976352
 21
91.8167646491
 31
0.0
  0
LINE
  5
FD
330
1F
100
AcDbEntity
  8
0
  6
HIDDEN
 62
     7
370
     0
100
AcDbLine
 10
73.9545976352
 20
89.6787973998
 30
0.0
 11
73.9545976352
 21
91.3812837774
 31
0.0
  0
LINE
  5
FE
330
1F
100
AcDbEntity
  8
0
  6
HIDDEN
 62
     7
370
     0
100
AcDbLine
 10
69.9545976352
 20
125.6587973998
 30
0.0
 11
69.9545976352
 21
123.9563110222
 31
0.0
  0
LINE
  5
FF
330
1F
100
AcDbEntity
  8
0
  6
HIDDEN
 62
     7
370
     0
100
AcDbLine
 10
65.0045976352
 20
125.6587973998
 30
0.0
 11
65.0045976352
 21
123.5634218508
 31
0.0
  0
SPLINE
  5
100
330
1F
100
AcDbEntity
  8
0
  6
HIDDEN
 62
     7
370
     0
100
AcDbSpline
210
0.0
220
0.0
230
1.0
 70
     8
 71
     3
 72
     8
 73
     4
 74
     0
 42
0.00000001
 43
0.00000001
 40
0.0
 40
0.0
 40
0.0
 40
0.0
 40
1.0
 40
1.0
 40
1.0
 40
1.0
 10
65.00459763521955
 20
123.5634218508421
 30
0.0
 10
65.05460313416329
 20
123.532386076623
 30
0.0
 10
65.1046032048277
 20
123.5013414315955
 30
0.0
 10
65.15459763861281
 20
123.4702878358152
 30
0.0
  0
LINE
  5
101
330
1F
100
AcDbEntity
  8
0
  6
HIDDEN
 62
     7
370
     0
100
AcDbLine
 10
145.7545976352
 20
102.1687973998
 30
0.0
 11
145.7545976352
 21
113.1687973998
 31
0.0
  0
LINE
  5
102
330
1F
100
AcDbEntity
  8
0
  6
HIDDEN
 62
     7
370
     0
100
AcDbLine
 10
144.9734788305
 20
103.4687973998
 30
0.0
 11
144.9734788305
 21
111.8687973998
 31
0.0
  0
SPLINE
  5
103
330
1F
100
AcDbEntity
  8
0
  6
HIDDEN
 62
     7
370
     0
100
AcDbSpline
210
0.0
220
0.0
230
1.0
 70
     8
 71
     3
 72
    20
 73
    16
 74
     0
 42
0.00000001
 43
0.00000001
 40
0.0
 40
0.0
 40
0.0
 40
0.0
 40
0.1119595197684167
 40
0.177476763464755
 40
0.2490961890179855
 40
0.3298422315094334
 40
0.3986125823882006
 40
0.4998893016461228
 40
0.6138510293005642
 40
0.6790150176761717
 40
0.7495394203320147
 40
0.8296829944178317
 40
0.8981246285223357
 40
0.9995320175861916
 40
1.0
 40
1.0
 40
1.0
 40
1.0
 10
90.50343808508242
 20
84.06880363801571
 30
0.0
 10
90.46011434678385
 20
84.08223295605275
 30
0.0
 10
90.39143812460709
 20
84.10352093500872
 30
0.0
 10
89.94625899855681
 20
84.20683174665722
 30
0.0
 10
89.41970071488694
 20
84.32013497671912
 30
0.0
 10
88.7342756937576
 20
84.44306784451172
 30
0.0
 10
87.84095829645871
 20
84.56510230369621
 30
0.0
 10
86.72759890932105
 20
84.68283861148076
 30
0.0
 10
85.61682482868548
 20
84.69481411385637
 30
0.0
 10
84.73207652678016
 20
84.66775582372503
 30
0.0
 10
84.0648799321571
 20
84.61982375931801
 30
0.0
 10
83.52360742993872
 20
84.56353024695476
 30
0.0
 10
83.13602747085353
 20
84.51844733631667
 30
0.0
 10
82.94209095077797
 20
84.47957416161451
 30
0.0
 10
83.0051934110079
 20
84.49028021885469
 30
0.0
 10
83.00548328324322
 20
84.4903293990092
 30
0.0
  0
LINE
  5
104
330
1F
100
AcDbEntity
  8
0
  6
HIDDEN
 62
     7
370
     0
100
AcDbLine
 10
83.9146095481
 20
84.6011355433
 30
0.0
 11
84.0984548607
 21
84.6193248858
 31
0.0
  0
LINE
  5
105
330
1F
100
AcDbEntity
  8
0
  6
HIDDEN
 62
     7
370
     0
100
AcDbLine
 10
84.0984521623
 20
130.7182004826
 30
0.0
 11
83.9243788818
 21
130.7354100085
 31
0.0
  0
SPLINE
  5
106
330
1F
100
AcDbEntity
  8
0
  6
HIDDEN
 62
     7
370
     0
100
AcDbSpline
210
0.0
220
0.0
230
1.0
 70
     8
 71
     3
 72
    20
 73
    16
 74
     0
 42
0.00000001
 43
0.00000001
 40
0.0
 40
0.0
 40
0.0
 40
0.0
 40
0.0004889684280515
 40
0.1018319933920969
 40
0.1702475582146014
 40
0.2503692056770022
 40
0.3209568221778694
 40
0.3861816196697952
 40
0.5002554836816518
 40
0.6012243489253606
 40
0.6697680558604869
 40
0.7502401907580438
 40
0.8220490693851532
 40
0.8877204546109767
 40
1.0
 40
1.0
 40
1.0
 40
1.0
 10
83.00551666800466
 20
130.847198853976
 30
0.0
 10
83.00521302700776
 20
130.8472504411262
 30
0.0
 10
82.94197710784543
 20
130.8579939207388
 30
0.0
 10
83.13518114163473
 20
130.8191379300761
 30
0.0
 10
83.52212819654208
 20
130.7741144396737
 30
0.0
 10
84.06313511986511
 20
130.7178514775838
 30
0.0
 10
84.73063538132294
 20
130.669920284993
 30
0.0
 10
85.61646323267317
 20
130.6428468292662
 30
0.0
 10
86.7272698047495
 20
130.6546728328373
 30
0.0
 10
87.83934017076722
 20
130.7721219079887
 30
0.0
 10
88.73044047697084
 20
130.8938262962295
 30
0.0
 10
89.41592492780865
 20
131.0166473418086
 30
0.0
 10
89.94391282736153
 20
131.1300855934952
 30
0.0
 10
90.39129677884544
 20
131.2338261491359
 30
0.0
 10
90.46010724519644
 20
131.2552489424095
 30
0.0
 10
90.50352375250665
 20
131.2687658230541
 30
0.0
  0
LINE
  5
107
330
1F
100
AcDbEntity
  8
0
  6
HIDDEN
 62
     7
370
     0
100
AcDbLine
 10
157.7045976352
 20
127.5914471306
 30
0.0
 11
160.2045976352
 21
127.5914471306
 31
0.0
  0
LINE
  5
108
330
1F
100
AcDbEntity
  8
0
  6
HIDDEN
 62
     7
370
     0
100
AcDbLine
 10
155.2045976352
 20
127.5914471306
 30
0.0
 11
157.7045976352
 21
127.5914471306
 31
0.0
  0
LINE
  5
109
330
1F
100
AcDbEntity
  8
0
  6
HIDDEN
 62
     7
370
     0
100
AcDbLine
 10
160.2045976352
 20
87.746147669
 30
0.0
 11
155.2045976352
 21
87.746147669
 31
0.0
  0
LINE
  5
10A
330
1F
100
AcDbEntity
  8
0
  6
HIDDEN
 62
     7
370
     0
100
AcDbLine
 10
157.7045976352
 20
116.1687973998
 30
0.0
 11
160.2045976352
 21
116.1687973998
 31
0.0
  0
LINE
  5
10B
330
1F
100
AcDbEntity
  8
0
  6
HIDDEN
 62
     7
370
     0
100
AcDbLine
 10
155.2045976352
 20
116.1687973998
 30
0.0
 11
157.7045976352
 21
116.1687973998
 31
0.0
  0
LINE
  5
10C
330
1F
100
AcDbEntity
  8
0
  6
HIDDEN
 62
     7
370
     0
100
AcDbLine
 10
160.2045976352
 20
99.1687973998
 30
0.0
 11
155.2045976352
 21
99.1687973998
 31
0.0
  0
SPLINE
  5
10D
330
1F
100
AcDbEntity
  8
0
  6
HIDDEN
 62
     7
370
     0
100
AcDbSpline
210
0.0
220
0.0
230
1.0
 70
     8
 71
     3
 72
    20
 73
    16
 74
     0
 42
0.00000001
 43
0.00000001
 40
0.0
 40
0.0
 40
0.0
 40
0.0
 40
0.0837700074900141
 40
0.1671642956623912
 40
0.2832392399699976
 40
0.3419682516181214
 40
0.4021695966617149
 40
0.4682656389883271
 40
0.5350318016472214
 40
0.5920958805130546
 40
0.692488959053985
 40
0.7990475557046357
 40
0.8954755043762779
 40
0.9925551802366389
 40
1.0
 40
1.0
 40
1.0
 40
1.0
 10
179.7545976352196
 20
120.7251778738826
 30
0.0
 10
179.7463518572828
 20
120.7353378462026
 30
0.0
 10
179.7298972847898
 20
120.7556122220529
 30
0.0
 10
179.5987501534482
 20
120.9213673670566
 30
0.0
 10
179.4352243465544
 20
121.1408620016566
 30
0.0
 10
179.280897778887
 20
121.3831829349214
 30
0.0
 10
179.1688540598124
 20
121.5967311881038
 30
0.0
 10
179.082980355396
 20
121.8489894008476
 30
0.0
 10
179.0785219493157
 20
122.121399335638
 30
0.0
 10
179.1695602131362
 20
122.4184858776396
 30
0.0
 10
179.344858387197
 20
122.7134861446494
 30
0.0
 10
179.5522451109244
 20
122.9864358847815
 30
0.0
 10
179.70140037456
 20
123.1656146545652
 30
0.0
 10
179.767144369203
 20
123.2417495931258
 30
0.0
 10
179.7524267256411
 20
123.2245733787056
 30
0.0
 10
179.7513784526693
 20
123.2233499925528
 30
0.0
  0
SPLINE
  5
10E
330
1F
100
AcDbEntity
  8
0
  6
HIDDEN
 62
     7
370
     0
100
AcDbSpline
210
0.0
220
0.0
230
1.0
 70
     8
 71
     3
 72
     9
 73
     5
 74
     0
 42
0.00000001
 43
0.00000001
 40
0.0
 40
0.0
 40
0.0
 40
0.0
 40
0.7277434543772584
 40
1.0
 40
1.0
 40
1.0
 40
1.0
 10
176.7641902256111
 20
123.212123091547
 30
0.0
 10
176.7674830882583
 20
123.2117473192449
 30
0.0
 10
176.77200784575
 20
123.2112309665387
 30
0.0
 10
176.8234792530528
 20
123.2345145062225
 30
0.0
 10
176.8374926806034
 20
123.2408536023067
 30
0.0
  0
SPLINE
  5
10F
330
1F
100
AcDbEntity
  8
0
  6
HIDDEN
 62
     7
370
     0
100
AcDbSpline
210
0.0
220
0.0
230
1.0
 70
     8
 71
     3
 72
    18
 73
    14
 74
     0
 42
0.00000001
 43
0.00000001
 40
0.0
 40
0.0
 40
0.0
 40
0.0
 40
0.0515453819249122
 40
0.1416915078119643
 40
0.2391516983527555
 40
0.3558391244881673
 40
0.4675642173199681
 40
0.538454575104486
 40
0.6098185345910091
 40
0.6961678669739358
 40
0.835391662231271
 40
0.9794688505622178
 40
1.0
 40
1.0
 40
1.0
 40
1.0
 10
176.7648942101303
 20
120.8550283480776
 30
0.0
 10
176.7632108769144
 20
120.8530629030464
 30
0.0
 10
176.7585836142461
 20
120.847660151925
 30
0.0
 10
176.836154776944
 20
120.9381847415597
 30
0.0
 10
176.9792927311423
 20
121.1121511613203
 30
0.0
 10
177.1743557015209
 20
121.3720754937776
 30
0.0
 10
177.3475643131541
 20
121.6673910437322
 30
0.0
 10
177.4335033223409
 20
121.9659852124596
 30
0.0
 10
177.4210900243207
 20
122.2522404022028
 30
0.0
 10
177.2948158687776
 20
122.5879337216646
 30
0.0
 10
177.0743963071826
 20
122.9317381716643
 30
0.0
 10
176.9084184663652
 20
123.150310223735
 30
0.0
 10
176.845358036225
 20
123.2308127424982
 30
0.0
 10
176.8374926806034
 20
123.2408536023067
 30
0.0
  0
LINE
  5
110
330
1F
100
AcDbEntity
  8
0
  6
HIDDEN
 62
     7
370
     0
100
AcDbLine
 10
179.7545976352
 20
124.1687973998
 30
0.0
 11
176.7545976352
 21
124.1687973998
 31
0.0
  0
LWPOLYLINE
  5
111
330
1F
100
AcDbEntity
  8
0
  6
HIDDEN
 62
     7
370
     0
100
AcDbPolyline
 90
       15
 70
   128
 43
0.0
 10
179.7513784527
 20
92.114244807
 10
179.7221805707
 20
92.1483359061
 10
179.6254761105
 20
92.2638374707
 10
179.4250386517
 20
92.521772159
 10
179.2052855242
 20
92.8744224421
 10
179.1082621666
 20
93.1328171447
 10
179.0845602834
 20
93.3717335071
 10
179.1265332474
 20
93.6067462226
 10
179.2772477174
 20
93.9417518724
 10
179.4025808917
 20
94.1421899245
 10
179.5283797548
 20
94.320275204
 10
179.6799974064
 20
94.518840204
 10
179.7475079636
 20
94.6036152878
 10
179.7545976352
 20
94.6124169257
 10
179.7545976352
 20
94.6124169257
  0
LINE
  5
112
330
1F
100
AcDbEntity
  8
0
  6
HIDDEN
 62
     7
370
     0
100
AcDbLine
 10
178.2545976352
 20
91.6687973998
 30
0.0
 11
179.7545976352
 21
91.6687973998
 31
0.0
  0
LINE
  5
113
330
1F
100
AcDbEntity
  8
0
  6
HIDDEN
 62
     7
370
     0
100
AcDbLine
 10
176.7545976352
 20
91.6687973998
 30
0.0
 11
178.2545976352
 21
91.6687973998
 31
0.0
  0
SPLINE
  5
114
330
1F
100
AcDbEntity
  8
0
  6
HIDDEN
 62
     7
370
     0
100
AcDbSpline
210
0.0
220
0.0
230
1.0
 70
     8
 71
     3
 72
     9
 73
     5
 74
     0
 42
0.00000001
 43
0.00000001
 40
0.0
 40
0.0
 40
0.0
 40
0.0
 40
0.8426281597190538
 40
1.0
 40
1.0
 40
1.0
 40
1.0
 10
176.8374926806034
 20
92.09674119726024
 30
0.0
 10
176.7935735080035
 20
92.11338908153729
 30
0.0
 10
176.741451854943
 20
92.13314617615258
 30
0.0
 10
176.7610984109388
 20
92.1265152319172
 30
0.0
 10
176.7641902256111
 20
92.12547170802007
 30
0.0
  0
SPLINE
  5
115
330
1F
100
AcDbEntity
  8
0
  6
HIDDEN
 62
     7
370
     0
100
AcDbSpline
210
0.0
220
0.0
230
1.0
 70
     8
 71
     3
 72
    17
 73
    13
 74
     0
 42
0.00000001
 43
0.00000001
 40
0.0
 40
0.0
 40
0.0
 40
0.0
 40
0.1271062320542052
 40
0.2533275283184291
 40
0.3533701066891637
 40
0.4234657853460577
 40
0.4939500853902474
 40
0.5830110810836369
 40
0.7201916321429189
 40
0.859852342066377
 40
0.9555602916740051
 40
0.9999999999999999
 40
0.9999999999999999
 40
0.9999999999999999
 40
0.9999999999999999
 10
176.8374926806034
 20
92.09674119726033
 30
0.0
 10
176.8941902950662
 20
92.16971816456213
 30
0.0
 10
177.0071907852962
 20
92.31516402077206
 30
0.0
 10
177.2217088883897
 20
92.6284217316603
 30
0.0
 10
177.3758788203882
 20
92.9367917294476
 30
0.0
 10
177.4385364270345
 20
93.22716529213963
 30
0.0
 10
177.4059810133431
 20
93.51207459752379
 30
0.0
 10
177.2624041960561
 20
93.8347698965083
 30
0.0
 10
177.034660836868
 20
94.15778967545015
 30
0.0
 10
176.8449130416488
 20
94.38937807314727
 30
0.0
 10
176.7557476453707
 20
94.4932202162958
 30
0.0
 10
176.762692159804
 20
94.4851313626757
 30
0.0
 10
176.7648942101303
 20
94.48256645148939
 30
0.0
  0
LINE
  5
116
330
1F
100
AcDbEntity
  8
0
  6
HIDDEN
 62
     7
370
     0
100
AcDbLine
 10
176.7433000897
 20
120.8434920767
 30
0.0
 11
176.8374926806
 21
123.2408536023
 31
0.0
  0
LINE
  5
117
330
1F
100
AcDbEntity
  8
0
  6
HIDDEN
 62
     7
370
     0
100
AcDbLine
 10
176.7433000897
 20
94.4941027229
 30
0.0
 11
176.8374926806
 21
92.0967411973
 31
0.0
  0
SPLINE
  5
118
330
1F
100
AcDbEntity
  8
0
  6
HIDDEN
 62
     7
370
     0
100
AcDbSpline
210
0.0
220
0.0
230
1.0
 70
     8
 71
     3
 72
     8
 73
     4
 74
     0
 42
0.00000001
 43
0.00000001
 40
0.0
 40
0.0
 40
0.0
 40
0.0
 40
0.000159097695343
 40
0.000159097695343
 40
0.000159097695343
 40
0.000159097695343
 10
65.13976564443757
 20
91.86730696375186
 30
0.0
 10
65.09471417393323
 20
91.83932807942807
 30
0.0
 10
65.04965813551843
 20
91.811356549053
 30
0.0
 10
65.00459763521955
 20
91.78339220970048
 30
0.0
  0
SPLINE
  5
119
330
1F
100
AcDbEntity
  8
0
  6
HIDDEN
 62
     7
370
     0
100
AcDbSpline
210
0.0
220
0.0
230
1.0
 70
     8
 71
     3
 72
    11
 73
     7
 74
     0
 42
0.00000001
 43
0.00000001
 40
0.0
 40
0.0
 40
0.0
 40
0.0
 40
0.0008212909311457
 40
0.0008212909311457
 40
0.0008212909311457
 40
0.001642825724306
 40
0.001642825724306
 40
0.001642825724306
 40
0.001642825724306
 10
65.00459763521955
 20
91.78339220970048
 30
0.0
 10
64.81345261373735
 20
91.74010602084793
 30
0.0
 10
64.6220342780609
 20
91.69916951121066
 30
0.0
 10
64.43038820339974
 20
91.66056773982406
 30
0.0
 10
64.23868512185814
 20
91.62195448598698
 30
0.0
 10
64.04673999857263
 20
91.58567427670097
 30
0.0
 10
63.85459763521945
 20
91.55170737034946
 30
0.0
  0
LINE
  5
11A
330
1F
100
AcDbEntity
  8
0
  6
HIDDEN
 62
     7
370
     0
100
AcDbLine
 10
111.8445976352
 20
127.8046640312
 30
0.0
 11
111.8445976352
 21
127.5187973998
 31
0.0
  0
LINE
  5
11B
330
1F
100
AcDbEntity
  8
0
  6
HIDDEN
 62
     7
370
     0
100
AcDbLine
 10
115.6645976352
 20
127.8128720678
 30
0.0
 11
115.6645976352
 21
127.5187973998
 31
0.0
  0
LINE
  5
11C
330
1F
100
AcDbEntity
  8
0
  6
HIDDEN
 62
     7
370
     0
100
AcDbLine
 10
117.1465304667
 20
132.1274870622
 30
0.0
 11
117.1465304667
 21
127.5187973998
 31
0.0
  0
SPLINE
  5
11D
330
1F
100
AcDbEntity
  8
0
  6
HIDDEN
 62
     7
370
     0
100
AcDbSpline
210
0.0
220
0.0
230
1.0
 70
     8
 71
     3
 72
    24
 73
    20
 74
     0
 42
0.00000001
 43
0.00000001
 40
0.0
 40
0.0
 40
0.0
 40
0.0
 40
0.2499999999999937
 40
0.2499999999999937
 40
0.3749999999999912
 40
0.3749999999999912
 40
0.4374999999999901
 40
0.4374999999999901
 40
0.4687499999999891
 40
0.4687499999999891
 40
0.4999999999999881
 40
0.4999999999999881
 40
0.5624999999999888
 40
0.5624999999999888
 40
0.6249999999999893
 40
0.6249999999999893
 40
0.749999999999992
 40
0.749999999999992
 40
1.0
 40
1.0
 40
1.0
 40
1.0
 10
63.91726100994297
 20
87.99424485500276
 30
0.0
 10
63.93101412861319
 20
88.06489491299304
 30
0.0
 10
63.94878669601906
 20
88.13149302575798
 30
0.0
 10
64.0010377875744
 20
88.20559104599117
 30
0.0
 10
64.02207286315597
 20
88.22684885315273
 30
0.0
 10
64.0749732707844
 20
88.23499477929897
 30
0.0
 10
64.09607894366232
 20
88.23405497590319
 30
0.0
 10
64.14213111234028
 20
88.21303898432585
 30
0.0
 10
64.16050158432365
 20
88.20213017821824
 30
0.0
 10
64.20205321938936
 20
88.16949526727088
 30
0.0
 10
64.22461989214628
 20
88.14800328689951
 30
0.0
 10
64.28740090860633
 20
88.0795373433132
 30
0.0
 10
64.32053066957417
 20
88.03346288510812
 30
0.0
 10
64.3774483560592
 20
87.94845499677344
 30
0.0
 10
64.40163438156299
 20
87.90817469559207
 30
0.0
 10
64.46684233194273
 20
87.79323846912612
 30
0.0
 10
64.50155839213399
 20
87.7226554839791
 30
0.0
 10
64.59477366246487
 20
87.51844972490049
 30
0.0
 10
64.64044619782555
 20
87.39555134257313
 30
0.0
 10
64.6787512813241
 20
87.27867806618555
 30
0.0
  0
SPLINE
  5
11E
330
1F
100
AcDbEntity
  8
0
  6
HIDDEN
 62
     7
370
     0
100
AcDbSpline
210
0.0
220
0.0
230
1.0
 70
     8
 71
     3
 72
    11
 73
     7
 74
     0
 42
0.00000001
 43
0.00000001
 40
0.0
 40
0.0
 40
0.0
 40
0.0
 40
0.0005781862223978
 40
0.0005781862223978
 40
0.0005781862223978
 40
0.0011563724723928
 40
0.0011563724723928
 40
0.0011563724723928
 40
0.0011563724723928
 10
64.85459763521956
 20
120.3089397068302
 30
0.0
 10
64.68793708094395
 20
120.3734692182438
 30
0.0
 10
64.52127378403746
 20
120.4379719220876
 30
0.0
 10
64.35460720020724
 20
120.5024583705213
 30
0.0
 10
64.18794060794814
 20
120.5669448222162
 30
0.0
 10
64.02127074232224
 20
120.6314148309444
 30
0.0
 10
63.8545976352195
 20
120.695870597677
 30
0.0
  0
SPLINE
  5
11F
330
1F
100
AcDbEntity
  8
0
  6
HIDDEN
 62
     7
370
     0
100
AcDbSpline
210
0.0
220
0.0
230
1.0
 70
     8
 71
     3
 72
    11
 73
     7
 74
     0
 42
0.00000001
 43
0.00000001
 40
0.0
 40
0.0
 40
0.0
 40
0.0
 40
0.0005778746105108
 40
0.0005778746105108
 40
0.0005778746105108
 40
0.0011557494857226
 40
0.0011557494857226
 40
0.0011557494857226
 40
0.0011557494857226
 10
63.85459763521953
 20
94.6415755442936
 30
0.0
 10
64.02126451163286
 20
94.70738767098746
 30
0.0
 10
64.18793123119431
 20
94.7732461511251
 30
0.0
 10
64.35459787924297
 20
94.83915372405572
 30
0.0
 10
64.52126460376164
 20
94.90506132722606
 30
0.0
 10
64.68793129818222
 20
94.97101843561457
 30
0.0
 10
64.85459763521956
 20
95.03702017553728
 30
0.0
  0
SPLINE
  5
120
330
1F
100
AcDbEntity
  8
0
  6
HIDDEN
 62
     7
370
     0
100
AcDbSpline
210
0.0
220
0.0
230
1.0
 70
     8
 71
     3
 72
    11
 73
     7
 74
     0
 42
0.00000001
 43
0.00000001
 40
0.0000000000000006
 40
0.0000000000000006
 40
0.0000000000000006
 40
0.0000000000000006
 40
0.0005780486062768
 40
0.0005780486062768
 40
0.0005780486062768
 40
0.0011560973514127
 40
0.0011560973514127
 40
0.0011560973514127
 40
0.0011560973514127
 10
63.85459763521953
 20
117.6496119014752
 30
0.0
 10
64.02126749126444
 20
117.5872400399607
 30
0.0
 10
64.18793519534871
 20
117.524886179663
 30
0.0
 10
64.35460149980236
 20
117.462566619477
 30
0.0
 10
64.5212678404961
 20
117.4002470457401
 30
0.0
 10
64.68793279712487
 20
117.3379618414205
 30
0.0
 10
64.85459763521955
 20
117.2757367208518
 30
0.0
  0
SPLINE
  5
121
330
1F
100
AcDbEntity
  8
0
  6
HIDDEN
 62
     7
370
     0
100
AcDbSpline
210
0.0
220
0.0
230
1.0
 70
     8
 71
     3
 72
    11
 73
     7
 74
     0
 42
0.00000001
 43
0.00000001
 40
0.0
 40
0.0
 40
0.0
 40
0.0
 40
0.0005782401583533
 40
0.0005782401583533
 40
0.0005782401583533
 40
0.0011564805960992
 40
0.0011564805960992
 40
0.0011564805960992
 40
0.0011564805960992
 10
64.85459763521956
 20
98.06797060738586
 30
0.0
 10
64.68794668487064
 20
98.00454514932507
 30
0.0
 10
64.52128709228799
 20
97.9411896256698
 30
0.0
 10
64.35462003985944
 20
97.87789204131981
 30
0.0
 10
64.18795290329562
 20
97.81459442501655
 30
0.0
 10
64.02127829584956
 20
97.75135463007584
 30
0.0
 10
63.85459763521948
 20
97.688154623437
 30
0.0
  0
CIRCLE
  5
122
330
1F
100
AcDbEntity
  8
0
  6
HIDDEN
 62
     7
370
     0
100
AcDbCircle
 10
102.7545976352
 20
107.6687973998
 30
0.0
 40
5.000000000000014
  0
LINE
  5
123
330
1F
100
AcDbEntity
  8
0
  6
HIDDEN
 62
     7
370
     0
100
AcDbLine
 10
225.563330878
 20
96.6624398463
 30
0.0
 11
225.6811103252
 21
93.6647527376
 31
0.0
  0
LINE
  5
124
330
1F
100
AcDbEntity
  8
0
  6
HIDDEN
 62
     7
370
     0
100
AcDbLine
 10
220.2293930741
 20
96.4528688592
 30
0.0
 11
220.3471725214
 21
93.4551817505
 31
0.0
  0
LINE
  5
125
330
1F
100
AcDbEntity
  8
0
  6
HIDDEN
 62
     7
370
     0
100
AcDbLine
 10
219.7494084638
 20
95.9336244332
 30
0.0
 11
219.8279280954
 21
93.9351663608
 31
0.0
  0
LINE
  5
126
330
1F
100
AcDbEntity
  8
0
  6
HIDDEN
 62
     7
370
     0
100
AcDbLine
 10
225.7361651517
 20
96.3885141013
 30
0.0
 11
225.7545976352
 21
95.9193760687
 31
0.0
  0
LINE
  5
127
330
1F
100
AcDbEntity
  8
0
  6
HIDDEN
 62
     7
370
     0
100
AcDbLine
 10
223.7855844246
 20
95.09143466
 30
0.0
 11
223.7561395627
 21
95.8408564372
 31
0.0
  0
LINE
  5
128
330
1F
100
AcDbEntity
  8
0
  6
HIDDEN
 62
     7
370
     0
100
AcDbLine
 10
223.8150292864
 20
94.3420128829
 30
0.0
 11
223.7855844246
 21
95.09143466
 31
0.0
  0
LINE
  5
129
330
1F
100
AcDbEntity
  8
0
  6
HIDDEN
 62
     7
370
     0
100
AcDbLine
 10
223.7855844246
 20
95.09143466
 30
0.0
 11
225.784042497
 21
95.1699542916
 31
0.0
  0
LINE
  5
12A
330
1F
100
AcDbEntity
  8
0
  6
HIDDEN
 62
     7
370
     0
100
AcDbLine
 10
223.7561395627
 20
95.8408564372
 30
0.0
 11
225.7545976352
 21
95.9193760687
 31
0.0
  0
LINE
  5
12B
330
1F
100
AcDbEntity
  8
0
  6
HIDDEN
 62
     7
370
     0
100
AcDbLine
 10
223.8150292864
 20
94.3420128829
 30
0.0
 11
225.8134873589
 21
94.4205325144
 31
0.0
  0
LINE
  5
12C
330
1F
100
AcDbEntity
  8
0
  6
HIDDEN
 62
     7
370
     0
100
AcDbLine
 10
225.7545976352
 20
120.9193760687
 30
0.0
 11
225.6772754281
 21
118.9513944819
 31
0.0
  0
LINE
  5
12D
330
1F
100
AcDbEntity
  8
0
  6
HIDDEN
 62
     7
370
     0
100
AcDbLine
 10
225.6143308747
 20
121.4743488855
 30
0.0
 11
225.5044411543
 21
118.6774687368
 31
0.0
  0
LINE
  5
12E
330
1F
100
AcDbEntity
  8
0
  6
HIDDEN
 62
     7
370
     0
100
AcDbLine
 10
225.6222206016
 20
121.6751558455
 30
0.0
 11
225.6143308747
 21
121.4743488855
 31
0.0
  0
LINE
  5
12F
330
1F
100
AcDbEntity
  8
0
  6
HIDDEN
 62
     7
370
     0
100
AcDbLine
 10
220.2803930708
 20
121.6839198726
 30
0.0
 11
220.1705033504
 21
118.8870397239
 31
0.0
  0
LINE
  5
130
330
1F
100
AcDbEntity
  8
0
  6
HIDDEN
 62
     7
370
     0
100
AcDbLine
 10
220.2882827977
 20
121.8847268326
 30
0.0
 11
220.2803930708
 21
121.6839198726
 31
0.0
  0
LINE
  5
131
330
1F
100
AcDbEntity
  8
0
  6
HIDDEN
 62
     7
370
     0
100
AcDbLine
 10
219.7637785538
 20
121.2708709157
 30
0.0
 11
219.6905187402
 21
119.4062841499
 31
0.0
  0
LINE
  5
132
330
1F
100
AcDbEntity
  8
0
  6
HIDDEN
 62
     7
370
     0
100
AcDbLine
 10
219.7690383717
 20
121.4047422224
 30
0.0
 11
219.7637785538
 21
121.2708709157
 31
0.0
  0
LINE
  5
133
330
1F
100
AcDbEntity
  8
0
  6
HIDDEN
 62
     7
370
     0
100
AcDbLine
 10
223.7266947009
 20
120.2484739231
 30
0.0
 11
223.7561395627
 21
120.9978957003
 31
0.0
  0
LINE
  5
134
330
1F
100
AcDbEntity
  8
0
  6
HIDDEN
 62
     7
370
     0
100
AcDbLine
 10
223.7266947009
 20
120.2484739231
 30
0.0
 11
225.7251527734
 21
120.1699542916
 31
0.0
  0
LINE
  5
135
330
1F
100
AcDbEntity
  8
0
  6
HIDDEN
 62
     7
370
     0
100
AcDbLine
 10
223.7266947009
 20
120.2484739231
 30
0.0
 11
223.6972498391
 21
119.4990521459
 31
0.0
  0
LINE
  5
136
330
1F
100
AcDbEntity
  8
0
  6
HIDDEN
 62
     7
370
     0
100
AcDbLine
 10
223.6972498391
 20
119.4990521459
 30
0.0
 11
225.6957079116
 21
119.4205325144
 31
0.0
  0
LINE
  5
137
330
1F
100
AcDbEntity
  8
0
  6
HIDDEN
 62
     7
370
     0
100
AcDbLine
 10
223.7561395627
 20
120.9978957003
 30
0.0
 11
225.7545976352
 21
120.9193760687
 31
0.0
  0
LINE
  5
138
330
1F
100
AcDbEntity
  8
0
  6
HIDDEN
 62
     7
370
     0
100
AcDbLine
 10
175.7545976352
 20
101.6687973998
 30
0.0
 11
175.7545976352
 21
113.6687973998
 31
0.0
  0
LINE
  5
139
330
1F
100
AcDbEntity
  8
0
  6
HIDDEN
 62
     7
370
     0
100
AcDbLine
 10
160.7545976352
 20
101.6687973998
 30
0.0
 11
160.7545976352
 21
113.6687973998
 31
0.0
  0
LINE
  5
13A
330
1F
100
AcDbEntity
  8
0
  6
HIDDEN
 62
     7
370
     0
100
AcDbLine
 10
160.2545976352
 20
102.1687973998
 30
0.0
 11
160.2545976352
 21
113.1687973998
 31
0.0
  0
LINE
  5
13B
330
1F
100
AcDbEntity
  8
0
  6
HIDDEN
 62
     7
370
     0
100
AcDbLine
 10
180.2545976352
 20
105.3801121433
 30
0.0
 11
178.2545976352
 21
105.3801121433
 31
0.0
  0
LINE
  5
13C
330
1F
100
AcDbEntity
  8
0
  6
HIDDEN
 62
     7
370
     0
100
AcDbLine
 10
180.2545976352
 20
102.1687973998
 30
0.0
 11
180.2545976352
 21
105.3801121433
 31
0.0
  0
LINE
  5
13D
330
1F
100
AcDbEntity
  8
0
  6
HIDDEN
 62
     7
370
     0
100
AcDbLine
 10
178.2545976352
 20
106.9925060341
 30
0.0
 11
180.2545976352
 21
106.9925060341
 31
0.0
  0
LINE
  5
13E
330
1F
100
AcDbEntity
  8
0
  6
HIDDEN
 62
     7
370
     0
100
AcDbLine
 10
180.2545976352
 20
109.9574826563
 30
0.0
 11
178.2545976352
 21
109.9574826563
 31
0.0
  0
LINE
  5
13F
330
1F
100
AcDbEntity
  8
0
  6
HIDDEN
 62
     7
370
     0
100
AcDbLine
 10
180.2545976352
 20
108.3450887655
 30
0.0
 11
180.2545976352
 21
113.1687973998
 31
0.0
  0
LINE
  5
140
330
1F
100
AcDbEntity
  8
0
  6
HIDDEN
 62
     7
370
     0
100
AcDbLine
 10
178.2545976352
 20
108.3450887655
 30
0.0
 11
180.2545976352
 21
108.3450887655
 31
0.0
  0
LINE
  5
141
330
1F
100
AcDbEntity
  8
0
  6
HIDDEN
 62
     7
370
     0
100
AcDbLine
 10
178.2545976352
 20
105.3801121433
 30
0.0
 11
178.2545976352
 21
108.3450887655
 31
0.0
  0
LINE
  5
142
330
1F
100
AcDbEntity
  8
0
  6
HIDDEN
 62
     7
370
     0
100
AcDbLine
 10
178.2545976352
 20
108.7554508687
 30
0.0
 11
178.2545976352
 21
108.3450887655
 31
0.0
  0
LINE
  5
143
330
1F
100
AcDbEntity
  8
0
  6
HIDDEN
 62
     7
370
     0
100
AcDbLine
 10
178.2545976352
 20
105.7904742465
 30
0.0
 11
180.2545976352
 21
105.7904742465
 31
0.0
  0
LINE
  5
144
330
1F
100
AcDbEntity
  8
0
  6
HIDDEN
 62
     7
370
     0
100
AcDbLine
 10
180.2545976352
 20
105.7904742465
 30
0.0
 11
180.2545976352
 21
105.3801121433
 31
0.0
  0
LINE
  5
145
330
1F
100
AcDbEntity
  8
0
  6
HIDDEN
 62
     7
370
     0
100
AcDbLine
 10
180.2545976352
 20
108.7554508687
 30
0.0
 11
178.2545976352
 21
108.7554508687
 31
0.0
  0
LINE
  5
146
330
1F
100
AcDbEntity
  8
0
  6
HIDDEN
 62
     7
370
     0
100
AcDbLine
 10
173.2545976352
 20
108.7554508687
 30
0.0
 11
173.2545976352
 21
107.1410176102
 31
0.0
  0
LINE
  5
147
330
1F
100
AcDbEntity
  8
0
  6
HIDDEN
 62
     7
370
     0
100
AcDbLine
 10
167.2545976352
 20
107.1410176102
 30
0.0
 11
167.2545976352
 21
108.7554508687
 31
0.0
  0
LINE
  5
148
330
1F
100
AcDbEntity
  8
0
  6
HIDDEN
 62
     7
370
     0
100
AcDbLine
 10
167.2545976352
 20
105.7904742465
 30
0.0
 11
167.2545976352
 21
107.1410176102
 31
0.0
  0
LINE
  5
149
330
1F
100
AcDbEntity
  8
0
  6
HIDDEN
 62
     7
370
     0
100
AcDbLine
 10
167.2545976352
 20
107.1410176102
 30
0.0
 11
160.2545976352
 21
107.1410176102
 31
0.0
  0
LINE
  5
14A
330
1F
100
AcDbEntity
  8
0
  6
HIDDEN
 62
     7
370
     0
100
AcDbLine
 10
173.2545976352
 20
107.1410176102
 30
0.0
 11
173.2545976352
 21
105.7904742465
 31
0.0
  0
LINE
  5
14B
330
1F
100
AcDbEntity
  8
0
  6
HIDDEN
 62
     7
370
     0
100
AcDbLine
 10
173.2545976352
 20
107.1410176102
 30
0.0
 11
178.2545976352
 21
107.1410176102
 31
0.0
  0
LINE
  5
14C
330
1F
100
AcDbEntity
  8
0
  6
HIDDEN
 62
     7
370
     0
100
AcDbLine
 10
167.2545976352
 20
108.7554508687
 30
0.0
 11
167.2545976352
 21
110.3698841272
 31
0.0
  0
LINE
  5
14D
330
1F
100
AcDbEntity
  8
0
  6
HIDDEN
 62
     7
370
     0
100
AcDbLine
 10
173.2545976352
 20
110.3698841272
 30
0.0
 11
173.2545976352
 21
108.7554508687
 31
0.0
  0
LINE
  5
14E
330
1F
100
AcDbEntity
  8
0
  6
HIDDEN
 62
     7
370
     0
100
AcDbLine
 10
167.2545976352
 20
104.4399308828
 30
0.0
 11
167.2545976352
 21
105.7904742465
 31
0.0
  0
LINE
  5
14F
330
1F
100
AcDbEntity
  8
0
  6
HIDDEN
 62
     7
370
     0
100
AcDbLine
 10
173.2545976352
 20
105.7904742465
 30
0.0
 11
173.2545976352
 21
104.4399308828
 31
0.0
  0
LINE
  5
150
330
1F
100
AcDbEntity
  8
0
  6
HIDDEN
 62
     7
370
     0
100
AcDbLine
 10
173.2545976352
 20
110.633774022
 30
0.0
 11
173.2545976352
 21
110.3698841272
 31
0.0
  0
LINE
  5
151
330
1F
100
AcDbEntity
  8
0
  6
HIDDEN
 62
     7
370
     0
100
AcDbLine
 10
173.2545976352
 20
110.3698841272
 30
0.0
 11
180.2545976352
 21
110.3698841272
 31
0.0
  0
LINE
  5
152
330
1F
100
AcDbEntity
  8
0
  6
HIDDEN
 62
     7
370
     0
100
AcDbLine
 10
167.2545976352
 20
110.3698841272
 30
0.0
 11
167.2545976352
 21
110.633774022
 31
0.0
  0
LINE
  5
153
330
1F
100
AcDbEntity
  8
0
  6
HIDDEN
 62
     7
370
     0
100
AcDbLine
 10
167.2545976352
 20
110.3698841272
 30
0.0
 11
160.2545976352
 21
110.3698841272
 31
0.0
  0
LINE
  5
154
330
1F
100
AcDbEntity
  8
0
  6
HIDDEN
 62
     7
370
     0
100
AcDbLine
 10
167.2545976352
 20
104.9677106724
 30
0.0
 11
160.2545976352
 21
104.9677106724
 31
0.0
  0
LINE
  5
155
330
1F
100
AcDbEntity
  8
0
  6
HIDDEN
 62
     7
370
     0
100
AcDbLine
 10
167.2545976352
 20
104.4399308828
 30
0.0
 11
160.2545976352
 21
104.4399308828
 31
0.0
  0
LINE
  5
156
330
1F
100
AcDbEntity
  8
0
  6
HIDDEN
 62
     7
370
     0
100
AcDbLine
 10
173.2545976352
 20
104.9677106724
 30
0.0
 11
180.2545976352
 21
104.9677106724
 31
0.0
  0
LINE
  5
157
330
1F
100
AcDbEntity
  8
0
  6
HIDDEN
 62
     7
370
     0
100
AcDbLine
 10
173.2545976352
 20
104.4399308828
 30
0.0
 11
180.2545976352
 21
104.4399308828
 31
0.0
  0
LINE
  5
158
330
1F
100
AcDbEntity
  8
0
  6
HIDDEN
 62
     7
370
     0
100
AcDbLine
 10
167.2545976352
 20
110.633774022
 30
0.0
 11
167.2545976352
 21
110.8976639168
 31
0.0
  0
LINE
  5
159
330
1F
100
AcDbEntity
  8
0
  6
HIDDEN
 62
     7
370
     0
100
AcDbLine
 10
173.2545976352
 20
110.8976639168
 30
0.0
 11
173.2545976352
 21
110.633774022
 31
0.0
  0
LINE
  5
15A
330
1F
100
AcDbEntity
  8
0
  6
HIDDEN
 62
     7
370
     0
100
AcDbLine
 10
178.2545976352
 20
109.5471205531
 30
0.0
 11
180.2545976352
 21
109.5471205531
 31
0.0
  0
LINE
  5
15B
330
1F
100
AcDbEntity
  8
0
  6
HIDDEN
 62
     7
370
     0
100
AcDbLine
 10
178.2545976352
 20
108.7554508687
 30
0.0
 11
178.2545976352
 21
109.5471205531
 31
0.0
  0
LINE
  5
15C
330
1F
100
AcDbEntity
  8
0
  6
HIDDEN
 62
     7
370
     0
100
AcDbLine
 10
173.2545976352
 20
108.1965771894
 30
0.0
 11
178.2545976352
 21
108.1965771894
 31
0.0
  0
LINE
  5
15D
330
1F
100
AcDbEntity
  8
0
  6
HIDDEN
 62
     7
370
     0
100
AcDbLine
 10
173.2545976352
 20
110.8976639168
 30
0.0
 11
180.2545976352
 21
110.8976639168
 31
0.0
  0
LINE
  5
15E
330
1F
100
AcDbEntity
  8
0
  6
HIDDEN
 62
     7
370
     0
100
AcDbLine
 10
167.2545976352
 20
108.1965771894
 30
0.0
 11
160.2545976352
 21
108.1965771894
 31
0.0
  0
LINE
  5
15F
330
1F
100
AcDbEntity
  8
0
  6
HIDDEN
 62
     7
370
     0
100
AcDbLine
 10
167.2545976352
 20
110.8976639168
 30
0.0
 11
160.2545976352
 21
110.8976639168
 31
0.0
  0
LINE
  5
160
330
1F
100
AcDbEntity
  8
0
  6
HIDDEN
 62
     7
370
     0
100
AcDbLine
 10
180.2545976352
 20
106.5821439309
 30
0.0
 11
178.2545976352
 21
106.5821439309
 31
0.0
  0
LINE
  5
161
330
1F
100
AcDbEntity
  8
0
  6
HIDDEN
 62
     7
370
     0
100
AcDbLine
 10
180.2545976352
 20
106.5821439309
 30
0.0
 11
180.2545976352
 21
105.7904742465
 31
0.0
  0
LINE
  5
162
330
1F
100
AcDbEntity
  8
0
  6
HIDDEN
 62
     7
370
     0
100
AcDbLine
 10
178.2545976352
 20
109.9574826563
 30
0.0
 11
178.2545976352
 21
109.5471205531
 31
0.0
  0
LINE
  5
163
330
1F
100
AcDbEntity
  8
0
  6
HIDDEN
 62
     7
370
     0
100
AcDbLine
 10
180.2545976352
 20
106.9925060341
 30
0.0
 11
180.2545976352
 21
106.5821439309
 31
0.0
  0
LINE
  5
164
330
1F
100
AcDbEntity
  8
0
  6
HIDDEN
 62
     7
370
     0
100
AcDbLine
 10
99.7545976352
 20
121.9694625038
 30
0.0
 11
99.7545976352
 21
120.0627380427
 31
0.0
  0
LINE
  5
165
330
1F
100
AcDbEntity
  8
0
  6
HIDDEN
 62
     7
370
     0
100
AcDbLine
 10
107.7545976352
 20
120.0627380427
 30
0.0
 11
107.7545976352
 21
121.9687418599
 31
0.0
  0
LINE
  5
166
330
1F
100
AcDbEntity
  8
0
  6
HIDDEN
 62
     7
370
     0
100
AcDbLine
 10
95.7545976352
 20
82.3448662538
 30
0.0
 11
95.8487584107
 21
83.014854985
 31
0.0
  0
LINE
  5
167
330
1F
100
AcDbEntity
  8
0
  6
HIDDEN
 62
     7
370
     0
100
AcDbLine
 10
95.8487584107
 20
132.3227398145
 30
0.0
 11
95.7545976352
 21
132.9927285458
 31
0.0
  0
ARC
  5
168
330
1F
100
AcDbEntity
  8
0
  6
HIDDEN
 62
     7
370
     0
100
AcDbCircle
 10
95.2545908826
 20
83.0983597854
 30
0.0
 40
0.6000067526677242
100
AcDbArc
 50
352.0
 51
0.0
  0
ARC
  5
169
330
1F
100
AcDbEntity
  8
0
  6
HIDDEN
 62
     7
370
     0
100
AcDbCircle
 10
95.2545908826
 20
83.0983597854
 30
0.0
 40
0.6000067526677242
100
AcDbArc
 50
0.0
 51
33.5571153394
  0
ARC
  5
16A
330
1F
100
AcDbEntity
  8
0
  6
HIDDEN
 62
     7
370
     0
100
AcDbCircle
 10
95.2545908826
 20
132.2392350142
 30
0.0
 40
0.6000067526677308
100
AcDbArc
 50
348.75
 51
8.0
  0
LWPOLYLINE
  5
16B
330
1F
100
AcDbEntity
  8
0
  6
HIDDEN
 62
     7
370
     0
100
AcDbPolyline
 90
        3
 70
   128
 43
0.0
 10
95.8430686737
 20
132.1221795036
 10
95.8089248407
 20
132.0096223706
 10
95.7545976352
 20
131.9075704991
  0
LINE
  5
16C
330
1F
100
AcDbEntity
  8
0
  6
HIDDEN
 62
     7
370
     0
100
AcDbLine
 10
95.8545976352
 20
83.0983597854
 30
0.0
 11
95.8545976352
 21
132.2392350142
 31
0.0
  0
ARC
  5
16D
330
1F
100
AcDbEntity
  8
0
  6
HIDDEN
 62
     7
370
     0
100
AcDbCircle
 10
78.8370332005
 20
88.2687973998
 30
0.0
 40
0.6000000000000085
100
AcDbArc
 50
210.0
 51
270.0
  0
ARC
  5
16E
330
1F
100
AcDbEntity
  8
0
  6
HIDDEN
 62
     7
370
     0
100
AcDbCircle
 10
78.8370332005
 20
127.0687973998
 30
0.0
 40
0.5999999999999962
100
AcDbArc
 50
90.0
 51
150.0
  0
LINE
  5
16F
330
1F
100
AcDbEntity
  8
0
  6
HIDDEN
 62
     7
370
     0
100
AcDbLine
 10
78.8370332005
 20
87.6687973998
 30
0.0
 11
83.0077150164
 21
87.6687973998
 31
0.0
  0
LINE
  5
170
330
1F
100
AcDbEntity
  8
0
  6
HIDDEN
 62
     7
370
     0
100
AcDbLine
 10
83.0077150164
 20
127.6687973998
 30
0.0
 11
78.8370332005
 21
127.6687973998
 31
0.0
  0
ARC
  5
171
330
1F
100
AcDbEntity
  8
0
  6
HIDDEN
 62
     7
370
     0
100
AcDbCircle
 10
89.5095996368
 20
95.6687973998
 30
0.0
 40
8.000000000000016
100
AcDbArc
 50
277.1438661295
 51
321.3178125465
  0
ARC
  5
172
330
1F
100
AcDbEntity
  8
0
  6
HIDDEN
 62
     7
370
     0
100
AcDbCircle
 10
89.5095996368
 20
119.6687973998
 30
0.0
 40
8.000000000000012
100
AcDbArc
 50
38.6821874535
 51
82.8732855887
  0
LINE
  5
173
330
1F
100
AcDbEntity
  8
0
  6
HIDDEN
 62
     7
370
     0
100
AcDbLine
 10
78.3174179582
 20
127.3687973998
 30
0.0
 11
76.7585722314
 21
124.6687973998
 31
0.0
  0
LINE
  5
174
330
1F
100
AcDbEntity
  8
0
  6
HIDDEN
 62
     7
370
     0
100
AcDbLine
 10
76.7585722314
 20
90.6687973998
 30
0.0
 11
78.3174179582
 21
87.9687973998
 31
0.0
  0
LINE
  5
175
330
1F
100
AcDbEntity
  8
0
  6
HIDDEN
 62
     7
370
     0
100
AcDbLine
 10
99.7545976352
 20
134.9485296369
 30
0.0
 11
99.7545976352
 21
131.6143998144
 31
0.0
  0
LINE
  5
176
330
1F
100
AcDbEntity
  8
0
  6
HIDDEN
 62
     7
370
     0
100
AcDbLine
 10
107.7545976352
 20
131.6143998144
 30
0.0
 11
107.7545976352
 21
134.9471549476
 31
0.0
  0
ARC
  5
177
330
1F
100
AcDbEntity
  8
0
  6
HIDDEN
 62
     7
370
     0
100
AcDbCircle
 10
104.2045976352
 20
91.9437973998
 30
0.0
 40
1.500000000000001
100
AcDbArc
 50
238.2116693829
 51
0.0
  0
ARC
  5
178
330
1F
100
AcDbEntity
  8
0
  6
HIDDEN
 62
     7
370
     0
100
AcDbCircle
 10
104.2045976352
 20
123.3937973998
 30
0.0
 40
1.500000000000001
100
AcDbArc
 50
0.0
 51
121.7883306171
  0
LINE
  5
179
330
1F
100
AcDbEntity
  8
0
  6
HIDDEN
 62
     7
370
     0
100
AcDbLine
 10
95.7545976352
 20
90.6687973998
 30
0.0
 11
103.4144236038
 21
90.6687973998
 31
0.0
  0
LINE
  5
17A
330
1F
100
AcDbEntity
  8
0
  6
HIDDEN
 62
     7
370
     0
100
AcDbLine
 10
103.4144236038
 20
124.6687973998
 30
0.0
 11
95.7545976352
 21
124.6687973998
 31
0.0
  0
LINE
  5
17B
330
1F
100
AcDbEntity
  8
0
  6
HIDDEN
 62
     7
370
     0
100
AcDbLine
 10
73.9545976352
 20
90.6687973998
 30
0.0
 11
76.7585722314
 21
90.6687973998
 31
0.0
  0
LINE
  5
17C
330
1F
100
AcDbEntity
  8
0
  6
HIDDEN
 62
     7
370
     0
100
AcDbLine
 10
76.7585722314
 20
124.6687973998
 30
0.0
 11
69.9545976352
 21
124.6687973998
 31
0.0
  0
ARC
  5
17D
330
1F
100
AcDbEntity
  8
0
  6
HIDDEN
 62
     7
370
     0
100
AcDbCircle
 10
225.2545976352
 20
97.6321031517
 30
0.0
 40
0.5
100
AcDbArc
 50
0.0
 51
80.0
  0
ARC
  5
17E
330
1F
100
AcDbEntity
  8
0
  6
HIDDEN
 62
     7
370
     0
100
AcDbCircle
 10
225.2545976352
 20
117.7054916479
 30
0.0
 40
0.5
100
AcDbArc
 50
280.0
 51
0.0
  0
LINE
  5
17F
330
1F
100
AcDbEntity
  8
0
  6
HIDDEN
 62
     7
370
     0
100
AcDbLine
 10
225.3414217241
 20
117.2130877713
 30
0.0
 11
222.2545976352
 21
116.6687973998
 31
0.0
  0
LINE
  5
180
330
1F
100
AcDbEntity
  8
0
  6
HIDDEN
 62
     7
370
     0
100
AcDbLine
 10
222.2545976352
 20
98.6687973998
 30
0.0
 11
225.3414217241
 21
98.1245070282
 31
0.0
  0
LINE
  5
181
330
1F
100
AcDbEntity
  8
0
  6
HIDDEN
 62
     7
370
     0
100
AcDbLine
 10
114.5545976352
 20
98.1687973998
 30
0.0
 11
117.5545976352
 21
98.1687973998
 31
0.0
  0
LINE
  5
182
330
1F
100
AcDbEntity
  8
0
  6
HIDDEN
 62
     7
370
     0
100
AcDbLine
 10
117.5545976352
 20
117.1687973998
 30
0.0
 11
114.5545976352
 21
117.1687973998
 31
0.0
  0
ARC
  5
183
330
1F
100
AcDbEntity
  8
0
  6
HIDDEN
 62
     7
370
     0
100
AcDbCircle
 10
176.6545976352
 20
98.7687973998
 30
0.0
 40
0.4000000000000057
100
AcDbArc
 50
180.0
 51
270.0
  0
ARC
  5
184
330
1F
100
AcDbEntity
  8
0
  6
HIDDEN
 62
     7
370
     0
100
AcDbCircle
 10
176.6545976352
 20
116.5687973998
 30
0.0
 40
0.3999999999999915
100
AcDbArc
 50
90.0
 51
180.0
  0
LINE
  5
185
330
1F
100
AcDbEntity
  8
0
  6
HIDDEN
 62
     7
370
     0
100
AcDbLine
 10
179.7545976352
 20
98.3687973998
 30
0.0
 11
185.8598236171
 21
98.3687973998
 31
0.0
  0
LINE
  5
186
330
1F
100
AcDbEntity
  8
0
  6
HIDDEN
 62
     7
370
     0
100
AcDbLine
 10
176.6545976352
 20
98.3687973998
 30
0.0
 11
176.7587726301
 21
98.3687973998
 31
0.0
  0
LINE
  5
187
330
1F
100
AcDbEntity
  8
0
  6
HIDDEN
 62
     7
370
     0
100
AcDbLine
 10
176.7557206321
 20
116.9687973998
 30
0.0
 11
176.6545976352
 21
116.9687973998
 31
0.0
  0
LINE
  5
188
330
1F
100
AcDbEntity
  8
0
  6
HIDDEN
 62
     7
370
     0
100
AcDbLine
 10
185.8598236171
 20
116.9687973998
 30
0.0
 11
179.7495848916
 21
116.9687973998
 31
0.0
  0
ARC
  5
189
330
1F
100
AcDbEntity
  8
0
  6
HIDDEN
 62
     7
370
     0
100
AcDbCircle
 10
185.8598236171
 20
98.7687973998
 30
0.0
 40
0.4000000000000057
100
AcDbArc
 50
270.0
 51
290.0
  0
ARC
  5
18A
330
1F
100
AcDbEntity
  8
0
  6
HIDDEN
 62
     7
370
     0
100
AcDbCircle
 10
185.8598236171
 20
116.5687973998
 30
0.0
 40
0.3999999999999915
100
AcDbArc
 50
70.0
 51
90.0
  0
LINE
  5
18B
330
1F
100
AcDbEntity
  8
0
  6
HIDDEN
 62
     7
370
     0
100
AcDbLine
 10
185.9966316744
 20
98.3929203515
 30
0.0
 11
186.7545976352
 21
98.6687973998
 31
0.0
  0
LINE
  5
18C
330
1F
100
AcDbEntity
  8
0
  6
HIDDEN
 62
     7
370
     0
100
AcDbLine
 10
186.7545976352
 20
116.6687973998
 30
0.0
 11
185.9966316744
 21
116.9446744481
 31
0.0
  0
LINE
  5
18D
330
1F
100
AcDbEntity
  8
0
  6
HIDDEN
 62
     7
370
     0
100
AcDbLine
 10
105.7045976352
 20
98.6687973998
 30
0.0
 11
106.2045976352
 21
99.1687973998
 31
0.0
  0
LINE
  5
18E
330
1F
100
AcDbEntity
  8
0
  6
HIDDEN
 62
     7
370
     0
100
AcDbLine
 10
106.2045976352
 20
116.1687973998
 30
0.0
 11
105.7045976352
 21
116.6687973998
 31
0.0
  0
LINE
  5
18F
330
1F
100
AcDbEntity
  8
0
  6
HIDDEN
 62
     7
370
     0
100
AcDbLine
 10
186.7545976352
 20
98.6687973998
 30
0.0
 11
222.2545976352
 21
98.6687973998
 31
0.0
  0
LINE
  5
190
330
1F
100
AcDbEntity
  8
0
  6
HIDDEN
 62
     7
370
     0
100
AcDbLine
 10
222.2545976352
 20
116.6687973998
 30
0.0
 11
186.7545976352
 21
116.6687973998
 31
0.0
  0
LINE
  5
191
330
1F
100
AcDbEntity
  8
0
  6
HIDDEN
 62
     7
370
     0
100
AcDbLine
 10
106.2045976352
 20
99.1687973998
 30
0.0
 11
114.5545976352
 21
99.1687973998
 31
0.0
  0
LINE
  5
192
330
1F
100
AcDbEntity
  8
0
  6
HIDDEN
 62
     7
370
     0
100
AcDbLine
 10
114.5545976352
 20
116.1687973998
 30
0.0
 11
106.2045976352
 21
116.1687973998
 31
0.0
  0
LINE
  5
193
330
1F
100
AcDbEntity
  8
0
  6
HIDDEN
 62
     7
370
     0
100
AcDbLine
 10
100.7045976352
 20
139.1687973998
 30
0.0
 11
100.7045976352
 21
134.0687973998
 31
0.0
  0
LINE
  5
194
330
1F
100
AcDbEntity
  8
0
  6
HIDDEN
 62
     7
370
     0
100
AcDbLine
 10
176.2545976352
 20
113.6687973998
 30
0.0
 11
175.7545976352
 21
113.1687973998
 31
0.0
  0
LINE
  5
195
330
1F
100
AcDbEntity
  8
0
  6
HIDDEN
 62
     7
370
     0
100
AcDbLine
 10
175.7545976352
 20
102.1687973998
 30
0.0
 11
176.2545976352
 21
101.6687973998
 31
0.0
  0
LINE
  5
196
330
1F
100
AcDbEntity
  8
0
  6
HIDDEN
 62
     7
370
     0
100
AcDbLine
 10
145.7545976352
 20
102.1687973998
 30
0.0
 11
175.7545976352
 21
102.1687973998
 31
0.0
  0
LINE
  5
197
330
1F
100
AcDbEntity
  8
0
  6
HIDDEN
 62
     7
370
     0
100
AcDbLine
 10
175.7545976352
 20
113.1687973998
 30
0.0
 11
145.7545976352
 21
113.1687973998
 31
0.0
  0
LINE
  5
198
330
1F
100
AcDbEntity
  8
0
  6
HIDDEN
 62
     7
370
     0
100
AcDbLine
 10
145.7545976352
 20
113.1687973998
 30
0.0
 11
144.9734788305
 21
111.8687973998
 31
0.0
  0
LINE
  5
199
330
1F
100
AcDbEntity
  8
0
  6
HIDDEN
 62
     7
370
     0
100
AcDbLine
 10
144.9734788305
 20
103.4687973998
 30
0.0
 11
145.7545976352
 21
102.1687973998
 31
0.0
  0
LINE
  5
19A
330
1F
100
AcDbEntity
  8
0
  6
HIDDEN
 62
     7
370
     0
100
AcDbLine
 10
90.9390354657
 20
83.5894260662
 30
0.0
 11
90.5046033162
 21
84.0684920853
 31
0.0
  0
LINE
  5
19B
330
1F
100
AcDbEntity
  8
0
  6
HIDDEN
 62
     7
370
     0
100
AcDbLine
 10
83.0045999911
 20
84.4901800445
 30
0.0
 11
82.5221662478
 21
84.011114069
 31
0.0
  0
LINE
  5
19C
330
1F
100
AcDbEntity
  8
0
  6
HIDDEN
 62
     7
370
     0
100
AcDbLine
 10
82.5220443195
 20
131.3264754401
 30
0.0
 11
83.0045950705
 21
130.8473551822
 31
0.0
  0
LINE
  5
19D
330
1F
100
AcDbEntity
  8
0
  6
HIDDEN
 62
     7
370
     0
100
AcDbLine
 10
90.5045975172
 20
131.2690529599
 30
0.0
 11
90.9391399076
 21
131.7481732104
 31
0.0
  0
LINE
  5
19E
330
1F
100
AcDbEntity
  8
0
  6
HIDDEN
 62
     7
370
     0
100
AcDbLine
 10
117.5545976352
 20
103.4687973998
 30
0.0
 11
144.9734788305
 21
103.4687973998
 31
0.0
  0
LINE
  5
19F
330
1F
100
AcDbEntity
  8
0
  6
HIDDEN
 62
     7
370
     0
100
AcDbLine
 10
144.9734788305
 20
111.8687973998
 30
0.0
 11
117.5545976352
 21
111.8687973998
 31
0.0
  0
LINE
  5
1A0
330
1F
100
AcDbEntity
  8
0
  6
HIDDEN
 62
     7
370
     0
100
AcDbLine
 10
90.5045976352
 20
84.068975987
 30
0.0
 11
90.5045976352
 21
87.7309612092
 31
0.0
  0
LINE
  5
1A1
330
1F
100
AcDbEntity
  8
0
  6
HIDDEN
 62
     7
370
     0
100
AcDbLine
 10
83.0045976352
 20
87.669381661
 30
0.0
 11
83.0045976352
 21
84.4905032823
 31
0.0
  0
LINE
  5
1A2
330
1F
100
AcDbEntity
  8
0
  6
HIDDEN
 62
     7
370
     0
100
AcDbLine
 10
90.5045976352
 20
127.6066335904
 30
0.0
 11
90.5045976352
 21
131.2684995383
 31
0.0
  0
LINE
  5
1A3
330
1F
100
AcDbEntity
  8
0
  6
HIDDEN
 62
     7
370
     0
100
AcDbLine
 10
83.0045976352
 20
130.8470999909
 30
0.0
 11
83.0045976352
 21
127.6682131386
 31
0.0
  0
LINE
  5
1A4
330
1F
100
AcDbEntity
  8
0
  6
HIDDEN
 62
     7
370
     0
100
AcDbLine
 10
154.2045976352
 20
128.1687973998
 30
0.0
 11
155.2045976352
 21
127.5914471306
 31
0.0
  0
LINE
  5
1A5
330
1F
100
AcDbEntity
  8
0
  6
HIDDEN
 62
     7
370
     0
100
AcDbLine
 10
160.2045976352
 20
127.5914471306
 30
0.0
 11
161.2045976352
 21
128.1687973998
 31
0.0
  0
LINE
  5
1A6
330
1F
100
AcDbEntity
  8
0
  6
HIDDEN
 62
     7
370
     0
100
AcDbLine
 10
161.2045976352
 20
87.1687973998
 30
0.0
 11
160.2045976352
 21
87.746147669
 31
0.0
  0
LINE
  5
1A7
330
1F
100
AcDbEntity
  8
0
  6
HIDDEN
 62
     7
370
     0
100
AcDbLine
 10
155.2045976352
 20
87.746147669
 30
0.0
 11
154.2045976352
 21
87.1687973998
 31
0.0
  0
LINE
  5
1A8
330
1F
100
AcDbEntity
  8
0
  6
HIDDEN
 62
     7
370
     0
100
AcDbLine
 10
155.2045976352
 20
127.5914471306
 30
0.0
 11
155.2045976352
 21
116.1687973998
 31
0.0
  0
LINE
  5
1A9
330
1F
100
AcDbEntity
  8
0
  6
HIDDEN
 62
     7
370
     0
100
AcDbLine
 10
160.2045976352
 20
116.1687973998
 30
0.0
 11
160.2045976352
 21
127.5914471306
 31
0.0
  0
LINE
  5
1AA
330
1F
100
AcDbEntity
  8
0
  6
HIDDEN
 62
     7
370
     0
100
AcDbLine
 10
155.2045976352
 20
116.1687973998
 30
0.0
 11
157.7045976352
 21
114.6666458522
 31
0.0
  0
LINE
  5
1AB
330
1F
100
AcDbEntity
  8
0
  6
HIDDEN
 62
     7
370
     0
100
AcDbLine
 10
157.7045976352
 20
114.6666458522
 30
0.0
 11
160.2045976352
 21
116.1687973998
 31
0.0
  0
LINE
  5
1AC
330
1F
100
AcDbEntity
  8
0
  6
HIDDEN
 62
     7
370
     0
100
AcDbLine
 10
160.2045976352
 20
87.746147669
 30
0.0
 11
160.2045976352
 21
99.1687973998
 31
0.0
  0
LINE
  5
1AD
330
1F
100
AcDbEntity
  8
0
  6
HIDDEN
 62
     7
370
     0
100
AcDbLine
 10
155.2045976352
 20
99.1687973998
 30
0.0
 11
155.2045976352
 21
87.746147669
 31
0.0
  0
LINE
  5
1AE
330
1F
100
AcDbEntity
  8
0
  6
HIDDEN
 62
     7
370
     0
100
AcDbLine
 10
160.2045976352
 20
99.1687973998
 30
0.0
 11
157.7045976352
 21
100.6709489474
 31
0.0
  0
LINE
  5
1AF
330
1F
100
AcDbEntity
  8
0
  6
HIDDEN
 62
     7
370
     0
100
AcDbLine
 10
157.7045976352
 20
100.6709489474
 30
0.0
 11
155.2045976352
 21
99.1687973998
 31
0.0
  0
LINE
  5
1B0
330
1F
100
AcDbEntity
  8
0
  6
HIDDEN
 62
     7
370
     0
100
AcDbLine
 10
176.7545976352
 20
120.8550283481
 30
0.0
 11
176.7545976352
 21
116.9686181916
 31
0.0
  0
LINE
  5
1B1
330
1F
100
AcDbEntity
  8
0
  6
HIDDEN
 62
     7
370
     0
100
AcDbLine
 10
176.7545976352
 20
124.1687973998
 30
0.0
 11
176.7545976352
 21
123.2121230915
 31
0.0
  0
LINE
  5
1B2
330
1F
100
AcDbEntity
  8
0
  6
HIDDEN
 62
     7
370
     0
100
AcDbLine
 10
179.7545976352
 20
123.2233499926
 30
0.0
 11
179.7545976352
 21
124.1687973998
 31
0.0
  0
LINE
  5
1B3
330
1F
100
AcDbEntity
  8
0
  6
HIDDEN
 62
     7
370
     0
100
AcDbLine
 10
179.7545976352
 20
116.9679911471
 30
0.0
 11
179.7545976352
 21
120.7251778739
 31
0.0
  0
LINE
  5
1B4
330
1F
100
AcDbEntity
  8
0
  6
HIDDEN
 62
     7
370
     0
100
AcDbLine
 10
176.7545976352
 20
92.125471708
 30
0.0
 11
176.7545976352
 21
91.6687973998
 31
0.0
  0
LINE
  5
1B5
330
1F
100
AcDbEntity
  8
0
  6
HIDDEN
 62
     7
370
     0
100
AcDbLine
 10
176.7545976352
 20
98.3694682371
 30
0.0
 11
176.7545976352
 21
94.4825664515
 31
0.0
  0
LINE
  5
1B6
330
1F
100
AcDbEntity
  8
0
  6
HIDDEN
 62
     7
370
     0
100
AcDbLine
 10
179.7545976352
 20
94.6124169257
 30
0.0
 11
179.7545976352
 21
98.3687973998
 31
0.0
  0
LINE
  5
1B7
330
1F
100
AcDbEntity
  8
0
  6
HIDDEN
 62
     7
370
     0
100
AcDbLine
 10
179.7545976352
 20
91.6687973998
 30
0.0
 11
179.7545976352
 21
92.114244807
 31
0.0
  0
LINE
  5
1B8
330
1F
100
AcDbEntity
  8
0
  6
HIDDEN
 62
     7
370
     0
100
AcDbLine
 10
176.7545976352
 20
91.6687973998
 30
0.0
 11
178.2545976352
 21
90.7675064712
 31
0.0
  0
LINE
  5
1B9
330
1F
100
AcDbEntity
  8
0
  6
HIDDEN
 62
     7
370
     0
100
AcDbLine
 10
178.2545976352
 20
90.7675064712
 30
0.0
 11
179.7545976352
 21
91.6687973998
 31
0.0
  0
LINE
  5
1BA
330
1F
100
AcDbEntity
  8
0
  6
HIDDEN
 62
     7
370
     0
100
AcDbLine
 10
179.7515429385
 20
92.1103680098
 30
0.0
 11
225.7545976352
 21
93.9178329515
 31
0.0
  0
LINE
  5
1BB
330
1F
100
AcDbEntity
  8
0
  6
HIDDEN
 62
     7
370
     0
100
AcDbLine
 10
225.7545976352
 20
96.419761848
 30
0.0
 11
179.7545976352
 21
94.6124169257
 31
0.0
  0
LINE
  5
1BC
330
1F
100
AcDbEntity
  8
0
  6
HIDDEN
 62
     7
370
     0
100
AcDbLine
 10
179.7545976352
 20
120.7251778739
 30
0.0
 11
225.7545976352
 21
118.9178329515
 31
0.0
  0
LINE
  5
1BD
330
1F
100
AcDbEntity
  8
0
  6
HIDDEN
 62
     7
370
     0
100
AcDbLine
 10
225.7545976352
 20
121.419761848
 30
0.0
 11
179.7515429385
 21
123.2272267898
 31
0.0
  0
LINE
  5
1BE
330
1F
100
AcDbEntity
  8
0
  6
HIDDEN
 62
     7
370
     0
100
AcDbLine
 10
176.7588930248
 20
123.2156449193
 30
0.0
 11
176.0418781378
 21
122.1220154685
 31
0.0
  0
LINE
  5
1BF
330
1F
100
AcDbEntity
  8
0
  6
HIDDEN
 62
     7
370
     0
100
AcDbLine
 10
176.0418781378
 20
122.1220154685
 30
0.0
 11
176.7433000897
 21
120.8434920767
 31
0.0
  0
LINE
  5
1C0
330
1F
100
AcDbEntity
  8
0
  6
HIDDEN
 62
     7
370
     0
100
AcDbLine
 10
176.7433000897
 20
94.4941027229
 30
0.0
 11
176.0418781378
 21
93.2155793311
 31
0.0
  0
LINE
  5
1C1
330
1F
100
AcDbEntity
  8
0
  6
HIDDEN
 62
     7
370
     0
100
AcDbLine
 10
176.0418781378
 20
93.2155793311
 30
0.0
 11
176.7588930248
 21
92.1219498803
 31
0.0
  0
LINE
  5
1C2
330
1F
100
AcDbEntity
  8
0
  6
HIDDEN
 62
     7
370
     0
100
AcDbLine
 10
225.563330878
 20
96.6624398463
 30
0.0
 11
220.2293930741
 21
96.4528688592
 31
0.0
  0
LINE
  5
1C3
330
1F
100
AcDbEntity
  8
0
  6
HIDDEN
 62
     7
370
     0
100
AcDbLine
 10
220.3471725214
 20
93.4551817505
 30
0.0
 11
225.6811103252
 21
93.6647527376
 31
0.0
  0
LINE
  5
1C4
330
1F
100
AcDbEntity
  8
0
  6
HIDDEN
 62
     7
370
     0
100
AcDbLine
 10
220.2293930741
 20
96.4528688592
 30
0.0
 11
219.7494084638
 21
95.9336244332
 31
0.0
  0
LINE
  5
1C5
330
1F
100
AcDbEntity
  8
0
  6
HIDDEN
 62
     7
370
     0
100
AcDbLine
 10
219.8279280954
 20
93.9351663608
 30
0.0
 11
220.3471725214
 21
93.4551817505
 31
0.0
  0
LINE
  5
1C6
330
1F
100
AcDbEntity
  8
0
  6
HIDDEN
 62
     7
370
     0
100
AcDbLine
 10
225.6811103252
 20
93.6647527376
 30
0.0
 11
225.7545976352
 21
93.8044291394
 31
0.0
  0
LINE
  5
1C7
330
1F
100
AcDbEntity
  8
0
  6
HIDDEN
 62
     7
370
     0
100
AcDbLine
 10
225.7361651517
 20
96.3885141013
 30
0.0
 11
225.563330878
 21
96.6624398463
 31
0.0
  0
LINE
  5
1C8
330
1F
100
AcDbEntity
  8
0
  6
HIDDEN
 62
     7
370
     0
100
AcDbLine
 10
225.5044411543
 20
118.6774687368
 30
0.0
 11
225.6772754281
 21
118.9513944819
 31
0.0
  0
LINE
  5
1C9
330
1F
100
AcDbEntity
  8
0
  6
HIDDEN
 62
     7
370
     0
100
AcDbLine
 10
225.7545976352
 20
121.4235484898
 30
0.0
 11
225.6222206016
 21
121.6751558455
 31
0.0
  0
LINE
  5
1CA
330
1F
100
AcDbEntity
  8
0
  6
HIDDEN
 62
     7
370
     0
100
AcDbLine
 10
225.6222206016
 20
121.6751558455
 30
0.0
 11
220.2882827977
 21
121.8847268326
 31
0.0
  0
LINE
  5
1CB
330
1F
100
AcDbEntity
  8
0
  6
HIDDEN
 62
     7
370
     0
100
AcDbLine
 10
220.1705033504
 20
118.8870397239
 30
0.0
 11
225.5044411543
 21
118.6774687368
 31
0.0
  0
LINE
  5
1CC
330
1F
100
AcDbEntity
  8
0
  6
HIDDEN
 62
     7
370
     0
100
AcDbLine
 10
220.2882827977
 20
121.8847268326
 30
0.0
 11
219.7690383717
 21
121.4047422224
 31
0.0
  0
LINE
  5
1CD
330
1F
100
AcDbEntity
  8
0
  6
HIDDEN
 62
     7
370
     0
100
AcDbLine
 10
219.6905187402
 20
119.4062841499
 30
0.0
 11
220.1705033504
 21
118.8870397239
 31
0.0
  0
LINE
  5
1CE
330
1F
100
AcDbEntity
  8
0
  6
HIDDEN
 62
     7
370
     0
100
AcDbLine
 10
160.7545976352
 20
101.6687973998
 30
0.0
 11
175.7545976352
 21
101.6687973998
 31
0.0
  0
LINE
  5
1CF
330
1F
100
AcDbEntity
  8
0
  6
HIDDEN
 62
     7
370
     0
100
AcDbLine
 10
175.7545976352
 20
113.6687973998
 30
0.0
 11
160.7545976352
 21
113.6687973998
 31
0.0
  0
LINE
  5
1D0
330
1F
100
AcDbEntity
  8
0
  6
HIDDEN
 62
     7
370
     0
100
AcDbLine
 10
175.7545976352
 20
101.6687973998
 30
0.0
 11
176.2545976352
 21
102.1687973998
 31
0.0
  0
LINE
  5
1D1
330
1F
100
AcDbEntity
  8
0
  6
HIDDEN
 62
     7
370
     0
100
AcDbLine
 10
176.2545976352
 20
113.1687973998
 30
0.0
 11
175.7545976352
 21
113.6687973998
 31
0.0
  0
LINE
  5
1D2
330
1F
100
AcDbEntity
  8
0
  6
HIDDEN
 62
     7
370
     0
100
AcDbLine
 10
160.7545976352
 20
113.6687973998
 30
0.0
 11
160.2545976352
 21
113.1687973998
 31
0.0
  0
LINE
  5
1D3
330
1F
100
AcDbEntity
  8
0
  6
HIDDEN
 62
     7
370
     0
100
AcDbLine
 10
160.2545976352
 20
102.1687973998
 30
0.0
 11
160.7545976352
 21
101.6687973998
 31
0.0
  0
LINE
  5
1D4
330
1F
100
AcDbEntity
  8
0
  6
HIDDEN
 62
     7
370
     0
100
AcDbLine
 10
176.2545976352
 20
102.1687973998
 30
0.0
 11
180.2545976352
 21
102.1687973998
 31
0.0
  0
LINE
  5
1D5
330
1F
100
AcDbEntity
  8
0
  6
HIDDEN
 62
     7
370
     0
100
AcDbLine
 10
180.2545976352
 20
113.1687973998
 30
0.0
 11
176.2545976352
 21
113.1687973998
 31
0.0
  0
LINE
  5
1D6
330
1F
100
AcDbEntity
  8
0
  6
HIDDEN
 62
     7
370
     0
100
AcDbLine
 10
167.2545976352
 20
104.6687973998
 30
0.0
 11
173.2545976352
 21
104.6687973998
 31
0.0
  0
LINE
  5
1D7
330
1F
100
AcDbEntity
  8
0
  6
HIDDEN
 62
     7
370
     0
100
AcDbLine
 10
173.2545976352
 20
110.6687973998
 30
0.0
 11
167.2545976352
 21
110.6687973998
 31
0.0
  0
DIMENSION
  5
1D8
330
1F
100
AcDbEntity
  8
VERMASSUNG
100
AcDbDimension
  2
*D1
 10
59.6174431203
 20
76.1687973998
 30
0.0
 11
59.6174431203
 21
107.6687973998
 31
0.0
 70
   160
  1
HSK A %%c<>
 71
     2
 42
-1.0
  3
SLDDIMSTYLE0
100
AcDbAlignedDimension
 13
96.0545976352
 23
139.1687973998
 33
0.0
 14
96.0545976352
 24
76.1687973998
 34
0.0
 50
90.0
100
AcDbRotatedDimension
  0
DIMENSION
  5
1E5
330
1F
100
AcDbEntity
  8
VERMASSUNG
100
AcDbDimension
  2
*D2
 10
225.7545976352
 20
137.6057421452
 30
0.0
 11
201.0045976352
 21
137.6057421452
 31
0.0
 70
   160
 71
     2
 42
-1.0
  3
SLDDIMSTYLE1
100
AcDbAlignedDimension
 13
176.2545976352
 23
116.5687973998
 33
0.0
 14
225.7545976352
 24
122.3200164165
 34
0.0
100
AcDbRotatedDimension
  0
DIMENSION
  5
1F0
330
1F
100
AcDbEntity
  8
VERMASSUNG
100
AcDbDimension
  2
*D3
 10
235.8644873556
 20
116.6687973998
 30
0.0
 11
235.8644873556
 21
107.6687973998
 31
0.0
 70
   160
  1
%%c<>
 71
     2
 42
-1.0
  3
SLDDIMSTYLE2
100
AcDbAlignedDimension
 13
222.2545976352
 23
98.6687973998
 33
0.0
 14
222.2545976352
 24
116.6687973998
 34
0.0
 50
90.0
100
AcDbRotatedDimension
  0
DIMENSION
  5
1FC
330
1F
100
AcDbEntity
  8
VERMASSUNG
100
AcDbDimension
  2
*D4
 10
241.8644873556
 20
124.1687973998
 30
0.0
 11
241.8644873556
 21
107.6687973998
 31
0.0
 70
   160
  1
%%c<>
 71
     2
 42
-1.0
  3
SLDDIMSTYLE3
100
AcDbAlignedDimension
 13
225.7545976352
 23
91.1687973998
 33
0.0
 14
225.7545976352
 24
124.1687973998
 34
0.0
 50
90.0
100
AcDbRotatedDimension
  0
DIMENSION
  5
208
330
1F
100
AcDbEntity
  8
VERMASSUNG
100
AcDbDimension
  2
*D5
 10
225.7545976352
 20
149.6057421452
 30
0.0
 11
160.7545976352
 21
149.6057421452
 31
0.0
 70
   160
 71
     2
 42
-1.0
  3
SLDDIMSTYLE0
100
AcDbAlignedDimension
 13
95.7545976352
 23
138.8687973998
 33
0.0
 14
225.7545976352
 24
122.3200164165
 34
0.0
100
AcDbRotatedDimension
  0
DIMENSION
  5
212
330
1F
100
AcDbEntity
  8
VERMASSUNG
100
AcDbDimension
  2
*D6
 10
225.7545976352
 20
143.6057421452
 30
0.0
 11
173.7295976352
 21
143.6057421452
 31
0.0
 70
   160
 71
     2
 42
-1.0
  3
SLDDIMSTYLE0
100
AcDbAlignedDimension
 13
121.7045976352
 23
137.5152377235
 33
0.0
 14
225.7545976352
 24
122.3200164165
 34
0.0
100
AcDbRotatedDimension
  0
DIMENSION
  5
21C
330
1F
100
AcDbEntity
  8
VERMASSUNG
100
AcDbDimension
  2
*D7
 10
225.7545976352
 20
155.6057421452
 30
0.0
 11
144.8045976352
 21
155.6057421452
 31
0.0
 70
   160
 71
     2
 42
-1.0
  3
SLDDIMSTYLE0
100
AcDbAlignedDimension
 13
63.8545976352
 23
127.3594751463
 33
0.0
 14
225.7545976352
 24
122.3200164165
 34
0.0
100
AcDbRotatedDimension
  0
DIMENSION
  5
226
330
1F
100
AcDbEntity
  8
VERMASSUNG
100
AcDbDimension
  2
*D8
 10
247.8644873556
 20
87.1687973998
 30
0.0
 11
247.8644873556
 21
107.6687973998
 31
0.0
 70
   160
  1
%%c<>
 71
     2
 42
-1.0
  3
SLDDIMSTYLE0
100
AcDbAlignedDimension
 13
174.9297786905
 23
128.1687973998
 33
0.0
 14
174.9297786905
 24
87.1687973998
 34
0.0
 50
90.0
100
AcDbRotatedDimension
  0
LINE
  5
231
330
1F
100
AcDbEntity
  8
VERMASSUNG
  6
CENTERX2
370
     0
100
AcDbLine
 10
61.7092937929
 20
107.6687973998
 30
0.0
 11
228.3318526544
 21
107.6687973998
 31
0.0
  0
OLE2FRAME
  5
232
330
1F
100
AcDbEntity
  8
0
100
AcDbOle2Frame
 70
     2
  3
Bitmap Image
 10
13.8511154363
 20
38.264191557
 30
0.0
 11
51.6290888628
 21
31.9806341108
 31
0.0
 71
     2
 72
     0
 73
     1
 90
    12928
310
80552BED0767C5B32B40DDAF6807D121434000000000000000006FFBDDFB85D0
310
4940DDAF6807D121434000000000000000006FFBDDFB85D04940416F4BD60AFB
310
3F4000000000000000002BED0767C5B32B40416F4BD60AFB3F40000000000000
310
0000000000000100000000010000010000000100000000000100000000320000
310
D0CF11E0A1B11AE1000000000000000000000000000000003E000300FEFF0900
310
0600000000000000000000000100000001000000000000000010000002000000
310
01000000FEFFFFFF0000000000000000FFFFFFFFFFFFFFFFFFFFFFFFFFFFFFFF
310
FFFFFFFFFFFFFFFFFFFFFFFFFFFFFFFFFFFFFFFFFFFFFFFFFFFFFFFFFFFFFFFF
310
FFFFFFFFFFFFFFFFFFFFFFFFFFFFFFFFFFFFFFFFFFFFFFFFFFFFFFFFFFFFFFFF
310
FFFFFFFFFFFFFFFFFFFFFFFFFFFFFFFFFFFFFFFFFFFFFFFFFFFFFFFFFFFFFFFF
310
FFFFFFFFFFFFFFFFFFFFFFFFFFFFFFFFFFFFFFFFFFFFFFFFFFFFFFFFFFFFFFFF
310
FFFFFFFFFFFFFFFFFFFFFFFFFFFFFFFFFFFFFFFFFFFFFFFFFFFFFFFFFFFFFFFF
310
FFFFFFFFFFFFFFFFFFFFFFFFFFFFFFFFFFFFFFFFFFFFFFFFFFFFFFFFFFFFFFFF
310
FFFFFFFFFFFFFFFFFFFFFFFFFFFFFFFFFFFFFFFFFFFFFFFFFFFFFFFFFFFFFFFF
310
FFFFFFFFFFFFFFFFFFFFFFFFFFFFFFFFFFFFFFFFFFFFFFFFFFFFFFFFFFFFFFFF
310
FFFFFFFFFFFFFFFFFFFFFFFFFFFFFFFFFFFFFFFFFFFFFFFFFFFFFFFFFFFFFFFF
310
FFFFFFFFFFFFFFFFFFFFFFFFFFFFFFFFFFFFFFFFFFFFFFFFFFFFFFFFFFFFFFFF
310
FFFFFFFFFFFFFFFFFFFFFFFFFFFFFFFFFFFFFFFFFFFFFFFFFFFFFFFFFFFFFFFF
310
FFFFFFFFFFFFFFFFFFFFFFFFFFFFFFFFFFFFFFFFFFFFFFFFFFFFFFFFFFFFFFFF
310
FFFFFFFFFFFFFFFFFFFFFFFFFFFFFFFFFFFFFFFFFFFFFFFFFFFFFFFFFFFFFFFF
310
FDFFFFFFFEFFFFFFFEFFFFFFFEFFFFFF05000000060000000700000008000000
310
090000000A0000000B0000000C0000000D0000000E0000000F00000010000000
310
11000000120000001300000014000000150000001600000017000000FEFFFFFF
310
FFFFFFFFFFFFFFFFFFFFFFFFFFFFFFFFFFFFFFFFFFFFFFFFFFFFFFFFFFFFFFFF
310
FFFFFFFFFFFFFFFFFFFFFFFFFFFFFFFFFFFFFFFFFFFFFFFFFFFFFFFFFFFFFFFF
310
FFFFFFFFFFFFFFFFFFFFFFFFFFFFFFFFFFFFFFFFFFFFFFFFFFFFFFFFFFFFFFFF
310
FFFFFFFFFFFFFFFFFFFFFFFFFFFFFFFFFFFFFFFFFFFFFFFFFFFFFFFFFFFFFFFF
310
FFFFFFFFFFFFFFFFFFFFFFFFFFFFFFFFFFFFFFFFFFFFFFFFFFFFFFFFFFFFFFFF
310
FFFFFFFFFFFFFFFFFFFFFFFFFFFFFFFFFFFFFFFFFFFFFFFFFFFFFFFFFFFFFFFF
310
FFFFFFFFFFFFFFFFFFFFFFFFFFFFFFFFFFFFFFFFFFFFFFFFFFFFFFFFFFFFFFFF
310
FFFFFFFFFFFFFFFFFFFFFFFFFFFFFFFFFFFFFFFFFFFFFFFFFFFFFFFFFFFFFFFF
310
FFFFFFFFFFFFFFFFFFFFFFFFFFFFFFFFFFFFFFFFFFFFFFFFFFFFFFFFFFFFFFFF
310
FFFFFFFFFFFFFFFFFFFFFFFFFFFFFFFFFFFFFFFFFFFFFFFFFFFFFFFFFFFFFFFF
310
FFFFFFFFFFFFFFFFFFFFFFFFFFFFFFFFFFFFFFFFFFFFFFFFFFFFFFFFFFFFFFFF
310
FFFFFFFFFFFFFFFFFFFFFFFFFFFFFFFFFFFFFFFFFFFFFFFFFFFFFFFFFFFFFFFF
310
FFFFFFFFFFFFFFFFFFFFFFFFFFFFFFFFFFFFFFFFFFFFFFFFFFFFFFFFFFFFFFFF
310
52006F006F007400200045006E00740072007900000000000000000000000000
310
0000000000000000000000000000000000000000000000000000000000000000
310
16000500FFFFFFFFFFFFFFFF020000000A00030000000000C000000000000046
310
000000000000000000000000907CE8A66D05CC0103000000C000000000000000
310
01004F006C006500000000000000000000000000000000000000000000000000
310
0000000000000000000000000000000000000000000000000000000000000000
310
0A000200FFFFFFFFFFFFFFFFFFFFFFFF00000000000000000000000000000000
310
0000000000000000000000000000000000000000000000001400000000000000
310
010043006F006D0070004F0062006A0000000000000000000000000000000000
310
0000000000000000000000000000000000000000000000000000000000000000
310
120002010100000003000000FFFFFFFF00000000000000000000000000000000
310
0000000000000000000000000000000000000000010000004D00000000000000
310
01004F006C006500310030004E00610074006900760065000000000000000000
310
0000000000000000000000000000000000000000000000000000000000000000
310
1A000200FFFFFFFFFFFFFFFFFFFFFFFF00000000000000000000000000000000
310
0000000000000000000000000000000000000000040000002426000000000000
310
FEFFFFFF02000000FEFFFFFFFFFFFFFFFFFFFFFFFFFFFFFFFFFFFFFFFFFFFFFF
310
FFFFFFFFFFFFFFFFFFFFFFFFFFFFFFFFFFFFFFFFFFFFFFFFFFFFFFFFFFFFFFFF
310
FFFFFFFFFFFFFFFFFFFFFFFFFFFFFFFFFFFFFFFFFFFFFFFFFFFFFFFFFFFFFFFF
310
FFFFFFFFFFFFFFFFFFFFFFFFFFFFFFFFFFFFFFFFFFFFFFFFFFFFFFFFFFFFFFFF
310
FFFFFFFFFFFFFFFFFFFFFFFFFFFFFFFFFFFFFFFFFFFFFFFFFFFFFFFFFFFFFFFF
310
FFFFFFFFFFFFFFFFFFFFFFFFFFFFFFFFFFFFFFFFFFFFFFFFFFFFFFFFFFFFFFFF
310
FFFFFFFFFFFFFFFFFFFFFFFFFFFFFFFFFFFFFFFFFFFFFFFFFFFFFFFFFFFFFFFF
310
FFFFFFFFFFFFFFFFFFFFFFFFFFFFFFFFFFFFFFFFFFFFFFFFFFFFFFFFFFFFFFFF
310
FFFFFFFFFFFFFFFFFFFFFFFFFFFFFFFFFFFFFFFFFFFFFFFFFFFFFFFFFFFFFFFF
310
FFFFFFFFFFFFFFFFFFFFFFFFFFFFFFFFFFFFFFFFFFFFFFFFFFFFFFFFFFFFFFFF
310
FFFFFFFFFFFFFFFFFFFFFFFFFFFFFFFFFFFFFFFFFFFFFFFFFFFFFFFFFFFFFFFF
310
FFFFFFFFFFFFFFFFFFFFFFFFFFFFFFFFFFFFFFFFFFFFFFFFFFFFFFFFFFFFFFFF
310
FFFFFFFFFFFFFFFFFFFFFFFFFFFFFFFFFFFFFFFFFFFFFFFFFFFFFFFFFFFFFFFF
310
FFFFFFFFFFFFFFFFFFFFFFFFFFFFFFFFFFFFFFFFFFFFFFFFFFFFFFFFFFFFFFFF
310
FFFFFFFFFFFFFFFFFFFFFFFFFFFFFFFFFFFFFFFFFFFFFFFFFFFFFFFFFFFFFFFF
310
FFFFFFFFFFFFFFFFFFFFFFFFFFFFFFFFFFFFFFFFFFFFFFFFFFFFFFFFFFFFFFFF
310
0100000200000000000000000000000000000000000000002103820000100004
310
C802250000000000C80225000000000000000000000000000000000000000000
310
0100FEFF030A0000FFFFFFFF0A00030000000000C00000000000004607000000
310
5042727573680007000000504272757368000700000050427275736800F439B2
310
7100000000000000000000000000000000000000000000000000000000000000
310
0000000000000000000000000000000000000000000000000000000000000000
310
0000000000000000000000000000000000000000000000000000000000000000
310
0000000000000000000000000000000000000000000000000000000000000000
310
0000000000000000000000000000000000000000000000000000000000000000
310
0000000000000000000000000000000000000000000000000000000000000000
310
0000000000000000000000000000000000000000000000000000000000000000
310
0000000000000000000000000000000000000000000000000000000000000000
310
0000000000000000000000000000000000000000000000000000000000000000
310
0000000000000000000000000000000000000000000000000000000000000000
310
0000000000000000000000000000000000000000000000000000000000000000
310
0000000000000000000000000000000000000000000000000000000000000000
310
20260000424D0E260000000000003E00000028000000B40200006E0000000100
310
01000000000000000000130B0000130B00000200000002000000000000FFFFFF
310
FFFFFFFFFFFFFFFFFFFFFFFFFFFFFFFFFFFFFFFFFFFFFFFFFFFFFFFFFFFFFFFF
310
FFFFFFFFFFFFFFFFFFFFFFFFFFFFFFFFFFFFFFFFFFFFFFFFFFFFFFFFFFFFFFFF
310
FFFFFFFFFFFFFFFFFFFFFFFFFFFFFFFFFFFFFFFFFFFFFFFFF000FFFFFFFFFFFF
310
FFFFFFFFFFFFFFFFFFFFFFFFFFFFFFFFFFFFFFFFFFFFFFFFFFFFFFFFFFFFFFFF
310
FFFFFFFFFFFFFFFFFFFFFFFFFFFFFFFFFFFFFFFFFFFFFFFFFFFFFFFFFFFFFFFF
310
FFFFFFFFFFFFFFFFFFFFFFFFFFFFFFFFF000FFFFFFFFFFFFFFFFFFFFFFFFFFFF
310
FFFFFFFFFFFFFFFFFFFFFFFFFFFFFFFFFFFFFFFFFFFFFFFFFFFFFFFFFFFFFFFF
310
FFFFFFFFFFFFFFFFFFFFFFFFFFFFFFFFFFFFFFFFFFFFFFFFFFFFFFFFFFFFFFFF
310
FFFFFFFFFFFFFFFFF000FFFFFFFFFFFFFFFFFFFFFFFFFFFFFFFFFFFFFFFFFFFF
310
FFFFFFFFFFFFFFFFFFFFFFFFFFFFFFFFFFFFFFFFFFFFFFFFFFFFFFFFFFFFFFFF
310
FFFFFFFFFFFFFFFFFFFFFFFFFFFFFFFFFFFFFFFFFFFFFFFFFFFFFFFFFFFFFFFF
310
F000FFFFFFFFFFFFFFFFFFFFFFFFFFFFFFFFFFFFFFFFFFFFFFFFFFFFFFFFFFFF
310
FFFFFFFFFFFFFFFFFFFFFFFFFFFFFFFFFFFFFFFFFFFFFFFFFFFFFFFFFFFFFFFF
310
FFFFFFFFFFFFFFFFFFFFFFFFFFFFFFFFFFFFFFFFFFFFFFFFF000FFFFFFFFFFFF
310
FFFFFFFFFFFFFFFFFFFFFFFFFFFFFFFFFFFFFFFFFFFFFFFFFFFFFFFFFFFFFFFF
310
FFFFFFFFFFFFFFFFFFFFFFFFFFFFFFFFFFFFFFFFFFFFFFFFFFFFFFFFFFFFFFFF
310
FFFFFFFFFFFFFFFFFFFFFFFFFFFFFFFFF000FFFFFFFFFFFFFFFFFFFFFFFFFFFF
310
FFFFFFFFFFFFFFFFFFFFFFFFFFFFFFFFFFFFFFFFFFFFFFFFFFFFFFFFFFFFFFFF
310
FFFFFFFFFFFFFFFFFFFFFFFFFFFFFFFFFFFFFFFFFFFFFFFFFFFFFFFFFFFFFFFF
310
FFFFFFFFFFFFFFFFF000FFFFFFFFFFFFFFFFFFFFFFFFFFFFFFFFFFFFFFFFFFFF
310
FFFFFFFFFFFFFFFFFFFFFFFFFFFFFFFFFFFFFFFFFFFFFFFFFFFFFFFFFFFFFFFF
310
FFFFFFFFFFFFFFFFFFFFFFFFFFFFFFFFFFFFFFFFFFFFFFFFFFFFFFFFFFFFFFFF
310
F000FFFFFFFFFFFFFFFFFFFFFFFFFFFFFFFFFFFFFFFFFFFFFFFFFFFFFFFFFFFF
310
FFFFFFFFFFFFFFFFFFFFFFFFFFFFFFFFFFFFFFFFFFFFFFFFFFFFFFFFFFFFFFFF
310
FFFFFFFFFFFFFFFFFFFFFFFFFFFFFFFFFFFFFFFFFFFFFFFFF000FFFFFFFFFFFF
310
FFFFFFFFFFFFFFFFFFFFFFFFFFFFFFFFFFFFFFFFFFFFFFFFFFFFFFFFFFFFFFFF
310
FFFFFFFFFFFFFFFFFFFFFFFFFFFFFFFFFFFFFFFFFFFFFFFFFFFFFFFFFFFFFFFF
310
FFFFFFFFFFFFFFFFFFFFFFFFFFFFFFFFF000FFFFFFFFFFFFFFFFFFFFFFFFFFFF
310
FFFFFFFFFFFFFFFFFFFFFFFFFFFFFFFFFFFFFFFFFFFFFFFFFFFFFFFFFFFFFFFF
310
FFFFFFFFFFFFFFFFFFFFFFFFFFFFFFFFFFFFFFFFFFFFFFFFFFFFFFFFFFFFFFFF
310
FFFFFFFFFFFFFFFFF000FFFFFFFFFFFFFFFFFFFFFFFFFFFFFFFFFFFFFFFFFFFF
310
FFFFFFFFFFFFFFFFFFFFFFFFFFFFFFFFFFFFFFFFFFFFFFFFFFFFFFFFFFFFFFFF
310
FFFFFFFFFFFFFFFFFFFFFFFFFFFFFFFFFFFFFFFFFFFFFFFFFFFFFFFFFFFFFFFF
310
F000FFFFFFFFFFFFFFFFFFFFFFFFFFFFFFFFFFFFFFFFFFFFFFFFFFFFFFFFFFFF
310
FFFFFFFFFFFFFFFFFFFFFFFFFFFFFFFFFFFFFFFFFFFFFFFFFFFFFFFFFFFFFFFF
310
FFFFFFFFFFFFFFFFFFFFFFFFFFFFFFFFFFFFFFFFFFFFFFFFF000FFFFFFFFFFFF
310
FFFFFFFFFFFFFFFFFFFFFFFFFFFFFFFFFFFFFFFFFFFFFFFFFFFFFFFFFFFFFFFF
310
FFFFFFFFFFFFFFFFFFFFFFFFFFFFFFFFFFFFFFFFFFFFFFFFFFFFFFFFFFFFFFFF
310
FFFFFFFFFFFFFFFFFFFFFFFFFFFFFFFFF000FFFFFFFFFFFFFFFFFFFFFFFFFFFF
310
FFFFFFFFFFFFFFFFFFFFFFFFFFFFFFFFFFFFFFFFFFFFFFFFFFFFFFFFFFFFFFFF
310
FFFFFFFFFFFFFFFFFFFFFFFFFFFFFFFFFFFFFFFFFFFFFFFFFFFFFFFFFFFFFFFF
310
FFFFFFFFFFFFFFFFF000FFFFFFFFFFFFFFFFFFFFFFFFFFFFFFFFFFFFFFFFFFFF
310
FFFFFFFFFFFFFFFFFFFFFFFFFFFFFFFFFFFFFFFFFFFFFFFFFFFFFFFFFFFFFFFF
310
FFFFFFFFFFFFFFFFFFFFFFFFFFFFFFFFFFFFFFFFFFFFFFFFFFFFFFFFFFFFFFFF
310
F000FFFFFFFFFFFFFFFFFFFFFFFFFFFFFFFFFFFFFFFFFFFFFFFFFFFFFFFFFFFF
310
FFFFFFFFFFFFFFFFFFFFFFFFFFFFFFFFFFFFFFFFFFFFFFFFFFFFFFFFFFFFFFFF
310
FFFFFFFFFFFFFFFFFFFFFFFFFFFFFFFFFFFFFFFFFFFFFFFFF000FFFFFFFFFFFF
310
FFFFFFFFFFFFFFFFFFFFFFFFFFFFFFFFFFFFFFFFFFFFFFFFFFFFFFFFFFFFFFFF
310
FFFFFFFFFFFFFFFFFFFFFFFFFFFFFFFFFFFFFFFFFFFFFFFFFFFFFFFFFFFFFFFF
310
FFFFFFFFFFFFFFFFFFFFFFFFFFFFFFFFF000FFFFFFFFFFFFFFFFFFFFFFFFFFFF
310
FFFFFFFFFFFFFFFFFFFFFFFFFFFFFFFFFFFFFFFFFFFFFFFFFFFFFFFFFFFFFFFF
310
FFFFFFFFFFFFFFFFFFFFFFFFFFFFFFFFFFFFFFFFFFFFFFFFFFFFFFFFFFFFFFFF
310
FFFFFFFFFFFFFFFFF000FFFFF80003FFFFFFFFFFFFFFFFFFFFFFFFFFFFFFFFFF
310
FFFFF00007FFFFFFFFFF00007FFFFFF800000000000000007FFFFFFFFFFFFFFF
310
FFFFFFFC001FFFFFFFFFFFFFFC001FFFFFFFFFFFFFFFFFFFFFFFFFFE0007FFFF
310
F000FFFF8000007FFFFFFFF8000FFFFFC0007FFFFF80007FFFFF0000007FFFFF
310
FFF8000007FFFFF800000000000000007FFFFFF0001FFFFFFFFFFFC00001FFFF
310
FFFFFFFFC00001FFFFFFFF000000000003FFFFE000007FFFF000FFFE0000000F
310
FFFFFFF0000FFFFF80007FFFFF80007FFFFC0000001FFFFFFFC0000001FFFFF8
310
00000000000000007FFFFFF0001FFFFFFFFFFE0000003FFFFFFFFFFE0000003F
310
FFFFFF000000000003FFFF0000000FFFF000FFF800000003FFFFFFF00007FFFF
310
80007FFFFF80007FFFF000000007FFFFFF000000003FFFF80000000000000000
310
7FFFFFF0001FFFFFFFFFF80000000FFFFFFFFFF80000000FFFFFFF0000000000
310
03FFFC00000003FFF000FFE000000000FFFFFFF00007FFFF80003FFFFF80007F
310
FFC000000001FFFFFC000000001FFFF800000000000000007FFFFFF0001FFFFF
310
FFFFE000000003FFFFFFFFE000000003FFFFFF000000000003FFF000000000FF
310
F000FF80000000007FFFFFF00007FFFF80003FFFFF80007FFF8000000000FFFF
310
F80000000007FFF800000000000000007FFFFFF0001FFFFFFFFFC000000001FF
310
FFFFFFC000000001FFFFFF000000000003FFC0000000007FF000FF0000000000
310
3FFFFFE00007FFFF00003FFFFF80007FFE00000000003FFFF00000000003FFF8
310
00000000000000007FFFFFF0001FFFFFFFFF8000000000FFFFFFFF8000000000
310
FFFFFF000000000003FF80000000003FF000FE00000000001FFFFFE00003FFFF
310
00003FFFFF80007FFC00000000001FFFE00000000001FFF8000001FFFE000000
310
7FFFFFF0001FFFFFFFFE00000000003FFFFFFE00000000003FFFFF0000000000
310
03FF00000000001FF000FC00000000000FFFFFE00003FFFF00001FFFFF80007F
310
F800000000001FFFC00000000000FFF8000001FFFE0000007FFFFFF0001FFFFF
310
FFFC00000000001FFFFFFC00000000001FFFFF000000000003FE00000000000F
310
F000F8000000000007FFFFE00003FFFF00001FFFFF80007FF800000000000FFF
310
800000000000FFF8000001FFFE0000007FFFFFF0001FFFFFFFF800000000000F
310
FFFFF800000000000FFFFF000000000003FC000000000007F000F80000000000
310
03FFFFC00003FFFE00001FFFFF80007FF0000000000007FF0000000000007FF8
310
000001FFFE0000007FFFFFF0001FFFFFFFF0000000000007FFFFF00000000000
310
07FFFF000000000003F8000000000003F000F0000000000003FFFFC00001FFFE
310
00001FFFFF80007FE0000000000007FE0000000000003FF8000001FFFE000000
310
7FFFFFF0001FFFFFFFF0000000000007FFFFF0000000000007FFFF0000000000
310
03F800001F800003F000E00001FFF00001FFFFC00001FFFE00000FFFFF80007F
310
E00001FFE00003FE00001FFF00003FF8000001FFFE0000007FFFFFF0001FFFFF
310
FFE000003E000003FFFFE000003E000003FFFF000000000003F00001FFF80001
310
F000E00007FFFC0001FFFFC00001FFFE00000FFFFF80007FC0000FFFFC0003FC
310
0000FFFFC0001FF8000001FFFE0000007FFFFFF0001FFFFFFFC00003FFE00001
310
FFFFC00003FFE00001FFFF0001FFFFFFFFF00007FFFE0001F000E0000FFFFF00
310
00FFFF800001FFFC00000FFFFF80007FC0001FFFFE0001FC0001FFFFE0001FF8
310
000001FFFE0000007FFFFFF0001FFFFFFF80000FFFF80000FFFF80000FFFF800
310
00FFFF0003FFFFFFFFE0000FFFFF8000F000C0003FFFFF8000FFFF800000FFFC
310
000007FFFF80007F80003FFFFF0001FC0003FFFFF0001FF8000001FFFE000000
310
7FFFFFF0001FFFFFFF80003FFFFE0000FFFF80003FFFFE0000FFFF0003FFFFFF
310
FFE0003FFFFF8000F000C0003FFFFF8000FFFF800000FFFC000007FFFF80007F
310
80007FFFFF8001F80007FFFFF8000FF8000001FFFE0000007FFFFFF0001FFFFF
310
FF00007FFFFF00007FFF00007FFFFF00007FFF0003FFFFFFFFE0003FFFFFC000
310
F000C0007FFFFFC000FFFF000000FFFC000007FFFF80007F8000FFFFFF8000F8
310
000FFFFFF8000FF8000001FFFE0000007FFFFFF0001FFFFFFF0000FFFFFF8000
310
7FFF0000FFFFFF80007FFF0003FFFFFFFFC0007FFFFFC00070008000FFFFFFC0
310
00FFFF000000FFF8000007FFFF80007F8000FFFFFF8000F8000FFFFFF8000FF8
310
000001FFFE0000007FFFFFF0001FFFFFFE0001FFFFFFC0003FFE0001FFFFFFC0
310
003FFF0003FFFFFFFFC0007FFFFFE00070008000FFFFFFC0007FFF0000007FF8
310
000003FFFF80007F0001FFFFFF8000F8000FFFFFF8000FF8000001FFFE000000
310
7FFFFFF0001FFFFFFE0001FFFFFFC0003FFE0001FFFFFFC0003FFF0003FFFFFF
310
FFC000FFFFFFE00070008000FFFFFFC0007FFF0000007FF8000003FFFF80007F
310
0001FFFFFF8000F8001FFFFFF8000FF8000001FFFE0000007FFFFFF0001FFFFF
310
FE0003FFFFFFE0003FFE0003FFFFFFE0003FFF0003FFFFFFFFC000FFFFFFE000
310
70008000FFFFFFC0007FFE0000007FF8000003FFFF80007F0001FFFFFF8000F0
310
001FFFFFF8000FF8000001FFFE0000007FFFFFF0001FFFFFFC0003FFFFFFE000
310
1FFC0003FFFFFFE0001FFF0003FFFFFFFFC000FFFFFFC00070008000FFFFFF80
310
007FFE0000007FF0000003FFFF80007F0001FFFFFF0000F0001FFFFFF8000FF8
310
000001FFFE0000007FFFFFF0001FFFFFFC0007FFFFFFF0001FFC0007FFFFFFF0
310
001FFF0003FFFFFFFFC000FFFFFFC00070008001FFFFFF0000FFFE0000003FF0
310
000001FFFF80007F0001FFFFFF0000F8001FFFFFF0000FF8000001FFFE000000
310
7FFFFFF0001FFFFFFC0007FFFFFFF0001FFC0007FFFFFFF0001FFF0003FFFFFF
310
FFC001FFFFFF80007000FFFFFFFFFE0000FFFE0008003FF0008001FFFF80007F
310
FFFFFFFFFC0000FFFFFFFFFFE0000FF8000001FFFE0000007FFFFFF0001FFFFF
310
F8000FFFFFFFF8000FF8000FFFFFFFF8000FFF0003FFFFFFFFFFFFFFFFFF0000
310
7000FFFFFFFFFC0000FFFC0008003FF0008001FFFF80007FFFFFFFFFF80001FF
310
FFFFFFFF80000FF8000001FFFE0000007FFFFFF0001FFFFFF8000FFFFFFFF800
310
0FF8000FFFFFFFF8000FFF0003FFFFFFFFFFFFFFFFFE0000F000FFFFFFFFE000
310
00FFFC000C003FE000C001FFFF80007FFFFFFFFFC00001FFFFFFFFFE00001FF8
310
000001FFFE0000007FFFFFF0001FFFFFF8000FFFFFFFF8000FF8000FFFFFFFF8
310
000FFF0003FFFFFFFFFFFFFFFFF00000F000FFFFFFFE000001FFFC000C001FE0
310
00C000FFFF80007FFFFFFFFE000001FFFFFFFFE000001FF80FFFFFFFFFFFFFC0
310
7FFFFFF0001FFFFFF8000FFFFFFFF8000FF8000FFFFFFFF8000FFF0003FFFFFF
310
FFFFFFFFFF800000F000FFFFFFC0000001FFFC001C001FE001C000FFFF80007F
310
FFFFFF80000003FFFFFFF80000001FF80FFFFFFFFFFFFFC07FFFFFF0001FFFFF
310
F8001FFFFFFFFC000FF8001FFFFFFFFC000FFF0003FFFFFFFFFFFFFFF0000001
310
F000FFFFF800000001FFF8001C001FE001C000FFFF80007FFFFFF800000003FF
310
FFFF800000003FF80FFFFFFFFFFFFFC07FFFFFF0001FFFFFF8001FFFFFFFFC00
310
0FF8001FFFFFFFFC000FFF0003FFFFFFFFFFFFFE00000001F000FFFFC0000000
310
03FFF8001E001FC001E000FFFF80007FFFFF8000000007FFFFFC000000003FF8
310
0FFFFFFFFFFFFFC07FFFFFF0001FFFFFF8001FFFFFFFFC000FF8001FFFFFFFFC
310
000FFF0003FFFFFFFFFFFFE000000003F000FFFE0000000007FFF8001E000FC0
310
01E0007FFF80007FFFFE0000000007FFFFE0000000007FF80FFFFFFFFFFFFFC0
310
7FFFFFF0001FFFFFF0001FFFFFFFFC0007F0001FFFFFFFFC0007FF0003FFFFFF
310
FFFFFF0000000003F000FFF80000000007FFF8001E000FC003E0007FFF80007F
310
FFF0000000000FFFFF8000000000FFF80FFFFFFFFFFFFFC07FFFFFF0001FFFFF
310
F0001FFFFFFFFC0007F0001FFFFFFFFC0007FF0003FFFFFFFFFFFC0000000007
310
F000FFE0000000000FFFF0003E000FC003E0007FFF80007FFFC0000000001FFF
310
FE0000000001FFF80FFFFFFFFFFFFFC07FFFFFF0001FFFFFF0001FFFFFFFFC00
310
07F0001FFFFFFFFC0007FF0003FFFFFFFFFFF0000000000FF000FFC000000000
310
1FFFF0003F000F8003F0003FFF80007FFF80000000003FFFF80000000003FFF8
310
0FFFFFFFFFFFFFC07FFFFFF0001FFFFFF0001FFFFFFFFC0007F0001FFFFFFFFC
310
0007FF0003FFFFFFFFFFE0000000001FF000FF00000000007FFFF0003F000780
310
03F0003FFF80007FFF00000000007FFFF00000000007FFF80FFFFFFFFFFFFFC0
310
7FFFFFF0001FFFFFF0001FFFFFFFFC0007F0001FFFFFFFFC0007FF0003FFFFFF
310
FFFF80000000007FF000FE0000000000FFFFE0003F00078007F0003FFF80007F
310
FE0000000001FFFFE0000000001FFFF80FFFFFFFFFFFFFC07FFFFFF0001FFFFF
310
F0001FFFFFFFFC0007F0001FFFFFFFFC0007FF0003FFFFFFFFFF0000000000FF
310
F000FC0000000003FFFFE0007F00078007F0003FFF80007FFC0000000007FFFF
310
C0000000007FFFF80FFFFFFFFFFFFFC07FFFFFF0001FFFFFF8001FFFFFFFFC00
310
0FF8001FFFFFFFFC000FFF0003FFFFFFFFFE0000000003FFF000FC000000000F
310
FFFFE0007F80070007F8001FFF80007FF8000000001FFFFF8000000001FFFFF8
310
0FFFFFFFFFFFFFC07FFFFFF0001FFFFFF8001FFFFFFFFC000FF8001FFFFFFFFC
310
000FFF0003FFFFFFFFFC000000000FFFF000F8000000007FFFFFE0007F800700
310
07F8001FFF80007FF000000000FFFFFF800000000FFFFFF80FFFFFFFFFFFFFC0
310
7FFFFFF0001FFFFFF8000FFFFFFFF8000FF8000FFFFFFFF8000FFF0003FFFFFF
310
FFFC000000007FFFF000F800000007FFFFFFC0007F8003000FF8001FFF80007F
310
F000000007FFFFFF000000007FFFFFF80FFFFFFFFFFFFFC07FFFFFF0001FFFFF
310
F8000FFFFFFFF8000FF8000FFFFFFFF8000FFF0003FFFFFFFFF80000000FFFFF
310
F000F0000000FFFFFFFFC000FF8003000FF8001FFF80007FE0000000FFFFFFFF
310
0000000FFFFFFFF8000001FFFE0000007FFFFFF0001FFFFFF8000FFFFFFFF800
310
0FF8000FFFFFFFF8000FFF0003FFFFFFFFF8000000FFFFFFF000F000000FFFFF
310
FFFFC000FFC002000FF8000FFF80007FE000001FFFFFFFFE000001FFFFFFFFF8
310
000001FFFE0000007FFFFFF0001FFFFFF8000FFFFFFFF8000FF8000FFFFFFFF8
310
000FFF0003FFFFFFFFF000001FFFFFFFF000E00000FFFFFFFFFFC000FFC00200
310
0FFC000FFF80007FE00001FFFFFFFFFE00001FFFFFFFFFF8000001FFFE000000
310
7FFFFFF0001FFFFFFC000FFFFFFFF8001FFC000FFFFFFFF8001FFF0003FFFFFF
310
FFF00001FFFFFFFFF000E00007FFFFFFFFFF8000FFC000001FFC000FFF80007F
310
C0000FFFFFFFFFFE0000FFFFFFFFFFF8000001FFFE0000007FFFFFF0001FFFFF
310
FC0007FFFFFFF0001FFC0007FFFFFFF0001FFF0003FFFFFFFFF00007FFFFFFFF
310
F000E0001FFFFFFFFFFF8000FFC000001FFC000FFF80007FC0003FFFFFFFFFFE
310
0001FFFFFFFFFFF8000001FFFE0000007FFFFFF0001FFFFFFC0007FFFFFFF000
310
1FFC0007FFFFFFF0001FFF0003FFFFFFFFF0001FFFFFFFFFF000E0003FFFFF00
310
03FF8001FFE000001FFC0007FF80007FC0007FFFFF0007FC0003FFFFF0003FF8
310
000001FFFE0000007FFFFFF0001FFFFFFC0003FFFFFFE0001FFC0003FFFFFFE0
310
001FFF0003FFFFFFFFF0003FFFFFFFFFF000E0003FFFFF0001FF8001FFE00000
310
1FFE0007FF80007FC0007FFFFE0003FC0007FFFFE0003FF8000001FFFE000000
310
7FFFFFF0001FFFFFFE0003FFFFFFE0003FFE0003FFFFFFE0003FFF0003FFFFFF
310
FFF0003FFFFF8001F000E0003FFFFF0001FF0001FFE000001FFE0007FF80007F
310
C0007FFFFE0003FC0007FFFFE0003FF8000001FFFE0000007FFFFFF0001FFFFF
310
FE0001FFFFFFC0003FFE0001FFFFFFC0003FFF0003FFFFFFFFF0003FFFFF0001
310
F000E0003FFFFF0003FF0001FFE000003FFE0007FF80007FC0007FFFFE0003FC
310
0007FFFFE0003FF8000001FFFE0000007FFFFFF0001FFFFFFF0001FFFFFFC000
310
7FFF0001FFFFFFC0007FFF0003FFFFFFFFF0003FFFFF0001F000E0003FFFFE00
310
03FF0003FFF000003FFE0003FF80007FC0007FFFFC0003FE0007FFFFE0003FF8
310
000001FFFE0000007FFFFFF0001FFFFFFF0000FFFFFF80007FFF0000FFFFFF80
310
007FFF0003FFFFFFFFF0003FFFFF0001F000E0003FFFFE0003FF0003FFF00000
310
3FFF0003FF80007FC0007FFFFC0007FE0007FFFFC0003FF8000001FFFE000000
310
7FFFFFF0001FFFFFFF80007FFFFF0000FFFF80007FFFFF0000FFFF0003FFFFFF
310
FFF0003FFFFF0003F000E0003FFFFC0003FE0003FFF000003FFF0003FF80007F
310
E0003FFFF80007FE0003FFFFC0007FF8000001FFFE0000007FFFFFF0001FFFFF
310
FF80003FFFFE0000FFFF80003FFFFE0000FFFF0003FFFFFFFFF0001FFFFE0003
310
F000F0001FFFF80003FE0003FFF000007FFF0001FF80007FE0003FFFF00007FE
310
0001FFFF80007FF8000001FFFE0000007FFFFFF0001FFFFFFFC0000FFFF80001
310
FFFFC0000FFFF80001FFFF0003FFFFFFFFF0001FFFFC0003F000F0000FFFF000
310
07FE0007FFF800007FFF0001FF80007FE0001FFFE00007FF0000FFFE00007FF8
310
000001FFFE0000007FFFFFF0001FFFFFFFC00003FFE00001FFFFC00003FFE000
310
01FFFF0003FFFFFFFFF8000FFFF80003F000F00003FFC00007FC0007FFF80000
310
7FFF8001FF80007FF00007FF80000FFF00007FF80000FFF8000001FFFE000000
310
7F80000000000001FFE000003E000003FFFFE000003E000003FFFF0003FFFFFF
310
FFF80003FFE00007F000F800000000000FFC0007FFF800007FFF8001FF80007F
310
F000000000000FFF000000000000FFF8000001FFFE0000007F80000000000001
310
FFF0000000000007FFFFF0000000000007FFFF0003FFFFFFFFFC00007E000007
310
F000F800000000000FFC0007FFF80000FFFF8000FF80007FF800000000001FFF
310
800000000001FFF8000001FFFE0000007F80000000000001FFF800000000000F
310
FFFFF800000000000FFFFF0003FFFFFFFFFC00000000000FF000FC0000000000
310
1FFC0007FFFC0000FFFF8000FF80007FF800000000003FFFC00000000001FFF8
310
000001FFFE0000007F80000000000001FFF800000000000FFFFFF80000000000
310
0FFFFF0003FFFFFFFFFE00000000001FF000FE00000000003FF8000FFFFC0000
310
FFFF8000FF80007FFC00000000003FFFC00000000003FFF8000001FFFE000000
310
7F80000000000001FFFC00000000001FFFFFFC00000000001FFFFF0003FFFFFF
310
FFFF00000000001FF000FF00000000003FF8000FFFFC0000FFFFC000FF80007F
310
FE00000000007FFFE00000000007FFF8000001FFFE0000007F80000000000001
310
FFFE00000000003FFFFFFE00000000003FFFFF0003FFFFFFFFFF80000000003F
310
F000FF80000000007FF8000FFFFC0001FFFFC0007F80007FFF0000000000FFFF
310
F0000000000FFFF800000000000000007F80000000000001FFFF8000000000FF
310
FFFFFF8000000000FFFFFF0003FFFFFFFFFFC0000000007FF000FFC000000000
310
FFF8000FFFFE0001FFFFC0007F80007FFF8000000001FFFFF8000000001FFFF8
310
00000000000000007F80000000000001FFFFC000000001FFFFFFFFC000000001
310
FFFFFF0003FFFFFFFFFFE000000000FFF000FFE000000003FFF0001FFFFE0001
310
FFFFC0007F80007FFFC000000007FFFFFE000000003FFFF80000000000000000
310
7F80000000000001FFFFE000000003FFFFFFFFE000000003FFFFFF0003FFFFFF
310
FFFFF000000003FFF000FFF80000000FFFF0001FFFFE0001FFFFE0007F80007F
310
FFF00000000FFFFFFF00000000FFFFF800000000000000007F80000000000001
310
FFFFF80000000FFFFFFFFFF80000000FFFFFFF0003FFFFFFFFFFFC0000000FFF
310
F000FFFE0000003FFFF0001FFFFE0003FFFFE0003F80007FFFFC0000003FFFFF
310
FFC0000003FFFFF800000000000000007F80000000000001FFFFFE0000003FFF
310
FFFFFFFE0000003FFFFFFF0003FFFFFFFFFFFF0000003FFFF000FFFF800000FF
310
FFF0001FFFFF0003FFFFE0003F80007FFFFF000001FFFFFFFFF800001FFFFFF8
310
00000000000000007F80000000000001FFFFFFC00001FFFFFFFFFFFFC00001FF
310
FFFFFF0003FFFFFFFFFFFFC00000FFFFF000FFFFF8000FFFFFFFFFFFFFFFFFFF
310
FFFFFFFFFFFFFFFFFFFFF0001FFFFFFFFFFF0000FFFFFFF80000000000000000
310
7FFFFFFFFFFFFFFFFFFFFFFC001FFFFFFFFFFFFFFC001FFFFFFFFFFFFFFFFFFF
310
FFFFFFFC001FFFFFF000FFFFFFFFFFFFFFFFFFFFFFFFFFFFFFFFFFFFFFFFFFFF
310
FFFFFFFFFFFFFFFFFFFFFFFFFFFFFFFFFFFFFFFFFFFFFFFFFFFFFFFFFFFFFFFF
310
FFFFFFFFFFFFFFFFFFFFFFFFFFFFFFFFFFFFFFFFFFFFFFFFFFFFFFFFFFFFFFFF
310
F000FFFFFFFFFFFFFFFFFFFFFFFFFFFFFFFFFFFFFFFFFFFFFFFFFFFFFFFFFFFF
310
FFFFFFFFFFFFFFFFFFFFFFFFFFFFFFFFFFFFFFFFFFFFFFFFFFFFFFFFFFFFFFFF
310
FFFFFFFFFFFFFFFFFFFFFFFFFFFFFFFFFFFFFFFFFFFFFFFFF000FFFFFFFFFFFF
310
FFFFFFFFFFFFFFFFFFFFFFFFFFFFFFFFFFFFFFFFFFFFFFFFFFFFFFFFFFFFFFFF
310
FFFFFFFFFFFFFFFFFFFFFFFFFFFFFFFFFFFFFFFFFFFFFFFFFFFFFFFFFFFFFFFF
310
FFFFFFFFFFFFFFFFFFFFFFFFFFFFFFFFF000FFFFFFFFFFFFFFFFFFFFFFFFFFFF
310
FFFFFFFFFFFFFFFFFFFFFFFFFFFFFFFFFFFFFFFFFFFFFFFFFFFFFFFFFFFFFFFF
310
FFFFFFFFFFFFFFFFFFFFFFFFFFFFFFFFFFFFFFFFFFFFFFFFFFFFFFFFFFFFFFFF
310
FFFFFFFFFFFFFFFFF000FFFFFFFFFFFFFFFFFFFFFFFFFFFFFFFFFFFFFFFFFFFF
310
FFFFFFFFFFFFFFFFFFFFFFFFFFFFFFFFFFFFFFFFFFFFFFFFFFFFFFFFFFFFFFFF
310
FFFFFFFFFFFFFFFFFFFFFFFFFFFFFFFFFFFFFFFFFFFFFFFFFFFFFFFFFFFFFFFF
310
F000FFFFFFFFFFFFFFFFFFFFFFFFFFFFFFFFFFFFFFFFFFFFFFFFFFFFFFFFFFFF
310
FFFFFFFFFFFFFFFFFFFFFFFFFFFFFFFFFFFFFFFFFFFFFFFFFFFFFFFFFFFFFFFF
310
FFFFFFFFFFFFFFFFFFFFFFFFFFFFFFFFFFFFFFFFFFFFFFFFF000FFFFFFFFFFFF
310
FFFFFFFFFFFFFFFFFFFFFFFFFFFFFFFFFFFFFFFFFFFFFFFFFFFFFFFFFFFFFFFF
310
FFFFFFFFFFFFFFFFFFFFFFFFFFFFFFFFFFFFFFFFFFFFFFFFFFFFFFFFFFFFFFFF
310
FFFFFFFFFFFFFFFFFFFFFFFFFFFFFFFFF000FFFFFFFFFFFFFFFFFFFFFFFFFFFF
310
FFFFFFFFFFFFFFFFFFFFFFFFFFFFFFFFFFFFFFFFFFFFFFFFFFFFFFFFFFFFFFFF
310
FFFFFFFFFFFFFFFFFFFFFFFFFFFFFFFFFFFFFFFFFFFFFFFFFFFFFFFFFFFFFFFF
310
FFFFFFFFFFFFFFFFF000FFFFFFFFFFFFFFFFFFFFFFFFFFFFFFFFFFFFFFFFFFFF
310
FFFFFFFFFFFFFFFFFFFFFFFFFFFFFFFFFFFFFFFFFFFFFFFFFFFFFFFFFFFFFFFF
310
FFFFFFFFFFFFFFFFFFFFFFFFFFFFFFFFFFFFFFFFFFFFFFFFFFFFFFFFFFFFFFFF
310
F000FFFFFFFFFFFFFFFFFFFFFFFFFFFFFFFFFFFFFFFFFFFFFFFFFFFFFFFFFFFF
310
FFFFFFFFFFFFFFFFFFFFFFFFFFFFFFFFFFFFFFFFFFFFFFFFFFFFFFFFFFFFFFFF
310
FFFFFFFFFFFFFFFFFFFFFFFFFFFFFFFFFFFFFFFFFFFFFFFFF000FFFFFFFFFFFF
310
FFFFFFFFFFFFFFFFFFFFFFFFFFFFFFFFFFFFFFFFFFFFFFFFFFFFFFFFFFFFFFFF
310
FFFFFFFFFFFFFFFFFFFFFFFFFFFFFFFFFFFFFFFFFFFFFFFFFFFFFFFFFFFFFFFF
310
FFFFFFFFFFFFFFFFFFFFFFFFFFFFFFFFF000FFFFFFFFFFFFFFFFFFFFFFFFFFFF
310
FFFFFFFFFFFFFFFFFFFFFFFFFFFFFFFFFFFFFFFFFFFFFFFFFFFFFFFFFFFFFFFF
310
FFFFFFFFFFFFFFFFFFFFFFFFFFFFFFFFFFFFFFFFFFFFFFFFFFFFFFFFFFFFFFFF
310
FFFFFFFFFFFFFFFFF000FFFFFFFFFFFFFFFFFFFFFFFFFFFFFFFFFFFFFFFFFFFF
310
FFFFFFFFFFFFFFFFFFFFFFFFFFFFFFFFFFFFFFFFFFFFFFFFFFFFFFFFFFFFFFFF
310
FFFFFFFFFFFFFFFFFFFFFFFFFFFFFFFFFFFFFFFFFFFFFFFFFFFFFFFFFFFFFFFF
310
F000FFFFFFFFFFFFFFFFFFFFFFFFFFFFFFFFFFFFFFFFFFFFFFFFFFFFFFFFFFFF
310
FFFFFFFFFFFFFFFFFFFFFFFFFFFFFFFFFFFFFFFFFFFFFFFFFFFFFFFFFFFFFFFF
310
FFFFFFFFFFFFFFFFFFFFFFFFFFFFFFFFFFFFFFFFFFFFFFFFF000FFFFFFFFFFFF
310
FFFFFFFFFFFFFFFFFFFFFFFFFFFFFFFFFFFFFFFFFFFFFFFFFFFFFFFFFFFFFFFF
310
FFFFFFFFFFFFFFFFFFFFFFFFFFFFFFFFFFFFFFFFFFFFFFFFFFFFFFFFFFFFFFFF
310
FFFFFFFFFFFFFFFFFFFFFFFFFFFFFFFFF000FFFFFFFFFFFFFFFFFFFFFFFFFFFF
310
FFFFFFFFFFFFFFFFFFFFFFFFFFFFFFFFFFFFFFFFFFFFFFFFFFFFFFFFFFFFFFFF
310
FFFFFFFFFFFFFFFFFFFFFFFFFFFFFFFFFFFFFFFFFFFFFFFFFFFFFFFFFFFFFFFF
310
FFFFFFFFFFFFFFFFF000FFFFFFFFFFFFFFFFFFFFFFFFFFFFFFFFFFFFFFFFFFFF
310
FFFFFFFFFFFFFFFFFFFFFFFFFFFFFFFFFFFFFFFFFFFFFFFFFFFFFFFFFFFFFFFF
310
FFFFFFFFFFFFFFFFFFFFFFFFFFFFFFFFFFFFFFFFFFFFFFFFFFFFFFFFFFFFFFFF
310
F000FFFFFFFFFFFFFFFFFFFFFFFFFFFFFFFFFFFFFFFFFFFFFFFFFFFFFFFFFFFF
310
FFFFFFFFFFFFFFFFFFFFFFFFFFFFFFFFFFFFFFFFFFFFFFFFFFFFFFFFFFFFFFFF
310
FFFFFFFFFFFFFFFFFFFFFFFFFFFFFFFFFFFFFFFFFFFFFFFFF000FFFFFFFFFFFF
310
FFFFFFFFFFFFFFFFFFFFFFFFFFFFFFFFFFFFFFFFFFFFFFFFFFFFFFFFFFFFFFFF
310
FFFFFFFFFFFFFFFFFFFFFFFFFFFFFFFFFFFFFFFFFFFFFFFFFFFFFFFFFFFFFFFF
310
FFFFFFFFFFFFFFFFFFFFFFFFFFFFFFFFF000FFFFFFFFFFFFFFFFFFFFFFFFFFFF
310
FFFFFFFFFFFFFFFFFFFFFFFFFFFFFFFFFFFFFFFFFFFFFFFFFFFFFFFFFFFFFFFF
310
FFFFFFFFFFFFFFFFFFFFFFFFFFFFFFFFFFFFFFFFFFFFFFFFFFFFFFFFFFFFFFFF
310
FFFFFFFFFFFFFFFFF000FFFFFFFFFFFFFFFFFFFFFFFFFFFFFFFFFFFFFFFFFFFF
310
FFFFFFFFFFFFFFFFFFFFFFFFFFFFFFFFFFFFFFFFFFFFFFFFFFFFFFFFFFFFFFFF
310
FFFFFFFFFFFFFFFFFFFFFFFFFFFFFFFFFFFFFFFFFFFFFFFFFFFFFFFFFFFFFFFF
310
F000FFFFFFFFFFFFFFFFFFFFFFFFFFFFFFFFFFFFFFFFFFFFFFFFFFFFFFFFFFFF
310
FFFFFFFFFFFFFFFFFFFFFFFFFFFFFFFFFFFFFFFFFFFFFFFFFFFFFFFFFFFFFFFF
310
FFFFFFFFFFFFFFFFFFFFFFFFFFFFFFFFFFFFFFFFFFFFFFFFF000FFFFFFFFFFFF
310
FFFFFFFFFFFFFFFFFFFFFFFFFFFFFFFFFFFFFFFFFFFFFFFFFFFFFFFFFFFFFFFF
310
FFFFFFFFFFFFFFFFFFFFFFFFFFFFFFFFFFFFFFFFFFFFFFFFFFFFFFFFFFFFFFFF
310
FFFFFFFFFFFFFFFFFFFFFFFFFFFFFFFFF0000000000000000000000000000000
310
0000000000000000000000000000000000000000000000000000000000000000
310
0000000000000000000000000000000000000000000000000000000000000000
310
0000000000000000000000000000000000000000000000000000000000000000
310
0000000000000000000000000000000000000000000000000000000000000000
310
0000000000000000000000000000000000000000000000000000000000000000
310
0000000000000000000000000000000000000000000000000000000000000000
310
0000000000000000000000000000000000000000000000000000000000000000
310
0000000000000000000000000000000000000000000000000000000000000000
310
0000000000000000000000000000000000000000000000000000000000000000
310
0000000000000000000000000000000000000000000000000000000000000000
310
0000000000000000000000000000000000000000000000000000000000000000
310
0000000000000000000000000000000000000000000000000000000000000000
310
0000000000000000000000000000000000000000000000000000000000000000
310
0000000000000000000000000000000000000000000000000000000000000000
310
0000000000000000000000000000000000000000000000000000000000000000
  1
OLE
  0
ENDSEC
  0
SECTION
  2
OBJECTS
  0
DICTIONARY
  5
C
330
0
100
AcDbDictionary
281
     1
  3
ACAD_GROUP
350
D
  3
ACAD_LAYOUT
350
1A
  3
ACAD_MLEADERSTYLE
350
234
  3
ACAD_MLINESTYLE
350
17
  3
ACAD_PLOTSETTINGS
350
19
  3
ACAD_PLOTSTYLENAME
350
E
  3
ACAD_TABLESTYLE
350
233
  3
ACAD_VISUALSTYLE
350
2A
  3
AcDbVariableDictionary
350
235
  0
DICTIONARY
  5
D
102
{ACAD_REACTORS
330
C
102
}
330
C
100
AcDbDictionary
281
     1
  0
DICTIONARY
  5
1A
102
{ACAD_REACTORS
330
C
102
}
330
C
100
AcDbDictionary
281
     1
  3
Layout1
350
1E
  3
Layout2
350
26
  3
Model
350
22
  0
DICTIONARY
  5
234
102
{ACAD_REACTORS
330
C
102
}
330
C
100
AcDbDictionary
281
     1
  0
DICTIONARY
  5
17
102
{ACAD_REACTORS
330
C
102
}
330
C
100
AcDbDictionary
281
     1
  3
Standard
350
18
  0
DICTIONARY
  5
19
102
{ACAD_REACTORS
330
C
102
}
330
C
100
AcDbDictionary
281
     1
  0
ACDBDICTIONARYWDFLT
  5
E
102
{ACAD_REACTORS
330
C
102
}
330
C
100
AcDbDictionary
281
     1
  3
Normal
350
F
100
AcDbDictionaryWithDefault
340
F
  0
DICTIONARY
  5
233
102
{ACAD_REACTORS
330
C
102
}
330
C
100
AcDbDictionary
281
     1
  0
DICTIONARY
  5
2A
102
{ACAD_REACTORS
330
C
102
}
330
C
100
AcDbDictionary
281
     1
  3
2dWireframe
350
2F
  3
3D Hidden
350
31
  3
3dWireframe
350
30
  3
Basic
350
32
  3
Brighten
350
36
  3
ColorChange
350
3A
  3
Conceptual
350
34
  3
Dim
350
35
  3
Facepattern
350
39
  3
Flat
350
2B
  3
FlatWithEdges
350
2C
  3
Gouraud
350
2D
  3
GouraudWithEdges
350
2E
  3
Linepattern
350
38
  3
Realistic
350
33
  3
Thicken
350
37
  0
DICTIONARY
  5
235
102
{ACAD_REACTORS
330
C
102
}
330
C
100
AcDbDictionary
281
     1
  3
PSOLHEIGHT
350
237
  3
PSOLWIDTH
350
236
  0
LAYOUT
  5
1E
102
{ACAD_REACTORS
330
1A
102
}
330
1A
100
AcDbPlotSettings
  1

  2
none_device
  4

  6

 40
0.0
 41
0.0
 42
0.0
 43
0.0
 44
0.0
 45
0.0
 46
0.0
 47
0.0
 48
0.0
 49
0.0
140
0.0
141
0.0
142
1.0
143
1.0
 70
   688
 72
     0
 73
     0
 74
     5
  7

 75
    16
147
1.0
148
0.0
149
0.0
100
AcDbLayout
  1
Layout1
 70
     1
 71
     1
 10
0.0
 20
0.0
 11
420.0
 21
297.0
 12
0.0
 22
0.0
 32
0.0
 14
1.0000000000E+20
 24
1.0000000000E+20
 34
1.0000000000E+20
 15
-1.0000000000E+20
 25
-1.0000000000E+20
 35
-1.0000000000E+20
146
0.0
 13
0.0
 23
0.0
 33
0.0
 16
1.0
 26
0.0
 36
0.0
 17
0.0
 27
1.0
 37
0.0
 76
     0
330
1B
  0
LAYOUT
  5
26
102
{ACAD_REACTORS
330
1A
102
}
330
1A
100
AcDbPlotSettings
  1

  2
none_device
  4

  6

 40
0.0
 41
0.0
 42
0.0
 43
0.0
 44
0.0
 45
0.0
 46
0.0
 47
0.0
 48
0.0
 49
0.0
140
0.0
141
0.0
142
1.0
143
1.0
 70
   688
 72
     0
 73
     0
 74
     5
  7

 75
    16
147
1.0
148
0.0
149
0.0
100
AcDbLayout
  1
Layout2
 70
     1
 71
     2
 10
0.0
 20
0.0
 11
0.0
 21
0.0
 12
0.0
 22
0.0
 32
0.0
 14
0.0
 24
0.0
 34
0.0
 15
0.0
 25
0.0
 35
0.0
146
0.0
 13
0.0
 23
0.0
 33
0.0
 16
1.0
 26
0.0
 36
0.0
 17
0.0
 27
1.0
 37
0.0
 76
     0
330
23
  0
LAYOUT
  5
22
102
{ACAD_REACTORS
330
1A
102
}
330
1A
100
AcDbPlotSettings
  1

  2
none_device
  4

  6

 40
0.0
 41
0.0
 42
0.0
 43
0.0
 44
0.0
 45
0.0
 46
0.0
 47
0.0
 48
0.0
 49
0.0
140
0.0
141
0.0
142
1.0
143
1.0
 70
  1712
 72
     0
 73
     0
 74
     0
  7

 75
     0
147
1.0
148
0.0
149
0.0
100
AcDbLayout
  1
Model
 70
     1
 71
     0
 10
0.0
 20
0.0
 11
297.0
 21
210.0
 12
0.0
 22
0.0
 32
0.0
 14
0.0
 24
0.0
 34
0.0
 15
297.0
 25
210.0
 35
0.0
146
0.0
 13
0.0
 23
0.0
 33
0.0
 16
1.0
 26
0.0
 36
0.0
 17
0.0
 27
1.0
 37
0.0
 76
     0
330
1F
331
29
  0
MLINESTYLE
  5
18
102
{ACAD_REACTORS
330
17
102
}
330
17
100
AcDbMlineStyle
  2
Standard
 70
     0
  3

 62
   256
 51
90.0
 52
90.0
 71
     2
 49
0.5
 62
   256
  6
BYLAYER
 49
-0.5
 62
   256
  6
BYLAYER
  0
ACDBPLACEHOLDER
  5
F
102
{ACAD_REACTORS
330
E
102
}
330
E
  0
VISUALSTYLE
  5
2F
102
{ACAD_REACTORS
330
2A
102
}
330
2A
100
AcDbVisualStyle
  2
2dWireframe
 70
     4
 71
     0
 72
     2
 73
     0
 90
        0
 40
-0.6
 41
-30.0
 62
     5
 63
     7
 74
     1
 91
        4
 64
     7
 65
   257
 75
     1
175
     1
 42
1.0
 92
        0
 66
   257
 43
1.0
 76
     1
 77
     6
 78
     2
 67
     7
 79
     5
170
     0
171
     0
290
     0
174
     0
 93
        1
 44
0.0
173
     0
291
     0
 45
0.0
1001
ACAD
1000
AcDbSavedByObjectVersion
1070
     0
  0
VISUALSTYLE
  5
31
102
{ACAD_REACTORS
330
2A
102
}
330
2A
100
AcDbVisualStyle
  2
3D Hidden
 70
     6
 71
     1
 72
     2
 73
     2
 90
        0
 40
-0.6
 41
-30.0
 62
     5
 63
     7
 74
     2
 91
        2
 64
     7
 65
   257
 75
     2
175
     1
 42
40.0
 92
        0
 66
   257
 43
1.0
 76
     1
 77
     6
 78
     2
 67
     7
 79
     3
170
     0
171
     0
290
     0
174
     0
 93
        1
 44
0.0
173
     0
291
     0
 45
0.0
1001
ACAD
1000
AcDbSavedByObjectVersion
1070
     0
  0
VISUALSTYLE
  5
30
102
{ACAD_REACTORS
330
2A
102
}
330
2A
100
AcDbVisualStyle
  2
3dWireframe
 70
     5
 71
     0
 72
     2
 73
     0
 90
        0
 40
-0.6
 41
-30.0
 62
     5
 63
     7
 74
     1
 91
        4
 64
     7
 65
   257
 75
     1
175
     1
 42
1.0
 92
        0
 66
   257
 43
1.0
 76
     1
 77
     6
 78
     2
 67
     7
 79
     5
170
     0
171
     0
290
     0
174
     0
 93
        1
 44
0.0
173
     0
291
     0
 45
0.0
1001
ACAD
1000
AcDbSavedByObjectVersion
1070
     0
  0
VISUALSTYLE
  5
32
102
{ACAD_REACTORS
330
2A
102
}
330
2A
100
AcDbVisualStyle
  2
Basic
 70
     7
 71
     1
 72
     0
 73
     1
 90
        0
 40
-0.6
 41
-30.0
 62
     5
 63
     7
 74
     0
 91
        4
 64
     7
 65
   257
 75
     1
175
     1
 42
1.0
 92
        8
 66
     7
 43
1.0
 76
     1
 77
     6
 78
     2
 67
     7
 79
     5
170
     0
171
     0
290
     0
174
     0
 93
        1
 44
0.0
173
     0
291
     1
 45
0.0
1001
ACAD
1000
AcDbSavedByObjectVersion
1070
     0
  0
VISUALSTYLE
  5
36
102
{ACAD_REACTORS
330
2A
102
}
330
2A
100
AcDbVisualStyle
  2
Brighten
 70
    12
 71
     2
 72
     2
 73
     0
 90
        0
 40
-0.6
 41
-30.0
 62
     5
 63
     7
 74
     1
 91
        4
 64
     7
 65
   257
 75
     1
175
     1
 42
1.0
 92
        8
 66
     7
 43
1.0
 76
     1
 77
     6
 78
     2
 67
     7
 79
     5
170
     0
171
     0
290
     0
174
     0
 93
        1
 44
50.0
173
     0
291
     1
 45
0.0
1001
ACAD
1000
AcDbSavedByObjectVersion
1070
     0
  0
VISUALSTYLE
  5
3A
102
{ACAD_REACTORS
330
2A
102
}
330
2A
100
AcDbVisualStyle
  2
ColorChange
 70
    16
 71
     2
 72
     2
 73
     3
 90
        0
 40
-0.6
 41
-30.0
 62
     5
 63
     8
 74
     1
 91
        4
 64
     7
 65
   257
 75
     1
175
     1
 42
1.0
 92
        8
 66
     8
 43
1.0
 76
     1
 77
     6
 78
     2
 67
     7
 79
     5
170
     0
171
     0
290
     0
174
     0
 93
        1
 44
0.0
173
     0
291
     1
 45
0.0
1001
ACAD
1000
AcDbSavedByObjectVersion
1070
     0
  0
VISUALSTYLE
  5
34
102
{ACAD_REACTORS
330
2A
102
}
330
2A
100
AcDbVisualStyle
  2
Conceptual
 70
     9
 71
     3
 72
     2
 73
     0
 90
        0
 40
-0.6
 41
-30.0
 62
     5
 63
     7
 74
     2
 91
        2
 64
     7
 65
   257
 75
     1
175
     1
 42
40.0
 92
        8
 66
     7
 43
1.0
 76
     1
 77
     6
 78
     2
 67
     7
 79
     3
170
     0
171
     0
290
     0
174
     0
 93
        1
 44
0.0
173
     0
291
     0
 45
0.0
1001
ACAD
1000
AcDbSavedByObjectVersion
1070
     0
  0
VISUALSTYLE
  5
35
102
{ACAD_REACTORS
330
2A
102
}
330
2A
100
AcDbVisualStyle
  2
Dim
 70
    11
 71
     2
 72
     2
 73
     0
 90
        0
 40
-0.6
 41
-30.0
 62
     5
 63
     7
 74
     1
 91
        4
 64
     7
 65
   257
 75
     1
175
     1
 42
1.0
 92
        8
 66
     7
 43
1.0
 76
     1
 77
     6
 78
     2
 67
     7
 79
     5
170
     0
171
     0
290
     0
174
     0
 93
        1
 44
-50.0
173
     0
291
     1
 45
0.0
1001
ACAD
1000
AcDbSavedByObjectVersion
1070
     0
  0
VISUALSTYLE
  5
39
102
{ACAD_REACTORS
330
2A
102
}
330
2A
100
AcDbVisualStyle
  2
Facepattern
 70
    15
 71
     2
 72
     2
 73
     0
 90
        0
 40
-0.6
 41
-30.0
 62
     5
 63
     7
 74
     1
 91
        4
 64
     7
 65
   257
 75
     1
175
     1
 42
1.0
 92
        8
 66
     7
 43
1.0
 76
     1
 77
     6
 78
     2
 67
     7
 79
     5
170
     0
171
     0
290
     0
174
     0
 93
        1
 44
0.0
173
     0
291
     1
 45
0.0
1001
ACAD
1000
AcDbSavedByObjectVersion
1070
     0
  0
VISUALSTYLE
  5
2B
102
{ACAD_REACTORS
330
2A
102
}
330
2A
100
AcDbVisualStyle
  2
Flat
 70
     0
 71
     2
 72
     1
 73
     1
 90
        2
 40
-0.6
 41
30.0
 62
     5
 63
     7
 74
     0
 91
        4
 64
     7
 65
   257
 75
     1
175
     1
 42
1.0
 92
        8
 66
     7
 43
1.0
 76
     1
 77
     6
 78
     2
 67
     7
 79
     5
170
     0
171
     0
290
     0
174
     0
 93
       13
 44
0.0
173
     0
291
     1
 45
0.0
1001
ACAD
1000
AcDbSavedByObjectVersion
1070
     0
  0
VISUALSTYLE
  5
2C
102
{ACAD_REACTORS
330
2A
102
}
330
2A
100
AcDbVisualStyle
  2
FlatWithEdges
 70
     1
 71
     2
 72
     1
 73
     1
 90
        2
 40
-0.6
 41
30.0
 62
     5
 63
     7
 74
     1
 91
        4
 64
     7
 65
   257
 75
     1
175
     1
 42
1.0
 92
        0
 66
   257
 43
1.0
 76
     1
 77
     6
 78
     2
 67
     7
 79
     5
170
     0
171
     0
290
     0
174
     0
 93
       13
 44
0.0
173
     0
291
     1
 45
0.0
1001
ACAD
1000
AcDbSavedByObjectVersion
1070
     0
  0
VISUALSTYLE
  5
2D
102
{ACAD_REACTORS
330
2A
102
}
330
2A
100
AcDbVisualStyle
  2
Gouraud
 70
     2
 71
     2
 72
     2
 73
     1
 90
        2
 40
-0.6
 41
30.0
 62
     5
 63
     7
 74
     0
 91
        4
 64
     7
 65
   257
 75
     1
175
     1
 42
1.0
 92
        0
 66
     7
 43
1.0
 76
     1
 77
     6
 78
     2
 67
     7
 79
     5
170
     0
171
     0
290
     0
174
     0
 93
       13
 44
0.0
173
     0
291
     1
 45
0.0
1001
ACAD
1000
AcDbSavedByObjectVersion
1070
     0
  0
VISUALSTYLE
  5
2E
102
{ACAD_REACTORS
330
2A
102
}
330
2A
100
AcDbVisualStyle
  2
GouraudWithEdges
 70
     3
 71
     2
 72
     2
 73
     1
 90
        2
 40
-0.6
 41
30.0
 62
     5
 63
     7
 74
     1
 91
        4
 64
     7
 65
   257
 75
     1
175
     1
 42
1.0
 92
        0
 66
   257
 43
1.0
 76
     1
 77
     6
 78
     2
 67
     7
 79
     5
170
     0
171
     0
290
     0
174
     0
 93
       13
 44
0.0
173
     0
291
     1
 45
0.0
1001
ACAD
1000
AcDbSavedByObjectVersion
1070
     0
  0
VISUALSTYLE
  5
38
102
{ACAD_REACTORS
330
2A
102
}
330
2A
100
AcDbVisualStyle
  2
Linepattern
 70
    14
 71
     2
 72
     2
 73
     0
 90
        0
 40
-0.6
 41
-30.0
 62
     5
 63
     7
 74
     1
 91
        4
 64
     7
 65
   257
 75
     7
175
     7
 42
1.0
 92
        8
 66
     7
 43
1.0
 76
     1
 77
     6
 78
     2
 67
     7
 79
     5
170
     0
171
     0
290
     0
174
     0
 93
        1
 44
0.0
173
     0
291
     1
 45
0.0
1001
ACAD
1000
AcDbSavedByObjectVersion
1070
     0
  0
VISUALSTYLE
  5
33
102
{ACAD_REACTORS
330
2A
102
}
330
2A
100
AcDbVisualStyle
  2
Realistic
 70
     8
 71
     2
 72
     2
 73
     0
 90
        0
 40
-0.6
 41
-30.0
 62
     5
 63
     7
 74
     1
 91
        0
 64
     7
 65
   257
 75
     1
175
     1
 42
1.0
 92
        8
 66
     8
 43
1.0
 76
     1
 77
     6
 78
     2
 67
     7
 79
     5
170
     0
171
     0
290
     0
174
     0
 93
       13
 44
0.0
173
     0
291
     0
 45
0.0
1001
ACAD
1000
AcDbSavedByObjectVersion
1070
     0
  0
VISUALSTYLE
  5
37
102
{ACAD_REACTORS
330
2A
102
}
330
2A
100
AcDbVisualStyle
  2
Thicken
 70
    13
 71
     2
 72
     2
 73
     0
 90
        0
 40
-0.6
 41
-30.0
 62
     5
 63
     7
 74
     1
 91
        4
 64
     7
 65
   257
 75
     1
175
     1
 42
1.0
 92
       12
 66
     7
 43
1.0
 76
     1
 77
     6
 78
     2
 67
     7
 79
     5
170
     0
171
     0
290
     0
174
     0
 93
        1
 44
0.0
173
     0
291
     1
 45
0.0
1001
ACAD
1000
AcDbSavedByObjectVersion
1070
     0
  0
DICTIONARYVAR
  5
237
102
{ACAD_REACTORS
330
235
102
}
330
235
100
DictionaryVariables
280
     0
  1
80.000000
  0
DICTIONARYVAR
  5
236
102
{ACAD_REACTORS
330
235
102
}
330
235
100
DictionaryVariables
280
     0
  1
5.000000
  0
ENDSEC
  0
EOF
