  0
SECTION
  2
HEADER
  9
$ACADVER
  1
AC1015
  9
$ACADMAINTVER
 70
     6
  9
$DWGCODEPAGE
  3
ANSI_1252
  9
$INSBASE
 10
0.0
 20
0.0
 30
0.0
  9
$EXTMIN
 10
0.0
 20
0.0
 30
0.0
  9
$EXTMAX
 10
297.0
 20
210.0
 30
0.0
  9
$LIMMIN
 10
0.0
 20
0.0
  9
$LIMMAX
 10
297.0
 20
210.0
  9
$ORTHOMODE
 70
     0
  9
$REGENMODE
 70
     1
  9
$FILLMODE
 70
     1
  9
$QTEXTMODE
 70
     0
  9
$MIRRTEXT
 70
     1
  9
$LTSCALE
 40
1.0
  9
$ATTMODE
 70
     1
  9
$TEXTSIZE
 40
2.0
  9
$TRACEWID
 40
1.0
  9
$TEXTSTYLE
  7
Standard
  9
$CLAYER
  8
0
  9
$CELTYPE
  6
ByLayer
  9
$CECOLOR
 62
   256
  9
$CELTSCALE
 40
1.0
  9
$DISPSILH
 70
     0
  9
$DIMSCALE
 40
1.0
  9
$DIMASZ
 40
3.0
  9
$DIMEXO
 40
0.0
  9
$DIMDLI
 40
3.75
  9
$DIMRND
 40
0.0
  9
$DIMDLE
 40
0.0
  9
$DIMEXE
 40
1.0
  9
$DIMTP
 40
0.0
  9
$DIMTM
 40
0.0
  9
$DIMTXT
 40
2.0
  9
$DIMCEN
 40
2.5
  9
$DIMTSZ
 40
0.0
  9
$DIMTOL
 70
     0
  9
$DIMLIM
 70
     0
  9
$DIMTIH
 70
     1
  9
$DIMTOH
 70
     1
  9
$DIMSE1
 70
     0
  9
$DIMSE2
 70
     0
  9
$DIMTAD
 70
     1
  9
$DIMZIN
 70
     0
  9
$DIMBLK
  1

  9
$DIMASO
 70
     1
  9
$DIMSHO
 70
     1
  9
$DIMPOST
  1

  9
$DIMAPOST
  1

  9
$DIMALT
 70
     0
  9
$DIMALTD
 70
     3
  9
$DIMALTF
 40
0.0393700787
  9
$DIMLFAC
 40
1.0
  9
$DIMTOFL
 70
     1
  9
$DIMTVP
 40
0.0
  9
$DIMTIX
 70
     0
  9
$DIMSOXD
 70
     0
  9
$DIMSAH
 70
     0
  9
$DIMBLK1
  1

  9
$DIMBLK2
  1

  9
$DIMSTYLE
  2
ISO-25
  9
$DIMCLRD
 70
     0
  9
$DIMCLRE
 70
     0
  9
$DIMCLRT
 70
     0
  9
$DIMTFAC
 40
1.0
  9
$DIMGAP
 40
1.524
  9
$DIMJUST
 70
     0
  9
$DIMSD1
 70
     0
  9
$DIMSD2
 70
     0
  9
$DIMTOLJ
 70
     0
  9
$DIMTZIN
 70
     0
  9
$DIMALTZ
 70
     0
  9
$DIMALTTZ
 70
     0
  9
$DIMUPT
 70
     0
  9
$DIMDEC
 70
     2
  9
$DIMTDEC
 70
     3
  9
$DIMALTU
 70
     2
  9
$DIMALTTD
 70
     3
  9
$DIMTXSTY
  7
Standard
  9
$DIMAUNIT
 70
     0
  9
$DIMADEC
 70
     2
  9
$DIMALTRND
 40
0.0
  9
$DIMAZIN
 70
     0
  9
$DIMDSEP
 70
    44
  9
$DIMATFIT
 70
     3
  9
$DIMFRAC
 70
     0
  9
$DIMLDRBLK
  1

  9
$DIMLUNIT
 70
     2
  9
$DIMLWD
 70
    -2
  9
$DIMLWE
 70
    -2
  9
$DIMTMOVE
 70
     0
  9
$LUNITS
 70
     2
  9
$LUPREC
 70
     2
  9
$SKETCHINC
 40
1.0
  9
$FILLETRAD
 40
10.0
  9
$AUNITS
 70
     0
  9
$AUPREC
 70
     2
  9
$MENU
  1
.
  9
$ELEVATION
 40
0.0
  9
$PELEVATION
 40
0.0
  9
$THICKNESS
 40
0.0
  9
$LIMCHECK
 70
     0
  9
$CHAMFERA
 40
10.0
  9
$CHAMFERB
 40
10.0
  9
$CHAMFERC
 40
20.0
  9
$CHAMFERD
 40
0.0
  9
$SKPOLY
 70
     0
  9
$TDCREATE
 40
2455679.367305127
  9
$TDUCREATE
 40
2455679.283971794
  9
$TDUPDATE
 40
2455679.367305139
  9
$TDUUPDATE
 40
2455679.283971806
  9
$TDINDWG
 40
0.0000000116
  9
$TDUSRTIMER
 40
0.0000000116
  9
$USRTIMER
 70
     1
  9
$ANGBASE
 50
0.0
  9
$ANGDIR
 70
     0
  9
$PDMODE
 70
     0
  9
$PDSIZE
 40
-1.0
  9
$PLINEWID
 40
0.0
  9
$SPLFRAME
 70
     0
  9
$SPLINETYPE
 70
     6
  9
$SPLINESEGS
 70
     8
  9
$HANDSEED
  5
1B5
  9
$SURFTAB1
 70
     6
  9
$SURFTAB2
 70
     6
  9
$SURFTYPE
 70
     6
  9
$SURFU
 70
     6
  9
$SURFV
 70
     6
  9
$UCSBASE
  2

  9
$UCSNAME
  2

  9
$UCSORG
 10
0.0
 20
0.0
 30
0.0
  9
$UCSXDIR
 10
1.0
 20
0.0
 30
0.0
  9
$UCSYDIR
 10
0.0
 20
1.0
 30
0.0
  9
$UCSORTHOREF
  2

  9
$UCSORTHOVIEW
 70
     0
  9
$UCSORGTOP
 10
0.0
 20
0.0
 30
0.0
  9
$UCSORGBOTTOM
 10
0.0
 20
0.0
 30
0.0
  9
$UCSORGLEFT
 10
0.0
 20
0.0
 30
0.0
  9
$UCSORGRIGHT
 10
0.0
 20
0.0
 30
0.0
  9
$UCSORGFRONT
 10
0.0
 20
0.0
 30
0.0
  9
$UCSORGBACK
 10
0.0
 20
0.0
 30
0.0
  9
$PUCSBASE
  2

  9
$PUCSNAME
  2

  9
$PUCSORG
 10
0.0
 20
0.0
 30
0.0
  9
$PUCSXDIR
 10
1.0
 20
0.0
 30
0.0
  9
$PUCSYDIR
 10
0.0
 20
1.0
 30
0.0
  9
$PUCSORTHOREF
  2

  9
$PUCSORTHOVIEW
 70
     0
  9
$PUCSORGTOP
 10
0.0
 20
0.0
 30
0.0
  9
$PUCSORGBOTTOM
 10
0.0
 20
0.0
 30
0.0
  9
$PUCSORGLEFT
 10
0.0
 20
0.0
 30
0.0
  9
$PUCSORGRIGHT
 10
0.0
 20
0.0
 30
0.0
  9
$PUCSORGFRONT
 10
0.0
 20
0.0
 30
0.0
  9
$PUCSORGBACK
 10
0.0
 20
0.0
 30
0.0
  9
$USERI1
 70
     0
  9
$USERI2
 70
     0
  9
$USERI3
 70
     0
  9
$USERI4
 70
     0
  9
$USERI5
 70
     0
  9
$USERR1
 40
0.0
  9
$USERR2
 40
0.0
  9
$USERR3
 40
0.0
  9
$USERR4
 40
0.0
  9
$USERR5
 40
0.0
  9
$WORLDVIEW
 70
     1
  9
$SHADEDGE
 70
     3
  9
$SHADEDIF
 70
    70
  9
$TILEMODE
 70
     1
  9
$MAXACTVP
 70
    64
  9
$PINSBASE
 10
0.0
 20
0.0
 30
0.0
  9
$PLIMCHECK
 70
     0
  9
$PEXTMIN
 10
1.0000000000E+20
 20
1.0000000000E+20
 30
1.0000000000E+20
  9
$PEXTMAX
 10
-1.0000000000E+20
 20
-1.0000000000E+20
 30
-1.0000000000E+20
  9
$PLIMMIN
 10
0.0
 20
0.0
  9
$PLIMMAX
 10
420.0
 20
297.0
  9
$UNITMODE
 70
     0
  9
$VISRETAIN
 70
     1
  9
$PLINEGEN
 70
     0
  9
$PSLTSCALE
 70
     1
  9
$TREEDEPTH
 70
  3020
  9
$CMLSTYLE
  2
Standard
  9
$CMLJUST
 70
     0
  9
$CMLSCALE
 40
20.0
  9
$PROXYGRAPHICS
 70
     1
  9
$MEASUREMENT
 70
     1
  9
$CELWEIGHT
370
    -1
  9
$ENDCAPS
280
     0
  9
$JOINSTYLE
280
     0
  9
$LWDISPLAY
290
     1
  9
$INSUNITS
 70
     4
  9
$HYPERLINKBASE
  1

  9
$STYLESHEET
  1

  9
$XEDIT
290
     1
  9
$CEPSNTYPE
380
     0
  9
$PSTYLEMODE
290
     1
  9
$FINGERPRINTGUID
  2
{120A1D1B-9496-4694-B71C-459B8D848EBB}
  9
$VERSIONGUID
  2
{FAEB1C32-E019-11D5-929B-00C0DF256EC4}
  9
$EXTNAMES
290
     1
  9
$PSVPSCALE
 40
0.0
  9
$OLESTARTUP
290
     0
  0
ENDSEC
  0
SECTION
  2
CLASSES
  0
CLASS
  1
ACDBDICTIONARYWDFLT
  2
AcDbDictionaryWithDefault
  3
ObjectDBX Classes
 90
        0
280
     0
281
     0
  0
CLASS
  1
VISUALSTYLE
  2
AcDbVisualStyle
  3
ObjectDBX Classes
 90
     4095
280
     0
281
     0
  0
CLASS
  1
DICTIONARYVAR
  2
AcDbDictionaryVar
  3
ObjectDBX Classes
 90
        0
280
     0
281
     0
  0
CLASS
  1
ACDBPLACEHOLDER
  2
AcDbPlaceHolder
  3
ObjectDBX Classes
 90
        0
280
     0
281
     0
  0
CLASS
  1
LAYOUT
  2
AcDbLayout
  3
ObjectDBX Classes
 90
        0
280
     0
281
     0
  0
ENDSEC
  0
SECTION
  2
TABLES
  0
TABLE
  2
VPORT
  5
8
330
0
100
AcDbSymbolTable
 70
     1
  0
VPORT
  5
29
330
8
100
AcDbSymbolTableRecord
100
AcDbViewportTableRecord
  2
*Active
 70
     0
 10
0.0
 20
0.0
 11
1.0
 21
1.0
 12
148.5
 22
105.0
 13
0.0
 23
0.0
 14
10.0
 24
10.0
 15
10.0
 25
10.0
 16
0.0
 26
0.0
 36
1.0
 17
0.0
 27
0.0
 37
0.0
 40
210.0
 41
1.4142857143
 42
50.0
 43
0.0
 44
0.0
 50
0.0
 51
0.0
 71
     0
 72
  2000
 73
     1
 74
     3
 75
     0
 76
     0
 77
     0
 78
     0
281
     0
 65
     1
110
0.0
120
0.0
130
0.0
111
1.0
121
0.0
131
0.0
112
0.0
122
1.0
132
0.0
 79
     0
146
0.0
  0
ENDTAB
  0
TABLE
  2
LTYPE
  5
5
330
0
100
AcDbSymbolTable
 70
     6
  0
LTYPE
  5
14
330
5
100
AcDbSymbolTableRecord
100
AcDbLinetypeTableRecord
  2
ByBlock
 70
     0
  3

 72
    65
 73
     0
 40
0.0
  0
LTYPE
  5
15
330
5
100
AcDbSymbolTableRecord
100
AcDbLinetypeTableRecord
  2
ByLayer
 70
     0
  3

 72
    65
 73
     0
 40
0.0
  0
LTYPE
  5
16
330
5
100
AcDbSymbolTableRecord
100
AcDbLinetypeTableRecord
  2
Continuous
 70
     0
  3
Solid line
 72
    65
 73
     0
 40
0.0
  0
LTYPE
  5
3B
330
5
100
AcDbSymbolTableRecord
100
AcDbLinetypeTableRecord
  2
HIDDEN
 70
     0
  3
Hidden __ __ __ __ __ __ __ __ __ __ __ __ __ __
 72
    65
 73
     2
 40
1.905
 49
1.27
 74
     0
 49
-0.635
 74
     0
  0
LTYPE
  5
3C
330
5
100
AcDbSymbolTableRecord
100
AcDbLinetypeTableRecord
  2
PHANTOM
 70
     0
  3
Phantom ______  __  __  ______  __  __  ______
 72
    65
 73
     6
 40
12.7
 49
6.35
 74
     0
 49
-1.27
 74
     0
 49
1.27
 74
     0
 49
-1.27
 74
     0
 49
1.27
 74
     0
 49
-1.27
 74
     0
  0
LTYPE
  5
3D
330
5
100
AcDbSymbolTableRecord
100
AcDbLinetypeTableRecord
  2
CENTER
 70
     0
  3
Center ____ _ ____ _ ____ _ ____ _ ____ _ ____
 72
    65
 73
     4
 40
10.16
 49
6.35
 74
     0
 49
-1.27
 74
     0
 49
1.27
 74
     0
 49
-1.27
 74
     0
  0
LTYPE
  5
3E
330
5
100
AcDbSymbolTableRecord
100
AcDbLinetypeTableRecord
  2
CENTERX2
 70
     0
  3
Center (2x) ________  __  ________  __  _____
 72
    65
 73
     4
 40
20.32
 49
12.7
 74
     0
 49
-2.54
 74
     0
 49
2.54
 74
     0
 49
-2.54
 74
     0
  0
LTYPE
  5
3F
330
5
100
AcDbSymbolTableRecord
100
AcDbLinetypeTableRecord
  2
DOT2
 70
     0
  3
Dot (.5x) ........................................
 72
    65
 73
     2
 40
0.635
 49
0.0
 74
     0
 49
-0.635
 74
     0
  0
ENDTAB
  0
TABLE
  2
LAYER
  5
2
330
0
100
AcDbSymbolTable
 70
     5
  0
LAYER
  5
10
330
2
100
AcDbSymbolTableRecord
100
AcDbLayerTableRecord
  2
0
 70
     0
 62
     7
  6
Continuous
370
    -3
390
F
  0
LAYER
  5
40
330
2
100
AcDbSymbolTableRecord
100
AcDbLayerTableRecord
  2
FORMAT
 70
     0
 62
     7
  6
Continuous
370
    -3
390
F
  0
LAYER
  5
41
330
2
100
AcDbSymbolTableRecord
100
AcDbLayerTableRecord
  2
VERMASSUNG
 70
     0
 62
     7
  6
Continuous
370
    -3
390
F
  0
LAYER
  5
42
330
2
100
AcDbSymbolTableRecord
100
AcDbLayerTableRecord
  2
KOPF_DÜNN
 70
     0
 62
     7
  6
Continuous
370
    -3
390
F
  0
LAYER
  5
43
330
2
100
AcDbSymbolTableRecord
100
AcDbLayerTableRecord
  2
KOPF_DICK
 70
     0
 62
     7
  6
Continuous
370
    15
390
F
  0
ENDTAB
  0
TABLE
  2
STYLE
  5
3
330
0
100
AcDbSymbolTable
 70
     3
  0
STYLE
  5
11
330
3
100
AcDbSymbolTableRecord
100
AcDbTextStyleTableRecord
  2
Standard
 70
     0
 40
0.0
 41
1.0
 50
0.0
 71
     0
 42
2.5
  3
txt
  4

  0
STYLE
  5
44
330
3
100
AcDbSymbolTableRecord
100
AcDbTextStyleTableRecord
  2
SLDTEXTSTYLE0
 70
     0
 40
0.0
 41
0.7
 50
0.0
 71
     0
 42
0.2
  3
TXT
  4

  0
STYLE
  5
48
330
3
100
AcDbSymbolTableRecord
100
AcDbTextStyleTableRecord
  2
SLDTEXTSTYLE1
 70
     0
 40
0.0
 41
0.6473684211
 50
0.0
 71
     0
 42
0.2
  3
TXT
  4

  0
ENDTAB
  0
TABLE
  2
VIEW
  5
6
330
0
100
AcDbSymbolTable
 70
     0
  0
ENDTAB
  0
TABLE
  2
UCS
  5
7
330
0
100
AcDbSymbolTable
 70
     0
  0
ENDTAB
  0
TABLE
  2
APPID
  5
9
330
0
100
AcDbSymbolTable
 70
     1
  0
APPID
  5
12
330
9
100
AcDbSymbolTableRecord
100
AcDbRegAppTableRecord
  2
ACAD
 70
     0
  0
ENDTAB
  0
TABLE
  2
DIMSTYLE
  5
A
330
0
100
AcDbSymbolTable
 70
     5
100
AcDbDimStyleTable
  0
DIMSTYLE
105
27
330
A
100
AcDbSymbolTableRecord
100
AcDbDimStyleTableRecord
  2
ISO-25
 70
     0
 41
2.5
 42
0.625
 43
3.75
 44
1.25
 73
     0
 74
     0
 77
     1
 78
     8
140
2.5
141
2.5
143
0.0393700787
147
0.625
171
     3
172
     1
271
     2
272
     2
274
     3
278
    44
283
     0
284
     8
340
11
  0
DIMSTYLE
105
156
102
{ACAD_REACTORS
330
155
330
190
330
19A
330
1A4
102
}
330
A
100
AcDbSymbolTableRecord
100
AcDbDimStyleTableRecord
  2
SLDDIMSTYLE0
 70
     0
 41
3.0
 44
0.0
 45
0.000000001
 73
     0
 74
     0
 77
     1
 78
    12
140
2.0
147
0.5
173
     1
271
     2
272
     3
284
    12
340
44
  0
DIMSTYLE
105
163
102
{ACAD_REACTORS
330
162
102
}
330
A
100
AcDbSymbolTableRecord
100
AcDbDimStyleTableRecord
  2
SLDDIMSTYLE1
 70
     0
 41
3.0
 44
0.0
 45
0.000000001
 73
     0
 74
     0
 77
     1
 78
    12
140
2.0
147
0.5
173
     1
271
     2
272
     2
284
    12
340
44
  0
DIMSTYLE
105
16E
102
{ACAD_REACTORS
330
16D
102
}
330
A
100
AcDbSymbolTableRecord
100
AcDbDimStyleTableRecord
  2
SLDDIMSTYLE2
 70
     0
 41
3.0
 44
0.0
 45
0.000000001
 73
     0
 74
     0
 77
     1
 78
    12
140
2.0
147
0.5
173
     1
271
     2
272
     2
284
    12
340
44
  0
DIMSTYLE
105
17A
102
{ACAD_REACTORS
330
179
330
185
102
}
330
A
100
AcDbSymbolTableRecord
100
AcDbDimStyleTableRecord
  2
SLDDIMSTYLE3
 70
     0
 41
3.0
 44
0.0
 45
0.000000001
 73
     0
 74
     0
 77
     1
 78
    12
140
2.0
147
0.5
173
     1
271
     2
272
     3
284
    12
340
44
  0
ENDTAB
  0
TABLE
  2
BLOCK_RECORD
  5
1
330
0
100
AcDbSymbolTable
 70
     9
  0
BLOCK_RECORD
  5
1F
330
1
100
AcDbSymbolTableRecord
100
AcDbBlockTableRecord
  2
*Model_Space
340
22
  0
BLOCK_RECORD
  5
1B
330
1
100
AcDbSymbolTableRecord
100
AcDbBlockTableRecord
  2
*Paper_Space
340
1E
  0
BLOCK_RECORD
  5
23
330
1
100
AcDbSymbolTableRecord
100
AcDbBlockTableRecord
  2
*Paper_Space0
340
26
  0
BLOCK_RECORD
  5
157
330
1
100
AcDbSymbolTableRecord
100
AcDbBlockTableRecord
  2
*D1
340
0
  0
BLOCK_RECORD
  5
164
330
1
100
AcDbSymbolTableRecord
100
AcDbBlockTableRecord
  2
*D2
340
0
  0
BLOCK_RECORD
  5
16F
330
1
100
AcDbSymbolTableRecord
100
AcDbBlockTableRecord
  2
*D3
340
0
  0
BLOCK_RECORD
  5
17B
330
1
100
AcDbSymbolTableRecord
100
AcDbBlockTableRecord
  2
*D4
340
0
  0
BLOCK_RECORD
  5
186
330
1
100
AcDbSymbolTableRecord
100
AcDbBlockTableRecord
  2
*D5
340
0
  0
BLOCK_RECORD
  5
191
330
1
100
AcDbSymbolTableRecord
100
AcDbBlockTableRecord
  2
*D6
340
0
  0
BLOCK_RECORD
  5
19B
330
1
100
AcDbSymbolTableRecord
100
AcDbBlockTableRecord
  2
*D7
340
0
  0
BLOCK_RECORD
  5
1A5
330
1
100
AcDbSymbolTableRecord
100
AcDbBlockTableRecord
  2
*D8
340
0
  0
ENDTAB
  0
ENDSEC
  0
SECTION
  2
BLOCKS
  0
BLOCK
  5
20
330
1F
100
AcDbEntity
  8
0
100
AcDbBlockBegin
  2
*Model_Space
 70
     0
 10
0.0
 20
0.0
 30
0.0
  3
*Model_Space
  1

  0
ENDBLK
  5
21
330
1F
100
AcDbEntity
  8
0
100
AcDbBlockEnd
  0
BLOCK
  5
1C
330
1B
100
AcDbEntity
 67
     1
  8
0
100
AcDbBlockBegin
  2
*Paper_Space
 70
     0
 10
0.0
 20
0.0
 30
0.0
  3
*Paper_Space
  1

  0
ENDBLK
  5
1D
330
1B
100
AcDbEntity
 67
     1
  8
0
100
AcDbBlockEnd
  0
BLOCK
  5
24
330
23
100
AcDbEntity
  8
0
100
AcDbBlockBegin
  2
*Paper_Space0
 70
     0
 10
0.0
 20
0.0
 30
0.0
  3
*Paper_Space0
  1

  0
ENDBLK
  5
25
330
23
100
AcDbEntity
  8
0
100
AcDbBlockEnd
  0
BLOCK
  5
158
330
157
100
AcDbEntity
  8
0
100
AcDbBlockBegin
  2
*D1
 70
     1
 10
0.0
 20
0.0
 30
0.0
  3
*D1
  1

  0
SOLID
  5
15A
330
157
100
AcDbEntity
  8
VERMASSUNG
100
AcDbTrace
 10
86.073347779
 20
144.2743228602
 30
0.0
 11
85.623347779
 21
141.2743228602
 31
0.0
 12
86.523347779
 22
141.2743228602
 32
0.0
 13
86.523347779
 23
141.2743228602
 33
0.0
  0
SOLID
  5
15B
330
157
100
AcDbEntity
  8
VERMASSUNG
100
AcDbTrace
 10
86.073347779
 20
81.2743228602
 30
0.0
 11
86.523347779
 21
84.2743228602
 31
0.0
 12
85.623347779
 22
84.2743228602
 32
0.0
 13
85.623347779
 23
84.2743228602
 33
0.0
  0
LINE
  5
15C
330
157
100
AcDbEntity
  8
VERMASSUNG
100
AcDbLine
 10
124.1792066341
 20
144.2743228602
 30
0.0
 11
85.073347779
 21
144.2743228602
 31
0.0
  0
LINE
  5
15D
330
157
100
AcDbEntity
  8
VERMASSUNG
100
AcDbLine
 10
124.1792066341
 20
81.2743228602
 30
0.0
 11
85.073347779
 21
81.2743228602
 31
0.0
  0
LINE
  5
15E
330
157
100
AcDbEntity
  8
VERMASSUNG
100
AcDbLine
 10
86.073347779
 20
144.2743228602
 30
0.0
 11
86.073347779
 21
81.2743228602
 31
0.0
  0
MTEXT
  5
15F
330
157
100
AcDbEntity
  8
VERMASSUNG
100
AcDbMText
 10
83.2952122899
 20
105.0707811484
 30
0.0
 40
2.0
 41
0.0
 71
     1
 72
     1
  1
HSK A 
  7
SLDTEXTSTYLE0
 11
-7.044195017643634E-15
 21
1.0
 31
0.0
 73
     1
 44
1.0
  0
MTEXT
  5
160
330
157
100
AcDbEntity
  8
VERMASSUNG
100
AcDbMText
 10
83.4952122994
 20
114.0707816923
 30
0.0
 40
2.0
 41
0.0
 71
     1
 72
     1
  1
%%c
  7
SLDTEXTSTYLE0
 11
-7.044195017643634E-15
 21
1.0
 31
0.0
 73
     1
 44
1.0
  0
MTEXT
  5
161
330
157
100
AcDbEntity
  8
VERMASSUNG
100
AcDbMText
 10
83.4952124159
 20
117.6791083424
 30
0.0
 40
2.0
 41
0.0
 71
     1
 72
     1
  1
63
  7
SLDTEXTSTYLE0
 11
-7.044195017643634E-15
 21
1.0
 31
0.0
 73
     1
 44
1.0
  0
ENDBLK
  5
159
330
157
100
AcDbEntity
  8
0
100
AcDbBlockEnd
  0
BLOCK
  5
165
330
164
100
AcDbEntity
  8
0
100
AcDbBlockBegin
  2
*D2
 70
     1
 10
0.0
 20
0.0
 30
0.0
  3
*D2
  1

  0
SOLID
  5
167
330
164
100
AcDbEntity
  8
VERMASSUNG
100
AcDbTrace
 10
167.3792066341
 20
142.2743228602
 30
0.0
 11
170.3792066341
 21
141.8243228602
 31
0.0
 12
170.3792066341
 22
142.7243228602
 32
0.0
 13
170.3792066341
 23
142.7243228602
 33
0.0
  0
SOLID
  5
168
330
164
100
AcDbEntity
  8
VERMASSUNG
100
AcDbTrace
 10
208.8792066341
 20
142.2743228602
 30
0.0
 11
205.8792066341
 21
142.7243228602
 31
0.0
 12
205.8792066341
 22
141.8243228602
 32
0.0
 13
205.8792066341
 23
141.8243228602
 33
0.0
  0
LINE
  5
169
330
164
100
AcDbEntity
  8
VERMASSUNG
100
AcDbLine
 10
167.3792066341
 20
117.6743228602
 30
0.0
 11
167.3792066341
 21
143.2743228602
 31
0.0
  0
LINE
  5
16A
330
164
100
AcDbEntity
  8
VERMASSUNG
100
AcDbLine
 10
208.8792066341
 20
122.9255418769
 30
0.0
 11
208.8792066341
 21
143.2743228602
 31
0.0
  0
LINE
  5
16B
330
164
100
AcDbEntity
  8
VERMASSUNG
100
AcDbLine
 10
167.3792066341
 20
142.2743228602
 30
0.0
 11
208.8792066341
 21
142.2743228602
 31
0.0
  0
MTEXT
  5
16C
330
164
100
AcDbEntity
  8
VERMASSUNG
100
AcDbMText
 10
185.8293994835
 20
144.8524582234
 30
0.0
 40
2.0
 41
0.0
 71
     1
 72
     1
  1
41.5
  7
SLDTEXTSTYLE0
 73
     1
 44
1.0
  0
ENDBLK
  5
166
330
164
100
AcDbEntity
  8
0
100
AcDbBlockEnd
  0
BLOCK
  5
170
330
16F
100
AcDbEntity
  8
0
100
AcDbBlockBegin
  2
*D3
 70
     1
 10
0.0
 20
0.0
 30
0.0
  3
*D3
  1

  0
SOLID
  5
172
330
16F
100
AcDbEntity
  8
VERMASSUNG
100
AcDbTrace
 10
216.5639219935
 20
107.7743228602
 30
0.0
 11
217.0139219935
 21
110.7743228602
 31
0.0
 12
216.1139219935
 22
110.7743228602
 32
0.0
 13
216.1139219935
 23
110.7743228602
 33
0.0
  0
SOLID
  5
173
330
16F
100
AcDbEntity
  8
VERMASSUNG
100
AcDbTrace
 10
216.5639219935
 20
117.7743228602
 30
0.0
 11
216.1139219935
 21
114.7743228602
 31
0.0
 12
217.0139219935
 22
114.7743228602
 32
0.0
 13
217.0139219935
 23
114.7743228602
 33
0.0
  0
LINE
  5
174
330
16F
100
AcDbEntity
  8
VERMASSUNG
100
AcDbLine
 10
205.3792066341
 20
107.7743228602
 30
0.0
 11
217.5639219935
 21
107.7743228602
 31
0.0
  0
LINE
  5
175
330
16F
100
AcDbEntity
  8
VERMASSUNG
100
AcDbLine
 10
205.3792066341
 20
117.7743228602
 30
0.0
 11
217.5639219935
 21
117.7743228602
 31
0.0
  0
LINE
  5
176
330
16F
100
AcDbEntity
  8
VERMASSUNG
100
AcDbLine
 10
216.5639219935
 20
107.7743228602
 30
0.0
 11
216.5639219935
 21
117.7743228602
 31
0.0
  0
MTEXT
  5
177
330
16F
100
AcDbEntity
  8
VERMASSUNG
100
AcDbMText
 10
213.985786514
 20
109.7701852654
 30
0.0
 40
2.0
 41
0.0
 71
     1
 72
     1
  1
%%c
  7
SLDTEXTSTYLE0
 11
6.123233995736766E-17
 21
1.0
 31
0.0
 73
     1
 44
1.0
  0
MTEXT
  5
178
330
16F
100
AcDbEntity
  8
VERMASSUNG
100
AcDbMText
 10
213.9857866304
 20
113.3788634886
 30
0.0
 40
2.0
 41
0.0
 71
     1
 72
     1
  1
10
  7
SLDTEXTSTYLE0
 11
6.123233995736766E-17
 21
1.0
 31
0.0
 73
     1
 44
1.0
  0
ENDBLK
  5
171
330
16F
100
AcDbEntity
  8
0
100
AcDbBlockEnd
  0
BLOCK
  5
17C
330
17B
100
AcDbEntity
  8
0
100
AcDbBlockBegin
  2
*D4
 70
     1
 10
0.0
 20
0.0
 30
0.0
  3
*D4
  1

  0
SOLID
  5
17E
330
17B
100
AcDbEntity
  8
VERMASSUNG
100
AcDbTrace
 10
222.5639219935
 20
100.7743228602
 30
0.0
 11
223.0139219935
 21
103.7743228602
 31
0.0
 12
222.1139219935
 22
103.7743228602
 32
0.0
 13
222.1139219935
 23
103.7743228602
 33
0.0
  0
SOLID
  5
17F
330
17B
100
AcDbEntity
  8
VERMASSUNG
100
AcDbTrace
 10
222.5639219935
 20
124.7743228602
 30
0.0
 11
222.1139219935
 21
121.7743228602
 31
0.0
 12
223.0139219935
 22
121.7743228602
 32
0.0
 13
223.0139219935
 23
121.7743228602
 33
0.0
  0
LINE
  5
180
330
17B
100
AcDbEntity
  8
VERMASSUNG
100
AcDbLine
 10
208.8792066341
 20
100.7743228602
 30
0.0
 11
223.5639219935
 21
100.7743228602
 31
0.0
  0
LINE
  5
181
330
17B
100
AcDbEntity
  8
VERMASSUNG
100
AcDbLine
 10
208.8792066341
 20
124.7743228602
 30
0.0
 11
223.5639219935
 21
124.7743228602
 31
0.0
  0
LINE
  5
182
330
17B
100
AcDbEntity
  8
VERMASSUNG
100
AcDbLine
 10
222.5639219935
 20
100.7743228602
 30
0.0
 11
222.5639219935
 21
124.7743228602
 31
0.0
  0
MTEXT
  5
183
330
17B
100
AcDbEntity
  8
VERMASSUNG
100
AcDbMText
 10
219.985786514
 20
109.470815818
 30
0.0
 40
2.0
 41
0.0
 71
     1
 72
     1
  1
%%c
  7
SLDTEXTSTYLE0
 11
6.123233995736766E-17
 21
1.0
 31
0.0
 73
     1
 44
1.0
  0
MTEXT
  5
184
330
17B
100
AcDbEntity
  8
VERMASSUNG
100
AcDbMText
 10
219.9857866304
 20
113.0794940412
 30
0.0
 40
2.0
 41
0.0
 71
     1
 72
     1
  1
24
  7
SLDTEXTSTYLE0
 11
6.123233995736766E-17
 21
1.0
 31
0.0
 73
     1
 44
1.0
  0
ENDBLK
  5
17D
330
17B
100
AcDbEntity
  8
0
100
AcDbBlockEnd
  0
BLOCK
  5
187
330
186
100
AcDbEntity
  8
0
100
AcDbBlockBegin
  2
*D5
 70
     1
 10
0.0
 20
0.0
 30
0.0
  3
*D5
  1

  0
SOLID
  5
189
330
186
100
AcDbEntity
  8
VERMASSUNG
100
AcDbTrace
 10
228.5639219935
 20
97.7743228602
 30
0.0
 11
229.0139219935
 21
100.7743228602
 31
0.0
 12
228.1139219935
 22
100.7743228602
 32
0.0
 13
228.1139219935
 23
100.7743228602
 33
0.0
  0
SOLID
  5
18A
330
186
100
AcDbEntity
  8
VERMASSUNG
100
AcDbTrace
 10
228.5639219935
 20
127.7743228602
 30
0.0
 11
228.1139219935
 21
124.7743228602
 31
0.0
 12
229.0139219935
 22
124.7743228602
 32
0.0
 13
229.0139219935
 23
124.7743228602
 33
0.0
  0
LINE
  5
18B
330
186
100
AcDbEntity
  8
VERMASSUNG
100
AcDbLine
 10
152.8292066341
 20
97.7743228602
 30
0.0
 11
229.5639219935
 21
97.7743228602
 31
0.0
  0
LINE
  5
18C
330
186
100
AcDbEntity
  8
VERMASSUNG
100
AcDbLine
 10
152.8292066341
 20
127.7743228602
 30
0.0
 11
229.5639219935
 21
127.7743228602
 31
0.0
  0
LINE
  5
18D
330
186
100
AcDbEntity
  8
VERMASSUNG
100
AcDbLine
 10
228.5639219935
 20
97.7743228602
 30
0.0
 11
228.5639219935
 21
127.7743228602
 31
0.0
  0
MTEXT
  5
18E
330
186
100
AcDbEntity
  8
VERMASSUNG
100
AcDbMText
 10
225.985786514
 20
109.5706056338
 30
0.0
 40
2.0
 41
0.0
 71
     1
 72
     1
  1
%%c
  7
SLDTEXTSTYLE0
 11
6.123233995736766E-17
 21
1.0
 31
0.0
 73
     1
 44
1.0
  0
MTEXT
  5
18F
330
186
100
AcDbEntity
  8
VERMASSUNG
100
AcDbMText
 10
225.9857866304
 20
113.179283857
 30
0.0
 40
2.0
 41
0.0
 71
     1
 72
     1
  1
30
  7
SLDTEXTSTYLE0
 11
6.123233995736766E-17
 21
1.0
 31
0.0
 73
     1
 44
1.0
  0
ENDBLK
  5
188
330
186
100
AcDbEntity
  8
0
100
AcDbBlockEnd
  0
BLOCK
  5
192
330
191
100
AcDbEntity
  8
0
100
AcDbBlockBegin
  2
*D6
 70
     1
 10
0.0
 20
0.0
 30
0.0
  3
*D6
  1

  0
SOLID
  5
194
330
191
100
AcDbEntity
  8
VERMASSUNG
100
AcDbTrace
 10
123.8792066341
 20
154.2743228602
 30
0.0
 11
126.8792066341
 21
153.8243228602
 31
0.0
 12
126.8792066341
 22
154.7243228602
 32
0.0
 13
126.8792066341
 23
154.7243228602
 33
0.0
  0
SOLID
  5
195
330
191
100
AcDbEntity
  8
VERMASSUNG
100
AcDbTrace
 10
208.8792066341
 20
154.2743228602
 30
0.0
 11
205.8792066341
 21
154.7243228602
 31
0.0
 12
205.8792066341
 22
153.8243228602
 32
0.0
 13
205.8792066341
 23
153.8243228602
 33
0.0
  0
LINE
  5
196
330
191
100
AcDbEntity
  8
VERMASSUNG
100
AcDbLine
 10
123.8792066341
 20
143.9743228602
 30
0.0
 11
123.8792066341
 21
155.2743228602
 31
0.0
  0
LINE
  5
197
330
191
100
AcDbEntity
  8
VERMASSUNG
100
AcDbLine
 10
208.8792066341
 20
122.9255418769
 30
0.0
 11
208.8792066341
 21
155.2743228602
 31
0.0
  0
LINE
  5
198
330
191
100
AcDbEntity
  8
VERMASSUNG
100
AcDbLine
 10
123.8792066341
 20
154.2743228602
 30
0.0
 11
208.8792066341
 21
154.2743228602
 31
0.0
  0
MTEXT
  5
199
330
191
100
AcDbEntity
  8
VERMASSUNG
100
AcDbMText
 10
164.9798285192
 20
156.8524582234
 30
0.0
 40
2.0
 41
0.0
 71
     1
 72
     1
  1
85
  7
SLDTEXTSTYLE0
 73
     1
 44
1.0
  0
ENDBLK
  5
193
330
191
100
AcDbEntity
  8
0
100
AcDbBlockEnd
  0
BLOCK
  5
19C
330
19B
100
AcDbEntity
  8
0
100
AcDbBlockBegin
  2
*D7
 70
     1
 10
0.0
 20
0.0
 30
0.0
  3
*D7
  1

  0
SOLID
  5
19E
330
19B
100
AcDbEntity
  8
VERMASSUNG
100
AcDbTrace
 10
149.8292066341
 20
148.2743228602
 30
0.0
 11
152.8292066341
 21
147.8243228602
 31
0.0
 12
152.8292066341
 22
148.7243228602
 32
0.0
 13
152.8292066341
 23
148.7243228602
 33
0.0
  0
SOLID
  5
19F
330
19B
100
AcDbEntity
  8
VERMASSUNG
100
AcDbTrace
 10
208.8792066341
 20
148.2743228602
 30
0.0
 11
205.8792066341
 21
148.7243228602
 31
0.0
 12
205.8792066341
 22
147.8243228602
 32
0.0
 13
205.8792066341
 23
147.8243228602
 33
0.0
  0
LINE
  5
1A0
330
19B
100
AcDbEntity
  8
VERMASSUNG
100
AcDbLine
 10
149.8292066341
 20
142.620763184
 30
0.0
 11
149.8292066341
 21
149.2743228602
 31
0.0
  0
LINE
  5
1A1
330
19B
100
AcDbEntity
  8
VERMASSUNG
100
AcDbLine
 10
208.8792066341
 20
122.9255418769
 30
0.0
 11
208.8792066341
 21
149.2743228602
 31
0.0
  0
LINE
  5
1A2
330
19B
100
AcDbEntity
  8
VERMASSUNG
100
AcDbLine
 10
149.8292066341
 20
148.2743228602
 30
0.0
 11
208.8792066341
 21
148.2743228602
 31
0.0
  0
MTEXT
  5
1A3
330
19B
100
AcDbEntity
  8
VERMASSUNG
100
AcDbMText
 10
176.2549206102
 20
150.8524582234
 30
0.0
 40
2.0
 41
0.0
 71
     1
 72
     1
  1
59.05
  7
SLDTEXTSTYLE0
 73
     1
 44
1.0
  0
ENDBLK
  5
19D
330
19B
100
AcDbEntity
  8
0
100
AcDbBlockEnd
  0
BLOCK
  5
1A6
330
1A5
100
AcDbEntity
  8
0
100
AcDbBlockBegin
  2
*D8
 70
     1
 10
0.0
 20
0.0
 30
0.0
  3
*D8
  1

  0
SOLID
  5
1A8
330
1A5
100
AcDbEntity
  8
VERMASSUNG
100
AcDbTrace
 10
208.8792066341
 20
160.2743228602
 30
0.0
 11
205.8792066341
 21
160.7243228602
 31
0.0
 12
205.8792066341
 22
159.8243228602
 32
0.0
 13
205.8792066341
 23
159.8243228602
 33
0.0
  0
SOLID
  5
1A9
330
1A5
100
AcDbEntity
  8
VERMASSUNG
100
AcDbTrace
 10
91.9792066341
 20
160.2743228602
 30
0.0
 11
94.9792066341
 21
159.8243228602
 31
0.0
 12
94.9792066341
 22
160.7243228602
 32
0.0
 13
94.9792066341
 23
160.7243228602
 33
0.0
  0
LINE
  5
1AA
330
1A5
100
AcDbEntity
  8
VERMASSUNG
100
AcDbLine
 10
208.8792066341
 20
122.9255418769
 30
0.0
 11
208.8792066341
 21
161.2743228602
 31
0.0
  0
LINE
  5
1AB
330
1A5
100
AcDbEntity
  8
VERMASSUNG
100
AcDbLine
 10
91.9792066341
 20
132.4650006067
 30
0.0
 11
91.9792066341
 21
161.2743228602
 31
0.0
  0
LINE
  5
1AC
330
1A5
100
AcDbEntity
  8
VERMASSUNG
100
AcDbLine
 10
208.8792066341
 20
160.2743228602
 30
0.0
 11
91.9792066341
 21
160.2743228602
 31
0.0
  0
MTEXT
  5
1AD
330
1A5
100
AcDbEntity
  8
VERMASSUNG
100
AcDbMText
 10
147.7302402202
 20
162.8524582234
 30
0.0
 40
2.0
 41
0.0
 71
     1
 72
     1
  1
116.9
  7
SLDTEXTSTYLE0
 73
     1
 44
1.0
  0
ENDBLK
  5
1A7
330
1A5
100
AcDbEntity
  8
0
100
AcDbBlockEnd
  0
ENDSEC
  0
SECTION
  2
ENTITIES
  0
MTEXT
  5
45
330
1F
100
AcDbEntity
  8
KOPF_DÜNN
100
AcDbMText
 10
13.8892156294
 20
23.8442973028
 30
0.0
 40
3.0
 41
0.0
 71
     1
 72
     1
  1
HA6.S10.K01.085
  7
SLDTEXTSTYLE0
 73
     1
 44
1.0
  0
MTEXT
  5
46
330
1F
100
AcDbEntity
  8
VERMASSUNG
100
AcDbMText
 10
13.9329988022
 20
28.8834360957
 30
0.0
 40
3.0
 41
0.0
 71
     1
 72
     1
  1
Schrumpffutter_Heat shrink chuck
  7
SLDTEXTSTYLE0
 73
     1
 44
1.0
  0
MTEXT
  5
47
330
1F
100
AcDbEntity
  8
VERMASSUNG
100
AcDbMText
 10
98.8601118557
 20
13.8365368179
 30
0.0
 40
2.0
 41
0.0
 71
     1
 72
     1
  1
Datum: 27.04.2011
  7
SLDTEXTSTYLE0
 73
     1
 44
1.0
  0
MTEXT
  5
49
330
1F
100
AcDbEntity
  8
VERMASSUNG
100
AcDbMText
 10
13.933048693
 20
18.0482802738
 30
0.0
 40
2.0
 41
0.0
 71
     1
 72
     1
  1
DIN 69 893 HSK A 63
  7
SLDTEXTSTYLE1
 73
     1
 44
1.0
  0
MTEXT
  5
4A
330
1F
100
AcDbEntity
  8
VERMASSUNG
100
AcDbMText
 10
13.9808475933
 20
13.9090973692
 30
0.0
 40
2.0
 41
0.0
 71
     1
 72
     1
  1
Gewicht: 897.77g
  7
SLDTEXTSTYLE0
 73
     1
 44
1.0
  0
ARC
  5
4B
330
1F
100
AcDbEntity
  8
0
  6
Continuous
 62
     7
370
    15
100
AcDbCircle
 10
124.1792066341
 20
81.5743228602
 30
0.0
 40
0.3000000000000114
100
AcDbArc
 50
180.0
 51
270.0
  0
ARC
  5
4C
330
1F
100
AcDbEntity
  8
0
  6
Continuous
 62
     7
370
    15
100
AcDbCircle
 10
124.1792066341
 20
143.9743228602
 30
0.0
 40
0.3000000000000114
100
AcDbArc
 50
90.0
 51
180.0
  0
LINE
  5
4D
330
1F
100
AcDbEntity
  8
0
  6
Continuous
 62
     7
370
    15
100
AcDbLine
 10
124.1792066341
 20
81.2743228602
 30
0.0
 11
128.8292066341
 21
81.2743228602
 31
0.0
  0
LINE
  5
4E
330
1F
100
AcDbEntity
  8
0
  6
Continuous
 62
     7
370
    15
100
AcDbLine
 10
128.8385147209
 20
144.2743228602
 30
0.0
 11
124.1792066341
 21
144.2743228602
 31
0.0
  0
ARC
  5
4F
330
1F
100
AcDbEntity
  8
0
  6
Continuous
 62
     7
370
    15
100
AcDbCircle
 10
123.3791998814
 20
88.2038852458
 30
0.0
 40
0.6000067526677164
100
AcDbArc
 50
33.5571153394
 51
90.0
  0
ARC
  5
50
330
1F
100
AcDbEntity
  8
0
  6
Continuous
 62
     7
370
    15
100
AcDbCircle
 10
123.3791998814
 20
137.3447604746
 30
0.0
 40
0.6000067526677242
100
AcDbArc
 50
270.0
 51
326.4428846606
  0
LINE
  5
51
330
1F
100
AcDbEntity
  8
0
  6
Continuous
 62
     7
370
    15
100
AcDbLine
 10
110.6476978352
 20
136.4320528803
 30
0.0
 11
98.0792066341
 21
135.8023689524
 31
0.0
  0
LINE
  5
52
330
1F
100
AcDbEntity
  8
0
  6
Continuous
 62
     7
370
    15
100
AcDbLine
 10
121.8792066341
 20
136.994753722
 30
0.0
 11
119.0622049767
 21
136.8536213744
 31
0.0
  0
LINE
  5
53
330
1F
100
AcDbEntity
  8
0
  6
Continuous
 62
     7
370
    15
100
AcDbLine
 10
119.0622610668
 20
88.695021536
 30
0.0
 11
121.8792066341
 21
88.5538919985
 31
0.0
  0
LINE
  5
54
330
1F
100
AcDbEntity
  8
0
  6
Continuous
 62
     7
370
    15
100
AcDbLine
 10
102.0792066341
 20
89.5458759665
 30
0.0
 11
110.6481003539
 21
89.1165726739
 31
0.0
  0
LINE
  5
55
330
1F
100
AcDbEntity
  8
0
  6
Continuous
 62
     7
370
    15
100
AcDbLine
 10
121.8792066341
 20
88.5538919985
 30
0.0
 11
122.7359194074
 21
88.7834474943
 31
0.0
  0
LINE
  5
56
330
1F
100
AcDbEntity
  8
0
  6
Continuous
 62
     7
370
    15
100
AcDbLine
 10
122.7359194074
 20
136.7651982262
 30
0.0
 11
121.8792066341
 21
136.994753722
 31
0.0
  0
ARC
  5
57
330
1F
100
AcDbEntity
  8
0
  6
Continuous
 62
     7
370
    15
100
AcDbCircle
 10
122.8912108345
 20
88.2038919985
 30
0.0
 40
0.6000000000000109
100
AcDbArc
 50
90.0
 51
105.0
  0
ARC
  5
58
330
1F
100
AcDbEntity
  8
0
  6
Continuous
 62
     7
370
    15
100
AcDbCircle
 10
122.8912108345
 20
137.344753722
 30
0.0
 40
0.5999999999999971
100
AcDbArc
 50
255.0
 51
270.0
  0
LINE
  5
59
330
1F
100
AcDbEntity
  8
0
  6
Continuous
 62
     7
370
    15
100
AcDbLine
 10
122.8912108345
 20
88.8038919985
 30
0.0
 11
123.3791998814
 21
88.8038919985
 31
0.0
  0
LINE
  5
5A
330
1F
100
AcDbEntity
  8
0
  6
Continuous
 62
     7
370
    15
100
AcDbLine
 10
123.3791998814
 20
136.744753722
 30
0.0
 11
122.8912108345
 21
136.744753722
 31
0.0
  0
ARC
  5
5B
330
1F
100
AcDbEntity
  8
0
  6
Continuous
 62
     7
370
    15
100
AcDbCircle
 10
152.8292066341
 20
94.7743228602
 30
0.0
 40
3.000000000000028
100
AcDbArc
 50
90.0
 51
180.0
  0
ARC
  5
5C
330
1F
100
AcDbEntity
  8
0
  6
Continuous
 62
     7
370
    15
100
AcDbCircle
 10
152.8292066341
 20
130.7743228602
 30
0.0
 40
3.000000000000028
100
AcDbArc
 50
180.0
 51
270.0
  0
LINE
  5
5D
330
1F
100
AcDbEntity
  8
0
  6
Continuous
 62
     7
370
    15
100
AcDbLine
 10
170.7605924255
 20
97.7743228602
 30
0.0
 11
207.0361248255
 21
100.6292691761
 31
0.0
  0
LINE
  5
5E
330
1F
100
AcDbEntity
  8
0
  6
Continuous
 62
     7
370
    15
100
AcDbLine
 10
207.0361248255
 20
124.9193765444
 30
0.0
 11
170.7605924255
 21
127.7743228602
 31
0.0
  0
LINE
  5
5F
330
1F
100
AcDbEntity
  8
0
  6
Continuous
 62
     7
370
    15
100
AcDbLine
 10
152.8292066341
 20
97.7743228602
 30
0.0
 11
170.7605924255
 21
97.7743228602
 31
0.0
  0
LINE
  5
60
330
1F
100
AcDbEntity
  8
0
  6
Continuous
 62
     7
370
    15
100
AcDbLine
 10
170.7605924255
 20
127.7743228602
 30
0.0
 11
152.8292066341
 21
127.7743228602
 31
0.0
  0
ARC
  5
61
330
1F
100
AcDbEntity
  8
0
  6
Continuous
 62
     7
370
    15
100
AcDbCircle
 10
206.8792066341
 20
102.6231038436
 30
0.0
 40
2.000000000000004
100
AcDbArc
 50
274.5
 51
0.0
  0
ARC
  5
62
330
1F
100
AcDbEntity
  8
0
  6
Continuous
 62
     7
370
    15
100
AcDbCircle
 10
206.8792066341
 20
122.9255418769
 30
0.0
 40
2.000000000000004
100
AcDbArc
 50
0.0
 51
85.5
  0
LINE
  5
63
330
1F
100
AcDbEntity
  8
0
  6
Continuous
 62
     7
370
    15
100
AcDbLine
 10
93.2625432741
 20
91.9043228602
 30
0.0
 11
100.6792066341
 21
91.9043228602
 31
0.0
  0
ARC
  5
64
330
1F
100
AcDbEntity
  8
0
  6
Continuous
 62
     7
370
    15
100
AcDbCircle
 10
100.6792066341
 20
90.5043228602
 30
0.0
 40
1.400000000000006
100
AcDbArc
 50
42.2465410162
 51
90.0
  0
LINE
  5
65
330
1F
100
AcDbEntity
  8
0
  6
Continuous
 62
     7
370
    15
100
AcDbLine
 10
91.9903670692
 20
93.0431624251
 30
0.0
 11
93.1203700922
 21
91.9131594021
 31
0.0
  0
LINE
  5
66
330
1F
100
AcDbEntity
  8
0
  6
Continuous
 62
     7
370
    15
100
AcDbLine
 10
93.1203700922
 20
133.6354863184
 30
0.0
 11
91.9891074074
 21
132.5042236336
 31
0.0
  0
ARC
  5
67
330
1F
100
AcDbEntity
  8
0
  6
Continuous
 62
     7
370
    15
100
AcDbCircle
 10
96.6792066341
 20
135.0443228602
 30
0.0
 40
1.400000000000006
100
AcDbArc
 50
270.0
 51
301.7485287426
  0
LINE
  5
68
330
1F
100
AcDbEntity
  8
0
  6
Continuous
 62
     7
370
    15
100
AcDbLine
 10
96.6792066341
 20
133.6443228602
 30
0.0
 11
93.253472368
 21
133.6443228602
 31
0.0
  0
LINE
  5
69
330
1F
100
AcDbEntity
  8
0
  6
Continuous
 62
     7
370
    15
100
AcDbLine
 10
145.2711394656
 20
82.587405164
 30
0.0
 11
145.2711394656
 21
132.6243228602
 31
0.0
  0
SPLINE
  5
6A
330
1F
100
AcDbEntity
  8
0
  6
Continuous
 62
     7
370
    15
100
AcDbSpline
210
0.0
220
0.0
230
1.0
 70
     8
 71
     3
 72
     8
 73
     4
 74
     0
 42
0.00000001
 43
0.00000001
 40
0.0
 40
0.0
 40
0.0
 40
0.0
 40
1.0
 40
1.0
 40
1.0
 40
1.0
 10
145.2711394655525
 20
82.5874051639912
 30
0.0
 10
144.7756598048867
 20
83.48293125192457
 30
0.0
 10
144.2815457568446
 20
84.37921566697682
 30
0.0
 10
143.7892066340634
 20
85.27648570118352
 30
0.0
  0
LINE
  5
6B
330
1F
100
AcDbEntity
  8
0
  6
Continuous
 62
     7
370
    15
100
AcDbLine
 10
143.7892066341
 20
85.2764857012
 30
0.0
 11
143.7892066341
 21
132.6243228602
 31
0.0
  0
SPLINE
  5
6C
330
1F
100
AcDbEntity
  8
0
  6
Continuous
 62
     7
370
    15
100
AcDbSpline
210
0.0
220
0.0
230
1.0
 70
    24
 71
     3
 72
     8
 73
     4
 74
     0
 42
0.00000001
 43
0.00000001
 40
0.0
 40
0.0
 40
0.0
 40
0.0
 40
1.0
 40
1.0
 40
1.0
 40
1.0
 10
143.7892066340634
 20
132.6243228602384
 30
0.0
 10
144.2691586284283
 20
132.6243228602384
 30
0.0
 10
144.764459357402
 20
132.6243228602384
 30
0.0
 10
145.2711394655525
 20
132.6243228602384
 30
0.0
  0
LINE
  5
6D
330
1F
100
AcDbEntity
  8
0
  6
Continuous
 62
     7
370
    15
100
AcDbLine
 10
123.8792066341
 20
81.5743228602
 30
0.0
 11
123.8792066341
 21
143.9743228552
 31
0.0
  0
LINE
  5
6E
330
1F
100
AcDbEntity
  8
0
  6
Continuous
 62
     7
370
    15
100
AcDbLine
 10
149.2292066341
 20
82.587405164
 30
0.0
 11
145.2711394656
 21
82.587405164
 31
0.0
  0
LINE
  5
6F
330
1F
100
AcDbEntity
  8
0
  6
Continuous
 62
     7
370
    15
100
AcDbLine
 10
145.2711394656
 20
132.6243228602
 30
0.0
 11
149.2292066341
 21
132.6243228602
 31
0.0
  0
LINE
  5
70
330
1F
100
AcDbEntity
  8
0
  6
Continuous
 62
     7
370
    15
100
AcDbLine
 10
149.8292066341
 20
83.2140454596
 30
0.0
 11
149.8292066341
 21
132.6243228602
 31
0.0
  0
SPLINE
  5
71
330
1F
100
AcDbEntity
  8
0
  6
Continuous
 62
     7
370
    15
100
AcDbSpline
210
0.0
220
0.0
230
1.0
 70
     8
 71
     3
 72
    10
 73
     6
 74
     0
 42
0.00000001
 43
0.00000001
 40
0.0
 40
0.0
 40
0.0
 40
0.0
 40
0.5
 40
0.5
 40
1.0
 40
1.0
 40
1.0
 40
1.0
 10
149.8292066340634
 20
83.21404545964553
 30
0.0
 10
149.8292066340634
 20
83.05415819145188
 30
0.0
 10
149.7678969828276
 20
82.89303093593726
 30
0.0
 10
149.5487973452925
 20
82.65893193758244
 30
0.0
 10
149.390749138979
 20
82.5874051639912
 30
0.0
 10
149.2292066340634
 20
82.5874051639912
 30
0.0
  0
SPLINE
  5
72
330
1F
100
AcDbEntity
  8
0
  6
Continuous
 62
     7
370
    15
100
AcDbSpline
210
0.0
220
0.0
230
1.0
 70
    24
 71
     3
 72
    12
 73
     8
 74
     0
 42
0.00000001
 43
0.00000001
 40
0.0
 40
0.0
 40
0.0
 40
0.0
 40
0.2500000000000033
 40
0.2500000000000033
 40
0.5000000000000067
 40
0.5000000000000067
 40
1.0
 40
1.0
 40
1.0
 40
1.0
 10
149.2292066340634
 20
132.6243228602384
 30
0.0
 10
149.3194457017505
 20
132.6243228602384
 30
0.0
 10
149.410343815857
 20
132.6243228602384
 30
0.0
 10
149.5649408523455
 20
132.6243228602384
 30
0.0
 10
149.6299192684536
 20
132.6243228602384
 30
0.0
 10
149.7817542963898
 20
132.6243228602384
 30
0.0
 10
149.8292066340634
 20
132.6243228602384
 30
0.0
 10
149.8292066340634
 20
132.6243228602384
 30
0.0
  0
LINE
  5
73
330
1F
100
AcDbEntity
  8
0
  6
Continuous
 62
     7
370
    15
100
AcDbLine
 10
128.8292066341
 20
132.6243228602
 30
0.0
 11
138.4872738026
 21
132.6243228602
 31
0.0
  0
LINE
  5
74
330
1F
100
AcDbEntity
  8
0
  6
Continuous
 62
     7
370
    15
100
AcDbLine
 10
138.4872738026
 20
82.587405164
 30
0.0
 11
138.4872738026
 21
132.6243228602
 31
0.0
  0
LINE
  5
75
330
1F
100
AcDbEntity
  8
0
  6
Continuous
 62
     7
370
    15
100
AcDbLine
 10
138.4872738026
 20
82.587405164
 30
0.0
 11
136.8292066341
 21
82.587405164
 31
0.0
  0
SPLINE
  5
76
330
1F
100
AcDbEntity
  8
0
  6
Continuous
 62
     7
370
    15
100
AcDbSpline
210
0.0
220
0.0
230
1.0
 70
     8
 71
     3
 72
    28
 73
    24
 74
     0
 42
0.00000001
 43
0.00000001
 40
0.0
 40
0.0
 40
0.0
 40
0.0
 40
0.1250000000000001
 40
0.1250000000000001
 40
0.1875000000000001
 40
0.1875000000000001
 40
0.2500000000000001
 40
0.2500000000000001
 40
0.3749999999999999
 40
0.3749999999999999
 40
0.4375
 40
0.4375
 40
0.4999999999999999
 40
0.4999999999999999
 40
0.6249999999999999
 40
0.6249999999999999
 40
0.7499999999999997
 40
0.7499999999999997
 40
0.8124999999999998
 40
0.8124999999999998
 40
0.8749999999999998
 40
0.8749999999999998
 40
1.0
 40
1.0
 40
1.0
 40
1.0
 10
136.8292066340634
 20
82.5874051639912
 30
0.0
 10
136.2974988765705
 20
82.5874051639912
 30
0.0
 10
135.7752603112602
 20
82.571620450041
 30
0.0
 10
135.0053898249852
 20
82.52662503596481
 30
0.0
 10
134.7510302527938
 20
82.50807004088905
 30
0.0
 10
134.2469086720953
 20
82.46421731844255
 30
0.0
 10
133.9971858546674
 20
82.43887271149036
 30
0.0
 10
133.271595903221
 20
82.35547063374027
 30
0.0
 10
132.8132356416394
 20
82.28960507458919
 30
0.0
 10
132.1627376982455
 20
82.18063473409738
 30
0.0
 10
131.9510556474531
 20
82.14239509833074
 30
0.0
 10
131.5469841583151
 20
82.06463636091138
 30
0.0
 10
131.3544776444942
 20
82.02513539873601
 30
0.0
 10
130.804642673473
 20
81.90622765637002
 30
0.0
 10
130.4747138951641
 20
81.82640997494542
 30
0.0
 10
129.8902426265955
 20
81.67306681314936
 30
0.0
 10
129.643965488582
 20
81.6017330598801
 30
0.0
 10
129.344122695884
 20
81.50778955280548
 30
0.0
 10
129.2556658388118
 20
81.47859575944555
 30
0.0
 10
129.1023044855066
 20
81.42512918518213
 30
0.0
 10
129.0372162712804
 20
81.40076985090695
 30
0.0
 10
128.8816222553396
 20
81.33717970546222
 30
0.0
 10
128.8292066340634
 20
81.30707677037296
 30
0.0
 10
128.8292066340634
 20
81.29019987737604
 30
0.0
  0
LINE
  5
77
330
1F
100
AcDbEntity
  8
0
  6
Continuous
 62
     7
370
    15
100
AcDbLine
 10
128.8292066341
 20
81.2901998774
 30
0.0
 11
128.8292066341
 21
81.2743228602
 31
0.0
  0
SPLINE
  5
78
330
1F
100
AcDbEntity
  8
0
  6
Continuous
 62
     7
370
    15
100
AcDbSpline
210
0.0
220
0.0
230
1.0
 70
     8
 71
     3
 72
    22
 73
    18
 74
     0
 42
0.00000001
 43
0.00000001
 40
0.0
 40
0.0
 40
0.0
 40
0.0
 40
0.0515773377536172
 40
0.1565264849943629
 40
0.2100197540385886
 40
0.2615951369298746
 40
0.3664424119934943
 40
0.4198226601719804
 40
0.4724528789006786
 40
0.5794488992297344
 40
0.6339397336480286
 40
0.6872670452602943
 40
0.7409741315029978
 40
0.7958968813361827
 40
0.8512481408256359
 40
0.9034470736265863
 40
1.0
 40
1.0
 40
1.0
 40
1.0
 10
136.8292066340634
 20
143.2415183334026
 30
0.0
 10
136.612396438061
 20
143.2429149544711
 30
0.0
 10
135.9544226191462
 20
143.2471534087273
 30
0.0
 10
135.0793276418153
 20
143.2866857330816
 30
0.0
 10
134.2345021469584
 20
143.3496589799236
 30
0.0
 10
133.4147768633542
 20
143.4276730131787
 30
0.0
 10
132.6389868853258
 20
143.5245561410539
 30
0.0
 10
131.9214984240193
 20
143.6328155529698
 30
0.0
 10
131.2422336768472
 20
143.7465339252743
 30
0.0
 10
130.6339186989383
 20
143.8630341102151
 30
0.0
 10
130.1138267582151
 20
143.9721343616321
 30
0.0
 10
129.769936580499
 20
144.0481382593622
 30
0.0
 10
129.4749828527715
 20
144.1161717152838
 30
0.0
 10
129.2292085654303
 20
144.1748847660423
 30
0.0
 10
129.0433062564569
 20
144.2205001459761
 30
0.0
 10
128.8717096507332
 20
144.2634595975366
 30
0.0
 10
128.8515803755569
 20
144.2686206193387
 30
0.0
 10
128.8385147208832
 20
144.2719705724809
 30
0.0
  0
LINE
  5
79
330
1F
100
AcDbEntity
  8
0
  6
Continuous
 62
     7
370
    15
100
AcDbLine
 10
138.4872738026
 20
143.2415183334
 30
0.0
 11
136.8292066341
 21
143.2415183334
 31
0.0
  0
LINE
  5
7A
330
1F
100
AcDbEntity
  8
0
  6
Continuous
 62
     7
370
    15
100
AcDbLine
 10
138.4872738026
 20
137.2330125226
 30
0.0
 11
138.4872738026
 21
143.2415183334
 31
0.0
  0
LINE
  5
7B
330
1F
100
AcDbEntity
  8
0
  6
Continuous
 62
     7
370
    15
100
AcDbLine
 10
136.0748269798
 20
137.2330125226
 30
0.0
 11
138.4872738026
 21
137.2330125226
 31
0.0
  0
SPLINE
  5
7C
330
1F
100
AcDbEntity
  8
0
  6
Continuous
 62
     7
370
    15
100
AcDbSpline
210
0.0
220
0.0
230
1.0
 70
     8
 71
     3
 72
    20
 73
    16
 74
     0
 42
0.00000001
 43
0.00000001
 40
0.0
 40
0.0
 40
0.0
 40
0.0
 40
0.2499999999999997
 40
0.2499999999999997
 40
0.3749999999999997
 40
0.3749999999999997
 40
0.4999999999999998
 40
0.4999999999999998
 40
0.6249999999999998
 40
0.6249999999999998
 40
0.7499999999999999
 40
0.7499999999999999
 40
0.8749999999999999
 40
0.8749999999999999
 40
1.0
 40
1.0
 40
1.0
 40
1.0
 10
128.8292066340634
 20
132.6243228602384
 30
0.0
 10
129.0775803683515
 20
133.2781852885358
 30
0.0
 10
129.3971504606967
 20
133.8819710705329
 30
0.0
 10
130.0194566939014
 20
134.7088098067015
 30
0.0
 10
130.2508809543322
 20
134.9712384446544
 30
0.0
 10
130.7720952939819
 20
135.4679010987594
 30
0.0
 10
131.058715776617
 20
135.698487977781
 30
0.0
 10
131.6782005179246
 20
136.1150422023636
 30
0.0
 10
132.0125008974116
 20
136.3025400043311
 30
0.0
 10
132.7377613700363
 20
136.6339369819675
 30
0.0
 10
133.1196764274268
 20
136.7734409694628
 30
0.0
 10
133.9144646035985
 20
136.9988944769337
 30
0.0
 10
134.3286227978049
 20
137.0855205884774
 30
0.0
 10
135.1941691383863
 20
137.2035013773315
 30
0.0
 10
135.6320567533981
 20
137.2330125226058
 30
0.0
 10
136.0748269797527
 20
137.2330125226058
 30
0.0
  0
SPLINE
  5
7D
330
1F
100
AcDbEntity
  8
0
  6
Continuous
 62
     7
370
    15
100
AcDbSpline
210
0.0
220
0.0
230
1.0
 70
     8
 71
     3
 72
    70
 73
    66
 74
     0
 42
0.00000001
 43
0.00000001
 40
-0.0312500000000002
 40
-0.0312500000000002
 40
0.0
 40
0.0
 40
0.0312499999999995
 40
0.0312499999999995
 40
0.0624999999999991
 40
0.0624999999999991
 40
0.0937499999999988
 40
0.0937499999999988
 40
0.1249999999999985
 40
0.1249999999999985
 40
0.1562499999999982
 40
0.1562499999999982
 40
0.1874999999999979
 40
0.1874999999999979
 40
0.2187499999999976
 40
0.2187499999999976
 40
0.2499999999999973
 40
0.2499999999999973
 40
0.2812499999999973
 40
0.2812499999999973
 40
0.3124999999999972
 40
0.3124999999999972
 40
0.3437499999999971
 40
0.3437499999999971
 40
0.3749999999999971
 40
0.3749999999999971
 40
0.406249999999997
 40
0.406249999999997
 40
0.4374999999999969
 40
0.4374999999999969
 40
0.4687499999999968
 40
0.4687499999999968
 40
0.4999999999999968
 40
0.4999999999999968
 40
0.5312499999999969
 40
0.5312499999999969
 40
0.562499999999997
 40
0.562499999999997
 40
0.5937499999999971
 40
0.5937499999999971
 40
0.6249999999999971
 40
0.6249999999999971
 40
0.6562499999999972
 40
0.6562499999999972
 40
0.6874999999999973
 40
0.6874999999999973
 40
0.7187499999999974
 40
0.7187499999999974
 40
0.7499999999999976
 40
0.7499999999999976
 40
0.7812499999999979
 40
0.7812499999999979
 40
0.8124999999999982
 40
0.8124999999999982
 40
0.8437499999999986
 40
0.8437499999999986
 40
0.8749999999999988
 40
0.8749999999999988
 40
0.9062499999999991
 40
0.9062499999999991
 40
0.9374999999999994
 40
0.9374999999999994
 40
0.9687499999999998
 40
0.9687499999999998
 40
1.0
 40
1.0
 40
1.03125
 40
1.03125
 10
127.8792066340634
 20
126.8393122953141
 30
0.0
 10
127.8792066340634
 20
127.310734908754
 30
0.0
 10
127.9051917094474
 20
127.5409484686702
 30
0.0
 10
128.0069566120314
 20
127.9910112567323
 30
0.0
 10
128.0839909978374
 20
128.2131721972233
 30
0.0
 10
128.2848572852746
 20
128.6339564146958
 30
0.0
 10
128.4077363338659
 20
128.8322237123401
 30
0.0
 10
128.6980009959296
 20
129.2055106008066
 30
0.0
 10
128.8667745717815
 20
129.3810216463216
 30
0.0
 10
129.2354125930679
 20
129.6943209966244
 30
0.0
 10
129.4366056410203
 20
129.8342532871671
 30
0.0
 10
129.8737431662746
 20
130.0807100461587
 30
0.0
 10
130.1061578338979
 20
130.1848403841086
 30
0.0
 10
130.5873420560103
 20
130.3519623627928
 30
0.0
 10
130.8396770619682
 20
130.4161741295529
 30
0.0
 10
131.356121927656
 20
130.5019590760858
 30
0.0
 10
131.6158271757083
 20
130.5231603826816
 30
0.0
 10
132.1381342328614
 20
130.5234024650868
 30
0.0
 10
132.4034405481754
 20
130.5017414232396
 30
0.0
 10
132.9166466383047
 20
130.4165479335177
 30
0.0
 10
133.1661140766165
 20
130.3534717177554
 30
0.0
 10
133.6507166861083
 20
130.185584312211
 30
0.0
 10
133.8845863448927
 20
130.0805882102632
 30
0.0
 10
134.317728666148
 20
129.8367204329936
 30
0.0
 10
134.5199055819138
 20
129.6968620963038
 30
0.0
 10
134.8931803742235
 20
129.3798003973604
 30
0.0
 10
135.0585026683734
 20
129.2075573346408
 30
0.0
 10
135.3482176557087
 20
128.8357893326289
 30
0.0
 10
135.4736209213393
 20
128.6338360371444
 30
0.0
 10
135.6744363693512
 20
128.2131269970081
 30
0.0
 10
135.7502209264571
 20
127.9952252507118
 30
0.0
 10
135.8528306451894
 20
127.5439086954689
 30
0.0
 10
135.8791081780476
 20
127.3090594438903
 30
0.0
 10
135.879304524869
 20
126.8436671789422
 30
0.0
 10
135.8540712786514
 20
126.6107553471493
 30
0.0
 10
135.7516707927342
 20
126.1446552768387
 30
0.0
 10
135.6749824956751
 20
125.9155026571629
 30
0.0
 10
135.4757663853586
 20
125.4758327450672
 30
0.0
 10
135.3516597513541
 20
125.261945324403
 30
0.0
 10
135.0597834033525
 20
124.8584626022594
 30
0.0
 10
134.8945110991707
 20
124.6715896448818
 30
0.0
 10
134.526127995987
 20
124.3276416214558
 30
0.0
 10
134.3206180893594
 20
124.1694095098234
 30
0.0
 10
133.8865137454273
 20
123.8966201606067
 30
0.0
 10
133.6570284577999
 20
123.7805810906872
 30
0.0
 10
133.1728157804393
 20
123.5904005350875
 30
0.0
 10
132.9188224546673
 20
123.5172520140346
 30
0.0
 10
132.4074443185411
 20
123.4203657259858
 30
0.0
 10
132.1473142944741
 20
123.3954575785734
 30
0.0
 10
131.6183100805821
 20
123.3950049985358
 30
0.0
 10
131.3582223497951
 20
123.4194520065755
 30
0.0
 10
130.8465048270862
 20
123.5154941368903
 30
0.0
 10
130.5921937093531
 20
123.5882847978815
 30
0.0
 10
130.1078158633875
 20
123.7775928137657
 30
0.0
 10
129.8780511066247
 20
123.8932611216219
 30
0.0
 10
129.4430890497515
 20
124.1655894372897
 30
0.0
 10
129.2374127876217
 20
124.323444131237
 30
0.0
 10
128.8685699424957
 20
124.6666570475299
 30
0.0
 10
128.7028862248414
 20
124.8533061841089
 30
0.0
 10
128.4099848078413
 20
125.2567693815202
 30
0.0
 10
128.2857740759156
 20
125.4700316408756
 30
0.0
 10
128.0857655239938
 20
125.9092789644443
 30
0.0
 10
128.0086279744075
 20
126.1382199675134
 30
0.0
 10
127.9051949441367
 20
126.6047822795313
 30
0.0
 10
127.8792066340634
 20
126.8393122953141
 30
0.0
 10
127.8792066340634
 20
127.310734908754
 30
0.0
  0
SPLINE
  5
7E
330
1F
100
AcDbEntity
  8
0
  6
Continuous
 62
     7
370
    15
100
AcDbSpline
210
0.0
220
0.0
230
1.0
 70
     8
 71
     3
 72
    70
 73
    66
 74
     0
 42
0.00000001
 43
0.00000001
 40
-0.0312499999999999
 40
-0.0312499999999999
 40
0.0
 40
0.0
 40
0.03125
 40
0.03125
 40
0.0624999999999999
 40
0.0624999999999999
 40
0.0937499999999999
 40
0.0937499999999999
 40
0.1249999999999999
 40
0.1249999999999999
 40
0.1562499999999999
 40
0.1562499999999999
 40
0.1874999999999998
 40
0.1874999999999998
 40
0.2187499999999998
 40
0.2187499999999998
 40
0.2499999999999998
 40
0.2499999999999998
 40
0.2812499999999998
 40
0.2812499999999998
 40
0.3124999999999999
 40
0.3124999999999999
 40
0.34375
 40
0.34375
 40
0.3750000000000001
 40
0.3750000000000001
 40
0.4062500000000002
 40
0.4062500000000002
 40
0.4375000000000003
 40
0.4375000000000003
 40
0.4687500000000003
 40
0.4687500000000003
 40
0.5000000000000004
 40
0.5000000000000004
 40
0.5312500000000006
 40
0.5312500000000006
 40
0.5625000000000006
 40
0.5625000000000006
 40
0.5937500000000007
 40
0.5937500000000007
 40
0.6250000000000008
 40
0.6250000000000008
 40
0.6562500000000009
 40
0.6562500000000009
 40
0.6875000000000009
 40
0.6875000000000009
 40
0.718750000000001
 40
0.718750000000001
 40
0.7500000000000011
 40
0.7500000000000011
 40
0.781250000000001
 40
0.781250000000001
 40
0.8125000000000008
 40
0.8125000000000008
 40
0.8437500000000007
 40
0.8437500000000007
 40
0.8750000000000006
 40
0.8750000000000006
 40
0.9062500000000004
 40
0.9062500000000004
 40
0.9375000000000002
 40
0.9375000000000002
 40
0.9687500000000001
 40
0.9687500000000001
 40
1.0
 40
1.0
 40
1.03125
 40
1.03125
 10
127.8792066340634
 20
139.9218505874288
 30
0.0
 10
127.8792066340634
 20
140.1863955714676
 30
0.0
 10
127.9051917094474
 20
140.3135476656225
 30
0.0
 10
128.0069566120314
 20
140.5583566613604
 30
0.0
 10
128.0839909978374
 20
140.6772186604335
 30
0.0
 10
128.2848572852746
 20
140.8989284867789
 30
0.0
 10
128.4077363338659
 20
141.0016438257044
 30
0.0
 10
128.6980009959296
 20
141.1923358462822
 30
0.0
 10
128.8667745717815
 20
141.2805255435932
 30
0.0
 10
129.2354125930679
 20
141.4360246596903
 30
0.0
 10
129.4366056410203
 20
141.5044373171543
 30
0.0
 10
129.8737431662745
 20
141.6237679364994
 30
0.0
 10
130.1061578338979
 20
141.6735276286817
 30
0.0
 10
130.5873420560103
 20
141.7529016057545
 30
0.0
 10
130.8396770619682
 20
141.7830972899943
 30
0.0
 10
131.356121927656
 20
141.8233451778372
 30
0.0
 10
131.6158271757083
 20
141.83322946262
 30
0.0
 10
132.1381342328614
 20
141.8333425654021
 30
0.0
 10
132.4034405481754
 20
141.8232429596708
 30
0.0
 10
132.9166466383047
 20
141.7832727696944
 30
0.0
 10
133.1661140766165
 20
141.7536156059232
 30
0.0
 10
133.6507166861083
 20
141.6738837789627
 30
0.0
 10
133.8845863448927
 20
141.6237047256495
 30
0.0
 10
134.317728666148
 20
141.5056360510634
 30
0.0
 10
134.5199055819138
 20
141.4372828906627
 30
0.0
 10
134.8931803742235
 20
141.2799223785583
 30
0.0
 10
135.0585026683734
 20
141.1933669614899
 30
0.0
 10
135.3482176557087
 20
141.0034795412461
 30
0.0
 10
135.4736209213393
 20
140.8988655207947
 30
0.0
 10
135.6744363693512
 20
140.6771943838533
 30
0.0
 10
135.7502209264572
 20
140.5606280993084
 30
0.0
 10
135.8528306451894
 20
140.3151782756363
 30
0.0
 10
135.8791081780476
 20
140.1854477201591
 30
0.0
 10
135.879304524869
 20
139.9243019858557
 30
0.0
 10
135.8540712786514
 20
139.7916228238229
 30
0.0
 10
135.7516707927342
 20
139.5222655705078
 30
0.0
 10
135.6749824956751
 20
139.3878941321611
 30
0.0
 10
135.4757663853586
 20
139.126862002257
 30
0.0
 10
135.3516597513541
 20
138.9981993649632
 30
0.0
 10
135.0597834033525
 20
138.7528916436251
 30
0.0
 10
134.8945110991707
 20
138.6379350358957
 30
0.0
 10
134.526127995987
 20
138.4246038562107
 30
0.0
 10
134.3206180893594
 20
138.3254856686746
 30
0.0
 10
133.8865137454273
 20
138.1535634064036
 30
0.0
 10
133.6570284577999
 20
138.0798519176159
 30
0.0
 10
133.1728157804393
 20
137.9585994462892
 30
0.0
 10
132.9188224546673
 20
137.9116911156052
 30
0.0
 10
132.4074443185411
 20
137.8494818822304
 30
0.0
 10
132.1473142944741
 20
137.8334328905781
 30
0.0
 10
131.6183100805821
 20
137.833141604784
 30
0.0
 10
131.3582223497951
 20
137.8488938454305
 30
0.0
 10
130.8465048270863
 20
137.9105637232281
 30
0.0
 10
130.5921937093531
 20
137.9572453990683
 30
0.0
 10
130.1078158633875
 20
138.0779516875255
 30
0.0
 10
129.8780511066247
 20
138.1514359019669
 30
0.0
 10
129.4430890497515
 20
138.3230883494907
 30
0.0
 10
129.2374127876217
 20
138.4219832297881
 30
0.0
 10
128.8685699424957
 20
138.634892343407
 30
0.0
 10
128.7028862248414
 20
138.7497332930911
 30
0.0
 10
128.4099848078413
 20
138.9950752992509
 30
0.0
 10
128.2857740759156
 20
139.1233873789323
 30
0.0
 10
128.0857655239938
 20
139.3842288068387
 30
0.0
 10
128.0086279744075
 20
139.518512078921
 30
0.0
 10
127.9051949441367
 20
139.7882046600616
 30
0.0
 10
127.8792066340634
 20
139.9218505874288
 30
0.0
 10
127.8792066340634
 20
140.1863955714676
 30
0.0
  0
LINE
  5
7F
330
1F
100
AcDbEntity
  8
0
  6
Continuous
 62
     7
370
    15
100
AcDbLine
 10
139.9692066341
 20
85.2764857012
 30
0.0
 11
139.9692066341
 21
132.6243228602
 31
0.0
  0
SPLINE
  5
80
330
1F
100
AcDbEntity
  8
0
  6
Continuous
 62
     7
370
    15
100
AcDbSpline
210
0.0
220
0.0
230
1.0
 70
     8
 71
     3
 72
     8
 73
     4
 74
     0
 42
0.00000001
 43
0.00000001
 40
0.0
 40
0.0
 40
0.0
 40
0.0
 40
1.0
 40
1.0
 40
1.0
 40
1.0
 10
139.9692066340634
 20
85.27648570118352
 30
0.0
 10
139.4768675112823
 20
84.37921566697682
 30
0.0
 10
138.9827534632401
 20
83.48293125192455
 30
0.0
 10
138.4872738025744
 20
82.5874051639912
 30
0.0
  0
SPLINE
  5
81
330
1F
100
AcDbEntity
  8
0
  6
Continuous
 62
     7
370
    15
100
AcDbSpline
210
0.0
220
0.0
230
1.0
 70
    24
 71
     3
 72
     8
 73
     4
 74
     0
 42
0.00000001
 43
0.00000001
 40
0.0
 40
0.0
 40
0.0
 40
0.0
 40
1.0
 40
1.0
 40
1.0
 40
1.0
 10
138.4872738025744
 20
132.6243228602384
 30
0.0
 10
138.9939539107249
 20
132.6243228602384
 30
0.0
 10
139.4892546396985
 20
132.6243228602384
 30
0.0
 10
139.9692066340634
 20
132.6243228602384
 30
0.0
  0
ARC
  5
82
330
1F
100
AcDbEntity
  8
0
  6
Continuous
 62
     7
370
    15
100
AcDbCircle
 10
132.0480398146
 20
124.8338982445
 30
0.0
 40
3.902045592074047
100
AcDbArc
 50
18.4921344562
 51
92.4798401982
  0
ARC
  5
83
330
1F
100
AcDbEntity
  8
0
  6
Continuous
 62
     7
370
    15
100
AcDbCircle
 10
131.7586736419
 20
124.7577288546
 30
0.0
 40
3.976387974023858
100
AcDbArc
 50
88.2629738844
 51
159.5163005784
  0
SPLINE
  5
84
330
1F
100
AcDbEntity
  8
0
  6
Continuous
 62
     7
370
    15
100
AcDbSpline
210
0.0
220
0.0
230
1.0
 70
    24
 71
     3
 72
    14
 73
    10
 74
     0
 42
0.00000001
 43
0.00000001
 40
0.0
 40
0.0
 40
0.0
 40
0.0
 40
0.5000000000000013
 40
0.5000000000000013
 40
0.750000000000002
 40
0.750000000000002
 40
0.875000000000001
 40
0.875000000000001
 40
1.0
 40
1.0
 40
1.0
 40
1.0
 10
143.6915318317311
 20
86.37432286023838
 30
0.0
 10
143.6447471266829
 20
86.37432286023837
 30
0.0
 10
143.5826959299033
 20
86.37432286023838
 30
0.0
 10
143.4393042913527
 20
86.37432286023838
 30
0.0
 10
143.3831606378016
 20
86.37432286023837
 30
0.0
 10
143.2702096156654
 20
86.37432286023837
 30
0.0
 10
143.2272088536272
 20
86.37432286023838
 30
0.0
 10
143.1231461433208
 20
86.37432286023837
 30
0.0
 10
143.0578139049638
 20
86.37432286023838
 30
0.0
 10
142.9892066340634
 20
86.37432286023838
 30
0.0
  0
SPLINE
  5
85
330
1F
100
AcDbEntity
  8
0
  6
Continuous
 62
     7
370
    15
100
AcDbSpline
210
0.0
220
0.0
230
1.0
 70
    24
 71
     3
 72
    12
 73
     8
 74
     0
 42
0.00000001
 43
0.00000001
 40
0.0
 40
0.0
 40
0.0
 40
0.0
 40
0.5000000000000017
 40
0.5000000000000017
 40
0.7500000000000008
 40
0.7500000000000008
 40
1.0
 40
1.0
 40
1.0
 40
1.0
 10
143.3949091023725
 20
139.1743228602384
 30
0.0
 10
143.3518235527615
 20
139.1743228602384
 30
0.0
 10
143.3026713510122
 20
139.1743228602384
 30
0.0
 10
143.2061987567243
 20
139.1743228602384
 30
0.0
 10
143.1700971715897
 20
139.1743228602384
 30
0.0
 10
143.0869914137284
 20
139.1743228602384
 30
0.0
 10
143.0389948167621
 20
139.1743228602384
 30
0.0
 10
142.9892066340634
 20
139.1743228602384
 30
0.0
  0
SPLINE
  5
86
330
1F
100
AcDbEntity
  8
0
  6
Continuous
 62
     7
370
    15
100
AcDbSpline
210
0.0
220
0.0
230
1.0
 70
     8
 71
     3
 72
    10
 73
     6
 74
     0
 42
0.00000001
 43
0.00000001
 40
0.0
 40
0.0
 40
0.0
 40
0.0
 40
0.5
 40
0.5
 40
1.0
 40
1.0
 40
1.0
 40
1.0
 10
143.7892066340634
 20
139.8939767112741
 30
0.0
 10
143.7892066340634
 20
139.7502066534561
 30
0.0
 10
143.7531575753445
 20
139.607787290961
 30
0.0
 10
143.6176487145705
 20
139.3578929976038
 30
0.0
 10
143.5177727214744
 20
139.2498626613556
 30
0.0
 10
143.3949091023724
 20
139.1743228602383
 30
0.0
  0
SPLINE
  5
87
330
1F
100
AcDbEntity
  8
0
  6
Continuous
 62
     7
370
    15
100
AcDbSpline
210
0.0
220
0.0
230
1.0
 70
     8
 71
     3
 72
    10
 73
     6
 74
     0
 42
0.00000001
 43
0.00000001
 40
0.0
 40
0.0
 40
0.0
 40
0.0
 40
0.5
 40
0.5
 40
1.0
 40
1.0
 40
1.0
 40
1.0
 10
143.7630590109033
 20
132.6243228602384
 30
0.0
 10
143.7717486538149
 20
132.6712017095565
 30
0.0
 10
143.7782877185655
 20
132.7186241749578
 30
0.0
 10
143.7870463529585
 20
132.8145609735445
 30
0.0
 10
143.7892066340634
 20
132.862476261555
 30
0.0
 10
143.7892066340634
 20
132.9101894916996
 30
0.0
  0
SPLINE
  5
88
330
1F
100
AcDbEntity
  8
0
  6
Continuous
 62
     7
370
    15
100
AcDbSpline
210
0.0
220
0.0
230
1.0
 70
     8
 71
     3
 72
    10
 73
     6
 74
     0
 42
0.00000001
 43
0.00000001
 40
0.0
 40
0.0
 40
0.0
 40
0.0
 40
0.5
 40
0.5
 40
1.0
 40
1.0
 40
1.0
 40
1.0
 10
140.3635041657544
 20
139.1743228602384
 30
0.0
 10
140.2419639020859
 20
139.2490490274501
 30
0.0
 10
140.140629541737
 20
139.3579940433669
 30
0.0
 10
140.0049905988485
 20
139.6084245241285
 30
0.0
 10
139.9692066340634
 20
139.7508438862275
 30
0.0
 10
139.9692066340634
 20
139.8939767112741
 30
0.0
  0
SPLINE
  5
89
330
1F
100
AcDbEntity
  8
0
  6
Continuous
 62
     7
370
    15
100
AcDbSpline
210
0.0
220
0.0
230
1.0
 70
    24
 71
     3
 72
    12
 73
     8
 74
     0
 42
0.00000001
 43
0.00000001
 40
0.0
 40
0.0
 40
0.0
 40
0.0
 40
0.2500000000000037
 40
0.2500000000000037
 40
0.5000000000000074
 40
0.5000000000000074
 40
1.0
 40
1.0
 40
1.0
 40
1.0
 10
140.7692066340634
 20
139.1743228602384
 30
0.0
 10
140.719329951746
 20
139.1743228602384
 30
0.0
 10
140.6713267583424
 20
139.1743228602384
 30
0.0
 10
140.5882786556304
 20
139.1743228602384
 30
0.0
 10
140.5521490761626
 20
139.1743228602384
 30
0.0
 10
140.4562370452183
 20
139.1743228602384
 30
0.0
 10
140.4064783772496
 20
139.1743228602384
 30
0.0
 10
140.3635041657544
 20
139.1743228602384
 30
0.0
  0
SPLINE
  5
8A
330
1F
100
AcDbEntity
  8
0
  6
Continuous
 62
     7
370
    15
100
AcDbSpline
210
0.0
220
0.0
230
1.0
 70
    24
 71
     3
 72
    14
 73
    10
 74
     0
 42
0.00000001
 43
0.00000001
 40
0.0
 40
0.0
 40
0.0
 40
0.0
 40
0.1249999999999991
 40
0.1249999999999991
 40
0.2499999999999982
 40
0.2499999999999982
 40
0.4999999999999998
 40
0.4999999999999998
 40
1.0
 40
1.0
 40
1.0
 40
1.0
 10
140.7692066340634
 20
86.37432286023838
 30
0.0
 10
140.700768786177
 20
86.37432286023838
 30
0.0
 10
140.6352187474119
 20
86.37432286023838
 30
0.0
 10
140.530792108004
 20
86.37432286023838
 30
0.0
 10
140.4882474982426
 20
86.37432286023838
 30
0.0
 10
140.3756380377023
 20
86.37432286023837
 30
0.0
 10
140.3200989906828
 20
86.37432286023838
 30
0.0
 10
140.177487295219
 20
86.37432286023837
 30
0.0
 10
140.1140819402233
 20
86.37432286023837
 30
0.0
 10
140.0668814363957
 20
86.37432286023838
 30
0.0
  0
SPLINE
  5
8B
330
1F
100
AcDbEntity
  8
0
  6
Continuous
 62
     7
370
    15
100
AcDbSpline
210
0.0
220
0.0
230
1.0
 70
     8
 71
     3
 72
    10
 73
     6
 74
     0
 42
0.00000001
 43
0.00000001
 40
0.0
 40
0.0
 40
0.0
 40
0.0
 40
0.5
 40
0.5
 40
1.0
 40
1.0
 40
1.0
 40
1.0
 10
139.9692066340634
 20
132.9101894916998
 30
0.0
 10
139.9692066340634
 20
132.8624179837065
 30
0.0
 10
139.9713678776606
 20
132.8147082616448
 30
0.0
 10
139.9800392515207
 20
132.7194131440965
 30
0.0
 10
139.9865684344767
 20
132.6717205801299
 30
0.0
 10
139.9953542572236
 20
132.6243228602384
 30
0.0
  0
LINE
  5
8C
330
1F
100
AcDbEntity
  8
0
  6
Continuous
 62
     7
370
    15
100
AcDbLine
 10
142.9892066341
 20
139.1743228602
 30
0.0
 11
140.7692066341
 21
139.1743228602
 31
0.0
  0
LINE
  5
8D
330
1F
100
AcDbEntity
  8
0
  6
Continuous
 62
     7
370
    15
100
AcDbLine
 10
142.9892066341
 20
86.3743228602
 30
0.0
 11
140.7692066341
 21
86.3743228602
 31
0.0
  0
LINE
  5
8E
330
1F
100
AcDbEntity
  8
0
  6
Continuous
 62
     7
370
    15
100
AcDbLine
 10
102.0792066341
 20
89.5458759665
 30
0.0
 11
102.0792066341
 21
90.810585329
 31
0.0
  0
SPLINE
  5
8F
330
1F
100
AcDbEntity
  8
0
  6
Continuous
 62
     7
370
    15
100
AcDbSpline
210
0.0
220
0.0
230
1.0
 70
     8
 71
     3
 72
    14
 73
    10
 74
     0
 42
0.00000001
 43
0.00000001
 40
0.0
 40
0.0
 40
0.0
 40
0.0
 40
0.25
 40
0.25
 40
0.5
 40
0.5
 40
0.75
 40
0.75
 40
1.0
 40
1.0
 40
1.0
 40
1.0
 10
101.3009195161477
 20
91.94117153667843
 30
0.0
 10
101.3575461913498
 20
91.83347408284156
 30
0.0
 10
101.4520688516395
 20
91.73068450112224
 30
0.0
 10
101.6351138272017
 20
91.5323271889021
 30
0.0
 10
101.7267404041565
 20
91.43626768022385
 30
0.0
 10
101.8855937218497
 20
91.2487386375146
 30
0.0
 10
101.9534843294714
 20
91.15732966473105
 30
0.0
 10
102.0504013551789
 20
90.9789534438209
 30
0.0
 10
102.079206634064
 20
90.89173153757473
 30
0.0
 10
102.079206634064
 20
90.81058532904046
 30
0.0
  0
SPLINE
  5
90
330
1F
100
AcDbEntity
  8
0
  6
Continuous
 62
     7
370
    15
100
AcDbSpline
210
0.0
220
0.0
230
1.0
 70
     8
 71
     3
 72
    14
 73
    10
 74
     0
 42
0.00000001
 43
0.00000001
 40
0.0
 40
0.0
 40
0.0
 40
0.0
 40
0.1249999999999975
 40
0.1249999999999975
 40
0.249999999999995
 40
0.249999999999995
 40
0.4999999999999953
 40
0.4999999999999953
 40
1.0
 40
1.0
 40
1.0
 40
1.0
 10
100.6792066340634
 20
92.38785339895774
 30
0.0
 10
100.7277510427206
 20
92.39360171223804
 30
0.0
 10
100.7806663975055
 20
92.3905008235818
 30
0.0
 10
100.8759617424886
 20
92.36830597941947
 30
0.0
 10
100.9162127397735
 20
92.35107375232361
 30
0.0
 10
101.0204827532865
 20
92.29474583587155
 30
0.0
 10
101.0708047284398
 20
92.25055948992575
 30
0.0
 10
101.1984876759652
 20
92.11955159107512
 30
0.0
 10
101.2545731230274
 20
92.02931707084483
 30
0.0
 10
101.3009195161492
 20
91.94117153667895
 30
0.0
  0
SPLINE
  5
91
330
1F
100
AcDbEntity
  8
0
  6
Continuous
 62
     7
370
    15
100
AcDbSpline
210
0.0
220
0.0
230
1.0
 70
     8
 71
     3
 72
     8
 73
     4
 74
     0
 42
0.00000001
 43
0.00000001
 40
0.0
 40
0.0
 40
0.0
 40
0.0
 40
1.0
 40
1.0
 40
1.0
 40
1.0
 10
98.41068154111721
 20
92.07800811237496
 30
0.0
 10
99.14525856760017
 20
92.19663312344392
 30
0.0
 10
99.90873363699582
 20
92.2966189955802
 30
0.0
 10
100.6792066340634
 20
92.38785339895774
 30
0.0
  0
SPLINE
  5
92
330
1F
100
AcDbEntity
  8
0
  6
Continuous
 62
     7
370
    15
100
AcDbSpline
210
0.0
220
0.0
230
1.0
 70
     8
 71
     3
 72
    14
 73
    10
 74
     0
 42
0.00000001
 43
0.00000001
 40
0.0
 40
0.0
 40
0.0
 40
0.0
 40
0.500000000000001
 40
0.500000000000001
 40
0.7500000000000004
 40
0.7500000000000004
 40
0.8750000000000003
 40
0.8750000000000003
 40
1.0
 40
1.0
 40
1.0
 40
1.0
 10
93.12920663406344
 20
91.9043850948433
 30
0.0
 10
94.021352764617
 20
91.90366286864266
 30
0.0
 10
94.9113292004106
 20
91.90824907510012
 30
0.0
 10
96.23792436748622
 20
91.93597407949166
 30
0.0
 10
96.67877129598496
 20
91.94858061711584
 30
0.0
 10
97.33521153340736
 20
91.97959676512328
 30
0.0
 10
97.55322518999924
 20
91.99193993775005
 30
0.0
 10
97.98593404368202
 20
92.02496399291334
 30
0.0
 10
98.20121050884681
 20
92.04418115805177
 30
0.0
 10
98.41068154111721
 20
92.07800811237496
 30
0.0
  0
SPLINE
  5
93
330
1F
100
AcDbEntity
  8
0
  6
Continuous
 62
     7
370
    15
100
AcDbSpline
210
0.0
220
0.0
230
1.0
 70
     8
 71
     3
 72
     8
 73
     4
 74
     0
 42
0.00000001
 43
0.00000001
 40
0.0000005163856998
 40
0.0000005163856998
 40
0.0000005163856998
 40
0.0000005163856998
 40
0.000026289209185
 40
0.000026289209185
 40
0.000026289209185
 40
0.000026289209185
 10
93.11916170365582
 20
91.91436896794009
 30
0.0
 10
93.12248944186366
 20
91.91103472107098
 30
0.0
 10
93.12583789483925
 20
91.90770676379566
 30
0.0
 10
93.12920663406341
 20
91.90438509484329
 30
0.0
  0
SPLINE
  5
94
330
1F
100
AcDbEntity
  8
0
  6
Continuous
 62
     7
370
    15
100
AcDbSpline
210
0.0
220
0.0
230
1.0
 70
     8
 71
     3
 72
     8
 73
     4
 74
     0
 42
0.00000001
 43
0.00000001
 40
0.0000005099763573
 40
0.0000005099763573
 40
0.0000005099763573
 40
0.0000005099763573
 40
0.0000262827998699
 40
0.0000262827998699
 40
0.0000262827998699
 40
0.0000262827998699
 10
93.12920663406341
 20
133.6442606256334
 30
0.0
 10
93.12583789483567
 20
133.6409389566776
 30
0.0
 10
93.12248944185653
 20
133.6376109993987
 30
0.0
 10
93.11916170364519
 20
133.634276752526
 30
0.0
  0
SPLINE
  5
95
330
1F
100
AcDbEntity
  8
0
  6
Continuous
 62
     7
370
    15
100
AcDbSpline
210
0.0
220
0.0
230
1.0
 70
     8
 71
     3
 72
    10
 73
     6
 74
     0
 42
0.00000001
 43
0.00000001
 40
0.0
 40
0.0
 40
0.0
 40
0.0
 40
0.5
 40
0.5
 40
1.0
 40
1.0
 40
1.0
 40
1.0
 10
96.67920663406343
 20
133.5974102520661
 30
0.0
 10
96.09162108697285
 20
133.6184757723025
 30
0.0
 10
95.50087469351246
 20
133.6292342581747
 30
0.0
 10
94.31685552821361
 20
133.6425990387104
 30
0.0
 10
93.72344154000814
 20
133.644741681375
 30
0.0
 10
93.12920663406344
 20
133.6442606256334
 30
0.0
  0
SPLINE
  5
96
330
1F
100
AcDbEntity
  8
0
  6
Continuous
 62
     7
370
    15
100
AcDbSpline
210
0.0
220
0.0
230
1.0
 70
     8
 71
     3
 72
    18
 73
    14
 74
     0
 42
0.00000001
 43
0.00000001
 40
0.0
 40
0.0
 40
0.0
 40
0.0
 40
0.2500000000000009
 40
0.2500000000000009
 40
0.500000000000001
 40
0.500000000000001
 40
0.7500000000000011
 40
0.7500000000000011
 40
0.875000000000001
 40
0.875000000000001
 40
0.9375000000000006
 40
0.9375000000000006
 40
1.0
 40
1.0
 40
1.0
 40
1.0
 10
98.07920663406344
 20
134.6184305326014
 30
0.0
 10
98.07920663406344
 20
134.5352236237442
 30
0.0
 10
98.04335753412518
 20
134.4464869684306
 30
0.0
 10
97.91848579809125
 20
134.2643617778704
 30
0.0
 10
97.82808538044338
 20
134.1692317292438
 30
0.0
 10
97.60584272570121
 20
133.9800502201194
 30
0.0
 10
97.47607793925545
 20
133.8851050520247
 30
0.0
 10
97.23544048194393
 20
133.7468263444448
 30
0.0
 10
97.14767318380648
 20
133.7011159111424
 30
0.0
 10
96.99314909659968
 20
133.6432926059209
 30
0.0
 10
96.93653821054492
 20
133.6255778418831
 30
0.0
 10
96.81249417963832
 20
133.6010385386501
 30
0.0
 10
96.74477950462003
 20
133.5950594001118
 30
0.0
 10
96.67920663406343
 20
133.5974102520661
 30
0.0
  0
LINE
  5
97
330
1F
100
AcDbEntity
  8
0
  6
Continuous
 62
     7
370
    15
100
AcDbLine
 10
98.0792066341
 20
134.6184305326
 30
0.0
 11
98.0792066341
 21
135.8023689524
 31
0.0
  0
LINE
  5
98
330
1F
100
AcDbEntity
  8
0
  6
Continuous
 62
     7
370
    15
100
AcDbLine
 10
121.8792066341
 20
88.5538919985
 30
0.0
 11
121.8792066341
 21
136.994753722
 31
0.0
  0
SPLINE
  5
99
330
1F
100
AcDbEntity
  8
0
  6
Continuous
 62
     7
370
    15
100
AcDbSpline
210
0.0
220
0.0
230
1.0
 70
     8
 71
     3
 72
    24
 73
    20
 74
     0
 42
0.00000001
 43
0.00000001
 40
0.0
 40
0.0
 40
0.0
 40
0.0
 40
0.0010489762969682
 40
0.0637843125639766
 40
0.1272220590447888
 40
0.1903788924487598
 40
0.252674865369363
 40
0.3146354154424954
 40
0.377089199714964
 40
0.4393540298504154
 40
0.5008133242537826
 40
0.562184510458698
 40
0.624843845111553
 40
0.6874304766616532
 40
0.7496743174679398
 40
0.8119848426977657
 40
0.8750960525413161
 40
0.9384412526965076
 40
0.9999999999999999
 40
0.9999999999999999
 40
0.9999999999999999
 40
0.9999999999999999
 10
110.6481124660391
 20
89.11681443165823
 30
0.0
 10
110.6476660059349
 20
89.11675614583933
 30
0.0
 10
110.6205184422411
 20
89.1132120038968
 30
0.0
 10
110.7161302198548
 20
89.12604574857956
 30
0.0
 10
110.9496904777492
 20
89.15529243377975
 30
0.0
 10
111.3452447850665
 20
89.20190675684259
 30
0.0
 10
111.872285088904
 20
89.25208989850195
 30
0.0
 10
112.5158155008939
 20
89.29646636095156
 30
0.0
 10
113.2544893561329
 20
89.32341114188975
 30
0.0
 10
114.0520038615662
 20
89.32688299259654
 30
0.0
 10
114.8785827440089
 20
89.2992557485663
 30
0.0
 10
115.7041057616197
 20
89.24077685959297
 30
0.0
 10
116.4962323096209
 20
89.15533183023288
 30
0.0
 10
117.2288045836268
 20
89.05359759039656
 30
0.0
 10
117.8644448203548
 20
88.94575446842359
 30
0.0
 10
118.3863559273643
 20
88.84412431168451
 30
0.0
 10
118.7679847044799
 20
88.76163915500629
 30
0.0
 10
119.0187991747136
 20
88.70548994865666
 30
0.0
 10
119.0479207306979
 20
88.69864049004292
 30
0.0
 10
119.0622732515141
 20
88.69526474331475
 30
0.0
  0
SPLINE
  5
9A
330
1F
100
AcDbEntity
  8
0
  6
Continuous
 62
     7
370
    15
100
AcDbSpline
210
0.0
220
0.0
230
1.0
 70
     8
 71
     3
 72
    24
 73
    20
 74
     0
 42
0.00000001
 43
0.00000001
 40
0.0
 40
0.0
 40
0.0
 40
0.0
 40
0.0614384276250176
 40
0.1250736755369651
 40
0.1884253490729237
 40
0.2508623904037427
 40
0.3129665632511172
 40
0.3753451453465143
 40
0.4377328972324873
 40
0.4990927322917189
 40
0.5605807588447405
 40
0.6229469893028771
 40
0.6854686282025979
 40
0.7475477813740068
 40
0.8098225060804932
 40
0.8730684085990272
 40
0.9364041844536292
 40
0.9991757196257863
 40
1.0
 40
1.0
 40
1.0
 40
1.0
 10
119.0622184807112
 20
136.8533518346958
 30
0.0
 10
119.0476177564078
 20
136.8499837778432
 30
0.0
 10
119.0178942376798
 20
136.8431272343694
 30
0.0
 10
118.7651564220311
 20
136.7867886138434
 30
0.0
 10
118.3821605055815
 20
136.7039315317135
 30
0.0
 10
117.8598049211444
 20
136.6020245017622
 30
0.0
 10
117.2250204431445
 20
136.4941853627183
 30
0.0
 10
116.4947968389719
 20
136.3927184107432
 30
0.0
 10
115.7043282537378
 20
136.3076586970526
 30
0.0
 10
114.8798447389097
 20
136.2494544031662
 30
0.0
 10
114.0528082800262
 20
136.2218709643395
 30
0.0
 10
113.2544840123745
 20
136.2253639418323
 30
0.0
 10
112.5146600480852
 20
136.2523198616855
 30
0.0
 10
111.8704058151101
 20
136.2966738036847
 30
0.0
 10
111.3429985598942
 20
136.3468792534426
 30
0.0
 10
110.948333957744
 20
136.393489108641
 30
0.0
 10
110.7158046785557
 20
136.4226847011883
 30
0.0
 10
110.6204246460071
 20
136.4354627701296
 30
0.0
 10
110.647358282908
 20
136.4319085116218
 30
0.0
 10
110.6477073761324
 20
136.4318624440384
 30
0.0
  0
SPLINE
  5
9B
330
1F
100
AcDbEntity
  8
0
  6
Continuous
 62
     7
370
    15
100
AcDbSpline
210
0.0
220
0.0
230
1.0
 70
     8
 71
     3
 72
    10
 73
     6
 74
     0
 42
0.00000001
 43
0.00000001
 40
0.0
 40
0.0
 40
0.0
 40
0.0
 40
0.0840381716606348
 40
0.7011125076933074
 40
1.0
 40
1.0
 40
1.0
 40
1.0
 10
91.9927535965991
 20
93.04554895255504
 30
0.0
 10
91.99342815393402
 20
93.04334332571915
 30
0.0
 10
91.99905584163021
 20
93.02494225235692
 30
0.0
 10
92.02537732175706
 20
93.0391768150801
 30
0.0
 10
92.03781233860177
 20
93.08486259063109
 30
0.0
 10
92.04187000878683
 20
93.09977031545766
 30
0.0
  0
LINE
  5
9C
330
1F
100
AcDbEntity
  8
0
  6
Continuous
 62
     7
370
    15
100
AcDbLine
 10
91.9792066341
 20
93.0836451138
 30
0.0
 11
91.9792066341
 21
132.4650006067
 31
0.0
  0
SPLINE
  5
9D
330
1F
100
AcDbEntity
  8
0
  6
Continuous
 62
     7
370
    15
100
AcDbSpline
210
0.0
220
0.0
230
1.0
 70
     8
 71
     3
 72
    10
 73
     6
 74
     0
 42
0.00000001
 43
0.00000001
 40
0.0
 40
0.0
 40
0.0
 40
0.0
 40
0.3981552638809415
 40
0.8068145697130351
 40
1.0
 40
1.0
 40
1.0
 40
1.0
 10
92.04187000878683
 20
132.4488754050191
 30
0.0
 10
92.03620650406236
 20
132.46771718957
 30
0.0
 10
92.02473008131508
 20
132.5058978383623
 30
0.0
 10
92.00121585334087
 20
132.5194811222299
 30
0.0
 10
91.99619989752307
 20
132.5037808281098
 30
0.0
 10
91.99458983179547
 20
132.4987412092626
 30
0.0
  0
SPLINE
  5
9E
330
1F
100
AcDbEntity
  8
0
  6
Continuous
 62
     7
370
    15
100
AcDbSpline
210
0.0
220
0.0
230
1.0
 70
     8
 71
     3
 72
    26
 73
    22
 74
     0
 42
0.00000001
 43
0.00000001
 40
0.0
 40
0.0
 40
0.0
 40
0.0
 40
0.2500000000000165
 40
0.2500000000000165
 40
0.3750000000000256
 40
0.3750000000000256
 40
0.4375000000000291
 40
0.4375000000000291
 40
0.4687500000000291
 40
0.4687500000000291
 40
0.5000000000000292
 40
0.5000000000000292
 40
0.5312500000000293
 40
0.5312500000000293
 40
0.5625000000000293
 40
0.5625000000000293
 40
0.625000000000026
 40
0.625000000000026
 40
0.7500000000000173
 40
0.7500000000000173
 40
1.0
 40
1.0
 40
1.0
 40
1.0
 10
92.80336028016795
 20
133.1644421938362
 30
0.0
 10
92.76475975729947
 20
133.0466674974808
 30
0.0
 10
92.71846275474522
 20
132.9222778113188
 30
0.0
 10
92.62452340631128
 20
132.7170584789654
 30
0.0
 10
92.58921193939783
 20
132.6454856125189
 30
0.0
 10
92.52303196365216
 20
132.5295323799185
 30
0.0
 10
92.49849359698392
 20
132.4889478451082
 30
0.0
 10
92.45512085143014
 20
132.4248061632365
 30
0.0
 10
92.43961245000493
 20
132.4029397379514
 30
0.0
 10
92.40456980541792
 20
132.3573454696082
 30
0.0
 10
92.38501951469814
 20
132.3336751786408
 30
0.0
 10
92.34309223432754
 20
132.2890586193009
 30
0.0
 10
92.32044012409591
 20
132.268178606783
 30
0.0
 10
92.27946641000925
 20
132.2373051930321
 30
0.0
 10
92.26186711011383
 20
132.2274663231997
 30
0.0
 10
92.2172401242577
 20
132.2084767075036
 30
0.0
 10
92.19668090160435
 20
132.2081523828501
 30
0.0
 10
92.1455554621077
 20
132.2173758237263
 30
0.0
 10
92.12464404911915
 20
132.2386227199433
 30
0.0
 10
92.07319414155822
 20
132.3125915987741
 30
0.0
 10
92.05552884225366
 20
132.3787096920888
 30
0.0
 10
92.04187000878683
 20
132.4488754050191
 30
0.0
  0
SPLINE
  5
9F
330
1F
100
AcDbEntity
  8
0
  6
Continuous
 62
     7
370
    15
100
AcDbSpline
210
0.0
220
0.0
230
1.0
 70
     8
 71
     3
 72
    10
 73
     6
 74
     0
 42
0.00000001
 43
0.00000001
 40
0.0
 40
0.0
 40
0.0
 40
0.0
 40
0.5
 40
0.5
 40
1.0
 40
1.0
 40
1.0
 40
1.0
 10
93.11916170364522
 20
133.634276752526
 30
0.0
 10
93.05160244872697
 20
133.5665853597163
 30
0.0
 10
92.98796579339049
 20
133.4918781949626
 30
0.0
 10
92.87774503881865
 20
133.332912062536
 30
0.0
 10
92.83092874559601
 20
133.248556796528
 30
0.0
 10
92.80336028016795
 20
133.1644421938362
 30
0.0
  0
SPLINE
  5
A0
330
1F
100
AcDbEntity
  8
0
  6
Continuous
 62
     7
370
    15
100
AcDbSpline
210
0.0
220
0.0
230
1.0
 70
     8
 71
     3
 72
    10
 73
     6
 74
     0
 42
0.00000001
 43
0.00000001
 40
0.0
 40
0.0
 40
0.0
 40
0.0
 40
0.5
 40
0.5
 40
1.0
 40
1.0
 40
1.0
 40
1.0
 10
92.80336028016798
 20
92.3842035266404
 30
0.0
 10
92.83083769492195
 20
92.30036673017253
 30
0.0
 10
92.87754632521137
 20
92.21605624258339
 30
0.0
 10
92.98782478795732
 20
92.05693501209667
 30
0.0
 10
93.05171232657122
 20
91.98195026800703
 30
0.0
 10
93.11916170365583
 20
91.91436896794009
 30
0.0
  0
SPLINE
  5
A1
330
1F
100
AcDbEntity
  8
0
  6
Continuous
 62
     7
370
    15
100
AcDbSpline
210
0.0
220
0.0
230
1.0
 70
     8
 71
     3
 72
    24
 73
    20
 74
     0
 42
0.00000001
 43
0.00000001
 40
0.0
 40
0.0
 40
0.0
 40
0.0
 40
0.25
 40
0.25
 40
0.374999999999999
 40
0.374999999999999
 40
0.4374999999999993
 40
0.4374999999999993
 40
0.4687499999999994
 40
0.4687499999999994
 40
0.4999999999999995
 40
0.4999999999999995
 40
0.5624999999999971
 40
0.5624999999999971
 40
0.6249999999999947
 40
0.6249999999999947
 40
0.7499999999999947
 40
0.7499999999999947
 40
1.0
 40
1.0
 40
1.0
 40
1.0
 10
92.04187000878683
 20
93.09977031545763
 30
0.0
 10
92.05562312745708
 20
93.17042037344791
 30
0.0
 10
92.07339569486294
 20
93.23701848621285
 30
0.0
 10
92.1256467864183
 20
93.31111650644606
 30
0.0
 10
92.14668186199984
 20
93.3323743136076
 30
0.0
 10
92.1995822696283
 20
93.34052023975386
 30
0.0
 10
92.2206879425062
 20
93.33958043635808
 30
0.0
 10
92.26674011118416
 20
93.31856444478073
 30
0.0
 10
92.28511058316757
 20
93.30765563867311
 30
0.0
 10
92.32666221823327
 20
93.27502072772576
 30
0.0
 10
92.34922889099018
 20
93.25352874735438
 30
0.0
 10
92.41200990745018
 20
93.18506280376806
 30
0.0
 10
92.44513966841808
 20
93.13898834556298
 30
0.0
 10
92.5020573549031
 20
93.0539804572283
 30
0.0
 10
92.52624338040688
 20
93.01370015604692
 30
0.0
 10
92.59145133078664
 20
92.89876392958098
 30
0.0
 10
92.62616739097787
 20
92.82818094443397
 30
0.0
 10
92.71938266130874
 20
92.62397518535536
 30
0.0
 10
92.76505519666944
 20
92.50107680302801
 30
0.0
 10
92.80336028016798
 20
92.38420352664042
 30
0.0
  0
LINE
  5
A2
330
1F
100
AcDbEntity
  8
0
  6
Continuous
 62
     7
370
    15
100
AcDbLine
 10
149.2292066341
 20
143.2415183334
 30
0.0
 11
145.2711394656
 21
143.2415183334
 31
0.0
  0
LINE
  5
A3
330
1F
100
AcDbEntity
  8
0
  6
Continuous
 62
     7
370
    15
100
AcDbLine
 10
145.2711394656
 20
137.2330125226
 30
0.0
 11
149.2292066341
 21
137.2330125226
 31
0.0
  0
LINE
  5
A4
330
1F
100
AcDbEntity
  8
0
  6
Continuous
 62
     7
370
    15
100
AcDbLine
 10
145.2711394656
 20
137.2330125226
 30
0.0
 11
145.2711394656
 21
143.2415183334
 31
0.0
  0
SPLINE
  5
A5
330
1F
100
AcDbEntity
  8
0
  6
Continuous
 62
     7
370
    15
100
AcDbSpline
210
0.0
220
0.0
230
1.0
 70
     8
 71
     3
 72
     8
 73
     4
 74
     0
 42
0.00000001
 43
0.00000001
 40
0.0
 40
0.0
 40
0.0
 40
0.0
 40
1.0
 40
1.0
 40
1.0
 40
1.0
 10
145.2711394655525
 20
143.2415183334026
 30
0.0
 10
144.7759994361882
 20
142.3548386852224
 30
0.0
 10
144.2819167309092
 20
141.4675760495363
 30
0.0
 10
143.7892066340634
 20
140.57955705141
 30
0.0
  0
SPLINE
  5
A6
330
1F
100
AcDbEntity
  8
0
  6
Continuous
 62
     7
370
    15
100
AcDbSpline
210
0.0
220
0.0
230
1.0
 70
     8
 71
     3
 72
     8
 73
     4
 74
     0
 42
0.00000001
 43
0.00000001
 40
0.0
 40
0.0
 40
0.0
 40
0.0
 40
1.0
 40
1.0
 40
1.0
 40
1.0
 10
143.7892066340634
 20
133.8244665278217
 30
0.0
 10
144.2684847846533
 20
134.9654777576743
 30
0.0
 10
144.7640526237932
 20
136.1018621684422
 30
0.0
 10
145.2711394655525
 20
137.2330125226058
 30
0.0
  0
LINE
  5
A7
330
1F
100
AcDbEntity
  8
0
  6
Continuous
 62
     7
370
    15
100
AcDbLine
 10
143.7892066341
 20
133.8244665278
 30
0.0
 11
143.7892066341
 21
140.5795570514
 31
0.0
  0
SPLINE
  5
A8
330
1F
100
AcDbEntity
  8
0
  6
Continuous
 62
     7
370
    15
100
AcDbSpline
210
0.0
220
0.0
230
1.0
 70
     8
 71
     3
 72
    10
 73
     6
 74
     0
 42
0.00000001
 43
0.00000001
 40
0.0
 40
0.0
 40
0.0
 40
0.0
 40
0.5
 40
0.5
 40
1.0
 40
1.0
 40
1.0
 40
1.0
 10
149.8292066340634
 20
142.6207631840023
 30
0.0
 10
149.8292066340634
 20
142.7811684503531
 30
0.0
 10
149.7669688029566
 20
142.9402302633417
 30
0.0
 10
149.547833879214
 20
143.171142728972
 30
0.0
 10
149.3902451842222
 20
143.2415183334026
 30
0.0
 10
149.2292066340634
 20
143.2415183334026
 30
0.0
  0
SPLINE
  5
A9
330
1F
100
AcDbEntity
  8
0
  6
Continuous
 62
     7
370
    15
100
AcDbSpline
210
0.0
220
0.0
230
1.0
 70
     8
 71
     3
 72
    12
 73
     8
 74
     0
 42
0.00000001
 43
0.00000001
 40
0.0
 40
0.0
 40
0.0
 40
0.0
 40
0.250000000000002
 40
0.250000000000002
 40
0.500000000000004
 40
0.500000000000004
 40
1.0
 40
1.0
 40
1.0
 40
1.0
 10
149.2292066340634
 20
137.2330125226058
 30
0.0
 10
149.3204063558891
 20
137.2330125226058
 30
0.0
 10
149.4110013650251
 20
137.2047928240179
 30
0.0
 10
149.5644140914717
 20
137.1103498167698
 30
0.0
 10
149.6296229587954
 20
137.0440628400645
 30
0.0
 10
149.7824074881354
 20
136.8184380167762
 30
0.0
 10
149.8292066340634
 20
136.6360117537436
 30
0.0
 10
149.8292066340634
 20
136.4552751214968
 30
0.0
  0
LINE
  5
AA
330
1F
100
AcDbEntity
  8
0
  6
Continuous
 62
     7
370
    15
100
AcDbLine
 10
149.8292066341
 20
136.4552751215
 30
0.0
 11
149.8292066341
 21
142.620763184
 31
0.0
  0
LINE
  5
AB
330
1F
100
AcDbEntity
  8
0
  6
Continuous
 62
     7
370
    15
100
AcDbLine
 10
143.7892066341
 20
132.9101894917
 30
0.0
 11
143.7892066341
 21
133.8244665278
 31
0.0
  0
LINE
  5
AC
330
1F
100
AcDbEntity
  8
0
  6
Continuous
 62
     7
370
    15
100
AcDbLine
 10
149.8292066341
 20
136.4552751215
 30
0.0
 11
149.8292066341
 21
132.6243228602
 31
0.0
  0
SPLINE
  5
AD
330
1F
100
AcDbEntity
  8
0
  6
Continuous
 62
     7
370
    15
100
AcDbSpline
210
0.0
220
0.0
230
1.0
 70
     8
 71
     3
 72
     8
 73
     4
 74
     0
 42
0.00000001
 43
0.00000001
 40
0.0
 40
0.0
 40
0.0
 40
0.0
 40
1.0
 40
1.0
 40
1.0
 40
1.0
 10
139.9692066340634
 20
140.57955705141
 30
0.0
 10
139.4764965372177
 20
141.4675760495364
 30
0.0
 10
138.9824138319387
 20
142.3548386852224
 30
0.0
 10
138.4872738025744
 20
143.2415183334026
 30
0.0
  0
SPLINE
  5
AE
330
1F
100
AcDbEntity
  8
0
  6
Continuous
 62
     7
370
    15
100
AcDbSpline
210
0.0
220
0.0
230
1.0
 70
     8
 71
     3
 72
     8
 73
     4
 74
     0
 42
0.00000001
 43
0.00000001
 40
0.0
 40
0.0
 40
0.0
 40
0.0
 40
1.0
 40
1.0
 40
1.0
 40
1.0
 10
138.4872738025744
 20
137.2330125226058
 30
0.0
 10
138.9943606443337
 20
136.1018621684422
 30
0.0
 10
139.4899284834736
 20
134.9654777576743
 30
0.0
 10
139.9692066340634
 20
133.8244665278217
 30
0.0
  0
LINE
  5
AF
330
1F
100
AcDbEntity
  8
0
  6
Continuous
 62
     7
370
    15
100
AcDbLine
 10
139.9692066341
 20
133.8244665278
 30
0.0
 11
139.9692066341
 21
140.5795570514
 31
0.0
  0
LINE
  5
B0
330
1F
100
AcDbEntity
  8
0
  6
Continuous
 62
     7
370
    15
100
AcDbLine
 10
139.9692066341
 20
133.8244665278
 30
0.0
 11
139.9692066341
 21
132.9101894917
 31
0.0
  0
ARC
  5
B1
330
1F
100
AcDbEntity
  8
0
  6
Continuous
 62
     7
370
    15
100
AcDbCircle
 10
131.9744144835
 20
131.8872669171
 30
0.0
 40
6.833321649690662
100
AcDbArc
 50
70.4217073472
 51
90.7983210413
  0
ARC
  5
B2
330
1F
100
AcDbEntity
  8
0
  6
Continuous
 62
     7
370
    15
100
AcDbCircle
 10
131.7835505204
 20
131.891640818
 30
0.0
 40
6.828954438019572
100
AcDbArc
 50
89.1974070275
 51
109.6450206818
  0
LINE
  5
B3
330
1F
100
AcDbEntity
  8
0
  6
Continuous
 62
     7
370
    15
100
AcDbLine
 10
170.7605924255
 20
97.7743228602
 30
0.0
 11
170.7605924255
 21
127.7743228602
 31
0.0
  0
LINE
  5
B4
330
1F
100
AcDbEntity
  8
0
  6
Continuous
 62
     7
370
    15
100
AcDbLine
 10
208.8792066341
 20
102.6231038436
 30
0.0
 11
208.8792066341
 21
122.9255418679
 31
0.0
  0
LINE
  5
B5
330
1F
100
AcDbEntity
  8
0
  6
HIDDEN
 62
     7
370
     0
100
AcDbLine
 10
166.8792066341
 20
108.7743228602
 30
0.0
 11
166.8792066341
 21
116.7743228602
 31
0.0
  0
LINE
  5
B6
330
1F
100
AcDbEntity
  8
0
  6
HIDDEN
 62
     7
370
     0
100
AcDbLine
 10
151.3792066341
 20
108.7743228602
 30
0.0
 11
151.3792066341
 21
116.7743228602
 31
0.0
  0
LINE
  5
B7
330
1F
100
AcDbEntity
  8
0
  6
HIDDEN
 62
     7
370
     0
100
AcDbLine
 10
150.8792066341
 20
109.2743228602
 30
0.0
 11
150.8792066341
 21
116.2743228602
 31
0.0
  0
LINE
  5
B8
330
1F
100
AcDbEntity
  8
0
  6
HIDDEN
 62
     7
370
     0
100
AcDbLine
 10
170.8792066341
 20
111.7743228602
 30
0.0
 11
168.8792066341
 21
111.7743228602
 31
0.0
  0
LINE
  5
B9
330
1F
100
AcDbEntity
  8
0
  6
HIDDEN
 62
     7
370
     0
100
AcDbLine
 10
170.8792066341
 20
109.2743228602
 30
0.0
 11
170.8792066341
 21
111.7743228602
 31
0.0
  0
LINE
  5
BA
330
1F
100
AcDbEntity
  8
0
  6
HIDDEN
 62
     7
370
     0
100
AcDbLine
 10
170.8792066341
 20
113.7743228602
 30
0.0
 11
170.8792066341
 21
116.2743228602
 31
0.0
  0
LINE
  5
BB
330
1F
100
AcDbEntity
  8
0
  6
HIDDEN
 62
     7
370
     0
100
AcDbLine
 10
168.8792066341
 20
113.7743228602
 30
0.0
 11
170.8792066341
 21
113.7743228602
 31
0.0
  0
LINE
  5
BC
330
1F
100
AcDbEntity
  8
0
  6
HIDDEN
 62
     7
370
     0
100
AcDbLine
 10
168.8792066341
 20
111.7743228602
 30
0.0
 11
168.8792066341
 21
113.7743228602
 31
0.0
  0
LINE
  5
BD
330
1F
100
AcDbEntity
  8
0
  6
HIDDEN
 62
     7
370
     0
100
AcDbLine
 10
165.8792066341
 20
113.7743228602
 30
0.0
 11
165.8792066341
 21
112.7743228602
 31
0.0
  0
LINE
  5
BE
330
1F
100
AcDbEntity
  8
0
  6
HIDDEN
 62
     7
370
     0
100
AcDbLine
 10
165.8792066341
 20
112.7743228602
 30
0.0
 11
165.8792066341
 21
111.7743228602
 31
0.0
  0
LINE
  5
BF
330
1F
100
AcDbEntity
  8
0
  6
HIDDEN
 62
     7
370
     0
100
AcDbLine
 10
165.8792066341
 20
112.7743228602
 30
0.0
 11
168.8792066341
 21
112.7743228602
 31
0.0
  0
LINE
  5
C0
330
1F
100
AcDbEntity
  8
0
  6
HIDDEN
 62
     7
370
     0
100
AcDbLine
 10
155.879206634
 20
112.7743228602
 30
0.0
 11
150.8792066341
 21
112.7743228602
 31
0.0
  0
LINE
  5
C1
330
1F
100
AcDbEntity
  8
0
  6
HIDDEN
 62
     7
370
     0
100
AcDbLine
 10
155.879206634
 20
112.7743228602
 30
0.0
 11
155.879206634
 21
113.7743228602
 31
0.0
  0
LINE
  5
C2
330
1F
100
AcDbEntity
  8
0
  6
HIDDEN
 62
     7
370
     0
100
AcDbLine
 10
155.879206634
 20
111.7743228602
 30
0.0
 11
155.879206634
 21
112.7743228602
 31
0.0
  0
LINE
  5
C3
330
1F
100
AcDbEntity
  8
0
  6
HIDDEN
 62
     7
370
     0
100
AcDbLine
 10
155.879206634
 20
110.7743228602
 30
0.0
 11
155.879206634
 21
111.7743228602
 31
0.0
  0
LINE
  5
C4
330
1F
100
AcDbEntity
  8
0
  6
HIDDEN
 62
     7
370
     0
100
AcDbLine
 10
165.8792066341
 20
111.7743228602
 30
0.0
 11
165.8792066341
 21
110.7743228602
 31
0.0
  0
LINE
  5
C5
330
1F
100
AcDbEntity
  8
0
  6
HIDDEN
 62
     7
370
     0
100
AcDbLine
 10
155.879206634
 20
113.7743228602
 30
0.0
 11
155.879206634
 21
114.7743228602
 31
0.0
  0
LINE
  5
C6
330
1F
100
AcDbEntity
  8
0
  6
HIDDEN
 62
     7
370
     0
100
AcDbLine
 10
165.8792066341
 20
114.7743228602
 30
0.0
 11
165.8792066341
 21
113.7743228602
 31
0.0
  0
LINE
  5
C7
330
1F
100
AcDbEntity
  8
0
  6
HIDDEN
 62
     7
370
     0
100
AcDbLine
 10
155.879206634
 20
114.7743228602
 30
0.0
 11
150.879206634
 21
114.7743228602
 31
0.0
  0
LINE
  5
C8
330
1F
100
AcDbEntity
  8
0
  6
HIDDEN
 62
     7
370
     0
100
AcDbLine
 10
165.8792066341
 20
114.7743228602
 30
0.0
 11
170.8792066341
 21
114.7743228602
 31
0.0
  0
LINE
  5
C9
330
1F
100
AcDbEntity
  8
0
  6
HIDDEN
 62
     7
370
     0
100
AcDbLine
 10
155.879206634
 20
110.7743228602
 30
0.0
 11
150.879206634
 21
110.7743228602
 31
0.0
  0
LINE
  5
CA
330
1F
100
AcDbEntity
  8
0
  6
HIDDEN
 62
     7
370
     0
100
AcDbLine
 10
165.8792066341
 20
110.7743228602
 30
0.0
 11
170.8792066341
 21
110.7743228602
 31
0.0
  0
LINE
  5
CB
330
1F
100
AcDbEntity
  8
0
  6
HIDDEN
 62
     7
370
     0
100
AcDbLine
 10
138.4872738026
 20
137.2330125226
 30
0.0
 11
138.4872738026
 21
132.6243228602
 31
0.0
  0
LWPOLYLINE
  5
CC
330
1F
100
AcDbEntity
  8
0
  6
HIDDEN
 62
     7
370
     0
100
AcDbPolyline
 90
       21
 70
   128
 43
0.0
 10
135.7486118894
 20
126.0715274788
 10
135.8023477557
 20
125.863570502
 10
135.8792066341
 20
125.1682635031
 10
135.8023477557
 20
124.4729565042
 10
135.5747247641
 20
123.8043697634
 10
135.2050850833
 20
123.1881966941
 10
134.7076337588
 20
122.6481164818
 10
134.1014875661
 20
122.2048841062
 10
133.4099403635
 20
121.875532739
 10
132.6595679221
 20
121.6727191685
 10
131.8792066341
 20
121.6042374064
 10
131.098845346
 20
121.6727191685
 10
130.3484729046
 20
121.875532739
 10
129.656925702
 20
122.2048841062
 10
129.0507795093
 20
122.6481164818
 10
128.5533281849
 20
123.1881966941
 10
128.183688504
 20
123.8043697634
 10
127.9560655125
 20
124.4729565042
 10
127.8792066341
 20
125.1682635031
 10
127.9560655125
 20
125.863570502
 10
128.033705582
 20
126.1492295814
  0
LINE
  5
CD
330
1F
100
AcDbEntity
  8
0
  6
HIDDEN
 62
     7
370
     0
100
AcDbLine
 10
111.8743568386
 20
89.2497232374
 30
0.0
 11
111.6254920199
 21
89.2264602709
 31
0.0
  0
LINE
  5
CE
330
1F
100
AcDbEntity
  8
0
  6
HIDDEN
 62
     7
370
     0
100
AcDbLine
 10
111.4929312587
 20
136.3344091885
 30
0.0
 11
111.8742641184
 21
136.2989058902
 31
0.0
  0
SPLINE
  5
CF
330
1F
100
AcDbEntity
  8
0
  6
HIDDEN
 62
     7
370
     0
100
AcDbSpline
210
0.0
220
0.0
230
1.0
 70
     8
 71
     3
 72
    15
 73
    11
 74
     0
 42
0.00000001
 43
0.00000001
 40
0.0
 40
0.0
 40
0.0
 40
0.0
 40
0.1100607274421901
 40
0.2208955674886744
 40
0.3341581526710583
 40
0.4482552109073714
 40
0.5583388993787339
 40
0.7822128698548019
 40
0.8962637744011913
 40
1.0
 40
1.0
 40
1.0
 40
1.0
 10
117.634208635665
 20
132.6118513360549
 30
0.0
 10
117.7018026218249
 20
132.6209195901268
 30
0.0
 10
117.8374660167397
 20
132.6391198798752
 30
0.0
 10
118.0179114459523
 20
132.6598409354964
 30
0.0
 10
118.1800602026955
 20
132.6765806196946
 30
0.0
 10
118.318111415775
 20
132.689162735864
 30
0.0
 10
118.4697518063793
 20
132.7015415146693
 30
0.0
 10
118.5711994866393
 20
132.7084989307267
 30
0.0
 10
118.6226210459158
 20
132.7117960731279
 30
0.0
 10
118.6265760513367
 20
132.7120413858512
 30
0.0
 10
118.6284598969722
 20
132.7121582330495
 30
0.0
  0
SPLINE
  5
D0
330
1F
100
AcDbEntity
  8
0
  6
HIDDEN
 62
     7
370
     0
100
AcDbSpline
210
0.0
220
0.0
230
1.0
 70
     8
 71
     3
 72
    17
 73
    13
 74
     0
 42
0.00000001
 43
0.00000001
 40
0.0
 40
0.0
 40
0.0
 40
0.0
 40
0.0069572164448407
 40
0.1183013669758523
 40
0.2320595707501251
 40
0.3466525074063425
 40
0.4573726128519217
 40
0.5688651851441084
 40
0.6828018775511046
 40
0.7975882044487069
 40
0.8984964740612942
 40
1.0
 40
1.0
 40
1.0
 40
1.0
 10
118.6284536897639
 20
92.8364878795513
 30
0.0
 10
118.628702945023
 20
92.8364721387962
 30
0.0
 10
118.6329413122073
 20
92.83620448105401
 30
0.0
 10
118.6170197301327
 20
92.83720145727754
 30
0.0
 10
118.5780064790593
 20
92.83971784407572
 30
0.0
 10
118.5095536423208
 20
92.84441549790577
 30
0.0
 10
118.4168018536981
 20
92.85136535313853
 30
0.0
 10
118.2995102338391
 20
92.86109484075932
 30
0.0
 10
118.1566736049595
 20
92.874341846847
 30
0.0
 10
117.9951242110136
 20
92.89132893557536
 30
0.0
 10
117.8213208710026
 20
92.91162157597707
 30
0.0
 10
117.696701541715
 20
92.92838701357135
 30
0.0
 10
117.634208635665
 20
92.93679438442192
 30
0.0
  0
SPLINE
  5
D1
330
1F
100
AcDbEntity
  8
0
  6
HIDDEN
 62
     7
370
     0
100
AcDbSpline
210
0.0
220
0.0
230
1.0
 70
     8
 71
     3
 72
    32
 73
    28
 74
     0
 42
0.00000001
 43
0.00000001
 40
0.0
 40
0.0
 40
0.0
 40
0.0
 40
0.0346246159901393
 40
0.0694870388940023
 40
0.105100760954932
 40
0.1409753874086758
 40
0.1756005721189328
 40
0.210469240812561
 40
0.2461122854708169
 40
0.2820258067991321
 40
0.3162663828049037
 40
0.3859338563640312
 40
0.4214461814158482
 40
0.4553763558770598
 40
0.5243713305904967
 40
0.5595124638219118
 40
0.593798734303577
 40
0.6635059787021123
 40
0.6990055363805018
 40
0.7337623601246063
 40
0.7687606633024604
 40
0.8045245907686109
 40
0.8405553812432468
 40
0.875170121130555
 40
0.9456085132854553
 40
0.9815233266320907
 40
1.0
 40
1.0
 40
1.0
 40
1.0
 10
117.634208635665
 20
92.93679438442192
 30
0.0
 10
117.5622103338186
 20
92.94658232733025
 30
0.0
 10
117.4177192352854
 20
92.96622543816667
 30
0.0
 10
117.176399301027
 20
92.99567465678838
 30
0.0
 10
116.9171010500413
 20
93.02422503887881
 30
0.0
 10
116.6431136309087
 20
93.05065625783364
 30
0.0
 10
116.3584858498872
 20
93.07410873518495
 30
0.0
 10
116.063900890919
 20
93.09410619164355
 30
0.0
 10
115.7569699819507
 20
93.11026187014728
 30
0.0
 10
115.4452385161983
 20
93.1217038578428
 30
0.0
 10
115.0279729675129
 20
93.13039498554063
 30
0.0
 10
114.6073299741553
 20
93.12910692908044
 30
0.0
 10
114.1939264209898
 20
93.11787911771296
 30
0.0
 10
113.7890824579225
 20
93.10058084563211
 30
0.0
 10
113.3984443733604
 20
93.07486520186387
 30
0.0
 10
113.0296632953191
 20
93.04277189096696
 30
0.0
 10
112.6762455130707
 20
93.00721368246452
 30
0.0
 10
112.3508044227498
 20
92.96796522612892
 30
0.0
 10
112.0614272170324
 20
92.92833370875658
 30
0.0
 10
111.8635133400571
 20
92.89919796561433
 30
0.0
 10
111.6861863760196
 20
92.87146373330158
 30
0.0
 10
111.5295770475071
 20
92.84568318904721
 30
0.0
 10
111.3979295278044
 20
92.82307655231303
 30
0.0
 10
111.2560683322327
 20
92.79789050700637
 30
0.0
 10
111.167249744417
 20
92.78144495788277
 30
0.0
 10
111.1304268058667
 20
92.77455212706657
 30
0.0
 10
111.1318429530398
 20
92.77481711297578
 30
0.0
 10
111.132324015249
 20
92.77490712813048
 30
0.0
  0
SPLINE
  5
D2
330
1F
100
AcDbEntity
  8
0
  6
HIDDEN
 62
     7
370
     0
100
AcDbSpline
210
0.0
220
0.0
230
1.0
 70
     8
 71
     3
 72
    30
 73
    26
 74
     0
 42
0.00000001
 43
0.00000001
 40
0.0
 40
0.0
 40
0.0
 40
0.0
 40
0.0156161600804337
 40
0.0849748372628082
 40
0.1203204532886746
 40
0.15431851909124
 40
0.2234436946574013
 40
0.2586467089786606
 40
0.2931107206687011
 40
0.3631864361325603
 40
0.3988795186727328
 40
0.4336750628309723
 40
0.4687145712104809
 40
0.5045294144990544
 40
0.5406151111978532
 40
0.5750767863722916
 40
0.6452033649630275
 40
0.6809575734718859
 40
0.7149323277721685
 40
0.784033058295527
 40
0.8192378401372485
 40
0.8533347063218409
 40
0.9226550151093995
 40
0.9579547149334489
 40
1.0
 40
1.0
 40
1.0
 40
1.0
 10
111.132324015249
 20
132.7737385923463
 30
0.0
 10
111.1317262761639
 20
132.773850845228
 30
0.0
 10
111.1284736979873
 20
132.7744616657052
 30
0.0
 10
111.1787946004356
 20
132.7650025312481
 30
0.0
 10
111.2790996294769
 20
132.746697695152
 30
0.0
 10
111.4137166175466
 20
132.7227143897782
 30
0.0
 10
111.5957752625767
 20
132.6916155956317
 30
0.0
 10
111.8226978362419
 20
132.6556964515894
 30
0.0
 10
112.0792842416193
 20
132.6173774304503
 30
0.0
 10
112.377320900092
 20
132.5771322951421
 30
0.0
 10
112.7098701540917
 20
132.5384712717397
 30
0.0
 10
112.975067859496
 20
132.5110686130085
 30
0.0
 10
113.2541256847549
 20
132.4860237763964
 30
0.0
 10
113.5485767006491
 20
132.4638560791008
 30
0.0
 10
113.8514416339654
 20
132.4456939918308
 30
0.0
 10
114.2618276208341
 20
132.4274358868364
 30
0.0
 10
114.6826684597889
 20
132.418588652832
 30
0.0
 10
115.1025723770179
 20
132.4200540472732
 30
0.0
 10
115.5171868978716
 20
132.4280974404405
 30
0.0
 10
115.9234080173474
 20
132.4456042260397
 30
0.0
 10
116.3129385170694
 20
132.4711695390676
 30
0.0
 10
116.6897592183078
 20
132.5013537747818
 30
0.0
 10
117.0428963780117
 20
132.5372513496292
 30
0.0
 10
117.3846478658333
 20
132.5780696274878
 30
0.0
 10
117.5463216268429
 20
132.5999545410543
 30
0.0
 10
117.634208635665
 20
132.6118513360549
 30
0.0
  0
LINE
  5
D3
330
1F
100
AcDbEntity
  8
0
  6
HIDDEN
 62
     7
370
     0
100
AcDbLine
 10
104.8831812303
 20
95.7743228602
 30
0.0
 11
104.8831812303
 21
129.7743228602
 31
0.0
  0
LWPOLYLINE
  5
D4
330
1F
100
AcDbEntity
  8
0
  6
HIDDEN
 62
     7
370
     0
100
AcDbPolyline
 90
       27
 70
   128
 43
0.0
 10
134.2642238965
 20
138.3255164945
 10
134.7076337588
 20
138.1341388373
 10
135.2050850833
 20
137.8310657409
 10
135.5747247641
 20
137.4852921396
 10
135.8023477557
 20
137.1101059189
 10
135.8792066341
 20
136.7199252749
 10
135.8023477557
 20
136.3297446308
 10
135.5747247641
 20
135.9545584101
 10
135.2050850833
 20
135.6087848088
 10
134.7076337588
 20
135.3057117125
 10
134.1014875661
 20
135.0569860503
 10
133.4099403635
 20
134.8721662099
 10
132.6595679221
 20
134.7583547141
 10
131.8792066341
 20
134.7199252749
 10
131.098845346
 20
134.7583547141
 10
130.3484729046
 20
134.8721662099
 10
129.656925702
 20
135.0569860503
 10
129.0507795093
 20
135.3057117125
 10
128.5533281849
 20
135.6087848088
 10
128.183688504
 20
135.9545584101
 10
127.9560655125
 20
136.3297446308
 10
127.8792066341
 20
136.7199252749
 10
127.9560655125
 20
137.1101059189
 10
128.183688504
 20
137.4852921396
 10
128.5533281849
 20
137.8310657409
 10
129.0507795093
 20
138.1341388373
 10
129.4877127435
 20
138.3231062512
  0
SPLINE
  5
D5
330
1F
100
AcDbEntity
  8
0
  6
HIDDEN
 62
     7
370
     0
100
AcDbSpline
210
0.0
220
0.0
230
1.0
 70
     8
 71
     3
 72
     8
 73
     4
 74
     0
 42
0.00000001
 43
0.00000001
 40
0.0
 40
0.0
 40
0.0
 40
0.0
 40
0.0011559732291308
 40
0.0011559732291308
 40
0.0011559732291308
 40
0.0011559732291308
 10
91.97920663406343
 20
114.774163478871
 30
0.0
 10
92.31254120913076
 20
114.7701961990718
 30
0.0
 10
92.6458724001575
 20
114.7660163164952
 30
0.0
 10
92.97920663406342
 20
114.7614511630874
 30
0.0
  0
SPLINE
  5
D6
330
1F
100
AcDbEntity
  8
0
  6
HIDDEN
 62
     7
370
     0
100
AcDbSpline
210
0.0
220
0.0
230
1.0
 70
     8
 71
     3
 72
    11
 73
     7
 74
     0
 42
0.00000001
 43
0.00000001
 40
0.0
 40
0.0
 40
0.0
 40
0.0
 40
0.0005782382535738
 40
0.0005782382535738
 40
0.0005782382535738
 40
0.0011564766069467
 40
0.0011564766069467
 40
0.0011564766069467
 40
0.0011564766069467
 10
92.97920663406342
 20
110.7776225580202
 30
0.0
 10
92.81255268009481
 20
110.7771849802585
 30
0.0
 10
92.64589200789283
 20
110.7767049155861
 30
0.0
 10
92.47922511922744
 20
110.7761853762167
 30
0.0
 10
92.31255820083136
 20
110.7756658367547
 30
0.0
 10
92.14588507099813
 20
110.7751070077328
 30
0.0
 10
91.97920663406342
 20
110.7745214641497
 30
0.0
  0
LINE
  5
D7
330
1F
100
AcDbEntity
  8
0
  6
HIDDEN
 62
     7
370
     0
100
AcDbLine
 10
131.5390326026
 20
95.7743228602
 30
0.0
 11
131.5390326026
 21
129.7743228602
 31
0.0
  0
LINE
  5
D8
330
1F
100
AcDbEntity
  8
0
  6
HIDDEN
 62
     7
370
     0
100
AcDbLine
 10
133.8292066341
 20
97.0493228602
 30
0.0
 11
133.8292066341
 21
128.4993228341
 31
0.0
  0
SPLINE
  5
D9
330
1F
100
AcDbEntity
  8
0
  6
HIDDEN
 62
     7
370
     0
100
AcDbSpline
210
0.0
220
0.0
230
1.0
 70
     8
 71
     3
 72
    16
 73
    12
 74
     0
 42
0.00000001
 43
0.00000001
 40
0.0
 40
0.0
 40
0.0
 40
0.0
 40
0.124999999999998
 40
0.124999999999998
 40
0.249999999999996
 40
0.249999999999996
 40
0.4999999999999973
 40
0.4999999999999973
 40
0.7499999999999987
 40
0.7499999999999987
 40
1.0
 40
1.0
 40
1.0
 40
1.0
 10
100.6792066340634
 20
96.97283242420671
 30
0.0
 10
100.7743283887293
 20
96.97283242420671
 30
0.0
 10
100.8676584574573
 20
96.96901659081392
 30
0.0
 10
101.0509202181953
 20
96.95424603808411
 30
0.0
 10
101.1417979337523
 20
96.94308799010854
 30
0.0
 10
101.3985996312721
 20
96.9006167199668
 30
0.0
 10
101.5536669961441
 20
96.859570522764
 30
0.0
 10
101.8074134576987
 20
96.76442440618212
 30
0.0
 10
101.9082839093666
 20
96.70966167210054
 30
0.0
 10
102.0435303240614
 20
96.59840054819665
 30
0.0
 10
102.0792066340634
 20
96.54123081086797
 30
0.0
 10
102.0792066340634
 20
96.48680923783427
 30
0.0
  0
LINE
  5
DA
330
1F
100
AcDbEntity
  8
0
  6
HIDDEN
 62
     7
370
     0
100
AcDbLine
 10
93.1292066341
 20
96.9728324242
 30
0.0
 11
93.2102376474
 21
96.9728324242
 31
0.0
  0
LINE
  5
DB
330
1F
100
AcDbEntity
  8
0
  6
HIDDEN
 62
     7
370
     0
100
AcDbLine
 10
92.9792066341
 20
97.0331793186
 30
0.0
 11
93.1292066341
 21
96.9728324242
 31
0.0
  0
LINE
  5
DC
330
1F
100
AcDbEntity
  8
0
  6
HIDDEN
 62
     7
370
     0
100
AcDbLine
 10
92.9792066341
 20
98.3049694836
 30
0.0
 11
92.9792066341
 21
97.0331793186
 31
0.0
  0
SPLINE
  5
DD
330
1F
100
AcDbEntity
  8
0
  6
HIDDEN
 62
     7
370
     0
100
AcDbSpline
210
0.0
220
0.0
230
1.0
 70
     8
 71
     3
 72
     8
 73
     4
 74
     0
 42
0.00000001
 43
0.00000001
 40
0.0
 40
0.0
 40
0.0
 40
0.0
 40
1.0
 40
1.0
 40
1.0
 40
1.0
 10
93.27920663416384
 20
99.22043012035654
 30
0.0
 10
93.27920663416397
 20
98.88282092646035
 30
0.0
 10
93.16775501436179
 20
98.58023931202949
 30
0.0
 10
92.97920663406342
 20
98.30496948362041
 30
0.0
  0
LINE
  5
DE
330
1F
100
AcDbEntity
  8
0
  6
HIDDEN
 62
     7
370
     0
100
AcDbLine
 10
93.2792066342
 20
116.3789564818
 30
0.0
 11
93.2792066342
 21
99.2204301204
 31
0.0
  0
SPLINE
  5
DF
330
1F
100
AcDbEntity
  8
0
  6
HIDDEN
 62
     7
370
     0
100
AcDbSpline
210
0.0
220
0.0
230
1.0
 70
     8
 71
     3
 72
    10
 73
     6
 74
     0
 42
0.00000001
 43
0.00000001
 40
0.0
 40
0.0
 40
0.0
 40
0.0
 40
0.5
 40
0.5
 40
1.0
 40
1.0
 40
1.0
 40
1.0
 10
92.97920663406342
 20
127.2439984894504
 30
0.0
 10
93.071097562574
 20
127.1060844131273
 30
0.0
 10
93.14692479109083
 20
126.9615978749812
 30
0.0
 10
93.25134589359232
 20
126.6571379908378
 30
0.0
 10
93.27920663416411
 20
126.4970799852254
 30
0.0
 10
93.27920663416387
 20
126.3282156001192
 30
0.0
  0
LINE
  5
E0
330
1F
100
AcDbEntity
  8
0
  6
HIDDEN
 62
     7
370
     0
100
AcDbLine
 10
92.9792066341
 20
128.5154664019
 30
0.0
 11
92.9792066341
 21
127.2439984895
 31
0.0
  0
LINE
  5
E1
330
1F
100
AcDbEntity
  8
0
  6
HIDDEN
 62
     7
370
     0
100
AcDbLine
 10
93.1292066341
 20
128.5758132963
 30
0.0
 11
92.9792066341
 21
128.5154664019
 31
0.0
  0
LINE
  5
E2
330
1F
100
AcDbEntity
  8
0
  6
HIDDEN
 62
     7
370
     0
100
AcDbLine
 10
93.2792066342
 20
128.5758132963
 30
0.0
 11
93.1292066341
 21
128.5758132963
 31
0.0
  0
SPLINE
  5
E3
330
1F
100
AcDbEntity
  8
0
  6
HIDDEN
 62
     7
370
     0
100
AcDbSpline
210
0.0
220
0.0
230
1.0
 70
     8
 71
     3
 72
    18
 73
    14
 74
     0
 42
0.00000001
 43
0.00000001
 40
0.0
 40
0.0
 40
0.0
 40
0.0
 40
0.2500000000000033
 40
0.2500000000000033
 40
0.3750000000000029
 40
0.3750000000000029
 40
0.5000000000000026
 40
0.5000000000000026
 40
0.6250000000000022
 40
0.6250000000000022
 40
0.7500000000000018
 40
0.7500000000000018
 40
1.0
 40
1.0
 40
1.0
 40
1.0
 10
98.07920663406344
 20
129.0618364826425
 30
0.0
 10
98.07920663406342
 20
129.0073619620903
 30
0.0
 10
98.04429594267125
 20
128.9509809027378
 30
0.0
 10
97.94228664133821
 20
128.8669040618843
 30
0.0
 10
97.9006502866601
 20
128.8395703578934
 30
0.0
 10
97.80224449117135
 20
128.7866164422944
 30
0.0
 10
97.74470127946708
 20
128.7607290885773
 30
0.0
 10
97.61740310589411
 20
128.712951543744
 30
0.0
 10
97.54781580113665
 20
128.6910036255661
 30
0.0
 10
97.39638155598169
 20
128.6515710606534
 30
0.0
 10
97.31369765288775
 20
128.6340148114276
 30
0.0
 10
97.0575861908497
 20
128.591576046007
 30
0.0
 10
96.86967118696171
 20
128.57581329627
 30
0.0
 10
96.67920663406343
 20
128.57581329627
 30
0.0
  0
LINE
  5
E4
330
1F
100
AcDbEntity
  8
0
  6
HIDDEN
 62
     7
370
     0
100
AcDbLine
 10
96.6792066341
 20
128.5758132963
 30
0.0
 11
93.2792066342
 21
128.5758132963
 31
0.0
  0
LINE
  5
E5
330
1F
100
AcDbEntity
  8
0
  6
HIDDEN
 62
     7
370
     0
100
AcDbLine
 10
93.2102376474
 20
96.9728324242
 30
0.0
 11
100.6792066341
 21
96.9728324242
 31
0.0
  0
SPLINE
  5
E6
330
1F
100
AcDbEntity
  8
0
  6
HIDDEN
 62
     7
370
     0
100
AcDbSpline
210
0.0
220
0.0
230
1.0
 70
     8
 71
     3
 72
    22
 73
    18
 74
     0
 42
0.00000001
 43
0.00000001
 40
0.0
 40
0.0
 40
0.0
 40
0.0
 40
0.125
 40
0.125
 40
0.2499999999999999
 40
0.2499999999999999
 40
0.5000000000000003
 40
0.5000000000000003
 40
0.5625000000000004
 40
0.5625000000000004
 40
0.6250000000000006
 40
0.6250000000000006
 40
0.7500000000000004
 40
0.7500000000000004
 40
0.8750000000000002
 40
0.8750000000000002
 40
1.0
 40
1.0
 40
1.0
 40
1.0
 10
93.21023764742132
 20
96.97283242420671
 30
0.0
 10
93.19715525469293
 20
97.22793813435439
 30
0.0
 10
93.18393569125313
 20
97.5210963934583
 30
0.0
 10
93.161488513459
 20
98.1833968590831
 30
0.0
 10
93.15201004643455
 20
98.55367077969449
 30
0.0
 10
93.13281208549805
 20
99.77622758280827
 30
0.0
 10
93.13392585849492
 20
100.7133665089401
 30
0.0
 10
93.15283665144797
 20
102.0332377384551
 30
0.0
 10
93.15746617930697
 20
102.3047396474314
 30
0.0
 10
93.1679473990529
 20
102.8631244822337
 30
0.0
 10
93.17374266033734
 20
103.1502473381733
 30
0.0
 10
93.19205188124228
 20
104.022836592545
 30
0.0
 10
93.20608681552264
 20
104.6232922689009
 30
0.0
 10
93.23554398765948
 20
105.860766761397
 30
0.0
 10
93.25109967864104
 20
106.4977829180404
 30
0.0
 10
93.27489422863793
 20
107.809271515725
 30
0.0
 10
93.2829132807833
 20
108.4853941273855
 30
0.0
 10
93.27920663406341
 20
109.1696892386703
 30
0.0
  0
LINE
  5
E7
330
1F
100
AcDbEntity
  8
0
  6
HIDDEN
 62
     7
370
     0
100
AcDbLine
 10
93.2792066342
 20
116.3789564818
 30
0.0
 11
93.2792066342
 21
128.5758132963
 31
0.0
  0
SPLINE
  5
E8
330
1F
100
AcDbEntity
  8
0
  6
HIDDEN
 62
     7
370
     0
100
AcDbSpline
210
0.0
220
0.0
230
1.0
 70
     8
 71
     3
 72
    10
 73
     6
 74
     0
 42
0.00000001
 43
0.00000001
 40
0.0
 40
0.0
 40
0.0
 40
0.0
 40
0.5
 40
0.5
 40
1.0
 40
1.0
 40
1.0
 40
1.0
 10
93.27920663406341
 20
109.1696892386552
 30
0.0
 10
93.27920663406323
 20
109.4436043867293
 30
0.0
 10
93.25344740419442
 20
109.7145459654589
 30
0.0
 10
93.15024147146102
 20
110.250237047061
 30
0.0
 10
93.07290330758661
 20
110.5159838505828
 30
0.0
 10
92.97920663406343
 20
110.7776225580202
 30
0.0
  0
SPLINE
  5
E9
330
1F
100
AcDbEntity
  8
0
  6
HIDDEN
 62
     7
370
     0
100
AcDbSpline
210
0.0
220
0.0
230
1.0
 70
     8
 71
     3
 72
    10
 73
     6
 74
     0
 42
0.00000001
 43
0.00000001
 40
0.0
 40
0.0
 40
0.0
 40
0.0
 40
0.5
 40
0.5
 40
1.0
 40
1.0
 40
1.0
 40
1.0
 10
92.97920663406342
 20
114.7614511630874
 30
0.0
 10
93.07243721441455
 20
115.0253449696856
 30
0.0
 10
93.14746682594327
 20
115.2915252787841
 30
0.0
 10
93.25253392392277
 20
115.8298478506027
 30
0.0
 10
93.2792066341674
 20
116.1025959652184
 30
0.0
 10
93.27920663416856
 20
116.3789564818055
 30
0.0
  0
LINE
  5
EA
330
1F
100
AcDbEntity
  8
0
  6
HIDDEN
 62
     7
370
     0
100
AcDbLine
 10
92.9792066341
 20
110.777622558
 30
0.0
 11
92.9792066341
 21
114.7614511631
 31
0.0
  0
LINE
  5
EB
330
1F
100
AcDbEntity
  8
0
  6
HIDDEN
 62
     7
370
     0
100
AcDbLine
 10
93.1292066341
 20
94.7843228602
 30
0.0
 11
93.1292066341
 21
91.9043850948
 31
0.0
  0
LINE
  5
EC
330
1F
100
AcDbEntity
  8
0
  6
HIDDEN
 62
     7
370
     0
100
AcDbLine
 10
102.0792066341
 20
94.7843228602
 30
0.0
 11
102.0792066341
 21
90.810585329
 31
0.0
  0
LINE
  5
ED
330
1F
100
AcDbEntity
  8
0
  6
HIDDEN
 62
     7
370
     0
100
AcDbLine
 10
93.1292066341
 20
130.7643228602
 30
0.0
 11
93.1292066341
 21
133.6442606256
 31
0.0
  0
LINE
  5
EE
330
1F
100
AcDbEntity
  8
0
  6
HIDDEN
 62
     7
370
     0
100
AcDbLine
 10
98.0792066341
 20
130.7643228602
 30
0.0
 11
98.0792066341
 21
134.6184305326
 31
0.0
  0
LINE
  5
EF
330
1F
100
AcDbEntity
  8
0
  6
HIDDEN
 62
     7
370
     0
100
AcDbLine
 10
142.6792066341
 20
103.2743228602
 30
0.0
 11
142.6792066341
 21
122.2743228602
 31
0.0
  0
LINE
  5
F0
330
1F
100
AcDbEntity
  8
0
  6
HIDDEN
 62
     7
370
     0
100
AcDbLine
 10
145.6792066341
 20
103.2743228602
 30
0.0
 11
145.6792066341
 21
122.2743228602
 31
0.0
  0
LINE
  5
F1
330
1F
100
AcDbEntity
  8
0
  6
HIDDEN
 62
     7
370
     0
100
AcDbLine
 10
134.3292066341
 20
104.2743228602
 30
0.0
 11
134.3292066341
 21
121.2743228602
 31
0.0
  0
LINE
  5
F2
330
1F
100
AcDbEntity
  8
0
  6
HIDDEN
 62
     7
370
     0
100
AcDbLine
 10
140.0668814364
 20
86.3743228602
 30
0.0
 11
136.8292066341
 21
86.3743228602
 31
0.0
  0
LINE
  5
F3
330
1F
100
AcDbEntity
  8
0
  6
HIDDEN
 62
     7
370
     0
100
AcDbLine
 10
149.8292066341
 20
86.3743228602
 30
0.0
 11
143.6915318317
 21
86.3743228602
 31
0.0
  0
LINE
  5
F4
330
1F
100
AcDbEntity
  8
0
  6
HIDDEN
 62
     7
370
     0
100
AcDbLine
 10
128.8292066341
 20
81.2901998774
 30
0.0
 11
128.8292066341
 21
86.3743228602
 31
0.0
  0
LINE
  5
F5
330
1F
100
AcDbEntity
  8
0
  6
HIDDEN
 62
     7
370
     0
100
AcDbLine
 10
136.8292066341
 20
86.3743228602
 30
0.0
 11
128.8292066341
 21
86.3743228602
 31
0.0
  0
LINE
  5
F6
330
1F
100
AcDbEntity
  8
0
  6
HIDDEN
 62
     7
370
     0
100
AcDbLine
 10
136.8292066341
 20
139.1743228602
 30
0.0
 11
128.8292066341
 21
139.1743228602
 31
0.0
  0
LINE
  5
F7
330
1F
100
AcDbEntity
  8
0
  6
HIDDEN
 62
     7
370
     0
100
AcDbLine
 10
149.8292066341
 20
139.1743228602
 30
0.0
 11
143.3949091024
 21
139.1743228602
 31
0.0
  0
LINE
  5
F8
330
1F
100
AcDbEntity
  8
0
  6
HIDDEN
 62
     7
370
     0
100
AcDbLine
 10
140.3635041658
 20
139.1743228602
 30
0.0
 11
136.8292066341
 21
139.1743228602
 31
0.0
  0
SPLINE
  5
F9
330
1F
100
AcDbEntity
  8
0
  6
HIDDEN
 62
     7
370
     0
100
AcDbSpline
210
0.0
220
0.0
230
1.0
 70
     8
 71
     3
 72
    11
 73
     7
 74
     0
 42
0.00000001
 43
0.00000001
 40
0.0
 40
0.0
 40
0.0
 40
0.0
 40
0.0008203708524183
 40
0.0008203708524183
 40
0.0008203708524183
 40
0.0016409967870154
 40
0.0016409967870154
 40
0.0016409967870154
 40
0.0016409967870154
 10
93.12920663406344
 20
96.92229010959566
 30
0.0
 10
92.93804833376475
 20
96.88111108097652
 30
0.0
 10
92.74662126369257
 20
96.84235710874651
 30
0.0
 10
92.55497564017193
 20
96.80598934946796
 30
0.0
 10
92.36327023509148
 20
96.76961024570194
 30
0.0
 10
92.17133128303254
 20
96.73561599493439
 30
0.0
 10
91.97920663596173
 20
96.70396786954318
 30
0.0
  0
ELLIPSE
  5
FA
330
1F
100
AcDbEntity
  8
0
  6
HIDDEN
 62
     7
370
     0
100
AcDbEllipse
 10
87.7367747713
 20
112.7743228602
 30
0.0
 11
20.19992452772428
 21
-1.421085471520200E-14
 31
0.0
210
0.0
220
0.0
230
1.0
 40
0.816496581
 41
1.300566354937166
 42
1.359198697442763
  0
LINE
  5
FB
330
1F
100
AcDbEntity
  8
0
  6
HIDDEN
 62
     7
370
     0
100
AcDbLine
 10
93.1292066341
 20
94.7843228602
 30
0.0
 11
93.1292066341
 21
96.9222901096
 31
0.0
  0
LINE
  5
FC
330
1F
100
AcDbEntity
  8
0
  6
HIDDEN
 62
     7
370
     0
100
AcDbLine
 10
93.2102376474
 20
96.9728324242
 30
0.0
 11
93.1292066341
 21
96.9222901096
 31
0.0
  0
LINE
  5
FD
330
1F
100
AcDbEntity
  8
0
  6
HIDDEN
 62
     7
370
     0
100
AcDbLine
 10
102.0792066341
 20
94.7843228602
 30
0.0
 11
102.0792066341
 21
96.4868092378
 31
0.0
  0
LINE
  5
FE
330
1F
100
AcDbEntity
  8
0
  6
HIDDEN
 62
     7
370
     0
100
AcDbLine
 10
93.1292066341
 20
130.7643228602
 30
0.0
 11
93.1292066341
 21
128.6689473092
 31
0.0
  0
SPLINE
  5
FF
330
1F
100
AcDbEntity
  8
0
  6
HIDDEN
 62
     7
370
     0
100
AcDbSpline
210
0.0
220
0.0
230
1.0
 70
     8
 71
     3
 72
     8
 73
     4
 74
     0
 42
0.00000001
 43
0.00000001
 40
0.0
 40
0.0
 40
0.0
 40
0.0
 40
1.0
 40
1.0
 40
1.0
 40
1.0
 10
93.12920663406344
 20
128.6689473092369
 30
0.0
 10
93.17921213191089
 20
128.6379115357041
 30
0.0
 10
93.22921220147926
 20
128.6068668913632
 30
0.0
 10
93.27920663416859
 20
128.57581329627
 30
0.0
  0
LINE
  5
100
330
1F
100
AcDbEntity
  8
0
  6
HIDDEN
 62
     7
370
     0
100
AcDbLine
 10
98.0792066341
 20
130.7643228602
 30
0.0
 11
98.0792066341
 21
129.0618364826
 31
0.0
  0
LINE
  5
101
330
1F
100
AcDbEntity
  8
0
  6
HIDDEN
 62
     7
370
     0
100
AcDbLine
 10
205.3792066341
 20
107.7743228602
 30
0.0
 11
205.3792066341
 21
117.7743228602
 31
0.0
  0
LINE
  5
102
330
1F
100
AcDbEntity
  8
0
  6
HIDDEN
 62
     7
370
     0
100
AcDbLine
 10
167.3792066341
 20
107.8743228602
 30
0.0
 11
167.3792066341
 21
117.6743227971
 31
0.0
  0
LINE
  5
103
330
1F
100
AcDbEntity
  8
0
  6
HIDDEN
 62
     7
370
     0
100
AcDbLine
 10
177.8792066341
 20
107.7743228602
 30
0.0
 11
177.8792066341
 21
117.7743228602
 31
0.0
  0
SPLINE
  5
104
330
1F
100
AcDbEntity
  8
0
  6
HIDDEN
 62
     7
370
     0
100
AcDbSpline
210
0.0
220
0.0
230
1.0
 70
     8
 71
     3
 72
    20
 73
    16
 74
     0
 42
0.00000001
 43
0.00000001
 40
0.0
 40
0.0
 40
0.0
 40
0.0
 40
0.1118658515893943
 40
0.1773852604962558
 40
0.2490070529246041
 40
0.3297557639071034
 40
0.3985283875049015
 40
0.4998084537507172
 40
0.6137739476064691
 40
0.6789400895182468
 40
0.7494668228609803
 40
0.8296130455309729
 40
0.8980569414922516
 40
0.9994676818577691
 40
1.0
 40
1.0
 40
1.0
 40
1.0
 10
118.6278480512438
 20
89.17438224148478
 30
0.0
 10
118.5845523053866
 20
89.18780191955864
 30
0.0
 10
118.5158984038775
 20
89.20908145265194
 30
0.0
 10
118.0708622446605
 20
89.31235841831202
 30
0.0
 10
117.5443115472407
 20
89.42566005094177
 30
0.0
 10
116.8588842690905
 20
89.54859339498667
 30
0.0
 10
115.9655674507647
 20
89.6706277282336
 30
0.0
 10
114.8522078980693
 20
89.78836409349063
 30
0.0
 10
113.741433669874
 20
89.80033954088074
 30
0.0
 10
112.8566858678652
 20
89.77328134985342
 30
0.0
 10
112.1894874190953
 20
89.72534893286829
 30
0.0
 10
111.6482225212688
 20
89.66905686259304
 30
0.0
 10
111.2606136557816
 20
89.62396847127462
 30
0.0
 10
111.0667015909768
 20
89.58509913901422
 30
0.0
 10
111.1298813730768
 20
89.59581906206994
 30
0.0
 10
111.1302112802301
 20
89.59587503851021
 30
0.0
  0
LINE
  5
105
330
1F
100
AcDbEntity
  8
0
  6
HIDDEN
 62
     7
370
     0
100
AcDbLine
 10
112.0392185464
 20
89.7066610037
 30
0.0
 11
112.2230638596
 21
89.7248503462
 31
0.0
  0
SPLINE
  5
106
330
1F
100
AcDbEntity
  8
0
  6
HIDDEN
 62
     7
370
     0
100
AcDbSpline
210
0.0
220
0.0
230
1.0
 70
     8
 71
     3
 72
    27
 73
    23
 74
     0
 42
0.00000001
 43
0.00000001
 40
0.0
 40
0.0
 40
0.0
 40
0.0
 40
0.0008037239561467
 40
0.0456861852996882
 40
0.102267787787632
 40
0.1705458018116341
 40
0.2091374309034286
 40
0.2506646236208365
 40
0.3211103223737243
 40
0.386203984166459
 40
0.4266830888179141
 40
0.4648142991749238
 40
0.5006185759966247
 40
0.545210290578229
 40
0.6017044837294837
 40
0.6701103822328957
 40
0.7088476691416857
 40
0.750576368145592
 40
0.8222408736492719
 40
0.8877802253012101
 40
0.9472539140711318
 40
1.0
 40
1.0
 40
1.0
 40
1.0
 10
111.1298711579207
 20
135.9527378545006
 30
0.0
 10
111.1296501696854
 20
135.9527854917585
 30
0.0
 10
111.1170885067019
 20
135.9554933426015
 30
0.0
 10
111.1661666067553
 20
135.9436609956203
 30
0.0
 10
111.3112691995917
 20
135.92021723354
 30
0.0
 10
111.5843219527448
 20
135.8863129500406
 30
0.0
 10
111.9128483389034
 20
135.852744174567
 30
0.0
 10
112.3055761287748
 20
135.8145608303901
 30
0.0
 10
112.855304093341
 20
135.7755921602744
 30
0.0
 10
113.4813267414073
 20
135.756131055226
 30
0.0
 10
114.0245182513758
 20
135.7539453774929
 30
0.0
 10
114.4695871483162
 20
135.7624602586524
 30
0.0
 10
114.9360349447245
 20
135.7822436555776
 30
0.0
 10
115.4732755939949
 20
135.8264060411225
 30
0.0
 10
116.1214890241177
 20
135.8988216609704
 30
0.0
 10
116.7070276567358
 20
135.9797237548099
 30
0.0
 10
117.1879972649165
 20
136.0578897416931
 30
0.0
 10
117.6334121889073
 20
136.1426618875381
 30
0.0
 10
118.0719117368088
 20
136.2364448865833
 30
0.0
 10
118.4109376176513
 20
136.3143488101596
 30
0.0
 10
118.5982829599591
 20
136.3645416522001
 30
0.0
 10
118.6187729763584
 20
136.3712082286035
 30
0.0
 10
118.6284037938197
 20
136.3743416853651
 30
0.0
  0
ELLIPSE
  5
107
330
1F
100
AcDbEntity
  8
0
  6
HIDDEN
 62
     7
370
     0
100
AcDbEllipse
 10
87.8867747697
 20
112.7743228602
 30
0.0
 11
19.94011690770319
 21
-1.421085471520200E-14
 31
0.0
210
0.0
220
0.0
230
1.0
 40
0.8164965809
 41
1.312549137476569
 42
1.364091388456587
  0
LINE
  5
108
330
1F
100
AcDbEntity
  8
0
  6
HIDDEN
 62
     7
370
     0
100
AcDbLine
 10
93.1292066341
 20
128.6689473092
 30
0.0
 11
93.1292066341
 21
128.5758132963
 31
0.0
  0
LINE
  5
109
330
1F
100
AcDbEntity
  8
0
  6
HIDDEN
 62
     7
370
     0
100
AcDbLine
 10
93.1292066341
 20
96.9222901096
 30
0.0
 11
93.1292066341
 21
96.9728324242
 31
0.0
  0
ELLIPSE
  5
10A
330
1F
100
AcDbEntity
  8
0
  6
HIDDEN
 62
     7
370
     0
100
AcDbEllipse
 10
87.8867747697
 20
112.7743228602
 30
0.0
 11
19.9401169077032
 21
-1.421085471520200E-14
 31
0.0
210
0.0
220
0.0
230
1.0
 40
0.8164965809
 41
4.919093918723012
 42
4.970636169703031
  0
LINE
  5
10B
330
1F
100
AcDbEntity
  8
0
  6
HIDDEN
 62
     7
370
     0
100
AcDbLine
 10
91.9792066341
 20
127.766965108
 30
0.0
 11
92.9792066341
 21
127.2439984895
 31
0.0
  0
SPLINE
  5
10C
330
1F
100
AcDbEntity
  8
0
  6
HIDDEN
 62
     7
370
     0
100
AcDbSpline
210
0.0
220
0.0
230
1.0
 70
     8
 71
     3
 72
     8
 73
     4
 74
     0
 42
0.00000001
 43
0.00000001
 40
0.0
 40
0.0
 40
0.0
 40
0.0
 40
0.0011562591438323
 40
0.0011562591438323
 40
0.0011562591438323
 40
0.0011562591438323
 10
92.97920663406342
 20
98.30496948362041
 30
0.0
 10
92.64591012334155
 20
98.13026337593678
 30
0.0
 10
92.31257491404732
 20
97.95581705349926
 30
0.0
 10
91.97920663406337
 20
97.78161950839633
 30
0.0
  0
LINE
  5
10D
330
1F
100
AcDbEntity
  8
0
  6
HIDDEN
 62
     7
370
     0
100
AcDbLine
 10
139.9692066341
 20
132.9101894917
 30
0.0
 11
139.9692066341
 21
132.6243228602
 31
0.0
  0
LINE
  5
10E
330
1F
100
AcDbEntity
  8
0
  6
HIDDEN
 62
     7
370
     0
100
AcDbLine
 10
143.7892066341
 20
132.9101894917
 30
0.0
 11
143.7892066341
 21
132.6243228602
 31
0.0
  0
LINE
  5
10F
330
1F
100
AcDbEntity
  8
0
  6
HIDDEN
 62
     7
370
     0
100
AcDbLine
 10
145.2711394656
 20
137.2330125226
 30
0.0
 11
145.2711394656
 21
132.6243228602
 31
0.0
  0
CIRCLE
  5
110
330
1F
100
AcDbEntity
  8
0
  6
HIDDEN
 62
     7
370
     0
100
AcDbCircle
 10
130.8792066341
 20
112.7743228602
 30
0.0
 40
5.0
  0
LINE
  5
111
330
1F
100
AcDbEntity
  8
0
  6
HIDDEN
 62
     7
370
     0
100
AcDbLine
 10
166.8792066341
 20
108.7743228602
 30
0.0
 11
167.3792066341
 21
109.2743228602
 31
0.0
  0
LINE
  5
112
330
1F
100
AcDbEntity
  8
0
  6
HIDDEN
 62
     7
370
     0
100
AcDbLine
 10
167.3792066341
 20
116.2743228602
 30
0.0
 11
166.8792066341
 21
116.7743228602
 31
0.0
  0
LINE
  5
113
330
1F
100
AcDbEntity
  8
0
  6
HIDDEN
 62
     7
370
     0
100
AcDbLine
 10
151.3792066341
 20
108.7743228602
 30
0.0
 11
166.8792066341
 21
108.7743228602
 31
0.0
  0
LINE
  5
114
330
1F
100
AcDbEntity
  8
0
  6
HIDDEN
 62
     7
370
     0
100
AcDbLine
 10
166.8792066341
 20
116.7743228602
 30
0.0
 11
151.3792066341
 21
116.7743228602
 31
0.0
  0
LINE
  5
115
330
1F
100
AcDbEntity
  8
0
  6
HIDDEN
 62
     7
370
     0
100
AcDbLine
 10
151.3792066341
 20
116.7743228602
 30
0.0
 11
150.8792066341
 21
116.2743228602
 31
0.0
  0
LINE
  5
116
330
1F
100
AcDbEntity
  8
0
  6
HIDDEN
 62
     7
370
     0
100
AcDbLine
 10
150.8792066341
 20
109.2743228602
 30
0.0
 11
151.3792066341
 21
108.7743228602
 31
0.0
  0
LINE
  5
117
330
1F
100
AcDbEntity
  8
0
  6
HIDDEN
 62
     7
370
     0
100
AcDbLine
 10
167.3792066341
 20
109.2743228602
 30
0.0
 11
170.8792066341
 21
109.2743228602
 31
0.0
  0
LINE
  5
118
330
1F
100
AcDbEntity
  8
0
  6
HIDDEN
 62
     7
370
     0
100
AcDbLine
 10
170.8792066341
 20
116.2743228602
 30
0.0
 11
167.3792066341
 21
116.2743228602
 31
0.0
  0
LINE
  5
119
330
1F
100
AcDbEntity
  8
0
  6
HIDDEN
 62
     7
370
     0
100
AcDbLine
 10
155.879206634
 20
110.7743228602
 30
0.0
 11
165.8792066341
 21
110.7743228602
 31
0.0
  0
LINE
  5
11A
330
1F
100
AcDbEntity
  8
0
  6
HIDDEN
 62
     7
370
     0
100
AcDbLine
 10
165.8792066341
 20
114.7743228602
 30
0.0
 11
155.879206634
 21
114.7743228602
 31
0.0
  0
LINE
  5
11B
330
1F
100
AcDbEntity
  8
0
  6
HIDDEN
 62
     7
370
     0
100
AcDbLine
 10
135.8792066341
 20
125.1682635031
 30
0.0
 11
135.8792066341
 21
127.0721558405
 31
0.0
  0
LINE
  5
11C
330
1F
100
AcDbEntity
  8
0
  6
HIDDEN
 62
     7
370
     0
100
AcDbLine
 10
127.8792066341
 20
127.075023602
 30
0.0
 11
127.8792066341
 21
125.1682635031
 31
0.0
  0
LINE
  5
11D
330
1F
100
AcDbEntity
  8
0
  6
HIDDEN
 62
     7
370
     0
100
AcDbLine
 10
123.8792066341
 20
87.4503917143
 30
0.0
 11
123.9733674096
 21
88.1203804455
 31
0.0
  0
LINE
  5
11E
330
1F
100
AcDbEntity
  8
0
  6
HIDDEN
 62
     7
370
     0
100
AcDbLine
 10
123.9733674096
 20
137.428265275
 30
0.0
 11
123.8792066341
 21
138.0982540062
 31
0.0
  0
ARC
  5
11F
330
1F
100
AcDbEntity
  8
0
  6
HIDDEN
 62
     7
370
     0
100
AcDbCircle
 10
123.3791998814
 20
88.2038852458
 30
0.0
 40
0.6000067526677203
100
AcDbArc
 50
352.0
 51
0.0
  0
ARC
  5
120
330
1F
100
AcDbEntity
  8
0
  6
HIDDEN
 62
     7
370
     0
100
AcDbCircle
 10
123.3791998814
 20
88.2038852458
 30
0.0
 40
0.6000067526677164
100
AcDbArc
 50
0.0
 51
33.5571153394
  0
ARC
  5
121
330
1F
100
AcDbEntity
  8
0
  6
HIDDEN
 62
     7
370
     0
100
AcDbCircle
 10
123.3791998814
 20
137.3447604746
 30
0.0
 40
0.6000067526677222
100
AcDbArc
 50
348.75
 51
8.0
  0
LWPOLYLINE
  5
122
330
1F
100
AcDbEntity
  8
0
  6
HIDDEN
 62
     7
370
     0
100
AcDbPolyline
 90
        3
 70
   128
 43
0.0
 10
123.9676776726
 20
137.227704964
 10
123.9335338396
 20
137.1151478311
 10
123.8792066341
 20
137.0130959596
  0
LINE
  5
123
330
1F
100
AcDbEntity
  8
0
  6
HIDDEN
 62
     7
370
     0
100
AcDbLine
 10
123.9792066341
 20
88.2038852458
 30
0.0
 11
123.9792066341
 21
137.3447604746
 31
0.0
  0
ARC
  5
124
330
1F
100
AcDbEntity
  8
0
  6
HIDDEN
 62
     7
370
     0
100
AcDbCircle
 10
117.6342086357
 20
100.7743228602
 30
0.0
 40
8.000000000000012
100
AcDbArc
 50
277.1304070317
 51
321.3178125465
  0
ARC
  5
125
330
1F
100
AcDbEntity
  8
0
  6
HIDDEN
 62
     7
370
     0
100
AcDbCircle
 10
117.6342086357
 20
124.7743228602
 30
0.0
 40
8.000000000000012
100
AcDbArc
 50
38.6821874535
 51
82.8534244064
  0
ARC
  5
126
330
1F
100
AcDbEntity
  8
0
  6
HIDDEN
 62
     7
370
     0
100
AcDbCircle
 10
106.9616421994
 20
93.3743228602
 30
0.0
 40
0.6000000000000085
100
AcDbArc
 50
210.0
 51
270.0
  0
ARC
  5
127
330
1F
100
AcDbEntity
  8
0
  6
HIDDEN
 62
     7
370
     0
100
AcDbCircle
 10
106.9616421994
 20
132.1743228602
 30
0.0
 40
0.5999999999999943
100
AcDbArc
 50
90.0
 51
150.0
  0
LINE
  5
128
330
1F
100
AcDbEntity
  8
0
  6
HIDDEN
 62
     7
370
     0
100
AcDbLine
 10
106.9616421994
 20
92.7743228602
 30
0.0
 11
111.1323240152
 21
92.7743228602
 31
0.0
  0
LINE
  5
129
330
1F
100
AcDbEntity
  8
0
  6
HIDDEN
 62
     7
370
     0
100
AcDbLine
 10
111.1323240152
 20
132.7743228602
 30
0.0
 11
106.9616421994
 21
132.7743228602
 31
0.0
  0
LINE
  5
12A
330
1F
100
AcDbEntity
  8
0
  6
HIDDEN
 62
     7
370
     0
100
AcDbLine
 10
106.4420269571
 20
132.4743228602
 30
0.0
 11
104.8831812303
 21
129.7743228602
 31
0.0
  0
LINE
  5
12B
330
1F
100
AcDbEntity
  8
0
  6
HIDDEN
 62
     7
370
     0
100
AcDbLine
 10
104.8831812303
 20
95.7743228602
 30
0.0
 11
106.4420269571
 21
93.0743228602
 31
0.0
  0
LINE
  5
12C
330
1F
100
AcDbEntity
  8
0
  6
HIDDEN
 62
     7
370
     0
100
AcDbLine
 10
135.8792066341
 20
136.7199252749
 30
0.0
 11
135.8792066341
 21
140.0528232135
 31
0.0
  0
LINE
  5
12D
330
1F
100
AcDbEntity
  8
0
  6
HIDDEN
 62
     7
370
     0
100
AcDbLine
 10
127.8792066341
 20
140.0541230794
 30
0.0
 11
127.8792066341
 21
136.7199252749
 31
0.0
  0
ARC
  5
12E
330
1F
100
AcDbEntity
  8
0
  6
HIDDEN
 62
     7
370
     0
100
AcDbCircle
 10
132.3292066341
 20
97.0493228602
 30
0.0
 40
1.500000000000016
100
AcDbArc
 50
238.2116693829
 51
0.0
  0
ARC
  5
12F
330
1F
100
AcDbEntity
  8
0
  6
HIDDEN
 62
     7
370
     0
100
AcDbCircle
 10
132.3292066341
 20
128.4993228602
 30
0.0
 40
1.500000000000016
100
AcDbArc
 50
0.0
 51
121.7883306171
  0
LINE
  5
130
330
1F
100
AcDbEntity
  8
0
  6
HIDDEN
 62
     7
370
     0
100
AcDbLine
 10
102.0792066341
 20
95.7743228602
 30
0.0
 11
104.8831812303
 21
95.7743228602
 31
0.0
  0
LINE
  5
131
330
1F
100
AcDbEntity
  8
0
  6
HIDDEN
 62
     7
370
     0
100
AcDbLine
 10
104.8831812303
 20
129.7743228602
 30
0.0
 11
98.0792066341
 21
129.7743228602
 31
0.0
  0
LINE
  5
132
330
1F
100
AcDbEntity
  8
0
  6
HIDDEN
 62
     7
370
     0
100
AcDbLine
 10
123.8792066341
 20
95.7743228602
 30
0.0
 11
131.5390326026
 21
95.7743228602
 31
0.0
  0
LINE
  5
133
330
1F
100
AcDbEntity
  8
0
  6
HIDDEN
 62
     7
370
     0
100
AcDbLine
 10
131.5390326026
 20
129.7743228602
 30
0.0
 11
123.8792066341
 21
129.7743228602
 31
0.0
  0
LINE
  5
134
330
1F
100
AcDbEntity
  8
0
  6
HIDDEN
 62
     7
370
     0
100
AcDbLine
 10
142.6792066341
 20
103.2743228602
 30
0.0
 11
145.6792066341
 21
103.2743228602
 31
0.0
  0
LINE
  5
135
330
1F
100
AcDbEntity
  8
0
  6
HIDDEN
 62
     7
370
     0
100
AcDbLine
 10
145.6792066341
 20
122.2743228602
 30
0.0
 11
142.6792066341
 21
122.2743228602
 31
0.0
  0
LINE
  5
136
330
1F
100
AcDbEntity
  8
0
  6
HIDDEN
 62
     7
370
     0
100
AcDbLine
 10
133.8292066341
 20
103.7743228602
 30
0.0
 11
134.3292066341
 21
104.2743228602
 31
0.0
  0
LINE
  5
137
330
1F
100
AcDbEntity
  8
0
  6
HIDDEN
 62
     7
370
     0
100
AcDbLine
 10
134.3292066341
 20
121.2743228602
 30
0.0
 11
133.8292066341
 21
121.7743228602
 31
0.0
  0
LINE
  5
138
330
1F
100
AcDbEntity
  8
0
  6
HIDDEN
 62
     7
370
     0
100
AcDbLine
 10
134.3292066341
 20
104.2743228602
 30
0.0
 11
142.6792066341
 21
104.2743228602
 31
0.0
  0
LINE
  5
139
330
1F
100
AcDbEntity
  8
0
  6
HIDDEN
 62
     7
370
     0
100
AcDbLine
 10
142.6792066341
 20
121.2743228602
 30
0.0
 11
134.3292066341
 21
121.2743228602
 31
0.0
  0
LINE
  5
13A
330
1F
100
AcDbEntity
  8
0
  6
HIDDEN
 62
     7
370
     0
100
AcDbLine
 10
128.8292066341
 20
144.2743228602
 30
0.0
 11
128.8292066341
 21
139.1743228602
 31
0.0
  0
ARC
  5
13B
330
1F
100
AcDbEntity
  8
0
  6
HIDDEN
 62
     7
370
     0
100
AcDbCircle
 10
208.3792066341
 20
106.7376286122
 30
0.0
 40
0.5
100
AcDbArc
 50
0.0
 51
80.0
  0
ARC
  5
13C
330
1F
100
AcDbEntity
  8
0
  6
HIDDEN
 62
     7
370
     0
100
AcDbCircle
 10
208.3792066341
 20
118.8110171083
 30
0.0
 40
0.5
100
AcDbArc
 50
280.0
 51
0.0
  0
LINE
  5
13D
330
1F
100
AcDbEntity
  8
0
  6
HIDDEN
 62
     7
370
     0
100
AcDbLine
 10
208.4660307229
 20
118.3186132318
 30
0.0
 11
205.3792066341
 21
117.7743228602
 31
0.0
  0
LINE
  5
13E
330
1F
100
AcDbEntity
  8
0
  6
HIDDEN
 62
     7
370
     0
100
AcDbLine
 10
205.3792066341
 20
107.7743228602
 30
0.0
 11
208.4660307229
 21
107.2300324887
 31
0.0
  0
LINE
  5
13F
330
1F
100
AcDbEntity
  8
0
  6
HIDDEN
 62
     7
370
     0
100
AcDbLine
 10
167.7792066341
 20
107.4743228602
 30
0.0
 11
176.9844326159
 21
107.4743228602
 31
0.0
  0
LINE
  5
140
330
1F
100
AcDbEntity
  8
0
  6
HIDDEN
 62
     7
370
     0
100
AcDbLine
 10
176.9844326159
 20
118.0743228602
 30
0.0
 11
167.7792066341
 21
118.0743228602
 31
0.0
  0
ARC
  5
141
330
1F
100
AcDbEntity
  8
0
  6
HIDDEN
 62
     7
370
     0
100
AcDbCircle
 10
176.9844326159
 20
107.8743228602
 30
0.0
 40
0.4000000000000074
100
AcDbArc
 50
270.0
 51
290.0
  0
ARC
  5
142
330
1F
100
AcDbEntity
  8
0
  6
HIDDEN
 62
     7
370
     0
100
AcDbCircle
 10
176.9844326159
 20
117.6743228602
 30
0.0
 40
0.4000000000000074
100
AcDbArc
 50
70.0
 51
90.0
  0
ARC
  5
143
330
1F
100
AcDbEntity
  8
0
  6
HIDDEN
 62
     7
370
     0
100
AcDbCircle
 10
167.7792066341
 20
107.8743228602
 30
0.0
 40
0.4000000000000057
100
AcDbArc
 50
180.0
 51
270.0
  0
ARC
  5
144
330
1F
100
AcDbEntity
  8
0
  6
HIDDEN
 62
     7
370
     0
100
AcDbCircle
 10
167.7792066341
 20
117.6743228602
 30
0.0
 40
0.4000000000000057
100
AcDbArc
 50
90.0
 51
180.0
  0
LINE
  5
145
330
1F
100
AcDbEntity
  8
0
  6
HIDDEN
 62
     7
370
     0
100
AcDbLine
 10
177.1212406733
 20
107.4984458119
 30
0.0
 11
177.8792066341
 21
107.7743228602
 31
0.0
  0
LINE
  5
146
330
1F
100
AcDbEntity
  8
0
  6
HIDDEN
 62
     7
370
     0
100
AcDbLine
 10
177.8792066341
 20
117.7743228602
 30
0.0
 11
177.1212406733
 21
118.0501999086
 31
0.0
  0
LINE
  5
147
330
1F
100
AcDbEntity
  8
0
  6
HIDDEN
 62
     7
370
     0
100
AcDbLine
 10
177.8792066341
 20
107.7743228602
 30
0.0
 11
205.3792066341
 21
107.7743228602
 31
0.0
  0
LINE
  5
148
330
1F
100
AcDbEntity
  8
0
  6
HIDDEN
 62
     7
370
     0
100
AcDbLine
 10
205.3792066341
 20
117.7743228602
 30
0.0
 11
177.8792066341
 21
117.7743228602
 31
0.0
  0
LINE
  5
149
330
1F
100
AcDbEntity
  8
0
  6
HIDDEN
 62
     7
370
     0
100
AcDbLine
 10
119.0636444645
 20
88.6949515267
 30
0.0
 11
118.629212315
 21
89.1740175458
 31
0.0
  0
LINE
  5
14A
330
1F
100
AcDbEntity
  8
0
  6
HIDDEN
 62
     7
370
     0
100
AcDbLine
 10
111.12920899
 20
89.5957055049
 30
0.0
 11
110.6467752466
 21
89.1166395295
 31
0.0
  0
LINE
  5
14B
330
1F
100
AcDbEntity
  8
0
  6
HIDDEN
 62
     7
370
     0
100
AcDbLine
 10
110.6466533184
 20
136.4320009006
 30
0.0
 11
111.1292040694
 21
135.9528806427
 31
0.0
  0
LINE
  5
14C
330
1F
100
AcDbEntity
  8
0
  6
HIDDEN
 62
     7
370
     0
100
AcDbLine
 10
118.6292065161
 20
136.3745784203
 30
0.0
 11
119.0637489064
 21
136.8536986709
 31
0.0
  0
LINE
  5
14D
330
1F
100
AcDbEntity
  8
0
  6
HIDDEN
 62
     7
370
     0
100
AcDbLine
 10
167.3792066341
 20
116.7743228602
 30
0.0
 11
166.8792066341
 21
116.2743228602
 31
0.0
  0
LINE
  5
14E
330
1F
100
AcDbEntity
  8
0
  6
HIDDEN
 62
     7
370
     0
100
AcDbLine
 10
166.8792066341
 20
109.2743228602
 30
0.0
 11
167.3792066341
 21
108.7743228602
 31
0.0
  0
LINE
  5
14F
330
1F
100
AcDbEntity
  8
0
  6
HIDDEN
 62
     7
370
     0
100
AcDbLine
 10
118.6292066341
 20
132.7121590509
 30
0.0
 11
118.6292066341
 21
136.3742871142
 31
0.0
  0
LINE
  5
150
330
1F
100
AcDbEntity
  8
0
  6
HIDDEN
 62
     7
370
     0
100
AcDbLine
 10
111.1292066341
 20
135.9527368634
 30
0.0
 11
111.1292066341
 21
132.773738599
 31
0.0
  0
LINE
  5
151
330
1F
100
AcDbEntity
  8
0
  6
HIDDEN
 62
     7
370
     0
100
AcDbLine
 10
118.6292066341
 20
89.1745014475
 30
0.0
 11
118.6292066341
 21
92.8364866696
 31
0.0
  0
LINE
  5
152
330
1F
100
AcDbEntity
  8
0
  6
HIDDEN
 62
     7
370
     0
100
AcDbLine
 10
111.1292066341
 20
92.7749071215
 30
0.0
 11
111.1292066341
 21
89.5960287427
 31
0.0
  0
LINE
  5
153
330
1F
100
AcDbEntity
  8
0
  6
HIDDEN
 62
     7
370
     0
100
AcDbLine
 10
145.6792066341
 20
109.2743228602
 30
0.0
 11
166.8792066341
 21
109.2743228602
 31
0.0
  0
LINE
  5
154
330
1F
100
AcDbEntity
  8
0
  6
HIDDEN
 62
     7
370
     0
100
AcDbLine
 10
166.8792066341
 20
116.2743228602
 30
0.0
 11
145.6792066341
 21
116.2743228602
 31
0.0
  0
DIMENSION
  5
155
330
1F
100
AcDbEntity
  8
VERMASSUNG
100
AcDbDimension
  2
*D1
 10
86.073347779
 20
81.2743228602
 30
0.0
 11
86.073347779
 21
112.7743228602
 31
0.0
 70
   160
  1
HSK A %%c<>
 71
     2
 42
-1.0
  3
SLDDIMSTYLE0
100
AcDbAlignedDimension
 13
124.1792066341
 23
144.2743228602
 33
0.0
 14
124.1792066341
 24
81.2743228602
 34
0.0
 50
90.0
100
AcDbRotatedDimension
  0
DIMENSION
  5
162
330
1F
100
AcDbEntity
  8
VERMASSUNG
100
AcDbDimension
  2
*D2
 10
208.8792066341
 20
142.2743228602
 30
0.0
 11
188.1292066341
 21
142.2743228602
 31
0.0
 70
   160
 71
     2
 42
-1.0
  3
SLDDIMSTYLE1
100
AcDbAlignedDimension
 13
167.3792066341
 23
117.6743228602
 33
0.0
 14
208.8792066341
 24
122.9255418769
 34
0.0
100
AcDbRotatedDimension
  0
DIMENSION
  5
16D
330
1F
100
AcDbEntity
  8
VERMASSUNG
100
AcDbDimension
  2
*D3
 10
216.5639219935
 20
117.7743228602
 30
0.0
 11
216.5639219935
 21
112.7743228602
 31
0.0
 70
   160
  1
%%c<>
 71
     2
 42
-1.0
  3
SLDDIMSTYLE2
100
AcDbAlignedDimension
 13
205.3792066341
 23
107.7743228602
 33
0.0
 14
205.3792066341
 24
117.7743228602
 34
0.0
 50
90.0
100
AcDbRotatedDimension
  0
DIMENSION
  5
179
330
1F
100
AcDbEntity
  8
VERMASSUNG
100
AcDbDimension
  2
*D4
 10
222.5639219935
 20
124.7743228602
 30
0.0
 11
222.5639219935
 21
112.7743228602
 31
0.0
 70
   160
  1
%%c<>
 71
     2
 42
-1.0
  3
SLDDIMSTYLE3
100
AcDbAlignedDimension
 13
208.8792066341
 23
100.7743228602
 33
0.0
 14
208.8792066341
 24
124.7743228602
 34
0.0
 50
90.0
100
AcDbRotatedDimension
  0
DIMENSION
  5
185
330
1F
100
AcDbEntity
  8
VERMASSUNG
100
AcDbDimension
  2
*D5
 10
228.5639219935
 20
127.7743228602
 30
0.0
 11
228.5639219935
 21
112.7743228602
 31
0.0
 70
   160
  1
%%c<>
 71
     2
 42
-1.0
  3
SLDDIMSTYLE3
100
AcDbAlignedDimension
 13
152.8292066341
 23
97.7743228602
 33
0.0
 14
152.8292066341
 24
127.7743228602
 34
0.0
 50
90.0
100
AcDbRotatedDimension
  0
DIMENSION
  5
190
330
1F
100
AcDbEntity
  8
VERMASSUNG
100
AcDbDimension
  2
*D6
 10
208.8792066341
 20
154.2743228602
 30
0.0
 11
166.3792066341
 21
154.2743228602
 31
0.0
 70
   160
 71
     2
 42
-1.0
  3
SLDDIMSTYLE0
100
AcDbAlignedDimension
 13
123.8792066341
 23
143.9743228602
 33
0.0
 14
208.8792066341
 24
122.9255418769
 34
0.0
100
AcDbRotatedDimension
  0
DIMENSION
  5
19A
330
1F
100
AcDbEntity
  8
VERMASSUNG
100
AcDbDimension
  2
*D7
 10
208.8792066341
 20
148.2743228602
 30
0.0
 11
179.3542066341
 21
148.2743228602
 31
0.0
 70
   160
 71
     2
 42
-1.0
  3
SLDDIMSTYLE0
100
AcDbAlignedDimension
 13
149.8292066341
 23
142.620763184
 33
0.0
 14
208.8792066341
 24
122.9255418769
 34
0.0
100
AcDbRotatedDimension
  0
DIMENSION
  5
1A4
330
1F
100
AcDbEntity
  8
VERMASSUNG
100
AcDbDimension
  2
*D8
 10
91.9792066341
 20
160.2743228602
 30
0.0
 11
150.4292066341
 21
160.2743228602
 31
0.0
 70
   160
 71
     2
 42
-1.0
  3
SLDDIMSTYLE0
100
AcDbAlignedDimension
 13
208.8792066341
 23
122.9255418769
 33
0.0
 14
91.9792066341
 24
132.4650006067
 34
0.0
100
AcDbRotatedDimension
  0
LINE
  5
1AE
330
1F
100
AcDbEntity
  8
VERMASSUNG
  6
CENTERX2
370
     0
100
AcDbLine
 10
88.3940411701
 20
112.7743228602
 30
0.0
 11
210.8792066341
 21
112.7743228602
 31
0.0
  0
OLE2FRAME
  5
1AF
330
1F
100
AcDbEntity
  8
0
100
AcDbOle2Frame
 70
     2
  3
Bitmap Image
 10
13.8511154363
 20
38.264191557
 30
0.0
 11
51.6290888628
 21
31.9806341108
 31
0.0
 71
     2
 72
     0
 73
     1
 90
    12928
310
80552BED0767C5B32B40DDAF6807D121434000000000000000006FFBDDFB85D0
310
4940DDAF6807D121434000000000000000006FFBDDFB85D04940416F4BD60AFB
310
3F4000000000000000002BED0767C5B32B40416F4BD60AFB3F40000000000000
310
0000000000000100000000010000010000000100000000000100000000320000
310
D0CF11E0A1B11AE1000000000000000000000000000000003E000300FEFF0900
310
0600000000000000000000000100000001000000000000000010000002000000
310
01000000FEFFFFFF0000000000000000FFFFFFFFFFFFFFFFFFFFFFFFFFFFFFFF
310
FFFFFFFFFFFFFFFFFFFFFFFFFFFFFFFFFFFFFFFFFFFFFFFFFFFFFFFFFFFFFFFF
310
FFFFFFFFFFFFFFFFFFFFFFFFFFFFFFFFFFFFFFFFFFFFFFFFFFFFFFFFFFFFFFFF
310
FFFFFFFFFFFFFFFFFFFFFFFFFFFFFFFFFFFFFFFFFFFFFFFFFFFFFFFFFFFFFFFF
310
FFFFFFFFFFFFFFFFFFFFFFFFFFFFFFFFFFFFFFFFFFFFFFFFFFFFFFFFFFFFFFFF
310
FFFFFFFFFFFFFFFFFFFFFFFFFFFFFFFFFFFFFFFFFFFFFFFFFFFFFFFFFFFFFFFF
310
FFFFFFFFFFFFFFFFFFFFFFFFFFFFFFFFFFFFFFFFFFFFFFFFFFFFFFFFFFFFFFFF
310
FFFFFFFFFFFFFFFFFFFFFFFFFFFFFFFFFFFFFFFFFFFFFFFFFFFFFFFFFFFFFFFF
310
FFFFFFFFFFFFFFFFFFFFFFFFFFFFFFFFFFFFFFFFFFFFFFFFFFFFFFFFFFFFFFFF
310
FFFFFFFFFFFFFFFFFFFFFFFFFFFFFFFFFFFFFFFFFFFFFFFFFFFFFFFFFFFFFFFF
310
FFFFFFFFFFFFFFFFFFFFFFFFFFFFFFFFFFFFFFFFFFFFFFFFFFFFFFFFFFFFFFFF
310
FFFFFFFFFFFFFFFFFFFFFFFFFFFFFFFFFFFFFFFFFFFFFFFFFFFFFFFFFFFFFFFF
310
FFFFFFFFFFFFFFFFFFFFFFFFFFFFFFFFFFFFFFFFFFFFFFFFFFFFFFFFFFFFFFFF
310
FFFFFFFFFFFFFFFFFFFFFFFFFFFFFFFFFFFFFFFFFFFFFFFFFFFFFFFFFFFFFFFF
310
FDFFFFFFFEFFFFFFFEFFFFFFFEFFFFFF05000000060000000700000008000000
310
090000000A0000000B0000000C0000000D0000000E0000000F00000010000000
310
11000000120000001300000014000000150000001600000017000000FEFFFFFF
310
FFFFFFFFFFFFFFFFFFFFFFFFFFFFFFFFFFFFFFFFFFFFFFFFFFFFFFFFFFFFFFFF
310
FFFFFFFFFFFFFFFFFFFFFFFFFFFFFFFFFFFFFFFFFFFFFFFFFFFFFFFFFFFFFFFF
310
FFFFFFFFFFFFFFFFFFFFFFFFFFFFFFFFFFFFFFFFFFFFFFFFFFFFFFFFFFFFFFFF
310
FFFFFFFFFFFFFFFFFFFFFFFFFFFFFFFFFFFFFFFFFFFFFFFFFFFFFFFFFFFFFFFF
310
FFFFFFFFFFFFFFFFFFFFFFFFFFFFFFFFFFFFFFFFFFFFFFFFFFFFFFFFFFFFFFFF
310
FFFFFFFFFFFFFFFFFFFFFFFFFFFFFFFFFFFFFFFFFFFFFFFFFFFFFFFFFFFFFFFF
310
FFFFFFFFFFFFFFFFFFFFFFFFFFFFFFFFFFFFFFFFFFFFFFFFFFFFFFFFFFFFFFFF
310
FFFFFFFFFFFFFFFFFFFFFFFFFFFFFFFFFFFFFFFFFFFFFFFFFFFFFFFFFFFFFFFF
310
FFFFFFFFFFFFFFFFFFFFFFFFFFFFFFFFFFFFFFFFFFFFFFFFFFFFFFFFFFFFFFFF
310
FFFFFFFFFFFFFFFFFFFFFFFFFFFFFFFFFFFFFFFFFFFFFFFFFFFFFFFFFFFFFFFF
310
FFFFFFFFFFFFFFFFFFFFFFFFFFFFFFFFFFFFFFFFFFFFFFFFFFFFFFFFFFFFFFFF
310
FFFFFFFFFFFFFFFFFFFFFFFFFFFFFFFFFFFFFFFFFFFFFFFFFFFFFFFFFFFFFFFF
310
FFFFFFFFFFFFFFFFFFFFFFFFFFFFFFFFFFFFFFFFFFFFFFFFFFFFFFFFFFFFFFFF
310
52006F006F007400200045006E00740072007900000000000000000000000000
310
0000000000000000000000000000000000000000000000000000000000000000
310
16000500FFFFFFFFFFFFFFFF020000000A00030000000000C000000000000046
310
000000000000000000000000904D492DA704CC0103000000C000000000000000
310
01004F006C006500000000000000000000000000000000000000000000000000
310
0000000000000000000000000000000000000000000000000000000000000000
310
0A000200FFFFFFFFFFFFFFFFFFFFFFFF00000000000000000000000000000000
310
0000000000000000000000000000000000000000000000001400000000000000
310
010043006F006D0070004F0062006A0000000000000000000000000000000000
310
0000000000000000000000000000000000000000000000000000000000000000
310
120002010100000003000000FFFFFFFF00000000000000000000000000000000
310
0000000000000000000000000000000000000000010000004D00000000000000
310
01004F006C006500310030004E00610074006900760065000000000000000000
310
0000000000000000000000000000000000000000000000000000000000000000
310
1A000200FFFFFFFFFFFFFFFFFFFFFFFF00000000000000000000000000000000
310
0000000000000000000000000000000000000000040000002426000000000000
310
FEFFFFFF02000000FEFFFFFFFFFFFFFFFFFFFFFFFFFFFFFFFFFFFFFFFFFFFFFF
310
FFFFFFFFFFFFFFFFFFFFFFFFFFFFFFFFFFFFFFFFFFFFFFFFFFFFFFFFFFFFFFFF
310
FFFFFFFFFFFFFFFFFFFFFFFFFFFFFFFFFFFFFFFFFFFFFFFFFFFFFFFFFFFFFFFF
310
FFFFFFFFFFFFFFFFFFFFFFFFFFFFFFFFFFFFFFFFFFFFFFFFFFFFFFFFFFFFFFFF
310
FFFFFFFFFFFFFFFFFFFFFFFFFFFFFFFFFFFFFFFFFFFFFFFFFFFFFFFFFFFFFFFF
310
FFFFFFFFFFFFFFFFFFFFFFFFFFFFFFFFFFFFFFFFFFFFFFFFFFFFFFFFFFFFFFFF
310
FFFFFFFFFFFFFFFFFFFFFFFFFFFFFFFFFFFFFFFFFFFFFFFFFFFFFFFFFFFFFFFF
310
FFFFFFFFFFFFFFFFFFFFFFFFFFFFFFFFFFFFFFFFFFFFFFFFFFFFFFFFFFFFFFFF
310
FFFFFFFFFFFFFFFFFFFFFFFFFFFFFFFFFFFFFFFFFFFFFFFFFFFFFFFFFFFFFFFF
310
FFFFFFFFFFFFFFFFFFFFFFFFFFFFFFFFFFFFFFFFFFFFFFFFFFFFFFFFFFFFFFFF
310
FFFFFFFFFFFFFFFFFFFFFFFFFFFFFFFFFFFFFFFFFFFFFFFFFFFFFFFFFFFFFFFF
310
FFFFFFFFFFFFFFFFFFFFFFFFFFFFFFFFFFFFFFFFFFFFFFFFFFFFFFFFFFFFFFFF
310
FFFFFFFFFFFFFFFFFFFFFFFFFFFFFFFFFFFFFFFFFFFFFFFFFFFFFFFFFFFFFFFF
310
FFFFFFFFFFFFFFFFFFFFFFFFFFFFFFFFFFFFFFFFFFFFFFFFFFFFFFFFFFFFFFFF
310
FFFFFFFFFFFFFFFFFFFFFFFFFFFFFFFFFFFFFFFFFFFFFFFFFFFFFFFFFFFFFFFF
310
FFFFFFFFFFFFFFFFFFFFFFFFFFFFFFFFFFFFFFFFFFFFFFFFFFFFFFFFFFFFFFFF
310
010000020000000000000000000000000000000000000000B000820000000004
310
40C5613100000000C80225000000000000000000000000000000000000000000
310
0100FEFF030A0000FFFFFFFF0A00030000000000C00000000000004607000000
310
5042727573680007000000504272757368000700000050427275736800F439B2
310
7100000000000000000000000000000000000000000000000000000000000000
310
0000000000000000000000000000000000000000000000000000000000000000
310
0000000000000000000000000000000000000000000000000000000000000000
310
0000000000000000000000000000000000000000000000000000000000000000
310
0000000000000000000000000000000000000000000000000000000000000000
310
0000000000000000000000000000000000000000000000000000000000000000
310
0000000000000000000000000000000000000000000000000000000000000000
310
0000000000000000000000000000000000000000000000000000000000000000
310
0000000000000000000000000000000000000000000000000000000000000000
310
0000000000000000000000000000000000000000000000000000000000000000
310
0000000000000000000000000000000000000000000000000000000000000000
310
0000000000000000000000000000000000000000000000000000000000000000
310
20260000424D0E260000000000003E00000028000000B40200006E0000000100
310
01000000000000000000130B0000130B00000200000002000000000000FFFFFF
310
FFFFFFFFFFFFFFFFFFFFFFFFFFFFFFFFFFFFFFFFFFFFFFFFFFFFFFFFFFFFFFFF
310
FFFFFFFFFFFFFFFFFFFFFFFFFFFFFFFFFFFFFFFFFFFFFFFFFFFFFFFFFFFFFFFF
310
FFFFFFFFFFFFFFFFFFFFFFFFFFFFFFFFFFFFFFFFFFFFFFFFF000FFFFFFFFFFFF
310
FFFFFFFFFFFFFFFFFFFFFFFFFFFFFFFFFFFFFFFFFFFFFFFFFFFFFFFFFFFFFFFF
310
FFFFFFFFFFFFFFFFFFFFFFFFFFFFFFFFFFFFFFFFFFFFFFFFFFFFFFFFFFFFFFFF
310
FFFFFFFFFFFFFFFFFFFFFFFFFFFFFFFFF000FFFFFFFFFFFFFFFFFFFFFFFFFFFF
310
FFFFFFFFFFFFFFFFFFFFFFFFFFFFFFFFFFFFFFFFFFFFFFFFFFFFFFFFFFFFFFFF
310
FFFFFFFFFFFFFFFFFFFFFFFFFFFFFFFFFFFFFFFFFFFFFFFFFFFFFFFFFFFFFFFF
310
FFFFFFFFFFFFFFFFF000FFFFFFFFFFFFFFFFFFFFFFFFFFFFFFFFFFFFFFFFFFFF
310
FFFFFFFFFFFFFFFFFFFFFFFFFFFFFFFFFFFFFFFFFFFFFFFFFFFFFFFFFFFFFFFF
310
FFFFFFFFFFFFFFFFFFFFFFFFFFFFFFFFFFFFFFFFFFFFFFFFFFFFFFFFFFFFFFFF
310
F000FFFFFFFFFFFFFFFFFFFFFFFFFFFFFFFFFFFFFFFFFFFFFFFFFFFFFFFFFFFF
310
FFFFFFFFFFFFFFFFFFFFFFFFFFFFFFFFFFFFFFFFFFFFFFFFFFFFFFFFFFFFFFFF
310
FFFFFFFFFFFFFFFFFFFFFFFFFFFFFFFFFFFFFFFFFFFFFFFFF000FFFFFFFFFFFF
310
FFFFFFFFFFFFFFFFFFFFFFFFFFFFFFFFFFFFFFFFFFFFFFFFFFFFFFFFFFFFFFFF
310
FFFFFFFFFFFFFFFFFFFFFFFFFFFFFFFFFFFFFFFFFFFFFFFFFFFFFFFFFFFFFFFF
310
FFFFFFFFFFFFFFFFFFFFFFFFFFFFFFFFF000FFFFFFFFFFFFFFFFFFFFFFFFFFFF
310
FFFFFFFFFFFFFFFFFFFFFFFFFFFFFFFFFFFFFFFFFFFFFFFFFFFFFFFFFFFFFFFF
310
FFFFFFFFFFFFFFFFFFFFFFFFFFFFFFFFFFFFFFFFFFFFFFFFFFFFFFFFFFFFFFFF
310
FFFFFFFFFFFFFFFFF000FFFFFFFFFFFFFFFFFFFFFFFFFFFFFFFFFFFFFFFFFFFF
310
FFFFFFFFFFFFFFFFFFFFFFFFFFFFFFFFFFFFFFFFFFFFFFFFFFFFFFFFFFFFFFFF
310
FFFFFFFFFFFFFFFFFFFFFFFFFFFFFFFFFFFFFFFFFFFFFFFFFFFFFFFFFFFFFFFF
310
F000FFFFFFFFFFFFFFFFFFFFFFFFFFFFFFFFFFFFFFFFFFFFFFFFFFFFFFFFFFFF
310
FFFFFFFFFFFFFFFFFFFFFFFFFFFFFFFFFFFFFFFFFFFFFFFFFFFFFFFFFFFFFFFF
310
FFFFFFFFFFFFFFFFFFFFFFFFFFFFFFFFFFFFFFFFFFFFFFFFF000FFFFFFFFFFFF
310
FFFFFFFFFFFFFFFFFFFFFFFFFFFFFFFFFFFFFFFFFFFFFFFFFFFFFFFFFFFFFFFF
310
FFFFFFFFFFFFFFFFFFFFFFFFFFFFFFFFFFFFFFFFFFFFFFFFFFFFFFFFFFFFFFFF
310
FFFFFFFFFFFFFFFFFFFFFFFFFFFFFFFFF000FFFFFFFFFFFFFFFFFFFFFFFFFFFF
310
FFFFFFFFFFFFFFFFFFFFFFFFFFFFFFFFFFFFFFFFFFFFFFFFFFFFFFFFFFFFFFFF
310
FFFFFFFFFFFFFFFFFFFFFFFFFFFFFFFFFFFFFFFFFFFFFFFFFFFFFFFFFFFFFFFF
310
FFFFFFFFFFFFFFFFF000FFFFFFFFFFFFFFFFFFFFFFFFFFFFFFFFFFFFFFFFFFFF
310
FFFFFFFFFFFFFFFFFFFFFFFFFFFFFFFFFFFFFFFFFFFFFFFFFFFFFFFFFFFFFFFF
310
FFFFFFFFFFFFFFFFFFFFFFFFFFFFFFFFFFFFFFFFFFFFFFFFFFFFFFFFFFFFFFFF
310
F000FFFFFFFFFFFFFFFFFFFFFFFFFFFFFFFFFFFFFFFFFFFFFFFFFFFFFFFFFFFF
310
FFFFFFFFFFFFFFFFFFFFFFFFFFFFFFFFFFFFFFFFFFFFFFFFFFFFFFFFFFFFFFFF
310
FFFFFFFFFFFFFFFFFFFFFFFFFFFFFFFFFFFFFFFFFFFFFFFFF000FFFFFFFFFFFF
310
FFFFFFFFFFFFFFFFFFFFFFFFFFFFFFFFFFFFFFFFFFFFFFFFFFFFFFFFFFFFFFFF
310
FFFFFFFFFFFFFFFFFFFFFFFFFFFFFFFFFFFFFFFFFFFFFFFFFFFFFFFFFFFFFFFF
310
FFFFFFFFFFFFFFFFFFFFFFFFFFFFFFFFF000FFFFFFFFFFFFFFFFFFFFFFFFFFFF
310
FFFFFFFFFFFFFFFFFFFFFFFFFFFFFFFFFFFFFFFFFFFFFFFFFFFFFFFFFFFFFFFF
310
FFFFFFFFFFFFFFFFFFFFFFFFFFFFFFFFFFFFFFFFFFFFFFFFFFFFFFFFFFFFFFFF
310
FFFFFFFFFFFFFFFFF000FFFFFFFFFFFFFFFFFFFFFFFFFFFFFFFFFFFFFFFFFFFF
310
FFFFFFFFFFFFFFFFFFFFFFFFFFFFFFFFFFFFFFFFFFFFFFFFFFFFFFFFFFFFFFFF
310
FFFFFFFFFFFFFFFFFFFFFFFFFFFFFFFFFFFFFFFFFFFFFFFFFFFFFFFFFFFFFFFF
310
F000FFFFFFFFFFFFFFFFFFFFFFFFFFFFFFFFFFFFFFFFFFFFFFFFFFFFFFFFFFFF
310
FFFFFFFFFFFFFFFFFFFFFFFFFFFFFFFFFFFFFFFFFFFFFFFFFFFFFFFFFFFFFFFF
310
FFFFFFFFFFFFFFFFFFFFFFFFFFFFFFFFFFFFFFFFFFFFFFFFF000FFFFFFFFFFFF
310
FFFFFFFFFFFFFFFFFFFFFFFFFFFFFFFFFFFFFFFFFFFFFFFFFFFFFFFFFFFFFFFF
310
FFFFFFFFFFFFFFFFFFFFFFFFFFFFFFFFFFFFFFFFFFFFFFFFFFFFFFFFFFFFFFFF
310
FFFFFFFFFFFFFFFFFFFFFFFFFFFFFFFFF000FFFFFFFFFFFFFFFFFFFFFFFFFFFF
310
FFFFFFFFFFFFFFFFFFFFFFFFFFFFFFFFFFFFFFFFFFFFFFFFFFFFFFFFFFFFFFFF
310
FFFFFFFFFFFFFFFFFFFFFFFFFFFFFFFFFFFFFFFFFFFFFFFFFFFFFFFFFFFFFFFF
310
FFFFFFFFFFFFFFFFF000FFFFF80003FFFFFFFFFFFFFFFFFFFFFFFFFFFFFFFFFF
310
FFFFF00007FFFFFFFFFF00007FFFFFF800000000000000007FFFFFFFFFFFFFFF
310
FFFFFFFC001FFFFFFFFFFFFFFC001FFFFFFFFFFFFFFFFFFFFFFFFFFE0007FFFF
310
F000FFFF8000007FFFFFFFF8000FFFFFC0007FFFFF80007FFFFF0000007FFFFF
310
FFF8000007FFFFF800000000000000007FFFFFF0001FFFFFFFFFFFC00001FFFF
310
FFFFFFFFC00001FFFFFFFF000000000003FFFFE000007FFFF000FFFE0000000F
310
FFFFFFF0000FFFFF80007FFFFF80007FFFFC0000001FFFFFFFC0000001FFFFF8
310
00000000000000007FFFFFF0001FFFFFFFFFFE0000003FFFFFFFFFFE0000003F
310
FFFFFF000000000003FFFF0000000FFFF000FFF800000003FFFFFFF00007FFFF
310
80007FFFFF80007FFFF000000007FFFFFF000000003FFFF80000000000000000
310
7FFFFFF0001FFFFFFFFFF80000000FFFFFFFFFF80000000FFFFFFF0000000000
310
03FFFC00000003FFF000FFE000000000FFFFFFF00007FFFF80003FFFFF80007F
310
FFC000000001FFFFFC000000001FFFF800000000000000007FFFFFF0001FFFFF
310
FFFFE000000003FFFFFFFFE000000003FFFFFF000000000003FFF000000000FF
310
F000FF80000000007FFFFFF00007FFFF80003FFFFF80007FFF8000000000FFFF
310
F80000000007FFF800000000000000007FFFFFF0001FFFFFFFFFC000000001FF
310
FFFFFFC000000001FFFFFF000000000003FFC0000000007FF000FF0000000000
310
3FFFFFE00007FFFF00003FFFFF80007FFE00000000003FFFF00000000003FFF8
310
00000000000000007FFFFFF0001FFFFFFFFF8000000000FFFFFFFF8000000000
310
FFFFFF000000000003FF80000000003FF000FE00000000001FFFFFE00003FFFF
310
00003FFFFF80007FFC00000000001FFFE00000000001FFF8000001FFFE000000
310
7FFFFFF0001FFFFFFFFE00000000003FFFFFFE00000000003FFFFF0000000000
310
03FF00000000001FF000FC00000000000FFFFFE00003FFFF00001FFFFF80007F
310
F800000000001FFFC00000000000FFF8000001FFFE0000007FFFFFF0001FFFFF
310
FFFC00000000001FFFFFFC00000000001FFFFF000000000003FE00000000000F
310
F000F8000000000007FFFFE00003FFFF00001FFFFF80007FF800000000000FFF
310
800000000000FFF8000001FFFE0000007FFFFFF0001FFFFFFFF800000000000F
310
FFFFF800000000000FFFFF000000000003FC000000000007F000F80000000000
310
03FFFFC00003FFFE00001FFFFF80007FF0000000000007FF0000000000007FF8
310
000001FFFE0000007FFFFFF0001FFFFFFFF0000000000007FFFFF00000000000
310
07FFFF000000000003F8000000000003F000F0000000000003FFFFC00001FFFE
310
00001FFFFF80007FE0000000000007FE0000000000003FF8000001FFFE000000
310
7FFFFFF0001FFFFFFFF0000000000007FFFFF0000000000007FFFF0000000000
310
03F800001F800003F000E00001FFF00001FFFFC00001FFFE00000FFFFF80007F
310
E00001FFE00003FE00001FFF00003FF8000001FFFE0000007FFFFFF0001FFFFF
310
FFE000003E000003FFFFE000003E000003FFFF000000000003F00001FFF80001
310
F000E00007FFFC0001FFFFC00001FFFE00000FFFFF80007FC0000FFFFC0003FC
310
0000FFFFC0001FF8000001FFFE0000007FFFFFF0001FFFFFFFC00003FFE00001
310
FFFFC00003FFE00001FFFF0001FFFFFFFFF00007FFFE0001F000E0000FFFFF00
310
00FFFF800001FFFC00000FFFFF80007FC0001FFFFE0001FC0001FFFFE0001FF8
310
000001FFFE0000007FFFFFF0001FFFFFFF80000FFFF80000FFFF80000FFFF800
310
00FFFF0003FFFFFFFFE0000FFFFF8000F000C0003FFFFF8000FFFF800000FFFC
310
000007FFFF80007F80003FFFFF0001FC0003FFFFF0001FF8000001FFFE000000
310
7FFFFFF0001FFFFFFF80003FFFFE0000FFFF80003FFFFE0000FFFF0003FFFFFF
310
FFE0003FFFFF8000F000C0003FFFFF8000FFFF800000FFFC000007FFFF80007F
310
80007FFFFF8001F80007FFFFF8000FF8000001FFFE0000007FFFFFF0001FFFFF
310
FF00007FFFFF00007FFF00007FFFFF00007FFF0003FFFFFFFFE0003FFFFFC000
310
F000C0007FFFFFC000FFFF000000FFFC000007FFFF80007F8000FFFFFF8000F8
310
000FFFFFF8000FF8000001FFFE0000007FFFFFF0001FFFFFFF0000FFFFFF8000
310
7FFF0000FFFFFF80007FFF0003FFFFFFFFC0007FFFFFC00070008000FFFFFFC0
310
00FFFF000000FFF8000007FFFF80007F8000FFFFFF8000F8000FFFFFF8000FF8
310
000001FFFE0000007FFFFFF0001FFFFFFE0001FFFFFFC0003FFE0001FFFFFFC0
310
003FFF0003FFFFFFFFC0007FFFFFE00070008000FFFFFFC0007FFF0000007FF8
310
000003FFFF80007F0001FFFFFF8000F8000FFFFFF8000FF8000001FFFE000000
310
7FFFFFF0001FFFFFFE0001FFFFFFC0003FFE0001FFFFFFC0003FFF0003FFFFFF
310
FFC000FFFFFFE00070008000FFFFFFC0007FFF0000007FF8000003FFFF80007F
310
0001FFFFFF8000F8001FFFFFF8000FF8000001FFFE0000007FFFFFF0001FFFFF
310
FE0003FFFFFFE0003FFE0003FFFFFFE0003FFF0003FFFFFFFFC000FFFFFFE000
310
70008000FFFFFFC0007FFE0000007FF8000003FFFF80007F0001FFFFFF8000F0
310
001FFFFFF8000FF8000001FFFE0000007FFFFFF0001FFFFFFC0003FFFFFFE000
310
1FFC0003FFFFFFE0001FFF0003FFFFFFFFC000FFFFFFC00070008000FFFFFF80
310
007FFE0000007FF0000003FFFF80007F0001FFFFFF0000F0001FFFFFF8000FF8
310
000001FFFE0000007FFFFFF0001FFFFFFC0007FFFFFFF0001FFC0007FFFFFFF0
310
001FFF0003FFFFFFFFC000FFFFFFC00070008001FFFFFF0000FFFE0000003FF0
310
000001FFFF80007F0001FFFFFF0000F8001FFFFFF0000FF8000001FFFE000000
310
7FFFFFF0001FFFFFFC0007FFFFFFF0001FFC0007FFFFFFF0001FFF0003FFFFFF
310
FFC001FFFFFF80007000FFFFFFFFFE0000FFFE0008003FF0008001FFFF80007F
310
FFFFFFFFFC0000FFFFFFFFFFE0000FF8000001FFFE0000007FFFFFF0001FFFFF
310
F8000FFFFFFFF8000FF8000FFFFFFFF8000FFF0003FFFFFFFFFFFFFFFFFF0000
310
7000FFFFFFFFFC0000FFFC0008003FF0008001FFFF80007FFFFFFFFFF80001FF
310
FFFFFFFF80000FF8000001FFFE0000007FFFFFF0001FFFFFF8000FFFFFFFF800
310
0FF8000FFFFFFFF8000FFF0003FFFFFFFFFFFFFFFFFE0000F000FFFFFFFFE000
310
00FFFC000C003FE000C001FFFF80007FFFFFFFFFC00001FFFFFFFFFE00001FF8
310
000001FFFE0000007FFFFFF0001FFFFFF8000FFFFFFFF8000FF8000FFFFFFFF8
310
000FFF0003FFFFFFFFFFFFFFFFF00000F000FFFFFFFE000001FFFC000C001FE0
310
00C000FFFF80007FFFFFFFFE000001FFFFFFFFE000001FF80FFFFFFFFFFFFFC0
310
7FFFFFF0001FFFFFF8000FFFFFFFF8000FF8000FFFFFFFF8000FFF0003FFFFFF
310
FFFFFFFFFF800000F000FFFFFFC0000001FFFC001C001FE001C000FFFF80007F
310
FFFFFF80000003FFFFFFF80000001FF80FFFFFFFFFFFFFC07FFFFFF0001FFFFF
310
F8001FFFFFFFFC000FF8001FFFFFFFFC000FFF0003FFFFFFFFFFFFFFF0000001
310
F000FFFFF800000001FFF8001C001FE001C000FFFF80007FFFFFF800000003FF
310
FFFF800000003FF80FFFFFFFFFFFFFC07FFFFFF0001FFFFFF8001FFFFFFFFC00
310
0FF8001FFFFFFFFC000FFF0003FFFFFFFFFFFFFE00000001F000FFFFC0000000
310
03FFF8001E001FC001E000FFFF80007FFFFF8000000007FFFFFC000000003FF8
310
0FFFFFFFFFFFFFC07FFFFFF0001FFFFFF8001FFFFFFFFC000FF8001FFFFFFFFC
310
000FFF0003FFFFFFFFFFFFE000000003F000FFFE0000000007FFF8001E000FC0
310
01E0007FFF80007FFFFE0000000007FFFFE0000000007FF80FFFFFFFFFFFFFC0
310
7FFFFFF0001FFFFFF0001FFFFFFFFC0007F0001FFFFFFFFC0007FF0003FFFFFF
310
FFFFFF0000000003F000FFF80000000007FFF8001E000FC003E0007FFF80007F
310
FFF0000000000FFFFF8000000000FFF80FFFFFFFFFFFFFC07FFFFFF0001FFFFF
310
F0001FFFFFFFFC0007F0001FFFFFFFFC0007FF0003FFFFFFFFFFFC0000000007
310
F000FFE0000000000FFFF0003E000FC003E0007FFF80007FFFC0000000001FFF
310
FE0000000001FFF80FFFFFFFFFFFFFC07FFFFFF0001FFFFFF0001FFFFFFFFC00
310
07F0001FFFFFFFFC0007FF0003FFFFFFFFFFF0000000000FF000FFC000000000
310
1FFFF0003F000F8003F0003FFF80007FFF80000000003FFFF80000000003FFF8
310
0FFFFFFFFFFFFFC07FFFFFF0001FFFFFF0001FFFFFFFFC0007F0001FFFFFFFFC
310
0007FF0003FFFFFFFFFFE0000000001FF000FF00000000007FFFF0003F000780
310
03F0003FFF80007FFF00000000007FFFF00000000007FFF80FFFFFFFFFFFFFC0
310
7FFFFFF0001FFFFFF0001FFFFFFFFC0007F0001FFFFFFFFC0007FF0003FFFFFF
310
FFFF80000000007FF000FE0000000000FFFFE0003F00078007F0003FFF80007F
310
FE0000000001FFFFE0000000001FFFF80FFFFFFFFFFFFFC07FFFFFF0001FFFFF
310
F0001FFFFFFFFC0007F0001FFFFFFFFC0007FF0003FFFFFFFFFF0000000000FF
310
F000FC0000000003FFFFE0007F00078007F0003FFF80007FFC0000000007FFFF
310
C0000000007FFFF80FFFFFFFFFFFFFC07FFFFFF0001FFFFFF8001FFFFFFFFC00
310
0FF8001FFFFFFFFC000FFF0003FFFFFFFFFE0000000003FFF000FC000000000F
310
FFFFE0007F80070007F8001FFF80007FF8000000001FFFFF8000000001FFFFF8
310
0FFFFFFFFFFFFFC07FFFFFF0001FFFFFF8001FFFFFFFFC000FF8001FFFFFFFFC
310
000FFF0003FFFFFFFFFC000000000FFFF000F8000000007FFFFFE0007F800700
310
07F8001FFF80007FF000000000FFFFFF800000000FFFFFF80FFFFFFFFFFFFFC0
310
7FFFFFF0001FFFFFF8000FFFFFFFF8000FF8000FFFFFFFF8000FFF0003FFFFFF
310
FFFC000000007FFFF000F800000007FFFFFFC0007F8003000FF8001FFF80007F
310
F000000007FFFFFF000000007FFFFFF80FFFFFFFFFFFFFC07FFFFFF0001FFFFF
310
F8000FFFFFFFF8000FF8000FFFFFFFF8000FFF0003FFFFFFFFF80000000FFFFF
310
F000F0000000FFFFFFFFC000FF8003000FF8001FFF80007FE0000000FFFFFFFF
310
0000000FFFFFFFF8000001FFFE0000007FFFFFF0001FFFFFF8000FFFFFFFF800
310
0FF8000FFFFFFFF8000FFF0003FFFFFFFFF8000000FFFFFFF000F000000FFFFF
310
FFFFC000FFC002000FF8000FFF80007FE000001FFFFFFFFE000001FFFFFFFFF8
310
000001FFFE0000007FFFFFF0001FFFFFF8000FFFFFFFF8000FF8000FFFFFFFF8
310
000FFF0003FFFFFFFFF000001FFFFFFFF000E00000FFFFFFFFFFC000FFC00200
310
0FFC000FFF80007FE00001FFFFFFFFFE00001FFFFFFFFFF8000001FFFE000000
310
7FFFFFF0001FFFFFFC000FFFFFFFF8001FFC000FFFFFFFF8001FFF0003FFFFFF
310
FFF00001FFFFFFFFF000E00007FFFFFFFFFF8000FFC000001FFC000FFF80007F
310
C0000FFFFFFFFFFE0000FFFFFFFFFFF8000001FFFE0000007FFFFFF0001FFFFF
310
FC0007FFFFFFF0001FFC0007FFFFFFF0001FFF0003FFFFFFFFF00007FFFFFFFF
310
F000E0001FFFFFFFFFFF8000FFC000001FFC000FFF80007FC0003FFFFFFFFFFE
310
0001FFFFFFFFFFF8000001FFFE0000007FFFFFF0001FFFFFFC0007FFFFFFF000
310
1FFC0007FFFFFFF0001FFF0003FFFFFFFFF0001FFFFFFFFFF000E0003FFFFF00
310
03FF8001FFE000001FFC0007FF80007FC0007FFFFF0007FC0003FFFFF0003FF8
310
000001FFFE0000007FFFFFF0001FFFFFFC0003FFFFFFE0001FFC0003FFFFFFE0
310
001FFF0003FFFFFFFFF0003FFFFFFFFFF000E0003FFFFF0001FF8001FFE00000
310
1FFE0007FF80007FC0007FFFFE0003FC0007FFFFE0003FF8000001FFFE000000
310
7FFFFFF0001FFFFFFE0003FFFFFFE0003FFE0003FFFFFFE0003FFF0003FFFFFF
310
FFF0003FFFFF8001F000E0003FFFFF0001FF0001FFE000001FFE0007FF80007F
310
C0007FFFFE0003FC0007FFFFE0003FF8000001FFFE0000007FFFFFF0001FFFFF
310
FE0001FFFFFFC0003FFE0001FFFFFFC0003FFF0003FFFFFFFFF0003FFFFF0001
310
F000E0003FFFFF0003FF0001FFE000003FFE0007FF80007FC0007FFFFE0003FC
310
0007FFFFE0003FF8000001FFFE0000007FFFFFF0001FFFFFFF0001FFFFFFC000
310
7FFF0001FFFFFFC0007FFF0003FFFFFFFFF0003FFFFF0001F000E0003FFFFE00
310
03FF0003FFF000003FFE0003FF80007FC0007FFFFC0003FE0007FFFFE0003FF8
310
000001FFFE0000007FFFFFF0001FFFFFFF0000FFFFFF80007FFF0000FFFFFF80
310
007FFF0003FFFFFFFFF0003FFFFF0001F000E0003FFFFE0003FF0003FFF00000
310
3FFF0003FF80007FC0007FFFFC0007FE0007FFFFC0003FF8000001FFFE000000
310
7FFFFFF0001FFFFFFF80007FFFFF0000FFFF80007FFFFF0000FFFF0003FFFFFF
310
FFF0003FFFFF0003F000E0003FFFFC0003FE0003FFF000003FFF0003FF80007F
310
E0003FFFF80007FE0003FFFFC0007FF8000001FFFE0000007FFFFFF0001FFFFF
310
FF80003FFFFE0000FFFF80003FFFFE0000FFFF0003FFFFFFFFF0001FFFFE0003
310
F000F0001FFFF80003FE0003FFF000007FFF0001FF80007FE0003FFFF00007FE
310
0001FFFF80007FF8000001FFFE0000007FFFFFF0001FFFFFFFC0000FFFF80001
310
FFFFC0000FFFF80001FFFF0003FFFFFFFFF0001FFFFC0003F000F0000FFFF000
310
07FE0007FFF800007FFF0001FF80007FE0001FFFE00007FF0000FFFE00007FF8
310
000001FFFE0000007FFFFFF0001FFFFFFFC00003FFE00001FFFFC00003FFE000
310
01FFFF0003FFFFFFFFF8000FFFF80003F000F00003FFC00007FC0007FFF80000
310
7FFF8001FF80007FF00007FF80000FFF00007FF80000FFF8000001FFFE000000
310
7F80000000000001FFE000003E000003FFFFE000003E000003FFFF0003FFFFFF
310
FFF80003FFE00007F000F800000000000FFC0007FFF800007FFF8001FF80007F
310
F000000000000FFF000000000000FFF8000001FFFE0000007F80000000000001
310
FFF0000000000007FFFFF0000000000007FFFF0003FFFFFFFFFC00007E000007
310
F000F800000000000FFC0007FFF80000FFFF8000FF80007FF800000000001FFF
310
800000000001FFF8000001FFFE0000007F80000000000001FFF800000000000F
310
FFFFF800000000000FFFFF0003FFFFFFFFFC00000000000FF000FC0000000000
310
1FFC0007FFFC0000FFFF8000FF80007FF800000000003FFFC00000000001FFF8
310
000001FFFE0000007F80000000000001FFF800000000000FFFFFF80000000000
310
0FFFFF0003FFFFFFFFFE00000000001FF000FE00000000003FF8000FFFFC0000
310
FFFF8000FF80007FFC00000000003FFFC00000000003FFF8000001FFFE000000
310
7F80000000000001FFFC00000000001FFFFFFC00000000001FFFFF0003FFFFFF
310
FFFF00000000001FF000FF00000000003FF8000FFFFC0000FFFFC000FF80007F
310
FE00000000007FFFE00000000007FFF8000001FFFE0000007F80000000000001
310
FFFE00000000003FFFFFFE00000000003FFFFF0003FFFFFFFFFF80000000003F
310
F000FF80000000007FF8000FFFFC0001FFFFC0007F80007FFF0000000000FFFF
310
F0000000000FFFF800000000000000007F80000000000001FFFF8000000000FF
310
FFFFFF8000000000FFFFFF0003FFFFFFFFFFC0000000007FF000FFC000000000
310
FFF8000FFFFE0001FFFFC0007F80007FFF8000000001FFFFF8000000001FFFF8
310
00000000000000007F80000000000001FFFFC000000001FFFFFFFFC000000001
310
FFFFFF0003FFFFFFFFFFE000000000FFF000FFE000000003FFF0001FFFFE0001
310
FFFFC0007F80007FFFC000000007FFFFFE000000003FFFF80000000000000000
310
7F80000000000001FFFFE000000003FFFFFFFFE000000003FFFFFF0003FFFFFF
310
FFFFF000000003FFF000FFF80000000FFFF0001FFFFE0001FFFFE0007F80007F
310
FFF00000000FFFFFFF00000000FFFFF800000000000000007F80000000000001
310
FFFFF80000000FFFFFFFFFF80000000FFFFFFF0003FFFFFFFFFFFC0000000FFF
310
F000FFFE0000003FFFF0001FFFFE0003FFFFE0003F80007FFFFC0000003FFFFF
310
FFC0000003FFFFF800000000000000007F80000000000001FFFFFE0000003FFF
310
FFFFFFFE0000003FFFFFFF0003FFFFFFFFFFFF0000003FFFF000FFFF800000FF
310
FFF0001FFFFF0003FFFFE0003F80007FFFFF000001FFFFFFFFF800001FFFFFF8
310
00000000000000007F80000000000001FFFFFFC00001FFFFFFFFFFFFC00001FF
310
FFFFFF0003FFFFFFFFFFFFC00000FFFFF000FFFFF8000FFFFFFFFFFFFFFFFFFF
310
FFFFFFFFFFFFFFFFFFFFF0001FFFFFFFFFFF0000FFFFFFF80000000000000000
310
7FFFFFFFFFFFFFFFFFFFFFFC001FFFFFFFFFFFFFFC001FFFFFFFFFFFFFFFFFFF
310
FFFFFFFC001FFFFFF000FFFFFFFFFFFFFFFFFFFFFFFFFFFFFFFFFFFFFFFFFFFF
310
FFFFFFFFFFFFFFFFFFFFFFFFFFFFFFFFFFFFFFFFFFFFFFFFFFFFFFFFFFFFFFFF
310
FFFFFFFFFFFFFFFFFFFFFFFFFFFFFFFFFFFFFFFFFFFFFFFFFFFFFFFFFFFFFFFF
310
F000FFFFFFFFFFFFFFFFFFFFFFFFFFFFFFFFFFFFFFFFFFFFFFFFFFFFFFFFFFFF
310
FFFFFFFFFFFFFFFFFFFFFFFFFFFFFFFFFFFFFFFFFFFFFFFFFFFFFFFFFFFFFFFF
310
FFFFFFFFFFFFFFFFFFFFFFFFFFFFFFFFFFFFFFFFFFFFFFFFF000FFFFFFFFFFFF
310
FFFFFFFFFFFFFFFFFFFFFFFFFFFFFFFFFFFFFFFFFFFFFFFFFFFFFFFFFFFFFFFF
310
FFFFFFFFFFFFFFFFFFFFFFFFFFFFFFFFFFFFFFFFFFFFFFFFFFFFFFFFFFFFFFFF
310
FFFFFFFFFFFFFFFFFFFFFFFFFFFFFFFFF000FFFFFFFFFFFFFFFFFFFFFFFFFFFF
310
FFFFFFFFFFFFFFFFFFFFFFFFFFFFFFFFFFFFFFFFFFFFFFFFFFFFFFFFFFFFFFFF
310
FFFFFFFFFFFFFFFFFFFFFFFFFFFFFFFFFFFFFFFFFFFFFFFFFFFFFFFFFFFFFFFF
310
FFFFFFFFFFFFFFFFF000FFFFFFFFFFFFFFFFFFFFFFFFFFFFFFFFFFFFFFFFFFFF
310
FFFFFFFFFFFFFFFFFFFFFFFFFFFFFFFFFFFFFFFFFFFFFFFFFFFFFFFFFFFFFFFF
310
FFFFFFFFFFFFFFFFFFFFFFFFFFFFFFFFFFFFFFFFFFFFFFFFFFFFFFFFFFFFFFFF
310
F000FFFFFFFFFFFFFFFFFFFFFFFFFFFFFFFFFFFFFFFFFFFFFFFFFFFFFFFFFFFF
310
FFFFFFFFFFFFFFFFFFFFFFFFFFFFFFFFFFFFFFFFFFFFFFFFFFFFFFFFFFFFFFFF
310
FFFFFFFFFFFFFFFFFFFFFFFFFFFFFFFFFFFFFFFFFFFFFFFFF000FFFFFFFFFFFF
310
FFFFFFFFFFFFFFFFFFFFFFFFFFFFFFFFFFFFFFFFFFFFFFFFFFFFFFFFFFFFFFFF
310
FFFFFFFFFFFFFFFFFFFFFFFFFFFFFFFFFFFFFFFFFFFFFFFFFFFFFFFFFFFFFFFF
310
FFFFFFFFFFFFFFFFFFFFFFFFFFFFFFFFF000FFFFFFFFFFFFFFFFFFFFFFFFFFFF
310
FFFFFFFFFFFFFFFFFFFFFFFFFFFFFFFFFFFFFFFFFFFFFFFFFFFFFFFFFFFFFFFF
310
FFFFFFFFFFFFFFFFFFFFFFFFFFFFFFFFFFFFFFFFFFFFFFFFFFFFFFFFFFFFFFFF
310
FFFFFFFFFFFFFFFFF000FFFFFFFFFFFFFFFFFFFFFFFFFFFFFFFFFFFFFFFFFFFF
310
FFFFFFFFFFFFFFFFFFFFFFFFFFFFFFFFFFFFFFFFFFFFFFFFFFFFFFFFFFFFFFFF
310
FFFFFFFFFFFFFFFFFFFFFFFFFFFFFFFFFFFFFFFFFFFFFFFFFFFFFFFFFFFFFFFF
310
F000FFFFFFFFFFFFFFFFFFFFFFFFFFFFFFFFFFFFFFFFFFFFFFFFFFFFFFFFFFFF
310
FFFFFFFFFFFFFFFFFFFFFFFFFFFFFFFFFFFFFFFFFFFFFFFFFFFFFFFFFFFFFFFF
310
FFFFFFFFFFFFFFFFFFFFFFFFFFFFFFFFFFFFFFFFFFFFFFFFF000FFFFFFFFFFFF
310
FFFFFFFFFFFFFFFFFFFFFFFFFFFFFFFFFFFFFFFFFFFFFFFFFFFFFFFFFFFFFFFF
310
FFFFFFFFFFFFFFFFFFFFFFFFFFFFFFFFFFFFFFFFFFFFFFFFFFFFFFFFFFFFFFFF
310
FFFFFFFFFFFFFFFFFFFFFFFFFFFFFFFFF000FFFFFFFFFFFFFFFFFFFFFFFFFFFF
310
FFFFFFFFFFFFFFFFFFFFFFFFFFFFFFFFFFFFFFFFFFFFFFFFFFFFFFFFFFFFFFFF
310
FFFFFFFFFFFFFFFFFFFFFFFFFFFFFFFFFFFFFFFFFFFFFFFFFFFFFFFFFFFFFFFF
310
FFFFFFFFFFFFFFFFF000FFFFFFFFFFFFFFFFFFFFFFFFFFFFFFFFFFFFFFFFFFFF
310
FFFFFFFFFFFFFFFFFFFFFFFFFFFFFFFFFFFFFFFFFFFFFFFFFFFFFFFFFFFFFFFF
310
FFFFFFFFFFFFFFFFFFFFFFFFFFFFFFFFFFFFFFFFFFFFFFFFFFFFFFFFFFFFFFFF
310
F000FFFFFFFFFFFFFFFFFFFFFFFFFFFFFFFFFFFFFFFFFFFFFFFFFFFFFFFFFFFF
310
FFFFFFFFFFFFFFFFFFFFFFFFFFFFFFFFFFFFFFFFFFFFFFFFFFFFFFFFFFFFFFFF
310
FFFFFFFFFFFFFFFFFFFFFFFFFFFFFFFFFFFFFFFFFFFFFFFFF000FFFFFFFFFFFF
310
FFFFFFFFFFFFFFFFFFFFFFFFFFFFFFFFFFFFFFFFFFFFFFFFFFFFFFFFFFFFFFFF
310
FFFFFFFFFFFFFFFFFFFFFFFFFFFFFFFFFFFFFFFFFFFFFFFFFFFFFFFFFFFFFFFF
310
FFFFFFFFFFFFFFFFFFFFFFFFFFFFFFFFF000FFFFFFFFFFFFFFFFFFFFFFFFFFFF
310
FFFFFFFFFFFFFFFFFFFFFFFFFFFFFFFFFFFFFFFFFFFFFFFFFFFFFFFFFFFFFFFF
310
FFFFFFFFFFFFFFFFFFFFFFFFFFFFFFFFFFFFFFFFFFFFFFFFFFFFFFFFFFFFFFFF
310
FFFFFFFFFFFFFFFFF000FFFFFFFFFFFFFFFFFFFFFFFFFFFFFFFFFFFFFFFFFFFF
310
FFFFFFFFFFFFFFFFFFFFFFFFFFFFFFFFFFFFFFFFFFFFFFFFFFFFFFFFFFFFFFFF
310
FFFFFFFFFFFFFFFFFFFFFFFFFFFFFFFFFFFFFFFFFFFFFFFFFFFFFFFFFFFFFFFF
310
F000FFFFFFFFFFFFFFFFFFFFFFFFFFFFFFFFFFFFFFFFFFFFFFFFFFFFFFFFFFFF
310
FFFFFFFFFFFFFFFFFFFFFFFFFFFFFFFFFFFFFFFFFFFFFFFFFFFFFFFFFFFFFFFF
310
FFFFFFFFFFFFFFFFFFFFFFFFFFFFFFFFFFFFFFFFFFFFFFFFF000FFFFFFFFFFFF
310
FFFFFFFFFFFFFFFFFFFFFFFFFFFFFFFFFFFFFFFFFFFFFFFFFFFFFFFFFFFFFFFF
310
FFFFFFFFFFFFFFFFFFFFFFFFFFFFFFFFFFFFFFFFFFFFFFFFFFFFFFFFFFFFFFFF
310
FFFFFFFFFFFFFFFFFFFFFFFFFFFFFFFFF000FFFFFFFFFFFFFFFFFFFFFFFFFFFF
310
FFFFFFFFFFFFFFFFFFFFFFFFFFFFFFFFFFFFFFFFFFFFFFFFFFFFFFFFFFFFFFFF
310
FFFFFFFFFFFFFFFFFFFFFFFFFFFFFFFFFFFFFFFFFFFFFFFFFFFFFFFFFFFFFFFF
310
FFFFFFFFFFFFFFFFF000FFFFFFFFFFFFFFFFFFFFFFFFFFFFFFFFFFFFFFFFFFFF
310
FFFFFFFFFFFFFFFFFFFFFFFFFFFFFFFFFFFFFFFFFFFFFFFFFFFFFFFFFFFFFFFF
310
FFFFFFFFFFFFFFFFFFFFFFFFFFFFFFFFFFFFFFFFFFFFFFFFFFFFFFFFFFFFFFFF
310
F000FFFFFFFFFFFFFFFFFFFFFFFFFFFFFFFFFFFFFFFFFFFFFFFFFFFFFFFFFFFF
310
FFFFFFFFFFFFFFFFFFFFFFFFFFFFFFFFFFFFFFFFFFFFFFFFFFFFFFFFFFFFFFFF
310
FFFFFFFFFFFFFFFFFFFFFFFFFFFFFFFFFFFFFFFFFFFFFFFFF000FFFFFFFFFFFF
310
FFFFFFFFFFFFFFFFFFFFFFFFFFFFFFFFFFFFFFFFFFFFFFFFFFFFFFFFFFFFFFFF
310
FFFFFFFFFFFFFFFFFFFFFFFFFFFFFFFFFFFFFFFFFFFFFFFFFFFFFFFFFFFFFFFF
310
FFFFFFFFFFFFFFFFFFFFFFFFFFFFFFFFF0000000000000000000000000000000
310
0000000001000000000000000100000000000000010000000000000001000000
310
0000000001000000010000000100000001000000010000000100000001000000
310
0100000000000000010000000100000001000000010000000100000001000000
310
0100000001000000000000000100000001000000010000000100000001000000
310
0100000001000000010000000000000001000000010000000100000001000000
310
0100000001000000010000000100000000000000010000000000000001000000
310
0000000001000000000000000100000000000000010000000000000001000000
310
0000000001000000000000000100000000000000010000000000000001000000
310
0000000001000000000000000100000000000000010000000000000001000000
310
000000000100000000000000010000000000CFDD671C9F316CFF1C19DBC8B17E
310
AED573CDD67322C71F1D13397F1BBF9E737E5FA3F73C959FEA1F0318C0000630
310
F02703D305F02821E90D1903FB00EE0480E5633100000000108C5E3100000000
310
8EB3F063000318C000061613C06F19D8EBC4D58ED976874A5F16FD39A6768F6D
310
57B22463A563BEAF5BEA6C46BA8ADF1DC8EF673ABA5E29367B82D57A9DD2784A
310
F1AB75E76A31DF3EEB5E27F68C189BF8167F0C60000318C0C03F0C4CED00EE09
  1
OLE
  0
ENDSEC
  0
SECTION
  2
OBJECTS
  0
DICTIONARY
  5
C
330
0
100
AcDbDictionary
281
     1
  3
ACAD_GROUP
350
D
  3
ACAD_LAYOUT
350
1A
  3
ACAD_MLEADERSTYLE
350
1B1
  3
ACAD_MLINESTYLE
350
17
  3
ACAD_PLOTSETTINGS
350
19
  3
ACAD_PLOTSTYLENAME
350
E
  3
ACAD_TABLESTYLE
350
1B0
  3
ACAD_VISUALSTYLE
350
2A
  3
AcDbVariableDictionary
350
1B2
  0
DICTIONARY
  5
D
102
{ACAD_REACTORS
330
C
102
}
330
C
100
AcDbDictionary
281
     1
  0
DICTIONARY
  5
1A
102
{ACAD_REACTORS
330
C
102
}
330
C
100
AcDbDictionary
281
     1
  3
Layout1
350
1E
  3
Layout2
350
26
  3
Model
350
22
  0
DICTIONARY
  5
1B1
102
{ACAD_REACTORS
330
C
102
}
330
C
100
AcDbDictionary
281
     1
  0
DICTIONARY
  5
17
102
{ACAD_REACTORS
330
C
102
}
330
C
100
AcDbDictionary
281
     1
  3
Standard
350
18
  0
DICTIONARY
  5
19
102
{ACAD_REACTORS
330
C
102
}
330
C
100
AcDbDictionary
281
     1
  0
ACDBDICTIONARYWDFLT
  5
E
102
{ACAD_REACTORS
330
C
102
}
330
C
100
AcDbDictionary
281
     1
  3
Normal
350
F
100
AcDbDictionaryWithDefault
340
F
  0
DICTIONARY
  5
1B0
102
{ACAD_REACTORS
330
C
102
}
330
C
100
AcDbDictionary
281
     1
  0
DICTIONARY
  5
2A
102
{ACAD_REACTORS
330
C
102
}
330
C
100
AcDbDictionary
281
     1
  3
2dWireframe
350
2F
  3
3D Hidden
350
31
  3
3dWireframe
350
30
  3
Basic
350
32
  3
Brighten
350
36
  3
ColorChange
350
3A
  3
Conceptual
350
34
  3
Dim
350
35
  3
Facepattern
350
39
  3
Flat
350
2B
  3
FlatWithEdges
350
2C
  3
Gouraud
350
2D
  3
GouraudWithEdges
350
2E
  3
Linepattern
350
38
  3
Realistic
350
33
  3
Thicken
350
37
  0
DICTIONARY
  5
1B2
102
{ACAD_REACTORS
330
C
102
}
330
C
100
AcDbDictionary
281
     1
  3
PSOLHEIGHT
350
1B4
  3
PSOLWIDTH
350
1B3
  0
LAYOUT
  5
1E
102
{ACAD_REACTORS
330
1A
102
}
330
1A
100
AcDbPlotSettings
  1

  2
none_device
  4

  6

 40
0.0
 41
0.0
 42
0.0
 43
0.0
 44
0.0
 45
0.0
 46
0.0
 47
0.0
 48
0.0
 49
0.0
140
0.0
141
0.0
142
1.0
143
1.0
 70
   688
 72
     0
 73
     0
 74
     5
  7

 75
    16
147
1.0
148
0.0
149
0.0
100
AcDbLayout
  1
Layout1
 70
     1
 71
     1
 10
0.0
 20
0.0
 11
420.0
 21
297.0
 12
0.0
 22
0.0
 32
0.0
 14
1.0000000000E+20
 24
1.0000000000E+20
 34
1.0000000000E+20
 15
-1.0000000000E+20
 25
-1.0000000000E+20
 35
-1.0000000000E+20
146
0.0
 13
0.0
 23
0.0
 33
0.0
 16
1.0
 26
0.0
 36
0.0
 17
0.0
 27
1.0
 37
0.0
 76
     0
330
1B
  0
LAYOUT
  5
26
102
{ACAD_REACTORS
330
1A
102
}
330
1A
100
AcDbPlotSettings
  1

  2
none_device
  4

  6

 40
0.0
 41
0.0
 42
0.0
 43
0.0
 44
0.0
 45
0.0
 46
0.0
 47
0.0
 48
0.0
 49
0.0
140
0.0
141
0.0
142
1.0
143
1.0
 70
   688
 72
     0
 73
     0
 74
     5
  7

 75
    16
147
1.0
148
0.0
149
0.0
100
AcDbLayout
  1
Layout2
 70
     1
 71
     2
 10
0.0
 20
0.0
 11
0.0
 21
0.0
 12
0.0
 22
0.0
 32
0.0
 14
0.0
 24
0.0
 34
0.0
 15
0.0
 25
0.0
 35
0.0
146
0.0
 13
0.0
 23
0.0
 33
0.0
 16
1.0
 26
0.0
 36
0.0
 17
0.0
 27
1.0
 37
0.0
 76
     0
330
23
  0
LAYOUT
  5
22
102
{ACAD_REACTORS
330
1A
102
}
330
1A
100
AcDbPlotSettings
  1

  2
none_device
  4

  6

 40
0.0
 41
0.0
 42
0.0
 43
0.0
 44
0.0
 45
0.0
 46
0.0
 47
0.0
 48
0.0
 49
0.0
140
0.0
141
0.0
142
1.0
143
1.0
 70
  1712
 72
     0
 73
     0
 74
     0
  7

 75
     0
147
1.0
148
0.0
149
0.0
100
AcDbLayout
  1
Model
 70
     1
 71
     0
 10
0.0
 20
0.0
 11
297.0
 21
210.0
 12
0.0
 22
0.0
 32
0.0
 14
0.0
 24
0.0
 34
0.0
 15
297.0
 25
210.0
 35
0.0
146
0.0
 13
0.0
 23
0.0
 33
0.0
 16
1.0
 26
0.0
 36
0.0
 17
0.0
 27
1.0
 37
0.0
 76
     0
330
1F
331
29
  0
MLINESTYLE
  5
18
102
{ACAD_REACTORS
330
17
102
}
330
17
100
AcDbMlineStyle
  2
Standard
 70
     0
  3

 62
   256
 51
90.0
 52
90.0
 71
     2
 49
0.5
 62
   256
  6
BYLAYER
 49
-0.5
 62
   256
  6
BYLAYER
  0
ACDBPLACEHOLDER
  5
F
102
{ACAD_REACTORS
330
E
102
}
330
E
  0
VISUALSTYLE
  5
2F
102
{ACAD_REACTORS
330
2A
102
}
330
2A
100
AcDbVisualStyle
  2
2dWireframe
 70
     4
 71
     0
 72
     2
 73
     0
 90
        0
 40
-0.6
 41
-30.0
 62
     5
 63
     7
 74
     1
 91
        4
 64
     7
 65
   257
 75
     1
175
     1
 42
1.0
 92
        0
 66
   257
 43
1.0
 76
     1
 77
     6
 78
     2
 67
     7
 79
     5
170
     0
171
     0
290
     0
174
     0
 93
        1
 44
0.0
173
     0
291
     0
 45
0.0
1001
ACAD
1000
AcDbSavedByObjectVersion
1070
     0
  0
VISUALSTYLE
  5
31
102
{ACAD_REACTORS
330
2A
102
}
330
2A
100
AcDbVisualStyle
  2
3D Hidden
 70
     6
 71
     1
 72
     2
 73
     2
 90
        0
 40
-0.6
 41
-30.0
 62
     5
 63
     7
 74
     2
 91
        2
 64
     7
 65
   257
 75
     2
175
     1
 42
40.0
 92
        0
 66
   257
 43
1.0
 76
     1
 77
     6
 78
     2
 67
     7
 79
     3
170
     0
171
     0
290
     0
174
     0
 93
        1
 44
0.0
173
     0
291
     0
 45
0.0
1001
ACAD
1000
AcDbSavedByObjectVersion
1070
     0
  0
VISUALSTYLE
  5
30
102
{ACAD_REACTORS
330
2A
102
}
330
2A
100
AcDbVisualStyle
  2
3dWireframe
 70
     5
 71
     0
 72
     2
 73
     0
 90
        0
 40
-0.6
 41
-30.0
 62
     5
 63
     7
 74
     1
 91
        4
 64
     7
 65
   257
 75
     1
175
     1
 42
1.0
 92
        0
 66
   257
 43
1.0
 76
     1
 77
     6
 78
     2
 67
     7
 79
     5
170
     0
171
     0
290
     0
174
     0
 93
        1
 44
0.0
173
     0
291
     0
 45
0.0
1001
ACAD
1000
AcDbSavedByObjectVersion
1070
     0
  0
VISUALSTYLE
  5
32
102
{ACAD_REACTORS
330
2A
102
}
330
2A
100
AcDbVisualStyle
  2
Basic
 70
     7
 71
     1
 72
     0
 73
     1
 90
        0
 40
-0.6
 41
-30.0
 62
     5
 63
     7
 74
     0
 91
        4
 64
     7
 65
   257
 75
     1
175
     1
 42
1.0
 92
        8
 66
     7
 43
1.0
 76
     1
 77
     6
 78
     2
 67
     7
 79
     5
170
     0
171
     0
290
     0
174
     0
 93
        1
 44
0.0
173
     0
291
     1
 45
0.0
1001
ACAD
1000
AcDbSavedByObjectVersion
1070
     0
  0
VISUALSTYLE
  5
36
102
{ACAD_REACTORS
330
2A
102
}
330
2A
100
AcDbVisualStyle
  2
Brighten
 70
    12
 71
     2
 72
     2
 73
     0
 90
        0
 40
-0.6
 41
-30.0
 62
     5
 63
     7
 74
     1
 91
        4
 64
     7
 65
   257
 75
     1
175
     1
 42
1.0
 92
        8
 66
     7
 43
1.0
 76
     1
 77
     6
 78
     2
 67
     7
 79
     5
170
     0
171
     0
290
     0
174
     0
 93
        1
 44
50.0
173
     0
291
     1
 45
0.0
1001
ACAD
1000
AcDbSavedByObjectVersion
1070
     0
  0
VISUALSTYLE
  5
3A
102
{ACAD_REACTORS
330
2A
102
}
330
2A
100
AcDbVisualStyle
  2
ColorChange
 70
    16
 71
     2
 72
     2
 73
     3
 90
        0
 40
-0.6
 41
-30.0
 62
     5
 63
     8
 74
     1
 91
        4
 64
     7
 65
   257
 75
     1
175
     1
 42
1.0
 92
        8
 66
     8
 43
1.0
 76
     1
 77
     6
 78
     2
 67
     7
 79
     5
170
     0
171
     0
290
     0
174
     0
 93
        1
 44
0.0
173
     0
291
     1
 45
0.0
1001
ACAD
1000
AcDbSavedByObjectVersion
1070
     0
  0
VISUALSTYLE
  5
34
102
{ACAD_REACTORS
330
2A
102
}
330
2A
100
AcDbVisualStyle
  2
Conceptual
 70
     9
 71
     3
 72
     2
 73
     0
 90
        0
 40
-0.6
 41
-30.0
 62
     5
 63
     7
 74
     2
 91
        2
 64
     7
 65
   257
 75
     1
175
     1
 42
40.0
 92
        8
 66
     7
 43
1.0
 76
     1
 77
     6
 78
     2
 67
     7
 79
     3
170
     0
171
     0
290
     0
174
     0
 93
        1
 44
0.0
173
     0
291
     0
 45
0.0
1001
ACAD
1000
AcDbSavedByObjectVersion
1070
     0
  0
VISUALSTYLE
  5
35
102
{ACAD_REACTORS
330
2A
102
}
330
2A
100
AcDbVisualStyle
  2
Dim
 70
    11
 71
     2
 72
     2
 73
     0
 90
        0
 40
-0.6
 41
-30.0
 62
     5
 63
     7
 74
     1
 91
        4
 64
     7
 65
   257
 75
     1
175
     1
 42
1.0
 92
        8
 66
     7
 43
1.0
 76
     1
 77
     6
 78
     2
 67
     7
 79
     5
170
     0
171
     0
290
     0
174
     0
 93
        1
 44
-50.0
173
     0
291
     1
 45
0.0
1001
ACAD
1000
AcDbSavedByObjectVersion
1070
     0
  0
VISUALSTYLE
  5
39
102
{ACAD_REACTORS
330
2A
102
}
330
2A
100
AcDbVisualStyle
  2
Facepattern
 70
    15
 71
     2
 72
     2
 73
     0
 90
        0
 40
-0.6
 41
-30.0
 62
     5
 63
     7
 74
     1
 91
        4
 64
     7
 65
   257
 75
     1
175
     1
 42
1.0
 92
        8
 66
     7
 43
1.0
 76
     1
 77
     6
 78
     2
 67
     7
 79
     5
170
     0
171
     0
290
     0
174
     0
 93
        1
 44
0.0
173
     0
291
     1
 45
0.0
1001
ACAD
1000
AcDbSavedByObjectVersion
1070
     0
  0
VISUALSTYLE
  5
2B
102
{ACAD_REACTORS
330
2A
102
}
330
2A
100
AcDbVisualStyle
  2
Flat
 70
     0
 71
     2
 72
     1
 73
     1
 90
        2
 40
-0.6
 41
30.0
 62
     5
 63
     7
 74
     0
 91
        4
 64
     7
 65
   257
 75
     1
175
     1
 42
1.0
 92
        8
 66
     7
 43
1.0
 76
     1
 77
     6
 78
     2
 67
     7
 79
     5
170
     0
171
     0
290
     0
174
     0
 93
       13
 44
0.0
173
     0
291
     1
 45
0.0
1001
ACAD
1000
AcDbSavedByObjectVersion
1070
     0
  0
VISUALSTYLE
  5
2C
102
{ACAD_REACTORS
330
2A
102
}
330
2A
100
AcDbVisualStyle
  2
FlatWithEdges
 70
     1
 71
     2
 72
     1
 73
     1
 90
        2
 40
-0.6
 41
30.0
 62
     5
 63
     7
 74
     1
 91
        4
 64
     7
 65
   257
 75
     1
175
     1
 42
1.0
 92
        0
 66
   257
 43
1.0
 76
     1
 77
     6
 78
     2
 67
     7
 79
     5
170
     0
171
     0
290
     0
174
     0
 93
       13
 44
0.0
173
     0
291
     1
 45
0.0
1001
ACAD
1000
AcDbSavedByObjectVersion
1070
     0
  0
VISUALSTYLE
  5
2D
102
{ACAD_REACTORS
330
2A
102
}
330
2A
100
AcDbVisualStyle
  2
Gouraud
 70
     2
 71
     2
 72
     2
 73
     1
 90
        2
 40
-0.6
 41
30.0
 62
     5
 63
     7
 74
     0
 91
        4
 64
     7
 65
   257
 75
     1
175
     1
 42
1.0
 92
        0
 66
     7
 43
1.0
 76
     1
 77
     6
 78
     2
 67
     7
 79
     5
170
     0
171
     0
290
     0
174
     0
 93
       13
 44
0.0
173
     0
291
     1
 45
0.0
1001
ACAD
1000
AcDbSavedByObjectVersion
1070
     0
  0
VISUALSTYLE
  5
2E
102
{ACAD_REACTORS
330
2A
102
}
330
2A
100
AcDbVisualStyle
  2
GouraudWithEdges
 70
     3
 71
     2
 72
     2
 73
     1
 90
        2
 40
-0.6
 41
30.0
 62
     5
 63
     7
 74
     1
 91
        4
 64
     7
 65
   257
 75
     1
175
     1
 42
1.0
 92
        0
 66
   257
 43
1.0
 76
     1
 77
     6
 78
     2
 67
     7
 79
     5
170
     0
171
     0
290
     0
174
     0
 93
       13
 44
0.0
173
     0
291
     1
 45
0.0
1001
ACAD
1000
AcDbSavedByObjectVersion
1070
     0
  0
VISUALSTYLE
  5
38
102
{ACAD_REACTORS
330
2A
102
}
330
2A
100
AcDbVisualStyle
  2
Linepattern
 70
    14
 71
     2
 72
     2
 73
     0
 90
        0
 40
-0.6
 41
-30.0
 62
     5
 63
     7
 74
     1
 91
        4
 64
     7
 65
   257
 75
     7
175
     7
 42
1.0
 92
        8
 66
     7
 43
1.0
 76
     1
 77
     6
 78
     2
 67
     7
 79
     5
170
     0
171
     0
290
     0
174
     0
 93
        1
 44
0.0
173
     0
291
     1
 45
0.0
1001
ACAD
1000
AcDbSavedByObjectVersion
1070
     0
  0
VISUALSTYLE
  5
33
102
{ACAD_REACTORS
330
2A
102
}
330
2A
100
AcDbVisualStyle
  2
Realistic
 70
     8
 71
     2
 72
     2
 73
     0
 90
        0
 40
-0.6
 41
-30.0
 62
     5
 63
     7
 74
     1
 91
        0
 64
     7
 65
   257
 75
     1
175
     1
 42
1.0
 92
        8
 66
     8
 43
1.0
 76
     1
 77
     6
 78
     2
 67
     7
 79
     5
170
     0
171
     0
290
     0
174
     0
 93
       13
 44
0.0
173
     0
291
     0
 45
0.0
1001
ACAD
1000
AcDbSavedByObjectVersion
1070
     0
  0
VISUALSTYLE
  5
37
102
{ACAD_REACTORS
330
2A
102
}
330
2A
100
AcDbVisualStyle
  2
Thicken
 70
    13
 71
     2
 72
     2
 73
     0
 90
        0
 40
-0.6
 41
-30.0
 62
     5
 63
     7
 74
     1
 91
        4
 64
     7
 65
   257
 75
     1
175
     1
 42
1.0
 92
       12
 66
     7
 43
1.0
 76
     1
 77
     6
 78
     2
 67
     7
 79
     5
170
     0
171
     0
290
     0
174
     0
 93
        1
 44
0.0
173
     0
291
     1
 45
0.0
1001
ACAD
1000
AcDbSavedByObjectVersion
1070
     0
  0
DICTIONARYVAR
  5
1B4
102
{ACAD_REACTORS
330
1B2
102
}
330
1B2
100
DictionaryVariables
280
     0
  1
80.000000
  0
DICTIONARYVAR
  5
1B3
102
{ACAD_REACTORS
330
1B2
102
}
330
1B2
100
DictionaryVariables
280
     0
  1
5.000000
  0
ENDSEC
  0
EOF
