  0
SECTION
  2
HEADER
  9
$ACADVER
  1
AC1015
  9
$ACADMAINTVER
 70
     6
  9
$DWGCODEPAGE
  3
ANSI_1252
  9
$INSBASE
 10
0.0
 20
0.0
 30
0.0
  9
$EXTMIN
 10
0.0
 20
0.0
 30
0.0
  9
$EXTMAX
 10
297.0
 20
210.0
 30
0.0
  9
$LIMMIN
 10
0.0
 20
0.0
  9
$LIMMAX
 10
297.0
 20
210.0
  9
$ORTHOMODE
 70
     0
  9
$REGENMODE
 70
     1
  9
$FILLMODE
 70
     1
  9
$QTEXTMODE
 70
     0
  9
$MIRRTEXT
 70
     1
  9
$LTSCALE
 40
1.0
  9
$ATTMODE
 70
     1
  9
$TEXTSIZE
 40
2.0
  9
$TRACEWID
 40
1.0
  9
$TEXTSTYLE
  7
Standard
  9
$CLAYER
  8
0
  9
$CELTYPE
  6
ByLayer
  9
$CECOLOR
 62
   256
  9
$CELTSCALE
 40
1.0
  9
$DISPSILH
 70
     0
  9
$DIMSCALE
 40
1.0
  9
$DIMASZ
 40
3.0
  9
$DIMEXO
 40
0.0
  9
$DIMDLI
 40
3.75
  9
$DIMRND
 40
0.0
  9
$DIMDLE
 40
0.0
  9
$DIMEXE
 40
1.0
  9
$DIMTP
 40
0.0
  9
$DIMTM
 40
0.0
  9
$DIMTXT
 40
2.0
  9
$DIMCEN
 40
2.5
  9
$DIMTSZ
 40
0.0
  9
$DIMTOL
 70
     0
  9
$DIMLIM
 70
     0
  9
$DIMTIH
 70
     1
  9
$DIMTOH
 70
     1
  9
$DIMSE1
 70
     0
  9
$DIMSE2
 70
     0
  9
$DIMTAD
 70
     1
  9
$DIMZIN
 70
     0
  9
$DIMBLK
  1

  9
$DIMASO
 70
     1
  9
$DIMSHO
 70
     1
  9
$DIMPOST
  1

  9
$DIMAPOST
  1

  9
$DIMALT
 70
     0
  9
$DIMALTD
 70
     3
  9
$DIMALTF
 40
0.0393700787
  9
$DIMLFAC
 40
1.0
  9
$DIMTOFL
 70
     1
  9
$DIMTVP
 40
0.0
  9
$DIMTIX
 70
     0
  9
$DIMSOXD
 70
     0
  9
$DIMSAH
 70
     0
  9
$DIMBLK1
  1

  9
$DIMBLK2
  1

  9
$DIMSTYLE
  2
ISO-25
  9
$DIMCLRD
 70
     0
  9
$DIMCLRE
 70
     0
  9
$DIMCLRT
 70
     0
  9
$DIMTFAC
 40
1.0
  9
$DIMGAP
 40
1.524
  9
$DIMJUST
 70
     0
  9
$DIMSD1
 70
     0
  9
$DIMSD2
 70
     0
  9
$DIMTOLJ
 70
     0
  9
$DIMTZIN
 70
     0
  9
$DIMALTZ
 70
     0
  9
$DIMALTTZ
 70
     0
  9
$DIMUPT
 70
     0
  9
$DIMDEC
 70
     2
  9
$DIMTDEC
 70
     3
  9
$DIMALTU
 70
     2
  9
$DIMALTTD
 70
     3
  9
$DIMTXSTY
  7
Standard
  9
$DIMAUNIT
 70
     0
  9
$DIMADEC
 70
     2
  9
$DIMALTRND
 40
0.0
  9
$DIMAZIN
 70
     0
  9
$DIMDSEP
 70
    44
  9
$DIMATFIT
 70
     3
  9
$DIMFRAC
 70
     0
  9
$DIMLDRBLK
  1

  9
$DIMLUNIT
 70
     2
  9
$DIMLWD
 70
    -2
  9
$DIMLWE
 70
    -2
  9
$DIMTMOVE
 70
     0
  9
$LUNITS
 70
     2
  9
$LUPREC
 70
     2
  9
$SKETCHINC
 40
1.0
  9
$FILLETRAD
 40
10.0
  9
$AUNITS
 70
     0
  9
$AUPREC
 70
     2
  9
$MENU
  1
.
  9
$ELEVATION
 40
0.0
  9
$PELEVATION
 40
0.0
  9
$THICKNESS
 40
0.0
  9
$LIMCHECK
 70
     0
  9
$CHAMFERA
 40
10.0
  9
$CHAMFERB
 40
10.0
  9
$CHAMFERC
 40
20.0
  9
$CHAMFERD
 40
0.0
  9
$SKPOLY
 70
     0
  9
$TDCREATE
 40
2455679.497206725
  9
$TDUCREATE
 40
2455679.413873391
  9
$TDUPDATE
 40
2455679.497206736
  9
$TDUUPDATE
 40
2455679.413873403
  9
$TDINDWG
 40
0.0000000116
  9
$TDUSRTIMER
 40
0.0000000116
  9
$USRTIMER
 70
     1
  9
$ANGBASE
 50
0.0
  9
$ANGDIR
 70
     0
  9
$PDMODE
 70
     0
  9
$PDSIZE
 40
-1.0
  9
$PLINEWID
 40
0.0
  9
$SPLFRAME
 70
     0
  9
$SPLINETYPE
 70
     6
  9
$SPLINESEGS
 70
     8
  9
$HANDSEED
  5
222
  9
$SURFTAB1
 70
     6
  9
$SURFTAB2
 70
     6
  9
$SURFTYPE
 70
     6
  9
$SURFU
 70
     6
  9
$SURFV
 70
     6
  9
$UCSBASE
  2

  9
$UCSNAME
  2

  9
$UCSORG
 10
0.0
 20
0.0
 30
0.0
  9
$UCSXDIR
 10
1.0
 20
0.0
 30
0.0
  9
$UCSYDIR
 10
0.0
 20
1.0
 30
0.0
  9
$UCSORTHOREF
  2

  9
$UCSORTHOVIEW
 70
     0
  9
$UCSORGTOP
 10
0.0
 20
0.0
 30
0.0
  9
$UCSORGBOTTOM
 10
0.0
 20
0.0
 30
0.0
  9
$UCSORGLEFT
 10
0.0
 20
0.0
 30
0.0
  9
$UCSORGRIGHT
 10
0.0
 20
0.0
 30
0.0
  9
$UCSORGFRONT
 10
0.0
 20
0.0
 30
0.0
  9
$UCSORGBACK
 10
0.0
 20
0.0
 30
0.0
  9
$PUCSBASE
  2

  9
$PUCSNAME
  2

  9
$PUCSORG
 10
0.0
 20
0.0
 30
0.0
  9
$PUCSXDIR
 10
1.0
 20
0.0
 30
0.0
  9
$PUCSYDIR
 10
0.0
 20
1.0
 30
0.0
  9
$PUCSORTHOREF
  2

  9
$PUCSORTHOVIEW
 70
     0
  9
$PUCSORGTOP
 10
0.0
 20
0.0
 30
0.0
  9
$PUCSORGBOTTOM
 10
0.0
 20
0.0
 30
0.0
  9
$PUCSORGLEFT
 10
0.0
 20
0.0
 30
0.0
  9
$PUCSORGRIGHT
 10
0.0
 20
0.0
 30
0.0
  9
$PUCSORGFRONT
 10
0.0
 20
0.0
 30
0.0
  9
$PUCSORGBACK
 10
0.0
 20
0.0
 30
0.0
  9
$USERI1
 70
     0
  9
$USERI2
 70
     0
  9
$USERI3
 70
     0
  9
$USERI4
 70
     0
  9
$USERI5
 70
     0
  9
$USERR1
 40
0.0
  9
$USERR2
 40
0.0
  9
$USERR3
 40
0.0
  9
$USERR4
 40
0.0
  9
$USERR5
 40
0.0
  9
$WORLDVIEW
 70
     1
  9
$SHADEDGE
 70
     3
  9
$SHADEDIF
 70
    70
  9
$TILEMODE
 70
     1
  9
$MAXACTVP
 70
    64
  9
$PINSBASE
 10
0.0
 20
0.0
 30
0.0
  9
$PLIMCHECK
 70
     0
  9
$PEXTMIN
 10
1.0000000000E+20
 20
1.0000000000E+20
 30
1.0000000000E+20
  9
$PEXTMAX
 10
-1.0000000000E+20
 20
-1.0000000000E+20
 30
-1.0000000000E+20
  9
$PLIMMIN
 10
0.0
 20
0.0
  9
$PLIMMAX
 10
420.0
 20
297.0
  9
$UNITMODE
 70
     0
  9
$VISRETAIN
 70
     1
  9
$PLINEGEN
 70
     0
  9
$PSLTSCALE
 70
     1
  9
$TREEDEPTH
 70
  3020
  9
$CMLSTYLE
  2
Standard
  9
$CMLJUST
 70
     0
  9
$CMLSCALE
 40
20.0
  9
$PROXYGRAPHICS
 70
     1
  9
$MEASUREMENT
 70
     1
  9
$CELWEIGHT
370
    -1
  9
$ENDCAPS
280
     0
  9
$JOINSTYLE
280
     0
  9
$LWDISPLAY
290
     1
  9
$INSUNITS
 70
     4
  9
$HYPERLINKBASE
  1

  9
$STYLESHEET
  1

  9
$XEDIT
290
     1
  9
$CEPSNTYPE
380
     0
  9
$PSTYLEMODE
290
     1
  9
$FINGERPRINTGUID
  2
{81E42201-8DC6-4224-81E2-6D9ABC16A8D1}
  9
$VERSIONGUID
  2
{FAEB1C32-E019-11D5-929B-00C0DF256EC4}
  9
$EXTNAMES
290
     1
  9
$PSVPSCALE
 40
0.0
  9
$OLESTARTUP
290
     0
  0
ENDSEC
  0
SECTION
  2
CLASSES
  0
CLASS
  1
ACDBDICTIONARYWDFLT
  2
AcDbDictionaryWithDefault
  3
ObjectDBX Classes
 90
        0
280
     0
281
     0
  0
CLASS
  1
VISUALSTYLE
  2
AcDbVisualStyle
  3
ObjectDBX Classes
 90
     4095
280
     0
281
     0
  0
CLASS
  1
DICTIONARYVAR
  2
AcDbDictionaryVar
  3
ObjectDBX Classes
 90
        0
280
     0
281
     0
  0
CLASS
  1
ACDBPLACEHOLDER
  2
AcDbPlaceHolder
  3
ObjectDBX Classes
 90
        0
280
     0
281
     0
  0
CLASS
  1
LAYOUT
  2
AcDbLayout
  3
ObjectDBX Classes
 90
        0
280
     0
281
     0
  0
ENDSEC
  0
SECTION
  2
TABLES
  0
TABLE
  2
VPORT
  5
8
330
0
100
AcDbSymbolTable
 70
     1
  0
VPORT
  5
29
330
8
100
AcDbSymbolTableRecord
100
AcDbViewportTableRecord
  2
*Active
 70
     0
 10
0.0
 20
0.0
 11
1.0
 21
1.0
 12
148.5
 22
105.0
 13
0.0
 23
0.0
 14
10.0
 24
10.0
 15
10.0
 25
10.0
 16
0.0
 26
0.0
 36
1.0
 17
0.0
 27
0.0
 37
0.0
 40
210.0
 41
1.4142857143
 42
50.0
 43
0.0
 44
0.0
 50
0.0
 51
0.0
 71
     0
 72
  2000
 73
     1
 74
     3
 75
     0
 76
     0
 77
     0
 78
     0
281
     0
 65
     1
110
0.0
120
0.0
130
0.0
111
1.0
121
0.0
131
0.0
112
0.0
122
1.0
132
0.0
 79
     0
146
0.0
  0
ENDTAB
  0
TABLE
  2
LTYPE
  5
5
330
0
100
AcDbSymbolTable
 70
     6
  0
LTYPE
  5
14
330
5
100
AcDbSymbolTableRecord
100
AcDbLinetypeTableRecord
  2
ByBlock
 70
     0
  3

 72
    65
 73
     0
 40
0.0
  0
LTYPE
  5
15
330
5
100
AcDbSymbolTableRecord
100
AcDbLinetypeTableRecord
  2
ByLayer
 70
     0
  3

 72
    65
 73
     0
 40
0.0
  0
LTYPE
  5
16
330
5
100
AcDbSymbolTableRecord
100
AcDbLinetypeTableRecord
  2
Continuous
 70
     0
  3
Solid line
 72
    65
 73
     0
 40
0.0
  0
LTYPE
  5
3B
330
5
100
AcDbSymbolTableRecord
100
AcDbLinetypeTableRecord
  2
HIDDEN
 70
     0
  3
Hidden __ __ __ __ __ __ __ __ __ __ __ __ __ __
 72
    65
 73
     2
 40
1.905
 49
1.27
 74
     0
 49
-0.635
 74
     0
  0
LTYPE
  5
3C
330
5
100
AcDbSymbolTableRecord
100
AcDbLinetypeTableRecord
  2
PHANTOM
 70
     0
  3
Phantom ______  __  __  ______  __  __  ______
 72
    65
 73
     6
 40
12.7
 49
6.35
 74
     0
 49
-1.27
 74
     0
 49
1.27
 74
     0
 49
-1.27
 74
     0
 49
1.27
 74
     0
 49
-1.27
 74
     0
  0
LTYPE
  5
3D
330
5
100
AcDbSymbolTableRecord
100
AcDbLinetypeTableRecord
  2
CENTER
 70
     0
  3
Center ____ _ ____ _ ____ _ ____ _ ____ _ ____
 72
    65
 73
     4
 40
10.16
 49
6.35
 74
     0
 49
-1.27
 74
     0
 49
1.27
 74
     0
 49
-1.27
 74
     0
  0
LTYPE
  5
3E
330
5
100
AcDbSymbolTableRecord
100
AcDbLinetypeTableRecord
  2
CENTERX2
 70
     0
  3
Center (2x) ________  __  ________  __  _____
 72
    65
 73
     4
 40
20.32
 49
12.7
 74
     0
 49
-2.54
 74
     0
 49
2.54
 74
     0
 49
-2.54
 74
     0
  0
LTYPE
  5
3F
330
5
100
AcDbSymbolTableRecord
100
AcDbLinetypeTableRecord
  2
DOT2
 70
     0
  3
Dot (.5x) ........................................
 72
    65
 73
     2
 40
0.635
 49
0.0
 74
     0
 49
-0.635
 74
     0
  0
ENDTAB
  0
TABLE
  2
LAYER
  5
2
330
0
100
AcDbSymbolTable
 70
     5
  0
LAYER
  5
10
330
2
100
AcDbSymbolTableRecord
100
AcDbLayerTableRecord
  2
0
 70
     0
 62
     7
  6
Continuous
370
    -3
390
F
  0
LAYER
  5
40
330
2
100
AcDbSymbolTableRecord
100
AcDbLayerTableRecord
  2
FORMAT
 70
     0
 62
     7
  6
Continuous
370
    -3
390
F
  0
LAYER
  5
41
330
2
100
AcDbSymbolTableRecord
100
AcDbLayerTableRecord
  2
VERMASSUNG
 70
     0
 62
     7
  6
Continuous
370
    -3
390
F
  0
LAYER
  5
42
330
2
100
AcDbSymbolTableRecord
100
AcDbLayerTableRecord
  2
KOPF_DÜNN
 70
     0
 62
     7
  6
Continuous
370
    -3
390
F
  0
LAYER
  5
43
330
2
100
AcDbSymbolTableRecord
100
AcDbLayerTableRecord
  2
KOPF_DICK
 70
     0
 62
     7
  6
Continuous
370
    15
390
F
  0
ENDTAB
  0
TABLE
  2
STYLE
  5
3
330
0
100
AcDbSymbolTable
 70
     3
  0
STYLE
  5
11
330
3
100
AcDbSymbolTableRecord
100
AcDbTextStyleTableRecord
  2
Standard
 70
     0
 40
0.0
 41
1.0
 50
0.0
 71
     0
 42
2.5
  3
txt
  4

  0
STYLE
  5
44
330
3
100
AcDbSymbolTableRecord
100
AcDbTextStyleTableRecord
  2
SLDTEXTSTYLE0
 70
     0
 40
0.0
 41
0.7
 50
0.0
 71
     0
 42
0.2
  3
TXT
  4

  0
STYLE
  5
48
330
3
100
AcDbSymbolTableRecord
100
AcDbTextStyleTableRecord
  2
SLDTEXTSTYLE1
 70
     0
 40
0.0
 41
0.6473684211
 50
0.0
 71
     0
 42
0.2
  3
TXT
  4

  0
ENDTAB
  0
TABLE
  2
VIEW
  5
6
330
0
100
AcDbSymbolTable
 70
     0
  0
ENDTAB
  0
TABLE
  2
UCS
  5
7
330
0
100
AcDbSymbolTable
 70
     0
  0
ENDTAB
  0
TABLE
  2
APPID
  5
9
330
0
100
AcDbSymbolTable
 70
     1
  0
APPID
  5
12
330
9
100
AcDbSymbolTableRecord
100
AcDbRegAppTableRecord
  2
ACAD
 70
     0
  0
ENDTAB
  0
TABLE
  2
DIMSTYLE
  5
A
330
0
100
AcDbSymbolTable
 70
     3
100
AcDbDimStyleTable
  0
DIMSTYLE
105
27
330
A
100
AcDbSymbolTableRecord
100
AcDbDimStyleTableRecord
  2
ISO-25
 70
     0
 41
2.5
 42
0.625
 43
3.75
 44
1.25
 73
     0
 74
     0
 77
     1
 78
     8
140
2.5
141
2.5
143
0.0393700787
147
0.625
171
     3
172
     1
271
     2
272
     2
274
     3
278
    44
283
     0
284
     8
340
11
  0
DIMSTYLE
105
1C5
102
{ACAD_REACTORS
330
1C4
330
1F3
330
1FD
330
207
330
211
102
}
330
A
100
AcDbSymbolTableRecord
100
AcDbDimStyleTableRecord
  2
SLDDIMSTYLE0
 70
     0
 41
3.0
 44
0.0
 45
0.000000001
 73
     0
 74
     0
 77
     1
 78
    12
140
2.0
147
0.5
173
     1
271
     2
272
     3
284
    12
340
44
  0
DIMSTYLE
105
1D2
102
{ACAD_REACTORS
330
1D1
330
1DD
330
1E8
102
}
330
A
100
AcDbSymbolTableRecord
100
AcDbDimStyleTableRecord
  2
SLDDIMSTYLE1
 70
     0
 41
3.0
 44
0.0
 45
0.000000001
 73
     0
 74
     0
 77
     1
 78
    12
140
2.0
147
0.5
173
     1
271
     2
272
     3
284
    12
340
44
  0
ENDTAB
  0
TABLE
  2
BLOCK_RECORD
  5
1
330
0
100
AcDbSymbolTable
 70
     9
  0
BLOCK_RECORD
  5
1F
330
1
100
AcDbSymbolTableRecord
100
AcDbBlockTableRecord
  2
*Model_Space
340
22
  0
BLOCK_RECORD
  5
1B
330
1
100
AcDbSymbolTableRecord
100
AcDbBlockTableRecord
  2
*Paper_Space
340
1E
  0
BLOCK_RECORD
  5
23
330
1
100
AcDbSymbolTableRecord
100
AcDbBlockTableRecord
  2
*Paper_Space0
340
26
  0
BLOCK_RECORD
  5
1C6
330
1
100
AcDbSymbolTableRecord
100
AcDbBlockTableRecord
  2
*D1
340
0
  0
BLOCK_RECORD
  5
1D3
330
1
100
AcDbSymbolTableRecord
100
AcDbBlockTableRecord
  2
*D2
340
0
  0
BLOCK_RECORD
  5
1DE
330
1
100
AcDbSymbolTableRecord
100
AcDbBlockTableRecord
  2
*D3
340
0
  0
BLOCK_RECORD
  5
1E9
330
1
100
AcDbSymbolTableRecord
100
AcDbBlockTableRecord
  2
*D4
340
0
  0
BLOCK_RECORD
  5
1F4
330
1
100
AcDbSymbolTableRecord
100
AcDbBlockTableRecord
  2
*D5
340
0
  0
BLOCK_RECORD
  5
1FE
330
1
100
AcDbSymbolTableRecord
100
AcDbBlockTableRecord
  2
*D6
340
0
  0
BLOCK_RECORD
  5
208
330
1
100
AcDbSymbolTableRecord
100
AcDbBlockTableRecord
  2
*D7
340
0
  0
BLOCK_RECORD
  5
212
330
1
100
AcDbSymbolTableRecord
100
AcDbBlockTableRecord
  2
*D8
340
0
  0
ENDTAB
  0
ENDSEC
  0
SECTION
  2
BLOCKS
  0
BLOCK
  5
20
330
1F
100
AcDbEntity
  8
0
100
AcDbBlockBegin
  2
*Model_Space
 70
     0
 10
0.0
 20
0.0
 30
0.0
  3
*Model_Space
  1

  0
ENDBLK
  5
21
330
1F
100
AcDbEntity
  8
0
100
AcDbBlockEnd
  0
BLOCK
  5
1C
330
1B
100
AcDbEntity
 67
     1
  8
0
100
AcDbBlockBegin
  2
*Paper_Space
 70
     0
 10
0.0
 20
0.0
 30
0.0
  3
*Paper_Space
  1

  0
ENDBLK
  5
1D
330
1B
100
AcDbEntity
 67
     1
  8
0
100
AcDbBlockEnd
  0
BLOCK
  5
24
330
23
100
AcDbEntity
  8
0
100
AcDbBlockBegin
  2
*Paper_Space0
 70
     0
 10
0.0
 20
0.0
 30
0.0
  3
*Paper_Space0
  1

  0
ENDBLK
  5
25
330
23
100
AcDbEntity
  8
0
100
AcDbBlockEnd
  0
BLOCK
  5
1C7
330
1C6
100
AcDbEntity
  8
0
100
AcDbBlockBegin
  2
*D1
 70
     1
 10
0.0
 20
0.0
 30
0.0
  3
*D1
  1

  0
SOLID
  5
1C9
330
1C6
100
AcDbEntity
  8
VERMASSUNG
100
AcDbTrace
 10
58.4570964247
 20
136.6160346696
 30
0.0
 11
58.0070964247
 21
133.6160346696
 31
0.0
 12
58.9070964247
 22
133.6160346696
 32
0.0
 13
58.9070964247
 23
133.6160346696
 33
0.0
  0
SOLID
  5
1CA
330
1C6
100
AcDbEntity
  8
VERMASSUNG
100
AcDbTrace
 10
58.4570964247
 20
73.6160346696
 30
0.0
 11
58.9070964247
 21
76.6160346696
 31
0.0
 12
58.0070964247
 22
76.6160346696
 32
0.0
 13
58.0070964247
 23
76.6160346696
 33
0.0
  0
LINE
  5
1CB
330
1C6
100
AcDbEntity
  8
VERMASSUNG
100
AcDbLine
 10
97.2149443308
 20
136.6160346696
 30
0.0
 11
57.4570964247
 21
136.6160346696
 31
0.0
  0
LINE
  5
1CC
330
1C6
100
AcDbEntity
  8
VERMASSUNG
100
AcDbLine
 10
97.2149443308
 20
73.6160346696
 30
0.0
 11
57.4570964247
 21
73.6160346696
 31
0.0
  0
LINE
  5
1CD
330
1C6
100
AcDbEntity
  8
VERMASSUNG
100
AcDbLine
 10
58.4570964247
 20
136.6160346696
 30
0.0
 11
58.4570964247
 21
73.6160346696
 31
0.0
  0
MTEXT
  5
1CE
330
1C6
100
AcDbEntity
  8
VERMASSUNG
100
AcDbMText
 10
55.6789609357
 20
97.4124929577
 30
0.0
 40
2.0
 41
0.0
 71
     1
 72
     1
  1
HSK A 
  7
SLDTEXTSTYLE0
 11
-7.044195017643634E-15
 21
1.0
 31
0.0
 73
     1
 44
1.0
  0
MTEXT
  5
1CF
330
1C6
100
AcDbEntity
  8
VERMASSUNG
100
AcDbMText
 10
55.8789609452
 20
106.4124935016
 30
0.0
 40
2.0
 41
0.0
 71
     1
 72
     1
  1
%%c
  7
SLDTEXTSTYLE0
 11
-7.044195017643634E-15
 21
1.0
 31
0.0
 73
     1
 44
1.0
  0
MTEXT
  5
1D0
330
1C6
100
AcDbEntity
  8
VERMASSUNG
100
AcDbMText
 10
55.8789610616
 20
110.0208201517
 30
0.0
 40
2.0
 41
0.0
 71
     1
 72
     1
  1
63
  7
SLDTEXTSTYLE0
 11
-7.044195017643634E-15
 21
1.0
 31
0.0
 73
     1
 44
1.0
  0
ENDBLK
  5
1C8
330
1C6
100
AcDbEntity
  8
0
100
AcDbBlockEnd
  0
BLOCK
  5
1D4
330
1D3
100
AcDbEntity
  8
0
100
AcDbBlockBegin
  2
*D2
 70
     1
 10
0.0
 20
0.0
 30
0.0
  3
*D2
  1

  0
SOLID
  5
1D6
330
1D3
100
AcDbEntity
  8
VERMASSUNG
100
AcDbTrace
 10
243.0248340511
 20
94.6160346696
 30
0.0
 11
243.4748340511
 21
97.6160346696
 31
0.0
 12
242.5748340511
 22
97.6160346696
 32
0.0
 13
242.5748340511
 23
97.6160346696
 33
0.0
  0
SOLID
  5
1D7
330
1D3
100
AcDbEntity
  8
VERMASSUNG
100
AcDbTrace
 10
243.0248340511
 20
115.6160346696
 30
0.0
 11
242.5748340511
 21
112.6160346696
 31
0.0
 12
243.4748340511
 22
112.6160346696
 32
0.0
 13
243.4748340511
 23
112.6160346696
 33
0.0
  0
LINE
  5
1D8
330
1D3
100
AcDbEntity
  8
VERMASSUNG
100
AcDbLine
 10
226.9149443308
 20
94.6160346696
 30
0.0
 11
244.0248340511
 21
94.6160346696
 31
0.0
  0
LINE
  5
1D9
330
1D3
100
AcDbEntity
  8
VERMASSUNG
100
AcDbLine
 10
226.9149443308
 20
115.6160346696
 30
0.0
 11
244.0248340511
 21
115.6160346696
 31
0.0
  0
LINE
  5
1DA
330
1D3
100
AcDbEntity
  8
VERMASSUNG
100
AcDbLine
 10
243.0248340511
 20
94.6160346696
 30
0.0
 11
243.0248340511
 21
115.6160346696
 31
0.0
  0
MTEXT
  5
1DB
330
1D3
100
AcDbEntity
  8
VERMASSUNG
100
AcDbMText
 10
240.4466985716
 20
102.1118970748
 30
0.0
 40
2.0
 41
0.0
 71
     1
 72
     1
  1
%%c
  7
SLDTEXTSTYLE0
 11
3.391901413832837E-15
 21
1.0
 31
0.0
 73
     1
 44
1.0
  0
MTEXT
  5
1DC
330
1D3
100
AcDbEntity
  8
VERMASSUNG
100
AcDbMText
 10
240.446698688
 20
105.7205752979
 30
0.0
 40
2.0
 41
0.0
 71
     1
 72
     1
  1
21
  7
SLDTEXTSTYLE0
 11
3.391901413832837E-15
 21
1.0
 31
0.0
 73
     1
 44
1.0
  0
ENDBLK
  5
1D5
330
1D3
100
AcDbEntity
  8
0
100
AcDbBlockEnd
  0
BLOCK
  5
1DF
330
1DE
100
AcDbEntity
  8
0
100
AcDbBlockBegin
  2
*D3
 70
     1
 10
0.0
 20
0.0
 30
0.0
  3
*D3
  1

  0
SOLID
  5
1E1
330
1DE
100
AcDbEntity
  8
VERMASSUNG
100
AcDbTrace
 10
249.0248340511
 20
91.6160346696
 30
0.0
 11
249.4748340511
 21
94.6160346696
 31
0.0
 12
248.5748340511
 22
94.6160346696
 32
0.0
 13
248.5748340511
 23
94.6160346696
 33
0.0
  0
SOLID
  5
1E2
330
1DE
100
AcDbEntity
  8
VERMASSUNG
100
AcDbTrace
 10
249.0248340511
 20
118.6160346696
 30
0.0
 11
248.5748340511
 21
115.6160346696
 31
0.0
 12
249.4748340511
 22
115.6160346696
 32
0.0
 13
249.4748340511
 23
115.6160346696
 33
0.0
  0
LINE
  5
1E3
330
1DE
100
AcDbEntity
  8
VERMASSUNG
100
AcDbLine
 10
162.5420686752
 20
91.6160346696
 30
0.0
 11
250.0248340511
 21
91.6160346696
 31
0.0
  0
LINE
  5
1E4
330
1DE
100
AcDbEntity
  8
VERMASSUNG
100
AcDbLine
 10
162.5420686752
 20
118.6160346696
 30
0.0
 11
250.0248340511
 21
118.6160346696
 31
0.0
  0
LINE
  5
1E5
330
1DE
100
AcDbEntity
  8
VERMASSUNG
100
AcDbLine
 10
249.0248340511
 20
91.6160346696
 30
0.0
 11
249.0248340511
 21
118.6160346696
 31
0.0
  0
MTEXT
  5
1E6
330
1DE
100
AcDbEntity
  8
VERMASSUNG
100
AcDbMText
 10
246.4466985716
 20
101.9123174431
 30
0.0
 40
2.0
 41
0.0
 71
     1
 72
     1
  1
%%c
  7
SLDTEXTSTYLE0
 11
3.391901413832837E-15
 21
1.0
 31
0.0
 73
     1
 44
1.0
  0
MTEXT
  5
1E7
330
1DE
100
AcDbEntity
  8
VERMASSUNG
100
AcDbMText
 10
246.446698688
 20
105.5209956663
 30
0.0
 40
2.0
 41
0.0
 71
     1
 72
     1
  1
27
  7
SLDTEXTSTYLE0
 11
3.391901413832837E-15
 21
1.0
 31
0.0
 73
     1
 44
1.0
  0
ENDBLK
  5
1E0
330
1DE
100
AcDbEntity
  8
0
100
AcDbBlockEnd
  0
BLOCK
  5
1EA
330
1E9
100
AcDbEntity
  8
0
100
AcDbBlockBegin
  2
*D4
 70
     1
 10
0.0
 20
0.0
 30
0.0
  3
*D4
  1

  0
SOLID
  5
1EC
330
1E9
100
AcDbEntity
  8
VERMASSUNG
100
AcDbTrace
 10
237.0248340511
 20
101.1160346696
 30
0.0
 11
237.4748340511
 21
104.1160346696
 31
0.0
 12
236.5748340511
 22
104.1160346696
 32
0.0
 13
236.5748340511
 23
104.1160346696
 33
0.0
  0
SOLID
  5
1ED
330
1E9
100
AcDbEntity
  8
VERMASSUNG
100
AcDbTrace
 10
237.0248340511
 20
109.1160346696
 30
0.0
 11
236.5748340511
 21
106.1160346696
 31
0.0
 12
237.4748340511
 22
106.1160346696
 32
0.0
 13
237.4748340511
 23
106.1160346696
 33
0.0
  0
LINE
  5
1EE
330
1E9
100
AcDbEntity
  8
VERMASSUNG
100
AcDbLine
 10
223.4149443308
 20
101.1160346696
 30
0.0
 11
238.0248340511
 21
101.1160346696
 31
0.0
  0
LINE
  5
1EF
330
1E9
100
AcDbEntity
  8
VERMASSUNG
100
AcDbLine
 10
223.4149443308
 20
109.1160346696
 30
0.0
 11
238.0248340511
 21
109.1160346696
 31
0.0
  0
LINE
  5
1F0
330
1E9
100
AcDbEntity
  8
VERMASSUNG
100
AcDbLine
 10
237.0248340511
 20
101.1160346696
 30
0.0
 11
237.0248340511
 21
109.1160346696
 31
0.0
  0
MTEXT
  5
1F1
330
1E9
100
AcDbEntity
  8
VERMASSUNG
100
AcDbMText
 10
234.4466985716
 20
102.6120065005
 30
0.0
 40
2.0
 41
0.0
 71
     1
 72
     1
  1
%%c
  7
SLDTEXTSTYLE0
 11
3.391901413832837E-15
 21
1.0
 31
0.0
 73
     1
 44
1.0
  0
MTEXT
  5
1F2
330
1E9
100
AcDbEntity
  8
VERMASSUNG
100
AcDbMText
 10
234.446698688
 20
106.2206847237
 30
0.0
 40
2.0
 41
0.0
 71
     1
 72
     1
  1
8
  7
SLDTEXTSTYLE0
 11
3.391901413832837E-15
 21
1.0
 31
0.0
 73
     1
 44
1.0
  0
ENDBLK
  5
1EB
330
1E9
100
AcDbEntity
  8
0
100
AcDbBlockEnd
  0
BLOCK
  5
1F5
330
1F4
100
AcDbEntity
  8
0
100
AcDbBlockBegin
  2
*D5
 70
     1
 10
0.0
 20
0.0
 30
0.0
  3
*D5
  1

  0
SOLID
  5
1F7
330
1F4
100
AcDbEntity
  8
VERMASSUNG
100
AcDbTrace
 10
96.9149443308
 20
149.4750812568
 30
0.0
 11
99.9149443308
 21
149.0250812568
 31
0.0
 12
99.9149443308
 22
149.9250812568
 32
0.0
 13
99.9149443308
 23
149.9250812568
 33
0.0
  0
SOLID
  5
1F8
330
1F4
100
AcDbEntity
  8
VERMASSUNG
100
AcDbTrace
 10
226.9149443308
 20
149.4750812568
 30
0.0
 11
223.9149443308
 21
149.9250812568
 31
0.0
 12
223.9149443308
 22
149.0250812568
 32
0.0
 13
223.9149443308
 23
149.0250812568
 33
0.0
  0
LINE
  5
1F9
330
1F4
100
AcDbEntity
  8
VERMASSUNG
100
AcDbLine
 10
96.9149443308
 20
105.1160346696
 30
0.0
 11
96.9149443308
 21
150.4750812568
 31
0.0
  0
LINE
  5
1FA
330
1F4
100
AcDbEntity
  8
VERMASSUNG
100
AcDbLine
 10
226.9149443308
 20
105.1160346696
 30
0.0
 11
226.9149443308
 21
150.4750812568
 31
0.0
  0
LINE
  5
1FB
330
1F4
100
AcDbEntity
  8
VERMASSUNG
100
AcDbLine
 10
96.9149443308
 20
149.4750812568
 30
0.0
 11
226.9149443308
 21
149.4750812568
 31
0.0
  0
MTEXT
  5
1FC
330
1F4
100
AcDbEntity
  8
VERMASSUNG
100
AcDbMText
 10
160.0154567901
 20
152.0532166199
 30
0.0
 40
2.0
 41
0.0
 71
     1
 72
     1
  1
130
  7
SLDTEXTSTYLE0
 73
     1
 44
1.0
  0
ENDBLK
  5
1F6
330
1F4
100
AcDbEntity
  8
0
100
AcDbBlockEnd
  0
BLOCK
  5
1FF
330
1FE
100
AcDbEntity
  8
0
100
AcDbBlockBegin
  2
*D6
 70
     1
 10
0.0
 20
0.0
 30
0.0
  3
*D6
  1

  0
SOLID
  5
201
330
1FE
100
AcDbEntity
  8
VERMASSUNG
100
AcDbTrace
 10
190.4149443308
 20
137.4750812568
 30
0.0
 11
193.4149443308
 21
137.0250812568
 31
0.0
 12
193.4149443308
 22
137.9250812568
 32
0.0
 13
193.4149443308
 23
137.9250812568
 33
0.0
  0
SOLID
  5
202
330
1FE
100
AcDbEntity
  8
VERMASSUNG
100
AcDbTrace
 10
226.9149443308
 20
137.4750812568
 30
0.0
 11
223.9149443308
 21
137.9250812568
 31
0.0
 12
223.9149443308
 22
137.0250812568
 32
0.0
 13
223.9149443308
 23
137.0250812568
 33
0.0
  0
LINE
  5
203
330
1FE
100
AcDbEntity
  8
VERMASSUNG
100
AcDbLine
 10
190.4149443308
 20
109.0160346696
 30
0.0
 11
190.4149443308
 21
138.4750812568
 31
0.0
  0
LINE
  5
204
330
1FE
100
AcDbEntity
  8
VERMASSUNG
100
AcDbLine
 10
226.9149443308
 20
113.7672536862
 30
0.0
 11
226.9149443308
 21
138.4750812568
 31
0.0
  0
LINE
  5
205
330
1FE
100
AcDbEntity
  8
VERMASSUNG
100
AcDbLine
 10
190.4149443308
 20
137.4750812568
 30
0.0
 11
226.9149443308
 21
137.4750812568
 31
0.0
  0
MTEXT
  5
206
330
1FE
100
AcDbEntity
  8
VERMASSUNG
100
AcDbMText
 10
206.2653473644
 20
140.0532166199
 30
0.0
 40
2.0
 41
0.0
 71
     1
 72
     1
  1
36.5
  7
SLDTEXTSTYLE0
 73
     1
 44
1.0
  0
ENDBLK
  5
200
330
1FE
100
AcDbEntity
  8
0
100
AcDbBlockEnd
  0
BLOCK
  5
209
330
208
100
AcDbEntity
  8
0
100
AcDbBlockBegin
  2
*D7
 70
     1
 10
0.0
 20
0.0
 30
0.0
  3
*D7
  1

  0
SOLID
  5
20B
330
208
100
AcDbEntity
  8
VERMASSUNG
100
AcDbTrace
 10
122.8649443308
 20
143.4750812568
 30
0.0
 11
125.8649443308
 21
143.0250812568
 31
0.0
 12
125.8649443308
 22
143.9250812568
 32
0.0
 13
125.8649443308
 23
143.9250812568
 33
0.0
  0
SOLID
  5
20C
330
208
100
AcDbEntity
  8
VERMASSUNG
100
AcDbTrace
 10
226.9149443308
 20
143.4750812568
 30
0.0
 11
223.9149443308
 21
143.9250812568
 31
0.0
 12
223.9149443308
 22
143.0250812568
 32
0.0
 13
223.9149443308
 23
143.0250812568
 33
0.0
  0
LINE
  5
20D
330
208
100
AcDbEntity
  8
VERMASSUNG
100
AcDbLine
 10
122.8649443308
 20
134.9624749933
 30
0.0
 11
122.8649443308
 21
144.4750812568
 31
0.0
  0
LINE
  5
20E
330
208
100
AcDbEntity
  8
VERMASSUNG
100
AcDbLine
 10
226.9149443308
 20
113.7672536862
 30
0.0
 11
226.9149443308
 21
144.4750812568
 31
0.0
  0
LINE
  5
20F
330
208
100
AcDbEntity
  8
VERMASSUNG
100
AcDbLine
 10
122.8649443308
 20
143.4750812568
 30
0.0
 11
226.9149443308
 21
143.4750812568
 31
0.0
  0
MTEXT
  5
210
330
208
100
AcDbEntity
  8
VERMASSUNG
100
AcDbMText
 10
171.1907590653
 20
146.0532166199
 30
0.0
 40
2.0
 41
0.0
 71
     1
 72
     1
  1
104.05
  7
SLDTEXTSTYLE0
 73
     1
 44
1.0
  0
ENDBLK
  5
20A
330
208
100
AcDbEntity
  8
0
100
AcDbBlockEnd
  0
BLOCK
  5
213
330
212
100
AcDbEntity
  8
0
100
AcDbBlockBegin
  2
*D8
 70
     1
 10
0.0
 20
0.0
 30
0.0
  3
*D8
  1

  0
SOLID
  5
215
330
212
100
AcDbEntity
  8
VERMASSUNG
100
AcDbTrace
 10
65.0149443308
 20
155.4750812568
 30
0.0
 11
68.0149443308
 21
155.0250812568
 31
0.0
 12
68.0149443308
 22
155.9250812568
 32
0.0
 13
68.0149443308
 23
155.9250812568
 33
0.0
  0
SOLID
  5
216
330
212
100
AcDbEntity
  8
VERMASSUNG
100
AcDbTrace
 10
226.9149443308
 20
155.4750812568
 30
0.0
 11
223.9149443308
 21
155.9250812568
 31
0.0
 12
223.9149443308
 22
155.0250812568
 32
0.0
 13
223.9149443308
 23
155.0250812568
 33
0.0
  0
LINE
  5
217
330
212
100
AcDbEntity
  8
VERMASSUNG
100
AcDbLine
 10
65.0149443308
 20
124.806712416
 30
0.0
 11
65.0149443308
 21
156.4750812568
 31
0.0
  0
LINE
  5
218
330
212
100
AcDbEntity
  8
VERMASSUNG
100
AcDbLine
 10
226.9149443308
 20
113.7672536862
 30
0.0
 11
226.9149443308
 21
156.4750812568
 31
0.0
  0
LINE
  5
219
330
212
100
AcDbEntity
  8
VERMASSUNG
100
AcDbLine
 10
65.0149443308
 20
155.4750812568
 30
0.0
 11
226.9149443308
 21
155.4750812568
 31
0.0
  0
MTEXT
  5
21A
330
212
100
AcDbEntity
  8
VERMASSUNG
100
AcDbMText
 10
143.2659779169
 20
158.0532166199
 30
0.0
 40
2.0
 41
0.0
 71
     1
 72
     1
  1
161.9
  7
SLDTEXTSTYLE0
 73
     1
 44
1.0
  0
ENDBLK
  5
214
330
212
100
AcDbEntity
  8
0
100
AcDbBlockEnd
  0
ENDSEC
  0
SECTION
  2
ENTITIES
  0
MTEXT
  5
45
330
1F
100
AcDbEntity
  8
KOPF_DÜNN
100
AcDbMText
 10
13.8892156294
 20
23.8442973028
 30
0.0
 40
3.0
 41
0.0
 71
     1
 72
     1
  1
HA6.S08.K21.130
  7
SLDTEXTSTYLE0
 73
     1
 44
1.0
  0
MTEXT
  5
46
330
1F
100
AcDbEntity
  8
VERMASSUNG
100
AcDbMText
 10
13.9329988022
 20
28.8834360957
 30
0.0
 40
3.0
 41
0.0
 71
     1
 72
     1
  1
Schrumpffutter_Heat shrink chuck
  7
SLDTEXTSTYLE0
 73
     1
 44
1.0
  0
MTEXT
  5
47
330
1F
100
AcDbEntity
  8
VERMASSUNG
100
AcDbMText
 10
98.8601118557
 20
13.8365368179
 30
0.0
 40
2.0
 41
0.0
 71
     1
 72
     1
  1
Datum: 27.04.2011
  7
SLDTEXTSTYLE0
 73
     1
 44
1.0
  0
MTEXT
  5
49
330
1F
100
AcDbEntity
  8
VERMASSUNG
100
AcDbMText
 10
13.933048693
 20
18.0482802738
 30
0.0
 40
2.0
 41
0.0
 71
     1
 72
     1
  1
DIN 69 893 HSK A 63
  7
SLDTEXTSTYLE1
 73
     1
 44
1.0
  0
MTEXT
  5
4A
330
1F
100
AcDbEntity
  8
VERMASSUNG
100
AcDbMText
 10
13.9808475933
 20
13.9090973692
 30
0.0
 40
2.0
 41
0.0
 71
     1
 72
     1
  1
Gewicht: 1049g
  7
SLDTEXTSTYLE0
 73
     1
 44
1.0
  0
LINE
  5
4B
330
1F
100
AcDbEntity
  8
0
  6
Continuous
 62
     7
370
    15
100
AcDbLine
 10
97.2149443308
 20
73.6160346696
 30
0.0
 11
101.8649443308
 21
73.6160346696
 31
0.0
  0
LINE
  5
4C
330
1F
100
AcDbEntity
  8
0
  6
Continuous
 62
     7
370
    15
100
AcDbLine
 10
101.8742524176
 20
136.6160346696
 30
0.0
 11
97.2149443308
 21
136.6160346696
 31
0.0
  0
ARC
  5
4D
330
1F
100
AcDbEntity
  8
0
  6
Continuous
 62
     7
370
    15
100
AcDbCircle
 10
97.2149443308
 20
73.9160346696
 30
0.0
 40
0.3000000000000114
100
AcDbArc
 50
180.0
 51
270.0
  0
ARC
  5
4E
330
1F
100
AcDbEntity
  8
0
  6
Continuous
 62
     7
370
    15
100
AcDbCircle
 10
97.2149443308
 20
136.3160346696
 30
0.0
 40
0.3000000000000114
100
AcDbArc
 50
90.0
 51
180.0
  0
ARC
  5
4F
330
1F
100
AcDbEntity
  8
0
  6
Continuous
 62
     7
370
    15
100
AcDbCircle
 10
96.4149375781
 20
80.5506070752
 30
0.0
 40
0.6000067526677242
100
AcDbArc
 50
33.5571153394
 51
90.0
  0
ARC
  5
50
330
1F
100
AcDbEntity
  8
0
  6
Continuous
 62
     7
370
    15
100
AcDbCircle
 10
96.4149375781
 20
129.6814622639
 30
0.0
 40
0.6000067526677242
100
AcDbArc
 50
270.0
 51
326.4428846606
  0
LINE
  5
51
330
1F
100
AcDbEntity
  8
0
  6
Continuous
 62
     7
370
    15
100
AcDbLine
 10
94.8991919975
 20
80.8963930029
 30
0.0
 11
95.7716571042
 21
81.1301693236
 31
0.0
  0
LINE
  5
52
330
1F
100
AcDbEntity
  8
0
  6
Continuous
 62
     7
370
    15
100
AcDbLine
 10
95.7716571042
 20
129.1019000155
 30
0.0
 11
94.8991919975
 21
129.3356763362
 31
0.0
  0
LINE
  5
53
330
1F
100
AcDbEntity
  8
0
  6
Continuous
 62
     7
370
    15
100
AcDbLine
 10
83.6845191119
 20
128.7738189772
 30
0.0
 11
71.1149443308
 21
128.1440807617
 31
0.0
  0
LINE
  5
54
330
1F
100
AcDbEntity
  8
0
  6
Continuous
 62
     7
370
    15
100
AcDbLine
 10
94.8991919975
 20
129.3356763362
 30
0.0
 11
92.0963381207
 21
129.1952527953
 31
0.0
  0
LINE
  5
55
330
1F
100
AcDbEntity
  8
0
  6
Continuous
 62
     7
370
    15
100
AcDbLine
 10
92.0965595698
 20
81.0368054492
 30
0.0
 11
94.8991919975
 21
80.8963930029
 31
0.0
  0
LINE
  5
56
330
1F
100
AcDbEntity
  8
0
  6
Continuous
 62
     7
370
    15
100
AcDbLine
 10
75.1149443308
 20
81.8875877758
 30
0.0
 11
83.6852180585
 21
81.4582153445
 31
0.0
  0
ARC
  5
57
330
1F
100
AcDbEntity
  8
0
  6
Continuous
 62
     7
370
    15
100
AcDbCircle
 10
95.9269485312
 20
80.5506138279
 30
0.0
 40
0.6000000000000109
100
AcDbArc
 50
90.0
 51
105.0
  0
ARC
  5
58
330
1F
100
AcDbEntity
  8
0
  6
Continuous
 62
     7
370
    15
100
AcDbCircle
 10
95.9269485312
 20
129.6814555112
 30
0.0
 40
0.5999999999999971
100
AcDbArc
 50
255.0
 51
270.0
  0
LINE
  5
59
330
1F
100
AcDbEntity
  8
0
  6
Continuous
 62
     7
370
    15
100
AcDbLine
 10
95.9269485312
 20
81.1506138279
 30
0.0
 11
96.4149375781
 21
81.1506138279
 31
0.0
  0
LINE
  5
5A
330
1F
100
AcDbEntity
  8
0
  6
Continuous
 62
     7
370
    15
100
AcDbLine
 10
96.4149375781
 20
129.0814555112
 30
0.0
 11
95.9269485312
 21
129.0814555112
 31
0.0
  0
ARC
  5
5B
330
1F
100
AcDbEntity
  8
0
  6
Continuous
 62
     7
370
    15
100
AcDbCircle
 10
125.8649443308
 20
85.600075868
 30
0.0
 40
3.0
100
AcDbArc
 50
104.3250519401
 51
180.0
  0
ARC
  5
5C
330
1F
100
AcDbEntity
  8
0
  6
Continuous
 62
     7
370
    15
100
AcDbCircle
 10
125.8649443308
 20
124.6319934711
 30
0.0
 40
2.999999999999986
100
AcDbArc
 50
180.0
 51
255.6749480599
  0
ARC
  5
5D
330
1F
100
AcDbEntity
  8
0
  6
Continuous
 62
     7
370
    15
100
AcDbCircle
 10
149.8649443308
 20
-8.3839653304
 30
0.0
 40
100.0
100
AcDbArc
 50
90.0
 51
104.3250519401
  0
ARC
  5
5E
330
1F
100
AcDbEntity
  8
0
  6
Continuous
 62
     7
370
    15
100
AcDbCircle
 10
149.8649443308
 20
218.6160346696
 30
0.0
 40
100.0
100
AcDbArc
 50
255.6749480599
 51
270.0
  0
LINE
  5
5F
330
1F
100
AcDbEntity
  8
0
  6
Continuous
 62
     7
370
    15
100
AcDbLine
 10
188.7963301223
 20
91.6160346696
 30
0.0
 11
225.0718625222
 21
94.4709809854
 31
0.0
  0
LINE
  5
60
330
1F
100
AcDbEntity
  8
0
  6
Continuous
 62
     7
370
    15
100
AcDbLine
 10
225.0718625222
 20
115.7610883537
 30
0.0
 11
188.7963301223
 21
118.6160346696
 31
0.0
  0
LINE
  5
61
330
1F
100
AcDbEntity
  8
0
  6
Continuous
 62
     7
370
    15
100
AcDbLine
 10
162.3559068248
 20
91.6160346696
 30
0.0
 11
188.7963301223
 21
91.6160346696
 31
0.0
  0
LINE
  5
62
330
1F
100
AcDbEntity
  8
0
  6
Continuous
 62
     7
370
    15
100
AcDbLine
 10
149.8649443308
 20
91.6160346696
 30
0.0
 11
155.3750120755
 21
91.6160346696
 31
0.0
  0
LINE
  5
63
330
1F
100
AcDbEntity
  8
0
  6
Continuous
 62
     7
370
    15
100
AcDbLine
 10
155.3677089719
 20
118.6160346696
 30
0.0
 11
149.8649443308
 21
118.6160346696
 31
0.0
  0
LINE
  5
64
330
1F
100
AcDbEntity
  8
0
  6
Continuous
 62
     7
370
    15
100
AcDbLine
 10
188.7963301223
 20
118.6160346696
 30
0.0
 11
162.359926295
 21
118.6160346696
 31
0.0
  0
LINE
  5
65
330
1F
100
AcDbEntity
  8
0
  6
Continuous
 62
     7
370
    15
100
AcDbLine
 10
66.2982809708
 20
84.2460346696
 30
0.0
 11
73.7149443308
 21
84.2460346696
 31
0.0
  0
ARC
  5
66
330
1F
100
AcDbEntity
  8
0
  6
Continuous
 62
     7
370
    15
100
AcDbCircle
 10
224.9149443308
 20
96.4648156529
 30
0.0
 40
2.0
100
AcDbArc
 50
274.5
 51
0.0
  0
ARC
  5
67
330
1F
100
AcDbEntity
  8
0
  6
Continuous
 62
     7
370
    15
100
AcDbCircle
 10
224.9149443308
 20
113.7672536862
 30
0.0
 40
2.0
100
AcDbArc
 50
0.0
 51
85.5
  0
ARC
  5
68
330
1F
100
AcDbEntity
  8
0
  6
Continuous
 62
     7
370
    15
100
AcDbCircle
 10
73.7149443308
 20
82.8460346696
 30
0.0
 40
1.400000000000006
100
AcDbArc
 50
42.2465410162
 51
90.0
  0
LINE
  5
69
330
1F
100
AcDbEntity
  8
0
  6
Continuous
 62
     7
370
    15
100
AcDbLine
 10
65.0261047659
 20
85.3848742344
 30
0.0
 11
66.156107789
 21
84.2548712114
 31
0.0
  0
LINE
  5
6A
330
1F
100
AcDbEntity
  8
0
  6
Continuous
 62
     7
370
    15
100
AcDbLine
 10
66.156107789
 20
125.9771981277
 30
0.0
 11
65.0248451042
 21
124.8459354429
 31
0.0
  0
ARC
  5
6B
330
1F
100
AcDbEntity
  8
0
  6
Continuous
 62
     7
370
    15
100
AcDbCircle
 10
69.7149443308
 20
127.3860346696
 30
0.0
 40
1.399999999999996
100
AcDbArc
 50
270.0
 51
301.7485287426
  0
LINE
  5
6C
330
1F
100
AcDbEntity
  8
0
  6
Continuous
 62
     7
370
    15
100
AcDbLine
 10
69.7149443308
 20
125.9860346696
 30
0.0
 11
66.3058327322
 21
125.9860346696
 31
0.0
  0
LINE
  5
6D
330
1F
100
AcDbEntity
  8
0
  6
Continuous
 62
     7
370
    15
100
AcDbLine
 10
226.9149443308
 20
97.2516664092
 30
0.0
 11
226.9922665379
 21
97.3986317516
 31
0.0
  0
LINE
  5
6E
330
1F
100
AcDbEntity
  8
0
  6
Continuous
 62
     7
370
    15
100
AcDbLine
 10
226.9922665379
 20
112.8334375875
 30
0.0
 11
226.9149443308
 21
112.9804029299
 31
0.0
  0
SPLINE
  5
6F
330
1F
100
AcDbEntity
  8
0
  6
Continuous
 62
     7
370
    15
100
AcDbSpline
210
0.0
220
0.0
230
1.0
 70
     8
 71
     3
 72
    70
 73
    66
 74
     0
 42
0.00000001
 43
0.00000001
 40
-0.0312499999999998
 40
-0.0312499999999998
 40
0.0
 40
0.0
 40
0.0312500000000003
 40
0.0312500000000003
 40
0.0625000000000006
 40
0.0625000000000006
 40
0.0937500000000009
 40
0.0937500000000009
 40
0.1250000000000012
 40
0.1250000000000012
 40
0.1562500000000014
 40
0.1562500000000014
 40
0.1875000000000017
 40
0.1875000000000017
 40
0.2187500000000021
 40
0.2187500000000021
 40
0.2500000000000023
 40
0.2500000000000023
 40
0.2812500000000024
 40
0.2812500000000024
 40
0.3125000000000026
 40
0.3125000000000026
 40
0.3437500000000027
 40
0.3437500000000027
 40
0.3750000000000028
 40
0.3750000000000028
 40
0.4062500000000029
 40
0.4062500000000029
 40
0.4375000000000031
 40
0.4375000000000031
 40
0.4687500000000032
 40
0.4687500000000032
 40
0.5000000000000033
 40
0.5000000000000033
 40
0.5312500000000032
 40
0.5312500000000032
 40
0.562500000000003
 40
0.562500000000003
 40
0.5937500000000029
 40
0.5937500000000029
 40
0.6250000000000027
 40
0.6250000000000027
 40
0.6562500000000026
 40
0.6562500000000026
 40
0.6875000000000024
 40
0.6875000000000024
 40
0.7187500000000022
 40
0.7187500000000022
 40
0.7500000000000021
 40
0.7500000000000021
 40
0.7812500000000019
 40
0.7812500000000019
 40
0.8125000000000016
 40
0.8125000000000016
 40
0.8437500000000013
 40
0.8437500000000013
 40
0.875000000000001
 40
0.875000000000001
 40
0.9062500000000008
 40
0.9062500000000008
 40
0.9375000000000006
 40
0.9375000000000006
 40
0.9687500000000002
 40
0.9687500000000002
 40
1.0
 40
1.0
 40
1.03125
 40
1.03125
 10
104.6503989921171
 20
130.1749980643351
 30
0.0
 10
105.1794896694373
 20
130.1749980643351
 30
0.0
 10
105.4395603368145
 20
130.1908985047498
 30
0.0
 10
105.9511350166499
 20
130.2528428549241
 30
0.0
 10
106.2053103003901
 20
130.2996450890155
 30
0.0
 10
106.6895809304518
 20
130.4206220724705
 30
0.0
 10
106.9192220223329
 20
130.4942244002773
 30
0.0
 10
107.3538263705664
 20
130.6660486712555
 30
0.0
 10
107.559392147213
 20
130.7650520941829
 30
0.0
 10
107.9279492878083
 20
130.9781485080957
 30
0.0
 10
108.0934302705437
 20
131.0930482242254
 30
0.0
 10
108.3858547799788
 20
131.3384151229157
 30
0.0
 10
108.5099557566053
 20
131.466855023386
 30
0.0
 10
108.7095349533551
 20
131.7277471714719
 30
0.0
 10
108.7864685392133
 20
131.8621283428114
 30
0.0
 10
108.8893255977337
 20
132.1314482939177
 30
0.0
 10
108.9147985071928
 20
132.2641295581358
 30
0.0
 10
108.9150889177606
 20
132.5253160322669
 30
0.0
 10
108.8890642839849
 20
132.6550810704316
 30
0.0
 10
108.7869159994929
 20
132.9006637047042
 30
0.0
 10
108.7113395519097
 20
133.0173252420131
 30
0.0
 10
108.5108420207648
 20
133.2392304321677
 30
0.0
 10
108.3857131792564
 20
133.3438416860907
 30
0.0
 10
108.0963543782348
 20
133.5338880976988
 30
0.0
 10
107.9309433911793
 20
133.6206477691484
 30
0.0
 10
107.5579528330315
 20
133.7781521448999
 30
0.0
 10
107.3562197999424
 20
133.8464774096872
 30
0.0
 10
106.9233605491145
 20
133.9647071333064
 30
0.0
 10
106.6894420162252
 20
134.0150020494102
 30
0.0
 10
106.2052582810825
 20
134.0948675862999
 30
0.0
 10
105.955942655127
 20
134.1246087140995
 30
0.0
 10
105.4429101306993
 20
134.1647614556077
 30
0.0
 10
105.1776163077947
 20
134.1749597250175
 30
0.0
 10
104.6552816879249
 20
134.1750361834023
 30
0.0
 10
104.3955280254432
 20
134.1652451717932
 30
0.0
 10
103.878916209798
 20
134.1251783330544
 30
0.0
 10
103.6265501692977
 20
134.0950811661976
 30
0.0
 10
103.1450250477648
 20
134.0158589563674
 30
0.0
 10
102.9121743156513
 20
133.9661014769041
 30
0.0
 10
102.4750844672125
 20
133.8470095344537
 30
0.0
 10
102.2737634785554
 20
133.7786942729064
 30
0.0
 10
101.9046774532555
 20
133.6232933059729
 30
0.0
 10
101.7356927022037
 20
133.5351409639059
 30
0.0
 10
101.4452366455445
 20
133.3447015747896
 30
0.0
 10
101.3221648341824
 20
133.2420769970905
 30
0.0
 10
101.1208285927604
 20
133.0204366504824
 30
0.0
 10
101.0436160468182
 20
132.9016825749349
 30
0.0
 10
100.9414125039181
 20
132.6570166360172
 30
0.0
 10
100.9151841524658
 20
132.5298599105687
 30
0.0
 10
100.9147077531487
 20
132.2654117647131
 30
0.0
 10
100.9404501656467
 20
132.132511084456
 30
0.0
 10
101.0417609420105
 20
131.8657188109739
 30
0.0
 10
101.1185935814014
 20
131.7303549095054
 30
0.0
 10
101.3189974206166
 20
131.4677751142028
 30
0.0
 10
101.4416689189087
 20
131.340799954449
 30
0.0
 10
101.7316162080729
 20
131.0967205683666
 30
0.0
 10
101.9001871874381
 20
130.9792954436128
 30
0.0
 10
102.2684567815513
 20
130.7660989826643
 30
0.0
 10
102.4695186388216
 20
130.6689248642394
 30
0.0
 10
102.9065495574065
 20
130.4955699770253
 30
0.0
 10
103.1386977705361
 20
130.4211704253686
 30
0.0
 10
103.619708052035
 20
130.3007175458639
 30
0.0
 10
103.8718081348654
 20
130.2538591705979
 30
0.0
 10
104.3888776211244
 20
130.1909016736142
 30
0.0
 10
104.6503989921171
 20
130.1749980643351
 30
0.0
 10
105.1794896694373
 20
130.1749980643351
 30
0.0
  0
LINE
  5
70
330
1F
100
AcDbEntity
  8
0
  6
Continuous
 62
     7
370
    15
100
AcDbLine
 10
101.8649443308
 20
124.9660346696
 30
0.0
 11
111.5230114993
 21
124.9660346696
 31
0.0
  0
LINE
  5
71
330
1F
100
AcDbEntity
  8
0
  6
Continuous
 62
     7
370
    15
100
AcDbLine
 10
111.5230114993
 20
74.9291169733
 30
0.0
 11
111.5230114993
 21
124.9660346696
 31
0.0
  0
LINE
  5
72
330
1F
100
AcDbEntity
  8
0
  6
Continuous
 62
     7
370
    15
100
AcDbLine
 10
111.5230114993
 20
74.9291169733
 30
0.0
 11
109.8649443308
 21
74.9291169733
 31
0.0
  0
SPLINE
  5
73
330
1F
100
AcDbEntity
  8
0
  6
Continuous
 62
     7
370
    15
100
AcDbSpline
210
0.0
220
0.0
230
1.0
 70
     8
 71
     3
 72
    28
 73
    24
 74
     0
 42
0.00000001
 43
0.00000001
 40
0.0
 40
0.0
 40
0.0
 40
0.0
 40
0.1250000000000001
 40
0.1250000000000001
 40
0.1875000000000001
 40
0.1875000000000001
 40
0.2500000000000001
 40
0.2500000000000001
 40
0.3749999999999999
 40
0.3749999999999999
 40
0.4375
 40
0.4375
 40
0.4999999999999999
 40
0.4999999999999999
 40
0.6249999999999999
 40
0.6249999999999999
 40
0.7499999999999997
 40
0.7499999999999997
 40
0.8124999999999998
 40
0.8124999999999998
 40
0.8749999999999998
 40
0.8749999999999998
 40
1.0
 40
1.0
 40
1.0
 40
1.0
 10
109.8649443307772
 20
74.92911697330875
 30
0.0
 10
109.3332365732843
 20
74.92911697330875
 30
0.0
 10
108.8109980079739
 20
74.91333225935855
 30
0.0
 10
108.0411275216989
 20
74.86833684528236
 30
0.0
 10
107.7867679495076
 20
74.8497818502066
 30
0.0
 10
107.2826463688091
 20
74.8059291277601
 30
0.0
 10
107.0329235513812
 20
74.7805845208079
 30
0.0
 10
106.3073335999348
 20
74.69718244305781
 30
0.0
 10
105.8489733383532
 20
74.63131688390673
 30
0.0
 10
105.1984753949593
 20
74.52234654341493
 30
0.0
 10
104.9867933441669
 20
74.48410690764828
 30
0.0
 10
104.5827218550289
 20
74.40634817022892
 30
0.0
 10
104.390215341208
 20
74.36684720805356
 30
0.0
 10
103.8403803701867
 20
74.24793946568757
 30
0.0
 10
103.5104515918779
 20
74.16812178426296
 30
0.0
 10
102.9259803233092
 20
74.0147786224669
 30
0.0
 10
102.6797031852958
 20
73.94344486919765
 30
0.0
 10
102.3798603925977
 20
73.84950136212302
 30
0.0
 10
102.2914035355255
 20
73.8203075687631
 30
0.0
 10
102.1380421822204
 20
73.76684099449967
 30
0.0
 10
102.0729539679942
 20
73.7424816602245
 30
0.0
 10
101.9173599520534
 20
73.67889151477976
 30
0.0
 10
101.8649443307772
 20
73.64878857969052
 30
0.0
 10
101.8649443307772
 20
73.63191168669358
 30
0.0
  0
LINE
  5
74
330
1F
100
AcDbEntity
  8
0
  6
Continuous
 62
     7
370
    15
100
AcDbLine
 10
101.8649443308
 20
73.6319116867
 30
0.0
 11
101.8649443308
 21
73.6160346696
 31
0.0
  0
SPLINE
  5
75
330
1F
100
AcDbEntity
  8
0
  6
Continuous
 62
     7
370
    15
100
AcDbSpline
210
0.0
220
0.0
230
1.0
 70
     8
 71
     3
 72
    22
 73
    18
 74
     0
 42
0.00000001
 43
0.00000001
 40
0.0
 40
0.0
 40
0.0
 40
0.0
 40
0.0515773377536172
 40
0.1565264849943629
 40
0.2100197540385886
 40
0.2615951369298746
 40
0.3664424119934943
 40
0.4198226601719804
 40
0.4724528789006786
 40
0.5794488992297344
 40
0.6339397336480286
 40
0.6872670452602943
 40
0.7409741315029978
 40
0.7958968813361827
 40
0.8512481408256359
 40
0.9034470736265863
 40
1.0
 40
1.0
 40
1.0
 40
1.0
 10
109.8649443307772
 20
135.5832301427202
 30
0.0
 10
109.6481341347747
 20
135.5846267637887
 30
0.0
 10
108.99016031586
 20
135.5888652180449
 30
0.0
 10
108.115065338529
 20
135.6283975423992
 30
0.0
 10
107.2702398436722
 20
135.6913707892411
 30
0.0
 10
106.450514560068
 20
135.7693848224962
 30
0.0
 10
105.6747245820396
 20
135.8662679503714
 30
0.0
 10
104.9572361207331
 20
135.9745273622874
 30
0.0
 10
104.277971373561
 20
136.0882457345919
 30
0.0
 10
103.6696563956521
 20
136.2047459195326
 30
0.0
 10
103.1495644549289
 20
136.3138461709497
 30
0.0
 10
102.8056742772128
 20
136.3898500686797
 30
0.0
 10
102.5107205494852
 20
136.4578835246013
 30
0.0
 10
102.2649462621441
 20
136.5165965753599
 30
0.0
 10
102.0790439531707
 20
136.5622119552936
 30
0.0
 10
101.9074473474469
 20
136.6051714068542
 30
0.0
 10
101.8873180722707
 20
136.6103324286562
 30
0.0
 10
101.874252417597
 20
136.6136823817985
 30
0.0
  0
LINE
  5
76
330
1F
100
AcDbEntity
  8
0
  6
Continuous
 62
     7
370
    15
100
AcDbLine
 10
111.5230114993
 20
135.5832301427
 30
0.0
 11
109.8649443308
 21
135.5832301427
 31
0.0
  0
LINE
  5
77
330
1F
100
AcDbEntity
  8
0
  6
Continuous
 62
     7
370
    15
100
AcDbLine
 10
111.5230114993
 20
129.5747243319
 30
0.0
 11
111.5230114993
 21
135.5832301427
 31
0.0
  0
LINE
  5
78
330
1F
100
AcDbEntity
  8
0
  6
Continuous
 62
     7
370
    15
100
AcDbLine
 10
109.1105646765
 20
129.5747243319
 30
0.0
 11
111.5230114993
 21
129.5747243319
 31
0.0
  0
SPLINE
  5
79
330
1F
100
AcDbEntity
  8
0
  6
Continuous
 62
     7
370
    15
100
AcDbSpline
210
0.0
220
0.0
230
1.0
 70
     8
 71
     3
 72
    20
 73
    16
 74
     0
 42
0.00000001
 43
0.00000001
 40
0.0
 40
0.0
 40
0.0
 40
0.0
 40
0.2500000000000003
 40
0.2500000000000003
 40
0.3750000000000001
 40
0.3750000000000001
 40
0.4999999999999999
 40
0.4999999999999999
 40
0.6249999999999999
 40
0.6249999999999999
 40
0.7499999999999999
 40
0.7499999999999999
 40
0.875
 40
0.875
 40
1.0
 40
1.0
 40
1.0
 40
1.0
 10
101.8649443307772
 20
124.9660346695559
 30
0.0
 10
102.1133180650653
 20
125.6198970978533
 30
0.0
 10
102.4328881574105
 20
126.2236828798505
 30
0.0
 10
103.0551943906152
 20
127.0505216160191
 30
0.0
 10
103.286618651046
 20
127.312950253972
 30
0.0
 10
103.8078329906957
 20
127.809612908077
 30
0.0
 10
104.0944534733308
 20
128.0401997870985
 30
0.0
 10
104.7139382146384
 20
128.4567540116811
 30
0.0
 10
105.0482385941253
 20
128.6442518136486
 30
0.0
 10
105.7734990667501
 20
128.975648791285
 30
0.0
 10
106.1554141241406
 20
129.1151527787803
 30
0.0
 10
106.9502023003123
 20
129.3406062862513
 30
0.0
 10
107.3643604945186
 20
129.4272323977949
 30
0.0
 10
108.2299068351
 20
129.545213186649
 30
0.0
 10
108.6677944501119
 20
129.5747243319234
 30
0.0
 10
109.1105646764665
 20
129.5747243319234
 30
0.0
  0
SPLINE
  5
7A
330
1F
100
AcDbEntity
  8
0
  6
Continuous
 62
     7
370
    15
100
AcDbSpline
210
0.0
220
0.0
230
1.0
 70
     8
 71
     3
 72
    70
 73
    66
 74
     0
 42
0.00000001
 43
0.00000001
 40
-0.0312500000000002
 40
-0.0312500000000002
 40
0.0
 40
0.0
 40
0.0312499999999999
 40
0.0312499999999999
 40
0.0624999999999999
 40
0.0624999999999999
 40
0.0937499999999998
 40
0.0937499999999998
 40
0.1249999999999998
 40
0.1249999999999998
 40
0.1562499999999997
 40
0.1562499999999997
 40
0.1874999999999997
 40
0.1874999999999997
 40
0.2187499999999996
 40
0.2187499999999996
 40
0.2499999999999996
 40
0.2499999999999996
 40
0.2812499999999995
 40
0.2812499999999995
 40
0.3124999999999994
 40
0.3124999999999994
 40
0.3437499999999994
 40
0.3437499999999994
 40
0.3749999999999993
 40
0.3749999999999993
 40
0.4062499999999993
 40
0.4062499999999993
 40
0.4374999999999992
 40
0.4374999999999992
 40
0.4687499999999992
 40
0.4687499999999992
 40
0.4999999999999991
 40
0.4999999999999991
 40
0.5312499999999991
 40
0.5312499999999991
 40
0.562499999999999
 40
0.562499999999999
 40
0.5937499999999989
 40
0.5937499999999989
 40
0.6249999999999989
 40
0.6249999999999989
 40
0.6562499999999989
 40
0.6562499999999989
 40
0.6874999999999988
 40
0.6874999999999988
 40
0.7187499999999987
 40
0.7187499999999987
 40
0.7499999999999987
 40
0.7499999999999987
 40
0.7812499999999988
 40
0.7812499999999988
 40
0.812499999999999
 40
0.812499999999999
 40
0.8437499999999991
 40
0.8437499999999991
 40
0.8749999999999993
 40
0.8749999999999993
 40
0.9062499999999994
 40
0.9062499999999994
 40
0.9374999999999997
 40
0.9374999999999997
 40
0.9687499999999998
 40
0.9687499999999998
 40
1.0
 40
1.0
 40
1.03125
 40
1.03125
 10
104.6503989921171
 20
115.7369415555393
 30
0.0
 10
105.1794896694374
 20
115.7369415555393
 30
0.0
 10
105.4395603368145
 20
115.7616188503245
 30
0.0
 10
105.9511350166499
 20
115.8580905233664
 30
0.0
 10
106.2053103003901
 20
115.9310714393464
 30
0.0
 10
106.6895809304518
 20
116.120812042285
 30
0.0
 10
106.9192220223329
 20
116.2366727006788
 30
0.0
 10
107.3538263705664
 20
116.5092905466365
 30
0.0
 10
107.559392147213
 20
116.6673296286903
 30
0.0
 10
107.9279492878083
 20
117.0108724796609
 30
0.0
 10
108.0934302705437
 20
117.1976349237626
 30
0.0
 10
108.3858547799788
 20
117.6011780981594
 30
0.0
 10
108.5099557566054
 20
117.8146750945886
 30
0.0
 10
108.7095349533551
 20
118.254058408511
 30
0.0
 10
108.7864685392133
 20
118.4831983956567
 30
0.0
 10
108.8893255977337
 20
118.9491725184167
 30
0.0
 10
108.9147985071928
 20
119.1820549640929
 30
0.0
 10
108.9150889177606
 20
119.6474524991727
 30
0.0
 10
108.8890642839849
 20
119.882328256567
 30
0.0
 10
108.7869159994929
 20
120.3338214038133
 30
0.0
 10
108.7113395519097
 20
120.5518678792246
 30
0.0
 10
108.5108420207648
 20
120.9729624042625
 30
0.0
 10
108.3857131792564
 20
121.1748837887808
 30
0.0
 10
108.0963543782348
 20
121.5469132712997
 30
0.0
 10
107.9309433911793
 20
121.71954157488
 30
0.0
 10
107.5579528330315
 20
122.0368595794261
 30
0.0
 10
107.3562197999424
 20
122.1766465129277
 30
0.0
 10
106.9233605491145
 20
122.4208227664795
 30
0.0
 10
106.6894420162252
 20
122.526052277521
 30
0.0
 10
106.2052582810825
 20
122.6942094238961
 30
0.0
 10
105.9559426551271
 20
122.75746031449
 30
0.0
 10
105.4429101306993
 20
122.8430395235926
 30
0.0
 10
105.1776163077947
 20
122.864911688515
 30
0.0
 10
104.6552816879249
 20
122.8650753381589
 30
0.0
 10
104.3955280254432
 20
122.8440736460629
 30
0.0
 10
103.878916209798
 20
122.7586712909853
 30
0.0
 10
103.6265501692977
 20
122.6946651076983
 30
0.0
 10
103.1450250477648
 20
122.5278505876571
 30
0.0
 10
102.9121743156513
 20
122.423717424258
 30
0.0
 10
102.4750844672125
 20
122.177730771763
 30
0.0
 10
102.2737634785554
 20
122.0379809408142
 30
0.0
 10
101.9046774532554
 20
121.7248428710896
 30
0.0
 10
101.7356927022037
 20
121.5493867118195
 30
0.0
 10
101.4452366455445
 20
121.1765464477192
 30
0.0
 10
101.3221648341824
 20
120.9784246376083
 30
0.0
 10
101.1208285927604
 20
120.5577132948746
 30
0.0
 10
101.0436160468182
 20
120.3357232742071
 30
0.0
 10
100.9414125039181
 20
119.8858583344987
 30
0.0
 10
100.9151841524658
 20
119.655602921382
 30
0.0
 10
100.9147077531487
 20
119.1842869788329
 30
0.0
 10
100.9404501656466
 20
118.9510495631188
 30
0.0
 10
101.0417609420105
 20
118.4893730236207
 30
0.0
 10
101.1185935814014
 20
118.2584756365086
 30
0.0
 10
101.3189974206166
 20
117.8161996227169
 30
0.0
 10
101.4416689189087
 20
117.605137191431
 30
0.0
 10
101.7316162080729
 20
117.2036386806983
 30
0.0
 10
101.9001871874381
 20
117.0127321586224
 30
0.0
 10
102.2684567815513
 20
116.6690068266253
 30
0.0
 10
102.4695186388216
 20
116.5138696404113
 30
0.0
 10
102.9065495574065
 20
116.2387922803315
 30
0.0
 10
103.1386977705361
 20
116.1216760509095
 30
0.0
 10
103.619708052035
 20
115.932749565845
 30
0.0
 10
103.8718081348654
 20
115.8596745954507
 30
0.0
 10
104.3888776211244
 20
115.7616225363162
 30
0.0
 10
104.6503989921171
 20
115.7369415555393
 30
0.0
 10
105.1794896694374
 20
115.7369415555393
 30
0.0
  0
LINE
  5
7B
330
1F
100
AcDbEntity
  8
0
  6
Continuous
 62
     7
370
    15
100
AcDbLine
 10
118.3068771623
 20
74.9291169733
 30
0.0
 11
118.3068771623
 21
124.9660346696
 31
0.0
  0
SPLINE
  5
7C
330
1F
100
AcDbEntity
  8
0
  6
Continuous
 62
     7
370
    15
100
AcDbSpline
210
0.0
220
0.0
230
1.0
 70
     8
 71
     3
 72
     8
 73
     4
 74
     0
 42
0.00000001
 43
0.00000001
 40
0.0
 40
0.0
 40
0.0
 40
0.0
 40
1.0
 40
1.0
 40
1.0
 40
1.0
 10
118.3068771622663
 20
74.92911697330875
 30
0.0
 10
117.8113975016005
 20
75.8246430612421
 30
0.0
 10
117.3172834535584
 20
76.72092747629436
 30
0.0
 10
116.8249443307772
 20
77.61819751050106
 30
0.0
  0
LINE
  5
7D
330
1F
100
AcDbEntity
  8
0
  6
Continuous
 62
     7
370
    15
100
AcDbLine
 10
116.8249443308
 20
77.6181975105
 30
0.0
 11
116.8249443308
 21
124.9660346696
 31
0.0
  0
SPLINE
  5
7E
330
1F
100
AcDbEntity
  8
0
  6
Continuous
 62
     7
370
    15
100
AcDbSpline
210
0.0
220
0.0
230
1.0
 70
    24
 71
     3
 72
     8
 73
     4
 74
     0
 42
0.00000001
 43
0.00000001
 40
0.0
 40
0.0
 40
0.0
 40
0.0
 40
1.0
 40
1.0
 40
1.0
 40
1.0
 10
116.8249443307772
 20
124.9660346695559
 30
0.0
 10
117.3048963251421
 20
124.9660346695559
 30
0.0
 10
117.8001970541157
 20
124.9660346695559
 30
0.0
 10
118.3068771622663
 20
124.9660346695559
 30
0.0
  0
LINE
  5
7F
330
1F
100
AcDbEntity
  8
0
  6
Continuous
 62
     7
370
    15
100
AcDbLine
 10
122.8649443308
 20
75.555757269
 30
0.0
 11
122.8649443308
 21
124.9660346696
 31
0.0
  0
SPLINE
  5
80
330
1F
100
AcDbEntity
  8
0
  6
Continuous
 62
     7
370
    15
100
AcDbSpline
210
0.0
220
0.0
230
1.0
 70
     8
 71
     3
 72
    10
 73
     6
 74
     0
 42
0.00000001
 43
0.00000001
 40
0.0
 40
0.0
 40
0.0
 40
0.0
 40
0.5
 40
0.5
 40
1.0
 40
1.0
 40
1.0
 40
1.0
 10
122.8649443307772
 20
75.55575726896308
 30
0.0
 10
122.8649443307772
 20
75.39587000076942
 30
0.0
 10
122.8036346795414
 20
75.2347427452548
 30
0.0
 10
122.5845350420063
 20
75.00064374689998
 30
0.0
 10
122.4264868356928
 20
74.92911697330875
 30
0.0
 10
122.2649443307772
 20
74.92911697330875
 30
0.0
  0
SPLINE
  5
81
330
1F
100
AcDbEntity
  8
0
  6
Continuous
 62
     7
370
    15
100
AcDbSpline
210
0.0
220
0.0
230
1.0
 70
    24
 71
     3
 72
    12
 73
     8
 74
     0
 42
0.00000001
 43
0.00000001
 40
0.0
 40
0.0
 40
0.0
 40
0.0
 40
0.2500000000000033
 40
0.2500000000000033
 40
0.5000000000000067
 40
0.5000000000000067
 40
1.0
 40
1.0
 40
1.0
 40
1.0
 10
122.2649443307772
 20
124.9660346695559
 30
0.0
 10
122.3551833984642
 20
124.9660346695559
 30
0.0
 10
122.4460815125707
 20
124.9660346695559
 30
0.0
 10
122.6006785490593
 20
124.9660346695559
 30
0.0
 10
122.6656569651674
 20
124.9660346695559
 30
0.0
 10
122.8174919931036
 20
124.9660346695559
 30
0.0
 10
122.8649443307772
 20
124.9660346695559
 30
0.0
 10
122.8649443307772
 20
124.9660346695559
 30
0.0
  0
LINE
  5
82
330
1F
100
AcDbEntity
  8
0
  6
Continuous
 62
     7
370
    15
100
AcDbLine
 10
113.0049443308
 20
77.6181975105
 30
0.0
 11
113.0049443308
 21
124.9660346696
 31
0.0
  0
SPLINE
  5
83
330
1F
100
AcDbEntity
  8
0
  6
Continuous
 62
     7
370
    15
100
AcDbSpline
210
0.0
220
0.0
230
1.0
 70
     8
 71
     3
 72
     8
 73
     4
 74
     0
 42
0.00000001
 43
0.00000001
 40
0.0
 40
0.0
 40
0.0
 40
0.0
 40
1.0
 40
1.0
 40
1.0
 40
1.0
 10
113.0049443307772
 20
77.61819751050106
 30
0.0
 10
112.512605207996
 20
76.72092747629436
 30
0.0
 10
112.0184911599539
 20
75.82464306124211
 30
0.0
 10
111.5230114992881
 20
74.92911697330875
 30
0.0
  0
SPLINE
  5
84
330
1F
100
AcDbEntity
  8
0
  6
Continuous
 62
     7
370
    15
100
AcDbSpline
210
0.0
220
0.0
230
1.0
 70
    24
 71
     3
 72
     8
 73
     4
 74
     0
 42
0.00000001
 43
0.00000001
 40
0.0
 40
0.0
 40
0.0
 40
0.0
 40
1.0
 40
1.0
 40
1.0
 40
1.0
 10
111.5230114992881
 20
124.9660346695559
 30
0.0
 10
112.0296916074387
 20
124.9660346695559
 30
0.0
 10
112.5249923364123
 20
124.9660346695559
 30
0.0
 10
113.0049443307772
 20
124.9660346695559
 30
0.0
  0
LINE
  5
85
330
1F
100
AcDbEntity
  8
0
  6
Continuous
 62
     7
370
    15
100
AcDbLine
 10
122.2649443308
 20
74.9291169733
 30
0.0
 11
118.3068771623
 21
74.9291169733
 31
0.0
  0
LINE
  5
86
330
1F
100
AcDbEntity
  8
0
  6
Continuous
 62
     7
370
    15
100
AcDbLine
 10
118.3068771623
 20
124.9660346696
 30
0.0
 11
122.2649443308
 21
124.9660346696
 31
0.0
  0
LINE
  5
87
330
1F
100
AcDbEntity
  8
0
  6
Continuous
 62
     7
370
    15
100
AcDbLine
 10
96.9149443308
 20
73.9160346696
 30
0.0
 11
96.9149443308
 21
136.3160346658
 31
0.0
  0
ARC
  5
88
330
1F
100
AcDbEntity
  8
0
  6
Continuous
 62
     7
370
    15
100
AcDbCircle
 10
104.9126883905
 20
117.0170961219
 30
0.0
 40
4.112708064274977
100
AcDbArc
 50
19.1552479729
 51
159.8574241332
  0
SPLINE
  5
89
330
1F
100
AcDbEntity
  8
0
  6
Continuous
 62
     7
370
    15
100
AcDbSpline
210
0.0
220
0.0
230
1.0
 70
    24
 71
     3
 72
    14
 73
    10
 74
     0
 42
0.00000001
 43
0.00000001
 40
0.0
 40
0.0
 40
0.0
 40
0.0
 40
0.4999999999999969
 40
0.4999999999999969
 40
0.7499999999999953
 40
0.7499999999999953
 40
0.8749999999999977
 40
0.8749999999999977
 40
1.0
 40
1.0
 40
1.0
 40
1.0
 10
116.7272695284449
 20
78.71603466955592
 30
0.0
 10
116.6800593692151
 20
78.71603466955591
 30
0.0
 10
116.6168248956714
 20
78.71603466955591
 30
0.0
 10
116.4730129649435
 20
78.71603466955591
 30
0.0
 10
116.4176878904671
 20
78.71603466955592
 30
0.0
 10
116.3057767172321
 20
78.71603466955591
 30
0.0
 10
116.2629896307911
 20
78.71603466955592
 30
0.0
 10
116.1586242977575
 20
78.71603466955591
 30
0.0
 10
116.0944005034558
 20
78.71603466955592
 30
0.0
 10
116.0249443308327
 20
78.71603466955592
 30
0.0
  0
SPLINE
  5
8A
330
1F
100
AcDbEntity
  8
0
  6
Continuous
 62
     7
370
    15
100
AcDbSpline
210
0.0
220
0.0
230
1.0
 70
    24
 71
     3
 72
    12
 73
     8
 74
     0
 42
0.00000001
 43
0.00000001
 40
0.0
 40
0.0
 40
0.0
 40
0.0
 40
0.4999999999999967
 40
0.4999999999999967
 40
0.7499999999999983
 40
0.7499999999999983
 40
1.0
 40
1.0
 40
1.0
 40
1.0
 10
116.4306467990865
 20
131.5160346695559
 30
0.0
 10
116.3872086112835
 20
131.5160346695559
 30
0.0
 10
116.3380143629855
 20
131.5160346695559
 30
0.0
 10
116.2412956056044
 20
131.5160346695559
 30
0.0
 10
116.2051081241028
 20
131.5160346695559
 30
0.0
 10
116.122230265578
 20
131.5160346695559
 30
0.0
 10
116.0742768182713
 20
131.5160346695559
 30
0.0
 10
116.0249443307772
 20
131.5160346695559
 30
0.0
  0
SPLINE
  5
8B
330
1F
100
AcDbEntity
  8
0
  6
Continuous
 62
     7
370
    15
100
AcDbSpline
210
0.0
220
0.0
230
1.0
 70
     8
 71
     3
 72
    10
 73
     6
 74
     0
 42
0.00000001
 43
0.00000001
 40
0.0
 40
0.0
 40
0.0
 40
0.0
 40
0.5
 40
0.5
 40
1.0
 40
1.0
 40
1.0
 40
1.0
 10
116.8249443307772
 20
132.2356885205917
 30
0.0
 10
116.8249443307772
 20
132.0919184627739
 30
0.0
 10
116.7888952720584
 20
131.949499100279
 30
0.0
 10
116.6533864112848
 20
131.699604806922
 30
0.0
 10
116.5535104181889
 20
131.5915744706739
 30
0.0
 10
116.4306467990873
 20
131.5160346695566
 30
0.0
  0
SPLINE
  5
8C
330
1F
100
AcDbEntity
  8
0
  6
Continuous
 62
     7
370
    15
100
AcDbSpline
210
0.0
220
0.0
230
1.0
 70
     8
 71
     3
 72
     9
 73
     5
 74
     0
 42
0.00000001
 43
0.00000001
 40
0.0
 40
0.0
 40
0.0
 40
0.0
 40
0.5
 40
1.0
 40
1.0
 40
1.0
 40
1.0
 10
116.7987967076171
 20
124.9660346695559
 30
0.0
 10
116.8075352774994
 20
125.0131774698913
 30
0.0
 10
116.8205545638358
 20
125.1079735515618
 30
0.0
 10
116.8249443307772
 20
125.2037578231222
 30
0.0
 10
116.8249443307772
 20
125.2519013010173
 30
0.0
  0
SPLINE
  5
8D
330
1F
100
AcDbEntity
  8
0
  6
Continuous
 62
     7
370
    15
100
AcDbSpline
210
0.0
220
0.0
230
1.0
 70
     8
 71
     3
 72
    10
 73
     6
 74
     0
 42
0.00000001
 43
0.00000001
 40
0.0
 40
0.0
 40
0.0
 40
0.0
 40
0.5
 40
0.5
 40
1.0
 40
1.0
 40
1.0
 40
1.0
 10
113.3992418624681
 20
131.5160346695559
 30
0.0
 10
113.2777015987996
 20
131.5907608367677
 30
0.0
 10
113.1763672384507
 20
131.6997058526845
 30
0.0
 10
113.0407282955623
 20
131.9501363334461
 30
0.0
 10
113.0049443307772
 20
132.092555695545
 30
0.0
 10
113.0049443307772
 20
132.2356885205917
 30
0.0
  0
SPLINE
  5
8E
330
1F
100
AcDbEntity
  8
0
  6
Continuous
 62
     7
370
    15
100
AcDbSpline
210
0.0
220
0.0
230
1.0
 70
    24
 71
     3
 72
    12
 73
     8
 74
     0
 42
0.00000001
 43
0.00000001
 40
0.0
 40
0.0
 40
0.0
 40
0.0
 40
0.2499999999999992
 40
0.2499999999999992
 40
0.4999999999999983
 40
0.4999999999999983
 40
1.0
 40
1.0
 40
1.0
 40
1.0
 10
113.8049443307772
 20
131.5160346695559
 30
0.0
 10
113.7550676484598
 20
131.5160346695559
 30
0.0
 10
113.7070644550561
 20
131.5160346695559
 30
0.0
 10
113.6240163523442
 20
131.5160346695559
 30
0.0
 10
113.5878867728763
 20
131.5160346695559
 30
0.0
 10
113.4919747419321
 20
131.5160346695559
 30
0.0
 10
113.4422160739633
 20
131.5160346695559
 30
0.0
 10
113.3992418624681
 20
131.5160346695559
 30
0.0
  0
SPLINE
  5
8F
330
1F
100
AcDbEntity
  8
0
  6
Continuous
 62
     7
370
    15
100
AcDbSpline
210
0.0
220
0.0
230
1.0
 70
    24
 71
     3
 72
    14
 73
    10
 74
     0
 42
0.00000001
 43
0.00000001
 40
0.0
 40
0.0
 40
0.0
 40
0.0
 40
0.1249999999999999
 40
0.1249999999999999
 40
0.2499999999999998
 40
0.2499999999999998
 40
0.4999999999999996
 40
0.4999999999999996
 40
1.0
 40
1.0
 40
1.0
 40
1.0
 10
113.8049443307772
 20
78.71603466955592
 30
0.0
 10
113.7365064828907
 20
78.71603466955591
 30
0.0
 10
113.6709564441257
 20
78.71603466955591
 30
0.0
 10
113.5665298047177
 20
78.71603466955591
 30
0.0
 10
113.5239851949563
 20
78.71603466955592
 30
0.0
 10
113.4113757344161
 20
78.71603466955592
 30
0.0
 10
113.3558366873966
 20
78.71603466955592
 30
0.0
 10
113.2132249919328
 20
78.71603466955592
 30
0.0
 10
113.149819636937
 20
78.71603466955592
 30
0.0
 10
113.1026191331095
 20
78.71603466955592
 30
0.0
  0
SPLINE
  5
90
330
1F
100
AcDbEntity
  8
0
  6
Continuous
 62
     7
370
    15
100
AcDbSpline
210
0.0
220
0.0
230
1.0
 70
     8
 71
     3
 72
    10
 73
     6
 74
     0
 42
0.00000001
 43
0.00000001
 40
0.0
 40
0.0
 40
0.0
 40
0.0
 40
0.5
 40
0.5
 40
1.0
 40
1.0
 40
1.0
 40
1.0
 10
113.0049443307772
 20
125.2519013010173
 30
0.0
 10
113.0049443307772
 20
125.204129793024
 30
0.0
 10
113.0071055743743
 20
125.1564200709623
 30
0.0
 10
113.0157769482345
 20
125.061124953414
 30
0.0
 10
113.0223061311905
 20
125.0134323894474
 30
0.0
 10
113.0310919539373
 20
124.9660346695559
 30
0.0
  0
LINE
  5
91
330
1F
100
AcDbEntity
  8
0
  6
Continuous
 62
     7
370
    15
100
AcDbLine
 10
116.0249443308
 20
131.5160346696
 30
0.0
 11
113.8049443308
 21
131.5160346696
 31
0.0
  0
LINE
  5
92
330
1F
100
AcDbEntity
  8
0
  6
Continuous
 62
     7
370
    15
100
AcDbLine
 10
116.0249443308
 20
78.7160346696
 30
0.0
 11
113.8049443308
 21
78.7160346696
 31
0.0
  0
LINE
  5
93
330
1F
100
AcDbEntity
  8
0
  6
Continuous
 62
     7
370
    15
100
AcDbLine
 10
94.8991919975
 20
80.8963930029
 30
0.0
 11
94.8991919975
 21
129.3356763362
 31
0.0
  0
LINE
  5
94
330
1F
100
AcDbEntity
  8
0
  6
Continuous
 62
     7
370
    15
100
AcDbLine
 10
75.1149443308
 20
81.8875877758
 30
0.0
 11
75.1149443308
 21
83.1522971384
 31
0.0
  0
SPLINE
  5
95
330
1F
100
AcDbEntity
  8
0
  6
Continuous
 62
     7
370
    15
100
AcDbSpline
210
0.0
220
0.0
230
1.0
 70
     8
 71
     3
 72
    14
 73
    10
 74
     0
 42
0.00000001
 43
0.00000001
 40
0.0
 40
0.0
 40
0.0
 40
0.0
 40
0.25
 40
0.25
 40
0.5
 40
0.5
 40
0.75
 40
0.75
 40
1.0
 40
1.0
 40
1.0
 40
1.0
 10
74.33665721286147
 20
84.28288334599598
 30
0.0
 10
74.39328388806355
 20
84.17518589215912
 30
0.0
 10
74.48780654835326
 20
84.0723963104398
 30
0.0
 10
74.67085152391553
 20
83.87403899821965
 30
0.0
 10
74.76247810087024
 20
83.77797948954141
 30
0.0
 10
74.92133141856344
 20
83.59045044683215
 30
0.0
 10
74.98922202618513
 20
83.4990414740486
 30
0.0
 10
75.08613905189273
 20
83.32066525313844
 30
0.0
 10
75.11494433077779
 20
83.23344334689227
 30
0.0
 10
75.11494433077777
 20
83.15229713835802
 30
0.0
  0
SPLINE
  5
96
330
1F
100
AcDbEntity
  8
0
  6
Continuous
 62
     7
370
    15
100
AcDbSpline
210
0.0
220
0.0
230
1.0
 70
     8
 71
     3
 72
    14
 73
    10
 74
     0
 42
0.00000001
 43
0.00000001
 40
0.0
 40
0.0
 40
0.0
 40
0.0
 40
0.1250000000000015
 40
0.1250000000000015
 40
0.2500000000000029
 40
0.2500000000000029
 40
0.5000000000000032
 40
0.5000000000000032
 40
1.0
 40
1.0
 40
1.0
 40
1.0
 10
73.7149443307772
 20
84.72956520827526
 30
0.0
 10
73.76348873943435
 20
84.73531352155555
 30
0.0
 10
73.81640409421925
 20
84.73221263289932
 30
0.0
 10
73.91169943920228
 20
84.71001778873699
 30
0.0
 10
73.95195043648727
 20
84.69278556164114
 30
0.0
 10
74.05622045000023
 20
84.6364576451891
 30
0.0
 10
74.10654242515355
 20
84.5922712992433
 30
0.0
 10
74.23422537267894
 20
84.46126340039267
 30
0.0
 10
74.2903108197412
 20
84.37102888016238
 30
0.0
 10
74.33665721286292
 20
84.28288334599651
 30
0.0
  0
SPLINE
  5
97
330
1F
100
AcDbEntity
  8
0
  6
Continuous
 62
     7
370
    15
100
AcDbSpline
210
0.0
220
0.0
230
1.0
 70
     8
 71
     3
 72
     8
 73
     4
 74
     0
 42
0.00000001
 43
0.00000001
 40
0.0
 40
0.0
 40
0.0
 40
0.0
 40
1.0
 40
1.0
 40
1.0
 40
1.0
 10
71.4464192378311
 20
84.4197199216925
 30
0.0
 10
72.18099626431403
 20
84.53834493276145
 30
0.0
 10
72.94447133370963
 20
84.63833080489773
 30
0.0
 10
73.7149443307772
 20
84.72956520827526
 30
0.0
  0
SPLINE
  5
98
330
1F
100
AcDbEntity
  8
0
  6
Continuous
 62
     7
370
    15
100
AcDbSpline
210
0.0
220
0.0
230
1.0
 70
     8
 71
     3
 72
    14
 73
    10
 74
     0
 42
0.00000001
 43
0.00000001
 40
0.0
 40
0.0
 40
0.0
 40
0.0
 40
0.4999999999999982
 40
0.4999999999999982
 40
0.7499999999999982
 40
0.7499999999999982
 40
0.8749999999999991
 40
0.8749999999999991
 40
1.0
 40
1.0
 40
1.0
 40
1.0
 10
66.16494433077719
 20
84.24609690416085
 30
0.0
 10
67.05709046133079
 20
84.2453746779602
 30
0.0
 10
67.9470668971244
 20
84.24996088441766
 30
0.0
 10
69.27366206420005
 20
84.27768588880922
 30
0.0
 10
69.7145089926988
 20
84.29029242643338
 30
0.0
 10
70.37094923012123
 20
84.3213085744408
 30
0.0
 10
70.58896288671312
 20
84.33365174706759
 30
0.0
 10
71.02167174039589
 20
84.36667580223086
 30
0.0
 10
71.23694820556071
 20
84.3858929673693
 30
0.0
 10
71.44641923783111
 20
84.41971992169249
 30
0.0
  0
SPLINE
  5
99
330
1F
100
AcDbEntity
  8
0
  6
Continuous
 62
     7
370
    15
100
AcDbSpline
210
0.0
220
0.0
230
1.0
 70
     8
 71
     3
 72
     8
 73
     4
 74
     0
 42
0.00000001
 43
0.00000001
 40
0.0000005163856998
 40
0.0000005163856998
 40
0.0000005163856998
 40
0.0000005163856998
 40
0.000026289209185
 40
0.000026289209185
 40
0.000026289209185
 40
0.000026289209185
 10
66.15489940036959
 20
84.25608077725762
 30
0.0
 10
66.15822713857742
 20
84.25274653038852
 30
0.0
 10
66.16157559155302
 20
84.2494185731132
 30
0.0
 10
66.16494433077717
 20
84.24609690416085
 30
0.0
  0
SPLINE
  5
9A
330
1F
100
AcDbEntity
  8
0
  6
Continuous
 62
     7
370
    15
100
AcDbSpline
210
0.0
220
0.0
230
1.0
 70
     8
 71
     3
 72
     8
 73
     4
 74
     0
 42
0.00000001
 43
0.00000001
 40
0.0000005099763573
 40
0.0000005099763573
 40
0.0000005099763573
 40
0.0000005099763573
 40
0.0000262827998699
 40
0.0000262827998699
 40
0.0000262827998699
 40
0.0000262827998699
 10
66.16494433077717
 20
125.985972434951
 30
0.0
 10
66.16157559154944
 20
125.9826507659951
 30
0.0
 10
66.15822713857028
 20
125.9793228087162
 30
0.0
 10
66.15489940035896
 20
125.9759885618436
 30
0.0
  0
SPLINE
  5
9B
330
1F
100
AcDbEntity
  8
0
  6
Continuous
 62
     7
370
    15
100
AcDbSpline
210
0.0
220
0.0
230
1.0
 70
     8
 71
     3
 72
    10
 73
     6
 74
     0
 42
0.00000001
 43
0.00000001
 40
0.0
 40
0.0
 40
0.0
 40
0.0
 40
0.5
 40
0.5
 40
1.0
 40
1.0
 40
1.0
 40
1.0
 10
69.7149443307772
 20
125.9391220613837
 30
0.0
 10
69.1273587836866
 20
125.9601875816201
 30
0.0
 10
68.53661239022622
 20
125.9709460674923
 30
0.0
 10
67.35259322492736
 20
125.984310848028
 30
0.0
 10
66.75917923672189
 20
125.9864534906925
 30
0.0
 10
66.16494433077719
 20
125.985972434951
 30
0.0
  0
SPLINE
  5
9C
330
1F
100
AcDbEntity
  8
0
  6
Continuous
 62
     7
370
    15
100
AcDbSpline
210
0.0
220
0.0
230
1.0
 70
     8
 71
     3
 72
    18
 73
    14
 74
     0
 42
0.00000001
 43
0.00000001
 40
0.0
 40
0.0
 40
0.0
 40
0.0
 40
0.2499999999999995
 40
0.2499999999999995
 40
0.499999999999999
 40
0.499999999999999
 40
0.7499999999999984
 40
0.7499999999999984
 40
0.8749999999999992
 40
0.8749999999999992
 40
0.9374999999999997
 40
0.9374999999999997
 40
1.0
 40
1.0
 40
1.0
 40
1.0
 10
71.1149443307772
 20
126.9601423419189
 30
0.0
 10
71.11494433077722
 20
126.8769354330617
 30
0.0
 10
71.07909523083894
 20
126.7881987777482
 30
0.0
 10
70.95422349480502
 20
126.6060735871879
 30
0.0
 10
70.86382307715716
 20
126.5109435385613
 30
0.0
 10
70.64158042241498
 20
126.321762029437
 30
0.0
 10
70.5118156359692
 20
126.2268168613423
 30
0.0
 10
70.27117817865769
 20
126.0885381537623
 30
0.0
 10
70.18341088052024
 20
126.0428277204599
 30
0.0
 10
70.02888679331343
 20
125.9850044152385
 30
0.0
 10
69.97227590725869
 20
125.9672896512006
 30
0.0
 10
69.84823187635209
 20
125.9427503479677
 30
0.0
 10
69.7805172013338
 20
125.9367712094294
 30
0.0
 10
69.7149443307772
 20
125.9391220613837
 30
0.0
  0
LINE
  5
9D
330
1F
100
AcDbEntity
  8
0
  6
Continuous
 62
     7
370
    15
100
AcDbLine
 10
71.1149443308
 20
126.9601423419
 30
0.0
 11
71.1149443308
 21
128.1440807617
 31
0.0
  0
SPLINE
  5
9E
330
1F
100
AcDbEntity
  8
0
  6
Continuous
 62
     7
370
    15
100
AcDbSpline
210
0.0
220
0.0
230
1.0
 70
     8
 71
     3
 72
    18
 73
    14
 74
     0
 42
0.00000001
 43
0.00000001
 40
0.0
 40
0.0
 40
0.0
 40
0.0
 40
0.0010655908135293
 40
0.1270932442222498
 40
0.252403821323001
 40
0.3766453754199033
 40
0.4391400916978724
 40
0.5008262944158753
 40
0.5624240613471703
 40
0.625314731653857
 40
0.7499969917139813
 40
0.8752743618592034
 40
1.0
 40
1.0
 40
1.0
 40
1.0
 10
83.68524209493657
 20
81.45869511101303
 30
0.0
 10
83.68433156621029
 20
81.45858049677682
 30
0.0
 10
83.57573261029636
 20
81.44491043231324
 30
0.0
 10
83.96336955728228
 20
81.49582930389839
 30
0.0
 10
84.82932612371357
 20
81.59541199595056
 30
0.0
 10
86.02972646193349
 20
81.66453657420608
 30
0.0
 10
87.087300628238
 20
81.66848968592404
 30
0.0
 10
87.91443421365956
 20
81.64100149629014
 30
0.0
 10
88.7397063801699
 20
81.58246202763331
 30
0.0
 10
89.79407297092938
 20
81.4689416182495
 30
0.0
 10
90.95591297049103
 20
81.28579107408025
 30
0.0
 10
91.9081568428216
 20
81.08118639623265
 30
0.0
 10
92.03386728197223
 20
81.05189979384444
 30
0.0
 10
92.09658378627158
 20
81.03728880897316
 30
0.0
  0
SPLINE
  5
9F
330
1F
100
AcDbEntity
  8
0
  6
Continuous
 62
     7
370
    15
100
AcDbSpline
210
0.0
220
0.0
230
1.0
 70
     8
 71
     3
 72
    18
 73
    14
 74
     0
 42
0.00000001
 43
0.00000001
 40
0.0
 40
0.0
 40
0.0
 40
0.0
 40
0.1248923132163079
 40
0.2505399251702271
 40
0.3748736960321571
 40
0.4374922746933254
 40
0.4990791346244269
 40
0.5607946627364865
 40
0.6233916480318961
 40
0.7478206298632604
 40
0.8731956351447472
 40
0.9991630028880246
 40
0.9999999999999999
 40
0.9999999999999999
 40
0.9999999999999999
 40
0.9999999999999999
 10
92.09636504674044
 20
129.1947153508707
 30
0.0
 10
92.03262120882493
 20
129.180053342526
 30
0.0
 10
91.90474803576778
 20
129.1506406558768
 30
0.0
 10
90.95273970859338
 20
128.9456860839865
 30
0.0
 10
89.79219229423965
 20
128.7624225891248
 30
0.0
 10
88.73992648145641
 20
128.6493957467431
 30
0.0
 10
87.9156990676082
 20
128.5911328062527
 30
0.0
 10
87.08809579274197
 20
128.5636871676016
 30
0.0
 10
86.02928034772819
 20
128.5676728583268
 30
0.0
 10
84.82706524337367
 20
128.6367630305265
 30
0.0
 10
83.96188942397953
 20
128.7363887606948
 30
0.0
 10
83.57575312366878
 20
128.7872042079149
 30
0.0
 10
83.68382466098772
 20
128.773532049751
 30
0.0
 10
83.68453800839282
 20
128.7734418039861
 30
0.0
  0
SPLINE
  5
A0
330
1F
100
AcDbEntity
  8
0
  6
Continuous
 62
     7
370
    15
100
AcDbSpline
210
0.0
220
0.0
230
1.0
 70
     8
 71
     3
 72
    10
 73
     6
 74
     0
 42
0.00000001
 43
0.00000001
 40
0.0
 40
0.0
 40
0.0
 40
0.0
 40
0.5
 40
0.5
 40
1.0
 40
1.0
 40
1.0
 40
1.0
 10
65.01494433077653
 20
85.42535692307843
 30
0.0
 10
65.0149443307765
 20
85.39648265821903
 30
0.0
 10
65.0251382405376
 20
85.3789791018405
 30
0.0
 10
65.05188884534576
 20
85.37844753901275
 30
0.0
 10
65.0687762972771
 20
85.39611499619231
 30
0.0
 10
65.07760770550061
 20
85.44148212477518
 30
0.0
  0
LINE
  5
A1
330
1F
100
AcDbEntity
  8
0
  6
Continuous
 62
     7
370
    15
100
AcDbLine
 10
65.0149443308
 20
85.4253569231
 30
0.0
 11
65.0149443308
 21
124.806712416
 31
0.0
  0
SPLINE
  5
A2
330
1F
100
AcDbEntity
  8
0
  6
Continuous
 62
     7
370
    15
100
AcDbSpline
210
0.0
220
0.0
230
1.0
 70
     8
 71
     3
 72
    10
 73
     6
 74
     0
 42
0.00000001
 43
0.00000001
 40
0.0
 40
0.0
 40
0.0
 40
0.0
 40
0.5
 40
0.5
 40
1.0
 40
1.0
 40
1.0
 40
1.0
 10
65.07760770550061
 20
124.7905872143367
 30
0.0
 10
65.06870341639184
 20
124.8363287335499
 30
0.0
 10
65.05218803619886
 20
124.8535195730189
 30
0.0
 10
65.02508009013724
 20
124.8531962960831
 30
0.0
 10
65.0149443307772
 20
124.8353187537867
 30
0.0
 10
65.0149443307772
 20
124.8067124160341
 30
0.0
  0
SPLINE
  5
A3
330
1F
100
AcDbEntity
  8
0
  6
Continuous
 62
     7
370
    15
100
AcDbSpline
210
0.0
220
0.0
230
1.0
 70
     8
 71
     3
 72
    26
 73
    22
 74
     0
 42
0.00000001
 43
0.00000001
 40
0.0
 40
0.0
 40
0.0
 40
0.0
 40
0.2499999999999984
 40
0.2499999999999984
 40
0.3749999999999983
 40
0.3749999999999983
 40
0.4374999999999977
 40
0.4374999999999977
 40
0.4687499999999983
 40
0.4687499999999983
 40
0.4999999999999988
 40
0.4999999999999988
 40
0.5312499999999993
 40
0.5312499999999993
 40
0.5624999999999999
 40
0.5624999999999999
 40
0.6249999999999989
 40
0.6249999999999989
 40
0.7500000000000001
 40
0.7500000000000001
 40
1.0
 40
1.0
 40
1.0
 40
1.0
 10
65.8390979768817
 20
125.5061540031537
 30
0.0
 10
65.80049745401323
 20
125.3883793067983
 30
0.0
 10
65.75420045145896
 20
125.2639896206364
 30
0.0
 10
65.66026110302505
 20
125.0587702882829
 30
0.0
 10
65.62494963611157
 20
124.9871974218365
 30
0.0
 10
65.5587696603659
 20
124.871244189236
 30
0.0
 10
65.53423129369764
 20
124.8306596544257
 30
0.0
 10
65.49085854814388
 20
124.766517972554
 30
0.0
 10
65.47535014671871
 20
124.744651547269
 30
0.0
 10
65.4403075021317
 20
124.6990572789258
 30
0.0
 10
65.42075721141188
 20
124.6753869879584
 30
0.0
 10
65.37882993104127
 20
124.6307704286184
 30
0.0
 10
65.35617782080963
 20
124.6098904161005
 30
0.0
 10
65.315204106723
 20
124.5790170023497
 30
0.0
 10
65.2976048068276
 20
124.5691781325173
 30
0.0
 10
65.25297782097147
 20
124.5501885168212
 30
0.0
 10
65.2324185983181
 20
124.5498641921677
 30
0.0
 10
65.18129315882146
 20
124.5590876330439
 30
0.0
 10
65.16038174583291
 20
124.5803345292609
 30
0.0
 10
65.10893183827199
 20
124.6543034080916
 30
0.0
 10
65.09126653896743
 20
124.7204215014064
 30
0.0
 10
65.07760770550061
 20
124.7905872143367
 30
0.0
  0
SPLINE
  5
A4
330
1F
100
AcDbEntity
  8
0
  6
Continuous
 62
     7
370
    15
100
AcDbSpline
210
0.0
220
0.0
230
1.0
 70
     8
 71
     3
 72
    10
 73
     6
 74
     0
 42
0.00000001
 43
0.00000001
 40
0.0
 40
0.0
 40
0.0
 40
0.0
 40
0.5
 40
0.5
 40
1.0
 40
1.0
 40
1.0
 40
1.0
 10
66.15489940035899
 20
125.9759885618436
 30
0.0
 10
66.08734014544073
 20
125.9082971690338
 30
0.0
 10
66.02370349010425
 20
125.8335900042802
 30
0.0
 10
65.91348273553238
 20
125.6746238718535
 30
0.0
 10
65.86666644230976
 20
125.5902686058456
 30
0.0
 10
65.8390979768817
 20
125.5061540031538
 30
0.0
  0
SPLINE
  5
A5
330
1F
100
AcDbEntity
  8
0
  6
Continuous
 62
     7
370
    15
100
AcDbSpline
210
0.0
220
0.0
230
1.0
 70
     8
 71
     3
 72
    10
 73
     6
 74
     0
 42
0.00000001
 43
0.00000001
 40
0.0
 40
0.0
 40
0.0
 40
0.0
 40
0.5
 40
0.5
 40
1.0
 40
1.0
 40
1.0
 40
1.0
 10
65.83909797688173
 20
84.72591533595796
 30
0.0
 10
65.8665753916357
 20
84.64207853949007
 30
0.0
 10
65.91328402192514
 20
84.55776805190094
 30
0.0
 10
66.0235624846711
 20
84.3986468214142
 30
0.0
 10
66.08745002328499
 20
84.32366207732456
 30
0.0
 10
66.15489940036962
 20
84.25608077725762
 30
0.0
  0
SPLINE
  5
A6
330
1F
100
AcDbEntity
  8
0
  6
Continuous
 62
     7
370
    15
100
AcDbSpline
210
0.0
220
0.0
230
1.0
 70
     8
 71
     3
 72
    24
 73
    20
 74
     0
 42
0.00000001
 43
0.00000001
 40
0.0
 40
0.0
 40
0.0
 40
0.0
 40
0.2499999999999951
 40
0.2499999999999951
 40
0.3749999999999913
 40
0.3749999999999913
 40
0.4374999999999885
 40
0.4374999999999885
 40
0.4687499999999882
 40
0.4687499999999882
 40
0.499999999999988
 40
0.499999999999988
 40
0.56249999999999
 40
0.56249999999999
 40
0.624999999999992
 40
0.624999999999992
 40
0.7499999999999958
 40
0.7499999999999958
 40
1.0
 40
1.0
 40
1.0
 40
1.0
 10
65.07760770550061
 20
85.44148212477518
 30
0.0
 10
65.0913608241708
 20
85.51213218276544
 30
0.0
 10
65.10913339157669
 20
85.57873029553036
 30
0.0
 10
65.16138448313205
 20
85.65282831576357
 30
0.0
 10
65.18241955871362
 20
85.67408612292512
 30
0.0
 10
65.23531996634205
 20
85.68223204907137
 30
0.0
 10
65.25642563921998
 20
85.68129224567559
 30
0.0
 10
65.30247780789794
 20
85.66027625409826
 30
0.0
 10
65.32084827988133
 20
85.64936744799064
 30
0.0
 10
65.36239991494702
 20
85.61673253704326
 30
0.0
 10
65.38496658770393
 20
85.59524055667191
 30
0.0
 10
65.44774760416396
 20
85.52677461308559
 30
0.0
 10
65.48087736513185
 20
85.48070015488052
 30
0.0
 10
65.53779505161684
 20
85.39569226654584
 30
0.0
 10
65.5619810771206
 20
85.35541196536445
 30
0.0
 10
65.62718902750039
 20
85.24047573889851
 30
0.0
 10
65.66190508769165
 20
85.1698927537515
 30
0.0
 10
65.75512035802251
 20
84.9656869946729
 30
0.0
 10
65.8007928933832
 20
84.84278861234556
 30
0.0
 10
65.83909797688173
 20
84.72591533595796
 30
0.0
  0
LINE
  5
A7
330
1F
100
AcDbEntity
  8
0
  6
Continuous
 62
     7
370
    15
100
AcDbLine
 10
116.8249443308
 20
125.251901301
 30
0.0
 11
116.8249443308
 21
126.1661783371
 31
0.0
  0
SPLINE
  5
A8
330
1F
100
AcDbEntity
  8
0
  6
Continuous
 62
     7
370
    15
100
AcDbSpline
210
0.0
220
0.0
230
1.0
 70
     8
 71
     3
 72
     8
 73
     4
 74
     0
 42
0.00000001
 43
0.00000001
 40
0.0
 40
0.0
 40
0.0
 40
0.0
 40
1.0
 40
1.0
 40
1.0
 40
1.0
 10
116.8249443307772
 20
126.1661783371393
 30
0.0
 10
117.304222481367
 20
127.3071895669919
 30
0.0
 10
117.799790320507
 20
128.4435739777597
 30
0.0
 10
118.3068771622663
 20
129.5747243319234
 30
0.0
  0
LINE
  5
A9
330
1F
100
AcDbEntity
  8
0
  6
Continuous
 62
     7
370
    15
100
AcDbLine
 10
118.3068771623
 20
129.5747243319
 30
0.0
 11
122.2649443308
 21
129.5747243319
 31
0.0
  0
SPLINE
  5
AA
330
1F
100
AcDbEntity
  8
0
  6
Continuous
 62
     7
370
    15
100
AcDbSpline
210
0.0
220
0.0
230
1.0
 70
     8
 71
     3
 72
    12
 73
     8
 74
     0
 42
0.00000001
 43
0.00000001
 40
0.0
 40
0.0
 40
0.0
 40
0.0
 40
0.250000000000002
 40
0.250000000000002
 40
0.500000000000004
 40
0.500000000000004
 40
1.0
 40
1.0
 40
1.0
 40
1.0
 10
122.2649443307772
 20
129.5747243319234
 30
0.0
 10
122.3561440526029
 20
129.5747243319234
 30
0.0
 10
122.4467390617389
 20
129.5465046333355
 30
0.0
 10
122.6001517881855
 20
129.4520616260874
 30
0.0
 10
122.6653606555092
 20
129.3857746493821
 30
0.0
 10
122.8181451848492
 20
129.1601498260937
 30
0.0
 10
122.8649443307772
 20
128.9777235630612
 30
0.0
 10
122.8649443307772
 20
128.7969869308143
 30
0.0
  0
LINE
  5
AB
330
1F
100
AcDbEntity
  8
0
  6
Continuous
 62
     7
370
    15
100
AcDbLine
 10
122.8649443308
 20
128.7969869308
 30
0.0
 11
122.8649443308
 21
124.9660346696
 31
0.0
  0
LINE
  5
AC
330
1F
100
AcDbEntity
  8
0
  6
Continuous
 62
     7
370
    15
100
AcDbLine
 10
122.2649443308
 20
135.5832301427
 30
0.0
 11
118.3068771623
 21
135.5832301427
 31
0.0
  0
LINE
  5
AD
330
1F
100
AcDbEntity
  8
0
  6
Continuous
 62
     7
370
    15
100
AcDbLine
 10
118.3068771623
 20
129.5747243319
 30
0.0
 11
118.3068771623
 21
135.5832301427
 31
0.0
  0
SPLINE
  5
AE
330
1F
100
AcDbEntity
  8
0
  6
Continuous
 62
     7
370
    15
100
AcDbSpline
210
0.0
220
0.0
230
1.0
 70
     8
 71
     3
 72
     8
 73
     4
 74
     0
 42
0.00000001
 43
0.00000001
 40
0.0
 40
0.0
 40
0.0
 40
0.0
 40
1.0
 40
1.0
 40
1.0
 40
1.0
 10
118.3068771622663
 20
135.5832301427202
 30
0.0
 10
117.8117371329019
 20
134.6965504945399
 30
0.0
 10
117.317654427623
 20
133.8092878588539
 30
0.0
 10
116.8249443307772
 20
132.9212688607275
 30
0.0
  0
LINE
  5
AF
330
1F
100
AcDbEntity
  8
0
  6
Continuous
 62
     7
370
    15
100
AcDbLine
 10
116.8249443308
 20
126.1661783371
 30
0.0
 11
116.8249443308
 21
132.9212688607
 31
0.0
  0
SPLINE
  5
B0
330
1F
100
AcDbEntity
  8
0
  6
Continuous
 62
     7
370
    15
100
AcDbSpline
210
0.0
220
0.0
230
1.0
 70
     8
 71
     3
 72
     8
 73
     4
 74
     0
 42
0.00000001
 43
0.00000001
 40
0.0
 40
0.0
 40
0.0
 40
0.0
 40
1.0
 40
1.0
 40
1.0
 40
1.0
 10
113.0049443307772
 20
132.9212688607275
 30
0.0
 10
112.5122342339315
 20
133.8092878588539
 30
0.0
 10
112.0181515286525
 20
134.6965504945399
 30
0.0
 10
111.5230114992881
 20
135.5832301427202
 30
0.0
  0
SPLINE
  5
B1
330
1F
100
AcDbEntity
  8
0
  6
Continuous
 62
     7
370
    15
100
AcDbSpline
210
0.0
220
0.0
230
1.0
 70
     8
 71
     3
 72
     8
 73
     4
 74
     0
 42
0.00000001
 43
0.00000001
 40
0.0
 40
0.0
 40
0.0
 40
0.0
 40
1.0
 40
1.0
 40
1.0
 40
1.0
 10
111.5230114992881
 20
129.5747243319234
 30
0.0
 10
112.0300983410474
 20
128.4435739777597
 30
0.0
 10
112.5256661801873
 20
127.3071895669919
 30
0.0
 10
113.0049443307772
 20
126.1661783371393
 30
0.0
  0
LINE
  5
B2
330
1F
100
AcDbEntity
  8
0
  6
Continuous
 62
     7
370
    15
100
AcDbLine
 10
113.0049443308
 20
126.1661783371
 30
0.0
 11
113.0049443308
 21
132.9212688607
 31
0.0
  0
SPLINE
  5
B3
330
1F
100
AcDbEntity
  8
0
  6
Continuous
 62
     7
370
    15
100
AcDbSpline
210
0.0
220
0.0
230
1.0
 70
     8
 71
     3
 72
    10
 73
     6
 74
     0
 42
0.00000001
 43
0.00000001
 40
0.0
 40
0.0
 40
0.0
 40
0.0
 40
0.5
 40
0.5
 40
1.0
 40
1.0
 40
1.0
 40
1.0
 10
122.8649443307772
 20
134.9624749933198
 30
0.0
 10
122.8649443307772
 20
135.1228802596706
 30
0.0
 10
122.8027064996704
 20
135.2819420726592
 30
0.0
 10
122.5835715759278
 20
135.5128545382895
 30
0.0
 10
122.4259828809359
 20
135.5832301427202
 30
0.0
 10
122.2649443307772
 20
135.5832301427202
 30
0.0
  0
LINE
  5
B4
330
1F
100
AcDbEntity
  8
0
  6
Continuous
 62
     7
370
    15
100
AcDbLine
 10
122.8649443308
 20
128.7969869308
 30
0.0
 11
122.8649443308
 21
134.9624749933
 31
0.0
  0
LINE
  5
B5
330
1F
100
AcDbEntity
  8
0
  6
Continuous
 62
     7
370
    15
100
AcDbLine
 10
113.0049443308
 20
126.1661783371
 30
0.0
 11
113.0049443308
 21
125.251901301
 31
0.0
  0
ARC
  5
B6
330
1F
100
AcDbEntity
  8
0
  6
Continuous
 62
     7
370
    15
100
AcDbCircle
 10
104.9148936365
 20
123.8546319955
 30
0.0
 40
7.218013502892389
100
AcDbArc
 50
70.6963021116
 51
109.2888198142
  0
LINE
  5
B7
330
1F
100
AcDbEntity
  8
0
  6
Continuous
 62
     7
370
    15
100
AcDbLine
 10
188.7963301223
 20
91.6160346696
 30
0.0
 11
188.7963301223
 21
118.6160346696
 31
0.0
  0
LINE
  5
B8
330
1F
100
AcDbEntity
  8
0
  6
Continuous
 62
     7
370
    15
100
AcDbLine
 10
156.5465277986
 20
118.4370386724
 30
0.0
 11
156.8076574192
 21
118.4082955238
 31
0.0
  0
SPLINE
  5
B9
330
1F
100
AcDbEntity
  8
0
  6
Continuous
 62
     7
370
    15
100
AcDbSpline
210
0.0
220
0.0
230
1.0
 70
     8
 71
     3
 72
    27
 73
    23
 74
     0
 42
0.00000001
 43
0.00000001
 40
0.0
 40
0.0
 40
0.0
 40
0.0
 40
0.0066324463199048
 40
0.0503257898579116
 40
0.0895616574519562
 40
0.1297896901112754
 40
0.1721019713339674
 40
0.2153307034058526
 40
0.264575739997883
 40
0.3148755333188339
 40
0.3723282392559413
 40
0.4311526801535396
 40
0.494422587448362
 40
0.5594219556735502
 40
0.6244813071159886
 40
0.6915121987255471
 40
0.7548529546570374
 40
0.8205145121820749
 40
0.8653933692977778
 40
0.9114808892919185
 40
0.9564119844006921
 40
1.0
 40
1.0
 40
1.0
 40
1.0
 10
162.3599262950148
 20
118.6151394213893
 30
0.0
 10
162.3615264091979
 20
118.6154248665767
 30
0.0
 10
162.3736677830201
 20
118.617590772462
 30
0.0
 10
162.3220932076309
 20
118.6083501107054
 30
0.0
 10
162.207883960602
 20
118.5883387972536
 30
0.0
 10
162.029018732945
 20
118.5581446175582
 30
0.0
 10
161.790942613593
 20
118.5202681977883
 30
0.0
 10
161.4842057588457
 20
118.4753623428953
 30
0.0
 10
161.1116309064535
 20
118.4269294413936
 30
0.0
 10
160.6580075356328
 20
118.3773501997764
 30
0.0
 10
160.1384855706791
 20
118.3336077403966
 30
0.0
 10
159.5488762828201
 20
118.3016040671405
 30
0.0
 10
158.9169956019732
 20
118.2883813352396
 30
0.0
 10
158.2624807701366
 20
118.2982386602378
 30
0.0
 10
157.6120017550945
 20
118.331347199458
 30
0.0
 10
157.0025439325801
 20
118.3832619894799
 30
0.0
 10
156.4475356891156
 20
118.447289226676
 30
0.0
 10
156.0246761343197
 20
118.5069237638176
 30
0.0
 10
155.7178478545044
 20
118.555283678909
 30
0.0
 10
155.5178882757971
 20
118.5889869820191
 30
0.0
 10
155.388052151368
 20
118.6118783938322
 30
0.0
 10
155.3744210914158
 20
118.6143334529883
 30
0.0
 10
155.3677089718625
 20
118.6155423575507
 30
0.0
  0
SPLINE
  5
BA
330
1F
100
AcDbEntity
  8
0
  6
Continuous
 62
     7
370
    15
100
AcDbSpline
210
0.0
220
0.0
230
1.0
 70
     8
 71
     3
 72
    58
 73
    54
 74
     0
 42
0.00000001
 43
0.00000001
 40
-0.0312499999999997
 40
-0.0312499999999997
 40
0.0
 40
0.0
 40
0.0625000000000012
 40
0.0625000000000012
 40
0.1250000000000025
 40
0.1250000000000025
 40
0.1875000000000037
 40
0.1875000000000037
 40
0.2500000000000049
 40
0.2500000000000049
 40
0.2812500000000048
 40
0.2812500000000048
 40
0.3125000000000046
 40
0.3125000000000046
 40
0.3437500000000044
 40
0.3437500000000044
 40
0.3750000000000042
 40
0.3750000000000042
 40
0.4062500000000041
 40
0.4062500000000041
 40
0.4375000000000039
 40
0.4375000000000039
 40
0.4687500000000037
 40
0.4687500000000037
 40
0.5000000000000036
 40
0.5000000000000036
 40
0.5625000000000032
 40
0.5625000000000032
 40
0.5937500000000041
 40
0.5937500000000041
 40
0.6250000000000039
 40
0.6250000000000039
 40
0.6562500000000038
 40
0.6562500000000038
 40
0.6875000000000036
 40
0.6875000000000036
 40
0.7500000000000022
 40
0.7500000000000022
 40
0.781250000000002
 40
0.781250000000002
 40
0.8125000000000018
 40
0.8125000000000018
 40
0.8437500000000014
 40
0.8437500000000014
 40
0.8750000000000012
 40
0.8750000000000012
 40
0.9062500000000009
 40
0.9062500000000009
 40
0.9375000000000007
 40
0.9375000000000007
 40
0.9687500000000003
 40
0.9687500000000003
 40
1.0
 40
1.0
 40
1.062500000000001
 40
1.062500000000001
 10
156.376809485703
 20
107.1801864834564
 30
0.0
 10
156.8859644277722
 20
107.560985272566
 30
0.0
 10
157.2615016144018
 20
107.7475453282965
 30
0.0
 10
158.071257634191
 20
107.9999918187705
 30
0.0
 10
158.4886008689924
 20
108.0598832133938
 30
0.0
 10
159.3375502409712
 20
108.0498542803329
 30
0.0
 10
159.7509133444294
 20
107.9806973898989
 30
0.0
 10
160.5547319978353
 20
107.7087958968864
 30
0.0
 10
160.9240048387942
 20
107.5135648375107
 30
0.0
 10
161.4208741632327
 20
107.1210008362664
 30
0.0
 10
161.5740006718391
 20
106.974850955632
 30
0.0
 10
161.8458582193254
 20
106.6562978441935
 30
0.0
 10
161.9671101093881
 20
106.4804536443063
 30
0.0
 10
162.1644266257107
 20
106.1080083854687
 30
0.0
 10
162.2403142016119
 20
105.9132314600845
 30
0.0
 10
162.3425359532072
 20
105.5049611612393
 30
0.0
 10
162.3678177882736
 20
105.2902880943914
 30
0.0
 10
162.3615316176808
 20
104.8696020634577
 30
0.0
 10
162.3302573619976
 20
104.657244800745
 30
0.0
 10
162.2155628977031
 20
104.2493581880747
 30
0.0
 10
162.1334899938581
 20
104.0551958061918
 30
0.0
 10
161.9237043716475
 20
103.684819196853
 30
0.0
 10
161.7993991927245
 20
103.5146343593404
 30
0.0
 10
161.517768375164
 20
103.2010738978099
 30
0.0
 10
161.3596145678333
 20
103.0575849084808
 30
0.0
 10
160.8558608085767
 20
102.678442129813
 30
0.0
 10
160.4712973251302
 20
102.4861997251221
 30
0.0
 10
159.8693463562907
 20
102.2973943692326
 30
0.0
 10
159.6618394452379
 20
102.2501199414174
 30
0.0
 10
159.2420999349103
 20
102.1888432145476
 30
0.0
 10
159.0320198451264
 20
102.1749153714879
 30
0.0
 10
158.6114520529514
 20
102.1793754515566
 30
0.0
 10
158.3998428784433
 20
102.1979590123122
 30
0.0
 10
157.9811678105182
 20
102.2684863154453
 30
0.0
 10
157.7772890315282
 20
102.319698306747
 30
0.0
 10
157.1817917191186
 20
102.5208233880353
 30
0.0
 10
156.8006925847332
 20
102.7223921903507
 30
0.0
 10
156.309999098024
 20
103.1103980116172
 30
0.0
 10
156.1583456359133
 20
103.2544376018385
 30
0.0
 10
155.8827721132587
 20
103.5771473888319
 30
0.0
 10
155.7628391576993
 20
103.751540861362
 30
0.0
 10
155.5656259832872
 20
104.1237119766083
 30
0.0
 10
155.4874475427336
 20
104.3250390202828
 30
0.0
 10
155.3862402348307
 20
104.7339192474983
 30
0.0
 10
155.3616154388085
 20
104.9435244535662
 30
0.0
 10
155.3689894148891
 20
105.3717264099965
 30
0.0
 10
155.4007293115731
 20
105.5805312248475
 30
0.0
 10
155.5164196931153
 20
105.9883053030988
 30
0.0
 10
155.6008249615194
 20
106.1859389454623
 30
0.0
 10
155.8099056799364
 20
106.5525196134658
 30
0.0
 10
155.9368288504804
 20
106.7255329025721
 30
0.0
 10
156.2198073373027
 20
107.0384612163016
 30
0.0
 10
156.376809485703
 20
107.1801864834564
 30
0.0
 10
156.8859644277722
 20
107.560985272566
 30
0.0
  0
LINE
  5
BB
330
1F
100
AcDbEntity
  8
0
  6
Continuous
 62
     7
370
    15
100
AcDbLine
 10
156.5465277989
 20
91.7950306667
 30
0.0
 11
156.4702991743
 21
91.784898155
 31
0.0
  0
SPLINE
  5
BC
330
1F
100
AcDbEntity
  8
0
  6
Continuous
 62
     7
370
    15
100
AcDbSpline
210
0.0
220
0.0
230
1.0
 70
     8
 71
     3
 72
    27
 73
    23
 74
     0
 42
0.00000001
 43
0.00000001
 40
0.0
 40
0.0
 40
0.0
 40
0.0
 40
0.0262582291798484
 40
0.0656182729654226
 40
0.1060502771061856
 40
0.1469534708778859
 40
0.1887696942066964
 40
0.2356878247278944
 40
0.283599949604172
 40
0.3386998708622893
 40
0.3950627714065692
 40
0.4570402614341036
 40
0.520652457717768
 40
0.5855409720278292
 40
0.652332497837776
 40
0.7166458132954441
 40
0.7831561530587439
 40
0.8310029358319977
 40
0.8801293960106613
 40
0.9280395577194698
 40
0.9778152120606914
 40
1.0
 40
1.0
 40
1.0
 40
1.0
 10
155.3750120755234
 20
91.61783337164897
 30
0.0
 10
155.3738486038934
 20
91.61762688308539
 30
0.0
 10
155.3709411344489
 20
91.61711087635713
 30
0.0
 10
155.4480168322238
 20
91.63083462575597
 30
0.0
 10
155.5869801776111
 20
91.65487064781183
 30
0.0
 10
155.7902936151748
 20
91.68845409507442
 30
0.0
 10
156.0564236769833
 20
91.72952935703653
 30
0.0
 10
156.3870421832467
 20
91.77588358467547
 30
0.0
 10
156.7960686711778
 20
91.82581278222018
 30
0.0
 10
157.2727317973701
 20
91.87333291946608
 30
0.0
 10
157.8265735583413
 20
91.91345872056652
 30
0.0
 10
158.4328113764126
 20
91.93843286777695
 30
0.0
 10
159.07876965522
 20
91.94251016130119
 30
0.0
 10
159.7353964343024
 20
91.92303889182126
 30
0.0
 10
160.3701858367168
 20
91.88159454071518
 30
0.0
 10
160.9657013013588
 20
91.82329941872374
 30
0.0
 10
161.4453717149935
 20
91.76252117401218
 30
0.0
 10
161.8163981996793
 20
91.70805291418372
 30
0.0
 10
162.0834452108673
 20
91.66500289217583
 30
0.0
 10
162.2708408980688
 20
91.63283503872435
 30
0.0
 10
162.3618235683156
 20
91.61659355478557
 30
0.0
 10
162.3573010717362
 20
91.6174008784667
 30
0.0
 10
162.3559068247806
 20
91.61764976944201
 30
0.0
  0
LINE
  5
BD
330
1F
100
AcDbEntity
  8
0
  6
Continuous
 62
     7
370
    15
100
AcDbLine
 10
156.7223701719
 20
91.8153911086
 30
0.0
 11
156.5465277989
 21
91.7950306667
 31
0.0
  0
CIRCLE
  5
BE
330
1F
100
AcDbEntity
  8
0
  6
Continuous
 62
     7
370
    15
100
AcDbCircle
 10
158.8649443308
 20
105.1160346696
 30
0.0
 40
2.5
  0
LINE
  5
BF
330
1F
100
AcDbEntity
  8
0
  6
Continuous
 62
     7
370
    15
100
AcDbLine
 10
226.9149443308
 20
96.4648156529
 30
0.0
 11
226.9149443308
 21
113.7672536862
 31
0.0
  0
LINE
  5
C0
330
1F
100
AcDbEntity
  8
0
  6
Continuous
 62
     7
370
    15
100
AcDbLine
 10
226.9149443308
 20
99.3666133385
 30
0.0
 11
226.9922665379
 21
97.3986317516
 31
0.0
  0
LINE
  5
C1
330
1F
100
AcDbEntity
  8
0
  6
Continuous
 62
     7
370
    15
100
AcDbLine
 10
226.9922665379
 20
112.8334375875
 30
0.0
 11
226.9149443308
 21
110.8654560006
 31
0.0
  0
LINE
  5
C2
330
1F
100
AcDbEntity
  8
0
  6
HIDDEN
 62
     7
370
     0
100
AcDbLine
 10
111.5230114993
 20
129.5747243319
 30
0.0
 11
111.5230114993
 21
124.9660346696
 31
0.0
  0
ARC
  5
C3
330
1F
100
AcDbEntity
  8
0
  6
HIDDEN
 62
     7
370
     0
100
AcDbCircle
 10
105.215796918
 20
117.5971736203
 30
0.0
 40
3.663598221972774
100
AcDbArc
 50
265.2895990822
 51
12.123397413
  0
ARC
  5
C4
330
1F
100
AcDbEntity
  8
0
  6
HIDDEN
 62
     7
370
     0
100
AcDbCircle
 10
104.6340243794
 20
117.6108962965
 30
0.0
 40
3.675697637757465
100
AcDbArc
 50
167.0705505165
 51
274.3831782294
  0
LINE
  5
C5
330
1F
100
AcDbEntity
  8
0
  6
HIDDEN
 62
     7
370
     0
100
AcDbLine
 10
84.9101090416
 20
81.5914360666
 30
0.0
 11
84.3760358694
 21
81.5368291285
 31
0.0
  0
LINE
  5
C6
330
1F
100
AcDbEntity
  8
0
  6
HIDDEN
 62
     7
370
     0
100
AcDbLine
 10
84.137919596
 20
128.71940627
 30
0.0
 11
84.9100163219
 21
128.6406166796
 31
0.0
  0
SPLINE
  5
C7
330
1F
100
AcDbEntity
  8
0
  6
HIDDEN
 62
     7
370
     0
100
AcDbSpline
210
0.0
220
0.0
230
1.0
 70
     8
 71
     3
 72
    22
 73
    18
 74
     0
 42
0.00000001
 43
0.00000001
 40
0.0
 40
0.0
 40
0.0
 40
0.0
 40
0.0694705033055671
 40
0.1409377255045836
 40
0.2104135489148409
 40
0.2819466223559928
 40
0.3506518733998511
 40
0.4213897814436842
 40
0.4894670043894696
 40
0.5594810940348489
 40
0.6282706827033763
 40
0.6989997382187422
 40
0.7687375408512294
 40
0.8405098102584769
 40
0.9099666189318132
 40
0.9814998892127892
 40
0.9999999999999999
 40
0.9999999999999999
 40
0.9999999999999999
 40
0.9999999999999999
 10
90.6699463323788
 20
85.27850619373946
 30
0.0
 10
90.52177247791944
 20
85.29823253354877
 30
0.0
 10
90.22116596100832
 20
85.33825218696956
 30
0.0
 10
89.68627109832755
 20
85.39362585049942
 30
0.0
 10
89.10063254565881
 20
85.43808223562723
 30
0.0
 10
88.48639988608545
 20
85.4657672110794
 30
0.0
 10
87.8524832407172
 20
85.47402046454924
 30
0.0
 10
87.2303345401454
 20
85.46204040966879
 30
0.0
 10
86.62433707028475
 20
85.43128965590782
 30
0.0
 10
86.05984814915826
 20
85.3858236851576
 30
0.0
 10
85.54047191157659
 20
85.32974253335804
 30
0.0
 10
85.08760641389513
 20
85.26975237103962
 30
0.0
 10
84.70889127022947
 20
85.2117724566807
 30
0.0
 10
84.42080614915436
 20
85.1628536485342
 30
0.0
 10
84.23834825260174
 20
85.12981828600844
 30
0.0
 10
84.15769030126766
 20
85.11467848975279
 30
0.0
 10
84.17198017996652
 20
85.11735044312582
 30
0.0
 10
84.1749164724386
 20
85.1178994776376
 30
0.0
  0
SPLINE
  5
C8
330
1F
100
AcDbEntity
  8
0
  6
HIDDEN
 62
     7
370
     0
100
AcDbSpline
210
0.0
220
0.0
230
1.0
 70
     8
 71
     3
 72
    22
 73
    18
 74
     0
 42
0.00000001
 43
0.00000001
 40
0.0
 40
0.0
 40
0.0
 40
0.0
 40
0.0499040281125873
 40
0.1203075863893531
 40
0.1885125365560117
 40
0.2586444168297174
 40
0.327783940729314
 40
0.3988873214655083
 40
0.468696948893032
 40
0.5405663748364735
 40
0.6097087891222992
 40
0.6809159691092479
 40
0.7490773369981689
 40
0.8192056085539672
 40
0.8876078379088229
 40
0.9579332867310401
 40
1.0
 40
1.0
 40
1.0
 40
1.0
 10
84.1749164724386
 20
125.1141698614743
 30
0.0
 10
84.17616740646409
 20
125.1139308310785
 30
0.0
 10
84.17918313202838
 20
125.1133545816038
 30
0.0
 10
84.30407645908188
 20
125.0901565467803
 30
0.0
 10
84.52855828695947
 20
125.0504765104627
 30
0.0
 10
84.84758644913697
 20
124.9982650890635
 30
0.0
 10
85.25512168013363
 20
124.9389352773913
 30
0.0
 10
85.7369082339666
 20
124.8794605008753
 30
0.0
 10
86.28732791576185
 20
124.8258541445133
 30
0.0
 10
86.88022280171009
 20
124.7853802260389
 30
0.0
 10
87.50717537202728
 20
124.7621809776726
 30
0.0
 10
88.1353863458553
 20
124.7592028744577
 30
0.0
 10
88.75964643833233
 20
124.776337200157
 30
0.0
 10
89.35226472816062
 20
124.8110230558471
 30
0.0
 10
89.90909081168877
 20
124.8599794195109
 30
0.0
 10
90.34689765632164
 20
124.909879584134
 30
0.0
 10
90.58196436309457
 20
124.9416659731258
 30
0.0
 10
90.6699463323788
 20
124.9535631453724
 30
0.0
  0
SPLINE
  5
C9
330
1F
100
AcDbEntity
  8
0
  6
HIDDEN
 62
     7
370
     0
100
AcDbSpline
210
0.0
220
0.0
230
1.0
 70
     8
 71
     3
 72
    12
 73
     8
 74
     0
 42
0.00000001
 43
0.00000001
 40
0.0
 40
0.0
 40
0.0
 40
0.0
 40
0.2208160583558
 40
0.4480844670453927
 40
0.6689349024502981
 40
0.8961259177337629
 40
1.0
 40
1.0
 40
1.0
 40
1.0
 10
90.6699463323788
 20
124.9535631453724
 30
0.0
 10
90.80198955537466
 20
124.9706202336955
 30
0.0
 10
91.06993436719503
 20
125.0052328265816
 30
0.0
 10
91.36509023038604
 20
125.032204756545
 30
0.0
 10
91.5661833864202
 20
125.0477145422161
 30
0.0
 10
91.6635161412011
 20
125.0538238492102
 30
0.0
 10
91.65485659198688
 20
125.0532785366631
 30
0.0
 10
91.65213959543811
 20
125.0531074408853
 30
0.0
  0
SPLINE
  5
CA
330
1F
100
AcDbEntity
  8
0
  6
HIDDEN
 62
     7
370
     0
100
AcDbSpline
210
0.0
220
0.0
230
1.0
 70
     8
 71
     3
 72
    12
 73
     8
 74
     0
 42
0.00000001
 43
0.00000001
 40
0.0
 40
0.0
 40
0.0
 40
0.0
 40
0.1180987029940792
 40
0.346491363338398
 40
0.5687543233211976
 40
0.7975153918477764
 40
1.0
 40
1.0
 40
1.0
 40
1.0
 10
91.65213966682705
 20
85.17896189367671
 30
0.0
 10
91.65426227551926
 20
85.17882787333845
 30
0.0
 10
91.66048982553419
 20
85.17843466927657
 30
0.0
 10
91.55582528167616
 20
85.18505791129502
 30
0.0
 10
91.34585171114666
 20
85.201462287668
 30
0.0
 10
91.05039322678081
 20
85.22906400017101
 30
0.0
 10
90.79150378699258
 20
85.26270880574882
 30
0.0
 10
90.6699463323788
 20
85.27850619373946
 30
0.0
  0
LINE
  5
CB
330
1F
100
AcDbEntity
  8
0
  6
HIDDEN
 62
     7
370
     0
100
AcDbLine
 10
77.918918927
 20
88.1160346696
 30
0.0
 11
77.918918927
 21
122.1160346696
 31
0.0
  0
LWPOLYLINE
  5
CC
330
1F
100
AcDbEntity
  8
0
  6
HIDDEN
 62
     7
370
     0
100
AcDbPolyline
 90
       13
 70
   128
 43
0.0
 10
104.9149443308
 20
127.0616370842
 10
105.7748260916
 20
127.1083959728
 10
106.594500737
 20
127.2464862449
 10
107.3356411916
 20
127.4694509528
 10
107.9635925513
 20
127.7668645146
 10
108.4489925086
 20
128.1248202028
 10
108.7691443009
 20
128.5265804071
 10
108.9090779862
 20
128.953359267
 10
108.8622504209
 20
129.3852010773
 10
108.63085121
 20
129.8019133949
 10
108.2257003234
 20
130.1840112149
 10
107.6657421662
 20
130.513628068
 10
107.3009906535
 20
130.6668460227
  0
LWPOLYLINE
  5
CD
330
1F
100
AcDbEntity
  8
0
  6
HIDDEN
 62
     7
370
     0
100
AcDbPolyline
 90
       13
 70
   128
 43
0.0
 10
102.530565637
 20
130.6674653942
 10
102.1641464954
 20
130.513628068
 10
101.6041883381
 20
130.1840112149
 10
101.1990374515
 20
129.8019133949
 10
100.9676382406
 20
129.3852010773
 10
100.9208106754
 20
128.953359267
 10
101.0607443607
 20
128.5265804071
 10
101.380896153
 20
128.1248202028
 10
101.8662961103
 20
127.7668645146
 10
102.49424747
 20
127.4694509528
 10
103.2353879245
 20
127.2464862449
 10
104.0550625699
 20
127.1083959728
 10
104.9149443308
 20
127.0616370842
  0
LINE
  5
CE
330
1F
100
AcDbEntity
  8
0
  6
HIDDEN
 62
     7
370
     0
100
AcDbLine
 10
104.5747702993
 20
88.1160346696
 30
0.0
 11
104.5747702993
 21
122.1160346696
 31
0.0
  0
LINE
  5
CF
330
1F
100
AcDbEntity
  8
0
  6
HIDDEN
 62
     7
370
     0
100
AcDbLine
 10
106.8649443308
 20
89.3910346696
 30
0.0
 11
106.8649443308
 21
120.8410346686
 31
0.0
  0
SPLINE
  5
D0
330
1F
100
AcDbEntity
  8
0
  6
HIDDEN
 62
     7
370
     0
100
AcDbSpline
210
0.0
220
0.0
230
1.0
 70
     8
 71
     3
 72
    18
 73
    14
 74
     0
 42
0.00000001
 43
0.00000001
 40
0.0
 40
0.0
 40
0.0
 40
0.0
 40
0.2500000000000033
 40
0.2500000000000033
 40
0.3750000000000029
 40
0.3750000000000029
 40
0.5000000000000026
 40
0.5000000000000026
 40
0.6250000000000022
 40
0.6250000000000022
 40
0.7500000000000018
 40
0.7500000000000018
 40
1.0
 40
1.0
 40
1.0
 40
1.0
 10
71.11494433077719
 20
121.40354829196
 30
0.0
 10
71.11494433077719
 20
121.3490737714079
 30
0.0
 10
71.08003363938504
 20
121.2926927120554
 30
0.0
 10
70.97802433805198
 20
121.2086158712019
 30
0.0
 10
70.93638798337388
 20
121.181282167211
 30
0.0
 10
70.83798218788512
 20
121.128328251612
 30
0.0
 10
70.78043897618083
 20
121.1024408978948
 30
0.0
 10
70.65314080260788
 20
121.0546633530615
 30
0.0
 10
70.58355349785042
 20
121.0327154348837
 30
0.0
 10
70.43211925269546
 20
120.993282869971
 30
0.0
 10
70.34943534960152
 20
120.9757266207451
 30
0.0
 10
70.09332388756347
 20
120.9332878553246
 30
0.0
 10
69.90540888367548
 20
120.9175251055876
 30
0.0
 10
69.7149443307772
 20
120.9175251055876
 30
0.0
  0
LINE
  5
D1
330
1F
100
AcDbEntity
  8
0
  6
HIDDEN
 62
     7
370
     0
100
AcDbLine
 10
69.7149443308
 20
120.9175251056
 30
0.0
 11
66.1649443308
 21
120.9175251056
 31
0.0
  0
LINE
  5
D2
330
1F
100
AcDbEntity
  8
0
  6
HIDDEN
 62
     7
370
     0
100
AcDbLine
 10
66.1649443308
 20
89.3145442335
 30
0.0
 11
73.7149443308
 21
89.3145442335
 31
0.0
  0
SPLINE
  5
D3
330
1F
100
AcDbEntity
  8
0
  6
HIDDEN
 62
     7
370
     0
100
AcDbSpline
210
0.0
220
0.0
230
1.0
 70
     8
 71
     3
 72
    16
 73
    12
 74
     0
 42
0.00000001
 43
0.00000001
 40
0.0
 40
0.0
 40
0.0
 40
0.0
 40
0.124999999999998
 40
0.124999999999998
 40
0.249999999999996
 40
0.249999999999996
 40
0.4999999999999973
 40
0.4999999999999973
 40
0.7499999999999987
 40
0.7499999999999987
 40
1.0
 40
1.0
 40
1.0
 40
1.0
 10
73.7149443307772
 20
89.31454423352426
 30
0.0
 10
73.81006608544303
 20
89.31454423352426
 30
0.0
 10
73.9033961541711
 20
89.31072840013147
 30
0.0
 10
74.08665791490911
 20
89.29595784740165
 30
0.0
 10
74.17753563046611
 20
89.28479979942608
 30
0.0
 10
74.43433732798584
 20
89.24232852928435
 30
0.0
 10
74.58940469285785
 20
89.20128233208155
 30
0.0
 10
74.84315115441247
 20
89.10613621549966
 30
0.0
 10
74.94402160608033
 20
89.05137348141808
 30
0.0
 10
75.07926802077516
 20
88.9401123575142
 30
0.0
 10
75.1149443307772
 20
88.88294262018552
 30
0.0
 10
75.1149443307772
 20
88.82852104715181
 30
0.0
  0
LINE
  5
D4
330
1F
100
AcDbEntity
  8
0
  6
HIDDEN
 62
     7
370
     0
100
AcDbLine
 10
66.1649443308
 20
89.3145442335
 30
0.0
 11
66.1649443308
 21
120.9175251056
 31
0.0
  0
LINE
  5
D5
330
1F
100
AcDbEntity
  8
0
  6
HIDDEN
 62
     7
370
     0
100
AcDbLine
 10
66.1649443308
 20
87.1260346696
 30
0.0
 11
66.1649443308
 21
84.2460969042
 31
0.0
  0
LINE
  5
D6
330
1F
100
AcDbEntity
  8
0
  6
HIDDEN
 62
     7
370
     0
100
AcDbLine
 10
75.1149443308
 20
87.1260346696
 30
0.0
 11
75.1149443308
 21
83.1522971384
 31
0.0
  0
LINE
  5
D7
330
1F
100
AcDbEntity
  8
0
  6
HIDDEN
 62
     7
370
     0
100
AcDbLine
 10
66.1649443308
 20
123.1060346696
 30
0.0
 11
66.1649443308
 21
125.985972435
 31
0.0
  0
LINE
  5
D8
330
1F
100
AcDbEntity
  8
0
  6
HIDDEN
 62
     7
370
     0
100
AcDbLine
 10
71.1149443308
 20
123.1060346696
 30
0.0
 11
71.1149443308
 21
126.9601423419
 31
0.0
  0
LINE
  5
D9
330
1F
100
AcDbEntity
  8
0
  6
HIDDEN
 62
     7
370
     0
100
AcDbLine
 10
116.2149443308
 20
95.6160346696
 30
0.0
 11
116.2149443308
 21
114.6160346696
 31
0.0
  0
LINE
  5
DA
330
1F
100
AcDbEntity
  8
0
  6
HIDDEN
 62
     7
370
     0
100
AcDbLine
 10
118.7149443308
 20
95.6160346696
 30
0.0
 11
118.7149443308
 21
114.6160346696
 31
0.0
  0
LINE
  5
DB
330
1F
100
AcDbEntity
  8
0
  6
HIDDEN
 62
     7
370
     0
100
AcDbLine
 10
107.3649443308
 20
96.6160346696
 30
0.0
 11
107.3649443308
 21
113.6160346696
 31
0.0
  0
LINE
  5
DC
330
1F
100
AcDbEntity
  8
0
  6
HIDDEN
 62
     7
370
     0
100
AcDbLine
 10
101.8649443308
 20
73.6319116867
 30
0.0
 11
101.8649443308
 21
78.7160346696
 31
0.0
  0
LINE
  5
DD
330
1F
100
AcDbEntity
  8
0
  6
HIDDEN
 62
     7
370
     0
100
AcDbLine
 10
109.8649443308
 20
78.7160346696
 30
0.0
 11
101.8649443308
 21
78.7160346696
 31
0.0
  0
LINE
  5
DE
330
1F
100
AcDbEntity
  8
0
  6
HIDDEN
 62
     7
370
     0
100
AcDbLine
 10
122.8649443308
 20
78.7160346696
 30
0.0
 11
116.7272695284
 21
78.7160346696
 31
0.0
  0
LINE
  5
DF
330
1F
100
AcDbEntity
  8
0
  6
HIDDEN
 62
     7
370
     0
100
AcDbLine
 10
113.1026191331
 20
78.7160346696
 30
0.0
 11
109.8649443308
 21
78.7160346696
 31
0.0
  0
LINE
  5
E0
330
1F
100
AcDbEntity
  8
0
  6
HIDDEN
 62
     7
370
     0
100
AcDbLine
 10
109.8649443308
 20
131.5160346696
 30
0.0
 11
101.8649443308
 21
131.5160346696
 31
0.0
  0
LINE
  5
E1
330
1F
100
AcDbEntity
  8
0
  6
HIDDEN
 62
     7
370
     0
100
AcDbLine
 10
122.8649443308
 20
131.5160346696
 30
0.0
 11
116.4306467991
 21
131.5160346696
 31
0.0
  0
LINE
  5
E2
330
1F
100
AcDbEntity
  8
0
  6
HIDDEN
 62
     7
370
     0
100
AcDbLine
 10
113.3992418625
 20
131.5160346696
 30
0.0
 11
109.8649443308
 21
131.5160346696
 31
0.0
  0
ELLIPSE
  5
E3
330
1F
100
AcDbEntity
  8
0
  6
HIDDEN
 62
     7
370
     0
100
AcDbEllipse
 10
60.8475124664
 20
105.1160346696
 30
0.0
 11
20.07002071827083
 21
-1.421085471520200E-14
 31
0.0
210
0.0
220
0.0
230
1.0
 40
0.8164965809
 41
4.921555463185716
 42
4.980534842098416
  0
ELLIPSE
  5
E4
330
1F
100
AcDbEntity
  8
0
  6
HIDDEN
 62
     7
370
     0
100
AcDbEllipse
 10
60.8475124664
 20
105.1160346696
 30
0.0
 11
20.07002071827082
 21
-1.421085471520200E-14
 31
0.0
210
0.0
220
0.0
230
1.0
 40
0.8164965809
 41
1.302650465081183
 42
1.361629843993883
  0
LINE
  5
E5
330
1F
100
AcDbEntity
  8
0
  6
HIDDEN
 62
     7
370
     0
100
AcDbLine
 10
66.1649443308
 20
87.1260346696
 30
0.0
 11
66.1649443308
 21
89.3145442335
 31
0.0
  0
LINE
  5
E6
330
1F
100
AcDbEntity
  8
0
  6
HIDDEN
 62
     7
370
     0
100
AcDbLine
 10
75.1149443308
 20
87.1260346696
 30
0.0
 11
75.1149443308
 21
88.8285210472
 31
0.0
  0
LINE
  5
E7
330
1F
100
AcDbEntity
  8
0
  6
HIDDEN
 62
     7
370
     0
100
AcDbLine
 10
66.1649443308
 20
123.1060346696
 30
0.0
 11
66.1649443308
 21
120.9175251056
 31
0.0
  0
LINE
  5
E8
330
1F
100
AcDbEntity
  8
0
  6
HIDDEN
 62
     7
370
     0
100
AcDbLine
 10
71.1149443308
 20
123.1060346696
 30
0.0
 11
71.1149443308
 21
121.403548292
 31
0.0
  0
LINE
  5
E9
330
1F
100
AcDbEntity
  8
0
  6
HIDDEN
 62
     7
370
     0
100
AcDbLine
 10
223.4149443308
 20
101.1160346696
 30
0.0
 11
223.4149443308
 21
109.1160346696
 31
0.0
  0
SPLINE
  5
EA
330
1F
100
AcDbEntity
  8
0
  6
HIDDEN
 62
     7
370
     0
100
AcDbSpline
210
0.0
220
0.0
230
1.0
 70
     8
 71
     3
 72
    20
 73
    16
 74
     0
 42
0.00000001
 43
0.00000001
 40
0.0
 40
0.0
 40
0.0
 40
0.0
 40
0.1119603591875449
 40
0.1774778843251572
 40
0.2490974965417939
 40
0.3298431145084333
 40
0.3986132923288614
 40
0.4998904218696682
 40
0.6138518672981023
 40
0.6790158594749947
 40
0.7495403621024533
 40
0.8296834742296775
 40
0.8981249235998714
 40
0.999532775643777
 40
1.0
 40
1.0
 40
1.0
 40
1.0
 10
91.66378481667445
 20
81.51604053809282
 30
0.0
 10
91.62046034821292
 20
81.52947029431566
 30
0.0
 10
91.55178304976674
 20
81.5507589427152
 30
0.0
 10
91.10659816677688
 20
81.65407047963845
 30
0.0
 10
90.58003652222081
 20
81.76737397268566
 30
0.0
 10
89.89461017411746
 20
81.89030671890967
 30
0.0
 10
89.00129143822885
 20
82.01234086287725
 30
0.0
 10
87.88793033947529
 20
82.13007616562936
 30
0.0
 10
86.77715592487564
 20
82.14205066148917
 30
0.0
 10
85.89240941174835
 20
82.11499178574746
 30
0.0
 10
85.22521579084169
 20
82.06705952199204
 30
0.0
 10
84.68394706952539
 20
82.01076609443707
 30
0.0
 10
84.29637008597058
 20
81.9656834237347
 30
0.0
 10
84.10243572931586
 20
81.92681068984427
 30
0.0
 10
84.16553913289212
 20
81.93751689187
 30
0.0
 10
84.1658285407449
 20
81.93756599316667
 30
0.0
  0
LINE
  5
EB
330
1F
100
AcDbEntity
  8
0
  6
HIDDEN
 62
     7
370
     0
100
AcDbLine
 10
85.0749933804
 20
82.0483759784
 30
0.0
 11
85.258813948
 21
82.0665627526
 31
0.0
  0
LINE
  5
EC
330
1F
100
AcDbEntity
  8
0
  6
HIDDEN
 62
     7
370
     0
100
AcDbLine
 10
85.2588112496
 20
128.1654371554
 30
0.0
 11
85.0847794163
 21
128.1826424696
 31
0.0
  0
SPLINE
  5
ED
330
1F
100
AcDbEntity
  8
0
  6
HIDDEN
 62
     7
370
     0
100
AcDbSpline
210
0.0
220
0.0
230
1.0
 70
     8
 71
     3
 72
    20
 73
    16
 74
     0
 42
0.00000001
 43
0.00000001
 40
0.0
 40
0.0
 40
0.0
 40
0.0
 40
0.0004882116040886
 40
0.1018316989916489
 40
0.1702470788758169
 40
0.2503682642297437
 40
0.3209559819271918
 40
0.3861807840297647
 40
0.500254366191457
 40
0.6012236398607284
 40
0.669767174801346
 40
0.7502388875657732
 40
0.8220479536142423
 40
0.8877196206541487
 40
1.0
 40
1.0
 40
1.0
 40
1.0
 10
84.16586193767394
 20
128.2944367980835
 30
0.0
 10
84.16555876126402
 20
128.2944883062335
 30
0.0
 10
84.10232190114806
 20
128.3052319312995
 30
0.0
 10
84.29552376518441
 20
128.2663763822547
 30
0.0
 10
84.6824678407553
 20
128.2213531327479
 30
0.0
 10
85.22347097758836
 20
128.1650902559761
 30
0.0
 10
85.89096826335056
 20
128.1171588639671
 30
0.0
 10
86.77679432755411
 20
128.090084821829
 30
0.0
 10
87.88760122659356
 20
128.1019098186329
 30
0.0
 10
88.99967329415595
 20
128.2193578875742
 30
0.0
 10
89.89077493567949
 20
128.3410619597479
 30
0.0
 10
90.57626071749571
 20
128.4638828839358
 30
0.0
 10
91.10425198422617
 20
128.577321399384
 30
0.0
 10
91.55164169517549
 20
128.681062678933
 30
0.0
 10
91.6204532472045
 20
128.7024861467581
 30
0.0
 10
91.66387048978255
 20
128.7160034686612
 30
0.0
  0
ARC
  5
EE
330
1F
100
AcDbEntity
  8
0
  6
HIDDEN
 62
     7
370
     0
100
AcDbCircle
 10
192.4149504112
 20
113.5449750343
 30
0.0
 40
4.392963725608368
100
AcDbArc
 50
250.0380823121
 51
289.9654688926
  0
SPLINE
  5
EF
330
1F
100
AcDbEntity
  8
0
  6
HIDDEN
 62
     7
370
     0
100
AcDbSpline
210
0.0
220
0.0
230
1.0
 70
     8
 71
     3
 72
    27
 73
    23
 74
     0
 42
0.00000001
 43
0.00000001
 40
0.0
 40
0.0
 40
0.0
 40
0.0
 40
0.0507816103274931
 40
0.1030881979290501
 40
0.1538561257728955
 40
0.2060070907766583
 40
0.2585050423281224
 40
0.3124305571578471
 40
0.3665037503210729
 40
0.4222571586564714
 40
0.4743148081469598
 40
0.528047633806673
 40
0.5775602478487414
 40
0.628466992346647
 40
0.6788956278408002
 40
0.7306348167685567
 40
0.7839167771556501
 40
0.8387032221737099
 40
0.8925100780107035
 40
0.9480286554418262
 40
0.9993150357584298
 40
1.0
 40
1.0
 40
1.0
 40
1.0
 10
193.9149443307772
 20
100.8160346695559
 30
0.0
 10
193.9111924011024
 20
100.8173508038071
 30
0.0
 10
193.9035758708972
 20
100.8200225959641
 30
0.0
 10
193.8425094672783
 20
100.840976691846
 30
0.0
 10
193.7465301333501
 20
100.8722893176266
 30
0.0
 10
193.6154378766049
 20
100.9119320967716
 30
0.0
 10
193.4501130034882
 20
100.9565414584947
 30
0.0
 10
193.2540964986486
 20
101.0014254344235
 30
0.0
 10
193.029299167042
 20
101.0418256154507
 30
0.0
 10
192.7876891942331
 20
101.071474679575
 30
0.0
 10
192.5348303517134
 20
101.0869821550031
 30
0.0
 10
192.2878180738384
 20
101.0866304626303
 30
0.0
 10
192.0468022714633
 20
101.0715553480565
 30
0.0
 10
191.8211745934161
 20
101.0445758715587
 30
0.0
 10
191.6085462175944
 20
101.0078624704667
 30
0.0
 10
191.4141654104525
 20
100.9650239592622
 30
0.0
 10
191.2414590009661
 20
100.9196881112122
 30
0.0
 10
191.0996101967886
 20
100.8774710791635
 30
0.0
 10
190.9919626772595
 20
100.8425296584859
 30
0.0
 10
190.9326023299799
 20
100.8222141693502
 30
0.0
 10
190.9083503467232
 20
100.8137481092069
 30
0.0
 10
190.9151231440068
 20
100.8160966782471
 30
0.0
 10
190.9152124071189
 20
100.8161276315701
 30
0.0
  0
LINE
  5
F0
330
1F
100
AcDbEntity
  8
0
  6
HIDDEN
 62
     7
370
     0
100
AcDbLine
 10
190.4149443308
 20
101.2160346696
 30
0.0
 11
190.4149443308
 21
109.0160346696
 31
0.0
  0
LINE
  5
F1
330
1F
100
AcDbEntity
  8
0
  6
HIDDEN
 62
     7
370
     0
100
AcDbLine
 10
200.9149443308
 20
101.1160346696
 30
0.0
 11
200.9149443308
 21
109.1160346696
 31
0.0
  0
LINE
  5
F2
330
1F
100
AcDbEntity
  8
0
  6
HIDDEN
 62
     7
370
     0
100
AcDbLine
 10
151.0149443308
 20
100.9160346696
 30
0.0
 11
151.0149443308
 21
109.3160346696
 31
0.0
  0
LINE
  5
F3
330
1F
100
AcDbEntity
  8
0
  6
HIDDEN
 62
     7
370
     0
100
AcDbLine
 10
151.495632826
 20
101.7160346696
 30
0.0
 11
151.495632826
 21
108.5160346696
 31
0.0
  0
LINE
  5
F4
330
1F
100
AcDbEntity
  8
0
  6
HIDDEN
 62
     7
370
     0
100
AcDbLine
 10
175.0149443308
 20
101.7160346696
 30
0.0
 11
175.0149443308
 21
108.5160346696
 31
0.0
  0
LINE
  5
F5
330
1F
100
AcDbEntity
  8
0
  6
HIDDEN
 62
     7
370
     0
100
AcDbLine
 10
175.5557188879
 20
102.6160346696
 30
0.0
 11
175.5557188879
 21
107.6160346696
 31
0.0
  0
LINE
  5
F6
330
1F
100
AcDbEntity
  8
0
  6
HIDDEN
 62
     7
370
     0
100
AcDbLine
 10
161.3649443308
 20
92.1933849387
 30
0.0
 11
156.3649443308
 21
92.1933849387
 31
0.0
  0
LINE
  5
F7
330
1F
100
AcDbEntity
  8
0
  6
HIDDEN
 62
     7
370
     0
100
AcDbLine
 10
156.3649443308
 20
118.0386844004
 30
0.0
 11
161.3649443308
 21
118.0386844004
 31
0.0
  0
LINE
  5
F8
330
1F
100
AcDbEntity
  8
0
  6
HIDDEN
 62
     7
370
     0
100
AcDbLine
 10
156.3649443308
 20
110.6160346696
 30
0.0
 11
161.3649443308
 21
110.6160346696
 31
0.0
  0
LINE
  5
F9
330
1F
100
AcDbEntity
  8
0
  6
HIDDEN
 62
     7
370
     0
100
AcDbLine
 10
161.3649443308
 20
99.6160346696
 30
0.0
 11
156.3649443308
 21
99.6160346696
 31
0.0
  0
LINE
  5
FA
330
1F
100
AcDbEntity
  8
0
  6
HIDDEN
 62
     7
370
     0
100
AcDbLine
 10
190.9149443308
 20
95.1160346696
 30
0.0
 11
193.9149443308
 21
95.1160346696
 31
0.0
  0
SPLINE
  5
FB
330
1F
100
AcDbEntity
  8
0
  6
HIDDEN
 62
     7
370
     0
100
AcDbSpline
210
0.0
220
0.0
230
1.0
 70
     8
 71
     3
 72
     9
 73
     5
 74
     0
 42
0.00000001
 43
0.00000001
 40
0.0
 40
0.0
 40
0.0
 40
0.0
 40
0.9127674511739255
 40
1.0
 40
1.0
 40
1.0
 40
1.0
 10
190.9882788826244
 20
96.04259648738469
 30
0.0
 10
190.9449678609769
 20
96.05910533873471
 30
0.0
 10
190.8975176351919
 20
96.07719192949646
 30
0.0
 10
190.9186851652255
 20
96.06952945696632
 30
0.0
 10
190.9205316628227
 20
96.06886103995721
 30
0.0
  0
SPLINE
  5
FC
330
1F
100
AcDbEntity
  8
0
  6
HIDDEN
 62
     7
370
     0
100
AcDbSpline
210
0.0
220
0.0
230
1.0
 70
     8
 71
     3
 72
    17
 73
    13
 74
     0
 42
0.00000001
 43
0.00000001
 40
0.0
 40
0.0
 40
0.0
 40
0.0
 40
0.1236628338233872
 40
0.2464323737451542
 40
0.3531987520651153
 40
0.4234332315585017
 40
0.4941244379417764
 40
0.5801597051227672
 40
0.7140608633124406
 40
0.8512841765221739
 40
0.947321322132537
 40
1.0
 40
1.0
 40
1.0
 40
1.0
 10
190.9882788826244
 20
96.04259648738469
 30
0.0
 10
191.041926922085
 20
96.11131578432929
 30
0.0
 10
191.1488354677029
 20
96.24825797580733
 30
0.0
 10
191.3638132873521
 20
96.55737309935623
 30
0.0
 10
191.526372665756
 20
96.86681615488432
 30
0.0
 10
191.5978473588034
 20
97.165967574623
 30
0.0
 10
191.5716255185108
 20
97.45122700962179
 30
0.0
 10
191.434103821759
 20
97.7735310002069
 30
0.0
 10
191.2104388134834
 20
98.09578109367601
 30
0.0
 10
191.0168343570188
 20
98.33369030523986
 30
0.0
 10
190.9193983746213
 20
98.44739823007919
 30
0.0
 10
190.9238824764455
 20
98.44216175056825
 30
0.0
 10
190.925470851845
 20
98.44030686511717
 30
0.0
  0
LWPOLYLINE
  5
FD
330
1F
100
AcDbEntity
  8
0
  6
HIDDEN
 62
     7
370
     0
100
AcDbPolyline
 90
       19
 70
   128
 43
0.0
 10
193.9117251482
 20
96.0722534679
 10
193.8825272663
 20
96.106344567
 10
193.7858228061
 20
96.2218461316
 10
193.6934359886
 20
96.3368469275
 10
193.5853853473
 20
96.4797808199
 10
193.4738708872
 20
96.6429688517
 10
193.3656322197
 20
96.832431103
 10
193.2686088621
 20
97.0908258056
 10
193.244906979
 20
97.329742168
 10
193.286879943
 20
97.5647548835
 10
193.3534467691
 20
97.7373830273
 10
193.4375944129
 20
97.8997605333
 10
193.5629275873
 20
98.1001985854
 10
193.6887264504
 20
98.2782838649
 10
193.7707373533
 20
98.387317951
 10
193.8403441019
 20
98.4768488649
 10
193.9078546592
 20
98.5616239487
 10
193.9149443308
 20
98.5704255866
 10
193.9149443308
 20
98.5704255866
  0
LINE
  5
FE
330
1F
100
AcDbEntity
  8
0
  6
HIDDEN
 62
     7
370
     0
100
AcDbLine
 10
193.9149443308
 20
115.1160346696
 30
0.0
 11
190.9149443308
 21
115.1160346696
 31
0.0
  0
LWPOLYLINE
  5
FF
330
1F
100
AcDbEntity
  8
0
  6
HIDDEN
 62
     7
370
     0
100
AcDbPolyline
 90
       35
 70
   128
 43
0.0
 10
193.9144905774
 20
111.662206627
 10
193.9130730853
 20
111.663965119
 10
193.896875772
 20
111.6841111879
 10
193.8641055692
 20
111.7251734882
 10
193.8170658003
 20
111.7848982189
 10
193.7573075664
 20
111.8623172988
 10
193.708218058
 20
111.9274643817
 10
193.6551549736
 20
111.9998118015
 10
193.5983772882
 20
112.0799933432
 10
193.5398009456
 20
112.1666279884
 10
193.4818465747
 20
112.2577048165
 10
193.4248431439
 20
112.354881889
 10
193.3698850287
 20
112.4599369764
 10
193.3202591471
 20
112.5722443797
 10
193.2789995498
 20
112.6943197119
 10
193.2517946211
 20
112.825357659
 10
193.2443117712
 20
112.9576895414
 10
193.2586024329
 20
113.0942691048
 10
193.295544725
 20
113.2337488486
 10
193.3502669121
 20
113.3679428091
 10
193.3992591596
 20
113.4637273655
 10
193.4523418128
 20
113.5547178475
 10
193.50845489
 20
113.6420565853
 10
193.5653784363
 20
113.7244532198
 10
193.6221092504
 20
113.8021429995
 10
193.6771829095
 20
113.8743911785
 10
193.7301822364
 20
113.9416110519
 10
193.7790962162
 20
114.0020221494
 10
193.8114867126
 20
114.0412974753
 10
193.8404240852
 20
114.0759532929
 10
193.8656721549
 20
114.1058873988
 10
193.8862625058
 20
114.130105806
 10
193.9075043305
 20
114.1549202588
 10
193.9149443308
 20
114.1635726491
 10
193.9149443308
 20
114.1635726491
  0
SPLINE
  5
100
330
1F
100
AcDbEntity
  8
0
  6
HIDDEN
 62
     7
370
     0
100
AcDbSpline
210
0.0
220
0.0
230
1.0
 70
     8
 71
     3
 72
    10
 73
     6
 74
     0
 42
0.00000001
 43
0.00000001
 40
0.0
 40
0.0
 40
0.0
 40
0.0
 40
0.3845743046460182
 40
0.8689635483481261
 40
1.0
 40
1.0
 40
1.0
 40
1.0
 10
190.9174426274187
 20
114.1619686853155
 30
0.0
 10
190.918575851667
 20
114.1622607968387
 30
0.0
 10
190.9211364246228
 20
114.1629208364268
 30
0.0
 10
190.9539080870445
 20
114.1732443204761
 30
0.0
 10
190.9822453186837
 20
114.1866240412963
 30
0.0
 10
190.9882788826244
 20
114.1894728517272
 30
0.0
  0
SPLINE
  5
101
330
1F
100
AcDbEntity
  8
0
  6
HIDDEN
 62
     7
370
     0
100
AcDbSpline
210
0.0
220
0.0
230
1.0
 70
     8
 71
     3
 72
    27
 73
    23
 74
     0
 42
0.00000001
 43
0.00000001
 40
0.0
 40
0.0
 40
0.0
 40
0.0
 40
0.0436974915427645
 40
0.0878335253670703
 40
0.1331056124352477
 40
0.1803435214696866
 40
0.2285619252985459
 40
0.2848361166626453
 40
0.342236249484467
 40
0.40994291757754
 40
0.4800763979314728
 40
0.5134973703867555
 40
0.5477807228014946
 40
0.5812484962831435
 40
0.61577658704473
 40
0.6611901320797322
 40
0.7078347370112911
 40
0.7790431163816576
 40
0.8522596840365037
 40
0.9116646089720872
 40
0.9725942847189049
 40
1.0
 40
1.0
 40
1.0
 40
1.0
 10
190.916009074185
 20
111.7807523929477
 30
0.0
 10
190.9172650313598
 20
111.7822081203172
 30
0.0
 10
190.9197895503306
 20
111.7851341845445
 30
0.0
 10
190.9475271928781
 20
111.8174788316753
 30
0.0
 10
190.9904219683899
 20
111.8680887429332
 30
0.0
 10
191.0495029452951
 20
111.93910382386
 30
0.0
 10
191.1253662349856
 20
112.0329788009404
 30
0.0
 10
191.2164025325338
 20
112.1508212747998
 30
0.0
 10
191.3243699297608
 20
112.3017188979121
 30
0.0
 10
191.4394060746845
 20
112.4854487086471
 30
0.0
 10
191.5258587541211
 20
112.6697591593039
 30
0.0
 10
191.5708694470519
 20
112.8318457332774
 30
0.0
 10
191.5876194606622
 20
112.9560560308182
 30
0.0
 10
191.585176602462
 20
113.0832303010381
 30
0.0
 10
191.5618343372882
 20
113.2213402279097
 30
0.0
 10
191.5143800819151
 20
113.3676434190498
 30
0.0
 10
191.4338999709645
 20
113.5422993973278
 30
0.0
 10
191.3248625365452
 20
113.7274398357896
 30
0.0
 10
191.2060649681547
 20
113.9013991490177
 30
0.0
 10
191.1015254443738
 20
114.0434417797931
 30
0.0
 10
191.0315488226898
 20
114.1343975871184
 30
0.0
 10
190.9985245394656
 20
114.1764318754567
 30
0.0
 10
190.9882788826244
 20
114.1894728517272
 30
0.0
  0
LINE
  5
102
330
1F
100
AcDbEntity
  8
0
  6
HIDDEN
 62
     7
370
     0
100
AcDbLine
 10
190.8936242564
 20
98.4517175975
 30
0.0
 11
190.9882788826
 21
96.0425964874
 31
0.0
  0
LINE
  5
103
330
1F
100
AcDbEntity
  8
0
  6
HIDDEN
 62
     7
370
     0
100
AcDbLine
 10
190.8936242564
 20
111.7803517416
 30
0.0
 11
190.9882788826
 21
114.1894728517
 31
0.0
  0
LINE
  5
104
330
1F
100
AcDbEntity
  8
0
  6
HIDDEN
 62
     7
370
     0
100
AcDbLine
 10
113.0049443308
 20
125.2601093375
 30
0.0
 11
113.0049443308
 21
124.9660346696
 31
0.0
  0
LINE
  5
105
330
1F
100
AcDbEntity
  8
0
  6
HIDDEN
 62
     7
370
     0
100
AcDbLine
 10
116.8249443308
 20
125.2601093375
 30
0.0
 11
116.8249443308
 21
124.9660346696
 31
0.0
  0
LINE
  5
106
330
1F
100
AcDbEntity
  8
0
  6
HIDDEN
 62
     7
370
     0
100
AcDbLine
 10
118.3068771623
 20
129.5747243319
 30
0.0
 11
118.3068771623
 21
124.9660346696
 31
0.0
  0
SPLINE
  5
107
330
1F
100
AcDbEntity
  8
0
  6
HIDDEN
 62
     7
370
     0
100
AcDbSpline
210
0.0
220
0.0
230
1.0
 70
     8
 71
     3
 72
    24
 73
    20
 74
     0
 42
0.00000001
 43
0.00000001
 40
0.0
 40
0.0
 40
0.0
 40
0.0
 40
0.2499999999999951
 40
0.2499999999999951
 40
0.3749999999999913
 40
0.3749999999999913
 40
0.4374999999999885
 40
0.4374999999999885
 40
0.4687499999999882
 40
0.4687499999999882
 40
0.499999999999988
 40
0.499999999999988
 40
0.56249999999999
 40
0.56249999999999
 40
0.624999999999992
 40
0.624999999999992
 40
0.7499999999999958
 40
0.7499999999999958
 40
1.0
 40
1.0
 40
1.0
 40
1.0
 10
65.07760770550061
 20
85.44148212477518
 30
0.0
 10
65.0913608241708
 20
85.51213218276544
 30
0.0
 10
65.10913339157669
 20
85.57873029553036
 30
0.0
 10
65.16138448313205
 20
85.65282831576357
 30
0.0
 10
65.18241955871362
 20
85.67408612292512
 30
0.0
 10
65.23531996634205
 20
85.68223204907137
 30
0.0
 10
65.25642563921998
 20
85.68129224567559
 30
0.0
 10
65.30247780789794
 20
85.66027625409826
 30
0.0
 10
65.32084827988133
 20
85.64936744799064
 30
0.0
 10
65.36239991494702
 20
85.61673253704326
 30
0.0
 10
65.38496658770393
 20
85.59524055667191
 30
0.0
 10
65.44774760416396
 20
85.52677461308559
 30
0.0
 10
65.48087736513185
 20
85.48070015488052
 30
0.0
 10
65.53779505161684
 20
85.39569226654584
 30
0.0
 10
65.5619810771206
 20
85.35541196536445
 30
0.0
 10
65.62718902750039
 20
85.24047573889851
 30
0.0
 10
65.66190508769165
 20
85.1698927537515
 30
0.0
 10
65.75512035802251
 20
84.9656869946729
 30
0.0
 10
65.8007928933832
 20
84.84278861234556
 30
0.0
 10
65.83909797688173
 20
84.72591533595796
 30
0.0
  0
CIRCLE
  5
108
330
1F
100
AcDbEntity
  8
0
  6
HIDDEN
 62
     7
370
     0
100
AcDbCircle
 10
103.9149443308
 20
105.1160346696
 30
0.0
 40
5.0
  0
LINE
  5
109
330
1F
100
AcDbEntity
  8
0
  6
HIDDEN
 62
     7
370
     0
100
AcDbLine
 10
189.9149443308
 20
102.1160346696
 30
0.0
 11
189.9149443308
 21
108.1160346696
 31
0.0
  0
LINE
  5
10A
330
1F
100
AcDbEntity
  8
0
  6
HIDDEN
 62
     7
370
     0
100
AcDbLine
 10
177.4149443308
 20
102.1160346696
 30
0.0
 11
177.4149443308
 21
108.1160346696
 31
0.0
  0
LINE
  5
10B
330
1F
100
AcDbEntity
  8
0
  6
HIDDEN
 62
     7
370
     0
100
AcDbLine
 10
176.9149443308
 20
102.6160346696
 30
0.0
 11
176.9149443308
 21
107.6160346696
 31
0.0
  0
LINE
  5
10C
330
1F
100
AcDbEntity
  8
0
  6
HIDDEN
 62
     7
370
     0
100
AcDbLine
 10
192.9149443308
 20
102.9422743077
 30
0.0
 11
190.9149443308
 21
102.9422743077
 31
0.0
  0
LINE
  5
10D
330
1F
100
AcDbEntity
  8
0
  6
HIDDEN
 62
     7
370
     0
100
AcDbLine
 10
192.9149443308
 20
102.6160346696
 30
0.0
 11
192.9149443308
 21
102.9422743077
 31
0.0
  0
LINE
  5
10E
330
1F
100
AcDbEntity
  8
0
  6
HIDDEN
 62
     7
370
     0
100
AcDbLine
 10
190.9149443308
 20
105.6888110541
 30
0.0
 11
192.9149443308
 21
105.6888110541
 31
0.0
  0
LINE
  5
10F
330
1F
100
AcDbEntity
  8
0
  6
HIDDEN
 62
     7
370
     0
100
AcDbLine
 10
192.9149443308
 20
107.2897950314
 30
0.0
 11
190.9149443308
 21
107.2897950314
 31
0.0
  0
LINE
  5
110
330
1F
100
AcDbEntity
  8
0
  6
HIDDEN
 62
     7
370
     0
100
AcDbLine
 10
192.9149443308
 20
104.543258285
 30
0.0
 11
192.9149443308
 21
107.6160346696
 31
0.0
  0
LINE
  5
111
330
1F
100
AcDbEntity
  8
0
  6
HIDDEN
 62
     7
370
     0
100
AcDbLine
 10
190.9149443308
 20
104.543258285
 30
0.0
 11
192.9149443308
 21
104.543258285
 31
0.0
  0
LINE
  5
112
330
1F
100
AcDbEntity
  8
0
  6
HIDDEN
 62
     7
370
     0
100
AcDbLine
 10
190.9149443308
 20
102.9422743077
 30
0.0
 11
190.9149443308
 21
104.543258285
 31
0.0
  0
LINE
  5
113
330
1F
100
AcDbEntity
  8
0
  6
HIDDEN
 62
     7
370
     0
100
AcDbLine
 10
190.9149443308
 20
105.2244644489
 30
0.0
 11
190.9149443308
 21
104.543258285
 31
0.0
  0
LINE
  5
114
330
1F
100
AcDbEntity
  8
0
  6
HIDDEN
 62
     7
370
     0
100
AcDbLine
 10
192.9149443308
 20
105.2244644489
 30
0.0
 11
190.9149443308
 21
105.2244644489
 31
0.0
  0
LINE
  5
115
330
1F
100
AcDbEntity
  8
0
  6
HIDDEN
 62
     7
370
     0
100
AcDbLine
 10
188.4149443308
 20
105.7977259955
 30
0.0
 11
188.4149443308
 21
104.9378336756
 31
0.0
  0
LINE
  5
116
330
1F
100
AcDbEntity
  8
0
  6
HIDDEN
 62
     7
370
     0
100
AcDbLine
 10
181.4149443307
 20
104.9378336756
 30
0.0
 11
181.4149443307
 21
105.7977259955
 31
0.0
  0
LINE
  5
117
330
1F
100
AcDbEntity
  8
0
  6
HIDDEN
 62
     7
370
     0
100
AcDbLine
 10
188.4149443308
 20
104.9378336756
 30
0.0
 11
188.4149443308
 21
104.0779413556
 31
0.0
  0
LINE
  5
118
330
1F
100
AcDbEntity
  8
0
  6
HIDDEN
 62
     7
370
     0
100
AcDbLine
 10
181.4149443307
 20
104.0779413556
 30
0.0
 11
181.4149443307
 21
104.9378336756
 31
0.0
  0
LINE
  5
119
330
1F
100
AcDbEntity
  8
0
  6
HIDDEN
 62
     7
370
     0
100
AcDbLine
 10
188.4149443308
 20
106.3167726525
 30
0.0
 11
188.4149443308
 21
105.7977259955
 31
0.0
  0
LINE
  5
11A
330
1F
100
AcDbEntity
  8
0
  6
HIDDEN
 62
     7
370
     0
100
AcDbLine
 10
188.4149443308
 20
105.7977259955
 30
0.0
 11
192.9149443308
 21
105.7977259955
 31
0.0
  0
LINE
  5
11B
330
1F
100
AcDbEntity
  8
0
  6
HIDDEN
 62
     7
370
     0
100
AcDbLine
 10
181.4149443307
 20
105.7977259955
 30
0.0
 11
181.4149443307
 21
106.3167726525
 31
0.0
  0
LINE
  5
11C
330
1F
100
AcDbEntity
  8
0
  6
HIDDEN
 62
     7
370
     0
100
AcDbLine
 10
181.4149443307
 20
105.7977259955
 30
0.0
 11
176.9149443307
 21
105.7977259955
 31
0.0
  0
LINE
  5
11D
330
1F
100
AcDbEntity
  8
0
  6
HIDDEN
 62
     7
370
     0
100
AcDbLine
 10
181.4149443307
 20
103.7370956926
 30
0.0
 11
181.4149443307
 21
104.0779413556
 31
0.0
  0
LINE
  5
11E
330
1F
100
AcDbEntity
  8
0
  6
HIDDEN
 62
     7
370
     0
100
AcDbLine
 10
181.4149443307
 20
104.0779413556
 30
0.0
 11
176.9149443308
 21
104.0779413556
 31
0.0
  0
LINE
  5
11F
330
1F
100
AcDbEntity
  8
0
  6
HIDDEN
 62
     7
370
     0
100
AcDbLine
 10
188.4149443308
 20
104.0779413556
 30
0.0
 11
188.4149443308
 21
103.7370956926
 31
0.0
  0
LINE
  5
120
330
1F
100
AcDbEntity
  8
0
  6
HIDDEN
 62
     7
370
     0
100
AcDbLine
 10
188.4149443308
 20
104.0779413556
 30
0.0
 11
190.9149443308
 21
104.0779413556
 31
0.0
  0
LINE
  5
121
330
1F
100
AcDbEntity
  8
0
  6
HIDDEN
 62
     7
370
     0
100
AcDbLine
 10
192.9149443308
 20
103.6234804716
 30
0.0
 11
192.9149443308
 21
102.9422743077
 31
0.0
  0
LINE
  5
122
330
1F
100
AcDbEntity
  8
0
  6
HIDDEN
 62
     7
370
     0
100
AcDbLine
 10
190.9149443308
 20
103.6234804716
 30
0.0
 11
192.9149443308
 21
103.6234804716
 31
0.0
  0
LINE
  5
123
330
1F
100
AcDbEntity
  8
0
  6
HIDDEN
 62
     7
370
     0
100
AcDbLine
 10
188.4149443308
 20
106.8358193095
 30
0.0
 11
188.4149443308
 21
106.3167726525
 31
0.0
  0
LINE
  5
124
330
1F
100
AcDbEntity
  8
0
  6
HIDDEN
 62
     7
370
     0
100
AcDbLine
 10
181.4149443307
 20
106.3167726525
 30
0.0
 11
181.4149443307
 21
106.8358193095
 31
0.0
  0
LINE
  5
125
330
1F
100
AcDbEntity
  8
0
  6
HIDDEN
 62
     7
370
     0
100
AcDbLine
 10
181.4149443307
 20
103.3962500297
 30
0.0
 11
181.4149443307
 21
103.7370956926
 31
0.0
  0
LINE
  5
126
330
1F
100
AcDbEntity
  8
0
  6
HIDDEN
 62
     7
370
     0
100
AcDbLine
 10
188.4149443308
 20
103.7370956926
 30
0.0
 11
188.4149443308
 21
103.3962500297
 31
0.0
  0
LINE
  5
127
330
1F
100
AcDbEntity
  8
0
  6
HIDDEN
 62
     7
370
     0
100
AcDbLine
 10
190.9149443308
 20
106.6085888675
 30
0.0
 11
192.9149443308
 21
106.6085888675
 31
0.0
  0
LINE
  5
128
330
1F
100
AcDbEntity
  8
0
  6
HIDDEN
 62
     7
370
     0
100
AcDbLine
 10
190.9149443308
 20
106.1541279835
 30
0.0
 11
190.9149443308
 21
106.6085888675
 31
0.0
  0
LINE
  5
129
330
1F
100
AcDbEntity
  8
0
  6
HIDDEN
 62
     7
370
     0
100
AcDbLine
 10
188.4149443308
 20
106.1541279835
 30
0.0
 11
190.9149443308
 21
106.1541279835
 31
0.0
  0
LINE
  5
12A
330
1F
100
AcDbEntity
  8
0
  6
HIDDEN
 62
     7
370
     0
100
AcDbLine
 10
188.4149443308
 20
106.8358193095
 30
0.0
 11
192.9149443308
 21
106.8358193095
 31
0.0
  0
LINE
  5
12B
330
1F
100
AcDbEntity
  8
0
  6
HIDDEN
 62
     7
370
     0
100
AcDbLine
 10
181.4149443307
 20
106.1541279835
 30
0.0
 11
176.9149443307
 21
106.1541279835
 31
0.0
  0
LINE
  5
12C
330
1F
100
AcDbEntity
  8
0
  6
HIDDEN
 62
     7
370
     0
100
AcDbLine
 10
181.4149443307
 20
106.8358193095
 30
0.0
 11
176.9149443307
 21
106.8358193095
 31
0.0
  0
LINE
  5
12D
330
1F
100
AcDbEntity
  8
0
  6
HIDDEN
 62
     7
370
     0
100
AcDbLine
 10
188.4149443308
 20
104.4343433436
 30
0.0
 11
192.9149443308
 21
104.4343433436
 31
0.0
  0
LINE
  5
12E
330
1F
100
AcDbEntity
  8
0
  6
HIDDEN
 62
     7
370
     0
100
AcDbLine
 10
192.9149443308
 20
104.4343433436
 30
0.0
 11
192.9149443308
 21
103.6234804716
 31
0.0
  0
LINE
  5
12F
330
1F
100
AcDbEntity
  8
0
  6
HIDDEN
 62
     7
370
     0
100
AcDbLine
 10
188.4149443308
 20
103.3962500297
 30
0.0
 11
192.9149443308
 21
103.3962500297
 31
0.0
  0
LINE
  5
130
330
1F
100
AcDbEntity
  8
0
  6
HIDDEN
 62
     7
370
     0
100
AcDbLine
 10
181.4149443307
 20
104.4343433436
 30
0.0
 11
176.9149443307
 21
104.4343433436
 31
0.0
  0
LINE
  5
131
330
1F
100
AcDbEntity
  8
0
  6
HIDDEN
 62
     7
370
     0
100
AcDbLine
 10
181.4149443307
 20
103.3962500297
 30
0.0
 11
176.9149443307
 21
103.3962500297
 31
0.0
  0
LINE
  5
132
330
1F
100
AcDbEntity
  8
0
  6
HIDDEN
 62
     7
370
     0
100
AcDbLine
 10
190.9149443308
 20
107.2897950314
 30
0.0
 11
190.9149443308
 21
106.6085888675
 31
0.0
  0
LINE
  5
133
330
1F
100
AcDbEntity
  8
0
  6
HIDDEN
 62
     7
370
     0
100
AcDbLine
 10
192.9149443308
 20
105.0076048902
 30
0.0
 11
190.9149443308
 21
105.0076048902
 31
0.0
  0
LINE
  5
134
330
1F
100
AcDbEntity
  8
0
  6
HIDDEN
 62
     7
370
     0
100
AcDbLine
 10
190.9149443308
 20
105.2244644489
 30
0.0
 11
190.9149443308
 21
106.1541279835
 31
0.0
  0
LINE
  5
135
330
1F
100
AcDbEntity
  8
0
  6
HIDDEN
 62
     7
370
     0
100
AcDbLine
 10
192.9149443308
 20
104.543258285
 30
0.0
 11
192.9149443308
 21
104.4343433436
 31
0.0
  0
LINE
  5
136
330
1F
100
AcDbEntity
  8
0
  6
HIDDEN
 62
     7
370
     0
100
AcDbLine
 10
226.7315673005
 20
99.9088701561
 30
0.0
 11
226.8414570208
 21
97.1119900074
 31
0.0
  0
LINE
  5
137
330
1F
100
AcDbEntity
  8
0
  6
HIDDEN
 62
     7
370
     0
100
AcDbLine
 10
226.7236775735
 20
100.1096771161
 30
0.0
 11
226.7315673005
 21
99.9088701561
 31
0.0
  0
LINE
  5
138
330
1F
100
AcDbEntity
  8
0
  6
HIDDEN
 62
     7
370
     0
100
AcDbLine
 10
221.3976294966
 20
99.699299169
 30
0.0
 11
221.5075192169
 21
96.9024190203
 31
0.0
  0
LINE
  5
139
330
1F
100
AcDbEntity
  8
0
  6
HIDDEN
 62
     7
370
     0
100
AcDbLine
 10
221.3897397696
 20
99.900106129
 30
0.0
 11
221.3976294966
 21
99.699299169
 31
0.0
  0
LINE
  5
13A
330
1F
100
AcDbEntity
  8
0
  6
HIDDEN
 62
     7
370
     0
100
AcDbLine
 10
226.9029261953
 20
99.6724953126
 30
0.0
 11
226.9149443308
 21
99.3666133385
 31
0.0
  0
LINE
  5
13B
330
1F
100
AcDbEntity
  8
0
  6
HIDDEN
 62
     7
370
     0
100
AcDbLine
 10
226.8965118473
 20
99.835751371
 30
0.0
 11
226.9029261953
 21
99.6724953126
 31
0.0
  0
LINE
  5
13C
330
1F
100
AcDbEntity
  8
0
  6
HIDDEN
 62
     7
370
     0
100
AcDbLine
 10
220.9150149774
 20
99.2469903964
 30
0.0
 11
220.9882747909
 21
97.3824036305
 31
0.0
  0
LINE
  5
13D
330
1F
100
AcDbEntity
  8
0
  6
HIDDEN
 62
     7
370
     0
100
AcDbLine
 10
220.9097551594
 20
99.380861703
 30
0.0
 11
220.9150149774
 21
99.2469903964
 31
0.0
  0
LINE
  5
13E
330
1F
100
AcDbEntity
  8
0
  6
HIDDEN
 62
     7
370
     0
100
AcDbLine
 10
224.9459311201
 20
98.5386719298
 30
0.0
 11
224.9164862583
 21
99.288093707
 31
0.0
  0
LINE
  5
13F
330
1F
100
AcDbEntity
  8
0
  6
HIDDEN
 62
     7
370
     0
100
AcDbLine
 10
224.9459311201
 20
98.5386719298
 30
0.0
 11
224.9753759819
 21
97.7892501526
 31
0.0
  0
LINE
  5
140
330
1F
100
AcDbEntity
  8
0
  6
HIDDEN
 62
     7
370
     0
100
AcDbLine
 10
224.9459311201
 20
98.5386719298
 30
0.0
 11
226.9443891926
 21
98.6171915613
 31
0.0
  0
LINE
  5
141
330
1F
100
AcDbEntity
  8
0
  6
HIDDEN
 62
     7
370
     0
100
AcDbLine
 10
224.9753759819
 20
97.7892501526
 30
0.0
 11
226.9738340544
 21
97.8677697841
 31
0.0
  0
LINE
  5
142
330
1F
100
AcDbEntity
  8
0
  6
HIDDEN
 62
     7
370
     0
100
AcDbLine
 10
224.9164862583
 20
99.288093707
 30
0.0
 11
226.9149443308
 21
99.3666133385
 31
0.0
  0
LINE
  5
143
330
1F
100
AcDbEntity
  8
0
  6
HIDDEN
 62
     7
370
     0
100
AcDbLine
 10
226.8414570208
 20
113.1200793317
 30
0.0
 11
226.7236775735
 21
110.122392223
 31
0.0
  0
LINE
  5
144
330
1F
100
AcDbEntity
  8
0
  6
HIDDEN
 62
     7
370
     0
100
AcDbLine
 10
221.5075192169
 20
113.3296503188
 30
0.0
 11
221.3897397696
 21
110.3319632101
 31
0.0
  0
LINE
  5
145
330
1F
100
AcDbEntity
  8
0
  6
HIDDEN
 62
     7
370
     0
100
AcDbLine
 10
220.9882747909
 20
112.8496657086
 30
0.0
 11
220.9097551594
 21
110.8512076361
 31
0.0
  0
LINE
  5
146
330
1F
100
AcDbEntity
  8
0
  6
HIDDEN
 62
     7
370
     0
100
AcDbLine
 10
226.9149443308
 20
110.8654560006
 30
0.0
 11
226.8965118473
 21
110.3963179681
 31
0.0
  0
LINE
  5
147
330
1F
100
AcDbEntity
  8
0
  6
HIDDEN
 62
     7
370
     0
100
AcDbLine
 10
224.9459311201
 20
111.6933974093
 30
0.0
 11
224.9164862583
 21
110.9439756321
 31
0.0
  0
LINE
  5
148
330
1F
100
AcDbEntity
  8
0
  6
HIDDEN
 62
     7
370
     0
100
AcDbLine
 10
224.9459311201
 20
111.6933974093
 30
0.0
 11
226.9443891926
 21
111.6148777778
 31
0.0
  0
LINE
  5
149
330
1F
100
AcDbEntity
  8
0
  6
HIDDEN
 62
     7
370
     0
100
AcDbLine
 10
224.9753759819
 20
112.4428191865
 30
0.0
 11
224.9459311201
 21
111.6933974093
 31
0.0
  0
LINE
  5
14A
330
1F
100
AcDbEntity
  8
0
  6
HIDDEN
 62
     7
370
     0
100
AcDbLine
 10
224.9753759819
 20
112.4428191865
 30
0.0
 11
226.9738340544
 21
112.364299555
 31
0.0
  0
LINE
  5
14B
330
1F
100
AcDbEntity
  8
0
  6
HIDDEN
 62
     7
370
     0
100
AcDbLine
 10
224.9164862583
 20
110.9439756321
 30
0.0
 11
226.9149443308
 21
110.8654560006
 31
0.0
  0
LINE
  5
14C
330
1F
100
AcDbEntity
  8
0
  6
HIDDEN
 62
     7
370
     0
100
AcDbLine
 10
100.9149443308
 20
119.4166997736
 30
0.0
 11
100.9149443308
 21
117.5099753124
 31
0.0
  0
LINE
  5
14D
330
1F
100
AcDbEntity
  8
0
  6
HIDDEN
 62
     7
370
     0
100
AcDbLine
 10
108.9149443308
 20
117.5099753124
 30
0.0
 11
108.9149443308
 21
119.4159791297
 31
0.0
  0
LINE
  5
14E
330
1F
100
AcDbEntity
  8
0
  6
HIDDEN
 62
     7
370
     0
100
AcDbLine
 10
96.9149443308
 20
79.7971135436
 30
0.0
 11
97.0091051063
 21
80.4671022748
 31
0.0
  0
LINE
  5
14F
330
1F
100
AcDbEntity
  8
0
  6
HIDDEN
 62
     7
370
     0
100
AcDbLine
 10
97.0091051063
 20
129.7649670643
 30
0.0
 11
96.9149443308
 21
130.4349557955
 31
0.0
  0
ARC
  5
150
330
1F
100
AcDbEntity
  8
0
  6
HIDDEN
 62
     7
370
     0
100
AcDbCircle
 10
96.4149375781
 20
80.5506070752
 30
0.0
 40
0.60000675266771
100
AcDbArc
 50
352.0
 51
0.0
  0
ARC
  5
151
330
1F
100
AcDbEntity
  8
0
  6
HIDDEN
 62
     7
370
     0
100
AcDbCircle
 10
96.4149375781
 20
80.5506070752
 30
0.0
 40
0.6000067526677164
100
AcDbArc
 50
0.0
 51
33.5571153394
  0
ARC
  5
152
330
1F
100
AcDbEntity
  8
0
  6
HIDDEN
 62
     7
370
     0
100
AcDbCircle
 10
96.4149375781
 20
129.6814622639
 30
0.0
 40
0.6000067526677081
100
AcDbArc
 50
348.75
 51
8.0
  0
LWPOLYLINE
  5
153
330
1F
100
AcDbEntity
  8
0
  6
HIDDEN
 62
     7
370
     0
100
AcDbPolyline
 90
        3
 70
   128
 43
0.0
 10
97.0034153693
 20
129.5644067533
 10
96.9692715363
 20
129.4518496204
 10
96.9149443308
 20
129.3497977489
  0
LINE
  5
154
330
1F
100
AcDbEntity
  8
0
  6
HIDDEN
 62
     7
370
     0
100
AcDbLine
 10
97.0149443308
 20
80.5506070752
 30
0.0
 11
97.0149443308
 21
129.6814622639
 31
0.0
  0
LINE
  5
155
330
1F
100
AcDbEntity
  8
0
  6
HIDDEN
 62
     7
370
     0
100
AcDbLine
 10
79.9973798961
 20
85.1160346696
 30
0.0
 11
84.1749164724
 21
85.1160346696
 31
0.0
  0
LINE
  5
156
330
1F
100
AcDbEntity
  8
0
  6
HIDDEN
 62
     7
370
     0
100
AcDbLine
 10
84.1749164724
 20
125.1160346696
 30
0.0
 11
79.9973798961
 21
125.1160346696
 31
0.0
  0
ARC
  5
157
330
1F
100
AcDbEntity
  8
0
  6
HIDDEN
 62
     7
370
     0
100
AcDbCircle
 10
79.9973798961
 20
85.7160346696
 30
0.0
 40
0.6000000000000155
100
AcDbArc
 50
210.0
 51
270.0
  0
ARC
  5
158
330
1F
100
AcDbEntity
  8
0
  6
HIDDEN
 62
     7
370
     0
100
AcDbCircle
 10
79.9973798961
 20
124.5160346696
 30
0.0
 40
0.6000000000000155
100
AcDbArc
 50
90.0
 51
150.0
  0
ARC
  5
159
330
1F
100
AcDbEntity
  8
0
  6
HIDDEN
 62
     7
370
     0
100
AcDbCircle
 10
90.6699463324
 20
93.1160346696
 30
0.0
 40
8.000000000000012
100
AcDbArc
 50
277.0582614335
 51
321.3178125465
  0
ARC
  5
15A
330
1F
100
AcDbEntity
  8
0
  6
HIDDEN
 62
     7
370
     0
100
AcDbCircle
 10
90.6699463324
 20
117.1160346696
 30
0.0
 40
8.000000000000012
100
AcDbArc
 50
38.6821874535
 51
82.957062327
  0
LINE
  5
15B
330
1F
100
AcDbEntity
  8
0
  6
HIDDEN
 62
     7
370
     0
100
AcDbLine
 10
79.4777646538
 20
124.8160346696
 30
0.0
 11
77.918918927
 21
122.1160346696
 31
0.0
  0
LINE
  5
15C
330
1F
100
AcDbEntity
  8
0
  6
HIDDEN
 62
     7
370
     0
100
AcDbLine
 10
77.918918927
 20
88.1160346696
 30
0.0
 11
79.4777646538
 21
85.4160346696
 31
0.0
  0
LINE
  5
15D
330
1F
100
AcDbEntity
  8
0
  6
HIDDEN
 62
     7
370
     0
100
AcDbLine
 10
100.9149443308
 20
132.3957669067
 30
0.0
 11
100.9149443308
 21
129.0616370842
 31
0.0
  0
LINE
  5
15E
330
1F
100
AcDbEntity
  8
0
  6
HIDDEN
 62
     7
370
     0
100
AcDbLine
 10
108.9149443308
 20
129.0616370842
 30
0.0
 11
108.9149443308
 21
132.3943922174
 31
0.0
  0
ARC
  5
15F
330
1F
100
AcDbEntity
  8
0
  6
HIDDEN
 62
     7
370
     0
100
AcDbCircle
 10
105.3649443308
 20
89.3910346696
 30
0.0
 40
1.500000000000001
100
AcDbArc
 50
238.2116693829
 51
0.0
  0
ARC
  5
160
330
1F
100
AcDbEntity
  8
0
  6
HIDDEN
 62
     7
370
     0
100
AcDbCircle
 10
105.3649443308
 20
120.8410346696
 30
0.0
 40
1.500000000000001
100
AcDbArc
 50
0.0
 51
121.7883306171
  0
LINE
  5
161
330
1F
100
AcDbEntity
  8
0
  6
HIDDEN
 62
     7
370
     0
100
AcDbLine
 10
96.9149443308
 20
88.1160346696
 30
0.0
 11
104.5747702993
 21
88.1160346696
 31
0.0
  0
LINE
  5
162
330
1F
100
AcDbEntity
  8
0
  6
HIDDEN
 62
     7
370
     0
100
AcDbLine
 10
104.5747702993
 20
122.1160346696
 30
0.0
 11
96.9149443308
 21
122.1160346696
 31
0.0
  0
LINE
  5
163
330
1F
100
AcDbEntity
  8
0
  6
HIDDEN
 62
     7
370
     0
100
AcDbLine
 10
75.1149443308
 20
88.1160346696
 30
0.0
 11
77.918918927
 21
88.1160346696
 31
0.0
  0
LINE
  5
164
330
1F
100
AcDbEntity
  8
0
  6
HIDDEN
 62
     7
370
     0
100
AcDbLine
 10
77.918918927
 20
122.1160346696
 30
0.0
 11
71.1149443308
 21
122.1160346696
 31
0.0
  0
LINE
  5
165
330
1F
100
AcDbEntity
  8
0
  6
HIDDEN
 62
     7
370
     0
100
AcDbLine
 10
116.2149443308
 20
95.6160346696
 30
0.0
 11
118.7149443308
 21
95.6160346696
 31
0.0
  0
LINE
  5
166
330
1F
100
AcDbEntity
  8
0
  6
HIDDEN
 62
     7
370
     0
100
AcDbLine
 10
118.7149443308
 20
114.6160346696
 30
0.0
 11
116.2149443308
 21
114.6160346696
 31
0.0
  0
LINE
  5
167
330
1F
100
AcDbEntity
  8
0
  6
HIDDEN
 62
     7
370
     0
100
AcDbLine
 10
106.8649443308
 20
96.1160346696
 30
0.0
 11
107.3649443308
 21
96.6160346696
 31
0.0
  0
LINE
  5
168
330
1F
100
AcDbEntity
  8
0
  6
HIDDEN
 62
     7
370
     0
100
AcDbLine
 10
107.3649443308
 20
113.6160346696
 30
0.0
 11
106.8649443308
 21
114.1160346696
 31
0.0
  0
LINE
  5
169
330
1F
100
AcDbEntity
  8
0
  6
HIDDEN
 62
     7
370
     0
100
AcDbLine
 10
107.3649443308
 20
96.6160346696
 30
0.0
 11
116.2149443308
 21
96.6160346696
 31
0.0
  0
LINE
  5
16A
330
1F
100
AcDbEntity
  8
0
  6
HIDDEN
 62
     7
370
     0
100
AcDbLine
 10
116.2149443308
 20
113.6160346696
 30
0.0
 11
107.3649443308
 21
113.6160346696
 31
0.0
  0
LINE
  5
16B
330
1F
100
AcDbEntity
  8
0
  6
HIDDEN
 62
     7
370
     0
100
AcDbLine
 10
101.8649443308
 20
136.6160346696
 30
0.0
 11
101.8649443308
 21
131.5160346696
 31
0.0
  0
ARC
  5
16C
330
1F
100
AcDbEntity
  8
0
  6
HIDDEN
 62
     7
370
     0
100
AcDbCircle
 10
226.4149443308
 20
100.0793404215
 30
0.0
 40
0.5000000000000014
100
AcDbArc
 50
0.0
 51
80.0
  0
ARC
  5
16D
330
1F
100
AcDbEntity
  8
0
  6
HIDDEN
 62
     7
370
     0
100
AcDbCircle
 10
226.4149443308
 20
110.1527289176
 30
0.0
 40
0.5000000000000014
100
AcDbArc
 50
280.0
 51
0.0
  0
LINE
  5
16E
330
1F
100
AcDbEntity
  8
0
  6
HIDDEN
 62
     7
370
     0
100
AcDbLine
 10
226.5017684196
 20
109.6603250411
 30
0.0
 11
223.4149443308
 21
109.1160346696
 31
0.0
  0
LINE
  5
16F
330
1F
100
AcDbEntity
  8
0
  6
HIDDEN
 62
     7
370
     0
100
AcDbLine
 10
223.4149443308
 20
101.1160346696
 30
0.0
 11
226.5017684196
 21
100.571744298
 31
0.0
  0
LINE
  5
170
330
1F
100
AcDbEntity
  8
0
  6
HIDDEN
 62
     7
370
     0
100
AcDbLine
 10
92.0993813503
 20
81.0366633777
 30
0.0
 11
91.6649500015
 21
81.5157290059
 31
0.0
  0
LINE
  5
171
330
1F
100
AcDbEntity
  8
0
  6
HIDDEN
 62
     7
370
     0
100
AcDbLine
 10
84.16494668
 20
81.9374168803
 30
0.0
 11
83.6825137744
 21
81.4583512957
 31
0.0
  0
LINE
  5
172
330
1F
100
AcDbEntity
  8
0
  6
HIDDEN
 62
     7
370
     0
100
AcDbLine
 10
83.6823918621
 20
128.7737127514
 30
0.0
 11
84.1649417733
 21
128.2945928846
 31
0.0
  0
LINE
  5
173
330
1F
100
AcDbEntity
  8
0
  6
HIDDEN
 62
     7
370
     0
100
AcDbLine
 10
91.6649442141
 20
128.7162905812
 30
0.0
 11
92.0994858049
 21
129.1954104408
 31
0.0
  0
LINE
  5
174
330
1F
100
AcDbEntity
  8
0
  6
HIDDEN
 62
     7
370
     0
100
AcDbLine
 10
193.9149443308
 20
100.8160346696
 30
0.0
 11
200.0201703127
 21
100.8160346696
 31
0.0
  0
LINE
  5
175
330
1F
100
AcDbEntity
  8
0
  6
HIDDEN
 62
     7
370
     0
100
AcDbLine
 10
190.8149443308
 20
100.8160346696
 30
0.0
 11
190.9152124071
 21
100.8160346696
 31
0.0
  0
LINE
  5
176
330
1F
100
AcDbEntity
  8
0
  6
HIDDEN
 62
     7
370
     0
100
AcDbLine
 10
190.9152124071
 20
109.4160346696
 30
0.0
 11
190.8149443308
 21
109.4160346696
 31
0.0
  0
LINE
  5
177
330
1F
100
AcDbEntity
  8
0
  6
HIDDEN
 62
     7
370
     0
100
AcDbLine
 10
200.0201703127
 20
109.4160346696
 30
0.0
 11
193.9149443308
 21
109.4160346696
 31
0.0
  0
ARC
  5
178
330
1F
100
AcDbEntity
  8
0
  6
HIDDEN
 62
     7
370
     0
100
AcDbCircle
 10
190.8149443308
 20
101.2160346696
 30
0.0
 40
0.4000000000000057
100
AcDbArc
 50
180.0
 51
270.0
  0
ARC
  5
179
330
1F
100
AcDbEntity
  8
0
  6
HIDDEN
 62
     7
370
     0
100
AcDbCircle
 10
190.8149443308
 20
109.0160346696
 30
0.0
 40
0.4000000000000057
100
AcDbArc
 50
90.0
 51
180.0
  0
ARC
  5
17A
330
1F
100
AcDbEntity
  8
0
  6
HIDDEN
 62
     7
370
     0
100
AcDbCircle
 10
200.0201703127
 20
101.2160346696
 30
0.0
 40
0.4000000000000057
100
AcDbArc
 50
270.0
 51
290.0
  0
ARC
  5
17B
330
1F
100
AcDbEntity
  8
0
  6
HIDDEN
 62
     7
370
     0
100
AcDbCircle
 10
200.0201703127
 20
109.0160346696
 30
0.0
 40
0.4000000000000057
100
AcDbArc
 50
70.0
 51
90.0
  0
LINE
  5
17C
330
1F
100
AcDbEntity
  8
0
  6
HIDDEN
 62
     7
370
     0
100
AcDbLine
 10
200.15697837
 20
100.8401576212
 30
0.0
 11
200.9149443308
 21
101.1160346696
 31
0.0
  0
LINE
  5
17D
330
1F
100
AcDbEntity
  8
0
  6
HIDDEN
 62
     7
370
     0
100
AcDbLine
 10
200.9149443308
 20
109.1160346696
 30
0.0
 11
200.15697837
 21
109.3919117179
 31
0.0
  0
LINE
  5
17E
330
1F
100
AcDbEntity
  8
0
  6
HIDDEN
 62
     7
370
     0
100
AcDbLine
 10
118.7149443308
 20
100.9160346696
 30
0.0
 11
151.0149443308
 21
100.9160346696
 31
0.0
  0
LINE
  5
17F
330
1F
100
AcDbEntity
  8
0
  6
HIDDEN
 62
     7
370
     0
100
AcDbLine
 10
151.0149443308
 20
109.3160346696
 30
0.0
 11
118.7149443308
 21
109.3160346696
 31
0.0
  0
LINE
  5
180
330
1F
100
AcDbEntity
  8
0
  6
HIDDEN
 62
     7
370
     0
100
AcDbLine
 10
151.0149443308
 20
100.9160346696
 30
0.0
 11
151.495632826
 21
101.7160346696
 31
0.0
  0
LINE
  5
181
330
1F
100
AcDbEntity
  8
0
  6
HIDDEN
 62
     7
370
     0
100
AcDbLine
 10
151.495632826
 20
108.5160346696
 30
0.0
 11
151.0149443308
 21
109.3160346696
 31
0.0
  0
LINE
  5
182
330
1F
100
AcDbEntity
  8
0
  6
HIDDEN
 62
     7
370
     0
100
AcDbLine
 10
200.9149443308
 20
101.1160346696
 30
0.0
 11
223.4149443308
 21
101.1160346696
 31
0.0
  0
LINE
  5
183
330
1F
100
AcDbEntity
  8
0
  6
HIDDEN
 62
     7
370
     0
100
AcDbLine
 10
223.4149443308
 20
109.1160346696
 30
0.0
 11
200.9149443308
 21
109.1160346696
 31
0.0
  0
LINE
  5
184
330
1F
100
AcDbEntity
  8
0
  6
HIDDEN
 62
     7
370
     0
100
AcDbLine
 10
91.6649443308
 20
125.0531074956
 30
0.0
 11
91.6649443308
 21
128.7157371758
 31
0.0
  0
LINE
  5
185
330
1F
100
AcDbEntity
  8
0
  6
HIDDEN
 62
     7
370
     0
100
AcDbLine
 10
84.1649443308
 20
128.2943381586
 30
0.0
 11
84.1649443308
 21
125.114172424
 31
0.0
  0
LINE
  5
186
330
1F
100
AcDbEntity
  8
0
  6
HIDDEN
 62
     7
370
     0
100
AcDbLine
 10
91.6649443308
 20
81.5162128963
 30
0.0
 11
91.6649443308
 21
85.1789618435
 31
0.0
  0
LINE
  5
187
330
1F
100
AcDbEntity
  8
0
  6
HIDDEN
 62
     7
370
     0
100
AcDbLine
 10
84.1649443308
 20
85.1178969151
 30
0.0
 11
84.1649443308
 21
81.9377396554
 31
0.0
  0
LINE
  5
188
330
1F
100
AcDbEntity
  8
0
  6
HIDDEN
 62
     7
370
     0
100
AcDbLine
 10
175.0149443308
 20
101.7160346696
 30
0.0
 11
175.5557188879
 21
102.6160346696
 31
0.0
  0
LINE
  5
189
330
1F
100
AcDbEntity
  8
0
  6
HIDDEN
 62
     7
370
     0
100
AcDbLine
 10
175.5557188879
 20
107.6160346696
 30
0.0
 11
175.0149443308
 21
108.5160346696
 31
0.0
  0
LINE
  5
18A
330
1F
100
AcDbEntity
  8
0
  6
HIDDEN
 62
     7
370
     0
100
AcDbLine
 10
151.495632826
 20
101.7160346696
 30
0.0
 11
175.0149443308
 21
101.7160346696
 31
0.0
  0
LINE
  5
18B
330
1F
100
AcDbEntity
  8
0
  6
HIDDEN
 62
     7
370
     0
100
AcDbLine
 10
175.0149443308
 20
108.5160346696
 30
0.0
 11
151.495632826
 21
108.5160346696
 31
0.0
  0
LINE
  5
18C
330
1F
100
AcDbEntity
  8
0
  6
HIDDEN
 62
     7
370
     0
100
AcDbLine
 10
162.3649443308
 20
91.6160346696
 30
0.0
 11
161.3649443308
 21
92.1933849387
 31
0.0
  0
LINE
  5
18D
330
1F
100
AcDbEntity
  8
0
  6
HIDDEN
 62
     7
370
     0
100
AcDbLine
 10
156.3649443308
 20
92.1933849387
 30
0.0
 11
155.3649443308
 21
91.6160346696
 31
0.0
  0
LINE
  5
18E
330
1F
100
AcDbEntity
  8
0
  6
HIDDEN
 62
     7
370
     0
100
AcDbLine
 10
155.3649443308
 20
118.6160346696
 30
0.0
 11
156.3649443308
 21
118.0386844004
 31
0.0
  0
LINE
  5
18F
330
1F
100
AcDbEntity
  8
0
  6
HIDDEN
 62
     7
370
     0
100
AcDbLine
 10
161.3649443308
 20
118.0386844004
 30
0.0
 11
162.3649443308
 21
118.6160346696
 31
0.0
  0
LINE
  5
190
330
1F
100
AcDbEntity
  8
0
  6
HIDDEN
 62
     7
370
     0
100
AcDbLine
 10
190.4149443308
 20
108.1160346696
 30
0.0
 11
189.9149443308
 21
107.6160346696
 31
0.0
  0
LINE
  5
191
330
1F
100
AcDbEntity
  8
0
  6
HIDDEN
 62
     7
370
     0
100
AcDbLine
 10
189.9149443308
 20
102.6160346696
 30
0.0
 11
190.4149443308
 21
102.1160346696
 31
0.0
  0
LINE
  5
192
330
1F
100
AcDbEntity
  8
0
  6
HIDDEN
 62
     7
370
     0
100
AcDbLine
 10
156.3649443308
 20
110.6160346696
 30
0.0
 11
158.8649443308
 21
109.113883122
 31
0.0
  0
LINE
  5
193
330
1F
100
AcDbEntity
  8
0
  6
HIDDEN
 62
     7
370
     0
100
AcDbLine
 10
158.8649443308
 20
109.113883122
 30
0.0
 11
161.3649443308
 21
110.6160346696
 31
0.0
  0
LINE
  5
194
330
1F
100
AcDbEntity
  8
0
  6
HIDDEN
 62
     7
370
     0
100
AcDbLine
 10
156.3649443308
 20
118.0386844004
 30
0.0
 11
156.3649443308
 21
110.6160346696
 31
0.0
  0
LINE
  5
195
330
1F
100
AcDbEntity
  8
0
  6
HIDDEN
 62
     7
370
     0
100
AcDbLine
 10
161.3649443308
 20
110.6160346696
 30
0.0
 11
161.3649443308
 21
118.0386844004
 31
0.0
  0
LINE
  5
196
330
1F
100
AcDbEntity
  8
0
  6
HIDDEN
 62
     7
370
     0
100
AcDbLine
 10
175.5557188879
 20
102.6160346696
 30
0.0
 11
189.9149443308
 21
102.6160346696
 31
0.0
  0
LINE
  5
197
330
1F
100
AcDbEntity
  8
0
  6
HIDDEN
 62
     7
370
     0
100
AcDbLine
 10
189.9149443308
 20
107.6160346696
 30
0.0
 11
175.5557188879
 21
107.6160346696
 31
0.0
  0
LINE
  5
198
330
1F
100
AcDbEntity
  8
0
  6
HIDDEN
 62
     7
370
     0
100
AcDbLine
 10
161.3649443308
 20
92.1933849387
 30
0.0
 11
161.3649443308
 21
99.6160346696
 31
0.0
  0
LINE
  5
199
330
1F
100
AcDbEntity
  8
0
  6
HIDDEN
 62
     7
370
     0
100
AcDbLine
 10
156.3649443308
 20
99.6160346696
 30
0.0
 11
156.3649443308
 21
92.1933849387
 31
0.0
  0
LINE
  5
19A
330
1F
100
AcDbEntity
  8
0
  6
HIDDEN
 62
     7
370
     0
100
AcDbLine
 10
161.3649443308
 20
99.6160346696
 30
0.0
 11
158.8649443308
 21
101.1181862171
 31
0.0
  0
LINE
  5
19B
330
1F
100
AcDbEntity
  8
0
  6
HIDDEN
 62
     7
370
     0
100
AcDbLine
 10
158.8649443308
 20
101.1181862171
 30
0.0
 11
156.3649443308
 21
99.6160346696
 31
0.0
  0
LINE
  5
19C
330
1F
100
AcDbEntity
  8
0
  6
HIDDEN
 62
     7
370
     0
100
AcDbLine
 10
193.9149443308
 20
98.5704255866
 30
0.0
 11
193.9149443308
 21
100.8160346696
 31
0.0
  0
LINE
  5
19D
330
1F
100
AcDbEntity
  8
0
  6
HIDDEN
 62
     7
370
     0
100
AcDbLine
 10
193.9149443308
 20
95.1160346696
 30
0.0
 11
193.9149443308
 21
96.0722534679
 31
0.0
  0
LINE
  5
19E
330
1F
100
AcDbEntity
  8
0
  6
HIDDEN
 62
     7
370
     0
100
AcDbLine
 10
190.9149443308
 20
96.06886104
 30
0.0
 11
190.9149443308
 21
95.1160346696
 31
0.0
  0
LINE
  5
19F
330
1F
100
AcDbEntity
  8
0
  6
HIDDEN
 62
     7
370
     0
100
AcDbLine
 10
190.9149443308
 20
100.8161270892
 30
0.0
 11
190.9149443308
 21
98.4403068651
 31
0.0
  0
LINE
  5
1A0
330
1F
100
AcDbEntity
  8
0
  6
HIDDEN
 62
     7
370
     0
100
AcDbLine
 10
193.9149443308
 20
115.1160346696
 30
0.0
 11
192.4149443308
 21
116.0173255981
 31
0.0
  0
LINE
  5
1A1
330
1F
100
AcDbEntity
  8
0
  6
HIDDEN
 62
     7
370
     0
100
AcDbLine
 10
192.4149443308
 20
116.0173255981
 30
0.0
 11
190.9149443308
 21
115.1160346696
 31
0.0
  0
LINE
  5
1A2
330
1F
100
AcDbEntity
  8
0
  6
HIDDEN
 62
     7
370
     0
100
AcDbLine
 10
193.9149443308
 20
114.1635726491
 30
0.0
 11
193.9149443308
 21
115.1160346696
 31
0.0
  0
LINE
  5
1A3
330
1F
100
AcDbEntity
  8
0
  6
HIDDEN
 62
     7
370
     0
100
AcDbLine
 10
193.9149443308
 20
109.4160346696
 30
0.0
 11
193.9149443308
 21
111.662206627
 31
0.0
  0
LINE
  5
1A4
330
1F
100
AcDbEntity
  8
0
  6
HIDDEN
 62
     7
370
     0
100
AcDbLine
 10
190.9149443308
 20
111.7807523929
 30
0.0
 11
190.9149443308
 21
109.41594225
 31
0.0
  0
LINE
  5
1A5
330
1F
100
AcDbEntity
  8
0
  6
HIDDEN
 62
     7
370
     0
100
AcDbLine
 10
190.9149443308
 20
115.1160346696
 30
0.0
 11
190.9149443308
 21
114.1619686853
 31
0.0
  0
LINE
  5
1A6
330
1F
100
AcDbEntity
  8
0
  6
HIDDEN
 62
     7
370
     0
100
AcDbLine
 10
193.9118896341
 20
96.0683766707
 30
0.0
 11
226.9149443308
 21
97.3650702213
 31
0.0
  0
LINE
  5
1A7
330
1F
100
AcDbEntity
  8
0
  6
HIDDEN
 62
     7
370
     0
100
AcDbLine
 10
226.9149443308
 20
99.8669991178
 30
0.0
 11
193.9149443308
 21
98.5704255866
 31
0.0
  0
LINE
  5
1A8
330
1F
100
AcDbEntity
  8
0
  6
HIDDEN
 62
     7
370
     0
100
AcDbLine
 10
193.9144692704
 20
111.6616624177
 30
0.0
 11
226.9149443308
 21
110.3650702213
 31
0.0
  0
LINE
  5
1A9
330
1F
100
AcDbEntity
  8
0
  6
HIDDEN
 62
     7
370
     0
100
AcDbLine
 10
226.9149443308
 20
112.8669991178
 30
0.0
 11
193.9149443308
 21
114.1635726491
 31
0.0
  0
LINE
  5
1AA
330
1F
100
AcDbEntity
  8
0
  6
HIDDEN
 62
     7
370
     0
100
AcDbLine
 10
190.8936242564
 20
98.4517175975
 30
0.0
 11
190.1922023045
 21
97.1731942057
 31
0.0
  0
LINE
  5
1AB
330
1F
100
AcDbEntity
  8
0
  6
HIDDEN
 62
     7
370
     0
100
AcDbLine
 10
190.1922023045
 20
97.1731942057
 30
0.0
 11
190.9175498056
 21
96.0668554062
 31
0.0
  0
LINE
  5
1AC
330
1F
100
AcDbEntity
  8
0
  6
HIDDEN
 62
     7
370
     0
100
AcDbLine
 10
190.9160308366
 20
114.1628971201
 30
0.0
 11
190.1922023045
 21
113.0588751334
 31
0.0
  0
LINE
  5
1AD
330
1F
100
AcDbEntity
  8
0
  6
HIDDEN
 62
     7
370
     0
100
AcDbLine
 10
190.1922023045
 20
113.0588751334
 30
0.0
 11
190.8936242564
 21
111.7803517416
 31
0.0
  0
LINE
  5
1AE
330
1F
100
AcDbEntity
  8
0
  6
HIDDEN
 62
     7
370
     0
100
AcDbLine
 10
177.4149443308
 20
102.1160346696
 30
0.0
 11
189.9149443308
 21
102.1160346696
 31
0.0
  0
LINE
  5
1AF
330
1F
100
AcDbEntity
  8
0
  6
HIDDEN
 62
     7
370
     0
100
AcDbLine
 10
189.9149443308
 20
108.1160346696
 30
0.0
 11
177.4149443308
 21
108.1160346696
 31
0.0
  0
LINE
  5
1B0
330
1F
100
AcDbEntity
  8
0
  6
HIDDEN
 62
     7
370
     0
100
AcDbLine
 10
189.9149443308
 20
102.1160346696
 30
0.0
 11
190.4149443308
 21
102.6160346696
 31
0.0
  0
LINE
  5
1B1
330
1F
100
AcDbEntity
  8
0
  6
HIDDEN
 62
     7
370
     0
100
AcDbLine
 10
190.4149443308
 20
107.6160346696
 30
0.0
 11
189.9149443308
 21
108.1160346696
 31
0.0
  0
LINE
  5
1B2
330
1F
100
AcDbEntity
  8
0
  6
HIDDEN
 62
     7
370
     0
100
AcDbLine
 10
177.4149443308
 20
108.1160346696
 30
0.0
 11
176.9149443308
 21
107.6160346696
 31
0.0
  0
LINE
  5
1B3
330
1F
100
AcDbEntity
  8
0
  6
HIDDEN
 62
     7
370
     0
100
AcDbLine
 10
176.9149443308
 20
102.6160346696
 30
0.0
 11
177.4149443308
 21
102.1160346696
 31
0.0
  0
LINE
  5
1B4
330
1F
100
AcDbEntity
  8
0
  6
HIDDEN
 62
     7
370
     0
100
AcDbLine
 10
190.4149443308
 20
102.6160346696
 30
0.0
 11
192.9149443308
 21
102.6160346696
 31
0.0
  0
LINE
  5
1B5
330
1F
100
AcDbEntity
  8
0
  6
HIDDEN
 62
     7
370
     0
100
AcDbLine
 10
192.9149443308
 20
107.6160346696
 30
0.0
 11
190.4149443308
 21
107.6160346696
 31
0.0
  0
LINE
  5
1B6
330
1F
100
AcDbEntity
  8
0
  6
HIDDEN
 62
     7
370
     0
100
AcDbLine
 10
181.4149443307
 20
103.6160346696
 30
0.0
 11
188.4149443308
 21
103.6160346696
 31
0.0
  0
LINE
  5
1B7
330
1F
100
AcDbEntity
  8
0
  6
HIDDEN
 62
     7
370
     0
100
AcDbLine
 10
188.4149443308
 20
106.6160346696
 30
0.0
 11
181.4149443307
 21
106.6160346696
 31
0.0
  0
LINE
  5
1B8
330
1F
100
AcDbEntity
  8
0
  6
HIDDEN
 62
     7
370
     0
100
AcDbLine
 10
226.7236775735
 20
100.1096771161
 30
0.0
 11
221.3897397696
 21
99.900106129
 31
0.0
  0
LINE
  5
1B9
330
1F
100
AcDbEntity
  8
0
  6
HIDDEN
 62
     7
370
     0
100
AcDbLine
 10
221.5075192169
 20
96.9024190203
 30
0.0
 11
226.8414570208
 21
97.1119900074
 31
0.0
  0
LINE
  5
1BA
330
1F
100
AcDbEntity
  8
0
  6
HIDDEN
 62
     7
370
     0
100
AcDbLine
 10
226.8414570208
 20
97.1119900074
 30
0.0
 11
226.9149443308
 21
97.2516664092
 31
0.0
  0
LINE
  5
1BB
330
1F
100
AcDbEntity
  8
0
  6
HIDDEN
 62
     7
370
     0
100
AcDbLine
 10
226.8965118473
 20
99.835751371
 30
0.0
 11
226.7236775735
 21
100.1096771161
 31
0.0
  0
LINE
  5
1BC
330
1F
100
AcDbEntity
  8
0
  6
HIDDEN
 62
     7
370
     0
100
AcDbLine
 10
221.3897397696
 20
99.900106129
 30
0.0
 11
220.9097551594
 21
99.380861703
 31
0.0
  0
LINE
  5
1BD
330
1F
100
AcDbEntity
  8
0
  6
HIDDEN
 62
     7
370
     0
100
AcDbLine
 10
220.9882747909
 20
97.3824036305
 30
0.0
 11
221.5075192169
 21
96.9024190203
 31
0.0
  0
LINE
  5
1BE
330
1F
100
AcDbEntity
  8
0
  6
HIDDEN
 62
     7
370
     0
100
AcDbLine
 10
226.8414570208
 20
113.1200793317
 30
0.0
 11
221.5075192169
 21
113.3296503188
 31
0.0
  0
LINE
  5
1BF
330
1F
100
AcDbEntity
  8
0
  6
HIDDEN
 62
     7
370
     0
100
AcDbLine
 10
221.3897397696
 20
110.3319632101
 30
0.0
 11
226.7236775735
 21
110.122392223
 31
0.0
  0
LINE
  5
1C0
330
1F
100
AcDbEntity
  8
0
  6
HIDDEN
 62
     7
370
     0
100
AcDbLine
 10
221.5075192169
 20
113.3296503188
 30
0.0
 11
220.9882747909
 21
112.8496657086
 31
0.0
  0
LINE
  5
1C1
330
1F
100
AcDbEntity
  8
0
  6
HIDDEN
 62
     7
370
     0
100
AcDbLine
 10
220.9097551594
 20
110.8512076361
 30
0.0
 11
221.3897397696
 21
110.3319632101
 31
0.0
  0
LINE
  5
1C2
330
1F
100
AcDbEntity
  8
0
  6
HIDDEN
 62
     7
370
     0
100
AcDbLine
 10
226.7236775735
 20
110.122392223
 30
0.0
 11
226.8965118473
 21
110.3963179681
 31
0.0
  0
LINE
  5
1C3
330
1F
100
AcDbEntity
  8
0
  6
HIDDEN
 62
     7
370
     0
100
AcDbLine
 10
226.9149443308
 20
112.9804029299
 30
0.0
 11
226.8414570208
 21
113.1200793317
 31
0.0
  0
DIMENSION
  5
1C4
330
1F
100
AcDbEntity
  8
VERMASSUNG
100
AcDbDimension
  2
*D1
 10
58.4570964247
 20
73.6160346696
 30
0.0
 11
58.4570964247
 21
105.1160346696
 31
0.0
 70
   160
  1
HSK A %%c<>
 71
     2
 42
-1.0
  3
SLDDIMSTYLE0
100
AcDbAlignedDimension
 13
97.2149443308
 23
136.6160346696
 33
0.0
 14
97.2149443308
 24
73.6160346696
 34
0.0
 50
90.0
100
AcDbRotatedDimension
  0
DIMENSION
  5
1D1
330
1F
100
AcDbEntity
  8
VERMASSUNG
100
AcDbDimension
  2
*D2
 10
243.0248340511
 20
115.6160346696
 30
0.0
 11
243.0248340511
 21
105.1160346696
 31
0.0
 70
   160
  1
%%c<>
 71
     2
 42
-1.0
  3
SLDDIMSTYLE1
100
AcDbAlignedDimension
 13
226.9149443308
 23
94.6160346696
 33
0.0
 14
226.9149443308
 24
115.6160346696
 34
0.0
 50
90.0
100
AcDbRotatedDimension
  0
DIMENSION
  5
1DD
330
1F
100
AcDbEntity
  8
VERMASSUNG
100
AcDbDimension
  2
*D3
 10
249.0248340511
 20
118.6160346696
 30
0.0
 11
249.0248340511
 21
105.1160346696
 31
0.0
 70
   160
  1
%%c<>
 71
     2
 42
-1.0
  3
SLDDIMSTYLE1
100
AcDbAlignedDimension
 13
162.5420686752
 23
91.6160346696
 33
0.0
 14
162.5420686752
 24
118.6160346696
 34
0.0
 50
90.0
100
AcDbRotatedDimension
  0
DIMENSION
  5
1E8
330
1F
100
AcDbEntity
  8
VERMASSUNG
100
AcDbDimension
  2
*D4
 10
237.0248340511
 20
109.1160346696
 30
0.0
 11
237.0248340511
 21
105.1160346696
 31
0.0
 70
   160
  1
%%c<>
 71
     2
 42
-1.0
  3
SLDDIMSTYLE1
100
AcDbAlignedDimension
 13
223.4149443308
 23
101.1160346696
 33
0.0
 14
223.4149443308
 24
109.1160346696
 34
0.0
 50
90.0
100
AcDbRotatedDimension
  0
DIMENSION
  5
1F3
330
1F
100
AcDbEntity
  8
VERMASSUNG
100
AcDbDimension
  2
*D5
 10
226.9149443308
 20
149.4750812568
 30
0.0
 11
161.9149443308
 21
149.4750812568
 31
0.0
 70
   160
 71
     2
 42
-1.0
  3
SLDDIMSTYLE0
100
AcDbAlignedDimension
 13
96.9149443308
 23
105.1160346696
 33
0.0
 14
226.9149443308
 24
105.1160346696
 34
0.0
100
AcDbRotatedDimension
  0
DIMENSION
  5
1FD
330
1F
100
AcDbEntity
  8
VERMASSUNG
100
AcDbDimension
  2
*D6
 10
226.9149443308
 20
137.4750812568
 30
0.0
 11
208.6649443308
 21
137.4750812568
 31
0.0
 70
   160
 71
     2
 42
-1.0
  3
SLDDIMSTYLE0
100
AcDbAlignedDimension
 13
190.4149443308
 23
109.0160346696
 33
0.0
 14
226.9149443308
 24
113.7672536862
 34
0.0
100
AcDbRotatedDimension
  0
DIMENSION
  5
207
330
1F
100
AcDbEntity
  8
VERMASSUNG
100
AcDbDimension
  2
*D7
 10
226.9149443308
 20
143.4750812568
 30
0.0
 11
174.8899443308
 21
143.4750812568
 31
0.0
 70
   160
 71
     2
 42
-1.0
  3
SLDDIMSTYLE0
100
AcDbAlignedDimension
 13
122.8649443308
 23
134.9624749933
 33
0.0
 14
226.9149443308
 24
113.7672536862
 34
0.0
100
AcDbRotatedDimension
  0
DIMENSION
  5
211
330
1F
100
AcDbEntity
  8
VERMASSUNG
100
AcDbDimension
  2
*D8
 10
226.9149443308
 20
155.4750812568
 30
0.0
 11
145.9649443308
 21
155.4750812568
 31
0.0
 70
   160
 71
     2
 42
-1.0
  3
SLDDIMSTYLE0
100
AcDbAlignedDimension
 13
65.0149443308
 23
124.806712416
 33
0.0
 14
226.9149443308
 24
113.7672536862
 34
0.0
100
AcDbRotatedDimension
  0
LINE
  5
21B
330
1F
100
AcDbEntity
  8
VERMASSUNG
  6
CENTERX2
370
     0
100
AcDbLine
 10
60.3136511376
 20
105.1160346696
 30
0.0
 11
228.9149443308
 21
105.1160346696
 31
0.0
  0
OLE2FRAME
  5
21C
330
1F
100
AcDbEntity
  8
0
100
AcDbOle2Frame
 70
     2
  3
Bitmap Image
 10
13.8511154363
 20
38.264191557
 30
0.0
 11
51.6290888628
 21
31.9806341108
 31
0.0
 71
     2
 72
     0
 73
     1
 90
    12928
310
80552BED0767C5B32B40DDAF6807D121434000000000000000006FFBDDFB85D0
310
4940DDAF6807D121434000000000000000006FFBDDFB85D04940416F4BD60AFB
310
3F4000000000000000002BED0767C5B32B40416F4BD60AFB3F40000000000000
310
0000000000000100000000010000010000000100000000000100000000320000
310
D0CF11E0A1B11AE1000000000000000000000000000000003E000300FEFF0900
310
0600000000000000000000000100000001000000000000000010000002000000
310
01000000FEFFFFFF0000000000000000FFFFFFFFFFFFFFFFFFFFFFFFFFFFFFFF
310
FFFFFFFFFFFFFFFFFFFFFFFFFFFFFFFFFFFFFFFFFFFFFFFFFFFFFFFFFFFFFFFF
310
FFFFFFFFFFFFFFFFFFFFFFFFFFFFFFFFFFFFFFFFFFFFFFFFFFFFFFFFFFFFFFFF
310
FFFFFFFFFFFFFFFFFFFFFFFFFFFFFFFFFFFFFFFFFFFFFFFFFFFFFFFFFFFFFFFF
310
FFFFFFFFFFFFFFFFFFFFFFFFFFFFFFFFFFFFFFFFFFFFFFFFFFFFFFFFFFFFFFFF
310
FFFFFFFFFFFFFFFFFFFFFFFFFFFFFFFFFFFFFFFFFFFFFFFFFFFFFFFFFFFFFFFF
310
FFFFFFFFFFFFFFFFFFFFFFFFFFFFFFFFFFFFFFFFFFFFFFFFFFFFFFFFFFFFFFFF
310
FFFFFFFFFFFFFFFFFFFFFFFFFFFFFFFFFFFFFFFFFFFFFFFFFFFFFFFFFFFFFFFF
310
FFFFFFFFFFFFFFFFFFFFFFFFFFFFFFFFFFFFFFFFFFFFFFFFFFFFFFFFFFFFFFFF
310
FFFFFFFFFFFFFFFFFFFFFFFFFFFFFFFFFFFFFFFFFFFFFFFFFFFFFFFFFFFFFFFF
310
FFFFFFFFFFFFFFFFFFFFFFFFFFFFFFFFFFFFFFFFFFFFFFFFFFFFFFFFFFFFFFFF
310
FFFFFFFFFFFFFFFFFFFFFFFFFFFFFFFFFFFFFFFFFFFFFFFFFFFFFFFFFFFFFFFF
310
FFFFFFFFFFFFFFFFFFFFFFFFFFFFFFFFFFFFFFFFFFFFFFFFFFFFFFFFFFFFFFFF
310
FFFFFFFFFFFFFFFFFFFFFFFFFFFFFFFFFFFFFFFFFFFFFFFFFFFFFFFFFFFFFFFF
310
FDFFFFFFFEFFFFFFFEFFFFFFFEFFFFFF05000000060000000700000008000000
310
090000000A0000000B0000000C0000000D0000000E0000000F00000010000000
310
11000000120000001300000014000000150000001600000017000000FEFFFFFF
310
FFFFFFFFFFFFFFFFFFFFFFFFFFFFFFFFFFFFFFFFFFFFFFFFFFFFFFFFFFFFFFFF
310
FFFFFFFFFFFFFFFFFFFFFFFFFFFFFFFFFFFFFFFFFFFFFFFFFFFFFFFFFFFFFFFF
310
FFFFFFFFFFFFFFFFFFFFFFFFFFFFFFFFFFFFFFFFFFFFFFFFFFFFFFFFFFFFFFFF
310
FFFFFFFFFFFFFFFFFFFFFFFFFFFFFFFFFFFFFFFFFFFFFFFFFFFFFFFFFFFFFFFF
310
FFFFFFFFFFFFFFFFFFFFFFFFFFFFFFFFFFFFFFFFFFFFFFFFFFFFFFFFFFFFFFFF
310
FFFFFFFFFFFFFFFFFFFFFFFFFFFFFFFFFFFFFFFFFFFFFFFFFFFFFFFFFFFFFFFF
310
FFFFFFFFFFFFFFFFFFFFFFFFFFFFFFFFFFFFFFFFFFFFFFFFFFFFFFFFFFFFFFFF
310
FFFFFFFFFFFFFFFFFFFFFFFFFFFFFFFFFFFFFFFFFFFFFFFFFFFFFFFFFFFFFFFF
310
FFFFFFFFFFFFFFFFFFFFFFFFFFFFFFFFFFFFFFFFFFFFFFFFFFFFFFFFFFFFFFFF
310
FFFFFFFFFFFFFFFFFFFFFFFFFFFFFFFFFFFFFFFFFFFFFFFFFFFFFFFFFFFFFFFF
310
FFFFFFFFFFFFFFFFFFFFFFFFFFFFFFFFFFFFFFFFFFFFFFFFFFFFFFFFFFFFFFFF
310
FFFFFFFFFFFFFFFFFFFFFFFFFFFFFFFFFFFFFFFFFFFFFFFFFFFFFFFFFFFFFFFF
310
FFFFFFFFFFFFFFFFFFFFFFFFFFFFFFFFFFFFFFFFFFFFFFFFFFFFFFFFFFFFFFFF
310
52006F006F007400200045006E00740072007900000000000000000000000000
310
0000000000000000000000000000000000000000000000000000000000000000
310
16000500FFFFFFFFFFFFFFFF020000000A00030000000000C000000000000046
310
00000000000000000000000030BF004FC104CC0103000000C000000000000000
310
01004F006C006500000000000000000000000000000000000000000000000000
310
0000000000000000000000000000000000000000000000000000000000000000
310
0A000200FFFFFFFFFFFFFFFFFFFFFFFF00000000000000000000000000000000
310
0000000000000000000000000000000000000000000000001400000000000000
310
010043006F006D0070004F0062006A0000000000000000000000000000000000
310
0000000000000000000000000000000000000000000000000000000000000000
310
120002010100000003000000FFFFFFFF00000000000000000000000000000000
310
0000000000000000000000000000000000000000010000004D00000000000000
310
01004F006C006500310030004E00610074006900760065000000000000000000
310
0000000000000000000000000000000000000000000000000000000000000000
310
1A000200FFFFFFFFFFFFFFFFFFFFFFFF00000000000000000000000000000000
310
0000000000000000000000000000000000000000040000002426000000000000
310
FEFFFFFF02000000FEFFFFFFFFFFFFFFFFFFFFFFFFFFFFFFFFFFFFFFFFFFFFFF
310
FFFFFFFFFFFFFFFFFFFFFFFFFFFFFFFFFFFFFFFFFFFFFFFFFFFFFFFFFFFFFFFF
310
FFFFFFFFFFFFFFFFFFFFFFFFFFFFFFFFFFFFFFFFFFFFFFFFFFFFFFFFFFFFFFFF
310
FFFFFFFFFFFFFFFFFFFFFFFFFFFFFFFFFFFFFFFFFFFFFFFFFFFFFFFFFFFFFFFF
310
FFFFFFFFFFFFFFFFFFFFFFFFFFFFFFFFFFFFFFFFFFFFFFFFFFFFFFFFFFFFFFFF
310
FFFFFFFFFFFFFFFFFFFFFFFFFFFFFFFFFFFFFFFFFFFFFFFFFFFFFFFFFFFFFFFF
310
FFFFFFFFFFFFFFFFFFFFFFFFFFFFFFFFFFFFFFFFFFFFFFFFFFFFFFFFFFFFFFFF
310
FFFFFFFFFFFFFFFFFFFFFFFFFFFFFFFFFFFFFFFFFFFFFFFFFFFFFFFFFFFFFFFF
310
FFFFFFFFFFFFFFFFFFFFFFFFFFFFFFFFFFFFFFFFFFFFFFFFFFFFFFFFFFFFFFFF
310
FFFFFFFFFFFFFFFFFFFFFFFFFFFFFFFFFFFFFFFFFFFFFFFFFFFFFFFFFFFFFFFF
310
FFFFFFFFFFFFFFFFFFFFFFFFFFFFFFFFFFFFFFFFFFFFFFFFFFFFFFFFFFFFFFFF
310
FFFFFFFFFFFFFFFFFFFFFFFFFFFFFFFFFFFFFFFFFFFFFFFFFFFFFFFFFFFFFFFF
310
FFFFFFFFFFFFFFFFFFFFFFFFFFFFFFFFFFFFFFFFFFFFFFFFFFFFFFFFFFFFFFFF
310
FFFFFFFFFFFFFFFFFFFFFFFFFFFFFFFFFFFFFFFFFFFFFFFFFFFFFFFFFFFFFFFF
310
FFFFFFFFFFFFFFFFFFFFFFFFFFFFFFFFFFFFFFFFFFFFFFFFFFFFFFFFFFFFFFFF
310
FFFFFFFFFFFFFFFFFFFFFFFFFFFFFFFFFFFFFFFFFFFFFFFFFFFFFFFFFFFFFFFF
310
0100000200000000000000000000000000000000000000000000000000000000
310
00000000000000003800000041000000680D750100000000960EC60100000000
310
0100FEFF030A0000FFFFFFFF0A00030000000000C00000000000004607000000
310
5042727573680007000000504272757368000700000050427275736800F439B2
310
7100000000000000000000000000000000000000000000000000C70600000000
310
425D000000000000000000000000000000000000000000003800000041000000
310
680D7501000000001E0E29020000000000000000000000000000000000000000
310
0000C70600000000435D00000000000000000000000000000000000000000000
310
3800000041000000680D750100000000940E0902000000000000000000000000
310
00000000000000000000C706000000003D5D0000000000000000000000000000
310
00000000000000003800000041000000680D750100000000620EF50000000000
310
000000000000000000000000000000000000C706000000003E5D000000000000
310
000000000000000000000000000000003800000041000000680D750100000000
310
540ED30300000000000000000000000000000000000000000000C70600000000
310
3F5D000000000000000000000000000000000000000000003800000041000000
310
680D750100000000500EFE010000000000000000000000000000000000000000
310
20260000424D0E260000000000003E00000028000000B40200006E0000000100
310
01000000000000000000130B0000130B00000200000002000000000000FFFFFF
310
FFFFFFFFFFFFFFFFFFFFFFFFFFFFFFFFFFFFFFFFFFFFFFFFFFFFFFFFFFFFFFFF
310
FFFFFFFFFFFFFFFFFFFFFFFFFFFFFFFFFFFFFFFFFFFFFFFFFFFFFFFFFFFFFFFF
310
FFFFFFFFFFFFFFFFFFFFFFFFFFFFFFFFFFFFFFFFFFFFFFFFF000FFFFFFFFFFFF
310
FFFFFFFFFFFFFFFFFFFFFFFFFFFFFFFFFFFFFFFFFFFFFFFFFFFFFFFFFFFFFFFF
310
FFFFFFFFFFFFFFFFFFFFFFFFFFFFFFFFFFFFFFFFFFFFFFFFFFFFFFFFFFFFFFFF
310
FFFFFFFFFFFFFFFFFFFFFFFFFFFFFFFFF000FFFFFFFFFFFFFFFFFFFFFFFFFFFF
310
FFFFFFFFFFFFFFFFFFFFFFFFFFFFFFFFFFFFFFFFFFFFFFFFFFFFFFFFFFFFFFFF
310
FFFFFFFFFFFFFFFFFFFFFFFFFFFFFFFFFFFFFFFFFFFFFFFFFFFFFFFFFFFFFFFF
310
FFFFFFFFFFFFFFFFF000FFFFFFFFFFFFFFFFFFFFFFFFFFFFFFFFFFFFFFFFFFFF
310
FFFFFFFFFFFFFFFFFFFFFFFFFFFFFFFFFFFFFFFFFFFFFFFFFFFFFFFFFFFFFFFF
310
FFFFFFFFFFFFFFFFFFFFFFFFFFFFFFFFFFFFFFFFFFFFFFFFFFFFFFFFFFFFFFFF
310
F000FFFFFFFFFFFFFFFFFFFFFFFFFFFFFFFFFFFFFFFFFFFFFFFFFFFFFFFFFFFF
310
FFFFFFFFFFFFFFFFFFFFFFFFFFFFFFFFFFFFFFFFFFFFFFFFFFFFFFFFFFFFFFFF
310
FFFFFFFFFFFFFFFFFFFFFFFFFFFFFFFFFFFFFFFFFFFFFFFFF000FFFFFFFFFFFF
310
FFFFFFFFFFFFFFFFFFFFFFFFFFFFFFFFFFFFFFFFFFFFFFFFFFFFFFFFFFFFFFFF
310
FFFFFFFFFFFFFFFFFFFFFFFFFFFFFFFFFFFFFFFFFFFFFFFFFFFFFFFFFFFFFFFF
310
FFFFFFFFFFFFFFFFFFFFFFFFFFFFFFFFF000FFFFFFFFFFFFFFFFFFFFFFFFFFFF
310
FFFFFFFFFFFFFFFFFFFFFFFFFFFFFFFFFFFFFFFFFFFFFFFFFFFFFFFFFFFFFFFF
310
FFFFFFFFFFFFFFFFFFFFFFFFFFFFFFFFFFFFFFFFFFFFFFFFFFFFFFFFFFFFFFFF
310
FFFFFFFFFFFFFFFFF000FFFFFFFFFFFFFFFFFFFFFFFFFFFFFFFFFFFFFFFFFFFF
310
FFFFFFFFFFFFFFFFFFFFFFFFFFFFFFFFFFFFFFFFFFFFFFFFFFFFFFFFFFFFFFFF
310
FFFFFFFFFFFFFFFFFFFFFFFFFFFFFFFFFFFFFFFFFFFFFFFFFFFFFFFFFFFFFFFF
310
F000FFFFFFFFFFFFFFFFFFFFFFFFFFFFFFFFFFFFFFFFFFFFFFFFFFFFFFFFFFFF
310
FFFFFFFFFFFFFFFFFFFFFFFFFFFFFFFFFFFFFFFFFFFFFFFFFFFFFFFFFFFFFFFF
310
FFFFFFFFFFFFFFFFFFFFFFFFFFFFFFFFFFFFFFFFFFFFFFFFF000FFFFFFFFFFFF
310
FFFFFFFFFFFFFFFFFFFFFFFFFFFFFFFFFFFFFFFFFFFFFFFFFFFFFFFFFFFFFFFF
310
FFFFFFFFFFFFFFFFFFFFFFFFFFFFFFFFFFFFFFFFFFFFFFFFFFFFFFFFFFFFFFFF
310
FFFFFFFFFFFFFFFFFFFFFFFFFFFFFFFFF000FFFFFFFFFFFFFFFFFFFFFFFFFFFF
310
FFFFFFFFFFFFFFFFFFFFFFFFFFFFFFFFFFFFFFFFFFFFFFFFFFFFFFFFFFFFFFFF
310
FFFFFFFFFFFFFFFFFFFFFFFFFFFFFFFFFFFFFFFFFFFFFFFFFFFFFFFFFFFFFFFF
310
FFFFFFFFFFFFFFFFF000FFFFFFFFFFFFFFFFFFFFFFFFFFFFFFFFFFFFFFFFFFFF
310
FFFFFFFFFFFFFFFFFFFFFFFFFFFFFFFFFFFFFFFFFFFFFFFFFFFFFFFFFFFFFFFF
310
FFFFFFFFFFFFFFFFFFFFFFFFFFFFFFFFFFFFFFFFFFFFFFFFFFFFFFFFFFFFFFFF
310
F000FFFFFFFFFFFFFFFFFFFFFFFFFFFFFFFFFFFFFFFFFFFFFFFFFFFFFFFFFFFF
310
FFFFFFFFFFFFFFFFFFFFFFFFFFFFFFFFFFFFFFFFFFFFFFFFFFFFFFFFFFFFFFFF
310
FFFFFFFFFFFFFFFFFFFFFFFFFFFFFFFFFFFFFFFFFFFFFFFFF000FFFFFFFFFFFF
310
FFFFFFFFFFFFFFFFFFFFFFFFFFFFFFFFFFFFFFFFFFFFFFFFFFFFFFFFFFFFFFFF
310
FFFFFFFFFFFFFFFFFFFFFFFFFFFFFFFFFFFFFFFFFFFFFFFFFFFFFFFFFFFFFFFF
310
FFFFFFFFFFFFFFFFFFFFFFFFFFFFFFFFF000FFFFFFFFFFFFFFFFFFFFFFFFFFFF
310
FFFFFFFFFFFFFFFFFFFFFFFFFFFFFFFFFFFFFFFFFFFFFFFFFFFFFFFFFFFFFFFF
310
FFFFFFFFFFFFFFFFFFFFFFFFFFFFFFFFFFFFFFFFFFFFFFFFFFFFFFFFFFFFFFFF
310
FFFFFFFFFFFFFFFFF000FFFFFFFFFFFFFFFFFFFFFFFFFFFFFFFFFFFFFFFFFFFF
310
FFFFFFFFFFFFFFFFFFFFFFFFFFFFFFFFFFFFFFFFFFFFFFFFFFFFFFFFFFFFFFFF
310
FFFFFFFFFFFFFFFFFFFFFFFFFFFFFFFFFFFFFFFFFFFFFFFFFFFFFFFFFFFFFFFF
310
F000FFFFFFFFFFFFFFFFFFFFFFFFFFFFFFFFFFFFFFFFFFFFFFFFFFFFFFFFFFFF
310
FFFFFFFFFFFFFFFFFFFFFFFFFFFFFFFFFFFFFFFFFFFFFFFFFFFFFFFFFFFFFFFF
310
FFFFFFFFFFFFFFFFFFFFFFFFFFFFFFFFFFFFFFFFFFFFFFFFF000FFFFFFFFFFFF
310
FFFFFFFFFFFFFFFFFFFFFFFFFFFFFFFFFFFFFFFFFFFFFFFFFFFFFFFFFFFFFFFF
310
FFFFFFFFFFFFFFFFFFFFFFFFFFFFFFFFFFFFFFFFFFFFFFFFFFFFFFFFFFFFFFFF
310
FFFFFFFFFFFFFFFFFFFFFFFFFFFFFFFFF000FFFFFFFFFFFFFFFFFFFFFFFFFFFF
310
FFFFFFFFFFFFFFFFFFFFFFFFFFFFFFFFFFFFFFFFFFFFFFFFFFFFFFFFFFFFFFFF
310
FFFFFFFFFFFFFFFFFFFFFFFFFFFFFFFFFFFFFFFFFFFFFFFFFFFFFFFFFFFFFFFF
310
FFFFFFFFFFFFFFFFF000FFFFF80003FFFFFFFFFFFFFFFFFFFFFFFFFFFFFFFFFF
310
FFFFF00007FFFFFFFFFF00007FFFFFF800000000000000007FFFFFFFFFFFFFFF
310
FFFFFFFC001FFFFFFFFFFFFFFC001FFFFFFFFFFFFFFFFFFFFFFFFFFE0007FFFF
310
F000FFFF8000007FFFFFFFF8000FFFFFC0007FFFFF80007FFFFF0000007FFFFF
310
FFF8000007FFFFF800000000000000007FFFFFF0001FFFFFFFFFFFC00001FFFF
310
FFFFFFFFC00001FFFFFFFF000000000003FFFFE000007FFFF000FFFE0000000F
310
FFFFFFF0000FFFFF80007FFFFF80007FFFFC0000001FFFFFFFC0000001FFFFF8
310
00000000000000007FFFFFF0001FFFFFFFFFFE0000003FFFFFFFFFFE0000003F
310
FFFFFF000000000003FFFF0000000FFFF000FFF800000003FFFFFFF00007FFFF
310
80007FFFFF80007FFFF000000007FFFFFF000000003FFFF80000000000000000
310
7FFFFFF0001FFFFFFFFFF80000000FFFFFFFFFF80000000FFFFFFF0000000000
310
03FFFC00000003FFF000FFE000000000FFFFFFF00007FFFF80003FFFFF80007F
310
FFC000000001FFFFFC000000001FFFF800000000000000007FFFFFF0001FFFFF
310
FFFFE000000003FFFFFFFFE000000003FFFFFF000000000003FFF000000000FF
310
F000FF80000000007FFFFFF00007FFFF80003FFFFF80007FFF8000000000FFFF
310
F80000000007FFF800000000000000007FFFFFF0001FFFFFFFFFC000000001FF
310
FFFFFFC000000001FFFFFF000000000003FFC0000000007FF000FF0000000000
310
3FFFFFE00007FFFF00003FFFFF80007FFE00000000003FFFF00000000003FFF8
310
00000000000000007FFFFFF0001FFFFFFFFF8000000000FFFFFFFF8000000000
310
FFFFFF000000000003FF80000000003FF000FE00000000001FFFFFE00003FFFF
310
00003FFFFF80007FFC00000000001FFFE00000000001FFF8000001FFFE000000
310
7FFFFFF0001FFFFFFFFE00000000003FFFFFFE00000000003FFFFF0000000000
310
03FF00000000001FF000FC00000000000FFFFFE00003FFFF00001FFFFF80007F
310
F800000000001FFFC00000000000FFF8000001FFFE0000007FFFFFF0001FFFFF
310
FFFC00000000001FFFFFFC00000000001FFFFF000000000003FE00000000000F
310
F000F8000000000007FFFFE00003FFFF00001FFFFF80007FF800000000000FFF
310
800000000000FFF8000001FFFE0000007FFFFFF0001FFFFFFFF800000000000F
310
FFFFF800000000000FFFFF000000000003FC000000000007F000F80000000000
310
03FFFFC00003FFFE00001FFFFF80007FF0000000000007FF0000000000007FF8
310
000001FFFE0000007FFFFFF0001FFFFFFFF0000000000007FFFFF00000000000
310
07FFFF000000000003F8000000000003F000F0000000000003FFFFC00001FFFE
310
00001FFFFF80007FE0000000000007FE0000000000003FF8000001FFFE000000
310
7FFFFFF0001FFFFFFFF0000000000007FFFFF0000000000007FFFF0000000000
310
03F800001F800003F000E00001FFF00001FFFFC00001FFFE00000FFFFF80007F
310
E00001FFE00003FE00001FFF00003FF8000001FFFE0000007FFFFFF0001FFFFF
310
FFE000003E000003FFFFE000003E000003FFFF000000000003F00001FFF80001
310
F000E00007FFFC0001FFFFC00001FFFE00000FFFFF80007FC0000FFFFC0003FC
310
0000FFFFC0001FF8000001FFFE0000007FFFFFF0001FFFFFFFC00003FFE00001
310
FFFFC00003FFE00001FFFF0001FFFFFFFFF00007FFFE0001F000E0000FFFFF00
310
00FFFF800001FFFC00000FFFFF80007FC0001FFFFE0001FC0001FFFFE0001FF8
310
000001FFFE0000007FFFFFF0001FFFFFFF80000FFFF80000FFFF80000FFFF800
310
00FFFF0003FFFFFFFFE0000FFFFF8000F000C0003FFFFF8000FFFF800000FFFC
310
000007FFFF80007F80003FFFFF0001FC0003FFFFF0001FF8000001FFFE000000
310
7FFFFFF0001FFFFFFF80003FFFFE0000FFFF80003FFFFE0000FFFF0003FFFFFF
310
FFE0003FFFFF8000F000C0003FFFFF8000FFFF800000FFFC000007FFFF80007F
310
80007FFFFF8001F80007FFFFF8000FF8000001FFFE0000007FFFFFF0001FFFFF
310
FF00007FFFFF00007FFF00007FFFFF00007FFF0003FFFFFFFFE0003FFFFFC000
310
F000C0007FFFFFC000FFFF000000FFFC000007FFFF80007F8000FFFFFF8000F8
310
000FFFFFF8000FF8000001FFFE0000007FFFFFF0001FFFFFFF0000FFFFFF8000
310
7FFF0000FFFFFF80007FFF0003FFFFFFFFC0007FFFFFC00070008000FFFFFFC0
310
00FFFF000000FFF8000007FFFF80007F8000FFFFFF8000F8000FFFFFF8000FF8
310
000001FFFE0000007FFFFFF0001FFFFFFE0001FFFFFFC0003FFE0001FFFFFFC0
310
003FFF0003FFFFFFFFC0007FFFFFE00070008000FFFFFFC0007FFF0000007FF8
310
000003FFFF80007F0001FFFFFF8000F8000FFFFFF8000FF8000001FFFE000000
310
7FFFFFF0001FFFFFFE0001FFFFFFC0003FFE0001FFFFFFC0003FFF0003FFFFFF
310
FFC000FFFFFFE00070008000FFFFFFC0007FFF0000007FF8000003FFFF80007F
310
0001FFFFFF8000F8001FFFFFF8000FF8000001FFFE0000007FFFFFF0001FFFFF
310
FE0003FFFFFFE0003FFE0003FFFFFFE0003FFF0003FFFFFFFFC000FFFFFFE000
310
70008000FFFFFFC0007FFE0000007FF8000003FFFF80007F0001FFFFFF8000F0
310
001FFFFFF8000FF8000001FFFE0000007FFFFFF0001FFFFFFC0003FFFFFFE000
310
1FFC0003FFFFFFE0001FFF0003FFFFFFFFC000FFFFFFC00070008000FFFFFF80
310
007FFE0000007FF0000003FFFF80007F0001FFFFFF0000F0001FFFFFF8000FF8
310
000001FFFE0000007FFFFFF0001FFFFFFC0007FFFFFFF0001FFC0007FFFFFFF0
310
001FFF0003FFFFFFFFC000FFFFFFC00070008001FFFFFF0000FFFE0000003FF0
310
000001FFFF80007F0001FFFFFF0000F8001FFFFFF0000FF8000001FFFE000000
310
7FFFFFF0001FFFFFFC0007FFFFFFF0001FFC0007FFFFFFF0001FFF0003FFFFFF
310
FFC001FFFFFF80007000FFFFFFFFFE0000FFFE0008003FF0008001FFFF80007F
310
FFFFFFFFFC0000FFFFFFFFFFE0000FF8000001FFFE0000007FFFFFF0001FFFFF
310
F8000FFFFFFFF8000FF8000FFFFFFFF8000FFF0003FFFFFFFFFFFFFFFFFF0000
310
7000FFFFFFFFFC0000FFFC0008003FF0008001FFFF80007FFFFFFFFFF80001FF
310
FFFFFFFF80000FF8000001FFFE0000007FFFFFF0001FFFFFF8000FFFFFFFF800
310
0FF8000FFFFFFFF8000FFF0003FFFFFFFFFFFFFFFFFE0000F000FFFFFFFFE000
310
00FFFC000C003FE000C001FFFF80007FFFFFFFFFC00001FFFFFFFFFE00001FF8
310
000001FFFE0000007FFFFFF0001FFFFFF8000FFFFFFFF8000FF8000FFFFFFFF8
310
000FFF0003FFFFFFFFFFFFFFFFF00000F000FFFFFFFE000001FFFC000C001FE0
310
00C000FFFF80007FFFFFFFFE000001FFFFFFFFE000001FF80FFFFFFFFFFFFFC0
310
7FFFFFF0001FFFFFF8000FFFFFFFF8000FF8000FFFFFFFF8000FFF0003FFFFFF
310
FFFFFFFFFF800000F000FFFFFFC0000001FFFC001C001FE001C000FFFF80007F
310
FFFFFF80000003FFFFFFF80000001FF80FFFFFFFFFFFFFC07FFFFFF0001FFFFF
310
F8001FFFFFFFFC000FF8001FFFFFFFFC000FFF0003FFFFFFFFFFFFFFF0000001
310
F000FFFFF800000001FFF8001C001FE001C000FFFF80007FFFFFF800000003FF
310
FFFF800000003FF80FFFFFFFFFFFFFC07FFFFFF0001FFFFFF8001FFFFFFFFC00
310
0FF8001FFFFFFFFC000FFF0003FFFFFFFFFFFFFE00000001F000FFFFC0000000
310
03FFF8001E001FC001E000FFFF80007FFFFF8000000007FFFFFC000000003FF8
310
0FFFFFFFFFFFFFC07FFFFFF0001FFFFFF8001FFFFFFFFC000FF8001FFFFFFFFC
310
000FFF0003FFFFFFFFFFFFE000000003F000FFFE0000000007FFF8001E000FC0
310
01E0007FFF80007FFFFE0000000007FFFFE0000000007FF80FFFFFFFFFFFFFC0
310
7FFFFFF0001FFFFFF0001FFFFFFFFC0007F0001FFFFFFFFC0007FF0003FFFFFF
310
FFFFFF0000000003F000FFF80000000007FFF8001E000FC003E0007FFF80007F
310
FFF0000000000FFFFF8000000000FFF80FFFFFFFFFFFFFC07FFFFFF0001FFFFF
310
F0001FFFFFFFFC0007F0001FFFFFFFFC0007FF0003FFFFFFFFFFFC0000000007
310
F000FFE0000000000FFFF0003E000FC003E0007FFF80007FFFC0000000001FFF
310
FE0000000001FFF80FFFFFFFFFFFFFC07FFFFFF0001FFFFFF0001FFFFFFFFC00
310
07F0001FFFFFFFFC0007FF0003FFFFFFFFFFF0000000000FF000FFC000000000
310
1FFFF0003F000F8003F0003FFF80007FFF80000000003FFFF80000000003FFF8
310
0FFFFFFFFFFFFFC07FFFFFF0001FFFFFF0001FFFFFFFFC0007F0001FFFFFFFFC
310
0007FF0003FFFFFFFFFFE0000000001FF000FF00000000007FFFF0003F000780
310
03F0003FFF80007FFF00000000007FFFF00000000007FFF80FFFFFFFFFFFFFC0
310
7FFFFFF0001FFFFFF0001FFFFFFFFC0007F0001FFFFFFFFC0007FF0003FFFFFF
310
FFFF80000000007FF000FE0000000000FFFFE0003F00078007F0003FFF80007F
310
FE0000000001FFFFE0000000001FFFF80FFFFFFFFFFFFFC07FFFFFF0001FFFFF
310
F0001FFFFFFFFC0007F0001FFFFFFFFC0007FF0003FFFFFFFFFF0000000000FF
310
F000FC0000000003FFFFE0007F00078007F0003FFF80007FFC0000000007FFFF
310
C0000000007FFFF80FFFFFFFFFFFFFC07FFFFFF0001FFFFFF8001FFFFFFFFC00
310
0FF8001FFFFFFFFC000FFF0003FFFFFFFFFE0000000003FFF000FC000000000F
310
FFFFE0007F80070007F8001FFF80007FF8000000001FFFFF8000000001FFFFF8
310
0FFFFFFFFFFFFFC07FFFFFF0001FFFFFF8001FFFFFFFFC000FF8001FFFFFFFFC
310
000FFF0003FFFFFFFFFC000000000FFFF000F8000000007FFFFFE0007F800700
310
07F8001FFF80007FF000000000FFFFFF800000000FFFFFF80FFFFFFFFFFFFFC0
310
7FFFFFF0001FFFFFF8000FFFFFFFF8000FF8000FFFFFFFF8000FFF0003FFFFFF
310
FFFC000000007FFFF000F800000007FFFFFFC0007F8003000FF8001FFF80007F
310
F000000007FFFFFF000000007FFFFFF80FFFFFFFFFFFFFC07FFFFFF0001FFFFF
310
F8000FFFFFFFF8000FF8000FFFFFFFF8000FFF0003FFFFFFFFF80000000FFFFF
310
F000F0000000FFFFFFFFC000FF8003000FF8001FFF80007FE0000000FFFFFFFF
310
0000000FFFFFFFF8000001FFFE0000007FFFFFF0001FFFFFF8000FFFFFFFF800
310
0FF8000FFFFFFFF8000FFF0003FFFFFFFFF8000000FFFFFFF000F000000FFFFF
310
FFFFC000FFC002000FF8000FFF80007FE000001FFFFFFFFE000001FFFFFFFFF8
310
000001FFFE0000007FFFFFF0001FFFFFF8000FFFFFFFF8000FF8000FFFFFFFF8
310
000FFF0003FFFFFFFFF000001FFFFFFFF000E00000FFFFFFFFFFC000FFC00200
310
0FFC000FFF80007FE00001FFFFFFFFFE00001FFFFFFFFFF8000001FFFE000000
310
7FFFFFF0001FFFFFFC000FFFFFFFF8001FFC000FFFFFFFF8001FFF0003FFFFFF
310
FFF00001FFFFFFFFF000E00007FFFFFFFFFF8000FFC000001FFC000FFF80007F
310
C0000FFFFFFFFFFE0000FFFFFFFFFFF8000001FFFE0000007FFFFFF0001FFFFF
310
FC0007FFFFFFF0001FFC0007FFFFFFF0001FFF0003FFFFFFFFF00007FFFFFFFF
310
F000E0001FFFFFFFFFFF8000FFC000001FFC000FFF80007FC0003FFFFFFFFFFE
310
0001FFFFFFFFFFF8000001FFFE0000007FFFFFF0001FFFFFFC0007FFFFFFF000
310
1FFC0007FFFFFFF0001FFF0003FFFFFFFFF0001FFFFFFFFFF000E0003FFFFF00
310
03FF8001FFE000001FFC0007FF80007FC0007FFFFF0007FC0003FFFFF0003FF8
310
000001FFFE0000007FFFFFF0001FFFFFFC0003FFFFFFE0001FFC0003FFFFFFE0
310
001FFF0003FFFFFFFFF0003FFFFFFFFFF000E0003FFFFF0001FF8001FFE00000
310
1FFE0007FF80007FC0007FFFFE0003FC0007FFFFE0003FF8000001FFFE000000
310
7FFFFFF0001FFFFFFE0003FFFFFFE0003FFE0003FFFFFFE0003FFF0003FFFFFF
310
FFF0003FFFFF8001F000E0003FFFFF0001FF0001FFE000001FFE0007FF80007F
310
C0007FFFFE0003FC0007FFFFE0003FF8000001FFFE0000007FFFFFF0001FFFFF
310
FE0001FFFFFFC0003FFE0001FFFFFFC0003FFF0003FFFFFFFFF0003FFFFF0001
310
F000E0003FFFFF0003FF0001FFE000003FFE0007FF80007FC0007FFFFE0003FC
310
0007FFFFE0003FF8000001FFFE0000007FFFFFF0001FFFFFFF0001FFFFFFC000
310
7FFF0001FFFFFFC0007FFF0003FFFFFFFFF0003FFFFF0001F000E0003FFFFE00
310
03FF0003FFF000003FFE0003FF80007FC0007FFFFC0003FE0007FFFFE0003FF8
310
000001FFFE0000007FFFFFF0001FFFFFFF0000FFFFFF80007FFF0000FFFFFF80
310
007FFF0003FFFFFFFFF0003FFFFF0001F000E0003FFFFE0003FF0003FFF00000
310
3FFF0003FF80007FC0007FFFFC0007FE0007FFFFC0003FF8000001FFFE000000
310
7FFFFFF0001FFFFFFF80007FFFFF0000FFFF80007FFFFF0000FFFF0003FFFFFF
310
FFF0003FFFFF0003F000E0003FFFFC0003FE0003FFF000003FFF0003FF80007F
310
E0003FFFF80007FE0003FFFFC0007FF8000001FFFE0000007FFFFFF0001FFFFF
310
FF80003FFFFE0000FFFF80003FFFFE0000FFFF0003FFFFFFFFF0001FFFFE0003
310
F000F0001FFFF80003FE0003FFF000007FFF0001FF80007FE0003FFFF00007FE
310
0001FFFF80007FF8000001FFFE0000007FFFFFF0001FFFFFFFC0000FFFF80001
310
FFFFC0000FFFF80001FFFF0003FFFFFFFFF0001FFFFC0003F000F0000FFFF000
310
07FE0007FFF800007FFF0001FF80007FE0001FFFE00007FF0000FFFE00007FF8
310
000001FFFE0000007FFFFFF0001FFFFFFFC00003FFE00001FFFFC00003FFE000
310
01FFFF0003FFFFFFFFF8000FFFF80003F000F00003FFC00007FC0007FFF80000
310
7FFF8001FF80007FF00007FF80000FFF00007FF80000FFF8000001FFFE000000
310
7F80000000000001FFE000003E000003FFFFE000003E000003FFFF0003FFFFFF
310
FFF80003FFE00007F000F800000000000FFC0007FFF800007FFF8001FF80007F
310
F000000000000FFF000000000000FFF8000001FFFE0000007F80000000000001
310
FFF0000000000007FFFFF0000000000007FFFF0003FFFFFFFFFC00007E000007
310
F000F800000000000FFC0007FFF80000FFFF8000FF80007FF800000000001FFF
310
800000000001FFF8000001FFFE0000007F80000000000001FFF800000000000F
310
FFFFF800000000000FFFFF0003FFFFFFFFFC00000000000FF000FC0000000000
310
1FFC0007FFFC0000FFFF8000FF80007FF800000000003FFFC00000000001FFF8
310
000001FFFE0000007F80000000000001FFF800000000000FFFFFF80000000000
310
0FFFFF0003FFFFFFFFFE00000000001FF000FE00000000003FF8000FFFFC0000
310
FFFF8000FF80007FFC00000000003FFFC00000000003FFF8000001FFFE000000
310
7F80000000000001FFFC00000000001FFFFFFC00000000001FFFFF0003FFFFFF
310
FFFF00000000001FF000FF00000000003FF8000FFFFC0000FFFFC000FF80007F
310
FE00000000007FFFE00000000007FFF8000001FFFE0000007F80000000000001
310
FFFE00000000003FFFFFFE00000000003FFFFF0003FFFFFFFFFF80000000003F
310
F000FF80000000007FF8000FFFFC0001FFFFC0007F80007FFF0000000000FFFF
310
F0000000000FFFF800000000000000007F80000000000001FFFF8000000000FF
310
FFFFFF8000000000FFFFFF0003FFFFFFFFFFC0000000007FF000FFC000000000
310
FFF8000FFFFE0001FFFFC0007F80007FFF8000000001FFFFF8000000001FFFF8
310
00000000000000007F80000000000001FFFFC000000001FFFFFFFFC000000001
310
FFFFFF0003FFFFFFFFFFE000000000FFF000FFE000000003FFF0001FFFFE0001
310
FFFFC0007F80007FFFC000000007FFFFFE000000003FFFF80000000000000000
310
7F80000000000001FFFFE000000003FFFFFFFFE000000003FFFFFF0003FFFFFF
310
FFFFF000000003FFF000FFF80000000FFFF0001FFFFE0001FFFFE0007F80007F
310
FFF00000000FFFFFFF00000000FFFFF800000000000000007F80000000000001
310
FFFFF80000000FFFFFFFFFF80000000FFFFFFF0003FFFFFFFFFFFC0000000FFF
310
F000FFFE0000003FFFF0001FFFFE0003FFFFE0003F80007FFFFC0000003FFFFF
310
FFC0000003FFFFF800000000000000007F80000000000001FFFFFE0000003FFF
310
FFFFFFFE0000003FFFFFFF0003FFFFFFFFFFFF0000003FFFF000FFFF800000FF
310
FFF0001FFFFF0003FFFFE0003F80007FFFFF000001FFFFFFFFF800001FFFFFF8
310
00000000000000007F80000000000001FFFFFFC00001FFFFFFFFFFFFC00001FF
310
FFFFFF0003FFFFFFFFFFFFC00000FFFFF000FFFFF8000FFFFFFFFFFFFFFFFFFF
310
FFFFFFFFFFFFFFFFFFFFF0001FFFFFFFFFFF0000FFFFFFF80000000000000000
310
7FFFFFFFFFFFFFFFFFFFFFFC001FFFFFFFFFFFFFFC001FFFFFFFFFFFFFFFFFFF
310
FFFFFFFC001FFFFFF000FFFFFFFFFFFFFFFFFFFFFFFFFFFFFFFFFFFFFFFFFFFF
310
FFFFFFFFFFFFFFFFFFFFFFFFFFFFFFFFFFFFFFFFFFFFFFFFFFFFFFFFFFFFFFFF
310
FFFFFFFFFFFFFFFFFFFFFFFFFFFFFFFFFFFFFFFFFFFFFFFFFFFFFFFFFFFFFFFF
310
F000FFFFFFFFFFFFFFFFFFFFFFFFFFFFFFFFFFFFFFFFFFFFFFFFFFFFFFFFFFFF
310
FFFFFFFFFFFFFFFFFFFFFFFFFFFFFFFFFFFFFFFFFFFFFFFFFFFFFFFFFFFFFFFF
310
FFFFFFFFFFFFFFFFFFFFFFFFFFFFFFFFFFFFFFFFFFFFFFFFF000FFFFFFFFFFFF
310
FFFFFFFFFFFFFFFFFFFFFFFFFFFFFFFFFFFFFFFFFFFFFFFFFFFFFFFFFFFFFFFF
310
FFFFFFFFFFFFFFFFFFFFFFFFFFFFFFFFFFFFFFFFFFFFFFFFFFFFFFFFFFFFFFFF
310
FFFFFFFFFFFFFFFFFFFFFFFFFFFFFFFFF000FFFFFFFFFFFFFFFFFFFFFFFFFFFF
310
FFFFFFFFFFFFFFFFFFFFFFFFFFFFFFFFFFFFFFFFFFFFFFFFFFFFFFFFFFFFFFFF
310
FFFFFFFFFFFFFFFFFFFFFFFFFFFFFFFFFFFFFFFFFFFFFFFFFFFFFFFFFFFFFFFF
310
FFFFFFFFFFFFFFFFF000FFFFFFFFFFFFFFFFFFFFFFFFFFFFFFFFFFFFFFFFFFFF
310
FFFFFFFFFFFFFFFFFFFFFFFFFFFFFFFFFFFFFFFFFFFFFFFFFFFFFFFFFFFFFFFF
310
FFFFFFFFFFFFFFFFFFFFFFFFFFFFFFFFFFFFFFFFFFFFFFFFFFFFFFFFFFFFFFFF
310
F000FFFFFFFFFFFFFFFFFFFFFFFFFFFFFFFFFFFFFFFFFFFFFFFFFFFFFFFFFFFF
310
FFFFFFFFFFFFFFFFFFFFFFFFFFFFFFFFFFFFFFFFFFFFFFFFFFFFFFFFFFFFFFFF
310
FFFFFFFFFFFFFFFFFFFFFFFFFFFFFFFFFFFFFFFFFFFFFFFFF000FFFFFFFFFFFF
310
FFFFFFFFFFFFFFFFFFFFFFFFFFFFFFFFFFFFFFFFFFFFFFFFFFFFFFFFFFFFFFFF
310
FFFFFFFFFFFFFFFFFFFFFFFFFFFFFFFFFFFFFFFFFFFFFFFFFFFFFFFFFFFFFFFF
310
FFFFFFFFFFFFFFFFFFFFFFFFFFFFFFFFF000FFFFFFFFFFFFFFFFFFFFFFFFFFFF
310
FFFFFFFFFFFFFFFFFFFFFFFFFFFFFFFFFFFFFFFFFFFFFFFFFFFFFFFFFFFFFFFF
310
FFFFFFFFFFFFFFFFFFFFFFFFFFFFFFFFFFFFFFFFFFFFFFFFFFFFFFFFFFFFFFFF
310
FFFFFFFFFFFFFFFFF000FFFFFFFFFFFFFFFFFFFFFFFFFFFFFFFFFFFFFFFFFFFF
310
FFFFFFFFFFFFFFFFFFFFFFFFFFFFFFFFFFFFFFFFFFFFFFFFFFFFFFFFFFFFFFFF
310
FFFFFFFFFFFFFFFFFFFFFFFFFFFFFFFFFFFFFFFFFFFFFFFFFFFFFFFFFFFFFFFF
310
F000FFFFFFFFFFFFFFFFFFFFFFFFFFFFFFFFFFFFFFFFFFFFFFFFFFFFFFFFFFFF
310
FFFFFFFFFFFFFFFFFFFFFFFFFFFFFFFFFFFFFFFFFFFFFFFFFFFFFFFFFFFFFFFF
310
FFFFFFFFFFFFFFFFFFFFFFFFFFFFFFFFFFFFFFFFFFFFFFFFF000FFFFFFFFFFFF
310
FFFFFFFFFFFFFFFFFFFFFFFFFFFFFFFFFFFFFFFFFFFFFFFFFFFFFFFFFFFFFFFF
310
FFFFFFFFFFFFFFFFFFFFFFFFFFFFFFFFFFFFFFFFFFFFFFFFFFFFFFFFFFFFFFFF
310
FFFFFFFFFFFFFFFFFFFFFFFFFFFFFFFFF000FFFFFFFFFFFFFFFFFFFFFFFFFFFF
310
FFFFFFFFFFFFFFFFFFFFFFFFFFFFFFFFFFFFFFFFFFFFFFFFFFFFFFFFFFFFFFFF
310
FFFFFFFFFFFFFFFFFFFFFFFFFFFFFFFFFFFFFFFFFFFFFFFFFFFFFFFFFFFFFFFF
310
FFFFFFFFFFFFFFFFF000FFFFFFFFFFFFFFFFFFFFFFFFFFFFFFFFFFFFFFFFFFFF
310
FFFFFFFFFFFFFFFFFFFFFFFFFFFFFFFFFFFFFFFFFFFFFFFFFFFFFFFFFFFFFFFF
310
FFFFFFFFFFFFFFFFFFFFFFFFFFFFFFFFFFFFFFFFFFFFFFFFFFFFFFFFFFFFFFFF
310
F000FFFFFFFFFFFFFFFFFFFFFFFFFFFFFFFFFFFFFFFFFFFFFFFFFFFFFFFFFFFF
310
FFFFFFFFFFFFFFFFFFFFFFFFFFFFFFFFFFFFFFFFFFFFFFFFFFFFFFFFFFFFFFFF
310
FFFFFFFFFFFFFFFFFFFFFFFFFFFFFFFFFFFFFFFFFFFFFFFFF000FFFFFFFFFFFF
310
FFFFFFFFFFFFFFFFFFFFFFFFFFFFFFFFFFFFFFFFFFFFFFFFFFFFFFFFFFFFFFFF
310
FFFFFFFFFFFFFFFFFFFFFFFFFFFFFFFFFFFFFFFFFFFFFFFFFFFFFFFFFFFFFFFF
310
FFFFFFFFFFFFFFFFFFFFFFFFFFFFFFFFF000FFFFFFFFFFFFFFFFFFFFFFFFFFFF
310
FFFFFFFFFFFFFFFFFFFFFFFFFFFFFFFFFFFFFFFFFFFFFFFFFFFFFFFFFFFFFFFF
310
FFFFFFFFFFFFFFFFFFFFFFFFFFFFFFFFFFFFFFFFFFFFFFFFFFFFFFFFFFFFFFFF
310
FFFFFFFFFFFFFFFFF000FFFFFFFFFFFFFFFFFFFFFFFFFFFFFFFFFFFFFFFFFFFF
310
FFFFFFFFFFFFFFFFFFFFFFFFFFFFFFFFFFFFFFFFFFFFFFFFFFFFFFFFFFFFFFFF
310
FFFFFFFFFFFFFFFFFFFFFFFFFFFFFFFFFFFFFFFFFFFFFFFFFFFFFFFFFFFFFFFF
310
F000FFFFFFFFFFFFFFFFFFFFFFFFFFFFFFFFFFFFFFFFFFFFFFFFFFFFFFFFFFFF
310
FFFFFFFFFFFFFFFFFFFFFFFFFFFFFFFFFFFFFFFFFFFFFFFFFFFFFFFFFFFFFFFF
310
FFFFFFFFFFFFFFFFFFFFFFFFFFFFFFFFFFFFFFFFFFFFFFFFF000FFFFFFFFFFFF
310
FFFFFFFFFFFFFFFFFFFFFFFFFFFFFFFFFFFFFFFFFFFFFFFFFFFFFFFFFFFFFFFF
310
FFFFFFFFFFFFFFFFFFFFFFFFFFFFFFFFFFFFFFFFFFFFFFFFFFFFFFFFFFFFFFFF
310
FFFFFFFFFFFFFFFFFFFFFFFFFFFFFFFFF000FFFFFFFFFFFFFFFFFFFFFFFFFFFF
310
FFFFFFFFFFFFFFFFFFFFFFFFFFFFFFFFFFFFFFFFFFFFFFFFFFFFFFFFFFFFFFFF
310
FFFFFFFFFFFFFFFFFFFFFFFFFFFFFFFFFFFFFFFFFFFFFFFFFFFFFFFFFFFFFFFF
310
FFFFFFFFFFFFFFFFF000FFFFFFFFFFFFFFFFFFFFFFFFFFFFFFFFFFFFFFFFFFFF
310
FFFFFFFFFFFFFFFFFFFFFFFFFFFFFFFFFFFFFFFFFFFFFFFFFFFFFFFFFFFFFFFF
310
FFFFFFFFFFFFFFFFFFFFFFFFFFFFFFFFFFFFFFFFFFFFFFFFFFFFFFFFFFFFFFFF
310
F000FFFFFFFFFFFFFFFFFFFFFFFFFFFFFFFFFFFFFFFFFFFFFFFFFFFFFFFFFFFF
310
FFFFFFFFFFFFFFFFFFFFFFFFFFFFFFFFFFFFFFFFFFFFFFFFFFFFFFFFFFFFFFFF
310
FFFFFFFFFFFFFFFFFFFFFFFFFFFFFFFFFFFFFFFFFFFFFFFFF000FFFFFFFFFFFF
310
FFFFFFFFFFFFFFFFFFFFFFFFFFFFFFFFFFFFFFFFFFFFFFFFFFFFFFFFFFFFFFFF
310
FFFFFFFFFFFFFFFFFFFFFFFFFFFFFFFFFFFFFFFFFFFFFFFFFFFFFFFFFFFFFFFF
310
FFFFFFFFFFFFFFFFFFFFFFFFFFFFFFFFF0000000000000000000000000000000
310
0000000001000000010000000100000001000000010000000100000001000000
310
0100000001000000010000000100000001000000010000000000000001000000
310
0100000001000000010000000100000001000000010000000100000000000000
310
0100000001000000010000000100000001000000010000000100000001000000
310
0000000001000000010000000100000001000000010000000100000001000000
310
0100000000000000010000000100000001000000010000000100000001000000
310
0100000001000000000000000100000001000000010000000100000001000000
310
0100000001000000010000000100000001000000010000000100000001000000
310
0100000001000000010000000100000001000000010000000100000001000000
310
0100000000000000010000000100000001000000010000000100000001000000
310
0100000001000000010000000100000001000000010000000100000001000000
310
0100000001000000010000000100000001000000010000000100000001000000
310
0000000001000000010000000100000001000000010000000100000001000000
310
0100000001000000010000000100000001000000010000000100000001000000
310
0100000001000000010000000100000001000000010000000000000001000000
  1
OLE
  0
ENDSEC
  0
SECTION
  2
OBJECTS
  0
DICTIONARY
  5
C
330
0
100
AcDbDictionary
281
     1
  3
ACAD_GROUP
350
D
  3
ACAD_LAYOUT
350
1A
  3
ACAD_MLEADERSTYLE
350
21E
  3
ACAD_MLINESTYLE
350
17
  3
ACAD_PLOTSETTINGS
350
19
  3
ACAD_PLOTSTYLENAME
350
E
  3
ACAD_TABLESTYLE
350
21D
  3
ACAD_VISUALSTYLE
350
2A
  3
AcDbVariableDictionary
350
21F
  0
DICTIONARY
  5
D
102
{ACAD_REACTORS
330
C
102
}
330
C
100
AcDbDictionary
281
     1
  0
DICTIONARY
  5
1A
102
{ACAD_REACTORS
330
C
102
}
330
C
100
AcDbDictionary
281
     1
  3
Layout1
350
1E
  3
Layout2
350
26
  3
Model
350
22
  0
DICTIONARY
  5
21E
102
{ACAD_REACTORS
330
C
102
}
330
C
100
AcDbDictionary
281
     1
  0
DICTIONARY
  5
17
102
{ACAD_REACTORS
330
C
102
}
330
C
100
AcDbDictionary
281
     1
  3
Standard
350
18
  0
DICTIONARY
  5
19
102
{ACAD_REACTORS
330
C
102
}
330
C
100
AcDbDictionary
281
     1
  0
ACDBDICTIONARYWDFLT
  5
E
102
{ACAD_REACTORS
330
C
102
}
330
C
100
AcDbDictionary
281
     1
  3
Normal
350
F
100
AcDbDictionaryWithDefault
340
F
  0
DICTIONARY
  5
21D
102
{ACAD_REACTORS
330
C
102
}
330
C
100
AcDbDictionary
281
     1
  0
DICTIONARY
  5
2A
102
{ACAD_REACTORS
330
C
102
}
330
C
100
AcDbDictionary
281
     1
  3
2dWireframe
350
2F
  3
3D Hidden
350
31
  3
3dWireframe
350
30
  3
Basic
350
32
  3
Brighten
350
36
  3
ColorChange
350
3A
  3
Conceptual
350
34
  3
Dim
350
35
  3
Facepattern
350
39
  3
Flat
350
2B
  3
FlatWithEdges
350
2C
  3
Gouraud
350
2D
  3
GouraudWithEdges
350
2E
  3
Linepattern
350
38
  3
Realistic
350
33
  3
Thicken
350
37
  0
DICTIONARY
  5
21F
102
{ACAD_REACTORS
330
C
102
}
330
C
100
AcDbDictionary
281
     1
  3
PSOLHEIGHT
350
221
  3
PSOLWIDTH
350
220
  0
LAYOUT
  5
1E
102
{ACAD_REACTORS
330
1A
102
}
330
1A
100
AcDbPlotSettings
  1

  2
none_device
  4

  6

 40
0.0
 41
0.0
 42
0.0
 43
0.0
 44
0.0
 45
0.0
 46
0.0
 47
0.0
 48
0.0
 49
0.0
140
0.0
141
0.0
142
1.0
143
1.0
 70
   688
 72
     0
 73
     0
 74
     5
  7

 75
    16
147
1.0
148
0.0
149
0.0
100
AcDbLayout
  1
Layout1
 70
     1
 71
     1
 10
0.0
 20
0.0
 11
420.0
 21
297.0
 12
0.0
 22
0.0
 32
0.0
 14
1.0000000000E+20
 24
1.0000000000E+20
 34
1.0000000000E+20
 15
-1.0000000000E+20
 25
-1.0000000000E+20
 35
-1.0000000000E+20
146
0.0
 13
0.0
 23
0.0
 33
0.0
 16
1.0
 26
0.0
 36
0.0
 17
0.0
 27
1.0
 37
0.0
 76
     0
330
1B
  0
LAYOUT
  5
26
102
{ACAD_REACTORS
330
1A
102
}
330
1A
100
AcDbPlotSettings
  1

  2
none_device
  4

  6

 40
0.0
 41
0.0
 42
0.0
 43
0.0
 44
0.0
 45
0.0
 46
0.0
 47
0.0
 48
0.0
 49
0.0
140
0.0
141
0.0
142
1.0
143
1.0
 70
   688
 72
     0
 73
     0
 74
     5
  7

 75
    16
147
1.0
148
0.0
149
0.0
100
AcDbLayout
  1
Layout2
 70
     1
 71
     2
 10
0.0
 20
0.0
 11
0.0
 21
0.0
 12
0.0
 22
0.0
 32
0.0
 14
0.0
 24
0.0
 34
0.0
 15
0.0
 25
0.0
 35
0.0
146
0.0
 13
0.0
 23
0.0
 33
0.0
 16
1.0
 26
0.0
 36
0.0
 17
0.0
 27
1.0
 37
0.0
 76
     0
330
23
  0
LAYOUT
  5
22
102
{ACAD_REACTORS
330
1A
102
}
330
1A
100
AcDbPlotSettings
  1

  2
none_device
  4

  6

 40
0.0
 41
0.0
 42
0.0
 43
0.0
 44
0.0
 45
0.0
 46
0.0
 47
0.0
 48
0.0
 49
0.0
140
0.0
141
0.0
142
1.0
143
1.0
 70
  1712
 72
     0
 73
     0
 74
     0
  7

 75
     0
147
1.0
148
0.0
149
0.0
100
AcDbLayout
  1
Model
 70
     1
 71
     0
 10
0.0
 20
0.0
 11
297.0
 21
210.0
 12
0.0
 22
0.0
 32
0.0
 14
0.0
 24
0.0
 34
0.0
 15
297.0
 25
210.0
 35
0.0
146
0.0
 13
0.0
 23
0.0
 33
0.0
 16
1.0
 26
0.0
 36
0.0
 17
0.0
 27
1.0
 37
0.0
 76
     0
330
1F
331
29
  0
MLINESTYLE
  5
18
102
{ACAD_REACTORS
330
17
102
}
330
17
100
AcDbMlineStyle
  2
Standard
 70
     0
  3

 62
   256
 51
90.0
 52
90.0
 71
     2
 49
0.5
 62
   256
  6
BYLAYER
 49
-0.5
 62
   256
  6
BYLAYER
  0
ACDBPLACEHOLDER
  5
F
102
{ACAD_REACTORS
330
E
102
}
330
E
  0
VISUALSTYLE
  5
2F
102
{ACAD_REACTORS
330
2A
102
}
330
2A
100
AcDbVisualStyle
  2
2dWireframe
 70
     4
 71
     0
 72
     2
 73
     0
 90
        0
 40
-0.6
 41
-30.0
 62
     5
 63
     7
 74
     1
 91
        4
 64
     7
 65
   257
 75
     1
175
     1
 42
1.0
 92
        0
 66
   257
 43
1.0
 76
     1
 77
     6
 78
     2
 67
     7
 79
     5
170
     0
171
     0
290
     0
174
     0
 93
        1
 44
0.0
173
     0
291
     0
 45
0.0
1001
ACAD
1000
AcDbSavedByObjectVersion
1070
     0
  0
VISUALSTYLE
  5
31
102
{ACAD_REACTORS
330
2A
102
}
330
2A
100
AcDbVisualStyle
  2
3D Hidden
 70
     6
 71
     1
 72
     2
 73
     2
 90
        0
 40
-0.6
 41
-30.0
 62
     5
 63
     7
 74
     2
 91
        2
 64
     7
 65
   257
 75
     2
175
     1
 42
40.0
 92
        0
 66
   257
 43
1.0
 76
     1
 77
     6
 78
     2
 67
     7
 79
     3
170
     0
171
     0
290
     0
174
     0
 93
        1
 44
0.0
173
     0
291
     0
 45
0.0
1001
ACAD
1000
AcDbSavedByObjectVersion
1070
     0
  0
VISUALSTYLE
  5
30
102
{ACAD_REACTORS
330
2A
102
}
330
2A
100
AcDbVisualStyle
  2
3dWireframe
 70
     5
 71
     0
 72
     2
 73
     0
 90
        0
 40
-0.6
 41
-30.0
 62
     5
 63
     7
 74
     1
 91
        4
 64
     7
 65
   257
 75
     1
175
     1
 42
1.0
 92
        0
 66
   257
 43
1.0
 76
     1
 77
     6
 78
     2
 67
     7
 79
     5
170
     0
171
     0
290
     0
174
     0
 93
        1
 44
0.0
173
     0
291
     0
 45
0.0
1001
ACAD
1000
AcDbSavedByObjectVersion
1070
     0
  0
VISUALSTYLE
  5
32
102
{ACAD_REACTORS
330
2A
102
}
330
2A
100
AcDbVisualStyle
  2
Basic
 70
     7
 71
     1
 72
     0
 73
     1
 90
        0
 40
-0.6
 41
-30.0
 62
     5
 63
     7
 74
     0
 91
        4
 64
     7
 65
   257
 75
     1
175
     1
 42
1.0
 92
        8
 66
     7
 43
1.0
 76
     1
 77
     6
 78
     2
 67
     7
 79
     5
170
     0
171
     0
290
     0
174
     0
 93
        1
 44
0.0
173
     0
291
     1
 45
0.0
1001
ACAD
1000
AcDbSavedByObjectVersion
1070
     0
  0
VISUALSTYLE
  5
36
102
{ACAD_REACTORS
330
2A
102
}
330
2A
100
AcDbVisualStyle
  2
Brighten
 70
    12
 71
     2
 72
     2
 73
     0
 90
        0
 40
-0.6
 41
-30.0
 62
     5
 63
     7
 74
     1
 91
        4
 64
     7
 65
   257
 75
     1
175
     1
 42
1.0
 92
        8
 66
     7
 43
1.0
 76
     1
 77
     6
 78
     2
 67
     7
 79
     5
170
     0
171
     0
290
     0
174
     0
 93
        1
 44
50.0
173
     0
291
     1
 45
0.0
1001
ACAD
1000
AcDbSavedByObjectVersion
1070
     0
  0
VISUALSTYLE
  5
3A
102
{ACAD_REACTORS
330
2A
102
}
330
2A
100
AcDbVisualStyle
  2
ColorChange
 70
    16
 71
     2
 72
     2
 73
     3
 90
        0
 40
-0.6
 41
-30.0
 62
     5
 63
     8
 74
     1
 91
        4
 64
     7
 65
   257
 75
     1
175
     1
 42
1.0
 92
        8
 66
     8
 43
1.0
 76
     1
 77
     6
 78
     2
 67
     7
 79
     5
170
     0
171
     0
290
     0
174
     0
 93
        1
 44
0.0
173
     0
291
     1
 45
0.0
1001
ACAD
1000
AcDbSavedByObjectVersion
1070
     0
  0
VISUALSTYLE
  5
34
102
{ACAD_REACTORS
330
2A
102
}
330
2A
100
AcDbVisualStyle
  2
Conceptual
 70
     9
 71
     3
 72
     2
 73
     0
 90
        0
 40
-0.6
 41
-30.0
 62
     5
 63
     7
 74
     2
 91
        2
 64
     7
 65
   257
 75
     1
175
     1
 42
40.0
 92
        8
 66
     7
 43
1.0
 76
     1
 77
     6
 78
     2
 67
     7
 79
     3
170
     0
171
     0
290
     0
174
     0
 93
        1
 44
0.0
173
     0
291
     0
 45
0.0
1001
ACAD
1000
AcDbSavedByObjectVersion
1070
     0
  0
VISUALSTYLE
  5
35
102
{ACAD_REACTORS
330
2A
102
}
330
2A
100
AcDbVisualStyle
  2
Dim
 70
    11
 71
     2
 72
     2
 73
     0
 90
        0
 40
-0.6
 41
-30.0
 62
     5
 63
     7
 74
     1
 91
        4
 64
     7
 65
   257
 75
     1
175
     1
 42
1.0
 92
        8
 66
     7
 43
1.0
 76
     1
 77
     6
 78
     2
 67
     7
 79
     5
170
     0
171
     0
290
     0
174
     0
 93
        1
 44
-50.0
173
     0
291
     1
 45
0.0
1001
ACAD
1000
AcDbSavedByObjectVersion
1070
     0
  0
VISUALSTYLE
  5
39
102
{ACAD_REACTORS
330
2A
102
}
330
2A
100
AcDbVisualStyle
  2
Facepattern
 70
    15
 71
     2
 72
     2
 73
     0
 90
        0
 40
-0.6
 41
-30.0
 62
     5
 63
     7
 74
     1
 91
        4
 64
     7
 65
   257
 75
     1
175
     1
 42
1.0
 92
        8
 66
     7
 43
1.0
 76
     1
 77
     6
 78
     2
 67
     7
 79
     5
170
     0
171
     0
290
     0
174
     0
 93
        1
 44
0.0
173
     0
291
     1
 45
0.0
1001
ACAD
1000
AcDbSavedByObjectVersion
1070
     0
  0
VISUALSTYLE
  5
2B
102
{ACAD_REACTORS
330
2A
102
}
330
2A
100
AcDbVisualStyle
  2
Flat
 70
     0
 71
     2
 72
     1
 73
     1
 90
        2
 40
-0.6
 41
30.0
 62
     5
 63
     7
 74
     0
 91
        4
 64
     7
 65
   257
 75
     1
175
     1
 42
1.0
 92
        8
 66
     7
 43
1.0
 76
     1
 77
     6
 78
     2
 67
     7
 79
     5
170
     0
171
     0
290
     0
174
     0
 93
       13
 44
0.0
173
     0
291
     1
 45
0.0
1001
ACAD
1000
AcDbSavedByObjectVersion
1070
     0
  0
VISUALSTYLE
  5
2C
102
{ACAD_REACTORS
330
2A
102
}
330
2A
100
AcDbVisualStyle
  2
FlatWithEdges
 70
     1
 71
     2
 72
     1
 73
     1
 90
        2
 40
-0.6
 41
30.0
 62
     5
 63
     7
 74
     1
 91
        4
 64
     7
 65
   257
 75
     1
175
     1
 42
1.0
 92
        0
 66
   257
 43
1.0
 76
     1
 77
     6
 78
     2
 67
     7
 79
     5
170
     0
171
     0
290
     0
174
     0
 93
       13
 44
0.0
173
     0
291
     1
 45
0.0
1001
ACAD
1000
AcDbSavedByObjectVersion
1070
     0
  0
VISUALSTYLE
  5
2D
102
{ACAD_REACTORS
330
2A
102
}
330
2A
100
AcDbVisualStyle
  2
Gouraud
 70
     2
 71
     2
 72
     2
 73
     1
 90
        2
 40
-0.6
 41
30.0
 62
     5
 63
     7
 74
     0
 91
        4
 64
     7
 65
   257
 75
     1
175
     1
 42
1.0
 92
        0
 66
     7
 43
1.0
 76
     1
 77
     6
 78
     2
 67
     7
 79
     5
170
     0
171
     0
290
     0
174
     0
 93
       13
 44
0.0
173
     0
291
     1
 45
0.0
1001
ACAD
1000
AcDbSavedByObjectVersion
1070
     0
  0
VISUALSTYLE
  5
2E
102
{ACAD_REACTORS
330
2A
102
}
330
2A
100
AcDbVisualStyle
  2
GouraudWithEdges
 70
     3
 71
     2
 72
     2
 73
     1
 90
        2
 40
-0.6
 41
30.0
 62
     5
 63
     7
 74
     1
 91
        4
 64
     7
 65
   257
 75
     1
175
     1
 42
1.0
 92
        0
 66
   257
 43
1.0
 76
     1
 77
     6
 78
     2
 67
     7
 79
     5
170
     0
171
     0
290
     0
174
     0
 93
       13
 44
0.0
173
     0
291
     1
 45
0.0
1001
ACAD
1000
AcDbSavedByObjectVersion
1070
     0
  0
VISUALSTYLE
  5
38
102
{ACAD_REACTORS
330
2A
102
}
330
2A
100
AcDbVisualStyle
  2
Linepattern
 70
    14
 71
     2
 72
     2
 73
     0
 90
        0
 40
-0.6
 41
-30.0
 62
     5
 63
     7
 74
     1
 91
        4
 64
     7
 65
   257
 75
     7
175
     7
 42
1.0
 92
        8
 66
     7
 43
1.0
 76
     1
 77
     6
 78
     2
 67
     7
 79
     5
170
     0
171
     0
290
     0
174
     0
 93
        1
 44
0.0
173
     0
291
     1
 45
0.0
1001
ACAD
1000
AcDbSavedByObjectVersion
1070
     0
  0
VISUALSTYLE
  5
33
102
{ACAD_REACTORS
330
2A
102
}
330
2A
100
AcDbVisualStyle
  2
Realistic
 70
     8
 71
     2
 72
     2
 73
     0
 90
        0
 40
-0.6
 41
-30.0
 62
     5
 63
     7
 74
     1
 91
        0
 64
     7
 65
   257
 75
     1
175
     1
 42
1.0
 92
        8
 66
     8
 43
1.0
 76
     1
 77
     6
 78
     2
 67
     7
 79
     5
170
     0
171
     0
290
     0
174
     0
 93
       13
 44
0.0
173
     0
291
     0
 45
0.0
1001
ACAD
1000
AcDbSavedByObjectVersion
1070
     0
  0
VISUALSTYLE
  5
37
102
{ACAD_REACTORS
330
2A
102
}
330
2A
100
AcDbVisualStyle
  2
Thicken
 70
    13
 71
     2
 72
     2
 73
     0
 90
        0
 40
-0.6
 41
-30.0
 62
     5
 63
     7
 74
     1
 91
        4
 64
     7
 65
   257
 75
     1
175
     1
 42
1.0
 92
       12
 66
     7
 43
1.0
 76
     1
 77
     6
 78
     2
 67
     7
 79
     5
170
     0
171
     0
290
     0
174
     0
 93
        1
 44
0.0
173
     0
291
     1
 45
0.0
1001
ACAD
1000
AcDbSavedByObjectVersion
1070
     0
  0
DICTIONARYVAR
  5
221
102
{ACAD_REACTORS
330
21F
102
}
330
21F
100
DictionaryVariables
280
     0
  1
80.000000
  0
DICTIONARYVAR
  5
220
102
{ACAD_REACTORS
330
21F
102
}
330
21F
100
DictionaryVariables
280
     0
  1
5.000000
  0
ENDSEC
  0
EOF
