  0
SECTION
  2
HEADER
  9
$ACADVER
  1
AC1015
  9
$ACADMAINTVER
 70
     6
  9
$DWGCODEPAGE
  3
ANSI_1252
  9
$INSBASE
 10
0.0
 20
0.0
 30
0.0
  9
$EXTMIN
 10
0.0
 20
0.0
 30
0.0
  9
$EXTMAX
 10
297.0
 20
210.0
 30
0.0
  9
$LIMMIN
 10
0.0
 20
0.0
  9
$LIMMAX
 10
297.0
 20
210.0
  9
$ORTHOMODE
 70
     0
  9
$REGENMODE
 70
     1
  9
$FILLMODE
 70
     1
  9
$QTEXTMODE
 70
     0
  9
$MIRRTEXT
 70
     1
  9
$LTSCALE
 40
1.0
  9
$ATTMODE
 70
     1
  9
$TEXTSIZE
 40
2.0
  9
$TRACEWID
 40
1.0
  9
$TEXTSTYLE
  7
Standard
  9
$CLAYER
  8
0
  9
$CELTYPE
  6
ByLayer
  9
$CECOLOR
 62
   256
  9
$CELTSCALE
 40
1.0
  9
$DISPSILH
 70
     0
  9
$DIMSCALE
 40
1.0
  9
$DIMASZ
 40
3.0
  9
$DIMEXO
 40
0.0
  9
$DIMDLI
 40
3.75
  9
$DIMRND
 40
0.0
  9
$DIMDLE
 40
0.0
  9
$DIMEXE
 40
1.0
  9
$DIMTP
 40
0.0
  9
$DIMTM
 40
0.0
  9
$DIMTXT
 40
2.0
  9
$DIMCEN
 40
2.5
  9
$DIMTSZ
 40
0.0
  9
$DIMTOL
 70
     0
  9
$DIMLIM
 70
     0
  9
$DIMTIH
 70
     1
  9
$DIMTOH
 70
     1
  9
$DIMSE1
 70
     0
  9
$DIMSE2
 70
     0
  9
$DIMTAD
 70
     1
  9
$DIMZIN
 70
     0
  9
$DIMBLK
  1

  9
$DIMASO
 70
     1
  9
$DIMSHO
 70
     1
  9
$DIMPOST
  1

  9
$DIMAPOST
  1

  9
$DIMALT
 70
     0
  9
$DIMALTD
 70
     3
  9
$DIMALTF
 40
0.0393700787
  9
$DIMLFAC
 40
1.0
  9
$DIMTOFL
 70
     1
  9
$DIMTVP
 40
0.0
  9
$DIMTIX
 70
     0
  9
$DIMSOXD
 70
     0
  9
$DIMSAH
 70
     0
  9
$DIMBLK1
  1

  9
$DIMBLK2
  1

  9
$DIMSTYLE
  2
ISO-25
  9
$DIMCLRD
 70
     0
  9
$DIMCLRE
 70
     0
  9
$DIMCLRT
 70
     0
  9
$DIMTFAC
 40
1.0
  9
$DIMGAP
 40
1.524
  9
$DIMJUST
 70
     0
  9
$DIMSD1
 70
     0
  9
$DIMSD2
 70
     0
  9
$DIMTOLJ
 70
     0
  9
$DIMTZIN
 70
     0
  9
$DIMALTZ
 70
     0
  9
$DIMALTTZ
 70
     0
  9
$DIMUPT
 70
     0
  9
$DIMDEC
 70
     2
  9
$DIMTDEC
 70
     3
  9
$DIMALTU
 70
     2
  9
$DIMALTTD
 70
     3
  9
$DIMTXSTY
  7
Standard
  9
$DIMAUNIT
 70
     0
  9
$DIMADEC
 70
     2
  9
$DIMALTRND
 40
0.0
  9
$DIMAZIN
 70
     0
  9
$DIMDSEP
 70
    44
  9
$DIMATFIT
 70
     3
  9
$DIMFRAC
 70
     0
  9
$DIMLDRBLK
  1

  9
$DIMLUNIT
 70
     2
  9
$DIMLWD
 70
    -2
  9
$DIMLWE
 70
    -2
  9
$DIMTMOVE
 70
     0
  9
$LUNITS
 70
     2
  9
$LUPREC
 70
     2
  9
$SKETCHINC
 40
1.0
  9
$FILLETRAD
 40
10.0
  9
$AUNITS
 70
     0
  9
$AUPREC
 70
     2
  9
$MENU
  1
.
  9
$ELEVATION
 40
0.0
  9
$PELEVATION
 40
0.0
  9
$THICKNESS
 40
0.0
  9
$LIMCHECK
 70
     0
  9
$CHAMFERA
 40
10.0
  9
$CHAMFERB
 40
10.0
  9
$CHAMFERC
 40
20.0
  9
$CHAMFERD
 40
0.0
  9
$SKPOLY
 70
     0
  9
$TDCREATE
 40
2455630.466110903
  9
$TDUCREATE
 40
2455630.424444236
  9
$TDUPDATE
 40
2455630.466110914
  9
$TDUUPDATE
 40
2455630.424444248
  9
$TDINDWG
 40
0.0000000116
  9
$TDUSRTIMER
 40
0.0000000116
  9
$USRTIMER
 70
     1
  9
$ANGBASE
 50
0.0
  9
$ANGDIR
 70
     0
  9
$PDMODE
 70
     0
  9
$PDSIZE
 40
-1.0
  9
$PLINEWID
 40
0.0
  9
$SPLFRAME
 70
     0
  9
$SPLINETYPE
 70
     6
  9
$SPLINESEGS
 70
     8
  9
$HANDSEED
  5
185
  9
$SURFTAB1
 70
     6
  9
$SURFTAB2
 70
     6
  9
$SURFTYPE
 70
     6
  9
$SURFU
 70
     6
  9
$SURFV
 70
     6
  9
$UCSBASE
  2

  9
$UCSNAME
  2

  9
$UCSORG
 10
0.0
 20
0.0
 30
0.0
  9
$UCSXDIR
 10
1.0
 20
0.0
 30
0.0
  9
$UCSYDIR
 10
0.0
 20
1.0
 30
0.0
  9
$UCSORTHOREF
  2

  9
$UCSORTHOVIEW
 70
     0
  9
$UCSORGTOP
 10
0.0
 20
0.0
 30
0.0
  9
$UCSORGBOTTOM
 10
0.0
 20
0.0
 30
0.0
  9
$UCSORGLEFT
 10
0.0
 20
0.0
 30
0.0
  9
$UCSORGRIGHT
 10
0.0
 20
0.0
 30
0.0
  9
$UCSORGFRONT
 10
0.0
 20
0.0
 30
0.0
  9
$UCSORGBACK
 10
0.0
 20
0.0
 30
0.0
  9
$PUCSBASE
  2

  9
$PUCSNAME
  2

  9
$PUCSORG
 10
0.0
 20
0.0
 30
0.0
  9
$PUCSXDIR
 10
1.0
 20
0.0
 30
0.0
  9
$PUCSYDIR
 10
0.0
 20
1.0
 30
0.0
  9
$PUCSORTHOREF
  2

  9
$PUCSORTHOVIEW
 70
     0
  9
$PUCSORGTOP
 10
0.0
 20
0.0
 30
0.0
  9
$PUCSORGBOTTOM
 10
0.0
 20
0.0
 30
0.0
  9
$PUCSORGLEFT
 10
0.0
 20
0.0
 30
0.0
  9
$PUCSORGRIGHT
 10
0.0
 20
0.0
 30
0.0
  9
$PUCSORGFRONT
 10
0.0
 20
0.0
 30
0.0
  9
$PUCSORGBACK
 10
0.0
 20
0.0
 30
0.0
  9
$USERI1
 70
     0
  9
$USERI2
 70
     0
  9
$USERI3
 70
     0
  9
$USERI4
 70
     0
  9
$USERI5
 70
     0
  9
$USERR1
 40
0.0
  9
$USERR2
 40
0.0
  9
$USERR3
 40
0.0
  9
$USERR4
 40
0.0
  9
$USERR5
 40
0.0
  9
$WORLDVIEW
 70
     1
  9
$SHADEDGE
 70
     3
  9
$SHADEDIF
 70
    70
  9
$TILEMODE
 70
     1
  9
$MAXACTVP
 70
    64
  9
$PINSBASE
 10
0.0
 20
0.0
 30
0.0
  9
$PLIMCHECK
 70
     0
  9
$PEXTMIN
 10
1.0000000000E+20
 20
1.0000000000E+20
 30
1.0000000000E+20
  9
$PEXTMAX
 10
-1.0000000000E+20
 20
-1.0000000000E+20
 30
-1.0000000000E+20
  9
$PLIMMIN
 10
0.0
 20
0.0
  9
$PLIMMAX
 10
420.0
 20
297.0
  9
$UNITMODE
 70
     0
  9
$VISRETAIN
 70
     1
  9
$PLINEGEN
 70
     0
  9
$PSLTSCALE
 70
     1
  9
$TREEDEPTH
 70
  3020
  9
$CMLSTYLE
  2
Standard
  9
$CMLJUST
 70
     0
  9
$CMLSCALE
 40
20.0
  9
$PROXYGRAPHICS
 70
     1
  9
$MEASUREMENT
 70
     1
  9
$CELWEIGHT
370
    -1
  9
$ENDCAPS
280
     0
  9
$JOINSTYLE
280
     0
  9
$LWDISPLAY
290
     1
  9
$INSUNITS
 70
     4
  9
$HYPERLINKBASE
  1

  9
$STYLESHEET
  1

  9
$XEDIT
290
     1
  9
$CEPSNTYPE
380
     0
  9
$PSTYLEMODE
290
     1
  9
$FINGERPRINTGUID
  2
{3C778538-B3C8-4EEA-A68D-0E23DC7AC940}
  9
$VERSIONGUID
  2
{FAEB1C32-E019-11D5-929B-00C0DF256EC4}
  9
$EXTNAMES
290
     1
  9
$PSVPSCALE
 40
0.0
  9
$OLESTARTUP
290
     0
  0
ENDSEC
  0
SECTION
  2
CLASSES
  0
CLASS
  1
ACDBDICTIONARYWDFLT
  2
AcDbDictionaryWithDefault
  3
ObjectDBX Classes
 90
        0
280
     0
281
     0
  0
CLASS
  1
VISUALSTYLE
  2
AcDbVisualStyle
  3
ObjectDBX Classes
 90
     4095
280
     0
281
     0
  0
CLASS
  1
DICTIONARYVAR
  2
AcDbDictionaryVar
  3
ObjectDBX Classes
 90
        0
280
     0
281
     0
  0
CLASS
  1
ACDBPLACEHOLDER
  2
AcDbPlaceHolder
  3
ObjectDBX Classes
 90
        0
280
     0
281
     0
  0
CLASS
  1
LAYOUT
  2
AcDbLayout
  3
ObjectDBX Classes
 90
        0
280
     0
281
     0
  0
ENDSEC
  0
SECTION
  2
TABLES
  0
TABLE
  2
VPORT
  5
8
330
0
100
AcDbSymbolTable
 70
     1
  0
VPORT
  5
29
330
8
100
AcDbSymbolTableRecord
100
AcDbViewportTableRecord
  2
*Active
 70
     0
 10
0.0
 20
0.0
 11
1.0
 21
1.0
 12
148.5
 22
105.0
 13
0.0
 23
0.0
 14
10.0
 24
10.0
 15
10.0
 25
10.0
 16
0.0
 26
0.0
 36
1.0
 17
0.0
 27
0.0
 37
0.0
 40
210.0
 41
1.4142857143
 42
50.0
 43
0.0
 44
0.0
 50
0.0
 51
0.0
 71
     0
 72
  2000
 73
     1
 74
     3
 75
     0
 76
     0
 77
     0
 78
     0
281
     0
 65
     1
110
0.0
120
0.0
130
0.0
111
1.0
121
0.0
131
0.0
112
0.0
122
1.0
132
0.0
 79
     0
146
0.0
  0
ENDTAB
  0
TABLE
  2
LTYPE
  5
5
330
0
100
AcDbSymbolTable
 70
     6
  0
LTYPE
  5
14
330
5
100
AcDbSymbolTableRecord
100
AcDbLinetypeTableRecord
  2
ByBlock
 70
     0
  3

 72
    65
 73
     0
 40
0.0
  0
LTYPE
  5
15
330
5
100
AcDbSymbolTableRecord
100
AcDbLinetypeTableRecord
  2
ByLayer
 70
     0
  3

 72
    65
 73
     0
 40
0.0
  0
LTYPE
  5
16
330
5
100
AcDbSymbolTableRecord
100
AcDbLinetypeTableRecord
  2
Continuous
 70
     0
  3
Solid line
 72
    65
 73
     0
 40
0.0
  0
LTYPE
  5
3B
330
5
100
AcDbSymbolTableRecord
100
AcDbLinetypeTableRecord
  2
HIDDEN
 70
     0
  3
Hidden __ __ __ __ __ __ __ __ __ __ __ __ __ __
 72
    65
 73
     2
 40
1.905
 49
1.27
 74
     0
 49
-0.635
 74
     0
  0
LTYPE
  5
3C
330
5
100
AcDbSymbolTableRecord
100
AcDbLinetypeTableRecord
  2
PHANTOM
 70
     0
  3
Phantom ______  __  __  ______  __  __  ______
 72
    65
 73
     6
 40
12.7
 49
6.35
 74
     0
 49
-1.27
 74
     0
 49
1.27
 74
     0
 49
-1.27
 74
     0
 49
1.27
 74
     0
 49
-1.27
 74
     0
  0
LTYPE
  5
3D
330
5
100
AcDbSymbolTableRecord
100
AcDbLinetypeTableRecord
  2
CENTER
 70
     0
  3
Center ____ _ ____ _ ____ _ ____ _ ____ _ ____
 72
    65
 73
     4
 40
10.16
 49
6.35
 74
     0
 49
-1.27
 74
     0
 49
1.27
 74
     0
 49
-1.27
 74
     0
  0
LTYPE
  5
3E
330
5
100
AcDbSymbolTableRecord
100
AcDbLinetypeTableRecord
  2
CENTERX2
 70
     0
  3
Center (2x) ________  __  ________  __  _____
 72
    65
 73
     4
 40
20.32
 49
12.7
 74
     0
 49
-2.54
 74
     0
 49
2.54
 74
     0
 49
-2.54
 74
     0
  0
LTYPE
  5
3F
330
5
100
AcDbSymbolTableRecord
100
AcDbLinetypeTableRecord
  2
DOT2
 70
     0
  3
Dot (.5x) ........................................
 72
    65
 73
     2
 40
0.635
 49
0.0
 74
     0
 49
-0.635
 74
     0
  0
ENDTAB
  0
TABLE
  2
LAYER
  5
2
330
0
100
AcDbSymbolTable
 70
     5
  0
LAYER
  5
10
330
2
100
AcDbSymbolTableRecord
100
AcDbLayerTableRecord
  2
0
 70
     0
 62
     7
  6
Continuous
370
    -3
390
F
  0
LAYER
  5
40
330
2
100
AcDbSymbolTableRecord
100
AcDbLayerTableRecord
  2
FORMAT
 70
     0
 62
     7
  6
Continuous
370
    -3
390
F
  0
LAYER
  5
41
330
2
100
AcDbSymbolTableRecord
100
AcDbLayerTableRecord
  2
VERMASSUNG
 70
     0
 62
     7
  6
Continuous
370
    -3
390
F
  0
LAYER
  5
42
330
2
100
AcDbSymbolTableRecord
100
AcDbLayerTableRecord
  2
KOPF_DÜNN
 70
     0
 62
     7
  6
Continuous
370
    -3
390
F
  0
LAYER
  5
43
330
2
100
AcDbSymbolTableRecord
100
AcDbLayerTableRecord
  2
KOPF_DICK
 70
     0
 62
     7
  6
Continuous
370
    15
390
F
  0
ENDTAB
  0
TABLE
  2
STYLE
  5
3
330
0
100
AcDbSymbolTable
 70
     3
  0
STYLE
  5
11
330
3
100
AcDbSymbolTableRecord
100
AcDbTextStyleTableRecord
  2
Standard
 70
     0
 40
0.0
 41
1.0
 50
0.0
 71
     0
 42
2.5
  3
txt
  4

  0
STYLE
  5
44
330
3
100
AcDbSymbolTableRecord
100
AcDbTextStyleTableRecord
  2
SLDTEXTSTYLE0
 70
     0
 40
0.0
 41
0.7
 50
0.0
 71
     0
 42
0.2
  3
TXT
  4

  0
STYLE
  5
48
330
3
100
AcDbSymbolTableRecord
100
AcDbTextStyleTableRecord
  2
SLDTEXTSTYLE1
 70
     0
 40
0.0
 41
0.6473684211
 50
0.0
 71
     0
 42
0.2
  3
TXT
  4

  0
ENDTAB
  0
TABLE
  2
VIEW
  5
6
330
0
100
AcDbSymbolTable
 70
     0
  0
ENDTAB
  0
TABLE
  2
UCS
  5
7
330
0
100
AcDbSymbolTable
 70
     0
  0
ENDTAB
  0
TABLE
  2
APPID
  5
9
330
0
100
AcDbSymbolTable
 70
     1
  0
APPID
  5
12
330
9
100
AcDbSymbolTableRecord
100
AcDbRegAppTableRecord
  2
ACAD
 70
     0
  0
ENDTAB
  0
TABLE
  2
DIMSTYLE
  5
A
330
0
100
AcDbSymbolTable
 70
     4
100
AcDbDimStyleTable
  0
DIMSTYLE
105
27
330
A
100
AcDbSymbolTableRecord
100
AcDbDimStyleTableRecord
  2
ISO-25
 70
     0
 41
2.5
 42
0.625
 43
3.75
 44
1.25
 73
     0
 74
     0
 77
     1
 78
     8
140
2.5
141
2.5
143
0.0393700787
147
0.625
171
     3
172
     1
271
     2
272
     2
274
     3
278
    44
283
     0
284
     8
340
11
  0
DIMSTYLE
105
12D
102
{ACAD_REACTORS
330
12C
102
}
330
A
100
AcDbSymbolTableRecord
100
AcDbDimStyleTableRecord
  2
SLDDIMSTYLE0
 70
     0
 41
3.0
 44
0.0
 45
0.000000001
 73
     0
 74
     0
 77
     1
 78
    12
140
2.0
147
0.5
173
     1
271
     2
272
     2
284
    12
340
44
  0
DIMSTYLE
105
13B
102
{ACAD_REACTORS
330
13A
102
}
330
A
100
AcDbSymbolTableRecord
100
AcDbDimStyleTableRecord
  2
SLDDIMSTYLE1
 70
     0
 41
3.0
 44
0.0
 45
0.000000001
 73
     0
 74
     0
 77
     1
 78
    12
140
2.0
147
0.5
173
     1
271
     2
272
     3
284
    12
340
44
  0
DIMSTYLE
105
148
102
{ACAD_REACTORS
330
147
330
152
330
15C
330
166
330
170
102
}
330
A
100
AcDbSymbolTableRecord
100
AcDbDimStyleTableRecord
  2
SLDDIMSTYLE2
 70
     0
 41
3.0
 44
0.0
 45
0.000000001
 73
     0
 74
     0
 77
     1
 78
    12
140
2.0
147
0.5
173
     1
271
     2
272
     3
284
    12
340
44
  0
ENDTAB
  0
TABLE
  2
BLOCK_RECORD
  5
1
330
0
100
AcDbSymbolTable
 70
     8
  0
BLOCK_RECORD
  5
1F
330
1
100
AcDbSymbolTableRecord
100
AcDbBlockTableRecord
  2
*Model_Space
340
22
  0
BLOCK_RECORD
  5
1B
330
1
100
AcDbSymbolTableRecord
100
AcDbBlockTableRecord
  2
*Paper_Space
340
1E
  0
BLOCK_RECORD
  5
23
330
1
100
AcDbSymbolTableRecord
100
AcDbBlockTableRecord
  2
*Paper_Space0
340
26
  0
BLOCK_RECORD
  5
12E
330
1
100
AcDbSymbolTableRecord
100
AcDbBlockTableRecord
  2
*D1
340
0
  0
BLOCK_RECORD
  5
13C
330
1
100
AcDbSymbolTableRecord
100
AcDbBlockTableRecord
  2
*D2
340
0
  0
BLOCK_RECORD
  5
149
330
1
100
AcDbSymbolTableRecord
100
AcDbBlockTableRecord
  2
*D3
340
0
  0
BLOCK_RECORD
  5
153
330
1
100
AcDbSymbolTableRecord
100
AcDbBlockTableRecord
  2
*D4
340
0
  0
BLOCK_RECORD
  5
15D
330
1
100
AcDbSymbolTableRecord
100
AcDbBlockTableRecord
  2
*D5
340
0
  0
BLOCK_RECORD
  5
167
330
1
100
AcDbSymbolTableRecord
100
AcDbBlockTableRecord
  2
*D6
340
0
  0
BLOCK_RECORD
  5
171
330
1
100
AcDbSymbolTableRecord
100
AcDbBlockTableRecord
  2
*D7
340
0
  0
ENDTAB
  0
ENDSEC
  0
SECTION
  2
BLOCKS
  0
BLOCK
  5
20
330
1F
100
AcDbEntity
  8
0
100
AcDbBlockBegin
  2
*Model_Space
 70
     0
 10
0.0
 20
0.0
 30
0.0
  3
*Model_Space
  1

  0
ENDBLK
  5
21
330
1F
100
AcDbEntity
  8
0
100
AcDbBlockEnd
  0
BLOCK
  5
1C
330
1B
100
AcDbEntity
 67
     1
  8
0
100
AcDbBlockBegin
  2
*Paper_Space
 70
     0
 10
0.0
 20
0.0
 30
0.0
  3
*Paper_Space
  1

  0
ENDBLK
  5
1D
330
1B
100
AcDbEntity
 67
     1
  8
0
100
AcDbBlockEnd
  0
BLOCK
  5
24
330
23
100
AcDbEntity
  8
0
100
AcDbBlockBegin
  2
*Paper_Space0
 70
     0
 10
0.0
 20
0.0
 30
0.0
  3
*Paper_Space0
  1

  0
ENDBLK
  5
25
330
23
100
AcDbEntity
  8
0
100
AcDbBlockEnd
  0
BLOCK
  5
12F
330
12E
100
AcDbEntity
  8
0
100
AcDbBlockBegin
  2
*D1
 70
     1
 10
0.0
 20
0.0
 30
0.0
  3
*D1
  1

  0
SOLID
  5
131
330
12E
100
AcDbEntity
  8
VERMASSUNG
100
AcDbTrace
 10
228.8145793405
 20
104.5766048387
 30
0.0
 11
228.3645793405
 21
101.5766048387
 31
0.0
 12
229.2645793405
 22
101.5766048387
 32
0.0
 13
229.2645793405
 23
101.5766048387
 33
0.0
  0
SOLID
  5
132
330
12E
100
AcDbEntity
  8
VERMASSUNG
100
AcDbTrace
 10
228.8145793405
 20
109.5766048387
 30
0.0
 11
229.2645793405
 21
112.5766048387
 31
0.0
 12
228.3645793405
 22
112.5766048387
 32
0.0
 13
228.3645793405
 23
112.5766048387
 33
0.0
  0
LINE
  5
133
330
12E
100
AcDbEntity
  8
VERMASSUNG
100
AcDbLine
 10
218.5145793405
 20
104.5766048387
 30
0.0
 11
229.8145793405
 21
104.5766048387
 31
0.0
  0
LINE
  5
134
330
12E
100
AcDbEntity
  8
VERMASSUNG
100
AcDbLine
 10
218.5145793405
 20
109.5766048387
 30
0.0
 11
229.8145793405
 21
109.5766048387
 31
0.0
  0
LINE
  5
135
330
12E
100
AcDbEntity
  8
VERMASSUNG
100
AcDbLine
 10
228.8145793405
 20
104.5766048387
 30
0.0
 11
228.8145793405
 21
98.5766048387
 31
0.0
  0
LINE
  5
136
330
12E
100
AcDbEntity
  8
VERMASSUNG
100
AcDbLine
 10
228.8145793405
 20
104.5766048387
 30
0.0
 11
228.8145793405
 21
109.5766048387
 31
0.0
  0
LINE
  5
137
330
12E
100
AcDbEntity
  8
VERMASSUNG
100
AcDbLine
 10
228.8145793405
 20
109.5766048387
 30
0.0
 11
228.8145793405
 21
115.5766048387
 31
0.0
  0
MTEXT
  5
138
330
12E
100
AcDbEntity
  8
VERMASSUNG
100
AcDbMText
 10
226.236443861
 20
104.5724637097
 30
0.0
 40
2.0
 41
0.0
 71
     1
 72
     1
  1
%%c
  7
SLDTEXTSTYLE0
 11
6.123233995736766E-17
 21
1.0
 31
0.0
 73
     1
 44
1.0
  0
MTEXT
  5
139
330
12E
100
AcDbEntity
  8
VERMASSUNG
100
AcDbMText
 10
226.2364439774
 20
108.18087
 30
0.0
 40
2.0
 41
0.0
 71
     1
 72
     1
  1
5
  7
SLDTEXTSTYLE0
 11
6.123233995736766E-17
 21
1.0
 31
0.0
 73
     1
 44
1.0
  0
ENDBLK
  5
130
330
12E
100
AcDbEntity
  8
0
100
AcDbBlockEnd
  0
BLOCK
  5
13D
330
13C
100
AcDbEntity
  8
0
100
AcDbBlockBegin
  2
*D2
 70
     1
 10
0.0
 20
0.0
 30
0.0
  3
*D2
  1

  0
SOLID
  5
13F
330
13C
100
AcDbEntity
  8
VERMASSUNG
100
AcDbTrace
 10
234.8145793405
 20
102.0766048387
 30
0.0
 11
235.2645793405
 21
105.0766048387
 31
0.0
 12
234.3645793405
 22
105.0766048387
 32
0.0
 13
234.3645793405
 23
105.0766048387
 33
0.0
  0
SOLID
  5
140
330
13C
100
AcDbEntity
  8
VERMASSUNG
100
AcDbTrace
 10
234.8145793405
 20
112.0766048387
 30
0.0
 11
234.3645793405
 21
109.0766048387
 31
0.0
 12
235.2645793405
 22
109.0766048387
 32
0.0
 13
235.2645793405
 23
109.0766048387
 33
0.0
  0
LINE
  5
141
330
13C
100
AcDbEntity
  8
VERMASSUNG
100
AcDbLine
 10
218.8145793405
 20
102.0766048387
 30
0.0
 11
235.8145793405
 21
102.0766048387
 31
0.0
  0
LINE
  5
142
330
13C
100
AcDbEntity
  8
VERMASSUNG
100
AcDbLine
 10
218.8145793405
 20
112.0766048387
 30
0.0
 11
235.8145793405
 21
112.0766048387
 31
0.0
  0
LINE
  5
143
330
13C
100
AcDbEntity
  8
VERMASSUNG
100
AcDbLine
 10
234.8145793405
 20
102.0766048387
 30
0.0
 11
234.8145793405
 21
112.0766048387
 31
0.0
  0
MTEXT
  5
144
330
13C
100
AcDbEntity
  8
VERMASSUNG
100
AcDbMText
 10
232.236443861
 20
103.4730846774
 30
0.0
 40
2.0
 41
0.0
 71
     1
 72
     1
  1
%%c
  7
SLDTEXTSTYLE0
 11
6.123233995736766E-17
 21
1.0
 31
0.0
 73
     1
 44
1.0
  0
MTEXT
  5
145
330
13C
100
AcDbEntity
  8
VERMASSUNG
100
AcDbMText
 10
232.2364439774
 20
107.0814909677
 30
0.0
 40
2.0
 41
0.0
 71
     1
 72
     1
  1
10
  7
SLDTEXTSTYLE0
 11
6.123233995736766E-17
 21
1.0
 31
0.0
 73
     1
 44
1.0
  0
MTEXT
  5
146
330
13C
100
AcDbEntity
  8
VERMASSUNG
100
AcDbMText
 10
232.2364439774
 20
109.4805803226
 30
0.0
 40
2.0
 41
0.0
 71
     1
 72
     1
  1
 
  7
SLDTEXTSTYLE0
 11
6.123233995736766E-17
 21
1.0
 31
0.0
 73
     1
 44
1.0
  0
ENDBLK
  5
13E
330
13C
100
AcDbEntity
  8
0
100
AcDbBlockEnd
  0
BLOCK
  5
14A
330
149
100
AcDbEntity
  8
0
100
AcDbBlockBegin
  2
*D3
 70
     1
 10
0.0
 20
0.0
 30
0.0
  3
*D3
  1

  0
SOLID
  5
14C
330
149
100
AcDbEntity
  8
VERMASSUNG
100
AcDbTrace
 10
138.8145793405
 20
151.4885543144
 30
0.0
 11
141.8145793405
 21
151.0385543144
 31
0.0
 12
141.8145793405
 22
151.9385543144
 32
0.0
 13
141.8145793405
 23
151.9385543144
 33
0.0
  0
SOLID
  5
14D
330
149
100
AcDbEntity
  8
VERMASSUNG
100
AcDbTrace
 10
218.8145793405
 20
151.4885543144
 30
0.0
 11
215.8145793405
 21
151.9385543144
 31
0.0
 12
215.8145793405
 22
151.0385543144
 32
0.0
 13
215.8145793405
 23
151.0385543144
 33
0.0
  0
LINE
  5
14E
330
149
100
AcDbEntity
  8
VERMASSUNG
100
AcDbLine
 10
138.8145793405
 20
138.2766048387
 30
0.0
 11
138.8145793405
 21
152.4885543144
 31
0.0
  0
LINE
  5
14F
330
149
100
AcDbEntity
  8
VERMASSUNG
100
AcDbLine
 10
218.8145793405
 20
111.6144095929
 30
0.0
 11
218.8145793405
 21
152.4885543144
 31
0.0
  0
LINE
  5
150
330
149
100
AcDbEntity
  8
VERMASSUNG
100
AcDbLine
 10
138.8145793405
 20
151.4885543144
 30
0.0
 11
218.8145793405
 21
151.4885543144
 31
0.0
  0
MTEXT
  5
151
330
149
100
AcDbEntity
  8
VERMASSUNG
100
AcDbMText
 10
177.4147033728
 20
154.0666896776
 30
0.0
 40
2.0
 41
0.0
 71
     1
 72
     1
  1
80
  7
SLDTEXTSTYLE0
 73
     1
 44
1.0
  0
ENDBLK
  5
14B
330
149
100
AcDbEntity
  8
0
100
AcDbBlockEnd
  0
BLOCK
  5
154
330
153
100
AcDbEntity
  8
0
100
AcDbBlockBegin
  2
*D4
 70
     1
 10
0.0
 20
0.0
 30
0.0
  3
*D4
  1

  0
SOLID
  5
156
330
153
100
AcDbEntity
  8
VERMASSUNG
100
AcDbTrace
 10
203.8145793405
 20
139.4885543144
 30
0.0
 11
206.8145793405
 21
139.0385543144
 31
0.0
 12
206.8145793405
 22
139.9385543144
 32
0.0
 13
206.8145793405
 23
139.9385543144
 33
0.0
  0
SOLID
  5
157
330
153
100
AcDbEntity
  8
VERMASSUNG
100
AcDbTrace
 10
218.8145793405
 20
139.4885543144
 30
0.0
 11
215.8145793405
 21
139.9385543144
 31
0.0
 12
215.8145793405
 22
139.0385543144
 32
0.0
 13
215.8145793405
 23
139.0385543144
 33
0.0
  0
LINE
  5
158
330
153
100
AcDbEntity
  8
VERMASSUNG
100
AcDbLine
 10
203.8145793405
 20
109.5766048387
 30
0.0
 11
203.8145793405
 21
140.4885543144
 31
0.0
  0
LINE
  5
159
330
153
100
AcDbEntity
  8
VERMASSUNG
100
AcDbLine
 10
218.8145793405
 20
111.6144095929
 30
0.0
 11
218.8145793405
 21
140.4885543144
 31
0.0
  0
LINE
  5
15A
330
153
100
AcDbEntity
  8
VERMASSUNG
100
AcDbLine
 10
203.8145793405
 20
139.4885543144
 30
0.0
 11
218.8145793405
 21
139.4885543144
 31
0.0
  0
MTEXT
  5
15B
330
153
100
AcDbEntity
  8
VERMASSUNG
100
AcDbMText
 10
210.1150346631
 20
142.0666896776
 30
0.0
 40
2.0
 41
0.0
 71
     1
 72
     1
  1
15
  7
SLDTEXTSTYLE0
 73
     1
 44
1.0
  0
ENDBLK
  5
155
330
153
100
AcDbEntity
  8
0
100
AcDbBlockEnd
  0
BLOCK
  5
15E
330
15D
100
AcDbEntity
  8
0
100
AcDbBlockBegin
  2
*D5
 70
     1
 10
0.0
 20
0.0
 30
0.0
  3
*D5
  1

  0
SOLID
  5
160
330
15D
100
AcDbEntity
  8
VERMASSUNG
100
AcDbTrace
 10
164.7645793405
 20
145.4885543144
 30
0.0
 11
167.7645793405
 21
145.0385543144
 31
0.0
 12
167.7645793405
 22
145.9385543144
 32
0.0
 13
167.7645793405
 23
145.9385543144
 33
0.0
  0
SOLID
  5
161
330
15D
100
AcDbEntity
  8
VERMASSUNG
100
AcDbTrace
 10
218.8145793405
 20
145.4885543144
 30
0.0
 11
215.8145793405
 21
145.9385543144
 31
0.0
 12
215.8145793405
 22
145.0385543144
 32
0.0
 13
215.8145793405
 23
145.0385543144
 33
0.0
  0
LINE
  5
162
330
15D
100
AcDbEntity
  8
VERMASSUNG
100
AcDbLine
 10
164.7645793405
 20
136.9230451625
 30
0.0
 11
164.7645793405
 21
146.4885543144
 31
0.0
  0
LINE
  5
163
330
15D
100
AcDbEntity
  8
VERMASSUNG
100
AcDbLine
 10
218.8145793405
 20
111.6144095929
 30
0.0
 11
218.8145793405
 21
146.4885543144
 31
0.0
  0
LINE
  5
164
330
15D
100
AcDbEntity
  8
VERMASSUNG
100
AcDbLine
 10
164.7645793405
 20
145.4885543144
 30
0.0
 11
218.8145793405
 21
145.4885543144
 31
0.0
  0
MTEXT
  5
165
330
15D
100
AcDbEntity
  8
VERMASSUNG
100
AcDbMText
 10
188.5903863567
 20
148.0666896776
 30
0.0
 40
2.0
 41
0.0
 71
     1
 72
     1
  1
54.05
  7
SLDTEXTSTYLE0
 73
     1
 44
1.0
  0
ENDBLK
  5
15F
330
15D
100
AcDbEntity
  8
0
100
AcDbBlockEnd
  0
BLOCK
  5
168
330
167
100
AcDbEntity
  8
0
100
AcDbBlockBegin
  2
*D6
 70
     1
 10
0.0
 20
0.0
 30
0.0
  3
*D6
  1

  0
SOLID
  5
16A
330
167
100
AcDbEntity
  8
VERMASSUNG
100
AcDbTrace
 10
106.9145793405
 20
157.4885543144
 30
0.0
 11
109.9145793405
 21
157.0385543144
 31
0.0
 12
109.9145793405
 22
157.9385543144
 32
0.0
 13
109.9145793405
 23
157.9385543144
 33
0.0
  0
SOLID
  5
16B
330
167
100
AcDbEntity
  8
VERMASSUNG
100
AcDbTrace
 10
218.8145793405
 20
157.4885543144
 30
0.0
 11
215.8145793405
 21
157.9385543144
 31
0.0
 12
215.8145793405
 22
157.0385543144
 32
0.0
 13
215.8145793405
 23
157.0385543144
 33
0.0
  0
LINE
  5
16C
330
167
100
AcDbEntity
  8
VERMASSUNG
100
AcDbLine
 10
106.9145793405
 20
126.7672825852
 30
0.0
 11
106.9145793405
 21
158.4885543144
 31
0.0
  0
LINE
  5
16D
330
167
100
AcDbEntity
  8
VERMASSUNG
100
AcDbLine
 10
218.8145793405
 20
111.6144095929
 30
0.0
 11
218.8145793405
 21
158.4885543144
 31
0.0
  0
LINE
  5
16E
330
167
100
AcDbEntity
  8
VERMASSUNG
100
AcDbLine
 10
106.9145793405
 20
157.4885543144
 30
0.0
 11
218.8145793405
 21
157.4885543144
 31
0.0
  0
MTEXT
  5
16F
330
167
100
AcDbEntity
  8
VERMASSUNG
100
AcDbMText
 10
160.3653243405
 20
160.0666896776
 30
0.0
 40
2.0
 41
0.0
 71
     1
 72
     1
  1
111.9
  7
SLDTEXTSTYLE0
 73
     1
 44
1.0
  0
ENDBLK
  5
169
330
167
100
AcDbEntity
  8
0
100
AcDbBlockEnd
  0
BLOCK
  5
172
330
171
100
AcDbEntity
  8
0
100
AcDbBlockBegin
  2
*D7
 70
     1
 10
0.0
 20
0.0
 30
0.0
  3
*D7
  1

  0
SOLID
  5
174
330
171
100
AcDbEntity
  8
VERMASSUNG
100
AcDbTrace
 10
100.8342231057
 20
138.5766048387
 30
0.0
 11
100.3842231057
 21
135.5766048387
 31
0.0
 12
101.2842231057
 22
135.5766048387
 32
0.0
 13
101.2842231057
 23
135.5766048387
 33
0.0
  0
SOLID
  5
175
330
171
100
AcDbEntity
  8
VERMASSUNG
100
AcDbTrace
 10
100.8342231057
 20
75.5766048387
 30
0.0
 11
101.2842231057
 21
78.5766048387
 31
0.0
 12
100.3842231057
 22
78.5766048387
 32
0.0
 13
100.3842231057
 23
78.5766048387
 33
0.0
  0
LINE
  5
176
330
171
100
AcDbEntity
  8
VERMASSUNG
100
AcDbLine
 10
139.1145793405
 20
138.5766048387
 30
0.0
 11
99.8342231057
 21
138.5766048387
 31
0.0
  0
LINE
  5
177
330
171
100
AcDbEntity
  8
VERMASSUNG
100
AcDbLine
 10
139.1145793405
 20
75.5766048387
 30
0.0
 11
99.8342231057
 21
75.5766048387
 31
0.0
  0
LINE
  5
178
330
171
100
AcDbEntity
  8
VERMASSUNG
100
AcDbLine
 10
100.8342231057
 20
138.5766048387
 30
0.0
 11
100.8342231057
 21
75.5766048387
 31
0.0
  0
MTEXT
  5
179
330
171
100
AcDbEntity
  8
VERMASSUNG
100
AcDbMText
 10
98.0560876167
 20
99.3724008871
 30
0.0
 40
2.0
 41
0.0
 71
     1
 72
     1
  1
HSK A 
  7
SLDTEXTSTYLE0
 11
-7.044195017643634E-15
 21
1.0
 31
0.0
 73
     1
 44
1.0
  0
MTEXT
  5
17A
330
171
100
AcDbEntity
  8
VERMASSUNG
100
AcDbMText
 10
98.2560876262
 20
108.372401431
 30
0.0
 40
2.0
 41
0.0
 71
     1
 72
     1
  1
%%c
  7
SLDTEXTSTYLE0
 11
-7.044195017643634E-15
 21
1.0
 31
0.0
 73
     1
 44
1.0
  0
MTEXT
  5
17B
330
171
100
AcDbEntity
  8
VERMASSUNG
100
AcDbMText
 10
98.2560877426
 20
111.9810568548
 30
0.0
 40
2.0
 41
0.0
 71
     1
 72
     1
  1
63
  7
SLDTEXTSTYLE0
 11
-7.044195017643634E-15
 21
1.0
 31
0.0
 73
     1
 44
1.0
  0
ENDBLK
  5
173
330
171
100
AcDbEntity
  8
0
100
AcDbBlockEnd
  0
ENDSEC
  0
SECTION
  2
ENTITIES
  0
MTEXT
  5
45
330
1F
100
AcDbEntity
  8
KOPF_DÜNN
100
AcDbMText
 10
13.8892156294
 20
23.8442973028
 30
0.0
 40
3.0
 41
0.0
 71
     1
 72
     1
  1
HA6.S05.K01.080
  7
SLDTEXTSTYLE0
 73
     1
 44
1.0
  0
MTEXT
  5
46
330
1F
100
AcDbEntity
  8
VERMASSUNG
100
AcDbMText
 10
13.9329988022
 20
28.8834360957
 30
0.0
 40
3.0
 41
0.0
 71
     1
 72
     1
  1
Schrumpffutter_Heat shrink chuck
  7
SLDTEXTSTYLE0
 73
     1
 44
1.0
  0
MTEXT
  5
47
330
1F
100
AcDbEntity
  8
VERMASSUNG
100
AcDbMText
 10
98.8601118557
 20
13.8365368179
 30
0.0
 40
2.0
 41
0.0
 71
     1
 72
     1
  1
Datum: 09.03.2011
  7
SLDTEXTSTYLE0
 73
     1
 44
1.0
  0
MTEXT
  5
49
330
1F
100
AcDbEntity
  8
VERMASSUNG
100
AcDbMText
 10
13.933048693
 20
18.0482802738
 30
0.0
 40
2.0
 41
0.0
 71
     1
 72
     1
  1
DIN 69 893 HSK A 63
  7
SLDTEXTSTYLE1
 73
     1
 44
1.0
  0
MTEXT
  5
4A
330
1F
100
AcDbEntity
  8
VERMASSUNG
100
AcDbMText
 10
13.9808475933
 20
13.9090973692
 30
0.0
 40
2.0
 41
0.0
 71
     1
 72
     1
  1
Gewicht: 699g
  7
SLDTEXTSTYLE0
 73
     1
 44
1.0
  0
LINE
  5
4B
330
1F
100
AcDbEntity
  8
0
  6
Continuous
 62
     7
370
    15
100
AcDbLine
 10
139.1145793405
 20
75.5766048387
 30
0.0
 11
143.7645793405
 21
75.5766048387
 31
0.0
  0
LINE
  5
4C
330
1F
100
AcDbEntity
  8
0
  6
Continuous
 62
     7
370
    15
100
AcDbLine
 10
143.7738874273
 20
138.5766048387
 30
0.0
 11
139.1145793405
 21
138.5766048387
 31
0.0
  0
ARC
  5
4D
330
1F
100
AcDbEntity
  8
0
  6
Continuous
 62
     7
370
    15
100
AcDbCircle
 10
139.1145793405
 20
75.8766048387
 30
0.0
 40
0.3000000000000114
100
AcDbArc
 50
180.0
 51
270.0
  0
ARC
  5
4E
330
1F
100
AcDbEntity
  8
0
  6
Continuous
 62
     7
370
    15
100
AcDbCircle
 10
139.1145793405
 20
138.2766048387
 30
0.0
 40
0.3000000000000114
100
AcDbArc
 50
90.0
 51
180.0
  0
ARC
  5
4F
330
1F
100
AcDbEntity
  8
0
  6
Continuous
 62
     7
370
    15
100
AcDbCircle
 10
138.3145725879
 20
82.5061672243
 30
0.0
 40
0.60000675266771
100
AcDbArc
 50
33.5571153394
 51
90.0
  0
ARC
  5
50
330
1F
100
AcDbEntity
  8
0
  6
Continuous
 62
     7
370
    15
100
AcDbCircle
 10
138.3145725879
 20
131.6470424531
 30
0.0
 40
0.6000067526677242
100
AcDbArc
 50
270.0
 51
326.4428846606
  0
LINE
  5
51
330
1F
100
AcDbEntity
  8
0
  6
Continuous
 62
     7
370
    15
100
AcDbLine
 10
125.5830705417
 20
130.7343348588
 30
0.0
 11
113.0145793405
 21
130.1046509309
 31
0.0
  0
LINE
  5
52
330
1F
100
AcDbEntity
  8
0
  6
Continuous
 62
     7
370
    15
100
AcDbLine
 10
136.8145793405
 20
131.2970357004
 30
0.0
 11
133.9975776832
 21
131.1559033529
 31
0.0
  0
LINE
  5
53
330
1F
100
AcDbEntity
  8
0
  6
Continuous
 62
     7
370
    15
100
AcDbLine
 10
133.9976337732
 20
82.9973035144
 30
0.0
 11
136.8145793405
 21
82.856173977
 31
0.0
  0
LINE
  5
54
330
1F
100
AcDbEntity
  8
0
  6
Continuous
 62
     7
370
    15
100
AcDbLine
 10
117.0145793405
 20
83.8481579449
 30
0.0
 11
125.5834730604
 21
83.4188546523
 31
0.0
  0
LINE
  5
55
330
1F
100
AcDbEntity
  8
0
  6
Continuous
 62
     7
370
    15
100
AcDbLine
 10
136.8145793405
 20
82.856173977
 30
0.0
 11
137.6712921139
 21
83.0857294728
 31
0.0
  0
LINE
  5
56
330
1F
100
AcDbEntity
  8
0
  6
Continuous
 62
     7
370
    15
100
AcDbLine
 10
137.6712921139
 20
131.0674802047
 30
0.0
 11
136.8145793405
 21
131.2970357004
 31
0.0
  0
ARC
  5
57
330
1F
100
AcDbEntity
  8
0
  6
Continuous
 62
     7
370
    15
100
AcDbCircle
 10
137.826583541
 20
82.506173977
 30
0.0
 40
0.6000000000000071
100
AcDbArc
 50
90.0
 51
105.0
  0
ARC
  5
58
330
1F
100
AcDbEntity
  8
0
  6
Continuous
 62
     7
370
    15
100
AcDbCircle
 10
137.826583541
 20
131.6470357004
 30
0.0
 40
0.5999999999999943
100
AcDbArc
 50
255.0
 51
270.0
  0
LINE
  5
59
330
1F
100
AcDbEntity
  8
0
  6
Continuous
 62
     7
370
    15
100
AcDbLine
 10
137.826583541
 20
83.106173977
 30
0.0
 11
138.3145725879
 21
83.106173977
 31
0.0
  0
LINE
  5
5A
330
1F
100
AcDbEntity
  8
0
  6
Continuous
 62
     7
370
    15
100
AcDbLine
 10
138.3145725879
 20
131.0470357004
 30
0.0
 11
137.826583541
 21
131.0470357004
 31
0.0
  0
ARC
  5
5B
330
1F
100
AcDbEntity
  8
0
  6
Continuous
 62
     7
370
    15
100
AcDbCircle
 10
174.7645793405
 20
88.5788726683
 30
0.0
 40
10.0
100
AcDbArc
 50
94.5
 51
180.0
  0
ARC
  5
5C
330
1F
100
AcDbEntity
  8
0
  6
Continuous
 62
     7
370
    15
100
AcDbCircle
 10
174.7645793405
 20
125.5743370092
 30
0.0
 40
10.00000000000001
100
AcDbArc
 50
180.0
 51
265.5
  0
LINE
  5
5D
330
1F
100
AcDbEntity
  8
0
  6
Continuous
 62
     7
370
    15
100
AcDbLine
 10
108.1979159805
 20
86.2066048387
 30
0.0
 11
115.6145793405
 21
86.2066048387
 31
0.0
  0
ARC
  5
5E
330
1F
100
AcDbEntity
  8
0
  6
Continuous
 62
     7
370
    15
100
AcDbCircle
 10
115.6145793405
 20
84.8066048387
 30
0.0
 40
1.400000000000006
100
AcDbArc
 50
42.2465410162
 51
90.0
  0
LINE
  5
5F
330
1F
100
AcDbEntity
  8
0
  6
Continuous
 62
     7
370
    15
100
AcDbLine
 10
106.9257397756
 20
87.3454444036
 30
0.0
 11
108.0557427987
 21
86.2154413805
 31
0.0
  0
LINE
  5
60
330
1F
100
AcDbEntity
  8
0
  6
Continuous
 62
     7
370
    15
100
AcDbLine
 10
108.0557427987
 20
127.9377682969
 30
0.0
 11
106.9244801139
 21
126.8065056121
 31
0.0
  0
ARC
  5
61
330
1F
100
AcDbEntity
  8
0
  6
Continuous
 62
     7
370
    15
100
AcDbCircle
 10
111.6145793405
 20
129.3466048387
 30
0.0
 40
1.400000000000008
100
AcDbArc
 50
270.0
 51
301.7485287426
  0
LINE
  5
62
330
1F
100
AcDbEntity
  8
0
  6
Continuous
 62
     7
370
    15
100
AcDbLine
 10
111.6145793405
 20
127.9466048387
 30
0.0
 11
108.2054677419
 21
127.9466048387
 31
0.0
  0
LINE
  5
63
330
1F
100
AcDbEntity
  8
0
  6
Continuous
 62
     7
370
    15
100
AcDbLine
 10
173.9799883832
 20
98.5480460056
 30
0.0
 11
218.3538088884
 21
102.0403414177
 31
0.0
  0
LINE
  5
64
330
1F
100
AcDbEntity
  8
0
  6
Continuous
 62
     7
370
    15
100
AcDbLine
 10
218.3538088884
 20
112.1128682597
 30
0.0
 11
173.9799883832
 21
115.6051636718
 31
0.0
  0
ARC
  5
65
330
1F
100
AcDbEntity
  8
0
  6
Continuous
 62
     7
370
    15
100
AcDbCircle
 10
218.3145793405
 20
102.5388000845
 30
0.0
 40
0.5
100
AcDbArc
 50
274.5
 51
0.0
  0
ARC
  5
66
330
1F
100
AcDbEntity
  8
0
  6
Continuous
 62
     7
370
    15
100
AcDbCircle
 10
218.3145793405
 20
111.6144095929
 30
0.0
 40
0.5
100
AcDbArc
 50
0.0
 51
85.5
  0
SPLINE
  5
67
330
1F
100
AcDbEntity
  8
0
  6
Continuous
 62
     7
370
    15
100
AcDbSpline
210
0.0
220
0.0
230
1.0
 70
     8
 71
     3
 72
    70
 73
    66
 74
     0
 42
0.00000001
 43
0.00000001
 40
-0.03125
 40
-0.03125
 40
0.0
 40
0.0
 40
0.0312499999999999
 40
0.0312499999999999
 40
0.0624999999999999
 40
0.0624999999999999
 40
0.0937499999999998
 40
0.0937499999999998
 40
0.1249999999999997
 40
0.1249999999999997
 40
0.1562499999999997
 40
0.1562499999999997
 40
0.1874999999999996
 40
0.1874999999999996
 40
0.2187499999999995
 40
0.2187499999999995
 40
0.2499999999999994
 40
0.2499999999999994
 40
0.2812499999999996
 40
0.2812499999999996
 40
0.3124999999999996
 40
0.3124999999999996
 40
0.3437499999999997
 40
0.3437499999999997
 40
0.3749999999999998
 40
0.3749999999999998
 40
0.4062499999999999
 40
0.4062499999999999
 40
0.4375
 40
0.4375
 40
0.4687500000000001
 40
0.4687500000000001
 40
0.5000000000000002
 40
0.5000000000000002
 40
0.5312500000000001
 40
0.5312500000000001
 40
0.5625000000000001
 40
0.5625000000000001
 40
0.59375
 40
0.59375
 40
0.6249999999999999
 40
0.6249999999999999
 40
0.6562499999999999
 40
0.6562499999999999
 40
0.6874999999999998
 40
0.6874999999999998
 40
0.7187499999999998
 40
0.7187499999999998
 40
0.7499999999999997
 40
0.7499999999999997
 40
0.7812499999999997
 40
0.7812499999999997
 40
0.8124999999999998
 40
0.8124999999999998
 40
0.8437499999999998
 40
0.8437499999999998
 40
0.8749999999999998
 40
0.8749999999999998
 40
0.9062499999999999
 40
0.9062499999999999
 40
0.9374999999999999
 40
0.9374999999999999
 40
0.96875
 40
0.96875
 40
1.0
 40
1.0
 40
1.03125
 40
1.03125
 10
146.5500340018654
 20
132.1355682334889
 30
0.0
 10
147.0791246791857
 20
132.1355682334889
 30
0.0
 10
147.3391953465628
 20
132.1514686739037
 30
0.0
 10
147.8507700263982
 20
132.2134130240779
 30
0.0
 10
148.1049453101384
 20
132.2602152581692
 30
0.0
 10
148.5892159402001
 20
132.3811922416243
 30
0.0
 10
148.8188570320813
 20
132.4547945694311
 30
0.0
 10
149.2534613803148
 20
132.6266188404093
 30
0.0
 10
149.4590271569614
 20
132.7256222633367
 30
0.0
 10
149.8275842975566
 20
132.9387186772495
 30
0.0
 10
149.9930652802921
 20
133.0536183933792
 30
0.0
 10
150.2854897897272
 20
133.2989852920695
 30
0.0
 10
150.4095907663537
 20
133.4274251925397
 30
0.0
 10
150.6091699631035
 20
133.6883173406257
 30
0.0
 10
150.6861035489617
 20
133.8226985119651
 30
0.0
 10
150.7889606074821
 20
134.0920184630714
 30
0.0
 10
150.8144335169412
 20
134.2246997272896
 30
0.0
 10
150.814723927509
 20
134.4858862014206
 30
0.0
 10
150.7886992937332
 20
134.6156512395854
 30
0.0
 10
150.6865510092412
 20
134.861233873858
 30
0.0
 10
150.6109745616581
 20
134.9778954111669
 30
0.0
 10
150.4104770305131
 20
135.1998006013214
 30
0.0
 10
150.2853481890048
 20
135.3044118552444
 30
0.0
 10
149.9959893879832
 20
135.4944582668525
 30
0.0
 10
149.8305784009277
 20
135.5812179383022
 30
0.0
 10
149.4575878427799
 20
135.7387223140537
 30
0.0
 10
149.2558548096908
 20
135.807047578841
 30
0.0
 10
148.8229955588629
 20
135.9252773024602
 30
0.0
 10
148.5890770259736
 20
135.975572218564
 30
0.0
 10
148.1048932908309
 20
136.0554377554537
 30
0.0
 10
147.8555776648754
 20
136.0851788832533
 30
0.0
 10
147.3425451404477
 20
136.1253316247614
 30
0.0
 10
147.0772513175431
 20
136.1355298941713
 30
0.0
 10
146.5549166976733
 20
136.135606352556
 30
0.0
 10
146.2951630351916
 20
136.125815340947
 30
0.0
 10
145.7785512195463
 20
136.0857485022082
 30
0.0
 10
145.5261851790461
 20
136.0556513353514
 30
0.0
 10
145.0446600575132
 20
135.9764291255212
 30
0.0
 10
144.8118093253997
 20
135.9266716460579
 30
0.0
 10
144.3747194769609
 20
135.8075797036075
 30
0.0
 10
144.1733984883037
 20
135.7392644420602
 30
0.0
 10
143.8043124630038
 20
135.5838634751266
 30
0.0
 10
143.6353277119521
 20
135.4957111330597
 30
0.0
 10
143.3448716552929
 20
135.3052717439434
 30
0.0
 10
143.2217998439308
 20
135.2026471662443
 30
0.0
 10
143.0204636025088
 20
134.9810068196362
 30
0.0
 10
142.9432510565665
 20
134.8622527440887
 30
0.0
 10
142.8410475136665
 20
134.617586805171
 30
0.0
 10
142.8148191622141
 20
134.4904300797225
 30
0.0
 10
142.814342762897
 20
134.2259819338669
 30
0.0
 10
142.840085175395
 20
134.0930812536097
 30
0.0
 10
142.9413959517589
 20
133.8262889801277
 30
0.0
 10
143.0182285911498
 20
133.6909250786591
 30
0.0
 10
143.218632430365
 20
133.4283452833566
 30
0.0
 10
143.3413039286571
 20
133.3013701236028
 30
0.0
 10
143.6312512178213
 20
133.0572907375204
 30
0.0
 10
143.7998221971865
 20
132.9398656127665
 30
0.0
 10
144.1680917912997
 20
132.7266691518181
 30
0.0
 10
144.36915364857
 20
132.6294950333932
 30
0.0
 10
144.8061845671549
 20
132.4561401461791
 30
0.0
 10
145.0383327802845
 20
132.3817405945223
 30
0.0
 10
145.5193430617834
 20
132.2612877150177
 30
0.0
 10
145.7714431446138
 20
132.2144293397517
 30
0.0
 10
146.2885126308728
 20
132.151471842768
 30
0.0
 10
146.5500340018654
 20
132.1355682334889
 30
0.0
 10
147.0791246791857
 20
132.1355682334889
 30
0.0
  0
SPLINE
  5
68
330
1F
100
AcDbEntity
  8
0
  6
Continuous
 62
     7
370
    15
100
AcDbSpline
210
0.0
220
0.0
230
1.0
 70
     8
 71
     3
 72
    70
 73
    66
 74
     0
 42
0.00000001
 43
0.00000001
 40
-0.0312499999999999
 40
-0.0312499999999999
 40
0.0
 40
0.0
 40
0.0312500000000001
 40
0.0312500000000001
 40
0.0625000000000002
 40
0.0625000000000002
 40
0.0937500000000003
 40
0.0937500000000003
 40
0.1250000000000004
 40
0.1250000000000004
 40
0.1562500000000006
 40
0.1562500000000006
 40
0.1875000000000007
 40
0.1875000000000007
 40
0.2187500000000008
 40
0.2187500000000008
 40
0.2500000000000009
 40
0.2500000000000009
 40
0.281250000000001
 40
0.281250000000001
 40
0.3125000000000011
 40
0.3125000000000011
 40
0.3437500000000012
 40
0.3437500000000012
 40
0.3750000000000013
 40
0.3750000000000013
 40
0.4062500000000014
 40
0.4062500000000014
 40
0.4375000000000016
 40
0.4375000000000016
 40
0.4687500000000017
 40
0.4687500000000017
 40
0.5000000000000018
 40
0.5000000000000018
 40
0.5312500000000017
 40
0.5312500000000017
 40
0.5625000000000016
 40
0.5625000000000016
 40
0.5937500000000014
 40
0.5937500000000014
 40
0.6250000000000013
 40
0.6250000000000013
 40
0.6562500000000012
 40
0.6562500000000012
 40
0.6875000000000011
 40
0.6875000000000011
 40
0.718750000000001
 40
0.718750000000001
 40
0.7500000000000009
 40
0.7500000000000009
 40
0.7812500000000008
 40
0.7812500000000008
 40
0.8125000000000007
 40
0.8125000000000007
 40
0.8437500000000006
 40
0.8437500000000006
 40
0.8750000000000004
 40
0.8750000000000004
 40
0.9062500000000003
 40
0.9062500000000003
 40
0.9375000000000002
 40
0.9375000000000002
 40
0.9687500000000001
 40
0.9687500000000001
 40
1.0
 40
1.0
 40
1.03125
 40
1.03125
 10
146.5500340018654
 20
117.697511724693
 30
0.0
 10
147.0791246791857
 20
117.697511724693
 30
0.0
 10
147.3391953465628
 20
117.7221890194782
 30
0.0
 10
147.8507700263982
 20
117.8186606925201
 30
0.0
 10
148.1049453101384
 20
117.8916416085002
 30
0.0
 10
148.5892159402001
 20
118.0813822114388
 30
0.0
 10
148.8188570320813
 20
118.1972428698326
 30
0.0
 10
149.2534613803148
 20
118.4698607157903
 30
0.0
 10
149.4590271569614
 20
118.627899797844
 30
0.0
 10
149.8275842975566
 20
118.9714426488147
 30
0.0
 10
149.9930652802921
 20
119.1582050929164
 30
0.0
 10
150.2854897897272
 20
119.5617482673132
 30
0.0
 10
150.4095907663537
 20
119.7752452637423
 30
0.0
 10
150.6091699631035
 20
120.2146285776648
 30
0.0
 10
150.6861035489617
 20
120.4437685648105
 30
0.0
 10
150.7889606074821
 20
120.9097426875705
 30
0.0
 10
150.8144335169412
 20
121.1426251332466
 30
0.0
 10
150.814723927509
 20
121.6080226683264
 30
0.0
 10
150.7886992937332
 20
121.8428984257208
 30
0.0
 10
150.6865510092412
 20
122.294391572967
 30
0.0
 10
150.6109745616581
 20
122.5124380483784
 30
0.0
 10
150.4104770305131
 20
122.9335325734162
 30
0.0
 10
150.2853481890048
 20
123.1354539579345
 30
0.0
 10
149.9959893879832
 20
123.5074834404535
 30
0.0
 10
149.8305784009277
 20
123.6801117440338
 30
0.0
 10
149.4575878427799
 20
123.9974297485798
 30
0.0
 10
149.2558548096908
 20
124.1372166820815
 30
0.0
 10
148.8229955588629
 20
124.3813929356333
 30
0.0
 10
148.5890770259736
 20
124.4866224466748
 30
0.0
 10
148.1048932908309
 20
124.6547795930499
 30
0.0
 10
147.8555776648754
 20
124.7180304836437
 30
0.0
 10
147.3425451404477
 20
124.8036096927463
 30
0.0
 10
147.0772513175431
 20
124.8254818576687
 30
0.0
 10
146.5549166976733
 20
124.8256455073127
 30
0.0
 10
146.2951630351916
 20
124.8046438152167
 30
0.0
 10
145.7785512195463
 20
124.719241460139
 30
0.0
 10
145.5261851790461
 20
124.6552352768521
 30
0.0
 10
145.0446600575132
 20
124.4884207568109
 30
0.0
 10
144.8118093253997
 20
124.3842875934117
 30
0.0
 10
144.3747194769609
 20
124.1383009409168
 30
0.0
 10
144.1733984883037
 20
123.9985511099679
 30
0.0
 10
143.8043124630038
 20
123.6854130402433
 30
0.0
 10
143.6353277119521
 20
123.5099568809732
 30
0.0
 10
143.3448716552929
 20
123.137116616873
 30
0.0
 10
143.2217998439308
 20
122.9389948067621
 30
0.0
 10
143.0204636025088
 20
122.5182834640284
 30
0.0
 10
142.9432510565665
 20
122.2962934433609
 30
0.0
 10
142.8410475136665
 20
121.8464285036525
 30
0.0
 10
142.8148191622141
 20
121.6161730905357
 30
0.0
 10
142.814342762897
 20
121.1448571479867
 30
0.0
 10
142.840085175395
 20
120.9116197322725
 30
0.0
 10
142.9413959517589
 20
120.4499431927745
 30
0.0
 10
143.0182285911498
 20
120.2190458056623
 30
0.0
 10
143.218632430365
 20
119.7767697918707
 30
0.0
 10
143.3413039286571
 20
119.5657073605848
 30
0.0
 10
143.6312512178213
 20
119.1642088498521
 30
0.0
 10
143.7998221971865
 20
118.9733023277762
 30
0.0
 10
144.1680917912997
 20
118.6295769957791
 30
0.0
 10
144.36915364857
 20
118.474439809565
 30
0.0
 10
144.8061845671549
 20
118.1993624494853
 30
0.0
 10
145.0383327802845
 20
118.0822462200633
 30
0.0
 10
145.5193430617834
 20
117.8933197349987
 30
0.0
 10
145.7714431446138
 20
117.8202447646045
 30
0.0
 10
146.2885126308728
 20
117.72219270547
 30
0.0
 10
146.5500340018654
 20
117.697511724693
 30
0.0
 10
147.0791246791857
 20
117.697511724693
 30
0.0
  0
LINE
  5
69
330
1F
100
AcDbEntity
  8
0
  6
Continuous
 62
     7
370
    15
100
AcDbLine
 10
143.7645793405
 20
126.9266048387
 30
0.0
 11
153.422646509
 21
126.9266048387
 31
0.0
  0
LINE
  5
6A
330
1F
100
AcDbEntity
  8
0
  6
Continuous
 62
     7
370
    15
100
AcDbLine
 10
153.422646509
 20
76.8896871425
 30
0.0
 11
153.422646509
 21
126.9266048387
 31
0.0
  0
LINE
  5
6B
330
1F
100
AcDbEntity
  8
0
  6
Continuous
 62
     7
370
    15
100
AcDbLine
 10
153.422646509
 20
76.8896871425
 30
0.0
 11
151.7645793405
 21
76.8896871425
 31
0.0
  0
SPLINE
  5
6C
330
1F
100
AcDbEntity
  8
0
  6
Continuous
 62
     7
370
    15
100
AcDbSpline
210
0.0
220
0.0
230
1.0
 70
     8
 71
     3
 72
    28
 73
    24
 74
     0
 42
0.00000001
 43
0.00000001
 40
0.0
 40
0.0
 40
0.0
 40
0.0
 40
0.1249999999999999
 40
0.1249999999999999
 40
0.1874999999999998
 40
0.1874999999999998
 40
0.2499999999999997
 40
0.2499999999999997
 40
0.3749999999999993
 40
0.3749999999999993
 40
0.4374999999999993
 40
0.4374999999999993
 40
0.4999999999999992
 40
0.4999999999999992
 40
0.6249999999999992
 40
0.6249999999999992
 40
0.7499999999999992
 40
0.7499999999999992
 40
0.8124999999999993
 40
0.8124999999999993
 40
0.8749999999999996
 40
0.8749999999999996
 40
1.0
 40
1.0
 40
1.0
 40
1.0
 10
151.7645793405256
 20
76.88968714246252
 30
0.0
 10
151.2328715830326
 20
76.88968714246252
 30
0.0
 10
150.7106330177223
 20
76.87390242851231
 30
0.0
 10
149.9407625314473
 20
76.82890701443611
 30
0.0
 10
149.686402959256
 20
76.81035201936038
 30
0.0
 10
149.1822813785575
 20
76.76649929691388
 30
0.0
 10
148.9325585611295
 20
76.74115468996168
 30
0.0
 10
148.2069686096831
 20
76.65775261221157
 30
0.0
 10
147.7486083481016
 20
76.59188705306049
 30
0.0
 10
147.0981104047077
 20
76.48291671256871
 30
0.0
 10
146.8864283539152
 20
76.44467707680205
 30
0.0
 10
146.4823568647772
 20
76.36691833938269
 30
0.0
 10
146.2898503509564
 20
76.32741737720735
 30
0.0
 10
145.7400153799351
 20
76.20850963484133
 30
0.0
 10
145.4100866016263
 20
76.12869195341672
 30
0.0
 10
144.8256153330576
 20
75.97534879162068
 30
0.0
 10
144.5793381950442
 20
75.90401503835142
 30
0.0
 10
144.2794954023461
 20
75.81007153127679
 30
0.0
 10
144.1910385452739
 20
75.78087773791687
 30
0.0
 10
144.0376771919688
 20
75.72741116365346
 30
0.0
 10
143.9725889777425
 20
75.70305182937828
 30
0.0
 10
143.8169949618018
 20
75.63946168393355
 30
0.0
 10
143.7645793405256
 20
75.60935874884429
 30
0.0
 10
143.7645793405256
 20
75.59248185584735
 30
0.0
  0
LINE
  5
6D
330
1F
100
AcDbEntity
  8
0
  6
Continuous
 62
     7
370
    15
100
AcDbLine
 10
143.7645793405
 20
75.5924818558
 30
0.0
 11
143.7645793405
 21
75.5766048387
 31
0.0
  0
SPLINE
  5
6E
330
1F
100
AcDbEntity
  8
0
  6
Continuous
 62
     7
370
    15
100
AcDbSpline
210
0.0
220
0.0
230
1.0
 70
     8
 71
     3
 72
    22
 73
    18
 74
     0
 42
0.00000001
 43
0.00000001
 40
0.0
 40
0.0
 40
0.0
 40
0.0
 40
0.0515773377536172
 40
0.1565264849943629
 40
0.2100197540385886
 40
0.2615951369298746
 40
0.3664424119934944
 40
0.4198226601719804
 40
0.4724528789006787
 40
0.5794488992297345
 40
0.6339397336480287
 40
0.6872670452602945
 40
0.7409741315029982
 40
0.795896881336183
 40
0.8512481408256363
 40
0.9034470736265864
 40
1.0
 40
1.0
 40
1.0
 40
1.0
 10
151.7645793405256
 20
137.5438003118739
 30
0.0
 10
151.5477691445231
 20
137.5451969329425
 30
0.0
 10
150.8897953256083
 20
137.5494353871987
 30
0.0
 10
150.0147003482774
 20
137.588967711553
 30
0.0
 10
149.1698748534206
 20
137.6519409583949
 30
0.0
 10
148.3501495698164
 20
137.72995499165
 30
0.0
 10
147.5743595917879
 20
137.8268381195252
 30
0.0
 10
146.8568711304815
 20
137.9350975314412
 30
0.0
 10
146.1776063833094
 20
138.0488159037456
 30
0.0
 10
145.5692914054005
 20
138.1653160886864
 30
0.0
 10
145.0491994646773
 20
138.2744163401034
 30
0.0
 10
144.7053092869612
 20
138.3504202378335
 30
0.0
 10
144.4103555592336
 20
138.4184536937551
 30
0.0
 10
144.1645812718924
 20
138.4771667445137
 30
0.0
 10
143.978678962919
 20
138.5227821244474
 30
0.0
 10
143.8070823571953
 20
138.5657415760079
 30
0.0
 10
143.7869530820191
 20
138.57090259781
 30
0.0
 10
143.7738874273453
 20
138.5742525509523
 30
0.0
  0
LINE
  5
6F
330
1F
100
AcDbEntity
  8
0
  6
Continuous
 62
     7
370
    15
100
AcDbLine
 10
153.422646509
 20
137.5438003119
 30
0.0
 11
151.7645793405
 21
137.5438003119
 31
0.0
  0
LINE
  5
70
330
1F
100
AcDbEntity
  8
0
  6
Continuous
 62
     7
370
    15
100
AcDbLine
 10
153.422646509
 20
131.5352945011
 30
0.0
 11
153.422646509
 21
137.5438003119
 31
0.0
  0
LINE
  5
71
330
1F
100
AcDbEntity
  8
0
  6
Continuous
 62
     7
370
    15
100
AcDbLine
 10
151.0101996862
 20
131.5352945011
 30
0.0
 11
153.422646509
 21
131.5352945011
 31
0.0
  0
SPLINE
  5
72
330
1F
100
AcDbEntity
  8
0
  6
Continuous
 62
     7
370
    15
100
AcDbSpline
210
0.0
220
0.0
230
1.0
 70
     8
 71
     3
 72
    20
 73
    16
 74
     0
 42
0.00000001
 43
0.00000001
 40
0.0
 40
0.0
 40
0.0
 40
0.0
 40
0.2499999999999995
 40
0.2499999999999995
 40
0.3749999999999996
 40
0.3749999999999996
 40
0.4999999999999997
 40
0.4999999999999997
 40
0.6249999999999998
 40
0.6249999999999998
 40
0.7499999999999998
 40
0.7499999999999998
 40
0.8749999999999999
 40
0.8749999999999999
 40
1.0
 40
1.0
 40
1.0
 40
1.0
 10
143.7645793405256
 20
126.9266048387097
 30
0.0
 10
144.0129530748136
 20
127.5804672670071
 30
0.0
 10
144.3325231671589
 20
128.1842530490042
 30
0.0
 10
144.9548294003636
 20
129.0110917851729
 30
0.0
 10
145.1862536607943
 20
129.2735204231257
 30
0.0
 10
145.707468000444
 20
129.7701830772307
 30
0.0
 10
145.9940884830791
 20
130.0007699562523
 30
0.0
 10
146.6135732243867
 20
130.4173241808349
 30
0.0
 10
146.9478736038737
 20
130.6048219828024
 30
0.0
 10
147.6731340764985
 20
130.9362189604388
 30
0.0
 10
148.055049133889
 20
131.0757229479341
 30
0.0
 10
148.8498373100606
 20
131.301176455405
 30
0.0
 10
149.263995504267
 20
131.3878025669487
 30
0.0
 10
150.1295418448484
 20
131.5057833558028
 30
0.0
 10
150.5674294598603
 20
131.5352945010771
 30
0.0
 10
151.0101996862148
 20
131.5352945010771
 30
0.0
  0
LINE
  5
73
330
1F
100
AcDbEntity
  8
0
  6
Continuous
 62
     7
370
    15
100
AcDbLine
 10
160.206512172
 20
76.8896871425
 30
0.0
 11
160.206512172
 21
126.9266048387
 31
0.0
  0
SPLINE
  5
74
330
1F
100
AcDbEntity
  8
0
  6
Continuous
 62
     7
370
    15
100
AcDbSpline
210
0.0
220
0.0
230
1.0
 70
     8
 71
     3
 72
     8
 73
     4
 74
     0
 42
0.00000001
 43
0.00000001
 40
0.0
 40
0.0
 40
0.0
 40
0.0
 40
1.0
 40
1.0
 40
1.0
 40
1.0
 10
160.2065121720146
 20
76.88968714246252
 30
0.0
 10
159.7110325113489
 20
77.78521323039588
 30
0.0
 10
159.2169184633067
 20
78.68149764544813
 30
0.0
 10
158.7245793405256
 20
79.57876767965483
 30
0.0
  0
LINE
  5
75
330
1F
100
AcDbEntity
  8
0
  6
Continuous
 62
     7
370
    15
100
AcDbLine
 10
158.7245793405
 20
79.5787676797
 30
0.0
 11
158.7245793405
 21
126.9266048387
 31
0.0
  0
SPLINE
  5
76
330
1F
100
AcDbEntity
  8
0
  6
Continuous
 62
     7
370
    15
100
AcDbSpline
210
0.0
220
0.0
230
1.0
 70
    24
 71
     3
 72
     8
 73
     4
 74
     0
 42
0.00000001
 43
0.00000001
 40
0.0
 40
0.0
 40
0.0
 40
0.0
 40
1.0
 40
1.0
 40
1.0
 40
1.0
 10
158.7245793405256
 20
126.9266048387097
 30
0.0
 10
159.2045313348904
 20
126.9266048387097
 30
0.0
 10
159.6998320638641
 20
126.9266048387097
 30
0.0
 10
160.2065121720146
 20
126.9266048387097
 30
0.0
  0
LINE
  5
77
330
1F
100
AcDbEntity
  8
0
  6
Continuous
 62
     7
370
    15
100
AcDbLine
 10
138.8145793405
 20
75.8766048387
 30
0.0
 11
138.8145793405
 21
138.2766048326
 31
0.0
  0
LINE
  5
78
330
1F
100
AcDbEntity
  8
0
  6
Continuous
 62
     7
370
    15
100
AcDbLine
 10
164.7645793405
 20
77.5163274381
 30
0.0
 11
164.7645793405
 21
126.9266048387
 31
0.0
  0
SPLINE
  5
79
330
1F
100
AcDbEntity
  8
0
  6
Continuous
 62
     7
370
    15
100
AcDbSpline
210
0.0
220
0.0
230
1.0
 70
     8
 71
     3
 72
    10
 73
     6
 74
     0
 42
0.00000001
 43
0.00000001
 40
0.0
 40
0.0
 40
0.0
 40
0.0
 40
0.5
 40
0.5
 40
1.0
 40
1.0
 40
1.0
 40
1.0
 10
164.7645793405256
 20
77.51632743811685
 30
0.0
 10
164.7645793405256
 20
77.35644016992319
 30
0.0
 10
164.7032696892897
 20
77.19531291440858
 30
0.0
 10
164.4841700517546
 20
76.96121391605375
 30
0.0
 10
164.3261218454412
 20
76.88968714246252
 30
0.0
 10
164.1645793405256
 20
76.88968714246252
 30
0.0
  0
SPLINE
  5
7A
330
1F
100
AcDbEntity
  8
0
  6
Continuous
 62
     7
370
    15
100
AcDbSpline
210
0.0
220
0.0
230
1.0
 70
    24
 71
     3
 72
    12
 73
     8
 74
     0
 42
0.00000001
 43
0.00000001
 40
0.0
 40
0.0
 40
0.0
 40
0.0
 40
0.2500000000000033
 40
0.2500000000000033
 40
0.5000000000000067
 40
0.5000000000000067
 40
1.0
 40
1.0
 40
1.0
 40
1.0
 10
164.1645793405256
 20
126.9266048387097
 30
0.0
 10
164.2548184082126
 20
126.9266048387097
 30
0.0
 10
164.3457165223191
 20
126.9266048387097
 30
0.0
 10
164.5003135588076
 20
126.9266048387097
 30
0.0
 10
164.5652919749157
 20
126.9266048387097
 30
0.0
 10
164.717127002852
 20
126.9266048387097
 30
0.0
 10
164.7645793405256
 20
126.9266048387097
 30
0.0
 10
164.7645793405256
 20
126.9266048387097
 30
0.0
  0
LINE
  5
7B
330
1F
100
AcDbEntity
  8
0
  6
Continuous
 62
     7
370
    15
100
AcDbLine
 10
164.1645793405
 20
76.8896871425
 30
0.0
 11
160.206512172
 21
76.8896871425
 31
0.0
  0
LINE
  5
7C
330
1F
100
AcDbEntity
  8
0
  6
Continuous
 62
     7
370
    15
100
AcDbLine
 10
160.206512172
 20
126.9266048387
 30
0.0
 11
164.1645793405
 21
126.9266048387
 31
0.0
  0
LINE
  5
7D
330
1F
100
AcDbEntity
  8
0
  6
Continuous
 62
     7
370
    15
100
AcDbLine
 10
154.9045793405
 20
79.5787676797
 30
0.0
 11
154.9045793405
 21
126.9266048387
 31
0.0
  0
SPLINE
  5
7E
330
1F
100
AcDbEntity
  8
0
  6
Continuous
 62
     7
370
    15
100
AcDbSpline
210
0.0
220
0.0
230
1.0
 70
     8
 71
     3
 72
     8
 73
     4
 74
     0
 42
0.00000001
 43
0.00000001
 40
0.0
 40
0.0
 40
0.0
 40
0.0
 40
1.0
 40
1.0
 40
1.0
 40
1.0
 10
154.9045793405256
 20
79.57876767965483
 30
0.0
 10
154.4122402177444
 20
78.68149764544813
 30
0.0
 10
153.9181261697022
 20
77.78521323039587
 30
0.0
 10
153.4226465090365
 20
76.88968714246252
 30
0.0
  0
SPLINE
  5
7F
330
1F
100
AcDbEntity
  8
0
  6
Continuous
 62
     7
370
    15
100
AcDbSpline
210
0.0
220
0.0
230
1.0
 70
    24
 71
     3
 72
     8
 73
     4
 74
     0
 42
0.00000001
 43
0.00000001
 40
0.0
 40
0.0
 40
0.0
 40
0.0
 40
1.0
 40
1.0
 40
1.0
 40
1.0
 10
153.4226465090365
 20
126.9266048387097
 30
0.0
 10
153.9293266171871
 20
126.9266048387097
 30
0.0
 10
154.4246273461607
 20
126.9266048387097
 30
0.0
 10
154.9045793405256
 20
126.9266048387097
 30
0.0
  0
ARC
  5
80
330
1F
100
AcDbEntity
  8
0
  6
Continuous
 62
     7
370
    15
100
AcDbCircle
 10
146.8150188305
 20
118.9777245269
 30
0.0
 40
4.113515625947318
100
AcDbArc
 50
19.9276889788
 51
160.2671456463
  0
SPLINE
  5
81
330
1F
100
AcDbEntity
  8
0
  6
Continuous
 62
     7
370
    15
100
AcDbSpline
210
0.0
220
0.0
230
1.0
 70
    24
 71
     3
 72
    14
 73
    10
 74
     0
 42
0.00000001
 43
0.00000001
 40
0.0
 40
0.0
 40
0.0
 40
0.0
 40
0.4999999999999984
 40
0.4999999999999984
 40
0.7499999999999992
 40
0.7499999999999992
 40
0.8749999999999996
 40
0.8749999999999996
 40
1.0
 40
1.0
 40
1.0
 40
1.0
 10
158.6269045381933
 20
80.6766048387097
 30
0.0
 10
158.5801198331451
 20
80.6766048387097
 30
0.0
 10
158.5180686363655
 20
80.6766048387097
 30
0.0
 10
158.3746769978148
 20
80.67660483870968
 30
0.0
 10
158.3185333442637
 20
80.6766048387097
 30
0.0
 10
158.2055823221275
 20
80.6766048387097
 30
0.0
 10
158.1625815600894
 20
80.6766048387097
 30
0.0
 10
158.0585188497829
 20
80.6766048387097
 30
0.0
 10
157.993186611426
 20
80.6766048387097
 30
0.0
 10
157.9245793405256
 20
80.6766048387097
 30
0.0
  0
SPLINE
  5
82
330
1F
100
AcDbEntity
  8
0
  6
Continuous
 62
     7
370
    15
100
AcDbSpline
210
0.0
220
0.0
230
1.0
 70
    24
 71
     3
 72
    12
 73
     8
 74
     0
 42
0.00000001
 43
0.00000001
 40
0.0
 40
0.0
 40
0.0
 40
0.0
 40
0.5000000000000074
 40
0.5000000000000074
 40
0.7500000000000037
 40
0.7500000000000037
 40
1.0
 40
1.0
 40
1.0
 40
1.0
 10
158.3302818088346
 20
133.4766048387097
 30
0.0
 10
158.2871962592237
 20
133.4766048387097
 30
0.0
 10
158.2380440574744
 20
133.4766048387097
 30
0.0
 10
158.1415714631864
 20
133.4766048387097
 30
0.0
 10
158.1054698780518
 20
133.4766048387097
 30
0.0
 10
158.0223641201906
 20
133.4766048387097
 30
0.0
 10
157.9743675232243
 20
133.4766048387097
 30
0.0
 10
157.9245793405256
 20
133.4766048387097
 30
0.0
  0
SPLINE
  5
83
330
1F
100
AcDbEntity
  8
0
  6
Continuous
 62
     7
370
    15
100
AcDbSpline
210
0.0
220
0.0
230
1.0
 70
     8
 71
     3
 72
    10
 73
     6
 74
     0
 42
0.00000001
 43
0.00000001
 40
0.0
 40
0.0
 40
0.0
 40
0.0
 40
0.5
 40
0.5
 40
1.0
 40
1.0
 40
1.0
 40
1.0
 10
158.7245793405256
 20
134.1962586897455
 30
0.0
 10
158.7245793405256
 20
134.0524886319274
 30
0.0
 10
158.6885302818067
 20
133.9100692694323
 30
0.0
 10
158.5530214210327
 20
133.6601749760751
 30
0.0
 10
158.4531454279365
 20
133.5521446398269
 30
0.0
 10
158.3302818088346
 20
133.4766048387096
 30
0.0
  0
SPLINE
  5
84
330
1F
100
AcDbEntity
  8
0
  6
Continuous
 62
     7
370
    15
100
AcDbSpline
210
0.0
220
0.0
230
1.0
 70
     8
 71
     3
 72
    10
 73
     6
 74
     0
 42
0.00000001
 43
0.00000001
 40
0.0
 40
0.0
 40
0.0
 40
0.0
 40
0.5
 40
0.5
 40
1.0
 40
1.0
 40
1.0
 40
1.0
 10
158.6984317173655
 20
126.9266048387097
 30
0.0
 10
158.7071213602771
 20
126.9734836880278
 30
0.0
 10
158.7136604250276
 20
127.0209061534291
 30
0.0
 10
158.7224190594206
 20
127.1168429520158
 30
0.0
 10
158.7245793405256
 20
127.1647582400263
 30
0.0
 10
158.7245793405256
 20
127.2124714701709
 30
0.0
  0
SPLINE
  5
85
330
1F
100
AcDbEntity
  8
0
  6
Continuous
 62
     7
370
    15
100
AcDbSpline
210
0.0
220
0.0
230
1.0
 70
     8
 71
     3
 72
    10
 73
     6
 74
     0
 42
0.00000001
 43
0.00000001
 40
0.0
 40
0.0
 40
0.0
 40
0.0
 40
0.5
 40
0.5
 40
1.0
 40
1.0
 40
1.0
 40
1.0
 10
155.2988768722165
 20
133.4766048387097
 30
0.0
 10
155.177336608548
 20
133.5513310059215
 30
0.0
 10
155.0760022481991
 20
133.6602760218382
 30
0.0
 10
154.9403633053107
 20
133.9107065025999
 30
0.0
 10
154.9045793405256
 20
134.0531258646988
 30
0.0
 10
154.9045793405256
 20
134.1962586897455
 30
0.0
  0
SPLINE
  5
86
330
1F
100
AcDbEntity
  8
0
  6
Continuous
 62
     7
370
    15
100
AcDbSpline
210
0.0
220
0.0
230
1.0
 70
    24
 71
     3
 72
    12
 73
     8
 74
     0
 42
0.00000001
 43
0.00000001
 40
0.0
 40
0.0
 40
0.0
 40
0.0
 40
0.2499999999999971
 40
0.2499999999999971
 40
0.4999999999999942
 40
0.4999999999999942
 40
1.0
 40
1.0
 40
1.0
 40
1.0
 10
155.7045793405256
 20
133.4766048387097
 30
0.0
 10
155.6547026582081
 20
133.4766048387097
 30
0.0
 10
155.6066994648045
 20
133.4766048387097
 30
0.0
 10
155.5236513620926
 20
133.4766048387097
 30
0.0
 10
155.4875217826247
 20
133.4766048387097
 30
0.0
 10
155.3916097516805
 20
133.4766048387097
 30
0.0
 10
155.3418510837117
 20
133.4766048387097
 30
0.0
 10
155.2988768722165
 20
133.4766048387097
 30
0.0
  0
SPLINE
  5
87
330
1F
100
AcDbEntity
  8
0
  6
Continuous
 62
     7
370
    15
100
AcDbSpline
210
0.0
220
0.0
230
1.0
 70
    24
 71
     3
 72
    14
 73
    10
 74
     0
 42
0.00000001
 43
0.00000001
 40
0.0
 40
0.0
 40
0.0
 40
0.0
 40
0.1250000000000017
 40
0.1250000000000017
 40
0.2500000000000034
 40
0.2500000000000034
 40
0.5000000000000032
 40
0.5000000000000032
 40
1.0
 40
1.0
 40
1.0
 40
1.0
 10
155.7045793405256
 20
80.6766048387097
 30
0.0
 10
155.6361414926391
 20
80.6766048387097
 30
0.0
 10
155.570591453874
 20
80.6766048387097
 30
0.0
 10
155.4661648144661
 20
80.6766048387097
 30
0.0
 10
155.4236202047047
 20
80.6766048387097
 30
0.0
 10
155.3110107441645
 20
80.6766048387097
 30
0.0
 10
155.255471697145
 20
80.67660483870968
 30
0.0
 10
155.1128600016812
 20
80.6766048387097
 30
0.0
 10
155.0494546466854
 20
80.6766048387097
 30
0.0
 10
155.0022541428579
 20
80.6766048387097
 30
0.0
  0
SPLINE
  5
88
330
1F
100
AcDbEntity
  8
0
  6
Continuous
 62
     7
370
    15
100
AcDbSpline
210
0.0
220
0.0
230
1.0
 70
     8
 71
     3
 72
    10
 73
     6
 74
     0
 42
0.00000001
 43
0.00000001
 40
0.0
 40
0.0
 40
0.0
 40
0.0
 40
0.5
 40
0.5
 40
1.0
 40
1.0
 40
1.0
 40
1.0
 10
154.9045793405256
 20
127.2124714701711
 30
0.0
 10
154.9045793405256
 20
127.1646999621778
 30
0.0
 10
154.9067405841227
 20
127.1169902401161
 30
0.0
 10
154.9154119579829
 20
127.0216951225678
 30
0.0
 10
154.9219411409389
 20
126.9740025586012
 30
0.0
 10
154.9307269636857
 20
126.9266048387097
 30
0.0
  0
LINE
  5
89
330
1F
100
AcDbEntity
  8
0
  6
Continuous
 62
     7
370
    15
100
AcDbLine
 10
157.9245793405
 20
133.4766048387
 30
0.0
 11
155.7045793405
 21
133.4766048387
 31
0.0
  0
LINE
  5
8A
330
1F
100
AcDbEntity
  8
0
  6
Continuous
 62
     7
370
    15
100
AcDbLine
 10
157.9245793405
 20
80.6766048387
 30
0.0
 11
155.7045793405
 21
80.6766048387
 31
0.0
  0
LINE
  5
8B
330
1F
100
AcDbEntity
  8
0
  6
Continuous
 62
     7
370
    15
100
AcDbLine
 10
117.0145793405
 20
83.8481579449
 30
0.0
 11
117.0145793405
 21
85.1128673075
 31
0.0
  0
SPLINE
  5
8C
330
1F
100
AcDbEntity
  8
0
  6
Continuous
 62
     7
370
    15
100
AcDbSpline
210
0.0
220
0.0
230
1.0
 70
     8
 71
     3
 72
    14
 73
    10
 74
     0
 42
0.00000001
 43
0.00000001
 40
0.0
 40
0.0
 40
0.0
 40
0.0
 40
0.25
 40
0.25
 40
0.5
 40
0.5
 40
0.75
 40
0.75
 40
1.0
 40
1.0
 40
1.0
 40
1.0
 10
116.2362922226099
 20
86.24345351514974
 30
0.0
 10
116.2929188978119
 20
86.13575606131288
 30
0.0
 10
116.3874415581017
 20
86.03296647959357
 30
0.0
 10
116.5704865336639
 20
85.83460916737342
 30
0.0
 10
116.6621131106186
 20
85.73854965869516
 30
0.0
 10
116.8209664283118
 20
85.55102061598592
 30
0.0
 10
116.8888570359335
 20
85.45961164320236
 30
0.0
 10
116.9857740616411
 20
85.28123542229221
 30
0.0
 10
117.0145793405261
 20
85.19401351604604
 30
0.0
 10
117.0145793405261
 20
85.11286730751178
 30
0.0
  0
SPLINE
  5
8D
330
1F
100
AcDbEntity
  8
0
  6
Continuous
 62
     7
370
    15
100
AcDbSpline
210
0.0
220
0.0
230
1.0
 70
     8
 71
     3
 72
    14
 73
    10
 74
     0
 42
0.00000001
 43
0.00000001
 40
0.0
 40
0.0
 40
0.0
 40
0.0
 40
0.125
 40
0.125
 40
0.25
 40
0.25
 40
0.5
 40
0.5
 40
1.0
 40
1.0
 40
1.0
 40
1.0
 10
115.6145793405256
 20
86.69013537742906
 30
0.0
 10
115.6631237491827
 20
86.69588369070935
 30
0.0
 10
115.7160391039676
 20
86.69278280205312
 30
0.0
 10
115.8113344489507
 20
86.67058795789079
 30
0.0
 10
115.8515854462356
 20
86.65335573079493
 30
0.0
 10
115.9558554597486
 20
86.59702781434287
 30
0.0
 10
116.0061774349019
 20
86.55284146839706
 30
0.0
 10
116.1338603824273
 20
86.42183356954644
 30
0.0
 10
116.1899458294896
 20
86.33159904931614
 30
0.0
 10
116.2362922226113
 20
86.24345351515026
 30
0.0
  0
SPLINE
  5
8E
330
1F
100
AcDbEntity
  8
0
  6
Continuous
 62
     7
370
    15
100
AcDbSpline
210
0.0
220
0.0
230
1.0
 70
     8
 71
     3
 72
     8
 73
     4
 74
     0
 42
0.00000001
 43
0.00000001
 40
0.0
 40
0.0
 40
0.0
 40
0.0
 40
1.0
 40
1.0
 40
1.0
 40
1.0
 10
113.3460542475793
 20
86.38029009084626
 30
0.0
 10
114.0806312740623
 20
86.49891510191522
 30
0.0
 10
114.8441063434579
 20
86.59890097405152
 30
0.0
 10
115.6145793405256
 20
86.69013537742906
 30
0.0
  0
SPLINE
  5
8F
330
1F
100
AcDbEntity
  8
0
  6
Continuous
 62
     7
370
    15
100
AcDbSpline
210
0.0
220
0.0
230
1.0
 70
     8
 71
     3
 72
    14
 73
    10
 74
     0
 42
0.00000001
 43
0.00000001
 40
0.0
 40
0.0
 40
0.0
 40
0.0
 40
0.5000000000000002
 40
0.5000000000000002
 40
0.7500000000000002
 40
0.7500000000000002
 40
0.8750000000000001
 40
0.8750000000000001
 40
1.0
 40
1.0
 40
1.0
 40
1.0
 10
108.0645793405256
 20
86.20666707331462
 30
0.0
 10
108.9567254710791
 20
86.20594484711397
 30
0.0
 10
109.8467019068727
 20
86.21053105357143
 30
0.0
 10
111.1732970739483
 20
86.23825605796297
 30
0.0
 10
111.614144002447
 20
86.25086259558715
 30
0.0
 10
112.2705842398695
 20
86.28187874359458
 30
0.0
 10
112.4885978964613
 20
86.29422191622136
 30
0.0
 10
112.9213067501441
 20
86.32724597138464
 30
0.0
 10
113.1365832153089
 20
86.34646313652308
 30
0.0
 10
113.3460542475793
 20
86.38029009084626
 30
0.0
  0
SPLINE
  5
90
330
1F
100
AcDbEntity
  8
0
  6
Continuous
 62
     7
370
    15
100
AcDbSpline
210
0.0
220
0.0
230
1.0
 70
     8
 71
     3
 72
     8
 73
     4
 74
     0
 42
0.00000001
 43
0.00000001
 40
0.0000005163856998
 40
0.0000005163856998
 40
0.0000005163856998
 40
0.0000005163856998
 40
0.000026289209185
 40
0.000026289209185
 40
0.000026289209185
 40
0.000026289209185
 10
108.054534410118
 20
86.2166509464114
 30
0.0
 10
108.0578621483258
 20
86.21331669954229
 30
0.0
 10
108.0612106013014
 20
86.20998874226697
 30
0.0
 10
108.0645793405255
 20
86.2066670733146
 30
0.0
  0
SPLINE
  5
91
330
1F
100
AcDbEntity
  8
0
  6
Continuous
 62
     7
370
    15
100
AcDbSpline
210
0.0
220
0.0
230
1.0
 70
     8
 71
     3
 72
     8
 73
     4
 74
     0
 42
0.00000001
 43
0.00000001
 40
0.0000005099763573
 40
0.0000005099763573
 40
0.0000005099763573
 40
0.0000005099763573
 40
0.0000262827998699
 40
0.0000262827998699
 40
0.0000262827998699
 40
0.0000262827998699
 10
108.0645793405255
 20
127.9465426041048
 30
0.0
 10
108.0612106012978
 20
127.9432209351489
 30
0.0
 10
108.0578621483187
 20
127.93989297787
 30
0.0
 10
108.0545344101073
 20
127.9365587309973
 30
0.0
  0
SPLINE
  5
92
330
1F
100
AcDbEntity
  8
0
  6
Continuous
 62
     7
370
    15
100
AcDbSpline
210
0.0
220
0.0
230
1.0
 70
     8
 71
     3
 72
    10
 73
     6
 74
     0
 42
0.00000001
 43
0.00000001
 40
0.0
 40
0.0
 40
0.0
 40
0.0
 40
0.5
 40
0.5
 40
1.0
 40
1.0
 40
1.0
 40
1.0
 10
111.6145793405256
 20
127.8996922305374
 30
0.0
 10
111.026993793435
 20
127.9207577507739
 30
0.0
 10
110.4362473999746
 20
127.9315162366461
 30
0.0
 10
109.2522282346757
 20
127.9448810171817
 30
0.0
 10
108.6588142464703
 20
127.9470236598463
 30
0.0
 10
108.0645793405256
 20
127.9465426041048
 30
0.0
  0
SPLINE
  5
93
330
1F
100
AcDbEntity
  8
0
  6
Continuous
 62
     7
370
    15
100
AcDbSpline
210
0.0
220
0.0
230
1.0
 70
     8
 71
     3
 72
    18
 73
    14
 74
     0
 42
0.00000001
 43
0.00000001
 40
0.0
 40
0.0
 40
0.0
 40
0.0
 40
0.2500000000000008
 40
0.2500000000000008
 40
0.5000000000000009
 40
0.5000000000000009
 40
0.7500000000000009
 40
0.7500000000000009
 40
0.875000000000001
 40
0.875000000000001
 40
0.9375000000000006
 40
0.9375000000000006
 40
1.0
 40
1.0
 40
1.0
 40
1.0
 10
113.0145793405256
 20
128.9207125110727
 30
0.0
 10
113.0145793405256
 20
128.8375056022155
 30
0.0
 10
112.9787302405873
 20
128.7487689469019
 30
0.0
 10
112.8538585045534
 20
128.5666437563417
 30
0.0
 10
112.7634580869055
 20
128.4715137077151
 30
0.0
 10
112.5412154321633
 20
128.2823321985907
 30
0.0
 10
112.4114506457176
 20
128.187387030496
 30
0.0
 10
112.1708131884061
 20
128.0491083229161
 30
0.0
 10
112.0830458902686
 20
128.0033978896137
 30
0.0
 10
111.9285218030618
 20
127.9455745843922
 30
0.0
 10
111.8719109170071
 20
127.9278598203544
 30
0.0
 10
111.7478668861005
 20
127.9033205171214
 30
0.0
 10
111.6801522110822
 20
127.8973413785832
 30
0.0
 10
111.6145793405256
 20
127.8996922305374
 30
0.0
  0
LINE
  5
94
330
1F
100
AcDbEntity
  8
0
  6
Continuous
 62
     7
370
    15
100
AcDbLine
 10
113.0145793405
 20
128.9207125111
 30
0.0
 11
113.0145793405
 21
130.1046509309
 31
0.0
  0
LINE
  5
95
330
1F
100
AcDbEntity
  8
0
  6
Continuous
 62
     7
370
    15
100
AcDbLine
 10
136.8145793405
 20
82.856173977
 30
0.0
 11
136.8145793405
 21
131.2970357004
 31
0.0
  0
SPLINE
  5
96
330
1F
100
AcDbEntity
  8
0
  6
Continuous
 62
     7
370
    15
100
AcDbSpline
210
0.0
220
0.0
230
1.0
 70
     8
 71
     3
 72
    24
 73
    20
 74
     0
 42
0.00000001
 43
0.00000001
 40
0.0
 40
0.0
 40
0.0
 40
0.0
 40
0.0010489762969674
 40
0.063784312564273
 40
0.1272220590447891
 40
0.1903788924481314
 40
0.2526748653693291
 40
0.3146354154417449
 40
0.3770891997149608
 40
0.4393540298504058
 40
0.5008133242537801
 40
0.5621845104587826
 40
0.6248438451115548
 40
0.6874304766616359
 40
0.7496743174679346
 40
0.811984842697577
 40
0.8750960525413127
 40
0.9384412526964334
 40
1.0
 40
1.0
 40
1.0
 40
1.0
 10
125.5834851725013
 20
83.41909641012954
 30
0.0
 10
125.583038712397
 20
83.41903812431065
 30
0.0
 10
125.5558911487033
 20
83.41549398236816
 30
0.0
 10
125.6515029263174
 20
83.42832772705086
 30
0.0
 10
125.8850631842103
 20
83.45757441225113
 30
0.0
 10
126.2806174915304
 20
83.50418873531338
 30
0.0
 10
126.8076577953618
 20
83.55437187697288
 30
0.0
 10
127.4511882073515
 20
83.59874833942321
 30
0.0
 10
128.1898620625922
 20
83.62569312036092
 30
0.0
 10
128.9873765680282
 20
83.62916497106791
 30
0.0
 10
129.8139554504715
 20
83.60153772703757
 30
0.0
 10
130.6394784680823
 20
83.54305883806433
 30
0.0
 10
131.4316050160834
 20
83.45761380870417
 30
0.0
 10
132.1641772900884
 20
83.35587956886782
 30
0.0
 10
132.7998175268164
 20
83.24803644689504
 30
0.0
 10
133.3217286338261
 20
83.14640629015592
 30
0.0
 10
133.7033574109415
 20
83.06392113347769
 30
0.0
 10
133.954171881176
 20
83.00777192712799
 30
0.0
 10
133.9832934371601
 20
83.00092246851425
 30
0.0
 10
133.9976459579763
 20
82.99754672178607
 30
0.0
  0
SPLINE
  5
97
330
1F
100
AcDbEntity
  8
0
  6
Continuous
 62
     7
370
    15
100
AcDbSpline
210
0.0
220
0.0
230
1.0
 70
     8
 71
     3
 72
    24
 73
    20
 74
     0
 42
0.00000001
 43
0.00000001
 40
0.0
 40
0.0
 40
0.0
 40
0.0
 40
0.061438427625136
 40
0.1250736755369642
 40
0.188425349073017
 40
0.2508623904037474
 40
0.3129665632511812
 40
0.3753451453465141
 40
0.437732897232486
 40
0.4990927322917273
 40
0.5605807588448529
 40
0.6229469893028879
 40
0.6854686282027366
 40
0.7475477813740222
 40
0.8098225060807238
 40
0.8730684085990467
 40
0.936404184453311
 40
0.9991757196257862
 40
1.0
 40
1.0
 40
1.0
 40
1.0
 10
133.9975911871733
 20
131.1556338131671
 30
0.0
 10
133.9829904628696
 20
131.1522657563144
 30
0.0
 10
133.9532669441411
 20
131.1454092128406
 30
0.0
 10
133.7005291284929
 20
131.0890705923147
 30
0.0
 10
133.3175332120439
 20
131.0062135101847
 30
0.0
 10
132.7951776276061
 20
130.9043064802334
 30
0.0
 10
132.160393149606
 20
130.7964673411897
 30
0.0
 10
131.4301695454338
 20
130.6950003892145
 30
0.0
 10
130.6397009602001
 20
130.6099406755238
 30
0.0
 10
129.8152174453714
 20
130.5517363816375
 30
0.0
 10
128.9881809864878
 20
130.5241529428108
 30
0.0
 10
128.1898567188357
 20
130.5276459203037
 30
0.0
 10
127.4500327545468
 20
130.5546018401568
 30
0.0
 10
126.8057785215712
 20
130.5989557821561
 30
0.0
 10
126.2783712663557
 20
130.6491612319139
 30
0.0
 10
125.8837066642058
 20
130.6957710871122
 30
0.0
 10
125.651177385021
 20
130.7249666796597
 30
0.0
 10
125.5557973524688
 20
130.7377447486011
 30
0.0
 10
125.5827309893702
 20
130.7341904900931
 30
0.0
 10
125.5830800825945
 20
130.7341444225098
 30
0.0
  0
SPLINE
  5
98
330
1F
100
AcDbEntity
  8
0
  6
Continuous
 62
     7
370
    15
100
AcDbSpline
210
0.0
220
0.0
230
1.0
 70
     8
 71
     3
 72
    10
 73
     6
 74
     0
 42
0.00000001
 43
0.00000001
 40
0.0
 40
0.0
 40
0.0
 40
0.0
 40
0.0840381716606348
 40
0.7011125076933074
 40
1.0
 40
1.0
 40
1.0
 40
1.0
 10
106.9281263030612
 20
87.34783093102635
 30
0.0
 10
106.9288008603962
 20
87.34562530419046
 30
0.0
 10
106.9344285480923
 20
87.32722423082824
 30
0.0
 10
106.9607500282192
 20
87.34145879355141
 30
0.0
 10
106.9731850450639
 20
87.3871445691024
 30
0.0
 10
106.977242715249
 20
87.40205229392897
 30
0.0
  0
LINE
  5
99
330
1F
100
AcDbEntity
  8
0
  6
Continuous
 62
     7
370
    15
100
AcDbLine
 10
106.9145793405
 20
87.3859270922
 30
0.0
 11
106.9145793405
 21
126.7672825852
 31
0.0
  0
SPLINE
  5
9A
330
1F
100
AcDbEntity
  8
0
  6
Continuous
 62
     7
370
    15
100
AcDbSpline
210
0.0
220
0.0
230
1.0
 70
     8
 71
     3
 72
    10
 73
     6
 74
     0
 42
0.00000001
 43
0.00000001
 40
0.0
 40
0.0
 40
0.0
 40
0.0
 40
0.3981552638809415
 40
0.8068145697130351
 40
1.0
 40
1.0
 40
1.0
 40
1.0
 10
106.977242715249
 20
126.7511573834904
 30
0.0
 10
106.9715792105245
 20
126.7699991680413
 30
0.0
 10
106.9601027877772
 20
126.8081798168336
 30
0.0
 10
106.936588559803
 20
126.8217631007013
 30
0.0
 10
106.9315726039852
 20
126.8060628065811
 30
0.0
 10
106.9299625382576
 20
126.8010231877339
 30
0.0
  0
SPLINE
  5
9B
330
1F
100
AcDbEntity
  8
0
  6
Continuous
 62
     7
370
    15
100
AcDbSpline
210
0.0
220
0.0
230
1.0
 70
     8
 71
     3
 72
    26
 73
    22
 74
     0
 42
0.00000001
 43
0.00000001
 40
0.0
 40
0.0
 40
0.0
 40
0.0
 40
0.2500000000000165
 40
0.2500000000000165
 40
0.3750000000000256
 40
0.3750000000000256
 40
0.4375000000000291
 40
0.4375000000000291
 40
0.4687500000000291
 40
0.4687500000000291
 40
0.5000000000000292
 40
0.5000000000000292
 40
0.5312500000000293
 40
0.5312500000000293
 40
0.5625000000000293
 40
0.5625000000000293
 40
0.625000000000026
 40
0.625000000000026
 40
0.7500000000000173
 40
0.7500000000000173
 40
1.0
 40
1.0
 40
1.0
 40
1.0
 10
107.7387329866301
 20
127.4667241723075
 30
0.0
 10
107.7001324637616
 20
127.3489494759521
 30
0.0
 10
107.6538354612074
 20
127.2245597897902
 30
0.0
 10
107.5598961127734
 20
127.0193404574367
 30
0.0
 10
107.52458464586
 20
126.9477675909903
 30
0.0
 10
107.4584046701143
 20
126.8318143583898
 30
0.0
 10
107.4338663034461
 20
126.7912298235795
 30
0.0
 10
107.3904935578923
 20
126.7270881417078
 30
0.0
 10
107.3749851564671
 20
126.7052217164227
 30
0.0
 10
107.3399425118801
 20
126.6596274480796
 30
0.0
 10
107.3203922211603
 20
126.6359571571121
 30
0.0
 10
107.2784649407897
 20
126.5913405977722
 30
0.0
 10
107.255812830558
 20
126.5704605852543
 30
0.0
 10
107.2148391164714
 20
126.5395871715035
 30
0.0
 10
107.197239816576
 20
126.529748301671
 30
0.0
 10
107.1526128307198
 20
126.5107586859749
 30
0.0
 10
107.1320536080665
 20
126.5104343613214
 30
0.0
 10
107.0809281685698
 20
126.5196578021977
 30
0.0
 10
107.0600167555813
 20
126.5409046984146
 30
0.0
 10
107.0085668480204
 20
126.6148735772454
 30
0.0
 10
106.9909015487158
 20
126.6809916705601
 30
0.0
 10
106.977242715249
 20
126.7511573834904
 30
0.0
  0
SPLINE
  5
9C
330
1F
100
AcDbEntity
  8
0
  6
Continuous
 62
     7
370
    15
100
AcDbSpline
210
0.0
220
0.0
230
1.0
 70
     8
 71
     3
 72
    10
 73
     6
 74
     0
 42
0.00000001
 43
0.00000001
 40
0.0
 40
0.0
 40
0.0
 40
0.0
 40
0.5
 40
0.5
 40
1.0
 40
1.0
 40
1.0
 40
1.0
 10
108.0545344101074
 20
127.9365587309973
 30
0.0
 10
107.9869751551891
 20
127.8688673381876
 30
0.0
 10
107.9233384998526
 20
127.7941601734339
 30
0.0
 10
107.8131177452808
 20
127.6351940410073
 30
0.0
 10
107.7663014520581
 20
127.5508387749993
 30
0.0
 10
107.7387329866301
 20
127.4667241723075
 30
0.0
  0
SPLINE
  5
9D
330
1F
100
AcDbEntity
  8
0
  6
Continuous
 62
     7
370
    15
100
AcDbSpline
210
0.0
220
0.0
230
1.0
 70
     8
 71
     3
 72
    10
 73
     6
 74
     0
 42
0.00000001
 43
0.00000001
 40
0.0
 40
0.0
 40
0.0
 40
0.0
 40
0.5
 40
0.5
 40
1.0
 40
1.0
 40
1.0
 40
1.0
 10
107.7387329866301
 20
86.68648550511172
 30
0.0
 10
107.7662104013841
 20
86.60264870864384
 30
0.0
 10
107.8129190316735
 20
86.5183382210547
 30
0.0
 10
107.9231974944195
 20
86.35921699056799
 30
0.0
 10
107.9870850330334
 20
86.28423224647834
 30
0.0
 10
108.054534410118
 20
86.2166509464114
 30
0.0
  0
SPLINE
  5
9E
330
1F
100
AcDbEntity
  8
0
  6
Continuous
 62
     7
370
    15
100
AcDbSpline
210
0.0
220
0.0
230
1.0
 70
     8
 71
     3
 72
    24
 73
    20
 74
     0
 42
0.00000001
 43
0.00000001
 40
0.0
 40
0.0
 40
0.0
 40
0.0
 40
0.2499999999999952
 40
0.2499999999999952
 40
0.3749999999999937
 40
0.3749999999999937
 40
0.4374999999999931
 40
0.4374999999999931
 40
0.468749999999992
 40
0.468749999999992
 40
0.4999999999999909
 40
0.4999999999999909
 40
0.5624999999999933
 40
0.5624999999999933
 40
0.6249999999999958
 40
0.6249999999999958
 40
0.7499999999999981
 40
0.7499999999999981
 40
1.0
 40
1.0
 40
1.0
 40
1.0
 10
106.977242715249
 20
87.40205229392895
 30
0.0
 10
106.9909958339192
 20
87.47270235191922
 30
0.0
 10
107.0087684013251
 20
87.53930046468416
 30
0.0
 10
107.0610194928804
 20
87.61339848491735
 30
0.0
 10
107.082054568462
 20
87.63465629207892
 30
0.0
 10
107.1349549760904
 20
87.64280221822517
 30
0.0
 10
107.1560606489683
 20
87.64186241482939
 30
0.0
 10
107.2021128176463
 20
87.62084642325206
 30
0.0
 10
107.2204832896297
 20
87.60993761714444
 30
0.0
 10
107.2620349246954
 20
87.57730270619709
 30
0.0
 10
107.2846015974523
 20
87.55581072582572
 30
0.0
 10
107.3473826139123
 20
87.48734478223939
 30
0.0
 10
107.3805123748802
 20
87.44127032403432
 30
0.0
 10
107.4374300613652
 20
87.35626243569963
 30
0.0
 10
107.461616086869
 20
87.31598213451825
 30
0.0
 10
107.5268240372488
 20
87.20104590805231
 30
0.0
 10
107.56154009744
 20
87.1304629229053
 30
0.0
 10
107.6547553677709
 20
86.92625716382669
 30
0.0
 10
107.7004279031316
 20
86.80335878149933
 30
0.0
 10
107.7387329866301
 20
86.68648550511173
 30
0.0
  0
SPLINE
  5
9F
330
1F
100
AcDbEntity
  8
0
  6
Continuous
 62
     7
370
    15
100
AcDbSpline
210
0.0
220
0.0
230
1.0
 70
     8
 71
     3
 72
     8
 73
     4
 74
     0
 42
0.00000001
 43
0.00000001
 40
0.0
 40
0.0
 40
0.0
 40
0.0
 40
1.0
 40
1.0
 40
1.0
 40
1.0
 10
160.2065121720146
 20
137.5438003118739
 30
0.0
 10
159.7113721426503
 20
136.6571206636937
 30
0.0
 10
159.2172894373713
 20
135.7698580280077
 30
0.0
 10
158.7245793405256
 20
134.8818390298813
 30
0.0
  0
LINE
  5
A0
330
1F
100
AcDbEntity
  8
0
  6
Continuous
 62
     7
370
    15
100
AcDbLine
 10
160.206512172
 20
131.5352945011
 30
0.0
 11
160.206512172
 21
137.5438003119
 31
0.0
  0
SPLINE
  5
A1
330
1F
100
AcDbEntity
  8
0
  6
Continuous
 62
     7
370
    15
100
AcDbSpline
210
0.0
220
0.0
230
1.0
 70
     8
 71
     3
 72
     8
 73
     4
 74
     0
 42
0.00000001
 43
0.00000001
 40
0.0
 40
0.0
 40
0.0
 40
0.0
 40
1.0
 40
1.0
 40
1.0
 40
1.0
 10
158.7245793405256
 20
128.126748506293
 30
0.0
 10
159.2038574911154
 20
129.2677597361456
 30
0.0
 10
159.6994253302554
 20
130.4041441469135
 30
0.0
 10
160.2065121720146
 20
131.5352945010771
 30
0.0
  0
LINE
  5
A2
330
1F
100
AcDbEntity
  8
0
  6
Continuous
 62
     7
370
    15
100
AcDbLine
 10
158.7245793405
 20
128.1267485063
 30
0.0
 11
158.7245793405
 21
134.8818390299
 31
0.0
  0
SPLINE
  5
A3
330
1F
100
AcDbEntity
  8
0
  6
Continuous
 62
     7
370
    15
100
AcDbSpline
210
0.0
220
0.0
230
1.0
 70
     8
 71
     3
 72
    10
 73
     6
 74
     0
 42
0.00000001
 43
0.00000001
 40
0.0
 40
0.0
 40
0.0
 40
0.0
 40
0.5
 40
0.5
 40
1.0
 40
1.0
 40
1.0
 40
1.0
 10
164.7645793405256
 20
136.9230451624736
 30
0.0
 10
164.7645793405256
 20
137.0834504288244
 30
0.0
 10
164.7023415094187
 20
137.242512241813
 30
0.0
 10
164.4832065856761
 20
137.4734247074433
 30
0.0
 10
164.3256178906843
 20
137.5438003118739
 30
0.0
 10
164.1645793405256
 20
137.5438003118739
 30
0.0
  0
SPLINE
  5
A4
330
1F
100
AcDbEntity
  8
0
  6
Continuous
 62
     7
370
    15
100
AcDbSpline
210
0.0
220
0.0
230
1.0
 70
     8
 71
     3
 72
    12
 73
     8
 74
     0
 42
0.00000001
 43
0.00000001
 40
0.0
 40
0.0
 40
0.0
 40
0.0
 40
0.250000000000002
 40
0.250000000000002
 40
0.500000000000004
 40
0.500000000000004
 40
1.0
 40
1.0
 40
1.0
 40
1.0
 10
164.1645793405256
 20
131.5352945010771
 30
0.0
 10
164.2557790623512
 20
131.5352945010771
 30
0.0
 10
164.3463740714872
 20
131.5070748024893
 30
0.0
 10
164.4997867979339
 20
131.4126317952411
 30
0.0
 10
164.5649956652576
 20
131.3463448185358
 30
0.0
 10
164.7177801945975
 20
131.1207199952475
 30
0.0
 10
164.7645793405256
 20
130.938293732215
 30
0.0
 10
164.7645793405256
 20
130.7575570999681
 30
0.0
  0
LINE
  5
A5
330
1F
100
AcDbEntity
  8
0
  6
Continuous
 62
     7
370
    15
100
AcDbLine
 10
164.7645793405
 20
130.7575571
 30
0.0
 11
164.7645793405
 21
136.9230451625
 31
0.0
  0
LINE
  5
A6
330
1F
100
AcDbEntity
  8
0
  6
Continuous
 62
     7
370
    15
100
AcDbLine
 10
164.1645793405
 20
137.5438003119
 30
0.0
 11
160.206512172
 21
137.5438003119
 31
0.0
  0
LINE
  5
A7
330
1F
100
AcDbEntity
  8
0
  6
Continuous
 62
     7
370
    15
100
AcDbLine
 10
160.206512172
 20
131.5352945011
 30
0.0
 11
164.1645793405
 21
131.5352945011
 31
0.0
  0
SPLINE
  5
A8
330
1F
100
AcDbEntity
  8
0
  6
Continuous
 62
     7
370
    15
100
AcDbSpline
210
0.0
220
0.0
230
1.0
 70
     8
 71
     3
 72
     8
 73
     4
 74
     0
 42
0.00000001
 43
0.00000001
 40
0.0
 40
0.0
 40
0.0
 40
0.0
 40
1.0
 40
1.0
 40
1.0
 40
1.0
 10
153.4226465090365
 20
131.5352945010771
 30
0.0
 10
153.9297333507958
 20
130.4041441469135
 30
0.0
 10
154.4253011899357
 20
129.2677597361456
 30
0.0
 10
154.9045793405256
 20
128.126748506293
 30
0.0
  0
LINE
  5
A9
330
1F
100
AcDbEntity
  8
0
  6
Continuous
 62
     7
370
    15
100
AcDbLine
 10
154.9045793405
 20
128.1267485063
 30
0.0
 11
154.9045793405
 21
127.2124714702
 31
0.0
  0
SPLINE
  5
AA
330
1F
100
AcDbEntity
  8
0
  6
Continuous
 62
     7
370
    15
100
AcDbSpline
210
0.0
220
0.0
230
1.0
 70
     8
 71
     3
 72
     8
 73
     4
 74
     0
 42
0.00000001
 43
0.00000001
 40
0.0
 40
0.0
 40
0.0
 40
0.0
 40
1.0
 40
1.0
 40
1.0
 40
1.0
 10
154.9045793405256
 20
134.8818390298813
 30
0.0
 10
154.4118692436798
 20
135.7698580280077
 30
0.0
 10
153.9177865384008
 20
136.6571206636937
 30
0.0
 10
153.4226465090365
 20
137.5438003118739
 30
0.0
  0
LINE
  5
AB
330
1F
100
AcDbEntity
  8
0
  6
Continuous
 62
     7
370
    15
100
AcDbLine
 10
154.9045793405
 20
128.1267485063
 30
0.0
 11
154.9045793405
 21
134.8818390299
 31
0.0
  0
LINE
  5
AC
330
1F
100
AcDbEntity
  8
0
  6
Continuous
 62
     7
370
    15
100
AcDbLine
 10
158.7245793405
 20
127.2124714702
 30
0.0
 11
158.7245793405
 21
128.1267485063
 31
0.0
  0
LINE
  5
AD
330
1F
100
AcDbEntity
  8
0
  6
Continuous
 62
     7
370
    15
100
AcDbLine
 10
164.7645793405
 20
130.7575571
 30
0.0
 11
164.7645793405
 21
126.9266048387
 31
0.0
  0
ARC
  5
AE
330
1F
100
AcDbEntity
  8
0
  6
Continuous
 62
     7
370
    15
100
AcDbCircle
 10
146.814798348
 20
125.7741253844
 30
0.0
 40
7.25664635566057
100
AcDbArc
 50
70.7833625546
 51
109.2738084064
  0
LINE
  5
AF
330
1F
100
AcDbEntity
  8
0
  6
Continuous
 62
     7
370
    15
100
AcDbLine
 10
218.8145793405
 20
102.5388000845
 30
0.0
 11
218.8145793405
 21
111.6144093166
 31
0.0
  0
LINE
  5
B0
330
1F
100
AcDbEntity
  8
0
  6
HIDDEN
 62
     7
370
     0
100
AcDbLine
 10
153.422646509
 20
131.5352945011
 30
0.0
 11
153.422646509
 21
126.9266048387
 31
0.0
  0
ARC
  5
B1
330
1F
100
AcDbEntity
  8
0
  6
HIDDEN
 62
     7
370
     0
100
AcDbCircle
 10
147.0989220115
 20
119.5693139459
 30
0.0
 40
3.673814741019599
100
AcDbArc
 50
265.5610324774
 51
12.7441595169
  0
ARC
  5
B2
330
1F
100
AcDbEntity
  8
0
  6
HIDDEN
 62
     7
370
     0
100
AcDbCircle
 10
146.5306950392
 20
119.5704481035
 30
0.0
 40
3.67491006039214
100
AcDbArc
 50
167.4880641152
 51
274.4304738935
  0
LINE
  5
B3
330
1F
100
AcDbEntity
  8
0
  6
HIDDEN
 62
     7
370
     0
100
AcDbLine
 10
126.8097295451
 20
83.5520052159
 30
0.0
 11
126.560864726
 21
83.5287422493
 31
0.0
  0
LINE
  5
B4
330
1F
100
AcDbEntity
  8
0
  6
HIDDEN
 62
     7
370
     0
100
AcDbLine
 10
126.4283039653
 20
130.6366911669
 30
0.0
 11
126.8096368248
 21
130.6011878687
 31
0.0
  0
SPLINE
  5
B5
330
1F
100
AcDbEntity
  8
0
  6
HIDDEN
 62
     7
370
     0
100
AcDbSpline
210
0.0
220
0.0
230
1.0
 70
     8
 71
     3
 72
    32
 73
    28
 74
     0
 42
0.00000001
 43
0.00000001
 40
0.0
 40
0.0
 40
0.0
 40
0.0
 40
0.0346246159901393
 40
0.0694870388940024
 40
0.105100760954932
 40
0.1409753874086759
 40
0.175600572118933
 40
0.2104692408125612
 40
0.2461122854708171
 40
0.2820258067991323
 40
0.3162663828049038
 40
0.3859338563640314
 40
0.4214461814158482
 40
0.4553763558770599
 40
0.5243713305904969
 40
0.559512463821912
 40
0.5937987343035772
 40
0.6635059787021125
 40
0.6990055363805019
 40
0.7337623601246064
 40
0.7687606633024605
 40
0.8045245907686109
 40
0.8405553812432469
 40
0.8751701211305551
 40
0.9456085132854554
 40
0.9815233266320909
 40
1.0
 40
1.0
 40
1.0
 40
1.0
 10
132.5695813421272
 20
87.23907636289323
 30
0.0
 10
132.4975830402807
 20
87.24886430580155
 30
0.0
 10
132.3530919417476
 20
87.26850741663799
 30
0.0
 10
132.1117720074892
 20
87.29795663525971
 30
0.0
 10
131.8524737565035
 20
87.32650701735012
 30
0.0
 10
131.5784863373709
 20
87.35293823630494
 30
0.0
 10
131.2938585563493
 20
87.37639071365628
 30
0.0
 10
130.9992735973812
 20
87.39638817011486
 30
0.0
 10
130.6923426884129
 20
87.4125438486186
 30
0.0
 10
130.3806112226604
 20
87.42398583631412
 30
0.0
 10
129.963345673975
 20
87.43267696401196
 30
0.0
 10
129.5427026806174
 20
87.43138890755175
 30
0.0
 10
129.1292991274519
 20
87.42016109618427
 30
0.0
 10
128.7244551643847
 20
87.40286282410341
 30
0.0
 10
128.3338170798225
 20
87.3771471803352
 30
0.0
 10
127.9650360017812
 20
87.34505386943827
 30
0.0
 10
127.6116182195328
 20
87.30949566093584
 30
0.0
 10
127.2861771292119
 20
87.27024720460024
 30
0.0
 10
126.9967999234945
 20
87.2306156872279
 30
0.0
 10
126.7988860465193
 20
87.20147994408565
 30
0.0
 10
126.6215590824817
 20
87.1737457117729
 30
0.0
 10
126.4649497539692
 20
87.1479651675185
 30
0.0
 10
126.3333022342665
 20
87.12535853078435
 30
0.0
 10
126.1914410386948
 20
87.10017248547767
 30
0.0
 10
126.1026224508792
 20
87.08372693635408
 30
0.0
 10
126.0657995123288
 20
87.07683410553787
 30
0.0
 10
126.067215659502
 20
87.0770990914471
 30
0.0
 10
126.0676967217112
 20
87.07718910660181
 30
0.0
  0
SPLINE
  5
B6
330
1F
100
AcDbEntity
  8
0
  6
HIDDEN
 62
     7
370
     0
100
AcDbSpline
210
0.0
220
0.0
230
1.0
 70
     8
 71
     3
 72
    30
 73
    26
 74
     0
 42
0.00000001
 43
0.00000001
 40
0.0
 40
0.0
 40
0.0
 40
0.0
 40
0.0156161600804338
 40
0.0849748372628083
 40
0.1203204532886746
 40
0.15431851909124
 40
0.2234436946574014
 40
0.2586467089786606
 40
0.2931107206687012
 40
0.3631864361325605
 40
0.3988795186727329
 40
0.4336750628309725
 40
0.468714571210481
 40
0.5045294144990545
 40
0.5406151111978533
 40
0.575076786372292
 40
0.6452033649630279
 40
0.6809575734718862
 40
0.7149323277721686
 40
0.7840330582955269
 40
0.8192378401372485
 40
0.8533347063218408
 40
0.9226550151093995
 40
0.9579547149334489
 40
1.0
 40
1.0
 40
1.0
 40
1.0
 10
126.0676967217112
 20
127.0760205708176
 30
0.0
 10
126.0670989826261
 20
127.0761328236993
 30
0.0
 10
126.0638464044494
 20
127.0767436441766
 30
0.0
 10
126.1141673068977
 20
127.0672845097194
 30
0.0
 10
126.214472335939
 20
127.0489796736233
 30
0.0
 10
126.3490893240087
 20
127.0249963682495
 30
0.0
 10
126.5311479690388
 20
126.993897574103
 30
0.0
 10
126.758070542704
 20
126.9579784300607
 30
0.0
 10
127.0146569480815
 20
126.9196594089216
 30
0.0
 10
127.3126936065541
 20
126.8794142736134
 30
0.0
 10
127.6452428605539
 20
126.8407532502111
 30
0.0
 10
127.9104405659581
 20
126.8133505914799
 30
0.0
 10
128.1894983912171
 20
126.7883057548677
 30
0.0
 10
128.4839494071113
 20
126.7661380575721
 30
0.0
 10
128.7868143404275
 20
126.7479759703021
 30
0.0
 10
129.1972003272963
 20
126.7297178653077
 30
0.0
 10
129.6180411662511
 20
126.7208706313033
 30
0.0
 10
130.03794508348
 20
126.7223360257445
 30
0.0
 10
130.4525596043337
 20
126.7303794189118
 30
0.0
 10
130.8587807238096
 20
126.747886204511
 30
0.0
 10
131.2483112235315
 20
126.7734515175389
 30
0.0
 10
131.6251319247699
 20
126.8036357532531
 30
0.0
 10
131.9782690844739
 20
126.8395333281006
 30
0.0
 10
132.3200205722955
 20
126.8803516059592
 30
0.0
 10
132.481694333305
 20
126.9022365195256
 30
0.0
 10
132.5695813421272
 20
126.9141333145262
 30
0.0
  0
SPLINE
  5
B7
330
1F
100
AcDbEntity
  8
0
  6
HIDDEN
 62
     7
370
     0
100
AcDbSpline
210
0.0
220
0.0
230
1.0
 70
     8
 71
     3
 72
    15
 73
    11
 74
     0
 42
0.00000001
 43
0.00000001
 40
0.0
 40
0.0
 40
0.0
 40
0.0
 40
0.1100634733676295
 40
0.2209010786530317
 40
0.3341664896445957
 40
0.4482663945095116
 40
0.5583528294791724
 40
0.7822323854283246
 40
0.8962861354518198
 40
1.0
 40
1.0
 40
1.0
 40
1.0
 10
132.5695813421272
 20
126.9141333145262
 30
0.0
 10
132.6371753283574
 20
126.9232015686027
 30
0.0
 10
132.7728387234136
 20
126.9414018583601
 30
0.0
 10
132.9532841515525
 20
126.9621229139122
 30
0.0
 10
133.1154329124783
 20
126.9788625983801
 30
0.0
 10
133.2534841099333
 20
126.9914447135416
 30
0.0
 10
133.4051245761592
 20
127.0038234972251
 30
0.0
 10
133.5065717874127
 20
127.0107808830283
 30
0.0
 10
133.5579915300063
 20
127.0140779093651
 30
0.0
 10
133.5619464898412
 20
127.0143232202718
 30
0.0
 10
133.5638300764774
 20
127.014440051887
 30
0.0
  0
SPLINE
  5
B8
330
1F
100
AcDbEntity
  8
0
  6
HIDDEN
 62
     7
370
     0
100
AcDbSpline
210
0.0
220
0.0
230
1.0
 70
     8
 71
     3
 72
    17
 73
    13
 74
     0
 42
0.00000001
 43
0.00000001
 40
0.0
 40
0.0
 40
0.0
 40
0.0
 40
0.0069672873018476
 40
0.1183103086458422
 40
0.2320673587511869
 40
0.3466591332731054
 40
0.4573781158603664
 40
0.5688695574603297
 40
0.6828050943882709
 40
0.7975902571903241
 40
0.898497503450473
 40
1.0
 40
1.0
 40
1.0
 40
1.0
 10
133.5638253684975
 20
87.13876992294666
 30
0.0
 10
133.564075006489
 20
87.13875415802838
 30
0.0
 10
133.5683140663334
 20
87.13848645665931
 30
0.0
 10
133.5523927307142
 20
87.1394834172779
 30
0.0
 10
133.5133791052599
 20
87.14199982758754
 30
0.0
 10
133.4449263695394
 20
87.14669747507357
 30
0.0
 10
133.3521745546408
 20
87.15364733195646
 30
0.0
 10
133.2348829418208
 20
87.16337681913521
 30
0.0
 10
133.0920463110057
 20
87.17662382534444
 30
0.0
 10
132.930496917572
 20
87.19361091404062
 30
0.0
 10
132.7566935774418
 20
87.21390355444981
 30
0.0
 10
132.6320742481695
 20
87.23066899204315
 30
0.0
 10
132.5695813421272
 20
87.23907636289323
 30
0.0
  0
LINE
  5
B9
330
1F
100
AcDbEntity
  8
0
  6
HIDDEN
 62
     7
370
     0
100
AcDbLine
 10
119.8185539367
 20
90.0766048387
 30
0.0
 11
119.8185539367
 21
124.0766048387
 31
0.0
  0
LWPOLYLINE
  5
BA
330
1F
100
AcDbEntity
  8
0
  6
HIDDEN
 62
     7
370
     0
100
AcDbPolyline
 90
       15
 70
   128
 43
0.0
 10
146.8145793405
 20
129.0222072533
 10
147.571584318
 20
129.0583498588
 10
148.3012291632
 20
129.1654713873
 10
148.9771426103
 20
129.3397001877
 10
149.5748953865
 20
129.5747391771
 10
150.0728831487
 20
129.8620934342
 10
150.4531073219
 20
130.1913772273
 10
150.7018256138
 20
130.5506893823
 10
150.8100486973
 20
130.9270434217
 10
150.773865108
 20
131.3068369299
 10
150.5945826154
 20
131.67634318
 10
150.2786809557
 20
132.0222072533
 10
149.8375776379
 20
132.3319287212
 10
149.2872152854
 20
132.5943134428
 10
149.2032571643
 20
132.6264374624
  0
LWPOLYLINE
  5
BB
330
1F
100
AcDbEntity
  8
0
  6
HIDDEN
 62
     7
370
     0
100
AcDbPolyline
 90
       15
 70
   128
 43
0.0
 10
144.4195033375
 20
132.624050796
 10
144.3419433956
 20
132.5943134428
 10
143.7915810431
 20
132.3319287212
 10
143.3504777254
 20
132.0222072533
 10
143.0345760657
 20
131.67634318
 10
142.855293573
 20
131.3068369299
 10
142.8191099838
 20
130.9270434217
 10
142.9273330672
 20
130.5506893823
 10
143.1760513591
 20
130.1913772273
 10
143.5562755323
 20
129.8620934342
 10
144.0542632946
 20
129.5747391771
 10
144.6520160707
 20
129.3397001877
 10
145.3279295179
 20
129.1654713873
 10
146.0575743631
 20
129.0583498588
 10
146.8145793405
 20
129.0222072533
  0
SPLINE
  5
BC
330
1F
100
AcDbEntity
  8
0
  6
HIDDEN
 62
     7
370
     0
100
AcDbSpline
210
0.0
220
0.0
230
1.0
 70
     8
 71
     3
 72
     8
 73
     4
 74
     0
 42
0.00000001
 43
0.00000001
 40
0.0
 40
0.0
 40
0.0
 40
0.0
 40
0.0011559732291307
 40
0.0011559732291307
 40
0.0011559732291307
 40
0.0011559732291307
 10
106.9145793405256
 20
109.0764454573363
 30
0.0
 10
107.2479139155929
 20
109.0724781775369
 30
0.0
 10
107.5812451066196
 20
109.0682982949659
 30
0.0
 10
107.9145793405256
 20
109.0637331415578
 30
0.0
  0
SPLINE
  5
BD
330
1F
100
AcDbEntity
  8
0
  6
HIDDEN
 62
     7
370
     0
100
AcDbSpline
210
0.0
220
0.0
230
1.0
 70
     8
 71
     3
 72
     8
 73
     4
 74
     0
 42
0.00000001
 43
0.00000001
 40
0.0
 40
0.0
 40
0.0
 40
0.0
 40
0.0011564765856723
 40
0.0011564765856723
 40
0.0011564765856723
 40
0.0011564765856723
 10
107.9145793405256
 20
105.0799045364925
 30
0.0
 10
107.5812714099567
 20
105.0790293809095
 30
0.0
 10
107.2479361775645
 20
105.0779745296583
 30
0.0
 10
106.9145793405256
 20
105.076803442621
 30
0.0
  0
LINE
  5
BE
330
1F
100
AcDbEntity
  8
0
  6
HIDDEN
 62
     7
370
     0
100
AcDbLine
 10
146.4744053091
 20
90.0766048387
 30
0.0
 11
146.4744053091
 21
124.0766048387
 31
0.0
  0
LINE
  5
BF
330
1F
100
AcDbEntity
  8
0
  6
HIDDEN
 62
     7
370
     0
100
AcDbLine
 10
148.7645793405
 20
91.3516048387
 30
0.0
 11
148.7645793405
 21
122.8016048375
 31
0.0
  0
SPLINE
  5
C0
330
1F
100
AcDbEntity
  8
0
  6
HIDDEN
 62
     7
370
     0
100
AcDbSpline
210
0.0
220
0.0
230
1.0
 70
     8
 71
     3
 72
    16
 73
    12
 74
     0
 42
0.00000001
 43
0.00000001
 40
0.0
 40
0.0
 40
0.0
 40
0.0
 40
0.124999999999998
 40
0.124999999999998
 40
0.249999999999996
 40
0.249999999999996
 40
0.4999999999999973
 40
0.4999999999999973
 40
0.7499999999999987
 40
0.7499999999999987
 40
1.0
 40
1.0
 40
1.0
 40
1.0
 10
115.6145793405256
 20
91.27511440267803
 30
0.0
 10
115.7097010951914
 20
91.27511440267803
 30
0.0
 10
115.8030311639195
 20
91.27129856928524
 30
0.0
 10
115.9862929246575
 20
91.25652801655542
 30
0.0
 10
116.0771706402145
 20
91.24536996857985
 30
0.0
 10
116.3339723377342
 20
91.20289869843812
 30
0.0
 10
116.4890397026062
 20
91.16185250123532
 30
0.0
 10
116.7427861641608
 20
91.06670638465343
 30
0.0
 10
116.8436566158287
 20
91.01194365057185
 30
0.0
 10
116.9789030305235
 20
90.90068252666796
 30
0.0
 10
117.0145793405256
 20
90.84351278933929
 30
0.0
 10
117.0145793405256
 20
90.78909121630558
 30
0.0
  0
SPLINE
  5
C1
330
1F
100
AcDbEntity
  8
0
  6
HIDDEN
 62
     7
370
     0
100
AcDbSpline
210
0.0
220
0.0
230
1.0
 70
     8
 71
     3
 72
     8
 73
     4
 74
     0
 42
0.00000001
 43
0.00000001
 40
0.0
 40
0.0
 40
0.0
 40
0.0
 40
1.0
 40
1.0
 40
1.0
 40
1.0
 10
108.2145793406182
 20
93.41991734876028
 30
0.0
 10
108.2145793406201
 20
92.53602020644334
 30
0.0
 10
108.2010987147096
 20
91.8214369613814
 30
0.0
 10
108.1997473465185
 20
91.27511440267803
 30
0.0
  0
SPLINE
  5
C2
330
1F
100
AcDbEntity
  8
0
  6
HIDDEN
 62
     7
370
     0
100
AcDbSpline
210
0.0
220
0.0
230
1.0
 70
     8
 71
     3
 72
    10
 73
     6
 74
     0
 42
0.00000001
 43
0.00000001
 40
0.0
 40
0.0
 40
0.0
 40
0.0
 40
0.5
 40
0.5
 40
1.0
 40
1.0
 40
1.0
 40
1.0
 10
107.9145793405256
 20
94.44482760819008
 30
0.0
 10
108.005970455193
 20
94.27018882162194
 30
0.0
 10
108.0786222882531
 20
94.09658699545254
 30
0.0
 10
108.1861211801066
 20
93.75297357856567
 30
0.0
 10
108.2145793406125
 20
93.58464775305882
 30
0.0
 10
108.2145793406182
 20
93.41991734881975
 30
0.0
  0
LINE
  5
C3
330
1F
100
AcDbEntity
  8
0
  6
HIDDEN
 62
     7
370
     0
100
AcDbLine
 10
107.9145793405
 20
97.4757780537
 30
0.0
 11
107.9145793405
 21
94.4448276082
 31
0.0
  0
SPLINE
  5
C4
330
1F
100
AcDbEntity
  8
0
  6
HIDDEN
 62
     7
370
     0
100
AcDbSpline
210
0.0
220
0.0
230
1.0
 70
     8
 71
     3
 72
    10
 73
     6
 74
     0
 42
0.00000001
 43
0.00000001
 40
0.0
 40
0.0
 40
0.0
 40
0.0
 40
0.5
 40
0.5
 40
1.0
 40
1.0
 40
1.0
 40
1.0
 10
108.2145793406121
 20
98.84361846306687
 30
0.0
 10
108.2145793406121
 20
98.60163449685247
 30
0.0
 10
108.1864293118537
 20
98.36729206919387
 30
0.0
 10
108.0828393988384
 20
97.91191704938545
 30
0.0
 10
108.0062106900449
 20
97.69031248746793
 30
0.0
 10
107.9145793405256
 20
97.47577805372856
 30
0.0
  0
LINE
  5
C5
330
1F
100
AcDbEntity
  8
0
  6
HIDDEN
 62
     7
370
     0
100
AcDbLine
 10
108.2145793406
 20
110.6812384603
 30
0.0
 11
108.2145793406
 21
98.843618463
 31
0.0
  0
SPLINE
  5
C6
330
1F
100
AcDbEntity
  8
0
  6
HIDDEN
 62
     7
370
     0
100
AcDbSpline
210
0.0
220
0.0
230
1.0
 70
     8
 71
     3
 72
     8
 73
     4
 74
     0
 42
0.00000001
 43
0.00000001
 40
0.0
 40
0.0
 40
0.0
 40
0.0
 40
1.0
 40
1.0
 40
1.0
 40
1.0
 10
107.9145793405256
 20
116.6835441522152
 30
0.0
 10
108.0956108052644
 20
116.2514366687407
 30
0.0
 10
108.2145793406178
 20
115.7972912650919
 30
0.0
 10
108.2145793406121
 20
115.3095912143216
 30
0.0
  0
LINE
  5
C7
330
1F
100
AcDbEntity
  8
0
  6
HIDDEN
 62
     7
370
     0
100
AcDbLine
 10
107.9145793405
 20
119.7167471522
 30
0.0
 11
107.9145793405
 21
116.6835441522
 31
0.0
  0
SPLINE
  5
C8
330
1F
100
AcDbEntity
  8
0
  6
HIDDEN
 62
     7
370
     0
100
AcDbSpline
210
0.0
220
0.0
230
1.0
 70
     8
 71
     3
 72
    10
 73
     6
 74
     0
 42
0.00000001
 43
0.00000001
 40
0.0
 40
0.0
 40
0.0
 40
0.0
 40
0.5
 40
0.5
 40
1.0
 40
1.0
 40
1.0
 40
1.0
 10
108.2145793406311
 20
120.7332923286295
 30
0.0
 10
108.2145793406293
 20
120.5686559830362
 30
0.0
 10
108.1874206702043
 20
120.4015007602497
 30
0.0
 10
108.0816556761447
 20
120.0628777545873
 30
0.0
 10
108.0052408886238
 20
119.8906059784306
 30
0.0
 10
107.9145793405256
 20
119.7167471521801
 30
0.0
  0
SPLINE
  5
C9
330
1F
100
AcDbEntity
  8
0
  6
HIDDEN
 62
     7
370
     0
100
AcDbSpline
210
0.0
220
0.0
230
1.0
 70
     8
 71
     3
 72
    18
 73
    14
 74
     0
 42
0.00000001
 43
0.00000001
 40
0.0
 40
0.0
 40
0.0
 40
0.0
 40
0.2500000000000033
 40
0.2500000000000033
 40
0.3750000000000029
 40
0.3750000000000029
 40
0.5000000000000026
 40
0.5000000000000026
 40
0.6250000000000022
 40
0.6250000000000022
 40
0.7500000000000018
 40
0.7500000000000018
 40
1.0
 40
1.0
 40
1.0
 40
1.0
 10
113.0145793405256
 20
123.3641184611138
 30
0.0
 10
113.0145793405256
 20
123.3096439405616
 30
0.0
 10
112.9796686491334
 20
123.2532628812091
 30
0.0
 10
112.8776593478003
 20
123.1691860403557
 30
0.0
 10
112.8360229931222
 20
123.1418523363647
 30
0.0
 10
112.7376171976335
 20
123.0888984207658
 30
0.0
 10
112.6800739859292
 20
123.0630110670486
 30
0.0
 10
112.5527758123563
 20
123.0152335222153
 30
0.0
 10
112.4831885075988
 20
122.9932856040374
 30
0.0
 10
112.3317542624438
 20
122.9538530391247
 30
0.0
 10
112.2490703593499
 20
122.9362967898989
 30
0.0
 10
111.9929588973118
 20
122.8938580244783
 30
0.0
 10
111.8050438934239
 20
122.8780952747413
 30
0.0
 10
111.6145793405256
 20
122.8780952747413
 30
0.0
  0
LINE
  5
CA
330
1F
100
AcDbEntity
  8
0
  6
HIDDEN
 62
     7
370
     0
100
AcDbLine
 10
111.6145793405
 20
122.8780952747
 30
0.0
 11
108.2145793406
 21
122.8780952747
 31
0.0
  0
LINE
  5
CB
330
1F
100
AcDbEntity
  8
0
  6
HIDDEN
 62
     7
370
     0
100
AcDbLine
 10
108.1456103539
 20
91.2751144027
 30
0.0
 11
115.6145793405
 21
91.2751144027
 31
0.0
  0
SPLINE
  5
CC
330
1F
100
AcDbEntity
  8
0
  6
HIDDEN
 62
     7
370
     0
100
AcDbSpline
210
0.0
220
0.0
230
1.0
 70
     8
 71
     3
 72
    22
 73
    18
 74
     0
 42
0.00000001
 43
0.00000001
 40
0.0
 40
0.0
 40
0.0
 40
0.0
 40
0.1249999999999998
 40
0.1249999999999998
 40
0.2499999999999996
 40
0.2499999999999996
 40
0.4999999999999992
 40
0.4999999999999992
 40
0.5624999999999992
 40
0.5624999999999992
 40
0.6249999999999992
 40
0.6249999999999992
 40
0.7499999999999994
 40
0.7499999999999994
 40
0.8749999999999998
 40
0.8749999999999998
 40
1.0
 40
1.0
 40
1.0
 40
1.0
 10
108.1456103538835
 20
91.27511440267803
 30
0.0
 10
108.1325279611551
 20
91.5302201128257
 30
0.0
 10
108.1193083977153
 20
91.8233783719296
 30
0.0
 10
108.0968612199212
 20
92.48567883755442
 30
0.0
 10
108.0873827528967
 20
92.85595275816578
 30
0.0
 10
108.0681847919602
 20
94.07850956127959
 30
0.0
 10
108.0692985649571
 20
95.01564848741145
 30
0.0
 10
108.0882093579101
 20
96.33551971692644
 30
0.0
 10
108.0928388857691
 20
96.60702162590275
 30
0.0
 10
108.1033201055151
 20
97.16540646070506
 30
0.0
 10
108.1091153667995
 20
97.45252931664467
 30
0.0
 10
108.1274245877044
 20
98.32511857101636
 30
0.0
 10
108.1414595219848
 20
98.92557424737221
 30
0.0
 10
108.1709166941216
 20
100.1630487398683
 30
0.0
 10
108.1864723851032
 20
100.8000648965117
 30
0.0
 10
108.2102669351001
 20
102.1115534941963
 30
0.0
 10
108.2182859872455
 20
102.7876761058568
 30
0.0
 10
108.2145793405256
 20
103.4719712171416
 30
0.0
  0
LINE
  5
CD
330
1F
100
AcDbEntity
  8
0
  6
HIDDEN
 62
     7
370
     0
100
AcDbLine
 10
108.2145793406
 20
110.6812384603
 30
0.0
 11
108.2145793406
 21
122.8780952747
 31
0.0
  0
SPLINE
  5
CE
330
1F
100
AcDbEntity
  8
0
  6
HIDDEN
 62
     7
370
     0
100
AcDbSpline
210
0.0
220
0.0
230
1.0
 70
     8
 71
     3
 72
    10
 73
     6
 74
     0
 42
0.00000001
 43
0.00000001
 40
0.0
 40
0.0
 40
0.0
 40
0.0
 40
0.5
 40
0.5
 40
1.0
 40
1.0
 40
1.0
 40
1.0
 10
108.2145793405256
 20
103.4719712171265
 30
0.0
 10
108.2145793405254
 20
103.7458863652007
 30
0.0
 10
108.1888201106576
 20
104.0168279439307
 30
0.0
 10
108.0856141779244
 20
104.5525190255332
 30
0.0
 10
108.0082760140493
 20
104.8182658290551
 30
0.0
 10
107.9145793405256
 20
105.0799045364925
 30
0.0
  0
SPLINE
  5
CF
330
1F
100
AcDbEntity
  8
0
  6
HIDDEN
 62
     7
370
     0
100
AcDbSpline
210
0.0
220
0.0
230
1.0
 70
     8
 71
     3
 72
    10
 73
     6
 74
     0
 42
0.00000001
 43
0.00000001
 40
0.0
 40
0.0
 40
0.0
 40
0.0
 40
0.5
 40
0.5
 40
1.0
 40
1.0
 40
1.0
 40
1.0
 10
107.9145793405256
 20
109.0637331415579
 30
0.0
 10
108.0078099208768
 20
109.3276269481562
 30
0.0
 10
108.0828395324056
 20
109.5938072572548
 30
0.0
 10
108.1879066303853
 20
110.1321298290737
 30
0.0
 10
108.2145793406299
 20
110.4048779436895
 30
0.0
 10
108.2145793406311
 20
110.6812384602768
 30
0.0
  0
LINE
  5
D0
330
1F
100
AcDbEntity
  8
0
  6
HIDDEN
 62
     7
370
     0
100
AcDbLine
 10
107.9145793405
 20
105.0799045365
 30
0.0
 11
107.9145793405
 21
109.0637331416
 31
0.0
  0
LINE
  5
D1
330
1F
100
AcDbEntity
  8
0
  6
HIDDEN
 62
     7
370
     0
100
AcDbLine
 10
108.0645793405
 20
89.0866048387
 30
0.0
 11
108.0645793405
 21
86.2066670733
 31
0.0
  0
LINE
  5
D2
330
1F
100
AcDbEntity
  8
0
  6
HIDDEN
 62
     7
370
     0
100
AcDbLine
 10
117.0145793405
 20
89.0866048387
 30
0.0
 11
117.0145793405
 21
85.1128673075
 31
0.0
  0
LINE
  5
D3
330
1F
100
AcDbEntity
  8
0
  6
HIDDEN
 62
     7
370
     0
100
AcDbLine
 10
108.0645793405
 20
125.0666048387
 30
0.0
 11
108.0645793405
 21
127.9465426041
 31
0.0
  0
LINE
  5
D4
330
1F
100
AcDbEntity
  8
0
  6
HIDDEN
 62
     7
370
     0
100
AcDbLine
 10
113.0145793405
 20
125.0666048387
 30
0.0
 11
113.0145793405
 21
128.9207125111
 31
0.0
  0
LINE
  5
D5
330
1F
100
AcDbEntity
  8
0
  6
HIDDEN
 62
     7
370
     0
100
AcDbLine
 10
160.6145793405
 20
97.5766048387
 30
0.0
 11
160.6145793405
 21
116.5766048387
 31
0.0
  0
LINE
  5
D6
330
1F
100
AcDbEntity
  8
0
  6
HIDDEN
 62
     7
370
     0
100
AcDbLine
 10
157.6145793405
 20
97.5766048387
 30
0.0
 11
157.6145793405
 21
116.5766048387
 31
0.0
  0
LINE
  5
D7
330
1F
100
AcDbEntity
  8
0
  6
HIDDEN
 62
     7
370
     0
100
AcDbLine
 10
149.2645793405
 20
98.5766048387
 30
0.0
 11
149.2645793405
 21
115.5766048387
 31
0.0
  0
LINE
  5
D8
330
1F
100
AcDbEntity
  8
0
  6
HIDDEN
 62
     7
370
     0
100
AcDbLine
 10
164.7645793405
 20
80.6766048387
 30
0.0
 11
158.6269045382
 21
80.6766048387
 31
0.0
  0
LINE
  5
D9
330
1F
100
AcDbEntity
  8
0
  6
HIDDEN
 62
     7
370
     0
100
AcDbLine
 10
143.7645793405
 20
75.5924818558
 30
0.0
 11
143.7645793405
 21
80.6766048387
 31
0.0
  0
LINE
  5
DA
330
1F
100
AcDbEntity
  8
0
  6
HIDDEN
 62
     7
370
     0
100
AcDbLine
 10
151.7645793405
 20
80.6766048387
 30
0.0
 11
143.7645793405
 21
80.6766048387
 31
0.0
  0
LINE
  5
DB
330
1F
100
AcDbEntity
  8
0
  6
HIDDEN
 62
     7
370
     0
100
AcDbLine
 10
155.0022541429
 20
80.6766048387
 30
0.0
 11
151.7645793405
 21
80.6766048387
 31
0.0
  0
LINE
  5
DC
330
1F
100
AcDbEntity
  8
0
  6
HIDDEN
 62
     7
370
     0
100
AcDbLine
 10
155.2988768722
 20
133.4766048387
 30
0.0
 11
151.7645793405
 21
133.4766048387
 31
0.0
  0
LINE
  5
DD
330
1F
100
AcDbEntity
  8
0
  6
HIDDEN
 62
     7
370
     0
100
AcDbLine
 10
151.7645793405
 20
133.4766048387
 30
0.0
 11
143.7645793405
 21
133.4766048387
 31
0.0
  0
LINE
  5
DE
330
1F
100
AcDbEntity
  8
0
  6
HIDDEN
 62
     7
370
     0
100
AcDbLine
 10
164.7645793405
 20
133.4766048387
 30
0.0
 11
158.3302818088
 21
133.4766048387
 31
0.0
  0
SPLINE
  5
DF
330
1F
100
AcDbEntity
  8
0
  6
HIDDEN
 62
     7
370
     0
100
AcDbSpline
210
0.0
220
0.0
230
1.0
 70
     8
 71
     3
 72
    11
 73
     7
 74
     0
 42
0.00000001
 43
0.00000001
 40
0.0
 40
0.0
 40
0.0
 40
0.0
 40
0.0008203708524183
 40
0.0008203708524183
 40
0.0008203708524183
 40
0.0016409967870154
 40
0.0016409967870154
 40
0.0016409967870154
 40
0.0016409967870154
 10
108.0645793405256
 20
91.22457208806696
 30
0.0
 10
107.8734210402269
 20
91.18339305944782
 30
0.0
 10
107.6819939701547
 20
91.14463908721783
 30
0.0
 10
107.4903483466341
 20
91.10827132793929
 30
0.0
 10
107.2986429415536
 20
91.07189222417327
 30
0.0
 10
107.1067039894947
 20
91.03789797340569
 30
0.0
 10
106.9145793424239
 20
91.00624984801448
 30
0.0
  0
ELLIPSE
  5
E0
330
1F
100
AcDbEntity
  8
0
  6
HIDDEN
 62
     7
370
     0
100
AcDbEllipse
 10
102.6721474778
 20
107.0766048387
 30
0.0
 11
20.19992452771987
 21
-1.421085471520200E-14
 31
0.0
210
0.0
220
0.0
230
1.0
 40
0.816496581
 41
1.300566354937427
 42
1.359198697443033
  0
LINE
  5
E1
330
1F
100
AcDbEntity
  8
0
  6
HIDDEN
 62
     7
370
     0
100
AcDbLine
 10
117.0145793405
 20
89.0866048387
 30
0.0
 11
117.0145793405
 21
90.7890912163
 31
0.0
  0
LINE
  5
E2
330
1F
100
AcDbEntity
  8
0
  6
HIDDEN
 62
     7
370
     0
100
AcDbLine
 10
108.0645793405
 20
89.0866048387
 30
0.0
 11
108.0645793405
 21
91.2245720881
 31
0.0
  0
LINE
  5
E3
330
1F
100
AcDbEntity
  8
0
  6
HIDDEN
 62
     7
370
     0
100
AcDbLine
 10
108.1456103539
 20
91.2751144027
 30
0.0
 11
108.0645793405
 21
91.2245720881
 31
0.0
  0
LINE
  5
E4
330
1F
100
AcDbEntity
  8
0
  6
HIDDEN
 62
     7
370
     0
100
AcDbLine
 10
113.0145793405
 20
125.0666048387
 30
0.0
 11
113.0145793405
 21
123.3641184611
 31
0.0
  0
LINE
  5
E5
330
1F
100
AcDbEntity
  8
0
  6
HIDDEN
 62
     7
370
     0
100
AcDbLine
 10
108.0645793405
 20
125.0666048387
 30
0.0
 11
108.0645793405
 21
122.9712292877
 31
0.0
  0
SPLINE
  5
E6
330
1F
100
AcDbEntity
  8
0
  6
HIDDEN
 62
     7
370
     0
100
AcDbSpline
210
0.0
220
0.0
230
1.0
 70
     8
 71
     3
 72
     8
 73
     4
 74
     0
 42
0.00000001
 43
0.00000001
 40
0.0
 40
0.0
 40
0.0
 40
0.0
 40
1.0
 40
1.0
 40
1.0
 40
1.0
 10
108.0645793405256
 20
122.9712292877085
 30
0.0
 10
108.1145848383732
 20
122.9401935141756
 30
0.0
 10
108.1645849079416
 20
122.9091488698346
 30
0.0
 10
108.2145793406311
 20
122.8780952747413
 30
0.0
  0
SPLINE
  5
E7
330
1F
100
AcDbEntity
  8
0
  6
HIDDEN
 62
     7
370
     0
100
AcDbSpline
210
0.0
220
0.0
230
1.0
 70
     8
 71
     3
 72
    20
 73
    16
 74
     0
 42
0.00000001
 43
0.00000001
 40
0.0
 40
0.0
 40
0.0
 40
0.0
 40
0.1118532753329773
 40
0.1773727968972756
 40
0.2489947124776251
 40
0.3297435623080844
 40
0.3985163041579624
 40
0.4997965445409745
 40
0.6137622343445995
 40
0.6789284883076249
 40
0.7494553429231268
 40
0.8296017034142377
 40
0.8980457170654099
 40
0.9994566317807292
 40
1.0
 40
1.0
 40
1.0
 40
1.0
 10
133.5631946571537
 20
83.47667118897246
 30
0.0
 10
133.5199025825665
 20
83.49008960280183
 30
0.0
 10
133.4512516080629
 20
83.51136802834415
 30
0.0
 10
133.0062341962543
 20
83.61464055572233
 30
0.0
 10
132.4796844942741
 20
83.72794197872787
 30
0.0
 10
131.7942569200215
 20
83.85087538528876
 30
0.0
 10
130.9009401772523
 20
83.97290970193026
 30
0.0
 10
129.7875806051732
 20
84.09064607516389
 30
0.0
 10
128.6768063489806
 20
84.10262151368131
 30
0.0
 10
127.7920586331959
 20
84.07556333957365
 30
0.0
 10
127.1248598660118
 20
84.02763086210149
 30
0.0
 10
126.5835962733285
 20
83.97133903933296
 30
0.0
 10
126.1959824465958
 20
83.92624970735763
 30
0.0
 10
126.0020745755661
 20
83.88738103377622
 30
0.0
 10
126.0652676393667
 20
83.89810333857825
 30
0.0
 10
126.0656044285781
 20
83.89816048340336
 30
0.0
  0
LINE
  5
E8
330
1F
100
AcDbEntity
  8
0
  6
HIDDEN
 62
     7
370
     0
100
AcDbLine
 10
126.9745912549
 20
84.0089429824
 30
0.0
 11
127.158436566
 21
84.0271323247
 31
0.0
  0
SPLINE
  5
E9
330
1F
100
AcDbEntity
  8
0
  6
HIDDEN
 62
     7
370
     0
100
AcDbSpline
210
0.0
220
0.0
230
1.0
 70
     8
 71
     3
 72
    27
 73
    23
 74
     0
 42
0.00000001
 43
0.00000001
 40
0.0
 40
0.0
 40
0.0
 40
0.0
 40
0.0008086698272076
 40
0.0456911818186814
 40
0.1022728481583512
 40
0.1705509392347903
 40
0.2091426118780818
 40
0.2506698514600983
 40
0.3211156297100197
 40
0.3862093649606682
 40
0.4266885152929669
 40
0.464819768681512
 40
0.5006240859090926
 40
0.5452158508169909
 40
0.6017101077234818
 40
0.6701160834215031
 40
0.7088534140434741
 40
0.7505821601356245
 40
0.8222467465098726
 40
0.887786172122064
 40
0.9472599280090751
 40
0.9999999999999999
 40
0.9999999999999999
 40
0.9999999999999999
 40
0.9999999999999999
 10
126.0652478776449
 20
130.2550189689201
 30
0.0
 10
126.0650255081842
 20
130.2550669042716
 30
0.0
 10
126.0524612661184
 20
130.2577753308645
 30
0.0
 10
126.1015379052055
 20
130.245943300461
 30
0.0
 10
126.2466424229518
 20
130.222499092197
 30
0.0
 10
126.5196945800957
 20
130.188594946848
 30
0.0
 10
126.8482210624781
 20
130.1550261490706
 30
0.0
 10
127.2409488267232
 20
130.116842810834
 30
0.0
 10
127.7906768023695
 20
130.07787413815
 30
0.0
 10
128.4166994474626
 20
130.0584130337895
 30
0.0
 10
128.9598909579055
 20
130.0562273559476
 30
0.0
 10
129.4049598547467
 20
130.0647422371276
 30
0.0
 10
129.8714076512277
 20
130.0845256340533
 30
0.0
 10
130.4086483003904
 20
130.1286880195674
 30
0.0
 10
131.0568617311941
 20
130.2011036395847
 30
0.0
 10
131.6424003611726
 20
130.2820057327526
 30
0.0
 10
132.1233699756207
 20
130.3601717212449
 30
0.0
 10
132.5687848726185
 20
130.4449438601892
 30
0.0
 10
133.0072845920211
 20
130.538726903122
 30
0.0
 10
133.3463098488827
 20
130.6166306670337
 30
0.0
 10
133.5336507842688
 20
130.6668223043834
 30
0.0
 10
133.5541405664333
 20
130.6734887438031
 30
0.0
 10
133.5637706860618
 20
130.6766219449564
 30
0.0
  0
LINE
  5
EA
330
1F
100
AcDbEntity
  8
0
  6
HIDDEN
 62
     7
370
     0
100
AcDbLine
 10
187.8145793405
 20
102.8766048387
 30
0.0
 11
187.8145793405
 21
111.2766048387
 31
0.0
  0
LINE
  5
EB
330
1F
100
AcDbEntity
  8
0
  6
HIDDEN
 62
     7
370
     0
100
AcDbLine
 10
188.6858272381
 20
104.3266048387
 30
0.0
 11
188.6858272381
 21
109.8266048387
 31
0.0
  0
LINE
  5
EC
330
1F
100
AcDbEntity
  8
0
  6
HIDDEN
 62
     7
370
     0
100
AcDbLine
 10
203.6643641858
 20
104.3266048387
 30
0.0
 11
203.6643641858
 21
109.8266048387
 31
0.0
  0
LINE
  5
ED
330
1F
100
AcDbEntity
  8
0
  6
HIDDEN
 62
     7
370
     0
100
AcDbLine
 10
203.8145793405
 20
104.5766048387
 30
0.0
 11
203.8145793405
 21
109.5766048387
 31
0.0
  0
SPLINE
  5
EE
330
1F
100
AcDbEntity
  8
0
  6
HIDDEN
 62
     7
370
     0
100
AcDbSpline
210
0.0
220
0.0
230
1.0
 70
     8
 71
     3
 72
     8
 73
     4
 74
     0
 42
0.00000001
 43
0.00000001
 40
0.0
 40
0.0
 40
0.0
 40
0.0
 40
0.0001590976915385
 40
0.0001590976915385
 40
0.0001590976915385
 40
0.0001590976915385
 10
108.1997473465185
 20
91.27511440267803
 30
0.0
 10
108.154695877089
 20
91.24713551902737
 30
0.0
 10
108.1096398397492
 20
91.21916398932505
 30
0.0
 10
108.0645793405256
 20
91.19119965064498
 30
0.0
  0
SPLINE
  5
EF
330
1F
100
AcDbEntity
  8
0
  6
HIDDEN
 62
     7
370
     0
100
AcDbSpline
210
0.0
220
0.0
230
1.0
 70
     8
 71
     3
 72
    11
 73
     7
 74
     0
 42
0.00000001
 43
0.00000001
 40
0.0
 40
0.0
 40
0.0
 40
0.0
 40
0.000821290931132
 40
0.000821290931132
 40
0.000821290931132
 40
0.0016428257242788
 40
0.0016428257242788
 40
0.0016428257242788
 40
0.0016428257242788
 10
108.0645793405256
 20
91.19119965064498
 30
0.0
 10
107.8734343190431
 20
91.14791346182332
 30
0.0
 10
107.6820159833665
 20
91.10697695221756
 30
0.0
 10
107.4903699087054
 20
91.0683751808631
 30
0.0
 10
107.2986668271638
 20
91.02976192705813
 30
0.0
 10
107.1067217038785
 20
90.99348171780488
 30
0.0
 10
106.9145793405256
 20
90.95951481148677
 30
0.0
  0
LINE
  5
F0
330
1F
100
AcDbEntity
  8
0
  6
HIDDEN
 62
     7
370
     0
100
AcDbLine
 10
154.9045793405
 20
127.2623905291
 30
0.0
 11
154.9045793405
 21
126.9266048387
 31
0.0
  0
LINE
  5
F1
330
1F
100
AcDbEntity
  8
0
  6
HIDDEN
 62
     7
370
     0
100
AcDbLine
 10
158.7245793405
 20
127.262390529
 30
0.0
 11
158.7245793405
 21
126.9266048387
 31
0.0
  0
LINE
  5
F2
330
1F
100
AcDbEntity
  8
0
  6
HIDDEN
 62
     7
370
     0
100
AcDbLine
 10
160.206512172
 20
131.5352945011
 30
0.0
 11
160.206512172
 21
126.9266048387
 31
0.0
  0
SPLINE
  5
F3
330
1F
100
AcDbEntity
  8
0
  6
HIDDEN
 62
     7
370
     0
100
AcDbSpline
210
0.0
220
0.0
230
1.0
 70
     8
 71
     3
 72
     8
 73
     4
 74
     0
 42
0.00000001
 43
0.00000001
 40
0.0
 40
0.0
 40
0.0
 40
0.0
 40
0.0011563724678166
 40
0.0011563724678166
 40
0.0011563724678166
 40
0.0011563724678166
 10
107.9145793405256
 20
119.7167471521801
 30
0.0
 10
107.5812582253284
 20
119.8458061778069
 30
0.0
 10
107.2479255445204
 20
119.9747665139806
 30
0.0
 10
106.9145793405256
 20
120.1036780437537
 30
0.0
  0
SPLINE
  5
F4
330
1F
100
AcDbEntity
  8
0
  6
HIDDEN
 62
     7
370
     0
100
AcDbSpline
210
0.0
220
0.0
230
1.0
 70
     8
 71
     3
 72
     8
 73
     4
 74
     0
 42
0.00000001
 43
0.00000001
 40
0.0
 40
0.0
 40
0.0
 40
0.0
 40
0.0011557494192775
 40
0.0011557494192775
 40
0.0011557494192775
 40
0.0011557494192775
 10
106.9145793405255
 20
94.04938297625884
 30
0.0
 10
107.2479131505397
 20
94.18100725245374
 30
0.0
 10
107.5812467622024
 20
94.31282416602718
 30
0.0
 10
107.9145793405256
 20
94.44482760819008
 30
0.0
  0
SPLINE
  5
F5
330
1F
100
AcDbEntity
  8
0
  6
HIDDEN
 62
     7
370
     0
100
AcDbSpline
210
0.0
220
0.0
230
1.0
 70
     8
 71
     3
 72
     8
 73
     4
 74
     0
 42
0.00000001
 43
0.00000001
 40
0.0000000000000006
 40
0.0000000000000006
 40
0.0000000000000006
 40
0.0000000000000006
 40
0.0011560973009451
 40
0.0011560973009451
 40
0.0011560973009451
 40
0.0011560973009451
 10
106.9145793405255
 20
117.0574193319968
 30
0.0
 10
107.2479190781123
 20
116.9326755997235
 30
0.0
 10
107.5812497113209
 20
116.8079943755465
 30
0.0
 10
107.9145793405256
 20
116.6835441522153
 30
0.0
  0
SPLINE
  5
F6
330
1F
100
AcDbEntity
  8
0
  6
HIDDEN
 62
     7
370
     0
100
AcDbSpline
210
0.0
220
0.0
230
1.0
 70
     8
 71
     3
 72
     8
 73
     4
 74
     0
 42
0.00000001
 43
0.00000001
 40
0.0
 40
0.0
 40
0.0
 40
0.0
 40
0.0011564805411644
 40
0.0011564805411644
 40
0.0011564805411644
 40
0.0011564805411644
 10
107.9145793405256
 20
97.47577805372855
 30
0.0
 10
107.5812773751241
 20
97.34892711329431
 30
0.0
 10
107.2479405582175
 20
97.22236204443205
 30
0.0
 10
106.9145793405256
 20
97.09596207077134
 30
0.0
  0
CIRCLE
  5
F7
330
1F
100
AcDbEntity
  8
0
  6
HIDDEN
 62
     7
370
     0
100
AcDbCircle
 10
145.8145793405
 20
107.0766048387
 30
0.0
 40
5.0
  0
LINE
  5
F8
330
1F
100
AcDbEntity
  8
0
  6
HIDDEN
 62
     7
370
     0
100
AcDbLine
 10
142.8145793405
 20
121.3772699427
 30
0.0
 11
142.8145793405
 21
119.4705454816
 31
0.0
  0
LINE
  5
F9
330
1F
100
AcDbEntity
  8
0
  6
HIDDEN
 62
     7
370
     0
100
AcDbLine
 10
150.8145793405
 20
119.4705454816
 30
0.0
 11
150.8145793405
 21
121.3765492989
 31
0.0
  0
LINE
  5
FA
330
1F
100
AcDbEntity
  8
0
  6
HIDDEN
 62
     7
370
     0
100
AcDbLine
 10
138.8145793405
 20
81.7526736927
 30
0.0
 11
138.9087401161
 21
82.422662424
 31
0.0
  0
LINE
  5
FB
330
1F
100
AcDbEntity
  8
0
  6
HIDDEN
 62
     7
370
     0
100
AcDbLine
 10
138.9087401161
 20
131.7305472535
 30
0.0
 11
138.8145793405
 21
132.4005359847
 31
0.0
  0
ARC
  5
FC
330
1F
100
AcDbEntity
  8
0
  6
HIDDEN
 62
     7
370
     0
100
AcDbCircle
 10
138.3145725879
 20
82.5061672243
 30
0.0
 40
0.6000067526677242
100
AcDbArc
 50
352.0
 51
0.0
  0
ARC
  5
FD
330
1F
100
AcDbEntity
  8
0
  6
HIDDEN
 62
     7
370
     0
100
AcDbCircle
 10
138.3145725879
 20
82.5061672243
 30
0.0
 40
0.6000067526677242
100
AcDbArc
 50
0.0
 51
33.5571153394
  0
ARC
  5
FE
330
1F
100
AcDbEntity
  8
0
  6
HIDDEN
 62
     7
370
     0
100
AcDbCircle
 10
138.3145725879
 20
131.6470424531
 30
0.0
 40
0.6000067526677081
100
AcDbArc
 50
348.75
 51
8.0
  0
LWPOLYLINE
  5
FF
330
1F
100
AcDbEntity
  8
0
  6
HIDDEN
 62
     7
370
     0
100
AcDbPolyline
 90
        3
 70
   128
 43
0.0
 10
138.903050379
 20
131.5299869425
 10
138.868906546
 20
131.4174298095
 10
138.8145793405
 20
131.3153779381
  0
LINE
  5
100
330
1F
100
AcDbEntity
  8
0
  6
HIDDEN
 62
     7
370
     0
100
AcDbLine
 10
138.9145793405
 20
82.5061672243
 30
0.0
 11
138.9145793405
 21
131.6470424531
 31
0.0
  0
LINE
  5
101
330
1F
100
AcDbEntity
  8
0
  6
HIDDEN
 62
     7
370
     0
100
AcDbLine
 10
121.8970149058
 20
87.0766048387
 30
0.0
 11
126.0676967217
 21
87.0766048387
 31
0.0
  0
LINE
  5
102
330
1F
100
AcDbEntity
  8
0
  6
HIDDEN
 62
     7
370
     0
100
AcDbLine
 10
126.0676967217
 20
127.0766048387
 30
0.0
 11
121.8970149058
 21
127.0766048387
 31
0.0
  0
ARC
  5
103
330
1F
100
AcDbEntity
  8
0
  6
HIDDEN
 62
     7
370
     0
100
AcDbCircle
 10
121.8970149058
 20
87.6766048387
 30
0.0
 40
0.6000000000000155
100
AcDbArc
 50
210.0
 51
270.0
  0
ARC
  5
104
330
1F
100
AcDbEntity
  8
0
  6
HIDDEN
 62
     7
370
     0
100
AcDbCircle
 10
121.8970149058
 20
126.4766048387
 30
0.0
 40
0.6000000000000084
100
AcDbArc
 50
90.0
 51
150.0
  0
ARC
  5
105
330
1F
100
AcDbEntity
  8
0
  6
HIDDEN
 62
     7
370
     0
100
AcDbCircle
 10
132.5695813421
 20
95.0766048387
 30
0.0
 40
8.000000000000002
100
AcDbArc
 50
277.1325488762
 51
321.3178125465
  0
ARC
  5
106
330
1F
100
AcDbEntity
  8
0
  6
HIDDEN
 62
     7
370
     0
100
AcDbCircle
 10
132.5695813421
 20
119.0766048387
 30
0.0
 40
8.000000000000007
100
AcDbArc
 50
38.6821874535
 51
82.8563149266
  0
LINE
  5
107
330
1F
100
AcDbEntity
  8
0
  6
HIDDEN
 62
     7
370
     0
100
AcDbLine
 10
121.3773996636
 20
126.7766048387
 30
0.0
 11
119.8185539367
 21
124.0766048387
 31
0.0
  0
LINE
  5
108
330
1F
100
AcDbEntity
  8
0
  6
HIDDEN
 62
     7
370
     0
100
AcDbLine
 10
119.8185539367
 20
90.0766048387
 30
0.0
 11
121.3773996636
 21
87.3766048387
 31
0.0
  0
LINE
  5
109
330
1F
100
AcDbEntity
  8
0
  6
HIDDEN
 62
     7
370
     0
100
AcDbLine
 10
142.8145793405
 20
134.3563370758
 30
0.0
 11
142.8145793405
 21
131.0222072533
 31
0.0
  0
LINE
  5
10A
330
1F
100
AcDbEntity
  8
0
  6
HIDDEN
 62
     7
370
     0
100
AcDbLine
 10
150.8145793405
 20
131.0222072533
 30
0.0
 11
150.8145793405
 21
134.3549623865
 31
0.0
  0
ARC
  5
10B
330
1F
100
AcDbEntity
  8
0
  6
HIDDEN
 62
     7
370
     0
100
AcDbCircle
 10
147.2645793405
 20
91.3516048387
 30
0.0
 40
1.500000000000001
100
AcDbArc
 50
238.2116693829
 51
0.0
  0
ARC
  5
10C
330
1F
100
AcDbEntity
  8
0
  6
HIDDEN
 62
     7
370
     0
100
AcDbCircle
 10
147.2645793405
 20
122.8016048387
 30
0.0
 40
1.500000000000001
100
AcDbArc
 50
0.0
 51
121.7883306171
  0
LINE
  5
10D
330
1F
100
AcDbEntity
  8
0
  6
HIDDEN
 62
     7
370
     0
100
AcDbLine
 10
138.8145793405
 20
90.0766048387
 30
0.0
 11
146.4744053091
 21
90.0766048387
 31
0.0
  0
LINE
  5
10E
330
1F
100
AcDbEntity
  8
0
  6
HIDDEN
 62
     7
370
     0
100
AcDbLine
 10
146.4744053091
 20
124.0766048387
 30
0.0
 11
138.8145793405
 21
124.0766048387
 31
0.0
  0
LINE
  5
10F
330
1F
100
AcDbEntity
  8
0
  6
HIDDEN
 62
     7
370
     0
100
AcDbLine
 10
117.0145793405
 20
90.0766048387
 30
0.0
 11
119.8185539367
 21
90.0766048387
 31
0.0
  0
LINE
  5
110
330
1F
100
AcDbEntity
  8
0
  6
HIDDEN
 62
     7
370
     0
100
AcDbLine
 10
119.8185539367
 20
124.0766048387
 30
0.0
 11
113.0145793405
 21
124.0766048387
 31
0.0
  0
LINE
  5
111
330
1F
100
AcDbEntity
  8
0
  6
HIDDEN
 62
     7
370
     0
100
AcDbLine
 10
157.6145793405
 20
97.5766048387
 30
0.0
 11
160.6145793405
 21
97.5766048387
 31
0.0
  0
LINE
  5
112
330
1F
100
AcDbEntity
  8
0
  6
HIDDEN
 62
     7
370
     0
100
AcDbLine
 10
160.6145793405
 20
116.5766048387
 30
0.0
 11
157.6145793405
 21
116.5766048387
 31
0.0
  0
LINE
  5
113
330
1F
100
AcDbEntity
  8
0
  6
HIDDEN
 62
     7
370
     0
100
AcDbLine
 10
148.7645793405
 20
98.0766048387
 30
0.0
 11
149.2645793405
 21
98.5766048387
 31
0.0
  0
LINE
  5
114
330
1F
100
AcDbEntity
  8
0
  6
HIDDEN
 62
     7
370
     0
100
AcDbLine
 10
149.2645793405
 20
115.5766048387
 30
0.0
 11
148.7645793405
 21
116.0766048387
 31
0.0
  0
LINE
  5
115
330
1F
100
AcDbEntity
  8
0
  6
HIDDEN
 62
     7
370
     0
100
AcDbLine
 10
149.2645793405
 20
98.5766048387
 30
0.0
 11
157.6145793405
 21
98.5766048387
 31
0.0
  0
LINE
  5
116
330
1F
100
AcDbEntity
  8
0
  6
HIDDEN
 62
     7
370
     0
100
AcDbLine
 10
157.6145793405
 20
115.5766048387
 30
0.0
 11
149.2645793405
 21
115.5766048387
 31
0.0
  0
LINE
  5
117
330
1F
100
AcDbEntity
  8
0
  6
HIDDEN
 62
     7
370
     0
100
AcDbLine
 10
143.7645793405
 20
138.5766048387
 30
0.0
 11
143.7645793405
 21
133.4766048387
 31
0.0
  0
LINE
  5
118
330
1F
100
AcDbEntity
  8
0
  6
HIDDEN
 62
     7
370
     0
100
AcDbLine
 10
133.999017171
 20
82.9972335052
 30
0.0
 11
133.5645850215
 21
83.4762995243
 31
0.0
  0
LINE
  5
119
330
1F
100
AcDbEntity
  8
0
  6
HIDDEN
 62
     7
370
     0
100
AcDbLine
 10
126.0645816964
 20
83.8979874834
 30
0.0
 11
125.5821479531
 21
83.418921508
 31
0.0
  0
LINE
  5
11A
330
1F
100
AcDbEntity
  8
0
  6
HIDDEN
 62
     7
370
     0
100
AcDbLine
 10
125.5820260248
 20
130.734282879
 30
0.0
 11
126.0645767758
 21
130.2551626211
 31
0.0
  0
LINE
  5
11B
330
1F
100
AcDbEntity
  8
0
  6
HIDDEN
 62
     7
370
     0
100
AcDbLine
 10
133.5645792225
 20
130.6768603988
 30
0.0
 11
133.9991216129
 21
131.1559806494
 31
0.0
  0
LINE
  5
11C
330
1F
100
AcDbEntity
  8
0
  6
HIDDEN
 62
     7
370
     0
100
AcDbLine
 10
187.8145793405
 20
102.8766048387
 30
0.0
 11
188.6858272381
 21
104.3266048387
 31
0.0
  0
LINE
  5
11D
330
1F
100
AcDbEntity
  8
0
  6
HIDDEN
 62
     7
370
     0
100
AcDbLine
 10
188.6858272381
 20
109.8266048387
 30
0.0
 11
187.8145793405
 21
111.2766048387
 31
0.0
  0
LINE
  5
11E
330
1F
100
AcDbEntity
  8
0
  6
HIDDEN
 62
     7
370
     0
100
AcDbLine
 10
160.6145793405
 20
102.8766048387
 30
0.0
 11
187.8145793405
 21
102.8766048387
 31
0.0
  0
LINE
  5
11F
330
1F
100
AcDbEntity
  8
0
  6
HIDDEN
 62
     7
370
     0
100
AcDbLine
 10
187.8145793405
 20
111.2766048387
 30
0.0
 11
160.6145793405
 21
111.2766048387
 31
0.0
  0
LINE
  5
120
330
1F
100
AcDbEntity
  8
0
  6
HIDDEN
 62
     7
370
     0
100
AcDbLine
 10
133.5645793405
 20
127.0144410293
 30
0.0
 11
133.5645793405
 21
130.6765690927
 31
0.0
  0
LINE
  5
121
330
1F
100
AcDbEntity
  8
0
  6
HIDDEN
 62
     7
370
     0
100
AcDbLine
 10
126.0645793405
 20
130.2550188419
 30
0.0
 11
126.0645793405
 21
127.0760205775
 31
0.0
  0
LINE
  5
122
330
1F
100
AcDbEntity
  8
0
  6
HIDDEN
 62
     7
370
     0
100
AcDbLine
 10
133.5645793405
 20
83.476783426
 30
0.0
 11
133.5645793405
 21
87.1387686481
 31
0.0
  0
LINE
  5
123
330
1F
100
AcDbEntity
  8
0
  6
HIDDEN
 62
     7
370
     0
100
AcDbLine
 10
126.0645793405
 20
87.0771890999
 30
0.0
 11
126.0645793405
 21
83.8983107212
 31
0.0
  0
ARC
  5
124
330
1F
100
AcDbEntity
  8
0
  6
HIDDEN
 62
     7
370
     0
100
AcDbCircle
 10
218.5145793405
 20
104.2766048387
 30
0.0
 40
0.3000000000000114
100
AcDbArc
 50
0.0
 51
90.0
  0
ARC
  5
125
330
1F
100
AcDbEntity
  8
0
  6
HIDDEN
 62
     7
370
     0
100
AcDbCircle
 10
218.5145793405
 20
109.8766048387
 30
0.0
 40
0.3000000000000114
100
AcDbArc
 50
270.0
 51
0.0
  0
LINE
  5
126
330
1F
100
AcDbEntity
  8
0
  6
HIDDEN
 62
     7
370
     0
100
AcDbLine
 10
188.6858272381
 20
104.3266048387
 30
0.0
 11
203.6643641858
 21
104.3266048387
 31
0.0
  0
LINE
  5
127
330
1F
100
AcDbEntity
  8
0
  6
HIDDEN
 62
     7
370
     0
100
AcDbLine
 10
203.6643641858
 20
109.8266048387
 30
0.0
 11
188.6858272381
 21
109.8266048387
 31
0.0
  0
LINE
  5
128
330
1F
100
AcDbEntity
  8
0
  6
HIDDEN
 62
     7
370
     0
100
AcDbLine
 10
203.6643641858
 20
104.3266048387
 30
0.0
 11
203.8145793405
 21
104.5766048387
 31
0.0
  0
LINE
  5
129
330
1F
100
AcDbEntity
  8
0
  6
HIDDEN
 62
     7
370
     0
100
AcDbLine
 10
203.8145793405
 20
109.5766048387
 30
0.0
 11
203.6643641858
 21
109.8266048387
 31
0.0
  0
LINE
  5
12A
330
1F
100
AcDbEntity
  8
0
  6
HIDDEN
 62
     7
370
     0
100
AcDbLine
 10
203.8145793405
 20
104.5766048387
 30
0.0
 11
218.5145793405
 21
104.5766048387
 31
0.0
  0
LINE
  5
12B
330
1F
100
AcDbEntity
  8
0
  6
HIDDEN
 62
     7
370
     0
100
AcDbLine
 10
218.5145793405
 20
109.5766048387
 30
0.0
 11
203.8145793405
 21
109.5766048387
 31
0.0
  0
DIMENSION
  5
12C
330
1F
100
AcDbEntity
  8
VERMASSUNG
100
AcDbDimension
  2
*D1
 10
228.8145793405
 20
109.5766048387
 30
0.0
 11
228.8145793405
 21
107.0766048387
 31
0.0
 70
   160
  1
%%c<>
 71
     2
 42
-1.0
  3
SLDDIMSTYLE0
100
AcDbAlignedDimension
 13
218.5145793405
 23
104.5766048387
 33
0.0
 14
218.5145793405
 24
109.5766048387
 34
0.0
 50
90.0
100
AcDbRotatedDimension
  0
DIMENSION
  5
13A
330
1F
100
AcDbEntity
  8
VERMASSUNG
100
AcDbDimension
  2
*D2
 10
234.8145793405
 20
112.0766048387
 30
0.0
 11
234.8145793405
 21
107.0766048387
 31
0.0
 70
   160
  1
%%c<> 
 71
     2
 42
-1.0
  3
SLDDIMSTYLE1
100
AcDbAlignedDimension
 13
218.8145793405
 23
102.0766048387
 33
0.0
 14
218.8145793405
 24
112.0766048387
 34
0.0
 50
90.0
100
AcDbRotatedDimension
  0
DIMENSION
  5
147
330
1F
100
AcDbEntity
  8
VERMASSUNG
100
AcDbDimension
  2
*D3
 10
218.8145793405
 20
151.4885543144
 30
0.0
 11
178.8145793405
 21
151.4885543144
 31
0.0
 70
   160
 71
     2
 42
-1.0
  3
SLDDIMSTYLE2
100
AcDbAlignedDimension
 13
138.8145793405
 23
138.2766048387
 33
0.0
 14
218.8145793405
 24
111.6144095929
 34
0.0
100
AcDbRotatedDimension
  0
DIMENSION
  5
152
330
1F
100
AcDbEntity
  8
VERMASSUNG
100
AcDbDimension
  2
*D4
 10
218.8145793405
 20
139.4885543144
 30
0.0
 11
211.3145793405
 21
139.4885543144
 31
0.0
 70
   160
 71
     2
 42
-1.0
  3
SLDDIMSTYLE2
100
AcDbAlignedDimension
 13
203.8145793405
 23
109.5766048387
 33
0.0
 14
218.8145793405
 24
111.6144095929
 34
0.0
100
AcDbRotatedDimension
  0
DIMENSION
  5
15C
330
1F
100
AcDbEntity
  8
VERMASSUNG
100
AcDbDimension
  2
*D5
 10
218.8145793405
 20
145.4885543144
 30
0.0
 11
191.7895793405
 21
145.4885543144
 31
0.0
 70
   160
 71
     2
 42
-1.0
  3
SLDDIMSTYLE2
100
AcDbAlignedDimension
 13
164.7645793405
 23
136.9230451625
 33
0.0
 14
218.8145793405
 24
111.6144095929
 34
0.0
100
AcDbRotatedDimension
  0
DIMENSION
  5
166
330
1F
100
AcDbEntity
  8
VERMASSUNG
100
AcDbDimension
  2
*D6
 10
218.8145793405
 20
157.4885543144
 30
0.0
 11
162.8645793405
 21
157.4885543144
 31
0.0
 70
   160
 71
     2
 42
-1.0
  3
SLDDIMSTYLE2
100
AcDbAlignedDimension
 13
106.9145793405
 23
126.7672825852
 33
0.0
 14
218.8145793405
 24
111.6144095929
 34
0.0
100
AcDbRotatedDimension
  0
DIMENSION
  5
170
330
1F
100
AcDbEntity
  8
VERMASSUNG
100
AcDbDimension
  2
*D7
 10
100.8342231057
 20
75.5766048387
 30
0.0
 11
100.8342231057
 21
107.0766048387
 31
0.0
 70
   160
  1
HSK A %%c<>
 71
     2
 42
-1.0
  3
SLDDIMSTYLE2
100
AcDbAlignedDimension
 13
139.1145793405
 23
138.5766048387
 33
0.0
 14
139.1145793405
 24
75.5766048387
 34
0.0
 50
90.0
100
AcDbRotatedDimension
  0
LINE
  5
17C
330
1F
100
AcDbEntity
  8
0
  6
HIDDEN
 62
     7
370
     0
100
AcDbLine
 10
157.6145793405
 20
116.0766048387
 30
0.0
 11
148.7645793405
 21
116.0766048387
 31
0.0
  0
LINE
  5
17D
330
1F
100
AcDbEntity
  8
0
  6
HIDDEN
 62
     7
370
     0
100
AcDbLine
 10
148.7645793405
 20
98.0766048387
 30
0.0
 11
157.6145793405
 21
98.0766048387
 31
0.0
  0
LINE
  5
17E
330
1F
100
AcDbEntity
  8
VERMASSUNG
  6
CENTERX2
370
     0
100
AcDbLine
 10
102.6925403226
 20
107.0766048387
 30
0.0
 11
220.3538088884
 21
107.0766048387
 31
0.0
  0
OLE2FRAME
  5
17F
330
1F
100
AcDbEntity
  8
0
100
AcDbOle2Frame
 70
     2
  3
Bitmap Image
 10
13.8511154363
 20
38.264191557
 30
0.0
 11
51.6290888628
 21
31.9806341108
 31
0.0
 71
     2
 72
     0
 73
     1
 90
    12928
310
80552BED0767C5B32B40DDAF6807D121434000000000000000006FFBDDFB85D0
310
4940DDAF6807D121434000000000000000006FFBDDFB85D04940416F4BD60AFB
310
3F4000000000000000002BED0767C5B32B40416F4BD60AFB3F40000000000000
310
0000000000000100000000010000010000000100000000000100000000320000
310
D0CF11E0A1B11AE1000000000000000000000000000000003E000300FEFF0900
310
0600000000000000000000000100000001000000000000000010000002000000
310
01000000FEFFFFFF0000000000000000FFFFFFFFFFFFFFFFFFFFFFFFFFFFFFFF
310
FFFFFFFFFFFFFFFFFFFFFFFFFFFFFFFFFFFFFFFFFFFFFFFFFFFFFFFFFFFFFFFF
310
FFFFFFFFFFFFFFFFFFFFFFFFFFFFFFFFFFFFFFFFFFFFFFFFFFFFFFFFFFFFFFFF
310
FFFFFFFFFFFFFFFFFFFFFFFFFFFFFFFFFFFFFFFFFFFFFFFFFFFFFFFFFFFFFFFF
310
FFFFFFFFFFFFFFFFFFFFFFFFFFFFFFFFFFFFFFFFFFFFFFFFFFFFFFFFFFFFFFFF
310
FFFFFFFFFFFFFFFFFFFFFFFFFFFFFFFFFFFFFFFFFFFFFFFFFFFFFFFFFFFFFFFF
310
FFFFFFFFFFFFFFFFFFFFFFFFFFFFFFFFFFFFFFFFFFFFFFFFFFFFFFFFFFFFFFFF
310
FFFFFFFFFFFFFFFFFFFFFFFFFFFFFFFFFFFFFFFFFFFFFFFFFFFFFFFFFFFFFFFF
310
FFFFFFFFFFFFFFFFFFFFFFFFFFFFFFFFFFFFFFFFFFFFFFFFFFFFFFFFFFFFFFFF
310
FFFFFFFFFFFFFFFFFFFFFFFFFFFFFFFFFFFFFFFFFFFFFFFFFFFFFFFFFFFFFFFF
310
FFFFFFFFFFFFFFFFFFFFFFFFFFFFFFFFFFFFFFFFFFFFFFFFFFFFFFFFFFFFFFFF
310
FFFFFFFFFFFFFFFFFFFFFFFFFFFFFFFFFFFFFFFFFFFFFFFFFFFFFFFFFFFFFFFF
310
FFFFFFFFFFFFFFFFFFFFFFFFFFFFFFFFFFFFFFFFFFFFFFFFFFFFFFFFFFFFFFFF
310
FFFFFFFFFFFFFFFFFFFFFFFFFFFFFFFFFFFFFFFFFFFFFFFFFFFFFFFFFFFFFFFF
310
FDFFFFFFFEFFFFFFFEFFFFFFFEFFFFFF05000000060000000700000008000000
310
090000000A0000000B0000000C0000000D0000000E0000000F00000010000000
310
11000000120000001300000014000000150000001600000017000000FEFFFFFF
310
FFFFFFFFFFFFFFFFFFFFFFFFFFFFFFFFFFFFFFFFFFFFFFFFFFFFFFFFFFFFFFFF
310
FFFFFFFFFFFFFFFFFFFFFFFFFFFFFFFFFFFFFFFFFFFFFFFFFFFFFFFFFFFFFFFF
310
FFFFFFFFFFFFFFFFFFFFFFFFFFFFFFFFFFFFFFFFFFFFFFFFFFFFFFFFFFFFFFFF
310
FFFFFFFFFFFFFFFFFFFFFFFFFFFFFFFFFFFFFFFFFFFFFFFFFFFFFFFFFFFFFFFF
310
FFFFFFFFFFFFFFFFFFFFFFFFFFFFFFFFFFFFFFFFFFFFFFFFFFFFFFFFFFFFFFFF
310
FFFFFFFFFFFFFFFFFFFFFFFFFFFFFFFFFFFFFFFFFFFFFFFFFFFFFFFFFFFFFFFF
310
FFFFFFFFFFFFFFFFFFFFFFFFFFFFFFFFFFFFFFFFFFFFFFFFFFFFFFFFFFFFFFFF
310
FFFFFFFFFFFFFFFFFFFFFFFFFFFFFFFFFFFFFFFFFFFFFFFFFFFFFFFFFFFFFFFF
310
FFFFFFFFFFFFFFFFFFFFFFFFFFFFFFFFFFFFFFFFFFFFFFFFFFFFFFFFFFFFFFFF
310
FFFFFFFFFFFFFFFFFFFFFFFFFFFFFFFFFFFFFFFFFFFFFFFFFFFFFFFFFFFFFFFF
310
FFFFFFFFFFFFFFFFFFFFFFFFFFFFFFFFFFFFFFFFFFFFFFFFFFFFFFFFFFFFFFFF
310
FFFFFFFFFFFFFFFFFFFFFFFFFFFFFFFFFFFFFFFFFFFFFFFFFFFFFFFFFFFFFFFF
310
FFFFFFFFFFFFFFFFFFFFFFFFFFFFFFFFFFFFFFFFFFFFFFFFFFFFFFFFFFFFFFFF
310
52006F006F007400200045006E00740072007900000000000000000000000000
310
0000000000000000000000000000000000000000000000000000000000000000
310
16000500FFFFFFFFFFFFFFFF020000000A00030000000000C000000000000046
310
000000000000000000000000C0B8245142DECB0103000000C000000000000000
310
01004F006C006500000000000000000000000000000000000000000000000000
310
0000000000000000000000000000000000000000000000000000000000000000
310
0A000200FFFFFFFFFFFFFFFFFFFFFFFF00000000000000000000000000000000
310
0000000000000000000000000000000000000000000000001400000000000000
310
010043006F006D0070004F0062006A0000000000000000000000000000000000
310
0000000000000000000000000000000000000000000000000000000000000000
310
120002010100000003000000FFFFFFFF00000000000000000000000000000000
310
0000000000000000000000000000000000000000010000004D00000000000000
310
01004F006C006500310030004E00610074006900760065000000000000000000
310
0000000000000000000000000000000000000000000000000000000000000000
310
1A000200FFFFFFFFFFFFFFFFFFFFFFFF00000000000000000000000000000000
310
0000000000000000000000000000000000000000040000002426000000000000
310
FEFFFFFF02000000FEFFFFFFFFFFFFFFFFFFFFFFFFFFFFFFFFFFFFFFFFFFFFFF
310
FFFFFFFFFFFFFFFFFFFFFFFFFFFFFFFFFFFFFFFFFFFFFFFFFFFFFFFFFFFFFFFF
310
FFFFFFFFFFFFFFFFFFFFFFFFFFFFFFFFFFFFFFFFFFFFFFFFFFFFFFFFFFFFFFFF
310
FFFFFFFFFFFFFFFFFFFFFFFFFFFFFFFFFFFFFFFFFFFFFFFFFFFFFFFFFFFFFFFF
310
FFFFFFFFFFFFFFFFFFFFFFFFFFFFFFFFFFFFFFFFFFFFFFFFFFFFFFFFFFFFFFFF
310
FFFFFFFFFFFFFFFFFFFFFFFFFFFFFFFFFFFFFFFFFFFFFFFFFFFFFFFFFFFFFFFF
310
FFFFFFFFFFFFFFFFFFFFFFFFFFFFFFFFFFFFFFFFFFFFFFFFFFFFFFFFFFFFFFFF
310
FFFFFFFFFFFFFFFFFFFFFFFFFFFFFFFFFFFFFFFFFFFFFFFFFFFFFFFFFFFFFFFF
310
FFFFFFFFFFFFFFFFFFFFFFFFFFFFFFFFFFFFFFFFFFFFFFFFFFFFFFFFFFFFFFFF
310
FFFFFFFFFFFFFFFFFFFFFFFFFFFFFFFFFFFFFFFFFFFFFFFFFFFFFFFFFFFFFFFF
310
FFFFFFFFFFFFFFFFFFFFFFFFFFFFFFFFFFFFFFFFFFFFFFFFFFFFFFFFFFFFFFFF
310
FFFFFFFFFFFFFFFFFFFFFFFFFFFFFFFFFFFFFFFFFFFFFFFFFFFFFFFFFFFFFFFF
310
FFFFFFFFFFFFFFFFFFFFFFFFFFFFFFFFFFFFFFFFFFFFFFFFFFFFFFFFFFFFFFFF
310
FFFFFFFFFFFFFFFFFFFFFFFFFFFFFFFFFFFFFFFFFFFFFFFFFFFFFFFFFFFFFFFF
310
FFFFFFFFFFFFFFFFFFFFFFFFFFFFFFFFFFFFFFFFFFFFFFFFFFFFFFFFFFFFFFFF
310
FFFFFFFFFFFFFFFFFFFFFFFFFFFFFFFFFFFFFFFFFFFFFFFFFFFFFFFFFFFFFFFF
310
0100000200000000000000000000000000000000000000000000000000000000
310
000000000000000038000000410000006C11D90000000000BC11B60000000000
310
0100FEFF030A0000FFFFFFFF0A00030000000000C00000000000004607000000
310
5042727573680007000000504272757368000700000050427275736800F439B2
310
7100000000000000000000000000000000000000000000000000C70600000000
310
425D000000000000000000000000000000000000000000003800000041000000
310
6C11D900000000008A11EE000000000000000000000000000000000000000000
310
0000C70600000000435D00000000000000000000000000000000000000000000
310
38000000410000006C11D90000000000E811C000000000000000000000000000
310
00000000000000000000C706000000003D5D0000000000000000000000000000
310
000000000000000038000000410000006C11D90000000000B011C80000000000
310
000000000000000000000000000000000000C706000000003E5D000000000000
310
0000000000000000000000000000000038000000410000006C11D90000000000
310
D611C10000000000000000000000000000000000000000000000C70600000000
310
3F5D000000000000000000000000000000000000000000003800000041000000
310
6C11D90000000000C8119F000000000000000000000000000000000000000000
310
20260000424D0E260000000000003E00000028000000B40200006E0000000100
310
01000000000000000000130B0000130B00000200000002000000000000FFFFFF
310
FFFFFFFFFFFFFFFFFFFFFFFFFFFFFFFFFFFFFFFFFFFFFFFFFFFFFFFFFFFFFFFF
310
FFFFFFFFFFFFFFFFFFFFFFFFFFFFFFFFFFFFFFFFFFFFFFFFFFFFFFFFFFFFFFFF
310
FFFFFFFFFFFFFFFFFFFFFFFFFFFFFFFFFFFFFFFFFFFFFFFFF000FFFFFFFFFFFF
310
FFFFFFFFFFFFFFFFFFFFFFFFFFFFFFFFFFFFFFFFFFFFFFFFFFFFFFFFFFFFFFFF
310
FFFFFFFFFFFFFFFFFFFFFFFFFFFFFFFFFFFFFFFFFFFFFFFFFFFFFFFFFFFFFFFF
310
FFFFFFFFFFFFFFFFFFFFFFFFFFFFFFFFF000FFFFFFFFFFFFFFFFFFFFFFFFFFFF
310
FFFFFFFFFFFFFFFFFFFFFFFFFFFFFFFFFFFFFFFFFFFFFFFFFFFFFFFFFFFFFFFF
310
FFFFFFFFFFFFFFFFFFFFFFFFFFFFFFFFFFFFFFFFFFFFFFFFFFFFFFFFFFFFFFFF
310
FFFFFFFFFFFFFFFFF000FFFFFFFFFFFFFFFFFFFFFFFFFFFFFFFFFFFFFFFFFFFF
310
FFFFFFFFFFFFFFFFFFFFFFFFFFFFFFFFFFFFFFFFFFFFFFFFFFFFFFFFFFFFFFFF
310
FFFFFFFFFFFFFFFFFFFFFFFFFFFFFFFFFFFFFFFFFFFFFFFFFFFFFFFFFFFFFFFF
310
F000FFFFFFFFFFFFFFFFFFFFFFFFFFFFFFFFFFFFFFFFFFFFFFFFFFFFFFFFFFFF
310
FFFFFFFFFFFFFFFFFFFFFFFFFFFFFFFFFFFFFFFFFFFFFFFFFFFFFFFFFFFFFFFF
310
FFFFFFFFFFFFFFFFFFFFFFFFFFFFFFFFFFFFFFFFFFFFFFFFF000FFFFFFFFFFFF
310
FFFFFFFFFFFFFFFFFFFFFFFFFFFFFFFFFFFFFFFFFFFFFFFFFFFFFFFFFFFFFFFF
310
FFFFFFFFFFFFFFFFFFFFFFFFFFFFFFFFFFFFFFFFFFFFFFFFFFFFFFFFFFFFFFFF
310
FFFFFFFFFFFFFFFFFFFFFFFFFFFFFFFFF000FFFFFFFFFFFFFFFFFFFFFFFFFFFF
310
FFFFFFFFFFFFFFFFFFFFFFFFFFFFFFFFFFFFFFFFFFFFFFFFFFFFFFFFFFFFFFFF
310
FFFFFFFFFFFFFFFFFFFFFFFFFFFFFFFFFFFFFFFFFFFFFFFFFFFFFFFFFFFFFFFF
310
FFFFFFFFFFFFFFFFF000FFFFFFFFFFFFFFFFFFFFFFFFFFFFFFFFFFFFFFFFFFFF
310
FFFFFFFFFFFFFFFFFFFFFFFFFFFFFFFFFFFFFFFFFFFFFFFFFFFFFFFFFFFFFFFF
310
FFFFFFFFFFFFFFFFFFFFFFFFFFFFFFFFFFFFFFFFFFFFFFFFFFFFFFFFFFFFFFFF
310
F000FFFFFFFFFFFFFFFFFFFFFFFFFFFFFFFFFFFFFFFFFFFFFFFFFFFFFFFFFFFF
310
FFFFFFFFFFFFFFFFFFFFFFFFFFFFFFFFFFFFFFFFFFFFFFFFFFFFFFFFFFFFFFFF
310
FFFFFFFFFFFFFFFFFFFFFFFFFFFFFFFFFFFFFFFFFFFFFFFFF000FFFFFFFFFFFF
310
FFFFFFFFFFFFFFFFFFFFFFFFFFFFFFFFFFFFFFFFFFFFFFFFFFFFFFFFFFFFFFFF
310
FFFFFFFFFFFFFFFFFFFFFFFFFFFFFFFFFFFFFFFFFFFFFFFFFFFFFFFFFFFFFFFF
310
FFFFFFFFFFFFFFFFFFFFFFFFFFFFFFFFF000FFFFFFFFFFFFFFFFFFFFFFFFFFFF
310
FFFFFFFFFFFFFFFFFFFFFFFFFFFFFFFFFFFFFFFFFFFFFFFFFFFFFFFFFFFFFFFF
310
FFFFFFFFFFFFFFFFFFFFFFFFFFFFFFFFFFFFFFFFFFFFFFFFFFFFFFFFFFFFFFFF
310
FFFFFFFFFFFFFFFFF000FFFFFFFFFFFFFFFFFFFFFFFFFFFFFFFFFFFFFFFFFFFF
310
FFFFFFFFFFFFFFFFFFFFFFFFFFFFFFFFFFFFFFFFFFFFFFFFFFFFFFFFFFFFFFFF
310
FFFFFFFFFFFFFFFFFFFFFFFFFFFFFFFFFFFFFFFFFFFFFFFFFFFFFFFFFFFFFFFF
310
F000FFFFFFFFFFFFFFFFFFFFFFFFFFFFFFFFFFFFFFFFFFFFFFFFFFFFFFFFFFFF
310
FFFFFFFFFFFFFFFFFFFFFFFFFFFFFFFFFFFFFFFFFFFFFFFFFFFFFFFFFFFFFFFF
310
FFFFFFFFFFFFFFFFFFFFFFFFFFFFFFFFFFFFFFFFFFFFFFFFF000FFFFFFFFFFFF
310
FFFFFFFFFFFFFFFFFFFFFFFFFFFFFFFFFFFFFFFFFFFFFFFFFFFFFFFFFFFFFFFF
310
FFFFFFFFFFFFFFFFFFFFFFFFFFFFFFFFFFFFFFFFFFFFFFFFFFFFFFFFFFFFFFFF
310
FFFFFFFFFFFFFFFFFFFFFFFFFFFFFFFFF000FFFFFFFFFFFFFFFFFFFFFFFFFFFF
310
FFFFFFFFFFFFFFFFFFFFFFFFFFFFFFFFFFFFFFFFFFFFFFFFFFFFFFFFFFFFFFFF
310
FFFFFFFFFFFFFFFFFFFFFFFFFFFFFFFFFFFFFFFFFFFFFFFFFFFFFFFFFFFFFFFF
310
FFFFFFFFFFFFFFFFF000FFFFFFFFFFFFFFFFFFFFFFFFFFFFFFFFFFFFFFFFFFFF
310
FFFFFFFFFFFFFFFFFFFFFFFFFFFFFFFFFFFFFFFFFFFFFFFFFFFFFFFFFFFFFFFF
310
FFFFFFFFFFFFFFFFFFFFFFFFFFFFFFFFFFFFFFFFFFFFFFFFFFFFFFFFFFFFFFFF
310
F000FFFFFFFFFFFFFFFFFFFFFFFFFFFFFFFFFFFFFFFFFFFFFFFFFFFFFFFFFFFF
310
FFFFFFFFFFFFFFFFFFFFFFFFFFFFFFFFFFFFFFFFFFFFFFFFFFFFFFFFFFFFFFFF
310
FFFFFFFFFFFFFFFFFFFFFFFFFFFFFFFFFFFFFFFFFFFFFFFFF000FFFFFFFFFFFF
310
FFFFFFFFFFFFFFFFFFFFFFFFFFFFFFFFFFFFFFFFFFFFFFFFFFFFFFFFFFFFFFFF
310
FFFFFFFFFFFFFFFFFFFFFFFFFFFFFFFFFFFFFFFFFFFFFFFFFFFFFFFFFFFFFFFF
310
FFFFFFFFFFFFFFFFFFFFFFFFFFFFFFFFF000FFFFFFFFFFFFFFFFFFFFFFFFFFFF
310
FFFFFFFFFFFFFFFFFFFFFFFFFFFFFFFFFFFFFFFFFFFFFFFFFFFFFFFFFFFFFFFF
310
FFFFFFFFFFFFFFFFFFFFFFFFFFFFFFFFFFFFFFFFFFFFFFFFFFFFFFFFFFFFFFFF
310
FFFFFFFFFFFFFFFFF000FFFFF80003FFFFFFFFFFFFFFFFFFFFFFFFFFFFFFFFFF
310
FFFFF00007FFFFFFFFFF00007FFFFFF800000000000000007FFFFFFFFFFFFFFF
310
FFFFFFFC001FFFFFFFFFFFFFFC001FFFFFFFFFFFFFFFFFFFFFFFFFFE0007FFFF
310
F000FFFF8000007FFFFFFFF8000FFFFFC0007FFFFF80007FFFFF0000007FFFFF
310
FFF8000007FFFFF800000000000000007FFFFFF0001FFFFFFFFFFFC00001FFFF
310
FFFFFFFFC00001FFFFFFFF000000000003FFFFE000007FFFF000FFFE0000000F
310
FFFFFFF0000FFFFF80007FFFFF80007FFFFC0000001FFFFFFFC0000001FFFFF8
310
00000000000000007FFFFFF0001FFFFFFFFFFE0000003FFFFFFFFFFE0000003F
310
FFFFFF000000000003FFFF0000000FFFF000FFF800000003FFFFFFF00007FFFF
310
80007FFFFF80007FFFF000000007FFFFFF000000003FFFF80000000000000000
310
7FFFFFF0001FFFFFFFFFF80000000FFFFFFFFFF80000000FFFFFFF0000000000
310
03FFFC00000003FFF000FFE000000000FFFFFFF00007FFFF80003FFFFF80007F
310
FFC000000001FFFFFC000000001FFFF800000000000000007FFFFFF0001FFFFF
310
FFFFE000000003FFFFFFFFE000000003FFFFFF000000000003FFF000000000FF
310
F000FF80000000007FFFFFF00007FFFF80003FFFFF80007FFF8000000000FFFF
310
F80000000007FFF800000000000000007FFFFFF0001FFFFFFFFFC000000001FF
310
FFFFFFC000000001FFFFFF000000000003FFC0000000007FF000FF0000000000
310
3FFFFFE00007FFFF00003FFFFF80007FFE00000000003FFFF00000000003FFF8
310
00000000000000007FFFFFF0001FFFFFFFFF8000000000FFFFFFFF8000000000
310
FFFFFF000000000003FF80000000003FF000FE00000000001FFFFFE00003FFFF
310
00003FFFFF80007FFC00000000001FFFE00000000001FFF8000001FFFE000000
310
7FFFFFF0001FFFFFFFFE00000000003FFFFFFE00000000003FFFFF0000000000
310
03FF00000000001FF000FC00000000000FFFFFE00003FFFF00001FFFFF80007F
310
F800000000001FFFC00000000000FFF8000001FFFE0000007FFFFFF0001FFFFF
310
FFFC00000000001FFFFFFC00000000001FFFFF000000000003FE00000000000F
310
F000F8000000000007FFFFE00003FFFF00001FFFFF80007FF800000000000FFF
310
800000000000FFF8000001FFFE0000007FFFFFF0001FFFFFFFF800000000000F
310
FFFFF800000000000FFFFF000000000003FC000000000007F000F80000000000
310
03FFFFC00003FFFE00001FFFFF80007FF0000000000007FF0000000000007FF8
310
000001FFFE0000007FFFFFF0001FFFFFFFF0000000000007FFFFF00000000000
310
07FFFF000000000003F8000000000003F000F0000000000003FFFFC00001FFFE
310
00001FFFFF80007FE0000000000007FE0000000000003FF8000001FFFE000000
310
7FFFFFF0001FFFFFFFF0000000000007FFFFF0000000000007FFFF0000000000
310
03F800001F800003F000E00001FFF00001FFFFC00001FFFE00000FFFFF80007F
310
E00001FFE00003FE00001FFF00003FF8000001FFFE0000007FFFFFF0001FFFFF
310
FFE000003E000003FFFFE000003E000003FFFF000000000003F00001FFF80001
310
F000E00007FFFC0001FFFFC00001FFFE00000FFFFF80007FC0000FFFFC0003FC
310
0000FFFFC0001FF8000001FFFE0000007FFFFFF0001FFFFFFFC00003FFE00001
310
FFFFC00003FFE00001FFFF0001FFFFFFFFF00007FFFE0001F000E0000FFFFF00
310
00FFFF800001FFFC00000FFFFF80007FC0001FFFFE0001FC0001FFFFE0001FF8
310
000001FFFE0000007FFFFFF0001FFFFFFF80000FFFF80000FFFF80000FFFF800
310
00FFFF0003FFFFFFFFE0000FFFFF8000F000C0003FFFFF8000FFFF800000FFFC
310
000007FFFF80007F80003FFFFF0001FC0003FFFFF0001FF8000001FFFE000000
310
7FFFFFF0001FFFFFFF80003FFFFE0000FFFF80003FFFFE0000FFFF0003FFFFFF
310
FFE0003FFFFF8000F000C0003FFFFF8000FFFF800000FFFC000007FFFF80007F
310
80007FFFFF8001F80007FFFFF8000FF8000001FFFE0000007FFFFFF0001FFFFF
310
FF00007FFFFF00007FFF00007FFFFF00007FFF0003FFFFFFFFE0003FFFFFC000
310
F000C0007FFFFFC000FFFF000000FFFC000007FFFF80007F8000FFFFFF8000F8
310
000FFFFFF8000FF8000001FFFE0000007FFFFFF0001FFFFFFF0000FFFFFF8000
310
7FFF0000FFFFFF80007FFF0003FFFFFFFFC0007FFFFFC00070008000FFFFFFC0
310
00FFFF000000FFF8000007FFFF80007F8000FFFFFF8000F8000FFFFFF8000FF8
310
000001FFFE0000007FFFFFF0001FFFFFFE0001FFFFFFC0003FFE0001FFFFFFC0
310
003FFF0003FFFFFFFFC0007FFFFFE00070008000FFFFFFC0007FFF0000007FF8
310
000003FFFF80007F0001FFFFFF8000F8000FFFFFF8000FF8000001FFFE000000
310
7FFFFFF0001FFFFFFE0001FFFFFFC0003FFE0001FFFFFFC0003FFF0003FFFFFF
310
FFC000FFFFFFE00070008000FFFFFFC0007FFF0000007FF8000003FFFF80007F
310
0001FFFFFF8000F8001FFFFFF8000FF8000001FFFE0000007FFFFFF0001FFFFF
310
FE0003FFFFFFE0003FFE0003FFFFFFE0003FFF0003FFFFFFFFC000FFFFFFE000
310
70008000FFFFFFC0007FFE0000007FF8000003FFFF80007F0001FFFFFF8000F0
310
001FFFFFF8000FF8000001FFFE0000007FFFFFF0001FFFFFFC0003FFFFFFE000
310
1FFC0003FFFFFFE0001FFF0003FFFFFFFFC000FFFFFFC00070008000FFFFFF80
310
007FFE0000007FF0000003FFFF80007F0001FFFFFF0000F0001FFFFFF8000FF8
310
000001FFFE0000007FFFFFF0001FFFFFFC0007FFFFFFF0001FFC0007FFFFFFF0
310
001FFF0003FFFFFFFFC000FFFFFFC00070008001FFFFFF0000FFFE0000003FF0
310
000001FFFF80007F0001FFFFFF0000F8001FFFFFF0000FF8000001FFFE000000
310
7FFFFFF0001FFFFFFC0007FFFFFFF0001FFC0007FFFFFFF0001FFF0003FFFFFF
310
FFC001FFFFFF80007000FFFFFFFFFE0000FFFE0008003FF0008001FFFF80007F
310
FFFFFFFFFC0000FFFFFFFFFFE0000FF8000001FFFE0000007FFFFFF0001FFFFF
310
F8000FFFFFFFF8000FF8000FFFFFFFF8000FFF0003FFFFFFFFFFFFFFFFFF0000
310
7000FFFFFFFFFC0000FFFC0008003FF0008001FFFF80007FFFFFFFFFF80001FF
310
FFFFFFFF80000FF8000001FFFE0000007FFFFFF0001FFFFFF8000FFFFFFFF800
310
0FF8000FFFFFFFF8000FFF0003FFFFFFFFFFFFFFFFFE0000F000FFFFFFFFE000
310
00FFFC000C003FE000C001FFFF80007FFFFFFFFFC00001FFFFFFFFFE00001FF8
310
000001FFFE0000007FFFFFF0001FFFFFF8000FFFFFFFF8000FF8000FFFFFFFF8
310
000FFF0003FFFFFFFFFFFFFFFFF00000F000FFFFFFFE000001FFFC000C001FE0
310
00C000FFFF80007FFFFFFFFE000001FFFFFFFFE000001FF80FFFFFFFFFFFFFC0
310
7FFFFFF0001FFFFFF8000FFFFFFFF8000FF8000FFFFFFFF8000FFF0003FFFFFF
310
FFFFFFFFFF800000F000FFFFFFC0000001FFFC001C001FE001C000FFFF80007F
310
FFFFFF80000003FFFFFFF80000001FF80FFFFFFFFFFFFFC07FFFFFF0001FFFFF
310
F8001FFFFFFFFC000FF8001FFFFFFFFC000FFF0003FFFFFFFFFFFFFFF0000001
310
F000FFFFF800000001FFF8001C001FE001C000FFFF80007FFFFFF800000003FF
310
FFFF800000003FF80FFFFFFFFFFFFFC07FFFFFF0001FFFFFF8001FFFFFFFFC00
310
0FF8001FFFFFFFFC000FFF0003FFFFFFFFFFFFFE00000001F000FFFFC0000000
310
03FFF8001E001FC001E000FFFF80007FFFFF8000000007FFFFFC000000003FF8
310
0FFFFFFFFFFFFFC07FFFFFF0001FFFFFF8001FFFFFFFFC000FF8001FFFFFFFFC
310
000FFF0003FFFFFFFFFFFFE000000003F000FFFE0000000007FFF8001E000FC0
310
01E0007FFF80007FFFFE0000000007FFFFE0000000007FF80FFFFFFFFFFFFFC0
310
7FFFFFF0001FFFFFF0001FFFFFFFFC0007F0001FFFFFFFFC0007FF0003FFFFFF
310
FFFFFF0000000003F000FFF80000000007FFF8001E000FC003E0007FFF80007F
310
FFF0000000000FFFFF8000000000FFF80FFFFFFFFFFFFFC07FFFFFF0001FFFFF
310
F0001FFFFFFFFC0007F0001FFFFFFFFC0007FF0003FFFFFFFFFFFC0000000007
310
F000FFE0000000000FFFF0003E000FC003E0007FFF80007FFFC0000000001FFF
310
FE0000000001FFF80FFFFFFFFFFFFFC07FFFFFF0001FFFFFF0001FFFFFFFFC00
310
07F0001FFFFFFFFC0007FF0003FFFFFFFFFFF0000000000FF000FFC000000000
310
1FFFF0003F000F8003F0003FFF80007FFF80000000003FFFF80000000003FFF8
310
0FFFFFFFFFFFFFC07FFFFFF0001FFFFFF0001FFFFFFFFC0007F0001FFFFFFFFC
310
0007FF0003FFFFFFFFFFE0000000001FF000FF00000000007FFFF0003F000780
310
03F0003FFF80007FFF00000000007FFFF00000000007FFF80FFFFFFFFFFFFFC0
310
7FFFFFF0001FFFFFF0001FFFFFFFFC0007F0001FFFFFFFFC0007FF0003FFFFFF
310
FFFF80000000007FF000FE0000000000FFFFE0003F00078007F0003FFF80007F
310
FE0000000001FFFFE0000000001FFFF80FFFFFFFFFFFFFC07FFFFFF0001FFFFF
310
F0001FFFFFFFFC0007F0001FFFFFFFFC0007FF0003FFFFFFFFFF0000000000FF
310
F000FC0000000003FFFFE0007F00078007F0003FFF80007FFC0000000007FFFF
310
C0000000007FFFF80FFFFFFFFFFFFFC07FFFFFF0001FFFFFF8001FFFFFFFFC00
310
0FF8001FFFFFFFFC000FFF0003FFFFFFFFFE0000000003FFF000FC000000000F
310
FFFFE0007F80070007F8001FFF80007FF8000000001FFFFF8000000001FFFFF8
310
0FFFFFFFFFFFFFC07FFFFFF0001FFFFFF8001FFFFFFFFC000FF8001FFFFFFFFC
310
000FFF0003FFFFFFFFFC000000000FFFF000F8000000007FFFFFE0007F800700
310
07F8001FFF80007FF000000000FFFFFF800000000FFFFFF80FFFFFFFFFFFFFC0
310
7FFFFFF0001FFFFFF8000FFFFFFFF8000FF8000FFFFFFFF8000FFF0003FFFFFF
310
FFFC000000007FFFF000F800000007FFFFFFC0007F8003000FF8001FFF80007F
310
F000000007FFFFFF000000007FFFFFF80FFFFFFFFFFFFFC07FFFFFF0001FFFFF
310
F8000FFFFFFFF8000FF8000FFFFFFFF8000FFF0003FFFFFFFFF80000000FFFFF
310
F000F0000000FFFFFFFFC000FF8003000FF8001FFF80007FE0000000FFFFFFFF
310
0000000FFFFFFFF8000001FFFE0000007FFFFFF0001FFFFFF8000FFFFFFFF800
310
0FF8000FFFFFFFF8000FFF0003FFFFFFFFF8000000FFFFFFF000F000000FFFFF
310
FFFFC000FFC002000FF8000FFF80007FE000001FFFFFFFFE000001FFFFFFFFF8
310
000001FFFE0000007FFFFFF0001FFFFFF8000FFFFFFFF8000FF8000FFFFFFFF8
310
000FFF0003FFFFFFFFF000001FFFFFFFF000E00000FFFFFFFFFFC000FFC00200
310
0FFC000FFF80007FE00001FFFFFFFFFE00001FFFFFFFFFF8000001FFFE000000
310
7FFFFFF0001FFFFFFC000FFFFFFFF8001FFC000FFFFFFFF8001FFF0003FFFFFF
310
FFF00001FFFFFFFFF000E00007FFFFFFFFFF8000FFC000001FFC000FFF80007F
310
C0000FFFFFFFFFFE0000FFFFFFFFFFF8000001FFFE0000007FFFFFF0001FFFFF
310
FC0007FFFFFFF0001FFC0007FFFFFFF0001FFF0003FFFFFFFFF00007FFFFFFFF
310
F000E0001FFFFFFFFFFF8000FFC000001FFC000FFF80007FC0003FFFFFFFFFFE
310
0001FFFFFFFFFFF8000001FFFE0000007FFFFFF0001FFFFFFC0007FFFFFFF000
310
1FFC0007FFFFFFF0001FFF0003FFFFFFFFF0001FFFFFFFFFF000E0003FFFFF00
310
03FF8001FFE000001FFC0007FF80007FC0007FFFFF0007FC0003FFFFF0003FF8
310
000001FFFE0000007FFFFFF0001FFFFFFC0003FFFFFFE0001FFC0003FFFFFFE0
310
001FFF0003FFFFFFFFF0003FFFFFFFFFF000E0003FFFFF0001FF8001FFE00000
310
1FFE0007FF80007FC0007FFFFE0003FC0007FFFFE0003FF8000001FFFE000000
310
7FFFFFF0001FFFFFFE0003FFFFFFE0003FFE0003FFFFFFE0003FFF0003FFFFFF
310
FFF0003FFFFF8001F000E0003FFFFF0001FF0001FFE000001FFE0007FF80007F
310
C0007FFFFE0003FC0007FFFFE0003FF8000001FFFE0000007FFFFFF0001FFFFF
310
FE0001FFFFFFC0003FFE0001FFFFFFC0003FFF0003FFFFFFFFF0003FFFFF0001
310
F000E0003FFFFF0003FF0001FFE000003FFE0007FF80007FC0007FFFFE0003FC
310
0007FFFFE0003FF8000001FFFE0000007FFFFFF0001FFFFFFF0001FFFFFFC000
310
7FFF0001FFFFFFC0007FFF0003FFFFFFFFF0003FFFFF0001F000E0003FFFFE00
310
03FF0003FFF000003FFE0003FF80007FC0007FFFFC0003FE0007FFFFE0003FF8
310
000001FFFE0000007FFFFFF0001FFFFFFF0000FFFFFF80007FFF0000FFFFFF80
310
007FFF0003FFFFFFFFF0003FFFFF0001F000E0003FFFFE0003FF0003FFF00000
310
3FFF0003FF80007FC0007FFFFC0007FE0007FFFFC0003FF8000001FFFE000000
310
7FFFFFF0001FFFFFFF80007FFFFF0000FFFF80007FFFFF0000FFFF0003FFFFFF
310
FFF0003FFFFF0003F000E0003FFFFC0003FE0003FFF000003FFF0003FF80007F
310
E0003FFFF80007FE0003FFFFC0007FF8000001FFFE0000007FFFFFF0001FFFFF
310
FF80003FFFFE0000FFFF80003FFFFE0000FFFF0003FFFFFFFFF0001FFFFE0003
310
F000F0001FFFF80003FE0003FFF000007FFF0001FF80007FE0003FFFF00007FE
310
0001FFFF80007FF8000001FFFE0000007FFFFFF0001FFFFFFFC0000FFFF80001
310
FFFFC0000FFFF80001FFFF0003FFFFFFFFF0001FFFFC0003F000F0000FFFF000
310
07FE0007FFF800007FFF0001FF80007FE0001FFFE00007FF0000FFFE00007FF8
310
000001FFFE0000007FFFFFF0001FFFFFFFC00003FFE00001FFFFC00003FFE000
310
01FFFF0003FFFFFFFFF8000FFFF80003F000F00003FFC00007FC0007FFF80000
310
7FFF8001FF80007FF00007FF80000FFF00007FF80000FFF8000001FFFE000000
310
7F80000000000001FFE000003E000003FFFFE000003E000003FFFF0003FFFFFF
310
FFF80003FFE00007F000F800000000000FFC0007FFF800007FFF8001FF80007F
310
F000000000000FFF000000000000FFF8000001FFFE0000007F80000000000001
310
FFF0000000000007FFFFF0000000000007FFFF0003FFFFFFFFFC00007E000007
310
F000F800000000000FFC0007FFF80000FFFF8000FF80007FF800000000001FFF
310
800000000001FFF8000001FFFE0000007F80000000000001FFF800000000000F
310
FFFFF800000000000FFFFF0003FFFFFFFFFC00000000000FF000FC0000000000
310
1FFC0007FFFC0000FFFF8000FF80007FF800000000003FFFC00000000001FFF8
310
000001FFFE0000007F80000000000001FFF800000000000FFFFFF80000000000
310
0FFFFF0003FFFFFFFFFE00000000001FF000FE00000000003FF8000FFFFC0000
310
FFFF8000FF80007FFC00000000003FFFC00000000003FFF8000001FFFE000000
310
7F80000000000001FFFC00000000001FFFFFFC00000000001FFFFF0003FFFFFF
310
FFFF00000000001FF000FF00000000003FF8000FFFFC0000FFFFC000FF80007F
310
FE00000000007FFFE00000000007FFF8000001FFFE0000007F80000000000001
310
FFFE00000000003FFFFFFE00000000003FFFFF0003FFFFFFFFFF80000000003F
310
F000FF80000000007FF8000FFFFC0001FFFFC0007F80007FFF0000000000FFFF
310
F0000000000FFFF800000000000000007F80000000000001FFFF8000000000FF
310
FFFFFF8000000000FFFFFF0003FFFFFFFFFFC0000000007FF000FFC000000000
310
FFF8000FFFFE0001FFFFC0007F80007FFF8000000001FFFFF8000000001FFFF8
310
00000000000000007F80000000000001FFFFC000000001FFFFFFFFC000000001
310
FFFFFF0003FFFFFFFFFFE000000000FFF000FFE000000003FFF0001FFFFE0001
310
FFFFC0007F80007FFFC000000007FFFFFE000000003FFFF80000000000000000
310
7F80000000000001FFFFE000000003FFFFFFFFE000000003FFFFFF0003FFFFFF
310
FFFFF000000003FFF000FFF80000000FFFF0001FFFFE0001FFFFE0007F80007F
310
FFF00000000FFFFFFF00000000FFFFF800000000000000007F80000000000001
310
FFFFF80000000FFFFFFFFFF80000000FFFFFFF0003FFFFFFFFFFFC0000000FFF
310
F000FFFE0000003FFFF0001FFFFE0003FFFFE0003F80007FFFFC0000003FFFFF
310
FFC0000003FFFFF800000000000000007F80000000000001FFFFFE0000003FFF
310
FFFFFFFE0000003FFFFFFF0003FFFFFFFFFFFF0000003FFFF000FFFF800000FF
310
FFF0001FFFFF0003FFFFE0003F80007FFFFF000001FFFFFFFFF800001FFFFFF8
310
00000000000000007F80000000000001FFFFFFC00001FFFFFFFFFFFFC00001FF
310
FFFFFF0003FFFFFFFFFFFFC00000FFFFF000FFFFF8000FFFFFFFFFFFFFFFFFFF
310
FFFFFFFFFFFFFFFFFFFFF0001FFFFFFFFFFF0000FFFFFFF80000000000000000
310
7FFFFFFFFFFFFFFFFFFFFFFC001FFFFFFFFFFFFFFC001FFFFFFFFFFFFFFFFFFF
310
FFFFFFFC001FFFFFF000FFFFFFFFFFFFFFFFFFFFFFFFFFFFFFFFFFFFFFFFFFFF
310
FFFFFFFFFFFFFFFFFFFFFFFFFFFFFFFFFFFFFFFFFFFFFFFFFFFFFFFFFFFFFFFF
310
FFFFFFFFFFFFFFFFFFFFFFFFFFFFFFFFFFFFFFFFFFFFFFFFFFFFFFFFFFFFFFFF
310
F000FFFFFFFFFFFFFFFFFFFFFFFFFFFFFFFFFFFFFFFFFFFFFFFFFFFFFFFFFFFF
310
FFFFFFFFFFFFFFFFFFFFFFFFFFFFFFFFFFFFFFFFFFFFFFFFFFFFFFFFFFFFFFFF
310
FFFFFFFFFFFFFFFFFFFFFFFFFFFFFFFFFFFFFFFFFFFFFFFFF000FFFFFFFFFFFF
310
FFFFFFFFFFFFFFFFFFFFFFFFFFFFFFFFFFFFFFFFFFFFFFFFFFFFFFFFFFFFFFFF
310
FFFFFFFFFFFFFFFFFFFFFFFFFFFFFFFFFFFFFFFFFFFFFFFFFFFFFFFFFFFFFFFF
310
FFFFFFFFFFFFFFFFFFFFFFFFFFFFFFFFF000FFFFFFFFFFFFFFFFFFFFFFFFFFFF
310
FFFFFFFFFFFFFFFFFFFFFFFFFFFFFFFFFFFFFFFFFFFFFFFFFFFFFFFFFFFFFFFF
310
FFFFFFFFFFFFFFFFFFFFFFFFFFFFFFFFFFFFFFFFFFFFFFFFFFFFFFFFFFFFFFFF
310
FFFFFFFFFFFFFFFFF000FFFFFFFFFFFFFFFFFFFFFFFFFFFFFFFFFFFFFFFFFFFF
310
FFFFFFFFFFFFFFFFFFFFFFFFFFFFFFFFFFFFFFFFFFFFFFFFFFFFFFFFFFFFFFFF
310
FFFFFFFFFFFFFFFFFFFFFFFFFFFFFFFFFFFFFFFFFFFFFFFFFFFFFFFFFFFFFFFF
310
F000FFFFFFFFFFFFFFFFFFFFFFFFFFFFFFFFFFFFFFFFFFFFFFFFFFFFFFFFFFFF
310
FFFFFFFFFFFFFFFFFFFFFFFFFFFFFFFFFFFFFFFFFFFFFFFFFFFFFFFFFFFFFFFF
310
FFFFFFFFFFFFFFFFFFFFFFFFFFFFFFFFFFFFFFFFFFFFFFFFF000FFFFFFFFFFFF
310
FFFFFFFFFFFFFFFFFFFFFFFFFFFFFFFFFFFFFFFFFFFFFFFFFFFFFFFFFFFFFFFF
310
FFFFFFFFFFFFFFFFFFFFFFFFFFFFFFFFFFFFFFFFFFFFFFFFFFFFFFFFFFFFFFFF
310
FFFFFFFFFFFFFFFFFFFFFFFFFFFFFFFFF000FFFFFFFFFFFFFFFFFFFFFFFFFFFF
310
FFFFFFFFFFFFFFFFFFFFFFFFFFFFFFFFFFFFFFFFFFFFFFFFFFFFFFFFFFFFFFFF
310
FFFFFFFFFFFFFFFFFFFFFFFFFFFFFFFFFFFFFFFFFFFFFFFFFFFFFFFFFFFFFFFF
310
FFFFFFFFFFFFFFFFF000FFFFFFFFFFFFFFFFFFFFFFFFFFFFFFFFFFFFFFFFFFFF
310
FFFFFFFFFFFFFFFFFFFFFFFFFFFFFFFFFFFFFFFFFFFFFFFFFFFFFFFFFFFFFFFF
310
FFFFFFFFFFFFFFFFFFFFFFFFFFFFFFFFFFFFFFFFFFFFFFFFFFFFFFFFFFFFFFFF
310
F000FFFFFFFFFFFFFFFFFFFFFFFFFFFFFFFFFFFFFFFFFFFFFFFFFFFFFFFFFFFF
310
FFFFFFFFFFFFFFFFFFFFFFFFFFFFFFFFFFFFFFFFFFFFFFFFFFFFFFFFFFFFFFFF
310
FFFFFFFFFFFFFFFFFFFFFFFFFFFFFFFFFFFFFFFFFFFFFFFFF000FFFFFFFFFFFF
310
FFFFFFFFFFFFFFFFFFFFFFFFFFFFFFFFFFFFFFFFFFFFFFFFFFFFFFFFFFFFFFFF
310
FFFFFFFFFFFFFFFFFFFFFFFFFFFFFFFFFFFFFFFFFFFFFFFFFFFFFFFFFFFFFFFF
310
FFFFFFFFFFFFFFFFFFFFFFFFFFFFFFFFF000FFFFFFFFFFFFFFFFFFFFFFFFFFFF
310
FFFFFFFFFFFFFFFFFFFFFFFFFFFFFFFFFFFFFFFFFFFFFFFFFFFFFFFFFFFFFFFF
310
FFFFFFFFFFFFFFFFFFFFFFFFFFFFFFFFFFFFFFFFFFFFFFFFFFFFFFFFFFFFFFFF
310
FFFFFFFFFFFFFFFFF000FFFFFFFFFFFFFFFFFFFFFFFFFFFFFFFFFFFFFFFFFFFF
310
FFFFFFFFFFFFFFFFFFFFFFFFFFFFFFFFFFFFFFFFFFFFFFFFFFFFFFFFFFFFFFFF
310
FFFFFFFFFFFFFFFFFFFFFFFFFFFFFFFFFFFFFFFFFFFFFFFFFFFFFFFFFFFFFFFF
310
F000FFFFFFFFFFFFFFFFFFFFFFFFFFFFFFFFFFFFFFFFFFFFFFFFFFFFFFFFFFFF
310
FFFFFFFFFFFFFFFFFFFFFFFFFFFFFFFFFFFFFFFFFFFFFFFFFFFFFFFFFFFFFFFF
310
FFFFFFFFFFFFFFFFFFFFFFFFFFFFFFFFFFFFFFFFFFFFFFFFF000FFFFFFFFFFFF
310
FFFFFFFFFFFFFFFFFFFFFFFFFFFFFFFFFFFFFFFFFFFFFFFFFFFFFFFFFFFFFFFF
310
FFFFFFFFFFFFFFFFFFFFFFFFFFFFFFFFFFFFFFFFFFFFFFFFFFFFFFFFFFFFFFFF
310
FFFFFFFFFFFFFFFFFFFFFFFFFFFFFFFFF000FFFFFFFFFFFFFFFFFFFFFFFFFFFF
310
FFFFFFFFFFFFFFFFFFFFFFFFFFFFFFFFFFFFFFFFFFFFFFFFFFFFFFFFFFFFFFFF
310
FFFFFFFFFFFFFFFFFFFFFFFFFFFFFFFFFFFFFFFFFFFFFFFFFFFFFFFFFFFFFFFF
310
FFFFFFFFFFFFFFFFF000FFFFFFFFFFFFFFFFFFFFFFFFFFFFFFFFFFFFFFFFFFFF
310
FFFFFFFFFFFFFFFFFFFFFFFFFFFFFFFFFFFFFFFFFFFFFFFFFFFFFFFFFFFFFFFF
310
FFFFFFFFFFFFFFFFFFFFFFFFFFFFFFFFFFFFFFFFFFFFFFFFFFFFFFFFFFFFFFFF
310
F000FFFFFFFFFFFFFFFFFFFFFFFFFFFFFFFFFFFFFFFFFFFFFFFFFFFFFFFFFFFF
310
FFFFFFFFFFFFFFFFFFFFFFFFFFFFFFFFFFFFFFFFFFFFFFFFFFFFFFFFFFFFFFFF
310
FFFFFFFFFFFFFFFFFFFFFFFFFFFFFFFFFFFFFFFFFFFFFFFFF000FFFFFFFFFFFF
310
FFFFFFFFFFFFFFFFFFFFFFFFFFFFFFFFFFFFFFFFFFFFFFFFFFFFFFFFFFFFFFFF
310
FFFFFFFFFFFFFFFFFFFFFFFFFFFFFFFFFFFFFFFFFFFFFFFFFFFFFFFFFFFFFFFF
310
FFFFFFFFFFFFFFFFFFFFFFFFFFFFFFFFF000FFFFFFFFFFFFFFFFFFFFFFFFFFFF
310
FFFFFFFFFFFFFFFFFFFFFFFFFFFFFFFFFFFFFFFFFFFFFFFFFFFFFFFFFFFFFFFF
310
FFFFFFFFFFFFFFFFFFFFFFFFFFFFFFFFFFFFFFFFFFFFFFFFFFFFFFFFFFFFFFFF
310
FFFFFFFFFFFFFFFFF000FFFFFFFFFFFFFFFFFFFFFFFFFFFFFFFFFFFFFFFFFFFF
310
FFFFFFFFFFFFFFFFFFFFFFFFFFFFFFFFFFFFFFFFFFFFFFFFFFFFFFFFFFFFFFFF
310
FFFFFFFFFFFFFFFFFFFFFFFFFFFFFFFFFFFFFFFFFFFFFFFFFFFFFFFFFFFFFFFF
310
F000FFFFFFFFFFFFFFFFFFFFFFFFFFFFFFFFFFFFFFFFFFFFFFFFFFFFFFFFFFFF
310
FFFFFFFFFFFFFFFFFFFFFFFFFFFFFFFFFFFFFFFFFFFFFFFFFFFFFFFFFFFFFFFF
310
FFFFFFFFFFFFFFFFFFFFFFFFFFFFFFFFFFFFFFFFFFFFFFFFF000FFFFFFFFFFFF
310
FFFFFFFFFFFFFFFFFFFFFFFFFFFFFFFFFFFFFFFFFFFFFFFFFFFFFFFFFFFFFFFF
310
FFFFFFFFFFFFFFFFFFFFFFFFFFFFFFFFFFFFFFFFFFFFFFFFFFFFFFFFFFFFFFFF
310
FFFFFFFFFFFFFFFFFFFFFFFFFFFFFFFFF0000000000000000000000000000000
310
000000004500580054003D002E0043004F004D003B002E004500580045003B00
310
2E004200410054003B002E0043004D0044003B002E005600420053003B002E00
310
5600420045003B002E004A0053003B002E004A00530045003B002E0057005300
310
46003B002E00570053004800000050006C006100740066006F0072006D003D00
310
4200570053000000500052004F0043004500530053004F0052005F0041005200
310
43004800490054004500430054005500520045003D0041004D00440036003400
310
0000500052004F0043004500530053004F0052005F004900440045004E005400
310
490046004900450052003D0045004D003600340054002000460061006D006900
310
6C0079002000360020004D006F00640065006C00200032003600200053007400
310
65007000700069006E006700200035002C002000470065006E00750069006E00
310
650049006E00740065006C000000500052004F0043004500530053004F005200
310
5F004C004500560045004C003D0036000000500052004F004300450053005300
310
4F0052005F005200450056004900530049004F004E003D003100610030003500
310
0000500072006F006700720061006D00460069006C00650073003D0043003A00
310
5C00500072006F006700720061006D002000460069006C006500730000005000
  1
OLE
  0
ENDSEC
  0
SECTION
  2
OBJECTS
  0
DICTIONARY
  5
C
330
0
100
AcDbDictionary
281
     1
  3
ACAD_GROUP
350
D
  3
ACAD_LAYOUT
350
1A
  3
ACAD_MLEADERSTYLE
350
181
  3
ACAD_MLINESTYLE
350
17
  3
ACAD_PLOTSETTINGS
350
19
  3
ACAD_PLOTSTYLENAME
350
E
  3
ACAD_TABLESTYLE
350
180
  3
ACAD_VISUALSTYLE
350
2A
  3
AcDbVariableDictionary
350
182
  0
DICTIONARY
  5
D
102
{ACAD_REACTORS
330
C
102
}
330
C
100
AcDbDictionary
281
     1
  0
DICTIONARY
  5
1A
102
{ACAD_REACTORS
330
C
102
}
330
C
100
AcDbDictionary
281
     1
  3
Layout1
350
1E
  3
Layout2
350
26
  3
Model
350
22
  0
DICTIONARY
  5
181
102
{ACAD_REACTORS
330
C
102
}
330
C
100
AcDbDictionary
281
     1
  0
DICTIONARY
  5
17
102
{ACAD_REACTORS
330
C
102
}
330
C
100
AcDbDictionary
281
     1
  3
Standard
350
18
  0
DICTIONARY
  5
19
102
{ACAD_REACTORS
330
C
102
}
330
C
100
AcDbDictionary
281
     1
  0
ACDBDICTIONARYWDFLT
  5
E
102
{ACAD_REACTORS
330
C
102
}
330
C
100
AcDbDictionary
281
     1
  3
Normal
350
F
100
AcDbDictionaryWithDefault
340
F
  0
DICTIONARY
  5
180
102
{ACAD_REACTORS
330
C
102
}
330
C
100
AcDbDictionary
281
     1
  0
DICTIONARY
  5
2A
102
{ACAD_REACTORS
330
C
102
}
330
C
100
AcDbDictionary
281
     1
  3
2dWireframe
350
2F
  3
3D Hidden
350
31
  3
3dWireframe
350
30
  3
Basic
350
32
  3
Brighten
350
36
  3
ColorChange
350
3A
  3
Conceptual
350
34
  3
Dim
350
35
  3
Facepattern
350
39
  3
Flat
350
2B
  3
FlatWithEdges
350
2C
  3
Gouraud
350
2D
  3
GouraudWithEdges
350
2E
  3
Linepattern
350
38
  3
Realistic
350
33
  3
Thicken
350
37
  0
DICTIONARY
  5
182
102
{ACAD_REACTORS
330
C
102
}
330
C
100
AcDbDictionary
281
     1
  3
PSOLHEIGHT
350
184
  3
PSOLWIDTH
350
183
  0
LAYOUT
  5
1E
102
{ACAD_REACTORS
330
1A
102
}
330
1A
100
AcDbPlotSettings
  1

  2
none_device
  4

  6

 40
0.0
 41
0.0
 42
0.0
 43
0.0
 44
0.0
 45
0.0
 46
0.0
 47
0.0
 48
0.0
 49
0.0
140
0.0
141
0.0
142
1.0
143
1.0
 70
   688
 72
     0
 73
     0
 74
     5
  7

 75
    16
147
1.0
148
0.0
149
0.0
100
AcDbLayout
  1
Layout1
 70
     1
 71
     1
 10
0.0
 20
0.0
 11
420.0
 21
297.0
 12
0.0
 22
0.0
 32
0.0
 14
1.0000000000E+20
 24
1.0000000000E+20
 34
1.0000000000E+20
 15
-1.0000000000E+20
 25
-1.0000000000E+20
 35
-1.0000000000E+20
146
0.0
 13
0.0
 23
0.0
 33
0.0
 16
1.0
 26
0.0
 36
0.0
 17
0.0
 27
1.0
 37
0.0
 76
     0
330
1B
  0
LAYOUT
  5
26
102
{ACAD_REACTORS
330
1A
102
}
330
1A
100
AcDbPlotSettings
  1

  2
none_device
  4

  6

 40
0.0
 41
0.0
 42
0.0
 43
0.0
 44
0.0
 45
0.0
 46
0.0
 47
0.0
 48
0.0
 49
0.0
140
0.0
141
0.0
142
1.0
143
1.0
 70
   688
 72
     0
 73
     0
 74
     5
  7

 75
    16
147
1.0
148
0.0
149
0.0
100
AcDbLayout
  1
Layout2
 70
     1
 71
     2
 10
0.0
 20
0.0
 11
0.0
 21
0.0
 12
0.0
 22
0.0
 32
0.0
 14
0.0
 24
0.0
 34
0.0
 15
0.0
 25
0.0
 35
0.0
146
0.0
 13
0.0
 23
0.0
 33
0.0
 16
1.0
 26
0.0
 36
0.0
 17
0.0
 27
1.0
 37
0.0
 76
     0
330
23
  0
LAYOUT
  5
22
102
{ACAD_REACTORS
330
1A
102
}
330
1A
100
AcDbPlotSettings
  1

  2
none_device
  4

  6

 40
0.0
 41
0.0
 42
0.0
 43
0.0
 44
0.0
 45
0.0
 46
0.0
 47
0.0
 48
0.0
 49
0.0
140
0.0
141
0.0
142
1.0
143
1.0
 70
  1712
 72
     0
 73
     0
 74
     0
  7

 75
     0
147
1.0
148
0.0
149
0.0
100
AcDbLayout
  1
Model
 70
     1
 71
     0
 10
0.0
 20
0.0
 11
297.0
 21
210.0
 12
0.0
 22
0.0
 32
0.0
 14
0.0
 24
0.0
 34
0.0
 15
297.0
 25
210.0
 35
0.0
146
0.0
 13
0.0
 23
0.0
 33
0.0
 16
1.0
 26
0.0
 36
0.0
 17
0.0
 27
1.0
 37
0.0
 76
     0
330
1F
331
29
  0
MLINESTYLE
  5
18
102
{ACAD_REACTORS
330
17
102
}
330
17
100
AcDbMlineStyle
  2
Standard
 70
     0
  3

 62
   256
 51
90.0
 52
90.0
 71
     2
 49
0.5
 62
   256
  6
BYLAYER
 49
-0.5
 62
   256
  6
BYLAYER
  0
ACDBPLACEHOLDER
  5
F
102
{ACAD_REACTORS
330
E
102
}
330
E
  0
VISUALSTYLE
  5
2F
102
{ACAD_REACTORS
330
2A
102
}
330
2A
100
AcDbVisualStyle
  2
2dWireframe
 70
     4
 71
     0
 72
     2
 73
     0
 90
        0
 40
-0.6
 41
-30.0
 62
     5
 63
     7
 74
     1
 91
        4
 64
     7
 65
   257
 75
     1
175
     1
 42
1.0
 92
        0
 66
   257
 43
1.0
 76
     1
 77
     6
 78
     2
 67
     7
 79
     5
170
     0
171
     0
290
     0
174
     0
 93
        1
 44
0.0
173
     0
291
     0
 45
0.0
1001
ACAD
1000
AcDbSavedByObjectVersion
1070
     0
  0
VISUALSTYLE
  5
31
102
{ACAD_REACTORS
330
2A
102
}
330
2A
100
AcDbVisualStyle
  2
3D Hidden
 70
     6
 71
     1
 72
     2
 73
     2
 90
        0
 40
-0.6
 41
-30.0
 62
     5
 63
     7
 74
     2
 91
        2
 64
     7
 65
   257
 75
     2
175
     1
 42
40.0
 92
        0
 66
   257
 43
1.0
 76
     1
 77
     6
 78
     2
 67
     7
 79
     3
170
     0
171
     0
290
     0
174
     0
 93
        1
 44
0.0
173
     0
291
     0
 45
0.0
1001
ACAD
1000
AcDbSavedByObjectVersion
1070
     0
  0
VISUALSTYLE
  5
30
102
{ACAD_REACTORS
330
2A
102
}
330
2A
100
AcDbVisualStyle
  2
3dWireframe
 70
     5
 71
     0
 72
     2
 73
     0
 90
        0
 40
-0.6
 41
-30.0
 62
     5
 63
     7
 74
     1
 91
        4
 64
     7
 65
   257
 75
     1
175
     1
 42
1.0
 92
        0
 66
   257
 43
1.0
 76
     1
 77
     6
 78
     2
 67
     7
 79
     5
170
     0
171
     0
290
     0
174
     0
 93
        1
 44
0.0
173
     0
291
     0
 45
0.0
1001
ACAD
1000
AcDbSavedByObjectVersion
1070
     0
  0
VISUALSTYLE
  5
32
102
{ACAD_REACTORS
330
2A
102
}
330
2A
100
AcDbVisualStyle
  2
Basic
 70
     7
 71
     1
 72
     0
 73
     1
 90
        0
 40
-0.6
 41
-30.0
 62
     5
 63
     7
 74
     0
 91
        4
 64
     7
 65
   257
 75
     1
175
     1
 42
1.0
 92
        8
 66
     7
 43
1.0
 76
     1
 77
     6
 78
     2
 67
     7
 79
     5
170
     0
171
     0
290
     0
174
     0
 93
        1
 44
0.0
173
     0
291
     1
 45
0.0
1001
ACAD
1000
AcDbSavedByObjectVersion
1070
     0
  0
VISUALSTYLE
  5
36
102
{ACAD_REACTORS
330
2A
102
}
330
2A
100
AcDbVisualStyle
  2
Brighten
 70
    12
 71
     2
 72
     2
 73
     0
 90
        0
 40
-0.6
 41
-30.0
 62
     5
 63
     7
 74
     1
 91
        4
 64
     7
 65
   257
 75
     1
175
     1
 42
1.0
 92
        8
 66
     7
 43
1.0
 76
     1
 77
     6
 78
     2
 67
     7
 79
     5
170
     0
171
     0
290
     0
174
     0
 93
        1
 44
50.0
173
     0
291
     1
 45
0.0
1001
ACAD
1000
AcDbSavedByObjectVersion
1070
     0
  0
VISUALSTYLE
  5
3A
102
{ACAD_REACTORS
330
2A
102
}
330
2A
100
AcDbVisualStyle
  2
ColorChange
 70
    16
 71
     2
 72
     2
 73
     3
 90
        0
 40
-0.6
 41
-30.0
 62
     5
 63
     8
 74
     1
 91
        4
 64
     7
 65
   257
 75
     1
175
     1
 42
1.0
 92
        8
 66
     8
 43
1.0
 76
     1
 77
     6
 78
     2
 67
     7
 79
     5
170
     0
171
     0
290
     0
174
     0
 93
        1
 44
0.0
173
     0
291
     1
 45
0.0
1001
ACAD
1000
AcDbSavedByObjectVersion
1070
     0
  0
VISUALSTYLE
  5
34
102
{ACAD_REACTORS
330
2A
102
}
330
2A
100
AcDbVisualStyle
  2
Conceptual
 70
     9
 71
     3
 72
     2
 73
     0
 90
        0
 40
-0.6
 41
-30.0
 62
     5
 63
     7
 74
     2
 91
        2
 64
     7
 65
   257
 75
     1
175
     1
 42
40.0
 92
        8
 66
     7
 43
1.0
 76
     1
 77
     6
 78
     2
 67
     7
 79
     3
170
     0
171
     0
290
     0
174
     0
 93
        1
 44
0.0
173
     0
291
     0
 45
0.0
1001
ACAD
1000
AcDbSavedByObjectVersion
1070
     0
  0
VISUALSTYLE
  5
35
102
{ACAD_REACTORS
330
2A
102
}
330
2A
100
AcDbVisualStyle
  2
Dim
 70
    11
 71
     2
 72
     2
 73
     0
 90
        0
 40
-0.6
 41
-30.0
 62
     5
 63
     7
 74
     1
 91
        4
 64
     7
 65
   257
 75
     1
175
     1
 42
1.0
 92
        8
 66
     7
 43
1.0
 76
     1
 77
     6
 78
     2
 67
     7
 79
     5
170
     0
171
     0
290
     0
174
     0
 93
        1
 44
-50.0
173
     0
291
     1
 45
0.0
1001
ACAD
1000
AcDbSavedByObjectVersion
1070
     0
  0
VISUALSTYLE
  5
39
102
{ACAD_REACTORS
330
2A
102
}
330
2A
100
AcDbVisualStyle
  2
Facepattern
 70
    15
 71
     2
 72
     2
 73
     0
 90
        0
 40
-0.6
 41
-30.0
 62
     5
 63
     7
 74
     1
 91
        4
 64
     7
 65
   257
 75
     1
175
     1
 42
1.0
 92
        8
 66
     7
 43
1.0
 76
     1
 77
     6
 78
     2
 67
     7
 79
     5
170
     0
171
     0
290
     0
174
     0
 93
        1
 44
0.0
173
     0
291
     1
 45
0.0
1001
ACAD
1000
AcDbSavedByObjectVersion
1070
     0
  0
VISUALSTYLE
  5
2B
102
{ACAD_REACTORS
330
2A
102
}
330
2A
100
AcDbVisualStyle
  2
Flat
 70
     0
 71
     2
 72
     1
 73
     1
 90
        2
 40
-0.6
 41
30.0
 62
     5
 63
     7
 74
     0
 91
        4
 64
     7
 65
   257
 75
     1
175
     1
 42
1.0
 92
        8
 66
     7
 43
1.0
 76
     1
 77
     6
 78
     2
 67
     7
 79
     5
170
     0
171
     0
290
     0
174
     0
 93
       13
 44
0.0
173
     0
291
     1
 45
0.0
1001
ACAD
1000
AcDbSavedByObjectVersion
1070
     0
  0
VISUALSTYLE
  5
2C
102
{ACAD_REACTORS
330
2A
102
}
330
2A
100
AcDbVisualStyle
  2
FlatWithEdges
 70
     1
 71
     2
 72
     1
 73
     1
 90
        2
 40
-0.6
 41
30.0
 62
     5
 63
     7
 74
     1
 91
        4
 64
     7
 65
   257
 75
     1
175
     1
 42
1.0
 92
        0
 66
   257
 43
1.0
 76
     1
 77
     6
 78
     2
 67
     7
 79
     5
170
     0
171
     0
290
     0
174
     0
 93
       13
 44
0.0
173
     0
291
     1
 45
0.0
1001
ACAD
1000
AcDbSavedByObjectVersion
1070
     0
  0
VISUALSTYLE
  5
2D
102
{ACAD_REACTORS
330
2A
102
}
330
2A
100
AcDbVisualStyle
  2
Gouraud
 70
     2
 71
     2
 72
     2
 73
     1
 90
        2
 40
-0.6
 41
30.0
 62
     5
 63
     7
 74
     0
 91
        4
 64
     7
 65
   257
 75
     1
175
     1
 42
1.0
 92
        0
 66
     7
 43
1.0
 76
     1
 77
     6
 78
     2
 67
     7
 79
     5
170
     0
171
     0
290
     0
174
     0
 93
       13
 44
0.0
173
     0
291
     1
 45
0.0
1001
ACAD
1000
AcDbSavedByObjectVersion
1070
     0
  0
VISUALSTYLE
  5
2E
102
{ACAD_REACTORS
330
2A
102
}
330
2A
100
AcDbVisualStyle
  2
GouraudWithEdges
 70
     3
 71
     2
 72
     2
 73
     1
 90
        2
 40
-0.6
 41
30.0
 62
     5
 63
     7
 74
     1
 91
        4
 64
     7
 65
   257
 75
     1
175
     1
 42
1.0
 92
        0
 66
   257
 43
1.0
 76
     1
 77
     6
 78
     2
 67
     7
 79
     5
170
     0
171
     0
290
     0
174
     0
 93
       13
 44
0.0
173
     0
291
     1
 45
0.0
1001
ACAD
1000
AcDbSavedByObjectVersion
1070
     0
  0
VISUALSTYLE
  5
38
102
{ACAD_REACTORS
330
2A
102
}
330
2A
100
AcDbVisualStyle
  2
Linepattern
 70
    14
 71
     2
 72
     2
 73
     0
 90
        0
 40
-0.6
 41
-30.0
 62
     5
 63
     7
 74
     1
 91
        4
 64
     7
 65
   257
 75
     7
175
     7
 42
1.0
 92
        8
 66
     7
 43
1.0
 76
     1
 77
     6
 78
     2
 67
     7
 79
     5
170
     0
171
     0
290
     0
174
     0
 93
        1
 44
0.0
173
     0
291
     1
 45
0.0
1001
ACAD
1000
AcDbSavedByObjectVersion
1070
     0
  0
VISUALSTYLE
  5
33
102
{ACAD_REACTORS
330
2A
102
}
330
2A
100
AcDbVisualStyle
  2
Realistic
 70
     8
 71
     2
 72
     2
 73
     0
 90
        0
 40
-0.6
 41
-30.0
 62
     5
 63
     7
 74
     1
 91
        0
 64
     7
 65
   257
 75
     1
175
     1
 42
1.0
 92
        8
 66
     8
 43
1.0
 76
     1
 77
     6
 78
     2
 67
     7
 79
     5
170
     0
171
     0
290
     0
174
     0
 93
       13
 44
0.0
173
     0
291
     0
 45
0.0
1001
ACAD
1000
AcDbSavedByObjectVersion
1070
     0
  0
VISUALSTYLE
  5
37
102
{ACAD_REACTORS
330
2A
102
}
330
2A
100
AcDbVisualStyle
  2
Thicken
 70
    13
 71
     2
 72
     2
 73
     0
 90
        0
 40
-0.6
 41
-30.0
 62
     5
 63
     7
 74
     1
 91
        4
 64
     7
 65
   257
 75
     1
175
     1
 42
1.0
 92
       12
 66
     7
 43
1.0
 76
     1
 77
     6
 78
     2
 67
     7
 79
     5
170
     0
171
     0
290
     0
174
     0
 93
        1
 44
0.0
173
     0
291
     1
 45
0.0
1001
ACAD
1000
AcDbSavedByObjectVersion
1070
     0
  0
DICTIONARYVAR
  5
184
102
{ACAD_REACTORS
330
182
102
}
330
182
100
DictionaryVariables
280
     0
  1
80.000000
  0
DICTIONARYVAR
  5
183
102
{ACAD_REACTORS
330
182
102
}
330
182
100
DictionaryVariables
280
     0
  1
5.000000
  0
ENDSEC
  0
EOF
