  0
SECTION
  2
HEADER
  9
$ACADVER
  1
AC1015
  9
$ACADMAINTVER
 70
     6
  9
$DWGCODEPAGE
  3
ANSI_1252
  9
$INSBASE
 10
0.0
 20
0.0
 30
0.0
  9
$EXTMIN
 10
0.0
 20
0.0
 30
0.0
  9
$EXTMAX
 10
297.0
 20
210.0
 30
0.0
  9
$LIMMIN
 10
0.0
 20
0.0
  9
$LIMMAX
 10
297.0
 20
210.0
  9
$ORTHOMODE
 70
     0
  9
$REGENMODE
 70
     1
  9
$FILLMODE
 70
     1
  9
$QTEXTMODE
 70
     0
  9
$MIRRTEXT
 70
     1
  9
$LTSCALE
 40
1.0
  9
$ATTMODE
 70
     1
  9
$TEXTSIZE
 40
2.0
  9
$TRACEWID
 40
1.0
  9
$TEXTSTYLE
  7
Standard
  9
$CLAYER
  8
0
  9
$CELTYPE
  6
ByLayer
  9
$CECOLOR
 62
   256
  9
$CELTSCALE
 40
1.0
  9
$DISPSILH
 70
     0
  9
$DIMSCALE
 40
1.0
  9
$DIMASZ
 40
3.0
  9
$DIMEXO
 40
0.0
  9
$DIMDLI
 40
3.75
  9
$DIMRND
 40
0.0
  9
$DIMDLE
 40
0.0
  9
$DIMEXE
 40
1.0
  9
$DIMTP
 40
0.0
  9
$DIMTM
 40
0.0
  9
$DIMTXT
 40
2.0
  9
$DIMCEN
 40
2.5
  9
$DIMTSZ
 40
0.0
  9
$DIMTOL
 70
     0
  9
$DIMLIM
 70
     0
  9
$DIMTIH
 70
     1
  9
$DIMTOH
 70
     1
  9
$DIMSE1
 70
     0
  9
$DIMSE2
 70
     0
  9
$DIMTAD
 70
     1
  9
$DIMZIN
 70
     0
  9
$DIMBLK
  1

  9
$DIMASO
 70
     1
  9
$DIMSHO
 70
     1
  9
$DIMPOST
  1

  9
$DIMAPOST
  1

  9
$DIMALT
 70
     0
  9
$DIMALTD
 70
     3
  9
$DIMALTF
 40
0.0393700787
  9
$DIMLFAC
 40
1.0
  9
$DIMTOFL
 70
     1
  9
$DIMTVP
 40
0.0
  9
$DIMTIX
 70
     0
  9
$DIMSOXD
 70
     0
  9
$DIMSAH
 70
     0
  9
$DIMBLK1
  1

  9
$DIMBLK2
  1

  9
$DIMSTYLE
  2
ISO-25
  9
$DIMCLRD
 70
     0
  9
$DIMCLRE
 70
     0
  9
$DIMCLRT
 70
     0
  9
$DIMTFAC
 40
1.0
  9
$DIMGAP
 40
1.524
  9
$DIMJUST
 70
     0
  9
$DIMSD1
 70
     0
  9
$DIMSD2
 70
     0
  9
$DIMTOLJ
 70
     0
  9
$DIMTZIN
 70
     0
  9
$DIMALTZ
 70
     0
  9
$DIMALTTZ
 70
     0
  9
$DIMUPT
 70
     0
  9
$DIMDEC
 70
     2
  9
$DIMTDEC
 70
     3
  9
$DIMALTU
 70
     2
  9
$DIMALTTD
 70
     3
  9
$DIMTXSTY
  7
Standard
  9
$DIMAUNIT
 70
     0
  9
$DIMADEC
 70
     2
  9
$DIMALTRND
 40
0.0
  9
$DIMAZIN
 70
     0
  9
$DIMDSEP
 70
    44
  9
$DIMATFIT
 70
     3
  9
$DIMFRAC
 70
     0
  9
$DIMLDRBLK
  1

  9
$DIMLUNIT
 70
     2
  9
$DIMLWD
 70
    -2
  9
$DIMLWE
 70
    -2
  9
$DIMTMOVE
 70
     0
  9
$LUNITS
 70
     2
  9
$LUPREC
 70
     2
  9
$SKETCHINC
 40
1.0
  9
$FILLETRAD
 40
10.0
  9
$AUNITS
 70
     0
  9
$AUPREC
 70
     2
  9
$MENU
  1
.
  9
$ELEVATION
 40
0.0
  9
$PELEVATION
 40
0.0
  9
$THICKNESS
 40
0.0
  9
$LIMCHECK
 70
     0
  9
$CHAMFERA
 40
10.0
  9
$CHAMFERB
 40
10.0
  9
$CHAMFERC
 40
20.0
  9
$CHAMFERD
 40
0.0
  9
$SKPOLY
 70
     0
  9
$TDCREATE
 40
2455624.526969201
  9
$TDUCREATE
 40
2455624.485302535
  9
$TDUPDATE
 40
2455624.526969213
  9
$TDUUPDATE
 40
2455624.485302547
  9
$TDINDWG
 40
0.0000000116
  9
$TDUSRTIMER
 40
0.0000000116
  9
$USRTIMER
 70
     1
  9
$ANGBASE
 50
0.0
  9
$ANGDIR
 70
     0
  9
$PDMODE
 70
     0
  9
$PDSIZE
 40
-1.0
  9
$PLINEWID
 40
0.0
  9
$SPLFRAME
 70
     0
  9
$SPLINETYPE
 70
     6
  9
$SPLINESEGS
 70
     8
  9
$HANDSEED
  5
2FE
  9
$SURFTAB1
 70
     6
  9
$SURFTAB2
 70
     6
  9
$SURFTYPE
 70
     6
  9
$SURFU
 70
     6
  9
$SURFV
 70
     6
  9
$UCSBASE
  2

  9
$UCSNAME
  2

  9
$UCSORG
 10
0.0
 20
0.0
 30
0.0
  9
$UCSXDIR
 10
1.0
 20
0.0
 30
0.0
  9
$UCSYDIR
 10
0.0
 20
1.0
 30
0.0
  9
$UCSORTHOREF
  2

  9
$UCSORTHOVIEW
 70
     0
  9
$UCSORGTOP
 10
0.0
 20
0.0
 30
0.0
  9
$UCSORGBOTTOM
 10
0.0
 20
0.0
 30
0.0
  9
$UCSORGLEFT
 10
0.0
 20
0.0
 30
0.0
  9
$UCSORGRIGHT
 10
0.0
 20
0.0
 30
0.0
  9
$UCSORGFRONT
 10
0.0
 20
0.0
 30
0.0
  9
$UCSORGBACK
 10
0.0
 20
0.0
 30
0.0
  9
$PUCSBASE
  2

  9
$PUCSNAME
  2

  9
$PUCSORG
 10
0.0
 20
0.0
 30
0.0
  9
$PUCSXDIR
 10
1.0
 20
0.0
 30
0.0
  9
$PUCSYDIR
 10
0.0
 20
1.0
 30
0.0
  9
$PUCSORTHOREF
  2

  9
$PUCSORTHOVIEW
 70
     0
  9
$PUCSORGTOP
 10
0.0
 20
0.0
 30
0.0
  9
$PUCSORGBOTTOM
 10
0.0
 20
0.0
 30
0.0
  9
$PUCSORGLEFT
 10
0.0
 20
0.0
 30
0.0
  9
$PUCSORGRIGHT
 10
0.0
 20
0.0
 30
0.0
  9
$PUCSORGFRONT
 10
0.0
 20
0.0
 30
0.0
  9
$PUCSORGBACK
 10
0.0
 20
0.0
 30
0.0
  9
$USERI1
 70
     0
  9
$USERI2
 70
     0
  9
$USERI3
 70
     0
  9
$USERI4
 70
     0
  9
$USERI5
 70
     0
  9
$USERR1
 40
0.0
  9
$USERR2
 40
0.0
  9
$USERR3
 40
0.0
  9
$USERR4
 40
0.0
  9
$USERR5
 40
0.0
  9
$WORLDVIEW
 70
     1
  9
$SHADEDGE
 70
     3
  9
$SHADEDIF
 70
    70
  9
$TILEMODE
 70
     1
  9
$MAXACTVP
 70
    64
  9
$PINSBASE
 10
0.0
 20
0.0
 30
0.0
  9
$PLIMCHECK
 70
     0
  9
$PEXTMIN
 10
1.0000000000E+20
 20
1.0000000000E+20
 30
1.0000000000E+20
  9
$PEXTMAX
 10
-1.0000000000E+20
 20
-1.0000000000E+20
 30
-1.0000000000E+20
  9
$PLIMMIN
 10
0.0
 20
0.0
  9
$PLIMMAX
 10
420.0
 20
297.0
  9
$UNITMODE
 70
     0
  9
$VISRETAIN
 70
     1
  9
$PLINEGEN
 70
     0
  9
$PSLTSCALE
 70
     1
  9
$TREEDEPTH
 70
  3020
  9
$CMLSTYLE
  2
Standard
  9
$CMLJUST
 70
     0
  9
$CMLSCALE
 40
20.0
  9
$PROXYGRAPHICS
 70
     1
  9
$MEASUREMENT
 70
     1
  9
$CELWEIGHT
370
    -1
  9
$ENDCAPS
280
     0
  9
$JOINSTYLE
280
     0
  9
$LWDISPLAY
290
     1
  9
$INSUNITS
 70
     4
  9
$HYPERLINKBASE
  1

  9
$STYLESHEET
  1

  9
$XEDIT
290
     1
  9
$CEPSNTYPE
380
     0
  9
$PSTYLEMODE
290
     1
  9
$FINGERPRINTGUID
  2
{EC75AAB8-FB2F-4C95-A1D0-04527BCE3CA4}
  9
$VERSIONGUID
  2
{FAEB1C32-E019-11D5-929B-00C0DF256EC4}
  9
$EXTNAMES
290
     1
  9
$PSVPSCALE
 40
0.0
  9
$OLESTARTUP
290
     0
  0
ENDSEC
  0
SECTION
  2
CLASSES
  0
CLASS
  1
ACDBDICTIONARYWDFLT
  2
AcDbDictionaryWithDefault
  3
ObjectDBX Classes
 90
        0
280
     0
281
     0
  0
CLASS
  1
VISUALSTYLE
  2
AcDbVisualStyle
  3
ObjectDBX Classes
 90
     4095
280
     0
281
     0
  0
CLASS
  1
DICTIONARYVAR
  2
AcDbDictionaryVar
  3
ObjectDBX Classes
 90
        0
280
     0
281
     0
  0
CLASS
  1
ACDBPLACEHOLDER
  2
AcDbPlaceHolder
  3
ObjectDBX Classes
 90
        0
280
     0
281
     0
  0
CLASS
  1
LAYOUT
  2
AcDbLayout
  3
ObjectDBX Classes
 90
        0
280
     0
281
     0
  0
ENDSEC
  0
SECTION
  2
TABLES
  0
TABLE
  2
VPORT
  5
8
330
0
100
AcDbSymbolTable
 70
     1
  0
VPORT
  5
29
330
8
100
AcDbSymbolTableRecord
100
AcDbViewportTableRecord
  2
*Active
 70
     0
 10
0.0
 20
0.0
 11
1.0
 21
1.0
 12
148.5
 22
105.0
 13
0.0
 23
0.0
 14
10.0
 24
10.0
 15
10.0
 25
10.0
 16
0.0
 26
0.0
 36
1.0
 17
0.0
 27
0.0
 37
0.0
 40
210.0
 41
1.4142857143
 42
50.0
 43
0.0
 44
0.0
 50
0.0
 51
0.0
 71
     0
 72
  2000
 73
     1
 74
     3
 75
     0
 76
     0
 77
     0
 78
     0
281
     0
 65
     1
110
0.0
120
0.0
130
0.0
111
1.0
121
0.0
131
0.0
112
0.0
122
1.0
132
0.0
 79
     0
146
0.0
  0
ENDTAB
  0
TABLE
  2
LTYPE
  5
5
330
0
100
AcDbSymbolTable
 70
     6
  0
LTYPE
  5
14
330
5
100
AcDbSymbolTableRecord
100
AcDbLinetypeTableRecord
  2
ByBlock
 70
     0
  3

 72
    65
 73
     0
 40
0.0
  0
LTYPE
  5
15
330
5
100
AcDbSymbolTableRecord
100
AcDbLinetypeTableRecord
  2
ByLayer
 70
     0
  3

 72
    65
 73
     0
 40
0.0
  0
LTYPE
  5
16
330
5
100
AcDbSymbolTableRecord
100
AcDbLinetypeTableRecord
  2
Continuous
 70
     0
  3
Solid line
 72
    65
 73
     0
 40
0.0
  0
LTYPE
  5
3B
330
5
100
AcDbSymbolTableRecord
100
AcDbLinetypeTableRecord
  2
HIDDEN
 70
     0
  3
Hidden __ __ __ __ __ __ __ __ __ __ __ __ __ __
 72
    65
 73
     2
 40
1.905
 49
1.27
 74
     0
 49
-0.635
 74
     0
  0
LTYPE
  5
3C
330
5
100
AcDbSymbolTableRecord
100
AcDbLinetypeTableRecord
  2
PHANTOM
 70
     0
  3
Phantom ______  __  __  ______  __  __  ______
 72
    65
 73
     6
 40
12.7
 49
6.35
 74
     0
 49
-1.27
 74
     0
 49
1.27
 74
     0
 49
-1.27
 74
     0
 49
1.27
 74
     0
 49
-1.27
 74
     0
  0
LTYPE
  5
3D
330
5
100
AcDbSymbolTableRecord
100
AcDbLinetypeTableRecord
  2
CENTER
 70
     0
  3
Center ____ _ ____ _ ____ _ ____ _ ____ _ ____
 72
    65
 73
     4
 40
10.16
 49
6.35
 74
     0
 49
-1.27
 74
     0
 49
1.27
 74
     0
 49
-1.27
 74
     0
  0
LTYPE
  5
3E
330
5
100
AcDbSymbolTableRecord
100
AcDbLinetypeTableRecord
  2
CENTERX2
 70
     0
  3
Center (2x) ________  __  ________  __  _____
 72
    65
 73
     4
 40
20.32
 49
12.7
 74
     0
 49
-2.54
 74
     0
 49
2.54
 74
     0
 49
-2.54
 74
     0
  0
LTYPE
  5
3F
330
5
100
AcDbSymbolTableRecord
100
AcDbLinetypeTableRecord
  2
DOT2
 70
     0
  3
Dot (.5x) ........................................
 72
    65
 73
     2
 40
0.635
 49
0.0
 74
     0
 49
-0.635
 74
     0
  0
ENDTAB
  0
TABLE
  2
LAYER
  5
2
330
0
100
AcDbSymbolTable
 70
     5
  0
LAYER
  5
10
330
2
100
AcDbSymbolTableRecord
100
AcDbLayerTableRecord
  2
0
 70
     0
 62
     7
  6
Continuous
370
    -3
390
F
  0
LAYER
  5
40
330
2
100
AcDbSymbolTableRecord
100
AcDbLayerTableRecord
  2
FORMAT
 70
     0
 62
     7
  6
Continuous
370
    -3
390
F
  0
LAYER
  5
41
330
2
100
AcDbSymbolTableRecord
100
AcDbLayerTableRecord
  2
VERMASSUNG
 70
     0
 62
     7
  6
Continuous
370
    -3
390
F
  0
LAYER
  5
42
330
2
100
AcDbSymbolTableRecord
100
AcDbLayerTableRecord
  2
KOPF_DÜNN
 70
     0
 62
     7
  6
Continuous
370
    -3
390
F
  0
LAYER
  5
43
330
2
100
AcDbSymbolTableRecord
100
AcDbLayerTableRecord
  2
KOPF_DICK
 70
     0
 62
     7
  6
Continuous
370
    15
390
F
  0
ENDTAB
  0
TABLE
  2
STYLE
  5
3
330
0
100
AcDbSymbolTable
 70
     3
  0
STYLE
  5
11
330
3
100
AcDbSymbolTableRecord
100
AcDbTextStyleTableRecord
  2
Standard
 70
     0
 40
0.0
 41
1.0
 50
0.0
 71
     0
 42
2.5
  3
txt
  4

  0
STYLE
  5
44
330
3
100
AcDbSymbolTableRecord
100
AcDbTextStyleTableRecord
  2
SLDTEXTSTYLE0
 70
     0
 40
0.0
 41
0.7
 50
0.0
 71
     0
 42
0.2
  3
TXT
  4

  0
STYLE
  5
48
330
3
100
AcDbSymbolTableRecord
100
AcDbTextStyleTableRecord
  2
SLDTEXTSTYLE1
 70
     0
 40
0.0
 41
0.6526315789
 50
0.0
 71
     0
 42
0.2
  3
TXT
  4

  0
ENDTAB
  0
TABLE
  2
VIEW
  5
6
330
0
100
AcDbSymbolTable
 70
     0
  0
ENDTAB
  0
TABLE
  2
UCS
  5
7
330
0
100
AcDbSymbolTable
 70
     0
  0
ENDTAB
  0
TABLE
  2
APPID
  5
9
330
0
100
AcDbSymbolTable
 70
     1
  0
APPID
  5
12
330
9
100
AcDbSymbolTableRecord
100
AcDbRegAppTableRecord
  2
ACAD
 70
     0
  0
ENDTAB
  0
TABLE
  2
DIMSTYLE
  5
A
330
0
100
AcDbSymbolTable
 70
     4
100
AcDbDimStyleTable
  0
DIMSTYLE
105
27
330
A
100
AcDbSymbolTableRecord
100
AcDbDimStyleTableRecord
  2
ISO-25
 70
     0
 41
2.5
 42
0.625
 43
3.75
 44
1.25
 73
     0
 74
     0
 77
     1
 78
     8
140
2.5
141
2.5
143
0.0393700787
147
0.625
171
     3
172
     1
271
     2
272
     2
274
     3
278
    44
283
     0
284
     8
340
11
  0
DIMSTYLE
105
240
102
{ACAD_REACTORS
330
23F
330
24A
330
254
330
268
102
}
330
A
100
AcDbSymbolTableRecord
100
AcDbDimStyleTableRecord
  2
SLDDIMSTYLE0
 70
     0
 41
3.0
 44
0.0
 45
0.000000001
 73
     0
 74
     0
 77
     1
 78
    12
140
2.0
147
0.5
173
     1
271
     2
272
     3
284
    12
340
44
  0
DIMSTYLE
105
25F
102
{ACAD_REACTORS
330
25E
102
}
330
A
100
AcDbSymbolTableRecord
100
AcDbDimStyleTableRecord
  2
SLDDIMSTYLE1
 70
     0
 41
3.0
 44
0.0
 73
     0
 74
     0
 77
     1
 78
    12
140
2.0
147
0.5
173
     1
179
     2
272
     3
284
    12
340
44
  0
DIMSTYLE
105
2E1
102
{ACAD_REACTORS
330
2E0
102
}
330
A
100
AcDbSymbolTableRecord
100
AcDbDimStyleTableRecord
  2
SLDDIMSTYLE2
 70
     0
 41
3.0
 44
0.0
 45
0.000000001
 73
     0
 74
     0
 77
     1
 78
    12
140
2.0
147
0.5
173
     1
271
     2
272
     3
284
    12
340
44
  0
ENDTAB
  0
TABLE
  2
BLOCK_RECORD
  5
1
330
0
100
AcDbSymbolTable
 70
     8
  0
BLOCK_RECORD
  5
1F
330
1
100
AcDbSymbolTableRecord
100
AcDbBlockTableRecord
  2
*Model_Space
340
22
  0
BLOCK_RECORD
  5
1B
330
1
100
AcDbSymbolTableRecord
100
AcDbBlockTableRecord
  2
*Paper_Space
340
1E
  0
BLOCK_RECORD
  5
23
330
1
100
AcDbSymbolTableRecord
100
AcDbBlockTableRecord
  2
*Paper_Space0
340
26
  0
BLOCK_RECORD
  5
241
330
1
100
AcDbSymbolTableRecord
100
AcDbBlockTableRecord
  2
*D1
340
0
  0
BLOCK_RECORD
  5
24B
330
1
100
AcDbSymbolTableRecord
100
AcDbBlockTableRecord
  2
*D2
340
0
  0
BLOCK_RECORD
  5
255
330
1
100
AcDbSymbolTableRecord
100
AcDbBlockTableRecord
  2
*D3
340
0
  0
BLOCK_RECORD
  5
260
330
1
100
AcDbSymbolTableRecord
100
AcDbBlockTableRecord
  2
*D4
340
0
  0
BLOCK_RECORD
  5
269
330
1
100
AcDbSymbolTableRecord
100
AcDbBlockTableRecord
  2
*D5
340
0
  0
BLOCK_RECORD
  5
2E2
330
1
100
AcDbSymbolTableRecord
100
AcDbBlockTableRecord
  2
*D6
340
0
  0
BLOCK_RECORD
  5
2EC
330
1
100
AcDbSymbolTableRecord
100
AcDbBlockTableRecord
  2
SW_CENTERMARKSYMBOL_0
340
0
102
{BLKREFS
331
2F7
102
}
  0
ENDTAB
  0
ENDSEC
  0
SECTION
  2
BLOCKS
  0
BLOCK
  5
20
330
1F
100
AcDbEntity
  8
0
100
AcDbBlockBegin
  2
*Model_Space
 70
     0
 10
0.0
 20
0.0
 30
0.0
  3
*Model_Space
  1

  0
ENDBLK
  5
21
330
1F
100
AcDbEntity
  8
0
100
AcDbBlockEnd
  0
BLOCK
  5
1C
330
1B
100
AcDbEntity
 67
     1
  8
0
100
AcDbBlockBegin
  2
*Paper_Space
 70
     0
 10
0.0
 20
0.0
 30
0.0
  3
*Paper_Space
  1

  0
ENDBLK
  5
1D
330
1B
100
AcDbEntity
 67
     1
  8
0
100
AcDbBlockEnd
  0
BLOCK
  5
24
330
23
100
AcDbEntity
  8
0
100
AcDbBlockBegin
  2
*Paper_Space0
 70
     0
 10
0.0
 20
0.0
 30
0.0
  3
*Paper_Space0
  1

  0
ENDBLK
  5
25
330
23
100
AcDbEntity
  8
0
100
AcDbBlockEnd
  0
BLOCK
  5
242
330
241
100
AcDbEntity
  8
0
100
AcDbBlockBegin
  2
*D1
 70
     1
 10
0.0
 20
0.0
 30
0.0
  3
*D1
  1

  0
SOLID
  5
244
330
241
100
AcDbEntity
  8
VERMASSUNG
100
AcDbTrace
 10
286.9958171342
 20
90.5234203279
 30
0.0
 11
287.4458171342
 21
93.5234203279
 31
0.0
 12
286.5458171342
 22
93.5234203279
 32
0.0
 13
286.5458171342
 23
93.5234203279
 33
0.0
  0
SOLID
  5
245
330
241
100
AcDbEntity
  8
VERMASSUNG
100
AcDbTrace
 10
286.9958171342
 20
117.5234203279
 30
0.0
 11
286.5458171342
 21
114.5234203279
 31
0.0
 12
287.4458171342
 22
114.5234203279
 32
0.0
 13
287.4458171342
 23
114.5234203279
 33
0.0
  0
LINE
  5
246
330
241
100
AcDbEntity
  8
VERMASSUNG
100
AcDbLine
 10
281.993553328
 20
90.5234203279
 30
0.0
 11
287.9958171342
 21
90.5234203279
 31
0.0
  0
LINE
  5
247
330
241
100
AcDbEntity
  8
VERMASSUNG
100
AcDbLine
 10
275.9709669029
 20
117.5234203279
 30
0.0
 11
287.9958171342
 21
117.5234203279
 31
0.0
  0
LINE
  5
248
330
241
100
AcDbEntity
  8
VERMASSUNG
100
AcDbLine
 10
286.9958171342
 20
90.5234203279
 30
0.0
 11
286.9958171342
 21
117.5234203279
 31
0.0
  0
MTEXT
  5
249
330
241
100
AcDbEntity
  8
VERMASSUNG
100
AcDbMText
 10
284.417681771
 20
102.6235443602
 30
0.0
 40
2.0
 41
0.0
 71
     1
 72
     1
  1
27
  7
SLDTEXTSTYLE0
 11
6.123233995736766E-17
 21
1.0
 31
0.0
 73
     1
 44
1.0
  0
ENDBLK
  5
243
330
241
100
AcDbEntity
  8
0
100
AcDbBlockEnd
  0
BLOCK
  5
24C
330
24B
100
AcDbEntity
  8
0
100
AcDbBlockBegin
  2
*D2
 70
     1
 10
0.0
 20
0.0
 30
0.0
  3
*D2
  1

  0
SOLID
  5
24E
330
24B
100
AcDbEntity
  8
VERMASSUNG
100
AcDbTrace
 10
141.993553328
 20
153.867578479
 30
0.0
 11
144.993553328
 21
153.417578479
 31
0.0
 12
144.993553328
 22
154.317578479
 32
0.0
 13
144.993553328
 23
154.317578479
 33
0.0
  0
SOLID
  5
24F
330
24B
100
AcDbEntity
  8
VERMASSUNG
100
AcDbTrace
 10
281.993553328
 20
153.867578479
 30
0.0
 11
278.993553328
 21
154.317578479
 31
0.0
 12
278.993553328
 22
153.417578479
 32
0.0
 13
278.993553328
 23
153.417578479
 33
0.0
  0
LINE
  5
250
330
24B
100
AcDbEntity
  8
VERMASSUNG
100
AcDbLine
 10
141.993553328
 20
148.7234203279
 30
0.0
 11
141.993553328
 21
154.867578479
 31
0.0
  0
LINE
  5
251
330
24B
100
AcDbEntity
  8
VERMASSUNG
100
AcDbLine
 10
281.993553328
 20
117.5234203279
 30
0.0
 11
281.993553328
 21
154.867578479
 31
0.0
  0
LINE
  5
252
330
24B
100
AcDbEntity
  8
VERMASSUNG
100
AcDbLine
 10
141.993553328
 20
153.867578479
 30
0.0
 11
281.993553328
 21
153.867578479
 31
0.0
  0
MTEXT
  5
253
330
24B
100
AcDbEntity
  8
VERMASSUNG
100
AcDbMText
 10
209.9939050216
 20
156.4457138421
 30
0.0
 40
2.0
 41
0.0
 71
     1
 72
     1
  1
140
  7
SLDTEXTSTYLE0
 73
     1
 44
1.0
  0
ENDBLK
  5
24D
330
24B
100
AcDbEntity
  8
0
100
AcDbBlockEnd
  0
BLOCK
  5
256
330
255
100
AcDbEntity
  8
0
100
AcDbBlockBegin
  2
*D3
 70
     1
 10
0.0
 20
0.0
 30
0.0
  3
*D3
  1

  0
SOLID
  5
258
330
255
100
AcDbEntity
  8
VERMASSUNG
100
AcDbTrace
 10
110.093553328
 20
159.867578479
 30
0.0
 11
113.093553328
 21
159.417578479
 31
0.0
 12
113.093553328
 22
160.317578479
 32
0.0
 13
113.093553328
 23
160.317578479
 33
0.0
  0
SOLID
  5
259
330
255
100
AcDbEntity
  8
VERMASSUNG
100
AcDbTrace
 10
281.993553328
 20
159.867578479
 30
0.0
 11
278.993553328
 21
160.317578479
 31
0.0
 12
278.993553328
 22
159.417578479
 32
0.0
 13
278.993553328
 23
159.417578479
 33
0.0
  0
LINE
  5
25A
330
255
100
AcDbEntity
  8
VERMASSUNG
100
AcDbLine
 10
110.093553328
 20
137.2140980744
 30
0.0
 11
110.093553328
 21
160.867578479
 31
0.0
  0
LINE
  5
25B
330
255
100
AcDbEntity
  8
VERMASSUNG
100
AcDbLine
 10
281.993553328
 20
117.5234203279
 30
0.0
 11
281.993553328
 21
160.867578479
 31
0.0
  0
LINE
  5
25C
330
255
100
AcDbEntity
  8
VERMASSUNG
100
AcDbLine
 10
110.093553328
 20
159.867578479
 30
0.0
 11
281.993553328
 21
159.867578479
 31
0.0
  0
MTEXT
  5
25D
330
255
100
AcDbEntity
  8
VERMASSUNG
100
AcDbMText
 10
193.3439670377
 20
162.4457138421
 30
0.0
 40
2.0
 41
0.0
 71
     1
 72
     1
  1
171.9
  7
SLDTEXTSTYLE0
 73
     1
 44
1.0
  0
ENDBLK
  5
257
330
255
100
AcDbEntity
  8
0
100
AcDbBlockEnd
  0
BLOCK
  5
261
330
260
100
AcDbEntity
  8
0
100
AcDbBlockBegin
  2
*D4
 70
     1
 10
0.0
 20
0.0
 30
0.0
  3
*D4
  1

  0
ARC
  5
263
330
260
100
AcDbEntity
  8
VERMASSUNG
100
AcDbCircle
 10
281.993553328
 20
89.6474518663
 30
0.0
 40
33.05026962814267
100
AcDbArc
 50
90.0
 51
107.8920786271
  0
SOLID
  5
264
330
260
100
AcDbEntity
  8
VERMASSUNG
100
AcDbTrace
 10
281.993553328
 20
122.6977214945
 30
0.0
 11
278.976265027
 21
123.0115228777
 31
0.0
 12
279.0169863556
 22
122.1124445867
 32
0.0
 13
279.0169863556
 23
122.1124445867
 33
0.0
  0
SOLID
  5
265
330
260
100
AcDbEntity
  8
VERMASSUNG
100
AcDbTrace
 10
271.8396824868
 20
121.0993076054
 30
0.0
 11
274.8521051466
 21
121.4568124564
 31
0.0
 12
274.6146376894
 22
122.3249191357
 32
0.0
 13
274.6146376894
 23
122.3249191357
 33
0.0
  0
LINE
  5
266
330
260
100
AcDbEntity
  8
VERMASSUNG
100
AcDbLine
 10
281.993553328
 20
117.5234203279
 30
0.0
 11
281.993553328
 21
123.6977214945
 31
0.0
  0
MTEXT
  5
267
330
260
100
AcDbEntity
  8
VERMASSUNG
100
AcDbMText
 10
273.6874931415
 20
124.4070723663
 30
0.0
 40
2.0
 41
0.0
 71
     1
 72
     1
  1
17.5°
  7
SLDTEXTSTYLE0
 11
0.9878352312198898
 21
0.1555041991739991
 31
0.0
 73
     1
 44
1.0
  0
ENDBLK
  5
262
330
260
100
AcDbEntity
  8
0
100
AcDbBlockEnd
  0
BLOCK
  5
26A
330
269
100
AcDbEntity
  8
0
100
AcDbBlockBegin
  2
*D5
 70
     1
 10
0.0
 20
0.0
 30
0.0
  3
*D5
  1

  0
SOLID
  5
26C
330
269
100
AcDbEntity
  8
VERMASSUNG
100
AcDbTrace
 10
103.7349185158
 20
149.0234203279
 30
0.0
 11
103.2849185158
 21
146.0234203279
 31
0.0
 12
104.1849185158
 22
146.0234203279
 32
0.0
 13
104.1849185158
 23
146.0234203279
 33
0.0
  0
SOLID
  5
26D
330
269
100
AcDbEntity
  8
VERMASSUNG
100
AcDbTrace
 10
103.7349185158
 20
86.0234203279
 30
0.0
 11
104.1849185158
 21
89.0234203279
 31
0.0
 12
103.2849185158
 22
89.0234203279
 32
0.0
 13
103.2849185158
 23
89.0234203279
 33
0.0
  0
LINE
  5
26E
330
269
100
AcDbEntity
  8
VERMASSUNG
100
AcDbLine
 10
142.293553328
 20
149.0234203279
 30
0.0
 11
102.7349185158
 21
149.0234203279
 31
0.0
  0
LINE
  5
26F
330
269
100
AcDbEntity
  8
VERMASSUNG
100
AcDbLine
 10
142.293553328
 20
86.0234203279
 30
0.0
 11
102.7349185158
 21
86.0234203279
 31
0.0
  0
LINE
  5
270
330
269
100
AcDbEntity
  8
VERMASSUNG
100
AcDbLine
 10
103.7349185158
 20
149.0234203279
 30
0.0
 11
103.7349185158
 21
86.0234203279
 31
0.0
  0
MTEXT
  5
271
330
269
100
AcDbEntity
  8
VERMASSUNG
100
AcDbMText
 10
100.9567830268
 20
111.3192579892
 30
0.0
 40
2.0
 41
0.0
 71
     1
 72
     1
  1
HSK 
  7
SLDTEXTSTYLE0
 11
-7.044195017643634E-15
 21
1.0
 31
0.0
 73
     1
 44
1.0
  0
MTEXT
  5
272
330
269
100
AcDbEntity
  8
VERMASSUNG
100
AcDbMText
 10
101.1567830363
 20
117.3192580414
 30
0.0
 40
2.0
 41
0.0
 71
     1
 72
     1
  1
%%c
  7
SLDTEXTSTYLE0
 11
-7.044195017643634E-15
 21
1.0
 31
0.0
 73
     1
 44
1.0
  0
MTEXT
  5
273
330
269
100
AcDbEntity
  8
VERMASSUNG
100
AcDbMText
 10
101.1567831527
 20
120.9278307312
 30
0.0
 40
2.0
 41
0.0
 71
     1
 72
     1
  1
63
  7
SLDTEXTSTYLE0
 11
-7.044195017643634E-15
 21
1.0
 31
0.0
 73
     1
 44
1.0
  0
ENDBLK
  5
26B
330
269
100
AcDbEntity
  8
0
100
AcDbBlockEnd
  0
BLOCK
  5
2E3
330
2E2
100
AcDbEntity
  8
0
100
AcDbBlockBegin
  2
*D6
 70
     1
 10
0.0
 20
0.0
 30
0.0
  3
*D6
  1

  0
SOLID
  5
2E5
330
2E2
100
AcDbEntity
  8
VERMASSUNG
100
AcDbTrace
 10
24.6486243645
 20
90.5234803097
 30
0.0
 11
25.0986243645
 21
93.5234803097
 31
0.0
 12
24.1986243645
 22
93.5234803097
 32
0.0
 13
24.1986243645
 23
93.5234803097
 33
0.0
  0
SOLID
  5
2E6
330
2E2
100
AcDbEntity
  8
VERMASSUNG
100
AcDbTrace
 10
24.6486243645
 20
140.5234803097
 30
0.0
 11
24.1986243645
 21
137.5234803097
 31
0.0
 12
25.0986243645
 22
137.5234803097
 32
0.0
 13
25.0986243645
 23
137.5234803097
 33
0.0
  0
LINE
  5
2E7
330
2E2
100
AcDbEntity
  8
VERMASSUNG
100
AcDbLine
 10
60.4641686614
 20
90.5234803097
 30
0.0
 11
23.6486243645
 21
90.5234803097
 31
0.0
  0
LINE
  5
2E8
330
2E2
100
AcDbEntity
  8
VERMASSUNG
100
AcDbLine
 10
60.4641686614
 20
140.5234803097
 30
0.0
 11
23.6486243645
 21
140.5234803097
 31
0.0
  0
LINE
  5
2E9
330
2E2
100
AcDbEntity
  8
VERMASSUNG
100
AcDbLine
 10
24.6486243645
 20
90.5234803097
 30
0.0
 11
24.6486243645
 21
140.5234803097
 31
0.0
  0
MTEXT
  5
2EA
330
2E2
100
AcDbEntity
  8
VERMASSUNG
100
AcDbMText
 10
22.070488885
 20
112.3194011968
 30
0.0
 40
2.0
 41
0.0
 71
     1
 72
     1
  1
%%c
  7
SLDTEXTSTYLE0
 11
6.123233995736766E-17
 21
1.0
 31
0.0
 73
     1
 44
1.0
  0
MTEXT
  5
2EB
330
2E2
100
AcDbEntity
  8
VERMASSUNG
100
AcDbMText
 10
22.0704890014
 20
115.9278074871
 30
0.0
 40
2.0
 41
0.0
 71
     1
 72
     1
  1
50
  7
SLDTEXTSTYLE0
 11
6.123233995736766E-17
 21
1.0
 31
0.0
 73
     1
 44
1.0
  0
ENDBLK
  5
2E4
330
2E2
100
AcDbEntity
  8
0
100
AcDbBlockEnd
  0
BLOCK
  5
2ED
330
2EC
100
AcDbEntity
  8
0
100
AcDbBlockBegin
  2
SW_CENTERMARKSYMBOL_0
 70
     0
 10
0.0
 20
0.0
 30
0.0
  3
SW_CENTERMARKSYMBOL_0
  1

  0
LINE
  5
2EF
330
2EC
100
AcDbEntity
  8
VERMASSUNG
 62
     0
100
AcDbLine
 10
0.0
 20
0.0
 30
0.0
 11
0.0
 21
2.5
 31
0.0
  0
LINE
  5
2F0
330
2EC
100
AcDbEntity
  8
VERMASSUNG
 62
     0
100
AcDbLine
 10
0.0
 20
0.0
 30
0.0
 11
-2.5
 21
0.0
 31
0.0
  0
LINE
  5
2F1
330
2EC
100
AcDbEntity
  8
VERMASSUNG
 62
     0
100
AcDbLine
 10
0.0
 20
0.0
 30
0.0
 11
0.0
 21
-2.5
 31
0.0
  0
LINE
  5
2F2
330
2EC
100
AcDbEntity
  8
VERMASSUNG
 62
     0
100
AcDbLine
 10
0.0
 20
0.0
 30
0.0
 11
2.5
 21
0.0
 31
0.0
  0
LINE
  5
2F3
330
2EC
100
AcDbEntity
  8
VERMASSUNG
 62
     0
100
AcDbLine
 10
0.0
 20
5.0
 30
0.0
 11
0.0
 21
34.0
 31
0.0
  0
LINE
  5
2F4
330
2EC
100
AcDbEntity
  8
VERMASSUNG
 62
     0
100
AcDbLine
 10
-5.0
 20
0.0
 30
0.0
 11
-34.0
 21
0.0
 31
0.0
  0
LINE
  5
2F5
330
2EC
100
AcDbEntity
  8
VERMASSUNG
 62
     0
100
AcDbLine
 10
0.0
 20
-5.0
 30
0.0
 11
0.0
 21
-34.0
 31
0.0
  0
LINE
  5
2F6
330
2EC
100
AcDbEntity
  8
VERMASSUNG
 62
     0
100
AcDbLine
 10
5.0
 20
0.0
 30
0.0
 11
34.0
 21
0.0
 31
0.0
  0
ENDBLK
  5
2EE
330
2EC
100
AcDbEntity
  8
0
100
AcDbBlockEnd
  0
ENDSEC
  0
SECTION
  2
ENTITIES
  0
MTEXT
  5
45
330
1F
100
AcDbEntity
  8
KOPF_DÜNN
100
AcDbMText
 10
13.8892156294
 20
23.8442973028
 30
0.0
 40
3.0
 41
0.0
 71
     1
 72
     1
  1
HA6.PDF.LQC.140
  7
SLDTEXTSTYLE0
 73
     1
 44
1.0
  0
MTEXT
  5
46
330
1F
100
AcDbEntity
  8
VERMASSUNG
100
AcDbMText
 10
13.9329988022
 20
28.8834360957
 30
0.0
 40
3.0
 41
0.0
 71
     1
 72
     1
  1
Bohrstange_Boring bar
  7
SLDTEXTSTYLE0
 73
     1
 44
1.0
  0
MTEXT
  5
47
330
1F
100
AcDbEntity
  8
VERMASSUNG
100
AcDbMText
 10
98.8601118557
 20
13.8365368179
 30
0.0
 40
2.0
 41
0.0
 71
     1
 72
     1
  1
Datum: 03.03.2011
  7
SLDTEXTSTYLE0
 73
     1
 44
1.0
  0
MTEXT
  5
49
330
1F
100
AcDbEntity
  8
VERMASSUNG
100
AcDbMText
 10
13.933048693
 20
18.0482802738
 30
0.0
 40
2.0
 41
0.0
 71
     1
 72
     1
  1
DIN 69893 HSK 63 A ICTM / DN.. 15 04..
  7
SLDTEXTSTYLE1
 73
     1
 44
1.0
  0
MTEXT
  5
4A
330
1F
100
AcDbEntity
  8
VERMASSUNG
100
AcDbMText
 10
13.9808475933
 20
13.9090973692
 30
0.0
 40
2.0
 41
0.0
 71
     1
 72
     1
  1
Gewicht: 1574g
  7
SLDTEXTSTYLE0
 73
     1
 44
1.0
  0
LINE
  5
4B
330
1F
100
AcDbEntity
  8
0
  6
Continuous
 62
     7
370
    15
100
AcDbLine
 10
277.6082353365
 20
104.5523914305
 30
0.0
 11
277.1106798513
 21
105.5366296196
 31
0.0
  0
LINE
  5
4C
330
1F
100
AcDbEntity
  8
0
  6
Continuous
 62
     7
370
    15
100
AcDbLine
 10
267.1294256699
 20
95.3597197729
 30
0.0
 11
267.4598105323
 21
94.7061697501
 31
0.0
  0
LINE
  5
4D
330
1F
100
AcDbEntity
  8
0
  6
Continuous
 62
     7
370
    15
100
AcDbLine
 10
276.9979407688
 20
105.6703403033
 30
0.0
 11
276.7042635189
 21
106.2512772506
 31
0.0
  0
LINE
  5
4E
330
1F
100
AcDbEntity
  8
0
  6
Continuous
 62
     7
370
    15
100
AcDbLine
 10
269.9681577521
 20
99.5757582032
 30
0.0
 11
270.1654464074
 21
99.2029134443
 31
0.0
  0
LINE
  5
4F
330
1F
100
AcDbEntity
  8
0
  6
Continuous
 62
     7
370
    15
100
AcDbLine
 10
274.3214252769
 20
101.3978742869
 30
0.0
 11
274.2401561533
 21
101.5514602433
 31
0.0
  0
LINE
  5
50
330
1F
100
AcDbEntity
  8
0
  6
Continuous
 62
     7
370
    15
100
AcDbLine
 10
142.293553328
 20
86.0234203279
 30
0.0
 11
146.943553328
 21
86.0234203279
 31
0.0
  0
LINE
  5
51
330
1F
100
AcDbEntity
  8
0
  6
Continuous
 62
     7
370
    15
100
AcDbLine
 10
146.9477575254
 20
149.0234203279
 30
0.0
 11
142.293553328
 21
149.0234203279
 31
0.0
  0
ARC
  5
52
330
1F
100
AcDbEntity
  8
0
  6
Continuous
 62
     7
370
    15
100
AcDbCircle
 10
142.293553328
 20
86.3234203279
 30
0.0
 40
0.2999999999999972
100
AcDbArc
 50
180.0
 51
270.0
  0
ARC
  5
53
330
1F
100
AcDbEntity
  8
0
  6
Continuous
 62
     7
370
    15
100
AcDbCircle
 10
142.293553328
 20
148.7234203279
 30
0.0
 40
0.2999999999999829
100
AcDbArc
 50
90.0
 51
180.0
  0
ARC
  5
54
330
1F
100
AcDbEntity
  8
0
  6
Continuous
 62
     7
370
    15
100
AcDbCircle
 10
141.493553328
 20
92.9529894662
 30
0.0
 40
0.6000000000000099
100
AcDbArc
 50
33.5573097619
 51
90.0
  0
ARC
  5
55
330
1F
100
AcDbEntity
  8
0
  6
Continuous
 62
     7
370
    15
100
AcDbCircle
 10
141.493553328
 20
142.0938511897
 30
0.0
 40
0.5999999999999943
100
AcDbArc
 50
270.0
 51
326.4426902381
  0
LINE
  5
56
330
1F
100
AcDbEntity
  8
0
  6
Continuous
 62
     7
370
    15
100
AcDbLine
 10
139.993553328
 20
93.3029894662
 30
0.0
 11
140.8502661014
 21
93.532544962
 31
0.0
  0
LINE
  5
57
330
1F
100
AcDbEntity
  8
0
  6
Continuous
 62
     7
370
    15
100
AcDbLine
 10
140.8502661014
 20
141.5142956939
 30
0.0
 11
139.993553328
 21
141.7438511897
 31
0.0
  0
LINE
  5
58
330
1F
100
AcDbEntity
  8
0
  6
Continuous
 62
     7
370
    15
100
AcDbLine
 10
128.7631311455
 20
141.1812047877
 30
0.0
 11
116.193553328
 21
140.5514664201
 31
0.0
  0
LINE
  5
59
330
1F
100
AcDbEntity
  8
0
  6
Continuous
 62
     7
370
    15
100
AcDbLine
 10
139.993553328
 20
141.7438511897
 30
0.0
 11
137.1749439705
 21
141.602638296
 31
0.0
  0
LINE
  5
5A
330
1F
100
AcDbEntity
  8
0
  6
Continuous
 62
     7
370
    15
100
AcDbLine
 10
137.1751654457
 20
93.4441912639
 30
0.0
 11
139.993553328
 21
93.3029894662
 31
0.0
  0
LINE
  5
5B
330
1F
100
AcDbEntity
  8
0
  6
Continuous
 62
     7
370
    15
100
AcDbLine
 10
120.193553328
 20
94.2949734342
 30
0.0
 11
128.7638300972
 21
93.8656008505
 31
0.0
  0
ARC
  5
5C
330
1F
100
AcDbEntity
  8
0
  6
Continuous
 62
     7
370
    15
100
AcDbCircle
 10
141.0055575285
 20
92.9529894662
 30
0.0
 40
0.6000000000000227
100
AcDbArc
 50
90.0
 51
105.0
  0
ARC
  5
5D
330
1F
100
AcDbEntity
  8
0
  6
Continuous
 62
     7
370
    15
100
AcDbCircle
 10
141.0055575285
 20
142.0938511897
 30
0.0
 40
0.6000000000000081
100
AcDbArc
 50
255.0
 51
270.0
  0
LINE
  5
5E
330
1F
100
AcDbEntity
  8
0
  6
Continuous
 62
     7
370
    15
100
AcDbLine
 10
141.0055575285
 20
93.5529894662
 30
0.0
 11
141.493553328
 21
93.5529894662
 31
0.0
  0
LINE
  5
5F
330
1F
100
AcDbEntity
  8
0
  6
Continuous
 62
     7
370
    15
100
AcDbLine
 10
141.493553328
 20
141.4938511897
 30
0.0
 11
141.0055575285
 21
141.4938511897
 31
0.0
  0
ARC
  5
60
330
1F
100
AcDbEntity
  8
0
  6
Continuous
 62
     7
370
    15
100
AcDbCircle
 10
170.943553328
 20
94.5234203279
 30
0.0
 40
3.0
100
AcDbArc
 50
90.0
 51
180.0
  0
ARC
  5
61
330
1F
100
AcDbEntity
  8
0
  6
Continuous
 62
     7
370
    15
100
AcDbCircle
 10
170.943553328
 20
140.5234203279
 30
0.0
 40
3.0
100
AcDbArc
 50
180.0
 51
270.0
  0
LINE
  5
62
330
1F
100
AcDbEntity
  8
0
  6
Continuous
 62
     7
370
    15
100
AcDbLine
 10
170.943553328
 20
97.5234203279
 30
0.0
 11
251.3749587795
 21
97.5234203279
 31
0.0
  0
LINE
  5
63
330
1F
100
AcDbEntity
  8
0
  6
Continuous
 62
     7
370
    15
100
AcDbLine
 10
254.993553328
 20
137.5234203279
 30
0.0
 11
170.943553328
 21
137.5234203279
 31
0.0
  0
LINE
  5
64
330
1F
100
AcDbEntity
  8
0
  6
Continuous
 62
     7
370
    15
100
AcDbLine
 10
255.493553328
 20
138.0234203279
 30
0.0
 11
254.993553328
 21
137.5234203279
 31
0.0
  0
LINE
  5
65
330
1F
100
AcDbEntity
  8
0
  6
Continuous
 62
     7
370
    15
100
AcDbLine
 10
265.9529152643
 20
138.0234203279
 30
0.0
 11
255.493553328
 21
138.0234203279
 31
0.0
  0
LINE
  5
66
330
1F
100
AcDbEntity
  8
0
  6
Continuous
 62
     7
370
    15
100
AcDbLine
 10
111.243553328
 20
96.7109203279
 30
0.0
 11
118.793553328
 21
96.7109203279
 31
0.0
  0
ARC
  5
67
330
1F
100
AcDbEntity
  8
0
  6
Continuous
 62
     7
370
    15
100
AcDbCircle
 10
118.793553328
 20
95.3109203279
 30
0.0
 40
1.40000000000002
100
AcDbArc
 50
37.6443616934
 51
90.0
  0
LINE
  5
68
330
1F
100
AcDbEntity
  8
0
  6
Continuous
 62
     7
370
    15
100
AcDbLine
 10
111.2347167862
 20
138.3845837861
 30
0.0
 11
110.1034541014
 21
137.2533211013
 31
0.0
  0
LINE
  5
69
330
1F
100
AcDbEntity
  8
0
  6
Continuous
 62
     7
370
    15
100
AcDbLine
 10
110.0909724483
 20
97.8635012077
 30
0.0
 11
111.243553328
 21
96.7109203279
 31
0.0
  0
ARC
  5
6A
330
1F
100
AcDbEntity
  8
0
  6
Continuous
 62
     7
370
    15
100
AcDbCircle
 10
114.793553328
 20
139.7934203279
 30
0.0
 40
1.400000000000023
100
AcDbArc
 50
270.0
 51
301.7485287426
  0
LINE
  5
6B
330
1F
100
AcDbEntity
  8
0
  6
Continuous
 62
     7
370
    15
100
AcDbLine
 10
114.793553328
 20
138.3934203279
 30
0.0
 11
111.3844417295
 21
138.3934203279
 31
0.0
  0
LINE
  5
6C
330
1F
100
AcDbEntity
  8
0
  6
Continuous
 62
     7
370
    15
100
AcDbLine
 10
257.3055610367
 20
98.1914994075
 30
0.0
 11
267.2055639511
 21
95.3377725208
 31
0.0
  0
LINE
  5
6D
330
1F
100
AcDbEntity
  8
0
  6
Continuous
 62
     7
370
    15
100
AcDbLine
 10
263.0929043431
 20
108.2178406557
 30
0.0
 11
267.4373922739
 21
94.7606862566
 31
0.0
  0
ARC
  5
6E
330
1F
100
AcDbEntity
  8
0
  6
Continuous
 62
     7
370
    15
100
AcDbCircle
 10
263.4786330983
 20
108.3332065957
 30
0.0
 40
0.402611441385987
100
AcDbArc
 50
73.6567043647
 51
196.6511700213
  0
LINE
  5
6F
330
1F
100
AcDbEntity
  8
0
  6
Continuous
 62
     7
370
    15
100
AcDbLine
 10
277.3708800398
 20
104.7476947649
 30
0.0
 11
263.5919246996
 21
108.7195496891
 31
0.0
  0
ARC
  5
70
330
1F
100
AcDbEntity
  8
0
  6
Continuous
 62
     7
370
    15
100
AcDbCircle
 10
277.2665242377
 20
104.3792092043
 30
0.0
 40
0.3829774690865735
100
AcDbArc
 50
18.0502147823
 51
74.1877785237
  0
LINE
  5
71
330
1F
100
AcDbEntity
  8
0
  6
Continuous
 62
     7
370
    15
100
AcDbLine
 10
281.9751415257
 20
91.0407205249
 30
0.0
 11
277.6306535949
 21
104.497874924
 31
0.0
  0
ARC
  5
72
330
1F
100
AcDbEntity
  8
0
  6
Continuous
 62
     7
370
    15
100
AcDbCircle
 10
281.5894127705
 20
90.9253545849
 30
0.0
 40
0.4026114413859372
100
AcDbArc
 50
253.6567043647
 51
16.6511700213
  0
LINE
  5
73
330
1F
100
AcDbEntity
  8
0
  6
Continuous
 62
     7
370
    15
100
AcDbLine
 10
267.697165829
 20
94.5108664157
 30
0.0
 11
281.4761211692
 21
90.5390114915
 31
0.0
  0
ARC
  5
74
330
1F
100
AcDbEntity
  8
0
  6
Continuous
 62
     7
370
    15
100
AcDbCircle
 10
267.8015216311
 20
94.8793519763
 30
0.0
 40
0.3829774690858287
100
AcDbArc
 50
198.0502147822
 51
254.1877785237
  0
ARC
  5
75
330
1F
100
AcDbEntity
  8
0
  6
Continuous
 62
     7
370
    15
100
AcDbCircle
 10
281.5897293604
 20
90.924825652
 30
0.0
 40
0.3824808693167041
100
AcDbArc
 50
253.6567043647
 51
16.6511700213
  0
LINE
  5
76
330
1F
100
AcDbEntity
  8
0
  6
Continuous
 62
     7
370
    15
100
AcDbLine
 10
281.9561716779
 20
91.0344232951
 30
0.0
 11
277.6116837468
 21
104.4915776941
 31
0.0
  0
ARC
  5
77
330
1F
100
AcDbEntity
  8
0
  6
Continuous
 62
     7
370
    15
100
AcDbCircle
 10
277.2657608566
 20
104.3788452596
 30
0.0
 40
0.3638285967041637
100
AcDbArc
 50
18.0502148463
 51
74.1877783765
  0
LINE
  5
78
330
1F
100
AcDbEntity
  8
0
  6
Continuous
 62
     7
370
    15
100
AcDbLine
 10
277.3648988698
 20
104.728906543
 30
0.0
 11
263.5859435296
 21
108.7007614672
 31
0.0
  0
ARC
  5
79
330
1F
100
AcDbEntity
  8
0
  6
Continuous
 62
     7
370
    15
100
AcDbCircle
 10
263.4783165084
 20
108.3337355285
 30
0.0
 40
0.3824808693166959
100
AcDbArc
 50
73.6567043647
 51
196.6511700213
  0
LINE
  5
7A
330
1F
100
AcDbEntity
  8
0
  6
Continuous
 62
     7
370
    15
100
AcDbLine
 10
263.1118741909
 20
108.2241378854
 30
0.0
 11
267.4563621217
 21
94.7669834864
 31
0.0
  0
ARC
  5
7B
330
1F
100
AcDbEntity
  8
0
  6
Continuous
 62
     7
370
    15
100
AcDbCircle
 10
267.802285011
 20
94.8797159201
 30
0.0
 40
0.3638285956313767
100
AcDbArc
 50
198.0502147822
 51
254.1877785237
  0
LINE
  5
7C
330
1F
100
AcDbEntity
  8
0
  6
Continuous
 62
     7
370
    15
100
AcDbLine
 10
267.7031469991
 20
94.5296546375
 30
0.0
 11
281.4821023393
 21
90.5577997133
 31
0.0
  0
LINE
  5
7D
330
1F
100
AcDbEntity
  8
0
  6
Continuous
 62
     7
370
    15
100
AcDbLine
 10
263.4493684751
 20
108.3891497623
 30
0.0
 11
263.1118741909
 21
108.2241378854
 31
0.0
  0
LINE
  5
7E
330
1F
100
AcDbEntity
  8
0
  6
Continuous
 62
     7
370
    15
100
AcDbLine
 10
263.4493684751
 20
108.3891497623
 30
0.0
 11
263.5859435296
 21
108.7007614672
 31
0.0
  0
LINE
  5
7F
330
1F
100
AcDbEntity
  8
0
  6
Continuous
 62
     7
370
    15
100
AcDbLine
 10
276.8733245546
 20
105.7319329541
 30
0.0
 11
276.7934279458
 21
105.7549635635
 31
0.0
  0
LINE
  5
80
330
1F
100
AcDbEntity
  8
0
  6
Continuous
 62
     7
370
    15
100
AcDbLine
 10
264.9202475367
 20
107.0363193849
 30
0.0
 11
263.4493684751
 21
108.3891497623
 31
0.0
  0
LINE
  5
81
330
1F
100
AcDbEntity
  8
0
  6
Continuous
 62
     7
370
    15
100
AcDbLine
 10
277.2283238153
 20
104.4172948381
 30
0.0
 11
277.3648988698
 21
104.728906543
 31
0.0
  0
LINE
  5
82
330
1F
100
AcDbEntity
  8
0
  6
Continuous
 62
     7
370
    15
100
AcDbLine
 10
276.8596350226
 20
104.1244292618
 30
0.0
 11
277.2283238153
 21
104.4172948381
 31
0.0
  0
LINE
  5
83
330
1F
100
AcDbEntity
  8
0
  6
Continuous
 62
     7
370
    15
100
AcDbLine
 10
265.5606959407
 20
106.8517068301
 30
0.0
 11
264.9202475367
 21
107.0363193849
 31
0.0
  0
LINE
  5
84
330
1F
100
AcDbEntity
  8
0
  6
Continuous
 62
     7
370
    15
100
AcDbLine
 10
267.7938564059
 20
94.9319953633
 30
0.0
 11
267.4563621217
 21
94.7669834864
 31
0.0
  0
LINE
  5
85
330
1F
100
AcDbEntity
  8
0
  6
Continuous
 62
     7
370
    15
100
AcDbLine
 10
264.9202475367
 20
107.0363193849
 30
0.0
 11
265.1221801428
 21
106.4108283484
 31
0.0
  0
LINE
  5
86
330
1F
100
AcDbEntity
  8
0
  6
Continuous
 62
     7
370
    15
100
AcDbLine
 10
268.1103858204
 20
95.3280398884
 30
0.0
 11
267.7938564059
 21
94.9319953633
 31
0.0
  0
LINE
  5
87
330
1F
100
AcDbEntity
  8
0
  6
Continuous
 62
     7
370
    15
100
AcDbLine
 10
262.6459913899
 20
109.0452124011
 30
0.0
 11
263.8989031248
 21
105.1642885885
 31
0.0
  0
SPLINE
  5
88
330
1F
100
AcDbEntity
  8
0
  6
Continuous
 62
     7
370
    15
100
AcDbSpline
210
0.0
220
0.0
230
1.0
 70
     8
 71
     3
 72
    14
 73
    10
 74
     0
 42
0.00000001
 43
0.00000001
 40
0.0
 40
0.0
 40
0.0
 40
0.0
 40
0.2210591904779544
 40
0.3460797326519026
 40
0.4396016244131373
 40
0.5338897453199946
 40
0.6146561933587198
 40
0.7517253237593498
 40
1.0
 40
1.0
 40
1.0
 40
1.0
 10
265.702037231962
 20
106.2860919001881
 30
0.0
 10
265.7422719197002
 20
106.3291513941377
 30
0.0
 10
265.805261429187
 20
106.3965632855954
 30
0.0
 10
265.8598297451138
 20
106.500498848315
 30
0.0
 10
265.8756530755242
 20
106.5822520602915
 30
0.0
 10
265.8610784567853
 20
106.6525227033113
 30
0.0
 10
265.8163058348691
 20
106.7211245878173
 30
0.0
 10
265.7193804001398
 20
106.7980181254616
 30
0.0
 10
265.6228742606859
 20
106.8306696506171
 30
0.0
 10
265.5606959406632
 20
106.8517068301358
 30
0.0
  0
ARC
  5
89
330
1F
100
AcDbEntity
  8
0
  6
Continuous
 62
     7
370
    15
100
AcDbCircle
 10
267.478334274
 20
104.4800273149
 30
0.0
 40
1.006528603464899
100
AcDbArc
 50
73.6567043647
 51
196.6511700213
  0
LINE
  5
8A
330
1F
100
AcDbEntity
  8
0
  6
Continuous
 62
     7
370
    15
100
AcDbLine
 10
265.702037232
 20
106.2860919002
 30
0.0
 11
265.7004038773
 21
106.2844497452
 31
0.0
  0
SPLINE
  5
8B
330
1F
100
AcDbEntity
  8
0
  6
Continuous
 62
     7
370
    15
100
AcDbSpline
210
0.0
220
0.0
230
1.0
 70
     8
 71
     3
 72
    14
 73
    10
 74
     0
 42
0.00000001
 43
0.00000001
 40
0.0
 40
0.0
 40
0.0
 40
0.0
 40
0.223496825397379
 40
0.3567622963774483
 40
0.4531212562341358
 40
0.5344619041500727
 40
0.6157317558035335
 40
0.7396161778921744
 40
1.0
 40
1.0
 40
1.0
 40
1.0
 10
265.1221801428061
 20
106.4108283484335
 30
0.0
 10
265.1424956619932
 20
106.356272274857
 30
0.0
 10
265.1749248084224
 20
106.2691858025731
 30
0.0
 10
265.2475663300947
 20
106.1747891246539
 30
0.0
 10
265.3147056512858
 20
106.1270859868056
 30
0.0
 10
265.3818736328007
 20
106.109011283292
 30
0.0
 10
265.458847096641
 20
106.1154992912767
 30
0.0
 10
265.5746449057074
 20
106.1660375626645
 30
0.0
 10
265.6496081017193
 20
106.2366214385821
 30
0.0
 10
265.7004038773001
 20
106.2844497451575
 30
0.0
  0
LINE
  5
8C
330
1F
100
AcDbEntity
  8
0
  6
Continuous
 62
     7
370
    15
100
AcDbLine
 10
266.5140123859
 20
104.1916124648
 30
0.0
 11
268.945465295
 21
96.6601294146
 31
0.0
  0
LINE
  5
8D
330
1F
100
AcDbEntity
  8
0
  6
Continuous
 62
     7
370
    15
100
AcDbLine
 10
275.4731466859
 20
103.2229813682
 30
0.0
 11
267.7615632771
 21
105.4458850484
 31
0.0
  0
ARC
  5
8E
330
1F
100
AcDbEntity
  8
0
  6
Continuous
 62
     7
370
    15
100
AcDbCircle
 10
275.2122571807
 20
102.3017674666
 30
0.0
 40
0.9574436727144601
100
AcDbArc
 50
18.0502147822
 51
74.1877785237
  0
LINE
  5
8F
330
1F
100
AcDbEntity
  8
0
  6
Continuous
 62
     7
370
    15
100
AcDbLine
 10
278.5540334829
 20
95.0669487157
 30
0.0
 11
276.1225805738
 21
102.5984317659
 31
0.0
  0
ARC
  5
90
330
1F
100
AcDbEntity
  8
0
  6
Continuous
 62
     7
370
    15
100
AcDbCircle
 10
277.589711595
 20
94.7785338652
 30
0.0
 40
1.006528603433054
100
AcDbArc
 50
253.6567043497
 51
16.6511700424
  0
LINE
  5
91
330
1F
100
AcDbEntity
  8
0
  6
Continuous
 62
     7
370
    15
100
AcDbLine
 10
269.5948991829
 20
96.0355798123
 30
0.0
 11
277.3064825917
 21
93.8126761318
 31
0.0
  0
ARC
  5
92
330
1F
100
AcDbEntity
  8
0
  6
Continuous
 62
     7
370
    15
100
AcDbCircle
 10
269.8557886881
 20
96.9567937139
 30
0.0
 40
0.957443672715072
100
AcDbArc
 50
198.0502147822
 51
254.1877785237
  0
LWPOLYLINE
  5
93
330
1F
100
AcDbEntity
  8
0
  6
Continuous
 62
     7
370
    15
100
AcDbPolyline
 90
       23
 70
   128
 43
0.0
 10
271.7624520001
 20
97.2055999705
 10
272.4831367043
 20
97.1050441227
 10
273.2079439082
 20
97.2089869013
 10
273.8781540427
 20
97.5090074806
 10
274.4394706688
 20
97.9807999774
 10
274.8464192515
 20
98.5861425696
 10
275.066031237
 20
99.2759940005
 10
275.0805149682
 20
99.9944666098
 10
274.8886970594
 20
100.6833540196
 10
274.5061174568
 20
101.286846669
 10
273.9637704845
 20
101.7560531726
 10
273.3055938687
 20
102.0529612101
 10
272.5849091645
 20
102.1535170578
 10
271.8601019606
 20
102.0495742792
 10
271.189891826
 20
101.7495537
 10
270.6285752
 20
101.2777612032
 10
270.2216266173
 20
100.672418611
 10
270.0020146318
 20
99.9825671801
 10
269.9875309006
 20
99.2640945708
 10
270.1793488094
 20
98.575207161
 10
270.561928412
 20
97.9717145116
 10
271.1042753843
 20
97.5025080079
 10
271.7624520001
 20
97.2055999705
  0
LWPOLYLINE
  5
94
330
1F
100
AcDbEntity
  8
0
  6
Continuous
 62
     7
370
    15
100
AcDbPolyline
 90
        3
 70
   128
 43
0.0
 10
274.5810273435
 20
100.3445779771
 10
274.582959483
 20
100.978704799
 10
274.5314965177
 20
101.2569324054
  0
ARC
  5
95
330
1F
100
AcDbEntity
  8
0
  6
Continuous
 62
     7
370
    15
100
AcDbCircle
 10
271.946324308
 20
100.5812261428
 30
0.0
 40
2.486580045544454
100
AcDbArc
 50
219.9103125937
 51
254.0950580755
  0
LINE
  5
96
330
1F
100
AcDbEntity
  8
0
  6
Continuous
 62
     7
370
    15
100
AcDbLine
 10
277.2283238153
 20
104.4172948381
 30
0.0
 11
277.6116837468
 21
104.4915776941
 31
0.0
  0
LINE
  5
97
330
1F
100
AcDbEntity
  8
0
  6
Continuous
 62
     7
370
    15
100
AcDbLine
 10
281.5728117461
 20
90.9601404391
 30
0.0
 11
281.9561716779
 21
91.0344232951
 31
0.0
  0
LINE
  5
98
330
1F
100
AcDbEntity
  8
0
  6
Continuous
 62
     7
370
    15
100
AcDbLine
 10
279.9805527909
 20
92.5530781617
 30
0.0
 11
281.5728117461
 21
90.9601404391
 31
0.0
  0
LINE
  5
99
330
1F
100
AcDbEntity
  8
0
  6
Continuous
 62
     7
370
    15
100
AcDbLine
 10
279.9805527909
 20
92.5530781617
 30
0.0
 11
279.7786201848
 21
93.1785691982
 31
0.0
  0
ARC
  5
9A
330
1F
100
AcDbEntity
  8
0
  6
Continuous
 62
     7
370
    15
100
AcDbCircle
 10
276.7680240314
 20
105.3620769975
 30
0.0
 40
0.3845538048630256
100
AcDbArc
 50
26.9947909499
 51
74.1079839096
  0
SPLINE
  5
9B
330
1F
100
AcDbEntity
  8
0
  6
Continuous
 62
     7
370
    15
100
AcDbSpline
210
0.0
220
0.0
230
1.0
 70
     8
 71
     3
 72
    11
 73
     7
 74
     0
 42
0.00000001
 43
0.00000001
 40
0.0
 40
0.0
 40
0.0
 40
0.0
 40
0.3280455501578828
 40
0.6557028173709353
 40
0.9906967996087963
 40
1.0
 40
1.0
 40
1.0
 40
1.0
 10
276.8596350226053
 20
104.1244292617774
 30
0.0
 10
276.8042551146259
 20
104.0778190878403
 30
0.0
 10
276.6935608477159
 20
103.9846539089374
 30
0.0
 10
276.5225262255804
 20
103.8087791889323
 30
0.0
 10
276.4197789129125
 20
103.6878052075047
 30
0.0
 10
276.3734362534801
 20
103.6283266827929
 30
0.0
 10
276.3721840357185
 20
103.6267195228674
 30
0.0
  0
SPLINE
  5
9C
330
1F
100
AcDbEntity
  8
0
  6
Continuous
 62
     7
370
    15
100
AcDbSpline
210
0.0
220
0.0
230
1.0
 70
     8
 71
     3
 72
    11
 73
     7
 74
     0
 42
0.00000001
 43
0.00000001
 40
0.0
 40
0.0
 40
0.0
 40
0.0
 40
0.3280455501579707
 40
0.6557028173711227
 40
0.9906967996087782
 40
1.0
 40
1.0
 40
1.0
 40
1.0
 10
268.1103858203688
 20
95.32803988842892
 30
0.0
 10
268.1596869563727
 20
95.3866747705648
 30
0.0
 10
268.2582308743188
 20
95.50387513311874
 30
0.0
 10
268.4318922985352
 20
95.67455365089079
 30
0.0
 10
268.54648668014
 20
95.7720923813225
 30
0.0
 10
268.6014675308286
 20
95.81448328872746
 30
0.0
 10
268.6029531598068
 20
95.81562872681484
 30
0.0
  0
LINE
  5
9D
330
1F
100
AcDbEntity
  8
0
  6
Continuous
 62
     7
370
    15
100
AcDbLine
 10
281.5728117461
 20
90.9601404391
 30
0.0
 11
281.4821023393
 21
90.5577997133
 31
0.0
  0
LINE
  5
9E
330
1F
100
AcDbEntity
  8
0
  6
Continuous
 62
     7
370
    15
100
AcDbLine
 10
267.7938564059
 20
94.9319953633
 30
0.0
 11
267.7031469991
 21
94.5296546375
 31
0.0
  0
LINE
  5
9F
330
1F
100
AcDbEntity
  8
0
  6
Continuous
 62
     7
370
    15
100
AcDbLine
 10
279.3401043869
 20
92.7376907165
 30
0.0
 11
279.9805527909
 21
92.5530781617
 31
0.0
  0
LINE
  5
A0
330
1F
100
AcDbEntity
  8
0
  6
Continuous
 62
     7
370
    15
100
AcDbLine
 10
279.1987630956
 20
93.3033056464
 30
0.0
 11
279.2003964503
 21
93.3049478015
 31
0.0
  0
SPLINE
  5
A1
330
1F
100
AcDbEntity
  8
0
  6
Continuous
 62
     7
370
    15
100
AcDbSpline
210
0.0
220
0.0
230
1.0
 70
     8
 71
     3
 72
    14
 73
    10
 74
     0
 42
0.00000001
 43
0.00000001
 40
0.0
 40
0.0
 40
0.0
 40
0.0
 40
0.2234968253974478
 40
0.3567622963773817
 40
0.4531212562341487
 40
0.5344619041500559
 40
0.6157317558036585
 40
0.7396161778921445
 40
0.9999999999999999
 40
0.9999999999999999
 40
0.9999999999999999
 40
0.9999999999999999
 10
279.778620184791
 20
93.17856919818726
 30
0.0
 10
279.7583046656038
 20
93.23312527176378
 30
0.0
 10
279.7258755191744
 20
93.32021174404758
 30
0.0
 10
279.6532339975023
 20
93.41460842196696
 30
0.0
 10
279.5860946763111
 20
93.46231155981522
 30
0.0
 10
279.5189266947962
 20
93.4803862633288
 30
0.0
 10
279.4419532309559
 20
93.47389825534414
 30
0.0
 10
279.3261554218896
 20
93.42335998395623
 30
0.0
 10
279.2511922258776
 20
93.35277610803865
 30
0.0
 10
279.2003964502969
 20
93.3049478014633
 30
0.0
  0
SPLINE
  5
A2
330
1F
100
AcDbEntity
  8
0
  6
Continuous
 62
     7
370
    15
100
AcDbSpline
210
0.0
220
0.0
230
1.0
 70
     8
 71
     3
 72
    14
 73
    10
 74
     0
 42
0.00000001
 43
0.00000001
 40
0.0
 40
0.0
 40
0.0
 40
0.0
 40
0.2210591904779439
 40
0.3460797326518867
 40
0.439601624413097
 40
0.5338897453199685
 40
0.6146561933587591
 40
0.7517253237593668
 40
1.0
 40
1.0
 40
1.0
 40
1.0
 10
279.1987630956349
 20
93.30330564643269
 30
0.0
 10
279.1585284078968
 20
93.26024615248305
 30
0.0
 10
279.09553889841
 20
93.19283426102537
 30
0.0
 10
279.0409705824832
 20
93.08889869830575
 30
0.0
 10
279.0251472520726
 20
93.00714548632932
 30
0.0
 10
279.0397218708116
 20
92.9368748433095
 30
0.0
 10
279.0844944927279
 20
92.86827295880357
 30
0.0
 10
279.1814199274573
 20
92.79137942115925
 30
0.0
 10
279.277926066911
 20
92.75872789600376
 30
0.0
 10
279.3401043869337
 20
92.73769071648503
 30
0.0
  0
LINE
  5
A3
330
1F
100
AcDbEntity
  8
0
  6
Continuous
 62
     7
370
    15
100
AcDbLine
 10
262.9400404799
 20
108.1343883711
 30
0.0
 11
263.8989031248
 21
105.1642885885
 31
0.0
  0
LINE
  5
A4
330
1F
100
AcDbEntity
  8
0
  6
Continuous
 62
     7
370
    15
100
AcDbLine
 10
262.4638858136
 20
109.0894628933
 30
0.0
 11
262.4738435338
 21
109.0565947416
 31
0.0
  0
LINE
  5
A5
330
1F
100
AcDbEntity
  8
0
  6
Continuous
 62
     7
370
    15
100
AcDbLine
 10
262.4738435338
 20
109.0565947416
 30
0.0
 11
263.4327061786
 21
106.086494959
 31
0.0
  0
ARC
  5
A6
330
1F
100
AcDbEntity
  8
0
  6
Continuous
 62
     7
370
    15
100
AcDbCircle
 10
275.8582975227
 20
105.8235026855
 30
0.0
 40
0.9479712787022928
100
AcDbArc
 50
26.8240820255
 51
41.4675912157
  0
LINE
  5
A7
330
1F
100
AcDbEntity
  8
0
  6
Continuous
 62
     7
370
    15
100
AcDbLine
 10
270.9083287522
 20
98.3222545245
 30
0.0
 11
271.053091296
 21
98.2948989604
 31
0.0
  0
ARC
  5
A8
330
1F
100
AcDbEntity
  8
0
  6
Continuous
 62
     7
370
    15
100
AcDbCircle
 10
274.6373157187
 20
101.2253367498
 30
0.0
 40
0.1623786236348253
100
AcDbArc
 50
214.597839638
 51
244.8587978713
  0
LINE
  5
A9
330
1F
100
AcDbEntity
  8
0
  6
Continuous
 62
     7
370
    15
100
AcDbLine
 10
274.5083800642
 20
101.2842188186
 30
0.0
 11
274.5036524916
 21
101.1331361038
 31
0.0
  0
LINE
  5
AA
330
1F
100
AcDbEntity
  8
0
  6
Continuous
 62
     7
370
    15
100
AcDbLine
 10
274.3355838076
 20
101.4656007677
 30
0.0
 11
274.5036524916
 21
101.1331361038
 31
0.0
  0
LWPOLYLINE
  5
AB
330
1F
100
AcDbEntity
  8
0
  6
Continuous
 62
     7
370
    15
100
AcDbPolyline
 90
       27
 70
   128
 43
0.0
 10
268.8857017629
 20
111.1577941633
 10
268.1973112544
 20
110.6707921142
 10
267.4140861777
 20
110.3574622035
 10
266.5815447275
 20
110.2360140267
 10
265.7480711867
 20
110.3135057105
 10
264.9621040078
 20
110.5854337198
 10
264.2693207465
 20
111.0359945872
 10
263.7099834477
 20
111.6390033527
 10
263.3165987622
 20
112.3594153388
 10
263.1120287779
 20
113.1553628194
 10
263.1081623587
 20
113.9805882201
 10
263.305224207
 20
114.7871324402
 10
263.6917618043
 20
115.5281220613
 10
264.2453109905
 20
116.1604934599
 10
264.9337014991
 20
116.6474955091
 10
265.7169265757
 20
116.9608254198
 10
266.5494680259
 20
117.0822735965
 10
267.3829415667
 20
117.0047819128
 10
268.1689087456
 20
116.7328539035
 10
268.8616920069
 20
116.2822930361
 10
269.4210293057
 20
115.6792842706
 10
269.8144139912
 20
114.9588722845
 10
270.0189839755
 20
114.1629248039
 10
270.0228503947
 20
113.3376994032
 10
269.8257885464
 20
112.5311551831
 10
269.4392509491
 20
111.790165562
 10
268.8857017629
 20
111.1577941633
  0
LWPOLYLINE
  5
AC
330
1F
100
AcDbEntity
  8
0
  6
Continuous
 62
     7
370
    15
100
AcDbPolyline
 90
       20
 70
   128
 43
0.0
 10
267.8913323117
 20
112.2298011555
 10
267.3380545785
 20
111.8733191484
 10
266.7010592603
 20
111.7103589534
 10
266.0493746839
 20
111.7585798364
 10
265.453620985
 20
112.0127563164
 10
264.9783573209
 20
112.4453444278
 10
264.6750858842
 20
113.0094665365
 10
264.5766708408
 20
113.6439912588
 10
264.6937769877
 20
114.2801579952
 10
265.0137140567
 20
114.8490282089
 10
265.5018119021
 20
115.2889559851
 10
266.1051775488
 20
115.5522683232
 10
266.7584269667
 20
115.6104312456
 10
267.3907704453
 20
115.4571418972
 10
267.9336837567
 20
115.1090115574
 10
268.3283338195
 20
114.6037655504
 10
268.5319541758
 20
113.9961551206
 10
268.5224794005
 20
113.3520242862
 10
268.3009362325
 20
112.7411746179
 10
267.8913323117
 20
112.2298011555
  0
SPLINE
  5
AD
330
1F
100
AcDbEntity
  8
0
  6
Continuous
 62
     7
370
    15
100
AcDbSpline
210
0.0
220
0.0
230
1.0
 70
     8
 71
     3
 72
    11
 73
     7
 74
     0
 42
0.00000001
 43
0.00000001
 40
0.0
 40
0.0
 40
0.0
 40
0.0
 40
0.1081100880371194
 40
0.4711580666043618
 40
0.8135808430836203
 40
1.0
 40
1.0
 40
1.0
 40
1.0
 10
266.1851684421771
 20
115.3652327162809
 30
0.0
 10
266.1388366843724
 20
115.3318919335504
 30
0.0
 10
265.9369167541789
 20
115.1865883914331
 30
0.0
 10
265.5634298741782
 20
114.888351158365
 30
0.0
 10
265.1711833721449
 20
114.5057753650565
 30
0.0
 10
264.9714837780787
 20
114.2855193110218
 30
0.0
 10
264.9010887741815
 20
114.2078780626525
 30
0.0
  0
SPLINE
  5
AE
330
1F
100
AcDbEntity
  8
0
  6
Continuous
 62
     7
370
    15
100
AcDbSpline
210
0.0
220
0.0
230
1.0
 70
     8
 71
     3
 72
    10
 73
     6
 74
     0
 42
0.00000001
 43
0.00000001
 40
0.0
 40
0.0
 40
0.0
 40
0.0
 40
0.4391165375903836
 40
0.7513669429073421
 40
1.0
 40
1.0
 40
1.0
 40
1.0
 10
264.9010887741815
 20
114.2078780626525
 30
0.0
 10
264.9407887915157
 20
113.992812578023
 30
0.0
 10
265.0087190061724
 20
113.6248166546683
 30
0.0
 10
265.1423461129634
 20
113.0208746805125
 30
0.0
 10
265.219303905182
 20
112.6996076488664
 30
0.0
 10
265.2534183913966
 20
112.5571937437067
 30
0.0
  0
SPLINE
  5
AF
330
1F
100
AcDbEntity
  8
0
  6
Continuous
 62
     7
370
    15
100
AcDbSpline
210
0.0
220
0.0
230
1.0
 70
     8
 71
     3
 72
    10
 73
     6
 74
     0
 42
0.00000001
 43
0.00000001
 40
0.0
 40
0.0
 40
0.0
 40
0.0
 40
0.4391165375904053
 40
0.7513669429073467
 40
1.0
 40
1.0
 40
1.0
 40
1.0
 10
265.2534183913966
 20
112.5571937437067
 30
0.0
 10
265.4769443124523
 20
112.5078125000414
 30
0.0
 10
265.8594167852171
 20
112.4233168572826
 30
0.0
 10
266.4502866186732
 20
112.2314926128388
 30
0.0
 10
266.7548280387753
 20
112.1153491240581
 30
0.0
 10
266.8898276766075
 20
112.0638640783894
 30
0.0
  0
SPLINE
  5
B0
330
1F
100
AcDbEntity
  8
0
  6
Continuous
 62
     7
370
    15
100
AcDbSpline
210
0.0
220
0.0
230
1.0
 70
     8
 71
     3
 72
    11
 73
     7
 74
     0
 42
0.00000001
 43
0.00000001
 40
0.0
 40
0.0
 40
0.0
 40
0.0
 40
0.1864191569163776
 40
0.52884193339566
 40
0.8918899119628846
 40
1.0
 40
1.0
 40
1.0
 40
1.0
 10
266.8898276766075
 20
112.0638640783894
 30
0.0
 10
266.9602226805046
 20
112.1415053267587
 30
0.0
 10
267.1599222745709
 20
112.3617613807934
 30
0.0
 10
267.5521687766042
 20
112.744337174102
 30
0.0
 10
267.9256556566049
 20
113.0425744071701
 30
0.0
 10
268.1275755867983
 20
113.1878779492873
 30
0.0
 10
268.1739073446031
 20
113.2212187320179
 30
0.0
  0
SPLINE
  5
B1
330
1F
100
AcDbEntity
  8
0
  6
Continuous
 62
     7
370
    15
100
AcDbSpline
210
0.0
220
0.0
230
1.0
 70
     8
 71
     3
 72
    10
 73
     6
 74
     0
 42
0.00000001
 43
0.00000001
 40
0.0
 40
0.0
 40
0.0
 40
0.0
 40
0.4391165375904228
 40
0.7513669429073496
 40
1.0
 40
1.0
 40
1.0
 40
1.0
 10
268.1739073446031
 20
113.2212187320179
 30
0.0
 10
268.1127299601582
 20
113.4787696188673
 30
0.0
 10
268.0080500850216
 20
113.9194617949283
 30
0.0
 10
267.8907579398759
 20
114.4910908038973
 30
0.0
 10
267.8428255800343
 20
114.7549412461266
 30
0.0
 10
267.8215777273879
 20
114.8719030509637
 30
0.0
  0
SPLINE
  5
B2
330
1F
100
AcDbEntity
  8
0
  6
Continuous
 62
     7
370
    15
100
AcDbSpline
210
0.0
220
0.0
230
1.0
 70
     8
 71
     3
 72
    10
 73
     6
 74
     0
 42
0.00000001
 43
0.00000001
 40
0.0
 40
0.0
 40
0.0
 40
0.0
 40
0.439116537590424
 40
0.75136694290734
 40
1.0
 40
1.0
 40
1.0
 40
1.0
 10
267.8215777273879
 20
114.8719030509637
 30
0.0
 10
267.5765744392216
 20
114.9637696968489
 30
0.0
 10
267.1573523059769
 20
115.1209615923139
 30
0.0
 10
266.5828174341661
 20
115.2804728715711
 30
0.0
 10
266.307301446441
 20
115.3391997709349
 30
0.0
 10
266.1851684421771
 20
115.3652327162809
 30
0.0
  0
LINE
  5
B3
330
1F
100
AcDbEntity
  8
0
  6
Continuous
 62
     7
370
    15
100
AcDbLine
 10
267.7838018089
 20
113.9929050616
 30
0.0
 11
268.1739073446
 21
113.221218732
 31
0.0
  0
LINE
  5
B4
330
1F
100
AcDbEntity
  8
0
  6
Continuous
 62
     7
370
    15
100
AcDbLine
 10
267.7838018089
 20
113.9929050616
 30
0.0
 11
267.6076370002
 21
114.8182472211
 31
0.0
  0
LINE
  5
B5
330
1F
100
AcDbEntity
  8
0
  6
Continuous
 62
     7
370
    15
100
AcDbLine
 10
267.6076370002
 20
114.8182472211
 30
0.0
 11
267.5776746008
 21
114.9586227686
 31
0.0
  0
LINE
  5
B6
330
1F
100
AcDbEntity
  8
0
  6
Continuous
 62
     7
370
    15
100
AcDbLine
 10
265.0914925838
 20
113.2600905413
 30
0.0
 11
265.6815174983
 21
113.0822152406
 31
0.0
  0
LINE
  5
B7
330
1F
100
AcDbEntity
  8
0
  6
Continuous
 62
     7
370
    15
100
AcDbLine
 10
265.6815174983
 20
113.0822152406
 30
0.0
 11
266.4997221409
 21
112.835550408
 31
0.0
  0
LINE
  5
B8
330
1F
100
AcDbEntity
  8
0
  6
Continuous
 62
     7
370
    15
100
AcDbLine
 10
266.4997221409
 20
112.835550408
 30
0.0
 11
266.8898276766
 21
112.0638640784
 31
0.0
  0
LINE
  5
B9
330
1F
100
AcDbEntity
  8
0
  6
Continuous
 62
     7
370
    15
100
AcDbLine
 10
266.4997221409
 20
112.835550408
 30
0.0
 11
267.1417619749
 21
113.4142277348
 31
0.0
  0
LINE
  5
BA
330
1F
100
AcDbEntity
  8
0
  6
Continuous
 62
     7
370
    15
100
AcDbLine
 10
267.1417619749
 20
113.4142277348
 30
0.0
 11
267.7838018089
 21
113.9929050616
 31
0.0
  0
ARC
  5
BB
330
1F
100
AcDbEntity
  8
0
  6
Continuous
 62
     7
370
    15
100
AcDbCircle
 10
266.0962369155
 20
114.469698834
 30
0.0
 40
1.448137741036944
100
AcDbArc
 50
221.42770915
 51
253.358573032
  0
LINE
  5
BC
330
1F
100
AcDbEntity
  8
0
  6
Continuous
 62
     7
370
    15
100
AcDbLine
 10
267.5663441964
 20
114.9700876532
 30
0.0
 11
267.6076370002
 21
114.8182472211
 31
0.0
  0
ARC
  5
BD
330
1F
100
AcDbEntity
  8
0
  6
Continuous
 62
     7
370
    15
100
AcDbCircle
 10
266.1591341839
 20
114.5195805385
 30
0.0
 40
1.478973358839556
100
AcDbArc
 50
311.6362021779
 51
11.6505387796
  0
ARC
  5
BE
330
1F
100
AcDbEntity
  8
0
  6
Continuous
 62
     7
370
    15
100
AcDbCircle
 10
266.1161514431
 20
114.547826641
 30
0.0
 40
1.52869991922397
100
AcDbArc
 50
253.4820291794
 51
312.1368562097
  0
ELLIPSE
  5
BF
330
1F
100
AcDbEntity
  8
0
  6
Continuous
 62
     7
370
    15
100
AcDbEllipse
 10
272.2434358422
 20
100.3003938656
 30
0.0
 11
2.093693997070261
 21
1.067244736648988
 31
0.0
210
0.0
220
0.0
230
1.0
 40
0.9741125884
 41
4.644692127047971
 42
6.383362133218761
  0
ELLIPSE
  5
C0
330
1F
100
AcDbEntity
  8
0
  6
Continuous
 62
     7
370
    15
100
AcDbEllipse
 10
272.2434358422
 20
100.3003938656
 30
0.0
 11
2.093693997070261
 21
1.067244736648988
 31
0.0
210
0.0
220
0.0
230
1.0
 40
0.9741125884
 41
2.91902443896337
 42
4.644692127047974
  0
LINE
  5
C1
330
1F
100
AcDbEntity
  8
0
  6
Continuous
 62
     7
370
    15
100
AcDbLine
 10
167.343553328
 20
87.3365026317
 30
0.0
 11
163.3854861595
 21
87.3365026317
 31
0.0
  0
LINE
  5
C2
330
1F
100
AcDbEntity
  8
0
  6
Continuous
 62
     7
370
    15
100
AcDbLine
 10
163.3854861595
 20
87.3365026317
 30
0.0
 11
163.3854861595
 21
137.3734203279
 31
0.0
  0
LINE
  5
C3
330
1F
100
AcDbEntity
  8
0
  6
Continuous
 62
     7
370
    15
100
AcDbLine
 10
163.3854861595
 20
137.3734203279
 30
0.0
 11
167.343553328
 21
137.3734203279
 31
0.0
  0
LINE
  5
C4
330
1F
100
AcDbEntity
  8
0
  6
Continuous
 62
     7
370
    15
100
AcDbLine
 10
167.943553328
 20
87.9631429274
 30
0.0
 11
167.943553328
 21
137.3734203279
 31
0.0
  0
SPLINE
  5
C5
330
1F
100
AcDbEntity
  8
0
  6
Continuous
 62
     7
370
    15
100
AcDbSpline
210
0.0
220
0.0
230
1.0
 70
     8
 71
     3
 72
    10
 73
     6
 74
     0
 42
0.00000001
 43
0.00000001
 40
0.0
 40
0.0
 40
0.0
 40
0.0
 40
0.5
 40
0.5
 40
1.0
 40
1.0
 40
1.0
 40
1.0
 10
167.9435533280404
 20
87.9631429273507
 30
0.0
 10
167.9435533280403
 20
87.80325565915705
 30
0.0
 10
167.8822436768045
 20
87.64212840364246
 30
0.0
 10
167.6631440392694
 20
87.40802940528762
 30
0.0
 10
167.505095832956
 20
87.3365026316964
 30
0.0
 10
167.3435533280403
 20
87.3365026316964
 30
0.0
  0
SPLINE
  5
C6
330
1F
100
AcDbEntity
  8
0
  6
Continuous
 62
     7
370
    15
100
AcDbSpline
210
0.0
220
0.0
230
1.0
 70
    24
 71
     3
 72
    12
 73
     8
 74
     0
 42
0.00000001
 43
0.00000001
 40
0.0
 40
0.0
 40
0.0
 40
0.0
 40
0.249999999999998
 40
0.249999999999998
 40
0.499999999999996
 40
0.499999999999996
 40
1.0
 40
1.0
 40
1.0
 40
1.0
 10
167.3435533280403
 20
137.3734203279436
 30
0.0
 10
167.4337923957274
 20
137.3734203279436
 30
0.0
 10
167.5246905098339
 20
137.3734203279436
 30
0.0
 10
167.6792875463224
 20
137.3734203279436
 30
0.0
 10
167.7442659624305
 20
137.3734203279436
 30
0.0
 10
167.8961009903668
 20
137.3734203279436
 30
0.0
 10
167.9435533280403
 20
137.3734203279436
 30
0.0
 10
167.9435533280403
 20
137.3734203279436
 30
0.0
  0
SPLINE
  5
C7
330
1F
100
AcDbEntity
  8
0
  6
Continuous
 62
     7
370
    15
100
AcDbSpline
210
0.0
220
0.0
230
1.0
 70
     8
 71
     3
 72
     8
 73
     4
 74
     0
 42
0.00000001
 43
0.00000001
 40
0.0
 40
0.0
 40
0.0
 40
0.0
 40
1.0
 40
1.0
 40
1.0
 40
1.0
 10
163.3854861595294
 20
87.33650263169638
 30
0.0
 10
162.8900064988636
 20
88.23202871962971
 30
0.0
 10
162.3958924508215
 20
89.12831313468196
 30
0.0
 10
161.9035533280403
 20
90.02558316888864
 30
0.0
  0
LINE
  5
C8
330
1F
100
AcDbEntity
  8
0
  6
Continuous
 62
     7
370
    15
100
AcDbLine
 10
161.903553328
 20
90.0255831689
 30
0.0
 11
161.903553328
 21
137.3734203279
 31
0.0
  0
SPLINE
  5
C9
330
1F
100
AcDbEntity
  8
0
  6
Continuous
 62
     7
370
    15
100
AcDbSpline
210
0.0
220
0.0
230
1.0
 70
    24
 71
     3
 72
     8
 73
     4
 74
     0
 42
0.00000001
 43
0.00000001
 40
0.0
 40
0.0
 40
0.0
 40
0.0
 40
1.0
 40
1.0
 40
1.0
 40
1.0
 10
161.9035533280403
 20
137.3734203279436
 30
0.0
 10
162.3835053224053
 20
137.3734203279436
 30
0.0
 10
162.8788060513789
 20
137.3734203279436
 30
0.0
 10
163.3854861595294
 20
137.3734203279436
 30
0.0
  0
LINE
  5
CA
330
1F
100
AcDbEntity
  8
0
  6
Continuous
 62
     7
370
    15
100
AcDbLine
 10
146.943553328
 20
137.3734203279
 30
0.0
 11
156.6016204966
 21
137.3734203279
 31
0.0
  0
LINE
  5
CB
330
1F
100
AcDbEntity
  8
0
  6
Continuous
 62
     7
370
    15
100
AcDbLine
 10
156.6016204966
 20
87.3365026317
 30
0.0
 11
156.6016204966
 21
137.3734203279
 31
0.0
  0
LINE
  5
CC
330
1F
100
AcDbEntity
  8
0
  6
Continuous
 62
     7
370
    15
100
AcDbLine
 10
156.6016204966
 20
87.3365026317
 30
0.0
 11
154.943553328
 21
87.3365026317
 31
0.0
  0
SPLINE
  5
CD
330
1F
100
AcDbEntity
  8
0
  6
Continuous
 62
     7
370
    15
100
AcDbSpline
210
0.0
220
0.0
230
1.0
 70
     8
 71
     3
 72
    28
 73
    24
 74
     0
 42
0.00000001
 43
0.00000001
 40
0.0
 40
0.0
 40
0.0
 40
0.0
 40
0.1250000000000001
 40
0.1250000000000001
 40
0.1875000000000001
 40
0.1875000000000001
 40
0.2500000000000001
 40
0.2500000000000001
 40
0.3750000000000002
 40
0.3750000000000002
 40
0.4375000000000003
 40
0.4375000000000003
 40
0.5000000000000003
 40
0.5000000000000003
 40
0.6250000000000003
 40
0.6250000000000003
 40
0.7500000000000003
 40
0.7500000000000003
 40
0.8125000000000002
 40
0.8125000000000002
 40
0.8750000000000002
 40
0.8750000000000002
 40
1.0
 40
1.0
 40
1.0
 40
1.0
 10
154.9435533280403
 20
87.33650263169638
 30
0.0
 10
154.4118455705474
 20
87.33650263169636
 30
0.0
 10
153.8896070052371
 20
87.32071791774618
 30
0.0
 10
153.1197365189621
 20
87.27572250366997
 30
0.0
 10
152.8653769467707
 20
87.25716750859425
 30
0.0
 10
152.3612553660722
 20
87.21331478614776
 30
0.0
 10
152.1115325486443
 20
87.18797017919555
 30
0.0
 10
151.3859425971979
 20
87.10456810144545
 30
0.0
 10
150.9275823356163
 20
87.03870254229436
 30
0.0
 10
150.2770843922225
 20
86.92973220180257
 30
0.0
 10
150.06540234143
 20
86.89149256603592
 30
0.0
 10
149.661330852292
 20
86.81373382861656
 30
0.0
 10
149.4688243384711
 20
86.77423286644122
 30
0.0
 10
148.9189893674499
 20
86.65532512407523
 30
0.0
 10
148.5890605891411
 20
86.5755074426506
 30
0.0
 10
148.0045893205724
 20
86.42216428085455
 30
0.0
 10
147.7583121825589
 20
86.35083052758529
 30
0.0
 10
147.4584693898609
 20
86.25688702051067
 30
0.0
 10
147.3700125327887
 20
86.22769322715074
 30
0.0
 10
147.2166511794836
 20
86.17422665288731
 30
0.0
 10
147.1515629652573
 20
86.14986731861215
 30
0.0
 10
146.9959689493165
 20
86.08627717316742
 30
0.0
 10
146.9435533280403
 20
86.05617423807819
 30
0.0
 10
146.9435533280403
 20
86.03929734508122
 30
0.0
  0
LINE
  5
CE
330
1F
100
AcDbEntity
  8
0
  6
Continuous
 62
     7
370
    15
100
AcDbLine
 10
146.943553328
 20
86.0392973451
 30
0.0
 11
146.943553328
 21
86.0234203279
 31
0.0
  0
SPLINE
  5
CF
330
1F
100
AcDbEntity
  8
0
  6
Continuous
 62
     7
370
    15
100
AcDbSpline
210
0.0
220
0.0
230
1.0
 70
     8
 71
     3
 72
    23
 73
    19
 74
     0
 42
0.00000001
 43
0.00000001
 40
0.0
 40
0.0
 40
0.0
 40
0.0
 40
0.1039313635219024
 40
0.1565101317948584
 40
0.2099971339984288
 40
0.3138816472933281
 40
0.3664025046360437
 40
0.4197764992144886
 40
0.4725856460687978
 40
0.5257535492646467
 40
0.5794764276338126
 40
0.6339608783447244
 40
0.6872819425585708
 40
0.7409827369115174
 40
0.7958990524375875
 40
0.8512438274191851
 40
0.9563115146700495
 40
0.9999999999999999
 40
0.9999999999999999
 40
0.9999999999999999
 40
0.9999999999999999
 10
154.9435533280404
 20
147.9906158011078
 30
0.0
 10
154.5060134811007
 20
147.9958699994263
 30
0.0
 10
153.8471226825055
 20
148.0037822911873
 30
0.0
 10
152.9831890040821
 20
148.0515686572955
 30
0.0
 10
152.1384805953344
 20
148.1143747056568
 30
0.0
 10
151.3296663207596
 20
148.2001220500762
 30
0.0
 10
150.5754831120796
 20
148.3005032674598
 30
0.0
 10
150.0351914509244
 20
148.3820068757378
 30
0.0
 10
149.5269711127299
 20
148.4671142098466
 30
0.0
 10
149.055045482227
 20
148.5533799594264
 30
0.0
 10
148.6194166540386
 20
148.6391625920149
 30
0.0
 10
148.2281417491095
 20
148.721237976337
 30
0.0
 10
147.8842951591808
 20
148.7972330232716
 30
0.0
 10
147.5893133148151
 20
148.8652739594278
 30
0.0
 10
147.3436094981896
 20
148.9239654332291
 30
0.0
 10
147.0968674191066
 20
148.984531014782
 30
0.0
 10
146.95755258666
 20
149.0198685501586
 30
0.0
 10
146.9499811849019
 20
149.0217894294303
 30
0.0
 10
146.9477575254134
 20
149.0223535761438
 30
0.0
  0
LINE
  5
D0
330
1F
100
AcDbEntity
  8
0
  6
Continuous
 62
     7
370
    15
100
AcDbLine
 10
156.6016204966
 20
147.9906158011
 30
0.0
 11
154.943553328
 21
147.9906158011
 31
0.0
  0
LINE
  5
D1
330
1F
100
AcDbEntity
  8
0
  6
Continuous
 62
     7
370
    15
100
AcDbLine
 10
156.6016204966
 20
141.9821099903
 30
0.0
 11
156.6016204966
 21
147.9906158011
 31
0.0
  0
LINE
  5
D2
330
1F
100
AcDbEntity
  8
0
  6
Continuous
 62
     7
370
    15
100
AcDbLine
 10
154.1891736737
 20
141.9821099903
 30
0.0
 11
156.6016204966
 21
141.9821099903
 31
0.0
  0
SPLINE
  5
D3
330
1F
100
AcDbEntity
  8
0
  6
Continuous
 62
     7
370
    15
100
AcDbSpline
210
0.0
220
0.0
230
1.0
 70
     8
 71
     3
 72
    20
 73
    16
 74
     0
 42
0.00000001
 43
0.00000001
 40
0.0
 40
0.0
 40
0.0
 40
0.0
 40
0.2499999999999995
 40
0.2499999999999995
 40
0.3749999999999996
 40
0.3749999999999996
 40
0.4999999999999997
 40
0.4999999999999997
 40
0.6249999999999998
 40
0.6249999999999998
 40
0.7499999999999998
 40
0.7499999999999998
 40
0.8749999999999999
 40
0.8749999999999999
 40
1.0
 40
1.0
 40
1.0
 40
1.0
 10
146.9435533280403
 20
137.3734203279436
 30
0.0
 10
147.1919270623284
 20
138.027282756241
 30
0.0
 10
147.5114971546737
 20
138.6310685382381
 30
0.0
 10
148.1338033878784
 20
139.4579072744067
 30
0.0
 10
148.3652276483091
 20
139.7203359123596
 30
0.0
 10
148.8864419879588
 20
140.2169985664646
 30
0.0
 10
149.1730624705939
 20
140.4475854454861
 30
0.0
 10
149.7925472119015
 20
140.8641396700687
 30
0.0
 10
150.1268475913885
 20
141.0516374720362
 30
0.0
 10
150.8521080640133
 20
141.3830344496727
 30
0.0
 10
151.2340231214037
 20
141.5225384371679
 30
0.0
 10
152.0288112975754
 20
141.7479919446389
 30
0.0
 10
152.4429694917818
 20
141.8346180561825
 30
0.0
 10
153.3085158323632
 20
141.9525988450366
 30
0.0
 10
153.746403447375
 20
141.982109990311
 30
0.0
 10
154.1891736737296
 20
141.982109990311
 30
0.0
  0
LINE
  5
D4
330
1F
100
AcDbEntity
  8
0
  6
Continuous
 62
     7
370
    15
100
AcDbLine
 10
158.083553328
 20
90.0255831689
 30
0.0
 11
158.083553328
 21
137.3734203279
 31
0.0
  0
SPLINE
  5
D5
330
1F
100
AcDbEntity
  8
0
  6
Continuous
 62
     7
370
    15
100
AcDbSpline
210
0.0
220
0.0
230
1.0
 70
     8
 71
     3
 72
     8
 73
     4
 74
     0
 42
0.00000001
 43
0.00000001
 40
0.0
 40
0.0
 40
0.0
 40
0.0
 40
1.0
 40
1.0
 40
1.0
 40
1.0
 10
158.0835533280403
 20
90.02558316888867
 30
0.0
 10
157.5912142052591
 20
89.12831313468197
 30
0.0
 10
157.097100157217
 20
88.23202871962974
 30
0.0
 10
156.6016204965513
 20
87.33650263169638
 30
0.0
  0
SPLINE
  5
D6
330
1F
100
AcDbEntity
  8
0
  6
Continuous
 62
     7
370
    15
100
AcDbSpline
210
0.0
220
0.0
230
1.0
 70
    24
 71
     3
 72
     8
 73
     4
 74
     0
 42
0.00000001
 43
0.00000001
 40
0.0
 40
0.0
 40
0.0
 40
0.0
 40
1.0
 40
1.0
 40
1.0
 40
1.0
 10
156.6016204965513
 20
137.3734203279436
 30
0.0
 10
157.1083006047018
 20
137.3734203279436
 30
0.0
 10
157.6036013336754
 20
137.3734203279436
 30
0.0
 10
158.0835533280403
 20
137.3734203279436
 30
0.0
  0
LINE
  5
D7
330
1F
100
AcDbEntity
  8
0
  6
Continuous
 62
     7
370
    15
100
AcDbLine
 10
141.993553328
 20
86.3234203279
 30
0.0
 11
141.993553328
 21
148.7234203121
 31
0.0
  0
SPLINE
  5
D8
330
1F
100
AcDbEntity
  8
0
  6
Continuous
 62
     7
370
    15
100
AcDbSpline
210
0.0
220
0.0
230
1.0
 70
    24
 71
     3
 72
    14
 73
    10
 74
     0
 42
0.00000001
 43
0.00000001
 40
0.0
 40
0.0
 40
0.0
 40
0.0
 40
0.4999999999999986
 40
0.4999999999999986
 40
0.7499999999999992
 40
0.7499999999999992
 40
0.8749999999999997
 40
0.8749999999999997
 40
1.0
 40
1.0
 40
1.0
 40
1.0
 10
161.8058785257081
 20
91.12342032794352
 30
0.0
 10
161.7590938206599
 20
91.12342032794352
 30
0.0
 10
161.6970426238802
 20
91.12342032794353
 30
0.0
 10
161.5536509853297
 20
91.12342032794352
 30
0.0
 10
161.4975073317785
 20
91.12342032794352
 30
0.0
 10
161.3845563096423
 20
91.12342032794352
 30
0.0
 10
161.3415555476041
 20
91.12342032794352
 30
0.0
 10
161.2374928372977
 20
91.12342032794352
 30
0.0
 10
161.1721605989407
 20
91.12342032794352
 30
0.0
 10
161.1035533280403
 20
91.12342032794352
 30
0.0
  0
SPLINE
  5
D9
330
1F
100
AcDbEntity
  8
0
  6
Continuous
 62
     7
370
    15
100
AcDbSpline
210
0.0
220
0.0
230
1.0
 70
    24
 71
     3
 72
    12
 73
     8
 74
     0
 42
0.00000001
 43
0.00000001
 40
0.0
 40
0.0
 40
0.0
 40
0.0
 40
0.5
 40
0.5
 40
0.75
 40
0.75
 40
1.0
 40
1.0
 40
1.0
 40
1.0
 10
161.5092557963494
 20
143.9234203279436
 30
0.0
 10
161.4661702467386
 20
143.9234203279436
 30
0.0
 10
161.4170180449916
 20
143.9234203279435
 30
0.0
 10
161.320545450702
 20
143.9234203279436
 30
0.0
 10
161.2844438655678
 20
143.9234203279436
 30
0.0
 10
161.2013381077052
 20
143.9234203279436
 30
0.0
 10
161.1533415107411
 20
143.9234203279436
 30
0.0
 10
161.1035533280403
 20
143.9234203279436
 30
0.0
  0
SPLINE
  5
DA
330
1F
100
AcDbEntity
  8
0
  6
Continuous
 62
     7
370
    15
100
AcDbSpline
210
0.0
220
0.0
230
1.0
 70
     8
 71
     3
 72
    10
 73
     6
 74
     0
 42
0.00000001
 43
0.00000001
 40
0.0
 40
0.0
 40
0.0
 40
0.0
 40
0.5
 40
0.5
 40
1.0
 40
1.0
 40
1.0
 40
1.0
 10
161.9035533280403
 20
144.6430741789794
 30
0.0
 10
161.9035533280403
 20
144.4993041211613
 30
0.0
 10
161.8675042693214
 20
144.3568847586662
 30
0.0
 10
161.7319954085474
 20
144.1069904653089
 30
0.0
 10
161.6321194154513
 20
143.9989601290607
 30
0.0
 10
161.5092557963494
 20
143.9234203279435
 30
0.0
  0
SPLINE
  5
DB
330
1F
100
AcDbEntity
  8
0
  6
Continuous
 62
     7
370
    15
100
AcDbSpline
210
0.0
220
0.0
230
1.0
 70
     8
 71
     3
 72
    10
 73
     6
 74
     0
 42
0.00000001
 43
0.00000001
 40
0.0
 40
0.0
 40
0.0
 40
0.0
 40
0.5
 40
0.5
 40
1.0
 40
1.0
 40
1.0
 40
1.0
 10
161.8774057048802
 20
137.3734203279436
 30
0.0
 10
161.8860953477919
 20
137.4202991772617
 30
0.0
 10
161.8926344125424
 20
137.467721642663
 30
0.0
 10
161.9013930469354
 20
137.5636584412497
 30
0.0
 10
161.9035533280403
 20
137.6115737292602
 30
0.0
 10
161.9035533280403
 20
137.6592869594047
 30
0.0
  0
SPLINE
  5
DC
330
1F
100
AcDbEntity
  8
0
  6
Continuous
 62
     7
370
    15
100
AcDbSpline
210
0.0
220
0.0
230
1.0
 70
     8
 71
     3
 72
    10
 73
     6
 74
     0
 42
0.00000001
 43
0.00000001
 40
0.0
 40
0.0
 40
0.0
 40
0.0
 40
0.5
 40
0.5
 40
1.0
 40
1.0
 40
1.0
 40
1.0
 10
158.4778508597313
 20
143.9234203279435
 30
0.0
 10
158.3563105960627
 20
143.9981464951553
 30
0.0
 10
158.2549762357138
 20
144.1070915110721
 30
0.0
 10
158.1193372928254
 20
144.3575219918337
 30
0.0
 10
158.0835533280404
 20
144.4999413539327
 30
0.0
 10
158.0835533280404
 20
144.6430741789794
 30
0.0
  0
SPLINE
  5
DD
330
1F
100
AcDbEntity
  8
0
  6
Continuous
 62
     7
370
    15
100
AcDbSpline
210
0.0
220
0.0
230
1.0
 70
    24
 71
     3
 72
    12
 73
     8
 74
     0
 42
0.00000001
 43
0.00000001
 40
0.0
 40
0.0
 40
0.0
 40
0.0
 40
0.2500000000000008
 40
0.2500000000000008
 40
0.5000000000000017
 40
0.5000000000000017
 40
1.0
 40
1.0
 40
1.0
 40
1.0
 10
158.8835533280404
 20
143.9234203279436
 30
0.0
 10
158.8342099662307
 20
143.9234203279435
 30
0.0
 10
158.7855192679291
 20
143.9234203279436
 30
0.0
 10
158.7026681703587
 20
143.9234203279436
 30
0.0
 10
158.666468202738
 20
143.9234203279435
 30
0.0
 10
158.5707182861887
 20
143.9234203279436
 30
0.0
 10
158.5208363163765
 20
143.9234203279436
 30
0.0
 10
158.4778508597313
 20
143.9234203279436
 30
0.0
  0
SPLINE
  5
DE
330
1F
100
AcDbEntity
  8
0
  6
Continuous
 62
     7
370
    15
100
AcDbSpline
210
0.0
220
0.0
230
1.0
 70
    24
 71
     3
 72
    14
 73
    10
 74
     0
 42
0.00000001
 43
0.00000001
 40
0.0
 40
0.0
 40
0.0
 40
0.0
 40
0.1249999999999994
 40
0.1249999999999994
 40
0.2499999999999987
 40
0.2499999999999987
 40
0.5000000000000009
 40
0.5000000000000009
 40
1.0
 40
1.0
 40
1.0
 40
1.0
 10
158.8835533280403
 20
91.12342032794352
 30
0.0
 10
158.8142066063091
 20
91.12342032794352
 30
0.0
 10
158.7490085529252
 20
91.12342032794352
 30
0.0
 10
158.6446293602982
 20
91.12342032794352
 30
0.0
 10
158.6017269892892
 20
91.12342032794352
 30
0.0
 10
158.4894013316845
 20
91.12342032794352
 30
0.0
 10
158.4341776373307
 20
91.12342032794352
 30
0.0
 10
158.2901202585632
 20
91.12342032794352
 30
0.0
 10
158.2280395617317
 20
91.12342032794352
 30
0.0
 10
158.1812281303726
 20
91.12342032794352
 30
0.0
  0
SPLINE
  5
DF
330
1F
100
AcDbEntity
  8
0
  6
Continuous
 62
     7
370
    15
100
AcDbSpline
210
0.0
220
0.0
230
1.0
 70
     8
 71
     3
 72
     9
 73
     5
 74
     0
 42
0.00000001
 43
0.00000001
 40
0.0
 40
0.0
 40
0.0
 40
0.0
 40
0.5
 40
1.0
 40
1.0
 40
1.0
 40
1.0
 10
158.0835533280404
 20
137.6592869594049
 30
0.0
 10
158.0835533280404
 20
137.6110549072822
 30
0.0
 10
158.0879593027455
 20
137.5151848938426
 30
0.0
 10
158.1009784828393
 20
137.4204762638593
 30
0.0
 10
158.1097009512004
 20
137.3734203279436
 30
0.0
  0
LINE
  5
E0
330
1F
100
AcDbEntity
  8
0
  6
Continuous
 62
     7
370
    15
100
AcDbLine
 10
161.103553328
 20
143.9234203279
 30
0.0
 11
158.883553328
 21
143.9234203279
 31
0.0
  0
LINE
  5
E1
330
1F
100
AcDbEntity
  8
0
  6
Continuous
 62
     7
370
    15
100
AcDbLine
 10
161.103553328
 20
91.1234203279
 30
0.0
 11
158.883553328
 21
91.1234203279
 31
0.0
  0
LINE
  5
E2
330
1F
100
AcDbEntity
  8
0
  6
Continuous
 62
     7
370
    15
100
AcDbLine
 10
139.993553328
 20
93.3029894662
 30
0.0
 11
139.993553328
 21
141.7438511897
 31
0.0
  0
LINE
  5
E3
330
1F
100
AcDbEntity
  8
0
  6
Continuous
 62
     7
370
    15
100
AcDbLine
 10
120.193553328
 20
94.2949734342
 30
0.0
 11
120.193553328
 21
95.5782720687
 31
0.0
  0
SPLINE
  5
E4
330
1F
100
AcDbEntity
  8
0
  6
Continuous
 62
     7
370
    15
100
AcDbSpline
210
0.0
220
0.0
230
1.0
 70
     8
 71
     3
 72
    14
 73
    10
 74
     0
 42
0.00000001
 43
0.00000001
 40
0.0
 40
0.0
 40
0.0
 40
0.0
 40
0.25
 40
0.25
 40
0.5
 40
0.5
 40
0.75
 40
0.75
 40
1.0
 40
1.0
 40
1.0
 40
1.0
 10
119.5719490913005
 20
96.65904911066032
 30
0.0
 10
119.6103854761215
 20
96.55642471294878
 30
0.0
 10
119.6791868695133
 20
96.45722828950923
 30
0.0
 10
119.8224728816723
 20
96.26633626018271
 30
0.0
 10
119.8976549367792
 20
96.17407899414981
 30
0.0
 10
120.0298422254294
 20
95.99447167233481
 30
0.0
 10
120.0873594208992
 20
95.90716211789045
 30
0.0
 10
120.1694042191915
 20
95.7372282843747
 30
0.0
 10
120.1935533280403
 20
95.65532594250355
 30
0.0
 10
120.1935533280403
 20
95.57827206866764
 30
0.0
  0
SPLINE
  5
E5
330
1F
100
AcDbEntity
  8
0
  6
Continuous
 62
     7
370
    15
100
AcDbSpline
210
0.0
220
0.0
230
1.0
 70
     8
 71
     3
 72
    18
 73
    14
 74
     0
 42
0.00000001
 43
0.00000001
 40
0.0
 40
0.0
 40
0.0
 40
0.0
 40
0.0625000000000002
 40
0.0625000000000002
 40
0.1250000000000003
 40
0.1250000000000003
 40
0.2500000000000006
 40
0.2500000000000006
 40
0.5000000000000003
 40
0.5000000000000003
 40
0.7500000000000001
 40
0.7500000000000001
 40
1.0
 40
1.0
 40
1.0
 40
1.0
 10
118.7935533280403
 20
97.37733156214685
 30
0.0
 10
118.8301255383907
 20
97.38110896567431
 30
0.0
 10
118.8687760118261
 20
97.38055193779117
 30
0.0
 10
118.94286750554
 20
97.3704927326293
 30
0.0
 10
118.978217799294
 20
97.36113885120476
 30
0.0
 10
119.0728120966834
 20
97.32675442477094
 30
0.0
 10
119.1229502698224
 20
97.29604269010814
 30
0.0
 10
119.2521435414036
 20
97.20011338007012
 30
0.0
 10
119.3104236861447
 20
97.13159788595287
 30
0.0
 10
119.4106187825682
 20
96.99502593602026
 30
0.0
 10
119.4506340340148
 20
96.92626103351736
 30
0.0
 10
119.5190334548326
 20
96.7912256044097
 30
0.0
 10
119.5473951786945
 20
96.72460757835654
 30
0.0
 10
119.5719490913005
 20
96.65904911066032
 30
0.0
  0
SPLINE
  5
E6
330
1F
100
AcDbEntity
  8
0
  6
Continuous
 62
     7
370
    15
100
AcDbSpline
210
0.0
220
0.0
230
1.0
 70
     8
 71
     3
 72
    10
 73
     6
 74
     0
 42
0.00000001
 43
0.00000001
 40
0.0
 40
0.0
 40
0.0
 40
0.0
 40
0.5
 40
0.5
 40
1.0
 40
1.0
 40
1.0
 40
1.0
 10
114.8799514669184
 20
96.8811379057752
 30
0.0
 10
115.5075791226257
 20
96.98441146451084
 30
0.0
 10
116.1587798676571
 20
97.07323657626237
 30
0.0
 10
117.4674845716694
 20
97.23534428313272
 30
0.0
 10
118.1285290089606
 20
97.3086437474193
 30
0.0
 10
118.7935533280402
 20
97.37733156214698
 30
0.0
  0
SPLINE
  5
E7
330
1F
100
AcDbEntity
  8
0
  6
Continuous
 62
     7
370
    15
100
AcDbSpline
210
0.0
220
0.0
230
1.0
 70
     8
 71
     3
 72
    14
 73
    10
 74
     0
 42
0.00000001
 43
0.00000001
 40
0.0
 40
0.0
 40
0.0
 40
0.0
 40
0.499999999999997
 40
0.499999999999997
 40
0.749999999999997
 40
0.749999999999997
 40
0.8749999999999986
 40
0.8749999999999986
 40
1.0
 40
1.0
 40
1.0
 40
1.0
 10
111.2435533280403
 20
96.71678876941598
 30
0.0
 10
111.8596302317956
 20
96.72251488964513
 30
0.0
 10
112.4737622279115
 20
96.73240525504715
 30
0.0
 10
113.387658858425
 20
96.76304022271692
 30
0.0
 10
113.6910977859726
 20
96.7758336803549
 30
0.0
 10
114.1422344016101
 20
96.8037595083143
 30
0.0
 10
114.2919406511526
 20
96.81452912847406
 30
0.0
 10
114.5887817874007
 20
96.8416618440736
 30
0.0
 10
114.736167339904
 20
96.85747881690082
 30
0.0
 10
114.8799514669183
 20
96.88113790577529
 30
0.0
  0
SPLINE
  5
E8
330
1F
100
AcDbEntity
  8
0
  6
Continuous
 62
     7
370
    15
100
AcDbSpline
210
0.0
220
0.0
230
1.0
 70
     8
 71
     3
 72
     8
 73
     4
 74
     0
 42
0.00000001
 43
0.00000001
 40
0.0000005954826279
 40
0.0000005954826279
 40
0.0000005954826279
 40
0.0000005954826279
 40
0.0000302093805348
 40
0.0000302093805348
 40
0.0000302093805348
 40
0.0000302093805348
 10
111.2335083976307
 20
96.72860389906788
 30
0.0
 10
111.2368244249509
 20
96.72465711947207
 30
0.0
 10
111.2401729763432
 20
96.72071872834215
 30
0.0
 10
111.2435533280402
 20
96.71678876941598
 30
0.0
  0
SPLINE
  5
E9
330
1F
100
AcDbEntity
  8
0
  6
Continuous
 62
     7
370
    15
100
AcDbSpline
210
0.0
220
0.0
230
1.0
 70
     8
 71
     3
 72
     8
 73
     4
 74
     0
 42
0.00000001
 43
0.00000001
 40
0.0000005099763572
 40
0.0000005099763572
 40
0.0000005099763572
 40
0.0000005099763572
 40
0.0000262827998699
 40
0.0000262827998699
 40
0.0000262827998699
 40
0.0000262827998699
 10
111.2435533280403
 20
138.3933580933386
 30
0.0
 10
111.2401845888126
 20
138.3900364243827
 30
0.0
 10
111.2368361358334
 20
138.3867084671039
 30
0.0
 10
111.2335083976221
 20
138.3833742202312
 30
0.0
  0
SPLINE
  5
EA
330
1F
100
AcDbEntity
  8
0
  6
Continuous
 62
     7
370
    15
100
AcDbSpline
210
0.0
220
0.0
230
1.0
 70
     8
 71
     3
 72
    10
 73
     6
 74
     0
 42
0.00000001
 43
0.00000001
 40
0.0
 40
0.0
 40
0.0
 40
0.0
 40
0.5
 40
0.5
 40
1.0
 40
1.0
 40
1.0
 40
1.0
 10
114.7935533280403
 20
138.3465077197713
 30
0.0
 10
114.2059677809497
 20
138.3675732400077
 30
0.0
 10
113.6152213874893
 20
138.3783317258799
 30
0.0
 10
112.4312022221904
 20
138.3916965064156
 30
0.0
 10
111.837788233985
 20
138.3938391490802
 30
0.0
 10
111.2435533280403
 20
138.3933580933386
 30
0.0
  0
SPLINE
  5
EB
330
1F
100
AcDbEntity
  8
0
  6
Continuous
 62
     7
370
    15
100
AcDbSpline
210
0.0
220
0.0
230
1.0
 70
     8
 71
     3
 72
    18
 73
    14
 74
     0
 42
0.00000001
 43
0.00000001
 40
0.0
 40
0.0
 40
0.0
 40
0.0
 40
0.2499999999999997
 40
0.2499999999999997
 40
0.4999999999999986
 40
0.4999999999999986
 40
0.7499999999999976
 40
0.7499999999999976
 40
0.8749999999999971
 40
0.8749999999999971
 40
0.9374999999999986
 40
0.9374999999999986
 40
1.0
 40
1.0
 40
1.0
 40
1.0
 10
116.1935533280403
 20
139.3675280003065
 30
0.0
 10
116.1935533280403
 20
139.2843210914493
 30
0.0
 10
116.157704228102
 20
139.1955844361358
 30
0.0
 10
116.0328324920681
 20
139.0134592455755
 30
0.0
 10
115.9424320744202
 20
138.9183291969489
 30
0.0
 10
115.7201894196781
 20
138.7291476878246
 30
0.0
 10
115.5904246332323
 20
138.6342025197299
 30
0.0
 10
115.3497871759208
 20
138.49592381215
 30
0.0
 10
115.2620198777833
 20
138.4502133788476
 30
0.0
 10
115.1074957905765
 20
138.3923900736261
 30
0.0
 10
115.0508849045218
 20
138.3746753095882
 30
0.0
 10
114.9268408736152
 20
138.3501360063553
 30
0.0
 10
114.8591261985969
 20
138.3441568678171
 30
0.0
 10
114.7935533280403
 20
138.3465077197713
 30
0.0
  0
LINE
  5
EC
330
1F
100
AcDbEntity
  8
0
  6
Continuous
 62
     7
370
    15
100
AcDbLine
 10
116.193553328
 20
139.3675280003
 30
0.0
 11
116.193553328
 21
140.5514664201
 31
0.0
  0
SPLINE
  5
ED
330
1F
100
AcDbEntity
  8
0
  6
Continuous
 62
     7
370
    15
100
AcDbSpline
210
0.0
220
0.0
230
1.0
 70
     8
 71
     3
 72
    18
 73
    14
 74
     0
 42
0.00000001
 43
0.00000001
 40
0.0
 40
0.0
 40
0.0
 40
0.0
 40
0.0010671296451828
 40
0.1270947795731587
 40
0.2524053457512667
 40
0.3766468878986943
 40
0.4391415999050647
 40
0.5008278021400225
 40
0.562425570881756
 40
0.6253162439161297
 40
0.7499985144706804
 40
0.87527589503413
 40
0.9999999999999999
 40
0.9999999999999999
 40
0.9999999999999999
 40
0.9999999999999999
 10
128.763854168113
 20
93.86608130502717
 30
0.0
 10
128.7629423354745
 20
93.86596652649054
 30
0.0
 10
128.6543433768375
 20
93.85229644162463
 30
0.0
 10
129.0419844444874
 20
93.90321594224021
 30
0.0
 10
129.9079491263225
 20
94.00279911528672
 30
0.0
 10
131.1083530510921
 20
94.07192299843032
 30
0.0
 10
132.1659289655808
 20
94.0758752275693
 30
0.0
 10
132.9930630524909
 20
94.04838628911386
 30
0.0
 10
133.8183349201265
 20
93.9898461127067
 30
0.0
 10
134.872700140124
 20
93.87632495296991
 30
0.0
 10
136.034536421597
 20
93.69317412872233
 30
0.0
 10
136.9867712029803
 20
93.48857091908722
 30
0.0
 10
137.1124762637882
 20
93.45928556831117
 30
0.0
 10
137.1751896959335
 20
93.4446752984705
 30
0.0
  0
SPLINE
  5
EE
330
1F
100
AcDbEntity
  8
0
  6
Continuous
 62
     7
370
    15
100
AcDbSpline
210
0.0
220
0.0
230
1.0
 70
     8
 71
     3
 72
    18
 73
    14
 74
     0
 42
0.00000001
 43
0.00000001
 40
0.0
 40
0.0
 40
0.0
 40
0.0
 40
0.1248907792210125
 40
0.25053840203417
 40
0.3748721840485287
 40
0.4374907653352095
 40
0.4990776265894368
 40
0.5607931536355757
 40
0.6233901338664934
 40
0.7478191038417353
 40
0.8731940995934957
 40
0.999161464471008
 40
1.0
 40
1.0
 40
1.0
 40
1.0
 10
137.1749709304095
 20
141.6021001768622
 30
0.0
 10
137.1112301776979
 20
141.5874388842641
 30
0.0
 10
136.9833624005214
 20
141.5580274509927
 30
0.0
 10
136.031363179461
 20
141.3530743469302
 30
0.0
 10
134.8708194742567
 20
141.1698105711192
 30
0.0
 10
133.8185550221688
 20
141.0567829788701
 30
0.0
 10
132.9943279071
 20
140.9985193313289
 30
0.0
 10
132.1667241375808
 20
140.9710729433249
 30
0.0
 10
131.1079069450955
 20
140.9750577492539
 30
0.0
 10
129.9056882470616
 20
141.0441472256353
 30
0.0
 10
129.0405043073744
 20
141.1437734421922
 30
0.0
 10
128.6543638858437
 20
141.1945895157921
 30
0.0
 10
128.7624354266244
 20
141.1809173357294
 30
0.0
 10
128.7631500765447
 20
141.1808269250411
 30
0.0
  0
SPLINE
  5
EF
330
1F
100
AcDbEntity
  8
0
  6
Continuous
 62
     7
370
    15
100
AcDbSpline
210
0.0
220
0.0
230
1.0
 70
     8
 71
     3
 72
    10
 73
     6
 74
     0
 42
0.00000001
 43
0.00000001
 40
0.0
 40
0.0
 40
0.0
 40
0.0
 40
0.5
 40
0.5
 40
1.0
 40
1.0
 40
1.0
 40
1.0
 10
110.0935533280399
 20
97.87025980299066
 30
0.0
 10
110.0935533280398
 20
97.8567432771229
 30
0.0
 10
110.0988728886681
 20
97.8525725047656
 30
0.0
 10
110.1120011209497
 20
97.87070354815319
 30
0.0
 10
110.1196937756037
 20
97.89361197321513
 30
0.0
 10
110.1238309436489
 20
97.9333327677167
 30
0.0
  0
LINE
  5
F0
330
1F
100
AcDbEntity
  8
0
  6
Continuous
 62
     7
370
    15
100
AcDbLine
 10
110.093553328
 20
97.870259803
 30
0.0
 11
110.093553328
 21
137.2140980744
 31
0.0
  0
SPLINE
  5
F1
330
1F
100
AcDbEntity
  8
0
  6
Continuous
 62
     7
370
    15
100
AcDbSpline
210
0.0
220
0.0
230
1.0
 70
     8
 71
     3
 72
    10
 73
     6
 74
     0
 42
0.00000001
 43
0.00000001
 40
0.0
 40
0.0
 40
0.0
 40
0.0
 40
0.5
 40
0.5
 40
1.0
 40
1.0
 40
1.0
 40
1.0
 10
110.1562167027637
 20
137.1979728727243
 30
0.0
 10
110.1473124136549
 20
137.2437143919374
 30
0.0
 10
110.130797033462
 20
137.2609052314064
 30
0.0
 10
110.1036890874003
 20
137.2605819544707
 30
0.0
 10
110.0935533280403
 20
137.2427044121742
 30
0.0
 10
110.0935533280403
 20
137.2140980744217
 30
0.0
  0
SPLINE
  5
F2
330
1F
100
AcDbEntity
  8
0
  6
Continuous
 62
     7
370
    15
100
AcDbSpline
210
0.0
220
0.0
230
1.0
 70
     8
 71
     3
 72
    26
 73
    22
 74
     0
 42
0.00000001
 43
0.00000001
 40
0.0
 40
0.0
 40
0.0
 40
0.0
 40
0.2499999999999984
 40
0.2499999999999984
 40
0.3749999999999984
 40
0.3749999999999984
 40
0.4374999999999978
 40
0.4374999999999978
 40
0.4687499999999971
 40
0.4687499999999971
 40
0.4999999999999963
 40
0.4999999999999963
 40
0.5312499999999956
 40
0.5312499999999956
 40
0.5624999999999949
 40
0.5624999999999949
 40
0.6249999999999976
 40
0.6249999999999976
 40
0.7499999999999993
 40
0.7499999999999993
 40
1.0
 40
1.0
 40
1.0
 40
1.0
 10
110.9177069741448
 20
137.9135396615414
 30
0.0
 10
110.8791064512763
 20
137.795764965186
 30
0.0
 10
110.8328094487221
 20
137.671375279024
 30
0.0
 10
110.7388701002882
 20
137.4661559466705
 30
0.0
 10
110.7035586333747
 20
137.3945830802241
 30
0.0
 10
110.637378657629
 20
137.2786298476236
 30
0.0
 10
110.6128402909608
 20
137.2380453128134
 30
0.0
 10
110.569467545407
 20
137.1739036309416
 30
0.0
 10
110.5539591439818
 20
137.1520372056565
 30
0.0
 10
110.5189164993947
 20
137.1064429373133
 30
0.0
 10
110.4993662086749
 20
137.0827726463459
 30
0.0
 10
110.4574389283043
 20
137.038156087006
 30
0.0
 10
110.4347868180727
 20
137.0172760744881
 30
0.0
 10
110.3938131039861
 20
136.9864026607372
 30
0.0
 10
110.3762138040906
 20
136.9765637909048
 30
0.0
 10
110.3315868182345
 20
136.9575741752087
 30
0.0
 10
110.3110275955812
 20
136.9572498505553
 30
0.0
 10
110.2599021560846
 20
136.9664732914315
 30
0.0
 10
110.238990743096
 20
136.9877201876485
 30
0.0
 10
110.1875408355351
 20
137.0616890664793
 30
0.0
 10
110.1698755362305
 20
137.127807159794
 30
0.0
 10
110.1562167027637
 20
137.1979728727243
 30
0.0
  0
SPLINE
  5
F3
330
1F
100
AcDbEntity
  8
0
  6
Continuous
 62
     7
370
    15
100
AcDbSpline
210
0.0
220
0.0
230
1.0
 70
     8
 71
     3
 72
    10
 73
     6
 74
     0
 42
0.00000001
 43
0.00000001
 40
0.0
 40
0.0
 40
0.0
 40
0.0
 40
0.5
 40
0.5
 40
1.0
 40
1.0
 40
1.0
 40
1.0
 10
111.2335083976221
 20
138.3833742202312
 30
0.0
 10
111.1659491427039
 20
138.3156828274214
 30
0.0
 10
111.1023124873674
 20
138.2409756626678
 30
0.0
 10
110.9920917327955
 20
138.0820095302412
 30
0.0
 10
110.9452754395729
 20
137.9976542642332
 30
0.0
 10
110.9177069741448
 20
137.9135396615414
 30
0.0
  0
SPLINE
  5
F4
330
1F
100
AcDbEntity
  8
0
  6
Continuous
 62
     7
370
    15
100
AcDbSpline
210
0.0
220
0.0
230
1.0
 70
     8
 71
     3
 72
     8
 73
     4
 74
     0
 42
0.00000001
 43
0.00000001
 40
0.0
 40
0.0
 40
0.0
 40
0.0
 40
1.0
 40
1.0
 40
1.0
 40
1.0
 10
111.0324628982395
 20
97.07949802497794
 30
0.0
 10
111.0681765566094
 20
96.95626651971814
 30
0.0
 10
111.1438445955576
 20
96.83532294277116
 30
0.0
 10
111.2335083976308
 20
96.7286038990679
 30
0.0
  0
SPLINE
  5
F5
330
1F
100
AcDbEntity
  8
0
  6
Continuous
 62
     7
370
    15
100
AcDbSpline
210
0.0
220
0.0
230
1.0
 70
     8
 71
     3
 72
    26
 73
    22
 74
     0
 42
0.00000001
 43
0.00000001
 40
0.0
 40
0.0
 40
0.0
 40
0.0
 40
0.2499999999999939
 40
0.2499999999999939
 40
0.3749999999999903
 40
0.3749999999999903
 40
0.437499999999989
 40
0.437499999999989
 40
0.4687499999999885
 40
0.4687499999999885
 40
0.499999999999988
 40
0.499999999999988
 40
0.5312499999999876
 40
0.5312499999999876
 40
0.5624999999999871
 40
0.5624999999999871
 40
0.624999999999988
 40
0.624999999999988
 40
0.7499999999999913
 40
0.7499999999999913
 40
1.0
 40
1.0
 40
1.0
 40
1.0
 10
110.1238309436489
 20
97.93333276771666
 30
0.0
 10
110.1345549770415
 20
98.03629380820564
 30
0.0
 10
110.149287967636
 20
98.13529249768668
 30
0.0
 10
110.201641526883
 20
98.25388817775179
 30
0.0
 10
110.2233468096026
 20
98.2895984777006
 30
0.0
 10
110.282202316968
 20
98.31457791052233
 30
0.0
 10
110.3056645508152
 20
98.31896335828588
 30
0.0
 10
110.3617859274758
 20
98.29921052484175
 30
0.0
 10
110.3845732376064
 20
98.28755413403137
 30
0.0
 10
110.4398257901376
 20
98.24577378459415
 30
0.0
 10
110.4712320228783
 20
98.21550219721824
 30
0.0
 10
110.5261658434988
 20
98.15385979830424
 30
0.0
 10
110.5505896616983
 20
98.12241814599744
 30
0.0
 10
110.5940047676855
 20
98.06268330858367
 30
0.0
 10
110.6135793302538
 20
98.03351829871104
 30
0.0
 10
110.6672120142018
 20
97.94968302297796
 30
0.0
 10
110.696989362254
 20
97.89765040500173
 30
0.0
 10
110.7785234222268
 20
97.74658473103436
 30
0.0
 10
110.8217662169008
 20
97.65339368916362
 30
0.0
 10
110.9348208065556
 20
97.38900715016923
 30
0.0
 10
110.9888318040347
 20
97.23004898111937
 30
0.0
 10
111.0324628982387
 20
97.0794980249785
 30
0.0
  0
LINE
  5
F6
330
1F
100
AcDbEntity
  8
0
  6
Continuous
 62
     7
370
    15
100
AcDbLine
 10
254.993553328
 20
137.5234203279
 30
0.0
 11
254.993553328
 21
133.6940730532
 31
0.0
  0
ELLIPSE
  5
F7
330
1F
100
AcDbEntity
  8
0
  6
Continuous
 62
     7
370
    15
100
AcDbEllipse
 10
332.5335068778
 20
117.5234203279
 30
0.0
 11
190.2867990447085
 21
4.202620746255079
 31
0.0
210
0.0
220
0.0
230
1.0
 40
0.1027578619
 41
1.988229442476326
 42
1.999183978149226
  0
SPLINE
  5
F8
330
1F
100
AcDbEntity
  8
0
  6
Continuous
 62
     7
370
    15
100
AcDbSpline
210
0.0
220
0.0
230
1.0
 70
     8
 71
     3
 72
    20
 73
    16
 74
     0
 42
0.00000001
 43
0.00000001
 40
0.0
 40
0.0
 40
0.0
 40
0.0
 40
0.125
 40
0.125
 40
0.25
 40
0.25
 40
0.375
 40
0.375
 40
0.5
 40
0.5
 40
0.625
 40
0.625
 40
0.75
 40
0.75
 40
1.0
 40
1.0
 40
1.0
 40
1.0
 10
253.0946490976345
 20
133.5641811639544
 30
0.0
 10
252.7655244099958
 20
133.5414439628157
 30
0.0
 10
252.4449681746652
 20
133.5012733733064
 30
0.0
 10
251.8201561438558
 20
133.3864202587462
 30
0.0
 10
251.5144709738926
 20
133.3112683913004
 30
0.0
 10
250.926234948375
 20
133.1247126365838
 30
0.0
 10
250.6493003823689
 20
133.0152751056364
 30
0.0
 10
250.1277278404527
 20
132.7631032798183
 30
0.0
 10
249.8814750110649
 20
132.6191476716998
 30
0.0
 10
249.4293447215983
 20
132.3001404532156
 30
0.0
 10
249.225214916041
 20
132.1267935922382
 30
0.0
 10
248.8568509721468
 20
131.7518422524872
 30
0.0
 10
248.6916934522635
 20
131.5486876578505
 30
0.0
 10
248.2608072393084
 20
130.906111518834
 30
0.0
 10
248.059700555669
 20
130.4383196328492
 30
0.0
 10
247.9262649195059
 20
129.931007776927
 30
0.0
  0
ELLIPSE
  5
F9
330
1F
100
AcDbEntity
  8
0
  6
Continuous
 62
     7
370
    15
100
AcDbEllipse
 10
251.3462552029
 20
117.5234203279
 30
0.0
 11
1.195939561569872
 21
19.997559888857
 31
0.0
210
0.0
220
0.0
230
1.0
 40
0.2612235458
 41
0.9171910228253831
 42
2.674522679105853
  0
SPLINE
  5
FA
330
1F
100
AcDbEntity
  8
0
  6
Continuous
 62
     7
370
    15
100
AcDbSpline
210
0.0
220
0.0
230
1.0
 70
     8
 71
     3
 72
    18
 73
    14
 74
     0
 42
0.00000001
 43
0.00000001
 40
0.0
 40
0.0
 40
0.0
 40
0.0
 40
0.2500000000000004
 40
0.2500000000000004
 40
0.3750000000000003
 40
0.3750000000000003
 40
0.5000000000000003
 40
0.5000000000000003
 40
0.6250000000000003
 40
0.6250000000000003
 40
0.7500000000000002
 40
0.7500000000000002
 40
1.0
 40
1.0
 40
1.0
 40
1.0
 10
247.9262649195059
 20
99.80843892157637
 30
0.0
 10
248.0598275591955
 20
99.50791659437759
 30
0.0
 10
248.2610284470541
 20
99.24764882531667
 30
0.0
 10
248.6906378290535
 20
98.91093150611819
 30
0.0
 10
248.8566680414601
 20
98.80735859533732
 30
0.0
 10
249.2246034396439
 20
98.62356871872794
 30
0.0
 10
249.4274696885174
 20
98.54231152832452
 30
0.0
 10
249.8733578426023
 20
98.39813366710086
 30
0.0
 10
250.1179316107424
 20
98.33488926760361
 30
0.0
 10
250.6452128635375
 20
98.22600901063586
 30
0.0
 10
250.9222241884589
 20
98.18135090881835
 30
0.0
 10
251.7929723576866
 20
98.07075513272423
 30
0.0
 10
252.4350563462495
 20
98.02754005656789
 30
0.0
 10
253.0946490976345
 20
98.0108002170074
 30
0.0
  0
ELLIPSE
  5
FB
330
1F
100
AcDbEntity
  8
0
  6
Continuous
 62
     7
370
    15
100
AcDbEllipse
 10
332.5335068778
 20
117.5234203279
 30
0.0
 11
190.2867990447085
 21
4.202620746255079
 31
0.0
210
0.0
220
0.0
230
1.0
 40
0.1027578619
 41
4.279462374324308
 42
4.282386473194961
  0
SPLINE
  5
FC
330
1F
100
AcDbEntity
  8
0
  6
Continuous
 62
     7
370
    15
100
AcDbSpline
210
0.0
220
0.0
230
1.0
 70
     8
 71
     3
 72
    13
 73
     9
 74
     0
 42
0.00000001
 43
0.00000001
 40
0.0
 40
0.0
 40
0.0
 40
0.0
 40
0.0725494875863212
 40
0.273384409720517
 40
0.4770106896559377
 40
0.6818097650090476
 40
0.888886255781261
 40
1.0
 40
1.0
 40
1.0
 40
1.0
 10
253.6006011332082
 20
97.99805167230443
 30
0.0
 10
253.5288389860681
 20
97.97788674477762
 30
0.0
 10
253.2584214698473
 20
97.90190031134601
 30
0.0
 10
252.8348372903188
 20
97.78179798678464
 30
0.0
 10
252.3540083387439
 20
97.65716426912802
 30
0.0
 10
251.9282702710452
 20
97.57182539877735
 30
0.0
 10
251.5980473692342
 20
97.52320140914577
 30
0.0
 10
251.4326992377935
 20
97.53099325679595
 30
0.0
 10
251.3749587795282
 20
97.53371421197178
 30
0.0
  0
ELLIPSE
  5
FD
330
1F
100
AcDbEntity
  8
0
  6
Continuous
 62
     7
370
    15
100
AcDbEllipse
 10
248.0794960759
 20
108.0463205587
 30
0.0
 11
-0.01830808700907482
 21
2.365159309385731
 31
0.0
210
0.0
220
0.0
230
1.0
 40
0.2522299894
 41
0.22896313837895
 42
2.851270334086459
  0
LINE
  5
FE
330
1F
100
AcDbEntity
  8
0
  6
Continuous
 62
     7
370
    15
100
AcDbLine
 10
161.903553328
 20
137.6592869594
 30
0.0
 11
161.903553328
 21
138.5735639955
 31
0.0
  0
SPLINE
  5
FF
330
1F
100
AcDbEntity
  8
0
  6
Continuous
 62
     7
370
    15
100
AcDbSpline
210
0.0
220
0.0
230
1.0
 70
     8
 71
     3
 72
     8
 73
     4
 74
     0
 42
0.00000001
 43
0.00000001
 40
0.0
 40
0.0
 40
0.0
 40
0.0
 40
1.0
 40
1.0
 40
1.0
 40
1.0
 10
161.9035533280403
 20
138.5735639955269
 30
0.0
 10
162.3828314786302
 20
139.7145752253795
 30
0.0
 10
162.8783993177701
 20
140.8509596361473
 30
0.0
 10
163.3854861595294
 20
141.982109990311
 30
0.0
  0
LINE
  5
100
330
1F
100
AcDbEntity
  8
0
  6
Continuous
 62
     7
370
    15
100
AcDbLine
 10
163.3854861595
 20
141.9821099903
 30
0.0
 11
167.343553328
 21
141.9821099903
 31
0.0
  0
SPLINE
  5
101
330
1F
100
AcDbEntity
  8
0
  6
Continuous
 62
     7
370
    15
100
AcDbSpline
210
0.0
220
0.0
230
1.0
 70
     8
 71
     3
 72
    12
 73
     8
 74
     0
 42
0.00000001
 43
0.00000001
 40
0.0
 40
0.0
 40
0.0
 40
0.0
 40
0.25
 40
0.25
 40
0.5
 40
0.5
 40
1.0
 40
1.0
 40
1.0
 40
1.0
 10
167.3435533280403
 20
141.982109990311
 30
0.0
 10
167.434753049866
 20
141.982109990311
 30
0.0
 10
167.5253480590021
 20
141.9538902917231
 30
0.0
 10
167.6787607854487
 20
141.859447284475
 30
0.0
 10
167.7439696527724
 20
141.7931603077697
 30
0.0
 10
167.8967541821123
 20
141.5675354844814
 30
0.0
 10
167.9435533280403
 20
141.3851092214488
 30
0.0
 10
167.9435533280403
 20
141.2043725892019
 30
0.0
  0
LINE
  5
102
330
1F
100
AcDbEntity
  8
0
  6
Continuous
 62
     7
370
    15
100
AcDbLine
 10
167.943553328
 20
141.2043725892
 30
0.0
 11
167.943553328
 21
137.3734203279
 31
0.0
  0
SPLINE
  5
103
330
1F
100
AcDbEntity
  8
0
  6
Continuous
 62
     7
370
    15
100
AcDbSpline
210
0.0
220
0.0
230
1.0
 70
     8
 71
     3
 72
    10
 73
     6
 74
     0
 42
0.00000001
 43
0.00000001
 40
0.0
 40
0.0
 40
0.0
 40
0.0
 40
0.5
 40
0.5
 40
1.0
 40
1.0
 40
1.0
 40
1.0
 10
167.9435533280403
 20
147.3698606517075
 30
0.0
 10
167.9435533280403
 20
147.5302659180583
 30
0.0
 10
167.8813154969335
 20
147.6893277310468
 30
0.0
 10
167.6621805731909
 20
147.9202401966772
 30
0.0
 10
167.5045918781991
 20
147.9906158011078
 30
0.0
 10
167.3435533280403
 20
147.9906158011078
 30
0.0
  0
LINE
  5
104
330
1F
100
AcDbEntity
  8
0
  6
Continuous
 62
     7
370
    15
100
AcDbLine
 10
167.943553328
 20
141.2043725892
 30
0.0
 11
167.943553328
 21
147.3698606517
 31
0.0
  0
LINE
  5
105
330
1F
100
AcDbEntity
  8
0
  6
Continuous
 62
     7
370
    15
100
AcDbLine
 10
167.343553328
 20
147.9906158011
 30
0.0
 11
163.3854861595
 21
147.9906158011
 31
0.0
  0
LINE
  5
106
330
1F
100
AcDbEntity
  8
0
  6
Continuous
 62
     7
370
    15
100
AcDbLine
 10
163.3854861595
 20
141.9821099903
 30
0.0
 11
163.3854861595
 21
147.9906158011
 31
0.0
  0
SPLINE
  5
107
330
1F
100
AcDbEntity
  8
0
  6
Continuous
 62
     7
370
    15
100
AcDbSpline
210
0.0
220
0.0
230
1.0
 70
     8
 71
     3
 72
     8
 73
     4
 74
     0
 42
0.00000001
 43
0.00000001
 40
0.0
 40
0.0
 40
0.0
 40
0.0
 40
1.0
 40
1.0
 40
1.0
 40
1.0
 10
163.3854861595294
 20
147.9906158011078
 30
0.0
 10
162.8903461301651
 20
147.1039361529276
 30
0.0
 10
162.3962634248861
 20
146.2166735172416
 30
0.0
 10
161.9035533280403
 20
145.3286545191152
 30
0.0
  0
LINE
  5
108
330
1F
100
AcDbEntity
  8
0
  6
Continuous
 62
     7
370
    15
100
AcDbLine
 10
161.903553328
 20
138.5735639955
 30
0.0
 11
161.903553328
 21
145.3286545191
 31
0.0
  0
SPLINE
  5
109
330
1F
100
AcDbEntity
  8
0
  6
Continuous
 62
     7
370
    15
100
AcDbSpline
210
0.0
220
0.0
230
1.0
 70
     8
 71
     3
 72
     8
 73
     4
 74
     0
 42
0.00000001
 43
0.00000001
 40
0.0
 40
0.0
 40
0.0
 40
0.0
 40
1.0
 40
1.0
 40
1.0
 40
1.0
 10
158.0835533280403
 20
145.3286545191151
 30
0.0
 10
157.5908432311946
 20
146.2166735172416
 30
0.0
 10
157.0967605259156
 20
147.1039361529275
 30
0.0
 10
156.6016204965513
 20
147.9906158011078
 30
0.0
  0
SPLINE
  5
10A
330
1F
100
AcDbEntity
  8
0
  6
Continuous
 62
     7
370
    15
100
AcDbSpline
210
0.0
220
0.0
230
1.0
 70
     8
 71
     3
 72
     8
 73
     4
 74
     0
 42
0.00000001
 43
0.00000001
 40
0.0
 40
0.0
 40
0.0
 40
0.0
 40
1.0
 40
1.0
 40
1.0
 40
1.0
 10
156.6016204965513
 20
141.982109990311
 30
0.0
 10
157.1087073383106
 20
140.8509596361473
 30
0.0
 10
157.6042751774505
 20
139.7145752253795
 30
0.0
 10
158.0835533280403
 20
138.5735639955269
 30
0.0
  0
LINE
  5
10B
330
1F
100
AcDbEntity
  8
0
  6
Continuous
 62
     7
370
    15
100
AcDbLine
 10
158.083553328
 20
138.5735639955
 30
0.0
 11
158.083553328
 21
145.3286545191
 31
0.0
  0
LINE
  5
10C
330
1F
100
AcDbEntity
  8
0
  6
Continuous
 62
     7
370
    15
100
AcDbLine
 10
158.083553328
 20
138.5735639955
 30
0.0
 11
158.083553328
 21
137.6592869594
 31
0.0
  0
SPLINE
  5
10D
330
1F
100
AcDbEntity
  8
0
  6
Continuous
 62
     7
370
    15
100
AcDbSpline
210
0.0
220
0.0
230
1.0
 70
     8
 71
     3
 72
    40
 73
    36
 74
     0
 42
0.00000001
 43
0.00000001
 40
0.0
 40
0.0
 40
0.0
 40
0.0
 40
0.0625000000000014
 40
0.0625000000000014
 40
0.1250000000000027
 40
0.1250000000000027
 40
0.1875000000000041
 40
0.1875000000000041
 40
0.2500000000000054
 40
0.2500000000000054
 40
0.3125000000000068
 40
0.3125000000000068
 40
0.3750000000000082
 40
0.3750000000000082
 40
0.406250000000008
 40
0.406250000000008
 40
0.4375000000000078
 40
0.4375000000000078
 40
0.500000000000007
 40
0.500000000000007
 40
0.5625000000000061
 40
0.5625000000000061
 40
0.6250000000000052
 40
0.6250000000000052
 40
0.6875000000000044
 40
0.6875000000000044
 40
0.7500000000000036
 40
0.7500000000000036
 40
0.8125000000000027
 40
0.8125000000000027
 40
0.8750000000000018
 40
0.8750000000000018
 40
0.937500000000001
 40
0.937500000000001
 40
1.0
 40
1.0
 40
1.0
 40
1.0
 10
247.926264919506
 20
105.7788173352903
 30
0.0
 10
247.9738611676355
 20
105.7233173662249
 30
0.0
 10
248.031052533393
 20
105.6871696023293
 30
0.0
 10
248.1671784598023
 20
105.6489473658985
 30
0.0
 10
248.2471314764617
 20
105.6470895607896
 30
0.0
 10
248.4269468146734
 20
105.6771884919153
 30
0.0
 10
248.5259797840938
 20
105.7085206971471
 30
0.0
 10
248.742379875102
 20
105.805021605724
 30
0.0
 10
248.8606815098655
 20
105.8708410997215
 30
0.0
 10
249.1030518117952
 20
106.0394664467724
 30
0.0
 10
249.2306523625078
 20
106.1442763520776
 30
0.0
 10
249.4717872401443
 20
106.4050294338049
 30
0.0
 10
249.5868770179683
 20
106.5642931572951
 30
0.0
 10
249.7092966413555
 20
106.8445091044269
 30
0.0
 10
249.740956860995
 20
106.9433565540597
 30
0.0
 10
249.7832320542879
 20
107.1443941634068
 30
0.0
 10
249.7941062427662
 20
107.2482593971265
 30
0.0
 10
249.7999708725675
 20
107.5503877063481
 30
0.0
 10
249.7699879007335
 20
107.7468859584728
 30
0.0
 10
249.6801793657929
 20
108.1128216619519
 30
0.0
 10
249.6195457239264
 20
108.2866794364647
 30
0.0
 10
249.4843127050478
 20
108.6167620511917
 30
0.0
 10
249.4100323345783
 20
108.7719199075351
 30
0.0
 10
249.2547786984216
 20
109.0671573863615
 30
0.0
 10
249.1736976867983
 20
109.2071448869197
 30
0.0
 10
249.0077906365675
 20
109.4725742259971
 30
0.0
 10
248.9224734749858
 20
109.5985904557742
 30
0.0
 10
248.7528770653136
 20
109.8298335460703
 30
0.0
 10
248.668431445662
 20
109.9354493114351
 30
0.0
 10
248.5016363473404
 20
110.1223790339711
 30
0.0
 10
248.4185506034082
 20
110.2043837025898
 30
0.0
 10
248.2595662342261
 20
110.3307934596358
 30
0.0
 10
248.1835065456453
 20
110.3756584843781
 30
0.0
 10
248.0425334341038
 20
110.4099545053427
 30
0.0
 10
247.9800028105481
 20
110.3991346301414
 30
0.0
 10
247.926264919506
 20
110.3487064350453
 30
0.0
  0
SPLINE
  5
10E
330
1F
100
AcDbEntity
  8
0
  6
Continuous
 62
     7
370
    15
100
AcDbSpline
210
0.0
220
0.0
230
1.0
 70
     8
 71
     3
 72
     8
 73
     4
 74
     0
 42
0.00000001
 43
0.00000001
 40
0.0
 40
0.0
 40
0.0
 40
0.0
 40
1.0
 40
1.0
 40
1.0
 40
1.0
 10
254.9935533280405
 20
133.6940730531533
 30
0.0
 10
255.1598815534014
 20
133.8834935712852
 30
0.0
 10
255.3265571249946
 20
134.0726099289666
 30
0.0
 10
255.4935533280405
 20
134.2614455195115
 30
0.0
  0
ELLIPSE
  5
10F
330
1F
100
AcDbEntity
  8
0
  6
Continuous
 62
     7
370
    15
100
AcDbEllipse
 10
332.5335068778
 20
117.5234203279
 30
0.0
 11
195.0439690208261
 21
4.307686264911467
 31
0.0
210
0.0
220
0.0
230
1.0
 40
0.1027578619
 41
1.909267233863964
 42
1.974580119873318
  0
LINE
  5
110
330
1F
100
AcDbEntity
  8
0
  6
Continuous
 62
     7
370
    15
100
AcDbLine
 10
267.3525699319
 20
134.9982451602
 30
0.0
 11
277.0738648924
 21
104.8863034707
 31
0.0
  0
LINE
  5
111
330
1F
100
AcDbEntity
  8
0
  6
Continuous
 62
     7
370
    15
100
AcDbLine
 10
277.0738648924
 20
104.8863034707
 30
0.0
 11
262.6403802512
 21
109.0468298408
 31
0.0
  0
ARC
  5
112
330
1F
100
AcDbEntity
  8
0
  6
Continuous
 62
     7
370
    15
100
AcDbCircle
 10
262.0105481641
 20
107.0746425093
 30
0.0
 40
2.070316721746594
100
AcDbArc
 50
72.2887468944
 51
252.3938395035
  0
LINE
  5
113
330
1F
100
AcDbEntity
  8
0
  6
Continuous
 62
     7
370
    15
100
AcDbLine
 10
261.3843345442
 20
105.1013032505
 30
0.0
 11
264.3651000709
 21
104.2420822179
 31
0.0
  0
LINE
  5
114
330
1F
100
AcDbEntity
  8
0
  6
Continuous
 62
     7
370
    15
100
AcDbLine
 10
264.3651000709
 20
104.2420822179
 30
0.0
 11
267.2367064255
 21
95.3472134317
 31
0.0
  0
LINE
  5
115
330
1F
100
AcDbEntity
  8
0
  6
Continuous
 62
     7
370
    15
100
AcDbLine
 10
257.4521626863
 20
98.1676586159
 30
0.0
 11
267.2367064255
 21
95.3472134317
 31
0.0
  0
SPLINE
  5
116
330
1F
100
AcDbEntity
  8
0
  6
Continuous
 62
     7
370
    15
100
AcDbSpline
210
0.0
220
0.0
230
1.0
 70
     8
 71
     3
 72
    14
 73
    10
 74
     0
 42
0.00000001
 43
0.00000001
 40
0.0
 40
0.0
 40
0.0
 40
0.0
 40
0.25
 40
0.25
 40
0.5
 40
0.5
 40
0.75
 40
0.75
 40
1.0
 40
1.0
 40
1.0
 40
1.0
 10
253.600601133209
 20
97.9980516723036
 30
0.0
 10
253.9068248996082
 20
98.11500334744143
 30
0.0
 10
254.2202632125949
 20
98.20688112447668
 30
0.0
 10
254.8615863972925
 20
98.34042818145276
 30
0.0
 10
255.1918292984697
 20
98.38184418687257
 30
0.0
 10
255.844360154601
 20
98.41062919073228
 30
0.0
 10
256.1689478227374
 20
98.39883075050129
 30
0.0
 10
256.8147768145988
 20
98.32299522050894
 30
0.0
 10
257.1376115622342
 20
98.25832959929767
 30
0.0
 10
257.4521626862965
 20
98.16765861588993
 30
0.0
  0
LWPOLYLINE
  5
117
330
1F
100
AcDbEntity
  8
0
  6
Continuous
 62
     7
370
    15
100
AcDbPolyline
 90
       27
 70
   128
 43
0.0
 10
266.5655063767
 20
117.0826604142
 10
267.3985227148
 20
117.0013826493
 10
268.1831271713
 20
116.7258661118
 10
268.873721387
 20
116.2721228212
 10
269.4301705363
 20
115.6665226884
 10
269.8201358173
 20
114.9442609918
 10
270.0209538653
 20
114.1473129559
 10
270.0209538653
 20
113.3219943037
 10
269.8201358173
 20
112.5162695555
 10
269.4301705363
 20
111.7769645048
 10
268.873721387
 20
111.1470448741
 10
268.1831271713
 20
110.6631193024
 10
267.3985227148
 20
110.3533117852
 10
266.5655063767
 20
110.2356272091
 10
265.7324900386
 20
110.3169049739
 10
264.9478855821
 20
110.5924215115
 10
264.2572913664
 20
111.0461648021
 10
263.7008422171
 20
111.6517649349
 10
263.3108769361
 20
112.3740266315
 10
263.1100588881
 20
113.1709746674
 10
263.1100588881
 20
113.9962933195
 10
263.3108769361
 20
114.8020180678
 10
263.7008422171
 20
115.5413231184
 10
264.2572913664
 20
116.1712427492
 10
264.9478855821
 20
116.6551683208
 10
265.7324900386
 20
116.9649758381
 10
266.5655063767
 20
117.0826604142
  0
LINE
  5
118
330
1F
100
AcDbEntity
  8
0
  6
Continuous
 62
     7
370
    15
100
AcDbLine
 10
255.493553328
 20
134.2614455195
 30
0.0
 11
255.493553328
 21
138.0234203279
 31
0.0
  0
ELLIPSE
  5
119
330
1F
100
AcDbEntity
  8
0
  6
Continuous
 62
     7
370
    15
100
AcDbEllipse
 10
272.7580943368
 20
117.5234203279
 30
0.0
 11
-6.813115534748646
 21
20.49875008501938
 31
0.0
210
0.0
220
0.0
230
1.0
 40
0.0332261324
 41
5.721962579362406
 42
6.272142474023822
  0
LINE
  5
11A
330
1F
100
AcDbEntity
  8
0
  6
Continuous
 62
     7
370
    15
100
AcDbLine
 10
111.243553328
 20
96.7109203279
 30
0.0
 11
111.243553328
 21
96.7167887694
 31
0.0
  0
LINE
  5
11B
330
1F
100
AcDbEntity
  8
0
  6
Continuous
 62
     7
370
    15
100
AcDbLine
 10
259.9329149811
 20
107.2196816478
 30
0.0
 11
260.4205821128
 21
107.0077478102
 31
0.0
  0
LINE
  5
11C
330
1F
100
AcDbEntity
  8
0
  6
Continuous
 62
     7
370
    15
100
AcDbLine
 10
260.4205821128
 20
107.0077478102
 30
0.0
 11
263.4013476396
 21
106.1485267776
 31
0.0
  0
LINE
  5
11D
330
1F
100
AcDbEntity
  8
0
  6
Continuous
 62
     7
370
    15
100
AcDbLine
 10
263.4013476396
 20
106.1485267776
 30
0.0
 11
264.3651000709
 21
104.2420822179
 31
0.0
  0
ELLIPSE
  5
11E
330
1F
100
AcDbEntity
  8
0
  6
Continuous
 62
     7
370
    15
100
AcDbEllipse
 10
258.1449029423
 20
122.9267531013
 30
0.0
 11
-9.078460931648237
 21
27.58917118271999
 31
0.0
210
0.0
220
0.0
230
1.0
 40
0.0291674204
 41
3.121702977117128
 42
3.160108153331609
  0
LWPOLYLINE
  5
11F
330
1F
100
AcDbEntity
  8
0
  6
Continuous
 62
     7
370
    15
100
AcDbPolyline
 90
        3
 70
   128
 43
0.0
 10
270.3639617331
 20
98.6631419571
 10
270.4308963876
 20
98.6393069132
 10
270.6666576778
 20
98.568484793
  0
LINE
  5
120
330
1F
100
AcDbEntity
  8
0
  6
Continuous
 62
     7
370
    15
100
AcDbLine
 10
274.5577278891
 20
100.672906117
 30
0.0
 11
274.5986932126
 21
100.803898025
 31
0.0
  0
LINE
  5
121
330
1F
100
AcDbEntity
  8
0
  6
HIDDEN
 62
     7
370
     0
100
AcDbLine
 10
146.943553328
 20
86.0234203279
 30
0.0
 11
146.943553328
 21
86.0392973451
 31
0.0
  0
SPLINE
  5
122
330
1F
100
AcDbEntity
  8
0
  6
HIDDEN
 62
     7
370
     0
100
AcDbSpline
210
0.0
220
0.0
230
1.0
 70
     8
 71
     3
 72
    30
 73
    26
 74
     0
 42
0.00000001
 43
0.00000001
 40
0.0
 40
0.0
 40
0.0
 40
0.0
 40
0.1250000000000001
 40
0.1250000000000001
 40
0.1875000000000002
 40
0.1875000000000002
 40
0.2500000000000002
 40
0.2500000000000002
 40
0.3750000000000004
 40
0.3750000000000004
 40
0.4375000000000003
 40
0.4375000000000003
 40
0.5000000000000002
 40
0.5000000000000002
 40
0.6250000000000002
 40
0.6250000000000002
 40
0.6875000000000001
 40
0.6875000000000001
 40
0.75
 40
0.75
 40
0.8125
 40
0.8125
 40
0.8749999999999999
 40
0.8749999999999999
 40
1.0
 40
1.0
 40
1.0
 40
1.0
 10
146.9435533280403
 20
86.0392973450812
 30
0.0
 10
146.9435533280403
 20
86.05617626308981
 30
0.0
 10
146.9959708940187
 20
86.08619382791451
 30
0.0
 10
147.149350373921
 20
86.14900421718761
 30
0.0
 10
147.2130314945888
 20
86.17290812441452
 30
0.0
 10
147.3659863620405
 20
86.2263434168569
 30
0.0
 10
147.4555586608097
 20
86.25595028502448
 30
0.0
 10
147.7567826936629
 20
86.35039998373891
 30
0.0
 10
148.002097689747
 20
86.42142737756812
 30
0.0
 10
148.4361946708173
 20
86.5354416642739
 30
0.0
 10
148.5928643599209
 20
86.57489691541446
 30
0.0
 10
148.9248575237633
 20
86.65441835818513
 30
0.0
 10
149.0995630527558
 20
86.6943545006859
 30
0.0
 10
149.6492327353473
 20
86.81329090351407
 30
0.0
 10
150.0494836980586
 20
86.89145566739792
 30
0.0
 10
150.7030705646961
 20
87.00116510766681
 30
0.0
 10
150.9287466843732
 20
87.03624594437521
 30
0.0
 10
151.3884585055045
 20
87.10148622375483
 30
0.0
 10
151.6235118395476
 20
87.13182103979958
 30
0.0
 10
152.1040191218466
 20
87.18715941902141
 30
0.0
 10
152.3494726497608
 20
87.2121640955815
 30
0.0
 10
152.8510880745681
 20
87.2560439044722
 30
0.0
 10
153.1085804571686
 20
87.2749875892345
 30
0.0
 10
153.8866569736048
 20
87.32070731650468
 30
0.0
 10
154.4118192508496
 20
87.33650263169639
 30
0.0
 10
154.9435533280403
 20
87.33650263169639
 30
0.0
  0
LINE
  5
123
330
1F
100
AcDbEntity
  8
0
  6
HIDDEN
 62
     7
370
     0
100
AcDbLine
 10
154.943553328
 20
87.3365026317
 30
0.0
 11
156.6016204966
 21
87.3365026317
 31
0.0
  0
LINE
  5
124
330
1F
100
AcDbEntity
  8
0
  6
HIDDEN
 62
     7
370
     0
100
AcDbLine
 10
156.6016204966
 20
147.9906158011
 30
0.0
 11
156.6016204966
 21
87.3365026317
 31
0.0
  0
LINE
  5
125
330
1F
100
AcDbEntity
  8
0
  6
HIDDEN
 62
     7
370
     0
100
AcDbLine
 10
154.943553328
 20
147.9906158011
 30
0.0
 11
156.6016204966
 21
147.9906158011
 31
0.0
  0
SPLINE
  5
126
330
1F
100
AcDbEntity
  8
0
  6
HIDDEN
 62
     7
370
     0
100
AcDbSpline
210
0.0
220
0.0
230
1.0
 70
     8
 71
     3
 72
    24
 73
    20
 74
     0
 42
0.00000001
 43
0.00000001
 40
0.0
 40
0.0
 40
0.0
 40
0.0
 40
0.0096782451553158
 40
0.0638588836852806
 40
0.1667010311355782
 40
0.2187073065124988
 40
0.2715778632704837
 40
0.375419357155
 40
0.427909217371473
 40
0.4812398925514244
 40
0.5342050504510151
 40
0.5875320406228585
 40
0.6420045006576315
 40
0.6968767152059936
 40
0.7500516894831777
 40
0.8036098332125715
 40
0.8583964699047831
 40
0.9136164385364072
 40
1.0
 40
1.0
 40
1.0
 40
1.0
 10
146.9477575254134
 20
149.0223535761438
 30
0.0
 10
146.9464386725627
 20
149.0226881673487
 30
0.0
 10
146.9377366331501
 20
149.0248958631131
 30
0.0
 10
146.9926454483018
 20
149.0109558542887
 30
0.0
 10
147.1448319041445
 20
148.9725633157801
 30
0.0
 10
147.406900214565
 20
148.9086930998047
 30
0.0
 10
147.7360568375813
 20
148.8307190372879
 30
0.0
 10
148.164724779457
 20
148.7340156031959
 30
0.0
 10
148.6818139726693
 20
148.6265535285808
 30
0.0
 10
149.1162057934785
 20
148.5418175588536
 30
0.0
 10
149.5930321144255
 20
148.455585842643
 30
0.0
 10
150.110663185496
 20
148.3700193285874
 30
0.0
 10
150.6694061301935
 20
148.2871739442098
 30
0.0
 10
151.2593024027181
 20
148.2106171636965
 30
0.0
 10
151.8729677417812
 20
148.1429033290815
 30
0.0
 10
152.5089462724749
 20
148.085386326697
 30
0.0
 10
153.1717297548801
 20
148.0398334744643
 30
0.0
 10
153.9841569564738
 20
148.0002988364906
 30
0.0
 10
154.5800411885393
 20
147.9942846714654
 30
0.0
 10
154.9435533280403
 20
147.9906158011078
 30
0.0
  0
SPLINE
  5
127
330
1F
100
AcDbEntity
  8
0
  6
HIDDEN
 62
     7
370
     0
100
AcDbSpline
210
0.0
220
0.0
230
1.0
 70
     8
 71
     3
 72
    76
 73
    72
 74
     0
 42
0.00000001
 43
0.00000001
 40
-0.0312499999999999
 40
-0.0312499999999999
 40
0.0
 40
0.0
 40
0.0312500000000002
 40
0.0312500000000002
 40
0.0468750000000003
 40
0.0468750000000003
 40
0.0625000000000003
 40
0.0625000000000003
 40
0.0937500000000005
 40
0.0937500000000005
 40
0.1250000000000006
 40
0.1250000000000006
 40
0.1562500000000008
 40
0.1562500000000008
 40
0.1875000000000009
 40
0.1875000000000009
 40
0.2187500000000011
 40
0.2187500000000011
 40
0.2500000000000012
 40
0.2500000000000012
 40
0.2812500000000015
 40
0.2812500000000015
 40
0.3125000000000017
 40
0.3125000000000017
 40
0.3281250000000017
 40
0.3281250000000017
 40
0.3437500000000018
 40
0.3437500000000018
 40
0.3750000000000018
 40
0.3750000000000018
 40
0.4062500000000018
 40
0.4062500000000018
 40
0.4375000000000018
 40
0.4375000000000018
 40
0.4687500000000018
 40
0.4687500000000018
 40
0.5000000000000018
 40
0.5000000000000018
 40
0.5312500000000019
 40
0.5312500000000019
 40
0.5625000000000018
 40
0.5625000000000018
 40
0.5937500000000018
 40
0.5937500000000018
 40
0.6250000000000017
 40
0.6250000000000017
 40
0.6562500000000017
 40
0.6562500000000017
 40
0.6875000000000017
 40
0.6875000000000017
 40
0.7031250000000016
 40
0.7031250000000016
 40
0.7187500000000013
 40
0.7187500000000013
 40
0.7500000000000012
 40
0.7500000000000012
 40
0.7812500000000011
 40
0.7812500000000011
 40
0.8125000000000009
 40
0.8125000000000009
 40
0.8437500000000008
 40
0.8437500000000008
 40
0.8750000000000006
 40
0.8750000000000006
 40
0.9062500000000004
 40
0.9062500000000004
 40
0.9375000000000003
 40
0.9375000000000003
 40
0.9687500000000001
 40
0.9687500000000001
 40
1.0
 40
1.0
 40
1.03125
 40
1.03125
 10
143.9935533280403
 20
117.8543043237376
 30
0.0
 10
143.9935533280403
 20
117.1925363321495
 30
0.0
 10
144.0260738058247
 20
116.8672851640536
 30
0.0
 10
144.1215670501067
 20
116.3874884431645
 30
0.0
 10
144.1612418855179
 20
116.2289127593709
 30
0.0
 10
144.2566284988535
 20
115.9145303735778
 30
0.0
 10
144.3125727402642
 20
115.7584107499937
 30
0.0
 10
144.5009357637138
 20
115.3044701900917
 30
0.0
 10
144.6545480401322
 20
115.0174899440847
 30
0.0
 10
145.0173758339163
 20
114.4743767873454
 30
0.0
 10
145.2282109354988
 20
114.2176374958015
 30
0.0
 10
145.6887105055163
 20
113.7572528615705
 30
0.0
 10
145.9400734464341
 20
113.5504760448167
 30
0.0
 10
146.4864201407875
 20
113.1849518371532
 30
0.0
 10
146.7766347805054
 20
113.0299522784384
 30
0.0
 10
147.3780215968071
 20
112.7804212573442
 30
0.0
 10
147.6936512898976
 20
112.6841429836555
 30
0.0
 10
148.3392916911771
 20
112.5554939764125
 30
0.0
 10
148.6640474469905
 20
112.523607717296
 30
0.0
 10
149.3173474773818
 20
112.5232345697852
 30
0.0
 10
149.6492198182125
 20
112.5558140560312
 30
0.0
 10
150.2908710518162
 20
112.6835879607376
 30
0.0
 10
150.6027959687493
 20
112.7781204050347
 30
0.0
 10
151.0572855692662
 20
112.9662399995734
 30
0.0
 10
151.2071488771002
 20
113.0371229807942
 30
0.0
 10
151.4962341110228
 20
113.1917395871286
 30
0.0
 10
151.6360950253309
 20
113.2756621858665
 30
0.0
 10
152.0419714690351
 20
113.5468577093422
 30
0.0
 10
152.2950096155247
 20
113.7539577147835
 30
0.0
 10
152.7609091716881
 20
114.2195601678407
 30
0.0
 10
152.9674152461839
 20
114.471479020228
 30
0.0
 10
153.3295208095836
 20
115.0123826362289
 30
0.0
 10
153.4863799233987
 20
115.3049254789803
 30
0.0
 10
153.7373300402614
 20
115.9097931357378
 30
0.0
 10
153.8321411395923
 20
116.2214399671845
 30
0.0
 10
153.9605630023854
 20
116.8631932724061
 30
0.0
 10
153.9934262888766
 20
117.1949210912854
 30
0.0
 10
153.9936796149852
 20
117.8480408565463
 30
0.0
 10
153.9621236144159
 20
118.1729740628894
 30
0.0
 10
153.8338823929915
 20
118.8195010693425
 30
0.0
 10
153.7380763443331
 20
119.1345090232034
 30
0.0
 10
153.488942833239
 20
119.736467691349
 30
0.0
 10
153.3334827115443
 20
120.0279438616245
 30
0.0
 10
152.9690284571845
 20
120.5735387981212
 30
0.0
 10
152.7625955497487
 20
120.8250159131264
 30
0.0
 10
152.3021264672308
 20
121.2863389371811
 30
0.0
 10
152.0453294591749
 20
121.4974622381275
 30
0.0
 10
151.5032842453404
 20
121.8601930198435
 30
0.0
 10
151.2165146654049
 20
122.0140819232291
 30
0.0
 10
150.7622074895193
 20
122.2030316499211
 30
0.0
 10
150.6060671887458
 20
122.2591044459409
 30
0.0
 10
150.2922212273997
 20
122.3546072114736
 30
0.0
 10
150.1338344397059
 20
122.3943878545011
 30
0.0
 10
149.6543581997626
 20
122.4902703916264
 30
0.0
 10
149.3281182553357
 20
122.5231458396259
 30
0.0
 10
148.6672436580577
 20
122.523691408797
 30
0.0
 10
148.3421073107128
 20
122.4915248901836
 30
0.0
 10
147.7020248102263
 20
122.3647423521963
 30
0.0
 10
147.3837038861585
 20
122.268474598405
 30
0.0
 10
146.7787876073194
 20
122.0180802769799
 30
0.0
 10
146.4916386936679
 20
121.8647661152583
 30
0.0
 10
145.9476871399949
 20
121.5020581912385
 30
0.0
 10
145.6910411902683
 20
121.2916191185047
 30
0.0
 10
145.2304506368554
 20
120.8317381302283
 30
0.0
 10
145.0233017508645
 20
120.5804563305355
 30
0.0
 10
144.6567705074512
 20
120.0335361567955
 30
0.0
 10
144.5020863199467
 20
119.7443960051793
 30
0.0
 10
144.2519866666085
 20
119.14315933126
 30
0.0
 10
144.1552998921154
 20
118.8271836376192
 30
0.0
 10
144.0260783171591
 20
118.1812098795226
 30
0.0
 10
143.9935533280403
 20
117.8543043237376
 30
0.0
 10
143.9935533280403
 20
117.1925363321495
 30
0.0
  0
LINE
  5
128
330
1F
100
AcDbEntity
  8
0
  6
HIDDEN
 62
     7
370
     0
100
AcDbLine
 10
141.993553328
 20
148.7234203121
 30
0.0
 11
141.993553328
 21
86.3234203279
 31
0.0
  0
SPLINE
  5
129
330
1F
100
AcDbEntity
  8
0
  6
HIDDEN
 62
     7
370
     0
100
AcDbSpline
210
0.0
220
0.0
230
1.0
 70
     8
 71
     3
 72
    10
 73
     6
 74
     0
 42
0.00000001
 43
0.00000001
 40
0.0
 40
0.0
 40
0.0
 40
0.0
 40
0.5
 40
0.5
 40
1.0
 40
1.0
 40
1.0
 40
1.0
 10
161.9035533280403
 20
90.7190246996142
 30
0.0
 10
161.9035533280403
 20
90.78926105998497
 30
0.0
 10
161.8952707159498
 20
90.85925516148247
 30
0.0
 10
161.8621707728913
 20
90.99621442604139
 30
0.0
 10
161.8378333809328
 20
91.06152233529666
 30
0.0
 10
161.8058785257081
 20
91.12342032794355
 30
0.0
  0
LINE
  5
12A
330
1F
100
AcDbEntity
  8
0
  6
HIDDEN
 62
     7
370
     0
100
AcDbLine
 10
161.903553328
 20
137.6592869594
 30
0.0
 11
161.903553328
 21
144.643074179
 31
0.0
  0
SPLINE
  5
12B
330
1F
100
AcDbEntity
  8
0
  6
HIDDEN
 62
     7
370
     0
100
AcDbSpline
210
0.0
220
0.0
230
1.0
 70
    24
 71
     3
 72
    10
 73
     6
 74
     0
 42
0.00000001
 43
0.00000001
 40
0.0
 40
0.0
 40
0.0
 40
0.0
 40
0.5
 40
0.5
 40
1.0
 40
1.0
 40
1.0
 40
1.0
 10
161.8774057048802
 20
137.3734203279436
 30
0.0
 10
161.8860834797879
 20
137.3734203279436
 30
0.0
 10
161.8926365037947
 20
137.3734203279436
 30
0.0
 10
161.9013711132918
 20
137.3734203279436
 30
0.0
 10
161.9035533280403
 20
137.3734203279436
 30
0.0
 10
161.9035533280403
 20
137.3734203279436
 30
0.0
  0
LINE
  5
12C
330
1F
100
AcDbEntity
  8
0
  6
HIDDEN
 62
     7
370
     0
100
AcDbLine
 10
161.903553328
 20
90.7190246996
 30
0.0
 11
161.903553328
 21
137.3734203279
 31
0.0
  0
SPLINE
  5
12D
330
1F
100
AcDbEntity
  8
0
  6
HIDDEN
 62
     7
370
     0
100
AcDbSpline
210
0.0
220
0.0
230
1.0
 70
     8
 71
     3
 72
    10
 73
     6
 74
     0
 42
0.00000001
 43
0.00000001
 40
0.0
 40
0.0
 40
0.0
 40
0.0
 40
0.5
 40
0.5
 40
1.0
 40
1.0
 40
1.0
 40
1.0
 10
158.1812281303726
 20
91.12342032794356
 30
0.0
 10
158.1490729427506
 20
91.06113428242746
 30
0.0
 10
158.1244167115564
 20
90.99460385755826
 30
0.0
 10
158.0916039546309
 20
90.85774522719582
 30
0.0
 10
158.0835533280403
 20
90.7886876320175
 30
0.0
 10
158.0835533280403
 20
90.7190246996142
 30
0.0
  0
SPLINE
  5
12E
330
1F
100
AcDbEntity
  8
0
  6
HIDDEN
 62
     7
370
     0
100
AcDbSpline
210
0.0
220
0.0
230
1.0
 70
    24
 71
     3
 72
    10
 73
     6
 74
     0
 42
0.00000001
 43
0.00000001
 40
0.0
 40
0.0
 40
0.0
 40
0.0
 40
0.5
 40
0.5
 40
1.0
 40
1.0
 40
1.0
 40
1.0
 10
158.0835533280404
 20
137.3734203279436
 30
0.0
 10
158.0835533280404
 20
137.3734203279436
 30
0.0
 10
158.085775186525
 20
137.3734203279436
 30
0.0
 10
158.0945118582486
 20
137.3734203279436
 30
0.0
 10
158.101023372043
 20
137.3734203279436
 30
0.0
 10
158.1097009512005
 20
137.3734203279436
 30
0.0
  0
LINE
  5
12F
330
1F
100
AcDbEntity
  8
0
  6
HIDDEN
 62
     7
370
     0
100
AcDbLine
 10
158.083553328
 20
137.6592869594
 30
0.0
 11
158.083553328
 21
144.643074179
 31
0.0
  0
LINE
  5
130
330
1F
100
AcDbEntity
  8
0
  6
HIDDEN
 62
     7
370
     0
100
AcDbLine
 10
158.083553328
 20
90.7190246996
 30
0.0
 11
158.083553328
 21
137.3734203279
 31
0.0
  0
LINE
  5
131
330
1F
100
AcDbEntity
  8
0
  6
HIDDEN
 62
     7
370
     0
100
AcDbLine
 10
141.993553328
 20
92.1994964068
 30
0.0
 11
141.993553328
 21
142.8225578639
 31
0.0
  0
LINE
  5
132
330
1F
100
AcDbEntity
  8
0
  6
HIDDEN
 62
     7
370
     0
100
AcDbLine
 10
146.943553328
 20
137.3734203279
 30
0.0
 11
154.1891736737
 21
137.3734203279
 31
0.0
  0
LWPOLYLINE
  5
133
330
1F
100
AcDbEntity
  8
0
  6
HIDDEN
 62
     7
370
     0
100
AcDbPolyline
 90
        2
 70
   128
 43
0.0
 10
161.903553328
 20
137.3734203279
 10
161.903553328
 20
137.3734203279
  0
LWPOLYLINE
  5
134
330
1F
100
AcDbEntity
  8
0
  6
HIDDEN
 62
     7
370
     0
100
AcDbPolyline
 90
        2
 70
   128
 43
0.0
 10
167.943553328
 20
137.3734203279
 10
167.943553328
 20
137.3734203279
  0
LWPOLYLINE
  5
135
330
1F
100
AcDbEntity
  8
0
  6
HIDDEN
 62
     7
370
     0
100
AcDbPolyline
 90
        2
 70
   128
 43
0.0
 10
158.083553328
 20
137.3734203279
 10
158.083553328
 20
137.3734203279
  0
LINE
  5
136
330
1F
100
AcDbEntity
  8
0
  6
HIDDEN
 62
     7
370
     0
100
AcDbLine
 10
139.993553328
 20
141.7438511897
 30
0.0
 11
139.993553328
 21
93.3029894662
 31
0.0
  0
SPLINE
  5
137
330
1F
100
AcDbEntity
  8
0
  6
HIDDEN
 62
     7
370
     0
100
AcDbSpline
210
0.0
220
0.0
230
1.0
 70
     8
 71
     3
 72
    14
 73
    10
 74
     0
 42
0.00000001
 43
0.00000001
 40
0.0
 40
0.0
 40
0.0
 40
0.0
 40
0.4999999999999989
 40
0.4999999999999989
 40
0.7499999999999983
 40
0.7499999999999983
 40
0.8749999999999991
 40
0.8749999999999991
 40
1.0
 40
1.0
 40
1.0
 40
1.0
 10
111.2435533280403
 20
96.71678876941597
 30
0.0
 10
111.8596302317956
 20
96.72251488964511
 30
0.0
 10
112.4737622279115
 20
96.73240525504714
 30
0.0
 10
113.3876588584251
 20
96.76304022271692
 30
0.0
 10
113.6910977859727
 20
96.77583368035489
 30
0.0
 10
114.1422344016102
 20
96.8037595083143
 30
0.0
 10
114.2919406511527
 20
96.81452912847405
 30
0.0
 10
114.5887817874008
 20
96.84166184407356
 30
0.0
 10
114.736167339904
 20
96.8574788169008
 30
0.0
 10
114.8799514669183
 20
96.88113790577525
 30
0.0
  0
SPLINE
  5
138
330
1F
100
AcDbEntity
  8
0
  6
HIDDEN
 62
     7
370
     0
100
AcDbSpline
210
0.0
220
0.0
230
1.0
 70
     8
 71
     3
 72
    10
 73
     6
 74
     0
 42
0.00000001
 43
0.00000001
 40
0.0
 40
0.0
 40
0.0
 40
0.0
 40
0.5
 40
0.5
 40
1.0
 40
1.0
 40
1.0
 40
1.0
 10
114.8799514669184
 20
96.88113790577523
 30
0.0
 10
115.5075791226257
 20
96.98441146451084
 30
0.0
 10
116.1587798676571
 20
97.07323657626237
 30
0.0
 10
117.4674845716693
 20
97.2353442831327
 30
0.0
 10
118.1285290089604
 20
97.3086437474193
 30
0.0
 10
118.79355332804
 20
97.37733156214698
 30
0.0
  0
SPLINE
  5
139
330
1F
100
AcDbEntity
  8
0
  6
HIDDEN
 62
     7
370
     0
100
AcDbSpline
210
0.0
220
0.0
230
1.0
 70
     8
 71
     3
 72
    18
 73
    14
 74
     0
 42
0.00000001
 43
0.00000001
 40
0.0
 40
0.0
 40
0.0
 40
0.0
 40
0.062499999999998
 40
0.062499999999998
 40
0.1249999999999961
 40
0.1249999999999961
 40
0.249999999999997
 40
0.249999999999997
 40
0.499999999999998
 40
0.499999999999998
 40
0.7499999999999989
 40
0.7499999999999989
 40
1.0
 40
1.0
 40
1.0
 40
1.0
 10
118.7935533280402
 20
97.37733156214685
 30
0.0
 10
118.8301255383906
 20
97.3811089656743
 30
0.0
 10
118.868776011826
 20
97.38055193779118
 30
0.0
 10
118.9428675055399
 20
97.37049273262934
 30
0.0
 10
118.978217799294
 20
97.36113885120479
 30
0.0
 10
119.0728120966834
 20
97.32675442477101
 30
0.0
 10
119.1229502698224
 20
97.29604269010818
 30
0.0
 10
119.2521435414036
 20
97.20011338007016
 30
0.0
 10
119.3104236861447
 20
97.1315978859529
 30
0.0
 10
119.4106187825682
 20
96.99502593602027
 30
0.0
 10
119.4506340340149
 20
96.92626103351736
 30
0.0
 10
119.5190334548326
 20
96.7912256044097
 30
0.0
 10
119.5473951786946
 20
96.72460757835654
 30
0.0
 10
119.5719490913005
 20
96.65904911066032
 30
0.0
  0
SPLINE
  5
13A
330
1F
100
AcDbEntity
  8
0
  6
HIDDEN
 62
     7
370
     0
100
AcDbSpline
210
0.0
220
0.0
230
1.0
 70
     8
 71
     3
 72
    14
 73
    10
 74
     0
 42
0.00000001
 43
0.00000001
 40
0.0
 40
0.0
 40
0.0
 40
0.0
 40
0.25
 40
0.25
 40
0.5
 40
0.5
 40
0.75
 40
0.75
 40
1.0
 40
1.0
 40
1.0
 40
1.0
 10
119.5719490913005
 20
96.65904911066032
 30
0.0
 10
119.6103854761215
 20
96.55642471294878
 30
0.0
 10
119.6791868695133
 20
96.45722828950923
 30
0.0
 10
119.8224728816723
 20
96.26633626018271
 30
0.0
 10
119.8976549367792
 20
96.17407899414981
 30
0.0
 10
120.0298422254294
 20
95.99447167233481
 30
0.0
 10
120.0873594208992
 20
95.90716211789046
 30
0.0
 10
120.1694042191915
 20
95.73722828437471
 30
0.0
 10
120.1935533280403
 20
95.65532594250357
 30
0.0
 10
120.1935533280403
 20
95.57827206866764
 30
0.0
  0
LINE
  5
13B
330
1F
100
AcDbEntity
  8
0
  6
HIDDEN
 62
     7
370
     0
100
AcDbLine
 10
120.193553328
 20
95.5782720687
 30
0.0
 11
120.193553328
 21
94.2949734342
 31
0.0
  0
LINE
  5
13C
330
1F
100
AcDbEntity
  8
0
  6
HIDDEN
 62
     7
370
     0
100
AcDbLine
 10
116.193553328
 20
140.5514664201
 30
0.0
 11
116.193553328
 21
139.3675280003
 31
0.0
  0
SPLINE
  5
13D
330
1F
100
AcDbEntity
  8
0
  6
HIDDEN
 62
     7
370
     0
100
AcDbSpline
210
0.0
220
0.0
230
1.0
 70
     8
 71
     3
 72
    18
 73
    14
 74
     0
 42
0.00000001
 43
0.00000001
 40
0.0
 40
0.0
 40
0.0
 40
0.0
 40
0.2499999999999998
 40
0.2499999999999998
 40
0.4999999999999996
 40
0.4999999999999996
 40
0.7499999999999993
 40
0.7499999999999993
 40
0.8749999999999988
 40
0.8749999999999988
 40
0.9374999999999993
 40
0.9374999999999993
 40
1.0
 40
1.0
 40
1.0
 40
1.0
 10
116.1935533280403
 20
139.3675280003065
 30
0.0
 10
116.1935533280403
 20
139.2843210914493
 30
0.0
 10
116.157704228102
 20
139.1955844361358
 30
0.0
 10
116.0328324920681
 20
139.0134592455755
 30
0.0
 10
115.9424320744203
 20
138.9183291969489
 30
0.0
 10
115.7201894196781
 20
138.7291476878246
 30
0.0
 10
115.5904246332323
 20
138.6342025197299
 30
0.0
 10
115.3497871759208
 20
138.4959238121499
 30
0.0
 10
115.2620198777834
 20
138.4502133788476
 30
0.0
 10
115.1074957905765
 20
138.3923900736261
 30
0.0
 10
115.0508849045218
 20
138.3746753095882
 30
0.0
 10
114.9268408736152
 20
138.3501360063553
 30
0.0
 10
114.8591261985969
 20
138.3441568678171
 30
0.0
 10
114.7935533280403
 20
138.3465077197713
 30
0.0
  0
SPLINE
  5
13E
330
1F
100
AcDbEntity
  8
0
  6
HIDDEN
 62
     7
370
     0
100
AcDbSpline
210
0.0
220
0.0
230
1.0
 70
     8
 71
     3
 72
    10
 73
     6
 74
     0
 42
0.00000001
 43
0.00000001
 40
0.0
 40
0.0
 40
0.0
 40
0.0
 40
0.5
 40
0.5
 40
1.0
 40
1.0
 40
1.0
 40
1.0
 10
114.7935533280403
 20
138.3465077197713
 30
0.0
 10
114.2059677809497
 20
138.3675732400077
 30
0.0
 10
113.6152213874893
 20
138.3783317258799
 30
0.0
 10
112.4312022221905
 20
138.3916965064156
 30
0.0
 10
111.837788233985
 20
138.3938391490802
 30
0.0
 10
111.2435533280403
 20
138.3933580933386
 30
0.0
  0
SPLINE
  5
13F
330
1F
100
AcDbEntity
  8
0
  6
HIDDEN
 62
     7
370
     0
100
AcDbSpline
210
0.0
220
0.0
230
1.0
 70
     8
 71
     3
 72
     8
 73
     4
 74
     0
 42
0.00000001
 43
0.00000001
 40
0.0000005099763571
 40
0.0000005099763571
 40
0.0000005099763571
 40
0.0000005099763571
 40
0.0000262827998697
 40
0.0000262827998697
 40
0.0000262827998697
 40
0.0000262827998697
 10
111.2435533280402
 20
138.3933580933386
 30
0.0
 10
111.2401845888125
 20
138.3900364243827
 30
0.0
 10
111.2368361358334
 20
138.3867084671039
 30
0.0
 10
111.233508397622
 20
138.3833742202312
 30
0.0
  0
SPLINE
  5
140
330
1F
100
AcDbEntity
  8
0
  6
HIDDEN
 62
     7
370
     0
100
AcDbSpline
210
0.0
220
0.0
230
1.0
 70
     8
 71
     3
 72
     8
 73
     4
 74
     0
 42
0.00000001
 43
0.00000001
 40
0.0000005954826279
 40
0.0000005954826279
 40
0.0000005954826279
 40
0.0000005954826279
 40
0.0000302093805348
 40
0.0000302093805348
 40
0.0000302093805348
 40
0.0000302093805348
 10
111.2335083976307
 20
96.72860389906789
 30
0.0
 10
111.2368244249509
 20
96.72465711947207
 30
0.0
 10
111.2401729763431
 20
96.72071872834215
 30
0.0
 10
111.2435533280402
 20
96.71678876941597
 30
0.0
  0
SPLINE
  5
141
330
1F
100
AcDbEntity
  8
0
  6
HIDDEN
 62
     7
370
     0
100
AcDbSpline
210
0.0
220
0.0
230
1.0
 70
     8
 71
     3
 72
    10
 73
     6
 74
     0
 42
0.00000001
 43
0.00000001
 40
0.0
 40
0.0
 40
0.0
 40
0.0
 40
0.2949159523317768
 40
0.5007639170797384
 40
1.0
 40
1.0
 40
1.0
 40
1.0
 10
129.9887035326119
 20
93.99882070512174
 30
0.0
 10
129.8157713195245
 20
93.98107349235612
 30
0.0
 10
129.5221343977839
 20
93.95093892787594
 30
0.0
 10
128.8473852657137
 20
93.88285686912417
 30
0.0
 10
128.7984809562144
 20
93.87303540858805
 30
0.0
 10
128.763854168113
 20
93.86608130502718
 30
0.0
  0
SPLINE
  5
142
330
1F
100
AcDbEntity
  8
0
  6
HIDDEN
 62
     7
370
     0
100
AcDbSpline
210
0.0
220
0.0
230
1.0
 70
     8
 71
     3
 72
    16
 73
    12
 74
     0
 42
0.00000001
 43
0.00000001
 40
0.0
 40
0.0
 40
0.0
 40
0.0
 40
0.0014619398999435
 40
0.1695060946944862
 40
0.3368148262131682
 40
0.5027784258718644
 40
0.5863380399920285
 40
0.6685202984823471
 40
0.7507638349534445
 40
0.834194604174546
 40
1.0
 40
1.0
 40
1.0
 40
1.0
 10
137.1751896959335
 20
93.4446752984705
 30
0.0
 10
137.1761198006481
 20
93.44446704505755
 30
0.0
 10
137.283961728927
 20
93.42032089326253
 30
0.0
 10
136.8959479961305
 20
93.50886774880847
 30
0.0
 10
136.0341573674515
 20
93.69247110657318
 30
0.0
 10
134.8438517009733
 20
93.88070102705362
 30
0.0
 10
133.7924514303912
 20
93.99210600705172
 30
0.0
 10
132.9664224745381
 20
94.04974162228808
 30
0.0
 10
132.1426345301346
 20
94.07622738054101
 30
0.0
 10
131.0724790584165
 20
94.07148779362807
 30
0.0
 10
130.4216621733428
 20
94.02785055781399
 30
0.0
 10
129.9887035326119
 20
93.99882070512174
 30
0.0
  0
SPLINE
  5
143
330
1F
100
AcDbEntity
  8
0
  6
HIDDEN
 62
     7
370
     0
100
AcDbSpline
210
0.0
220
0.0
230
1.0
 70
     8
 71
     3
 72
    16
 73
    12
 74
     0
 42
0.00000001
 43
0.00000001
 40
0.0
 40
0.0
 40
0.0
 40
0.0
 40
0.1658979086808742
 40
0.2493608198222819
 40
0.3317589050038945
 40
0.4138911421869724
 40
0.4976181669650956
 40
0.6634955966468966
 40
0.8305394509979773
 40
0.9983760749348629
 40
1.0
 40
1.0
 40
1.0
 40
1.0
 10
129.9886108123301
 20
141.0480033579253
 30
0.0
 10
130.422179224526
 20
141.0190505446382
 30
0.0
 10
131.0738750510369
 20
140.9755316280055
 30
0.0
 10
132.1448409549217
 20
140.9707919988028
 30
0.0
 10
132.9690639941571
 20
140.9971937535669
 30
0.0
 10
133.7960822101332
 20
141.0548873165244
 30
0.0
 10
134.8471993929691
 20
141.1665462135519
 30
0.0
 10
136.0359112451549
 20
141.354745088325
 30
0.0
 10
136.8966493328287
 20
141.5380045894364
 30
0.0
 10
137.2846539259049
 20
141.6265280553238
 30
0.0
 10
137.1760120357849
 20
141.6023320450334
 30
0.0
 10
137.1749709304095
 20
141.6021001768622
 30
0.0
  0
SPLINE
  5
144
330
1F
100
AcDbEntity
  8
0
  6
HIDDEN
 62
     7
370
     0
100
AcDbSpline
210
0.0
220
0.0
230
1.0
 70
     8
 71
     3
 72
    10
 73
     6
 74
     0
 42
0.00000001
 43
0.00000001
 40
0.0
 40
0.0
 40
0.0
 40
0.0
 40
0.4995493564858556
 40
0.5744878148481708
 40
1.0
 40
1.0
 40
1.0
 40
1.0
 10
128.7631500765447
 20
141.1808269250411
 30
0.0
 10
128.7834447926029
 20
141.1750346747278
 30
0.0
 10
128.806783962056
 20
141.1683735166613
 30
0.0
 10
129.4389626005541
 20
141.1042269435869
 30
0.0
 10
129.7360283064054
 20
141.0738400546601
 30
0.0
 10
129.9886108123301
 20
141.0480033579253
 30
0.0
  0
LINE
  5
145
330
1F
100
AcDbEntity
  8
0
  6
HIDDEN
 62
     7
370
     0
100
AcDbLine
 10
167.943553328
 20
94.5234203279
 30
0.0
 11
167.943553328
 21
140.4981408321
 31
0.0
  0
SPLINE
  5
146
330
1F
100
AcDbEntity
  8
0
  6
HIDDEN
 62
     7
370
     0
100
AcDbSpline
210
0.0
220
0.0
230
1.0
 70
     8
 71
     3
 72
    68
 73
    64
 74
     0
 42
0.00000001
 43
0.00000001
 40
-0.0624999999999976
 40
-0.0624999999999976
 40
0.0
 40
0.0
 40
0.0312500000000002
 40
0.0312500000000002
 40
0.0625000000000003
 40
0.0625000000000003
 40
0.0937500000000005
 40
0.0937500000000005
 40
0.1250000000000007
 40
0.1250000000000007
 40
0.1562500000000009
 40
0.1562500000000009
 40
0.1875000000000011
 40
0.1875000000000011
 40
0.2187500000000012
 40
0.2187500000000012
 40
0.2500000000000014
 40
0.2500000000000014
 40
0.2812500000000016
 40
0.2812500000000016
 40
0.3125000000000016
 40
0.3125000000000016
 40
0.3437500000000016
 40
0.3437500000000016
 40
0.3750000000000016
 40
0.3750000000000016
 40
0.4062500000000016
 40
0.4062500000000016
 40
0.4375000000000016
 40
0.4375000000000016
 40
0.4687500000000016
 40
0.4687500000000016
 40
0.5000000000000016
 40
0.5000000000000016
 40
0.5312500000000017
 40
0.5312500000000017
 40
0.5625000000000017
 40
0.5625000000000017
 40
0.5937500000000018
 40
0.5937500000000018
 40
0.6250000000000018
 40
0.6250000000000018
 40
0.6562500000000019
 40
0.6562500000000019
 40
0.6875000000000019
 40
0.6875000000000019
 40
0.718750000000002
 40
0.718750000000002
 40
0.750000000000002
 40
0.750000000000002
 40
0.7812500000000021
 40
0.7812500000000021
 40
0.8125000000000022
 40
0.8125000000000022
 40
0.8437500000000022
 40
0.8437500000000022
 40
0.8750000000000023
 40
0.8750000000000023
 40
0.9062500000000023
 40
0.9062500000000023
 40
0.9375000000000024
 40
0.9375000000000024
 40
1.0
 40
1.0
 40
1.03125
 40
1.03125
 10
240.3242238407171
 20
122.6388298340035
 30
0.0
 10
239.8282180717021
 20
122.6388298340035
 30
0.0
 10
239.6656783292794
 20
122.6546605626793
 30
0.0
 10
239.345951119582
 20
122.7165719991675
 30
0.0
 10
239.1870945429968
 20
122.7634141890143
 30
0.0
 10
238.8844226447678
 20
122.8852770696194
 30
0.0
 10
238.7408948291718
 20
122.9597191731302
 30
0.0
 10
238.4692630502244
 20
123.13502533613
 30
0.0
 10
238.3407784179014
 20
123.2367195839373
 30
0.0
 10
238.110421661941
 20
123.4580057627753
 30
0.0
 10
238.006994161978
 20
123.5784045719969
 30
0.0
 10
237.8242290854228
 20
123.8388560642665
 30
0.0
 10
237.7466627097014
 20
123.9768019516974
 30
0.0
 10
237.6219275167051
 20
124.2610499656575
 30
0.0
 10
237.5738471733624
 20
124.4094571649087
 30
0.0
 10
237.5095636645511
 20
124.7116833339931
 30
0.0
 10
237.4936443369946
 20
124.86292981577
 30
0.0
 10
237.4934630898083
 20
125.1656005039007
 30
0.0
 10
237.509727119089
 20
125.3185682068289
 30
0.0
 10
237.5735673368881
 20
125.6130299189431
 30
0.0
 10
237.6208008814752
 20
125.7554440413669
 30
0.0
 10
237.7461060477035
 20
126.0308346433401
 30
0.0
 10
237.8243138253287
 20
126.1630895666642
 30
0.0
 10
238.0051657078268
 20
126.4070405754361
 30
0.0
 10
238.1085378714866
 20
126.520378196446
 30
0.0
 10
238.3416744073638
 20
126.7289524404993
 30
0.0
 10
238.4677644443482
 20
126.8209434180564
 30
0.0
 10
238.7383065806713
 20
126.9817444637141
 30
0.0
 10
238.8845015412583
 20
127.0511094399528
 30
0.0
 10
239.1871268902081
 20
127.1620147817297
 30
0.0
 10
239.3429493887571
 20
127.2037601248128
 30
0.0
 10
239.6635825610356
 20
127.2602501047267
 30
0.0
 10
239.8293877416437
 20
127.2746950199207
 30
0.0
 10
240.1558415577535
 20
127.2748028836053
 30
0.0
 10
240.3181811600421
 20
127.2609325989692
 30
0.0
 10
240.6410431476966
 20
127.2045609227376
 30
0.0
 10
240.7987838581219
 20
127.1623140410318
 30
0.0
 10
241.0997361907943
 20
127.0522979841518
 30
0.0
 10
241.2452556687342
 20
126.9836600632064
 30
0.0
 10
241.5184589246248
 20
126.8216564162733
 30
0.0
 10
241.644289572556
 20
126.7296903089446
 30
0.0
 10
241.8749693961319
 20
126.5238769972756
 30
0.0
 10
241.9805868740709
 20
126.4086700744887
 30
0.0
 10
242.1621312613948
 20
126.1641767916464
 30
0.0
 10
242.2390497183884
 20
126.0344136906092
 30
0.0
 10
242.3648775135129
 20
125.7592727395408
 30
0.0
 10
242.4131377827987
 20
125.6142702695209
 30
0.0
 10
242.4770125515969
 20
125.320865317
 30
0.0
 10
242.4934027120626
 20
125.1709231710848
 30
0.0
 10
242.4937018970231
 20
124.8643760507534
 30
0.0
 10
242.4776125281082
 20
124.7128980170829
 30
0.0
 10
242.4142971211937
 20
124.413463163751
 30
0.0
 10
242.366283453703
 20
124.2639196373192
 30
0.0
 10
242.2410279146931
 20
123.9777842813433
 30
0.0
 10
242.1643574670447
 20
123.8414173159361
 30
0.0
 10
241.9831476828298
 20
123.5822887126589
 30
0.0
 10
241.8777846367426
 20
123.4592089286333
 30
0.0
 10
241.6476030184284
 20
123.2377988514227
 30
0.0
 10
241.5219376785525
 20
123.1379750061185
 30
0.0
 10
241.2488094441073
 20
122.9610956340465
 30
0.0
 10
241.1036897093874
 20
122.8858320288106
 30
0.0
 10
240.6527394591343
 20
122.7038216560163
 30
0.0
 10
240.3242238407171
 20
122.6388298340035
 30
0.0
 10
239.8282180717021
 20
122.6388298340035
 30
0.0
  0
LINE
  5
147
330
1F
100
AcDbEntity
  8
0
  6
HIDDEN
 62
     7
370
     0
100
AcDbLine
 10
254.993553328
 20
115.927415611
 30
0.0
 11
254.993553328
 21
137.5234203279
 31
0.0
  0
SPLINE
  5
148
330
1F
100
AcDbEntity
  8
0
  6
HIDDEN
 62
     7
370
     0
100
AcDbSpline
210
0.0
220
0.0
230
1.0
 70
     8
 71
     3
 72
    28
 73
    24
 74
     0
 42
0.00000001
 43
0.00000001
 40
0.0
 40
0.0
 40
0.0
 40
0.0
 40
0.0270825346680454
 40
0.0720850946041814
 40
0.1180525146372167
 40
0.1643366753817721
 40
0.2094846380077068
 40
0.2549182015328705
 40
0.3012365802006912
 40
0.3478555930604657
 40
0.3954926411700475
 40
0.4434517161784498
 40
0.4924202562451028
 40
0.541735356001109
 40
0.5901423634473805
 40
0.6388828812425117
 40
0.688675489147045
 40
0.7388345825617283
 40
0.787332513655102
 40
0.8361848350074023
 40
0.8737233181041603
 40
0.9367136377518152
 40
1.0
 40
1.0
 40
1.0
 40
1.0
 10
251.3749587795282
 20
97.53371421197178
 30
0.0
 10
251.2813920389516
 20
97.53268706845952
 30
0.0
 10
251.032347131267
 20
97.52995313907806
 30
0.0
 10
250.7103587587811
 20
97.62560999629899
 30
0.0
 10
250.3914898878983
 20
97.81834743569748
 30
0.0
 10
250.1393935399045
 20
98.11405304975862
 30
0.0
 10
249.9452823853374
 20
98.50519870290292
 30
0.0
 10
249.8051884275565
 20
98.99234739057661
 30
0.0
 10
249.7157369130954
 20
99.58037658419697
 30
0.0
 10
249.6763895314957
 20
100.27299698783
 30
0.0
 10
249.6878845564659
 20
101.0670693348213
 30
0.0
 10
249.7515947999321
 20
101.9650190267303
 30
0.0
 10
249.8692582204954
 20
102.9598996456791
 30
0.0
 10
250.0420197642642
 20
104.0380057746106
 30
0.0
 10
250.2702351968633
 20
105.1852358148555
 30
0.0
 10
250.5568881917665
 20
106.3973267798419
 30
0.0
 10
250.9092147414379
 20
107.6757253921651
 30
0.0
 10
251.3280236336627
 20
108.9922352297709
 30
0.0
 10
251.8154941021126
 20
110.3257932268975
 30
0.0
 10
252.3305218191089
 20
111.5559036635346
 30
0.0
 10
252.9809089885808
 20
112.9090793772409
 30
0.0
 10
253.785639766491
 20
114.3822671784328
 30
0.0
 10
254.590286670418
 20
115.4115617752834
 30
0.0
 10
254.9935533280404
 20
115.9274156109909
 30
0.0
  0
SPLINE
  5
149
330
1F
100
AcDbEntity
  8
0
  6
HIDDEN
 62
     7
370
     0
100
AcDbSpline
210
0.0
220
0.0
230
1.0
 70
    11
 71
     3
 72
    22
 73
    18
 74
     0
 42
0.00000001
 43
0.00000001
 40
0.0
 40
0.0
 40
0.0
 40
0.0
 40
0.125
 40
0.125
 40
0.25
 40
0.25
 40
0.375
 40
0.375
 40
0.5
 40
0.5
 40
0.625
 40
0.625
 40
0.75
 40
0.75
 40
0.875
 40
0.875
 40
1.0
 40
1.0
 40
1.0
 40
1.0
 10
135.7485553296419
 20
137.36094880376
 30
0.0
 10
135.907498158611
 20
137.383022511807
 30
0.0
 10
136.0481897065013
 20
137.3997063297946
 30
0.0
 10
136.2941759439638
 20
137.4259280246769
 30
0.0
 10
136.4002140266451
 20
137.4355073305223
 30
0.0
 10
136.5707060672121
 20
137.4495865976014
 30
0.0
 10
136.6347587666758
 20
137.4540931738485
 30
0.0
 10
136.7212628177688
 20
137.4599573436863
 30
0.0
 10
136.7434963131289
 20
137.4612992762046
 30
0.0
 10
136.7436101191409
 20
137.4613064159542
 30
0.0
 10
136.7221521906556
 20
137.4600137804679
 30
0.0
 10
136.6361663977767
 20
137.4541923509577
 30
0.0
 10
136.5708522510271
 20
137.4495928816819
 30
0.0
 10
136.4018464170917
 20
137.4356478608721
 30
0.0
 10
136.2978873792159
 20
137.4262954740137
 30
0.0
 10
136.0503769329769
 20
137.3999670035473
 30
0.0
 10
135.9074928428932
 20
137.3830217735693
 30
0.0
 10
135.7485553296422
 20
137.3609488037601
 30
0.0
  0
SPLINE
  5
14A
330
1F
100
AcDbEntity
  8
0
  6
HIDDEN
 62
     7
370
     0
100
AcDbSpline
210
0.0
220
0.0
230
1.0
 70
    11
 71
     3
 72
    22
 73
    18
 74
     0
 42
0.00000001
 43
0.00000001
 40
0.0
 40
0.0
 40
0.0
 40
0.0
 40
0.125
 40
0.125
 40
0.25
 40
0.25
 40
0.375
 40
0.375
 40
0.5
 40
0.5
 40
0.625
 40
0.625
 40
0.75
 40
0.75
 40
0.875
 40
0.875
 40
1.0
 40
1.0
 40
1.0
 40
1.0
 10
135.7485553296419
 20
97.68589185212709
 30
0.0
 10
135.907498158611
 20
97.66381814408004
 30
0.0
 10
136.0481897065013
 20
97.64713432609241
 30
0.0
 10
136.2941759439638
 20
97.62091263121013
 30
0.0
 10
136.4002140266451
 20
97.61133332536482
 30
0.0
 10
136.5707060672121
 20
97.59725405828567
 30
0.0
 10
136.6347587666758
 20
97.59274748203862
 30
0.0
 10
136.7212628177688
 20
97.58688331220073
 30
0.0
 10
136.7434963131289
 20
97.58554137968243
 30
0.0
 10
136.7436101191409
 20
97.5855342399329
 30
0.0
 10
136.7221521906556
 20
97.58682687541913
 30
0.0
 10
136.6361663977767
 20
97.59264830492936
 30
0.0
 10
136.5708522510271
 20
97.59724777420517
 30
0.0
 10
136.4018464170917
 20
97.61119279501503
 30
0.0
 10
136.2978873792159
 20
97.62054518187335
 30
0.0
 10
136.0503769329769
 20
97.64687365233978
 30
0.0
 10
135.9074928428932
 20
97.66381888231777
 30
0.0
 10
135.7485553296422
 20
97.68589185212699
 30
0.0
  0
LINE
  5
14B
330
1F
100
AcDbEntity
  8
0
  6
HIDDEN
 62
     7
370
     0
100
AcDbLine
 10
141.993553328
 20
100.5234203279
 30
0.0
 11
141.993553328
 21
134.5234203279
 31
0.0
  0
SPLINE
  5
14C
330
1F
100
AcDbEntity
  8
0
  6
HIDDEN
 62
     7
370
     0
100
AcDbSpline
210
0.0
220
0.0
230
1.0
 70
    11
 71
     3
 72
    56
 73
    52
 74
     0
 42
0.00000001
 43
0.00000001
 40
0.0
 40
0.0
 40
0.0
 40
0.0
 40
0.0624999999999998
 40
0.0624999999999998
 40
0.0937499999999997
 40
0.0937499999999997
 40
0.1249999999999996
 40
0.1249999999999996
 40
0.1562499999999995
 40
0.1562499999999995
 40
0.1874999999999995
 40
0.1874999999999995
 40
0.2187499999999994
 40
0.2187499999999994
 40
0.2499999999999993
 40
0.2499999999999993
 40
0.3124999999999991
 40
0.3124999999999991
 40
0.3437499999999992
 40
0.3437499999999992
 40
0.3749999999999992
 40
0.3749999999999992
 40
0.4062499999999992
 40
0.4062499999999992
 40
0.4374999999999991
 40
0.4374999999999991
 40
0.4687499999999991
 40
0.4687499999999991
 40
0.4999999999999991
 40
0.4999999999999991
 40
0.5624999999999991
 40
0.5624999999999991
 40
0.624999999999999
 40
0.624999999999999
 40
0.687499999999999
 40
0.687499999999999
 40
0.718749999999999
 40
0.718749999999999
 40
0.749999999999999
 40
0.749999999999999
 40
0.781249999999999
 40
0.781249999999999
 40
0.812499999999999
 40
0.812499999999999
 40
0.8749999999999992
 40
0.8749999999999992
 40
0.9374999999999997
 40
0.9374999999999997
 40
0.9687499999999999
 40
0.9687499999999999
 40
1.0
 40
1.0
 40
1.0
 40
1.0
 10
135.7485553296419
 20
97.68589185212706
 30
0.0
 10
135.4927680190941
 20
97.72141515602061
 30
0.0
 10
135.2025782121509
 20
97.75695902498886
 30
0.0
 10
134.7159251138601
 20
97.80343072489775
 30
0.0
 10
134.5455792716989
 20
97.81767663812926
 30
0.0
 10
134.1986058616078
 20
97.84196455232765
 30
0.0
 10
134.0206679643731
 20
97.85214089864968
 30
0.0
 10
133.6557486868134
 20
97.86781622625358
 30
0.0
 10
133.467414094718
 20
97.87330318746646
 30
0.0
 10
133.0935272422625
 20
97.8787631817422
 30
0.0
 10
132.9068370280926
 20
97.87882140500136
 30
0.0
 10
132.5339585371734
 20
97.87363726302456
 30
0.0
 10
132.346254294251
 20
97.86832178455315
 30
0.0
 10
131.9793353947035
 20
97.85281940352984
 30
0.0
 10
131.800885652639
 20
97.84271999576916
 30
0.0
 10
131.2800967492782
 20
97.80658815411523
 30
0.0
 10
130.9492130296073
 20
97.77415893309717
 30
0.0
 10
130.5127114712757
 20
97.72263244173006
 30
0.0
 10
130.3759259322231
 20
97.70490783068608
 30
0.0
 10
130.1202013227693
 20
97.66951350417679
 30
0.0
 10
130.0025775946637
 20
97.6520169827962
 30
0.0
 10
129.7925081414751
 20
97.61931458680769
 30
0.0
 10
129.6991733027901
 20
97.60398277786162
 30
0.0
 10
129.5362275921109
 20
97.57638661851281
 30
0.0
 10
129.4665246292611
 20
97.5640999353992
 30
0.0
 10
129.3559015629289
 20
97.54425494361274
 30
0.0
 10
129.3142198913185
 20
97.53656883108607
 30
0.0
 10
129.2580447509433
 20
97.52615145070882
 30
0.0
 10
129.2436064751827
 20
97.52343029303236
 30
0.0
 10
129.2434474800801
 20
97.52340048145176
 30
0.0
 10
129.2991068178169
 20
97.53406261159975
 30
0.0
 10
129.5219315783513
 20
97.57404328333473
 30
0.0
 10
129.683843863945
 20
97.60237953496703
 30
0.0
 10
130.1076354226807
 20
97.66839044392708
 30
0.0
 10
130.362481845228
 20
97.70485031671831
 30
0.0
 10
130.8011255053417
 20
97.75670183970466
 30
0.0
 10
130.9578230416212
 20
97.77358947376463
 30
0.0
 10
131.2810229913998
 20
97.80428289438557
 30
0.0
 10
131.4486964728201
 20
97.81824270132944
 30
0.0
 10
131.7962813390087
 20
97.8424421304806
 30
0.0
 10
131.9778448198277
 20
97.8527390793114
 30
0.0
 10
132.3440310946366
 20
97.86824502617333
 30
0.0
 10
132.5286885104789
 20
97.87351100807032
 30
0.0
 10
133.0872849170373
 20
97.88143383132582
 30
0.0
 10
133.4696192585079
 20
97.87571970795219
 30
0.0
 10
134.1969164028763
 20
97.84466062178993
 30
0.0
 10
134.5526104769762
 20
97.81897198573994
 30
0.0
 10
135.0359227539272
 20
97.77289997553186
 30
0.0
 10
135.1896203611437
 20
97.75629781711557
 30
0.0
 10
135.4820425859868
 20
97.72167796190126
 30
0.0
 10
135.620657809192
 20
97.70365404086287
 30
0.0
 10
135.7485553296419
 20
97.68589185212706
 30
0.0
  0
SPLINE
  5
14D
330
1F
100
AcDbEntity
  8
0
  6
HIDDEN
 62
     7
370
     0
100
AcDbSpline
210
0.0
220
0.0
230
1.0
 70
    11
 71
     3
 72
    56
 73
    52
 74
     0
 42
0.00000001
 43
0.00000001
 40
0.0
 40
0.0
 40
0.0
 40
0.0
 40
0.0625000000000003
 40
0.0625000000000003
 40
0.0937500000000003
 40
0.0937500000000003
 40
0.1250000000000004
 40
0.1250000000000004
 40
0.1562500000000005
 40
0.1562500000000005
 40
0.1875000000000006
 40
0.1875000000000006
 40
0.2187500000000006
 40
0.2187500000000006
 40
0.2500000000000007
 40
0.2500000000000007
 40
0.3125000000000006
 40
0.3125000000000006
 40
0.3437500000000005
 40
0.3437500000000005
 40
0.3750000000000004
 40
0.3750000000000004
 40
0.4062500000000003
 40
0.4062500000000003
 40
0.4375000000000002
 40
0.4375000000000002
 40
0.4687500000000002
 40
0.4687500000000002
 40
0.5
 40
0.5
 40
0.5624999999999998
 40
0.5624999999999998
 40
0.6249999999999997
 40
0.6249999999999997
 40
0.6874999999999994
 40
0.6874999999999994
 40
0.7187499999999994
 40
0.7187499999999994
 40
0.7499999999999994
 40
0.7499999999999994
 40
0.7812499999999996
 40
0.7812499999999996
 40
0.8124999999999996
 40
0.8124999999999996
 40
0.8749999999999998
 40
0.8749999999999998
 40
0.9375
 40
0.9375
 40
0.96875
 40
0.96875
 40
1.0
 40
1.0
 40
1.0
 40
1.0
 10
135.7485553296419
 20
137.36094880376
 30
0.0
 10
135.4927680190941
 20
137.3254254998665
 30
0.0
 10
135.2025782121509
 20
137.2898816308982
 30
0.0
 10
134.7159251138601
 20
137.2434099309893
 30
0.0
 10
134.5455792716989
 20
137.2291640177578
 30
0.0
 10
134.1986058616078
 20
137.2048761035594
 30
0.0
 10
134.0206679643731
 20
137.1946997572374
 30
0.0
 10
133.6557486868134
 20
137.1790244296335
 30
0.0
 10
133.467414094718
 20
137.1735374684206
 30
0.0
 10
133.0935272422625
 20
137.1680774741449
 30
0.0
 10
132.9068370280926
 20
137.1680192508857
 30
0.0
 10
132.5339585371734
 20
137.1732033928625
 30
0.0
 10
132.346254294251
 20
137.1785188713339
 30
0.0
 10
131.9793353947035
 20
137.1940212523572
 30
0.0
 10
131.800885652639
 20
137.2041206601179
 30
0.0
 10
131.2800967492783
 20
137.2402525017719
 30
0.0
 10
130.9492130296073
 20
137.2726817227899
 30
0.0
 10
130.5127114712757
 20
137.324208214157
 30
0.0
 10
130.3759259322231
 20
137.341932825201
 30
0.0
 10
130.1202013227693
 20
137.3773271517103
 30
0.0
 10
130.0025775946637
 20
137.3948236730909
 30
0.0
 10
129.7925081414751
 20
137.4275260690794
 30
0.0
 10
129.6991733027901
 20
137.4428578780254
 30
0.0
 10
129.5362275921109
 20
137.4704540373743
 30
0.0
 10
129.4665246292611
 20
137.4827407204879
 30
0.0
 10
129.3559015629289
 20
137.5025857122743
 30
0.0
 10
129.3142198913185
 20
137.510271824801
 30
0.0
 10
129.2580447509433
 20
137.5206892051783
 30
0.0
 10
129.2436064751827
 20
137.5234103628547
 30
0.0
 10
129.2434474800801
 20
137.5234401744353
 30
0.0
 10
129.2991068178169
 20
137.5127780442874
 30
0.0
 10
129.5219315783513
 20
137.4727973725523
 30
0.0
 10
129.683843863945
 20
137.44446112092
 30
0.0
 10
130.1076354226807
 20
137.37845021196
 30
0.0
 10
130.362481845228
 20
137.3419903391688
 30
0.0
 10
130.8011255053418
 20
137.2901388161824
 30
0.0
 10
130.9578230416212
 20
137.2732511821224
 30
0.0
 10
131.2810229913998
 20
137.2425577615015
 30
0.0
 10
131.4486964728201
 20
137.2285979545576
 30
0.0
 10
131.7962813390088
 20
137.2043985254065
 30
0.0
 10
131.9778448198277
 20
137.1941015765757
 30
0.0
 10
132.3440310946366
 20
137.1785956297138
 30
0.0
 10
132.5286885104789
 20
137.1733296478168
 30
0.0
 10
133.0872849170373
 20
137.1654068245613
 30
0.0
 10
133.4696192585079
 20
137.1711209479349
 30
0.0
 10
134.1969164028763
 20
137.2021800340972
 30
0.0
 10
134.5526104769762
 20
137.2278686701471
 30
0.0
 10
135.0359227539272
 20
137.2739406803552
 30
0.0
 10
135.1896203611437
 20
137.2905428387715
 30
0.0
 10
135.4820425859868
 20
137.3251626939858
 30
0.0
 10
135.6206578091921
 20
137.3431866150242
 30
0.0
 10
135.748555329642
 20
137.36094880376
 30
0.0
  0
LINE
  5
14E
330
1F
100
AcDbEntity
  8
0
  6
HIDDEN
 62
     7
370
     0
100
AcDbLine
 10
161.8774057049
 20
137.3734203279
 30
0.0
 11
167.943553328
 21
137.3734203279
 31
0.0
  0
LINE
  5
14F
330
1F
100
AcDbEntity
  8
0
  6
HIDDEN
 62
     7
370
     0
100
AcDbLine
 10
154.1891736737
 20
137.3734203279
 30
0.0
 11
158.1097009512
 21
137.3734203279
 31
0.0
  0
LINE
  5
150
330
1F
100
AcDbEntity
  8
0
  6
HIDDEN
 62
     7
370
     0
100
AcDbLine
 10
122.9975279243
 20
134.5234203279
 30
0.0
 11
122.9975279243
 21
100.5234203279
 31
0.0
  0
LWPOLYLINE
  5
151
330
1F
100
AcDbEntity
  8
0
  6
HIDDEN
 62
     7
370
     0
100
AcDbPolyline
 90
        2
 70
   128
 43
0.0
 10
122.9975279243
 20
100.5234203279
 10
122.9975279243
 20
100.5234203279
  0
LINE
  5
152
330
1F
100
AcDbEntity
  8
0
  6
HIDDEN
 62
     7
370
     0
100
AcDbLine
 10
110.093553328
 20
101.4934849301
 30
0.0
 11
110.093553328
 21
133.5533557258
 31
0.0
  0
LINE
  5
153
330
1F
100
AcDbEntity
  8
0
  6
HIDDEN
 62
     7
370
     0
100
AcDbLine
 10
149.6533792966
 20
134.5234203279
 30
0.0
 11
149.6533792966
 21
100.5234203279
 31
0.0
  0
LINE
  5
154
330
1F
100
AcDbEntity
  8
0
  6
HIDDEN
 62
     7
370
     0
100
AcDbLine
 10
151.943553328
 20
133.2484203279
 30
0.0
 11
151.943553328
 21
101.7984203279
 31
0.0
  0
LINE
  5
155
330
1F
100
AcDbEntity
  8
0
  6
HIDDEN
 62
     7
370
     0
100
AcDbLine
 10
111.243553328
 20
101.7219298919
 30
0.0
 11
118.793553328
 21
101.7219298919
 31
0.0
  0
LINE
  5
156
330
1F
100
AcDbEntity
  8
0
  6
HIDDEN
 62
     7
370
     0
100
AcDbLine
 10
111.243553328
 20
133.324910764
 30
0.0
 11
111.243553328
 21
101.7219298919
 31
0.0
  0
LINE
  5
157
330
1F
100
AcDbEntity
  8
0
  6
HIDDEN
 62
     7
370
     0
100
AcDbLine
 10
114.793553328
 20
133.324910764
 30
0.0
 11
111.243553328
 21
133.324910764
 31
0.0
  0
SPLINE
  5
158
330
1F
100
AcDbEntity
  8
0
  6
HIDDEN
 62
     7
370
     0
100
AcDbSpline
210
0.0
220
0.0
230
1.0
 70
     8
 71
     3
 72
    18
 73
    14
 74
     0
 42
0.00000001
 43
0.00000001
 40
0.0
 40
0.0
 40
0.0
 40
0.0
 40
0.2499999999999958
 40
0.2499999999999958
 40
0.3749999999999957
 40
0.3749999999999957
 40
0.4999999999999956
 40
0.4999999999999956
 40
0.6249999999999954
 40
0.6249999999999954
 40
0.7499999999999953
 40
0.7499999999999953
 40
1.0
 40
1.0
 40
1.0
 40
1.0
 10
116.1935533280403
 20
133.8109339503477
 30
0.0
 10
116.1935533280403
 20
133.7564594297955
 30
0.0
 10
116.1586426366481
 20
133.700078370443
 30
0.0
 10
116.0566333353151
 20
133.6160015295895
 30
0.0
 10
116.014996980637
 20
133.5886678255986
 30
0.0
 10
115.9165911851482
 20
133.5357139099996
 30
0.0
 10
115.859047973444
 20
133.5098265562824
 30
0.0
 10
115.731749799871
 20
133.4620490114492
 30
0.0
 10
115.6621624951135
 20
133.4401010932713
 30
0.0
 10
115.5107282499586
 20
133.4006685283586
 30
0.0
 10
115.4280443468646
 20
133.3831122791327
 30
0.0
 10
115.1719328848265
 20
133.3406735137122
 30
0.0
 10
114.9840178809386
 20
133.3249107639752
 30
0.0
 10
114.7935533280403
 20
133.3249107639752
 30
0.0
  0
LINE
  5
159
330
1F
100
AcDbEntity
  8
0
  6
HIDDEN
 62
     7
370
     0
100
AcDbLine
 10
116.193553328
 20
133.8109339503
 30
0.0
 11
116.193553328
 21
134.5234203279
 31
0.0
  0
SPLINE
  5
15A
330
1F
100
AcDbEntity
  8
0
  6
HIDDEN
 62
     7
370
     0
100
AcDbSpline
210
0.0
220
0.0
230
1.0
 70
     8
 71
     3
 72
    18
 73
    14
 74
     0
 42
0.00000001
 43
0.00000001
 40
0.0
 40
0.0
 40
0.0
 40
0.0
 40
0.250000000000001
 40
0.250000000000001
 40
0.3750000000000007
 40
0.3750000000000007
 40
0.5000000000000004
 40
0.5000000000000004
 40
0.6250000000000001
 40
0.6250000000000001
 40
0.7499999999999999
 40
0.7499999999999999
 40
1.0
 40
1.0
 40
1.0
 40
1.0
 10
116.1935533280403
 20
133.8109339503477
 30
0.0
 10
116.1935533280403
 20
133.7564594297955
 30
0.0
 10
116.1586426366481
 20
133.700078370443
 30
0.0
 10
116.0566333353151
 20
133.6160015295895
 30
0.0
 10
116.0149969806369
 20
133.5886678255986
 30
0.0
 10
115.9165911851482
 20
133.5357139099996
 30
0.0
 10
115.8590479734439
 20
133.5098265562824
 30
0.0
 10
115.731749799871
 20
133.4620490114492
 30
0.0
 10
115.6621624951135
 20
133.4401010932713
 30
0.0
 10
115.5107282499586
 20
133.4006685283586
 30
0.0
 10
115.4280443468646
 20
133.3831122791327
 30
0.0
 10
115.1719328848265
 20
133.3406735137122
 30
0.0
 10
114.9840178809386
 20
133.3249107639752
 30
0.0
 10
114.7935533280403
 20
133.3249107639752
 30
0.0
  0
LINE
  5
15B
330
1F
100
AcDbEntity
  8
0
  6
HIDDEN
 62
     7
370
     0
100
AcDbLine
 10
114.793553328
 20
133.324910764
 30
0.0
 11
111.243553328
 21
133.324910764
 31
0.0
  0
LINE
  5
15C
330
1F
100
AcDbEntity
  8
0
  6
HIDDEN
 62
     7
370
     0
100
AcDbLine
 10
111.243553328
 20
101.7219298919
 30
0.0
 11
118.793553328
 21
101.7219298919
 31
0.0
  0
SPLINE
  5
15D
330
1F
100
AcDbEntity
  8
0
  6
HIDDEN
 62
     7
370
     0
100
AcDbSpline
210
0.0
220
0.0
230
1.0
 70
     8
 71
     3
 72
    16
 73
    12
 74
     0
 42
0.00000001
 43
0.00000001
 40
0.0
 40
0.0
 40
0.0
 40
0.0
 40
0.1250000000000001
 40
0.1250000000000001
 40
0.2500000000000002
 40
0.2500000000000002
 40
0.5000000000000001
 40
0.5000000000000001
 40
0.75
 40
0.75
 40
1.0
 40
1.0
 40
1.0
 40
1.0
 10
118.7935533280403
 20
101.7219298919119
 30
0.0
 10
118.8886750827061
 20
101.7219298919119
 30
0.0
 10
118.9820051514342
 20
101.7181140585191
 30
0.0
 10
119.1652669121722
 20
101.7033435057893
 30
0.0
 10
119.2561446277292
 20
101.6921854578137
 30
0.0
 10
119.512946325249
 20
101.649714187672
 30
0.0
 10
119.668013690121
 20
101.6086679904692
 30
0.0
 10
119.9217601516756
 20
101.5135218738873
 30
0.0
 10
120.0226306033434
 20
101.4587591398057
 30
0.0
 10
120.1578770180383
 20
101.3474980159018
 30
0.0
 10
120.1935533280403
 20
101.2903282785731
 30
0.0
 10
120.1935533280403
 20
101.2359067055394
 30
0.0
  0
LINE
  5
15E
330
1F
100
AcDbEntity
  8
0
  6
HIDDEN
 62
     7
370
     0
100
AcDbLine
 10
120.193553328
 20
101.2359067055
 30
0.0
 11
120.193553328
 21
100.5234203279
 31
0.0
  0
SPLINE
  5
15F
330
1F
100
AcDbEntity
  8
0
  6
HIDDEN
 62
     7
370
     0
100
AcDbSpline
210
0.0
220
0.0
230
1.0
 70
     8
 71
     3
 72
    16
 73
    12
 74
     0
 42
0.00000001
 43
0.00000001
 40
0.0
 40
0.0
 40
0.0
 40
0.0
 40
0.1250000000000002
 40
0.1250000000000002
 40
0.2500000000000005
 40
0.2500000000000005
 40
0.5000000000000003
 40
0.5000000000000003
 40
0.7500000000000001
 40
0.7500000000000001
 40
1.0
 40
1.0
 40
1.0
 40
1.0
 10
118.7935533280403
 20
101.7219298919119
 30
0.0
 10
118.8886750827061
 20
101.7219298919119
 30
0.0
 10
118.9820051514342
 20
101.7181140585191
 30
0.0
 10
119.1652669121722
 20
101.7033435057893
 30
0.0
 10
119.2561446277292
 20
101.6921854578137
 30
0.0
 10
119.5129463252489
 20
101.649714187672
 30
0.0
 10
119.6680136901209
 20
101.6086679904692
 30
0.0
 10
119.9217601516756
 20
101.5135218738873
 30
0.0
 10
120.0226306033434
 20
101.4587591398057
 30
0.0
 10
120.1578770180383
 20
101.3474980159018
 30
0.0
 10
120.1935533280403
 20
101.2903282785731
 30
0.0
 10
120.1935533280403
 20
101.2359067055394
 30
0.0
  0
LINE
  5
160
330
1F
100
AcDbEntity
  8
0
  6
HIDDEN
 62
     7
370
     0
100
AcDbLine
 10
111.243553328
 20
101.7219298919
 30
0.0
 11
111.243553328
 21
133.324910764
 31
0.0
  0
SPLINE
  5
161
330
1F
100
AcDbEntity
  8
0
  6
HIDDEN
 62
     7
370
     0
100
AcDbSpline
210
0.0
220
0.0
230
1.0
 70
     8
 71
     3
 72
    62
 73
    58
 74
     0
 42
0.00000001
 43
0.00000001
 40
-0.0312500000000012
 40
-0.0312500000000012
 40
0.0
 40
0.0
 40
0.0312499999999986
 40
0.0312499999999986
 40
0.0624999999999973
 40
0.0624999999999973
 40
0.1249999999999974
 40
0.1249999999999974
 40
0.1874999999999974
 40
0.1874999999999974
 40
0.2187499999999981
 40
0.2187499999999981
 40
0.2499999999999987
 40
0.2499999999999987
 40
0.2812499999999993
 40
0.2812499999999993
 40
0.3125
 40
0.3125
 40
0.3437500000000006
 40
0.3437500000000006
 40
0.3750000000000013
 40
0.3750000000000013
 40
0.4375000000000004
 40
0.4375000000000004
 40
0.4687499999999999
 40
0.4687499999999999
 40
0.4999999999999996
 40
0.4999999999999996
 40
0.5312499999999991
 40
0.5312499999999991
 40
0.5624999999999986
 40
0.5624999999999986
 40
0.5937499999999981
 40
0.5937499999999981
 40
0.6249999999999977
 40
0.6249999999999977
 40
0.6562499999999972
 40
0.6562499999999972
 40
0.6874999999999967
 40
0.6874999999999967
 40
0.7187499999999962
 40
0.7187499999999962
 40
0.7499999999999958
 40
0.7499999999999958
 40
0.7812499999999953
 40
0.7812499999999953
 40
0.8124999999999948
 40
0.8124999999999948
 40
0.8749999999999952
 40
0.8749999999999952
 40
0.9062499999999964
 40
0.9062499999999964
 40
0.9374999999999976
 40
0.9374999999999976
 40
0.9687499999999988
 40
0.9687499999999988
 40
1.0
 40
1.0
 40
1.031249999999999
 40
1.031249999999999
 10
240.1348157453274
 20
114.2137751627953
 30
0.0
 10
239.8522909107535
 20
114.2137751627953
 30
0.0
 10
239.7139678797024
 20
114.2237632264262
 30
0.0
 10
239.4427399340102
 20
114.2629619873756
 30
0.0
 10
239.3085295678418
 20
114.2927205761599
 30
0.0
 10
238.9295500601376
 20
114.4090012537777
 30
0.0
 10
238.7006734996779
 20
114.5243772908719
 30
0.0
 10
238.3197806475266
 20
114.8228960296477
 30
0.0
 10
238.1641825746597
 20
115.0094709557975
 30
0.0
 10
238.0050365291377
 20
115.3319558136045
 30
0.0
 10
237.9632711381875
 20
115.4490567442387
 30
0.0
 10
237.9079527243774
 20
115.6912595690853
 30
0.0
 10
237.8938468969068
 20
115.816484608861
 30
0.0
 10
237.8932687388518
 20
116.0756097531137
 30
0.0
 10
237.9072597877949
 20
116.2092777749225
 30
0.0
 10
237.9617582166715
 20
116.4714286522307
 30
0.0
 10
238.0026485556196
 20
116.602735487992
 30
0.0
 10
238.109256555296
 20
116.8580307403601
 30
0.0
 10
238.1740041023747
 20
116.9803448324766
 30
0.0
 10
238.3255649780021
 20
117.214298898915
 30
0.0
 10
238.4128515751416
 20
117.3260489742192
 30
0.0
 10
238.6984655295881
 20
117.6315229391705
 30
0.0
 10
238.9278517246392
 20
117.8031487018698
 30
0.0
 10
239.3040703942925
 20
117.9808260183429
 30
0.0
 10
239.4365414493432
 20
118.0277334920906
 30
0.0
 10
239.7104964257952
 20
118.0913596860739
 30
0.0
 10
239.8485370890974
 20
118.1074903859808
 30
0.0
 10
240.1267546610786
 20
118.1083853157643
 30
0.0
 10
240.2685640198432
 20
118.0925236540383
 30
0.0
 10
240.5410205871742
 20
118.0306109103707
 30
0.0
 10
240.6728863182494
 20
117.9849436734513
 30
0.0
 10
240.9284027383699
 20
117.8655822645833
 30
0.0
 10
241.04838949801
 20
117.7935937958116
 30
0.0
 10
241.2735354953305
 20
117.6282125754856
 30
0.0
 10
241.3796622597143
 20
117.5336905183867
 30
0.0
 10
241.5709889074062
 20
117.3300060048338
 30
0.0
 10
241.6569252539396
 20
117.2205776968495
 30
0.0
 10
241.8094222151582
 20
116.9868281883834
 30
0.0
 10
241.8755672783865
 20
116.8624625117192
 30
0.0
 10
241.9817877135823
 20
116.6101178906621
 30
0.0
 10
242.022828325411
 20
116.4808095428888
 30
0.0
 10
242.0790149133597
 20
116.2158608156536
 30
0.0
 10
242.0932324849238
 20
116.0835494312666
 30
0.0
 10
242.0938633766095
 20
115.8254267789938
 30
0.0
 10
242.0800749948097
 20
115.6971415032037
 30
0.0
 10
242.0252314230657
 20
115.4533952734721
 30
0.0
 10
241.984730241011
 20
115.3383817885821
 30
0.0
 10
241.8251410423277
 20
115.0119633702502
 30
0.0
 10
241.6703732086488
 20
114.8256226197229
 30
0.0
 10
241.3823934947682
 20
114.5994174717314
 30
0.0
 10
241.2784445722152
 20
114.5337108724137
 30
0.0
 10
241.054033374324
 20
114.419442662595
 30
0.0
 10
240.9321028202757
 20
114.3705725848563
 30
0.0
 10
240.6798603668168
 20
114.2930510800068
 30
0.0
 10
240.5489831931275
 20
114.2638390415323
 30
0.0
 10
240.2767768447476
 20
114.224085412992
 30
0.0
 10
240.1348157453274
 20
114.2137751627953
 30
0.0
 10
239.8522909107535
 20
114.2137751627953
 30
0.0
  0
SPLINE
  5
162
330
1F
100
AcDbEntity
  8
0
  6
HIDDEN
 62
     7
370
     0
100
AcDbSpline
210
0.0
220
0.0
230
1.0
 70
     8
 71
     3
 72
    72
 73
    68
 74
     0
 42
0.00000001
 43
0.00000001
 40
0.0
 40
0.0
 40
0.0
 40
0.0
 40
0.0156249999999989
 40
0.0156249999999989
 40
0.0312499999999979
 40
0.0312499999999979
 40
0.0624999999999982
 40
0.0624999999999982
 40
0.0937499999999984
 40
0.0937499999999984
 40
0.1249999999999987
 40
0.1249999999999987
 40
0.156249999999999
 40
0.156249999999999
 40
0.1874999999999993
 40
0.1874999999999993
 40
0.2187499999999996
 40
0.2187499999999996
 40
0.2499999999999998
 40
0.2499999999999998
 40
0.3125000000000004
 40
0.3125000000000004
 40
0.3437500000000007
 40
0.3437500000000007
 40
0.3750000000000011
 40
0.3750000000000011
 40
0.4062500000000014
 40
0.4062500000000014
 40
0.4375000000000017
 40
0.4375000000000017
 40
0.4687500000000021
 40
0.4687500000000021
 40
0.4843750000000022
 40
0.4843750000000022
 40
0.5000000000000023
 40
0.5000000000000023
 40
0.5156250000000024
 40
0.5156250000000024
 40
0.5312500000000027
 40
0.5312500000000027
 40
0.5625000000000029
 40
0.5625000000000029
 40
0.5937500000000032
 40
0.5937500000000032
 40
0.6250000000000034
 40
0.6250000000000034
 40
0.6562500000000037
 40
0.6562500000000037
 40
0.6875000000000039
 40
0.6875000000000039
 40
0.7187500000000041
 40
0.7187500000000041
 40
0.7500000000000043
 40
0.7500000000000043
 40
0.7812500000000046
 40
0.7812500000000046
 40
0.8125000000000048
 40
0.8125000000000048
 40
0.8750000000000031
 40
0.8750000000000031
 40
0.9375000000000014
 40
0.9375000000000014
 40
0.9687500000000008
 40
0.9687500000000008
 40
0.9843750000000003
 40
0.9843750000000003
 40
1.0
 40
1.0
 40
1.0
 40
1.0
 10
238.9905295220424
 20
110.5180421927678
 30
0.0
 10
239.0603296211006
 20
110.4780537558874
 30
0.0
 10
239.1247750551638
 20
110.4378507737429
 30
0.0
 10
239.2520270684638
 20
110.3601730997942
 30
0.0
 10
239.3139130790067
 20
110.3231117188841
 30
0.0
 10
239.4968252128009
 20
110.2198219223154
 30
0.0
 10
239.6169785863792
 20
110.1602064948316
 30
0.0
 10
239.8624852711347
 20
110.0604889276384
 30
0.0
 10
239.9878427042295
 20
110.0204466376088
 30
0.0
 10
240.2392272895804
 20
109.9644840948659
 30
0.0
 10
240.3659108244153
 20
109.9481532589314
 30
0.0
 10
240.6225126328642
 20
109.9430584345439
 30
0.0
 10
240.7516589076972
 20
109.9545884329662
 30
0.0
 10
241.0039016021053
 20
110.0101029931682
 30
0.0
 10
241.1297249511998
 20
110.0548766249224
 30
0.0
 10
241.367564309266
 20
110.1812147404754
 30
0.0
 10
241.4798887431322
 20
110.2625919763478
 30
0.0
 10
241.684222728219
 20
110.4644576943603
 30
0.0
 10
241.7723661777476
 20
110.580816924087
 30
0.0
 10
241.9940944218137
 20
110.9771185674872
 30
0.0
 10
242.0733084454583
 20
111.2925642586613
 30
0.0
 10
242.0982934021356
 20
111.7618738867489
 30
0.0
 10
242.0917032463884
 20
111.9199180123142
 30
0.0
 10
242.0550701033196
 20
112.2249674111659
 30
0.0
 10
242.0251614568508
 20
112.3737819913899
 30
0.0
 10
241.9459748144013
 20
112.6649720656569
 30
0.0
 10
241.8969466131374
 20
112.8057645955351
 30
0.0
 10
241.7861654997309
 20
113.0732395902205
 30
0.0
 10
241.7239530337157
 20
113.2009414939078
 30
0.0
 10
241.5913746996729
 20
113.4445709171322
 30
0.0
 10
241.5185143931593
 20
113.5618308740576
 30
0.0
 10
241.4262832616829
 20
113.7192411822553
 30
0.0
 10
241.3985860794092
 20
113.7689285193941
 30
0.0
 10
241.3741777446272
 20
113.8467942646572
 30
0.0
 10
241.3812226398819
 20
113.8714097185405
 30
0.0
 10
241.4208972955172
 20
113.8939709104915
 30
0.0
 10
241.4499379460277
 20
113.8942261609223
 30
0.0
 10
241.5108995469151
 20
113.8862315201555
 30
0.0
 10
241.5435676555273
 20
113.8774733912275
 30
0.0
 10
241.6404416856551
 20
113.8428099296549
 30
0.0
 10
241.7036552596367
 20
113.8086751504867
 30
0.0
 10
241.8193919138294
 20
113.7247414854377
 30
0.0
 10
241.8722564431671
 20
113.674632627286
 30
0.0
 10
241.9642910456215
 20
113.5575986375384
 30
0.0
 10
242.0035056096731
 20
113.4902531740652
 30
0.0
 10
242.0621525731015
 20
113.3404879277051
 30
0.0
 10
242.0820626570335
 20
113.2577344891279
 30
0.0
 10
242.0977543678984
 20
113.0728603022135
 30
0.0
 10
242.0932069759539
 20
112.9720182350137
 30
0.0
 10
242.0537915911483
 20
112.7556477416548
 30
0.0
 10
242.0180939393456
 20
112.6379492715092
 30
0.0
 10
241.9135607282686
 20
112.3973690528833
 30
0.0
 10
241.8429921281152
 20
112.2710160244079
 30
0.0
 10
241.6744918792515
 20
112.026370581315
 30
0.0
 10
241.5745567605718
 20
111.9049513235042
 30
0.0
 10
241.3584278757464
 20
111.6795423259279
 30
0.0
 10
241.2409112517958
 20
111.5738884784494
 30
0.0
 10
240.8810531649144
 20
111.2891647987263
 30
0.0
 10
240.6288880783743
 20
111.1389926962358
 30
0.0
 10
240.1422650360576
 20
110.9135748135818
 30
0.0
 10
239.9026636704248
 20
110.8348570223941
 30
0.0
 10
239.5562851719163
 20
110.76956492763
 30
0.0
 10
239.4431062009846
 20
110.7561651840196
 30
0.0
 10
239.2693429343177
 20
110.7558470922963
 30
0.0
 10
239.2105242256306
 20
110.7590117330339
 30
0.0
 10
239.0869071231033
 20
110.778666238791
 30
0.0
 10
239.0224558680717
 20
110.7950466781363
 30
0.0
 10
238.9541170537456
 20
110.8262434678324
 30
0.0
  0
SPLINE
  5
163
330
1F
100
AcDbEntity
  8
0
  6
HIDDEN
 62
     7
370
     0
100
AcDbSpline
210
0.0
220
0.0
230
1.0
 70
     8
 71
     3
 72
     8
 73
     4
 74
     0
 42
0.00000001
 43
0.00000001
 40
0.0
 40
0.0
 40
0.0
 40
0.0
 40
1.0
 40
1.0
 40
1.0
 40
1.0
 10
238.9541170537406
 20
110.8262434678349
 30
0.0
 10
238.9419006065596
 20
110.7365977197081
 30
0.0
 10
238.9540225512897
 20
110.6320711967377
 30
0.0
 10
238.9905295220423
 20
110.5180421927627
 30
0.0
  0
LWPOLYLINE
  5
164
330
1F
100
AcDbEntity
  8
0
  6
HIDDEN
 62
     7
370
     0
100
AcDbPolyline
 90
       21
 70
   128
 43
0.0
 10
239.993553328
 20
109.2080221453
 10
240.6424890162
 20
109.3033193218
 10
241.2279023579
 20
109.5798824998
 10
241.6924890162
 20
110.0106397485
 10
241.9907720123
 20
110.5534255471
 10
242.093553328
 20
111.1551082399
 10
241.9907720123
 20
111.7567909326
 10
241.6924890162
 20
112.2995767312
 10
241.2279023579
 20
112.7303339799
 10
240.6424890162
 20
113.0068971579
 10
239.993553328
 20
113.1021943345
 10
239.3446176399
 20
113.0068971579
 10
238.7592042982
 20
112.7303339799
 10
238.2946176399
 20
112.2995767312
 10
237.9963346438
 20
111.7567909326
 10
237.893553328
 20
111.1551082399
 10
237.9963346438
 20
110.5534255471
 10
238.2946176399
 20
110.0106397485
 10
238.7592042982
 20
109.5798824998
 10
239.3446176399
 20
109.3033193218
 10
239.993553328
 20
109.2080221453
  0
ARC
  5
165
330
1F
100
AcDbEntity
  8
0
  6
HIDDEN
 62
     7
370
     0
100
AcDbCircle
 10
239.5012833624
 20
110.7346368675
 30
0.0
 40
0.5547817035116662
100
AcDbArc
 50
170.4956849449
 51
202.9802768048
  0
SPLINE
  5
166
330
1F
100
AcDbEntity
  8
0
  6
HIDDEN
 62
     7
370
     0
100
AcDbSpline
210
0.0
220
0.0
230
1.0
 70
     8
 71
     3
 72
     8
 73
     4
 74
     0
 42
0.00000001
 43
0.00000001
 40
0.0
 40
0.0
 40
0.0
 40
0.0
 40
1.0
 40
1.0
 40
1.0
 40
1.0
 10
255.4935533280405
 20
117.9655478791557
 30
0.0
 10
255.3223036745885
 20
117.2818709283027
 30
0.0
 10
255.1554202362568
 20
116.6024948695538
 30
0.0
 10
254.9935533280404
 20
115.9274156109908
 30
0.0
  0
LINE
  5
167
330
1F
100
AcDbEntity
  8
0
  6
HIDDEN
 62
     7
370
     0
100
AcDbLine
 10
255.493553328
 20
138.0234203279
 30
0.0
 11
255.493553328
 21
117.9655478792
 31
0.0
  0
SPLINE
  5
168
330
1F
100
AcDbEntity
  8
0
  6
HIDDEN
 62
     7
370
     0
100
AcDbSpline
210
0.0
220
0.0
230
1.0
 70
     8
 71
     3
 72
    38
 73
    34
 74
     0
 42
0.00000001
 43
0.00000001
 40
0.0
 40
0.0
 40
0.0
 40
0.0
 40
0.0625
 40
0.0625
 40
0.125
 40
0.125
 40
0.1875
 40
0.1875
 40
0.25
 40
0.25
 40
0.3125
 40
0.3125
 40
0.375
 40
0.375
 40
0.4375
 40
0.4375
 40
0.5
 40
0.5
 40
0.5625
 40
0.5625
 40
0.625
 40
0.625
 40
0.6875
 40
0.6875
 40
0.75
 40
0.75
 40
0.8125
 40
0.8125
 40
0.875
 40
0.875
 40
0.9375
 40
0.9375
 40
1.0
 40
1.0
 40
1.0
 40
1.0
 10
267.5518011556704
 20
117.5234203279436
 30
0.0
 10
267.6816832073239
 20
117.8185800333052
 30
0.0
 10
267.7768232404518
 20
118.1223888495188
 30
0.0
 10
267.9004003171365
 20
118.7465178734738
 30
0.0
 10
267.9281135138477
 20
119.0701047824866
 30
0.0
 10
267.9118531140899
 20
119.7040230068321
 30
0.0
 10
267.869142410063
 20
120.0174036401791
 30
0.0
 10
267.7111405940637
 20
120.6368097279487
 30
0.0
 10
267.5988246725658
 20
120.9310213813182
 30
0.0
 10
267.3096886733656
 20
121.4891852898643
 30
0.0
 10
267.1302381055843
 20
121.7552461570874
 30
0.0
 10
266.7214180769041
 20
122.2317913020596
 30
0.0
 10
266.4906548944784
 20
122.4458559436137
 30
0.0
 10
265.9766395084797
 20
122.8223687970999
 30
0.0
 10
265.7024705181016
 20
122.9783258669407
 30
0.0
 10
265.1208189705986
 20
123.2287013816561
 30
0.0
 10
264.8104745323831
 20
123.3228845001095
 30
0.0
 10
264.185659647022
 20
123.4396762247959
 30
0.0
 10
263.8667207766719
 20
123.4641897165473
 30
0.0
 10
263.2234293924279
 20
123.4431322747826
 30
0.0
 10
262.9086560350855
 20
123.3981688259255
 30
0.0
 10
262.2923904701162
 20
123.2412889776811
 30
0.0
 10
261.9893539601095
 20
123.1276615714765
 30
0.0
 10
261.4262678296761
 20
122.8419191597283
 30
0.0
 10
261.1610322764561
 20
122.6682031748707
 30
0.0
 10
260.6733424299574
 20
122.2611820367403
 30
0.0
 10
260.457425380236
 20
122.033818570764
 30
0.0
 10
260.0807295058052
 20
121.5309275922509
 30
0.0
 10
259.9199393678759
 20
121.2529025839254
 30
0.0
 10
259.6726382747809
 20
120.6752137300023
 30
0.0
 10
259.5828252854808
 20
120.3699965984632
 30
0.0
 10
259.4773863502106
 20
119.7409687121938
 30
0.0
 10
259.4623960594704
 20
119.4247408762754
 30
0.0
 10
259.483772296272
 20
119.1068227161865
 30
0.0
  0
ELLIPSE
  5
169
330
1F
100
AcDbEntity
  8
0
  6
HIDDEN
 62
     7
370
     0
100
AcDbEllipse
 10
272.7580943368
 20
117.5234203279
 30
0.0
 11
-6.813115534748646
 21
20.49875008501938
 31
0.0
210
0.0
220
0.0
230
1.0
 40
0.0332261324
 41
6.272142474023822
 42
7.842938800818443
  0
SPLINE
  5
16A
330
1F
100
AcDbEntity
  8
0
  6
HIDDEN
 62
     7
370
     0
100
AcDbSpline
210
0.0
220
0.0
230
1.0
 70
     8
 71
     3
 72
    22
 73
    18
 74
     0
 42
0.00000001
 43
0.00000001
 40
0.0
 40
0.0
 40
0.0
 40
0.0
 40
0.0624999999999965
 40
0.0624999999999965
 40
0.1249999999999931
 40
0.1249999999999931
 40
0.1874999999999897
 40
0.1874999999999897
 40
0.2499999999999864
 40
0.2499999999999864
 40
0.3749999999999886
 40
0.3749999999999886
 40
0.4999999999999908
 40
0.4999999999999908
 40
0.7499999999999953
 40
0.7499999999999953
 40
1.0
 40
1.0
 40
1.0
 40
1.0
 10
259.4011799307749
 20
119.2020153518607
 30
0.0
 10
259.3367565930755
 20
119.2757099632599
 30
0.0
 10
259.2675469884168
 20
119.3437009460323
 30
0.0
 10
259.1176494944961
 20
119.4660536207164
 30
0.0
 10
259.0359958210957
 20
119.520909540119
 30
0.0
 10
258.8632380819826
 20
119.6115310616082
 30
0.0
 10
258.7734347570366
 20
119.6468496986043
 30
0.0
 10
258.5870446174234
 20
119.697725189543
 30
0.0
 10
258.4892846890947
 20
119.7132557289241
 30
0.0
 10
258.1971593026811
 20
119.7301218287468
 30
0.0
 10
258.0005427989125
 20
119.7026523822477
 30
0.0
 10
257.6267982432471
 20
119.6006774311954
 30
0.0
 10
257.4469737176997
 20
119.5263676376773
 30
0.0
 10
256.9267853833266
 20
119.2601979739345
 30
0.0
 10
256.6155316744386
 20
119.0333045979143
 30
0.0
 10
256.0273156024657
 20
118.5311606890708
 30
0.0
 10
255.7526416565102
 20
118.2549331001852
 30
0.0
 10
255.4935533280405
 20
117.9655478791557
 30
0.0
  0
SPLINE
  5
16B
330
1F
100
AcDbEntity
  8
0
  6
HIDDEN
 62
     7
370
     0
100
AcDbSpline
210
0.0
220
0.0
230
1.0
 70
     8
 71
     3
 72
     8
 73
     4
 74
     0
 42
0.00000001
 43
0.00000001
 40
0.0
 40
0.0
 40
0.0
 40
0.0
 40
1.0
 40
1.0
 40
1.0
 40
1.0
 10
259.483772296272
 20
119.1068227161865
 30
0.0
 10
259.4563647151511
 20
119.138650950361
 30
0.0
 10
259.4288338274049
 20
119.1703817354138
 30
0.0
 10
259.401179930897
 20
119.2020153518889
 30
0.0
  0
LINE
  5
16C
330
1F
100
AcDbEntity
  8
0
  6
HIDDEN
 62
     7
370
     0
100
AcDbLine
 10
111.243553328
 20
99.5334203279
 30
0.0
 11
111.243553328
 21
96.7109203279
 31
0.0
  0
LINE
  5
16D
330
1F
100
AcDbEntity
  8
0
  6
HIDDEN
 62
     7
370
     0
100
AcDbLine
 10
120.193553328
 20
99.5334203279
 30
0.0
 11
120.193553328
 21
95.5782720687
 31
0.0
  0
LINE
  5
16E
330
1F
100
AcDbEntity
  8
0
  6
HIDDEN
 62
     7
370
     0
100
AcDbLine
 10
111.243553328
 20
135.5134203279
 30
0.0
 11
111.243553328
 21
138.3933580933
 31
0.0
  0
LINE
  5
16F
330
1F
100
AcDbEntity
  8
0
  6
HIDDEN
 62
     7
370
     0
100
AcDbLine
 10
110.093553328
 20
135.5134203279
 30
0.0
 11
110.093553328
 21
137.2140980744
 31
0.0
  0
LINE
  5
170
330
1F
100
AcDbEntity
  8
0
  6
HIDDEN
 62
     7
370
     0
100
AcDbLine
 10
110.093553328
 20
99.5334203279
 30
0.0
 11
110.093553328
 21
97.870259803
 31
0.0
  0
LINE
  5
171
330
1F
100
AcDbEntity
  8
0
  6
HIDDEN
 62
     7
370
     0
100
AcDbLine
 10
116.193553328
 20
135.5134203279
 30
0.0
 11
116.193553328
 21
139.3675280003
 31
0.0
  0
LINE
  5
172
330
1F
100
AcDbEntity
  8
0
  6
HIDDEN
 62
     7
370
     0
100
AcDbLine
 10
161.293553328
 20
127.0234203279
 30
0.0
 11
161.293553328
 21
108.0234203279
 31
0.0
  0
LWPOLYLINE
  5
173
330
1F
100
AcDbEntity
  8
0
  6
HIDDEN
 62
     7
370
     0
100
AcDbPolyline
 90
        2
 70
   128
 43
0.0
 10
161.293553328
 20
108.0234203279
 10
161.293553328
 20
108.0234203279
  0
LINE
  5
174
330
1F
100
AcDbEntity
  8
0
  6
HIDDEN
 62
     7
370
     0
100
AcDbLine
 10
163.793553328
 20
127.0234203279
 30
0.0
 11
163.793553328
 21
108.0234203279
 31
0.0
  0
LWPOLYLINE
  5
175
330
1F
100
AcDbEntity
  8
0
  6
HIDDEN
 62
     7
370
     0
100
AcDbPolyline
 90
        2
 70
   128
 43
0.0
 10
163.793553328
 20
108.0234203279
 10
163.793553328
 20
108.0234203279
  0
LWPOLYLINE
  5
176
330
1F
100
AcDbEntity
  8
0
  6
HIDDEN
 62
     7
370
     0
100
AcDbPolyline
 90
        2
 70
   128
 43
0.0
 10
167.943553328
 20
91.1234203279
 10
167.943553328
 20
91.1234203279
  0
LINE
  5
177
330
1F
100
AcDbEntity
  8
0
  6
HIDDEN
 62
     7
370
     0
100
AcDbLine
 10
167.943553328
 20
91.1234203279
 30
0.0
 11
161.8058785257
 21
91.1234203279
 31
0.0
  0
LINE
  5
178
330
1F
100
AcDbEntity
  8
0
  6
HIDDEN
 62
     7
370
     0
100
AcDbLine
 10
161.903553328
 20
90.0255831689
 30
0.0
 11
161.903553328
 21
90.7190246996
 31
0.0
  0
LINE
  5
179
330
1F
100
AcDbEntity
  8
0
  6
HIDDEN
 62
     7
370
     0
100
AcDbLine
 10
167.943553328
 20
91.1234203279
 30
0.0
 11
167.943553328
 21
87.9631429274
 31
0.0
  0
LINE
  5
17A
330
1F
100
AcDbEntity
  8
0
  6
HIDDEN
 62
     7
370
     0
100
AcDbLine
 10
152.443553328
 20
126.0234203279
 30
0.0
 11
152.443553328
 21
109.0234203279
 31
0.0
  0
LWPOLYLINE
  5
17B
330
1F
100
AcDbEntity
  8
0
  6
HIDDEN
 62
     7
370
     0
100
AcDbPolyline
 90
        2
 70
   128
 43
0.0
 10
152.443553328
 20
109.0234203279
 10
152.443553328
 20
109.0234203279
  0
LINE
  5
17C
330
1F
100
AcDbEntity
  8
0
  6
HIDDEN
 62
     7
370
     0
100
AcDbLine
 10
151.943553328
 20
108.5234203279
 30
0.0
 11
151.943553328
 21
126.5234203279
 31
0.0
  0
LINE
  5
17D
330
1F
100
AcDbEntity
  8
0
  6
HIDDEN
 62
     7
370
     0
100
AcDbLine
 10
158.1812281304
 20
91.1234203279
 30
0.0
 11
154.943553328
 21
91.1234203279
 31
0.0
  0
LINE
  5
17E
330
1F
100
AcDbEntity
  8
0
  6
HIDDEN
 62
     7
370
     0
100
AcDbLine
 10
158.083553328
 20
90.7190246996
 30
0.0
 11
158.083553328
 21
90.0255831689
 31
0.0
  0
LINE
  5
17F
330
1F
100
AcDbEntity
  8
0
  6
HIDDEN
 62
     7
370
     0
100
AcDbLine
 10
146.943553328
 20
86.0392973451
 30
0.0
 11
146.943553328
 21
91.1234203279
 31
0.0
  0
LINE
  5
180
330
1F
100
AcDbEntity
  8
0
  6
HIDDEN
 62
     7
370
     0
100
AcDbLine
 10
154.943553328
 20
91.1234203279
 30
0.0
 11
146.943553328
 21
91.1234203279
 31
0.0
  0
LINE
  5
181
330
1F
100
AcDbEntity
  8
0
  6
HIDDEN
 62
     7
370
     0
100
AcDbLine
 10
161.293553328
 20
109.0234203279
 30
0.0
 11
161.293553328
 21
125.998479638
 31
0.0
  0
LWPOLYLINE
  5
182
330
1F
100
AcDbEntity
  8
0
  6
HIDDEN
 62
     7
370
     0
100
AcDbPolyline
 90
        2
 70
   128
 43
0.0
 10
167.943553328
 20
143.9234203279
 10
167.943553328
 20
143.9234203279
  0
LINE
  5
183
330
1F
100
AcDbEntity
  8
0
  6
HIDDEN
 62
     7
370
     0
100
AcDbLine
 10
167.943553328
 20
143.9234203279
 30
0.0
 11
161.5092557963
 21
143.9234203279
 31
0.0
  0
LINE
  5
184
330
1F
100
AcDbEntity
  8
0
  6
HIDDEN
 62
     7
370
     0
100
AcDbLine
 10
161.903553328
 20
145.3286545191
 30
0.0
 11
161.903553328
 21
144.643074179
 31
0.0
  0
LINE
  5
185
330
1F
100
AcDbEntity
  8
0
  6
HIDDEN
 62
     7
370
     0
100
AcDbLine
 10
167.943553328
 20
143.9234203279
 30
0.0
 11
167.943553328
 21
147.3698606517
 31
0.0
  0
LINE
  5
186
330
1F
100
AcDbEntity
  8
0
  6
HIDDEN
 62
     7
370
     0
100
AcDbLine
 10
158.4778508597
 20
143.9234203279
 30
0.0
 11
154.943553328
 21
143.9234203279
 31
0.0
  0
LINE
  5
187
330
1F
100
AcDbEntity
  8
0
  6
HIDDEN
 62
     7
370
     0
100
AcDbLine
 10
158.083553328
 20
144.643074179
 30
0.0
 11
158.083553328
 21
145.3286545191
 31
0.0
  0
LINE
  5
188
330
1F
100
AcDbEntity
  8
0
  6
HIDDEN
 62
     7
370
     0
100
AcDbLine
 10
154.943553328
 20
143.9234203279
 30
0.0
 11
146.943553328
 21
143.9234203279
 31
0.0
  0
ELLIPSE
  5
189
330
1F
100
AcDbEntity
  8
0
  6
HIDDEN
 62
     7
370
     0
100
AcDbEllipse
 10
105.9261214637
 20
117.5234203279
 30
0.0
 11
20.07002071827054
 21
-2.842170943040401E-14
 31
0.0
210
0.0
220
0.0
230
1.0
 40
0.8164965809
 41
4.921555463185703
 42
4.980534842098402
  0
LINE
  5
18A
330
1F
100
AcDbEntity
  8
0
  6
HIDDEN
 62
     7
370
     0
100
AcDbLine
 10
110.093553328
 20
99.5334203279
 30
0.0
 11
110.093553328
 21
101.4934849301
 31
0.0
  0
ELLIPSE
  5
18B
330
1F
100
AcDbEntity
  8
0
  6
HIDDEN
 62
     7
370
     0
100
AcDbEllipse
 10
105.9261214637
 20
117.5234203279
 30
0.0
 11
20.07002071827051
 21
0.0
 31
0.0
210
0.0
220
0.0
230
1.0
 40
0.8164965809
 41
1.302650465081198
 42
1.361629843993898
  0
LINE
  5
18C
330
1F
100
AcDbEntity
  8
0
  6
HIDDEN
 62
     7
370
     0
100
AcDbLine
 10
110.093553328
 20
135.5134203279
 30
0.0
 11
110.093553328
 21
133.5533557258
 31
0.0
  0
LWPOLYLINE
  5
18D
330
1F
100
AcDbEntity
  8
0
  6
HIDDEN
 62
     7
370
     0
100
AcDbPolyline
 90
       27
 70
   128
 43
0.0
 10
266.0868289864
 20
118.0295549454
 10
266.9198453245
 20
117.9482771806
 10
267.704449781
 20
117.672760643
 10
268.3950439967
 20
117.2190173524
 10
268.951493146
 20
116.6134172196
 10
269.3414584269
 20
115.891155523
 10
269.5422764749
 20
115.0942074871
 10
269.5422764749
 20
114.2688888349
 10
269.3414584269
 20
113.4631640867
 10
268.951493146
 20
112.7238590361
 10
268.3950439967
 20
112.0939394053
 10
267.704449781
 20
111.6100138336
 10
266.9198453245
 20
111.3002063164
 10
266.0868289864
 20
111.1825217403
 10
265.2538126482
 20
111.2637995051
 10
264.4692081918
 20
111.5393160427
 10
263.7786139761
 20
111.9930593333
 10
263.2221648268
 20
112.5986594661
 10
262.8321995458
 20
113.3209211627
 10
262.6313814978
 20
114.1178691986
 10
262.6313814978
 20
114.9431878508
 10
262.8321995458
 20
115.748912599
 10
263.2221648268
 20
116.4882176496
 10
263.7786139761
 20
117.1181372804
 10
264.4692081918
 20
117.6020628521
 10
265.2538126482
 20
117.9118703693
 10
266.0868289864
 20
118.0295549454
  0
LINE
  5
18E
330
1F
100
AcDbEntity
  8
0
  6
HIDDEN
 62
     7
370
     0
100
AcDbLine
 10
120.193553328
 20
99.5334203279
 30
0.0
 11
120.193553328
 21
101.2359067055
 31
0.0
  0
LINE
  5
18F
330
1F
100
AcDbEntity
  8
0
  6
HIDDEN
 62
     7
370
     0
100
AcDbLine
 10
111.243553328
 20
99.5334203279
 30
0.0
 11
111.243553328
 21
101.7219298919
 31
0.0
  0
LINE
  5
190
330
1F
100
AcDbEntity
  8
0
  6
HIDDEN
 62
     7
370
     0
100
AcDbLine
 10
116.193553328
 20
135.5134203279
 30
0.0
 11
116.193553328
 21
133.8109339503
 31
0.0
  0
LINE
  5
191
330
1F
100
AcDbEntity
  8
0
  6
HIDDEN
 62
     7
370
     0
100
AcDbLine
 10
111.243553328
 20
135.5134203279
 30
0.0
 11
111.243553328
 21
133.324910764
 31
0.0
  0
ARC
  5
192
330
1F
100
AcDbEntity
  8
0
  6
HIDDEN
 62
     7
370
     0
100
AcDbCircle
 10
261.0502862282
 20
108.9718143783
 30
0.0
 40
2.078097112527445
100
AcDbArc
 50
72.4581999433
 51
237.4735006511
  0
LINE
  5
193
330
1F
100
AcDbEntity
  8
0
  6
HIDDEN
 62
     7
370
     0
100
AcDbLine
 10
276.110112461
 20
106.7927480304
 30
0.0
 11
277.0738648924
 21
104.8863034707
 31
0.0
  0
ARC
  5
194
330
1F
100
AcDbEntity
  8
0
  6
HIDDEN
 62
     7
370
     0
100
AcDbCircle
 10
257.6382134846
 20
99.0559020604
 30
0.0
 40
0.9262017045267037
100
AcDbArc
 50
206.1521924248
 51
248.9515252118
  0
SPLINE
  5
195
330
1F
100
AcDbEntity
  8
0
  6
HIDDEN
 62
     7
370
     0
100
AcDbSpline
210
0.0
220
0.0
230
1.0
 70
    11
 71
     3
 72
    34
 73
    30
 74
     0
 42
0.00000001
 43
0.00000001
 40
0.0
 40
0.0
 40
0.0
 40
0.0
 40
0.0127738756313335
 40
0.048130501886128
 40
0.080742501692392
 40
0.1375890913626836
 40
0.1884518731192189
 40
0.2226712138150604
 40
0.2626938372949104
 40
0.2986558359810494
 40
0.3315197765429448
 40
0.3878459718944461
 40
0.3881259547070338
 40
0.4440926113325778
 40
0.4768435653244589
 40
0.512644896071056
 40
0.5530084671478271
 40
0.5873855940016003
 40
0.6380121006395881
 40
0.6949796268749234
 40
0.7275539945507962
 40
0.7628079420080971
 40
0.8028703493977664
 40
0.8370831563378098
 40
0.8877749825785545
 40
0.8880089190148112
 40
0.938839794626332
 40
0.9729712758707671
 40
1.0
 40
1.0
 40
1.0
 40
1.0
 10
130.1535652405289
 20
94.45575847140447
 30
0.0
 10
130.2127588930916
 20
94.46184737520801
 30
0.0
 10
130.4357938034464
 20
94.48478966809218
 30
0.0
 10
130.9591462502236
 20
94.52143441989979
 30
0.0
 10
131.8319097086895
 20
94.54911844993376
 30
0.0
 10
132.9467476781312
 20
94.53856285308532
 30
0.0
 10
134.0598128244374
 20
94.42241782928133
 30
0.0
 10
134.954254981423
 20
94.30082687029723
 30
0.0
 10
135.6380873201211
 20
94.17906896090544
 30
0.0
 10
136.1788466073102
 20
94.0627077453306
 30
0.0
 10
136.5922410797859
 20
93.96923516340844
 30
0.0
 10
136.8204033005675
 20
93.90259706207401
 30
0.0
 10
136.666026195007
 20
93.94381748788456
 30
0.0
 10
136.6391481207209
 20
93.95629386155268
 30
0.0
 10
136.1832241777168
 20
94.06187531973872
 30
0.0
 10
135.6592909957641
 20
94.17462380082434
 30
0.0
 10
134.9730841075196
 20
94.29772189576657
 30
0.0
 10
134.0799705432233
 20
94.41971328293671
 30
0.0
 10
132.9665342627832
 20
94.5374658236317
 30
0.0
 10
131.8557837364936
 20
94.54943641138412
 30
0.0
 10
130.9710312213509
 20
94.52237886201776
 30
0.0
 10
130.303837245099
 20
94.47444678815012
 30
0.0
 10
129.7625574219109
 20
94.41815259516329
 30
0.0
 10
129.3750043397823
 20
94.37307247213585
 30
0.0
 10
129.1809772424785
 20
94.33418983306288
 30
0.0
 10
129.3072045412213
 20
94.35559663335884
 30
0.0
 10
129.3363635767399
 20
94.36551794226163
 30
0.0
 10
129.7079443149558
 20
94.41314777124836
 30
0.0
 10
130.0169884033746
 20
94.44269886328853
 30
0.0
 10
130.1535652405289
 20
94.45575847140447
 30
0.0
  0
SPLINE
  5
196
330
1F
100
AcDbEntity
  8
0
  6
HIDDEN
 62
     7
370
     0
100
AcDbSpline
210
0.0
220
0.0
230
1.0
 70
     8
 71
     3
 72
    38
 73
    34
 74
     0
 42
0.00000001
 43
0.00000001
 40
-0.0939221400677789
 40
-0.065775259775378
 40
-0.0344739496007942
 40
0.0
 40
0.0323124298479836
 40
0.0609695982577461
 40
0.085969868783555
 40
0.1073131755946561
 40
0.125001929016961
 40
0.1562358721977445
 40
0.1978507372990772
 40
0.2498168793248351
 40
0.2782629480307222
 40
0.304988415983286
 40
0.3300042168913842
 40
0.3533239044418168
 40
0.3749644360933809
 40
0.4060267838322922
 40
0.4476555976010198
 40
0.4998320869201298
 40
0.5286685248934816
 40
0.5555536435543466
 40
0.5805015705746598
 40
0.6035302879119626
 40
0.6246629693429201
 40
0.6685312637103243
 40
0.7183269153555464
 40
0.7652375706113133
 40
0.7915712044406464
 40
0.8122937035710441
 40
0.8615656629637487
 40
0.9060778599322211
 40
0.934224740224622
 40
0.9655260503992058
 40
1.0
 40
1.032312429847984
 40
1.060969598257746
 40
1.085969868783555
 10
130.9338184922217
 20
140.526424353971
 30
0.0
 10
130.3297502737124
 20
140.5709578591869
 30
0.0
 10
129.8544352108661
 20
140.6190332454199
 30
0.0
 10
129.5348363848663
 20
140.6551959846857
 30
0.0
 10
129.3478419791523
 20
140.6815861188742
 30
0.0
 10
129.2595363195999
 20
140.6976557286714
 30
0.0
 10
129.2301228237307
 20
140.7054794139214
 30
0.0
 10
129.3022548937995
 20
140.6873119153376
 30
0.0
 10
129.623366895994
 20
140.642705335375
 30
0.0
 10
130.1953943862086
 20
140.5819668067043
 30
0.0
 10
130.8459267339648
 20
140.5326226436843
 30
0.0
 10
131.3958028627063
 20
140.5102601832049
 30
0.0
 10
131.9512407284844
 20
140.5017779733004
 30
0.0
 10
132.4920162761209
 20
140.508229059449
 30
0.0
 10
133.0899461709202
 20
140.5317074360507
 30
0.0
 10
133.8296120280871
 20
140.5986273068879
 30
0.0
 10
134.76166166136
 20
140.7147287408231
 30
0.0
 10
135.5509983950336
 20
140.8500436254144
 30
0.0
 10
136.089928082871
 20
140.9651554494816
 30
0.0
 10
136.4040324227669
 20
141.0349295260326
 30
0.0
 10
136.6093127911328
 20
141.0854896115285
 30
0.0
 10
136.7203827772236
 20
141.1161677514352
 30
0.0
 10
136.7666542790276
 20
141.1308947686914
 30
0.0
 10
136.6406894106813
 20
141.093035175104
 30
0.0
 10
136.1704438818083
 20
140.9825493906779
 30
0.0
 10
135.5172459182197
 20
140.8428451723018
 30
0.0
 10
134.9132269627037
 20
140.7397185661565
 30
0.0
 10
134.2388889130654
 20
140.640282540387
 30
0.0
 10
133.3535394300779
 20
140.5468122061115
 30
0.0
 10
132.3840605394656
 20
140.4998037000388
 30
0.0
 10
131.5957249621986
 20
140.5034879151393
 30
0.0
 10
130.9338184922217
 20
140.526424353971
 30
0.0
 10
130.3297502737124
 20
140.5709578591869
 30
0.0
 10
129.8544352108661
 20
140.6190332454199
 30
0.0
  0
SPLINE
  5
197
330
1F
100
AcDbEntity
  8
0
  6
HIDDEN
 62
     7
370
     0
100
AcDbSpline
210
0.0
220
0.0
230
1.0
 70
     8
 71
     3
 72
    62
 73
    58
 74
     0
 42
0.00000001
 43
0.00000001
 40
-0.0312500000000008
 40
-0.0312500000000008
 40
0.0
 40
0.0
 40
0.0312500000000011
 40
0.0312500000000011
 40
0.0625000000000021
 40
0.0625000000000021
 40
0.1250000000000014
 40
0.1250000000000014
 40
0.1875000000000007
 40
0.1875000000000007
 40
0.2187499999999998
 40
0.2187499999999998
 40
0.2499999999999988
 40
0.2499999999999988
 40
0.2812499999999978
 40
0.2812499999999978
 40
0.3124999999999967
 40
0.3124999999999967
 40
0.3437499999999957
 40
0.3437499999999957
 40
0.3749999999999946
 40
0.3749999999999946
 40
0.4374999999999926
 40
0.4374999999999926
 40
0.4687499999999929
 40
0.4687499999999929
 40
0.4999999999999932
 40
0.4999999999999932
 40
0.5312499999999937
 40
0.5312499999999937
 40
0.562499999999994
 40
0.562499999999994
 40
0.5937499999999944
 40
0.5937499999999944
 40
0.6249999999999948
 40
0.6249999999999948
 40
0.6562499999999952
 40
0.6562499999999952
 40
0.6874999999999956
 40
0.6874999999999956
 40
0.718749999999996
 40
0.718749999999996
 40
0.7499999999999963
 40
0.7499999999999963
 40
0.7812499999999968
 40
0.7812499999999968
 40
0.8124999999999972
 40
0.8124999999999972
 40
0.8749999999999968
 40
0.8749999999999968
 40
0.9062499999999976
 40
0.9062499999999976
 40
0.9374999999999984
 40
0.9374999999999984
 40
0.9687499999999992
 40
0.9687499999999992
 40
1.0
 40
1.0
 40
1.031250000000001
 40
1.031250000000001
 10
239.8522909107535
 20
116.9388933039113
 30
0.0
 10
240.1348157453273
 20
116.9388933039113
 30
0.0
 10
240.2731387763784
 20
116.955055163771
 30
0.0
 10
240.5443667220707
 20
117.0173004497767
 30
0.0
 10
240.678577088239
 20
117.0642074587583
 30
0.0
 10
241.0575565959434
 20
117.2423047406704
 30
0.0
 10
241.2864331564029
 20
117.4135089016075
 30
0.0
 10
241.6673260085542
 20
117.8197878289155
 30
0.0
 10
241.8229240814213
 20
118.0590378031765
 30
0.0
 10
241.9820701269432
 20
118.4375331199749
 30
0.0
 10
242.0238355178935
 20
118.56991110885
 30
0.0
 10
242.0791539317035
 20
118.8325229613038
 30
0.0
 10
242.093259759174
 20
118.9630700208968
 30
0.0
 10
242.093837917229
 20
119.2224117466216
 30
0.0
 10
242.079846868286
 20
119.3508009805042
 30
0.0
 10
242.0253484394094
 20
119.5928371920406
 30
0.0
 10
241.9844581004613
 20
119.7091696529222
 30
0.0
 10
241.8778501007849
 20
119.9269126762047
 30
0.0
 10
241.8131025537061
 20
120.0269896423365
 30
0.0
 10
241.6615416780787
 20
120.2118554186594
 30
0.0
 10
241.5742550809392
 20
120.2966438123648
 30
0.0
 10
241.2886411264927
 20
120.5212120272272
 30
0.0
 10
241.0592549314417
 20
120.6369003403849
 30
0.0
 10
240.6830362617883
 20
120.7529564847345
 30
0.0
 10
240.5505652067376
 20
120.782734770472
 30
0.0
 10
240.2766102302856
 20
120.8228151942042
 30
0.0
 10
240.1385695669833
 20
120.8327813911479
 30
0.0
 10
239.8603519950022
 20
120.8333377811218
 30
0.0
 10
239.7185426362376
 20
120.8235374681805
 30
0.0
 10
239.4460860689065
 20
120.7845576185418
 30
0.0
 10
239.3142203378314
 20
120.7556082984536
 30
0.0
 10
239.0587039177108
 20
120.6777165294773
 30
0.0
 10
238.9387171580707
 20
120.6298570763137
 30
0.0
 10
238.7135711607504
 20
120.5160251557929
 30
0.0
 10
238.6074443963666
 20
120.4492225271652
 30
0.0
 10
238.4161177486746
 20
120.2996185027475
 30
0.0
 10
238.3301814021412
 20
120.2166881291647
 30
0.0
 10
238.1776844409226
 20
120.0322344891032
 30
0.0
 10
238.1115393776942
 20
119.9305594014633
 30
0.0
 10
238.0053189424985
 20
119.7155932229325
 30
0.0
 10
237.9642783306699
 20
119.6012945256024
 30
0.0
 10
237.9080917427212
 20
119.357070754421
 30
0.0
 10
237.893874171157
 20
119.230124626243
 30
0.0
 10
237.8932432794713
 20
118.9722383096998
 30
0.0
 10
237.9070316612711
 20
118.838749114348
 30
0.0
 10
237.961875233015
 20
118.5747604174698
 30
0.0
 10
238.0023764150698
 20
118.4449146845662
 30
0.0
 10
238.1619656137532
 20
118.0622730465032
 30
0.0
 10
238.3167334474321
 20
117.8234240108149
 30
0.0
 10
238.6047131613126
 20
117.515674204697
 30
0.0
 10
238.7086620838657
 20
117.422755111888
 30
0.0
 10
238.9330732817569
 20
117.2568954304512
 30
0.0
 10
239.0550038358053
 20
117.1834390367255
 30
0.0
 10
239.3072462892641
 20
117.0647213586056
 30
0.0
 10
239.4381234629534
 20
117.0186849498818
 30
0.0
 10
239.7103298113333
 20
116.9555747421426
 30
0.0
 10
239.8522909107535
 20
116.9388933039113
 30
0.0
 10
240.1348157453273
 20
116.9388933039113
 30
0.0
  0
LINE
  5
198
330
1F
100
AcDbEntity
  8
0
  6
HIDDEN
 62
     7
370
     0
100
AcDbLine
 10
243.093553328
 20
121.7234203279
 30
0.0
 11
243.093553328
 21
113.3234203279
 31
0.0
  0
LINE
  5
199
330
1F
100
AcDbEntity
  8
0
  6
HIDDEN
 62
     7
370
     0
100
AcDbLine
 10
163.793553328
 20
113.3234203279
 30
0.0
 11
163.793553328
 21
121.7234203279
 31
0.0
  0
SPLINE
  5
19A
330
1F
100
AcDbEntity
  8
0
  6
HIDDEN
 62
     7
370
     0
100
AcDbSpline
210
0.0
220
0.0
230
1.0
 70
     8
 71
     3
 72
    42
 73
    38
 74
     0
 42
0.00000001
 43
0.00000001
 40
0.0
 40
0.0
 40
0.0
 40
0.0
 40
0.1250000000000127
 40
0.1250000000000127
 40
0.1875000000000196
 40
0.1875000000000196
 40
0.2500000000000264
 40
0.2500000000000264
 40
0.3125000000000332
 40
0.3125000000000332
 40
0.37500000000004
 40
0.37500000000004
 40
0.4062500000000424
 40
0.4062500000000424
 40
0.4375000000000448
 40
0.4375000000000448
 40
0.4687500000000472
 40
0.4687500000000472
 40
0.5000000000000496
 40
0.5000000000000496
 40
0.515625000000048
 40
0.515625000000048
 40
0.5312500000000464
 40
0.5312500000000464
 40
0.5625000000000432
 40
0.5625000000000432
 40
0.6250000000000371
 40
0.6250000000000371
 40
0.6875000000000309
 40
0.6875000000000309
 40
0.7500000000000246
 40
0.7500000000000246
 40
0.8125000000000185
 40
0.8125000000000185
 40
0.8750000000000123
 40
0.8750000000000123
 40
1.0
 40
1.0
 40
1.0
 40
1.0
 10
264.3626830837661
 20
112.0057793021496
 30
0.0
 10
264.4210481931282
 20
111.8903245010984
 30
0.0
 10
264.5446729474278
 20
111.7607076269168
 30
0.0
 10
264.7908736329412
 20
111.5622534702591
 30
0.0
 10
264.8840387993198
 20
111.4952712305946
 30
0.0
 10
265.0889476512376
 20
111.3646999516664
 30
0.0
 10
265.2008805636385
 20
111.3008813084971
 30
0.0
 10
265.4456567420995
 20
111.1798164674973
 30
0.0
 10
265.57838510367
 20
111.1224852600598
 30
0.0
 10
265.8713691378462
 20
111.02017059436
 30
0.0
 10
266.0326538934974
 20
110.9745789157217
 30
0.0
 10
266.3037870948881
 20
110.9264234935998
 30
0.0
 10
266.3987504178463
 20
110.9138374042918
 30
0.0
 10
266.6017907091583
 20
110.8992056204087
 30
0.0
 10
266.7103459202539
 20
110.8971781547725
 30
0.0
 10
266.9404087280934
 20
110.9103278556345
 30
0.0
 10
267.0646945583265
 20
110.9258132063504
 30
0.0
 10
267.3221582364723
 20
110.9833420955584
 30
0.0
 10
267.458002014365
 20
111.0267673061921
 30
0.0
 10
267.6500369871214
 20
111.1112355894906
 30
0.0
 10
267.7135548453967
 20
111.1431475056693
 30
0.0
 10
267.8330693001105
 20
111.2107684038729
 30
0.0
 10
267.8893355091547
 20
111.2464713495083
 30
0.0
 10
268.0493464822151
 20
111.3583059384734
 30
0.0
 10
268.1418596213293
 20
111.4375653029261
 30
0.0
 10
268.379818998212
 20
111.6707989296546
 30
0.0
 10
268.4925206880222
 20
111.8229977428249
 30
0.0
 10
268.6790009131003
 20
112.122309533919
 30
0.0
 10
268.7487913851118
 20
112.2657728192952
 30
0.0
 10
268.8616217296581
 20
112.541520579829
 30
0.0
 10
268.9043809837279
 20
112.6741253244797
 30
0.0
 10
268.9709559599199
 20
112.9292061462566
 30
0.0
 10
268.9946260816067
 20
113.0518560242114
 30
0.0
 10
269.0262140350526
 20
113.282406374747
 30
0.0
 10
269.0342490031273
 20
113.3907995920246
 30
0.0
 10
269.0378818660413
 20
113.6920060858499
 30
0.0
 10
269.0148521985762
 20
113.8628907731734
 30
0.0
 10
268.9567752025914
 20
113.9777756434383
 30
0.0
  0
ELLIPSE
  5
19B
330
1F
100
AcDbEntity
  8
0
  6
HIDDEN
 62
     7
370
     0
100
AcDbEllipse
 10
268.7675504806
 20
108.2612857616
 30
0.0
 11
3.440747461302578
 21
-1.698686693198752
 31
0.0
210
0.0
220
0.0
230
1.0
 40
0.166019012
 41
3.359154727482411
 42
6.500747381072349
  0
SPLINE
  5
19C
330
1F
100
AcDbEntity
  8
0
  6
HIDDEN
 62
     7
370
     0
100
AcDbSpline
210
0.0
220
0.0
230
1.0
 70
     8
 71
     3
 72
    20
 73
    16
 74
     0
 42
0.00000001
 43
0.00000001
 40
0.0
 40
0.0
 40
0.0
 40
0.0
 40
0.1249999999999978
 40
0.1249999999999978
 40
0.2499999999999955
 40
0.2499999999999955
 40
0.4999999999999939
 40
0.4999999999999939
 40
0.6249999999999954
 40
0.6249999999999954
 40
0.7499999999999969
 40
0.7499999999999969
 40
0.8749999999999984
 40
0.8749999999999984
 40
1.0
 40
1.0
 40
1.0
 40
1.0
 10
259.483772296272
 20
119.1068227161865
 30
0.0
 10
259.5013581843036
 20
118.8901353667777
 30
0.0
 10
259.5342989012567
 20
118.6760808317344
 30
0.0
 10
259.6304646976847
 20
118.2531011649401
 30
0.0
 10
259.6942294862126
 20
118.0428181227688
 30
0.0
 10
259.9297704504382
 20
117.4297081461141
 30
0.0
 10
260.141071231977
 20
117.0510515240556
 30
0.0
 10
260.5432258081788
 20
116.5299698758117
 30
0.0
 10
260.6904289081527
 20
116.3663704195535
 30
0.0
 10
261.0043169477109
 20
116.0668810874983
 30
0.0
 10
261.1719207369702
 20
115.9297561331594
 30
0.0
 10
261.5293899796482
 20
115.6819380175202
 30
0.0
 10
261.7207551172699
 20
115.5708624752074
 30
0.0
 10
262.1117298375825
 20
115.3851132403255
 30
0.0
 10
262.3128125691969
 20
115.3091404780495
 30
0.0
 10
262.5195113326297
 20
115.25018924519
 30
0.0
  0
LINE
  5
19D
330
1F
100
AcDbEntity
  8
0
  6
HIDDEN
 62
     7
370
     0
100
AcDbLine
 10
280.0429872716
 20
93.1363421942
 30
0.0
 11
266.325648388
 21
97.0904358571
 31
0.0
  0
SPLINE
  5
19E
330
1F
100
AcDbEntity
  8
0
  6
HIDDEN
 62
     7
370
     0
100
AcDbSpline
210
0.0
220
0.0
230
1.0
 70
     8
 71
     3
 72
    47
 73
    43
 74
     0
 42
0.00000001
 43
0.00000001
 40
0.0
 40
0.0
 40
0.0
 40
0.0
 40
0.0283977540552325
 40
0.0565992211615908
 40
0.0846058239680615
 40
0.1124190150259339
 40
0.1400402774002807
 40
0.1674711252866767
 40
0.1947131046325122
 40
0.2217677937621984
 40
0.2486368040055332
 40
0.2753217803283819
 40
0.3018244019647788
 40
0.3281463830494915
 40
0.3542894732499903
 40
0.380255458396695
 40
0.406046161110276
 40
0.4316634414247498
 40
0.4571091974049334
 40
0.4823853657568141
 40
0.5074939224292591
 40
0.5324368832053805
 40
0.5572163042818343
 40
0.5818342828341536
 40
0.6062929575661962
 40
0.6305945092416411
 40
0.6547411611953933
 40
0.678735179822663
 40
0.7025788750433775
 40
0.7262746007395241
 40
0.7498247551629166
 40
0.7732317813107974
 40
0.7964981672666497
 40
0.8196264465034686
 40
0.842619198146754
 40
0.8654790471943914
 40
0.8882086646905688
 40
0.9108107678508587
 40
0.9332881201355818
 40
0.9556435312685804
 40
0.9778798571985302
 40
1.0
 40
1.0
 40
1.0
 40
1.0
 10
275.639533473676
 20
105.3103050396436
 30
0.0
 10
275.6900093342194
 20
105.1628097960826
 30
0.0
 10
275.7906121631847
 20
104.8688388047727
 30
0.0
 10
275.9397834235535
 20
104.4334949423312
 30
0.0
 10
276.0870171739325
 20
104.0043357814847
 30
0.0
 10
276.2322285755445
 20
103.5817270037887
 30
0.0
 10
276.3754390479913
 20
103.1656769551212
 30
0.0
 10
276.5166404247642
 20
102.7562841365127
 30
0.0
 10
276.6558310034699
 20
102.3536185714639
 30
0.0
 10
276.7930060138315
 20
101.9577532981953
 30
0.0
 10
276.9281601733638
 20
101.5687560540025
 30
0.0
 10
277.061287037828
 20
101.1866915179214
 30
0.0
 10
277.1923792018439
 20
100.8116207554033
 30
0.0
 10
277.3214282742099
 20
100.4436014068273
 30
0.0
 10
277.4484249131037
 20
100.0826876805207
 30
0.0
 10
277.5733588455161
 20
99.7289303993191
 30
0.0
 10
277.6962188909542
 20
99.38237703455103
 30
0.0
 10
277.8169929840832
 20
99.04307174491075
 30
0.0
 10
277.9356681976949
 20
98.71105541551641
 30
0.0
 10
278.0522307656159
 20
98.38636569833082
 30
0.0
 10
278.166666105639
 20
98.06903705356405
 30
0.0
 10
278.2789588424336
 20
97.75910079209005
 30
0.0
 10
278.3890928304288
 20
97.45658511880147
 30
0.0
 10
278.497051176654
 20
97.16151517685604
 30
0.0
 10
278.6028162635198
 20
96.8739130927606
 30
0.0
 10
278.7063697715285
 20
96.59379802224598
 30
0.0
 10
278.807692701903
 20
96.32118619686536
 30
0.0
 10
278.906765399102
 20
96.05609097133163
 30
0.0
 10
279.0035675732896
 20
95.79852287130302
 30
0.0
 10
279.0980783224413
 20
95.54848964246418
 30
0.0
 10
279.1902761552158
 20
95.30599629754607
 30
0.0
 10
279.280139010354
 20
95.07104517347587
 30
0.0
 10
279.3676442882316
 20
94.84363595335701
 30
0.0
 10
279.4527688367303
 20
94.62376582060561
 30
0.0
 10
279.5354891052811
 20
94.41142912612368
 30
0.0
 10
279.6157806759626
 20
94.20661885858233
 30
0.0
 10
279.6936200984751
 20
94.00932144505836
 30
0.0
 10
279.7689781992902
 20
93.81953623229104
 30
0.0
 10
279.8418449416415
 20
93.63720363262803
 30
0.0
 10
279.9121375073009
 20
93.462471324726
 30
0.0
 10
279.9800406630117
 20
93.2947090551718
 30
0.0
 10
280.0232893675747
 20
93.18873447690314
 30
0.0
 10
280.0448570790782
 20
93.1358859776499
 30
0.0
  0
ELLIPSE
  5
19F
330
1F
100
AcDbEntity
  8
0
  6
HIDDEN
 62
     7
370
     0
100
AcDbEllipse
 10
403.4945820423
 20
81.0289586449
 30
0.0
 11
144.1023305069118
 21
-41.53823979282055
 31
1.776356839400251E-14
210
-1.548145396374560E-16
220
-1.094309144244293E-16
230
1.0
 40
0.1600323404
 41
3.40136101081905
 42
3.669152110186682
  0
ELLIPSE
  5
1A0
330
1F
100
AcDbEntity
  8
0
  6
HIDDEN
 62
     7
370
     0
100
AcDbEllipse
 10
258.1449029423
 20
122.9267531013
 30
0.0
 11
-9.078460931648237
 21
27.58917118271999
 31
0.0
210
0.0
220
0.0
230
1.0
 40
0.0291674204
 41
2.773491047244562
 42
3.121702977117128
  0
ELLIPSE
  5
1A1
330
1F
100
AcDbEntity
  8
0
  6
HIDDEN
 62
     7
370
     0
100
AcDbEllipse
 10
263.689325895
 20
119.3486533309
 30
0.0
 11
-1.947843959788429
 21
3.853122855659166
 31
0.0
210
0.0
220
0.0
230
1.0
 40
0.9727892058
 41
2.381737011887571
 42
3.816295594585597
  0
LINE
  5
1A2
330
1F
100
AcDbEntity
  8
0
  6
HIDDEN
 62
     7
370
     0
100
AcDbLine
 10
268.9567752026
 20
113.9777756434
 30
0.0
 11
268.518609161
 21
114.8445327473
 31
0.0
  0
ELLIPSE
  5
1A3
330
1F
100
AcDbEntity
  8
0
  6
HIDDEN
 62
     7
370
     0
100
AcDbEllipse
 10
265.1750660294
 20
116.4096400487
 30
0.0
 11
3.804300531739842
 21
1.781192347301783
 31
0.0
210
0.0
220
0.0
230
1.0
 40
0.8165867755
 41
4.035122447991989
 42
5.310246289230394
  0
LINE
  5
1A4
330
1F
100
AcDbEntity
  8
0
  6
HIDDEN
 62
     7
370
     0
100
AcDbLine
 10
263.9245170422
 20
112.872536406
 30
0.0
 11
264.3626830838
 21
112.0057793021
 31
0.0
  0
LWPOLYLINE
  5
1A5
330
1F
100
AcDbEntity
  8
0
  6
HIDDEN
 62
     7
370
     0
100
AcDbPolyline
 90
       29
 70
   128
 43
0.0
 10
266.0428640604
 20
118.8012273788
 10
266.9723322126
 20
118.7185368373
 10
267.8551929505
 20
118.4339894434
 10
268.6471759502
 20
117.9618535917
 10
269.3085678771
 20
117.3258041453
 10
269.8062037783
 20
116.5577352792
 10
270.1151301117
 20
115.6961611736
 10
270.2198560209
 20
114.7842847518
 10
270.1151301117
 20
113.8678313052
 10
269.8062037783
 20
112.9927556365
 10
269.3085678771
 20
112.2029376936
 10
268.6471759502
 20
111.5379822462
 10
267.8551929505
 20
111.0312329371
 10
266.9723322126
 20
110.7081002925
 10
266.0428640604
 20
110.5847875327
 10
265.1133959082
 20
110.6674780742
 10
264.2305351703
 20
110.952025468
 10
263.4385521705
 20
111.4241613197
 10
262.7771602436
 20
112.0602107662
 10
262.2795243424
 20
112.8282796323
 10
261.9705980091
 20
113.6898537379
 10
261.8658720998
 20
114.6017301597
 10
261.9705980091
 20
115.5181836062
 10
262.2795243424
 20
116.393259275
 10
262.7771602436
 20
117.1830772179
 10
263.4385521705
 20
117.8480326653
 10
264.2305351703
 20
118.3547819744
 10
265.1133959082
 20
118.677914619
 10
266.0428640604
 20
118.8012273788
  0
LINE
  5
1A6
330
1F
100
AcDbEntity
  8
0
  6
HIDDEN
 62
     7
370
     0
100
AcDbLine
 10
273.0757359816
 20
104.3722629198
 30
0.0
 11
271.4795200973
 21
108.1275401557
 31
0.0
  0
LINE
  5
1A7
330
1F
100
AcDbEntity
  8
0
  6
HIDDEN
 62
     7
370
     0
100
AcDbLine
 10
272.751887138
 20
105.0128837328
 30
0.0
 11
273.0757359816
 21
104.3722629198
 31
0.0
  0
LINE
  5
1A8
330
1F
100
AcDbEntity
  8
0
  6
HIDDEN
 62
     7
370
     0
100
AcDbLine
 10
270.2296516596
 20
110.6734270683
 30
0.0
 11
268.518609161
 21
114.8445327473
 31
0.0
  0
LINE
  5
1A9
330
1F
100
AcDbEntity
  8
0
  6
HIDDEN
 62
     7
370
     0
100
AcDbLine
 10
271.4795200973
 20
108.1275401557
 30
0.0
 11
272.1880604749
 21
106.7259427078
 31
0.0
  0
LWPOLYLINE
  5
1AA
330
1F
100
AcDbEntity
  8
0
  6
HIDDEN
 62
     7
370
     0
100
AcDbPolyline
 90
        2
 70
   128
 43
0.0
 10
146.943553328
 20
91.1234203279
 10
146.943553328
 20
91.1234203279
  0
LINE
  5
1AB
330
1F
100
AcDbEntity
  8
0
  6
HIDDEN
 62
     7
370
     0
100
AcDbLine
 10
146.943553328
 20
86.0392973451
 30
0.0
 11
146.943553328
 21
91.1234203279
 31
0.0
  0
LINE
  5
1AC
330
1F
100
AcDbEntity
  8
0
  6
HIDDEN
 62
     7
370
     0
100
AcDbLine
 10
146.943553328
 20
91.1234203279
 30
0.0
 11
154.943553328
 21
91.1234203279
 31
0.0
  0
LWPOLYLINE
  5
1AD
330
1F
100
AcDbEntity
  8
0
  6
HIDDEN
 62
     7
370
     0
100
AcDbPolyline
 90
       21
 70
   128
 43
0.0
 10
239.993553328
 20
120.7307920013
 10
240.6424890162
 20
120.8260891779
 10
241.2279023579
 20
121.1026523559
 10
241.6924890162
 20
121.5334096046
 10
241.9907720123
 20
122.0761954032
 10
242.093553328
 20
122.6778780959
 10
241.9907720123
 20
123.2795607887
 10
241.6924890162
 20
123.8223465873
 10
241.2279023579
 20
124.253103836
 10
240.6424890162
 20
124.529667014
 10
239.993553328
 20
124.6249641905
 10
239.3446176399
 20
124.529667014
 10
238.7592042982
 20
124.253103836
 10
238.2946176399
 20
123.8223465873
 10
237.9963346438
 20
123.2795607887
 10
237.893553328
 20
122.6778780959
 10
237.9963346438
 20
122.0761954032
 10
238.2946176399
 20
121.5334096046
 10
238.7592042982
 20
121.1026523559
 10
239.3446176399
 20
120.8260891779
 10
239.993553328
 20
120.7307920013
  0
LINE
  5
1AE
330
1F
100
AcDbEntity
  8
0
  6
HIDDEN
 62
     7
370
     0
100
AcDbLine
 10
265.2886757017
 20
109.9120829741
 30
0.0
 11
268.4816438628
 21
102.4002665785
 31
0.0
  0
ARC
  5
1AF
330
1F
100
AcDbEntity
  8
0
  6
HIDDEN
 62
     7
370
     0
100
AcDbCircle
 10
271.41172265
 20
101.5334849842
 30
0.0
 40
3.055596837271556
100
AcDbArc
 50
163.5206269212
 51
249.9464080853
  0
ARC
  5
1B0
330
1F
100
AcDbEntity
  8
0
  6
HIDDEN
 62
     7
370
     0
100
AcDbCircle
 10
271.4740048121
 20
101.7252024088
 30
0.0
 40
3.258324032572696
100
AcDbArc
 50
255.6538243413
 51
341.1581957368
  0
ARC
  5
1B1
330
1F
100
AcDbEntity
  8
0
  6
HIDDEN
 62
     7
370
     0
100
AcDbCircle
 10
271.6679053325
 20
101.6622319876
 30
0.0
 40
3.053891744919633
100
AcDbArc
 50
343.6763812431
 51
62.5486297443
  0
LINE
  5
1B2
330
1F
100
AcDbEntity
  8
0
  6
HIDDEN
 62
     7
370
     0
100
AcDbLine
 10
280.0441126217
 20
93.133011419
 30
0.0
 11
280.4008149664
 21
93.5024299387
 31
0.0
  0
LINE
  5
1B3
330
1F
100
AcDbEntity
  8
0
  6
HIDDEN
 62
     7
370
     0
100
AcDbLine
 10
263.4013476396
 20
106.1485267776
 30
0.0
 11
266.325648388
 21
97.0904358571
 31
0.0
  0
LINE
  5
1B4
330
1F
100
AcDbEntity
  8
0
  6
HIDDEN
 62
     7
370
     0
100
AcDbLine
 10
265.2886757017
 20
109.9120829741
 30
0.0
 11
261.6766278199
 21
110.9532744006
 31
0.0
  0
LINE
  5
1B5
330
1F
100
AcDbEntity
  8
0
  6
HIDDEN
 62
     7
370
     0
100
AcDbLine
 10
276.110112461
 20
106.7927480304
 30
0.0
 11
271.4795200973
 21
108.1275401557
 31
0.0
  0
LINE
  5
1B6
330
1F
100
AcDbEntity
  8
0
  6
HIDDEN
 62
     7
370
     0
100
AcDbLine
 10
280.4007066059
 20
93.5025309115
 30
0.0
 11
276.110112461
 21
106.7927480304
 31
0.0
  0
LINE
  5
1B7
330
1F
100
AcDbEntity
  8
0
  6
HIDDEN
 62
     7
370
     0
100
AcDbLine
 10
265.3470404863
 20
109.7966288155
 30
0.0
 11
265.2886757017
 21
109.9120829741
 31
0.0
  0
LINE
  5
1B8
330
1F
100
AcDbEntity
  8
0
  6
HIDDEN
 62
     7
370
     0
100
AcDbLine
 10
116.193553328
 20
135.5134203279
 30
0.0
 11
116.193553328
 21
133.8109339503
 31
0.0
  0
LINE
  5
1B9
330
1F
100
AcDbEntity
  8
0
  6
HIDDEN
 62
     7
370
     0
100
AcDbLine
 10
120.193553328
 20
99.5334203279
 30
0.0
 11
120.193553328
 21
101.2359067055
 31
0.0
  0
LINE
  5
1BA
330
1F
100
AcDbEntity
  8
0
  6
HIDDEN
 62
     7
370
     0
100
AcDbLine
 10
120.193553328
 20
99.5334203279
 30
0.0
 11
120.193553328
 21
95.5782720687
 31
0.0
  0
LINE
  5
1BB
330
1F
100
AcDbEntity
  8
0
  6
HIDDEN
 62
     7
370
     0
100
AcDbLine
 10
116.193553328
 20
135.5134203279
 30
0.0
 11
116.193553328
 21
139.3675280003
 31
0.0
  0
SPLINE
  5
1BC
330
1F
100
AcDbEntity
  8
0
  6
HIDDEN
 62
     7
370
     0
100
AcDbSpline
210
0.0
220
0.0
230
1.0
 70
     8
 71
     3
 72
    10
 73
     6
 74
     0
 42
0.00000001
 43
0.00000001
 40
0.0
 40
0.0
 40
0.0
 40
0.0
 40
0.5
 40
0.5
 40
1.0
 40
1.0
 40
1.0
 40
1.0
 10
268.0355729614427
 20
103.9412459540321
 30
0.0
 10
268.032264930324
 20
103.7515554332074
 30
0.0
 10
268.0421481143759
 20
103.5751592389341
 30
0.0
 10
268.0828602953754
 20
103.2649338713109
 30
0.0
 10
268.1130900581379
 20
103.1293204028036
 30
0.0
 10
268.1577950191277
 20
103.0408873914806
 30
0.0
  0
ARC
  5
1BD
330
1F
100
AcDbEntity
  8
0
  6
HIDDEN
 62
     7
370
     0
100
AcDbCircle
 10
270.9667670313
 20
102.7450100851
 30
0.0
 40
3.165893069820984
100
AcDbArc
 50
157.7993678453
 51
68.6631167938
  0
SPLINE
  5
1BE
330
1F
100
AcDbEntity
  8
0
  6
HIDDEN
 62
     7
370
     0
100
AcDbSpline
210
0.0
220
0.0
230
1.0
 70
     8
 71
     3
 72
    10
 73
     6
 74
     0
 42
0.00000001
 43
0.00000001
 40
0.0
 40
0.0
 40
0.0
 40
0.0
 40
0.5
 40
0.5
 40
1.0
 40
1.0
 40
1.0
 40
1.0
 10
272.7518871379534
 20
105.0128837327703
 30
0.0
 10
272.7072346300786
 20
105.1012129840898
 30
0.0
 10
272.6187270126981
 20
105.2119666599585
 30
0.0
 10
272.4004116525701
 20
105.4459637398203
 30
0.0
 10
272.268836630641
 20
105.570112787229
 30
0.0
 10
272.1186801244856
 20
105.6939039718408
 30
0.0
  0
LINE
  5
1BF
330
1F
100
AcDbEntity
  8
0
  6
HIDDEN
 62
     7
370
     0
100
AcDbLine
 10
268.4816438628
 20
102.4002665785
 30
0.0
 11
268.1577950191
 21
103.0408873915
 31
0.0
  0
SPLINE
  5
1C0
330
1F
100
AcDbEntity
  8
0
  6
HIDDEN
 62
     7
370
     0
100
AcDbSpline
210
0.0
220
0.0
230
1.0
 70
     8
 71
     3
 72
     8
 73
     4
 74
     0
 42
0.00000001
 43
0.00000001
 40
0.0
 40
0.0
 40
0.0
 40
0.0
 40
1.0
 40
1.0
 40
1.0
 40
1.0
 10
111.0324628982394
 20
97.07949802497795
 30
0.0
 10
111.0681765566093
 20
96.95626651971814
 30
0.0
 10
111.1438445955576
 20
96.83532294277114
 30
0.0
 10
111.2335083976307
 20
96.72860389906789
 30
0.0
  0
SPLINE
  5
1C1
330
1F
100
AcDbEntity
  8
0
  6
HIDDEN
 62
     7
370
     0
100
AcDbSpline
210
0.0
220
0.0
230
1.0
 70
     8
 71
     3
 72
    10
 73
     6
 74
     0
 42
0.00000001
 43
0.00000001
 40
0.0
 40
0.0
 40
0.0
 40
0.0
 40
0.5
 40
0.5
 40
1.0
 40
1.0
 40
1.0
 40
1.0
 10
110.0935533280399
 20
97.87025980299065
 30
0.0
 10
110.0935533280398
 20
97.85674327712289
 30
0.0
 10
110.0988728886681
 20
97.85257250476559
 30
0.0
 10
110.1120011209497
 20
97.87070354815317
 30
0.0
 10
110.1196937756037
 20
97.8936119732151
 30
0.0
 10
110.1238309436489
 20
97.93333276771668
 30
0.0
  0
LINE
  5
1C2
330
1F
100
AcDbEntity
  8
0
  6
HIDDEN
 62
     7
370
     0
100
AcDbLine
 10
110.093553328
 20
99.5334203279
 30
0.0
 11
110.093553328
 21
97.870259803
 31
0.0
  0
LINE
  5
1C3
330
1F
100
AcDbEntity
  8
0
  6
HIDDEN
 62
     7
370
     0
100
AcDbLine
 10
111.243553328
 20
99.5334203279
 30
0.0
 11
111.243553328
 21
96.7167887694
 31
0.0
  0
ELLIPSE
  5
1C4
330
1F
100
AcDbEntity
  8
0
  6
HIDDEN
 62
     7
370
     0
100
AcDbEllipse
 10
105.9261214637
 20
117.5234203279
 30
0.0
 11
20.07002071827051
 21
-2.842170943040401E-14
 31
0.0
210
0.0
220
0.0
230
1.0
 40
0.8164965809
 41
4.921555463185705
 42
4.980534842098404
  0
LINE
  5
1C5
330
1F
100
AcDbEntity
  8
0
  6
HIDDEN
 62
     7
370
     0
100
AcDbLine
 10
111.243553328
 20
99.5334203279
 30
0.0
 11
111.243553328
 21
101.7219298919
 31
0.0
  0
LINE
  5
1C6
330
1F
100
AcDbEntity
  8
0
  6
HIDDEN
 62
     7
370
     0
100
AcDbLine
 10
110.093553328
 20
99.5334203279
 30
0.0
 11
110.093553328
 21
101.4934849301
 31
0.0
  0
LINE
  5
1C7
330
1F
100
AcDbEntity
  8
0
  6
HIDDEN
 62
     7
370
     0
100
AcDbLine
 10
111.243553328
 20
135.5134203279
 30
0.0
 11
111.243553328
 21
138.3933580933
 31
0.0
  0
SPLINE
  5
1C8
330
1F
100
AcDbEntity
  8
0
  6
HIDDEN
 62
     7
370
     0
100
AcDbSpline
210
0.0
220
0.0
230
1.0
 70
     8
 71
     3
 72
    10
 73
     6
 74
     0
 42
0.00000001
 43
0.00000001
 40
0.0
 40
0.0
 40
0.0
 40
0.0
 40
0.5
 40
0.5
 40
1.0
 40
1.0
 40
1.0
 40
1.0
 10
111.2335083976221
 20
138.3833742202312
 30
0.0
 10
111.1659491427038
 20
138.3156828274214
 30
0.0
 10
111.1023124873673
 20
138.2409756626678
 30
0.0
 10
110.9920917327954
 20
138.0820095302412
 30
0.0
 10
110.9452754395728
 20
137.9976542642331
 30
0.0
 10
110.9177069741447
 20
137.9135396615414
 30
0.0
  0
LINE
  5
1C9
330
1F
100
AcDbEntity
  8
0
  6
HIDDEN
 62
     7
370
     0
100
AcDbLine
 10
110.093553328
 20
135.5134203279
 30
0.0
 11
110.093553328
 21
137.2140980744
 31
0.0
  0
SPLINE
  5
1CA
330
1F
100
AcDbEntity
  8
0
  6
HIDDEN
 62
     7
370
     0
100
AcDbSpline
210
0.0
220
0.0
230
1.0
 70
     8
 71
     3
 72
    10
 73
     6
 74
     0
 42
0.00000001
 43
0.00000001
 40
0.0
 40
0.0
 40
0.0
 40
0.0
 40
0.5
 40
0.5
 40
1.0
 40
1.0
 40
1.0
 40
1.0
 10
110.1562167027637
 20
137.1979728727243
 30
0.0
 10
110.147312413655
 20
137.2437143919375
 30
0.0
 10
110.130797033462
 20
137.2609052314065
 30
0.0
 10
110.1036890874004
 20
137.2605819544708
 30
0.0
 10
110.0935533280403
 20
137.2427044121743
 30
0.0
 10
110.0935533280403
 20
137.2140980744217
 30
0.0
  0
ELLIPSE
  5
1CB
330
1F
100
AcDbEntity
  8
0
  6
HIDDEN
 62
     7
370
     0
100
AcDbEllipse
 10
105.9261214637
 20
117.5234203279
 30
0.0
 11
20.07002071827051
 21
-2.842170943040401E-14
 31
0.0
210
0.0
220
0.0
230
1.0
 40
0.8164965809
 41
1.302650465081199
 42
1.361629843993901
  0
LINE
  5
1CC
330
1F
100
AcDbEntity
  8
0
  6
HIDDEN
 62
     7
370
     0
100
AcDbLine
 10
110.093553328
 20
133.5533557258
 30
0.0
 11
110.093553328
 21
101.4934849301
 31
0.0
  0
LINE
  5
1CD
330
1F
100
AcDbEntity
  8
0
  6
HIDDEN
 62
     7
370
     0
100
AcDbLine
 10
111.243553328
 20
135.5134203279
 30
0.0
 11
111.243553328
 21
133.324910764
 31
0.0
  0
LINE
  5
1CE
330
1F
100
AcDbEntity
  8
0
  6
HIDDEN
 62
     7
370
     0
100
AcDbLine
 10
110.093553328
 20
135.5134203279
 30
0.0
 11
110.093553328
 21
133.5533557258
 31
0.0
  0
SPLINE
  5
1CF
330
1F
100
AcDbEntity
  8
0
  6
HIDDEN
 62
     7
370
     0
100
AcDbSpline
210
0.0
220
0.0
230
1.0
 70
     8
 71
     3
 72
    10
 73
     6
 74
     0
 42
0.00000001
 43
0.00000001
 40
0.0
 40
0.0
 40
0.0
 40
0.0
 40
0.5
 40
0.5
 40
1.0
 40
1.0
 40
1.0
 40
1.0
 10
158.0835533280404
 20
144.6430741789793
 30
0.0
 10
158.0835533280404
 20
144.4994618274213
 30
0.0
 10
158.1197206031382
 20
144.3564884137027
 30
0.0
 10
158.2554765468921
 20
144.106495786989
 30
0.0
 10
158.355746237515
 20
143.9984934777102
 30
0.0
 10
158.4778508597314
 20
143.9234203279435
 30
0.0
  0
LINE
  5
1D0
330
1F
100
AcDbEntity
  8
0
  6
HIDDEN
 62
     7
370
     0
100
AcDbLine
 10
158.083553328
 20
144.643074179
 30
0.0
 11
158.083553328
 21
90.7190246996
 31
0.0
  0
SPLINE
  5
1D1
330
1F
100
AcDbEntity
  8
0
  6
HIDDEN
 62
     7
370
     0
100
AcDbSpline
210
0.0
220
0.0
230
1.0
 70
     8
 71
     3
 72
    10
 73
     6
 74
     0
 42
0.00000001
 43
0.00000001
 40
0.0
 40
0.0
 40
0.0
 40
0.0
 40
0.5
 40
0.5
 40
1.0
 40
1.0
 40
1.0
 40
1.0
 10
158.0835533280404
 20
90.7190246996142
 30
0.0
 10
158.0835533280404
 20
90.78926105998471
 30
0.0
 10
158.0918359401308
 20
90.85925516148197
 30
0.0
 10
158.1249358831891
 20
90.99621442604042
 30
0.0
 10
158.1492732751475
 20
91.0615223352955
 30
0.0
 10
158.1812281303719
 20
91.12342032794224
 30
0.0
  0
SPLINE
  5
1D2
330
1F
100
AcDbEntity
  8
0
  6
HIDDEN
 62
     7
370
     0
100
AcDbSpline
210
0.0
220
0.0
230
1.0
 70
    24
 71
     3
 72
    12
 73
     8
 74
     0
 42
0.00000001
 43
0.00000001
 40
0.0
 40
0.0
 40
0.0
 40
0.0
 40
0.4999999999999942
 40
0.4999999999999942
 40
0.7499999999999971
 40
0.7499999999999971
 40
1.0
 40
1.0
 40
1.0
 40
1.0
 10
158.4778508597313
 20
143.9234203279436
 30
0.0
 10
158.5209742081649
 20
143.9234203279435
 30
0.0
 10
158.5707137954651
 20
143.9234203279435
 30
0.0
 10
158.667234772287
 20
143.9234203279435
 30
0.0
 10
158.7027999031387
 20
143.9234203279435
 30
0.0
 10
158.7861482337616
 20
143.9234203279436
 30
0.0
 10
158.834618133452
 20
143.9234203279435
 30
0.0
 10
158.8835533280415
 20
143.9234203279436
 30
0.0
  0
SPLINE
  5
1D3
330
1F
100
AcDbEntity
  8
0
  6
HIDDEN
 62
     7
370
     0
100
AcDbSpline
210
0.0
220
0.0
230
1.0
 70
    24
 71
     3
 72
    14
 73
    10
 74
     0
 42
0.00000001
 43
0.00000001
 40
0.0
 40
0.0
 40
0.0
 40
0.0
 40
0.4999999999999998
 40
0.4999999999999998
 40
0.7500000000000012
 40
0.7500000000000012
 40
0.8750000000000006
 40
0.8750000000000006
 40
1.0
 40
1.0
 40
1.0
 40
1.0
 10
158.1812281303725
 20
91.12342032794352
 30
0.0
 10
158.2284346182123
 20
91.12342032794352
 30
0.0
 10
158.2917746216417
 20
91.12342032794352
 30
0.0
 10
158.4348377278974
 20
91.12342032794352
 30
0.0
 10
158.4909183781685
 20
91.12342032794352
 30
0.0
 10
158.6023537280778
 20
91.12342032794352
 30
0.0
 10
158.6442985187508
 20
91.12342032794352
 30
0.0
 10
158.749294961771
 20
91.12342032794352
 30
0.0
 10
158.8148588988517
 20
91.12342032794352
 30
0.0
 10
158.8835533280402
 20
91.12342032794352
 30
0.0
  0
LINE
  5
1D4
330
1F
100
AcDbEntity
  8
0
  6
HIDDEN
 62
     7
370
     0
100
AcDbLine
 10
161.903553328
 20
144.643074179
 30
0.0
 11
161.903553328
 21
90.7190246996
 31
0.0
  0
SPLINE
  5
1D5
330
1F
100
AcDbEntity
  8
0
  6
HIDDEN
 62
     7
370
     0
100
AcDbSpline
210
0.0
220
0.0
230
1.0
 70
     8
 71
     3
 72
    10
 73
     6
 74
     0
 42
0.00000001
 43
0.00000001
 40
0.0
 40
0.0
 40
0.0
 40
0.0
 40
0.5
 40
0.5
 40
1.0
 40
1.0
 40
1.0
 40
1.0
 10
161.5092557963494
 20
143.9234203279436
 30
0.0
 10
161.6305683194472
 20
143.9980064742317
 30
0.0
 10
161.7319966816723
 20
144.1068307853832
 30
0.0
 10
161.8679402479324
 20
144.3578513040048
 30
0.0
 10
161.9035533280403
 20
144.5004339971441
 30
0.0
 10
161.9035533280403
 20
144.6430741789794
 30
0.0
  0
SPLINE
  5
1D6
330
1F
100
AcDbEntity
  8
0
  6
HIDDEN
 62
     7
370
     0
100
AcDbSpline
210
0.0
220
0.0
230
1.0
 70
     8
 71
     3
 72
    10
 73
     6
 74
     0
 42
0.00000001
 43
0.00000001
 40
0.0
 40
0.0
 40
0.0
 40
0.0
 40
0.5
 40
0.5
 40
1.0
 40
1.0
 40
1.0
 40
1.0
 10
161.805878525708
 20
91.12342032794353
 30
0.0
 10
161.83803371333
 20
91.0611342824274
 30
0.0
 10
161.8626899445243
 20
90.99460385755815
 30
0.0
 10
161.8955027014498
 20
90.85774522719565
 30
0.0
 10
161.9035533280404
 20
90.7886876320173
 30
0.0
 10
161.9035533280403
 20
90.71902469961397
 30
0.0
  0
SPLINE
  5
1D7
330
1F
100
AcDbEntity
  8
0
  6
HIDDEN
 62
     7
370
     0
100
AcDbSpline
210
0.0
220
0.0
230
1.0
 70
    24
 71
     3
 72
    12
 73
     8
 74
     0
 42
0.00000001
 43
0.00000001
 40
0.0
 40
0.0
 40
0.0
 40
0.0
 40
0.2500000000000008
 40
0.2500000000000008
 40
0.5000000000000017
 40
0.5000000000000017
 40
1.0
 40
1.0
 40
1.0
 40
1.0
 10
161.1035533280403
 20
143.9234203279436
 30
0.0
 10
161.1530884342583
 20
143.9234203279435
 30
0.0
 10
161.2014933228598
 20
143.9234203279436
 30
0.0
 10
161.2843798720375
 20
143.9234203279436
 30
0.0
 10
161.3208945935058
 20
143.9234203279435
 30
0.0
 10
161.4172274318605
 20
143.9234203279436
 30
0.0
 10
161.4659799795231
 20
143.9234203279436
 30
0.0
 10
161.5092557963538
 20
143.9234203279436
 30
0.0
  0
SPLINE
  5
1D8
330
1F
100
AcDbEntity
  8
0
  6
HIDDEN
 62
     7
370
     0
100
AcDbSpline
210
0.0
220
0.0
230
1.0
 70
    24
 71
     3
 72
    14
 73
    10
 74
     0
 42
0.00000001
 43
0.00000001
 40
0.0
 40
0.0
 40
0.0
 40
0.0
 40
0.1250000000000004
 40
0.1250000000000004
 40
0.2500000000000008
 40
0.2500000000000008
 40
0.5000000000000016
 40
0.5000000000000016
 40
1.0
 40
1.0
 40
1.0
 40
1.0
 10
161.1035533280404
 20
91.12342032794352
 30
0.0
 10
161.1726499603843
 20
91.12342032794352
 30
0.0
 10
161.2376431259923
 20
91.12342032794352
 30
0.0
 10
161.3419643246374
 20
91.12342032794352
 30
0.0
 10
161.3847446987459
 20
91.12342032794352
 30
0.0
 10
161.4970823583921
 20
91.12342032794352
 30
0.0
 10
161.5521295405345
 20
91.12342032794352
 30
0.0
 10
161.6960063143046
 20
91.12342032794352
 30
0.0
 10
161.7590356275797
 20
91.12342032794352
 30
0.0
 10
161.8058785257081
 20
91.12342032794352
 30
0.0
  0
LINE
  5
1D9
330
1F
100
AcDbEntity
  8
0
  6
HIDDEN
 62
     7
370
     0
100
AcDbLine
 10
158.883553328
 20
143.9234203279
 30
0.0
 11
161.103553328
 21
143.9234203279
 31
0.0
  0
LINE
  5
1DA
330
1F
100
AcDbEntity
  8
0
  6
HIDDEN
 62
     7
370
     0
100
AcDbLine
 10
158.883553328
 20
91.1234203279
 30
0.0
 11
161.103553328
 21
91.1234203279
 31
0.0
  0
SPLINE
  5
1DB
330
1F
100
AcDbEntity
  8
0
  6
HIDDEN
 62
     7
370
     0
100
AcDbSpline
210
0.0
220
0.0
230
1.0
 70
     8
 71
     3
 72
    12
 73
     8
 74
     0
 42
0.00000001
 43
0.00000001
 40
0.0
 40
0.0
 40
0.0
 40
0.0
 40
0.250000000000002
 40
0.250000000000002
 40
0.500000000000004
 40
0.500000000000004
 40
1.0
 40
1.0
 40
1.0
 40
1.0
 10
167.3435533280403
 20
147.9906158011078
 30
0.0
 10
167.4230462770886
 20
147.9906158011078
 30
0.0
 10
167.5041297784441
 20
147.973613051147
 30
0.0
 10
167.6505601755819
 20
147.9095525100353
 30
0.0
 10
167.7171087854557
 20
147.8623938943967
 30
0.0
 10
167.8813986594294
 20
147.6891718617045
 30
0.0
 10
167.9435533280405
 20
147.5290627714703
 30
0.0
 10
167.9435533280404
 20
147.3698606517069
 30
0.0
  0
SPLINE
  5
1DC
330
1F
100
AcDbEntity
  8
0
  6
HIDDEN
 62
     7
370
     0
100
AcDbSpline
210
0.0
220
0.0
230
1.0
 70
     8
 71
     3
 72
    12
 73
     8
 74
     0
 42
0.00000001
 43
0.00000001
 40
0.0
 40
0.0
 40
0.0
 40
0.0
 40
0.2500000000000019
 40
0.2500000000000019
 40
0.5000000000000039
 40
0.5000000000000039
 40
1.0
 40
1.0
 40
1.0
 40
1.0
 10
167.3435533280403
 20
87.33650263169642
 30
0.0
 10
167.4234343327875
 20
87.3365026316964
 30
0.0
 10
167.504028463058
 20
87.35361971796223
 30
0.0
 10
167.650643908903
 20
87.41835582943735
 30
0.0
 10
167.7171451016469
 20
87.46581307231769
 30
0.0
 10
167.8828800027842
 20
87.64263751485717
 30
0.0
 10
167.9435533280403
 20
87.80291402206288
 30
0.0
 10
167.9435533280404
 20
87.96314292735063
 30
0.0
  0
LINE
  5
1DD
330
1F
100
AcDbEntity
  8
0
  6
HIDDEN
 62
     7
370
     0
100
AcDbLine
 10
167.943553328
 20
147.3698606517
 30
0.0
 11
167.943553328
 21
87.9631429274
 31
0.0
  0
LINE
  5
1DE
330
1F
100
AcDbEntity
  8
0
  6
HIDDEN
 62
     7
370
     0
100
AcDbLine
 10
161.903553328
 20
144.643074179
 30
0.0
 11
161.903553328
 21
145.3286545191
 31
0.0
  0
SPLINE
  5
1DF
330
1F
100
AcDbEntity
  8
0
  6
HIDDEN
 62
     7
370
     0
100
AcDbSpline
210
0.0
220
0.0
230
1.0
 70
     8
 71
     3
 72
     8
 73
     4
 74
     0
 42
0.00000001
 43
0.00000001
 40
0.0
 40
0.0
 40
0.0
 40
0.0
 40
1.0
 40
1.0
 40
1.0
 40
1.0
 10
161.9035533280403
 20
145.3286545191152
 30
0.0
 10
162.3962634248861
 20
146.2166735172416
 30
0.0
 10
162.8903461301651
 20
147.1039361529276
 30
0.0
 10
163.3854861595294
 20
147.9906158011078
 30
0.0
  0
LINE
  5
1E0
330
1F
100
AcDbEntity
  8
0
  6
HIDDEN
 62
     7
370
     0
100
AcDbLine
 10
163.3854861595
 20
147.9906158011
 30
0.0
 11
167.343553328
 21
147.9906158011
 31
0.0
  0
LINE
  5
1E1
330
1F
100
AcDbEntity
  8
0
  6
HIDDEN
 62
     7
370
     0
100
AcDbLine
 10
161.5092557963
 20
143.9234203279
 30
0.0
 11
167.943553328
 21
143.9234203279
 31
0.0
  0
LINE
  5
1E2
330
1F
100
AcDbEntity
  8
0
  6
HIDDEN
 62
     7
370
     0
100
AcDbLine
 10
167.943553328
 20
147.3698606517
 30
0.0
 11
167.943553328
 21
143.9234203279
 31
0.0
  0
LINE
  5
1E3
330
1F
100
AcDbEntity
  8
0
  6
HIDDEN
 62
     7
370
     0
100
AcDbLine
 10
158.083553328
 20
145.3286545191
 30
0.0
 11
158.083553328
 21
144.643074179
 31
0.0
  0
SPLINE
  5
1E4
330
1F
100
AcDbEntity
  8
0
  6
HIDDEN
 62
     7
370
     0
100
AcDbSpline
210
0.0
220
0.0
230
1.0
 70
     8
 71
     3
 72
     8
 73
     4
 74
     0
 42
0.00000001
 43
0.00000001
 40
0.0
 40
0.0
 40
0.0
 40
0.0
 40
1.0
 40
1.0
 40
1.0
 40
1.0
 10
156.6016204965513
 20
147.9906158011078
 30
0.0
 10
157.0967605259156
 20
147.1039361529276
 30
0.0
 10
157.5908432311946
 20
146.2166735172416
 30
0.0
 10
158.0835533280403
 20
145.3286545191152
 30
0.0
  0
LINE
  5
1E5
330
1F
100
AcDbEntity
  8
0
  6
HIDDEN
 62
     7
370
     0
100
AcDbLine
 10
154.943553328
 20
143.9234203279
 30
0.0
 11
158.4778508597
 21
143.9234203279
 31
0.0
  0
LINE
  5
1E6
330
1F
100
AcDbEntity
  8
0
  6
HIDDEN
 62
     7
370
     0
100
AcDbLine
 10
163.3854861595
 20
147.9906158011
 30
0.0
 11
163.3854861595
 21
87.3365026317
 31
0.0
  0
LINE
  5
1E7
330
1F
100
AcDbEntity
  8
0
  6
HIDDEN
 62
     7
370
     0
100
AcDbLine
 10
158.083553328
 20
145.3286545191
 30
0.0
 11
158.083553328
 21
90.0255831689
 31
0.0
  0
LINE
  5
1E8
330
1F
100
AcDbEntity
  8
0
  6
HIDDEN
 62
     7
370
     0
100
AcDbLine
 10
161.903553328
 20
145.3286545191
 30
0.0
 11
161.903553328
 21
90.0255831689
 31
0.0
  0
SPLINE
  5
1E9
330
1F
100
AcDbEntity
  8
0
  6
HIDDEN
 62
     7
370
     0
100
AcDbSpline
210
0.0
220
0.0
230
1.0
 70
     8
 71
     3
 72
    35
 73
    31
 74
     0
 42
0.00000001
 43
0.00000001
 40
0.0
 40
0.0
 40
0.0
 40
0.0
 40
0.0248819589846161
 40
0.0497566636395053
 40
0.074637053895363
 40
0.099536060818518
 40
0.124466586506816
 40
0.1494414842101166
 40
0.1744735388270607
 40
0.1995754479230006
 40
0.2247598034048461
 40
0.2500390739772136
 40
0.2754255884911413
 40
0.3009315202820143
 40
0.3265688725777436
 40
0.3523494650420363
 40
0.3782849215011846
 40
0.4043866588866305
 40
0.4306658774098864
 40
0.4571335519716458
 40
0.4838004247932059
 40
0.5402795702152815
 40
0.5967523175564444
 40
0.6533167329821712
 40
0.7100704074728558
 40
0.7671099605871605
 40
0.8245305687893517
 40
0.8824255292667893
 40
0.9408858681864667
 40
1.0
 40
1.0
 40
1.0
 40
1.0
 10
280.4006243836777
 20
93.50269355911496
 30
0.0
 10
280.3753470427507
 20
93.5638165240219
 30
0.0
 10
280.3247997304998
 20
93.68604463344866
 30
0.0
 10
280.2454960457583
 20
93.8805272408212
 30
0.0
 10
280.163676187886
 20
94.08308526990625
 30
0.0
 10
280.079087789233
 20
94.29452394580952
 30
0.0
 10
279.9917986113315
 20
94.51462712192395
 30
0.0
 10
279.901790580888
 20
94.74345250597732
 30
0.0
 10
279.8090686670339
 20
94.98098428716938
 30
0.0
 10
279.7136316567316
 20
95.22722637671014
 30
0.0
 10
279.6154800034847
 20
95.48217736618741
 30
0.0
 10
279.5146137160124
 20
95.74583726341784
 30
0.0
 10
279.4110329249409
 20
96.01820568420865
 30
0.0
 10
279.3047377283843
 20
96.29928234466645
 30
0.0
 10
279.1957282339531
 20
96.58906692764266
 30
0.0
 10
279.0840045396319
 20
96.88755914135984
 30
0.0
 10
278.9695667624085
 20
97.19475863668833
 30
0.0
 10
278.8524149367672
 20
97.51066529846557
 30
0.0
 10
278.7325493906948
 20
97.83527816862738
 30
0.0
 10
278.6099693254291
 20
98.1685995149435
 30
0.0
 10
278.4383228616103
 20
98.63716028080192
 30
0.0
 10
278.215015568195
 20
99.25023887808352
 30
0.0
 10
277.9366671156289
 20
100.020092733801
 30
0.0
 10
277.6511182870976
 20
100.8153769165764
 30
0.0
 10
277.3583759865298
 20
101.6360702247482
 30
0.0
 10
277.0584373067383
 20
102.482188338794
 30
0.0
 10
276.7513241038466
 20
103.3536394585699
 30
0.0
 10
276.4369679406628
 20
104.2507283107839
 30
0.0
 10
276.1156403654262
 20
105.1722633754606
 30
0.0
 10
275.8974150539079
 20
105.8020976655443
 30
0.0
 10
275.7876956586201
 20
106.1187659610723
 30
0.0
  0
LWPOLYLINE
  5
1EA
330
1F
100
AcDbEntity
  8
0
  6
HIDDEN
 62
     7
370
     0
100
AcDbPolyline
 90
       12
 70
   128
 43
0.0
 10
270.2296516596
 20
110.6734270683
 10
270.3176671965
 20
110.1921019693
 10
270.2124592274
 20
109.6698912595
 10
269.9225510762
 20
109.1491013448
 10
269.4714293771
 20
108.6719235269
 10
268.8956413275
 20
108.2770159147
 10
268.2418338506
 20
107.9963715743
 10
267.5629745399
 20
107.8527266412
 10
266.9140605394
 20
107.8577183734
 10
266.3476630022
 20
108.0109423707
 10
265.9096680883
 20
108.2999853359
 10
265.6355595408
 20
108.701430727
  0
ELLIPSE
  5
1EB
330
1F
100
AcDbEntity
  8
0
  6
HIDDEN
 62
     7
370
     0
100
AcDbEllipse
 10
269.5510923821
 20
106.0551294372
 30
0.0
 11
-1.122325157916009
 21
2.710728823706773
 31
0.0
210
0.0
220
0.0
230
1.0
 40
0.8519992546
 41
2.057937285876174
 42
4.247261656419335
  0
SPLINE
  5
1EC
330
1F
100
AcDbEntity
  8
0
  6
HIDDEN
 62
     7
370
     0
100
AcDbSpline
210
0.0
220
0.0
230
1.0
 70
     8
 71
     3
 72
    26
 73
    22
 74
     0
 42
0.00000001
 43
0.00000001
 40
0.0
 40
0.0
 40
0.0
 40
0.0
 40
0.2500000000000027
 40
0.2500000000000027
 40
0.3750000000000019
 40
0.3750000000000019
 40
0.4375000000000029
 40
0.4375000000000029
 40
0.4687500000000028
 40
0.4687500000000028
 40
0.5000000000000028
 40
0.5000000000000028
 40
0.5312500000000028
 40
0.5312500000000028
 40
0.5625000000000028
 40
0.5625000000000028
 40
0.625000000000002
 40
0.625000000000002
 40
0.7500000000000004
 40
0.7500000000000004
 40
1.0
 40
1.0
 40
1.0
 40
1.0
 10
110.9177069741448
 20
137.9135396615414
 30
0.0
 10
110.8791064512763
 20
137.7957649651859
 30
0.0
 10
110.8328094487221
 20
137.671375279024
 30
0.0
 10
110.7388701002881
 20
137.4661559466705
 30
0.0
 10
110.7035586333747
 20
137.394583080224
 30
0.0
 10
110.637378657629
 20
137.2786298476236
 30
0.0
 10
110.6128402909608
 20
137.2380453128133
 30
0.0
 10
110.5694675454069
 20
137.1739036309416
 30
0.0
 10
110.5539591439818
 20
137.1520372056565
 30
0.0
 10
110.5189164993947
 20
137.1064429373133
 30
0.0
 10
110.4993662086749
 20
137.0827726463459
 30
0.0
 10
110.4574389283043
 20
137.0381560870059
 30
0.0
 10
110.4347868180727
 20
137.0172760744881
 30
0.0
 10
110.393813103986
 20
136.9864026607372
 30
0.0
 10
110.3762138040906
 20
136.9765637909048
 30
0.0
 10
110.3315868182345
 20
136.9575741752087
 30
0.0
 10
110.3110275955812
 20
136.9572498505553
 30
0.0
 10
110.2599021560845
 20
136.9664732914315
 30
0.0
 10
110.238990743096
 20
136.9877201876485
 30
0.0
 10
110.1875408355351
 20
137.0616890664793
 30
0.0
 10
110.1698755362305
 20
137.127807159794
 30
0.0
 10
110.1562167027637
 20
137.1979728727243
 30
0.0
  0
SPLINE
  5
1ED
330
1F
100
AcDbEntity
  8
0
  6
HIDDEN
 62
     7
370
     0
100
AcDbSpline
210
0.0
220
0.0
230
1.0
 70
     8
 71
     3
 72
    26
 73
    22
 74
     0
 42
0.00000001
 43
0.00000001
 40
0.0
 40
0.0
 40
0.0
 40
0.0
 40
0.2499999999999912
 40
0.2499999999999912
 40
0.3749999999999856
 40
0.3749999999999856
 40
0.4374999999999816
 40
0.4374999999999816
 40
0.4687499999999808
 40
0.4687499999999808
 40
0.49999999999998
 40
0.49999999999998
 40
0.5312499999999791
 40
0.5312499999999791
 40
0.5624999999999784
 40
0.5624999999999784
 40
0.6249999999999816
 40
0.6249999999999816
 40
0.7499999999999871
 40
0.7499999999999871
 40
1.0
 40
1.0
 40
1.0
 40
1.0
 10
110.1238309436489
 20
97.9333327677167
 30
0.0
 10
110.1345549770415
 20
98.0362938082057
 30
0.0
 10
110.149287967636
 20
98.13529249768675
 30
0.0
 10
110.201641526883
 20
98.25388817775188
 30
0.0
 10
110.2233468096026
 20
98.28959847770066
 30
0.0
 10
110.282202316968
 20
98.31457791052242
 30
0.0
 10
110.3056645508151
 20
98.318963358286
 30
0.0
 10
110.3617859274757
 20
98.2992105248419
 30
0.0
 10
110.3845732376064
 20
98.28755413403148
 30
0.0
 10
110.4398257901376
 20
98.24577378459426
 30
0.0
 10
110.4712320228784
 20
98.21550219721826
 30
0.0
 10
110.5261658434989
 20
98.15385979830427
 30
0.0
 10
110.5505896616984
 20
98.12241814599743
 30
0.0
 10
110.5940047676856
 20
98.06268330858366
 30
0.0
 10
110.6135793302539
 20
98.033518298711
 30
0.0
 10
110.6672120142019
 20
97.94968302297794
 30
0.0
 10
110.6969893622541
 20
97.8976504050017
 30
0.0
 10
110.7785234222269
 20
97.74658473103435
 30
0.0
 10
110.8217662169009
 20
97.6533936891636
 30
0.0
 10
110.9348208065556
 20
97.3890071501692
 30
0.0
 10
110.9888318040348
 20
97.23004898111937
 30
0.0
 10
111.0324628982388
 20
97.0794980249785
 30
0.0
  0
LINE
  5
1EE
330
1F
100
AcDbEntity
  8
0
  6
HIDDEN
 62
     7
370
     0
100
AcDbLine
 10
110.093553328
 20
137.2140980744
 30
0.0
 11
110.093553328
 21
97.870259803
 31
0.0
  0
LINE
  5
1EF
330
1F
100
AcDbEntity
  8
0
  6
HIDDEN
 62
     7
370
     0
100
AcDbLine
 10
161.903553328
 20
90.7190246996
 30
0.0
 11
161.903553328
 21
90.0255831689
 31
0.0
  0
SPLINE
  5
1F0
330
1F
100
AcDbEntity
  8
0
  6
HIDDEN
 62
     7
370
     0
100
AcDbSpline
210
0.0
220
0.0
230
1.0
 70
     8
 71
     3
 72
     8
 73
     4
 74
     0
 42
0.00000001
 43
0.00000001
 40
0.0
 40
0.0
 40
0.0
 40
0.0
 40
1.0
 40
1.0
 40
1.0
 40
1.0
 10
161.9035533280403
 20
90.02558316888867
 30
0.0
 10
162.3958924508215
 20
89.12831313468197
 30
0.0
 10
162.8900064988636
 20
88.23202871962974
 30
0.0
 10
163.3854861595294
 20
87.33650263169639
 30
0.0
  0
LINE
  5
1F1
330
1F
100
AcDbEntity
  8
0
  6
HIDDEN
 62
     7
370
     0
100
AcDbLine
 10
163.3854861595
 20
87.3365026317
 30
0.0
 11
167.343553328
 21
87.3365026317
 31
0.0
  0
LINE
  5
1F2
330
1F
100
AcDbEntity
  8
0
  6
HIDDEN
 62
     7
370
     0
100
AcDbLine
 10
161.8058785257
 20
91.1234203279
 30
0.0
 11
167.943553328
 21
91.1234203279
 31
0.0
  0
LINE
  5
1F3
330
1F
100
AcDbEntity
  8
0
  6
HIDDEN
 62
     7
370
     0
100
AcDbLine
 10
167.943553328
 20
87.9631429274
 30
0.0
 11
167.943553328
 21
91.1234203279
 31
0.0
  0
LINE
  5
1F4
330
1F
100
AcDbEntity
  8
0
  6
HIDDEN
 62
     7
370
     0
100
AcDbLine
 10
158.083553328
 20
90.0255831689
 30
0.0
 11
158.083553328
 21
90.7190246996
 31
0.0
  0
SPLINE
  5
1F5
330
1F
100
AcDbEntity
  8
0
  6
HIDDEN
 62
     7
370
     0
100
AcDbSpline
210
0.0
220
0.0
230
1.0
 70
     8
 71
     3
 72
     8
 73
     4
 74
     0
 42
0.00000001
 43
0.00000001
 40
0.0
 40
0.0
 40
0.0
 40
0.0
 40
1.0
 40
1.0
 40
1.0
 40
1.0
 10
156.6016204965513
 20
87.33650263169638
 30
0.0
 10
157.097100157217
 20
88.23202871962972
 30
0.0
 10
157.5912142052591
 20
89.12831313468197
 30
0.0
 10
158.0835533280403
 20
90.02558316888866
 30
0.0
  0
LINE
  5
1F6
330
1F
100
AcDbEntity
  8
0
  6
HIDDEN
 62
     7
370
     0
100
AcDbLine
 10
154.943553328
 20
91.1234203279
 30
0.0
 11
158.1812281304
 21
91.1234203279
 31
0.0
  0
LINE
  5
1F7
330
1F
100
AcDbEntity
  8
0
  6
HIDDEN
 62
     7
370
     0
100
AcDbLine
 10
263.9245170422
 20
112.872536406
 30
0.0
 11
265.6355595408
 21
108.701430727
 31
0.0
  0
LWPOLYLINE
  5
1F8
330
1F
100
AcDbEntity
  8
0
  6
HIDDEN
 62
     7
370
     0
100
AcDbPolyline
 90
       23
 70
   128
 43
0.0
 10
239.993553328
 20
120.4499529993
 10
240.6978847201
 20
120.5438466515
 10
241.3451553717
 20
120.8179209027
 10
241.8829272639
 20
121.249971887
 10
242.2676333164
 20
121.8049974033
 10
242.4681069327
 20
122.438032585
 10
242.4681069327
 20
123.0977926865
 10
242.2676333164
 20
123.7308278683
 10
241.8829272639
 20
124.2858533845
 10
241.3451553717
 20
124.7179043689
 10
240.6978847201
 20
124.99197862
 10
239.993553328
 20
125.0858722722
 10
239.2892219359
 20
124.99197862
 10
238.6419512844
 20
124.7179043689
 10
238.1041793922
 20
124.2858533845
 10
237.7194733397
 20
123.7308278683
 10
237.5189997233
 20
123.0977926865
 10
237.5189997233
 20
122.438032585
 10
237.7194733397
 20
121.8049974033
 10
238.1041793922
 20
121.249971887
 10
238.6419512844
 20
120.8179209027
 10
239.2892219359
 20
120.5438466515
 10
239.993553328
 20
120.4499529993
  0
LINE
  5
1F9
330
1F
100
AcDbEntity
  8
0
  6
HIDDEN
 62
     7
370
     0
100
AcDbLine
 10
275.7887629902
 20
106.125519617
 30
0.0
 11
275.6433526858
 21
105.3076211809
 31
0.0
  0
LINE
  5
1FA
330
1F
100
AcDbEntity
  8
0
  6
HIDDEN
 62
     7
370
     0
100
AcDbLine
 10
275.7876956584
 20
106.118765961
 30
0.0
 11
272.0018071107
 21
117.5234203279
 31
0.0
  0
CIRCLE
  5
1FB
330
1F
100
AcDbEntity
  8
0
  6
HIDDEN
 62
     7
370
     0
100
AcDbCircle
 10
148.993553328
 20
117.5234203279
 30
0.0
 40
5.000000000000014
  0
LINE
  5
1FC
330
1F
100
AcDbEntity
  8
0
  6
HIDDEN
 62
     7
370
     0
100
AcDbLine
 10
141.993553328
 20
92.1994964068
 30
0.0
 11
142.0877141693
 21
92.8694856056
 31
0.0
  0
LINE
  5
1FD
330
1F
100
AcDbEntity
  8
0
  6
HIDDEN
 62
     7
370
     0
100
AcDbLine
 10
142.0877141693
 20
142.1773550502
 30
0.0
 11
141.993553328
 21
142.8473442491
 31
0.0
  0
ARC
  5
1FE
330
1F
100
AcDbEntity
  8
0
  6
HIDDEN
 62
     7
370
     0
100
AcDbCircle
 10
141.493553328
 20
92.9529894662
 30
0.0
 40
0.6000000000000093
100
AcDbArc
 50
352.0
 51
0.0
  0
ARC
  5
1FF
330
1F
100
AcDbEntity
  8
0
  6
HIDDEN
 62
     7
370
     0
100
AcDbCircle
 10
141.493553328
 20
92.9529894662
 30
0.0
 40
0.6000000000000099
100
AcDbArc
 50
0.0
 51
33.5573097619
  0
ARC
  5
200
330
1F
100
AcDbEntity
  8
0
  6
HIDDEN
 62
     7
370
     0
100
AcDbCircle
 10
141.493553328
 20
142.0938511897
 30
0.0
 40
0.6000000000000133
100
AcDbArc
 50
348.75
 51
8.0
  0
LWPOLYLINE
  5
201
330
1F
100
AcDbEntity
  8
0
  6
HIDDEN
 62
     7
370
     0
100
AcDbPolyline
 90
        3
 70
   128
 43
0.0
 10
142.0820244963
 20
141.9767969965
 10
142.0478810475
 20
141.8642411302
 10
141.993553328
 20
141.7621887106
  0
LINE
  5
202
330
1F
100
AcDbEntity
  8
0
  6
HIDDEN
 62
     7
370
     0
100
AcDbLine
 10
142.093553328
 20
92.9529894662
 30
0.0
 11
142.093553328
 21
142.0938511897
 31
0.0
  0
LINE
  5
203
330
1F
100
AcDbEntity
  8
0
  6
HIDDEN
 62
     7
370
     0
100
AcDbLine
 10
142.093553328
 20
92.9529894662
 30
0.0
 11
142.093553328
 21
142.0938511897
 31
0.0
  0
ARC
  5
204
330
1F
100
AcDbEntity
  8
0
  6
HIDDEN
 62
     7
370
     0
100
AcDbCircle
 10
135.7485553296
 20
105.5234203279
 30
0.0
 40
8.0
100
AcDbArc
 50
277.1319372639
 51
321.3178125465
  0
ARC
  5
205
330
1F
100
AcDbEntity
  8
0
  6
HIDDEN
 62
     7
370
     0
100
AcDbCircle
 10
135.7485553296
 20
129.5234203279
 30
0.0
 40
7.999999999999997
100
AcDbArc
 50
38.6821874535
 51
82.9526981145
  0
LINE
  5
206
330
1F
100
AcDbEntity
  8
0
  6
HIDDEN
 62
     7
370
     0
100
AcDbLine
 10
125.0759888933
 20
97.5234203279
 30
0.0
 11
129.2535757872
 21
97.5234203279
 31
0.0
  0
LINE
  5
207
330
1F
100
AcDbEntity
  8
0
  6
HIDDEN
 62
     7
370
     0
100
AcDbLine
 10
129.2466707092
 20
137.5234203279
 30
0.0
 11
125.0759888933
 21
137.5234203279
 31
0.0
  0
ARC
  5
208
330
1F
100
AcDbEntity
  8
0
  6
HIDDEN
 62
     7
370
     0
100
AcDbCircle
 10
125.0759888933
 20
98.1234203279
 30
0.0
 40
0.6000000000000103
100
AcDbArc
 50
210.0
 51
270.0
  0
ARC
  5
209
330
1F
100
AcDbEntity
  8
0
  6
HIDDEN
 62
     7
370
     0
100
AcDbCircle
 10
125.0759888933
 20
136.9234203279
 30
0.0
 40
0.6000000000000175
100
AcDbArc
 50
90.0
 51
150.0
  0
LINE
  5
20A
330
1F
100
AcDbEntity
  8
0
  6
HIDDEN
 62
     7
370
     0
100
AcDbLine
 10
124.5563736511
 20
137.2234203279
 30
0.0
 11
122.9975279243
 21
134.5234203279
 31
0.0
  0
LINE
  5
20B
330
1F
100
AcDbEntity
  8
0
  6
HIDDEN
 62
     7
370
     0
100
AcDbLine
 10
122.9975279243
 20
100.5234203279
 30
0.0
 11
124.5563736511
 21
97.8234203279
 31
0.0
  0
ARC
  5
20C
330
1F
100
AcDbEntity
  8
0
  6
HIDDEN
 62
     7
370
     0
100
AcDbCircle
 10
150.443553328
 20
101.7984203279
 30
0.0
 40
1.5
100
AcDbArc
 50
238.2116693829
 51
0.0
  0
ARC
  5
20D
330
1F
100
AcDbEntity
  8
0
  6
HIDDEN
 62
     7
370
     0
100
AcDbCircle
 10
150.443553328
 20
133.2484203279
 30
0.0
 40
1.500000000000025
100
AcDbArc
 50
0.0
 51
121.7883306171
  0
LINE
  5
20E
330
1F
100
AcDbEntity
  8
0
  6
HIDDEN
 62
     7
370
     0
100
AcDbLine
 10
141.993553328
 20
100.5234203279
 30
0.0
 11
149.6533792966
 21
100.5234203279
 31
0.0
  0
LINE
  5
20F
330
1F
100
AcDbEntity
  8
0
  6
HIDDEN
 62
     7
370
     0
100
AcDbLine
 10
149.6533792966
 20
134.5234203279
 30
0.0
 11
141.993553328
 21
134.5234203279
 31
0.0
  0
LINE
  5
210
330
1F
100
AcDbEntity
  8
0
  6
HIDDEN
 62
     7
370
     0
100
AcDbLine
 10
120.193553328
 20
100.5234203279
 30
0.0
 11
122.9975279243
 21
100.5234203279
 31
0.0
  0
LINE
  5
211
330
1F
100
AcDbEntity
  8
0
  6
HIDDEN
 62
     7
370
     0
100
AcDbLine
 10
122.9975279243
 20
134.5234203279
 30
0.0
 11
116.193553328
 21
134.5234203279
 31
0.0
  0
LINE
  5
212
330
1F
100
AcDbEntity
  8
0
  6
HIDDEN
 62
     7
370
     0
100
AcDbLine
 10
242.093553328
 20
113.0769149024
 30
0.0
 11
242.093553328
 21
115.9506779035
 31
0.0
  0
LINE
  5
213
330
1F
100
AcDbEntity
  8
0
  6
HIDDEN
 62
     7
370
     0
100
AcDbLine
 10
242.093553328
 20
111.1551082399
 30
0.0
 11
242.093553328
 21
111.7422547814
 31
0.0
  0
LINE
  5
214
330
1F
100
AcDbEntity
  8
0
  6
HIDDEN
 62
     7
370
     0
100
AcDbLine
 10
237.893553328
 20
115.951359311
 30
0.0
 11
237.893553328
 21
111.1551082399
 31
0.0
  0
LINE
  5
215
330
1F
100
AcDbEntity
  8
0
  6
HIDDEN
 62
     7
370
     0
100
AcDbLine
 10
239.4617371
 20
110.2410529765
 30
0.0
 11
248.0286547484
 21
105.6960595447
 31
0.0
  0
LINE
  5
216
330
1F
100
AcDbEntity
  8
0
  6
HIDDEN
 62
     7
370
     0
100
AcDbLine
 10
248.2101570551
 20
110.3542349777
 30
0.0
 11
241.668619698
 21
113.8247065687
 31
0.0
  0
LINE
  5
217
330
1F
100
AcDbEntity
  8
0
  6
HIDDEN
 62
     7
370
     0
100
AcDbLine
 10
161.293553328
 20
108.0234203279
 30
0.0
 11
163.793553328
 21
108.0234203279
 31
0.0
  0
LINE
  5
218
330
1F
100
AcDbEntity
  8
0
  6
HIDDEN
 62
     7
370
     0
100
AcDbLine
 10
163.793553328
 20
127.0234203279
 30
0.0
 11
161.293553328
 21
127.0234203279
 31
0.0
  0
LINE
  5
219
330
1F
100
AcDbEntity
  8
0
  6
HIDDEN
 62
     7
370
     0
100
AcDbLine
 10
151.943553328
 20
108.5234203279
 30
0.0
 11
152.443553328
 21
109.0234203279
 31
0.0
  0
LINE
  5
21A
330
1F
100
AcDbEntity
  8
0
  6
HIDDEN
 62
     7
370
     0
100
AcDbLine
 10
152.443553328
 20
126.0234203279
 30
0.0
 11
151.943553328
 21
126.5234203279
 31
0.0
  0
LINE
  5
21B
330
1F
100
AcDbEntity
  8
0
  6
HIDDEN
 62
     7
370
     0
100
AcDbLine
 10
152.443553328
 20
109.0234203279
 30
0.0
 11
161.293553328
 21
109.0234203279
 31
0.0
  0
LINE
  5
21C
330
1F
100
AcDbEntity
  8
0
  6
HIDDEN
 62
     7
370
     0
100
AcDbLine
 10
161.293553328
 20
126.0234203279
 30
0.0
 11
152.443553328
 21
126.0234203279
 31
0.0
  0
LINE
  5
21D
330
1F
100
AcDbEntity
  8
0
  6
HIDDEN
 62
     7
370
     0
100
AcDbLine
 10
146.943553328
 20
149.0234203279
 30
0.0
 11
146.943553328
 21
143.9234203279
 31
0.0
  0
LINE
  5
21E
330
1F
100
AcDbEntity
  8
0
  6
HIDDEN
 62
     7
370
     0
100
AcDbLine
 10
262.9632653841
 20
113.0270036939
 30
0.0
 11
263.4419427744
 21
112.0801091627
 31
0.0
  0
LINE
  5
21F
330
1F
100
AcDbEntity
  8
0
  6
HIDDEN
 62
     7
370
     0
100
AcDbLine
 10
269.689069979
 20
115.2381784606
 30
0.0
 11
269.2103925887
 21
116.1850729918
 31
0.0
  0
LINE
  5
220
330
1F
100
AcDbEntity
  8
0
  6
HIDDEN
 62
     7
370
     0
100
AcDbLine
 10
259.174466805
 20
108.033090316
 30
0.0
 11
260.1382192363
 21
106.1266457563
 31
0.0
  0
LINE
  5
221
330
1F
100
AcDbEntity
  8
0
  6
HIDDEN
 62
     7
370
     0
100
AcDbLine
 10
255.8129814188
 20
98.4122946615
 30
0.0
 11
256.8035398881
 21
98.6536403408
 31
0.0
  0
LINE
  5
222
330
1F
100
AcDbEntity
  8
0
  6
HIDDEN
 62
     7
370
     0
100
AcDbLine
 10
137.1779911585
 20
93.4440489944
 30
0.0
 11
136.743559009
 21
93.9231150135
 31
0.0
  0
LINE
  5
223
330
1F
100
AcDbEntity
  8
0
  6
HIDDEN
 62
     7
370
     0
100
AcDbLine
 10
129.2435556839
 20
94.3448029726
 30
0.0
 11
128.7611219406
 21
93.8657369972
 31
0.0
  0
LINE
  5
224
330
1F
100
AcDbEntity
  8
0
  6
HIDDEN
 62
     7
370
     0
100
AcDbLine
 10
128.7610000124
 20
141.1810983683
 30
0.0
 11
129.2435507633
 21
140.7019781104
 31
0.0
  0
LINE
  5
225
330
1F
100
AcDbEntity
  8
0
  6
HIDDEN
 62
     7
370
     0
100
AcDbLine
 10
136.74355321
 20
141.123675888
 30
0.0
 11
137.1780956004
 21
141.6027961386
 31
0.0
  0
LINE
  5
226
330
1F
100
AcDbEntity
  8
0
  6
HIDDEN
 62
     7
370
     0
100
AcDbLine
 10
163.793553328
 20
113.3234203279
 30
0.0
 11
243.093553328
 21
113.3234203279
 31
0.0
  0
LINE
  5
227
330
1F
100
AcDbEntity
  8
0
  6
HIDDEN
 62
     7
370
     0
100
AcDbLine
 10
243.093553328
 20
121.7234203279
 30
0.0
 11
163.793553328
 21
121.7234203279
 31
0.0
  0
LINE
  5
228
330
1F
100
AcDbEntity
  8
0
  6
HIDDEN
 62
     7
370
     0
100
AcDbLine
 10
243.093553328
 20
113.3234203279
 30
0.0
 11
245.617167928
 21
117.5234203279
 31
0.0
  0
LINE
  5
229
330
1F
100
AcDbEntity
  8
0
  6
HIDDEN
 62
     7
370
     0
100
AcDbLine
 10
245.617167928
 20
117.5234203279
 30
0.0
 11
243.093553328
 21
121.7234203279
 31
0.0
  0
LINE
  5
22A
330
1F
100
AcDbEntity
  8
0
  6
HIDDEN
 62
     7
370
     0
100
AcDbLine
 10
272.1968205814
 20
106.7075417646
 30
0.0
 11
268.9682111103
 21
113.953369516
 31
0.0
  0
LINE
  5
22B
330
1F
100
AcDbEntity
  8
0
  6
HIDDEN
 62
     7
370
     0
100
AcDbLine
 10
136.743553328
 20
93.9235989152
 30
0.0
 11
136.743553328
 21
97.5855841373
 31
0.0
  0
LINE
  5
22C
330
1F
100
AcDbEntity
  8
0
  6
HIDDEN
 62
     7
370
     0
100
AcDbLine
 10
129.243553328
 20
97.5252918752
 30
0.0
 11
129.243553328
 21
94.3451262104
 31
0.0
  0
LINE
  5
22D
330
1F
100
AcDbEntity
  8
0
  6
HIDDEN
 62
     7
370
     0
100
AcDbLine
 10
136.743553328
 20
137.460493154
 30
0.0
 11
136.743553328
 21
141.1231224664
 31
0.0
  0
LINE
  5
22E
330
1F
100
AcDbEntity
  8
0
  6
HIDDEN
 62
     7
370
     0
100
AcDbLine
 10
129.243553328
 20
140.7017229191
 30
0.0
 11
129.243553328
 21
137.5228360667
 31
0.0
  0
LINE
  5
22F
330
1F
100
AcDbEntity
  8
0
  6
HIDDEN
 62
     7
370
     0
100
AcDbLine
 10
259.959137829
 20
117.4180305104
 30
0.0
 11
262.2945877376
 21
112.798165877
 31
0.0
  0
LINE
  5
230
330
1F
100
AcDbEntity
  8
0
  6
HIDDEN
 62
     7
370
     0
100
AcDbLine
 10
269.7911403831
 20
116.5878490345
 30
0.0
 11
267.4728410795
 21
121.1737872396
 31
0.0
  0
LINE
  5
231
330
1F
100
AcDbEntity
  8
0
  6
HIDDEN
 62
     7
370
     0
100
AcDbLine
 10
242.093553328
 20
119.0936423114
 30
0.0
 11
242.093553328
 21
122.6778780959
 31
0.0
  0
LINE
  5
232
330
1F
100
AcDbEntity
  8
0
  6
HIDDEN
 62
     7
370
     0
100
AcDbLine
 10
237.893553328
 20
122.6778780959
 30
0.0
 11
237.893553328
 21
119.0917110113
 31
0.0
  0
ARC
  5
233
330
1F
100
AcDbEntity
  8
0
  6
HIDDEN
 62
     7
370
     0
100
AcDbCircle
 10
118.793553328
 20
95.3109203279
 30
0.0
 40
1.400000000000006
100
AcDbArc
 50
37.6443616934
 51
90.0
  0
ARC
  5
234
330
1F
100
AcDbEntity
  8
0
  6
HIDDEN
 62
     7
370
     0
100
AcDbCircle
 10
114.793553328
 20
139.7934203279
 30
0.0
 40
1.400000000000008
100
AcDbArc
 50
270.0
 51
301.7485287426
  0
LINE
  5
235
330
1F
100
AcDbEntity
  8
0
  6
HIDDEN
 62
     7
370
     0
100
AcDbLine
 10
274.3947415433
 20
103.0414457906
 30
0.0
 11
273.809382149
 21
104.199373072
 31
0.0
  0
LINE
  5
236
330
1F
100
AcDbEntity
  8
0
  6
HIDDEN
 62
     7
370
     0
100
AcDbLine
 10
268.0977229906
 20
101.3119954282
 30
0.0
 11
268.6830823849
 21
100.1540681468
 31
0.0
  0
LINE
  5
237
330
1F
100
AcDbEntity
  8
0
  6
HIDDEN
 62
     7
370
     0
100
AcDbLine
 10
110.0955021719
 20
97.8589714841
 30
0.0
 11
111.243553328
 21
96.7109203279
 31
0.0
  0
LINE
  5
238
330
1F
100
AcDbEntity
  8
0
  6
HIDDEN
 62
     7
370
     0
100
AcDbLine
 10
111.243553328
 20
96.7109203279
 30
0.0
 11
118.793553328
 21
96.7109203279
 31
0.0
  0
LINE
  5
239
330
1F
100
AcDbEntity
  8
0
  6
HIDDEN
 62
     7
370
     0
100
AcDbLine
 10
114.793553328
 20
138.3934203279
 30
0.0
 11
111.3844417295
 21
138.3934203279
 31
0.0
  0
LINE
  5
23A
330
1F
100
AcDbEntity
  8
0
  6
HIDDEN
 62
     7
370
     0
100
AcDbLine
 10
111.2347167862
 20
138.3845837861
 30
0.0
 11
110.1047209472
 21
137.2545879471
 31
0.0
  0
LINE
  5
23B
330
1F
100
AcDbEntity
  8
0
  6
HIDDEN
 62
     7
370
     0
100
AcDbLine
 10
265.6490417348
 20
108.6699142428
 30
0.0
 11
268.1603139217
 21
103.0339753454
 31
0.0
  0
LINE
  5
23C
330
1F
100
AcDbEntity
  8
0
  6
HIDDEN
 62
     7
370
     0
100
AcDbLine
 10
242.493553328
 20
122.7679126358
 30
0.0
 11
242.493553328
 21
125.0155377746
 31
0.0
  0
LINE
  5
23D
330
1F
100
AcDbEntity
  8
0
  6
HIDDEN
 62
     7
370
     0
100
AcDbLine
 10
237.493553328
 20
125.015168594
 30
0.0
 11
237.493553328
 21
122.7679126358
 31
0.0
  0
LINE
  5
23E
330
1F
100
AcDbEntity
  8
VERMASSUNG
100
AcDbLine
 10
281.993553328
 20
117.5234203279
 30
0.0
 11
281.993553328
 21
90.5234203279
 31
0.0
  0
DIMENSION
  5
23F
330
1F
100
AcDbEntity
  8
VERMASSUNG
100
AcDbDimension
  2
*D1
 10
286.9958171342
 20
117.5234203279
 30
0.0
 11
286.9958171342
 21
104.0234203279
 31
0.0
 70
   160
 71
     2
 42
-1.0
  3
SLDDIMSTYLE0
100
AcDbAlignedDimension
 13
281.993553328
 23
90.5234203279
 33
0.0
 14
275.9709669029
 24
117.5234203279
 34
0.0
 50
90.0
100
AcDbRotatedDimension
  0
DIMENSION
  5
24A
330
1F
100
AcDbEntity
  8
VERMASSUNG
100
AcDbDimension
  2
*D2
 10
281.993553328
 20
153.867578479
 30
0.0
 11
211.993553328
 21
153.867578479
 31
0.0
 70
   160
 71
     2
 42
-1.0
  3
SLDDIMSTYLE0
100
AcDbAlignedDimension
 13
141.993553328
 23
148.7234203279
 33
0.0
 14
281.993553328
 24
117.5234203279
 34
0.0
100
AcDbRotatedDimension
  0
DIMENSION
  5
254
330
1F
100
AcDbEntity
  8
VERMASSUNG
100
AcDbDimension
  2
*D3
 10
281.993553328
 20
159.867578479
 30
0.0
 11
196.043553328
 21
159.867578479
 31
0.0
 70
   160
 71
     2
 42
-1.0
  3
SLDDIMSTYLE0
100
AcDbAlignedDimension
 13
110.093553328
 23
137.2140980744
 33
0.0
 14
281.993553328
 24
117.5234203279
 34
0.0
 50
0.0
100
AcDbRotatedDimension
  0
DIMENSION
  5
25E
330
1F
100
AcDbEntity
  8
VERMASSUNG
100
AcDbDimension
  2
*D4
 10
277.0738648924
 20
104.8863034707
 30
0.0
 11
276.854097617
 21
122.2956726063
 31
0.0
 70
   162
 71
     1
 42
-1.0
  3
SLDDIMSTYLE1
100
AcDb2LineAngularDimension
 13
281.993553328
 23
117.5234203279
 33
0.0
 14
281.993553328
 24
90.5234203279
 34
0.0
 15
267.3525699319
 25
134.9982451602
 35
0.0
 16
276.854097617
 26
122.2956726063
 36
0.0
  0
DIMENSION
  5
268
330
1F
100
AcDbEntity
  8
VERMASSUNG
100
AcDbDimension
  2
*D5
 10
103.7349185158
 20
86.0234203279
 30
0.0
 11
103.7349185158
 21
117.5234203279
 31
0.0
 70
   160
  1
HSK %%c<>
 71
     2
 42
-1.0
  3
SLDDIMSTYLE0
100
AcDbAlignedDimension
 13
142.293553328
 23
149.0234203279
 33
0.0
 14
142.293553328
 24
86.0234203279
 34
0.0
 50
90.0
100
AcDbRotatedDimension
  0
LINE
  5
274
330
1F
100
AcDbEntity
  8
VERMASSUNG
  6
CENTERX2
370
     0
100
AcDbLine
 10
106.6665959352
 20
117.5234203279
 30
0.0
 11
275.9709669029
 21
117.5234203279
 31
0.0
  0
LINE
  5
275
330
1F
100
AcDbEntity
  8
0
  6
Continuous
 62
     7
370
    15
100
AcDbLine
 10
60.4214026605
 20
90.5235168883
 30
0.0
 11
65.0518792802
 21
91.5077550775
 31
0.0
  0
LINE
  5
276
330
1F
100
AcDbEntity
  8
0
  6
Continuous
 62
     7
370
    15
100
AcDbLine
 10
59.2796599899
 20
93.7863280868
 30
0.0
 11
59.7662188072
 21
93.2353813669
 31
0.0
  0
LINE
  5
277
330
1F
100
AcDbEntity
  8
0
  6
Continuous
 62
     7
370
    15
100
AcDbLine
 10
55.969210279
 20
106.2968492322
 30
0.0
 11
55.7075332473
 21
105.4643204007
 31
0.0
  0
LINE
  5
278
330
1F
100
AcDbEntity
  8
0
  6
Continuous
 62
     7
370
    15
100
AcDbLine
 10
54.9011483915
 20
108.7984141032
 30
0.0
 11
54.6030168708
 21
108.7350442922
 31
0.0
  0
LINE
  5
279
330
1F
100
AcDbEntity
  8
0
  6
Continuous
 62
     7
370
    15
100
AcDbLine
 10
65.0256393791
 20
91.8281207031
 30
0.0
 11
69.2302885172
 21
92.721846467
 31
0.0
  0
LINE
  5
27A
330
1F
100
AcDbEntity
  8
0
  6
Continuous
 62
     7
370
    15
100
AcDbLine
 10
69.2398832435
 20
92.7295484181
 30
0.0
 11
69.4664680802
 21
93.0827139316
 31
0.0
  0
LINE
  5
27B
330
1F
100
AcDbEntity
  8
0
  6
Continuous
 62
     7
370
    15
100
AcDbLine
 10
54.6721848119
 20
108.2178406557
 30
0.0
 11
57.9994166161
 21
94.7606862566
 31
0.0
  0
LWPOLYLINE
  5
27C
330
1F
100
AcDbEntity
  8
0
  6
Continuous
 62
     7
370
    15
100
AcDbPolyline
 90
        9
 70
   128
 43
0.0
 10
54.6191641631
 20
108.7195496891
 10
54.6043995336
 20
108.7351192367
 10
54.5956793905
 20
108.7217653965
 10
54.593648237
 20
108.6804751471
 10
54.5984561951
 20
108.6143002397
 10
54.6097479101
 20
108.5281316434
 10
54.6266888142
 20
108.4283380558
 10
54.64802681
 20
108.3222951936
 10
54.6721848119
 20
108.2178406557
  0
LINE
  5
27D
330
1F
100
AcDbEntity
  8
0
  6
Continuous
 62
     7
370
    15
100
AcDbLine
 10
56.9439887959
 20
104.7476947649
 30
0.0
 11
54.6191641631
 21
108.7195496891
 31
0.0
  0
ARC
  5
27E
330
1F
100
AcDbEntity
  8
0
  6
Continuous
 62
     7
370
    15
100
AcDbCircle
 10
55.8241828859
 20
104.2465067516
 30
0.0
 40
1.226847464353069
100
AcDbArc
 50
11.823030986
 51
24.1117073994
  0
LINE
  5
27F
330
1F
100
AcDbEntity
  8
0
  6
Continuous
 62
     7
370
    15
100
AcDbLine
 10
60.3522347193
 20
91.0407205249
 30
0.0
 11
57.0250029152
 21
104.497874924
 31
0.0
  0
LWPOLYLINE
  5
280
330
1F
100
AcDbEntity
  8
0
  6
Continuous
 62
     7
370
    15
100
AcDbPolyline
 90
        9
 70
   128
 43
0.0
 10
60.4052553682
 20
90.5390114915
 10
60.4200199976
 20
90.5234419439
 10
60.4287401408
 20
90.5367957841
 10
60.4307712943
 20
90.5780860334
 10
60.4259633361
 20
90.6442609409
 10
60.4146716212
 20
90.7304295371
 10
60.397730717
 20
90.8302231248
 10
60.3763927213
 20
90.936265987
 10
60.3522347193
 20
91.0407205249
  0
LINE
  5
281
330
1F
100
AcDbEntity
  8
0
  6
Continuous
 62
     7
370
    15
100
AcDbLine
 10
58.0804307353
 20
94.5108664157
 30
0.0
 11
60.4052553682
 21
90.5390114915
 31
0.0
  0
ARC
  5
282
330
1F
100
AcDbEntity
  8
0
  6
Continuous
 62
     7
370
    15
100
AcDbCircle
 10
59.2002366453
 20
95.012054429
 30
0.0
 40
1.226847464353135
100
AcDbArc
 50
191.823030986
 51
204.1117073994
  0
LWPOLYLINE
  5
283
330
1F
100
AcDbEntity
  8
0
  6
Continuous
 62
     7
370
    15
100
AcDbPolyline
 90
        9
 70
   128
 43
0.0
 10
60.4019044988
 20
90.5577997133
 10
60.4159308968
 20
90.5430086431
 10
60.4242150328
 20
90.5556947913
 10
60.4261446286
 20
90.5949205282
 10
60.4215770683
 20
90.6577866903
 10
60.4108499392
 20
90.7396468567
 10
60.3947560802
 20
90.8344507649
 10
60.3744849842
 20
90.9351914841
 10
60.3515348824
 20
91.0344232951
  0
LINE
  5
284
330
1F
100
AcDbEntity
  8
0
  6
Continuous
 62
     7
370
    15
100
AcDbLine
 10
60.3515348824
 20
91.0344232951
 30
0.0
 11
57.0243030784
 21
104.4915776941
 31
0.0
  0
ARC
  5
285
330
1F
100
AcDbEntity
  8
0
  6
Continuous
 62
     7
370
    15
100
AcDbCircle
 10
55.8835240589
 20
104.2527779324
 30
0.0
 40
1.165505082642103
100
AcDbArc
 50
11.8230309684
 51
24.1117074768
  0
LINE
  5
286
330
1F
100
AcDbEntity
  8
0
  6
Continuous
 62
     7
370
    15
100
AcDbLine
 10
56.947339665
 20
104.728906543
 30
0.0
 11
54.6225150321
 21
108.7007614672
 31
0.0
  0
LWPOLYLINE
  5
287
330
1F
100
AcDbEntity
  8
0
  6
Continuous
 62
     7
370
    15
100
AcDbPolyline
 90
        9
 70
   128
 43
0.0
 10
54.6225150321
 20
108.7007614672
 10
54.6084886342
 20
108.7155525374
 10
54.6002044982
 20
108.7028663892
 10
54.5982749023
 20
108.6636406523
 10
54.6028424626
 20
108.6007744902
 10
54.6135695918
 20
108.5189143238
 10
54.6296634507
 20
108.4241104156
 10
54.6499345467
 20
108.3233696964
 10
54.6728846485
 20
108.2241378854
  0
LINE
  5
288
330
1F
100
AcDbEntity
  8
0
  6
Continuous
 62
     7
370
    15
100
AcDbLine
 10
54.6728846485
 20
108.2241378854
 30
0.0
 11
58.0001164527
 21
94.7669834864
 31
0.0
  0
ARC
  5
289
330
1F
100
AcDbEntity
  8
0
  6
Continuous
 62
     7
370
    15
100
AcDbCircle
 10
59.1408954805
 20
95.0057832502
 30
0.0
 40
1.165505091135948
100
AcDbArc
 50
191.823030986
 51
204.1117073994
  0
LINE
  5
28A
330
1F
100
AcDbEntity
  8
0
  6
Continuous
 62
     7
370
    15
100
AcDbLine
 10
58.077079866
 20
94.5296546375
 30
0.0
 11
60.4019044988
 21
90.5577997133
 31
0.0
  0
LINE
  5
28B
330
1F
100
AcDbEntity
  8
0
  6
Continuous
 62
     7
370
    15
100
AcDbLine
 10
64.9827113391
 20
92.0249587141
 30
0.0
 11
61.6554795349
 21
105.4821131132
 31
0.0
  0
ARC
  5
28C
330
1F
100
AcDbEntity
  8
0
  6
Continuous
 62
     7
370
    15
100
AcDbCircle
 10
63.5348195374
 20
91.5680988216
 30
0.0
 40
1.518259408242264
100
AcDbArc
 50
357.7221594891
 51
17.5122859871
  0
LINE
  5
28D
330
1F
100
AcDbEntity
  8
0
  6
Continuous
 62
     7
370
    15
100
AcDbLine
 10
60.4249410346
 20
90.6196903322
 30
0.0
 11
60.4019044988
 21
90.5577997133
 31
0.0
  0
LINE
  5
28E
330
1F
100
AcDbEntity
  8
0
  6
Continuous
 62
     7
370
    15
100
AcDbLine
 10
58.2268365928
 20
94.9319953633
 30
0.0
 11
58.077079866
 21
94.5296546375
 31
0.0
  0
LINE
  5
28F
330
1F
100
AcDbEntity
  8
0
  6
Continuous
 62
     7
370
    15
100
AcDbLine
 10
58.4054816823
 20
95.274937128
 30
0.0
 11
58.2268365928
 21
94.9319953633
 31
0.0
  0
LINE
  5
290
330
1F
100
AcDbEntity
  8
0
  6
Continuous
 62
     7
370
    15
100
AcDbLine
 10
59.1288274803
 20
95.0669487157
 30
0.0
 11
57.2666960673
 21
102.5984317659
 31
0.0
  0
LINE
  5
291
330
1F
100
AcDbEntity
  8
0
  6
Continuous
 62
     7
370
    15
100
AcDbLine
 10
55.8955920506
 20
104.1916124648
 30
0.0
 11
57.7577234637
 21
96.6601294146
 31
0.0
  0
LWPOLYLINE
  5
292
330
1F
100
AcDbEntity
  8
0
  6
Continuous
 62
     7
370
    15
100
AcDbPolyline
 90
        9
 70
   128
 43
0.0
 10
55.7630404284
 20
105.4458850484
 10
55.7261288549
 20
105.4848089174
 10
55.704328497
 20
105.4514243169
 10
55.6992506132
 20
105.3481986935
 10
55.7112705086
 20
105.1827614248
 10
55.7394997959
 20
104.9673399343
 10
55.7818520563
 20
104.7178559652
 10
55.8351970457
 20
104.4527488096
 10
55.8955920506
 20
104.1916124648
  0
LINE
  5
293
330
1F
100
AcDbEntity
  8
0
  6
Continuous
 62
     7
370
    15
100
AcDbLine
 10
57.0641607691
 20
103.2229813682
 30
0.0
 11
55.7630404284
 21
105.4458850484
 31
0.0
  0
ARC
  5
294
330
1F
100
AcDbEntity
  8
0
  6
Continuous
 62
     7
370
    15
100
AcDbCircle
 10
54.2646459941
 20
101.9700113349
 30
0.0
 40
3.067118660880785
100
AcDbArc
 50
11.823030986
 51
24.1117073994
  0
LWPOLYLINE
  5
295
330
1F
100
AcDbEntity
  8
0
  6
Continuous
 62
     7
370
    15
100
AcDbPolyline
 90
        9
 70
   128
 43
0.0
 10
59.2613791028
 20
93.8126761318
 10
59.2982906763
 20
93.7737522628
 10
59.3200910342
 20
93.8071368634
 10
59.3251689179
 20
93.9103624868
 10
59.3131490225
 20
94.0757997555
 10
59.2849197351
 20
94.2912212461
 10
59.2425674747
 20
94.5407052153
 10
59.1892224852
 20
94.8058123709
 10
59.1288274803
 20
95.0669487157
  0
LINE
  5
296
330
1F
100
AcDbEntity
  8
0
  6
Continuous
 62
     7
370
    15
100
AcDbLine
 10
57.9602587618
 20
96.0355798123
 30
0.0
 11
59.2613791028
 21
93.8126761318
 31
0.0
  0
ARC
  5
297
330
1F
100
AcDbEntity
  8
0
  6
Continuous
 62
     7
370
    15
100
AcDbCircle
 10
60.7597735368
 20
97.2885498456
 30
0.0
 40
3.067118660880958
100
AcDbArc
 50
191.823030986
 51
204.1117073994
  0
LWPOLYLINE
  5
298
330
1F
100
AcDbEntity
  8
0
  6
Continuous
 62
     7
370
    15
100
AcDbPolyline
 90
       23
 70
   128
 43
0.0
 10
57.9444718929
 20
97.2055999705
 10
58.0432849462
 20
97.1050441227
 10
58.0990734468
 20
97.2089869013
 10
58.1073177422
 20
97.5090074806
 10
58.0673499286
 20
97.9807999774
 10
57.9824079605
 20
98.5861425696
 10
57.859373331
 20
99.2759940005
 10
57.7082135742
 20
99.9944666098
 10
57.5411747544
 20
100.6833540196
 10
57.3717893635
 20
101.286846669
 10
57.2137799985
 20
101.7560531726
 10
57.0799476384
 20
102.0529612101
 10
56.981134585
 20
102.1535170578
 10
56.9253460844
 20
102.0495742792
 10
56.917101789
 20
101.7495537
 10
56.9570696027
 20
101.2777612032
 10
57.0420115708
 20
100.672418611
 10
57.1650462002
 20
99.9825671801
 10
57.3162059571
 20
99.2640945708
 10
57.4832447769
 20
98.575207161
 10
57.6526301677
 20
97.9717145116
 10
57.8106395328
 20
97.5025080079
 10
57.9444718929
 20
97.2055999705
  0
LWPOLYLINE
  5
299
330
1F
100
AcDbEntity
  8
0
  6
Continuous
 62
     7
370
    15
100
AcDbPolyline
 90
        3
 70
   128
 43
0.0
 10
59.8083874967
 20
93.1791198289
 10
59.78850327
 20
93.2108840303
 10
59.7353484231
 20
93.2796561106
  0
ARC
  5
29A
330
1F
100
AcDbEntity
  8
0
  6
Continuous
 62
     7
370
    15
100
AcDbCircle
 10
60.4546595057
 20
105.2307449408
 30
0.0
 40
1.226847464352246
100
AcDbArc
 50
11.823030986
 51
24.1117073994
  0
LINE
  5
29B
330
1F
100
AcDbEntity
  8
0
  6
Continuous
 62
     7
370
    15
100
AcDbLine
 10
61.5744654157
 20
105.7319329541
 30
0.0
 11
61.5296430752
 21
105.8085098412
 31
0.0
  0
LINE
  5
29C
330
1F
100
AcDbEntity
  8
0
  6
Continuous
 62
     7
370
    15
100
AcDbLine
 10
58.2268365928
 20
94.9319953633
 30
0.0
 11
58.0001164527
 21
94.7669834864
 31
0.0
  0
LINE
  5
29D
330
1F
100
AcDbEntity
  8
0
  6
Continuous
 62
     7
370
    15
100
AcDbLine
 10
54.8331988009
 20
108.340818032
 30
0.0
 11
54.6728846485
 21
108.2241378854
 31
0.0
  0
LINE
  5
29E
330
1F
100
AcDbEntity
  8
0
  6
Continuous
 62
     7
370
    15
100
AcDbLine
 10
61.5294822144
 20
105.8084756492
 30
0.0
 11
61.5244808776
 21
105.8173292162
 31
0.0
  0
LINE
  5
29F
330
1F
100
AcDbEntity
  8
0
  6
Continuous
 62
     7
370
    15
100
AcDbLine
 10
64.7187288064
 20
93.0926491879
 30
0.0
 11
61.7270161758
 21
105.1927796139
 31
0.0
  0
ARC
  5
2A0
330
1F
100
AcDbEntity
  8
0
  6
Continuous
 62
     7
370
    15
100
AcDbCircle
 10
65.4376391602
 20
92.8727058272
 30
0.0
 40
3.795648520605823
100
AcDbArc
 50
357.7221594891
 51
17.5122859871
  0
LINE
  5
2A1
330
1F
100
AcDbEntity
  8
0
  6
Continuous
 62
     7
370
    15
100
AcDbLine
 10
69.0573686644
 20
94.0148555584
 30
0.0
 11
66.0656560338
 21
106.1149859845
 31
0.0
  0
ARC
  5
2A2
330
1F
100
AcDbEntity
  8
0
  6
Continuous
 62
     7
370
    15
100
AcDbCircle
 10
67.1178254233
 20
93.2081334322
 30
0.0
 40
2.351989026442065
100
AcDbArc
 50
356.9432603819
 51
19.220760242
  0
LINE
  5
2A3
330
1F
100
AcDbEntity
  8
0
  6
Continuous
 62
     7
370
    15
100
AcDbLine
 10
66.3469952441
 20
106.0825593559
 30
0.0
 11
69.3387078747
 21
93.9824289298
 31
0.0
  0
ARC
  5
2A4
330
1F
100
AcDbEntity
  8
0
  6
Continuous
 62
     7
370
    15
100
AcDbCircle
 10
62.9475199539
 20
105.4541288217
 30
0.0
 40
3.187397810496596
100
AcDbArc
 50
11.9661859305
 51
23.6094469675
  0
ARC
  5
2A5
330
1F
100
AcDbEntity
  8
0
  6
Continuous
 62
     7
370
    15
100
AcDbCircle
 10
64.2455601929
 20
105.6426650541
 30
0.0
 40
2.146983062615719
100
AcDbArc
 50
11.823030986
 51
24.1117073994
  0
LINE
  5
2A6
330
1F
100
AcDbEntity
  8
0
  6
Continuous
 62
     7
370
    15
100
AcDbLine
 10
66.0581154114
 20
106.7710663506
 30
0.0
 11
66.2052205354
 21
106.5197440775
 31
0.0
  0
LWPOLYLINE
  5
2A7
330
1F
100
AcDbEntity
  8
0
  6
Continuous
 62
     7
370
    15
100
AcDbPolyline
 90
       27
 70
   128
 43
0.0
 10
54.9781195417
 20
111.1577941633
 10
55.0076658612
 20
110.6707921142
 10
54.9901068331
 20
110.3574622035
 10
54.9264629243
 20
110.2360140267
 10
54.8204328875
 20
110.3135057105
 10
54.678178803
 20
110.5854337198
 10
54.5079679611
 20
111.0359945872
 10
54.3196923972
 20
111.6390033527
 10
54.1242940028
 20
112.3594153388
 10
53.9331286223
 20
113.1553628194
 10
53.7573060928
 20
113.9805882201
 10
53.6070445806
 20
114.7871324402
 10
53.4910767386
 20
115.5281220613
 10
53.4161421962
 20
116.1604934599
 10
53.3865958768
 20
116.6474955091
 10
53.4041549049
 20
116.9608254198
 10
53.4677988136
 20
117.0822735965
 10
53.5738288505
 20
117.0047819128
 10
53.716082935
 20
116.7328539035
 10
53.8862937769
 20
116.2822930361
 10
54.0745693408
 20
115.6792842706
 10
54.2699677351
 20
114.9588722845
 10
54.4611331156
 20
114.1629248039
 10
54.6369556451
 20
113.3376994032
 10
54.7872171573
 20
112.5311551831
 10
54.9031849994
 20
111.790165562
 10
54.9781195417
 20
111.1577941633
  0
LWPOLYLINE
  5
2A8
330
1F
100
AcDbEntity
  8
0
  6
Continuous
 62
     7
370
    15
100
AcDbPolyline
 90
       20
 70
   128
 43
0.0
 10
54.6434101105
 20
112.2298011555
 10
54.6597317207
 20
111.8733191484
 10
54.6259233506
 20
111.7103589534
 10
54.5456486616
 20
111.7585798364
 10
54.4276066621
 20
112.0127563164
 10
54.2845890342
 20
112.4453444278
 10
54.132093957
 20
113.0094665365
 10
53.9866466383
 20
113.6439912588
 10
53.8640085521
 20
114.2801579952
 10
53.7774694378
 20
114.8490282089
 10
53.7364071513
 20
115.2889559851
 10
53.7452714285
 20
115.5522683232
 10
53.8031016874
 20
115.6104312456
 10
53.9036311221
 20
115.4571418972
 10
54.0359658085
 20
115.1090115574
 10
54.1857652299
 20
114.6037655504
 10
54.3367962947
 20
113.9961551206
 10
54.4726924434
 20
113.3520242862
 10
54.5787272198
 20
112.7411746179
 10
54.6434101105
 20
112.2298011555
  0
LINE
  5
2A9
330
1F
100
AcDbEntity
  8
0
  6
Continuous
 62
     7
370
    15
100
AcDbLine
 10
54.2464690245
 20
114.3565216891
 30
0.0
 11
54.177092509
 21
114.2078780627
 31
0.0
  0
LINE
  5
2AA
330
1F
100
AcDbEntity
  8
0
  6
Continuous
 62
     7
370
    15
100
AcDbLine
 10
54.604146792
 20
112.5653414327
 30
0.0
 11
54.5658149293
 21
112.5571937437
 31
0.0
  0
LINE
  5
2AB
330
1F
100
AcDbEntity
  8
0
  6
Continuous
 62
     7
370
    15
100
AcDbLine
 10
54.2815373007
 20
114.2300784885
 30
0.0
 11
54.177092509
 21
114.2078780627
 31
0.0
  0
ELLIPSE
  5
2AC
330
1F
100
AcDbEntity
  8
0
  6
Continuous
 62
     7
370
    15
100
AcDbEllipse
 10
57.6672869947
 20
100.3003938656
 30
0.0
 11
-0.4894004708222539
 21
2.301289617184736
 31
0.0
210
0.0
220
0.0
230
0.9999999999999999
 40
0.1044270979
 41
1.74854120161519
 42
2.810219768464354
  0
SPLINE
  5
2AD
330
1F
100
AcDbEntity
  8
0
  6
Continuous
 62
     7
370
    15
100
AcDbSpline
210
0.0
220
0.0
230
1.0
 70
     8
 71
     3
 72
    47
 73
    43
 74
     0
 42
0.00000001
 43
0.00000001
 40
0.0
 40
0.0
 40
0.0
 40
0.0
 40
0.0283977540552325
 40
0.0565992211615908
 40
0.0846058239680615
 40
0.1124190150259339
 40
0.1400402774002807
 40
0.1674711252866767
 40
0.1947131046325122
 40
0.2217677937621984
 40
0.2486368040055332
 40
0.2753217803283819
 40
0.3018244019647788
 40
0.3281463830494915
 40
0.3542894732499903
 40
0.380255458396695
 40
0.406046161110276
 40
0.4316634414247498
 40
0.4571091974049334
 40
0.4823853657568141
 40
0.5074939224292591
 40
0.5324368832053805
 40
0.5572163042818343
 40
0.5818342828341536
 40
0.6062929575661962
 40
0.6305945092416411
 40
0.6547411611953933
 40
0.678735179822663
 40
0.7025788750433775
 40
0.7262746007395241
 40
0.7498247551629166
 40
0.7732317813107974
 40
0.7964981672666497
 40
0.8196264465034686
 40
0.842619198146754
 40
0.8654790471943914
 40
0.8882086646905688
 40
0.9108107678508587
 40
0.9332881201355818
 40
0.9556435312685804
 40
0.9778798571985302
 40
1.0
 40
1.0
 40
1.0
 40
1.0
 10
80.96473861357323
 20
105.3103050396436
 30
0.0
 10
80.9029009745806
 20
105.1628097960826
 30
0.0
 10
80.7796531219988
 20
104.8688388047727
 30
0.0
 10
80.58494632341666
 20
104.4334949423312
 30
0.0
 10
80.38401324532741
 20
104.0043357814847
 30
0.0
 10
80.17625344289678
 20
103.5817270037887
 30
0.0
 10
79.96201241971859
 20
103.1656769551212
 30
0.0
 10
79.74138532217658
 20
102.7562841365127
 30
0.0
 10
79.51453406181986
 20
102.3536185714639
 30
0.0
 10
79.28160311393871
 20
101.9577532981953
 30
0.0
 10
79.04274174087475
 20
101.5687560540025
 30
0.0
 10
78.7980979956188
 20
101.1866915179214
 30
0.0
 10
78.54782021104037
 20
100.8116207554033
 30
0.0
 10
78.29205650621421
 20
100.4436014068273
 30
0.0
 10
78.03095482081943
 20
100.0826876805207
 30
0.0
 10
77.76466281172664
 20
99.7289303993191
 30
0.0
 10
77.49332778837578
 20
99.38237703455103
 30
0.0
 10
77.21709664011766
 20
99.04307174491075
 30
0.0
 10
76.9361157679449
 20
98.71105541551641
 30
0.0
 10
76.65053101732138
 20
98.38636569833082
 30
0.0
 10
76.36048761298633
 20
98.06903705356405
 30
0.0
 10
76.0661300955015
 20
97.75910079209005
 30
0.0
 10
75.76760225960248
 20
97.45658511880147
 30
0.0
 10
75.4650470943354
 20
97.16151517685604
 30
0.0
 10
75.15860672498073
 20
96.8739130927606
 30
0.0
 10
74.84842235675576
 20
96.59379802224598
 30
0.0
 10
74.5346342202994
 20
96.32118619686536
 30
0.0
 10
74.21738151889868
 20
96.05609097133163
 30
0.0
 10
73.89680237757126
 20
95.79852287130302
 30
0.0
 10
73.57303379354221
 20
95.54848964246418
 30
0.0
 10
73.2462115897777
 20
95.30599629754607
 30
0.0
 10
72.9164703653757
 20
95.07104517347587
 30
0.0
 10
72.58394346568771
 20
94.84363595335701
 30
0.0
 10
72.24876288751358
 20
94.62376582060561
 30
0.0
 10
71.91105943243892
 20
94.41142912612368
 30
0.0
 10
71.57096195012632
 20
94.20661885858233
 30
0.0
 10
71.22859995642321
 20
94.00932144505836
 30
0.0
 10
70.88409377157981
 20
93.81953623229104
 30
0.0
 10
70.53759085089861
 20
93.63720363262803
 30
0.0
 10
70.18913115373708
 20
93.462471324726
 30
0.0
 10
69.83914538013777
 20
93.2947090551718
 30
0.0
 10
69.60351513933638
 20
93.18873447690314
 30
0.0
 10
69.48600861269128
 20
93.1358859776499
 30
0.0
  0
LINE
  5
2AE
330
1F
100
AcDbEntity
  8
0
  6
Continuous
 62
     7
370
    15
100
AcDbLine
 10
69.4863038118
 20
93.133011419
 30
0.0
 11
69.4461099782
 21
93.5024299387
 31
0.0
  0
SPLINE
  5
2AF
330
1F
100
AcDbEntity
  8
0
  6
Continuous
 62
     7
370
    15
100
AcDbSpline
210
0.0
220
0.0
230
1.0
 70
     8
 71
     3
 72
    35
 73
    31
 74
     0
 42
0.00000001
 43
0.00000001
 40
0.0
 40
0.0
 40
0.0
 40
0.0
 40
0.0248819589846161
 40
0.0497566636395053
 40
0.074637053895363
 40
0.099536060818518
 40
0.124466586506816
 40
0.1494414842101166
 40
0.1744735388270607
 40
0.1995754479230006
 40
0.2247598034048461
 40
0.2500390739772136
 40
0.2754255884911413
 40
0.3009315202820143
 40
0.3265688725777436
 40
0.3523494650420363
 40
0.3782849215011846
 40
0.4043866588866305
 40
0.4306658774098864
 40
0.4571335519716458
 40
0.4838004247932059
 40
0.5402795702152815
 40
0.5967523175564444
 40
0.6533167329821712
 40
0.7100704074728558
 40
0.7671099605871605
 40
0.8245305687893517
 40
0.8824255292667893
 40
0.9408858681864667
 40
1.0
 40
1.0
 40
1.0
 40
1.0
 10
69.44684206897526
 20
93.50269355911496
 30
0.0
 10
69.58201923955568
 20
93.5638165240219
 30
0.0
 10
69.85233416984185
 20
93.68604463344866
 30
0.0
 10
70.2519661576806
 20
93.8805272408212
 30
0.0
 10
70.64713801246347
 20
94.08308526990625
 30
0.0
 10
71.03744490886514
 20
94.29452394580952
 30
0.0
 10
71.42299501341786
 20
94.51462712192395
 30
0.0
 10
71.80375896041018
 20
94.74345250597732
 30
0.0
 10
72.17974432386961
 20
94.98098428716938
 30
0.0
 10
72.55094879089185
 20
95.22722637671014
 30
0.0
 10
72.91737274185722
 20
95.48217736618741
 30
0.0
 10
73.27901587008525
 20
95.74583726341784
 30
0.0
 10
73.63587809183544
 20
96.01820568420865
 30
0.0
 10
73.98795930211877
 20
96.29928234466645
 30
0.0
 10
74.3352594377876
 20
96.58906692764266
 30
0.0
 10
74.67777846831555
 20
96.88755914135984
 30
0.0
 10
75.01551636413853
 20
97.19475863668833
 30
0.0
 10
75.34847322676612
 20
97.51066529846557
 30
0.0
 10
75.67664878655435
 20
97.83527816862738
 30
0.0
 10
76.00004428911993
 20
98.1685995149435
 30
0.0
 10
76.43653531906602
 20
98.63716028080192
 30
0.0
 10
76.97295833531643
 20
99.25023887808352
 30
0.0
 10
77.59064684524658
 20
100.020092733801
 30
0.0
 10
78.17468382525527
 20
100.8153769165764
 30
0.0
 10
78.72507291227657
 20
101.6360702247482
 30
0.0
 10
79.241751813682
 20
102.482188338794
 30
0.0
 10
79.72495412574993
 20
103.3536394585699
 30
0.0
 10
80.17379294023672
 20
104.2507283107839
 30
0.0
 10
80.59162910710047
 20
105.1722633754606
 30
0.0
 10
80.8395293090444
 20
105.8020976655443
 30
0.0
 10
80.96416865568935
 20
106.1187659610723
 30
0.0
  0
LINE
  5
2B0
330
1F
100
AcDbEntity
  8
0
  6
Continuous
 62
     7
370
    15
100
AcDbLine
 10
80.9641686614
 20
106.125519617
 30
0.0
 11
80.9641686614
 21
105.3076211809
 31
0.0
  0
LINE
  5
2B1
330
1F
100
AcDbEntity
  8
0
  6
Continuous
 62
     7
370
    15
100
AcDbLine
 10
66.160119695
 20
106.7927480304
 30
0.0
 11
57.1910032171
 21
104.8863034707
 31
0.0
  0
LINE
  5
2B2
330
1F
100
AcDbEntity
  8
0
  6
Continuous
 62
     7
370
    15
100
AcDbLine
 10
49.7459366672
 20
134.9982451602
 30
0.0
 11
57.1910032171
 21
104.8863034707
 31
0.0
  0
ARC
  5
2B3
330
1F
100
AcDbEntity
  8
0
  6
Continuous
 62
     7
370
    15
100
AcDbCircle
 10
60.4641686614
 20
117.5234203279
 30
0.0
 40
20.49999999999999
100
AcDbArc
 50
0.0
 51
121.5229859371
  0
LINE
  5
2B4
330
1F
100
AcDbEntity
  8
0
  6
Continuous
 62
     7
370
    15
100
AcDbLine
 10
80.9641686614
 20
106.118765961
 30
0.0
 11
80.9641686614
 21
117.5234203279
 31
0.0
  0
LINE
  5
2B5
330
1F
100
AcDbEntity
  8
0
  6
Continuous
 62
     7
370
    15
100
AcDbLine
 10
69.4460768722
 20
93.5025309115
 30
0.0
 11
69.4177881993
 21
93.616945855
 31
0.0
  0
LINE
  5
2B6
330
1F
100
AcDbEntity
  8
0
  6
Continuous
 62
     7
370
    15
100
AcDbLine
 10
66.260916552
 20
106.3850701326
 30
0.0
 11
66.160119695
 21
106.7927480304
 31
0.0
  0
LINE
  5
2B7
330
1F
100
AcDbEntity
  8
0
  6
Continuous
 62
     7
370
    15
100
AcDbLine
 10
69.4854749122
 20
93.1363421942
 30
0.0
 11
69.4763929846
 21
93.1518582457
 31
0.0
  0
ARC
  5
2B8
330
1F
100
AcDbEntity
  8
0
  6
Continuous
 62
     7
370
    15
100
AcDbCircle
 10
60.4641686614
 20
117.5234203279
 30
0.0
 40
19.99999999999986
100
AcDbArc
 50
126.0471872316
 51
126.6748358922
  0
SPLINE
  5
2B9
330
1F
100
AcDbEntity
  8
0
  6
Continuous
 62
     7
370
    15
100
AcDbSpline
210
0.0
220
0.0
230
1.0
 70
     8
 71
     3
 72
     8
 73
     4
 74
     0
 42
0.00000001
 43
0.00000001
 40
0.0
 40
0.0
 40
0.0
 40
0.0
 40
1.0
 40
1.0
 40
1.0
 40
1.0
 10
48.69514191997365
 20
133.6940730531533
 30
0.0
 10
48.67275170069151
 20
133.8834935712852
 30
0.0
 10
48.65046345586966
 20
134.0726099289666
 30
0.0
 10
48.62826934254049
 20
134.2614455195115
 30
0.0
  0
ARC
  5
2BA
330
1F
100
AcDbEntity
  8
0
  6
Continuous
 62
     7
370
    15
100
AcDbCircle
 10
60.4641686614
 20
117.5234203279
 30
0.0
 40
20.49999999999987
100
AcDbArc
 50
121.5229859371
 51
125.2651386532
  0
LWPOLYLINE
  5
2BB
330
1F
100
AcDbEntity
  8
0
  6
Continuous
 62
     7
370
    15
100
AcDbPolyline
 90
        4
 70
   128
 43
0.0
 10
54.7557445343
 20
109.0468298408
 10
54.6691141747
 20
109.1277000257
 10
54.6254044728
 20
109.007546257
 10
54.6262094602
 20
108.7399740293
  0
ARC
  5
2BC
330
1F
100
AcDbEntity
  8
0
  6
Continuous
 62
     7
370
    15
100
AcDbCircle
 10
67.6161568566
 20
109.7526409434
 30
0.0
 40
13.02451212931755
100
AcDbArc
 50
187.1281394753
 51
200.6471679761
  0
SPLINE
  5
2BD
330
1F
100
AcDbEntity
  8
0
  6
Continuous
 62
     7
370
    15
100
AcDbSpline
210
0.0
220
0.0
230
1.0
 70
     8
 71
     3
 72
    14
 73
    10
 74
     0
 42
0.00000001
 43
0.00000001
 40
0.0
 40
0.0
 40
0.0
 40
0.0
 40
0.25
 40
0.25
 40
0.5
 40
0.5
 40
0.75
 40
0.75
 40
1.0
 40
1.0
 40
1.0
 40
1.0
 10
56.132889536082
 20
97.9980516723036
 30
0.0
 10
56.14093514623305
 20
98.11500334744143
 30
0.0
 10
56.15508559776723
 20
98.20688112447668
 30
0.0
 10
56.19561096268804
 20
98.34042818145276
 30
0.0
 10
56.22229308698791
 20
98.38184418687257
 30
0.0
 10
56.28629060408175
 20
98.41062919073228
 30
0.0
 10
56.32367614003375
 20
98.39883075050129
 30
0.0
 10
56.40919130717621
 20
98.32299522050894
 30
0.0
 10
56.45762575395671
 20
98.25832959929767
 30
0.0
 10
56.51069771648671
 20
98.16765861588993
 30
0.0
  0
LINE
  5
2BE
330
1F
100
AcDbEntity
  8
0
  6
Continuous
 62
     7
370
    15
100
AcDbLine
 10
56.075814026
 20
98.010800217
 30
0.0
 11
56.1328895361
 21
97.9980516723
 31
0.0
  0
LWPOLYLINE
  5
2BF
330
1F
100
AcDbEntity
  8
0
  6
Continuous
 62
     7
370
    15
100
AcDbPolyline
 90
       27
 70
   128
 43
0.0
 10
53.4694399511
 20
117.0826604142
 10
53.5762256168
 20
117.0013826493
 10
53.7190960389
 20
116.7258661118
 10
53.8897481077
 20
116.2721228212
 10
54.0782641453
 20
115.6665226884
 10
54.2736882848
 20
114.9442609918
 10
54.4646631856
 20
114.1473129559
 10
54.6400900806
 20
113.3219943037
 10
54.7897737963
 20
112.5162695555
 10
54.9050152592
 20
111.7769645048
 10
54.9791170544
 20
111.1470448741
 10
55.007772655
 20
110.6631193024
 10
54.9893167014
 20
110.3533117852
 10
54.9248217868
 20
110.2356272091
 10
54.8180361211
 20
110.3169049739
 10
54.6751656991
 20
110.5924215115
 10
54.5045136303
 20
111.0461648021
 10
54.3159975927
 20
111.6517649349
 10
54.1205734532
 20
112.3740266315
 10
53.9295985524
 20
113.1709746674
 10
53.7541716574
 20
113.9962933195
 10
53.6044879417
 20
114.8020180678
 10
53.4892464788
 20
115.5413231184
 10
53.4151446835
 20
116.1712427492
 10
53.386489083
 20
116.6551683208
 10
53.4049450365
 20
116.9649758381
 10
53.4694399511
 20
117.0826604142
  0
LINE
  5
2C0
330
1F
100
AcDbEntity
  8
0
  6
Continuous
 62
     7
370
    15
100
AcDbLine
 10
57.1910032171
 20
104.8863034707
 30
0.0
 11
54.7557445343
 21
109.0468298408
 31
0.0
  0
LINE
  5
2C1
330
1F
100
AcDbEntity
  8
0
  6
Continuous
 62
     7
370
    15
100
AcDbLine
 10
56.5106977165
 20
98.1676586159
 30
0.0
 11
57.6297549235
 21
96.255801345
 31
0.0
  0
SPLINE
  5
2C2
330
1F
100
AcDbEntity
  8
0
  6
Continuous
 62
     7
370
    15
100
AcDbSpline
210
0.0
220
0.0
230
1.0
 70
     8
 71
     3
 72
     9
 73
     5
 74
     0
 42
0.00000001
 43
0.00000001
 40
0.0
 40
0.0
 40
0.0
 40
0.0
 40
0.5301171552331383
 40
1.0
 40
1.0
 40
1.0
 40
1.0
 10
56.13288953609633
 20
97.99805167230443
 30
0.0
 10
56.22494533317339
 20
97.97756894186453
 30
0.0
 10
56.39859713102285
 20
97.93893082152132
 30
0.0
 10
56.58552500617015
 20
97.90547794453072
 30
0.0
 10
56.6733592079106
 20
97.88975901152473
 30
0.0
  0
SPLINE
  5
2C3
330
1F
100
AcDbEntity
  8
0
  6
Continuous
 62
     7
370
    15
100
AcDbSpline
210
0.0
220
0.0
230
1.0
 70
     8
 71
     3
 72
    40
 73
    36
 74
     0
 42
0.00000001
 43
0.00000001
 40
0.0
 40
0.0
 40
0.0
 40
0.0
 40
0.0625000000000014
 40
0.0625000000000014
 40
0.1250000000000027
 40
0.1250000000000027
 40
0.1875000000000041
 40
0.1875000000000041
 40
0.2500000000000054
 40
0.2500000000000054
 40
0.3125000000000068
 40
0.3125000000000068
 40
0.3750000000000082
 40
0.3750000000000082
 40
0.406250000000008
 40
0.406250000000008
 40
0.4375000000000078
 40
0.4375000000000078
 40
0.500000000000007
 40
0.500000000000007
 40
0.5625000000000061
 40
0.5625000000000061
 40
0.6250000000000052
 40
0.6250000000000052
 40
0.6875000000000044
 40
0.6875000000000044
 40
0.7500000000000036
 40
0.7500000000000036
 40
0.8125000000000027
 40
0.8125000000000027
 40
0.8750000000000018
 40
0.8750000000000018
 40
0.937500000000001
 40
0.937500000000001
 40
1.0
 40
1.0
 40
1.0
 40
1.0
 10
49.91183767881836
 20
105.7788173352903
 30
0.0
 10
50.10523457365893
 20
105.7233173662249
 30
0.0
 10
50.29774508804108
 20
105.6871696023293
 30
0.0
 10
50.67953861107794
 20
105.6489473658985
 30
0.0
 10
50.87087016380373
 20
105.6470895607896
 30
0.0
 10
51.23850814571175
 20
105.6771884919153
 30
0.0
 10
51.41383668113974
 20
105.7085206971471
 30
0.0
 10
51.74721352931454
 20
105.805021605724
 30
0.0
 10
51.90592214981645
 20
105.8708410997215
 30
0.0
 10
52.18934709620527
 20
106.0394664467724
 30
0.0
 10
52.31803101819778
 20
106.1442763520776
 30
0.0
 10
52.52471462606932
 20
106.4050294338049
 30
0.0
 10
52.60351373407751
 20
106.5642931572951
 30
0.0
 10
52.65862400634636
 20
106.8445091044269
 30
0.0
 10
52.66626016394584
 20
106.9433565540597
 30
0.0
 10
52.6614928536406
 20
107.1443941634068
 30
0.0
 10
52.64897716464267
 20
107.2482593971265
 30
0.0
 10
52.58994519319899
 20
107.5503877063481
 30
0.0
 10
52.52193346070806
 20
107.7468859584728
 30
0.0
 10
52.3621501662963
 20
108.1128216619519
 30
0.0
 10
52.26852829149714
 20
108.2866794364647
 30
0.0
 10
52.06473633105109
 20
108.6167620511917
 30
0.0
 10
51.955175585823
 20
108.7719199075351
 30
0.0
 10
51.72210450170919
 20
109.0671573863615
 30
0.0
 10
51.59855236159663
 20
109.2071448869197
 30
0.0
 10
51.33622998076769
 20
109.4725742259971
 30
0.0
 10
51.196653942094
 20
109.5985904557742
 30
0.0
 10
50.90450540417004
 20
109.8298335460703
 30
0.0
 10
50.75178646283216
 20
109.9354493114351
 30
0.0
 10
50.42954504313554
 20
110.1223790339711
 30
0.0
 10
50.25843604942686
 20
110.2043837025898
 30
0.0
 10
49.9014977537835
 20
110.3307934596358
 30
0.0
 10
49.71545937650286
 20
110.3756584843781
 30
0.0
 10
49.3288469582233
 20
110.4099545053427
 30
0.0
 10
49.13479192349858
 20
110.3991346301414
 30
0.0
 10
48.94047776456112
 20
110.3487064350453
 30
0.0
  0
SPLINE
  5
2C4
330
1F
100
AcDbEntity
  8
0
  6
Continuous
 62
     7
370
    15
100
AcDbSpline
210
0.0
220
0.0
230
1.0
 70
     8
 71
     3
 72
    20
 73
    16
 74
     0
 42
0.00000001
 43
0.00000001
 40
0.0
 40
0.0
 40
0.0
 40
0.0
 40
0.125
 40
0.125
 40
0.25
 40
0.25
 40
0.375
 40
0.375
 40
0.5
 40
0.5
 40
0.625
 40
0.625
 40
0.75
 40
0.75
 40
1.0
 40
1.0
 40
1.0
 40
1.0
 10
48.51870961615444
 20
133.5641811639544
 30
0.0
 10
48.4881773440866
 20
133.5414439628157
 30
0.0
 10
48.43432186855146
 20
133.5012733733064
 30
0.0
 10
48.28327234815723
 20
133.3864202587462
 30
0.0
 10
48.18546759411553
 20
133.3112683913004
 30
0.0
 10
47.94928453601835
 20
133.1247126365838
 30
0.0
 10
47.81342814549845
 20
133.0152751056364
 30
0.0
 10
47.51075738945595
 20
132.7631032798183
 30
0.0
 10
47.34256280853538
 20
132.6191476716998
 30
0.0
 10
46.98432939921542
 20
132.3001404532156
 30
0.0
 10
46.79615332705662
 20
132.1267935922382
 30
0.0
 10
46.40624692974571
 20
131.7518422524872
 30
0.0
 10
46.20304756628067
 20
131.5486876578505
 30
0.0
 10
45.58954696031982
 20
130.906111518834
 30
0.0
 10
45.17941259262854
 20
130.4383196328492
 30
0.0
 10
44.77813112174447
 20
129.931007776927
 30
0.0
  0
SPLINE
  5
2C5
330
1F
100
AcDbEntity
  8
0
  6
Continuous
 62
     7
370
    15
100
AcDbSpline
210
0.0
220
0.0
230
1.0
 70
     8
 71
     3
 72
    18
 73
    14
 74
     0
 42
0.00000001
 43
0.00000001
 40
0.0
 40
0.0
 40
0.0
 40
0.0
 40
0.2500000000000004
 40
0.2500000000000004
 40
0.3750000000000003
 40
0.3750000000000003
 40
0.5000000000000003
 40
0.5000000000000003
 40
0.6250000000000003
 40
0.6250000000000003
 40
0.7500000000000002
 40
0.7500000000000002
 40
1.0
 40
1.0
 40
1.0
 40
1.0
 10
51.18088078630633
 20
99.80843892157637
 30
0.0
 10
51.75435728624353
 20
99.50791659437759
 30
0.0
 10
52.31890889142234
 20
99.24764882531667
 30
0.0
 10
53.13869734267443
 20
98.91093150611819
 30
0.0
 10
53.4085289815512
 20
98.80735859533732
 30
0.0
 10
53.9167548803544
 20
98.62356871872794
 30
0.0
 10
54.15752712271393
 20
98.54231152832452
 30
0.0
 10
54.60928788540987
 20
98.39813366710086
 30
0.0
 10
54.82145828072177
 20
98.33488926760361
 30
0.0
 10
55.20585893825723
 20
98.22600901063586
 30
0.0
 10
55.37431815044722
 20
98.18135090881835
 30
0.0
 10
55.80769710501029
 20
98.07075513272423
 30
0.0
 10
56.00138108762633
 20
98.02754005656789
 30
0.0
 10
56.07581402598198
 20
98.0108002170074
 30
0.0
  0
ELLIPSE
  5
2C6
330
1F
100
AcDbEntity
  8
0
  6
Continuous
 62
     7
370
    15
100
AcDbEllipse
 10
50.014507288
 20
108.0463205587
 30
0.0
 11
-1.825303618560198
 21
1.887292978258387
 31
0.0
210
0.0
220
0.0
230
0.9999999999999998
 40
0.7809803467
 41
5.86719822813508
 42
8.489505423842493
  0
ARC
  5
2C7
330
1F
100
AcDbEntity
  8
0
  6
Continuous
 62
     7
370
    15
100
AcDbCircle
 10
60.4641686614
 20
117.5234203279
 30
0.0
 40
20.00000000000001
100
AcDbArc
 50
141.6561564452
 51
242.3438435548
  0
SPLINE
  5
2C8
330
1F
100
AcDbEntity
  8
0
  6
Continuous
 62
     7
370
    15
100
AcDbSpline
210
0.0
220
0.0
230
1.0
 70
    24
 71
     3
 72
    10
 73
     6
 74
     0
 42
0.00000001
 43
0.00000001
 40
0.0
 40
0.0
 40
0.0
 40
0.0
 40
0.5
 40
0.5
 40
1.0
 40
1.0
 40
1.0
 40
1.0
 10
51.46416866141129
 20
87.9631429273507
 30
0.0
 10
51.46416866141129
 20
87.80325565915705
 30
0.0
 10
51.46416866141129
 20
87.64212840364246
 30
0.0
 10
51.46416866141129
 20
87.40802940528762
 30
0.0
 10
51.46416866141129
 20
87.3365026316964
 30
0.0
 10
51.46416866141129
 20
87.3365026316964
 30
0.0
  0
ARC
  5
2C9
330
1F
100
AcDbEntity
  8
0
  6
Continuous
 62
     7
370
    15
100
AcDbCircle
 10
60.4641686614
 20
117.5234203279
 30
0.0
 40
31.50000000000003
100
AcDbArc
 50
140.9381656697
 51
253.398450401
  0
SPLINE
  5
2CA
330
1F
100
AcDbEntity
  8
0
  6
Continuous
 62
     7
370
    15
100
AcDbSpline
210
0.0
220
0.0
230
1.0
 70
    24
 71
     3
 72
    12
 73
     8
 74
     0
 42
0.00000001
 43
0.00000001
 40
0.0
 40
0.0
 40
0.0
 40
0.0
 40
0.249999999999998
 40
0.249999999999998
 40
0.499999999999996
 40
0.499999999999996
 40
1.0
 40
1.0
 40
1.0
 40
1.0
 10
36.00547899904369
 20
137.3734203279436
 30
0.0
 10
36.00547899904369
 20
137.3734203279436
 30
0.0
 10
36.03330871934717
 20
137.3734203279436
 30
0.0
 10
36.12845118060384
 20
137.3734203279436
 30
0.0
 10
36.19487399690419
 20
137.3734203279436
 30
0.0
 10
36.4190734284243
 20
137.3734203279436
 30
0.0
 10
36.60305983096992
 20
137.3734203279436
 30
0.0
 10
36.78321640015289
 20
137.3734203279436
 30
0.0
  0
SPLINE
  5
2CB
330
1F
100
AcDbEntity
  8
0
  6
Continuous
 62
     7
370
    15
100
AcDbSpline
210
0.0
220
0.0
230
1.0
 70
    24
 71
     3
 72
    10
 73
     6
 74
     0
 42
0.00000001
 43
0.00000001
 40
0.0
 40
0.0
 40
0.0
 40
0.0
 40
0.5
 40
0.5
 40
1.0
 40
1.0
 40
1.0
 40
1.0
 10
52.46416866141129
 20
147.3698606517075
 30
0.0
 10
52.46416866141129
 20
147.5302659180583
 30
0.0
 10
52.46416866141129
 20
147.6893277310468
 30
0.0
 10
52.46416866141129
 20
147.9202401966772
 30
0.0
 10
52.46416866141129
 20
147.9906158011078
 30
0.0
 10
52.46416866141129
 20
147.9906158011078
 30
0.0
  0
SPLINE
  5
2CC
330
1F
100
AcDbEntity
  8
0
  6
Continuous
 62
     7
370
    15
100
AcDbSpline
210
0.0
220
0.0
230
1.0
 70
    24
 71
     3
 72
    12
 73
     8
 74
     0
 42
0.00000001
 43
0.00000001
 40
0.0
 40
0.0
 40
0.0
 40
0.0
 40
0.25
 40
0.25
 40
0.5
 40
0.5
 40
1.0
 40
1.0
 40
1.0
 40
1.0
 10
40.61416866141128
 20
141.982109990311
 30
0.0
 10
40.61416866141128
 20
141.982109990311
 30
0.0
 10
40.61416866141128
 20
141.9538902917231
 30
0.0
 10
40.61416866141128
 20
141.859447284475
 30
0.0
 10
40.61416866141128
 20
141.7931603077697
 30
0.0
 10
40.61416866141128
 20
141.5675354844814
 30
0.0
 10
40.61416866141128
 20
141.3851092214488
 30
0.0
 10
40.61416866141128
 20
141.2043725892019
 30
0.0
  0
ARC
  5
2CD
330
1F
100
AcDbEntity
  8
0
  6
Continuous
 62
     7
370
    15
100
AcDbCircle
 10
60.4641686614
 20
117.5234203279
 30
0.0
 40
31.50000000000002
100
AcDbArc
 50
104.7124579609
 51
129.0618343303
  0
SPLINE
  5
2CE
330
1F
100
AcDbEntity
  8
0
  6
Continuous
 62
     7
370
    15
100
AcDbSpline
210
0.0
220
0.0
230
1.0
 70
    24
 71
     3
 72
    12
 73
     8
 74
     0
 42
0.00000001
 43
0.00000001
 40
0.0
 40
0.0
 40
0.0
 40
0.0
 40
0.250000000000002
 40
0.250000000000002
 40
0.500000000000004
 40
0.500000000000004
 40
1.0
 40
1.0
 40
1.0
 40
1.0
 10
68.46416866141129
 20
147.9906158011078
 30
0.0
 10
68.46416866141129
 20
147.9906158011078
 30
0.0
 10
68.46416866141129
 20
147.973613051147
 30
0.0
 10
68.46416866141129
 20
147.9095525100353
 30
0.0
 10
68.46416866141129
 20
147.8623938943967
 30
0.0
 10
68.46416866141129
 20
147.6891718617045
 30
0.0
 10
68.46416866141129
 20
147.5290627714703
 30
0.0
 10
68.46416866141129
 20
147.3698606517069
 30
0.0
  0
ARC
  5
2CF
330
1F
100
AcDbEntity
  8
0
  6
Continuous
 62
     7
370
    15
100
AcDbCircle
 10
60.4641686614
 20
117.5234203279
 30
0.0
 40
31.50000000000004
100
AcDbArc
 50
286.601549599
 51
75.2875420391
  0
SPLINE
  5
2D0
330
1F
100
AcDbEntity
  8
0
  6
Continuous
 62
     7
370
    15
100
AcDbSpline
210
0.0
220
0.0
230
1.0
 70
    24
 71
     3
 72
    12
 73
     8
 74
     0
 42
0.00000001
 43
0.00000001
 40
0.0
 40
0.0
 40
0.0
 40
0.0
 40
0.2500000000000019
 40
0.2500000000000019
 40
0.5000000000000039
 40
0.5000000000000039
 40
1.0
 40
1.0
 40
1.0
 40
1.0
 10
69.46416866141129
 20
87.33650263169642
 30
0.0
 10
69.46416866141129
 20
87.3365026316964
 30
0.0
 10
69.46416866141129
 20
87.35361971796223
 30
0.0
 10
69.46416866141129
 20
87.41835582943735
 30
0.0
 10
69.46416866141129
 20
87.46581307231769
 30
0.0
 10
69.46416866141129
 20
87.64263751485717
 30
0.0
 10
69.46416866141129
 20
87.80291402206288
 30
0.0
 10
69.46416866141129
 20
87.96314292735063
 30
0.0
  0
LINE
  5
2D1
330
1F
100
AcDbEntity
  8
0
  6
Continuous
 62
     7
370
    15
100
AcDbLine
 10
68.4641686614
 20
143.9234203279
 30
0.0
 11
52.4641686614
 21
143.9234203279
 31
0.0
  0
LINE
  5
2D2
330
1F
100
AcDbEntity
  8
0
  6
Continuous
 62
     7
370
    15
100
AcDbLine
 10
69.4641686614
 20
91.1234203279
 30
0.0
 11
63.2437264452
 21
91.1234203279
 31
0.0
  0
LINE
  5
2D3
330
1F
100
AcDbEntity
  8
0
  6
Continuous
 62
     7
370
    15
100
AcDbLine
 10
60.0631864647
 20
91.1234203279
 30
0.0
 11
51.4641686614
 21
91.1234203279
 31
0.0
  0
LINE
  5
2D4
330
1F
100
AcDbEntity
  8
0
  6
Continuous
 62
     7
370
    15
100
AcDbLine
 10
68.4641686614
 20
147.3698606517
 30
0.0
 11
68.4641686614
 21
143.9234203279
 31
0.0
  0
LINE
  5
2D5
330
1F
100
AcDbEntity
  8
0
  6
Continuous
 62
     7
370
    15
100
AcDbLine
 10
69.4641686614
 20
87.9631429274
 30
0.0
 11
69.4641686614
 21
91.1234203279
 31
0.0
  0
LINE
  5
2D6
330
1F
100
AcDbEntity
  8
0
  6
Continuous
 62
     7
370
    15
100
AcDbLine
 10
52.4641686614
 20
143.9234203279
 30
0.0
 11
52.4641686614
 21
147.3698606517
 31
0.0
  0
LINE
  5
2D7
330
1F
100
AcDbEntity
  8
0
  6
Continuous
 62
     7
370
    15
100
AcDbLine
 10
51.4641686614
 20
91.1234203279
 30
0.0
 11
51.4641686614
 21
87.9631429274
 31
0.0
  0
LINE
  5
2D8
330
1F
100
AcDbEntity
  8
0
  6
Continuous
 62
     7
370
    15
100
AcDbLine
 10
40.6141686614
 20
141.2043725892
 30
0.0
 11
40.6141686614
 21
137.3734203279
 31
0.0
  0
LINE
  5
2D9
330
1F
100
AcDbEntity
  8
0
  6
Continuous
 62
     7
370
    15
100
AcDbLine
 10
36.7832164002
 20
137.3734203279
 30
0.0
 11
40.6141686614
 21
137.3734203279
 31
0.0
  0
SPLINE
  5
2DA
330
1F
100
AcDbEntity
  8
0
  6
Continuous
 62
     7
370
    15
100
AcDbSpline
210
0.0
220
0.0
230
1.0
 70
     8
 71
     3
 72
    30
 73
    26
 74
     0
 42
0.00000001
 43
0.00000001
 40
0.0
 40
0.0
 40
0.0
 40
0.0
 40
0.1250000000000001
 40
0.1250000000000001
 40
0.1875000000000002
 40
0.1875000000000002
 40
0.2500000000000002
 40
0.2500000000000002
 40
0.3750000000000004
 40
0.3750000000000004
 40
0.4375000000000003
 40
0.4375000000000003
 40
0.5000000000000002
 40
0.5000000000000002
 40
0.6250000000000002
 40
0.6250000000000002
 40
0.6875000000000001
 40
0.6875000000000001
 40
0.75
 40
0.75
 40
0.8125
 40
0.8125
 40
0.8749999999999999
 40
0.8749999999999999
 40
1.0
 40
1.0
 40
1.0
 40
1.0
 10
61.46416866141136
 20
86.0392973450812
 30
0.0
 10
61.99558659181194
 20
86.05617626308981
 30
0.0
 10
62.51724578938611
 20
86.08619382791451
 30
0.0
 10
63.28588757654514
 20
86.14900421718761
 30
0.0
 10
63.53977737571017
 20
86.17290812441452
 30
0.0
 10
64.04285015165624
 20
86.2263434168569
 30
0.0
 10
64.29231399987289
 20
86.25595028502448
 30
0.0
 10
65.01722489746975
 20
86.35039998373891
 30
0.0
 10
65.47510223436193
 20
86.42142737756812
 30
0.0
 10
66.12486945984477
 20
86.5354416642739
 30
0.0
 10
66.33625616325494
 20
86.57489691541446
 30
0.0
 10
66.7408899740251
 20
86.65441835818513
 30
0.0
 10
66.93363044552632
 20
86.6943545006859
 30
0.0
 10
67.48406132190325
 20
86.81329090351407
 30
0.0
 10
67.81424469918387
 20
86.89145566739792
 30
0.0
 10
68.2529205158343
 20
87.00116510766681
 30
0.0
 10
68.38871907432083
 20
87.03624594437521
 30
0.0
 10
68.63559610716699
 20
87.10148622375483
 30
0.0
 10
68.747374644495
 20
87.13182103979958
 30
0.0
 10
68.9478048343686
 20
87.18715941902141
 30
0.0
 10
69.0364571775721
 20
87.2121640955815
 30
0.0
 10
69.19012472525321
 20
87.2560439044722
 30
0.0
 10
69.25537242950506
 20
87.2749875892345
 30
0.0
 10
69.41167748286932
 20
87.32070731650468
 30
0.0
 10
69.46416866141134
 20
87.33650263169639
 30
0.0
 10
69.46416866141134
 20
87.33650263169639
 30
0.0
  0
SPLINE
  5
2DB
330
1F
100
AcDbEntity
  8
0
  6
Continuous
 62
     7
370
    15
100
AcDbSpline
210
0.0
220
0.0
230
1.0
 70
     8
 71
     3
 72
    28
 73
    24
 74
     0
 42
0.00000001
 43
0.00000001
 40
0.0
 40
0.0
 40
0.0
 40
0.0
 40
0.1250000000000001
 40
0.1250000000000001
 40
0.1875000000000001
 40
0.1875000000000001
 40
0.2500000000000001
 40
0.2500000000000001
 40
0.3750000000000002
 40
0.3750000000000002
 40
0.4375000000000003
 40
0.4375000000000003
 40
0.5000000000000003
 40
0.5000000000000003
 40
0.6250000000000003
 40
0.6250000000000003
 40
0.7500000000000003
 40
0.7500000000000003
 40
0.8125000000000002
 40
0.8125000000000002
 40
0.8750000000000002
 40
0.8750000000000002
 40
1.0
 40
1.0
 40
1.0
 40
1.0
 10
51.46416866141133
 20
87.33650263169638
 30
0.0
 10
51.46416866141133
 20
87.33650263169636
 30
0.0
 10
51.51664500372954
 20
87.32071791774618
 30
0.0
 10
51.67044195128644
 20
87.27572250366997
 30
0.0
 10
51.73431692632045
 20
87.25716750859425
 30
0.0
 10
51.88781319497699
 20
87.21331478614776
 30
0.0
 10
51.97762817037068
 20
87.18797017919555
 30
0.0
 10
52.27960696542156
 20
87.10456810144545
 30
0.0
 10
52.52556039947731
 20
87.03870254229436
 30
0.0
 10
52.96092757890569
 20
86.92973220180257
 30
0.0
 10
53.11814276107804
 20
86.89149256603592
 30
0.0
 10
53.4503073816205
 20
86.81373382861656
 30
0.0
 10
53.62511464722338
 20
86.77423286644122
 30
0.0
 10
54.1751738378092
 20
86.65532512407523
 30
0.0
 10
54.57579722220467
 20
86.5755074426506
 30
0.0
 10
55.44838333355338
 20
86.42216428085455
 30
0.0
 10
55.90851878115496
 20
86.35083052758529
 30
0.0
 10
56.62848487512114
 20
86.25688702051067
 30
0.0
 10
56.87375858515566
 20
86.22769322715074
 30
0.0
 10
57.37521492158449
 20
86.17422665288731
 30
0.0
 10
57.63264629095702
 20
86.14986731861215
 30
0.0
 10
58.40858608682151
 20
86.08627717316742
 30
0.0
 10
58.93281448672754
 20
86.05617423807819
 30
0.0
 10
59.46416866141136
 20
86.03929734508122
 30
0.0
  0
SPLINE
  5
2DC
330
1F
100
AcDbEntity
  8
0
  6
Continuous
 62
     7
370
    15
100
AcDbSpline
210
0.0
220
0.0
230
1.0
 70
     8
 71
     3
 72
    50
 73
    46
 74
     0
 42
0.00000001
 43
0.00000001
 40
0.0
 40
0.0
 40
0.0
 40
0.0
 40
0.0625000000000001
 40
0.0625000000000001
 40
0.0937500000000001
 40
0.0937500000000001
 40
0.1250000000000001
 40
0.1250000000000001
 40
0.1874999999999998
 40
0.1874999999999998
 40
0.2187499999999997
 40
0.2187499999999997
 40
0.2499999999999996
 40
0.2499999999999996
 40
0.3124999999999995
 40
0.3124999999999995
 40
0.3749999999999994
 40
0.3749999999999994
 40
0.4062499999999994
 40
0.4062499999999994
 40
0.4374999999999993
 40
0.4374999999999993
 40
0.4999999999999993
 40
0.4999999999999993
 40
0.5624999999999993
 40
0.5624999999999993
 40
0.6249999999999993
 40
0.6249999999999993
 40
0.6562499999999993
 40
0.6562499999999993
 40
0.6874999999999993
 40
0.6874999999999993
 40
0.7187499999999994
 40
0.7187499999999994
 40
0.7499999999999994
 40
0.7499999999999994
 40
0.8124999999999997
 40
0.8124999999999997
 40
0.8749999999999998
 40
0.8749999999999998
 40
0.9374999999999999
 40
0.9374999999999999
 40
0.9687499999999999
 40
0.9687499999999999
 40
1.0
 40
1.0
 40
1.0
 40
1.0
 10
52.46416866141134
 20
147.9906158011078
 30
0.0
 10
52.46416866141134
 20
147.9906158011078
 30
0.0
 10
52.5164628033644
 20
148.004481904489
 30
0.0
 10
52.66981533819717
 20
148.043919047373
 30
0.0
 10
52.73351283354838
 20
148.060171749638
 30
0.0
 10
52.8866044838382
 20
148.0985204594884
 30
0.0
 10
52.97626058579901
 20
148.1206739058964
 30
0.0
 10
53.27784197397307
 20
148.1934298517585
 30
0.0
 10
53.52358340440704
 20
148.2507105546032
 30
0.0
 10
53.95874347075772
 20
148.344702994059
 30
0.0
 10
54.11588429821889
 20
148.3775619612522
 30
0.0
 10
54.4485233909432
 20
148.4441380147004
 30
0.0
 10
54.62358934638323
 20
148.4777814525393
 30
0.0
 10
55.17444487708484
 20
148.5783423171164
 30
0.0
 10
55.57562928627149
 20
148.6449051268665
 30
0.0
 10
56.44911849235889
 20
148.7696041821661
 30
0.0
 10
56.91115908534132
 20
148.8261271912367
 30
0.0
 10
57.63227449893525
 20
148.8967961258515
 30
0.0
 10
57.87783513661863
 20
148.918072335923
 30
0.0
 10
58.37962343577682
 20
148.9553780621649
 30
0.0
 10
58.63738465209348
 20
148.9714692590249
 30
0.0
 10
59.41249711631325
 20
149.0101107306326
 30
0.0
 10
59.93292630003293
 20
149.023300149189
 30
0.0
 10
60.9810621408183
 20
149.0235388726471
 30
0.0
 10
61.51357047119206
 20
149.0101388699429
 30
0.0
 10
62.54126073335865
 20
148.9590748817478
 30
0.0
 10
63.0410249139404
 20
148.9216357469936
 30
0.0
 10
63.76951991396085
 20
148.8504722640751
 30
0.0
 10
64.00887090640633
 20
148.8242038058826
 30
0.0
 10
64.4701093778932
 20
148.7685223331303
 30
0.0
 10
64.69337603296046
 20
148.7389845611945
 30
0.0
 10
65.12556363898254
 20
148.6773774161667
 30
0.0
 10
65.33448421922252
 20
148.6453064734455
 30
0.0
 10
65.73790914474623
 20
148.5794894964762
 30
0.0
 10
65.93338880471558
 20
148.5455592780129
 30
0.0
 10
66.48924701825182
 20
148.4441306504327
 30
0.0
 10
66.81880440488338
 20
148.3772116217426
 30
0.0
 10
67.39819990266933
 20
148.2521860594008
 30
0.0
 10
67.64971987411371
 20
148.1936092651667
 30
0.0
 10
68.05117437072727
 20
148.0967744135218
 30
0.0
 10
68.20365736627438
 20
148.0580194539626
 30
0.0
 10
68.35896831544962
 20
148.0180919235263
 30
0.0
 10
68.39848176285577
 20
148.0078001322758
 30
0.0
 10
68.45099511015154
 20
147.9940839197368
 30
0.0
 10
68.46416866141135
 20
147.9906158011078
 30
0.0
 10
68.46416866141135
 20
147.9906158011078
 30
0.0
  0
SPLINE
  5
2DD
330
1F
100
AcDbEntity
  8
0
  6
Continuous
 62
     7
370
    15
100
AcDbSpline
210
0.0
220
0.0
230
1.0
 70
     8
 71
     3
 72
    20
 73
    16
 74
     0
 42
0.00000001
 43
0.00000001
 40
0.0
 40
0.0
 40
0.0
 40
0.0
 40
0.2499999999999995
 40
0.2499999999999995
 40
0.3749999999999996
 40
0.3749999999999996
 40
0.4999999999999997
 40
0.4999999999999997
 40
0.6249999999999998
 40
0.6249999999999998
 40
0.7499999999999998
 40
0.7499999999999998
 40
0.8749999999999999
 40
0.8749999999999999
 40
1.0
 40
1.0
 40
1.0
 40
1.0
 10
36.00547899904394
 20
137.3734203279436
 30
0.0
 10
36.53613576687862
 20
138.027282756241
 30
0.0
 10
37.06986376314014
 20
138.6310685382381
 30
0.0
 10
37.85283608112888
 20
139.4579072744067
 30
0.0
 10
38.11081968122555
 20
139.7203359123596
 30
0.0
 10
38.61521493763338
 20
140.2169985664646
 30
0.0
 10
38.85799336006139
 20
140.4475854454861
 30
0.0
 10
39.30867343957445
 20
140.8641396700687
 30
0.0
 10
39.51813730556572
 20
141.0516374720362
 30
0.0
 10
39.89642582215376
 20
141.3830344496727
 30
0.0
 10
40.06017350833824
 20
141.5225384371679
 30
0.0
 10
40.32835931053768
 20
141.7479919446389
 30
0.0
 10
40.43358371862443
 20
141.8346180561825
 30
0.0
 10
40.57764294393794
 20
141.9525988450366
 30
0.0
 10
40.61416866141133
 20
141.982109990311
 30
0.0
 10
40.61416866141133
 20
141.982109990311
 30
0.0
  0
ARC
  5
2DE
330
1F
100
AcDbEntity
  8
0
  6
Continuous
 62
     7
370
    15
100
AcDbCircle
 10
60.4641686614
 20
117.5234203279
 30
0.0
 40
31.50000000000001
100
AcDbArc
 50
268.180780706
 51
271.819219294
  0
CIRCLE
  5
2DF
330
1F
100
AcDbEntity
  8
VERMASSUNG
  6
CENTERX2
100
AcDbCircle
 10
60.4641686614
 20
115.5234803097
 30
0.0
 40
25.00000000000001
  0
DIMENSION
  5
2E0
330
1F
100
AcDbEntity
  8
VERMASSUNG
100
AcDbDimension
  2
*D6
 10
24.6486243645
 20
140.5234803097
 30
0.0
 11
24.6486243645
 21
115.5234803097
 31
0.0
 70
   160
  1
%%c<>
 71
     2
 42
-1.0
  3
SLDDIMSTYLE2
100
AcDbAlignedDimension
 13
60.4641686614
 23
90.5234803097
 33
0.0
 14
60.4641686614
 24
140.5234803097
 34
0.0
 50
90.0
100
AcDbRotatedDimension
  0
INSERT
  5
2F7
330
1F
100
AcDbEntity
  8
VERMASSUNG
100
AcDbBlockReference
  2
SW_CENTERMARKSYMBOL_0
 10
60.4641686614
 20
117.5234203279
 30
0.0
  0
OLE2FRAME
  5
2F8
330
1F
100
AcDbEntity
  8
0
100
AcDbOle2Frame
 70
     2
  3
Bitmap Image
 10
13.8511154363
 20
38.264191557
 30
0.0
 11
51.6290888628
 21
31.9806341108
 31
0.0
 71
     2
 72
     0
 73
     1
 90
    12928
310
80552BED0767C5B32B40DDAF6807D121434000000000000000006FFBDDFB85D0
310
4940DDAF6807D121434000000000000000006FFBDDFB85D04940416F4BD60AFB
310
3F4000000000000000002BED0767C5B32B40416F4BD60AFB3F40000000000000
310
0000000000000100000000010000010000000100000000000100000000320000
310
D0CF11E0A1B11AE1000000000000000000000000000000003E000300FEFF0900
310
0600000000000000000000000100000001000000000000000010000002000000
310
01000000FEFFFFFF0000000000000000FFFFFFFFFFFFFFFFFFFFFFFFFFFFFFFF
310
FFFFFFFFFFFFFFFFFFFFFFFFFFFFFFFFFFFFFFFFFFFFFFFFFFFFFFFFFFFFFFFF
310
FFFFFFFFFFFFFFFFFFFFFFFFFFFFFFFFFFFFFFFFFFFFFFFFFFFFFFFFFFFFFFFF
310
FFFFFFFFFFFFFFFFFFFFFFFFFFFFFFFFFFFFFFFFFFFFFFFFFFFFFFFFFFFFFFFF
310
FFFFFFFFFFFFFFFFFFFFFFFFFFFFFFFFFFFFFFFFFFFFFFFFFFFFFFFFFFFFFFFF
310
FFFFFFFFFFFFFFFFFFFFFFFFFFFFFFFFFFFFFFFFFFFFFFFFFFFFFFFFFFFFFFFF
310
FFFFFFFFFFFFFFFFFFFFFFFFFFFFFFFFFFFFFFFFFFFFFFFFFFFFFFFFFFFFFFFF
310
FFFFFFFFFFFFFFFFFFFFFFFFFFFFFFFFFFFFFFFFFFFFFFFFFFFFFFFFFFFFFFFF
310
FFFFFFFFFFFFFFFFFFFFFFFFFFFFFFFFFFFFFFFFFFFFFFFFFFFFFFFFFFFFFFFF
310
FFFFFFFFFFFFFFFFFFFFFFFFFFFFFFFFFFFFFFFFFFFFFFFFFFFFFFFFFFFFFFFF
310
FFFFFFFFFFFFFFFFFFFFFFFFFFFFFFFFFFFFFFFFFFFFFFFFFFFFFFFFFFFFFFFF
310
FFFFFFFFFFFFFFFFFFFFFFFFFFFFFFFFFFFFFFFFFFFFFFFFFFFFFFFFFFFFFFFF
310
FFFFFFFFFFFFFFFFFFFFFFFFFFFFFFFFFFFFFFFFFFFFFFFFFFFFFFFFFFFFFFFF
310
FFFFFFFFFFFFFFFFFFFFFFFFFFFFFFFFFFFFFFFFFFFFFFFFFFFFFFFFFFFFFFFF
310
FDFFFFFFFEFFFFFFFEFFFFFFFEFFFFFF05000000060000000700000008000000
310
090000000A0000000B0000000C0000000D0000000E0000000F00000010000000
310
11000000120000001300000014000000150000001600000017000000FEFFFFFF
310
FFFFFFFFFFFFFFFFFFFFFFFFFFFFFFFFFFFFFFFFFFFFFFFFFFFFFFFFFFFFFFFF
310
FFFFFFFFFFFFFFFFFFFFFFFFFFFFFFFFFFFFFFFFFFFFFFFFFFFFFFFFFFFFFFFF
310
FFFFFFFFFFFFFFFFFFFFFFFFFFFFFFFFFFFFFFFFFFFFFFFFFFFFFFFFFFFFFFFF
310
FFFFFFFFFFFFFFFFFFFFFFFFFFFFFFFFFFFFFFFFFFFFFFFFFFFFFFFFFFFFFFFF
310
FFFFFFFFFFFFFFFFFFFFFFFFFFFFFFFFFFFFFFFFFFFFFFFFFFFFFFFFFFFFFFFF
310
FFFFFFFFFFFFFFFFFFFFFFFFFFFFFFFFFFFFFFFFFFFFFFFFFFFFFFFFFFFFFFFF
310
FFFFFFFFFFFFFFFFFFFFFFFFFFFFFFFFFFFFFFFFFFFFFFFFFFFFFFFFFFFFFFFF
310
FFFFFFFFFFFFFFFFFFFFFFFFFFFFFFFFFFFFFFFFFFFFFFFFFFFFFFFFFFFFFFFF
310
FFFFFFFFFFFFFFFFFFFFFFFFFFFFFFFFFFFFFFFFFFFFFFFFFFFFFFFFFFFFFFFF
310
FFFFFFFFFFFFFFFFFFFFFFFFFFFFFFFFFFFFFFFFFFFFFFFFFFFFFFFFFFFFFFFF
310
FFFFFFFFFFFFFFFFFFFFFFFFFFFFFFFFFFFFFFFFFFFFFFFFFFFFFFFFFFFFFFFF
310
FFFFFFFFFFFFFFFFFFFFFFFFFFFFFFFFFFFFFFFFFFFFFFFFFFFFFFFFFFFFFFFF
310
FFFFFFFFFFFFFFFFFFFFFFFFFFFFFFFFFFFFFFFFFFFFFFFFFFFFFFFFFFFFFFFF
310
52006F006F007400200045006E00740072007900000000000000000000000000
310
0000000000000000000000000000000000000000000000000000000000000000
310
16000500FFFFFFFFFFFFFFFF020000000A00030000000000C000000000000046
310
000000000000000000000000807ACC9097D9CB0103000000C000000000000000
310
01004F006C006500000000000000000000000000000000000000000000000000
310
0000000000000000000000000000000000000000000000000000000000000000
310
0A000200FFFFFFFFFFFFFFFFFFFFFFFF00000000000000000000000000000000
310
0000000000000000000000000000000000000000000000001400000000000000
310
010043006F006D0070004F0062006A0000000000000000000000000000000000
310
0000000000000000000000000000000000000000000000000000000000000000
310
120002010100000003000000FFFFFFFF00000000000000000000000000000000
310
0000000000000000000000000000000000000000010000004D00000000000000
310
01004F006C006500310030004E00610074006900760065000000000000000000
310
0000000000000000000000000000000000000000000000000000000000000000
310
1A000200FFFFFFFFFFFFFFFFFFFFFFFF00000000000000000000000000000000
310
0000000000000000000000000000000000000000040000002426000000000000
310
FEFFFFFF02000000FEFFFFFFFFFFFFFFFFFFFFFFFFFFFFFFFFFFFFFFFFFFFFFF
310
FFFFFFFFFFFFFFFFFFFFFFFFFFFFFFFFFFFFFFFFFFFFFFFFFFFFFFFFFFFFFFFF
310
FFFFFFFFFFFFFFFFFFFFFFFFFFFFFFFFFFFFFFFFFFFFFFFFFFFFFFFFFFFFFFFF
310
FFFFFFFFFFFFFFFFFFFFFFFFFFFFFFFFFFFFFFFFFFFFFFFFFFFFFFFFFFFFFFFF
310
FFFFFFFFFFFFFFFFFFFFFFFFFFFFFFFFFFFFFFFFFFFFFFFFFFFFFFFFFFFFFFFF
310
FFFFFFFFFFFFFFFFFFFFFFFFFFFFFFFFFFFFFFFFFFFFFFFFFFFFFFFFFFFFFFFF
310
FFFFFFFFFFFFFFFFFFFFFFFFFFFFFFFFFFFFFFFFFFFFFFFFFFFFFFFFFFFFFFFF
310
FFFFFFFFFFFFFFFFFFFFFFFFFFFFFFFFFFFFFFFFFFFFFFFFFFFFFFFFFFFFFFFF
310
FFFFFFFFFFFFFFFFFFFFFFFFFFFFFFFFFFFFFFFFFFFFFFFFFFFFFFFFFFFFFFFF
310
FFFFFFFFFFFFFFFFFFFFFFFFFFFFFFFFFFFFFFFFFFFFFFFFFFFFFFFFFFFFFFFF
310
FFFFFFFFFFFFFFFFFFFFFFFFFFFFFFFFFFFFFFFFFFFFFFFFFFFFFFFFFFFFFFFF
310
FFFFFFFFFFFFFFFFFFFFFFFFFFFFFFFFFFFFFFFFFFFFFFFFFFFFFFFFFFFFFFFF
310
FFFFFFFFFFFFFFFFFFFFFFFFFFFFFFFFFFFFFFFFFFFFFFFFFFFFFFFFFFFFFFFF
310
FFFFFFFFFFFFFFFFFFFFFFFFFFFFFFFFFFFFFFFFFFFFFFFFFFFFFFFFFFFFFFFF
310
FFFFFFFFFFFFFFFFFFFFFFFFFFFFFFFFFFFFFFFFFFFFFFFFFFFFFFFFFFFFFFFF
310
FFFFFFFFFFFFFFFFFFFFFFFFFFFFFFFFFFFFFFFFFFFFFFFFFFFFFFFFFFFFFFFF
310
0100000200000000000000000000000000000000610072007E0182005C003104
310
80C74E3100000000C802250000000000680061007200650064005C003B004300
310
0100FEFF030A0000FFFFFFFF0A00030000000000C00000000000004607000000
310
5042727573680007000000504272757368000700000050427275736800F439B2
310
71000000000000000000000000004100540049002E004100430045005C004300
310
6F00720065002D005300740061007400690063003B0043003A005C0050007200
310
6F006700720061006D002000460069006C006500730020002800780038003600
310
29005C0043006F006D006D006F006E002000460069006C00650073005C004100
310
750074006F006400650073006B0020005300680061007200650064005C003B00
310
43003A005C00500072006F006700720061006D002000460069006C0065007300
310
5C004E006F0072006D0061006E005C004E0070006D005C00420069006E000000
310
43003A005C00500072006F006700720061006D002000460069006C0065007300
310
5C0053006F006C006900640057006F0072006B007300200043006F0072007000
310
5C0053006F006C006900640057006F0072006B00730020002800320029005C00
310
730065007400750070005C0069003300380036005C0073007700610063007400
310
770069007A002E006500780065000000220043003A005C00500072006F006700
310
20260000424D0E260000000000003E00000028000000B40200006E0000000100
310
01000000000000000000130B0000130B00000200000002000000000000FFFFFF
310
FFFFFFFFFFFFFFFFFFFFFFFFFFFFFFFFFFFFFFFFFFFFFFFFFFFFFFFFFFFFFFFF
310
FFFFFFFFFFFFFFFFFFFFFFFFFFFFFFFFFFFFFFFFFFFFFFFFFFFFFFFFFFFFFFFF
310
FFFFFFFFFFFFFFFFFFFFFFFFFFFFFFFFFFFFFFFFFFFFFFFFF000FFFFFFFFFFFF
310
FFFFFFFFFFFFFFFFFFFFFFFFFFFFFFFFFFFFFFFFFFFFFFFFFFFFFFFFFFFFFFFF
310
FFFFFFFFFFFFFFFFFFFFFFFFFFFFFFFFFFFFFFFFFFFFFFFFFFFFFFFFFFFFFFFF
310
FFFFFFFFFFFFFFFFFFFFFFFFFFFFFFFFF000FFFFFFFFFFFFFFFFFFFFFFFFFFFF
310
FFFFFFFFFFFFFFFFFFFFFFFFFFFFFFFFFFFFFFFFFFFFFFFFFFFFFFFFFFFFFFFF
310
FFFFFFFFFFFFFFFFFFFFFFFFFFFFFFFFFFFFFFFFFFFFFFFFFFFFFFFFFFFFFFFF
310
FFFFFFFFFFFFFFFFF000FFFFFFFFFFFFFFFFFFFFFFFFFFFFFFFFFFFFFFFFFFFF
310
FFFFFFFFFFFFFFFFFFFFFFFFFFFFFFFFFFFFFFFFFFFFFFFFFFFFFFFFFFFFFFFF
310
FFFFFFFFFFFFFFFFFFFFFFFFFFFFFFFFFFFFFFFFFFFFFFFFFFFFFFFFFFFFFFFF
310
F000FFFFFFFFFFFFFFFFFFFFFFFFFFFFFFFFFFFFFFFFFFFFFFFFFFFFFFFFFFFF
310
FFFFFFFFFFFFFFFFFFFFFFFFFFFFFFFFFFFFFFFFFFFFFFFFFFFFFFFFFFFFFFFF
310
FFFFFFFFFFFFFFFFFFFFFFFFFFFFFFFFFFFFFFFFFFFFFFFFF000FFFFFFFFFFFF
310
FFFFFFFFFFFFFFFFFFFFFFFFFFFFFFFFFFFFFFFFFFFFFFFFFFFFFFFFFFFFFFFF
310
FFFFFFFFFFFFFFFFFFFFFFFFFFFFFFFFFFFFFFFFFFFFFFFFFFFFFFFFFFFFFFFF
310
FFFFFFFFFFFFFFFFFFFFFFFFFFFFFFFFF000FFFFFFFFFFFFFFFFFFFFFFFFFFFF
310
FFFFFFFFFFFFFFFFFFFFFFFFFFFFFFFFFFFFFFFFFFFFFFFFFFFFFFFFFFFFFFFF
310
FFFFFFFFFFFFFFFFFFFFFFFFFFFFFFFFFFFFFFFFFFFFFFFFFFFFFFFFFFFFFFFF
310
FFFFFFFFFFFFFFFFF000FFFFFFFFFFFFFFFFFFFFFFFFFFFFFFFFFFFFFFFFFFFF
310
FFFFFFFFFFFFFFFFFFFFFFFFFFFFFFFFFFFFFFFFFFFFFFFFFFFFFFFFFFFFFFFF
310
FFFFFFFFFFFFFFFFFFFFFFFFFFFFFFFFFFFFFFFFFFFFFFFFFFFFFFFFFFFFFFFF
310
F000FFFFFFFFFFFFFFFFFFFFFFFFFFFFFFFFFFFFFFFFFFFFFFFFFFFFFFFFFFFF
310
FFFFFFFFFFFFFFFFFFFFFFFFFFFFFFFFFFFFFFFFFFFFFFFFFFFFFFFFFFFFFFFF
310
FFFFFFFFFFFFFFFFFFFFFFFFFFFFFFFFFFFFFFFFFFFFFFFFF000FFFFFFFFFFFF
310
FFFFFFFFFFFFFFFFFFFFFFFFFFFFFFFFFFFFFFFFFFFFFFFFFFFFFFFFFFFFFFFF
310
FFFFFFFFFFFFFFFFFFFFFFFFFFFFFFFFFFFFFFFFFFFFFFFFFFFFFFFFFFFFFFFF
310
FFFFFFFFFFFFFFFFFFFFFFFFFFFFFFFFF000FFFFFFFFFFFFFFFFFFFFFFFFFFFF
310
FFFFFFFFFFFFFFFFFFFFFFFFFFFFFFFFFFFFFFFFFFFFFFFFFFFFFFFFFFFFFFFF
310
FFFFFFFFFFFFFFFFFFFFFFFFFFFFFFFFFFFFFFFFFFFFFFFFFFFFFFFFFFFFFFFF
310
FFFFFFFFFFFFFFFFF000FFFFFFFFFFFFFFFFFFFFFFFFFFFFFFFFFFFFFFFFFFFF
310
FFFFFFFFFFFFFFFFFFFFFFFFFFFFFFFFFFFFFFFFFFFFFFFFFFFFFFFFFFFFFFFF
310
FFFFFFFFFFFFFFFFFFFFFFFFFFFFFFFFFFFFFFFFFFFFFFFFFFFFFFFFFFFFFFFF
310
F000FFFFFFFFFFFFFFFFFFFFFFFFFFFFFFFFFFFFFFFFFFFFFFFFFFFFFFFFFFFF
310
FFFFFFFFFFFFFFFFFFFFFFFFFFFFFFFFFFFFFFFFFFFFFFFFFFFFFFFFFFFFFFFF
310
FFFFFFFFFFFFFFFFFFFFFFFFFFFFFFFFFFFFFFFFFFFFFFFFF000FFFFFFFFFFFF
310
FFFFFFFFFFFFFFFFFFFFFFFFFFFFFFFFFFFFFFFFFFFFFFFFFFFFFFFFFFFFFFFF
310
FFFFFFFFFFFFFFFFFFFFFFFFFFFFFFFFFFFFFFFFFFFFFFFFFFFFFFFFFFFFFFFF
310
FFFFFFFFFFFFFFFFFFFFFFFFFFFFFFFFF000FFFFFFFFFFFFFFFFFFFFFFFFFFFF
310
FFFFFFFFFFFFFFFFFFFFFFFFFFFFFFFFFFFFFFFFFFFFFFFFFFFFFFFFFFFFFFFF
310
FFFFFFFFFFFFFFFFFFFFFFFFFFFFFFFFFFFFFFFFFFFFFFFFFFFFFFFFFFFFFFFF
310
FFFFFFFFFFFFFFFFF000FFFFFFFFFFFFFFFFFFFFFFFFFFFFFFFFFFFFFFFFFFFF
310
FFFFFFFFFFFFFFFFFFFFFFFFFFFFFFFFFFFFFFFFFFFFFFFFFFFFFFFFFFFFFFFF
310
FFFFFFFFFFFFFFFFFFFFFFFFFFFFFFFFFFFFFFFFFFFFFFFFFFFFFFFFFFFFFFFF
310
F000FFFFFFFFFFFFFFFFFFFFFFFFFFFFFFFFFFFFFFFFFFFFFFFFFFFFFFFFFFFF
310
FFFFFFFFFFFFFFFFFFFFFFFFFFFFFFFFFFFFFFFFFFFFFFFFFFFFFFFFFFFFFFFF
310
FFFFFFFFFFFFFFFFFFFFFFFFFFFFFFFFFFFFFFFFFFFFFFFFF000FFFFFFFFFFFF
310
FFFFFFFFFFFFFFFFFFFFFFFFFFFFFFFFFFFFFFFFFFFFFFFFFFFFFFFFFFFFFFFF
310
FFFFFFFFFFFFFFFFFFFFFFFFFFFFFFFFFFFFFFFFFFFFFFFFFFFFFFFFFFFFFFFF
310
FFFFFFFFFFFFFFFFFFFFFFFFFFFFFFFFF000FFFFFFFFFFFFFFFFFFFFFFFFFFFF
310
FFFFFFFFFFFFFFFFFFFFFFFFFFFFFFFFFFFFFFFFFFFFFFFFFFFFFFFFFFFFFFFF
310
FFFFFFFFFFFFFFFFFFFFFFFFFFFFFFFFFFFFFFFFFFFFFFFFFFFFFFFFFFFFFFFF
310
FFFFFFFFFFFFFFFFF000FFFFF80003FFFFFFFFFFFFFFFFFFFFFFFFFFFFFFFFFF
310
FFFFF00007FFFFFFFFFF00007FFFFFF800000000000000007FFFFFFFFFFFFFFF
310
FFFFFFFC001FFFFFFFFFFFFFFC001FFFFFFFFFFFFFFFFFFFFFFFFFFE0007FFFF
310
F000FFFF8000007FFFFFFFF8000FFFFFC0007FFFFF80007FFFFF0000007FFFFF
310
FFF8000007FFFFF800000000000000007FFFFFF0001FFFFFFFFFFFC00001FFFF
310
FFFFFFFFC00001FFFFFFFF000000000003FFFFE000007FFFF000FFFE0000000F
310
FFFFFFF0000FFFFF80007FFFFF80007FFFFC0000001FFFFFFFC0000001FFFFF8
310
00000000000000007FFFFFF0001FFFFFFFFFFE0000003FFFFFFFFFFE0000003F
310
FFFFFF000000000003FFFF0000000FFFF000FFF800000003FFFFFFF00007FFFF
310
80007FFFFF80007FFFF000000007FFFFFF000000003FFFF80000000000000000
310
7FFFFFF0001FFFFFFFFFF80000000FFFFFFFFFF80000000FFFFFFF0000000000
310
03FFFC00000003FFF000FFE000000000FFFFFFF00007FFFF80003FFFFF80007F
310
FFC000000001FFFFFC000000001FFFF800000000000000007FFFFFF0001FFFFF
310
FFFFE000000003FFFFFFFFE000000003FFFFFF000000000003FFF000000000FF
310
F000FF80000000007FFFFFF00007FFFF80003FFFFF80007FFF8000000000FFFF
310
F80000000007FFF800000000000000007FFFFFF0001FFFFFFFFFC000000001FF
310
FFFFFFC000000001FFFFFF000000000003FFC0000000007FF000FF0000000000
310
3FFFFFE00007FFFF00003FFFFF80007FFE00000000003FFFF00000000003FFF8
310
00000000000000007FFFFFF0001FFFFFFFFF8000000000FFFFFFFF8000000000
310
FFFFFF000000000003FF80000000003FF000FE00000000001FFFFFE00003FFFF
310
00003FFFFF80007FFC00000000001FFFE00000000001FFF8000001FFFE000000
310
7FFFFFF0001FFFFFFFFE00000000003FFFFFFE00000000003FFFFF0000000000
310
03FF00000000001FF000FC00000000000FFFFFE00003FFFF00001FFFFF80007F
310
F800000000001FFFC00000000000FFF8000001FFFE0000007FFFFFF0001FFFFF
310
FFFC00000000001FFFFFFC00000000001FFFFF000000000003FE00000000000F
310
F000F8000000000007FFFFE00003FFFF00001FFFFF80007FF800000000000FFF
310
800000000000FFF8000001FFFE0000007FFFFFF0001FFFFFFFF800000000000F
310
FFFFF800000000000FFFFF000000000003FC000000000007F000F80000000000
310
03FFFFC00003FFFE00001FFFFF80007FF0000000000007FF0000000000007FF8
310
000001FFFE0000007FFFFFF0001FFFFFFFF0000000000007FFFFF00000000000
310
07FFFF000000000003F8000000000003F000F0000000000003FFFFC00001FFFE
310
00001FFFFF80007FE0000000000007FE0000000000003FF8000001FFFE000000
310
7FFFFFF0001FFFFFFFF0000000000007FFFFF0000000000007FFFF0000000000
310
03F800001F800003F000E00001FFF00001FFFFC00001FFFE00000FFFFF80007F
310
E00001FFE00003FE00001FFF00003FF8000001FFFE0000007FFFFFF0001FFFFF
310
FFE000003E000003FFFFE000003E000003FFFF000000000003F00001FFF80001
310
F000E00007FFFC0001FFFFC00001FFFE00000FFFFF80007FC0000FFFFC0003FC
310
0000FFFFC0001FF8000001FFFE0000007FFFFFF0001FFFFFFFC00003FFE00001
310
FFFFC00003FFE00001FFFF0001FFFFFFFFF00007FFFE0001F000E0000FFFFF00
310
00FFFF800001FFFC00000FFFFF80007FC0001FFFFE0001FC0001FFFFE0001FF8
310
000001FFFE0000007FFFFFF0001FFFFFFF80000FFFF80000FFFF80000FFFF800
310
00FFFF0003FFFFFFFFE0000FFFFF8000F000C0003FFFFF8000FFFF800000FFFC
310
000007FFFF80007F80003FFFFF0001FC0003FFFFF0001FF8000001FFFE000000
310
7FFFFFF0001FFFFFFF80003FFFFE0000FFFF80003FFFFE0000FFFF0003FFFFFF
310
FFE0003FFFFF8000F000C0003FFFFF8000FFFF800000FFFC000007FFFF80007F
310
80007FFFFF8001F80007FFFFF8000FF8000001FFFE0000007FFFFFF0001FFFFF
310
FF00007FFFFF00007FFF00007FFFFF00007FFF0003FFFFFFFFE0003FFFFFC000
310
F000C0007FFFFFC000FFFF000000FFFC000007FFFF80007F8000FFFFFF8000F8
310
000FFFFFF8000FF8000001FFFE0000007FFFFFF0001FFFFFFF0000FFFFFF8000
310
7FFF0000FFFFFF80007FFF0003FFFFFFFFC0007FFFFFC00070008000FFFFFFC0
310
00FFFF000000FFF8000007FFFF80007F8000FFFFFF8000F8000FFFFFF8000FF8
310
000001FFFE0000007FFFFFF0001FFFFFFE0001FFFFFFC0003FFE0001FFFFFFC0
310
003FFF0003FFFFFFFFC0007FFFFFE00070008000FFFFFFC0007FFF0000007FF8
310
000003FFFF80007F0001FFFFFF8000F8000FFFFFF8000FF8000001FFFE000000
310
7FFFFFF0001FFFFFFE0001FFFFFFC0003FFE0001FFFFFFC0003FFF0003FFFFFF
310
FFC000FFFFFFE00070008000FFFFFFC0007FFF0000007FF8000003FFFF80007F
310
0001FFFFFF8000F8001FFFFFF8000FF8000001FFFE0000007FFFFFF0001FFFFF
310
FE0003FFFFFFE0003FFE0003FFFFFFE0003FFF0003FFFFFFFFC000FFFFFFE000
310
70008000FFFFFFC0007FFE0000007FF8000003FFFF80007F0001FFFFFF8000F0
310
001FFFFFF8000FF8000001FFFE0000007FFFFFF0001FFFFFFC0003FFFFFFE000
310
1FFC0003FFFFFFE0001FFF0003FFFFFFFFC000FFFFFFC00070008000FFFFFF80
310
007FFE0000007FF0000003FFFF80007F0001FFFFFF0000F0001FFFFFF8000FF8
310
000001FFFE0000007FFFFFF0001FFFFFFC0007FFFFFFF0001FFC0007FFFFFFF0
310
001FFF0003FFFFFFFFC000FFFFFFC00070008001FFFFFF0000FFFE0000003FF0
310
000001FFFF80007F0001FFFFFF0000F8001FFFFFF0000FF8000001FFFE000000
310
7FFFFFF0001FFFFFFC0007FFFFFFF0001FFC0007FFFFFFF0001FFF0003FFFFFF
310
FFC001FFFFFF80007000FFFFFFFFFE0000FFFE0008003FF0008001FFFF80007F
310
FFFFFFFFFC0000FFFFFFFFFFE0000FF8000001FFFE0000007FFFFFF0001FFFFF
310
F8000FFFFFFFF8000FF8000FFFFFFFF8000FFF0003FFFFFFFFFFFFFFFFFF0000
310
7000FFFFFFFFFC0000FFFC0008003FF0008001FFFF80007FFFFFFFFFF80001FF
310
FFFFFFFF80000FF8000001FFFE0000007FFFFFF0001FFFFFF8000FFFFFFFF800
310
0FF8000FFFFFFFF8000FFF0003FFFFFFFFFFFFFFFFFE0000F000FFFFFFFFE000
310
00FFFC000C003FE000C001FFFF80007FFFFFFFFFC00001FFFFFFFFFE00001FF8
310
000001FFFE0000007FFFFFF0001FFFFFF8000FFFFFFFF8000FF8000FFFFFFFF8
310
000FFF0003FFFFFFFFFFFFFFFFF00000F000FFFFFFFE000001FFFC000C001FE0
310
00C000FFFF80007FFFFFFFFE000001FFFFFFFFE000001FF80FFFFFFFFFFFFFC0
310
7FFFFFF0001FFFFFF8000FFFFFFFF8000FF8000FFFFFFFF8000FFF0003FFFFFF
310
FFFFFFFFFF800000F000FFFFFFC0000001FFFC001C001FE001C000FFFF80007F
310
FFFFFF80000003FFFFFFF80000001FF80FFFFFFFFFFFFFC07FFFFFF0001FFFFF
310
F8001FFFFFFFFC000FF8001FFFFFFFFC000FFF0003FFFFFFFFFFFFFFF0000001
310
F000FFFFF800000001FFF8001C001FE001C000FFFF80007FFFFFF800000003FF
310
FFFF800000003FF80FFFFFFFFFFFFFC07FFFFFF0001FFFFFF8001FFFFFFFFC00
310
0FF8001FFFFFFFFC000FFF0003FFFFFFFFFFFFFE00000001F000FFFFC0000000
310
03FFF8001E001FC001E000FFFF80007FFFFF8000000007FFFFFC000000003FF8
310
0FFFFFFFFFFFFFC07FFFFFF0001FFFFFF8001FFFFFFFFC000FF8001FFFFFFFFC
310
000FFF0003FFFFFFFFFFFFE000000003F000FFFE0000000007FFF8001E000FC0
310
01E0007FFF80007FFFFE0000000007FFFFE0000000007FF80FFFFFFFFFFFFFC0
310
7FFFFFF0001FFFFFF0001FFFFFFFFC0007F0001FFFFFFFFC0007FF0003FFFFFF
310
FFFFFF0000000003F000FFF80000000007FFF8001E000FC003E0007FFF80007F
310
FFF0000000000FFFFF8000000000FFF80FFFFFFFFFFFFFC07FFFFFF0001FFFFF
310
F0001FFFFFFFFC0007F0001FFFFFFFFC0007FF0003FFFFFFFFFFFC0000000007
310
F000FFE0000000000FFFF0003E000FC003E0007FFF80007FFFC0000000001FFF
310
FE0000000001FFF80FFFFFFFFFFFFFC07FFFFFF0001FFFFFF0001FFFFFFFFC00
310
07F0001FFFFFFFFC0007FF0003FFFFFFFFFFF0000000000FF000FFC000000000
310
1FFFF0003F000F8003F0003FFF80007FFF80000000003FFFF80000000003FFF8
310
0FFFFFFFFFFFFFC07FFFFFF0001FFFFFF0001FFFFFFFFC0007F0001FFFFFFFFC
310
0007FF0003FFFFFFFFFFE0000000001FF000FF00000000007FFFF0003F000780
310
03F0003FFF80007FFF00000000007FFFF00000000007FFF80FFFFFFFFFFFFFC0
310
7FFFFFF0001FFFFFF0001FFFFFFFFC0007F0001FFFFFFFFC0007FF0003FFFFFF
310
FFFF80000000007FF000FE0000000000FFFFE0003F00078007F0003FFF80007F
310
FE0000000001FFFFE0000000001FFFF80FFFFFFFFFFFFFC07FFFFFF0001FFFFF
310
F0001FFFFFFFFC0007F0001FFFFFFFFC0007FF0003FFFFFFFFFF0000000000FF
310
F000FC0000000003FFFFE0007F00078007F0003FFF80007FFC0000000007FFFF
310
C0000000007FFFF80FFFFFFFFFFFFFC07FFFFFF0001FFFFFF8001FFFFFFFFC00
310
0FF8001FFFFFFFFC000FFF0003FFFFFFFFFE0000000003FFF000FC000000000F
310
FFFFE0007F80070007F8001FFF80007FF8000000001FFFFF8000000001FFFFF8
310
0FFFFFFFFFFFFFC07FFFFFF0001FFFFFF8001FFFFFFFFC000FF8001FFFFFFFFC
310
000FFF0003FFFFFFFFFC000000000FFFF000F8000000007FFFFFE0007F800700
310
07F8001FFF80007FF000000000FFFFFF800000000FFFFFF80FFFFFFFFFFFFFC0
310
7FFFFFF0001FFFFFF8000FFFFFFFF8000FF8000FFFFFFFF8000FFF0003FFFFFF
310
FFFC000000007FFFF000F800000007FFFFFFC0007F8003000FF8001FFF80007F
310
F000000007FFFFFF000000007FFFFFF80FFFFFFFFFFFFFC07FFFFFF0001FFFFF
310
F8000FFFFFFFF8000FF8000FFFFFFFF8000FFF0003FFFFFFFFF80000000FFFFF
310
F000F0000000FFFFFFFFC000FF8003000FF8001FFF80007FE0000000FFFFFFFF
310
0000000FFFFFFFF8000001FFFE0000007FFFFFF0001FFFFFF8000FFFFFFFF800
310
0FF8000FFFFFFFF8000FFF0003FFFFFFFFF8000000FFFFFFF000F000000FFFFF
310
FFFFC000FFC002000FF8000FFF80007FE000001FFFFFFFFE000001FFFFFFFFF8
310
000001FFFE0000007FFFFFF0001FFFFFF8000FFFFFFFF8000FF8000FFFFFFFF8
310
000FFF0003FFFFFFFFF000001FFFFFFFF000E00000FFFFFFFFFFC000FFC00200
310
0FFC000FFF80007FE00001FFFFFFFFFE00001FFFFFFFFFF8000001FFFE000000
310
7FFFFFF0001FFFFFFC000FFFFFFFF8001FFC000FFFFFFFF8001FFF0003FFFFFF
310
FFF00001FFFFFFFFF000E00007FFFFFFFFFF8000FFC000001FFC000FFF80007F
310
C0000FFFFFFFFFFE0000FFFFFFFFFFF8000001FFFE0000007FFFFFF0001FFFFF
310
FC0007FFFFFFF0001FFC0007FFFFFFF0001FFF0003FFFFFFFFF00007FFFFFFFF
310
F000E0001FFFFFFFFFFF8000FFC000001FFC000FFF80007FC0003FFFFFFFFFFE
310
0001FFFFFFFFFFF8000001FFFE0000007FFFFFF0001FFFFFFC0007FFFFFFF000
310
1FFC0007FFFFFFF0001FFF0003FFFFFFFFF0001FFFFFFFFFF000E0003FFFFF00
310
03FF8001FFE000001FFC0007FF80007FC0007FFFFF0007FC0003FFFFF0003FF8
310
000001FFFE0000007FFFFFF0001FFFFFFC0003FFFFFFE0001FFC0003FFFFFFE0
310
001FFF0003FFFFFFFFF0003FFFFFFFFFF000E0003FFFFF0001FF8001FFE00000
310
1FFE0007FF80007FC0007FFFFE0003FC0007FFFFE0003FF8000001FFFE000000
310
7FFFFFF0001FFFFFFE0003FFFFFFE0003FFE0003FFFFFFE0003FFF0003FFFFFF
310
FFF0003FFFFF8001F000E0003FFFFF0001FF0001FFE000001FFE0007FF80007F
310
C0007FFFFE0003FC0007FFFFE0003FF8000001FFFE0000007FFFFFF0001FFFFF
310
FE0001FFFFFFC0003FFE0001FFFFFFC0003FFF0003FFFFFFFFF0003FFFFF0001
310
F000E0003FFFFF0003FF0001FFE000003FFE0007FF80007FC0007FFFFE0003FC
310
0007FFFFE0003FF8000001FFFE0000007FFFFFF0001FFFFFFF0001FFFFFFC000
310
7FFF0001FFFFFFC0007FFF0003FFFFFFFFF0003FFFFF0001F000E0003FFFFE00
310
03FF0003FFF000003FFE0003FF80007FC0007FFFFC0003FE0007FFFFE0003FF8
310
000001FFFE0000007FFFFFF0001FFFFFFF0000FFFFFF80007FFF0000FFFFFF80
310
007FFF0003FFFFFFFFF0003FFFFF0001F000E0003FFFFE0003FF0003FFF00000
310
3FFF0003FF80007FC0007FFFFC0007FE0007FFFFC0003FF8000001FFFE000000
310
7FFFFFF0001FFFFFFF80007FFFFF0000FFFF80007FFFFF0000FFFF0003FFFFFF
310
FFF0003FFFFF0003F000E0003FFFFC0003FE0003FFF000003FFF0003FF80007F
310
E0003FFFF80007FE0003FFFFC0007FF8000001FFFE0000007FFFFFF0001FFFFF
310
FF80003FFFFE0000FFFF80003FFFFE0000FFFF0003FFFFFFFFF0001FFFFE0003
310
F000F0001FFFF80003FE0003FFF000007FFF0001FF80007FE0003FFFF00007FE
310
0001FFFF80007FF8000001FFFE0000007FFFFFF0001FFFFFFFC0000FFFF80001
310
FFFFC0000FFFF80001FFFF0003FFFFFFFFF0001FFFFC0003F000F0000FFFF000
310
07FE0007FFF800007FFF0001FF80007FE0001FFFE00007FF0000FFFE00007FF8
310
000001FFFE0000007FFFFFF0001FFFFFFFC00003FFE00001FFFFC00003FFE000
310
01FFFF0003FFFFFFFFF8000FFFF80003F000F00003FFC00007FC0007FFF80000
310
7FFF8001FF80007FF00007FF80000FFF00007FF80000FFF8000001FFFE000000
310
7F80000000000001FFE000003E000003FFFFE000003E000003FFFF0003FFFFFF
310
FFF80003FFE00007F000F800000000000FFC0007FFF800007FFF8001FF80007F
310
F000000000000FFF000000000000FFF8000001FFFE0000007F80000000000001
310
FFF0000000000007FFFFF0000000000007FFFF0003FFFFFFFFFC00007E000007
310
F000F800000000000FFC0007FFF80000FFFF8000FF80007FF800000000001FFF
310
800000000001FFF8000001FFFE0000007F80000000000001FFF800000000000F
310
FFFFF800000000000FFFFF0003FFFFFFFFFC00000000000FF000FC0000000000
310
1FFC0007FFFC0000FFFF8000FF80007FF800000000003FFFC00000000001FFF8
310
000001FFFE0000007F80000000000001FFF800000000000FFFFFF80000000000
310
0FFFFF0003FFFFFFFFFE00000000001FF000FE00000000003FF8000FFFFC0000
310
FFFF8000FF80007FFC00000000003FFFC00000000003FFF8000001FFFE000000
310
7F80000000000001FFFC00000000001FFFFFFC00000000001FFFFF0003FFFFFF
310
FFFF00000000001FF000FF00000000003FF8000FFFFC0000FFFFC000FF80007F
310
FE00000000007FFFE00000000007FFF8000001FFFE0000007F80000000000001
310
FFFE00000000003FFFFFFE00000000003FFFFF0003FFFFFFFFFF80000000003F
310
F000FF80000000007FF8000FFFFC0001FFFFC0007F80007FFF0000000000FFFF
310
F0000000000FFFF800000000000000007F80000000000001FFFF8000000000FF
310
FFFFFF8000000000FFFFFF0003FFFFFFFFFFC0000000007FF000FFC000000000
310
FFF8000FFFFE0001FFFFC0007F80007FFF8000000001FFFFF8000000001FFFF8
310
00000000000000007F80000000000001FFFFC000000001FFFFFFFFC000000001
310
FFFFFF0003FFFFFFFFFFE000000000FFF000FFE000000003FFF0001FFFFE0001
310
FFFFC0007F80007FFFC000000007FFFFFE000000003FFFF80000000000000000
310
7F80000000000001FFFFE000000003FFFFFFFFE000000003FFFFFF0003FFFFFF
310
FFFFF000000003FFF000FFF80000000FFFF0001FFFFE0001FFFFE0007F80007F
310
FFF00000000FFFFFFF00000000FFFFF800000000000000007F80000000000001
310
FFFFF80000000FFFFFFFFFF80000000FFFFFFF0003FFFFFFFFFFFC0000000FFF
310
F000FFFE0000003FFFF0001FFFFE0003FFFFE0003F80007FFFFC0000003FFFFF
310
FFC0000003FFFFF800000000000000007F80000000000001FFFFFE0000003FFF
310
FFFFFFFE0000003FFFFFFF0003FFFFFFFFFFFF0000003FFFF000FFFF800000FF
310
FFF0001FFFFF0003FFFFE0003F80007FFFFF000001FFFFFFFFF800001FFFFFF8
310
00000000000000007F80000000000001FFFFFFC00001FFFFFFFFFFFFC00001FF
310
FFFFFF0003FFFFFFFFFFFFC00000FFFFF000FFFFF8000FFFFFFFFFFFFFFFFFFF
310
FFFFFFFFFFFFFFFFFFFFF0001FFFFFFFFFFF0000FFFFFFF80000000000000000
310
7FFFFFFFFFFFFFFFFFFFFFFC001FFFFFFFFFFFFFFC001FFFFFFFFFFFFFFFFFFF
310
FFFFFFFC001FFFFFF000FFFFFFFFFFFFFFFFFFFFFFFFFFFFFFFFFFFFFFFFFFFF
310
FFFFFFFFFFFFFFFFFFFFFFFFFFFFFFFFFFFFFFFFFFFFFFFFFFFFFFFFFFFFFFFF
310
FFFFFFFFFFFFFFFFFFFFFFFFFFFFFFFFFFFFFFFFFFFFFFFFFFFFFFFFFFFFFFFF
310
F000FFFFFFFFFFFFFFFFFFFFFFFFFFFFFFFFFFFFFFFFFFFFFFFFFFFFFFFFFFFF
310
FFFFFFFFFFFFFFFFFFFFFFFFFFFFFFFFFFFFFFFFFFFFFFFFFFFFFFFFFFFFFFFF
310
FFFFFFFFFFFFFFFFFFFFFFFFFFFFFFFFFFFFFFFFFFFFFFFFF000FFFFFFFFFFFF
310
FFFFFFFFFFFFFFFFFFFFFFFFFFFFFFFFFFFFFFFFFFFFFFFFFFFFFFFFFFFFFFFF
310
FFFFFFFFFFFFFFFFFFFFFFFFFFFFFFFFFFFFFFFFFFFFFFFFFFFFFFFFFFFFFFFF
310
FFFFFFFFFFFFFFFFFFFFFFFFFFFFFFFFF000FFFFFFFFFFFFFFFFFFFFFFFFFFFF
310
FFFFFFFFFFFFFFFFFFFFFFFFFFFFFFFFFFFFFFFFFFFFFFFFFFFFFFFFFFFFFFFF
310
FFFFFFFFFFFFFFFFFFFFFFFFFFFFFFFFFFFFFFFFFFFFFFFFFFFFFFFFFFFFFFFF
310
FFFFFFFFFFFFFFFFF000FFFFFFFFFFFFFFFFFFFFFFFFFFFFFFFFFFFFFFFFFFFF
310
FFFFFFFFFFFFFFFFFFFFFFFFFFFFFFFFFFFFFFFFFFFFFFFFFFFFFFFFFFFFFFFF
310
FFFFFFFFFFFFFFFFFFFFFFFFFFFFFFFFFFFFFFFFFFFFFFFFFFFFFFFFFFFFFFFF
310
F000FFFFFFFFFFFFFFFFFFFFFFFFFFFFFFFFFFFFFFFFFFFFFFFFFFFFFFFFFFFF
310
FFFFFFFFFFFFFFFFFFFFFFFFFFFFFFFFFFFFFFFFFFFFFFFFFFFFFFFFFFFFFFFF
310
FFFFFFFFFFFFFFFFFFFFFFFFFFFFFFFFFFFFFFFFFFFFFFFFF000FFFFFFFFFFFF
310
FFFFFFFFFFFFFFFFFFFFFFFFFFFFFFFFFFFFFFFFFFFFFFFFFFFFFFFFFFFFFFFF
310
FFFFFFFFFFFFFFFFFFFFFFFFFFFFFFFFFFFFFFFFFFFFFFFFFFFFFFFFFFFFFFFF
310
FFFFFFFFFFFFFFFFFFFFFFFFFFFFFFFFF000FFFFFFFFFFFFFFFFFFFFFFFFFFFF
310
FFFFFFFFFFFFFFFFFFFFFFFFFFFFFFFFFFFFFFFFFFFFFFFFFFFFFFFFFFFFFFFF
310
FFFFFFFFFFFFFFFFFFFFFFFFFFFFFFFFFFFFFFFFFFFFFFFFFFFFFFFFFFFFFFFF
310
FFFFFFFFFFFFFFFFF000FFFFFFFFFFFFFFFFFFFFFFFFFFFFFFFFFFFFFFFFFFFF
310
FFFFFFFFFFFFFFFFFFFFFFFFFFFFFFFFFFFFFFFFFFFFFFFFFFFFFFFFFFFFFFFF
310
FFFFFFFFFFFFFFFFFFFFFFFFFFFFFFFFFFFFFFFFFFFFFFFFFFFFFFFFFFFFFFFF
310
F000FFFFFFFFFFFFFFFFFFFFFFFFFFFFFFFFFFFFFFFFFFFFFFFFFFFFFFFFFFFF
310
FFFFFFFFFFFFFFFFFFFFFFFFFFFFFFFFFFFFFFFFFFFFFFFFFFFFFFFFFFFFFFFF
310
FFFFFFFFFFFFFFFFFFFFFFFFFFFFFFFFFFFFFFFFFFFFFFFFF000FFFFFFFFFFFF
310
FFFFFFFFFFFFFFFFFFFFFFFFFFFFFFFFFFFFFFFFFFFFFFFFFFFFFFFFFFFFFFFF
310
FFFFFFFFFFFFFFFFFFFFFFFFFFFFFFFFFFFFFFFFFFFFFFFFFFFFFFFFFFFFFFFF
310
FFFFFFFFFFFFFFFFFFFFFFFFFFFFFFFFF000FFFFFFFFFFFFFFFFFFFFFFFFFFFF
310
FFFFFFFFFFFFFFFFFFFFFFFFFFFFFFFFFFFFFFFFFFFFFFFFFFFFFFFFFFFFFFFF
310
FFFFFFFFFFFFFFFFFFFFFFFFFFFFFFFFFFFFFFFFFFFFFFFFFFFFFFFFFFFFFFFF
310
FFFFFFFFFFFFFFFFF000FFFFFFFFFFFFFFFFFFFFFFFFFFFFFFFFFFFFFFFFFFFF
310
FFFFFFFFFFFFFFFFFFFFFFFFFFFFFFFFFFFFFFFFFFFFFFFFFFFFFFFFFFFFFFFF
310
FFFFFFFFFFFFFFFFFFFFFFFFFFFFFFFFFFFFFFFFFFFFFFFFFFFFFFFFFFFFFFFF
310
F000FFFFFFFFFFFFFFFFFFFFFFFFFFFFFFFFFFFFFFFFFFFFFFFFFFFFFFFFFFFF
310
FFFFFFFFFFFFFFFFFFFFFFFFFFFFFFFFFFFFFFFFFFFFFFFFFFFFFFFFFFFFFFFF
310
FFFFFFFFFFFFFFFFFFFFFFFFFFFFFFFFFFFFFFFFFFFFFFFFF000FFFFFFFFFFFF
310
FFFFFFFFFFFFFFFFFFFFFFFFFFFFFFFFFFFFFFFFFFFFFFFFFFFFFFFFFFFFFFFF
310
FFFFFFFFFFFFFFFFFFFFFFFFFFFFFFFFFFFFFFFFFFFFFFFFFFFFFFFFFFFFFFFF
310
FFFFFFFFFFFFFFFFFFFFFFFFFFFFFFFFF000FFFFFFFFFFFFFFFFFFFFFFFFFFFF
310
FFFFFFFFFFFFFFFFFFFFFFFFFFFFFFFFFFFFFFFFFFFFFFFFFFFFFFFFFFFFFFFF
310
FFFFFFFFFFFFFFFFFFFFFFFFFFFFFFFFFFFFFFFFFFFFFFFFFFFFFFFFFFFFFFFF
310
FFFFFFFFFFFFFFFFF000FFFFFFFFFFFFFFFFFFFFFFFFFFFFFFFFFFFFFFFFFFFF
310
FFFFFFFFFFFFFFFFFFFFFFFFFFFFFFFFFFFFFFFFFFFFFFFFFFFFFFFFFFFFFFFF
310
FFFFFFFFFFFFFFFFFFFFFFFFFFFFFFFFFFFFFFFFFFFFFFFFFFFFFFFFFFFFFFFF
310
F000FFFFFFFFFFFFFFFFFFFFFFFFFFFFFFFFFFFFFFFFFFFFFFFFFFFFFFFFFFFF
310
FFFFFFFFFFFFFFFFFFFFFFFFFFFFFFFFFFFFFFFFFFFFFFFFFFFFFFFFFFFFFFFF
310
FFFFFFFFFFFFFFFFFFFFFFFFFFFFFFFFFFFFFFFFFFFFFFFFF000FFFFFFFFFFFF
310
FFFFFFFFFFFFFFFFFFFFFFFFFFFFFFFFFFFFFFFFFFFFFFFFFFFFFFFFFFFFFFFF
310
FFFFFFFFFFFFFFFFFFFFFFFFFFFFFFFFFFFFFFFFFFFFFFFFFFFFFFFFFFFFFFFF
310
FFFFFFFFFFFFFFFFFFFFFFFFFFFFFFFFF000FFFFFFFFFFFFFFFFFFFFFFFFFFFF
310
FFFFFFFFFFFFFFFFFFFFFFFFFFFFFFFFFFFFFFFFFFFFFFFFFFFFFFFFFFFFFFFF
310
FFFFFFFFFFFFFFFFFFFFFFFFFFFFFFFFFFFFFFFFFFFFFFFFFFFFFFFFFFFFFFFF
310
FFFFFFFFFFFFFFFFF000FFFFFFFFFFFFFFFFFFFFFFFFFFFFFFFFFFFFFFFFFFFF
310
FFFFFFFFFFFFFFFFFFFFFFFFFFFFFFFFFFFFFFFFFFFFFFFFFFFFFFFFFFFFFFFF
310
FFFFFFFFFFFFFFFFFFFFFFFFFFFFFFFFFFFFFFFFFFFFFFFFFFFFFFFFFFFFFFFF
310
F000FFFFFFFFFFFFFFFFFFFFFFFFFFFFFFFFFFFFFFFFFFFFFFFFFFFFFFFFFFFF
310
FFFFFFFFFFFFFFFFFFFFFFFFFFFFFFFFFFFFFFFFFFFFFFFFFFFFFFFFFFFFFFFF
310
FFFFFFFFFFFFFFFFFFFFFFFFFFFFFFFFFFFFFFFFFFFFFFFFF000FFFFFFFFFFFF
310
FFFFFFFFFFFFFFFFFFFFFFFFFFFFFFFFFFFFFFFFFFFFFFFFFFFFFFFFFFFFFFFF
310
FFFFFFFFFFFFFFFFFFFFFFFFFFFFFFFFFFFFFFFFFFFFFFFFFFFFFFFFFFFFFFFF
310
FFFFFFFFFFFFFFFFFFFFFFFFFFFFFFFFF0000000000000000000000000000000
310
00000000000000000000000042006C00610063006B0000000000000000000000
310
0000000000000000000000000000000000000000000000000000000000000000
310
0000000000000000000000000000FFFFFFFFFFFFFFFFFFFFFFFFFFFFFFFFFFFF
310
FFFFFFFFFFFFFFFFFFFFFFFFFFFFFFFFFFFFFFFFFFFFFFFFFFFFFFFFFFFFFFFF
310
FFFFFFFFFFFFFFFFFFFFFFFF6476000800000000FFFFFFFF20FF202026000000
310
1E00000008000000060000000000000011000000200000008403000000000000
310
6000000060000000200002FB200020000000002B00FFFFFF40002200E8030000
310
A80400001C020000AF0000804A20004000000000000000000100000000000000
310
616C000800000000E40100007001000002000000270000001100000000000000
310
00000000BC0200000000000003020122420065006C006C00200047006F007400
310
680069006300200053007400640020004C006900670068007400000000000000
310
00000000000000000000000000000000420065006C006C0047006F0074006800
310
690063005300740064002D0042006F006C006400000000000000000000000000
310
0000000000000000000000000000000000000000000000000000000000000000
310
0000000000000000000000000000000000000000000000000000000000000000
  1
OLE
  0
ENDSEC
  0
SECTION
  2
OBJECTS
  0
DICTIONARY
  5
C
330
0
100
AcDbDictionary
281
     1
  3
ACAD_GROUP
350
D
  3
ACAD_LAYOUT
350
1A
  3
ACAD_MLEADERSTYLE
350
2FA
  3
ACAD_MLINESTYLE
350
17
  3
ACAD_PLOTSETTINGS
350
19
  3
ACAD_PLOTSTYLENAME
350
E
  3
ACAD_TABLESTYLE
350
2F9
  3
ACAD_VISUALSTYLE
350
2A
  3
AcDbVariableDictionary
350
2FB
  0
DICTIONARY
  5
D
102
{ACAD_REACTORS
330
C
102
}
330
C
100
AcDbDictionary
281
     1
  0
DICTIONARY
  5
1A
102
{ACAD_REACTORS
330
C
102
}
330
C
100
AcDbDictionary
281
     1
  3
Layout1
350
1E
  3
Layout2
350
26
  3
Model
350
22
  0
DICTIONARY
  5
2FA
102
{ACAD_REACTORS
330
C
102
}
330
C
100
AcDbDictionary
281
     1
  0
DICTIONARY
  5
17
102
{ACAD_REACTORS
330
C
102
}
330
C
100
AcDbDictionary
281
     1
  3
Standard
350
18
  0
DICTIONARY
  5
19
102
{ACAD_REACTORS
330
C
102
}
330
C
100
AcDbDictionary
281
     1
  0
ACDBDICTIONARYWDFLT
  5
E
102
{ACAD_REACTORS
330
C
102
}
330
C
100
AcDbDictionary
281
     1
  3
Normal
350
F
100
AcDbDictionaryWithDefault
340
F
  0
DICTIONARY
  5
2F9
102
{ACAD_REACTORS
330
C
102
}
330
C
100
AcDbDictionary
281
     1
  0
DICTIONARY
  5
2A
102
{ACAD_REACTORS
330
C
102
}
330
C
100
AcDbDictionary
281
     1
  3
2dWireframe
350
2F
  3
3D Hidden
350
31
  3
3dWireframe
350
30
  3
Basic
350
32
  3
Brighten
350
36
  3
ColorChange
350
3A
  3
Conceptual
350
34
  3
Dim
350
35
  3
Facepattern
350
39
  3
Flat
350
2B
  3
FlatWithEdges
350
2C
  3
Gouraud
350
2D
  3
GouraudWithEdges
350
2E
  3
Linepattern
350
38
  3
Realistic
350
33
  3
Thicken
350
37
  0
DICTIONARY
  5
2FB
102
{ACAD_REACTORS
330
C
102
}
330
C
100
AcDbDictionary
281
     1
  3
PSOLHEIGHT
350
2FD
  3
PSOLWIDTH
350
2FC
  0
LAYOUT
  5
1E
102
{ACAD_REACTORS
330
1A
102
}
330
1A
100
AcDbPlotSettings
  1

  2
none_device
  4

  6

 40
0.0
 41
0.0
 42
0.0
 43
0.0
 44
0.0
 45
0.0
 46
0.0
 47
0.0
 48
0.0
 49
0.0
140
0.0
141
0.0
142
1.0
143
1.0
 70
   688
 72
     0
 73
     0
 74
     5
  7

 75
    16
147
1.0
148
0.0
149
0.0
100
AcDbLayout
  1
Layout1
 70
     1
 71
     1
 10
0.0
 20
0.0
 11
420.0
 21
297.0
 12
0.0
 22
0.0
 32
0.0
 14
1.0000000000E+20
 24
1.0000000000E+20
 34
1.0000000000E+20
 15
-1.0000000000E+20
 25
-1.0000000000E+20
 35
-1.0000000000E+20
146
0.0
 13
0.0
 23
0.0
 33
0.0
 16
1.0
 26
0.0
 36
0.0
 17
0.0
 27
1.0
 37
0.0
 76
     0
330
1B
  0
LAYOUT
  5
26
102
{ACAD_REACTORS
330
1A
102
}
330
1A
100
AcDbPlotSettings
  1

  2
none_device
  4

  6

 40
0.0
 41
0.0
 42
0.0
 43
0.0
 44
0.0
 45
0.0
 46
0.0
 47
0.0
 48
0.0
 49
0.0
140
0.0
141
0.0
142
1.0
143
1.0
 70
   688
 72
     0
 73
     0
 74
     5
  7

 75
    16
147
1.0
148
0.0
149
0.0
100
AcDbLayout
  1
Layout2
 70
     1
 71
     2
 10
0.0
 20
0.0
 11
0.0
 21
0.0
 12
0.0
 22
0.0
 32
0.0
 14
0.0
 24
0.0
 34
0.0
 15
0.0
 25
0.0
 35
0.0
146
0.0
 13
0.0
 23
0.0
 33
0.0
 16
1.0
 26
0.0
 36
0.0
 17
0.0
 27
1.0
 37
0.0
 76
     0
330
23
  0
LAYOUT
  5
22
102
{ACAD_REACTORS
330
1A
102
}
330
1A
100
AcDbPlotSettings
  1

  2
none_device
  4

  6

 40
0.0
 41
0.0
 42
0.0
 43
0.0
 44
0.0
 45
0.0
 46
0.0
 47
0.0
 48
0.0
 49
0.0
140
0.0
141
0.0
142
1.0
143
1.0
 70
  1712
 72
     0
 73
     0
 74
     0
  7

 75
     0
147
1.0
148
0.0
149
0.0
100
AcDbLayout
  1
Model
 70
     1
 71
     0
 10
0.0
 20
0.0
 11
297.0
 21
210.0
 12
0.0
 22
0.0
 32
0.0
 14
0.0
 24
0.0
 34
0.0
 15
297.0
 25
210.0
 35
0.0
146
0.0
 13
0.0
 23
0.0
 33
0.0
 16
1.0
 26
0.0
 36
0.0
 17
0.0
 27
1.0
 37
0.0
 76
     0
330
1F
331
29
  0
MLINESTYLE
  5
18
102
{ACAD_REACTORS
330
17
102
}
330
17
100
AcDbMlineStyle
  2
Standard
 70
     0
  3

 62
   256
 51
90.0
 52
90.0
 71
     2
 49
0.5
 62
   256
  6
BYLAYER
 49
-0.5
 62
   256
  6
BYLAYER
  0
ACDBPLACEHOLDER
  5
F
102
{ACAD_REACTORS
330
E
102
}
330
E
  0
VISUALSTYLE
  5
2F
102
{ACAD_REACTORS
330
2A
102
}
330
2A
100
AcDbVisualStyle
  2
2dWireframe
 70
     4
 71
     0
 72
     2
 73
     0
 90
        0
 40
-0.6
 41
-30.0
 62
     5
 63
     7
 74
     1
 91
        4
 64
     7
 65
   257
 75
     1
175
     1
 42
1.0
 92
        0
 66
   257
 43
1.0
 76
     1
 77
     6
 78
     2
 67
     7
 79
     5
170
     0
171
     0
290
     0
174
     0
 93
        1
 44
0.0
173
     0
291
     0
 45
0.0
1001
ACAD
1000
AcDbSavedByObjectVersion
1070
     0
  0
VISUALSTYLE
  5
31
102
{ACAD_REACTORS
330
2A
102
}
330
2A
100
AcDbVisualStyle
  2
3D Hidden
 70
     6
 71
     1
 72
     2
 73
     2
 90
        0
 40
-0.6
 41
-30.0
 62
     5
 63
     7
 74
     2
 91
        2
 64
     7
 65
   257
 75
     2
175
     1
 42
40.0
 92
        0
 66
   257
 43
1.0
 76
     1
 77
     6
 78
     2
 67
     7
 79
     3
170
     0
171
     0
290
     0
174
     0
 93
        1
 44
0.0
173
     0
291
     0
 45
0.0
1001
ACAD
1000
AcDbSavedByObjectVersion
1070
     0
  0
VISUALSTYLE
  5
30
102
{ACAD_REACTORS
330
2A
102
}
330
2A
100
AcDbVisualStyle
  2
3dWireframe
 70
     5
 71
     0
 72
     2
 73
     0
 90
        0
 40
-0.6
 41
-30.0
 62
     5
 63
     7
 74
     1
 91
        4
 64
     7
 65
   257
 75
     1
175
     1
 42
1.0
 92
        0
 66
   257
 43
1.0
 76
     1
 77
     6
 78
     2
 67
     7
 79
     5
170
     0
171
     0
290
     0
174
     0
 93
        1
 44
0.0
173
     0
291
     0
 45
0.0
1001
ACAD
1000
AcDbSavedByObjectVersion
1070
     0
  0
VISUALSTYLE
  5
32
102
{ACAD_REACTORS
330
2A
102
}
330
2A
100
AcDbVisualStyle
  2
Basic
 70
     7
 71
     1
 72
     0
 73
     1
 90
        0
 40
-0.6
 41
-30.0
 62
     5
 63
     7
 74
     0
 91
        4
 64
     7
 65
   257
 75
     1
175
     1
 42
1.0
 92
        8
 66
     7
 43
1.0
 76
     1
 77
     6
 78
     2
 67
     7
 79
     5
170
     0
171
     0
290
     0
174
     0
 93
        1
 44
0.0
173
     0
291
     1
 45
0.0
1001
ACAD
1000
AcDbSavedByObjectVersion
1070
     0
  0
VISUALSTYLE
  5
36
102
{ACAD_REACTORS
330
2A
102
}
330
2A
100
AcDbVisualStyle
  2
Brighten
 70
    12
 71
     2
 72
     2
 73
     0
 90
        0
 40
-0.6
 41
-30.0
 62
     5
 63
     7
 74
     1
 91
        4
 64
     7
 65
   257
 75
     1
175
     1
 42
1.0
 92
        8
 66
     7
 43
1.0
 76
     1
 77
     6
 78
     2
 67
     7
 79
     5
170
     0
171
     0
290
     0
174
     0
 93
        1
 44
50.0
173
     0
291
     1
 45
0.0
1001
ACAD
1000
AcDbSavedByObjectVersion
1070
     0
  0
VISUALSTYLE
  5
3A
102
{ACAD_REACTORS
330
2A
102
}
330
2A
100
AcDbVisualStyle
  2
ColorChange
 70
    16
 71
     2
 72
     2
 73
     3
 90
        0
 40
-0.6
 41
-30.0
 62
     5
 63
     8
 74
     1
 91
        4
 64
     7
 65
   257
 75
     1
175
     1
 42
1.0
 92
        8
 66
     8
 43
1.0
 76
     1
 77
     6
 78
     2
 67
     7
 79
     5
170
     0
171
     0
290
     0
174
     0
 93
        1
 44
0.0
173
     0
291
     1
 45
0.0
1001
ACAD
1000
AcDbSavedByObjectVersion
1070
     0
  0
VISUALSTYLE
  5
34
102
{ACAD_REACTORS
330
2A
102
}
330
2A
100
AcDbVisualStyle
  2
Conceptual
 70
     9
 71
     3
 72
     2
 73
     0
 90
        0
 40
-0.6
 41
-30.0
 62
     5
 63
     7
 74
     2
 91
        2
 64
     7
 65
   257
 75
     1
175
     1
 42
40.0
 92
        8
 66
     7
 43
1.0
 76
     1
 77
     6
 78
     2
 67
     7
 79
     3
170
     0
171
     0
290
     0
174
     0
 93
        1
 44
0.0
173
     0
291
     0
 45
0.0
1001
ACAD
1000
AcDbSavedByObjectVersion
1070
     0
  0
VISUALSTYLE
  5
35
102
{ACAD_REACTORS
330
2A
102
}
330
2A
100
AcDbVisualStyle
  2
Dim
 70
    11
 71
     2
 72
     2
 73
     0
 90
        0
 40
-0.6
 41
-30.0
 62
     5
 63
     7
 74
     1
 91
        4
 64
     7
 65
   257
 75
     1
175
     1
 42
1.0
 92
        8
 66
     7
 43
1.0
 76
     1
 77
     6
 78
     2
 67
     7
 79
     5
170
     0
171
     0
290
     0
174
     0
 93
        1
 44
-50.0
173
     0
291
     1
 45
0.0
1001
ACAD
1000
AcDbSavedByObjectVersion
1070
     0
  0
VISUALSTYLE
  5
39
102
{ACAD_REACTORS
330
2A
102
}
330
2A
100
AcDbVisualStyle
  2
Facepattern
 70
    15
 71
     2
 72
     2
 73
     0
 90
        0
 40
-0.6
 41
-30.0
 62
     5
 63
     7
 74
     1
 91
        4
 64
     7
 65
   257
 75
     1
175
     1
 42
1.0
 92
        8
 66
     7
 43
1.0
 76
     1
 77
     6
 78
     2
 67
     7
 79
     5
170
     0
171
     0
290
     0
174
     0
 93
        1
 44
0.0
173
     0
291
     1
 45
0.0
1001
ACAD
1000
AcDbSavedByObjectVersion
1070
     0
  0
VISUALSTYLE
  5
2B
102
{ACAD_REACTORS
330
2A
102
}
330
2A
100
AcDbVisualStyle
  2
Flat
 70
     0
 71
     2
 72
     1
 73
     1
 90
        2
 40
-0.6
 41
30.0
 62
     5
 63
     7
 74
     0
 91
        4
 64
     7
 65
   257
 75
     1
175
     1
 42
1.0
 92
        8
 66
     7
 43
1.0
 76
     1
 77
     6
 78
     2
 67
     7
 79
     5
170
     0
171
     0
290
     0
174
     0
 93
       13
 44
0.0
173
     0
291
     1
 45
0.0
1001
ACAD
1000
AcDbSavedByObjectVersion
1070
     0
  0
VISUALSTYLE
  5
2C
102
{ACAD_REACTORS
330
2A
102
}
330
2A
100
AcDbVisualStyle
  2
FlatWithEdges
 70
     1
 71
     2
 72
     1
 73
     1
 90
        2
 40
-0.6
 41
30.0
 62
     5
 63
     7
 74
     1
 91
        4
 64
     7
 65
   257
 75
     1
175
     1
 42
1.0
 92
        0
 66
   257
 43
1.0
 76
     1
 77
     6
 78
     2
 67
     7
 79
     5
170
     0
171
     0
290
     0
174
     0
 93
       13
 44
0.0
173
     0
291
     1
 45
0.0
1001
ACAD
1000
AcDbSavedByObjectVersion
1070
     0
  0
VISUALSTYLE
  5
2D
102
{ACAD_REACTORS
330
2A
102
}
330
2A
100
AcDbVisualStyle
  2
Gouraud
 70
     2
 71
     2
 72
     2
 73
     1
 90
        2
 40
-0.6
 41
30.0
 62
     5
 63
     7
 74
     0
 91
        4
 64
     7
 65
   257
 75
     1
175
     1
 42
1.0
 92
        0
 66
     7
 43
1.0
 76
     1
 77
     6
 78
     2
 67
     7
 79
     5
170
     0
171
     0
290
     0
174
     0
 93
       13
 44
0.0
173
     0
291
     1
 45
0.0
1001
ACAD
1000
AcDbSavedByObjectVersion
1070
     0
  0
VISUALSTYLE
  5
2E
102
{ACAD_REACTORS
330
2A
102
}
330
2A
100
AcDbVisualStyle
  2
GouraudWithEdges
 70
     3
 71
     2
 72
     2
 73
     1
 90
        2
 40
-0.6
 41
30.0
 62
     5
 63
     7
 74
     1
 91
        4
 64
     7
 65
   257
 75
     1
175
     1
 42
1.0
 92
        0
 66
   257
 43
1.0
 76
     1
 77
     6
 78
     2
 67
     7
 79
     5
170
     0
171
     0
290
     0
174
     0
 93
       13
 44
0.0
173
     0
291
     1
 45
0.0
1001
ACAD
1000
AcDbSavedByObjectVersion
1070
     0
  0
VISUALSTYLE
  5
38
102
{ACAD_REACTORS
330
2A
102
}
330
2A
100
AcDbVisualStyle
  2
Linepattern
 70
    14
 71
     2
 72
     2
 73
     0
 90
        0
 40
-0.6
 41
-30.0
 62
     5
 63
     7
 74
     1
 91
        4
 64
     7
 65
   257
 75
     7
175
     7
 42
1.0
 92
        8
 66
     7
 43
1.0
 76
     1
 77
     6
 78
     2
 67
     7
 79
     5
170
     0
171
     0
290
     0
174
     0
 93
        1
 44
0.0
173
     0
291
     1
 45
0.0
1001
ACAD
1000
AcDbSavedByObjectVersion
1070
     0
  0
VISUALSTYLE
  5
33
102
{ACAD_REACTORS
330
2A
102
}
330
2A
100
AcDbVisualStyle
  2
Realistic
 70
     8
 71
     2
 72
     2
 73
     0
 90
        0
 40
-0.6
 41
-30.0
 62
     5
 63
     7
 74
     1
 91
        0
 64
     7
 65
   257
 75
     1
175
     1
 42
1.0
 92
        8
 66
     8
 43
1.0
 76
     1
 77
     6
 78
     2
 67
     7
 79
     5
170
     0
171
     0
290
     0
174
     0
 93
       13
 44
0.0
173
     0
291
     0
 45
0.0
1001
ACAD
1000
AcDbSavedByObjectVersion
1070
     0
  0
VISUALSTYLE
  5
37
102
{ACAD_REACTORS
330
2A
102
}
330
2A
100
AcDbVisualStyle
  2
Thicken
 70
    13
 71
     2
 72
     2
 73
     0
 90
        0
 40
-0.6
 41
-30.0
 62
     5
 63
     7
 74
     1
 91
        4
 64
     7
 65
   257
 75
     1
175
     1
 42
1.0
 92
       12
 66
     7
 43
1.0
 76
     1
 77
     6
 78
     2
 67
     7
 79
     5
170
     0
171
     0
290
     0
174
     0
 93
        1
 44
0.0
173
     0
291
     1
 45
0.0
1001
ACAD
1000
AcDbSavedByObjectVersion
1070
     0
  0
DICTIONARYVAR
  5
2FD
102
{ACAD_REACTORS
330
2FB
102
}
330
2FB
100
DictionaryVariables
280
     0
  1
80.000000
  0
DICTIONARYVAR
  5
2FC
102
{ACAD_REACTORS
330
2FB
102
}
330
2FB
100
DictionaryVariables
280
     0
  1
5.000000
  0
ENDSEC
  0
EOF
