  0
SECTION
  2
HEADER
  9
$ACADVER
  1
AC1015
  9
$ACADMAINTVER
 70
     6
  9
$DWGCODEPAGE
  3
ANSI_1252
  9
$INSBASE
 10
0.0
 20
0.0
 30
0.0
  9
$EXTMIN
 10
0.0
 20
0.0
 30
0.0
  9
$EXTMAX
 10
297.0
 20
210.0
 30
0.0
  9
$LIMMIN
 10
0.0
 20
0.0
  9
$LIMMAX
 10
297.0
 20
210.0
  9
$ORTHOMODE
 70
     0
  9
$REGENMODE
 70
     1
  9
$FILLMODE
 70
     1
  9
$QTEXTMODE
 70
     0
  9
$MIRRTEXT
 70
     1
  9
$LTSCALE
 40
1.0
  9
$ATTMODE
 70
     1
  9
$TEXTSIZE
 40
2.0
  9
$TRACEWID
 40
1.0
  9
$TEXTSTYLE
  7
STANDARD
  9
$CLAYER
  8
0
  9
$CELTYPE
  6
ByLayer
  9
$CECOLOR
 62
   256
  9
$CELTSCALE
 40
1.0
  9
$DISPSILH
 70
     0
  9
$DIMSCALE
 40
1.0
  9
$DIMASZ
 40
3.0
  9
$DIMEXO
 40
0.0
  9
$DIMDLI
 40
3.75
  9
$DIMRND
 40
0.0
  9
$DIMDLE
 40
0.0
  9
$DIMEXE
 40
1.0
  9
$DIMTP
 40
0.0
  9
$DIMTM
 40
0.0
  9
$DIMTXT
 40
2.0
  9
$DIMCEN
 40
2.5
  9
$DIMTSZ
 40
0.0
  9
$DIMTOL
 70
     0
  9
$DIMLIM
 70
     0
  9
$DIMTIH
 70
     1
  9
$DIMTOH
 70
     1
  9
$DIMSE1
 70
     0
  9
$DIMSE2
 70
     0
  9
$DIMTAD
 70
     1
  9
$DIMZIN
 70
     0
  9
$DIMBLK
  1

  9
$DIMASO
 70
     1
  9
$DIMSHO
 70
     1
  9
$DIMPOST
  1

  9
$DIMAPOST
  1

  9
$DIMALT
 70
     0
  9
$DIMALTD
 70
     3
  9
$DIMALTF
 40
0.0393700787
  9
$DIMLFAC
 40
1.0
  9
$DIMTOFL
 70
     1
  9
$DIMTVP
 40
0.0
  9
$DIMTIX
 70
     0
  9
$DIMSOXD
 70
     0
  9
$DIMSAH
 70
     0
  9
$DIMBLK1
  1

  9
$DIMBLK2
  1

  9
$DIMSTYLE
  2
ISO-25
  9
$DIMCLRD
 70
     0
  9
$DIMCLRE
 70
     0
  9
$DIMCLRT
 70
     0
  9
$DIMTFAC
 40
1.0
  9
$DIMGAP
 40
1.524
  9
$DIMJUST
 70
     0
  9
$DIMSD1
 70
     0
  9
$DIMSD2
 70
     0
  9
$DIMTOLJ
 70
     0
  9
$DIMTZIN
 70
     0
  9
$DIMALTZ
 70
     0
  9
$DIMALTTZ
 70
     0
  9
$DIMUPT
 70
     0
  9
$DIMDEC
 70
     2
  9
$DIMTDEC
 70
     2
  9
$DIMALTU
 70
     2
  9
$DIMALTTD
 70
     3
  9
$DIMTXSTY
  7
STANDARD
  9
$DIMAUNIT
 70
     0
  9
$DIMADEC
 70
     0
  9
$DIMALTRND
 40
0.0
  9
$DIMAZIN
 70
     0
  9
$DIMDSEP
 70
    44
  9
$DIMATFIT
 70
     3
  9
$DIMFRAC
 70
     0
  9
$DIMLDRBLK
  1

  9
$DIMLUNIT
 70
     2
  9
$DIMLWD
 70
    -2
  9
$DIMLWE
 70
    -2
  9
$DIMTMOVE
 70
     0
  9
$LUNITS
 70
     2
  9
$LUPREC
 70
     2
  9
$SKETCHINC
 40
1.0
  9
$FILLETRAD
 40
10.0
  9
$AUNITS
 70
     0
  9
$AUPREC
 70
     0
  9
$MENU
  1
.
  9
$ELEVATION
 40
0.0
  9
$PELEVATION
 40
0.0
  9
$THICKNESS
 40
0.0
  9
$LIMCHECK
 70
     0
  9
$CHAMFERA
 40
10.0
  9
$CHAMFERB
 40
10.0
  9
$CHAMFERC
 40
20.0
  9
$CHAMFERD
 40
0.0
  9
$SKPOLY
 70
     0
  9
$TDCREATE
 40
2454910.448013657
  9
$TDUCREATE
 40
2454910.406346991
  9
$TDUPDATE
 40
2454910.448013669
  9
$TDUUPDATE
 40
2454910.406347002
  9
$TDINDWG
 40
0.0000000116
  9
$TDUSRTIMER
 40
0.0000000116
  9
$USRTIMER
 70
     1
  9
$ANGBASE
 50
0.0
  9
$ANGDIR
 70
     0
  9
$PDMODE
 70
     0
  9
$PDSIZE
 40
-1.0
  9
$PLINEWID
 40
0.0
  9
$SPLFRAME
 70
     0
  9
$SPLINETYPE
 70
     6
  9
$SPLINESEGS
 70
     8
  9
$HANDSEED
  5
361
  9
$SURFTAB1
 70
     6
  9
$SURFTAB2
 70
     6
  9
$SURFTYPE
 70
     6
  9
$SURFU
 70
     6
  9
$SURFV
 70
     6
  9
$UCSBASE
  2

  9
$UCSNAME
  2

  9
$UCSORG
 10
0.0
 20
0.0
 30
0.0
  9
$UCSXDIR
 10
1.0
 20
0.0
 30
0.0
  9
$UCSYDIR
 10
0.0
 20
1.0
 30
0.0
  9
$UCSORTHOREF
  2

  9
$UCSORTHOVIEW
 70
     0
  9
$UCSORGTOP
 10
0.0
 20
0.0
 30
0.0
  9
$UCSORGBOTTOM
 10
0.0
 20
0.0
 30
0.0
  9
$UCSORGLEFT
 10
0.0
 20
0.0
 30
0.0
  9
$UCSORGRIGHT
 10
0.0
 20
0.0
 30
0.0
  9
$UCSORGFRONT
 10
0.0
 20
0.0
 30
0.0
  9
$UCSORGBACK
 10
0.0
 20
0.0
 30
0.0
  9
$PUCSBASE
  2

  9
$PUCSNAME
  2

  9
$PUCSORG
 10
0.0
 20
0.0
 30
0.0
  9
$PUCSXDIR
 10
1.0
 20
0.0
 30
0.0
  9
$PUCSYDIR
 10
0.0
 20
1.0
 30
0.0
  9
$PUCSORTHOREF
  2

  9
$PUCSORTHOVIEW
 70
     0
  9
$PUCSORGTOP
 10
0.0
 20
0.0
 30
0.0
  9
$PUCSORGBOTTOM
 10
0.0
 20
0.0
 30
0.0
  9
$PUCSORGLEFT
 10
0.0
 20
0.0
 30
0.0
  9
$PUCSORGRIGHT
 10
0.0
 20
0.0
 30
0.0
  9
$PUCSORGFRONT
 10
0.0
 20
0.0
 30
0.0
  9
$PUCSORGBACK
 10
0.0
 20
0.0
 30
0.0
  9
$USERI1
 70
     0
  9
$USERI2
 70
     0
  9
$USERI3
 70
     0
  9
$USERI4
 70
     0
  9
$USERI5
 70
     0
  9
$USERR1
 40
0.0
  9
$USERR2
 40
0.0
  9
$USERR3
 40
0.0
  9
$USERR4
 40
0.0
  9
$USERR5
 40
0.0
  9
$WORLDVIEW
 70
     1
  9
$SHADEDGE
 70
     3
  9
$SHADEDIF
 70
    70
  9
$TILEMODE
 70
     1
  9
$MAXACTVP
 70
    64
  9
$PINSBASE
 10
0.0
 20
0.0
 30
0.0
  9
$PLIMCHECK
 70
     0
  9
$PEXTMIN
 10
1.0000000000E+20
 20
1.0000000000E+20
 30
1.0000000000E+20
  9
$PEXTMAX
 10
-1.0000000000E+20
 20
-1.0000000000E+20
 30
-1.0000000000E+20
  9
$PLIMMIN
 10
0.0
 20
0.0
  9
$PLIMMAX
 10
420.0
 20
297.0
  9
$UNITMODE
 70
     0
  9
$VISRETAIN
 70
     1
  9
$PLINEGEN
 70
     0
  9
$PSLTSCALE
 70
     1
  9
$TREEDEPTH
 70
  3020
  9
$CMLSTYLE
  2
Standard
  9
$CMLJUST
 70
     0
  9
$CMLSCALE
 40
20.0
  9
$PROXYGRAPHICS
 70
     1
  9
$MEASUREMENT
 70
     1
  9
$CELWEIGHT
370
    -1
  9
$ENDCAPS
280
     0
  9
$JOINSTYLE
280
     0
  9
$LWDISPLAY
290
     1
  9
$INSUNITS
 70
     4
  9
$HYPERLINKBASE
  1

  9
$STYLESHEET
  1

  9
$XEDIT
290
     1
  9
$CEPSNTYPE
380
     0
  9
$PSTYLEMODE
290
     1
  9
$FINGERPRINTGUID
  2
{8766C260-FC87-4413-9117-5527AB8EA28E}
  9
$VERSIONGUID
  2
{FAEB1C32-E019-11D5-929B-00C0DF256EC4}
  9
$EXTNAMES
290
     1
  9
$PSVPSCALE
 40
0.0
  9
$OLESTARTUP
290
     0
  0
ENDSEC
  0
SECTION
  2
CLASSES
  0
CLASS
  1
ACDBDICTIONARYWDFLT
  2
AcDbDictionaryWithDefault
  3
ObjectDBX Classes
 90
        0
280
     0
281
     0
  0
CLASS
  1
VISUALSTYLE
  2
AcDbVisualStyle
  3
ObjectDBX Classes
 90
     4095
280
     0
281
     0
  0
CLASS
  1
SCALE
  2
AcDbScale
  3
ObjectDBX Classes
 90
     1153
280
     0
281
     0
  0
CLASS
  1
DICTIONARYVAR
  2
AcDbDictionaryVar
  3
ObjectDBX Classes
 90
        0
280
     0
281
     0
  0
CLASS
  1
ACDBPLACEHOLDER
  2
AcDbPlaceHolder
  3
ObjectDBX Classes
 90
        0
280
     0
281
     0
  0
CLASS
  1
LAYOUT
  2
AcDbLayout
  3
ObjectDBX Classes
 90
        0
280
     0
281
     0
  0
ENDSEC
  0
SECTION
  2
TABLES
  0
TABLE
  2
VPORT
  5
8
330
0
100
AcDbSymbolTable
 70
     1
  0
VPORT
  5
29
330
8
100
AcDbSymbolTableRecord
100
AcDbViewportTableRecord
  2
*Active
 70
     0
 10
0.0
 20
0.0
 11
1.0
 21
1.0
 12
148.5
 22
105.0
 13
0.0
 23
0.0
 14
10.0
 24
10.0
 15
10.0
 25
10.0
 16
0.0
 26
0.0
 36
1.0
 17
0.0
 27
0.0
 37
0.0
 40
210.0
 41
1.4142857143
 42
50.0
 43
0.0
 44
0.0
 50
0.0
 51
0.0
 71
     0
 72
  2000
 73
     1
 74
     3
 75
     0
 76
     0
 77
     0
 78
     0
281
     0
 65
     1
110
0.0
120
0.0
130
0.0
111
1.0
121
0.0
131
0.0
112
0.0
122
1.0
132
0.0
 79
     0
146
0.0
  0
ENDTAB
  0
TABLE
  2
LTYPE
  5
5
330
0
100
AcDbSymbolTable
 70
     8
  0
LTYPE
  5
14
330
5
100
AcDbSymbolTableRecord
100
AcDbLinetypeTableRecord
  2
ByBlock
 70
     0
  3

 72
    65
 73
     0
 40
0.0
  0
LTYPE
  5
15
330
5
100
AcDbSymbolTableRecord
100
AcDbLinetypeTableRecord
  2
ByLayer
 70
     0
  3

 72
    65
 73
     0
 40
0.0
  0
LTYPE
  5
16
330
5
100
AcDbSymbolTableRecord
100
AcDbLinetypeTableRecord
  2
Continuous
 70
     0
  3
Solid line
 72
    65
 73
     0
 40
0.0
  0
LTYPE
  5
5D
330
5
100
AcDbSymbolTableRecord
100
AcDbLinetypeTableRecord
  2
SLD-Durchgehend
 70
     0
  3
SolidWorks Line Style
 72
    65
 73
     0
 40
0.0
  0
LTYPE
  5
5E
330
5
100
AcDbSymbolTableRecord
100
AcDbLinetypeTableRecord
  2
SLD-Gestrichelt
 70
     0
  3
SolidWorks Line Style
 72
    65
 73
     2
 40
1.905
 49
1.27
 74
     0
 49
-0.635
 74
     0
  0
LTYPE
  5
5F
330
5
100
AcDbSymbolTableRecord
100
AcDbLinetypeTableRecord
  2
SLD-Phantom
 70
     0
  3
SolidWorks Line Style
 72
    65
 73
     6
 40
12.7
 49
6.35
 74
     0
 49
-1.27
 74
     0
 49
1.27
 74
     0
 49
-1.27
 74
     0
 49
1.27
 74
     0
 49
-1.27
 74
     0
  0
LTYPE
  5
60
330
5
100
AcDbSymbolTableRecord
100
AcDbLinetypeTableRecord
  2
SLD-Kette
 70
     0
  3
SolidWorks Line Style
 72
    65
 73
     4
 40
10.16
 49
6.35
 74
     0
 49
-1.27
 74
     0
 49
1.27
 74
     0
 49
-1.27
 74
     0
  0
LTYPE
  5
61
330
5
100
AcDbSymbolTableRecord
100
AcDbLinetypeTableRecord
  2
SLD-Punktstrich
 70
     0
  3
SolidWorks Line Style
 72
    65
 73
     4
 40
19.05
 49
15.24
 74
     0
 49
-1.27
 74
     0
 49
1.27
 74
     0
 49
-1.27
 74
     0
  0
LTYPE
  5
62
330
5
100
AcDbSymbolTableRecord
100
AcDbLinetypeTableRecord
  2
SLD-Naht
 70
     0
  3
SolidWorks Line Style
 72
    65
 73
     2
 40
0.635
 49
0.0
 74
     0
 49
-0.635
 74
     0
  0
LTYPE
  5
63
330
5
100
AcDbSymbolTableRecord
100
AcDbLinetypeTableRecord
  2
SLD-Dicke-Dünne-Kette
 70
     0
  3
SolidWorks Line Style
 72
    65
 73
     4
 40
10.16
 49
6.35
 74
     0
 49
-1.27
 74
     0
 49
1.27
 74
     0
 49
-1.27
 74
     0
  0
ENDTAB
  0
TABLE
  2
LAYER
  5
2
330
0
100
AcDbSymbolTable
 70
     5
  0
LAYER
  5
10
330
2
100
AcDbSymbolTableRecord
100
AcDbLayerTableRecord
  2
0
 70
     0
 62
     7
  6
Continuous
370
    -3
390
F
  0
LAYER
  5
64
330
2
100
AcDbSymbolTableRecord
100
AcDbLayerTableRecord
  2
FORMAT
 70
     0
 62
     7
  6
SLD-Durchgehend
370
    -3
390
F
  0
LAYER
  5
65
330
2
100
AcDbSymbolTableRecord
100
AcDbLayerTableRecord
  2
VERMASSUNG
 70
     0
 62
     7
  6
SLD-Durchgehend
370
    -3
390
F
  0
LAYER
  5
66
330
2
100
AcDbSymbolTableRecord
100
AcDbLayerTableRecord
  2
KOPF_DÜNN
 70
     0
 62
     7
  6
SLD-Durchgehend
370
    -3
390
F
  0
LAYER
  5
67
330
2
100
AcDbSymbolTableRecord
100
AcDbLayerTableRecord
  2
KOPF_DICK
 70
     0
 62
     7
  6
SLD-Durchgehend
370
    15
390
F
  0
ENDTAB
  0
TABLE
  2
STYLE
  5
3
330
0
100
AcDbSymbolTable
 70
     2
  0
STYLE
  5
11
330
3
100
AcDbSymbolTableRecord
100
AcDbTextStyleTableRecord
  2
STANDARD
 70
     0
 40
0.0
 41
1.0
 50
0.0
 71
     0
 42
2.5
  3
ISOCPEUR.TTF
  4

1001
ACAD
1000
ISOCPEUR
1071
       34
  0
STYLE
  5
68
330
3
100
AcDbSymbolTableRecord
100
AcDbTextStyleTableRecord
  2
SLDTEXTSTYLE0
 70
     0
 40
0.0
 41
1.0
 50
0.0
 71
     0
 42
0.2
  3
ISOCPEUR.TTF
  4

1001
ACAD
1000
ISOCPEUR
1071
      290
  0
ENDTAB
  0
TABLE
  2
VIEW
  5
6
330
0
100
AcDbSymbolTable
 70
     0
  0
ENDTAB
  0
TABLE
  2
UCS
  5
7
330
0
100
AcDbSymbolTable
 70
     0
  0
ENDTAB
  0
TABLE
  2
APPID
  5
9
330
0
100
AcDbSymbolTable
 70
     1
  0
APPID
  5
12
330
9
100
AcDbSymbolTableRecord
100
AcDbRegAppTableRecord
  2
ACAD
 70
     0
  0
ENDTAB
  0
TABLE
  2
DIMSTYLE
  5
A
330
0
100
AcDbSymbolTable
 70
     4
100
AcDbDimStyleTable
  0
DIMSTYLE
105
27
330
A
100
AcDbSymbolTableRecord
100
AcDbDimStyleTableRecord
  2
ISO-25
 70
     0
 41
2.5
 42
0.625
 43
3.75
 44
1.25
 73
     0
 74
     0
 77
     1
 78
     8
140
2.5
141
2.5
143
0.0393700787
147
0.625
171
     3
172
     1
271
     2
272
     2
274
     3
278
    44
283
     0
284
     8
340
11
  0
DIMSTYLE
105
27D
102
{ACAD_REACTORS
330
27C
330
289
330
293
330
29D
102
}
330
A
100
AcDbSymbolTableRecord
100
AcDbDimStyleTableRecord
  2
SLDDIMSTYLE0
 70
     0
 41
3.0
 44
0.0
 45
0.000000001
 73
     0
 74
     0
 77
     1
 78
    12
140
2.0
147
0.5
173
     1
271
     2
272
     3
284
    12
340
68
  0
DIMSTYLE
105
2A7
102
{ACAD_REACTORS
330
2A6
102
}
330
A
100
AcDbSymbolTableRecord
100
AcDbDimStyleTableRecord
  2
SLDDIMSTYLE1
 70
     0
 41
3.0
 44
0.0
 73
     0
 74
     0
 77
     1
 78
    12
140
2.0
147
0.5
173
     1
179
     1
272
     3
284
    12
340
68
  0
DIMSTYLE
105
343
102
{ACAD_REACTORS
330
342
102
}
330
A
100
AcDbSymbolTableRecord
100
AcDbDimStyleTableRecord
  2
SLDDIMSTYLE2
 70
     0
 41
3.0
 44
0.0
 45
0.000000001
 73
     0
 74
     0
 77
     1
 78
    12
140
2.0
147
0.5
173
     1
271
     2
272
     3
284
    12
340
68
  0
ENDTAB
  0
TABLE
  2
BLOCK_RECORD
  5
1
330
0
100
AcDbSymbolTable
 70
     8
  0
BLOCK_RECORD
  5
1F
330
1
100
AcDbSymbolTableRecord
100
AcDbBlockTableRecord
  2
*Model_Space
340
22
  0
BLOCK_RECORD
  5
1B
330
1
100
AcDbSymbolTableRecord
100
AcDbBlockTableRecord
  2
*Paper_Space
340
1E
  0
BLOCK_RECORD
  5
23
330
1
100
AcDbSymbolTableRecord
100
AcDbBlockTableRecord
  2
*Paper_Space0
340
26
  0
BLOCK_RECORD
  5
27E
330
1
100
AcDbSymbolTableRecord
100
AcDbBlockTableRecord
  2
*D1
340
0
  0
BLOCK_RECORD
  5
28A
330
1
100
AcDbSymbolTableRecord
100
AcDbBlockTableRecord
  2
*D2
340
0
  0
BLOCK_RECORD
  5
294
330
1
100
AcDbSymbolTableRecord
100
AcDbBlockTableRecord
  2
*D3
340
0
  0
BLOCK_RECORD
  5
29E
330
1
100
AcDbSymbolTableRecord
100
AcDbBlockTableRecord
  2
*D4
340
0
  0
BLOCK_RECORD
  5
2A8
330
1
100
AcDbSymbolTableRecord
100
AcDbBlockTableRecord
  2
*D5
340
0
  0
BLOCK_RECORD
  5
344
330
1
100
AcDbSymbolTableRecord
100
AcDbBlockTableRecord
  2
*D6
340
0
  0
BLOCK_RECORD
  5
34E
330
1
100
AcDbSymbolTableRecord
100
AcDbBlockTableRecord
  2
SW_CENTERMARKSYMBOL_0
340
0
102
{BLKREFS
331
359
102
}
  0
ENDTAB
  0
ENDSEC
  0
SECTION
  2
BLOCKS
  0
BLOCK
  5
20
330
1F
100
AcDbEntity
  8
0
100
AcDbBlockBegin
  2
*Model_Space
 70
     0
 10
0.0
 20
0.0
 30
0.0
  3
*Model_Space
  1

  0
ENDBLK
  5
21
330
1F
100
AcDbEntity
  8
0
100
AcDbBlockEnd
  0
BLOCK
  5
1C
330
1B
100
AcDbEntity
 67
     1
  8
0
100
AcDbBlockBegin
  2
*Paper_Space
 70
     0
 10
0.0
 20
0.0
 30
0.0
  3
*Paper_Space
  1

  0
ENDBLK
  5
1D
330
1B
100
AcDbEntity
 67
     1
  8
0
100
AcDbBlockEnd
  0
BLOCK
  5
24
330
23
100
AcDbEntity
  8
0
100
AcDbBlockBegin
  2
*Paper_Space0
 70
     0
 10
0.0
 20
0.0
 30
0.0
  3
*Paper_Space0
  1

  0
ENDBLK
  5
25
330
23
100
AcDbEntity
  8
0
100
AcDbBlockEnd
  0
BLOCK
  5
27F
330
27E
100
AcDbEntity
  8
0
100
AcDbBlockBegin
  2
*D1
 70
     1
 10
0.0
 20
0.0
 30
0.0
  3
*D1
  1

  0
SOLID
  5
281
330
27E
100
AcDbEntity
  8
VERMASSUNG
100
AcDbTrace
 10
146.1631634082
 20
130.2961577101
 30
0.0
 11
145.7131634082
 21
127.2961577101
 31
0.0
 12
146.6131634082
 22
127.2961577101
 32
0.0
 13
146.6131634082
 23
127.2961577101
 33
0.0
  0
SOLID
  5
282
330
27E
100
AcDbEntity
  8
VERMASSUNG
100
AcDbTrace
 10
146.1631634082
 20
67.2961577101
 30
0.0
 11
146.6131634082
 21
70.2961577101
 31
0.0
 12
145.7131634082
 22
70.2961577101
 32
0.0
 13
145.7131634082
 23
70.2961577101
 33
0.0
  0
LINE
  5
283
330
27E
100
AcDbEntity
  8
VERMASSUNG
100
AcDbLine
 10
183.7010734779
 20
130.2961577101
 30
0.0
 11
145.1631634082
 21
130.2961577101
 31
0.0
  0
LINE
  5
284
330
27E
100
AcDbEntity
  8
VERMASSUNG
100
AcDbLine
 10
183.7010734779
 20
67.2961577101
 30
0.0
 11
145.1631634082
 21
67.2961577101
 31
0.0
  0
LINE
  5
285
330
27E
100
AcDbEntity
  8
VERMASSUNG
100
AcDbLine
 10
146.1631634082
 20
130.2961577101
 30
0.0
 11
146.1631634082
 21
67.2961577101
 31
0.0
  0
MTEXT
  5
286
330
27E
100
AcDbEntity
  8
VERMASSUNG
100
AcDbMText
 10
143.3631636316
 20
92.5919953714
 30
0.0
 40
2.0
 41
0.0
 71
     1
 72
     1
  1
HSK 
  7
SLDTEXTSTYLE0
 11
-7.044195017643634E-15
 21
1.0
 31
0.0
 73
     1
 44
1.0
  0
MTEXT
  5
287
330
27E
100
AcDbEntity
  8
VERMASSUNG
100
AcDbMText
 10
143.5631635829
 20
98.5919954235
 30
0.0
 40
2.0
 41
0.0
 71
     1
 72
     1
  1
%%c
  7
SLDTEXTSTYLE0
 11
-7.044195017643634E-15
 21
1.0
 31
0.0
 73
     1
 44
1.0
  0
MTEXT
  5
288
330
27E
100
AcDbEntity
  8
VERMASSUNG
100
AcDbMText
 10
143.5631632918
 20
102.2005681133
 30
0.0
 40
2.0
 41
0.0
 71
     1
 72
     1
  1
63
  7
SLDTEXTSTYLE0
 11
-7.044195017643634E-15
 21
1.0
 31
0.0
 73
     1
 44
1.0
  0
ENDBLK
  5
280
330
27E
100
AcDbEntity
  8
0
100
AcDbBlockEnd
  0
BLOCK
  5
28B
330
28A
100
AcDbEntity
  8
0
100
AcDbBlockBegin
  2
*D2
 70
     1
 10
0.0
 20
0.0
 30
0.0
  3
*D2
  1

  0
SOLID
  5
28D
330
28A
100
AcDbEntity
  8
VERMASSUNG
100
AcDbTrace
 10
253.4010734779
 20
154.3760251978
 30
0.0
 11
250.4010734779
 21
154.8260251978
 31
0.0
 12
250.4010734779
 22
153.9260251978
 32
0.0
 13
250.4010734779
 23
153.9260251978
 33
0.0
  0
SOLID
  5
28E
330
28A
100
AcDbEntity
  8
VERMASSUNG
100
AcDbTrace
 10
151.5010734779
 20
154.3760251978
 30
0.0
 11
154.5010734779
 21
153.9260251978
 31
0.0
 12
154.5010734779
 22
154.8260251978
 32
0.0
 13
154.5010734779
 23
154.8260251978
 33
0.0
  0
LINE
  5
28F
330
28A
100
AcDbEntity
  8
VERMASSUNG
100
AcDbLine
 10
253.4010734779
 20
143.7961577101
 30
0.0
 11
253.4010734779
 21
155.3760251978
 31
0.0
  0
LINE
  5
290
330
28A
100
AcDbEntity
  8
VERMASSUNG
100
AcDbLine
 10
151.5010734779
 20
118.4868354566
 30
0.0
 11
151.5010734779
 21
155.3760251978
 31
0.0
  0
LINE
  5
291
330
28A
100
AcDbEntity
  8
VERMASSUNG
100
AcDbLine
 10
253.4010734779
 20
154.3760251978
 30
0.0
 11
151.5010734779
 21
154.3760251978
 31
0.0
  0
MTEXT
  5
292
330
28A
100
AcDbEntity
  8
VERMASSUNG
100
AcDbMText
 10
199.7514871876
 20
156.9760253142
 30
0.0
 40
2.0
 41
0.0
 71
     1
 72
     1
  1
101.9
  7
SLDTEXTSTYLE0
 73
     1
 44
1.0
  0
ENDBLK
  5
28C
330
28A
100
AcDbEntity
  8
0
100
AcDbBlockEnd
  0
BLOCK
  5
295
330
294
100
AcDbEntity
  8
0
100
AcDbBlockBegin
  2
*D3
 70
     1
 10
0.0
 20
0.0
 30
0.0
  3
*D3
  1

  0
SOLID
  5
297
330
294
100
AcDbEntity
  8
VERMASSUNG
100
AcDbTrace
 10
183.4010734779
 20
148.3760251978
 30
0.0
 11
186.4010734779
 21
147.9260251978
 31
0.0
 12
186.4010734779
 22
148.8260251978
 32
0.0
 13
186.4010734779
 23
148.8260251978
 33
0.0
  0
SOLID
  5
298
330
294
100
AcDbEntity
  8
VERMASSUNG
100
AcDbTrace
 10
253.4010734779
 20
148.3760251978
 30
0.0
 11
250.4010734779
 21
148.8260251978
 31
0.0
 12
250.4010734779
 22
147.9260251978
 32
0.0
 13
250.4010734779
 23
147.9260251978
 33
0.0
  0
LINE
  5
299
330
294
100
AcDbEntity
  8
VERMASSUNG
100
AcDbLine
 10
183.4010734779
 20
129.9961577101
 30
0.0
 11
183.4010734779
 21
149.3760251978
 31
0.0
  0
LINE
  5
29A
330
294
100
AcDbEntity
  8
VERMASSUNG
100
AcDbLine
 10
253.4010734779
 20
143.7961577101
 30
0.0
 11
253.4010734779
 21
149.3760251978
 31
0.0
  0
LINE
  5
29B
330
294
100
AcDbEntity
  8
VERMASSUNG
100
AcDbLine
 10
183.4010734779
 20
148.3760251978
 30
0.0
 11
253.4010734779
 21
148.3760251978
 31
0.0
  0
MTEXT
  5
29C
330
294
100
AcDbEntity
  8
VERMASSUNG
100
AcDbMText
 10
217.0011975102
 20
150.9760253142
 30
0.0
 40
2.0
 41
0.0
 71
     1
 72
     1
  1
70
  7
SLDTEXTSTYLE0
 73
     1
 44
1.0
  0
ENDBLK
  5
296
330
294
100
AcDbEntity
  8
0
100
AcDbBlockEnd
  0
BLOCK
  5
29F
330
29E
100
AcDbEntity
  8
0
100
AcDbBlockBegin
  2
*D4
 70
     1
 10
0.0
 20
0.0
 30
0.0
  3
*D4
  1

  0
SOLID
  5
2A1
330
29E
100
AcDbEntity
  8
VERMASSUNG
100
AcDbTrace
 10
264.2521705959
 20
143.7961577101
 30
0.0
 11
263.8021705959
 21
140.7961577101
 31
0.0
 12
264.7021705959
 22
140.7961577101
 32
0.0
 13
264.7021705959
 23
140.7961577101
 33
0.0
  0
SOLID
  5
2A2
330
29E
100
AcDbEntity
  8
VERMASSUNG
100
AcDbTrace
 10
264.2521705959
 20
98.7961577101
 30
0.0
 11
264.7021705959
 21
101.7961577101
 31
0.0
 12
263.8021705959
 22
101.7961577101
 32
0.0
 13
263.8021705959
 23
101.7961577101
 33
0.0
  0
LINE
  5
2A3
330
29E
100
AcDbEntity
  8
VERMASSUNG
100
AcDbLine
 10
253.4010734779
 20
143.7961577101
 30
0.0
 11
265.2521705959
 21
143.7961577101
 31
0.0
  0
LINE
  5
2A4
330
29E
100
AcDbEntity
  8
VERMASSUNG
100
AcDbLine
 10
264.2521705959
 20
143.7961577101
 30
0.0
 11
264.2521705959
 21
98.7961577101
 31
0.0
  0
MTEXT
  5
2A5
330
29E
100
AcDbEntity
  8
VERMASSUNG
100
AcDbMText
 10
261.6521704794
 20
119.7973376294
 30
0.0
 40
2.0
 41
0.0
 71
     1
 72
     1
  1
45
  7
SLDTEXTSTYLE0
 11
-7.044195017643634E-15
 21
1.0
 31
0.0
 73
     1
 44
1.0
  0
ENDBLK
  5
2A0
330
29E
100
AcDbEntity
  8
0
100
AcDbBlockEnd
  0
BLOCK
  5
2A9
330
2A8
100
AcDbEntity
  8
0
100
AcDbBlockBegin
  2
*D5
 70
     1
 10
0.0
 20
0.0
 30
0.0
  3
*D5
  1

  0
ARC
  5
2AB
330
2A8
100
AcDbEntity
  8
VERMASSUNG
100
AcDbCircle
 10
253.4010734779
 20
153.1375460882
 30
0.0
 40
43.08797930390684
100
AcDbArc
 50
266.9592566875
 51
270.0
  0
ARC
  5
2AC
330
2A8
100
AcDbEntity
  8
VERMASSUNG
100
AcDbCircle
 10
253.4010734779
 20
153.1375460882
 30
0.0
 40
43.08797930390685
100
AcDbArc
 50
258.9984941365
 51
266.9592566875
  0
ARC
  5
2AD
330
2A8
100
AcDbEntity
  8
VERMASSUNG
100
AcDbCircle
 10
253.4010734779
 20
153.1375460882
 30
0.0
 40
43.08797930390685
100
AcDbArc
 50
270.0
 51
282.0432433852
  0
SOLID
  5
2AE
330
2A8
100
AcDbEntity
  8
VERMASSUNG
100
AcDbTrace
 10
251.1154253669
 20
110.1102318192
 30
0.0
 11
248.1664599391
 21
110.8216409179
 31
0.0
 12
248.0875168728
 22
109.9251098297
 32
0.0
 13
248.0875168728
 23
109.9251098297
 33
0.0
  0
SOLID
  5
2AF
330
2A8
100
AcDbEntity
  8
VERMASSUNG
100
AcDbTrace
 10
253.4010734779
 20
110.0495667843
 30
0.0
 11
256.4148988818
 21
109.7040867782
 31
0.0
 12
256.383624416
 22
110.6035432295
 32
0.0
 13
256.383624416
 23
110.6035432295
 33
0.0
  0
MTEXT
  5
2B0
330
2A8
100
AcDbEntity
  8
VERMASSUNG
100
AcDbMText
 10
257.8962500882
 20
112.8788936909
 30
0.0
 40
2.0
 41
0.0
 71
     1
 72
     1
  1
3°
  7
SLDTEXTSTYLE0
 11
0.9897519779886851
 21
0.1427971360619165
 31
0.0
 73
     1
 44
1.0
  0
ENDBLK
  5
2AA
330
2A8
100
AcDbEntity
  8
0
100
AcDbBlockEnd
  0
BLOCK
  5
345
330
344
100
AcDbEntity
  8
0
100
AcDbBlockBegin
  2
*D6
 70
     1
 10
0.0
 20
0.0
 30
0.0
  3
*D6
  1

  0
SOLID
  5
347
330
344
100
AcDbEntity
  8
VERMASSUNG
100
AcDbTrace
 10
39.0289042712
 20
63.7961279131
 30
0.0
 11
39.4789042712
 21
66.7961279131
 31
0.0
 12
38.5789042712
 22
66.7961279131
 32
0.0
 13
38.5789042712
 23
66.7961279131
 33
0.0
  0
SOLID
  5
348
330
344
100
AcDbEntity
  8
VERMASSUNG
100
AcDbTrace
 10
39.0289042712
 20
143.7961279131
 30
0.0
 11
38.5789042712
 21
140.7961279131
 31
0.0
 12
39.4789042712
 22
140.7961279131
 32
0.0
 13
39.4789042712
 23
140.7961279131
 33
0.0
  0
LINE
  5
349
330
344
100
AcDbEntity
  8
VERMASSUNG
100
AcDbLine
 10
82.9446201962
 20
63.7961279131
 30
0.0
 11
38.0289042712
 21
63.7961279131
 31
0.0
  0
LINE
  5
34A
330
344
100
AcDbEntity
  8
VERMASSUNG
100
AcDbLine
 10
82.9446201962
 20
143.7961279131
 30
0.0
 11
38.0289042712
 21
143.7961279131
 31
0.0
  0
LINE
  5
34B
330
344
100
AcDbEntity
  8
VERMASSUNG
100
AcDbLine
 10
39.0289042712
 20
63.7961279131
 30
0.0
 11
39.0289042712
 21
143.7961279131
 31
0.0
  0
MTEXT
  5
34C
330
344
100
AcDbEntity
  8
VERMASSUNG
100
AcDbMText
 10
36.428904213
 20
100.5920488002
 30
0.0
 40
2.0
 41
0.0
 71
     1
 72
     1
  1
%%c
  7
SLDTEXTSTYLE0
 11
6.123233995736766E-17
 21
1.0
 31
0.0
 73
     1
 44
1.0
  0
MTEXT
  5
34D
330
344
100
AcDbEntity
  8
VERMASSUNG
100
AcDbMText
 10
36.4289041548
 20
104.2004550905
 30
0.0
 40
2.0
 41
0.0
 71
     1
 72
     1
  1
80
  7
SLDTEXTSTYLE0
 11
6.123233995736766E-17
 21
1.0
 31
0.0
 73
     1
 44
1.0
  0
ENDBLK
  5
346
330
344
100
AcDbEntity
  8
0
100
AcDbBlockEnd
  0
BLOCK
  5
34F
330
34E
100
AcDbEntity
  8
0
100
AcDbBlockBegin
  2
SW_CENTERMARKSYMBOL_0
 70
     0
 10
0.0
 20
0.0
 30
0.0
  3
SW_CENTERMARKSYMBOL_0
  1

  0
LINE
  5
351
330
34E
100
AcDbEntity
  8
VERMASSUNG
 62
     0
100
AcDbLine
 10
0.0
 20
0.0
 30
0.0
 11
0.0
 21
2.5
 31
0.0
  0
LINE
  5
352
330
34E
100
AcDbEntity
  8
VERMASSUNG
 62
     0
100
AcDbLine
 10
0.0
 20
0.0
 30
0.0
 11
-2.5
 21
0.0
 31
0.0
  0
LINE
  5
353
330
34E
100
AcDbEntity
  8
VERMASSUNG
 62
     0
100
AcDbLine
 10
0.0
 20
0.0
 30
0.0
 11
0.0
 21
-2.5
 31
0.0
  0
LINE
  5
354
330
34E
100
AcDbEntity
  8
VERMASSUNG
 62
     0
100
AcDbLine
 10
0.0
 20
0.0
 30
0.0
 11
2.5
 21
0.0
 31
0.0
  0
LINE
  5
355
330
34E
100
AcDbEntity
  8
VERMASSUNG
 62
     0
100
AcDbLine
 10
0.0
 20
5.0
 30
0.0
 11
0.0
 21
45.9431776679
 31
0.0
  0
LINE
  5
356
330
34E
100
AcDbEntity
  8
VERMASSUNG
 62
     0
100
AcDbLine
 10
-5.0
 20
0.0
 30
0.0
 11
-34.0
 21
0.0
 31
0.0
  0
LINE
  5
357
330
34E
100
AcDbEntity
  8
VERMASSUNG
 62
     0
100
AcDbLine
 10
0.0
 20
-5.0
 30
0.0
 11
0.0
 21
-34.0
 31
0.0
  0
LINE
  5
358
330
34E
100
AcDbEntity
  8
VERMASSUNG
 62
     0
100
AcDbLine
 10
5.0
 20
0.0
 30
0.0
 11
34.0
 21
0.0
 31
0.0
  0
ENDBLK
  5
350
330
34E
100
AcDbEntity
  8
0
100
AcDbBlockEnd
  0
ENDSEC
  0
SECTION
  2
ENTITIES
  0
MTEXT
  5
69
330
1F
100
AcDbEntity
  8
KOPF_DÜNN
100
AcDbMText
 10
13.8892156294
 20
23.8770940835
 30
0.0
 40
3.0
 41
0.0
 71
     1
 72
     1
  1
HA6.KVD.RUA.070
  7
SLDTEXTSTYLE0
 73
     1
 44
1.0
  0
MTEXT
  5
6A
330
1F
100
AcDbEntity
  8
VERMASSUNG
100
AcDbMText
 10
13.9329988022
 20
28.9162328764
 30
0.0
 40
3.0
 41
0.0
 71
     1
 72
     1
  1
Klemmhalter rechts_Turning tool right 93° /35°
  7
SLDTEXTSTYLE0
 73
     1
 44
1.0
  0
MTEXT
  5
6B
330
1F
100
AcDbEntity
  8
VERMASSUNG
100
AcDbMText
 10
98.8601118557
 20
13.8584013966
 30
0.0
 40
2.0
 41
0.0
 71
     1
 72
     1
  1
Datum: 02.02.2009
  7
SLDTEXTSTYLE0
 73
     1
 44
1.0
  0
MTEXT
  5
6C
330
1F
100
AcDbEntity
  8
VERMASSUNG
100
AcDbMText
 10
13.933048693
 20
18.0701447943
 30
0.0
 40
2.0
 41
0.0
 71
     1
 72
     1
  1
DIN 69893 HSK 63 A ICTM / VN.. 16 04..
  7
SLDTEXTSTYLE0
 73
     1
 44
1.0
  0
MTEXT
  5
6D
330
1F
100
AcDbEntity
  8
VERMASSUNG
100
AcDbMText
 10
13.9808475933
 20
13.9309619479
 30
0.0
 40
2.0
 41
0.0
 71
     1
 72
     1
  1
Gewicht: 1162g
  7
SLDTEXTSTYLE0
 73
     1
 44
1.0
  0
LINE
  5
6E
330
1F
100
AcDbEntity
  8
0
  6
SLD-Durchgehend
 62
     7
370
    15
100
AcDbLine
 10
236.2131992478
 20
107.6643817491
 30
0.0
 11
236.5878676748
 21
108.5947900969
 31
0.0
  0
LINE
  5
6F
330
1F
100
AcDbEntity
  8
0
  6
SLD-Durchgehend
 62
     7
370
    15
100
AcDbLine
 10
233.8050287755
 20
109.7154183407
 30
0.0
 11
233.3694870654
 21
108.6338443042
 31
0.0
  0
LINE
  5
70
330
1F
100
AcDbEntity
  8
0
  6
SLD-Durchgehend
 62
     7
370
    15
100
AcDbLine
 10
234.0686871073
 20
118.605421456
 30
0.0
 11
233.9291741598
 21
118.2589710971
 31
0.0
  0
LINE
  5
71
330
1F
100
AcDbEntity
  8
0
  6
SLD-Durchgehend
 62
     7
370
    15
100
AcDbLine
 10
244.5967232736
 20
113.9632294959
 30
0.0
 11
244.7362362211
 21
114.3096798548
 31
0.0
  0
LINE
  5
72
330
1F
100
AcDbEntity
  8
0
  6
SLD-Durchgehend
 62
     7
370
    15
100
AcDbLine
 10
232.6999014781
 20
118.5526743526
 30
0.0
 11
232.3796207666
 21
117.757326183
 31
0.0
  0
LINE
  5
73
330
1F
100
AcDbEntity
  8
0
  6
SLD-Durchgehend
 62
     7
370
    15
100
AcDbLine
 10
245.3662022965
 20
112.5277277119
 30
0.0
 11
245.6864830079
 21
113.3230758815
 31
0.0
  0
LINE
  5
74
330
1F
100
AcDbEntity
  8
0
  6
SLD-Durchgehend
 62
     7
370
    15
100
AcDbLine
 10
227.5912466752
 20
110.5431502485
 30
0.0
 11
227.0796379821
 21
109.2726802418
 31
0.0
  0
LINE
  5
75
330
1F
100
AcDbEntity
  8
0
  6
SLD-Durchgehend
 62
     7
370
    15
100
AcDbLine
 10
248.7086528793
 20
117.5279732184
 30
0.0
 11
249.1590749485
 21
118.646499422
 31
0.0
  0
LINE
  5
76
330
1F
100
AcDbEntity
  8
0
  6
SLD-Durchgehend
 62
     7
370
    15
100
AcDbLine
 10
251.5007684411
 20
131.1522379679
 30
0.0
 11
247.0832596589
 21
133.7237144327
 31
0.0
  0
LINE
  5
77
330
1F
100
AcDbEntity
  8
0
  6
SLD-Durchgehend
 62
     7
370
    15
100
AcDbLine
 10
243.2886361233
 20
131.860287483
 30
0.0
 11
243.1803890274
 21
131.5914791329
 31
0.0
  0
LINE
  5
78
330
1F
100
AcDbEntity
  8
0
  6
SLD-Durchgehend
 62
     7
370
    15
100
AcDbLine
 10
252.2468792845
 20
127.4779341409
 30
0.0
 11
252.5789200996
 21
128.302485995
 31
0.0
  0
LINE
  5
79
330
1F
100
AcDbEntity
  8
0
  6
SLD-Durchgehend
 62
     7
370
    15
100
AcDbLine
 10
183.7010734779
 20
67.2961577101
 30
0.0
 11
188.3510734779
 21
67.2961577101
 31
0.0
  0
LINE
  5
7A
330
1F
100
AcDbEntity
  8
0
  6
SLD-Durchgehend
 62
     7
370
    15
100
AcDbLine
 10
188.379061837
 20
130.2961577101
 30
0.0
 11
183.7010734779
 21
130.2961577101
 31
0.0
  0
ARC
  5
7B
330
1F
100
AcDbEntity
  8
0
  6
SLD-Durchgehend
 62
     7
370
    15
100
AcDbCircle
 10
183.7010734779
 20
67.5961577101
 30
0.0
 40
0.2999999999999972
100
AcDbArc
 50
180.0
 51
270.0
  0
ARC
  5
7C
330
1F
100
AcDbEntity
  8
0
  6
SLD-Durchgehend
 62
     7
370
    15
100
AcDbCircle
 10
183.7010734779
 20
129.9961577101
 30
0.0
 40
0.3000000000000114
100
AcDbArc
 50
90.0
 51
180.0
  0
ARC
  5
7D
330
1F
100
AcDbEntity
  8
0
  6
SLD-Durchgehend
 62
     7
370
    15
100
AcDbCircle
 10
210.3510734779
 20
71.7961577101
 30
0.0
 40
1.0
100
AcDbArc
 50
90.0
 51
143.1139143113
  0
ARC
  5
7E
330
1F
100
AcDbEntity
  8
0
  6
SLD-Durchgehend
 62
     7
370
    15
100
AcDbCircle
 10
210.3510734779
 20
125.7961577101
 30
0.0
 40
1.0
100
AcDbArc
 50
216.8996843908
 51
270.0
  0
LINE
  5
7F
330
1F
100
AcDbEntity
  8
0
  6
SLD-Durchgehend
 62
     7
370
    15
100
AcDbLine
 10
210.3510734779
 20
72.7961577101
 30
0.0
 11
224.4010734779
 21
72.7961577101
 31
0.0
  0
LINE
  5
80
330
1F
100
AcDbEntity
  8
0
  6
SLD-Durchgehend
 62
     7
370
    15
100
AcDbLine
 10
224.4010734779
 20
124.7961577101
 30
0.0
 11
210.3510734779
 21
124.7961577101
 31
0.0
  0
ARC
  5
81
330
1F
100
AcDbEntity
  8
0
  6
SLD-Durchgehend
 62
     7
370
    15
100
AcDbCircle
 10
182.9010734779
 20
74.2257268484
 30
0.0
 40
0.5999999999999943
100
AcDbArc
 50
33.5573097619
 51
90.0
  0
ARC
  5
82
330
1F
100
AcDbEntity
  8
0
  6
SLD-Durchgehend
 62
     7
370
    15
100
AcDbCircle
 10
182.9010734779
 20
123.3665885718
 30
0.0
 40
0.6000000000000085
100
AcDbArc
 50
270.0
 51
326.4426902381
  0
LINE
  5
83
330
1F
100
AcDbEntity
  8
0
  6
SLD-Durchgehend
 62
     7
370
    15
100
AcDbLine
 10
181.4010734779
 20
74.5757268484
 30
0.0
 11
182.2577862513
 21
74.8052823441
 31
0.0
  0
LINE
  5
84
330
1F
100
AcDbEntity
  8
0
  6
SLD-Durchgehend
 62
     7
370
    15
100
AcDbLine
 10
182.2577862513
 20
122.787033076
 30
0.0
 11
181.4010734779
 21
123.0165885718
 31
0.0
  0
LINE
  5
85
330
1F
100
AcDbEntity
  8
0
  6
SLD-Durchgehend
 62
     7
370
    15
100
AcDbLine
 10
170.1695646791
 20
122.4538877302
 30
0.0
 11
157.6010734779
 21
121.8242038023
 31
0.0
  0
LINE
  5
86
330
1F
100
AcDbEntity
  8
0
  6
SLD-Durchgehend
 62
     7
370
    15
100
AcDbLine
 10
181.4010734779
 20
123.0165885718
 30
0.0
 11
178.5840718206
 21
122.8754562242
 31
0.0
  0
LINE
  5
87
330
1F
100
AcDbEntity
  8
0
  6
SLD-Durchgehend
 62
     7
370
    15
100
AcDbLine
 10
178.5841279106
 20
74.7168563858
 30
0.0
 11
181.4010734779
 21
74.5757268484
 31
0.0
  0
LINE
  5
88
330
1F
100
AcDbEntity
  8
0
  6
SLD-Durchgehend
 62
     7
370
    15
100
AcDbLine
 10
161.6010734779
 20
75.5677108163
 30
0.0
 11
170.1699671978
 21
75.1384075237
 31
0.0
  0
ARC
  5
89
330
1F
100
AcDbEntity
  8
0
  6
SLD-Durchgehend
 62
     7
370
    15
100
AcDbCircle
 10
182.4130776783
 20
74.2257268484
 30
0.0
 40
0.5999999999999943
100
AcDbArc
 50
90.0
 51
105.0
  0
ARC
  5
8A
330
1F
100
AcDbEntity
  8
0
  6
SLD-Durchgehend
 62
     7
370
    15
100
AcDbCircle
 10
182.4130776783
 20
123.3665885718
 30
0.0
 40
0.6000000000000085
100
AcDbArc
 50
255.0
 51
270.0
  0
LINE
  5
8B
330
1F
100
AcDbEntity
  8
0
  6
SLD-Durchgehend
 62
     7
370
    15
100
AcDbLine
 10
182.4130776783
 20
74.8257268484
 30
0.0
 11
182.9010734779
 21
74.8257268484
 31
0.0
  0
LINE
  5
8C
330
1F
100
AcDbEntity
  8
0
  6
SLD-Durchgehend
 62
     7
370
    15
100
AcDbLine
 10
182.9010734779
 20
122.7665885718
 30
0.0
 11
182.4130776783
 21
122.7665885718
 31
0.0
  0
ARC
  5
8D
330
1F
100
AcDbEntity
  8
0
  6
SLD-Durchgehend
 62
     7
370
    15
100
AcDbCircle
 10
224.4010734779
 20
71.7961577101
 30
0.0
 40
1.000000000000014
100
AcDbArc
 50
0.0
 51
90.0
  0
ARC
  5
8E
330
1F
100
AcDbEntity
  8
0
  6
SLD-Durchgehend
 62
     7
370
    15
100
AcDbCircle
 10
224.4010734779
 20
125.7961577101
 30
0.0
 40
1.000000000000014
100
AcDbArc
 50
270.0
 51
0.0
  0
LINE
  5
8F
330
1F
100
AcDbEntity
  8
0
  6
SLD-Durchgehend
 62
     7
370
    15
100
AcDbLine
 10
225.4010734779
 20
71.7961577101
 30
0.0
 11
227.333925469
 21
71.7961577101
 31
0.0
  0
LINE
  5
90
330
1F
100
AcDbEntity
  8
0
  6
SLD-Durchgehend
 62
     7
370
    15
100
AcDbLine
 10
233.4010734779
 20
125.7961577101
 30
0.0
 11
225.4010734779
 21
125.7961577101
 31
0.0
  0
LINE
  5
91
330
1F
100
AcDbEntity
  8
0
  6
SLD-Durchgehend
 62
     7
370
    15
100
AcDbLine
 10
152.6510734779
 20
77.9836577101
 30
0.0
 11
160.2010734779
 21
77.9836577101
 31
0.0
  0
ARC
  5
92
330
1F
100
AcDbEntity
  8
0
  6
SLD-Durchgehend
 62
     7
370
    15
100
AcDbCircle
 10
160.2010734779
 20
76.5836577101
 30
0.0
 40
1.400000000000005
100
AcDbArc
 50
37.6443616934
 51
90.0
  0
LINE
  5
93
330
1F
100
AcDbEntity
  8
0
  6
SLD-Durchgehend
 62
     7
370
    15
100
AcDbLine
 10
152.6422369361
 20
119.6573211683
 30
0.0
 11
151.5109742513
 21
118.5260584835
 31
0.0
  0
LINE
  5
94
330
1F
100
AcDbEntity
  8
0
  6
SLD-Durchgehend
 62
     7
370
    15
100
AcDbLine
 10
151.4984925982
 20
79.1362385898
 30
0.0
 11
152.6510734779
 21
77.9836577101
 31
0.0
  0
ARC
  5
95
330
1F
100
AcDbEntity
  8
0
  6
SLD-Durchgehend
 62
     7
370
    15
100
AcDbCircle
 10
156.2010734779
 20
121.0661577101
 30
0.0
 40
1.399999999999991
100
AcDbArc
 50
270.0
 51
301.7485287426
  0
LINE
  5
96
330
1F
100
AcDbEntity
  8
0
  6
SLD-Durchgehend
 62
     7
370
    15
100
AcDbLine
 10
156.2010734779
 20
119.6661577101
 30
0.0
 11
152.7753392118
 21
119.6661577101
 31
0.0
  0
ARC
  5
97
330
1F
100
AcDbEntity
  8
0
  6
SLD-Durchgehend
 62
     7
370
    15
100
AcDbCircle
 10
233.4010734779
 20
131.7961577101
 30
0.0
 40
5.999999999999986
100
AcDbArc
 50
270.0
 51
290.5161088297
  0
ARC
  5
98
330
1F
100
AcDbEntity
  8
0
  6
SLD-Durchgehend
 62
     7
370
    15
100
AcDbCircle
 10
235.1981565977
 20
109.1750727471
 30
0.0
 40
1.492363257348172
100
AcDbArc
 50
242.5147826619
 51
233.4736364168
  0
LINE
  5
99
330
1F
100
AcDbEntity
  8
0
  6
SLD-Durchgehend
 62
     7
370
    15
100
AcDbLine
 10
234.561192945
 20
107.9596564983
 30
0.0
 11
234.5094014897
 21
107.8511526237
 31
0.0
  0
ARC
  5
9A
330
1F
100
AcDbEntity
  8
0
  6
SLD-Durchgehend
 62
     7
370
    15
100
AcDbCircle
 10
235.2159765647
 20
109.2181266313
 30
0.0
 40
1.418622100600477
100
AcDbArc
 50
242.5119821912
 51
233.4764368876
  0
LINE
  5
9B
330
1F
100
AcDbEntity
  8
0
  6
SLD-Durchgehend
 62
     7
370
    15
100
AcDbLine
 10
234.3716789036
 20
108.0781046474
 30
0.0
 11
234.3099130252
 21
107.9758348859
 31
0.0
  0
LINE
  5
9C
330
1F
100
AcDbEntity
  8
0
  6
SLD-Durchgehend
 62
     7
370
    15
100
AcDbLine
 10
234.6642499553
 20
108.1552492376
 30
0.0
 11
234.561192945
 21
107.9596564983
 31
0.0
  0
ARC
  5
9D
330
1F
100
AcDbEntity
  8
0
  6
SLD-Durchgehend
 62
     7
370
    15
100
AcDbCircle
 10
235.2153779857
 20
109.2145836437
 30
0.0
 40
1.194123733048018
100
AcDbArc
 50
242.5138982812
 51
233.4745207976
  0
LINE
  5
9E
330
1F
100
AcDbEntity
  8
0
  6
SLD-Durchgehend
 62
     7
370
    15
100
AcDbLine
 10
234.5046591836
 20
108.2549950473
 30
0.0
 11
234.3716789036
 21
108.0781046474
 31
0.0
  0
LINE
  5
9F
330
1F
100
AcDbEntity
  8
0
  6
SLD-Durchgehend
 62
     7
370
    15
100
AcDbLine
 10
234.3099130252
 20
107.9758348859
 30
0.0
 11
233.91277836
 21
106.9896364738
 31
0.0
  0
LINE
  5
A0
330
1F
100
AcDbEntity
  8
0
  6
SLD-Durchgehend
 62
     7
370
    15
100
AcDbLine
 10
233.9849647449
 20
106.9644458327
 30
0.0
 11
234.5046591836
 21
108.2549950473
 31
0.0
  0
LWPOLYLINE
  5
A1
330
1F
100
AcDbEntity
  8
0
  6
SLD-Durchgehend
 62
     7
370
    15
100
AcDbPolyline
 90
        3
 70
   128
 43
0.0
 10
234.4492453001
 20
108.2984325867
 10
234.8157092692
 20
108.2138519534
 10
235.1414517021
 20
108.0196862874
  0
LINE
  5
A2
330
1F
100
AcDbEntity
  8
0
  6
SLD-Durchgehend
 62
     7
370
    15
100
AcDbLine
 10
234.5094014897
 20
107.8511526237
 30
0.0
 11
234.1121584363
 21
106.8646850527
 31
0.0
  0
LWPOLYLINE
  5
A3
330
1F
100
AcDbEntity
  8
0
  6
SLD-Durchgehend
 62
     7
370
    15
100
AcDbPolyline
 90
       40
 70
   128
 43
0.0
 10
235.8996254218
 20
112.0159483852
 10
236.6736094664
 20
111.5099092884
 10
237.5182693496
 20
111.1320115041
 10
238.411728824
 20
110.8920423865
 10
239.3308477585
 20
110.7962170097
 10
240.2518214556
 20
110.8470172004
 10
241.1507971803
 20
111.0431272606
 10
242.0044919334
 20
111.3794680427
 10
242.7907954694
 20
111.847328497
 10
243.4893429396
 20
112.4345912836
 10
244.0820423315
 20
113.1260466047
 10
244.5535430422
 20
113.9037861308
 10
244.8916334509
 20
114.7476668167
 10
245.0875571937
 20
115.6358325958
 10
245.1362399486
 20
116.5452804411
 10
245.0364208576
 20
117.4524561309
 10
244.790685183
 20
118.3338642916
 10
244.4053973495
 20
119.1666769146
 10
243.8905361097
 20
119.9293245906
 10
243.2594360992
 20
120.6020551453
 10
242.5284424769
 20
121.1674452107
 10
241.7164875935
 20
121.6108514811
 10
240.844600654
 20
121.9207899671
 10
239.9353630722
 20
122.0892334245
 10
239.0123236239
 20
122.1118192565
 10
238.0993885459
 20
121.9879625017
 10
237.2202023771
 20
121.7208709851
 10
236.3975355777
 20
121.3174622366
 10
235.6526947854
 20
120.788184331
 10
235.0049709857
 20
120.146745288
 10
234.4711398846
 20
119.4097580418
 10
234.0650274273
 20
118.596310175
 10
233.7971517131
 20
117.7274695602
 10
233.6744505823
 20
116.8257387127
 10
233.7001019298
 20
115.914471988
 10
233.8734413991
 20
115.0172707154
 10
234.1899795889
 20
114.1573719368
 10
234.6415183266
 20
113.3570465788
 10
235.2163629959
 20
112.6370226477
 10
235.8996254218
 20
112.0159483852
  0
CIRCLE
  5
A4
330
1F
100
AcDbEntity
  8
0
  6
SLD-Durchgehend
 62
     7
370
    15
100
AcDbCircle
 10
239.5334472476
 20
116.840051448
 30
0.0
 40
2.482609082020644
  0
ARC
  5
A5
330
1F
100
AcDbEntity
  8
0
  6
SLD-Durchgehend
 62
     7
370
    15
100
AcDbCircle
 10
248.2464377722
 20
128.011849816
 30
0.0
 40
12.31186965924044
100
AcDbArc
 50
226.9053517183
 51
237.6540312227
  0
ARC
  5
A6
330
1F
100
AcDbEntity
  8
0
  6
SLD-Durchgehend
 62
     7
370
    15
100
AcDbCircle
 10
232.9147190515
 20
133.4625512959
 30
0.0
 40
16.01361030385078
100
AcDbArc
 50
287.40346151
 51
295.6036817988
  0
ARC
  5
A7
330
1F
100
AcDbEntity
  8
0
  6
SLD-Durchgehend
 62
     7
370
    15
100
AcDbCircle
 10
283.9392019333
 20
110.74465697
 30
0.0
 40
46.82920392296883
100
AcDbArc
 50
170.8616669492
 51
173.6407100997
  0
ARC
  5
A8
330
1F
100
AcDbEntity
  8
0
  6
SLD-Durchgehend
 62
     7
370
    15
100
AcDbCircle
 10
245.8096821253
 20
124.922039541
 30
0.0
 40
12.31186965924028
100
AcDbArc
 50
226.9053517183
 51
237.6540312227
  0
ARC
  5
A9
330
1F
100
AcDbEntity
  8
0
  6
SLD-Durchgehend
 62
     7
370
    15
100
AcDbCircle
 10
234.5894599267
 20
129.4035110127
 30
0.0
 40
15.58738841863467
100
AcDbArc
 50
287.2911482804
 51
295.7159950284
  0
ARC
  5
AA
330
1F
100
AcDbEntity
  8
0
  6
SLD-Durchgehend
 62
     7
370
    15
100
AcDbCircle
 10
286.1394005589
 20
110.4117873878
 30
0.0
 40
45.05892476973011
100
AcDbArc
 50
170.8070639541
 51
173.6953130948
  0
LINE
  5
AB
330
1F
100
AcDbEntity
  8
0
  6
SLD-Durchgehend
 62
     7
370
    15
100
AcDbLine
 10
241.214966919
 20
115.2991588719
 30
0.0
 11
241.3101297225
 21
115.9985104987
 31
0.0
  0
LINE
  5
AC
330
1F
100
AcDbEntity
  8
0
  6
SLD-Durchgehend
 62
     7
370
    15
100
AcDbLine
 10
241.3101297225
 20
115.9985104987
 30
0.0
 11
241.4632400941
 21
117.1237189161
 31
0.0
  0
LINE
  5
AD
330
1F
100
AcDbEntity
  8
0
  6
SLD-Durchgehend
 62
     7
370
    15
100
AcDbLine
 10
241.4632400941
 20
117.1237189161
 30
0.0
 11
241.6592140066
 21
117.6103779217
 31
0.0
  0
LINE
  5
AE
330
1F
100
AcDbEntity
  8
0
  6
SLD-Durchgehend
 62
     7
370
    15
100
AcDbLine
 10
239.6389259337
 20
118.5347423107
 30
0.0
 11
239.8348998462
 21
119.0214013163
 31
0.0
  0
LINE
  5
AF
330
1F
100
AcDbEntity
  8
0
  6
SLD-Durchgehend
 62
     7
370
    15
100
AcDbLine
 10
239.6389259337
 20
118.5347423107
 30
0.0
 11
238.5736584819
 21
118.1150455906
 31
0.0
  0
LINE
  5
B0
330
1F
100
AcDbEntity
  8
0
  6
SLD-Durchgehend
 62
     7
370
    15
100
AcDbLine
 10
238.5736584819
 20
118.1150455906
 30
0.0
 11
237.6373604284
 21
117.7461605548
 31
0.0
  0
LINE
  5
B1
330
1F
100
AcDbEntity
  8
0
  6
SLD-Durchgehend
 62
     7
370
    15
100
AcDbLine
 10
241.4632400941
 20
117.1237189161
 30
0.0
 11
240.5510830139
 21
117.8292306134
 31
0.0
  0
LINE
  5
B2
330
1F
100
AcDbEntity
  8
0
  6
SLD-Durchgehend
 62
     7
370
    15
100
AcDbLine
 10
240.5510830139
 20
117.8292306134
 30
0.0
 11
239.6389259337
 21
118.5347423107
 31
0.0
  0
ARC
  5
B3
330
1F
100
AcDbEntity
  8
0
  6
SLD-Durchgehend
 62
     7
370
    15
100
AcDbCircle
 10
239.3093353976
 20
116.1645079089
 30
0.0
 40
5.727311516190131
100
AcDbArc
 50
231.705668132
 51
337.3967557995
  0
ARC
  5
B4
330
1F
100
AcDbEntity
  8
0
  6
SLD-Durchgehend
 62
     7
370
    15
100
AcDbCircle
 10
239.1919691206
 20
116.1721741486
 30
0.0
 40
5.661424935731213
100
AcDbArc
 50
158.3707450858
 51
232.6860191795
  0
ARC
  5
B5
330
1F
100
AcDbEntity
  8
0
  6
SLD-Durchgehend
 62
     7
370
    15
100
AcDbCircle
 10
239.284763297
 20
116.2990140885
 30
0.0
 40
1.950292407452159
100
AcDbArc
 50
111.3838579113
 51
154.023183713
  0
ARC
  5
B6
330
1F
100
AcDbEntity
  8
0
  6
SLD-Durchgehend
 62
     7
370
    15
100
AcDbCircle
 10
239.310427028
 20
116.2290534765
 30
0.0
 40
2.024794840209262
100
AcDbArc
 50
52.2127141138
 51
111.3382529842
  0
ARC
  5
B7
330
1F
100
AcDbEntity
  8
0
  6
SLD-Durchgehend
 62
     7
370
    15
100
AcDbCircle
 10
239.346074866
 20
116.2568977005
 30
0.0
 40
1.980978401072392
100
AcDbArc
 50
352.5053200398
 51
52.534082588
  0
ARC
  5
B8
330
1F
100
AcDbEntity
  8
0
  6
SLD-Durchgehend
 62
     7
370
    15
100
AcDbCircle
 10
239.3963606746
 20
116.2587021835
 30
0.0
 40
1.931375593061746
100
AcDbArc
 50
325.3884784107
 51
352.2576676922
  0
ARC
  5
B9
330
1F
100
AcDbEntity
  8
0
  6
SLD-Durchgehend
 62
     7
370
    15
100
AcDbCircle
 10
239.4178972154
 20
116.0445958796
 30
0.0
 40
5.830466502544509
100
AcDbArc
 50
329.8476811269
 51
21.1947220553
  0
ARC
  5
BA
330
1F
100
AcDbEntity
  8
0
  6
SLD-Durchgehend
 62
     7
370
    15
100
AcDbCircle
 10
239.3020398258
 20
116.1148855302
 30
0.0
 40
5.965954677460767
100
AcDbArc
 50
116.4261419744
 51
329.8228673458
  0
LWPOLYLINE
  5
BB
330
1F
100
AcDbEntity
  8
0
  6
SLD-Durchgehend
 62
     7
370
    15
100
AcDbPolyline
 90
       37
 70
   128
 43
0.0
 10
239.2055065344
 20
109.0440820368
 10
240.2184254824
 20
109.106476283
 10
241.2096518691
 20
109.3134137737
 10
242.1582126723
 20
109.6605159891
 10
243.0440376167
 20
110.1404387113
 10
243.8483838334
 20
110.7430274187
 10
244.5542324345
 20
111.4555321418
 10
245.1466486095
 20
112.2628772355
 10
245.613097626
 20
113.1479803595
 10
245.9437100478
 20
114.0921139179
 10
246.1314905593
 20
115.0753013097
 10
246.1724659764
 20
116.0767396073
 10
246.0657693142
 20
117.0752397185
 10
245.8136581311
 20
118.0496747188
 10
245.4214667619
 20
118.9794268696
 10
244.8974934504
 20
119.8448238613
 10
244.2528247696
 20
120.6275550532
 10
243.501101045
 20
121.3110589024
 10
242.6582277431
 20
121.8808733832
 10
241.7420389336
 20
122.3249419849
 10
240.7719199437
 20
122.633868811
 10
239.7683971914
 20
122.8011173838
 10
238.7527038732
 20
122.8231489476
 10
237.7463306986
 20
122.6994973442
 10
236.7705711754
 20
122.4327788756
 10
235.8460710674
 20
122.0286369474
 10
234.992391558
 20
121.495622661
 10
234.2275953616
 20
120.8450138845
 10
233.5678645408
 20
120.0905766277
 10
233.0271581157
 20
119.248273772
 10
232.6169167097
 20
118.335927317
 10
232.3458204811
 20
117.3728412911
 10
232.2196054628
 20
116.3793933039
 10
232.2409421955
 20
115.3766033836
 10
232.4093792226
 20
114.385689221
 10
232.7213526421
 20
113.4276172319
 10
233.1702615148
 20
112.5226589356
  0
ARC
  5
BC
330
1F
100
AcDbEntity
  8
0
  6
SLD-Durchgehend
 62
     7
370
    15
100
AcDbCircle
 10
237.9059528158
 20
108.5861891834
 30
0.0
 40
1.377862740856725
100
AcDbArc
 50
19.4097171424
 51
139.9855277078
  0
ARC
  5
BD
330
1F
100
AcDbEntity
  8
0
  6
SLD-Durchgehend
 62
     7
370
    15
100
AcDbCircle
 10
239.2858753471
 20
116.1680122405
 30
0.0
 40
7.124960863044375
100
AcDbArc
 50
249.7213154846
 51
250.0143526868
  0
ARC
  5
BE
330
1F
100
AcDbEntity
  8
0
  6
SLD-Durchgehend
 62
     7
370
    15
100
AcDbCircle
 10
235.4461352412
 20
109.5045628474
 30
0.0
 40
1.3704677350995
100
AcDbArc
 50
359.1683489433
 51
120.9153257907
  0
ARC
  5
BF
330
1F
100
AcDbEntity
  8
0
  6
SLD-Durchgehend
 62
     7
370
    15
100
AcDbCircle
 10
239.265950669
 20
116.1383576154
 30
0.0
 40
7.089145877393293
100
AcDbArc
 50
230.0521451547
 51
230.346168495
  0
ARC
  5
C0
330
1F
100
AcDbEntity
  8
0
  6
SLD-Durchgehend
 62
     7
370
    15
100
AcDbCircle
 10
233.4359620812
 20
111.1835180975
 30
0.0
 40
1.365245390139573
100
AcDbArc
 50
339.4199037682
 51
101.2223765305
  0
LINE
  5
C1
330
1F
100
AcDbEntity
  8
0
  6
SLD-Durchgehend
 62
     7
370
    15
100
AcDbLine
 10
238.8852258229
 20
108.2487338672
 30
0.0
 11
239.2055065344
 21
109.0440820368
 31
0.0
  0
LINE
  5
C2
330
1F
100
AcDbEntity
  8
0
  6
SLD-Durchgehend
 62
     7
370
    15
100
AcDbLine
 10
236.5303917534
 20
108.6767806921
 30
0.0
 11
236.8214431438
 21
108.7885485493
 31
0.0
  0
LWPOLYLINE
  5
C3
330
1F
100
AcDbEntity
  8
0
  6
SLD-Durchgehend
 62
     7
370
    15
100
AcDbPolyline
 90
        3
 70
   128
 43
0.0
 10
238.6615345817
 20
108.4275114148
 10
238.8115728111
 20
108.3228333456
 10
238.8852258229
 20
108.2487338672
  0
LINE
  5
C4
330
1F
100
AcDbEntity
  8
0
  6
SLD-Durchgehend
 62
     7
370
    15
100
AcDbLine
 10
236.8506724649
 20
109.4721288617
 30
0.0
 11
236.6915620863
 21
109.0770125033
 31
0.0
  0
LINE
  5
C5
330
1F
100
AcDbEntity
  8
0
  6
SLD-Durchgehend
 62
     7
370
    15
100
AcDbLine
 10
236.6922641276
 20
109.1762608913
 30
0.0
 11
236.8164586093
 21
109.4846711393
 31
0.0
  0
LINE
  5
C6
330
1F
100
AcDbEntity
  8
0
  6
SLD-Durchgehend
 62
     7
370
    15
100
AcDbLine
 10
234.7420290002
 20
110.6803248191
 30
0.0
 11
234.6900754063
 21
110.5513092578
 31
0.0
  0
LINE
  5
C7
330
1F
100
AcDbEntity
  8
0
  6
SLD-Durchgehend
 62
     7
370
    15
100
AcDbLine
 10
234.6464124553
 20
110.5355745109
 30
0.0
 11
234.7140798372
 21
110.7036118806
 31
0.0
  0
LINE
  5
C8
330
1F
100
AcDbEntity
  8
0
  6
SLD-Durchgehend
 62
     7
370
    15
100
AcDbLine
 10
232.8499808033
 20
111.727310766
 30
0.0
 11
233.1426031022
 21
111.6056788714
 31
0.0
  0
LINE
  5
C9
330
1F
100
AcDbEntity
  8
0
  6
SLD-Durchgehend
 62
     7
370
    15
100
AcDbLine
 10
233.1702615148
 20
112.5226589356
 30
0.0
 11
232.8499808033
 21
111.727310766
 31
0.0
  0
ARC
  5
CA
330
1F
100
AcDbEntity
  8
0
  6
SLD-Durchgehend
 62
     7
370
    15
100
AcDbCircle
 10
239.0008625162
 20
115.1211399901
 30
0.0
 40
6.873378918881141
100
AcDbArc
 50
269.0360189434
 51
337.8326837896
  0
ARC
  5
CB
330
1F
100
AcDbEntity
  8
0
  6
SLD-Durchgehend
 62
     7
370
    15
100
AcDbCircle
 10
238.7282116745
 20
115.2191836185
 30
0.0
 40
6.8371612672052
100
AcDbArc
 50
158.2086571538
 51
210.7117795333
  0
LWPOLYLINE
  5
CC
330
1F
100
AcDbEntity
  8
0
  6
SLD-Durchgehend
 62
     7
370
    15
100
AcDbPolyline
 90
        3
 70
   128
 43
0.0
 10
228.0840927601
 20
111.5508263306
 10
227.6157979588
 20
110.6033952121
 10
227.2746004091
 20
109.5819141928
  0
ARC
  5
CD
330
1F
100
AcDbEntity
  8
0
  6
SLD-Durchgehend
 62
     7
370
    15
100
AcDbCircle
 10
236.4658513147
 20
107.3566843327
 30
0.0
 40
9.456782811245759
100
AcDbArc
 50
166.3903879909
 51
229.4412905723
  0
ARC
  5
CE
330
1F
100
AcDbEntity
  8
0
  6
SLD-Durchgehend
 62
     7
370
    15
100
AcDbCircle
 10
233.2607163863
 20
108.9462748837
 30
0.0
 40
9.254987017269107
100
AcDbArc
 50
251.4525407607
 51
314.3673381472
  0
LWPOLYLINE
  5
CF
330
1F
100
AcDbEntity
  8
0
  6
SLD-Durchgehend
 62
     7
370
    15
100
AcDbPolyline
 90
        3
 70
   128
 43
0.0
 10
241.0428299015
 20
104.007414599
 10
240.4506268865
 20
103.1321117027
 10
239.7323210031
 20
102.3301492521
  0
ARC
  5
D0
330
1F
100
AcDbEntity
  8
0
  6
SLD-Durchgehend
 62
     7
370
    15
100
AcDbCircle
 10
229.3984629937
 20
109.2995102567
 30
0.0
 40
12.90468462664646
100
AcDbArc
 50
325.057153684
 51
330.0400076594
  0
ARC
  5
D1
330
1F
100
AcDbEntity
  8
0
  6
SLD-Durchgehend
 62
     7
370
    15
100
AcDbCircle
 10
234.0940506333
 20
106.5814322208
 30
0.0
 40
7.512975492597462
100
AcDbArc
 50
159.0094886008
 51
321.5364415076
  0
LWPOLYLINE
  5
D2
330
1F
100
AcDbEntity
  8
0
  6
SLD-Durchgehend
 62
     7
370
    15
100
AcDbPolyline
 90
        9
 70
   128
 43
0.0
 10
228.0840927601
 20
111.5508263306
 10
228.7880103217
 20
112.7588230025
 10
229.4922511311
 20
113.9652514627
 10
230.1962643907
 20
115.1691681448
 10
230.8994994806
 20
116.3696314467
 10
231.6014063898
 20
117.5657024673
 10
232.3014361458
 20
118.7564457407
 10
232.9990412443
 20
119.940929968
 10
233.6936760777
 20
121.1182287456
  0
ARC
  5
D3
330
1F
100
AcDbEntity
  8
0
  6
SLD-Durchgehend
 62
     7
370
    15
100
AcDbCircle
 10
263.4126888249
 20
103.7883116721
 30
0.0
 40
34.40269966788444
100
AcDbArc
 50
123.3784483064
 51
149.7524441647
  0
ARC
  5
D4
330
1F
100
AcDbEntity
  8
0
  6
SLD-Durchgehend
 62
     7
370
    15
100
AcDbCircle
 10
216.2836820499
 20
131.7864990984
 30
0.0
 40
35.410806220335
100
AcDbArc
 50
329.0495027972
 51
354.5344613573
  0
LWPOLYLINE
  5
D5
330
1F
100
AcDbEntity
  8
0
  6
SLD-Durchgehend
 62
     7
370
    15
100
AcDbPolyline
 90
        9
 70
   128
 43
0.0
 10
241.0428299015
 20
104.007414599
 10
241.7467474631
 20
105.2154112708
 10
242.4509882725
 20
106.4218397311
 10
243.1550015321
 20
107.6257564132
 10
243.8582366221
 20
108.8262197151
 10
244.5601435312
 20
110.0222907357
 10
245.2601732872
 20
111.2130340091
 10
245.9577783858
 20
112.3975182364
 10
246.6524132191
 20
113.574817014
  0
LINE
  5
D6
330
1F
100
AcDbEntity
  8
0
  6
SLD-Durchgehend
 62
     7
370
    15
100
AcDbLine
 10
245.4021722155
 20
112.6170512592
 30
0.0
 11
245.3142958192
 21
112.4430349891
 31
0.0
  0
ARC
  5
D7
330
1F
100
AcDbEntity
  8
0
  6
SLD-Durchgehend
 62
     7
370
    15
100
AcDbCircle
 10
238.5737531969
 20
112.7508135283
 30
0.0
 40
4.13621685814691
100
AcDbArc
 50
248.154846044
 51
269.3115546214
  0
LWPOLYLINE
  5
D8
330
1F
100
AcDbEntity
  8
0
  6
SLD-Durchgehend
 62
     7
370
    15
100
AcDbPolyline
 90
        3
 70
   128
 43
0.0
 10
234.4261479892
 20
110.4180425821
 10
234.095111467
 20
110.7011730141
 10
233.3651992916
 20
111.5798612816
  0
ARC
  5
D9
330
1F
100
AcDbEntity
  8
0
  6
SLD-Durchgehend
 62
     7
370
    15
100
AcDbCircle
 10
234.804188959
 20
108.1737884598
 30
0.0
 40
1.482092467936498
100
AcDbArc
 50
156.5193439964
 51
340.1920383727
  0
LINE
  5
DA
330
1F
100
AcDbEntity
  8
0
  6
SLD-Durchgehend
 62
     7
370
    15
100
AcDbLine
 10
246.1607665997
 20
112.353918518
 30
0.0
 11
241.3549602545
 21
104.1948144843
 31
0.0
  0
ARC
  5
DB
330
1F
100
AcDbEntity
  8
0
  6
SLD-Durchgehend
 62
     7
370
    15
100
AcDbCircle
 10
333.2456043491
 20
50.0650764242
 30
0.0
 40
106.6485771802487
100
AcDbArc
 50
149.499068597
 51
150.3309600586
  0
ARC
  5
DC
330
1F
100
AcDbEntity
  8
0
  6
SLD-Durchgehend
 62
     7
370
    15
100
AcDbCircle
 10
244.9851922563
 20
129.6762199406
 30
0.0
 40
6.668899056028013
100
AcDbArc
 50
349.0874278023
 51
12.6552951488
  0
ARC
  5
DD
330
1F
100
AcDbEntity
  8
0
  6
SLD-Durchgehend
 62
     7
370
    15
100
AcDbCircle
 10
212.8863684332
 20
131.9537626814
 30
0.0
 40
38.61786457802714
100
AcDbArc
 50
329.5003505927
 51
338.0651399048
  0
ARC
  5
DE
330
1F
100
AcDbEntity
  8
0
  6
SLD-Durchgehend
 62
     7
370
    15
100
AcDbCircle
 10
247.8390563887
 20
128.6413662441
 30
0.0
 40
5.124728566068643
100
AcDbArc
 50
98.5792119818
 51
130.8736391724
  0
LINE
  5
DF
330
1F
100
AcDbEntity
  8
0
  6
SLD-Durchgehend
 62
     7
370
    15
100
AcDbLine
 10
251.3136958664
 20
126.6930618371
 30
0.0
 11
252.5223113926
 21
128.2055617202
 31
0.0
  0
ARC
  5
E0
330
1F
100
AcDbEntity
  8
0
  6
SLD-Durchgehend
 62
     7
370
    15
100
AcDbCircle
 10
243.6470964666
 20
131.7159327294
 30
0.0
 40
0.386432374270534
100
AcDbArc
 50
141.363611452
 51
176.9750144836
  0
LINE
  5
E1
330
1F
100
AcDbEntity
  8
0
  6
SLD-Durchgehend
 62
     7
370
    15
100
AcDbLine
 10
252.6876113782
 20
143.6485461859
 30
0.0
 11
243.3452448303
 21
131.9572117579
 31
0.0
  0
ARC
  5
E2
330
1F
100
AcDbEntity
  8
0
  6
SLD-Durchgehend
 62
     7
370
    15
100
AcDbCircle
 10
252.9990125844
 20
143.3944661186
 30
0.0
 40
0.4019047048829831
100
AcDbArc
 50
357.4735430336
 51
140.7881303097
  0
LINE
  5
E3
330
1F
100
AcDbEntity
  8
0
  6
SLD-Durchgehend
 62
     7
370
    15
100
AcDbLine
 10
252.6063536823
 20
128.4264481584
 30
0.0
 11
253.4005266271
 21
143.3767498761
 31
0.0
  0
ARC
  5
E4
330
1F
100
AcDbEntity
  8
0
  6
SLD-Durchgehend
 62
     7
370
    15
100
AcDbCircle
 10
252.2204597563
 20
128.4468407486
 30
0.0
 40
0.3864323742698533
100
AcDbArc
 50
321.3636114519
 51
356.9750144836
  0
ARC
  5
E5
330
1F
100
AcDbEntity
  8
0
  6
SLD-Durchgehend
 62
     7
370
    15
100
AcDbCircle
 10
252.999164348
 20
143.3948530533
 30
0.0
 40
0.3818094696388595
100
AcDbArc
 50
357.4735430336
 51
140.7881303097
  0
LINE
  5
E6
330
1F
100
AcDbEntity
  8
0
  6
SLD-Durchgehend
 62
     7
370
    15
100
AcDbLine
 10
252.7033332022
 20
143.6362291173
 30
0.0
 11
243.3609666545
 21
131.944894689
 31
0.0
  0
ARC
  5
E7
330
1F
100
AcDbEntity
  8
0
  6
SLD-Durchgehend
 62
     7
370
    15
100
AcDbCircle
 10
243.647725712
 20
131.7156796104
 30
0.0
 40
0.3671107588793613
100
AcDbArc
 50
141.3636115565
 51
176.9750142355
  0
LINE
  5
E8
330
1F
100
AcDbEntity
  8
0
  6
SLD-Durchgehend
 62
     7
370
    15
100
AcDbLine
 10
251.3185602385
 20
126.7311411259
 30
0.0
 11
252.5065895686
 21
128.2178787889
 31
0.0
  0
ARC
  5
E9
330
1F
100
AcDbEntity
  8
0
  6
SLD-Durchgehend
 62
     7
370
    15
100
AcDbCircle
 10
252.2198305142
 20
128.447093866
 30
0.0
 40
0.3671107555572439
100
AcDbArc
 50
321.363611452
 51
356.9750144836
  0
LINE
  5
EA
330
1F
100
AcDbEntity
  8
0
  6
SLD-Durchgehend
 62
     7
370
    15
100
AcDbLine
 10
252.5864297439
 20
128.4277209053
 30
0.0
 11
253.3806026887
 21
143.378022623
 31
0.0
  0
LINE
  5
EB
330
1F
100
AcDbEntity
  8
0
  6
SLD-Durchgehend
 62
     7
370
    15
100
AcDbLine
 10
251.8509811056
 20
128.505493769
 30
0.0
 11
252.1925708238
 21
128.4138986847
 31
0.0
  0
LINE
  5
EC
330
1F
100
AcDbEntity
  8
0
  6
SLD-Durchgehend
 62
     7
370
    15
100
AcDbLine
 10
252.0216549339
 20
127.1699988905
 30
0.0
 11
252.1902705776
 21
127.3810098661
 31
0.0
  0
LINE
  5
ED
330
1F
100
AcDbEntity
  8
0
  6
SLD-Durchgehend
 62
     7
370
    15
100
AcDbLine
 10
249.1720903584
 20
136.0179336966
 30
0.0
 11
247.2576815615
 21
133.6221816821
 31
0.0
  0
ARC
  5
EE
330
1F
100
AcDbEntity
  8
0
  6
SLD-Durchgehend
 62
     7
370
    15
100
AcDbCircle
 10
249.9505933741
 20
135.3827335285
 30
0.0
 40
1.004761762267481
100
AcDbArc
 50
357.4735430201
 51
140.7881303265
  0
LINE
  5
EF
330
1F
100
AcDbEntity
  8
0
  6
SLD-Durchgehend
 62
     7
370
    15
100
AcDbLine
 10
250.7550625179
 20
131.5863209151
 30
0.0
 11
250.9543784811
 21
135.3384429221
 31
0.0
  0
LINE
  5
F0
330
1F
100
AcDbEntity
  8
0
  6
SLD-Durchgehend
 62
     7
370
    15
100
AcDbLine
 10
251.7779084525
 20
140.1929184007
 30
0.0
 11
252.9867437686
 21
143.3642004024
 31
0.0
  0
LINE
  5
F1
330
1F
100
AcDbEntity
  8
0
  6
SLD-Durchgehend
 62
     7
370
    15
100
AcDbLine
 10
251.6372501695
 20
137.5450269263
 30
0.0
 11
251.7779084525
 21
140.1929184007
 31
0.0
  0
LINE
  5
F2
330
1F
100
AcDbEntity
  8
0
  6
SLD-Durchgehend
 62
     7
370
    15
100
AcDbLine
 10
251.7779084525
 20
140.1929184007
 30
0.0
 11
250.123254707
 21
138.1222321135
 31
0.0
  0
ARC
  5
F3
330
1F
100
AcDbEntity
  8
0
  6
SLD-Durchgehend
 62
     7
370
    15
100
AcDbCircle
 10
251.8883305101
 20
127.6223515446
 30
0.0
 40
0.3865405672347541
100
AcDbArc
 50
321.364541844
 51
338.0612548454
  0
LWPOLYLINE
  5
F4
330
1F
100
AcDbEntity
  8
0
  6
SLD-Durchgehend
 62
     7
370
    15
100
AcDbPolyline
 90
        3
 70
   128
 43
0.0
 10
251.8509811056
 20
128.505493769
 10
251.6374617145
 20
128.5714757376
 10
251.547173781
 20
128.6059446282
  0
ARC
  5
F5
330
1F
100
AcDbEntity
  8
0
  6
SLD-Durchgehend
 62
     7
370
    15
100
AcDbCircle
 10
249.8710509493
 20
135.1856848522
 30
0.0
 40
2.427560131392875
100
AcDbArc
 50
59.2779137827
 51
78.9837595606
  0
LWPOLYLINE
  5
F6
330
1F
100
AcDbEntity
  8
0
  6
SLD-Durchgehend
 62
     7
370
    15
100
AcDbPolyline
 90
        8
 70
   128
 43
0.0
 10
251.1112291133
 20
137.2725500402
 10
251.2704152842
 20
137.1961603478
 10
251.3679532256
 20
137.1749662618
 10
251.4421909683
 20
137.180486861
 10
251.5097277164
 20
137.2121657568
 10
251.5545692874
 20
137.2571958839
 10
251.6035257998
 20
137.3529890409
 10
251.6372501695
 20
137.5450269263
  0
LWPOLYLINE
  5
F7
330
1F
100
AcDbEntity
  8
0
  6
SLD-Durchgehend
 62
     7
370
    15
100
AcDbPolyline
 90
        8
 70
   128
 43
0.0
 10
250.123254707
 20
138.1222321135
 10
250.0287540243
 20
137.9743531967
 10
249.9965257603
 20
137.8748525866
 10
249.9953851603
 20
137.799071779
 10
250.0157295574
 20
137.7380698812
 10
250.0549913288
 20
137.6867493544
 10
250.1364869927
 20
137.6307596887
 10
250.3349266883
 20
137.5685124771
  0
LINE
  5
F8
330
1F
100
AcDbEntity
  8
0
  6
SLD-Durchgehend
 62
     7
370
    15
100
AcDbLine
 10
252.0216549339
 20
127.1699988905
 30
0.0
 11
252.2677283606
 21
127.4779429976
 31
0.0
  0
LINE
  5
F9
330
1F
100
AcDbEntity
  8
0
  6
SLD-Durchgehend
 62
     7
370
    15
100
AcDbLine
 10
252.2677283606
 20
127.4779429976
 30
0.0
 11
252.2708960421
 21
127.5375745859
 31
0.0
  0
LINE
  5
FA
330
1F
100
AcDbEntity
  8
0
  6
SLD-Durchgehend
 62
     7
370
    15
100
AcDbLine
 10
252.0668297162
 20
126.9790544808
 30
0.0
 11
252.2677283606
 21
127.4779429976
 31
0.0
  0
LINE
  5
FB
330
1F
100
AcDbEntity
  8
0
  6
SLD-Durchgehend
 62
     7
370
    15
100
AcDbLine
 10
252.0075725555
 20
126.9048981866
 30
0.0
 11
252.0668297162
 21
126.9790544808
 31
0.0
  0
LINE
  5
FC
330
1F
100
AcDbEntity
  8
0
  6
SLD-Durchgehend
 62
     7
370
    15
100
AcDbLine
 10
199.4910734779
 20
71.298320551
 30
0.0
 11
199.4910734779
 21
118.6461577101
 31
0.0
  0
LINE
  5
FD
330
1F
100
AcDbEntity
  8
0
  6
SLD-Durchgehend
 62
     7
370
    15
100
AcDbLine
 10
199.4910734779
 20
71.298320551
 30
0.0
 11
198.0091406464
 21
68.6092400138
 31
0.0
  0
LINE
  5
FE
330
1F
100
AcDbEntity
  8
0
  6
SLD-Durchgehend
 62
     7
370
    15
100
AcDbLine
 10
198.0091406464
 20
68.6092400138
 30
0.0
 11
198.0091406464
 21
118.6461577101
 31
0.0
  0
LINE
  5
FF
330
1F
100
AcDbEntity
  8
0
  6
SLD-Durchgehend
 62
     7
370
    15
100
AcDbLine
 10
198.0091406464
 20
118.6461577101
 30
0.0
 11
199.4910734779
 21
118.6461577101
 31
0.0
  0
LINE
  5
100
330
1F
100
AcDbEntity
  8
0
  6
SLD-Durchgehend
 62
     7
370
    15
100
AcDbLine
 10
188.3510734779
 20
118.6461577101
 30
0.0
 11
198.0091406464
 21
118.6461577101
 31
0.0
  0
LINE
  5
101
330
1F
100
AcDbEntity
  8
0
  6
SLD-Durchgehend
 62
     7
370
    15
100
AcDbLine
 10
198.0091406464
 20
68.6092400138
 30
0.0
 11
196.3510734779
 21
68.6092400138
 31
0.0
  0
ARC
  5
102
330
1F
100
AcDbEntity
  8
0
  6
SLD-Durchgehend
 62
     7
370
    15
100
AcDbCircle
 10
195.6913365377
 20
47.3608874663
 30
0.0
 40
21.25859211744248
100
AcDbArc
 50
88.2216031875
 51
110.1991657056
  0
LINE
  5
103
330
1F
100
AcDbEntity
  8
0
  6
SLD-Durchgehend
 62
     7
370
    15
100
AcDbLine
 10
188.3510734779
 20
67.3120347272
 30
0.0
 11
188.3510734779
 21
67.2961577101
 31
0.0
  0
LWPOLYLINE
  5
104
330
1F
100
AcDbEntity
  8
0
  6
SLD-Durchgehend
 62
     7
370
    15
100
AcDbPolyline
 90
       11
 70
   128
 43
0.0
 10
196.3510734779
 20
129.2633531832
 10
195.0514654427
 20
129.2910586124
 10
193.7518574075
 20
129.3740242835
 10
192.5624357035
 20
129.4980106865
 10
191.4465591587
 20
129.6555851303
 10
190.4741406826
 20
129.8249884821
 10
189.6409210206
 20
129.9935317342
 10
189.0076240023
 20
130.1358490008
 10
188.570211082
 20
130.2412180475
 10
188.3704031812
 20
130.2912541282
 10
188.379061837
 20
130.2890628021
  0
LINE
  5
105
330
1F
100
AcDbEntity
  8
0
  6
SLD-Durchgehend
 62
     7
370
    15
100
AcDbLine
 10
198.0091406464
 20
129.2633531832
 30
0.0
 11
196.3510734779
 21
129.2633531832
 31
0.0
  0
LINE
  5
106
330
1F
100
AcDbEntity
  8
0
  6
SLD-Durchgehend
 62
     7
370
    15
100
AcDbLine
 10
198.0091406464
 20
123.2548473724
 30
0.0
 11
198.0091406464
 21
129.2633531832
 31
0.0
  0
LINE
  5
107
330
1F
100
AcDbEntity
  8
0
  6
SLD-Durchgehend
 62
     7
370
    15
100
AcDbLine
 10
195.5966938236
 20
123.2548473724
 30
0.0
 11
198.0091406464
 21
123.2548473724
 31
0.0
  0
ARC
  5
108
330
1F
100
AcDbEntity
  8
0
  6
SLD-Durchgehend
 62
     7
370
    15
100
AcDbCircle
 10
195.2268833669
 20
115.83625041
 30
0.0
 40
7.427808604464089
100
AcDbArc
 50
87.1462186343
 51
157.7718520148
  0
LINE
  5
109
330
1F
100
AcDbEntity
  8
0
  6
SLD-Durchgehend
 62
     7
370
    15
100
AcDbLine
 10
204.7930063094
 20
68.6092400138
 30
0.0
 11
204.7930063094
 21
118.6461577101
 31
0.0
  0
LINE
  5
10A
330
1F
100
AcDbEntity
  8
0
  6
SLD-Durchgehend
 62
     7
370
    15
100
AcDbLine
 10
204.7930063094
 20
68.6092400138
 30
0.0
 11
203.3110734779
 21
71.298320551
 31
0.0
  0
LINE
  5
10B
330
1F
100
AcDbEntity
  8
0
  6
SLD-Durchgehend
 62
     7
370
    15
100
AcDbLine
 10
203.3110734779
 20
71.298320551
 30
0.0
 11
203.3110734779
 21
118.6461577101
 31
0.0
  0
LINE
  5
10C
330
1F
100
AcDbEntity
  8
0
  6
SLD-Durchgehend
 62
     7
370
    15
100
AcDbLine
 10
203.3110734779
 20
118.6461577101
 30
0.0
 11
204.7930063094
 21
118.6461577101
 31
0.0
  0
LINE
  5
10D
330
1F
100
AcDbEntity
  8
0
  6
SLD-Durchgehend
 62
     7
370
    15
100
AcDbLine
 10
209.3510734779
 20
69.2358803095
 30
0.0
 11
209.3510734779
 21
118.6461577101
 31
0.0
  0
ARC
  5
10E
330
1F
100
AcDbEntity
  8
0
  6
SLD-Durchgehend
 62
     7
370
    15
100
AcDbCircle
 10
208.7386490884
 20
69.2217024846
 30
0.0
 40
0.6125884781821997
100
AcDbArc
 50
271.1621405259
 51
1.3261791458
  0
LINE
  5
10F
330
1F
100
AcDbEntity
  8
0
  6
SLD-Durchgehend
 62
     7
370
    15
100
AcDbLine
 10
208.7510734779
 20
118.6461577101
 30
0.0
 11
209.3510734779
 21
118.6461577101
 31
0.0
  0
LINE
  5
110
330
1F
100
AcDbEntity
  8
0
  6
SLD-Durchgehend
 62
     7
370
    15
100
AcDbLine
 10
208.7510734779
 20
68.6092400138
 30
0.0
 11
204.7930063094
 21
68.6092400138
 31
0.0
  0
LINE
  5
111
330
1F
100
AcDbEntity
  8
0
  6
SLD-Durchgehend
 62
     7
370
    15
100
AcDbLine
 10
204.7930063094
 20
118.6461577101
 30
0.0
 11
208.7510734779
 21
118.6461577101
 31
0.0
  0
LINE
  5
112
330
1F
100
AcDbEntity
  8
0
  6
SLD-Durchgehend
 62
     7
370
    15
100
AcDbLine
 10
183.4010734779
 20
67.5961577101
 30
0.0
 11
183.4010734779
 21
129.9961577044
 31
0.0
  0
ARC
  5
113
330
1F
100
AcDbEntity
  8
0
  6
SLD-Durchgehend
 62
     7
370
    15
100
AcDbCircle
 10
200.3310024742
 20
125.9081631974
 30
0.0
 40
0.8399638184159783
100
AcDbArc
 50
179.4782810815
 51
237.9582888408
  0
LINE
  5
114
330
1F
100
AcDbEntity
  8
0
  6
SLD-Durchgehend
 62
     7
370
    15
100
AcDbLine
 10
200.2910734779
 20
125.1961577101
 30
0.0
 11
199.8853710096
 21
125.1961577101
 31
0.0
  0
LINE
  5
115
330
1F
100
AcDbEntity
  8
0
  6
SLD-Durchgehend
 62
     7
370
    15
100
AcDbLine
 10
200.2910734779
 20
72.3961577101
 30
0.0
 11
199.5887482802
 21
72.3961577101
 31
0.0
  0
LINE
  5
116
330
1F
100
AcDbEntity
  8
0
  6
SLD-Durchgehend
 62
     7
370
    15
100
AcDbLine
 10
199.4910734779
 20
118.9320243415
 30
0.0
 11
199.5172211011
 21
118.6461577101
 31
0.0
  0
LINE
  5
117
330
1F
100
AcDbEntity
  8
0
  6
SLD-Durchgehend
 62
     7
370
    15
100
AcDbLine
 10
203.2133986756
 20
72.3961577101
 30
0.0
 11
202.5110734779
 21
72.3961577101
 31
0.0
  0
LINE
  5
118
330
1F
100
AcDbEntity
  8
0
  6
SLD-Durchgehend
 62
     7
370
    15
100
AcDbLine
 10
202.9167759462
 20
125.1961577101
 30
0.0
 11
202.5110734779
 21
125.1961577101
 31
0.0
  0
ARC
  5
119
330
1F
100
AcDbEntity
  8
0
  6
SLD-Durchgehend
 62
     7
370
    15
100
AcDbCircle
 10
202.4727154329
 20
125.907302475
 30
0.0
 40
0.8384012262114094
100
AcDbArc
 50
301.9819148348
 51
0.5815152429
  0
LWPOLYLINE
  5
11A
330
1F
100
AcDbEntity
  8
0
  6
SLD-Durchgehend
 62
     7
370
    15
100
AcDbPolyline
 90
        3
 70
   128
 43
0.0
 10
203.2849258547
 20
118.6461577101
 10
203.3050213452
 20
118.7938711158
 10
203.3110734779
 20
118.9320243415
  0
LINE
  5
11B
330
1F
100
AcDbEntity
  8
0
  6
SLD-Durchgehend
 62
     7
370
    15
100
AcDbLine
 10
202.5110734779
 20
125.1961577101
 30
0.0
 11
200.2910734779
 21
125.1961577101
 31
0.0
  0
LINE
  5
11C
330
1F
100
AcDbEntity
  8
0
  6
SLD-Durchgehend
 62
     7
370
    15
100
AcDbLine
 10
202.5110734779
 20
72.3961577101
 30
0.0
 11
200.2910734779
 21
72.3961577101
 31
0.0
  0
LINE
  5
11D
330
1F
100
AcDbEntity
  8
0
  6
SLD-Durchgehend
 62
     7
370
    15
100
AcDbLine
 10
209.5510724082
 20
125.1961577101
 30
0.0
 11
209.5112916617
 21
125.1961577101
 31
0.0
  0
LINE
  5
11E
330
1F
100
AcDbEntity
  8
0
  6
SLD-Durchgehend
 62
     7
370
    15
100
AcDbLine
 10
209.5510723756
 20
72.3961577101
 30
0.0
 11
209.5048077332
 21
72.3961577101
 31
0.0
  0
ELLIPSE
  5
11F
330
1F
100
AcDbEntity
  8
0
  6
SLD-Durchgehend
 62
     7
370
    15
100
AcDbEllipse
 10
223.0326079146
 20
98.7961577101
 30
0.0
 11
-1.299954407456312
 21
25.99774751943447
 31
0.0
210
0.0
220
0.0
230
0.9999999999999999
 40
0.263265937
 41
0.3788592381168137
 42
2.387341134425272
  0
LWPOLYLINE
  5
120
330
1F
100
AcDbEntity
  8
0
  6
SLD-Durchgehend
 62
     7
370
    15
100
AcDbPolyline
 90
        8
 70
   128
 43
0.0
 10
219.2933904936
 20
79.615066133
 10
219.6278785569
 20
78.897134161
 10
220.1300863534
 20
78.2548881387
 10
220.8076315135
 20
77.7020096829
 10
221.6430258524
 20
77.2540003569
 10
222.5120103725
 20
76.9501494938
 10
223.4650272339
 20
76.7423538389
 10
224.4010734779
 20
76.6378503445
  0
LWPOLYLINE
  5
121
330
1F
100
AcDbEntity
  8
0
  6
SLD-Durchgehend
 62
     7
370
    15
100
AcDbPolyline
 90
        8
 70
   128
 43
0.0
 10
224.4010734779
 20
124.270250892
 10
223.4647331994
 20
124.2297131537
 10
222.5751831091
 20
124.1537766282
 10
221.7590134746
 20
124.0390362909
 10
221.034321103
 20
123.8822544127
 10
220.4058008131
 20
123.6749313827
 10
219.8986768611
 20
123.4192769138
 10
219.2933904936
 20
122.8237523512
  0
LINE
  5
122
330
1F
100
AcDbEntity
  8
0
  6
SLD-Durchgehend
 62
     7
370
    15
100
AcDbLine
 10
181.4010734779
 20
74.5757268484
 30
0.0
 11
181.4010734779
 21
123.0165885718
 31
0.0
  0
LINE
  5
123
330
1F
100
AcDbEntity
  8
0
  6
SLD-Durchgehend
 62
     7
370
    15
100
AcDbLine
 10
161.6010734779
 20
75.5677108163
 30
0.0
 11
161.6010734779
 21
76.8510094508
 31
0.0
  0
LWPOLYLINE
  5
124
330
1F
100
AcDbEntity
  8
0
  6
SLD-Durchgehend
 62
     7
370
    15
100
AcDbPolyline
 90
        5
 70
   128
 43
0.0
 10
160.9794692412
 20
77.9317864928
 10
161.0343140011
 20
77.8176448064
 10
161.3248019977
 20
77.4189103153
 10
161.555232498
 20
77.0521074321
 10
161.6010734779
 20
76.8510094508
  0
LWPOLYLINE
  5
125
330
1F
100
AcDbEntity
  8
0
  6
SLD-Durchgehend
 62
     7
370
    15
100
AcDbPolyline
 90
        7
 70
   128
 43
0.0
 10
160.2010734779
 20
78.6500689443
 10
160.2808301629
 20
78.6515432275
 10
160.3596301662
 20
78.6396663037
 10
160.4544493432
 20
78.6073275982
 10
160.5830329004
 20
78.5296308351
 10
160.8187706629
 20
78.2615407104
 10
160.9794692412
 20
77.9317864928
  0
LWPOLYLINE
  5
126
330
1F
100
AcDbEntity
  8
0
  6
SLD-Durchgehend
 62
     7
370
    15
100
AcDbPolyline
 90
        3
 70
   128
 43
0.0
 10
156.2874716168
 20
78.1538752879
 10
156.9959912542
 20
78.2632374373
 10
160.2010734779
 20
78.6500689443
  0
ARC
  5
127
330
1F
100
AcDbEntity
  8
0
  6
SLD-Durchgehend
 62
     7
370
    15
100
AcDbCircle
 10
153.1373663465
 20
107.5415314532
 30
0.0
 40
29.55600612574258
100
AcDbArc
 50
269.057254687
 51
276.1182557219
  0
LINE
  5
128
330
1F
100
AcDbEntity
  8
0
  6
SLD-Durchgehend
 62
     7
370
    15
100
AcDbLine
 10
152.6410285475
 20
78.0013412812
 30
0.0
 11
152.6510734779
 21
77.9895261515
 31
0.0
  0
LINE
  5
129
330
1F
100
AcDbEntity
  8
0
  6
SLD-Durchgehend
 62
     7
370
    15
100
AcDbLine
 10
152.6510734779
 20
119.6660954755
 30
0.0
 11
152.6410285475
 21
119.6561116024
 31
0.0
  0
LINE
  5
12A
330
1F
100
AcDbEntity
  8
0
  6
SLD-Durchgehend
 62
     7
370
    15
100
AcDbLine
 10
156.2010734779
 20
119.6192451019
 30
0.0
 11
152.6510734779
 21
119.6660954755
 31
0.0
  0
ARC
  5
12B
330
1F
100
AcDbEntity
  8
0
  6
SLD-Durchgehend
 62
     7
370
    15
100
AcDbCircle
 10
156.1431419588
 20
121.1690138612
 30
0.0
 40
1.550851143148595
100
AcDbArc
 50
272.1407624916
 51
340.0657950121
  0
LINE
  5
12C
330
1F
100
AcDbEntity
  8
0
  6
SLD-Durchgehend
 62
     7
370
    15
100
AcDbLine
 10
157.6010734779
 20
120.6402653824
 30
0.0
 11
157.6010734779
 21
121.8242038023
 31
0.0
  0
LWPOLYLINE
  5
12D
330
1F
100
AcDbEntity
  8
0
  6
SLD-Durchgehend
 62
     7
370
    15
100
AcDbPolyline
 90
       18
 70
   128
 43
0.0
 10
170.1699793099
 20
75.1386492815
 10
170.1686602367
 20
75.1384771228
 10
170.2525067387
 20
75.149481626
 10
170.4992577982
 20
75.1801049792
 10
170.8917460534
 20
75.2246213531
 10
171.4149118697
 20
75.2730747383
 10
172.0517269678
 20
75.3153038047
 10
172.7873211163
 20
75.3413424307
 10
173.5830267491
 20
75.3434714614
 10
174.4003759321
 20
75.3159724261
 10
175.2139889067
 20
75.2586876435
 10
176.0078310987
 20
75.1744766793
 10
176.7359860498
 20
75.0741903826
 10
177.3669394239
 20
74.9687076402
 10
177.8824884533
 20
74.8696302207
 10
178.2677184565
 20
74.7879331455
 10
178.5076833672
 20
74.7346236422
 10
178.5841400953
 20
74.7170995932
  0
LWPOLYLINE
  5
12E
330
1F
100
AcDbEntity
  8
0
  6
SLD-Durchgehend
 62
     7
370
    15
100
AcDbPolyline
 90
       18
 70
   128
 43
0.0
 10
178.5840853245
 20
122.8751866845
 10
178.5069748536
 20
122.8577133364
 10
178.2649400266
 20
122.8041246766
 10
177.8779876641
 20
122.7220177035
 10
177.3614657724
 20
122.6225970298
 10
176.7319673693
 20
122.5172303378
 10
176.0061176022
 20
122.4172396893
 10
175.2154116462
 20
122.3335147305
 10
174.4018438691
 20
122.2763953341
 10
173.5841489587
 20
122.2489548666
 10
172.7871830876
 20
122.2511024084
 10
172.0507590243
 20
122.2771414244
 10
171.4126620417
 20
122.3194004849
 10
170.8898900482
 20
122.3678109488
 10
170.4976200792
 20
122.4123751095
 10
170.2521387524
 20
122.4429041976
 10
170.168539493
 20
122.453833824
 10
170.16957422
 20
122.4536972939
  0
LWPOLYLINE
  5
12F
330
1F
100
AcDbEntity
  8
0
  6
SLD-Durchgehend
 62
     7
370
    15
100
AcDbPolyline
 90
        3
 70
   128
 43
0.0
 10
151.5075932758
 20
79.1453392675
 10
151.520396931
 20
79.1499386762
 10
151.5313510935
 20
79.2060701498
  0
LINE
  5
130
330
1F
100
AcDbEntity
  8
0
  6
SLD-Durchgehend
 62
     7
370
    15
100
AcDbLine
 10
151.5010734779
 20
79.1429971851
 30
0.0
 11
151.5010734779
 21
118.4868354566
 31
0.0
  0
LWPOLYLINE
  5
131
330
1F
100
AcDbEntity
  8
0
  6
SLD-Durchgehend
 62
     7
370
    15
100
AcDbPolyline
 90
        3
 70
   128
 43
0.0
 10
151.5637368526
 20
118.4707102549
 10
151.5222281855
 20
118.53323495
 10
151.5010734779
 20
118.4868354566
  0
LWPOLYLINE
  5
132
330
1F
100
AcDbEntity
  8
0
  6
SLD-Durchgehend
 62
     7
370
    15
100
AcDbPolyline
 90
       12
 70
   128
 43
0.0
 10
152.325227124
 20
119.1862770437
 10
152.2593684687
 20
119.0014731211
 10
152.144932943
 20
118.7379774312
 10
152.0155980455
 20
118.5048009508
 10
151.9410526992
 20
118.3982136847
 10
151.9023072023
 20
118.3512147117
 10
151.8582542357
 20
118.3054744852
 10
151.8193018358
 20
118.2726965767
 10
151.7826840654
 20
118.2495154926
 10
151.7364030531
 20
118.2331626055
 10
151.6559627743
 20
118.255225097
 10
151.5637368526
 20
118.4707102549
  0
LINE
  5
133
330
1F
100
AcDbEntity
  8
0
  6
SLD-Durchgehend
 62
     7
370
    15
100
AcDbLine
 10
152.6410285475
 20
119.6561116024
 30
0.0
 11
152.325227124
 21
119.1862770437
 31
0.0
  0
LINE
  5
134
330
1F
100
AcDbEntity
  8
0
  6
SLD-Durchgehend
 62
     7
370
    15
100
AcDbLine
 10
152.4399830481
 20
78.3522354071
 30
0.0
 11
152.6410285475
 21
78.0013412812
 31
0.0
  0
LWPOLYLINE
  5
135
330
1F
100
AcDbEntity
  8
0
  6
SLD-Durchgehend
 62
     7
370
    15
100
AcDbPolyline
 90
       12
 70
   128
 43
0.0
 10
151.5313510935
 20
79.2060701498
 10
151.6160943439
 20
79.5316202587
 10
151.6671387085
 20
79.57767048
 10
151.734188057
 20
79.5833263454
 10
151.7686776212
 20
79.5710600971
 10
151.8134571508
 20
79.5440395082
 10
151.8508162708
 20
79.51360428
 10
151.8892731846
 20
79.475893774
 10
151.9392305072
 20
79.4184047916
 10
152.013545209
 20
79.3170553728
 10
152.1738723012
 20
79.0389764858
 10
152.4399830481
 20
78.3522354071
  0
LINE
  5
136
330
1F
100
AcDbEntity
  8
0
  6
SLD-Durchgehend
 62
     7
370
    15
100
AcDbLine
 10
203.3110734779
 20
118.9320243415
 30
0.0
 11
203.3110734779
 21
119.8463013777
 31
0.0
  0
LWPOLYLINE
  5
137
330
1F
100
AcDbEntity
  8
0
  6
SLD-Durchgehend
 62
     7
370
    15
100
AcDbPolyline
 90
        3
 70
   128
 43
0.0
 10
203.3110734779
 20
119.8463013777
 10
204.4375219339
 20
122.4565980366
 10
204.7930063094
 20
123.2548473724
  0
LINE
  5
138
330
1F
100
AcDbEntity
  8
0
  6
SLD-Durchgehend
 62
     7
370
    15
100
AcDbLine
 10
204.7930063094
 20
123.2548473724
 30
0.0
 11
208.7510734779
 21
123.2548473724
 31
0.0
  0
ARC
  5
139
330
1F
100
AcDbEntity
  8
0
  6
SLD-Durchgehend
 62
     7
370
    15
100
AcDbCircle
 10
208.668045377
 20
122.5704845112
 30
0.0
 40
0.6893810204590353
100
AcDbArc
 50
352.2155357756
 51
83.0825825649
  0
LINE
  5
13A
330
1F
100
AcDbEntity
  8
0
  6
SLD-Durchgehend
 62
     7
370
    15
100
AcDbLine
 10
209.3510734779
 20
122.4771099713
 30
0.0
 11
209.3510734779
 21
118.6461577101
 31
0.0
  0
ARC
  5
13B
330
1F
100
AcDbEntity
  8
0
  6
SLD-Durchgehend
 62
     7
370
    15
100
AcDbCircle
 10
208.7429410831
 20
128.6551457201
 30
0.0
 40
0.6082618301451812
100
AcDbArc
 50
358.817975366
 51
89.2339388105
  0
LINE
  5
13C
330
1F
100
AcDbEntity
  8
0
  6
SLD-Durchgehend
 62
     7
370
    15
100
AcDbLine
 10
209.3510734779
 20
122.4771099713
 30
0.0
 11
209.3510734779
 21
128.6425980338
 31
0.0
  0
LWPOLYLINE
  5
13D
330
1F
100
AcDbEntity
  8
0
  6
SLD-Durchgehend
 62
     7
370
    15
100
AcDbPolyline
 90
        3
 70
   128
 43
0.0
 10
204.7930063094
 20
129.2633531832
 10
204.7850022175
 20
129.2490195147
 10
203.3110734779
 20
126.6013919012
  0
LINE
  5
13E
330
1F
100
AcDbEntity
  8
0
  6
SLD-Durchgehend
 62
     7
370
    15
100
AcDbLine
 10
204.7930063094
 20
123.2548473724
 30
0.0
 11
204.7930063094
 21
129.2633531832
 31
0.0
  0
LINE
  5
13F
330
1F
100
AcDbEntity
  8
0
  6
SLD-Durchgehend
 62
     7
370
    15
100
AcDbLine
 10
203.3110734779
 20
119.8463013777
 30
0.0
 11
203.3110734779
 21
126.6013919012
 31
0.0
  0
LWPOLYLINE
  5
140
330
1F
100
AcDbEntity
  8
0
  6
SLD-Durchgehend
 62
     7
370
    15
100
AcDbPolyline
 90
        3
 70
   128
 43
0.0
 10
199.4910734779
 20
126.6013919012
 10
198.0171447383
 20
129.2490195147
 10
198.0091406464
 20
129.2633531832
  0
LWPOLYLINE
  5
141
330
1F
100
AcDbEntity
  8
0
  6
SLD-Durchgehend
 62
     7
370
    15
100
AcDbPolyline
 90
        3
 70
   128
 43
0.0
 10
198.0091406464
 20
123.2548473724
 10
198.3646250219
 20
122.4565980366
 10
199.4910734779
 20
119.8463013777
  0
LINE
  5
142
330
1F
100
AcDbEntity
  8
0
  6
SLD-Durchgehend
 62
     7
370
    15
100
AcDbLine
 10
199.4910734779
 20
119.8463013777
 30
0.0
 11
199.4910734779
 21
126.6013919012
 31
0.0
  0
LINE
  5
143
330
1F
100
AcDbEntity
  8
0
  6
SLD-Durchgehend
 62
     7
370
    15
100
AcDbLine
 10
208.7510734779
 20
129.2633531832
 30
0.0
 11
204.7930063094
 21
129.2633531832
 31
0.0
  0
LINE
  5
144
330
1F
100
AcDbEntity
  8
0
  6
SLD-Durchgehend
 62
     7
370
    15
100
AcDbLine
 10
199.4910734779
 20
119.8463013777
 30
0.0
 11
199.4910734779
 21
118.9320243415
 31
0.0
  0
LINE
  5
145
330
1F
100
AcDbEntity
  8
0
  6
SLD-Durchgehend
 62
     7
370
    15
100
AcDbLine
 10
224.6704066089
 20
124.3147077284
 30
0.0
 11
224.4010734779
 21
124.270250892
 31
0.0
  0
LINE
  5
146
330
1F
100
AcDbEntity
  8
0
  6
SLD-Durchgehend
 62
     7
370
    15
100
AcDbLine
 10
224.4010734779
 20
76.6378503445
 30
0.0
 11
224.6704066089
 21
76.5847300689
 31
0.0
  0
ARC
  5
147
330
1F
100
AcDbEntity
  8
0
  6
SLD-Durchgehend
 62
     7
370
    15
100
AcDbCircle
 10
224.3009043278
 20
75.5484387743
 30
0.0
 40
1.100196156565444
100
AcDbArc
 50
359.5985442738
 51
70.3756882031
  0
LINE
  5
148
330
1F
100
AcDbEntity
  8
0
  6
SLD-Durchgehend
 62
     7
370
    15
100
AcDbLine
 10
225.4010734779
 20
75.5407300663
 30
0.0
 11
225.4010734779
 21
71.7961577101
 31
0.0
  0
LINE
  5
149
330
1F
100
AcDbEntity
  8
0
  6
SLD-Durchgehend
 62
     7
370
    15
100
AcDbLine
 10
225.4010734779
 20
125.7961577101
 30
0.0
 11
225.4010734779
 21
125.3409632471
 31
0.0
  0
ARC
  5
14A
330
1F
100
AcDbEntity
  8
0
  6
SLD-Durchgehend
 62
     7
370
    15
100
AcDbCircle
 10
224.3324390114
 20
125.3285672778
 30
0.0
 40
1.068706359565521
100
AcDbArc
 50
288.4356819504
 51
0.6645910212
  0
LINE
  5
14B
330
1F
100
AcDbEntity
  8
0
  6
SLD-Durchgehend
 62
     7
370
    15
100
AcDbLine
 10
251.3097761746
 20
126.6623776969
 30
0.0
 11
252.0434630617
 21
127.5805367863
 31
0.0
  0
LINE
  5
14C
330
1F
100
AcDbEntity
  8
0
  6
SLD-Durchgehend
 62
     7
370
    15
100
AcDbLine
 10
252.0434630617
 20
127.5805367863
 30
0.0
 11
250.8850830119
 21
105.7740381375
 31
0.0
  0
LINE
  5
14D
330
1F
100
AcDbEntity
  8
0
  6
SLD-Durchgehend
 62
     7
370
    15
100
AcDbLine
 10
250.8850830119
 20
105.7740381375
 30
0.0
 11
229.1542102441
 21
75.3998633512
 31
0.0
  0
ELLIPSE
  5
14E
330
1F
100
AcDbEntity
  8
0
  6
SLD-Durchgehend
 62
     7
370
    15
100
AcDbEllipse
 10
360.8482059406
 20
98.7961577101
 30
0.0
 11
386.1178526902872
 21
-4.710836101070569
 31
0.0
210
0.0
220
0.0
230
0.9999999999999998
 40
0.068854266
 41
4.354812238182387
 42
4.36517210272843
  0
ELLIPSE
  5
14F
330
1F
100
AcDbEntity
  8
0
  6
SLD-Durchgehend
 62
     7
370
    15
100
AcDbEllipse
 10
360.8482059406
 20
98.7961577101
 30
0.0
 11
386.1178526902872
 21
-4.710836101070569
 31
0.0
210
0.0
220
0.0
230
0.9999999999999998
 40
0.068854266
 41
1.908017318344614
 42
1.930053183415539
  0
ARC
  5
150
330
1F
100
AcDbEntity
  8
0
  6
SLD-Durchgehend
 62
     7
370
    15
100
AcDbCircle
 10
233.3090905134
 20
131.3706086327
 30
0.0
 40
5.928022838939752
100
AcDbArc
 50
270.889073356
 51
302.3257825527
  0
LINE
  5
151
330
1F
100
AcDbEntity
  8
0
  6
SLD-Durchgehend
 62
     7
370
    15
100
AcDbLine
 10
236.478997905
 20
126.3613031012
 30
0.0
 11
237.3840697709
 21
126.2418093523
 31
0.0
  0
LINE
  5
152
330
1F
100
AcDbEntity
  8
0
  6
SLD-Durchgehend
 62
     7
370
    15
100
AcDbLine
 10
234.2013873296
 20
107.5018847121
 30
0.0
 11
234.3439881762
 21
107.4403842837
 31
0.0
  0
ELLIPSE
  5
153
330
1F
100
AcDbEntity
  8
0
  6
SLD-Durchgehend
 62
     7
370
    15
100
AcDbEllipse
 10
246.3256265143
 20
98.7961577101
 30
0.0
 11
19.02153073006153
 21
26.99157843917689
 31
0.0
210
0.0
220
0.0
230
1.0
 40
0.0354498044
 41
2.643979818010168
 42
4.73736600486995
  0
LINE
  5
154
330
1F
100
AcDbEntity
  8
0
  6
SLD-Durchgehend
 62
     7
370
    15
100
AcDbLine
 10
250.8850830119
 20
105.7740381375
 30
0.0
 11
248.5008869889
 21
99.853400787
 31
0.0
  0
LINE
  5
155
330
1F
100
AcDbEntity
  8
0
  6
SLD-Durchgehend
 62
     7
370
    15
100
AcDbLine
 10
248.5008869889
 20
99.853400787
 30
0.0
 11
247.7572260834
 21
98.7961577101
 31
0.0
  0
LINE
  5
156
330
1F
100
AcDbEntity
  8
0
  6
SLD-Durchgehend
 62
     7
370
    15
100
AcDbLine
 10
152.6510734779
 20
77.9836577101
 30
0.0
 11
152.6510734779
 21
77.9895261515
 31
0.0
  0
LINE
  5
157
330
1F
100
AcDbEntity
  8
0
  6
SLD-Durchgehend
 62
     7
370
    15
100
AcDbLine
 10
236.478997905
 20
126.3613031012
 30
0.0
 11
235.5110867744
 21
126.1655385488
 31
0.0
  0
LINE
  5
158
330
1F
100
AcDbEntity
  8
0
  6
SLD-Gestrichelt
 62
     7
370
     0
100
AcDbLine
 10
188.3510734779
 20
67.2961577101
 30
0.0
 11
188.3510734779
 21
67.3120347272
 31
0.0
  0
ARC
  5
159
330
1F
100
AcDbEntity
  8
0
  6
SLD-Gestrichelt
 62
     7
370
     0
100
AcDbCircle
 10
195.6184256194
 20
47.8105366872
 30
0.0
 40
20.8116033248729
100
AcDbArc
 50
87.9825530554
 51
110.4382158376
  0
LINE
  5
15A
330
1F
100
AcDbEntity
  8
0
  6
SLD-Gestrichelt
 62
     7
370
     0
100
AcDbLine
 10
196.3510734779
 20
68.6092400138
 30
0.0
 11
198.0091406464
 21
68.6092400138
 31
0.0
  0
LINE
  5
15B
330
1F
100
AcDbEntity
  8
0
  6
SLD-Gestrichelt
 62
     7
370
     0
100
AcDbLine
 10
198.0091406464
 20
129.2633531832
 30
0.0
 11
198.0091406464
 21
68.6092400138
 31
0.0
  0
LINE
  5
15C
330
1F
100
AcDbEntity
  8
0
  6
SLD-Gestrichelt
 62
     7
370
     0
100
AcDbLine
 10
196.3510734779
 20
129.2633531832
 30
0.0
 11
198.0091406464
 21
129.2633531832
 31
0.0
  0
ARC
  5
15D
330
1F
100
AcDbEntity
  8
0
  6
SLD-Gestrichelt
 62
     7
370
     0
100
AcDbCircle
 10
196.5110022556
 20
161.9992058774
 30
0.0
 40
32.73624335236918
100
AcDbArc
 50
255.6166819977
 51
269.7200876002
  0
CIRCLE
  5
15E
330
1F
100
AcDbEntity
  8
0
  6
SLD-Gestrichelt
 62
     7
370
     0
100
AcDbCircle
 10
190.4010734779
 20
98.7961577101
 30
0.0
 40
5.000000000000057
  0
LINE
  5
15F
330
1F
100
AcDbEntity
  8
0
  6
SLD-Gestrichelt
 62
     7
370
     0
100
AcDbLine
 10
183.4010734779
 20
129.9961577044
 30
0.0
 11
183.4010734779
 21
67.5961577101
 31
0.0
  0
ARC
  5
160
330
1F
100
AcDbEntity
  8
0
  6
SLD-Gestrichelt
 62
     7
370
     0
100
AcDbCircle
 10
200.3712304757
 20
71.9931689585
 30
0.0
 40
0.8801581222152041
100
AcDbArc
 50
152.7509294844
 51
180.0915837
  0
LINE
  5
161
330
1F
100
AcDbEntity
  8
0
  6
SLD-Gestrichelt
 62
     7
370
     0
100
AcDbLine
 10
199.4910734779
 20
118.6461577101
 30
0.0
 11
199.5172211011
 21
118.6461577101
 31
0.0
  0
LINE
  5
162
330
1F
100
AcDbEntity
  8
0
  6
SLD-Gestrichelt
 62
     7
370
     0
100
AcDbLine
 10
199.4910734779
 20
118.9320243415
 30
0.0
 11
199.4910734779
 21
125.9158115611
 31
0.0
  0
LINE
  5
163
330
1F
100
AcDbEntity
  8
0
  6
SLD-Gestrichelt
 62
     7
370
     0
100
AcDbLine
 10
199.4910734779
 20
71.9917620817
 30
0.0
 11
199.4910734779
 21
118.6461577101
 31
0.0
  0
ARC
  5
164
330
1F
100
AcDbEntity
  8
0
  6
SLD-Gestrichelt
 62
     7
370
     0
100
AcDbCircle
 10
202.4269733559
 20
71.9922165648
 30
0.0
 40
0.884100238783539
100
AcDbArc
 50
359.9705463699
 51
27.1869404457
  0
LINE
  5
165
330
1F
100
AcDbEntity
  8
0
  6
SLD-Gestrichelt
 62
     7
370
     0
100
AcDbLine
 10
203.3110734779
 20
118.9320243415
 30
0.0
 11
203.3110734779
 21
125.9158115611
 31
0.0
  0
LINE
  5
166
330
1F
100
AcDbEntity
  8
0
  6
SLD-Gestrichelt
 62
     7
370
     0
100
AcDbLine
 10
203.2849258547
 20
118.6461577101
 30
0.0
 11
203.3110734779
 21
118.6461577101
 31
0.0
  0
LINE
  5
167
330
1F
100
AcDbEntity
  8
0
  6
SLD-Gestrichelt
 62
     7
370
     0
100
AcDbLine
 10
203.3110734779
 20
71.9917620817
 30
0.0
 11
203.3110734779
 21
118.6461577101
 31
0.0
  0
LINE
  5
168
330
1F
100
AcDbEntity
  8
0
  6
SLD-Gestrichelt
 62
     7
370
     0
100
AcDbLine
 10
209.3510734779
 20
125.1961577101
 30
0.0
 11
209.5510734779
 21
125.1961577101
 31
0.0
  0
LINE
  5
169
330
1F
100
AcDbEntity
  8
0
  6
SLD-Gestrichelt
 62
     7
370
     0
100
AcDbLine
 10
209.5112916617
 20
125.1961577101
 30
0.0
 11
209.3510734779
 21
125.1961577101
 31
0.0
  0
LINE
  5
16A
330
1F
100
AcDbEntity
  8
0
  6
SLD-Gestrichelt
 62
     7
370
     0
100
AcDbLine
 10
209.3510734779
 20
125.1961577101
 30
0.0
 11
209.3510734779
 21
72.3961577101
 31
0.0
  0
LINE
  5
16B
330
1F
100
AcDbEntity
  8
0
  6
SLD-Gestrichelt
 62
     7
370
     0
100
AcDbLine
 10
209.3510734779
 20
72.3961577101
 30
0.0
 11
209.5510734779
 21
72.3961577101
 31
0.0
  0
LINE
  5
16C
330
1F
100
AcDbEntity
  8
0
  6
SLD-Gestrichelt
 62
     7
370
     0
100
AcDbLine
 10
209.5048077332
 20
72.3961577101
 30
0.0
 11
209.3510734779
 21
72.3961577101
 31
0.0
  0
LINE
  5
16D
330
1F
100
AcDbEntity
  8
0
  6
SLD-Gestrichelt
 62
     7
370
     0
100
AcDbLine
 10
209.3510734779
 20
72.3961577101
 30
0.0
 11
209.3510734779
 21
125.1961577101
 31
0.0
  0
LINE
  5
16E
330
1F
100
AcDbEntity
  8
0
  6
SLD-Gestrichelt
 62
     7
370
     0
100
AcDbLine
 10
183.4010734779
 20
73.4722337889
 30
0.0
 11
183.4010734779
 21
124.1200816312
 31
0.0
  0
LINE
  5
16F
330
1F
100
AcDbEntity
  8
0
  6
SLD-Gestrichelt
 62
     7
370
     0
100
AcDbLine
 10
188.3510734779
 20
118.6461577101
 30
0.0
 11
195.5966938236
 21
118.6461577101
 31
0.0
  0
LWPOLYLINE
  5
170
330
1F
100
AcDbEntity
  8
0
  6
SLD-Gestrichelt
 62
     7
370
     0
100
AcDbPolyline
 90
        2
 70
   128
 43
0.0
 10
203.3110734779
 20
118.6461577101
 10
203.3110734779
 20
118.6461577101
  0
LWPOLYLINE
  5
171
330
1F
100
AcDbEntity
  8
0
  6
SLD-Gestrichelt
 62
     7
370
     0
100
AcDbPolyline
 90
        2
 70
   128
 43
0.0
 10
209.3510734779
 20
118.6461577101
 10
209.3510734779
 20
118.6461577101
  0
LWPOLYLINE
  5
172
330
1F
100
AcDbEntity
  8
0
  6
SLD-Gestrichelt
 62
     7
370
     0
100
AcDbPolyline
 90
        2
 70
   128
 43
0.0
 10
199.4910734779
 20
118.6461577101
 10
199.4910734779
 20
118.6461577101
  0
LINE
  5
173
330
1F
100
AcDbEntity
  8
0
  6
SLD-Gestrichelt
 62
     7
370
     0
100
AcDbLine
 10
181.4010734779
 20
123.0165885718
 30
0.0
 11
181.4010734779
 21
74.5757268484
 31
0.0
  0
ARC
  5
174
330
1F
100
AcDbEntity
  8
0
  6
SLD-Gestrichelt
 62
     7
370
     0
100
AcDbCircle
 10
153.1373663465
 20
107.5415314532
 30
0.0
 40
29.55600612574258
100
AcDbArc
 50
269.057254687
 51
276.1182557219
  0
LWPOLYLINE
  5
175
330
1F
100
AcDbEntity
  8
0
  6
SLD-Gestrichelt
 62
     7
370
     0
100
AcDbPolyline
 90
        3
 70
   128
 43
0.0
 10
156.2874716168
 20
78.1538752879
 10
156.9959912542
 20
78.2632374373
 10
160.2010734779
 20
78.6500689443
  0
LWPOLYLINE
  5
176
330
1F
100
AcDbEntity
  8
0
  6
SLD-Gestrichelt
 62
     7
370
     0
100
AcDbPolyline
 90
        7
 70
   128
 43
0.0
 10
160.2010734779
 20
78.6500689443
 10
160.2808301629
 20
78.6515432275
 10
160.3596301662
 20
78.6396663037
 10
160.4544493432
 20
78.6073275982
 10
160.5830329004
 20
78.5296308351
 10
160.8187706629
 20
78.2615407104
 10
160.9794692412
 20
77.9317864928
  0
LWPOLYLINE
  5
177
330
1F
100
AcDbEntity
  8
0
  6
SLD-Gestrichelt
 62
     7
370
     0
100
AcDbPolyline
 90
        5
 70
   128
 43
0.0
 10
160.9794692412
 20
77.9317864928
 10
161.0343140011
 20
77.8176448064
 10
161.3248019977
 20
77.4189103153
 10
161.555232498
 20
77.0521074321
 10
161.6010734779
 20
76.8510094508
  0
LINE
  5
178
330
1F
100
AcDbEntity
  8
0
  6
SLD-Gestrichelt
 62
     7
370
     0
100
AcDbLine
 10
161.6010734779
 20
76.8510094508
 30
0.0
 11
161.6010734779
 21
75.5677108163
 31
0.0
  0
LINE
  5
179
330
1F
100
AcDbEntity
  8
0
  6
SLD-Gestrichelt
 62
     7
370
     0
100
AcDbLine
 10
157.6010734779
 20
121.8242038023
 30
0.0
 11
157.6010734779
 21
120.6402653824
 31
0.0
  0
ARC
  5
17A
330
1F
100
AcDbEntity
  8
0
  6
SLD-Gestrichelt
 62
     7
370
     0
100
AcDbCircle
 10
156.1431419588
 20
121.1690138612
 30
0.0
 40
1.550851143148677
100
AcDbArc
 50
272.1407624916
 51
340.0657950121
  0
LINE
  5
17B
330
1F
100
AcDbEntity
  8
0
  6
SLD-Gestrichelt
 62
     7
370
     0
100
AcDbLine
 10
156.2010734779
 20
119.6192451019
 30
0.0
 11
152.6510734779
 21
119.6660954755
 31
0.0
  0
LINE
  5
17C
330
1F
100
AcDbEntity
  8
0
  6
SLD-Gestrichelt
 62
     7
370
     0
100
AcDbLine
 10
152.6510734779
 20
119.6660954755
 30
0.0
 11
152.6410285475
 21
119.6561116024
 31
0.0
  0
LINE
  5
17D
330
1F
100
AcDbEntity
  8
0
  6
SLD-Gestrichelt
 62
     7
370
     0
100
AcDbLine
 10
152.6410285475
 20
78.0013412812
 30
0.0
 11
152.6510734779
 21
77.9895261515
 31
0.0
  0
ARC
  5
17E
330
1F
100
AcDbEntity
  8
0
  6
SLD-Gestrichelt
 62
     7
370
     0
100
AcDbCircle
 10
173.8817862925
 20
46.6159912305
 30
0.0
 40
28.76316278457699
100
AcDbArc
 50
94.9573856285
 51
97.4145398655
  0
LWPOLYLINE
  5
17F
330
1F
100
AcDbEntity
  8
0
  6
SLD-Gestrichelt
 62
     7
370
     0
100
AcDbPolyline
 90
       14
 70
   128
 43
0.0
 10
178.5841400953
 20
74.7170995932
 10
178.5854776126
 20
74.7167930313
 10
178.5011819082
 20
74.7359263046
 10
178.2548720681
 20
74.7905009962
 10
177.864187487
 20
74.8731917237
 10
177.3439043967
 20
74.972868194
 10
176.7106077206
 20
75.0782157301
 10
175.9813889371
 20
75.1778761769
 10
175.1888116571
 20
75.2609483732
 10
174.3744470035
 20
75.317307442
 10
173.5579885285
 20
75.3438913886
 10
172.76317553
 20
75.3409125535
 10
172.0298599787
 20
75.3142099962
 10
171.3962236825
 20
75.2715580873
  0
LWPOLYLINE
  5
180
330
1F
100
AcDbEntity
  8
0
  6
SLD-Gestrichelt
 62
     7
370
     0
100
AcDbPolyline
 90
       14
 70
   128
 43
0.0
 10
171.3961309622
 20
122.3207407401
 10
172.031181033
 20
122.2782206259
 10
172.7646788257
 20
122.2515675971
 10
173.5598063292
 20
122.2485855068
 10
174.3777864171
 20
122.2751561236
 10
175.1916697781
 20
122.3314918104
 10
175.9855628848
 20
122.4148655289
 10
176.7132247242
 20
122.5144787945
 10
177.3463670559
 20
122.6198699331
 10
177.8654823088
 20
122.7193127052
 10
178.2556598082
 20
122.8018780782
 10
178.5014783015
 20
122.8563654683
 10
178.585586476
 20
122.8755268477
 10
178.5840853245
 20
122.8751866845
  0
ARC
  5
181
330
1F
100
AcDbEntity
  8
0
  6
SLD-Gestrichelt
 62
     7
370
     0
100
AcDbCircle
 10
173.5303024439
 20
147.7331161846
 30
0.0
 40
25.50183353498721
100
AcDbArc
 50
262.4273172222
 51
265.1994745552
  0
LINE
  5
182
330
1F
100
AcDbEntity
  8
0
  6
SLD-Gestrichelt
 62
     7
370
     0
100
AcDbLine
 10
151.5010734779
 20
79.1429971851
 30
0.0
 11
151.5075932758
 21
79.1453392675
 31
0.0
  0
LWPOLYLINE
  5
183
330
1F
100
AcDbEntity
  8
0
  6
SLD-Gestrichelt
 62
     7
370
     0
100
AcDbPolyline
 90
        7
 70
   128
 43
0.0
 10
177.1560754795
 20
118.6336861859
 10
177.8375165082
 20
118.7105863471
 10
178.1398196433
 20
118.7333293246
 10
178.1133846502
 20
118.7315323388
 10
178.0263547532
 20
118.7256162606
 10
177.506656218
 20
118.6776764756
 10
177.1560754795
 20
118.6336861859
  0
LWPOLYLINE
  5
184
330
1F
100
AcDbEntity
  8
0
  6
SLD-Gestrichelt
 62
     7
370
     0
100
AcDbPolyline
 90
        7
 70
   128
 43
0.0
 10
177.1560754795
 20
78.9586292343
 10
177.8375165082
 20
78.8817290731
 10
178.1398196433
 20
78.8589860956
 10
178.1133601112
 20
78.8607847494
 10
178.0263547532
 20
78.8666991595
 10
177.506656218
 20
78.9146389446
 10
177.1560754795
 20
78.9586292343
  0
LINE
  5
185
330
1F
100
AcDbEntity
  8
0
  6
SLD-Gestrichelt
 62
     7
370
     0
100
AcDbLine
 10
183.4010734779
 20
81.7961577101
 30
0.0
 11
183.4010734779
 21
115.7774728653
 31
0.0
  0
ARC
  5
186
330
1F
100
AcDbEntity
  8
0
  6
SLD-Gestrichelt
 62
     7
370
     0
100
AcDbCircle
 10
174.39631071
 20
59.1206616285
 30
0.0
 40
20.02901046760537
100
AcDbArc
 50
82.0801109206
 51
100.7666021315
  0
ARC
  5
187
330
1F
100
AcDbEntity
  8
0
  6
SLD-Gestrichelt
 62
     7
370
     0
100
AcDbCircle
 10
174.39631071
 20
138.4716537917
 30
0.0
 40
20.02901046758748
100
AcDbArc
 50
259.2333978685
 51
277.9198890794
  0
LINE
  5
188
330
1F
100
AcDbEntity
  8
0
  6
SLD-Gestrichelt
 62
     7
370
     0
100
AcDbLine
 10
203.2849258547
 20
118.6461577101
 30
0.0
 11
209.3510734779
 21
118.6461577101
 31
0.0
  0
LINE
  5
189
330
1F
100
AcDbEntity
  8
0
  6
SLD-Gestrichelt
 62
     7
370
     0
100
AcDbLine
 10
195.5966938236
 20
118.6461577101
 30
0.0
 11
199.5172211011
 21
118.6461577101
 31
0.0
  0
LINE
  5
18A
330
1F
100
AcDbEntity
  8
0
  6
SLD-Gestrichelt
 62
     7
370
     0
100
AcDbLine
 10
164.4050480741
 20
115.7961577101
 30
0.0
 11
164.4050480741
 21
81.7961577101
 31
0.0
  0
LWPOLYLINE
  5
18B
330
1F
100
AcDbEntity
  8
0
  6
SLD-Gestrichelt
 62
     7
370
     0
100
AcDbPolyline
 90
        2
 70
   128
 43
0.0
 10
164.4050480741
 20
81.7961577101
 10
164.4050480741
 20
81.7961577101
  0
LINE
  5
18C
330
1F
100
AcDbEntity
  8
0
  6
SLD-Gestrichelt
 62
     7
370
     0
100
AcDbLine
 10
151.5010734779
 20
82.7662223122
 30
0.0
 11
151.5010734779
 21
114.8260931079
 31
0.0
  0
LINE
  5
18D
330
1F
100
AcDbEntity
  8
0
  6
SLD-Gestrichelt
 62
     7
370
     0
100
AcDbLine
 10
191.0608994464
 20
115.7961577101
 30
0.0
 11
191.0608994464
 21
81.7961577101
 31
0.0
  0
LWPOLYLINE
  5
18E
330
1F
100
AcDbEntity
  8
0
  6
SLD-Gestrichelt
 62
     7
370
     0
100
AcDbPolyline
 90
        2
 70
   128
 43
0.0
 10
191.0608994464
 20
81.7961577101
 10
191.0608994464
 20
81.7961577101
  0
LINE
  5
18F
330
1F
100
AcDbEntity
  8
0
  6
SLD-Gestrichelt
 62
     7
370
     0
100
AcDbLine
 10
193.3510734779
 20
114.5211577101
 30
0.0
 11
193.3510734779
 21
83.0711577101
 31
0.0
  0
LWPOLYLINE
  5
190
330
1F
100
AcDbEntity
  8
0
  6
SLD-Gestrichelt
 62
     7
370
     0
100
AcDbPolyline
 90
        2
 70
   128
 43
0.0
 10
193.3510734779
 20
83.0711577101
 10
193.3510734779
 20
83.0711577101
  0
LINE
  5
191
330
1F
100
AcDbEntity
  8
0
  6
SLD-Gestrichelt
 62
     7
370
     0
100
AcDbLine
 10
152.6510734779
 20
82.994667274
 30
0.0
 11
160.2010734779
 21
82.994667274
 31
0.0
  0
LINE
  5
192
330
1F
100
AcDbEntity
  8
0
  6
SLD-Gestrichelt
 62
     7
370
     0
100
AcDbLine
 10
152.6510734779
 20
114.5976481461
 30
0.0
 11
152.6510734779
 21
82.994667274
 31
0.0
  0
LINE
  5
193
330
1F
100
AcDbEntity
  8
0
  6
SLD-Gestrichelt
 62
     7
370
     0
100
AcDbLine
 10
156.2010734779
 20
114.5976481461
 30
0.0
 11
152.6510734779
 21
114.5976481461
 31
0.0
  0
LWPOLYLINE
  5
194
330
1F
100
AcDbEntity
  8
0
  6
SLD-Gestrichelt
 62
     7
370
     0
100
AcDbPolyline
 90
        6
 70
   128
 43
0.0
 10
157.6010734779
 20
115.0836713325
 10
157.5149469273
 20
114.9312261311
 10
157.2661078097
 20
114.783866782
 10
156.8824458119
 20
114.6667385859
 10
156.4300128924
 20
114.6051131462
 10
156.2010734779
 20
114.5976481461
  0
LINE
  5
195
330
1F
100
AcDbEntity
  8
0
  6
SLD-Gestrichelt
 62
     7
370
     0
100
AcDbLine
 10
157.6010734779
 20
115.0836713325
 30
0.0
 11
157.6010734779
 21
115.7961577101
 31
0.0
  0
LWPOLYLINE
  5
196
330
1F
100
AcDbEntity
  8
0
  6
SLD-Gestrichelt
 62
     7
370
     0
100
AcDbPolyline
 90
        6
 70
   128
 43
0.0
 10
157.6010734779
 20
115.0836713325
 10
157.5149469273
 20
114.9312261311
 10
157.2661078097
 20
114.783866782
 10
156.8824458119
 20
114.6667385859
 10
156.4300128924
 20
114.6051131462
 10
156.2010734779
 20
114.5976481461
  0
LINE
  5
197
330
1F
100
AcDbEntity
  8
0
  6
SLD-Gestrichelt
 62
     7
370
     0
100
AcDbLine
 10
156.2010734779
 20
114.5976481461
 30
0.0
 11
152.6510734779
 21
114.5976481461
 31
0.0
  0
LINE
  5
198
330
1F
100
AcDbEntity
  8
0
  6
SLD-Gestrichelt
 62
     7
370
     0
100
AcDbLine
 10
152.6510734779
 20
82.994667274
 30
0.0
 11
160.2010734779
 21
82.994667274
 31
0.0
  0
LWPOLYLINE
  5
199
330
1F
100
AcDbEntity
  8
0
  6
SLD-Gestrichelt
 62
     7
370
     0
100
AcDbPolyline
 90
        6
 70
   128
 43
0.0
 10
160.2010734779
 20
82.994667274
 10
160.6416673488
 20
82.9666252873
 10
161.0322046284
 20
82.8889007718
 10
161.3448044846
 20
82.7721994801
 10
161.5475411919
 20
82.628245376
 10
161.6010734779
 20
82.5086440877
  0
LINE
  5
19A
330
1F
100
AcDbEntity
  8
0
  6
SLD-Gestrichelt
 62
     7
370
     0
100
AcDbLine
 10
161.6010734779
 20
82.5086440877
 30
0.0
 11
161.6010734779
 21
81.7961577101
 31
0.0
  0
LWPOLYLINE
  5
19B
330
1F
100
AcDbEntity
  8
0
  6
SLD-Gestrichelt
 62
     7
370
     0
100
AcDbPolyline
 90
        6
 70
   128
 43
0.0
 10
160.2010734779
 20
82.994667274
 10
160.6416673488
 20
82.9666252873
 10
161.0322046284
 20
82.8889007718
 10
161.3448044846
 20
82.7721994801
 10
161.5475411919
 20
82.628245376
 10
161.6010734779
 20
82.5086440877
  0
LINE
  5
19C
330
1F
100
AcDbEntity
  8
0
  6
SLD-Gestrichelt
 62
     7
370
     0
100
AcDbLine
 10
152.6510734779
 20
82.994667274
 30
0.0
 11
152.6510734779
 21
114.5976481461
 31
0.0
  0
LINE
  5
19D
330
1F
100
AcDbEntity
  8
0
  6
SLD-Gestrichelt
 62
     7
370
     0
100
AcDbLine
 10
225.4010734779
 20
71.7961577101
 30
0.0
 11
225.4010734779
 21
125.7961577101
 31
0.0
  0
LINE
  5
19E
330
1F
100
AcDbEntity
  8
0
  6
SLD-Gestrichelt
 62
     7
370
     0
100
AcDbLine
 10
242.6919328195
 20
128.3726985412
 30
0.0
 11
243.0908781421
 21
128.8719513977
 31
0.0
  0
LINE
  5
19F
330
1F
100
AcDbEntity
  8
0
  6
SLD-Gestrichelt
 62
     7
370
     0
100
AcDbLine
 10
243.0908781421
 20
128.8719513977
 30
0.0
 11
242.3748946007
 21
115.3935648075
 31
0.0
  0
ARC
  5
1A0
330
1F
100
AcDbEntity
  8
0
  6
SLD-Gestrichelt
 62
     7
370
     0
100
AcDbCircle
 10
244.468191505
 20
115.2800165572
 30
0.0
 40
2.09637428313352
100
AcDbArc
 50
176.8951055853
 51
355.7946861853
  0
LINE
  5
1A1
330
1F
100
AcDbEntity
  8
0
  6
SLD-Gestrichelt
 62
     7
370
     0
100
AcDbLine
 10
246.558921679
 20
115.1262879817
 30
0.0
 11
246.8770540538
 21
121.115128349
 31
0.0
  0
LINE
  5
1A2
330
1F
100
AcDbEntity
  8
0
  6
SLD-Gestrichelt
 62
     7
370
     0
100
AcDbLine
 10
246.8770540538
 20
121.115128349
 30
0.0
 11
251.3097761746
 21
126.6623776969
 31
0.0
  0
ARC
  5
1A3
330
1F
100
AcDbEntity
  8
0
  6
SLD-Gestrichelt
 62
     7
370
     0
100
AcDbCircle
 10
238.2469167212
 20
131.7686927098
 30
0.0
 40
5.593830933086181
100
AcDbArc
 50
261.1267139371
 51
322.6201572376
  0
ARC
  5
1A4
330
1F
100
AcDbEntity
  8
0
  6
SLD-Gestrichelt
 62
     7
370
     0
100
AcDbCircle
 10
231.8193796088
 20
102.7069187233
 30
0.0
 40
2.499299624184403
100
AcDbArc
 50
150.5791333935
 51
329.0126326853
  0
LINE
  5
1A5
330
1F
100
AcDbEntity
  8
0
  6
SLD-Gestrichelt
 62
     7
370
     0
100
AcDbLine
 10
235.4583273566
 20
103.960592599
 30
0.0
 11
233.9619812812
 21
101.42015663
 31
0.0
  0
ARC
  5
1A6
330
1F
100
AcDbEntity
  8
0
  6
SLD-Gestrichelt
 62
     7
370
     0
100
AcDbCircle
 10
233.271657705
 20
105.194147868
 30
0.0
 40
2.487980409195043
100
AcDbArc
 50
68.0567237524
 51
149.0131457051
  0
ARC
  5
1A7
330
1F
100
AcDbEntity
  8
0
  6
SLD-Gestrichelt
 62
     7
370
     0
100
AcDbCircle
 10
233.3219612257
 20
105.194779842
 30
0.0
 40
2.467241049420894
100
AcDbArc
 50
329.984802194
 51
65.5286113014
  0
LINE
  5
1A8
330
1F
100
AcDbEntity
  8
0
  6
SLD-Gestrichelt
 62
     7
370
     0
100
AcDbLine
 10
229.6424022341
 20
103.9346272072
 30
0.0
 11
231.1387483094
 21
106.4750631762
 31
0.0
  0
CIRCLE
  5
1A9
330
1F
100
AcDbEntity
  8
0
  6
SLD-Gestrichelt
 62
     7
370
     0
100
AcDbCircle
 10
238.3289576617
 20
113.7095156762
 30
0.0
 40
3.076766847850385
  0
LINE
  5
1AA
330
1F
100
AcDbEntity
  8
0
  6
SLD-Gestrichelt
 62
     7
370
     0
100
AcDbLine
 10
152.6510734779
 20
80.8061577101
 30
0.0
 11
152.6510734779
 21
77.9836577101
 31
0.0
  0
LINE
  5
1AB
330
1F
100
AcDbEntity
  8
0
  6
SLD-Gestrichelt
 62
     7
370
     0
100
AcDbLine
 10
161.6010734779
 20
80.8061577101
 30
0.0
 11
161.6010734779
 21
76.8510094508
 31
0.0
  0
LINE
  5
1AC
330
1F
100
AcDbEntity
  8
0
  6
SLD-Gestrichelt
 62
     7
370
     0
100
AcDbLine
 10
152.6510734779
 20
116.7861577101
 30
0.0
 11
152.6510734779
 21
119.6660954755
 31
0.0
  0
LINE
  5
1AD
330
1F
100
AcDbEntity
  8
0
  6
SLD-Gestrichelt
 62
     7
370
     0
100
AcDbLine
 10
151.5010734779
 20
116.7861577101
 30
0.0
 11
151.5010734779
 21
118.4868354566
 31
0.0
  0
LINE
  5
1AE
330
1F
100
AcDbEntity
  8
0
  6
SLD-Gestrichelt
 62
     7
370
     0
100
AcDbLine
 10
151.5010734779
 20
80.8061577101
 30
0.0
 11
151.5010734779
 21
79.1429971851
 31
0.0
  0
LINE
  5
1AF
330
1F
100
AcDbEntity
  8
0
  6
SLD-Gestrichelt
 62
     7
370
     0
100
AcDbLine
 10
157.6010734779
 20
116.7861577101
 30
0.0
 11
157.6010734779
 21
120.6402653824
 31
0.0
  0
LINE
  5
1B0
330
1F
100
AcDbEntity
  8
0
  6
SLD-Gestrichelt
 62
     7
370
     0
100
AcDbLine
 10
205.2010734779
 20
108.2961577101
 30
0.0
 11
205.2010734779
 21
89.2961577101
 31
0.0
  0
LINE
  5
1B1
330
1F
100
AcDbEntity
  8
0
  6
SLD-Gestrichelt
 62
     7
370
     0
100
AcDbLine
 10
202.7010734779
 20
108.2961577101
 30
0.0
 11
202.7010734779
 21
89.2961577101
 31
0.0
  0
LWPOLYLINE
  5
1B2
330
1F
100
AcDbEntity
  8
0
  6
SLD-Gestrichelt
 62
     7
370
     0
100
AcDbPolyline
 90
        2
 70
   128
 43
0.0
 10
209.3510734779
 20
72.3961577101
 10
209.3510734779
 20
72.3961577101
  0
LINE
  5
1B3
330
1F
100
AcDbEntity
  8
0
  6
SLD-Gestrichelt
 62
     7
370
     0
100
AcDbLine
 10
193.8510734779
 20
107.2961577101
 30
0.0
 11
193.8510734779
 21
90.2961577101
 31
0.0
  0
LINE
  5
1B4
330
1F
100
AcDbEntity
  8
0
  6
SLD-Gestrichelt
 62
     7
370
     0
100
AcDbLine
 10
193.3510734779
 20
89.7961577101
 30
0.0
 11
193.3510734779
 21
107.7776662448
 31
0.0
  0
LINE
  5
1B5
330
1F
100
AcDbEntity
  8
0
  6
SLD-Gestrichelt
 62
     7
370
     0
100
AcDbLine
 10
209.3510734779
 20
72.3961577101
 30
0.0
 11
203.2133986756
 21
72.3961577101
 31
0.0
  0
LINE
  5
1B6
330
1F
100
AcDbEntity
  8
0
  6
SLD-Gestrichelt
 62
     7
370
     0
100
AcDbLine
 10
203.3110734779
 20
71.298320551
 30
0.0
 11
203.3110734779
 21
71.9917620817
 31
0.0
  0
LINE
  5
1B7
330
1F
100
AcDbEntity
  8
0
  6
SLD-Gestrichelt
 62
     7
370
     0
100
AcDbLine
 10
209.3510734779
 20
72.3961577101
 30
0.0
 11
209.3510734779
 21
69.2358803095
 31
0.0
  0
LINE
  5
1B8
330
1F
100
AcDbEntity
  8
0
  6
SLD-Gestrichelt
 62
     7
370
     0
100
AcDbLine
 10
188.3510734779
 20
67.3120347272
 30
0.0
 11
188.3510734779
 21
72.3961577101
 31
0.0
  0
LINE
  5
1B9
330
1F
100
AcDbEntity
  8
0
  6
SLD-Gestrichelt
 62
     7
370
     0
100
AcDbLine
 10
196.3510734779
 20
72.3961577101
 30
0.0
 11
188.3510734779
 21
72.3961577101
 31
0.0
  0
LINE
  5
1BA
330
1F
100
AcDbEntity
  8
0
  6
SLD-Gestrichelt
 62
     7
370
     0
100
AcDbLine
 10
199.5887482802
 20
72.3961577101
 30
0.0
 11
196.3510734779
 21
72.3961577101
 31
0.0
  0
LINE
  5
1BB
330
1F
100
AcDbEntity
  8
0
  6
SLD-Gestrichelt
 62
     7
370
     0
100
AcDbLine
 10
199.4910734779
 20
71.9917620817
 30
0.0
 11
199.4910734779
 21
71.298320551
 31
0.0
  0
ARC
  5
1BC
330
1F
100
AcDbEntity
  8
0
  6
SLD-Gestrichelt
 62
     7
370
     0
100
AcDbCircle
 10
231.7809011314
 20
102.6141213234
 30
0.0
 40
1.999435305371231
100
AcDbArc
 50
150.5698684231
 51
329.0218976557
  0
LINE
  5
1BD
330
1F
100
AcDbEntity
  8
0
  6
SLD-Gestrichelt
 62
     7
370
     0
100
AcDbLine
 10
233.4951451396
 20
101.584991098
 30
0.0
 11
234.991491215
 21
104.125427067
 31
0.0
  0
LINE
  5
1BE
330
1F
100
AcDbEntity
  8
0
  6
SLD-Gestrichelt
 62
     7
370
     0
100
AcDbLine
 10
202.7010734779
 20
90.2961577101
 30
0.0
 11
202.7010734779
 21
107.2771761784
 31
0.0
  0
LINE
  5
1BF
330
1F
100
AcDbEntity
  8
0
  6
SLD-Gestrichelt
 62
     7
370
     0
100
AcDbLine
 10
231.5358279773
 20
106.1370035288
 30
0.0
 11
230.0394819019
 21
103.5965675598
 31
0.0
  0
ARC
  5
1C0
330
1F
100
AcDbEntity
  8
0
  6
SLD-Gestrichelt
 62
     7
370
     0
100
AcDbCircle
 10
231.5367534733
 20
102.0078331953
 30
0.0
 40
1.999435305371223
100
AcDbArc
 50
150.5698684231
 51
329.0218976557
  0
LWPOLYLINE
  5
1C1
330
1F
100
AcDbEntity
  8
0
  6
SLD-Gestrichelt
 62
     7
370
     0
100
AcDbPolyline
 90
        2
 70
   128
 43
0.0
 10
209.3510734779
 20
125.1961577101
 10
209.3510734779
 20
125.1961577101
  0
LINE
  5
1C2
330
1F
100
AcDbEntity
  8
0
  6
SLD-Gestrichelt
 62
     7
370
     0
100
AcDbLine
 10
209.3510734779
 20
125.1961577101
 30
0.0
 11
202.9167759462
 21
125.1961577101
 31
0.0
  0
LINE
  5
1C3
330
1F
100
AcDbEntity
  8
0
  6
SLD-Gestrichelt
 62
     7
370
     0
100
AcDbLine
 10
203.3110734779
 20
126.6013919012
 30
0.0
 11
203.3110734779
 21
125.9158115611
 31
0.0
  0
LINE
  5
1C4
330
1F
100
AcDbEntity
  8
0
  6
SLD-Gestrichelt
 62
     7
370
     0
100
AcDbLine
 10
209.3510734779
 20
125.1961577101
 30
0.0
 11
209.3510734779
 21
128.6425980338
 31
0.0
  0
LINE
  5
1C5
330
1F
100
AcDbEntity
  8
0
  6
SLD-Gestrichelt
 62
     7
370
     0
100
AcDbLine
 10
199.8853710096
 20
125.1961577101
 30
0.0
 11
196.3510734779
 21
125.1961577101
 31
0.0
  0
LINE
  5
1C6
330
1F
100
AcDbEntity
  8
0
  6
SLD-Gestrichelt
 62
     7
370
     0
100
AcDbLine
 10
199.4910734779
 20
125.9158115611
 30
0.0
 11
199.4910734779
 21
126.6013919012
 31
0.0
  0
LINE
  5
1C7
330
1F
100
AcDbEntity
  8
0
  6
SLD-Gestrichelt
 62
     7
370
     0
100
AcDbLine
 10
196.3510734779
 20
125.1961577101
 30
0.0
 11
188.3510734779
 21
125.1961577101
 31
0.0
  0
ARC
  5
1C8
330
1F
100
AcDbEntity
  8
0
  6
SLD-Gestrichelt
 62
     7
370
     0
100
AcDbCircle
 10
233.2500719855
 20
105.1078733034
 30
0.0
 40
1.999435305371246
100
AcDbArc
 50
330.5698684231
 51
149.0218976557
  0
LINE
  5
1C9
330
1F
100
AcDbEntity
  8
0
  6
SLD-Gestrichelt
 62
     7
370
     0
100
AcDbLine
 10
231.2916803192
 20
105.5307154008
 30
0.0
 11
229.7953342438
 21
102.9902794317
 31
0.0
  0
ARC
  5
1CA
330
1F
100
AcDbEntity
  8
0
  6
SLD-Gestrichelt
 62
     7
370
     0
100
AcDbCircle
 10
233.0059243274
 20
104.5015851754
 30
0.0
 40
1.999435305371241
100
AcDbArc
 50
330.5698684231
 51
149.0218976557
  0
ELLIPSE
  5
1CB
330
1F
100
AcDbEntity
  8
0
  6
SLD-Gestrichelt
 62
     7
370
     0
100
AcDbEllipse
 10
147.3336416136
 20
98.7961577101
 30
0.0
 11
20.07002071827054
 21
-2.842170943040401E-14
 31
0.0
210
0.0
220
0.0
230
1.0
 40
0.8164965809
 41
4.921555463185705
 42
4.980534842098404
  0
LINE
  5
1CC
330
1F
100
AcDbEntity
  8
0
  6
SLD-Gestrichelt
 62
     7
370
     0
100
AcDbLine
 10
151.5010734779
 20
80.8061577101
 30
0.0
 11
151.5010734779
 21
82.7662223122
 31
0.0
  0
ELLIPSE
  5
1CD
330
1F
100
AcDbEntity
  8
0
  6
SLD-Gestrichelt
 62
     7
370
     0
100
AcDbEllipse
 10
147.3336416136
 20
98.7961577101
 30
0.0
 11
20.07002071827051
 21
-1.421085471520200E-14
 31
0.0
210
0.0
220
0.0
230
1.0
 40
0.8164965809
 41
1.302650465081198
 42
1.361629843993897
  0
LINE
  5
1CE
330
1F
100
AcDbEntity
  8
0
  6
SLD-Gestrichelt
 62
     7
370
     0
100
AcDbLine
 10
151.5010734779
 20
116.7861577101
 30
0.0
 11
151.5010734779
 21
114.8260931079
 31
0.0
  0
ARC
  5
1CF
330
1F
100
AcDbEntity
  8
0
  6
SLD-Gestrichelt
 62
     7
370
     0
100
AcDbCircle
 10
241.3145246037
 20
121.7633765167
 30
0.0
 40
5.274411176255585
100
AcDbArc
 50
248.4693672994
 51
327.129665549
  0
LINE
  5
1D0
330
1F
100
AcDbEntity
  8
0
  6
SLD-Gestrichelt
 62
     7
370
     0
100
AcDbLine
 10
241.1891507317
 20
127.8279012421
 30
0.0
 11
241.2032751385
 21
127.8459628933
 31
0.0
  0
LWPOLYLINE
  5
1D1
330
1F
100
AcDbEntity
  8
0
  6
SLD-Gestrichelt
 62
     7
370
     0
100
AcDbPolyline
 90
       12
 70
   128
 43
0.0
 10
235.5110867744
 20
126.1655385488
 10
235.4377168661
 20
126.1506991417
 10
235.0658934312
 20
125.9160124101
 10
234.8876355165
 20
125.5731584139
 10
234.969432912
 20
125.1034785794
 10
235.3137554
 20
124.5405114878
 10
235.8908351003
 20
123.8981596782
 10
236.5669539522
 20
123.2108754791
 10
237.5769231362
 20
121.9736435471
 10
238.4012404638
 20
120.4837542658
 10
239.0316481582
 20
118.692601831
 10
239.3788230116
 20
116.8570059027
  0
CIRCLE
  5
1D2
330
1F
100
AcDbEntity
  8
0
  6
SLD-Gestrichelt
 62
     7
370
     0
100
AcDbCircle
 10
237.9856595541
 20
113.0214467288
 30
0.0
 40
3.076766847850442
  0
LINE
  5
1D3
330
1F
100
AcDbEntity
  8
0
  6
SLD-Gestrichelt
 62
     7
370
     0
100
AcDbLine
 10
161.6010734779
 20
80.8061577101
 30
0.0
 11
161.6010734779
 21
82.5086440877
 31
0.0
  0
LINE
  5
1D4
330
1F
100
AcDbEntity
  8
0
  6
SLD-Gestrichelt
 62
     7
370
     0
100
AcDbLine
 10
152.6510734779
 20
80.8061577101
 30
0.0
 11
152.6510734779
 21
82.994667274
 31
0.0
  0
LINE
  5
1D5
330
1F
100
AcDbEntity
  8
0
  6
SLD-Gestrichelt
 62
     7
370
     0
100
AcDbLine
 10
157.6010734779
 20
116.7861577101
 30
0.0
 11
157.6010734779
 21
115.0836713325
 31
0.0
  0
LINE
  5
1D6
330
1F
100
AcDbEntity
  8
0
  6
SLD-Gestrichelt
 62
     7
370
     0
100
AcDbLine
 10
152.6510734779
 20
116.7861577101
 30
0.0
 11
152.6510734779
 21
114.5976481461
 31
0.0
  0
ARC
  5
1D7
330
1F
100
AcDbEntity
  8
0
  6
SLD-Gestrichelt
 62
     7
370
     0
100
AcDbCircle
 10
243.9352520456
 20
113.9565761863
 30
0.0
 40
2.096374283133489
100
AcDbArc
 50
176.8951055853
 51
355.7946861853
  0
LINE
  5
1D8
330
1F
100
AcDbEntity
  8
0
  6
SLD-Gestrichelt
 62
     7
370
     0
100
AcDbLine
 10
246.0259822195
 20
113.8028476109
 30
0.0
 11
246.3441145944
 21
119.7916879781
 31
0.0
  0
LINE
  5
1D9
330
1F
100
AcDbEntity
  8
0
  6
SLD-Gestrichelt
 62
     7
370
     0
100
AcDbLine
 10
246.3441145944
 20
119.7916879781
 30
0.0
 11
246.8770540538
 21
121.115128349
 31
0.0
  0
LINE
  5
1DA
330
1F
100
AcDbEntity
  8
0
  6
SLD-Gestrichelt
 62
     7
370
     0
100
AcDbLine
 10
233.2509974815
 20
100.97870297
 30
0.0
 11
234.7473435569
 21
103.519138939
 31
0.0
  0
LWPOLYLINE
  5
1DB
330
1F
100
AcDbEntity
  8
0
  6
SLD-Gestrichelt
 62
     7
370
     0
100
AcDbPolyline
 90
        8
 70
   128
 43
0.0
 10
233.4010734779
 20
98.7961577101
 10
233.4150864493
 20
98.8258837362
 10
235.9138365201
 20
104.281211167
 10
237.0526050661
 20
107.0685025185
 10
238.0428852827
 20
109.91081703
 10
238.8938810386
 20
113.1656479478
 10
239.3611092765
 20
116.5401276603
 10
239.3788230116
 20
116.8570059027
  0
LWPOLYLINE
  5
1DC
330
1F
100
AcDbEntity
  8
0
  6
SLD-Gestrichelt
 62
     7
370
     0
100
AcDbPolyline
 90
       28
 70
   128
 43
0.0
 10
171.5610853904
 20
75.7284958535
 10
171.7449307034
 20
75.7466851961
 10
172.3938492159
 20
75.7911495933
 10
173.0812941446
 20
75.8129493738
 10
174.3987342852
 20
75.7885550843
 10
175.5767901251
 20
75.6768655528
 10
176.3053890661
 20
75.5771079616
 10
177.0447241398
 20
75.4480751534
 10
177.570474534
 20
75.3381865194
 10
177.9131440198
 20
75.2595208227
 10
178.1510588727
 20
75.1958582406
 10
178.1497164687
 20
75.1962166712
 10
177.9210472409
 20
75.2572728347
 10
177.5839357059
 20
75.3349564844
 10
177.0652445838
 20
75.4439577088
 10
176.3234681752
 20
75.574062743
 10
175.5932588604
 20
75.674641554
 10
174.4218387092
 20
75.7872205062
 10
173.1002587254
 20
75.8133036827
 10
172.4117158175
 20
75.7921390363
 10
171.761589464
 20
75.7481702336
 10
171.1809434531
 20
75.6911945818
 10
170.8449661579
 20
75.6504314731
 10
170.6510932887
 20
75.6175428854
 10
170.6520768916
 20
75.6177096794
 10
170.8400925596
 20
75.6495923352
 10
171.1720801745
 20
75.6900083392
 10
171.5610853904
 20
75.7284958535
  0
LWPOLYLINE
  5
1DD
330
1F
100
AcDbEntity
  8
0
  6
SLD-Gestrichelt
 62
     7
370
     0
100
AcDbPolyline
 90
       41
 70
   128
 43
0.0
 10
172.3759301132
 20
121.8015637239
 10
171.7449280049
 20
121.8455607929
 10
171.1718064526
 20
121.9022217014
 10
170.8400045723
 20
121.9426340625
 10
170.6878497515
 20
121.966797876
 10
170.6517377598
 20
121.9745727564
 10
170.6510857102
 20
121.9747131421
 10
170.6898630699
 20
121.966404424
 10
170.8440526173
 20
121.9418902816
 10
171.1794808083
 20
121.901170715
 10
171.4355502033
 20
121.8747338977
 10
171.7596559827
 20
121.8442457243
 10
172.4103340368
 20
121.8002589365
 10
173.0997016727
 20
121.7790714727
 10
173.5575535034
 20
121.7776127879
 10
174.0013984806
 20
121.7862871359
 10
174.423148529
 20
121.8050945167
 10
174.9464596864
 20
121.8464593369
 10
175.5915093432
 20
121.9172830408
 10
176.3198797559
 20
122.0175656282
 10
176.6945506474
 20
122.0787540033
 10
177.0603034909
 20
122.1473070993
 10
177.5815807689
 20
122.2566978582
 10
177.9202448643
 20
122.3346783577
 10
178.0997759519
 20
122.3812485981
 10
178.1502709882
 20
122.3961766388
 10
178.1510543449
 20
122.3964082256
 10
178.0880708251
 20
122.3789324493
 10
177.8834941677
 20
122.327677481
 10
177.6554014429
 20
122.2747412843
 10
177.4173325865
 20
122.2217486081
 10
177.1154531996
 20
122.1578126219
 10
176.7737781737
 20
122.0918576448
 10
176.4317379924
 20
122.0322576812
 10
176.1156321961
 20
121.9826963366
 10
175.8348509194
 20
121.9428846704
 10
175.0841215257
 20
121.8577280297
 10
174.3517665642
 20
121.802654705
 10
173.6686429484
 20
121.7776672518
 10
173.0322852741
 20
121.7789325435
 10
172.3759301132
 20
121.8015637239
  0
LINE
  5
1DE
330
1F
100
AcDbEntity
  8
0
  6
SLD-Gestrichelt
 62
     7
370
     0
100
AcDbLine
 10
213.5010734779
 20
102.9961577101
 30
0.0
 11
213.5010734779
 21
94.5961577101
 31
0.0
  0
LWPOLYLINE
  5
1DF
330
1F
100
AcDbEntity
  8
0
  6
SLD-Gestrichelt
 62
     7
370
     0
100
AcDbPolyline
 90
       23
 70
   128
 43
0.0
 10
213.790338765
 20
101.4690984768
 10
213.8011210232
 20
101.8821189152
 10
213.8700426283
 20
102.0979000733
 10
213.9943136921
 20
102.0966002719
 10
214.1731255268
 20
101.8766108554
 10
214.4049990045
 20
101.4527692326
 10
214.6830870151
 20
100.8788979023
 10
214.9916457779
 20
100.2576691463
 10
215.3109640878
 20
99.7012448336
 10
215.6327920669
 20
99.2668591918
 10
215.9409586372
 20
98.933879849
 10
215.9505780577
 20
98.8797962577
 10
215.9328024428
 20
98.8178569563
 10
215.7584419791
 20
98.5586664869
 10
215.36260886
 20
98.1762888649
 10
215.0545800537
 20
98.062256478
 10
214.772302509
 20
98.1567401879
 10
214.525858672
 20
98.4415343197
 10
214.3006995578
 20
98.9068699537
 10
214.1001032546
 20
99.5317936934
 10
213.9383712699
 20
100.2497602487
 10
213.8316380784
 20
100.9522772312
 10
213.790338765
 20
101.4690984767
  0
LINE
  5
1E0
330
1F
100
AcDbEntity
  8
0
  6
SLD-Gestrichelt
 62
     7
370
     0
100
AcDbLine
 10
205.2010734779
 20
94.5961577101
 30
0.0
 11
205.2010734779
 21
102.9771397849
 31
0.0
  0
LINE
  5
1E1
330
1F
100
AcDbEntity
  8
0
  6
SLD-Gestrichelt
 62
     7
370
     0
100
AcDbLine
 10
252.0434630617
 20
127.5805367863
 30
0.0
 11
251.5105236023
 21
126.2570964154
 31
0.0
  0
ELLIPSE
  5
1E2
330
1F
100
AcDbEntity
  8
0
  6
SLD-Gestrichelt
 62
     7
370
     0
100
AcDbEllipse
 10
345.9724807991
 20
204.4928990622
 30
0.0
 11
118.4879067068462
 21
148.2795323739654
 31
2.486899575160351E-14
210
-1.619060871229285E-19
220
-1.675876059251742E-16
230
1.0
 40
0.179130553
 41
2.266444846923538
 42
2.32119513149605
  0
LWPOLYLINE
  5
1E3
330
1F
100
AcDbEntity
  8
0
  6
SLD-Gestrichelt
 62
     7
370
     0
100
AcDbPolyline
 90
        9
 70
   128
 43
0.0
 10
251.8095970364
 20
141.1180084571
 10
251.6139154987
 20
140.6553428503
 10
251.3897385472
 20
139.7718980355
 10
251.1424654221
 20
138.4681787111
 10
250.8761394329
 20
136.7459608952
 10
250.5933283922
 20
134.6083514899
 10
250.2950120926
 20
132.059838012
 10
249.9804787365
 20
129.1063270916
 10
249.647232287
 20
125.7551703547
  0
LINE
  5
1E4
330
1F
100
AcDbEntity
  8
0
  6
SLD-Gestrichelt
 62
     7
370
     0
100
AcDbLine
 10
251.8066757775
 20
141.1143493321
 30
0.0
 11
242.671272258
 21
129.6820150158
 31
0.0
  0
ELLIPSE
  5
1E5
330
1F
100
AcDbEntity
  8
0
  6
SLD-Gestrichelt
 62
     7
370
     0
100
AcDbEllipse
 10
239.4674435126
 20
71.2091103344
 30
0.0
 11
3.321673972831917
 21
58.5558892824914
 31
0.0
210
0.0
220
0.0
230
0.9999999999999999
 40
0.0348700908
 41
6.110280133306089
 42
6.338445174424441
  0
CIRCLE
  5
1E6
330
1F
100
AcDbEntity
  8
0
  6
SLD-Gestrichelt
 62
     7
370
     0
100
AcDbCircle
 10
237.9683119794
 20
112.9640569831
 30
0.0
 40
2.480770587463322
  0
CIRCLE
  5
1E7
330
1F
100
AcDbEntity
  8
0
  6
SLD-Gestrichelt
 62
     7
370
     0
100
AcDbCircle
 10
237.0168696977
 20
110.6013549842
 30
0.0
 40
2.480770587463336
  0
LWPOLYLINE
  5
1E8
330
1F
100
AcDbEntity
  8
0
  6
SLD-Gestrichelt
 62
     7
370
     0
100
AcDbPolyline
 90
       27
 70
   128
 43
0.0
 10
237.4375303461
 20
108.6062477717
 10
237.4216717047
 20
108.598269206
 10
237.1357300644
 20
108.520929056
 10
236.4733923087
 20
108.524437922
 10
235.7332636556
 20
108.7849021673
 10
235.2528605122
 20
109.1652504202
 10
234.8877332336
 20
109.6967104129
 10
234.701016064
 20
110.2512373918
 10
234.650793485
 20
110.8215217914
 10
234.7231753433
 20
111.4058022722
 10
234.8475134548
 20
111.829428007
 10
234.9220645366
 20
112.0240491663
 10
234.9271505057
 20
112.0362358054
 10
234.9366845999
 20
112.0590807268
 10
234.9405051545
 20
112.0682352692
 10
234.9023723006
 20
111.9149193531
 10
234.8774023052
 20
111.4501047552
 10
234.9629786583
 20
110.9684041869
 10
235.1372878621
 20
110.5156432167
 10
235.4137053267
 20
110.0558660035
 10
235.7337910088
 20
109.6767106666
 10
236.220818501
 20
109.264159881
 10
236.8908165733
 20
108.8993294186
 10
237.1912469185
 20
108.7900173068
 10
237.4273826536
 20
108.7092897517
 10
237.4870587902
 20
108.662568334
 10
237.4375303461
 20
108.6062477717
  0
LWPOLYLINE
  5
1E9
330
1F
100
AcDbEntity
  8
0
  6
SLD-Gestrichelt
 62
     7
370
     0
100
AcDbPolyline
 90
        2
 70
   128
 43
0.0
 10
237.4216717047
 20
108.598269206
 10
237.4216717047
 20
108.598269206
  0
LWPOLYLINE
  5
1EA
330
1F
100
AcDbEntity
  8
0
  6
SLD-Gestrichelt
 62
     7
370
     0
100
AcDbPolyline
 90
       24
 70
   128
 43
0.0
 10
239.1192203006
 20
109.4011038553
 10
239.1102026864
 20
109.4181492714
 10
239.1699725341
 20
109.514242995
 10
239.3233026355
 20
109.7416003425
 10
239.6391558991
 20
110.3530510099
 10
239.8300294125
 20
111.1561265866
 10
239.8026093593
 20
111.8116096769
 10
239.593382983
 20
112.4395925227
 10
239.2707505609
 20
112.9005532082
 10
238.869750803
 20
113.2289730599
 10
238.4004995364
 20
113.4334869666
 10
237.962672387
 20
113.4792795049
 10
237.8283574231
 20
113.4254829467
 10
237.8506327656
 20
113.3265970863
 10
238.0925267495
 20
113.1151939337
 10
238.4818199336
 20
112.7876936233
 10
238.8868111795
 20
112.3545777541
 10
239.1880095485
 20
111.9145343037
 10
239.4204932606
 20
111.4148896484
 10
239.5406777431
 20
110.9614463305
 10
239.568669944
 20
110.4113878957
 10
239.4193988536
 20
109.8109682327
 10
239.1650393548
 20
109.4359690534
 10
239.1192203006
 20
109.4011038553
  0
LWPOLYLINE
  5
1EB
330
1F
100
AcDbEntity
  8
0
  6
SLD-Gestrichelt
 62
     7
370
     0
100
AcDbPolyline
 90
        2
 70
   128
 43
0.0
 10
188.3510734779
 20
72.3961577101
 10
188.3510734779
 20
72.3961577101
  0
LINE
  5
1EC
330
1F
100
AcDbEntity
  8
0
  6
SLD-Gestrichelt
 62
     7
370
     0
100
AcDbLine
 10
188.3510734779
 20
67.3120347272
 30
0.0
 11
188.3510734779
 21
72.3961577101
 31
0.0
  0
LINE
  5
1ED
330
1F
100
AcDbEntity
  8
0
  6
SLD-Gestrichelt
 62
     7
370
     0
100
AcDbLine
 10
188.3510734779
 20
72.3961577101
 30
0.0
 11
196.3510734779
 21
72.3961577101
 31
0.0
  0
LINE
  5
1EE
330
1F
100
AcDbEntity
  8
0
  6
SLD-Gestrichelt
 62
     7
370
     0
100
AcDbLine
 10
252.3011894955
 20
141.1414643692
 30
0.0
 11
251.8069798373
 21
141.1200216628
 31
0.0
  0
CIRCLE
  5
1EF
330
1F
100
AcDbEntity
  8
0
  6
SLD-Gestrichelt
 62
     7
370
     0
100
AcDbCircle
 10
247.389900206
 20
128.7308250281
 30
0.0
 40
2.385012728367474
  0
LINE
  5
1F0
330
1F
100
AcDbEntity
  8
0
  6
SLD-Gestrichelt
 62
     7
370
     0
100
AcDbLine
 10
246.3441145944
 20
119.7916879781
 30
0.0
 11
251.5105236023
 21
126.2570964154
 31
0.0
  0
LINE
  5
1F1
330
1F
100
AcDbEntity
  8
0
  6
SLD-Gestrichelt
 62
     7
370
     0
100
AcDbLine
 10
242.671272258
 20
129.6820150158
 30
0.0
 11
241.8419551413
 21
114.0701244366
 31
0.0
  0
LINE
  5
1F2
330
1F
100
AcDbEntity
  8
0
  6
SLD-Gestrichelt
 62
     7
370
     0
100
AcDbLine
 10
251.5105236023
 20
126.2570964154
 30
0.0
 11
252.301194073
 21
141.1414640768
 31
0.0
  0
CIRCLE
  5
1F3
330
1F
100
AcDbEntity
  8
0
  6
SLD-Gestrichelt
 62
     7
370
     0
100
AcDbCircle
 10
247.3425414461
 20
128.5919757967
 30
0.0
 40
1.640916737295263
  0
LINE
  5
1F4
330
1F
100
AcDbEntity
  8
0
  6
SLD-Gestrichelt
 62
     7
370
     0
100
AcDbLine
 10
157.6010734779
 20
116.7861577101
 30
0.0
 11
157.6010734779
 21
115.0836713325
 31
0.0
  0
LINE
  5
1F5
330
1F
100
AcDbEntity
  8
0
  6
SLD-Gestrichelt
 62
     7
370
     0
100
AcDbLine
 10
161.6010734779
 20
80.8061577101
 30
0.0
 11
161.6010734779
 21
82.5086440877
 31
0.0
  0
LINE
  5
1F6
330
1F
100
AcDbEntity
  8
0
  6
SLD-Gestrichelt
 62
     7
370
     0
100
AcDbLine
 10
157.6010734779
 20
116.7861577101
 30
0.0
 11
157.6010734779
 21
120.6402653824
 31
0.0
  0
LINE
  5
1F7
330
1F
100
AcDbEntity
  8
0
  6
SLD-Gestrichelt
 62
     7
370
     0
100
AcDbLine
 10
161.6010734779
 20
80.8061577101
 30
0.0
 11
161.6010734779
 21
76.8510094508
 31
0.0
  0
CIRCLE
  5
1F8
330
1F
100
AcDbEntity
  8
0
  6
SLD-Gestrichelt
 62
     7
370
     0
100
AcDbCircle
 10
246.5926593534
 20
126.7298051178
 30
0.0
 40
1.64091673729529
  0
LWPOLYLINE
  5
1F9
330
1F
100
AcDbEntity
  8
0
  6
SLD-Gestrichelt
 62
     7
370
     0
100
AcDbPolyline
 90
        2
 70
   128
 43
0.0
 10
209.3510734779
 20
125.1961577101
 10
209.3510734779
 20
125.1961577101
  0
LWPOLYLINE
  5
1FA
330
1F
100
AcDbEntity
  8
0
  6
SLD-Gestrichelt
 62
     7
370
     0
100
AcDbPolyline
 90
        2
 70
   128
 43
0.0
 10
209.3510734779
 20
72.3961577101
 10
209.3510734779
 20
72.3961577101
  0
LWPOLYLINE
  5
1FB
330
1F
100
AcDbEntity
  8
0
  6
SLD-Gestrichelt
 62
     7
370
     0
100
AcDbPolyline
 90
        9
 70
   128
 43
0.0
 10
250.1675028555
 20
125.9430772644
 10
250.4839594324
 20
129.1569889635
 10
250.7891993141
 20
132.0168437196
 10
251.0832225005
 20
134.5226415327
 10
251.3660289916
 20
136.6743824027
 10
251.6297570022
 20
138.4159560285
 10
251.8744393081
 20
139.7474916167
 10
252.099751933
 20
140.6642453157
 10
252.3011940992
 20
141.1414645689
  0
ELLIPSE
  5
1FC
330
1F
100
AcDbEntity
  8
0
  6
SLD-Gestrichelt
 62
     7
370
     0
100
AcDbEllipse
 10
147.3336416136
 20
98.7961577101
 30
0.0
 11
20.07002071827051
 21
-1.421085471520200E-14
 31
0.0
210
0.0
220
0.0
230
1.0
 40
0.8164965809
 41
1.302650465081198
 42
1.361629843993897
  0
ELLIPSE
  5
1FD
330
1F
100
AcDbEntity
  8
0
  6
SLD-Gestrichelt
 62
     7
370
     0
100
AcDbEllipse
 10
147.3336416136
 20
98.7961577101
 30
0.0
 11
20.07002071827054
 21
-2.842170943040401E-14
 31
0.0
210
0.0
220
0.0
230
1.0
 40
0.8164965809
 41
4.921555463185705
 42
4.980534842098404
  0
LINE
  5
1FE
330
1F
100
AcDbEntity
  8
0
  6
SLD-Gestrichelt
 62
     7
370
     0
100
AcDbLine
 10
151.5010734779
 20
114.8260931079
 30
0.0
 11
151.5010734779
 21
82.7662223122
 31
0.0
  0
LINE
  5
1FF
330
1F
100
AcDbEntity
  8
0
  6
SLD-Gestrichelt
 62
     7
370
     0
100
AcDbLine
 10
152.6510734779
 20
116.7861577101
 30
0.0
 11
152.6510734779
 21
114.5976481461
 31
0.0
  0
LINE
  5
200
330
1F
100
AcDbEntity
  8
0
  6
SLD-Gestrichelt
 62
     7
370
     0
100
AcDbLine
 10
152.6510734779
 20
116.7861577101
 30
0.0
 11
152.6510734779
 21
119.6660954755
 31
0.0
  0
LINE
  5
201
330
1F
100
AcDbEntity
  8
0
  6
SLD-Gestrichelt
 62
     7
370
     0
100
AcDbLine
 10
151.5010734779
 20
116.7861577101
 30
0.0
 11
151.5010734779
 21
114.8260931079
 31
0.0
  0
LINE
  5
202
330
1F
100
AcDbEntity
  8
0
  6
SLD-Gestrichelt
 62
     7
370
     0
100
AcDbLine
 10
152.6410285475
 20
119.6561116024
 30
0.0
 11
152.325227124
 21
119.1862770437
 31
0.0
  0
LINE
  5
203
330
1F
100
AcDbEntity
  8
0
  6
SLD-Gestrichelt
 62
     7
370
     0
100
AcDbLine
 10
151.5010734779
 20
116.7861577101
 30
0.0
 11
151.5010734779
 21
118.4868354566
 31
0.0
  0
LWPOLYLINE
  5
204
330
1F
100
AcDbEntity
  8
0
  6
SLD-Gestrichelt
 62
     7
370
     0
100
AcDbPolyline
 90
        3
 70
   128
 43
0.0
 10
151.5637368526
 20
118.4707102549
 10
151.5222281855
 20
118.53323495
 10
151.5010734779
 20
118.4868354566
  0
LINE
  5
205
330
1F
100
AcDbEntity
  8
0
  6
SLD-Gestrichelt
 62
     7
370
     0
100
AcDbLine
 10
152.6510734779
 20
80.8061577101
 30
0.0
 11
152.6510734779
 21
82.994667274
 31
0.0
  0
LINE
  5
206
330
1F
100
AcDbEntity
  8
0
  6
SLD-Gestrichelt
 62
     7
370
     0
100
AcDbLine
 10
151.5010734779
 20
80.8061577101
 30
0.0
 11
151.5010734779
 21
82.7662223122
 31
0.0
  0
LINE
  5
207
330
1F
100
AcDbEntity
  8
0
  6
SLD-Gestrichelt
 62
     7
370
     0
100
AcDbLine
 10
152.4399830481
 20
78.3522354071
 30
0.0
 11
152.6410285475
 21
78.0013412812
 31
0.0
  0
LWPOLYLINE
  5
208
330
1F
100
AcDbEntity
  8
0
  6
SLD-Gestrichelt
 62
     7
370
     0
100
AcDbPolyline
 90
        3
 70
   128
 43
0.0
 10
151.5010734779
 20
79.1429971851
 10
151.520396931
 20
79.1499386762
 10
151.5313510935
 20
79.2060701498
  0
LINE
  5
209
330
1F
100
AcDbEntity
  8
0
  6
SLD-Gestrichelt
 62
     7
370
     0
100
AcDbLine
 10
151.5010734779
 20
80.8061577101
 30
0.0
 11
151.5010734779
 21
79.1429971851
 31
0.0
  0
LINE
  5
20A
330
1F
100
AcDbEntity
  8
0
  6
SLD-Gestrichelt
 62
     7
370
     0
100
AcDbLine
 10
152.6510734779
 20
80.8061577101
 30
0.0
 11
152.6510734779
 21
77.9895261515
 31
0.0
  0
LWPOLYLINE
  5
20B
330
1F
100
AcDbEntity
  8
0
  6
SLD-Gestrichelt
 62
     7
370
     0
100
AcDbPolyline
 90
       24
 70
   128
 43
0.0
 10
243.1362702008
 20
111.3009180082
 10
243.2498640834
 20
111.4407844193
 10
243.2884457568
 20
111.7110730304
 10
243.2491537948
 20
112.0917377715
 10
243.1349023025
 20
112.5545464803
 10
242.9541647905
 20
113.0651747521
 10
242.720345733
 20
113.5857516238
 10
242.4507864201
 20
114.0776682905
 10
242.1654788328
 20
114.5044415433
 10
241.8855829297
 20
114.8344195623
 10
241.6318573093
 20
115.0431293876
 10
241.4231196404
 20
115.1150919661
 10
241.2748510408
 20
115.0449701626
 10
241.1980479144
 20
114.8379645904
 10
241.1984063976
 20
114.5094279059
 10
241.2758999034
 20
114.083726172
 10
241.4247810931
 20
113.5924317389
 10
241.6340081297
 20
113.071981667
 10
241.8880636012
 20
112.5609753575
 10
242.1681053755
 20
112.0973118105
 10
242.4533640353
 20
111.7153788302
 10
242.7226832508
 20
111.4435026385
 10
242.9560888477
 20
111.3018470488
 10
243.1362702008
 20
111.3009180082
  0
ARC
  5
20C
330
1F
100
AcDbEntity
  8
0
  6
SLD-Gestrichelt
 62
     7
370
     0
100
AcDbCircle
 10
200.3369374181
 20
125.9114149465
 30
0.0
 40
0.8458753664793156
100
AcDbArc
 50
179.7021918306
 51
237.7343780917
  0
LINE
  5
20D
330
1F
100
AcDbEntity
  8
0
  6
SLD-Gestrichelt
 62
     7
370
     0
100
AcDbLine
 10
199.4910734779
 20
125.9158115611
 30
0.0
 11
199.4910734779
 21
71.9917620817
 31
0.0
  0
ARC
  5
20E
330
1F
100
AcDbEntity
  8
0
  6
SLD-Gestrichelt
 62
     7
370
     0
100
AcDbCircle
 10
200.3751735999
 20
71.9922165648
 30
0.0
 40
0.8841002388255251
100
AcDbArc
 50
152.8130595554
 51
180.0294536299
  0
LINE
  5
20F
330
1F
100
AcDbEntity
  8
0
  6
SLD-Gestrichelt
 62
     7
370
     0
100
AcDbLine
 10
199.8853710096
 20
125.1961577101
 30
0.0
 11
200.2910734779
 21
125.1961577101
 31
0.0
  0
LINE
  5
210
330
1F
100
AcDbEntity
  8
0
  6
SLD-Gestrichelt
 62
     7
370
     0
100
AcDbLine
 10
199.5887482802
 20
72.3961577101
 30
0.0
 11
200.2910734779
 21
72.3961577101
 31
0.0
  0
LINE
  5
211
330
1F
100
AcDbEntity
  8
0
  6
SLD-Gestrichelt
 62
     7
370
     0
100
AcDbLine
 10
203.3110734779
 20
125.9158115611
 30
0.0
 11
203.3110734779
 21
71.9917620817
 31
0.0
  0
ARC
  5
212
330
1F
100
AcDbEntity
  8
0
  6
SLD-Gestrichelt
 62
     7
370
     0
100
AcDbCircle
 10
202.4702432328
 20
125.9086569906
 30
0.0
 40
0.8408606834479385
100
AcDbArc
 50
302.0759157412
 51
0.4875143365
  0
ARC
  5
213
330
1F
100
AcDbEntity
  8
0
  6
SLD-Gestrichelt
 62
     7
370
     0
100
AcDbCircle
 10
202.4309164801
 20
71.9931689585
 30
0.0
 40
0.8801581222365312
100
AcDbArc
 50
359.9084163005
 51
27.2490705155
  0
LINE
  5
214
330
1F
100
AcDbEntity
  8
0
  6
SLD-Gestrichelt
 62
     7
370
     0
100
AcDbLine
 10
202.5110734779
 20
125.1961577101
 30
0.0
 11
202.9167759462
 21
125.1961577101
 31
0.0
  0
LINE
  5
215
330
1F
100
AcDbEntity
  8
0
  6
SLD-Gestrichelt
 62
     7
370
     0
100
AcDbLine
 10
202.5110734779
 20
72.3961577101
 30
0.0
 11
203.2133986756
 21
72.3961577101
 31
0.0
  0
LINE
  5
216
330
1F
100
AcDbEntity
  8
0
  6
SLD-Gestrichelt
 62
     7
370
     0
100
AcDbLine
 10
200.2910734779
 20
125.1961577101
 30
0.0
 11
202.5110734779
 21
125.1961577101
 31
0.0
  0
LINE
  5
217
330
1F
100
AcDbEntity
  8
0
  6
SLD-Gestrichelt
 62
     7
370
     0
100
AcDbLine
 10
200.2910734779
 20
72.3961577101
 30
0.0
 11
202.5110734779
 21
72.3961577101
 31
0.0
  0
LWPOLYLINE
  5
218
330
1F
100
AcDbEntity
  8
0
  6
SLD-Gestrichelt
 62
     7
370
     0
100
AcDbPolyline
 90
       26
 70
   128
 43
0.0
 10
243.5154284476
 20
111.0377577413
 10
243.6430349332
 20
111.1849906222
 10
243.695464434
 20
111.4649762382
 10
243.6694226118
 20
111.8601220632
 10
243.5665457699
 20
112.3455996318
 10
243.3932980388
 20
112.890904603
 10
243.1605652105
 20
113.4617734599
 10
242.8829707445
 20
114.0223364126
 10
242.5779569221
 20
114.5373712294
 10
242.2646888835
 20
114.9745163784
 10
241.9628504117
 20
115.3063044223
 10
241.6914071279
 20
115.511887898
 10
241.467414812
 20
115.5783492397
 10
241.3049477249
 20
115.5015124368
 10
241.2142142713
 20
115.2862054283
 10
241.2009155678
 20
114.9459567453
 10
241.2658872207
 20
114.5021454639
 10
241.4050468222
 20
113.9826578792
 10
241.6096504628
 20
113.4201353067
 10
241.8668421431
 20
112.8499231084
 10
242.1604615641
 20
112.3078498138
 10
242.4720595377
 20
111.8279758816
 10
242.7820572173
 20
111.4404535559
 10
243.0709763084
 20
111.1696322895
 10
243.3206629621
 20
111.0325287787
 10
243.5154284476
 20
111.0377577413
  0
ELLIPSE
  5
219
330
1F
100
AcDbEntity
  8
0
  6
SLD-Gestrichelt
 62
     7
370
     0
100
AcDbEllipse
 10
250.4356361883
 20
117.0760750402
 30
0.0
 11
0.1617006017101801
 21
2.840778242159104
 31
0.0
210
0.0
220
0.0
230
1.0
 40
0.053814598
 41
0.0
 42
6.283185307179586
  0
ARC
  5
21A
330
1F
100
AcDbEntity
  8
0
  6
SLD-Gestrichelt
 62
     7
370
     0
100
AcDbCircle
 10
208.7415127459
 20
128.6537651399
 30
0.0
 40
0.6096630136581095
100
AcDbArc
 50
358.9504631026
 51
89.1014510742
  0
ARC
  5
21B
330
1F
100
AcDbEntity
  8
0
  6
SLD-Gestrichelt
 62
     7
370
     0
100
AcDbCircle
 10
208.7369510168
 20
69.2233283662
 30
0.0
 40
0.6142507211629722
100
AcDbArc
 50
271.3174241248
 51
1.1708955469
  0
LINE
  5
21C
330
1F
100
AcDbEntity
  8
0
  6
SLD-Gestrichelt
 62
     7
370
     0
100
AcDbLine
 10
209.3510734779
 20
128.6425980338
 30
0.0
 11
209.3510734779
 21
69.2358803095
 31
0.0
  0
LINE
  5
21D
330
1F
100
AcDbEntity
  8
0
  6
SLD-Gestrichelt
 62
     7
370
     0
100
AcDbLine
 10
203.3110734779
 20
125.9158115611
 30
0.0
 11
203.3110734779
 21
126.6013919012
 31
0.0
  0
LWPOLYLINE
  5
21E
330
1F
100
AcDbEntity
  8
0
  6
SLD-Gestrichelt
 62
     7
370
     0
100
AcDbPolyline
 90
        3
 70
   128
 43
0.0
 10
203.3110734779
 20
126.6013919012
 10
204.7850022175
 20
129.2490195147
 10
204.7930063094
 20
129.2633531832
  0
LINE
  5
21F
330
1F
100
AcDbEntity
  8
0
  6
SLD-Gestrichelt
 62
     7
370
     0
100
AcDbLine
 10
204.7930063094
 20
129.2633531832
 30
0.0
 11
208.7510734779
 21
129.2633531832
 31
0.0
  0
LINE
  5
220
330
1F
100
AcDbEntity
  8
0
  6
SLD-Gestrichelt
 62
     7
370
     0
100
AcDbLine
 10
209.3510734779
 20
128.6425980338
 30
0.0
 11
209.3510734779
 21
125.1961577101
 31
0.0
  0
LINE
  5
221
330
1F
100
AcDbEntity
  8
0
  6
SLD-Gestrichelt
 62
     7
370
     0
100
AcDbLine
 10
202.9167759462
 20
125.1961577101
 30
0.0
 11
209.3510734779
 21
125.1961577101
 31
0.0
  0
LWPOLYLINE
  5
222
330
1F
100
AcDbEntity
  8
0
  6
SLD-Gestrichelt
 62
     7
370
     0
100
AcDbPolyline
 90
        3
 70
   128
 43
0.0
 10
198.0091406464
 20
129.2633531832
 10
198.0171447383
 20
129.2490195147
 10
199.4910734779
 20
126.6013919012
  0
LINE
  5
223
330
1F
100
AcDbEntity
  8
0
  6
SLD-Gestrichelt
 62
     7
370
     0
100
AcDbLine
 10
199.4910734779
 20
126.6013919012
 30
0.0
 11
199.4910734779
 21
125.9158115611
 31
0.0
  0
LINE
  5
224
330
1F
100
AcDbEntity
  8
0
  6
SLD-Gestrichelt
 62
     7
370
     0
100
AcDbLine
 10
196.3510734779
 20
125.1961577101
 30
0.0
 11
199.8853710096
 21
125.1961577101
 31
0.0
  0
LINE
  5
225
330
1F
100
AcDbEntity
  8
0
  6
SLD-Gestrichelt
 62
     7
370
     0
100
AcDbLine
 10
199.4910734779
 20
126.6013919012
 30
0.0
 11
199.4910734779
 21
71.298320551
 31
0.0
  0
LINE
  5
226
330
1F
100
AcDbEntity
  8
0
  6
SLD-Gestrichelt
 62
     7
370
     0
100
AcDbLine
 10
204.7930063094
 20
129.2633531832
 30
0.0
 11
204.7930063094
 21
68.6092400138
 31
0.0
  0
LINE
  5
227
330
1F
100
AcDbEntity
  8
0
  6
SLD-Gestrichelt
 62
     7
370
     0
100
AcDbLine
 10
203.3110734779
 20
126.6013919012
 30
0.0
 11
203.3110734779
 21
71.298320551
 31
0.0
  0
LWPOLYLINE
  5
228
330
1F
100
AcDbEntity
  8
0
  6
SLD-Gestrichelt
 62
     7
370
     0
100
AcDbPolyline
 90
       12
 70
   128
 43
0.0
 10
152.325227124
 20
119.1862770437
 10
152.2593684687
 20
119.0014731211
 10
152.144932943
 20
118.7379774312
 10
152.0155980455
 20
118.5048009508
 10
151.9410526992
 20
118.3982136847
 10
151.9023072023
 20
118.3512147117
 10
151.8582542357
 20
118.3054744852
 10
151.8193018358
 20
118.2726965767
 10
151.7826840654
 20
118.2495154926
 10
151.7364030531
 20
118.2331626055
 10
151.6559627743
 20
118.255225097
 10
151.5637368526
 20
118.4707102549
  0
LWPOLYLINE
  5
229
330
1F
100
AcDbEntity
  8
0
  6
SLD-Gestrichelt
 62
     7
370
     0
100
AcDbPolyline
 90
       12
 70
   128
 43
0.0
 10
151.5313510935
 20
79.2060701498
 10
151.6160943439
 20
79.5316202587
 10
151.6671387085
 20
79.57767048
 10
151.734188057
 20
79.5833263454
 10
151.7686776212
 20
79.5710600971
 10
151.8134571508
 20
79.5440395082
 10
151.8508162708
 20
79.51360428
 10
151.8892731846
 20
79.475893774
 10
151.9392305072
 20
79.4184047916
 10
152.013545209
 20
79.3170553728
 10
152.1738723012
 20
79.0389764858
 10
152.4399830481
 20
78.3522354071
  0
LINE
  5
22A
330
1F
100
AcDbEntity
  8
0
  6
SLD-Gestrichelt
 62
     7
370
     0
100
AcDbLine
 10
151.5010734779
 20
118.4868354566
 30
0.0
 11
151.5010734779
 21
79.1429971851
 31
0.0
  0
LINE
  5
22B
330
1F
100
AcDbEntity
  8
0
  6
SLD-Gestrichelt
 62
     7
370
     0
100
AcDbLine
 10
203.3110734779
 20
71.9917620817
 30
0.0
 11
203.3110734779
 21
71.298320551
 31
0.0
  0
LINE
  5
22C
330
1F
100
AcDbEntity
  8
0
  6
SLD-Gestrichelt
 62
     7
370
     0
100
AcDbLine
 10
203.3110734779
 20
71.298320551
 30
0.0
 11
204.7930063094
 21
68.6092400138
 31
0.0
  0
LINE
  5
22D
330
1F
100
AcDbEntity
  8
0
  6
SLD-Gestrichelt
 62
     7
370
     0
100
AcDbLine
 10
204.7930063094
 20
68.6092400138
 30
0.0
 11
208.7510734779
 21
68.6092400138
 31
0.0
  0
LINE
  5
22E
330
1F
100
AcDbEntity
  8
0
  6
SLD-Gestrichelt
 62
     7
370
     0
100
AcDbLine
 10
209.3510734779
 20
69.2358803095
 30
0.0
 11
209.3510734779
 21
72.3961577101
 31
0.0
  0
LINE
  5
22F
330
1F
100
AcDbEntity
  8
0
  6
SLD-Gestrichelt
 62
     7
370
     0
100
AcDbLine
 10
203.2133986756
 20
72.3961577101
 30
0.0
 11
209.3510734779
 21
72.3961577101
 31
0.0
  0
LINE
  5
230
330
1F
100
AcDbEntity
  8
0
  6
SLD-Gestrichelt
 62
     7
370
     0
100
AcDbLine
 10
199.4910734779
 20
71.298320551
 30
0.0
 11
199.4910734779
 21
71.9917620817
 31
0.0
  0
LINE
  5
231
330
1F
100
AcDbEntity
  8
0
  6
SLD-Gestrichelt
 62
     7
370
     0
100
AcDbLine
 10
198.0091406464
 20
68.6092400138
 30
0.0
 11
199.4910734779
 21
71.298320551
 31
0.0
  0
LINE
  5
232
330
1F
100
AcDbEntity
  8
0
  6
SLD-Gestrichelt
 62
     7
370
     0
100
AcDbLine
 10
196.3510734779
 20
72.3961577101
 30
0.0
 11
199.5887482802
 21
72.3961577101
 31
0.0
  0
CIRCLE
  5
233
330
1F
100
AcDbEntity
  8
0
  6
SLD-Gestrichelt
 62
     7
370
     0
100
AcDbCircle
 10
190.4010734779
 20
98.7961577101
 30
0.0
 40
5.0
  0
LINE
  5
234
330
1F
100
AcDbEntity
  8
0
  6
SLD-Gestrichelt
 62
     7
370
     0
100
AcDbLine
 10
249.6519103762
 20
125.7661557052
 30
0.0
 11
250.1643227459
 21
125.9419939964
 31
0.0
  0
LINE
  5
235
330
1F
100
AcDbEntity
  8
0
  6
SLD-Gestrichelt
 62
     7
370
     0
100
AcDbLine
 10
250.167502855
 20
125.9430772644
 30
0.0
 11
248.5008869889
 21
99.853400787
 31
0.0
  0
LINE
  5
236
330
1F
100
AcDbEntity
  8
0
  6
SLD-Gestrichelt
 62
     7
370
     0
100
AcDbLine
 10
183.4010734779
 20
73.4722337889
 30
0.0
 11
183.4952343191
 21
74.1422229878
 31
0.0
  0
LINE
  5
237
330
1F
100
AcDbEntity
  8
0
  6
SLD-Gestrichelt
 62
     7
370
     0
100
AcDbLine
 10
183.4952343191
 20
123.4500924324
 30
0.0
 11
183.4010734779
 21
124.1200816312
 31
0.0
  0
ARC
  5
238
330
1F
100
AcDbEntity
  8
0
  6
SLD-Gestrichelt
 62
     7
370
     0
100
AcDbCircle
 10
182.9010734779
 20
74.2257268484
 30
0.0
 40
0.6000000000000227
100
AcDbArc
 50
352.0
 51
0.0
  0
ARC
  5
239
330
1F
100
AcDbEntity
  8
0
  6
SLD-Gestrichelt
 62
     7
370
     0
100
AcDbCircle
 10
182.9010734779
 20
74.2257268484
 30
0.0
 40
0.6000000000000227
100
AcDbArc
 50
0.0
 51
33.5573097619
  0
ARC
  5
23A
330
1F
100
AcDbEntity
  8
0
  6
SLD-Gestrichelt
 62
     7
370
     0
100
AcDbCircle
 10
182.9010734779
 20
123.3665885718
 30
0.0
 40
0.6000000000000286
100
AcDbArc
 50
348.75
 51
8.0
  0
LWPOLYLINE
  5
23B
330
1F
100
AcDbEntity
  8
0
  6
SLD-Gestrichelt
 62
     7
370
     0
100
AcDbPolyline
 90
        3
 70
   128
 43
0.0
 10
183.4895446461
 20
123.2495343786
 10
183.4554011974
 20
123.1369785124
 10
183.4010734779
 20
123.0349260928
  0
LINE
  5
23C
330
1F
100
AcDbEntity
  8
0
  6
SLD-Gestrichelt
 62
     7
370
     0
100
AcDbLine
 10
183.5010734779
 20
74.2257268484
 30
0.0
 11
183.5010734779
 21
123.3665885718
 31
0.0
  0
LINE
  5
23D
330
1F
100
AcDbEntity
  8
0
  6
SLD-Gestrichelt
 62
     7
370
     0
100
AcDbLine
 10
183.5010734779
 20
74.2257268484
 30
0.0
 11
183.5010734779
 21
123.3665885718
 31
0.0
  0
ARC
  5
23E
330
1F
100
AcDbEntity
  8
0
  6
SLD-Gestrichelt
 62
     7
370
     0
100
AcDbCircle
 10
177.1560754795
 20
86.7961577101
 30
0.0
 40
7.999999999999997
100
AcDbArc
 50
276.8732536608
 51
321.3178125465
  0
ARC
  5
23F
330
1F
100
AcDbEntity
  8
0
  6
SLD-Gestrichelt
 62
     7
370
     0
100
AcDbCircle
 10
177.1560754795
 20
110.7961577101
 30
0.0
 40
7.999999999999993
100
AcDbArc
 50
38.6821874535
 51
83.1165289542
  0
LINE
  5
240
330
1F
100
AcDbEntity
  8
0
  6
SLD-Gestrichelt
 62
     7
370
     0
100
AcDbLine
 10
166.4835090432
 20
78.7961577101
 30
0.0
 11
170.6751809314
 21
78.7961577101
 31
0.0
  0
LINE
  5
241
330
1F
100
AcDbEntity
  8
0
  6
SLD-Gestrichelt
 62
     7
370
     0
100
AcDbLine
 10
170.6751809314
 20
118.7961577101
 30
0.0
 11
166.4835090432
 21
118.7961577101
 31
0.0
  0
ARC
  5
242
330
1F
100
AcDbEntity
  8
0
  6
SLD-Gestrichelt
 62
     7
370
     0
100
AcDbCircle
 10
166.4835090432
 20
79.3961577101
 30
0.0
 40
0.6000000000000085
100
AcDbArc
 50
210.0
 51
270.0
  0
ARC
  5
243
330
1F
100
AcDbEntity
  8
0
  6
SLD-Gestrichelt
 62
     7
370
     0
100
AcDbCircle
 10
166.4835090432
 20
118.1961577101
 30
0.0
 40
0.6000000000000084
100
AcDbArc
 50
90.0
 51
150.0
  0
LINE
  5
244
330
1F
100
AcDbEntity
  8
0
  6
SLD-Gestrichelt
 62
     7
370
     0
100
AcDbLine
 10
165.9638938009
 20
118.4961577101
 30
0.0
 11
164.4050480741
 21
115.7961577101
 31
0.0
  0
LINE
  5
245
330
1F
100
AcDbEntity
  8
0
  6
SLD-Gestrichelt
 62
     7
370
     0
100
AcDbLine
 10
164.4050480741
 20
81.7961577101
 30
0.0
 11
165.9638938009
 21
79.0961577101
 31
0.0
  0
ARC
  5
246
330
1F
100
AcDbEntity
  8
0
  6
SLD-Gestrichelt
 62
     7
370
     0
100
AcDbCircle
 10
191.8510734779
 20
83.0711577101
 30
0.0
 40
1.500000000000001
100
AcDbArc
 50
238.2116693829
 51
0.0
  0
ARC
  5
247
330
1F
100
AcDbEntity
  8
0
  6
SLD-Gestrichelt
 62
     7
370
     0
100
AcDbCircle
 10
191.8510734779
 20
114.5211577101
 30
0.0
 40
1.5
100
AcDbArc
 50
0.0
 51
121.7883306171
  0
LINE
  5
248
330
1F
100
AcDbEntity
  8
0
  6
SLD-Gestrichelt
 62
     7
370
     0
100
AcDbLine
 10
161.6010734779
 20
81.7961577101
 30
0.0
 11
164.4050480741
 21
81.7961577101
 31
0.0
  0
LINE
  5
249
330
1F
100
AcDbEntity
  8
0
  6
SLD-Gestrichelt
 62
     7
370
     0
100
AcDbLine
 10
164.4050480741
 20
115.7961577101
 30
0.0
 11
157.6010734779
 21
115.7961577101
 31
0.0
  0
LINE
  5
24A
330
1F
100
AcDbEntity
  8
0
  6
SLD-Gestrichelt
 62
     7
370
     0
100
AcDbLine
 10
183.4010734779
 20
81.7961577101
 30
0.0
 11
191.0608994464
 21
81.7961577101
 31
0.0
  0
LINE
  5
24B
330
1F
100
AcDbEntity
  8
0
  6
SLD-Gestrichelt
 62
     7
370
     0
100
AcDbLine
 10
191.0608994464
 20
115.7961577101
 30
0.0
 11
183.4010734779
 21
115.7961577101
 31
0.0
  0
LINE
  5
24C
330
1F
100
AcDbEntity
  8
0
  6
SLD-Gestrichelt
 62
     7
370
     0
100
AcDbLine
 10
202.7010734779
 20
89.2961577101
 30
0.0
 11
205.2010734779
 21
89.2961577101
 31
0.0
  0
LINE
  5
24D
330
1F
100
AcDbEntity
  8
0
  6
SLD-Gestrichelt
 62
     7
370
     0
100
AcDbLine
 10
205.2010734779
 20
108.2961577101
 30
0.0
 11
202.7010734779
 21
108.2961577101
 31
0.0
  0
LINE
  5
24E
330
1F
100
AcDbEntity
  8
0
  6
SLD-Gestrichelt
 62
     7
370
     0
100
AcDbLine
 10
193.3510734779
 20
89.7961577101
 30
0.0
 11
193.8510734779
 21
90.2961577101
 31
0.0
  0
LINE
  5
24F
330
1F
100
AcDbEntity
  8
0
  6
SLD-Gestrichelt
 62
     7
370
     0
100
AcDbLine
 10
193.8510734779
 20
107.2961577101
 30
0.0
 11
193.3510734779
 21
107.7961577101
 31
0.0
  0
LINE
  5
250
330
1F
100
AcDbEntity
  8
0
  6
SLD-Gestrichelt
 62
     7
370
     0
100
AcDbLine
 10
193.8510734779
 20
90.2961577101
 30
0.0
 11
202.7010734779
 21
90.2961577101
 31
0.0
  0
LINE
  5
251
330
1F
100
AcDbEntity
  8
0
  6
SLD-Gestrichelt
 62
     7
370
     0
100
AcDbLine
 10
202.7010734779
 20
107.2961577101
 30
0.0
 11
193.8510734779
 21
107.2961577101
 31
0.0
  0
LINE
  5
252
330
1F
100
AcDbEntity
  8
0
  6
SLD-Gestrichelt
 62
     7
370
     0
100
AcDbLine
 10
229.9120875879
 20
103.3378648247
 30
0.0
 11
229.6679399298
 21
102.7315766967
 31
0.0
  0
LINE
  5
253
330
1F
100
AcDbEntity
  8
0
  6
SLD-Gestrichelt
 62
     7
370
     0
100
AcDbLine
 10
188.3510734779
 20
130.2961577101
 30
0.0
 11
188.3510734779
 21
125.1961577101
 31
0.0
  0
LINE
  5
254
330
1F
100
AcDbEntity
  8
0
  6
SLD-Gestrichelt
 62
     7
370
     0
100
AcDbLine
 10
234.8747378709
 20
103.777841674
 30
0.0
 11
235.118885529
 21
104.384129802
 31
0.0
  0
ARC
  5
255
330
1F
100
AcDbEntity
  8
0
  6
SLD-Gestrichelt
 62
     7
370
     0
100
AcDbCircle
 10
237.8853268831
 20
130.2567074268
 30
0.0
 40
4.100371205100995
100
AcDbArc
 50
275.3143068119
 51
323.4383640965
  0
LINE
  5
256
330
1F
100
AcDbEntity
  8
0
  6
SLD-Gestrichelt
 62
     7
370
     0
100
AcDbLine
 10
240.9038593274
 20
111.8870321019
 30
0.0
 11
241.1619582802
 21
112.5279652658
 31
0.0
  0
LINE
  5
257
330
1F
100
AcDbEntity
  8
0
  6
SLD-Gestrichelt
 62
     7
370
     0
100
AcDbLine
 10
235.4107578884
 20
114.843930303
 30
0.0
 11
235.1526589356
 21
114.2029971391
 31
0.0
  0
LINE
  5
258
330
1F
100
AcDbEntity
  8
0
  6
SLD-Gestrichelt
 62
     7
370
     0
100
AcDbLine
 10
245.8819559099
 20
113.1520462531
 30
0.0
 11
246.4148953693
 21
114.4754866239
 31
0.0
  0
LINE
  5
259
330
1F
100
AcDbEntity
  8
0
  6
SLD-Gestrichelt
 62
     7
370
     0
100
AcDbLine
 10
178.5855113084
 20
74.7167863765
 30
0.0
 11
178.1510791589
 21
75.1958523956
 31
0.0
  0
LINE
  5
25A
330
1F
100
AcDbEntity
  8
0
  6
SLD-Gestrichelt
 62
     7
370
     0
100
AcDbLine
 10
170.6510758338
 20
75.6175403548
 30
0.0
 11
170.1686420905
 21
75.1384743793
 31
0.0
  0
LINE
  5
25B
330
1F
100
AcDbEntity
  8
0
  6
SLD-Gestrichelt
 62
     7
370
     0
100
AcDbLine
 10
170.1685201622
 20
122.4538357504
 30
0.0
 11
170.6510709132
 21
121.9747154925
 31
0.0
  0
LINE
  5
25C
330
1F
100
AcDbEntity
  8
0
  6
SLD-Gestrichelt
 62
     7
370
     0
100
AcDbLine
 10
178.1510733599
 20
122.3964132702
 30
0.0
 11
178.5856157502
 21
122.8755335207
 31
0.0
  0
LINE
  5
25D
330
1F
100
AcDbEntity
  8
0
  6
SLD-Gestrichelt
 62
     7
370
     0
100
AcDbLine
 10
213.5010734779
 20
94.5961577101
 30
0.0
 11
216.0246880778
 21
98.7961577101
 31
0.0
  0
LINE
  5
25E
330
1F
100
AcDbEntity
  8
0
  6
SLD-Gestrichelt
 62
     7
370
     0
100
AcDbLine
 10
214.2109709059
 20
101.8146899861
 30
0.0
 11
213.5010734779
 21
102.9961577101
 31
0.0
  0
LINE
  5
25F
330
1F
100
AcDbEntity
  8
0
  6
SLD-Gestrichelt
 62
     7
370
     0
100
AcDbLine
 10
216.0246880778
 20
98.7961577101
 30
0.0
 11
215.9318592735
 21
98.9506507845
 31
0.0
  0
LINE
  5
260
330
1F
100
AcDbEntity
  8
0
  6
SLD-Gestrichelt
 62
     7
370
     0
100
AcDbLine
 10
205.2010734779
 20
94.5961577101
 30
0.0
 11
213.5010734779
 21
94.5961577101
 31
0.0
  0
LINE
  5
261
330
1F
100
AcDbEntity
  8
0
  6
SLD-Gestrichelt
 62
     7
370
     0
100
AcDbLine
 10
213.5010734779
 20
102.9961577101
 30
0.0
 11
205.2010734779
 21
102.9961577101
 31
0.0
  0
LINE
  5
262
330
1F
100
AcDbEntity
  8
0
  6
SLD-Gestrichelt
 62
     7
370
     0
100
AcDbLine
 10
178.1510734779
 20
75.1963362973
 30
0.0
 11
178.1510734779
 21
78.8607573718
 31
0.0
  0
LINE
  5
263
330
1F
100
AcDbEntity
  8
0
  6
SLD-Gestrichelt
 62
     7
370
     0
100
AcDbLine
 10
170.6510734779
 20
78.8005354781
 30
0.0
 11
170.6510734779
 21
75.6178635926
 31
0.0
  0
LINE
  5
264
330
1F
100
AcDbEntity
  8
0
  6
SLD-Gestrichelt
 62
     7
370
     0
100
AcDbLine
 10
178.1510734779
 20
118.7315580483
 30
0.0
 11
178.1510734779
 21
122.3961219641
 31
0.0
  0
LINE
  5
265
330
1F
100
AcDbEntity
  8
0
  6
SLD-Gestrichelt
 62
     7
370
     0
100
AcDbLine
 10
170.6510734779
 20
121.9745717133
 30
0.0
 11
170.6510734779
 21
118.791779942
 31
0.0
  0
LINE
  5
266
330
1F
100
AcDbEntity
  8
0
  6
SLD-Gestrichelt
 62
     7
370
     0
100
AcDbLine
 10
242.6849837915
 20
129.700220195
 30
0.0
 11
241.2032751385
 21
127.8459628933
 31
0.0
  0
LINE
  5
267
330
1F
100
AcDbEntity
  8
0
  6
SLD-Gestrichelt
 62
     7
370
     0
100
AcDbLine
 10
239.6275708334
 20
110.3238863599
 30
0.0
 11
240.3221431967
 21
112.0487072376
 31
0.0
  0
LINE
  5
268
330
1F
100
AcDbEntity
  8
0
  6
SLD-Gestrichelt
 62
     7
370
     0
100
AcDbLine
 10
239.3707009151
 20
109.6860052386
 30
0.0
 11
239.4476465496
 21
109.8770831505
 31
0.0
  0
LINE
  5
269
330
1F
100
AcDbEntity
  8
0
  6
SLD-Gestrichelt
 62
     7
370
     0
100
AcDbLine
 10
234.9374471196
 20
112.0623230785
 30
0.0
 11
234.732636083
 21
111.5537189783
 31
0.0
  0
LINE
  5
26A
330
1F
100
AcDbEntity
  8
0
  6
SLD-Gestrichelt
 62
     7
370
     0
100
AcDbLine
 10
235.6840783646
 20
113.9164209772
 30
0.0
 11
234.9374471196
 21
112.0623230785
 31
0.0
  0
LINE
  5
26B
330
1F
100
AcDbEntity
  8
0
  6
SLD-Gestrichelt
 62
     7
370
     0
100
AcDbLine
 10
215.2680121729
 20
98.1209694555
 30
0.0
 11
237.4216717047
 21
108.598269206
 31
0.0
  0
LINE
  5
26C
330
1F
100
AcDbEntity
  8
0
  6
SLD-Gestrichelt
 62
     7
370
     0
100
AcDbLine
 10
234.9326752928
 20
112.0671531068
 30
0.0
 11
213.893019413
 21
102.1167076293
 31
0.0
  0
ARC
  5
26D
330
1F
100
AcDbEntity
  8
0
  6
SLD-Gestrichelt
 62
     7
370
     0
100
AcDbCircle
 10
156.2010734779
 20
121.0661577101
 30
0.0
 40
1.399999999999991
100
AcDbArc
 50
270.0
 51
301.7485287426
  0
ARC
  5
26E
330
1F
100
AcDbEntity
  8
0
  6
SLD-Gestrichelt
 62
     7
370
     0
100
AcDbCircle
 10
160.2010734779
 20
76.5836577101
 30
0.0
 40
1.400000000000005
100
AcDbArc
 50
37.6443616934
 51
90.0
  0
LINE
  5
26F
330
1F
100
AcDbEntity
  8
0
  6
SLD-Gestrichelt
 62
     7
370
     0
100
AcDbLine
 10
245.79703296
 20
129.1924054639
 30
0.0
 11
245.0471508673
 21
127.3302347849
 31
0.0
  0
LINE
  5
270
330
1F
100
AcDbEntity
  8
0
  6
SLD-Gestrichelt
 62
     7
370
     0
100
AcDbLine
 10
248.1082736564
 20
126.0975437168
 30
0.0
 11
248.8581557492
 21
127.9597143957
 31
0.0
  0
LINE
  5
271
330
1F
100
AcDbEntity
  8
0
  6
SLD-Gestrichelt
 62
     7
370
     0
100
AcDbLine
 10
156.2010734779
 20
119.6661577101
 30
0.0
 11
152.7753392118
 21
119.6661577101
 31
0.0
  0
LINE
  5
272
330
1F
100
AcDbEntity
  8
0
  6
SLD-Gestrichelt
 62
     7
370
     0
100
AcDbLine
 10
152.6422369361
 20
119.6573211683
 30
0.0
 11
151.5109742513
 21
118.5260584835
 31
0.0
  0
LINE
  5
273
330
1F
100
AcDbEntity
  8
0
  6
SLD-Gestrichelt
 62
     7
370
     0
100
AcDbLine
 10
151.4984925982
 20
79.1362385898
 30
0.0
 11
152.6510734779
 21
77.9836577101
 31
0.0
  0
LINE
  5
274
330
1F
100
AcDbEntity
  8
0
  6
SLD-Gestrichelt
 62
     7
370
     0
100
AcDbLine
 10
152.6510734779
 20
77.9836577101
 30
0.0
 11
160.2010734779
 21
77.9836577101
 31
0.0
  0
LINE
  5
275
330
1F
100
AcDbEntity
  8
0
  6
SLD-Gestrichelt
 62
     7
370
     0
100
AcDbLine
 10
239.1192203006
 20
109.4011038553
 30
0.0
 11
243.1362702008
 21
111.3009180082
 31
0.0
  0
LINE
  5
276
330
1F
100
AcDbEntity
  8
0
  6
SLD-Gestrichelt
 62
     7
370
     0
100
AcDbLine
 10
241.340622963
 20
115.0977128403
 30
0.0
 11
237.8792044939
 21
113.4606777125
 31
0.0
  0
LINE
  5
277
330
1F
100
AcDbEntity
  8
0
  6
SLD-Gestrichelt
 62
     7
370
     0
100
AcDbLine
 10
241.1969377367
 20
115.1045604146
 30
0.0
 11
241.1887380037
 21
114.7170322538
 31
0.0
  0
LINE
  5
278
330
1F
100
AcDbEntity
  8
0
  6
SLD-Gestrichelt
 62
     7
370
     0
100
AcDbLine
 10
242.7456508313
 20
111.4250278705
 30
0.0
 11
243.0504053886
 21
111.1855075773
 31
0.0
  0
LINE
  5
279
330
1F
100
AcDbEntity
  8
0
  6
SLD-Gestrichelt
 62
     7
370
     0
100
AcDbLine
 10
243.5154284476
 20
111.0377577413
 30
0.0
 11
250.278482747
 21
114.2362607706
 31
0.0
  0
LINE
  5
27A
330
1F
100
AcDbEntity
  8
0
  6
SLD-Gestrichelt
 62
     7
370
     0
100
AcDbLine
 10
250.5927896297
 20
119.9158893098
 30
0.0
 11
241.3777531644
 21
115.557751589
 31
0.0
  0
LINE
  5
27B
330
1F
100
AcDbEntity
  8
VERMASSUNG
100
AcDbLine
 10
253.4010734779
 20
143.7961577101
 30
0.0
 11
253.4010734779
 21
106.077619123
 31
0.0
  0
DIMENSION
  5
27C
330
1F
100
AcDbEntity
  8
VERMASSUNG
100
AcDbDimension
  2
*D1
 10
146.1631634082
 20
67.2961577101
 30
0.0
 11
146.1631634082
 21
98.7961577101
 31
0.0
 70
   160
  1
HSK %%c<>
 71
     2
 42
-1.0
  3
SLDDIMSTYLE0
100
AcDbAlignedDimension
 13
183.7010734779
 23
130.2961577101
 33
0.0
 14
183.7010734779
 24
67.2961577101
 34
0.0
 50
90.0
100
AcDbRotatedDimension
  0
DIMENSION
  5
289
330
1F
100
AcDbEntity
  8
VERMASSUNG
100
AcDbDimension
  2
*D2
 10
151.5010734779
 20
154.3760251978
 30
0.0
 11
202.4510734779
 21
154.3760251978
 31
0.0
 70
   160
 71
     2
 42
-1.0
  3
SLDDIMSTYLE0
100
AcDbAlignedDimension
 13
253.4010734779
 23
143.7961577101
 33
0.0
 14
151.5010734779
 24
118.4868354566
 34
0.0
100
AcDbRotatedDimension
  0
DIMENSION
  5
293
330
1F
100
AcDbEntity
  8
VERMASSUNG
100
AcDbDimension
  2
*D3
 10
253.4010734779
 20
148.3760251978
 30
0.0
 11
218.4010734779
 21
148.3760251978
 31
0.0
 70
   160
 71
     2
 42
-1.0
  3
SLDDIMSTYLE0
100
AcDbAlignedDimension
 13
183.4010734779
 23
129.9961577101
 33
0.0
 14
253.4010734779
 24
143.7961577101
 34
0.0
100
AcDbRotatedDimension
  0
DIMENSION
  5
29D
330
1F
100
AcDbEntity
  8
VERMASSUNG
100
AcDbDimension
  2
*D4
 10
264.2521705959
 20
98.7961577101
 30
0.0
 11
264.2521705959
 21
121.2961577101
 31
0.0
 70
   160
 71
     2
 42
-1.0
  3
SLDDIMSTYLE0
100
AcDbAlignedDimension
 13
253.4010734779
 23
143.7961577101
 33
0.0
 14
291.4453557309
 24
98.7961577101
 34
0.0
 50
90.0
100
AcDbRotatedDimension
  0
DIMENSION
  5
2A6
330
1F
100
AcDbEntity
  8
VERMASSUNG
100
AcDbDimension
  2
*D5
 10
252.0434630617
 20
127.5805367863
 30
0.0
 11
259.5539135212
 21
110.4911333447
 31
0.0
 70
   162
 71
     1
 42
-1.0
  3
SLDDIMSTYLE1
100
AcDb2LineAngularDimension
 13
253.4010734779
 23
143.7961577101
 33
0.0
 14
253.4010734779
 24
68.0014623081
 34
0.0
 15
250.8850830119
 25
105.7740381375
 35
0.0
 16
252.2578469547
 26
110.0647357131
 36
0.0
  0
LINE
  5
2B1
330
1F
100
AcDbEntity
  8
VERMASSUNG
  6
SLD-Punktstrich
370
     0
100
AcDbLine
 10
149.435515335
 20
98.7961577101
 30
0.0
 11
265.9606277139
 21
98.7961577101
 31
0.0
  0
ARC
  5
2B2
330
1F
100
AcDbEntity
  8
0
  6
SLD-Durchgehend
 62
     7
370
    15
100
AcDbCircle
 10
94.157389584
 20
114.4395640088
 30
0.0
 40
2.000000000000006
100
AcDbArc
 50
355.583050878
 51
111.0053900159
  0
LINE
  5
2B3
330
1F
100
AcDbEntity
  8
0
  6
SLD-Durchgehend
 62
     7
370
    15
100
AcDbLine
 10
62.0988232858
 20
107.7957307769
 30
0.0
 11
62.3312963016
 21
107.678599268
 31
0.0
  0
LINE
  5
2B4
330
1F
100
AcDbEntity
  8
0
  6
SLD-Durchgehend
 62
     7
370
    15
100
AcDbLine
 10
62.3334010906
 20
107.6778923942
 30
0.0
 11
67.7966827369
 21
106.7145686446
 31
0.0
  0
ARC
  5
2B5
330
1F
100
AcDbEntity
  8
0
  6
SLD-Durchgehend
 62
     7
370
    15
100
AcDbCircle
 10
61.9211499573
 20
113.650372032
 30
0.0
 40
3.335084110414274
100
AcDbArc
 50
169.1140222931
 51
238.3808169157
  0
LINE
  5
2B6
330
1F
100
AcDbEntity
  8
0
  6
SLD-Durchgehend
 62
     7
370
    15
100
AcDbLine
 10
60.1788421936
 20
110.7949061168
 30
0.0
 11
62.1436590172
 21
110.4484559817
 31
0.0
  0
LINE
  5
2B7
330
1F
100
AcDbEntity
  8
0
  6
SLD-Durchgehend
 62
     7
370
    15
100
AcDbLine
 10
64.1406120575
 20
121.7737445457
 30
0.0
 11
62.1757952339
 21
122.1201946808
 31
0.0
  0
LWPOLYLINE
  5
2B8
330
1F
100
AcDbEntity
  8
0
  6
SLD-Durchgehend
 62
     7
370
    15
100
AcDbPolyline
 90
       21
 70
   128
 43
0.0
 10
75.3893668606
 20
110.0276825799
 10
75.3911154187
 20
110.0246539189
 10
75.5318494356
 20
109.9003027974
 10
75.7263887516
 20
109.8307190312
 10
75.9353994235
 20
109.8434734939
 10
76.082253161
 20
109.908443488
 10
76.1832751177
 20
109.9910490064
 10
76.2559043086
 20
110.0810538827
 10
76.3226074941
 20
110.1988764329
 10
76.4079212985
 20
110.4090386851
 10
76.5140888124
 20
110.7472270576
 10
76.6372720554
 20
111.2133866025
 10
76.7639337882
 20
111.7537278531
 10
76.8933471135
 20
112.3592784477
 10
77.0218761481
 20
113.0112750305
 10
77.1451930358
 20
113.6870976387
 10
77.2589280113
 20
114.362562619
 10
77.3589567124
 20
115.0132125093
 10
77.4416404619
 20
115.6157484127
 10
77.5039776071
 20
116.1494595779
 10
77.521096713
 20
116.3432324154
  0
ARC
  5
2B9
330
1F
100
AcDbEntity
  8
0
  6
SLD-Durchgehend
 62
     7
370
    15
100
AcDbCircle
 10
77.0395997261
 20
117.2230050962
 30
0.0
 40
0.4903505649606233
100
AcDbArc
 50
8.0816860447
 51
91.6436580427
  0
LINE
  5
2BA
330
1F
100
AcDbEntity
  8
0
  6
SLD-Durchgehend
 62
     7
370
    15
100
AcDbLine
 10
65.3034800506
 20
122.8205846472
 30
0.0
 11
64.1526521958
 21
122.0105649753
 31
0.0
  0
LINE
  5
2BB
330
1F
100
AcDbEntity
  8
0
  6
SLD-Durchgehend
 62
     7
370
    15
100
AcDbLine
 10
62.0739755995
 20
110.2218000067
 30
0.0
 11
62.4686645187
 21
109.6551814897
 31
0.0
  0
LINE
  5
2BC
330
1F
100
AcDbEntity
  8
0
  6
SLD-Durchgehend
 62
     7
370
    15
100
AcDbLine
 10
69.8507258511
 20
122.036181934
 30
0.0
 11
65.3400828905
 21
122.8315295501
 31
0.0
  0
LINE
  5
2BD
330
1F
100
AcDbEntity
  8
0
  6
SLD-Durchgehend
 62
     7
370
    15
100
AcDbLine
 10
67.4400560401
 20
108.2510702161
 30
0.0
 11
67.8930867306
 21
108.4166835843
 31
0.0
  0
LINE
  5
2BE
330
1F
100
AcDbEntity
  8
0
  6
SLD-Durchgehend
 62
     7
370
    15
100
AcDbLine
 10
70.2941844083
 20
121.6694680823
 30
0.0
 11
69.869148343
 21
122.0271369292
 31
0.0
  0
LINE
  5
2BF
330
1F
100
AcDbEntity
  8
0
  6
SLD-Durchgehend
 62
     7
370
    15
100
AcDbLine
 10
67.8891090519
 20
108.4152288584
 30
0.0
 11
67.7537003375
 21
105.9236876516
 31
0.0
  0
LINE
  5
2C0
330
1F
100
AcDbEntity
  8
0
  6
SLD-Durchgehend
 62
     7
370
    15
100
AcDbLine
 10
70.1899135328
 20
99.7603251797
 30
0.0
 11
74.0195808775
 21
99.0850514989
 31
0.0
  0
LINE
  5
2C1
330
1F
100
AcDbEntity
  8
0
  6
SLD-Durchgehend
 62
     7
370
    15
100
AcDbLine
 10
87.6208863064
 20
142.9715776665
 30
0.0
 11
82.9446201969
 21
143.7961296959
 31
0.0
  0
LINE
  5
2C2
330
1F
100
AcDbEntity
  8
0
  6
SLD-Durchgehend
 62
     7
370
    15
100
AcDbLine
 10
81.6998649697
 20
136.7266127689
 30
0.0
 11
81.4124412445
 21
136.3811069949
 31
0.0
  0
LINE
  5
2C3
330
1F
100
AcDbEntity
  8
0
  6
SLD-Durchgehend
 62
     7
370
    15
100
AcDbLine
 10
78.903849966
 20
123.7846022321
 30
0.0
 11
79.0405932657
 21
123.4038831515
 31
0.0
  0
LINE
  5
2C4
330
1F
100
AcDbEntity
  8
0
  6
SLD-Durchgehend
 62
     7
370
    15
100
AcDbLine
 10
77.388312
 20
116.366645865
 30
0.0
 11
77.9430002748
 21
116.2688383682
 31
0.0
  0
LINE
  5
2C5
330
1F
100
AcDbEntity
  8
0
  6
SLD-Durchgehend
 62
     7
370
    15
100
AcDbLine
 10
90.4054979637
 20
142.2658214195
 30
0.0
 11
87.608396805
 21
142.759023778
 31
0.0
  0
LINE
  5
2C6
330
1F
100
AcDbEntity
  8
0
  6
SLD-Durchgehend
 62
     7
370
    15
100
AcDbLine
 10
90.6490020297
 20
141.9177600963
 30
0.0
 11
90.4076870374
 21
142.2641897423
 31
0.0
  0
ARC
  5
2C7
330
1F
100
AcDbEntity
  8
0
  6
SLD-Durchgehend
 62
     7
370
    15
100
AcDbCircle
 10
94.5487962392
 20
115.0039926781
 30
0.0
 40
2.640132419458173
100
AcDbArc
 50
354.0976047655
 51
113.465360265
  0
ARC
  5
2C8
330
1F
100
AcDbEntity
  8
0
  6
SLD-Durchgehend
 62
     7
370
    15
100
AcDbCircle
 10
94.6172113682
 20
115.1036654584
 30
0.0
 40
2.470461420448214
100
AcDbArc
 50
349.3500078525
 51
117.6875291408
  0
ARC
  5
2C9
330
1F
100
AcDbEntity
  8
0
  6
SLD-Durchgehend
 62
     7
370
    15
100
AcDbCircle
 10
94.6883581382
 20
115.2108507491
 30
0.0
 40
2.042908365438633
100
AcDbArc
 50
336.8602400056
 51
128.5293359221
  0
ARC
  5
2CA
330
1F
100
AcDbEntity
  8
0
  6
SLD-Durchgehend
 62
     7
370
    15
100
AcDbCircle
 10
56.9261437075
 20
109.8503255695
 30
0.0
 40
5.825124006753951
100
AcDbArc
 50
338.1103227042
 51
354.6046370413
  0
ARC
  5
2CB
330
1F
100
AcDbEntity
  8
0
  6
SLD-Durchgehend
 62
     7
370
    15
100
AcDbCircle
 10
78.3647052241
 20
106.3928038199
 30
0.0
 40
16.36080742936178
100
AcDbArc
 50
167.9595917728
 51
174.0875639321
  0
LWPOLYLINE
  5
2CC
330
1F
100
AcDbEntity
  8
0
  6
SLD-Durchgehend
 62
     7
370
    15
100
AcDbPolyline
 90
        8
 70
   128
 43
0.0
 10
62.5155193574
 20
109.6005491762
 10
62.4447276659
 20
109.1730115784
 10
62.3564066208
 20
108.706062272
 10
62.2671523906
 20
108.2955920918
 10
62.1872039355
 20
107.9886915011
 10
62.1257329202
 20
107.820566356
 10
62.0897894568
 20
107.8105034156
 10
62.0834993041
 20
107.9596565886
  0
LINE
  5
2CD
330
1F
100
AcDbEntity
  8
0
  6
SLD-Durchgehend
 62
     7
370
    15
100
AcDbLine
 10
62.0909293956
 20
108.0781049876
 30
0.0
 11
62.1072778321
 21
108.0709002761
 31
0.0
  0
LINE
  5
2CE
330
1F
100
AcDbEntity
  8
0
  6
SLD-Durchgehend
 62
     7
370
    15
100
AcDbLine
 10
62.1253063745
 20
108.1552492304
 30
0.0
 11
62.0834993041
 21
107.9596565886
 31
0.0
  0
ARC
  5
2CF
330
1F
100
AcDbEntity
  8
0
  6
SLD-Durchgehend
 62
     7
370
    15
100
AcDbCircle
 10
75.8262631694
 20
106.8393317651
 30
0.0
 40
13.76767829420696
100
AcDbArc
 50
167.6418436856
 51
174.0981237115
  0
LWPOLYLINE
  5
2D0
330
1F
100
AcDbEntity
  8
0
  6
SLD-Durchgehend
 62
     7
370
    15
100
AcDbPolyline
 90
        8
 70
   128
 43
0.0
 10
62.501270122
 20
109.6175225301
 10
62.4539384461
 20
109.3187765999
 10
62.3774712748
 20
108.8964767603
 10
62.2972527362
 20
108.5129627807
 10
62.2235869832
 20
108.2175016252
 10
62.1659381158
 20
108.0480474828
 10
62.1317138738
 20
108.0263681559
 10
62.1253063745
 20
108.1552492304
  0
LINE
  5
2D1
330
1F
100
AcDbEntity
  8
0
  6
SLD-Durchgehend
 62
     7
370
    15
100
AcDbLine
 10
62.1315611369
 20
108.2549948095
 30
0.0
 11
62.0909293956
 21
108.0781049876
 31
0.0
  0
LINE
  5
2D2
330
1F
100
AcDbEntity
  8
0
  6
SLD-Durchgehend
 62
     7
370
    15
100
AcDbLine
 10
62.201006136
 20
108.1419015152
 30
0.0
 11
62.1253063745
 21
108.1552492304
 31
0.0
  0
LINE
  5
2D3
330
1F
100
AcDbEntity
  8
0
  6
SLD-Durchgehend
 62
     7
370
    15
100
AcDbLine
 10
62.2292438365
 20
108.2377709298
 30
0.0
 11
62.1315611369
 21
108.2549948095
 31
0.0
  0
LWPOLYLINE
  5
2D4
330
1F
100
AcDbEntity
  8
0
  6
SLD-Durchgehend
 62
     7
370
    15
100
AcDbPolyline
 90
       22
 70
   128
 43
0.0
 10
60.1692216314
 20
110.7984497992
 10
60.1739881403
 20
110.796217419
 10
60.2483393467
 20
110.8470173402
 10
60.3467503405
 20
111.043126866
 10
60.4666730232
 20
111.3794684259
 10
60.6050023652
 20
111.8473285658
 10
60.7581527746
 20
112.4345917104
 10
60.9221605427
 20
113.126046568
 10
61.0927769757
 20
113.9037856681
 10
61.2655820168
 20
114.7476663662
 10
61.4360997296
 20
115.6358333154
 10
61.5999175078
 20
116.5452809854
 10
61.7527885205
 20
117.4524562283
 10
61.8907565094
 20
118.3338636382
 10
62.0102470583
 20
119.1666764988
 10
62.1081644512
 20
119.9293253793
 10
62.1819736279
 20
120.6020550652
 10
62.2297616518
 20
121.167446099
 10
62.2502935893
 20
121.6108506395
 10
62.2430348612
 20
121.9207892044
 10
62.2081754572
 20
122.0892337931
 10
62.1656605817
 20
122.1201760544
  0
LWPOLYLINE
  5
2D5
330
1F
100
AcDbEntity
  8
0
  6
SLD-Durchgehend
 62
     7
370
    15
100
AcDbPolyline
 90
       21
 70
   128
 43
0.0
 10
62.1436590172
 20
110.4484559817
 10
62.2131561703
 20
110.5005672051
 10
62.3115690268
 20
110.6966767309
 10
62.4314917094
 20
111.0330173595
 10
62.5698191888
 20
111.5008784307
 10
62.7229714609
 20
112.088140644
 10
62.8869773663
 20
112.7795964329
 10
63.0575937993
 20
113.557335533
 10
63.2303988404
 20
114.4012162311
 10
63.4009184159
 20
115.2893813176
 10
63.5647343314
 20
116.1988308502
 10
63.7176072068
 20
117.1060060931
 10
63.8555751956
 20
117.9874135031
 10
63.9750638819
 20
118.8202263637
 10
64.0729812748
 20
119.5828733815
 10
64.1467904515
 20
120.25560493
 10
64.1945803381
 20
120.8209941013
 10
64.2151104129
 20
121.2644005044
 10
64.2078516848
 20
121.5743390692
 10
64.1729922808
 20
121.742783658
 10
64.1406120575
 20
121.7737445457
  0
LWPOLYLINE
  5
2D6
330
1F
100
AcDbEntity
  8
0
  6
SLD-Durchgehend
 62
     7
370
    15
100
AcDbPolyline
 90
       26
 70
   128
 43
0.0
 10
58.7638502783
 20
114.8728696479
 10
58.7458384997
 20
114.5536718739
 10
58.7571466184
 20
114.3758693559
 10
58.7970686919
 20
114.3506361021
 10
58.8630920119
 20
114.4795572234
 10
58.9510703302
 20
114.7545302136
 10
59.0554771788
 20
115.1582809014
 10
59.169748596
 20
115.6654363347
 10
59.2867059476
 20
116.2441341056
 10
59.3990010983
 20
116.85800793
 10
59.4995783485
 20
117.4684898777
 10
59.582117743
 20
118.0372187717
 10
59.6414318151
 20
118.5284616275
 10
59.6737952746
 20
118.911348827
 10
59.6771722502
 20
119.1618243082
 10
59.6513541258
 20
119.2641487194
 10
59.5979614026
 20
119.2118922098
 10
59.5203468419
 20
119.0083404852
 10
59.4233905739
 20
118.6662806047
 10
59.3131834484
 20
118.2072074933
 10
59.1966489173
 20
117.6599660738
 10
59.0811109013
 20
117.0589407755
 10
58.9738299913
 20
116.441896729
 10
58.8815433747
 20
115.847604893
 10
58.8100531913
 20
115.3134075774
 10
58.7638502783
 20
114.8728696479
  0
LINE
  5
2D7
330
1F
100
AcDbEntity
  8
0
  6
SLD-Durchgehend
 62
     7
370
    15
100
AcDbLine
 10
59.1892467654
 20
115.7765244914
 30
0.0
 11
59.1004600591
 21
115.9315915627
 31
0.0
  0
LINE
  5
2D8
330
1F
100
AcDbEntity
  8
0
  6
SLD-Durchgehend
 62
     7
370
    15
100
AcDbLine
 10
59.5992019243
 20
118.1678684278
 30
0.0
 11
59.5190113253
 21
118.1820077671
 31
0.0
  0
LINE
  5
2D9
330
1F
100
AcDbEntity
  8
0
  6
SLD-Durchgehend
 62
     7
370
    15
100
AcDbLine
 10
59.2207180179
 20
115.9103853477
 30
0.0
 11
59.1004600591
 21
115.9315915627
 31
0.0
  0
LWPOLYLINE
  5
2DA
330
1F
100
AcDbEntity
  8
0
  6
SLD-Durchgehend
 62
     7
370
    15
100
AcDbPolyline
 90
       17
 70
   128
 43
0.0
 10
62.9829911358
 20
113.1159491686
 10
63.1584523088
 20
113.9497017337
 10
63.3335111506
 20
114.8366747273
 10
63.5038575
 20
115.7550277038
 10
63.6652966804
 20
116.6821500136
 10
63.8138538069
 20
117.5952093525
 10
63.9458725072
 20
118.4717254562
 10
64.0580987401
 20
119.2901158555
 10
64.1477720655
 20
120.0302285923
 10
64.2126833863
 20
120.6738376839
 10
64.2512345529
 20
121.2050994707
 10
64.2624756164
 20
121.6109288706
 10
64.2461290426
 20
121.8813327922
 10
64.2025990254
 20
122.0096560044
 10
64.1329584486
 20
121.9927375985
 10
64.038919083
 20
121.8309929444
 10
64.022872395
 20
121.7945055885
  0
LWPOLYLINE
  5
2DB
330
1F
100
AcDbEntity
  8
0
  6
SLD-Durchgehend
 62
     7
370
    15
100
AcDbPolyline
 90
       10
 70
   128
 43
0.0
 10
62.0248744107
 20
110.4897415115
 10
62.0381420321
 20
110.3408677353
 10
62.0816720492
 20
110.212544523
 10
62.1513144887
 20
110.2294638602
 10
62.2453538544
 20
110.3912075831
 10
62.3614730156
 20
110.6937952189
 10
62.4968165375
 20
111.1297743244
 10
62.6480502851
 20
111.6884104757
 10
62.8114489681
 20
112.3559480382
 10
62.9829911358
 20
113.1159491686
  0
LWPOLYLINE
  5
2DC
330
1F
100
AcDbEntity
  8
0
  6
SLD-Durchgehend
 62
     7
370
    15
100
AcDbPolyline
 90
       24
 70
   128
 43
0.0
 10
62.9098580993
 20
109.0440820752
 10
62.9927811987
 20
109.1064760311
 10
63.0996541894
 20
109.3134140445
 10
63.2282102323
 20
109.6605161054
 10
63.3757317282
 20
110.1404387353
 10
63.5390968836
 20
110.7430277241
 10
63.714850492
 20
111.4555323346
 10
63.8992709882
 20
112.2628772481
 10
64.088459856
 20
113.1479801459
 10
64.2784105457
 20
114.0921139939
 10
64.4651071943
 20
115.0753019227
 10
64.6445972688
 20
116.0767400486
 10
64.8130846984
 20
117.0752389206
 10
64.9670025177
 20
118.0496742798
 10
65.1030948228
 20
118.9794266446
 10
65.2184819645
 20
119.8448246194
 10
65.3107238776
 20
120.6275546772
 10
65.3778666473
 20
121.3110597653
 10
65.4184928007
 20
121.8808727188
 10
65.431739933
 20
122.3249422236
 10
65.4173267848
 20
122.6338693721
 10
65.3755625553
 20
122.8011181427
 10
65.3073264129
 20
122.8231495096
 10
65.3034800506
 20
122.8205846472
  0
LWPOLYLINE
  5
2DD
330
1F
100
AcDbEntity
  8
0
  6
SLD-Durchgehend
 62
     7
370
    15
100
AcDbPolyline
 90
        3
 70
   128
 43
0.0
 10
62.9098580993
 20
109.0440820752
 10
62.51269745
 20
109.5927195473
 10
62.4695697642
 20
109.6558119951
  0
LWPOLYLINE
  5
2DE
330
1F
100
AcDbEntity
  8
0
  6
SLD-Durchgehend
 62
     7
370
    15
100
AcDbPolyline
 90
       20
 70
   128
 43
0.0
 10
69.2687693826
 20
121.2019665016
 10
69.2240062944
 20
121.3535019977
 10
69.0849756665
 20
121.495793186
 10
68.8594074763
 20
121.6276796384
 10
68.5384839616
 20
121.7485150172
 10
68.1444860838
 20
121.8407122267
 10
67.7461417235
 20
121.88059891
 10
67.4230696476
 20
121.8556618167
 10
67.2107560403
 20
121.7713584973
 10
67.1104339726
 20
121.6395372374
 10
67.1170538134
 20
121.4737897588
 10
67.2243309981
 20
121.2916733546
 10
67.4220908276
 20
121.1141241564
 10
67.6965776674
 20
120.9620838834
 10
68.0323781288
 20
120.8545347525
 10
68.4088196448
 20
120.8097306861
 10
68.7854353181
 20
120.8440387471
 10
69.0879847697
 20
120.9575278534
 10
69.2293930642
 20
121.0865923984
 10
69.2687693826
 20
121.2019665016
  0
LWPOLYLINE
  5
2DF
330
1F
100
AcDbEntity
  8
0
  6
SLD-Durchgehend
 62
     7
370
    15
100
AcDbPolyline
 90
       23
 70
   128
 43
0.0
 10
67.42050106
 20
108.2487335278
 10
67.503426022
 20
108.311128415
 10
67.6102971501
 20
108.5180654971
 10
67.738853193
 20
108.865167558
 10
67.8863756201
 20
109.3450901879
 10
68.0497407756
 20
109.9476791767
 10
68.2254943839
 20
110.6601837872
 10
68.4099158115
 20
111.4675287007
 10
68.599103748
 20
112.3526325299
 10
68.789055369
 20
113.2967654465
 10
68.9757510862
 20
114.2799533753
 10
69.1552411608
 20
115.2813905699
 10
69.3237276591
 20
116.2798913045
 10
69.4776454783
 20
117.2543266637
 10
69.6137377835
 20
118.1840790285
 10
69.7291258565
 20
119.0494751407
 10
69.8213677696
 20
119.8322070612
 10
69.8885114706
 20
120.5157102866
 10
69.9291357613
 20
121.0855251027
 10
69.9423828936
 20
121.5295946075
 10
69.9279716081
 20
121.8385198934
 10
69.8862055159
 20
122.005768664
 10
69.8507258511
 20
122.036181934
  0
LINE
  5
2E0
330
1F
100
AcDbEntity
  8
0
  6
SLD-Durchgehend
 62
     7
370
    15
100
AcDbLine
 10
67.42050106
 20
108.2487335278
 30
0.0
 11
62.9098580993
 21
109.0440820752
 31
0.0
  0
ARC
  5
2E1
330
1F
100
AcDbEntity
  8
0
  6
SLD-Durchgehend
 62
     7
370
    15
100
AcDbCircle
 10
128.6342473923
 20
96.5884796483
 30
0.0
 40
62.032466474644
100
AcDbArc
 50
149.1333480842
 51
164.107710118
  0
ARC
  5
2E2
330
1F
100
AcDbEntity
  8
0
  6
SLD-Durchgehend
 62
     7
370
    15
100
AcDbCircle
 10
79.8848894449
 20
126.0740697586
 30
0.0
 40
5.069270617881894
100
AcDbArc
 50
81.9677563345
 51
152.5136858085
  0
LWPOLYLINE
  5
2E3
330
1F
100
AcDbEntity
  8
0
  6
SLD-Durchgehend
 62
     7
370
    15
100
AcDbPolyline
 90
        9
 70
   128
 43
0.0
 10
79.4569214649
 20
124.8967373593
 10
79.6015872928
 20
125.6643650903
 10
79.7456144664
 20
126.4345930738
 10
79.8889464076
 20
127.2071214242
 10
80.0315267715
 20
127.9816446675
 10
80.1732999115
 20
128.7578591926
 10
80.3142099484
 20
129.5354613884
 10
80.454201934
 20
130.3141439183
 10
80.5932204548
 20
131.0936087592
  0
ARC
  5
2E4
330
1F
100
AcDbEntity
  8
0
  6
SLD-Durchgehend
 62
     7
370
    15
100
AcDbCircle
 10
81.2125139641
 20
122.1832393541
 30
0.0
 40
3.231899820131713
100
AcDbArc
 50
122.9022612323
 51
168.8741960076
  0
ARC
  5
2E5
330
1F
100
AcDbEntity
  8
0
  6
SLD-Durchgehend
 62
     7
370
    15
100
AcDbCircle
 10
-370.635137647
 20
209.4104682306
 30
0.0
 40
456.95817817432
100
AcDbArc
 50
347.7371399006
 51
349.0751149829
  0
ARC
  5
2E6
330
1F
100
AcDbEntity
  8
0
  6
SLD-Durchgehend
 62
     7
370
    15
100
AcDbCircle
 10
92.8502697969
 20
115.8112331904
 30
0.0
 40
24.00548961141031
100
AcDbArc
 50
135.9016850943
 51
164.8901912281
  0
ARC
  5
2E7
330
1F
100
AcDbEntity
  8
0
  6
SLD-Durchgehend
 62
     7
370
    15
100
AcDbCircle
 10
105.148438963
 20
103.8894595464
 30
0.0
 40
37.4497634539725
100
AcDbArc
 50
165.0116480129
 51
179.8195358676
  0
LWPOLYLINE
  5
2E8
330
1F
100
AcDbEntity
  8
0
  6
SLD-Durchgehend
 62
     7
370
    15
100
AcDbPolyline
 90
        3
 70
   128
 43
0.0
 10
67.6988612703
 20
104.0074146202
 10
67.7092622808
 20
103.1321115641
 10
67.7459107555
 20
102.3301492294
  0
LWPOLYLINE
  5
2E9
330
1F
100
AcDbEntity
  8
0
  6
SLD-Durchgehend
 62
     7
370
    15
100
AcDbPolyline
 90
       13
 70
   128
 43
0.0
 10
69.6783790208
 20
117.0748365892
 10
69.4358197815
 20
115.9869754536
 10
69.1741460777
 20
114.8373303784
 10
68.9266610733
 20
113.7460727094
 10
68.6856068514
 20
112.6577636076
 10
68.483481913
 20
111.7082215695
 10
68.305012568
 20
110.8245128615
 10
68.1662548176
 20
110.0928984432
 10
68.0569864652
 20
109.4762632473
 10
67.9804140545
 20
109.0151626466
 10
67.9310930736
 20
108.7079342304
 10
67.9064810119
 20
108.5744989885
 10
67.9055217496
 20
108.585364729
  0
LWPOLYLINE
  5
2EA
330
1F
100
AcDbEntity
  8
0
  6
SLD-Durchgehend
 62
     7
370
    15
100
AcDbPolyline
 90
        9
 70
   128
 43
0.0
 10
70.0172612286
 20
121.9024998916
 10
70.1512301183
 20
121.9468308462
 10
70.2649157337
 20
121.8163991196
 10
70.32837326
 20
121.497834645
 10
70.3330745763
 20
121.0042970104
 10
70.2754694811
 20
120.3284492565
 10
70.1599780313
 20
119.5187331958
 10
69.9863701902
 20
118.5550993158
 10
69.6783790208
 20
117.0748365892
  0
ARC
  5
2EB
330
1F
100
AcDbEntity
  8
0
  6
SLD-Durchgehend
 62
     7
370
    15
100
AcDbCircle
 10
79.3395358148
 20
127.5794392291
 30
0.0
 40
6.186884797787292
100
AcDbArc
 50
77.0133682244
 51
127.0623009174
  0
LINE
  5
2EC
330
1F
100
AcDbEntity
  8
0
  6
SLD-Durchgehend
 62
     7
370
    15
100
AcDbLine
 10
80.7298755116
 20
133.6080791278
 30
0.0
 11
80.5932204548
 21
131.0936087592
 31
0.0
  0
ARC
  5
2ED
330
1F
100
AcDbEntity
  8
0
  6
SLD-Durchgehend
 62
     7
370
    15
100
AcDbCircle
 10
76.3363149079
 20
103.7147760487
 30
0.0
 40
2.270709583885257
100
AcDbArc
 50
167.7953240371
 51
202.2500478568
  0
LINE
  5
2EE
330
1F
100
AcDbEntity
  8
0
  6
SLD-Durchgehend
 62
     7
370
    15
100
AcDbLine
 10
75.8968352183
 20
112.3539186863
 30
0.0
 11
74.1169264383
 21
104.1948144173
 31
0.0
  0
LINE
  5
2EF
330
1F
100
AcDbEntity
  8
0
  6
SLD-Durchgehend
 62
     7
370
    15
100
AcDbLine
 10
75.3456659458
 20
109.3880493043
 30
0.0
 11
75.2669794328
 21
109.4666594489
 31
0.0
  0
LINE
  5
2F0
330
1F
100
AcDbEntity
  8
0
  6
SLD-Durchgehend
 62
     7
370
    15
100
AcDbLine
 10
75.1823613263
 20
106.383224096
 30
0.0
 11
75.3456659458
 21
109.3880493043
 31
0.0
  0
ARC
  5
2F1
330
1F
100
AcDbEntity
  8
0
  6
SLD-Durchgehend
 62
     7
370
    15
100
AcDbCircle
 10
75.7709790973
 20
106.3604948808
 30
0.0
 40
0.5890564468866698
100
AcDbArc
 50
177.7886474546
 51
216.1450502234
  0
LWPOLYLINE
  5
2F2
330
1F
100
AcDbEntity
  8
0
  6
SLD-Durchgehend
 62
     7
370
    15
100
AcDbPolyline
 90
        5
 70
   128
 43
0.0
 10
75.1024622313
 20
104.9130610971
 10
75.1026969246
 20
104.9170336535
 10
75.1397831208
 20
105.0371607615
 10
75.1876391313
 20
105.0715489162
 10
75.1964862301
 20
105.0719503163
  0
LINE
  5
2F3
330
1F
100
AcDbEntity
  8
0
  6
SLD-Durchgehend
 62
     7
370
    15
100
AcDbLine
 10
74.9391576118
 20
101.9082356559
 30
0.0
 11
75.1024622313
 21
104.9130610971
 31
0.0
  0
ARC
  5
2F4
330
1F
100
AcDbEntity
  8
0
  6
SLD-Durchgehend
 62
     7
370
    15
100
AcDbCircle
 10
76.4515910254
 20
103.7691225522
 30
0.0
 40
2.397989756303376
100
AcDbArc
 50
202.4089535278
 51
230.8975588088
  0
LWPOLYLINE
  5
2F5
330
1F
100
AcDbEntity
  8
0
  6
SLD-Durchgehend
 62
     7
370
    15
100
AcDbPolyline
 90
        9
 70
   128
 43
0.0
 10
74.6886793367
 20
106.8157335593
 10
74.7927220381
 20
106.576748736
 10
75.0770781032
 20
105.9859335272
 10
75.1620994724
 20
105.7509645669
 10
75.1709759078
 20
105.5699555053
 10
75.1076748437
 20
105.4805010406
 10
74.9291440315
 20
105.456925541
 10
74.6149483911
 20
105.6268197334
 10
74.4750553585
 20
105.8364790714
  0
ARC
  5
2F6
330
1F
100
AcDbEntity
  8
0
  6
SLD-Durchgehend
 62
     7
370
    15
100
AcDbCircle
 10
70.412133039
 20
102.4473045874
 30
0.0
 40
2.668794979599036
100
AcDbArc
 50
182.5159914411
 51
265.3242412686
  0
ARC
  5
2F7
330
1F
100
AcDbEntity
  8
0
  6
SLD-Durchgehend
 62
     7
370
    15
100
AcDbCircle
 10
66.8671032072
 20
102.9761356523
 30
0.0
 40
8.142387408695846
100
AcDbArc
 50
331.4529667543
 51
352.4637647866
  0
LINE
  5
2F8
330
1F
100
AcDbEntity
  8
0
  6
SLD-Durchgehend
 62
     7
370
    15
100
AcDbLine
 10
77.4366611458
 20
116.5142269654
 30
0.0
 11
79.3722812395
 21
124.8192420079
 31
0.0
  0
LINE
  5
2F9
330
1F
100
AcDbEntity
  8
0
  6
SLD-Durchgehend
 62
     7
370
    15
100
AcDbLine
 10
79.7330525547
 20
126.3671746327
 30
0.0
 11
80.161518681
 21
128.2055625541
 31
0.0
  0
LWPOLYLINE
  5
2FA
330
1F
100
AcDbEntity
  8
0
  6
SLD-Durchgehend
 62
     7
370
    15
100
AcDbPolyline
 90
        9
 70
   128
 43
0.0
 10
77.4339654326
 20
116.7860241456
 10
77.4131205707
 20
116.6624618543
 10
77.3967069416
 20
116.5486356093
 10
77.3863534286
 20
116.4558423532
 10
77.3830872803
 20
116.3932891412
 10
77.3872325971
 20
116.3671841694
 10
77.3983786657
 20
116.38012024
 10
77.4154181435
 20
116.4308102651
 10
77.4366611458
 20
116.5142269654
  0
LINE
  5
2FB
330
1F
100
AcDbEntity
  8
0
  6
SLD-Durchgehend
 62
     7
370
    15
100
AcDbLine
 10
78.7836795516
 20
124.2803210242
 30
0.0
 11
77.4339654326
 21
116.7860241456
 31
0.0
  0
LINE
  5
2FC
330
1F
100
AcDbEntity
  8
0
  6
SLD-Durchgehend
 62
     7
370
    15
100
AcDbLine
 10
82.8962708201
 20
143.6485448701
 30
0.0
 11
80.5615755107
 21
133.6312504334
 31
0.0
  0
LWPOLYLINE
  5
2FD
330
1F
100
AcDbEntity
  8
0
  6
SLD-Durchgehend
 62
     7
370
    15
100
AcDbPolyline
 90
        9
 70
   128
 43
0.0
 10
82.898966737
 20
143.3767514153
 10
82.9198114315
 20
143.5003118439
 10
82.9362250169
 20
143.6141380889
 10
82.9465786154
 20
143.706931345
 10
82.949844731
 20
143.7694864197
 10
82.9456992396
 20
143.7955895288
 10
82.9345535366
 20
143.7826515956
 10
82.9175137205
 20
143.7319615705
 10
82.8962708201
 20
143.6485448701
  0
LINE
  5
2FE
330
1F
100
AcDbEntity
  8
0
  6
SLD-Durchgehend
 62
     7
370
    15
100
AcDbLine
 10
80.2064345061
 20
128.4264480544
 30
0.0
 11
82.898966737
 21
143.3767514153
 31
0.0
  0
ARC
  5
2FF
330
1F
100
AcDbEntity
  8
0
  6
SLD-Durchgehend
 62
     7
370
    15
100
AcDbCircle
 10
75.6994939371
 20
129.22789965
 30
0.0
 40
4.577645459462033
100
AcDbArc
 50
347.0951563075
 51
349.916719045
  0
LWPOLYLINE
  5
300
330
1F
100
AcDbEntity
  8
0
  6
SLD-Durchgehend
 62
     7
370
    15
100
AcDbPolyline
 90
        9
 70
   128
 43
0.0
 10
82.8977764485
 20
143.3780217392
 10
82.9175789058
 20
143.4954056366
 10
82.9331718141
 20
143.6035433633
 10
82.9430077301
 20
143.6916949077
 10
82.9461105404
 20
143.7511207385
 10
82.9421723228
 20
143.775919996
 10
82.9315839054
 20
143.7636302633
 10
82.9153960821
 20
143.7154734356
 10
82.895215326
 20
143.6362290604
  0
LINE
  5
301
330
1F
100
AcDbEntity
  8
0
  6
SLD-Durchgehend
 62
     7
370
    15
100
AcDbLine
 10
82.895215326
 20
143.6362290604
 30
0.0
 11
80.5633343133
 21
133.6310082896
 31
0.0
  0
LINE
  5
302
330
1F
100
AcDbEntity
  8
0
  6
SLD-Durchgehend
 62
     7
370
    15
100
AcDbLine
 10
78.7853796809
 20
124.2818781955
 30
0.0
 11
77.4351556628
 21
116.7847500963
 31
0.0
  0
LWPOLYLINE
  5
303
330
1F
100
AcDbEntity
  8
0
  6
SLD-Durchgehend
 62
     7
370
    15
100
AcDbPolyline
 90
        9
 70
   128
 43
0.0
 10
77.4351556628
 20
116.7847500963
 10
77.4153529509
 20
116.667366199
 10
77.3997602827
 20
116.5592321975
 10
77.3899241193
 20
116.4710769279
 10
77.3868214182
 20
116.4116529597
 10
77.3907595157
 20
116.3868537022
 10
77.4013481877
 20
116.3991434349
 10
77.417535971
 20
116.4472983999
 10
77.4377167999
 20
116.5265446378
  0
LINE
  5
304
330
1F
100
AcDbEntity
  8
0
  6
SLD-Durchgehend
 62
     7
370
    15
100
AcDbLine
 10
77.4377167999
 20
116.5265446378
 30
0.0
 11
79.3699734221
 21
124.8171279056
 31
0.0
  0
LINE
  5
305
330
1F
100
AcDbEntity
  8
0
  6
SLD-Durchgehend
 62
     7
370
    15
100
AcDbLine
 10
79.7402940533
 20
126.4060331358
 30
0.0
 11
80.1625743351
 21
128.2178783638
 31
0.0
  0
ARC
  5
306
330
1F
100
AcDbEntity
  8
0
  6
SLD-Durchgehend
 62
     7
370
    15
100
AcDbCircle
 10
75.9225927945
 20
129.1893094834
 30
0.0
 40
4.349841593014306
100
AcDbArc
 50
347.0955612288
 51
349.9164324801
  0
LINE
  5
307
330
1F
100
AcDbEntity
  8
0
  6
SLD-Durchgehend
 62
     7
370
    15
100
AcDbLine
 10
80.2052442759
 20
128.4277202411
 30
0.0
 11
82.8977764485
 21
143.3780217392
 31
0.0
  0
ARC
  5
308
330
1F
100
AcDbEntity
  8
0
  6
SLD-Durchgehend
 62
     7
370
    15
100
AcDbCircle
 10
86.3173602902
 20
142.9013051862
 30
0.0
 40
1.305418820335729
100
AcDbArc
 50
344.4887133217
 51
3.0858017372
  0
LINE
  5
309
330
1F
100
AcDbEntity
  8
0
  6
SLD-Durchgehend
 62
     7
370
    15
100
AcDbLine
 10
84.882700381
 20
127.6018960251
 30
0.0
 11
87.5752328738
 21
142.5521993859
 31
0.0
  0
ARC
  5
30A
330
1F
100
AcDbEntity
  8
0
  6
SLD-Durchgehend
 62
     7
370
    15
100
AcDbCircle
 10
80.3758269872
 20
128.4033316093
 30
0.0
 40
4.577576518576032
100
AcDbArc
 50
347.0951641993
 51
349.9167691493
  0
LINE
  5
30B
330
1F
100
AcDbEntity
  8
0
  6
SLD-Durchgehend
 62
     7
370
    15
100
AcDbLine
 10
84.7042242839
 20
126.8079528434
 30
0.0
 11
84.8377846723
 21
127.3810105248
 31
0.0
  0
LWPOLYLINE
  5
30C
330
1F
100
AcDbEntity
  8
0
  6
SLD-Durchgehend
 62
     7
370
    15
100
AcDbPolyline
 90
        9
 70
   128
 43
0.0
 10
81.3079062226
 20
135.3384429438
 10
81.3600180281
 20
135.6473477407
 10
81.4010519843
 20
135.931915216
 10
81.4269359998
 20
136.1638964934
 10
81.435101254
 20
136.3202804549
 10
81.4247374964
 20
136.3855400903
 10
81.3968732563
 20
136.3532008452
 10
81.3542737468
 20
136.2264739199
 10
81.301166474
 20
136.017932169
  0
LINE
  5
30D
330
1F
100
AcDbEntity
  8
0
  6
SLD-Durchgehend
 62
     7
370
    15
100
AcDbLine
 10
80.6147449493
 20
131.489659272
 30
0.0
 11
81.3079062226
 21
135.3384429438
 31
0.0
  0
LINE
  5
30E
330
1F
100
AcDbEntity
  8
0
  6
SLD-Durchgehend
 62
     7
370
    15
100
AcDbLine
 10
79.0317657246
 20
124.1448396666
 30
0.0
 11
79.1392098489
 21
124.6058424784
 31
0.0
  0
LWPOLYLINE
  5
30F
330
1F
100
AcDbEntity
  8
0
  6
SLD-Durchgehend
 62
     7
370
    15
100
AcDbPolyline
 90
        8
 70
   128
 43
0.0
 10
78.9618005819
 20
124.443254046
 10
78.9318799815
 20
124.2308603449
 10
78.9059961989
 20
123.9988753421
 10
78.8978308282
 20
123.8424932433
 10
78.9081945858
 20
123.7772336079
 10
78.9360588259
 20
123.8095709903
 10
78.9786584518
 20
123.9362997783
 10
79.0317657246
 20
124.1448396666
  0
LINE
  5
310
330
1F
100
AcDbEntity
  8
0
  6
SLD-Durchgehend
 62
     7
370
    15
100
AcDbLine
 10
81.301166474
 20
136.017932169
 30
0.0
 11
80.7269458036
 21
133.5541704519
 31
0.0
  0
LINE
  5
311
330
1F
100
AcDbEntity
  8
0
  6
SLD-Durchgehend
 62
     7
370
    15
100
AcDbLine
 10
84.7042242839
 20
126.8079528434
 30
0.0
 11
84.8603765789
 21
127.4779425783
 31
0.0
  0
LINE
  5
312
330
1F
100
AcDbEntity
  8
0
  6
SLD-Durchgehend
 62
     7
370
    15
100
AcDbLine
 10
84.8603765789
 20
127.4779425783
 30
0.0
 11
87.5190936803
 21
142.2404857202
 31
0.0
  0
LINE
  5
313
330
1F
100
AcDbEntity
  8
0
  6
SLD-Durchgehend
 62
     7
370
    15
100
AcDbLine
 10
87.6897138386
 20
126.9790535642
 30
0.0
 11
90.3484311729
 21
141.7415985687
 31
0.0
  0
LINE
  5
314
330
1F
100
AcDbEntity
  8
0
  6
SLD-Durchgehend
 62
     7
370
    15
100
AcDbLine
 10
87.6897138386
 20
126.9790535642
 30
0.0
 11
84.8603765789
 21
127.4779425783
 31
0.0
  0
LINE
  5
315
330
1F
100
AcDbEntity
  8
0
  6
SLD-Durchgehend
 62
     7
370
    15
100
AcDbLine
 10
90.6252994045
 20
141.7087228818
 30
0.0
 11
87.9833249218
 21
127.0391424967
 31
0.0
  0
LINE
  5
316
330
1F
100
AcDbEntity
  8
0
  6
SLD-Durchgehend
 62
     7
370
    15
100
AcDbLine
 10
87.9833249218
 20
127.0391424967
 30
0.0
 11
87.6897138386
 21
126.9790535642
 31
0.0
  0
ARC
  5
317
330
1F
100
AcDbEntity
  8
0
  6
SLD-Durchgehend
 62
     7
370
    15
100
AcDbCircle
 10
88.7761677182
 20
142.177972407
 30
0.0
 40
1.631696815540392
100
AcDbArc
 50
344.4882722964
 51
3.0862427625
  0
ARC
  5
318
330
1F
100
AcDbEntity
  8
0
  6
SLD-Durchgehend
 62
     7
370
    15
100
AcDbCircle
 10
89.7096504108
 20
141.9184102848
 30
0.0
 40
0.9393518439178202
100
AcDbArc
 50
347.101439525
 51
359.9603417397
  0
LINE
  5
319
330
1F
100
AcDbEntity
  8
0
  6
SLD-Durchgehend
 62
     7
370
    15
100
AcDbLine
 10
87.5335617765
 20
126.3090638293
 30
0.0
 11
87.6897138386
 21
126.9790535642
 31
0.0
  0
LINE
  5
31A
330
1F
100
AcDbEntity
  8
0
  6
SLD-Durchgehend
 62
     7
370
    15
100
AcDbLine
 10
87.9833249218
 20
127.0391424967
 30
0.0
 11
87.8021309926
 21
126.261707939
 31
0.0
  0
LINE
  5
31B
330
1F
100
AcDbEntity
  8
0
  6
SLD-Durchgehend
 62
     7
370
    15
100
AcDbLine
 10
76.3953554287
 20
105.7740380837
 30
0.0
 11
109.9729591823
 21
99.8534008011
 31
0.0
  0
LINE
  5
31C
330
1F
100
AcDbEntity
  8
0
  6
SLD-Durchgehend
 62
     7
370
    15
100
AcDbLine
 10
80.3226810257
 20
127.5805370731
 30
0.0
 11
76.3953554287
 21
105.7740380837
 31
0.0
  0
LINE
  5
31D
330
1F
100
AcDbEntity
  8
0
  6
SLD-Durchgehend
 62
     7
370
    15
100
AcDbLine
 10
80.3226810257
 20
127.5805370731
 30
0.0
 11
87.8282843932
 21
126.2570960296
 31
0.0
  0
LINE
  5
31E
330
1F
100
AcDbEntity
  8
0
  6
SLD-Durchgehend
 62
     7
370
    15
100
AcDbLine
 10
87.8282843932
 20
126.2570960296
 30
0.0
 11
87.9208643764
 21
126.7711469753
 31
0.0
  0
LINE
  5
31F
330
1F
100
AcDbEntity
  8
0
  6
SLD-Durchgehend
 62
     7
370
    15
100
AcDbLine
 10
109.9729591823
 20
125.9430764092
 30
0.0
 11
109.9729591823
 21
99.8534008011
 31
0.0
  0
ELLIPSE
  5
320
330
1F
100
AcDbEntity
  8
0
  6
SLD-Durchgehend
 62
     7
370
    15
100
AcDbEllipse
 10
96.0034944827
 20
117.0760750402
 30
0.0
 11
1.343890008732984
 21
2.600277631452755
 31
0.0
210
0.0
220
0.0
230
0.9999999999999999
 40
0.8512331428
 41
0.0
 42
6.283185307179586
  0
LWPOLYLINE
  5
321
330
1F
100
AcDbEntity
  8
0
  6
SLD-Durchgehend
 62
     7
370
    15
100
AcDbPolyline
 90
        9
 70
   128
 43
0.0
 10
109.9729591823
 20
125.9430764092
 10
108.1124337233
 20
129.1569886578
 10
106.0610765434
 20
132.0168437285
 10
103.8188895053
 20
134.5226416214
 10
101.3858726091
 20
136.6743841989
 10
98.8336240716
 20
138.4159574134
 10
96.1617313168
 20
139.7474916501
 10
93.3705473161
 20
140.6642446144
 10
90.5089418247
 20
141.1414654775
  0
LINE
  5
322
330
1F
100
AcDbEntity
  8
0
  6
SLD-Durchgehend
 62
     7
370
    15
100
AcDbLine
 10
77.6540779351
 20
116.3197835757
 30
0.0
 11
77.4872668862
 21
115.3935646487
 31
0.0
  0
LWPOLYLINE
  5
323
330
1F
100
AcDbEntity
  8
0
  6
SLD-Durchgehend
 62
     7
370
    15
100
AcDbPolyline
 90
       12
 70
   128
 43
0.0
 10
77.4872668862
 20
115.3935646487
 10
77.3876065231
 20
114.8066749645
 10
77.3061446688
 20
114.2565045355
 10
77.2494820721
 20
113.78762646
 10
77.2222078248
 20
113.4380247293
 10
77.2265328868
 20
113.2360217942
 10
77.2621061496
 20
113.1979847176
 10
77.3260456353
 20
113.3269933833
 10
77.4131713278
 20
113.6125974206
 10
77.516425199
 20
114.031657189
 10
77.6274421095
 20
114.5502241178
 10
77.7372282773
 20
115.1262881084
  0
LINE
  5
324
330
1F
100
AcDbEntity
  8
0
  6
SLD-Durchgehend
 62
     7
370
    15
100
AcDbLine
 10
77.7372282773
 20
115.1262881084
 30
0.0
 11
78.8158115774
 21
121.1151281221
 31
0.0
  0
LINE
  5
325
330
1F
100
AcDbEntity
  8
0
  6
SLD-Durchgehend
 62
     7
370
    15
100
AcDbLine
 10
76.3953554287
 20
105.7740380837
 30
0.0
 11
69.4965569145
 21
75.3998631461
 31
0.0
  0
ARC
  5
326
330
1F
100
AcDbEntity
  8
0
  6
SLD-Durchgehend
 62
     7
370
    15
100
AcDbCircle
 10
82.972958482
 20
98.7961577101
 30
0.0
 40
26.99999999999976
100
AcDbArc
 50
239.4642300871
 51
240.057806602
  0
ARC
  5
327
330
1F
100
AcDbEntity
  8
0
  6
SLD-Durchgehend
 62
     7
370
    15
100
AcDbCircle
 10
61.8631656064
 20
77.0071247228
 30
0.0
 40
7.535786751760027
100
AcDbArc
 50
348.7791755542
 51
356.7867884131
  0
LWPOLYLINE
  5
328
330
1F
100
AcDbEntity
  8
0
  6
SLD-Durchgehend
 62
     7
370
    15
100
AcDbPolyline
 90
       13
 70
   128
 43
0.0
 10
75.2093128703
 20
106.8791324122
 10
75.2340683556
 20
106.9801520405
 10
75.3386270098
 20
107.3651403038
 10
75.4234164796
 20
107.6037935762
 10
75.4826588399
 20
107.6798472403
 10
75.5123168073
 20
107.5881184859
 10
75.5103684805
 20
107.334857419
 10
75.4769475042
 20
106.9373251719
 10
75.4143314279
 20
106.422612056
 10
75.3267871059
 20
105.8257944731
 10
75.2202801249
 20
105.1875451429
 10
75.1020692132
 20
104.5513596235
 10
75.0755106873
 20
104.4171532465
  0
LINE
  5
329
330
1F
100
AcDbEntity
  8
0
  6
SLD-Durchgehend
 62
     7
370
    15
100
AcDbLine
 10
78.8158115774
 20
121.1151281221
 30
0.0
 11
80.3226810257
 21
127.5805370731
 31
0.0
  0
LINE
  5
32A
330
1F
100
AcDbEntity
  8
0
  6
SLD-Durchgehend
 62
     7
370
    15
100
AcDbLine
 10
109.9729591823
 20
99.8534008011
 30
0.0
 11
109.9729591823
 21
98.7961577101
 31
0.0
  0
ARC
  5
32B
330
1F
100
AcDbEntity
  8
0
  6
SLD-Durchgehend
 62
     7
370
    15
100
AcDbCircle
 10
82.972958482
 20
98.7961577101
 30
0.0
 40
26.99999999999999
100
AcDbArc
 50
240.057806602
 51
0.0
  0
LINE
  5
32C
330
1F
100
AcDbEntity
  8
0
  6
SLD-Durchgehend
 62
     7
370
    15
100
AcDbLine
 10
69.3711422227
 20
76.6378497554
 30
0.0
 11
69.3871050916
 21
76.584730841
 31
0.0
  0
ARC
  5
32D
330
1F
100
AcDbEntity
  8
0
  6
SLD-Durchgehend
 62
     7
370
    15
100
AcDbCircle
 10
82.9729395019
 20
98.7961237578
 30
0.0
 40
25.99996146131843
100
AcDbArc
 50
227.5387491422
 51
238.4564280228
  0
ARC
  5
32E
330
1F
100
AcDbEntity
  8
0
  6
SLD-Durchgehend
 62
     7
370
    15
100
AcDbCircle
 10
82.972958482
 20
98.7961577101
 30
0.0
 40
26.0
100
AcDbArc
 50
152.2147950565
 51
227.5387679435
  0
LINE
  5
32F
330
1F
100
AcDbEntity
  8
0
  6
SLD-Durchgehend
 62
     7
370
    15
100
AcDbLine
 10
73.9729588694
 20
69.2358804716
 30
0.0
 11
73.9729588694
 21
68.6092400773
 31
0.0
  0
ARC
  5
330
330
1F
100
AcDbEntity
  8
0
  6
SLD-Durchgehend
 62
     7
370
    15
100
AcDbCircle
 10
82.972958482
 20
98.7961577101
 30
0.0
 40
31.5
100
AcDbArc
 50
140.9381656697
 51
253.398450401
  0
LINE
  5
331
330
1F
100
AcDbEntity
  8
0
  6
SLD-Durchgehend
 62
     7
370
    15
100
AcDbLine
 10
58.5142688669
 20
118.6461584492
 30
0.0
 11
59.2920070357
 21
118.6461584492
 31
0.0
  0
LINE
  5
332
330
1F
100
AcDbEntity
  8
0
  6
SLD-Durchgehend
 62
     7
370
    15
100
AcDbLine
 10
63.1229577429
 20
123.2548473252
 30
0.0
 11
63.1229577429
 21
122.4771091564
 31
0.0
  0
ARC
  5
333
330
1F
100
AcDbEntity
  8
0
  6
SLD-Durchgehend
 62
     7
370
    15
100
AcDbCircle
 10
82.972958482
 20
98.7961577101
 30
0.0
 40
31.49999999999999
100
AcDbArc
 50
109.5751899164
 51
129.0618343303
  0
ARC
  5
334
330
1F
100
AcDbEntity
  8
0
  6
SLD-Durchgehend
 62
     7
370
    15
100
AcDbCircle
 10
82.972958482
 20
98.7961577101
 30
0.0
 40
31.49999999999999
100
AcDbArc
 50
286.601549599
 51
31.0027191339
  0
LINE
  5
335
330
1F
100
AcDbEntity
  8
0
  6
SLD-Durchgehend
 62
     7
370
    15
100
AcDbLine
 10
91.9729580946
 20
68.6092400773
 30
0.0
 11
91.9729580946
 21
69.2358804716
 31
0.0
  0
LINE
  5
336
330
1F
100
AcDbEntity
  8
0
  6
SLD-Durchgehend
 62
     7
370
    15
100
AcDbLine
 10
91.9729580946
 20
69.2358804716
 30
0.0
 11
91.9729580946
 21
72.3961578531
 31
0.0
  0
LINE
  5
337
330
1F
100
AcDbEntity
  8
0
  6
SLD-Durchgehend
 62
     7
370
    15
100
AcDbLine
 10
91.9729580946
 20
72.3961578531
 30
0.0
 11
88.6333471007
 21
72.3961578531
 31
0.0
  0
LINE
  5
338
330
1F
100
AcDbEntity
  8
0
  6
SLD-Durchgehend
 62
     7
370
    15
100
AcDbLine
 10
73.9729588694
 20
72.3961578531
 30
0.0
 11
73.9729588694
 21
69.2358804716
 31
0.0
  0
LINE
  5
339
330
1F
100
AcDbEntity
  8
0
  6
SLD-Durchgehend
 62
     7
370
    15
100
AcDbLine
 10
63.1229577429
 20
122.4771091564
 30
0.0
 11
63.1229577429
 21
121.9531843288
 31
0.0
  0
LINE
  5
33A
330
1F
100
AcDbEntity
  8
0
  6
SLD-Durchgehend
 62
     7
370
    15
100
AcDbLine
 10
77.3125698633
 20
72.3961578531
 30
0.0
 11
73.9729588694
 21
72.3961578531
 31
0.0
  0
ARC
  5
33B
330
1F
100
AcDbEntity
  8
0
  6
SLD-Durchgehend
 62
     7
370
    15
100
AcDbCircle
 10
82.9743638506
 20
98.78747829
 30
0.0
 40
31.49128069790645
100
AcDbArc
 50
271.8171650148
 51
286.6036104447
  0
ARC
  5
33C
330
1F
100
AcDbEntity
  8
0
  6
SLD-Durchgehend
 62
     7
370
    15
100
AcDbCircle
 10
82.9761053248
 20
98.8155522419
 30
0.0
 40
31.51948509549558
100
AcDbArc
 50
253.4030421033
 51
268.1761824372
  0
LWPOLYLINE
  5
33D
330
1F
100
AcDbEntity
  8
0
  6
SLD-Durchgehend
 62
     7
370
    15
100
AcDbPolyline
 90
        3
 70
   128
 43
0.0
 10
58.5142688669
 20
118.6461584492
 10
59.7626099206
 20
120.090615548
 10
59.7842333681
 20
120.1129449381
  0
ARC
  5
33E
330
1F
100
AcDbEntity
  8
0
  6
SLD-Durchgehend
 62
     7
370
    15
100
AcDbCircle
 10
80.6331513749
 20
101.511919917
 30
0.0
 40
27.91705165863181
100
AcDbArc
 50
128.8454750956
 51
132.8573025743
  0
ARC
  5
33F
330
1F
100
AcDbEntity
  8
0
  6
SLD-Durchgehend
 62
     7
370
    15
100
AcDbCircle
 10
82.972958482
 20
98.7961577101
 30
0.0
 40
31.49999999999997
100
AcDbArc
 50
268.180780706
 51
271.819219294
  0
CIRCLE
  5
340
330
1F
100
AcDbEntity
  8
VERMASSUNG
  6
SLD-Punktstrich
100
AcDbCircle
 10
82.9446201962
 20
103.7961279131
 30
0.0
 40
39.99999999999999
  0
POINT
  5
341
330
1F
100
AcDbEntity
  8
VERMASSUNG
100
AcDbPoint
 10
82.9446201962
 20
143.7961279131
 30
0.0
  0
DIMENSION
  5
342
330
1F
100
AcDbEntity
  8
VERMASSUNG
100
AcDbDimension
  2
*D6
 10
39.0289042712
 20
143.7961279131
 30
0.0
 11
39.0289042712
 21
103.7961279131
 31
0.0
 70
   160
  1
%%c<>
 71
     2
 42
-1.0
  3
SLDDIMSTYLE2
100
AcDbAlignedDimension
 13
82.9446201962
 23
63.7961279131
 33
0.0
 14
82.9446201962
 24
143.7961279131
 34
0.0
 50
90.0
100
AcDbRotatedDimension
  0
INSERT
  5
359
330
1F
100
AcDbEntity
  8
VERMASSUNG
100
AcDbBlockReference
  2
SW_CENTERMARKSYMBOL_0
 10
82.972958482
 20
98.7961577101
 30
0.0
  0
OLE2FRAME
  5
35A
330
1F
100
AcDbEntity
  8
0
100
AcDbOle2Frame
 70
     2
  3
Bitmap
 10
13.8511154363
 20
38.264191557
 30
0.0
 11
51.6290888628
 21
31.9806341108
 31
0.0
 71
     2
 72
     0
 73
     1
 90
    12928
310
80552BED0767C5B32B40DDAF6807D121434000000000000000006FFBDDFB85D0
310
4940DDAF6807D121434000000000000000006FFBDDFB85D04940416F4BD60AFB
310
3F4000000000000000002BED0767C5B32B40416F4BD60AFB3F40000000000000
310
0000000000000100000000010000010000000100000000000100000000320000
310
D0CF11E0A1B11AE1000000000000000000000000000000003E000300FEFF0900
310
0600000000000000000000000100000001000000000000000010000002000000
310
01000000FEFFFFFF0000000000000000FFFFFFFFFFFFFFFFFFFFFFFFFFFFFFFF
310
FFFFFFFFFFFFFFFFFFFFFFFFFFFFFFFFFFFFFFFFFFFFFFFFFFFFFFFFFFFFFFFF
310
FFFFFFFFFFFFFFFFFFFFFFFFFFFFFFFFFFFFFFFFFFFFFFFFFFFFFFFFFFFFFFFF
310
FFFFFFFFFFFFFFFFFFFFFFFFFFFFFFFFFFFFFFFFFFFFFFFFFFFFFFFFFFFFFFFF
310
FFFFFFFFFFFFFFFFFFFFFFFFFFFFFFFFFFFFFFFFFFFFFFFFFFFFFFFFFFFFFFFF
310
FFFFFFFFFFFFFFFFFFFFFFFFFFFFFFFFFFFFFFFFFFFFFFFFFFFFFFFFFFFFFFFF
310
FFFFFFFFFFFFFFFFFFFFFFFFFFFFFFFFFFFFFFFFFFFFFFFFFFFFFFFFFFFFFFFF
310
FFFFFFFFFFFFFFFFFFFFFFFFFFFFFFFFFFFFFFFFFFFFFFFFFFFFFFFFFFFFFFFF
310
FFFFFFFFFFFFFFFFFFFFFFFFFFFFFFFFFFFFFFFFFFFFFFFFFFFFFFFFFFFFFFFF
310
FFFFFFFFFFFFFFFFFFFFFFFFFFFFFFFFFFFFFFFFFFFFFFFFFFFFFFFFFFFFFFFF
310
FFFFFFFFFFFFFFFFFFFFFFFFFFFFFFFFFFFFFFFFFFFFFFFFFFFFFFFFFFFFFFFF
310
FFFFFFFFFFFFFFFFFFFFFFFFFFFFFFFFFFFFFFFFFFFFFFFFFFFFFFFFFFFFFFFF
310
FFFFFFFFFFFFFFFFFFFFFFFFFFFFFFFFFFFFFFFFFFFFFFFFFFFFFFFFFFFFFFFF
310
FFFFFFFFFFFFFFFFFFFFFFFFFFFFFFFFFFFFFFFFFFFFFFFFFFFFFFFFFFFFFFFF
310
FDFFFFFFFEFFFFFFFEFFFFFFFEFFFFFF05000000060000000700000008000000
310
090000000A0000000B0000000C0000000D0000000E0000000F00000010000000
310
11000000120000001300000014000000150000001600000017000000FEFFFFFF
310
FFFFFFFFFFFFFFFFFFFFFFFFFFFFFFFFFFFFFFFFFFFFFFFFFFFFFFFFFFFFFFFF
310
FFFFFFFFFFFFFFFFFFFFFFFFFFFFFFFFFFFFFFFFFFFFFFFFFFFFFFFFFFFFFFFF
310
FFFFFFFFFFFFFFFFFFFFFFFFFFFFFFFFFFFFFFFFFFFFFFFFFFFFFFFFFFFFFFFF
310
FFFFFFFFFFFFFFFFFFFFFFFFFFFFFFFFFFFFFFFFFFFFFFFFFFFFFFFFFFFFFFFF
310
FFFFFFFFFFFFFFFFFFFFFFFFFFFFFFFFFFFFFFFFFFFFFFFFFFFFFFFFFFFFFFFF
310
FFFFFFFFFFFFFFFFFFFFFFFFFFFFFFFFFFFFFFFFFFFFFFFFFFFFFFFFFFFFFFFF
310
FFFFFFFFFFFFFFFFFFFFFFFFFFFFFFFFFFFFFFFFFFFFFFFFFFFFFFFFFFFFFFFF
310
FFFFFFFFFFFFFFFFFFFFFFFFFFFFFFFFFFFFFFFFFFFFFFFFFFFFFFFFFFFFFFFF
310
FFFFFFFFFFFFFFFFFFFFFFFFFFFFFFFFFFFFFFFFFFFFFFFFFFFFFFFFFFFFFFFF
310
FFFFFFFFFFFFFFFFFFFFFFFFFFFFFFFFFFFFFFFFFFFFFFFFFFFFFFFFFFFFFFFF
310
FFFFFFFFFFFFFFFFFFFFFFFFFFFFFFFFFFFFFFFFFFFFFFFFFFFFFFFFFFFFFFFF
310
FFFFFFFFFFFFFFFFFFFFFFFFFFFFFFFFFFFFFFFFFFFFFFFFFFFFFFFFFFFFFFFF
310
FFFFFFFFFFFFFFFFFFFFFFFFFFFFFFFFFFFFFFFFFFFFFFFFFFFFFFFFFFFFFFFF
310
52006F006F007400200045006E00740072007900000000000000000000000000
310
0000000000000000000000000000000000000000000000000000000000000000
310
16000500FFFFFFFFFFFFFFFF020000000A00030000000000C000000000000046
310
000000000000000000000000A08CBB6377A8C90103000000C000000000000000
310
01004F006C006500000000000000000000000000000000000000000000000000
310
0000000000000000000000000000000000000000000000000000000000000000
310
0A000200FFFFFFFFFFFFFFFFFFFFFFFF00000000000000000000000000000000
310
0000000000000000000000000000000000000000000000001400000000000000
310
010043006F006D0070004F0062006A0000000000000000000000000000000000
310
0000000000000000000000000000000000000000000000000000000000000000
310
120002010100000003000000FFFFFFFF00000000000000000000000000000000
310
0000000000000000000000000000000000000000010000004D00000000000000
310
01004F006C006500310030004E00610074006900760065000000000000000000
310
0000000000000000000000000000000000000000000000000000000000000000
310
1A000200FFFFFFFFFFFFFFFFFFFFFFFF00000000000000000000000000000000
310
0000000000000000000000000000000000000000040000002426000000000000
310
FEFFFFFF02000000FEFFFFFFFFFFFFFFFFFFFFFFFFFFFFFFFFFFFFFFFFFFFFFF
310
FFFFFFFFFFFFFFFFFFFFFFFFFFFFFFFFFFFFFFFFFFFFFFFFFFFFFFFFFFFFFFFF
310
FFFFFFFFFFFFFFFFFFFFFFFFFFFFFFFFFFFFFFFFFFFFFFFFFFFFFFFFFFFFFFFF
310
FFFFFFFFFFFFFFFFFFFFFFFFFFFFFFFFFFFFFFFFFFFFFFFFFFFFFFFFFFFFFFFF
310
FFFFFFFFFFFFFFFFFFFFFFFFFFFFFFFFFFFFFFFFFFFFFFFFFFFFFFFFFFFFFFFF
310
FFFFFFFFFFFFFFFFFFFFFFFFFFFFFFFFFFFFFFFFFFFFFFFFFFFFFFFFFFFFFFFF
310
FFFFFFFFFFFFFFFFFFFFFFFFFFFFFFFFFFFFFFFFFFFFFFFFFFFFFFFFFFFFFFFF
310
FFFFFFFFFFFFFFFFFFFFFFFFFFFFFFFFFFFFFFFFFFFFFFFFFFFFFFFFFFFFFFFF
310
FFFFFFFFFFFFFFFFFFFFFFFFFFFFFFFFFFFFFFFFFFFFFFFFFFFFFFFFFFFFFFFF
310
FFFFFFFFFFFFFFFFFFFFFFFFFFFFFFFFFFFFFFFFFFFFFFFFFFFFFFFFFFFFFFFF
310
FFFFFFFFFFFFFFFFFFFFFFFFFFFFFFFFFFFFFFFFFFFFFFFFFFFFFFFFFFFFFFFF
310
FFFFFFFFFFFFFFFFFFFFFFFFFFFFFFFFFFFFFFFFFFFFFFFFFFFFFFFFFFFFFFFF
310
FFFFFFFFFFFFFFFFFFFFFFFFFFFFFFFFFFFFFFFFFFFFFFFFFFFFFFFFFFFFFFFF
310
FFFFFFFFFFFFFFFFFFFFFFFFFFFFFFFFFFFFFFFFFFFFFFFFFFFFFFFFFFFFFFFF
310
FFFFFFFFFFFFFFFFFFFFFFFFFFFFFFFFFFFFFFFFFFFFFFFFFFFFFFFFFFFFFFFF
310
FFFFFFFFFFFFFFFFFFFFFFFFFFFFFFFFFFFFFFFFFFFFFFFFFFFFFFFFFFFFFFFF
310
0100000200000000000000000000000000000000000000000000000000000000
310
0000000000000000000000000000000000000000000000000000000000000000
310
0100FEFF030A0000FFFFFFFF0A00030000000000C00000000000004607000000
310
5042727573680007000000504272757368000700000050427275736800F439B2
310
7100000000000000000000000000000000000000000000000000000000000000
310
0000000000000000000000000000000000000000000000000000000000000000
310
0000000000000000000000000000000000000000000000000000000000000000
310
0000000000000000000000000000000000000000000000000000000000000000
310
0000000000000000000000000000000000000000000000000000000000000000
310
0000000000000000000000000000000000000000000000000000000000000000
310
0000000000000000000000000000000000000000000000000000000000000000
310
0000000000000000000000000000000000000000000000000000000000000000
310
0000000000000000000000000000000000000000000000000000000000000000
310
0000000000000000000000000000000000000000000000000000000000000000
310
0000000000000000000000000000000000000000000000000000000000000000
310
0000000000000000000000000000000000000000000000000000000000000000
310
20260000424D0E260000000000003E00000028000000B40200006E0000000100
310
01000000000000000000130B0000130B00000200000002000000000000FFFFFF
310
FFFFFFFFFFFFFFFFFFFFFFFFFFFFFFFFFFFFFFFFFFFFFFFFFFFFFFFFFFFFFFFF
310
FFFFFFFFFFFFFFFFFFFFFFFFFFFFFFFFFFFFFFFFFFFFFFFFFFFFFFFFFFFFFFFF
310
FFFFFFFFFFFFFFFFFFFFFFFFFFFFFFFFFFFFFFFFFFFFFFFFF000FFFFFFFFFFFF
310
FFFFFFFFFFFFFFFFFFFFFFFFFFFFFFFFFFFFFFFFFFFFFFFFFFFFFFFFFFFFFFFF
310
FFFFFFFFFFFFFFFFFFFFFFFFFFFFFFFFFFFFFFFFFFFFFFFFFFFFFFFFFFFFFFFF
310
FFFFFFFFFFFFFFFFFFFFFFFFFFFFFFFFF000FFFFFFFFFFFFFFFFFFFFFFFFFFFF
310
FFFFFFFFFFFFFFFFFFFFFFFFFFFFFFFFFFFFFFFFFFFFFFFFFFFFFFFFFFFFFFFF
310
FFFFFFFFFFFFFFFFFFFFFFFFFFFFFFFFFFFFFFFFFFFFFFFFFFFFFFFFFFFFFFFF
310
FFFFFFFFFFFFFFFFF000FFFFFFFFFFFFFFFFFFFFFFFFFFFFFFFFFFFFFFFFFFFF
310
FFFFFFFFFFFFFFFFFFFFFFFFFFFFFFFFFFFFFFFFFFFFFFFFFFFFFFFFFFFFFFFF
310
FFFFFFFFFFFFFFFFFFFFFFFFFFFFFFFFFFFFFFFFFFFFFFFFFFFFFFFFFFFFFFFF
310
F000FFFFFFFFFFFFFFFFFFFFFFFFFFFFFFFFFFFFFFFFFFFFFFFFFFFFFFFFFFFF
310
FFFFFFFFFFFFFFFFFFFFFFFFFFFFFFFFFFFFFFFFFFFFFFFFFFFFFFFFFFFFFFFF
310
FFFFFFFFFFFFFFFFFFFFFFFFFFFFFFFFFFFFFFFFFFFFFFFFF000FFFFFFFFFFFF
310
FFFFFFFFFFFFFFFFFFFFFFFFFFFFFFFFFFFFFFFFFFFFFFFFFFFFFFFFFFFFFFFF
310
FFFFFFFFFFFFFFFFFFFFFFFFFFFFFFFFFFFFFFFFFFFFFFFFFFFFFFFFFFFFFFFF
310
FFFFFFFFFFFFFFFFFFFFFFFFFFFFFFFFF000FFFFFFFFFFFFFFFFFFFFFFFFFFFF
310
FFFFFFFFFFFFFFFFFFFFFFFFFFFFFFFFFFFFFFFFFFFFFFFFFFFFFFFFFFFFFFFF
310
FFFFFFFFFFFFFFFFFFFFFFFFFFFFFFFFFFFFFFFFFFFFFFFFFFFFFFFFFFFFFFFF
310
FFFFFFFFFFFFFFFFF000FFFFFFFFFFFFFFFFFFFFFFFFFFFFFFFFFFFFFFFFFFFF
310
FFFFFFFFFFFFFFFFFFFFFFFFFFFFFFFFFFFFFFFFFFFFFFFFFFFFFFFFFFFFFFFF
310
FFFFFFFFFFFFFFFFFFFFFFFFFFFFFFFFFFFFFFFFFFFFFFFFFFFFFFFFFFFFFFFF
310
F000FFFFFFFFFFFFFFFFFFFFFFFFFFFFFFFFFFFFFFFFFFFFFFFFFFFFFFFFFFFF
310
FFFFFFFFFFFFFFFFFFFFFFFFFFFFFFFFFFFFFFFFFFFFFFFFFFFFFFFFFFFFFFFF
310
FFFFFFFFFFFFFFFFFFFFFFFFFFFFFFFFFFFFFFFFFFFFFFFFF000FFFFFFFFFFFF
310
FFFFFFFFFFFFFFFFFFFFFFFFFFFFFFFFFFFFFFFFFFFFFFFFFFFFFFFFFFFFFFFF
310
FFFFFFFFFFFFFFFFFFFFFFFFFFFFFFFFFFFFFFFFFFFFFFFFFFFFFFFFFFFFFFFF
310
FFFFFFFFFFFFFFFFFFFFFFFFFFFFFFFFF000FFFFFFFFFFFFFFFFFFFFFFFFFFFF
310
FFFFFFFFFFFFFFFFFFFFFFFFFFFFFFFFFFFFFFFFFFFFFFFFFFFFFFFFFFFFFFFF
310
FFFFFFFFFFFFFFFFFFFFFFFFFFFFFFFFFFFFFFFFFFFFFFFFFFFFFFFFFFFFFFFF
310
FFFFFFFFFFFFFFFFF000FFFFFFFFFFFFFFFFFFFFFFFFFFFFFFFFFFFFFFFFFFFF
310
FFFFFFFFFFFFFFFFFFFFFFFFFFFFFFFFFFFFFFFFFFFFFFFFFFFFFFFFFFFFFFFF
310
FFFFFFFFFFFFFFFFFFFFFFFFFFFFFFFFFFFFFFFFFFFFFFFFFFFFFFFFFFFFFFFF
310
F000FFFFFFFFFFFFFFFFFFFFFFFFFFFFFFFFFFFFFFFFFFFFFFFFFFFFFFFFFFFF
310
FFFFFFFFFFFFFFFFFFFFFFFFFFFFFFFFFFFFFFFFFFFFFFFFFFFFFFFFFFFFFFFF
310
FFFFFFFFFFFFFFFFFFFFFFFFFFFFFFFFFFFFFFFFFFFFFFFFF000FFFFFFFFFFFF
310
FFFFFFFFFFFFFFFFFFFFFFFFFFFFFFFFFFFFFFFFFFFFFFFFFFFFFFFFFFFFFFFF
310
FFFFFFFFFFFFFFFFFFFFFFFFFFFFFFFFFFFFFFFFFFFFFFFFFFFFFFFFFFFFFFFF
310
FFFFFFFFFFFFFFFFFFFFFFFFFFFFFFFFF000FFFFFFFFFFFFFFFFFFFFFFFFFFFF
310
FFFFFFFFFFFFFFFFFFFFFFFFFFFFFFFFFFFFFFFFFFFFFFFFFFFFFFFFFFFFFFFF
310
FFFFFFFFFFFFFFFFFFFFFFFFFFFFFFFFFFFFFFFFFFFFFFFFFFFFFFFFFFFFFFFF
310
FFFFFFFFFFFFFFFFF000FFFFFFFFFFFFFFFFFFFFFFFFFFFFFFFFFFFFFFFFFFFF
310
FFFFFFFFFFFFFFFFFFFFFFFFFFFFFFFFFFFFFFFFFFFFFFFFFFFFFFFFFFFFFFFF
310
FFFFFFFFFFFFFFFFFFFFFFFFFFFFFFFFFFFFFFFFFFFFFFFFFFFFFFFFFFFFFFFF
310
F000FFFFFFFFFFFFFFFFFFFFFFFFFFFFFFFFFFFFFFFFFFFFFFFFFFFFFFFFFFFF
310
FFFFFFFFFFFFFFFFFFFFFFFFFFFFFFFFFFFFFFFFFFFFFFFFFFFFFFFFFFFFFFFF
310
FFFFFFFFFFFFFFFFFFFFFFFFFFFFFFFFFFFFFFFFFFFFFFFFF000FFFFFFFFFFFF
310
FFFFFFFFFFFFFFFFFFFFFFFFFFFFFFFFFFFFFFFFFFFFFFFFFFFFFFFFFFFFFFFF
310
FFFFFFFFFFFFFFFFFFFFFFFFFFFFFFFFFFFFFFFFFFFFFFFFFFFFFFFFFFFFFFFF
310
FFFFFFFFFFFFFFFFFFFFFFFFFFFFFFFFF000FFFFFFFFFFFFFFFFFFFFFFFFFFFF
310
FFFFFFFFFFFFFFFFFFFFFFFFFFFFFFFFFFFFFFFFFFFFFFFFFFFFFFFFFFFFFFFF
310
FFFFFFFFFFFFFFFFFFFFFFFFFFFFFFFFFFFFFFFFFFFFFFFFFFFFFFFFFFFFFFFF
310
FFFFFFFFFFFFFFFFF000FFFFF80003FFFFFFFFFFFFFFFFFFFFFFFFFFFFFFFFFF
310
FFFFF00007FFFFFFFFFF00007FFFFFF800000000000000007FFFFFFFFFFFFFFF
310
FFFFFFFC001FFFFFFFFFFFFFFC001FFFFFFFFFFFFFFFFFFFFFFFFFFE0007FFFF
310
F000FFFF8000007FFFFFFFF8000FFFFFC0007FFFFF80007FFFFF0000007FFFFF
310
FFF8000007FFFFF800000000000000007FFFFFF0001FFFFFFFFFFFC00001FFFF
310
FFFFFFFFC00001FFFFFFFF000000000003FFFFE000007FFFF000FFFE0000000F
310
FFFFFFF0000FFFFF80007FFFFF80007FFFFC0000001FFFFFFFC0000001FFFFF8
310
00000000000000007FFFFFF0001FFFFFFFFFFE0000003FFFFFFFFFFE0000003F
310
FFFFFF000000000003FFFF0000000FFFF000FFF800000003FFFFFFF00007FFFF
310
80007FFFFF80007FFFF000000007FFFFFF000000003FFFF80000000000000000
310
7FFFFFF0001FFFFFFFFFF80000000FFFFFFFFFF80000000FFFFFFF0000000000
310
03FFFC00000003FFF000FFE000000000FFFFFFF00007FFFF80003FFFFF80007F
310
FFC000000001FFFFFC000000001FFFF800000000000000007FFFFFF0001FFFFF
310
FFFFE000000003FFFFFFFFE000000003FFFFFF000000000003FFF000000000FF
310
F000FF80000000007FFFFFF00007FFFF80003FFFFF80007FFF8000000000FFFF
310
F80000000007FFF800000000000000007FFFFFF0001FFFFFFFFFC000000001FF
310
FFFFFFC000000001FFFFFF000000000003FFC0000000007FF000FF0000000000
310
3FFFFFE00007FFFF00003FFFFF80007FFE00000000003FFFF00000000003FFF8
310
00000000000000007FFFFFF0001FFFFFFFFF8000000000FFFFFFFF8000000000
310
FFFFFF000000000003FF80000000003FF000FE00000000001FFFFFE00003FFFF
310
00003FFFFF80007FFC00000000001FFFE00000000001FFF8000001FFFE000000
310
7FFFFFF0001FFFFFFFFE00000000003FFFFFFE00000000003FFFFF0000000000
310
03FF00000000001FF000FC00000000000FFFFFE00003FFFF00001FFFFF80007F
310
F800000000001FFFC00000000000FFF8000001FFFE0000007FFFFFF0001FFFFF
310
FFFC00000000001FFFFFFC00000000001FFFFF000000000003FE00000000000F
310
F000F8000000000007FFFFE00003FFFF00001FFFFF80007FF800000000000FFF
310
800000000000FFF8000001FFFE0000007FFFFFF0001FFFFFFFF800000000000F
310
FFFFF800000000000FFFFF000000000003FC000000000007F000F80000000000
310
03FFFFC00003FFFE00001FFFFF80007FF0000000000007FF0000000000007FF8
310
000001FFFE0000007FFFFFF0001FFFFFFFF0000000000007FFFFF00000000000
310
07FFFF000000000003F8000000000003F000F0000000000003FFFFC00001FFFE
310
00001FFFFF80007FE0000000000007FE0000000000003FF8000001FFFE000000
310
7FFFFFF0001FFFFFFFF0000000000007FFFFF0000000000007FFFF0000000000
310
03F800001F800003F000E00001FFF00001FFFFC00001FFFE00000FFFFF80007F
310
E00001FFE00003FE00001FFF00003FF8000001FFFE0000007FFFFFF0001FFFFF
310
FFE000003E000003FFFFE000003E000003FFFF000000000003F00001FFF80001
310
F000E00007FFFC0001FFFFC00001FFFE00000FFFFF80007FC0000FFFFC0003FC
310
0000FFFFC0001FF8000001FFFE0000007FFFFFF0001FFFFFFFC00003FFE00001
310
FFFFC00003FFE00001FFFF0001FFFFFFFFF00007FFFE0001F000E0000FFFFF00
310
00FFFF800001FFFC00000FFFFF80007FC0001FFFFE0001FC0001FFFFE0001FF8
310
000001FFFE0000007FFFFFF0001FFFFFFF80000FFFF80000FFFF80000FFFF800
310
00FFFF0003FFFFFFFFE0000FFFFF8000F000C0003FFFFF8000FFFF800000FFFC
310
000007FFFF80007F80003FFFFF0001FC0003FFFFF0001FF8000001FFFE000000
310
7FFFFFF0001FFFFFFF80003FFFFE0000FFFF80003FFFFE0000FFFF0003FFFFFF
310
FFE0003FFFFF8000F000C0003FFFFF8000FFFF800000FFFC000007FFFF80007F
310
80007FFFFF8001F80007FFFFF8000FF8000001FFFE0000007FFFFFF0001FFFFF
310
FF00007FFFFF00007FFF00007FFFFF00007FFF0003FFFFFFFFE0003FFFFFC000
310
F000C0007FFFFFC000FFFF000000FFFC000007FFFF80007F8000FFFFFF8000F8
310
000FFFFFF8000FF8000001FFFE0000007FFFFFF0001FFFFFFF0000FFFFFF8000
310
7FFF0000FFFFFF80007FFF0003FFFFFFFFC0007FFFFFC00070008000FFFFFFC0
310
00FFFF000000FFF8000007FFFF80007F8000FFFFFF8000F8000FFFFFF8000FF8
310
000001FFFE0000007FFFFFF0001FFFFFFE0001FFFFFFC0003FFE0001FFFFFFC0
310
003FFF0003FFFFFFFFC0007FFFFFE00070008000FFFFFFC0007FFF0000007FF8
310
000003FFFF80007F0001FFFFFF8000F8000FFFFFF8000FF8000001FFFE000000
310
7FFFFFF0001FFFFFFE0001FFFFFFC0003FFE0001FFFFFFC0003FFF0003FFFFFF
310
FFC000FFFFFFE00070008000FFFFFFC0007FFF0000007FF8000003FFFF80007F
310
0001FFFFFF8000F8001FFFFFF8000FF8000001FFFE0000007FFFFFF0001FFFFF
310
FE0003FFFFFFE0003FFE0003FFFFFFE0003FFF0003FFFFFFFFC000FFFFFFE000
310
70008000FFFFFFC0007FFE0000007FF8000003FFFF80007F0001FFFFFF8000F0
310
001FFFFFF8000FF8000001FFFE0000007FFFFFF0001FFFFFFC0003FFFFFFE000
310
1FFC0003FFFFFFE0001FFF0003FFFFFFFFC000FFFFFFC00070008000FFFFFF80
310
007FFE0000007FF0000003FFFF80007F0001FFFFFF0000F0001FFFFFF8000FF8
310
000001FFFE0000007FFFFFF0001FFFFFFC0007FFFFFFF0001FFC0007FFFFFFF0
310
001FFF0003FFFFFFFFC000FFFFFFC00070008001FFFFFF0000FFFE0000003FF0
310
000001FFFF80007F0001FFFFFF0000F8001FFFFFF0000FF8000001FFFE000000
310
7FFFFFF0001FFFFFFC0007FFFFFFF0001FFC0007FFFFFFF0001FFF0003FFFFFF
310
FFC001FFFFFF80007000FFFFFFFFFE0000FFFE0008003FF0008001FFFF80007F
310
FFFFFFFFFC0000FFFFFFFFFFE0000FF8000001FFFE0000007FFFFFF0001FFFFF
310
F8000FFFFFFFF8000FF8000FFFFFFFF8000FFF0003FFFFFFFFFFFFFFFFFF0000
310
7000FFFFFFFFFC0000FFFC0008003FF0008001FFFF80007FFFFFFFFFF80001FF
310
FFFFFFFF80000FF8000001FFFE0000007FFFFFF0001FFFFFF8000FFFFFFFF800
310
0FF8000FFFFFFFF8000FFF0003FFFFFFFFFFFFFFFFFE0000F000FFFFFFFFE000
310
00FFFC000C003FE000C001FFFF80007FFFFFFFFFC00001FFFFFFFFFE00001FF8
310
000001FFFE0000007FFFFFF0001FFFFFF8000FFFFFFFF8000FF8000FFFFFFFF8
310
000FFF0003FFFFFFFFFFFFFFFFF00000F000FFFFFFFE000001FFFC000C001FE0
310
00C000FFFF80007FFFFFFFFE000001FFFFFFFFE000001FF80FFFFFFFFFFFFFC0
310
7FFFFFF0001FFFFFF8000FFFFFFFF8000FF8000FFFFFFFF8000FFF0003FFFFFF
310
FFFFFFFFFF800000F000FFFFFFC0000001FFFC001C001FE001C000FFFF80007F
310
FFFFFF80000003FFFFFFF80000001FF80FFFFFFFFFFFFFC07FFFFFF0001FFFFF
310
F8001FFFFFFFFC000FF8001FFFFFFFFC000FFF0003FFFFFFFFFFFFFFF0000001
310
F000FFFFF800000001FFF8001C001FE001C000FFFF80007FFFFFF800000003FF
310
FFFF800000003FF80FFFFFFFFFFFFFC07FFFFFF0001FFFFFF8001FFFFFFFFC00
310
0FF8001FFFFFFFFC000FFF0003FFFFFFFFFFFFFE00000001F000FFFFC0000000
310
03FFF8001E001FC001E000FFFF80007FFFFF8000000007FFFFFC000000003FF8
310
0FFFFFFFFFFFFFC07FFFFFF0001FFFFFF8001FFFFFFFFC000FF8001FFFFFFFFC
310
000FFF0003FFFFFFFFFFFFE000000003F000FFFE0000000007FFF8001E000FC0
310
01E0007FFF80007FFFFE0000000007FFFFE0000000007FF80FFFFFFFFFFFFFC0
310
7FFFFFF0001FFFFFF0001FFFFFFFFC0007F0001FFFFFFFFC0007FF0003FFFFFF
310
FFFFFF0000000003F000FFF80000000007FFF8001E000FC003E0007FFF80007F
310
FFF0000000000FFFFF8000000000FFF80FFFFFFFFFFFFFC07FFFFFF0001FFFFF
310
F0001FFFFFFFFC0007F0001FFFFFFFFC0007FF0003FFFFFFFFFFFC0000000007
310
F000FFE0000000000FFFF0003E000FC003E0007FFF80007FFFC0000000001FFF
310
FE0000000001FFF80FFFFFFFFFFFFFC07FFFFFF0001FFFFFF0001FFFFFFFFC00
310
07F0001FFFFFFFFC0007FF0003FFFFFFFFFFF0000000000FF000FFC000000000
310
1FFFF0003F000F8003F0003FFF80007FFF80000000003FFFF80000000003FFF8
310
0FFFFFFFFFFFFFC07FFFFFF0001FFFFFF0001FFFFFFFFC0007F0001FFFFFFFFC
310
0007FF0003FFFFFFFFFFE0000000001FF000FF00000000007FFFF0003F000780
310
03F0003FFF80007FFF00000000007FFFF00000000007FFF80FFFFFFFFFFFFFC0
310
7FFFFFF0001FFFFFF0001FFFFFFFFC0007F0001FFFFFFFFC0007FF0003FFFFFF
310
FFFF80000000007FF000FE0000000000FFFFE0003F00078007F0003FFF80007F
310
FE0000000001FFFFE0000000001FFFF80FFFFFFFFFFFFFC07FFFFFF0001FFFFF
310
F0001FFFFFFFFC0007F0001FFFFFFFFC0007FF0003FFFFFFFFFF0000000000FF
310
F000FC0000000003FFFFE0007F00078007F0003FFF80007FFC0000000007FFFF
310
C0000000007FFFF80FFFFFFFFFFFFFC07FFFFFF0001FFFFFF8001FFFFFFFFC00
310
0FF8001FFFFFFFFC000FFF0003FFFFFFFFFE0000000003FFF000FC000000000F
310
FFFFE0007F80070007F8001FFF80007FF8000000001FFFFF8000000001FFFFF8
310
0FFFFFFFFFFFFFC07FFFFFF0001FFFFFF8001FFFFFFFFC000FF8001FFFFFFFFC
310
000FFF0003FFFFFFFFFC000000000FFFF000F8000000007FFFFFE0007F800700
310
07F8001FFF80007FF000000000FFFFFF800000000FFFFFF80FFFFFFFFFFFFFC0
310
7FFFFFF0001FFFFFF8000FFFFFFFF8000FF8000FFFFFFFF8000FFF0003FFFFFF
310
FFFC000000007FFFF000F800000007FFFFFFC0007F8003000FF8001FFF80007F
310
F000000007FFFFFF000000007FFFFFF80FFFFFFFFFFFFFC07FFFFFF0001FFFFF
310
F8000FFFFFFFF8000FF8000FFFFFFFF8000FFF0003FFFFFFFFF80000000FFFFF
310
F000F0000000FFFFFFFFC000FF8003000FF8001FFF80007FE0000000FFFFFFFF
310
0000000FFFFFFFF8000001FFFE0000007FFFFFF0001FFFFFF8000FFFFFFFF800
310
0FF8000FFFFFFFF8000FFF0003FFFFFFFFF8000000FFFFFFF000F000000FFFFF
310
FFFFC000FFC002000FF8000FFF80007FE000001FFFFFFFFE000001FFFFFFFFF8
310
000001FFFE0000007FFFFFF0001FFFFFF8000FFFFFFFF8000FF8000FFFFFFFF8
310
000FFF0003FFFFFFFFF000001FFFFFFFF000E00000FFFFFFFFFFC000FFC00200
310
0FFC000FFF80007FE00001FFFFFFFFFE00001FFFFFFFFFF8000001FFFE000000
310
7FFFFFF0001FFFFFFC000FFFFFFFF8001FFC000FFFFFFFF8001FFF0003FFFFFF
310
FFF00001FFFFFFFFF000E00007FFFFFFFFFF8000FFC000001FFC000FFF80007F
310
C0000FFFFFFFFFFE0000FFFFFFFFFFF8000001FFFE0000007FFFFFF0001FFFFF
310
FC0007FFFFFFF0001FFC0007FFFFFFF0001FFF0003FFFFFFFFF00007FFFFFFFF
310
F000E0001FFFFFFFFFFF8000FFC000001FFC000FFF80007FC0003FFFFFFFFFFE
310
0001FFFFFFFFFFF8000001FFFE0000007FFFFFF0001FFFFFFC0007FFFFFFF000
310
1FFC0007FFFFFFF0001FFF0003FFFFFFFFF0001FFFFFFFFFF000E0003FFFFF00
310
03FF8001FFE000001FFC0007FF80007FC0007FFFFF0007FC0003FFFFF0003FF8
310
000001FFFE0000007FFFFFF0001FFFFFFC0003FFFFFFE0001FFC0003FFFFFFE0
310
001FFF0003FFFFFFFFF0003FFFFFFFFFF000E0003FFFFF0001FF8001FFE00000
310
1FFE0007FF80007FC0007FFFFE0003FC0007FFFFE0003FF8000001FFFE000000
310
7FFFFFF0001FFFFFFE0003FFFFFFE0003FFE0003FFFFFFE0003FFF0003FFFFFF
310
FFF0003FFFFF8001F000E0003FFFFF0001FF0001FFE000001FFE0007FF80007F
310
C0007FFFFE0003FC0007FFFFE0003FF8000001FFFE0000007FFFFFF0001FFFFF
310
FE0001FFFFFFC0003FFE0001FFFFFFC0003FFF0003FFFFFFFFF0003FFFFF0001
310
F000E0003FFFFF0003FF0001FFE000003FFE0007FF80007FC0007FFFFE0003FC
310
0007FFFFE0003FF8000001FFFE0000007FFFFFF0001FFFFFFF0001FFFFFFC000
310
7FFF0001FFFFFFC0007FFF0003FFFFFFFFF0003FFFFF0001F000E0003FFFFE00
310
03FF0003FFF000003FFE0003FF80007FC0007FFFFC0003FE0007FFFFE0003FF8
310
000001FFFE0000007FFFFFF0001FFFFFFF0000FFFFFF80007FFF0000FFFFFF80
310
007FFF0003FFFFFFFFF0003FFFFF0001F000E0003FFFFE0003FF0003FFF00000
310
3FFF0003FF80007FC0007FFFFC0007FE0007FFFFC0003FF8000001FFFE000000
310
7FFFFFF0001FFFFFFF80007FFFFF0000FFFF80007FFFFF0000FFFF0003FFFFFF
310
FFF0003FFFFF0003F000E0003FFFFC0003FE0003FFF000003FFF0003FF80007F
310
E0003FFFF80007FE0003FFFFC0007FF8000001FFFE0000007FFFFFF0001FFFFF
310
FF80003FFFFE0000FFFF80003FFFFE0000FFFF0003FFFFFFFFF0001FFFFE0003
310
F000F0001FFFF80003FE0003FFF000007FFF0001FF80007FE0003FFFF00007FE
310
0001FFFF80007FF8000001FFFE0000007FFFFFF0001FFFFFFFC0000FFFF80001
310
FFFFC0000FFFF80001FFFF0003FFFFFFFFF0001FFFFC0003F000F0000FFFF000
310
07FE0007FFF800007FFF0001FF80007FE0001FFFE00007FF0000FFFE00007FF8
310
000001FFFE0000007FFFFFF0001FFFFFFFC00003FFE00001FFFFC00003FFE000
310
01FFFF0003FFFFFFFFF8000FFFF80003F000F00003FFC00007FC0007FFF80000
310
7FFF8001FF80007FF00007FF80000FFF00007FF80000FFF8000001FFFE000000
310
7F80000000000001FFE000003E000003FFFFE000003E000003FFFF0003FFFFFF
310
FFF80003FFE00007F000F800000000000FFC0007FFF800007FFF8001FF80007F
310
F000000000000FFF000000000000FFF8000001FFFE0000007F80000000000001
310
FFF0000000000007FFFFF0000000000007FFFF0003FFFFFFFFFC00007E000007
310
F000F800000000000FFC0007FFF80000FFFF8000FF80007FF800000000001FFF
310
800000000001FFF8000001FFFE0000007F80000000000001FFF800000000000F
310
FFFFF800000000000FFFFF0003FFFFFFFFFC00000000000FF000FC0000000000
310
1FFC0007FFFC0000FFFF8000FF80007FF800000000003FFFC00000000001FFF8
310
000001FFFE0000007F80000000000001FFF800000000000FFFFFF80000000000
310
0FFFFF0003FFFFFFFFFE00000000001FF000FE00000000003FF8000FFFFC0000
310
FFFF8000FF80007FFC00000000003FFFC00000000003FFF8000001FFFE000000
310
7F80000000000001FFFC00000000001FFFFFFC00000000001FFFFF0003FFFFFF
310
FFFF00000000001FF000FF00000000003FF8000FFFFC0000FFFFC000FF80007F
310
FE00000000007FFFE00000000007FFF8000001FFFE0000007F80000000000001
310
FFFE00000000003FFFFFFE00000000003FFFFF0003FFFFFFFFFF80000000003F
310
F000FF80000000007FF8000FFFFC0001FFFFC0007F80007FFF0000000000FFFF
310
F0000000000FFFF800000000000000007F80000000000001FFFF8000000000FF
310
FFFFFF8000000000FFFFFF0003FFFFFFFFFFC0000000007FF000FFC000000000
310
FFF8000FFFFE0001FFFFC0007F80007FFF8000000001FFFFF8000000001FFFF8
310
00000000000000007F80000000000001FFFFC000000001FFFFFFFFC000000001
310
FFFFFF0003FFFFFFFFFFE000000000FFF000FFE000000003FFF0001FFFFE0001
310
FFFFC0007F80007FFFC000000007FFFFFE000000003FFFF80000000000000000
310
7F80000000000001FFFFE000000003FFFFFFFFE000000003FFFFFF0003FFFFFF
310
FFFFF000000003FFF000FFF80000000FFFF0001FFFFE0001FFFFE0007F80007F
310
FFF00000000FFFFFFF00000000FFFFF800000000000000007F80000000000001
310
FFFFF80000000FFFFFFFFFF80000000FFFFFFF0003FFFFFFFFFFFC0000000FFF
310
F000FFFE0000003FFFF0001FFFFE0003FFFFE0003F80007FFFFC0000003FFFFF
310
FFC0000003FFFFF800000000000000007F80000000000001FFFFFE0000003FFF
310
FFFFFFFE0000003FFFFFFF0003FFFFFFFFFFFF0000003FFFF000FFFF800000FF
310
FFF0001FFFFF0003FFFFE0003F80007FFFFF000001FFFFFFFFF800001FFFFFF8
310
00000000000000007F80000000000001FFFFFFC00001FFFFFFFFFFFFC00001FF
310
FFFFFF0003FFFFFFFFFFFFC00000FFFFF000FFFFF8000FFFFFFFFFFFFFFFFFFF
310
FFFFFFFFFFFFFFFFFFFFF0001FFFFFFFFFFF0000FFFFFFF80000000000000000
310
7FFFFFFFFFFFFFFFFFFFFFFC001FFFFFFFFFFFFFFC001FFFFFFFFFFFFFFFFFFF
310
FFFFFFFC001FFFFFF000FFFFFFFFFFFFFFFFFFFFFFFFFFFFFFFFFFFFFFFFFFFF
310
FFFFFFFFFFFFFFFFFFFFFFFFFFFFFFFFFFFFFFFFFFFFFFFFFFFFFFFFFFFFFFFF
310
FFFFFFFFFFFFFFFFFFFFFFFFFFFFFFFFFFFFFFFFFFFFFFFFFFFFFFFFFFFFFFFF
310
F000FFFFFFFFFFFFFFFFFFFFFFFFFFFFFFFFFFFFFFFFFFFFFFFFFFFFFFFFFFFF
310
FFFFFFFFFFFFFFFFFFFFFFFFFFFFFFFFFFFFFFFFFFFFFFFFFFFFFFFFFFFFFFFF
310
FFFFFFFFFFFFFFFFFFFFFFFFFFFFFFFFFFFFFFFFFFFFFFFFF000FFFFFFFFFFFF
310
FFFFFFFFFFFFFFFFFFFFFFFFFFFFFFFFFFFFFFFFFFFFFFFFFFFFFFFFFFFFFFFF
310
FFFFFFFFFFFFFFFFFFFFFFFFFFFFFFFFFFFFFFFFFFFFFFFFFFFFFFFFFFFFFFFF
310
FFFFFFFFFFFFFFFFFFFFFFFFFFFFFFFFF000FFFFFFFFFFFFFFFFFFFFFFFFFFFF
310
FFFFFFFFFFFFFFFFFFFFFFFFFFFFFFFFFFFFFFFFFFFFFFFFFFFFFFFFFFFFFFFF
310
FFFFFFFFFFFFFFFFFFFFFFFFFFFFFFFFFFFFFFFFFFFFFFFFFFFFFFFFFFFFFFFF
310
FFFFFFFFFFFFFFFFF000FFFFFFFFFFFFFFFFFFFFFFFFFFFFFFFFFFFFFFFFFFFF
310
FFFFFFFFFFFFFFFFFFFFFFFFFFFFFFFFFFFFFFFFFFFFFFFFFFFFFFFFFFFFFFFF
310
FFFFFFFFFFFFFFFFFFFFFFFFFFFFFFFFFFFFFFFFFFFFFFFFFFFFFFFFFFFFFFFF
310
F000FFFFFFFFFFFFFFFFFFFFFFFFFFFFFFFFFFFFFFFFFFFFFFFFFFFFFFFFFFFF
310
FFFFFFFFFFFFFFFFFFFFFFFFFFFFFFFFFFFFFFFFFFFFFFFFFFFFFFFFFFFFFFFF
310
FFFFFFFFFFFFFFFFFFFFFFFFFFFFFFFFFFFFFFFFFFFFFFFFF000FFFFFFFFFFFF
310
FFFFFFFFFFFFFFFFFFFFFFFFFFFFFFFFFFFFFFFFFFFFFFFFFFFFFFFFFFFFFFFF
310
FFFFFFFFFFFFFFFFFFFFFFFFFFFFFFFFFFFFFFFFFFFFFFFFFFFFFFFFFFFFFFFF
310
FFFFFFFFFFFFFFFFFFFFFFFFFFFFFFFFF000FFFFFFFFFFFFFFFFFFFFFFFFFFFF
310
FFFFFFFFFFFFFFFFFFFFFFFFFFFFFFFFFFFFFFFFFFFFFFFFFFFFFFFFFFFFFFFF
310
FFFFFFFFFFFFFFFFFFFFFFFFFFFFFFFFFFFFFFFFFFFFFFFFFFFFFFFFFFFFFFFF
310
FFFFFFFFFFFFFFFFF000FFFFFFFFFFFFFFFFFFFFFFFFFFFFFFFFFFFFFFFFFFFF
310
FFFFFFFFFFFFFFFFFFFFFFFFFFFFFFFFFFFFFFFFFFFFFFFFFFFFFFFFFFFFFFFF
310
FFFFFFFFFFFFFFFFFFFFFFFFFFFFFFFFFFFFFFFFFFFFFFFFFFFFFFFFFFFFFFFF
310
F000FFFFFFFFFFFFFFFFFFFFFFFFFFFFFFFFFFFFFFFFFFFFFFFFFFFFFFFFFFFF
310
FFFFFFFFFFFFFFFFFFFFFFFFFFFFFFFFFFFFFFFFFFFFFFFFFFFFFFFFFFFFFFFF
310
FFFFFFFFFFFFFFFFFFFFFFFFFFFFFFFFFFFFFFFFFFFFFFFFF000FFFFFFFFFFFF
310
FFFFFFFFFFFFFFFFFFFFFFFFFFFFFFFFFFFFFFFFFFFFFFFFFFFFFFFFFFFFFFFF
310
FFFFFFFFFFFFFFFFFFFFFFFFFFFFFFFFFFFFFFFFFFFFFFFFFFFFFFFFFFFFFFFF
310
FFFFFFFFFFFFFFFFFFFFFFFFFFFFFFFFF000FFFFFFFFFFFFFFFFFFFFFFFFFFFF
310
FFFFFFFFFFFFFFFFFFFFFFFFFFFFFFFFFFFFFFFFFFFFFFFFFFFFFFFFFFFFFFFF
310
FFFFFFFFFFFFFFFFFFFFFFFFFFFFFFFFFFFFFFFFFFFFFFFFFFFFFFFFFFFFFFFF
310
FFFFFFFFFFFFFFFFF000FFFFFFFFFFFFFFFFFFFFFFFFFFFFFFFFFFFFFFFFFFFF
310
FFFFFFFFFFFFFFFFFFFFFFFFFFFFFFFFFFFFFFFFFFFFFFFFFFFFFFFFFFFFFFFF
310
FFFFFFFFFFFFFFFFFFFFFFFFFFFFFFFFFFFFFFFFFFFFFFFFFFFFFFFFFFFFFFFF
310
F000FFFFFFFFFFFFFFFFFFFFFFFFFFFFFFFFFFFFFFFFFFFFFFFFFFFFFFFFFFFF
310
FFFFFFFFFFFFFFFFFFFFFFFFFFFFFFFFFFFFFFFFFFFFFFFFFFFFFFFFFFFFFFFF
310
FFFFFFFFFFFFFFFFFFFFFFFFFFFFFFFFFFFFFFFFFFFFFFFFF000FFFFFFFFFFFF
310
FFFFFFFFFFFFFFFFFFFFFFFFFFFFFFFFFFFFFFFFFFFFFFFFFFFFFFFFFFFFFFFF
310
FFFFFFFFFFFFFFFFFFFFFFFFFFFFFFFFFFFFFFFFFFFFFFFFFFFFFFFFFFFFFFFF
310
FFFFFFFFFFFFFFFFFFFFFFFFFFFFFFFFF000FFFFFFFFFFFFFFFFFFFFFFFFFFFF
310
FFFFFFFFFFFFFFFFFFFFFFFFFFFFFFFFFFFFFFFFFFFFFFFFFFFFFFFFFFFFFFFF
310
FFFFFFFFFFFFFFFFFFFFFFFFFFFFFFFFFFFFFFFFFFFFFFFFFFFFFFFFFFFFFFFF
310
FFFFFFFFFFFFFFFFF000FFFFFFFFFFFFFFFFFFFFFFFFFFFFFFFFFFFFFFFFFFFF
310
FFFFFFFFFFFFFFFFFFFFFFFFFFFFFFFFFFFFFFFFFFFFFFFFFFFFFFFFFFFFFFFF
310
FFFFFFFFFFFFFFFFFFFFFFFFFFFFFFFFFFFFFFFFFFFFFFFFFFFFFFFFFFFFFFFF
310
F000FFFFFFFFFFFFFFFFFFFFFFFFFFFFFFFFFFFFFFFFFFFFFFFFFFFFFFFFFFFF
310
FFFFFFFFFFFFFFFFFFFFFFFFFFFFFFFFFFFFFFFFFFFFFFFFFFFFFFFFFFFFFFFF
310
FFFFFFFFFFFFFFFFFFFFFFFFFFFFFFFFFFFFFFFFFFFFFFFFF000FFFFFFFFFFFF
310
FFFFFFFFFFFFFFFFFFFFFFFFFFFFFFFFFFFFFFFFFFFFFFFFFFFFFFFFFFFFFFFF
310
FFFFFFFFFFFFFFFFFFFFFFFFFFFFFFFFFFFFFFFFFFFFFFFFFFFFFFFFFFFFFFFF
310
FFFFFFFFFFFFFFFFFFFFFFFFFFFFFFFFF000FFFFFFFFFFFFFFFFFFFFFFFFFFFF
310
FFFFFFFFFFFFFFFFFFFFFFFFFFFFFFFFFFFFFFFFFFFFFFFFFFFFFFFFFFFFFFFF
310
FFFFFFFFFFFFFFFFFFFFFFFFFFFFFFFFFFFFFFFFFFFFFFFFFFFFFFFFFFFFFFFF
310
FFFFFFFFFFFFFFFFF000FFFFFFFFFFFFFFFFFFFFFFFFFFFFFFFFFFFFFFFFFFFF
310
FFFFFFFFFFFFFFFFFFFFFFFFFFFFFFFFFFFFFFFFFFFFFFFFFFFFFFFFFFFFFFFF
310
FFFFFFFFFFFFFFFFFFFFFFFFFFFFFFFFFFFFFFFFFFFFFFFFFFFFFFFFFFFFFFFF
310
F000FFFFFFFFFFFFFFFFFFFFFFFFFFFFFFFFFFFFFFFFFFFFFFFFFFFFFFFFFFFF
310
FFFFFFFFFFFFFFFFFFFFFFFFFFFFFFFFFFFFFFFFFFFFFFFFFFFFFFFFFFFFFFFF
310
FFFFFFFFFFFFFFFFFFFFFFFFFFFFFFFFFFFFFFFFFFFFFFFFF000FFFFFFFFFFFF
310
FFFFFFFFFFFFFFFFFFFFFFFFFFFFFFFFFFFFFFFFFFFFFFFFFFFFFFFFFFFFFFFF
310
FFFFFFFFFFFFFFFFFFFFFFFFFFFFFFFFFFFFFFFFFFFFFFFFFFFFFFFFFFFFFFFF
310
FFFFFFFFFFFFFFFFFFFFFFFFFFFFFFFFF0000000000000000000000000000000
310
00000000000000000000000042006F006C00640020004900740061006C006900
310
6300200053007500620068006500610064000000000000000000000000000000
310
00000000000000000000000000006500730074006C00690063006800000001E6
310
F101E6F101E6F101E6F101E6F101E6F101E6F101E6F101E6F101E6F101E6F101
310
E6F101E6F101E6F101E6F101647600080000000001E6F10120FF002028000000
310
1C0000000C0000000800000000000000120000002F000000BC02000000000000
310
6000000060000000200006FB00002000FF00001B0001E6F121002200E8030000
310
D604000034020000870200600100000000000000000000009F01002000000000
310
616C000800000000E40100007001000002000000270000001000000000000000
310
000000002C0100000000000003020112410072006E006F002000500072006F00
310
20004C006900670068007400200044006900730070006C006100790000000000
310
00000000000000000000000000000000410072006E006F00500072006F002D00
310
4C00690067006800740044006900730070006C00610079000000000000000000
310
0000000000000000000000000000000000000000000000000000000000000000
310
0000000000000000000000000000000000000000000000000000000000000000
  1
OLE
  0
ENDSEC
  0
SECTION
  2
OBJECTS
  0
DICTIONARY
  5
C
330
0
100
AcDbDictionary
281
     1
  3
ACAD_GROUP
350
D
  3
ACAD_LAYOUT
350
1A
  3
ACAD_MLEADERSTYLE
350
35E
  3
ACAD_MLINESTYLE
350
17
  3
ACAD_PLOTSETTINGS
350
19
  3
ACAD_PLOTSTYLENAME
350
E
  3
ACAD_SCALELIST
350
3B
  3
ACAD_TABLESTYLE
350
35D
  3
ACAD_VISUALSTYLE
350
2A
  3
AcDbVariableDictionary
350
35B
  0
DICTIONARY
  5
D
102
{ACAD_REACTORS
330
C
102
}
330
C
100
AcDbDictionary
281
     1
  0
DICTIONARY
  5
1A
102
{ACAD_REACTORS
330
C
102
}
330
C
100
AcDbDictionary
281
     1
  3
Layout1
350
1E
  3
Layout2
350
26
  3
Model
350
22
  0
DICTIONARY
  5
35E
102
{ACAD_REACTORS
330
C
102
}
330
C
100
AcDbDictionary
281
     1
  0
DICTIONARY
  5
17
102
{ACAD_REACTORS
330
C
102
}
330
C
100
AcDbDictionary
281
     1
  3
Standard
350
18
  0
DICTIONARY
  5
19
102
{ACAD_REACTORS
330
C
102
}
330
C
100
AcDbDictionary
281
     1
  0
ACDBDICTIONARYWDFLT
  5
E
102
{ACAD_REACTORS
330
C
102
}
330
C
100
AcDbDictionary
281
     1
  3
Normal
350
F
100
AcDbDictionaryWithDefault
340
F
  0
DICTIONARY
  5
3B
102
{ACAD_REACTORS
330
C
102
}
330
C
100
AcDbDictionary
281
     1
  3
A0
350
3C
  3
A1
350
3D
  3
A2
350
3E
  3
A3
350
3F
  3
A4
350
40
  3
A5
350
41
  3
A6
350
42
  3
A7
350
43
  3
A8
350
44
  3
A9
350
45
  3
B0
350
46
  3
B1
350
47
  3
B2
350
48
  3
B3
350
49
  3
B4
350
4A
  3
B5
350
4B
  3
B6
350
4C
  3
B7
350
4D
  3
B8
350
4E
  3
B9
350
4F
  3
C0
350
50
  3
C1
350
51
  3
C2
350
52
  3
C3
350
53
  3
C4
350
54
  3
C5
350
55
  3
C6
350
56
  3
C7
350
57
  3
C8
350
58
  3
C9
350
59
  3
D0
350
5A
  3
D1
350
5B
  3
D2
350
5C
  0
DICTIONARY
  5
35D
102
{ACAD_REACTORS
330
C
102
}
330
C
100
AcDbDictionary
281
     1
  0
DICTIONARY
  5
2A
102
{ACAD_REACTORS
330
C
102
}
330
C
100
AcDbDictionary
281
     1
  3
2dWireframe
350
2F
  3
3D Hidden
350
31
  3
3dWireframe
350
30
  3
Basic
350
32
  3
Brighten
350
36
  3
ColorChange
350
3A
  3
Conceptual
350
34
  3
Dim
350
35
  3
Facepattern
350
39
  3
Flat
350
2B
  3
FlatWithEdges
350
2C
  3
Gouraud
350
2D
  3
GouraudWithEdges
350
2E
  3
Linepattern
350
38
  3
Realistic
350
33
  3
Thicken
350
37
  0
DICTIONARY
  5
35B
102
{ACAD_REACTORS
330
C
102
}
330
C
100
AcDbDictionary
281
     1
  3
CANNOSCALE
350
35C
  3
PSOLHEIGHT
350
360
  3
PSOLWIDTH
350
35F
  0
LAYOUT
  5
1E
102
{ACAD_REACTORS
330
1A
102
}
330
1A
100
AcDbPlotSettings
  1

  2
none_device
  4

  6

 40
0.0
 41
0.0
 42
0.0
 43
0.0
 44
0.0
 45
0.0
 46
0.0
 47
0.0
 48
0.0
 49
0.0
140
0.0
141
0.0
142
1.0
143
1.0
 70
   688
 72
     0
 73
     0
 74
     5
  7

 75
    16
147
1.0
148
0.0
149
0.0
100
AcDbLayout
  1
Layout1
 70
     1
 71
     1
 10
0.0
 20
0.0
 11
420.0
 21
297.0
 12
0.0
 22
0.0
 32
0.0
 14
1.0000000000E+20
 24
1.0000000000E+20
 34
1.0000000000E+20
 15
-1.0000000000E+20
 25
-1.0000000000E+20
 35
-1.0000000000E+20
146
0.0
 13
0.0
 23
0.0
 33
0.0
 16
1.0
 26
0.0
 36
0.0
 17
0.0
 27
1.0
 37
0.0
 76
     0
330
1B
  0
LAYOUT
  5
26
102
{ACAD_REACTORS
330
1A
102
}
330
1A
100
AcDbPlotSettings
  1

  2
none_device
  4

  6

 40
0.0
 41
0.0
 42
0.0
 43
0.0
 44
0.0
 45
0.0
 46
0.0
 47
0.0
 48
0.0
 49
0.0
140
0.0
141
0.0
142
1.0
143
1.0
 70
   688
 72
     0
 73
     0
 74
     5
  7

 75
    16
147
1.0
148
0.0
149
0.0
100
AcDbLayout
  1
Layout2
 70
     1
 71
     2
 10
0.0
 20
0.0
 11
0.0
 21
0.0
 12
0.0
 22
0.0
 32
0.0
 14
0.0
 24
0.0
 34
0.0
 15
0.0
 25
0.0
 35
0.0
146
0.0
 13
0.0
 23
0.0
 33
0.0
 16
1.0
 26
0.0
 36
0.0
 17
0.0
 27
1.0
 37
0.0
 76
     0
330
23
  0
LAYOUT
  5
22
102
{ACAD_REACTORS
330
1A
102
}
330
1A
100
AcDbPlotSettings
  1

  2
none_device
  4

  6

 40
0.0
 41
0.0
 42
0.0
 43
0.0
 44
0.0
 45
0.0
 46
0.0
 47
0.0
 48
0.0
 49
0.0
140
0.0
141
0.0
142
1.0
143
1.0
 70
  1712
 72
     0
 73
     0
 74
     0
  7

 75
     0
147
1.0
148
0.0
149
0.0
100
AcDbLayout
  1
Model
 70
     1
 71
     0
 10
0.0
 20
0.0
 11
297.0
 21
210.0
 12
0.0
 22
0.0
 32
0.0
 14
0.0
 24
0.0
 34
0.0
 15
297.0
 25
210.0
 35
0.0
146
0.0
 13
0.0
 23
0.0
 33
0.0
 16
1.0
 26
0.0
 36
0.0
 17
0.0
 27
1.0
 37
0.0
 76
     0
330
1F
331
29
  0
MLINESTYLE
  5
18
102
{ACAD_REACTORS
330
17
102
}
330
17
100
AcDbMlineStyle
  2
Standard
 70
     0
  3

 62
   256
 51
90.0
 52
90.0
 71
     2
 49
0.5
 62
   256
  6
BYLAYER
 49
-0.5
 62
   256
  6
BYLAYER
  0
ACDBPLACEHOLDER
  5
F
102
{ACAD_REACTORS
330
E
102
}
330
E
  0
SCALE
  5
3C
102
{ACAD_REACTORS
330
3B
102
}
330
3B
100
AcDbScale
 70
     0
300
1:1
140
1.0
141
1.0
290
     1
  0
SCALE
  5
3D
102
{ACAD_REACTORS
330
3B
102
}
330
3B
100
AcDbScale
 70
     0
300
1:2
140
1.0
141
2.0
290
     0
  0
SCALE
  5
3E
102
{ACAD_REACTORS
330
3B
102
}
330
3B
100
AcDbScale
 70
     0
300
1:4
140
1.0
141
4.0
290
     0
  0
SCALE
  5
3F
102
{ACAD_REACTORS
330
3B
102
}
330
3B
100
AcDbScale
 70
     0
300
1:5
140
1.0
141
5.0
290
     0
  0
SCALE
  5
40
102
{ACAD_REACTORS
330
3B
102
}
330
3B
100
AcDbScale
 70
     0
300
1:8
140
1.0
141
8.0
290
     0
  0
SCALE
  5
41
102
{ACAD_REACTORS
330
3B
102
}
330
3B
100
AcDbScale
 70
     0
300
1:10
140
1.0
141
10.0
290
     0
  0
SCALE
  5
42
102
{ACAD_REACTORS
330
3B
102
}
330
3B
100
AcDbScale
 70
     0
300
1:16
140
1.0
141
16.0
290
     0
  0
SCALE
  5
43
102
{ACAD_REACTORS
330
3B
102
}
330
3B
100
AcDbScale
 70
     0
300
1:20
140
1.0
141
20.0
290
     0
  0
SCALE
  5
44
102
{ACAD_REACTORS
330
3B
102
}
330
3B
100
AcDbScale
 70
     0
300
1:30
140
1.0
141
30.0
290
     0
  0
SCALE
  5
45
102
{ACAD_REACTORS
330
3B
102
}
330
3B
100
AcDbScale
 70
     0
300
1:40
140
1.0
141
40.0
290
     0
  0
SCALE
  5
46
102
{ACAD_REACTORS
330
3B
102
}
330
3B
100
AcDbScale
 70
     0
300
1:50
140
1.0
141
50.0
290
     0
  0
SCALE
  5
47
102
{ACAD_REACTORS
330
3B
102
}
330
3B
100
AcDbScale
 70
     0
300
1:100
140
1.0
141
100.0
290
     0
  0
SCALE
  5
48
102
{ACAD_REACTORS
330
3B
102
}
330
3B
100
AcDbScale
 70
     0
300
2:1
140
2.0
141
1.0
290
     0
  0
SCALE
  5
49
102
{ACAD_REACTORS
330
3B
102
}
330
3B
100
AcDbScale
 70
     0
300
4:1
140
4.0
141
1.0
290
     0
  0
SCALE
  5
4A
102
{ACAD_REACTORS
330
3B
102
}
330
3B
100
AcDbScale
 70
     0
300
8:1
140
8.0
141
1.0
290
     0
  0
SCALE
  5
4B
102
{ACAD_REACTORS
330
3B
102
}
330
3B
100
AcDbScale
 70
     0
300
10:1
140
10.0
141
1.0
290
     0
  0
SCALE
  5
4C
102
{ACAD_REACTORS
330
3B
102
}
330
3B
100
AcDbScale
 70
     0
300
100:1
140
100.0
141
1.0
290
     0
  0
SCALE
  5
4D
102
{ACAD_REACTORS
330
3B
102
}
330
3B
100
AcDbScale
 70
     0
300
1/128" = 1'-0"
140
0.0078125
141
12.0
290
     0
  0
SCALE
  5
4E
102
{ACAD_REACTORS
330
3B
102
}
330
3B
100
AcDbScale
 70
     0
300
1/64" = 1'-0"
140
0.015625
141
12.0
290
     0
  0
SCALE
  5
4F
102
{ACAD_REACTORS
330
3B
102
}
330
3B
100
AcDbScale
 70
     0
300
1/32" = 1'-0"
140
0.03125
141
12.0
290
     0
  0
SCALE
  5
50
102
{ACAD_REACTORS
330
3B
102
}
330
3B
100
AcDbScale
 70
     0
300
1/16" = 1'-0"
140
0.0625
141
12.0
290
     0
  0
SCALE
  5
51
102
{ACAD_REACTORS
330
3B
102
}
330
3B
100
AcDbScale
 70
     0
300
3/32" = 1'-0"
140
0.09375
141
12.0
290
     0
  0
SCALE
  5
52
102
{ACAD_REACTORS
330
3B
102
}
330
3B
100
AcDbScale
 70
     0
300
1/8" = 1'-0"
140
0.125
141
12.0
290
     0
  0
SCALE
  5
53
102
{ACAD_REACTORS
330
3B
102
}
330
3B
100
AcDbScale
 70
     0
300
3/16" = 1'-0"
140
0.1875
141
12.0
290
     0
  0
SCALE
  5
54
102
{ACAD_REACTORS
330
3B
102
}
330
3B
100
AcDbScale
 70
     0
300
1/4" = 1'-0"
140
0.25
141
12.0
290
     0
  0
SCALE
  5
55
102
{ACAD_REACTORS
330
3B
102
}
330
3B
100
AcDbScale
 70
     0
300
3/8" = 1'-0"
140
0.375
141
12.0
290
     0
  0
SCALE
  5
56
102
{ACAD_REACTORS
330
3B
102
}
330
3B
100
AcDbScale
 70
     0
300
1/2" = 1'-0"
140
0.5
141
12.0
290
     0
  0
SCALE
  5
57
102
{ACAD_REACTORS
330
3B
102
}
330
3B
100
AcDbScale
 70
     0
300
3/4" = 1'-0"
140
0.75
141
12.0
290
     0
  0
SCALE
  5
58
102
{ACAD_REACTORS
330
3B
102
}
330
3B
100
AcDbScale
 70
     0
300
1" = 1'-0"
140
1.0
141
12.0
290
     0
  0
SCALE
  5
59
102
{ACAD_REACTORS
330
3B
102
}
330
3B
100
AcDbScale
 70
     0
300
1-1/2" = 1'-0"
140
1.5
141
12.0
290
     0
  0
SCALE
  5
5A
102
{ACAD_REACTORS
330
3B
102
}
330
3B
100
AcDbScale
 70
     0
300
3" = 1'-0"
140
3.0
141
12.0
290
     0
  0
SCALE
  5
5B
102
{ACAD_REACTORS
330
3B
102
}
330
3B
100
AcDbScale
 70
     0
300
6" = 1'-0"
140
6.0
141
12.0
290
     0
  0
SCALE
  5
5C
102
{ACAD_REACTORS
330
3B
102
}
330
3B
100
AcDbScale
 70
     0
300
1'-0" = 1'-0"
140
12.0
141
12.0
290
     0
  0
VISUALSTYLE
  5
2F
102
{ACAD_REACTORS
330
2A
102
}
330
2A
100
AcDbVisualStyle
  2
2dWireframe
 70
     4
 71
     0
 72
     2
 73
     0
 90
        0
 40
-0.6
 41
-30.0
 62
     5
 63
     7
 74
     1
 91
        4
 64
     7
 65
   257
 75
     1
175
     1
 42
1.0
 92
        0
 66
   257
 43
1.0
 76
     1
 77
     6
 78
     2
 67
     7
 79
     5
170
     0
171
     0
290
     0
174
     0
 93
        1
 44
0.0
173
     0
291
     0
 45
0.0
1001
ACAD
1000
AcDbSavedByObjectVersion
1070
     0
  0
VISUALSTYLE
  5
31
102
{ACAD_REACTORS
330
2A
102
}
330
2A
100
AcDbVisualStyle
  2
3D Hidden
 70
     6
 71
     1
 72
     2
 73
     2
 90
        0
 40
-0.6
 41
-30.0
 62
     5
 63
     7
 74
     2
 91
        2
 64
     7
 65
   257
 75
     2
175
     1
 42
40.0
 92
        0
 66
   257
 43
1.0
 76
     1
 77
     6
 78
     2
 67
     7
 79
     3
170
     0
171
     0
290
     0
174
     0
 93
        1
 44
0.0
173
     0
291
     0
 45
0.0
1001
ACAD
1000
AcDbSavedByObjectVersion
1070
     0
  0
VISUALSTYLE
  5
30
102
{ACAD_REACTORS
330
2A
102
}
330
2A
100
AcDbVisualStyle
  2
3dWireframe
 70
     5
 71
     0
 72
     2
 73
     0
 90
        0
 40
-0.6
 41
-30.0
 62
     5
 63
     7
 74
     1
 91
        4
 64
     7
 65
   257
 75
     1
175
     1
 42
1.0
 92
        0
 66
   257
 43
1.0
 76
     1
 77
     6
 78
     2
 67
     7
 79
     5
170
     0
171
     0
290
     0
174
     0
 93
        1
 44
0.0
173
     0
291
     0
 45
0.0
1001
ACAD
1000
AcDbSavedByObjectVersion
1070
     0
  0
VISUALSTYLE
  5
32
102
{ACAD_REACTORS
330
2A
102
}
330
2A
100
AcDbVisualStyle
  2
Basic
 70
     7
 71
     1
 72
     0
 73
     1
 90
        0
 40
-0.6
 41
-30.0
 62
     5
 63
     7
 74
     0
 91
        4
 64
     7
 65
   257
 75
     1
175
     1
 42
1.0
 92
        8
 66
     7
 43
1.0
 76
     1
 77
     6
 78
     2
 67
     7
 79
     5
170
     0
171
     0
290
     0
174
     0
 93
        1
 44
0.0
173
     0
291
     1
 45
0.0
1001
ACAD
1000
AcDbSavedByObjectVersion
1070
     0
  0
VISUALSTYLE
  5
36
102
{ACAD_REACTORS
330
2A
102
}
330
2A
100
AcDbVisualStyle
  2
Brighten
 70
    12
 71
     2
 72
     2
 73
     0
 90
        0
 40
-0.6
 41
-30.0
 62
     5
 63
     7
 74
     1
 91
        4
 64
     7
 65
   257
 75
     1
175
     1
 42
1.0
 92
        8
 66
     7
 43
1.0
 76
     1
 77
     6
 78
     2
 67
     7
 79
     5
170
     0
171
     0
290
     0
174
     0
 93
        1
 44
50.0
173
     0
291
     1
 45
0.0
1001
ACAD
1000
AcDbSavedByObjectVersion
1070
     0
  0
VISUALSTYLE
  5
3A
102
{ACAD_REACTORS
330
2A
102
}
330
2A
100
AcDbVisualStyle
  2
ColorChange
 70
    16
 71
     2
 72
     2
 73
     3
 90
        0
 40
-0.6
 41
-30.0
 62
     5
 63
     8
 74
     1
 91
        4
 64
     7
 65
   257
 75
     1
175
     1
 42
1.0
 92
        8
 66
     8
 43
1.0
 76
     1
 77
     6
 78
     2
 67
     7
 79
     5
170
     0
171
     0
290
     0
174
     0
 93
        1
 44
0.0
173
     0
291
     1
 45
0.0
1001
ACAD
1000
AcDbSavedByObjectVersion
1070
     0
  0
VISUALSTYLE
  5
34
102
{ACAD_REACTORS
330
2A
102
}
330
2A
100
AcDbVisualStyle
  2
Conceptual
 70
     9
 71
     3
 72
     2
 73
     0
 90
        0
 40
-0.6
 41
-30.0
 62
     5
 63
     7
 74
     2
 91
        2
 64
     7
 65
   257
 75
     1
175
     1
 42
40.0
 92
        8
 66
     7
 43
1.0
 76
     1
 77
     6
 78
     2
 67
     7
 79
     3
170
     0
171
     0
290
     0
174
     0
 93
        1
 44
0.0
173
     0
291
     0
 45
0.0
1001
ACAD
1000
AcDbSavedByObjectVersion
1070
     0
  0
VISUALSTYLE
  5
35
102
{ACAD_REACTORS
330
2A
102
}
330
2A
100
AcDbVisualStyle
  2
Dim
 70
    11
 71
     2
 72
     2
 73
     0
 90
        0
 40
-0.6
 41
-30.0
 62
     5
 63
     7
 74
     1
 91
        4
 64
     7
 65
   257
 75
     1
175
     1
 42
1.0
 92
        8
 66
     7
 43
1.0
 76
     1
 77
     6
 78
     2
 67
     7
 79
     5
170
     0
171
     0
290
     0
174
     0
 93
        1
 44
-50.0
173
     0
291
     1
 45
0.0
1001
ACAD
1000
AcDbSavedByObjectVersion
1070
     0
  0
VISUALSTYLE
  5
39
102
{ACAD_REACTORS
330
2A
102
}
330
2A
100
AcDbVisualStyle
  2
Facepattern
 70
    15
 71
     2
 72
     2
 73
     0
 90
        0
 40
-0.6
 41
-30.0
 62
     5
 63
     7
 74
     1
 91
        4
 64
     7
 65
   257
 75
     1
175
     1
 42
1.0
 92
        8
 66
     7
 43
1.0
 76
     1
 77
     6
 78
     2
 67
     7
 79
     5
170
     0
171
     0
290
     0
174
     0
 93
        1
 44
0.0
173
     0
291
     1
 45
0.0
1001
ACAD
1000
AcDbSavedByObjectVersion
1070
     0
  0
VISUALSTYLE
  5
2B
102
{ACAD_REACTORS
330
2A
102
}
330
2A
100
AcDbVisualStyle
  2
Flat
 70
     0
 71
     2
 72
     1
 73
     1
 90
        2
 40
-0.6
 41
30.0
 62
     5
 63
     7
 74
     0
 91
        4
 64
     7
 65
   257
 75
     1
175
     1
 42
1.0
 92
        8
 66
     7
 43
1.0
 76
     1
 77
     6
 78
     2
 67
     7
 79
     5
170
     0
171
     0
290
     0
174
     0
 93
       13
 44
0.0
173
     0
291
     1
 45
0.0
1001
ACAD
1000
AcDbSavedByObjectVersion
1070
     0
  0
VISUALSTYLE
  5
2C
102
{ACAD_REACTORS
330
2A
102
}
330
2A
100
AcDbVisualStyle
  2
FlatWithEdges
 70
     1
 71
     2
 72
     1
 73
     1
 90
        2
 40
-0.6
 41
30.0
 62
     5
 63
     7
 74
     1
 91
        4
 64
     7
 65
   257
 75
     1
175
     1
 42
1.0
 92
        0
 66
   257
 43
1.0
 76
     1
 77
     6
 78
     2
 67
     7
 79
     5
170
     0
171
     0
290
     0
174
     0
 93
       13
 44
0.0
173
     0
291
     1
 45
0.0
1001
ACAD
1000
AcDbSavedByObjectVersion
1070
     0
  0
VISUALSTYLE
  5
2D
102
{ACAD_REACTORS
330
2A
102
}
330
2A
100
AcDbVisualStyle
  2
Gouraud
 70
     2
 71
     2
 72
     2
 73
     1
 90
        2
 40
-0.6
 41
30.0
 62
     5
 63
     7
 74
     0
 91
        4
 64
     7
 65
   257
 75
     1
175
     1
 42
1.0
 92
        0
 66
     7
 43
1.0
 76
     1
 77
     6
 78
     2
 67
     7
 79
     5
170
     0
171
     0
290
     0
174
     0
 93
       13
 44
0.0
173
     0
291
     1
 45
0.0
1001
ACAD
1000
AcDbSavedByObjectVersion
1070
     0
  0
VISUALSTYLE
  5
2E
102
{ACAD_REACTORS
330
2A
102
}
330
2A
100
AcDbVisualStyle
  2
GouraudWithEdges
 70
     3
 71
     2
 72
     2
 73
     1
 90
        2
 40
-0.6
 41
30.0
 62
     5
 63
     7
 74
     1
 91
        4
 64
     7
 65
   257
 75
     1
175
     1
 42
1.0
 92
        0
 66
   257
 43
1.0
 76
     1
 77
     6
 78
     2
 67
     7
 79
     5
170
     0
171
     0
290
     0
174
     0
 93
       13
 44
0.0
173
     0
291
     1
 45
0.0
1001
ACAD
1000
AcDbSavedByObjectVersion
1070
     0
  0
VISUALSTYLE
  5
38
102
{ACAD_REACTORS
330
2A
102
}
330
2A
100
AcDbVisualStyle
  2
Linepattern
 70
    14
 71
     2
 72
     2
 73
     0
 90
        0
 40
-0.6
 41
-30.0
 62
     5
 63
     7
 74
     1
 91
        4
 64
     7
 65
   257
 75
     7
175
     7
 42
1.0
 92
        8
 66
     7
 43
1.0
 76
     1
 77
     6
 78
     2
 67
     7
 79
     5
170
     0
171
     0
290
     0
174
     0
 93
        1
 44
0.0
173
     0
291
     1
 45
0.0
1001
ACAD
1000
AcDbSavedByObjectVersion
1070
     0
  0
VISUALSTYLE
  5
33
102
{ACAD_REACTORS
330
2A
102
}
330
2A
100
AcDbVisualStyle
  2
Realistic
 70
     8
 71
     2
 72
     2
 73
     0
 90
        0
 40
-0.6
 41
-30.0
 62
     5
 63
     7
 74
     1
 91
        0
 64
     7
 65
   257
 75
     1
175
     1
 42
1.0
 92
        8
 66
     8
 43
1.0
 76
     1
 77
     6
 78
     2
 67
     7
 79
     5
170
     0
171
     0
290
     0
174
     0
 93
       13
 44
0.0
173
     0
291
     0
 45
0.0
1001
ACAD
1000
AcDbSavedByObjectVersion
1070
     0
  0
VISUALSTYLE
  5
37
102
{ACAD_REACTORS
330
2A
102
}
330
2A
100
AcDbVisualStyle
  2
Thicken
 70
    13
 71
     2
 72
     2
 73
     0
 90
        0
 40
-0.6
 41
-30.0
 62
     5
 63
     7
 74
     1
 91
        4
 64
     7
 65
   257
 75
     1
175
     1
 42
1.0
 92
       12
 66
     7
 43
1.0
 76
     1
 77
     6
 78
     2
 67
     7
 79
     5
170
     0
171
     0
290
     0
174
     0
 93
        1
 44
0.0
173
     0
291
     1
 45
0.0
1001
ACAD
1000
AcDbSavedByObjectVersion
1070
     0
  0
DICTIONARYVAR
  5
35C
102
{ACAD_REACTORS
330
35B
102
}
330
35B
100
DictionaryVariables
280
     0
  1
1:1
  0
DICTIONARYVAR
  5
360
102
{ACAD_REACTORS
330
35B
102
}
330
35B
100
DictionaryVariables
280
     0
  1
80.000000
  0
DICTIONARYVAR
  5
35F
102
{ACAD_REACTORS
330
35B
102
}
330
35B
100
DictionaryVariables
280
     0
  1
5.000000
  0
ENDSEC
  0
EOF
