  0
SECTION
  2
HEADER
  9
$ACADVER
  1
AC1015
  9
$ACADMAINTVER
 70
     6
  9
$DWGCODEPAGE
  3
ANSI_1252
  9
$INSBASE
 10
0.0
 20
0.0
 30
0.0
  9
$EXTMIN
 10
0.0
 20
0.0
 30
0.0
  9
$EXTMAX
 10
297.0
 20
210.0
 30
0.0
  9
$LIMMIN
 10
0.0
 20
0.0
  9
$LIMMAX
 10
297.0
 20
210.0
  9
$ORTHOMODE
 70
     0
  9
$REGENMODE
 70
     1
  9
$FILLMODE
 70
     1
  9
$QTEXTMODE
 70
     0
  9
$MIRRTEXT
 70
     1
  9
$LTSCALE
 40
1.0
  9
$ATTMODE
 70
     1
  9
$TEXTSIZE
 40
2.0
  9
$TRACEWID
 40
1.0
  9
$TEXTSTYLE
  7
STANDARD
  9
$CLAYER
  8
0
  9
$CELTYPE
  6
ByLayer
  9
$CECOLOR
 62
   256
  9
$CELTSCALE
 40
1.0
  9
$DISPSILH
 70
     0
  9
$DIMSCALE
 40
1.0
  9
$DIMASZ
 40
3.0
  9
$DIMEXO
 40
0.0
  9
$DIMDLI
 40
3.75
  9
$DIMRND
 40
0.0
  9
$DIMDLE
 40
0.0
  9
$DIMEXE
 40
1.0
  9
$DIMTP
 40
0.0
  9
$DIMTM
 40
0.0
  9
$DIMTXT
 40
2.0
  9
$DIMCEN
 40
2.5
  9
$DIMTSZ
 40
0.0
  9
$DIMTOL
 70
     0
  9
$DIMLIM
 70
     0
  9
$DIMTIH
 70
     1
  9
$DIMTOH
 70
     1
  9
$DIMSE1
 70
     0
  9
$DIMSE2
 70
     0
  9
$DIMTAD
 70
     1
  9
$DIMZIN
 70
     0
  9
$DIMBLK
  1

  9
$DIMASO
 70
     1
  9
$DIMSHO
 70
     1
  9
$DIMPOST
  1

  9
$DIMAPOST
  1

  9
$DIMALT
 70
     0
  9
$DIMALTD
 70
     3
  9
$DIMALTF
 40
0.0393700787
  9
$DIMLFAC
 40
1.0
  9
$DIMTOFL
 70
     1
  9
$DIMTVP
 40
0.0
  9
$DIMTIX
 70
     0
  9
$DIMSOXD
 70
     0
  9
$DIMSAH
 70
     0
  9
$DIMBLK1
  1

  9
$DIMBLK2
  1

  9
$DIMSTYLE
  2
ISO-25
  9
$DIMCLRD
 70
     0
  9
$DIMCLRE
 70
     0
  9
$DIMCLRT
 70
     0
  9
$DIMTFAC
 40
1.0
  9
$DIMGAP
 40
1.524
  9
$DIMJUST
 70
     0
  9
$DIMSD1
 70
     0
  9
$DIMSD2
 70
     0
  9
$DIMTOLJ
 70
     0
  9
$DIMTZIN
 70
     0
  9
$DIMALTZ
 70
     0
  9
$DIMALTTZ
 70
     0
  9
$DIMUPT
 70
     0
  9
$DIMDEC
 70
     2
  9
$DIMTDEC
 70
     2
  9
$DIMALTU
 70
     2
  9
$DIMALTTD
 70
     3
  9
$DIMTXSTY
  7
STANDARD
  9
$DIMAUNIT
 70
     0
  9
$DIMADEC
 70
     0
  9
$DIMALTRND
 40
0.0
  9
$DIMAZIN
 70
     0
  9
$DIMDSEP
 70
    44
  9
$DIMATFIT
 70
     3
  9
$DIMFRAC
 70
     0
  9
$DIMLDRBLK
  1

  9
$DIMLUNIT
 70
     2
  9
$DIMLWD
 70
    -2
  9
$DIMLWE
 70
    -2
  9
$DIMTMOVE
 70
     0
  9
$LUNITS
 70
     2
  9
$LUPREC
 70
     2
  9
$SKETCHINC
 40
1.0
  9
$FILLETRAD
 40
10.0
  9
$AUNITS
 70
     0
  9
$AUPREC
 70
     0
  9
$MENU
  1
.
  9
$ELEVATION
 40
0.0
  9
$PELEVATION
 40
0.0
  9
$THICKNESS
 40
0.0
  9
$LIMCHECK
 70
     0
  9
$CHAMFERA
 40
10.0
  9
$CHAMFERB
 40
10.0
  9
$CHAMFERC
 40
20.0
  9
$CHAMFERD
 40
0.0
  9
$SKPOLY
 70
     0
  9
$TDCREATE
 40
2454910.446309838
  9
$TDUCREATE
 40
2454910.404643171
  9
$TDUPDATE
 40
2454910.44630985
  9
$TDUUPDATE
 40
2454910.404643183
  9
$TDINDWG
 40
0.0000000116
  9
$TDUSRTIMER
 40
0.0000000116
  9
$USRTIMER
 70
     1
  9
$ANGBASE
 50
0.0
  9
$ANGDIR
 70
     0
  9
$PDMODE
 70
     0
  9
$PDSIZE
 40
-1.0
  9
$PLINEWID
 40
0.0
  9
$SPLFRAME
 70
     0
  9
$SPLINETYPE
 70
     6
  9
$SPLINESEGS
 70
     8
  9
$HANDSEED
  5
364
  9
$SURFTAB1
 70
     6
  9
$SURFTAB2
 70
     6
  9
$SURFTYPE
 70
     6
  9
$SURFU
 70
     6
  9
$SURFV
 70
     6
  9
$UCSBASE
  2

  9
$UCSNAME
  2

  9
$UCSORG
 10
0.0
 20
0.0
 30
0.0
  9
$UCSXDIR
 10
1.0
 20
0.0
 30
0.0
  9
$UCSYDIR
 10
0.0
 20
1.0
 30
0.0
  9
$UCSORTHOREF
  2

  9
$UCSORTHOVIEW
 70
     0
  9
$UCSORGTOP
 10
0.0
 20
0.0
 30
0.0
  9
$UCSORGBOTTOM
 10
0.0
 20
0.0
 30
0.0
  9
$UCSORGLEFT
 10
0.0
 20
0.0
 30
0.0
  9
$UCSORGRIGHT
 10
0.0
 20
0.0
 30
0.0
  9
$UCSORGFRONT
 10
0.0
 20
0.0
 30
0.0
  9
$UCSORGBACK
 10
0.0
 20
0.0
 30
0.0
  9
$PUCSBASE
  2

  9
$PUCSNAME
  2

  9
$PUCSORG
 10
0.0
 20
0.0
 30
0.0
  9
$PUCSXDIR
 10
1.0
 20
0.0
 30
0.0
  9
$PUCSYDIR
 10
0.0
 20
1.0
 30
0.0
  9
$PUCSORTHOREF
  2

  9
$PUCSORTHOVIEW
 70
     0
  9
$PUCSORGTOP
 10
0.0
 20
0.0
 30
0.0
  9
$PUCSORGBOTTOM
 10
0.0
 20
0.0
 30
0.0
  9
$PUCSORGLEFT
 10
0.0
 20
0.0
 30
0.0
  9
$PUCSORGRIGHT
 10
0.0
 20
0.0
 30
0.0
  9
$PUCSORGFRONT
 10
0.0
 20
0.0
 30
0.0
  9
$PUCSORGBACK
 10
0.0
 20
0.0
 30
0.0
  9
$USERI1
 70
     0
  9
$USERI2
 70
     0
  9
$USERI3
 70
     0
  9
$USERI4
 70
     0
  9
$USERI5
 70
     0
  9
$USERR1
 40
0.0
  9
$USERR2
 40
0.0
  9
$USERR3
 40
0.0
  9
$USERR4
 40
0.0
  9
$USERR5
 40
0.0
  9
$WORLDVIEW
 70
     1
  9
$SHADEDGE
 70
     3
  9
$SHADEDIF
 70
    70
  9
$TILEMODE
 70
     1
  9
$MAXACTVP
 70
    64
  9
$PINSBASE
 10
0.0
 20
0.0
 30
0.0
  9
$PLIMCHECK
 70
     0
  9
$PEXTMIN
 10
1.0000000000E+20
 20
1.0000000000E+20
 30
1.0000000000E+20
  9
$PEXTMAX
 10
-1.0000000000E+20
 20
-1.0000000000E+20
 30
-1.0000000000E+20
  9
$PLIMMIN
 10
0.0
 20
0.0
  9
$PLIMMAX
 10
420.0
 20
297.0
  9
$UNITMODE
 70
     0
  9
$VISRETAIN
 70
     1
  9
$PLINEGEN
 70
     0
  9
$PSLTSCALE
 70
     1
  9
$TREEDEPTH
 70
  3020
  9
$CMLSTYLE
  2
Standard
  9
$CMLJUST
 70
     0
  9
$CMLSCALE
 40
20.0
  9
$PROXYGRAPHICS
 70
     1
  9
$MEASUREMENT
 70
     1
  9
$CELWEIGHT
370
    -1
  9
$ENDCAPS
280
     0
  9
$JOINSTYLE
280
     0
  9
$LWDISPLAY
290
     1
  9
$INSUNITS
 70
     4
  9
$HYPERLINKBASE
  1

  9
$STYLESHEET
  1

  9
$XEDIT
290
     1
  9
$CEPSNTYPE
380
     0
  9
$PSTYLEMODE
290
     1
  9
$FINGERPRINTGUID
  2
{9A3EED66-9476-430A-92F9-949DF3E5264F}
  9
$VERSIONGUID
  2
{FAEB1C32-E019-11D5-929B-00C0DF256EC4}
  9
$EXTNAMES
290
     1
  9
$PSVPSCALE
 40
0.0
  9
$OLESTARTUP
290
     0
  0
ENDSEC
  0
SECTION
  2
CLASSES
  0
CLASS
  1
ACDBDICTIONARYWDFLT
  2
AcDbDictionaryWithDefault
  3
ObjectDBX Classes
 90
        0
280
     0
281
     0
  0
CLASS
  1
VISUALSTYLE
  2
AcDbVisualStyle
  3
ObjectDBX Classes
 90
     4095
280
     0
281
     0
  0
CLASS
  1
SCALE
  2
AcDbScale
  3
ObjectDBX Classes
 90
     1153
280
     0
281
     0
  0
CLASS
  1
DICTIONARYVAR
  2
AcDbDictionaryVar
  3
ObjectDBX Classes
 90
        0
280
     0
281
     0
  0
CLASS
  1
ACDBPLACEHOLDER
  2
AcDbPlaceHolder
  3
ObjectDBX Classes
 90
        0
280
     0
281
     0
  0
CLASS
  1
LAYOUT
  2
AcDbLayout
  3
ObjectDBX Classes
 90
        0
280
     0
281
     0
  0
ENDSEC
  0
SECTION
  2
TABLES
  0
TABLE
  2
VPORT
  5
8
330
0
100
AcDbSymbolTable
 70
     1
  0
VPORT
  5
29
330
8
100
AcDbSymbolTableRecord
100
AcDbViewportTableRecord
  2
*Active
 70
     0
 10
0.0
 20
0.0
 11
1.0
 21
1.0
 12
148.5
 22
105.0
 13
0.0
 23
0.0
 14
10.0
 24
10.0
 15
10.0
 25
10.0
 16
0.0
 26
0.0
 36
1.0
 17
0.0
 27
0.0
 37
0.0
 40
210.0
 41
1.4142857143
 42
50.0
 43
0.0
 44
0.0
 50
0.0
 51
0.0
 71
     0
 72
  2000
 73
     1
 74
     3
 75
     0
 76
     0
 77
     0
 78
     0
281
     0
 65
     1
110
0.0
120
0.0
130
0.0
111
1.0
121
0.0
131
0.0
112
0.0
122
1.0
132
0.0
 79
     0
146
0.0
  0
ENDTAB
  0
TABLE
  2
LTYPE
  5
5
330
0
100
AcDbSymbolTable
 70
     8
  0
LTYPE
  5
14
330
5
100
AcDbSymbolTableRecord
100
AcDbLinetypeTableRecord
  2
ByBlock
 70
     0
  3

 72
    65
 73
     0
 40
0.0
  0
LTYPE
  5
15
330
5
100
AcDbSymbolTableRecord
100
AcDbLinetypeTableRecord
  2
ByLayer
 70
     0
  3

 72
    65
 73
     0
 40
0.0
  0
LTYPE
  5
16
330
5
100
AcDbSymbolTableRecord
100
AcDbLinetypeTableRecord
  2
Continuous
 70
     0
  3
Solid line
 72
    65
 73
     0
 40
0.0
  0
LTYPE
  5
5D
330
5
100
AcDbSymbolTableRecord
100
AcDbLinetypeTableRecord
  2
SLD-Durchgehend
 70
     0
  3
SolidWorks Line Style
 72
    65
 73
     0
 40
0.0
  0
LTYPE
  5
5E
330
5
100
AcDbSymbolTableRecord
100
AcDbLinetypeTableRecord
  2
SLD-Gestrichelt
 70
     0
  3
SolidWorks Line Style
 72
    65
 73
     2
 40
1.905
 49
1.27
 74
     0
 49
-0.635
 74
     0
  0
LTYPE
  5
5F
330
5
100
AcDbSymbolTableRecord
100
AcDbLinetypeTableRecord
  2
SLD-Phantom
 70
     0
  3
SolidWorks Line Style
 72
    65
 73
     6
 40
12.7
 49
6.35
 74
     0
 49
-1.27
 74
     0
 49
1.27
 74
     0
 49
-1.27
 74
     0
 49
1.27
 74
     0
 49
-1.27
 74
     0
  0
LTYPE
  5
60
330
5
100
AcDbSymbolTableRecord
100
AcDbLinetypeTableRecord
  2
SLD-Kette
 70
     0
  3
SolidWorks Line Style
 72
    65
 73
     4
 40
10.16
 49
6.35
 74
     0
 49
-1.27
 74
     0
 49
1.27
 74
     0
 49
-1.27
 74
     0
  0
LTYPE
  5
61
330
5
100
AcDbSymbolTableRecord
100
AcDbLinetypeTableRecord
  2
SLD-Punktstrich
 70
     0
  3
SolidWorks Line Style
 72
    65
 73
     4
 40
19.05
 49
15.24
 74
     0
 49
-1.27
 74
     0
 49
1.27
 74
     0
 49
-1.27
 74
     0
  0
LTYPE
  5
62
330
5
100
AcDbSymbolTableRecord
100
AcDbLinetypeTableRecord
  2
SLD-Naht
 70
     0
  3
SolidWorks Line Style
 72
    65
 73
     2
 40
0.635
 49
0.0
 74
     0
 49
-0.635
 74
     0
  0
LTYPE
  5
63
330
5
100
AcDbSymbolTableRecord
100
AcDbLinetypeTableRecord
  2
SLD-Dicke-Dünne-Kette
 70
     0
  3
SolidWorks Line Style
 72
    65
 73
     4
 40
10.16
 49
6.35
 74
     0
 49
-1.27
 74
     0
 49
1.27
 74
     0
 49
-1.27
 74
     0
  0
ENDTAB
  0
TABLE
  2
LAYER
  5
2
330
0
100
AcDbSymbolTable
 70
     5
  0
LAYER
  5
10
330
2
100
AcDbSymbolTableRecord
100
AcDbLayerTableRecord
  2
0
 70
     0
 62
     7
  6
Continuous
370
    -3
390
F
  0
LAYER
  5
64
330
2
100
AcDbSymbolTableRecord
100
AcDbLayerTableRecord
  2
FORMAT
 70
     0
 62
     7
  6
SLD-Durchgehend
370
    -3
390
F
  0
LAYER
  5
65
330
2
100
AcDbSymbolTableRecord
100
AcDbLayerTableRecord
  2
VERMASSUNG
 70
     0
 62
     7
  6
SLD-Durchgehend
370
    -3
390
F
  0
LAYER
  5
66
330
2
100
AcDbSymbolTableRecord
100
AcDbLayerTableRecord
  2
KOPF_DÜNN
 70
     0
 62
     7
  6
SLD-Durchgehend
370
    -3
390
F
  0
LAYER
  5
67
330
2
100
AcDbSymbolTableRecord
100
AcDbLayerTableRecord
  2
KOPF_DICK
 70
     0
 62
     7
  6
SLD-Durchgehend
370
    15
390
F
  0
ENDTAB
  0
TABLE
  2
STYLE
  5
3
330
0
100
AcDbSymbolTable
 70
     2
  0
STYLE
  5
11
330
3
100
AcDbSymbolTableRecord
100
AcDbTextStyleTableRecord
  2
STANDARD
 70
     0
 40
0.0
 41
1.0
 50
0.0
 71
     0
 42
2.5
  3
ISOCPEUR.TTF
  4

1001
ACAD
1000
ISOCPEUR
1071
       34
  0
STYLE
  5
68
330
3
100
AcDbSymbolTableRecord
100
AcDbTextStyleTableRecord
  2
SLDTEXTSTYLE0
 70
     0
 40
0.0
 41
1.0
 50
0.0
 71
     0
 42
0.2
  3
ISOCPEUR.TTF
  4

1001
ACAD
1000
ISOCPEUR
1071
      290
  0
ENDTAB
  0
TABLE
  2
VIEW
  5
6
330
0
100
AcDbSymbolTable
 70
     0
  0
ENDTAB
  0
TABLE
  2
UCS
  5
7
330
0
100
AcDbSymbolTable
 70
     0
  0
ENDTAB
  0
TABLE
  2
APPID
  5
9
330
0
100
AcDbSymbolTable
 70
     1
  0
APPID
  5
12
330
9
100
AcDbSymbolTableRecord
100
AcDbRegAppTableRecord
  2
ACAD
 70
     0
  0
ENDTAB
  0
TABLE
  2
DIMSTYLE
  5
A
330
0
100
AcDbSymbolTable
 70
     4
100
AcDbDimStyleTable
  0
DIMSTYLE
105
27
330
A
100
AcDbSymbolTableRecord
100
AcDbDimStyleTableRecord
  2
ISO-25
 70
     0
 41
2.5
 42
0.625
 43
3.75
 44
1.25
 73
     0
 74
     0
 77
     1
 78
     8
140
2.5
141
2.5
143
0.0393700787
147
0.625
171
     3
172
     1
271
     2
272
     2
274
     3
278
    44
283
     0
284
     8
340
11
  0
DIMSTYLE
105
279
102
{ACAD_REACTORS
330
278
330
285
330
28F
330
299
102
}
330
A
100
AcDbSymbolTableRecord
100
AcDbDimStyleTableRecord
  2
SLDDIMSTYLE0
 70
     0
 41
3.0
 44
0.0
 45
0.000000001
 73
     0
 74
     0
 77
     1
 78
    12
140
2.0
147
0.5
173
     1
271
     2
272
     3
284
    12
340
68
  0
DIMSTYLE
105
2A4
102
{ACAD_REACTORS
330
2A3
102
}
330
A
100
AcDbSymbolTableRecord
100
AcDbDimStyleTableRecord
  2
SLDDIMSTYLE1
 70
     0
 41
3.0
 44
0.0
 73
     0
 74
     0
 77
     1
 78
    12
140
2.0
147
0.5
173
     1
272
     3
284
    12
340
68
  0
DIMSTYLE
105
346
102
{ACAD_REACTORS
330
345
102
}
330
A
100
AcDbSymbolTableRecord
100
AcDbDimStyleTableRecord
  2
SLDDIMSTYLE2
 70
     0
 41
3.0
 44
0.0
 45
0.000000001
 73
     0
 74
     0
 77
     1
 78
    12
140
2.0
147
0.5
173
     1
271
     2
272
     3
284
    12
340
68
  0
ENDTAB
  0
TABLE
  2
BLOCK_RECORD
  5
1
330
0
100
AcDbSymbolTable
 70
     8
  0
BLOCK_RECORD
  5
1F
330
1
100
AcDbSymbolTableRecord
100
AcDbBlockTableRecord
  2
*Model_Space
340
22
  0
BLOCK_RECORD
  5
1B
330
1
100
AcDbSymbolTableRecord
100
AcDbBlockTableRecord
  2
*Paper_Space
340
1E
  0
BLOCK_RECORD
  5
23
330
1
100
AcDbSymbolTableRecord
100
AcDbBlockTableRecord
  2
*Paper_Space0
340
26
  0
BLOCK_RECORD
  5
27A
330
1
100
AcDbSymbolTableRecord
100
AcDbBlockTableRecord
  2
*D1
340
0
  0
BLOCK_RECORD
  5
286
330
1
100
AcDbSymbolTableRecord
100
AcDbBlockTableRecord
  2
*D2
340
0
  0
BLOCK_RECORD
  5
290
330
1
100
AcDbSymbolTableRecord
100
AcDbBlockTableRecord
  2
*D3
340
0
  0
BLOCK_RECORD
  5
29A
330
1
100
AcDbSymbolTableRecord
100
AcDbBlockTableRecord
  2
*D4
340
0
  0
BLOCK_RECORD
  5
2A5
330
1
100
AcDbSymbolTableRecord
100
AcDbBlockTableRecord
  2
*D5
340
0
  0
BLOCK_RECORD
  5
347
330
1
100
AcDbSymbolTableRecord
100
AcDbBlockTableRecord
  2
*D6
340
0
  0
BLOCK_RECORD
  5
351
330
1
100
AcDbSymbolTableRecord
100
AcDbBlockTableRecord
  2
SW_CENTERMARKSYMBOL_0
340
0
102
{BLKREFS
331
35C
102
}
  0
ENDTAB
  0
ENDSEC
  0
SECTION
  2
BLOCKS
  0
BLOCK
  5
20
330
1F
100
AcDbEntity
  8
0
100
AcDbBlockBegin
  2
*Model_Space
 70
     0
 10
0.0
 20
0.0
 30
0.0
  3
*Model_Space
  1

  0
ENDBLK
  5
21
330
1F
100
AcDbEntity
  8
0
100
AcDbBlockEnd
  0
BLOCK
  5
1C
330
1B
100
AcDbEntity
 67
     1
  8
0
100
AcDbBlockBegin
  2
*Paper_Space
 70
     0
 10
0.0
 20
0.0
 30
0.0
  3
*Paper_Space
  1

  0
ENDBLK
  5
1D
330
1B
100
AcDbEntity
 67
     1
  8
0
100
AcDbBlockEnd
  0
BLOCK
  5
24
330
23
100
AcDbEntity
  8
0
100
AcDbBlockBegin
  2
*Paper_Space0
 70
     0
 10
0.0
 20
0.0
 30
0.0
  3
*Paper_Space0
  1

  0
ENDBLK
  5
25
330
23
100
AcDbEntity
  8
0
100
AcDbBlockEnd
  0
BLOCK
  5
27B
330
27A
100
AcDbEntity
  8
0
100
AcDbBlockBegin
  2
*D1
 70
     1
 10
0.0
 20
0.0
 30
0.0
  3
*D1
  1

  0
SOLID
  5
27D
330
27A
100
AcDbEntity
  8
VERMASSUNG
100
AcDbTrace
 10
141.7918317943
 20
147.7535989983
 30
0.0
 11
141.3418317943
 21
144.7535989983
 31
0.0
 12
142.2418317943
 22
144.7535989983
 32
0.0
 13
142.2418317943
 23
144.7535989983
 33
0.0
  0
SOLID
  5
27E
330
27A
100
AcDbEntity
  8
VERMASSUNG
100
AcDbTrace
 10
141.7918317943
 20
84.7535989983
 30
0.0
 11
142.2418317943
 21
87.7535989983
 31
0.0
 12
141.3418317943
 22
87.7535989983
 32
0.0
 13
141.3418317943
 23
87.7535989983
 33
0.0
  0
LINE
  5
27F
330
27A
100
AcDbEntity
  8
VERMASSUNG
100
AcDbLine
 10
184.153141445
 20
147.7535989983
 30
0.0
 11
140.7918317943
 21
147.7535989983
 31
0.0
  0
LINE
  5
280
330
27A
100
AcDbEntity
  8
VERMASSUNG
100
AcDbLine
 10
184.153141445
 20
84.7535989983
 30
0.0
 11
140.7918317943
 21
84.7535989983
 31
0.0
  0
LINE
  5
281
330
27A
100
AcDbEntity
  8
VERMASSUNG
100
AcDbLine
 10
141.7918317943
 20
147.7535989983
 30
0.0
 11
141.7918317943
 21
84.7535989983
 31
0.0
  0
MTEXT
  5
282
330
27A
100
AcDbEntity
  8
VERMASSUNG
100
AcDbMText
 10
138.9918320176
 20
110.0494366596
 30
0.0
 40
2.0
 41
0.0
 71
     1
 72
     1
  1
HSK 
  7
SLDTEXTSTYLE0
 11
-7.044195017643634E-15
 21
1.0
 31
0.0
 73
     1
 44
1.0
  0
MTEXT
  5
283
330
27A
100
AcDbEntity
  8
VERMASSUNG
100
AcDbMText
 10
139.1918319689
 20
116.0494367117
 30
0.0
 40
2.0
 41
0.0
 71
     1
 72
     1
  1
%%c
  7
SLDTEXTSTYLE0
 11
-7.044195017643634E-15
 21
1.0
 31
0.0
 73
     1
 44
1.0
  0
MTEXT
  5
284
330
27A
100
AcDbEntity
  8
VERMASSUNG
100
AcDbMText
 10
139.1918316779
 20
119.6580094015
 30
0.0
 40
2.0
 41
0.0
 71
     1
 72
     1
  1
63
  7
SLDTEXTSTYLE0
 11
-7.044195017643634E-15
 21
1.0
 31
0.0
 73
     1
 44
1.0
  0
ENDBLK
  5
27C
330
27A
100
AcDbEntity
  8
0
100
AcDbBlockEnd
  0
BLOCK
  5
287
330
286
100
AcDbEntity
  8
0
100
AcDbBlockBegin
  2
*D2
 70
     1
 10
0.0
 20
0.0
 30
0.0
  3
*D2
  1

  0
SOLID
  5
289
330
286
100
AcDbEntity
  8
VERMASSUNG
100
AcDbTrace
 10
151.953141445
 20
163.7535989983
 30
0.0
 11
154.953141445
 21
163.3035989983
 31
0.0
 12
154.953141445
 22
164.2035989983
 32
0.0
 13
154.953141445
 23
164.2035989983
 33
0.0
  0
SOLID
  5
28A
330
286
100
AcDbEntity
  8
VERMASSUNG
100
AcDbTrace
 10
253.853141445
 20
163.7535989983
 30
0.0
 11
250.853141445
 21
164.2035989983
 31
0.0
 12
250.853141445
 22
163.3035989983
 32
0.0
 13
250.853141445
 23
163.3035989983
 33
0.0
  0
LINE
  5
28B
330
286
100
AcDbEntity
  8
VERMASSUNG
100
AcDbLine
 10
151.953141445
 20
135.9442767448
 30
0.0
 11
151.953141445
 21
164.7535989983
 31
0.0
  0
LINE
  5
28C
330
286
100
AcDbEntity
  8
VERMASSUNG
100
AcDbLine
 10
253.853141445
 20
71.2535989983
 30
0.0
 11
253.853141445
 21
164.7535989983
 31
0.0
  0
LINE
  5
28D
330
286
100
AcDbEntity
  8
VERMASSUNG
100
AcDbLine
 10
151.953141445
 20
163.7535989983
 30
0.0
 11
253.853141445
 21
163.7535989983
 31
0.0
  0
MTEXT
  5
28E
330
286
100
AcDbEntity
  8
VERMASSUNG
100
AcDbMText
 10
200.2035551547
 20
166.3535991147
 30
0.0
 40
2.0
 41
0.0
 71
     1
 72
     1
  1
101.9
  7
SLDTEXTSTYLE0
 73
     1
 44
1.0
  0
ENDBLK
  5
288
330
286
100
AcDbEntity
  8
0
100
AcDbBlockEnd
  0
BLOCK
  5
291
330
290
100
AcDbEntity
  8
0
100
AcDbBlockBegin
  2
*D3
 70
     1
 10
0.0
 20
0.0
 30
0.0
  3
*D3
  1

  0
SOLID
  5
293
330
290
100
AcDbEntity
  8
VERMASSUNG
100
AcDbTrace
 10
183.853141445
 20
157.7535989983
 30
0.0
 11
186.853141445
 21
157.3035989983
 31
0.0
 12
186.853141445
 22
158.2035989983
 32
0.0
 13
186.853141445
 23
158.2035989983
 33
0.0
  0
SOLID
  5
294
330
290
100
AcDbEntity
  8
VERMASSUNG
100
AcDbTrace
 10
253.853141445
 20
157.7535989983
 30
0.0
 11
250.853141445
 21
158.2035989983
 31
0.0
 12
250.853141445
 22
157.3035989983
 32
0.0
 13
250.853141445
 23
157.3035989983
 33
0.0
  0
LINE
  5
295
330
290
100
AcDbEntity
  8
VERMASSUNG
100
AcDbLine
 10
183.853141445
 20
147.4535989983
 30
0.0
 11
183.853141445
 21
158.7535989983
 31
0.0
  0
LINE
  5
296
330
290
100
AcDbEntity
  8
VERMASSUNG
100
AcDbLine
 10
253.853141445
 20
71.2535989983
 30
0.0
 11
253.853141445
 21
158.7535989983
 31
0.0
  0
LINE
  5
297
330
290
100
AcDbEntity
  8
VERMASSUNG
100
AcDbLine
 10
183.853141445
 20
157.7535989983
 30
0.0
 11
253.853141445
 21
157.7535989983
 31
0.0
  0
MTEXT
  5
298
330
290
100
AcDbEntity
  8
VERMASSUNG
100
AcDbMText
 10
217.4532654773
 20
160.3535991147
 30
0.0
 40
2.0
 41
0.0
 71
     1
 72
     1
  1
70
  7
SLDTEXTSTYLE0
 73
     1
 44
1.0
  0
ENDBLK
  5
292
330
290
100
AcDbEntity
  8
0
100
AcDbBlockEnd
  0
BLOCK
  5
29B
330
29A
100
AcDbEntity
  8
0
100
AcDbBlockBegin
  2
*D4
 70
     1
 10
0.0
 20
0.0
 30
0.0
  3
*D4
  1

  0
SOLID
  5
29D
330
29A
100
AcDbEntity
  8
VERMASSUNG
100
AcDbTrace
 10
265.6590872835
 20
116.2535989983
 30
0.0
 11
265.2090872835
 21
113.2535989983
 31
0.0
 12
266.1090872835
 22
113.2535989983
 32
0.0
 13
266.1090872835
 23
113.2535989983
 33
0.0
  0
SOLID
  5
29E
330
29A
100
AcDbEntity
  8
VERMASSUNG
100
AcDbTrace
 10
265.6590872835
 20
71.2535989983
 30
0.0
 11
266.1090872835
 21
74.2535989983
 31
0.0
 12
265.2090872835
 22
74.2535989983
 32
0.0
 13
265.2090872835
 23
74.2535989983
 33
0.0
  0
LINE
  5
29F
330
29A
100
AcDbEntity
  8
VERMASSUNG
100
AcDbLine
 10
252.7505730625
 20
116.2535989983
 30
0.0
 11
266.6590872835
 21
116.2535989983
 31
0.0
  0
LINE
  5
2A0
330
29A
100
AcDbEntity
  8
VERMASSUNG
100
AcDbLine
 10
253.853141445
 20
71.2535989983
 30
0.0
 11
266.6590872835
 21
71.2535989983
 31
0.0
  0
LINE
  5
2A1
330
29A
100
AcDbEntity
  8
VERMASSUNG
100
AcDbLine
 10
265.6590872835
 20
116.2535989983
 30
0.0
 11
265.6590872835
 21
71.2535989983
 31
0.0
  0
MTEXT
  5
2A2
330
29A
100
AcDbEntity
  8
VERMASSUNG
100
AcDbMText
 10
263.0590871671
 20
92.2547789177
 30
0.0
 40
2.0
 41
0.0
 71
     1
 72
     1
  1
45
  7
SLDTEXTSTYLE0
 11
-7.044195017643634E-15
 21
1.0
 31
0.0
 73
     1
 44
1.0
  0
ENDBLK
  5
29C
330
29A
100
AcDbEntity
  8
0
100
AcDbBlockEnd
  0
BLOCK
  5
2A6
330
2A5
100
AcDbEntity
  8
0
100
AcDbBlockBegin
  2
*D5
 70
     1
 10
0.0
 20
0.0
 30
0.0
  3
*D5
  1

  0
ARC
  5
2A8
330
2A5
100
AcDbEntity
  8
VERMASSUNG
100
AcDbCircle
 10
253.853141445
 20
61.9122106201
 30
0.0
 40
45.7177533055744
100
AcDbArc
 50
90.0
 51
93.0407433125
  0
ARC
  5
2A9
330
2A5
100
AcDbEntity
  8
VERMASSUNG
100
AcDbCircle
 10
253.853141445
 20
61.9122106201
 30
0.0
 40
45.71775330557442
100
AcDbArc
 50
79.812598442
 51
90.0
  0
ARC
  5
2AA
330
2A5
100
AcDbEntity
  8
VERMASSUNG
100
AcDbCircle
 10
253.853141445
 20
61.9122106201
 30
0.0
 40
45.7177533055744
100
AcDbArc
 50
93.0407433125
 51
100.5454434711
  0
SOLID
  5
2AB
330
2A5
100
AcDbEntity
  8
VERMASSUNG
100
AcDbTrace
 10
253.853141445
 20
107.6299639257
 30
0.0
 11
256.8367907337
 21
107.081933888
 31
0.0
 12
256.8662721942
 22
107.9814508937
 32
0.0
 13
256.8662721942
 23
107.9814508937
 33
0.0
  0
SOLID
  5
2AC
330
2A5
100
AcDbEntity
  8
VERMASSUNG
100
AcDbTrace
 10
251.4279941494
 20
107.5655963424
 30
0.0
 11
248.4004606863
 21
107.7567536851
 31
0.0
 12
248.4776164839
 22
106.8600670158
 32
0.0
 13
248.4776164839
 23
106.8600670158
 33
0.0
  0
MTEXT
  5
2AD
330
2A5
100
AcDbEntity
  8
VERMASSUNG
100
AcDbMText
 10
258.0935358268
 20
110.0610797466
 30
0.0
 40
2.0
 41
0.0
 71
     1
 72
     1
  1
3°
  7
SLDTEXTSTYLE0
 11
0.9934252121298852
 21
-0.1144829590143994
 31
0.0
 73
     1
 44
1.0
  0
ENDBLK
  5
2A7
330
2A5
100
AcDbEntity
  8
0
100
AcDbBlockEnd
  0
BLOCK
  5
348
330
347
100
AcDbEntity
  8
0
100
AcDbBlockBegin
  2
*D6
 70
     1
 10
0.0
 20
0.0
 30
0.0
  3
*D6
  1

  0
SOLID
  5
34A
330
347
100
AcDbEntity
  8
VERMASSUNG
100
AcDbTrace
 10
34.3890301722
 20
71.2766374075
 30
0.0
 11
34.8390301722
 21
74.2766374075
 31
0.0
 12
33.9390301722
 22
74.2766374075
 32
0.0
 13
33.9390301722
 23
74.2766374075
 33
0.0
  0
SOLID
  5
34B
330
347
100
AcDbEntity
  8
VERMASSUNG
100
AcDbTrace
 10
34.3890301722
 20
151.2766374075
 30
0.0
 11
33.9390301722
 21
148.2766374075
 31
0.0
 12
34.8390301722
 22
148.2766374075
 32
0.0
 13
34.8390301722
 23
148.2766374075
 33
0.0
  0
LINE
  5
34C
330
347
100
AcDbEntity
  8
VERMASSUNG
100
AcDbLine
 10
78.8814603108
 20
71.2766374075
 30
0.0
 11
33.3890301722
 21
71.2766374075
 31
0.0
  0
LINE
  5
34D
330
347
100
AcDbEntity
  8
VERMASSUNG
100
AcDbLine
 10
78.8814603108
 20
151.2766374075
 30
0.0
 11
33.3890301722
 21
151.2766374075
 31
0.0
  0
LINE
  5
34E
330
347
100
AcDbEntity
  8
VERMASSUNG
100
AcDbLine
 10
34.3890301722
 20
71.2766374075
 30
0.0
 11
34.3890301722
 21
151.2766374075
 31
0.0
  0
MTEXT
  5
34F
330
347
100
AcDbEntity
  8
VERMASSUNG
100
AcDbMText
 10
31.789030114
 20
108.0725582946
 30
0.0
 40
2.0
 41
0.0
 71
     1
 72
     1
  1
%%c
  7
SLDTEXTSTYLE0
 11
6.123233995736766E-17
 21
1.0
 31
0.0
 73
     1
 44
1.0
  0
MTEXT
  5
350
330
347
100
AcDbEntity
  8
VERMASSUNG
100
AcDbMText
 10
31.7890300558
 20
111.6809645849
 30
0.0
 40
2.0
 41
0.0
 71
     1
 72
     1
  1
80
  7
SLDTEXTSTYLE0
 11
6.123233995736766E-17
 21
1.0
 31
0.0
 73
     1
 44
1.0
  0
ENDBLK
  5
349
330
347
100
AcDbEntity
  8
0
100
AcDbBlockEnd
  0
BLOCK
  5
352
330
351
100
AcDbEntity
  8
0
100
AcDbBlockBegin
  2
SW_CENTERMARKSYMBOL_0
 70
     0
 10
0.0
 20
0.0
 30
0.0
  3
SW_CENTERMARKSYMBOL_0
  1

  0
LINE
  5
354
330
351
100
AcDbEntity
  8
VERMASSUNG
 62
     0
100
AcDbLine
 10
0.0
 20
0.0
 30
0.0
 11
0.0
 21
2.5
 31
0.0
  0
LINE
  5
355
330
351
100
AcDbEntity
  8
VERMASSUNG
 62
     0
100
AcDbLine
 10
0.0
 20
0.0
 30
0.0
 11
-2.5
 21
0.0
 31
0.0
  0
LINE
  5
356
330
351
100
AcDbEntity
  8
VERMASSUNG
 62
     0
100
AcDbLine
 10
0.0
 20
0.0
 30
0.0
 11
0.0
 21
-2.5
 31
0.0
  0
LINE
  5
357
330
351
100
AcDbEntity
  8
VERMASSUNG
 62
     0
100
AcDbLine
 10
0.0
 20
0.0
 30
0.0
 11
2.5
 21
0.0
 31
0.0
  0
LINE
  5
358
330
351
100
AcDbEntity
  8
VERMASSUNG
 62
     0
100
AcDbLine
 10
0.0
 20
5.0
 30
0.0
 11
0.0
 21
34.0
 31
0.0
  0
LINE
  5
359
330
351
100
AcDbEntity
  8
VERMASSUNG
 62
     0
100
AcDbLine
 10
-5.0
 20
0.0
 30
0.0
 11
-34.0
 21
0.0
 31
0.0
  0
LINE
  5
35A
330
351
100
AcDbEntity
  8
VERMASSUNG
 62
     0
100
AcDbLine
 10
0.0
 20
-5.0
 30
0.0
 11
0.0
 21
-47.8733944169
 31
0.0
  0
LINE
  5
35B
330
351
100
AcDbEntity
  8
VERMASSUNG
 62
     0
100
AcDbLine
 10
5.0
 20
0.0
 30
0.0
 11
34.0
 21
0.0
 31
0.0
  0
ENDBLK
  5
353
330
351
100
AcDbEntity
  8
0
100
AcDbBlockEnd
  0
ENDSEC
  0
SECTION
  2
ENTITIES
  0
MTEXT
  5
69
330
1F
100
AcDbEntity
  8
KOPF_DÜNN
100
AcDbMText
 10
13.8892156294
 20
23.8770940835
 30
0.0
 40
3.0
 41
0.0
 71
     1
 72
     1
  1
HA6.KVD.LUA.070
  7
SLDTEXTSTYLE0
 73
     1
 44
1.0
  0
MTEXT
  5
6A
330
1F
100
AcDbEntity
  8
VERMASSUNG
100
AcDbMText
 10
13.9329988022
 20
28.9162328764
 30
0.0
 40
3.0
 41
0.0
 71
     1
 72
     1
  1
Klemmhalter links_Turning tool left 93° /35°
  7
SLDTEXTSTYLE0
 73
     1
 44
1.0
  0
MTEXT
  5
6B
330
1F
100
AcDbEntity
  8
VERMASSUNG
100
AcDbMText
 10
98.8601118557
 20
13.8584013966
 30
0.0
 40
2.0
 41
0.0
 71
     1
 72
     1
  1
Datum: 26.02.2009
  7
SLDTEXTSTYLE0
 73
     1
 44
1.0
  0
MTEXT
  5
6C
330
1F
100
AcDbEntity
  8
VERMASSUNG
100
AcDbMText
 10
13.933048693
 20
18.0701447943
 30
0.0
 40
2.0
 41
0.0
 71
     1
 72
     1
  1
DIN 69893 HSK 63 A ICTM / VN.. 16 04..
  7
SLDTEXTSTYLE0
 73
     1
 44
1.0
  0
MTEXT
  5
6D
330
1F
100
AcDbEntity
  8
VERMASSUNG
100
AcDbMText
 10
13.9808475933
 20
13.9309619479
 30
0.0
 40
2.0
 41
0.0
 71
     1
 72
     1
  1
Gewicht: 1161g
  7
SLDTEXTSTYLE0
 73
     1
 44
1.0
  0
LINE
  5
6E
330
1F
100
AcDbEntity
  8
0
  6
SLD-Durchgehend
 62
     7
370
    15
100
AcDbLine
 10
233.7872902335
 20
106.4304769365
 30
0.0
 11
234.1673145474
 21
105.4867649777
 31
0.0
  0
LINE
  5
6F
330
1F
100
AcDbEntity
  8
0
  6
SLD-Durchgehend
 62
     7
370
    15
100
AcDbLine
 10
236.9501548291
 20
106.6073928354
 30
0.0
 11
236.5330266238
 21
107.6432405366
 31
0.0
  0
LINE
  5
70
330
1F
100
AcDbEntity
  8
0
  6
SLD-Durchgehend
 62
     7
370
    15
100
AcDbLine
 10
246.1396525086
 20
101.72394983
 30
0.0
 11
245.8193706752
 21
102.5192974461
 31
0.0
  0
LINE
  5
71
330
1F
100
AcDbEntity
  8
0
  6
SLD-Durchgehend
 62
     7
370
    15
100
AcDbLine
 10
232.8327889026
 20
97.2896995349
 30
0.0
 11
233.153070736
 21
96.4943519188
 31
0.0
  0
LINE
  5
72
330
1F
100
AcDbEntity
  8
0
  6
SLD-Durchgehend
 62
     7
370
    15
100
AcDbLine
 10
245.1894054593
 20
100.73734581
 30
0.0
 11
245.0498896123
 21
101.0837959452
 31
0.0
  0
LINE
  5
73
330
1F
100
AcDbEntity
  8
0
  6
SLD-Durchgehend
 62
     7
370
    15
100
AcDbLine
 10
234.3823420287
 20
96.7880538059
 30
0.0
 11
234.5218541504
 21
96.4416036708
 31
0.0
  0
LINE
  5
74
330
1F
100
AcDbEntity
  8
0
  6
SLD-Durchgehend
 62
     7
370
    15
100
AcDbLine
 10
227.441925037
 20
105.9295026911
 30
0.0
 11
227.9535340549
 21
104.6590324817
 31
0.0
  0
LINE
  5
75
330
1F
100
AcDbEntity
  8
0
  6
SLD-Durchgehend
 62
     7
370
    15
100
AcDbLine
 10
249.5213592828
 20
96.5556832356
 30
0.0
 11
249.0709418834
 21
97.6742090983
 31
0.0
  0
LINE
  5
76
330
1F
100
AcDbEntity
  8
0
  6
SLD-Durchgehend
 62
     7
370
    15
100
AcDbLine
 10
247.4455455721
 20
81.4784685476
 30
0.0
 11
251.8630544127
 21
84.0499433083
 31
0.0
  0
LINE
  5
77
330
1F
100
AcDbEntity
  8
0
  6
SLD-Durchgehend
 62
     7
370
    15
100
AcDbLine
 10
243.5824195326
 20
83.5825348599
 30
0.0
 11
243.7407033921
 21
83.1894683046
 31
0.0
  0
LINE
  5
78
330
1F
100
AcDbEntity
  8
0
  6
SLD-Durchgehend
 62
     7
370
    15
100
AcDbLine
 10
253.0309850753
 20
86.7472714139
 30
0.0
 11
252.698949951
 21
87.5718234433
 31
0.0
  0
LINE
  5
79
330
1F
100
AcDbEntity
  8
0
  6
SLD-Durchgehend
 62
     7
370
    15
100
AcDbLine
 10
184.1531414593
 20
84.7535984917
 30
0.0
 11
188.8031414182
 21
84.7535984917
 31
0.0
  0
LINE
  5
7A
330
1F
100
AcDbEntity
  8
0
  6
SLD-Durchgehend
 62
     7
370
    15
100
AcDbLine
 10
188.8311299899
 20
147.7535995049
 30
0.0
 11
184.1531414593
 21
147.7535995049
 31
0.0
  0
ARC
  5
7B
330
1F
100
AcDbEntity
  8
0
  6
SLD-Durchgehend
 62
     7
370
    15
100
AcDbCircle
 10
184.153141445
 20
85.0535989983
 30
0.0
 40
0.3000000000000114
100
AcDbArc
 50
180.0
 51
270.0
  0
ARC
  5
7C
330
1F
100
AcDbEntity
  8
0
  6
SLD-Durchgehend
 62
     7
370
    15
100
AcDbCircle
 10
184.153141445
 20
147.4535989983
 30
0.0
 40
0.3000000000000114
100
AcDbArc
 50
90.0
 51
180.0
  0
ARC
  5
7D
330
1F
100
AcDbEntity
  8
0
  6
SLD-Durchgehend
 62
     7
370
    15
100
AcDbCircle
 10
210.803141445
 20
89.2535989983
 30
0.0
 40
1.000000000000014
100
AcDbArc
 50
90.0
 51
143.1139143113
  0
ARC
  5
7E
330
1F
100
AcDbEntity
  8
0
  6
SLD-Durchgehend
 62
     7
370
    15
100
AcDbCircle
 10
210.803141445
 20
143.2535989983
 30
0.0
 40
1.0
100
AcDbArc
 50
216.8996843908
 51
270.0
  0
LINE
  5
7F
330
1F
100
AcDbEntity
  8
0
  6
SLD-Durchgehend
 62
     7
370
    15
100
AcDbLine
 10
210.803141299
 20
90.2535984619
 30
0.0
 11
225.0858130337
 21
90.2535984619
 31
0.0
  0
LINE
  5
80
330
1F
100
AcDbEntity
  8
0
  6
SLD-Durchgehend
 62
     7
370
    15
100
AcDbLine
 10
225.0858130337
 20
142.2535995347
 30
0.0
 11
210.803141299
 21
142.2535995347
 31
0.0
  0
ARC
  5
81
330
1F
100
AcDbEntity
  8
0
  6
SLD-Durchgehend
 62
     7
370
    15
100
AcDbCircle
 10
183.353141445
 20
91.6831681366
 30
0.0
 40
0.6000000000000227
100
AcDbArc
 50
33.5573097619
 51
90.0
  0
ARC
  5
82
330
1F
100
AcDbEntity
  8
0
  6
SLD-Durchgehend
 62
     7
370
    15
100
AcDbCircle
 10
183.353141445
 20
140.82402986
 30
0.0
 40
0.6000000000000227
100
AcDbArc
 50
270.0
 51
326.4426902381
  0
LINE
  5
83
330
1F
100
AcDbEntity
  8
0
  6
SLD-Durchgehend
 62
     7
370
    15
100
AcDbLine
 10
170.6216330112
 20
139.9113288475
 30
0.0
 11
158.0531405688
 21
139.281644891
 31
0.0
  0
LINE
  5
84
330
1F
100
AcDbEntity
  8
0
  6
SLD-Durchgehend
 62
     7
370
    15
100
AcDbLine
 10
181.85314135
 20
140.4740302218
 30
0.0
 11
179.0361399234
 21
140.3328975989
 31
0.0
  0
LINE
  5
85
330
1F
100
AcDbEntity
  8
0
  6
SLD-Durchgehend
 62
     7
370
    15
100
AcDbLine
 10
179.0361958028
 20
92.1742985351
 30
0.0
 11
181.85314135
 21
92.0331677748
 31
0.0
  0
LINE
  5
86
330
1F
100
AcDbEntity
  8
0
  6
SLD-Durchgehend
 62
     7
370
    15
100
AcDbLine
 10
162.0531412245
 20
93.0251529766
 30
0.0
 11
170.6220353426
 21
92.59584866
 31
0.0
  0
LINE
  5
87
330
1F
100
AcDbEntity
  8
0
  6
SLD-Durchgehend
 62
     7
370
    15
100
AcDbLine
 10
181.85314135
 20
92.0331677748
 30
0.0
 11
182.7098542762
 21
92.2627238883
 31
0.0
  0
LINE
  5
88
330
1F
100
AcDbEntity
  8
0
  6
SLD-Durchgehend
 62
     7
370
    15
100
AcDbLine
 10
182.7098542762
 20
140.2444741083
 30
0.0
 11
181.85314135
 21
140.4740302218
 31
0.0
  0
ARC
  5
89
330
1F
100
AcDbEntity
  8
0
  6
SLD-Durchgehend
 62
     7
370
    15
100
AcDbCircle
 10
182.8651456455
 20
91.6831681366
 30
0.0
 40
0.6000000000000227
100
AcDbArc
 50
90.0
 51
105.0
  0
ARC
  5
8A
330
1F
100
AcDbEntity
  8
0
  6
SLD-Durchgehend
 62
     7
370
    15
100
AcDbCircle
 10
182.8651456455
 20
140.82402986
 30
0.0
 40
0.6000000000000282
100
AcDbArc
 50
255.0
 51
270.0
  0
LINE
  5
8B
330
1F
100
AcDbEntity
  8
0
  6
SLD-Durchgehend
 62
     7
370
    15
100
AcDbLine
 10
182.8651456799
 20
92.2831682814
 30
0.0
 11
183.3531414213
 21
92.2831682814
 31
0.0
  0
LINE
  5
8C
330
1F
100
AcDbEntity
  8
0
  6
SLD-Durchgehend
 62
     7
370
    15
100
AcDbLine
 10
183.3531414213
 20
140.2240297152
 30
0.0
 11
182.8651456799
 21
140.2240297152
 31
0.0
  0
ARC
  5
8D
330
1F
100
AcDbEntity
  8
0
  6
SLD-Durchgehend
 62
     7
370
    15
100
AcDbCircle
 10
225.085814457
 20
143.2535989983
 30
0.0
 40
0.9999999999999883
100
AcDbArc
 50
270.0
 51
345.0
  0
ARC
  5
8E
330
1F
100
AcDbEntity
  8
0
  6
SLD-Durchgehend
 62
     7
370
    15
100
AcDbCircle
 10
225.085814457
 20
89.2535989983
 30
0.0
 40
0.9999999999999847
100
AcDbArc
 50
15.0
 51
90.0
  0
LINE
  5
8F
330
1F
100
AcDbEntity
  8
0
  6
SLD-Durchgehend
 62
     7
370
    15
100
AcDbLine
 10
226.1210898341
 20
143.2535996987
 30
0.0
 11
226.0517398299
 21
142.9947795672
 31
0.0
  0
LINE
  5
90
330
1F
100
AcDbEntity
  8
0
  6
SLD-Durchgehend
 62
     7
370
    15
100
AcDbLine
 10
226.0517398299
 20
89.5124184294
 30
0.0
 11
226.1210898341
 21
89.2535982979
 31
0.0
  0
LINE
  5
91
330
1F
100
AcDbEntity
  8
0
  6
SLD-Durchgehend
 62
     7
370
    15
100
AcDbLine
 10
227.775714773
 20
143.2535996987
 30
0.0
 11
226.1210898341
 21
143.2535996987
 31
0.0
  0
LINE
  5
92
330
1F
100
AcDbEntity
  8
0
  6
SLD-Durchgehend
 62
     7
370
    15
100
AcDbLine
 10
226.1210898341
 20
89.2535982979
 30
0.0
 11
233.8531421901
 21
89.2535982979
 31
0.0
  0
LINE
  5
93
330
1F
100
AcDbEntity
  8
0
  6
SLD-Durchgehend
 62
     7
370
    15
100
AcDbLine
 10
153.1031405957
 20
95.4410987301
 30
0.0
 11
160.6531417401
 21
95.4410987301
 31
0.0
  0
ARC
  5
94
330
1F
100
AcDbEntity
  8
0
  6
SLD-Durchgehend
 62
     7
370
    15
100
AcDbCircle
 10
160.653141445
 20
94.0410989983
 30
0.0
 40
1.400000000000006
100
AcDbArc
 50
37.6443616934
 51
90.0
  0
LINE
  5
95
330
1F
100
AcDbEntity
  8
0
  6
SLD-Durchgehend
 62
     7
370
    15
100
AcDbLine
 10
153.0943042071
 20
137.1147627337
 30
0.0
 11
151.9630434395
 21
135.9835001035
 31
0.0
  0
LINE
  5
96
330
1F
100
AcDbEntity
  8
0
  6
SLD-Durchgehend
 62
     7
370
    15
100
AcDbLine
 10
151.9505599917
 20
96.593679334
 30
0.0
 11
153.1031405957
 21
95.4410987301
 31
0.0
  0
ARC
  5
97
330
1F
100
AcDbEntity
  8
0
  6
SLD-Durchgehend
 62
     7
370
    15
100
AcDbCircle
 10
156.653141445
 20
138.5235989983
 30
0.0
 40
1.400000000000006
100
AcDbArc
 50
270.0
 51
301.7485287426
  0
LINE
  5
98
330
1F
100
AcDbEntity
  8
0
  6
SLD-Durchgehend
 62
     7
370
    15
100
AcDbLine
 10
156.6531410844
 20
137.1235991223
 30
0.0
 11
153.2274069668
 21
137.1235991223
 31
0.0
  0
ARC
  5
99
330
1F
100
AcDbEntity
  8
0
  6
SLD-Durchgehend
 62
     7
370
    15
100
AcDbCircle
 10
233.853141445
 20
83.2535989983
 30
0.0
 40
6.000000000000014
100
AcDbArc
 50
69.4836531193
 51
90.0
  0
ARC
  5
9A
330
1F
100
AcDbEntity
  8
0
  6
SLD-Durchgehend
 62
     7
370
    15
100
AcDbCircle
 10
235.5482226505
 20
106.0232144447
 30
0.0
 40
1.486541394904421
100
AcDbArc
 50
156.966236163
 51
147.9532178503
  0
LINE
  5
9B
330
1F
100
AcDbEntity
  8
0
  6
SLD-Durchgehend
 62
     7
370
    15
100
AcDbLine
 10
234.2665600062
 20
106.5336628212
 30
0.0
 11
234.1801966013
 21
106.6048587067
 31
0.0
  0
ARC
  5
9C
330
1F
100
AcDbEntity
  8
0
  6
SLD-Durchgehend
 62
     7
370
    15
100
AcDbCircle
 10
235.5674327816
 20
105.9804351597
 30
0.0
 40
1.413623295991492
100
AcDbArc
 50
156.9612011505
 51
147.9571256422
  0
LINE
  5
9D
330
1F
100
AcDbEntity
  8
0
  6
SLD-Durchgehend
 62
     7
370
    15
100
AcDbLine
 10
234.3691731275
 20
106.7304382427
 30
0.0
 11
234.2882076682
 21
106.8119904352
 31
0.0
  0
LINE
  5
9E
330
1F
100
AcDbEntity
  8
0
  6
SLD-Durchgehend
 62
     7
370
    15
100
AcDbLine
 10
234.4733434201
 20
106.4499965264
 30
0.0
 11
234.2665600062
 21
106.5336628212
 31
0.0
  0
ARC
  5
9F
330
1F
100
AcDbEntity
  8
0
  6
SLD-Durchgehend
 62
     7
370
    15
100
AcDbCircle
 10
235.5675869996
 20
105.9847752455
 30
0.0
 40
1.189033158215301
100
AcDbArc
 50
156.967068215
 51
147.9525796482
  0
LINE
  5
A0
330
1F
100
AcDbEntity
  8
0
  6
SLD-Durchgehend
 62
     7
370
    15
100
AcDbLine
 10
234.5597515286
 20
106.6157011641
 30
0.0
 11
234.3691731275
 21
106.7304382427
 31
0.0
  0
LINE
  5
A1
330
1F
100
AcDbEntity
  8
0
  6
SLD-Durchgehend
 62
     7
370
    15
100
AcDbLine
 10
234.3544321538
 20
106.7452844558
 30
0.0
 11
234.4733434201
 21
106.4499965264
 31
0.0
  0
ARC
  5
A2
330
1F
100
AcDbEntity
  8
0
  6
SLD-Durchgehend
 62
     7
370
    15
100
AcDbCircle
 10
234.7237004901
 20
108.1207095893
 30
0.0
 40
1.220125128893684
100
AcDbArc
 50
274.1280789177
 51
309.7404728995
  0
LINE
  5
A3
330
1F
100
AcDbEntity
  8
0
  6
SLD-Durchgehend
 62
     7
370
    15
100
AcDbLine
 10
234.1801966013
 20
106.6048587067
 30
0.0
 11
233.7872380794
 21
107.5806817366
 31
0.0
  0
LINE
  5
A4
330
1F
100
AcDbEntity
  8
0
  6
SLD-Durchgehend
 62
     7
370
    15
100
AcDbLine
 10
234.2882076682
 20
106.8119904352
 30
0.0
 11
233.8934647323
 21
107.7922409726
 31
0.0
  0
ARC
  5
A5
330
1F
100
AcDbEntity
  8
0
  6
SLD-Durchgehend
 62
     7
370
    15
100
AcDbCircle
 10
239.573402096
 20
98.8946125047
 30
0.0
 40
5.853260000299168
100
AcDbArc
 50
206.9911581509
 51
245.0042147063
  0
ARC
  5
A6
330
1F
100
AcDbEntity
  8
0
  6
SLD-Durchgehend
 62
     7
370
    15
100
AcDbCircle
 10
239.6918510092
 20
98.9111587832
 30
0.0
 40
5.966444188299457
100
AcDbArc
 50
340.2448309034
 51
206.6165001623
  0
LWPOLYLINE
  5
A7
330
1F
100
AcDbEntity
  8
0
  6
SLD-Durchgehend
 62
     7
370
    15
100
AcDbPolyline
 90
       37
 70
   128
 43
0.0
 10
233.8361734928
 20
102.8624777077
 10
233.3357068182
 20
101.9838130428
 10
232.9687657238
 20
101.0443237005
 10
232.7431137146
 20
100.0638896925
 10
232.6635228873
 20
99.0632543666
 10
232.7316807986
 20
98.0635894788
 10
232.9461457611
 20
97.0860472275
 10
233.3023766459
 20
96.151312287
 10
233.7928371907
 20
95.2791603608
 10
234.4071524621
 20
94.4880465372
 10
235.1323211969
 20
93.7947085453
 10
235.9529989244
 20
93.2138165785
 10
236.8518257917
 20
92.757662232
 10
237.8097804667
 20
92.4358977331
 10
238.8065936447
 20
92.255329187
 10
239.8211764575
 20
92.2197787417
 10
240.832060057
 20
92.3299989058
 10
241.8178575517
 20
92.5836557848
 10
242.7577073158
 20
92.9753849609
 10
243.6317237497
 20
93.4968939377
 10
244.4214182378
 20
94.1371521307
 10
245.1100791277
 20
94.8826106591
 10
245.6831330837
 20
95.7174985064
 10
246.1284580113
 20
96.6241484834
 10
246.4366252006
 20
97.5833772076
 10
246.6011265696
 20
98.5748892976
 10
246.6184715212
 20
99.577705781
 10
246.4882949771
 20
100.5706074042
 10
246.2133573772
 20
101.5325881867
 10
245.7994664491
 20
102.4432912795
 10
245.2553840757
 20
103.2834485499
 10
244.592621404
 20
104.0352829127
 10
243.825204152
 20
104.6828873781
 10
242.9693671347
 20
105.2125593973
 10
242.0432227136
 20
105.6130914344
 10
241.0663621903
 20
105.8760084538
 10
240.0594534756
 20
105.9957476659
  0
ARC
  5
A8
330
1F
100
AcDbEntity
  8
0
  6
SLD-Durchgehend
 62
     7
370
    15
100
AcDbCircle
 10
234.1519117031
 20
104.2100320978
 30
0.0
 40
1.384049656547856
100
AcDbArc
 50
256.8132122086
 51
16.0340748663
  0
ARC
  5
A9
330
1F
100
AcDbEntity
  8
0
  6
SLD-Durchgehend
 62
     7
370
    15
100
AcDbCircle
 10
236.2935995559
 20
105.7461088794
 30
0.0
 40
1.357936840157
100
AcDbArc
 50
238.6874878137
 51
357.6726560092
  0
ARC
  5
AA
330
1F
100
AcDbEntity
  8
0
  6
SLD-Durchgehend
 62
     7
370
    15
100
AcDbCircle
 10
239.7035558416
 20
98.996123977
 30
0.0
 40
7.002590742705183
100
AcDbArc
 50
106.7513481982
 51
107.0494613519
  0
ARC
  5
AB
330
1F
100
AcDbEntity
  8
0
  6
SLD-Durchgehend
 62
     7
370
    15
100
AcDbCircle
 10
238.790661489
 20
106.5080192119
 30
0.0
 40
1.368303782805822
100
AcDbArc
 50
216.113619228
 51
338.0137319043
  0
LINE
  5
AC
330
1F
100
AcDbEntity
  8
0
  6
SLD-Durchgehend
 62
     7
370
    15
100
AcDbLine
 10
237.3649994315
 20
106.4969044505
 30
0.0
 11
237.6852775396
 21
105.7015568344
 31
0.0
  0
ARC
  5
AD
330
1F
100
AcDbEntity
  8
0
  6
SLD-Durchgehend
 62
     7
370
    15
100
AcDbCircle
 10
238.3460315104
 20
108.3069100625
 30
0.0
 40
2.058772511819381
100
AcDbArc
 50
241.5420861604
 51
312.5852649719
  0
LINE
  5
AE
330
1F
100
AcDbEntity
  8
0
  6
SLD-Durchgehend
 62
     7
370
    15
100
AcDbLine
 10
240.0594534756
 20
105.9957476659
 30
0.0
 11
239.7391753675
 21
106.791095282
 31
0.0
  0
LINE
  5
AF
330
1F
100
AcDbEntity
  8
0
  6
SLD-Durchgehend
 62
     7
370
    15
100
AcDbLine
 10
237.3301344396
 20
106.4863134502
 30
0.0
 11
237.1553922475
 21
106.2215086399
 31
0.0
  0
LINE
  5
B0
330
1F
100
AcDbEntity
  8
0
  6
SLD-Durchgehend
 62
     7
370
    15
100
AcDbLine
 10
237.650416273
 20
105.6909649028
 30
0.0
 11
237.3301344396
 21
106.4863134502
 31
0.0
  0
LINE
  5
B1
330
1F
100
AcDbEntity
  8
0
  6
SLD-Durchgehend
 62
     7
370
    15
100
AcDbLine
 10
233.5158916594
 20
103.6578253238
 30
0.0
 11
233.8361734928
 21
102.8624777077
 31
0.0
  0
ARC
  5
B2
330
1F
100
AcDbEntity
  8
0
  6
SLD-Durchgehend
 62
     7
370
    15
100
AcDbCircle
 10
233.0326634899
 20
105.8559450886
 30
0.0
 40
2.250608798596957
100
AcDbArc
 50
282.3985130126
 51
329.4608153605
  0
ARC
  5
B3
330
1F
100
AcDbEntity
  8
0
  6
SLD-Durchgehend
 62
     7
370
    15
100
AcDbCircle
 10
239.4120450492
 20
99.6954602812
 30
0.0
 40
7.102819056477615
100
AcDbArc
 50
106.7503342029
 51
107.0442672237
  0
ARC
  5
B4
330
1F
100
AcDbEntity
  8
0
  6
SLD-Durchgehend
 62
     7
370
    15
100
AcDbCircle
 10
239.1794584467
 20
99.8295991528
 30
0.0
 40
6.83602986907184
100
AcDbArc
 50
145.9437020531
 51
201.8109953221
  0
ARC
  5
B5
330
1F
100
AcDbEntity
  8
0
  6
SLD-Durchgehend
 62
     7
370
    15
100
AcDbCircle
 10
239.4574952113
 20
99.9271969057
 30
0.0
 40
6.869675729639626
100
AcDbArc
 50
22.1680864304
 51
87.6500186371
  0
LWPOLYLINE
  5
B6
330
1F
100
AcDbEntity
  8
0
  6
SLD-Durchgehend
 62
     7
370
    15
100
AcDbPolyline
 90
       40
 70
   128
 43
0.0
 10
245.5538580597
 20
98.009937848
 10
245.5854783238
 20
98.9210954262
 10
245.4686979235
 20
99.823662485
 10
245.2065417946
 20
100.6942646904
 10
244.8058011414
 20
101.5103547229
 10
244.2768546225
 20
102.2507952852
 10
243.6334001304
 20
102.8964095144
 10
242.8921008886
 20
103.4304764448
 10
242.0721607686
 20
103.8391640736
 10
241.1948139251
 20
104.1118869884
 10
240.282784629
 20
104.2415829701
 10
239.3596874953
 20
104.224891807
 10
238.4494388879
 20
104.0622465638
 10
237.5756087185
 20
103.7578596128
 10
236.7608281256
 20
103.3196136681
 10
236.026204604
 20
102.7588596893
 10
235.3907594861
 20
102.090121652
 10
234.8709511043
 20
101.3307174994
 10
234.4802426578
 20
100.5003167642
 10
234.2287557603
 20
99.6204274101
 10
234.1230022193
 20
98.7138351752
 10
234.1657201232
 20
97.8040242894
 10
234.3558030606
 20
96.9145553513
 10
234.6883299233
 20
96.068465556
 10
235.1546878398
 20
95.2876670612
 10
235.742795694
 20
94.5923863305
 10
236.4374244989
 20
94.0006258292
 10
237.2205811025
 20
93.527715127
 10
238.0719850243
 20
93.1859011156
 10
238.9695862711
 20
92.9840369476
 10
239.8901353062
 20
92.9273510678
 10
240.8097902716
 20
93.0173112405
 10
241.7047316612
 20
93.2515872968
 10
242.551784444
 20
93.6241126014
 10
243.3290066601
 20
94.1252367897
 10
244.0162705661
 20
94.741982813
 10
244.5957767249
 20
95.4583766265
 10
245.0525122167
 20
96.2558644218
 10
245.3746566952
 20
97.113791327
 10
245.5538580597
 20
98.009937848
  0
CIRCLE
  5
B7
330
1F
100
AcDbEntity
  8
0
  6
SLD-Durchgehend
 62
     7
370
    15
100
AcDbCircle
 10
240.0112676252
 20
98.2815871926
 30
0.0
 40
2.478453330561928
  0
ARC
  5
B8
330
1F
100
AcDbEntity
  8
0
  6
SLD-Durchgehend
 62
     7
370
    15
100
AcDbCircle
 10
261.9693303844
 20
95.6815845239
 30
0.0
 40
24.15886572154757
100
AcDbArc
 50
170.6443791665
 51
176.0486817999
  0
ARC
  5
B9
330
1F
100
AcDbEntity
  8
0
  6
SLD-Durchgehend
 62
     7
370
    15
100
AcDbCircle
 10
226.5887989328
 20
79.7403427906
 30
0.0
 40
20.90907023062775
100
AcDbArc
 50
51.1035341566
 51
57.354788716
  0
ARC
  5
BA
330
1F
100
AcDbEntity
  8
0
  6
SLD-Durchgehend
 62
     7
370
    15
100
AcDbCircle
 10
245.4654184745
 20
85.8129685573
 30
0.0
 40
11.70830718048716
100
AcDbArc
 50
108.0796527034
 51
119.3991443678
  0
ARC
  5
BB
330
1F
100
AcDbEntity
  8
0
  6
SLD-Durchgehend
 62
     7
370
    15
100
AcDbCircle
 10
265.9334376135
 20
95.2784123388
 30
0.0
 40
24.15898931890868
100
AcDbArc
 50
170.6443897689
 51
176.0486603408
  0
ARC
  5
BC
330
1F
100
AcDbEntity
  8
0
  6
SLD-Durchgehend
 62
     7
370
    15
100
AcDbCircle
 10
228.5499842154
 20
82.3542251117
 30
0.0
 40
21.62088269985648
100
AcDbArc
 50
51.2064952508
 51
57.2517516709
  0
ARC
  5
BD
330
1F
100
AcDbEntity
  8
0
  6
SLD-Durchgehend
 62
     7
370
    15
100
AcDbCircle
 10
243.8737225715
 20
89.4210869072
 30
0.0
 40
11.69447964665051
100
AcDbArc
 50
108.0729387383
 51
119.4058583329
  0
LINE
  5
BE
330
1F
100
AcDbEntity
  8
0
  6
SLD-Durchgehend
 62
     7
370
    15
100
AcDbLine
 10
237.8942327977
 20
97.6728381915
 30
0.0
 11
238.5969305814
 21
97.1665786905
 31
0.0
  0
LINE
  5
BF
330
1F
100
AcDbEntity
  8
0
  6
SLD-Durchgehend
 62
     7
370
    15
100
AcDbLine
 10
238.5969305814
 20
97.1665786905
 30
0.0
 11
239.5219462396
 21
96.5001521958
 31
0.0
  0
LINE
  5
C0
330
1F
100
AcDbEntity
  8
0
  6
SLD-Durchgehend
 62
     7
370
    15
100
AcDbLine
 10
239.5219462396
 20
96.5001521958
 30
0.0
 11
239.717918861
 21
96.0134933097
 31
0.0
  0
LINE
  5
C1
330
1F
100
AcDbEntity
  8
0
  6
SLD-Durchgehend
 62
     7
370
    15
100
AcDbLine
 10
241.6359031976
 20
97.4298486812
 30
0.0
 11
241.8318758191
 21
96.9431897951
 31
0.0
  0
LINE
  5
C2
330
1F
100
AcDbEntity
  8
0
  6
SLD-Durchgehend
 62
     7
370
    15
100
AcDbLine
 10
241.6359031976
 20
97.4298486812
 30
0.0
 11
241.7678641559
 21
98.5611224873
 31
0.0
  0
LINE
  5
C3
330
1F
100
AcDbEntity
  8
0
  6
SLD-Durchgehend
 62
     7
370
    15
100
AcDbLine
 10
241.7678641559
 20
98.5611224873
 30
0.0
 11
241.8641293825
 21
99.3863599701
 31
0.0
  0
LINE
  5
C4
330
1F
100
AcDbEntity
  8
0
  6
SLD-Durchgehend
 62
     7
370
    15
100
AcDbLine
 10
239.5219462396
 20
96.5001521958
 30
0.0
 11
240.578922856
 21
96.9650013698
 31
0.0
  0
LINE
  5
C5
330
1F
100
AcDbEntity
  8
0
  6
SLD-Durchgehend
 62
     7
370
    15
100
AcDbLine
 10
240.578922856
 20
96.9650013698
 30
0.0
 11
241.6359031976
 21
97.4298486812
 31
0.0
  0
ARC
  5
C6
330
1F
100
AcDbEntity
  8
0
  6
SLD-Durchgehend
 62
     7
370
    15
100
AcDbCircle
 10
239.7464126596
 20
98.8606892207
 30
0.0
 40
5.750571388642308
100
AcDbArc
 50
22.7424128896
 51
201.1261465086
  0
ARC
  5
C7
330
1F
100
AcDbEntity
  8
0
  6
SLD-Durchgehend
 62
     7
370
    15
100
AcDbCircle
 10
239.7786264282
 20
98.8020157801
 30
0.0
 40
2.003770524690918
100
AcDbArc
 50
293.5403780201
 51
353.0952004226
  0
ARC
  5
C8
330
1F
100
AcDbEntity
  8
0
  6
SLD-Durchgehend
 62
     7
370
    15
100
AcDbCircle
 10
239.7644640451
 20
98.8015786393
 30
0.0
 40
2.009069242506151
100
AcDbArc
 50
234.4698328239
 51
293.9156384429
  0
ARC
  5
C9
330
1F
100
AcDbEntity
  8
0
  6
SLD-Durchgehend
 62
     7
370
    15
100
AcDbCircle
 10
239.7288355587
 20
98.7407376952
 30
0.0
 40
1.938861895434915
100
AcDbArc
 50
200.5120366816
 51
234.2818338592
  0
ARC
  5
CA
330
1F
100
AcDbEntity
  8
0
  6
SLD-Durchgehend
 62
     7
370
    15
100
AcDbCircle
 10
239.8455501959
 20
98.7869827163
 30
0.0
 40
1.935537084081948
100
AcDbArc
 50
353.298816995
 51
26.5076456622
  0
LWPOLYLINE
  5
CB
330
1F
100
AcDbEntity
  8
0
  6
SLD-Durchgehend
 62
     7
370
    15
100
AcDbPolyline
 90
        3
 70
   128
 43
0.0
 10
241.4051177383
 20
111.1947683943
 10
240.8129157902
 20
112.0700709848
 10
240.0946090401
 20
112.8720335523
  0
ARC
  5
CC
330
1F
100
AcDbEntity
  8
0
  6
SLD-Durchgehend
 62
     7
370
    15
100
AcDbCircle
 10
233.6230022688
 20
106.2559014667
 30
0.0
 40
9.254993137578131
100
AcDbArc
 50
45.632680256
 51
108.5474450199
  0
ARC
  5
CD
330
1F
100
AcDbEntity
  8
0
  6
SLD-Durchgehend
 62
     7
370
    15
100
AcDbCircle
 10
236.8281396094
 20
107.8454994968
 30
0.0
 40
9.456783510976729
100
AcDbArc
 50
130.558723196
 51
193.6096140953
  0
LWPOLYLINE
  5
CE
330
1F
100
AcDbEntity
  8
0
  6
SLD-Durchgehend
 62
     7
370
    15
100
AcDbPolyline
 90
        3
 70
   128
 43
0.0
 10
228.4463787855
 20
103.6513563572
 10
227.9780837179
 20
104.5987880183
 10
227.6368881048
 20
105.6202691374
  0
ARC
  5
CF
330
1F
100
AcDbEntity
  8
0
  6
SLD-Durchgehend
 62
     7
370
    15
100
AcDbCircle
 10
234.4563365017
 20
108.6207514399
 30
0.0
 40
7.512974645457886
100
AcDbArc
 50
38.4635567847
 51
200.9905198221
  0
ARC
  5
D0
330
1F
100
AcDbEntity
  8
0
  6
SLD-Durchgehend
 62
     7
370
    15
100
AcDbCircle
 10
229.7625130092
 20
105.9037925583
 30
0.0
 40
12.90259667603316
100
AcDbArc
 50
29.9595968665
 51
34.9432582219
  0
LWPOLYLINE
  5
D1
330
1F
100
AcDbEntity
  8
0
  6
SLD-Durchgehend
 62
     7
370
    15
100
AcDbPolyline
 90
        9
 70
   128
 43
0.0
 10
241.4051177383
 20
111.1947683943
 10
242.109033692
 20
109.9867717689
 10
242.8132737459
 20
108.780343025
 10
243.5172902824
 20
107.5764265237
 10
244.2205245079
 20
106.3759629009
 10
244.92243253
 20
105.1798923267
 10
245.6224592806
 20
103.9891489176
 10
246.3200645925
 20
102.8046649275
 10
247.014700848
 20
101.6273660911
  0
ARC
  5
D2
330
1F
100
AcDbEntity
  8
0
  6
SLD-Durchgehend
 62
     7
370
    15
100
AcDbCircle
 10
216.645934568
 20
83.4156766436
 30
0.0
 40
35.41084011851051
100
AcDbArc
 50
5.4655449353
 51
30.9504782028
  0
ARC
  5
D3
330
1F
100
AcDbEntity
  8
0
  6
SLD-Durchgehend
 62
     7
370
    15
100
AcDbCircle
 10
263.7750041835
 20
111.4139007289
 30
0.0
 40
34.40273962951392
100
AcDbArc
 50
210.2475722997
 51
236.6215358235
  0
LWPOLYLINE
  5
D4
330
1F
100
AcDbEntity
  8
0
  6
SLD-Durchgehend
 62
     7
370
    15
100
AcDbPolyline
 90
        9
 70
   128
 43
0.0
 10
228.4463787855
 20
103.6513563572
 10
229.1502984644
 20
102.4433601974
 10
229.8545385183
 20
101.2369314535
 10
230.5585513295
 20
100.0330144865
 10
231.261785555
 20
98.8325508637
 10
231.9636935772
 20
97.6364812208
 10
232.663724053
 20
96.4457368804
 10
233.3613293649
 20
95.2612528903
 10
234.0559618951
 20
94.0839549853
  0
LWPOLYLINE
  5
D5
330
1F
100
AcDbEntity
  8
0
  6
SLD-Durchgehend
 62
     7
370
    15
100
AcDbPolyline
 90
        3
 70
   128
 43
0.0
 10
233.8236825944
 20
103.7632426573
 10
234.6031921388
 20
104.6437671734
 10
234.7912485183
 20
104.7963271244
  0
LINE
  5
D6
330
1F
100
AcDbEntity
  8
0
  6
SLD-Durchgehend
 62
     7
370
    15
100
AcDbLine
 10
237.0270038427
 20
106.1454503192
 30
0.0
 11
237.1296989204
 21
106.1825709743
 31
0.0
  0
ARC
  5
D7
330
1F
100
AcDbEntity
  8
0
  6
SLD-Durchgehend
 62
     7
370
    15
100
AcDbCircle
 10
239.1836107309
 20
101.7908835598
 30
0.0
 40
4.829507196164949
100
AcDbArc
 50
85.7385576912
 51
108.6219837515
  0
ARC
  5
D8
330
1F
100
AcDbEntity
  8
0
  6
SLD-Durchgehend
 62
     7
370
    15
100
AcDbCircle
 10
235.1599800736
 20
107.0211944383
 30
0.0
 40
1.485156870708261
100
AcDbArc
 50
20.0498255912
 51
203.3393034029
  0
LINE
  5
D9
330
1F
100
AcDbEntity
  8
0
  6
SLD-Durchgehend
 62
     7
370
    15
100
AcDbLine
 10
246.5230519355
 20
102.8482647939
 30
0.0
 11
241.7172486366
 21
111.0073685972
 31
0.0
  0
ARC
  5
DA
330
1F
100
AcDbEntity
  8
0
  6
SLD-Durchgehend
 62
     7
370
    15
100
AcDbCircle
 10
333.5839868236
 20
165.1234589055
 30
0.0
 40
106.6210524023448
100
AcDbArc
 50
209.6690256261
 51
210.5011325497
  0
ARC
  5
DB
330
1F
100
AcDbEntity
  8
0
  6
SLD-Durchgehend
 62
     7
370
    15
100
AcDbCircle
 10
213.2432928156
 20
83.2457580831
 30
0.0
 40
38.62383508174845
100
AcDbArc
 50
21.9355497625
 51
30.499016391
  0
ARC
  5
DC
330
1F
100
AcDbEntity
  8
0
  6
SLD-Durchgehend
 62
     7
370
    15
100
AcDbCircle
 10
245.3478692169
 20
85.5259618315
 30
0.0
 40
6.668515261791857
100
AcDbArc
 50
347.343978354
 51
10.9132173198
  0
ARC
  5
DD
330
1F
100
AcDbEntity
  8
0
  6
SLD-Durchgehend
 62
     7
370
    15
100
AcDbCircle
 10
248.2013406446
 20
86.5608020479
 30
0.0
 40
5.12471572255917
100
AcDbArc
 50
229.1262537081
 51
261.4207624075
  0
LINE
  5
DE
330
1F
100
AcDbEntity
  8
0
  6
SLD-Durchgehend
 62
     7
370
    15
100
AcDbLine
 10
252.9743830145
 20
86.8441941543
 30
0.0
 11
251.6820723594
 21
88.4614246292
 31
0.0
  0
ARC
  5
DF
330
1F
100
AcDbEntity
  8
0
  6
SLD-Durchgehend
 62
     7
370
    15
100
AcDbCircle
 10
252.6725356239
 20
86.6029292176
 30
0.0
 40
0.3864202594225561
100
AcDbArc
 50
3.0231273558
 51
38.6351494944
  0
LINE
  5
E0
330
1F
100
AcDbEntity
  8
0
  6
SLD-Durchgehend
 62
     7
370
    15
100
AcDbLine
 10
253.8525978507
 20
71.6730052931
 30
0.0
 11
253.0584181131
 21
86.6233086539
 31
0.0
  0
ARC
  5
E1
330
1F
100
AcDbEntity
  8
0
  6
SLD-Durchgehend
 62
     7
370
    15
100
AcDbCircle
 10
253.4510828848
 20
71.6552929879
 30
0.0
 40
0.4019054534767254
100
AcDbArc
 50
219.2119817693
 51
2.5258904084
  0
LINE
  5
E2
330
1F
100
AcDbEntity
  8
0
  6
SLD-Durchgehend
 62
     7
370
    15
100
AcDbLine
 10
243.7973129035
 20
83.0925437016
 30
0.0
 11
253.1396815957
 21
71.4012118382
 31
0.0
  0
ARC
  5
E3
330
1F
100
AcDbEntity
  8
0
  6
SLD-Durchgehend
 62
     7
370
    15
100
AcDbCircle
 10
244.0992345879
 20
83.3338771302
 30
0.0
 40
0.3865210566539233
100
AcDbArc
 50
201.9385392157
 51
218.6362042759
  0
ARC
  5
E4
330
1F
100
AcDbEntity
  8
0
  6
SLD-Durchgehend
 62
     7
370
    15
100
AcDbCircle
 10
253.4512334317
 20
71.6548975647
 30
0.0
 40
0.3818055564397059
100
AcDbArc
 50
219.2111582475
 51
2.5275304632
  0
LINE
  5
E5
330
1F
100
AcDbEntity
  8
0
  6
SLD-Durchgehend
 62
     7
370
    15
100
AcDbLine
 10
253.8326675476
 20
71.6717349691
 30
0.0
 11
253.0384952606
 21
86.6220364673
 31
0.0
  0
ARC
  5
E6
330
1F
100
AcDbEntity
  8
0
  6
SLD-Durchgehend
 62
     7
370
    15
100
AcDbCircle
 10
252.6719609749
 20
86.6026876185
 30
0.0
 40
0.3670446301924263
100
AcDbArc
 50
3.0217618656
 51
38.6397731388
  0
LINE
  5
E7
330
1F
100
AcDbEntity
  8
0
  6
SLD-Durchgehend
 62
     7
370
    15
100
AcDbLine
 10
252.9586548389
 20
86.8318783445
 30
0.0
 11
251.6869375886
 21
88.4233447118
 31
0.0
  0
LINE
  5
E8
330
1F
100
AcDbEntity
  8
0
  6
SLD-Durchgehend
 62
     7
370
    15
100
AcDbLine
 10
243.7243083895
 20
83.4819706483
 30
0.0
 11
243.7331932069
 21
83.3147051139
 31
0.0
  0
ARC
  5
E9
330
1F
100
AcDbEntity
  8
0
  6
SLD-Durchgehend
 62
     7
370
    15
100
AcDbCircle
 10
244.0997865577
 20
83.3340764357
 30
0.0
 40
0.3671047983242758
100
AcDbArc
 50
183.0247785001
 51
218.6367565042
  0
LINE
  5
EA
330
1F
100
AcDbEntity
  8
0
  6
SLD-Durchgehend
 62
     7
370
    15
100
AcDbLine
 10
243.8130336286
 20
83.1048632367
 30
0.0
 11
253.1554023207
 21
71.413527648
 31
0.0
  0
LINE
  5
EB
330
1F
100
AcDbEntity
  8
0
  6
SLD-Durchgehend
 62
     7
370
    15
100
AcDbLine
 10
252.6423404397
 20
87.6687461836
 30
0.0
 11
252.4737263502
 21
87.879757802
 31
0.0
  0
LINE
  5
EC
330
1F
100
AcDbEntity
  8
0
  6
SLD-Durchgehend
 62
     7
370
    15
100
AcDbLine
 10
252.3030484499
 20
86.5442635817
 30
0.0
 11
252.6446352185
 21
86.6358572943
 31
0.0
  0
LINE
  5
ED
330
1F
100
AcDbEntity
  8
0
  6
SLD-Durchgehend
 62
     7
370
    15
100
AcDbLine
 10
251.4064455808
 20
79.7113137646
 30
0.0
 11
251.1965850771
 21
83.6619841261
 31
0.0
  0
ARC
  5
EE
330
1F
100
AcDbEntity
  8
0
  6
SLD-Durchgehend
 62
     7
370
    15
100
AcDbCircle
 10
250.4026601955
 20
79.6670224553
 30
0.0
 40
1.004762071301597
100
AcDbArc
 50
219.2116895389
 51
2.5264963201
  0
LINE
  5
EF
330
1F
100
AcDbEntity
  8
0
  6
SLD-Durchgehend
 62
     7
370
    15
100
AcDbLine
 10
247.598111111
 20
81.5672794683
 30
0.0
 11
249.6241549433
 21
79.0318245394
 31
0.0
  0
LINE
  5
F0
330
1F
100
AcDbEntity
  8
0
  6
SLD-Durchgehend
 62
     7
370
    15
100
AcDbLine
 10
252.2299731554
 20
74.8568395479
 30
0.0
 11
253.4388149561
 21
71.6855557961
 31
0.0
  0
LINE
  5
F1
330
1F
100
AcDbEntity
  8
0
  6
SLD-Durchgehend
 62
     7
370
    15
100
AcDbLine
 10
250.5753258647
 20
76.9275235338
 30
0.0
 11
252.2299731554
 21
74.8568395479
 31
0.0
  0
LINE
  5
F2
330
1F
100
AcDbEntity
  8
0
  6
SLD-Durchgehend
 62
     7
370
    15
100
AcDbLine
 10
252.2299731554
 20
74.8568395479
 30
0.0
 11
252.0893210949
 21
77.5047311885
 31
0.0
  0
ARC
  5
F3
330
1F
100
AcDbEntity
  8
0
  6
SLD-Durchgehend
 62
     7
370
    15
100
AcDbCircle
 10
252.3402094589
 20
87.4272877365
 30
0.0
 40
0.3867626031851109
100
AcDbArc
 50
21.9443904687
 51
38.6313120741
  0
LWPOLYLINE
  5
F4
330
1F
100
AcDbEntity
  8
0
  6
SLD-Durchgehend
 62
     7
370
    15
100
AcDbPolyline
 90
        3
 70
   128
 43
0.0
 10
252.3030484499
 20
86.5442635817
 10
252.0895297111
 20
86.47828124
 10
251.9223908366
 20
86.4144726051
  0
ARC
  5
F5
330
1F
100
AcDbEntity
  8
0
  6
SLD-Durchgehend
 62
     7
370
    15
100
AcDbCircle
 10
250.3230829214
 20
79.8641490067
 30
0.0
 40
2.427644139394834
100
AcDbArc
 50
281.0167729343
 51
300.7218446367
  0
LWPOLYLINE
  5
F6
330
1F
100
AcDbEntity
  8
0
  6
SLD-Durchgehend
 62
     7
370
    15
100
AcDbPolyline
 90
        8
 70
   128
 43
0.0
 10
250.7869968594
 20
77.4812432332
 10
250.6173769415
 20
77.4322780175
 10
250.5304659189
 20
77.3831526143
 10
250.4787067355
 20
77.3295941157
 10
250.4493290962
 20
77.2609705431
 10
250.4457751692
 20
77.1974878712
 10
250.4728803814
 20
77.0933660073
 10
250.5753258647
 20
76.9275235338
  0
LWPOLYLINE
  5
F7
330
1F
100
AcDbEntity
  8
0
  6
SLD-Durchgehend
 62
     7
370
    15
100
AcDbPolyline
 90
        8
 70
   128
 43
0.0
 10
252.0893210949
 20
77.5047311885
 10
252.061604935
 20
77.6780689461
 10
252.019538957
 20
77.7738238079
 10
251.9700298489
 20
77.8311634762
 10
251.9142995061
 20
77.8631599946
 10
251.850880164
 20
77.8753342433
 10
251.7528305234
 20
77.8628731472
 10
251.5632952035
 20
77.7772063715
  0
LINE
  5
F8
330
1F
100
AcDbEntity
  8
0
  6
SLD-Durchgehend
 62
     7
370
    15
100
AcDbLine
 10
252.7197966755
 20
87.5718141301
 30
0.0
 11
252.4737263502
 21
87.879757802
 31
0.0
  0
LINE
  5
F9
330
1F
100
AcDbEntity
  8
0
  6
SLD-Durchgehend
 62
     7
370
    15
100
AcDbLine
 10
252.7229631723
 20
87.5121815456
 30
0.0
 11
252.7197966755
 21
87.5718141301
 31
0.0
  0
LINE
  5
FA
330
1F
100
AcDbEntity
  8
0
  6
SLD-Durchgehend
 62
     7
370
    15
100
AcDbLine
 10
252.5188992203
 20
88.0707031442
 30
0.0
 11
252.4596373023
 21
88.1448587729
 31
0.0
  0
LINE
  5
FB
330
1F
100
AcDbEntity
  8
0
  6
SLD-Durchgehend
 62
     7
370
    15
100
AcDbLine
 10
252.5188992203
 20
88.0707031442
 30
0.0
 11
252.7197966755
 21
87.5718141301
 31
0.0
  0
LINE
  5
FC
330
1F
100
AcDbEntity
  8
0
  6
SLD-Durchgehend
 62
     7
370
    15
100
AcDbLine
 10
199.9431414933
 20
88.7557616783
 30
0.0
 11
199.9431414933
 21
136.1035997374
 31
0.0
  0
LINE
  5
FD
330
1F
100
AcDbEntity
  8
0
  6
SLD-Durchgehend
 62
     7
370
    15
100
AcDbLine
 10
199.9431414933
 20
88.7557616783
 30
0.0
 11
198.4612089054
 21
86.0666813655
 31
0.0
  0
LINE
  5
FE
330
1F
100
AcDbEntity
  8
0
  6
SLD-Durchgehend
 62
     7
370
    15
100
AcDbLine
 10
198.4612089054
 20
86.0666813655
 30
0.0
 11
198.4612089054
 21
136.1035997374
 31
0.0
  0
LINE
  5
FF
330
1F
100
AcDbEntity
  8
0
  6
SLD-Durchgehend
 62
     7
370
    15
100
AcDbLine
 10
198.4612089054
 20
136.1035997374
 30
0.0
 11
199.9431414933
 21
136.1035997374
 31
0.0
  0
LINE
  5
100
330
1F
100
AcDbEntity
  8
0
  6
SLD-Durchgehend
 62
     7
370
    15
100
AcDbLine
 10
188.8031414182
 20
136.1035997374
 30
0.0
 11
198.4612089054
 21
136.1035997374
 31
0.0
  0
LINE
  5
101
330
1F
100
AcDbEntity
  8
0
  6
SLD-Durchgehend
 62
     7
370
    15
100
AcDbLine
 10
198.4612089054
 20
86.0666813655
 30
0.0
 11
196.8031417982
 21
86.0666813655
 31
0.0
  0
ARC
  5
102
330
1F
100
AcDbEntity
  8
0
  6
SLD-Durchgehend
 62
     7
370
    15
100
AcDbCircle
 10
196.1433990223
 20
64.8183688084
 30
0.0
 40
21.25855232734717
100
AcDbArc
 50
88.2215841219
 51
110.1991894934
  0
LINE
  5
103
330
1F
100
AcDbEntity
  8
0
  6
SLD-Durchgehend
 62
     7
370
    15
100
AcDbLine
 10
188.8031414182
 20
84.7694756789
 30
0.0
 11
188.8031414182
 21
84.7535984917
 31
0.0
  0
LWPOLYLINE
  5
104
330
1F
100
AcDbEntity
  8
0
  6
SLD-Durchgehend
 62
     7
370
    15
100
AcDbPolyline
 90
       11
 70
   128
 43
0.0
 10
196.8031417982
 20
146.7207944347
 10
195.5035332994
 20
146.7484994186
 10
194.2039257319
 20
146.8314653588
 10
193.0145038695
 20
146.9554523332
 10
191.8986266882
 20
147.1130265249
 10
190.9262085737
 20
147.2824303759
 10
190.0929891908
 20
147.4509736849
 10
189.4596921683
 20
147.5932890875
 10
189.022278826
 20
147.6986589236
 10
188.8224710182
 20
147.7486970229
 10
188.8311299899
 20
147.7465028269
  0
LINE
  5
105
330
1F
100
AcDbEntity
  8
0
  6
SLD-Durchgehend
 62
     7
370
    15
100
AcDbLine
 10
198.4612089054
 20
146.7207944347
 30
0.0
 11
196.8031417982
 21
146.7207944347
 31
0.0
  0
LINE
  5
106
330
1F
100
AcDbEntity
  8
0
  6
SLD-Durchgehend
 62
     7
370
    15
100
AcDbLine
 10
198.4612089054
 20
140.7122886134
 30
0.0
 11
198.4612089054
 21
146.7207944347
 31
0.0
  0
LINE
  5
107
330
1F
100
AcDbEntity
  8
0
  6
SLD-Durchgehend
 62
     7
370
    15
100
AcDbLine
 10
196.0487621308
 20
140.7122886134
 30
0.0
 11
198.4612089054
 21
140.7122886134
 31
0.0
  0
ARC
  5
108
330
1F
100
AcDbEntity
  8
0
  6
SLD-Durchgehend
 62
     7
370
    15
100
AcDbCircle
 10
195.6789487477
 20
133.2936952249
 30
0.0
 40
7.427805180680926
100
AcDbArc
 50
87.1461947163
 51
157.7718644507
  0
LINE
  5
109
330
1F
100
AcDbEntity
  8
0
  6
SLD-Durchgehend
 62
     7
370
    15
100
AcDbLine
 10
209.8031411351
 20
86.6933217598
 30
0.0
 11
209.8031411351
 21
136.1035997374
 31
0.0
  0
ARC
  5
10A
330
1F
100
AcDbEntity
  8
0
  6
SLD-Durchgehend
 62
     7
370
    15
100
AcDbCircle
 10
209.1907232183
 20
86.6791376207
 30
0.0
 40
0.6125821533107687
100
AcDbArc
 50
271.1616423437
 51
1.3267835803
  0
LINE
  5
10B
330
1F
100
AcDbEntity
  8
0
  6
SLD-Durchgehend
 62
     7
370
    15
100
AcDbLine
 10
209.2031421543
 20
136.1035997374
 30
0.0
 11
209.8031411351
 21
136.1035997374
 31
0.0
  0
LINE
  5
10C
330
1F
100
AcDbEntity
  8
0
  6
SLD-Durchgehend
 62
     7
370
    15
100
AcDbLine
 10
205.2450733663
 20
86.0666813655
 30
0.0
 11
205.2450733663
 21
136.1035997374
 31
0.0
  0
LINE
  5
10D
330
1F
100
AcDbEntity
  8
0
  6
SLD-Durchgehend
 62
     7
370
    15
100
AcDbLine
 10
205.2450733663
 20
86.0666813655
 30
0.0
 11
203.7631417097
 21
88.7557616783
 31
0.0
  0
LINE
  5
10E
330
1F
100
AcDbEntity
  8
0
  6
SLD-Durchgehend
 62
     7
370
    15
100
AcDbLine
 10
203.7631417097
 20
88.7557616783
 30
0.0
 11
203.7631417097
 21
136.1035997374
 31
0.0
  0
LINE
  5
10F
330
1F
100
AcDbEntity
  8
0
  6
SLD-Durchgehend
 62
     7
370
    15
100
AcDbLine
 10
203.7631417097
 20
136.1035997374
 30
0.0
 11
205.2450733663
 21
136.1035997374
 31
0.0
  0
LINE
  5
110
330
1F
100
AcDbEntity
  8
0
  6
SLD-Durchgehend
 62
     7
370
    15
100
AcDbLine
 10
209.2031421543
 20
86.0666813655
 30
0.0
 11
205.2450733663
 21
86.0666813655
 31
0.0
  0
LINE
  5
111
330
1F
100
AcDbEntity
  8
0
  6
SLD-Durchgehend
 62
     7
370
    15
100
AcDbLine
 10
205.2450733663
 20
136.1035997374
 30
0.0
 11
209.2031421543
 21
136.1035997374
 31
0.0
  0
LINE
  5
112
330
1F
100
AcDbEntity
  8
0
  6
SLD-Durchgehend
 62
     7
370
    15
100
AcDbLine
 10
183.853141445
 20
85.0535998447
 30
0.0
 11
183.853141445
 21
147.4535981519
 31
0.0
  0
LINE
  5
113
330
1F
100
AcDbEntity
  8
0
  6
SLD-Durchgehend
 62
     7
370
    15
100
AcDbLine
 10
203.6654664607
 20
89.8535991414
 30
0.0
 11
202.963141206
 21
89.8535991414
 31
0.0
  0
LINE
  5
114
330
1F
100
AcDbEntity
  8
0
  6
SLD-Durchgehend
 62
     7
370
    15
100
AcDbLine
 10
203.368843946
 20
142.6535988553
 30
0.0
 11
202.963141206
 21
142.6535988553
 31
0.0
  0
ARC
  5
115
330
1F
100
AcDbEntity
  8
0
  6
SLD-Durchgehend
 62
     7
370
    15
100
AcDbCircle
 10
202.9246981889
 20
143.3647905906
 30
0.0
 40
0.8384862181329417
100
AcDbArc
 50
301.9851556421
 51
0.5782186088
  0
LWPOLYLINE
  5
116
330
1F
100
AcDbEntity
  8
0
  6
SLD-Durchgehend
 62
     7
370
    15
100
AcDbPolyline
 90
        3
 70
   128
 43
0.0
 10
203.7369938971
 20
136.1035997374
 10
203.7570899756
 20
136.2513130857
 10
203.7631417097
 20
136.3894654764
  0
ARC
  5
117
330
1F
100
AcDbEntity
  8
0
  6
SLD-Durchgehend
 62
     7
370
    15
100
AcDbCircle
 10
200.7830725
 20
143.3656055834
 30
0.0
 40
0.8399658136910396
100
AcDbArc
 50
179.4783948307
 51
237.9582309184
  0
LINE
  5
118
330
1F
100
AcDbEntity
  8
0
  6
SLD-Durchgehend
 62
     7
370
    15
100
AcDbLine
 10
200.743141997
 20
142.6535988553
 30
0.0
 11
200.337439257
 21
142.6535988553
 31
0.0
  0
LINE
  5
119
330
1F
100
AcDbEntity
  8
0
  6
SLD-Durchgehend
 62
     7
370
    15
100
AcDbLine
 10
200.743141997
 20
89.8535991414
 30
0.0
 11
200.0408167423
 21
89.8535991414
 31
0.0
  0
LINE
  5
11A
330
1F
100
AcDbEntity
  8
0
  6
SLD-Durchgehend
 62
     7
370
    15
100
AcDbLine
 10
199.9431414933
 20
136.3894654764
 30
0.0
 11
199.9692893059
 21
136.1035997374
 31
0.0
  0
LINE
  5
11B
330
1F
100
AcDbEntity
  8
0
  6
SLD-Durchgehend
 62
     7
370
    15
100
AcDbLine
 10
202.963141206
 20
142.6535988553
 30
0.0
 11
200.743141997
 21
142.6535988553
 31
0.0
  0
LINE
  5
11C
330
1F
100
AcDbEntity
  8
0
  6
SLD-Durchgehend
 62
     7
370
    15
100
AcDbLine
 10
202.963141206
 20
89.8535991414
 30
0.0
 11
200.743141997
 21
89.8535991414
 31
0.0
  0
LINE
  5
11D
330
1F
100
AcDbEntity
  8
0
  6
SLD-Durchgehend
 62
     7
370
    15
100
AcDbLine
 10
210.0031407953
 20
142.6535988553
 30
0.0
 11
209.960089478
 21
142.6535988553
 31
0.0
  0
LINE
  5
11E
330
1F
100
AcDbEntity
  8
0
  6
SLD-Durchgehend
 62
     7
370
    15
100
AcDbLine
 10
210.0031407953
 20
89.8535991414
 30
0.0
 11
209.9572824718
 21
89.8535991414
 31
0.0
  0
LWPOLYLINE
  5
11F
330
1F
100
AcDbEntity
  8
0
  6
SLD-Durchgehend
 62
     7
370
    15
100
AcDbPolyline
 90
        8
 70
   128
 43
0.0
 10
219.7454566539
 20
135.4346903367
 10
220.0799467445
 20
136.1526226951
 10
220.5821531297
 20
136.7948683305
 10
221.2596977533
 20
137.3477461142
 10
222.0950941027
 20
137.7957569761
 10
222.9640776695
 20
138.099606554
 10
223.9170963348
 20
138.3074032469
 10
225.0858130337
 20
138.4244202031
  0
ELLIPSE
  5
120
330
1F
100
AcDbEntity
  8
0
  6
SLD-Durchgehend
 62
     7
370
    15
100
AcDbEllipse
 10
223.4846758817
 20
116.2535989983
 30
0.0
 11
1.299954407456312
 21
25.99774751943445
 31
0.0
210
0.0
220
0.0
230
0.9999999999999999
 40
0.263265937
 41
0.7542515191645274
 42
2.762733415472977
  0
LWPOLYLINE
  5
121
330
1F
100
AcDbEntity
  8
0
  6
SLD-Durchgehend
 62
     7
370
    15
100
AcDbPolyline
 90
        9
 70
   128
 43
0.0
 10
225.0858130337
 20
90.7747255964
 10
224.1449350895
 20
90.8068301482
 10
223.2441263677
 20
90.8734551026
 10
222.4102648378
 20
90.9777557803
 10
221.6626177014
 20
91.1229918106
 10
221.0081773282
 20
91.3169397367
 10
220.4718323828
 20
91.5584577573
 10
220.0402127982
 20
91.8667069031
 10
219.7454566539
 20
92.2260037018
  0
LINE
  5
122
330
1F
100
AcDbEntity
  8
0
  6
SLD-Durchgehend
 62
     7
370
    15
100
AcDbLine
 10
162.0531412245
 20
93.0251529766
 30
0.0
 11
162.0531412245
 21
94.3084502919
 31
0.0
  0
LWPOLYLINE
  5
123
330
1F
100
AcDbEntity
  8
0
  6
SLD-Durchgehend
 62
     7
370
    15
100
AcDbPolyline
 90
        5
 70
   128
 43
0.0
 10
161.4315374226
 20
95.389227788
 10
161.4863811464
 20
95.2750867559
 10
161.7768699707
 20
94.8763521714
 10
162.0072996647
 20
94.5095489128
 10
162.0531412245
 20
94.3084502919
  0
LWPOLYLINE
  5
124
330
1F
100
AcDbEntity
  8
0
  6
SLD-Durchgehend
 62
     7
370
    15
100
AcDbPolyline
 90
        7
 70
   128
 43
0.0
 10
160.6531417401
 20
96.1075103236
 10
160.7328983427
 20
96.108983676
 10
160.8116975457
 20
96.0971074505
 10
160.9065173597
 20
96.0647682054
 10
161.0351013423
 20
95.9870716883
 10
161.2708377124
 20
95.718981172
 10
161.4315374226
 20
95.389227788
  0
LWPOLYLINE
  5
125
330
1F
100
AcDbEntity
  8
0
  6
SLD-Durchgehend
 62
     7
370
    15
100
AcDbPolyline
 90
        3
 70
   128
 43
0.0
 10
156.7395398797
 20
95.611316557
 10
157.4480584295
 20
95.7206780417
 10
160.6531417401
 20
96.1075103236
  0
ARC
  5
126
330
1F
100
AcDbEntity
  8
0
  6
SLD-Durchgehend
 62
     7
370
    15
100
AcDbCircle
 10
153.5303361606
 20
126.3066799989
 30
0.0
 40
30.86266879801698
100
AcDbArc
 50
269.2068966969
 51
275.9685962263
  0
LINE
  5
127
330
1F
100
AcDbEntity
  8
0
  6
SLD-Durchgehend
 62
     7
370
    15
100
AcDbLine
 10
153.093097213
 20
95.4587826831
 30
0.0
 11
153.1031405957
 21
95.4469679249
 31
0.0
  0
LINE
  5
128
330
1F
100
AcDbEntity
  8
0
  6
SLD-Durchgehend
 62
     7
370
    15
100
AcDbLine
 10
153.1031405957
 20
137.123537655
 30
0.0
 11
153.093097213
 21
137.1135520143
 31
0.0
  0
LINE
  5
129
330
1F
100
AcDbEntity
  8
0
  6
SLD-Durchgehend
 62
     7
370
    15
100
AcDbLine
 10
156.6531410844
 20
137.0766865416
 30
0.0
 11
153.1031405957
 21
137.123537655
 31
0.0
  0
ARC
  5
12A
330
1F
100
AcDbEntity
  8
0
  6
SLD-Durchgehend
 62
     7
370
    15
100
AcDbCircle
 10
156.5952166868
 20
138.6264448859
 30
0.0
 40
1.550840469419273
100
AcDbArc
 50
272.1405139456
 51
340.0660547734
  0
LINE
  5
12B
330
1F
100
AcDbEntity
  8
0
  6
SLD-Durchgehend
 62
     7
370
    15
100
AcDbLine
 10
158.0531405688
 20
138.097706656
 30
0.0
 11
158.0531405688
 21
139.281644891
 31
0.0
  0
LINE
  5
12C
330
1F
100
AcDbEntity
  8
0
  6
SLD-Durchgehend
 62
     7
370
    15
100
AcDbLine
 10
181.85314135
 20
92.0331677748
 30
0.0
 11
181.85314135
 21
140.4740302218
 31
0.0
  0
LWPOLYLINE
  5
12D
330
1F
100
AcDbEntity
  8
0
  6
SLD-Durchgehend
 62
     7
370
    15
100
AcDbPolyline
 90
       18
 70
   128
 43
0.0
 10
170.6220474498
 20
92.5960908039
 10
170.6207277657
 20
92.5959175779
 10
170.7045747371
 20
92.6069220854
 10
170.9513258592
 20
92.6375458343
 10
171.3438140632
 20
92.6820630534
 10
171.8669798629
 20
92.7305160416
 10
172.5037949563
 20
92.7727459325
 10
173.239388916
 20
92.798783849
 10
174.0350950913
 20
92.8009128524
 10
174.8524442718
 20
92.7734146221
 10
175.6660569863
 20
92.7161289705
 10
176.4598991194
 20
92.6319187833
 10
177.18805414
 20
92.5316321058
 10
177.8190074892
 20
92.4261486484
 10
178.3345564672
 20
92.3270708276
 10
178.7197864086
 20
92.2453752114
 10
178.9597514489
 20
92.1920644445
 10
179.03620791
 20
92.174540679
  0
LWPOLYLINE
  5
12E
330
1F
100
AcDbEntity
  8
0
  6
SLD-Durchgehend
 62
     7
370
    15
100
AcDbPolyline
 90
       18
 70
   128
 43
0.0
 10
179.0361534276
 20
140.3326275153
 10
178.9590427124
 20
140.3151540412
 10
178.7170078077
 20
140.2615657402
 10
178.3300558508
 20
140.1794584794
 10
177.8135336408
 20
140.0800379319
 10
177.1840354831
 20
139.9746718211
 10
176.4581854859
 20
139.8746813042
 10
175.6674800471
 20
139.7909554048
 10
174.8539120362
 20
139.7338373913
 10
174.036217335
 20
139.7063969029
 10
173.2392510803
 20
139.7085445328
 10
172.5028273122
 20
139.7345824493
 10
171.8647297875
 20
139.7768421425
 10
171.3419579373
 20
139.8252522899
 10
170.9496876628
 20
139.8698160751
 10
170.7042068646
 20
139.9003448291
 10
170.6206076251
 20
139.9112748308
 10
170.6216423244
 20
139.9111388577
  0
LWPOLYLINE
  5
12F
330
1F
100
AcDbEntity
  8
0
  6
SLD-Durchgehend
 62
     7
370
    15
100
AcDbPolyline
 90
        3
 70
   128
 43
0.0
 10
151.9596608759
 20
96.6027802182
 10
151.9724646987
 20
96.6073790891
 10
151.9834207774
 20
96.6635117633
  0
LINE
  5
130
330
1F
100
AcDbEntity
  8
0
  6
SLD-Durchgehend
 62
     7
370
    15
100
AcDbLine
 10
151.9531416179
 20
96.6004388733
 30
0.0
 11
151.9531416179
 21
135.9442765219
 31
0.0
  0
LWPOLYLINE
  5
131
330
1F
100
AcDbEntity
  8
0
  6
SLD-Durchgehend
 62
     7
370
    15
100
AcDbPolyline
 90
        3
 70
   128
 43
0.0
 10
152.015804726
 20
135.9281516029
 10
151.9742975415
 20
135.9906768752
 10
151.9531416179
 20
135.9442765219
  0
LWPOLYLINE
  5
132
330
1F
100
AcDbEntity
  8
0
  6
SLD-Durchgehend
 62
     7
370
    15
100
AcDbPolyline
 90
       12
 70
   128
 43
0.0
 10
152.7772950412
 20
136.6437184019
 10
152.711435634
 20
136.4589142008
 10
152.5970021666
 20
136.19541883
 10
152.467667538
 20
135.9622417344
 10
152.3931207539
 20
135.855655591
 10
152.3543740095
 20
135.808655466
 10
152.3103224517
 20
135.7629163517
 10
152.2713708163
 20
135.7301375223
 10
152.2347512127
 20
135.7069569035
 10
152.1884719313
 20
135.6906047417
 10
152.1080317379
 20
135.7126659108
 10
152.015804726
 20
135.9281516029
  0
LINE
  5
133
330
1F
100
AcDbEntity
  8
0
  6
SLD-Durchgehend
 62
     7
370
    15
100
AcDbLine
 10
153.093097213
 20
137.1135520143
 30
0.0
 11
152.7772950412
 21
136.6437184019
 31
0.0
  0
LINE
  5
134
330
1F
100
AcDbEntity
  8
0
  6
SLD-Durchgehend
 62
     7
370
    15
100
AcDbLine
 10
152.8920507462
 20
95.8096770896
 30
0.0
 11
153.093097213
 21
95.4587826831
 31
0.0
  0
LWPOLYLINE
  5
135
330
1F
100
AcDbEntity
  8
0
  6
SLD-Durchgehend
 62
     7
370
    15
100
AcDbPolyline
 90
       12
 70
   128
 43
0.0
 10
151.9834207774
 20
96.6635117633
 10
152.0681636811
 20
96.9890611572
 10
152.1192076088
 20
97.0351113332
 10
152.1862553836
 20
97.0407681866
 10
152.2207441212
 20
97.0285008056
 10
152.2655258359
 20
97.0014812751
 10
152.302883047
 20
96.9710456533
 10
152.341342944
 20
96.9333345396
 10
152.3912990869
 20
96.8758458598
 10
152.4656149031
 20
96.7744974745
 10
152.6259402217
 20
96.4964175923
 10
152.8920507462
 20
95.8096770896
  0
LWPOLYLINE
  5
136
330
1F
100
AcDbEntity
  8
0
  6
SLD-Durchgehend
 62
     7
370
    15
100
AcDbPolyline
 90
        3
 70
   128
 43
0.0
 10
205.2450733663
 20
146.7207944347
 10
205.2370695801
 20
146.7064613802
 10
203.7631417097
 20
144.0588323725
  0
LINE
  5
137
330
1F
100
AcDbEntity
  8
0
  6
SLD-Durchgehend
 62
     7
370
    15
100
AcDbLine
 10
205.2450733663
 20
140.7122886134
 30
0.0
 11
205.2450733663
 21
146.7207944347
 31
0.0
  0
LWPOLYLINE
  5
138
330
1F
100
AcDbEntity
  8
0
  6
SLD-Durchgehend
 62
     7
370
    15
100
AcDbPolyline
 90
        3
 70
   128
 43
0.0
 10
203.7631417097
 20
137.3037429852
 10
204.8895894022
 20
139.9140389962
 10
205.2450733663
 20
140.7122886134
  0
LINE
  5
139
330
1F
100
AcDbEntity
  8
0
  6
SLD-Durchgehend
 62
     7
370
    15
100
AcDbLine
 10
203.7631417097
 20
137.3037429852
 30
0.0
 11
203.7631417097
 21
144.0588323725
 31
0.0
  0
LINE
  5
13A
330
1F
100
AcDbEntity
  8
0
  6
SLD-Durchgehend
 62
     7
370
    15
100
AcDbLine
 10
203.7631417097
 20
136.3894654764
 30
0.0
 11
203.7631417097
 21
137.3037429852
 31
0.0
  0
LINE
  5
13B
330
1F
100
AcDbEntity
  8
0
  6
SLD-Durchgehend
 62
     7
370
    15
100
AcDbLine
 10
205.2450733663
 20
140.7122886134
 30
0.0
 11
209.2031421543
 21
140.7122886134
 31
0.0
  0
ARC
  5
13C
330
1F
100
AcDbEntity
  8
0
  6
SLD-Durchgehend
 62
     7
370
    15
100
AcDbCircle
 10
209.1201129725
 20
140.0279257213
 30
0.0
 40
0.6893811813573116
100
AcDbArc
 50
352.2154757984
 51
83.0824936921
  0
LINE
  5
13D
330
1F
100
AcDbEntity
  8
0
  6
SLD-Durchgehend
 62
     7
370
    15
100
AcDbLine
 10
209.8031411351
 20
139.9345504446
 30
0.0
 11
209.8031411351
 21
136.1035997374
 31
0.0
  0
LWPOLYLINE
  5
13E
330
1F
100
AcDbEntity
  8
0
  6
SLD-Durchgehend
 62
     7
370
    15
100
AcDbPolyline
 90
        3
 70
   128
 43
0.0
 10
198.4612089054
 20
140.7122886134
 10
198.8166928695
 20
139.9140389962
 10
199.9431414933
 20
137.3037429852
  0
LINE
  5
13F
330
1F
100
AcDbEntity
  8
0
  6
SLD-Durchgehend
 62
     7
370
    15
100
AcDbLine
 10
199.9431414933
 20
137.3037429852
 30
0.0
 11
199.9431414933
 21
136.3894654764
 31
0.0
  0
ARC
  5
140
330
1F
100
AcDbEntity
  8
0
  6
SLD-Durchgehend
 62
     7
370
    15
100
AcDbCircle
 10
209.1950346558
 20
146.1126120483
 30
0.0
 40
0.6082364232875822
100
AcDbArc
 50
358.8156305045
 51
89.2362522385
  0
LINE
  5
141
330
1F
100
AcDbEntity
  8
0
  6
SLD-Durchgehend
 62
     7
370
    15
100
AcDbLine
 10
209.8031411351
 20
139.9345504446
 30
0.0
 11
209.8031411351
 21
146.100039999
 31
0.0
  0
LWPOLYLINE
  5
142
330
1F
100
AcDbEntity
  8
0
  6
SLD-Durchgehend
 62
     7
370
    15
100
AcDbPolyline
 90
        3
 70
   128
 43
0.0
 10
199.9431414933
 20
144.0588323725
 10
198.4692126916
 20
146.7064613802
 10
198.4612089054
 20
146.7207944347
  0
LINE
  5
143
330
1F
100
AcDbEntity
  8
0
  6
SLD-Durchgehend
 62
     7
370
    15
100
AcDbLine
 10
199.9431414933
 20
137.3037429852
 30
0.0
 11
199.9431414933
 21
144.0588323725
 31
0.0
  0
LINE
  5
144
330
1F
100
AcDbEntity
  8
0
  6
SLD-Durchgehend
 62
     7
370
    15
100
AcDbLine
 10
209.2031421543
 20
146.7207944347
 30
0.0
 11
205.2450733663
 21
146.7207944347
 31
0.0
  0
LINE
  5
145
330
1F
100
AcDbEntity
  8
0
  6
SLD-Durchgehend
 62
     7
370
    15
100
AcDbLine
 10
225.0858130337
 20
138.4244202031
 30
0.0
 11
225.1224736155
 21
138.4266330255
 31
0.0
  0
LWPOLYLINE
  5
146
330
1F
100
AcDbEntity
  8
0
  6
SLD-Durchgehend
 62
     7
370
    15
100
AcDbPolyline
 90
        3
 70
   128
 43
0.0
 10
225.1224736155
 20
90.7734422339
 10
225.0903616131
 20
90.7746417774
 10
225.0858130337
 20
90.7747255964
  0
ARC
  5
147
330
1F
100
AcDbEntity
  8
0
  6
SLD-Durchgehend
 62
     7
370
    15
100
AcDbCircle
 10
225.0148218168
 20
139.4858759969
 30
0.0
 40
1.064699291941429
100
AcDbArc
 50
275.803095668
 51
346.8825579329
  0
ARC
  5
148
330
1F
100
AcDbEntity
  8
0
  6
SLD-Durchgehend
 62
     7
370
    15
100
AcDbCircle
 10
225.0442093733
 20
89.7413689846
 30
0.0
 40
1.035036464875787
100
AcDbArc
 50
13.2385399006
 51
85.6634426712
  0
LINE
  5
149
330
1F
100
AcDbEntity
  8
0
  6
SLD-Durchgehend
 62
     7
370
    15
100
AcDbLine
 10
226.0517398299
 20
89.978398229
 30
0.0
 11
226.1210898341
 21
89.7051425977
 31
0.0
  0
LINE
  5
14A
330
1F
100
AcDbEntity
  8
0
  6
SLD-Durchgehend
 62
     7
370
    15
100
AcDbLine
 10
226.1210898341
 20
139.5191843016
 30
0.0
 11
226.0517398299
 21
139.2442448391
 31
0.0
  0
ELLIPSE
  5
14B
330
1F
100
AcDbEntity
  8
0
  6
SLD-Durchgehend
 62
     7
370
    15
100
AcDbEllipse
 10
361.3002739077
 20
116.2535989983
 30
0.0
 11
386.1178526902879
 21
4.710836101070484
 31
0.0
210
0.0
220
0.0
230
0.9999999999999998
 40
0.068854266
 41
1.918040898327885
 42
1.927632123892661
  0
LINE
  5
14C
330
1F
100
AcDbEntity
  8
0
  6
SLD-Durchgehend
 62
     7
370
    15
100
AcDbLine
 10
251.3379821957
 20
109.2601385294
 30
0.0
 11
229.596226889
 21
139.6495210333
 31
0.0
  0
LINE
  5
14D
330
1F
100
AcDbEntity
  8
0
  6
SLD-Durchgehend
 62
     7
370
    15
100
AcDbLine
 10
252.4955341996
 20
87.4692196352
 30
0.0
 11
251.3379821957
 21
109.2601385294
 31
0.0
  0
LINE
  5
14E
330
1F
100
AcDbEntity
  8
0
  6
SLD-Durchgehend
 62
     7
370
    15
100
AcDbLine
 10
251.678153354
 20
88.4921079827
 30
0.0
 11
252.4955341996
 21
87.4692196352
 31
0.0
  0
LINE
  5
14F
330
1F
100
AcDbEntity
  8
0
  6
SLD-Durchgehend
 62
     7
370
    15
100
AcDbLine
 10
236.9310664416
 20
88.6884531332
 30
0.0
 11
237.8756659509
 21
88.8131665392
 31
0.0
  0
ARC
  5
150
330
1F
100
AcDbEntity
  8
0
  6
SLD-Durchgehend
 62
     7
370
    15
100
AcDbCircle
 10
233.7686313856
 20
83.7042078295
 30
0.0
 40
5.902854964489077
100
AcDbArc
 50
57.6054351867
 51
89.1796718901
  0
ELLIPSE
  5
151
330
1F
100
AcDbEntity
  8
0
  6
SLD-Durchgehend
 62
     7
370
    15
100
AcDbEllipse
 10
361.3002739077
 20
116.2535989983
 30
0.0
 11
386.1178526902876
 21
4.710836101070484
 31
0.0
210
0.0
220
0.0
230
0.9999999999999998
 40
0.068854266
 41
4.353873068868634
 42
4.375167988834995
  0
LINE
  5
152
330
1F
100
AcDbEntity
  8
0
  6
SLD-Durchgehend
 62
     7
370
    15
100
AcDbLine
 10
226.1210898341
 20
139.5191843016
 30
0.0
 11
226.1210898341
 21
143.2535996987
 31
0.0
  0
LINE
  5
153
330
1F
100
AcDbEntity
  8
0
  6
SLD-Durchgehend
 62
     7
370
    15
100
AcDbLine
 10
226.1210898341
 20
89.2535982979
 30
0.0
 11
226.1210898341
 21
89.7051425977
 31
0.0
  0
ELLIPSE
  5
154
330
1F
100
AcDbEntity
  8
0
  6
SLD-Durchgehend
 62
     7
370
    15
100
AcDbEllipse
 10
246.7674144474
 20
116.2535989983
 30
0.0
 11
-19.02153073006226
 21
26.99157843917783
 31
0.0
210
0.0
220
0.0
230
1.0
 40
0.0354498044
 41
4.687411955899432
 42
6.78082583663621
  0
LINE
  5
155
330
1F
100
AcDbEntity
  8
0
  6
SLD-Durchgehend
 62
     7
370
    15
100
AcDbLine
 10
248.9539826692
 20
115.1802811632
 30
0.0
 11
248.1990153373
 21
116.2535989983
 31
0.0
  0
LINE
  5
156
330
1F
100
AcDbEntity
  8
0
  6
SLD-Durchgehend
 62
     7
370
    15
100
AcDbLine
 10
248.9539826692
 20
115.1802811632
 30
0.0
 11
251.3379821957
 21
109.2601385294
 31
0.0
  0
LINE
  5
157
330
1F
100
AcDbEntity
  8
0
  6
SLD-Durchgehend
 62
     7
370
    15
100
AcDbLine
 10
153.1031405957
 20
95.4410987301
 30
0.0
 11
153.1031405957
 21
95.4469679249
 31
0.0
  0
LINE
  5
158
330
1F
100
AcDbEntity
  8
0
  6
SLD-Durchgehend
 62
     7
370
    15
100
AcDbLine
 10
236.9310664416
 20
88.6884531332
 30
0.0
 11
235.963247198
 21
88.884334485
 31
0.0
  0
LINE
  5
159
330
1F
100
AcDbEntity
  8
0
  6
SLD-Gestrichelt
 62
     7
370
     0
100
AcDbLine
 10
188.8031414182
 20
84.7535984917
 30
0.0
 11
188.8031414182
 21
84.7694756789
 31
0.0
  0
ARC
  5
15A
330
1F
100
AcDbEntity
  8
0
  6
SLD-Gestrichelt
 62
     7
370
     0
100
AcDbCircle
 10
196.0704836138
 20
65.2680456038
 30
0.0
 40
20.81153616533805
100
AcDbArc
 50
87.9825180967
 51
110.4382555186
  0
LINE
  5
15B
330
1F
100
AcDbEntity
  8
0
  6
SLD-Gestrichelt
 62
     7
370
     0
100
AcDbLine
 10
196.8031417982
 20
86.0666813655
 30
0.0
 11
198.4612089054
 21
86.0666813655
 31
0.0
  0
LINE
  5
15C
330
1F
100
AcDbEntity
  8
0
  6
SLD-Gestrichelt
 62
     7
370
     0
100
AcDbLine
 10
198.4612089054
 20
146.7207944347
 30
0.0
 11
198.4612089054
 21
86.0666813655
 31
0.0
  0
LINE
  5
15D
330
1F
100
AcDbEntity
  8
0
  6
SLD-Gestrichelt
 62
     7
370
     0
100
AcDbLine
 10
196.8031417982
 20
146.7207944347
 30
0.0
 11
198.4612089054
 21
146.7207944347
 31
0.0
  0
ARC
  5
15E
330
1F
100
AcDbEntity
  8
0
  6
SLD-Gestrichelt
 62
     7
370
     0
100
AcDbCircle
 10
196.9630802435
 20
179.4567615157
 30
0.0
 40
32.73635778517225
100
AcDbArc
 50
255.616715589
 51
269.720071658
  0
CIRCLE
  5
15F
330
1F
100
AcDbEntity
  8
0
  6
SLD-Gestrichelt
 62
     7
370
     0
100
AcDbCircle
 10
190.8531415703
 20
116.2535988824
 30
0.0
 40
5.000000030257582
  0
LINE
  5
160
330
1F
100
AcDbEntity
  8
0
  6
SLD-Gestrichelt
 62
     7
370
     0
100
AcDbLine
 10
183.853141445
 20
147.4535981519
 30
0.0
 11
183.853141445
 21
85.0535998447
 31
0.0
  0
ARC
  5
161
330
1F
100
AcDbEntity
  8
0
  6
SLD-Gestrichelt
 62
     7
370
     0
100
AcDbCircle
 10
202.8790206275
 20
89.4496520654
 30
0.0
 40
0.8841211956749823
100
AcDbArc
 50
359.970961559
 51
27.1866749334
  0
LINE
  5
162
330
1F
100
AcDbEntity
  8
0
  6
SLD-Gestrichelt
 62
     7
370
     0
100
AcDbLine
 10
203.7631417097
 20
136.3894654764
 30
0.0
 11
203.7631417097
 21
143.3732522978
 31
0.0
  0
LINE
  5
163
330
1F
100
AcDbEntity
  8
0
  6
SLD-Gestrichelt
 62
     7
370
     0
100
AcDbLine
 10
203.7369938971
 20
136.1035997374
 30
0.0
 11
203.7631417097
 21
136.1035997374
 31
0.0
  0
LINE
  5
164
330
1F
100
AcDbEntity
  8
0
  6
SLD-Gestrichelt
 62
     7
370
     0
100
AcDbLine
 10
203.7631417097
 20
89.4492039783
 30
0.0
 11
203.7631417097
 21
136.1035997374
 31
0.0
  0
ARC
  5
165
330
1F
100
AcDbEntity
  8
0
  6
SLD-Gestrichelt
 62
     7
370
     0
100
AcDbCircle
 10
200.8232731971
 20
89.4506156366
 30
0.0
 40
0.8801328359032604
100
AcDbArc
 50
152.7504659068
 51
180.0918976009
  0
LINE
  5
166
330
1F
100
AcDbEntity
  8
0
  6
SLD-Gestrichelt
 62
     7
370
     0
100
AcDbLine
 10
199.9431414933
 20
136.1035997374
 30
0.0
 11
199.9692893059
 21
136.1035997374
 31
0.0
  0
LINE
  5
167
330
1F
100
AcDbEntity
  8
0
  6
SLD-Gestrichelt
 62
     7
370
     0
100
AcDbLine
 10
199.9431414933
 20
136.3894654764
 30
0.0
 11
199.9431414933
 21
143.3732522978
 31
0.0
  0
LINE
  5
168
330
1F
100
AcDbEntity
  8
0
  6
SLD-Gestrichelt
 62
     7
370
     0
100
AcDbLine
 10
199.9431414933
 20
89.4492039783
 30
0.0
 11
199.9431414933
 21
136.1035997374
 31
0.0
  0
LINE
  5
169
330
1F
100
AcDbEntity
  8
0
  6
SLD-Gestrichelt
 62
     7
370
     0
100
AcDbLine
 10
209.8031411351
 20
142.6535988553
 30
0.0
 11
210.0031407953
 21
142.6535988553
 31
0.0
  0
LINE
  5
16A
330
1F
100
AcDbEntity
  8
0
  6
SLD-Gestrichelt
 62
     7
370
     0
100
AcDbLine
 10
209.960089478
 20
142.6535988553
 30
0.0
 11
209.8031411351
 21
142.6535988553
 31
0.0
  0
LINE
  5
16B
330
1F
100
AcDbEntity
  8
0
  6
SLD-Gestrichelt
 62
     7
370
     0
100
AcDbLine
 10
209.8031411351
 20
142.6535988553
 30
0.0
 11
209.8031411351
 21
89.8535991414
 31
0.0
  0
LINE
  5
16C
330
1F
100
AcDbEntity
  8
0
  6
SLD-Gestrichelt
 62
     7
370
     0
100
AcDbLine
 10
209.8031411351
 20
89.8535991414
 30
0.0
 11
210.0031407953
 21
89.8535991414
 31
0.0
  0
LINE
  5
16D
330
1F
100
AcDbEntity
  8
0
  6
SLD-Gestrichelt
 62
     7
370
     0
100
AcDbLine
 10
209.9572824718
 20
89.8535991414
 30
0.0
 11
209.8031411351
 21
89.8535991414
 31
0.0
  0
LINE
  5
16E
330
1F
100
AcDbEntity
  8
0
  6
SLD-Gestrichelt
 62
     7
370
     0
100
AcDbLine
 10
209.8031411351
 20
89.8535991414
 30
0.0
 11
209.8031411351
 21
142.6535988553
 31
0.0
  0
LINE
  5
16F
330
1F
100
AcDbEntity
  8
0
  6
SLD-Gestrichelt
 62
     7
370
     0
100
AcDbLine
 10
183.853141445
 20
90.9296753211
 30
0.0
 11
183.853141445
 21
141.5775226755
 31
0.0
  0
LINE
  5
170
330
1F
100
AcDbEntity
  8
0
  6
SLD-Gestrichelt
 62
     7
370
     0
100
AcDbLine
 10
188.8031414182
 20
136.1035997374
 30
0.0
 11
196.0487621308
 21
136.1035997374
 31
0.0
  0
LWPOLYLINE
  5
171
330
1F
100
AcDbEntity
  8
0
  6
SLD-Gestrichelt
 62
     7
370
     0
100
AcDbPolyline
 90
        2
 70
   128
 43
0.0
 10
203.7631417097
 20
136.1035997374
 10
203.7631417097
 20
136.1035997374
  0
LWPOLYLINE
  5
172
330
1F
100
AcDbEntity
  8
0
  6
SLD-Gestrichelt
 62
     7
370
     0
100
AcDbPolyline
 90
        2
 70
   128
 43
0.0
 10
209.8031411351
 20
136.1035997374
 10
209.8031411351
 20
136.1035997374
  0
LWPOLYLINE
  5
173
330
1F
100
AcDbEntity
  8
0
  6
SLD-Gestrichelt
 62
     7
370
     0
100
AcDbPolyline
 90
        2
 70
   128
 43
0.0
 10
199.9431414933
 20
136.1035997374
 10
199.9431414933
 20
136.1035997374
  0
ARC
  5
174
330
1F
100
AcDbEntity
  8
0
  6
SLD-Gestrichelt
 62
     7
370
     0
100
AcDbCircle
 10
153.5303361606
 20
126.3066799989
 30
0.0
 40
30.86266879801698
100
AcDbArc
 50
269.2068966969
 51
275.9685962263
  0
LWPOLYLINE
  5
175
330
1F
100
AcDbEntity
  8
0
  6
SLD-Gestrichelt
 62
     7
370
     0
100
AcDbPolyline
 90
        3
 70
   128
 43
0.0
 10
156.7395398797
 20
95.611316557
 10
157.4480584295
 20
95.7206780417
 10
160.6531417401
 20
96.1075103236
  0
LWPOLYLINE
  5
176
330
1F
100
AcDbEntity
  8
0
  6
SLD-Gestrichelt
 62
     7
370
     0
100
AcDbPolyline
 90
        7
 70
   128
 43
0.0
 10
160.6531417401
 20
96.1075103236
 10
160.7328983427
 20
96.108983676
 10
160.8116975457
 20
96.0971074505
 10
160.9065173597
 20
96.0647682054
 10
161.0351013423
 20
95.9870716883
 10
161.2708377124
 20
95.718981172
 10
161.4315374226
 20
95.389227788
  0
LWPOLYLINE
  5
177
330
1F
100
AcDbEntity
  8
0
  6
SLD-Gestrichelt
 62
     7
370
     0
100
AcDbPolyline
 90
        5
 70
   128
 43
0.0
 10
161.4315374226
 20
95.389227788
 10
161.4863811464
 20
95.2750867559
 10
161.7768699707
 20
94.8763521714
 10
162.0072996647
 20
94.5095489128
 10
162.0531412245
 20
94.3084502919
  0
LINE
  5
178
330
1F
100
AcDbEntity
  8
0
  6
SLD-Gestrichelt
 62
     7
370
     0
100
AcDbLine
 10
162.0531412245
 20
94.3084502919
 30
0.0
 11
162.0531412245
 21
93.0251529766
 31
0.0
  0
LINE
  5
179
330
1F
100
AcDbEntity
  8
0
  6
SLD-Gestrichelt
 62
     7
370
     0
100
AcDbLine
 10
158.0531405688
 20
139.281644891
 30
0.0
 11
158.0531405688
 21
138.097706656
 31
0.0
  0
ARC
  5
17A
330
1F
100
AcDbEntity
  8
0
  6
SLD-Gestrichelt
 62
     7
370
     0
100
AcDbCircle
 10
156.5952166868
 20
138.6264448859
 30
0.0
 40
1.550840469419273
100
AcDbArc
 50
272.1405139456
 51
340.0660547734
  0
LINE
  5
17B
330
1F
100
AcDbEntity
  8
0
  6
SLD-Gestrichelt
 62
     7
370
     0
100
AcDbLine
 10
156.6531410844
 20
137.0766865416
 30
0.0
 11
153.1031405957
 21
137.123537655
 31
0.0
  0
LINE
  5
17C
330
1F
100
AcDbEntity
  8
0
  6
SLD-Gestrichelt
 62
     7
370
     0
100
AcDbLine
 10
153.1031405957
 20
137.123537655
 30
0.0
 11
153.093097213
 21
137.1135520143
 31
0.0
  0
LINE
  5
17D
330
1F
100
AcDbEntity
  8
0
  6
SLD-Gestrichelt
 62
     7
370
     0
100
AcDbLine
 10
153.093097213
 20
95.4587826831
 30
0.0
 11
153.1031405957
 21
95.4469679249
 31
0.0
  0
LINE
  5
17E
330
1F
100
AcDbEntity
  8
0
  6
SLD-Gestrichelt
 62
     7
370
     0
100
AcDbLine
 10
181.85314135
 20
140.4740302218
 30
0.0
 11
181.85314135
 21
92.0331677748
 31
0.0
  0
ARC
  5
17F
330
1F
100
AcDbEntity
  8
0
  6
SLD-Gestrichelt
 62
     7
370
     0
100
AcDbCircle
 10
174.3342558728
 20
64.06977821
 30
0.0
 40
28.76683857460512
100
AcDbArc
 50
94.9575529144
 51
97.4143934236
  0
LWPOLYLINE
  5
180
330
1F
100
AcDbEntity
  8
0
  6
SLD-Gestrichelt
 62
     7
370
     0
100
AcDbPolyline
 90
       14
 70
   128
 43
0.0
 10
179.03620791
 20
92.174540679
 10
179.0375457549
 20
92.1742352052
 10
178.953249886
 20
92.1933682961
 10
178.7069402107
 20
92.2479419364
 10
178.3162555129
 20
92.3306322051
 10
177.7959721566
 20
92.4303097976
 10
177.1626755999
 20
92.535657282
 10
176.4334570089
 20
92.6353181107
 10
175.6408796118
 20
92.7183902217
 10
174.82651532
 20
92.774748276
 10
174.0100564838
 20
92.8013319476
 10
173.2152434469
 20
92.798353578
 10
172.4819275023
 20
92.7716506971
 10
171.8482919441
 20
92.7289998485
  0
LWPOLYLINE
  5
181
330
1F
100
AcDbEntity
  8
0
  6
SLD-Gestrichelt
 62
     7
370
     0
100
AcDbPolyline
 90
       14
 70
   128
 43
0.0
 10
171.8481988118
 20
139.7781813843
 10
172.483249049
 20
139.7356627835
 10
173.2167466016
 20
139.7090083314
 10
174.0118744255
 20
139.7060262365
 10
174.8298541115
 20
139.7325968696
 10
175.6437378408
 20
139.7889325721
 10
176.437630731
 20
139.8723064316
 10
177.1652926163
 20
139.9719206942
 10
177.7984350392
 20
140.0773110194
 10
178.3175500513
 20
140.1767539186
 10
178.7077276439
 20
140.2593193902
 10
178.9535460466
 20
140.3138073487
 10
179.0376542539
 20
140.3329683794
 10
179.0361534276
 20
140.3326275153
  0
ARC
  5
182
330
1F
100
AcDbEntity
  8
0
  6
SLD-Gestrichelt
 62
     7
370
     0
100
AcDbCircle
 10
173.9824745275
 20
165.1913371235
 30
0.0
 40
25.50261981554748
100
AcDbArc
 50
262.427316406
 51
265.1993879062
  0
LINE
  5
183
330
1F
100
AcDbEntity
  8
0
  6
SLD-Gestrichelt
 62
     7
370
     0
100
AcDbLine
 10
151.9531416179
 20
96.6004388733
 30
0.0
 11
151.9596608759
 21
96.6027802182
 31
0.0
  0
LWPOLYLINE
  5
184
330
1F
100
AcDbEntity
  8
0
  6
SLD-Gestrichelt
 62
     7
370
     0
100
AcDbPolyline
 90
        7
 70
   128
 43
0.0
 10
177.6081434854
 20
136.0911274655
 10
178.289584297
 20
136.1680267705
 10
178.5918874138
 20
136.1907715304
 10
178.5654532195
 20
136.1889740778
 10
178.4784225219
 20
136.1830583168
 10
177.9587240362
 20
136.135117556
 10
177.6081434854
 20
136.0911274655
  0
LWPOLYLINE
  5
185
330
1F
100
AcDbEntity
  8
0
  6
SLD-Gestrichelt
 62
     7
370
     0
100
AcDbPolyline
 90
        7
 70
   128
 43
0.0
 10
177.6081434854
 20
96.4160705311
 10
178.289584297
 20
96.3391712261
 10
178.5918874138
 20
96.3164264662
 10
178.5654285395
 20
96.3182257814
 10
178.4784225219
 20
96.3241396798
 10
177.9587240362
 20
96.3720804406
 10
177.6081434854
 20
96.4160705311
  0
LINE
  5
186
330
1F
100
AcDbEntity
  8
0
  6
SLD-Gestrichelt
 62
     7
370
     0
100
AcDbLine
 10
183.853141445
 20
99.2535980744
 30
0.0
 11
183.853141445
 21
133.234913866
 31
0.0
  0
ARC
  5
187
330
1F
100
AcDbEntity
  8
0
  6
SLD-Gestrichelt
 62
     7
370
     0
100
AcDbCircle
 10
174.8469317112
 20
76.5670077817
 30
0.0
 40
20.04019916304256
100
AcDbArc
 50
82.0803841851
 51
100.7566113562
  0
ARC
  5
188
330
1F
100
AcDbEntity
  8
0
  6
SLD-Gestrichelt
 62
     7
370
     0
100
AcDbCircle
 10
174.8469317112
 20
155.9401902149
 30
0.0
 40
20.04019916304256
100
AcDbArc
 50
259.2433886438
 51
277.9196158149
  0
LINE
  5
189
330
1F
100
AcDbEntity
  8
0
  6
SLD-Gestrichelt
 62
     7
370
     0
100
AcDbLine
 10
203.7369938971
 20
136.1035997374
 30
0.0
 11
209.8031411351
 21
136.1035997374
 31
0.0
  0
LINE
  5
18A
330
1F
100
AcDbEntity
  8
0
  6
SLD-Gestrichelt
 62
     7
370
     0
100
AcDbLine
 10
196.0487621308
 20
136.1035997374
 30
0.0
 11
199.9692893059
 21
136.1035997374
 31
0.0
  0
LINE
  5
18B
330
1F
100
AcDbEntity
  8
0
  6
SLD-Gestrichelt
 62
     7
370
     0
100
AcDbLine
 10
164.8571169407
 20
133.2535999222
 30
0.0
 11
164.8571169407
 21
99.2535980744
 31
0.0
  0
LINE
  5
18C
330
1F
100
AcDbEntity
  8
0
  6
SLD-Gestrichelt
 62
     7
370
     0
100
AcDbLine
 10
151.9531416179
 20
100.2236636681
 30
0.0
 11
151.9531416179
 21
132.2835343285
 31
0.0
  0
LINE
  5
18D
330
1F
100
AcDbEntity
  8
0
  6
SLD-Gestrichelt
 62
     7
370
     0
100
AcDbLine
 10
191.5129674071
 20
133.2535999222
 30
0.0
 11
191.5129674071
 21
99.2535980744
 31
0.0
  0
LINE
  5
18E
330
1F
100
AcDbEntity
  8
0
  6
SLD-Gestrichelt
 62
     7
370
     0
100
AcDbLine
 10
193.8031413064
 20
131.9785988284
 30
0.0
 11
193.8031413064
 21
100.5285991682
 31
0.0
  0
LWPOLYLINE
  5
18F
330
1F
100
AcDbEntity
  8
0
  6
SLD-Gestrichelt
 62
     7
370
     0
100
AcDbPolyline
 90
        2
 70
   128
 43
0.0
 10
193.8031413064
 20
100.5285991682
 10
193.8031413064
 20
100.5285991682
  0
LINE
  5
190
330
1F
100
AcDbEntity
  8
0
  6
SLD-Gestrichelt
 62
     7
370
     0
100
AcDbLine
 10
153.1031405957
 20
100.4521077825
 30
0.0
 11
160.6531417401
 21
100.4521077825
 31
0.0
  0
LINE
  5
191
330
1F
100
AcDbEntity
  8
0
  6
SLD-Gestrichelt
 62
     7
370
     0
100
AcDbLine
 10
153.1031405957
 20
132.0550902141
 30
0.0
 11
153.1031405957
 21
100.4521077825
 31
0.0
  0
LINE
  5
192
330
1F
100
AcDbEntity
  8
0
  6
SLD-Gestrichelt
 62
     7
370
     0
100
AcDbLine
 10
156.6531410844
 20
132.0550902141
 30
0.0
 11
153.1031405957
 21
132.0550902141
 31
0.0
  0
LWPOLYLINE
  5
193
330
1F
100
AcDbEntity
  8
0
  6
SLD-Gestrichelt
 62
     7
370
     0
100
AcDbPolyline
 90
        6
 70
   128
 43
0.0
 10
158.0531405688
 20
132.5411120756
 10
157.9670155824
 20
132.3886676086
 10
157.7181755037
 20
132.2413081629
 10
157.3345134438
 20
132.124179448
 10
156.8820806624
 20
132.0625538332
 10
156.6531410844
 20
132.0550902141
  0
LINE
  5
194
330
1F
100
AcDbEntity
  8
0
  6
SLD-Gestrichelt
 62
     7
370
     0
100
AcDbLine
 10
158.0531405688
 20
132.5411120756
 30
0.0
 11
158.0531405688
 21
133.2535999222
 31
0.0
  0
LWPOLYLINE
  5
195
330
1F
100
AcDbEntity
  8
0
  6
SLD-Gestrichelt
 62
     7
370
     0
100
AcDbPolyline
 90
        6
 70
   128
 43
0.0
 10
158.0531405688
 20
132.5411120756
 10
157.9670155824
 20
132.3886676086
 10
157.7181755037
 20
132.2413081629
 10
157.3345134438
 20
132.124179448
 10
156.8820806624
 20
132.0625538332
 10
156.6531410844
 20
132.0550902141
  0
LINE
  5
196
330
1F
100
AcDbEntity
  8
0
  6
SLD-Gestrichelt
 62
     7
370
     0
100
AcDbLine
 10
156.6531410844
 20
132.0550902141
 30
0.0
 11
153.1031405957
 21
132.0550902141
 31
0.0
  0
LINE
  5
197
330
1F
100
AcDbEntity
  8
0
  6
SLD-Gestrichelt
 62
     7
370
     0
100
AcDbLine
 10
153.1031405957
 20
100.4521077825
 30
0.0
 11
160.6531417401
 21
100.4521077825
 31
0.0
  0
LWPOLYLINE
  5
198
330
1F
100
AcDbEntity
  8
0
  6
SLD-Gestrichelt
 62
     7
370
     0
100
AcDbPolyline
 90
        6
 70
   128
 43
0.0
 10
160.6531417401
 20
100.4521077825
 10
161.093735549
 20
100.4240656598
 10
161.4842726321
 20
100.346341203
 10
161.7968729169
 20
100.2296408964
 10
161.9996088029
 20
100.0856863661
 10
162.0531412245
 20
99.966085921
  0
LINE
  5
199
330
1F
100
AcDbEntity
  8
0
  6
SLD-Gestrichelt
 62
     7
370
     0
100
AcDbLine
 10
162.0531412245
 20
99.966085921
 30
0.0
 11
162.0531412245
 21
99.2535980744
 31
0.0
  0
LWPOLYLINE
  5
19A
330
1F
100
AcDbEntity
  8
0
  6
SLD-Gestrichelt
 62
     7
370
     0
100
AcDbPolyline
 90
        6
 70
   128
 43
0.0
 10
160.6531417401
 20
100.4521077825
 10
161.093735549
 20
100.4240656598
 10
161.4842726321
 20
100.346341203
 10
161.7968729169
 20
100.2296408964
 10
161.9996088029
 20
100.0856863661
 10
162.0531412245
 20
99.966085921
  0
LINE
  5
19B
330
1F
100
AcDbEntity
  8
0
  6
SLD-Gestrichelt
 62
     7
370
     0
100
AcDbLine
 10
153.1031405957
 20
100.4521077825
 30
0.0
 11
153.1031405957
 21
132.0550902141
 31
0.0
  0
CIRCLE
  5
19C
330
1F
100
AcDbEntity
  8
0
  6
SLD-Gestrichelt
 62
     7
370
     0
100
AcDbCircle
 10
238.6958310028
 20
101.3873754895
 30
0.0
 40
3.076766276740089
  0
LINE
  5
19D
330
1F
100
AcDbEntity
  8
0
  6
SLD-Gestrichelt
 62
     7
370
     0
100
AcDbLine
 10
247.3291227997
 20
93.9346285863
 30
0.0
 11
251.678153354
 21
88.4921079827
 31
0.0
  0
LINE
  5
19E
330
1F
100
AcDbEntity
  8
0
  6
SLD-Gestrichelt
 62
     7
370
     0
100
AcDbLine
 10
247.0109904588
 20
99.9234686
 30
0.0
 11
247.3291227997
 21
93.9346285863
 31
0.0
  0
ARC
  5
19F
330
1F
100
AcDbEntity
  8
0
  6
SLD-Gestrichelt
 62
     7
370
     0
100
AcDbCircle
 10
244.9202605179
 20
99.7697428207
 30
0.0
 40
2.096373845762543
100
AcDbArc
 50
4.2052380675
 51
183.104963786
  0
LINE
  5
1A0
330
1F
100
AcDbEntity
  8
0
  6
SLD-Gestrichelt
 62
     7
370
     0
100
AcDbLine
 10
243.5429463566
 20
86.1778049124
 30
0.0
 11
242.8269641877
 21
99.6561920596
 31
0.0
  0
LINE
  5
1A1
330
1F
100
AcDbEntity
  8
0
  6
SLD-Gestrichelt
 62
     7
370
     0
100
AcDbLine
 10
243.1440012933
 20
86.677059005
 30
0.0
 11
243.5429463566
 21
86.1778049124
 31
0.0
  0
ARC
  5
1A2
330
1F
100
AcDbEntity
  8
0
  6
SLD-Gestrichelt
 62
     7
370
     0
100
AcDbCircle
 10
238.7043882794
 20
83.292297848
 30
0.0
 40
5.582720824436273
100
AcDbArc
 50
37.3218988116
 51
98.5367743716
  0
LINE
  5
1A3
330
1F
100
AcDbEntity
  8
0
  6
SLD-Gestrichelt
 62
     7
370
     0
100
AcDbLine
 10
231.5908180953
 20
108.5746934963
 30
0.0
 11
230.0944695653
 21
111.115129604
 31
0.0
  0
ARC
  5
1A4
330
1F
100
AcDbEntity
  8
0
  6
SLD-Gestrichelt
 62
     7
370
     0
100
AcDbCircle
 10
233.7334189562
 20
109.861456557
 30
0.0
 40
2.49929942650017
100
AcDbArc
 50
210.9873959032
 51
29.4208504699
  0
LINE
  5
1A5
330
1F
100
AcDbEntity
  8
0
  6
SLD-Gestrichelt
 62
     7
370
     0
100
AcDbLine
 10
234.4140479745
 20
113.6295999726
 30
0.0
 11
235.9103965045
 21
111.0891643306
 31
0.0
  0
ARC
  5
1A6
330
1F
100
AcDbEntity
  8
0
  6
SLD-Gestrichelt
 62
     7
370
     0
100
AcDbCircle
 10
232.2714460859
 20
112.3428389047
 30
0.0
 40
2.499299281519657
100
AcDbArc
 50
30.9873446114
 51
209.420892535
  0
LINE
  5
1A7
330
1F
100
AcDbEntity
  8
0
  6
SLD-Gestrichelt
 62
     7
370
     0
100
AcDbLine
 10
226.1210898341
 20
143.2535996987
 30
0.0
 11
226.1210898341
 21
89.2535982979
 31
0.0
  0
LINE
  5
1A8
330
1F
100
AcDbEntity
  8
0
  6
SLD-Gestrichelt
 62
     7
370
     0
100
AcDbLine
 10
153.1031405957
 20
98.2635984523
 30
0.0
 11
153.1031405957
 21
95.4410987301
 31
0.0
  0
LINE
  5
1A9
330
1F
100
AcDbEntity
  8
0
  6
SLD-Gestrichelt
 62
     7
370
     0
100
AcDbLine
 10
162.0531412245
 20
98.2635984523
 30
0.0
 11
162.0531412245
 21
94.3084502919
 31
0.0
  0
LINE
  5
1AA
330
1F
100
AcDbEntity
  8
0
  6
SLD-Gestrichelt
 62
     7
370
     0
100
AcDbLine
 10
153.1031405957
 20
134.2435995443
 30
0.0
 11
153.1031405957
 21
137.123537655
 31
0.0
  0
LINE
  5
1AB
330
1F
100
AcDbEntity
  8
0
  6
SLD-Gestrichelt
 62
     7
370
     0
100
AcDbLine
 10
151.9531416179
 20
134.2435995443
 30
0.0
 11
151.9531416179
 21
135.9442765219
 31
0.0
  0
LINE
  5
1AC
330
1F
100
AcDbEntity
  8
0
  6
SLD-Gestrichelt
 62
     7
370
     0
100
AcDbLine
 10
151.9531416179
 20
98.2635984523
 30
0.0
 11
151.9531416179
 21
96.6004388733
 31
0.0
  0
LINE
  5
1AD
330
1F
100
AcDbEntity
  8
0
  6
SLD-Gestrichelt
 62
     7
370
     0
100
AcDbLine
 10
158.0531405688
 20
134.2435995443
 30
0.0
 11
158.0531405688
 21
138.097706656
 31
0.0
  0
LINE
  5
1AE
330
1F
100
AcDbEntity
  8
0
  6
SLD-Gestrichelt
 62
     7
370
     0
100
AcDbLine
 10
203.1531421871
 20
125.7535986928
 30
0.0
 11
203.1531421871
 21
106.7535993038
 31
0.0
  0
LINE
  5
1AF
330
1F
100
AcDbEntity
  8
0
  6
SLD-Gestrichelt
 62
     7
370
     0
100
AcDbLine
 10
205.6531416656
 20
125.7535986928
 30
0.0
 11
205.6531416656
 21
106.7535993038
 31
0.0
  0
LWPOLYLINE
  5
1B0
330
1F
100
AcDbEntity
  8
0
  6
SLD-Gestrichelt
 62
     7
370
     0
100
AcDbPolyline
 90
        2
 70
   128
 43
0.0
 10
209.8031411351
 20
89.8535991414
 10
209.8031411351
 20
89.8535991414
  0
LINE
  5
1B1
330
1F
100
AcDbEntity
  8
0
  6
SLD-Gestrichelt
 62
     7
370
     0
100
AcDbLine
 10
200.0408167423
 20
89.8535991414
 30
0.0
 11
196.8031417982
 21
89.8535991414
 31
0.0
  0
LINE
  5
1B2
330
1F
100
AcDbEntity
  8
0
  6
SLD-Gestrichelt
 62
     7
370
     0
100
AcDbLine
 10
199.9431414933
 20
89.4492039783
 30
0.0
 11
199.9431414933
 21
88.7557616783
 31
0.0
  0
LINE
  5
1B3
330
1F
100
AcDbEntity
  8
0
  6
SLD-Gestrichelt
 62
     7
370
     0
100
AcDbLine
 10
209.8031411351
 20
89.8535991414
 30
0.0
 11
203.6654664607
 21
89.8535991414
 31
0.0
  0
LINE
  5
1B4
330
1F
100
AcDbEntity
  8
0
  6
SLD-Gestrichelt
 62
     7
370
     0
100
AcDbLine
 10
203.7631417097
 20
88.7557616783
 30
0.0
 11
203.7631417097
 21
89.4492039783
 31
0.0
  0
LINE
  5
1B5
330
1F
100
AcDbEntity
  8
0
  6
SLD-Gestrichelt
 62
     7
370
     0
100
AcDbLine
 10
209.8031411351
 20
89.8535991414
 30
0.0
 11
209.8031411351
 21
86.6933217598
 31
0.0
  0
LINE
  5
1B6
330
1F
100
AcDbEntity
  8
0
  6
SLD-Gestrichelt
 62
     7
370
     0
100
AcDbLine
 10
188.8031414182
 20
84.7694756789
 30
0.0
 11
188.8031414182
 21
89.8535991414
 31
0.0
  0
LINE
  5
1B7
330
1F
100
AcDbEntity
  8
0
  6
SLD-Gestrichelt
 62
     7
370
     0
100
AcDbLine
 10
196.8031417982
 20
89.8535991414
 30
0.0
 11
188.8031414182
 21
89.8535991414
 31
0.0
  0
LINE
  5
1B8
330
1F
100
AcDbEntity
  8
0
  6
SLD-Gestrichelt
 62
     7
370
     0
100
AcDbLine
 10
194.3031413884
 20
124.7535994602
 30
0.0
 11
194.3031413884
 21
107.7535985364
 31
0.0
  0
LINE
  5
1B9
330
1F
100
AcDbEntity
  8
0
  6
SLD-Gestrichelt
 62
     7
370
     0
100
AcDbLine
 10
193.8031413064
 20
107.2535993857
 30
0.0
 11
193.8031413064
 21
125.2351072012
 31
0.0
  0
ARC
  5
1BA
330
1F
100
AcDbEntity
  8
0
  6
SLD-Gestrichelt
 62
     7
370
     0
100
AcDbCircle
 10
232.2318363516
 20
112.4375799658
 30
0.0
 40
1.999406973249858
100
AcDbArc
 50
30.9136177196
 51
209.4945964276
  0
LINE
  5
1BB
330
1F
100
AcDbEntity
  8
0
  6
SLD-Gestrichelt
 62
     7
370
     0
100
AcDbLine
 10
235.4435580255
 20
110.9243295481
 30
0.0
 11
233.9472132207
 21
113.4647656558
 31
0.0
  0
LINE
  5
1BC
330
1F
100
AcDbEntity
  8
0
  6
SLD-Gestrichelt
 62
     7
370
     0
100
AcDbLine
 10
203.1531421871
 20
107.7535985364
 30
0.0
 11
203.1531421871
 21
124.7346172435
 31
0.0
  0
LINE
  5
1BD
330
1F
100
AcDbEntity
  8
0
  6
SLD-Gestrichelt
 62
     7
370
     0
100
AcDbLine
 10
230.4915482582
 20
111.4531889884
 30
0.0
 11
231.9878967882
 21
108.9127533464
 31
0.0
  0
ARC
  5
1BE
330
1F
100
AcDbEntity
  8
0
  6
SLD-Gestrichelt
 62
     7
370
     0
100
AcDbCircle
 10
231.9876882216
 20
113.0438713655
 30
0.0
 40
1.999405257636154
100
AcDbArc
 50
30.9135325791
 51
209.4947295113
  0
LWPOLYLINE
  5
1BF
330
1F
100
AcDbEntity
  8
0
  6
SLD-Gestrichelt
 62
     7
370
     0
100
AcDbPolyline
 90
        2
 70
   128
 43
0.0
 10
209.8031411351
 20
142.6535988553
 10
209.8031411351
 20
142.6535988553
  0
LINE
  5
1C0
330
1F
100
AcDbEntity
  8
0
  6
SLD-Gestrichelt
 62
     7
370
     0
100
AcDbLine
 10
209.8031411351
 20
142.6535988553
 30
0.0
 11
203.368843946
 21
142.6535988553
 31
0.0
  0
LINE
  5
1C1
330
1F
100
AcDbEntity
  8
0
  6
SLD-Gestrichelt
 62
     7
370
     0
100
AcDbLine
 10
203.7631417097
 20
144.0588323725
 30
0.0
 11
203.7631417097
 21
143.3732522978
 31
0.0
  0
LINE
  5
1C2
330
1F
100
AcDbEntity
  8
0
  6
SLD-Gestrichelt
 62
     7
370
     0
100
AcDbLine
 10
209.8031411351
 20
142.6535988553
 30
0.0
 11
209.8031411351
 21
146.100039999
 31
0.0
  0
LINE
  5
1C3
330
1F
100
AcDbEntity
  8
0
  6
SLD-Gestrichelt
 62
     7
370
     0
100
AcDbLine
 10
200.337439257
 20
142.6535988553
 30
0.0
 11
196.8031417982
 21
142.6535988553
 31
0.0
  0
LINE
  5
1C4
330
1F
100
AcDbEntity
  8
0
  6
SLD-Gestrichelt
 62
     7
370
     0
100
AcDbLine
 10
199.9431414933
 20
143.3732522978
 30
0.0
 11
199.9431414933
 21
144.0588323725
 31
0.0
  0
LINE
  5
1C5
330
1F
100
AcDbEntity
  8
0
  6
SLD-Gestrichelt
 62
     7
370
     0
100
AcDbLine
 10
196.8031417982
 20
142.6535988553
 30
0.0
 11
188.8031414182
 21
142.6535988553
 31
0.0
  0
ARC
  5
1C6
330
1F
100
AcDbEntity
  8
0
  6
SLD-Gestrichelt
 62
     7
370
     0
100
AcDbCircle
 10
233.7032737682
 20
109.9399353952
 30
0.0
 40
1.999405197713057
100
AcDbArc
 50
210.9135265665
 51
29.4947297572
  0
LINE
  5
1C7
330
1F
100
AcDbEntity
  8
0
  6
SLD-Gestrichelt
 62
     7
370
     0
100
AcDbLine
 10
230.2474039079
 20
112.0594771905
 30
0.0
 11
231.7437487126
 21
109.5190410828
 31
0.0
  0
ARC
  5
1C8
330
1F
100
AcDbEntity
  8
0
  6
SLD-Gestrichelt
 62
     7
370
     0
100
AcDbCircle
 10
233.4591254801
 20
110.5462237245
 30
0.0
 40
1.999405320013107
100
AcDbArc
 50
210.9135442709
 51
29.4947235862
  0
ELLIPSE
  5
1C9
330
1F
100
AcDbEntity
  8
0
  6
SLD-Gestrichelt
 62
     7
370
     0
100
AcDbEllipse
 10
147.7857095807
 20
116.2535989983
 30
0.0
 11
20.07002071827051
 21
1.421085471520200E-14
 31
0.0
210
0.0
220
0.0
230
1.0
 40
0.8164965809
 41
4.921555463185702
 42
4.980534842098402
  0
LINE
  5
1CA
330
1F
100
AcDbEntity
  8
0
  6
SLD-Gestrichelt
 62
     7
370
     0
100
AcDbLine
 10
151.9531416179
 20
98.2635984523
 30
0.0
 11
151.9531416179
 21
100.2236636681
 31
0.0
  0
ELLIPSE
  5
1CB
330
1F
100
AcDbEntity
  8
0
  6
SLD-Gestrichelt
 62
     7
370
     0
100
AcDbEllipse
 10
147.7857095807
 20
116.2535989983
 30
0.0
 11
20.07002071827048
 21
4.263256414560601E-14
 31
0.0
210
0.0
220
0.0
230
1.0
 40
0.8164965809
 41
1.302650465081195
 42
1.361629843993895
  0
LINE
  5
1CC
330
1F
100
AcDbEntity
  8
0
  6
SLD-Gestrichelt
 62
     7
370
     0
100
AcDbLine
 10
151.9531416179
 20
134.2435995443
 30
0.0
 11
151.9531416179
 21
132.2835343285
 31
0.0
  0
LINE
  5
1CD
330
1F
100
AcDbEntity
  8
0
  6
SLD-Gestrichelt
 62
     7
370
     0
100
AcDbLine
 10
241.6412154616
 20
87.2218603594
 30
0.0
 11
241.6553417624
 21
87.2037945641
 31
0.0
  0
ARC
  5
1CE
330
1F
100
AcDbEntity
  8
0
  6
SLD-Gestrichelt
 62
     7
370
     0
100
AcDbCircle
 10
241.7665943951
 20
93.2863872796
 30
0.0
 40
5.274404942697535
100
AcDbArc
 50
32.8702817501
 51
111.5306686229
  0
LWPOLYLINE
  5
1CF
330
1F
100
AcDbEntity
  8
0
  6
SLD-Gestrichelt
 62
     7
370
     0
100
AcDbPolyline
 90
       13
 70
   128
 43
0.0
 10
235.963247198
 20
88.884334485
 10
235.8891101957
 20
88.8993380917
 10
235.517981875
 20
89.1324742092
 10
235.3395218433
 20
89.4778626366
 10
235.4168998481
 20
89.9430582626
 10
235.7679712058
 20
90.5119920475
 10
236.3459723474
 20
91.1560090585
 10
237.022991705
 20
91.8430103315
 10
238.0360657753
 20
93.0681018485
 10
238.8546461643
 20
94.5690771891
 10
239.4730294527
 20
96.342762406
 10
239.6953920306
 20
97.2796412511
 10
239.8308920146
 20
98.1927508814
  0
CIRCLE
  5
1D0
330
1F
100
AcDbEntity
  8
0
  6
SLD-Gestrichelt
 62
     7
370
     0
100
AcDbCircle
 10
238.4167951656
 20
102.0802780634
 30
0.0
 40
3.076766878209904
  0
LINE
  5
1D1
330
1F
100
AcDbEntity
  8
0
  6
SLD-Gestrichelt
 62
     7
370
     0
100
AcDbLine
 10
162.0531412245
 20
98.2635984523
 30
0.0
 11
162.0531412245
 21
99.966085921
 31
0.0
  0
LINE
  5
1D2
330
1F
100
AcDbEntity
  8
0
  6
SLD-Gestrichelt
 62
     7
370
     0
100
AcDbLine
 10
153.1031405957
 20
98.2635984523
 30
0.0
 11
153.1031405957
 21
100.4521077825
 31
0.0
  0
LINE
  5
1D3
330
1F
100
AcDbEntity
  8
0
  6
SLD-Gestrichelt
 62
     7
370
     0
100
AcDbLine
 10
153.1031405957
 20
134.2435995443
 30
0.0
 11
153.1031405957
 21
132.0550902141
 31
0.0
  0
LINE
  5
1D4
330
1F
100
AcDbEntity
  8
0
  6
SLD-Gestrichelt
 62
     7
370
     0
100
AcDbLine
 10
158.0531405688
 20
134.2435995443
 30
0.0
 11
158.0531405688
 21
132.5411120756
 31
0.0
  0
ARC
  5
1D5
330
1F
100
AcDbEntity
  8
0
  6
SLD-Gestrichelt
 62
     7
370
     0
100
AcDbCircle
 10
244.3876346198
 20
101.0882654178
 30
0.0
 40
2.096426948231464
100
AcDbArc
 50
4.3399026165
 51
182.9702992371
  0
LINE
  5
1D6
330
1F
100
AcDbEntity
  8
0
  6
SLD-Gestrichelt
 62
     7
370
     0
100
AcDbLine
 10
246.7961827696
 20
95.2580696298
 30
0.0
 11
247.3291227997
 21
93.9346285863
 31
0.0
  0
LINE
  5
1D7
330
1F
100
AcDbEntity
  8
0
  6
SLD-Gestrichelt
 62
     7
370
     0
100
AcDbLine
 10
246.7961827696
 20
95.2580696298
 30
0.0
 11
246.4780504287
 21
101.2469087122
 31
0.0
  0
LINE
  5
1D8
330
1F
100
AcDbEntity
  8
0
  6
SLD-Gestrichelt
 62
     7
370
     0
100
AcDbLine
 10
235.1994099499
 20
111.5306177503
 30
0.0
 11
233.7030651451
 21
114.0710536251
 31
0.0
  0
LWPOLYLINE
  5
1D9
330
1F
100
AcDbEntity
  8
0
  6
SLD-Gestrichelt
 62
     7
370
     0
100
AcDbPolyline
 90
        8
 70
   128
 43
0.0
 10
239.8308920146
 20
98.1927508814
 10
239.8131782592
 20
98.5096296621
 10
239.3556120277
 20
101.8371241493
 10
238.4949544848
 20
105.1389392791
 10
237.5109041513
 20
107.9640783696
 10
236.3771269501
 20
110.7425367786
 10
233.8671530069
 20
116.2238729716
 10
233.8531421901
 20
116.2535989983
  0
LWPOLYLINE
  5
1DA
330
1F
100
AcDbEntity
  8
0
  6
SLD-Gestrichelt
 62
     7
370
     0
100
AcDbPolyline
 90
       28
 70
   128
 43
0.0
 10
172.0131537349
 20
93.1859365059
 10
172.1969986738
 20
93.2041270984
 10
172.8459172354
 20
93.2485903008
 10
173.533361818
 20
93.2703906996
 10
174.8508023501
 20
93.2459956361
 10
176.0288583518
 20
93.1343077077
 10
176.7574571476
 20
93.0345500214
 10
177.4967922301
 20
92.9055171413
 10
178.0225424499
 20
92.7956285281
 10
178.3652118811
 20
92.7169615729
 10
178.6031266146
 20
92.653300087
 10
178.6017850445
 20
92.6536577148
 10
178.3731150844
 20
92.7147133602
 10
178.0360037864
 20
92.7923987014
 10
177.5173125261
 20
92.9013988329
 10
176.7755359815
 20
93.0315045966
 10
176.0453269289
 20
93.1320837094
 10
174.8739066006
 20
93.2446619822
 10
173.5523263396
 20
93.2707446022
 10
172.8637837277
 20
93.249581228
 10
172.2136572407
 20
93.2056116266
 10
171.633011143
 20
93.1486351741
 10
171.2970337303
 20
93.1078730477
 10
171.1031612412
 20
93.0749843223
 10
171.1041437865
 20
93.0751500977
 10
171.2921601192
 20
93.1070329947
 10
171.6241477461
 20
93.1474505318
 10
172.0131537349
 20
93.1859365059
  0
LWPOLYLINE
  5
1DB
330
1F
100
AcDbEntity
  8
0
  6
SLD-Gestrichelt
 62
     7
370
     0
100
AcDbPolyline
 90
       41
 70
   128
 43
0.0
 10
172.8279976578
 20
139.2590044392
 10
172.1969958798
 20
139.3030019803
 10
171.6238748686
 20
139.3596636457
 10
171.2920725749
 20
139.4000755949
 10
171.1399177493
 20
139.4242396904
 10
171.1038057164
 20
139.4320143713
 10
171.1031537906
 20
139.4321540697
 10
171.1419312687
 20
139.4238448096
 10
171.2961210341
 20
139.3993323995
 10
171.6315489666
 20
139.3586112512
 10
171.8876179711
 20
139.3321747286
 10
172.211723815
 20
139.3016869528
 10
172.862401645
 20
139.2577005876
 10
173.5517694087
 20
139.2365129991
 10
174.0096215562
 20
139.2350545479
 10
174.4534666122
 20
139.2437288864
 10
174.8752160401
 20
139.2625360144
 10
175.3985280574
 20
139.3038997753
 10
176.0435774394
 20
139.3747249944
 10
176.7719475956
 20
139.475006084
 10
177.1466186673
 20
139.5361958398
 10
177.5123713941
 20
139.6047486318
 10
178.0336489373
 20
139.7141399188
 10
178.37231275
 20
139.792119558
 10
178.5518438027
 20
139.838689412
 10
178.6023391814
 20
139.8536185129
 10
178.6031224237
 20
139.8538494809
 10
178.5401389406
 20
139.8363741441
 10
178.3355622956
 20
139.7851178749
 10
178.1074692899
 20
139.7321833624
 10
177.8694004224
 20
139.6791892452
 10
177.5675210574
 20
139.6152539505
 10
177.2258462788
 20
139.5492995484
 10
176.883805956
 20
139.4896986289
 10
176.5677001731
 20
139.4401373668
 10
176.2869189897
 20
139.4003251893
 10
175.5361896412
 20
139.3151687784
 10
174.8038348214
 20
139.2600959493
 10
174.1207106442
 20
139.2351085646
 10
173.4843528302
 20
139.2363733007
 10
172.8279976578
 20
139.2590044392
  0
LINE
  5
1DC
330
1F
100
AcDbEntity
  8
0
  6
SLD-Gestrichelt
 62
     7
370
     0
100
AcDbLine
 10
213.9531406046
 20
120.4535988485
 30
0.0
 11
213.9531406046
 21
112.0535991481
 31
0.0
  0
LWPOLYLINE
  5
1DD
330
1F
100
AcDbEntity
  8
0
  6
SLD-Gestrichelt
 62
     7
370
     0
100
AcDbPolyline
 90
       24
 70
   128
 43
0.0
 10
214.81716581
 20
116.2986221656
 10
215.0954319568
 20
116.7704127124
 10
215.3915720464
 20
116.9753051922
 10
215.6952688874
 20
116.9403645885
 10
216.0077164353
 20
116.7148897634
 10
216.215151775
 20
116.4853003406
 10
216.3935149492
 20
116.2101441964
 10
216.4026046575
 20
116.1507401607
 10
216.3850026609
 20
116.100900906
 10
216.2114078582
 20
115.9183403919
 10
215.8340061487
 20
115.4558432149
 10
215.4900538207
 20
114.8795284657
 10
215.2074421228
 20
114.3207377149
 10
214.949259016
 20
113.7841049908
 10
214.7129955174
 20
113.3222819166
 10
214.510581869
 20
113.0142367305
 10
214.3584708155
 20
112.9276453843
 10
214.2676650019
 20
113.0815799674
 10
214.2395092578
 20
113.4459170839
 10
214.2701795728
 20
113.9716272568
 10
214.3566640497
 20
114.6098878793
 10
214.4983964444
 20
115.3063729848
 10
214.695024717
 20
115.9860726306
 10
214.81716581
 20
116.2986221656
  0
LINE
  5
1DE
330
1F
100
AcDbEntity
  8
0
  6
SLD-Gestrichelt
 62
     7
370
     0
100
AcDbLine
 10
205.6531416656
 20
112.0535991481
 30
0.0
 11
205.6531416656
 21
120.4345812416
 31
0.0
  0
LINE
  5
1DF
330
1F
100
AcDbEntity
  8
0
  6
SLD-Gestrichelt
 62
     7
370
     0
100
AcDbLine
 10
251.9625941695
 20
88.7926606787
 30
0.0
 11
252.4955341996
 21
87.4692196352
 31
0.0
  0
LINE
  5
1E0
330
1F
100
AcDbEntity
  8
0
  6
SLD-Gestrichelt
 62
     7
370
     0
100
AcDbLine
 10
243.1233408333
 20
85.3677423997
 30
0.0
 11
252.2451872409
 21
73.9523688657
 31
0.0
  0
LWPOLYLINE
  5
1E1
330
1F
100
AcDbEntity
  8
0
  6
SLD-Gestrichelt
 62
     7
370
     0
100
AcDbPolyline
 90
       11
 70
   128
 43
0.0
 10
250.1532579244
 20
89.2021557642
 10
250.3672385992
 20
86.9524157001
 10
250.4687229575
 20
85.8853770746
 10
250.4694978179
 20
85.8772708429
 10
250.769577402
 20
82.9465272231
 10
251.0559404672
 20
80.4172264738
 10
251.3292352141
 20
78.2952191634
 10
251.5884483636
 20
76.584945838
 10
251.8309647621
 20
75.2894686861
 10
252.0527014912
 20
74.4105199678
 10
252.2482270778
 20
73.9485653443
  0
ELLIPSE
  5
1E2
330
1F
100
AcDbEntity
  8
0
  6
SLD-Gestrichelt
 62
     7
370
     0
100
AcDbEllipse
 10
346.4245487662
 20
10.5568576462
 30
0.0
 11
-118.4879067068482
 21
148.2795323739651
 31
-1.492139745096210E-13
210
-4.907553293819008E-16
220
6.141468169474689E-16
230
1.0
 40
0.179130553
 41
0.8203975220937405
 42
0.875859783859312
  0
ELLIPSE
  5
1E3
330
1F
100
AcDbEntity
  8
0
  6
SLD-Gestrichelt
 62
     7
370
     0
100
AcDbEllipse
 10
239.9195114797
 20
143.840646374
 30
0.0
 11
-3.321673972832457
 21
58.55588928249146
 31
0.0
210
0.0
220
0.0
230
1.0
 40
0.0348700908
 41
3.086332786348659
 42
3.314497827464064
  0
CIRCLE
  5
1E4
330
1F
100
AcDbEntity
  8
0
  6
SLD-Gestrichelt
 62
     7
370
     0
100
AcDbCircle
 10
238.39945961
 20
102.1376678078
 30
0.0
 40
2.480771636694651
  0
CIRCLE
  5
1E5
330
1F
100
AcDbEntity
  8
0
  6
SLD-Gestrichelt
 62
     7
370
     0
100
AcDbCircle
 10
237.4480092215
 20
104.5003682848
 30
0.0
 40
2.48076924625104
  0
LWPOLYLINE
  5
1E6
330
1F
100
AcDbEntity
  8
0
  6
SLD-Gestrichelt
 62
     7
370
     0
100
AcDbPolyline
 90
       28
 70
   128
 43
0.0
 10
235.388513136
 20
102.9948167829
 10
235.3933373869
 20
102.9785381956
 10
235.3593403877
 20
103.0627847044
 10
235.2692628683
 20
103.3078315062
 10
235.1420144023
 20
103.8137967093
 10
235.1075219394
 20
104.4528404577
 10
235.2505768121
 20
105.1197661413
 10
235.262330103
 20
105.1745623676
 10
235.5742449344
 20
105.7312809257
 10
235.9756002606
 20
106.1266478477
 10
236.4725577117
 20
106.4026946528
 10
237.0798880638
 20
106.544295731
 10
237.2795077444
 20
106.5301582543
 10
237.7399573506
 20
106.4975489257
 10
237.894005555
 20
106.4410902886
 10
237.9397036911
 20
106.3921530126
 10
237.8809707643
 20
106.3411435438
 10
237.5802951337
 20
106.2387707038
 10
236.8242623688
 20
105.8855293645
 10
236.3233784617
 20
105.5058524339
 10
235.941022116
 20
105.0938390521
 10
235.626045096
 20
104.6068374394
 10
235.5089703978
 20
104.3299040152
 10
235.4441466213
 20
104.1765710665
 10
235.3372754932
 20
103.6880225269
 10
235.3393206776
 20
103.4895409225
 10
235.3422152282
 20
103.2086996688
 10
235.388513136
 20
102.9948167829
  0
LWPOLYLINE
  5
1E7
330
1F
100
AcDbEntity
  8
0
  6
SLD-Gestrichelt
 62
     7
370
     0
100
AcDbPolyline
 90
       26
 70
   128
 43
0.0
 10
238.2886590839
 20
101.6147829918
 10
238.3184986592
 20
101.5951199783
 10
238.5861793936
 20
101.5686629666
 10
238.9822559835
 20
101.6571916966
 10
239.5001830936
 20
101.9448604761
 10
239.8923965574
 20
102.3574540718
 10
240.1698040248
 20
102.9052198259
 10
240.2847255052
 20
103.4768963559
 10
240.2594307841
 20
104.0801130561
 10
240.0789963485
 20
104.7274660645
 10
239.7341089727
 20
105.3712753905
 10
239.6154212237
 20
105.545227821
 10
239.5623991669
 20
105.6313155545
 10
239.5684453131
 20
105.6498730881
 10
239.5735564114
 20
105.645319852
 10
239.6677801789
 20
105.5613955809
 10
239.9331326068
 20
105.0814599125
 10
240.0266299428
 20
104.5015178947
 10
239.9723599137
 20
103.9827619074
 10
239.8227336289
 20
103.5056704981
 10
239.58290689
 20
103.0396785913
 10
239.2999263884
 20
102.6473533688
 10
238.873224187
 20
102.206924404
 10
238.4950401665
 20
101.895348574
 10
238.2935243131
 20
101.7109504296
 10
238.2886590839
 20
101.6147829918
  0
LWPOLYLINE
  5
1E8
330
1F
100
AcDbEntity
  8
0
  6
SLD-Gestrichelt
 62
     7
370
     0
100
AcDbPolyline
 90
        2
 70
   128
 43
0.0
 10
188.8031414182
 20
89.8535991414
 10
188.8031414182
 20
89.8535991414
  0
LINE
  5
1E9
330
1F
100
AcDbEntity
  8
0
  6
SLD-Gestrichelt
 62
     7
370
     0
100
AcDbLine
 10
188.8031414182
 20
84.7694756789
 30
0.0
 11
188.8031414182
 21
89.8535991414
 31
0.0
  0
LINE
  5
1EA
330
1F
100
AcDbEntity
  8
0
  6
SLD-Gestrichelt
 62
     7
370
     0
100
AcDbLine
 10
188.8031414182
 20
89.8535991414
 30
0.0
 11
196.8031417982
 21
89.8535991414
 31
0.0
  0
LINE
  5
1EB
330
1F
100
AcDbEntity
  8
0
  6
SLD-Gestrichelt
 62
     7
370
     0
100
AcDbLine
 10
252.2454927147
 20
73.9464531047
 30
0.0
 11
252.7411500395
 21
74.1364801629
 31
0.0
  0
CIRCLE
  5
1EC
330
1F
100
AcDbEntity
  8
0
  6
SLD-Gestrichelt
 62
     7
370
     0
100
AcDbCircle
 10
247.7985749809
 20
86.3615448781
 30
0.0
 40
2.381539731605344
  0
LINE
  5
1ED
330
1F
100
AcDbEntity
  8
0
  6
SLD-Gestrichelt
 62
     7
370
     0
100
AcDbLine
 10
251.9625941695
 20
88.7926606787
 30
0.0
 11
246.7961827696
 21
95.2580696298
 31
0.0
  0
LINE
  5
1EE
330
1F
100
AcDbEntity
  8
0
  6
SLD-Gestrichelt
 62
     7
370
     0
100
AcDbLine
 10
242.2940241576
 20
100.9796321718
 30
0.0
 11
243.1233408333
 21
85.3677423997
 31
0.0
  0
LINE
  5
1EF
330
1F
100
AcDbEntity
  8
0
  6
SLD-Gestrichelt
 62
     7
370
     0
100
AcDbLine
 10
252.741142589
 20
74.1364801629
 30
0.0
 11
251.9625941695
 21
88.7926606787
 31
0.0
  0
CIRCLE
  5
1F0
330
1F
100
AcDbEntity
  8
0
  6
SLD-Gestrichelt
 62
     7
370
     0
100
AcDbCircle
 10
247.7560984297
 20
86.4854957714
 30
0.0
 40
1.63690058686819
  0
LINE
  5
1F1
330
1F
100
AcDbEntity
  8
0
  6
SLD-Gestrichelt
 62
     7
370
     0
100
AcDbLine
 10
158.0531405688
 20
134.2435995443
 30
0.0
 11
158.0531405688
 21
132.5411120756
 31
0.0
  0
LINE
  5
1F2
330
1F
100
AcDbEntity
  8
0
  6
SLD-Gestrichelt
 62
     7
370
     0
100
AcDbLine
 10
162.0531412245
 20
98.2635984523
 30
0.0
 11
162.0531412245
 21
99.966085921
 31
0.0
  0
LINE
  5
1F3
330
1F
100
AcDbEntity
  8
0
  6
SLD-Gestrichelt
 62
     7
370
     0
100
AcDbLine
 10
162.0531412245
 20
98.2635984523
 30
0.0
 11
162.0531412245
 21
94.3084502919
 31
0.0
  0
LINE
  5
1F4
330
1F
100
AcDbEntity
  8
0
  6
SLD-Gestrichelt
 62
     7
370
     0
100
AcDbLine
 10
158.0531405688
 20
134.2435995443
 30
0.0
 11
158.0531405688
 21
138.097706656
 31
0.0
  0
CIRCLE
  5
1F5
330
1F
100
AcDbEntity
  8
0
  6
SLD-Gestrichelt
 62
     7
370
     0
100
AcDbCircle
 10
247.0062142488
 20
88.3476668445
 30
0.0
 40
1.636901565621004
  0
LWPOLYLINE
  5
1F6
330
1F
100
AcDbEntity
  8
0
  6
SLD-Gestrichelt
 62
     7
370
     0
100
AcDbPolyline
 90
        2
 70
   128
 43
0.0
 10
209.8031411351
 20
142.6535988553
 10
209.8031411351
 20
142.6535988553
  0
LWPOLYLINE
  5
1F7
330
1F
100
AcDbEntity
  8
0
  6
SLD-Gestrichelt
 62
     7
370
     0
100
AcDbPolyline
 90
        2
 70
   128
 43
0.0
 10
209.8031411351
 20
89.8535991414
 10
209.8031411351
 20
89.8535991414
  0
LWPOLYLINE
  5
1F8
330
1F
100
AcDbEntity
  8
0
  6
SLD-Gestrichelt
 62
     7
370
     0
100
AcDbPolyline
 90
        9
 70
   128
 43
0.0
 10
252.741142589
 20
74.1364764376
 10
252.5383452357
 20
74.6178584499
 10
252.3110354723
 20
75.5497956974
 10
252.0640412749
 20
76.9058572454
 10
251.797496754
 20
78.6821836932
 10
251.5115509213
 20
80.8777952893
 10
251.2143547119
 20
83.4341043932
 10
250.9059081257
 20
86.3511110051
 10
250.5862186135
 20
89.6288169874
  0
LINE
  5
1F9
330
1F
100
AcDbEntity
  8
0
  6
SLD-Gestrichelt
 62
     7
370
     0
100
AcDbLine
 10
153.1031405957
 20
98.2635984523
 30
0.0
 11
153.1031405957
 21
100.4521077825
 31
0.0
  0
LINE
  5
1FA
330
1F
100
AcDbEntity
  8
0
  6
SLD-Gestrichelt
 62
     7
370
     0
100
AcDbLine
 10
153.1031405957
 20
98.2635984523
 30
0.0
 11
153.1031405957
 21
95.4469679249
 31
0.0
  0
ELLIPSE
  5
1FB
330
1F
100
AcDbEntity
  8
0
  6
SLD-Gestrichelt
 62
     7
370
     0
100
AcDbEllipse
 10
147.7857095807
 20
116.2535989983
 30
0.0
 11
20.07002071827054
 21
-9.947598300641404E-14
 31
0.0
210
0.0
220
0.0
230
1.0
 40
0.8164965809
 41
4.921555463185706
 42
4.980534842098407
  0
LINE
  5
1FC
330
1F
100
AcDbEntity
  8
0
  6
SLD-Gestrichelt
 62
     7
370
     0
100
AcDbLine
 10
151.9531416179
 20
98.2635984523
 30
0.0
 11
151.9531416179
 21
100.2236636681
 31
0.0
  0
LINE
  5
1FD
330
1F
100
AcDbEntity
  8
0
  6
SLD-Gestrichelt
 62
     7
370
     0
100
AcDbLine
 10
152.8920507462
 20
95.8096770896
 30
0.0
 11
153.093097213
 21
95.4587826831
 31
0.0
  0
LWPOLYLINE
  5
1FE
330
1F
100
AcDbEntity
  8
0
  6
SLD-Gestrichelt
 62
     7
370
     0
100
AcDbPolyline
 90
        3
 70
   128
 43
0.0
 10
151.9531416179
 20
96.6004388733
 10
151.9724646987
 20
96.6073790891
 10
151.9834207774
 20
96.6635117633
  0
LINE
  5
1FF
330
1F
100
AcDbEntity
  8
0
  6
SLD-Gestrichelt
 62
     7
370
     0
100
AcDbLine
 10
151.9531416179
 20
98.2635984523
 30
0.0
 11
151.9531416179
 21
96.6004388733
 31
0.0
  0
ELLIPSE
  5
200
330
1F
100
AcDbEntity
  8
0
  6
SLD-Gestrichelt
 62
     7
370
     0
100
AcDbEllipse
 10
147.7857095807
 20
116.2535989983
 30
0.0
 11
20.07002071827051
 21
-7.105427357601002E-14
 31
0.0
210
0.0
220
0.0
230
1.0
 40
0.8164965809
 41
1.302650465081198
 42
1.3616298439939
  0
LINE
  5
201
330
1F
100
AcDbEntity
  8
0
  6
SLD-Gestrichelt
 62
     7
370
     0
100
AcDbLine
 10
151.9531416179
 20
132.2835343285
 30
0.0
 11
151.9531416179
 21
100.2236636681
 31
0.0
  0
LINE
  5
202
330
1F
100
AcDbEntity
  8
0
  6
SLD-Gestrichelt
 62
     7
370
     0
100
AcDbLine
 10
151.9531416179
 20
134.2435995443
 30
0.0
 11
151.9531416179
 21
132.2835343285
 31
0.0
  0
LINE
  5
203
330
1F
100
AcDbEntity
  8
0
  6
SLD-Gestrichelt
 62
     7
370
     0
100
AcDbLine
 10
153.1031405957
 20
134.2435995443
 30
0.0
 11
153.1031405957
 21
132.0550902141
 31
0.0
  0
LINE
  5
204
330
1F
100
AcDbEntity
  8
0
  6
SLD-Gestrichelt
 62
     7
370
     0
100
AcDbLine
 10
153.1031405957
 20
134.2435995443
 30
0.0
 11
153.1031405957
 21
137.123537655
 31
0.0
  0
LINE
  5
205
330
1F
100
AcDbEntity
  8
0
  6
SLD-Gestrichelt
 62
     7
370
     0
100
AcDbLine
 10
153.093097213
 20
137.1135520143
 30
0.0
 11
152.7772950412
 21
136.6437184019
 31
0.0
  0
LINE
  5
206
330
1F
100
AcDbEntity
  8
0
  6
SLD-Gestrichelt
 62
     7
370
     0
100
AcDbLine
 10
151.9531416179
 20
134.2435995443
 30
0.0
 11
151.9531416179
 21
135.9442765219
 31
0.0
  0
LWPOLYLINE
  5
207
330
1F
100
AcDbEntity
  8
0
  6
SLD-Gestrichelt
 62
     7
370
     0
100
AcDbPolyline
 90
        3
 70
   128
 43
0.0
 10
152.015804726
 20
135.9281516029
 10
151.9742975415
 20
135.9906768752
 10
151.9531416179
 20
135.9442765219
  0
LWPOLYLINE
  5
208
330
1F
100
AcDbEntity
  8
0
  6
SLD-Gestrichelt
 62
     7
370
     0
100
AcDbPolyline
 90
       24
 70
   128
 43
0.0
 10
241.7926894904
 20
99.9520434393
 10
241.9728706063
 20
99.9529728992
 10
242.2062786699
 20
100.0946289254
 10
242.4755985321
 20
100.3665043367
 10
242.7608551861
 20
100.7484378619
 10
243.0408964337
 20
101.2121014623
 10
243.2949537815
 20
101.7231079144
 10
243.5041809858
 20
102.2435579775
 10
243.6530622126
 20
102.734852056
 10
243.7305557014
 20
103.1605540169
 10
243.7309133292
 20
103.4890901623
 10
243.6541090191
 20
103.6960961623
 10
243.5058424653
 20
103.7662182329
 10
243.297103274
 20
103.6942549376
 10
243.043377477
 20
103.4855455486
 10
242.7634815157
 20
103.1555677159
 10
242.4781764329
 20
102.7287938027
 10
242.208614427
 20
102.2368776007
 10
241.9747965814
 20
101.7163008777
 10
241.7940603973
 20
101.2056725426
 10
241.6798057438
 20
100.7428638963
 10
241.640515107
 20
100.3621997638
 10
241.6790979386
 20
100.0919094635
 10
241.7926894904
 20
99.9520434393
  0
ARC
  5
209
330
1F
100
AcDbEntity
  8
0
  6
SLD-Gestrichelt
 62
     7
370
     0
100
AcDbCircle
 10
200.7890151489
 20
143.3688615578
 30
0.0
 40
0.8458850511768357
100
AcDbArc
 50
179.7025931636
 51
237.7340325855
  0
LINE
  5
20A
330
1F
100
AcDbEntity
  8
0
  6
SLD-Gestrichelt
 62
     7
370
     0
100
AcDbLine
 10
199.9431414933
 20
143.3732522978
 30
0.0
 11
199.9431414933
 21
89.4492039783
 31
0.0
  0
ARC
  5
20B
330
1F
100
AcDbEntity
  8
0
  6
SLD-Gestrichelt
 62
     7
370
     0
100
AcDbCircle
 10
200.8272625754
 20
89.4496520654
 30
0.0
 40
0.8841211956749823
100
AcDbArc
 50
152.8133250666
 51
180.0290384411
  0
LINE
  5
20C
330
1F
100
AcDbEntity
  8
0
  6
SLD-Gestrichelt
 62
     7
370
     0
100
AcDbLine
 10
200.337439257
 20
142.6535988553
 30
0.0
 11
200.743141997
 21
142.6535988553
 31
0.0
  0
LINE
  5
20D
330
1F
100
AcDbEntity
  8
0
  6
SLD-Gestrichelt
 62
     7
370
     0
100
AcDbLine
 10
200.0408167423
 20
89.8535991414
 30
0.0
 11
200.743141997
 21
89.8535991414
 31
0.0
  0
LINE
  5
20E
330
1F
100
AcDbEntity
  8
0
  6
SLD-Gestrichelt
 62
     7
370
     0
100
AcDbLine
 10
203.7631417097
 20
143.3732522978
 30
0.0
 11
203.7631417097
 21
89.4492039783
 31
0.0
  0
ARC
  5
20F
330
1F
100
AcDbEntity
  8
0
  6
SLD-Gestrichelt
 62
     7
370
     0
100
AcDbCircle
 10
202.9223124364
 20
143.3660977432
 30
0.0
 40
0.8408597114902185
100
AcDbArc
 50
302.075860438
 51
0.4875138129
  0
ARC
  5
210
330
1F
100
AcDbEntity
  8
0
  6
SLD-Gestrichelt
 62
     7
370
     0
100
AcDbCircle
 10
202.8830100059
 20
89.4506156366
 30
0.0
 40
0.8801328359032604
100
AcDbArc
 50
359.9081023991
 51
27.2495340932
  0
LINE
  5
211
330
1F
100
AcDbEntity
  8
0
  6
SLD-Gestrichelt
 62
     7
370
     0
100
AcDbLine
 10
202.963141206
 20
142.6535988553
 30
0.0
 11
203.368843946
 21
142.6535988553
 31
0.0
  0
LINE
  5
212
330
1F
100
AcDbEntity
  8
0
  6
SLD-Gestrichelt
 62
     7
370
     0
100
AcDbLine
 10
202.963141206
 20
89.8535991414
 30
0.0
 11
203.6654664607
 21
89.8535991414
 31
0.0
  0
LINE
  5
213
330
1F
100
AcDbEntity
  8
0
  6
SLD-Gestrichelt
 62
     7
370
     0
100
AcDbLine
 10
200.743141997
 20
142.6535988553
 30
0.0
 11
202.963141206
 21
142.6535988553
 31
0.0
  0
LINE
  5
214
330
1F
100
AcDbEntity
  8
0
  6
SLD-Gestrichelt
 62
     7
370
     0
100
AcDbLine
 10
200.743141997
 20
89.8535991414
 30
0.0
 11
202.963141206
 21
89.8535991414
 31
0.0
  0
LWPOLYLINE
  5
215
330
1F
100
AcDbEntity
  8
0
  6
SLD-Gestrichelt
 62
     7
370
     0
100
AcDbPolyline
 90
       26
 70
   128
 43
0.0
 10
241.8298194588
 20
99.4920054777
 10
242.0245850862
 20
99.4867770327
 10
242.2742726685
 20
99.6238788916
 10
242.5631912829
 20
99.8947000457
 10
242.873191315
 20
100.282223369
 10
243.1847894968
 20
100.7620975701
 10
243.4784057022
 20
101.3041701494
 10
243.7355997444
 20
101.8743826402
 10
243.9402038635
 20
102.4369052006
 10
244.0793620826
 20
102.9563932074
 10
244.1443348707
 20
103.4002038045
 10
244.1310355843
 20
103.7404531939
 10
244.0403024138
 20
103.955760072
 10
243.8778350533
 20
104.0325969784
 10
243.6538407982
 20
103.9661350055
 10
243.3823975206
 20
103.7605520664
 10
243.0805595995
 20
103.4287637426
 10
242.7672924877
 20
102.9916186212
 10
242.4622806192
 20
102.4765841989
 10
242.1846831621
 20
101.9160211412
 10
241.9519531013
 20
101.345152068
 10
241.7787047506
 20
100.799846868
 10
241.6758271338
 20
100.314368899
 10
241.6497836293
 20
99.9192236317
 10
241.7022133649
 20
99.6392382635
 10
241.8298194588
 20
99.4920054777
  0
ELLIPSE
  5
216
330
1F
100
AcDbEntity
  8
0
  6
SLD-Gestrichelt
 62
     7
370
     0
100
AcDbEllipse
 10
250.8877041555
 20
97.9736816682
 30
0.0
 11
-0.1617006017101801
 21
2.840778242159117
 31
0.0
210
0.0
220
0.0
230
0.9999999999999999
 40
0.053814598
 41
0.0
 42
6.283185307179586
  0
ARC
  5
217
330
1F
100
AcDbEntity
  8
0
  6
SLD-Gestrichelt
 62
     7
370
     0
100
AcDbCircle
 10
209.1935823287
 20
146.111208281
 30
0.0
 40
0.609661109967193
100
AcDbArc
 50
358.9503492893
 51
89.1015334537
  0
ARC
  5
218
330
1F
100
AcDbEntity
  8
0
  6
SLD-Gestrichelt
 62
     7
370
     0
100
AcDbCircle
 10
209.18901834
 20
86.6807700167
 30
0.0
 40
0.6142510510424948
100
AcDbArc
 50
271.317549681
 51
1.1708762429
  0
LINE
  5
219
330
1F
100
AcDbEntity
  8
0
  6
SLD-Gestrichelt
 62
     7
370
     0
100
AcDbLine
 10
209.8031411351
 20
146.100039999
 30
0.0
 11
209.8031411351
 21
86.6933217598
 31
0.0
  0
LINE
  5
21A
330
1F
100
AcDbEntity
  8
0
  6
SLD-Gestrichelt
 62
     7
370
     0
100
AcDbLine
 10
203.7631417097
 20
143.3732522978
 30
0.0
 11
203.7631417097
 21
144.0588323725
 31
0.0
  0
LWPOLYLINE
  5
21B
330
1F
100
AcDbEntity
  8
0
  6
SLD-Gestrichelt
 62
     7
370
     0
100
AcDbPolyline
 90
        3
 70
   128
 43
0.0
 10
203.7631417097
 20
144.0588323725
 10
205.2370695801
 20
146.7064613802
 10
205.2450733663
 20
146.7207944347
  0
LINE
  5
21C
330
1F
100
AcDbEntity
  8
0
  6
SLD-Gestrichelt
 62
     7
370
     0
100
AcDbLine
 10
205.2450733663
 20
146.7207944347
 30
0.0
 11
209.2031421543
 21
146.7207944347
 31
0.0
  0
LINE
  5
21D
330
1F
100
AcDbEntity
  8
0
  6
SLD-Gestrichelt
 62
     7
370
     0
100
AcDbLine
 10
209.8031411351
 20
146.100039999
 30
0.0
 11
209.8031411351
 21
142.6535988553
 31
0.0
  0
LINE
  5
21E
330
1F
100
AcDbEntity
  8
0
  6
SLD-Gestrichelt
 62
     7
370
     0
100
AcDbLine
 10
203.368843946
 20
142.6535988553
 30
0.0
 11
209.8031411351
 21
142.6535988553
 31
0.0
  0
LWPOLYLINE
  5
21F
330
1F
100
AcDbEntity
  8
0
  6
SLD-Gestrichelt
 62
     7
370
     0
100
AcDbPolyline
 90
        3
 70
   128
 43
0.0
 10
198.4612089054
 20
146.7207944347
 10
198.4692126916
 20
146.7064613802
 10
199.9431414933
 20
144.0588323725
  0
LINE
  5
220
330
1F
100
AcDbEntity
  8
0
  6
SLD-Gestrichelt
 62
     7
370
     0
100
AcDbLine
 10
199.9431414933
 20
144.0588323725
 30
0.0
 11
199.9431414933
 21
143.3732522978
 31
0.0
  0
LINE
  5
221
330
1F
100
AcDbEntity
  8
0
  6
SLD-Gestrichelt
 62
     7
370
     0
100
AcDbLine
 10
196.8031417982
 20
142.6535988553
 30
0.0
 11
200.337439257
 21
142.6535988553
 31
0.0
  0
LINE
  5
222
330
1F
100
AcDbEntity
  8
0
  6
SLD-Gestrichelt
 62
     7
370
     0
100
AcDbLine
 10
199.9431414933
 20
144.0588323725
 30
0.0
 11
199.9431414933
 21
88.7557616783
 31
0.0
  0
LINE
  5
223
330
1F
100
AcDbEntity
  8
0
  6
SLD-Gestrichelt
 62
     7
370
     0
100
AcDbLine
 10
203.7631417097
 20
144.0588323725
 30
0.0
 11
203.7631417097
 21
88.7557616783
 31
0.0
  0
LINE
  5
224
330
1F
100
AcDbEntity
  8
0
  6
SLD-Gestrichelt
 62
     7
370
     0
100
AcDbLine
 10
205.2450733663
 20
146.7207944347
 30
0.0
 11
205.2450733663
 21
86.0666813655
 31
0.0
  0
LWPOLYLINE
  5
225
330
1F
100
AcDbEntity
  8
0
  6
SLD-Gestrichelt
 62
     7
370
     0
100
AcDbPolyline
 90
       12
 70
   128
 43
0.0
 10
152.7772950412
 20
136.6437184019
 10
152.711435634
 20
136.4589142008
 10
152.5970021666
 20
136.19541883
 10
152.467667538
 20
135.9622417344
 10
152.3931207539
 20
135.855655591
 10
152.3543740095
 20
135.808655466
 10
152.3103224517
 20
135.7629163517
 10
152.2713708163
 20
135.7301375223
 10
152.2347512127
 20
135.7069569035
 10
152.1884719313
 20
135.6906047417
 10
152.1080317379
 20
135.7126659108
 10
152.015804726
 20
135.9281516029
  0
LWPOLYLINE
  5
226
330
1F
100
AcDbEntity
  8
0
  6
SLD-Gestrichelt
 62
     7
370
     0
100
AcDbPolyline
 90
       12
 70
   128
 43
0.0
 10
151.9834207774
 20
96.6635117633
 10
152.0681636811
 20
96.9890611572
 10
152.1192076088
 20
97.0351113332
 10
152.1862553836
 20
97.0407681866
 10
152.2207441212
 20
97.0285008056
 10
152.2655258359
 20
97.0014812751
 10
152.302883047
 20
96.9710456533
 10
152.341342944
 20
96.9333345396
 10
152.3912990869
 20
96.8758458598
 10
152.4656149031
 20
96.7744974745
 10
152.6259402217
 20
96.4964175923
 10
152.8920507462
 20
95.8096770896
  0
LINE
  5
227
330
1F
100
AcDbEntity
  8
0
  6
SLD-Gestrichelt
 62
     7
370
     0
100
AcDbLine
 10
151.9531416179
 20
135.9442765219
 30
0.0
 11
151.9531416179
 21
96.6004388733
 31
0.0
  0
LINE
  5
228
330
1F
100
AcDbEntity
  8
0
  6
SLD-Gestrichelt
 62
     7
370
     0
100
AcDbLine
 10
198.4612089054
 20
86.0666813655
 30
0.0
 11
199.9431414933
 21
88.7557616783
 31
0.0
  0
LINE
  5
229
330
1F
100
AcDbEntity
  8
0
  6
SLD-Gestrichelt
 62
     7
370
     0
100
AcDbLine
 10
199.9431414933
 20
88.7557616783
 30
0.0
 11
199.9431414933
 21
89.4492039783
 31
0.0
  0
LINE
  5
22A
330
1F
100
AcDbEntity
  8
0
  6
SLD-Gestrichelt
 62
     7
370
     0
100
AcDbLine
 10
196.8031417982
 20
89.8535991414
 30
0.0
 11
200.0408167423
 21
89.8535991414
 31
0.0
  0
LINE
  5
22B
330
1F
100
AcDbEntity
  8
0
  6
SLD-Gestrichelt
 62
     7
370
     0
100
AcDbLine
 10
203.7631417097
 20
88.7557616783
 30
0.0
 11
205.2450733663
 21
86.0666813655
 31
0.0
  0
LINE
  5
22C
330
1F
100
AcDbEntity
  8
0
  6
SLD-Gestrichelt
 62
     7
370
     0
100
AcDbLine
 10
203.7631417097
 20
89.4492039783
 30
0.0
 11
203.7631417097
 21
88.7557616783
 31
0.0
  0
LINE
  5
22D
330
1F
100
AcDbEntity
  8
0
  6
SLD-Gestrichelt
 62
     7
370
     0
100
AcDbLine
 10
205.2450733663
 20
86.0666813655
 30
0.0
 11
209.2031421543
 21
86.0666813655
 31
0.0
  0
LINE
  5
22E
330
1F
100
AcDbEntity
  8
0
  6
SLD-Gestrichelt
 62
     7
370
     0
100
AcDbLine
 10
209.8031411351
 20
86.6933217598
 30
0.0
 11
209.8031411351
 21
89.8535991414
 31
0.0
  0
LINE
  5
22F
330
1F
100
AcDbEntity
  8
0
  6
SLD-Gestrichelt
 62
     7
370
     0
100
AcDbLine
 10
203.6654664607
 20
89.8535991414
 30
0.0
 11
209.8031411351
 21
89.8535991414
 31
0.0
  0
CIRCLE
  5
230
330
1F
100
AcDbEntity
  8
0
  6
SLD-Gestrichelt
 62
     7
370
     0
100
AcDbCircle
 10
190.853141445
 20
116.2535989983
 30
0.0
 40
5.0
  0
LINE
  5
231
330
1F
100
AcDbEntity
  8
0
  6
SLD-Gestrichelt
 62
     7
370
     0
100
AcDbLine
 10
250.5898246945
 20
89.6324975742
 30
0.0
 11
250.1554707469
 21
89.1956998361
 31
0.0
  0
LINE
  5
232
330
1F
100
AcDbEntity
  8
0
  6
SLD-Gestrichelt
 62
     7
370
     0
100
AcDbLine
 10
250.5862186135
 20
89.6288169874
 30
0.0
 11
248.9539826692
 21
115.1802811632
 31
0.0
  0
LINE
  5
233
330
1F
100
AcDbEntity
  8
0
  6
SLD-Gestrichelt
 62
     7
370
     0
100
AcDbLine
 10
183.853141445
 20
90.9296753211
 30
0.0
 11
183.9473022828
 21
91.599665056
 31
0.0
  0
LINE
  5
234
330
1F
100
AcDbEntity
  8
0
  6
SLD-Gestrichelt
 62
     7
370
     0
100
AcDbLine
 10
183.9473022828
 20
140.9075329406
 30
0.0
 11
183.853141445
 21
141.5775226755
 31
0.0
  0
ARC
  5
235
330
1F
100
AcDbEntity
  8
0
  6
SLD-Gestrichelt
 62
     7
370
     0
100
AcDbCircle
 10
183.353141445
 20
91.6831681366
 30
0.0
 40
0.6000000000000113
100
AcDbArc
 50
352.0
 51
0.0
  0
ARC
  5
236
330
1F
100
AcDbEntity
  8
0
  6
SLD-Gestrichelt
 62
     7
370
     0
100
AcDbCircle
 10
183.353141445
 20
91.6831681366
 30
0.0
 40
0.6000000000000019
100
AcDbArc
 50
0.0
 51
33.5573097619
  0
ARC
  5
237
330
1F
100
AcDbEntity
  8
0
  6
SLD-Gestrichelt
 62
     7
370
     0
100
AcDbCircle
 10
183.353141445
 20
140.82402986
 30
0.0
 40
0.6000000000000258
100
AcDbArc
 50
348.75
 51
8.0
  0
LWPOLYLINE
  5
238
330
1F
100
AcDbEntity
  8
0
  6
SLD-Gestrichelt
 62
     7
370
     0
100
AcDbPolyline
 90
        3
 70
   128
 43
0.0
 10
183.9416126149
 20
140.7069763495
 10
183.9074691652
 20
140.5944204284
 10
183.853141445
 20
140.4923679633
  0
LINE
  5
239
330
1F
100
AcDbEntity
  8
0
  6
SLD-Gestrichelt
 62
     7
370
     0
100
AcDbLine
 10
183.9531414425
 20
91.683167438
 30
0.0
 11
183.9531414425
 21
140.8240305586
 31
0.0
  0
LINE
  5
23A
330
1F
100
AcDbEntity
  8
0
  6
SLD-Gestrichelt
 62
     7
370
     0
100
AcDbLine
 10
183.9531414425
 20
91.683167438
 30
0.0
 11
183.9531414425
 21
140.8240305586
 31
0.0
  0
ARC
  5
23B
330
1F
100
AcDbEntity
  8
0
  6
SLD-Gestrichelt
 62
     7
370
     0
100
AcDbCircle
 10
166.9355770103
 20
96.8535989983
 30
0.0
 40
0.6000000000000085
100
AcDbArc
 50
210.0
 51
270.0
  0
ARC
  5
23C
330
1F
100
AcDbEntity
  8
0
  6
SLD-Gestrichelt
 62
     7
370
     0
100
AcDbCircle
 10
166.9355770103
 20
135.6535989983
 30
0.0
 40
0.6000000000000155
100
AcDbArc
 50
90.0
 51
150.0
  0
ARC
  5
23D
330
1F
100
AcDbEntity
  8
0
  6
SLD-Gestrichelt
 62
     7
370
     0
100
AcDbCircle
 10
177.6081434466
 20
104.2535989983
 30
0.0
 40
8.000000000000018
100
AcDbArc
 50
276.8732734362
 51
321.3178125465
  0
ARC
  5
23E
330
1F
100
AcDbEntity
  8
0
  6
SLD-Gestrichelt
 62
     7
370
     0
100
AcDbCircle
 10
177.6081434466
 20
128.2535989983
 30
0.0
 40
7.999999999999982
100
AcDbArc
 50
38.6821874535
 51
83.1164738255
  0
LINE
  5
23F
330
1F
100
AcDbEntity
  8
0
  6
SLD-Gestrichelt
 62
     7
370
     0
100
AcDbLine
 10
166.9355774702
 20
96.2535994453
 30
0.0
 11
171.1131133542
 21
96.2535994453
 31
0.0
  0
LINE
  5
240
330
1F
100
AcDbEntity
  8
0
  6
SLD-Gestrichelt
 62
     7
370
     0
100
AcDbLine
 10
171.1131133542
 20
136.2535985513
 30
0.0
 11
166.9355774702
 21
136.2535985513
 31
0.0
  0
LINE
  5
241
330
1F
100
AcDbEntity
  8
0
  6
SLD-Gestrichelt
 62
     7
370
     0
100
AcDbLine
 10
166.4159609408
 20
135.9535990609
 30
0.0
 11
164.8571169407
 21
133.2535999222
 31
0.0
  0
LINE
  5
242
330
1F
100
AcDbEntity
  8
0
  6
SLD-Gestrichelt
 62
     7
370
     0
100
AcDbLine
 10
164.8571169407
 20
99.2535980744
 30
0.0
 11
166.4159609408
 21
96.5535989357
 31
0.0
  0
ARC
  5
243
330
1F
100
AcDbEntity
  8
0
  6
SLD-Gestrichelt
 62
     7
370
     0
100
AcDbCircle
 10
192.303141445
 20
100.5285989983
 30
0.0
 40
1.5
100
AcDbArc
 50
238.2116693829
 51
0.0
  0
ARC
  5
244
330
1F
100
AcDbEntity
  8
0
  6
SLD-Gestrichelt
 62
     7
370
     0
100
AcDbCircle
 10
192.303141445
 20
131.9785989983
 30
0.0
 40
1.500000000000016
100
AcDbArc
 50
0.0
 51
121.7883306171
  0
LINE
  5
245
330
1F
100
AcDbEntity
  8
0
  6
SLD-Gestrichelt
 62
     7
370
     0
100
AcDbLine
 10
183.853141445
 20
99.2535980744
 30
0.0
 11
191.5129674071
 21
99.2535980744
 31
0.0
  0
LINE
  5
246
330
1F
100
AcDbEntity
  8
0
  6
SLD-Gestrichelt
 62
     7
370
     0
100
AcDbLine
 10
191.5129674071
 20
133.2535999222
 30
0.0
 11
183.853141445
 21
133.2535999222
 31
0.0
  0
LINE
  5
247
330
1F
100
AcDbEntity
  8
0
  6
SLD-Gestrichelt
 62
     7
370
     0
100
AcDbLine
 10
162.0531412245
 20
99.2535980744
 30
0.0
 11
164.8571169407
 21
99.2535980744
 31
0.0
  0
LINE
  5
248
330
1F
100
AcDbEntity
  8
0
  6
SLD-Gestrichelt
 62
     7
370
     0
100
AcDbLine
 10
164.8571169407
 20
133.2535999222
 30
0.0
 11
158.0531405688
 21
133.2535999222
 31
0.0
  0
LINE
  5
249
330
1F
100
AcDbEntity
  8
0
  6
SLD-Gestrichelt
 62
     7
370
     0
100
AcDbLine
 10
203.1531421871
 20
106.7535993038
 30
0.0
 11
205.6531416656
 21
106.7535993038
 31
0.0
  0
LINE
  5
24A
330
1F
100
AcDbEntity
  8
0
  6
SLD-Gestrichelt
 62
     7
370
     0
100
AcDbLine
 10
205.6531416656
 20
125.7535986928
 30
0.0
 11
203.1531421871
 21
125.7535986928
 31
0.0
  0
LINE
  5
24B
330
1F
100
AcDbEntity
  8
0
  6
SLD-Gestrichelt
 62
     7
370
     0
100
AcDbLine
 10
193.8031413064
 20
107.2535993857
 30
0.0
 11
194.3031413884
 21
107.7535985364
 31
0.0
  0
LINE
  5
24C
330
1F
100
AcDbEntity
  8
0
  6
SLD-Gestrichelt
 62
     7
370
     0
100
AcDbLine
 10
194.3031413884
 20
124.7535994602
 30
0.0
 11
193.8031413064
 21
125.2535986109
 31
0.0
  0
LINE
  5
24D
330
1F
100
AcDbEntity
  8
0
  6
SLD-Gestrichelt
 62
     7
370
     0
100
AcDbLine
 10
194.3031413884
 20
107.7535985364
 30
0.0
 11
203.1531421871
 21
107.7535985364
 31
0.0
  0
LINE
  5
24E
330
1F
100
AcDbEntity
  8
0
  6
SLD-Gestrichelt
 62
     7
370
     0
100
AcDbLine
 10
203.1531421871
 20
124.7535994602
 30
0.0
 11
194.3031413884
 21
124.7535994602
 31
0.0
  0
LINE
  5
24F
330
1F
100
AcDbEntity
  8
0
  6
SLD-Gestrichelt
 62
     7
370
     0
100
AcDbLine
 10
230.1200064303
 20
112.3181799753
 30
0.0
 11
230.3641545058
 21
111.7118917732
 31
0.0
  0
LINE
  5
250
330
1F
100
AcDbEntity
  8
0
  6
SLD-Gestrichelt
 62
     7
370
     0
100
AcDbLine
 10
188.8031414182
 20
147.7535995049
 30
0.0
 11
188.8031414182
 21
142.6535988553
 31
0.0
  0
LINE
  5
251
330
1F
100
AcDbEntity
  8
0
  6
SLD-Gestrichelt
 62
     7
370
     0
100
AcDbLine
 10
235.5709517778
 20
110.6656267634
 30
0.0
 11
235.3268074275
 21
111.2719149655
 31
0.0
  0
ARC
  5
252
330
1F
100
AcDbEntity
  8
0
  6
SLD-Gestrichelt
 62
     7
370
     0
100
AcDbCircle
 10
238.3374032329
 20
84.7930531079
 30
0.0
 40
4.100362923079846
100
AcDbArc
 50
36.5616580775
 51
84.6867407228
  0
LINE
  5
253
330
1F
100
AcDbEntity
  8
0
  6
SLD-Gestrichelt
 62
     7
370
     0
100
AcDbLine
 10
241.6140245677
 20
102.521791528
 30
0.0
 11
241.3350003244
 21
103.2146917982
 31
0.0
  0
LINE
  5
254
330
1F
100
AcDbEntity
  8
0
  6
SLD-Gestrichelt
 62
     7
370
     0
100
AcDbLine
 10
235.583800304
 20
100.8987272484
 30
0.0
 11
235.8628245474
 21
100.2058269782
 31
0.0
  0
LINE
  5
255
330
1F
100
AcDbEntity
  8
0
  6
SLD-Gestrichelt
 62
     7
370
     0
100
AcDbLine
 10
246.8669632853
 20
100.5742693646
 30
0.0
 11
246.3340232552
 21
101.8977104081
 31
0.0
  0
LINE
  5
256
330
1F
100
AcDbEntity
  8
0
  6
SLD-Gestrichelt
 62
     7
370
     0
100
AcDbLine
 10
179.0375792825
 20
92.1742277546
 30
0.0
 11
178.6031471037
 21
92.653294499
 31
0.0
  0
LINE
  5
257
330
1F
100
AcDbEntity
  8
0
  6
SLD-Gestrichelt
 62
     7
370
     0
100
AcDbLine
 10
171.1031435461
 20
93.0749824597
 30
0.0
 11
170.6207100705
 21
92.5959157152
 31
0.0
  0
LINE
  5
258
330
1F
100
AcDbEntity
  8
0
  6
SLD-Gestrichelt
 62
     7
370
     0
100
AcDbLine
 10
170.6205880673
 20
139.9112766935
 30
0.0
 11
171.1031388895
 21
139.4321559323
 31
0.0
  0
LINE
  5
259
330
1F
100
AcDbEntity
  8
0
  6
SLD-Gestrichelt
 62
     7
370
     0
100
AcDbLine
 10
178.6031415158
 20
139.8538550688
 30
0.0
 11
179.0376835906
 21
140.3329739673
 31
0.0
  0
LINE
  5
25A
330
1F
100
AcDbEntity
  8
0
  6
SLD-Gestrichelt
 62
     7
370
     0
100
AcDbLine
 10
216.3855018498
 20
116.1017247045
 30
0.0
 11
216.4767565609
 21
116.2535989983
 31
0.0
  0
LINE
  5
25B
330
1F
100
AcDbEntity
  8
0
  6
SLD-Gestrichelt
 62
     7
370
     0
100
AcDbLine
 10
213.9531406046
 20
112.0535991481
 30
0.0
 11
214.6673402221
 21
113.2422251953
 31
0.0
  0
LINE
  5
25C
330
1F
100
AcDbEntity
  8
0
  6
SLD-Gestrichelt
 62
     7
370
     0
100
AcDbLine
 10
216.4767565609
 20
116.2535989983
 30
0.0
 11
213.9531406046
 21
120.4535988485
 31
0.0
  0
LINE
  5
25D
330
1F
100
AcDbEntity
  8
0
  6
SLD-Gestrichelt
 62
     7
370
     0
100
AcDbLine
 10
205.6531416656
 20
112.0535991481
 30
0.0
 11
213.9531406046
 21
112.0535991481
 31
0.0
  0
LINE
  5
25E
330
1F
100
AcDbEntity
  8
0
  6
SLD-Gestrichelt
 62
     7
370
     0
100
AcDbLine
 10
213.9531406046
 20
120.4535988485
 30
0.0
 11
205.6531416656
 21
120.4535988485
 31
0.0
  0
LINE
  5
25F
330
1F
100
AcDbEntity
  8
0
  6
SLD-Gestrichelt
 62
     7
370
     0
100
AcDbLine
 10
178.6031415158
 20
92.6537769241
 30
0.0
 11
178.6031415158
 21
96.3181978418
 31
0.0
  0
LINE
  5
260
330
1F
100
AcDbEntity
  8
0
  6
SLD-Gestrichelt
 62
     7
370
     0
100
AcDbLine
 10
171.1031416834
 20
96.2554620905
 30
0.0
 11
171.1031416834
 21
93.0753046973
 31
0.0
  0
LINE
  5
261
330
1F
100
AcDbEntity
  8
0
  6
SLD-Gestrichelt
 62
     7
370
     0
100
AcDbLine
 10
178.6031415158
 20
136.1890001548
 30
0.0
 11
178.6031415158
 21
139.8535626335
 31
0.0
  0
LINE
  5
262
330
1F
100
AcDbEntity
  8
0
  6
SLD-Gestrichelt
 62
     7
370
     0
100
AcDbLine
 10
171.1031416834
 20
139.4320125086
 30
0.0
 11
171.1031416834
 21
136.2517359061
 31
0.0
  0
LINE
  5
263
330
1F
100
AcDbEntity
  8
0
  6
SLD-Gestrichelt
 62
     7
370
     0
100
AcDbLine
 10
241.6553417624
 20
87.2037945641
 30
0.0
 11
243.1370499016
 21
85.349536906
 31
0.0
  0
LINE
  5
264
330
1F
100
AcDbEntity
  8
0
  6
SLD-Gestrichelt
 62
     7
370
     0
100
AcDbLine
 10
239.9004469098
 20
105.1708529098
 30
0.0
 11
239.8018422009
 21
105.4157190351
 31
0.0
  0
LINE
  5
265
330
1F
100
AcDbEntity
  8
0
  6
SLD-Gestrichelt
 62
     7
370
     0
100
AcDbLine
 10
240.7532850684
 20
103.0530169932
 30
0.0
 11
240.0799611987
 21
104.7250669776
 31
0.0
  0
LINE
  5
266
330
1F
100
AcDbEntity
  8
0
  6
SLD-Gestrichelt
 62
     7
370
     0
100
AcDbLine
 10
235.4087414623
 20
102.9396936623
 30
0.0
 11
236.1152204157
 21
101.1853035865
 31
0.0
  0
LINE
  5
267
330
1F
100
AcDbEntity
  8
0
  6
SLD-Gestrichelt
 62
     7
370
     0
100
AcDbLine
 10
235.1637775482
 20
103.5480056284
 30
0.0
 11
235.3882225634
 21
102.9906407325
 31
0.0
  0
LINE
  5
268
330
1F
100
AcDbEntity
  8
0
  6
SLD-Gestrichelt
 62
     7
370
     0
100
AcDbLine
 10
214.3467491896
 20
112.9322628817
 30
0.0
 11
235.3933373869
 21
102.9785381956
 31
0.0
  0
LINE
  5
269
330
1F
100
AcDbEntity
  8
0
  6
SLD-Gestrichelt
 62
     7
370
     0
100
AcDbLine
 10
237.8679434241
 20
106.4542284561
 30
0.0
 11
215.7099875094
 21
116.933560695
 31
0.0
  0
ARC
  5
26A
330
1F
100
AcDbEntity
  8
0
  6
SLD-Gestrichelt
 62
     7
370
     0
100
AcDbCircle
 10
160.653141445
 20
94.0410989983
 30
0.0
 40
1.400000000000006
100
AcDbArc
 50
37.6443616934
 51
90.0
  0
ARC
  5
26B
330
1F
100
AcDbEntity
  8
0
  6
SLD-Gestrichelt
 62
     7
370
     0
100
AcDbCircle
 10
156.653141445
 20
138.5235989983
 30
0.0
 40
1.400000000000006
100
AcDbArc
 50
270.0
 51
301.7485287426
  0
LINE
  5
26C
330
1F
100
AcDbEntity
  8
0
  6
SLD-Gestrichelt
 62
     7
370
     0
100
AcDbLine
 10
249.3102247299
 20
87.0900428249
 30
0.0
 11
248.560338694
 21
88.9522129996
 31
0.0
  0
LINE
  5
26D
330
1F
100
AcDbEntity
  8
0
  6
SLD-Gestrichelt
 62
     7
370
     0
100
AcDbLine
 10
245.4992192269
 20
87.7195218904
 30
0.0
 11
246.2491015376
 21
85.8573517157
 31
0.0
  0
LINE
  5
26E
330
1F
100
AcDbEntity
  8
0
  6
SLD-Gestrichelt
 62
     7
370
     0
100
AcDbLine
 10
153.1031405957
 20
95.4410987301
 30
0.0
 11
160.6531417401
 21
95.4410987301
 31
0.0
  0
LINE
  5
26F
330
1F
100
AcDbEntity
  8
0
  6
SLD-Gestrichelt
 62
     7
370
     0
100
AcDbLine
 10
151.9505599917
 20
96.593679334
 30
0.0
 11
153.1031405957
 21
95.4410987301
 31
0.0
  0
LINE
  5
270
330
1F
100
AcDbEntity
  8
0
  6
SLD-Gestrichelt
 62
     7
370
     0
100
AcDbLine
 10
156.6531410844
 20
137.1235991223
 30
0.0
 11
153.2274069668
 21
137.1235991223
 31
0.0
  0
LINE
  5
271
330
1F
100
AcDbEntity
  8
0
  6
SLD-Gestrichelt
 62
     7
370
     0
100
AcDbLine
 10
153.0943042071
 20
137.1147627337
 30
0.0
 11
151.9630434395
 21
135.9835001035
 31
0.0
  0
LINE
  5
272
330
1F
100
AcDbEntity
  8
0
  6
SLD-Gestrichelt
 62
     7
370
     0
100
AcDbLine
 10
238.3184986592
 20
101.5951199783
 30
0.0
 11
241.7926894904
 21
99.9520434393
 31
0.0
  0
LINE
  5
273
330
1F
100
AcDbEntity
  8
0
  6
SLD-Gestrichelt
 62
     7
370
     0
100
AcDbLine
 10
243.5883390189
 20
103.7488388224
 30
0.0
 11
239.5743834258
 21
105.6471890165
 31
0.0
  0
LINE
  5
274
330
1F
100
AcDbEntity
  8
0
  6
SLD-Gestrichelt
 62
     7
370
     0
100
AcDbLine
 10
241.8298194588
 20
99.4920054777
 30
0.0
 11
251.0448540033
 21
95.1338665886
 31
0.0
  0
LINE
  5
275
330
1F
100
AcDbEntity
  8
0
  6
SLD-Gestrichelt
 62
     7
370
     0
100
AcDbLine
 10
250.7305512608
 20
100.8134963317
 30
0.0
 11
243.9674953402
 21
104.011998917
 31
0.0
  0
LINE
  5
276
330
1F
100
AcDbEntity
  8
0
  6
SLD-Gestrichelt
 62
     7
370
     0
100
AcDbLine
 10
243.5024748028
 20
103.8642492471
 30
0.0
 11
243.1977199794
 21
103.6247289134
 31
0.0
  0
LINE
  5
277
330
1F
100
AcDbEntity
  8
0
  6
SLD-Gestrichelt
 62
     7
370
     0
100
AcDbLine
 10
241.6408056797
 20
100.3327252669
 30
0.0
 11
241.6490050436
 21
99.9451963557
 31
0.0
  0
DIMENSION
  5
278
330
1F
100
AcDbEntity
  8
VERMASSUNG
100
AcDbDimension
  2
*D1
 10
141.7918317943
 20
84.7535989983
 30
0.0
 11
141.7918317943
 21
116.2535989983
 31
0.0
 70
   160
  1
HSK %%c<>
 71
     2
 42
-1.0
  3
SLDDIMSTYLE0
100
AcDbAlignedDimension
 13
184.153141445
 23
147.7535989983
 33
0.0
 14
184.153141445
 24
84.7535989983
 34
0.0
 50
90.0
100
AcDbRotatedDimension
  0
DIMENSION
  5
285
330
1F
100
AcDbEntity
  8
VERMASSUNG
100
AcDbDimension
  2
*D2
 10
253.853141445
 20
163.7535989983
 30
0.0
 11
202.903141445
 21
163.7535989983
 31
0.0
 70
   160
 71
     2
 42
-1.0
  3
SLDDIMSTYLE0
100
AcDbAlignedDimension
 13
151.953141445
 23
135.9442767448
 33
0.0
 14
253.853141445
 24
71.2535989983
 34
0.0
 50
0.0
100
AcDbRotatedDimension
  0
DIMENSION
  5
28F
330
1F
100
AcDbEntity
  8
VERMASSUNG
100
AcDbDimension
  2
*D3
 10
253.853141445
 20
157.7535989983
 30
0.0
 11
218.853141445
 21
157.7535989983
 31
0.0
 70
   160
 71
     2
 42
-1.0
  3
SLDDIMSTYLE0
100
AcDbAlignedDimension
 13
183.853141445
 23
147.4535989983
 33
0.0
 14
253.853141445
 24
71.2535989983
 34
0.0
100
AcDbRotatedDimension
  0
DIMENSION
  5
299
330
1F
100
AcDbEntity
  8
VERMASSUNG
100
AcDbDimension
  2
*D4
 10
265.6590872835
 20
71.2535989983
 30
0.0
 11
265.6590872835
 21
93.7535989983
 31
0.0
 70
   160
 71
     2
 42
-1.0
  3
SLDDIMSTYLE0
100
AcDbAlignedDimension
 13
252.7505730625
 23
116.2535989983
 33
0.0
 14
253.853141445
 24
71.2535989983
 34
0.0
 50
90.0
100
AcDbRotatedDimension
  0
DIMENSION
  5
2A3
330
1F
100
AcDbEntity
  8
VERMASSUNG
100
AcDbDimension
  2
*D5
 10
252.4955310288
 20
87.4692199221
 30
0.0
 11
259.0870451229
 21
107.3293793958
 31
0.0
 70
   162
 71
     1
 42
-1.0
  3
SLDDIMSTYLE1
100
AcDb2LineAngularDimension
 13
253.853141445
 23
126.4280964172
 33
0.0
 14
253.853141445
 24
71.2535989983
 34
0.0
 15
251.3379785993
 25
109.2601386237
 35
0.0
 16
252.6401407658
 26
107.6138691968
 36
0.0
  0
LINE
  5
2AE
330
1F
100
AcDbEntity
  8
VERMASSUNG
  6
SLD-Punktstrich
370
     0
100
AcDbLine
 10
252.7505730625
 20
116.2535989983
 30
0.0
 11
147.698798869
 21
116.2535989983
 31
0.0
  0
LINE
  5
2AF
330
1F
100
AcDbEntity
  8
0
  6
SLD-Durchgehend
 62
     7
370
    15
100
AcDbLine
 10
58.2356814888
 20
107.5235842122
 30
0.0
 11
58.003208473
 21
107.4064527033
 31
0.0
  0
LINE
  5
2B0
330
1F
100
AcDbEntity
  8
0
  6
SLD-Durchgehend
 62
     7
370
    15
100
AcDbLine
 10
63.7010679242
 20
108.48761437
 30
0.0
 11
58.2377862778
 21
107.5242901547
 31
0.0
  0
LINE
  5
2B1
330
1F
100
AcDbEntity
  8
0
  6
SLD-Durchgehend
 62
     7
370
    15
100
AcDbLine
 10
58.2654391077
 20
105.2118590428
 30
0.0
 11
57.9961211082
 21
104.8252251325
 31
0.0
  0
LINE
  5
2B2
330
1F
100
AcDbEntity
  8
0
  6
SLD-Durchgehend
 62
     7
370
    15
100
AcDbLine
 10
60.0747995671
 20
93.0364610953
 30
0.0
 11
61.225627422
 21
92.2264414234
 31
0.0
  0
LINE
  5
2B3
330
1F
100
AcDbEntity
  8
0
  6
SLD-Durchgehend
 62
     7
370
    15
100
AcDbLine
 10
61.2622283992
 20
92.2154965205
 30
0.0
 11
65.7728722912
 21
93.0108441366
 31
0.0
  0
LINE
  5
2B4
330
1F
100
AcDbEntity
  8
0
  6
SLD-Durchgehend
 62
     7
370
    15
100
AcDbLine
 10
65.7912957143
 20
93.0198872788
 30
0.0
 11
66.0999909636
 21
93.2796573592
 31
0.0
  0
LINE
  5
2B5
330
1F
100
AcDbEntity
  8
0
  6
SLD-Durchgehend
 62
     7
370
    15
100
AcDbLine
 10
63.8083134439
 20
106.6328719584
 30
0.0
 11
63.6663100344
 21
106.6847838787
 31
0.0
  0
ARC
  5
2B6
330
1F
100
AcDbEntity
  8
0
  6
SLD-Durchgehend
 62
     7
370
    15
100
AcDbCircle
 10
90.0985302137
 20
100.6051891812
 30
0.0
 40
1.999999999999993
100
AcDbArc
 50
298.5672869335
 51
4.5419671843
  0
ARC
  5
2B7
330
1F
100
AcDbEntity
  8
0
  6
SLD-Durchgehend
 62
     7
370
    15
100
AcDbCircle
 10
90.0985302137
 20
100.6051891812
 30
0.0
 40
2.000000000000007
100
AcDbArc
 50
248.8727196814
 51
298.5672869335
  0
ARC
  5
2B8
330
1F
100
AcDbEntity
  8
0
  6
SLD-Durchgehend
 62
     7
370
    15
100
AcDbCircle
 10
72.9578342216
 20
97.8361861868
 30
0.0
 40
0.4999378480120716
100
AcDbArc
 50
270.4506259888
 51
355.2517369115
  0
LWPOLYLINE
  5
2B9
330
1F
100
AcDbEntity
  8
0
  6
SLD-Durchgehend
 62
     7
370
    15
100
AcDbPolyline
 90
       19
 70
   128
 43
0.0
 10
73.4430028718
 20
98.7037508143
 10
73.4247987751
 20
98.910262282
 10
73.360576633
 20
99.4563320978
 10
73.2764274475
 20
100.0657895906
 10
73.1752969917
 20
100.7202178566
 10
73.0608155612
 20
101.3970388426
 10
72.9371228848
 20
102.0720586507
 10
72.8086958301
 20
102.720829132
 10
72.680097412
 20
103.3200327633
 10
72.5556322035
 20
103.8489140896
 10
72.4387465638
 20
104.2909970833
 10
72.3298675042
 20
104.6385536296
 10
72.2073240798
 20
104.9191182805
 10
72.1299870532
 20
105.0291149272
 10
72.0085328106
 20
105.1359208627
 10
71.8378199857
 20
105.2084680973
 10
71.6319352981
 20
105.2136481134
 10
71.433684196
 20
105.1337872026
 10
71.3246076961
 20
105.0330581469
  0
LWPOLYLINE
  5
2BA
330
1F
100
AcDbEntity
  8
0
  6
SLD-Durchgehend
 62
     7
370
    15
100
AcDbPolyline
 90
       29
 70
   128
 43
0.0
 10
56.0782969591
 20
104.2258063657
 10
55.8018338528
 20
104.0620146645
 10
55.401689246
 20
103.7128487928
 10
55.088695943
 20
103.328598137
 10
54.8575118777
 20
102.9306384129
 10
54.7002282586
 20
102.5398750184
 10
54.60570088
 20
102.1785851894
 10
54.5576763001
 20
101.8612603052
 10
54.5384165492
 20
101.5695002256
 10
54.5386847701
 20
101.2622680841
 10
54.5648158189
 20
100.8079801081
 10
54.6175510284
 20
100.277866642
 10
54.6883874234
 20
99.7176481737
 10
54.7824249264
 20
99.0756204678
 10
54.8899070021
 20
98.4182780935
 10
55.0077528354
 20
97.7602186007
 10
55.1324271258
 20
97.1206328226
 10
55.260472804
 20
96.5188941313
 10
55.3905748424
 20
95.9663218213
 10
55.5286042985
 20
95.4542341037
 10
55.6904830631
 20
94.9685084028
 10
55.8334038254
 20
94.6386469854
 10
55.9987694618
 20
94.3392956955
 10
56.2402092513
 20
94.0015571518
 10
56.5708306279
 20
93.6563643022
 10
56.9885604676
 20
93.3431251301
 10
57.4880790558
 20
93.0924633844
 10
58.0482807603
 20
92.9337511165
 10
58.0866214481
 20
92.9306479497
  0
LINE
  5
2BB
330
1F
100
AcDbEntity
  8
0
  6
SLD-Durchgehend
 62
     7
370
    15
100
AcDbLine
 10
58.0979426053
 20
92.9268295271
 30
0.0
 11
60.0627594289
 21
93.2732796622
 31
0.0
  0
LINE
  5
2BC
330
1F
100
AcDbEntity
  8
0
  6
SLD-Durchgehend
 62
     7
370
    15
100
AcDbLine
 10
58.0658063885
 20
104.5985700889
 30
0.0
 11
56.1009877023
 21
104.2521190224
 31
0.0
  0
LINE
  5
2BD
330
1F
100
AcDbEntity
  8
0
  6
SLD-Durchgehend
 62
     7
370
    15
100
AcDbLine
 10
63.6580855247
 20
109.2784948973
 30
0.0
 11
63.8017383066
 21
106.635275702
 31
0.0
  0
LINE
  5
2BE
330
1F
100
AcDbEntity
  8
0
  6
SLD-Durchgehend
 62
     7
370
    15
100
AcDbLine
 10
69.9239660647
 20
116.1171313847
 30
0.0
 11
66.09429872
 21
115.4418576602
 31
0.0
  0
LINE
  5
2BF
330
1F
100
AcDbEntity
  8
0
  6
SLD-Durchgehend
 62
     7
370
    15
100
AcDbLine
 10
78.8822573253
 20
71.2536270125
 30
0.0
 11
83.5585234348
 21
72.0781790419
 31
0.0
  0
LINE
  5
2C0
330
1F
100
AcDbEntity
  8
0
  6
SLD-Durchgehend
 62
     7
370
    15
100
AcDbLine
 10
77.3500783729
 20
78.6686497135
 30
0.0
 11
77.6375020981
 21
78.3231439395
 31
0.0
  0
LINE
  5
2C1
330
1F
100
AcDbEntity
  8
0
  6
SLD-Durchgehend
 62
     7
370
    15
100
AcDbLine
 10
74.9782303941
 20
91.6458735568
 30
0.0
 11
74.8414870944
 21
91.2651544763
 31
0.0
  0
LINE
  5
2C2
330
1F
100
AcDbEntity
  8
0
  6
SLD-Durchgehend
 62
     7
370
    15
100
AcDbLine
 10
73.8806374033
 20
98.7809183402
 30
0.0
 11
73.3259491284
 21
98.6831108434
 31
0.0
  0
LINE
  5
2C3
330
1F
100
AcDbEntity
  8
0
  6
SLD-Durchgehend
 62
     7
370
    15
100
AcDbLine
 10
83.5460339334
 20
72.2907329304
 30
0.0
 11
86.3431350921
 21
72.7839352889
 31
0.0
  0
LINE
  5
2C4
330
1F
100
AcDbEntity
  8
0
  6
SLD-Durchgehend
 62
     7
370
    15
100
AcDbLine
 10
86.3453241658
 20
72.7855669661
 30
0.0
 11
86.5866391581
 21
73.1319966121
 31
0.0
  0
ARC
  5
2C5
330
1F
100
AcDbEntity
  8
0
  6
SLD-Durchgehend
 62
     7
370
    15
100
AcDbCircle
 10
51.76163323
 20
105.0532440451
 30
0.0
 40
6.92934927666174
100
AcDbArc
 50
5.5773862239
 51
20.8856442304
  0
LINE
  5
2C6
330
1F
100
AcDbEntity
  8
0
  6
SLD-Durchgehend
 62
     7
370
    15
100
AcDbLine
 10
58.0662329343
 20
106.5336628212
 30
0.0
 11
58.2253959623
 21
106.58172186
 31
0.0
  0
LWPOLYLINE
  5
2C7
330
1F
100
AcDbEntity
  8
0
  6
SLD-Durchgehend
 62
     7
370
    15
100
AcDbPolyline
 90
       10
 70
   128
 43
0.0
 10
58.0388222483
 20
106.7304382427
 10
57.9982128587
 20
107.0895552961
 10
57.9867948439
 20
107.3241144745
 10
58.0058757809
 20
107.4072080059
 10
58.0532651987
 20
107.3293038039
 10
58.1235278991
 20
107.0993379084
 10
58.2086060789
 20
106.7436928255
 10
58.2987357524
 20
106.3031660719
 10
58.3835792389
 20
105.828293073
 10
58.4448006597
 20
105.4343846021
  0
ARC
  5
2C8
330
1F
100
AcDbEntity
  8
0
  6
SLD-Durchgehend
 62
     7
370
    15
100
AcDbCircle
 10
76.5932927893
 20
109.2438923111
 30
0.0
 40
18.72424339618317
100
AcDbArc
 50
188.3224785961
 51
192.4795665417
  0
LINE
  5
2C9
330
1F
100
AcDbEntity
  8
0
  6
SLD-Durchgehend
 62
     7
370
    15
100
AcDbLine
 10
58.0956683156
 20
106.4499965264
 30
0.0
 11
58.0662329343
 21
106.5336628212
 31
0.0
  0
LWPOLYLINE
  5
2CA
330
1F
100
AcDbEntity
  8
0
  6
SLD-Durchgehend
 62
     7
370
    15
100
AcDbPolyline
 90
       10
 70
   128
 43
0.0
 10
58.0725845542
 20
106.6157011641
 10
58.0371179279
 20
106.9329236029
 10
58.0293395218
 20
107.1307868091
 10
58.0502477136
 20
107.1838749899
 10
58.097156569
 20
107.0853671385
 10
58.1640422937
 20
106.8479189975
 10
58.2423106429
 20
106.5020313812
 10
58.321907058
 20
106.0921376897
 10
58.3926093426
 20
105.6708930386
 10
58.4290017035
 20
105.4198084725
  0
ARC
  5
2CB
330
1F
100
AcDbEntity
  8
0
  6
SLD-Durchgehend
 62
     7
370
    15
100
AcDbCircle
 10
72.3666292585
 20
108.492541849
 30
0.0
 40
14.41639058957675
100
AcDbArc
 50
188.1451971599
 51
193.1455075452
  0
LINE
  5
2CC
330
1F
100
AcDbEntity
  8
0
  6
SLD-Durchgehend
 62
     7
370
    15
100
AcDbLine
 10
58.0725845542
 20
106.6157011641
 30
0.0
 11
58.0388222483
 21
106.7304382427
 31
0.0
  0
LINE
  5
2CD
330
1F
100
AcDbEntity
  8
0
  6
SLD-Durchgehend
 62
     7
370
    15
100
AcDbLine
 10
58.2475595769
 20
106.4767785696
 30
0.0
 11
58.0956683156
 21
106.4499965264
 31
0.0
  0
LINE
  5
2CE
330
1F
100
AcDbEntity
  8
0
  6
SLD-Durchgehend
 62
     7
370
    15
100
AcDbLine
 10
58.2125753757
 20
106.640385869
 30
0.0
 11
58.0725845542
 21
106.6157011641
 31
0.0
  0
LWPOLYLINE
  5
2CF
330
1F
100
AcDbEntity
  8
0
  6
SLD-Durchgehend
 62
     7
370
    15
100
AcDbPolyline
 90
       25
 70
   128
 43
0.0
 10
59.9450197664
 20
93.2525204821
 10
60.0234427151
 20
93.0967605067
 10
60.1022363302
 20
93.0266561313
 10
60.1554725912
 20
93.1020560069
 10
60.1818383333
 20
93.3211068017
 10
60.1806872186
 20
93.6784105701
 10
60.1520453241
 20
94.1651737643
 10
60.0966204551
 20
94.7694084002
 10
60.0157760676
 20
95.4762356682
 10
59.9115014669
 20
96.2682528747
 10
59.7863671031
 20
97.1259562625
 10
59.6434519288
 20
98.0282271607
 10
59.4862744805
 20
98.9528498007
 10
59.3187071976
 20
99.8770552082
 10
59.144875839
 20
100.7780855848
 10
58.9690589007
 20
101.6337568266
 10
58.7955870327
 20
102.4229986919
 10
58.6287331429
 20
103.1263772724
 10
58.4726006385
 20
103.7265718309
 10
58.3310396072
 20
104.2088060034
 10
58.2075331953
 20
104.5612044958
 10
58.1051212397
 20
104.7750892444
 10
58.0263294872
 20
104.8451945512
 10
57.9730932262
 20
104.7697937442
 10
57.9484858212
 20
104.5851767389
  0
LWPOLYLINE
  5
2D0
330
1F
100
AcDbEntity
  8
0
  6
SLD-Durchgehend
 62
     7
370
    15
100
AcDbPolyline
 90
       24
 70
   128
 43
0.0
 10
61.225627422
 20
92.2264414234
 10
61.2738866952
 20
92.2197787417
 10
61.3262307492
 20
92.3299989058
 10
61.3515012559
 20
92.5836557848
 10
61.3491636362
 20
92.9753849609
 10
61.3192663189
 20
93.4968939377
 10
61.262444466
 20
94.1371521307
 10
61.1798994836
 20
94.8826106591
 10
61.0733748075
 20
95.7174985064
 10
60.9451298263
 20
96.6241484834
 10
60.7978728261
 20
97.5833772076
 10
60.6347237375
 20
98.5748892976
 10
60.4591321793
 20
99.577705781
 10
60.2748122659
 20
100.5706074042
 10
60.0856681016
 20
101.5325881867
 10
59.8956969228
 20
102.4432912795
 10
59.7089220431
 20
103.2834485499
 10
59.5292941329
 20
104.0352829127
 10
59.3606129881
 20
104.6828873781
 10
59.2064474371
 20
105.2125593973
 10
59.0700626966
 20
105.6130914344
 10
58.9543402788
 20
105.8760084538
 10
58.8617314246
 20
105.9957476659
 10
58.8617314246
 20
105.9957476659
  0
ARC
  5
2D1
330
1F
100
AcDbEntity
  8
0
  6
SLD-Durchgehend
 62
     7
370
    15
100
AcDbCircle
 10
150.113934277
 20
36.05627873
 30
0.0
 40
114.9717088698035
100
AcDbArc
 50
142.5319490678
 51
143.0227634444
  0
LWPOLYLINE
  5
2D2
330
1F
100
AcDbEntity
  8
0
  6
SLD-Durchgehend
 62
     7
370
    15
100
AcDbPolyline
 90
       20
 70
   128
 43
0.0
 10
65.1994392869
 20
93.6542911781
 10
65.1421191764
 20
93.7838176591
 10
64.9919732135
 20
93.8902976317
 10
64.7570675832
 20
93.9673757507
 10
64.4292224791
 20
94.0014658822
 10
64.032683022
 20
93.9661594434
 10
63.6377221566
 20
93.850545059
 10
63.3233560842
 20
93.6806047661
 10
63.1230388429
 20
93.4964301391
 10
63.0362377163
 20
93.3256423427
 10
63.0565424111
 20
93.1851020409
 10
63.1764073518
 20
93.0855082674
 10
63.3845113811
 20
93.0315511627
 10
63.6661787179
 20
93.0228861375
 10
64.005240671
 20
93.0574307544
 10
64.3802330491
 20
93.1346690608
 10
64.7499392402
 20
93.2549940748
 10
65.0404727679
 20
93.4104355378
 10
65.1700560596
 20
93.5460361047
 10
65.1994392869
 20
93.6542911781
  0
LWPOLYLINE
  5
2D3
330
1F
100
AcDbEntity
  8
0
  6
SLD-Durchgehend
 62
     7
370
    15
100
AcDbPolyline
 90
       23
 70
   128
 43
0.0
 10
65.7728722912
 20
93.0108441366
 10
65.7845305872
 20
93.0151282204
 10
65.8368737098
 20
93.1253465218
 10
65.8621442166
 20
93.3790034009
 10
65.8598065969
 20
93.770732577
 10
65.8299102109
 20
94.2922434164
 10
65.773088358
 20
94.9324997468
 10
65.6905424443
 20
95.6779601378
 10
65.5840196308
 20
96.5128461225
 10
65.455772787
 20
97.4194960995
 10
65.3085167181
 20
98.3787248237
 10
65.1453666982
 20
99.3702369137
 10
64.96977514
 20
100.3730533971
 10
64.7854561579
 20
101.3659559516
 10
64.5963110622
 20
102.3279358028
 10
64.4063408148
 20
103.2386388956
 10
64.2195659351
 20
104.0787970973
 10
64.0399370935
 20
104.8306314601
 10
63.8712559488
 20
105.4782359255
 10
63.7170913291
 20
106.0079079447
 10
63.5807056573
 20
106.4084390504
 10
63.4649832394
 20
106.6713560699
 10
63.3723743853
 20
106.791095282
  0
LINE
  5
2D4
330
1F
100
AcDbEntity
  8
0
  6
SLD-Durchgehend
 62
     7
370
    15
100
AcDbLine
 10
58.8617314246
 20
105.9957476659
 30
0.0
 11
63.3723743853
 21
106.791095282
 31
0.0
  0
LINE
  5
2D5
330
1F
100
AcDbEntity
  8
0
  6
SLD-Durchgehend
 62
     7
370
    15
100
AcDbLine
 10
63.3723743853
 20
106.791095282
 30
0.0
 11
63.665673941
 21
106.6830395116
 31
0.0
  0
ARC
  5
2D6
330
1F
100
AcDbEntity
  8
0
  6
SLD-Durchgehend
 62
     7
370
    15
100
AcDbCircle
 10
90.4899725777
 20
100.0406821811
 30
0.0
 40
2.639944053054965
100
AcDbArc
 50
246.4694935454
 51
5.967493944
  0
ARC
  5
2D7
330
1F
100
AcDbEntity
  8
0
  6
SLD-Durchgehend
 62
     7
370
    15
100
AcDbCircle
 10
90.5583484238
 20
99.9410376421
 30
0.0
 40
2.470232645288003
100
AcDbArc
 50
242.2341557051
 51
10.731806046
  0
ARC
  5
2D8
330
1F
100
AcDbEntity
  8
0
  6
SLD-Durchgehend
 62
     7
370
    15
100
AcDbCircle
 10
90.6291253441
 20
99.8342334539
 30
0.0
 40
2.042571244331488
100
AcDbArc
 50
231.3529722015
 51
23.2756659602
  0
LWPOLYLINE
  5
2D9
330
1F
100
AcDbEntity
  8
0
  6
SLD-Durchgehend
 62
     7
370
    15
100
AcDbPolyline
 90
       12
 70
   128
 43
0.0
 10
57.6062583026
 20
98.009937848
 10
57.4478421953
 20
98.9210954262
 10
57.2804034349
 20
99.823662485
 10
57.1082782593
 20
100.6942646904
 10
56.935925841
 20
101.5103547229
 10
56.7678072151
 20
102.2507952852
 10
56.6082791087
 20
102.8964095144
 10
56.4614728686
 20
103.4304764448
 10
56.3311901536
 20
103.8391640736
 10
56.2208042142
 20
104.1118869884
 10
56.1331760731
 20
104.2415829701
 10
56.0912646946
 20
104.2485157354
  0
ARC
  5
2DA
330
1F
100
AcDbEntity
  8
0
  6
SLD-Durchgehend
 62
     7
370
    15
100
AcDbCircle
 10
42.8629908165
 20
94.0488314191
 30
0.0
 40
15.26611608455099
100
AcDbArc
 50
355.7852462786
 51
15.038644477
  0
LWPOLYLINE
  5
2DB
330
1F
100
AcDbEntity
  8
0
  6
SLD-Durchgehend
 62
     7
370
    15
100
AcDbPolyline
 90
       12
 70
   128
 43
0.0
 10
59.5710769888
 20
98.3563879831
 10
59.4126608816
 20
99.2675455613
 10
59.2452221212
 20
100.1701126201
 10
59.0730969456
 20
101.0407157568
 10
58.9007426646
 20
101.856804858
 10
58.7326240387
 20
102.5972454203
 10
58.5730959323
 20
103.2428596495
 10
58.4262896922
 20
103.7769265799
 10
58.2960069772
 20
104.1856142087
 10
58.1856229004
 20
104.4583371235
 10
58.0979947594
 20
104.5880331052
 10
58.0658063885
 20
104.5985700889
  0
ARC
  5
2DC
330
1F
100
AcDbEntity
  8
0
  6
SLD-Durchgehend
 62
     7
370
    15
100
AcDbCircle
 10
44.0895067651
 20
94.2935418206
 30
0.0
 40
16.00580318299241
100
AcDbArc
 50
356.345302108
 51
14.7046129238
  0
LWPOLYLINE
  5
2DD
330
1F
100
AcDbEntity
  8
0
  6
SLD-Durchgehend
 62
     7
370
    15
100
AcDbPolyline
 90
       26
 70
   128
 43
0.0
 10
55.3549927321
 20
97.9910524888
 10
55.2457132038
 20
98.6080797715
 10
55.1294543442
 20
99.2021685792
 10
55.0135214475
 20
99.7359915031
 10
54.9051993188
 20
100.1760060294
 10
54.8112959262
 20
100.4945630534
 10
54.7377084043
 20
100.671648453
 10
54.689061701
 20
100.6961347861
 10
54.6684142795
 20
100.5664835079
 10
54.6770606783
 20
100.2908399655
 10
54.7144607302
 20
99.8865248961
 10
54.7782600519
 20
99.3789410545
 10
54.8644539562
 20
98.7999862386
 10
54.967625871
 20
98.186034183
 10
55.0812919286
 20
97.5756621314
 10
55.1983088848
 20
97.0072238101
 10
55.3113267418
 20
96.5164354397
 10
55.4132450965
 20
96.1341349734
 10
55.4976564493
 20
95.884343083
 10
55.5592578497
 20
95.7827562792
 10
55.5941805836
 20
95.8357578469
 10
55.6002285924
 20
96.040015514
 10
55.5770237592
 20
96.382697518
 10
55.5260208097
 20
96.8422698183
 10
55.4504272189
 20
97.3898576899
 10
55.3549927321
 20
97.9910524888
  0
LWPOLYLINE
  5
2DE
330
1F
100
AcDbEntity
  8
0
  6
SLD-Durchgehend
 62
     7
370
    15
100
AcDbPolyline
 90
        3
 70
   128
 43
0.0
 10
55.3357218054
 20
97.3463444365
 10
55.4102946666
 20
97.6263093157
 10
55.4108963009
 20
97.6370344264
  0
LINE
  5
2DF
330
1F
100
AcDbEntity
  8
0
  6
SLD-Durchgehend
 62
     7
370
    15
100
AcDbLine
 10
55.0807610747
 20
99.4148286385
 30
0.0
 11
54.9555130896
 21
99.6088920487
 31
0.0
  0
LINE
  5
2E0
330
1F
100
AcDbEntity
  8
0
  6
SLD-Durchgehend
 62
     7
370
    15
100
AcDbLine
 10
55.4733377543
 20
97.2193939937
 30
0.0
 11
55.3357218054
 21
97.3463444365
 31
0.0
  0
LINE
  5
2E1
330
1F
100
AcDbEntity
  8
0
  6
SLD-Durchgehend
 62
     7
370
    15
100
AcDbLine
 10
55.0390452739
 20
99.6236218466
 30
0.0
 11
54.9555130896
 21
99.6088920487
 31
0.0
  0
LINE
  5
2E2
330
1F
100
AcDbEntity
  8
0
  6
SLD-Durchgehend
 62
     7
370
    15
100
AcDbLine
 10
55.453796744
 20
97.367165084
 30
0.0
 11
55.3357218054
 21
97.3463444365
 31
0.0
  0
ARC
  5
2E3
330
1F
100
AcDbEntity
  8
0
  6
SLD-Durchgehend
 62
     7
370
    15
100
AcDbCircle
 10
-374.7296873505
 20
5.7919414825
 30
0.0
 40
456.957089316021
100
AcDbArc
 50
10.9248823607
 51
12.2628607458
  0
ARC
  5
2E4
330
1F
100
AcDbEntity
  8
0
  6
SLD-Durchgehend
 62
     7
370
    15
100
AcDbCircle
 10
77.1169066536
 20
93.0189482764
 30
0.0
 40
3.231908161942168
100
AcDbArc
 50
191.1258667231
 51
237.0976760371
  0
LWPOLYLINE
  5
2E5
330
1F
100
AcDbEntity
  8
0
  6
SLD-Durchgehend
 62
     7
370
    15
100
AcDbPolyline
 90
        9
 70
   128
 43
0.0
 10
76.4976058748
 20
84.1085756524
 10
76.3585871213
 20
84.888036768
 10
76.2185953685
 20
85.6667230232
 10
76.0776853316
 20
86.4443252189
 10
75.9359121915
 20
87.220539744
 10
75.7933318276
 20
87.9950611247
 10
75.6499998864
 20
88.767589475
 10
75.5059727129
 20
89.5378174586
 10
75.3613066521
 20
90.3054451896
  0
ARC
  5
2E6
330
1F
100
AcDbEntity
  8
0
  6
SLD-Durchgehend
 62
     7
370
    15
100
AcDbCircle
 10
75.7892734964
 20
89.1281132301
 30
0.0
 40
5.069269400298615
100
AcDbArc
 50
207.4863269557
 51
278.0322612287
  0
ARC
  5
2E7
330
1F
100
AcDbEntity
  8
0
  6
SLD-Durchgehend
 62
     7
370
    15
100
AcDbCircle
 10
124.5385057609
 20
118.6136449356
 30
0.0
 40
62.0323274799651
100
AcDbArc
 50
195.8922698727
 51
210.8666662757
  0
LWPOLYLINE
  5
2E8
330
1F
100
AcDbEntity
  8
0
  6
SLD-Durchgehend
 62
     7
370
    15
100
AcDbPolyline
 90
        3
 70
   128
 43
0.0
 10
63.6032464575
 20
111.1947683943
 10
63.6136474681
 20
112.0700709848
 10
63.6502959427
 20
112.8720335523
  0
ARC
  5
2E9
330
1F
100
AcDbEntity
  8
0
  6
SLD-Durchgehend
 62
     7
370
    15
100
AcDbCircle
 10
101.0527896941
 20
111.3127228731
 30
0.0
 40
37.44972899615266
100
AcDbArc
 50
180.1804633881
 51
194.9883644215
  0
ARC
  5
2EA
330
1F
100
AcDbEntity
  8
0
  6
SLD-Durchgehend
 62
     7
370
    15
100
AcDbCircle
 10
88.6296738163
 20
99.308211885
 30
0.0
 40
23.85817275237476
100
AcDbArc
 50
195.3696130203
 51
224.1644879489
  0
LWPOLYLINE
  5
2EB
330
1F
100
AcDbEntity
  8
0
  6
SLD-Durchgehend
 62
     7
370
    15
100
AcDbPolyline
 90
       20
 70
   128
 43
0.0
 10
63.8109909963
 20
106.6069169296
 10
63.8148205948
 20
106.6117178975
 10
63.8470285234
 20
106.4226948051
 10
63.9110075903
 20
106.0262251971
 10
64.0051670965
 20
105.4735439224
 10
64.1402302903
 20
104.7363732336
 10
64.3009737727
 20
103.9176568715
 10
64.4995019433
 20
102.9641948966
 10
64.7120381367
 20
101.9888999267
 10
64.9481787008
 20
100.9376891283
 10
65.1866363954
 20
99.8908648593
 10
65.428246617
 20
98.8244632585
 10
65.6565547582
 20
97.7867855085
 10
65.8638038334
 20
96.7847196711
 10
66.0348011774
 20
95.8606129838
 10
66.1607951519
 20
95.0284967525
 10
66.2298434075
 20
94.3380216463
 10
66.2386248481
 20
93.7923672004
 10
66.1865620535
 20
93.4349721624
 10
66.0958158445
 20
93.2953408314
  0
ARC
  5
2EC
330
1F
100
AcDbEntity
  8
0
  6
SLD-Durchgehend
 62
     7
370
    15
100
AcDbCircle
 10
75.2439078668
 20
87.6226816989
 30
0.0
 40
6.186825942154223
100
AcDbArc
 50
232.9374452663
 51
282.9868845289
  0
LINE
  5
2ED
330
1F
100
AcDbEntity
  8
0
  6
SLD-Durchgehend
 62
     7
370
    15
100
AcDbLine
 10
76.4976058748
 20
84.1085756524
 30
0.0
 11
76.6342609317
 21
81.5941052837
 31
0.0
  0
ARC
  5
2EE
330
1F
100
AcDbEntity
  8
0
  6
SLD-Durchgehend
 62
     7
370
    15
100
AcDbCircle
 10
72.2407000951
 20
111.4874069658
 30
0.0
 40
2.270709583885274
100
AcDbArc
 50
157.7499521432
 51
192.2046759629
  0
LINE
  5
2EF
330
1F
100
AcDbEntity
  8
0
  6
SLD-Durchgehend
 62
     7
370
    15
100
AcDbLine
 10
71.8012204055
 20
102.8482647939
 30
0.0
 11
70.0213116255
 21
111.0073685972
 31
0.0
  0
ARC
  5
2F0
330
1F
100
AcDbEntity
  8
0
  6
SLD-Durchgehend
 62
     7
370
    15
100
AcDbCircle
 10
72.3559807363
 20
111.4330570962
 30
0.0
 40
2.397995221591689
100
AcDbArc
 50
129.1024743413
 51
157.5910133221
  0
LINE
  5
2F1
330
1F
100
AcDbEntity
  8
0
  6
SLD-Durchgehend
 62
     7
370
    15
100
AcDbLine
 10
71.0068474185
 20
110.2891214518
 30
0.0
 11
70.843542799
 21
113.2939473586
 31
0.0
  0
LWPOLYLINE
  5
2F2
330
1F
100
AcDbEntity
  8
0
  6
SLD-Durchgehend
 62
     7
370
    15
100
AcDbPolyline
 90
        4
 70
   128
 43
0.0
 10
71.1092603054
 20
110.1294927625
 10
71.0580925119
 20
110.1500070049
 10
71.0100139153
 20
110.2565917512
 10
71.0068474185
 20
110.2891214518
  0
ARC
  5
2F3
330
1F
100
AcDbEntity
  8
0
  6
SLD-Durchgehend
 62
     7
370
    15
100
AcDbCircle
 10
71.6960356833
 20
108.8375790149
 30
0.0
 40
0.6095736217582067
100
AcDbArc
 50
145.1317768619
 51
181.7504348468
  0
LINE
  5
2F4
330
1F
100
AcDbEntity
  8
0
  6
SLD-Durchgehend
 62
     7
370
    15
100
AcDbLine
 10
71.250051133
 20
105.8141332446
 30
0.0
 11
71.0867465135
 21
108.8189589186
 31
0.0
  0
LINE
  5
2F5
330
1F
100
AcDbEntity
  8
0
  6
SLD-Durchgehend
 62
     7
370
    15
100
AcDbLine
 10
71.250051133
 20
105.8141332446
 30
0.0
 11
71.17136462
 21
105.7355240313
 31
0.0
  0
LWPOLYLINE
  5
2F6
330
1F
100
AcDbEntity
  8
0
  6
SLD-Durchgehend
 62
     7
370
    15
100
AcDbPolyline
 90
        9
 70
   128
 43
0.0
 10
70.3732258302
 20
109.3941949634
 10
70.3883784485
 20
109.4248112617
 10
70.6404548731
 20
109.6678496664
 10
70.9526975301
 20
109.7455522371
 10
71.0540244949
 20
109.6804909734
 10
71.0808940825
 20
109.5304120658
 10
71.0326552984
 20
109.3427226273
 10
70.874654561
 20
108.9885513624
 10
70.5911599692
 20
108.3951810701
  0
ARC
  5
2F7
330
1F
100
AcDbEntity
  8
0
  6
SLD-Durchgehend
 62
     7
370
    15
100
AcDbCircle
 10
66.3165183167
 20
112.754878229
 30
0.0
 40
2.668795068427124
100
AcDbArc
 50
94.6757605236
 51
177.4840093881
  0
ARC
  5
2F8
330
1F
100
AcDbEntity
  8
0
  6
SLD-Durchgehend
 62
     7
370
    15
100
AcDbCircle
 10
65.208452684
 20
113.0198231603
 30
0.0
 40
5.641753688388066
100
AcDbArc
 50
2.7850110131
 51
33.2982590115
  0
LINE
  5
2F9
330
1F
100
AcDbEntity
  8
0
  6
SLD-Durchgehend
 62
     7
370
    15
100
AcDbLine
 10
73.371602561
 20
98.2637325628
 30
0.0
 11
74.6950105425
 21
90.9155024542
 31
0.0
  0
LWPOLYLINE
  5
2FA
330
1F
100
AcDbEntity
  8
0
  6
SLD-Durchgehend
 62
     7
370
    15
100
AcDbPolyline
 90
        9
 70
   128
 43
0.0
 10
73.3742982742
 20
98.5355297429
 10
73.3530552719
 20
98.6189464433
 10
73.3360157941
 20
98.6696364684
 10
73.3248697255
 20
98.682572539
 10
73.3207244087
 20
98.6564675672
 10
73.323990557
 20
98.5939143552
 10
73.3343440701
 20
98.5011210991
 10
73.3507576991
 20
98.387294854
 10
73.371602561
 20
98.2637325628
  0
LINE
  5
2FB
330
1F
100
AcDbEntity
  8
0
  6
SLD-Durchgehend
 62
     7
370
    15
100
AcDbLine
 10
76.0991558094
 20
86.8441941543
 30
0.0
 11
75.6465060298
 21
88.786344449
 31
0.0
  0
LINE
  5
2FC
330
1F
100
AcDbEntity
  8
0
  6
SLD-Durchgehend
 62
     7
370
    15
100
AcDbLine
 10
75.2737760671
 20
90.3855873598
 30
0.0
 11
73.3742982742
 21
98.5355297429
 31
0.0
  0
ARC
  5
2FD
330
1F
100
AcDbEntity
  8
0
  6
SLD-Durchgehend
 62
     7
370
    15
100
AcDbCircle
 10
71.6371310655
 20
85.8218570584
 30
0.0
 40
4.577645459462047
100
AcDbArc
 50
10.083280955
 51
12.9048436925
  0
LINE
  5
2FE
330
1F
100
AcDbEntity
  8
0
  6
SLD-Durchgehend
 62
     7
370
    15
100
AcDbLine
 10
78.8366038654
 20
71.6730052931
 30
0.0
 11
76.1440716345
 21
86.6233086539
 31
0.0
  0
LWPOLYLINE
  5
2FF
330
1F
100
AcDbEntity
  8
0
  6
SLD-Durchgehend
 62
     7
370
    15
100
AcDbPolyline
 90
        9
 70
   128
 43
0.0
 10
78.8339079485
 20
71.4012118382
 10
78.8551508489
 20
71.3177951379
 10
78.872190665
 20
71.2671051128
 10
78.883336368
 20
71.2541671796
 10
78.8874818594
 20
71.2802702887
 10
78.8842157439
 20
71.3428253634
 10
78.8738621453
 20
71.4356186194
 10
78.8574485599
 20
71.5494448645
 10
78.8366038654
 20
71.6730052931
  0
LINE
  5
300
330
1F
100
AcDbEntity
  8
0
  6
SLD-Durchgehend
 62
     7
370
    15
100
AcDbLine
 10
76.4637578872
 20
81.5706285043
 30
0.0
 11
78.8339079485
 21
71.4012118382
 31
0.0
  0
LWPOLYLINE
  5
301
330
1F
100
AcDbEntity
  8
0
  6
SLD-Durchgehend
 62
     7
370
    15
100
AcDbPolyline
 90
        9
 70
   128
 43
0.0
 10
78.8328524544
 20
71.413527648
 10
78.8530332105
 20
71.3342832727
 10
78.8692210339
 20
71.286126445
 10
78.8798094512
 20
71.2738367124
 10
78.8837476688
 20
71.2986359699
 10
78.8806448585
 20
71.3580618007
 10
78.8708089425
 20
71.446213345
 10
78.8552160342
 20
71.5543510718
 10
78.8354135697
 20
71.6717349691
  0
LINE
  5
302
330
1F
100
AcDbEntity
  8
0
  6
SLD-Durchgehend
 62
     7
370
    15
100
AcDbLine
 10
78.8354135697
 20
71.6717349691
 30
0.0
 11
76.1428814043
 21
86.6220364673
 31
0.0
  0
ARC
  5
303
330
1F
100
AcDbEntity
  8
0
  6
SLD-Durchgehend
 62
     7
370
    15
100
AcDbCircle
 10
71.860229923
 20
85.860447225
 30
0.0
 40
4.349841593014316
100
AcDbArc
 50
10.0835675199
 51
12.9044387712
  0
LINE
  5
304
330
1F
100
AcDbEntity
  8
0
  6
SLD-Durchgehend
 62
     7
370
    15
100
AcDbLine
 10
76.1002114635
 20
86.8318783445
 30
0.0
 11
75.6537298333
 21
88.7475623144
 31
0.0
  0
LINE
  5
305
330
1F
100
AcDbEntity
  8
0
  6
SLD-Durchgehend
 62
     7
370
    15
100
AcDbLine
 10
75.2714684826
 20
90.387701462
 30
0.0
 11
73.3753539283
 21
98.5232120706
 31
0.0
  0
LWPOLYLINE
  5
306
330
1F
100
AcDbEntity
  8
0
  6
SLD-Durchgehend
 62
     7
370
    15
100
AcDbPolyline
 90
        9
 70
   128
 43
0.0
 10
73.3753539283
 20
98.5232120706
 10
73.3551730995
 20
98.6024583085
 10
73.3389853161
 20
98.6506132735
 10
73.3283966441
 20
98.6629030062
 10
73.3244585466
 20
98.6381037487
 10
73.3275612478
 20
98.5786797805
 10
73.3373974111
 20
98.4905245109
 10
73.3529900793
 20
98.3823905094
 10
73.3727927912
 20
98.2650066121
  0
LINE
  5
307
330
1F
100
AcDbEntity
  8
0
  6
SLD-Durchgehend
 62
     7
370
    15
100
AcDbLine
 10
73.3727927912
 20
98.2650066121
 30
0.0
 11
74.6967102062
 21
90.9139471455
 31
0.0
  0
LINE
  5
308
330
1F
100
AcDbEntity
  8
0
  6
SLD-Durchgehend
 62
     7
370
    15
100
AcDbLine
 10
76.4655166898
 20
81.5708706481
 30
0.0
 11
78.8328524544
 21
71.413527648
 31
0.0
  0
LINE
  5
309
330
1F
100
AcDbEntity
  8
0
  6
SLD-Durchgehend
 62
     7
370
    15
100
AcDbLine
 10
83.5128700022
 20
72.4975573225
 30
0.0
 11
80.8203375094
 21
87.4478606833
 31
0.0
  0
LINE
  5
30A
330
1F
100
AcDbEntity
  8
0
  6
SLD-Durchgehend
 62
     7
370
    15
100
AcDbLine
 10
77.2455433511
 20
79.7113137646
 30
0.0
 11
76.5166237146
 21
83.7586442335
 31
0.0
  0
LWPOLYLINE
  5
30B
330
1F
100
AcDbEntity
  8
0
  6
SLD-Durchgehend
 62
     7
370
    15
100
AcDbPolyline
 90
        8
 70
   128
 43
0.0
 10
74.9694028531
 20
90.9049170418
 10
74.9162955802
 20
91.11345693
 10
74.8736959544
 20
91.2401857181
 10
74.8458317142
 20
91.2725231005
 10
74.8354679566
 20
91.207263465
 10
74.8436333273
 20
91.0508813662
 10
74.86951711
 20
90.8188963635
 10
74.8788578097
 20
90.7489838405
  0
LINE
  5
30C
330
1F
100
AcDbEntity
  8
0
  6
SLD-Durchgehend
 62
     7
370
    15
100
AcDbLine
 10
75.0407046766
 20
90.5989868892
 30
0.0
 11
74.9694028531
 21
90.9049170418
 31
0.0
  0
LWPOLYLINE
  5
30D
330
1F
100
AcDbEntity
  8
0
  6
SLD-Durchgehend
 62
     7
370
    15
100
AcDbPolyline
 90
        9
 70
   128
 43
0.0
 10
77.2388036024
 20
79.0318245394
 10
77.2919108753
 20
78.8232827885
 10
77.3345103847
 20
78.6965558631
 10
77.3623746248
 20
78.6642166181
 10
77.3727383825
 20
78.7294762535
 10
77.3645731282
 20
78.8858602149
 10
77.3386891127
 20
79.1178414924
 10
77.2976551565
 20
79.4024089677
 10
77.2455433511
 20
79.7113137646
  0
LINE
  5
30E
330
1F
100
AcDbEntity
  8
0
  6
SLD-Durchgehend
 62
     7
370
    15
100
AcDbLine
 10
76.6320224978
 20
81.6352920933
 30
0.0
 11
77.2388036024
 21
79.0318245394
 31
0.0
  0
ARC
  5
30F
330
1F
100
AcDbEntity
  8
0
  6
SLD-Durchgehend
 62
     7
370
    15
100
AcDbCircle
 10
82.2549974186
 20
72.1484515221
 30
0.0
 40
1.305418820335728
100
AcDbArc
 50
356.9141982628
 51
15.5112866783
  0
ARC
  5
310
330
1F
100
AcDbEntity
  8
0
  6
SLD-Durchgehend
 62
     7
370
    15
100
AcDbCircle
 10
76.3134641156
 20
86.6464250991
 30
0.0
 40
4.577576518576046
100
AcDbArc
 50
10.0832308507
 51
12.9048358007
  0
LINE
  5
311
330
1F
100
AcDbEntity
  8
0
  6
SLD-Durchgehend
 62
     7
370
    15
100
AcDbLine
 10
80.7754218007
 20
87.6687461836
 30
0.0
 11
80.6418614123
 21
88.2418038649
 31
0.0
  0
LINE
  5
312
330
1F
100
AcDbEntity
  8
0
  6
SLD-Durchgehend
 62
     7
370
    15
100
AcDbLine
 10
80.7980137073
 20
87.5718141301
 30
0.0
 11
80.6418614123
 21
88.2418038649
 31
0.0
  0
LINE
  5
313
330
1F
100
AcDbEntity
  8
0
  6
SLD-Durchgehend
 62
     7
370
    15
100
AcDbLine
 10
83.4567308087
 20
72.8092709882
 30
0.0
 11
80.7980137073
 21
87.5718141301
 31
0.0
  0
ARC
  5
314
330
1F
100
AcDbEntity
  8
0
  6
SLD-Durchgehend
 62
     7
370
    15
100
AcDbCircle
 10
84.7138048466
 20
72.8717843014
 30
0.0
 40
1.6316968155404
100
AcDbArc
 50
356.9137572375
 51
15.5117277036
  0
LINE
  5
315
330
1F
100
AcDbEntity
  8
0
  6
SLD-Durchgehend
 62
     7
370
    15
100
AcDbLine
 10
83.6273509671
 20
88.0707031442
 30
0.0
 11
80.7980137073
 21
87.5718141301
 31
0.0
  0
LINE
  5
316
330
1F
100
AcDbEntity
  8
0
  6
SLD-Durchgehend
 62
     7
370
    15
100
AcDbLine
 10
86.2860683013
 20
73.3081581397
 30
0.0
 11
83.6273509671
 21
88.0707031442
 31
0.0
  0
ARC
  5
317
330
1F
100
AcDbEntity
  8
0
  6
SLD-Durchgehend
 62
     7
370
    15
100
AcDbCircle
 10
85.7583172647
 20
73.1439360286
 30
0.0
 40
0.8284079361524298
100
AcDbArc
 50
359.174196875
 51
13.7640218602
  0
LINE
  5
318
330
1F
100
AcDbEntity
  8
0
  6
SLD-Durchgehend
 62
     7
370
    15
100
AcDbLine
 10
83.6273509671
 20
88.0707031442
 30
0.0
 11
83.9209620502
 21
88.0106142117
 31
0.0
  0
LINE
  5
319
330
1F
100
AcDbEntity
  8
0
  6
SLD-Durchgehend
 62
     7
370
    15
100
AcDbLine
 10
83.9209620502
 20
88.0106142117
 30
0.0
 11
86.5629365329
 21
73.3410338266
 31
0.0
  0
LINE
  5
31A
330
1F
100
AcDbEntity
  8
0
  6
SLD-Durchgehend
 62
     7
370
    15
100
AcDbLine
 10
83.6273509671
 20
88.0707031442
 30
0.0
 11
83.4711989049
 21
88.7406928791
 31
0.0
  0
LINE
  5
31B
330
1F
100
AcDbEntity
  8
0
  6
SLD-Durchgehend
 62
     7
370
    15
100
AcDbLine
 10
83.7397681211
 20
88.7880487693
 30
0.0
 11
83.9209620502
 21
88.0106142117
 31
0.0
  0
LWPOLYLINE
  5
31C
330
1F
100
AcDbEntity
  8
0
  6
SLD-Durchgehend
 62
     7
370
    15
100
AcDbPolyline
 90
        9
 70
   128
 43
0.0
 10
86.4054834132
 20
74.1364764376
 10
89.2853148874
 20
74.6178584499
 10
92.0936100778
 20
75.5497956974
 10
94.7780021128
 20
76.9058572454
 10
97.3402213898
 20
78.6821836932
 10
99.7789249417
 20
80.8777952893
 10
102.0202216354
 20
83.4341043932
 10
104.0641114708
 20
86.3511110051
 10
105.9105963108
 20
89.6288169874
  0
LINE
  5
31D
330
1F
100
AcDbEntity
  8
0
  6
SLD-Durchgehend
 62
     7
370
    15
100
AcDbLine
 10
105.9105963108
 20
89.6324975742
 30
0.0
 11
105.9105963108
 21
89.1956998361
 31
0.0
  0
LWPOLYLINE
  5
31E
330
1F
100
AcDbEntity
  8
0
  6
SLD-Durchgehend
 62
     7
370
    15
100
AcDbPolyline
 90
        9
 70
   128
 43
0.0
 10
105.9127402153
 20
89.2021557642
 10
103.9797317829
 20
85.8772708429
 10
101.8569552001
 20
82.9465272231
 10
99.5673657056
 20
80.4172264738
 10
97.1338291314
 20
78.2952191634
 10
94.5789170113
 20
76.584945838
 10
91.9247044843
 20
75.2894686861
 10
89.1926166263
 20
74.4105199678
 10
86.4032617432
 20
73.9485653443
  0
LINE
  5
31F
330
1F
100
AcDbEntity
  8
0
  6
SLD-Durchgehend
 62
     7
370
    15
100
AcDbLine
 10
83.7659215216
 20
88.7926606787
 30
0.0
 11
76.2603181541
 21
87.4692196352
 31
0.0
  0
LINE
  5
320
330
1F
100
AcDbEntity
  8
0
  6
SLD-Durchgehend
 62
     7
370
    15
100
AcDbLine
 10
76.2603181541
 20
87.4692196352
 30
0.0
 11
72.335798632
 21
109.2601385294
 31
0.0
  0
LINE
  5
321
330
1F
100
AcDbEntity
  8
0
  6
SLD-Durchgehend
 62
     7
370
    15
100
AcDbLine
 10
105.9105963108
 20
115.1802811632
 30
0.0
 11
72.335798632
 21
109.2601385294
 31
0.0
  0
LINE
  5
322
330
1F
100
AcDbEntity
  8
0
  6
SLD-Durchgehend
 62
     7
370
    15
100
AcDbLine
 10
105.9105963108
 20
89.6288169874
 30
0.0
 11
105.9105963108
 21
115.1802811632
 31
0.0
  0
LINE
  5
323
330
1F
100
AcDbEntity
  8
0
  6
SLD-Durchgehend
 62
     7
370
    15
100
AcDbLine
 10
83.8585015048
 20
88.2786097331
 30
0.0
 11
83.7659215216
 21
88.7926606787
 31
0.0
  0
ELLIPSE
  5
324
330
1F
100
AcDbEntity
  8
0
  6
SLD-Durchgehend
 62
     7
370
    15
100
AcDbEllipse
 10
91.9411316112
 20
97.9736816682
 30
0.0
 11
-1.343890008733027
 21
2.600277631452755
 31
0.0
210
0.0
220
0.0
230
0.9999999999999998
 40
0.8512331428
 41
0.0
 42
6.283185307179586
  0
ARC
  5
325
330
1F
100
AcDbEntity
  8
0
  6
SLD-Durchgehend
 62
     7
370
    15
100
AcDbCircle
 10
62.0214701684
 20
138.5226564588
 30
0.0
 40
3.311434349607978
100
AcDbArc
 50
358.3383307039
 51
12.5861955183
  0
LINE
  5
326
330
1F
100
AcDbEntity
  8
0
  6
SLD-Durchgehend
 62
     7
370
    15
100
AcDbLine
 10
65.2097732421
 20
139.5191843016
 30
0.0
 11
65.253328405
 21
139.2442448391
 31
0.0
  0
ARC
  5
327
330
1F
100
AcDbEntity
  8
0
  6
SLD-Durchgehend
 62
     7
370
    15
100
AcDbCircle
 10
78.9105956104
 20
116.2535989983
 30
0.0
 40
26.99999999999972
100
AcDbArc
 50
119.9437801403
 51
120.4933168855
  0
LINE
  5
328
330
1F
100
AcDbEntity
  8
0
  6
SLD-Durchgehend
 62
     7
370
    15
100
AcDbLine
 10
72.335798632
 20
109.2601385294
 30
0.0
 11
65.4335458424
 21
139.6495210333
 31
0.0
  0
LINE
  5
329
330
1F
100
AcDbEntity
  8
0
  6
SLD-Durchgehend
 62
     7
370
    15
100
AcDbLine
 10
73.6748654057
 20
99.9234686
 30
0.0
 11
74.7534487058
 21
93.9346285863
 31
0.0
  0
LWPOLYLINE
  5
32A
330
1F
100
AcDbEntity
  8
0
  6
SLD-Durchgehend
 62
     7
370
    15
100
AcDbPolyline
 90
       12
 70
   128
 43
0.0
 10
73.4249040146
 20
99.6561920596
 10
73.3252436515
 20
100.2430817438
 10
73.2437817973
 20
100.7932521729
 10
73.1871192005
 20
101.2621302484
 10
73.1598449532
 20
101.6117319791
 10
73.1641700153
 20
101.8137349142
 10
73.199743278
 20
101.8517719908
 10
73.2636827637
 20
101.7227633251
 10
73.3508084562
 20
101.4371592877
 10
73.4540623274
 20
101.0180995194
 10
73.5650792379
 20
100.4995325906
 10
73.6748654057
 20
99.9234686
  0
LINE
  5
32B
330
1F
100
AcDbEntity
  8
0
  6
SLD-Durchgehend
 62
     7
370
    15
100
AcDbLine
 10
73.5917150636
 20
98.7299731327
 30
0.0
 11
73.4249040146
 21
99.6561920596
 31
0.0
  0
LWPOLYLINE
  5
32C
330
1F
100
AcDbEntity
  8
0
  6
SLD-Durchgehend
 62
     7
370
    15
100
AcDbPolyline
 90
       13
 70
   128
 43
0.0
 10
70.9790604782
 20
110.8003970562
 10
71.0397063416
 20
110.4983970849
 10
71.1579172533
 20
109.8622115655
 10
71.2644242343
 20
109.2239622353
 10
71.3519685563
 20
108.6271446524
 10
71.4145846326
 20
108.1124315364
 10
71.4480056089
 20
107.7148992894
 10
71.4499539357
 20
107.4616382224
 10
71.4202959683
 20
107.3699094681
 10
71.361053608
 20
107.4459631322
 10
71.2762641382
 20
107.6846164046
 10
71.1717054841
 20
108.0696046678
 10
71.1145329882
 20
108.3076833142
  0
LINE
  5
32D
330
1F
100
AcDbEntity
  8
0
  6
SLD-Durchgehend
 62
     7
370
    15
100
AcDbLine
 10
74.7534487058
 20
93.9346285863
 30
0.0
 11
76.2603181541
 21
87.4692196352
 31
0.0
  0
LINE
  5
32E
330
1F
100
AcDbEntity
  8
0
  6
SLD-Durchgehend
 62
     7
370
    15
100
AcDbLine
 10
105.9105963108
 20
115.1802811632
 30
0.0
 11
105.9105963108
 21
116.2535989983
 31
0.0
  0
ARC
  5
32F
330
1F
100
AcDbEntity
  8
0
  6
SLD-Durchgehend
 62
     7
370
    15
100
AcDbCircle
 10
78.9105956104
 20
116.2535989983
 30
0.0
 40
27.00000000000009
100
AcDbArc
 50
0.0
 51
119.9437801403
  0
LINE
  5
330
330
1F
100
AcDbEntity
  8
0
  6
SLD-Durchgehend
 62
     7
370
    15
100
AcDbLine
 10
65.32918556
 20
138.4244202031
 30
0.0
 11
65.3315120038
 21
138.4266330255
 31
0.0
  0
ARC
  5
331
330
1F
100
AcDbEntity
  8
0
  6
SLD-Durchgehend
 62
     7
370
    15
100
AcDbCircle
 10
78.9105419084
 20
116.2536782002
 30
0.0
 40
25.99990463870103
100
AcDbArc
 50
121.4908084756
 51
132.4612617267
  0
ARC
  5
332
330
1F
100
AcDbEntity
  8
0
  6
SLD-Durchgehend
 62
     7
370
    15
100
AcDbCircle
 10
78.9105956104
 20
116.2535989983
 30
0.0
 40
26.00000000000007
100
AcDbArc
 50
132.4612320565
 51
207.7968012541
  0
ARC
  5
333
330
1F
100
AcDbEntity
  8
0
  6
SLD-Durchgehend
 62
     7
370
    15
100
AcDbCircle
 10
78.9105956104
 20
116.2535989983
 30
0.0
 40
31.49999999999995
100
AcDbArc
 50
227.6267501801
 51
250.5833152657
  0
ARC
  5
334
330
1F
100
AcDbEntity
  8
0
  6
SLD-Durchgehend
 62
     7
370
    15
100
AcDbCircle
 10
78.9105956104
 20
116.2535989983
 30
0.0
 40
31.49999999999998
100
AcDbArc
 50
140.9381656697
 51
222.4519067211
  0
LINE
  5
335
330
1F
100
AcDbEntity
  8
0
  6
SLD-Durchgehend
 62
     7
370
    15
100
AcDbLine
 10
54.4519059953
 20
136.1035997374
 30
0.0
 11
55.2296441641
 21
136.1035997374
 31
0.0
  0
LINE
  5
336
330
1F
100
AcDbEntity
  8
0
  6
SLD-Durchgehend
 62
     7
370
    15
100
AcDbLine
 10
70.9105952304
 20
146.100039999
 30
0.0
 11
70.9105952304
 21
146.7207944347
 31
0.0
  0
LINE
  5
337
330
1F
100
AcDbEntity
  8
0
  6
SLD-Durchgehend
 62
     7
370
    15
100
AcDbLine
 10
59.0605948713
 20
140.7122886134
 30
0.0
 11
59.0605948713
 21
139.9345504446
 31
0.0
  0
ARC
  5
338
330
1F
100
AcDbEntity
  8
0
  6
SLD-Durchgehend
 62
     7
370
    15
100
AcDbCircle
 10
78.9105956104
 20
116.2535989983
 30
0.0
 40
31.49999999999995
100
AcDbArc
 50
104.7124579609
 51
129.0618343303
  0
LINE
  5
339
330
1F
100
AcDbEntity
  8
0
  6
SLD-Durchgehend
 62
     7
370
    15
100
AcDbLine
 10
86.9105959904
 20
146.7207944347
 30
0.0
 11
86.9105959904
 21
146.100039999
 31
0.0
  0
ARC
  5
33A
330
1F
100
AcDbEntity
  8
0
  6
SLD-Durchgehend
 62
     7
370
    15
100
AcDbCircle
 10
78.9105956104
 20
116.2535989983
 30
0.0
 40
31.49999999999998
100
AcDbArc
 50
328.9972808661
 51
75.2875420391
  0
LINE
  5
33B
330
1F
100
AcDbEntity
  8
0
  6
SLD-Durchgehend
 62
     7
370
    15
100
AcDbLine
 10
86.9105959904
 20
146.100039999
 30
0.0
 11
86.9105959904
 21
142.6535988553
 31
0.0
  0
LINE
  5
33C
330
1F
100
AcDbEntity
  8
0
  6
SLD-Durchgehend
 62
     7
370
    15
100
AcDbLine
 10
86.9105959904
 20
142.6535988553
 30
0.0
 11
84.5709842291
 21
142.6535988553
 31
0.0
  0
LINE
  5
33D
330
1F
100
AcDbEntity
  8
0
  6
SLD-Durchgehend
 62
     7
370
    15
100
AcDbLine
 10
70.9105952304
 20
142.6535988553
 30
0.0
 11
70.9105952304
 21
146.100039999
 31
0.0
  0
LINE
  5
33E
330
1F
100
AcDbEntity
  8
0
  6
SLD-Durchgehend
 62
     7
370
    15
100
AcDbLine
 10
59.0605948713
 20
139.9345504446
 30
0.0
 11
59.0605948713
 21
136.1035997374
 31
0.0
  0
LINE
  5
33F
330
1F
100
AcDbEntity
  8
0
  6
SLD-Durchgehend
 62
     7
370
    15
100
AcDbLine
 10
55.2296441641
 20
136.1035997374
 30
0.0
 11
59.0605948713
 21
136.1035997374
 31
0.0
  0
LINE
  5
340
330
1F
100
AcDbEntity
  8
0
  6
SLD-Durchgehend
 62
     7
370
    15
100
AcDbLine
 10
73.2502069917
 20
142.6535988553
 30
0.0
 11
70.9105952304
 21
142.6535988553
 31
0.0
  0
ARC
  5
341
330
1F
100
AcDbEntity
  8
0
  6
SLD-Durchgehend
 62
     7
370
    15
100
AcDbCircle
 10
78.9105956104
 20
116.250172265
 30
0.0
 40
31.50331445242657
100
AcDbArc
 50
75.289124154
 51
104.710875846
  0
ARC
  5
342
330
1F
100
AcDbEntity
  8
0
  6
SLD-Durchgehend
 62
     7
370
    15
100
AcDbCircle
 10
78.9102447399
 20
116.2539498688
 30
0.0
 40
31.49950688589982
100
AcDbArc
 50
129.0617420529
 51
140.9382579471
  0
CIRCLE
  5
343
330
1F
100
AcDbEntity
  8
VERMASSUNG
  6
SLD-Punktstrich
100
AcDbCircle
 10
78.8814603108
 20
111.2766374075
 30
0.0
 40
40.00000000000001
  0
POINT
  5
344
330
1F
100
AcDbEntity
  8
VERMASSUNG
100
AcDbPoint
 10
78.8814603108
 20
71.2766374075
 30
0.0
  0
DIMENSION
  5
345
330
1F
100
AcDbEntity
  8
VERMASSUNG
100
AcDbDimension
  2
*D6
 10
34.3890301722
 20
151.2766374075
 30
0.0
 11
34.3890301722
 21
111.2766374075
 31
0.0
 70
   160
  1
%%c<>
 71
     2
 42
-1.0
  3
SLDDIMSTYLE2
100
AcDbAlignedDimension
 13
78.8814603108
 23
71.2766374075
 33
0.0
 14
78.8814603108
 24
151.2766374075
 34
0.0
 50
90.0
100
AcDbRotatedDimension
  0
INSERT
  5
35C
330
1F
100
AcDbEntity
  8
VERMASSUNG
100
AcDbBlockReference
  2
SW_CENTERMARKSYMBOL_0
 10
78.9105956104
 20
116.2535989983
 30
0.0
  0
OLE2FRAME
  5
35D
330
1F
100
AcDbEntity
  8
0
100
AcDbOle2Frame
 70
     2
  3
Bitmap
 10
13.8511154363
 20
38.264191557
 30
0.0
 11
51.6290888628
 21
31.9806341108
 31
0.0
 71
     2
 72
     0
 73
     1
 90
    12928
310
80552BED0767C5B32B40DDAF6807D121434000000000000000006FFBDDFB85D0
310
4940DDAF6807D121434000000000000000006FFBDDFB85D04940416F4BD60AFB
310
3F4000000000000000002BED0767C5B32B40416F4BD60AFB3F40000000000000
310
0000000000000100000000010000010000000100000000000100000000320000
310
D0CF11E0A1B11AE1000000000000000000000000000000003E000300FEFF0900
310
0600000000000000000000000100000001000000000000000010000002000000
310
01000000FEFFFFFF0000000000000000FFFFFFFFFFFFFFFFFFFFFFFFFFFFFFFF
310
FFFFFFFFFFFFFFFFFFFFFFFFFFFFFFFFFFFFFFFFFFFFFFFFFFFFFFFFFFFFFFFF
310
FFFFFFFFFFFFFFFFFFFFFFFFFFFFFFFFFFFFFFFFFFFFFFFFFFFFFFFFFFFFFFFF
310
FFFFFFFFFFFFFFFFFFFFFFFFFFFFFFFFFFFFFFFFFFFFFFFFFFFFFFFFFFFFFFFF
310
FFFFFFFFFFFFFFFFFFFFFFFFFFFFFFFFFFFFFFFFFFFFFFFFFFFFFFFFFFFFFFFF
310
FFFFFFFFFFFFFFFFFFFFFFFFFFFFFFFFFFFFFFFFFFFFFFFFFFFFFFFFFFFFFFFF
310
FFFFFFFFFFFFFFFFFFFFFFFFFFFFFFFFFFFFFFFFFFFFFFFFFFFFFFFFFFFFFFFF
310
FFFFFFFFFFFFFFFFFFFFFFFFFFFFFFFFFFFFFFFFFFFFFFFFFFFFFFFFFFFFFFFF
310
FFFFFFFFFFFFFFFFFFFFFFFFFFFFFFFFFFFFFFFFFFFFFFFFFFFFFFFFFFFFFFFF
310
FFFFFFFFFFFFFFFFFFFFFFFFFFFFFFFFFFFFFFFFFFFFFFFFFFFFFFFFFFFFFFFF
310
FFFFFFFFFFFFFFFFFFFFFFFFFFFFFFFFFFFFFFFFFFFFFFFFFFFFFFFFFFFFFFFF
310
FFFFFFFFFFFFFFFFFFFFFFFFFFFFFFFFFFFFFFFFFFFFFFFFFFFFFFFFFFFFFFFF
310
FFFFFFFFFFFFFFFFFFFFFFFFFFFFFFFFFFFFFFFFFFFFFFFFFFFFFFFFFFFFFFFF
310
FFFFFFFFFFFFFFFFFFFFFFFFFFFFFFFFFFFFFFFFFFFFFFFFFFFFFFFFFFFFFFFF
310
FDFFFFFFFEFFFFFFFEFFFFFFFEFFFFFF05000000060000000700000008000000
310
090000000A0000000B0000000C0000000D0000000E0000000F00000010000000
310
11000000120000001300000014000000150000001600000017000000FEFFFFFF
310
FFFFFFFFFFFFFFFFFFFFFFFFFFFFFFFFFFFFFFFFFFFFFFFFFFFFFFFFFFFFFFFF
310
FFFFFFFFFFFFFFFFFFFFFFFFFFFFFFFFFFFFFFFFFFFFFFFFFFFFFFFFFFFFFFFF
310
FFFFFFFFFFFFFFFFFFFFFFFFFFFFFFFFFFFFFFFFFFFFFFFFFFFFFFFFFFFFFFFF
310
FFFFFFFFFFFFFFFFFFFFFFFFFFFFFFFFFFFFFFFFFFFFFFFFFFFFFFFFFFFFFFFF
310
FFFFFFFFFFFFFFFFFFFFFFFFFFFFFFFFFFFFFFFFFFFFFFFFFFFFFFFFFFFFFFFF
310
FFFFFFFFFFFFFFFFFFFFFFFFFFFFFFFFFFFFFFFFFFFFFFFFFFFFFFFFFFFFFFFF
310
FFFFFFFFFFFFFFFFFFFFFFFFFFFFFFFFFFFFFFFFFFFFFFFFFFFFFFFFFFFFFFFF
310
FFFFFFFFFFFFFFFFFFFFFFFFFFFFFFFFFFFFFFFFFFFFFFFFFFFFFFFFFFFFFFFF
310
FFFFFFFFFFFFFFFFFFFFFFFFFFFFFFFFFFFFFFFFFFFFFFFFFFFFFFFFFFFFFFFF
310
FFFFFFFFFFFFFFFFFFFFFFFFFFFFFFFFFFFFFFFFFFFFFFFFFFFFFFFFFFFFFFFF
310
FFFFFFFFFFFFFFFFFFFFFFFFFFFFFFFFFFFFFFFFFFFFFFFFFFFFFFFFFFFFFFFF
310
FFFFFFFFFFFFFFFFFFFFFFFFFFFFFFFFFFFFFFFFFFFFFFFFFFFFFFFFFFFFFFFF
310
FFFFFFFFFFFFFFFFFFFFFFFFFFFFFFFFFFFFFFFFFFFFFFFFFFFFFFFFFFFFFFFF
310
52006F006F007400200045006E00740072007900000000000000000000000000
310
0000000000000000000000000000000000000000000000000000000000000000
310
16000500FFFFFFFFFFFFFFFF020000000A00030000000000C000000000000046
310
0000000000000000000000000087FF0B77A8C90103000000C000000000000000
310
01004F006C006500000000000000000000000000000000000000000000000000
310
0000000000000000000000000000000000000000000000000000000000000000
310
0A000200FFFFFFFFFFFFFFFFFFFFFFFF00000000000000000000000000000000
310
0000000000000000000000000000000000000000000000001400000000000000
310
010043006F006D0070004F0062006A0000000000000000000000000000000000
310
0000000000000000000000000000000000000000000000000000000000000000
310
120002010100000003000000FFFFFFFF00000000000000000000000000000000
310
0000000000000000000000000000000000000000010000004D00000000000000
310
01004F006C006500310030004E00610074006900760065000000000000000000
310
0000000000000000000000000000000000000000000000000000000000000000
310
1A000200FFFFFFFFFFFFFFFFFFFFFFFF00000000000000000000000000000000
310
0000000000000000000000000000000000000000040000002426000000000000
310
FEFFFFFF02000000FEFFFFFFFFFFFFFFFFFFFFFFFFFFFFFFFFFFFFFFFFFFFFFF
310
FFFFFFFFFFFFFFFFFFFFFFFFFFFFFFFFFFFFFFFFFFFFFFFFFFFFFFFFFFFFFFFF
310
FFFFFFFFFFFFFFFFFFFFFFFFFFFFFFFFFFFFFFFFFFFFFFFFFFFFFFFFFFFFFFFF
310
FFFFFFFFFFFFFFFFFFFFFFFFFFFFFFFFFFFFFFFFFFFFFFFFFFFFFFFFFFFFFFFF
310
FFFFFFFFFFFFFFFFFFFFFFFFFFFFFFFFFFFFFFFFFFFFFFFFFFFFFFFFFFFFFFFF
310
FFFFFFFFFFFFFFFFFFFFFFFFFFFFFFFFFFFFFFFFFFFFFFFFFFFFFFFFFFFFFFFF
310
FFFFFFFFFFFFFFFFFFFFFFFFFFFFFFFFFFFFFFFFFFFFFFFFFFFFFFFFFFFFFFFF
310
FFFFFFFFFFFFFFFFFFFFFFFFFFFFFFFFFFFFFFFFFFFFFFFFFFFFFFFFFFFFFFFF
310
FFFFFFFFFFFFFFFFFFFFFFFFFFFFFFFFFFFFFFFFFFFFFFFFFFFFFFFFFFFFFFFF
310
FFFFFFFFFFFFFFFFFFFFFFFFFFFFFFFFFFFFFFFFFFFFFFFFFFFFFFFFFFFFFFFF
310
FFFFFFFFFFFFFFFFFFFFFFFFFFFFFFFFFFFFFFFFFFFFFFFFFFFFFFFFFFFFFFFF
310
FFFFFFFFFFFFFFFFFFFFFFFFFFFFFFFFFFFFFFFFFFFFFFFFFFFFFFFFFFFFFFFF
310
FFFFFFFFFFFFFFFFFFFFFFFFFFFFFFFFFFFFFFFFFFFFFFFFFFFFFFFFFFFFFFFF
310
FFFFFFFFFFFFFFFFFFFFFFFFFFFFFFFFFFFFFFFFFFFFFFFFFFFFFFFFFFFFFFFF
310
FFFFFFFFFFFFFFFFFFFFFFFFFFFFFFFFFFFFFFFFFFFFFFFFFFFFFFFFFFFFFFFF
310
FFFFFFFFFFFFFFFFFFFFFFFFFFFFFFFFFFFFFFFFFFFFFFFFFFFFFFFFFFFFFFFF
310
01000002000000000000000000000000000000006026BB240000000000000000
310
90010000000000A2030201224600720061006E006B006C0069006E0020004700
310
0100FEFF030A0000FFFFFFFF0A00030000000000C00000000000004607000000
310
5042727573680007000000504272757368000700000050427275736800F439B2
310
7100000000000000000000000000650061007600790000000000000000000000
310
0000000000000000000000000000000000000000000000000000000000000000
310
0000000000000000000000000000000000000000000000000000000000000000
310
0000000000000000000000005300740061006E00640061007200640000000000
310
0000000000000000000000000000000000000000000000000000000000000000
310
0000000000000000000000005400FC0072006B00690073006300680000000000
310
0000000000000000000000000000000000000000000000000000000000000000
310
0000000000000000000000006476000800000000000000001EFF1F2024000000
310
1D0000000700000004000000000000000F0000002C0000009001000000000000
310
6000000060000000200002FB1F00200000000027A20000004000240000080000
310
12090000C9030000870200000000000000000000000000009F0000200000D7DF
310
616C000800000000E40100007001000004000000240000000F00000000000000
310
20260000424D0E260000000000003E00000028000000B40200006E0000000100
310
01000000000000000000130B0000130B00000200000002000000000000FFFFFF
310
FFFFFFFFFFFFFFFFFFFFFFFFFFFFFFFFFFFFFFFFFFFFFFFFFFFFFFFFFFFFFFFF
310
FFFFFFFFFFFFFFFFFFFFFFFFFFFFFFFFFFFFFFFFFFFFFFFFFFFFFFFFFFFFFFFF
310
FFFFFFFFFFFFFFFFFFFFFFFFFFFFFFFFFFFFFFFFFFFFFFFFF000FFFFFFFFFFFF
310
FFFFFFFFFFFFFFFFFFFFFFFFFFFFFFFFFFFFFFFFFFFFFFFFFFFFFFFFFFFFFFFF
310
FFFFFFFFFFFFFFFFFFFFFFFFFFFFFFFFFFFFFFFFFFFFFFFFFFFFFFFFFFFFFFFF
310
FFFFFFFFFFFFFFFFFFFFFFFFFFFFFFFFF000FFFFFFFFFFFFFFFFFFFFFFFFFFFF
310
FFFFFFFFFFFFFFFFFFFFFFFFFFFFFFFFFFFFFFFFFFFFFFFFFFFFFFFFFFFFFFFF
310
FFFFFFFFFFFFFFFFFFFFFFFFFFFFFFFFFFFFFFFFFFFFFFFFFFFFFFFFFFFFFFFF
310
FFFFFFFFFFFFFFFFF000FFFFFFFFFFFFFFFFFFFFFFFFFFFFFFFFFFFFFFFFFFFF
310
FFFFFFFFFFFFFFFFFFFFFFFFFFFFFFFFFFFFFFFFFFFFFFFFFFFFFFFFFFFFFFFF
310
FFFFFFFFFFFFFFFFFFFFFFFFFFFFFFFFFFFFFFFFFFFFFFFFFFFFFFFFFFFFFFFF
310
F000FFFFFFFFFFFFFFFFFFFFFFFFFFFFFFFFFFFFFFFFFFFFFFFFFFFFFFFFFFFF
310
FFFFFFFFFFFFFFFFFFFFFFFFFFFFFFFFFFFFFFFFFFFFFFFFFFFFFFFFFFFFFFFF
310
FFFFFFFFFFFFFFFFFFFFFFFFFFFFFFFFFFFFFFFFFFFFFFFFF000FFFFFFFFFFFF
310
FFFFFFFFFFFFFFFFFFFFFFFFFFFFFFFFFFFFFFFFFFFFFFFFFFFFFFFFFFFFFFFF
310
FFFFFFFFFFFFFFFFFFFFFFFFFFFFFFFFFFFFFFFFFFFFFFFFFFFFFFFFFFFFFFFF
310
FFFFFFFFFFFFFFFFFFFFFFFFFFFFFFFFF000FFFFFFFFFFFFFFFFFFFFFFFFFFFF
310
FFFFFFFFFFFFFFFFFFFFFFFFFFFFFFFFFFFFFFFFFFFFFFFFFFFFFFFFFFFFFFFF
310
FFFFFFFFFFFFFFFFFFFFFFFFFFFFFFFFFFFFFFFFFFFFFFFFFFFFFFFFFFFFFFFF
310
FFFFFFFFFFFFFFFFF000FFFFFFFFFFFFFFFFFFFFFFFFFFFFFFFFFFFFFFFFFFFF
310
FFFFFFFFFFFFFFFFFFFFFFFFFFFFFFFFFFFFFFFFFFFFFFFFFFFFFFFFFFFFFFFF
310
FFFFFFFFFFFFFFFFFFFFFFFFFFFFFFFFFFFFFFFFFFFFFFFFFFFFFFFFFFFFFFFF
310
F000FFFFFFFFFFFFFFFFFFFFFFFFFFFFFFFFFFFFFFFFFFFFFFFFFFFFFFFFFFFF
310
FFFFFFFFFFFFFFFFFFFFFFFFFFFFFFFFFFFFFFFFFFFFFFFFFFFFFFFFFFFFFFFF
310
FFFFFFFFFFFFFFFFFFFFFFFFFFFFFFFFFFFFFFFFFFFFFFFFF000FFFFFFFFFFFF
310
FFFFFFFFFFFFFFFFFFFFFFFFFFFFFFFFFFFFFFFFFFFFFFFFFFFFFFFFFFFFFFFF
310
FFFFFFFFFFFFFFFFFFFFFFFFFFFFFFFFFFFFFFFFFFFFFFFFFFFFFFFFFFFFFFFF
310
FFFFFFFFFFFFFFFFFFFFFFFFFFFFFFFFF000FFFFFFFFFFFFFFFFFFFFFFFFFFFF
310
FFFFFFFFFFFFFFFFFFFFFFFFFFFFFFFFFFFFFFFFFFFFFFFFFFFFFFFFFFFFFFFF
310
FFFFFFFFFFFFFFFFFFFFFFFFFFFFFFFFFFFFFFFFFFFFFFFFFFFFFFFFFFFFFFFF
310
FFFFFFFFFFFFFFFFF000FFFFFFFFFFFFFFFFFFFFFFFFFFFFFFFFFFFFFFFFFFFF
310
FFFFFFFFFFFFFFFFFFFFFFFFFFFFFFFFFFFFFFFFFFFFFFFFFFFFFFFFFFFFFFFF
310
FFFFFFFFFFFFFFFFFFFFFFFFFFFFFFFFFFFFFFFFFFFFFFFFFFFFFFFFFFFFFFFF
310
F000FFFFFFFFFFFFFFFFFFFFFFFFFFFFFFFFFFFFFFFFFFFFFFFFFFFFFFFFFFFF
310
FFFFFFFFFFFFFFFFFFFFFFFFFFFFFFFFFFFFFFFFFFFFFFFFFFFFFFFFFFFFFFFF
310
FFFFFFFFFFFFFFFFFFFFFFFFFFFFFFFFFFFFFFFFFFFFFFFFF000FFFFFFFFFFFF
310
FFFFFFFFFFFFFFFFFFFFFFFFFFFFFFFFFFFFFFFFFFFFFFFFFFFFFFFFFFFFFFFF
310
FFFFFFFFFFFFFFFFFFFFFFFFFFFFFFFFFFFFFFFFFFFFFFFFFFFFFFFFFFFFFFFF
310
FFFFFFFFFFFFFFFFFFFFFFFFFFFFFFFFF000FFFFFFFFFFFFFFFFFFFFFFFFFFFF
310
FFFFFFFFFFFFFFFFFFFFFFFFFFFFFFFFFFFFFFFFFFFFFFFFFFFFFFFFFFFFFFFF
310
FFFFFFFFFFFFFFFFFFFFFFFFFFFFFFFFFFFFFFFFFFFFFFFFFFFFFFFFFFFFFFFF
310
FFFFFFFFFFFFFFFFF000FFFFFFFFFFFFFFFFFFFFFFFFFFFFFFFFFFFFFFFFFFFF
310
FFFFFFFFFFFFFFFFFFFFFFFFFFFFFFFFFFFFFFFFFFFFFFFFFFFFFFFFFFFFFFFF
310
FFFFFFFFFFFFFFFFFFFFFFFFFFFFFFFFFFFFFFFFFFFFFFFFFFFFFFFFFFFFFFFF
310
F000FFFFFFFFFFFFFFFFFFFFFFFFFFFFFFFFFFFFFFFFFFFFFFFFFFFFFFFFFFFF
310
FFFFFFFFFFFFFFFFFFFFFFFFFFFFFFFFFFFFFFFFFFFFFFFFFFFFFFFFFFFFFFFF
310
FFFFFFFFFFFFFFFFFFFFFFFFFFFFFFFFFFFFFFFFFFFFFFFFF000FFFFFFFFFFFF
310
FFFFFFFFFFFFFFFFFFFFFFFFFFFFFFFFFFFFFFFFFFFFFFFFFFFFFFFFFFFFFFFF
310
FFFFFFFFFFFFFFFFFFFFFFFFFFFFFFFFFFFFFFFFFFFFFFFFFFFFFFFFFFFFFFFF
310
FFFFFFFFFFFFFFFFFFFFFFFFFFFFFFFFF000FFFFFFFFFFFFFFFFFFFFFFFFFFFF
310
FFFFFFFFFFFFFFFFFFFFFFFFFFFFFFFFFFFFFFFFFFFFFFFFFFFFFFFFFFFFFFFF
310
FFFFFFFFFFFFFFFFFFFFFFFFFFFFFFFFFFFFFFFFFFFFFFFFFFFFFFFFFFFFFFFF
310
FFFFFFFFFFFFFFFFF000FFFFF80003FFFFFFFFFFFFFFFFFFFFFFFFFFFFFFFFFF
310
FFFFF00007FFFFFFFFFF00007FFFFFF800000000000000007FFFFFFFFFFFFFFF
310
FFFFFFFC001FFFFFFFFFFFFFFC001FFFFFFFFFFFFFFFFFFFFFFFFFFE0007FFFF
310
F000FFFF8000007FFFFFFFF8000FFFFFC0007FFFFF80007FFFFF0000007FFFFF
310
FFF8000007FFFFF800000000000000007FFFFFF0001FFFFFFFFFFFC00001FFFF
310
FFFFFFFFC00001FFFFFFFF000000000003FFFFE000007FFFF000FFFE0000000F
310
FFFFFFF0000FFFFF80007FFFFF80007FFFFC0000001FFFFFFFC0000001FFFFF8
310
00000000000000007FFFFFF0001FFFFFFFFFFE0000003FFFFFFFFFFE0000003F
310
FFFFFF000000000003FFFF0000000FFFF000FFF800000003FFFFFFF00007FFFF
310
80007FFFFF80007FFFF000000007FFFFFF000000003FFFF80000000000000000
310
7FFFFFF0001FFFFFFFFFF80000000FFFFFFFFFF80000000FFFFFFF0000000000
310
03FFFC00000003FFF000FFE000000000FFFFFFF00007FFFF80003FFFFF80007F
310
FFC000000001FFFFFC000000001FFFF800000000000000007FFFFFF0001FFFFF
310
FFFFE000000003FFFFFFFFE000000003FFFFFF000000000003FFF000000000FF
310
F000FF80000000007FFFFFF00007FFFF80003FFFFF80007FFF8000000000FFFF
310
F80000000007FFF800000000000000007FFFFFF0001FFFFFFFFFC000000001FF
310
FFFFFFC000000001FFFFFF000000000003FFC0000000007FF000FF0000000000
310
3FFFFFE00007FFFF00003FFFFF80007FFE00000000003FFFF00000000003FFF8
310
00000000000000007FFFFFF0001FFFFFFFFF8000000000FFFFFFFF8000000000
310
FFFFFF000000000003FF80000000003FF000FE00000000001FFFFFE00003FFFF
310
00003FFFFF80007FFC00000000001FFFE00000000001FFF8000001FFFE000000
310
7FFFFFF0001FFFFFFFFE00000000003FFFFFFE00000000003FFFFF0000000000
310
03FF00000000001FF000FC00000000000FFFFFE00003FFFF00001FFFFF80007F
310
F800000000001FFFC00000000000FFF8000001FFFE0000007FFFFFF0001FFFFF
310
FFFC00000000001FFFFFFC00000000001FFFFF000000000003FE00000000000F
310
F000F8000000000007FFFFE00003FFFF00001FFFFF80007FF800000000000FFF
310
800000000000FFF8000001FFFE0000007FFFFFF0001FFFFFFFF800000000000F
310
FFFFF800000000000FFFFF000000000003FC000000000007F000F80000000000
310
03FFFFC00003FFFE00001FFFFF80007FF0000000000007FF0000000000007FF8
310
000001FFFE0000007FFFFFF0001FFFFFFFF0000000000007FFFFF00000000000
310
07FFFF000000000003F8000000000003F000F0000000000003FFFFC00001FFFE
310
00001FFFFF80007FE0000000000007FE0000000000003FF8000001FFFE000000
310
7FFFFFF0001FFFFFFFF0000000000007FFFFF0000000000007FFFF0000000000
310
03F800001F800003F000E00001FFF00001FFFFC00001FFFE00000FFFFF80007F
310
E00001FFE00003FE00001FFF00003FF8000001FFFE0000007FFFFFF0001FFFFF
310
FFE000003E000003FFFFE000003E000003FFFF000000000003F00001FFF80001
310
F000E00007FFFC0001FFFFC00001FFFE00000FFFFF80007FC0000FFFFC0003FC
310
0000FFFFC0001FF8000001FFFE0000007FFFFFF0001FFFFFFFC00003FFE00001
310
FFFFC00003FFE00001FFFF0001FFFFFFFFF00007FFFE0001F000E0000FFFFF00
310
00FFFF800001FFFC00000FFFFF80007FC0001FFFFE0001FC0001FFFFE0001FF8
310
000001FFFE0000007FFFFFF0001FFFFFFF80000FFFF80000FFFF80000FFFF800
310
00FFFF0003FFFFFFFFE0000FFFFF8000F000C0003FFFFF8000FFFF800000FFFC
310
000007FFFF80007F80003FFFFF0001FC0003FFFFF0001FF8000001FFFE000000
310
7FFFFFF0001FFFFFFF80003FFFFE0000FFFF80003FFFFE0000FFFF0003FFFFFF
310
FFE0003FFFFF8000F000C0003FFFFF8000FFFF800000FFFC000007FFFF80007F
310
80007FFFFF8001F80007FFFFF8000FF8000001FFFE0000007FFFFFF0001FFFFF
310
FF00007FFFFF00007FFF00007FFFFF00007FFF0003FFFFFFFFE0003FFFFFC000
310
F000C0007FFFFFC000FFFF000000FFFC000007FFFF80007F8000FFFFFF8000F8
310
000FFFFFF8000FF8000001FFFE0000007FFFFFF0001FFFFFFF0000FFFFFF8000
310
7FFF0000FFFFFF80007FFF0003FFFFFFFFC0007FFFFFC00070008000FFFFFFC0
310
00FFFF000000FFF8000007FFFF80007F8000FFFFFF8000F8000FFFFFF8000FF8
310
000001FFFE0000007FFFFFF0001FFFFFFE0001FFFFFFC0003FFE0001FFFFFFC0
310
003FFF0003FFFFFFFFC0007FFFFFE00070008000FFFFFFC0007FFF0000007FF8
310
000003FFFF80007F0001FFFFFF8000F8000FFFFFF8000FF8000001FFFE000000
310
7FFFFFF0001FFFFFFE0001FFFFFFC0003FFE0001FFFFFFC0003FFF0003FFFFFF
310
FFC000FFFFFFE00070008000FFFFFFC0007FFF0000007FF8000003FFFF80007F
310
0001FFFFFF8000F8001FFFFFF8000FF8000001FFFE0000007FFFFFF0001FFFFF
310
FE0003FFFFFFE0003FFE0003FFFFFFE0003FFF0003FFFFFFFFC000FFFFFFE000
310
70008000FFFFFFC0007FFE0000007FF8000003FFFF80007F0001FFFFFF8000F0
310
001FFFFFF8000FF8000001FFFE0000007FFFFFF0001FFFFFFC0003FFFFFFE000
310
1FFC0003FFFFFFE0001FFF0003FFFFFFFFC000FFFFFFC00070008000FFFFFF80
310
007FFE0000007FF0000003FFFF80007F0001FFFFFF0000F0001FFFFFF8000FF8
310
000001FFFE0000007FFFFFF0001FFFFFFC0007FFFFFFF0001FFC0007FFFFFFF0
310
001FFF0003FFFFFFFFC000FFFFFFC00070008001FFFFFF0000FFFE0000003FF0
310
000001FFFF80007F0001FFFFFF0000F8001FFFFFF0000FF8000001FFFE000000
310
7FFFFFF0001FFFFFFC0007FFFFFFF0001FFC0007FFFFFFF0001FFF0003FFFFFF
310
FFC001FFFFFF80007000FFFFFFFFFE0000FFFE0008003FF0008001FFFF80007F
310
FFFFFFFFFC0000FFFFFFFFFFE0000FF8000001FFFE0000007FFFFFF0001FFFFF
310
F8000FFFFFFFF8000FF8000FFFFFFFF8000FFF0003FFFFFFFFFFFFFFFFFF0000
310
7000FFFFFFFFFC0000FFFC0008003FF0008001FFFF80007FFFFFFFFFF80001FF
310
FFFFFFFF80000FF8000001FFFE0000007FFFFFF0001FFFFFF8000FFFFFFFF800
310
0FF8000FFFFFFFF8000FFF0003FFFFFFFFFFFFFFFFFE0000F000FFFFFFFFE000
310
00FFFC000C003FE000C001FFFF80007FFFFFFFFFC00001FFFFFFFFFE00001FF8
310
000001FFFE0000007FFFFFF0001FFFFFF8000FFFFFFFF8000FF8000FFFFFFFF8
310
000FFF0003FFFFFFFFFFFFFFFFF00000F000FFFFFFFE000001FFFC000C001FE0
310
00C000FFFF80007FFFFFFFFE000001FFFFFFFFE000001FF80FFFFFFFFFFFFFC0
310
7FFFFFF0001FFFFFF8000FFFFFFFF8000FF8000FFFFFFFF8000FFF0003FFFFFF
310
FFFFFFFFFF800000F000FFFFFFC0000001FFFC001C001FE001C000FFFF80007F
310
FFFFFF80000003FFFFFFF80000001FF80FFFFFFFFFFFFFC07FFFFFF0001FFFFF
310
F8001FFFFFFFFC000FF8001FFFFFFFFC000FFF0003FFFFFFFFFFFFFFF0000001
310
F000FFFFF800000001FFF8001C001FE001C000FFFF80007FFFFFF800000003FF
310
FFFF800000003FF80FFFFFFFFFFFFFC07FFFFFF0001FFFFFF8001FFFFFFFFC00
310
0FF8001FFFFFFFFC000FFF0003FFFFFFFFFFFFFE00000001F000FFFFC0000000
310
03FFF8001E001FC001E000FFFF80007FFFFF8000000007FFFFFC000000003FF8
310
0FFFFFFFFFFFFFC07FFFFFF0001FFFFFF8001FFFFFFFFC000FF8001FFFFFFFFC
310
000FFF0003FFFFFFFFFFFFE000000003F000FFFE0000000007FFF8001E000FC0
310
01E0007FFF80007FFFFE0000000007FFFFE0000000007FF80FFFFFFFFFFFFFC0
310
7FFFFFF0001FFFFFF0001FFFFFFFFC0007F0001FFFFFFFFC0007FF0003FFFFFF
310
FFFFFF0000000003F000FFF80000000007FFF8001E000FC003E0007FFF80007F
310
FFF0000000000FFFFF8000000000FFF80FFFFFFFFFFFFFC07FFFFFF0001FFFFF
310
F0001FFFFFFFFC0007F0001FFFFFFFFC0007FF0003FFFFFFFFFFFC0000000007
310
F000FFE0000000000FFFF0003E000FC003E0007FFF80007FFFC0000000001FFF
310
FE0000000001FFF80FFFFFFFFFFFFFC07FFFFFF0001FFFFFF0001FFFFFFFFC00
310
07F0001FFFFFFFFC0007FF0003FFFFFFFFFFF0000000000FF000FFC000000000
310
1FFFF0003F000F8003F0003FFF80007FFF80000000003FFFF80000000003FFF8
310
0FFFFFFFFFFFFFC07FFFFFF0001FFFFFF0001FFFFFFFFC0007F0001FFFFFFFFC
310
0007FF0003FFFFFFFFFFE0000000001FF000FF00000000007FFFF0003F000780
310
03F0003FFF80007FFF00000000007FFFF00000000007FFF80FFFFFFFFFFFFFC0
310
7FFFFFF0001FFFFFF0001FFFFFFFFC0007F0001FFFFFFFFC0007FF0003FFFFFF
310
FFFF80000000007FF000FE0000000000FFFFE0003F00078007F0003FFF80007F
310
FE0000000001FFFFE0000000001FFFF80FFFFFFFFFFFFFC07FFFFFF0001FFFFF
310
F0001FFFFFFFFC0007F0001FFFFFFFFC0007FF0003FFFFFFFFFF0000000000FF
310
F000FC0000000003FFFFE0007F00078007F0003FFF80007FFC0000000007FFFF
310
C0000000007FFFF80FFFFFFFFFFFFFC07FFFFFF0001FFFFFF8001FFFFFFFFC00
310
0FF8001FFFFFFFFC000FFF0003FFFFFFFFFE0000000003FFF000FC000000000F
310
FFFFE0007F80070007F8001FFF80007FF8000000001FFFFF8000000001FFFFF8
310
0FFFFFFFFFFFFFC07FFFFFF0001FFFFFF8001FFFFFFFFC000FF8001FFFFFFFFC
310
000FFF0003FFFFFFFFFC000000000FFFF000F8000000007FFFFFE0007F800700
310
07F8001FFF80007FF000000000FFFFFF800000000FFFFFF80FFFFFFFFFFFFFC0
310
7FFFFFF0001FFFFFF8000FFFFFFFF8000FF8000FFFFFFFF8000FFF0003FFFFFF
310
FFFC000000007FFFF000F800000007FFFFFFC0007F8003000FF8001FFF80007F
310
F000000007FFFFFF000000007FFFFFF80FFFFFFFFFFFFFC07FFFFFF0001FFFFF
310
F8000FFFFFFFF8000FF8000FFFFFFFF8000FFF0003FFFFFFFFF80000000FFFFF
310
F000F0000000FFFFFFFFC000FF8003000FF8001FFF80007FE0000000FFFFFFFF
310
0000000FFFFFFFF8000001FFFE0000007FFFFFF0001FFFFFF8000FFFFFFFF800
310
0FF8000FFFFFFFF8000FFF0003FFFFFFFFF8000000FFFFFFF000F000000FFFFF
310
FFFFC000FFC002000FF8000FFF80007FE000001FFFFFFFFE000001FFFFFFFFF8
310
000001FFFE0000007FFFFFF0001FFFFFF8000FFFFFFFF8000FF8000FFFFFFFF8
310
000FFF0003FFFFFFFFF000001FFFFFFFF000E00000FFFFFFFFFFC000FFC00200
310
0FFC000FFF80007FE00001FFFFFFFFFE00001FFFFFFFFFF8000001FFFE000000
310
7FFFFFF0001FFFFFFC000FFFFFFFF8001FFC000FFFFFFFF8001FFF0003FFFFFF
310
FFF00001FFFFFFFFF000E00007FFFFFFFFFF8000FFC000001FFC000FFF80007F
310
C0000FFFFFFFFFFE0000FFFFFFFFFFF8000001FFFE0000007FFFFFF0001FFFFF
310
FC0007FFFFFFF0001FFC0007FFFFFFF0001FFF0003FFFFFFFFF00007FFFFFFFF
310
F000E0001FFFFFFFFFFF8000FFC000001FFC000FFF80007FC0003FFFFFFFFFFE
310
0001FFFFFFFFFFF8000001FFFE0000007FFFFFF0001FFFFFFC0007FFFFFFF000
310
1FFC0007FFFFFFF0001FFF0003FFFFFFFFF0001FFFFFFFFFF000E0003FFFFF00
310
03FF8001FFE000001FFC0007FF80007FC0007FFFFF0007FC0003FFFFF0003FF8
310
000001FFFE0000007FFFFFF0001FFFFFFC0003FFFFFFE0001FFC0003FFFFFFE0
310
001FFF0003FFFFFFFFF0003FFFFFFFFFF000E0003FFFFF0001FF8001FFE00000
310
1FFE0007FF80007FC0007FFFFE0003FC0007FFFFE0003FF8000001FFFE000000
310
7FFFFFF0001FFFFFFE0003FFFFFFE0003FFE0003FFFFFFE0003FFF0003FFFFFF
310
FFF0003FFFFF8001F000E0003FFFFF0001FF0001FFE000001FFE0007FF80007F
310
C0007FFFFE0003FC0007FFFFE0003FF8000001FFFE0000007FFFFFF0001FFFFF
310
FE0001FFFFFFC0003FFE0001FFFFFFC0003FFF0003FFFFFFFFF0003FFFFF0001
310
F000E0003FFFFF0003FF0001FFE000003FFE0007FF80007FC0007FFFFE0003FC
310
0007FFFFE0003FF8000001FFFE0000007FFFFFF0001FFFFFFF0001FFFFFFC000
310
7FFF0001FFFFFFC0007FFF0003FFFFFFFFF0003FFFFF0001F000E0003FFFFE00
310
03FF0003FFF000003FFE0003FF80007FC0007FFFFC0003FE0007FFFFE0003FF8
310
000001FFFE0000007FFFFFF0001FFFFFFF0000FFFFFF80007FFF0000FFFFFF80
310
007FFF0003FFFFFFFFF0003FFFFF0001F000E0003FFFFE0003FF0003FFF00000
310
3FFF0003FF80007FC0007FFFFC0007FE0007FFFFC0003FF8000001FFFE000000
310
7FFFFFF0001FFFFFFF80007FFFFF0000FFFF80007FFFFF0000FFFF0003FFFFFF
310
FFF0003FFFFF0003F000E0003FFFFC0003FE0003FFF000003FFF0003FF80007F
310
E0003FFFF80007FE0003FFFFC0007FF8000001FFFE0000007FFFFFF0001FFFFF
310
FF80003FFFFE0000FFFF80003FFFFE0000FFFF0003FFFFFFFFF0001FFFFE0003
310
F000F0001FFFF80003FE0003FFF000007FFF0001FF80007FE0003FFFF00007FE
310
0001FFFF80007FF8000001FFFE0000007FFFFFF0001FFFFFFFC0000FFFF80001
310
FFFFC0000FFFF80001FFFF0003FFFFFFFFF0001FFFFC0003F000F0000FFFF000
310
07FE0007FFF800007FFF0001FF80007FE0001FFFE00007FF0000FFFE00007FF8
310
000001FFFE0000007FFFFFF0001FFFFFFFC00003FFE00001FFFFC00003FFE000
310
01FFFF0003FFFFFFFFF8000FFFF80003F000F00003FFC00007FC0007FFF80000
310
7FFF8001FF80007FF00007FF80000FFF00007FF80000FFF8000001FFFE000000
310
7F80000000000001FFE000003E000003FFFFE000003E000003FFFF0003FFFFFF
310
FFF80003FFE00007F000F800000000000FFC0007FFF800007FFF8001FF80007F
310
F000000000000FFF000000000000FFF8000001FFFE0000007F80000000000001
310
FFF0000000000007FFFFF0000000000007FFFF0003FFFFFFFFFC00007E000007
310
F000F800000000000FFC0007FFF80000FFFF8000FF80007FF800000000001FFF
310
800000000001FFF8000001FFFE0000007F80000000000001FFF800000000000F
310
FFFFF800000000000FFFFF0003FFFFFFFFFC00000000000FF000FC0000000000
310
1FFC0007FFFC0000FFFF8000FF80007FF800000000003FFFC00000000001FFF8
310
000001FFFE0000007F80000000000001FFF800000000000FFFFFF80000000000
310
0FFFFF0003FFFFFFFFFE00000000001FF000FE00000000003FF8000FFFFC0000
310
FFFF8000FF80007FFC00000000003FFFC00000000003FFF8000001FFFE000000
310
7F80000000000001FFFC00000000001FFFFFFC00000000001FFFFF0003FFFFFF
310
FFFF00000000001FF000FF00000000003FF8000FFFFC0000FFFFC000FF80007F
310
FE00000000007FFFE00000000007FFF8000001FFFE0000007F80000000000001
310
FFFE00000000003FFFFFFE00000000003FFFFF0003FFFFFFFFFF80000000003F
310
F000FF80000000007FF8000FFFFC0001FFFFC0007F80007FFF0000000000FFFF
310
F0000000000FFFF800000000000000007F80000000000001FFFF8000000000FF
310
FFFFFF8000000000FFFFFF0003FFFFFFFFFFC0000000007FF000FFC000000000
310
FFF8000FFFFE0001FFFFC0007F80007FFF8000000001FFFFF8000000001FFFF8
310
00000000000000007F80000000000001FFFFC000000001FFFFFFFFC000000001
310
FFFFFF0003FFFFFFFFFFE000000000FFF000FFE000000003FFF0001FFFFE0001
310
FFFFC0007F80007FFFC000000007FFFFFE000000003FFFF80000000000000000
310
7F80000000000001FFFFE000000003FFFFFFFFE000000003FFFFFF0003FFFFFF
310
FFFFF000000003FFF000FFF80000000FFFF0001FFFFE0001FFFFE0007F80007F
310
FFF00000000FFFFFFF00000000FFFFF800000000000000007F80000000000001
310
FFFFF80000000FFFFFFFFFF80000000FFFFFFF0003FFFFFFFFFFFC0000000FFF
310
F000FFFE0000003FFFF0001FFFFE0003FFFFE0003F80007FFFFC0000003FFFFF
310
FFC0000003FFFFF800000000000000007F80000000000001FFFFFE0000003FFF
310
FFFFFFFE0000003FFFFFFF0003FFFFFFFFFFFF0000003FFFF000FFFF800000FF
310
FFF0001FFFFF0003FFFFE0003F80007FFFFF000001FFFFFFFFF800001FFFFFF8
310
00000000000000007F80000000000001FFFFFFC00001FFFFFFFFFFFFC00001FF
310
FFFFFF0003FFFFFFFFFFFFC00000FFFFF000FFFFF8000FFFFFFFFFFFFFFFFFFF
310
FFFFFFFFFFFFFFFFFFFFF0001FFFFFFFFFFF0000FFFFFFF80000000000000000
310
7FFFFFFFFFFFFFFFFFFFFFFC001FFFFFFFFFFFFFFC001FFFFFFFFFFFFFFFFFFF
310
FFFFFFFC001FFFFFF000FFFFFFFFFFFFFFFFFFFFFFFFFFFFFFFFFFFFFFFFFFFF
310
FFFFFFFFFFFFFFFFFFFFFFFFFFFFFFFFFFFFFFFFFFFFFFFFFFFFFFFFFFFFFFFF
310
FFFFFFFFFFFFFFFFFFFFFFFFFFFFFFFFFFFFFFFFFFFFFFFFFFFFFFFFFFFFFFFF
310
F000FFFFFFFFFFFFFFFFFFFFFFFFFFFFFFFFFFFFFFFFFFFFFFFFFFFFFFFFFFFF
310
FFFFFFFFFFFFFFFFFFFFFFFFFFFFFFFFFFFFFFFFFFFFFFFFFFFFFFFFFFFFFFFF
310
FFFFFFFFFFFFFFFFFFFFFFFFFFFFFFFFFFFFFFFFFFFFFFFFF000FFFFFFFFFFFF
310
FFFFFFFFFFFFFFFFFFFFFFFFFFFFFFFFFFFFFFFFFFFFFFFFFFFFFFFFFFFFFFFF
310
FFFFFFFFFFFFFFFFFFFFFFFFFFFFFFFFFFFFFFFFFFFFFFFFFFFFFFFFFFFFFFFF
310
FFFFFFFFFFFFFFFFFFFFFFFFFFFFFFFFF000FFFFFFFFFFFFFFFFFFFFFFFFFFFF
310
FFFFFFFFFFFFFFFFFFFFFFFFFFFFFFFFFFFFFFFFFFFFFFFFFFFFFFFFFFFFFFFF
310
FFFFFFFFFFFFFFFFFFFFFFFFFFFFFFFFFFFFFFFFFFFFFFFFFFFFFFFFFFFFFFFF
310
FFFFFFFFFFFFFFFFF000FFFFFFFFFFFFFFFFFFFFFFFFFFFFFFFFFFFFFFFFFFFF
310
FFFFFFFFFFFFFFFFFFFFFFFFFFFFFFFFFFFFFFFFFFFFFFFFFFFFFFFFFFFFFFFF
310
FFFFFFFFFFFFFFFFFFFFFFFFFFFFFFFFFFFFFFFFFFFFFFFFFFFFFFFFFFFFFFFF
310
F000FFFFFFFFFFFFFFFFFFFFFFFFFFFFFFFFFFFFFFFFFFFFFFFFFFFFFFFFFFFF
310
FFFFFFFFFFFFFFFFFFFFFFFFFFFFFFFFFFFFFFFFFFFFFFFFFFFFFFFFFFFFFFFF
310
FFFFFFFFFFFFFFFFFFFFFFFFFFFFFFFFFFFFFFFFFFFFFFFFF000FFFFFFFFFFFF
310
FFFFFFFFFFFFFFFFFFFFFFFFFFFFFFFFFFFFFFFFFFFFFFFFFFFFFFFFFFFFFFFF
310
FFFFFFFFFFFFFFFFFFFFFFFFFFFFFFFFFFFFFFFFFFFFFFFFFFFFFFFFFFFFFFFF
310
FFFFFFFFFFFFFFFFFFFFFFFFFFFFFFFFF000FFFFFFFFFFFFFFFFFFFFFFFFFFFF
310
FFFFFFFFFFFFFFFFFFFFFFFFFFFFFFFFFFFFFFFFFFFFFFFFFFFFFFFFFFFFFFFF
310
FFFFFFFFFFFFFFFFFFFFFFFFFFFFFFFFFFFFFFFFFFFFFFFFFFFFFFFFFFFFFFFF
310
FFFFFFFFFFFFFFFFF000FFFFFFFFFFFFFFFFFFFFFFFFFFFFFFFFFFFFFFFFFFFF
310
FFFFFFFFFFFFFFFFFFFFFFFFFFFFFFFFFFFFFFFFFFFFFFFFFFFFFFFFFFFFFFFF
310
FFFFFFFFFFFFFFFFFFFFFFFFFFFFFFFFFFFFFFFFFFFFFFFFFFFFFFFFFFFFFFFF
310
F000FFFFFFFFFFFFFFFFFFFFFFFFFFFFFFFFFFFFFFFFFFFFFFFFFFFFFFFFFFFF
310
FFFFFFFFFFFFFFFFFFFFFFFFFFFFFFFFFFFFFFFFFFFFFFFFFFFFFFFFFFFFFFFF
310
FFFFFFFFFFFFFFFFFFFFFFFFFFFFFFFFFFFFFFFFFFFFFFFFF000FFFFFFFFFFFF
310
FFFFFFFFFFFFFFFFFFFFFFFFFFFFFFFFFFFFFFFFFFFFFFFFFFFFFFFFFFFFFFFF
310
FFFFFFFFFFFFFFFFFFFFFFFFFFFFFFFFFFFFFFFFFFFFFFFFFFFFFFFFFFFFFFFF
310
FFFFFFFFFFFFFFFFFFFFFFFFFFFFFFFFF000FFFFFFFFFFFFFFFFFFFFFFFFFFFF
310
FFFFFFFFFFFFFFFFFFFFFFFFFFFFFFFFFFFFFFFFFFFFFFFFFFFFFFFFFFFFFFFF
310
FFFFFFFFFFFFFFFFFFFFFFFFFFFFFFFFFFFFFFFFFFFFFFFFFFFFFFFFFFFFFFFF
310
FFFFFFFFFFFFFFFFF000FFFFFFFFFFFFFFFFFFFFFFFFFFFFFFFFFFFFFFFFFFFF
310
FFFFFFFFFFFFFFFFFFFFFFFFFFFFFFFFFFFFFFFFFFFFFFFFFFFFFFFFFFFFFFFF
310
FFFFFFFFFFFFFFFFFFFFFFFFFFFFFFFFFFFFFFFFFFFFFFFFFFFFFFFFFFFFFFFF
310
F000FFFFFFFFFFFFFFFFFFFFFFFFFFFFFFFFFFFFFFFFFFFFFFFFFFFFFFFFFFFF
310
FFFFFFFFFFFFFFFFFFFFFFFFFFFFFFFFFFFFFFFFFFFFFFFFFFFFFFFFFFFFFFFF
310
FFFFFFFFFFFFFFFFFFFFFFFFFFFFFFFFFFFFFFFFFFFFFFFFF000FFFFFFFFFFFF
310
FFFFFFFFFFFFFFFFFFFFFFFFFFFFFFFFFFFFFFFFFFFFFFFFFFFFFFFFFFFFFFFF
310
FFFFFFFFFFFFFFFFFFFFFFFFFFFFFFFFFFFFFFFFFFFFFFFFFFFFFFFFFFFFFFFF
310
FFFFFFFFFFFFFFFFFFFFFFFFFFFFFFFFF000FFFFFFFFFFFFFFFFFFFFFFFFFFFF
310
FFFFFFFFFFFFFFFFFFFFFFFFFFFFFFFFFFFFFFFFFFFFFFFFFFFFFFFFFFFFFFFF
310
FFFFFFFFFFFFFFFFFFFFFFFFFFFFFFFFFFFFFFFFFFFFFFFFFFFFFFFFFFFFFFFF
310
FFFFFFFFFFFFFFFFF000FFFFFFFFFFFFFFFFFFFFFFFFFFFFFFFFFFFFFFFFFFFF
310
FFFFFFFFFFFFFFFFFFFFFFFFFFFFFFFFFFFFFFFFFFFFFFFFFFFFFFFFFFFFFFFF
310
FFFFFFFFFFFFFFFFFFFFFFFFFFFFFFFFFFFFFFFFFFFFFFFFFFFFFFFFFFFFFFFF
310
F000FFFFFFFFFFFFFFFFFFFFFFFFFFFFFFFFFFFFFFFFFFFFFFFFFFFFFFFFFFFF
310
FFFFFFFFFFFFFFFFFFFFFFFFFFFFFFFFFFFFFFFFFFFFFFFFFFFFFFFFFFFFFFFF
310
FFFFFFFFFFFFFFFFFFFFFFFFFFFFFFFFFFFFFFFFFFFFFFFFF000FFFFFFFFFFFF
310
FFFFFFFFFFFFFFFFFFFFFFFFFFFFFFFFFFFFFFFFFFFFFFFFFFFFFFFFFFFFFFFF
310
FFFFFFFFFFFFFFFFFFFFFFFFFFFFFFFFFFFFFFFFFFFFFFFFFFFFFFFFFFFFFFFF
310
FFFFFFFFFFFFFFFFFFFFFFFFFFFFFFFFF000FFFFFFFFFFFFFFFFFFFFFFFFFFFF
310
FFFFFFFFFFFFFFFFFFFFFFFFFFFFFFFFFFFFFFFFFFFFFFFFFFFFFFFFFFFFFFFF
310
FFFFFFFFFFFFFFFFFFFFFFFFFFFFFFFFFFFFFFFFFFFFFFFFFFFFFFFFFFFFFFFF
310
FFFFFFFFFFFFFFFFF000FFFFFFFFFFFFFFFFFFFFFFFFFFFFFFFFFFFFFFFFFFFF
310
FFFFFFFFFFFFFFFFFFFFFFFFFFFFFFFFFFFFFFFFFFFFFFFFFFFFFFFFFFFFFFFF
310
FFFFFFFFFFFFFFFFFFFFFFFFFFFFFFFFFFFFFFFFFFFFFFFFFFFFFFFFFFFFFFFF
310
F000FFFFFFFFFFFFFFFFFFFFFFFFFFFFFFFFFFFFFFFFFFFFFFFFFFFFFFFFFFFF
310
FFFFFFFFFFFFFFFFFFFFFFFFFFFFFFFFFFFFFFFFFFFFFFFFFFFFFFFFFFFFFFFF
310
FFFFFFFFFFFFFFFFFFFFFFFFFFFFFFFFFFFFFFFFFFFFFFFFF000FFFFFFFFFFFF
310
FFFFFFFFFFFFFFFFFFFFFFFFFFFFFFFFFFFFFFFFFFFFFFFFFFFFFFFFFFFFFFFF
310
FFFFFFFFFFFFFFFFFFFFFFFFFFFFFFFFFFFFFFFFFFFFFFFFFFFFFFFFFFFFFFFF
310
FFFFFFFFFFFFFFFFFFFFFFFFFFFFFFFFF0000000000000000000000000000000
310
000000006C006C002000530061006E00730020004D0054002000450078007400
310
200043006F006E00640065006E00730065006400200042006F006C0064000000
310
0000000000000000000000000000000000000000000000000000000000000000
310
0000000000000000000000000000000000000000000000000000000000000000
310
5300740061006E00640061007200640000000000000000000000000000000000
310
0000000000000000000000000000000000000000000000000000000000000000
310
4D0069007400740065006C006500750072006F007000E4006900730063006800
310
0000000000000000000000000000000000000000000000000000000000000000
310
6476000800000000000000001EFF1F2026000000200000000600000006000000
310
00000000070000002400000090010000000000006000000060000000200002FB
310
1F00200000000027EE000000400024000008000094090000D501000003000000
310
0000000000000000000000000300002000000000616C000800000000E4010000
310
7001000004000000250000000900000000000000000000009001000000000000
310
0302011247006C006F00750063006500730074006500720020004D0054002000
310
45007800740072006100200043006F006E00640065006E007300650064000000
  1
OLE
  0
ENDSEC
  0
SECTION
  2
OBJECTS
  0
DICTIONARY
  5
C
330
0
100
AcDbDictionary
281
     1
  3
ACAD_GROUP
350
D
  3
ACAD_LAYOUT
350
1A
  3
ACAD_MLEADERSTYLE
350
361
  3
ACAD_MLINESTYLE
350
17
  3
ACAD_PLOTSETTINGS
350
19
  3
ACAD_PLOTSTYLENAME
350
E
  3
ACAD_SCALELIST
350
3B
  3
ACAD_TABLESTYLE
350
360
  3
ACAD_VISUALSTYLE
350
2A
  3
AcDbVariableDictionary
350
35E
  0
DICTIONARY
  5
D
102
{ACAD_REACTORS
330
C
102
}
330
C
100
AcDbDictionary
281
     1
  0
DICTIONARY
  5
1A
102
{ACAD_REACTORS
330
C
102
}
330
C
100
AcDbDictionary
281
     1
  3
Layout1
350
1E
  3
Layout2
350
26
  3
Model
350
22
  0
DICTIONARY
  5
361
102
{ACAD_REACTORS
330
C
102
}
330
C
100
AcDbDictionary
281
     1
  0
DICTIONARY
  5
17
102
{ACAD_REACTORS
330
C
102
}
330
C
100
AcDbDictionary
281
     1
  3
Standard
350
18
  0
DICTIONARY
  5
19
102
{ACAD_REACTORS
330
C
102
}
330
C
100
AcDbDictionary
281
     1
  0
ACDBDICTIONARYWDFLT
  5
E
102
{ACAD_REACTORS
330
C
102
}
330
C
100
AcDbDictionary
281
     1
  3
Normal
350
F
100
AcDbDictionaryWithDefault
340
F
  0
DICTIONARY
  5
3B
102
{ACAD_REACTORS
330
C
102
}
330
C
100
AcDbDictionary
281
     1
  3
A0
350
3C
  3
A1
350
3D
  3
A2
350
3E
  3
A3
350
3F
  3
A4
350
40
  3
A5
350
41
  3
A6
350
42
  3
A7
350
43
  3
A8
350
44
  3
A9
350
45
  3
B0
350
46
  3
B1
350
47
  3
B2
350
48
  3
B3
350
49
  3
B4
350
4A
  3
B5
350
4B
  3
B6
350
4C
  3
B7
350
4D
  3
B8
350
4E
  3
B9
350
4F
  3
C0
350
50
  3
C1
350
51
  3
C2
350
52
  3
C3
350
53
  3
C4
350
54
  3
C5
350
55
  3
C6
350
56
  3
C7
350
57
  3
C8
350
58
  3
C9
350
59
  3
D0
350
5A
  3
D1
350
5B
  3
D2
350
5C
  0
DICTIONARY
  5
360
102
{ACAD_REACTORS
330
C
102
}
330
C
100
AcDbDictionary
281
     1
  0
DICTIONARY
  5
2A
102
{ACAD_REACTORS
330
C
102
}
330
C
100
AcDbDictionary
281
     1
  3
2dWireframe
350
2F
  3
3D Hidden
350
31
  3
3dWireframe
350
30
  3
Basic
350
32
  3
Brighten
350
36
  3
ColorChange
350
3A
  3
Conceptual
350
34
  3
Dim
350
35
  3
Facepattern
350
39
  3
Flat
350
2B
  3
FlatWithEdges
350
2C
  3
Gouraud
350
2D
  3
GouraudWithEdges
350
2E
  3
Linepattern
350
38
  3
Realistic
350
33
  3
Thicken
350
37
  0
DICTIONARY
  5
35E
102
{ACAD_REACTORS
330
C
102
}
330
C
100
AcDbDictionary
281
     1
  3
CANNOSCALE
350
35F
  3
PSOLHEIGHT
350
363
  3
PSOLWIDTH
350
362
  0
LAYOUT
  5
1E
102
{ACAD_REACTORS
330
1A
102
}
330
1A
100
AcDbPlotSettings
  1

  2
none_device
  4

  6

 40
0.0
 41
0.0
 42
0.0
 43
0.0
 44
0.0
 45
0.0
 46
0.0
 47
0.0
 48
0.0
 49
0.0
140
0.0
141
0.0
142
1.0
143
1.0
 70
   688
 72
     0
 73
     0
 74
     5
  7

 75
    16
147
1.0
148
0.0
149
0.0
100
AcDbLayout
  1
Layout1
 70
     1
 71
     1
 10
0.0
 20
0.0
 11
420.0
 21
297.0
 12
0.0
 22
0.0
 32
0.0
 14
1.0000000000E+20
 24
1.0000000000E+20
 34
1.0000000000E+20
 15
-1.0000000000E+20
 25
-1.0000000000E+20
 35
-1.0000000000E+20
146
0.0
 13
0.0
 23
0.0
 33
0.0
 16
1.0
 26
0.0
 36
0.0
 17
0.0
 27
1.0
 37
0.0
 76
     0
330
1B
  0
LAYOUT
  5
26
102
{ACAD_REACTORS
330
1A
102
}
330
1A
100
AcDbPlotSettings
  1

  2
none_device
  4

  6

 40
0.0
 41
0.0
 42
0.0
 43
0.0
 44
0.0
 45
0.0
 46
0.0
 47
0.0
 48
0.0
 49
0.0
140
0.0
141
0.0
142
1.0
143
1.0
 70
   688
 72
     0
 73
     0
 74
     5
  7

 75
    16
147
1.0
148
0.0
149
0.0
100
AcDbLayout
  1
Layout2
 70
     1
 71
     2
 10
0.0
 20
0.0
 11
0.0
 21
0.0
 12
0.0
 22
0.0
 32
0.0
 14
0.0
 24
0.0
 34
0.0
 15
0.0
 25
0.0
 35
0.0
146
0.0
 13
0.0
 23
0.0
 33
0.0
 16
1.0
 26
0.0
 36
0.0
 17
0.0
 27
1.0
 37
0.0
 76
     0
330
23
  0
LAYOUT
  5
22
102
{ACAD_REACTORS
330
1A
102
}
330
1A
100
AcDbPlotSettings
  1

  2
none_device
  4

  6

 40
0.0
 41
0.0
 42
0.0
 43
0.0
 44
0.0
 45
0.0
 46
0.0
 47
0.0
 48
0.0
 49
0.0
140
0.0
141
0.0
142
1.0
143
1.0
 70
  1712
 72
     0
 73
     0
 74
     0
  7

 75
     0
147
1.0
148
0.0
149
0.0
100
AcDbLayout
  1
Model
 70
     1
 71
     0
 10
0.0
 20
0.0
 11
297.0
 21
210.0
 12
0.0
 22
0.0
 32
0.0
 14
0.0
 24
0.0
 34
0.0
 15
297.0
 25
210.0
 35
0.0
146
0.0
 13
0.0
 23
0.0
 33
0.0
 16
1.0
 26
0.0
 36
0.0
 17
0.0
 27
1.0
 37
0.0
 76
     0
330
1F
331
29
  0
MLINESTYLE
  5
18
102
{ACAD_REACTORS
330
17
102
}
330
17
100
AcDbMlineStyle
  2
Standard
 70
     0
  3

 62
   256
 51
90.0
 52
90.0
 71
     2
 49
0.5
 62
   256
  6
BYLAYER
 49
-0.5
 62
   256
  6
BYLAYER
  0
ACDBPLACEHOLDER
  5
F
102
{ACAD_REACTORS
330
E
102
}
330
E
  0
SCALE
  5
3C
102
{ACAD_REACTORS
330
3B
102
}
330
3B
100
AcDbScale
 70
     0
300
1:1
140
1.0
141
1.0
290
     1
  0
SCALE
  5
3D
102
{ACAD_REACTORS
330
3B
102
}
330
3B
100
AcDbScale
 70
     0
300
1:2
140
1.0
141
2.0
290
     0
  0
SCALE
  5
3E
102
{ACAD_REACTORS
330
3B
102
}
330
3B
100
AcDbScale
 70
     0
300
1:4
140
1.0
141
4.0
290
     0
  0
SCALE
  5
3F
102
{ACAD_REACTORS
330
3B
102
}
330
3B
100
AcDbScale
 70
     0
300
1:5
140
1.0
141
5.0
290
     0
  0
SCALE
  5
40
102
{ACAD_REACTORS
330
3B
102
}
330
3B
100
AcDbScale
 70
     0
300
1:8
140
1.0
141
8.0
290
     0
  0
SCALE
  5
41
102
{ACAD_REACTORS
330
3B
102
}
330
3B
100
AcDbScale
 70
     0
300
1:10
140
1.0
141
10.0
290
     0
  0
SCALE
  5
42
102
{ACAD_REACTORS
330
3B
102
}
330
3B
100
AcDbScale
 70
     0
300
1:16
140
1.0
141
16.0
290
     0
  0
SCALE
  5
43
102
{ACAD_REACTORS
330
3B
102
}
330
3B
100
AcDbScale
 70
     0
300
1:20
140
1.0
141
20.0
290
     0
  0
SCALE
  5
44
102
{ACAD_REACTORS
330
3B
102
}
330
3B
100
AcDbScale
 70
     0
300
1:30
140
1.0
141
30.0
290
     0
  0
SCALE
  5
45
102
{ACAD_REACTORS
330
3B
102
}
330
3B
100
AcDbScale
 70
     0
300
1:40
140
1.0
141
40.0
290
     0
  0
SCALE
  5
46
102
{ACAD_REACTORS
330
3B
102
}
330
3B
100
AcDbScale
 70
     0
300
1:50
140
1.0
141
50.0
290
     0
  0
SCALE
  5
47
102
{ACAD_REACTORS
330
3B
102
}
330
3B
100
AcDbScale
 70
     0
300
1:100
140
1.0
141
100.0
290
     0
  0
SCALE
  5
48
102
{ACAD_REACTORS
330
3B
102
}
330
3B
100
AcDbScale
 70
     0
300
2:1
140
2.0
141
1.0
290
     0
  0
SCALE
  5
49
102
{ACAD_REACTORS
330
3B
102
}
330
3B
100
AcDbScale
 70
     0
300
4:1
140
4.0
141
1.0
290
     0
  0
SCALE
  5
4A
102
{ACAD_REACTORS
330
3B
102
}
330
3B
100
AcDbScale
 70
     0
300
8:1
140
8.0
141
1.0
290
     0
  0
SCALE
  5
4B
102
{ACAD_REACTORS
330
3B
102
}
330
3B
100
AcDbScale
 70
     0
300
10:1
140
10.0
141
1.0
290
     0
  0
SCALE
  5
4C
102
{ACAD_REACTORS
330
3B
102
}
330
3B
100
AcDbScale
 70
     0
300
100:1
140
100.0
141
1.0
290
     0
  0
SCALE
  5
4D
102
{ACAD_REACTORS
330
3B
102
}
330
3B
100
AcDbScale
 70
     0
300
1/128" = 1'-0"
140
0.0078125
141
12.0
290
     0
  0
SCALE
  5
4E
102
{ACAD_REACTORS
330
3B
102
}
330
3B
100
AcDbScale
 70
     0
300
1/64" = 1'-0"
140
0.015625
141
12.0
290
     0
  0
SCALE
  5
4F
102
{ACAD_REACTORS
330
3B
102
}
330
3B
100
AcDbScale
 70
     0
300
1/32" = 1'-0"
140
0.03125
141
12.0
290
     0
  0
SCALE
  5
50
102
{ACAD_REACTORS
330
3B
102
}
330
3B
100
AcDbScale
 70
     0
300
1/16" = 1'-0"
140
0.0625
141
12.0
290
     0
  0
SCALE
  5
51
102
{ACAD_REACTORS
330
3B
102
}
330
3B
100
AcDbScale
 70
     0
300
3/32" = 1'-0"
140
0.09375
141
12.0
290
     0
  0
SCALE
  5
52
102
{ACAD_REACTORS
330
3B
102
}
330
3B
100
AcDbScale
 70
     0
300
1/8" = 1'-0"
140
0.125
141
12.0
290
     0
  0
SCALE
  5
53
102
{ACAD_REACTORS
330
3B
102
}
330
3B
100
AcDbScale
 70
     0
300
3/16" = 1'-0"
140
0.1875
141
12.0
290
     0
  0
SCALE
  5
54
102
{ACAD_REACTORS
330
3B
102
}
330
3B
100
AcDbScale
 70
     0
300
1/4" = 1'-0"
140
0.25
141
12.0
290
     0
  0
SCALE
  5
55
102
{ACAD_REACTORS
330
3B
102
}
330
3B
100
AcDbScale
 70
     0
300
3/8" = 1'-0"
140
0.375
141
12.0
290
     0
  0
SCALE
  5
56
102
{ACAD_REACTORS
330
3B
102
}
330
3B
100
AcDbScale
 70
     0
300
1/2" = 1'-0"
140
0.5
141
12.0
290
     0
  0
SCALE
  5
57
102
{ACAD_REACTORS
330
3B
102
}
330
3B
100
AcDbScale
 70
     0
300
3/4" = 1'-0"
140
0.75
141
12.0
290
     0
  0
SCALE
  5
58
102
{ACAD_REACTORS
330
3B
102
}
330
3B
100
AcDbScale
 70
     0
300
1" = 1'-0"
140
1.0
141
12.0
290
     0
  0
SCALE
  5
59
102
{ACAD_REACTORS
330
3B
102
}
330
3B
100
AcDbScale
 70
     0
300
1-1/2" = 1'-0"
140
1.5
141
12.0
290
     0
  0
SCALE
  5
5A
102
{ACAD_REACTORS
330
3B
102
}
330
3B
100
AcDbScale
 70
     0
300
3" = 1'-0"
140
3.0
141
12.0
290
     0
  0
SCALE
  5
5B
102
{ACAD_REACTORS
330
3B
102
}
330
3B
100
AcDbScale
 70
     0
300
6" = 1'-0"
140
6.0
141
12.0
290
     0
  0
SCALE
  5
5C
102
{ACAD_REACTORS
330
3B
102
}
330
3B
100
AcDbScale
 70
     0
300
1'-0" = 1'-0"
140
12.0
141
12.0
290
     0
  0
VISUALSTYLE
  5
2F
102
{ACAD_REACTORS
330
2A
102
}
330
2A
100
AcDbVisualStyle
  2
2dWireframe
 70
     4
 71
     0
 72
     2
 73
     0
 90
        0
 40
-0.6
 41
-30.0
 62
     5
 63
     7
 74
     1
 91
        4
 64
     7
 65
   257
 75
     1
175
     1
 42
1.0
 92
        0
 66
   257
 43
1.0
 76
     1
 77
     6
 78
     2
 67
     7
 79
     5
170
     0
171
     0
290
     0
174
     0
 93
        1
 44
0.0
173
     0
291
     0
 45
0.0
1001
ACAD
1000
AcDbSavedByObjectVersion
1070
     0
  0
VISUALSTYLE
  5
31
102
{ACAD_REACTORS
330
2A
102
}
330
2A
100
AcDbVisualStyle
  2
3D Hidden
 70
     6
 71
     1
 72
     2
 73
     2
 90
        0
 40
-0.6
 41
-30.0
 62
     5
 63
     7
 74
     2
 91
        2
 64
     7
 65
   257
 75
     2
175
     1
 42
40.0
 92
        0
 66
   257
 43
1.0
 76
     1
 77
     6
 78
     2
 67
     7
 79
     3
170
     0
171
     0
290
     0
174
     0
 93
        1
 44
0.0
173
     0
291
     0
 45
0.0
1001
ACAD
1000
AcDbSavedByObjectVersion
1070
     0
  0
VISUALSTYLE
  5
30
102
{ACAD_REACTORS
330
2A
102
}
330
2A
100
AcDbVisualStyle
  2
3dWireframe
 70
     5
 71
     0
 72
     2
 73
     0
 90
        0
 40
-0.6
 41
-30.0
 62
     5
 63
     7
 74
     1
 91
        4
 64
     7
 65
   257
 75
     1
175
     1
 42
1.0
 92
        0
 66
   257
 43
1.0
 76
     1
 77
     6
 78
     2
 67
     7
 79
     5
170
     0
171
     0
290
     0
174
     0
 93
        1
 44
0.0
173
     0
291
     0
 45
0.0
1001
ACAD
1000
AcDbSavedByObjectVersion
1070
     0
  0
VISUALSTYLE
  5
32
102
{ACAD_REACTORS
330
2A
102
}
330
2A
100
AcDbVisualStyle
  2
Basic
 70
     7
 71
     1
 72
     0
 73
     1
 90
        0
 40
-0.6
 41
-30.0
 62
     5
 63
     7
 74
     0
 91
        4
 64
     7
 65
   257
 75
     1
175
     1
 42
1.0
 92
        8
 66
     7
 43
1.0
 76
     1
 77
     6
 78
     2
 67
     7
 79
     5
170
     0
171
     0
290
     0
174
     0
 93
        1
 44
0.0
173
     0
291
     1
 45
0.0
1001
ACAD
1000
AcDbSavedByObjectVersion
1070
     0
  0
VISUALSTYLE
  5
36
102
{ACAD_REACTORS
330
2A
102
}
330
2A
100
AcDbVisualStyle
  2
Brighten
 70
    12
 71
     2
 72
     2
 73
     0
 90
        0
 40
-0.6
 41
-30.0
 62
     5
 63
     7
 74
     1
 91
        4
 64
     7
 65
   257
 75
     1
175
     1
 42
1.0
 92
        8
 66
     7
 43
1.0
 76
     1
 77
     6
 78
     2
 67
     7
 79
     5
170
     0
171
     0
290
     0
174
     0
 93
        1
 44
50.0
173
     0
291
     1
 45
0.0
1001
ACAD
1000
AcDbSavedByObjectVersion
1070
     0
  0
VISUALSTYLE
  5
3A
102
{ACAD_REACTORS
330
2A
102
}
330
2A
100
AcDbVisualStyle
  2
ColorChange
 70
    16
 71
     2
 72
     2
 73
     3
 90
        0
 40
-0.6
 41
-30.0
 62
     5
 63
     8
 74
     1
 91
        4
 64
     7
 65
   257
 75
     1
175
     1
 42
1.0
 92
        8
 66
     8
 43
1.0
 76
     1
 77
     6
 78
     2
 67
     7
 79
     5
170
     0
171
     0
290
     0
174
     0
 93
        1
 44
0.0
173
     0
291
     1
 45
0.0
1001
ACAD
1000
AcDbSavedByObjectVersion
1070
     0
  0
VISUALSTYLE
  5
34
102
{ACAD_REACTORS
330
2A
102
}
330
2A
100
AcDbVisualStyle
  2
Conceptual
 70
     9
 71
     3
 72
     2
 73
     0
 90
        0
 40
-0.6
 41
-30.0
 62
     5
 63
     7
 74
     2
 91
        2
 64
     7
 65
   257
 75
     1
175
     1
 42
40.0
 92
        8
 66
     7
 43
1.0
 76
     1
 77
     6
 78
     2
 67
     7
 79
     3
170
     0
171
     0
290
     0
174
     0
 93
        1
 44
0.0
173
     0
291
     0
 45
0.0
1001
ACAD
1000
AcDbSavedByObjectVersion
1070
     0
  0
VISUALSTYLE
  5
35
102
{ACAD_REACTORS
330
2A
102
}
330
2A
100
AcDbVisualStyle
  2
Dim
 70
    11
 71
     2
 72
     2
 73
     0
 90
        0
 40
-0.6
 41
-30.0
 62
     5
 63
     7
 74
     1
 91
        4
 64
     7
 65
   257
 75
     1
175
     1
 42
1.0
 92
        8
 66
     7
 43
1.0
 76
     1
 77
     6
 78
     2
 67
     7
 79
     5
170
     0
171
     0
290
     0
174
     0
 93
        1
 44
-50.0
173
     0
291
     1
 45
0.0
1001
ACAD
1000
AcDbSavedByObjectVersion
1070
     0
  0
VISUALSTYLE
  5
39
102
{ACAD_REACTORS
330
2A
102
}
330
2A
100
AcDbVisualStyle
  2
Facepattern
 70
    15
 71
     2
 72
     2
 73
     0
 90
        0
 40
-0.6
 41
-30.0
 62
     5
 63
     7
 74
     1
 91
        4
 64
     7
 65
   257
 75
     1
175
     1
 42
1.0
 92
        8
 66
     7
 43
1.0
 76
     1
 77
     6
 78
     2
 67
     7
 79
     5
170
     0
171
     0
290
     0
174
     0
 93
        1
 44
0.0
173
     0
291
     1
 45
0.0
1001
ACAD
1000
AcDbSavedByObjectVersion
1070
     0
  0
VISUALSTYLE
  5
2B
102
{ACAD_REACTORS
330
2A
102
}
330
2A
100
AcDbVisualStyle
  2
Flat
 70
     0
 71
     2
 72
     1
 73
     1
 90
        2
 40
-0.6
 41
30.0
 62
     5
 63
     7
 74
     0
 91
        4
 64
     7
 65
   257
 75
     1
175
     1
 42
1.0
 92
        8
 66
     7
 43
1.0
 76
     1
 77
     6
 78
     2
 67
     7
 79
     5
170
     0
171
     0
290
     0
174
     0
 93
       13
 44
0.0
173
     0
291
     1
 45
0.0
1001
ACAD
1000
AcDbSavedByObjectVersion
1070
     0
  0
VISUALSTYLE
  5
2C
102
{ACAD_REACTORS
330
2A
102
}
330
2A
100
AcDbVisualStyle
  2
FlatWithEdges
 70
     1
 71
     2
 72
     1
 73
     1
 90
        2
 40
-0.6
 41
30.0
 62
     5
 63
     7
 74
     1
 91
        4
 64
     7
 65
   257
 75
     1
175
     1
 42
1.0
 92
        0
 66
   257
 43
1.0
 76
     1
 77
     6
 78
     2
 67
     7
 79
     5
170
     0
171
     0
290
     0
174
     0
 93
       13
 44
0.0
173
     0
291
     1
 45
0.0
1001
ACAD
1000
AcDbSavedByObjectVersion
1070
     0
  0
VISUALSTYLE
  5
2D
102
{ACAD_REACTORS
330
2A
102
}
330
2A
100
AcDbVisualStyle
  2
Gouraud
 70
     2
 71
     2
 72
     2
 73
     1
 90
        2
 40
-0.6
 41
30.0
 62
     5
 63
     7
 74
     0
 91
        4
 64
     7
 65
   257
 75
     1
175
     1
 42
1.0
 92
        0
 66
     7
 43
1.0
 76
     1
 77
     6
 78
     2
 67
     7
 79
     5
170
     0
171
     0
290
     0
174
     0
 93
       13
 44
0.0
173
     0
291
     1
 45
0.0
1001
ACAD
1000
AcDbSavedByObjectVersion
1070
     0
  0
VISUALSTYLE
  5
2E
102
{ACAD_REACTORS
330
2A
102
}
330
2A
100
AcDbVisualStyle
  2
GouraudWithEdges
 70
     3
 71
     2
 72
     2
 73
     1
 90
        2
 40
-0.6
 41
30.0
 62
     5
 63
     7
 74
     1
 91
        4
 64
     7
 65
   257
 75
     1
175
     1
 42
1.0
 92
        0
 66
   257
 43
1.0
 76
     1
 77
     6
 78
     2
 67
     7
 79
     5
170
     0
171
     0
290
     0
174
     0
 93
       13
 44
0.0
173
     0
291
     1
 45
0.0
1001
ACAD
1000
AcDbSavedByObjectVersion
1070
     0
  0
VISUALSTYLE
  5
38
102
{ACAD_REACTORS
330
2A
102
}
330
2A
100
AcDbVisualStyle
  2
Linepattern
 70
    14
 71
     2
 72
     2
 73
     0
 90
        0
 40
-0.6
 41
-30.0
 62
     5
 63
     7
 74
     1
 91
        4
 64
     7
 65
   257
 75
     7
175
     7
 42
1.0
 92
        8
 66
     7
 43
1.0
 76
     1
 77
     6
 78
     2
 67
     7
 79
     5
170
     0
171
     0
290
     0
174
     0
 93
        1
 44
0.0
173
     0
291
     1
 45
0.0
1001
ACAD
1000
AcDbSavedByObjectVersion
1070
     0
  0
VISUALSTYLE
  5
33
102
{ACAD_REACTORS
330
2A
102
}
330
2A
100
AcDbVisualStyle
  2
Realistic
 70
     8
 71
     2
 72
     2
 73
     0
 90
        0
 40
-0.6
 41
-30.0
 62
     5
 63
     7
 74
     1
 91
        0
 64
     7
 65
   257
 75
     1
175
     1
 42
1.0
 92
        8
 66
     8
 43
1.0
 76
     1
 77
     6
 78
     2
 67
     7
 79
     5
170
     0
171
     0
290
     0
174
     0
 93
       13
 44
0.0
173
     0
291
     0
 45
0.0
1001
ACAD
1000
AcDbSavedByObjectVersion
1070
     0
  0
VISUALSTYLE
  5
37
102
{ACAD_REACTORS
330
2A
102
}
330
2A
100
AcDbVisualStyle
  2
Thicken
 70
    13
 71
     2
 72
     2
 73
     0
 90
        0
 40
-0.6
 41
-30.0
 62
     5
 63
     7
 74
     1
 91
        4
 64
     7
 65
   257
 75
     1
175
     1
 42
1.0
 92
       12
 66
     7
 43
1.0
 76
     1
 77
     6
 78
     2
 67
     7
 79
     5
170
     0
171
     0
290
     0
174
     0
 93
        1
 44
0.0
173
     0
291
     1
 45
0.0
1001
ACAD
1000
AcDbSavedByObjectVersion
1070
     0
  0
DICTIONARYVAR
  5
35F
102
{ACAD_REACTORS
330
35E
102
}
330
35E
100
DictionaryVariables
280
     0
  1
1:1
  0
DICTIONARYVAR
  5
363
102
{ACAD_REACTORS
330
35E
102
}
330
35E
100
DictionaryVariables
280
     0
  1
80.000000
  0
DICTIONARYVAR
  5
362
102
{ACAD_REACTORS
330
35E
102
}
330
35E
100
DictionaryVariables
280
     0
  1
5.000000
  0
ENDSEC
  0
EOF
