  0
SECTION
  2
HEADER
  9
$ACADVER
  1
AC1015
  9
$ACADMAINTVER
 70
     6
  9
$DWGCODEPAGE
  3
ANSI_1252
  9
$INSBASE
 10
0.0
 20
0.0
 30
0.0
  9
$EXTMIN
 10
0.0
 20
0.0
 30
0.0
  9
$EXTMAX
 10
297.0
 20
210.0
 30
0.0
  9
$LIMMIN
 10
0.0
 20
0.0
  9
$LIMMAX
 10
297.0
 20
210.0
  9
$ORTHOMODE
 70
     0
  9
$REGENMODE
 70
     1
  9
$FILLMODE
 70
     1
  9
$QTEXTMODE
 70
     0
  9
$MIRRTEXT
 70
     1
  9
$LTSCALE
 40
1.0
  9
$ATTMODE
 70
     1
  9
$TEXTSIZE
 40
2.0
  9
$TRACEWID
 40
1.0
  9
$TEXTSTYLE
  7
Standard
  9
$CLAYER
  8
0
  9
$CELTYPE
  6
ByLayer
  9
$CECOLOR
 62
   256
  9
$CELTSCALE
 40
1.0
  9
$DISPSILH
 70
     0
  9
$DIMSCALE
 40
1.0
  9
$DIMASZ
 40
3.0
  9
$DIMEXO
 40
0.0
  9
$DIMDLI
 40
3.75
  9
$DIMRND
 40
0.0
  9
$DIMDLE
 40
0.0
  9
$DIMEXE
 40
1.0
  9
$DIMTP
 40
0.0
  9
$DIMTM
 40
0.0
  9
$DIMTXT
 40
2.0
  9
$DIMCEN
 40
2.5
  9
$DIMTSZ
 40
0.0
  9
$DIMTOL
 70
     0
  9
$DIMLIM
 70
     0
  9
$DIMTIH
 70
     1
  9
$DIMTOH
 70
     1
  9
$DIMSE1
 70
     0
  9
$DIMSE2
 70
     0
  9
$DIMTAD
 70
     1
  9
$DIMZIN
 70
     0
  9
$DIMBLK
  1

  9
$DIMASO
 70
     1
  9
$DIMSHO
 70
     1
  9
$DIMPOST
  1

  9
$DIMAPOST
  1

  9
$DIMALT
 70
     0
  9
$DIMALTD
 70
     3
  9
$DIMALTF
 40
0.0393700787
  9
$DIMLFAC
 40
1.0
  9
$DIMTOFL
 70
     1
  9
$DIMTVP
 40
0.0
  9
$DIMTIX
 70
     0
  9
$DIMSOXD
 70
     0
  9
$DIMSAH
 70
     0
  9
$DIMBLK1
  1

  9
$DIMBLK2
  1

  9
$DIMSTYLE
  2
ISO-25
  9
$DIMCLRD
 70
     0
  9
$DIMCLRE
 70
     0
  9
$DIMCLRT
 70
     0
  9
$DIMTFAC
 40
1.0
  9
$DIMGAP
 40
1.524
  9
$DIMJUST
 70
     0
  9
$DIMSD1
 70
     0
  9
$DIMSD2
 70
     0
  9
$DIMTOLJ
 70
     0
  9
$DIMTZIN
 70
     0
  9
$DIMALTZ
 70
     0
  9
$DIMALTTZ
 70
     0
  9
$DIMUPT
 70
     0
  9
$DIMDEC
 70
     2
  9
$DIMTDEC
 70
     3
  9
$DIMALTU
 70
     2
  9
$DIMALTTD
 70
     3
  9
$DIMTXSTY
  7
Standard
  9
$DIMAUNIT
 70
     0
  9
$DIMADEC
 70
     2
  9
$DIMALTRND
 40
0.0
  9
$DIMAZIN
 70
     0
  9
$DIMDSEP
 70
    44
  9
$DIMATFIT
 70
     3
  9
$DIMFRAC
 70
     0
  9
$DIMLDRBLK
  1

  9
$DIMLUNIT
 70
     2
  9
$DIMLWD
 70
    -2
  9
$DIMLWE
 70
    -2
  9
$DIMTMOVE
 70
     0
  9
$LUNITS
 70
     2
  9
$LUPREC
 70
     2
  9
$SKETCHINC
 40
1.0
  9
$FILLETRAD
 40
10.0
  9
$AUNITS
 70
     0
  9
$AUPREC
 70
     2
  9
$MENU
  1
.
  9
$ELEVATION
 40
0.0
  9
$PELEVATION
 40
0.0
  9
$THICKNESS
 40
0.0
  9
$LIMCHECK
 70
     0
  9
$CHAMFERA
 40
10.0
  9
$CHAMFERB
 40
10.0
  9
$CHAMFERC
 40
20.0
  9
$CHAMFERD
 40
0.0
  9
$SKPOLY
 70
     0
  9
$TDCREATE
 40
2455629.476561111
  9
$TDUCREATE
 40
2455629.434894444
  9
$TDUPDATE
 40
2455629.476561123
  9
$TDUUPDATE
 40
2455629.434894456
  9
$TDINDWG
 40
0.0000000116
  9
$TDUSRTIMER
 40
0.0000000116
  9
$USRTIMER
 70
     1
  9
$ANGBASE
 50
0.0
  9
$ANGDIR
 70
     0
  9
$PDMODE
 70
     0
  9
$PDSIZE
 40
-1.0
  9
$PLINEWID
 40
0.0
  9
$SPLFRAME
 70
     0
  9
$SPLINETYPE
 70
     6
  9
$SPLINESEGS
 70
     8
  9
$HANDSEED
  5
2F1
  9
$SURFTAB1
 70
     6
  9
$SURFTAB2
 70
     6
  9
$SURFTYPE
 70
     6
  9
$SURFU
 70
     6
  9
$SURFV
 70
     6
  9
$UCSBASE
  2

  9
$UCSNAME
  2

  9
$UCSORG
 10
0.0
 20
0.0
 30
0.0
  9
$UCSXDIR
 10
1.0
 20
0.0
 30
0.0
  9
$UCSYDIR
 10
0.0
 20
1.0
 30
0.0
  9
$UCSORTHOREF
  2

  9
$UCSORTHOVIEW
 70
     0
  9
$UCSORGTOP
 10
0.0
 20
0.0
 30
0.0
  9
$UCSORGBOTTOM
 10
0.0
 20
0.0
 30
0.0
  9
$UCSORGLEFT
 10
0.0
 20
0.0
 30
0.0
  9
$UCSORGRIGHT
 10
0.0
 20
0.0
 30
0.0
  9
$UCSORGFRONT
 10
0.0
 20
0.0
 30
0.0
  9
$UCSORGBACK
 10
0.0
 20
0.0
 30
0.0
  9
$PUCSBASE
  2

  9
$PUCSNAME
  2

  9
$PUCSORG
 10
0.0
 20
0.0
 30
0.0
  9
$PUCSXDIR
 10
1.0
 20
0.0
 30
0.0
  9
$PUCSYDIR
 10
0.0
 20
1.0
 30
0.0
  9
$PUCSORTHOREF
  2

  9
$PUCSORTHOVIEW
 70
     0
  9
$PUCSORGTOP
 10
0.0
 20
0.0
 30
0.0
  9
$PUCSORGBOTTOM
 10
0.0
 20
0.0
 30
0.0
  9
$PUCSORGLEFT
 10
0.0
 20
0.0
 30
0.0
  9
$PUCSORGRIGHT
 10
0.0
 20
0.0
 30
0.0
  9
$PUCSORGFRONT
 10
0.0
 20
0.0
 30
0.0
  9
$PUCSORGBACK
 10
0.0
 20
0.0
 30
0.0
  9
$USERI1
 70
     0
  9
$USERI2
 70
     0
  9
$USERI3
 70
     0
  9
$USERI4
 70
     0
  9
$USERI5
 70
     0
  9
$USERR1
 40
0.0
  9
$USERR2
 40
0.0
  9
$USERR3
 40
0.0
  9
$USERR4
 40
0.0
  9
$USERR5
 40
0.0
  9
$WORLDVIEW
 70
     1
  9
$SHADEDGE
 70
     3
  9
$SHADEDIF
 70
    70
  9
$TILEMODE
 70
     1
  9
$MAXACTVP
 70
    64
  9
$PINSBASE
 10
0.0
 20
0.0
 30
0.0
  9
$PLIMCHECK
 70
     0
  9
$PEXTMIN
 10
1.0000000000E+20
 20
1.0000000000E+20
 30
1.0000000000E+20
  9
$PEXTMAX
 10
-1.0000000000E+20
 20
-1.0000000000E+20
 30
-1.0000000000E+20
  9
$PLIMMIN
 10
0.0
 20
0.0
  9
$PLIMMAX
 10
420.0
 20
297.0
  9
$UNITMODE
 70
     0
  9
$VISRETAIN
 70
     1
  9
$PLINEGEN
 70
     0
  9
$PSLTSCALE
 70
     1
  9
$TREEDEPTH
 70
  3020
  9
$CMLSTYLE
  2
Standard
  9
$CMLJUST
 70
     0
  9
$CMLSCALE
 40
20.0
  9
$PROXYGRAPHICS
 70
     1
  9
$MEASUREMENT
 70
     1
  9
$CELWEIGHT
370
    -1
  9
$ENDCAPS
280
     0
  9
$JOINSTYLE
280
     0
  9
$LWDISPLAY
290
     1
  9
$INSUNITS
 70
     4
  9
$HYPERLINKBASE
  1

  9
$STYLESHEET
  1

  9
$XEDIT
290
     1
  9
$CEPSNTYPE
380
     0
  9
$PSTYLEMODE
290
     1
  9
$FINGERPRINTGUID
  2
{C4CEDFA6-BE2F-4654-A1C3-1804C3423233}
  9
$VERSIONGUID
  2
{FAEB1C32-E019-11D5-929B-00C0DF256EC4}
  9
$EXTNAMES
290
     1
  9
$PSVPSCALE
 40
0.0
  9
$OLESTARTUP
290
     0
  0
ENDSEC
  0
SECTION
  2
CLASSES
  0
CLASS
  1
ACDBDICTIONARYWDFLT
  2
AcDbDictionaryWithDefault
  3
ObjectDBX Classes
 90
        0
280
     0
281
     0
  0
CLASS
  1
VISUALSTYLE
  2
AcDbVisualStyle
  3
ObjectDBX Classes
 90
     4095
280
     0
281
     0
  0
CLASS
  1
DICTIONARYVAR
  2
AcDbDictionaryVar
  3
ObjectDBX Classes
 90
        0
280
     0
281
     0
  0
CLASS
  1
ACDBPLACEHOLDER
  2
AcDbPlaceHolder
  3
ObjectDBX Classes
 90
        0
280
     0
281
     0
  0
CLASS
  1
LAYOUT
  2
AcDbLayout
  3
ObjectDBX Classes
 90
        0
280
     0
281
     0
  0
ENDSEC
  0
SECTION
  2
TABLES
  0
TABLE
  2
VPORT
  5
8
330
0
100
AcDbSymbolTable
 70
     1
  0
VPORT
  5
29
330
8
100
AcDbSymbolTableRecord
100
AcDbViewportTableRecord
  2
*Active
 70
     0
 10
0.0
 20
0.0
 11
1.0
 21
1.0
 12
148.5
 22
105.0
 13
0.0
 23
0.0
 14
10.0
 24
10.0
 15
10.0
 25
10.0
 16
0.0
 26
0.0
 36
1.0
 17
0.0
 27
0.0
 37
0.0
 40
210.0
 41
1.4142857143
 42
50.0
 43
0.0
 44
0.0
 50
0.0
 51
0.0
 71
     0
 72
  2000
 73
     1
 74
     3
 75
     0
 76
     0
 77
     0
 78
     0
281
     0
 65
     1
110
0.0
120
0.0
130
0.0
111
1.0
121
0.0
131
0.0
112
0.0
122
1.0
132
0.0
 79
     0
146
0.0
  0
ENDTAB
  0
TABLE
  2
LTYPE
  5
5
330
0
100
AcDbSymbolTable
 70
     6
  0
LTYPE
  5
14
330
5
100
AcDbSymbolTableRecord
100
AcDbLinetypeTableRecord
  2
ByBlock
 70
     0
  3

 72
    65
 73
     0
 40
0.0
  0
LTYPE
  5
15
330
5
100
AcDbSymbolTableRecord
100
AcDbLinetypeTableRecord
  2
ByLayer
 70
     0
  3

 72
    65
 73
     0
 40
0.0
  0
LTYPE
  5
16
330
5
100
AcDbSymbolTableRecord
100
AcDbLinetypeTableRecord
  2
Continuous
 70
     0
  3
Solid line
 72
    65
 73
     0
 40
0.0
  0
LTYPE
  5
3B
330
5
100
AcDbSymbolTableRecord
100
AcDbLinetypeTableRecord
  2
HIDDEN
 70
     0
  3
Hidden __ __ __ __ __ __ __ __ __ __ __ __ __ __
 72
    65
 73
     2
 40
1.905
 49
1.27
 74
     0
 49
-0.635
 74
     0
  0
LTYPE
  5
3C
330
5
100
AcDbSymbolTableRecord
100
AcDbLinetypeTableRecord
  2
PHANTOM
 70
     0
  3
Phantom ______  __  __  ______  __  __  ______
 72
    65
 73
     6
 40
12.7
 49
6.35
 74
     0
 49
-1.27
 74
     0
 49
1.27
 74
     0
 49
-1.27
 74
     0
 49
1.27
 74
     0
 49
-1.27
 74
     0
  0
LTYPE
  5
3D
330
5
100
AcDbSymbolTableRecord
100
AcDbLinetypeTableRecord
  2
CENTER
 70
     0
  3
Center ____ _ ____ _ ____ _ ____ _ ____ _ ____
 72
    65
 73
     4
 40
10.16
 49
6.35
 74
     0
 49
-1.27
 74
     0
 49
1.27
 74
     0
 49
-1.27
 74
     0
  0
LTYPE
  5
3E
330
5
100
AcDbSymbolTableRecord
100
AcDbLinetypeTableRecord
  2
CENTERX2
 70
     0
  3
Center (2x) ________  __  ________  __  _____
 72
    65
 73
     4
 40
20.32
 49
12.7
 74
     0
 49
-2.54
 74
     0
 49
2.54
 74
     0
 49
-2.54
 74
     0
  0
LTYPE
  5
3F
330
5
100
AcDbSymbolTableRecord
100
AcDbLinetypeTableRecord
  2
DOT2
 70
     0
  3
Dot (.5x) ........................................
 72
    65
 73
     2
 40
0.635
 49
0.0
 74
     0
 49
-0.635
 74
     0
  0
ENDTAB
  0
TABLE
  2
LAYER
  5
2
330
0
100
AcDbSymbolTable
 70
     5
  0
LAYER
  5
10
330
2
100
AcDbSymbolTableRecord
100
AcDbLayerTableRecord
  2
0
 70
     0
 62
     7
  6
Continuous
370
    -3
390
F
  0
LAYER
  5
40
330
2
100
AcDbSymbolTableRecord
100
AcDbLayerTableRecord
  2
FORMAT
 70
     0
 62
     7
  6
Continuous
370
    -3
390
F
  0
LAYER
  5
41
330
2
100
AcDbSymbolTableRecord
100
AcDbLayerTableRecord
  2
VERMASSUNG
 70
     0
 62
     7
  6
Continuous
370
    -3
390
F
  0
LAYER
  5
42
330
2
100
AcDbSymbolTableRecord
100
AcDbLayerTableRecord
  2
KOPF_DÜNN
 70
     0
 62
     7
  6
Continuous
370
    -3
390
F
  0
LAYER
  5
43
330
2
100
AcDbSymbolTableRecord
100
AcDbLayerTableRecord
  2
KOPF_DICK
 70
     0
 62
     7
  6
Continuous
370
    15
390
F
  0
ENDTAB
  0
TABLE
  2
STYLE
  5
3
330
0
100
AcDbSymbolTable
 70
     3
  0
STYLE
  5
11
330
3
100
AcDbSymbolTableRecord
100
AcDbTextStyleTableRecord
  2
Standard
 70
     0
 40
0.0
 41
1.0
 50
0.0
 71
     0
 42
2.5
  3
txt
  4

  0
STYLE
  5
44
330
3
100
AcDbSymbolTableRecord
100
AcDbTextStyleTableRecord
  2
SLDTEXTSTYLE0
 70
     0
 40
0.0
 41
0.7
 50
0.0
 71
     0
 42
0.2
  3
TXT
  4

  0
STYLE
  5
48
330
3
100
AcDbSymbolTableRecord
100
AcDbTextStyleTableRecord
  2
SLDTEXTSTYLE1
 70
     0
 40
0.0
 41
0.6473684211
 50
0.0
 71
     0
 42
0.2
  3
TXT
  4

  0
ENDTAB
  0
TABLE
  2
VIEW
  5
6
330
0
100
AcDbSymbolTable
 70
     0
  0
ENDTAB
  0
TABLE
  2
UCS
  5
7
330
0
100
AcDbSymbolTable
 70
     0
  0
ENDTAB
  0
TABLE
  2
APPID
  5
9
330
0
100
AcDbSymbolTable
 70
     1
  0
APPID
  5
12
330
9
100
AcDbSymbolTableRecord
100
AcDbRegAppTableRecord
  2
ACAD
 70
     0
  0
ENDTAB
  0
TABLE
  2
DIMSTYLE
  5
A
330
0
100
AcDbSymbolTable
 70
     2
100
AcDbDimStyleTable
  0
DIMSTYLE
105
27
330
A
100
AcDbSymbolTableRecord
100
AcDbDimStyleTableRecord
  2
ISO-25
 70
     0
 41
2.5
 42
0.625
 43
3.75
 44
1.25
 73
     0
 74
     0
 77
     1
 78
     8
140
2.5
141
2.5
143
0.0393700787
147
0.625
171
     3
172
     1
271
     2
272
     2
274
     3
278
    44
283
     0
284
     8
340
11
  0
DIMSTYLE
105
29F
102
{ACAD_REACTORS
330
29E
330
2AB
330
2B6
330
2C1
330
2CB
330
2D5
330
2DF
102
}
330
A
100
AcDbSymbolTableRecord
100
AcDbDimStyleTableRecord
  2
SLDDIMSTYLE0
 70
     0
 41
3.0
 44
0.0
 45
0.000000001
 73
     0
 74
     0
 77
     1
 78
    12
140
2.0
147
0.5
173
     1
271
     2
272
     3
284
    12
340
44
  0
ENDTAB
  0
TABLE
  2
BLOCK_RECORD
  5
1
330
0
100
AcDbSymbolTable
 70
     8
  0
BLOCK_RECORD
  5
1F
330
1
100
AcDbSymbolTableRecord
100
AcDbBlockTableRecord
  2
*Model_Space
340
22
  0
BLOCK_RECORD
  5
1B
330
1
100
AcDbSymbolTableRecord
100
AcDbBlockTableRecord
  2
*Paper_Space
340
1E
  0
BLOCK_RECORD
  5
23
330
1
100
AcDbSymbolTableRecord
100
AcDbBlockTableRecord
  2
*Paper_Space0
340
26
  0
BLOCK_RECORD
  5
2A0
330
1
100
AcDbSymbolTableRecord
100
AcDbBlockTableRecord
  2
*D1
340
0
  0
BLOCK_RECORD
  5
2AC
330
1
100
AcDbSymbolTableRecord
100
AcDbBlockTableRecord
  2
*D2
340
0
  0
BLOCK_RECORD
  5
2B7
330
1
100
AcDbSymbolTableRecord
100
AcDbBlockTableRecord
  2
*D3
340
0
  0
BLOCK_RECORD
  5
2C2
330
1
100
AcDbSymbolTableRecord
100
AcDbBlockTableRecord
  2
*D4
340
0
  0
BLOCK_RECORD
  5
2CC
330
1
100
AcDbSymbolTableRecord
100
AcDbBlockTableRecord
  2
*D5
340
0
  0
BLOCK_RECORD
  5
2D6
330
1
100
AcDbSymbolTableRecord
100
AcDbBlockTableRecord
  2
*D6
340
0
  0
BLOCK_RECORD
  5
2E0
330
1
100
AcDbSymbolTableRecord
100
AcDbBlockTableRecord
  2
*D7
340
0
  0
ENDTAB
  0
ENDSEC
  0
SECTION
  2
BLOCKS
  0
BLOCK
  5
20
330
1F
100
AcDbEntity
  8
0
100
AcDbBlockBegin
  2
*Model_Space
 70
     0
 10
0.0
 20
0.0
 30
0.0
  3
*Model_Space
  1

  0
ENDBLK
  5
21
330
1F
100
AcDbEntity
  8
0
100
AcDbBlockEnd
  0
BLOCK
  5
1C
330
1B
100
AcDbEntity
 67
     1
  8
0
100
AcDbBlockBegin
  2
*Paper_Space
 70
     0
 10
0.0
 20
0.0
 30
0.0
  3
*Paper_Space
  1

  0
ENDBLK
  5
1D
330
1B
100
AcDbEntity
 67
     1
  8
0
100
AcDbBlockEnd
  0
BLOCK
  5
24
330
23
100
AcDbEntity
  8
0
100
AcDbBlockBegin
  2
*Paper_Space0
 70
     0
 10
0.0
 20
0.0
 30
0.0
  3
*Paper_Space0
  1

  0
ENDBLK
  5
25
330
23
100
AcDbEntity
  8
0
100
AcDbBlockEnd
  0
BLOCK
  5
2A1
330
2A0
100
AcDbEntity
  8
0
100
AcDbBlockBegin
  2
*D1
 70
     1
 10
0.0
 20
0.0
 30
0.0
  3
*D1
  1

  0
SOLID
  5
2A3
330
2A0
100
AcDbEntity
  8
VERMASSUNG
100
AcDbTrace
 10
39.437202433
 20
144.5866940452
 30
0.0
 11
38.987202433
 21
141.5866940452
 31
0.0
 12
39.887202433
 22
141.5866940452
 32
0.0
 13
39.887202433
 23
141.5866940452
 33
0.0
  0
SOLID
  5
2A4
330
2A0
100
AcDbEntity
  8
VERMASSUNG
100
AcDbTrace
 10
39.437202433
 20
81.5866940452
 30
0.0
 11
39.887202433
 21
84.5866940452
 31
0.0
 12
38.987202433
 22
84.5866940452
 32
0.0
 13
38.987202433
 23
84.5866940452
 33
0.0
  0
LINE
  5
2A5
330
2A0
100
AcDbEntity
  8
VERMASSUNG
100
AcDbLine
 10
78.6021180403
 20
144.5866940452
 30
0.0
 11
38.437202433
 21
144.5866940452
 31
0.0
  0
LINE
  5
2A6
330
2A0
100
AcDbEntity
  8
VERMASSUNG
100
AcDbLine
 10
78.6021180403
 20
81.5866940452
 30
0.0
 11
38.437202433
 21
81.5866940452
 31
0.0
  0
LINE
  5
2A7
330
2A0
100
AcDbEntity
  8
VERMASSUNG
100
AcDbLine
 10
39.437202433
 20
144.5866940452
 30
0.0
 11
39.437202433
 21
81.5866940452
 31
0.0
  0
MTEXT
  5
2A8
330
2A0
100
AcDbEntity
  8
VERMASSUNG
100
AcDbMText
 10
36.659066944
 20
104.8991869571
 30
0.0
 40
2.0
 41
0.0
 71
     1
 72
     1
  1
HSK A 
  7
SLDTEXTSTYLE0
 11
-7.044195017643634E-15
 21
1.0
 31
0.0
 73
     1
 44
1.0
  0
MTEXT
  5
2A9
330
2A0
100
AcDbEntity
  8
VERMASSUNG
100
AcDbMText
 10
36.8590669535
 20
113.899187501
 30
0.0
 40
2.0
 41
0.0
 71
     1
 72
     1
  1
%%c
  7
SLDTEXTSTYLE0
 11
-7.044195017643634E-15
 21
1.0
 31
0.0
 73
     1
 44
1.0
  0
MTEXT
  5
2AA
330
2A0
100
AcDbEntity
  8
VERMASSUNG
100
AcDbMText
 10
36.8590670699
 20
117.5075157462
 30
0.0
 40
2.0
 41
0.0
 71
     1
 72
     1
  1
63
  7
SLDTEXTSTYLE0
 11
-7.044195017643634E-15
 21
1.0
 31
0.0
 73
     1
 44
1.0
  0
ENDBLK
  5
2A2
330
2A0
100
AcDbEntity
  8
0
100
AcDbBlockEnd
  0
BLOCK
  5
2AD
330
2AC
100
AcDbEntity
  8
0
100
AcDbBlockBegin
  2
*D2
 70
     1
 10
0.0
 20
0.0
 30
0.0
  3
*D2
  1

  0
SOLID
  5
2AF
330
2AC
100
AcDbEntity
  8
VERMASSUNG
100
AcDbTrace
 10
249.2693851394
 20
128.5866940452
 30
0.0
 11
248.8193851394
 21
125.5866940452
 31
0.0
 12
249.7193851394
 22
125.5866940452
 32
0.0
 13
249.7193851394
 23
125.5866940452
 33
0.0
  0
SOLID
  5
2B0
330
2AC
100
AcDbEntity
  8
VERMASSUNG
100
AcDbTrace
 10
249.2693851394
 20
97.5866940452
 30
0.0
 11
249.7193851394
 21
100.5866940452
 31
0.0
 12
248.8193851394
 22
100.5866940452
 32
0.0
 13
248.8193851394
 23
100.5866940452
 33
0.0
  0
LINE
  5
2B1
330
2AC
100
AcDbEntity
  8
VERMASSUNG
100
AcDbLine
 10
237.5021180403
 20
128.5866940452
 30
0.0
 11
250.2693851394
 21
128.5866940452
 31
0.0
  0
LINE
  5
2B2
330
2AC
100
AcDbEntity
  8
VERMASSUNG
100
AcDbLine
 10
237.5021180403
 20
97.5866940452
 30
0.0
 11
250.2693851394
 21
97.5866940452
 31
0.0
  0
LINE
  5
2B3
330
2AC
100
AcDbEntity
  8
VERMASSUNG
100
AcDbLine
 10
249.2693851394
 20
128.5866940452
 30
0.0
 11
249.2693851394
 21
97.5866940452
 31
0.0
  0
MTEXT
  5
2B4
330
2AC
100
AcDbEntity
  8
VERMASSUNG
100
AcDbMText
 10
246.6912496598
 20
110.0840169
 30
0.0
 40
2.0
 41
0.0
 71
     1
 72
     1
  1
%%c
  7
SLDTEXTSTYLE0
 11
-7.044195017643634E-15
 21
1.0
 31
0.0
 73
     1
 44
1.0
  0
MTEXT
  5
2B5
330
2AC
100
AcDbEntity
  8
VERMASSUNG
100
AcDbMText
 10
246.6912497763
 20
113.691602305
 30
0.0
 40
2.0
 41
0.0
 71
     1
 72
     1
  1
31
  7
SLDTEXTSTYLE0
 11
-7.044195017643634E-15
 21
1.0
 31
0.0
 73
     1
 44
1.0
  0
ENDBLK
  5
2AE
330
2AC
100
AcDbEntity
  8
0
100
AcDbBlockEnd
  0
BLOCK
  5
2B8
330
2B7
100
AcDbEntity
  8
0
100
AcDbBlockBegin
  2
*D3
 70
     1
 10
0.0
 20
0.0
 30
0.0
  3
*D3
  1

  0
SOLID
  5
2BA
330
2B7
100
AcDbEntity
  8
VERMASSUNG
100
AcDbTrace
 10
255.2693851394
 20
138.0866940452
 30
0.0
 11
254.8193851394
 21
135.0866940452
 31
0.0
 12
255.7193851394
 22
135.0866940452
 32
0.0
 13
255.7193851394
 23
135.0866940452
 33
0.0
  0
SOLID
  5
2BB
330
2B7
100
AcDbEntity
  8
VERMASSUNG
100
AcDbTrace
 10
255.2693851394
 20
88.0866940452
 30
0.0
 11
255.7193851394
 21
91.0866940452
 31
0.0
 12
254.8193851394
 22
91.0866940452
 32
0.0
 13
254.8193851394
 23
91.0866940452
 33
0.0
  0
LINE
  5
2BC
330
2B7
100
AcDbEntity
  8
VERMASSUNG
100
AcDbLine
 10
236.9521180403
 20
138.0866940452
 30
0.0
 11
256.2693851394
 21
138.0866940452
 31
0.0
  0
LINE
  5
2BD
330
2B7
100
AcDbEntity
  8
VERMASSUNG
100
AcDbLine
 10
236.9521180403
 20
88.0866940452
 30
0.0
 11
256.2693851394
 21
88.0866940452
 31
0.0
  0
LINE
  5
2BE
330
2B7
100
AcDbEntity
  8
VERMASSUNG
100
AcDbLine
 10
255.2693851394
 20
138.0866940452
 30
0.0
 11
255.2693851394
 21
88.0866940452
 31
0.0
  0
MTEXT
  5
2BF
330
2B7
100
AcDbEntity
  8
VERMASSUNG
100
AcDbMText
 10
252.6912496598
 20
109.8835954886
 30
0.0
 40
2.0
 41
0.0
 71
     1
 72
     1
  1
%%c
  7
SLDTEXTSTYLE0
 11
-7.044195017643634E-15
 21
1.0
 31
0.0
 73
     1
 44
1.0
  0
MTEXT
  5
2C0
330
2B7
100
AcDbEntity
  8
VERMASSUNG
100
AcDbMText
 10
252.6912497763
 20
113.4911808936
 30
0.0
 40
2.0
 41
0.0
 71
     1
 72
     1
  1
50
  7
SLDTEXTSTYLE0
 11
-7.044195017643634E-15
 21
1.0
 31
0.0
 73
     1
 44
1.0
  0
ENDBLK
  5
2B9
330
2B7
100
AcDbEntity
  8
0
100
AcDbBlockEnd
  0
BLOCK
  5
2C3
330
2C2
100
AcDbEntity
  8
0
100
AcDbBlockBegin
  2
*D4
 70
     1
 10
0.0
 20
0.0
 30
0.0
  3
*D4
  1

  0
SOLID
  5
2C5
330
2C2
100
AcDbEntity
  8
VERMASSUNG
100
AcDbTrace
 10
46.4021180403
 20
163.5046080554
 30
0.0
 11
49.4021180403
 21
163.0546080554
 31
0.0
 12
49.4021180403
 22
163.9546080554
 32
0.0
 13
49.4021180403
 23
163.9546080554
 33
0.0
  0
SOLID
  5
2C6
330
2C2
100
AcDbEntity
  8
VERMASSUNG
100
AcDbTrace
 10
238.3021180403
 20
163.5046080554
 30
0.0
 11
235.3021180403
 21
163.9546080554
 31
0.0
 12
235.3021180403
 22
163.0546080554
 32
0.0
 13
235.3021180403
 23
163.0546080554
 33
0.0
  0
LINE
  5
2C7
330
2C2
100
AcDbEntity
  8
VERMASSUNG
100
AcDbLine
 10
46.4021180403
 20
132.7773717917
 30
0.0
 11
46.4021180403
 21
164.5046080554
 31
0.0
  0
LINE
  5
2C8
330
2C2
100
AcDbEntity
  8
VERMASSUNG
100
AcDbLine
 10
238.3021180403
 20
132.2866940452
 30
0.0
 11
238.3021180403
 21
164.5046080554
 31
0.0
  0
LINE
  5
2C9
330
2C2
100
AcDbEntity
  8
VERMASSUNG
100
AcDbLine
 10
46.4021180403
 20
163.5046080554
 30
0.0
 11
238.3021180403
 21
163.5046080554
 31
0.0
  0
MTEXT
  5
2CA
330
2C2
100
AcDbEntity
  8
VERMASSUNG
100
AcDbMText
 10
137.271351381
 20
166.0827434185
 30
0.0
 40
2.0
 41
0.0
 71
     1
 72
     1
  1
191.9
  7
SLDTEXTSTYLE0
 73
     1
 44
1.0
  0
ENDBLK
  5
2C4
330
2C2
100
AcDbEntity
  8
0
100
AcDbBlockEnd
  0
BLOCK
  5
2CD
330
2CC
100
AcDbEntity
  8
0
100
AcDbBlockBegin
  2
*D5
 70
     1
 10
0.0
 20
0.0
 30
0.0
  3
*D5
  1

  0
SOLID
  5
2CF
330
2CC
100
AcDbEntity
  8
VERMASSUNG
100
AcDbTrace
 10
78.3021180403
 20
157.5046080554
 30
0.0
 11
81.3021180403
 21
157.0546080554
 31
0.0
 12
81.3021180403
 22
157.9546080554
 32
0.0
 13
81.3021180403
 23
157.9546080554
 33
0.0
  0
SOLID
  5
2D0
330
2CC
100
AcDbEntity
  8
VERMASSUNG
100
AcDbTrace
 10
238.3021180403
 20
157.5046080554
 30
0.0
 11
235.3021180403
 21
157.9546080554
 31
0.0
 12
235.3021180403
 22
157.0546080554
 32
0.0
 13
235.3021180403
 23
157.0546080554
 33
0.0
  0
LINE
  5
2D1
330
2CC
100
AcDbEntity
  8
VERMASSUNG
100
AcDbLine
 10
78.3021180403
 20
144.2866940452
 30
0.0
 11
78.3021180403
 21
158.5046080554
 31
0.0
  0
LINE
  5
2D2
330
2CC
100
AcDbEntity
  8
VERMASSUNG
100
AcDbLine
 10
238.3021180403
 20
132.2866940452
 30
0.0
 11
238.3021180403
 21
158.5046080554
 31
0.0
  0
LINE
  5
2D3
330
2CC
100
AcDbEntity
  8
VERMASSUNG
100
AcDbLine
 10
78.3021180403
 20
157.5046080554
 30
0.0
 11
238.3021180403
 21
157.5046080554
 31
0.0
  0
MTEXT
  5
2D4
330
2CC
100
AcDbEntity
  8
VERMASSUNG
100
AcDbMText
 10
155.1678297769
 20
160.0827434185
 30
0.0
 40
2.0
 41
0.0
 71
     1
 72
     1
  1
160
  7
SLDTEXTSTYLE0
 73
     1
 44
1.0
  0
ENDBLK
  5
2CE
330
2CC
100
AcDbEntity
  8
0
100
AcDbBlockEnd
  0
BLOCK
  5
2D7
330
2D6
100
AcDbEntity
  8
0
100
AcDbBlockBegin
  2
*D6
 70
     1
 10
0.0
 20
0.0
 30
0.0
  3
*D6
  1

  0
SOLID
  5
2D9
330
2D6
100
AcDbEntity
  8
VERMASSUNG
100
AcDbTrace
 10
104.2521180403
 20
151.5046080554
 30
0.0
 11
107.2521180403
 21
151.0546080554
 31
0.0
 12
107.2521180403
 22
151.9546080554
 32
0.0
 13
107.2521180403
 23
151.9546080554
 33
0.0
  0
SOLID
  5
2DA
330
2D6
100
AcDbEntity
  8
VERMASSUNG
100
AcDbTrace
 10
238.3021180403
 20
151.5046080554
 30
0.0
 11
235.3021180403
 21
151.9546080554
 31
0.0
 12
235.3021180403
 22
151.0546080554
 32
0.0
 13
235.3021180403
 23
151.0546080554
 33
0.0
  0
LINE
  5
2DB
330
2D6
100
AcDbEntity
  8
VERMASSUNG
100
AcDbLine
 10
104.2521180403
 20
142.9331343689
 30
0.0
 11
104.2521180403
 21
152.5046080554
 31
0.0
  0
LINE
  5
2DC
330
2D6
100
AcDbEntity
  8
VERMASSUNG
100
AcDbLine
 10
238.3021180403
 20
132.2866940452
 30
0.0
 11
238.3021180403
 21
152.5046080554
 31
0.0
  0
LINE
  5
2DD
330
2D6
100
AcDbEntity
  8
VERMASSUNG
100
AcDbLine
 10
104.2521180403
 20
151.5046080554
 30
0.0
 11
238.3021180403
 21
151.5046080554
 31
0.0
  0
MTEXT
  5
2DE
330
2D6
100
AcDbEntity
  8
VERMASSUNG
100
AcDbMText
 10
168.0149943566
 20
154.0827434185
 30
0.0
 40
2.0
 41
0.0
 71
     1
 72
     1
  1
134.05
  7
SLDTEXTSTYLE0
 73
     1
 44
1.0
  0
ENDBLK
  5
2D8
330
2D6
100
AcDbEntity
  8
0
100
AcDbBlockEnd
  0
BLOCK
  5
2E1
330
2E0
100
AcDbEntity
  8
0
100
AcDbBlockBegin
  2
*D7
 70
     1
 10
0.0
 20
0.0
 30
0.0
  3
*D7
  1

  0
SOLID
  5
2E3
330
2E0
100
AcDbEntity
  8
VERMASSUNG
100
AcDbTrace
 10
261.2693851394
 20
139.0866940452
 30
0.0
 11
260.8193851394
 21
136.0866940452
 31
0.0
 12
261.7193851394
 22
136.0866940452
 32
0.0
 13
261.7193851394
 23
136.0866940452
 33
0.0
  0
SOLID
  5
2E4
330
2E0
100
AcDbEntity
  8
VERMASSUNG
100
AcDbTrace
 10
261.2693851394
 20
87.0866940452
 30
0.0
 11
261.7193851394
 21
90.0866940452
 31
0.0
 12
260.8193851394
 22
90.0866940452
 32
0.0
 13
260.8193851394
 23
90.0866940452
 33
0.0
  0
LINE
  5
2E5
330
2E0
100
AcDbEntity
  8
VERMASSUNG
100
AcDbLine
 10
149.2521180403
 20
139.0866940452
 30
0.0
 11
262.2693851394
 21
139.0866940452
 31
0.0
  0
LINE
  5
2E6
330
2E0
100
AcDbEntity
  8
VERMASSUNG
100
AcDbLine
 10
149.2521180403
 20
87.0866940452
 30
0.0
 11
262.2693851394
 21
87.0866940452
 31
0.0
  0
LINE
  5
2E7
330
2E0
100
AcDbEntity
  8
VERMASSUNG
100
AcDbLine
 10
261.2693851394
 20
139.0866940452
 30
0.0
 11
261.2693851394
 21
87.0866940452
 31
0.0
  0
MTEXT
  5
2E8
330
2E0
100
AcDbEntity
  8
VERMASSUNG
100
AcDbMText
 10
258.6912496598
 20
109.8835954886
 30
0.0
 40
2.0
 41
0.0
 71
     1
 72
     1
  1
%%c
  7
SLDTEXTSTYLE0
 11
-7.044195017643634E-15
 21
1.0
 31
0.0
 73
     1
 44
1.0
  0
MTEXT
  5
2E9
330
2E0
100
AcDbEntity
  8
VERMASSUNG
100
AcDbMText
 10
258.6912497763
 20
113.4911808936
 30
0.0
 40
2.0
 41
0.0
 71
     1
 72
     1
  1
52
  7
SLDTEXTSTYLE0
 11
-7.044195017643634E-15
 21
1.0
 31
0.0
 73
     1
 44
1.0
  0
ENDBLK
  5
2E2
330
2E0
100
AcDbEntity
  8
0
100
AcDbBlockEnd
  0
ENDSEC
  0
SECTION
  2
ENTITIES
  0
MTEXT
  5
45
330
1F
100
AcDbEntity
  8
KOPF_DÜNN
100
AcDbMText
 10
13.8892156294
 20
23.8442973028
 30
0.0
 40
3.0
 41
0.0
 71
     1
 72
     1
  1
HA6.Go2.K01.160
  7
SLDTEXTSTYLE0
 73
     1
 44
1.0
  0
MTEXT
  5
46
330
1F
100
AcDbEntity
  8
VERMASSUNG
100
AcDbMText
 10
13.9329988022
 20
28.8834360957
 30
0.0
 40
3.0
 41
0.0
 71
     1
 72
     1
  1
Gewindeschneidfutter_Tapping chuck
  7
SLDTEXTSTYLE0
 73
     1
 44
1.0
  0
MTEXT
  5
47
330
1F
100
AcDbEntity
  8
VERMASSUNG
100
AcDbMText
 10
98.8601118557
 20
13.8365368179
 30
0.0
 40
2.0
 41
0.0
 71
     1
 72
     1
  1
Datum: 12.10.2006
  7
SLDTEXTSTYLE0
 73
     1
 44
1.0
  0
MTEXT
  5
49
330
1F
100
AcDbEntity
  8
VERMASSUNG
100
AcDbMText
 10
13.933048693
 20
18.0482802738
 30
0.0
 40
2.0
 41
0.0
 71
     1
 72
     1
  1
DIN 69 893 HSK A 63
  7
SLDTEXTSTYLE1
 73
     1
 44
1.0
  0
MTEXT
  5
4A
330
1F
100
AcDbEntity
  8
VERMASSUNG
100
AcDbMText
 10
13.9808475933
 20
13.9090973692
 30
0.0
 40
2.0
 41
0.0
 71
     1
 72
     1
  1
Gewicht: 2343g
  7
SLDTEXTSTYLE0
 73
     1
 44
1.0
  0
LINE
  5
4B
330
1F
100
AcDbEntity
  8
0
  6
Continuous
 62
     7
370
    15
100
AcDbLine
 10
78.6021180403
 20
81.5866940452
 30
0.0
 11
83.2521180403
 21
81.5866940452
 31
0.0
  0
LINE
  5
4C
330
1F
100
AcDbEntity
  8
0
  6
Continuous
 62
     7
370
    15
100
AcDbLine
 10
83.2801063993
 20
144.5866940452
 30
0.0
 11
78.6021180403
 21
144.5866940452
 31
0.0
  0
ARC
  5
4D
330
1F
100
AcDbEntity
  8
0
  6
Continuous
 62
     7
370
    15
100
AcDbCircle
 10
78.6021180403
 20
81.8866940452
 30
0.0
 40
0.3000000000000114
100
AcDbArc
 50
180.0
 51
270.0
  0
ARC
  5
4E
330
1F
100
AcDbEntity
  8
0
  6
Continuous
 62
     7
370
    15
100
AcDbCircle
 10
78.6021180403
 20
144.2866940452
 30
0.0
 40
0.3000000000000114
100
AcDbArc
 50
90.0
 51
180.0
  0
ARC
  5
4F
330
1F
100
AcDbEntity
  8
0
  6
Continuous
 62
     7
370
    15
100
AcDbCircle
 10
105.2521180403
 20
86.0866940452
 30
0.0
 40
1.0
100
AcDbArc
 50
90.0
 51
143.1139143113
  0
ARC
  5
50
330
1F
100
AcDbEntity
  8
0
  6
Continuous
 62
     7
370
    15
100
AcDbCircle
 10
105.2521180403
 20
140.0866940452
 30
0.0
 40
1.000000000000001
100
AcDbArc
 50
216.9164498536
 51
270.0
  0
LINE
  5
51
330
1F
100
AcDbEntity
  8
0
  6
Continuous
 62
     7
370
    15
100
AcDbLine
 10
105.2521180403
 20
87.0866940452
 30
0.0
 11
149.2521180403
 21
87.0866940452
 31
0.0
  0
LINE
  5
52
330
1F
100
AcDbEntity
  8
0
  6
Continuous
 62
     7
370
    15
100
AcDbLine
 10
149.2521180403
 20
139.0866940452
 30
0.0
 11
105.2521180403
 21
139.0866940452
 31
0.0
  0
ARC
  5
53
330
1F
100
AcDbEntity
  8
0
  6
Continuous
 62
     7
370
    15
100
AcDbCircle
 10
179.7375141341
 20
265.4616940452
 30
0.0
 40
130.0
100
AcDbArc
 50
256.4376690922
 51
270.0
  0
ARC
  5
54
330
1F
100
AcDbEntity
  8
0
  6
Continuous
 62
     7
370
    15
100
AcDbCircle
 10
179.7375141341
 20
-39.2883059548
 30
0.0
 40
130.0
100
AcDbArc
 50
90.0
 51
103.5623309078
  0
ARC
  5
55
330
1F
100
AcDbEntity
  8
0
  6
Continuous
 62
     7
370
    15
100
AcDbCircle
 10
77.8021112876
 20
88.5162564308
 30
0.0
 40
0.6000067526677164
100
AcDbArc
 50
33.5571153394
 51
90.0
  0
ARC
  5
56
330
1F
100
AcDbEntity
  8
0
  6
Continuous
 62
     7
370
    15
100
AcDbCircle
 10
77.8021112876
 20
137.6571316596
 30
0.0
 40
0.6000067526677242
100
AcDbArc
 50
270.0
 51
326.4428846606
  0
LINE
  5
57
330
1F
100
AcDbEntity
  8
0
  6
Continuous
 62
     7
370
    15
100
AcDbLine
 10
65.0716958578
 20
136.744478505
 30
0.0
 11
52.5021180403
 21
136.1147401374
 31
0.0
  0
LINE
  5
58
330
1F
100
AcDbEntity
  8
0
  6
Continuous
 62
     7
370
    15
100
AcDbLine
 10
76.3021180403
 20
137.3071249069
 30
0.0
 11
73.4835086828
 21
137.1659120132
 31
0.0
  0
LINE
  5
59
330
1F
100
AcDbEntity
  8
0
  6
Continuous
 62
     7
370
    15
100
AcDbLine
 10
73.4837301579
 20
89.0074649812
 30
0.0
 11
76.3021180403
 21
88.8662631835
 31
0.0
  0
LINE
  5
5A
330
1F
100
AcDbEntity
  8
0
  6
Continuous
 62
     7
370
    15
100
AcDbLine
 10
56.5021180403
 20
89.8582471514
 30
0.0
 11
65.0723948095
 21
89.4288745678
 31
0.0
  0
LINE
  5
5B
330
1F
100
AcDbEntity
  8
0
  6
Continuous
 62
     7
370
    15
100
AcDbLine
 10
76.3021180403
 20
88.8662631835
 30
0.0
 11
77.1588308137
 21
89.0958186792
 31
0.0
  0
LINE
  5
5C
330
1F
100
AcDbEntity
  8
0
  6
Continuous
 62
     7
370
    15
100
AcDbLine
 10
77.1588308137
 20
137.0775694111
 30
0.0
 11
76.3021180403
 21
137.3071249069
 31
0.0
  0
ARC
  5
5D
330
1F
100
AcDbEntity
  8
0
  6
Continuous
 62
     7
370
    15
100
AcDbCircle
 10
77.3141222407
 20
88.5162631835
 30
0.0
 40
0.6000000000000071
100
AcDbArc
 50
90.0
 51
105.0
  0
ARC
  5
5E
330
1F
100
AcDbEntity
  8
0
  6
Continuous
 62
     7
370
    15
100
AcDbCircle
 10
77.3141222407
 20
137.6571249069
 30
0.0
 40
0.5999999999999943
100
AcDbArc
 50
255.0
 51
270.0
  0
LINE
  5
5F
330
1F
100
AcDbEntity
  8
0
  6
Continuous
 62
     7
370
    15
100
AcDbLine
 10
77.3141222407
 20
89.1162631835
 30
0.0
 11
77.8021112876
 21
89.1162631835
 31
0.0
  0
LINE
  5
60
330
1F
100
AcDbEntity
  8
0
  6
Continuous
 62
     7
370
    15
100
AcDbLine
 10
77.8021112876
 20
137.0571249069
 30
0.0
 11
77.3141222407
 21
137.0571249069
 31
0.0
  0
LINE
  5
61
330
1F
100
AcDbEntity
  8
0
  6
Continuous
 62
     7
370
    15
100
AcDbLine
 10
188.8521180403
 20
135.4616940452
 30
0.0
 11
179.7375141341
 21
135.4616940452
 31
0.0
  0
LINE
  5
62
330
1F
100
AcDbEntity
  8
0
  6
Continuous
 62
     7
370
    15
100
AcDbLine
 10
179.7375141341
 20
90.7116940452
 30
0.0
 11
188.8521180403
 21
90.7116940452
 31
0.0
  0
LINE
  5
63
330
1F
100
AcDbEntity
  8
0
  6
Continuous
 62
     7
370
    15
100
AcDbLine
 10
237.9521180403
 20
93.5366940452
 30
0.0
 11
238.3021180403
 21
93.8866940452
 31
0.0
  0
LINE
  5
64
330
1F
100
AcDbEntity
  8
0
  6
Continuous
 62
     7
370
    15
100
AcDbLine
 10
238.3021180403
 20
132.2866940452
 30
0.0
 11
237.9521180403
 21
132.6366940452
 31
0.0
  0
LINE
  5
65
330
1F
100
AcDbEntity
  8
0
  6
Continuous
 62
     7
370
    15
100
AcDbLine
 10
47.6854546803
 20
92.2166940452
 30
0.0
 11
55.1021180403
 21
92.2166940452
 31
0.0
  0
ARC
  5
66
330
1F
100
AcDbEntity
  8
0
  6
Continuous
 62
     7
370
    15
100
AcDbCircle
 10
55.1021180403
 20
90.8166940452
 30
0.0
 40
1.400000000000006
100
AcDbArc
 50
42.2465410162
 51
90.0
  0
LINE
  5
67
330
1F
100
AcDbEntity
  8
0
  6
Continuous
 62
     7
370
    15
100
AcDbLine
 10
46.4132784754
 20
93.3555336101
 30
0.0
 11
47.5432814984
 21
92.225530587
 31
0.0
  0
LINE
  5
68
330
1F
100
AcDbEntity
  8
0
  6
Continuous
 62
     7
370
    15
100
AcDbLine
 10
47.5432814984
 20
133.9478575034
 30
0.0
 11
46.4120188136
 21
132.8165948186
 31
0.0
  0
ARC
  5
69
330
1F
100
AcDbEntity
  8
0
  6
Continuous
 62
     7
370
    15
100
AcDbCircle
 10
51.1021180403
 20
135.3566940452
 30
0.0
 40
1.400000000000012
100
AcDbArc
 50
270.0
 51
301.7485287426
  0
LINE
  5
6A
330
1F
100
AcDbEntity
  8
0
  6
Continuous
 62
     7
370
    15
100
AcDbLine
 10
51.1021180403
 20
133.9566940452
 30
0.0
 11
47.6763837742
 21
133.9566940452
 31
0.0
  0
LINE
  5
6B
330
1F
100
AcDbEntity
  8
0
  6
Continuous
 62
     7
370
    15
100
AcDbLine
 10
197.3521180403
 20
138.0866940452
 30
0.0
 11
189.8521180403
 21
138.0866940452
 31
0.0
  0
LINE
  5
6C
330
1F
100
AcDbEntity
  8
0
  6
Continuous
 62
     7
370
    15
100
AcDbLine
 10
189.8521180403
 20
88.0866940452
 30
0.0
 11
197.3521180403
 21
88.0866940452
 31
0.0
  0
ARC
  5
6D
330
1F
100
AcDbEntity
  8
0
  6
Continuous
 62
     7
370
    15
100
AcDbCircle
 10
236.9521180403
 20
137.0866940452
 30
0.0
 40
1.000000000000028
100
AcDbArc
 50
0.0
 51
90.0
  0
ARC
  5
6E
330
1F
100
AcDbEntity
  8
0
  6
Continuous
 62
     7
370
    15
100
AcDbCircle
 10
236.9521180403
 20
89.0866940452
 30
0.0
 40
1.0
100
AcDbArc
 50
270.0
 51
0.0
  0
ARC
  5
6F
330
1F
100
AcDbEntity
  8
0
  6
Continuous
 62
     7
370
    15
100
AcDbCircle
 10
197.7394163749
 20
138.1866940452
 30
0.0
 40
0.4000000000000057
100
AcDbArc
 50
194.4775121859
 51
270.0
  0
ARC
  5
70
330
1F
100
AcDbEntity
  8
0
  6
Continuous
 62
     7
370
    15
100
AcDbCircle
 10
197.7394163749
 20
87.9866940452
 30
0.0
 40
0.4000000000000057
100
AcDbArc
 50
90.0
 51
165.5224878141
  0
LINE
  5
71
330
1F
100
AcDbEntity
  8
0
  6
Continuous
 62
     7
370
    15
100
AcDbLine
 10
220.9521180403
 20
138.0866940452
 30
0.0
 11
205.8521180403
 21
138.0866940452
 31
0.0
  0
LINE
  5
72
330
1F
100
AcDbEntity
  8
0
  6
Continuous
 62
     7
370
    15
100
AcDbLine
 10
205.8521180403
 20
88.0866940452
 30
0.0
 11
220.9521180403
 21
88.0866940452
 31
0.0
  0
LINE
  5
73
330
1F
100
AcDbEntity
  8
0
  6
Continuous
 62
     7
370
    15
100
AcDbLine
 10
236.9521180403
 20
138.0866940452
 30
0.0
 11
229.4521180403
 21
138.0866940452
 31
0.0
  0
LINE
  5
74
330
1F
100
AcDbEntity
  8
0
  6
Continuous
 62
     7
370
    15
100
AcDbLine
 10
229.4521180403
 20
88.0866940452
 30
0.0
 11
236.9521180403
 21
88.0866940452
 31
0.0
  0
ARC
  5
75
330
1F
100
AcDbEntity
  8
0
  6
Continuous
 62
     7
370
    15
100
AcDbCircle
 10
229.0648197056
 20
138.1866940452
 30
0.0
 40
0.4000000000000222
100
AcDbArc
 50
270.0
 51
345.5224878141
  0
ARC
  5
76
330
1F
100
AcDbEntity
  8
0
  6
Continuous
 62
     7
370
    15
100
AcDbCircle
 10
229.0648197056
 20
87.9866940452
 30
0.0
 40
0.4000000000000151
100
AcDbArc
 50
14.4775121859
 51
90.0
  0
ARC
  5
77
330
1F
100
AcDbEntity
  8
0
  6
Continuous
 62
     7
370
    15
100
AcDbCircle
 10
221.3394163749
 20
138.1866940452
 30
0.0
 40
0.4000000000000057
100
AcDbArc
 50
194.4775121859
 51
270.0
  0
ARC
  5
78
330
1F
100
AcDbEntity
  8
0
  6
Continuous
 62
     7
370
    15
100
AcDbCircle
 10
221.3394163749
 20
87.9866940452
 30
0.0
 40
0.4000000000000057
100
AcDbArc
 50
90.0
 51
165.5224878141
  0
ARC
  5
79
330
1F
100
AcDbEntity
  8
0
  6
Continuous
 62
     7
370
    15
100
AcDbCircle
 10
205.4648197056
 20
138.1866940452
 30
0.0
 40
0.4000000000000057
100
AcDbArc
 50
270.0
 51
345.5224878141
  0
ARC
  5
7A
330
1F
100
AcDbEntity
  8
0
  6
Continuous
 62
     7
370
    15
100
AcDbCircle
 10
205.4648197056
 20
87.9866940452
 30
0.0
 40
0.4000000000000057
100
AcDbArc
 50
14.4775121859
 51
90.0
  0
ARC
  5
7B
330
1F
100
AcDbEntity
  8
0
  6
Continuous
 62
     7
370
    15
100
AcDbCircle
 10
189.8521180403
 20
137.0866940452
 30
0.0
 40
1.0
100
AcDbArc
 50
90.0
 51
180.0
  0
ARC
  5
7C
330
1F
100
AcDbEntity
  8
0
  6
Continuous
 62
     7
370
    15
100
AcDbCircle
 10
189.8521180403
 20
89.0866940452
 30
0.0
 40
1.0
100
AcDbArc
 50
180.0
 51
270.0
  0
LINE
  5
7D
330
1F
100
AcDbEntity
  8
0
  6
Continuous
 62
     7
370
    15
100
AcDbLine
 10
229.0648197056
 20
137.7866940452
 30
0.0
 11
221.3394163749
 21
137.7866940452
 31
0.0
  0
LINE
  5
7E
330
1F
100
AcDbEntity
  8
0
  6
Continuous
 62
     7
370
    15
100
AcDbLine
 10
221.3394163749
 20
88.3866940452
 30
0.0
 11
229.0648197056
 21
88.3866940452
 31
0.0
  0
LINE
  5
7F
330
1F
100
AcDbEntity
  8
0
  6
Continuous
 62
     7
370
    15
100
AcDbLine
 10
205.4648197056
 20
137.7866940452
 30
0.0
 11
197.7394163749
 21
137.7866940452
 31
0.0
  0
LINE
  5
80
330
1F
100
AcDbEntity
  8
0
  6
Continuous
 62
     7
370
    15
100
AcDbLine
 10
197.7394163749
 20
88.3866940452
 30
0.0
 11
205.4648197056
 21
88.3866940452
 31
0.0
  0
LINE
  5
81
330
1F
100
AcDbEntity
  8
0
  6
Continuous
 62
     7
370
    15
100
AcDbLine
 10
99.6940508718
 20
82.8997763489
 30
0.0
 11
99.6940508718
 21
132.9366940452
 31
0.0
  0
SPLINE
  5
82
330
1F
100
AcDbEntity
  8
0
  6
Continuous
 62
     7
370
    15
100
AcDbSpline
210
0.0
220
0.0
230
1.0
 70
     8
 71
     3
 72
     8
 73
     4
 74
     0
 42
0.00000001
 43
0.00000001
 40
0.0
 40
0.0
 40
0.0
 40
0.0
 40
1.0
 40
1.0
 40
1.0
 40
1.0
 10
99.69405087175628
 20
82.89977634892736
 30
0.0
 10
99.19857121109054
 20
83.79530243686074
 30
0.0
 10
98.7044571630484
 20
84.69158685191297
 30
0.0
 10
98.21211804026723
 20
85.58885688611967
 30
0.0
  0
LINE
  5
83
330
1F
100
AcDbEntity
  8
0
  6
Continuous
 62
     7
370
    15
100
AcDbLine
 10
98.2121180403
 20
85.5888568861
 30
0.0
 11
98.2121180403
 21
132.9366940452
 31
0.0
  0
SPLINE
  5
84
330
1F
100
AcDbEntity
  8
0
  6
Continuous
 62
     7
370
    15
100
AcDbSpline
210
0.0
220
0.0
230
1.0
 70
    24
 71
     3
 72
     8
 73
     4
 74
     0
 42
0.00000001
 43
0.00000001
 40
0.0
 40
0.0
 40
0.0
 40
0.0
 40
1.0
 40
1.0
 40
1.0
 40
1.0
 10
98.21211804026723
 20
132.9366940451745
 30
0.0
 10
98.69207003463212
 20
132.9366940451745
 30
0.0
 10
99.18737076360576
 20
132.9366940451745
 30
0.0
 10
99.69405087175632
 20
132.9366940451745
 30
0.0
  0
LINE
  5
85
330
1F
100
AcDbEntity
  8
0
  6
Continuous
 62
     7
370
    15
100
AcDbLine
 10
83.2521180403
 20
132.9366940452
 30
0.0
 11
92.9101852088
 21
132.9366940452
 31
0.0
  0
LINE
  5
86
330
1F
100
AcDbEntity
  8
0
  6
Continuous
 62
     7
370
    15
100
AcDbLine
 10
92.9101852088
 20
82.8997763489
 30
0.0
 11
92.9101852088
 21
132.9366940452
 31
0.0
  0
LINE
  5
87
330
1F
100
AcDbEntity
  8
0
  6
Continuous
 62
     7
370
    15
100
AcDbLine
 10
92.9101852088
 20
82.8997763489
 30
0.0
 11
91.2521180403
 21
82.8997763489
 31
0.0
  0
SPLINE
  5
88
330
1F
100
AcDbEntity
  8
0
  6
Continuous
 62
     7
370
    15
100
AcDbSpline
210
0.0
220
0.0
230
1.0
 70
     8
 71
     3
 72
    28
 73
    24
 74
     0
 42
0.00000001
 43
0.00000001
 40
0.0
 40
0.0
 40
0.0
 40
0.0
 40
0.1250000000000001
 40
0.1250000000000001
 40
0.1875000000000001
 40
0.1875000000000001
 40
0.2500000000000001
 40
0.2500000000000001
 40
0.3749999999999999
 40
0.3749999999999999
 40
0.4375
 40
0.4375
 40
0.4999999999999999
 40
0.4999999999999999
 40
0.6249999999999999
 40
0.6249999999999999
 40
0.7499999999999997
 40
0.7499999999999997
 40
0.8124999999999998
 40
0.8124999999999998
 40
0.8749999999999998
 40
0.8749999999999998
 40
1.0
 40
1.0
 40
1.0
 40
1.0
 10
91.25211804026722
 20
82.89977634892736
 30
0.0
 10
90.72041028277428
 20
82.89977634892736
 30
0.0
 10
90.19817171746395
 20
82.88399163497716
 30
0.0
 10
89.42830123118894
 20
82.83899622090097
 30
0.0
 10
89.17394165899762
 20
82.82044122582522
 30
0.0
 10
88.6698200782991
 20
82.77658850337872
 30
0.0
 10
88.42009726087119
 20
82.75124389642652
 30
0.0
 10
87.69450730942476
 20
82.66784181867642
 30
0.0
 10
87.23614704784323
 20
82.60197625952534
 30
0.0
 10
86.58564910444936
 20
82.49300591903354
 30
0.0
 10
86.3739670536569
 20
82.45476628326689
 30
0.0
 10
85.9698955645189
 20
82.37700754584753
 30
0.0
 10
85.77738905069803
 20
82.33750658367217
 30
0.0
 10
85.22755407967675
 20
82.21859884130618
 30
0.0
 10
84.89762530136794
 20
82.13878115988157
 30
0.0
 10
84.31315403279925
 20
81.98543799808552
 30
0.0
 10
84.0668768947858
 20
81.91410424481627
 30
0.0
 10
83.76703410208775
 20
81.82016073774163
 30
0.0
 10
83.67857724501556
 20
81.79096694438171
 30
0.0
 10
83.52521589171045
 20
81.73750037011828
 30
0.0
 10
83.46012767748421
 20
81.71314103584311
 30
0.0
 10
83.30453366154342
 20
81.64955089039839
 30
0.0
 10
83.25211804026722
 20
81.61944795530913
 30
0.0
 10
83.25211804026722
 20
81.6025710623122
 30
0.0
  0
LINE
  5
89
330
1F
100
AcDbEntity
  8
0
  6
Continuous
 62
     7
370
    15
100
AcDbLine
 10
83.2521180403
 20
81.6025710623
 30
0.0
 11
83.2521180403
 21
81.5866940452
 31
0.0
  0
SPLINE
  5
8A
330
1F
100
AcDbEntity
  8
0
  6
Continuous
 62
     7
370
    15
100
AcDbSpline
210
0.0
220
0.0
230
1.0
 70
     8
 71
     3
 72
    17
 73
    13
 74
     0
 42
0.00000001
 43
0.00000001
 40
0.0
 40
0.0
 40
0.0
 40
0.0
 40
0.1034796923964056
 40
0.210023918880785
 40
0.3134862136955583
 40
0.4198361274354882
 40
0.5254127712915682
 40
0.633961069541979
 40
0.7409508756305031
 40
0.8511696089308174
 40
0.9558996534551937
 40
1.0
 40
1.0
 40
1.0
 40
1.0
 10
91.25211804026722
 20
143.5538895183388
 30
0.0
 10
90.81686969115718
 20
143.5593377148721
 30
0.0
 10
89.9334831845922
 20
143.5703954553839
 30
0.0
 10
88.65265559936354
 20
143.6567538482855
 30
0.0
 10
87.4352390634895
 20
143.7846240248232
 30
0.0
 10
86.32743321124295
 20
143.9435693234164
 30
0.0
 10
85.33919440729473
 20
144.118063011132
 30
0.0
 10
84.5144708497632
 20
144.2872288617719
 30
0.0
 10
83.86551734910391
 20
144.4351126443002
 30
0.0
 10
83.44848253364218
 20
144.536903228531
 30
0.0
 10
83.24988582067766
 20
144.5872547511342
 30
0.0
 10
83.27319854211095
 20
144.5813490669118
 30
0.0
 10
83.28010639934847
 20
144.5795991372172
 30
0.0
  0
LINE
  5
8B
330
1F
100
AcDbEntity
  8
0
  6
Continuous
 62
     7
370
    15
100
AcDbLine
 10
92.9101852088
 20
143.5538895183
 30
0.0
 11
91.2521180403
 21
143.5538895183
 31
0.0
  0
LINE
  5
8C
330
1F
100
AcDbEntity
  8
0
  6
Continuous
 62
     7
370
    15
100
AcDbLine
 10
92.9101852088
 20
137.5453837075
 30
0.0
 11
92.9101852088
 21
143.5538895183
 31
0.0
  0
LINE
  5
8D
330
1F
100
AcDbEntity
  8
0
  6
Continuous
 62
     7
370
    15
100
AcDbLine
 10
90.497738386
 20
137.5453837075
 30
0.0
 11
92.9101852088
 21
137.5453837075
 31
0.0
  0
SPLINE
  5
8E
330
1F
100
AcDbEntity
  8
0
  6
Continuous
 62
     7
370
    15
100
AcDbSpline
210
0.0
220
0.0
230
1.0
 70
     8
 71
     3
 72
    20
 73
    16
 74
     0
 42
0.00000001
 43
0.00000001
 40
0.0
 40
0.0
 40
0.0
 40
0.0
 40
0.2499999999999997
 40
0.2499999999999997
 40
0.3749999999999997
 40
0.3749999999999997
 40
0.4999999999999998
 40
0.4999999999999998
 40
0.6249999999999998
 40
0.6249999999999998
 40
0.7499999999999999
 40
0.7499999999999999
 40
0.8749999999999999
 40
0.8749999999999999
 40
1.0
 40
1.0
 40
1.0
 40
1.0
 10
83.25211804026722
 20
132.9366940451745
 30
0.0
 10
83.50049177455527
 20
133.5905564734719
 30
0.0
 10
83.82006186690055
 20
134.1943422554691
 30
0.0
 10
84.44236810010521
 20
135.0211809916377
 30
0.0
 10
84.67379236053598
 20
135.2836096295906
 30
0.0
 10
85.1950067001857
 20
135.7802722836956
 30
0.0
 10
85.48162718282076
 20
136.0108591627171
 30
0.0
 10
86.10111192412839
 20
136.4274133872997
 30
0.0
 10
86.43541230361535
 20
136.6149111892672
 30
0.0
 10
87.16067277624013
 20
136.9463081669036
 30
0.0
 10
87.5425878336306
 20
137.085812154399
 30
0.0
 10
88.3373760098023
 20
137.3112656618699
 30
0.0
 10
88.75153420400866
 20
137.3978917734135
 30
0.0
 10
89.61708054459005
 20
137.5158725622676
 30
0.0
 10
90.05496815960187
 20
137.545383707542
 30
0.0
 10
90.4977383859565
 20
137.545383707542
 30
0.0
  0
SPLINE
  5
8F
330
1F
100
AcDbEntity
  8
0
  6
Continuous
 62
     7
370
    15
100
AcDbSpline
210
0.0
220
0.0
230
1.0
 70
     8
 71
     3
 72
    70
 73
    66
 74
     0
 42
0.00000001
 43
0.00000001
 40
-0.0312499999999999
 40
-0.0312499999999999
 40
0.0
 40
0.0
 40
0.0312499999999999
 40
0.0312499999999999
 40
0.0624999999999998
 40
0.0624999999999998
 40
0.0937499999999997
 40
0.0937499999999997
 40
0.1249999999999996
 40
0.1249999999999996
 40
0.1562499999999995
 40
0.1562499999999995
 40
0.1874999999999994
 40
0.1874999999999994
 40
0.2187499999999993
 40
0.2187499999999993
 40
0.2499999999999992
 40
0.2499999999999992
 40
0.2812499999999993
 40
0.2812499999999993
 40
0.3124999999999993
 40
0.3124999999999993
 40
0.3437499999999994
 40
0.3437499999999994
 40
0.3749999999999995
 40
0.3749999999999995
 40
0.4062499999999996
 40
0.4062499999999996
 40
0.4374999999999996
 40
0.4374999999999996
 40
0.4687499999999997
 40
0.4687499999999997
 40
0.4999999999999998
 40
0.4999999999999998
 40
0.5312499999999999
 40
0.5312499999999999
 40
0.5625
 40
0.5625
 40
0.5937500000000001
 40
0.5937500000000001
 40
0.6250000000000002
 40
0.6250000000000002
 40
0.6562500000000004
 40
0.6562500000000004
 40
0.6875000000000006
 40
0.6875000000000006
 40
0.7187500000000007
 40
0.7187500000000007
 40
0.7500000000000008
 40
0.7500000000000008
 40
0.7812500000000007
 40
0.7812500000000007
 40
0.8125000000000006
 40
0.8125000000000006
 40
0.8437500000000004
 40
0.8437500000000004
 40
0.8750000000000003
 40
0.8750000000000003
 40
0.9062500000000003
 40
0.9062500000000003
 40
0.9375000000000002
 40
0.9375000000000002
 40
0.9687500000000001
 40
0.9687500000000001
 40
1.0
 40
1.0
 40
1.03125
 40
1.03125
 10
86.56666337892737
 20
138.1456574399537
 30
0.0
 10
86.03757270160709
 20
138.1456574399537
 30
0.0
 10
85.77750203422998
 20
138.1615578803685
 30
0.0
 10
85.26592735439456
 20
138.2235022305427
 30
0.0
 10
85.01175207065437
 20
138.270304464634
 30
0.0
 10
84.52748144059267
 20
138.3912814480891
 30
0.0
 10
84.2978403487115
 20
138.464883775896
 30
0.0
 10
83.86323600047801
 20
138.6367080468741
 30
0.0
 10
83.6576702238314
 20
138.7357114698015
 30
0.0
 10
83.28911308323616
 20
138.9488078837143
 30
0.0
 10
83.12363210050069
 20
139.063707599844
 30
0.0
 10
82.83120759106558
 20
139.3090744985343
 30
0.0
 10
82.70710661443908
 20
139.4375143990046
 30
0.0
 10
82.50752741768935
 20
139.6984065470905
 30
0.0
 10
82.43059383183109
 20
139.83278771843
 30
0.0
 10
82.32773677331072
 20
140.1021076695363
 30
0.0
 10
82.30226386385159
 20
140.2347889337544
 30
0.0
 10
82.30197345328382
 20
140.4959754078855
 30
0.0
 10
82.32799808705957
 20
140.6257404460502
 30
0.0
 10
82.43014637155154
 20
140.8713230803228
 30
0.0
 10
82.50572281913472
 20
140.9879846176317
 30
0.0
 10
82.70622035027965
 20
141.2098898077863
 30
0.0
 10
82.83134919178804
 20
141.3145010617093
 30
0.0
 10
83.1207079928096
 20
141.5045474733174
 30
0.0
 10
83.28611897986508
 20
141.591307144767
 30
0.0
 10
83.65910953801291
 20
141.7488115205186
 30
0.0
 10
83.860842571102
 20
141.8171367853058
 30
0.0
 10
84.29370182192989
 20
141.935366508925
 30
0.0
 10
84.52762035481925
 20
141.9856614250288
 30
0.0
 10
85.01180408996187
 20
142.0655269619185
 30
0.0
 10
85.26111971591737
 20
142.0952680897181
 30
0.0
 10
85.7741522403451
 20
142.1354208312263
 30
0.0
 10
86.03944606324974
 20
142.1456191006362
 30
0.0
 10
86.56178068311948
 20
142.1456955590209
 30
0.0
 10
86.82153434560122
 20
142.1359045474118
 30
0.0
 10
87.33814616124647
 20
142.0958377086731
 30
0.0
 10
87.59051220174673
 20
142.0657405418163
 30
0.0
 10
88.07203732327956
 20
141.986518331986
 30
0.0
 10
88.30488805539314
 20
141.9367608525227
 30
0.0
 10
88.7419779038319
 20
141.8176689100723
 30
0.0
 10
88.94329889248907
 20
141.749353648525
 30
0.0
 10
89.31238491778898
 20
141.5939526815915
 30
0.0
 10
89.48136966884068
 20
141.5058003395246
 30
0.0
 10
89.77182572549988
 20
141.3153609504082
 30
0.0
 10
89.89489753686202
 20
141.2127363727091
 30
0.0
 10
90.09623377828402
 20
140.991096026101
 30
0.0
 10
90.17344632422628
 20
140.8723419505535
 30
0.0
 10
90.27564986712633
 20
140.6276760116358
 30
0.0
 10
90.30187821857865
 20
140.5005192861873
 30
0.0
 10
90.30235461789576
 20
140.2360711403317
 30
0.0
 10
90.27661220539778
 20
140.1031704600746
 30
0.0
 10
90.17530142903394
 20
139.8363781865925
 30
0.0
 10
90.09846878964298
 20
139.701014285124
 30
0.0
 10
89.89806495042781
 20
139.4384344898214
 30
0.0
 10
89.77539345213577
 20
139.3114593300676
 30
0.0
 10
89.48544616297153
 20
139.0673799439852
 30
0.0
 10
89.31687518360629
 20
138.9499548192314
 30
0.0
 10
88.94860558949314
 20
138.7367583582829
 30
0.0
 10
88.74754373222282
 20
138.6395842398581
 30
0.0
 10
88.31051281363789
 20
138.4662293526439
 30
0.0
 10
88.0783646005083
 20
138.3918298009872
 30
0.0
 10
87.59735431900941
 20
138.2713769214826
 30
0.0
 10
87.345254236179
 20
138.2245185462165
 30
0.0
 10
86.82818474991998
 20
138.1615610492328
 30
0.0
 10
86.56666337892737
 20
138.1456574399537
 30
0.0
 10
86.03757270160709
 20
138.1456574399537
 30
0.0
  0
SPLINE
  5
90
330
1F
100
AcDbEntity
  8
0
  6
Continuous
 62
     7
370
    15
100
AcDbSpline
210
0.0
220
0.0
230
1.0
 70
     8
 71
     3
 72
    70
 73
    66
 74
     0
 42
0.00000001
 43
0.00000001
 40
-0.0312500000000001
 40
-0.0312500000000001
 40
0.0
 40
0.0
 40
0.0312499999999999
 40
0.0312499999999999
 40
0.0624999999999998
 40
0.0624999999999998
 40
0.0937499999999997
 40
0.0937499999999997
 40
0.1249999999999996
 40
0.1249999999999996
 40
0.1562499999999994
 40
0.1562499999999994
 40
0.1874999999999993
 40
0.1874999999999993
 40
0.2187499999999992
 40
0.2187499999999992
 40
0.2499999999999991
 40
0.2499999999999991
 40
0.281249999999999
 40
0.281249999999999
 40
0.3124999999999989
 40
0.3124999999999989
 40
0.3437499999999988
 40
0.3437499999999988
 40
0.3749999999999987
 40
0.3749999999999987
 40
0.4062499999999986
 40
0.4062499999999986
 40
0.4374999999999984
 40
0.4374999999999984
 40
0.4687499999999983
 40
0.4687499999999983
 40
0.4999999999999982
 40
0.4999999999999982
 40
0.5312499999999983
 40
0.5312499999999983
 40
0.5624999999999984
 40
0.5624999999999984
 40
0.5937499999999986
 40
0.5937499999999986
 40
0.6249999999999987
 40
0.6249999999999987
 40
0.6562499999999988
 40
0.6562499999999988
 40
0.6874999999999989
 40
0.6874999999999989
 40
0.718749999999999
 40
0.718749999999999
 40
0.7499999999999991
 40
0.7499999999999991
 40
0.7812499999999992
 40
0.7812499999999992
 40
0.8124999999999993
 40
0.8124999999999993
 40
0.8437499999999994
 40
0.8437499999999994
 40
0.8749999999999996
 40
0.8749999999999996
 40
0.9062499999999997
 40
0.9062499999999997
 40
0.9374999999999998
 40
0.9374999999999998
 40
0.9687499999999999
 40
0.9687499999999999
 40
1.0
 40
1.0
 40
1.03125
 40
1.03125
 10
86.56666337892736
 20
123.7076009311579
 30
0.0
 10
86.03757270160709
 20
123.7076009311579
 30
0.0
 10
85.77750203422997
 20
123.7322782259431
 30
0.0
 10
85.26592735439456
 20
123.828749898985
 30
0.0
 10
85.01175207065437
 20
123.901730814965
 30
0.0
 10
84.52748144059267
 20
124.0914714179037
 30
0.0
 10
84.2978403487115
 20
124.2073320762974
 30
0.0
 10
83.86323600047801
 20
124.4799499222551
 30
0.0
 10
83.6576702238314
 20
124.6379890043089
 30
0.0
 10
83.28911308323616
 20
124.9815318552795
 30
0.0
 10
83.12363210050069
 20
125.1682942993812
 30
0.0
 10
82.83120759106558
 20
125.571837473778
 30
0.0
 10
82.70710661443908
 20
125.7853344702072
 30
0.0
 10
82.50752741768935
 20
126.2247177841297
 30
0.0
 10
82.4305938318311
 20
126.4538577712753
 30
0.0
 10
82.32773677331072
 20
126.9198318940353
 30
0.0
 10
82.30226386385159
 20
127.1527143397115
 30
0.0
 10
82.30197345328382
 20
127.6181118747913
 30
0.0
 10
82.32799808705957
 20
127.8529876321856
 30
0.0
 10
82.43014637155154
 20
128.3044807794319
 30
0.0
 10
82.50572281913472
 20
128.5225272548433
 30
0.0
 10
82.70622035027966
 20
128.9436217798811
 30
0.0
 10
82.83134919178804
 20
129.1455431643994
 30
0.0
 10
83.12070799280961
 20
129.5175726469183
 30
0.0
 10
83.28611897986508
 20
129.6902009504986
 30
0.0
 10
83.65910953801291
 20
130.0075189550447
 30
0.0
 10
83.86084257110201
 20
130.1473058885463
 30
0.0
 10
84.29370182192989
 20
130.3914821420981
 30
0.0
 10
84.52762035481925
 20
130.4967116531396
 30
0.0
 10
85.01180408996187
 20
130.6648687995147
 30
0.0
 10
85.26111971591737
 20
130.7281196901086
 30
0.0
 10
85.77415224034512
 20
130.8136988992112
 30
0.0
 10
86.03944606324976
 20
130.8355710641336
 30
0.0
 10
86.56178068311948
 20
130.8357347137775
 30
0.0
 10
86.82153434560124
 20
130.8147330216815
 30
0.0
 10
87.33814616124647
 20
130.7293306666039
 30
0.0
 10
87.59051220174673
 20
130.6653244833169
 30
0.0
 10
88.07203732327957
 20
130.4985099632757
 30
0.0
 10
88.30488805539314
 20
130.3943767998766
 30
0.0
 10
88.7419779038319
 20
130.1483901473816
 30
0.0
 10
88.94329889248907
 20
130.0086403164327
 30
0.0
 10
89.31238491778898
 20
129.6955022467082
 30
0.0
 10
89.48136966884067
 20
129.5200460874381
 30
0.0
 10
89.77182572549988
 20
129.1472058233379
 30
0.0
 10
89.89489753686202
 20
128.9490840132269
 30
0.0
 10
90.09623377828402
 20
128.5283726704932
 30
0.0
 10
90.17344632422628
 20
128.3063826498257
 30
0.0
 10
90.27564986712633
 20
127.8565177101174
 30
0.0
 10
90.30187821857865
 20
127.6262622970006
 30
0.0
 10
90.30235461789574
 20
127.1549463544515
 30
0.0
 10
90.27661220539778
 20
126.9217089387374
 30
0.0
 10
90.17530142903394
 20
126.4600323992393
 30
0.0
 10
90.09846878964298
 20
126.2291350121272
 30
0.0
 10
89.89806495042781
 20
125.7868589983355
 30
0.0
 10
89.77539345213577
 20
125.5757965670496
 30
0.0
 10
89.48544616297153
 20
125.1742980563169
 30
0.0
 10
89.3168751836063
 20
124.983391534241
 30
0.0
 10
88.94860558949314
 20
124.6396662022439
 30
0.0
 10
88.74754373222282
 20
124.4845290160299
 30
0.0
 10
88.31051281363789
 20
124.2094516559501
 30
0.0
 10
88.07836460050828
 20
124.0923354265281
 30
0.0
 10
87.59735431900941
 20
123.9034089414636
 30
0.0
 10
87.345254236179
 20
123.8303339710693
 30
0.0
 10
86.82818474991998
 20
123.7322819119348
 30
0.0
 10
86.56666337892736
 20
123.7076009311579
 30
0.0
 10
86.03757270160709
 20
123.7076009311579
 30
0.0
  0
LINE
  5
91
330
1F
100
AcDbEntity
  8
0
  6
Continuous
 62
     7
370
    15
100
AcDbLine
 10
103.6521180403
 20
82.8997763489
 30
0.0
 11
99.6940508718
 21
82.8997763489
 31
0.0
  0
LINE
  5
92
330
1F
100
AcDbEntity
  8
0
  6
Continuous
 62
     7
370
    15
100
AcDbLine
 10
99.6940508718
 20
132.9366940452
 30
0.0
 11
103.6521180403
 21
132.9366940452
 31
0.0
  0
LINE
  5
93
330
1F
100
AcDbEntity
  8
0
  6
Continuous
 62
     7
370
    15
100
AcDbLine
 10
94.3921180403
 20
85.5888568861
 30
0.0
 11
94.3921180403
 21
132.9366940452
 31
0.0
  0
SPLINE
  5
94
330
1F
100
AcDbEntity
  8
0
  6
Continuous
 62
     7
370
    15
100
AcDbSpline
210
0.0
220
0.0
230
1.0
 70
     8
 71
     3
 72
     8
 73
     4
 74
     0
 42
0.00000001
 43
0.00000001
 40
0.0
 40
0.0
 40
0.0
 40
0.0
 40
1.0
 40
1.0
 40
1.0
 40
1.0
 10
94.39211804026723
 20
85.58885688611967
 30
0.0
 10
93.89977891748605
 20
84.69158685191297
 30
0.0
 10
93.40566486944391
 20
83.79530243686072
 30
0.0
 10
92.91018520877817
 20
82.89977634892736
 30
0.0
  0
SPLINE
  5
95
330
1F
100
AcDbEntity
  8
0
  6
Continuous
 62
     7
370
    15
100
AcDbSpline
210
0.0
220
0.0
230
1.0
 70
    24
 71
     3
 72
     8
 73
     4
 74
     0
 42
0.00000001
 43
0.00000001
 40
0.0
 40
0.0
 40
0.0
 40
0.0
 40
1.0
 40
1.0
 40
1.0
 40
1.0
 10
92.91018520877817
 20
132.9366940451745
 30
0.0
 10
93.41686531692869
 20
132.9366940451745
 30
0.0
 10
93.91216604590232
 20
132.9366940451745
 30
0.0
 10
94.39211804026723
 20
132.9366940451745
 30
0.0
  0
LINE
  5
96
330
1F
100
AcDbEntity
  8
0
  6
Continuous
 62
     7
370
    15
100
AcDbLine
 10
78.3021180403
 20
81.8866940452
 30
0.0
 11
78.3021180403
 21
144.2866940334
 31
0.0
  0
LINE
  5
97
330
1F
100
AcDbEntity
  8
0
  6
Continuous
 62
     7
370
    15
100
AcDbLine
 10
104.2521180403
 20
83.5264166446
 30
0.0
 11
104.2521180403
 21
132.9366940452
 31
0.0
  0
SPLINE
  5
98
330
1F
100
AcDbEntity
  8
0
  6
Continuous
 62
     7
370
    15
100
AcDbSpline
210
0.0
220
0.0
230
1.0
 70
     8
 71
     3
 72
    10
 73
     6
 74
     0
 42
0.00000001
 43
0.00000001
 40
0.0
 40
0.0
 40
0.0
 40
0.0
 40
0.5
 40
0.5
 40
1.0
 40
1.0
 40
1.0
 40
1.0
 10
104.2521180402672
 20
83.52641664458169
 30
0.0
 10
104.2521180402672
 20
83.36652937638803
 30
0.0
 10
104.1908083890314
 20
83.20540212087342
 30
0.0
 10
103.9717087514963
 20
82.97130312251859
 30
0.0
 10
103.8136605451828
 20
82.89977634892736
 30
0.0
 10
103.6521180402672
 20
82.89977634892736
 30
0.0
  0
SPLINE
  5
99
330
1F
100
AcDbEntity
  8
0
  6
Continuous
 62
     7
370
    15
100
AcDbSpline
210
0.0
220
0.0
230
1.0
 70
    24
 71
     3
 72
    12
 73
     8
 74
     0
 42
0.00000001
 43
0.00000001
 40
0.0
 40
0.0
 40
0.0
 40
0.0
 40
0.2500000000000033
 40
0.2500000000000033
 40
0.5000000000000067
 40
0.5000000000000067
 40
1.0
 40
1.0
 40
1.0
 40
1.0
 10
103.6521180402672
 20
132.9366940451745
 30
0.0
 10
103.7423571079543
 20
132.9366940451745
 30
0.0
 10
103.8332552220608
 20
132.9366940451745
 30
0.0
 10
103.9878522585493
 20
132.9366940451746
 30
0.0
 10
104.0528306746574
 20
132.9366940451746
 30
0.0
 10
104.2046657025936
 20
132.9366940451745
 30
0.0
 10
104.2521180402672
 20
132.9366940451746
 30
0.0
 10
104.2521180402672
 20
132.9366940451745
 30
0.0
  0
ARC
  5
9A
330
1F
100
AcDbEntity
  8
0
  6
Continuous
 62
     7
370
    15
100
AcDbCircle
 10
86.2991217858
 20
124.985691438
 30
0.0
 40
4.114749527780774
100
AcDbArc
 50
19.3249313847
 51
159.3457787199
  0
SPLINE
  5
9B
330
1F
100
AcDbEntity
  8
0
  6
Continuous
 62
     7
370
    15
100
AcDbSpline
210
0.0
220
0.0
230
1.0
 70
    24
 71
     3
 72
    14
 73
    10
 74
     0
 42
0.00000001
 43
0.00000001
 40
0.0
 40
0.0
 40
0.0
 40
0.0
 40
0.5000000000000013
 40
0.5000000000000013
 40
0.750000000000002
 40
0.750000000000002
 40
0.875000000000001
 40
0.875000000000001
 40
1.0
 40
1.0
 40
1.0
 40
1.0
 10
98.11444323793494
 20
86.68669404517453
 30
0.0
 10
98.06765853288672
 20
86.68669404517452
 30
0.0
 10
98.00560733610709
 20
86.68669404517453
 30
0.0
 10
97.8622156975565
 20
86.68669404517453
 30
0.0
 10
97.80607204400535
 20
86.68669404517452
 30
0.0
 10
97.69312102186916
 20
86.68669404517452
 30
0.0
 10
97.65012025983101
 20
86.68669404517453
 30
0.0
 10
97.54605754952455
 20
86.68669404517452
 30
0.0
 10
97.4807253111676
 20
86.68669404517453
 30
0.0
 10
97.41211804026722
 20
86.68669404517453
 30
0.0
  0
SPLINE
  5
9C
330
1F
100
AcDbEntity
  8
0
  6
Continuous
 62
     7
370
    15
100
AcDbSpline
210
0.0
220
0.0
230
1.0
 70
    24
 71
     3
 72
    12
 73
     8
 74
     0
 42
0.00000001
 43
0.00000001
 40
0.0
 40
0.0
 40
0.0
 40
0.0
 40
0.5000000000000017
 40
0.5000000000000017
 40
0.7500000000000008
 40
0.7500000000000008
 40
1.0
 40
1.0
 40
1.0
 40
1.0
 10
97.81782050857625
 20
139.4866940451745
 30
0.0
 10
97.7747349589653
 20
139.4866940451745
 30
0.0
 10
97.72558275721597
 20
139.4866940451745
 30
0.0
 10
97.62911016292807
 20
139.4866940451745
 30
0.0
 10
97.59300857779348
 20
139.4866940451745
 30
0.0
 10
97.50990281993222
 20
139.4866940451745
 30
0.0
 10
97.46190622296592
 20
139.4866940451745
 30
0.0
 10
97.41211804026723
 20
139.4866940451745
 30
0.0
  0
SPLINE
  5
9D
330
1F
100
AcDbEntity
  8
0
  6
Continuous
 62
     7
370
    15
100
AcDbSpline
210
0.0
220
0.0
230
1.0
 70
     8
 71
     3
 72
    10
 73
     6
 74
     0
 42
0.00000001
 43
0.00000001
 40
0.0
 40
0.0
 40
0.0
 40
0.0
 40
0.5
 40
0.5
 40
1.0
 40
1.0
 40
1.0
 40
1.0
 10
98.21211804026723
 20
140.2063478962103
 30
0.0
 10
98.21211804026723
 20
140.0625778383923
 30
0.0
 10
98.17606898154834
 20
139.9201584758972
 30
0.0
 10
98.04056012077432
 20
139.6702641825399
 30
0.0
 10
97.94068412767814
 20
139.5622338462917
 30
0.0
 10
97.81782050857622
 20
139.4866940451745
 30
0.0
  0
SPLINE
  5
9E
330
1F
100
AcDbEntity
  8
0
  6
Continuous
 62
     7
370
    15
100
AcDbSpline
210
0.0
220
0.0
230
1.0
 70
     8
 71
     3
 72
    10
 73
     6
 74
     0
 42
0.00000001
 43
0.00000001
 40
0.0
 40
0.0
 40
0.0
 40
0.0
 40
0.5
 40
0.5
 40
1.0
 40
1.0
 40
1.0
 40
1.0
 10
98.18597041710709
 20
132.9366940451745
 30
0.0
 10
98.19466006001876
 20
132.9835728944927
 30
0.0
 10
98.20119912476925
 20
133.0309953598939
 30
0.0
 10
98.20995775916228
 20
133.1269321584807
 30
0.0
 10
98.21211804026723
 20
133.1748474464912
 30
0.0
 10
98.21211804026723
 20
133.2225606766357
 30
0.0
  0
SPLINE
  5
9F
330
1F
100
AcDbEntity
  8
0
  6
Continuous
 62
     7
370
    15
100
AcDbSpline
210
0.0
220
0.0
230
1.0
 70
     8
 71
     3
 72
    10
 73
     6
 74
     0
 42
0.00000001
 43
0.00000001
 40
0.0
 40
0.0
 40
0.0
 40
0.0
 40
0.5
 40
0.5
 40
1.0
 40
1.0
 40
1.0
 40
1.0
 10
94.78641557195817
 20
139.4866940451745
 30
0.0
 10
94.66487530828967
 20
139.5614202123863
 30
0.0
 10
94.56354094794072
 20
139.6703652283031
 30
0.0
 10
94.4279020050523
 20
139.9207957090647
 30
0.0
 10
94.39211804026723
 20
140.0632150711636
 30
0.0
 10
94.39211804026723
 20
140.2063478962103
 30
0.0
  0
SPLINE
  5
A0
330
1F
100
AcDbEntity
  8
0
  6
Continuous
 62
     7
370
    15
100
AcDbSpline
210
0.0
220
0.0
230
1.0
 70
    24
 71
     3
 72
    12
 73
     8
 74
     0
 42
0.00000001
 43
0.00000001
 40
0.0
 40
0.0
 40
0.0
 40
0.0
 40
0.2500000000000037
 40
0.2500000000000037
 40
0.5000000000000074
 40
0.5000000000000074
 40
1.0
 40
1.0
 40
1.0
 40
1.0
 10
95.19211804026723
 20
139.4866940451745
 30
0.0
 10
95.14224135794977
 20
139.4866940451745
 30
0.0
 10
95.09423816454618
 20
139.4866940451745
 30
0.0
 10
95.0111900618342
 20
139.4866940451745
 30
0.0
 10
94.97506048236636
 20
139.4866940451745
 30
0.0
 10
94.87914845142214
 20
139.4866940451745
 30
0.0
 10
94.82938978345334
 20
139.4866940451745
 30
0.0
 10
94.78641557195817
 20
139.4866940451745
 30
0.0
  0
SPLINE
  5
A1
330
1F
100
AcDbEntity
  8
0
  6
Continuous
 62
     7
370
    15
100
AcDbSpline
210
0.0
220
0.0
230
1.0
 70
    24
 71
     3
 72
    14
 73
    10
 74
     0
 42
0.00000001
 43
0.00000001
 40
0.0
 40
0.0
 40
0.0
 40
0.0
 40
0.1249999999999991
 40
0.1249999999999991
 40
0.2499999999999982
 40
0.2499999999999982
 40
0.4999999999999998
 40
0.4999999999999998
 40
1.0
 40
1.0
 40
1.0
 40
1.0
 10
95.19211804026722
 20
86.68669404517453
 30
0.0
 10
95.12368019238076
 20
86.68669404517453
 30
0.0
 10
95.0581301536157
 20
86.68669404517453
 30
0.0
 10
94.95370351420776
 20
86.68669404517453
 30
0.0
 10
94.91115890444635
 20
86.68669404517453
 30
0.0
 10
94.79854944390608
 20
86.68669404517452
 30
0.0
 10
94.74301039688659
 20
86.68669404517453
 30
0.0
 10
94.60039870142279
 20
86.68669404517452
 30
0.0
 10
94.53699334642704
 20
86.68669404517452
 30
0.0
 10
94.48979284259951
 20
86.68669404517453
 30
0.0
  0
SPLINE
  5
A2
330
1F
100
AcDbEntity
  8
0
  6
Continuous
 62
     7
370
    15
100
AcDbSpline
210
0.0
220
0.0
230
1.0
 70
     8
 71
     3
 72
    10
 73
     6
 74
     0
 42
0.00000001
 43
0.00000001
 40
0.0
 40
0.0
 40
0.0
 40
0.0
 40
0.5
 40
0.5
 40
1.0
 40
1.0
 40
1.0
 40
1.0
 10
94.39211804026723
 20
133.2225606766359
 30
0.0
 10
94.39211804026723
 20
133.1747891686426
 30
0.0
 10
94.39427928386438
 20
133.127079446581
 30
0.0
 10
94.40295065772455
 20
133.0317843290327
 30
0.0
 10
94.40947984068053
 20
132.984091765066
 30
0.0
 10
94.41826566342736
 20
132.9366940451745
 30
0.0
  0
LINE
  5
A3
330
1F
100
AcDbEntity
  8
0
  6
Continuous
 62
     7
370
    15
100
AcDbLine
 10
97.4121180403
 20
139.4866940452
 30
0.0
 11
95.1921180403
 21
139.4866940452
 31
0.0
  0
LINE
  5
A4
330
1F
100
AcDbEntity
  8
0
  6
Continuous
 62
     7
370
    15
100
AcDbLine
 10
97.4121180403
 20
86.6866940452
 30
0.0
 11
95.1921180403
 21
86.6866940452
 31
0.0
  0
LINE
  5
A5
330
1F
100
AcDbEntity
  8
0
  6
Continuous
 62
     7
370
    15
100
AcDbLine
 10
149.2521180403
 20
139.0866940452
 30
0.0
 11
149.2521180403
 21
87.0866940452
 31
0.0
  0
LINE
  5
A6
330
1F
100
AcDbEntity
  8
0
  6
Continuous
 62
     7
370
    15
100
AcDbLine
 10
56.5021180403
 20
89.8582471514
 30
0.0
 11
56.5021180403
 21
91.122956514
 31
0.0
  0
SPLINE
  5
A7
330
1F
100
AcDbEntity
  8
0
  6
Continuous
 62
     7
370
    15
100
AcDbSpline
210
0.0
220
0.0
230
1.0
 70
     8
 71
     3
 72
    14
 73
    10
 74
     0
 42
0.00000001
 43
0.00000001
 40
0.0
 40
0.0
 40
0.0
 40
0.0
 40
0.25
 40
0.25
 40
0.5
 40
0.5
 40
0.75
 40
0.75
 40
1.0
 40
1.0
 40
1.0
 40
1.0
 10
55.7238309223515
 20
92.25354272161458
 30
0.0
 10
55.78045759755358
 20
92.14584526777772
 30
0.0
 10
55.8749802578433
 20
92.04305568605841
 30
0.0
 10
56.05802523340554
 20
91.84469837383826
 30
0.0
 10
56.14965181036028
 20
91.74863886516
 30
0.0
 10
56.30850512805347
 20
91.56110982245076
 30
0.0
 10
56.37639573567515
 20
91.46970084966722
 30
0.0
 10
56.47331276138274
 20
91.29132462875705
 30
0.0
 10
56.50211804026781
 20
91.20410272251088
 30
0.0
 10
56.5021180402678
 20
91.12295651397662
 30
0.0
  0
SPLINE
  5
A8
330
1F
100
AcDbEntity
  8
0
  6
Continuous
 62
     7
370
    15
100
AcDbSpline
210
0.0
220
0.0
230
1.0
 70
     8
 71
     3
 72
    14
 73
    10
 74
     0
 42
0.00000001
 43
0.00000001
 40
0.0
 40
0.0
 40
0.0
 40
0.0
 40
0.1249999999999975
 40
0.1249999999999975
 40
0.249999999999995
 40
0.249999999999995
 40
0.4999999999999953
 40
0.4999999999999953
 40
1.0
 40
1.0
 40
1.0
 40
1.0
 10
55.10211804026723
 20
92.7002245838939
 30
0.0
 10
55.15066244892439
 20
92.70597289717419
 30
0.0
 10
55.20357780370929
 20
92.70287200851796
 30
0.0
 10
55.29887314869234
 20
92.68067716435563
 30
0.0
 10
55.33912414597729
 20
92.66344493725977
 30
0.0
 10
55.44339415949026
 20
92.6071170208077
 30
0.0
 10
55.49371613464358
 20
92.5629306748619
 30
0.0
 10
55.62139908216897
 20
92.43192277601128
 30
0.0
 10
55.67748452923123
 20
92.34168825578098
 30
0.0
 10
55.72383092235297
 20
92.2535427216151
 30
0.0
  0
SPLINE
  5
A9
330
1F
100
AcDbEntity
  8
0
  6
Continuous
 62
     7
370
    15
100
AcDbSpline
210
0.0
220
0.0
230
1.0
 70
     8
 71
     3
 72
     8
 73
     4
 74
     0
 42
0.00000001
 43
0.00000001
 40
0.0
 40
0.0
 40
0.0
 40
0.0
 40
1.0
 40
1.0
 40
1.0
 40
1.0
 10
52.833592947321
 20
92.39037929731111
 30
0.0
 10
53.56816997380395
 20
92.50900430838007
 30
0.0
 10
54.33164504319962
 20
92.60899018051636
 30
0.0
 10
55.10211804026724
 20
92.7002245838939
 30
0.0
  0
SPLINE
  5
AA
330
1F
100
AcDbEntity
  8
0
  6
Continuous
 62
     7
370
    15
100
AcDbSpline
210
0.0
220
0.0
230
1.0
 70
     8
 71
     3
 72
    14
 73
    10
 74
     0
 42
0.00000001
 43
0.00000001
 40
0.0
 40
0.0
 40
0.0
 40
0.0
 40
0.500000000000001
 40
0.500000000000001
 40
0.7500000000000004
 40
0.7500000000000004
 40
0.8750000000000003
 40
0.8750000000000003
 40
1.0
 40
1.0
 40
1.0
 40
1.0
 10
47.55211804026722
 20
92.21675627977946
 30
0.0
 10
48.4442641708208
 20
92.21603405357881
 30
0.0
 10
49.3342406066144
 20
92.22062026003627
 30
0.0
 10
50.66083577369002
 20
92.24834526442781
 30
0.0
 10
51.10168270218873
 20
92.26095180205199
 30
0.0
 10
51.75812293961116
 20
92.29196795005943
 30
0.0
 10
51.97613659620303
 20
92.30431112268622
 30
0.0
 10
52.40884544988582
 20
92.3373351778495
 30
0.0
 10
52.62412191505062
 20
92.35655234298792
 30
0.0
 10
52.83359294732101
 20
92.39037929731111
 30
0.0
  0
SPLINE
  5
AB
330
1F
100
AcDbEntity
  8
0
  6
Continuous
 62
     7
370
    15
100
AcDbSpline
210
0.0
220
0.0
230
1.0
 70
     8
 71
     3
 72
     8
 73
     4
 74
     0
 42
0.00000001
 43
0.00000001
 40
0.0000005163856998
 40
0.0000005163856998
 40
0.0000005163856998
 40
0.0000005163856998
 40
0.000026289209185
 40
0.000026289209185
 40
0.000026289209185
 40
0.000026289209185
 10
47.54207310985961
 20
92.22674015287625
 30
0.0
 10
47.54540084806744
 20
92.22340590600713
 30
0.0
 10
47.54874930104304
 20
92.22007794873181
 30
0.0
 10
47.5521180402672
 20
92.21675627977945
 30
0.0
  0
SPLINE
  5
AC
330
1F
100
AcDbEntity
  8
0
  6
Continuous
 62
     7
370
    15
100
AcDbSpline
210
0.0
220
0.0
230
1.0
 70
     8
 71
     3
 72
     8
 73
     4
 74
     0
 42
0.00000001
 43
0.00000001
 40
0.0000005099763573
 40
0.0000005099763573
 40
0.0000005099763573
 40
0.0000005099763573
 40
0.0000262827998699
 40
0.0000262827998699
 40
0.0000262827998699
 40
0.0000262827998699
 10
47.55211804026721
 20
133.9566318105696
 30
0.0
 10
47.54874930103946
 20
133.9533101416137
 30
0.0
 10
47.54540084806032
 20
133.9499821843349
 30
0.0
 10
47.54207310984898
 20
133.9466479374622
 30
0.0
  0
SPLINE
  5
AD
330
1F
100
AcDbEntity
  8
0
  6
Continuous
 62
     7
370
    15
100
AcDbSpline
210
0.0
220
0.0
230
1.0
 70
     8
 71
     3
 72
    10
 73
     6
 74
     0
 42
0.00000001
 43
0.00000001
 40
0.0
 40
0.0
 40
0.0
 40
0.0
 40
0.5
 40
0.5
 40
1.0
 40
1.0
 40
1.0
 40
1.0
 10
51.10211804026724
 20
133.9097814370023
 30
0.0
 10
50.51453249317664
 20
133.9308469572387
 30
0.0
 10
49.92378609971625
 20
133.9416054431109
 30
0.0
 10
48.7397669344174
 20
133.9549702236466
 30
0.0
 10
48.14635294621193
 20
133.9571128663111
 30
0.0
 10
47.55211804026722
 20
133.9566318105696
 30
0.0
  0
SPLINE
  5
AE
330
1F
100
AcDbEntity
  8
0
  6
Continuous
 62
     7
370
    15
100
AcDbSpline
210
0.0
220
0.0
230
1.0
 70
     8
 71
     3
 72
    18
 73
    14
 74
     0
 42
0.00000001
 43
0.00000001
 40
0.0
 40
0.0
 40
0.0
 40
0.0
 40
0.2500000000000009
 40
0.2500000000000009
 40
0.500000000000001
 40
0.500000000000001
 40
0.7500000000000011
 40
0.7500000000000011
 40
0.875000000000001
 40
0.875000000000001
 40
0.9375000000000006
 40
0.9375000000000006
 40
1.0
 40
1.0
 40
1.0
 40
1.0
 10
52.50211804026723
 20
134.9308017175375
 30
0.0
 10
52.50211804026725
 20
134.8475948086803
 30
0.0
 10
52.46626894032897
 20
134.7588581533668
 30
0.0
 10
52.34139720429503
 20
134.5767329628065
 30
0.0
 10
52.25099678664717
 20
134.4816029141799
 30
0.0
 10
52.028754131905
 20
134.2924214050556
 30
0.0
 10
51.89898934545922
 20
134.1974762369609
 30
0.0
 10
51.65835188814771
 20
134.059197529381
 30
0.0
 10
51.57058459001026
 20
134.0134870960785
 30
0.0
 10
51.41606050280347
 20
133.9556637908571
 30
0.0
 10
51.35944961674871
 20
133.9379490268192
 30
0.0
 10
51.23540558584211
 20
133.9134097235863
 30
0.0
 10
51.16769091082382
 20
133.907430585048
 30
0.0
 10
51.10211804026722
 20
133.9097814370023
 30
0.0
  0
LINE
  5
AF
330
1F
100
AcDbEntity
  8
0
  6
Continuous
 62
     7
370
    15
100
AcDbLine
 10
52.5021180403
 20
134.9308017175
 30
0.0
 11
52.5021180403
 21
136.1147401374
 31
0.0
  0
LINE
  5
B0
330
1F
100
AcDbEntity
  8
0
  6
Continuous
 62
     7
370
    15
100
AcDbLine
 10
76.3021180403
 20
88.8662631835
 30
0.0
 11
76.3021180403
 21
137.3071249069
 31
0.0
  0
SPLINE
  5
B1
330
1F
100
AcDbEntity
  8
0
  6
Continuous
 62
     7
370
    15
100
AcDbSpline
210
0.0
220
0.0
230
1.0
 70
     8
 71
     3
 72
    18
 73
    14
 74
     0
 42
0.00000001
 43
0.00000001
 40
0.0
 40
0.0
 40
0.0
 40
0.0
 40
0.0010671296451833
 40
0.1270947795731636
 40
0.252405345751277
 40
0.3766468878987097
 40
0.4391415999051428
 40
0.5008278021400407
 40
0.5624255708808511
 40
0.6253162439161145
 40
0.7499985144706707
 40
0.8752758950341254
 40
1.0
 40
1.0
 40
1.0
 40
1.0
 10
65.07241888033991
 20
89.42935502225818
 30
0.0
 10
65.0715070477014
 20
89.42924024372155
 30
0.0
 10
64.9629080890646
 20
89.41557015885562
 30
0.0
 10
65.35054915671424
 20
89.46648965947125
 30
0.0
 10
66.21651383854945
 20
89.5660728325177
 30
0.0
 10
67.41691776331926
 20
89.63519671566141
 30
0.0
 10
68.47449367780798
 20
89.63914894480021
 30
0.0
 10
69.30162776471415
 20
89.61166000634519
 30
0.0
 10
70.12689963234841
 20
89.5531198299374
 30
0.0
 10
71.18126485234838
 20
89.43959867020185
 30
0.0
 10
72.3431011338237
 20
89.2564478459532
 30
0.0
 10
73.29533591520727
 20
89.05184463631828
 30
0.0
 10
73.42104097601514
 20
89.0225592855422
 30
0.0
 10
73.48375440816034
 20
89.00794901570151
 30
0.0
  0
SPLINE
  5
B2
330
1F
100
AcDbEntity
  8
0
  6
Continuous
 62
     7
370
    15
100
AcDbSpline
210
0.0
220
0.0
230
1.0
 70
     8
 71
     3
 72
    18
 73
    14
 74
     0
 42
0.00000001
 43
0.00000001
 40
0.0
 40
0.0
 40
0.0
 40
0.0
 40
0.1248907792210109
 40
0.2505384020341698
 40
0.3748721840485282
 40
0.437490765334968
 40
0.4990776265894272
 40
0.5607931536353509
 40
0.6233901338664932
 40
0.7478191038417344
 40
0.8731940995934958
 40
0.9991614644710078
 40
0.9999999999999999
 40
0.9999999999999999
 40
0.9999999999999999
 40
0.9999999999999999
 10
73.48353564263644
 20
137.1653738940932
 30
0.0
 10
73.41979488992479
 20
137.1507126014951
 30
0.0
 10
73.2919271127483
 20
137.1213011682236
 30
0.0
 10
72.3399278916879
 20
136.9163480641612
 30
0.0
 10
71.17938418648463
 20
136.7330842883502
 30
0.0
 10
70.12711973439652
 20
136.6200566961013
 30
0.0
 10
69.30289261932893
 20
136.56179304856
 30
0.0
 10
68.47528884980849
 20
136.5343466605557
 30
0.0
 10
67.41647165732344
 20
136.538331466485
 30
0.0
 10
66.21425295928844
 20
136.6074209428663
 30
0.0
 10
65.34906901960113
 20
136.707047159423
 30
0.0
 10
64.96292859807092
 20
136.7578632330236
 30
0.0
 10
65.07100013885128
 20
136.7441910529604
 30
0.0
 10
65.07171478877156
 20
136.7441006422721
 30
0.0
  0
SPLINE
  5
B3
330
1F
100
AcDbEntity
  8
0
  6
Continuous
 62
     7
370
    15
100
AcDbSpline
210
0.0
220
0.0
230
1.0
 70
     8
 71
     3
 72
    10
 73
     6
 74
     0
 42
0.00000001
 43
0.00000001
 40
0.0
 40
0.0
 40
0.0
 40
0.0
 40
0.5
 40
0.5
 40
1.0
 40
1.0
 40
1.0
 40
1.0
 10
46.40211804026656
 20
93.39601629869703
 30
0.0
 10
46.4021180402665
 20
93.36714203383764
 30
0.0
 10
46.41231195002762
 20
93.34963847745911
 30
0.0
 10
46.43906255483576
 20
93.34910691463138
 30
0.0
 10
46.45595000676711
 20
93.36677437181093
 30
0.0
 10
46.46478141499063
 20
93.41214150039379
 30
0.0
  0
LINE
  5
B4
330
1F
100
AcDbEntity
  8
0
  6
Continuous
 62
     7
370
    15
100
AcDbLine
 10
46.4021180403
 20
93.3960162987
 30
0.0
 11
46.4021180403
 21
132.7773717917
 31
0.0
  0
SPLINE
  5
B5
330
1F
100
AcDbEntity
  8
0
  6
Continuous
 62
     7
370
    15
100
AcDbSpline
210
0.0
220
0.0
230
1.0
 70
     8
 71
     3
 72
    10
 73
     6
 74
     0
 42
0.00000001
 43
0.00000001
 40
0.0
 40
0.0
 40
0.0
 40
0.0
 40
0.5
 40
0.5
 40
1.0
 40
1.0
 40
1.0
 40
1.0
 10
46.46478141499063
 20
132.7612465899552
 30
0.0
 10
46.45587712588188
 20
132.8069881091684
 30
0.0
 10
46.4393617456889
 20
132.8241789486374
 30
0.0
 10
46.41225379962729
 20
132.8238556717017
 30
0.0
 10
46.40211804026723
 20
132.8059781294053
 30
0.0
 10
46.40211804026723
 20
132.7773717916527
 30
0.0
  0
SPLINE
  5
B6
330
1F
100
AcDbEntity
  8
0
  6
Continuous
 62
     7
370
    15
100
AcDbSpline
210
0.0
220
0.0
230
1.0
 70
     8
 71
     3
 72
    26
 73
    22
 74
     0
 42
0.00000001
 43
0.00000001
 40
0.0
 40
0.0
 40
0.0
 40
0.0
 40
0.2500000000000165
 40
0.2500000000000165
 40
0.3750000000000256
 40
0.3750000000000256
 40
0.4375000000000291
 40
0.4375000000000291
 40
0.4687500000000291
 40
0.4687500000000291
 40
0.5000000000000292
 40
0.5000000000000292
 40
0.5312500000000293
 40
0.5312500000000293
 40
0.5625000000000293
 40
0.5625000000000293
 40
0.625000000000026
 40
0.625000000000026
 40
0.7500000000000173
 40
0.7500000000000173
 40
1.0
 40
1.0
 40
1.0
 40
1.0
 10
47.22627168637174
 20
133.4768133787724
 30
0.0
 10
47.18767116350327
 20
133.359038682417
 30
0.0
 10
47.14137416094901
 20
133.234648996255
 30
0.0
 10
47.04743481251509
 20
133.0294296639015
 30
0.0
 10
47.01212334560162
 20
132.9578567974551
 30
0.0
 10
46.94594336985594
 20
132.8419035648546
 30
0.0
 10
46.92140500318773
 20
132.8013190300444
 30
0.0
 10
46.87803225763393
 20
132.7371773481727
 30
0.0
 10
46.86252385620873
 20
132.7153109228876
 30
0.0
 10
46.82748121162169
 20
132.6697166545444
 30
0.0
 10
46.80793092090194
 20
132.646046363577
 30
0.0
 10
46.76600364053132
 20
132.601429804237
 30
0.0
 10
46.74335153029968
 20
132.5805497917191
 30
0.0
 10
46.70237781621306
 20
132.5496763779683
 30
0.0
 10
46.68477851631764
 20
132.5398375081359
 30
0.0
 10
46.64015153046149
 20
132.5208478924397
 30
0.0
 10
46.61959230780815
 20
132.5205235677863
 30
0.0
 10
46.56846686831148
 20
132.5297470086625
 30
0.0
 10
46.54755545532294
 20
132.5509939048794
 30
0.0
 10
46.49610554776201
 20
132.6249627837102
 30
0.0
 10
46.47844024845746
 20
132.691080877025
 30
0.0
 10
46.46478141499063
 20
132.7612465899552
 30
0.0
  0
SPLINE
  5
B7
330
1F
100
AcDbEntity
  8
0
  6
Continuous
 62
     7
370
    15
100
AcDbSpline
210
0.0
220
0.0
230
1.0
 70
     8
 71
     3
 72
    10
 73
     6
 74
     0
 42
0.00000001
 43
0.00000001
 40
0.0
 40
0.0
 40
0.0
 40
0.0
 40
0.5
 40
0.5
 40
1.0
 40
1.0
 40
1.0
 40
1.0
 10
47.54207310984901
 20
133.9466479374622
 30
0.0
 10
47.47451385493076
 20
133.8789565446524
 30
0.0
 10
47.41087719959427
 20
133.8042493798988
 30
0.0
 10
47.30065644502243
 20
133.6452832474722
 30
0.0
 10
47.2538401517998
 20
133.5609279814641
 30
0.0
 10
47.22627168637172
 20
133.4768133787724
 30
0.0
  0
SPLINE
  5
B8
330
1F
100
AcDbEntity
  8
0
  6
Continuous
 62
     7
370
    15
100
AcDbSpline
210
0.0
220
0.0
230
1.0
 70
     8
 71
     3
 72
    10
 73
     6
 74
     0
 42
0.00000001
 43
0.00000001
 40
0.0
 40
0.0
 40
0.0
 40
0.0
 40
0.5
 40
0.5
 40
1.0
 40
1.0
 40
1.0
 40
1.0
 10
47.22627168637178
 20
92.69657471157656
 30
0.0
 10
47.25374910112574
 20
92.61273791510868
 30
0.0
 10
47.30045773141517
 20
92.52842742751955
 30
0.0
 10
47.41073619416111
 20
92.36930619703283
 30
0.0
 10
47.47462373277502
 20
92.29432145294318
 30
0.0
 10
47.54207310985962
 20
92.22674015287625
 30
0.0
  0
SPLINE
  5
B9
330
1F
100
AcDbEntity
  8
0
  6
Continuous
 62
     7
370
    15
100
AcDbSpline
210
0.0
220
0.0
230
1.0
 70
     8
 71
     3
 72
    24
 73
    20
 74
     0
 42
0.00000001
 43
0.00000001
 40
0.0
 40
0.0
 40
0.0
 40
0.0
 40
0.25
 40
0.25
 40
0.374999999999999
 40
0.374999999999999
 40
0.4374999999999993
 40
0.4374999999999993
 40
0.4687499999999994
 40
0.4687499999999994
 40
0.4999999999999995
 40
0.4999999999999995
 40
0.5624999999999971
 40
0.5624999999999971
 40
0.6249999999999947
 40
0.6249999999999947
 40
0.7499999999999947
 40
0.7499999999999947
 40
1.0
 40
1.0
 40
1.0
 40
1.0
 10
46.46478141499063
 20
93.41214150039379
 30
0.0
 10
46.47853453366086
 20
93.48279155838406
 30
0.0
 10
46.49630710106673
 20
93.54938967114902
 30
0.0
 10
46.54855819262207
 20
93.62348769138221
 30
0.0
 10
46.56959326820365
 20
93.64474549854377
 30
0.0
 10
46.62249367583208
 20
93.65289142469001
 30
0.0
 10
46.64359934870998
 20
93.65195162129423
 30
0.0
 10
46.68965151738796
 20
93.63093562971689
 30
0.0
 10
46.70802198937135
 20
93.62002682360928
 30
0.0
 10
46.74957362443705
 20
93.58739191266191
 30
0.0
 10
46.77214029719397
 20
93.56589993229053
 30
0.0
 10
46.83492131365398
 20
93.49743398870422
 30
0.0
 10
46.86805107462189
 20
93.45135953049913
 30
0.0
 10
46.92496876110688
 20
93.36635164216446
 30
0.0
 10
46.94915478661066
 20
93.32607134098309
 30
0.0
 10
47.01436273699041
 20
93.21113511451713
 30
0.0
 10
47.04907879718166
 20
93.14055212937012
 30
0.0
 10
47.14229406751255
 20
92.93634637029152
 30
0.0
 10
47.18796660287322
 20
92.81344798796417
 30
0.0
 10
47.22627168637177
 20
92.69657471157657
 30
0.0
  0
LINE
  5
BA
330
1F
100
AcDbEntity
  8
0
  6
Continuous
 62
     7
370
    15
100
AcDbLine
 10
103.6521180403
 20
143.5538895183
 30
0.0
 11
99.6940508718
 21
143.5538895183
 31
0.0
  0
LINE
  5
BB
330
1F
100
AcDbEntity
  8
0
  6
Continuous
 62
     7
370
    15
100
AcDbLine
 10
99.6940508718
 20
137.5453837075
 30
0.0
 11
103.6521180403
 21
137.5453837075
 31
0.0
  0
LINE
  5
BC
330
1F
100
AcDbEntity
  8
0
  6
Continuous
 62
     7
370
    15
100
AcDbLine
 10
99.6940508718
 20
137.5453837075
 30
0.0
 11
99.6940508718
 21
143.5538895183
 31
0.0
  0
SPLINE
  5
BD
330
1F
100
AcDbEntity
  8
0
  6
Continuous
 62
     7
370
    15
100
AcDbSpline
210
0.0
220
0.0
230
1.0
 70
     8
 71
     3
 72
     8
 73
     4
 74
     0
 42
0.00000001
 43
0.00000001
 40
0.0
 40
0.0
 40
0.0
 40
0.0
 40
1.0
 40
1.0
 40
1.0
 40
1.0
 10
99.69405087175629
 20
143.5538895183388
 30
0.0
 10
99.19891084239197
 20
142.6672098701585
 30
0.0
 10
98.70482813711298
 20
141.7799472344725
 30
0.0
 10
98.21211804026723
 20
140.8919282363461
 30
0.0
  0
SPLINE
  5
BE
330
1F
100
AcDbEntity
  8
0
  6
Continuous
 62
     7
370
    15
100
AcDbSpline
210
0.0
220
0.0
230
1.0
 70
     8
 71
     3
 72
     8
 73
     4
 74
     0
 42
0.00000001
 43
0.00000001
 40
0.0
 40
0.0
 40
0.0
 40
0.0
 40
1.0
 40
1.0
 40
1.0
 40
1.0
 10
98.21211804026723
 20
134.1368377127578
 30
0.0
 10
98.69139619085706
 20
135.2778489426104
 30
0.0
 10
99.186964029997
 20
136.4142333533783
 30
0.0
 10
99.69405087175629
 20
137.545383707542
 30
0.0
  0
LINE
  5
BF
330
1F
100
AcDbEntity
  8
0
  6
Continuous
 62
     7
370
    15
100
AcDbLine
 10
98.2121180403
 20
134.1368377128
 30
0.0
 11
98.2121180403
 21
140.8919282363
 31
0.0
  0
SPLINE
  5
C0
330
1F
100
AcDbEntity
  8
0
  6
Continuous
 62
     7
370
    15
100
AcDbSpline
210
0.0
220
0.0
230
1.0
 70
     8
 71
     3
 72
     8
 73
     4
 74
     0
 42
0.00000001
 43
0.00000001
 40
0.0
 40
0.0
 40
0.0
 40
0.0
 40
1.0
 40
1.0
 40
1.0
 40
1.0
 10
92.91018520877817
 20
137.545383707542
 30
0.0
 10
93.41727205053745
 20
136.4142333533783
 30
0.0
 10
93.91283988967737
 20
135.2778489426105
 30
0.0
 10
94.39211804026722
 20
134.1368377127579
 30
0.0
  0
LINE
  5
C1
330
1F
100
AcDbEntity
  8
0
  6
Continuous
 62
     7
370
    15
100
AcDbLine
 10
94.3921180403
 20
134.1368377128
 30
0.0
 11
94.3921180403
 21
133.2225606766
 31
0.0
  0
SPLINE
  5
C2
330
1F
100
AcDbEntity
  8
0
  6
Continuous
 62
     7
370
    15
100
AcDbSpline
210
0.0
220
0.0
230
1.0
 70
     8
 71
     3
 72
    10
 73
     6
 74
     0
 42
0.00000001
 43
0.00000001
 40
0.0
 40
0.0
 40
0.0
 40
0.0
 40
0.5
 40
0.5
 40
1.0
 40
1.0
 40
1.0
 40
1.0
 10
104.2521180402672
 20
142.9331343689385
 30
0.0
 10
104.2521180402672
 20
143.0935396352893
 30
0.0
 10
104.1898802091604
 20
143.2526014482778
 30
0.0
 10
103.9707452854178
 20
143.4835139139082
 30
0.0
 10
103.8131565904259
 20
143.5538895183388
 30
0.0
 10
103.6521180402672
 20
143.5538895183388
 30
0.0
  0
SPLINE
  5
C3
330
1F
100
AcDbEntity
  8
0
  6
Continuous
 62
     7
370
    15
100
AcDbSpline
210
0.0
220
0.0
230
1.0
 70
     8
 71
     3
 72
    12
 73
     8
 74
     0
 42
0.00000001
 43
0.00000001
 40
0.0
 40
0.0
 40
0.0
 40
0.0
 40
0.250000000000002
 40
0.250000000000002
 40
0.500000000000004
 40
0.500000000000004
 40
1.0
 40
1.0
 40
1.0
 40
1.0
 10
103.6521180402672
 20
137.545383707542
 30
0.0
 10
103.7433177620929
 20
137.545383707542
 30
0.0
 10
103.8339127712289
 20
137.5171640089541
 30
0.0
 10
103.9873254976756
 20
137.422721001706
 30
0.0
 10
104.0525343649992
 20
137.3564340250007
 30
0.0
 10
104.2053188943392
 20
137.1308092017124
 30
0.0
 10
104.2521180402672
 20
136.9483829386798
 30
0.0
 10
104.2521180402672
 20
136.7676463064329
 30
0.0
  0
LINE
  5
C4
330
1F
100
AcDbEntity
  8
0
  6
Continuous
 62
     7
370
    15
100
AcDbLine
 10
104.2521180403
 20
136.7676463064
 30
0.0
 11
104.2521180403
 21
142.9331343689
 31
0.0
  0
SPLINE
  5
C5
330
1F
100
AcDbEntity
  8
0
  6
Continuous
 62
     7
370
    15
100
AcDbSpline
210
0.0
220
0.0
230
1.0
 70
     8
 71
     3
 72
     8
 73
     4
 74
     0
 42
0.00000001
 43
0.00000001
 40
0.0
 40
0.0
 40
0.0
 40
0.0
 40
1.0
 40
1.0
 40
1.0
 40
1.0
 10
94.39211804026723
 20
140.8919282363461
 30
0.0
 10
93.89940794342147
 20
141.7799472344725
 30
0.0
 10
93.4053252381425
 20
142.6672098701585
 30
0.0
 10
92.91018520877817
 20
143.5538895183388
 30
0.0
  0
LINE
  5
C6
330
1F
100
AcDbEntity
  8
0
  6
Continuous
 62
     7
370
    15
100
AcDbLine
 10
94.3921180403
 20
134.1368377128
 30
0.0
 11
94.3921180403
 21
140.8919282363
 31
0.0
  0
LINE
  5
C7
330
1F
100
AcDbEntity
  8
0
  6
Continuous
 62
     7
370
    15
100
AcDbLine
 10
98.2121180403
 20
133.2225606766
 30
0.0
 11
98.2121180403
 21
134.1368377128
 31
0.0
  0
LINE
  5
C8
330
1F
100
AcDbEntity
  8
0
  6
Continuous
 62
     7
370
    15
100
AcDbLine
 10
104.2521180403
 20
136.7676463064
 30
0.0
 11
104.2521180403
 21
132.9366940452
 31
0.0
  0
ARC
  5
C9
330
1F
100
AcDbEntity
  8
0
  6
Continuous
 62
     7
370
    15
100
AcDbCircle
 10
86.302290754
 20
131.884349269
 30
0.0
 40
7.162573957815217
100
AcDbArc
 50
70.7199771868
 51
109.343234089
  0
LINE
  5
CA
330
1F
100
AcDbEntity
  8
0
  6
Continuous
 62
     7
370
    15
100
AcDbLine
 10
237.9521180403
 20
104.3616940452
 30
0.0
 11
238.3021180403
 21
104.0116940452
 31
0.0
  0
LINE
  5
CB
330
1F
100
AcDbEntity
  8
0
  6
Continuous
 62
     7
370
    15
100
AcDbLine
 10
238.3021180403
 20
104.0116940452
 30
0.0
 11
238.3021180403
 21
93.8866940452
 31
0.0
  0
LINE
  5
CC
330
1F
100
AcDbEntity
  8
0
  6
Continuous
 62
     7
370
    15
100
AcDbLine
 10
238.3021180403
 20
132.2866940452
 30
0.0
 11
238.3021180403
 21
122.1616940452
 31
0.0
  0
LINE
  5
CD
330
1F
100
AcDbEntity
  8
0
  6
Continuous
 62
     7
370
    15
100
AcDbLine
 10
238.3021180403
 20
122.1616940452
 30
0.0
 11
237.9521180403
 21
121.8116940452
 31
0.0
  0
LINE
  5
CE
330
1F
100
AcDbEntity
  8
0
  6
Continuous
 62
     7
370
    15
100
AcDbLine
 10
197.3521180403
 20
138.0866940452
 30
0.0
 11
197.3521180403
 21
88.0866940452
 31
0.0
  0
LINE
  5
CF
330
1F
100
AcDbEntity
  8
0
  6
Continuous
 62
     7
370
    15
100
AcDbLine
 10
237.9521180403
 20
137.0866940452
 30
0.0
 11
237.9521180403
 21
89.0866940452
 31
0.0
  0
LINE
  5
D0
330
1F
100
AcDbEntity
  8
0
  6
Continuous
 62
     7
370
    15
100
AcDbLine
 10
220.9521180403
 20
138.0866940452
 30
0.0
 11
220.9521180403
 21
88.0866940452
 31
0.0
  0
LINE
  5
D1
330
1F
100
AcDbEntity
  8
0
  6
Continuous
 62
     7
370
    15
100
AcDbLine
 10
205.8521180403
 20
138.0866940452
 30
0.0
 11
205.8521180403
 21
88.0866940452
 31
0.0
  0
LINE
  5
D2
330
1F
100
AcDbEntity
  8
0
  6
Continuous
 62
     7
370
    15
100
AcDbLine
 10
229.4521180403
 20
138.0866940452
 30
0.0
 11
229.4521180403
 21
88.0866940452
 31
0.0
  0
LINE
  5
D3
330
1F
100
AcDbEntity
  8
0
  6
Continuous
 62
     7
370
    15
100
AcDbLine
 10
188.8521180403
 20
137.0866940452
 30
0.0
 11
188.8521180403
 21
89.0866940452
 31
0.0
  0
LINE
  5
D4
330
1F
100
AcDbEntity
  8
0
  6
HIDDEN
 62
     7
370
     0
100
AcDbLine
 10
83.2521180403
 20
81.5866940452
 30
0.0
 11
83.2521180403
 21
81.6025710623
 31
0.0
  0
SPLINE
  5
D5
330
1F
100
AcDbEntity
  8
0
  6
HIDDEN
 62
     7
370
     0
100
AcDbSpline
210
0.0
220
0.0
230
1.0
 70
     8
 71
     3
 72
    30
 73
    26
 74
     0
 42
0.00000001
 43
0.00000001
 40
0.0
 40
0.0
 40
0.0
 40
0.0
 40
0.125
 40
0.125
 40
0.1874999999999999
 40
0.1874999999999999
 40
0.2499999999999999
 40
0.2499999999999999
 40
0.3749999999999999
 40
0.3749999999999999
 40
0.4374999999999999
 40
0.4374999999999999
 40
0.4999999999999998
 40
0.4999999999999998
 40
0.6249999999999997
 40
0.6249999999999997
 40
0.6874999999999997
 40
0.6874999999999997
 40
0.7499999999999997
 40
0.7499999999999997
 40
0.8124999999999996
 40
0.8124999999999996
 40
0.8749999999999996
 40
0.8749999999999996
 40
1.0
 40
1.0
 40
1.0
 40
1.0
 10
83.25211804026722
 20
81.6025710623122
 30
0.0
 10
83.25211804026722
 20
81.61944998032081
 30
0.0
 10
83.30453560624562
 20
81.64946754514548
 30
0.0
 10
83.45791508614792
 20
81.7122779344186
 30
0.0
 10
83.52159620681569
 20
81.73618184164549
 30
0.0
 10
83.67455107426736
 20
81.78961713408788
 30
0.0
 10
83.7641233730366
 20
81.81922400225544
 30
0.0
 10
84.06534740588977
 20
81.91367370096988
 30
0.0
 10
84.3106624019739
 20
81.9847010947991
 30
0.0
 10
84.74475938304415
 20
82.09871538150486
 30
0.0
 10
84.90142907214782
 20
82.13817063264541
 30
0.0
 10
85.23342223599019
 20
82.21769207541608
 30
0.0
 10
85.40812776498268
 20
82.25762821791687
 30
0.0
 10
85.95779744757421
 20
82.37656462074503
 30
0.0
 10
86.35804841028549
 20
82.45472938462889
 30
0.0
 10
87.01163527692299
 20
82.56443882489778
 30
0.0
 10
87.23731139660008
 20
82.59951966160618
 30
0.0
 10
87.69702321773137
 20
82.66475994098579
 30
0.0
 10
87.93207655177449
 20
82.69509475703055
 30
0.0
 10
88.41258383407349
 20
82.75043313625238
 30
0.0
 10
88.65803736198762
 20
82.77543781281247
 30
0.0
 10
89.15965278679498
 20
82.81931762170316
 30
0.0
 10
89.4171451693955
 20
82.83826130646545
 30
0.0
 10
90.19522168583164
 20
82.88398103373565
 30
0.0
 10
90.7203839630765
 20
82.89977634892736
 30
0.0
 10
91.25211804026722
 20
82.89977634892736
 30
0.0
  0
LINE
  5
D6
330
1F
100
AcDbEntity
  8
0
  6
HIDDEN
 62
     7
370
     0
100
AcDbLine
 10
91.2521180403
 20
82.8997763489
 30
0.0
 11
92.9101852088
 21
82.8997763489
 31
0.0
  0
LINE
  5
D7
330
1F
100
AcDbEntity
  8
0
  6
HIDDEN
 62
     7
370
     0
100
AcDbLine
 10
92.9101852088
 20
143.5538895183
 30
0.0
 11
92.9101852088
 21
82.8997763489
 31
0.0
  0
LINE
  5
D8
330
1F
100
AcDbEntity
  8
0
  6
HIDDEN
 62
     7
370
     0
100
AcDbLine
 10
91.2521180403
 20
143.5538895183
 30
0.0
 11
92.9101852088
 21
143.5538895183
 31
0.0
  0
SPLINE
  5
D9
330
1F
100
AcDbEntity
  8
0
  6
HIDDEN
 62
     7
370
     0
100
AcDbSpline
210
0.0
220
0.0
230
1.0
 70
     8
 71
     3
 72
    17
 73
    13
 74
     0
 42
0.00000001
 43
0.00000001
 40
0.0
 40
0.0
 40
0.0
 40
0.0
 40
0.0638118569779104
 40
0.1662334015758574
 40
0.2715772286555432
 40
0.3750121755717067
 40
0.4812892574314434
 40
0.5875617939750548
 40
0.6968792516928415
 40
0.8035874883160892
 40
0.9135588806005722
 40
1.0
 40
1.0
 40
1.0
 40
1.0
 10
83.28010639934847
 20
144.5795991372172
 30
0.0
 10
83.27690926571016
 20
144.5804032185551
 30
0.0
 10
83.26858055651473
 20
144.5824978947214
 30
0.0
 10
83.50021638766117
 20
144.5240220555972
 30
0.0
 10
83.93531714426119
 20
144.4187123384915
 30
0.0
 10
84.58131950703321
 20
144.2728998774688
 30
0.0
 10
85.40559070758002
 20
144.1054502298664
 30
0.0
 10
86.40812299103723
 20
143.9304771250835
 30
0.0
 10
87.55087088087068
 20
143.7698889769176
 30
0.0
 10
88.81620497626508
 20
143.642539566953
 30
0.0
 10
90.06294479216714
 20
143.566451532398
 30
0.0
 10
90.88870228232938
 20
143.5577285164561
 30
0.0
 10
91.25211804026722
 20
143.5538895183388
 30
0.0
  0
SPLINE
  5
DA
330
1F
100
AcDbEntity
  8
0
  6
HIDDEN
 62
     7
370
     0
100
AcDbSpline
210
0.0
220
0.0
230
1.0
 70
     8
 71
     3
 72
    76
 73
    72
 74
     0
 42
0.00000001
 43
0.00000001
 40
-0.03125
 40
-0.03125
 40
0.0
 40
0.0
 40
0.0312499999999998
 40
0.0312499999999998
 40
0.0468749999999997
 40
0.0468749999999997
 40
0.0624999999999997
 40
0.0624999999999997
 40
0.0937499999999994
 40
0.0937499999999994
 40
0.1249999999999992
 40
0.1249999999999992
 40
0.156249999999999
 40
0.156249999999999
 40
0.1874999999999988
 40
0.1874999999999988
 40
0.2187499999999985
 40
0.2187499999999985
 40
0.2499999999999983
 40
0.2499999999999983
 40
0.2812499999999982
 40
0.2812499999999982
 40
0.3124999999999981
 40
0.3124999999999981
 40
0.3281249999999981
 40
0.3281249999999981
 40
0.3437499999999981
 40
0.3437499999999981
 40
0.3749999999999981
 40
0.3749999999999981
 40
0.4062499999999982
 40
0.4062499999999982
 40
0.4374999999999982
 40
0.4374999999999982
 40
0.4687499999999983
 40
0.4687499999999983
 40
0.4999999999999983
 40
0.4999999999999983
 40
0.5312499999999983
 40
0.5312499999999983
 40
0.5624999999999984
 40
0.5624999999999984
 40
0.5937499999999984
 40
0.5937499999999984
 40
0.6249999999999986
 40
0.6249999999999986
 40
0.6562499999999986
 40
0.6562499999999986
 40
0.6874999999999987
 40
0.6874999999999987
 40
0.7031249999999987
 40
0.7031249999999987
 40
0.7187499999999987
 40
0.7187499999999987
 40
0.7499999999999988
 40
0.7499999999999988
 40
0.781249999999999
 40
0.781249999999999
 40
0.8124999999999991
 40
0.8124999999999991
 40
0.8437499999999993
 40
0.8437499999999993
 40
0.8749999999999994
 40
0.8749999999999994
 40
0.9062499999999997
 40
0.9062499999999997
 40
0.9374999999999998
 40
0.9374999999999998
 40
0.96875
 40
0.96875
 40
1.0
 40
1.0
 40
1.03125
 40
1.03125
 10
80.30211804026723
 20
113.4175780409686
 30
0.0
 10
80.30211804026722
 20
112.7558100493805
 30
0.0
 10
80.33463851805162
 20
112.4305588812846
 30
0.0
 10
80.43013176233362
 20
111.9507621603955
 30
0.0
 10
80.46980659774479
 20
111.7921864766019
 30
0.0
 10
80.56519321108044
 20
111.4778040908088
 30
0.0
 10
80.62113745249108
 20
111.3216844672247
 30
0.0
 10
80.80950047594072
 20
110.8677439073227
 30
0.0
 10
80.96311275235912
 20
110.5807636613157
 30
0.0
 10
81.32594054614323
 20
110.0376505045764
 30
0.0
 10
81.53677564772573
 20
109.7809112130324
 30
0.0
 10
81.99727521774317
 20
109.3205265788015
 30
0.0
 10
82.24863815866098
 20
109.1137497620476
 30
0.0
 10
82.79498485301443
 20
108.7482255543842
 30
0.0
 10
83.08519949273239
 20
108.5932259956694
 30
0.0
 10
83.68658630903406
 20
108.3436949745752
 30
0.0
 10
84.00221600212446
 20
108.2474167008865
 30
0.0
 10
84.64785640340402
 20
108.1187676936435
 30
0.0
 10
84.97261215921735
 20
108.0868814345269
 30
0.0
 10
85.62591218960874
 20
108.0865082870162
 30
0.0
 10
85.95778453043945
 20
108.1190877732622
 30
0.0
 10
86.5994357640431
 20
108.2468616779686
 30
0.0
 10
86.91136068097619
 20
108.3413941222657
 30
0.0
 10
87.3658502814931
 20
108.5295137168044
 30
0.0
 10
87.51571358932708
 20
108.6003966980252
 30
0.0
 10
87.80479882324971
 20
108.7550133043596
 30
0.0
 10
87.94465973755777
 20
108.8389359030975
 30
0.0
 10
88.35053618126199
 20
109.1101314265732
 30
0.0
 10
88.60357432775157
 20
109.3172314320145
 30
0.0
 10
89.069473883915
 20
109.7828338850717
 30
0.0
 10
89.27597995841077
 20
110.034752737459
 30
0.0
 10
89.63808552181047
 20
110.5756563534599
 30
0.0
 10
89.79494463562563
 20
110.8681991962113
 30
0.0
 10
90.04589475248825
 20
111.4730668529688
 30
0.0
 10
90.14070585181922
 20
111.7847136844155
 30
0.0
 10
90.26912771461235
 20
112.4264669896371
 30
0.0
 10
90.30199100110354
 20
112.7581948085164
 30
0.0
 10
90.30224432721207
 20
113.4113145737773
 30
0.0
 10
90.27068832664281
 20
113.7362477801204
 30
0.0
 10
90.14244710521841
 20
114.3827747865734
 30
0.0
 10
90.04664105656005
 20
114.6977827404344
 30
0.0
 10
89.7975075454659
 20
115.29974140858
 30
0.0
 10
89.64204742377117
 20
115.5912175788555
 30
0.0
 10
89.27759316941139
 20
116.1368125153522
 30
0.0
 10
89.07116026197565
 20
116.3882896303573
 30
0.0
 10
88.61069117945772
 20
116.8496126544121
 30
0.0
 10
88.35389417140182
 20
117.0607359553585
 30
0.0
 10
87.81184895756734
 20
117.4234667370745
 30
0.0
 10
87.52507937763184
 20
117.5773556404601
 30
0.0
 10
87.07077220174617
 20
117.7663053671521
 30
0.0
 10
86.9146319009727
 20
117.8223781631719
 30
0.0
 10
86.6007859396266
 20
117.9178809287046
 30
0.0
 10
86.44239915193282
 20
117.9576615717321
 30
0.0
 10
85.96292291198945
 20
118.0535441088574
 30
0.0
 10
85.63668296756256
 20
118.0864195568569
 30
0.0
 10
84.9758083702846
 20
118.0869651260279
 30
0.0
 10
84.65067202293967
 20
118.0547986074145
 30
0.0
 10
84.01058952245322
 20
117.9280160694273
 30
0.0
 10
83.69226859838543
 20
117.831748315636
 30
0.0
 10
83.08735231954628
 20
117.5813539942108
 30
0.0
 10
82.80020340589478
 20
117.4280398324893
 30
0.0
 10
82.2562518522218
 20
117.0653319084695
 30
0.0
 10
81.99960590249519
 20
116.8548928357357
 30
0.0
 10
81.53901534908228
 20
116.3950118474593
 30
0.0
 10
81.3318664630914
 20
116.1437300477665
 30
0.0
 10
80.96533521967808
 20
115.5968098740265
 30
0.0
 10
80.81065103217358
 20
115.3076697224103
 30
0.0
 10
80.56055137883538
 20
114.706433048491
 30
0.0
 10
80.46386460434228
 20
114.3904573548502
 30
0.0
 10
80.334643029386
 20
113.7444835967536
 30
0.0
 10
80.30211804026723
 20
113.4175780409686
 30
0.0
 10
80.30211804026722
 20
112.7558100493805
 30
0.0
  0
LINE
  5
DB
330
1F
100
AcDbEntity
  8
0
  6
HIDDEN
 62
     7
370
     0
100
AcDbLine
 10
78.3021180403
 20
81.8866940452
 30
0.0
 11
78.3021180403
 21
144.2866940452
 31
0.0
  0
ARC
  5
DC
330
1F
100
AcDbEntity
  8
0
  6
HIDDEN
 62
     7
370
     0
100
AcDbCircle
 10
86.6022513682
 20
125.5679453335
 30
0.0
 40
3.663651186872138
100
AcDbArc
 50
265.3009538452
 51
12.283205618
  0
ARC
  5
DD
330
1F
100
AcDbEntity
  8
0
  6
HIDDEN
 62
     7
370
     0
100
AcDbCircle
 10
85.9986634134
 20
125.560453649
 30
0.0
 40
3.656458876446801
100
AcDbArc
 50
166.1284346557
 51
274.7605321847
  0
SPLINE
  5
DE
330
1F
100
AcDbEntity
  8
0
  6
HIDDEN
 62
     7
370
     0
100
AcDbSpline
210
0.0
220
0.0
230
1.0
 70
     8
 71
     3
 72
    10
 73
     6
 74
     0
 42
0.00000001
 43
0.00000001
 40
0.0
 40
0.0
 40
0.0
 40
0.0
 40
0.5
 40
0.5
 40
1.0
 40
1.0
 40
1.0
 40
1.0
 10
98.21211804026723
 20
86.28229841684521
 30
0.0
 10
98.21211804026723
 20
86.35253477721596
 30
0.0
 10
98.20383542817673
 20
86.42252887871346
 30
0.0
 10
98.17073548511814
 20
86.5594881432724
 30
0.0
 10
98.14639809315965
 20
86.62479605252766
 30
0.0
 10
98.11444323793496
 20
86.68669404517455
 30
0.0
  0
LINE
  5
DF
330
1F
100
AcDbEntity
  8
0
  6
HIDDEN
 62
     7
370
     0
100
AcDbLine
 10
98.2121180403
 20
133.2225606766
 30
0.0
 11
98.2121180403
 21
140.2063478962
 31
0.0
  0
SPLINE
  5
E0
330
1F
100
AcDbEntity
  8
0
  6
HIDDEN
 62
     7
370
     0
100
AcDbSpline
210
0.0
220
0.0
230
1.0
 70
    24
 71
     3
 72
    10
 73
     6
 74
     0
 42
0.00000001
 43
0.00000001
 40
0.0
 40
0.0
 40
0.0
 40
0.0
 40
0.5
 40
0.5
 40
1.0
 40
1.0
 40
1.0
 40
1.0
 10
98.18597041710711
 20
132.9366940451745
 30
0.0
 10
98.19464819201475
 20
132.9366940451745
 30
0.0
 10
98.20120121602162
 20
132.9366940451746
 30
0.0
 10
98.20993582551867
 20
132.9366940451745
 30
0.0
 10
98.21211804026723
 20
132.9366940451746
 30
0.0
 10
98.21211804026723
 20
132.9366940451745
 30
0.0
  0
LINE
  5
E1
330
1F
100
AcDbEntity
  8
0
  6
HIDDEN
 62
     7
370
     0
100
AcDbLine
 10
98.2121180403
 20
86.2822984168
 30
0.0
 11
98.2121180403
 21
132.9366940452
 31
0.0
  0
SPLINE
  5
E2
330
1F
100
AcDbEntity
  8
0
  6
HIDDEN
 62
     7
370
     0
100
AcDbSpline
210
0.0
220
0.0
230
1.0
 70
     8
 71
     3
 72
    10
 73
     6
 74
     0
 42
0.00000001
 43
0.00000001
 40
0.0
 40
0.0
 40
0.0
 40
0.0
 40
0.5
 40
0.5
 40
1.0
 40
1.0
 40
1.0
 40
1.0
 10
94.48979284259951
 20
86.68669404517453
 30
0.0
 10
94.45763765497753
 20
86.62440799965844
 30
0.0
 10
94.4329814237833
 20
86.55787757478925
 30
0.0
 10
94.4001686668578
 20
86.42101894442682
 30
0.0
 10
94.39211804026722
 20
86.3519613492485
 30
0.0
 10
94.3921180402672
 20
86.28229841684521
 30
0.0
  0
SPLINE
  5
E3
330
1F
100
AcDbEntity
  8
0
  6
HIDDEN
 62
     7
370
     0
100
AcDbSpline
210
0.0
220
0.0
230
1.0
 70
    24
 71
     3
 72
    10
 73
     6
 74
     0
 42
0.00000001
 43
0.00000001
 40
0.0
 40
0.0
 40
0.0
 40
0.0
 40
0.5
 40
0.5
 40
1.0
 40
1.0
 40
1.0
 40
1.0
 10
94.39211804026723
 20
132.9366940451745
 30
0.0
 10
94.39211804026722
 20
132.9366940451745
 30
0.0
 10
94.39433449568526
 20
132.9366940451746
 30
0.0
 10
94.40307449071234
 20
132.9366940451745
 30
0.0
 10
94.40958888177242
 20
132.9366940451746
 30
0.0
 10
94.41826566342736
 20
132.9366940451745
 30
0.0
  0
LINE
  5
E4
330
1F
100
AcDbEntity
  8
0
  6
HIDDEN
 62
     7
370
     0
100
AcDbLine
 10
94.3921180403
 20
133.2225606766
 30
0.0
 11
94.3921180403
 21
140.2063478962
 31
0.0
  0
LINE
  5
E5
330
1F
100
AcDbEntity
  8
0
  6
HIDDEN
 62
     7
370
     0
100
AcDbLine
 10
94.3921180403
 20
86.2822984168
 30
0.0
 11
94.3921180403
 21
132.9366940452
 31
0.0
  0
SPLINE
  5
E6
330
1F
100
AcDbEntity
  8
0
  6
HIDDEN
 62
     7
370
     0
100
AcDbSpline
210
0.0
220
0.0
230
1.0
 70
    27
 71
     3
 72
    20
 73
    16
 74
     0
 42
0.00000001
 43
0.00000001
 40
0.0
 40
0.0
 40
0.0
 40
0.0
 40
0.2500000000000001
 40
0.2500000000000001
 40
0.3750000000000001
 40
0.3750000000000001
 40
0.4375000000000001
 40
0.4375000000000001
 40
0.4687500000000001
 40
0.4687500000000001
 40
0.5000000000000001
 40
0.5000000000000001
 40
0.7500000000000001
 40
0.7500000000000001
 40
1.0
 40
1.0
 40
1.0
 40
1.0
 10
104.2521180402672
 20
139.4866940451745
 30
0.0
 10
104.2521180402672
 20
139.4866940451745
 30
0.0
 10
104.3099474370542
 20
139.4866940451745
 30
0.0
 10
104.3868059156955
 20
139.4866940451745
 30
0.0
 10
104.4110748946453
 20
139.4866940451745
 30
0.0
 10
104.4361245136829
 20
139.4866940451745
 30
0.0
 10
104.4426067225471
 20
139.4866940451745
 30
0.0
 10
104.448812952627
 20
139.4866940451745
 30
0.0
 10
104.4502999750755
 20
139.4866940451745
 30
0.0
 10
104.4520528432843
 20
139.4866940451745
 30
0.0
 10
104.4523048789047
 20
139.4866940451745
 30
0.0
 10
104.4493672577573
 20
139.4866940451745
 30
0.0
 10
104.4054891881793
 20
139.4866940451745
 30
0.0
 10
104.3061053897002
 20
139.4866940451745
 30
0.0
 10
104.2521180402672
 20
139.4866940451745
 30
0.0
 10
104.2521180402672
 20
139.4866940451745
 30
0.0
  0
LINE
  5
E7
330
1F
100
AcDbEntity
  8
0
  6
HIDDEN
 62
     7
370
     0
100
AcDbLine
 10
104.2521180403
 20
139.4866940452
 30
0.0
 11
104.2521180403
 21
86.6866940452
 31
0.0
  0
SPLINE
  5
E8
330
1F
100
AcDbEntity
  8
0
  6
HIDDEN
 62
     7
370
     0
100
AcDbSpline
210
0.0
220
0.0
230
1.0
 70
    27
 71
     3
 72
    20
 73
    16
 74
     0
 42
0.00000001
 43
0.00000001
 40
0.0
 40
0.0
 40
0.0
 40
0.0
 40
0.2500000000000001
 40
0.2500000000000001
 40
0.3750000000000001
 40
0.3750000000000001
 40
0.4375000000000001
 40
0.4375000000000001
 40
0.4687500000000001
 40
0.4687500000000001
 40
0.5000000000000001
 40
0.5000000000000001
 40
0.7500000000000001
 40
0.7500000000000001
 40
1.0
 40
1.0
 40
1.0
 40
1.0
 10
104.2521180402672
 20
86.68669404517453
 30
0.0
 10
104.2521180402672
 20
86.68669404517452
 30
0.0
 10
104.3099474370542
 20
86.68669404517453
 30
0.0
 10
104.3868059156955
 20
86.68669404517452
 30
0.0
 10
104.4110748946453
 20
86.68669404517452
 30
0.0
 10
104.4361245136829
 20
86.68669404517453
 30
0.0
 10
104.4426067225471
 20
86.68669404517453
 30
0.0
 10
104.448812952627
 20
86.68669404517452
 30
0.0
 10
104.4502999750755
 20
86.68669404517453
 30
0.0
 10
104.4520528432843
 20
86.68669404517452
 30
0.0
 10
104.4523048789047
 20
86.68669404517453
 30
0.0
 10
104.4493672577573
 20
86.68669404517453
 30
0.0
 10
104.4054891881793
 20
86.68669404517452
 30
0.0
 10
104.3061053897002
 20
86.68669404517453
 30
0.0
 10
104.2521180402672
 20
86.68669404517453
 30
0.0
 10
104.2521180402672
 20
86.68669404517453
 30
0.0
  0
LINE
  5
E9
330
1F
100
AcDbEntity
  8
0
  6
HIDDEN
 62
     7
370
     0
100
AcDbLine
 10
104.2521180403
 20
86.6866940452
 30
0.0
 11
104.2521180403
 21
139.4866940452
 31
0.0
  0
LINE
  5
EA
330
1F
100
AcDbEntity
  8
0
  6
HIDDEN
 62
     7
370
     0
100
AcDbLine
 10
149.2521180403
 20
87.0866940452
 30
0.0
 11
149.2521180403
 21
139.0866940452
 31
0.0
  0
LINE
  5
EB
330
1F
100
AcDbEntity
  8
0
  6
HIDDEN
 62
     7
370
     0
100
AcDbLine
 10
78.3021180403
 20
87.7627628992
 30
0.0
 11
78.3021180403
 21
138.3810525839
 31
0.0
  0
LINE
  5
EC
330
1F
100
AcDbEntity
  8
0
  6
HIDDEN
 62
     7
370
     0
100
AcDbLine
 10
83.2521180403
 20
132.9366940452
 30
0.0
 11
90.497738386
 21
132.9366940452
 31
0.0
  0
LWPOLYLINE
  5
ED
330
1F
100
AcDbEntity
  8
0
  6
HIDDEN
 62
     7
370
     0
100
AcDbPolyline
 90
        2
 70
   128
 43
0.0
 10
98.2121180403
 20
132.9366940452
 10
98.2121180403
 20
132.9366940452
  0
LWPOLYLINE
  5
EE
330
1F
100
AcDbEntity
  8
0
  6
HIDDEN
 62
     7
370
     0
100
AcDbPolyline
 90
        2
 70
   128
 43
0.0
 10
104.2521180403
 20
132.9366940452
 10
104.2521180403
 20
132.9366940452
  0
LWPOLYLINE
  5
EF
330
1F
100
AcDbEntity
  8
0
  6
HIDDEN
 62
     7
370
     0
100
AcDbPolyline
 90
        2
 70
   128
 43
0.0
 10
94.3921180403
 20
132.9366940452
 10
94.3921180403
 20
132.9366940452
  0
SPLINE
  5
F0
330
1F
100
AcDbEntity
  8
0
  6
HIDDEN
 62
     7
370
     0
100
AcDbSpline
210
0.0
220
0.0
230
1.0
 70
     8
 71
     3
 72
    14
 73
    10
 74
     0
 42
0.00000001
 43
0.00000001
 40
0.0
 40
0.0
 40
0.0
 40
0.0
 40
0.500000000000001
 40
0.500000000000001
 40
0.7500000000000004
 40
0.7500000000000004
 40
0.8750000000000003
 40
0.8750000000000003
 40
1.0
 40
1.0
 40
1.0
 40
1.0
 10
47.55211804026722
 20
92.21675627977946
 30
0.0
 10
48.4442641708208
 20
92.21603405357881
 30
0.0
 10
49.3342406066144
 20
92.22062026003627
 30
0.0
 10
50.66083577369002
 20
92.24834526442781
 30
0.0
 10
51.10168270218873
 20
92.26095180205199
 30
0.0
 10
51.75812293961116
 20
92.29196795005943
 30
0.0
 10
51.97613659620303
 20
92.30431112268622
 30
0.0
 10
52.40884544988582
 20
92.3373351778495
 30
0.0
 10
52.62412191505062
 20
92.35655234298792
 30
0.0
 10
52.83359294732101
 20
92.39037929731111
 30
0.0
  0
SPLINE
  5
F1
330
1F
100
AcDbEntity
  8
0
  6
HIDDEN
 62
     7
370
     0
100
AcDbSpline
210
0.0
220
0.0
230
1.0
 70
     8
 71
     3
 72
     8
 73
     4
 74
     0
 42
0.00000001
 43
0.00000001
 40
0.0
 40
0.0
 40
0.0
 40
0.0
 40
1.0
 40
1.0
 40
1.0
 40
1.0
 10
52.833592947321
 20
92.39037929731111
 30
0.0
 10
53.56816997380383
 20
92.50900430838004
 30
0.0
 10
54.33164504319934
 20
92.60899018051633
 30
0.0
 10
55.10211804026682
 20
92.70022458389384
 30
0.0
  0
SPLINE
  5
F2
330
1F
100
AcDbEntity
  8
0
  6
HIDDEN
 62
     7
370
     0
100
AcDbSpline
210
0.0
220
0.0
230
1.0
 70
     8
 71
     3
 72
    14
 73
    10
 74
     0
 42
0.00000001
 43
0.00000001
 40
0.0
 40
0.0
 40
0.0
 40
0.0
 40
0.1249999999999988
 40
0.1249999999999988
 40
0.2499999999999976
 40
0.2499999999999976
 40
0.4999999999999982
 40
0.4999999999999982
 40
1.0
 40
1.0
 40
1.0
 40
1.0
 10
55.10211804026699
 20
92.70022458389387
 30
0.0
 10
55.15066244892415
 20
92.70597289717419
 30
0.0
 10
55.20357780370905
 20
92.70287200851799
 30
0.0
 10
55.29887314869217
 20
92.68067716435569
 30
0.0
 10
55.33912414597715
 20
92.66344493725984
 30
0.0
 10
55.44339415949016
 20
92.60711702080778
 30
0.0
 10
55.49371613464353
 20
92.56293067486196
 30
0.0
 10
55.62139908216896
 20
92.43192277601132
 30
0.0
 10
55.67748452923123
 20
92.341688255781
 30
0.0
 10
55.72383092235297
 20
92.2535427216151
 30
0.0
  0
SPLINE
  5
F3
330
1F
100
AcDbEntity
  8
0
  6
HIDDEN
 62
     7
370
     0
100
AcDbSpline
210
0.0
220
0.0
230
1.0
 70
     8
 71
     3
 72
    14
 73
    10
 74
     0
 42
0.00000001
 43
0.00000001
 40
0.0
 40
0.0
 40
0.0
 40
0.0
 40
0.25
 40
0.25
 40
0.5
 40
0.5
 40
0.75
 40
0.75
 40
1.0
 40
1.0
 40
1.0
 40
1.0
 10
55.7238309223515
 20
92.25354272161458
 30
0.0
 10
55.78045759755358
 20
92.14584526777772
 30
0.0
 10
55.8749802578433
 20
92.04305568605841
 30
0.0
 10
56.05802523340554
 20
91.84469837383826
 30
0.0
 10
56.14965181036028
 20
91.74863886516
 30
0.0
 10
56.30850512805347
 20
91.56110982245076
 30
0.0
 10
56.37639573567515
 20
91.46970084966722
 30
0.0
 10
56.47331276138274
 20
91.29132462875705
 30
0.0
 10
56.50211804026781
 20
91.20410272251088
 30
0.0
 10
56.5021180402678
 20
91.12295651397662
 30
0.0
  0
LINE
  5
F4
330
1F
100
AcDbEntity
  8
0
  6
HIDDEN
 62
     7
370
     0
100
AcDbLine
 10
56.5021180403
 20
91.122956514
 30
0.0
 11
56.5021180403
 21
89.8582471514
 31
0.0
  0
LINE
  5
F5
330
1F
100
AcDbEntity
  8
0
  6
HIDDEN
 62
     7
370
     0
100
AcDbLine
 10
52.5021180403
 20
136.1147401374
 30
0.0
 11
52.5021180403
 21
134.9308017175
 31
0.0
  0
SPLINE
  5
F6
330
1F
100
AcDbEntity
  8
0
  6
HIDDEN
 62
     7
370
     0
100
AcDbSpline
210
0.0
220
0.0
230
1.0
 70
     8
 71
     3
 72
    18
 73
    14
 74
     0
 42
0.00000001
 43
0.00000001
 40
0.0
 40
0.0
 40
0.0
 40
0.0
 40
0.2500000000000007
 40
0.2500000000000007
 40
0.5000000000000006
 40
0.5000000000000006
 40
0.7500000000000004
 40
0.7500000000000004
 40
0.8750000000000002
 40
0.8750000000000002
 40
0.9375000000000001
 40
0.9375000000000001
 40
1.0
 40
1.0
 40
1.0
 40
1.0
 10
52.50211804026723
 20
134.9308017175375
 30
0.0
 10
52.50211804026725
 20
134.8475948086803
 30
0.0
 10
52.46626894032897
 20
134.7588581533668
 30
0.0
 10
52.34139720429505
 20
134.5767329628065
 30
0.0
 10
52.25099678664719
 20
134.4816029141799
 30
0.0
 10
52.02875413190501
 20
134.2924214050556
 30
0.0
 10
51.89898934545923
 20
134.1974762369609
 30
0.0
 10
51.65835188814771
 20
134.0591975293809
 30
0.0
 10
51.57058459001028
 20
134.0134870960785
 30
0.0
 10
51.41606050280345
 20
133.9556637908571
 30
0.0
 10
51.35944961674871
 20
133.9379490268192
 30
0.0
 10
51.23540558584211
 20
133.9134097235863
 30
0.0
 10
51.16769091082382
 20
133.907430585048
 30
0.0
 10
51.10211804026722
 20
133.9097814370023
 30
0.0
  0
SPLINE
  5
F7
330
1F
100
AcDbEntity
  8
0
  6
HIDDEN
 62
     7
370
     0
100
AcDbSpline
210
0.0
220
0.0
230
1.0
 70
     8
 71
     3
 72
    10
 73
     6
 74
     0
 42
0.00000001
 43
0.00000001
 40
0.0
 40
0.0
 40
0.0
 40
0.0
 40
0.5
 40
0.5
 40
1.0
 40
1.0
 40
1.0
 40
1.0
 10
51.10211804026724
 20
133.9097814370023
 30
0.0
 10
50.51453249317664
 20
133.9308469572387
 30
0.0
 10
49.92378609971625
 20
133.9416054431109
 30
0.0
 10
48.7397669344174
 20
133.9549702236466
 30
0.0
 10
48.14635294621193
 20
133.9571128663111
 30
0.0
 10
47.55211804026722
 20
133.9566318105696
 30
0.0
  0
SPLINE
  5
F8
330
1F
100
AcDbEntity
  8
0
  6
HIDDEN
 62
     7
370
     0
100
AcDbSpline
210
0.0
220
0.0
230
1.0
 70
     8
 71
     3
 72
     8
 73
     4
 74
     0
 42
0.00000001
 43
0.00000001
 40
0.0000005099763571
 40
0.0000005099763571
 40
0.0000005099763571
 40
0.0000005099763571
 40
0.0000262827998698
 40
0.0000262827998698
 40
0.0000262827998698
 40
0.0000262827998698
 10
47.5521180402672
 20
133.9566318105696
 30
0.0
 10
47.54874930103946
 20
133.9533101416137
 30
0.0
 10
47.54540084806032
 20
133.9499821843349
 30
0.0
 10
47.54207310984898
 20
133.9466479374622
 30
0.0
  0
SPLINE
  5
F9
330
1F
100
AcDbEntity
  8
0
  6
HIDDEN
 62
     7
370
     0
100
AcDbSpline
210
0.0
220
0.0
230
1.0
 70
     8
 71
     3
 72
     8
 73
     4
 74
     0
 42
0.00000001
 43
0.00000001
 40
0.000000516385691
 40
0.000000516385691
 40
0.000000516385691
 40
0.000000516385691
 40
0.0000262892091854
 40
0.0000262892091854
 40
0.0000262892091854
 40
0.0000262892091854
 10
47.54207310985607
 20
92.2267401528798
 30
0.0
 10
47.54540084806506
 20
92.2234059060095
 30
0.0
 10
47.54874930104186
 20
92.22007794873299
 30
0.0
 10
47.55211804026721
 20
92.21675627977945
 30
0.0
  0
LINE
  5
FA
330
1F
100
AcDbEntity
  8
0
  6
HIDDEN
 62
     7
370
     0
100
AcDbLine
 10
76.3021180403
 20
137.3071249069
 30
0.0
 11
76.3021180403
 21
88.8662631835
 31
0.0
  0
SPLINE
  5
FB
330
1F
100
AcDbEntity
  8
0
  6
HIDDEN
 62
     7
370
     0
100
AcDbSpline
210
0.0
220
0.0
230
1.0
 70
     8
 71
     3
 72
    10
 73
     6
 74
     0
 42
0.00000001
 43
0.00000001
 40
0.0
 40
0.0
 40
0.0
 40
0.0
 40
0.2949159523299881
 40
0.5007639170797384
 40
1.0
 40
1.0
 40
1.0
 40
1.0
 10
66.2972682448388
 20
89.56209442235277
 30
0.0
 10
66.12433603175246
 20
89.54434720958723
 30
0.0
 10
65.83069911001185
 20
89.51421264510707
 30
0.0
 10
65.15594997794102
 20
89.44613058635522
 30
0.0
 10
65.10704566844147
 20
89.43630912581907
 30
0.0
 10
65.07241888033991
 20
89.42935502225818
 30
0.0
  0
SPLINE
  5
FC
330
1F
100
AcDbEntity
  8
0
  6
HIDDEN
 62
     7
370
     0
100
AcDbSpline
210
0.0
220
0.0
230
1.0
 70
     8
 71
     3
 72
    16
 73
    12
 74
     0
 42
0.00000001
 43
0.00000001
 40
0.0
 40
0.0
 40
0.0
 40
0.0
 40
0.0014619398999441
 40
0.1695060946944864
 40
0.3368148262131681
 40
0.5027784258718639
 40
0.5863380399919874
 40
0.6685202984823477
 40
0.7507638349534439
 40
0.8341946041745465
 40
1.0
 40
1.0
 40
1.0
 40
1.0
 10
73.48375440816034
 20
89.00794901570151
 30
0.0
 10
73.484684512875
 20
89.00774076228853
 30
0.0
 10
73.59252644115395
 20
88.98359461049351
 30
0.0
 10
73.2045127083574
 20
89.07214146603948
 30
0.0
 10
72.34272207967842
 20
89.25574482380419
 30
0.0
 10
71.15241641320029
 20
89.4439747442846
 30
0.0
 10
70.1010161426183
 20
89.55537972428273
 30
0.0
 10
69.27498718676516
 20
89.6130153395191
 30
0.0
 10
68.45119924236157
 20
89.63950109777203
 30
0.0
 10
67.38104377064339
 20
89.63476151085905
 30
0.0
 10
66.73022688556969
 20
89.59112427504499
 30
0.0
 10
66.2972682448388
 20
89.56209442235277
 30
0.0
  0
SPLINE
  5
FD
330
1F
100
AcDbEntity
  8
0
  6
HIDDEN
 62
     7
370
     0
100
AcDbSpline
210
0.0
220
0.0
230
1.0
 70
     8
 71
     3
 72
    16
 73
    12
 74
     0
 42
0.00000001
 43
0.00000001
 40
0.0
 40
0.0
 40
0.0
 40
0.0
 40
0.1658979086808742
 40
0.249360819822282
 40
0.3317589050038946
 40
0.4138911421869317
 40
0.497618166965095
 40
0.6634955966468964
 40
0.8305394509979773
 40
0.9983760749348632
 40
1.0
 40
1.0
 40
1.0
 40
1.0
 10
66.29717552455696
 20
136.6112770751563
 30
0.0
 10
66.73074393675287
 20
136.5823242618692
 30
0.0
 10
67.38243976326379
 20
136.5388053452365
 30
0.0
 10
68.45340566714857
 20
136.5340657160337
 30
0.0
 10
69.27762870638384
 20
136.5604674707979
 30
0.0
 10
70.10464692235989
 20
136.6181610337553
 30
0.0
 10
71.1557641051959
 20
136.7298199307828
 30
0.0
 10
72.34447595738176
 20
136.918018805556
 30
0.0
 10
73.20521404505561
 20
137.1012783066673
 30
0.0
 10
73.59321863813179
 20
137.1898017725548
 30
0.0
 10
73.48457674801186
 20
137.1656057622644
 30
0.0
 10
73.48353564263644
 20
137.1653738940932
 30
0.0
  0
SPLINE
  5
FE
330
1F
100
AcDbEntity
  8
0
  6
HIDDEN
 62
     7
370
     0
100
AcDbSpline
210
0.0
220
0.0
230
1.0
 70
     8
 71
     3
 72
    10
 73
     6
 74
     0
 42
0.00000001
 43
0.00000001
 40
0.0
 40
0.0
 40
0.0
 40
0.0
 40
0.4995493564858353
 40
0.5744878148499074
 40
0.9999999999999999
 40
0.9999999999999999
 40
0.9999999999999999
 40
0.9999999999999999
 10
65.07171478877156
 20
136.7441006422721
 30
0.0
 10
65.09200950483003
 20
136.7383083919587
 30
0.0
 10
65.11534867428357
 20
136.7316472338921
 30
0.0
 10
65.74752731278215
 20
136.6675006608178
 30
0.0
 10
66.04459301863335
 20
136.637113771891
 30
0.0
 10
66.29717552455696
 20
136.6112770751563
 30
0.0
  0
LINE
  5
FF
330
1F
100
AcDbEntity
  8
0
  6
HIDDEN
 62
     7
370
     0
100
AcDbLine
 10
190.2521180403
 20
91.0116940452
 30
0.0
 11
190.2521180403
 21
135.1616940452
 31
0.0
  0
LWPOLYLINE
  5
100
330
1F
100
AcDbEntity
  8
0
  6
HIDDEN
 62
     7
370
     0
100
AcDbPolyline
 90
        2
 70
   128
 43
0.0
 10
190.2521180403
 20
135.1616940452
 10
190.2521180403
 20
135.1616940452
  0
LINE
  5
101
330
1F
100
AcDbEntity
  8
0
  6
HIDDEN
 62
     7
370
     0
100
AcDbLine
 10
190.2521180403
 20
133.1366940452
 30
0.0
 11
190.2521180403
 21
93.0671396407
 31
0.0
  0
SPLINE
  5
102
330
1F
100
AcDbEntity
  8
0
  6
HIDDEN
 62
     7
370
     0
100
AcDbSpline
210
0.0
220
0.0
230
1.0
 70
    11
 71
     3
 72
    56
 73
    52
 74
     0
 42
0.00000001
 43
0.00000001
 40
0.0
 40
0.0
 40
0.0
 40
0.0
 40
0.0625000000000002
 40
0.0625000000000002
 40
0.0937500000000003
 40
0.0937500000000003
 40
0.1250000000000004
 40
0.1250000000000004
 40
0.1562500000000004
 40
0.1562500000000004
 40
0.1875000000000005
 40
0.1875000000000005
 40
0.2187500000000006
 40
0.2187500000000006
 40
0.2500000000000007
 40
0.2500000000000007
 40
0.3125000000000008
 40
0.3125000000000008
 40
0.3437500000000009
 40
0.3437500000000009
 40
0.3750000000000009
 40
0.3750000000000009
 40
0.406250000000001
 40
0.406250000000001
 40
0.4375000000000011
 40
0.4375000000000011
 40
0.4687500000000012
 40
0.4687500000000012
 40
0.5000000000000012
 40
0.5000000000000012
 40
0.5625000000000013
 40
0.5625000000000013
 40
0.6250000000000014
 40
0.6250000000000014
 40
0.6875000000000017
 40
0.6875000000000017
 40
0.7187500000000016
 40
0.7187500000000016
 40
0.7500000000000014
 40
0.7500000000000014
 40
0.7812500000000013
 40
0.7812500000000013
 40
0.8125000000000012
 40
0.8125000000000012
 40
0.8750000000000008
 40
0.8750000000000008
 40
0.9375000000000004
 40
0.9375000000000004
 40
0.9687500000000002
 40
0.9687500000000002
 40
1.0
 40
1.0
 40
1.0
 40
1.0
 10
72.05712004186881
 20
93.24916556935807
 30
0.0
 10
71.80133273132108
 20
93.28468887325162
 30
0.0
 10
71.51114292437776
 20
93.32023274221986
 30
0.0
 10
71.02448982608699
 20
93.36670444212875
 30
0.0
 10
70.8541439839258
 20
93.38095035536023
 30
0.0
 10
70.50717057383476
 20
93.40523826955864
 30
0.0
 10
70.32923267660001
 20
93.41541461588068
 30
0.0
 10
69.96431339904025
 20
93.43108994348458
 30
0.0
 10
69.7759788069449
 20
93.43657690469745
 30
0.0
 10
69.40209195448945
 20
93.44203689897319
 30
0.0
 10
69.2154017403195
 20
93.44209512223235
 30
0.0
 10
68.84252324940029
 20
93.43691098025556
 30
0.0
 10
68.6548190064779
 20
93.43159550178412
 30
0.0
 10
68.28790010693038
 20
93.41609312076082
 30
0.0
 10
68.10945036486588
 20
93.40599371300014
 30
0.0
 10
67.58866146150517
 20
93.36986187134625
 30
0.0
 10
67.25777774183418
 20
93.33743265032817
 30
0.0
 10
66.82127618350265
 20
93.28590615896105
 30
0.0
 10
66.68449064445005
 20
93.26818154791708
 30
0.0
 10
66.42876603499622
 20
93.23278722140776
 30
0.0
 10
66.31114230689062
 20
93.21529070002718
 30
0.0
 10
66.10107285370202
 20
93.18258830403867
 30
0.0
 10
66.00773801501697
 20
93.16725649509262
 30
0.0
 10
65.84479230433782
 20
93.13966033574381
 30
0.0
 10
65.77508934148798
 20
93.12737365263018
 30
0.0
 10
65.66446627515586
 20
93.10752866084374
 30
0.0
 10
65.62278460354544
 20
93.09984254831707
 30
0.0
 10
65.56660946317021
 20
93.08942516793982
 30
0.0
 10
65.55217118740964
 20
93.08670401026335
 30
0.0
 10
65.55201219230702
 20
93.08667419868274
 30
0.0
 10
65.6076715300438
 20
93.09733632883072
 30
0.0
 10
65.8304962905782
 20
93.13731700056572
 30
0.0
 10
65.99240857617187
 20
93.16565325219803
 30
0.0
 10
66.41620013490767
 20
93.23166416115808
 30
0.0
 10
66.67104655745494
 20
93.26812403394929
 30
0.0
 10
67.10969021756866
 20
93.31997555693565
 30
0.0
 10
67.26638775384812
 20
93.33686319099562
 30
0.0
 10
67.5895877036267
 20
93.36755661161655
 30
0.0
 10
67.75726118504697
 20
93.38151641856044
 30
0.0
 10
68.10484605123567
 20
93.40571584771158
 30
0.0
 10
68.28640953205463
 20
93.41601279654239
 30
0.0
 10
68.6525958068635
 20
93.4315187434043
 30
0.0
 10
68.8372532227058
 20
93.4367847253013
 30
0.0
 10
69.39584962926423
 20
93.44470754855679
 30
0.0
 10
69.77818397073476
 20
93.43899342518318
 30
0.0
 10
70.50548111510317
 20
93.40793433902091
 30
0.0
 10
70.86117518920317
 20
93.38224570297095
 30
0.0
 10
71.3444874661541
 20
93.33617369276284
 30
0.0
 10
71.49818507337066
 20
93.31957153434655
 30
0.0
 10
71.79060729821377
 20
93.28495167913225
 30
0.0
 10
71.92922252141896
 20
93.26692775809389
 30
0.0
 10
72.05712004186884
 20
93.24916556935807
 30
0.0
  0
SPLINE
  5
103
330
1F
100
AcDbEntity
  8
0
  6
HIDDEN
 62
     7
370
     0
100
AcDbSpline
210
0.0
220
0.0
230
1.0
 70
    11
 71
     3
 72
    56
 73
    52
 74
     0
 42
0.00000001
 43
0.00000001
 40
0.0
 40
0.0
 40
0.0
 40
0.0
 40
0.0625000000000002
 40
0.0625000000000002
 40
0.0937500000000003
 40
0.0937500000000003
 40
0.1250000000000004
 40
0.1250000000000004
 40
0.1562500000000004
 40
0.1562500000000004
 40
0.1875000000000005
 40
0.1875000000000005
 40
0.2187500000000006
 40
0.2187500000000006
 40
0.2500000000000007
 40
0.2500000000000007
 40
0.3125000000000008
 40
0.3125000000000008
 40
0.3437500000000009
 40
0.3437500000000009
 40
0.3750000000000009
 40
0.3750000000000009
 40
0.406250000000001
 40
0.406250000000001
 40
0.4375000000000011
 40
0.4375000000000011
 40
0.4687500000000012
 40
0.4687500000000012
 40
0.5000000000000012
 40
0.5000000000000012
 40
0.5625000000000013
 40
0.5625000000000013
 40
0.6250000000000014
 40
0.6250000000000014
 40
0.6875000000000017
 40
0.6875000000000017
 40
0.7187500000000016
 40
0.7187500000000016
 40
0.7500000000000014
 40
0.7500000000000014
 40
0.7812500000000013
 40
0.7812500000000013
 40
0.8125000000000012
 40
0.8125000000000012
 40
0.8750000000000008
 40
0.8750000000000008
 40
0.9375000000000004
 40
0.9375000000000004
 40
0.9687500000000002
 40
0.9687500000000002
 40
1.0
 40
1.0
 40
1.0
 40
1.0
 10
72.05712004186881
 20
132.924222520991
 30
0.0
 10
71.80133273132108
 20
132.8886992170974
 30
0.0
 10
71.51114292437776
 20
132.8531553481292
 30
0.0
 10
71.02448982608699
 20
132.8066836482203
 30
0.0
 10
70.8541439839258
 20
132.7924377349888
 30
0.0
 10
70.50717057383476
 20
132.7681498207904
 30
0.0
 10
70.32923267660001
 20
132.7579734744684
 30
0.0
 10
69.96431339904025
 20
132.7422981468645
 30
0.0
 10
69.7759788069449
 20
132.7368111856516
 30
0.0
 10
69.40209195448945
 20
132.7313511913759
 30
0.0
 10
69.2154017403195
 20
132.7312929681167
 30
0.0
 10
68.84252324940029
 20
132.7364771100935
 30
0.0
 10
68.6548190064779
 20
132.7417925885649
 30
0.0
 10
68.28790010693038
 20
132.7572949695882
 30
0.0
 10
68.10945036486588
 20
132.7673943773489
 30
0.0
 10
67.58866146150517
 20
132.8035262190028
 30
0.0
 10
67.25777774183418
 20
132.8359554400209
 30
0.0
 10
66.82127618350265
 20
132.887481931388
 30
0.0
 10
66.68449064445005
 20
132.905206542432
 30
0.0
 10
66.42876603499622
 20
132.9406008689413
 30
0.0
 10
66.31114230689062
 20
132.9580973903219
 30
0.0
 10
66.10107285370202
 20
132.9907997863104
 30
0.0
 10
66.00773801501697
 20
133.0061315952564
 30
0.0
 10
65.84479230433782
 20
133.0337277546053
 30
0.0
 10
65.77508934148798
 20
133.0460144377189
 30
0.0
 10
65.66446627515586
 20
133.0658594295053
 30
0.0
 10
65.62278460354544
 20
133.073545542032
 30
0.0
 10
65.56660946317021
 20
133.0839629224092
 30
0.0
 10
65.55217118740964
 20
133.0866840800857
 30
0.0
 10
65.55201219230702
 20
133.0867138916663
 30
0.0
 10
65.6076715300438
 20
133.0760517615184
 30
0.0
 10
65.8304962905782
 20
133.0360710897833
 30
0.0
 10
65.99240857617187
 20
133.007734838151
 30
0.0
 10
66.41620013490767
 20
132.941723929191
 30
0.0
 10
66.67104655745494
 20
132.9052640563998
 30
0.0
 10
67.10969021756866
 20
132.8534125334134
 30
0.0
 10
67.26638775384812
 20
132.8365248993534
 30
0.0
 10
67.5895877036267
 20
132.8058314787325
 30
0.0
 10
67.75726118504697
 20
132.7918716717886
 30
0.0
 10
68.10484605123567
 20
132.7676722426375
 30
0.0
 10
68.28640953205463
 20
132.7573752938067
 30
0.0
 10
68.6525958068635
 20
132.7418693469448
 30
0.0
 10
68.8372532227058
 20
132.7366033650478
 30
0.0
 10
69.39584962926423
 20
132.7286805417923
 30
0.0
 10
69.77818397073476
 20
132.7343946651659
 30
0.0
 10
70.50548111510317
 20
132.7654537513282
 30
0.0
 10
70.86117518920317
 20
132.7911423873781
 30
0.0
 10
71.3444874661541
 20
132.8372143975862
 30
0.0
 10
71.49818507337066
 20
132.8538165560025
 30
0.0
 10
71.79060729821377
 20
132.8884364112168
 30
0.0
 10
71.92922252141896
 20
132.9064603322552
 30
0.0
 10
72.05712004186884
 20
132.924222520991
 30
0.0
  0
SPLINE
  5
104
330
1F
100
AcDbEntity
  8
0
  6
HIDDEN
 62
     7
370
     0
100
AcDbSpline
210
0.0
220
0.0
230
1.0
 70
    11
 71
     3
 72
    22
 73
    18
 74
     0
 42
0.00000001
 43
0.00000001
 40
0.0
 40
0.0
 40
0.0
 40
0.0
 40
0.125
 40
0.125
 40
0.2500000000000001
 40
0.2500000000000001
 40
0.3750000000000001
 40
0.3750000000000001
 40
0.5000000000000001
 40
0.5000000000000001
 40
0.6250000000000001
 40
0.6250000000000001
 40
0.7500000000000002
 40
0.7500000000000002
 40
0.8750000000000002
 40
0.8750000000000002
 40
1.0
 40
1.0
 40
1.0
 40
1.0
 10
72.05712004186881
 20
132.924222520991
 30
0.0
 10
72.21606287083792
 20
132.946296229038
 30
0.0
 10
72.35675441872826
 20
132.9629800470256
 30
0.0
 10
72.60274065619068
 20
132.9892017419079
 30
0.0
 10
72.708778738872
 20
132.9987810477533
 30
0.0
 10
72.87927077943901
 20
133.0128603148324
 30
0.0
 10
72.94332347890273
 20
133.0173668910795
 30
0.0
 10
73.02982752999571
 20
133.0232310609173
 30
0.0
 10
73.05206102535585
 20
133.0245729934357
 30
0.0
 10
73.05217483136778
 20
133.0245801331852
 30
0.0
 10
73.03071690288252
 20
133.0232874976989
 30
0.0
 10
72.94473111000356
 20
133.0174660681887
 30
0.0
 10
72.87941696325403
 20
133.0128665989129
 30
0.0
 10
72.71041112931859
 20
132.9989215781031
 30
0.0
 10
72.6064520914428
 20
132.9895691912447
 30
0.0
 10
72.35894164520387
 20
132.9632407207783
 30
0.0
 10
72.21605755512016
 20
132.9462954908003
 30
0.0
 10
72.05712004186914
 20
132.9242225209911
 30
0.0
  0
SPLINE
  5
105
330
1F
100
AcDbEntity
  8
0
  6
HIDDEN
 62
     7
370
     0
100
AcDbSpline
210
0.0
220
0.0
230
1.0
 70
    11
 71
     3
 72
    22
 73
    18
 74
     0
 42
0.00000001
 43
0.00000001
 40
0.0
 40
0.0
 40
0.0
 40
0.0
 40
0.125
 40
0.125
 40
0.2500000000000001
 40
0.2500000000000001
 40
0.3750000000000001
 40
0.3750000000000001
 40
0.5000000000000001
 40
0.5000000000000001
 40
0.6250000000000001
 40
0.6250000000000001
 40
0.7500000000000002
 40
0.7500000000000002
 40
0.8750000000000002
 40
0.8750000000000002
 40
1.0
 40
1.0
 40
1.0
 40
1.0
 10
72.05712004186881
 20
93.24916556935807
 30
0.0
 10
72.21606287083792
 20
93.22709186131104
 30
0.0
 10
72.35675441872826
 20
93.21040804332341
 30
0.0
 10
72.60274065619068
 20
93.18418634844112
 30
0.0
 10
72.708778738872
 20
93.17460704259581
 30
0.0
 10
72.87927077943901
 20
93.16052777551666
 30
0.0
 10
72.94332347890273
 20
93.1560211992696
 30
0.0
 10
73.02982752999571
 20
93.15015702943171
 30
0.0
 10
73.05206102535585
 20
93.14881509691341
 30
0.0
 10
73.05217483136778
 20
93.14880795716391
 30
0.0
 10
73.03071690288252
 20
93.15010059265012
 30
0.0
 10
72.94473111000356
 20
93.15592202216033
 30
0.0
 10
72.87941696325403
 20
93.16052149143619
 30
0.0
 10
72.71041112931859
 20
93.17446651224603
 30
0.0
 10
72.6064520914428
 20
93.18381889910435
 30
0.0
 10
72.35894164520387
 20
93.21014736957078
 30
0.0
 10
72.21605755512016
 20
93.22709259954875
 30
0.0
 10
72.05712004186914
 20
93.24916556935797
 30
0.0
  0
LINE
  5
106
330
1F
100
AcDbEntity
  8
0
  6
HIDDEN
 62
     7
370
     0
100
AcDbLine
 10
78.3021180403
 20
96.0866940452
 30
0.0
 11
78.3021180403
 21
130.0568374852
 31
0.0
  0
LINE
  5
107
330
1F
100
AcDbEntity
  8
0
  6
HIDDEN
 62
     7
370
     0
100
AcDbLine
 10
231.4021180403
 20
93.0866940452
 30
0.0
 11
231.4021180403
 21
133.0866940452
 31
0.0
  0
LWPOLYLINE
  5
108
330
1F
100
AcDbEntity
  8
0
  6
HIDDEN
 62
     7
370
     0
100
AcDbPolyline
 90
        2
 70
   128
 43
0.0
 10
231.4021180403
 20
133.0866940452
 10
231.4021180403
 20
133.0866940452
  0
LINE
  5
109
330
1F
100
AcDbEntity
  8
0
  6
HIDDEN
 62
     7
370
     0
100
AcDbLine
 10
237.5021180403
 20
104.8116940452
 30
0.0
 11
237.5021180403
 21
93.0866940452
 31
0.0
  0
LINE
  5
10A
330
1F
100
AcDbEntity
  8
0
  6
HIDDEN
 62
     7
370
     0
100
AcDbLine
 10
237.5021180403
 20
104.8116940452
 30
0.0
 11
233.2021180403
 21
104.8116940452
 31
0.0
  0
SPLINE
  5
10B
330
1F
100
AcDbEntity
  8
0
  6
HIDDEN
 62
     7
370
     0
100
AcDbSpline
210
0.0
220
0.0
230
1.0
 70
     8
 71
     3
 72
    10
 73
     6
 74
     0
 42
0.00000001
 43
0.00000001
 40
0.0
 40
0.0
 40
0.0
 40
0.0
 40
0.5
 40
0.5
 40
1.0
 40
1.0
 40
1.0
 40
1.0
 10
233.2021180402672
 20
104.8116940451745
 30
0.0
 10
233.0638927051942
 20
104.8116940451745
 30
0.0
 10
232.9312607826657
 20
104.8717892131043
 30
0.0
 10
232.751368861187
 20
105.059295366825
 30
0.0
 10
232.7021180402672
 20
105.1846211287561
 30
0.0
 10
232.7021180402672
 20
105.3116940451745
 30
0.0
  0
LINE
  5
10C
330
1F
100
AcDbEntity
  8
0
  6
HIDDEN
 62
     7
370
     0
100
AcDbLine
 10
232.7021180403
 20
105.3116940452
 30
0.0
 11
232.7021180403
 21
120.8616940452
 31
0.0
  0
SPLINE
  5
10D
330
1F
100
AcDbEntity
  8
0
  6
HIDDEN
 62
     7
370
     0
100
AcDbSpline
210
0.0
220
0.0
230
1.0
 70
     8
 71
     3
 72
    10
 73
     6
 74
     0
 42
0.00000001
 43
0.00000001
 40
0.0
 40
0.0
 40
0.0
 40
0.0
 40
0.5
 40
0.5
 40
1.0
 40
1.0
 40
1.0
 40
1.0
 10
232.7021180402672
 20
120.8616940451746
 30
0.0
 10
232.7021180402672
 20
120.9889406431143
 30
0.0
 10
232.7504990389698
 20
121.1130652094639
 30
0.0
 10
232.9316888714812
 20
121.3021656665519
 30
0.0
 10
233.0636172113433
 20
121.3616940451745
 30
0.0
 10
233.2021180402672
 20
121.3616940451746
 30
0.0
  0
LINE
  5
10E
330
1F
100
AcDbEntity
  8
0
  6
HIDDEN
 62
     7
370
     0
100
AcDbLine
 10
233.2021180403
 20
121.3616940452
 30
0.0
 11
237.5021180403
 21
121.3616940452
 31
0.0
  0
LINE
  5
10F
330
1F
100
AcDbEntity
  8
0
  6
HIDDEN
 62
     7
370
     0
100
AcDbLine
 10
237.5021180403
 20
121.3616940452
 30
0.0
 11
237.5021180403
 21
133.0866940452
 31
0.0
  0
LINE
  5
110
330
1F
100
AcDbEntity
  8
0
  6
HIDDEN
 62
     7
370
     0
100
AcDbLine
 10
237.5021180403
 20
121.3616940452
 30
0.0
 11
233.2021180403
 21
121.3616940452
 31
0.0
  0
SPLINE
  5
111
330
1F
100
AcDbEntity
  8
0
  6
HIDDEN
 62
     7
370
     0
100
AcDbSpline
210
0.0
220
0.0
230
1.0
 70
     8
 71
     3
 72
    10
 73
     6
 74
     0
 42
0.00000001
 43
0.00000001
 40
0.0
 40
0.0
 40
0.0
 40
0.0
 40
0.5
 40
0.5
 40
1.0
 40
1.0
 40
1.0
 40
1.0
 10
233.2021180402672
 20
121.3616940451746
 30
0.0
 10
233.0638927051942
 20
121.3616940451746
 30
0.0
 10
232.9312607826657
 20
121.3015988772448
 30
0.0
 10
232.751368861187
 20
121.1140927235241
 30
0.0
 10
232.7021180402672
 20
120.988766961593
 30
0.0
 10
232.7021180402672
 20
120.8616940451745
 30
0.0
  0
SPLINE
  5
112
330
1F
100
AcDbEntity
  8
0
  6
HIDDEN
 62
     7
370
     0
100
AcDbSpline
210
0.0
220
0.0
230
1.0
 70
     8
 71
     3
 72
    10
 73
     6
 74
     0
 42
0.00000001
 43
0.00000001
 40
0.0
 40
0.0
 40
0.0
 40
0.0
 40
0.5
 40
0.5
 40
1.0
 40
1.0
 40
1.0
 40
1.0
 10
232.7021180402672
 20
105.3116940451745
 30
0.0
 10
232.7021180402672
 20
105.1844474472348
 30
0.0
 10
232.7504990389698
 20
105.0603228808852
 30
0.0
 10
232.9316888714812
 20
104.8712224237972
 30
0.0
 10
233.0636172113433
 20
104.8116940451745
 30
0.0
 10
233.2021180402672
 20
104.8116940451745
 30
0.0
  0
LINE
  5
113
330
1F
100
AcDbEntity
  8
0
  6
HIDDEN
 62
     7
370
     0
100
AcDbLine
 10
233.2021180403
 20
104.8116940452
 30
0.0
 11
237.5021180403
 21
104.8116940452
 31
0.0
  0
LINE
  5
114
330
1F
100
AcDbEntity
  8
0
  6
HIDDEN
 62
     7
370
     0
100
AcDbLine
 10
232.7021180403
 20
120.8616940452
 30
0.0
 11
232.7021180403
 21
105.3116940452
 31
0.0
  0
LINE
  5
115
330
1F
100
AcDbEntity
  8
0
  6
HIDDEN
 62
     7
370
     0
100
AcDbLine
 10
192.2521180403
 20
93.0866940452
 30
0.0
 11
192.2521180403
 21
133.0866940452
 31
0.0
  0
LWPOLYLINE
  5
116
330
1F
100
AcDbEntity
  8
0
  6
HIDDEN
 62
     7
370
     0
100
AcDbPolyline
 90
        2
 70
   128
 43
0.0
 10
192.2521180403
 20
133.0866940452
 10
192.2521180403
 20
133.0866940452
  0
SPLINE
  5
117
330
1F
100
AcDbEntity
  8
0
  6
HIDDEN
 62
     7
370
     0
100
AcDbSpline
210
0.0
220
0.0
230
1.0
 70
     8
 71
     3
 72
    58
 73
    54
 74
     0
 42
0.00000001
 43
0.00000001
 40
-0.0625000000000032
 40
-0.0625000000000032
 40
0.0
 40
0.0
 40
0.0312499999999985
 40
0.0312499999999985
 40
0.0624999999999969
 40
0.0624999999999969
 40
0.0937499999999954
 40
0.0937499999999954
 40
0.1249999999999939
 40
0.1249999999999939
 40
0.1874999999999908
 40
0.1874999999999908
 40
0.2499999999999877
 40
0.2499999999999877
 40
0.2812499999999878
 40
0.2812499999999878
 40
0.3124999999999879
 40
0.3124999999999879
 40
0.343749999999988
 40
0.343749999999988
 40
0.374999999999988
 40
0.374999999999988
 40
0.4062499999999881
 40
0.4062499999999881
 40
0.4374999999999882
 40
0.4374999999999882
 40
0.4687499999999883
 40
0.4687499999999883
 40
0.4999999999999883
 40
0.4999999999999883
 40
0.5624999999999877
 40
0.5624999999999877
 40
0.6249999999999871
 40
0.6249999999999871
 40
0.6562499999999879
 40
0.6562499999999879
 40
0.6874999999999887
 40
0.6874999999999887
 40
0.7187499999999895
 40
0.7187499999999895
 40
0.7499999999999902
 40
0.7499999999999902
 40
0.7812499999999911
 40
0.7812499999999911
 40
0.8124999999999919
 40
0.8124999999999919
 40
0.8437499999999927
 40
0.8437499999999927
 40
0.8749999999999934
 40
0.8749999999999934
 40
0.9374999999999968
 40
0.9374999999999968
 40
1.0
 40
1.0
 40
1.031249999999998
 40
1.031249999999998
 10
198.2021180402673
 20
123.3271693912114
 30
0.0
 10
198.2021180402673
 20
122.9664563721559
 30
0.0
 10
198.2157510207639
 20
122.8475221857513
 30
0.0
 10
198.2691499082901
 20
122.6122288888014
 30
0.0
 10
198.309570846231
 20
122.4946260216586
 30
0.0
 10
198.4150100071188
 20
122.2693069359158
 30
0.0
 10
198.4795185335483
 20
122.1618486680436
 30
0.0
 10
198.6319084639082
 20
121.9575548466091
 30
0.0
 10
198.7205451482114
 20
121.8603915824378
 30
0.0
 10
199.0109538989549
 20
121.5981328782908
 30
0.0
 10
199.2450885089463
 20
121.4554307127945
 30
0.0
 10
199.7503759270876
 20
121.2637666009427
 30
0.0
 10
200.026852706135
 20
121.2129013031385
 30
0.0
 10
200.4380235328566
 20
121.2126941568574
 30
0.0
 10
200.5772520945485
 20
121.2252438443928
 30
0.0
 10
200.846652560431
 20
121.2744436426314
 30
0.0
 10
200.9776019927235
 20
121.3108247320301
 30
0.0
 10
201.231964005959
 20
121.4070686994695
 30
0.0
 10
201.3548173305518
 20
121.4670745605971
 30
0.0
 10
201.582279916341
 20
121.6053128498983
 30
0.0
 10
201.6883418604761
 20
121.6840341206535
 30
0.0
 10
201.8844782269765
 20
121.8610468987452
 30
0.0
 10
201.9713082542123
 20
121.9564038285504
 30
0.0
 10
202.123419531681
 20
122.1598962725718
 30
0.0
 10
202.1892290213261
 20
122.2693108235809
 30
0.0
 10
202.2946747142239
 20
122.494648692034
 30
0.0
 10
202.3344431229582
 20
122.610033058263
 30
0.0
 10
202.388276060727
 20
122.8459736465736
 30
0.0
 10
202.4020673242111
 20
122.9672966316941
 30
0.0
 10
202.4022190436967
 20
123.3234761269362
 30
0.0
 10
202.3472282978371
 20
123.5599203611978
 30
0.0
 10
202.1381001970367
 20
123.9876208399685
 30
0.0
 10
201.9818746590425
 20
124.1832826118718
 30
0.0
 10
201.6917618645774
 20
124.4242001847992
 30
0.0
 10
201.583859487583
 20
124.4973821216277
 30
0.0
 10
201.355810772528
 20
124.6228287205935
 30
0.0
 10
201.2353075547001
 20
124.675728937994
 30
0.0
 10
200.9812011692044
 20
124.7620691254475
 30
0.0
 10
200.8477785928836
 20
124.7951146166329
 30
0.0
 10
200.5793180392452
 20
124.838788710693
 30
0.0
 10
200.4428667202122
 20
124.8499623476751
 30
0.0
 10
200.1653331542994
 20
124.850175354152
 30
0.0
 10
200.0286479947534
 20
124.8391890230546
 30
0.0
 10
199.7600919528518
 20
124.7959067865823
 30
0.0
 10
199.6266981268797
 20
124.7630891886071
 30
0.0
 10
199.3722581787585
 20
124.6770788174011
 30
0.0
 10
199.2516141451216
 20
124.6243377693383
 30
0.0
 10
199.0233110313035
 20
124.4992349158145
 30
0.0
 10
198.9152436964803
 20
124.4262093515439
 30
0.0
 10
198.6246017527775
 20
124.1857128880966
 30
0.0
 10
198.4679826531518
 20
123.990297611993
 30
0.0
 10
198.2580074687581
 20
123.5630502021196
 30
0.0
 10
198.2021180402673
 20
123.3271693912114
 30
0.0
 10
198.2021180402673
 20
122.9664563721559
 30
0.0
  0
SPLINE
  5
118
330
1F
100
AcDbEntity
  8
0
  6
HIDDEN
 62
     7
370
     0
100
AcDbSpline
210
0.0
220
0.0
230
1.0
 70
     8
 71
     3
 72
    58
 73
    54
 74
     0
 42
0.00000001
 43
0.00000001
 40
-0.0625000000000038
 40
-0.0625000000000038
 40
0.0
 40
0.0
 40
0.0312499999999981
 40
0.0312499999999981
 40
0.0624999999999962
 40
0.0624999999999962
 40
0.0937499999999944
 40
0.0937499999999944
 40
0.1249999999999925
 40
0.1249999999999925
 40
0.1874999999999893
 40
0.1874999999999893
 40
0.2499999999999861
 40
0.2499999999999861
 40
0.2812499999999861
 40
0.2812499999999861
 40
0.3124999999999861
 40
0.3124999999999861
 40
0.3437499999999861
 40
0.3437499999999861
 40
0.3749999999999861
 40
0.3749999999999861
 40
0.4062499999999861
 40
0.4062499999999861
 40
0.4374999999999861
 40
0.4374999999999861
 40
0.4687499999999861
 40
0.4687499999999861
 40
0.4999999999999861
 40
0.4999999999999861
 40
0.5624999999999857
 40
0.5624999999999857
 40
0.6249999999999852
 40
0.6249999999999852
 40
0.6562499999999861
 40
0.6562499999999861
 40
0.687499999999987
 40
0.687499999999987
 40
0.7187499999999879
 40
0.7187499999999879
 40
0.7499999999999888
 40
0.7499999999999888
 40
0.7812499999999898
 40
0.7812499999999898
 40
0.8124999999999907
 40
0.8124999999999907
 40
0.8437499999999916
 40
0.8437499999999916
 40
0.8749999999999925
 40
0.8749999999999925
 40
0.9374999999999962
 40
0.9374999999999962
 40
1.0
 40
1.0
 40
1.031249999999998
 40
1.031249999999998
 10
198.2021180402672
 20
122.8462186991376
 30
0.0
 10
198.2021180402672
 20
123.2069317181931
 30
0.0
 10
198.215751020764
 20
123.3244214035141
 30
0.0
 10
198.2691499082902
 20
123.5542143489933
 30
0.0
 10
198.309570846231
 20
123.6676962862758
 30
0.0
 10
198.4150100071189
 20
123.882780400462
 30
0.0
 10
198.4795185335483
 20
123.9841733925014
 30
0.0
 10
198.6319084639082
 20
124.1751378101444
 30
0.0
 10
198.7205451482114
 20
124.2649902413787
 30
0.0
 10
199.0109538989548
 20
124.5056297531845
 30
0.0
 10
199.2450885089462
 20
124.63387028196
 30
0.0
 10
199.7503759270875
 20
124.8051158221751
 30
0.0
 10
200.0268527061349
 20
124.849947126364
 30
0.0
 10
200.4380235328565
 20
124.8501304689383
 30
0.0
 10
200.5772520945485
 20
124.8390356864034
 30
0.0
 10
200.846652560431
 20
124.7953858730448
 30
0.0
 10
200.9776019927235
 20
124.7630691273164
 30
0.0
 10
201.231964005959
 20
124.677081928055
 30
0.0
 10
201.3548173305518
 20
124.6232732707172
 30
0.0
 10
201.582279916341
 20
124.4983518054264
 30
0.0
 10
201.6883418604761
 20
124.426807477494
 30
0.0
 10
201.8844782269765
 20
124.2643912029784
 30
0.0
 10
201.9713082542123
 20
124.1762040789118
 30
0.0
 10
202.123419531681
 20
123.9860079051444
 30
0.0
 10
202.1892290213261
 20
123.8827767827118
 30
0.0
 10
202.2946747142239
 20
123.6676745523562
 30
0.0
 10
202.3344431229582
 20
123.5563445141324
 30
0.0
 10
202.388276060727
 20
123.3259478518484
 30
0.0
 10
202.402067324211
 20
123.2060861334693
 30
0.0
 10
202.4022190436967
 20
122.8499225687722
 30
0.0
 10
202.347228297837
 20
122.6075079767751
 30
0.0
 10
202.1381001970368
 20
122.159499999618
 30
0.0
 10
201.9818746590425
 20
121.9494236828378
 30
0.0
 10
201.6917618645774
 20
121.6868861222346
 30
0.0
 10
201.5838594875831
 20
121.6063823887718
 30
0.0
 10
201.355810772528
 20
121.4675699757966
 30
0.0
 10
201.2353075547001
 20
121.4085789359988
 30
0.0
 10
200.9812011692044
 20
121.311948046839
 30
0.0
 10
200.8477785928836
 20
121.2747489248622
 30
0.0
 10
200.5793180392452
 20
121.2255226809713
 30
0.0
 10
200.4428667202122
 20
121.2128841056119
 30
0.0
 10
200.1653331542994
 20
121.2126434441174
 30
0.0
 10
200.0286479947535
 20
121.2250704120492
 30
0.0
 10
199.7600919528518
 20
121.2738570859848
 30
0.0
 10
199.6266981268797
 20
121.3108022484515
 30
0.0
 10
199.3722581787584
 20
121.4070722104911
 30
0.0
 10
199.2516141451216
 20
121.4658917468771
 30
0.0
 10
199.0233110313036
 20
121.6043403617028
 30
0.0
 10
198.9152436964803
 20
121.6846832599436
 30
0.0
 10
198.6246017527775
 20
121.9468015667667
 30
0.0
 10
198.4679826531517
 20
122.15665135288
 30
0.0
 10
198.2580074687582
 20
122.6042737043363
 30
0.0
 10
198.2021180402672
 20
122.8462186991376
 30
0.0
 10
198.2021180402672
 20
123.2069317181931
 30
0.0
  0
SPLINE
  5
119
330
1F
100
AcDbEntity
  8
0
  6
HIDDEN
 62
     7
370
     0
100
AcDbSpline
210
0.0
220
0.0
230
1.0
 70
    11
 71
     3
 72
    58
 73
    54
 74
     0
 42
0.00000001
 43
0.00000001
 40
-0.0625000000000041
 40
-0.0625000000000041
 40
0.0
 40
0.0
 40
0.0312499999999983
 40
0.0312499999999983
 40
0.0624999999999966
 40
0.0624999999999966
 40
0.0937499999999948
 40
0.0937499999999948
 40
0.1249999999999931
 40
0.1249999999999931
 40
0.1874999999999897
 40
0.1874999999999897
 40
0.2499999999999862
 40
0.2499999999999862
 40
0.2812499999999861
 40
0.2812499999999861
 40
0.3124999999999859
 40
0.3124999999999859
 40
0.3437499999999857
 40
0.3437499999999857
 40
0.3749999999999856
 40
0.3749999999999856
 40
0.4062499999999854
 40
0.4062499999999854
 40
0.4374999999999852
 40
0.4374999999999852
 40
0.4687499999999851
 40
0.4687499999999851
 40
0.4999999999999849
 40
0.4999999999999849
 40
0.5624999999999846
 40
0.5624999999999846
 40
0.6249999999999842
 40
0.6249999999999842
 40
0.6562499999999851
 40
0.6562499999999851
 40
0.6874999999999861
 40
0.6874999999999861
 40
0.718749999999987
 40
0.718749999999987
 40
0.749999999999988
 40
0.749999999999988
 40
0.7812499999999889
 40
0.7812499999999889
 40
0.8124999999999899
 40
0.8124999999999899
 40
0.8437499999999908
 40
0.8437499999999908
 40
0.8749999999999918
 40
0.8749999999999918
 40
0.9374999999999959
 40
0.9374999999999959
 40
1.0
 40
1.0
 40
1.031249999999998
 40
1.031249999999998
 10
198.2021180402672
 20
93.08669404517455
 30
0.0
 10
198.2021180402673
 20
93.08669404517454
 30
0.0
 10
198.2157510207639
 20
93.08813854625812
 30
0.0
 10
198.2691499082901
 20
93.09363889772887
 30
0.0
 10
198.309570846231
 20
93.09775982758906
 30
0.0
 10
198.4150100071188
 20
93.10799479914574
 30
0.0
 10
198.4795185335483
 20
93.11406007497861
 30
0.0
 10
198.6319084639082
 20
93.12738947877008
 30
0.0
 10
198.7205451482113
 20
93.13470031170704
 30
0.0
 10
199.0109538989548
 20
93.15631950404827
 30
0.0
 10
199.2450885089463
 20
93.17078114076898
 30
0.0
 10
199.7503759270875
 20
93.19119971240563
 30
0.0
 10
200.0268527061349
 20
93.197233706021
 30
0.0
 10
200.4380235328564
 20
93.19725750972783
 30
0.0
 10
200.5772520945484
 20
93.1958026047274
 30
0.0
 10
200.846652560431
 20
93.1902526198473
 30
0.0
 10
200.9776019927235
 20
93.186188276177
 30
0.0
 10
201.2319640059589
 20
93.17593150799904
 30
0.0
 10
201.3548173305518
 20
93.16973430420924
 30
0.0
 10
201.582279916341
 20
93.15641748019884
 30
0.0
 10
201.6883418604761
 20
93.14924053737603
 30
0.0
 10
201.8844782269764
 20
93.1346440337999
 30
0.0
 10
201.9713082542123
 20
93.12747422806126
 30
0.0
 10
202.123419531681
 20
93.11417795780731
 30
0.0
 10
202.1892290213261
 20
93.1079945292309
 30
0.0
 10
202.2946747142239
 20
93.09775889113337
 30
0.0
 10
202.3344431229582
 20
93.09370456312818
 30
0.0
 10
202.388276060727
 20
93.0881606371016
 30
0.0
 10
202.4020673242111
 20
93.08669937036008
 30
0.0
 10
202.4022190436967
 20
93.08668343981516
 30
0.0
 10
202.347228297837
 20
93.09265379755067
 30
0.0
 10
202.1381001970368
 20
93.11296129593704
 30
0.0
 10
201.9818746590425
 20
93.12737584081391
 30
0.0
 10
201.6917618645775
 20
93.1489958284898
 30
0.0
 10
201.5838594875831
 20
93.15631762512407
 30
0.0
 10
201.3558107725281
 20
93.1696834391334
 30
0.0
 10
201.2353075547001
 20
93.17577426153082
 30
0.0
 10
200.9812011692044
 20
93.18606496323709
 30
0.0
 10
200.8477785928836
 20
93.19021859402845
 30
0.0
 10
200.5793180392452
 20
93.19577074385919
 30
0.0
 10
200.4428667202121
 20
93.19723568223651
 30
0.0
 10
200.1653331542994
 20
93.1972633372541
 30
0.0
 10
200.0286479947534
 20
93.19582270041968
 30
0.0
 10
199.7600919528518
 20
93.19031826295641
 30
0.0
 10
199.6266981268798
 20
93.1861906984649
 30
0.0
 10
199.3722581787585
 20
93.1759311076313
 30
0.0
 10
199.2516141451216
 20
93.16985261930816
 30
0.0
 10
199.0233110313035
 20
93.15650685800628
 30
0.0
 10
198.9152436964803
 20
93.14918952403606
 30
0.0
 10
198.6246017527775
 20
93.12756768066032
 30
0.0
 10
198.4679826531517
 20
93.11313317065057
 30
0.0
 10
198.2580074687581
 20
93.09275822906768
 30
0.0
 10
198.2021180402672
 20
93.08669404517455
 30
0.0
 10
198.2021180402673
 20
93.08669404517454
 30
0.0
  0
LINE
  5
11A
330
1F
100
AcDbEntity
  8
0
  6
HIDDEN
 62
     7
370
     0
100
AcDbLine
 10
229.8021180403
 20
93.0866940452
 30
0.0
 11
229.8021180403
 21
133.0866940452
 31
0.0
  0
LWPOLYLINE
  5
11B
330
1F
100
AcDbEntity
  8
0
  6
HIDDEN
 62
     7
370
     0
100
AcDbPolyline
 90
        2
 70
   128
 43
0.0
 10
229.8021180403
 20
133.0866940452
 10
229.8021180403
 20
133.0866940452
  0
SPLINE
  5
11C
330
1F
100
AcDbEntity
  8
0
  6
HIDDEN
 62
     7
370
     0
100
AcDbSpline
210
0.0
220
0.0
230
1.0
 70
    11
 71
     3
 72
    70
 73
    66
 74
     0
 42
0.00000001
 43
0.00000001
 40
-0.03125
 40
-0.03125
 40
0.0
 40
0.0
 40
0.03125
 40
0.03125
 40
0.0625
 40
0.0625
 40
0.0937500000000001
 40
0.0937500000000001
 40
0.1250000000000001
 40
0.1250000000000001
 40
0.1562500000000001
 40
0.1562500000000001
 40
0.1875
 40
0.1875
 40
0.21875
 40
0.21875
 40
0.25
 40
0.25
 40
0.28125
 40
0.28125
 40
0.3125000000000001
 40
0.3125000000000001
 40
0.3437500000000001
 40
0.3437500000000001
 40
0.3750000000000001
 40
0.3750000000000001
 40
0.4062500000000001
 40
0.4062500000000001
 40
0.4375000000000001
 40
0.4375000000000001
 40
0.4687500000000001
 40
0.4687500000000001
 40
0.5
 40
0.5
 40
0.5312499999999999
 40
0.5312499999999999
 40
0.5624999999999998
 40
0.5624999999999998
 40
0.5937499999999998
 40
0.5937499999999998
 40
0.6249999999999998
 40
0.6249999999999998
 40
0.6562499999999998
 40
0.6562499999999998
 40
0.6874999999999998
 40
0.6874999999999998
 40
0.7187499999999998
 40
0.7187499999999998
 40
0.7499999999999998
 40
0.7499999999999998
 40
0.7812499999999999
 40
0.7812499999999999
 40
0.8124999999999999
 40
0.8124999999999999
 40
0.8437499999999999
 40
0.8437499999999999
 40
0.8749999999999999
 40
0.8749999999999999
 40
0.9062499999999999
 40
0.9062499999999999
 40
0.9375
 40
0.9375
 40
0.96875
 40
0.96875
 40
1.0
 40
1.0
 40
1.03125
 40
1.03125
 10
206.0021180402674
 20
133.0866940451745
 30
0.0
 10
206.0021180402672
 20
133.0866940451745
 30
0.0
 10
206.023587364159
 20
133.0831198139134
 30
0.0
 10
206.1076389894568
 20
133.069511077229
 30
0.0
 10
206.1712682798668
 20
133.0593130652724
 30
0.0
 10
206.3370379495948
 20
133.0339993830862
 30
0.0
 10
206.4384241437838
 20
133.0189964429125
 30
0.0
 10
206.6778901754858
 20
132.9860032801306
 30
0.0
 10
206.8170215899592
 20
132.9679147376233
 30
0.0
 10
207.1209075506271
 20
132.9322202678434
 30
0.0
 10
207.2867881819113
 20
132.9144354509342
 30
0.0
 10
207.6473658435093
 20
132.8810361572118
 30
0.0
 10
207.8388618354072
 20
132.8657713057149
 30
0.0
 10
208.2357632954064
 20
132.8403744870378
 30
0.0
 10
208.4441098141212
 20
132.8300683462265
 30
0.0
 10
208.8702450130212
 20
132.8161432262077
 30
0.0
 10
209.0846022786607
 20
132.8125861955581
 30
0.0
 10
209.515842250906
 20
132.8125447507899
 30
0.0
 10
209.7349130265721
 20
132.816177535748
 30
0.0
 10
210.1584246307284
 20
132.830008566336
 30
0.0
 10
210.3643086677014
 20
132.8401346292437
 30
0.0
 10
210.764294219505
 20
132.8656759491673
 30
0.0
 10
210.9569797964913
 20
132.8810607792339
 30
0.0
 10
211.3141135518764
 20
132.91411225605
 30
0.0
 10
211.4811625957169
 20
132.9319690092048
 30
0.0
 10
211.7885553784043
 20
132.968069094698
 30
0.0
 10
211.9248282695594
 20
132.9858046081834
 30
0.0
 10
212.1638132248322
 20
133.01871079164
 30
0.0
 10
212.267354546765
 20
133.0340229431283
 30
0.0
 10
212.4329720113656
 20
133.0593140338494
 30
0.0
 10
212.4955594570737
 20
133.0693444740491
 30
0.0
 10
212.5803417382892
 20
133.08306873396
 30
0.0
 10
212.6020336324669
 20
133.0866801178885
 30
0.0
 10
212.6022019450182
 20
133.0867078894574
 30
0.0
 10
212.5813726980176
 20
133.0832378870743
 30
0.0
 10
212.4966970711918
 20
133.0695264193768
 30
0.0
 10
212.4334738321666
 20
133.0593950702354
 30
0.0
 10
212.2690277973295
 20
133.0342741151368
 30
0.0
 10
212.1663790124711
 20
133.0190749168538
 30
0.0
 10
211.9258947425853
 20
132.9859407766572
 30
0.0
 10
211.7896710589272
 20
132.968221874729
 30
0.0
 10
211.4857604312562
 20
132.9324876274032
 30
0.0
 10
211.3162934130364
 20
132.9143312122624
 30
0.0
 10
210.9586271731796
 20
132.8811962037244
 30
0.0
 10
210.7693706761701
 20
132.8660525211816
 30
0.0
 10
210.3695062484886
 20
132.8404154417084
 30
0.0
 10
210.160275230316
 20
132.8300972578357
 30
0.0
 10
209.738321650081
 20
132.8162609498002
 30
0.0
 10
209.5228495474574
 20
132.8125950707406
 30
0.0
 10
209.0867251215892
 20
132.8125360546194
 30
0.0
 10
208.8721295128409
 20
132.8161214563059
 30
0.0
 10
208.4496071916293
 20
132.8298495828395
 30
0.0
 10
208.2394599458849
 20
132.8401638918153
 30
0.0
 10
207.8402924032928
 20
132.8656541530646
 30
0.0
 10
207.6507805900522
 20
132.8807578462811
 30
0.0
 10
207.2917325041569
 20
132.9139403590628
 30
0.0
 10
207.1224216078016
 20
132.9320537547036
 30
0.0
 10
206.8184956800702
 20
132.9677303735697
 30
0.0
 10
206.6817692593526
 20
132.9854846457479
 30
0.0
 10
206.4397964399194
 20
133.0187918920055
 30
0.0
 10
206.3377971195491
 20
133.0338879418087
 30
0.0
 10
206.1727162191013
 20
133.0590875318658
 30
0.0
 10
206.1088662932545
 20
133.0693136523978
 30
0.0
 10
206.0235904313372
 20
133.0831180487233
 30
0.0
 10
206.0021180402674
 20
133.0866940451745
 30
0.0
 10
206.0021180402672
 20
133.0866940451745
 30
0.0
  0
SPLINE
  5
11D
330
1F
100
AcDbEntity
  8
0
  6
HIDDEN
 62
     7
370
     0
100
AcDbSpline
210
0.0
220
0.0
230
1.0
 70
     8
 71
     3
 72
    70
 73
    66
 74
     0
 42
0.00000001
 43
0.00000001
 40
-0.03125
 40
-0.03125
 40
0.0
 40
0.0
 40
0.0312499999999999
 40
0.0312499999999999
 40
0.0624999999999998
 40
0.0624999999999998
 40
0.0937499999999998
 40
0.0937499999999998
 40
0.1249999999999997
 40
0.1249999999999997
 40
0.1562499999999996
 40
0.1562499999999996
 40
0.1874999999999996
 40
0.1874999999999996
 40
0.2187499999999995
 40
0.2187499999999995
 40
0.2499999999999994
 40
0.2499999999999994
 40
0.2812499999999993
 40
0.2812499999999993
 40
0.3124999999999992
 40
0.3124999999999992
 40
0.3437499999999992
 40
0.3437499999999992
 40
0.3749999999999991
 40
0.3749999999999991
 40
0.4062499999999992
 40
0.4062499999999992
 40
0.4374999999999993
 40
0.4374999999999993
 40
0.4687499999999993
 40
0.4687499999999993
 40
0.4999999999999994
 40
0.4999999999999994
 40
0.5312499999999994
 40
0.5312499999999994
 40
0.5624999999999996
 40
0.5624999999999996
 40
0.5937499999999996
 40
0.5937499999999996
 40
0.6249999999999996
 40
0.6249999999999996
 40
0.6562499999999997
 40
0.6562499999999997
 40
0.6874999999999997
 40
0.6874999999999997
 40
0.7187499999999997
 40
0.7187499999999997
 40
0.7499999999999997
 40
0.7499999999999997
 40
0.7812499999999998
 40
0.7812499999999998
 40
0.8124999999999998
 40
0.8124999999999998
 40
0.8437499999999998
 40
0.8437499999999998
 40
0.8749999999999999
 40
0.8749999999999999
 40
0.9062499999999999
 40
0.9062499999999999
 40
0.9374999999999999
 40
0.9374999999999999
 40
0.96875
 40
0.96875
 40
1.0
 40
1.0
 40
1.03125
 40
1.03125
 10
206.0021180402672
 20
102.8975423872067
 30
0.0
 10
206.0021180402672
 20
103.2758457031422
 30
0.0
 10
206.023587364159
 20
103.4635596833855
 30
0.0
 10
206.1076389894569
 20
103.836051443042
 30
0.0
 10
206.1712682798668
 20
104.0228299165188
 30
0.0
 10
206.3370379495948
 20
104.3814244769524
 30
0.0
 10
206.4384241437838
 20
104.5529477824076
 30
0.0
 10
206.6778901754858
 20
104.8798566974685
 30
0.0
 10
206.8170215899592
 20
105.0356187897222
 30
0.0
 10
207.1209075506271
 20
105.3165715760914
 30
0.0
 10
207.2867881819113
 20
105.4436435990979
 30
0.0
 10
207.6473658435093
 20
105.6692683072656
 30
0.0
 10
207.8388618354072
 20
105.7654786209274
 30
0.0
 10
208.2357632954063
 20
105.9208109983747
 30
0.0
 10
208.4441098141211
 20
105.9810088653329
 30
0.0
 10
208.8702450130212
 20
106.061514269445
 30
0.0
 10
209.0846022786608
 20
106.0815240573291
 30
0.0
 10
209.515842250906
 20
106.0817593268265
 30
0.0
 10
209.7349130265721
 20
106.0613150146266
 30
0.0
 10
210.1584246307284
 20
105.981355370427
 30
0.0
 10
210.3643086677013
 20
105.9222516770944
 30
0.0
 10
210.764294219505
 20
105.7660878413091
 30
0.0
 10
210.9569797964914
 20
105.669060392971
 30
0.0
 10
211.3141135518763
 20
105.4458681106021
 30
0.0
 10
211.4811625957169
 20
105.3185253840392
 30
0.0
 10
211.7885553784044
 20
105.0344276344013
 30
0.0
 10
211.9248282695594
 20
104.8816000218089
 30
0.0
 10
212.1638132248323
 20
104.5560000257509
 30
0.0
 10
212.267354546765
 20
104.3811172655109
 30
0.0
 10
212.4329720113656
 20
104.0227896288818
 30
0.0
 10
212.4955594570737
 20
103.8396438904236
 30
0.0
 10
212.5803417382891
 20
103.4659102854199
 30
0.0
 10
212.6020336324669
 20
103.274484362033
 30
0.0
 10
212.6022019450182
 20
102.901135403345
 30
0.0
 10
212.5813726980175
 20
102.7171146730962
 30
0.0
 10
212.4966970711918
 20
102.354331728163
 30
0.0
 10
212.4334738321666
 20
102.1794063536929
 30
0.0
 10
212.2690277973294
 20
101.8478933465001
 30
0.0
 10
212.1663790124711
 20
101.6888444269689
 30
0.0
 10
211.9258947425853
 20
101.3936579157998
 30
0.0
 10
211.7896710589272
 20
101.2588001815454
 30
0.0
 10
211.4857604312562
 20
101.012988361912
 30
0.0
 10
211.3162934130363
 20
100.9014109221169
 30
0.0
 10
210.9586271731796
 20
100.7106910424704
 30
0.0
 10
210.76937067617
 20
100.6302963996637
 30
0.0
 10
210.3695062484886
 20
100.4990810682363
 30
0.0
 10
210.1602752303161
 20
100.4491483712369
 30
0.0
 10
209.738321650081
 20
100.3829823555632
 30
0.0
 10
209.5228495474574
 20
100.3660133892243
 30
0.0
 10
209.0867251215892
 20
100.3657373885044
 30
0.0
 10
208.8721295128409
 20
100.382329058458
 30
0.0
 10
208.4496071916292
 20
100.4479505894801
 30
0.0
 10
208.2394599458849
 20
100.4978449014217
 30
0.0
 10
207.8402924032928
 20
100.6282074577322
 30
0.0
 10
207.6507805900522
 20
100.7082846962544
 30
0.0
 10
207.2917325041568
 20
100.8990473462955
 30
0.0
 10
207.1224216078017
 20
101.010231801155
 30
0.0
 10
206.8184956800701
 20
101.2551970438429
 30
0.0
 10
206.6817692593527
 20
101.389943140795
 30
0.0
 10
206.4397964399194
 20
101.6859818513287
 30
0.0
 10
206.3377971195492
 20
101.8435557126344
 30
0.0
 10
206.1727162191012
 20
102.174609944602
 30
0.0
 10
206.1088662932545
 20
102.3502038685017
 30
0.0
 10
206.0235904313372
 20
102.7124782317731
 30
0.0
 10
206.0021180402672
 20
102.8975423872067
 30
0.0
 10
206.0021180402672
 20
103.2758457031422
 30
0.0
  0
SPLINE
  5
11E
330
1F
100
AcDbEntity
  8
0
  6
HIDDEN
 62
     7
370
     0
100
AcDbSpline
210
0.0
220
0.0
230
1.0
 70
     8
 71
     3
 72
    70
 73
    66
 74
     0
 42
0.00000001
 43
0.00000001
 40
-0.0312499999999999
 40
-0.0312499999999999
 40
0.0
 40
0.0
 40
0.03125
 40
0.03125
 40
0.0625
 40
0.0625
 40
0.09375
 40
0.09375
 40
0.1250000000000001
 40
0.1250000000000001
 40
0.1562500000000001
 40
0.1562500000000001
 40
0.1875000000000001
 40
0.1875000000000001
 40
0.2187500000000001
 40
0.2187500000000001
 40
0.2500000000000001
 40
0.2500000000000001
 40
0.2812500000000001
 40
0.2812500000000001
 40
0.3125000000000001
 40
0.3125000000000001
 40
0.3437500000000002
 40
0.3437500000000002
 40
0.3750000000000002
 40
0.3750000000000002
 40
0.4062500000000002
 40
0.4062500000000002
 40
0.4375000000000002
 40
0.4375000000000002
 40
0.4687500000000002
 40
0.4687500000000002
 40
0.5000000000000002
 40
0.5000000000000002
 40
0.5312500000000002
 40
0.5312500000000002
 40
0.5625000000000002
 40
0.5625000000000002
 40
0.5937500000000002
 40
0.5937500000000002
 40
0.6250000000000002
 40
0.6250000000000002
 40
0.6562500000000003
 40
0.6562500000000003
 40
0.6875000000000003
 40
0.6875000000000003
 40
0.7187500000000003
 40
0.7187500000000003
 40
0.7500000000000003
 40
0.7500000000000003
 40
0.7812500000000003
 40
0.7812500000000003
 40
0.8125000000000003
 40
0.8125000000000003
 40
0.8437500000000003
 40
0.8437500000000003
 40
0.8750000000000004
 40
0.8750000000000004
 40
0.9062500000000003
 40
0.9062500000000003
 40
0.9375000000000002
 40
0.9375000000000002
 40
0.9687500000000001
 40
0.9687500000000001
 40
1.0
 40
1.0
 40
1.03125
 40
1.03125
 10
206.0021180402674
 20
103.2758457031424
 30
0.0
 10
206.0021180402672
 20
102.8975423872069
 30
0.0
 10
206.023587364159
 20
102.7134026382248
 30
0.0
 10
206.1076389894569
 20
102.3545196152527
 30
0.0
 10
206.1712682798668
 20
102.1779391537325
 30
0.0
 10
206.3370379495948
 20
101.8446582754851
 30
0.0
 10
206.4384241437838
 20
101.6881379102036
 30
0.0
 10
206.6778901754858
 20
101.3942221579246
 30
0.0
 10
206.8170215899592
 20
101.2565486081782
 30
0.0
 10
207.1209075506271
 20
101.0112902915889
 30
0.0
 10
207.2867881819113
 20
100.9020030854917
 30
0.0
 10
207.6473658435092
 20
100.7097776710463
 30
0.0
 10
207.8388618354072
 20
100.6288322088814
 30
0.0
 10
208.2357632954063
 20
100.4988966501112
 30
0.0
 10
208.4441098141211
 20
100.4490049239642
 30
0.0
 10
208.8702450130212
 20
100.382424639871
 30
0.0
 10
209.0846022786607
 20
100.3659718826365
 30
0.0
 10
209.515842250906
 20
100.3657780579073
 30
0.0
 10
209.7349130265721
 20
100.3825895851491
 30
0.0
 10
210.1584246307284
 20
100.4487181987606
 30
0.0
 10
210.3643086677014
 20
100.4976958291855
 30
0.0
 10
210.764294219505
 20
100.6283183450473
 30
0.0
 10
210.9569797964913
 20
100.7099609633187
 30
0.0
 10
211.3141135518763
 20
100.9001017688715
 30
0.0
 10
211.4811625957168
 20
101.0095877422796
 30
0.0
 10
211.7885553784043
 20
101.2575854064244
 30
0.0
 10
211.9248282695594
 20
101.3926775055314
 30
0.0
 10
212.1638132248322
 20
101.6853713181328
 30
0.0
 10
212.267354546765
 20
101.8449419268845
 30
0.0
 10
212.4329720113655
 20
102.1779784727925
 30
0.0
 10
212.4955594570737
 20
102.351093771051
 30
0.0
 10
212.5803417382891
 20
102.7111031161438
 30
0.0
 10
212.6020336324669
 20
102.8989176556021
 30
0.0
 10
212.6022019450182
 20
103.2722388427213
 30
0.0
 10
212.5813726980175
 20
103.4597295753532
 30
0.0
 10
212.4966970711918
 20
103.8362239879839
 30
0.0
 10
212.4334738321666
 20
104.0212807115954
 30
0.0
 10
212.2690277973294
 20
104.3779146738868
 30
0.0
 10
212.1663790124711
 20
104.552162791701
 30
0.0
 10
211.9258947425854
 20
104.8804834430667
 30
0.0
 10
211.7896710589272
 20
105.0330600792493
 30
0.0
 10
211.4857604312562
 20
105.3146061462085
 30
0.0
 10
211.3162934130364
 20
105.4443400011444
 30
0.0
 10
210.9586271731796
 20
105.6681948893289
 30
0.0
 10
210.7693706761701
 20
105.7637332146783
 30
0.0
 10
210.3695062484886
 20
105.9205856255791
 30
0.0
 10
210.160275230316
 20
105.9808365064511
 30
0.0
 10
209.738321650081
 20
106.0608388301603
 30
0.0
 10
209.5228495474575
 20
106.0814736755589
 30
0.0
 10
209.0867251215893
 20
106.0818086923999
 30
0.0
 10
208.8721295128409
 20
106.0616316207598
 30
0.0
 10
208.4496071916293
 20
105.9822819632042
 30
0.0
 10
208.2394599458849
 20
105.9220733422867
 30
0.0
 10
207.8402924032928
 20
105.766220524727
 30
0.0
 10
207.6507805900522
 20
105.6710395929883
 30
0.0
 10
207.2917325041569
 20
105.4470944301655
 30
0.0
 10
207.1224216078018
 20
105.3177965796651
 30
0.0
 10
206.8184956800702
 20
105.0371547181111
 30
0.0
 10
206.6817692593527
 20
104.8846543489808
 30
0.0
 10
206.4397964399195
 20
104.5553083921895
 30
0.0
 10
206.3377971195491
 20
104.3826384810806
 30
0.0
 10
206.1727162191013
 20
104.0263846590559
 30
0.0
 10
206.1088662932545
 20
103.8405646146242
 30
0.0
 10
206.0235904313373
 20
103.4644858550274
 30
0.0
 10
206.0021180402674
 20
103.2758457031424
 30
0.0
 10
206.0021180402672
 20
102.8975423872069
 30
0.0
  0
LINE
  5
11F
330
1F
100
AcDbEntity
  8
0
  6
HIDDEN
 62
     7
370
     0
100
AcDbLine
 10
90.497738386
 20
132.9366940452
 30
0.0
 11
94.4182656634
 21
132.9366940452
 31
0.0
  0
LINE
  5
120
330
1F
100
AcDbEntity
  8
0
  6
HIDDEN
 62
     7
370
     0
100
AcDbLine
 10
98.1859704171
 20
132.9366940452
 30
0.0
 11
104.2521180403
 21
132.9366940452
 31
0.0
  0
LINE
  5
121
330
1F
100
AcDbEntity
  8
0
  6
HIDDEN
 62
     7
370
     0
100
AcDbLine
 10
59.3060926365
 20
130.0866940452
 30
0.0
 11
59.3060926365
 21
96.0866940452
 31
0.0
  0
LINE
  5
122
330
1F
100
AcDbEntity
  8
0
  6
HIDDEN
 62
     7
370
     0
100
AcDbLine
 10
231.4021180403
 20
132.5116940452
 30
0.0
 11
231.4021180403
 21
93.6911905885
 31
0.0
  0
LINE
  5
123
330
1F
100
AcDbEntity
  8
0
  6
HIDDEN
 62
     7
370
     0
100
AcDbLine
 10
229.8021180403
 20
132.5116940452
 30
0.0
 11
229.8021180403
 21
93.6911905885
 31
0.0
  0
LWPOLYLINE
  5
124
330
1F
100
AcDbEntity
  8
0
  6
HIDDEN
 62
     7
370
     0
100
AcDbPolyline
 90
       11
 70
   128
 43
0.0
 10
86.3021180403
 20
135.0322964598
 10
87.2968775889
 20
135.0951301376
 10
88.2291327367
 20
135.2796830997
 10
89.040306464
 20
135.574359205
 10
89.6794297423
 20
135.9606428699
 10
90.1063441054
 20
136.4142624711
 10
90.294224954
 20
136.9067154208
 10
90.2312670432
 20
137.407059089
 10
89.9214262501
 20
137.8838550429
 10
89.3841710114
 20
138.3071444393
 10
88.6672673831
 20
138.645218388
  0
LWPOLYLINE
  5
125
330
1F
100
AcDbEntity
  8
0
  6
HIDDEN
 62
     7
370
     0
100
AcDbPolyline
 90
       11
 70
   128
 43
0.0
 10
83.9298566713
 20
138.6426051257
 10
83.2200650692
 20
138.3071444393
 10
82.6828098304
 20
137.8838550429
 10
82.3729690374
 20
137.407059089
 10
82.3100111266
 20
136.9067154208
 10
82.4978919751
 20
136.4142624711
 10
82.9248063383
 20
135.9606428699
 10
83.5639296166
 20
135.574359205
 10
84.3751033439
 20
135.2796830997
 10
85.3073584916
 20
135.0951301376
 10
86.3021180403
 20
135.0322964598
  0
LWPOLYLINE
  5
126
330
1F
100
AcDbEntity
  8
0
  6
HIDDEN
 62
     7
370
     0
100
AcDbPolyline
 90
       24
 70
   128
 43
0.0
 10
206.0021180403
 20
105.3116940452
 10
206.124490992
 20
104.5406462148
 10
206.4825340053
 20
103.8267834747
 10
207.0496926676
 20
103.2230497587
 10
207.7839034158
 20
102.7742212344
 10
208.6307131972
 20
102.5135854603
 10
209.5273180044
 20
102.4604725995
 10
210.4072207604
 20
102.6188217899
 10
211.2051631032
 20
102.9768889963
 10
211.8619652996
 20
103.5081180122
 10
212.3289153352
 20
104.1731100117
 10
212.5713816622
 20
104.9225455802
 10
212.5713816622
 20
105.7008425102
 10
212.3289153352
 20
106.4502780787
 10
211.8619652996
 20
107.1152700781
 10
211.2051631032
 20
107.646499094
 10
210.4072207604
 20
108.0045663005
 10
209.5273180044
 20
108.1629154908
 10
208.6307131972
 20
108.10980263
 10
207.7839034158
 20
107.849166856
 10
207.0496926676
 20
107.4003383317
 10
206.4825340053
 20
106.7966046156
 10
206.124490992
 20
106.0827418755
 10
206.0021180403
 20
105.3116940452
  0
LWPOLYLINE
  5
127
330
1F
100
AcDbEntity
  8
0
  6
HIDDEN
 62
     7
370
     0
100
AcDbPolyline
 90
        2
 70
   128
 43
0.0
 10
232.7021180403
 20
105.3116940452
 10
232.7021180403
 20
105.3116940452
  0
LWPOLYLINE
  5
128
330
1F
100
AcDbEntity
  8
0
  6
HIDDEN
 62
     7
370
     0
100
AcDbPolyline
 90
        2
 70
   128
 43
0.0
 10
232.7021180403
 20
120.8616940452
 10
232.7021180403
 20
120.8616940452
  0
SPLINE
  5
129
330
1F
100
AcDbEntity
  8
0
  6
HIDDEN
 62
     7
370
     0
100
AcDbSpline
210
0.0
220
0.0
230
1.0
 70
     8
 71
     3
 72
    24
 73
    20
 74
     0
 42
0.00000001
 43
0.00000001
 40
0.0
 40
0.0
 40
0.0
 40
0.0
 40
0.1249999999999976
 40
0.1249999999999976
 40
0.2499999999999952
 40
0.2499999999999952
 40
0.3124999999999943
 40
0.3124999999999943
 40
0.3749999999999935
 40
0.3749999999999935
 40
0.4999999999999948
 40
0.4999999999999948
 40
0.624999999999996
 40
0.624999999999996
 40
0.7499999999999973
 40
0.7499999999999973
 40
0.8749999999999986
 40
0.8749999999999986
 40
1.0
 40
1.0
 40
1.0
 40
1.0
 10
199.5521180402672
 20
122.4730998801165
 30
0.0
 10
199.3531290841982
 20
122.4120613196364
 30
0.0
 10
199.1706654750609
 20
122.3286319416535
 30
0.0
 10
198.8379534764326
 20
122.1161389564096
 30
0.0
 10
198.6928014433902
 20
121.9895891215468
 30
0.0
 10
198.5133569164113
 20
121.7742111267653
 30
0.0
 10
198.4593997184911
 20
121.6972775792969
 30
0.0
 10
198.3672742550563
 20
121.5387261205848
 30
0.0
 10
198.3286074000194
 20
121.4566486752802
 30
0.0
 10
198.2346702955932
 20
121.20179471674
 30
0.0
 10
198.202207495182
 20
121.0195560109135
 30
0.0
 10
198.2020289638377
 20
120.6553762224368
 30
0.0
 10
198.23441761918
 20
120.4683007595494
 30
0.0
 10
198.3591771043601
 20
120.1126981117814
 30
0.0
 10
198.4532919691728
 20
119.9389947036522
 30
0.0
 10
198.6915050738405
 20
119.6260075636184
 30
0.0
 10
198.8382022997791
 20
119.4830111715825
 30
0.0
 10
199.1689148706149
 20
119.2437274380111
 30
0.0
 10
199.3531314626973
 20
119.1464186336601
 30
0.0
 10
199.5521180402672
 20
119.0756743842447
 30
0.0
  0
LINE
  5
12A
330
1F
100
AcDbEntity
  8
0
  6
HIDDEN
 62
     7
370
     0
100
AcDbLine
 10
199.5521180403
 20
119.0756743842
 30
0.0
 11
199.5521180403
 21
119.3150413607
 31
0.0
  0
SPLINE
  5
12B
330
1F
100
AcDbEntity
  8
0
  6
HIDDEN
 62
     7
370
     0
100
AcDbSpline
210
0.0
220
0.0
230
1.0
 70
     8
 71
     3
 72
    10
 73
     6
 74
     0
 42
0.00000001
 43
0.00000001
 40
0.0
 40
0.0
 40
0.0
 40
0.0
 40
0.5
 40
0.5
 40
1.0
 40
1.0
 40
1.0
 40
1.0
 10
199.5521180402672
 20
119.3150413607163
 30
0.0
 10
199.5521180402672
 20
119.3414420823575
 30
0.0
 10
199.5742937408493
 20
119.3601579431257
 30
0.0
 10
199.6495158197856
 20
119.3731240490362
 30
0.0
 10
199.700402591246
 20
119.3683270309539
 30
0.0
 10
199.7521180402672
 20
119.3552866473562
 30
0.0
  0
SPLINE
  5
12C
330
1F
100
AcDbEntity
  8
0
  6
HIDDEN
 62
     7
370
     0
100
AcDbSpline
210
0.0
220
0.0
230
1.0
 70
     8
 71
     3
 72
    10
 73
     6
 74
     0
 42
0.00000001
 43
0.00000001
 40
0.0
 40
0.0
 40
0.0
 40
0.0
 40
0.5
 40
0.5
 40
1.0
 40
1.0
 40
1.0
 40
1.0
 10
199.7521180402672
 20
119.355286647356
 30
0.0
 10
199.9493674604125
 20
119.3055489354768
 30
0.0
 10
200.1495457443899
 20
119.2831071689948
 30
0.0
 10
200.5556616748785
 20
119.2922041170339
 30
0.0
 10
200.7578073668697
 20
119.3242741204843
 30
0.0
 10
200.9521180402672
 20
119.3829844478381
 30
0.0
  0
SPLINE
  5
12D
330
1F
100
AcDbEntity
  8
0
  6
HIDDEN
 62
     7
370
     0
100
AcDbSpline
210
0.0
220
0.0
230
1.0
 70
     8
 71
     3
 72
    10
 73
     6
 74
     0
 42
0.00000001
 43
0.00000001
 40
0.0
 40
0.0
 40
0.0
 40
0.0
 40
0.5
 40
0.5
 40
1.0
 40
1.0
 40
1.0
 40
1.0
 10
200.9521180402672
 20
119.3829844478381
 30
0.0
 10
201.0034951500499
 20
119.3985078716475
 30
0.0
 10
201.0540672096932
 20
119.4059665672449
 30
0.0
 10
201.1292340439632
 20
119.3973642507615
 30
0.0
 10
201.1521180402672
 20
119.3799882388753
 30
0.0
 10
201.1521180402672
 20
119.3532598737813
 30
0.0
  0
LINE
  5
12E
330
1F
100
AcDbEntity
  8
0
  6
HIDDEN
 62
     7
370
     0
100
AcDbLine
 10
201.1521180403
 20
119.3532598738
 30
0.0
 11
201.1521180403
 21
119.1139714159
 31
0.0
  0
SPLINE
  5
12F
330
1F
100
AcDbEntity
  8
0
  6
HIDDEN
 62
     7
370
     0
100
AcDbSpline
210
0.0
220
0.0
230
1.0
 70
     8
 71
     3
 72
    22
 73
    18
 74
     0
 42
0.00000001
 43
0.00000001
 40
0.0
 40
0.0
 40
0.0
 40
0.0
 40
0.1249999999999998
 40
0.1249999999999998
 40
0.2499999999999996
 40
0.2499999999999996
 40
0.3749999999999993
 40
0.3749999999999993
 40
0.4999999999999991
 40
0.4999999999999991
 40
0.6249999999999993
 40
0.6249999999999993
 40
0.7499999999999996
 40
0.7499999999999996
 40
0.8749999999999998
 40
0.8749999999999998
 40
1.0
 40
1.0
 40
1.0
 40
1.0
 10
201.1521180402672
 20
119.1139714158544
 30
0.0
 10
201.3385354326411
 20
119.1905836898317
 30
0.0
 10
201.5085171849068
 20
119.2896395656684
 30
0.0
 10
201.8165721394608
 20
119.5301018025929
 30
0.0
 10
201.9511565826688
 20
119.6697101361366
 30
0.0
 10
202.1710947307161
 20
119.9742954400274
 30
0.0
 10
202.2575007880115
 20
120.1414754691789
 30
0.0
 10
202.3722258577938
 20
120.4827537149319
 30
0.0
 10
202.4020561750857
 20
120.6618065818167
 30
0.0
 10
202.4021797077229
 20
121.0104653979369
 30
0.0
 10
202.3726636847495
 20
121.1848569529278
 30
0.0
 10
202.2578550160763
 20
121.5122733408463
 30
0.0
 10
202.1724165506548
 20
121.6671708095022
 30
0.0
 10
201.9516327089596
 20
121.9482996165455
 30
0.0
 10
201.8191905480538
 20
122.0720560555293
 30
0.0
 10
201.5091969347598
 20
122.2871385653326
 30
0.0
 10
201.3385328777103
 20
122.3736959821725
 30
0.0
 10
201.1521180402672
 20
122.4400050897669
 30
0.0
  0
LINE
  5
130
330
1F
100
AcDbEntity
  8
0
  6
HIDDEN
 62
     7
370
     0
100
AcDbLine
 10
201.1521180403
 20
122.4400050898
 30
0.0
 11
201.1521180403
 21
122.6792935477
 31
0.0
  0
SPLINE
  5
131
330
1F
100
AcDbEntity
  8
0
  6
HIDDEN
 62
     7
370
     0
100
AcDbSpline
210
0.0
220
0.0
230
1.0
 70
     8
 71
     3
 72
    10
 73
     6
 74
     0
 42
0.00000001
 43
0.00000001
 40
0.0
 40
0.0
 40
0.0
 40
0.0
 40
0.5
 40
0.5
 40
1.0
 40
1.0
 40
1.0
 40
1.0
 10
201.1521180402672
 20
122.6792935476946
 30
0.0
 10
201.1521180402672
 20
122.705904468331
 30
0.0
 10
201.1294668865895
 20
122.7411870119927
 30
0.0
 10
201.0539953756461
 20
122.8029067476692
 30
0.0
 10
201.0034273942172
 20
122.8282440024166
 30
0.0
 10
200.9521180402672
 20
122.8416691689426
 30
0.0
  0
SPLINE
  5
132
330
1F
100
AcDbEntity
  8
0
  6
HIDDEN
 62
     7
370
     0
100
AcDbSpline
210
0.0
220
0.0
230
1.0
 70
     8
 71
     3
 72
    10
 73
     6
 74
     0
 42
0.00000001
 43
0.00000001
 40
0.0
 40
0.0
 40
0.0
 40
0.0
 40
0.5
 40
0.5
 40
1.0
 40
1.0
 40
1.0
 40
1.0
 10
200.9521180402672
 20
122.8416691689423
 30
0.0
 10
200.7578116568038
 20
122.8925097146566
 30
0.0
 10
200.5590993028067
 20
122.9196663655037
 30
0.0
 10
200.1529995274846
 20
122.9280185870514
 30
0.0
 10
199.9493701085336
 20
122.9086064323705
 30
0.0
 10
199.7521180402672
 20
122.8656285110495
 30
0.0
  0
SPLINE
  5
133
330
1F
100
AcDbEntity
  8
0
  6
HIDDEN
 62
     7
370
     0
100
AcDbSpline
210
0.0
220
0.0
230
1.0
 70
     8
 71
     3
 72
    10
 73
     6
 74
     0
 42
0.00000001
 43
0.00000001
 40
0.0
 40
0.0
 40
0.0
 40
0.0
 40
0.5
 40
0.5
 40
1.0
 40
1.0
 40
1.0
 40
1.0
 10
199.7521180402672
 20
122.8656285110495
 30
0.0
 10
199.7003432179742
 20
122.8543476446005
 30
0.0
 10
199.6493736252585
 20
122.8308964283886
 30
0.0
 10
199.5745786664872
 20
122.772959601413
 30
0.0
 10
199.5521180402671
 20
122.7390002658367
 30
0.0
 10
199.5521180402672
 20
122.7124668565891
 30
0.0
  0
LINE
  5
134
330
1F
100
AcDbEntity
  8
0
  6
HIDDEN
 62
     7
370
     0
100
AcDbLine
 10
199.5521180403
 20
122.7124668566
 30
0.0
 11
199.5521180403
 21
122.4730998801
 31
0.0
  0
LINE
  5
135
330
1F
100
AcDbEntity
  8
0
  6
HIDDEN
 62
     7
370
     0
100
AcDbLine
 10
237.5021180403
 20
104.8116940452
 30
0.0
 11
237.9521180403
 21
104.3616940452
 31
0.0
  0
LINE
  5
136
330
1F
100
AcDbEntity
  8
0
  6
HIDDEN
 62
     7
370
     0
100
AcDbLine
 10
238.3021180403
 20
93.8866940452
 30
0.0
 11
238.3021180403
 21
104.0116940452
 31
0.0
  0
SPLINE
  5
137
330
1F
100
AcDbEntity
  8
0
  6
HIDDEN
 62
     7
370
     0
100
AcDbSpline
210
0.0
220
0.0
230
1.0
 70
    24
 71
     3
 72
     8
 73
     4
 74
     0
 42
0.00000001
 43
0.00000001
 40
0.0
 40
0.0
 40
0.0
 40
0.0
 40
1.0
 40
1.0
 40
1.0
 40
1.0
 10
238.3021180402672
 20
104.0116940451745
 30
0.0
 10
238.0410590714102
 20
104.2727530140316
 30
0.0
 10
237.7742161164043
 20
104.5395959690375
 30
0.0
 10
237.5021180402672
 20
104.8116940451745
 30
0.0
  0
LWPOLYLINE
  5
138
330
1F
100
AcDbEntity
  8
0
  6
HIDDEN
 62
     7
370
     0
100
AcDbPolyline
 90
        2
 70
   128
 43
0.0
 10
237.5021180403
 20
104.8116940452
 10
237.5021180403
 20
104.8116940452
  0
LWPOLYLINE
  5
139
330
1F
100
AcDbEntity
  8
0
  6
HIDDEN
 62
     7
370
     0
100
AcDbPolyline
 90
        2
 70
   128
 43
0.0
 10
233.2021180403
 20
104.8116940452
 10
233.2021180403
 20
104.8116940452
  0
LWPOLYLINE
  5
13A
330
1F
100
AcDbEntity
  8
0
  6
HIDDEN
 62
     7
370
     0
100
AcDbPolyline
 90
        2
 70
   128
 43
0.0
 10
233.2021180403
 20
121.3616940452
 10
233.2021180403
 20
121.3616940452
  0
LWPOLYLINE
  5
13B
330
1F
100
AcDbEntity
  8
0
  6
HIDDEN
 62
     7
370
     0
100
AcDbPolyline
 90
        2
 70
   128
 43
0.0
 10
237.5021180403
 20
121.3616940452
 10
237.5021180403
 20
121.3616940452
  0
SPLINE
  5
13C
330
1F
100
AcDbEntity
  8
0
  6
HIDDEN
 62
     7
370
     0
100
AcDbSpline
210
0.0
220
0.0
230
1.0
 70
    24
 71
     3
 72
     8
 73
     4
 74
     0
 42
0.00000001
 43
0.00000001
 40
0.0
 40
0.0
 40
0.0
 40
0.0
 40
1.0
 40
1.0
 40
1.0
 40
1.0
 10
237.5021180402672
 20
121.3616940451746
 30
0.0
 10
237.7742161164043
 20
121.6337921213116
 30
0.0
 10
238.0410590714102
 20
121.9006350763175
 30
0.0
 10
238.3021180402672
 20
122.1616940451746
 30
0.0
  0
LINE
  5
13D
330
1F
100
AcDbEntity
  8
0
  6
HIDDEN
 62
     7
370
     0
100
AcDbLine
 10
238.3021180403
 20
122.1616940452
 30
0.0
 11
238.3021180403
 21
132.2866940452
 31
0.0
  0
LINE
  5
13E
330
1F
100
AcDbEntity
  8
0
  6
HIDDEN
 62
     7
370
     0
100
AcDbLine
 10
237.9521180403
 20
121.8116940452
 30
0.0
 11
237.5021180403
 21
121.3616940452
 31
0.0
  0
LINE
  5
13F
330
1F
100
AcDbEntity
  8
0
  6
HIDDEN
 62
     7
370
     0
100
AcDbLine
 10
46.4021180403
 20
111.0869425199
 30
0.0
 11
46.4021180403
 21
115.086432958
 31
0.0
  0
SPLINE
  5
140
330
1F
100
AcDbEntity
  8
0
  6
HIDDEN
 62
     7
370
     0
100
AcDbSpline
210
0.0
220
0.0
230
1.0
 70
     8
 71
     3
 72
    11
 73
     7
 74
     0
 42
0.00000001
 43
0.00000001
 40
0.0
 40
0.0
 40
0.0
 40
0.0
 40
0.0005779865010845
 40
0.0005779865010845
 40
0.0005779865010845
 40
0.0011559733324421
 40
0.0011559733324421
 40
0.0011559733324421
 40
0.0011559733324421
 10
46.40211804026724
 20
115.0865346533283
 30
0.0
 10
46.56878529507321
 20
115.0845510139874
 30
0.0
 10
46.73545172475087
 20
115.0825134069848
 30
0.0
 10
46.90211806320269
 20
115.0804019435784
 30
0.0
 10
47.06878449202909
 20
115.078290479027
 30
0.0
 10
47.23545086566678
 20
115.0761049158707
 30
0.0
 10
47.40211804026723
 20
115.0738223385391
 30
0.0
  0
SPLINE
  5
141
330
1F
100
AcDbEntity
  8
0
  6
HIDDEN
 62
     7
370
     0
100
AcDbSpline
210
0.0
220
0.0
230
1.0
 70
    24
 71
     3
 72
    12
 73
     8
 74
     0
 42
0.00000001
 43
0.00000001
 40
0.5334361270103598
 40
0.5334361270103598
 40
0.5334361270103598
 40
0.5334361270103598
 40
0.75343612701036
 40
0.8720147901251732
 40
0.8720147901251732
 40
0.9734361270103479
 40
1.0
 40
1.0
 40
1.0
 40
1.0
 10
46.40211804026723
 20
116.8504733759557
 30
0.0
 10
46.40211804026723
 20
116.5863275143305
 30
0.0
 10
46.40211804026723
 20
116.1667693206763
 30
0.0
 10
46.40211804026723
 20
115.7320288622657
 30
0.0
 10
46.40211804026723
 20
115.4467211598395
 30
0.0
 10
46.40211804026723
 20
115.2821614572169
 30
0.0
 10
46.40211804026724
 20
115.1199885594094
 30
0.0
 10
46.40211804026724
 20
115.0864346192853
 30
0.0
  0
SPLINE
  5
142
330
1F
100
AcDbEntity
  8
0
  6
HIDDEN
 62
     7
370
     0
100
AcDbSpline
210
0.0
220
0.0
230
1.0
 70
     8
 71
     3
 72
     8
 73
     4
 74
     0
 42
0.00000001
 43
0.00000001
 40
0.0
 40
0.0
 40
0.0
 40
0.0
 40
0.0011564765856722
 40
0.0011564765856722
 40
0.0011564765856722
 40
0.0011564765856722
 10
47.40211804026723
 20
111.0899937429583
 30
0.0
 10
47.06881010969838
 20
111.089118587375
 30
0.0
 10
46.73547487730617
 20
111.0880637361235
 30
0.0
 10
46.40211804026723
 20
111.0868926490859
 30
0.0
  0
SPLINE
  5
143
330
1F
100
AcDbEntity
  8
0
  6
HIDDEN
 62
     7
370
     0
100
AcDbSpline
210
0.0
220
0.0
230
1.0
 70
    24
 71
     3
 72
    11
 73
     7
 74
     0
 42
0.00000001
 43
0.00000001
 40
0.0
 40
0.0
 40
0.0
 40
0.0
 40
0.1279896617689066
 40
0.1279896617689066
 40
0.1865683249113103
 40
0.4665683249113104
 40
0.4665683249113104
 40
0.4665683249113104
 40
0.4665683249113104
 10
46.40211804026723
 20
111.0869417003796
 30
0.0
 10
46.40211804026723
 20
110.9252041748301
 30
0.0
 10
46.40211804026723
 20
110.7611221474049
 30
0.0
 10
46.40211804026723
 20
110.5191704196577
 30
0.0
 10
46.40211804026723
 20
110.0821855175946
 30
0.0
 10
46.40211804026723
 20
109.6594752176211
 30
0.0
 10
46.40211804026723
 20
109.3229147148111
 30
0.0
  0
LINE
  5
144
330
1F
100
AcDbEntity
  8
0
  6
HIDDEN
 62
     7
370
     0
100
AcDbLine
 10
46.4021180403
 20
116.850473376
 30
0.0
 11
46.4021180403
 21
129.2120100205
 31
0.0
  0
SPLINE
  5
145
330
1F
100
AcDbEntity
  8
0
  6
HIDDEN
 62
     7
370
     0
100
AcDbSpline
210
0.0
220
0.0
230
1.0
 70
    24
 71
     3
 72
    13
 73
     9
 74
     0
 42
0.00000001
 43
0.00000001
 40
0.4289648948077148
 40
0.4289648948077148
 40
0.4289648948077148
 40
0.4289648948077148
 40
0.4480000000000361
 40
0.56
 40
0.67
 40
0.7800000000003353
 40
0.8899999999999999
 40
1.0
 40
1.0
 40
1.0
 40
1.0
 10
46.40211804026723
 20
97.01633905023769
 30
0.0
 10
46.40211804026723
 20
97.07754358354035
 30
0.0
 10
46.40211804026723
 20
97.51382507330588
 30
0.0
 10
46.40211804026723
 20
98.51253087672553
 30
0.0
 10
46.40211804026723
 20
100.4249853864949
 30
0.0
 10
46.40211804026723
 20
102.8896945555299
 30
0.0
 10
46.40211804026723
 20
105.8783797591383
 30
0.0
 10
46.40211804026723
 20
108.1480487903005
 30
0.0
 10
46.40211804026723
 20
109.3229147148261
 30
0.0
  0
LINE
  5
146
330
1F
100
AcDbEntity
  8
0
  6
HIDDEN
 62
     7
370
     0
100
AcDbLine
 10
85.9619440088
 20
130.0866940452
 30
0.0
 11
85.9619440088
 21
96.0866940452
 31
0.0
  0
LINE
  5
147
330
1F
100
AcDbEntity
  8
0
  6
HIDDEN
 62
     7
370
     0
100
AcDbLine
 10
88.2521180403
 20
128.8116939439
 30
0.0
 11
88.2521180403
 21
97.3616940452
 31
0.0
  0
SPLINE
  5
148
330
1F
100
AcDbEntity
  8
0
  6
HIDDEN
 62
     7
370
     0
100
AcDbSpline
210
0.0
220
0.0
230
1.0
 70
     8
 71
     3
 72
    16
 73
    12
 74
     0
 42
0.00000001
 43
0.00000001
 40
0.0
 40
0.0
 40
0.0
 40
0.0
 40
0.124999999999998
 40
0.124999999999998
 40
0.249999999999996
 40
0.249999999999996
 40
0.4999999999999973
 40
0.4999999999999973
 40
0.7499999999999987
 40
0.7499999999999987
 40
1.0
 40
1.0
 40
1.0
 40
1.0
 10
55.10211804026723
 20
97.28520360914287
 30
0.0
 10
55.19723979493305
 20
97.28520360914287
 30
0.0
 10
55.29056986366113
 20
97.28138777575008
 30
0.0
 10
55.47383162439913
 20
97.26661722302026
 30
0.0
 10
55.56470933995614
 20
97.25545917504469
 30
0.0
 10
55.82151103747587
 20
97.21298790490296
 30
0.0
 10
55.97657840234788
 20
97.17194170770016
 30
0.0
 10
56.23032486390249
 20
97.07679559111827
 30
0.0
 10
56.33119531557035
 20
97.0220328570367
 30
0.0
 10
56.46644173026519
 20
96.9107717331328
 30
0.0
 10
56.50211804026723
 20
96.85360199580413
 30
0.0
 10
56.50211804026723
 20
96.79918042277042
 30
0.0
  0
LINE
  5
149
330
1F
100
AcDbEntity
  8
0
  6
HIDDEN
 62
     7
370
     0
100
AcDbLine
 10
56.5021180403
 20
96.7991804228
 30
0.0
 11
56.5021180403
 21
96.0866940452
 31
0.0
  0
SPLINE
  5
14A
330
1F
100
AcDbEntity
  8
0
  6
HIDDEN
 62
     7
370
     0
100
AcDbSpline
210
0.0
220
0.0
230
1.0
 70
     8
 71
     3
 72
    16
 73
    12
 74
     0
 42
0.00000001
 43
0.00000001
 40
0.0
 40
0.0
 40
0.0
 40
0.0
 40
0.124999999999998
 40
0.124999999999998
 40
0.249999999999996
 40
0.249999999999996
 40
0.4999999999999973
 40
0.4999999999999973
 40
0.7499999999999987
 40
0.7499999999999987
 40
1.0
 40
1.0
 40
1.0
 40
1.0
 10
55.10211804026723
 20
97.28520360914287
 30
0.0
 10
55.19723979493305
 20
97.28520360914287
 30
0.0
 10
55.29056986366113
 20
97.28138777575008
 30
0.0
 10
55.47383162439913
 20
97.26661722302026
 30
0.0
 10
55.56470933995614
 20
97.25545917504469
 30
0.0
 10
55.82151103747587
 20
97.21298790490296
 30
0.0
 10
55.97657840234788
 20
97.17194170770016
 30
0.0
 10
56.23032486390249
 20
97.07679559111827
 30
0.0
 10
56.33119531557035
 20
97.0220328570367
 30
0.0
 10
56.46644173026519
 20
96.9107717331328
 30
0.0
 10
56.50211804026723
 20
96.85360199580413
 30
0.0
 10
56.50211804026723
 20
96.79918042277042
 30
0.0
  0
LINE
  5
14B
330
1F
100
AcDbEntity
  8
0
  6
HIDDEN
 62
     7
370
     0
100
AcDbLine
 10
47.6872860495
 20
97.2852036091
 30
0.0
 11
55.1021180403
 21
97.2852036091
 31
0.0
  0
SPLINE
  5
14C
330
1F
100
AcDbEntity
  8
0
  6
HIDDEN
 62
     7
370
     0
100
AcDbSpline
210
0.0
220
0.0
230
1.0
 70
     8
 71
     3
 72
     8
 73
     4
 74
     0
 42
0.00000001
 43
0.00000001
 40
0.0
 40
0.0
 40
0.0
 40
0.0
 40
1.0
 40
1.0
 40
1.0
 40
1.0
 10
47.70211804358242
 20
99.43000655522512
 30
0.0
 10
47.70211804358435
 20
98.54610941290818
 30
0.0
 10
47.68863741767456
 20
97.83152616784623
 30
0.0
 10
47.68728604948524
 20
97.28520360914287
 30
0.0
  0
SPLINE
  5
14D
330
1F
100
AcDbEntity
  8
0
  6
HIDDEN
 62
     7
370
     0
100
AcDbSpline
210
0.0
220
0.0
230
1.0
 70
     8
 71
     3
 72
    10
 73
     6
 74
     0
 42
0.00000001
 43
0.00000001
 40
0.0
 40
0.0
 40
0.0
 40
0.0
 40
0.5
 40
0.5
 40
1.0
 40
1.0
 40
1.0
 40
1.0
 10
47.40211804026723
 20
100.4549168209283
 30
0.0
 10
47.49350915596013
 20
100.2802780333109
 30
0.0
 10
47.56616098969319
 20
100.1066762060553
 30
0.0
 10
47.67365988270134
 20
99.76306278704861
 30
0.0
 10
47.7021180435768
 20
99.59473696051715
 30
0.0
 10
47.70211804358243
 20
99.43000655528458
 30
0.0
  0
LINE
  5
14E
330
1F
100
AcDbEntity
  8
0
  6
HIDDEN
 62
     7
370
     0
100
AcDbLine
 10
47.4021180403
 20
103.4858672528
 30
0.0
 11
47.4021180403
 21
100.4549168209
 31
0.0
  0
SPLINE
  5
14F
330
1F
100
AcDbEntity
  8
0
  6
HIDDEN
 62
     7
370
     0
100
AcDbSpline
210
0.0
220
0.0
230
1.0
 70
     8
 71
     3
 72
    10
 73
     6
 74
     0
 42
0.00000001
 43
0.00000001
 40
0.0
 40
0.0
 40
0.0
 40
0.0
 40
0.5
 40
0.5
 40
1.0
 40
1.0
 40
1.0
 40
1.0
 10
47.70211804345494
 20
104.8537076695317
 30
0.0
 10
47.70211804345491
 20
104.6117237019249
 30
0.0
 10
47.67396801438434
 20
104.3773812729599
 30
0.0
 10
47.57037810024194
 20
103.9220062506822
 30
0.0
 10
47.49374939065043
 20
103.7004016875748
 30
0.0
 10
47.40211804026723
 20
103.4858672527769
 30
0.0
  0
LINE
  5
150
330
1F
100
AcDbEntity
  8
0
  6
HIDDEN
 62
     7
370
     0
100
AcDbLine
 10
47.7021180435
 20
121.3196804208
 30
0.0
 11
47.7021180435
 21
104.8537076695
 31
0.0
  0
SPLINE
  5
151
330
1F
100
AcDbEntity
  8
0
  6
HIDDEN
 62
     7
370
     0
100
AcDbSpline
210
0.0
220
0.0
230
1.0
 70
     8
 71
     3
 72
     8
 73
     4
 74
     0
 42
0.00000001
 43
0.00000001
 40
0.0
 40
0.0
 40
0.0
 40
0.0
 40
1.0
 40
1.0
 40
1.0
 40
1.0
 10
47.40211804026721
 20
122.6936333662429
 30
0.0
 10
47.58314950682612
 20
122.2615258805802
 30
0.0
 10
47.70211804346065
 20
121.8073804744805
 30
0.0
 10
47.70211804345495
 20
121.3196804207864
 30
0.0
  0
LINE
  5
152
330
1F
100
AcDbEntity
  8
0
  6
HIDDEN
 62
     7
370
     0
100
AcDbLine
 10
47.4021180403
 20
125.7268363522
 30
0.0
 11
47.4021180403
 21
122.6936333662
 31
0.0
  0
SPLINE
  5
153
330
1F
100
AcDbEntity
  8
0
  6
HIDDEN
 62
     7
370
     0
100
AcDbSpline
210
0.0
220
0.0
230
1.0
 70
     8
 71
     3
 72
    10
 73
     6
 74
     0
 42
0.00000001
 43
0.00000001
 40
0.0
 40
0.0
 40
0.0
 40
0.0
 40
0.5
 40
0.5
 40
1.0
 40
1.0
 40
1.0
 40
1.0
 10
47.70211804366044
 20
126.7433815350943
 30
0.0
 10
47.70211804365865
 20
126.5787451884884
 30
0.0
 10
47.67495937290314
 20
126.4115899646578
 30
0.0
 10
47.56919437758472
 20
126.0729669568563
 30
0.0
 10
47.49277958928759
 20
125.9006951795652
 30
0.0
 10
47.40211804026725
 20
125.7268363522212
 30
0.0
  0
LINE
  5
154
330
1F
100
AcDbEntity
  8
0
  6
HIDDEN
 62
     7
370
     0
100
AcDbLine
 10
47.7021180437
 20
128.8881844812
 30
0.0
 11
47.7021180437
 21
126.7433815351
 31
0.0
  0
LINE
  5
155
330
1F
100
AcDbEntity
  8
0
  6
HIDDEN
 62
     7
370
     0
100
AcDbLine
 10
51.1021180403
 20
128.8881844812
 30
0.0
 11
47.7021180437
 21
128.8881844812
 31
0.0
  0
SPLINE
  5
156
330
1F
100
AcDbEntity
  8
0
  6
HIDDEN
 62
     7
370
     0
100
AcDbSpline
210
0.0
220
0.0
230
1.0
 70
     8
 71
     3
 72
    18
 73
    14
 74
     0
 42
0.00000001
 43
0.00000001
 40
0.0
 40
0.0
 40
0.0
 40
0.0
 40
0.2499999999999998
 40
0.2499999999999998
 40
0.3749999999999993
 40
0.3749999999999993
 40
0.4999999999999989
 40
0.4999999999999989
 40
0.6249999999999984
 40
0.6249999999999984
 40
0.749999999999998
 40
0.749999999999998
 40
1.0
 40
1.0
 40
1.0
 40
1.0
 10
52.50211804026722
 20
129.3742076675787
 30
0.0
 10
52.50211804026722
 20
129.3197331470265
 30
0.0
 10
52.46720734887506
 20
129.263352087674
 30
0.0
 10
52.365198047542
 20
129.1792752468205
 30
0.0
 10
52.32356169286388
 20
129.1519415428296
 30
0.0
 10
52.22515589737514
 20
129.0989876272306
 30
0.0
 10
52.16761268567085
 20
129.0731002735134
 30
0.0
 10
52.04031451209789
 20
129.0253227286802
 30
0.0
 10
51.97072720734045
 20
129.0033748105023
 30
0.0
 10
51.81929296218549
 20
128.9639422455896
 30
0.0
 10
51.73660905909154
 20
128.9463859963637
 30
0.0
 10
51.48049759705348
 20
128.9039472309432
 30
0.0
 10
51.29258259316549
 20
128.8881844812062
 30
0.0
 10
51.10211804026722
 20
128.8881844812062
 30
0.0
  0
LINE
  5
157
330
1F
100
AcDbEntity
  8
0
  6
HIDDEN
 62
     7
370
     0
100
AcDbLine
 10
52.5021180403
 20
129.3742076676
 30
0.0
 11
52.5021180403
 21
130.0866940452
 31
0.0
  0
SPLINE
  5
158
330
1F
100
AcDbEntity
  8
0
  6
HIDDEN
 62
     7
370
     0
100
AcDbSpline
210
0.0
220
0.0
230
1.0
 70
     8
 71
     3
 72
    18
 73
    14
 74
     0
 42
0.00000001
 43
0.00000001
 40
0.0
 40
0.0
 40
0.0
 40
0.0
 40
0.2500000000000033
 40
0.2500000000000033
 40
0.3750000000000029
 40
0.3750000000000029
 40
0.5000000000000026
 40
0.5000000000000026
 40
0.6250000000000022
 40
0.6250000000000022
 40
0.7500000000000018
 40
0.7500000000000018
 40
1.0
 40
1.0
 40
1.0
 40
1.0
 10
52.50211804026722
 20
129.3742076675787
 30
0.0
 10
52.50211804026722
 20
129.3197331470265
 30
0.0
 10
52.46720734887506
 20
129.263352087674
 30
0.0
 10
52.365198047542
 20
129.1792752468205
 30
0.0
 10
52.3235616928639
 20
129.1519415428296
 30
0.0
 10
52.22515589737514
 20
129.0989876272306
 30
0.0
 10
52.16761268567085
 20
129.0731002735134
 30
0.0
 10
52.04031451209791
 20
129.0253227286802
 30
0.0
 10
51.97072720734045
 20
129.0033748105023
 30
0.0
 10
51.81929296218549
 20
128.9639422455895
 30
0.0
 10
51.73660905909154
 20
128.9463859963637
 30
0.0
 10
51.48049759705349
 20
128.9039472309432
 30
0.0
 10
51.29258259316551
 20
128.8881844812062
 30
0.0
 10
51.10211804026722
 20
128.8881844812062
 30
0.0
  0
LINE
  5
159
330
1F
100
AcDbEntity
  8
0
  6
HIDDEN
 62
     7
370
     0
100
AcDbLine
 10
51.1021180403
 20
128.8881844812
 30
0.0
 11
47.7021180437
 21
128.8881844812
 31
0.0
  0
LINE
  5
15A
330
1F
100
AcDbEntity
  8
0
  6
HIDDEN
 62
     7
370
     0
100
AcDbLine
 10
47.6331490536
 20
97.2852036091
 30
0.0
 11
55.1021180403
 21
97.2852036091
 31
0.0
  0
SPLINE
  5
15B
330
1F
100
AcDbEntity
  8
0
  6
HIDDEN
 62
     7
370
     0
100
AcDbSpline
210
0.0
220
0.0
230
1.0
 70
     8
 71
     3
 72
    22
 73
    18
 74
     0
 42
0.00000001
 43
0.00000001
 40
0.0
 40
0.0
 40
0.0
 40
0.0
 40
0.1249999999999998
 40
0.1249999999999998
 40
0.2499999999999995
 40
0.2499999999999995
 40
0.4999999999999992
 40
0.4999999999999992
 40
0.5624999999999993
 40
0.5624999999999993
 40
0.6249999999999994
 40
0.6249999999999994
 40
0.7499999999999996
 40
0.7499999999999996
 40
0.8749999999999998
 40
0.8749999999999998
 40
1.0
 40
1.0
 40
1.0
 40
1.0
 10
47.63314905362515
 20
97.28520360914287
 30
0.0
 10
47.62006666089677
 20
97.54030931929054
 30
0.0
 10
47.60684709745694
 20
97.83346757839445
 30
0.0
 10
47.58439991966281
 20
98.49576804401926
 30
0.0
 10
47.57492145263836
 20
98.86604196463064
 30
0.0
 10
47.55572349170181
 20
100.0885987677444
 30
0.0
 10
47.5568372646987
 20
101.0257376938763
 30
0.0
 10
47.57574805765177
 20
102.3456089233913
 30
0.0
 10
47.58037758551079
 20
102.6171108323676
 30
0.0
 10
47.59085880525674
 20
103.1754956671699
 30
0.0
 10
47.59665406654115
 20
103.4626185231095
 30
0.0
 10
47.61496328744609
 20
104.3352077774812
 30
0.0
 10
47.62899822172645
 20
104.9356634538371
 30
0.0
 10
47.65845539386326
 20
106.1731379463331
 30
0.0
 10
47.67401108484484
 20
106.8101541029766
 30
0.0
 10
47.69780563484173
 20
108.1216427006611
 30
0.0
 10
47.70582468698709
 20
108.7977653123216
 30
0.0
 10
47.70211804026722
 20
109.4820604236064
 30
0.0
  0
LINE
  5
15C
330
1F
100
AcDbEntity
  8
0
  6
HIDDEN
 62
     7
370
     0
100
AcDbLine
 10
47.7021180437
 20
116.6913276667
 30
0.0
 11
47.7021180437
 21
128.8881844812
 31
0.0
  0
SPLINE
  5
15D
330
1F
100
AcDbEntity
  8
0
  6
HIDDEN
 62
     7
370
     0
100
AcDbSpline
210
0.0
220
0.0
230
1.0
 70
     8
 71
     3
 72
    10
 73
     6
 74
     0
 42
0.00000001
 43
0.00000001
 40
0.0
 40
0.0
 40
0.0
 40
0.0
 40
0.5
 40
0.5
 40
1.0
 40
1.0
 40
1.0
 40
1.0
 10
47.70211804026722
 20
109.4820604235913
 30
0.0
 10
47.70211804026704
 20
109.7559755716657
 30
0.0
 10
47.67635881039934
 20
110.0269171503958
 30
0.0
 10
47.57315287766621
 20
110.5626082319987
 30
0.0
 10
47.49581471379098
 20
110.8283550355207
 30
0.0
 10
47.40211804026721
 20
111.0899937429582
 30
0.0
  0
SPLINE
  5
15E
330
1F
100
AcDbEntity
  8
0
  6
HIDDEN
 62
     7
370
     0
100
AcDbSpline
210
0.0
220
0.0
230
1.0
 70
     8
 71
     3
 72
    10
 73
     6
 74
     0
 42
0.00000001
 43
0.00000001
 40
0.0
 40
0.0
 40
0.0
 40
0.0
 40
0.5
 40
0.5
 40
1.0
 40
1.0
 40
1.0
 40
1.0
 10
47.40211804026721
 20
115.0738223385391
 30
0.0
 10
47.49534862165823
 20
115.3377161466092
 30
0.0
 10
47.57037823389498
 20
115.6038964572474
 30
0.0
 10
47.67544533307312
 20
116.1422190322056
 30
0.0
 10
47.70211804365931
 20
116.4149671484512
 30
0.0
 10
47.70211804366051
 20
116.6913276667416
 30
0.0
  0
LINE
  5
15F
330
1F
100
AcDbEntity
  8
0
  6
HIDDEN
 62
     7
370
     0
100
AcDbLine
 10
47.4021180403
 20
111.089993743
 30
0.0
 11
47.4021180403
 21
115.0738223385
 31
0.0
  0
LWPOLYLINE
  5
160
330
1F
100
AcDbEntity
  8
0
  6
HIDDEN
 62
     7
370
     0
100
AcDbPolyline
 90
        2
 70
   128
 43
0.0
 10
238.3021180403
 20
104.0116940452
 10
238.3021180403
 20
104.0116940452
  0
LWPOLYLINE
  5
161
330
1F
100
AcDbEntity
  8
0
  6
HIDDEN
 62
     7
370
     0
100
AcDbPolyline
 90
        2
 70
   128
 43
0.0
 10
238.3021180403
 20
122.1616940452
 10
238.3021180403
 20
122.1616940452
  0
SPLINE
  5
162
330
1F
100
AcDbEntity
  8
0
  6
HIDDEN
 62
     7
370
     0
100
AcDbSpline
210
0.0
220
0.0
230
1.0
 70
     8
 71
     3
 72
    10
 73
     6
 74
     0
 42
0.00000001
 43
0.00000001
 40
0.0
 40
0.0
 40
0.0
 40
0.0
 40
0.5
 40
0.5
 40
1.0
 40
1.0
 40
1.0
 40
1.0
 10
199.7521180402672
 20
97.03916697711823
 30
0.0
 10
199.7003432179742
 20
97.03739248861665
 30
0.0
 10
199.6493736252585
 20
97.05610331663907
 30
0.0
 10
199.5745786664873
 20
97.12689836244051
 30
0.0
 10
199.5521180402671
 20
97.1795070997224
 30
0.0
 10
199.5521180402672
 20
97.23257391821757
 30
0.0
  0
LINE
  5
163
330
1F
100
AcDbEntity
  8
0
  6
HIDDEN
 62
     7
370
     0
100
AcDbLine
 10
199.5521180403
 20
119.3150413607
 30
0.0
 11
199.5521180403
 21
97.2325739182
 31
0.0
  0
SPLINE
  5
164
330
1F
100
AcDbEntity
  8
0
  6
HIDDEN
 62
     7
370
     0
100
AcDbSpline
210
0.0
220
0.0
230
1.0
 70
     8
 71
     3
 72
    10
 73
     6
 74
     0
 42
0.00000001
 43
0.00000001
 40
0.0
 40
0.0
 40
0.0
 40
0.0
 40
0.5
 40
0.5
 40
1.0
 40
1.0
 40
1.0
 40
1.0
 10
201.1521180402672
 20
97.2275287140482
 30
0.0
 10
201.1521180402672
 20
97.17430687277538
 30
0.0
 10
201.1294668865895
 20
97.12157668619203
 30
0.0
 10
201.0539953756462
 20
97.05118147432162
 30
0.0
 10
201.0034273942172
 20
97.03335073366026
 30
0.0
 10
200.9521180402672
 20
97.03542851874286
 30
0.0
  0
LINE
  5
165
330
1F
100
AcDbEntity
  8
0
  6
HIDDEN
 62
     7
370
     0
100
AcDbLine
 10
201.1521180403
 20
119.3532598738
 30
0.0
 11
201.1521180403
 21
97.227528714
 31
0.0
  0
LINE
  5
166
330
1F
100
AcDbEntity
  8
0
  6
HIDDEN
 62
     7
370
     0
100
AcDbLine
 10
190.3021180403
 20
128.5366940452
 30
0.0
 11
190.3021180403
 21
97.6366940452
 31
0.0
  0
LINE
  5
167
330
1F
100
AcDbEntity
  8
0
  6
HIDDEN
 62
     7
370
     0
100
AcDbLine
 10
192.3021180403
 20
97.5866940452
 30
0.0
 11
192.3021180403
 21
128.5866940452
 31
0.0
  0
SPLINE
  5
168
330
1F
100
AcDbEntity
  8
0
  6
HIDDEN
 62
     7
370
     0
100
AcDbSpline
210
0.0
220
0.0
230
1.0
 70
    11
 71
     3
 72
    24
 73
    20
 74
     0
 42
0.00000001
 43
0.00000001
 40
0.0
 40
0.0
 40
0.0
 40
0.0
 40
0.1249999999999984
 40
0.1249999999999984
 40
0.2499999999999967
 40
0.2499999999999967
 40
0.3124999999999959
 40
0.3124999999999959
 40
0.3749999999999952
 40
0.3749999999999952
 40
0.4999999999999961
 40
0.4999999999999961
 40
0.624999999999997
 40
0.624999999999997
 40
0.7499999999999979
 40
0.7499999999999979
 40
0.874999999999999
 40
0.874999999999999
 40
1.0
 40
1.0
 40
1.0
 40
1.0
 10
199.5521180402672
 20
97.71130787116253
 30
0.0
 10
199.3531290841982
 20
97.70160133661682
 30
0.0
 10
199.1706654750609
 20
97.68887904336393
 30
0.0
 10
198.8379534764326
 20
97.66086182150956
 30
0.0
 10
198.6928014433902
 20
97.6459761936181
 30
0.0
 10
198.5133569164113
 20
97.62590062039146
 30
0.0
 10
198.4593997184911
 20
97.61951845764523
 30
0.0
 10
198.3672742550563
 20
97.60827260385105
 30
0.0
 10
198.3286074000194
 20
97.60335525109059
 30
0.0
 10
198.2346702955933
 20
97.59119521364893
 30
0.0
 10
198.202207495182
 20
97.58670616487161
 30
0.0
 10
198.2020289638377
 20
97.58668197675613
 30
0.0
 10
198.2344176191799
 20
97.59116052624806
 30
0.0
 10
198.3591771043602
 20
97.60731442306975
 30
0.0
 10
198.4532919691728
 20
97.6191748779684
 30
0.0
 10
198.6915050738405
 20
97.64583702639632
 30
0.0
 10
198.8382022997791
 20
97.66087475715595
 30
0.0
 10
199.1689148706149
 20
97.68873960846227
 30
0.0
 10
199.3531314626973
 20
97.70160145263824
 30
0.0
 10
199.5521180402672
 20
97.71130787116253
 30
0.0
  0
LINE
  5
169
330
1F
100
AcDbEntity
  8
0
  6
HIDDEN
 62
     7
370
     0
100
AcDbLine
 10
199.5521180403
 20
122.4730998801
 30
0.0
 11
199.5521180403
 21
128.5866940452
 31
0.0
  0
SPLINE
  5
16A
330
1F
100
AcDbEntity
  8
0
  6
HIDDEN
 62
     7
370
     0
100
AcDbSpline
210
0.0
220
0.0
230
1.0
 70
     8
 71
     3
 72
    24
 73
    20
 74
     0
 42
0.00000001
 43
0.00000001
 40
0.0
 40
0.0
 40
0.0
 40
0.0
 40
0.124999999999998
 40
0.124999999999998
 40
0.2499999999999959
 40
0.2499999999999959
 40
0.3124999999999949
 40
0.3124999999999949
 40
0.3749999999999939
 40
0.3749999999999939
 40
0.4999999999999948
 40
0.4999999999999948
 40
0.6249999999999961
 40
0.6249999999999961
 40
0.7499999999999973
 40
0.7499999999999973
 40
0.8749999999999987
 40
0.8749999999999987
 40
1.0
 40
1.0
 40
1.0
 40
1.0
 10
199.5521180402672
 20
119.0756743842445
 30
0.0
 10
199.3531290841983
 20
119.1464194792704
 30
0.0
 10
199.1706654750608
 20
119.2425711505062
 30
0.0
 10
198.8379534764326
 20
119.4830813576044
 30
0.0
 10
198.6928014433902
 20
119.6245168203587
 30
0.0
 10
198.5133569164113
 20
119.8599703883668
 30
0.0
 10
198.4593997184911
 20
119.9432860985814
 30
0.0
 10
198.3672742550563
 20
120.1130834110877
 30
0.0
 10
198.3286074000194
 20
120.2000782091527
 30
0.0
 10
198.2346702955933
 20
120.4670922051346
 30
0.0
 10
198.2022074951821
 20
120.6538199597385
 30
0.0
 10
198.2020289638376
 20
121.0180239363306
 30
0.0
 10
198.2344176191799
 20
121.2006208497261
 30
0.0
 10
198.3591771043601
 20
121.5400696006725
 30
0.0
 10
198.4532919691728
 20
121.701912553903
 30
0.0
 10
198.6915050738405
 20
121.9882375455089
 30
0.0
 10
198.8382022997791
 20
122.116196206785
 30
0.0
 10
199.1689148706149
 20
122.3276150890502
 30
0.0
 10
199.3531314626973
 20
122.4120620492252
 30
0.0
 10
199.5521180402672
 20
122.4730998801163
 30
0.0
  0
LINE
  5
16B
330
1F
100
AcDbEntity
  8
0
  6
HIDDEN
 62
     7
370
     0
100
AcDbLine
 10
199.5521180403
 20
97.7113078712
 30
0.0
 11
199.5521180403
 21
119.0756743842
 31
0.0
  0
LINE
  5
16C
330
1F
100
AcDbEntity
  8
0
  6
HIDDEN
 62
     7
370
     0
100
AcDbLine
 10
199.5521180403
 20
119.0756743842
 30
0.0
 11
199.5521180403
 21
97.7113078712
 31
0.0
  0
SPLINE
  5
16D
330
1F
100
AcDbEntity
  8
0
  6
HIDDEN
 62
     7
370
     0
100
AcDbSpline
210
0.0
220
0.0
230
1.0
 70
    11
 71
     3
 72
    22
 73
    18
 74
     0
 42
0.00000001
 43
0.00000001
 40
0.0
 40
0.0
 40
0.0
 40
0.0
 40
0.125
 40
0.125
 40
0.2499999999999999
 40
0.2499999999999999
 40
0.3749999999999999
 40
0.3749999999999999
 40
0.4999999999999999
 40
0.4999999999999999
 40
0.6249999999999999
 40
0.6249999999999999
 40
0.7499999999999998
 40
0.7499999999999998
 40
0.8749999999999999
 40
0.8749999999999999
 40
1.0
 40
1.0
 40
1.0
 40
1.0
 10
201.1521180402672
 20
97.70610562990254
 30
0.0
 10
201.3385354326412
 20
97.69580337232698
 30
0.0
 10
201.5085171849068
 20
97.68306268237183
 30
0.0
 10
201.8165721394608
 20
97.65587969584428
 30
0.0
 10
201.9511565826688
 20
97.64171455281236
 30
0.0
 10
202.1710947307161
 20
97.61668637631401
 30
0.0
 10
202.2575007880115
 20
97.60572873944609
 30
0.0
 10
202.3722258577938
 20
97.59082003035445
 30
0.0
 10
202.4020561750857
 20
97.58670242690843
 30
0.0
 10
202.4021797077229
 20
97.58668569022933
 30
0.0
 10
202.3726636847495
 20
97.59076168606079
 30
0.0
 10
202.2578550160763
 20
97.6056841449487
 30
0.0
 10
202.1724165506548
 20
97.61652959517404
 30
0.0
 10
201.9516327089596
 20
97.64166668248164
 30
0.0
 10
201.8191905480538
 20
97.65563210844674
 30
0.0
 10
201.5091969347597
 20
97.68301906292511
 30
0.0
 10
201.3385328777103
 20
97.69580351352384
 30
0.0
 10
201.1521180402672
 20
97.70610562990252
 30
0.0
  0
LINE
  5
16E
330
1F
100
AcDbEntity
  8
0
  6
HIDDEN
 62
     7
370
     0
100
AcDbLine
 10
201.1521180403
 20
97.7061056299
 30
0.0
 11
201.1521180403
 21
119.1139714159
 31
0.0
  0
SPLINE
  5
16F
330
1F
100
AcDbEntity
  8
0
  6
HIDDEN
 62
     7
370
     0
100
AcDbSpline
210
0.0
220
0.0
230
1.0
 70
     8
 71
     3
 72
    22
 73
    18
 74
     0
 42
0.00000001
 43
0.00000001
 40
0.0
 40
0.0
 40
0.0
 40
0.0
 40
0.125
 40
0.125
 40
0.25
 40
0.25
 40
0.375
 40
0.375
 40
0.5
 40
0.5
 40
0.625
 40
0.625
 40
0.75
 40
0.75
 40
0.875
 40
0.875
 40
1.0
 40
1.0
 40
1.0
 40
1.0
 10
201.1521180402672
 20
122.4400050897667
 30
0.0
 10
201.3385354326411
 20
122.3736950733649
 30
0.0
 10
201.5085171849068
 20
122.2873798874834
 30
0.0
 10
201.8165721394608
 20
122.0741006370864
 30
0.0
 10
201.9511565826688
 20
121.9486574465746
 30
0.0
 10
202.1710947307161
 20
121.6691003191821
 30
0.0
 10
202.2575007880115
 20
121.5128779268986
 30
0.0
 10
202.3722258577938
 20
121.1865083902372
 30
0.0
 10
202.4020561750857
 20
121.0115731267984
 30
0.0
 10
202.4021797077229
 20
120.6629310473573
 30
0.0
 10
202.3726636847495
 20
120.4844634965349
 30
0.0
 10
202.2578550160763
 20
120.1421246497285
 30
0.0
 10
202.1724165506548
 20
119.9763817308473
 30
0.0
 10
201.9516327089596
 20
119.6701158364964
 30
0.0
 10
201.8191905480538
 20
119.5323939715475
 30
0.0
 10
201.5091969347598
 20
119.2899245072659
 30
0.0
 10
201.3385328777103
 20
119.1905826398272
 30
0.0
 10
201.1521180402672
 20
119.1139714158542
 30
0.0
  0
LINE
  5
170
330
1F
100
AcDbEntity
  8
0
  6
HIDDEN
 62
     7
370
     0
100
AcDbLine
 10
201.1521180403
 20
122.4400050898
 30
0.0
 11
201.1521180403
 21
128.5866940452
 31
0.0
  0
SPLINE
  5
171
330
1F
100
AcDbEntity
  8
0
  6
HIDDEN
 62
     7
370
     0
100
AcDbSpline
210
0.0
220
0.0
230
1.0
 70
    11
 71
     3
 72
    18
 73
    14
 74
     0
 42
0.00000001
 43
0.00000001
 40
0.0
 40
0.0
 40
0.0
 40
0.0
 40
0.25
 40
0.25
 40
0.5
 40
0.5
 40
0.625
 40
0.625
 40
0.75
 40
0.75
 40
0.875
 40
0.875
 40
1.0
 40
1.0
 40
1.0
 40
1.0
 10
206.5745571722042
 20
128.516521921369
 30
0.0
 10
206.4204237485352
 20
128.536940900918
 30
0.0
 10
206.2980651883466
 20
128.5547141397192
 30
0.0
 10
206.1288789016193
 20
128.579860660188
 30
0.0
 10
206.085565130003
 20
128.5866580858316
 30
0.0
 10
206.085216837403
 20
128.5867118118459
 30
0.0
 10
206.0962293125808
 20
128.5850056207833
 30
0.0
 10
206.1390999727211
 20
128.5784531765566
 30
0.0
 10
206.1709407161046
 20
128.573609717207
 30
0.0
 10
206.2551520127075
 20
128.5610916303271
 30
0.0
 10
206.3074717099894
 20
128.5534298339024
 30
0.0
 10
206.4284581053258
 20
128.5362770342921
 30
0.0
 10
206.4974405921251
 20
128.5267380174891
 30
0.0
 10
206.5745571722042
 20
128.516521921369
 30
0.0
  0
SPLINE
  5
172
330
1F
100
AcDbEntity
  8
0
  6
HIDDEN
 62
     7
370
     0
100
AcDbSpline
210
0.0
220
0.0
230
1.0
 70
     8
 71
     3
 72
    28
 73
    24
 74
     0
 42
0.00000001
 43
0.00000001
 40
0.0
 40
0.0
 40
0.0
 40
0.0
 40
0.1249999999999891
 40
0.1249999999999891
 40
0.1874999999999837
 40
0.1874999999999837
 40
0.2499999999999784
 40
0.2499999999999784
 40
0.3749999999999784
 40
0.3749999999999784
 40
0.4374999999999784
 40
0.4374999999999784
 40
0.4999999999999784
 40
0.4999999999999784
 40
0.6249999999999784
 40
0.6249999999999784
 40
0.7499999999999784
 40
0.7499999999999784
 40
0.8124999999999837
 40
0.8124999999999837
 40
0.8749999999999891
 40
0.8749999999999891
 40
1.0
 40
1.0
 40
1.0
 40
1.0
 10
206.5745571722043
 20
128.516521921369
 30
0.0
 10
206.7077418540597
 20
128.4929786045305
 30
0.0
 10
206.8705418905537
 20
128.4657912709335
 30
0.0
 10
207.1579504902005
 20
128.4238538770871
 30
0.0
 10
207.2618070065537
 20
128.4095948748702
 30
0.0
 10
207.4787553164641
 20
128.3822186306521
 30
0.0
 10
207.5922737823882
 20
128.3690260586639
 30
0.0
 10
207.9478488591353
 20
128.3319707744519
 30
0.0
 10
208.2085123096445
 20
128.3105212567759
 30
0.0
 10
208.6089562864059
 20
128.2887566876477
 30
0.0
 10
208.744605701451
 20
128.2831354262013
 30
0.0
 10
209.0203146849697
 20
128.2755196669962
 30
0.0
 10
209.161401723233
 20
128.2735420287525
 30
0.0
 10
209.5797851016891
 20
128.273507449398
 30
0.0
 10
209.8545773059504
 20
128.2811733154577
 30
0.0
 10
210.3957811159357
 20
128.3104612523381
 30
0.0
 10
210.6505812281488
 20
128.3314333626921
 30
0.0
 10
211.0083575648712
 20
128.3686174937401
 30
0.0
 10
211.1241277731518
 20
128.3820572722564
 30
0.0
 10
211.3411106085364
 20
128.4094192425766
 30
0.0
 10
211.4430946672422
 20
128.4234093875345
 30
0.0
 10
211.729863816485
 20
128.4651912362281
 30
0.0
 10
211.8964996336247
 20
128.4929795603629
 30
0.0
 10
212.0296789083302
 20
128.516521921369
 30
0.0
  0
SPLINE
  5
173
330
1F
100
AcDbEntity
  8
0
  6
HIDDEN
 62
     7
370
     0
100
AcDbSpline
210
0.0
220
0.0
230
1.0
 70
    11
 71
     3
 72
    18
 73
    14
 74
     0
 42
0.00000001
 43
0.00000001
 40
0.0
 40
0.0
 40
0.0
 40
0.0
 40
0.25
 40
0.25
 40
0.5
 40
0.5
 40
0.625
 40
0.625
 40
0.75
 40
0.75
 40
0.875
 40
0.875
 40
1.0
 40
1.0
 40
1.0
 40
1.0
 10
212.0296789083303
 20
128.516521921369
 30
0.0
 10
212.1838123319992
 20
128.536940900918
 30
0.0
 10
212.3061708921878
 20
128.5547141397192
 30
0.0
 10
212.4753571789151
 20
128.579860660188
 30
0.0
 10
212.5186709505314
 20
128.5866580858316
 30
0.0
 10
212.5190192431314
 20
128.5867118118459
 30
0.0
 10
212.5080067679536
 20
128.5850056207833
 30
0.0
 10
212.4651361078135
 20
128.5784531765566
 30
0.0
 10
212.4332953644299
 20
128.573609717207
 30
0.0
 10
212.3490840678269
 20
128.5610916303271
 30
0.0
 10
212.2967643705451
 20
128.5534298339024
 30
0.0
 10
212.1757779752087
 20
128.5362770342921
 30
0.0
 10
212.1067954884094
 20
128.5267380174891
 30
0.0
 10
212.0296789083302
 20
128.516521921369
 30
0.0
  0
SPLINE
  5
174
330
1F
100
AcDbEntity
  8
0
  6
HIDDEN
 62
     7
370
     0
100
AcDbSpline
210
0.0
220
0.0
230
1.0
 70
     8
 71
     3
 72
    28
 73
    24
 74
     0
 42
0.00000001
 43
0.00000001
 40
0.0
 40
0.0
 40
0.0
 40
0.0
 40
0.1249999999999891
 40
0.1249999999999891
 40
0.1874999999999837
 40
0.1874999999999837
 40
0.2499999999999784
 40
0.2499999999999784
 40
0.3749999999999784
 40
0.3749999999999784
 40
0.4374999999999784
 40
0.4374999999999784
 40
0.4999999999999784
 40
0.4999999999999784
 40
0.6249999999999784
 40
0.6249999999999784
 40
0.7499999999999784
 40
0.7499999999999784
 40
0.8124999999999837
 40
0.8124999999999837
 40
0.8749999999999891
 40
0.8749999999999891
 40
1.0
 40
1.0
 40
1.0
 40
1.0
 10
212.0296789083302
 20
128.516521921369
 30
0.0
 10
211.8964942264748
 20
128.4929786045305
 30
0.0
 10
211.7336941899808
 20
128.4657912709335
 30
0.0
 10
211.446285590334
 20
128.4238538770871
 30
0.0
 10
211.3424290739808
 20
128.4095948748702
 30
0.0
 10
211.1254807640703
 20
128.3822186306521
 30
0.0
 10
211.0119622981462
 20
128.3690260586639
 30
0.0
 10
210.6563872213992
 20
128.3319707744519
 30
0.0
 10
210.39572377089
 20
128.3105212567759
 30
0.0
 10
209.9952797941286
 20
128.2887566876477
 30
0.0
 10
209.8596303790834
 20
128.2831354262013
 30
0.0
 10
209.5839213955647
 20
128.2755196669962
 30
0.0
 10
209.4428343573016
 20
128.2735420287525
 30
0.0
 10
209.0244509788455
 20
128.273507449398
 30
0.0
 10
208.7496587745841
 20
128.2811733154577
 30
0.0
 10
208.2084549645987
 20
128.3104612523381
 30
0.0
 10
207.9536548523857
 20
128.3314333626921
 30
0.0
 10
207.5958785156633
 20
128.3686174937401
 30
0.0
 10
207.4801083073827
 20
128.3820572722564
 30
0.0
 10
207.2631254719981
 20
128.4094192425766
 30
0.0
 10
207.1611414132923
 20
128.4234093875345
 30
0.0
 10
206.8743722640495
 20
128.4651912362281
 30
0.0
 10
206.7077364469099
 20
128.4929795603629
 30
0.0
 10
206.5745571722043
 20
128.516521921369
 30
0.0
  0
SPLINE
  5
175
330
1F
100
AcDbEntity
  8
0
  6
HIDDEN
 62
     7
370
     0
100
AcDbSpline
210
0.0
220
0.0
230
1.0
 70
     8
 71
     3
 72
    16
 73
    12
 74
     0
 42
0.00000001
 43
0.00000001
 40
0.0
 40
0.0
 40
0.0
 40
0.0
 40
0.125
 40
0.125
 40
0.25
 40
0.25
 40
0.5
 40
0.5
 40
0.75
 40
0.75
 40
1.0
 40
1.0
 40
1.0
 40
1.0
 10
212.0296789083304
 20
104.0959240088992
 30
0.0
 10
212.1064571974572
 20
104.1830947232383
 30
0.0
 10
212.1764972626933
 20
104.2764451357837
 30
0.0
 10
212.2969229535296
 20
104.4689109970662
 30
0.0
 10
212.3481065278191
 20
104.5688283912431
 30
0.0
 10
212.4734355491426
 20
104.880428763862
 30
0.0
 10
212.5186092594302
 20
105.1075839203013
 30
0.0
 10
212.5191958741238
 20
105.5611665539175
 30
0.0
 10
212.4749175224945
 20
105.7949713533606
 30
0.0
 10
212.3075393764735
 20
106.2383796663744
 30
0.0
 10
212.1830248863532
 20
106.4532192209772
 30
0.0
 10
212.0296789083304
 20
106.6476362052552
 30
0.0
  0
SPLINE
  5
176
330
1F
100
AcDbEntity
  8
0
  6
HIDDEN
 62
     7
370
     0
100
AcDbSpline
210
0.0
220
0.0
230
1.0
 70
     8
 71
     3
 72
    28
 73
    24
 74
     0
 42
0.00000001
 43
0.00000001
 40
0.0
 40
0.0
 40
0.0
 40
0.0
 40
0.1250000000000113
 40
0.1250000000000113
 40
0.1875000000000128
 40
0.1875000000000128
 40
0.2500000000000143
 40
0.2500000000000143
 40
0.3750000000000067
 40
0.3750000000000067
 40
0.4375000000000089
 40
0.4375000000000089
 40
0.5000000000000111
 40
0.5000000000000111
 40
0.6250000000000031
 40
0.6250000000000031
 40
0.749999999999995
 40
0.749999999999995
 40
0.8124999999999962
 40
0.8124999999999962
 40
0.8749999999999974
 40
0.8749999999999974
 40
1.0
 40
1.0
 40
1.0
 40
1.0
 10
212.0296789083304
 20
106.6476362052552
 30
0.0
 10
211.8964942264751
 20
106.8729523184367
 30
0.0
 10
211.7336941899811
 20
107.0796123435722
 30
0.0
 10
211.4462855903341
 20
107.3607446517414
 30
0.0
 10
211.342429073981
 20
107.4500340388065
 30
0.0
 10
211.1254807640706
 20
107.6134292385404
 30
0.0
 10
211.0119622981464
 20
107.688100282408
 30
0.0
 10
210.6563872213994
 20
107.8908209092367
 30
0.0
 10
210.3957237708902
 20
107.9982826534004
 30
0.0
 10
209.9952797941287
 20
108.1051151425593
 30
0.0
 10
209.8596303790835
 20
108.1321268803981
 30
0.0
 10
209.5839213955648
 20
108.1685583353498
 30
0.0
 10
209.4428343573016
 20
108.1778996824521
 30
0.0
 10
209.0244509788454
 20
108.1780636799184
 30
0.0
 10
208.7496587745841
 20
108.1423161803129
 30
0.0
 10
208.2084549645987
 20
107.9985992223908
 30
0.0
 10
207.9536548523855
 20
107.8936363378998
 30
0.0
 10
207.5958785156631
 20
107.6903960673392
 30
0.0
 10
207.4801083073824
 20
107.6143584662517
 30
0.0
 10
207.2631254719979
 20
107.4511157267661
 30
0.0
 10
207.1611414132921
 20
107.3635759665346
 30
0.0
 10
206.8743722640494
 20
107.0839236961263
 30
0.0
 10
206.7077364469096
 20
106.8729431708534
 30
0.0
 10
206.5745571722041
 20
106.6476362052552
 30
0.0
  0
SPLINE
  5
177
330
1F
100
AcDbEntity
  8
0
  6
HIDDEN
 62
     7
370
     0
100
AcDbSpline
210
0.0
220
0.0
230
1.0
 70
     8
 71
     3
 72
    20
 73
    16
 74
     0
 42
0.00000001
 43
0.00000001
 40
0.0
 40
0.0
 40
0.0
 40
0.0
 40
0.125
 40
0.125
 40
0.25
 40
0.25
 40
0.375
 40
0.375
 40
0.5
 40
0.5
 40
0.625
 40
0.625
 40
0.75
 40
0.75
 40
1.0
 40
1.0
 40
1.0
 40
1.0
 10
206.5745571722041
 20
106.6476362052552
 30
0.0
 10
206.4979688947768
 20
106.550535113199
 30
0.0
 10
206.428964216044
 20
106.4492608011244
 30
0.0
 10
206.3073492517877
 20
106.2379097110888
 30
0.0
 10
206.2551677150686
 20
106.1281792676306
 30
0.0
 10
206.1716702610682
 20
105.9073494296438
 30
0.0
 10
206.1398031985134
 20
105.7953636582983
 30
0.0
 10
206.0966276045591
 20
105.5682474619768
 30
0.0
 10
206.0853956514625
 20
105.4519107822799
 30
0.0
 10
206.0852689291529
 20
105.2234669037907
 30
0.0
 10
206.096065640555
 20
105.1111717677886
 30
0.0
 10
206.1387716129106
 20
104.890281323102
 30
0.0
 10
206.171081646654
 20
104.7807903727945
 30
0.0
 10
206.2974983532239
 20
104.4649733654207
 30
0.0
 10
206.420330920848
 20
104.2710257551539
 30
0.0
 10
206.5745571722041
 20
104.0959240088992
 30
0.0
  0
SPLINE
  5
178
330
1F
100
AcDbEntity
  8
0
  6
HIDDEN
 62
     7
370
     0
100
AcDbSpline
210
0.0
220
0.0
230
1.0
 70
     8
 71
     3
 72
    28
 73
    24
 74
     0
 42
0.00000001
 43
0.00000001
 40
0.0
 40
0.0
 40
0.0
 40
0.0
 40
0.1250000000000202
 40
0.1250000000000202
 40
0.1875000000000264
 40
0.1875000000000264
 40
0.2500000000000326
 40
0.2500000000000326
 40
0.3750000000000341
 40
0.3750000000000341
 40
0.4375000000000286
 40
0.4375000000000286
 40
0.5000000000000232
 40
0.5000000000000232
 40
0.6250000000000123
 40
0.6250000000000123
 40
0.7500000000000014
 40
0.7500000000000014
 40
0.8125000000000013
 40
0.8125000000000013
 40
0.8750000000000012
 40
0.8750000000000012
 40
1.0
 40
1.0
 40
1.0
 40
1.0
 10
206.5745571722041
 20
104.0959240088993
 30
0.0
 10
206.7077418540594
 20
103.8941512125563
 30
0.0
 10
206.8705418905534
 20
103.7146785210178
 30
0.0
 10
207.1579504902002
 20
103.475483606695
 30
0.0
 10
207.2618070065535
 20
103.4004532218468
 30
0.0
 10
207.4787553164639
 20
103.2644342663309
 30
0.0
 10
207.592273782388
 20
103.2029557944515
 30
0.0
 10
207.9478488591351
 20
103.0372904518349
 30
0.0
 10
208.2085123096443
 20
102.9512782253472
 30
0.0
 10
208.6089562864057
 20
102.8662103053165
 30
0.0
 10
208.744605701451
 20
102.8448198289242
 30
0.0
 10
209.0203146849697
 20
102.8160041331775
 30
0.0
 10
209.1614017232328
 20
102.8086404243189
 30
0.0
 10
209.5797851016891
 20
102.8085110062072
 30
0.0
 10
209.8545773059505
 20
102.8365926397529
 30
0.0
 10
210.3957811159358
 20
102.9510216607947
 30
0.0
 10
210.650581228149
 20
103.0350124349316
 30
0.0
 10
211.0083575648713
 20
103.2010685744442
 30
0.0
 10
211.124127773152
 20
103.2636663970154
 30
0.0
 10
211.3411106085366
 20
103.3995471661809
 30
0.0
 10
211.4430946672424
 20
103.4730967814544
 30
0.0
 10
211.7298638164852
 20
103.710967203169
 30
0.0
 10
211.8964996336248
 20
103.8941594043072
 30
0.0
 10
212.0296789083304
 20
104.0959240088993
 30
0.0
  0
SPLINE
  5
179
330
1F
100
AcDbEntity
  8
0
  6
HIDDEN
 62
     7
370
     0
100
AcDbSpline
210
0.0
220
0.0
230
1.0
 70
     8
 71
     3
 72
    18
 73
    14
 74
     0
 42
0.00000001
 43
0.00000001
 40
0.0
 40
0.0
 40
0.0
 40
0.0
 40
0.1250000000000011
 40
0.1250000000000011
 40
0.2500000000000023
 40
0.2500000000000023
 40
0.500000000000005
 40
0.500000000000005
 40
0.7500000000000071
 40
0.7500000000000071
 40
0.8750000000000036
 40
0.8750000000000036
 40
1.0
 40
1.0
 40
1.0
 40
1.0
 10
206.5745571722041
 20
104.0959240088994
 30
0.0
 10
206.4980375792186
 20
104.1828010109443
 30
0.0
 10
206.4277823890226
 20
104.2763210428202
 30
0.0
 10
206.3067311356623
 20
104.4698958426381
 30
0.0
 10
206.2554992641574
 20
104.5701531337544
 30
0.0
 10
206.1303940898133
 20
104.8819287892004
 30
0.0
 10
206.085127142866
 20
105.1082004350058
 30
0.0
 10
206.0855383176564
 20
105.568392416603
 30
0.0
 10
206.1299065497432
 20
105.7971097469837
 30
0.0
 10
206.2555375303491
 20
106.1290494376531
 30
0.0
 10
206.3079580757475
 20
106.2390442267567
 30
0.0
 10
206.4291050464027
 20
106.4494286130353
 30
0.0
 10
206.4979503161742
 20
106.5505115586465
 30
0.0
 10
206.5745571722041
 20
106.6476362052555
 30
0.0
  0
SPLINE
  5
17A
330
1F
100
AcDbEntity
  8
0
  6
HIDDEN
 62
     7
370
     0
100
AcDbSpline
210
0.0
220
0.0
230
1.0
 70
     8
 71
     3
 72
    28
 73
    24
 74
     0
 42
0.00000001
 43
0.00000001
 40
0.0
 40
0.0
 40
0.0
 40
0.0
 40
0.1249999999999884
 40
0.1249999999999884
 40
0.187499999999987
 40
0.187499999999987
 40
0.2499999999999856
 40
0.2499999999999856
 40
0.3749999999999827
 40
0.3749999999999827
 40
0.4374999999999872
 40
0.4374999999999872
 40
0.4999999999999918
 40
0.4999999999999918
 40
0.6249999999999885
 40
0.6249999999999885
 40
0.749999999999985
 40
0.749999999999985
 40
0.8124999999999888
 40
0.8124999999999888
 40
0.8749999999999926
 40
0.8749999999999926
 40
1.0
 40
1.0
 40
1.0
 40
1.0
 10
206.5745571722041
 20
106.6476362052555
 30
0.0
 10
206.7077418540594
 20
106.872952318437
 30
0.0
 10
206.8705418905534
 20
107.0796123435725
 30
0.0
 10
207.1579504902004
 20
107.3607446517417
 30
0.0
 10
207.2618070065536
 20
107.4500340388068
 30
0.0
 10
207.4787553164639
 20
107.6134292385407
 30
0.0
 10
207.5922737823881
 20
107.6881002824083
 30
0.0
 10
207.9478488591352
 20
107.8908209092369
 30
0.0
 10
208.2085123096444
 20
107.9982826534006
 30
0.0
 10
208.6089562864058
 20
108.1051151425596
 30
0.0
 10
208.744605701451
 20
108.1321268803983
 30
0.0
 10
209.0203146849697
 20
108.16855833535
 30
0.0
 10
209.1614017232329
 20
108.1778996824523
 30
0.0
 10
209.5797851016891
 20
108.1780636799185
 30
0.0
 10
209.8545773059505
 20
108.1423161803131
 30
0.0
 10
210.3957811159359
 20
107.9985992223909
 30
0.0
 10
210.650581228149
 20
107.8936363379
 30
0.0
 10
211.0083575648713
 20
107.6903960673394
 30
0.0
 10
211.124127773152
 20
107.6143584662518
 30
0.0
 10
211.3411106085366
 20
107.4511157267663
 30
0.0
 10
211.4430946672423
 20
107.3635759665348
 30
0.0
 10
211.7298638164852
 20
107.0839236961266
 30
0.0
 10
211.8964996336248
 20
106.8729431708537
 30
0.0
 10
212.0296789083303
 20
106.6476362052555
 30
0.0
  0
SPLINE
  5
17B
330
1F
100
AcDbEntity
  8
0
  6
HIDDEN
 62
     7
370
     0
100
AcDbSpline
210
0.0
220
0.0
230
1.0
 70
     8
 71
     3
 72
    16
 73
    12
 74
     0
 42
0.00000001
 43
0.00000001
 40
0.0
 40
0.0
 40
0.0
 40
0.0
 40
0.1250000000000001
 40
0.1250000000000001
 40
0.2500000000000002
 40
0.2500000000000002
 40
0.4999999999999997
 40
0.4999999999999997
 40
0.7499999999999998
 40
0.7499999999999998
 40
1.0
 40
1.0
 40
1.0
 40
1.0
 10
212.0296789083304
 20
106.6476362052554
 30
0.0
 10
212.1056355028051
 20
106.5513359812508
 30
0.0
 10
212.1742694488507
 20
106.4507605652378
 30
0.0
 10
212.2955413034138
 20
106.2404857141364
 30
0.0
 10
212.3482352278964
 20
106.130109916948
 30
0.0
 10
212.4741571030278
 20
105.7978906001812
 30
0.0
 10
212.5185597461557
 20
105.5691061760178
 30
0.0
 10
212.5192444037164
 20
105.1096268875602
 30
0.0
 10
212.4759226657073
 20
104.8879134610422
 30
0.0
 10
212.3067255991879
 20
104.4646655330563
 30
0.0
 10
212.1846166253052
 20
104.2718335221273
 30
0.0
 10
212.0296789083304
 20
104.0959240088994
 30
0.0
  0
SPLINE
  5
17C
330
1F
100
AcDbEntity
  8
0
  6
HIDDEN
 62
     7
370
     0
100
AcDbSpline
210
0.0
220
0.0
230
1.0
 70
     8
 71
     3
 72
    28
 73
    24
 74
     0
 42
0.00000001
 43
0.00000001
 40
0.0
 40
0.0
 40
0.0
 40
0.0
 40
0.1249999999999943
 40
0.1249999999999943
 40
0.1874999999999953
 40
0.1874999999999953
 40
0.2499999999999964
 40
0.2499999999999964
 40
0.3749999999999984
 40
0.3749999999999984
 40
0.4374999999999935
 40
0.4374999999999935
 40
0.4999999999999886
 40
0.4999999999999886
 40
0.6249999999999911
 40
0.6249999999999911
 40
0.7499999999999936
 40
0.7499999999999936
 40
0.8124999999999951
 40
0.8124999999999951
 40
0.8749999999999966
 40
0.8749999999999966
 40
1.0
 40
1.0
 40
1.0
 40
1.0
 10
212.0296789083304
 20
104.0959240088994
 30
0.0
 10
211.8964942264751
 20
103.8941512125564
 30
0.0
 10
211.733694189981
 20
103.7146785210179
 30
0.0
 10
211.4462855903341
 20
103.4754836066951
 30
0.0
 10
211.3424290739809
 20
103.4004532218469
 30
0.0
 10
211.1254807640705
 20
103.264434266331
 30
0.0
 10
211.0119622981463
 20
103.2029557944516
 30
0.0
 10
210.6563872213992
 20
103.037290451835
 30
0.0
 10
210.39572377089
 20
102.9512782253474
 30
0.0
 10
209.9952797941286
 20
102.8662103053166
 30
0.0
 10
209.8596303790835
 20
102.8448198289243
 30
0.0
 10
209.5839213955647
 20
102.8160041331777
 30
0.0
 10
209.4428343573015
 20
102.8086404243191
 30
0.0
 10
209.0244509788453
 20
102.8085110062074
 30
0.0
 10
208.749658774584
 20
102.8365926397531
 30
0.0
 10
208.2084549645986
 20
102.9510216607949
 30
0.0
 10
207.9536548523855
 20
103.0350124349318
 30
0.0
 10
207.5958785156631
 20
103.2010685744443
 30
0.0
 10
207.4801083073824
 20
103.2636663970156
 30
0.0
 10
207.2631254719979
 20
103.399547166181
 30
0.0
 10
207.1611414132921
 20
103.4730967814546
 30
0.0
 10
206.8743722640493
 20
103.7109672031692
 30
0.0
 10
206.7077364469096
 20
103.8941594043073
 30
0.0
 10
206.5745571722041
 20
104.0959240088994
 30
0.0
  0
LINE
  5
17D
330
1F
100
AcDbEntity
  8
0
  6
HIDDEN
 62
     7
370
     0
100
AcDbLine
 10
237.5021180403
 20
121.3616940452
 30
0.0
 11
237.5021180403
 21
128.5866940452
 31
0.0
  0
LINE
  5
17E
330
1F
100
AcDbEntity
  8
0
  6
HIDDEN
 62
     7
370
     0
100
AcDbLine
 10
237.5021180403
 20
121.3616940452
 30
0.0
 11
233.2021180403
 21
121.3616940452
 31
0.0
  0
SPLINE
  5
17F
330
1F
100
AcDbEntity
  8
0
  6
HIDDEN
 62
     7
370
     0
100
AcDbSpline
210
0.0
220
0.0
230
1.0
 70
     8
 71
     3
 72
    10
 73
     6
 74
     0
 42
0.00000001
 43
0.00000001
 40
0.0
 40
0.0
 40
0.0
 40
0.0
 40
0.5
 40
0.5
 40
1.0
 40
1.0
 40
1.0
 40
1.0
 10
233.2021180402672
 20
121.3616940451746
 30
0.0
 10
233.0585694887106
 20
121.3616940451746
 30
0.0
 10
232.923988298508
 20
121.2969719364682
 30
0.0
 10
232.7474701111321
 20
121.1068842905622
 30
0.0
 10
232.7021180402672
 20
120.985420693131
 30
0.0
 10
232.7021180402672
 20
120.8616940451746
 30
0.0
  0
LINE
  5
180
330
1F
100
AcDbEntity
  8
0
  6
HIDDEN
 62
     7
370
     0
100
AcDbLine
 10
232.7021180403
 20
120.8616940452
 30
0.0
 11
232.7021180403
 21
105.3116940452
 31
0.0
  0
SPLINE
  5
181
330
1F
100
AcDbEntity
  8
0
  6
HIDDEN
 62
     7
370
     0
100
AcDbSpline
210
0.0
220
0.0
230
1.0
 70
     8
 71
     3
 72
    12
 73
     8
 74
     0
 42
0.00000001
 43
0.00000001
 40
0.0
 40
0.0
 40
0.0
 40
0.0
 40
0.2500000000000155
 40
0.2500000000000155
 40
0.5000000000000311
 40
0.5000000000000311
 40
1.0
 40
1.0
 40
1.0
 40
1.0
 10
232.7021180402672
 20
105.3116940451745
 30
0.0
 10
232.7021180402673
 20
105.2496976238826
 30
0.0
 10
232.7132584557261
 20
105.189831499123
 30
0.0
 10
232.757754275128
 20
105.0742598063647
 30
0.0
 10
232.7911430760659
 20
105.0196905788763
 30
0.0
 10
232.9225895308186
 20
104.8774940975393
 30
0.0
 10
233.0580484674315
 20
104.8116940451745
 30
0.0
 10
233.2021180402672
 20
104.8116940451745
 30
0.0
  0
LINE
  5
182
330
1F
100
AcDbEntity
  8
0
  6
HIDDEN
 62
     7
370
     0
100
AcDbLine
 10
233.2021180403
 20
104.8116940452
 30
0.0
 11
237.5021180403
 21
104.8116940452
 31
0.0
  0
LINE
  5
183
330
1F
100
AcDbEntity
  8
0
  6
HIDDEN
 62
     7
370
     0
100
AcDbLine
 10
237.5021180403
 20
104.8116940452
 30
0.0
 11
237.5021180403
 21
97.5866940452
 31
0.0
  0
LINE
  5
184
330
1F
100
AcDbEntity
  8
0
  6
HIDDEN
 62
     7
370
     0
100
AcDbLine
 10
201.1521180403
 20
119.1139714159
 30
0.0
 11
201.1521180403
 21
97.7061056299
 31
0.0
  0
LINE
  5
185
330
1F
100
AcDbEntity
  8
0
  6
HIDDEN
 62
     7
370
     0
100
AcDbLine
 10
233.2021180403
 20
121.3616940452
 30
0.0
 11
237.5021180403
 21
121.3616940452
 31
0.0
  0
LINE
  5
186
330
1F
100
AcDbEntity
  8
0
  6
HIDDEN
 62
     7
370
     0
100
AcDbLine
 10
237.5021180403
 20
104.8116940452
 30
0.0
 11
233.2021180403
 21
104.8116940452
 31
0.0
  0
SPLINE
  5
187
330
1F
100
AcDbEntity
  8
0
  6
HIDDEN
 62
     7
370
     0
100
AcDbSpline
210
0.0
220
0.0
230
1.0
 70
     8
 71
     3
 72
    12
 73
     8
 74
     0
 42
0.00000001
 43
0.00000001
 40
0.0
 40
0.0
 40
0.0
 40
0.0
 40
0.2500000000000155
 40
0.2500000000000155
 40
0.5000000000000311
 40
0.5000000000000311
 40
1.0
 40
1.0
 40
1.0
 40
1.0
 10
232.7021180402672
 20
120.8616940451746
 30
0.0
 10
232.7021180402673
 20
120.9236904664665
 30
0.0
 10
232.7132584557261
 20
120.9835565912261
 30
0.0
 10
232.757754275128
 20
121.0991282839845
 30
0.0
 10
232.7911430760659
 20
121.1536975114728
 30
0.0
 10
232.9225895308186
 20
121.2958939928098
 30
0.0
 10
233.0580484674315
 20
121.3616940451746
 30
0.0
 10
233.2021180402672
 20
121.3616940451746
 30
0.0
  0
SPLINE
  5
188
330
1F
100
AcDbEntity
  8
0
  6
HIDDEN
 62
     7
370
     0
100
AcDbSpline
210
0.0
220
0.0
230
1.0
 70
     8
 71
     3
 72
    10
 73
     6
 74
     0
 42
0.00000001
 43
0.00000001
 40
0.0
 40
0.0
 40
0.0
 40
0.0
 40
0.5
 40
0.5
 40
1.0
 40
1.0
 40
1.0
 40
1.0
 10
233.2021180402672
 20
104.8116940451745
 30
0.0
 10
233.0585694887106
 20
104.8116940451745
 30
0.0
 10
232.923988298508
 20
104.8764161538809
 30
0.0
 10
232.7474701111321
 20
105.0665037997869
 30
0.0
 10
232.7021180402672
 20
105.1879673972181
 30
0.0
 10
232.7021180402672
 20
105.3116940451745
 30
0.0
  0
LINE
  5
189
330
1F
100
AcDbEntity
  8
0
  6
HIDDEN
 62
     7
370
     0
100
AcDbLine
 10
232.7021180403
 20
105.3116940452
 30
0.0
 11
232.7021180403
 21
120.8616940452
 31
0.0
  0
ARC
  5
18A
330
1F
100
AcDbEntity
  8
0
  6
HIDDEN
 62
     7
370
     0
100
AcDbCircle
 10
209.3021180403
 20
104.753796598
 30
0.0
 40
3.320574761522423
100
AcDbArc
 50
34.7735812365
 51
145.2264187635
  0
ARC
  5
18B
330
1F
100
AcDbEntity
  8
0
  6
HIDDEN
 62
     7
370
     0
100
AcDbCircle
 10
209.3021180403
 20
105.9897636161
 30
0.0
 40
3.320574761522453
100
AcDbArc
 50
214.7735812365
 51
325.2264187635
  0
LINE
  5
18C
330
1F
100
AcDbEntity
  8
0
  6
HIDDEN
 62
     7
370
     0
100
AcDbLine
 10
237.5021180403
 20
104.8116940452
 30
0.0
 11
238.3021180403
 21
104.0116940452
 31
0.0
  0
LINE
  5
18D
330
1F
100
AcDbEntity
  8
0
  6
HIDDEN
 62
     7
370
     0
100
AcDbLine
 10
238.3021180403
 20
104.0116940452
 30
0.0
 11
238.3021180403
 21
97.157906594
 31
0.0
  0
LINE
  5
18E
330
1F
100
AcDbEntity
  8
0
  6
HIDDEN
 62
     7
370
     0
100
AcDbLine
 10
238.3021180403
 20
104.0116940452
 30
0.0
 11
237.5021180403
 21
104.8116940452
 31
0.0
  0
LINE
  5
18F
330
1F
100
AcDbEntity
  8
0
  6
HIDDEN
 62
     7
370
     0
100
AcDbLine
 10
238.3021180403
 20
122.1616940452
 30
0.0
 11
237.5021180403
 21
121.3616940452
 31
0.0
  0
LINE
  5
190
330
1F
100
AcDbEntity
  8
0
  6
HIDDEN
 62
     7
370
     0
100
AcDbLine
 10
238.3021180403
 20
122.1616940452
 30
0.0
 11
238.3021180403
 21
129.0154814964
 31
0.0
  0
LINE
  5
191
330
1F
100
AcDbEntity
  8
0
  6
HIDDEN
 62
     7
370
     0
100
AcDbLine
 10
237.5021180403
 20
121.3616940452
 30
0.0
 11
238.3021180403
 21
122.1616940452
 31
0.0
  0
SPLINE
  5
192
330
1F
100
AcDbEntity
  8
0
  6
HIDDEN
 62
     7
370
     0
100
AcDbSpline
210
0.0
220
0.0
230
1.0
 70
     8
 71
     3
 72
    10
 73
     6
 74
     0
 42
0.00000001
 43
0.00000001
 40
0.0
 40
0.0
 40
0.0
 40
0.0
 40
0.5
 40
0.5
 40
1.0
 40
1.0
 40
1.0
 40
1.0
 10
199.7521180402672
 20
122.8656285110494
 30
0.0
 10
199.9493674604125
 20
122.9086058553891
 30
0.0
 10
200.1495457443899
 20
122.9278203578385
 30
0.0
 10
200.5556616748785
 20
122.9200017990145
 30
0.0
 10
200.7578073668697
 20
122.8925108371238
 30
0.0
 10
200.9521180402672
 20
122.8416691689421
 30
0.0
  0
LINE
  5
193
330
1F
100
AcDbEntity
  8
0
  6
HIDDEN
 62
     7
370
     0
100
AcDbLine
 10
201.1521180403
 20
122.6792935477
 30
0.0
 11
201.1521180403
 21
129.0616940452
 31
0.0
  0
SPLINE
  5
194
330
1F
100
AcDbEntity
  8
0
  6
HIDDEN
 62
     7
370
     0
100
AcDbSpline
210
0.0
220
0.0
230
1.0
 70
     8
 71
     3
 72
    10
 73
     6
 74
     0
 42
0.00000001
 43
0.00000001
 40
0.0
 40
0.0
 40
0.0
 40
0.0
 40
0.5
 40
0.5
 40
1.0
 40
1.0
 40
1.0
 40
1.0
 10
200.9521180402672
 20
122.8416691689422
 30
0.0
 10
201.0034951500499
 20
122.8282262740047
 30
0.0
 10
201.0540672096932
 20
122.802825773815
 30
0.0
 10
201.1292340439632
 20
122.7413996092395
 30
0.0
 10
201.1521180402672
 20
122.7060219127881
 30
0.0
 10
201.1521180402672
 20
122.6792935476941
 30
0.0
  0
SPLINE
  5
195
330
1F
100
AcDbEntity
  8
0
  6
HIDDEN
 62
     7
370
     0
100
AcDbSpline
210
0.0
220
0.0
230
1.0
 70
     8
 71
     3
 72
    10
 73
     6
 74
     0
 42
0.00000001
 43
0.00000001
 40
0.0
 40
0.0
 40
0.0
 40
0.0
 40
0.5
 40
0.5
 40
1.0
 40
1.0
 40
1.0
 40
1.0
 10
199.5521180402672
 20
122.7124668565903
 30
0.0
 10
199.5521180402672
 20
122.7388675782315
 30
0.0
 10
199.5742937408493
 20
122.7727190189874
 30
0.0
 10
199.6495158197856
 20
122.8310264123807
 30
0.0
 10
199.700402591246
 20
122.8543605810419
 30
0.0
 10
199.7521180402672
 20
122.8656285110497
 30
0.0
  0
LINE
  5
196
330
1F
100
AcDbEntity
  8
0
  6
HIDDEN
 62
     7
370
     0
100
AcDbLine
 10
199.5521180403
 20
122.7124668566
 30
0.0
 11
199.5521180403
 21
129.0616940452
 31
0.0
  0
LINE
  5
197
330
1F
100
AcDbEntity
  8
0
  6
HIDDEN
 62
     7
370
     0
100
AcDbLine
 10
47.5521180403
 20
95.0966940452
 30
0.0
 11
47.5521180403
 21
92.2167562798
 31
0.0
  0
LINE
  5
198
330
1F
100
AcDbEntity
  8
0
  6
HIDDEN
 62
     7
370
     0
100
AcDbLine
 10
56.5021180403
 20
95.0966940452
 30
0.0
 11
56.5021180403
 21
91.122956514
 31
0.0
  0
LINE
  5
199
330
1F
100
AcDbEntity
  8
0
  6
HIDDEN
 62
     7
370
     0
100
AcDbLine
 10
46.4021180403
 20
95.0966940452
 30
0.0
 11
46.4021180403
 21
93.3960162987
 31
0.0
  0
LINE
  5
19A
330
1F
100
AcDbEntity
  8
0
  6
HIDDEN
 62
     7
370
     0
100
AcDbLine
 10
47.5521180403
 20
131.0766940452
 30
0.0
 11
47.5521180403
 21
133.9566318106
 31
0.0
  0
LINE
  5
19B
330
1F
100
AcDbEntity
  8
0
  6
HIDDEN
 62
     7
370
     0
100
AcDbLine
 10
46.4021180403
 20
131.0766940452
 30
0.0
 11
46.4021180403
 21
132.7773717917
 31
0.0
  0
LINE
  5
19C
330
1F
100
AcDbEntity
  8
0
  6
HIDDEN
 62
     7
370
     0
100
AcDbLine
 10
52.5021180403
 20
131.0766940452
 30
0.0
 11
52.5021180403
 21
134.9308017175
 31
0.0
  0
LINE
  5
19D
330
1F
100
AcDbEntity
  8
0
  6
HIDDEN
 62
     7
370
     0
100
AcDbLine
 10
97.1021180403
 20
122.5866940452
 30
0.0
 11
97.1021180403
 21
103.5866940452
 31
0.0
  0
LWPOLYLINE
  5
19E
330
1F
100
AcDbEntity
  8
0
  6
HIDDEN
 62
     7
370
     0
100
AcDbPolyline
 90
        2
 70
   128
 43
0.0
 10
97.1021180403
 20
103.5866940452
 10
97.1021180403
 20
103.5866940452
  0
LINE
  5
19F
330
1F
100
AcDbEntity
  8
0
  6
HIDDEN
 62
     7
370
     0
100
AcDbLine
 10
100.1021180403
 20
122.5866940452
 30
0.0
 11
100.1021180403
 21
103.5866940452
 31
0.0
  0
LWPOLYLINE
  5
1A0
330
1F
100
AcDbEntity
  8
0
  6
HIDDEN
 62
     7
370
     0
100
AcDbPolyline
 90
        2
 70
   128
 43
0.0
 10
100.1021180403
 20
103.5866940452
 10
100.1021180403
 20
103.5866940452
  0
LWPOLYLINE
  5
1A1
330
1F
100
AcDbEntity
  8
0
  6
HIDDEN
 62
     7
370
     0
100
AcDbPolyline
 90
        2
 70
   128
 43
0.0
 10
104.2521180403
 20
86.6866940452
 10
104.2521180403
 20
86.6866940452
  0
LINE
  5
1A2
330
1F
100
AcDbEntity
  8
0
  6
HIDDEN
 62
     7
370
     0
100
AcDbLine
 10
88.7521180403
 20
121.5866940452
 30
0.0
 11
88.7521180403
 21
104.5866940452
 31
0.0
  0
LINE
  5
1A3
330
1F
100
AcDbEntity
  8
0
  6
HIDDEN
 62
     7
370
     0
100
AcDbLine
 10
88.2521180403
 20
104.0866940452
 30
0.0
 11
88.2521180403
 21
122.0866940452
 31
0.0
  0
LINE
  5
1A4
330
1F
100
AcDbEntity
  8
0
  6
HIDDEN
 62
     7
370
     0
100
AcDbLine
 10
94.4897928426
 20
86.6866940452
 30
0.0
 11
91.2521180403
 21
86.6866940452
 31
0.0
  0
LINE
  5
1A5
330
1F
100
AcDbEntity
  8
0
  6
HIDDEN
 62
     7
370
     0
100
AcDbLine
 10
94.3921180403
 20
86.2822984168
 30
0.0
 11
94.3921180403
 21
85.5888568861
 31
0.0
  0
LINE
  5
1A6
330
1F
100
AcDbEntity
  8
0
  6
HIDDEN
 62
     7
370
     0
100
AcDbLine
 10
104.2521180403
 20
86.6866940452
 30
0.0
 11
98.1144432379
 21
86.6866940452
 31
0.0
  0
LINE
  5
1A7
330
1F
100
AcDbEntity
  8
0
  6
HIDDEN
 62
     7
370
     0
100
AcDbLine
 10
98.2121180403
 20
85.5888568861
 30
0.0
 11
98.2121180403
 21
86.2822984168
 31
0.0
  0
LINE
  5
1A8
330
1F
100
AcDbEntity
  8
0
  6
HIDDEN
 62
     7
370
     0
100
AcDbLine
 10
104.2521180403
 20
86.6866940452
 30
0.0
 11
104.2521180403
 21
83.5264166446
 31
0.0
  0
LINE
  5
1A9
330
1F
100
AcDbEntity
  8
0
  6
HIDDEN
 62
     7
370
     0
100
AcDbLine
 10
83.2521180403
 20
81.6025710623
 30
0.0
 11
83.2521180403
 21
86.6866940452
 31
0.0
  0
LINE
  5
1AA
330
1F
100
AcDbEntity
  8
0
  6
HIDDEN
 62
     7
370
     0
100
AcDbLine
 10
91.2521180403
 20
86.6866940452
 30
0.0
 11
83.2521180403
 21
86.6866940452
 31
0.0
  0
LINE
  5
1AB
330
1F
100
AcDbEntity
  8
0
  6
HIDDEN
 62
     7
370
     0
100
AcDbLine
 10
97.1021180403
 20
104.5866940452
 30
0.0
 11
97.1021180403
 21
121.5560726978
 31
0.0
  0
LWPOLYLINE
  5
1AC
330
1F
100
AcDbEntity
  8
0
  6
HIDDEN
 62
     7
370
     0
100
AcDbPolyline
 90
        2
 70
   128
 43
0.0
 10
104.2521180403
 20
139.4866940452
 10
104.2521180403
 20
139.4866940452
  0
LINE
  5
1AD
330
1F
100
AcDbEntity
  8
0
  6
HIDDEN
 62
     7
370
     0
100
AcDbLine
 10
94.786415572
 20
139.4866940452
 30
0.0
 11
91.2521180403
 21
139.4866940452
 31
0.0
  0
LINE
  5
1AE
330
1F
100
AcDbEntity
  8
0
  6
HIDDEN
 62
     7
370
     0
100
AcDbLine
 10
94.3921180403
 20
140.2063478962
 30
0.0
 11
94.3921180403
 21
140.8919282363
 31
0.0
  0
LINE
  5
1AF
330
1F
100
AcDbEntity
  8
0
  6
HIDDEN
 62
     7
370
     0
100
AcDbLine
 10
91.2521180403
 20
139.4866940452
 30
0.0
 11
83.2521180403
 21
139.4866940452
 31
0.0
  0
LINE
  5
1B0
330
1F
100
AcDbEntity
  8
0
  6
HIDDEN
 62
     7
370
     0
100
AcDbLine
 10
104.2521180403
 20
139.4866940452
 30
0.0
 11
97.8178205086
 21
139.4866940452
 31
0.0
  0
LINE
  5
1B1
330
1F
100
AcDbEntity
  8
0
  6
HIDDEN
 62
     7
370
     0
100
AcDbLine
 10
98.2121180403
 20
140.8919282363
 30
0.0
 11
98.2121180403
 21
140.2063478962
 31
0.0
  0
LINE
  5
1B2
330
1F
100
AcDbEntity
  8
0
  6
HIDDEN
 62
     7
370
     0
100
AcDbLine
 10
104.2521180403
 20
139.4866940452
 30
0.0
 11
104.2521180403
 21
142.9331343689
 31
0.0
  0
SPLINE
  5
1B3
330
1F
100
AcDbEntity
  8
0
  6
HIDDEN
 62
     7
370
     0
100
AcDbSpline
210
0.0
220
0.0
230
1.0
 70
     8
 71
     3
 72
    11
 73
     7
 74
     0
 42
0.00000001
 43
0.00000001
 40
0.0
 40
0.0
 40
0.0
 40
0.0
 40
0.0008203708524183
 40
0.0008203708524183
 40
0.0008203708524183
 40
0.0016409967870154
 40
0.0016409967870154
 40
0.0016409967870154
 40
0.0016409967870154
 10
47.55211804026722
 20
97.2346612945318
 30
0.0
 10
47.36095973996856
 20
97.19348226591266
 30
0.0
 10
47.16953266989639
 20
97.15472829368265
 30
0.0
 10
46.97788704637576
 20
97.11836053440412
 30
0.0
 10
46.78618164129531
 20
97.0819814306381
 30
0.0
 10
46.59424268923635
 20
97.04798717987053
 30
0.0
 10
46.40211804216554
 20
97.01633905447933
 30
0.0
  0
LINE
  5
1B4
330
1F
100
AcDbEntity
  8
0
  6
HIDDEN
 62
     7
370
     0
100
AcDbLine
 10
46.4021180403
 20
95.0966940452
 30
0.0
 11
46.4021180403
 21
97.0163390502
 31
0.0
  0
ELLIPSE
  5
1B5
330
1F
100
AcDbEntity
  8
0
  6
HIDDEN
 62
     7
370
     0
100
AcDbEllipse
 10
42.1596861717
 20
113.0866940452
 30
0.0
 11
20.19992453366627
 21
-1.421085471520200E-14
 31
0.0
210
0.0
220
0.0
230
1.0
 40
0.8164965809
 41
1.300566354718001
 42
1.359198697209605
  0
LINE
  5
1B6
330
1F
100
AcDbEntity
  8
0
  6
HIDDEN
 62
     7
370
     0
100
AcDbLine
 10
46.4021180403
 20
131.0766940452
 30
0.0
 11
46.4021180403
 21
129.2120100205
 31
0.0
  0
LINE
  5
1B7
330
1F
100
AcDbEntity
  8
0
  6
HIDDEN
 62
     7
370
     0
100
AcDbLine
 10
56.5021180403
 20
95.0966940452
 30
0.0
 11
56.5021180403
 21
96.7991804228
 31
0.0
  0
LINE
  5
1B8
330
1F
100
AcDbEntity
  8
0
  6
HIDDEN
 62
     7
370
     0
100
AcDbLine
 10
47.5521180403
 20
95.0966940452
 30
0.0
 11
47.5521180403
 21
97.2346612945
 31
0.0
  0
LINE
  5
1B9
330
1F
100
AcDbEntity
  8
0
  6
HIDDEN
 62
     7
370
     0
100
AcDbLine
 10
47.6331490536
 20
97.2852036091
 30
0.0
 11
47.5521180403
 21
97.2346612945
 31
0.0
  0
LINE
  5
1BA
330
1F
100
AcDbEntity
  8
0
  6
HIDDEN
 62
     7
370
     0
100
AcDbLine
 10
52.5021180403
 20
131.0766940452
 30
0.0
 11
52.5021180403
 21
129.3742076676
 31
0.0
  0
LINE
  5
1BB
330
1F
100
AcDbEntity
  8
0
  6
HIDDEN
 62
     7
370
     0
100
AcDbLine
 10
47.5521180403
 20
131.0766940452
 30
0.0
 11
47.5521180403
 21
128.9813184962
 31
0.0
  0
SPLINE
  5
1BC
330
1F
100
AcDbEntity
  8
0
  6
HIDDEN
 62
     7
370
     0
100
AcDbSpline
210
0.0
220
0.0
230
1.0
 70
     8
 71
     3
 72
     8
 73
     4
 74
     0
 42
0.00000001
 43
0.00000001
 40
0.0
 40
0.0
 40
0.0
 40
0.0
 40
1.0
 40
1.0
 40
1.0
 40
1.0
 10
47.55211804026722
 20
128.9813184962332
 30
0.0
 10
47.60212353921095
 20
128.950282722014
 30
0.0
 10
47.65212360987536
 20
128.9192380769865
 30
0.0
 10
47.70211804366048
 20
128.8881844812062
 30
0.0
  0
LINE
  5
1BD
330
1F
100
AcDbEntity
  8
0
  6
HIDDEN
 62
     7
370
     0
100
AcDbLine
 10
189.3021180403
 20
108.0366940452
 30
0.0
 11
189.3021180403
 21
118.1366940452
 31
0.0
  0
LINE
  5
1BE
330
1F
100
AcDbEntity
  8
0
  6
HIDDEN
 62
     7
370
     0
100
AcDbLine
 10
190.3021180403
 20
119.1366940452
 30
0.0
 11
190.3021180403
 21
107.0677346387
 31
0.0
  0
LINE
  5
1BF
330
1F
100
AcDbEntity
  8
0
  6
HIDDEN
 62
     7
370
     0
100
AcDbLine
 10
185.2021180403
 20
108.0366940452
 30
0.0
 11
185.2021180403
 21
118.1366940452
 31
0.0
  0
LINE
  5
1C0
330
1F
100
AcDbEntity
  8
0
  6
HIDDEN
 62
     7
370
     0
100
AcDbLine
 10
184.2106980189
 20
109.6866940452
 30
0.0
 11
184.2106980189
 21
116.4866940452
 31
0.0
  0
SPLINE
  5
1C1
330
1F
100
AcDbEntity
  8
0
  6
HIDDEN
 62
     7
370
     0
100
AcDbSpline
210
0.0
220
0.0
230
1.0
 70
    11
 71
     3
 72
    34
 73
    30
 74
     0
 42
0.00000001
 43
0.00000001
 40
0.0
 40
0.0
 40
0.0
 40
0.0
 40
0.0127738756396812
 40
0.0481305018940211
 40
0.0807425017001339
 40
0.1375890913710525
 40
0.188451873137017
 40
0.2226712138304916
 40
0.2626938373032548
 40
0.2986558359853891
 40
0.3315197765459317
 40
0.3878459719026776
 40
0.3881259547153122
 40
0.4440926113396312
 40
0.4768435653318362
 40
0.5126448960794101
 40
0.5530084671561439
 40
0.5873855940099065
 40
0.6380121006479541
 40
0.6949796268854774
 40
0.7275539945608034
 40
0.7628079420164631
 40
0.8028703494024223
 40
0.8370831563412279
 40
0.8877749825869113
 40
0.8880089190231699
 40
0.9388397946395655
 40
0.9729712758827783
 40
1.0
 40
1.0
 40
1.0
 40
1.0
 10
66.46212995263302
 20
90.01903218862189
 30
0.0
 10
66.5213236052345
 20
90.02512109242997
 30
0.0
 10
66.74435851562606
 20
90.04806338532002
 30
0.0
 10
67.26771096244029
 20
90.08470813713537
 30
0.0
 10
68.1404744209093
 20
90.11239216717246
 30
0.0
 10
69.25531239042641
 20
90.10183657030993
 30
0.0
 10
70.36837753679684
 20
89.98569154650843
 30
0.0
 10
71.26281969375927
 20
89.86410058752163
 30
0.0
 10
71.94665203235807
 20
89.74234267813338
 30
0.0
 10
72.48741131949139
 20
89.62598146256181
 30
0.0
 10
72.90080579199503
 20
89.53250888063799
 30
0.0
 10
73.12896801279976
 20
89.46587077930442
 30
0.0
 10
72.9745909072373
 20
89.507091205114
 30
0.0
 10
72.94771283295215
 20
89.51956757877956
 30
0.0
 10
72.49178888995412
 20
89.62514903696712
 30
0.0
 10
71.96785570799726
 20
89.73789751805428
 30
0.0
 10
71.28164881974715
 20
89.86099561299751
 30
0.0
 10
70.38853525545096
 20
89.98298700016795
 30
0.0
 10
69.2750989749936
 20
90.10073954086326
 30
0.0
 10
68.16434844868971
 20
90.11271012861907
 30
0.0
 10
67.27959593355268
 20
90.08565257925186
 30
0.0
 10
66.61240195734086
 20
90.03772050538178
 30
0.0
 10
66.07112213417884
 20
89.9814263123932
 30
0.0
 10
65.68356905202641
 20
89.93634618936291
 30
0.0
 10
65.4895419546933
 20
89.89746355029399
 30
0.0
 10
65.61576925346041
 20
89.91887035058971
 30
0.0
 10
65.64492828898379
 20
89.92879165948973
 30
0.0
 10
66.01650902718845
 20
89.97642148847375
 30
0.0
 10
66.32555311553972
 20
90.00597258051044
 30
0.0
 10
66.46212995263302
 20
90.01903218862189
 30
0.0
  0
SPLINE
  5
1C2
330
1F
100
AcDbEntity
  8
0
  6
HIDDEN
 62
     7
370
     0
100
AcDbSpline
210
0.0
220
0.0
230
1.0
 70
     8
 71
     3
 72
    38
 73
    34
 74
     0
 42
0.00000001
 43
0.00000001
 40
-0.0939221400677877
 40
-0.0657752597750423
 40
-0.034473949600457
 40
0.0
 40
0.0323124298456333
 40
0.0609695982542196
 40
0.0859698687800294
 40
0.1073131755923115
 40
0.1250019290169791
 40
0.1562358721968102
 40
0.1978507372981445
 40
0.2498168793248508
 40
0.2782629480316769
 40
0.3049884159847109
 40
0.3300042168928101
 40
0.3533239044427756
 40
0.3749644360934065
 40
0.4060267838303385
 40
0.4476555975990678
 40
0.4998320869201315
 40
0.5286685248938784
 40
0.5555536435549433
 40
0.5805015705752576
 40
0.6035302879123582
 40
0.6246629693429052
 40
0.6685312637098664
 40
0.7183269153555409
 40
0.7652375706113097
 40
0.791571204445378
 40
0.8122937035710365
 40
0.861565662963908
 40
0.9060778599322123
 40
0.9342247402249577
 40
0.965526050399543
 40
1.0
 40
1.032312429845633
 40
1.06096959825422
 40
1.085969868780029
 10
67.24238320444412
 20
136.0896980711998
 30
0.0
 10
66.63831498595205
 20
136.1342315764168
 30
0.0
 10
66.1629999231214
 20
136.1823069626504
 30
0.0
 10
65.84340109712362
 20
136.2184697019156
 30
0.0
 10
65.65640669139711
 20
136.2448598361041
 30
0.0
 10
65.56810103183057
 20
136.2609294459014
 30
0.0
 10
65.53868753595609
 20
136.2687531311526
 30
0.0
 10
65.61081960602385
 20
136.2505856325704
 30
0.0
 10
65.93193160821266
 20
136.2059790526069
 30
0.0
 10
66.50395909843411
 20
136.1452405239353
 30
0.0
 10
67.15449144620644
 20
136.0958963609139
 30
0.0
 10
67.70436757495995
 20
136.0735339004337
 30
0.0
 10
68.2598054407399
 20
136.0650516905291
 30
0.0
 10
68.8005809883663
 20
136.0715027766781
 30
0.0
 10
69.3985108831389
 20
136.0949811532817
 30
0.0
 10
70.13817674028228
 20
136.1619010241221
 30
0.0
 10
71.07022637355902
 20
136.2780024580568
 30
0.0
 10
71.85956310725327
 20
136.413317342645
 30
0.0
 10
72.39849279510302
 20
136.5284291667091
 30
0.0
 10
72.71259713499953
 20
136.5982032432588
 30
0.0
 10
72.91787750336319
 20
136.6487633287547
 30
0.0
 10
73.02894748945134
 20
136.6794414686627
 30
0.0
 10
73.07521899125383
 20
136.6941684859237
 30
0.0
 10
72.9492541229093
 20
136.6563088923396
 30
0.0
 10
72.47900859403751
 20
136.5458231079084
 30
0.0
 10
71.82581063042171
 20
136.4061188895271
 30
0.0
 10
71.2217916748982
 20
136.3029922833831
 30
0.0
 10
70.54745362525479
 20
136.2035562576131
 30
0.0
 10
69.66210414230308
 20
136.1100859233459
 30
0.0
 10
68.69262525168858
 20
136.06307741727
 30
0.0
 10
67.9042896744203
 20
136.0667616323681
 30
0.0
 10
67.24238320444412
 20
136.0896980711998
 30
0.0
 10
66.63831498595205
 20
136.1342315764168
 30
0.0
 10
66.1629999231214
 20
136.1823069626504
 30
0.0
  0
LINE
  5
1C3
330
1F
100
AcDbEntity
  8
0
  6
HIDDEN
 62
     7
370
     0
100
AcDbLine
 10
100.1021180403
 20
109.6866940452
 30
0.0
 11
100.1021180403
 21
116.4550262617
 31
0.0
  0
LINE
  5
1C4
330
1F
100
AcDbEntity
  8
0
  6
HIDDEN
 62
     7
370
     0
100
AcDbLine
 10
206.0021180403
 20
128.6366940452
 30
0.0
 11
212.5713816622
 21
128.6366940452
 31
0.0
  0
LINE
  5
1C5
330
1F
100
AcDbEntity
  8
0
  6
HIDDEN
 62
     7
370
     0
100
AcDbLine
 10
206.5745571722
 20
128.5165219214
 30
0.0
 11
212.0296789083
 21
128.5165219214
 31
0.0
  0
LINE
  5
1C6
330
1F
100
AcDbEntity
  8
0
  6
HIDDEN
 62
     7
370
     0
100
AcDbLine
 10
199.5521180403
 20
97.7113078712
 30
0.0
 11
199.5521180403
 21
97.2325739182
 31
0.0
  0
SPLINE
  5
1C7
330
1F
100
AcDbEntity
  8
0
  6
HIDDEN
 62
     7
370
     0
100
AcDbSpline
210
0.0
220
0.0
230
1.0
 70
     8
 71
     3
 72
    10
 73
     6
 74
     0
 42
0.00000001
 43
0.00000001
 40
0.0
 40
0.0
 40
0.0
 40
0.0
 40
0.5
 40
0.5
 40
1.0
 40
1.0
 40
1.0
 40
1.0
 10
199.5521180402672
 20
97.23257391821701
 30
0.0
 10
199.5521180402672
 20
97.17977247493454
 30
0.0
 10
199.5742937408493
 20
97.12720517341042
 30
0.0
 10
199.6495158197856
 20
97.05593167410673
 30
0.0
 10
199.700402591246
 20
97.03739452352778
 30
0.0
 10
199.7521180402672
 20
97.03916697711772
 30
0.0
  0
SPLINE
  5
1C8
330
1F
100
AcDbEntity
  8
0
  6
HIDDEN
 62
     7
370
     0
100
AcDbSpline
210
0.0
220
0.0
230
1.0
 70
     8
 71
     3
 72
    10
 73
     6
 74
     0
 42
0.00000001
 43
0.00000001
 40
0.0
 40
0.0
 40
0.0
 40
0.0
 40
0.5
 40
0.5
 40
1.0
 40
1.0
 40
1.0
 40
1.0
 10
199.7521180402672
 20
97.03916697711823
 30
0.0
 10
199.9493674604125
 20
97.04592734465773
 30
0.0
 10
200.1495457443899
 20
97.04915460869022
 30
0.0
 10
200.5556616748785
 20
97.04787621947516
 30
0.0
 10
200.7578073668697
 20
97.0432971779154
 30
0.0
 10
200.9521180402672
 20
97.0354285187433
 30
0.0
  0
SPLINE
  5
1C9
330
1F
100
AcDbEntity
  8
0
  6
HIDDEN
 62
     7
370
     0
100
AcDbSpline
210
0.0
220
0.0
230
1.0
 70
     8
 71
     3
 72
    10
 73
     6
 74
     0
 42
0.00000001
 43
0.00000001
 40
0.0
 40
0.0
 40
0.0
 40
0.0
 40
0.4999999999999998
 40
0.4999999999999998
 40
1.0
 40
1.0
 40
1.0
 40
1.0
 10
200.9521180402672
 20
97.03542851874329
 30
0.0
 10
201.0034951500498
 20
97.03334798987136
 30
0.0
 10
201.0540672096931
 20
97.05128979446363
 30
0.0
 10
201.1292340439632
 20
97.12131827552254
 30
0.0
 10
201.1521180402672
 20
97.17407198386012
 30
0.0
 10
201.1521180402672
 20
97.22752871404819
 30
0.0
  0
LINE
  5
1CA
330
1F
100
AcDbEntity
  8
0
  6
HIDDEN
 62
     7
370
     0
100
AcDbLine
 10
201.1521180403
 20
97.227528714
 30
0.0
 11
201.1521180403
 21
97.7061056299
 31
0.0
  0
LINE
  5
1CB
330
1F
100
AcDbEntity
  8
0
  6
HIDDEN
 62
     7
370
     0
100
AcDbLine
 10
199.5521180403
 20
97.2325739182
 30
0.0
 11
199.5521180403
 21
97.7113078712
 31
0.0
  0
LINE
  5
1CC
330
1F
100
AcDbEntity
  8
0
  6
HIDDEN
 62
     7
370
     0
100
AcDbLine
 10
201.1521180403
 20
97.7061056299
 30
0.0
 11
201.1521180403
 21
97.227528714
 31
0.0
  0
SPLINE
  5
1CD
330
1F
100
AcDbEntity
  8
0
  6
HIDDEN
 62
     7
370
     0
100
AcDbSpline
210
0.0
220
0.0
230
1.0
 70
     8
 71
     3
 72
    10
 73
     6
 74
     0
 42
0.00000001
 43
0.00000001
 40
0.0
 40
0.0
 40
0.0
 40
0.0
 40
0.5
 40
0.5
 40
1.0
 40
1.0
 40
1.0
 40
1.0
 10
200.9521180402672
 20
97.0354285187433
 30
0.0
 10
200.7578116568038
 20
97.04329700419345
 30
0.0
 10
200.5590993028067
 20
97.04782140466071
 30
0.0
 10
200.1529995274846
 20
97.04918699014317
 30
0.0
 10
199.9493701085336
 20
97.04592743541728
 30
0.0
 10
199.7521180402672
 20
97.03916697711823
 30
0.0
  0
LWPOLYLINE
  5
1CE
330
1F
100
AcDbEntity
  8
0
  6
HIDDEN
 62
     7
370
     0
100
AcDbPolyline
 90
        2
 70
   128
 43
0.0
 10
83.2521180403
 20
86.6866940452
 10
83.2521180403
 20
86.6866940452
  0
LINE
  5
1CF
330
1F
100
AcDbEntity
  8
0
  6
HIDDEN
 62
     7
370
     0
100
AcDbLine
 10
83.2521180403
 20
81.6025710623
 30
0.0
 11
83.2521180403
 21
86.6866940452
 31
0.0
  0
LINE
  5
1D0
330
1F
100
AcDbEntity
  8
0
  6
HIDDEN
 62
     7
370
     0
100
AcDbLine
 10
83.2521180403
 20
86.6866940452
 30
0.0
 11
91.2521180403
 21
86.6866940452
 31
0.0
  0
LINE
  5
1D1
330
1F
100
AcDbEntity
  8
0
  6
HIDDEN
 62
     7
370
     0
100
AcDbLine
 10
212.0296789083
 20
128.5165219214
 30
0.0
 11
206.5745571722
 21
128.5165219214
 31
0.0
  0
SPLINE
  5
1D2
330
1F
100
AcDbEntity
  8
0
  6
HIDDEN
 62
     7
370
     0
100
AcDbSpline
210
0.0
220
0.0
230
1.0
 70
     8
 71
     3
 72
    10
 73
     6
 74
     0
 42
0.00000001
 43
0.00000001
 40
0.0
 40
0.0
 40
0.0
 40
0.0
 40
0.5
 40
0.5
 40
1.0
 40
1.0
 40
1.0
 40
1.0
 10
200.9521180402672
 20
119.3829844478379
 30
0.0
 10
200.7578116568038
 20
119.3242754166735
 30
0.0
 10
200.5590993028067
 20
119.2925943653591
 30
0.0
 10
200.1529995274846
 20
119.282876558329
 30
0.0
 10
199.9493701085336
 20
119.3055482677358
 30
0.0
 10
199.7521180402672
 20
119.3552866473558
 30
0.0
  0
SPLINE
  5
1D3
330
1F
100
AcDbEntity
  8
0
  6
HIDDEN
 62
     7
370
     0
100
AcDbSpline
210
0.0
220
0.0
230
1.0
 70
     8
 71
     3
 72
    10
 73
     6
 74
     0
 42
0.00000001
 43
0.00000001
 40
0.0
 40
0.0
 40
0.0
 40
0.0
 40
0.5
 40
0.5
 40
1.0
 40
1.0
 40
1.0
 40
1.0
 10
201.1521180402672
 20
119.3532598737807
 30
0.0
 10
201.1521180402672
 20
119.3798707944171
 30
0.0
 10
201.1294668865895
 20
119.3973184373388
 30
0.0
 10
201.0539953756462
 20
119.4059939135328
 30
0.0
 10
201.0034273942172
 20
119.3984873994467
 30
0.0
 10
200.9521180402672
 20
119.3829844478381
 30
0.0
  0
LINE
  5
1D4
330
1F
100
AcDbEntity
  8
0
  6
HIDDEN
 62
     7
370
     0
100
AcDbLine
 10
201.1521180403
 20
97.227528714
 30
0.0
 11
201.1521180403
 21
119.3532598738
 31
0.0
  0
LINE
  5
1D5
330
1F
100
AcDbEntity
  8
0
  6
HIDDEN
 62
     7
370
     0
100
AcDbLine
 10
199.5521180403
 20
97.2325739182
 30
0.0
 11
199.5521180403
 21
119.3150413607
 31
0.0
  0
SPLINE
  5
1D6
330
1F
100
AcDbEntity
  8
0
  6
HIDDEN
 62
     7
370
     0
100
AcDbSpline
210
0.0
220
0.0
230
1.0
 70
     8
 71
     3
 72
    10
 73
     6
 74
     0
 42
0.00000001
 43
0.00000001
 40
0.0
 40
0.0
 40
0.0
 40
0.0
 40
0.5
 40
0.5
 40
1.0
 40
1.0
 40
1.0
 40
1.0
 10
199.7521180402672
 20
119.3552866473558
 30
0.0
 10
199.7003432179742
 20
119.3683420023064
 30
0.0
 10
199.6493736252585
 20
119.3730823904959
 30
0.0
 10
199.5745786664872
 20
119.3602241716701
 30
0.0
 10
199.5521180402671
 20
119.3415747699645
 30
0.0
 10
199.5521180402672
 20
119.3150413607168
 30
0.0
  0
LINE
  5
1D7
330
1F
100
AcDbEntity
  8
0
  6
HIDDEN
 62
     7
370
     0
100
AcDbLine
 10
52.5021180403
 20
131.0766940452
 30
0.0
 11
52.5021180403
 21
129.3742076676
 31
0.0
  0
LINE
  5
1D8
330
1F
100
AcDbEntity
  8
0
  6
HIDDEN
 62
     7
370
     0
100
AcDbLine
 10
56.5021180403
 20
95.0966940452
 30
0.0
 11
56.5021180403
 21
96.7991804228
 31
0.0
  0
LINE
  5
1D9
330
1F
100
AcDbEntity
  8
0
  6
HIDDEN
 62
     7
370
     0
100
AcDbLine
 10
52.5021180403
 20
131.0766940452
 30
0.0
 11
52.5021180403
 21
134.9308017175
 31
0.0
  0
LINE
  5
1DA
330
1F
100
AcDbEntity
  8
0
  6
HIDDEN
 62
     7
370
     0
100
AcDbLine
 10
56.5021180403
 20
95.0966940452
 30
0.0
 11
56.5021180403
 21
91.122956514
 31
0.0
  0
LWPOLYLINE
  5
1DB
330
1F
100
AcDbEntity
  8
0
  6
HIDDEN
 62
     7
370
     0
100
AcDbPolyline
 90
        2
 70
   128
 43
0.0
 10
104.2521180403
 20
139.4866940452
 10
104.2521180403
 20
139.4866940452
  0
LWPOLYLINE
  5
1DC
330
1F
100
AcDbEntity
  8
0
  6
HIDDEN
 62
     7
370
     0
100
AcDbPolyline
 90
        2
 70
   128
 43
0.0
 10
104.2521180403
 20
86.6866940452
 10
104.2521180403
 20
86.6866940452
  0
SPLINE
  5
1DD
330
1F
100
AcDbEntity
  8
0
  6
HIDDEN
 62
     7
370
     0
100
AcDbSpline
210
0.0
220
0.0
230
1.0
 70
     8
 71
     3
 72
     8
 73
     4
 74
     0
 42
0.00000001
 43
0.00000001
 40
0.0
 40
0.0
 40
0.0
 40
0.0
 40
0.000159097695343
 40
0.000159097695343
 40
0.000159097695343
 40
0.000159097695343
 10
47.68728604948524
 20
97.28520360914287
 30
0.0
 10
47.6422345789809
 20
97.2572247248191
 30
0.0
 10
47.5971785405661
 20
97.22925319444403
 30
0.0
 10
47.55211804026722
 20
97.2012888550915
 30
0.0
  0
SPLINE
  5
1DE
330
1F
100
AcDbEntity
  8
0
  6
HIDDEN
 62
     7
370
     0
100
AcDbSpline
210
0.0
220
0.0
230
1.0
 70
     8
 71
     3
 72
    11
 73
     7
 74
     0
 42
0.00000001
 43
0.00000001
 40
0.0
 40
0.0
 40
0.0
 40
0.0
 40
0.0008212909311456
 40
0.0008212909311456
 40
0.0008212909311456
 40
0.001642825724306
 40
0.001642825724306
 40
0.001642825724306
 40
0.001642825724306
 10
47.55211804026724
 20
97.2012888550915
 30
0.0
 10
47.36097301878505
 20
97.15800266623894
 30
0.0
 10
47.16955468310857
 20
97.11706615660168
 30
0.0
 10
46.97790860844743
 20
97.07846438521509
 30
0.0
 10
46.78620552690582
 20
97.039851131378
 30
0.0
 10
46.59426040362032
 20
97.003570922092
 30
0.0
 10
46.40211804026714
 20
96.96960401574047
 30
0.0
  0
SPLINE
  5
1DF
330
1F
100
AcDbEntity
  8
0
  6
HIDDEN
 62
     7
370
     0
100
AcDbSpline
210
0.0
220
0.0
230
1.0
 70
    24
 71
     3
 72
     9
 73
     5
 74
     0
 42
0.00000001
 43
0.00000001
 40
0.0
 40
0.0
 40
0.0
 40
0.0
 40
0.1866666666666668
 40
0.2671975398178015
 40
0.2671975398178015
 40
0.2671975398178015
 40
0.2671975398178015
 10
46.40211804026715
 20
98.82705950313975
 30
0.0
 10
46.40211804026717
 20
98.2928104644121
 30
0.0
 10
46.40211804026717
 20
97.63384851997101
 30
0.0
 10
46.40211804026715
 20
97.11425939311394
 30
0.0
 10
46.40211804026715
 20
96.96960401574047
 30
0.0
  0
SPLINE
  5
1E0
330
1F
100
AcDbEntity
  8
0
  6
HIDDEN
 62
     7
370
     0
100
AcDbSpline
210
0.0
220
0.0
230
1.0
 70
     8
 71
     3
 72
     8
 73
     4
 74
     0
 42
0.00000001
 43
0.00000001
 40
0.0
 40
0.0
 40
0.0
 40
0.0
 40
1.0
 40
1.0
 40
1.0
 40
1.0
 10
47.55211804026722
 20
128.9813184962332
 30
0.0
 10
47.60212353921095
 20
128.950282722014
 30
0.0
 10
47.65212360987536
 20
128.9192380769865
 30
0.0
 10
47.70211804366048
 20
128.8881844812062
 30
0.0
  0
LINE
  5
1E1
330
1F
100
AcDbEntity
  8
0
  6
HIDDEN
 62
     7
370
     0
100
AcDbLine
 10
47.5521180403
 20
131.0766940452
 30
0.0
 11
47.5521180403
 21
128.9813184962
 31
0.0
  0
ELLIPSE
  5
1E2
330
1F
100
AcDbEntity
  8
0
  6
HIDDEN
 62
     7
370
     0
100
AcDbEllipse
 10
42.1596861717
 20
113.0866940452
 30
0.0
 11
20.19992453366627
 21
-1.421085471520200E-14
 31
0.0
210
0.0
220
0.0
230
1.0
 40
0.8164965809
 41
1.300566354718001
 42
1.359198697209605
  0
LINE
  5
1E3
330
1F
100
AcDbEntity
  8
0
  6
HIDDEN
 62
     7
370
     0
100
AcDbLine
 10
46.4021180403
 20
131.0766940452
 30
0.0
 11
46.4021180403
 21
129.2120100205
 31
0.0
  0
SPLINE
  5
1E4
330
1F
100
AcDbEntity
  8
0
  6
HIDDEN
 62
     7
370
     0
100
AcDbSpline
210
0.0
220
0.0
230
1.0
 70
     8
 71
     3
 72
    10
 73
     6
 74
     0
 42
0.00000001
 43
0.00000001
 40
0.0
 40
0.0
 40
0.0
 40
0.0
 40
0.5
 40
0.5
 40
1.0
 40
1.0
 40
1.0
 40
1.0
 10
47.54207310984901
 20
133.9466479374622
 30
0.0
 10
47.47451385493076
 20
133.8789565446524
 30
0.0
 10
47.41087719959427
 20
133.8042493798988
 30
0.0
 10
47.30065644502242
 20
133.6452832474722
 30
0.0
 10
47.25384015179981
 20
133.5609279814641
 30
0.0
 10
47.22627168637174
 20
133.4768133787724
 30
0.0
  0
LINE
  5
1E5
330
1F
100
AcDbEntity
  8
0
  6
HIDDEN
 62
     7
370
     0
100
AcDbLine
 10
47.5521180403
 20
131.0766940452
 30
0.0
 11
47.5521180403
 21
133.9566318106
 31
0.0
  0
LINE
  5
1E6
330
1F
100
AcDbEntity
  8
0
  6
HIDDEN
 62
     7
370
     0
100
AcDbLine
 10
46.4021180403
 20
131.0766940452
 30
0.0
 11
46.4021180403
 21
132.7773717917
 31
0.0
  0
SPLINE
  5
1E7
330
1F
100
AcDbEntity
  8
0
  6
HIDDEN
 62
     7
370
     0
100
AcDbSpline
210
0.0
220
0.0
230
1.0
 70
     8
 71
     3
 72
    10
 73
     6
 74
     0
 42
0.00000001
 43
0.00000001
 40
0.0
 40
0.0
 40
0.0
 40
0.0
 40
0.5
 40
0.5
 40
1.0
 40
1.0
 40
1.0
 40
1.0
 10
46.46478141499063
 20
132.7612465899552
 30
0.0
 10
46.45587712588188
 20
132.8069881091684
 30
0.0
 10
46.4393617456889
 20
132.8241789486374
 30
0.0
 10
46.41225379962729
 20
132.8238556717017
 30
0.0
 10
46.40211804026723
 20
132.8059781294053
 30
0.0
 10
46.40211804026723
 20
132.7773717916527
 30
0.0
  0
LINE
  5
1E8
330
1F
100
AcDbEntity
  8
0
  6
HIDDEN
 62
     7
370
     0
100
AcDbLine
 10
46.4021180403
 20
129.2120100205
 30
0.0
 11
46.4021180403
 21
127.3463285873
 31
0.0
  0
LINE
  5
1E9
330
1F
100
AcDbEntity
  8
0
  6
HIDDEN
 62
     7
370
     0
100
AcDbLine
 10
46.4021180403
 20
95.0966940452
 30
0.0
 11
46.4021180403
 21
96.9696040157
 31
0.0
  0
LINE
  5
1EA
330
1F
100
AcDbEntity
  8
0
  6
HIDDEN
 62
     7
370
     0
100
AcDbLine
 10
47.5521180403
 20
95.0966940452
 30
0.0
 11
47.5521180403
 21
97.2012888551
 31
0.0
  0
SPLINE
  5
1EB
330
1F
100
AcDbEntity
  8
0
  6
HIDDEN
 62
     7
370
     0
100
AcDbSpline
210
0.0
220
0.0
230
1.0
 70
     8
 71
     3
 72
    10
 73
     6
 74
     0
 42
0.00000001
 43
0.00000001
 40
0.0
 40
0.0
 40
0.0
 40
0.0
 40
0.5
 40
0.5
 40
1.0
 40
1.0
 40
1.0
 40
1.0
 10
47.22627168637178
 20
92.69657471157656
 30
0.0
 10
47.25374910112549
 20
92.6127379151094
 30
0.0
 10
47.30045773141435
 20
92.528427427521
 30
0.0
 10
47.41073619415903
 20
92.36930619703553
 30
0.0
 10
47.47462373277221
 20
92.29432145294639
 30
0.0
 10
47.54207310985608
 20
92.2267401528798
 30
0.0
  0
SPLINE
  5
1EC
330
1F
100
AcDbEntity
  8
0
  6
HIDDEN
 62
     7
370
     0
100
AcDbSpline
210
0.0
220
0.0
230
1.0
 70
     8
 71
     3
 72
    10
 73
     6
 74
     0
 42
0.00000001
 43
0.00000001
 40
0.0
 40
0.0
 40
0.0
 40
0.0
 40
0.5
 40
0.5
 40
1.0
 40
1.0
 40
1.0
 40
1.0
 10
46.40211804026656
 20
93.39601629869703
 30
0.0
 10
46.4021180402665
 20
93.36714203383764
 30
0.0
 10
46.41231195002762
 20
93.34963847745911
 30
0.0
 10
46.43906255483576
 20
93.34910691463138
 30
0.0
 10
46.45595000676711
 20
93.36677437181093
 30
0.0
 10
46.46478141499063
 20
93.41214150039379
 30
0.0
  0
LINE
  5
1ED
330
1F
100
AcDbEntity
  8
0
  6
HIDDEN
 62
     7
370
     0
100
AcDbLine
 10
46.4021180403
 20
95.0966940452
 30
0.0
 11
46.4021180403
 21
93.3960162987
 31
0.0
  0
LINE
  5
1EE
330
1F
100
AcDbEntity
  8
0
  6
HIDDEN
 62
     7
370
     0
100
AcDbLine
 10
47.5521180403
 20
95.0966940452
 30
0.0
 11
47.5521180403
 21
92.2167562798
 31
0.0
  0
SPLINE
  5
1EF
330
1F
100
AcDbEntity
  8
0
  6
HIDDEN
 62
     7
370
     0
100
AcDbSpline
210
0.0
220
0.0
230
1.0
 70
     8
 71
     3
 72
    10
 73
     6
 74
     0
 42
0.00000001
 43
0.00000001
 40
0.0
 40
0.0
 40
0.0
 40
0.0
 40
0.5
 40
0.5
 40
1.0
 40
1.0
 40
1.0
 40
1.0
 10
94.39211804026723
 20
140.2063478962103
 30
0.0
 10
94.39211804026723
 20
140.0627355446522
 30
0.0
 10
94.42828531536509
 20
139.9197621309335
 30
0.0
 10
94.56404125911918
 20
139.6697695042197
 30
0.0
 10
94.66431094974219
 20
139.5617671949408
 30
0.0
 10
94.78641557195868
 20
139.4866940451742
 30
0.0
  0
LINE
  5
1F0
330
1F
100
AcDbEntity
  8
0
  6
HIDDEN
 62
     7
370
     0
100
AcDbLine
 10
94.3921180403
 20
140.2063478962
 30
0.0
 11
94.3921180403
 21
86.2822984168
 31
0.0
  0
SPLINE
  5
1F1
330
1F
100
AcDbEntity
  8
0
  6
HIDDEN
 62
     7
370
     0
100
AcDbSpline
210
0.0
220
0.0
230
1.0
 70
     8
 71
     3
 72
    10
 73
     6
 74
     0
 42
0.00000001
 43
0.00000001
 40
0.0
 40
0.0
 40
0.0
 40
0.0
 40
0.5
 40
0.5
 40
1.0
 40
1.0
 40
1.0
 40
1.0
 10
94.39211804026723
 20
86.28229841684521
 30
0.0
 10
94.39211804026723
 20
86.35253477721571
 30
0.0
 10
94.40040065235765
 20
86.42252887871294
 30
0.0
 10
94.43350059541596
 20
86.55948814327134
 30
0.0
 10
94.45783798737429
 20
86.6247960525264
 30
0.0
 10
94.48979284259873
 20
86.68669404517313
 30
0.0
  0
SPLINE
  5
1F2
330
1F
100
AcDbEntity
  8
0
  6
HIDDEN
 62
     7
370
     0
100
AcDbSpline
210
0.0
220
0.0
230
1.0
 70
    24
 71
     3
 72
    12
 73
     8
 74
     0
 42
0.00000001
 43
0.00000001
 40
0.0
 40
0.0
 40
0.0
 40
0.0
 40
0.4999999999999959
 40
0.4999999999999959
 40
0.7499999999999979
 40
0.7499999999999979
 40
1.0
 40
1.0
 40
1.0
 40
1.0
 10
94.78641557195832
 20
139.4866940451745
 30
0.0
 10
94.82922221907937
 20
139.4866940451745
 30
0.0
 10
94.87894940992189
 20
139.4866940451745
 30
0.0
 10
94.97485760040949
 20
139.4866940451745
 30
0.0
 10
95.01052970790985
 20
139.4866940451745
 30
0.0
 10
95.09435132512013
 20
139.4866940451745
 30
0.0
 10
95.14244763553299
 20
139.4866940451745
 30
0.0
 10
95.19211804026723
 20
139.4866940451745
 30
0.0
  0
SPLINE
  5
1F3
330
1F
100
AcDbEntity
  8
0
  6
HIDDEN
 62
     7
370
     0
100
AcDbSpline
210
0.0
220
0.0
230
1.0
 70
    24
 71
     3
 72
    14
 73
    10
 74
     0
 42
0.00000001
 43
0.00000001
 40
0.0
 40
0.0
 40
0.0
 40
0.0
 40
0.4999999999999968
 40
0.4999999999999968
 40
0.7499999999999967
 40
0.7499999999999967
 40
0.8749999999999983
 40
0.8749999999999983
 40
1.0
 40
1.0
 40
1.0
 40
1.0
 10
94.4897928425994
 20
86.68669404517453
 30
0.0
 10
94.53681284550721
 20
86.68669404517453
 30
0.0
 10
94.60021883227117
 20
86.68669404517453
 30
0.0
 10
94.74285940422008
 20
86.68669404517453
 30
0.0
 10
94.79811186240873
 20
86.68669404517452
 30
0.0
 10
94.9110881720643
 20
86.68669404517453
 30
0.0
 10
94.95356256932699
 20
86.68669404517452
 30
0.0
 10
95.05838794650553
 20
86.68669404517452
 30
0.0
 10
95.12339556051772
 20
86.68669404517452
 30
0.0
 10
95.19211804026727
 20
86.68669404517453
 30
0.0
  0
LINE
  5
1F4
330
1F
100
AcDbEntity
  8
0
  6
HIDDEN
 62
     7
370
     0
100
AcDbLine
 10
98.2121180403
 20
140.2063478962
 30
0.0
 11
98.2121180403
 21
86.2822984168
 31
0.0
  0
SPLINE
  5
1F5
330
1F
100
AcDbEntity
  8
0
  6
HIDDEN
 62
     7
370
     0
100
AcDbSpline
210
0.0
220
0.0
230
1.0
 70
     8
 71
     3
 72
    10
 73
     6
 74
     0
 42
0.00000001
 43
0.00000001
 40
0.0
 40
0.0
 40
0.0
 40
0.0
 40
0.5
 40
0.5
 40
1.0
 40
1.0
 40
1.0
 40
1.0
 10
97.81782050857626
 20
139.4866940451745
 30
0.0
 10
97.93913303167402
 20
139.5612801914627
 30
0.0
 10
98.04056139389915
 20
139.6701045026141
 30
0.0
 10
98.17650496015928
 20
139.9211250212358
 30
0.0
 10
98.21211804026723
 20
140.0637077143751
 30
0.0
 10
98.21211804026723
 20
140.2063478962104
 30
0.0
  0
SPLINE
  5
1F6
330
1F
100
AcDbEntity
  8
0
  6
HIDDEN
 62
     7
370
     0
100
AcDbSpline
210
0.0
220
0.0
230
1.0
 70
     8
 71
     3
 72
    10
 73
     6
 74
     0
 42
0.00000001
 43
0.00000001
 40
0.0
 40
0.0
 40
0.0
 40
0.0
 40
0.5
 40
0.5
 40
1.0
 40
1.0
 40
1.0
 40
1.0
 10
98.11444323793494
 20
86.68669404517453
 30
0.0
 10
98.14659842555695
 20
86.6244079996584
 30
0.0
 10
98.17125465675117
 20
86.55787757478916
 30
0.0
 10
98.20406741367665
 20
86.42101894442666
 30
0.0
 10
98.21211804026724
 20
86.3519613492483
 30
0.0
 10
98.21211804026723
 20
86.28229841684498
 30
0.0
  0
SPLINE
  5
1F7
330
1F
100
AcDbEntity
  8
0
  6
HIDDEN
 62
     7
370
     0
100
AcDbSpline
210
0.0
220
0.0
230
1.0
 70
    24
 71
     3
 72
    12
 73
     8
 74
     0
 42
0.00000001
 43
0.00000001
 40
0.0
 40
0.0
 40
0.0
 40
0.0
 40
0.2499999999999983
 40
0.2499999999999983
 40
0.4999999999999967
 40
0.4999999999999967
 40
1.0
 40
1.0
 40
1.0
 40
1.0
 10
97.41211804026723
 20
139.4866940451745
 30
0.0
 10
97.4616531464852
 20
139.4866940451745
 30
0.0
 10
97.51005803508666
 20
139.4866940451745
 30
0.0
 10
97.59294458426429
 20
139.4866940451745
 30
0.0
 10
97.62945930573264
 20
139.4866940451745
 30
0.0
 10
97.72579214408731
 20
139.4866940451745
 30
0.0
 10
97.77454469174995
 20
139.4866940451745
 30
0.0
 10
97.81782050858064
 20
139.4866940451745
 30
0.0
  0
SPLINE
  5
1F8
330
1F
100
AcDbEntity
  8
0
  6
HIDDEN
 62
     7
370
     0
100
AcDbSpline
210
0.0
220
0.0
230
1.0
 70
    24
 71
     3
 72
    14
 73
    10
 74
     0
 42
0.00000001
 43
0.00000001
 40
0.0
 40
0.0
 40
0.0
 40
0.0
 40
0.1249999999999997
 40
0.1249999999999997
 40
0.2499999999999993
 40
0.2499999999999993
 40
0.4999999999999996
 40
0.4999999999999996
 40
1.0
 40
1.0
 40
1.0
 40
1.0
 10
97.41211804026723
 20
86.68669404517453
 30
0.0
 10
97.48121467261119
 20
86.68669404517453
 30
0.0
 10
97.54620783821913
 20
86.68669404517453
 30
0.0
 10
97.65052903686426
 20
86.68669404517453
 30
0.0
 10
97.69330941097273
 20
86.68669404517453
 30
0.0
 10
97.80564707061897
 20
86.68669404517452
 30
0.0
 10
97.86069425276135
 20
86.68669404517453
 30
0.0
 10
98.00457102653141
 20
86.68669404517452
 30
0.0
 10
98.06760033980649
 20
86.68669404517453
 30
0.0
 10
98.11444323793494
 20
86.68669404517453
 30
0.0
  0
LINE
  5
1F9
330
1F
100
AcDbEntity
  8
0
  6
HIDDEN
 62
     7
370
     0
100
AcDbLine
 10
95.1921180403
 20
139.4866940452
 30
0.0
 11
97.4121180403
 21
139.4866940452
 31
0.0
  0
LINE
  5
1FA
330
1F
100
AcDbEntity
  8
0
  6
HIDDEN
 62
     7
370
     0
100
AcDbLine
 10
95.1921180403
 20
86.6866940452
 30
0.0
 11
97.4121180403
 21
86.6866940452
 31
0.0
  0
SPLINE
  5
1FB
330
1F
100
AcDbEntity
  8
0
  6
HIDDEN
 62
     7
370
     0
100
AcDbSpline
210
0.0
220
0.0
230
1.0
 70
     8
 71
     3
 72
     8
 73
     4
 74
     0
 42
0.00000001
 43
0.00000001
 40
0.0
 40
0.0
 40
0.0
 40
0.0
 40
1.0
 40
1.0
 40
1.0
 40
1.0
 10
92.91018520877817
 20
143.5538895183388
 30
0.0
 10
93.4053252381425
 20
142.6672098701585
 30
0.0
 10
93.89940794342147
 20
141.7799472344725
 30
0.0
 10
94.39211804026723
 20
140.8919282363461
 30
0.0
  0
LINE
  5
1FC
330
1F
100
AcDbEntity
  8
0
  6
HIDDEN
 62
     7
370
     0
100
AcDbLine
 10
94.3921180403
 20
140.8919282363
 30
0.0
 11
94.3921180403
 21
140.2063478962
 31
0.0
  0
LINE
  5
1FD
330
1F
100
AcDbEntity
  8
0
  6
HIDDEN
 62
     7
370
     0
100
AcDbLine
 10
91.2521180403
 20
139.4866940452
 30
0.0
 11
94.786415572
 21
139.4866940452
 31
0.0
  0
SPLINE
  5
1FE
330
1F
100
AcDbEntity
  8
0
  6
HIDDEN
 62
     7
370
     0
100
AcDbSpline
210
0.0
220
0.0
230
1.0
 70
     8
 71
     3
 72
     8
 73
     4
 74
     0
 42
0.00000001
 43
0.00000001
 40
0.0
 40
0.0
 40
0.0
 40
0.0
 40
1.0
 40
1.0
 40
1.0
 40
1.0
 10
98.21211804026723
 20
140.8919282363461
 30
0.0
 10
98.70482813711298
 20
141.7799472344725
 30
0.0
 10
99.19891084239195
 20
142.6672098701585
 30
0.0
 10
99.69405087175628
 20
143.5538895183388
 30
0.0
  0
LINE
  5
1FF
330
1F
100
AcDbEntity
  8
0
  6
HIDDEN
 62
     7
370
     0
100
AcDbLine
 10
99.6940508718
 20
143.5538895183
 30
0.0
 11
103.6521180403
 21
143.5538895183
 31
0.0
  0
SPLINE
  5
200
330
1F
100
AcDbEntity
  8
0
  6
HIDDEN
 62
     7
370
     0
100
AcDbSpline
210
0.0
220
0.0
230
1.0
 70
     8
 71
     3
 72
    12
 73
     8
 74
     0
 42
0.00000001
 43
0.00000001
 40
0.0
 40
0.0
 40
0.0
 40
0.0
 40
0.2499999999999999
 40
0.2499999999999999
 40
0.4999999999999998
 40
0.4999999999999998
 40
1.0
 40
1.0
 40
1.0
 40
1.0
 10
103.6521180402672
 20
143.5538895183388
 30
0.0
 10
103.7316109893155
 20
143.5538895183388
 30
0.0
 10
103.812694490671
 20
143.536886768378
 30
0.0
 10
103.9591248878088
 20
143.4728262272664
 30
0.0
 10
104.0256734976825
 20
143.4256676116277
 30
0.0
 10
104.1899633716562
 20
143.2524455789355
 30
0.0
 10
104.2521180402674
 20
143.0923364887012
 30
0.0
 10
104.2521180402672
 20
142.9331343689378
 30
0.0
  0
LINE
  5
201
330
1F
100
AcDbEntity
  8
0
  6
HIDDEN
 62
     7
370
     0
100
AcDbLine
 10
98.2121180403
 20
140.2063478962
 30
0.0
 11
98.2121180403
 21
140.8919282363
 31
0.0
  0
LINE
  5
202
330
1F
100
AcDbEntity
  8
0
  6
HIDDEN
 62
     7
370
     0
100
AcDbLine
 10
104.2521180403
 20
142.9331343689
 30
0.0
 11
104.2521180403
 21
139.4866940452
 31
0.0
  0
LINE
  5
203
330
1F
100
AcDbEntity
  8
0
  6
HIDDEN
 62
     7
370
     0
100
AcDbLine
 10
97.8178205086
 20
139.4866940452
 30
0.0
 11
104.2521180403
 21
139.4866940452
 31
0.0
  0
LINE
  5
204
330
1F
100
AcDbEntity
  8
0
  6
HIDDEN
 62
     7
370
     0
100
AcDbLine
 10
98.2121180403
 20
140.8919282363
 30
0.0
 11
98.2121180403
 21
85.5888568861
 31
0.0
  0
SPLINE
  5
205
330
1F
100
AcDbEntity
  8
0
  6
HIDDEN
 62
     7
370
     0
100
AcDbSpline
210
0.0
220
0.0
230
1.0
 70
     8
 71
     3
 72
    12
 73
     8
 74
     0
 42
0.00000001
 43
0.00000001
 40
0.0
 40
0.0
 40
0.0
 40
0.0
 40
0.2499999999999962
 40
0.2499999999999962
 40
0.4999999999999925
 40
0.4999999999999925
 40
1.0
 40
1.0
 40
1.0
 40
1.0
 10
103.6521180402672
 20
82.89977634892736
 30
0.0
 10
103.7319990450143
 20
82.89977634892738
 30
0.0
 10
103.8125931752849
 20
82.91689343519322
 30
0.0
 10
103.9592086211298
 20
82.98162954666832
 30
0.0
 10
104.0257098138738
 20
83.02908678954866
 30
0.0
 10
104.191444715011
 20
83.20591123208813
 30
0.0
 10
104.2521180402672
 20
83.36618773929386
 30
0.0
 10
104.2521180402672
 20
83.52641664458163
 30
0.0
  0
LINE
  5
206
330
1F
100
AcDbEntity
  8
0
  6
HIDDEN
 62
     7
370
     0
100
AcDbLine
 10
104.2521180403
 20
142.9331343689
 30
0.0
 11
104.2521180403
 21
83.5264166446
 31
0.0
  0
LINE
  5
207
330
1F
100
AcDbEntity
  8
0
  6
HIDDEN
 62
     7
370
     0
100
AcDbLine
 10
99.6940508718
 20
143.5538895183
 30
0.0
 11
99.6940508718
 21
82.8997763489
 31
0.0
  0
LINE
  5
208
330
1F
100
AcDbEntity
  8
0
  6
HIDDEN
 62
     7
370
     0
100
AcDbLine
 10
94.3921180403
 20
140.8919282363
 30
0.0
 11
94.3921180403
 21
85.5888568861
 31
0.0
  0
SPLINE
  5
209
330
1F
100
AcDbEntity
  8
0
  6
HIDDEN
 62
     7
370
     0
100
AcDbSpline
210
0.0
220
0.0
230
1.0
 70
     8
 71
     3
 72
    26
 73
    22
 74
     0
 42
0.00000001
 43
0.00000001
 40
0.0
 40
0.0
 40
0.0
 40
0.0
 40
0.2500000000000016
 40
0.2500000000000016
 40
0.3750000000000032
 40
0.3750000000000032
 40
0.4375000000000029
 40
0.4375000000000029
 40
0.468750000000004
 40
0.468750000000004
 40
0.500000000000005
 40
0.500000000000005
 40
0.5312500000000061
 40
0.5312500000000061
 40
0.5625000000000072
 40
0.5625000000000072
 40
0.625000000000007
 40
0.625000000000007
 40
0.7500000000000047
 40
0.7500000000000047
 40
1.0
 40
1.0
 40
1.0
 40
1.0
 10
47.22627168637174
 20
133.4768133787724
 30
0.0
 10
47.18767116350327
 20
133.359038682417
 30
0.0
 10
47.14137416094902
 20
133.234648996255
 30
0.0
 10
47.04743481251509
 20
133.0294296639015
 30
0.0
 10
47.01212334560162
 20
132.9578567974551
 30
0.0
 10
46.94594336985594
 20
132.8419035648546
 30
0.0
 10
46.92140500318773
 20
132.8013190300444
 30
0.0
 10
46.87803225763393
 20
132.7371773481727
 30
0.0
 10
46.86252385620873
 20
132.7153109228876
 30
0.0
 10
46.82748121162172
 20
132.6697166545444
 30
0.0
 10
46.80793092090194
 20
132.646046363577
 30
0.0
 10
46.76600364053134
 20
132.601429804237
 30
0.0
 10
46.7433515302997
 20
132.5805497917191
 30
0.0
 10
46.70237781621306
 20
132.5496763779683
 30
0.0
 10
46.68477851631765
 20
132.5398375081359
 30
0.0
 10
46.64015153046149
 20
132.5208478924397
 30
0.0
 10
46.61959230780814
 20
132.5205235677863
 30
0.0
 10
46.56846686831148
 20
132.5297470086625
 30
0.0
 10
46.54755545532294
 20
132.5509939048794
 30
0.0
 10
46.496105547762
 20
132.6249627837102
 30
0.0
 10
46.47844024845746
 20
132.691080877025
 30
0.0
 10
46.46478141499063
 20
132.7612465899552
 30
0.0
  0
SPLINE
  5
20A
330
1F
100
AcDbEntity
  8
0
  6
HIDDEN
 62
     7
370
     0
100
AcDbSpline
210
0.0
220
0.0
230
1.0
 70
     8
 71
     3
 72
    24
 73
    20
 74
     0
 42
0.00000001
 43
0.00000001
 40
0.0
 40
0.0
 40
0.0
 40
0.0
 40
0.25
 40
0.25
 40
0.374999999999999
 40
0.374999999999999
 40
0.4374999999999993
 40
0.4374999999999993
 40
0.4687499999999994
 40
0.4687499999999994
 40
0.4999999999999995
 40
0.4999999999999995
 40
0.5624999999999971
 40
0.5624999999999971
 40
0.6249999999999947
 40
0.6249999999999947
 40
0.7499999999999947
 40
0.7499999999999947
 40
1.0
 40
1.0
 40
1.0
 40
1.0
 10
46.46478141499063
 20
93.41214150039379
 30
0.0
 10
46.47853453366086
 20
93.48279155838406
 30
0.0
 10
46.49630710106673
 20
93.54938967114902
 30
0.0
 10
46.54855819262207
 20
93.62348769138221
 30
0.0
 10
46.56959326820365
 20
93.64474549854377
 30
0.0
 10
46.62249367583208
 20
93.65289142469001
 30
0.0
 10
46.64359934870998
 20
93.65195162129423
 30
0.0
 10
46.68965151738796
 20
93.63093562971689
 30
0.0
 10
46.70802198937135
 20
93.62002682360928
 30
0.0
 10
46.74957362443705
 20
93.58739191266191
 30
0.0
 10
46.77214029719397
 20
93.56589993229053
 30
0.0
 10
46.83492131365398
 20
93.49743398870422
 30
0.0
 10
46.86805107462189
 20
93.45135953049913
 30
0.0
 10
46.92496876110688
 20
93.36635164216446
 30
0.0
 10
46.94915478661066
 20
93.32607134098309
 30
0.0
 10
47.01436273699041
 20
93.21113511451713
 30
0.0
 10
47.04907879718166
 20
93.14055212937012
 30
0.0
 10
47.14229406751255
 20
92.93634637029152
 30
0.0
 10
47.18796660287322
 20
92.81344798796417
 30
0.0
 10
47.22627168637177
 20
92.69657471157657
 30
0.0
  0
LINE
  5
20B
330
1F
100
AcDbEntity
  8
0
  6
HIDDEN
 62
     7
370
     0
100
AcDbLine
 10
46.4021180403
 20
132.7773717917
 30
0.0
 11
46.4021180403
 21
93.3960162987
 31
0.0
  0
SPLINE
  5
20C
330
1F
100
AcDbEntity
  8
0
  6
HIDDEN
 62
     7
370
     0
100
AcDbSpline
210
0.0
220
0.0
230
1.0
 70
     8
 71
     3
 72
     8
 73
     4
 74
     0
 42
0.00000001
 43
0.00000001
 40
0.0
 40
0.0
 40
0.0
 40
0.0
 40
1.0
 40
1.0
 40
1.0
 40
1.0
 10
92.91018520877817
 20
82.89977634892736
 30
0.0
 10
93.40566486944391
 20
83.79530243686072
 30
0.0
 10
93.89977891748605
 20
84.69158685191297
 30
0.0
 10
94.39211804026723
 20
85.58885688611967
 30
0.0
  0
LINE
  5
20D
330
1F
100
AcDbEntity
  8
0
  6
HIDDEN
 62
     7
370
     0
100
AcDbLine
 10
94.3921180403
 20
85.5888568861
 30
0.0
 11
94.3921180403
 21
86.2822984168
 31
0.0
  0
LINE
  5
20E
330
1F
100
AcDbEntity
  8
0
  6
HIDDEN
 62
     7
370
     0
100
AcDbLine
 10
91.2521180403
 20
86.6866940452
 30
0.0
 11
94.4897928426
 21
86.6866940452
 31
0.0
  0
LINE
  5
20F
330
1F
100
AcDbEntity
  8
0
  6
HIDDEN
 62
     7
370
     0
100
AcDbLine
 10
99.6940508718
 20
82.8997763489
 30
0.0
 11
103.6521180403
 21
82.8997763489
 31
0.0
  0
SPLINE
  5
210
330
1F
100
AcDbEntity
  8
0
  6
HIDDEN
 62
     7
370
     0
100
AcDbSpline
210
0.0
220
0.0
230
1.0
 70
     8
 71
     3
 72
     8
 73
     4
 74
     0
 42
0.00000001
 43
0.00000001
 40
0.0
 40
0.0
 40
0.0
 40
0.0
 40
1.0
 40
1.0
 40
1.0
 40
1.0
 10
98.21211804026723
 20
85.58885688611967
 30
0.0
 10
98.7044571630484
 20
84.69158685191297
 30
0.0
 10
99.19857121109054
 20
83.79530243686074
 30
0.0
 10
99.69405087175628
 20
82.89977634892736
 30
0.0
  0
LINE
  5
211
330
1F
100
AcDbEntity
  8
0
  6
HIDDEN
 62
     7
370
     0
100
AcDbLine
 10
98.2121180403
 20
86.2822984168
 30
0.0
 11
98.2121180403
 21
85.5888568861
 31
0.0
  0
LINE
  5
212
330
1F
100
AcDbEntity
  8
0
  6
HIDDEN
 62
     7
370
     0
100
AcDbLine
 10
104.2521180403
 20
83.5264166446
 30
0.0
 11
104.2521180403
 21
86.6866940452
 31
0.0
  0
LINE
  5
213
330
1F
100
AcDbEntity
  8
0
  6
HIDDEN
 62
     7
370
     0
100
AcDbLine
 10
98.1144432379
 20
86.6866940452
 30
0.0
 11
104.2521180403
 21
86.6866940452
 31
0.0
  0
SPLINE
  5
214
330
1F
100
AcDbEntity
  8
0
  6
HIDDEN
 62
     7
370
     0
100
AcDbSpline
210
0.0
220
0.0
230
1.0
 70
     8
 71
     3
 72
    11
 73
     7
 74
     0
 42
0.00000001
 43
0.00000001
 40
0.0
 40
0.0
 40
0.0
 40
0.0
 40
0.0005781862223978
 40
0.0005781862223978
 40
0.0005781862223978
 40
0.0011563724723928
 40
0.0011563724723928
 40
0.0011563724723928
 40
0.0011563724723928
 10
47.40211804026723
 20
125.7268363522213
 30
0.0
 10
47.2354574859916
 20
125.7913658636349
 30
0.0
 10
47.06879418908512
 20
125.8558685674787
 30
0.0
 10
46.90212760525489
 20
125.9203550159123
 30
0.0
 10
46.73546101299581
 20
125.9848414676072
 30
0.0
 10
46.56879114736992
 20
126.0493114763353
 30
0.0
 10
46.40211804026718
 20
126.1137672430679
 30
0.0
  0
SPLINE
  5
215
330
1F
100
AcDbEntity
  8
0
  6
HIDDEN
 62
     7
370
     0
100
AcDbSpline
210
0.0
220
0.0
230
1.0
 70
    24
 71
     3
 72
     9
 73
     5
 74
     0
 42
0.00000001
 43
0.00000001
 40
0.0
 40
0.0
 40
0.0
 40
0.0
 40
0.2800000000000027
 40
0.5035680900328139
 40
0.5035680900328139
 40
0.5035680900328139
 40
0.5035680900328139
 10
46.40211804026718
 20
127.3463285872241
 30
0.0
 10
46.40211804026718
 20
127.1756303658173
 30
0.0
 10
46.40211804026718
 20
126.8120555845782
 30
0.0
 10
46.40211804026717
 20
126.3415966582837
 30
0.0
 10
46.40211804026717
 20
126.1137672430679
 30
0.0
  0
SPLINE
  5
216
330
1F
100
AcDbEntity
  8
0
  6
HIDDEN
 62
     7
370
     0
100
AcDbSpline
210
0.0
220
0.0
230
1.0
 70
     8
 71
     3
 72
    11
 73
     7
 74
     0
 42
0.00000001
 43
0.00000001
 40
0.0
 40
0.0
 40
0.0
 40
0.0
 40
0.0005778746105108
 40
0.0005778746105108
 40
0.0005778746105108
 40
0.0011557494857226
 40
0.0011557494857226
 40
0.0011557494857226
 40
0.0011557494857226
 10
46.4021180402672
 20
100.0594721896846
 30
0.0
 10
46.56878491668054
 20
100.1252843163785
 30
0.0
 10
46.73545163624199
 20
100.1911427965161
 30
0.0
 10
46.90211828429064
 20
100.2570503694467
 30
0.0
 10
47.0687850088093
 20
100.3229579726171
 30
0.0
 10
47.23545170322988
 20
100.3889150810056
 30
0.0
 10
47.40211804026723
 20
100.4549168209283
 30
0.0
  0
SPLINE
  5
217
330
1F
100
AcDbEntity
  8
0
  6
HIDDEN
 62
     7
370
     0
100
AcDbSpline
210
0.0
220
0.0
230
1.0
 70
    24
 71
     3
 72
    10
 73
     6
 74
     0
 42
0.00000001
 43
0.00000001
 40
0.4964754867037672
 40
0.4964754867037672
 40
0.4964754867037672
 40
0.4964754867037672
 40
0.5599999999992115
 40
0.78
 40
1.0
 40
1.0
 40
1.0
 40
1.0
 10
46.40211804026717
 20
100.0594721896846
 30
0.0
 10
46.40211804026717
 20
99.99464879173603
 30
0.0
 10
46.40211804026717
 20
99.71195630587535
 30
0.0
 10
46.40211804026714
 20
99.26661153587713
 30
0.0
 10
46.40211804026714
 20
98.96058917379703
 30
0.0
 10
46.40211804026715
 20
98.82705950319921
 30
0.0
  0
SPLINE
  5
218
330
1F
100
AcDbEntity
  8
0
  6
HIDDEN
 62
     7
370
     0
100
AcDbSpline
210
0.0
220
0.0
230
1.0
 70
     8
 71
     3
 72
    11
 73
     7
 74
     0
 42
0.00000001
 43
0.00000001
 40
0.0000000000000006
 40
0.0000000000000006
 40
0.0000000000000006
 40
0.0000000000000006
 40
0.0005780486062768
 40
0.0005780486062768
 40
0.0005780486062768
 40
0.0011560973514127
 40
0.0011560973514127
 40
0.0011560973514127
 40
0.0011560973514127
 10
46.4021180402672
 20
123.0675085468663
 30
0.0
 10
46.56878789631211
 20
123.0051366853518
 30
0.0
 10
46.73545560039638
 20
122.9427828250541
 30
0.0
 10
46.90212190485002
 20
122.880463264868
 30
0.0
 10
47.06878824554376
 20
122.8181436911311
 30
0.0
 10
47.23545320217255
 20
122.7558584868115
 30
0.0
 10
47.40211804026723
 20
122.6936333662428
 30
0.0
  0
LINE
  5
219
330
1F
100
AcDbEntity
  8
0
  6
HIDDEN
 62
     7
370
     0
100
AcDbLine
 10
46.4021180403
 20
126.1137672431
 30
0.0
 11
46.4021180403
 21
123.0675085469
 31
0.0
  0
SPLINE
  5
21A
330
1F
100
AcDbEntity
  8
0
  6
HIDDEN
 62
     7
370
     0
100
AcDbSpline
210
0.0
220
0.0
230
1.0
 70
     8
 71
     3
 72
    11
 73
     7
 74
     0
 42
0.00000001
 43
0.00000001
 40
0.0
 40
0.0
 40
0.0
 40
0.0
 40
0.0005782401583533
 40
0.0005782401583533
 40
0.0005782401583533
 40
0.0011564805960993
 40
0.0011564805960993
 40
0.0011564805960993
 40
0.0011564805960993
 10
47.40211804026723
 20
103.4858672527769
 30
0.0
 10
47.23546708991831
 20
103.4224417947161
 30
0.0
 10
47.06880749733565
 20
103.3590862710608
 30
0.0
 10
46.90214044490709
 20
103.2957886867108
 30
0.0
 10
46.73547330834328
 20
103.2324910704076
 30
0.0
 10
46.56879870089723
 20
103.1692512754669
 30
0.0
 10
46.40211804026717
 20
103.1060512688281
 30
0.0
  0
LINE
  5
21B
330
1F
100
AcDbEntity
  8
0
  6
HIDDEN
 62
     7
370
     0
100
AcDbLine
 10
46.4021180403
 20
103.1060512688
 30
0.0
 11
46.4021180403
 21
100.0594721897
 31
0.0
  0
ARC
  5
21C
330
1F
100
AcDbEntity
  8
0
  6
HIDDEN
 62
     7
370
     0
100
AcDbCircle
 10
209.3021180403
 20
105.9897636161
 30
0.0
 40
3.320574761522444
100
AcDbArc
 50
214.7735812365
 51
325.2264187635
  0
LWPOLYLINE
  5
21D
330
1F
100
AcDbEntity
  8
0
  6
HIDDEN
 62
     7
370
     0
100
AcDbPolyline
 90
       24
 70
   128
 43
0.0
 10
206.0021180403
 20
105.3116940452
 10
206.124490992
 20
106.0827418755
 10
206.4825340053
 20
106.7966046156
 10
207.0496926676
 20
107.4003383317
 10
207.7839034158
 20
107.849166856
 10
208.6307131972
 20
108.10980263
 10
209.5273180044
 20
108.1629154908
 10
210.4072207604
 20
108.0045663005
 10
211.2051631032
 20
107.646499094
 10
211.8619652996
 20
107.1152700781
 10
212.3289153352
 20
106.4502780787
 10
212.5713816622
 20
105.7008425102
 10
212.5713816622
 20
104.9225455802
 10
212.3289153352
 20
104.1731100117
 10
211.8619652996
 20
103.5081180122
 10
211.2051631032
 20
102.9768889963
 10
210.4072207604
 20
102.6188217899
 10
209.5273180044
 20
102.4604725995
 10
208.6307131972
 20
102.5135854603
 10
207.7839034158
 20
102.7742212344
 10
207.0496926676
 20
103.2230497587
 10
206.4825340053
 20
103.8267834747
 10
206.124490992
 20
104.5406462148
 10
206.0021180403
 20
105.3116940452
  0
LINE
  5
21E
330
1F
100
AcDbEntity
  8
0
  6
HIDDEN
 62
     7
370
     0
100
AcDbLine
 10
199.5521180403
 20
119.3150413607
 30
0.0
 11
199.5521180403
 21
119.0756743842
 31
0.0
  0
LINE
  5
21F
330
1F
100
AcDbEntity
  8
0
  6
HIDDEN
 62
     7
370
     0
100
AcDbLine
 10
201.1521180403
 20
119.1139714159
 30
0.0
 11
201.1521180403
 21
119.3532598738
 31
0.0
  0
LINE
  5
220
330
1F
100
AcDbEntity
  8
0
  6
HIDDEN
 62
     7
370
     0
100
AcDbLine
 10
199.5521180403
 20
122.4730998801
 30
0.0
 11
199.5521180403
 21
122.7124668566
 31
0.0
  0
LINE
  5
221
330
1F
100
AcDbEntity
  8
0
  6
HIDDEN
 62
     7
370
     0
100
AcDbLine
 10
201.1521180403
 20
122.6792935477
 30
0.0
 11
201.1521180403
 21
122.4400050898
 31
0.0
  0
LWPOLYLINE
  5
222
330
1F
100
AcDbEntity
  8
0
  6
HIDDEN
 62
     7
370
     0
100
AcDbPolyline
 90
        2
 70
   128
 43
0.0
 10
238.3021180403
 20
122.1616940452
 10
238.3021180403
 20
122.1616940452
  0
LWPOLYLINE
  5
223
330
1F
100
AcDbEntity
  8
0
  6
HIDDEN
 62
     7
370
     0
100
AcDbPolyline
 90
        2
 70
   128
 43
0.0
 10
238.3021180403
 20
104.0116940452
 10
238.3021180403
 20
104.0116940452
  0
LWPOLYLINE
  5
224
330
1F
100
AcDbEntity
  8
0
  6
HIDDEN
 62
     7
370
     0
100
AcDbPolyline
 90
        2
 70
   128
 43
0.0
 10
237.5021180403
 20
121.3616940452
 10
237.5021180403
 20
121.3616940452
  0
LWPOLYLINE
  5
225
330
1F
100
AcDbEntity
  8
0
  6
HIDDEN
 62
     7
370
     0
100
AcDbPolyline
 90
        2
 70
   128
 43
0.0
 10
233.2021180403
 20
121.3616940452
 10
233.2021180403
 20
121.3616940452
  0
LWPOLYLINE
  5
226
330
1F
100
AcDbEntity
  8
0
  6
HIDDEN
 62
     7
370
     0
100
AcDbPolyline
 90
        2
 70
   128
 43
0.0
 10
237.5021180403
 20
104.8116940452
 10
237.5021180403
 20
104.8116940452
  0
LWPOLYLINE
  5
227
330
1F
100
AcDbEntity
  8
0
  6
HIDDEN
 62
     7
370
     0
100
AcDbPolyline
 90
        2
 70
   128
 43
0.0
 10
233.2021180403
 20
104.8116940452
 10
233.2021180403
 20
104.8116940452
  0
LWPOLYLINE
  5
228
330
1F
100
AcDbEntity
  8
0
  6
HIDDEN
 62
     7
370
     0
100
AcDbPolyline
 90
        2
 70
   128
 43
0.0
 10
232.7021180403
 20
120.8616940452
 10
232.7021180403
 20
120.8616940452
  0
LWPOLYLINE
  5
229
330
1F
100
AcDbEntity
  8
0
  6
HIDDEN
 62
     7
370
     0
100
AcDbPolyline
 90
        2
 70
   128
 43
0.0
 10
232.7021180403
 20
105.3116940452
 10
232.7021180403
 20
105.3116940452
  0
SPLINE
  5
22A
330
1F
100
AcDbEntity
  8
0
  6
HIDDEN
 62
     7
370
     0
100
AcDbSpline
210
0.0
220
0.0
230
1.0
 70
    24
 71
     3
 72
     9
 73
     5
 74
     0
 42
0.00000001
 43
0.00000001
 40
0.5653008513740597
 40
0.5653008513740597
 40
0.5653008513740597
 40
0.5653008513740597
 40
0.7799999999999997
 40
1.0
 40
1.0
 40
1.0
 40
1.0
 10
46.40211804026717
 20
123.0675085468574
 30
0.0
 10
46.40211804026717
 20
122.8739056959123
 30
0.0
 10
46.40211804026714
 20
122.4412328133008
 30
0.0
 10
46.40211804026715
 20
121.9442436731855
 30
0.0
 10
46.40211804026715
 20
121.6831693611578
 30
0.0
  0
SPLINE
  5
22B
330
1F
100
AcDbEntity
  8
0
  6
HIDDEN
 62
     7
370
     0
100
AcDbSpline
210
0.0
220
0.0
230
1.0
 70
    24
 71
     3
 72
     9
 73
     5
 74
     0
 42
0.00000001
 43
0.00000001
 40
0.0
 40
0.0
 40
0.0
 40
0.0
 40
0.2800000000000002
 40
0.4346860874281245
 40
0.4346860874281245
 40
0.4346860874281245
 40
0.4346860874281245
 10
46.40211804026715
 20
104.4902187291491
 30
0.0
 10
46.40211804026717
 20
104.1563904057962
 30
0.0
 10
46.40211804026717
 20
103.665064209002
 30
0.0
 10
46.40211804026717
 20
103.2454575840263
 30
0.0
 10
46.40211804026717
 20
103.1060512688378
 30
0.0
  0
ARC
  5
22C
330
1F
100
AcDbEntity
  8
0
  6
HIDDEN
 62
     7
370
     0
100
AcDbCircle
 10
209.3021180403
 20
104.753796598
 30
0.0
 40
3.320574761522422
100
AcDbArc
 50
34.7735812365
 51
145.2264187635
  0
LINE
  5
22D
330
1F
100
AcDbEntity
  8
0
  6
HIDDEN
 62
     7
370
     0
100
AcDbLine
 10
46.4021180403
 20
121.6831693612
 30
0.0
 11
46.4021180403
 21
104.4902187291
 31
0.0
  0
CIRCLE
  5
22E
330
1F
100
AcDbEntity
  8
0
  6
HIDDEN
 62
     7
370
     0
100
AcDbCircle
 10
85.3021180403
 20
113.0866940452
 30
0.0
 40
5.000000000000014
  0
LINE
  5
22F
330
1F
100
AcDbEntity
  8
0
  6
HIDDEN
 62
     7
370
     0
100
AcDbLine
 10
82.3021180403
 20
127.3845291949
 30
0.0
 11
82.3021180403
 21
125.4806346881
 31
0.0
  0
LINE
  5
230
330
1F
100
AcDbEntity
  8
0
  6
HIDDEN
 62
     7
370
     0
100
AcDbLine
 10
90.3021180403
 20
125.4806346881
 30
0.0
 11
90.3021180403
 21
127.3873245509
 31
0.0
  0
LINE
  5
231
330
1F
100
AcDbEntity
  8
0
  6
HIDDEN
 62
     7
370
     0
100
AcDbLine
 10
78.3021180403
 20
87.7627628992
 30
0.0
 11
78.3962788158
 21
88.4327516304
 31
0.0
  0
LINE
  5
232
330
1F
100
AcDbEntity
  8
0
  6
HIDDEN
 62
     7
370
     0
100
AcDbLine
 10
78.3962788158
 20
137.7406364599
 30
0.0
 11
78.3021180403
 21
138.4106251912
 31
0.0
  0
ARC
  5
233
330
1F
100
AcDbEntity
  8
0
  6
HIDDEN
 62
     7
370
     0
100
AcDbCircle
 10
77.8021112876
 20
88.5162564308
 30
0.0
 40
0.6000067526677242
100
AcDbArc
 50
352.0
 51
0.0
  0
ARC
  5
234
330
1F
100
AcDbEntity
  8
0
  6
HIDDEN
 62
     7
370
     0
100
AcDbCircle
 10
77.8021112876
 20
88.5162564308
 30
0.0
 40
0.6000067526677242
100
AcDbArc
 50
0.0
 51
33.5571153394
  0
ARC
  5
235
330
1F
100
AcDbEntity
  8
0
  6
HIDDEN
 62
     7
370
     0
100
AcDbCircle
 10
77.8021112876
 20
137.6571316596
 30
0.0
 40
0.6000067526677308
100
AcDbArc
 50
348.75
 51
8.0
  0
LWPOLYLINE
  5
236
330
1F
100
AcDbEntity
  8
0
  6
HIDDEN
 62
     7
370
     0
100
AcDbPolyline
 90
        3
 70
   128
 43
0.0
 10
78.3905890788
 20
137.540076149
 10
78.3564452458
 20
137.427519016
 10
78.3021180403
 20
137.3254671445
  0
LINE
  5
237
330
1F
100
AcDbEntity
  8
0
  6
HIDDEN
 62
     7
370
     0
100
AcDbLine
 10
78.4021180403
 20
88.5162564308
 30
0.0
 11
78.4021180403
 21
137.6571316596
 31
0.0
  0
LINE
  5
238
330
1F
100
AcDbEntity
  8
0
  6
HIDDEN
 62
     7
370
     0
100
AcDbLine
 10
78.4021180403
 20
88.5162564308
 30
0.0
 11
78.4021180403
 21
137.6571316596
 31
0.0
  0
LINE
  5
239
330
1F
100
AcDbEntity
  8
0
  6
HIDDEN
 62
     7
370
     0
100
AcDbLine
 10
189.9521180403
 20
135.4616940452
 30
0.0
 11
188.8521180403
 21
135.4616940452
 31
0.0
  0
LINE
  5
23A
330
1F
100
AcDbEntity
  8
0
  6
HIDDEN
 62
     7
370
     0
100
AcDbLine
 10
188.8521180403
 20
90.7116940452
 30
0.0
 11
189.9521180403
 21
90.7116940452
 31
0.0
  0
ARC
  5
23B
330
1F
100
AcDbEntity
  8
0
  6
HIDDEN
 62
     7
370
     0
100
AcDbCircle
 10
189.9521180403
 20
135.1616940452
 30
0.0
 40
0.3000000000000114
100
AcDbArc
 50
0.0
 51
90.0
  0
ARC
  5
23C
330
1F
100
AcDbEntity
  8
0
  6
HIDDEN
 62
     7
370
     0
100
AcDbCircle
 10
189.9521180403
 20
91.0116940452
 30
0.0
 40
0.3000000000000114
100
AcDbArc
 50
270.0
 51
0.0
  0
ARC
  5
23D
330
1F
100
AcDbEntity
  8
0
  6
HIDDEN
 62
     7
370
     0
100
AcDbCircle
 10
190.4521180403
 20
133.1366940452
 30
0.0
 40
0.1999999999999886
100
AcDbArc
 50
180.0
 51
270.0
  0
ARC
  5
23E
330
1F
100
AcDbEntity
  8
0
  6
HIDDEN
 62
     7
370
     0
100
AcDbCircle
 10
190.4521180403
 20
93.0366940452
 30
0.0
 40
0.2000000000000028
100
AcDbArc
 50
90.0
 51
180.0
  0
LINE
  5
23F
330
1F
100
AcDbEntity
  8
0
  6
HIDDEN
 62
     7
370
     0
100
AcDbLine
 10
61.3845536056
 20
93.0866940452
 30
0.0
 11
65.5552354215
 21
93.0866940452
 31
0.0
  0
LINE
  5
240
330
1F
100
AcDbEntity
  8
0
  6
HIDDEN
 62
     7
370
     0
100
AcDbLine
 10
65.5552354215
 20
133.0866940452
 30
0.0
 11
61.3845536056
 21
133.0866940452
 31
0.0
  0
ARC
  5
241
330
1F
100
AcDbEntity
  8
0
  6
HIDDEN
 62
     7
370
     0
100
AcDbCircle
 10
61.3845536056
 20
93.6866940452
 30
0.0
 40
0.6000000000000085
100
AcDbArc
 50
210.0
 51
270.0
  0
ARC
  5
242
330
1F
100
AcDbEntity
  8
0
  6
HIDDEN
 62
     7
370
     0
100
AcDbCircle
 10
61.3845536056
 20
132.4866940452
 30
0.0
 40
0.5999999999999943
100
AcDbArc
 50
90.0
 51
150.0
  0
ARC
  5
243
330
1F
100
AcDbEntity
  8
0
  6
HIDDEN
 62
     7
370
     0
100
AcDbCircle
 10
72.0571200419
 20
101.0866940452
 30
0.0
 40
8.000000000000016
100
AcDbArc
 50
277.1493599903
 51
321.3178125465
  0
ARC
  5
244
330
1F
100
AcDbEntity
  8
0
  6
HIDDEN
 62
     7
370
     0
100
AcDbCircle
 10
72.0571200419
 20
125.0866940452
 30
0.0
 40
8.000000000000018
100
AcDbArc
 50
38.6821874535
 51
82.842028138
  0
LINE
  5
245
330
1F
100
AcDbEntity
  8
0
  6
HIDDEN
 62
     7
370
     0
100
AcDbLine
 10
237.5021180403
 20
133.0866940452
 30
0.0
 11
231.4021180403
 21
133.0866940452
 31
0.0
  0
LINE
  5
246
330
1F
100
AcDbEntity
  8
0
  6
HIDDEN
 62
     7
370
     0
100
AcDbLine
 10
231.4021180403
 20
93.0866940452
 30
0.0
 11
237.5021180403
 21
93.0866940452
 31
0.0
  0
LINE
  5
247
330
1F
100
AcDbEntity
  8
0
  6
HIDDEN
 62
     7
370
     0
100
AcDbLine
 10
192.2521180403
 20
133.0866940452
 30
0.0
 11
191.7177437286
 21
132.9435088799
 31
0.0
  0
LINE
  5
248
330
1F
100
AcDbEntity
  8
0
  6
HIDDEN
 62
     7
370
     0
100
AcDbLine
 10
191.7177437286
 20
93.2298792104
 30
0.0
 11
192.2521180403
 21
93.0866940452
 31
0.0
  0
LINE
  5
249
330
1F
100
AcDbEntity
  8
0
  6
HIDDEN
 62
     7
370
     0
100
AcDbLine
 10
206.0021180403
 20
133.0866940452
 30
0.0
 11
192.2521180403
 21
133.0866940452
 31
0.0
  0
LINE
  5
24A
330
1F
100
AcDbEntity
  8
0
  6
HIDDEN
 62
     7
370
     0
100
AcDbLine
 10
229.8021180403
 20
133.0866940452
 30
0.0
 11
212.593011662
 21
133.0866940452
 31
0.0
  0
LINE
  5
24B
330
1F
100
AcDbEntity
  8
0
  6
HIDDEN
 62
     7
370
     0
100
AcDbLine
 10
202.3957152556
 20
93.0866940452
 30
0.0
 11
229.8021180403
 21
93.0866940452
 31
0.0
  0
LINE
  5
24C
330
1F
100
AcDbEntity
  8
0
  6
HIDDEN
 62
     7
370
     0
100
AcDbLine
 10
192.2521180403
 20
93.0866940452
 30
0.0
 11
198.2021180403
 21
93.0866940452
 31
0.0
  0
ARC
  5
24D
330
1F
100
AcDbEntity
  8
0
  6
HIDDEN
 62
     7
370
     0
100
AcDbCircle
 10
191.6659799196
 20
133.1366940452
 30
0.0
 40
0.1999999999999602
100
AcDbArc
 50
270.0
 51
285.0
  0
ARC
  5
24E
330
1F
100
AcDbEntity
  8
0
  6
HIDDEN
 62
     7
370
     0
100
AcDbCircle
 10
191.6659799196
 20
93.0366940452
 30
0.0
 40
0.2000000000000028
100
AcDbArc
 50
75.0
 51
90.0
  0
LINE
  5
24F
330
1F
100
AcDbEntity
  8
0
  6
HIDDEN
 62
     7
370
     0
100
AcDbLine
 10
191.6659799196
 20
132.9366940452
 30
0.0
 11
190.4521180403
 21
132.9366940452
 31
0.0
  0
LINE
  5
250
330
1F
100
AcDbEntity
  8
0
  6
HIDDEN
 62
     7
370
     0
100
AcDbLine
 10
190.4521180403
 20
93.2366940452
 30
0.0
 11
191.6659799196
 21
93.2366940452
 31
0.0
  0
LINE
  5
251
330
1F
100
AcDbEntity
  8
0
  6
HIDDEN
 62
     7
370
     0
100
AcDbLine
 10
60.8649383633
 20
132.7866940452
 30
0.0
 11
59.3060926365
 21
130.0866940452
 31
0.0
  0
LINE
  5
252
330
1F
100
AcDbEntity
  8
0
  6
HIDDEN
 62
     7
370
     0
100
AcDbLine
 10
59.3060926365
 20
96.0866940452
 30
0.0
 11
60.8649383633
 21
93.3866940452
 31
0.0
  0
ARC
  5
253
330
1F
100
AcDbEntity
  8
0
  6
HIDDEN
 62
     7
370
     0
100
AcDbCircle
 10
231.2021180403
 20
132.5116940452
 30
0.0
 40
0.2000000000000455
100
AcDbArc
 50
270.0
 51
0.0
  0
ARC
  5
254
330
1F
100
AcDbEntity
  8
0
  6
HIDDEN
 62
     7
370
     0
100
AcDbCircle
 10
231.2021180403
 20
93.6616940452
 30
0.0
 40
0.2000000000000455
100
AcDbArc
 50
0.0
 51
90.0
  0
ARC
  5
255
330
1F
100
AcDbEntity
  8
0
  6
HIDDEN
 62
     7
370
     0
100
AcDbCircle
 10
230.0021180403
 20
132.5116940452
 30
0.0
 40
0.2000000000000171
100
AcDbArc
 50
180.0
 51
270.0
  0
ARC
  5
256
330
1F
100
AcDbEntity
  8
0
  6
HIDDEN
 62
     7
370
     0
100
AcDbCircle
 10
230.0021180403
 20
93.6616940452
 30
0.0
 40
0.2000000000000028
100
AcDbArc
 50
90.0
 51
180.0
  0
LINE
  5
257
330
1F
100
AcDbEntity
  8
0
  6
HIDDEN
 62
     7
370
     0
100
AcDbLine
 10
82.3021180403
 20
140.3610279044
 30
0.0
 11
82.3021180403
 21
137.0322964598
 31
0.0
  0
LINE
  5
258
330
1F
100
AcDbEntity
  8
0
  6
HIDDEN
 62
     7
370
     0
100
AcDbLine
 10
90.3021180403
 20
137.0322964598
 30
0.0
 11
90.3021180403
 21
140.3663602831
 31
0.0
  0
LINE
  5
259
330
1F
100
AcDbEntity
  8
0
  6
HIDDEN
 62
     7
370
     0
100
AcDbLine
 10
231.2021180403
 20
132.3116940452
 30
0.0
 11
230.0021180403
 21
132.3116940452
 31
0.0
  0
LINE
  5
25A
330
1F
100
AcDbEntity
  8
0
  6
HIDDEN
 62
     7
370
     0
100
AcDbLine
 10
230.0021180403
 20
93.8616940452
 30
0.0
 11
231.2021180403
 21
93.8616940452
 31
0.0
  0
LINE
  5
25B
330
1F
100
AcDbEntity
  8
0
  6
HIDDEN
 62
     7
370
     0
100
AcDbLine
 10
212.6021180403
 20
103.0901441661
 30
0.0
 11
212.6021180403
 21
105.3116940452
 31
0.0
  0
LINE
  5
25C
330
1F
100
AcDbEntity
  8
0
  6
HIDDEN
 62
     7
370
     0
100
AcDbLine
 10
206.0021180403
 20
105.3116940452
 30
0.0
 11
206.0021180403
 21
103.0866940452
 31
0.0
  0
LINE
  5
25D
330
1F
100
AcDbEntity
  8
0
  6
HIDDEN
 62
     7
370
     0
100
AcDbLine
 10
202.4021180403
 20
120.8347617311
 30
0.0
 11
202.4021180403
 21
123.0853360907
 31
0.0
  0
LINE
  5
25E
330
1F
100
AcDbEntity
  8
0
  6
HIDDEN
 62
     7
370
     0
100
AcDbLine
 10
198.2021180403
 20
123.0866940452
 30
0.0
 11
198.2021180403
 21
120.8347418508
 31
0.0
  0
LINE
  5
25F
330
1F
100
AcDbEntity
  8
0
  6
HIDDEN
 62
     7
370
     0
100
AcDbLine
 10
237.5021180403
 20
93.0866940452
 30
0.0
 11
237.9521180403
 21
93.5366940452
 31
0.0
  0
LINE
  5
260
330
1F
100
AcDbEntity
  8
0
  6
HIDDEN
 62
     7
370
     0
100
AcDbLine
 10
237.9521180403
 20
132.6366940452
 30
0.0
 11
237.5021180403
 21
133.0866940452
 31
0.0
  0
ARC
  5
261
330
1F
100
AcDbEntity
  8
0
  6
HIDDEN
 62
     7
370
     0
100
AcDbCircle
 10
86.7521180403
 20
97.3616940452
 30
0.0
 40
1.500000000000001
100
AcDbArc
 50
238.2116693829
 51
0.0
  0
ARC
  5
262
330
1F
100
AcDbEntity
  8
0
  6
HIDDEN
 62
     7
370
     0
100
AcDbCircle
 10
86.7521180403
 20
128.8116940452
 30
0.0
 40
1.500000000000001
100
AcDbArc
 50
0.0
 51
121.7883306171
  0
LINE
  5
263
330
1F
100
AcDbEntity
  8
0
  6
HIDDEN
 62
     7
370
     0
100
AcDbLine
 10
78.3021180403
 20
96.0866940452
 30
0.0
 11
85.9619440088
 21
96.0866940452
 31
0.0
  0
LINE
  5
264
330
1F
100
AcDbEntity
  8
0
  6
HIDDEN
 62
     7
370
     0
100
AcDbLine
 10
85.9619440088
 20
130.0866940452
 30
0.0
 11
78.3021180403
 21
130.0866940452
 31
0.0
  0
LINE
  5
265
330
1F
100
AcDbEntity
  8
0
  6
HIDDEN
 62
     7
370
     0
100
AcDbLine
 10
56.5021180403
 20
96.0866940452
 30
0.0
 11
59.3060926365
 21
96.0866940452
 31
0.0
  0
LINE
  5
266
330
1F
100
AcDbEntity
  8
0
  6
HIDDEN
 62
     7
370
     0
100
AcDbLine
 10
59.3060926365
 20
130.0866940452
 30
0.0
 11
52.5021180403
 21
130.0866940452
 31
0.0
  0
ARC
  5
267
330
1F
100
AcDbEntity
  8
0
  6
HIDDEN
 62
     7
370
     0
100
AcDbCircle
 10
190.5021180403
 20
128.5366940452
 30
0.0
 40
0.2000000000000455
100
AcDbArc
 50
90.0
 51
180.0
  0
ARC
  5
268
330
1F
100
AcDbEntity
  8
0
  6
HIDDEN
 62
     7
370
     0
100
AcDbCircle
 10
190.5021180403
 20
97.6366940452
 30
0.0
 40
0.2000000000000313
100
AcDbArc
 50
180.0
 51
270.0
  0
LINE
  5
269
330
1F
100
AcDbEntity
  8
0
  6
HIDDEN
 62
     7
370
     0
100
AcDbLine
 10
191.7159799196
 20
128.7366940452
 30
0.0
 11
190.5021180403
 21
128.7366940452
 31
0.0
  0
LINE
  5
26A
330
1F
100
AcDbEntity
  8
0
  6
HIDDEN
 62
     7
370
     0
100
AcDbLine
 10
190.5021180403
 20
97.4366940452
 30
0.0
 11
191.7159799196
 21
97.4366940452
 31
0.0
  0
ARC
  5
26B
330
1F
100
AcDbEntity
  8
0
  6
HIDDEN
 62
     7
370
     0
100
AcDbCircle
 10
191.7159799196
 20
128.5366940452
 30
0.0
 40
0.2000000000000455
100
AcDbArc
 50
75.0
 51
90.0
  0
ARC
  5
26C
330
1F
100
AcDbEntity
  8
0
  6
HIDDEN
 62
     7
370
     0
100
AcDbCircle
 10
191.7159799196
 20
97.6366940452
 30
0.0
 40
0.2000000000000171
100
AcDbArc
 50
270.0
 51
285.0
  0
LINE
  5
26D
330
1F
100
AcDbEntity
  8
0
  6
HIDDEN
 62
     7
370
     0
100
AcDbLine
 10
191.7677437286
 20
97.4435088799
 30
0.0
 11
192.3021180403
 21
97.5866940452
 31
0.0
  0
LINE
  5
26E
330
1F
100
AcDbEntity
  8
0
  6
HIDDEN
 62
     7
370
     0
100
AcDbLine
 10
192.3021180403
 20
128.5866940452
 30
0.0
 11
191.7677437286
 21
128.7298792104
 31
0.0
  0
LINE
  5
26F
330
1F
100
AcDbEntity
  8
0
  6
HIDDEN
 62
     7
370
     0
100
AcDbLine
 10
199.5521180403
 20
128.5866940452
 30
0.0
 11
192.3021180403
 21
128.5866940452
 31
0.0
  0
LINE
  5
270
330
1F
100
AcDbEntity
  8
0
  6
HIDDEN
 62
     7
370
     0
100
AcDbLine
 10
192.3021180403
 20
97.5866940452
 30
0.0
 11
198.2061065285
 21
97.5866940452
 31
0.0
  0
LINE
  5
271
330
1F
100
AcDbEntity
  8
0
  6
HIDDEN
 62
     7
370
     0
100
AcDbLine
 10
206.0912403315
 20
128.5866940452
 30
0.0
 11
201.1521180403
 21
128.5866940452
 31
0.0
  0
LINE
  5
272
330
1F
100
AcDbEntity
  8
0
  6
HIDDEN
 62
     7
370
     0
100
AcDbLine
 10
237.5021180403
 20
128.5866940452
 30
0.0
 11
212.512995749
 21
128.5866940452
 31
0.0
  0
LINE
  5
273
330
1F
100
AcDbEntity
  8
0
  6
HIDDEN
 62
     7
370
     0
100
AcDbLine
 10
202.3983877554
 20
97.5866940452
 30
0.0
 11
237.5021180403
 21
97.5866940452
 31
0.0
  0
LINE
  5
274
330
1F
100
AcDbEntity
  8
0
  6
HIDDEN
 62
     7
370
     0
100
AcDbLine
 10
237.5021180403
 20
97.5866940452
 30
0.0
 11
238.3021180403
 21
97.1248138298
 31
0.0
  0
LINE
  5
275
330
1F
100
AcDbEntity
  8
0
  6
HIDDEN
 62
     7
370
     0
100
AcDbLine
 10
238.3021180403
 20
129.0485742605
 30
0.0
 11
237.5021180403
 21
128.5866940452
 31
0.0
  0
LINE
  5
276
330
1F
100
AcDbEntity
  8
0
  6
HIDDEN
 62
     7
370
     0
100
AcDbLine
 10
200.9521180403
 20
129.2616940452
 30
0.0
 11
199.7521180403
 21
129.2616940452
 31
0.0
  0
ARC
  5
277
330
1F
100
AcDbEntity
  8
0
  6
HIDDEN
 62
     7
370
     0
100
AcDbCircle
 10
200.9521180403
 20
129.0616940452
 30
0.0
 40
0.2000000000000455
100
AcDbArc
 50
0.0
 51
90.0
  0
ARC
  5
278
330
1F
100
AcDbEntity
  8
0
  6
HIDDEN
 62
     7
370
     0
100
AcDbCircle
 10
199.7521180403
 20
129.0616940452
 30
0.0
 40
0.2000000000000171
100
AcDbArc
 50
90.0
 51
180.0
  0
LINE
  5
279
330
1F
100
AcDbEntity
  8
0
  6
HIDDEN
 62
     7
370
     0
100
AcDbLine
 10
97.1021180403
 20
103.5866940452
 30
0.0
 11
100.1021180403
 21
103.5866940452
 31
0.0
  0
LINE
  5
27A
330
1F
100
AcDbEntity
  8
0
  6
HIDDEN
 62
     7
370
     0
100
AcDbLine
 10
100.1021180403
 20
122.5866940452
 30
0.0
 11
97.1021180403
 21
122.5866940452
 31
0.0
  0
LINE
  5
27B
330
1F
100
AcDbEntity
  8
0
  6
HIDDEN
 62
     7
370
     0
100
AcDbLine
 10
88.2521180403
 20
104.0866940452
 30
0.0
 11
88.7521180403
 21
104.5866940452
 31
0.0
  0
LINE
  5
27C
330
1F
100
AcDbEntity
  8
0
  6
HIDDEN
 62
     7
370
     0
100
AcDbLine
 10
88.7521180403
 20
121.5866940452
 30
0.0
 11
88.2521180403
 21
122.0866940452
 31
0.0
  0
LINE
  5
27D
330
1F
100
AcDbEntity
  8
0
  6
HIDDEN
 62
     7
370
     0
100
AcDbLine
 10
88.7521180403
 20
104.5866940452
 30
0.0
 11
97.1021180403
 21
104.5866940452
 31
0.0
  0
LINE
  5
27E
330
1F
100
AcDbEntity
  8
0
  6
HIDDEN
 62
     7
370
     0
100
AcDbLine
 10
97.1021180403
 20
121.5866940452
 30
0.0
 11
88.7521180403
 21
121.5866940452
 31
0.0
  0
LINE
  5
27F
330
1F
100
AcDbEntity
  8
0
  6
HIDDEN
 62
     7
370
     0
100
AcDbLine
 10
83.2521180403
 20
144.5866940452
 30
0.0
 11
83.2521180403
 21
139.4866940452
 31
0.0
  0
LINE
  5
280
330
1F
100
AcDbEntity
  8
0
  6
HIDDEN
 62
     7
370
     0
100
AcDbLine
 10
190.3021180403
 20
119.1366940452
 30
0.0
 11
189.3021180403
 21
118.1366940452
 31
0.0
  0
LINE
  5
281
330
1F
100
AcDbEntity
  8
0
  6
HIDDEN
 62
     7
370
     0
100
AcDbLine
 10
189.3021180403
 20
108.0366940452
 30
0.0
 11
190.3021180403
 21
107.0366940452
 31
0.0
  0
LINE
  5
282
330
1F
100
AcDbEntity
  8
0
  6
HIDDEN
 62
     7
370
     0
100
AcDbLine
 10
189.3021180403
 20
118.1366940452
 30
0.0
 11
185.2021180403
 21
118.1366940452
 31
0.0
  0
LINE
  5
283
330
1F
100
AcDbEntity
  8
0
  6
HIDDEN
 62
     7
370
     0
100
AcDbLine
 10
185.2021180403
 20
108.0366940452
 30
0.0
 11
189.3021180403
 21
108.0366940452
 31
0.0
  0
LINE
  5
284
330
1F
100
AcDbEntity
  8
0
  6
HIDDEN
 62
     7
370
     0
100
AcDbLine
 10
185.2021180403
 20
118.1366940452
 30
0.0
 11
184.2106980189
 21
116.4866940452
 31
0.0
  0
LINE
  5
285
330
1F
100
AcDbEntity
  8
0
  6
HIDDEN
 62
     7
370
     0
100
AcDbLine
 10
184.2106980189
 20
109.6866940452
 30
0.0
 11
185.2021180403
 21
108.0366940452
 31
0.0
  0
LINE
  5
286
330
1F
100
AcDbEntity
  8
0
  6
HIDDEN
 62
     7
370
     0
100
AcDbLine
 10
73.4865558707
 20
89.0073227116
 30
0.0
 11
73.0521237212
 21
89.4863887307
 31
0.0
  0
LINE
  5
287
330
1F
100
AcDbEntity
  8
0
  6
HIDDEN
 62
     7
370
     0
100
AcDbLine
 10
65.5521203962
 20
89.9080766899
 30
0.0
 11
65.0696866528
 21
89.4290107144
 31
0.0
  0
LINE
  5
288
330
1F
100
AcDbEntity
  8
0
  6
HIDDEN
 62
     7
370
     0
100
AcDbLine
 10
65.0695647246
 20
136.7443720855
 30
0.0
 11
65.5521154756
 21
136.2652518276
 31
0.0
  0
LINE
  5
289
330
1F
100
AcDbEntity
  8
0
  6
HIDDEN
 62
     7
370
     0
100
AcDbLine
 10
73.0521179223
 20
136.6869496053
 30
0.0
 11
73.4866603126
 21
137.1660698558
 31
0.0
  0
LINE
  5
28A
330
1F
100
AcDbEntity
  8
0
  6
HIDDEN
 62
     7
370
     0
100
AcDbLine
 10
73.0521180403
 20
89.3863291853
 30
0.0
 11
73.0521180403
 21
93.1488578545
 31
0.0
  0
LINE
  5
28B
330
1F
100
AcDbEntity
  8
0
  6
HIDDEN
 62
     7
370
     0
100
AcDbLine
 10
65.5521180403
 20
93.0872783064
 30
0.0
 11
65.5521180403
 21
89.9083999277
 31
0.0
  0
LINE
  5
28C
330
1F
100
AcDbEntity
  8
0
  6
HIDDEN
 62
     7
370
     0
100
AcDbLine
 10
73.0521180403
 20
133.0245302358
 30
0.0
 11
73.0521180403
 21
136.786980106
 31
0.0
  0
LINE
  5
28D
330
1F
100
AcDbEntity
  8
0
  6
HIDDEN
 62
     7
370
     0
100
AcDbLine
 10
65.5521180403
 20
136.2649966363
 30
0.0
 11
65.5521180403
 21
133.0861097839
 31
0.0
  0
LINE
  5
28E
330
1F
100
AcDbEntity
  8
0
  6
HIDDEN
 62
     7
370
     0
100
AcDbLine
 10
100.1021180403
 20
109.6866940452
 30
0.0
 11
184.2106980189
 21
109.6866940452
 31
0.0
  0
LINE
  5
28F
330
1F
100
AcDbEntity
  8
0
  6
HIDDEN
 62
     7
370
     0
100
AcDbLine
 10
184.2106980189
 20
116.4866940452
 30
0.0
 11
100.1021180403
 21
116.4866940452
 31
0.0
  0
LINE
  5
290
330
1F
100
AcDbEntity
  8
0
  6
HIDDEN
 62
     7
370
     0
100
AcDbLine
 10
206.0021180403
 20
133.0866940452
 30
0.0
 11
206.0021180403
 21
128.6366940452
 31
0.0
  0
LINE
  5
291
330
1F
100
AcDbEntity
  8
0
  6
HIDDEN
 62
     7
370
     0
100
AcDbLine
 10
212.6021180403
 20
128.6366940452
 30
0.0
 11
212.6021180403
 21
133.0866940452
 31
0.0
  0
LINE
  5
292
330
1F
100
AcDbEntity
  8
0
  6
HIDDEN
 62
     7
370
     0
100
AcDbLine
 10
198.2021180403
 20
97.5872302355
 30
0.0
 11
198.2021180403
 21
93.0866940452
 31
0.0
  0
LINE
  5
293
330
1F
100
AcDbEntity
  8
0
  6
HIDDEN
 62
     7
370
     0
100
AcDbLine
 10
202.4021180403
 20
93.0866940452
 30
0.0
 11
202.4021180403
 21
97.587195734
 31
0.0
  0
ARC
  5
294
330
1F
100
AcDbEntity
  8
0
  6
HIDDEN
 62
     7
370
     0
100
AcDbCircle
 10
51.1021180403
 20
135.3566940452
 30
0.0
 40
1.400000000000012
100
AcDbArc
 50
270.0
 51
301.7485287426
  0
ARC
  5
295
330
1F
100
AcDbEntity
  8
0
  6
HIDDEN
 62
     7
370
     0
100
AcDbCircle
 10
55.1021180403
 20
90.8166940452
 30
0.0
 40
1.400000000000006
100
AcDbArc
 50
42.2465410162
 51
90.0
  0
LINE
  5
296
330
1F
100
AcDbEntity
  8
0
  6
HIDDEN
 62
     7
370
     0
100
AcDbLine
 10
47.5432814984
 20
133.9478575034
 30
0.0
 11
46.4132856595
 21
132.8178616644
 31
0.0
  0
LINE
  5
297
330
1F
100
AcDbEntity
  8
0
  6
HIDDEN
 62
     7
370
     0
100
AcDbLine
 10
51.1021180403
 20
133.9566940452
 30
0.0
 11
47.6763837742
 21
133.9566940452
 31
0.0
  0
LINE
  5
298
330
1F
100
AcDbEntity
  8
0
  6
HIDDEN
 62
     7
370
     0
100
AcDbLine
 10
46.4132784754
 20
93.3555336101
 30
0.0
 11
47.5432814984
 21
92.225530587
 31
0.0
  0
LINE
  5
299
330
1F
100
AcDbEntity
  8
0
  6
HIDDEN
 62
     7
370
     0
100
AcDbLine
 10
47.6854546803
 20
92.2166940452
 30
0.0
 11
55.1021180403
 21
92.2166940452
 31
0.0
  0
LINE
  5
29A
330
1F
100
AcDbEntity
  8
0
  6
HIDDEN
 62
     7
370
     0
100
AcDbLine
 10
212.6021180403
 20
103.0901441661
 30
0.0
 11
212.6021180403
 21
105.3116940452
 31
0.0
  0
LINE
  5
29B
330
1F
100
AcDbEntity
  8
0
  6
HIDDEN
 62
     7
370
     0
100
AcDbLine
 10
206.0021180403
 20
105.3116940452
 30
0.0
 11
206.0021180403
 21
103.0866940452
 31
0.0
  0
LINE
  5
29C
330
1F
100
AcDbEntity
  8
0
  6
HIDDEN
 62
     7
370
     0
100
AcDbLine
 10
202.4021180403
 20
123.0853360907
 30
0.0
 11
202.4021180403
 21
123.0863589167
 31
0.0
  0
LINE
  5
29D
330
1F
100
AcDbEntity
  8
0
  6
HIDDEN
 62
     7
370
     0
100
AcDbLine
 10
198.2021180403
 20
123.0866940452
 30
0.0
 11
198.2021180403
 21
120.83642595
 31
0.0
  0
DIMENSION
  5
29E
330
1F
100
AcDbEntity
  8
VERMASSUNG
100
AcDbDimension
  2
*D1
 10
39.437202433
 20
81.5866940452
 30
0.0
 11
39.437202433
 21
112.6026572057
 31
0.0
 70
   160
  1
HSK A %%c<>
 71
     2
 42
-1.0
  3
SLDDIMSTYLE0
100
AcDbAlignedDimension
 13
78.6021180403
 23
144.5866940452
 33
0.0
 14
78.6021180403
 24
81.5866940452
 34
0.0
 50
90.0
100
AcDbRotatedDimension
  0
DIMENSION
  5
2AB
330
1F
100
AcDbEntity
  8
VERMASSUNG
100
AcDbDimension
  2
*D2
 10
249.2693851394
 20
97.5866940452
 30
0.0
 11
249.2693851394
 21
113.0866940452
 31
0.0
 70
   160
  1
%%c<>
 71
     2
 42
-1.0
  3
SLDDIMSTYLE0
100
AcDbAlignedDimension
 13
237.5021180403
 23
128.5866940452
 33
0.0
 14
237.5021180403
 24
97.5866940452
 34
0.0
 50
90.0
100
AcDbRotatedDimension
  0
DIMENSION
  5
2B6
330
1F
100
AcDbEntity
  8
VERMASSUNG
100
AcDbDimension
  2
*D3
 10
255.2693851394
 20
88.0866940452
 30
0.0
 11
255.2693851394
 21
113.0866940452
 31
0.0
 70
   160
  1
%%c<>
 71
     2
 42
-1.0
  3
SLDDIMSTYLE0
100
AcDbAlignedDimension
 13
236.9521180403
 23
138.0866940452
 33
0.0
 14
236.9521180403
 24
88.0866940452
 34
0.0
 50
90.0
100
AcDbRotatedDimension
  0
DIMENSION
  5
2C1
330
1F
100
AcDbEntity
  8
VERMASSUNG
100
AcDbDimension
  2
*D4
 10
238.3021180403
 20
163.5046080554
 30
0.0
 11
139.970359721
 21
163.5046080554
 31
0.0
 70
   160
 71
     2
 42
-1.0
  3
SLDDIMSTYLE0
100
AcDbAlignedDimension
 13
46.4021180403
 23
132.7773717917
 33
0.0
 14
238.3021180403
 24
132.2866940452
 34
0.0
100
AcDbRotatedDimension
  0
DIMENSION
  5
2CB
330
1F
100
AcDbEntity
  8
VERMASSUNG
100
AcDbDimension
  2
*D5
 10
238.3021180403
 20
157.5046080554
 30
0.0
 11
157.0675818218
 21
157.5046080554
 31
0.0
 70
   160
 71
     2
 42
-1.0
  3
SLDDIMSTYLE0
100
AcDbAlignedDimension
 13
78.3021180403
 23
144.2866940452
 33
0.0
 14
238.3021180403
 24
132.2866940452
 34
0.0
100
AcDbRotatedDimension
  0
DIMENSION
  5
2D5
330
1F
100
AcDbEntity
  8
VERMASSUNG
100
AcDbDimension
  2
*D6
 10
238.3021180403
 20
151.5046080554
 30
0.0
 11
171.7148950783
 21
151.5046080554
 31
0.0
 70
   160
 71
     2
 42
-1.0
  3
SLDDIMSTYLE0
100
AcDbAlignedDimension
 13
104.2521180403
 23
142.9331343689
 33
0.0
 14
238.3021180403
 24
132.2866940452
 34
0.0
100
AcDbRotatedDimension
  0
DIMENSION
  5
2DF
330
1F
100
AcDbEntity
  8
VERMASSUNG
100
AcDbDimension
  2
*D7
 10
261.2693851394
 20
87.0866940452
 30
0.0
 11
261.2693851394
 21
113.0866940452
 31
0.0
 70
   160
  1
%%c<>
 71
     2
 42
-1.0
  3
SLDDIMSTYLE0
100
AcDbAlignedDimension
 13
149.2521180403
 23
139.0866940452
 33
0.0
 14
149.2521180403
 24
87.0866940452
 34
0.0
 50
90.0
100
AcDbRotatedDimension
  0
LINE
  5
2EA
330
1F
100
AcDbEntity
  8
VERMASSUNG
  6
CENTERX2
370
     0
100
AcDbLine
 10
42.2915981083
 20
113.0866940452
 30
0.0
 11
240.7108830487
 21
113.0866940452
 31
0.0
  0
OLE2FRAME
  5
2EB
330
1F
100
AcDbEntity
  8
0
100
AcDbOle2Frame
 70
     2
  3
Bitmap Image
 10
13.8511154363
 20
38.264191557
 30
0.0
 11
51.6290888628
 21
31.9806341108
 31
0.0
 71
     2
 72
     0
 73
     1
 90
    12928
310
80552BED0767C5B32B40DDAF6807D121434000000000000000006FFBDDFB85D0
310
4940DDAF6807D121434000000000000000006FFBDDFB85D04940416F4BD60AFB
310
3F4000000000000000002BED0767C5B32B40416F4BD60AFB3F40000000000000
310
0000000000000100000000010000010000000100000000000100000000320000
310
D0CF11E0A1B11AE1000000000000000000000000000000003E000300FEFF0900
310
0600000000000000000000000100000001000000000000000010000002000000
310
01000000FEFFFFFF0000000000000000FFFFFFFFFFFFFFFFFFFFFFFFFFFFFFFF
310
FFFFFFFFFFFFFFFFFFFFFFFFFFFFFFFFFFFFFFFFFFFFFFFFFFFFFFFFFFFFFFFF
310
FFFFFFFFFFFFFFFFFFFFFFFFFFFFFFFFFFFFFFFFFFFFFFFFFFFFFFFFFFFFFFFF
310
FFFFFFFFFFFFFFFFFFFFFFFFFFFFFFFFFFFFFFFFFFFFFFFFFFFFFFFFFFFFFFFF
310
FFFFFFFFFFFFFFFFFFFFFFFFFFFFFFFFFFFFFFFFFFFFFFFFFFFFFFFFFFFFFFFF
310
FFFFFFFFFFFFFFFFFFFFFFFFFFFFFFFFFFFFFFFFFFFFFFFFFFFFFFFFFFFFFFFF
310
FFFFFFFFFFFFFFFFFFFFFFFFFFFFFFFFFFFFFFFFFFFFFFFFFFFFFFFFFFFFFFFF
310
FFFFFFFFFFFFFFFFFFFFFFFFFFFFFFFFFFFFFFFFFFFFFFFFFFFFFFFFFFFFFFFF
310
FFFFFFFFFFFFFFFFFFFFFFFFFFFFFFFFFFFFFFFFFFFFFFFFFFFFFFFFFFFFFFFF
310
FFFFFFFFFFFFFFFFFFFFFFFFFFFFFFFFFFFFFFFFFFFFFFFFFFFFFFFFFFFFFFFF
310
FFFFFFFFFFFFFFFFFFFFFFFFFFFFFFFFFFFFFFFFFFFFFFFFFFFFFFFFFFFFFFFF
310
FFFFFFFFFFFFFFFFFFFFFFFFFFFFFFFFFFFFFFFFFFFFFFFFFFFFFFFFFFFFFFFF
310
FFFFFFFFFFFFFFFFFFFFFFFFFFFFFFFFFFFFFFFFFFFFFFFFFFFFFFFFFFFFFFFF
310
FFFFFFFFFFFFFFFFFFFFFFFFFFFFFFFFFFFFFFFFFFFFFFFFFFFFFFFFFFFFFFFF
310
FDFFFFFFFEFFFFFFFEFFFFFFFEFFFFFF05000000060000000700000008000000
310
090000000A0000000B0000000C0000000D0000000E0000000F00000010000000
310
11000000120000001300000014000000150000001600000017000000FEFFFFFF
310
FFFFFFFFFFFFFFFFFFFFFFFFFFFFFFFFFFFFFFFFFFFFFFFFFFFFFFFFFFFFFFFF
310
FFFFFFFFFFFFFFFFFFFFFFFFFFFFFFFFFFFFFFFFFFFFFFFFFFFFFFFFFFFFFFFF
310
FFFFFFFFFFFFFFFFFFFFFFFFFFFFFFFFFFFFFFFFFFFFFFFFFFFFFFFFFFFFFFFF
310
FFFFFFFFFFFFFFFFFFFFFFFFFFFFFFFFFFFFFFFFFFFFFFFFFFFFFFFFFFFFFFFF
310
FFFFFFFFFFFFFFFFFFFFFFFFFFFFFFFFFFFFFFFFFFFFFFFFFFFFFFFFFFFFFFFF
310
FFFFFFFFFFFFFFFFFFFFFFFFFFFFFFFFFFFFFFFFFFFFFFFFFFFFFFFFFFFFFFFF
310
FFFFFFFFFFFFFFFFFFFFFFFFFFFFFFFFFFFFFFFFFFFFFFFFFFFFFFFFFFFFFFFF
310
FFFFFFFFFFFFFFFFFFFFFFFFFFFFFFFFFFFFFFFFFFFFFFFFFFFFFFFFFFFFFFFF
310
FFFFFFFFFFFFFFFFFFFFFFFFFFFFFFFFFFFFFFFFFFFFFFFFFFFFFFFFFFFFFFFF
310
FFFFFFFFFFFFFFFFFFFFFFFFFFFFFFFFFFFFFFFFFFFFFFFFFFFFFFFFFFFFFFFF
310
FFFFFFFFFFFFFFFFFFFFFFFFFFFFFFFFFFFFFFFFFFFFFFFFFFFFFFFFFFFFFFFF
310
FFFFFFFFFFFFFFFFFFFFFFFFFFFFFFFFFFFFFFFFFFFFFFFFFFFFFFFFFFFFFFFF
310
FFFFFFFFFFFFFFFFFFFFFFFFFFFFFFFFFFFFFFFFFFFFFFFFFFFFFFFFFFFFFFFF
310
52006F006F007400200045006E00740072007900000000000000000000000000
310
0000000000000000000000000000000000000000000000000000000000000000
310
16000500FFFFFFFFFFFFFFFF020000000A00030000000000C000000000000046
310
000000000000000000000000C04AED407BDDCB0103000000C000000000000000
310
01004F006C006500000000000000000000000000000000000000000000000000
310
0000000000000000000000000000000000000000000000000000000000000000
310
0A000200FFFFFFFFFFFFFFFFFFFFFFFF00000000000000000000000000000000
310
0000000000000000000000000000000000000000000000001400000000000000
310
010043006F006D0070004F0062006A0000000000000000000000000000000000
310
0000000000000000000000000000000000000000000000000000000000000000
310
120002010100000003000000FFFFFFFF00000000000000000000000000000000
310
0000000000000000000000000000000000000000010000004D00000000000000
310
01004F006C006500310030004E00610074006900760065000000000000000000
310
0000000000000000000000000000000000000000000000000000000000000000
310
1A000200FFFFFFFFFFFFFFFFFFFFFFFF00000000000000000000000000000000
310
0000000000000000000000000000000000000000040000002426000000000000
310
FEFFFFFF02000000FEFFFFFFFFFFFFFFFFFFFFFFFFFFFFFFFFFFFFFFFFFFFFFF
310
FFFFFFFFFFFFFFFFFFFFFFFFFFFFFFFFFFFFFFFFFFFFFFFFFFFFFFFFFFFFFFFF
310
FFFFFFFFFFFFFFFFFFFFFFFFFFFFFFFFFFFFFFFFFFFFFFFFFFFFFFFFFFFFFFFF
310
FFFFFFFFFFFFFFFFFFFFFFFFFFFFFFFFFFFFFFFFFFFFFFFFFFFFFFFFFFFFFFFF
310
FFFFFFFFFFFFFFFFFFFFFFFFFFFFFFFFFFFFFFFFFFFFFFFFFFFFFFFFFFFFFFFF
310
FFFFFFFFFFFFFFFFFFFFFFFFFFFFFFFFFFFFFFFFFFFFFFFFFFFFFFFFFFFFFFFF
310
FFFFFFFFFFFFFFFFFFFFFFFFFFFFFFFFFFFFFFFFFFFFFFFFFFFFFFFFFFFFFFFF
310
FFFFFFFFFFFFFFFFFFFFFFFFFFFFFFFFFFFFFFFFFFFFFFFFFFFFFFFFFFFFFFFF
310
FFFFFFFFFFFFFFFFFFFFFFFFFFFFFFFFFFFFFFFFFFFFFFFFFFFFFFFFFFFFFFFF
310
FFFFFFFFFFFFFFFFFFFFFFFFFFFFFFFFFFFFFFFFFFFFFFFFFFFFFFFFFFFFFFFF
310
FFFFFFFFFFFFFFFFFFFFFFFFFFFFFFFFFFFFFFFFFFFFFFFFFFFFFFFFFFFFFFFF
310
FFFFFFFFFFFFFFFFFFFFFFFFFFFFFFFFFFFFFFFFFFFFFFFFFFFFFFFFFFFFFFFF
310
FFFFFFFFFFFFFFFFFFFFFFFFFFFFFFFFFFFFFFFFFFFFFFFFFFFFFFFFFFFFFFFF
310
FFFFFFFFFFFFFFFFFFFFFFFFFFFFFFFFFFFFFFFFFFFFFFFFFFFFFFFFFFFFFFFF
310
FFFFFFFFFFFFFFFFFFFFFFFFFFFFFFFFFFFFFFFFFFFFFFFFFFFFFFFFFFFFFFFF
310
FFFFFFFFFFFFFFFFFFFFFFFFFFFFFFFFFFFFFFFFFFFFFFFFFFFFFFFFFFFFFFFF
310
010000020000000000000000000000000000000061007200650064005C003100
310
30002E0030005C0044004C004C005300680061007200650064005C003B004300
310
0100FEFF030A0000FFFFFFFF0A00030000000000C00000000000004607000000
310
5042727573680007000000504272757368000700000050427275736800F439B2
310
71000000000000000000000000004100540049002E004100430045005C004300
310
6F00720065002D005300740061007400690063003B0043003A005C0050007200
310
6F006700720061006D002000460069006C006500730020002800780038003600
310
29005C0043006F006D006D006F006E002000460069006C00650073005C004100
310
750074006F006400650073006B0020005300680061007200650064005C003B00
310
43003A005C00500072006F006700720061006D002000460069006C0065007300
310
5C004E006F0072006D0061006E005C004E0070006D005C00420069006E000000
310
43003A005C00500072006F006700720061006D002000460069006C0065007300
310
5C0053006F006C006900640057006F0072006B007300200043006F0072007000
310
5C0053006F006C006900640057006F0072006B00730020002800320029005C00
310
730065007400750070005C0069003300380036005C0073007700610063007400
310
770069007A002E006500780065000000220043003A005C00500072006F006700
310
20260000424D0E260000000000003E00000028000000B40200006E0000000100
310
01000000000000000000130B0000130B00000200000002000000000000FFFFFF
310
FFFFFFFFFFFFFFFFFFFFFFFFFFFFFFFFFFFFFFFFFFFFFFFFFFFFFFFFFFFFFFFF
310
FFFFFFFFFFFFFFFFFFFFFFFFFFFFFFFFFFFFFFFFFFFFFFFFFFFFFFFFFFFFFFFF
310
FFFFFFFFFFFFFFFFFFFFFFFFFFFFFFFFFFFFFFFFFFFFFFFFF000FFFFFFFFFFFF
310
FFFFFFFFFFFFFFFFFFFFFFFFFFFFFFFFFFFFFFFFFFFFFFFFFFFFFFFFFFFFFFFF
310
FFFFFFFFFFFFFFFFFFFFFFFFFFFFFFFFFFFFFFFFFFFFFFFFFFFFFFFFFFFFFFFF
310
FFFFFFFFFFFFFFFFFFFFFFFFFFFFFFFFF000FFFFFFFFFFFFFFFFFFFFFFFFFFFF
310
FFFFFFFFFFFFFFFFFFFFFFFFFFFFFFFFFFFFFFFFFFFFFFFFFFFFFFFFFFFFFFFF
310
FFFFFFFFFFFFFFFFFFFFFFFFFFFFFFFFFFFFFFFFFFFFFFFFFFFFFFFFFFFFFFFF
310
FFFFFFFFFFFFFFFFF000FFFFFFFFFFFFFFFFFFFFFFFFFFFFFFFFFFFFFFFFFFFF
310
FFFFFFFFFFFFFFFFFFFFFFFFFFFFFFFFFFFFFFFFFFFFFFFFFFFFFFFFFFFFFFFF
310
FFFFFFFFFFFFFFFFFFFFFFFFFFFFFFFFFFFFFFFFFFFFFFFFFFFFFFFFFFFFFFFF
310
F000FFFFFFFFFFFFFFFFFFFFFFFFFFFFFFFFFFFFFFFFFFFFFFFFFFFFFFFFFFFF
310
FFFFFFFFFFFFFFFFFFFFFFFFFFFFFFFFFFFFFFFFFFFFFFFFFFFFFFFFFFFFFFFF
310
FFFFFFFFFFFFFFFFFFFFFFFFFFFFFFFFFFFFFFFFFFFFFFFFF000FFFFFFFFFFFF
310
FFFFFFFFFFFFFFFFFFFFFFFFFFFFFFFFFFFFFFFFFFFFFFFFFFFFFFFFFFFFFFFF
310
FFFFFFFFFFFFFFFFFFFFFFFFFFFFFFFFFFFFFFFFFFFFFFFFFFFFFFFFFFFFFFFF
310
FFFFFFFFFFFFFFFFFFFFFFFFFFFFFFFFF000FFFFFFFFFFFFFFFFFFFFFFFFFFFF
310
FFFFFFFFFFFFFFFFFFFFFFFFFFFFFFFFFFFFFFFFFFFFFFFFFFFFFFFFFFFFFFFF
310
FFFFFFFFFFFFFFFFFFFFFFFFFFFFFFFFFFFFFFFFFFFFFFFFFFFFFFFFFFFFFFFF
310
FFFFFFFFFFFFFFFFF000FFFFFFFFFFFFFFFFFFFFFFFFFFFFFFFFFFFFFFFFFFFF
310
FFFFFFFFFFFFFFFFFFFFFFFFFFFFFFFFFFFFFFFFFFFFFFFFFFFFFFFFFFFFFFFF
310
FFFFFFFFFFFFFFFFFFFFFFFFFFFFFFFFFFFFFFFFFFFFFFFFFFFFFFFFFFFFFFFF
310
F000FFFFFFFFFFFFFFFFFFFFFFFFFFFFFFFFFFFFFFFFFFFFFFFFFFFFFFFFFFFF
310
FFFFFFFFFFFFFFFFFFFFFFFFFFFFFFFFFFFFFFFFFFFFFFFFFFFFFFFFFFFFFFFF
310
FFFFFFFFFFFFFFFFFFFFFFFFFFFFFFFFFFFFFFFFFFFFFFFFF000FFFFFFFFFFFF
310
FFFFFFFFFFFFFFFFFFFFFFFFFFFFFFFFFFFFFFFFFFFFFFFFFFFFFFFFFFFFFFFF
310
FFFFFFFFFFFFFFFFFFFFFFFFFFFFFFFFFFFFFFFFFFFFFFFFFFFFFFFFFFFFFFFF
310
FFFFFFFFFFFFFFFFFFFFFFFFFFFFFFFFF000FFFFFFFFFFFFFFFFFFFFFFFFFFFF
310
FFFFFFFFFFFFFFFFFFFFFFFFFFFFFFFFFFFFFFFFFFFFFFFFFFFFFFFFFFFFFFFF
310
FFFFFFFFFFFFFFFFFFFFFFFFFFFFFFFFFFFFFFFFFFFFFFFFFFFFFFFFFFFFFFFF
310
FFFFFFFFFFFFFFFFF000FFFFFFFFFFFFFFFFFFFFFFFFFFFFFFFFFFFFFFFFFFFF
310
FFFFFFFFFFFFFFFFFFFFFFFFFFFFFFFFFFFFFFFFFFFFFFFFFFFFFFFFFFFFFFFF
310
FFFFFFFFFFFFFFFFFFFFFFFFFFFFFFFFFFFFFFFFFFFFFFFFFFFFFFFFFFFFFFFF
310
F000FFFFFFFFFFFFFFFFFFFFFFFFFFFFFFFFFFFFFFFFFFFFFFFFFFFFFFFFFFFF
310
FFFFFFFFFFFFFFFFFFFFFFFFFFFFFFFFFFFFFFFFFFFFFFFFFFFFFFFFFFFFFFFF
310
FFFFFFFFFFFFFFFFFFFFFFFFFFFFFFFFFFFFFFFFFFFFFFFFF000FFFFFFFFFFFF
310
FFFFFFFFFFFFFFFFFFFFFFFFFFFFFFFFFFFFFFFFFFFFFFFFFFFFFFFFFFFFFFFF
310
FFFFFFFFFFFFFFFFFFFFFFFFFFFFFFFFFFFFFFFFFFFFFFFFFFFFFFFFFFFFFFFF
310
FFFFFFFFFFFFFFFFFFFFFFFFFFFFFFFFF000FFFFFFFFFFFFFFFFFFFFFFFFFFFF
310
FFFFFFFFFFFFFFFFFFFFFFFFFFFFFFFFFFFFFFFFFFFFFFFFFFFFFFFFFFFFFFFF
310
FFFFFFFFFFFFFFFFFFFFFFFFFFFFFFFFFFFFFFFFFFFFFFFFFFFFFFFFFFFFFFFF
310
FFFFFFFFFFFFFFFFF000FFFFFFFFFFFFFFFFFFFFFFFFFFFFFFFFFFFFFFFFFFFF
310
FFFFFFFFFFFFFFFFFFFFFFFFFFFFFFFFFFFFFFFFFFFFFFFFFFFFFFFFFFFFFFFF
310
FFFFFFFFFFFFFFFFFFFFFFFFFFFFFFFFFFFFFFFFFFFFFFFFFFFFFFFFFFFFFFFF
310
F000FFFFFFFFFFFFFFFFFFFFFFFFFFFFFFFFFFFFFFFFFFFFFFFFFFFFFFFFFFFF
310
FFFFFFFFFFFFFFFFFFFFFFFFFFFFFFFFFFFFFFFFFFFFFFFFFFFFFFFFFFFFFFFF
310
FFFFFFFFFFFFFFFFFFFFFFFFFFFFFFFFFFFFFFFFFFFFFFFFF000FFFFFFFFFFFF
310
FFFFFFFFFFFFFFFFFFFFFFFFFFFFFFFFFFFFFFFFFFFFFFFFFFFFFFFFFFFFFFFF
310
FFFFFFFFFFFFFFFFFFFFFFFFFFFFFFFFFFFFFFFFFFFFFFFFFFFFFFFFFFFFFFFF
310
FFFFFFFFFFFFFFFFFFFFFFFFFFFFFFFFF000FFFFFFFFFFFFFFFFFFFFFFFFFFFF
310
FFFFFFFFFFFFFFFFFFFFFFFFFFFFFFFFFFFFFFFFFFFFFFFFFFFFFFFFFFFFFFFF
310
FFFFFFFFFFFFFFFFFFFFFFFFFFFFFFFFFFFFFFFFFFFFFFFFFFFFFFFFFFFFFFFF
310
FFFFFFFFFFFFFFFFF000FFFFF80003FFFFFFFFFFFFFFFFFFFFFFFFFFFFFFFFFF
310
FFFFF00007FFFFFFFFFF00007FFFFFF800000000000000007FFFFFFFFFFFFFFF
310
FFFFFFFC001FFFFFFFFFFFFFFC001FFFFFFFFFFFFFFFFFFFFFFFFFFE0007FFFF
310
F000FFFF8000007FFFFFFFF8000FFFFFC0007FFFFF80007FFFFF0000007FFFFF
310
FFF8000007FFFFF800000000000000007FFFFFF0001FFFFFFFFFFFC00001FFFF
310
FFFFFFFFC00001FFFFFFFF000000000003FFFFE000007FFFF000FFFE0000000F
310
FFFFFFF0000FFFFF80007FFFFF80007FFFFC0000001FFFFFFFC0000001FFFFF8
310
00000000000000007FFFFFF0001FFFFFFFFFFE0000003FFFFFFFFFFE0000003F
310
FFFFFF000000000003FFFF0000000FFFF000FFF800000003FFFFFFF00007FFFF
310
80007FFFFF80007FFFF000000007FFFFFF000000003FFFF80000000000000000
310
7FFFFFF0001FFFFFFFFFF80000000FFFFFFFFFF80000000FFFFFFF0000000000
310
03FFFC00000003FFF000FFE000000000FFFFFFF00007FFFF80003FFFFF80007F
310
FFC000000001FFFFFC000000001FFFF800000000000000007FFFFFF0001FFFFF
310
FFFFE000000003FFFFFFFFE000000003FFFFFF000000000003FFF000000000FF
310
F000FF80000000007FFFFFF00007FFFF80003FFFFF80007FFF8000000000FFFF
310
F80000000007FFF800000000000000007FFFFFF0001FFFFFFFFFC000000001FF
310
FFFFFFC000000001FFFFFF000000000003FFC0000000007FF000FF0000000000
310
3FFFFFE00007FFFF00003FFFFF80007FFE00000000003FFFF00000000003FFF8
310
00000000000000007FFFFFF0001FFFFFFFFF8000000000FFFFFFFF8000000000
310
FFFFFF000000000003FF80000000003FF000FE00000000001FFFFFE00003FFFF
310
00003FFFFF80007FFC00000000001FFFE00000000001FFF8000001FFFE000000
310
7FFFFFF0001FFFFFFFFE00000000003FFFFFFE00000000003FFFFF0000000000
310
03FF00000000001FF000FC00000000000FFFFFE00003FFFF00001FFFFF80007F
310
F800000000001FFFC00000000000FFF8000001FFFE0000007FFFFFF0001FFFFF
310
FFFC00000000001FFFFFFC00000000001FFFFF000000000003FE00000000000F
310
F000F8000000000007FFFFE00003FFFF00001FFFFF80007FF800000000000FFF
310
800000000000FFF8000001FFFE0000007FFFFFF0001FFFFFFFF800000000000F
310
FFFFF800000000000FFFFF000000000003FC000000000007F000F80000000000
310
03FFFFC00003FFFE00001FFFFF80007FF0000000000007FF0000000000007FF8
310
000001FFFE0000007FFFFFF0001FFFFFFFF0000000000007FFFFF00000000000
310
07FFFF000000000003F8000000000003F000F0000000000003FFFFC00001FFFE
310
00001FFFFF80007FE0000000000007FE0000000000003FF8000001FFFE000000
310
7FFFFFF0001FFFFFFFF0000000000007FFFFF0000000000007FFFF0000000000
310
03F800001F800003F000E00001FFF00001FFFFC00001FFFE00000FFFFF80007F
310
E00001FFE00003FE00001FFF00003FF8000001FFFE0000007FFFFFF0001FFFFF
310
FFE000003E000003FFFFE000003E000003FFFF000000000003F00001FFF80001
310
F000E00007FFFC0001FFFFC00001FFFE00000FFFFF80007FC0000FFFFC0003FC
310
0000FFFFC0001FF8000001FFFE0000007FFFFFF0001FFFFFFFC00003FFE00001
310
FFFFC00003FFE00001FFFF0001FFFFFFFFF00007FFFE0001F000E0000FFFFF00
310
00FFFF800001FFFC00000FFFFF80007FC0001FFFFE0001FC0001FFFFE0001FF8
310
000001FFFE0000007FFFFFF0001FFFFFFF80000FFFF80000FFFF80000FFFF800
310
00FFFF0003FFFFFFFFE0000FFFFF8000F000C0003FFFFF8000FFFF800000FFFC
310
000007FFFF80007F80003FFFFF0001FC0003FFFFF0001FF8000001FFFE000000
310
7FFFFFF0001FFFFFFF80003FFFFE0000FFFF80003FFFFE0000FFFF0003FFFFFF
310
FFE0003FFFFF8000F000C0003FFFFF8000FFFF800000FFFC000007FFFF80007F
310
80007FFFFF8001F80007FFFFF8000FF8000001FFFE0000007FFFFFF0001FFFFF
310
FF00007FFFFF00007FFF00007FFFFF00007FFF0003FFFFFFFFE0003FFFFFC000
310
F000C0007FFFFFC000FFFF000000FFFC000007FFFF80007F8000FFFFFF8000F8
310
000FFFFFF8000FF8000001FFFE0000007FFFFFF0001FFFFFFF0000FFFFFF8000
310
7FFF0000FFFFFF80007FFF0003FFFFFFFFC0007FFFFFC00070008000FFFFFFC0
310
00FFFF000000FFF8000007FFFF80007F8000FFFFFF8000F8000FFFFFF8000FF8
310
000001FFFE0000007FFFFFF0001FFFFFFE0001FFFFFFC0003FFE0001FFFFFFC0
310
003FFF0003FFFFFFFFC0007FFFFFE00070008000FFFFFFC0007FFF0000007FF8
310
000003FFFF80007F0001FFFFFF8000F8000FFFFFF8000FF8000001FFFE000000
310
7FFFFFF0001FFFFFFE0001FFFFFFC0003FFE0001FFFFFFC0003FFF0003FFFFFF
310
FFC000FFFFFFE00070008000FFFFFFC0007FFF0000007FF8000003FFFF80007F
310
0001FFFFFF8000F8001FFFFFF8000FF8000001FFFE0000007FFFFFF0001FFFFF
310
FE0003FFFFFFE0003FFE0003FFFFFFE0003FFF0003FFFFFFFFC000FFFFFFE000
310
70008000FFFFFFC0007FFE0000007FF8000003FFFF80007F0001FFFFFF8000F0
310
001FFFFFF8000FF8000001FFFE0000007FFFFFF0001FFFFFFC0003FFFFFFE000
310
1FFC0003FFFFFFE0001FFF0003FFFFFFFFC000FFFFFFC00070008000FFFFFF80
310
007FFE0000007FF0000003FFFF80007F0001FFFFFF0000F0001FFFFFF8000FF8
310
000001FFFE0000007FFFFFF0001FFFFFFC0007FFFFFFF0001FFC0007FFFFFFF0
310
001FFF0003FFFFFFFFC000FFFFFFC00070008001FFFFFF0000FFFE0000003FF0
310
000001FFFF80007F0001FFFFFF0000F8001FFFFFF0000FF8000001FFFE000000
310
7FFFFFF0001FFFFFFC0007FFFFFFF0001FFC0007FFFFFFF0001FFF0003FFFFFF
310
FFC001FFFFFF80007000FFFFFFFFFE0000FFFE0008003FF0008001FFFF80007F
310
FFFFFFFFFC0000FFFFFFFFFFE0000FF8000001FFFE0000007FFFFFF0001FFFFF
310
F8000FFFFFFFF8000FF8000FFFFFFFF8000FFF0003FFFFFFFFFFFFFFFFFF0000
310
7000FFFFFFFFFC0000FFFC0008003FF0008001FFFF80007FFFFFFFFFF80001FF
310
FFFFFFFF80000FF8000001FFFE0000007FFFFFF0001FFFFFF8000FFFFFFFF800
310
0FF8000FFFFFFFF8000FFF0003FFFFFFFFFFFFFFFFFE0000F000FFFFFFFFE000
310
00FFFC000C003FE000C001FFFF80007FFFFFFFFFC00001FFFFFFFFFE00001FF8
310
000001FFFE0000007FFFFFF0001FFFFFF8000FFFFFFFF8000FF8000FFFFFFFF8
310
000FFF0003FFFFFFFFFFFFFFFFF00000F000FFFFFFFE000001FFFC000C001FE0
310
00C000FFFF80007FFFFFFFFE000001FFFFFFFFE000001FF80FFFFFFFFFFFFFC0
310
7FFFFFF0001FFFFFF8000FFFFFFFF8000FF8000FFFFFFFF8000FFF0003FFFFFF
310
FFFFFFFFFF800000F000FFFFFFC0000001FFFC001C001FE001C000FFFF80007F
310
FFFFFF80000003FFFFFFF80000001FF80FFFFFFFFFFFFFC07FFFFFF0001FFFFF
310
F8001FFFFFFFFC000FF8001FFFFFFFFC000FFF0003FFFFFFFFFFFFFFF0000001
310
F000FFFFF800000001FFF8001C001FE001C000FFFF80007FFFFFF800000003FF
310
FFFF800000003FF80FFFFFFFFFFFFFC07FFFFFF0001FFFFFF8001FFFFFFFFC00
310
0FF8001FFFFFFFFC000FFF0003FFFFFFFFFFFFFE00000001F000FFFFC0000000
310
03FFF8001E001FC001E000FFFF80007FFFFF8000000007FFFFFC000000003FF8
310
0FFFFFFFFFFFFFC07FFFFFF0001FFFFFF8001FFFFFFFFC000FF8001FFFFFFFFC
310
000FFF0003FFFFFFFFFFFFE000000003F000FFFE0000000007FFF8001E000FC0
310
01E0007FFF80007FFFFE0000000007FFFFE0000000007FF80FFFFFFFFFFFFFC0
310
7FFFFFF0001FFFFFF0001FFFFFFFFC0007F0001FFFFFFFFC0007FF0003FFFFFF
310
FFFFFF0000000003F000FFF80000000007FFF8001E000FC003E0007FFF80007F
310
FFF0000000000FFFFF8000000000FFF80FFFFFFFFFFFFFC07FFFFFF0001FFFFF
310
F0001FFFFFFFFC0007F0001FFFFFFFFC0007FF0003FFFFFFFFFFFC0000000007
310
F000FFE0000000000FFFF0003E000FC003E0007FFF80007FFFC0000000001FFF
310
FE0000000001FFF80FFFFFFFFFFFFFC07FFFFFF0001FFFFFF0001FFFFFFFFC00
310
07F0001FFFFFFFFC0007FF0003FFFFFFFFFFF0000000000FF000FFC000000000
310
1FFFF0003F000F8003F0003FFF80007FFF80000000003FFFF80000000003FFF8
310
0FFFFFFFFFFFFFC07FFFFFF0001FFFFFF0001FFFFFFFFC0007F0001FFFFFFFFC
310
0007FF0003FFFFFFFFFFE0000000001FF000FF00000000007FFFF0003F000780
310
03F0003FFF80007FFF00000000007FFFF00000000007FFF80FFFFFFFFFFFFFC0
310
7FFFFFF0001FFFFFF0001FFFFFFFFC0007F0001FFFFFFFFC0007FF0003FFFFFF
310
FFFF80000000007FF000FE0000000000FFFFE0003F00078007F0003FFF80007F
310
FE0000000001FFFFE0000000001FFFF80FFFFFFFFFFFFFC07FFFFFF0001FFFFF
310
F0001FFFFFFFFC0007F0001FFFFFFFFC0007FF0003FFFFFFFFFF0000000000FF
310
F000FC0000000003FFFFE0007F00078007F0003FFF80007FFC0000000007FFFF
310
C0000000007FFFF80FFFFFFFFFFFFFC07FFFFFF0001FFFFFF8001FFFFFFFFC00
310
0FF8001FFFFFFFFC000FFF0003FFFFFFFFFE0000000003FFF000FC000000000F
310
FFFFE0007F80070007F8001FFF80007FF8000000001FFFFF8000000001FFFFF8
310
0FFFFFFFFFFFFFC07FFFFFF0001FFFFFF8001FFFFFFFFC000FF8001FFFFFFFFC
310
000FFF0003FFFFFFFFFC000000000FFFF000F8000000007FFFFFE0007F800700
310
07F8001FFF80007FF000000000FFFFFF800000000FFFFFF80FFFFFFFFFFFFFC0
310
7FFFFFF0001FFFFFF8000FFFFFFFF8000FF8000FFFFFFFF8000FFF0003FFFFFF
310
FFFC000000007FFFF000F800000007FFFFFFC0007F8003000FF8001FFF80007F
310
F000000007FFFFFF000000007FFFFFF80FFFFFFFFFFFFFC07FFFFFF0001FFFFF
310
F8000FFFFFFFF8000FF8000FFFFFFFF8000FFF0003FFFFFFFFF80000000FFFFF
310
F000F0000000FFFFFFFFC000FF8003000FF8001FFF80007FE0000000FFFFFFFF
310
0000000FFFFFFFF8000001FFFE0000007FFFFFF0001FFFFFF8000FFFFFFFF800
310
0FF8000FFFFFFFF8000FFF0003FFFFFFFFF8000000FFFFFFF000F000000FFFFF
310
FFFFC000FFC002000FF8000FFF80007FE000001FFFFFFFFE000001FFFFFFFFF8
310
000001FFFE0000007FFFFFF0001FFFFFF8000FFFFFFFF8000FF8000FFFFFFFF8
310
000FFF0003FFFFFFFFF000001FFFFFFFF000E00000FFFFFFFFFFC000FFC00200
310
0FFC000FFF80007FE00001FFFFFFFFFE00001FFFFFFFFFF8000001FFFE000000
310
7FFFFFF0001FFFFFFC000FFFFFFFF8001FFC000FFFFFFFF8001FFF0003FFFFFF
310
FFF00001FFFFFFFFF000E00007FFFFFFFFFF8000FFC000001FFC000FFF80007F
310
C0000FFFFFFFFFFE0000FFFFFFFFFFF8000001FFFE0000007FFFFFF0001FFFFF
310
FC0007FFFFFFF0001FFC0007FFFFFFF0001FFF0003FFFFFFFFF00007FFFFFFFF
310
F000E0001FFFFFFFFFFF8000FFC000001FFC000FFF80007FC0003FFFFFFFFFFE
310
0001FFFFFFFFFFF8000001FFFE0000007FFFFFF0001FFFFFFC0007FFFFFFF000
310
1FFC0007FFFFFFF0001FFF0003FFFFFFFFF0001FFFFFFFFFF000E0003FFFFF00
310
03FF8001FFE000001FFC0007FF80007FC0007FFFFF0007FC0003FFFFF0003FF8
310
000001FFFE0000007FFFFFF0001FFFFFFC0003FFFFFFE0001FFC0003FFFFFFE0
310
001FFF0003FFFFFFFFF0003FFFFFFFFFF000E0003FFFFF0001FF8001FFE00000
310
1FFE0007FF80007FC0007FFFFE0003FC0007FFFFE0003FF8000001FFFE000000
310
7FFFFFF0001FFFFFFE0003FFFFFFE0003FFE0003FFFFFFE0003FFF0003FFFFFF
310
FFF0003FFFFF8001F000E0003FFFFF0001FF0001FFE000001FFE0007FF80007F
310
C0007FFFFE0003FC0007FFFFE0003FF8000001FFFE0000007FFFFFF0001FFFFF
310
FE0001FFFFFFC0003FFE0001FFFFFFC0003FFF0003FFFFFFFFF0003FFFFF0001
310
F000E0003FFFFF0003FF0001FFE000003FFE0007FF80007FC0007FFFFE0003FC
310
0007FFFFE0003FF8000001FFFE0000007FFFFFF0001FFFFFFF0001FFFFFFC000
310
7FFF0001FFFFFFC0007FFF0003FFFFFFFFF0003FFFFF0001F000E0003FFFFE00
310
03FF0003FFF000003FFE0003FF80007FC0007FFFFC0003FE0007FFFFE0003FF8
310
000001FFFE0000007FFFFFF0001FFFFFFF0000FFFFFF80007FFF0000FFFFFF80
310
007FFF0003FFFFFFFFF0003FFFFF0001F000E0003FFFFE0003FF0003FFF00000
310
3FFF0003FF80007FC0007FFFFC0007FE0007FFFFC0003FF8000001FFFE000000
310
7FFFFFF0001FFFFFFF80007FFFFF0000FFFF80007FFFFF0000FFFF0003FFFFFF
310
FFF0003FFFFF0003F000E0003FFFFC0003FE0003FFF000003FFF0003FF80007F
310
E0003FFFF80007FE0003FFFFC0007FF8000001FFFE0000007FFFFFF0001FFFFF
310
FF80003FFFFE0000FFFF80003FFFFE0000FFFF0003FFFFFFFFF0001FFFFE0003
310
F000F0001FFFF80003FE0003FFF000007FFF0001FF80007FE0003FFFF00007FE
310
0001FFFF80007FF8000001FFFE0000007FFFFFF0001FFFFFFFC0000FFFF80001
310
FFFFC0000FFFF80001FFFF0003FFFFFFFFF0001FFFFC0003F000F0000FFFF000
310
07FE0007FFF800007FFF0001FF80007FE0001FFFE00007FF0000FFFE00007FF8
310
000001FFFE0000007FFFFFF0001FFFFFFFC00003FFE00001FFFFC00003FFE000
310
01FFFF0003FFFFFFFFF8000FFFF80003F000F00003FFC00007FC0007FFF80000
310
7FFF8001FF80007FF00007FF80000FFF00007FF80000FFF8000001FFFE000000
310
7F80000000000001FFE000003E000003FFFFE000003E000003FFFF0003FFFFFF
310
FFF80003FFE00007F000F800000000000FFC0007FFF800007FFF8001FF80007F
310
F000000000000FFF000000000000FFF8000001FFFE0000007F80000000000001
310
FFF0000000000007FFFFF0000000000007FFFF0003FFFFFFFFFC00007E000007
310
F000F800000000000FFC0007FFF80000FFFF8000FF80007FF800000000001FFF
310
800000000001FFF8000001FFFE0000007F80000000000001FFF800000000000F
310
FFFFF800000000000FFFFF0003FFFFFFFFFC00000000000FF000FC0000000000
310
1FFC0007FFFC0000FFFF8000FF80007FF800000000003FFFC00000000001FFF8
310
000001FFFE0000007F80000000000001FFF800000000000FFFFFF80000000000
310
0FFFFF0003FFFFFFFFFE00000000001FF000FE00000000003FF8000FFFFC0000
310
FFFF8000FF80007FFC00000000003FFFC00000000003FFF8000001FFFE000000
310
7F80000000000001FFFC00000000001FFFFFFC00000000001FFFFF0003FFFFFF
310
FFFF00000000001FF000FF00000000003FF8000FFFFC0000FFFFC000FF80007F
310
FE00000000007FFFE00000000007FFF8000001FFFE0000007F80000000000001
310
FFFE00000000003FFFFFFE00000000003FFFFF0003FFFFFFFFFF80000000003F
310
F000FF80000000007FF8000FFFFC0001FFFFC0007F80007FFF0000000000FFFF
310
F0000000000FFFF800000000000000007F80000000000001FFFF8000000000FF
310
FFFFFF8000000000FFFFFF0003FFFFFFFFFFC0000000007FF000FFC000000000
310
FFF8000FFFFE0001FFFFC0007F80007FFF8000000001FFFFF8000000001FFFF8
310
00000000000000007F80000000000001FFFFC000000001FFFFFFFFC000000001
310
FFFFFF0003FFFFFFFFFFE000000000FFF000FFE000000003FFF0001FFFFE0001
310
FFFFC0007F80007FFFC000000007FFFFFE000000003FFFF80000000000000000
310
7F80000000000001FFFFE000000003FFFFFFFFE000000003FFFFFF0003FFFFFF
310
FFFFF000000003FFF000FFF80000000FFFF0001FFFFE0001FFFFE0007F80007F
310
FFF00000000FFFFFFF00000000FFFFF800000000000000007F80000000000001
310
FFFFF80000000FFFFFFFFFF80000000FFFFFFF0003FFFFFFFFFFFC0000000FFF
310
F000FFFE0000003FFFF0001FFFFE0003FFFFE0003F80007FFFFC0000003FFFFF
310
FFC0000003FFFFF800000000000000007F80000000000001FFFFFE0000003FFF
310
FFFFFFFE0000003FFFFFFF0003FFFFFFFFFFFF0000003FFFF000FFFF800000FF
310
FFF0001FFFFF0003FFFFE0003F80007FFFFF000001FFFFFFFFF800001FFFFFF8
310
00000000000000007F80000000000001FFFFFFC00001FFFFFFFFFFFFC00001FF
310
FFFFFF0003FFFFFFFFFFFFC00000FFFFF000FFFFF8000FFFFFFFFFFFFFFFFFFF
310
FFFFFFFFFFFFFFFFFFFFF0001FFFFFFFFFFF0000FFFFFFF80000000000000000
310
7FFFFFFFFFFFFFFFFFFFFFFC001FFFFFFFFFFFFFFC001FFFFFFFFFFFFFFFFFFF
310
FFFFFFFC001FFFFFF000FFFFFFFFFFFFFFFFFFFFFFFFFFFFFFFFFFFFFFFFFFFF
310
FFFFFFFFFFFFFFFFFFFFFFFFFFFFFFFFFFFFFFFFFFFFFFFFFFFFFFFFFFFFFFFF
310
FFFFFFFFFFFFFFFFFFFFFFFFFFFFFFFFFFFFFFFFFFFFFFFFFFFFFFFFFFFFFFFF
310
F000FFFFFFFFFFFFFFFFFFFFFFFFFFFFFFFFFFFFFFFFFFFFFFFFFFFFFFFFFFFF
310
FFFFFFFFFFFFFFFFFFFFFFFFFFFFFFFFFFFFFFFFFFFFFFFFFFFFFFFFFFFFFFFF
310
FFFFFFFFFFFFFFFFFFFFFFFFFFFFFFFFFFFFFFFFFFFFFFFFF000FFFFFFFFFFFF
310
FFFFFFFFFFFFFFFFFFFFFFFFFFFFFFFFFFFFFFFFFFFFFFFFFFFFFFFFFFFFFFFF
310
FFFFFFFFFFFFFFFFFFFFFFFFFFFFFFFFFFFFFFFFFFFFFFFFFFFFFFFFFFFFFFFF
310
FFFFFFFFFFFFFFFFFFFFFFFFFFFFFFFFF000FFFFFFFFFFFFFFFFFFFFFFFFFFFF
310
FFFFFFFFFFFFFFFFFFFFFFFFFFFFFFFFFFFFFFFFFFFFFFFFFFFFFFFFFFFFFFFF
310
FFFFFFFFFFFFFFFFFFFFFFFFFFFFFFFFFFFFFFFFFFFFFFFFFFFFFFFFFFFFFFFF
310
FFFFFFFFFFFFFFFFF000FFFFFFFFFFFFFFFFFFFFFFFFFFFFFFFFFFFFFFFFFFFF
310
FFFFFFFFFFFFFFFFFFFFFFFFFFFFFFFFFFFFFFFFFFFFFFFFFFFFFFFFFFFFFFFF
310
FFFFFFFFFFFFFFFFFFFFFFFFFFFFFFFFFFFFFFFFFFFFFFFFFFFFFFFFFFFFFFFF
310
F000FFFFFFFFFFFFFFFFFFFFFFFFFFFFFFFFFFFFFFFFFFFFFFFFFFFFFFFFFFFF
310
FFFFFFFFFFFFFFFFFFFFFFFFFFFFFFFFFFFFFFFFFFFFFFFFFFFFFFFFFFFFFFFF
310
FFFFFFFFFFFFFFFFFFFFFFFFFFFFFFFFFFFFFFFFFFFFFFFFF000FFFFFFFFFFFF
310
FFFFFFFFFFFFFFFFFFFFFFFFFFFFFFFFFFFFFFFFFFFFFFFFFFFFFFFFFFFFFFFF
310
FFFFFFFFFFFFFFFFFFFFFFFFFFFFFFFFFFFFFFFFFFFFFFFFFFFFFFFFFFFFFFFF
310
FFFFFFFFFFFFFFFFFFFFFFFFFFFFFFFFF000FFFFFFFFFFFFFFFFFFFFFFFFFFFF
310
FFFFFFFFFFFFFFFFFFFFFFFFFFFFFFFFFFFFFFFFFFFFFFFFFFFFFFFFFFFFFFFF
310
FFFFFFFFFFFFFFFFFFFFFFFFFFFFFFFFFFFFFFFFFFFFFFFFFFFFFFFFFFFFFFFF
310
FFFFFFFFFFFFFFFFF000FFFFFFFFFFFFFFFFFFFFFFFFFFFFFFFFFFFFFFFFFFFF
310
FFFFFFFFFFFFFFFFFFFFFFFFFFFFFFFFFFFFFFFFFFFFFFFFFFFFFFFFFFFFFFFF
310
FFFFFFFFFFFFFFFFFFFFFFFFFFFFFFFFFFFFFFFFFFFFFFFFFFFFFFFFFFFFFFFF
310
F000FFFFFFFFFFFFFFFFFFFFFFFFFFFFFFFFFFFFFFFFFFFFFFFFFFFFFFFFFFFF
310
FFFFFFFFFFFFFFFFFFFFFFFFFFFFFFFFFFFFFFFFFFFFFFFFFFFFFFFFFFFFFFFF
310
FFFFFFFFFFFFFFFFFFFFFFFFFFFFFFFFFFFFFFFFFFFFFFFFF000FFFFFFFFFFFF
310
FFFFFFFFFFFFFFFFFFFFFFFFFFFFFFFFFFFFFFFFFFFFFFFFFFFFFFFFFFFFFFFF
310
FFFFFFFFFFFFFFFFFFFFFFFFFFFFFFFFFFFFFFFFFFFFFFFFFFFFFFFFFFFFFFFF
310
FFFFFFFFFFFFFFFFFFFFFFFFFFFFFFFFF000FFFFFFFFFFFFFFFFFFFFFFFFFFFF
310
FFFFFFFFFFFFFFFFFFFFFFFFFFFFFFFFFFFFFFFFFFFFFFFFFFFFFFFFFFFFFFFF
310
FFFFFFFFFFFFFFFFFFFFFFFFFFFFFFFFFFFFFFFFFFFFFFFFFFFFFFFFFFFFFFFF
310
FFFFFFFFFFFFFFFFF000FFFFFFFFFFFFFFFFFFFFFFFFFFFFFFFFFFFFFFFFFFFF
310
FFFFFFFFFFFFFFFFFFFFFFFFFFFFFFFFFFFFFFFFFFFFFFFFFFFFFFFFFFFFFFFF
310
FFFFFFFFFFFFFFFFFFFFFFFFFFFFFFFFFFFFFFFFFFFFFFFFFFFFFFFFFFFFFFFF
310
F000FFFFFFFFFFFFFFFFFFFFFFFFFFFFFFFFFFFFFFFFFFFFFFFFFFFFFFFFFFFF
310
FFFFFFFFFFFFFFFFFFFFFFFFFFFFFFFFFFFFFFFFFFFFFFFFFFFFFFFFFFFFFFFF
310
FFFFFFFFFFFFFFFFFFFFFFFFFFFFFFFFFFFFFFFFFFFFFFFFF000FFFFFFFFFFFF
310
FFFFFFFFFFFFFFFFFFFFFFFFFFFFFFFFFFFFFFFFFFFFFFFFFFFFFFFFFFFFFFFF
310
FFFFFFFFFFFFFFFFFFFFFFFFFFFFFFFFFFFFFFFFFFFFFFFFFFFFFFFFFFFFFFFF
310
FFFFFFFFFFFFFFFFFFFFFFFFFFFFFFFFF000FFFFFFFFFFFFFFFFFFFFFFFFFFFF
310
FFFFFFFFFFFFFFFFFFFFFFFFFFFFFFFFFFFFFFFFFFFFFFFFFFFFFFFFFFFFFFFF
310
FFFFFFFFFFFFFFFFFFFFFFFFFFFFFFFFFFFFFFFFFFFFFFFFFFFFFFFFFFFFFFFF
310
FFFFFFFFFFFFFFFFF000FFFFFFFFFFFFFFFFFFFFFFFFFFFFFFFFFFFFFFFFFFFF
310
FFFFFFFFFFFFFFFFFFFFFFFFFFFFFFFFFFFFFFFFFFFFFFFFFFFFFFFFFFFFFFFF
310
FFFFFFFFFFFFFFFFFFFFFFFFFFFFFFFFFFFFFFFFFFFFFFFFFFFFFFFFFFFFFFFF
310
F000FFFFFFFFFFFFFFFFFFFFFFFFFFFFFFFFFFFFFFFFFFFFFFFFFFFFFFFFFFFF
310
FFFFFFFFFFFFFFFFFFFFFFFFFFFFFFFFFFFFFFFFFFFFFFFFFFFFFFFFFFFFFFFF
310
FFFFFFFFFFFFFFFFFFFFFFFFFFFFFFFFFFFFFFFFFFFFFFFFF000FFFFFFFFFFFF
310
FFFFFFFFFFFFFFFFFFFFFFFFFFFFFFFFFFFFFFFFFFFFFFFFFFFFFFFFFFFFFFFF
310
FFFFFFFFFFFFFFFFFFFFFFFFFFFFFFFFFFFFFFFFFFFFFFFFFFFFFFFFFFFFFFFF
310
FFFFFFFFFFFFFFFFFFFFFFFFFFFFFFFFF000FFFFFFFFFFFFFFFFFFFFFFFFFFFF
310
FFFFFFFFFFFFFFFFFFFFFFFFFFFFFFFFFFFFFFFFFFFFFFFFFFFFFFFFFFFFFFFF
310
FFFFFFFFFFFFFFFFFFFFFFFFFFFFFFFFFFFFFFFFFFFFFFFFFFFFFFFFFFFFFFFF
310
FFFFFFFFFFFFFFFFF000FFFFFFFFFFFFFFFFFFFFFFFFFFFFFFFFFFFFFFFFFFFF
310
FFFFFFFFFFFFFFFFFFFFFFFFFFFFFFFFFFFFFFFFFFFFFFFFFFFFFFFFFFFFFFFF
310
FFFFFFFFFFFFFFFFFFFFFFFFFFFFFFFFFFFFFFFFFFFFFFFFFFFFFFFFFFFFFFFF
310
F000FFFFFFFFFFFFFFFFFFFFFFFFFFFFFFFFFFFFFFFFFFFFFFFFFFFFFFFFFFFF
310
FFFFFFFFFFFFFFFFFFFFFFFFFFFFFFFFFFFFFFFFFFFFFFFFFFFFFFFFFFFFFFFF
310
FFFFFFFFFFFFFFFFFFFFFFFFFFFFFFFFFFFFFFFFFFFFFFFFF000FFFFFFFFFFFF
310
FFFFFFFFFFFFFFFFFFFFFFFFFFFFFFFFFFFFFFFFFFFFFFFFFFFFFFFFFFFFFFFF
310
FFFFFFFFFFFFFFFFFFFFFFFFFFFFFFFFFFFFFFFFFFFFFFFFFFFFFFFFFFFFFFFF
310
FFFFFFFFFFFFFFFFFFFFFFFFFFFFFFFFF0000000000000000000000000000000
310
0000000000000000000000000000000000000000000000000000000000000000
310
0000000000000000000000000000000000000000000000000000000000000000
310
0000000000000000000000000000000000000000000000000000000000000000
310
000000000000000052006500670075006C006100720000000000000000000000
310
0000000000000000000000000000000000000000000000000000000000000000
310
00000000000000000000FFFFFFFFFFFFFFFFFFFFFFFFFFFFFFFFFFFFFFFFFFFF
310
FFFFFFFFFFFFFF00000000000000000000000000000000000000000000000000
310
00000000000000006476000800000000000000001EFF1F203000000024000000
310
0C00000010000000020000002900000073000000900100000000000060000000
310
6000000020001E201F0020000000000700FFFFFF4000000000080000150C0000
310
3F0A0000000000000000000000000000000000000000000000000000616C0008
310
00000000E401000070010000040000002D000000120000000000000000000000
310
90010000000000000302010247006F0074006800690063004900000000000000
310
0000000000000000000000000000000000000000000000000000000000000000
310
00000000000000000000000047006F0074006800690063004900000000000000
  1
OLE
  0
ENDSEC
  0
SECTION
  2
OBJECTS
  0
DICTIONARY
  5
C
330
0
100
AcDbDictionary
281
     1
  3
ACAD_GROUP
350
D
  3
ACAD_LAYOUT
350
1A
  3
ACAD_MLEADERSTYLE
350
2ED
  3
ACAD_MLINESTYLE
350
17
  3
ACAD_PLOTSETTINGS
350
19
  3
ACAD_PLOTSTYLENAME
350
E
  3
ACAD_TABLESTYLE
350
2EC
  3
ACAD_VISUALSTYLE
350
2A
  3
AcDbVariableDictionary
350
2EE
  0
DICTIONARY
  5
D
102
{ACAD_REACTORS
330
C
102
}
330
C
100
AcDbDictionary
281
     1
  0
DICTIONARY
  5
1A
102
{ACAD_REACTORS
330
C
102
}
330
C
100
AcDbDictionary
281
     1
  3
Layout1
350
1E
  3
Layout2
350
26
  3
Model
350
22
  0
DICTIONARY
  5
2ED
102
{ACAD_REACTORS
330
C
102
}
330
C
100
AcDbDictionary
281
     1
  0
DICTIONARY
  5
17
102
{ACAD_REACTORS
330
C
102
}
330
C
100
AcDbDictionary
281
     1
  3
Standard
350
18
  0
DICTIONARY
  5
19
102
{ACAD_REACTORS
330
C
102
}
330
C
100
AcDbDictionary
281
     1
  0
ACDBDICTIONARYWDFLT
  5
E
102
{ACAD_REACTORS
330
C
102
}
330
C
100
AcDbDictionary
281
     1
  3
Normal
350
F
100
AcDbDictionaryWithDefault
340
F
  0
DICTIONARY
  5
2EC
102
{ACAD_REACTORS
330
C
102
}
330
C
100
AcDbDictionary
281
     1
  0
DICTIONARY
  5
2A
102
{ACAD_REACTORS
330
C
102
}
330
C
100
AcDbDictionary
281
     1
  3
2dWireframe
350
2F
  3
3D Hidden
350
31
  3
3dWireframe
350
30
  3
Basic
350
32
  3
Brighten
350
36
  3
ColorChange
350
3A
  3
Conceptual
350
34
  3
Dim
350
35
  3
Facepattern
350
39
  3
Flat
350
2B
  3
FlatWithEdges
350
2C
  3
Gouraud
350
2D
  3
GouraudWithEdges
350
2E
  3
Linepattern
350
38
  3
Realistic
350
33
  3
Thicken
350
37
  0
DICTIONARY
  5
2EE
102
{ACAD_REACTORS
330
C
102
}
330
C
100
AcDbDictionary
281
     1
  3
PSOLHEIGHT
350
2F0
  3
PSOLWIDTH
350
2EF
  0
LAYOUT
  5
1E
102
{ACAD_REACTORS
330
1A
102
}
330
1A
100
AcDbPlotSettings
  1

  2
none_device
  4

  6

 40
0.0
 41
0.0
 42
0.0
 43
0.0
 44
0.0
 45
0.0
 46
0.0
 47
0.0
 48
0.0
 49
0.0
140
0.0
141
0.0
142
1.0
143
1.0
 70
   688
 72
     0
 73
     0
 74
     5
  7

 75
    16
147
1.0
148
0.0
149
0.0
100
AcDbLayout
  1
Layout1
 70
     1
 71
     1
 10
0.0
 20
0.0
 11
420.0
 21
297.0
 12
0.0
 22
0.0
 32
0.0
 14
1.0000000000E+20
 24
1.0000000000E+20
 34
1.0000000000E+20
 15
-1.0000000000E+20
 25
-1.0000000000E+20
 35
-1.0000000000E+20
146
0.0
 13
0.0
 23
0.0
 33
0.0
 16
1.0
 26
0.0
 36
0.0
 17
0.0
 27
1.0
 37
0.0
 76
     0
330
1B
  0
LAYOUT
  5
26
102
{ACAD_REACTORS
330
1A
102
}
330
1A
100
AcDbPlotSettings
  1

  2
none_device
  4

  6

 40
0.0
 41
0.0
 42
0.0
 43
0.0
 44
0.0
 45
0.0
 46
0.0
 47
0.0
 48
0.0
 49
0.0
140
0.0
141
0.0
142
1.0
143
1.0
 70
   688
 72
     0
 73
     0
 74
     5
  7

 75
    16
147
1.0
148
0.0
149
0.0
100
AcDbLayout
  1
Layout2
 70
     1
 71
     2
 10
0.0
 20
0.0
 11
0.0
 21
0.0
 12
0.0
 22
0.0
 32
0.0
 14
0.0
 24
0.0
 34
0.0
 15
0.0
 25
0.0
 35
0.0
146
0.0
 13
0.0
 23
0.0
 33
0.0
 16
1.0
 26
0.0
 36
0.0
 17
0.0
 27
1.0
 37
0.0
 76
     0
330
23
  0
LAYOUT
  5
22
102
{ACAD_REACTORS
330
1A
102
}
330
1A
100
AcDbPlotSettings
  1

  2
none_device
  4

  6

 40
0.0
 41
0.0
 42
0.0
 43
0.0
 44
0.0
 45
0.0
 46
0.0
 47
0.0
 48
0.0
 49
0.0
140
0.0
141
0.0
142
1.0
143
1.0
 70
  1712
 72
     0
 73
     0
 74
     0
  7

 75
     0
147
1.0
148
0.0
149
0.0
100
AcDbLayout
  1
Model
 70
     1
 71
     0
 10
0.0
 20
0.0
 11
297.0
 21
210.0
 12
0.0
 22
0.0
 32
0.0
 14
0.0
 24
0.0
 34
0.0
 15
297.0
 25
210.0
 35
0.0
146
0.0
 13
0.0
 23
0.0
 33
0.0
 16
1.0
 26
0.0
 36
0.0
 17
0.0
 27
1.0
 37
0.0
 76
     0
330
1F
331
29
  0
MLINESTYLE
  5
18
102
{ACAD_REACTORS
330
17
102
}
330
17
100
AcDbMlineStyle
  2
Standard
 70
     0
  3

 62
   256
 51
90.0
 52
90.0
 71
     2
 49
0.5
 62
   256
  6
BYLAYER
 49
-0.5
 62
   256
  6
BYLAYER
  0
ACDBPLACEHOLDER
  5
F
102
{ACAD_REACTORS
330
E
102
}
330
E
  0
VISUALSTYLE
  5
2F
102
{ACAD_REACTORS
330
2A
102
}
330
2A
100
AcDbVisualStyle
  2
2dWireframe
 70
     4
 71
     0
 72
     2
 73
     0
 90
        0
 40
-0.6
 41
-30.0
 62
     5
 63
     7
 74
     1
 91
        4
 64
     7
 65
   257
 75
     1
175
     1
 42
1.0
 92
        0
 66
   257
 43
1.0
 76
     1
 77
     6
 78
     2
 67
     7
 79
     5
170
     0
171
     0
290
     0
174
     0
 93
        1
 44
0.0
173
     0
291
     0
 45
0.0
1001
ACAD
1000
AcDbSavedByObjectVersion
1070
     0
  0
VISUALSTYLE
  5
31
102
{ACAD_REACTORS
330
2A
102
}
330
2A
100
AcDbVisualStyle
  2
3D Hidden
 70
     6
 71
     1
 72
     2
 73
     2
 90
        0
 40
-0.6
 41
-30.0
 62
     5
 63
     7
 74
     2
 91
        2
 64
     7
 65
   257
 75
     2
175
     1
 42
40.0
 92
        0
 66
   257
 43
1.0
 76
     1
 77
     6
 78
     2
 67
     7
 79
     3
170
     0
171
     0
290
     0
174
     0
 93
        1
 44
0.0
173
     0
291
     0
 45
0.0
1001
ACAD
1000
AcDbSavedByObjectVersion
1070
     0
  0
VISUALSTYLE
  5
30
102
{ACAD_REACTORS
330
2A
102
}
330
2A
100
AcDbVisualStyle
  2
3dWireframe
 70
     5
 71
     0
 72
     2
 73
     0
 90
        0
 40
-0.6
 41
-30.0
 62
     5
 63
     7
 74
     1
 91
        4
 64
     7
 65
   257
 75
     1
175
     1
 42
1.0
 92
        0
 66
   257
 43
1.0
 76
     1
 77
     6
 78
     2
 67
     7
 79
     5
170
     0
171
     0
290
     0
174
     0
 93
        1
 44
0.0
173
     0
291
     0
 45
0.0
1001
ACAD
1000
AcDbSavedByObjectVersion
1070
     0
  0
VISUALSTYLE
  5
32
102
{ACAD_REACTORS
330
2A
102
}
330
2A
100
AcDbVisualStyle
  2
Basic
 70
     7
 71
     1
 72
     0
 73
     1
 90
        0
 40
-0.6
 41
-30.0
 62
     5
 63
     7
 74
     0
 91
        4
 64
     7
 65
   257
 75
     1
175
     1
 42
1.0
 92
        8
 66
     7
 43
1.0
 76
     1
 77
     6
 78
     2
 67
     7
 79
     5
170
     0
171
     0
290
     0
174
     0
 93
        1
 44
0.0
173
     0
291
     1
 45
0.0
1001
ACAD
1000
AcDbSavedByObjectVersion
1070
     0
  0
VISUALSTYLE
  5
36
102
{ACAD_REACTORS
330
2A
102
}
330
2A
100
AcDbVisualStyle
  2
Brighten
 70
    12
 71
     2
 72
     2
 73
     0
 90
        0
 40
-0.6
 41
-30.0
 62
     5
 63
     7
 74
     1
 91
        4
 64
     7
 65
   257
 75
     1
175
     1
 42
1.0
 92
        8
 66
     7
 43
1.0
 76
     1
 77
     6
 78
     2
 67
     7
 79
     5
170
     0
171
     0
290
     0
174
     0
 93
        1
 44
50.0
173
     0
291
     1
 45
0.0
1001
ACAD
1000
AcDbSavedByObjectVersion
1070
     0
  0
VISUALSTYLE
  5
3A
102
{ACAD_REACTORS
330
2A
102
}
330
2A
100
AcDbVisualStyle
  2
ColorChange
 70
    16
 71
     2
 72
     2
 73
     3
 90
        0
 40
-0.6
 41
-30.0
 62
     5
 63
     8
 74
     1
 91
        4
 64
     7
 65
   257
 75
     1
175
     1
 42
1.0
 92
        8
 66
     8
 43
1.0
 76
     1
 77
     6
 78
     2
 67
     7
 79
     5
170
     0
171
     0
290
     0
174
     0
 93
        1
 44
0.0
173
     0
291
     1
 45
0.0
1001
ACAD
1000
AcDbSavedByObjectVersion
1070
     0
  0
VISUALSTYLE
  5
34
102
{ACAD_REACTORS
330
2A
102
}
330
2A
100
AcDbVisualStyle
  2
Conceptual
 70
     9
 71
     3
 72
     2
 73
     0
 90
        0
 40
-0.6
 41
-30.0
 62
     5
 63
     7
 74
     2
 91
        2
 64
     7
 65
   257
 75
     1
175
     1
 42
40.0
 92
        8
 66
     7
 43
1.0
 76
     1
 77
     6
 78
     2
 67
     7
 79
     3
170
     0
171
     0
290
     0
174
     0
 93
        1
 44
0.0
173
     0
291
     0
 45
0.0
1001
ACAD
1000
AcDbSavedByObjectVersion
1070
     0
  0
VISUALSTYLE
  5
35
102
{ACAD_REACTORS
330
2A
102
}
330
2A
100
AcDbVisualStyle
  2
Dim
 70
    11
 71
     2
 72
     2
 73
     0
 90
        0
 40
-0.6
 41
-30.0
 62
     5
 63
     7
 74
     1
 91
        4
 64
     7
 65
   257
 75
     1
175
     1
 42
1.0
 92
        8
 66
     7
 43
1.0
 76
     1
 77
     6
 78
     2
 67
     7
 79
     5
170
     0
171
     0
290
     0
174
     0
 93
        1
 44
-50.0
173
     0
291
     1
 45
0.0
1001
ACAD
1000
AcDbSavedByObjectVersion
1070
     0
  0
VISUALSTYLE
  5
39
102
{ACAD_REACTORS
330
2A
102
}
330
2A
100
AcDbVisualStyle
  2
Facepattern
 70
    15
 71
     2
 72
     2
 73
     0
 90
        0
 40
-0.6
 41
-30.0
 62
     5
 63
     7
 74
     1
 91
        4
 64
     7
 65
   257
 75
     1
175
     1
 42
1.0
 92
        8
 66
     7
 43
1.0
 76
     1
 77
     6
 78
     2
 67
     7
 79
     5
170
     0
171
     0
290
     0
174
     0
 93
        1
 44
0.0
173
     0
291
     1
 45
0.0
1001
ACAD
1000
AcDbSavedByObjectVersion
1070
     0
  0
VISUALSTYLE
  5
2B
102
{ACAD_REACTORS
330
2A
102
}
330
2A
100
AcDbVisualStyle
  2
Flat
 70
     0
 71
     2
 72
     1
 73
     1
 90
        2
 40
-0.6
 41
30.0
 62
     5
 63
     7
 74
     0
 91
        4
 64
     7
 65
   257
 75
     1
175
     1
 42
1.0
 92
        8
 66
     7
 43
1.0
 76
     1
 77
     6
 78
     2
 67
     7
 79
     5
170
     0
171
     0
290
     0
174
     0
 93
       13
 44
0.0
173
     0
291
     1
 45
0.0
1001
ACAD
1000
AcDbSavedByObjectVersion
1070
     0
  0
VISUALSTYLE
  5
2C
102
{ACAD_REACTORS
330
2A
102
}
330
2A
100
AcDbVisualStyle
  2
FlatWithEdges
 70
     1
 71
     2
 72
     1
 73
     1
 90
        2
 40
-0.6
 41
30.0
 62
     5
 63
     7
 74
     1
 91
        4
 64
     7
 65
   257
 75
     1
175
     1
 42
1.0
 92
        0
 66
   257
 43
1.0
 76
     1
 77
     6
 78
     2
 67
     7
 79
     5
170
     0
171
     0
290
     0
174
     0
 93
       13
 44
0.0
173
     0
291
     1
 45
0.0
1001
ACAD
1000
AcDbSavedByObjectVersion
1070
     0
  0
VISUALSTYLE
  5
2D
102
{ACAD_REACTORS
330
2A
102
}
330
2A
100
AcDbVisualStyle
  2
Gouraud
 70
     2
 71
     2
 72
     2
 73
     1
 90
        2
 40
-0.6
 41
30.0
 62
     5
 63
     7
 74
     0
 91
        4
 64
     7
 65
   257
 75
     1
175
     1
 42
1.0
 92
        0
 66
     7
 43
1.0
 76
     1
 77
     6
 78
     2
 67
     7
 79
     5
170
     0
171
     0
290
     0
174
     0
 93
       13
 44
0.0
173
     0
291
     1
 45
0.0
1001
ACAD
1000
AcDbSavedByObjectVersion
1070
     0
  0
VISUALSTYLE
  5
2E
102
{ACAD_REACTORS
330
2A
102
}
330
2A
100
AcDbVisualStyle
  2
GouraudWithEdges
 70
     3
 71
     2
 72
     2
 73
     1
 90
        2
 40
-0.6
 41
30.0
 62
     5
 63
     7
 74
     1
 91
        4
 64
     7
 65
   257
 75
     1
175
     1
 42
1.0
 92
        0
 66
   257
 43
1.0
 76
     1
 77
     6
 78
     2
 67
     7
 79
     5
170
     0
171
     0
290
     0
174
     0
 93
       13
 44
0.0
173
     0
291
     1
 45
0.0
1001
ACAD
1000
AcDbSavedByObjectVersion
1070
     0
  0
VISUALSTYLE
  5
38
102
{ACAD_REACTORS
330
2A
102
}
330
2A
100
AcDbVisualStyle
  2
Linepattern
 70
    14
 71
     2
 72
     2
 73
     0
 90
        0
 40
-0.6
 41
-30.0
 62
     5
 63
     7
 74
     1
 91
        4
 64
     7
 65
   257
 75
     7
175
     7
 42
1.0
 92
        8
 66
     7
 43
1.0
 76
     1
 77
     6
 78
     2
 67
     7
 79
     5
170
     0
171
     0
290
     0
174
     0
 93
        1
 44
0.0
173
     0
291
     1
 45
0.0
1001
ACAD
1000
AcDbSavedByObjectVersion
1070
     0
  0
VISUALSTYLE
  5
33
102
{ACAD_REACTORS
330
2A
102
}
330
2A
100
AcDbVisualStyle
  2
Realistic
 70
     8
 71
     2
 72
     2
 73
     0
 90
        0
 40
-0.6
 41
-30.0
 62
     5
 63
     7
 74
     1
 91
        0
 64
     7
 65
   257
 75
     1
175
     1
 42
1.0
 92
        8
 66
     8
 43
1.0
 76
     1
 77
     6
 78
     2
 67
     7
 79
     5
170
     0
171
     0
290
     0
174
     0
 93
       13
 44
0.0
173
     0
291
     0
 45
0.0
1001
ACAD
1000
AcDbSavedByObjectVersion
1070
     0
  0
VISUALSTYLE
  5
37
102
{ACAD_REACTORS
330
2A
102
}
330
2A
100
AcDbVisualStyle
  2
Thicken
 70
    13
 71
     2
 72
     2
 73
     0
 90
        0
 40
-0.6
 41
-30.0
 62
     5
 63
     7
 74
     1
 91
        4
 64
     7
 65
   257
 75
     1
175
     1
 42
1.0
 92
       12
 66
     7
 43
1.0
 76
     1
 77
     6
 78
     2
 67
     7
 79
     5
170
     0
171
     0
290
     0
174
     0
 93
        1
 44
0.0
173
     0
291
     1
 45
0.0
1001
ACAD
1000
AcDbSavedByObjectVersion
1070
     0
  0
DICTIONARYVAR
  5
2F0
102
{ACAD_REACTORS
330
2EE
102
}
330
2EE
100
DictionaryVariables
280
     0
  1
80.000000
  0
DICTIONARYVAR
  5
2EF
102
{ACAD_REACTORS
330
2EE
102
}
330
2EE
100
DictionaryVariables
280
     0
  1
5.000000
  0
ENDSEC
  0
EOF
