  0
SECTION
  2
HEADER
  9
$ACADVER
  1
AC1015
  9
$ACADMAINTVER
 70
     6
  9
$DWGCODEPAGE
  3
ANSI_1252
  9
$INSBASE
 10
0.0
 20
0.0
 30
0.0
  9
$EXTMIN
 10
0.0
 20
0.0
 30
0.0
  9
$EXTMAX
 10
297.0
 20
210.0
 30
0.0
  9
$LIMMIN
 10
0.0
 20
0.0
  9
$LIMMAX
 10
297.0
 20
210.0
  9
$ORTHOMODE
 70
     0
  9
$REGENMODE
 70
     1
  9
$FILLMODE
 70
     1
  9
$QTEXTMODE
 70
     0
  9
$MIRRTEXT
 70
     1
  9
$LTSCALE
 40
1.0
  9
$ATTMODE
 70
     1
  9
$TEXTSIZE
 40
2.0
  9
$TRACEWID
 40
1.0
  9
$TEXTSTYLE
  7
STANDARD
  9
$CLAYER
  8
0
  9
$CELTYPE
  6
ByLayer
  9
$CECOLOR
 62
   256
  9
$CELTSCALE
 40
1.0
  9
$DISPSILH
 70
     0
  9
$DIMSCALE
 40
1.0
  9
$DIMASZ
 40
3.0
  9
$DIMEXO
 40
0.0
  9
$DIMDLI
 40
3.75
  9
$DIMRND
 40
0.0
  9
$DIMDLE
 40
0.0
  9
$DIMEXE
 40
1.0
  9
$DIMTP
 40
0.0
  9
$DIMTM
 40
0.0
  9
$DIMTXT
 40
2.0
  9
$DIMCEN
 40
2.5
  9
$DIMTSZ
 40
0.0
  9
$DIMTOL
 70
     0
  9
$DIMLIM
 70
     0
  9
$DIMTIH
 70
     1
  9
$DIMTOH
 70
     1
  9
$DIMSE1
 70
     0
  9
$DIMSE2
 70
     0
  9
$DIMTAD
 70
     1
  9
$DIMZIN
 70
     0
  9
$DIMBLK
  1

  9
$DIMASO
 70
     1
  9
$DIMSHO
 70
     1
  9
$DIMPOST
  1

  9
$DIMAPOST
  1

  9
$DIMALT
 70
     0
  9
$DIMALTD
 70
     3
  9
$DIMALTF
 40
0.0393700787
  9
$DIMLFAC
 40
1.0
  9
$DIMTOFL
 70
     1
  9
$DIMTVP
 40
0.0
  9
$DIMTIX
 70
     0
  9
$DIMSOXD
 70
     0
  9
$DIMSAH
 70
     0
  9
$DIMBLK1
  1

  9
$DIMBLK2
  1

  9
$DIMSTYLE
  2
ISO-25
  9
$DIMCLRD
 70
     0
  9
$DIMCLRE
 70
     0
  9
$DIMCLRT
 70
     0
  9
$DIMTFAC
 40
1.0
  9
$DIMGAP
 40
1.524
  9
$DIMJUST
 70
     0
  9
$DIMSD1
 70
     0
  9
$DIMSD2
 70
     0
  9
$DIMTOLJ
 70
     0
  9
$DIMTZIN
 70
     0
  9
$DIMALTZ
 70
     0
  9
$DIMALTTZ
 70
     0
  9
$DIMUPT
 70
     0
  9
$DIMDEC
 70
     2
  9
$DIMTDEC
 70
     3
  9
$DIMALTU
 70
     2
  9
$DIMALTTD
 70
     3
  9
$DIMTXSTY
  7
STANDARD
  9
$DIMAUNIT
 70
     0
  9
$DIMADEC
 70
     2
  9
$DIMALTRND
 40
0.0
  9
$DIMAZIN
 70
     0
  9
$DIMDSEP
 70
    44
  9
$DIMATFIT
 70
     3
  9
$DIMFRAC
 70
     0
  9
$DIMLDRBLK
  1

  9
$DIMLUNIT
 70
     2
  9
$DIMLWD
 70
    -2
  9
$DIMLWE
 70
    -2
  9
$DIMTMOVE
 70
     0
  9
$LUNITS
 70
     2
  9
$LUPREC
 70
     2
  9
$SKETCHINC
 40
1.0
  9
$FILLETRAD
 40
10.0
  9
$AUNITS
 70
     0
  9
$AUPREC
 70
     2
  9
$MENU
  1
.
  9
$ELEVATION
 40
0.0
  9
$PELEVATION
 40
0.0
  9
$THICKNESS
 40
0.0
  9
$LIMCHECK
 70
     0
  9
$CHAMFERA
 40
10.0
  9
$CHAMFERB
 40
10.0
  9
$CHAMFERC
 40
20.0
  9
$CHAMFERD
 40
0.0
  9
$SKPOLY
 70
     0
  9
$TDCREATE
 40
2457028.531655764
  9
$TDUCREATE
 40
2457028.489989097
  9
$TDUPDATE
 40
2457028.531656459
  9
$TDUUPDATE
 40
2457028.489989792
  9
$TDINDWG
 40
0.0000000116
  9
$TDUSRTIMER
 40
0.0000000116
  9
$USRTIMER
 70
     1
  9
$ANGBASE
 50
0.0
  9
$ANGDIR
 70
     0
  9
$PDMODE
 70
     0
  9
$PDSIZE
 40
-1.0
  9
$PLINEWID
 40
0.0
  9
$SPLFRAME
 70
     0
  9
$SPLINETYPE
 70
     6
  9
$SPLINESEGS
 70
     8
  9
$HANDSEED
  5
2BB
  9
$SURFTAB1
 70
     6
  9
$SURFTAB2
 70
     6
  9
$SURFTYPE
 70
     6
  9
$SURFU
 70
     6
  9
$SURFV
 70
     6
  9
$UCSBASE
  2

  9
$UCSNAME
  2

  9
$UCSORG
 10
0.0
 20
0.0
 30
0.0
  9
$UCSXDIR
 10
1.0
 20
0.0
 30
0.0
  9
$UCSYDIR
 10
0.0
 20
1.0
 30
0.0
  9
$UCSORTHOREF
  2

  9
$UCSORTHOVIEW
 70
     0
  9
$UCSORGTOP
 10
0.0
 20
0.0
 30
0.0
  9
$UCSORGBOTTOM
 10
0.0
 20
0.0
 30
0.0
  9
$UCSORGLEFT
 10
0.0
 20
0.0
 30
0.0
  9
$UCSORGRIGHT
 10
0.0
 20
0.0
 30
0.0
  9
$UCSORGFRONT
 10
0.0
 20
0.0
 30
0.0
  9
$UCSORGBACK
 10
0.0
 20
0.0
 30
0.0
  9
$PUCSBASE
  2

  9
$PUCSNAME
  2

  9
$PUCSORG
 10
0.0
 20
0.0
 30
0.0
  9
$PUCSXDIR
 10
1.0
 20
0.0
 30
0.0
  9
$PUCSYDIR
 10
0.0
 20
1.0
 30
0.0
  9
$PUCSORTHOREF
  2

  9
$PUCSORTHOVIEW
 70
     0
  9
$PUCSORGTOP
 10
0.0
 20
0.0
 30
0.0
  9
$PUCSORGBOTTOM
 10
0.0
 20
0.0
 30
0.0
  9
$PUCSORGLEFT
 10
0.0
 20
0.0
 30
0.0
  9
$PUCSORGRIGHT
 10
0.0
 20
0.0
 30
0.0
  9
$PUCSORGFRONT
 10
0.0
 20
0.0
 30
0.0
  9
$PUCSORGBACK
 10
0.0
 20
0.0
 30
0.0
  9
$USERI1
 70
     0
  9
$USERI2
 70
     0
  9
$USERI3
 70
     0
  9
$USERI4
 70
     0
  9
$USERI5
 70
     0
  9
$USERR1
 40
0.0
  9
$USERR2
 40
0.0
  9
$USERR3
 40
0.0
  9
$USERR4
 40
0.0
  9
$USERR5
 40
0.0
  9
$WORLDVIEW
 70
     1
  9
$SHADEDGE
 70
     3
  9
$SHADEDIF
 70
    70
  9
$TILEMODE
 70
     1
  9
$MAXACTVP
 70
    64
  9
$PINSBASE
 10
0.0
 20
0.0
 30
0.0
  9
$PLIMCHECK
 70
     0
  9
$PEXTMIN
 10
1.0000000000E+20
 20
1.0000000000E+20
 30
1.0000000000E+20
  9
$PEXTMAX
 10
-1.0000000000E+20
 20
-1.0000000000E+20
 30
-1.0000000000E+20
  9
$PLIMMIN
 10
0.0
 20
0.0
  9
$PLIMMAX
 10
420.0
 20
297.0
  9
$UNITMODE
 70
     0
  9
$VISRETAIN
 70
     1
  9
$PLINEGEN
 70
     0
  9
$PSLTSCALE
 70
     1
  9
$TREEDEPTH
 70
  3020
  9
$CMLSTYLE
  2
Standard
  9
$CMLJUST
 70
     0
  9
$CMLSCALE
 40
20.0
  9
$PROXYGRAPHICS
 70
     1
  9
$MEASUREMENT
 70
     1
  9
$CELWEIGHT
370
    -1
  9
$ENDCAPS
280
     0
  9
$JOINSTYLE
280
     0
  9
$LWDISPLAY
290
     1
  9
$INSUNITS
 70
     4
  9
$HYPERLINKBASE
  1

  9
$STYLESHEET
  1

  9
$XEDIT
290
     1
  9
$CEPSNTYPE
380
     0
  9
$PSTYLEMODE
290
     1
  9
$FINGERPRINTGUID
  2
{3B8C3FA6-687B-4347-BB47-B6DF427CE79A}
  9
$VERSIONGUID
  2
{FAEB1C32-E019-11D5-929B-00C0DF256EC4}
  9
$EXTNAMES
290
     1
  9
$PSVPSCALE
 40
0.0
  9
$OLESTARTUP
290
     0
  0
ENDSEC
  0
SECTION
  2
CLASSES
  0
CLASS
  1
ACDBDICTIONARYWDFLT
  2
AcDbDictionaryWithDefault
  3
ObjectDBX Classes
 90
        0
280
     0
281
     0
  0
CLASS
  1
VISUALSTYLE
  2
AcDbVisualStyle
  3
ObjectDBX Classes
 90
     4095
280
     0
281
     0
  0
CLASS
  1
MATERIAL
  2
AcDbMaterial
  3
ObjectDBX Classes
 90
     1153
280
     0
281
     0
  0
CLASS
  1
ACDBPLACEHOLDER
  2
AcDbPlaceHolder
  3
ObjectDBX Classes
 90
        0
280
     0
281
     0
  0
CLASS
  1
LAYOUT
  2
AcDbLayout
  3
ObjectDBX Classes
 90
        0
280
     0
281
     0
  0
ENDSEC
  0
SECTION
  2
TABLES
  0
TABLE
  2
VPORT
  5
8
330
0
100
AcDbSymbolTable
 70
     1
  0
VPORT
  5
29
330
8
100
AcDbSymbolTableRecord
100
AcDbViewportTableRecord
  2
*Active
 70
     0
 10
0.0
 20
0.0
 11
1.0
 21
1.0
 12
148.5
 22
105.0
 13
0.0
 23
0.0
 14
10.0
 24
10.0
 15
10.0
 25
10.0
 16
0.0
 26
0.0
 36
1.0
 17
0.0
 27
0.0
 37
0.0
 40
210.0
 41
1.4142857143
 42
50.0
 43
0.0
 44
0.0
 50
0.0
 51
0.0
 71
     0
 72
  2000
 73
     1
 74
     3
 75
     0
 76
     0
 77
     0
 78
     0
281
     0
 65
     1
110
0.0
120
0.0
130
0.0
111
1.0
121
0.0
131
0.0
112
0.0
122
1.0
132
0.0
 79
     0
146
0.0
  0
ENDTAB
  0
TABLE
  2
LTYPE
  5
5
330
0
100
AcDbSymbolTable
 70
     8
  0
LTYPE
  5
14
330
5
100
AcDbSymbolTableRecord
100
AcDbLinetypeTableRecord
  2
ByBlock
 70
     0
  3

 72
    65
 73
     0
 40
0.0
  0
LTYPE
  5
15
330
5
100
AcDbSymbolTableRecord
100
AcDbLinetypeTableRecord
  2
ByLayer
 70
     0
  3

 72
    65
 73
     0
 40
0.0
  0
LTYPE
  5
16
330
5
100
AcDbSymbolTableRecord
100
AcDbLinetypeTableRecord
  2
Continuous
 70
     0
  3
Solid line
 72
    65
 73
     0
 40
0.0
  0
LTYPE
  5
3F
330
5
100
AcDbSymbolTableRecord
100
AcDbLinetypeTableRecord
  2
SLD-Durchgehend
 70
     0
  3
SolidWorks Line Style
 72
    65
 73
     0
 40
0.0
  0
LTYPE
  5
40
330
5
100
AcDbSymbolTableRecord
100
AcDbLinetypeTableRecord
  2
SLD-Gestrichelt
 70
     0
  3
SolidWorks Line Style
 72
    65
 73
     2
 40
1.905
 49
1.27
 74
     0
 49
-0.635
 74
     0
  0
LTYPE
  5
41
330
5
100
AcDbSymbolTableRecord
100
AcDbLinetypeTableRecord
  2
SLD-Phantom
 70
     0
  3
SolidWorks Line Style
 72
    65
 73
     6
 40
12.7
 49
6.35
 74
     0
 49
-1.27
 74
     0
 49
1.27
 74
     0
 49
-1.27
 74
     0
 49
1.27
 74
     0
 49
-1.27
 74
     0
  0
LTYPE
  5
42
330
5
100
AcDbSymbolTableRecord
100
AcDbLinetypeTableRecord
  2
SLD-Kette
 70
     0
  3
SolidWorks Line Style
 72
    65
 73
     4
 40
10.16
 49
6.35
 74
     0
 49
-1.27
 74
     0
 49
1.27
 74
     0
 49
-1.27
 74
     0
  0
LTYPE
  5
43
330
5
100
AcDbSymbolTableRecord
100
AcDbLinetypeTableRecord
  2
SLD-Punktstrich
 70
     0
  3
SolidWorks Line Style
 72
    65
 73
     4
 40
19.05
 49
15.24
 74
     0
 49
-1.27
 74
     0
 49
1.27
 74
     0
 49
-1.27
 74
     0
  0
LTYPE
  5
44
330
5
100
AcDbSymbolTableRecord
100
AcDbLinetypeTableRecord
  2
SLD-Naht
 70
     0
  3
SolidWorks Line Style
 72
    65
 73
     2
 40
0.635
 49
0.0
 74
     0
 49
-0.635
 74
     0
  0
LTYPE
  5
45
330
5
100
AcDbSymbolTableRecord
100
AcDbLinetypeTableRecord
  2
SLD-Dicke-Dünne-Kette
 70
     0
  3
SolidWorks Line Style
 72
    65
 73
     4
 40
10.16
 49
6.35
 74
     0
 49
-1.27
 74
     0
 49
1.27
 74
     0
 49
-1.27
 74
     0
  0
ENDTAB
  0
TABLE
  2
LAYER
  5
2
330
0
100
AcDbSymbolTable
 70
     5
  0
LAYER
  5
10
330
2
100
AcDbSymbolTableRecord
100
AcDbLayerTableRecord
  2
0
 70
     0
 62
     7
  6
Continuous
370
    -3
390
F
  0
LAYER
  5
46
330
2
100
AcDbSymbolTableRecord
100
AcDbLayerTableRecord
  2
FORMAT
 70
     0
 62
     7
  6
SLD-Durchgehend
370
    -3
390
F
  0
LAYER
  5
47
330
2
100
AcDbSymbolTableRecord
100
AcDbLayerTableRecord
  2
VERMASSUNG
 70
     0
 62
     7
  6
SLD-Durchgehend
370
    -3
390
F
  0
LAYER
  5
48
330
2
100
AcDbSymbolTableRecord
100
AcDbLayerTableRecord
  2
KOPF_DÜNN
 70
     0
 62
     7
  6
SLD-Durchgehend
370
    -3
390
F
  0
LAYER
  5
49
330
2
100
AcDbSymbolTableRecord
100
AcDbLayerTableRecord
  2
KOPF_DICK
 70
     0
 62
     7
  6
SLD-Durchgehend
370
    15
390
F
  0
ENDTAB
  0
TABLE
  2
STYLE
  5
3
330
0
100
AcDbSymbolTable
 70
     2
  0
STYLE
  5
11
330
3
100
AcDbSymbolTableRecord
100
AcDbTextStyleTableRecord
  2
STANDARD
 70
     0
 40
0.0
 41
1.0
 50
0.0
 71
     0
 42
2.0
  3
ISOCPEUR.TTF
  4

1001
ACAD
1000
ISOCPEUR
1071
       34
  0
STYLE
  5
4A
330
3
100
AcDbSymbolTableRecord
100
AcDbTextStyleTableRecord
  2
SLDTEXTSTYLE0
 70
     0
 40
0.0
 41
1.0
 50
0.0
 71
     0
 42
0.2
  3
ISOCPEUR.TTF
  4

1001
ACAD
1000
ISOCPEUR
1071
      290
  0
ENDTAB
  0
TABLE
  2
VIEW
  5
6
330
0
100
AcDbSymbolTable
 70
     0
  0
ENDTAB
  0
TABLE
  2
UCS
  5
7
330
0
100
AcDbSymbolTable
 70
     0
  0
ENDTAB
  0
TABLE
  2
APPID
  5
9
330
0
100
AcDbSymbolTable
 70
     1
  0
APPID
  5
12
330
9
100
AcDbSymbolTableRecord
100
AcDbRegAppTableRecord
  2
ACAD
 70
     0
  0
ENDTAB
  0
TABLE
  2
DIMSTYLE
  5
A
330
0
100
AcDbSymbolTable
 70
     2
100
AcDbDimStyleTable
  0
DIMSTYLE
105
27
330
A
100
AcDbSymbolTableRecord
100
AcDbDimStyleTableRecord
  2
ISO-25
 70
     0
 41
2.5
 42
0.625
 43
3.75
 44
1.25
 73
     0
 74
     0
 77
     1
 78
     8
140
2.5
141
2.5
143
0.0393700787
147
0.625
171
     3
172
     1
178
     0
271
     2
272
     2
274
     3
278
    44
283
     0
284
     8
340
11
  0
DIMSTYLE
105
26E
102
{ACAD_REACTORS
330
26D
330
278
330
282
330
28C
330
298
330
2A3
330
2AE
102
}
330
A
100
AcDbSymbolTableRecord
100
AcDbDimStyleTableRecord
  2
SLDDIMSTYLE0
 70
     0
 41
3.0
 44
0.0
 45
0.000000001
 73
     0
 74
     0
 77
     1
 78
    12
 79
     3
140
2.0
147
0.5
173
     1
178
     0
271
     2
272
     3
276
     2
284
    12
340
4A
  0
ENDTAB
  0
TABLE
  2
BLOCK_RECORD
  5
1
330
0
100
AcDbSymbolTable
 70
     8
  0
BLOCK_RECORD
  5
1F
330
1
100
AcDbSymbolTableRecord
100
AcDbBlockTableRecord
  2
*Model_Space
340
22
  0
BLOCK_RECORD
  5
1B
330
1
100
AcDbSymbolTableRecord
100
AcDbBlockTableRecord
  2
*Paper_Space
340
1E
  0
BLOCK_RECORD
  5
23
330
1
100
AcDbSymbolTableRecord
100
AcDbBlockTableRecord
  2
*Paper_Space0
340
26
  0
BLOCK_RECORD
  5
26F
330
1
100
AcDbSymbolTableRecord
100
AcDbBlockTableRecord
  2
_D
340
0
  0
BLOCK_RECORD
  5
279
330
1
100
AcDbSymbolTableRecord
100
AcDbBlockTableRecord
  2
_D_1
340
0
  0
BLOCK_RECORD
  5
283
330
1
100
AcDbSymbolTableRecord
100
AcDbBlockTableRecord
  2
_D_2
340
0
  0
BLOCK_RECORD
  5
28D
330
1
100
AcDbSymbolTableRecord
100
AcDbBlockTableRecord
  2
_D_3
340
0
  0
BLOCK_RECORD
  5
299
330
1
100
AcDbSymbolTableRecord
100
AcDbBlockTableRecord
  2
_D_4
340
0
  0
BLOCK_RECORD
  5
2A4
330
1
100
AcDbSymbolTableRecord
100
AcDbBlockTableRecord
  2
_D_5
340
0
  0
BLOCK_RECORD
  5
2AF
330
1
100
AcDbSymbolTableRecord
100
AcDbBlockTableRecord
  2
_D_6
340
0
  0
ENDTAB
  0
ENDSEC
  0
SECTION
  2
BLOCKS
  0
BLOCK
  5
20
330
1F
100
AcDbEntity
  8
0
100
AcDbBlockBegin
  2
*Model_Space
 70
     0
 10
0.0
 20
0.0
 30
0.0
  3
*Model_Space
  1

  0
ENDBLK
  5
21
330
1F
100
AcDbEntity
  8
0
100
AcDbBlockEnd
  0
BLOCK
  5
1C
330
1B
100
AcDbEntity
 67
     1
  8
0
100
AcDbBlockBegin
  2
*Paper_Space
 70
     0
 10
0.0
 20
0.0
 30
0.0
  3
*Paper_Space
  1

  0
ENDBLK
  5
1D
330
1B
100
AcDbEntity
 67
     1
  8
0
100
AcDbBlockEnd
  0
BLOCK
  5
24
330
23
100
AcDbEntity
  8
0
100
AcDbBlockBegin
  2
*Paper_Space0
 70
     0
 10
0.0
 20
0.0
 30
0.0
  3
*Paper_Space0
  1

  0
ENDBLK
  5
25
330
23
100
AcDbEntity
  8
0
100
AcDbBlockEnd
  0
BLOCK
  5
270
330
26F
100
AcDbEntity
  8
0
100
AcDbBlockBegin
  2
_D
 70
     0
 10
0.0
 20
0.0
 30
0.0
  3
_D
  1

  0
SOLID
  5
272
330
26F
100
AcDbEntity
  8
VERMASSUNG
100
AcDbTrace
 10
137.8061030952
 20
145.5741919234
 30
0.0
 11
140.8061030952
 21
145.1241919234
 31
0.0
 12
140.8061030952
 22
146.0241919234
 32
0.0
 13
140.8061030952
 23
146.0241919234
 33
0.0
  0
SOLID
  5
273
330
26F
100
AcDbEntity
  8
VERMASSUNG
100
AcDbTrace
 10
211.8561030952
 20
145.5741919234
 30
0.0
 11
208.8561030952
 21
146.0241919234
 31
0.0
 12
208.8561030952
 22
145.1241919234
 32
0.0
 13
208.8561030952
 23
145.1241919234
 33
0.0
  0
LINE
  5
274
330
26F
100
AcDbEntity
  8
VERMASSUNG
100
AcDbLine
 10
137.8061030952
 20
137.6364520315
 30
0.0
 11
137.8061030952
 21
146.5741919234
 31
0.0
  0
LINE
  5
275
330
26F
100
AcDbEntity
  8
VERMASSUNG
100
AcDbLine
 10
211.8561030952
 20
126.9900117078
 30
0.0
 11
211.8561030952
 21
146.5741919234
 31
0.0
  0
LINE
  5
276
330
26F
100
AcDbEntity
  8
VERMASSUNG
100
AcDbLine
 10
137.8061030952
 20
145.5741919234
 30
0.0
 11
211.8561030952
 21
145.5741919234
 31
0.0
  0
MTEXT
  5
277
330
26F
100
AcDbEntity
  8
VERMASSUNG
100
AcDbMText
 10
173.4361893974
 20
148.174191807
 30
0.0
 40
2.0
 41
0.0
 71
     1
 72
     1
  1
74.05
  7
SLDTEXTSTYLE0
 73
     1
 44
1.0
  0
ENDBLK
  5
271
330
26F
100
AcDbEntity
  8
0
100
AcDbBlockEnd
  0
BLOCK
  5
27A
330
279
100
AcDbEntity
  8
0
100
AcDbBlockBegin
  2
_D_1
 70
     0
 10
0.0
 20
0.0
 30
0.0
  3
_D_1
  1

  0
SOLID
  5
27C
330
279
100
AcDbEntity
  8
VERMASSUNG
100
AcDbTrace
 10
111.8561030952
 20
151.5741919234
 30
0.0
 11
114.8561030952
 21
151.1241919234
 31
0.0
 12
114.8561030952
 22
152.0241919234
 32
0.0
 13
114.8561030952
 23
152.0241919234
 33
0.0
  0
SOLID
  5
27D
330
279
100
AcDbEntity
  8
VERMASSUNG
100
AcDbTrace
 10
211.8561030952
 20
151.5741919234
 30
0.0
 11
208.8561030952
 21
152.0241919234
 31
0.0
 12
208.8561030952
 22
151.1241919234
 32
0.0
 13
208.8561030952
 23
151.1241919234
 33
0.0
  0
LINE
  5
27E
330
279
100
AcDbEntity
  8
VERMASSUNG
100
AcDbLine
 10
111.8561030952
 20
138.9900117078
 30
0.0
 11
111.8561030952
 21
152.5741919234
 31
0.0
  0
LINE
  5
27F
330
279
100
AcDbEntity
  8
VERMASSUNG
100
AcDbLine
 10
211.8561030952
 20
126.9900117078
 30
0.0
 11
211.8561030952
 21
152.5741919234
 31
0.0
  0
LINE
  5
280
330
279
100
AcDbEntity
  8
VERMASSUNG
100
AcDbLine
 10
111.8561030952
 20
151.5741919234
 30
0.0
 11
211.8561030952
 21
151.5741919234
 31
0.0
  0
MTEXT
  5
281
330
279
100
AcDbEntity
  8
VERMASSUNG
100
AcDbMText
 10
157.4579018465
 20
154.174191807
 30
0.0
 40
2.0
 41
0.0
 71
     1
 72
     1
  1
100
  7
SLDTEXTSTYLE0
 73
     1
 44
1.0
  0
ENDBLK
  5
27B
330
279
100
AcDbEntity
  8
0
100
AcDbBlockEnd
  0
BLOCK
  5
284
330
283
100
AcDbEntity
  8
0
100
AcDbBlockBegin
  2
_D_2
 70
     0
 10
0.0
 20
0.0
 30
0.0
  3
_D_2
  1

  0
SOLID
  5
286
330
283
100
AcDbEntity
  8
VERMASSUNG
100
AcDbTrace
 10
211.8561030952
 20
157.5741919234
 30
0.0
 11
208.8561030952
 21
158.0241919234
 31
0.0
 12
208.8561030952
 22
157.1241919234
 32
0.0
 13
208.8561030952
 23
157.1241919234
 33
0.0
  0
SOLID
  5
287
330
283
100
AcDbEntity
  8
VERMASSUNG
100
AcDbTrace
 10
79.9561030952
 20
157.5741919234
 30
0.0
 11
82.9561030952
 21
157.1241919234
 31
0.0
 12
82.9561030952
 22
158.0241919234
 32
0.0
 13
82.9561030952
 23
158.0241919234
 33
0.0
  0
LINE
  5
288
330
283
100
AcDbEntity
  8
VERMASSUNG
100
AcDbLine
 10
211.8561030952
 20
126.9900117078
 30
0.0
 11
211.8561030952
 21
158.5741919234
 31
0.0
  0
LINE
  5
289
330
283
100
AcDbEntity
  8
VERMASSUNG
100
AcDbLine
 10
79.9561030952
 20
127.4806894542
 30
0.0
 11
79.9561030952
 21
158.5741919234
 31
0.0
  0
LINE
  5
28A
330
283
100
AcDbEntity
  8
VERMASSUNG
100
AcDbLine
 10
211.8561030952
 20
157.5741919234
 30
0.0
 11
79.9561030952
 21
157.5741919234
 31
0.0
  0
MTEXT
  5
28B
330
283
100
AcDbEntity
  8
VERMASSUNG
100
AcDbMText
 10
147.6774276803
 20
160.174191807
 30
0.0
 40
2.0
 41
0.0
 71
     1
 72
     1
  1
131.9
  7
SLDTEXTSTYLE0
 73
     1
 44
1.0
  0
ENDBLK
  5
285
330
283
100
AcDbEntity
  8
0
100
AcDbBlockEnd
  0
BLOCK
  5
28E
330
28D
100
AcDbEntity
  8
0
100
AcDbBlockBegin
  2
_D_3
 70
     0
 10
0.0
 20
0.0
 30
0.0
  3
_D_3
  1

  0
SOLID
  5
290
330
28D
100
AcDbEntity
  8
VERMASSUNG
100
AcDbTrace
 10
74.1367848047
 20
139.2900117078
 30
0.0
 11
73.6867848047
 21
136.2900117078
 31
0.0
 12
74.5867848047
 22
136.2900117078
 32
0.0
 13
74.5867848047
 23
136.2900117078
 33
0.0
  0
SOLID
  5
291
330
28D
100
AcDbEntity
  8
VERMASSUNG
100
AcDbTrace
 10
74.1367848047
 20
76.2900117078
 30
0.0
 11
74.5867848047
 21
79.2900117078
 31
0.0
 12
73.6867848047
 22
79.2900117078
 32
0.0
 13
73.6867848047
 23
79.2900117078
 33
0.0
  0
LINE
  5
292
330
28D
100
AcDbEntity
  8
VERMASSUNG
100
AcDbLine
 10
112.1561030952
 20
139.2900117078
 30
0.0
 11
73.1367848047
 21
139.2900117078
 31
0.0
  0
LINE
  5
293
330
28D
100
AcDbEntity
  8
VERMASSUNG
100
AcDbLine
 10
112.1561030952
 20
76.2900117078
 30
0.0
 11
73.1367848047
 21
76.2900117078
 31
0.0
  0
LINE
  5
294
330
28D
100
AcDbEntity
  8
VERMASSUNG
100
AcDbLine
 10
74.1367848047
 20
139.2900117078
 30
0.0
 11
74.1367848047
 21
76.2900117078
 31
0.0
  0
MTEXT
  5
295
330
28D
100
AcDbEntity
  8
VERMASSUNG
100
AcDbMText
 10
71.3367847952
 20
99.7474519262
 30
0.0
 40
2.0
 41
0.0
 71
     1
 72
     1
  1
HSK A 
  7
SLDTEXTSTYLE0
 11
-7.044195017643634E-15
 21
1.0
 31
0.0
 73
     1
 44
1.0
  0
MTEXT
  5
296
330
28D
100
AcDbEntity
  8
VERMASSUNG
100
AcDbMText
 10
71.5367848047
 20
108.7474524701
 30
0.0
 40
2.0
 41
0.0
 71
     1
 72
     1
  1
%%c
  7
SLDTEXTSTYLE0
 11
-7.044195017643634E-15
 21
1.0
 31
0.0
 73
     1
 44
1.0
  0
MTEXT
  5
297
330
28D
100
AcDbEntity
  8
VERMASSUNG
100
AcDbMText
 10
71.5367849211
 20
112.3565650796
 30
0.0
 40
2.0
 41
0.0
 71
     1
 72
     1
  1
63
  7
SLDTEXTSTYLE0
 11
-7.044195017643634E-15
 21
1.0
 31
0.0
 73
     1
 44
1.0
  0
ENDBLK
  5
28F
330
28D
100
AcDbEntity
  8
0
100
AcDbBlockEnd
  0
BLOCK
  5
29A
330
299
100
AcDbEntity
  8
0
100
AcDbBlockBegin
  2
_D_4
 70
     0
 10
0.0
 20
0.0
 30
0.0
  3
_D_4
  1

  0
SOLID
  5
29C
330
299
100
AcDbEntity
  8
VERMASSUNG
100
AcDbTrace
 10
221.8561030952
 20
123.2900117078
 30
0.0
 11
221.4061030952
 21
120.2900117078
 31
0.0
 12
222.3061030952
 22
120.2900117078
 32
0.0
 13
222.3061030952
 23
120.2900117078
 33
0.0
  0
SOLID
  5
29D
330
299
100
AcDbEntity
  8
VERMASSUNG
100
AcDbTrace
 10
221.8561030952
 20
92.2900117078
 30
0.0
 11
222.3061030952
 21
95.2900117078
 31
0.0
 12
221.4061030952
 22
95.2900117078
 32
0.0
 13
221.4061030952
 23
95.2900117078
 33
0.0
  0
LINE
  5
29E
330
299
100
AcDbEntity
  8
VERMASSUNG
100
AcDbLine
 10
211.0561030952
 20
123.2900117078
 30
0.0
 11
222.8561030952
 21
123.2900117078
 31
0.0
  0
LINE
  5
29F
330
299
100
AcDbEntity
  8
VERMASSUNG
100
AcDbLine
 10
211.0561030952
 20
92.2900117078
 30
0.0
 11
222.8561030952
 21
92.2900117078
 31
0.0
  0
LINE
  5
2A0
330
299
100
AcDbEntity
  8
VERMASSUNG
100
AcDbLine
 10
221.8561030952
 20
123.2900117078
 30
0.0
 11
221.8561030952
 21
92.2900117078
 31
0.0
  0
MTEXT
  5
2A1
330
299
100
AcDbEntity
  8
VERMASSUNG
100
AcDbMText
 10
219.2561030952
 20
104.4469609055
 30
0.0
 40
2.0
 41
0.0
 71
     1
 72
     1
  1
%%c
  7
SLDTEXTSTYLE0
 11
-7.044195017643634E-15
 21
1.0
 31
0.0
 73
     1
 44
1.0
  0
MTEXT
  5
2A2
330
299
100
AcDbEntity
  8
VERMASSUNG
100
AcDbMText
 10
219.2561032116
 20
108.056746888
 30
0.0
 40
2.0
 41
0.0
 71
     1
 72
     1
  1
31
  7
SLDTEXTSTYLE0
 11
-7.044195017643634E-15
 21
1.0
 31
0.0
 73
     1
 44
1.0
  0
ENDBLK
  5
29B
330
299
100
AcDbEntity
  8
0
100
AcDbBlockEnd
  0
BLOCK
  5
2A5
330
2A4
100
AcDbEntity
  8
0
100
AcDbBlockBegin
  2
_D_5
 70
     0
 10
0.0
 20
0.0
 30
0.0
  3
_D_5
  1

  0
SOLID
  5
2A7
330
2A4
100
AcDbEntity
  8
VERMASSUNG
100
AcDbTrace
 10
227.8561030952
 20
132.7900117078
 30
0.0
 11
227.4061030952
 21
129.7900117078
 31
0.0
 12
228.3061030952
 22
129.7900117078
 32
0.0
 13
228.3061030952
 23
129.7900117078
 33
0.0
  0
SOLID
  5
2A8
330
2A4
100
AcDbEntity
  8
VERMASSUNG
100
AcDbTrace
 10
227.8561030952
 20
82.7900117078
 30
0.0
 11
228.3061030952
 21
85.7900117078
 31
0.0
 12
227.4061030952
 22
85.7900117078
 32
0.0
 13
227.4061030952
 23
85.7900117078
 33
0.0
  0
LINE
  5
2A9
330
2A4
100
AcDbEntity
  8
VERMASSUNG
100
AcDbLine
 10
210.5061030952
 20
132.7900117078
 30
0.0
 11
228.8561030952
 21
132.7900117078
 31
0.0
  0
LINE
  5
2AA
330
2A4
100
AcDbEntity
  8
VERMASSUNG
100
AcDbLine
 10
210.5061030952
 20
82.7900117078
 30
0.0
 11
228.8561030952
 21
82.7900117078
 31
0.0
  0
LINE
  5
2AB
330
2A4
100
AcDbEntity
  8
VERMASSUNG
100
AcDbLine
 10
227.8561030952
 20
132.7900117078
 30
0.0
 11
227.8561030952
 21
82.7900117078
 31
0.0
  0
MTEXT
  5
2AC
330
2A4
100
AcDbEntity
  8
VERMASSUNG
100
AcDbMText
 10
225.2561030952
 20
104.2471155117
 30
0.0
 40
2.0
 41
0.0
 71
     1
 72
     1
  1
%%c
  7
SLDTEXTSTYLE0
 11
-7.044195017643634E-15
 21
1.0
 31
0.0
 73
     1
 44
1.0
  0
MTEXT
  5
2AD
330
2A4
100
AcDbEntity
  8
VERMASSUNG
100
AcDbMText
 10
225.2561032116
 20
107.8569014942
 30
0.0
 40
2.0
 41
0.0
 71
     1
 72
     1
  1
50
  7
SLDTEXTSTYLE0
 11
-7.044195017643634E-15
 21
1.0
 31
0.0
 73
     1
 44
1.0
  0
ENDBLK
  5
2A6
330
2A4
100
AcDbEntity
  8
0
100
AcDbBlockEnd
  0
BLOCK
  5
2B0
330
2AF
100
AcDbEntity
  8
0
100
AcDbBlockBegin
  2
_D_6
 70
     0
 10
0.0
 20
0.0
 30
0.0
  3
_D_6
  1

  0
SOLID
  5
2B2
330
2AF
100
AcDbEntity
  8
VERMASSUNG
100
AcDbTrace
 10
233.8561030952
 20
133.7900117078
 30
0.0
 11
233.4061030952
 21
130.7900117078
 31
0.0
 12
234.3061030952
 22
130.7900117078
 32
0.0
 13
234.3061030952
 23
130.7900117078
 33
0.0
  0
SOLID
  5
2B3
330
2AF
100
AcDbEntity
  8
VERMASSUNG
100
AcDbTrace
 10
233.8561030952
 20
81.7900117078
 30
0.0
 11
234.3061030952
 21
84.7900117078
 31
0.0
 12
233.4061030952
 22
84.7900117078
 32
0.0
 13
233.4061030952
 23
84.7900117078
 33
0.0
  0
LINE
  5
2B4
330
2AF
100
AcDbEntity
  8
VERMASSUNG
100
AcDbLine
 10
154.8561030952
 20
133.7900117078
 30
0.0
 11
234.8561030952
 21
133.7900117078
 31
0.0
  0
LINE
  5
2B5
330
2AF
100
AcDbEntity
  8
VERMASSUNG
100
AcDbLine
 10
154.8561030952
 20
81.7900117078
 30
0.0
 11
234.8561030952
 21
81.7900117078
 31
0.0
  0
LINE
  5
2B6
330
2AF
100
AcDbEntity
  8
VERMASSUNG
100
AcDbLine
 10
233.8561030952
 20
133.7900117078
 30
0.0
 11
233.8561030952
 21
81.7900117078
 31
0.0
  0
MTEXT
  5
2B7
330
2AF
100
AcDbEntity
  8
VERMASSUNG
100
AcDbMText
 10
231.2561030952
 20
104.5862009594
 30
0.0
 40
2.0
 41
0.0
 71
     1
 72
     1
  1
%%c
  7
SLDTEXTSTYLE0
 11
-7.044195017643634E-15
 21
1.0
 31
0.0
 73
     1
 44
1.0
  0
MTEXT
  5
2B8
330
2AF
100
AcDbEntity
  8
VERMASSUNG
100
AcDbMText
 10
231.2561032116
 20
108.1959869419
 30
0.0
 40
2.0
 41
0.0
 71
     1
 72
     1
  1
52
  7
SLDTEXTSTYLE0
 11
-7.044195017643634E-15
 21
1.0
 31
0.0
 73
     1
 44
1.0
  0
ENDBLK
  5
2B1
330
2AF
100
AcDbEntity
  8
0
100
AcDbBlockEnd
  0
ENDSEC
  0
SECTION
  2
ENTITIES
  0
MTEXT
  5
4B
330
1F
100
AcDbEntity
  8
KOPF_DÜNN
100
AcDbMText
 10
13.8892156294
 20
23.8770940835
 30
0.0
 40
3.0
 41
0.0
 71
     1
 72
     1
  1
HA6.Go2.K01.100
  7
SLDTEXTSTYLE0
 73
     1
 44
1.0
  0
MTEXT
  5
4C
330
1F
100
AcDbEntity
  8
VERMASSUNG
100
AcDbMText
 10
13.9329988022
 20
28.9162328764
 30
0.0
 40
3.0
 41
0.0
 71
     1
 72
     1
  1
Gewindeschneidfutter_Tapping chuck
  7
SLDTEXTSTYLE0
 73
     1
 44
1.0
  0
MTEXT
  5
4D
330
1F
100
AcDbEntity
  8
VERMASSUNG
100
AcDbMText
 10
98.8601118557
 20
13.8584013384
 30
0.0
 40
2.0
 41
0.0
 71
     1
 72
     1
  1
Datum: 12.10.2006
  7
SLDTEXTSTYLE0
 73
     1
 44
1.0
  0
MTEXT
  5
4E
330
1F
100
AcDbEntity
  8
VERMASSUNG
100
AcDbMText
 10
13.933048693
 20
18.0701447943
 30
0.0
 40
2.0
 41
0.0
 71
     1
 72
     1
  1
DIN 69 893 HSK A 63
  7
SLDTEXTSTYLE0
 73
     1
 44
1.0
  0
MTEXT
  5
4F
330
1F
100
AcDbEntity
  8
VERMASSUNG
100
AcDbMText
 10
13.9808475933
 20
13.9309618897
 30
0.0
 40
2.0
 41
0.0
 71
     1
 72
     1
  1
Gewicht: 1460g
  7
SLDTEXTSTYLE0
 73
     1
 44
1.0
  0
LINE
  5
50
330
1F
100
AcDbEntity
  8
0
  6
SLD-Durchgehend
 62
     7
370
    15
100
AcDbLine
 10
194.506101462
 20
132.7900120803
 30
0.0
 11
179.4061066238
 21
132.7900120803
 31
0.0
  0
LINE
  5
51
330
1F
100
AcDbEntity
  8
0
  6
SLD-Durchgehend
 62
     7
370
    15
100
AcDbLine
 10
179.4061066238
 20
82.7900113352
 30
0.0
 11
194.506101462
 21
82.7900113352
 31
0.0
  0
ARC
  5
52
330
1F
100
AcDbEntity
  8
0
  6
SLD-Durchgehend
 62
     7
370
    15
100
AcDbCircle
 10
194.8934014298
 20
132.8900117078
 30
0.0
 40
0.4000000000000222
100
AcDbArc
 50
194.4775121859
 51
270.0
  0
ARC
  5
53
330
1F
100
AcDbEntity
  8
0
  6
SLD-Durchgehend
 62
     7
370
    15
100
AcDbCircle
 10
194.8934014298
 20
82.6900117078
 30
0.0
 40
0.4000000000000222
100
AcDbArc
 50
90.0
 51
165.5224878141
  0
LINE
  5
54
330
1F
100
AcDbEntity
  8
0
  6
SLD-Durchgehend
 62
     7
370
    15
100
AcDbLine
 10
210.5061040846
 20
132.7900120803
 30
0.0
 11
203.0061037866
 21
132.7900120803
 31
0.0
  0
LINE
  5
55
330
1F
100
AcDbEntity
  8
0
  6
SLD-Durchgehend
 62
     7
370
    15
100
AcDbLine
 10
203.0061037866
 20
82.7900113352
 30
0.0
 11
210.5061040846
 21
82.7900113352
 31
0.0
  0
ARC
  5
56
330
1F
100
AcDbEntity
  8
0
  6
SLD-Durchgehend
 62
     7
370
    15
100
AcDbCircle
 10
179.0188047605
 20
132.8900117078
 30
0.0
 40
0.4000000000000057
100
AcDbArc
 50
270.0
 51
345.5224878141
  0
ARC
  5
57
330
1F
100
AcDbEntity
  8
0
  6
SLD-Durchgehend
 62
     7
370
    15
100
AcDbCircle
 10
179.0188047605
 20
82.6900117078
 30
0.0
 40
0.4000000000000199
100
AcDbArc
 50
14.4775121859
 51
90.0
  0
LINE
  5
58
330
1F
100
AcDbEntity
  8
0
  6
SLD-Durchgehend
 62
     7
370
    15
100
AcDbLine
 10
170.9061042992
 20
132.7900120803
 30
0.0
 11
163.4061040011
 21
132.7900120803
 31
0.0
  0
LINE
  5
59
330
1F
100
AcDbEntity
  8
0
  6
SLD-Durchgehend
 62
     7
370
    15
100
AcDbLine
 10
163.4061040011
 20
82.7900113352
 30
0.0
 11
170.9061042992
 21
82.7900113352
 31
0.0
  0
ARC
  5
5A
330
1F
100
AcDbEntity
  8
0
  6
SLD-Durchgehend
 62
     7
370
    15
100
AcDbCircle
 10
210.5061030952
 20
131.7900117078
 30
0.0
 40
1.0
100
AcDbArc
 50
0.0
 51
90.0
  0
ARC
  5
5B
330
1F
100
AcDbEntity
  8
0
  6
SLD-Durchgehend
 62
     7
370
    15
100
AcDbCircle
 10
210.5061030952
 20
83.7900117078
 30
0.0
 40
1.0
100
AcDbArc
 50
270.0
 51
0.0
  0
ARC
  5
5C
330
1F
100
AcDbEntity
  8
0
  6
SLD-Durchgehend
 62
     7
370
    15
100
AcDbCircle
 10
202.6188047605
 20
132.8900117078
 30
0.0
 40
0.4000000000000222
100
AcDbArc
 50
270.0
 51
345.5224878141
  0
ARC
  5
5D
330
1F
100
AcDbEntity
  8
0
  6
SLD-Durchgehend
 62
     7
370
    15
100
AcDbCircle
 10
202.6188047605
 20
82.6900117078
 30
0.0
 40
0.4000000000000258
100
AcDbArc
 50
14.4775121859
 51
90.0
  0
ARC
  5
5E
330
1F
100
AcDbEntity
  8
0
  6
SLD-Durchgehend
 62
     7
370
    15
100
AcDbCircle
 10
171.2934014298
 20
132.8900117078
 30
0.0
 40
0.4000000000000089
100
AcDbArc
 50
194.4775121859
 51
270.0
  0
ARC
  5
5F
330
1F
100
AcDbEntity
  8
0
  6
SLD-Durchgehend
 62
     7
370
    15
100
AcDbCircle
 10
171.2934014298
 20
82.6900117078
 30
0.0
 40
0.4000000000000341
100
AcDbArc
 50
90.0
 51
165.5224878141
  0
ARC
  5
60
330
1F
100
AcDbEntity
  8
0
  6
SLD-Durchgehend
 62
     7
370
    15
100
AcDbCircle
 10
163.4061030952
 20
131.7900117078
 30
0.0
 40
1.0
100
AcDbArc
 50
90.0
 51
180.0
  0
ARC
  5
61
330
1F
100
AcDbEntity
  8
0
  6
SLD-Durchgehend
 62
     7
370
    15
100
AcDbCircle
 10
163.4061030952
 20
83.7900117078
 30
0.0
 40
1.0
100
AcDbArc
 50
180.0
 51
270.0
  0
LINE
  5
62
330
1F
100
AcDbEntity
  8
0
  6
SLD-Durchgehend
 62
     7
370
    15
100
AcDbLine
 10
202.618807706
 20
132.4900125899
 30
0.0
 11
194.8934049932
 21
132.4900125899
 31
0.0
  0
LINE
  5
63
330
1F
100
AcDbEntity
  8
0
  6
SLD-Durchgehend
 62
     7
370
    15
100
AcDbLine
 10
194.8934049932
 20
83.0900108256
 30
0.0
 11
202.618807706
 21
83.0900108256
 31
0.0
  0
LINE
  5
64
330
1F
100
AcDbEntity
  8
0
  6
SLD-Durchgehend
 62
     7
370
    15
100
AcDbLine
 10
179.0188030926
 20
132.4900125899
 30
0.0
 11
171.2934003798
 21
132.4900125899
 31
0.0
  0
LINE
  5
65
330
1F
100
AcDbEntity
  8
0
  6
SLD-Durchgehend
 62
     7
370
    15
100
AcDbLine
 10
171.2934003798
 20
83.0900108256
 30
0.0
 11
179.0188030926
 21
83.0900108256
 31
0.0
  0
LINE
  5
66
330
1F
100
AcDbEntity
  8
0
  6
SLD-Durchgehend
 62
     7
370
    15
100
AcDbLine
 10
112.1561031094
 20
76.2900112011
 30
0.0
 11
116.8061030683
 21
76.2900112011
 31
0.0
  0
LINE
  5
67
330
1F
100
AcDbEntity
  8
0
  6
SLD-Durchgehend
 62
     7
370
    15
100
AcDbLine
 10
116.83409164
 20
139.2900122144
 30
0.0
 11
112.1561031094
 21
139.2900122144
 31
0.0
  0
ARC
  5
68
330
1F
100
AcDbEntity
  8
0
  6
SLD-Durchgehend
 62
     7
370
    15
100
AcDbCircle
 10
112.1561030952
 20
76.5900117078
 30
0.0
 40
0.3000000000000114
100
AcDbArc
 50
180.0
 51
270.0
  0
ARC
  5
69
330
1F
100
AcDbEntity
  8
0
  6
SLD-Durchgehend
 62
     7
370
    15
100
AcDbCircle
 10
112.1561030952
 20
138.9900117078
 30
0.0
 40
0.3000000000000114
100
AcDbArc
 50
90.0
 51
180.0
  0
ARC
  5
6A
330
1F
100
AcDbEntity
  8
0
  6
SLD-Durchgehend
 62
     7
370
    15
100
AcDbCircle
 10
138.8061030952
 20
80.7900117078
 30
0.0
 40
1.000000000000008
100
AcDbArc
 50
90.0
 51
143.1139143113
  0
ARC
  5
6B
330
1F
100
AcDbEntity
  8
0
  6
SLD-Durchgehend
 62
     7
370
    15
100
AcDbCircle
 10
138.8061030952
 20
134.7900117078
 30
0.0
 40
1.000000000000028
100
AcDbArc
 50
216.9041904112
 51
270.0
  0
LINE
  5
6C
330
1F
100
AcDbEntity
  8
0
  6
SLD-Durchgehend
 62
     7
370
    15
100
AcDbLine
 10
138.8061029491
 20
81.7900111713
 30
0.0
 11
154.8561045555
 21
81.7900111713
 31
0.0
  0
LINE
  5
6D
330
1F
100
AcDbEntity
  8
0
  6
SLD-Durchgehend
 62
     7
370
    15
100
AcDbLine
 10
154.8561045555
 20
133.7900122442
 30
0.0
 11
138.8061029491
 21
133.7900122442
 31
0.0
  0
ARC
  5
6E
330
1F
100
AcDbEntity
  8
0
  6
SLD-Durchgehend
 62
     7
370
    15
100
AcDbCircle
 10
154.8561030952
 20
132.7900117078
 30
0.0
 40
1.0
100
AcDbArc
 50
0.0
 51
90.0
  0
ARC
  5
6F
330
1F
100
AcDbEntity
  8
0
  6
SLD-Durchgehend
 62
     7
370
    15
100
AcDbCircle
 10
154.8561030952
 20
82.7900117078
 30
0.0
 40
1.0
100
AcDbArc
 50
270.0
 51
0.0
  0
ARC
  5
70
330
1F
100
AcDbEntity
  8
0
  6
SLD-Durchgehend
 62
     7
370
    15
100
AcDbCircle
 10
111.3560963425
 20
83.2195740934
 30
0.0
 40
0.6000067526677242
100
AcDbArc
 50
33.5571153394
 51
90.0
  0
ARC
  5
71
330
1F
100
AcDbEntity
  8
0
  6
SLD-Durchgehend
 62
     7
370
    15
100
AcDbCircle
 10
111.3560963425
 20
132.3604493222
 30
0.0
 40
0.6000067526677242
100
AcDbArc
 50
270.0
 51
326.4428846606
  0
LINE
  5
72
330
1F
100
AcDbEntity
  8
0
  6
SLD-Durchgehend
 62
     7
370
    15
100
AcDbLine
 10
98.6245946613
 20
131.447741557
 30
0.0
 11
86.056102219
 21
130.8180576005
 31
0.0
  0
LINE
  5
73
330
1F
100
AcDbEntity
  8
0
  6
SLD-Durchgehend
 62
     7
370
    15
100
AcDbLine
 10
109.8561030002
 20
132.0104429313
 30
0.0
 11
107.0391015736
 21
131.8693103083
 31
0.0
  0
LINE
  5
74
330
1F
100
AcDbEntity
  8
0
  6
SLD-Durchgehend
 62
     7
370
    15
100
AcDbLine
 10
107.0391574529
 20
83.7107112446
 30
0.0
 11
109.8561030002
 21
83.5695804843
 31
0.0
  0
LINE
  5
75
330
1F
100
AcDbEntity
  8
0
  6
SLD-Durchgehend
 62
     7
370
    15
100
AcDbLine
 10
90.0561028746
 20
84.5615656861
 30
0.0
 11
98.6249969927
 21
84.1322613695
 31
0.0
  0
LINE
  5
76
330
1F
100
AcDbEntity
  8
0
  6
SLD-Durchgehend
 62
     7
370
    15
100
AcDbLine
 10
109.8561030002
 20
83.5695804843
 30
0.0
 11
110.7128159263
 21
83.7991365977
 31
0.0
  0
LINE
  5
77
330
1F
100
AcDbEntity
  8
0
  6
SLD-Durchgehend
 62
     7
370
    15
100
AcDbLine
 10
110.7128159263
 20
131.7808868178
 30
0.0
 11
109.8561030002
 21
132.0104429313
 31
0.0
  0
ARC
  5
78
330
1F
100
AcDbEntity
  8
0
  6
SLD-Durchgehend
 62
     7
370
    15
100
AcDbCircle
 10
110.8681072956
 20
83.219580846
 30
0.0
 40
0.6000000000000071
100
AcDbArc
 50
90.0
 51
105.0
  0
ARC
  5
79
330
1F
100
AcDbEntity
  8
0
  6
SLD-Durchgehend
 62
     7
370
    15
100
AcDbCircle
 10
110.8681072956
 20
132.3604425695
 30
0.0
 40
0.6000000000000227
100
AcDbArc
 50
255.0
 51
270.0
  0
LINE
  5
7A
330
1F
100
AcDbEntity
  8
0
  6
SLD-Durchgehend
 62
     7
370
    15
100
AcDbLine
 10
110.86810733
 20
83.8195809909
 30
0.0
 11
111.3560963193
 21
83.8195809909
 31
0.0
  0
LINE
  5
7B
330
1F
100
AcDbEntity
  8
0
  6
SLD-Durchgehend
 62
     7
370
    15
100
AcDbLine
 10
111.3560963193
 20
131.7604424246
 30
0.0
 11
110.86810733
 21
131.7604424246
 31
0.0
  0
ARC
  5
7C
330
1F
100
AcDbEntity
  8
0
  6
SLD-Durchgehend
 62
     7
370
    15
100
AcDbCircle
 10
156.6561030952
 20
130.9650117078
 30
0.0
 40
0.8000000000000398
100
AcDbArc
 50
180.0
 51
270.0
  0
ARC
  5
7D
330
1F
100
AcDbEntity
  8
0
  6
SLD-Durchgehend
 62
     7
370
    15
100
AcDbCircle
 10
156.6561030952
 20
84.6150117078
 30
0.0
 40
0.7999999999999972
100
AcDbArc
 50
90.0
 51
180.0
  0
LINE
  5
7E
330
1F
100
AcDbEntity
  8
0
  6
SLD-Durchgehend
 62
     7
370
    15
100
AcDbLine
 10
162.4061019746
 20
130.1650123485
 30
0.0
 11
156.6561014978
 21
130.1650123485
 31
0.0
  0
LINE
  5
7F
330
1F
100
AcDbEntity
  8
0
  6
SLD-Durchgehend
 62
     7
370
    15
100
AcDbLine
 10
156.6561014978
 20
85.415011067
 30
0.0
 11
162.4061019746
 21
85.415011067
 31
0.0
  0
LINE
  5
80
330
1F
100
AcDbEntity
  8
0
  6
SLD-Durchgehend
 62
     7
370
    15
100
AcDbLine
 10
211.5061061112
 20
88.2400123217
 30
0.0
 11
211.8561045853
 21
88.5900107958
 31
0.0
  0
LINE
  5
81
330
1F
100
AcDbEntity
  8
0
  6
SLD-Durchgehend
 62
     7
370
    15
100
AcDbLine
 10
211.8561045853
 20
126.9900126197
 30
0.0
 11
211.5061061112
 21
127.3400110938
 31
0.0
  0
LINE
  5
82
330
1F
100
AcDbEntity
  8
0
  6
SLD-Durchgehend
 62
     7
370
    15
100
AcDbLine
 10
81.2394396988
 20
86.9200115838
 30
0.0
 11
88.6561033902
 21
86.9200115838
 31
0.0
  0
ARC
  5
83
330
1F
100
AcDbEntity
  8
0
  6
SLD-Durchgehend
 62
     7
370
    15
100
AcDbCircle
 10
88.6561030952
 20
85.5200117078
 30
0.0
 40
1.400000000000006
100
AcDbArc
 50
42.2465410162
 51
90.0
  0
LINE
  5
84
330
1F
100
AcDbEntity
  8
0
  6
SLD-Durchgehend
 62
     7
370
    15
100
AcDbLine
 10
79.9571351734
 20
88.0689786562
 30
0.0
 11
81.0972658572
 21
86.9288479724
 31
0.0
  0
LINE
  5
85
330
1F
100
AcDbEntity
  8
0
  6
SLD-Durchgehend
 62
     7
370
    15
100
AcDbLine
 10
81.0972658572
 20
128.6511754432
 30
0.0
 11
79.9660050896
 21
127.5199128129
 31
0.0
  0
ARC
  5
86
330
1F
100
AcDbEntity
  8
0
  6
SLD-Durchgehend
 62
     7
370
    15
100
AcDbCircle
 10
84.6561030952
 20
130.0600117078
 30
0.0
 40
1.399999999999984
100
AcDbArc
 50
270.0
 51
301.7485287426
  0
LINE
  5
87
330
1F
100
AcDbEntity
  8
0
  6
SLD-Durchgehend
 62
     7
370
    15
100
AcDbLine
 10
84.6561027346
 20
128.6600118317
 30
0.0
 11
81.2303686169
 21
128.6600118317
 31
0.0
  0
LINE
  5
88
330
1F
100
AcDbEntity
  8
0
  6
SLD-Durchgehend
 62
     7
370
    15
100
AcDbLine
 10
194.506101462
 20
132.7900120803
 30
0.0
 11
194.506101462
 21
82.7900113352
 31
0.0
  0
LINE
  5
89
330
1F
100
AcDbEntity
  8
0
  6
SLD-Durchgehend
 62
     7
370
    15
100
AcDbLine
 10
179.4061066238
 20
132.7900120803
 30
0.0
 11
179.4061066238
 21
82.7900113352
 31
0.0
  0
LINE
  5
8A
330
1F
100
AcDbEntity
  8
0
  6
SLD-Durchgehend
 62
     7
370
    15
100
AcDbLine
 10
203.0061037866
 20
132.7900120803
 30
0.0
 11
203.0061037866
 21
82.7900113352
 31
0.0
  0
LINE
  5
8B
330
1F
100
AcDbEntity
  8
0
  6
SLD-Durchgehend
 62
     7
370
    15
100
AcDbLine
 10
170.9061042992
 20
132.7900120803
 30
0.0
 11
170.9061042992
 21
82.7900113352
 31
0.0
  0
LINE
  5
8C
330
1F
100
AcDbEntity
  8
0
  6
SLD-Durchgehend
 62
     7
370
    15
100
AcDbLine
 10
211.5061061112
 20
131.7900119164
 30
0.0
 11
211.5061061112
 21
83.7900114992
 31
0.0
  0
LINE
  5
8D
330
1F
100
AcDbEntity
  8
0
  6
SLD-Durchgehend
 62
     7
370
    15
100
AcDbLine
 10
162.4061019746
 20
131.7900119164
 30
0.0
 11
162.4061019746
 21
83.7900114992
 31
0.0
  0
LINE
  5
8E
330
1F
100
AcDbEntity
  8
0
  6
SLD-Durchgehend
 62
     7
370
    15
100
AcDbLine
 10
116.8061030683
 20
127.6400124469
 30
0.0
 11
126.4641705555
 21
127.6400124469
 31
0.0
  0
LINE
  5
8F
330
1F
100
AcDbEntity
  8
0
  6
SLD-Durchgehend
 62
     7
370
    15
100
AcDbLine
 10
126.4641705555
 20
77.603094075
 30
0.0
 11
126.4641705555
 21
127.6400124469
 31
0.0
  0
LINE
  5
90
330
1F
100
AcDbEntity
  8
0
  6
SLD-Durchgehend
 62
     7
370
    15
100
AcDbLine
 10
126.4641705555
 20
77.603094075
 30
0.0
 11
124.8061034483
 21
77.603094075
 31
0.0
  0
ARC
  5
91
330
1F
100
AcDbEntity
  8
0
  6
SLD-Durchgehend
 62
     7
370
    15
100
AcDbCircle
 10
124.1463606725
 20
56.3547815179
 30
0.0
 40
21.25855232734715
100
AcDbArc
 50
88.2215841219
 51
110.1991894934
  0
LINE
  5
92
330
1F
100
AcDbEntity
  8
0
  6
SLD-Durchgehend
 62
     7
370
    15
100
AcDbLine
 10
116.8061030683
 20
76.3058883884
 30
0.0
 11
116.8061030683
 21
76.2900112011
 31
0.0
  0
LWPOLYLINE
  5
93
330
1F
100
AcDbEntity
  8
0
  6
SLD-Durchgehend
 62
     7
370
    15
100
AcDbPolyline
 90
       11
 70
   128
 43
0.0
 10
124.8061034483
 20
138.2572071441
 10
123.5064949495
 20
138.2849121281
 10
122.206887382
 20
138.3678780683
 10
121.0174655197
 20
138.4918650427
 10
119.9015883384
 20
138.6494392344
 10
118.9291702238
 20
138.8188430854
 10
118.0959508409
 20
138.9873863944
 10
117.4626538185
 20
139.129701797
 10
117.0252404762
 20
139.2350716331
 10
116.8254326684
 20
139.2851097324
 10
116.83409164
 20
139.2829155364
  0
LINE
  5
94
330
1F
100
AcDbEntity
  8
0
  6
SLD-Durchgehend
 62
     7
370
    15
100
AcDbLine
 10
126.4641705555
 20
138.2572071441
 30
0.0
 11
124.8061034483
 21
138.2572071441
 31
0.0
  0
LINE
  5
95
330
1F
100
AcDbEntity
  8
0
  6
SLD-Durchgehend
 62
     7
370
    15
100
AcDbLine
 10
126.4641705555
 20
132.2487013229
 30
0.0
 11
126.4641705555
 21
138.2572071441
 31
0.0
  0
LINE
  5
96
330
1F
100
AcDbEntity
  8
0
  6
SLD-Durchgehend
 62
     7
370
    15
100
AcDbLine
 10
124.051723781
 20
132.2487013229
 30
0.0
 11
126.4641705555
 21
132.2487013229
 31
0.0
  0
ARC
  5
97
330
1F
100
AcDbEntity
  8
0
  6
SLD-Durchgehend
 62
     7
370
    15
100
AcDbCircle
 10
123.6819103979
 20
124.8301079344
 30
0.0
 40
7.427805180680916
100
AcDbArc
 50
87.1461947163
 51
157.7718644507
  0
LWPOLYLINE
  5
98
330
1F
100
AcDbEntity
  8
0
  6
SLD-Durchgehend
 62
     7
370
    15
100
AcDbPolyline
 90
       20
 70
   128
 43
0.0
 10
119.8561034751
 20
132.8489759751
 10
118.5381409367
 20
132.9847199657
 10
117.3688514744
 20
133.3682423272
 10
116.4732800451
 20
133.9398043045
 10
115.9565790211
 20
134.6134466865
 10
115.8812354905
 20
135.2909019031
 10
116.2487777536
 20
135.8928939142
 10
117.0181107362
 20
136.3697813638
 10
118.1118806479
 20
136.6909442284
 10
119.4046616209
 20
136.8390207925
 10
120.7400040356
 20
136.8103584089
 10
121.9715142277
 20
136.6083489545
 10
122.9724503708
 20
136.2370641717
 10
123.6278267232
 20
135.7113903203
 10
123.8560957489
 20
135.073637385
 10
123.6360251558
 20
134.3920117059
 10
122.9965287847
 20
133.7465865352
 10
122.0013975752
 20
133.2246566006
 10
120.7593373609
 20
132.9119352438
 10
119.8561034751
 20
132.8489759751
  0
LWPOLYLINE
  5
99
330
1F
100
AcDbEntity
  8
0
  6
SLD-Durchgehend
 62
     7
370
    15
100
AcDbPolyline
 90
       20
 70
   128
 43
0.0
 10
119.8561034751
 20
118.4109186568
 10
118.5381409367
 20
118.6225514673
 10
117.3688514744
 20
119.2285947316
 10
116.4732800451
 20
120.1558986493
 10
115.9565790211
 20
121.291190181
 10
115.8812354905
 20
122.4881622755
 10
116.2487777536
 20
123.6091440358
 10
117.0181107362
 20
124.5449332335
 10
118.1118806479
 20
125.2043673583
 10
119.4046616209
 20
125.5176810362
 10
120.7400040356
 20
125.4565415718
 10
121.9715142277
 20
125.0322552212
 10
122.9724503708
 20
124.2796702125
 10
123.6278267232
 20
123.2647018322
 10
123.8560957489
 20
122.0975311288
 10
123.6360251558
 20
120.9124818259
 10
122.9965287847
 20
119.8389956542
 10
122.0013975752
 20
119.0002586507
 10
120.7593373609
 20
118.508897517
 10
119.8561034751
 20
118.4109186568
  0
LINE
  5
9A
330
1F
100
AcDbEntity
  8
0
  6
SLD-Durchgehend
 62
     7
370
    15
100
AcDbLine
 10
127.9461031434
 20
80.2921743878
 30
0.0
 11
127.9461031434
 21
127.6400124469
 31
0.0
  0
LINE
  5
9B
330
1F
100
AcDbEntity
  8
0
  6
SLD-Durchgehend
 62
     7
370
    15
100
AcDbLine
 10
127.9461031434
 20
80.2921743878
 30
0.0
 11
126.4641705555
 21
77.603094075
 31
0.0
  0
LINE
  5
9C
330
1F
100
AcDbEntity
  8
0
  6
SLD-Durchgehend
 62
     7
370
    15
100
AcDbLine
 10
126.4641705555
 20
127.6400124469
 30
0.0
 11
127.9461031434
 21
127.6400124469
 31
0.0
  0
LINE
  5
9D
330
1F
100
AcDbEntity
  8
0
  6
SLD-Durchgehend
 62
     7
370
    15
100
AcDbLine
 10
137.8061027852
 20
78.2297344693
 30
0.0
 11
137.8061027852
 21
127.6400124469
 31
0.0
  0
ARC
  5
9E
330
1F
100
AcDbEntity
  8
0
  6
SLD-Durchgehend
 62
     7
370
    15
100
AcDbCircle
 10
137.1936848685
 20
78.2155503302
 30
0.0
 40
0.6125821533107654
100
AcDbArc
 50
271.1616423437
 51
1.3267835803
  0
LINE
  5
9F
330
1F
100
AcDbEntity
  8
0
  6
SLD-Durchgehend
 62
     7
370
    15
100
AcDbLine
 10
137.2061038045
 20
127.6400124469
 30
0.0
 11
137.8061027852
 21
127.6400124469
 31
0.0
  0
LINE
  5
A0
330
1F
100
AcDbEntity
  8
0
  6
SLD-Durchgehend
 62
     7
370
    15
100
AcDbLine
 10
137.2061038045
 20
77.603094075
 30
0.0
 11
133.2480350164
 21
77.603094075
 31
0.0
  0
LINE
  5
A1
330
1F
100
AcDbEntity
  8
0
  6
SLD-Durchgehend
 62
     7
370
    15
100
AcDbLine
 10
133.2480350164
 20
77.603094075
 30
0.0
 11
133.2480350164
 21
127.6400124469
 31
0.0
  0
LINE
  5
A2
330
1F
100
AcDbEntity
  8
0
  6
SLD-Durchgehend
 62
     7
370
    15
100
AcDbLine
 10
133.2480350164
 20
127.6400124469
 30
0.0
 11
137.2061038045
 21
127.6400124469
 31
0.0
  0
LINE
  5
A3
330
1F
100
AcDbEntity
  8
0
  6
SLD-Durchgehend
 62
     7
370
    15
100
AcDbLine
 10
133.2480350164
 20
77.603094075
 30
0.0
 11
131.7661033598
 21
80.2921743878
 31
0.0
  0
LINE
  5
A4
330
1F
100
AcDbEntity
  8
0
  6
SLD-Durchgehend
 62
     7
370
    15
100
AcDbLine
 10
131.7661033598
 20
80.2921743878
 30
0.0
 11
131.7661033598
 21
127.6400124469
 31
0.0
  0
LINE
  5
A5
330
1F
100
AcDbEntity
  8
0
  6
SLD-Durchgehend
 62
     7
370
    15
100
AcDbLine
 10
131.7661033598
 20
127.6400124469
 30
0.0
 11
133.2480350164
 21
127.6400124469
 31
0.0
  0
LINE
  5
A6
330
1F
100
AcDbEntity
  8
0
  6
SLD-Durchgehend
 62
     7
370
    15
100
AcDbLine
 10
111.8561030952
 20
76.5900125542
 30
0.0
 11
111.8561030952
 21
138.9900108614
 31
0.0
  0
ARC
  5
A7
330
1F
100
AcDbEntity
  8
0
  6
SLD-Durchgehend
 62
     7
370
    15
100
AcDbCircle
 10
119.8532935373
 20
119.7050914194
 30
0.0
 40
4.109279238160697
100
AcDbArc
 50
19.114187957
 51
159.5565272196
  0
LINE
  5
A8
330
1F
100
AcDbEntity
  8
0
  6
SLD-Durchgehend
 62
     7
370
    15
100
AcDbLine
 10
131.6684281108
 20
81.3900118508
 30
0.0
 11
130.9661028561
 21
81.3900118508
 31
0.0
  0
LINE
  5
A9
330
1F
100
AcDbEntity
  8
0
  6
SLD-Durchgehend
 62
     7
370
    15
100
AcDbLine
 10
131.3718055961
 20
134.1900115647
 30
0.0
 11
130.9661028561
 21
134.1900115647
 31
0.0
  0
ARC
  5
AA
330
1F
100
AcDbEntity
  8
0
  6
SLD-Durchgehend
 62
     7
370
    15
100
AcDbCircle
 10
130.927659839
 20
134.9012033001
 30
0.0
 40
0.8384862181329132
100
AcDbArc
 50
301.9851556421
 51
0.5782186088
  0
LWPOLYLINE
  5
AB
330
1F
100
AcDbEntity
  8
0
  6
SLD-Durchgehend
 62
     7
370
    15
100
AcDbPolyline
 90
        3
 70
   128
 43
0.0
 10
131.7399555472
 20
127.6400124469
 10
131.7600516257
 20
127.7877257951
 10
131.7661033598
 20
127.9258781859
  0
ARC
  5
AC
330
1F
100
AcDbEntity
  8
0
  6
SLD-Durchgehend
 62
     7
370
    15
100
AcDbCircle
 10
128.7860341501
 20
134.9020182929
 30
0.0
 40
0.8399658136910594
100
AcDbArc
 50
179.4783948307
 51
237.9582309184
  0
LINE
  5
AD
330
1F
100
AcDbEntity
  8
0
  6
SLD-Durchgehend
 62
     7
370
    15
100
AcDbLine
 10
128.7461036471
 20
134.1900115647
 30
0.0
 11
128.3404009071
 21
134.1900115647
 31
0.0
  0
LINE
  5
AE
330
1F
100
AcDbEntity
  8
0
  6
SLD-Durchgehend
 62
     7
370
    15
100
AcDbLine
 10
128.7461036471
 20
81.3900118508
 30
0.0
 11
128.0437783924
 21
81.3900118508
 31
0.0
  0
LWPOLYLINE
  5
AF
330
1F
100
AcDbEntity
  8
0
  6
SLD-Durchgehend
 62
     7
370
    15
100
AcDbPolyline
 90
        3
 70
   128
 43
0.0
 10
127.9461031434
 20
127.9258781859
 10
127.9701573429
 20
127.6515478083
 10
127.972250956
 20
127.6400124469
  0
LINE
  5
B0
330
1F
100
AcDbEntity
  8
0
  6
SLD-Durchgehend
 62
     7
370
    15
100
AcDbLine
 10
130.9661028561
 20
134.1900115647
 30
0.0
 11
128.7461036471
 21
134.1900115647
 31
0.0
  0
LINE
  5
B1
330
1F
100
AcDbEntity
  8
0
  6
SLD-Durchgehend
 62
     7
370
    15
100
AcDbLine
 10
130.9661028561
 20
81.3900118508
 30
0.0
 11
128.7461036471
 21
81.3900118508
 31
0.0
  0
LINE
  5
B2
330
1F
100
AcDbEntity
  8
0
  6
SLD-Durchgehend
 62
     7
370
    15
100
AcDbLine
 10
138.0061024455
 20
134.1900115647
 30
0.0
 11
137.9841828374
 21
134.1900115647
 31
0.0
  0
LINE
  5
B3
330
1F
100
AcDbEntity
  8
0
  6
SLD-Durchgehend
 62
     7
370
    15
100
AcDbLine
 10
138.0061024455
 20
81.3900118508
 30
0.0
 11
137.982368621
 21
81.3900118508
 31
0.0
  0
LINE
  5
B4
330
1F
100
AcDbEntity
  8
0
  6
SLD-Durchgehend
 62
     7
370
    15
100
AcDbLine
 10
155.8561028567
 20
132.7900120803
 30
0.0
 11
155.8561028567
 21
82.7900113352
 31
0.0
  0
LINE
  5
B5
330
1F
100
AcDbEntity
  8
0
  6
SLD-Durchgehend
 62
     7
370
    15
100
AcDbLine
 10
90.0561028746
 20
84.5615656861
 30
0.0
 11
90.0561028746
 21
85.8262738027
 31
0.0
  0
LWPOLYLINE
  5
B6
330
1F
100
AcDbEntity
  8
0
  6
SLD-Durchgehend
 62
     7
370
    15
100
AcDbPolyline
 90
        5
 70
   128
 43
0.0
 10
89.2778152255
 20
86.9568602928
 10
89.3100445745
 20
86.902331356
 10
89.727528545
 20
86.422165651
 10
90.0250041512
 20
85.9835555591
 10
90.0561028746
 20
85.8262738027
  0
ARC
  5
B7
330
1F
100
AcDbEntity
  8
0
  6
SLD-Durchgehend
 62
     7
370
    15
100
AcDbCircle
 10
88.6483175031
 20
86.736702673
 30
0.0
 40
0.6668858673151984
100
AcDbArc
 50
19.2765376701
 51
89.3310570404
  0
LWPOLYLINE
  5
B8
330
1F
100
AcDbEntity
  8
0
  6
SLD-Durchgehend
 62
     7
370
    15
100
AcDbPolyline
 90
        3
 70
   128
 43
0.0
 10
86.3875785497
 20
87.093697656
 10
87.9844763902
 20
87.3211061396
 10
88.6561033902
 20
87.4035430887
  0
ARC
  5
B9
330
1F
100
AcDbEntity
  8
0
  6
SLD-Durchgehend
 62
     7
370
    15
100
AcDbCircle
 10
82.3107507687
 20
130.6912084873
 30
0.0
 40
43.78770918231898
100
AcDbArc
 50
268.4235305522
 51
275.3422255323
  0
LINE
  5
BA
330
1F
100
AcDbEntity
  8
0
  6
SLD-Durchgehend
 62
     7
370
    15
100
AcDbLine
 10
81.0960588631
 20
86.9300586917
 30
0.0
 11
81.1061022458
 21
86.9200730511
 31
0.0
  0
LINE
  5
BB
330
1F
100
AcDbEntity
  8
0
  6
SLD-Durchgehend
 62
     7
370
    15
100
AcDbLine
 10
81.1061022458
 20
128.6599503645
 30
0.0
 11
81.0960588631
 21
128.6499647238
 31
0.0
  0
LINE
  5
BC
330
1F
100
AcDbEntity
  8
0
  6
SLD-Durchgehend
 62
     7
370
    15
100
AcDbLine
 10
84.6561027346
 20
128.613099251
 30
0.0
 11
81.1061022458
 21
128.6599503645
 31
0.0
  0
ARC
  5
BD
330
1F
100
AcDbEntity
  8
0
  6
SLD-Durchgehend
 62
     7
370
    15
100
AcDbCircle
 10
84.5981783369
 20
130.1628575953
 30
0.0
 40
1.550840469419303
100
AcDbArc
 50
272.1405139456
 51
340.0660547734
  0
LINE
  5
BE
330
1F
100
AcDbEntity
  8
0
  6
SLD-Durchgehend
 62
     7
370
    15
100
AcDbLine
 10
86.056102219
 20
129.6341193654
 30
0.0
 11
86.056102219
 21
130.8180576005
 31
0.0
  0
LINE
  5
BF
330
1F
100
AcDbEntity
  8
0
  6
SLD-Durchgehend
 62
     7
370
    15
100
AcDbLine
 10
109.8561030002
 20
83.5695804843
 30
0.0
 11
109.8561030002
 21
132.0104429313
 31
0.0
  0
LWPOLYLINE
  5
C0
330
1F
100
AcDbEntity
  8
0
  6
SLD-Durchgehend
 62
     7
370
    15
100
AcDbPolyline
 90
       18
 70
   128
 43
0.0
 10
98.6250090999
 20
84.1325035133
 10
98.6236894158
 20
84.1323302873
 10
98.7075363872
 20
84.1433347949
 10
98.9542875094
 20
84.1739585438
 10
99.3467757133
 20
84.2184757628
 10
99.869941513
 20
84.2669287511
 10
100.5067566064
 20
84.3091586419
 10
101.2423505661
 20
84.3351965585
 10
102.0380567414
 20
84.3373255619
 10
102.855405922
 20
84.3098273315
 10
103.6690186364
 20
84.25254168
 10
104.4628607695
 20
84.1683314928
 10
105.1910157901
 20
84.0680448153
 10
105.8219691393
 20
83.9625613578
 10
106.3375181173
 20
83.8634835371
 10
106.7227480588
 20
83.7817879208
 10
106.962713099
 20
83.728477154
 10
107.0391695601
 20
83.7109533884
  0
LWPOLYLINE
  5
C1
330
1F
100
AcDbEntity
  8
0
  6
SLD-Durchgehend
 62
     7
370
    15
100
AcDbPolyline
 90
       18
 70
   128
 43
0.0
 10
107.0391150777
 20
131.8690402248
 10
106.9620043625
 20
131.8515667506
 10
106.7199694579
 20
131.7979784497
 10
106.333017501
 20
131.7158711889
 10
105.8164952909
 20
131.6164506414
 10
105.1869971332
 20
131.5110845306
 10
104.461147136
 20
131.4110940137
 10
103.6704416973
 20
131.3273681142
 10
102.8568736864
 20
131.2702501007
 10
102.0391789851
 20
131.2428096124
 10
101.2422127304
 20
131.2449572422
 10
100.5057889623
 20
131.2709951588
 10
99.8676914376
 20
131.3132548519
 10
99.3449195874
 20
131.3616649994
 10
98.952649313
 20
131.4062287845
 10
98.7071685148
 20
131.4367575385
 10
98.6235692752
 20
131.4476875403
 10
98.6246039746
 20
131.4475515672
  0
LWPOLYLINE
  5
C2
330
1F
100
AcDbEntity
  8
0
  6
SLD-Durchgehend
 62
     7
370
    15
100
AcDbPolyline
 90
        3
 70
   128
 43
0.0
 10
79.9768866626
 20
88.088732008
 10
80.0053516058
 20
88.074212689
 10
80.0187663761
 20
88.1154591032
  0
LINE
  5
C3
330
1F
100
AcDbEntity
  8
0
  6
SLD-Durchgehend
 62
     7
370
    15
100
AcDbLine
 10
79.956103268
 20
88.0993341842
 30
0.0
 11
79.956103268
 21
127.4806892314
 31
0.0
  0
LWPOLYLINE
  5
C4
330
1F
100
AcDbEntity
  8
0
  6
SLD-Durchgehend
 62
     7
370
    15
100
AcDbPolyline
 90
        3
 70
   128
 43
0.0
 10
80.0187663761
 20
127.4645643123
 10
79.9772591916
 20
127.5270895847
 10
79.956103268
 20
127.4806892314
  0
LWPOLYLINE
  5
C5
330
1F
100
AcDbEntity
  8
0
  6
SLD-Durchgehend
 62
     7
370
    15
100
AcDbPolyline
 90
       12
 70
   128
 43
0.0
 10
80.7802566913
 20
128.1801311114
 10
80.7143972841
 20
127.9953269102
 10
80.5999638167
 20
127.7318315395
 10
80.4706291882
 20
127.4986544438
 10
80.396082404
 20
127.3920683005
 10
80.3573356596
 20
127.3450681754
 10
80.3132841018
 20
127.2993290611
 10
80.2743324665
 20
127.2665502318
 10
80.2377128628
 20
127.2433696129
 10
80.1914335815
 20
127.2270174512
 10
80.110993388
 20
127.2490786203
 10
80.0187663761
 20
127.4645643123
  0
LINE
  5
C6
330
1F
100
AcDbEntity
  8
0
  6
SLD-Durchgehend
 62
     7
370
    15
100
AcDbLine
 10
81.0960588631
 20
128.6499647238
 30
0.0
 11
80.7802566913
 21
128.1801311114
 31
0.0
  0
LWPOLYLINE
  5
C7
330
1F
100
AcDbEntity
  8
0
  6
SLD-Durchgehend
 62
     7
370
    15
100
AcDbPolyline
 90
        3
 70
   128
 43
0.0
 10
80.7802566913
 20
87.3998923042
 10
81.0061880973
 20
87.0272589662
 10
81.0960588631
 20
86.9300586917
  0
LWPOLYLINE
  5
C8
330
1F
100
AcDbEntity
  8
0
  6
SLD-Durchgehend
 62
     7
370
    15
100
AcDbPolyline
 90
       12
 70
   128
 43
0.0
 10
80.0187663761
 20
88.1154591032
 10
80.104705098
 20
88.325250689
 10
80.1587255326
 20
88.353475351
 10
80.2011007098
 20
88.3509626427
 10
80.2428761152
 20
88.3338840493
 10
80.2770184008
 20
88.3114671149
 10
80.3163313893
 20
88.2778109797
 10
80.35002664
 20
88.2431322523
 10
80.3980009285
 20
88.1854759344
 10
80.4720410732
 20
88.079152424
 10
80.6366989044
 20
87.7701712587
 10
80.7802566913
 20
87.3998923042
  0
LWPOLYLINE
  5
C9
330
1F
100
AcDbEntity
  8
0
  6
SLD-Durchgehend
 62
     7
370
    15
100
AcDbPolyline
 90
        3
 70
   128
 43
0.0
 10
127.9461031434
 20
135.595245082
 10
126.4721743417
 20
138.2428740897
 10
126.4641705555
 20
138.2572071441
  0
LINE
  5
CA
330
1F
100
AcDbEntity
  8
0
  6
SLD-Durchgehend
 62
     7
370
    15
100
AcDbLine
 10
127.9461031434
 20
128.8401556947
 30
0.0
 11
127.9461031434
 21
135.595245082
 31
0.0
  0
LWPOLYLINE
  5
CB
330
1F
100
AcDbEntity
  8
0
  6
SLD-Durchgehend
 62
     7
370
    15
100
AcDbPolyline
 90
        3
 70
   128
 43
0.0
 10
126.4641705555
 20
132.2487013229
 10
126.8196545196
 20
131.4504517057
 10
127.9461031434
 20
128.8401556947
  0
LINE
  5
CC
330
1F
100
AcDbEntity
  8
0
  6
SLD-Durchgehend
 62
     7
370
    15
100
AcDbLine
 10
127.9461031434
 20
128.8401556947
 30
0.0
 11
127.9461031434
 21
127.9258781859
 31
0.0
  0
LWPOLYLINE
  5
CD
330
1F
100
AcDbEntity
  8
0
  6
SLD-Durchgehend
 62
     7
370
    15
100
AcDbPolyline
 90
        3
 70
   128
 43
0.0
 10
131.7661033598
 20
128.8401556947
 10
132.8925510523
 20
131.4504517057
 10
133.2480350164
 20
132.2487013229
  0
LINE
  5
CE
330
1F
100
AcDbEntity
  8
0
  6
SLD-Durchgehend
 62
     7
370
    15
100
AcDbLine
 10
133.2480350164
 20
132.2487013229
 30
0.0
 11
137.2061038045
 21
132.2487013229
 31
0.0
  0
ARC
  5
CF
330
1F
100
AcDbEntity
  8
0
  6
SLD-Durchgehend
 62
     7
370
    15
100
AcDbCircle
 10
137.1230746226
 20
131.5643384307
 30
0.0
 40
0.6893811813573116
100
AcDbArc
 50
352.2154757984
 51
83.0824936921
  0
LINE
  5
D0
330
1F
100
AcDbEntity
  8
0
  6
SLD-Durchgehend
 62
     7
370
    15
100
AcDbLine
 10
131.7661033598
 20
127.9258781859
 30
0.0
 11
131.7661033598
 21
128.8401556947
 31
0.0
  0
LINE
  5
D1
330
1F
100
AcDbEntity
  8
0
  6
SLD-Durchgehend
 62
     7
370
    15
100
AcDbLine
 10
137.8061027852
 20
131.4709631541
 30
0.0
 11
137.8061027852
 21
127.6400124469
 31
0.0
  0
LWPOLYLINE
  5
D2
330
1F
100
AcDbEntity
  8
0
  6
SLD-Durchgehend
 62
     7
370
    15
100
AcDbPolyline
 90
        3
 70
   128
 43
0.0
 10
133.2480350164
 20
138.2572071441
 10
133.2400312302
 20
138.2428740897
 10
131.7661033598
 20
135.595245082
  0
LINE
  5
D3
330
1F
100
AcDbEntity
  8
0
  6
SLD-Durchgehend
 62
     7
370
    15
100
AcDbLine
 10
133.2480350164
 20
132.2487013229
 30
0.0
 11
133.2480350164
 21
138.2572071441
 31
0.0
  0
LINE
  5
D4
330
1F
100
AcDbEntity
  8
0
  6
SLD-Durchgehend
 62
     7
370
    15
100
AcDbLine
 10
131.7661033598
 20
128.8401556947
 30
0.0
 11
131.7661033598
 21
135.595245082
 31
0.0
  0
LINE
  5
D5
330
1F
100
AcDbEntity
  8
0
  6
SLD-Durchgehend
 62
     7
370
    15
100
AcDbLine
 10
137.2061038045
 20
138.2572071441
 30
0.0
 11
133.2480350164
 21
138.2572071441
 31
0.0
  0
ARC
  5
D6
330
1F
100
AcDbEntity
  8
0
  6
SLD-Durchgehend
 62
     7
370
    15
100
AcDbCircle
 10
137.1979963059
 20
137.6490247578
 30
0.0
 40
0.6082364232875822
100
AcDbArc
 50
358.8156305045
 51
89.2362522385
  0
LINE
  5
D7
330
1F
100
AcDbEntity
  8
0
  6
SLD-Durchgehend
 62
     7
370
    15
100
AcDbLine
 10
137.8061027852
 20
131.4709631541
 30
0.0
 11
137.8061027852
 21
137.6364527085
 31
0.0
  0
ARC
  5
D8
330
1F
100
AcDbEntity
  8
0
  6
SLD-Durchgehend
 62
     7
370
    15
100
AcDbCircle
 10
119.856329023
 20
126.4911019692
 30
0.0
 40
7.253775318097998
100
AcDbArc
 50
70.9722223907
 51
109.0909895883
  0
LINE
  5
D9
330
1F
100
AcDbEntity
  8
0
  6
SLD-Durchgehend
 62
     7
370
    15
100
AcDbLine
 10
211.8561045853
 20
98.7150117569
 30
0.0
 11
211.8561045853
 21
88.5900107958
 31
0.0
  0
LINE
  5
DA
330
1F
100
AcDbEntity
  8
0
  6
SLD-Durchgehend
 62
     7
370
    15
100
AcDbLine
 10
211.5061061112
 20
99.0650120937
 30
0.0
 11
211.8561045853
 21
98.7150117569
 31
0.0
  0
LINE
  5
DB
330
1F
100
AcDbEntity
  8
0
  6
SLD-Durchgehend
 62
     7
370
    15
100
AcDbLine
 10
211.8561045853
 20
126.9900126197
 30
0.0
 11
211.8561045853
 21
116.8650116586
 31
0.0
  0
LINE
  5
DC
330
1F
100
AcDbEntity
  8
0
  6
SLD-Durchgehend
 62
     7
370
    15
100
AcDbLine
 10
211.8561045853
 20
116.8650116586
 30
0.0
 11
211.5061061112
 21
116.5150113218
 31
0.0
  0
LINE
  5
DD
330
1F
100
AcDbEntity
  8
0
  6
SLD-Gestrichelt
 62
     7
370
     0
100
AcDbLine
 10
116.8061030683
 20
76.2900112011
 30
0.0
 11
116.8061030683
 21
76.3058883884
 31
0.0
  0
ARC
  5
DE
330
1F
100
AcDbEntity
  8
0
  6
SLD-Gestrichelt
 62
     7
370
     0
100
AcDbCircle
 10
124.0734452639
 20
56.8044583133
 30
0.0
 40
20.81153616533802
100
AcDbArc
 50
87.9825180967
 51
110.4382555186
  0
LINE
  5
DF
330
1F
100
AcDbEntity
  8
0
  6
SLD-Gestrichelt
 62
     7
370
     0
100
AcDbLine
 10
124.8061034483
 20
77.603094075
 30
0.0
 11
126.4641705555
 21
77.603094075
 31
0.0
  0
LINE
  5
E0
330
1F
100
AcDbEntity
  8
0
  6
SLD-Gestrichelt
 62
     7
370
     0
100
AcDbLine
 10
126.4641705555
 20
138.2572071441
 30
0.0
 11
126.4641705555
 21
77.603094075
 31
0.0
  0
LINE
  5
E1
330
1F
100
AcDbEntity
  8
0
  6
SLD-Gestrichelt
 62
     7
370
     0
100
AcDbLine
 10
124.8061034483
 20
138.2572071441
 30
0.0
 11
126.4641705555
 21
138.2572071441
 31
0.0
  0
ARC
  5
E2
330
1F
100
AcDbEntity
  8
0
  6
SLD-Gestrichelt
 62
     7
370
     0
100
AcDbCircle
 10
124.9660418937
 20
170.9931742252
 30
0.0
 40
32.73635778517227
100
AcDbArc
 50
255.616715589
 51
269.720071658
  0
CIRCLE
  5
E3
330
1F
100
AcDbEntity
  8
0
  6
SLD-Gestrichelt
 62
     7
370
     0
100
AcDbCircle
 10
118.8561031954
 20
107.7900115948
 30
0.0
 40
5.000000005280102
  0
LINE
  5
E4
330
1F
100
AcDbEntity
  8
0
  6
SLD-Gestrichelt
 62
     7
370
     0
100
AcDbLine
 10
111.8561030952
 20
138.9900108614
 30
0.0
 11
111.8561030952
 21
76.5900125542
 31
0.0
  0
ARC
  5
E5
330
1F
100
AcDbEntity
  8
0
  6
SLD-Gestrichelt
 62
     7
370
     0
100
AcDbCircle
 10
120.1485080166
 20
120.2780310892
 30
0.0
 40
3.669772246229941
100
AcDbArc
 50
265.4298732273
 51
12.1542822964
  0
ARC
  5
E6
330
1F
100
AcDbEntity
  8
0
  6
SLD-Gestrichelt
 62
     7
370
     0
100
AcDbCircle
 10
119.5823566497
 20
120.2890950257
 30
0.0
 40
3.679365941147617
100
AcDbArc
 50
166.6222043832
 51
274.2667797402
  0
ARC
  5
E7
330
1F
100
AcDbEntity
  8
0
  6
SLD-Gestrichelt
 62
     7
370
     0
100
AcDbCircle
 10
130.8819822777
 20
80.9860647749
 30
0.0
 40
0.8841211956749518
100
AcDbArc
 50
359.9709615589
 51
27.1866749334
  0
LINE
  5
E8
330
1F
100
AcDbEntity
  8
0
  6
SLD-Gestrichelt
 62
     7
370
     0
100
AcDbLine
 10
131.7661033598
 20
127.9258781859
 30
0.0
 11
131.7661033598
 21
134.9096650072
 31
0.0
  0
LINE
  5
E9
330
1F
100
AcDbEntity
  8
0
  6
SLD-Gestrichelt
 62
     7
370
     0
100
AcDbLine
 10
131.7399555472
 20
127.6400124469
 30
0.0
 11
131.7661033598
 21
127.6400124469
 31
0.0
  0
LINE
  5
EA
330
1F
100
AcDbEntity
  8
0
  6
SLD-Gestrichelt
 62
     7
370
     0
100
AcDbLine
 10
131.7661033598
 20
80.9856166878
 30
0.0
 11
131.7661033598
 21
127.6400124469
 31
0.0
  0
ARC
  5
EB
330
1F
100
AcDbEntity
  8
0
  6
SLD-Gestrichelt
 62
     7
370
     0
100
AcDbCircle
 10
128.8262348473
 20
80.987028346
 30
0.0
 40
0.8801328359032539
100
AcDbArc
 50
152.7504659068
 51
180.0918976009
  0
LINE
  5
EC
330
1F
100
AcDbEntity
  8
0
  6
SLD-Gestrichelt
 62
     7
370
     0
100
AcDbLine
 10
127.9461031434
 20
127.6400124469
 30
0.0
 11
127.972250956
 21
127.6400124469
 31
0.0
  0
LINE
  5
ED
330
1F
100
AcDbEntity
  8
0
  6
SLD-Gestrichelt
 62
     7
370
     0
100
AcDbLine
 10
127.9461031434
 20
127.9258781859
 30
0.0
 11
127.9461031434
 21
134.9096650072
 31
0.0
  0
LINE
  5
EE
330
1F
100
AcDbEntity
  8
0
  6
SLD-Gestrichelt
 62
     7
370
     0
100
AcDbLine
 10
127.9461031434
 20
80.9856166878
 30
0.0
 11
127.9461031434
 21
127.6400124469
 31
0.0
  0
LINE
  5
EF
330
1F
100
AcDbEntity
  8
0
  6
SLD-Gestrichelt
 62
     7
370
     0
100
AcDbLine
 10
137.8061027852
 20
134.1900115647
 30
0.0
 11
138.0061024455
 21
134.1900115647
 31
0.0
  0
LINE
  5
F0
330
1F
100
AcDbEntity
  8
0
  6
SLD-Gestrichelt
 62
     7
370
     0
100
AcDbLine
 10
137.9841828374
 20
134.1900115647
 30
0.0
 11
137.8061027852
 21
134.1900115647
 31
0.0
  0
LINE
  5
F1
330
1F
100
AcDbEntity
  8
0
  6
SLD-Gestrichelt
 62
     7
370
     0
100
AcDbLine
 10
137.8061027852
 20
134.1900115647
 30
0.0
 11
137.8061027852
 21
81.3900118508
 31
0.0
  0
LINE
  5
F2
330
1F
100
AcDbEntity
  8
0
  6
SLD-Gestrichelt
 62
     7
370
     0
100
AcDbLine
 10
137.8061027852
 20
81.3900118508
 30
0.0
 11
138.0061024455
 21
81.3900118508
 31
0.0
  0
LINE
  5
F3
330
1F
100
AcDbEntity
  8
0
  6
SLD-Gestrichelt
 62
     7
370
     0
100
AcDbLine
 10
137.982368621
 20
81.3900118508
 30
0.0
 11
137.8061027852
 21
81.3900118508
 31
0.0
  0
LINE
  5
F4
330
1F
100
AcDbEntity
  8
0
  6
SLD-Gestrichelt
 62
     7
370
     0
100
AcDbLine
 10
137.8061027852
 20
81.3900118508
 30
0.0
 11
137.8061027852
 21
134.1900115647
 31
0.0
  0
LINE
  5
F5
330
1F
100
AcDbEntity
  8
0
  6
SLD-Gestrichelt
 62
     7
370
     0
100
AcDbLine
 10
155.8561028567
 20
82.7900113352
 30
0.0
 11
155.8561028567
 21
132.7900120803
 31
0.0
  0
LINE
  5
F6
330
1F
100
AcDbEntity
  8
0
  6
SLD-Gestrichelt
 62
     7
370
     0
100
AcDbLine
 10
111.8561030952
 20
82.46608058
 30
0.0
 11
111.8561030952
 21
133.0928688683
 31
0.0
  0
LINE
  5
F7
330
1F
100
AcDbEntity
  8
0
  6
SLD-Gestrichelt
 62
     7
370
     0
100
AcDbLine
 10
116.8061030683
 20
127.6400124469
 30
0.0
 11
124.051723781
 21
127.6400124469
 31
0.0
  0
ARC
  5
F8
330
1F
100
AcDbEntity
  8
0
  6
SLD-Gestrichelt
 62
     7
370
     0
100
AcDbCircle
 10
82.3107507687
 20
130.6912084873
 30
0.0
 40
43.78770918231898
100
AcDbArc
 50
268.4235305522
 51
275.3422255323
  0
LWPOLYLINE
  5
F9
330
1F
100
AcDbEntity
  8
0
  6
SLD-Gestrichelt
 62
     7
370
     0
100
AcDbPolyline
 90
        3
 70
   128
 43
0.0
 10
86.3875785497
 20
87.093697656
 10
87.9844763902
 20
87.3211061396
 10
88.6561033902
 20
87.4035430887
  0
ARC
  5
FA
330
1F
100
AcDbEntity
  8
0
  6
SLD-Gestrichelt
 62
     7
370
     0
100
AcDbCircle
 10
88.6483175031
 20
86.736702673
 30
0.0
 40
0.6668858673151984
100
AcDbArc
 50
19.2765376701
 51
89.3310570404
  0
LWPOLYLINE
  5
FB
330
1F
100
AcDbEntity
  8
0
  6
SLD-Gestrichelt
 62
     7
370
     0
100
AcDbPolyline
 90
        5
 70
   128
 43
0.0
 10
89.2778152255
 20
86.9568602928
 10
89.3100445745
 20
86.902331356
 10
89.727528545
 20
86.422165651
 10
90.0250041512
 20
85.9835555591
 10
90.0561028746
 20
85.8262738027
  0
LINE
  5
FC
330
1F
100
AcDbEntity
  8
0
  6
SLD-Gestrichelt
 62
     7
370
     0
100
AcDbLine
 10
90.0561028746
 20
85.8262738027
 30
0.0
 11
90.0561028746
 21
84.5615656861
 31
0.0
  0
LINE
  5
FD
330
1F
100
AcDbEntity
  8
0
  6
SLD-Gestrichelt
 62
     7
370
     0
100
AcDbLine
 10
86.056102219
 20
130.8180576005
 30
0.0
 11
86.056102219
 21
129.6341193654
 31
0.0
  0
ARC
  5
FE
330
1F
100
AcDbEntity
  8
0
  6
SLD-Gestrichelt
 62
     7
370
     0
100
AcDbCircle
 10
84.5981783369
 20
130.1628575953
 30
0.0
 40
1.550840469419303
100
AcDbArc
 50
272.1405139456
 51
340.0660547734
  0
LINE
  5
FF
330
1F
100
AcDbEntity
  8
0
  6
SLD-Gestrichelt
 62
     7
370
     0
100
AcDbLine
 10
84.6561027346
 20
128.613099251
 30
0.0
 11
81.1061022458
 21
128.6599503645
 31
0.0
  0
LINE
  5
100
330
1F
100
AcDbEntity
  8
0
  6
SLD-Gestrichelt
 62
     7
370
     0
100
AcDbLine
 10
81.1061022458
 20
128.6599503645
 30
0.0
 11
81.0960588631
 21
128.6499647238
 31
0.0
  0
LINE
  5
101
330
1F
100
AcDbEntity
  8
0
  6
SLD-Gestrichelt
 62
     7
370
     0
100
AcDbLine
 10
81.0960588631
 20
86.9300586917
 30
0.0
 11
81.1061022458
 21
86.9200730511
 31
0.0
  0
LINE
  5
102
330
1F
100
AcDbEntity
  8
0
  6
SLD-Gestrichelt
 62
     7
370
     0
100
AcDbLine
 10
109.8561030002
 20
132.0104429313
 30
0.0
 11
109.8561030002
 21
83.5695804843
 31
0.0
  0
ARC
  5
103
330
1F
100
AcDbEntity
  8
0
  6
SLD-Gestrichelt
 62
     7
370
     0
100
AcDbCircle
 10
102.3331141738
 20
55.6440492102
 30
0.0
 40
28.72876732164227
100
AcDbArc
 50
94.9559247666
 51
97.4160215714
  0
LWPOLYLINE
  5
104
330
1F
100
AcDbEntity
  8
0
  6
SLD-Gestrichelt
 62
     7
370
     0
100
AcDbPolyline
 90
       14
 70
   128
 43
0.0
 10
107.0391695601
 20
83.7109533884
 10
107.040507405
 20
83.7106479146
 10
106.9562115361
 20
83.7297810056
 10
106.7099018608
 20
83.7843546458
 10
106.3192171631
 20
83.8670449146
 10
105.7989338068
 20
83.9667225071
 10
105.16563725
 20
84.0720699915
 10
104.436418659
 20
84.1717308202
 10
103.6438412619
 20
84.2548029312
 10
102.8294769702
 20
84.3111609855
 10
102.013018134
 20
84.337744657
 10
101.2182050971
 20
84.3347662874
 10
100.4850009111
 20
84.3080652692
 10
99.8512535942
 20
84.2654125579
  0
LWPOLYLINE
  5
105
330
1F
100
AcDbEntity
  8
0
  6
SLD-Gestrichelt
 62
     7
370
     0
100
AcDbPolyline
 90
       13
 70
   128
 43
0.0
 10
99.8511604619
 20
131.3145940938
 10
100.4860989404
 20
131.272075493
 10
101.2197082517
 20
131.2454210409
 10
102.0148360756
 20
131.242438946
 10
102.8328157616
 20
131.269009579
 10
103.6466994909
 20
131.3253452816
 10
104.4405923811
 20
131.4087191411
 10
105.8013966893
 20
131.6137237289
 10
106.3205117014
 20
131.7131666281
 10
106.7106892941
 20
131.7957320996
 10
106.9565076967
 20
131.8502200582
 10
107.0406159041
 20
131.8693810888
 10
107.0391150777
 20
131.8690402248
  0
ARC
  5
106
330
1F
100
AcDbEntity
  8
0
  6
SLD-Gestrichelt
 62
     7
370
     0
100
AcDbCircle
 10
101.9949073066
 20
156.8151226929
 30
0.0
 40
25.59047888119715
100
AcDbArc
 50
262.4320759669
 51
265.1946283453
  0
LINE
  5
107
330
1F
100
AcDbEntity
  8
0
  6
SLD-Gestrichelt
 62
     7
370
     0
100
AcDbLine
 10
155.8561028567
 20
130.9650109895
 30
0.0
 11
155.8561028567
 21
84.615012426
 31
0.0
  0
LINE
  5
108
330
1F
100
AcDbEntity
  8
0
  6
SLD-Gestrichelt
 62
     7
370
     0
100
AcDbLine
 10
79.956103268
 20
88.0993341842
 30
0.0
 11
79.9768866626
 21
88.088732008
 31
0.0
  0
LINE
  5
109
330
1F
100
AcDbEntity
  8
0
  6
SLD-Gestrichelt
 62
     7
370
     0
100
AcDbLine
 10
163.8061033217
 20
85.71501242
 30
0.0
 11
163.8061033217
 21
129.8650109955
 31
0.0
  0
LINE
  5
10A
330
1F
100
AcDbEntity
  8
0
  6
SLD-Gestrichelt
 62
     7
370
     0
100
AcDbLine
 10
163.8061033217
 20
127.8400121071
 30
0.0
 11
163.8061033217
 21
87.7607909777
 31
0.0
  0
LINE
  5
10B
330
1F
100
AcDbEntity
  8
0
  6
SLD-Gestrichelt
 62
     7
370
     0
100
AcDbLine
 10
165.8061036495
 20
87.7900121548
 30
0.0
 11
165.8061036495
 21
127.7900112607
 31
0.0
  0
LWPOLYLINE
  5
10C
330
1F
100
AcDbEntity
  8
0
  6
SLD-Gestrichelt
 62
     7
370
     0
100
AcDbPolyline
 90
        7
 70
   128
 43
0.0
 10
105.6111051356
 20
127.6275401749
 10
106.2925459472
 20
127.7044394799
 10
106.5948490639
 20
127.7271842399
 10
106.5684819249
 20
127.7253905126
 10
106.481384172
 20
127.7194710263
 10
105.9616856863
 20
127.6715302654
 10
105.6111051356
 20
127.6275401749
  0
LWPOLYLINE
  5
10D
330
1F
100
AcDbEntity
  8
0
  6
SLD-Gestrichelt
 62
     7
370
     0
100
AcDbPolyline
 90
        7
 70
   128
 43
0.0
 10
105.6111051356
 20
87.9524832406
 10
106.2925459472
 20
87.8755839356
 10
106.5948490639
 20
87.8528391757
 10
106.5684656267
 20
87.854632903
 10
106.481384172
 20
87.8605523893
 10
105.9616856863
 20
87.9084931501
 10
105.6111051356
 20
87.9524832406
  0
LINE
  5
10E
330
1F
100
AcDbEntity
  8
0
  6
SLD-Gestrichelt
 62
     7
370
     0
100
AcDbLine
 10
111.8561030952
 20
90.7900107839
 30
0.0
 11
111.8561030952
 21
124.7688790598
 31
0.0
  0
LWPOLYLINE
  5
10F
330
1F
100
AcDbEntity
  8
0
  6
SLD-Gestrichelt
 62
     7
370
     0
100
AcDbPolyline
 90
       20
 70
   128
 43
0.0
 10
171.7561037866
 20
117.7900114843
 10
171.8737261025
 20
117.1838946455
 10
172.2129994658
 20
116.6360683554
 10
172.7378295389
 20
116.2110900321
 10
173.3905302015
 20
115.9640632384
 10
174.0937234489
 20
115.9284699523
 10
174.7674049464
 20
116.1066785269
 10
175.3400863734
 20
116.4755772614
 10
175.7484079925
 20
116.9910410234
 10
175.9432630268
 20
117.5885272958
 10
175.9028287259
 20
118.1942846441
 10
175.6341011849
 20
118.7421398052
 10
175.1655490724
 20
119.1780630314
 10
174.5472849933
 20
119.4580605068
 10
173.8516913382
 20
119.553383235
 10
173.1598676768
 20
119.4566169568
 10
172.5463645187
 20
119.1778702476
 10
172.077246162
 20
118.7409933471
 10
171.8077921895
 20
118.1883567759
 10
171.7561037866
 20
117.7900114843
  0
LWPOLYLINE
  5
110
330
1F
100
AcDbEntity
  8
0
  6
SLD-Gestrichelt
 62
     7
370
     0
100
AcDbPolyline
 90
       20
 70
   128
 43
0.0
 10
171.7561037866
 20
117.7900114843
 10
171.8737261025
 20
118.3841207811
 10
172.2129994658
 20
118.9011538216
 10
172.7378295389
 20
119.2897900753
 10
173.3905302015
 20
119.5108534583
 10
174.0937234489
 20
119.5424169116
 10
174.7674049464
 20
119.3836552837
 10
175.3400863734
 20
119.0491754376
 10
175.7484079925
 20
118.5682413914
 10
175.9432630268
 20
117.9901517742
 10
175.9028287259
 20
117.3802155816
 10
175.6341011849
 20
116.8066410162
 10
175.1655490724
 20
116.3344623335
 10
174.5472849933
 20
116.0234136321
 10
173.8516913382
 20
115.9160852247
 10
173.1598676768
 20
116.0250332021
 10
172.5463645187
 20
116.3346746751
 10
172.077246162
 20
116.8078647741
 10
171.8077921895
 20
117.3863054999
 10
171.7561037866
 20
117.7900114843
  0
LWPOLYLINE
  5
111
330
1F
100
AcDbEntity
  8
0
  6
SLD-Gestrichelt
 62
     7
370
     0
100
AcDbPolyline
 90
       21
 70
   128
 43
0.0
 10
171.8077921895
 20
87.7953728475
 10
171.7561037866
 20
87.7900121548
 10
171.8737261025
 20
87.8020206281
 10
172.2129994658
 20
87.832812015
 10
172.7378295389
 20
87.8691540846
 10
173.3905302015
 20
87.8951193579
 10
174.0937234489
 20
87.8991482594
 10
174.7674049464
 20
87.8797003814
 10
175.3400863734
 20
87.8452824243
 10
175.7484079925
 20
87.8107527085
 10
175.9432630268
 20
87.791355122
 10
175.9299041358
 20
87.7927372047
 10
175.9028287259
 20
87.7955348977
 10
175.6341011849
 20
87.8212543019
 10
175.1655490724
 20
87.8575088271
 10
174.5472849933
 20
87.8885609844
 10
173.8516913382
 20
87.900567595
 10
173.1598676768
 20
87.8883858957
 10
172.5463645187
 20
87.8574902006
 10
172.077246162
 20
87.8211779334
 10
171.8077921895
 20
87.7953728475
  0
LINE
  5
112
330
1F
100
AcDbEntity
  8
0
  6
SLD-Gestrichelt
 62
     7
370
     0
100
AcDbLine
 10
203.3561022607
 20
87.7900121548
 30
0.0
 11
203.3561022607
 21
127.7900112607
 31
0.0
  0
LWPOLYLINE
  5
113
330
1F
100
AcDbEntity
  8
0
  6
SLD-Gestrichelt
 62
     7
370
     0
100
AcDbPolyline
 90
       21
 70
   128
 43
0.0
 10
179.6504335133
 20
127.7746630647
 10
179.5561017123
 20
127.7900112607
 10
179.7392146317
 20
127.760614995
 10
180.266626331
 20
127.6851201244
 10
181.0870172111
 20
127.5950537809
 10
182.1139307347
 20
127.5298407116
 10
183.2169519392
 20
127.519182656
 10
184.2685045329
 20
127.5663839468
 10
185.1673500267
 20
127.6508232393
 10
185.8172269193
 20
127.7368979343
 10
186.1329527227
 20
127.7862040141
 10
186.1138270823
 20
127.7830952593
 10
186.0790775744
 20
127.7774477192
 10
185.6711433855
 20
127.7157345601
 10
184.9487723437
 20
127.6265753248
 10
183.9825139967
 20
127.5480182656
 10
182.8908102242
 20
127.5159137138
 10
181.8080620495
 20
127.5437043794
 10
180.8435843912
 20
127.6182791033
 10
180.0932960239
 20
127.7084218153
 10
179.6504335133
 20
127.7746630647
  0
LWPOLYLINE
  5
114
330
1F
100
AcDbEntity
  8
0
  6
SLD-Gestrichelt
 62
     7
370
     0
100
AcDbPolyline
 90
       20
 70
   128
 43
0.0
 10
179.5561017123
 20
97.7900119313
 10
179.7392146317
 20
98.7434664556
 10
180.266626331
 20
99.6140295454
 10
181.0870172111
 20
100.3000100889
 10
182.1139307347
 20
100.7047675364
 10
183.2169519392
 20
100.7661728934
 10
184.2685045329
 20
100.4847206921
 10
185.1673500267
 20
99.8994836398
 10
185.8172269193
 20
99.0780431592
 10
186.1329527227
 20
98.1298617833
 10
186.0790775744
 20
97.1824329161
 10
185.6711433855
 20
96.3357917779
 10
184.9487723437
 20
95.6619659253
 10
183.9825139967
 20
95.2247658559
 10
182.8908102242
 20
95.0693346375
 10
181.8080620495
 20
95.2032364719
 10
180.8435843912
 20
95.6109639072
 10
180.0932960239
 20
96.2678992935
 10
179.6504335133
 20
97.119247336
 10
179.5561017123
 20
97.7900119313
  0
LWPOLYLINE
  5
115
330
1F
100
AcDbEntity
  8
0
  6
SLD-Gestrichelt
 62
     7
370
     0
100
AcDbPolyline
 90
       20
 70
   128
 43
0.0
 10
179.5561017123
 20
97.7900119313
 10
179.7392146317
 20
96.8659536728
 10
180.266626331
 20
96.0708845221
 10
181.0870172111
 20
95.4749712535
 10
182.1139307347
 20
95.1354278066
 10
183.2169519392
 20
95.0846791082
 10
184.2685045329
 20
95.3189309501
 10
185.1673500267
 20
95.8197273129
 10
185.8172269193
 20
96.5550949612
 10
186.1329527227
 20
97.4539683946
 10
186.0790775744
 20
98.4101554193
 10
185.6711433855
 20
99.318507854
 10
184.9487723437
 20
100.0814934076
 10
183.9825139967
 20
100.5972514675
 10
182.8908102242
 20
100.7847867721
 10
181.8080620495
 20
100.6230938063
 10
180.8435843912
 20
100.1407911816
 10
180.0932960239
 20
99.3937130832
 10
179.6504335133
 20
98.4761247226
 10
179.5561017123
 20
97.7900119313
  0
ARC
  5
116
330
1F
100
AcDbEntity
  8
0
  6
SLD-Gestrichelt
 62
     7
370
     0
100
AcDbCircle
 10
102.8513379307
 20
68.1143466351
 30
0.0
 40
20.02917819093252
100
AcDbArc
 50
82.0801706333
 51
100.7665046695
  0
ARC
  5
117
330
1F
100
AcDbEntity
  8
0
  6
SLD-Gestrichelt
 62
     7
370
     0
100
AcDbCircle
 10
102.8513379307
 20
147.4656767805
 30
0.0
 40
20.02917819093253
100
AcDbArc
 50
259.2334953305
 51
277.9198293667
  0
LINE
  5
118
330
1F
100
AcDbEntity
  8
0
  6
SLD-Gestrichelt
 62
     7
370
     0
100
AcDbLine
 10
204.9560995427
 20
87.7900121548
 30
0.0
 11
204.9560995427
 21
127.7900112607
 31
0.0
  0
LINE
  5
119
330
1F
100
AcDbEntity
  8
0
  6
SLD-Gestrichelt
 62
     7
370
     0
100
AcDbLine
 10
211.0561059443
 20
99.5150113293
 30
0.0
 11
211.0561059443
 21
87.7900121548
 31
0.0
  0
LINE
  5
11A
330
1F
100
AcDbEntity
  8
0
  6
SLD-Gestrichelt
 62
     7
370
     0
100
AcDbLine
 10
211.0561059443
 20
99.5150113293
 30
0.0
 11
206.7561002103
 21
99.5150113293
 31
0.0
  0
ARC
  5
11B
330
1F
100
AcDbEntity
  8
0
  6
SLD-Gestrichelt
 62
     7
370
     0
100
AcDbCircle
 10
206.7560964997
 20
100.0150011815
 30
0.0
 40
0.4999898522002141
100
AcDbArc
 50
179.998774369
 51
270.0004252135
  0
LINE
  5
11C
330
1F
100
AcDbEntity
  8
0
  6
SLD-Gestrichelt
 62
     7
370
     0
100
AcDbLine
 10
206.2561066476
 20
100.0150118769
 30
0.0
 11
206.2561066476
 21
115.5650115386
 31
0.0
  0
ARC
  5
11D
330
1F
100
AcDbEntity
  8
0
  6
SLD-Gestrichelt
 62
     7
370
     0
100
AcDbCircle
 10
206.7561022938
 20
115.56501644
 30
0.0
 40
0.4999956462739376
100
AcDbArc
 50
90.0002387595
 51
180.000561658
  0
LINE
  5
11E
330
1F
100
AcDbEntity
  8
0
  6
SLD-Gestrichelt
 62
     7
370
     0
100
AcDbLine
 10
206.7561002103
 20
116.0650120863
 30
0.0
 11
211.0561059443
 21
116.0650120863
 31
0.0
  0
LINE
  5
11F
330
1F
100
AcDbEntity
  8
0
  6
SLD-Gestrichelt
 62
     7
370
     0
100
AcDbLine
 10
211.0561059443
 20
116.0650120863
 30
0.0
 11
211.0561059443
 21
127.7900112607
 31
0.0
  0
ARC
  5
120
330
1F
100
AcDbEntity
  8
0
  6
SLD-Gestrichelt
 62
     7
370
     0
100
AcDbCircle
 10
206.7560964997
 20
115.5650222341
 30
0.0
 40
0.4999898522001999
100
AcDbArc
 50
89.9995747865
 51
180.001225631
  0
LINE
  5
121
330
1F
100
AcDbEntity
  8
0
  6
SLD-Gestrichelt
 62
     7
370
     0
100
AcDbLine
 10
206.2561066476
 20
115.5650115386
 30
0.0
 11
206.2561066476
 21
100.0150118769
 31
0.0
  0
ARC
  5
122
330
1F
100
AcDbEntity
  8
0
  6
SLD-Gestrichelt
 62
     7
370
     0
100
AcDbCircle
 10
206.7561022938
 20
100.0150069756
 30
0.0
 40
0.4999956462739517
100
AcDbArc
 50
179.999438342
 51
269.9997612405
  0
LINE
  5
123
330
1F
100
AcDbEntity
  8
0
  6
SLD-Gestrichelt
 62
     7
370
     0
100
AcDbLine
 10
124.051723781
 20
127.6400124469
 30
0.0
 11
127.972250956
 21
127.6400124469
 31
0.0
  0
LINE
  5
124
330
1F
100
AcDbEntity
  8
0
  6
SLD-Gestrichelt
 62
     7
370
     0
100
AcDbLine
 10
131.7399555472
 20
127.6400124469
 30
0.0
 11
137.8061027852
 21
127.6400124469
 31
0.0
  0
LINE
  5
125
330
1F
100
AcDbEntity
  8
0
  6
SLD-Gestrichelt
 62
     7
370
     0
100
AcDbLine
 10
92.8600785909
 20
124.7900126316
 30
0.0
 11
92.8600785909
 21
90.7900107839
 31
0.0
  0
LINE
  5
126
330
1F
100
AcDbEntity
  8
0
  6
SLD-Gestrichelt
 62
     7
370
     0
100
AcDbLine
 10
203.3561022607
 20
127.2150108405
 30
0.0
 11
203.3561022607
 21
88.365012575
 31
0.0
  0
LINE
  5
127
330
1F
100
AcDbEntity
  8
0
  6
SLD-Gestrichelt
 62
     7
370
     0
100
AcDbLine
 10
204.9560995427
 20
127.2150108405
 30
0.0
 11
204.9560995427
 21
88.365012575
 31
0.0
  0
LWPOLYLINE
  5
128
330
1F
100
AcDbEntity
  8
0
  6
SLD-Gestrichelt
 62
     7
370
     0
100
AcDbPolyline
 90
       13
 70
   128
 43
0.0
 10
119.8561034751
 20
129.7356148996
 10
120.6877503199
 20
129.7793181428
 10
121.4830495072
 20
129.9085223862
 10
122.2072440786
 20
130.1175800898
 10
122.828682105
 20
130.3973531165
 10
123.3202043575
 20
130.7356132009
 10
123.6603289497
 20
131.1175802537
 10
123.8341910419
 20
131.5265575238
 10
123.8341910419
 20
131.9446710684
 10
123.6603289497
 20
132.3536483385
 10
123.3202043575
 20
132.7356135287
 10
122.828682105
 20
133.0738754758
 10
122.2212521014
 20
133.3485355415
  0
LWPOLYLINE
  5
129
330
1F
100
AcDbEntity
  8
0
  6
SLD-Gestrichelt
 62
     7
370
     0
100
AcDbPolyline
 90
       13
 70
   128
 43
0.0
 10
117.4838418727
 20
133.3459222504
 10
116.883523914
 20
133.0738754758
 10
116.3920016614
 20
132.7356135287
 10
116.0518770692
 20
132.3536483385
 10
115.8780154427
 20
131.9446710684
 10
115.8780154427
 20
131.5265575238
 10
116.0518770692
 20
131.1175802537
 10
116.3920016614
 20
130.7356132009
 10
116.883523914
 20
130.3973531165
 10
117.5049619404
 20
130.1175800898
 10
118.2291565118
 20
129.9085223862
 10
119.0244561647
 20
129.7793181428
 10
119.8561034751
 20
129.7356148996
  0
LWPOLYLINE
  5
12A
330
1F
100
AcDbEntity
  8
0
  6
SLD-Gestrichelt
 62
     7
370
     0
100
AcDbPolyline
 90
       29
 70
   128
 43
0.0
 10
179.5561017123
 20
100.0150118769
 10
179.6388404099
 20
99.3790726923
 10
179.8829065291
 20
98.7750224584
 10
180.276058766
 20
98.2331501135
 10
180.798590335
 20
97.780627925
 10
181.4242900935
 20
97.4401475676
 10
182.1217836467
 20
97.2287811153
 10
182.8561054197
 20
97.1571279504
 10
183.5904197422
 20
97.2287811153
 10
184.287920746
 20
97.4401475676
 10
184.9136205045
 20
97.780627925
 10
185.4361446229
 20
98.2331501135
 10
185.8292968598
 20
98.7750224584
 10
186.073362979
 20
99.3790726923
 10
186.1561016766
 20
100.0150118769
 10
186.073362979
 20
100.6509505958
 10
185.8292968598
 20
101.2550008298
 10
185.4361446229
 20
101.7968731747
 10
184.9136205045
 20
102.2493953631
 10
184.287920746
 20
102.5898761862
 10
183.5904197422
 20
102.8012426385
 10
182.8561054197
 20
102.8728953377
 10
182.1217836467
 20
102.8012426385
 10
181.4242900935
 20
102.5898761862
 10
180.798590335
 20
102.2493953631
 10
180.276058766
 20
101.7968731747
 10
179.8829065291
 20
101.2550008298
 10
179.6388404099
 20
100.6509505958
 10
179.5561017123
 20
100.0150118769
  0
ARC
  5
12B
330
1F
100
AcDbEntity
  8
0
  6
SLD-Gestrichelt
 62
     7
370
     0
100
AcDbCircle
 10
173.5462123326
 20
115.4777049367
 30
0.0
 40
1.754799453432216
100
AcDbArc
 50
104.5250035695
 51
255.4749964305
  0
LINE
  5
12C
330
1F
100
AcDbEntity
  8
0
  6
SLD-Gestrichelt
 62
     7
370
     0
100
AcDbLine
 10
173.1061042873
 20
113.7789918856
 30
0.0
 11
173.1061042873
 21
114.0183590167
 31
0.0
  0
LWPOLYLINE
  5
12D
330
1F
100
AcDbEntity
  8
0
  6
SLD-Gestrichelt
 62
     7
370
     0
100
AcDbPolyline
 90
        7
 70
   128
 43
0.0
 10
173.1061042873
 20
114.0183590167
 10
173.109591159
 20
114.0358613618
 10
173.1312723485
 20
114.0585348756
 10
173.1696428386
 20
114.0705615097
 10
173.2224860815
 20
114.0721903928
 10
173.2864455906
 20
114.0631682054
 10
173.3061039475
 20
114.0586042591
  0
LWPOLYLINE
  5
12E
330
1F
100
AcDbEntity
  8
0
  6
SLD-Gestrichelt
 62
     7
370
     0
100
AcDbPolyline
 90
        3
 70
   128
 43
0.0
 10
173.3061039475
 20
114.0586042591
 10
174.0028151897
 20
113.9951872454
 10
174.5061056343
 20
114.0863022582
  0
LWPOLYLINE
  5
12F
330
1F
100
AcDbEntity
  8
0
  6
SLD-Gestrichelt
 62
     7
370
     0
100
AcDbPolyline
 90
        6
 70
   128
 43
0.0
 10
174.5061056343
 20
114.0863022582
 10
174.5745019642
 20
114.1021007486
 10
174.6355967251
 20
114.1058358178
 10
174.680009636
 20
114.0958208405
 10
174.7025923458
 20
114.0739259125
 10
174.7061015693
 20
114.0565777012
  0
LINE
  5
130
330
1F
100
AcDbEntity
  8
0
  6
SLD-Gestrichelt
 62
     7
370
     0
100
AcDbLine
 10
174.7061015693
 20
114.0565777012
 30
0.0
 11
174.7061015693
 21
113.8172892668
 31
0.0
  0
ARC
  5
131
330
1F
100
AcDbEntity
  8
0
  6
SLD-Gestrichelt
 62
     7
370
     0
100
AcDbCircle
 10
174.1933159529
 20
115.4803058878
 30
0.0
 40
1.740279681599161
100
AcDbArc
 50
287.1369716407
 51
72.8630283593
  0
LINE
  5
132
330
1F
100
AcDbEntity
  8
0
  6
SLD-Gestrichelt
 62
     7
370
     0
100
AcDbLine
 10
174.7061015693
 20
117.1433225089
 30
0.0
 11
174.7061015693
 21
117.3826109432
 31
0.0
  0
ARC
  5
133
330
1F
100
AcDbEntity
  8
0
  6
SLD-Gestrichelt
 62
     7
370
     0
100
AcDbCircle
 10
174.4720845764
 20
117.2987299804
 30
0.0
 40
0.2485959952909371
100
AcDbArc
 50
19.7196913206
 51
82.1342280161
  0
LWPOLYLINE
  5
134
330
1F
100
AcDbEntity
  8
0
  6
SLD-Gestrichelt
 62
     7
370
     0
100
AcDbPolyline
 90
        3
 70
   128
 43
0.0
 10
174.5061056343
 20
117.5449870341
 10
173.8136971024
 20
117.6273718291
 10
173.3061039475
 20
117.5689462387
  0
LWPOLYLINE
  5
135
330
1F
100
AcDbEntity
  8
0
  6
SLD-Gestrichelt
 62
     7
370
     0
100
AcDbPolyline
 90
        6
 70
   128
 43
0.0
 10
173.3061039475
 20
117.5689462387
 10
173.2385532585
 20
117.5473199972
 10
173.1781923798
 20
117.514206823
 10
173.1337049631
 20
117.4751732313
 10
173.1101723043
 20
117.4372562953
 10
173.1061042873
 20
117.4157846534
  0
LINE
  5
136
330
1F
100
AcDbEntity
  8
0
  6
SLD-Gestrichelt
 62
     7
370
     0
100
AcDbLine
 10
173.1061042873
 20
117.4157846534
 30
0.0
 11
173.1061042873
 21
117.1764179879
 31
0.0
  0
LINE
  5
137
330
1F
100
AcDbEntity
  8
0
  6
SLD-Gestrichelt
 62
     7
370
     0
100
AcDbLine
 10
211.8561045853
 20
88.5900107958
 30
0.0
 11
211.8561045853
 21
98.7150117569
 31
0.0
  0
LINE
  5
138
330
1F
100
AcDbEntity
  8
0
  6
SLD-Gestrichelt
 62
     7
370
     0
100
AcDbLine
 10
211.8561045853
 20
98.7150117569
 30
0.0
 11
211.0561059443
 21
99.5150113293
 31
0.0
  0
LINE
  5
139
330
1F
100
AcDbEntity
  8
0
  6
SLD-Gestrichelt
 62
     7
370
     0
100
AcDbLine
 10
211.0561059443
 20
99.5150113293
 30
0.0
 11
211.5061061112
 21
99.0650120937
 31
0.0
  0
LINE
  5
13A
330
1F
100
AcDbEntity
  8
0
  6
SLD-Gestrichelt
 62
     7
370
     0
100
AcDbLine
 10
211.0561059443
 20
116.0650120863
 30
0.0
 11
211.8561045853
 21
116.8650116586
 31
0.0
  0
LINE
  5
13B
330
1F
100
AcDbEntity
  8
0
  6
SLD-Gestrichelt
 62
     7
370
     0
100
AcDbLine
 10
211.8561045853
 20
116.8650116586
 30
0.0
 11
211.8561045853
 21
126.9900126197
 31
0.0
  0
LINE
  5
13C
330
1F
100
AcDbEntity
  8
0
  6
SLD-Gestrichelt
 62
     7
370
     0
100
AcDbLine
 10
211.5061061112
 20
116.5150113218
 30
0.0
 11
211.0561059443
 21
116.0650120863
 31
0.0
  0
LINE
  5
13D
330
1F
100
AcDbEntity
  8
0
  6
SLD-Gestrichelt
 62
     7
370
     0
100
AcDbLine
 10
79.956103268
 20
105.7902602759
 30
0.0
 11
79.956103268
 21
109.7897505668
 31
0.0
  0
LWPOLYLINE
  5
13E
330
1F
100
AcDbEntity
  8
0
  6
SLD-Gestrichelt
 62
     7
370
     0
100
AcDbPolyline
 90
        3
 70
   128
 43
0.0
 10
79.956103268
 20
109.7898523138
 10
80.4561042813
 20
109.7837195546
 10
80.9561034319
 20
109.7771399935
  0
LINE
  5
13F
330
1F
100
AcDbEntity
  8
0
  6
SLD-Gestrichelt
 62
     7
370
     0
100
AcDbLine
 10
79.956103268
 20
109.7898523138
 30
0.0
 11
79.956103268
 21
111.5537910071
 31
0.0
  0
LINE
  5
140
330
1F
100
AcDbEntity
  8
0
  6
SLD-Gestrichelt
 62
     7
370
     0
100
AcDbLine
 10
80.9561034319
 20
105.7933115215
 30
0.0
 11
79.956103268
 21
105.7902102173
 31
0.0
  0
LINE
  5
141
330
1F
100
AcDbEntity
  8
0
  6
SLD-Gestrichelt
 62
     7
370
     0
100
AcDbLine
 10
79.956103268
 20
104.0262324084
 30
0.0
 11
79.956103268
 21
105.7902102173
 31
0.0
  0
LINE
  5
142
330
1F
100
AcDbEntity
  8
0
  6
SLD-Gestrichelt
 62
     7
370
     0
100
AcDbLine
 10
79.956103268
 20
111.5537910071
 30
0.0
 11
79.956103268
 21
123.9153275081
 31
0.0
  0
LINE
  5
143
330
1F
100
AcDbEntity
  8
0
  6
SLD-Gestrichelt
 62
     7
370
     0
100
AcDbLine
 10
79.956103268
 20
104.0262324084
 30
0.0
 11
81.2561029223
 21
104.1853779741
 31
0.0
  0
LINE
  5
144
330
1F
100
AcDbEntity
  8
0
  6
SLD-Gestrichelt
 62
     7
370
     0
100
AcDbLine
 10
79.956103268
 20
91.7196569779
 30
0.0
 11
79.956103268
 21
104.0262324084
 31
0.0
  0
LINE
  5
145
330
1F
100
AcDbEntity
  8
0
  6
SLD-Gestrichelt
 62
     7
370
     0
100
AcDbLine
 10
119.5159290572
 20
124.7900126316
 30
0.0
 11
119.5159290572
 21
90.7900107839
 31
0.0
  0
LINE
  5
146
330
1F
100
AcDbEntity
  8
0
  6
SLD-Gestrichelt
 62
     7
370
     0
100
AcDbLine
 10
121.8061029566
 20
123.5150115379
 30
0.0
 11
121.8061029566
 21
92.0650118776
 31
0.0
  0
LWPOLYLINE
  5
147
330
1F
100
AcDbEntity
  8
0
  6
SLD-Gestrichelt
 62
     7
370
     0
100
AcDbPolyline
 90
        6
 70
   128
 43
0.0
 10
88.6561033902
 20
91.9885204919
 10
89.0966971991
 20
91.9604783692
 10
89.4872342822
 20
91.8827539124
 10
89.7998345671
 20
91.7660536059
 10
90.002570453
 20
91.6220990755
 10
90.0561028746
 20
91.5024986305
  0
LINE
  5
148
330
1F
100
AcDbEntity
  8
0
  6
SLD-Gestrichelt
 62
     7
370
     0
100
AcDbLine
 10
90.0561028746
 20
91.5024986305
 30
0.0
 11
90.0561028746
 21
90.7900107839
 31
0.0
  0
LWPOLYLINE
  5
149
330
1F
100
AcDbEntity
  8
0
  6
SLD-Gestrichelt
 62
     7
370
     0
100
AcDbPolyline
 90
        6
 70
   128
 43
0.0
 10
88.6561033902
 20
91.9885204919
 10
89.0966971991
 20
91.9604783692
 10
89.4872342822
 20
91.8827539124
 10
89.7998345671
 20
91.7660536059
 10
90.002570453
 20
91.6220990755
 10
90.0561028746
 20
91.5024986305
  0
LINE
  5
14A
330
1F
100
AcDbEntity
  8
0
  6
SLD-Gestrichelt
 62
     7
370
     0
100
AcDbLine
 10
81.241270679
 20
91.9885204919
 30
0.0
 11
88.6561033902
 21
91.9885204919
 31
0.0
  0
LWPOLYLINE
  5
14B
330
1F
100
AcDbEntity
  8
0
  6
SLD-Gestrichelt
 62
     7
370
     0
100
AcDbPolyline
 90
        3
 70
   128
 43
0.0
 10
81.2561029223
 20
94.133323785
 10
81.2486486164
 20
92.9445519858
 10
81.241270679
 20
91.9885204919
  0
LWPOLYLINE
  5
14C
330
1F
100
AcDbEntity
  8
0
  6
SLD-Gestrichelt
 62
     7
370
     0
100
AcDbPolyline
 90
        3
 70
   128
 43
0.0
 10
80.9561034319
 20
95.1582340338
 10
81.1714512882
 20
94.6459544637
 10
81.2561029223
 20
94.133323785
  0
LINE
  5
14D
330
1F
100
AcDbEntity
  8
0
  6
SLD-Gestrichelt
 62
     7
370
     0
100
AcDbLine
 10
80.9561034319
 20
98.1891851687
 30
0.0
 11
80.9561034319
 21
95.1582340338
 31
0.0
  0
LWPOLYLINE
  5
14E
330
1F
100
AcDbEntity
  8
0
  6
SLD-Gestrichelt
 62
     7
370
     0
100
AcDbPolyline
 90
        3
 70
   128
 43
0.0
 10
81.2561029223
 20
99.5570251533
 10
81.0166915533
 20
98.3381241374
 10
80.9561034319
 20
98.1891851687
  0
LINE
  5
14F
330
1F
100
AcDbEntity
  8
0
  6
SLD-Gestrichelt
 62
     7
370
     0
100
AcDbLine
 10
81.2561029223
 20
116.0229982623
 30
0.0
 11
81.2561029223
 21
99.5570251533
 31
0.0
  0
LWPOLYLINE
  5
150
330
1F
100
AcDbEntity
  8
0
  6
SLD-Gestrichelt
 62
     7
370
     0
100
AcDbPolyline
 90
        3
 70
   128
 43
0.0
 10
80.9561034319
 20
117.3969514482
 10
81.1721423296
 20
116.740261931
 10
81.2561029223
 20
116.0229982623
  0
LINE
  5
151
330
1F
100
AcDbEntity
  8
0
  6
SLD-Gestrichelt
 62
     7
370
     0
100
AcDbLine
 10
80.9561034319
 20
120.4301535898
 30
0.0
 11
80.9561034319
 21
117.3969514482
 31
0.0
  0
LWPOLYLINE
  5
152
330
1F
100
AcDbEntity
  8
0
  6
SLD-Gestrichelt
 62
     7
370
     0
100
AcDbPolyline
 90
        3
 70
   128
 43
0.0
 10
81.2561029223
 20
121.4466996305
 10
81.016320887
 20
120.5502643996
 10
80.9561034319
 20
120.4301535898
  0
LINE
  5
153
330
1F
100
AcDbEntity
  8
0
  6
SLD-Gestrichelt
 62
     7
370
     0
100
AcDbLine
 10
81.2561029223
 20
123.5915029236
 30
0.0
 11
81.2561029223
 21
121.4466996305
 31
0.0
  0
LINE
  5
154
330
1F
100
AcDbEntity
  8
0
  6
SLD-Gestrichelt
 62
     7
370
     0
100
AcDbLine
 10
84.6561027346
 20
123.5915029236
 30
0.0
 11
81.2561029223
 21
123.5915029236
 31
0.0
  0
LWPOLYLINE
  5
155
330
1F
100
AcDbEntity
  8
0
  6
SLD-Gestrichelt
 62
     7
370
     0
100
AcDbPolyline
 90
        6
 70
   128
 43
0.0
 10
86.056102219
 20
124.077524785
 10
85.9699772326
 20
123.9250803181
 10
85.7211371538
 20
123.7777208724
 10
85.3374750939
 20
123.6605921575
 10
84.8850423125
 20
123.5989665427
 10
84.6561027346
 20
123.5915029236
  0
LINE
  5
156
330
1F
100
AcDbEntity
  8
0
  6
SLD-Gestrichelt
 62
     7
370
     0
100
AcDbLine
 10
86.056102219
 20
124.077524785
 30
0.0
 11
86.056102219
 21
124.7900126316
 31
0.0
  0
LWPOLYLINE
  5
157
330
1F
100
AcDbEntity
  8
0
  6
SLD-Gestrichelt
 62
     7
370
     0
100
AcDbPolyline
 90
        6
 70
   128
 43
0.0
 10
86.056102219
 20
124.077524785
 10
85.9699772326
 20
123.9250803181
 10
85.7211371538
 20
123.7777208724
 10
85.3374750939
 20
123.6605921575
 10
84.8850423125
 20
123.5989665427
 10
84.6561027346
 20
123.5915029236
  0
LINE
  5
158
330
1F
100
AcDbEntity
  8
0
  6
SLD-Gestrichelt
 62
     7
370
     0
100
AcDbLine
 10
81.1871347604
 20
91.9885204919
 30
0.0
 11
88.6561033902
 21
91.9885204919
 31
0.0
  0
LWPOLYLINE
  5
159
330
1F
100
AcDbEntity
  8
0
  6
SLD-Gestrichelt
 62
     7
370
     0
100
AcDbPolyline
 90
        8
 70
   128
 43
0.0
 10
81.1871347604
 20
91.9885204919
 10
81.1510180709
 20
92.8344808333
 10
81.1239836392
 20
93.8867505454
 10
81.1162909148
 20
95.727607403
 10
81.1455623833
 20
97.908341121
 10
81.2032336024
 20
100.3634396755
 10
81.2524633137
 20
103.0266785809
 10
81.2561029223
 20
104.1853779741
  0
LINE
  5
15A
330
1F
100
AcDbEntity
  8
0
  6
SLD-Gestrichelt
 62
     7
370
     0
100
AcDbLine
 10
81.2561029223
 20
111.3946454414
 30
0.0
 11
81.2561029223
 21
123.5915029236
 31
0.0
  0
LWPOLYLINE
  5
15B
330
1F
100
AcDbEntity
  8
0
  6
SLD-Gestrichelt
 62
     7
370
     0
100
AcDbPolyline
 90
        3
 70
   128
 43
0.0
 10
81.2561029223
 20
104.1853779741
 10
81.0169169334
 20
105.6153672096
 10
80.9561034319
 20
105.7933115215
  0
LWPOLYLINE
  5
15C
330
1F
100
AcDbEntity
  8
0
  6
SLD-Gestrichelt
 62
     7
370
     0
100
AcDbPolyline
 90
        3
 70
   128
 43
0.0
 10
80.9561034319
 20
109.7771399935
 10
81.174560043
 20
110.5644868501
 10
81.2561029223
 20
111.3946454414
  0
LINE
  5
15D
330
1F
100
AcDbEntity
  8
0
  6
SLD-Gestrichelt
 62
     7
370
     0
100
AcDbLine
 10
80.9561034319
 20
105.7933115215
 30
0.0
 11
80.9561034319
 21
109.7771399935
 31
0.0
  0
ARC
  5
15E
330
1F
100
AcDbEntity
  8
0
  6
SLD-Gestrichelt
 62
     7
370
     0
100
AcDbCircle
 10
173.2983675734
 20
91.9345974879
 30
0.0
 40
0.1922676404385462
100
AcDbArc
 50
179.6143952736
 51
272.3060629459
  0
LINE
  5
15F
330
1F
100
AcDbEntity
  8
0
  6
SLD-Gestrichelt
 62
     7
370
     0
100
AcDbLine
 10
173.1061042873
 20
114.0183590167
 30
0.0
 11
173.1061042873
 21
91.9358914533
 31
0.0
  0
ARC
  5
160
330
1F
100
AcDbEntity
  8
0
  6
SLD-Gestrichelt
 62
     7
370
     0
100
AcDbCircle
 10
174.5149680571
 20
91.9296768785
 30
0.0
 40
0.1911370849951591
100
AcDbArc
 50
267.3424228834
 51
0.3503256247
  0
LINE
  5
161
330
1F
100
AcDbEntity
  8
0
  6
SLD-Gestrichelt
 62
     7
370
     0
100
AcDbLine
 10
174.7061015693
 20
114.0565777012
 30
0.0
 11
174.7061015693
 21
91.9308455475
 31
0.0
  0
LINE
  5
162
330
1F
100
AcDbEntity
  8
0
  6
SLD-Gestrichelt
 62
     7
370
     0
100
AcDbLine
 10
163.856104168
 20
123.2400115394
 30
0.0
 11
163.856104168
 21
92.3400118762
 31
0.0
  0
LINE
  5
163
330
1F
100
AcDbEntity
  8
0
  6
SLD-Gestrichelt
 62
     7
370
     0
100
AcDbLine
 10
165.8561044959
 20
92.2900119611
 30
0.0
 11
165.8561044959
 21
123.2900114545
 31
0.0
  0
ARC
  5
164
330
1F
100
AcDbEntity
  8
0
  6
SLD-Gestrichelt
 62
     7
370
     0
100
AcDbCircle
 10
173.8349358043
 20
76.6972302828
 30
0.0
 40
15.73638615839726
100
AcDbArc
 50
82.32905946
 51
86.8264730873
  0
LINE
  5
165
330
1F
100
AcDbEntity
  8
0
  6
SLD-Gestrichelt
 62
     7
370
     0
100
AcDbLine
 10
174.7061015693
 20
92.4094233476
 30
0.0
 11
174.7061015693
 21
113.8172892668
 31
0.0
  0
ARC
  5
166
330
1F
100
AcDbEntity
  8
0
  6
SLD-Gestrichelt
 62
     7
370
     0
100
AcDbCircle
 10
174.1736222789
 20
115.4803058878
 30
0.0
 40
1.74618397556929
100
AcDbArc
 50
287.7544835347
 51
72.2455164653
  0
LINE
  5
167
330
1F
100
AcDbEntity
  8
0
  6
SLD-Gestrichelt
 62
     7
370
     0
100
AcDbLine
 10
174.7061015693
 20
117.1433225089
 30
0.0
 11
174.7061015693
 21
123.2671716996
 31
0.0
  0
LWPOLYLINE
  5
168
330
1F
100
AcDbEntity
  8
0
  6
SLD-Gestrichelt
 62
     7
370
     0
100
AcDbPolyline
 90
        6
 70
   128
 43
0.0
 10
180.1285447208
 20
123.2198400237
 10
179.7796861855
 20
123.2687903383
 10
179.6520055858
 20
123.288090136
 10
179.6404497353
 20
123.2898372971
 10
179.7996313897
 20
123.2658454963
 10
180.1285447208
 20
123.2198400237
  0
ARC
  5
169
330
1F
100
AcDbEntity
  8
0
  6
SLD-Gestrichelt
 62
     7
370
     0
100
AcDbCircle
 10
182.8561054197
 20
138.4982181994
 30
0.0
 40
15.51993643814452
100
AcDbArc
 50
259.8779490781
 51
280.1220509219
  0
LWPOLYLINE
  5
16A
330
1F
100
AcDbEntity
  8
0
  6
SLD-Gestrichelt
 62
     7
370
     0
100
AcDbPolyline
 90
        6
 70
   128
 43
0.0
 10
185.5836661187
 20
123.2198400237
 10
185.9325172034
 20
123.2687903383
 10
186.0601978031
 20
123.288090136
 10
186.0717611042
 20
123.2898372971
 10
185.9125719992
 20
123.2658454963
 10
185.5836661187
 20
123.2198400237
  0
ARC
  5
16B
330
1F
100
AcDbEntity
  8
0
  6
SLD-Gestrichelt
 62
     7
370
     0
100
AcDbCircle
 10
182.8561054197
 20
138.4982181994
 30
0.0
 40
15.51993643814452
100
AcDbArc
 50
259.8779490781
 51
280.1220509219
  0
ARC
  5
16C
330
1F
100
AcDbEntity
  8
0
  6
SLD-Gestrichelt
 62
     7
370
     0
100
AcDbCircle
 10
184.1001474551
 20
100.0750977826
 30
0.0
 40
1.956690285708682
100
AcDbArc
 50
319.3037978187
 51
40.6962021813
  0
ARC
  5
16D
330
1F
100
AcDbEntity
  8
0
  6
SLD-Gestrichelt
 62
     7
370
     0
100
AcDbCircle
 10
182.8561054197
 20
99.6974484985
 30
0.0
 40
3.189618789061449
100
AcDbArc
 50
31.2251386516
 51
148.7748613484
  0
ARC
  5
16E
330
1F
100
AcDbEntity
  8
0
  6
SLD-Gestrichelt
 62
     7
370
     0
100
AcDbCircle
 10
181.587140615
 20
100.0750977826
 30
0.0
 40
1.937862542034892
100
AcDbArc
 50
138.8233118398
 51
221.1766881602
  0
ARC
  5
16F
330
1F
100
AcDbEntity
  8
0
  6
SLD-Gestrichelt
 62
     7
370
     0
100
AcDbCircle
 10
182.8561054197
 20
100.88951812
 30
0.0
 40
3.436399817665221
100
AcDbArc
 50
217.4648893791
 51
322.5351106209
  0
ARC
  5
170
330
1F
100
AcDbEntity
  8
0
  6
SLD-Gestrichelt
 62
     7
370
     0
100
AcDbCircle
 10
181.5878443543
 20
100.0750977826
 30
0.0
 40
1.93839228988567
100
AcDbArc
 50
138.8370071394
 51
221.1629928606
  0
ARC
  5
171
330
1F
100
AcDbEntity
  8
0
  6
SLD-Gestrichelt
 62
     7
370
     0
100
AcDbCircle
 10
182.8561054197
 20
99.6795151686
 30
0.0
 40
3.198952226163674
100
AcDbArc
 50
31.4998098494
 51
148.5001901506
  0
ARC
  5
172
330
1F
100
AcDbEntity
  8
0
  6
SLD-Gestrichelt
 62
     7
370
     0
100
AcDbCircle
 10
184.1254760403
 20
100.0750977826
 30
0.0
 40
1.937557109850486
100
AcDbArc
 50
318.8154109522
 51
41.1845890478
  0
ARC
  5
173
330
1F
100
AcDbEntity
  8
0
  6
SLD-Gestrichelt
 62
     7
370
     0
100
AcDbCircle
 10
182.8561054197
 20
100.88951812
 30
0.0
 40
3.436399817665221
100
AcDbArc
 50
217.4648893791
 51
322.5351106209
  0
LINE
  5
174
330
1F
100
AcDbEntity
  8
0
  6
SLD-Gestrichelt
 62
     7
370
     0
100
AcDbLine
 10
211.0561059443
 20
116.0650120863
 30
0.0
 11
211.0561059443
 21
123.2682203688
 31
0.0
  0
ARC
  5
175
330
1F
100
AcDbEntity
  8
0
  6
SLD-Gestrichelt
 62
     7
370
     0
100
AcDbCircle
 10
206.7560961972
 20
115.5650225365
 30
0.0
 40
0.4999895497735094
100
AcDbArc
 50
89.9995401292
 51
180.0012602883
  0
LINE
  5
176
330
1F
100
AcDbEntity
  8
0
  6
SLD-Gestrichelt
 62
     7
370
     0
100
AcDbLine
 10
206.2561066476
 20
115.5650115386
 30
0.0
 11
206.2561066476
 21
100.0150118769
 31
0.0
  0
ARC
  5
177
330
1F
100
AcDbEntity
  8
0
  6
SLD-Gestrichelt
 62
     7
370
     0
100
AcDbCircle
 10
206.7561000676
 20
100.0150047493
 30
0.0
 40
0.4999934200380799
100
AcDbArc
 50
179.9991832288
 51
270.0000163537
  0
LINE
  5
178
330
1F
100
AcDbEntity
  8
0
  6
SLD-Gestrichelt
 62
     7
370
     0
100
AcDbLine
 10
211.0561059443
 20
99.5150113293
 30
0.0
 11
211.0561059443
 21
92.3118030467
 31
0.0
  0
LINE
  5
179
330
1F
100
AcDbEntity
  8
0
  6
SLD-Gestrichelt
 62
     7
370
     0
100
AcDbLine
 10
174.7061015693
 20
113.8172892668
 30
0.0
 11
174.7061015693
 21
92.4094233476
 31
0.0
  0
ARC
  5
17A
330
1F
100
AcDbEntity
  8
0
  6
SLD-Gestrichelt
 62
     7
370
     0
100
AcDbCircle
 10
206.7561000676
 20
115.5650186662
 30
0.0
 40
0.4999934200380799
100
AcDbArc
 50
89.9999836463
 51
180.0008167712
  0
ARC
  5
17B
330
1F
100
AcDbEntity
  8
0
  6
SLD-Gestrichelt
 62
     7
370
     0
100
AcDbCircle
 10
206.7560961972
 20
100.015000879
 30
0.0
 40
0.4999895497735094
100
AcDbArc
 50
179.9987397117
 51
270.0004598708
  0
LINE
  5
17C
330
1F
100
AcDbEntity
  8
0
  6
SLD-Gestrichelt
 62
     7
370
     0
100
AcDbLine
 10
206.2561066476
 20
100.0150118769
 30
0.0
 11
206.2561066476
 21
115.5650115386
 31
0.0
  0
ARC
  5
17D
330
1F
100
AcDbEntity
  8
0
  6
SLD-Gestrichelt
 62
     7
370
     0
100
AcDbCircle
 10
173.8677308156
 20
76.812303932
 30
0.0
 40
15.62106873904473
100
AcDbArc
 50
92.7946721055
 51
97.688075704
  0
LINE
  5
17E
330
1F
100
AcDbEntity
  8
0
  6
SLD-Gestrichelt
 62
     7
370
     0
100
AcDbLine
 10
173.1061042873
 20
117.1764179879
 30
0.0
 11
173.1061042873
 21
123.2673048788
 31
0.0
  0
ARC
  5
17F
330
1F
100
AcDbEntity
  8
0
  6
SLD-Gestrichelt
 62
     7
370
     0
100
AcDbCircle
 10
173.5323352578
 20
115.4777049367
 30
0.0
 40
1.751370569132073
100
AcDbArc
 50
104.0855233765
 51
255.9144766235
  0
LINE
  5
180
330
1F
100
AcDbEntity
  8
0
  6
SLD-Gestrichelt
 62
     7
370
     0
100
AcDbLine
 10
173.1061042873
 20
92.4146257155
 30
0.0
 11
173.1061042873
 21
113.7789918856
 31
0.0
  0
LINE
  5
181
330
1F
100
AcDbEntity
  8
0
  6
SLD-Gestrichelt
 62
     7
370
     0
100
AcDbLine
 10
173.1061042873
 20
113.7789918856
 30
0.0
 11
173.1061042873
 21
92.4146257155
 31
0.0
  0
ARC
  5
182
330
1F
100
AcDbEntity
  8
0
  6
SLD-Gestrichelt
 62
     7
370
     0
100
AcDbCircle
 10
182.8561054197
 20
99.4677594009
 30
0.0
 40
3.31451497255902
100
AcDbArc
 50
34.6224330425
 51
145.3775669575
  0
ARC
  5
183
330
1F
100
AcDbEntity
  8
0
  6
SLD-Gestrichelt
 62
     7
370
     0
100
AcDbCircle
 10
182.8561054197
 20
100.6824368249
 30
0.0
 40
3.314515347835381
100
AcDbArc
 50
214.6224424383
 51
325.3775575617
  0
LWPOLYLINE
  5
184
330
1F
100
AcDbEntity
  8
0
  6
SLD-Gestrichelt
 62
     7
370
     0
100
AcDbPolyline
 90
        3
 70
   128
 43
0.0
 10
211.0561059443
 20
99.5150113293
 10
211.4559115497
 20
99.1152010673
 10
211.8561045853
 20
98.7150117569
  0
LINE
  5
185
330
1F
100
AcDbEntity
  8
0
  6
SLD-Gestrichelt
 62
     7
370
     0
100
AcDbLine
 10
211.8561045853
 20
98.7150117569
 30
0.0
 11
211.8561045853
 21
91.8281318434
 31
0.0
  0
LWPOLYLINE
  5
186
330
1F
100
AcDbEntity
  8
0
  6
SLD-Gestrichelt
 62
     7
370
     0
100
AcDbPolyline
 90
        3
 70
   128
 43
0.0
 10
211.8561045853
 20
98.7150117569
 10
211.4559115497
 20
99.1152010673
 10
211.0561059443
 20
99.5150113293
  0
LWPOLYLINE
  5
187
330
1F
100
AcDbEntity
  8
0
  6
SLD-Gestrichelt
 62
     7
370
     0
100
AcDbPolyline
 90
        3
 70
   128
 43
0.0
 10
211.8561045853
 20
116.8650116586
 10
211.4559115497
 20
116.4648223483
 10
211.0561059443
 20
116.0650120863
  0
LINE
  5
188
330
1F
100
AcDbEntity
  8
0
  6
SLD-Gestrichelt
 62
     7
370
     0
100
AcDbLine
 10
211.8561045853
 20
116.8650116586
 30
0.0
 11
211.8561045853
 21
123.7518915721
 31
0.0
  0
LWPOLYLINE
  5
189
330
1F
100
AcDbEntity
  8
0
  6
SLD-Gestrichelt
 62
     7
370
     0
100
AcDbPolyline
 90
        3
 70
   128
 43
0.0
 10
211.0561059443
 20
116.0650120863
 10
211.4559115497
 20
116.4648223483
 10
211.8561045853
 20
116.8650116586
  0
LWPOLYLINE
  5
18A
330
1F
100
AcDbEntity
  8
0
  6
SLD-Gestrichelt
 62
     7
370
     0
100
AcDbPolyline
 90
        3
 70
   128
 43
0.0
 10
173.3061039475
 20
117.5689462387
 10
174.0028151897
 20
117.6236064919
 10
174.5061056343
 20
117.5449870341
  0
LINE
  5
18B
330
1F
100
AcDbEntity
  8
0
  6
SLD-Gestrichelt
 62
     7
370
     0
100
AcDbLine
 10
174.7061015693
 20
117.3826109432
 30
0.0
 11
174.7061015693
 21
123.7650120445
 31
0.0
  0
LWPOLYLINE
  5
18C
330
1F
100
AcDbEntity
  8
0
  6
SLD-Gestrichelt
 62
     7
370
     0
100
AcDbPolyline
 90
        6
 70
   128
 43
0.0
 10
174.5061056343
 20
117.5449870341
 10
174.5745019642
 20
117.5199540146
 10
174.6355967251
 20
117.4832859822
 10
174.680009636
 20
117.4414975383
 10
174.7025923458
 20
117.4026427605
 10
174.7061015693
 20
117.3826109432
  0
ARC
  5
18D
330
1F
100
AcDbEntity
  8
0
  6
SLD-Gestrichelt
 62
     7
370
     0
100
AcDbCircle
 10
173.3260731
 20
117.3357089599
 30
0.0
 40
0.2340905706222536
100
AcDbArc
 50
94.8935776288
 51
159.9968736047
  0
LINE
  5
18E
330
1F
100
AcDbEntity
  8
0
  6
SLD-Gestrichelt
 62
     7
370
     0
100
AcDbLine
 10
173.1061042873
 20
117.4157846534
 30
0.0
 11
173.1061042873
 21
123.7650120445
 31
0.0
  0
LINE
  5
18F
330
1F
100
AcDbEntity
  8
0
  6
SLD-Gestrichelt
 62
     7
370
     0
100
AcDbLine
 10
81.1061022458
 20
89.8000111618
 30
0.0
 11
81.1061022458
 21
86.9200730511
 31
0.0
  0
LINE
  5
190
330
1F
100
AcDbEntity
  8
0
  6
SLD-Gestrichelt
 62
     7
370
     0
100
AcDbLine
 10
90.0561028746
 20
89.8000111618
 30
0.0
 11
90.0561028746
 21
85.8262738027
 31
0.0
  0
LINE
  5
191
330
1F
100
AcDbEntity
  8
0
  6
SLD-Gestrichelt
 62
     7
370
     0
100
AcDbLine
 10
79.956103268
 20
89.8000111618
 30
0.0
 11
79.956103268
 21
88.0993341842
 31
0.0
  0
LINE
  5
192
330
1F
100
AcDbEntity
  8
0
  6
SLD-Gestrichelt
 62
     7
370
     0
100
AcDbLine
 10
81.1061022458
 20
125.7800122537
 30
0.0
 11
81.1061022458
 21
128.6599503645
 31
0.0
  0
LINE
  5
193
330
1F
100
AcDbEntity
  8
0
  6
SLD-Gestrichelt
 62
     7
370
     0
100
AcDbLine
 10
79.956103268
 20
125.7800122537
 30
0.0
 11
79.956103268
 21
127.4806892314
 31
0.0
  0
LINE
  5
194
330
1F
100
AcDbEntity
  8
0
  6
SLD-Gestrichelt
 62
     7
370
     0
100
AcDbLine
 10
86.056102219
 20
125.7800122537
 30
0.0
 11
86.056102219
 21
129.6341193654
 31
0.0
  0
LINE
  5
195
330
1F
100
AcDbEntity
  8
0
  6
SLD-Gestrichelt
 62
     7
370
     0
100
AcDbLine
 10
130.656102824
 20
117.2900114023
 30
0.0
 11
130.656102824
 21
98.2900120132
 31
0.0
  0
LINE
  5
196
330
1F
100
AcDbEntity
  8
0
  6
SLD-Gestrichelt
 62
     7
370
     0
100
AcDbLine
 10
133.6561033157
 20
117.2900114023
 30
0.0
 11
133.6561033157
 21
98.2900120132
 31
0.0
  0
LINE
  5
197
330
1F
100
AcDbEntity
  8
0
  6
SLD-Gestrichelt
 62
     7
370
     0
100
AcDbLine
 10
122.3061030385
 20
116.2900121697
 30
0.0
 11
122.3061030385
 21
99.2900112458
 31
0.0
  0
LINE
  5
198
330
1F
100
AcDbEntity
  8
0
  6
SLD-Gestrichelt
 62
     7
370
     0
100
AcDbLine
 10
121.8061029566
 20
98.7900120952
 30
0.0
 11
121.8061029566
 21
116.7900113203
 31
0.0
  0
LINE
  5
199
330
1F
100
AcDbEntity
  8
0
  6
SLD-Gestrichelt
 62
     7
370
     0
100
AcDbLine
 10
137.8061027852
 20
81.3900118508
 30
0.0
 11
131.6684281108
 21
81.3900118508
 31
0.0
  0
LINE
  5
19A
330
1F
100
AcDbEntity
  8
0
  6
SLD-Gestrichelt
 62
     7
370
     0
100
AcDbLine
 10
131.7661033598
 20
80.2921743878
 30
0.0
 11
131.7661033598
 21
80.9856166878
 31
0.0
  0
LINE
  5
19B
330
1F
100
AcDbEntity
  8
0
  6
SLD-Gestrichelt
 62
     7
370
     0
100
AcDbLine
 10
137.8061027852
 20
81.3900118508
 30
0.0
 11
137.8061027852
 21
78.2297344693
 31
0.0
  0
LINE
  5
19C
330
1F
100
AcDbEntity
  8
0
  6
SLD-Gestrichelt
 62
     7
370
     0
100
AcDbLine
 10
116.8061030683
 20
76.3058883884
 30
0.0
 11
116.8061030683
 21
81.3900118508
 31
0.0
  0
LINE
  5
19D
330
1F
100
AcDbEntity
  8
0
  6
SLD-Gestrichelt
 62
     7
370
     0
100
AcDbLine
 10
124.8061034483
 20
81.3900118508
 30
0.0
 11
116.8061030683
 21
81.3900118508
 31
0.0
  0
LINE
  5
19E
330
1F
100
AcDbEntity
  8
0
  6
SLD-Gestrichelt
 62
     7
370
     0
100
AcDbLine
 10
128.0437783924
 20
81.3900118508
 30
0.0
 11
124.8061034483
 21
81.3900118508
 31
0.0
  0
LINE
  5
19F
330
1F
100
AcDbEntity
  8
0
  6
SLD-Gestrichelt
 62
     7
370
     0
100
AcDbLine
 10
127.9461031434
 20
80.9856166878
 30
0.0
 11
127.9461031434
 21
80.2921743878
 31
0.0
  0
LINE
  5
1A0
330
1F
100
AcDbEntity
  8
0
  6
SLD-Gestrichelt
 62
     7
370
     0
100
AcDbLine
 10
130.656102824
 20
99.2900112458
 30
0.0
 11
130.656102824
 21
116.2693060749
 31
0.0
  0
LINE
  5
1A1
330
1F
100
AcDbEntity
  8
0
  6
SLD-Gestrichelt
 62
     7
370
     0
100
AcDbLine
 10
124.8061034483
 20
134.1900115647
 30
0.0
 11
116.8061030683
 21
134.1900115647
 31
0.0
  0
LINE
  5
1A2
330
1F
100
AcDbEntity
  8
0
  6
SLD-Gestrichelt
 62
     7
370
     0
100
AcDbLine
 10
137.8061027852
 20
134.1900115647
 30
0.0
 11
131.3718055961
 21
134.1900115647
 31
0.0
  0
LINE
  5
1A3
330
1F
100
AcDbEntity
  8
0
  6
SLD-Gestrichelt
 62
     7
370
     0
100
AcDbLine
 10
131.7661033598
 20
135.595245082
 30
0.0
 11
131.7661033598
 21
134.9096650072
 31
0.0
  0
LINE
  5
1A4
330
1F
100
AcDbEntity
  8
0
  6
SLD-Gestrichelt
 62
     7
370
     0
100
AcDbLine
 10
137.8061027852
 20
134.1900115647
 30
0.0
 11
137.8061027852
 21
137.6364527085
 31
0.0
  0
LINE
  5
1A5
330
1F
100
AcDbEntity
  8
0
  6
SLD-Gestrichelt
 62
     7
370
     0
100
AcDbLine
 10
128.3404009071
 20
134.1900115647
 30
0.0
 11
124.8061034483
 21
134.1900115647
 31
0.0
  0
LINE
  5
1A6
330
1F
100
AcDbEntity
  8
0
  6
SLD-Gestrichelt
 62
     7
370
     0
100
AcDbLine
 10
127.9461031434
 20
134.9096650072
 30
0.0
 11
127.9461031434
 21
135.595245082
 31
0.0
  0
LWPOLYLINE
  5
1A7
330
1F
100
AcDbEntity
  8
0
  6
SLD-Gestrichelt
 62
     7
370
     0
100
AcDbPolyline
 90
        3
 70
   128
 43
0.0
 10
81.1061022458
 20
91.9379794785
 10
80.5318729607
 20
91.821677778
 10
79.956103268
 20
91.7196569779
  0
LINE
  5
1A8
330
1F
100
AcDbEntity
  8
0
  6
SLD-Gestrichelt
 62
     7
370
     0
100
AcDbLine
 10
79.956103268
 20
89.8000111618
 30
0.0
 11
79.956103268
 21
91.7196569779
 31
0.0
  0
ELLIPSE
  5
1A9
330
1F
100
AcDbEntity
  8
0
  6
SLD-Gestrichelt
 62
     7
370
     0
100
AcDbEllipse
 10
75.7136712266
 20
107.7900117078
 30
0.0
 11
20.19992453366626
 21
0.0
 31
0.0
210
0.0
220
0.0
230
1.0
 40
0.8164965809
 41
1.300566354718001
 42
1.359198697209605
  0
LINE
  5
1AA
330
1F
100
AcDbEntity
  8
0
  6
SLD-Gestrichelt
 62
     7
370
     0
100
AcDbLine
 10
79.956103268
 20
125.7800122537
 30
0.0
 11
79.956103268
 21
123.9153275081
 31
0.0
  0
LINE
  5
1AB
330
1F
100
AcDbEntity
  8
0
  6
SLD-Gestrichelt
 62
     7
370
     0
100
AcDbLine
 10
81.1061022458
 20
89.8000111618
 30
0.0
 11
81.1061022458
 21
91.9379794785
 31
0.0
  0
LINE
  5
1AC
330
1F
100
AcDbEntity
  8
0
  6
SLD-Gestrichelt
 62
     7
370
     0
100
AcDbLine
 10
81.1871347604
 20
91.9885204919
 30
0.0
 11
81.1061022458
 21
91.9379794785
 31
0.0
  0
LINE
  5
1AD
330
1F
100
AcDbEntity
  8
0
  6
SLD-Gestrichelt
 62
     7
370
     0
100
AcDbLine
 10
90.0561028746
 20
89.8000111618
 30
0.0
 11
90.0561028746
 21
91.5024986305
 31
0.0
  0
LINE
  5
1AE
330
1F
100
AcDbEntity
  8
0
  6
SLD-Gestrichelt
 62
     7
370
     0
100
AcDbLine
 10
86.056102219
 20
125.7800122537
 30
0.0
 11
86.056102219
 21
124.077524785
 31
0.0
  0
LINE
  5
1AF
330
1F
100
AcDbEntity
  8
0
  6
SLD-Gestrichelt
 62
     7
370
     0
100
AcDbLine
 10
81.1061022458
 20
125.7800122537
 30
0.0
 11
81.1061022458
 21
123.6846370437
 31
0.0
  0
LWPOLYLINE
  5
1B0
330
1F
100
AcDbEntity
  8
0
  6
SLD-Gestrichelt
 62
     7
370
     0
100
AcDbPolyline
 90
        3
 70
   128
 43
0.0
 10
81.1061022458
 20
123.6846370437
 10
81.1921918419
 20
123.6311940291
 10
81.2561029223
 20
123.5915029236
  0
LINE
  5
1B1
330
1F
100
AcDbEntity
  8
0
  6
SLD-Gestrichelt
 62
     7
370
     0
100
AcDbLine
 10
162.8561021415
 20
102.7400119045
 30
0.0
 11
162.8561021415
 21
112.8400115111
 31
0.0
  0
LINE
  5
1B2
330
1F
100
AcDbEntity
  8
0
  6
SLD-Gestrichelt
 62
     7
370
     0
100
AcDbLine
 10
163.856104168
 20
113.840011675
 30
0.0
 11
163.856104168
 21
101.7618070171
 31
0.0
  0
LINE
  5
1B3
330
1F
100
AcDbEntity
  8
0
  6
SLD-Gestrichelt
 62
     7
370
     0
100
AcDbLine
 10
158.7561035184
 20
102.7400119045
 30
0.0
 11
158.7561035184
 21
112.8400115111
 31
0.0
  0
LINE
  5
1B4
330
1F
100
AcDbEntity
  8
0
  6
SLD-Gestrichelt
 62
     7
370
     0
100
AcDbLine
 10
157.7646845606
 20
104.3900116627
 30
0.0
 11
157.7646845606
 21
111.1900117528
 31
0.0
  0
LWPOLYLINE
  5
1B5
330
1F
100
AcDbEntity
  8
0
  6
SLD-Gestrichelt
 62
     7
370
     0
100
AcDbPolyline
 90
       28
 70
   128
 43
0.0
 10
100.016115385
 20
84.7223492154
 10
100.1999603239
 20
84.7405398079
 10
100.8488788856
 20
84.7850030103
 10
101.5363234681
 20
84.8068034091
 10
102.8537640003
 20
84.7824083456
 10
104.0318200019
 20
84.6707204171
 10
104.7604187978
 20
84.5709627309
 10
105.4997538802
 20
84.4419298508
 10
106.0255041001
 20
84.3320412376
 10
106.3681735312
 20
84.2533742823
 10
106.6060882648
 20
84.1897127964
 10
106.6048654382
 20
84.1900387593
 10
106.3760767346
 20
84.2511260697
 10
106.0389654366
 20
84.3288114109
 10
105.5202741762
 20
84.4378115424
 10
104.7784976316
 20
84.5679173061
 10
104.048288579
 20
84.6684964188
 10
102.8768682507
 20
84.7810746916
 10
101.5552879897
 20
84.8071573117
 10
100.8667453778
 20
84.7859939375
 10
100.2166188908
 20
84.7420243361
 10
99.6359727931
 20
84.6850478836
 10
99.2999953804
 20
84.6442857572
 10
99.1061228914
 20
84.6113970318
 10
99.1070132357
 20
84.611547906
 10
99.2951217694
 20
84.6434457042
 10
99.6271093962
 20
84.6838632413
 10
100.016115385
 20
84.7223492154
  0
LWPOLYLINE
  5
1B6
330
1F
100
AcDbEntity
  8
0
  6
SLD-Gestrichelt
 62
     7
370
     0
100
AcDbPolyline
 90
       40
 70
   128
 43
0.0
 10
100.8309593079
 20
130.7954171487
 10
100.1999575299
 20
130.8394146898
 10
99.6268365187
 20
130.8960763552
 10
99.295034225
 20
130.9364883044
 10
99.1428793994
 20
130.9606523999
 10
99.1067487401
 20
130.968430806
 10
99.1061154408
 20
130.9685667791
 10
99.1448929188
 20
130.9602575191
 10
99.2990826843
 20
130.9357451089
 10
99.6345106167
 20
130.8950239607
 10
99.8905796212
 20
130.8685874381
 10
100.2146854651
 20
130.8380996623
 10
100.8653632951
 20
130.7941132971
 10
101.5547310588
 20
130.7729257085
 10
102.0125832063
 20
130.7714672574
 10
102.4564282623
 20
130.7801415958
 10
102.8781776903
 20
130.7989487239
 10
103.4014897076
 20
130.8403124847
 10
104.0465390896
 20
130.9111377039
 10
104.7749092457
 20
131.0114187934
 10
105.1495803175
 20
131.0726085492
 10
105.5153330443
 20
131.1411613413
 10
106.0366105874
 20
131.2505526283
 10
106.3752744002
 20
131.3285322674
 10
106.5548054529
 20
131.3751021215
 10
106.6053273742
 20
131.3900386729
 10
106.6060840738
 20
131.3902621903
 10
106.5431005908
 20
131.3727868535
 10
106.3385239457
 20
131.3215305843
 10
106.11043094
 20
131.2685960718
 10
105.8723620725
 20
131.2156019547
 10
105.5704827075
 20
131.1516666599
 10
105.2288079289
 20
131.0857122578
 10
104.8867676062
 20
131.0261113384
 10
104.5706618232
 20
130.9765500762
 10
104.2898806398
 20
130.9367378988
 10
103.5391512913
 20
130.8515814879
 10
102.8067964715
 20
130.7965086588
 10
101.4873144803
 20
130.7727860101
 10
100.8309593079
 20
130.7954171487
  0
LINE
  5
1B7
330
1F
100
AcDbEntity
  8
0
  6
SLD-Gestrichelt
 62
     7
370
     0
100
AcDbLine
 10
133.6561033157
 20
104.3900116627
 30
0.0
 11
133.6561033157
 21
111.1900117528
 31
0.0
  0
LINE
  5
1B8
330
1F
100
AcDbEntity
  8
0
  6
SLD-Gestrichelt
 62
     7
370
     0
100
AcDbLine
 10
186.1561016766
 20
123.3400113695
 30
0.0
 11
179.5561017123
 21
123.3400113695
 31
0.0
  0
LINE
  5
1B9
330
1F
100
AcDbEntity
  8
0
  6
SLD-Gestrichelt
 62
     7
370
     0
100
AcDbLine
 10
185.5836661187
 20
123.2198400237
 30
0.0
 11
180.1285447208
 21
123.2198400237
 31
0.0
  0
LINE
  5
1BA
330
1F
100
AcDbEntity
  8
0
  6
SLD-Gestrichelt
 62
     7
370
     0
100
AcDbLine
 10
180.1285447208
 20
123.2198400237
 30
0.0
 11
185.5836661187
 21
123.2198400237
 31
0.0
  0
LINE
  5
1BB
330
1F
100
AcDbEntity
  8
0
  6
SLD-Gestrichelt
 62
     7
370
     0
100
AcDbLine
 10
173.1061042873
 20
92.4146257155
 30
0.0
 11
173.1061042873
 21
91.9358914533
 31
0.0
  0
ARC
  5
1BC
330
1F
100
AcDbEntity
  8
0
  6
SLD-Gestrichelt
 62
     7
370
     0
100
AcDbCircle
 10
173.2985740041
 20
91.9348109564
 30
0.0
 40
0.1924727497006878
100
AcDbArc
 50
179.6783532559
 51
272.2421049637
  0
LWPOLYLINE
  5
1BD
330
1F
100
AcDbEntity
  8
0
  6
SLD-Gestrichelt
 62
     7
370
     0
100
AcDbPolyline
 90
        3
 70
   128
 43
0.0
 10
173.3061039475
 20
91.7424855568
 10
174.0028151897
 20
91.7512418517
 10
174.5061056343
 20
91.7387453654
  0
ARC
  5
1BE
330
1F
100
AcDbEntity
  8
0
  6
SLD-Gestrichelt
 62
     7
370
     0
100
AcDbCircle
 10
174.5151807884
 20
91.9294554035
 30
0.0
 40
0.1909258418220041
100
AcDbArc
 50
267.2755703609
 51
0.4171781472
  0
LINE
  5
1BF
330
1F
100
AcDbEntity
  8
0
  6
SLD-Gestrichelt
 62
     7
370
     0
100
AcDbLine
 10
174.7061015693
 20
91.9308455475
 30
0.0
 11
174.7061015693
 21
92.4094233476
 31
0.0
  0
LWPOLYLINE
  5
1C0
330
1F
100
AcDbEntity
  8
0
  6
SLD-Gestrichelt
 62
     7
370
     0
100
AcDbPolyline
 90
        3
 70
   128
 43
0.0
 10
174.5061056343
 20
91.7387453654
 10
173.8136971024
 20
91.7518565246
 10
173.3061039475
 20
91.7424855568
  0
LINE
  5
1C1
330
1F
100
AcDbEntity
  8
0
  6
SLD-Gestrichelt
 62
     7
370
     0
100
AcDbLine
 10
116.8061030683
 20
81.3900118508
 30
0.0
 11
124.8061034483
 21
81.3900118508
 31
0.0
  0
LWPOLYLINE
  5
1C2
330
1F
100
AcDbEntity
  8
0
  6
SLD-Gestrichelt
 62
     7
370
     0
100
AcDbPolyline
 90
        3
 70
   128
 43
0.0
 10
174.5061056343
 20
114.0863022582
 10
173.8136971024
 20
113.9908067697
 10
173.3061039475
 20
114.0586042591
  0
LWPOLYLINE
  5
1C3
330
1F
100
AcDbEntity
  8
0
  6
SLD-Gestrichelt
 62
     7
370
     0
100
AcDbPolyline
 90
        7
 70
   128
 43
0.0
 10
174.7061015693
 20
114.0565777012
 10
174.7018025843
 20
114.0755883233
 10
174.6797041622
 20
114.0959670582
 10
174.6417583552
 20
114.1053804011
 10
174.5893584219
 20
114.1041072831
 10
174.525208923
 20
114.09170812
 10
174.5061056343
 20
114.0863022582
  0
LINE
  5
1C4
330
1F
100
AcDbEntity
  8
0
  6
SLD-Gestrichelt
 62
     7
370
     0
100
AcDbLine
 10
174.7061015693
 20
91.9308455475
 30
0.0
 11
174.7061015693
 21
114.0565777012
 31
0.0
  0
LINE
  5
1C5
330
1F
100
AcDbEntity
  8
0
  6
SLD-Gestrichelt
 62
     7
370
     0
100
AcDbLine
 10
173.1061042873
 20
91.9358914533
 30
0.0
 11
173.1061042873
 21
114.0183590167
 31
0.0
  0
LWPOLYLINE
  5
1C6
330
1F
100
AcDbEntity
  8
0
  6
SLD-Gestrichelt
 62
     7
370
     0
100
AcDbPolyline
 90
        6
 70
   128
 43
0.0
 10
173.3061039475
 20
114.0586042591
 10
173.2385532585
 20
114.0708427691
 10
173.1781923798
 20
114.0716325306
 10
173.1337049631
 20
114.0598508344
 10
173.1101723043
 20
114.037143793
 10
173.1061042873
 20
114.0183590167
  0
LINE
  5
1C7
330
1F
100
AcDbEntity
  8
0
  6
SLD-Gestrichelt
 62
     7
370
     0
100
AcDbLine
 10
86.056102219
 20
125.7800122537
 30
0.0
 11
86.056102219
 21
129.6341193654
 31
0.0
  0
LINE
  5
1C8
330
1F
100
AcDbEntity
  8
0
  6
SLD-Gestrichelt
 62
     7
370
     0
100
AcDbLine
 10
90.0561028746
 20
89.8000111618
 30
0.0
 11
90.0561028746
 21
85.8262738027
 31
0.0
  0
LINE
  5
1C9
330
1F
100
AcDbEntity
  8
0
  6
SLD-Gestrichelt
 62
     7
370
     0
100
AcDbLine
 10
81.241270679
 20
91.9885204919
 30
0.0
 11
81.1061022458
 21
91.9046064653
 31
0.0
  0
LWPOLYLINE
  5
1CA
330
1F
100
AcDbEntity
  8
0
  6
SLD-Gestrichelt
 62
     7
370
     0
100
AcDbPolyline
 90
        3
 70
   128
 43
0.0
 10
81.1061022458
 20
91.9046064653
 10
80.5318953124
 20
91.7817817815
 10
79.956103268
 20
91.6729213484
  0
LINE
  5
1CB
330
1F
100
AcDbEntity
  8
0
  6
SLD-Gestrichelt
 62
     7
370
     0
100
AcDbLine
 10
79.956103268
 20
93.5303771683
 30
0.0
 11
79.956103268
 21
91.6729213484
 31
0.0
  0
LWPOLYLINE
  5
1CC
330
1F
100
AcDbEntity
  8
0
  6
SLD-Gestrichelt
 62
     7
370
     0
100
AcDbPolyline
 90
        3
 70
   128
 43
0.0
 10
81.1061022458
 20
123.6846370437
 10
81.1921918419
 20
123.6311940291
 10
81.2561029223
 20
123.5915029236
  0
LINE
  5
1CD
330
1F
100
AcDbEntity
  8
0
  6
SLD-Gestrichelt
 62
     7
370
     0
100
AcDbLine
 10
81.0960588631
 20
128.6499647238
 30
0.0
 11
80.7802566913
 21
128.1801311114
 31
0.0
  0
LINE
  5
1CE
330
1F
100
AcDbEntity
  8
0
  6
SLD-Gestrichelt
 62
     7
370
     0
100
AcDbLine
 10
81.1061022458
 20
125.7800122537
 30
0.0
 11
81.1061022458
 21
128.6599503645
 31
0.0
  0
LINE
  5
1CF
330
1F
100
AcDbEntity
  8
0
  6
SLD-Gestrichelt
 62
     7
370
     0
100
AcDbLine
 10
79.956103268
 20
125.7800122537
 30
0.0
 11
79.956103268
 21
127.4806892314
 31
0.0
  0
LWPOLYLINE
  5
1D0
330
1F
100
AcDbEntity
  8
0
  6
SLD-Gestrichelt
 62
     7
370
     0
100
AcDbPolyline
 90
        3
 70
   128
 43
0.0
 10
80.0187663761
 20
127.4645643123
 10
79.9772591916
 20
127.5270895847
 10
79.956103268
 20
127.4806892314
  0
LINE
  5
1D1
330
1F
100
AcDbEntity
  8
0
  6
SLD-Gestrichelt
 62
     7
370
     0
100
AcDbLine
 10
79.956103268
 20
123.9153275081
 30
0.0
 11
79.956103268
 21
122.0496462473
 31
0.0
  0
LINE
  5
1D2
330
1F
100
AcDbEntity
  8
0
  6
SLD-Gestrichelt
 62
     7
370
     0
100
AcDbLine
 10
79.956103268
 20
89.8000111618
 30
0.0
 11
79.956103268
 21
91.6729213484
 31
0.0
  0
LINE
  5
1D3
330
1F
100
AcDbEntity
  8
0
  6
SLD-Gestrichelt
 62
     7
370
     0
100
AcDbLine
 10
81.1061022458
 20
89.8000111618
 30
0.0
 11
81.1061022458
 21
91.9046064653
 31
0.0
  0
LWPOLYLINE
  5
1D4
330
1F
100
AcDbEntity
  8
0
  6
SLD-Gestrichelt
 62
     7
370
     0
100
AcDbPolyline
 90
        3
 70
   128
 43
0.0
 10
80.7802566913
 20
87.3998923042
 10
81.0061880973
 20
87.0272589662
 10
81.0960588631
 20
86.9300586917
  0
LWPOLYLINE
  5
1D5
330
1F
100
AcDbEntity
  8
0
  6
SLD-Gestrichelt
 62
     7
370
     0
100
AcDbPolyline
 90
        3
 70
   128
 43
0.0
 10
79.956103268
 20
88.0993341842
 10
80.0053516058
 20
88.074212689
 10
80.0187663761
 20
88.1154591032
  0
LINE
  5
1D6
330
1F
100
AcDbEntity
  8
0
  6
SLD-Gestrichelt
 62
     7
370
     0
100
AcDbLine
 10
79.956103268
 20
89.8000111618
 30
0.0
 11
79.956103268
 21
88.0993341842
 31
0.0
  0
LINE
  5
1D7
330
1F
100
AcDbEntity
  8
0
  6
SLD-Gestrichelt
 62
     7
370
     0
100
AcDbLine
 10
81.1061022458
 20
89.8000111618
 30
0.0
 11
81.1061022458
 21
86.9200730511
 31
0.0
  0
ARC
  5
1D8
330
1F
100
AcDbEntity
  8
0
  6
SLD-Gestrichelt
 62
     7
370
     0
100
AcDbCircle
 10
128.791976799
 20
134.9052742673
 30
0.0
 40
0.8458850511768357
100
AcDbArc
 50
179.7025931636
 51
237.7340325855
  0
LINE
  5
1D9
330
1F
100
AcDbEntity
  8
0
  6
SLD-Gestrichelt
 62
     7
370
     0
100
AcDbLine
 10
127.9461031434
 20
134.9096650072
 30
0.0
 11
127.9461031434
 21
80.9856166878
 31
0.0
  0
ARC
  5
1DA
330
1F
100
AcDbEntity
  8
0
  6
SLD-Gestrichelt
 62
     7
370
     0
100
AcDbCircle
 10
128.8302242256
 20
80.9860647749
 30
0.0
 40
0.8841211956749518
100
AcDbArc
 50
152.8133250666
 51
180.0290384411
  0
LINE
  5
1DB
330
1F
100
AcDbEntity
  8
0
  6
SLD-Gestrichelt
 62
     7
370
     0
100
AcDbLine
 10
128.3404009071
 20
134.1900115647
 30
0.0
 11
128.7461036471
 21
134.1900115647
 31
0.0
  0
LINE
  5
1DC
330
1F
100
AcDbEntity
  8
0
  6
SLD-Gestrichelt
 62
     7
370
     0
100
AcDbLine
 10
128.0437783924
 20
81.3900118508
 30
0.0
 11
128.7461036471
 21
81.3900118508
 31
0.0
  0
LINE
  5
1DD
330
1F
100
AcDbEntity
  8
0
  6
SLD-Gestrichelt
 62
     7
370
     0
100
AcDbLine
 10
131.7661033598
 20
134.9096650072
 30
0.0
 11
131.7661033598
 21
80.9856166878
 31
0.0
  0
ARC
  5
1DE
330
1F
100
AcDbEntity
  8
0
  6
SLD-Gestrichelt
 62
     7
370
     0
100
AcDbCircle
 10
130.9252740866
 20
134.9025104527
 30
0.0
 40
0.8408597114901676
100
AcDbArc
 50
302.075860438
 51
0.4875138129
  0
ARC
  5
1DF
330
1F
100
AcDbEntity
  8
0
  6
SLD-Gestrichelt
 62
     7
370
     0
100
AcDbCircle
 10
130.885971656
 20
80.987028346
 30
0.0
 40
0.8801328359032539
100
AcDbArc
 50
359.9081023991
 51
27.2495340932
  0
LINE
  5
1E0
330
1F
100
AcDbEntity
  8
0
  6
SLD-Gestrichelt
 62
     7
370
     0
100
AcDbLine
 10
130.9661028561
 20
134.1900115647
 30
0.0
 11
131.3718055961
 21
134.1900115647
 31
0.0
  0
LINE
  5
1E1
330
1F
100
AcDbEntity
  8
0
  6
SLD-Gestrichelt
 62
     7
370
     0
100
AcDbLine
 10
130.9661028561
 20
81.3900118508
 30
0.0
 11
131.6684281108
 21
81.3900118508
 31
0.0
  0
LINE
  5
1E2
330
1F
100
AcDbEntity
  8
0
  6
SLD-Gestrichelt
 62
     7
370
     0
100
AcDbLine
 10
128.7461036471
 20
134.1900115647
 30
0.0
 11
130.9661028561
 21
134.1900115647
 31
0.0
  0
LINE
  5
1E3
330
1F
100
AcDbEntity
  8
0
  6
SLD-Gestrichelt
 62
     7
370
     0
100
AcDbLine
 10
128.7461036471
 20
81.3900118508
 30
0.0
 11
130.9661028561
 21
81.3900118508
 31
0.0
  0
LWPOLYLINE
  5
1E4
330
1F
100
AcDbEntity
  8
0
  6
SLD-Gestrichelt
 62
     7
370
     0
100
AcDbPolyline
 90
        3
 70
   128
 43
0.0
 10
131.7661033598
 20
135.595245082
 10
133.2400312302
 20
138.2428740897
 10
133.2480350164
 20
138.2572071441
  0
LINE
  5
1E5
330
1F
100
AcDbEntity
  8
0
  6
SLD-Gestrichelt
 62
     7
370
     0
100
AcDbLine
 10
133.2480350164
 20
138.2572071441
 30
0.0
 11
137.2061038045
 21
138.2572071441
 31
0.0
  0
ARC
  5
1E6
330
1F
100
AcDbEntity
  8
0
  6
SLD-Gestrichelt
 62
     7
370
     0
100
AcDbCircle
 10
137.1965439788
 20
137.6476209905
 30
0.0
 40
0.6096611099671675
100
AcDbArc
 50
358.9503492893
 51
89.1015334537
  0
LWPOLYLINE
  5
1E7
330
1F
100
AcDbEntity
  8
0
  6
SLD-Gestrichelt
 62
     7
370
     0
100
AcDbPolyline
 90
        3
 70
   128
 43
0.0
 10
126.4641705555
 20
138.2572071441
 10
126.4721743417
 20
138.2428740897
 10
127.9461031434
 20
135.595245082
  0
LINE
  5
1E8
330
1F
100
AcDbEntity
  8
0
  6
SLD-Gestrichelt
 62
     7
370
     0
100
AcDbLine
 10
131.7661033598
 20
135.595245082
 30
0.0
 11
131.7661033598
 21
80.2921743878
 31
0.0
  0
LINE
  5
1E9
330
1F
100
AcDbEntity
  8
0
  6
SLD-Gestrichelt
 62
     7
370
     0
100
AcDbLine
 10
133.2480350164
 20
138.2572071441
 30
0.0
 11
133.2480350164
 21
77.603094075
 31
0.0
  0
LINE
  5
1EA
330
1F
100
AcDbEntity
  8
0
  6
SLD-Gestrichelt
 62
     7
370
     0
100
AcDbLine
 10
127.9461031434
 20
135.595245082
 30
0.0
 11
127.9461031434
 21
80.2921743878
 31
0.0
  0
ARC
  5
1EB
330
1F
100
AcDbEntity
  8
0
  6
SLD-Gestrichelt
 62
     7
370
     0
100
AcDbCircle
 10
137.1919799901
 20
78.2171827262
 30
0.0
 40
0.6142510510424769
100
AcDbArc
 50
271.317549681
 51
1.1708762429
  0
LINE
  5
1EC
330
1F
100
AcDbEntity
  8
0
  6
SLD-Gestrichelt
 62
     7
370
     0
100
AcDbLine
 10
137.8061027852
 20
137.6364527085
 30
0.0
 11
137.8061027852
 21
78.2297344693
 31
0.0
  0
LWPOLYLINE
  5
1ED
330
1F
100
AcDbEntity
  8
0
  6
SLD-Gestrichelt
 62
     7
370
     0
100
AcDbPolyline
 90
       12
 70
   128
 43
0.0
 10
80.7802566913
 20
128.1801311114
 10
80.7143972841
 20
127.9953269102
 10
80.5999638167
 20
127.7318315395
 10
80.4706291882
 20
127.4986544438
 10
80.396082404
 20
127.3920683005
 10
80.3573356596
 20
127.3450681754
 10
80.3132841018
 20
127.2993290611
 10
80.2743324665
 20
127.2665502318
 10
80.2377128628
 20
127.2433696129
 10
80.1914335815
 20
127.2270174512
 10
80.110993388
 20
127.2490786203
 10
80.0187663761
 20
127.4645643123
  0
LWPOLYLINE
  5
1EE
330
1F
100
AcDbEntity
  8
0
  6
SLD-Gestrichelt
 62
     7
370
     0
100
AcDbPolyline
 90
       12
 70
   128
 43
0.0
 10
80.0187663761
 20
88.1154591032
 10
80.104705098
 20
88.325250689
 10
80.1587255326
 20
88.353475351
 10
80.2011007098
 20
88.3509626427
 10
80.2428761152
 20
88.3338840493
 10
80.2770184008
 20
88.3114671149
 10
80.3163313893
 20
88.2778109797
 10
80.35002664
 20
88.2431322523
 10
80.3980009285
 20
88.1854759344
 10
80.4720410732
 20
88.079152424
 10
80.6366989044
 20
87.7701712587
 10
80.7802566913
 20
87.3998923042
  0
LINE
  5
1EF
330
1F
100
AcDbEntity
  8
0
  6
SLD-Gestrichelt
 62
     7
370
     0
100
AcDbLine
 10
79.956103268
 20
127.4806892314
 30
0.0
 11
79.956103268
 21
88.0993341842
 31
0.0
  0
LINE
  5
1F0
330
1F
100
AcDbEntity
  8
0
  6
SLD-Gestrichelt
 62
     7
370
     0
100
AcDbLine
 10
126.4641705555
 20
77.603094075
 30
0.0
 11
127.9461031434
 21
80.2921743878
 31
0.0
  0
LINE
  5
1F1
330
1F
100
AcDbEntity
  8
0
  6
SLD-Gestrichelt
 62
     7
370
     0
100
AcDbLine
 10
133.2480350164
 20
77.603094075
 30
0.0
 11
137.2061038045
 21
77.603094075
 31
0.0
  0
LINE
  5
1F2
330
1F
100
AcDbEntity
  8
0
  6
SLD-Gestrichelt
 62
     7
370
     0
100
AcDbLine
 10
131.7661033598
 20
80.2921743878
 30
0.0
 11
133.2480350164
 21
77.603094075
 31
0.0
  0
LWPOLYLINE
  5
1F3
330
1F
100
AcDbEntity
  8
0
  6
SLD-Gestrichelt
 62
     7
370
     0
100
AcDbPolyline
 90
        3
 70
   128
 43
0.0
 10
80.9561034319
 20
120.4301535898
 10
80.4561117319
 20
120.6236731076
 10
79.956103268
 20
120.8170845919
  0
LINE
  5
1F4
330
1F
100
AcDbEntity
  8
0
  6
SLD-Gestrichelt
 62
     7
370
     0
100
AcDbLine
 10
79.956103268
 20
122.0496462473
 30
0.0
 11
79.956103268
 21
120.8170845919
 31
0.0
  0
LWPOLYLINE
  5
1F5
330
1F
100
AcDbEntity
  8
0
  6
SLD-Gestrichelt
 62
     7
370
     0
100
AcDbPolyline
 90
        3
 70
   128
 43
0.0
 10
79.956103268
 20
94.762789812
 10
80.4561042813
 20
94.9603680336
 10
80.9561034319
 20
95.1582340338
  0
LINE
  5
1F6
330
1F
100
AcDbEntity
  8
0
  6
SLD-Gestrichelt
 62
     7
370
     0
100
AcDbLine
 10
79.956103268
 20
94.762789812
 30
0.0
 11
79.956103268
 21
93.5303771683
 31
0.0
  0
LWPOLYLINE
  5
1F7
330
1F
100
AcDbEntity
  8
0
  6
SLD-Gestrichelt
 62
     7
370
     0
100
AcDbPolyline
 90
        3
 70
   128
 43
0.0
 10
79.956103268
 20
117.7708262392
 10
80.4561080066
 20
117.583781276
 10
80.9561034319
 20
117.3969514482
  0
LINE
  5
1F8
330
1F
100
AcDbEntity
  8
0
  6
SLD-Gestrichelt
 62
     7
370
     0
100
AcDbLine
 10
79.956103268
 20
120.8170845919
 30
0.0
 11
79.956103268
 21
117.7708262392
 31
0.0
  0
LWPOLYLINE
  5
1F9
330
1F
100
AcDbEntity
  8
0
  6
SLD-Gestrichelt
 62
     7
370
     0
100
AcDbPolyline
 90
        3
 70
   128
 43
0.0
 10
80.9561034319
 20
98.1891851687
 10
80.456126633
 20
97.9991059565
 10
79.956103268
 20
97.8093685397
  0
LINE
  5
1FA
330
1F
100
AcDbEntity
  8
0
  6
SLD-Gestrichelt
 62
     7
370
     0
100
AcDbLine
 10
79.956103268
 20
97.8093685397
 30
0.0
 11
79.956103268
 21
94.762789812
 31
0.0
  0
LWPOLYLINE
  5
1FB
330
1F
100
AcDbEntity
  8
0
  6
SLD-Gestrichelt
 62
     7
370
     0
100
AcDbPolyline
 90
       29
 70
   128
 43
0.0
 10
179.5561017123
 20
100.0150118769
 10
179.6388404099
 20
100.6509505958
 10
179.8829065291
 20
101.2550008298
 10
180.276058766
 20
101.7968731747
 10
180.798590335
 20
102.2493953631
 10
181.4242900935
 20
102.5898761862
 10
182.1217836467
 20
102.8012426385
 10
182.8561054197
 20
102.8728953377
 10
183.5904197422
 20
102.8012426385
 10
184.287920746
 20
102.5898761862
 10
184.9136205045
 20
102.2493953631
 10
185.4361446229
 20
101.7968731747
 10
185.8292968598
 20
101.2550008298
 10
186.073362979
 20
100.6509505958
 10
186.1561016766
 20
100.0150118769
 10
186.073362979
 20
99.3790726923
 10
185.8292968598
 20
98.7750224584
 10
185.4361446229
 20
98.2331501135
 10
184.9136205045
 20
97.780627925
 10
184.287920746
 20
97.4401475676
 10
183.5904197422
 20
97.2287811153
 10
182.8561054197
 20
97.1571279504
 10
182.1217836467
 20
97.2287811153
 10
181.4242900935
 20
97.4401475676
 10
180.798590335
 20
97.780627925
 10
180.276058766
 20
98.2331501135
 10
179.8829065291
 20
98.7750224584
 10
179.6388404099
 20
99.3790726923
 10
179.5561017123
 20
100.0150118769
  0
LINE
  5
1FC
330
1F
100
AcDbEntity
  8
0
  6
SLD-Gestrichelt
 62
     7
370
     0
100
AcDbLine
 10
79.956103268
 20
117.7708262392
 30
0.0
 11
79.956103268
 21
116.3864869439
 31
0.0
  0
LINE
  5
1FD
330
1F
100
AcDbEntity
  8
0
  6
SLD-Gestrichelt
 62
     7
370
     0
100
AcDbLine
 10
79.956103268
 20
99.1935364717
 30
0.0
 11
79.956103268
 21
97.8093685397
 31
0.0
  0
LINE
  5
1FE
330
1F
100
AcDbEntity
  8
0
  6
SLD-Gestrichelt
 62
     7
370
     0
100
AcDbLine
 10
79.956103268
 20
116.3864869439
 30
0.0
 11
79.956103268
 21
99.1935364717
 31
0.0
  0
CIRCLE
  5
1FF
330
1F
100
AcDbEntity
  8
0
  6
SLD-Gestrichelt
 62
     7
370
     0
100
AcDbCircle
 10
118.8561030952
 20
107.7900117078
 30
0.0
 40
5.0
  0
LINE
  5
200
330
1F
100
AcDbEntity
  8
0
  6
SLD-Gestrichelt
 62
     7
370
     0
100
AcDbLine
 10
115.8561032851
 20
122.0878472366
 30
0.0
 11
115.8561032851
 21
120.1839519479
 31
0.0
  0
LINE
  5
201
330
1F
100
AcDbEntity
  8
0
  6
SLD-Gestrichelt
 62
     7
370
     0
100
AcDbLine
 10
123.8561031995
 20
120.1839519479
 30
0.0
 11
123.8561031995
 21
122.0906421357
 31
0.0
  0
LINE
  5
202
330
1F
100
AcDbEntity
  8
0
  6
SLD-Gestrichelt
 62
     7
370
     0
100
AcDbLine
 10
111.8561030952
 20
82.46608058
 30
0.0
 11
111.9502638674
 21
83.1360684522
 31
0.0
  0
LINE
  5
203
330
1F
100
AcDbEntity
  8
0
  6
SLD-Gestrichelt
 62
     7
370
     0
100
AcDbLine
 10
111.9502638674
 20
132.4439549633
 30
0.0
 11
111.8561030952
 21
133.1139428356
 31
0.0
  0
ARC
  5
204
330
1F
100
AcDbEntity
  8
0
  6
SLD-Gestrichelt
 62
     7
370
     0
100
AcDbCircle
 10
111.3560963425
 20
83.2195740934
 30
0.0
 40
0.6000067526677242
100
AcDbArc
 50
352.0
 51
0.0
  0
ARC
  5
205
330
1F
100
AcDbEntity
  8
0
  6
SLD-Gestrichelt
 62
     7
370
     0
100
AcDbCircle
 10
111.3560963425
 20
83.2195740934
 30
0.0
 40
0.6000067526677242
100
AcDbArc
 50
0.0
 51
33.5571153394
  0
ARC
  5
206
330
1F
100
AcDbEntity
  8
0
  6
SLD-Gestrichelt
 62
     7
370
     0
100
AcDbCircle
 10
111.3560963425
 20
132.3604493222
 30
0.0
 40
0.6000067526677308
100
AcDbArc
 50
348.75
 51
8.0
  0
LWPOLYLINE
  5
207
330
1F
100
AcDbEntity
  8
0
  6
SLD-Gestrichelt
 62
     7
370
     0
100
AcDbPolyline
 90
        3
 70
   128
 43
0.0
 10
111.9445741341
 20
132.2433946469
 10
111.9104303023
 20
132.1308368631
 10
111.8561030952
 20
132.0287843981
  0
LINE
  5
208
330
1F
100
AcDbEntity
  8
0
  6
SLD-Gestrichelt
 62
     7
370
     0
100
AcDbLine
 10
111.9561030926
 20
83.2195745596
 30
0.0
 11
111.9561030926
 21
132.360448856
 31
0.0
  0
LINE
  5
209
330
1F
100
AcDbEntity
  8
0
  6
SLD-Gestrichelt
 62
     7
370
     0
100
AcDbLine
 10
111.9561030926
 20
83.2195745596
 30
0.0
 11
111.9561030926
 21
132.360448856
 31
0.0
  0
LINE
  5
20A
330
1F
100
AcDbEntity
  8
0
  6
SLD-Gestrichelt
 62
     7
370
     0
100
AcDbLine
 10
163.5061019686
 20
130.1650123485
 30
0.0
 11
162.4061019746
 21
130.1650123485
 31
0.0
  0
LINE
  5
20B
330
1F
100
AcDbEntity
  8
0
  6
SLD-Gestrichelt
 62
     7
370
     0
100
AcDbLine
 10
162.4061019746
 20
85.415011067
 30
0.0
 11
163.5061019686
 21
85.415011067
 31
0.0
  0
ARC
  5
20C
330
1F
100
AcDbEntity
  8
0
  6
SLD-Gestrichelt
 62
     7
370
     0
100
AcDbCircle
 10
163.5061030952
 20
129.8650117078
 30
0.0
 40
0.2999999999999829
100
AcDbArc
 50
0.0
 51
90.0
  0
ARC
  5
20D
330
1F
100
AcDbEntity
  8
0
  6
SLD-Gestrichelt
 62
     7
370
     0
100
AcDbCircle
 10
163.5061030952
 20
85.7150117078
 30
0.0
 40
0.3000000000000114
100
AcDbArc
 50
270.0
 51
0.0
  0
ARC
  5
20E
330
1F
100
AcDbEntity
  8
0
  6
SLD-Gestrichelt
 62
     7
370
     0
100
AcDbCircle
 10
164.0061030952
 20
127.8400117078
 30
0.0
 40
0.2000000000000171
100
AcDbArc
 50
180.0
 51
270.0
  0
ARC
  5
20F
330
1F
100
AcDbEntity
  8
0
  6
SLD-Gestrichelt
 62
     7
370
     0
100
AcDbCircle
 10
164.0061030952
 20
87.7400117078
 30
0.0
 40
0.2000000000000171
100
AcDbArc
 50
90.0
 51
180.0
  0
LINE
  5
210
330
1F
100
AcDbEntity
  8
0
  6
SLD-Gestrichelt
 62
     7
370
     0
100
AcDbLine
 10
165.8061036495
 20
127.7900112607
 30
0.0
 11
165.2717293826
 21
127.6468260028
 31
0.0
  0
LINE
  5
211
330
1F
100
AcDbEntity
  8
0
  6
SLD-Gestrichelt
 62
     7
370
     0
100
AcDbLine
 10
165.2717293826
 20
87.9331974127
 30
0.0
 11
165.8061036495
 21
87.7900121548
 31
0.0
  0
ARC
  5
212
330
1F
100
AcDbEntity
  8
0
  6
SLD-Gestrichelt
 62
     7
370
     0
100
AcDbCircle
 10
105.6111050968
 20
95.7900117078
 30
0.0
 40
8.000000000000023
100
AcDbArc
 50
276.8830373858
 51
321.3178125465
  0
ARC
  5
213
330
1F
100
AcDbEntity
  8
0
  6
SLD-Gestrichelt
 62
     7
370
     0
100
AcDbCircle
 10
105.6111050968
 20
119.7900117078
 30
0.0
 40
8.000000000000012
100
AcDbArc
 50
38.6821874535
 51
83.1233029869
  0
ARC
  5
214
330
1F
100
AcDbEntity
  8
0
  6
SLD-Gestrichelt
 62
     7
370
     0
100
AcDbCircle
 10
94.9385386605
 20
88.3900117078
 30
0.0
 40
0.6000000000000085
100
AcDbArc
 50
210.0
 51
270.0
  0
ARC
  5
215
330
1F
100
AcDbEntity
  8
0
  6
SLD-Gestrichelt
 62
     7
370
     0
100
AcDbCircle
 10
94.9385386605
 20
127.1900117078
 30
0.0
 40
0.5999999999999962
100
AcDbArc
 50
90.0
 51
150.0
  0
LINE
  5
216
330
1F
100
AcDbEntity
  8
0
  6
SLD-Gestrichelt
 62
     7
370
     0
100
AcDbLine
 10
179.5561017123
 20
127.7900112607
 30
0.0
 11
165.8061036495
 21
127.7900112607
 31
0.0
  0
LINE
  5
217
330
1F
100
AcDbEntity
  8
0
  6
SLD-Gestrichelt
 62
     7
370
     0
100
AcDbLine
 10
203.3561022607
 20
127.7900112607
 30
0.0
 11
186.1138270823
 21
127.7900112607
 31
0.0
  0
LINE
  5
218
330
1F
100
AcDbEntity
  8
0
  6
SLD-Gestrichelt
 62
     7
370
     0
100
AcDbLine
 10
175.9299041358
 20
87.7900121548
 30
0.0
 11
203.3561022607
 21
87.7900121548
 31
0.0
  0
LINE
  5
219
330
1F
100
AcDbEntity
  8
0
  6
SLD-Gestrichelt
 62
     7
370
     0
100
AcDbLine
 10
165.8061036495
 20
87.7900121548
 30
0.0
 11
171.7561037866
 21
87.7900121548
 31
0.0
  0
LINE
  5
21A
330
1F
100
AcDbEntity
  8
0
  6
SLD-Gestrichelt
 62
     7
370
     0
100
AcDbLine
 10
94.9385391203
 20
87.7900121548
 30
0.0
 11
99.1302106184
 21
87.7900121548
 31
0.0
  0
LINE
  5
21B
330
1F
100
AcDbEntity
  8
0
  6
SLD-Gestrichelt
 62
     7
370
     0
100
AcDbLine
 10
99.1302106184
 20
127.7900112607
 30
0.0
 11
94.9385391203
 21
127.7900112607
 31
0.0
  0
LINE
  5
21C
330
1F
100
AcDbEntity
  8
0
  6
SLD-Gestrichelt
 62
     7
370
     0
100
AcDbLine
 10
211.0561059443
 20
127.7900112607
 30
0.0
 11
204.9560995427
 21
127.7900112607
 31
0.0
  0
LINE
  5
21D
330
1F
100
AcDbEntity
  8
0
  6
SLD-Gestrichelt
 62
     7
370
     0
100
AcDbLine
 10
204.9560995427
 20
87.7900121548
 30
0.0
 11
211.0561059443
 21
87.7900121548
 31
0.0
  0
ARC
  5
21E
330
1F
100
AcDbEntity
  8
0
  6
SLD-Gestrichelt
 62
     7
370
     0
100
AcDbCircle
 10
165.2199649745
 20
127.8400117078
 30
0.0
 40
0.2000000000000171
100
AcDbArc
 50
270.0
 51
285.0
  0
ARC
  5
21F
330
1F
100
AcDbEntity
  8
0
  6
SLD-Gestrichelt
 62
     7
370
     0
100
AcDbCircle
 10
165.2199649745
 20
87.7400117078
 30
0.0
 40
0.2000000000000333
100
AcDbArc
 50
75.0
 51
90.0
  0
LINE
  5
220
330
1F
100
AcDbEntity
  8
0
  6
SLD-Gestrichelt
 62
     7
370
     0
100
AcDbLine
 10
165.2199664739
 20
127.6400124469
 30
0.0
 11
164.0061029819
 21
127.6400124469
 31
0.0
  0
LINE
  5
221
330
1F
100
AcDbEntity
  8
0
  6
SLD-Gestrichelt
 62
     7
370
     0
100
AcDbLine
 10
164.0061029819
 20
87.9400109687
 30
0.0
 11
165.2199664739
 21
87.9400109687
 31
0.0
  0
LINE
  5
222
330
1F
100
AcDbEntity
  8
0
  6
SLD-Gestrichelt
 62
     7
370
     0
100
AcDbLine
 10
94.418922591
 20
127.4900117704
 30
0.0
 11
92.8600785909
 21
124.7900126316
 31
0.0
  0
LINE
  5
223
330
1F
100
AcDbEntity
  8
0
  6
SLD-Gestrichelt
 62
     7
370
     0
100
AcDbLine
 10
92.8600785909
 20
90.7900107839
 30
0.0
 11
94.418922591
 21
88.0900116452
 31
0.0
  0
ARC
  5
224
330
1F
100
AcDbEntity
  8
0
  6
SLD-Gestrichelt
 62
     7
370
     0
100
AcDbCircle
 10
203.5561030952
 20
127.2150117078
 30
0.0
 40
0.2000000000000171
100
AcDbArc
 50
180.0
 51
270.0
  0
ARC
  5
225
330
1F
100
AcDbEntity
  8
0
  6
SLD-Gestrichelt
 62
     7
370
     0
100
AcDbCircle
 10
203.5561030952
 20
88.3650117078
 30
0.0
 40
0.2000000000000171
100
AcDbArc
 50
90.0
 51
180.0
  0
ARC
  5
226
330
1F
100
AcDbEntity
  8
0
  6
SLD-Gestrichelt
 62
     7
370
     0
100
AcDbCircle
 10
204.7561030952
 20
127.2150117078
 30
0.0
 40
0.2000000000000455
100
AcDbArc
 50
270.0
 51
0.0
  0
ARC
  5
227
330
1F
100
AcDbEntity
  8
0
  6
SLD-Gestrichelt
 62
     7
370
     0
100
AcDbCircle
 10
204.7561030952
 20
88.3650117078
 30
0.0
 40
0.2000000000000455
100
AcDbArc
 50
0.0
 51
90.0
  0
LINE
  5
228
330
1F
100
AcDbEntity
  8
0
  6
SLD-Gestrichelt
 62
     7
370
     0
100
AcDbLine
 10
115.8561032851
 20
135.0643446483
 30
0.0
 11
115.8561032851
 21
131.7356133648
 31
0.0
  0
LINE
  5
229
330
1F
100
AcDbEntity
  8
0
  6
SLD-Gestrichelt
 62
     7
370
     0
100
AcDbLine
 10
123.8561031995
 20
131.7356133648
 30
0.0
 11
123.8561031995
 21
135.0696774014
 31
0.0
  0
LINE
  5
22A
330
1F
100
AcDbEntity
  8
0
  6
SLD-Gestrichelt
 62
     7
370
     0
100
AcDbLine
 10
204.7561036078
 20
127.0150111803
 30
0.0
 11
203.5561056462
 21
127.0150111803
 31
0.0
  0
LINE
  5
22B
330
1F
100
AcDbEntity
  8
0
  6
SLD-Gestrichelt
 62
     7
370
     0
100
AcDbLine
 10
203.5561056462
 20
88.5650122353
 30
0.0
 11
204.7561036078
 21
88.5650122353
 31
0.0
  0
LINE
  5
22C
330
1F
100
AcDbEntity
  8
0
  6
SLD-Gestrichelt
 62
     7
370
     0
100
AcDbLine
 10
186.1561016766
 20
97.7934615501
 30
0.0
 11
186.1561016766
 21
100.0150118769
 31
0.0
  0
LINE
  5
22D
330
1F
100
AcDbEntity
  8
0
  6
SLD-Gestrichelt
 62
     7
370
     0
100
AcDbLine
 10
179.5561017123
 20
100.0150118769
 30
0.0
 11
179.5561017123
 21
97.7900119313
 31
0.0
  0
LINE
  5
22E
330
1F
100
AcDbEntity
  8
0
  6
SLD-Gestrichelt
 62
     7
370
     0
100
AcDbLine
 10
175.9561003772
 20
115.5380795524
 30
0.0
 11
175.9561003772
 21
117.7886536159
 31
0.0
  0
LINE
  5
22F
330
1F
100
AcDbEntity
  8
0
  6
SLD-Gestrichelt
 62
     7
370
     0
100
AcDbLine
 10
171.7561037866
 20
117.7900114843
 30
0.0
 11
171.7561037866
 21
115.538059529
 31
0.0
  0
LINE
  5
230
330
1F
100
AcDbEntity
  8
0
  6
SLD-Gestrichelt
 62
     7
370
     0
100
AcDbLine
 10
211.0561059443
 20
87.7900121548
 30
0.0
 11
211.5061061112
 21
88.2400123217
 31
0.0
  0
LINE
  5
231
330
1F
100
AcDbEntity
  8
0
  6
SLD-Gestrichelt
 62
     7
370
     0
100
AcDbLine
 10
211.5061061112
 20
127.3400110938
 30
0.0
 11
211.0561059443
 21
127.7900112607
 31
0.0
  0
ARC
  5
232
330
1F
100
AcDbEntity
  8
0
  6
SLD-Gestrichelt
 62
     7
370
     0
100
AcDbCircle
 10
120.3061030952
 20
92.0650117078
 30
0.0
 40
1.500000000000001
100
AcDbArc
 50
238.2116693829
 51
0.0
  0
ARC
  5
233
330
1F
100
AcDbEntity
  8
0
  6
SLD-Gestrichelt
 62
     7
370
     0
100
AcDbCircle
 10
120.3061030952
 20
123.5150117078
 30
0.0
 40
1.500000000000001
100
AcDbArc
 50
0.0
 51
121.7883306171
  0
LINE
  5
234
330
1F
100
AcDbEntity
  8
0
  6
SLD-Gestrichelt
 62
     7
370
     0
100
AcDbLine
 10
111.8561030952
 20
90.7900107839
 30
0.0
 11
119.5159290572
 21
90.7900107839
 31
0.0
  0
LINE
  5
235
330
1F
100
AcDbEntity
  8
0
  6
SLD-Gestrichelt
 62
     7
370
     0
100
AcDbLine
 10
119.5159290572
 20
124.7900126316
 30
0.0
 11
111.8561030952
 21
124.7900126316
 31
0.0
  0
LINE
  5
236
330
1F
100
AcDbEntity
  8
0
  6
SLD-Gestrichelt
 62
     7
370
     0
100
AcDbLine
 10
90.0561028746
 20
90.7900107839
 30
0.0
 11
92.8600785909
 21
90.7900107839
 31
0.0
  0
LINE
  5
237
330
1F
100
AcDbEntity
  8
0
  6
SLD-Gestrichelt
 62
     7
370
     0
100
AcDbLine
 10
92.8600785909
 20
124.7900126316
 30
0.0
 11
86.056102219
 21
124.7900126316
 31
0.0
  0
LINE
  5
238
330
1F
100
AcDbEntity
  8
0
  6
SLD-Gestrichelt
 62
     7
370
     0
100
AcDbLine
 10
165.269963595
 20
123.440012131
 30
0.0
 11
164.0561038283
 21
123.440012131
 31
0.0
  0
LINE
  5
239
330
1F
100
AcDbEntity
  8
0
  6
SLD-Gestrichelt
 62
     7
370
     0
100
AcDbLine
 10
164.0561038283
 20
92.1400112846
 30
0.0
 11
165.269963595
 21
92.1400112846
 31
0.0
  0
ARC
  5
23A
330
1F
100
AcDbEntity
  8
0
  6
SLD-Gestrichelt
 62
     7
370
     0
100
AcDbCircle
 10
164.0561030952
 20
123.2400117078
 30
0.0
 40
0.2000000000000028
100
AcDbArc
 50
90.0
 51
180.0
  0
ARC
  5
23B
330
1F
100
AcDbEntity
  8
0
  6
SLD-Gestrichelt
 62
     7
370
     0
100
AcDbCircle
 10
164.0561030952
 20
92.3400117078
 30
0.0
 40
0.2000000000000028
100
AcDbArc
 50
180.0
 51
270.0
  0
ARC
  5
23C
330
1F
100
AcDbEntity
  8
0
  6
SLD-Gestrichelt
 62
     7
370
     0
100
AcDbCircle
 10
165.2699649745
 20
123.2400117078
 30
0.0
 40
0.2000000000000028
100
AcDbArc
 50
75.0
 51
90.0
  0
ARC
  5
23D
330
1F
100
AcDbEntity
  8
0
  6
SLD-Gestrichelt
 62
     7
370
     0
100
AcDbCircle
 10
165.2699649745
 20
92.3400117078
 30
0.0
 40
0.2000000000000038
100
AcDbArc
 50
270.0
 51
285.0
  0
LINE
  5
23E
330
1F
100
AcDbEntity
  8
0
  6
SLD-Gestrichelt
 62
     7
370
     0
100
AcDbLine
 10
165.321730229
 20
92.1468267032
 30
0.0
 11
165.8561044959
 21
92.2900119611
 31
0.0
  0
LINE
  5
23F
330
1F
100
AcDbEntity
  8
0
  6
SLD-Gestrichelt
 62
     7
370
     0
100
AcDbLine
 10
165.8561044959
 20
123.2900114545
 30
0.0
 11
165.321730229
 21
123.4331967124
 31
0.0
  0
LINE
  5
240
330
1F
100
AcDbEntity
  8
0
  6
SLD-Gestrichelt
 62
     7
370
     0
100
AcDbLine
 10
179.6520055858
 20
123.2900114545
 30
0.0
 11
174.7061015693
 21
123.2900114545
 31
0.0
  0
LINE
  5
241
330
1F
100
AcDbEntity
  8
0
  6
SLD-Gestrichelt
 62
     7
370
     0
100
AcDbLine
 10
211.0561059443
 20
123.2900114545
 30
0.0
 11
186.0601978031
 21
123.2900114545
 31
0.0
  0
LINE
  5
242
330
1F
100
AcDbEntity
  8
0
  6
SLD-Gestrichelt
 62
     7
370
     0
100
AcDbLine
 10
175.9273411361
 20
92.2900119611
 30
0.0
 11
211.0561059443
 21
92.2900119611
 31
0.0
  0
LINE
  5
243
330
1F
100
AcDbEntity
  8
0
  6
SLD-Gestrichelt
 62
     7
370
     0
100
AcDbLine
 10
173.1061042873
 20
123.2900114545
 30
0.0
 11
165.8561044959
 21
123.2900114545
 31
0.0
  0
LINE
  5
244
330
1F
100
AcDbEntity
  8
0
  6
SLD-Gestrichelt
 62
     7
370
     0
100
AcDbLine
 10
165.8561044959
 20
92.2900119611
 30
0.0
 11
171.785149875
 21
92.2900119611
 31
0.0
  0
LINE
  5
245
330
1F
100
AcDbEntity
  8
0
  6
SLD-Gestrichelt
 62
     7
370
     0
100
AcDbLine
 10
211.0561059443
 20
92.2900119611
 30
0.0
 11
211.8561045853
 21
91.8281318434
 31
0.0
  0
LINE
  5
246
330
1F
100
AcDbEntity
  8
0
  6
SLD-Gestrichelt
 62
     7
370
     0
100
AcDbLine
 10
211.8561045853
 20
123.7518915721
 30
0.0
 11
211.0561059443
 21
123.2900114545
 31
0.0
  0
LINE
  5
247
330
1F
100
AcDbEntity
  8
0
  6
SLD-Gestrichelt
 62
     7
370
     0
100
AcDbLine
 10
174.5061056343
 20
123.9650117048
 30
0.0
 11
173.3061039475
 21
123.9650117048
 31
0.0
  0
ARC
  5
248
330
1F
100
AcDbEntity
  8
0
  6
SLD-Gestrichelt
 62
     7
370
     0
100
AcDbCircle
 10
174.5061030952
 20
123.7650117078
 30
0.0
 40
0.2000000000000171
100
AcDbArc
 50
0.0
 51
90.0
  0
ARC
  5
249
330
1F
100
AcDbEntity
  8
0
  6
SLD-Gestrichelt
 62
     7
370
     0
100
AcDbCircle
 10
173.3061030952
 20
123.7650117078
 30
0.0
 40
0.2000000000000455
100
AcDbArc
 50
90.0
 51
180.0
  0
LINE
  5
24A
330
1F
100
AcDbEntity
  8
0
  6
SLD-Gestrichelt
 62
     7
370
     0
100
AcDbLine
 10
130.656102824
 20
98.2900120132
 30
0.0
 11
133.6561033157
 21
98.2900120132
 31
0.0
  0
LINE
  5
24B
330
1F
100
AcDbEntity
  8
0
  6
SLD-Gestrichelt
 62
     7
370
     0
100
AcDbLine
 10
133.6561033157
 20
117.2900114023
 30
0.0
 11
130.656102824
 21
117.2900114023
 31
0.0
  0
LINE
  5
24C
330
1F
100
AcDbEntity
  8
0
  6
SLD-Gestrichelt
 62
     7
370
     0
100
AcDbLine
 10
121.8061029566
 20
98.7900120952
 30
0.0
 11
122.3061030385
 21
99.2900112458
 31
0.0
  0
LINE
  5
24D
330
1F
100
AcDbEntity
  8
0
  6
SLD-Gestrichelt
 62
     7
370
     0
100
AcDbLine
 10
122.3061030385
 20
116.2900121697
 30
0.0
 11
121.8061029566
 21
116.7900113203
 31
0.0
  0
LINE
  5
24E
330
1F
100
AcDbEntity
  8
0
  6
SLD-Gestrichelt
 62
     7
370
     0
100
AcDbLine
 10
122.3061030385
 20
99.2900112458
 30
0.0
 11
130.656102824
 21
99.2900112458
 31
0.0
  0
LINE
  5
24F
330
1F
100
AcDbEntity
  8
0
  6
SLD-Gestrichelt
 62
     7
370
     0
100
AcDbLine
 10
130.656102824
 20
116.2900121697
 30
0.0
 11
122.3061030385
 21
116.2900121697
 31
0.0
  0
LINE
  5
250
330
1F
100
AcDbEntity
  8
0
  6
SLD-Gestrichelt
 62
     7
370
     0
100
AcDbLine
 10
116.8061030683
 20
139.2900122144
 30
0.0
 11
116.8061030683
 21
134.1900115647
 31
0.0
  0
LINE
  5
251
330
1F
100
AcDbEntity
  8
0
  6
SLD-Gestrichelt
 62
     7
370
     0
100
AcDbLine
 10
163.856104168
 20
113.840011675
 30
0.0
 11
162.8561021415
 21
112.8400115111
 31
0.0
  0
LINE
  5
252
330
1F
100
AcDbEntity
  8
0
  6
SLD-Gestrichelt
 62
     7
370
     0
100
AcDbLine
 10
162.8561021415
 20
102.7400119045
 30
0.0
 11
163.856104168
 21
101.7400117406
 31
0.0
  0
LINE
  5
253
330
1F
100
AcDbEntity
  8
0
  6
SLD-Gestrichelt
 62
     7
370
     0
100
AcDbLine
 10
162.8561021415
 20
112.8400115111
 30
0.0
 11
158.7561035184
 21
112.8400115111
 31
0.0
  0
LINE
  5
254
330
1F
100
AcDbEntity
  8
0
  6
SLD-Gestrichelt
 62
     7
370
     0
100
AcDbLine
 10
158.7561035184
 20
102.7400119045
 30
0.0
 11
162.8561021415
 21
102.7400119045
 31
0.0
  0
LINE
  5
255
330
1F
100
AcDbEntity
  8
0
  6
SLD-Gestrichelt
 62
     7
370
     0
100
AcDbLine
 10
158.7561035184
 20
112.8400115111
 30
0.0
 11
157.7646845606
 21
111.1900117528
 31
0.0
  0
LINE
  5
256
330
1F
100
AcDbEntity
  8
0
  6
SLD-Gestrichelt
 62
     7
370
     0
100
AcDbLine
 10
157.7646845606
 20
104.3900116627
 30
0.0
 11
158.7561035184
 21
102.7400119045
 31
0.0
  0
LINE
  5
257
330
1F
100
AcDbEntity
  8
0
  6
SLD-Gestrichelt
 62
     7
370
     0
100
AcDbLine
 10
107.0405409326
 20
83.7106404641
 30
0.0
 11
106.6061087539
 21
84.1897072085
 31
0.0
  0
LINE
  5
258
330
1F
100
AcDbEntity
  8
0
  6
SLD-Gestrichelt
 62
     7
370
     0
100
AcDbLine
 10
99.1061051962
 20
84.6113951691
 30
0.0
 11
98.6236717207
 21
84.1323284247
 31
0.0
  0
LINE
  5
259
330
1F
100
AcDbEntity
  8
0
  6
SLD-Gestrichelt
 62
     7
370
     0
100
AcDbLine
 10
98.6235497174
 20
131.4476894029
 30
0.0
 11
99.1061005396
 21
130.9685686418
 31
0.0
  0
LINE
  5
25A
330
1F
100
AcDbEntity
  8
0
  6
SLD-Gestrichelt
 62
     7
370
     0
100
AcDbLine
 10
106.6061031659
 20
131.3902677783
 30
0.0
 11
107.0406452407
 21
131.8693866768
 31
0.0
  0
LINE
  5
25B
330
1F
100
AcDbEntity
  8
0
  6
SLD-Gestrichelt
 62
     7
370
     0
100
AcDbLine
 10
106.6061031659
 20
84.1901896336
 30
0.0
 11
106.6061031659
 21
87.8546105512
 31
0.0
  0
LINE
  5
25C
330
1F
100
AcDbEntity
  8
0
  6
SLD-Gestrichelt
 62
     7
370
     0
100
AcDbLine
 10
99.1061033336
 20
87.7943893709
 30
0.0
 11
99.1061033336
 21
84.6117174067
 31
0.0
  0
LINE
  5
25D
330
1F
100
AcDbEntity
  8
0
  6
SLD-Gestrichelt
 62
     7
370
     0
100
AcDbLine
 10
106.6061031659
 20
127.7254128643
 30
0.0
 11
106.6061031659
 21
131.389975343
 31
0.0
  0
LINE
  5
25E
330
1F
100
AcDbEntity
  8
0
  6
SLD-Gestrichelt
 62
     7
370
     0
100
AcDbLine
 10
99.1061033336
 20
130.9684252181
 30
0.0
 11
99.1061033336
 21
127.7856340446
 31
0.0
  0
LINE
  5
25F
330
1F
100
AcDbEntity
  8
0
  6
SLD-Gestrichelt
 62
     7
370
     0
100
AcDbLine
 10
133.6561033157
 20
104.3900116627
 30
0.0
 11
157.7646845606
 21
104.3900116627
 31
0.0
  0
LINE
  5
260
330
1F
100
AcDbEntity
  8
0
  6
SLD-Gestrichelt
 62
     7
370
     0
100
AcDbLine
 10
157.7646845606
 20
111.1900117528
 30
0.0
 11
133.6561033157
 21
111.1900117528
 31
0.0
  0
LINE
  5
261
330
1F
100
AcDbEntity
  8
0
  6
SLD-Gestrichelt
 62
     7
370
     0
100
AcDbLine
 10
179.5561017123
 20
123.3400113695
 30
0.0
 11
179.6494574872
 21
123.2839178108
 31
0.0
  0
LINE
  5
262
330
1F
100
AcDbEntity
  8
0
  6
SLD-Gestrichelt
 62
     7
370
     0
100
AcDbLine
 10
186.0627459017
 20
123.2839178108
 30
0.0
 11
186.1561016766
 21
123.3400113695
 31
0.0
  0
LINE
  5
263
330
1F
100
AcDbEntity
  8
0
  6
SLD-Gestrichelt
 62
     7
370
     0
100
AcDbLine
 10
179.5561017123
 20
127.7900112607
 30
0.0
 11
179.5561017123
 21
123.3400113695
 31
0.0
  0
LINE
  5
264
330
1F
100
AcDbEntity
  8
0
  6
SLD-Gestrichelt
 62
     7
370
     0
100
AcDbLine
 10
186.1561016766
 20
123.3400113695
 30
0.0
 11
186.1561016766
 21
127.7900112607
 31
0.0
  0
LINE
  5
265
330
1F
100
AcDbEntity
  8
0
  6
SLD-Gestrichelt
 62
     7
370
     0
100
AcDbLine
 10
171.7561037866
 20
92.2939160653
 30
0.0
 11
171.7561037866
 21
87.7900121548
 31
0.0
  0
LINE
  5
266
330
1F
100
AcDbEntity
  8
0
  6
SLD-Gestrichelt
 62
     7
370
     0
100
AcDbLine
 10
175.9561003772
 20
87.7900121548
 30
0.0
 11
175.9561003772
 21
92.2938760185
 31
0.0
  0
ARC
  5
267
330
1F
100
AcDbEntity
  8
0
  6
SLD-Gestrichelt
 62
     7
370
     0
100
AcDbCircle
 10
84.6561030952
 20
130.0600117078
 30
0.0
 40
1.399999999999984
100
AcDbArc
 50
270.0
 51
301.7485287426
  0
ARC
  5
268
330
1F
100
AcDbEntity
  8
0
  6
SLD-Gestrichelt
 62
     7
370
     0
100
AcDbCircle
 10
88.6561030952
 20
85.5200117078
 30
0.0
 40
1.400000000000006
100
AcDbArc
 50
42.2465410162
 51
90.0
  0
LINE
  5
269
330
1F
100
AcDbEntity
  8
0
  6
SLD-Gestrichelt
 62
     7
370
     0
100
AcDbLine
 10
81.0972658572
 20
128.6511754432
 30
0.0
 11
79.9660050896
 21
127.5199128129
 31
0.0
  0
LINE
  5
26A
330
1F
100
AcDbEntity
  8
0
  6
SLD-Gestrichelt
 62
     7
370
     0
100
AcDbLine
 10
84.6561027346
 20
128.6600118317
 30
0.0
 11
81.2303686169
 21
128.6600118317
 31
0.0
  0
LINE
  5
26B
330
1F
100
AcDbEntity
  8
0
  6
SLD-Gestrichelt
 62
     7
370
     0
100
AcDbLine
 10
79.9571351734
 20
88.0689786562
 30
0.0
 11
81.0972658572
 21
86.9288479724
 31
0.0
  0
LINE
  5
26C
330
1F
100
AcDbEntity
  8
0
  6
SLD-Gestrichelt
 62
     7
370
     0
100
AcDbLine
 10
81.2394396988
 20
86.9200115838
 30
0.0
 11
88.6561033902
 21
86.9200115838
 31
0.0
  0
DIMENSION
  5
26D
330
1F
100
AcDbEntity
  8
VERMASSUNG
100
AcDbDimension
  2
_D
 10
211.8561030952
 20
145.5741919234
 30
0.0
 11
176.6349725887
 21
145.5741919234
 31
0.0
 70
   160
  1
<>
 71
     2
 42
-1.0
  3
SLDDIMSTYLE0
100
AcDbAlignedDimension
 13
137.8061030952
 23
137.6364520315
 33
0.0
 14
211.8561030952
 24
126.9900117078
 34
0.0
100
AcDbRotatedDimension
  0
DIMENSION
  5
278
330
1F
100
AcDbEntity
  8
VERMASSUNG
100
AcDbDimension
  2
_D_1
 10
211.8561030952
 20
151.5741919234
 30
0.0
 11
159.357061533
 21
151.5741919234
 31
0.0
 70
   160
  1
<>
 71
     2
 42
-1.0
  3
SLDDIMSTYLE0
100
AcDbAlignedDimension
 13
111.8561030952
 23
138.9900117078
 33
0.0
 14
211.8561030952
 24
126.9900117078
 34
0.0
100
AcDbRotatedDimension
  0
DIMENSION
  5
282
330
1F
100
AcDbEntity
  8
VERMASSUNG
100
AcDbDimension
  2
_D_2
 10
79.9561030952
 20
157.5741919234
 30
0.0
 11
150.3772258315
 21
157.5741919234
 31
0.0
 70
   160
  1
<>
 71
     2
 42
-1.0
  3
SLDDIMSTYLE0
100
AcDbAlignedDimension
 13
211.8561030952
 23
126.9900117078
 33
0.0
 14
79.9561030952
 24
127.4806894542
 34
0.0
100
AcDbRotatedDimension
  0
DIMENSION
  5
28C
330
1F
100
AcDbEntity
  8
VERMASSUNG
100
AcDbDimension
  2
_D_3
 10
74.1367848047
 20
76.2900117078
 30
0.0
 11
74.1367848047
 21
107.45092626
 31
0.0
 70
   160
  1
HSK A %%c<>
 71
     2
 42
-1.0
  3
SLDDIMSTYLE0
100
AcDbAlignedDimension
 13
112.1561030952
 23
139.2900117078
 33
0.0
 14
112.1561030952
 24
76.2900117078
 34
0.0
 50
90.0
100
AcDbRotatedDimension
  0
DIMENSION
  5
298
330
1F
100
AcDbEntity
  8
VERMASSUNG
100
AcDbDimension
  2
_D_4
 10
221.8561030952
 20
92.2900117078
 30
0.0
 11
221.8561030952
 21
107.45092626
 31
0.0
 70
   160
  1
%%c<>
 71
     2
 42
-1.0
  3
SLDDIMSTYLE0
100
AcDbAlignedDimension
 13
211.0561030952
 23
123.2900117078
 33
0.0
 14
211.0561030952
 24
92.2900117078
 34
0.0
 50
90.0
100
AcDbRotatedDimension
  0
DIMENSION
  5
2A3
330
1F
100
AcDbEntity
  8
VERMASSUNG
100
AcDbDimension
  2
_D_5
 10
227.8561030952
 20
82.7900117078
 30
0.0
 11
227.8561030952
 21
107.45092626
 31
0.0
 70
   160
  1
%%c<>
 71
     2
 42
-1.0
  3
SLDDIMSTYLE0
100
AcDbAlignedDimension
 13
210.5061030952
 23
132.7900117078
 33
0.0
 14
210.5061030952
 24
82.7900117078
 34
0.0
 50
90.0
100
AcDbRotatedDimension
  0
DIMENSION
  5
2AE
330
1F
100
AcDbEntity
  8
VERMASSUNG
100
AcDbDimension
  2
_D_6
 10
233.8561030952
 20
81.7900117078
 30
0.0
 11
233.8561030952
 21
107.7900117078
 31
0.0
 70
   160
  1
%%c<>
 71
     2
 42
-1.0
  3
SLDDIMSTYLE0
100
AcDbAlignedDimension
 13
154.8561030952
 23
133.7900117078
 33
0.0
 14
154.8561030952
 24
81.7900117078
 34
0.0
 50
90.0
100
AcDbRotatedDimension
  0
LINE
  5
2B9
330
1F
100
AcDbEntity
  8
VERMASSUNG
  6
SLD-Punktstrich
370
     0
100
AcDbLine
 10
76.1511873109
 20
107.7900117078
 30
0.0
 11
213.9709943865
 21
107.7900117078
 31
0.0
  0
OLE2FRAME
  5
2BA
330
1F
100
AcDbEntity
  8
0
100
AcDbOle2Frame
 70
     2
  3
Paintbrush-Bild
 10
13.8511154363
 20
38.264191557
 30
0.0
 11
51.6290888628
 21
31.9806341108
 31
0.0
 71
     2
 72
     0
 73
     1
 90
    12928
310
80552BED0767C5B32B40DDAF6807D121434000000000000000006FFBDDFB85D0
310
4940DDAF6807D121434000000000000000006FFBDDFB85D04940416F4BD60AFB
310
3F4000000000000000002BED0767C5B32B40416F4BD60AFB3F40000000000000
310
0000000000000100000000010000010000000100000000000100000000320000
310
D0CF11E0A1B11AE1000000000000000000000000000000003E000300FEFF0900
310
0600000000000000000000000100000001000000000000000010000002000000
310
01000000FEFFFFFF0000000000000000FFFFFFFFFFFFFFFFFFFFFFFFFFFFFFFF
310
FFFFFFFFFFFFFFFFFFFFFFFFFFFFFFFFFFFFFFFFFFFFFFFFFFFFFFFFFFFFFFFF
310
FFFFFFFFFFFFFFFFFFFFFFFFFFFFFFFFFFFFFFFFFFFFFFFFFFFFFFFFFFFFFFFF
310
FFFFFFFFFFFFFFFFFFFFFFFFFFFFFFFFFFFFFFFFFFFFFFFFFFFFFFFFFFFFFFFF
310
FFFFFFFFFFFFFFFFFFFFFFFFFFFFFFFFFFFFFFFFFFFFFFFFFFFFFFFFFFFFFFFF
310
FFFFFFFFFFFFFFFFFFFFFFFFFFFFFFFFFFFFFFFFFFFFFFFFFFFFFFFFFFFFFFFF
310
FFFFFFFFFFFFFFFFFFFFFFFFFFFFFFFFFFFFFFFFFFFFFFFFFFFFFFFFFFFFFFFF
310
FFFFFFFFFFFFFFFFFFFFFFFFFFFFFFFFFFFFFFFFFFFFFFFFFFFFFFFFFFFFFFFF
310
FFFFFFFFFFFFFFFFFFFFFFFFFFFFFFFFFFFFFFFFFFFFFFFFFFFFFFFFFFFFFFFF
310
FFFFFFFFFFFFFFFFFFFFFFFFFFFFFFFFFFFFFFFFFFFFFFFFFFFFFFFFFFFFFFFF
310
FFFFFFFFFFFFFFFFFFFFFFFFFFFFFFFFFFFFFFFFFFFFFFFFFFFFFFFFFFFFFFFF
310
FFFFFFFFFFFFFFFFFFFFFFFFFFFFFFFFFFFFFFFFFFFFFFFFFFFFFFFFFFFFFFFF
310
FFFFFFFFFFFFFFFFFFFFFFFFFFFFFFFFFFFFFFFFFFFFFFFFFFFFFFFFFFFFFFFF
310
FFFFFFFFFFFFFFFFFFFFFFFFFFFFFFFFFFFFFFFFFFFFFFFFFFFFFFFFFFFFFFFF
310
FDFFFFFFFEFFFFFFFEFFFFFFFEFFFFFF05000000060000000700000008000000
310
090000000A0000000B0000000C0000000D0000000E0000000F00000010000000
310
11000000120000001300000014000000150000001600000017000000FEFFFFFF
310
FFFFFFFFFFFFFFFFFFFFFFFFFFFFFFFFFFFFFFFFFFFFFFFFFFFFFFFFFFFFFFFF
310
FFFFFFFFFFFFFFFFFFFFFFFFFFFFFFFFFFFFFFFFFFFFFFFFFFFFFFFFFFFFFFFF
310
FFFFFFFFFFFFFFFFFFFFFFFFFFFFFFFFFFFFFFFFFFFFFFFFFFFFFFFFFFFFFFFF
310
FFFFFFFFFFFFFFFFFFFFFFFFFFFFFFFFFFFFFFFFFFFFFFFFFFFFFFFFFFFFFFFF
310
FFFFFFFFFFFFFFFFFFFFFFFFFFFFFFFFFFFFFFFFFFFFFFFFFFFFFFFFFFFFFFFF
310
FFFFFFFFFFFFFFFFFFFFFFFFFFFFFFFFFFFFFFFFFFFFFFFFFFFFFFFFFFFFFFFF
310
FFFFFFFFFFFFFFFFFFFFFFFFFFFFFFFFFFFFFFFFFFFFFFFFFFFFFFFFFFFFFFFF
310
FFFFFFFFFFFFFFFFFFFFFFFFFFFFFFFFFFFFFFFFFFFFFFFFFFFFFFFFFFFFFFFF
310
FFFFFFFFFFFFFFFFFFFFFFFFFFFFFFFFFFFFFFFFFFFFFFFFFFFFFFFFFFFFFFFF
310
FFFFFFFFFFFFFFFFFFFFFFFFFFFFFFFFFFFFFFFFFFFFFFFFFFFFFFFFFFFFFFFF
310
FFFFFFFFFFFFFFFFFFFFFFFFFFFFFFFFFFFFFFFFFFFFFFFFFFFFFFFFFFFFFFFF
310
FFFFFFFFFFFFFFFFFFFFFFFFFFFFFFFFFFFFFFFFFFFFFFFFFFFFFFFFFFFFFFFF
310
FFFFFFFFFFFFFFFFFFFFFFFFFFFFFFFFFFFFFFFFFFFFFFFFFFFFFFFFFFFFFFFF
310
52006F006F007400200045006E00740072007900000000000000000000000000
310
0000000000000000000000000000000000000000000000000000000000000000
310
16000500FFFFFFFFFFFFFFFF020000000A00030000000000C000000000000046
310
000000000000000000000000D0B3121EDD28D00103000000C000000000000000
310
01004F006C006500000000000000000000000000000000000000000000000000
310
0000000000000000000000000000000000000000000000000000000000000000
310
0A000200FFFFFFFFFFFFFFFFFFFFFFFF00000000000000000000000000000000
310
0000000000000000000000000000000000000000000000001400000000000000
310
010043006F006D0070004F0062006A0000000000000000000000000000000000
310
0000000000000000000000000000000000000000000000000000000000000000
310
120002010100000003000000FFFFFFFF00000000000000000000000000000000
310
0000000000000000000000000000000000000000010000004D00000000000000
310
01004F006C006500310030004E00610074006900760065000000000000000000
310
0000000000000000000000000000000000000000000000000000000000000000
310
1A000200FFFFFFFFFFFFFFFFFFFFFFFF00000000000000000000000000000000
310
0000000000000000000000000000000000000000040000002426000000000000
310
FEFFFFFF02000000FEFFFFFFFFFFFFFFFFFFFFFFFFFFFFFFFFFFFFFFFFFFFFFF
310
FFFFFFFFFFFFFFFFFFFFFFFFFFFFFFFFFFFFFFFFFFFFFFFFFFFFFFFFFFFFFFFF
310
FFFFFFFFFFFFFFFFFFFFFFFFFFFFFFFFFFFFFFFFFFFFFFFFFFFFFFFFFFFFFFFF
310
FFFFFFFFFFFFFFFFFFFFFFFFFFFFFFFFFFFFFFFFFFFFFFFFFFFFFFFFFFFFFFFF
310
FFFFFFFFFFFFFFFFFFFFFFFFFFFFFFFFFFFFFFFFFFFFFFFFFFFFFFFFFFFFFFFF
310
FFFFFFFFFFFFFFFFFFFFFFFFFFFFFFFFFFFFFFFFFFFFFFFFFFFFFFFFFFFFFFFF
310
FFFFFFFFFFFFFFFFFFFFFFFFFFFFFFFFFFFFFFFFFFFFFFFFFFFFFFFFFFFFFFFF
310
FFFFFFFFFFFFFFFFFFFFFFFFFFFFFFFFFFFFFFFFFFFFFFFFFFFFFFFFFFFFFFFF
310
FFFFFFFFFFFFFFFFFFFFFFFFFFFFFFFFFFFFFFFFFFFFFFFFFFFFFFFFFFFFFFFF
310
FFFFFFFFFFFFFFFFFFFFFFFFFFFFFFFFFFFFFFFFFFFFFFFFFFFFFFFFFFFFFFFF
310
FFFFFFFFFFFFFFFFFFFFFFFFFFFFFFFFFFFFFFFFFFFFFFFFFFFFFFFFFFFFFFFF
310
FFFFFFFFFFFFFFFFFFFFFFFFFFFFFFFFFFFFFFFFFFFFFFFFFFFFFFFFFFFFFFFF
310
FFFFFFFFFFFFFFFFFFFFFFFFFFFFFFFFFFFFFFFFFFFFFFFFFFFFFFFFFFFFFFFF
310
FFFFFFFFFFFFFFFFFFFFFFFFFFFFFFFFFFFFFFFFFFFFFFFFFFFFFFFFFFFFFFFF
310
FFFFFFFFFFFFFFFFFFFFFFFFFFFFFFFFFFFFFFFFFFFFFFFFFFFFFFFFFFFFFFFF
310
FFFFFFFFFFFFFFFFFFFFFFFFFFFFFFFFFFFFFFFFFFFFFFFFFFFFFFFFFFFFFFFF
310
0100000200000000000000000000000000000000000000000000000000000000
310
0000000000000000000000000000000000000000000000000000000000000000
310
0100FEFF030A0000FFFFFFFF0A00030000000000C00000000000004607000000
310
5042727573680007000000504272757368000700000050427275736800F439B2
310
7100000000000000000000000000000000000000000000000000000000000000
310
0000000000000000000000000000000000000000000000000000000000000000
310
0000000000000000000000000000000000000000000000000000000000000000
310
0000000000000000000000000000000000000000000000000000000000000000
310
0000000000000000000000000000000000000000000000000000000000000000
310
0000000000000000000000000000000000000000000000000000000000000000
310
0000000000000000000000000000000000000000000000000000000000000000
310
0000000000000000000000000000000000000000000000000000000000000000
310
0000000000000000000000000000000000000000000000000000000000000000
310
0000000000000000000000000000000000000000000000000000000000000000
310
0000000000000000000000000000000000000000000000000000000000000000
310
0000000000000000000000000000000000000000000000000000000000000000
310
20260000424D0E260000000000003E00000028000000B40200006E0000000100
310
01000000000000000000130B0000130B00000200000002000000000000FFFFFF
310
FFFFFFFFFFFFFFFFFFFFFFFFFFFFFFFFFFFFFFFFFFFFFFFFFFFFFFFFFFFFFFFF
310
FFFFFFFFFFFFFFFFFFFFFFFFFFFFFFFFFFFFFFFFFFFFFFFFFFFFFFFFFFFFFFFF
310
FFFFFFFFFFFFFFFFFFFFFFFFFFFFFFFFFFFFFFFFFFFFFFFFF000FFFFFFFFFFFF
310
FFFFFFFFFFFFFFFFFFFFFFFFFFFFFFFFFFFFFFFFFFFFFFFFFFFFFFFFFFFFFFFF
310
FFFFFFFFFFFFFFFFFFFFFFFFFFFFFFFFFFFFFFFFFFFFFFFFFFFFFFFFFFFFFFFF
310
FFFFFFFFFFFFFFFFFFFFFFFFFFFFFFFFF000FFFFFFFFFFFFFFFFFFFFFFFFFFFF
310
FFFFFFFFFFFFFFFFFFFFFFFFFFFFFFFFFFFFFFFFFFFFFFFFFFFFFFFFFFFFFFFF
310
FFFFFFFFFFFFFFFFFFFFFFFFFFFFFFFFFFFFFFFFFFFFFFFFFFFFFFFFFFFFFFFF
310
FFFFFFFFFFFFFFFFF000FFFFFFFFFFFFFFFFFFFFFFFFFFFFFFFFFFFFFFFFFFFF
310
FFFFFFFFFFFFFFFFFFFFFFFFFFFFFFFFFFFFFFFFFFFFFFFFFFFFFFFFFFFFFFFF
310
FFFFFFFFFFFFFFFFFFFFFFFFFFFFFFFFFFFFFFFFFFFFFFFFFFFFFFFFFFFFFFFF
310
F000FFFFFFFFFFFFFFFFFFFFFFFFFFFFFFFFFFFFFFFFFFFFFFFFFFFFFFFFFFFF
310
FFFFFFFFFFFFFFFFFFFFFFFFFFFFFFFFFFFFFFFFFFFFFFFFFFFFFFFFFFFFFFFF
310
FFFFFFFFFFFFFFFFFFFFFFFFFFFFFFFFFFFFFFFFFFFFFFFFF000FFFFFFFFFFFF
310
FFFFFFFFFFFFFFFFFFFFFFFFFFFFFFFFFFFFFFFFFFFFFFFFFFFFFFFFFFFFFFFF
310
FFFFFFFFFFFFFFFFFFFFFFFFFFFFFFFFFFFFFFFFFFFFFFFFFFFFFFFFFFFFFFFF
310
FFFFFFFFFFFFFFFFFFFFFFFFFFFFFFFFF000FFFFFFFFFFFFFFFFFFFFFFFFFFFF
310
FFFFFFFFFFFFFFFFFFFFFFFFFFFFFFFFFFFFFFFFFFFFFFFFFFFFFFFFFFFFFFFF
310
FFFFFFFFFFFFFFFFFFFFFFFFFFFFFFFFFFFFFFFFFFFFFFFFFFFFFFFFFFFFFFFF
310
FFFFFFFFFFFFFFFFF000FFFFFFFFFFFFFFFFFFFFFFFFFFFFFFFFFFFFFFFFFFFF
310
FFFFFFFFFFFFFFFFFFFFFFFFFFFFFFFFFFFFFFFFFFFFFFFFFFFFFFFFFFFFFFFF
310
FFFFFFFFFFFFFFFFFFFFFFFFFFFFFFFFFFFFFFFFFFFFFFFFFFFFFFFFFFFFFFFF
310
F000FFFFFFFFFFFFFFFFFFFFFFFFFFFFFFFFFFFFFFFFFFFFFFFFFFFFFFFFFFFF
310
FFFFFFFFFFFFFFFFFFFFFFFFFFFFFFFFFFFFFFFFFFFFFFFFFFFFFFFFFFFFFFFF
310
FFFFFFFFFFFFFFFFFFFFFFFFFFFFFFFFFFFFFFFFFFFFFFFFF000FFFFFFFFFFFF
310
FFFFFFFFFFFFFFFFFFFFFFFFFFFFFFFFFFFFFFFFFFFFFFFFFFFFFFFFFFFFFFFF
310
FFFFFFFFFFFFFFFFFFFFFFFFFFFFFFFFFFFFFFFFFFFFFFFFFFFFFFFFFFFFFFFF
310
FFFFFFFFFFFFFFFFFFFFFFFFFFFFFFFFF000FFFFFFFFFFFFFFFFFFFFFFFFFFFF
310
FFFFFFFFFFFFFFFFFFFFFFFFFFFFFFFFFFFFFFFFFFFFFFFFFFFFFFFFFFFFFFFF
310
FFFFFFFFFFFFFFFFFFFFFFFFFFFFFFFFFFFFFFFFFFFFFFFFFFFFFFFFFFFFFFFF
310
FFFFFFFFFFFFFFFFF000FFFFFFFFFFFFFFFFFFFFFFFFFFFFFFFFFFFFFFFFFFFF
310
FFFFFFFFFFFFFFFFFFFFFFFFFFFFFFFFFFFFFFFFFFFFFFFFFFFFFFFFFFFFFFFF
310
FFFFFFFFFFFFFFFFFFFFFFFFFFFFFFFFFFFFFFFFFFFFFFFFFFFFFFFFFFFFFFFF
310
F000FFFFFFFFFFFFFFFFFFFFFFFFFFFFFFFFFFFFFFFFFFFFFFFFFFFFFFFFFFFF
310
FFFFFFFFFFFFFFFFFFFFFFFFFFFFFFFFFFFFFFFFFFFFFFFFFFFFFFFFFFFFFFFF
310
FFFFFFFFFFFFFFFFFFFFFFFFFFFFFFFFFFFFFFFFFFFFFFFFF000FFFFFFFFFFFF
310
FFFFFFFFFFFFFFFFFFFFFFFFFFFFFFFFFFFFFFFFFFFFFFFFFFFFFFFFFFFFFFFF
310
FFFFFFFFFFFFFFFFFFFFFFFFFFFFFFFFFFFFFFFFFFFFFFFFFFFFFFFFFFFFFFFF
310
FFFFFFFFFFFFFFFFFFFFFFFFFFFFFFFFF000FFFFFFFFFFFFFFFFFFFFFFFFFFFF
310
FFFFFFFFFFFFFFFFFFFFFFFFFFFFFFFFFFFFFFFFFFFFFFFFFFFFFFFFFFFFFFFF
310
FFFFFFFFFFFFFFFFFFFFFFFFFFFFFFFFFFFFFFFFFFFFFFFFFFFFFFFFFFFFFFFF
310
FFFFFFFFFFFFFFFFF000FFFFFFFFFFFFFFFFFFFFFFFFFFFFFFFFFFFFFFFFFFFF
310
FFFFFFFFFFFFFFFFFFFFFFFFFFFFFFFFFFFFFFFFFFFFFFFFFFFFFFFFFFFFFFFF
310
FFFFFFFFFFFFFFFFFFFFFFFFFFFFFFFFFFFFFFFFFFFFFFFFFFFFFFFFFFFFFFFF
310
F000FFFFFFFFFFFFFFFFFFFFFFFFFFFFFFFFFFFFFFFFFFFFFFFFFFFFFFFFFFFF
310
FFFFFFFFFFFFFFFFFFFFFFFFFFFFFFFFFFFFFFFFFFFFFFFFFFFFFFFFFFFFFFFF
310
FFFFFFFFFFFFFFFFFFFFFFFFFFFFFFFFFFFFFFFFFFFFFFFFF000FFFFFFFFFFFF
310
FFFFFFFFFFFFFFFFFFFFFFFFFFFFFFFFFFFFFFFFFFFFFFFFFFFFFFFFFFFFFFFF
310
FFFFFFFFFFFFFFFFFFFFFFFFFFFFFFFFFFFFFFFFFFFFFFFFFFFFFFFFFFFFFFFF
310
FFFFFFFFFFFFFFFFFFFFFFFFFFFFFFFFF000FFFFFFFFFFFFFFFFFFFFFFFFFFFF
310
FFFFFFFFFFFFFFFFFFFFFFFFFFFFFFFFFFFFFFFFFFFFFFFFFFFFFFFFFFFFFFFF
310
FFFFFFFFFFFFFFFFFFFFFFFFFFFFFFFFFFFFFFFFFFFFFFFFFFFFFFFFFFFFFFFF
310
FFFFFFFFFFFFFFFFF000FFFFF80003FFFFFFFFFFFFFFFFFFFFFFFFFFFFFFFFFF
310
FFFFF00007FFFFFFFFFF00007FFFFFF800000000000000007FFFFFFFFFFFFFFF
310
FFFFFFFC001FFFFFFFFFFFFFFC001FFFFFFFFFFFFFFFFFFFFFFFFFFE0007FFFF
310
F000FFFF8000007FFFFFFFF8000FFFFFC0007FFFFF80007FFFFF0000007FFFFF
310
FFF8000007FFFFF800000000000000007FFFFFF0001FFFFFFFFFFFC00001FFFF
310
FFFFFFFFC00001FFFFFFFF000000000003FFFFE000007FFFF000FFFE0000000F
310
FFFFFFF0000FFFFF80007FFFFF80007FFFFC0000001FFFFFFFC0000001FFFFF8
310
00000000000000007FFFFFF0001FFFFFFFFFFE0000003FFFFFFFFFFE0000003F
310
FFFFFF000000000003FFFF0000000FFFF000FFF800000003FFFFFFF00007FFFF
310
80007FFFFF80007FFFF000000007FFFFFF000000003FFFF80000000000000000
310
7FFFFFF0001FFFFFFFFFF80000000FFFFFFFFFF80000000FFFFFFF0000000000
310
03FFFC00000003FFF000FFE000000000FFFFFFF00007FFFF80003FFFFF80007F
310
FFC000000001FFFFFC000000001FFFF800000000000000007FFFFFF0001FFFFF
310
FFFFE000000003FFFFFFFFE000000003FFFFFF000000000003FFF000000000FF
310
F000FF80000000007FFFFFF00007FFFF80003FFFFF80007FFF8000000000FFFF
310
F80000000007FFF800000000000000007FFFFFF0001FFFFFFFFFC000000001FF
310
FFFFFFC000000001FFFFFF000000000003FFC0000000007FF000FF0000000000
310
3FFFFFE00007FFFF00003FFFFF80007FFE00000000003FFFF00000000003FFF8
310
00000000000000007FFFFFF0001FFFFFFFFF8000000000FFFFFFFF8000000000
310
FFFFFF000000000003FF80000000003FF000FE00000000001FFFFFE00003FFFF
310
00003FFFFF80007FFC00000000001FFFE00000000001FFF8000001FFFE000000
310
7FFFFFF0001FFFFFFFFE00000000003FFFFFFE00000000003FFFFF0000000000
310
03FF00000000001FF000FC00000000000FFFFFE00003FFFF00001FFFFF80007F
310
F800000000001FFFC00000000000FFF8000001FFFE0000007FFFFFF0001FFFFF
310
FFFC00000000001FFFFFFC00000000001FFFFF000000000003FE00000000000F
310
F000F8000000000007FFFFE00003FFFF00001FFFFF80007FF800000000000FFF
310
800000000000FFF8000001FFFE0000007FFFFFF0001FFFFFFFF800000000000F
310
FFFFF800000000000FFFFF000000000003FC000000000007F000F80000000000
310
03FFFFC00003FFFE00001FFFFF80007FF0000000000007FF0000000000007FF8
310
000001FFFE0000007FFFFFF0001FFFFFFFF0000000000007FFFFF00000000000
310
07FFFF000000000003F8000000000003F000F0000000000003FFFFC00001FFFE
310
00001FFFFF80007FE0000000000007FE0000000000003FF8000001FFFE000000
310
7FFFFFF0001FFFFFFFF0000000000007FFFFF0000000000007FFFF0000000000
310
03F800001F800003F000E00001FFF00001FFFFC00001FFFE00000FFFFF80007F
310
E00001FFE00003FE00001FFF00003FF8000001FFFE0000007FFFFFF0001FFFFF
310
FFE000003E000003FFFFE000003E000003FFFF000000000003F00001FFF80001
310
F000E00007FFFC0001FFFFC00001FFFE00000FFFFF80007FC0000FFFFC0003FC
310
0000FFFFC0001FF8000001FFFE0000007FFFFFF0001FFFFFFFC00003FFE00001
310
FFFFC00003FFE00001FFFF0001FFFFFFFFF00007FFFE0001F000E0000FFFFF00
310
00FFFF800001FFFC00000FFFFF80007FC0001FFFFE0001FC0001FFFFE0001FF8
310
000001FFFE0000007FFFFFF0001FFFFFFF80000FFFF80000FFFF80000FFFF800
310
00FFFF0003FFFFFFFFE0000FFFFF8000F000C0003FFFFF8000FFFF800000FFFC
310
000007FFFF80007F80003FFFFF0001FC0003FFFFF0001FF8000001FFFE000000
310
7FFFFFF0001FFFFFFF80003FFFFE0000FFFF80003FFFFE0000FFFF0003FFFFFF
310
FFE0003FFFFF8000F000C0003FFFFF8000FFFF800000FFFC000007FFFF80007F
310
80007FFFFF8001F80007FFFFF8000FF8000001FFFE0000007FFFFFF0001FFFFF
310
FF00007FFFFF00007FFF00007FFFFF00007FFF0003FFFFFFFFE0003FFFFFC000
310
F000C0007FFFFFC000FFFF000000FFFC000007FFFF80007F8000FFFFFF8000F8
310
000FFFFFF8000FF8000001FFFE0000007FFFFFF0001FFFFFFF0000FFFFFF8000
310
7FFF0000FFFFFF80007FFF0003FFFFFFFFC0007FFFFFC00070008000FFFFFFC0
310
00FFFF000000FFF8000007FFFF80007F8000FFFFFF8000F8000FFFFFF8000FF8
310
000001FFFE0000007FFFFFF0001FFFFFFE0001FFFFFFC0003FFE0001FFFFFFC0
310
003FFF0003FFFFFFFFC0007FFFFFE00070008000FFFFFFC0007FFF0000007FF8
310
000003FFFF80007F0001FFFFFF8000F8000FFFFFF8000FF8000001FFFE000000
310
7FFFFFF0001FFFFFFE0001FFFFFFC0003FFE0001FFFFFFC0003FFF0003FFFFFF
310
FFC000FFFFFFE00070008000FFFFFFC0007FFF0000007FF8000003FFFF80007F
310
0001FFFFFF8000F8001FFFFFF8000FF8000001FFFE0000007FFFFFF0001FFFFF
310
FE0003FFFFFFE0003FFE0003FFFFFFE0003FFF0003FFFFFFFFC000FFFFFFE000
310
70008000FFFFFFC0007FFE0000007FF8000003FFFF80007F0001FFFFFF8000F0
310
001FFFFFF8000FF8000001FFFE0000007FFFFFF0001FFFFFFC0003FFFFFFE000
310
1FFC0003FFFFFFE0001FFF0003FFFFFFFFC000FFFFFFC00070008000FFFFFF80
310
007FFE0000007FF0000003FFFF80007F0001FFFFFF0000F0001FFFFFF8000FF8
310
000001FFFE0000007FFFFFF0001FFFFFFC0007FFFFFFF0001FFC0007FFFFFFF0
310
001FFF0003FFFFFFFFC000FFFFFFC00070008001FFFFFF0000FFFE0000003FF0
310
000001FFFF80007F0001FFFFFF0000F8001FFFFFF0000FF8000001FFFE000000
310
7FFFFFF0001FFFFFFC0007FFFFFFF0001FFC0007FFFFFFF0001FFF0003FFFFFF
310
FFC001FFFFFF80007000FFFFFFFFFE0000FFFE0008003FF0008001FFFF80007F
310
FFFFFFFFFC0000FFFFFFFFFFE0000FF8000001FFFE0000007FFFFFF0001FFFFF
310
F8000FFFFFFFF8000FF8000FFFFFFFF8000FFF0003FFFFFFFFFFFFFFFFFF0000
310
7000FFFFFFFFFC0000FFFC0008003FF0008001FFFF80007FFFFFFFFFF80001FF
310
FFFFFFFF80000FF8000001FFFE0000007FFFFFF0001FFFFFF8000FFFFFFFF800
310
0FF8000FFFFFFFF8000FFF0003FFFFFFFFFFFFFFFFFE0000F000FFFFFFFFE000
310
00FFFC000C003FE000C001FFFF80007FFFFFFFFFC00001FFFFFFFFFE00001FF8
310
000001FFFE0000007FFFFFF0001FFFFFF8000FFFFFFFF8000FF8000FFFFFFFF8
310
000FFF0003FFFFFFFFFFFFFFFFF00000F000FFFFFFFE000001FFFC000C001FE0
310
00C000FFFF80007FFFFFFFFE000001FFFFFFFFE000001FF80FFFFFFFFFFFFFC0
310
7FFFFFF0001FFFFFF8000FFFFFFFF8000FF8000FFFFFFFF8000FFF0003FFFFFF
310
FFFFFFFFFF800000F000FFFFFFC0000001FFFC001C001FE001C000FFFF80007F
310
FFFFFF80000003FFFFFFF80000001FF80FFFFFFFFFFFFFC07FFFFFF0001FFFFF
310
F8001FFFFFFFFC000FF8001FFFFFFFFC000FFF0003FFFFFFFFFFFFFFF0000001
310
F000FFFFF800000001FFF8001C001FE001C000FFFF80007FFFFFF800000003FF
310
FFFF800000003FF80FFFFFFFFFFFFFC07FFFFFF0001FFFFFF8001FFFFFFFFC00
310
0FF8001FFFFFFFFC000FFF0003FFFFFFFFFFFFFE00000001F000FFFFC0000000
310
03FFF8001E001FC001E000FFFF80007FFFFF8000000007FFFFFC000000003FF8
310
0FFFFFFFFFFFFFC07FFFFFF0001FFFFFF8001FFFFFFFFC000FF8001FFFFFFFFC
310
000FFF0003FFFFFFFFFFFFE000000003F000FFFE0000000007FFF8001E000FC0
310
01E0007FFF80007FFFFE0000000007FFFFE0000000007FF80FFFFFFFFFFFFFC0
310
7FFFFFF0001FFFFFF0001FFFFFFFFC0007F0001FFFFFFFFC0007FF0003FFFFFF
310
FFFFFF0000000003F000FFF80000000007FFF8001E000FC003E0007FFF80007F
310
FFF0000000000FFFFF8000000000FFF80FFFFFFFFFFFFFC07FFFFFF0001FFFFF
310
F0001FFFFFFFFC0007F0001FFFFFFFFC0007FF0003FFFFFFFFFFFC0000000007
310
F000FFE0000000000FFFF0003E000FC003E0007FFF80007FFFC0000000001FFF
310
FE0000000001FFF80FFFFFFFFFFFFFC07FFFFFF0001FFFFFF0001FFFFFFFFC00
310
07F0001FFFFFFFFC0007FF0003FFFFFFFFFFF0000000000FF000FFC000000000
310
1FFFF0003F000F8003F0003FFF80007FFF80000000003FFFF80000000003FFF8
310
0FFFFFFFFFFFFFC07FFFFFF0001FFFFFF0001FFFFFFFFC0007F0001FFFFFFFFC
310
0007FF0003FFFFFFFFFFE0000000001FF000FF00000000007FFFF0003F000780
310
03F0003FFF80007FFF00000000007FFFF00000000007FFF80FFFFFFFFFFFFFC0
310
7FFFFFF0001FFFFFF0001FFFFFFFFC0007F0001FFFFFFFFC0007FF0003FFFFFF
310
FFFF80000000007FF000FE0000000000FFFFE0003F00078007F0003FFF80007F
310
FE0000000001FFFFE0000000001FFFF80FFFFFFFFFFFFFC07FFFFFF0001FFFFF
310
F0001FFFFFFFFC0007F0001FFFFFFFFC0007FF0003FFFFFFFFFF0000000000FF
310
F000FC0000000003FFFFE0007F00078007F0003FFF80007FFC0000000007FFFF
310
C0000000007FFFF80FFFFFFFFFFFFFC07FFFFFF0001FFFFFF8001FFFFFFFFC00
310
0FF8001FFFFFFFFC000FFF0003FFFFFFFFFE0000000003FFF000FC000000000F
310
FFFFE0007F80070007F8001FFF80007FF8000000001FFFFF8000000001FFFFF8
310
0FFFFFFFFFFFFFC07FFFFFF0001FFFFFF8001FFFFFFFFC000FF8001FFFFFFFFC
310
000FFF0003FFFFFFFFFC000000000FFFF000F8000000007FFFFFE0007F800700
310
07F8001FFF80007FF000000000FFFFFF800000000FFFFFF80FFFFFFFFFFFFFC0
310
7FFFFFF0001FFFFFF8000FFFFFFFF8000FF8000FFFFFFFF8000FFF0003FFFFFF
310
FFFC000000007FFFF000F800000007FFFFFFC0007F8003000FF8001FFF80007F
310
F000000007FFFFFF000000007FFFFFF80FFFFFFFFFFFFFC07FFFFFF0001FFFFF
310
F8000FFFFFFFF8000FF8000FFFFFFFF8000FFF0003FFFFFFFFF80000000FFFFF
310
F000F0000000FFFFFFFFC000FF8003000FF8001FFF80007FE0000000FFFFFFFF
310
0000000FFFFFFFF8000001FFFE0000007FFFFFF0001FFFFFF8000FFFFFFFF800
310
0FF8000FFFFFFFF8000FFF0003FFFFFFFFF8000000FFFFFFF000F000000FFFFF
310
FFFFC000FFC002000FF8000FFF80007FE000001FFFFFFFFE000001FFFFFFFFF8
310
000001FFFE0000007FFFFFF0001FFFFFF8000FFFFFFFF8000FF8000FFFFFFFF8
310
000FFF0003FFFFFFFFF000001FFFFFFFF000E00000FFFFFFFFFFC000FFC00200
310
0FFC000FFF80007FE00001FFFFFFFFFE00001FFFFFFFFFF8000001FFFE000000
310
7FFFFFF0001FFFFFFC000FFFFFFFF8001FFC000FFFFFFFF8001FFF0003FFFFFF
310
FFF00001FFFFFFFFF000E00007FFFFFFFFFF8000FFC000001FFC000FFF80007F
310
C0000FFFFFFFFFFE0000FFFFFFFFFFF8000001FFFE0000007FFFFFF0001FFFFF
310
FC0007FFFFFFF0001FFC0007FFFFFFF0001FFF0003FFFFFFFFF00007FFFFFFFF
310
F000E0001FFFFFFFFFFF8000FFC000001FFC000FFF80007FC0003FFFFFFFFFFE
310
0001FFFFFFFFFFF8000001FFFE0000007FFFFFF0001FFFFFFC0007FFFFFFF000
310
1FFC0007FFFFFFF0001FFF0003FFFFFFFFF0001FFFFFFFFFF000E0003FFFFF00
310
03FF8001FFE000001FFC0007FF80007FC0007FFFFF0007FC0003FFFFF0003FF8
310
000001FFFE0000007FFFFFF0001FFFFFFC0003FFFFFFE0001FFC0003FFFFFFE0
310
001FFF0003FFFFFFFFF0003FFFFFFFFFF000E0003FFFFF0001FF8001FFE00000
310
1FFE0007FF80007FC0007FFFFE0003FC0007FFFFE0003FF8000001FFFE000000
310
7FFFFFF0001FFFFFFE0003FFFFFFE0003FFE0003FFFFFFE0003FFF0003FFFFFF
310
FFF0003FFFFF8001F000E0003FFFFF0001FF0001FFE000001FFE0007FF80007F
310
C0007FFFFE0003FC0007FFFFE0003FF8000001FFFE0000007FFFFFF0001FFFFF
310
FE0001FFFFFFC0003FFE0001FFFFFFC0003FFF0003FFFFFFFFF0003FFFFF0001
310
F000E0003FFFFF0003FF0001FFE000003FFE0007FF80007FC0007FFFFE0003FC
310
0007FFFFE0003FF8000001FFFE0000007FFFFFF0001FFFFFFF0001FFFFFFC000
310
7FFF0001FFFFFFC0007FFF0003FFFFFFFFF0003FFFFF0001F000E0003FFFFE00
310
03FF0003FFF000003FFE0003FF80007FC0007FFFFC0003FE0007FFFFE0003FF8
310
000001FFFE0000007FFFFFF0001FFFFFFF0000FFFFFF80007FFF0000FFFFFF80
310
007FFF0003FFFFFFFFF0003FFFFF0001F000E0003FFFFE0003FF0003FFF00000
310
3FFF0003FF80007FC0007FFFFC0007FE0007FFFFC0003FF8000001FFFE000000
310
7FFFFFF0001FFFFFFF80007FFFFF0000FFFF80007FFFFF0000FFFF0003FFFFFF
310
FFF0003FFFFF0003F000E0003FFFFC0003FE0003FFF000003FFF0003FF80007F
310
E0003FFFF80007FE0003FFFFC0007FF8000001FFFE0000007FFFFFF0001FFFFF
310
FF80003FFFFE0000FFFF80003FFFFE0000FFFF0003FFFFFFFFF0001FFFFE0003
310
F000F0001FFFF80003FE0003FFF000007FFF0001FF80007FE0003FFFF00007FE
310
0001FFFF80007FF8000001FFFE0000007FFFFFF0001FFFFFFFC0000FFFF80001
310
FFFFC0000FFFF80001FFFF0003FFFFFFFFF0001FFFFC0003F000F0000FFFF000
310
07FE0007FFF800007FFF0001FF80007FE0001FFFE00007FF0000FFFE00007FF8
310
000001FFFE0000007FFFFFF0001FFFFFFFC00003FFE00001FFFFC00003FFE000
310
01FFFF0003FFFFFFFFF8000FFFF80003F000F00003FFC00007FC0007FFF80000
310
7FFF8001FF80007FF00007FF80000FFF00007FF80000FFF8000001FFFE000000
310
7F80000000000001FFE000003E000003FFFFE000003E000003FFFF0003FFFFFF
310
FFF80003FFE00007F000F800000000000FFC0007FFF800007FFF8001FF80007F
310
F000000000000FFF000000000000FFF8000001FFFE0000007F80000000000001
310
FFF0000000000007FFFFF0000000000007FFFF0003FFFFFFFFFC00007E000007
310
F000F800000000000FFC0007FFF80000FFFF8000FF80007FF800000000001FFF
310
800000000001FFF8000001FFFE0000007F80000000000001FFF800000000000F
310
FFFFF800000000000FFFFF0003FFFFFFFFFC00000000000FF000FC0000000000
310
1FFC0007FFFC0000FFFF8000FF80007FF800000000003FFFC00000000001FFF8
310
000001FFFE0000007F80000000000001FFF800000000000FFFFFF80000000000
310
0FFFFF0003FFFFFFFFFE00000000001FF000FE00000000003FF8000FFFFC0000
310
FFFF8000FF80007FFC00000000003FFFC00000000003FFF8000001FFFE000000
310
7F80000000000001FFFC00000000001FFFFFFC00000000001FFFFF0003FFFFFF
310
FFFF00000000001FF000FF00000000003FF8000FFFFC0000FFFFC000FF80007F
310
FE00000000007FFFE00000000007FFF8000001FFFE0000007F80000000000001
310
FFFE00000000003FFFFFFE00000000003FFFFF0003FFFFFFFFFF80000000003F
310
F000FF80000000007FF8000FFFFC0001FFFFC0007F80007FFF0000000000FFFF
310
F0000000000FFFF800000000000000007F80000000000001FFFF8000000000FF
310
FFFFFF8000000000FFFFFF0003FFFFFFFFFFC0000000007FF000FFC000000000
310
FFF8000FFFFE0001FFFFC0007F80007FFF8000000001FFFFF8000000001FFFF8
310
00000000000000007F80000000000001FFFFC000000001FFFFFFFFC000000001
310
FFFFFF0003FFFFFFFFFFE000000000FFF000FFE000000003FFF0001FFFFE0001
310
FFFFC0007F80007FFFC000000007FFFFFE000000003FFFF80000000000000000
310
7F80000000000001FFFFE000000003FFFFFFFFE000000003FFFFFF0003FFFFFF
310
FFFFF000000003FFF000FFF80000000FFFF0001FFFFE0001FFFFE0007F80007F
310
FFF00000000FFFFFFF00000000FFFFF800000000000000007F80000000000001
310
FFFFF80000000FFFFFFFFFF80000000FFFFFFF0003FFFFFFFFFFFC0000000FFF
310
F000FFFE0000003FFFF0001FFFFE0003FFFFE0003F80007FFFFC0000003FFFFF
310
FFC0000003FFFFF800000000000000007F80000000000001FFFFFE0000003FFF
310
FFFFFFFE0000003FFFFFFF0003FFFFFFFFFFFF0000003FFFF000FFFF800000FF
310
FFF0001FFFFF0003FFFFE0003F80007FFFFF000001FFFFFFFFF800001FFFFFF8
310
00000000000000007F80000000000001FFFFFFC00001FFFFFFFFFFFFC00001FF
310
FFFFFF0003FFFFFFFFFFFFC00000FFFFF000FFFFF8000FFFFFFFFFFFFFFFFFFF
310
FFFFFFFFFFFFFFFFFFFFF0001FFFFFFFFFFF0000FFFFFFF80000000000000000
310
7FFFFFFFFFFFFFFFFFFFFFFC001FFFFFFFFFFFFFFC001FFFFFFFFFFFFFFFFFFF
310
FFFFFFFC001FFFFFF000FFFFFFFFFFFFFFFFFFFFFFFFFFFFFFFFFFFFFFFFFFFF
310
FFFFFFFFFFFFFFFFFFFFFFFFFFFFFFFFFFFFFFFFFFFFFFFFFFFFFFFFFFFFFFFF
310
FFFFFFFFFFFFFFFFFFFFFFFFFFFFFFFFFFFFFFFFFFFFFFFFFFFFFFFFFFFFFFFF
310
F000FFFFFFFFFFFFFFFFFFFFFFFFFFFFFFFFFFFFFFFFFFFFFFFFFFFFFFFFFFFF
310
FFFFFFFFFFFFFFFFFFFFFFFFFFFFFFFFFFFFFFFFFFFFFFFFFFFFFFFFFFFFFFFF
310
FFFFFFFFFFFFFFFFFFFFFFFFFFFFFFFFFFFFFFFFFFFFFFFFF000FFFFFFFFFFFF
310
FFFFFFFFFFFFFFFFFFFFFFFFFFFFFFFFFFFFFFFFFFFFFFFFFFFFFFFFFFFFFFFF
310
FFFFFFFFFFFFFFFFFFFFFFFFFFFFFFFFFFFFFFFFFFFFFFFFFFFFFFFFFFFFFFFF
310
FFFFFFFFFFFFFFFFFFFFFFFFFFFFFFFFF000FFFFFFFFFFFFFFFFFFFFFFFFFFFF
310
FFFFFFFFFFFFFFFFFFFFFFFFFFFFFFFFFFFFFFFFFFFFFFFFFFFFFFFFFFFFFFFF
310
FFFFFFFFFFFFFFFFFFFFFFFFFFFFFFFFFFFFFFFFFFFFFFFFFFFFFFFFFFFFFFFF
310
FFFFFFFFFFFFFFFFF000FFFFFFFFFFFFFFFFFFFFFFFFFFFFFFFFFFFFFFFFFFFF
310
FFFFFFFFFFFFFFFFFFFFFFFFFFFFFFFFFFFFFFFFFFFFFFFFFFFFFFFFFFFFFFFF
310
FFFFFFFFFFFFFFFFFFFFFFFFFFFFFFFFFFFFFFFFFFFFFFFFFFFFFFFFFFFFFFFF
310
F000FFFFFFFFFFFFFFFFFFFFFFFFFFFFFFFFFFFFFFFFFFFFFFFFFFFFFFFFFFFF
310
FFFFFFFFFFFFFFFFFFFFFFFFFFFFFFFFFFFFFFFFFFFFFFFFFFFFFFFFFFFFFFFF
310
FFFFFFFFFFFFFFFFFFFFFFFFFFFFFFFFFFFFFFFFFFFFFFFFF000FFFFFFFFFFFF
310
FFFFFFFFFFFFFFFFFFFFFFFFFFFFFFFFFFFFFFFFFFFFFFFFFFFFFFFFFFFFFFFF
310
FFFFFFFFFFFFFFFFFFFFFFFFFFFFFFFFFFFFFFFFFFFFFFFFFFFFFFFFFFFFFFFF
310
FFFFFFFFFFFFFFFFFFFFFFFFFFFFFFFFF000FFFFFFFFFFFFFFFFFFFFFFFFFFFF
310
FFFFFFFFFFFFFFFFFFFFFFFFFFFFFFFFFFFFFFFFFFFFFFFFFFFFFFFFFFFFFFFF
310
FFFFFFFFFFFFFFFFFFFFFFFFFFFFFFFFFFFFFFFFFFFFFFFFFFFFFFFFFFFFFFFF
310
FFFFFFFFFFFFFFFFF000FFFFFFFFFFFFFFFFFFFFFFFFFFFFFFFFFFFFFFFFFFFF
310
FFFFFFFFFFFFFFFFFFFFFFFFFFFFFFFFFFFFFFFFFFFFFFFFFFFFFFFFFFFFFFFF
310
FFFFFFFFFFFFFFFFFFFFFFFFFFFFFFFFFFFFFFFFFFFFFFFFFFFFFFFFFFFFFFFF
310
F000FFFFFFFFFFFFFFFFFFFFFFFFFFFFFFFFFFFFFFFFFFFFFFFFFFFFFFFFFFFF
310
FFFFFFFFFFFFFFFFFFFFFFFFFFFFFFFFFFFFFFFFFFFFFFFFFFFFFFFFFFFFFFFF
310
FFFFFFFFFFFFFFFFFFFFFFFFFFFFFFFFFFFFFFFFFFFFFFFFF000FFFFFFFFFFFF
310
FFFFFFFFFFFFFFFFFFFFFFFFFFFFFFFFFFFFFFFFFFFFFFFFFFFFFFFFFFFFFFFF
310
FFFFFFFFFFFFFFFFFFFFFFFFFFFFFFFFFFFFFFFFFFFFFFFFFFFFFFFFFFFFFFFF
310
FFFFFFFFFFFFFFFFFFFFFFFFFFFFFFFFF000FFFFFFFFFFFFFFFFFFFFFFFFFFFF
310
FFFFFFFFFFFFFFFFFFFFFFFFFFFFFFFFFFFFFFFFFFFFFFFFFFFFFFFFFFFFFFFF
310
FFFFFFFFFFFFFFFFFFFFFFFFFFFFFFFFFFFFFFFFFFFFFFFFFFFFFFFFFFFFFFFF
310
FFFFFFFFFFFFFFFFF000FFFFFFFFFFFFFFFFFFFFFFFFFFFFFFFFFFFFFFFFFFFF
310
FFFFFFFFFFFFFFFFFFFFFFFFFFFFFFFFFFFFFFFFFFFFFFFFFFFFFFFFFFFFFFFF
310
FFFFFFFFFFFFFFFFFFFFFFFFFFFFFFFFFFFFFFFFFFFFFFFFFFFFFFFFFFFFFFFF
310
F000FFFFFFFFFFFFFFFFFFFFFFFFFFFFFFFFFFFFFFFFFFFFFFFFFFFFFFFFFFFF
310
FFFFFFFFFFFFFFFFFFFFFFFFFFFFFFFFFFFFFFFFFFFFFFFFFFFFFFFFFFFFFFFF
310
FFFFFFFFFFFFFFFFFFFFFFFFFFFFFFFFFFFFFFFFFFFFFFFFF000FFFFFFFFFFFF
310
FFFFFFFFFFFFFFFFFFFFFFFFFFFFFFFFFFFFFFFFFFFFFFFFFFFFFFFFFFFFFFFF
310
FFFFFFFFFFFFFFFFFFFFFFFFFFFFFFFFFFFFFFFFFFFFFFFFFFFFFFFFFFFFFFFF
310
FFFFFFFFFFFFFFFFFFFFFFFFFFFFFFFFF000FFFFFFFFFFFFFFFFFFFFFFFFFFFF
310
FFFFFFFFFFFFFFFFFFFFFFFFFFFFFFFFFFFFFFFFFFFFFFFFFFFFFFFFFFFFFFFF
310
FFFFFFFFFFFFFFFFFFFFFFFFFFFFFFFFFFFFFFFFFFFFFFFFFFFFFFFFFFFFFFFF
310
FFFFFFFFFFFFFFFFF000FFFFFFFFFFFFFFFFFFFFFFFFFFFFFFFFFFFFFFFFFFFF
310
FFFFFFFFFFFFFFFFFFFFFFFFFFFFFFFFFFFFFFFFFFFFFFFFFFFFFFFFFFFFFFFF
310
FFFFFFFFFFFFFFFFFFFFFFFFFFFFFFFFFFFFFFFFFFFFFFFFFFFFFFFFFFFFFFFF
310
F000FFFFFFFFFFFFFFFFFFFFFFFFFFFFFFFFFFFFFFFFFFFFFFFFFFFFFFFFFFFF
310
FFFFFFFFFFFFFFFFFFFFFFFFFFFFFFFFFFFFFFFFFFFFFFFFFFFFFFFFFFFFFFFF
310
FFFFFFFFFFFFFFFFFFFFFFFFFFFFFFFFFFFFFFFFFFFFFFFFF000FFFFFFFFFFFF
310
FFFFFFFFFFFFFFFFFFFFFFFFFFFFFFFFFFFFFFFFFFFFFFFFFFFFFFFFFFFFFFFF
310
FFFFFFFFFFFFFFFFFFFFFFFFFFFFFFFFFFFFFFFFFFFFFFFFFFFFFFFFFFFFFFFF
310
FFFFFFFFFFFFFFFFFFFFFFFFFFFFFFFFF000FFFFFFFFFFFFFFFFFFFFFFFFFFFF
310
FFFFFFFFFFFFFFFFFFFFFFFFFFFFFFFFFFFFFFFFFFFFFFFFFFFFFFFFFFFFFFFF
310
FFFFFFFFFFFFFFFFFFFFFFFFFFFFFFFFFFFFFFFFFFFFFFFFFFFFFFFFFFFFFFFF
310
FFFFFFFFFFFFFFFFF000FFFFFFFFFFFFFFFFFFFFFFFFFFFFFFFFFFFFFFFFFFFF
310
FFFFFFFFFFFFFFFFFFFFFFFFFFFFFFFFFFFFFFFFFFFFFFFFFFFFFFFFFFFFFFFF
310
FFFFFFFFFFFFFFFFFFFFFFFFFFFFFFFFFFFFFFFFFFFFFFFFFFFFFFFFFFFFFFFF
310
F000FFFFFFFFFFFFFFFFFFFFFFFFFFFFFFFFFFFFFFFFFFFFFFFFFFFFFFFFFFFF
310
FFFFFFFFFFFFFFFFFFFFFFFFFFFFFFFFFFFFFFFFFFFFFFFFFFFFFFFFFFFFFFFF
310
FFFFFFFFFFFFFFFFFFFFFFFFFFFFFFFFFFFFFFFFFFFFFFFFF000FFFFFFFFFFFF
310
FFFFFFFFFFFFFFFFFFFFFFFFFFFFFFFFFFFFFFFFFFFFFFFFFFFFFFFFFFFFFFFF
310
FFFFFFFFFFFFFFFFFFFFFFFFFFFFFFFFFFFFFFFFFFFFFFFFFFFFFFFFFFFFFFFF
310
FFFFFFFFFFFFFFFFFFFFFFFFFFFFFFFFF0000000000000000000000000000000
310
0000000000000000000000000000000000000000000000000000000000000000
310
0000000000000000000000000000000000000000000000000000000000000000
310
0000000000000000000000000000000000000000000000000000000000000000
310
0000000000000000000000000000000000000000000000000000000000000000
310
0000000000000000000000000000000000000000000000000000000000000000
310
0000000000000000000000000000000000000000000000000000000000000000
310
0000000000000000000000000000000000000000000000000000000000000000
310
0000000000000000000000000000000000000000000000000000000000000000
310
0000000000000000000000000000000000000000000000000000000000000000
310
0000000000000000000000000000000000000000000000000000000000000000
310
0000000000000000000000000000000000000000000000000000000000000000
310
0000000000000000000000000000000000000000000000000000000000000000
310
0000000000000000000000000000000000000000000000000000000000000000
310
0000000000000000000000000000000000000000000000000000000000000000
310
0000000000000000000000000000000000000000000000000000000000000000
  1
OLE
  0
ENDSEC
  0
SECTION
  2
OBJECTS
  0
DICTIONARY
  5
C
330
0
100
AcDbDictionary
281
     1
  3
ACAD_GROUP
350
D
  3
ACAD_LAYOUT
350
1A
  3
ACAD_MLINESTYLE
350
17
  3
ACAD_PLOTSETTINGS
350
19
  3
ACAD_PLOTSTYLENAME
350
E
  0
DICTIONARY
  5
D
102
{ACAD_REACTORS
330
C
102
}
330
C
100
AcDbDictionary
281
     1
  0
DICTIONARY
  5
1A
102
{ACAD_REACTORS
330
C
102
}
330
C
100
AcDbDictionary
281
     1
  3
Layout1
350
1E
  3
Layout2
350
26
  3
Model
350
22
  0
DICTIONARY
  5
17
102
{ACAD_REACTORS
330
C
102
}
330
C
100
AcDbDictionary
281
     1
  3
Standard
350
18
  0
DICTIONARY
  5
19
102
{ACAD_REACTORS
330
C
102
}
330
C
100
AcDbDictionary
281
     1
  0
ACDBDICTIONARYWDFLT
  5
E
102
{ACAD_REACTORS
330
C
102
}
330
C
100
AcDbDictionary
281
     1
  3
Normal
350
F
100
AcDbDictionaryWithDefault
340
F
  0
LAYOUT
  5
1E
102
{ACAD_REACTORS
330
1A
102
}
330
1A
100
AcDbPlotSettings
  1

  2
none_device
  4

  6

 40
0.0
 41
0.0
 42
0.0
 43
0.0
 44
0.0
 45
0.0
 46
0.0
 47
0.0
 48
0.0
 49
0.0
140
0.0
141
0.0
142
1.0
143
1.0
 70
   688
 72
     0
 73
     0
 74
     5
  7

 75
    16
147
1.0
148
0.0
149
0.0
100
AcDbLayout
  1
Layout1
 70
     1
 71
     1
 10
0.0
 20
0.0
 11
420.0
 21
297.0
 12
0.0
 22
0.0
 32
0.0
 14
1.0000000000E+20
 24
1.0000000000E+20
 34
1.0000000000E+20
 15
-1.0000000000E+20
 25
-1.0000000000E+20
 35
-1.0000000000E+20
146
0.0
 13
0.0
 23
0.0
 33
0.0
 16
1.0
 26
0.0
 36
0.0
 17
0.0
 27
1.0
 37
0.0
 76
     0
330
1B
  0
LAYOUT
  5
26
102
{ACAD_REACTORS
330
1A
102
}
330
1A
100
AcDbPlotSettings
  1

  2
none_device
  4

  6

 40
0.0
 41
0.0
 42
0.0
 43
0.0
 44
0.0
 45
0.0
 46
0.0
 47
0.0
 48
0.0
 49
0.0
140
0.0
141
0.0
142
1.0
143
1.0
 70
   688
 72
     0
 73
     0
 74
     5
  7

 75
    16
147
1.0
148
0.0
149
0.0
100
AcDbLayout
  1
Layout2
 70
     1
 71
     2
 10
0.0
 20
0.0
 11
0.0
 21
0.0
 12
0.0
 22
0.0
 32
0.0
 14
0.0
 24
0.0
 34
0.0
 15
0.0
 25
0.0
 35
0.0
146
0.0
 13
0.0
 23
0.0
 33
0.0
 16
1.0
 26
0.0
 36
0.0
 17
0.0
 27
1.0
 37
0.0
 76
     0
330
23
  0
LAYOUT
  5
22
102
{ACAD_REACTORS
330
1A
102
}
330
1A
100
AcDbPlotSettings
  1

  2
none_device
  4

  6

 40
0.0
 41
0.0
 42
0.0
 43
0.0
 44
0.0
 45
0.0
 46
0.0
 47
0.0
 48
0.0
 49
0.0
140
0.0
141
0.0
142
1.0
143
1.0
 70
  1712
 72
     0
 73
     0
 74
     0
  7

 75
     0
147
1.0
148
0.0
149
0.0
100
AcDbLayout
  1
Model
 70
     1
 71
     0
 10
0.0
 20
0.0
 11
297.0
 21
210.0
 12
0.0
 22
0.0
 32
0.0
 14
0.0
 24
0.0
 34
0.0
 15
297.0
 25
210.0
 35
0.0
146
0.0
 13
0.0
 23
0.0
 33
0.0
 16
1.0
 26
0.0
 36
0.0
 17
0.0
 27
1.0
 37
0.0
 76
     0
330
1F
331
29
  0
MLINESTYLE
  5
18
102
{ACAD_REACTORS
330
17
102
}
330
17
100
AcDbMlineStyle
  2
Standard
 70
     0
  3

 62
   256
 51
90.0
 52
90.0
 71
     2
 49
0.5
 62
   256
  6
BYLAYER
 49
-0.5
 62
   256
  6
BYLAYER
  0
ACDBPLACEHOLDER
  5
F
102
{ACAD_REACTORS
330
E
102
}
330
E
  0
ENDSEC
  0
EOF
