  0
SECTION
  2
HEADER
  9
$ACADVER
  1
AC1015
  9
$ACADMAINTVER
 70
     6
  9
$DWGCODEPAGE
  3
ANSI_1252
  9
$INSBASE
 10
0.0
 20
0.0
 30
0.0
  9
$EXTMIN
 10
0.0
 20
0.0
 30
0.0
  9
$EXTMAX
 10
297.0
 20
210.0
 30
0.0
  9
$LIMMIN
 10
0.0
 20
0.0
  9
$LIMMAX
 10
297.0
 20
210.0
  9
$ORTHOMODE
 70
     0
  9
$REGENMODE
 70
     1
  9
$FILLMODE
 70
     1
  9
$QTEXTMODE
 70
     0
  9
$MIRRTEXT
 70
     1
  9
$LTSCALE
 40
1.0
  9
$ATTMODE
 70
     1
  9
$TEXTSIZE
 40
2.0
  9
$TRACEWID
 40
1.0
  9
$TEXTSTYLE
  7
STANDARD
  9
$CLAYER
  8
0
  9
$CELTYPE
  6
ByLayer
  9
$CECOLOR
 62
   256
  9
$CELTSCALE
 40
1.0
  9
$DISPSILH
 70
     0
  9
$DIMSCALE
 40
1.0
  9
$DIMASZ
 40
3.0
  9
$DIMEXO
 40
0.0
  9
$DIMDLI
 40
3.75
  9
$DIMRND
 40
0.0
  9
$DIMDLE
 40
0.0
  9
$DIMEXE
 40
1.0
  9
$DIMTP
 40
0.0
  9
$DIMTM
 40
0.0
  9
$DIMTXT
 40
2.0
  9
$DIMCEN
 40
2.5
  9
$DIMTSZ
 40
0.0
  9
$DIMTOL
 70
     0
  9
$DIMLIM
 70
     0
  9
$DIMTIH
 70
     1
  9
$DIMTOH
 70
     1
  9
$DIMSE1
 70
     0
  9
$DIMSE2
 70
     0
  9
$DIMTAD
 70
     1
  9
$DIMZIN
 70
     0
  9
$DIMBLK
  1

  9
$DIMASO
 70
     1
  9
$DIMSHO
 70
     1
  9
$DIMPOST
  1

  9
$DIMAPOST
  1

  9
$DIMALT
 70
     0
  9
$DIMALTD
 70
     3
  9
$DIMALTF
 40
0.0393700787
  9
$DIMLFAC
 40
1.0
  9
$DIMTOFL
 70
     1
  9
$DIMTVP
 40
0.0
  9
$DIMTIX
 70
     0
  9
$DIMSOXD
 70
     0
  9
$DIMSAH
 70
     0
  9
$DIMBLK1
  1

  9
$DIMBLK2
  1

  9
$DIMSTYLE
  2
ISO-25
  9
$DIMCLRD
 70
     0
  9
$DIMCLRE
 70
     0
  9
$DIMCLRT
 70
     0
  9
$DIMTFAC
 40
1.0
  9
$DIMGAP
 40
1.524
  9
$DIMJUST
 70
     0
  9
$DIMSD1
 70
     0
  9
$DIMSD2
 70
     0
  9
$DIMTOLJ
 70
     0
  9
$DIMTZIN
 70
     0
  9
$DIMALTZ
 70
     0
  9
$DIMALTTZ
 70
     0
  9
$DIMUPT
 70
     0
  9
$DIMDEC
 70
     2
  9
$DIMTDEC
 70
     3
  9
$DIMALTU
 70
     2
  9
$DIMALTTD
 70
     3
  9
$DIMTXSTY
  7
STANDARD
  9
$DIMAUNIT
 70
     0
  9
$DIMADEC
 70
     2
  9
$DIMALTRND
 40
0.0
  9
$DIMAZIN
 70
     0
  9
$DIMDSEP
 70
    44
  9
$DIMATFIT
 70
     3
  9
$DIMFRAC
 70
     0
  9
$DIMLDRBLK
  1

  9
$DIMLUNIT
 70
     2
  9
$DIMLWD
 70
    -2
  9
$DIMLWE
 70
    -2
  9
$DIMTMOVE
 70
     0
  9
$LUNITS
 70
     2
  9
$LUPREC
 70
     2
  9
$SKETCHINC
 40
1.0
  9
$FILLETRAD
 40
10.0
  9
$AUNITS
 70
     0
  9
$AUPREC
 70
     2
  9
$MENU
  1
.
  9
$ELEVATION
 40
0.0
  9
$PELEVATION
 40
0.0
  9
$THICKNESS
 40
0.0
  9
$LIMCHECK
 70
     0
  9
$CHAMFERA
 40
10.0
  9
$CHAMFERB
 40
10.0
  9
$CHAMFERC
 40
20.0
  9
$CHAMFERD
 40
0.0
  9
$SKPOLY
 70
     0
  9
$TDCREATE
 40
2457028.530898368
  9
$TDUCREATE
 40
2457028.489231701
  9
$TDUPDATE
 40
2457028.530899283
  9
$TDUUPDATE
 40
2457028.489232616
  9
$TDINDWG
 40
0.0000000116
  9
$TDUSRTIMER
 40
0.0000000116
  9
$USRTIMER
 70
     1
  9
$ANGBASE
 50
0.0
  9
$ANGDIR
 70
     0
  9
$PDMODE
 70
     0
  9
$PDSIZE
 40
-1.0
  9
$PLINEWID
 40
0.0
  9
$SPLFRAME
 70
     0
  9
$SPLINETYPE
 70
     6
  9
$SPLINESEGS
 70
     8
  9
$HANDSEED
  5
2BE
  9
$SURFTAB1
 70
     6
  9
$SURFTAB2
 70
     6
  9
$SURFTYPE
 70
     6
  9
$SURFU
 70
     6
  9
$SURFV
 70
     6
  9
$UCSBASE
  2

  9
$UCSNAME
  2

  9
$UCSORG
 10
0.0
 20
0.0
 30
0.0
  9
$UCSXDIR
 10
1.0
 20
0.0
 30
0.0
  9
$UCSYDIR
 10
0.0
 20
1.0
 30
0.0
  9
$UCSORTHOREF
  2

  9
$UCSORTHOVIEW
 70
     0
  9
$UCSORGTOP
 10
0.0
 20
0.0
 30
0.0
  9
$UCSORGBOTTOM
 10
0.0
 20
0.0
 30
0.0
  9
$UCSORGLEFT
 10
0.0
 20
0.0
 30
0.0
  9
$UCSORGRIGHT
 10
0.0
 20
0.0
 30
0.0
  9
$UCSORGFRONT
 10
0.0
 20
0.0
 30
0.0
  9
$UCSORGBACK
 10
0.0
 20
0.0
 30
0.0
  9
$PUCSBASE
  2

  9
$PUCSNAME
  2

  9
$PUCSORG
 10
0.0
 20
0.0
 30
0.0
  9
$PUCSXDIR
 10
1.0
 20
0.0
 30
0.0
  9
$PUCSYDIR
 10
0.0
 20
1.0
 30
0.0
  9
$PUCSORTHOREF
  2

  9
$PUCSORTHOVIEW
 70
     0
  9
$PUCSORGTOP
 10
0.0
 20
0.0
 30
0.0
  9
$PUCSORGBOTTOM
 10
0.0
 20
0.0
 30
0.0
  9
$PUCSORGLEFT
 10
0.0
 20
0.0
 30
0.0
  9
$PUCSORGRIGHT
 10
0.0
 20
0.0
 30
0.0
  9
$PUCSORGFRONT
 10
0.0
 20
0.0
 30
0.0
  9
$PUCSORGBACK
 10
0.0
 20
0.0
 30
0.0
  9
$USERI1
 70
     0
  9
$USERI2
 70
     0
  9
$USERI3
 70
     0
  9
$USERI4
 70
     0
  9
$USERI5
 70
     0
  9
$USERR1
 40
0.0
  9
$USERR2
 40
0.0
  9
$USERR3
 40
0.0
  9
$USERR4
 40
0.0
  9
$USERR5
 40
0.0
  9
$WORLDVIEW
 70
     1
  9
$SHADEDGE
 70
     3
  9
$SHADEDIF
 70
    70
  9
$TILEMODE
 70
     1
  9
$MAXACTVP
 70
    64
  9
$PINSBASE
 10
0.0
 20
0.0
 30
0.0
  9
$PLIMCHECK
 70
     0
  9
$PEXTMIN
 10
1.0000000000E+20
 20
1.0000000000E+20
 30
1.0000000000E+20
  9
$PEXTMAX
 10
-1.0000000000E+20
 20
-1.0000000000E+20
 30
-1.0000000000E+20
  9
$PLIMMIN
 10
0.0
 20
0.0
  9
$PLIMMAX
 10
420.0
 20
297.0
  9
$UNITMODE
 70
     0
  9
$VISRETAIN
 70
     1
  9
$PLINEGEN
 70
     0
  9
$PSLTSCALE
 70
     1
  9
$TREEDEPTH
 70
  3020
  9
$CMLSTYLE
  2
Standard
  9
$CMLJUST
 70
     0
  9
$CMLSCALE
 40
20.0
  9
$PROXYGRAPHICS
 70
     1
  9
$MEASUREMENT
 70
     1
  9
$CELWEIGHT
370
    -1
  9
$ENDCAPS
280
     0
  9
$JOINSTYLE
280
     0
  9
$LWDISPLAY
290
     1
  9
$INSUNITS
 70
     4
  9
$HYPERLINKBASE
  1

  9
$STYLESHEET
  1

  9
$XEDIT
290
     1
  9
$CEPSNTYPE
380
     0
  9
$PSTYLEMODE
290
     1
  9
$FINGERPRINTGUID
  2
{9AA3A3DF-488E-41EF-BE8E-EDC7683FEFDC}
  9
$VERSIONGUID
  2
{FAEB1C32-E019-11D5-929B-00C0DF256EC4}
  9
$EXTNAMES
290
     1
  9
$PSVPSCALE
 40
0.0
  9
$OLESTARTUP
290
     0
  0
ENDSEC
  0
SECTION
  2
CLASSES
  0
CLASS
  1
ACDBDICTIONARYWDFLT
  2
AcDbDictionaryWithDefault
  3
ObjectDBX Classes
 90
        0
280
     0
281
     0
  0
CLASS
  1
VISUALSTYLE
  2
AcDbVisualStyle
  3
ObjectDBX Classes
 90
     4095
280
     0
281
     0
  0
CLASS
  1
MATERIAL
  2
AcDbMaterial
  3
ObjectDBX Classes
 90
     1153
280
     0
281
     0
  0
CLASS
  1
ACDBPLACEHOLDER
  2
AcDbPlaceHolder
  3
ObjectDBX Classes
 90
        0
280
     0
281
     0
  0
CLASS
  1
LAYOUT
  2
AcDbLayout
  3
ObjectDBX Classes
 90
        0
280
     0
281
     0
  0
ENDSEC
  0
SECTION
  2
TABLES
  0
TABLE
  2
VPORT
  5
8
330
0
100
AcDbSymbolTable
 70
     1
  0
VPORT
  5
29
330
8
100
AcDbSymbolTableRecord
100
AcDbViewportTableRecord
  2
*Active
 70
     0
 10
0.0
 20
0.0
 11
1.0
 21
1.0
 12
148.5
 22
105.0
 13
0.0
 23
0.0
 14
10.0
 24
10.0
 15
10.0
 25
10.0
 16
0.0
 26
0.0
 36
1.0
 17
0.0
 27
0.0
 37
0.0
 40
210.0
 41
1.4142857143
 42
50.0
 43
0.0
 44
0.0
 50
0.0
 51
0.0
 71
     0
 72
  2000
 73
     1
 74
     3
 75
     0
 76
     0
 77
     0
 78
     0
281
     0
 65
     1
110
0.0
120
0.0
130
0.0
111
1.0
121
0.0
131
0.0
112
0.0
122
1.0
132
0.0
 79
     0
146
0.0
  0
ENDTAB
  0
TABLE
  2
LTYPE
  5
5
330
0
100
AcDbSymbolTable
 70
     8
  0
LTYPE
  5
14
330
5
100
AcDbSymbolTableRecord
100
AcDbLinetypeTableRecord
  2
ByBlock
 70
     0
  3

 72
    65
 73
     0
 40
0.0
  0
LTYPE
  5
15
330
5
100
AcDbSymbolTableRecord
100
AcDbLinetypeTableRecord
  2
ByLayer
 70
     0
  3

 72
    65
 73
     0
 40
0.0
  0
LTYPE
  5
16
330
5
100
AcDbSymbolTableRecord
100
AcDbLinetypeTableRecord
  2
Continuous
 70
     0
  3
Solid line
 72
    65
 73
     0
 40
0.0
  0
LTYPE
  5
3F
330
5
100
AcDbSymbolTableRecord
100
AcDbLinetypeTableRecord
  2
SLD-Durchgehend
 70
     0
  3
SolidWorks Line Style
 72
    65
 73
     0
 40
0.0
  0
LTYPE
  5
40
330
5
100
AcDbSymbolTableRecord
100
AcDbLinetypeTableRecord
  2
SLD-Gestrichelt
 70
     0
  3
SolidWorks Line Style
 72
    65
 73
     2
 40
1.905
 49
1.27
 74
     0
 49
-0.635
 74
     0
  0
LTYPE
  5
41
330
5
100
AcDbSymbolTableRecord
100
AcDbLinetypeTableRecord
  2
SLD-Phantom
 70
     0
  3
SolidWorks Line Style
 72
    65
 73
     6
 40
12.7
 49
6.35
 74
     0
 49
-1.27
 74
     0
 49
1.27
 74
     0
 49
-1.27
 74
     0
 49
1.27
 74
     0
 49
-1.27
 74
     0
  0
LTYPE
  5
42
330
5
100
AcDbSymbolTableRecord
100
AcDbLinetypeTableRecord
  2
SLD-Kette
 70
     0
  3
SolidWorks Line Style
 72
    65
 73
     4
 40
10.16
 49
6.35
 74
     0
 49
-1.27
 74
     0
 49
1.27
 74
     0
 49
-1.27
 74
     0
  0
LTYPE
  5
43
330
5
100
AcDbSymbolTableRecord
100
AcDbLinetypeTableRecord
  2
SLD-Punktstrich
 70
     0
  3
SolidWorks Line Style
 72
    65
 73
     4
 40
19.05
 49
15.24
 74
     0
 49
-1.27
 74
     0
 49
1.27
 74
     0
 49
-1.27
 74
     0
  0
LTYPE
  5
44
330
5
100
AcDbSymbolTableRecord
100
AcDbLinetypeTableRecord
  2
SLD-Naht
 70
     0
  3
SolidWorks Line Style
 72
    65
 73
     2
 40
0.635
 49
0.0
 74
     0
 49
-0.635
 74
     0
  0
LTYPE
  5
45
330
5
100
AcDbSymbolTableRecord
100
AcDbLinetypeTableRecord
  2
SLD-Dicke-Dünne-Kette
 70
     0
  3
SolidWorks Line Style
 72
    65
 73
     4
 40
10.16
 49
6.35
 74
     0
 49
-1.27
 74
     0
 49
1.27
 74
     0
 49
-1.27
 74
     0
  0
ENDTAB
  0
TABLE
  2
LAYER
  5
2
330
0
100
AcDbSymbolTable
 70
     5
  0
LAYER
  5
10
330
2
100
AcDbSymbolTableRecord
100
AcDbLayerTableRecord
  2
0
 70
     0
 62
     7
  6
Continuous
370
    -3
390
F
  0
LAYER
  5
46
330
2
100
AcDbSymbolTableRecord
100
AcDbLayerTableRecord
  2
FORMAT
 70
     0
 62
     7
  6
SLD-Durchgehend
370
    -3
390
F
  0
LAYER
  5
47
330
2
100
AcDbSymbolTableRecord
100
AcDbLayerTableRecord
  2
VERMASSUNG
 70
     0
 62
     7
  6
SLD-Durchgehend
370
    -3
390
F
  0
LAYER
  5
48
330
2
100
AcDbSymbolTableRecord
100
AcDbLayerTableRecord
  2
KOPF_DÜNN
 70
     0
 62
     7
  6
SLD-Durchgehend
370
    -3
390
F
  0
LAYER
  5
49
330
2
100
AcDbSymbolTableRecord
100
AcDbLayerTableRecord
  2
KOPF_DICK
 70
     0
 62
     7
  6
SLD-Durchgehend
370
    15
390
F
  0
ENDTAB
  0
TABLE
  2
STYLE
  5
3
330
0
100
AcDbSymbolTable
 70
     2
  0
STYLE
  5
11
330
3
100
AcDbSymbolTableRecord
100
AcDbTextStyleTableRecord
  2
STANDARD
 70
     0
 40
0.0
 41
1.0
 50
0.0
 71
     0
 42
2.0
  3
ISOCPEUR.TTF
  4

1001
ACAD
1000
ISOCPEUR
1071
       34
  0
STYLE
  5
4A
330
3
100
AcDbSymbolTableRecord
100
AcDbTextStyleTableRecord
  2
SLDTEXTSTYLE0
 70
     0
 40
0.0
 41
1.0
 50
0.0
 71
     0
 42
0.2
  3
ISOCPEUR.TTF
  4

1001
ACAD
1000
ISOCPEUR
1071
      290
  0
ENDTAB
  0
TABLE
  2
VIEW
  5
6
330
0
100
AcDbSymbolTable
 70
     0
  0
ENDTAB
  0
TABLE
  2
UCS
  5
7
330
0
100
AcDbSymbolTable
 70
     0
  0
ENDTAB
  0
TABLE
  2
APPID
  5
9
330
0
100
AcDbSymbolTable
 70
     1
  0
APPID
  5
12
330
9
100
AcDbSymbolTableRecord
100
AcDbRegAppTableRecord
  2
ACAD
 70
     0
  0
ENDTAB
  0
TABLE
  2
DIMSTYLE
  5
A
330
0
100
AcDbSymbolTable
 70
     2
100
AcDbDimStyleTable
  0
DIMSTYLE
105
27
330
A
100
AcDbSymbolTableRecord
100
AcDbDimStyleTableRecord
  2
ISO-25
 70
     0
 41
2.5
 42
0.625
 43
3.75
 44
1.25
 73
     0
 74
     0
 77
     1
 78
     8
140
2.5
141
2.5
143
0.0393700787
147
0.625
171
     3
172
     1
178
     0
271
     2
272
     2
274
     3
278
    44
283
     0
284
     8
340
11
  0
DIMSTYLE
105
271
102
{ACAD_REACTORS
330
270
330
27D
330
287
330
291
330
29C
330
2A7
330
2B1
102
}
330
A
100
AcDbSymbolTableRecord
100
AcDbDimStyleTableRecord
  2
SLDDIMSTYLE0
 70
     0
 41
3.0
 44
0.0
 45
0.000000001
 73
     0
 74
     0
 77
     1
 78
    12
 79
     3
140
2.0
147
0.5
173
     1
178
     0
271
     2
272
     3
276
     2
284
    12
340
4A
  0
ENDTAB
  0
TABLE
  2
BLOCK_RECORD
  5
1
330
0
100
AcDbSymbolTable
 70
     8
  0
BLOCK_RECORD
  5
1F
330
1
100
AcDbSymbolTableRecord
100
AcDbBlockTableRecord
  2
*Model_Space
340
22
  0
BLOCK_RECORD
  5
1B
330
1
100
AcDbSymbolTableRecord
100
AcDbBlockTableRecord
  2
*Paper_Space
340
1E
  0
BLOCK_RECORD
  5
23
330
1
100
AcDbSymbolTableRecord
100
AcDbBlockTableRecord
  2
*Paper_Space0
340
26
  0
BLOCK_RECORD
  5
272
330
1
100
AcDbSymbolTableRecord
100
AcDbBlockTableRecord
  2
_D
340
0
  0
BLOCK_RECORD
  5
27E
330
1
100
AcDbSymbolTableRecord
100
AcDbBlockTableRecord
  2
_D_1
340
0
  0
BLOCK_RECORD
  5
288
330
1
100
AcDbSymbolTableRecord
100
AcDbBlockTableRecord
  2
_D_2
340
0
  0
BLOCK_RECORD
  5
292
330
1
100
AcDbSymbolTableRecord
100
AcDbBlockTableRecord
  2
_D_3
340
0
  0
BLOCK_RECORD
  5
29D
330
1
100
AcDbSymbolTableRecord
100
AcDbBlockTableRecord
  2
_D_4
340
0
  0
BLOCK_RECORD
  5
2A8
330
1
100
AcDbSymbolTableRecord
100
AcDbBlockTableRecord
  2
_D_5
340
0
  0
BLOCK_RECORD
  5
2B2
330
1
100
AcDbSymbolTableRecord
100
AcDbBlockTableRecord
  2
_D_6
340
0
  0
ENDTAB
  0
ENDSEC
  0
SECTION
  2
BLOCKS
  0
BLOCK
  5
20
330
1F
100
AcDbEntity
  8
0
100
AcDbBlockBegin
  2
*Model_Space
 70
     0
 10
0.0
 20
0.0
 30
0.0
  3
*Model_Space
  1

  0
ENDBLK
  5
21
330
1F
100
AcDbEntity
  8
0
100
AcDbBlockEnd
  0
BLOCK
  5
1C
330
1B
100
AcDbEntity
 67
     1
  8
0
100
AcDbBlockBegin
  2
*Paper_Space
 70
     0
 10
0.0
 20
0.0
 30
0.0
  3
*Paper_Space
  1

  0
ENDBLK
  5
1D
330
1B
100
AcDbEntity
 67
     1
  8
0
100
AcDbBlockEnd
  0
BLOCK
  5
24
330
23
100
AcDbEntity
  8
0
100
AcDbBlockBegin
  2
*Paper_Space0
 70
     0
 10
0.0
 20
0.0
 30
0.0
  3
*Paper_Space0
  1

  0
ENDBLK
  5
25
330
23
100
AcDbEntity
  8
0
100
AcDbBlockEnd
  0
BLOCK
  5
273
330
272
100
AcDbEntity
  8
0
100
AcDbBlockBegin
  2
_D
 70
     0
 10
0.0
 20
0.0
 30
0.0
  3
_D
  1

  0
SOLID
  5
275
330
272
100
AcDbEntity
  8
VERMASSUNG
100
AcDbTrace
 10
72.7709048697
 20
145.2087474333
 30
0.0
 11
72.3209048697
 21
142.2087474333
 31
0.0
 12
73.2209048697
 22
142.2087474333
 32
0.0
 13
73.2209048697
 23
142.2087474333
 33
0.0
  0
SOLID
  5
276
330
272
100
AcDbEntity
  8
VERMASSUNG
100
AcDbTrace
 10
72.7709048697
 20
82.2087474333
 30
0.0
 11
73.2209048697
 21
85.2087474333
 31
0.0
 12
72.3209048697
 22
85.2087474333
 32
0.0
 13
72.3209048697
 23
85.2087474333
 33
0.0
  0
LINE
  5
277
330
272
100
AcDbEntity
  8
VERMASSUNG
100
AcDbLine
 10
110.5154239951
 20
145.2087474333
 30
0.0
 11
71.7709048697
 21
145.2087474333
 31
0.0
  0
LINE
  5
278
330
272
100
AcDbEntity
  8
VERMASSUNG
100
AcDbLine
 10
110.5154239951
 20
82.2087474333
 30
0.0
 11
71.7709048697
 21
82.2087474333
 31
0.0
  0
LINE
  5
279
330
272
100
AcDbEntity
  8
VERMASSUNG
100
AcDbLine
 10
72.7709048697
 20
145.2087474333
 30
0.0
 11
72.7709048697
 21
82.2087474333
 31
0.0
  0
MTEXT
  5
27A
330
272
100
AcDbEntity
  8
VERMASSUNG
100
AcDbMText
 10
69.9709048602
 20
105.9919529903
 30
0.0
 40
2.0
 41
0.0
 71
     1
 72
     1
  1
HSK A 
  7
SLDTEXTSTYLE0
 11
-7.044195017643634E-15
 21
1.0
 31
0.0
 73
     1
 44
1.0
  0
MTEXT
  5
27B
330
272
100
AcDbEntity
  8
VERMASSUNG
100
AcDbMText
 10
70.1709048697
 20
114.9919535342
 30
0.0
 40
2.0
 41
0.0
 71
     1
 72
     1
  1
%%c
  7
SLDTEXTSTYLE0
 11
-7.044195017643634E-15
 21
1.0
 31
0.0
 73
     1
 44
1.0
  0
MTEXT
  5
27C
330
272
100
AcDbEntity
  8
VERMASSUNG
100
AcDbMText
 10
70.1709049862
 20
118.6010661436
 30
0.0
 40
2.0
 41
0.0
 71
     1
 72
     1
  1
63
  7
SLDTEXTSTYLE0
 11
-7.044195017643634E-15
 21
1.0
 31
0.0
 73
     1
 44
1.0
  0
ENDBLK
  5
274
330
272
100
AcDbEntity
  8
0
100
AcDbBlockEnd
  0
BLOCK
  5
27F
330
27E
100
AcDbEntity
  8
0
100
AcDbBlockBegin
  2
_D_1
 70
     0
 10
0.0
 20
0.0
 30
0.0
  3
_D_1
  1

  0
SOLID
  5
281
330
27E
100
AcDbEntity
  8
VERMASSUNG
100
AcDbTrace
 10
78.3154239951
 20
163.4757240091
 30
0.0
 11
81.3154239951
 21
163.0257240091
 31
0.0
 12
81.3154239951
 22
163.9257240091
 32
0.0
 13
81.3154239951
 23
163.9257240091
 33
0.0
  0
SOLID
  5
282
330
27E
100
AcDbEntity
  8
VERMASSUNG
100
AcDbTrace
 10
190.2154239951
 20
163.4757240091
 30
0.0
 11
187.2154239951
 21
163.9257240091
 31
0.0
 12
187.2154239951
 22
163.0257240091
 32
0.0
 13
187.2154239951
 23
163.0257240091
 33
0.0
  0
LINE
  5
283
330
27E
100
AcDbEntity
  8
VERMASSUNG
100
AcDbLine
 10
78.3154239951
 20
133.3994251797
 30
0.0
 11
78.3154239951
 21
164.4757240091
 31
0.0
  0
LINE
  5
284
330
27E
100
AcDbEntity
  8
VERMASSUNG
100
AcDbLine
 10
190.2154239951
 20
125.5087474333
 30
0.0
 11
190.2154239951
 21
164.4757240091
 31
0.0
  0
LINE
  5
285
330
27E
100
AcDbEntity
  8
VERMASSUNG
100
AcDbLine
 10
78.3154239951
 20
163.4757240091
 30
0.0
 11
190.2154239951
 21
163.4757240091
 31
0.0
  0
MTEXT
  5
286
330
27E
100
AcDbEntity
  8
VERMASSUNG
100
AcDbMText
 10
128.499712988
 20
166.0757238927
 30
0.0
 40
2.0
 41
0.0
 71
     1
 72
     1
  1
111.9
  7
SLDTEXTSTYLE0
 73
     1
 44
1.0
  0
ENDBLK
  5
280
330
27E
100
AcDbEntity
  8
0
100
AcDbBlockEnd
  0
BLOCK
  5
289
330
288
100
AcDbEntity
  8
0
100
AcDbBlockBegin
  2
_D_2
 70
     0
 10
0.0
 20
0.0
 30
0.0
  3
_D_2
  1

  0
SOLID
  5
28B
330
288
100
AcDbEntity
  8
VERMASSUNG
100
AcDbTrace
 10
110.2154239951
 20
157.4757240091
 30
0.0
 11
113.2154239951
 21
157.0257240091
 31
0.0
 12
113.2154239951
 22
157.9257240091
 32
0.0
 13
113.2154239951
 23
157.9257240091
 33
0.0
  0
SOLID
  5
28C
330
288
100
AcDbEntity
  8
VERMASSUNG
100
AcDbTrace
 10
190.2154239951
 20
157.4757240091
 30
0.0
 11
187.2154239951
 21
157.9257240091
 31
0.0
 12
187.2154239951
 22
157.0257240091
 32
0.0
 13
187.2154239951
 23
157.0257240091
 33
0.0
  0
LINE
  5
28D
330
288
100
AcDbEntity
  8
VERMASSUNG
100
AcDbLine
 10
110.2154239951
 20
144.9087474333
 30
0.0
 11
110.2154239951
 21
158.4757240091
 31
0.0
  0
LINE
  5
28E
330
288
100
AcDbEntity
  8
VERMASSUNG
100
AcDbLine
 10
190.2154239951
 20
125.5087474333
 30
0.0
 11
190.2154239951
 21
158.4757240091
 31
0.0
  0
LINE
  5
28F
330
288
100
AcDbEntity
  8
VERMASSUNG
100
AcDbLine
 10
110.2154239951
 20
157.4757240091
 30
0.0
 11
190.2154239951
 21
157.4757240091
 31
0.0
  0
MTEXT
  5
290
330
288
100
AcDbEntity
  8
VERMASSUNG
100
AcDbMText
 10
152.8204494361
 20
160.0757238927
 30
0.0
 40
2.0
 41
0.0
 71
     1
 72
     1
  1
80
  7
SLDTEXTSTYLE0
 73
     1
 44
1.0
  0
ENDBLK
  5
28A
330
288
100
AcDbEntity
  8
0
100
AcDbBlockEnd
  0
BLOCK
  5
293
330
292
100
AcDbEntity
  8
0
100
AcDbBlockBegin
  2
_D_3
 70
     0
 10
0.0
 20
0.0
 30
0.0
  3
_D_3
  1

  0
SOLID
  5
295
330
292
100
AcDbEntity
  8
VERMASSUNG
100
AcDbTrace
 10
197.8410986367
 20
123.2087474333
 30
0.0
 11
197.3910986367
 21
120.2087474333
 31
0.0
 12
198.2910986367
 22
120.2087474333
 32
0.0
 13
198.2910986367
 23
120.2087474333
 33
0.0
  0
SOLID
  5
296
330
292
100
AcDbEntity
  8
VERMASSUNG
100
AcDbTrace
 10
197.8410986367
 20
104.2087474333
 30
0.0
 11
198.2910986367
 21
107.2087474333
 31
0.0
 12
197.3910986367
 22
107.2087474333
 32
0.0
 13
197.3910986367
 23
107.2087474333
 33
0.0
  0
LINE
  5
297
330
292
100
AcDbEntity
  8
VERMASSUNG
100
AcDbLine
 10
189.5154239951
 20
123.2087474333
 30
0.0
 11
198.8410986367
 21
123.2087474333
 31
0.0
  0
LINE
  5
298
330
292
100
AcDbEntity
  8
VERMASSUNG
100
AcDbLine
 10
189.5154239951
 20
104.2087474333
 30
0.0
 11
198.8410986367
 21
104.2087474333
 31
0.0
  0
LINE
  5
299
330
292
100
AcDbEntity
  8
VERMASSUNG
100
AcDbLine
 10
197.8410986367
 20
123.2087474333
 30
0.0
 11
197.8410986367
 21
104.2087474333
 31
0.0
  0
MTEXT
  5
29A
330
292
100
AcDbEntity
  8
VERMASSUNG
100
AcDbMText
 10
195.2410986367
 20
110.7047820787
 30
0.0
 40
2.0
 41
0.0
 71
     1
 72
     1
  1
%%c
  7
SLDTEXTSTYLE0
 11
-7.044195017643634E-15
 21
1.0
 31
0.0
 73
     1
 44
1.0
  0
MTEXT
  5
29B
330
292
100
AcDbEntity
  8
VERMASSUNG
100
AcDbMText
 10
195.2410987531
 20
114.3145680612
 30
0.0
 40
2.0
 41
0.0
 71
     1
 72
     1
  1
19
  7
SLDTEXTSTYLE0
 11
-7.044195017643634E-15
 21
1.0
 31
0.0
 73
     1
 44
1.0
  0
ENDBLK
  5
294
330
292
100
AcDbEntity
  8
0
100
AcDbBlockEnd
  0
BLOCK
  5
29E
330
29D
100
AcDbEntity
  8
0
100
AcDbBlockBegin
  2
_D_4
 70
     0
 10
0.0
 20
0.0
 30
0.0
  3
_D_4
  1

  0
SOLID
  5
2A0
330
29D
100
AcDbEntity
  8
VERMASSUNG
100
AcDbTrace
 10
203.8410986367
 20
129.7087474333
 30
0.0
 11
203.3910986367
 21
126.7087474333
 31
0.0
 12
204.2910986367
 22
126.7087474333
 32
0.0
 13
204.2910986367
 23
126.7087474333
 33
0.0
  0
SOLID
  5
2A1
330
29D
100
AcDbEntity
  8
VERMASSUNG
100
AcDbTrace
 10
203.8410986367
 20
97.7087474333
 30
0.0
 11
204.2910986367
 21
100.7087474333
 31
0.0
 12
203.3910986367
 22
100.7087474333
 32
0.0
 13
203.3910986367
 23
100.7087474333
 33
0.0
  0
LINE
  5
2A2
330
29D
100
AcDbEntity
  8
VERMASSUNG
100
AcDbLine
 10
188.6654239951
 20
129.7087474333
 30
0.0
 11
204.8410986367
 21
129.7087474333
 31
0.0
  0
LINE
  5
2A3
330
29D
100
AcDbEntity
  8
VERMASSUNG
100
AcDbLine
 10
188.6654239951
 20
97.7087474333
 30
0.0
 11
204.8410986367
 21
97.7087474333
 31
0.0
  0
LINE
  5
2A4
330
29D
100
AcDbEntity
  8
VERMASSUNG
100
AcDbLine
 10
203.8410986367
 20
129.7087474333
 30
0.0
 11
203.8410986367
 21
97.7087474333
 31
0.0
  0
MTEXT
  5
2A5
330
29D
100
AcDbEntity
  8
VERMASSUNG
100
AcDbMText
 10
201.2410986367
 20
110.5049366849
 30
0.0
 40
2.0
 41
0.0
 71
     1
 72
     1
  1
%%c
  7
SLDTEXTSTYLE0
 11
-7.044195017643634E-15
 21
1.0
 31
0.0
 73
     1
 44
1.0
  0
MTEXT
  5
2A6
330
29D
100
AcDbEntity
  8
VERMASSUNG
100
AcDbMText
 10
201.2410987531
 20
114.1147226674
 30
0.0
 40
2.0
 41
0.0
 71
     1
 72
     1
  1
32
  7
SLDTEXTSTYLE0
 11
-7.044195017643634E-15
 21
1.0
 31
0.0
 73
     1
 44
1.0
  0
ENDBLK
  5
29F
330
29D
100
AcDbEntity
  8
0
100
AcDbBlockEnd
  0
BLOCK
  5
2A9
330
2A8
100
AcDbEntity
  8
0
100
AcDbBlockBegin
  2
_D_5
 70
     0
 10
0.0
 20
0.0
 30
0.0
  3
_D_5
  1

  0
SOLID
  5
2AB
330
2A8
100
AcDbEntity
  8
VERMASSUNG
100
AcDbTrace
 10
190.2154239951
 20
151.4757240091
 30
0.0
 11
187.2154239951
 21
151.9257240091
 31
0.0
 12
187.2154239951
 22
151.0257240091
 32
0.0
 13
187.2154239951
 23
151.0257240091
 33
0.0
  0
SOLID
  5
2AC
330
2A8
100
AcDbEntity
  8
VERMASSUNG
100
AcDbTrace
 10
136.1654239951
 20
151.4757240091
 30
0.0
 11
139.1654239951
 21
151.0257240091
 31
0.0
 12
139.1654239951
 22
151.9257240091
 32
0.0
 13
139.1654239951
 23
151.9257240091
 33
0.0
  0
LINE
  5
2AD
330
2A8
100
AcDbEntity
  8
VERMASSUNG
100
AcDbLine
 10
190.2154239951
 20
125.5087474333
 30
0.0
 11
190.2154239951
 21
152.4757240091
 31
0.0
  0
LINE
  5
2AE
330
2A8
100
AcDbEntity
  8
VERMASSUNG
100
AcDbLine
 10
136.1654239951
 20
143.555187757
 30
0.0
 11
136.1654239951
 21
152.4757240091
 31
0.0
  0
LINE
  5
2AF
330
2A8
100
AcDbEntity
  8
VERMASSUNG
100
AcDbLine
 10
190.2154239951
 20
151.4757240091
 30
0.0
 11
136.1654239951
 21
151.4757240091
 31
0.0
  0
MTEXT
  5
2B0
330
2A8
100
AcDbEntity
  8
VERMASSUNG
100
AcDbMText
 10
161.8524335941
 20
154.0757238927
 30
0.0
 40
2.0
 41
0.0
 71
     1
 72
     1
  1
54.05
  7
SLDTEXTSTYLE0
 73
     1
 44
1.0
  0
ENDBLK
  5
2AA
330
2A8
100
AcDbEntity
  8
0
100
AcDbBlockEnd
  0
BLOCK
  5
2B3
330
2B2
100
AcDbEntity
  8
0
100
AcDbBlockBegin
  2
_D_6
 70
     0
 10
0.0
 20
0.0
 30
0.0
  3
_D_6
  1

  0
SOLID
  5
2B5
330
2B2
100
AcDbEntity
  8
VERMASSUNG
100
AcDbTrace
 10
209.8410986367
 20
130.7087474333
 30
0.0
 11
209.3910986367
 21
127.7087474333
 31
0.0
 12
210.2910986367
 22
127.7087474333
 32
0.0
 13
210.2910986367
 23
127.7087474333
 33
0.0
  0
SOLID
  5
2B6
330
2B2
100
AcDbEntity
  8
VERMASSUNG
100
AcDbTrace
 10
209.8410986367
 20
96.7087474333
 30
0.0
 11
210.2910986367
 21
99.7087474333
 31
0.0
 12
209.3910986367
 22
99.7087474333
 32
0.0
 13
209.3910986367
 23
99.7087474333
 33
0.0
  0
LINE
  5
2B7
330
2B2
100
AcDbEntity
  8
VERMASSUNG
100
AcDbLine
 10
153.2154239951
 20
130.7087474333
 30
0.0
 11
210.8410986367
 21
130.7087474333
 31
0.0
  0
LINE
  5
2B8
330
2B2
100
AcDbEntity
  8
VERMASSUNG
100
AcDbLine
 10
153.2154239951
 20
96.7087474333
 30
0.0
 11
210.8410986367
 21
96.7087474333
 31
0.0
  0
LINE
  5
2B9
330
2B2
100
AcDbEntity
  8
VERMASSUNG
100
AcDbLine
 10
209.8410986367
 20
130.7087474333
 30
0.0
 11
209.8410986367
 21
96.7087474333
 31
0.0
  0
MTEXT
  5
2BA
330
2B2
100
AcDbEntity
  8
VERMASSUNG
100
AcDbMText
 10
207.2410986367
 20
110.4043855433
 30
0.0
 40
2.0
 41
0.0
 71
     1
 72
     1
  1
%%c
  7
SLDTEXTSTYLE0
 11
-7.044195017643634E-15
 21
1.0
 31
0.0
 73
     1
 44
1.0
  0
MTEXT
  5
2BB
330
2B2
100
AcDbEntity
  8
VERMASSUNG
100
AcDbMText
 10
207.2410987531
 20
114.0141715258
 30
0.0
 40
2.0
 41
0.0
 71
     1
 72
     1
  1
34
  7
SLDTEXTSTYLE0
 11
-7.044195017643634E-15
 21
1.0
 31
0.0
 73
     1
 44
1.0
  0
ENDBLK
  5
2B4
330
2B2
100
AcDbEntity
  8
0
100
AcDbBlockEnd
  0
ENDSEC
  0
SECTION
  2
ENTITIES
  0
MTEXT
  5
4B
330
1F
100
AcDbEntity
  8
KOPF_DÜNN
100
AcDbMText
 10
13.8892156294
 20
23.8770940835
 30
0.0
 40
3.0
 41
0.0
 71
     1
 72
     1
  1
HA6.Go1.K01.080
  7
SLDTEXTSTYLE0
 73
     1
 44
1.0
  0
MTEXT
  5
4C
330
1F
100
AcDbEntity
  8
VERMASSUNG
100
AcDbMText
 10
13.9329988022
 20
28.9162328764
 30
0.0
 40
3.0
 41
0.0
 71
     1
 72
     1
  1
Gewindeschneidfutter_Tapping chuck
  7
SLDTEXTSTYLE0
 73
     1
 44
1.0
  0
MTEXT
  5
4D
330
1F
100
AcDbEntity
  8
VERMASSUNG
100
AcDbMText
 10
98.8601118557
 20
13.8584013384
 30
0.0
 40
2.0
 41
0.0
 71
     1
 72
     1
  1
Datum: 12.10.2006
  7
SLDTEXTSTYLE0
 73
     1
 44
1.0
  0
MTEXT
  5
4E
330
1F
100
AcDbEntity
  8
VERMASSUNG
100
AcDbMText
 10
13.933048693
 20
18.0701447943
 30
0.0
 40
2.0
 41
0.0
 71
     1
 72
     1
  1
DIN 69 893 HSK A 63
  7
SLDTEXTSTYLE0
 73
     1
 44
1.0
  0
MTEXT
  5
4F
330
1F
100
AcDbEntity
  8
VERMASSUNG
100
AcDbMText
 10
13.9808475933
 20
13.9309618897
 30
0.0
 40
2.0
 41
0.0
 71
     1
 72
     1
  1
Gewicht: 902g
  7
SLDTEXTSTYLE0
 73
     1
 44
1.0
  0
LINE
  5
50
330
1F
100
AcDbEntity
  8
0
  6
SLD-Durchgehend
 62
     7
370
    15
100
AcDbLine
 10
180.66542446
 20
129.7087481932
 30
0.0
 11
169.1654235063
 21
129.7087481932
 31
0.0
  0
LINE
  5
51
330
1F
100
AcDbEntity
  8
0
  6
SLD-Durchgehend
 62
     7
370
    15
100
AcDbLine
 10
169.1654235063
 20
97.7087466733
 30
0.0
 11
180.66542446
 21
97.7087466733
 31
0.0
  0
ARC
  5
52
330
1F
100
AcDbEntity
  8
0
  6
SLD-Durchgehend
 62
     7
370
    15
100
AcDbCircle
 10
181.0118341566
 20
129.9087474333
 30
0.0
 40
0.4000000000000173
100
AcDbArc
 50
210.0
 51
270.0
  0
ARC
  5
53
330
1F
100
AcDbEntity
  8
0
  6
SLD-Durchgehend
 62
     7
370
    15
100
AcDbCircle
 10
181.0118341566
 20
97.5087474333
 30
0.0
 40
0.4000000000000199
100
AcDbArc
 50
90.0
 51
150.0
  0
ARC
  5
54
330
1F
100
AcDbEntity
  8
0
  6
SLD-Durchgehend
 62
     7
370
    15
100
AcDbCircle
 10
165.0118341566
 20
129.9087474333
 30
0.0
 40
0.4000000000000069
100
AcDbArc
 50
210.0
 51
270.0
  0
ARC
  5
55
330
1F
100
AcDbEntity
  8
0
  6
SLD-Durchgehend
 62
     7
370
    15
100
AcDbCircle
 10
165.0118341566
 20
97.5087474333
 30
0.0
 40
0.4000000000000199
100
AcDbArc
 50
90.0
 51
150.0
  0
LINE
  5
56
330
1F
100
AcDbEntity
  8
0
  6
SLD-Durchgehend
 62
     7
370
    15
100
AcDbLine
 10
188.6654257713
 20
129.7087481932
 30
0.0
 11
185.1654261289
 21
129.7087481932
 31
0.0
  0
LINE
  5
57
330
1F
100
AcDbEntity
  8
0
  6
SLD-Durchgehend
 62
     7
370
    15
100
AcDbLine
 10
185.1654261289
 20
97.7087466733
 30
0.0
 11
188.6654257713
 21
97.7087466733
 31
0.0
  0
ARC
  5
58
330
1F
100
AcDbEntity
  8
0
  6
SLD-Durchgehend
 62
     7
370
    15
100
AcDbCircle
 10
188.6654239951
 20
128.7087474333
 30
0.0
 40
1.0
100
AcDbArc
 50
360.0
 51
90.0
  0
ARC
  5
59
330
1F
100
AcDbEntity
  8
0
  6
SLD-Durchgehend
 62
     7
370
    15
100
AcDbCircle
 10
188.6654239951
 20
98.7087474333
 30
0.0
 40
1.0
100
AcDbArc
 50
270.0
 51
0.0
  0
ARC
  5
5A
330
1F
100
AcDbEntity
  8
0
  6
SLD-Durchgehend
 62
     7
370
    15
100
AcDbCircle
 10
161.1654239951
 20
128.7087474333
 30
0.0
 40
1.0
100
AcDbArc
 50
90.0
 51
180.0
  0
ARC
  5
5B
330
1F
100
AcDbEntity
  8
0
  6
SLD-Durchgehend
 62
     7
370
    15
100
AcDbCircle
 10
161.1654239951
 20
98.7087474333
 30
0.0
 40
1.0
100
AcDbArc
 50
180.0
 51
270.0
  0
LINE
  5
5C
330
1F
100
AcDbEntity
  8
0
  6
SLD-Durchgehend
 62
     7
370
    15
100
AcDbLine
 10
164.6654255627
 20
129.7087481932
 30
0.0
 11
161.165422195
 21
129.7087481932
 31
0.0
  0
LINE
  5
5D
330
1F
100
AcDbEntity
  8
0
  6
SLD-Durchgehend
 62
     7
370
    15
100
AcDbLine
 10
161.165422195
 20
97.7087466733
 30
0.0
 11
164.6654255627
 21
97.7087466733
 31
0.0
  0
ARC
  5
5E
330
1F
100
AcDbEntity
  8
0
  6
SLD-Durchgehend
 62
     7
370
    15
100
AcDbCircle
 10
184.8190138336
 20
129.9087474333
 30
0.0
 40
0.4000000000000069
100
AcDbArc
 50
270.0
 51
330.0
  0
ARC
  5
5F
330
1F
100
AcDbEntity
  8
0
  6
SLD-Durchgehend
 62
     7
370
    15
100
AcDbCircle
 10
184.8190138336
 20
97.5087474333
 30
0.0
 40
0.4000000000000199
100
AcDbArc
 50
30.0
 51
90.0
  0
ARC
  5
60
330
1F
100
AcDbEntity
  8
0
  6
SLD-Durchgehend
 62
     7
370
    15
100
AcDbCircle
 10
168.8190138336
 20
129.9087474333
 30
0.0
 40
0.4000000000000069
100
AcDbArc
 50
270.0
 51
330.0
  0
ARC
  5
61
330
1F
100
AcDbEntity
  8
0
  6
SLD-Durchgehend
 62
     7
370
    15
100
AcDbCircle
 10
168.8190138336
 20
97.5087474333
 30
0.0
 40
0.4000000000000199
100
AcDbArc
 50
30.0
 51
90.0
  0
LINE
  5
62
330
1F
100
AcDbEntity
  8
0
  6
SLD-Durchgehend
 62
     7
370
    15
100
AcDbLine
 10
168.8190124868
 20
129.5087466703
 30
0.0
 11
165.011832857
 21
129.5087466703
 31
0.0
  0
LINE
  5
63
330
1F
100
AcDbEntity
  8
0
  6
SLD-Durchgehend
 62
     7
370
    15
100
AcDbLine
 10
165.011832857
 20
97.9087481962
 30
0.0
 11
168.8190124868
 21
97.9087481962
 31
0.0
  0
LINE
  5
64
330
1F
100
AcDbEntity
  8
0
  6
SLD-Durchgehend
 62
     7
370
    15
100
AcDbLine
 10
184.8190113841
 20
129.5087466703
 30
0.0
 11
181.0118317543
 21
129.5087466703
 31
0.0
  0
LINE
  5
65
330
1F
100
AcDbEntity
  8
0
  6
SLD-Durchgehend
 62
     7
370
    15
100
AcDbLine
 10
181.0118317543
 20
97.9087481962
 30
0.0
 11
184.8190113841
 21
97.9087481962
 31
0.0
  0
ARC
  5
66
330
1F
100
AcDbEntity
  8
0
  6
SLD-Durchgehend
 62
     7
370
    15
100
AcDbCircle
 10
110.5154239951
 20
82.5087474333
 30
0.0
 40
0.2999999999999972
100
AcDbArc
 50
180.0
 51
270.0
  0
ARC
  5
67
330
1F
100
AcDbEntity
  8
0
  6
SLD-Durchgehend
 62
     7
370
    15
100
AcDbCircle
 10
110.5154239951
 20
144.9087474333
 30
0.0
 40
0.3000000000000114
100
AcDbArc
 50
90.0
 51
180.0
  0
LINE
  5
68
330
1F
100
AcDbEntity
  8
0
  6
SLD-Durchgehend
 62
     7
370
    15
100
AcDbLine
 10
110.5154240093
 20
82.2087469266
 30
0.0
 11
115.1654239683
 21
82.2087469266
 31
0.0
  0
LINE
  5
69
330
1F
100
AcDbEntity
  8
0
  6
SLD-Durchgehend
 62
     7
370
    15
100
AcDbLine
 10
115.1747320717
 20
145.2087479399
 30
0.0
 11
110.5154240093
 21
145.2087479399
 31
0.0
  0
ARC
  5
6A
330
1F
100
AcDbEntity
  8
0
  6
SLD-Durchgehend
 62
     7
370
    15
100
AcDbCircle
 10
109.7154172424
 20
89.1383098189
 30
0.0
 40
0.6000067526677164
100
AcDbArc
 50
33.5571153394
 51
90.0
  0
ARC
  5
6B
330
1F
100
AcDbEntity
  8
0
  6
SLD-Durchgehend
 62
     7
370
    15
100
AcDbCircle
 10
109.7154172424
 20
138.2791850477
 30
0.0
 40
0.6000067526677321
100
AcDbArc
 50
270.0
 51
326.4428846606
  0
LINE
  5
6C
330
1F
100
AcDbEntity
  8
0
  6
SLD-Durchgehend
 62
     7
370
    15
100
AcDbLine
 10
108.2154239001
 20
89.4883162098
 30
0.0
 11
109.0721368263
 21
89.7178723232
 31
0.0
  0
LINE
  5
6D
330
1F
100
AcDbEntity
  8
0
  6
SLD-Durchgehend
 62
     7
370
    15
100
AcDbLine
 10
109.0721368263
 20
137.6996225433
 30
0.0
 11
108.2154239001
 21
137.9291786568
 31
0.0
  0
LINE
  5
6E
330
1F
100
AcDbEntity
  8
0
  6
SLD-Durchgehend
 62
     7
370
    15
100
AcDbLine
 10
96.9839155613
 20
137.3664772825
 30
0.0
 11
84.4154231189
 21
136.736793326
 31
0.0
  0
LINE
  5
6F
330
1F
100
AcDbEntity
  8
0
  6
SLD-Durchgehend
 62
     7
370
    15
100
AcDbLine
 10
108.2154239001
 20
137.9291786568
 30
0.0
 11
105.3984224735
 21
137.7880460338
 31
0.0
  0
LINE
  5
70
330
1F
100
AcDbEntity
  8
0
  6
SLD-Durchgehend
 62
     7
370
    15
100
AcDbLine
 10
105.3984783529
 20
89.6294469701
 30
0.0
 11
108.2154239001
 21
89.4883162098
 31
0.0
  0
LINE
  5
71
330
1F
100
AcDbEntity
  8
0
  6
SLD-Durchgehend
 62
     7
370
    15
100
AcDbLine
 10
88.4154237746
 20
90.4803014116
 30
0.0
 11
96.9843178926
 21
90.0509970949
 31
0.0
  0
ARC
  5
72
330
1F
100
AcDbEntity
  8
0
  6
SLD-Durchgehend
 62
     7
370
    15
100
AcDbCircle
 10
109.2274281955
 20
89.1383165715
 30
0.0
 40
0.5999999999999943
100
AcDbArc
 50
90.0
 51
105.0
  0
ARC
  5
73
330
1F
100
AcDbEntity
  8
0
  6
SLD-Durchgehend
 62
     7
370
    15
100
AcDbCircle
 10
109.2274281955
 20
138.279178295
 30
0.0
 40
0.5999999999999943
100
AcDbArc
 50
255.0
 51
270.0
  0
LINE
  5
74
330
1F
100
AcDbEntity
  8
0
  6
SLD-Durchgehend
 62
     7
370
    15
100
AcDbLine
 10
109.2274282299
 20
89.7383167164
 30
0.0
 11
109.7154172193
 21
89.7383167164
 31
0.0
  0
LINE
  5
75
330
1F
100
AcDbEntity
  8
0
  6
SLD-Durchgehend
 62
     7
370
    15
100
AcDbLine
 10
109.7154172193
 20
137.6791781501
 30
0.0
 11
109.2274282299
 21
137.6791781501
 31
0.0
  0
ARC
  5
76
330
1F
100
AcDbEntity
  8
0
  6
SLD-Durchgehend
 62
     7
370
    15
100
AcDbCircle
 10
137.1654239951
 20
95.7087474333
 30
0.0
 40
1.0
100
AcDbArc
 50
90.0
 51
180.0
  0
ARC
  5
77
330
1F
100
AcDbEntity
  8
0
  6
SLD-Durchgehend
 62
     7
370
    15
100
AcDbCircle
 10
137.1654239951
 20
131.7087474333
 30
0.0
 40
1.0
100
AcDbArc
 50
180.0
 51
270.0
  0
LINE
  5
78
330
1F
100
AcDbEntity
  8
0
  6
SLD-Durchgehend
 62
     7
370
    15
100
AcDbLine
 10
137.1654238491
 20
96.7087465094
 30
0.0
 11
153.2154254554
 21
96.7087465094
 31
0.0
  0
LINE
  5
79
330
1F
100
AcDbEntity
  8
0
  6
SLD-Durchgehend
 62
     7
370
    15
100
AcDbLine
 10
153.2154254554
 20
130.7087483571
 30
0.0
 11
137.1654238491
 21
130.7087483571
 31
0.0
  0
ARC
  5
7A
330
1F
100
AcDbEntity
  8
0
  6
SLD-Durchgehend
 62
     7
370
    15
100
AcDbCircle
 10
153.2154239951
 20
129.7087474333
 30
0.0
 40
1.0
100
AcDbArc
 50
0.0
 51
90.0
  0
ARC
  5
7B
330
1F
100
AcDbEntity
  8
0
  6
SLD-Durchgehend
 62
     7
370
    15
100
AcDbCircle
 10
153.2154239951
 20
97.7087474333
 30
0.0
 40
1.0
100
AcDbArc
 50
270.0
 51
0.0
  0
ARC
  5
7C
330
1F
100
AcDbEntity
  8
0
  6
SLD-Durchgehend
 62
     7
370
    15
100
AcDbCircle
 10
154.8154239951
 20
128.2337474333
 30
0.0
 40
0.6000000000000227
100
AcDbArc
 50
180.0
 51
270.0
  0
ARC
  5
7D
330
1F
100
AcDbEntity
  8
0
  6
SLD-Durchgehend
 62
     7
370
    15
100
AcDbCircle
 10
154.8154239951
 20
99.1837474333
 30
0.0
 40
0.6000000000000085
100
AcDbArc
 50
90.0
 51
180.0
  0
LINE
  5
7E
330
1F
100
AcDbEntity
  8
0
  6
SLD-Durchgehend
 62
     7
370
    15
100
AcDbLine
 10
160.1654238938
 20
127.6337475271
 30
0.0
 11
154.8154227374
 21
127.6337475271
 31
0.0
  0
LINE
  5
7F
330
1F
100
AcDbEntity
  8
0
  6
SLD-Durchgehend
 62
     7
370
    15
100
AcDbLine
 10
154.8154227374
 20
99.7837473394
 30
0.0
 11
160.1654238938
 21
99.7837473394
 31
0.0
  0
LINE
  5
80
330
1F
100
AcDbEntity
  8
0
  6
SLD-Durchgehend
 62
     7
370
    15
100
AcDbLine
 10
79.5987605987
 20
92.8387473093
 30
0.0
 11
87.0154242901
 21
92.8387473093
 31
0.0
  0
LINE
  5
81
330
1F
100
AcDbEntity
  8
0
  6
SLD-Durchgehend
 62
     7
370
    15
100
AcDbLine
 10
190.215422207
 20
125.5087478773
 30
0.0
 11
189.6654203473
 21
126.0587478743
 31
0.0
  0
LINE
  5
82
330
1F
100
AcDbEntity
  8
0
  6
SLD-Durchgehend
 62
     7
370
    15
100
AcDbLine
 10
189.6654203473
 20
101.3587469922
 30
0.0
 11
190.215422207
 21
101.9087469892
 31
0.0
  0
ARC
  5
83
330
1F
100
AcDbEntity
  8
0
  6
SLD-Durchgehend
 62
     7
370
    15
100
AcDbCircle
 10
87.0154239951
 20
91.4387474333
 30
0.0
 40
1.400000000000006
100
AcDbArc
 50
42.2465410162
 51
90.0
  0
LINE
  5
84
330
1F
100
AcDbEntity
  8
0
  6
SLD-Durchgehend
 62
     7
370
    15
100
AcDbLine
 10
78.3164560734
 20
93.9877143817
 30
0.0
 11
79.4565867571
 21
92.8475836979
 31
0.0
  0
LINE
  5
85
330
1F
100
AcDbEntity
  8
0
  6
SLD-Durchgehend
 62
     7
370
    15
100
AcDbLine
 10
79.4565867571
 20
134.5699111687
 30
0.0
 11
78.3253259896
 21
133.4386485384
 31
0.0
  0
ARC
  5
86
330
1F
100
AcDbEntity
  8
0
  6
SLD-Durchgehend
 62
     7
370
    15
100
AcDbCircle
 10
83.0154239951
 20
135.9787474333
 30
0.0
 40
1.400000000000015
100
AcDbArc
 50
270.0
 51
301.7485287426
  0
LINE
  5
87
330
1F
100
AcDbEntity
  8
0
  6
SLD-Durchgehend
 62
     7
370
    15
100
AcDbLine
 10
83.0154236345
 20
134.5787475572
 30
0.0
 11
79.5896895169
 21
134.5787475572
 31
0.0
  0
LINE
  5
88
330
1F
100
AcDbEntity
  8
0
  6
SLD-Durchgehend
 62
     7
370
    15
100
AcDbLine
 10
180.66542446
 20
129.4874715374
 30
0.0
 11
180.66542446
 21
97.7087466733
 31
0.0
  0
LINE
  5
89
330
1F
100
AcDbEntity
  8
0
  6
SLD-Durchgehend
 62
     7
370
    15
100
AcDbLine
 10
180.66542446
 20
129.7087481932
 30
0.0
 11
180.66542446
 21
129.4874715374
 31
0.0
  0
LINE
  5
8A
330
1F
100
AcDbEntity
  8
0
  6
SLD-Durchgehend
 62
     7
370
    15
100
AcDbLine
 10
169.1654235063
 20
129.4874715374
 30
0.0
 11
169.1654235063
 21
97.7087466733
 31
0.0
  0
LINE
  5
8B
330
1F
100
AcDbEntity
  8
0
  6
SLD-Durchgehend
 62
     7
370
    15
100
AcDbLine
 10
169.1654235063
 20
129.7087481932
 30
0.0
 11
169.1654235063
 21
129.4874715374
 31
0.0
  0
LINE
  5
8C
330
1F
100
AcDbEntity
  8
0
  6
SLD-Durchgehend
 62
     7
370
    15
100
AcDbLine
 10
164.6654255627
 20
129.4874715374
 30
0.0
 11
164.6654255627
 21
97.7087466733
 31
0.0
  0
LINE
  5
8D
330
1F
100
AcDbEntity
  8
0
  6
SLD-Durchgehend
 62
     7
370
    15
100
AcDbLine
 10
164.6654255627
 20
129.7087481932
 30
0.0
 11
164.6654255627
 21
129.4874715374
 31
0.0
  0
LINE
  5
8E
330
1F
100
AcDbEntity
  8
0
  6
SLD-Durchgehend
 62
     7
370
    15
100
AcDbLine
 10
185.1654261289
 20
129.4874715374
 30
0.0
 11
185.1654261289
 21
97.7087466733
 31
0.0
  0
LINE
  5
8F
330
1F
100
AcDbEntity
  8
0
  6
SLD-Durchgehend
 62
     7
370
    15
100
AcDbLine
 10
185.1654261289
 20
129.7087481932
 30
0.0
 11
185.1654261289
 21
129.4874715374
 31
0.0
  0
LINE
  5
90
330
1F
100
AcDbEntity
  8
0
  6
SLD-Durchgehend
 62
     7
370
    15
100
AcDbLine
 10
189.6654203473
 20
128.5013005824
 30
0.0
 11
189.6654203473
 21
98.7087477685
 31
0.0
  0
LINE
  5
91
330
1F
100
AcDbEntity
  8
0
  6
SLD-Durchgehend
 62
     7
370
    15
100
AcDbLine
 10
189.6654203473
 20
128.708747098
 30
0.0
 11
189.6654203473
 21
128.5013005824
 31
0.0
  0
LINE
  5
92
330
1F
100
AcDbEntity
  8
0
  6
SLD-Durchgehend
 62
     7
370
    15
100
AcDbLine
 10
160.1654238938
 20
128.5013005824
 30
0.0
 11
160.1654238938
 21
98.7087477685
 31
0.0
  0
LINE
  5
93
330
1F
100
AcDbEntity
  8
0
  6
SLD-Durchgehend
 62
     7
370
    15
100
AcDbLine
 10
160.1654238938
 20
128.708747098
 30
0.0
 11
160.1654238938
 21
128.5013005824
 31
0.0
  0
LINE
  5
94
330
1F
100
AcDbEntity
  8
0
  6
SLD-Durchgehend
 62
     7
370
    15
100
AcDbLine
 10
136.1654236851
 20
84.1484701948
 30
0.0
 11
136.1654236851
 21
133.5587481724
 31
0.0
  0
ARC
  5
95
330
1F
100
AcDbEntity
  8
0
  6
SLD-Durchgehend
 62
     7
370
    15
100
AcDbCircle
 10
135.5530057684
 20
84.1342860557
 30
0.0
 40
0.6125821533107684
100
AcDbArc
 50
271.1616423437
 51
1.3267835803
  0
LINE
  5
96
330
1F
100
AcDbEntity
  8
0
  6
SLD-Durchgehend
 62
     7
370
    15
100
AcDbLine
 10
135.5654247044
 20
133.5587481724
 30
0.0
 11
136.1654236851
 21
133.5587481724
 31
0.0
  0
LINE
  5
97
330
1F
100
AcDbEntity
  8
0
  6
SLD-Durchgehend
 62
     7
370
    15
100
AcDbLine
 10
135.5654247044
 20
83.5218298004
 30
0.0
 11
131.6073559163
 21
83.5218298004
 31
0.0
  0
LINE
  5
98
330
1F
100
AcDbEntity
  8
0
  6
SLD-Durchgehend
 62
     7
370
    15
100
AcDbLine
 10
131.6073559163
 20
83.5218298004
 30
0.0
 11
131.6073559163
 21
133.5587481724
 31
0.0
  0
LINE
  5
99
330
1F
100
AcDbEntity
  8
0
  6
SLD-Durchgehend
 62
     7
370
    15
100
AcDbLine
 10
131.6073559163
 20
133.5587481724
 30
0.0
 11
135.5654247044
 21
133.5587481724
 31
0.0
  0
LINE
  5
9A
330
1F
100
AcDbEntity
  8
0
  6
SLD-Durchgehend
 62
     7
370
    15
100
AcDbLine
 10
131.6073559163
 20
83.5218298004
 30
0.0
 11
130.1254242597
 21
86.2109101133
 31
0.0
  0
LINE
  5
9B
330
1F
100
AcDbEntity
  8
0
  6
SLD-Durchgehend
 62
     7
370
    15
100
AcDbLine
 10
130.1254242597
 20
86.2109101133
 30
0.0
 11
130.1254242597
 21
133.5587481724
 31
0.0
  0
LINE
  5
9C
330
1F
100
AcDbEntity
  8
0
  6
SLD-Durchgehend
 62
     7
370
    15
100
AcDbLine
 10
130.1254242597
 20
133.5587481724
 30
0.0
 11
131.6073559163
 21
133.5587481724
 31
0.0
  0
LINE
  5
9D
330
1F
100
AcDbEntity
  8
0
  6
SLD-Durchgehend
 62
     7
370
    15
100
AcDbLine
 10
110.2154239951
 20
82.5087482797
 30
0.0
 11
110.2154239951
 21
144.9087465869
 31
0.0
  0
LINE
  5
9E
330
1F
100
AcDbEntity
  8
0
  6
SLD-Durchgehend
 62
     7
370
    15
100
AcDbLine
 10
115.1654239683
 20
133.5587481724
 30
0.0
 11
124.8234914555
 21
133.5587481724
 31
0.0
  0
LINE
  5
9F
330
1F
100
AcDbEntity
  8
0
  6
SLD-Durchgehend
 62
     7
370
    15
100
AcDbLine
 10
124.8234914555
 20
83.5218298004
 30
0.0
 11
124.8234914555
 21
133.5587481724
 31
0.0
  0
LINE
  5
A0
330
1F
100
AcDbEntity
  8
0
  6
SLD-Durchgehend
 62
     7
370
    15
100
AcDbLine
 10
124.8234914555
 20
83.5218298004
 30
0.0
 11
123.1654243483
 21
83.5218298004
 31
0.0
  0
ARC
  5
A1
330
1F
100
AcDbEntity
  8
0
  6
SLD-Durchgehend
 62
     7
370
    15
100
AcDbCircle
 10
122.5056815724
 20
62.2735172433
 30
0.0
 40
21.25855232734715
100
AcDbArc
 50
88.2215841219
 51
110.1991894934
  0
LINE
  5
A2
330
1F
100
AcDbEntity
  8
0
  6
SLD-Durchgehend
 62
     7
370
    15
100
AcDbLine
 10
115.1654239683
 20
82.2246241139
 30
0.0
 11
115.1654239683
 21
82.2087469266
 31
0.0
  0
ARC
  5
A3
330
1F
100
AcDbEntity
  8
0
  6
SLD-Durchgehend
 62
     7
370
    15
100
AcDbCircle
 10
123.3378730762
 20
177.0105859919
 30
0.0
 40
32.83509597265148
100
AcDbArc
 50
255.6047115704
 51
269.6990832697
  0
LINE
  5
A4
330
1F
100
AcDbEntity
  8
0
  6
SLD-Durchgehend
 62
     7
370
    15
100
AcDbLine
 10
124.8234914555
 20
144.1759428696
 30
0.0
 11
123.1654243483
 21
144.1759428696
 31
0.0
  0
LINE
  5
A5
330
1F
100
AcDbEntity
  8
0
  6
SLD-Durchgehend
 62
     7
370
    15
100
AcDbLine
 10
124.8234914555
 20
138.1674370484
 30
0.0
 11
124.8234914555
 21
144.1759428696
 31
0.0
  0
LINE
  5
A6
330
1F
100
AcDbEntity
  8
0
  6
SLD-Durchgehend
 62
     7
370
    15
100
AcDbLine
 10
122.4110446809
 20
138.1674370484
 30
0.0
 11
124.8234914555
 21
138.1674370484
 31
0.0
  0
ARC
  5
A7
330
1F
100
AcDbEntity
  8
0
  6
SLD-Durchgehend
 62
     7
370
    15
100
AcDbCircle
 10
122.0412312978
 20
130.7488436599
 30
0.0
 40
7.427805180680926
100
AcDbArc
 50
87.1461947163
 51
157.7718644507
  0
LWPOLYLINE
  5
A8
330
1F
100
AcDbEntity
  8
0
  6
SLD-Durchgehend
 62
     7
370
    15
100
AcDbPolyline
 90
       39
 70
   128
 43
0.0
 10
118.2154243751
 20
138.7677117006
 10
117.556442873
 20
138.8010567741
 10
116.8974618366
 20
138.9034556912
 10
116.293929418
 20
139.0647030191
 10
115.7281723744
 20
139.2869780527
 10
115.2447065277
 20
139.5504454838
 10
114.8326009451
 20
139.85854003
 10
114.5253869644
 20
140.1838118897
 10
114.315899921
 20
140.532182412
 10
114.2223085216
 20
140.8705002384
 10
114.2405563904
 20
141.2096376286
 10
114.3680632984
 20
141.519300522
 10
114.6080986535
 20
141.8116296397
 10
114.9415954886
 20
142.0649773197
 10
115.3774316361
 20
142.2885170893
 10
115.883322799
 20
142.4678879546
 10
116.4712015478
 20
142.6096799539
 10
117.0920910252
 20
142.7047065215
 10
117.7639825208
 20
142.757756518
 10
118.4251069961
 20
142.7655703144
 10
119.0993249355
 20
142.7290941344
 10
119.7277218042
 20
142.6509375439
 10
120.3308351277
 20
142.52708468
 10
120.8615595414
 20
142.3644068406
 10
121.3317712708
 20
142.1557998972
 10
121.7044195099
 20
141.9140155183
 10
121.9871476231
 20
141.6301260458
 10
122.1555912806
 20
141.3266452716
 10
122.2154166488
 20
140.9923731105
 10
122.1622064648
 20
140.6575756834
 10
121.9953460558
 20
140.3107474314
 10
121.7290492667
 20
139.9824375974
 10
121.3558496846
 20
139.6653222607
 10
120.9033386721
 20
139.3865122215
 10
120.3607184751
 20
139.1433923261
 10
119.7709919824
 20
138.9586589055
 10
119.1186582608
 20
138.8306709693
 10
118.6730194776
 20
138.7837434874
 10
118.2154243751
 20
138.7677117006
  0
LWPOLYLINE
  5
A9
330
1F
100
AcDbEntity
  8
0
  6
SLD-Durchgehend
 62
     7
370
    15
100
AcDbPolyline
 90
       20
 70
   128
 43
0.0
 10
118.2154243751
 20
124.3296543823
 10
116.8974618366
 20
124.5412871928
 10
115.7281723744
 20
125.1473304571
 10
114.8326009451
 20
126.0746343748
 10
114.315899921
 20
127.2099259065
 10
114.2405563904
 20
128.406898001
 10
114.6080986535
 20
129.5278797613
 10
115.3774316361
 20
130.463668959
 10
116.4712015478
 20
131.1231030838
 10
117.7639825208
 20
131.4364167617
 10
119.0993249355
 20
131.3752772973
 10
120.3308351277
 20
130.9509909467
 10
121.3317712708
 20
130.198405938
 10
121.9871476231
 20
129.1834375577
 10
122.2154166488
 20
128.0162668542
 10
121.9953460558
 20
126.8312175514
 10
121.3558496846
 20
125.7577313797
 10
120.3607184751
 20
124.9189943762
 10
119.1186582608
 20
124.4276332424
 10
118.2154243751
 20
124.3296543823
  0
LINE
  5
AA
330
1F
100
AcDbEntity
  8
0
  6
SLD-Durchgehend
 62
     7
370
    15
100
AcDbLine
 10
126.3054240434
 20
86.2109101133
 30
0.0
 11
126.3054240434
 21
133.5587481724
 31
0.0
  0
LINE
  5
AB
330
1F
100
AcDbEntity
  8
0
  6
SLD-Durchgehend
 62
     7
370
    15
100
AcDbLine
 10
126.3054240434
 20
86.2109101133
 30
0.0
 11
124.8234914555
 21
83.5218298004
 31
0.0
  0
LINE
  5
AC
330
1F
100
AcDbEntity
  8
0
  6
SLD-Durchgehend
 62
     7
370
    15
100
AcDbLine
 10
124.8234914555
 20
133.5587481724
 30
0.0
 11
126.3054240434
 21
133.5587481724
 31
0.0
  0
ARC
  5
AD
330
1F
100
AcDbEntity
  8
0
  6
SLD-Durchgehend
 62
     7
370
    15
100
AcDbCircle
 10
118.2162709037
 20
125.6051043448
 30
0.0
 40
4.117467637020077
100
AcDbArc
 50
20.6241183064
 51
159.7585519937
  0
ARC
  5
AE
330
1F
100
AcDbEntity
  8
0
  6
SLD-Durchgehend
 62
     7
370
    15
100
AcDbCircle
 10
127.14535505
 20
140.8207540184
 30
0.0
 40
0.8399658136910538
100
AcDbArc
 50
179.4783948307
 51
237.9582309184
  0
LINE
  5
AF
330
1F
100
AcDbEntity
  8
0
  6
SLD-Durchgehend
 62
     7
370
    15
100
AcDbLine
 10
127.105424547
 20
140.1087472902
 30
0.0
 11
126.6997218071
 21
140.1087472902
 31
0.0
  0
LINE
  5
B0
330
1F
100
AcDbEntity
  8
0
  6
SLD-Durchgehend
 62
     7
370
    15
100
AcDbLine
 10
127.105424547
 20
87.3087475763
 30
0.0
 11
126.4030992924
 21
87.3087475763
 31
0.0
  0
LWPOLYLINE
  5
B1
330
1F
100
AcDbEntity
  8
0
  6
SLD-Durchgehend
 62
     7
370
    15
100
AcDbPolyline
 90
        3
 70
   128
 43
0.0
 10
126.3054240434
 20
133.8446139114
 10
126.3294782428
 20
133.5702835338
 10
126.331571856
 20
133.5587481724
  0
LINE
  5
B2
330
1F
100
AcDbEntity
  8
0
  6
SLD-Durchgehend
 62
     7
370
    15
100
AcDbLine
 10
130.0277490108
 20
87.3087475763
 30
0.0
 11
129.3254237561
 21
87.3087475763
 31
0.0
  0
LINE
  5
B3
330
1F
100
AcDbEntity
  8
0
  6
SLD-Durchgehend
 62
     7
370
    15
100
AcDbLine
 10
129.731126496
 20
140.1087472902
 30
0.0
 11
129.3254237561
 21
140.1087472902
 31
0.0
  0
ARC
  5
B4
330
1F
100
AcDbEntity
  8
0
  6
SLD-Durchgehend
 62
     7
370
    15
100
AcDbCircle
 10
129.286980739
 20
140.8199390256
 30
0.0
 40
0.8384862181329381
100
AcDbArc
 50
301.9851556421
 51
0.5782186088
  0
LWPOLYLINE
  5
B5
330
1F
100
AcDbEntity
  8
0
  6
SLD-Durchgehend
 62
     7
370
    15
100
AcDbPolyline
 90
        3
 70
   128
 43
0.0
 10
130.0992764471
 20
133.5587481724
 10
130.1193725256
 20
133.7064615206
 10
130.1254242597
 20
133.8446139114
  0
LINE
  5
B6
330
1F
100
AcDbEntity
  8
0
  6
SLD-Durchgehend
 62
     7
370
    15
100
AcDbLine
 10
129.3254237561
 20
140.1087472902
 30
0.0
 11
127.105424547
 21
140.1087472902
 31
0.0
  0
LINE
  5
B7
330
1F
100
AcDbEntity
  8
0
  6
SLD-Durchgehend
 62
     7
370
    15
100
AcDbLine
 10
129.3254237561
 20
87.3087475763
 30
0.0
 11
127.105424547
 21
87.3087475763
 31
0.0
  0
LINE
  5
B8
330
1F
100
AcDbEntity
  8
0
  6
SLD-Durchgehend
 62
     7
370
    15
100
AcDbLine
 10
108.2154239001
 20
89.4883162098
 30
0.0
 11
108.2154239001
 21
137.9291786568
 31
0.0
  0
LINE
  5
B9
330
1F
100
AcDbEntity
  8
0
  6
SLD-Durchgehend
 62
     7
370
    15
100
AcDbLine
 10
88.4154237746
 20
90.4803014116
 30
0.0
 11
88.4154237746
 21
91.7450095282
 31
0.0
  0
LWPOLYLINE
  5
BA
330
1F
100
AcDbEntity
  8
0
  6
SLD-Durchgehend
 62
     7
370
    15
100
AcDbPolyline
 90
        5
 70
   128
 43
0.0
 10
87.6371361254
 20
92.8755960183
 10
87.6693654744
 20
92.8210670815
 10
88.0868494449
 20
92.3409013764
 10
88.3843250511
 20
91.9022912846
 10
88.4154237746
 20
91.7450095282
  0
ARC
  5
BB
330
1F
100
AcDbEntity
  8
0
  6
SLD-Durchgehend
 62
     7
370
    15
100
AcDbCircle
 10
87.007638403
 20
92.6554383985
 30
0.0
 40
0.6668858673151984
100
AcDbArc
 50
19.2765376701
 51
89.3310570404
  0
LWPOLYLINE
  5
BC
330
1F
100
AcDbEntity
  8
0
  6
SLD-Durchgehend
 62
     7
370
    15
100
AcDbPolyline
 90
        3
 70
   128
 43
0.0
 10
84.7468994497
 20
93.0124333815
 10
86.3437972902
 20
93.2398418651
 10
87.0154242901
 20
93.3222788142
  0
ARC
  5
BD
330
1F
100
AcDbEntity
  8
0
  6
SLD-Durchgehend
 62
     7
370
    15
100
AcDbCircle
 10
80.7692118332
 20
133.5942055744
 30
0.0
 40
40.77624594156637
100
AcDbArc
 50
268.1676998007
 51
275.5980562838
  0
LINE
  5
BE
330
1F
100
AcDbEntity
  8
0
  6
SLD-Durchgehend
 62
     7
370
    15
100
AcDbLine
 10
79.4553797631
 20
92.8487944172
 30
0.0
 11
79.4654231457
 21
92.8388087766
 31
0.0
  0
LINE
  5
BF
330
1F
100
AcDbEntity
  8
0
  6
SLD-Durchgehend
 62
     7
370
    15
100
AcDbLine
 10
79.4654231457
 20
134.57868609
 30
0.0
 11
79.4553797631
 21
134.5687004493
 31
0.0
  0
LINE
  5
C0
330
1F
100
AcDbEntity
  8
0
  6
SLD-Durchgehend
 62
     7
370
    15
100
AcDbLine
 10
83.0154236345
 20
134.5318349765
 30
0.0
 11
79.4654231457
 21
134.57868609
 31
0.0
  0
ARC
  5
C1
330
1F
100
AcDbEntity
  8
0
  6
SLD-Durchgehend
 62
     7
370
    15
100
AcDbCircle
 10
82.9574992369
 20
136.0815933208
 30
0.0
 40
1.550840469419332
100
AcDbArc
 50
272.1405139456
 51
340.0660547734
  0
LINE
  5
C2
330
1F
100
AcDbEntity
  8
0
  6
SLD-Durchgehend
 62
     7
370
    15
100
AcDbLine
 10
84.4154231189
 20
135.5528550909
 30
0.0
 11
84.4154231189
 21
136.736793326
 31
0.0
  0
LWPOLYLINE
  5
C3
330
1F
100
AcDbEntity
  8
0
  6
SLD-Durchgehend
 62
     7
370
    15
100
AcDbPolyline
 90
       18
 70
   128
 43
0.0
 10
96.9843299998
 20
90.0512392388
 10
96.9830103157
 20
90.0510660128
 10
97.0668572871
 20
90.0620705204
 10
97.3136084093
 20
90.0926942693
 10
97.7060966132
 20
90.1372114883
 10
98.2292624129
 20
90.1856644766
 10
98.8660775064
 20
90.2278943674
 10
99.6016714661
 20
90.253932284
 10
100.3973776413
 20
90.2560612874
 10
101.2147268219
 20
90.228563057
 10
102.0283395363
 20
90.1712774055
 10
102.8221816695
 20
90.0870672183
 10
103.5503366901
 20
89.9867805408
 10
104.1812900393
 20
89.8812970833
 10
104.6968390173
 20
89.7822192626
 10
105.0820689587
 20
89.7005236463
 10
105.322033999
 20
89.6472128795
 10
105.3984904601
 20
89.6296891139
  0
LWPOLYLINE
  5
C4
330
1F
100
AcDbEntity
  8
0
  6
SLD-Durchgehend
 62
     7
370
    15
100
AcDbPolyline
 90
       18
 70
   128
 43
0.0
 10
105.3984359777
 20
137.7877759503
 10
105.3213252625
 20
137.7703024761
 10
105.0792903578
 20
137.7167141752
 10
104.6923384009
 20
137.6346069144
 10
104.1758161908
 20
137.5351863669
 10
103.5463180332
 20
137.4298202561
 10
102.8204680359
 20
137.3298297392
 10
102.0297625972
 20
137.2461038397
 10
101.2161945863
 20
137.1889858262
 10
100.398499885
 20
137.1615453379
 10
99.6015336303
 20
137.1636929677
 10
98.8651098622
 20
137.1897308843
 10
98.2270123376
 20
137.2319905774
 10
97.7042404874
 20
137.2804007248
 10
97.3119702129
 20
137.32496451
 10
97.0664894147
 20
137.355493264
 10
96.9828901751
 20
137.3664232658
 10
96.9839248745
 20
137.3662872927
  0
LWPOLYLINE
  5
C5
330
1F
100
AcDbEntity
  8
0
  6
SLD-Durchgehend
 62
     7
370
    15
100
AcDbPolyline
 90
        3
 70
   128
 43
0.0
 10
78.3362075625
 20
94.0074677335
 10
78.3646725057
 20
93.9929484145
 10
78.3780872761
 20
94.0341948287
  0
LINE
  5
C6
330
1F
100
AcDbEntity
  8
0
  6
SLD-Durchgehend
 62
     7
370
    15
100
AcDbLine
 10
78.3154241679
 20
94.0180699097
 30
0.0
 11
78.3154241679
 21
133.3994249569
 31
0.0
  0
LWPOLYLINE
  5
C7
330
1F
100
AcDbEntity
  8
0
  6
SLD-Durchgehend
 62
     7
370
    15
100
AcDbPolyline
 90
        3
 70
   128
 43
0.0
 10
78.3780872761
 20
133.3833000378
 10
78.3365800916
 20
133.4458253102
 10
78.3154241679
 20
133.3994249569
  0
LWPOLYLINE
  5
C8
330
1F
100
AcDbEntity
  8
0
  6
SLD-Durchgehend
 62
     7
370
    15
100
AcDbPolyline
 90
       12
 70
   128
 43
0.0
 10
79.1395775913
 20
134.0988668369
 10
79.0737181841
 20
133.9140626357
 10
78.9592847167
 20
133.650567265
 10
78.8299500881
 20
133.4173901693
 10
78.7554033039
 20
133.310804026
 10
78.7166565595
 20
133.2638039009
 10
78.6726050018
 20
133.2180647866
 10
78.6336533664
 20
133.1852859573
 10
78.5970337628
 20
133.1621053384
 10
78.5507544814
 20
133.1457531766
 10
78.470314288
 20
133.1678143458
 10
78.3780872761
 20
133.3833000378
  0
LINE
  5
C9
330
1F
100
AcDbEntity
  8
0
  6
SLD-Durchgehend
 62
     7
370
    15
100
AcDbLine
 10
79.4553797631
 20
134.5687004493
 30
0.0
 11
79.1395775913
 21
134.0988668369
 31
0.0
  0
LWPOLYLINE
  5
CA
330
1F
100
AcDbEntity
  8
0
  6
SLD-Durchgehend
 62
     7
370
    15
100
AcDbPolyline
 90
        3
 70
   128
 43
0.0
 10
79.1395775913
 20
93.3186280297
 10
79.3655089973
 20
92.9459946917
 10
79.4553797631
 20
92.8487944172
  0
LWPOLYLINE
  5
CB
330
1F
100
AcDbEntity
  8
0
  6
SLD-Durchgehend
 62
     7
370
    15
100
AcDbPolyline
 90
       12
 70
   128
 43
0.0
 10
78.3780872761
 20
94.0341948287
 10
78.464025998
 20
94.2439864145
 10
78.5180464326
 20
94.2722110765
 10
78.5604216097
 20
94.2696983682
 10
78.6021970151
 20
94.2526197748
 10
78.6363393007
 20
94.2302028404
 10
78.6756522892
 20
94.1965467052
 10
78.70934754
 20
94.1618679778
 10
78.7573218284
 20
94.1042116599
 10
78.8313619731
 20
93.9978881495
 10
78.9960198043
 20
93.6889069842
 10
79.1395775913
 20
93.3186280297
  0
LWPOLYLINE
  5
CC
330
1F
100
AcDbEntity
  8
0
  6
SLD-Durchgehend
 62
     7
370
    15
100
AcDbPolyline
 90
        3
 70
   128
 43
0.0
 10
126.3054240434
 20
141.5139808075
 10
124.8314952417
 20
144.1616098152
 10
124.8234914555
 20
144.1759428696
  0
LINE
  5
CD
330
1F
100
AcDbEntity
  8
0
  6
SLD-Durchgehend
 62
     7
370
    15
100
AcDbLine
 10
126.3054240434
 20
134.7588914202
 30
0.0
 11
126.3054240434
 21
141.5139808075
 31
0.0
  0
LWPOLYLINE
  5
CE
330
1F
100
AcDbEntity
  8
0
  6
SLD-Durchgehend
 62
     7
370
    15
100
AcDbPolyline
 90
        3
 70
   128
 43
0.0
 10
124.8234914555
 20
138.1674370484
 10
125.1789754195
 20
137.3691874312
 10
126.3054240434
 20
134.7588914202
  0
LINE
  5
CF
330
1F
100
AcDbEntity
  8
0
  6
SLD-Durchgehend
 62
     7
370
    15
100
AcDbLine
 10
126.3054240434
 20
134.7588914202
 30
0.0
 11
126.3054240434
 21
133.8446139114
 31
0.0
  0
LWPOLYLINE
  5
D0
330
1F
100
AcDbEntity
  8
0
  6
SLD-Durchgehend
 62
     7
370
    15
100
AcDbPolyline
 90
        3
 70
   128
 43
0.0
 10
131.6073559163
 20
144.1759428696
 10
131.5993521301
 20
144.1616098152
 10
130.1254242597
 20
141.5139808075
  0
LINE
  5
D1
330
1F
100
AcDbEntity
  8
0
  6
SLD-Durchgehend
 62
     7
370
    15
100
AcDbLine
 10
131.6073559163
 20
138.1674370484
 30
0.0
 11
131.6073559163
 21
144.1759428696
 31
0.0
  0
LWPOLYLINE
  5
D2
330
1F
100
AcDbEntity
  8
0
  6
SLD-Durchgehend
 62
     7
370
    15
100
AcDbPolyline
 90
        3
 70
   128
 43
0.0
 10
130.1254242597
 20
134.7588914202
 10
131.2518719523
 20
137.3691874312
 10
131.6073559163
 20
138.1674370484
  0
LINE
  5
D3
330
1F
100
AcDbEntity
  8
0
  6
SLD-Durchgehend
 62
     7
370
    15
100
AcDbLine
 10
130.1254242597
 20
134.7588914202
 30
0.0
 11
130.1254242597
 21
141.5139808075
 31
0.0
  0
ARC
  5
D4
330
1F
100
AcDbEntity
  8
0
  6
SLD-Durchgehend
 62
     7
370
    15
100
AcDbCircle
 10
135.5573172058
 20
143.5677604833
 30
0.0
 40
0.6082364232875819
100
AcDbArc
 50
358.8156305045
 51
89.2362522385
  0
ARC
  5
D5
330
1F
100
AcDbEntity
  8
0
  6
SLD-Durchgehend
 62
     7
370
    15
100
AcDbCircle
 10
135.4823955225
 20
137.4830741562
 30
0.0
 40
0.6893811813573116
100
AcDbArc
 50
352.2154757984
 51
83.0824936921
  0
LINE
  5
D6
330
1F
100
AcDbEntity
  8
0
  6
SLD-Durchgehend
 62
     7
370
    15
100
AcDbLine
 10
136.1654236851
 20
137.3896988796
 30
0.0
 11
136.1654236851
 21
143.555188434
 31
0.0
  0
LINE
  5
D7
330
1F
100
AcDbEntity
  8
0
  6
SLD-Durchgehend
 62
     7
370
    15
100
AcDbLine
 10
135.5654247044
 20
144.1759428696
 30
0.0
 11
131.6073559163
 21
144.1759428696
 31
0.0
  0
LINE
  5
D8
330
1F
100
AcDbEntity
  8
0
  6
SLD-Durchgehend
 62
     7
370
    15
100
AcDbLine
 10
131.6073559163
 20
138.1674370484
 30
0.0
 11
135.5654247044
 21
138.1674370484
 31
0.0
  0
LINE
  5
D9
330
1F
100
AcDbEntity
  8
0
  6
SLD-Durchgehend
 62
     7
370
    15
100
AcDbLine
 10
130.1254242597
 20
133.8446139114
 30
0.0
 11
130.1254242597
 21
134.7588914202
 31
0.0
  0
LINE
  5
DA
330
1F
100
AcDbEntity
  8
0
  6
SLD-Durchgehend
 62
     7
370
    15
100
AcDbLine
 10
136.1654236851
 20
137.3896988796
 30
0.0
 11
136.1654236851
 21
133.5587481724
 31
0.0
  0
ARC
  5
DB
330
1F
100
AcDbEntity
  8
0
  6
SLD-Durchgehend
 62
     7
370
    15
100
AcDbCircle
 10
118.2159326231
 20
132.4077490048
 30
0.0
 40
7.255202052586263
100
AcDbArc
 50
70.8006716787
 51
109.3322256956
  0
LINE
  5
DC
330
1F
100
AcDbEntity
  8
0
  6
SLD-Durchgehend
 62
     7
370
    15
100
AcDbLine
 10
154.2154237567
 20
129.7087481932
 30
0.0
 11
154.2154237567
 21
97.7087466733
 31
0.0
  0
LINE
  5
DD
330
1F
100
AcDbEntity
  8
0
  6
SLD-Durchgehend
 62
     7
370
    15
100
AcDbLine
 10
190.215422207
 20
125.5087478773
 30
0.0
 11
190.215422207
 21
119.6837475279
 31
0.0
  0
LINE
  5
DE
330
1F
100
AcDbEntity
  8
0
  6
SLD-Durchgehend
 62
     7
370
    15
100
AcDbLine
 10
190.215422207
 20
119.6837475279
 30
0.0
 11
189.6654203473
 21
119.1337475309
 31
0.0
  0
LINE
  5
DF
330
1F
100
AcDbEntity
  8
0
  6
SLD-Durchgehend
 62
     7
370
    15
100
AcDbLine
 10
190.215422207
 20
107.7337473386
 30
0.0
 11
190.215422207
 21
101.9087469892
 31
0.0
  0
LINE
  5
E0
330
1F
100
AcDbEntity
  8
0
  6
SLD-Durchgehend
 62
     7
370
    15
100
AcDbLine
 10
189.6654203473
 20
108.2837473357
 30
0.0
 11
190.215422207
 21
107.7337473386
 31
0.0
  0
LINE
  5
E1
330
1F
100
AcDbEntity
  8
0
  6
SLD-Gestrichelt
 62
     7
370
     0
100
AcDbLine
 10
110.2154239951
 20
82.5087482797
 30
0.0
 11
110.2154239951
 21
144.9087465869
 31
0.0
  0
LINE
  5
E2
330
1F
100
AcDbEntity
  8
0
  6
SLD-Gestrichelt
 62
     7
370
     0
100
AcDbLine
 10
115.1654239683
 20
82.2087469266
 30
0.0
 11
115.1654239683
 21
82.2246241139
 31
0.0
  0
ARC
  5
E3
330
1F
100
AcDbEntity
  8
0
  6
SLD-Gestrichelt
 62
     7
370
     0
100
AcDbCircle
 10
122.4327661639
 20
62.7231940388
 30
0.0
 40
20.81153616533803
100
AcDbArc
 50
87.9825180967
 51
110.4382555186
  0
LINE
  5
E4
330
1F
100
AcDbEntity
  8
0
  6
SLD-Gestrichelt
 62
     7
370
     0
100
AcDbLine
 10
123.1654243483
 20
83.5218298004
 30
0.0
 11
124.8234914555
 21
83.5218298004
 31
0.0
  0
LINE
  5
E5
330
1F
100
AcDbEntity
  8
0
  6
SLD-Gestrichelt
 62
     7
370
     0
100
AcDbLine
 10
124.8234914555
 20
144.1759428696
 30
0.0
 11
124.8234914555
 21
83.5218298004
 31
0.0
  0
LINE
  5
E6
330
1F
100
AcDbEntity
  8
0
  6
SLD-Gestrichelt
 62
     7
370
     0
100
AcDbLine
 10
123.1654243483
 20
144.1759428696
 30
0.0
 11
124.8234914555
 21
144.1759428696
 31
0.0
  0
LWPOLYLINE
  5
E7
330
1F
100
AcDbEntity
  8
0
  6
SLD-Gestrichelt
 62
     7
370
     0
100
AcDbPolyline
 90
       19
 70
   128
 43
0.0
 10
115.1747320717
 20
145.2063935564
 10
115.1663548252
 20
145.2085095213
 10
115.2059411569
 20
145.1984810398
 10
115.2962985387
 20
145.1757642196
 10
115.635814046
 20
145.0925822125
 10
115.8859640299
 20
145.033506559
 10
116.1777972182
 20
144.9669765995
 10
116.9086256003
 20
144.8117623792
 10
117.3458056463
 20
144.7267736064
 10
117.8199605955
 20
144.6413191722
 10
118.3345172493
 20
144.5565613674
 10
118.895192997
 20
144.4737425761
 10
119.4920040606
 20
144.3965955393
 10
120.0970964445
 20
144.3300581293
 10
120.7290155752
 20
144.2732046114
 10
121.3941549821
 20
144.227387266
 10
122.0786454095
 20
144.1953199671
 10
122.6193377687
 20
144.1808360384
 10
123.1654243483
 20
144.1759428696
  0
CIRCLE
  5
E8
330
1F
100
AcDbEntity
  8
0
  6
SLD-Gestrichelt
 62
     7
370
     0
100
AcDbCircle
 10
117.2150946513
 20
113.7087866276
 30
0.0
 40
4.999670561362745
  0
ARC
  5
E9
330
1F
100
AcDbEntity
  8
0
  6
SLD-Gestrichelt
 62
     7
370
     0
100
AcDbCircle
 10
118.5012732271
 20
126.1977225202
 30
0.0
 40
3.670208515060748
100
AcDbArc
 50
265.5330778166
 51
13.514570574
  0
ARC
  5
EA
330
1F
100
AcDbEntity
  8
0
  6
SLD-Gestrichelt
 62
     7
370
     0
100
AcDbCircle
 10
117.9304640916
 20
126.1999293285
 30
0.0
 40
3.672339567597753
100
AcDbArc
 50
166.9419077272
 51
274.4504192863
  0
ARC
  5
EB
330
1F
100
AcDbEntity
  8
0
  6
SLD-Gestrichelt
 62
     7
370
     0
100
AcDbCircle
 10
127.1855557472
 20
86.9057640715
 30
0.0
 40
0.8801328359032665
100
AcDbArc
 50
152.7504659068
 51
180.0918976009
  0
LINE
  5
EC
330
1F
100
AcDbEntity
  8
0
  6
SLD-Gestrichelt
 62
     7
370
     0
100
AcDbLine
 10
126.3054240434
 20
133.5587481724
 30
0.0
 11
126.331571856
 21
133.5587481724
 31
0.0
  0
LINE
  5
ED
330
1F
100
AcDbEntity
  8
0
  6
SLD-Gestrichelt
 62
     7
370
     0
100
AcDbLine
 10
126.3054240434
 20
133.8446139114
 30
0.0
 11
126.3054240434
 21
140.8284007327
 31
0.0
  0
LINE
  5
EE
330
1F
100
AcDbEntity
  8
0
  6
SLD-Gestrichelt
 62
     7
370
     0
100
AcDbLine
 10
126.3054240434
 20
86.9043524133
 30
0.0
 11
126.3054240434
 21
133.5587481724
 31
0.0
  0
ARC
  5
EF
330
1F
100
AcDbEntity
  8
0
  6
SLD-Gestrichelt
 62
     7
370
     0
100
AcDbCircle
 10
129.2413031776
 20
86.9048005004
 30
0.0
 40
0.8841211956749803
100
AcDbArc
 50
359.9709615589
 51
27.1866749334
  0
LINE
  5
F0
330
1F
100
AcDbEntity
  8
0
  6
SLD-Gestrichelt
 62
     7
370
     0
100
AcDbLine
 10
130.1254242597
 20
133.8446139114
 30
0.0
 11
130.1254242597
 21
140.8284007327
 31
0.0
  0
LINE
  5
F1
330
1F
100
AcDbEntity
  8
0
  6
SLD-Gestrichelt
 62
     7
370
     0
100
AcDbLine
 10
130.0992764471
 20
133.5587481724
 30
0.0
 11
130.1254242597
 21
133.5587481724
 31
0.0
  0
LINE
  5
F2
330
1F
100
AcDbEntity
  8
0
  6
SLD-Gestrichelt
 62
     7
370
     0
100
AcDbLine
 10
130.1254242597
 20
86.9043524133
 30
0.0
 11
130.1254242597
 21
133.5587481724
 31
0.0
  0
LINE
  5
F3
330
1F
100
AcDbEntity
  8
0
  6
SLD-Gestrichelt
 62
     7
370
     0
100
AcDbLine
 10
110.2154239951
 20
88.3848163055
 30
0.0
 11
110.2154239951
 21
139.0145401226
 31
0.0
  0
LINE
  5
F4
330
1F
100
AcDbEntity
  8
0
  6
SLD-Gestrichelt
 62
     7
370
     0
100
AcDbLine
 10
115.1654239683
 20
133.5587481724
 30
0.0
 11
122.4110446809
 21
133.5587481724
 31
0.0
  0
LINE
  5
F5
330
1F
100
AcDbEntity
  8
0
  6
SLD-Gestrichelt
 62
     7
370
     0
100
AcDbLine
 10
108.2154239001
 20
137.9291786568
 30
0.0
 11
108.2154239001
 21
89.4883162098
 31
0.0
  0
ARC
  5
F6
330
1F
100
AcDbEntity
  8
0
  6
SLD-Gestrichelt
 62
     7
370
     0
100
AcDbCircle
 10
80.7692118332
 20
133.5942055744
 30
0.0
 40
40.77624594156637
100
AcDbArc
 50
268.1676998007
 51
275.5980562838
  0
LWPOLYLINE
  5
F7
330
1F
100
AcDbEntity
  8
0
  6
SLD-Gestrichelt
 62
     7
370
     0
100
AcDbPolyline
 90
        3
 70
   128
 43
0.0
 10
84.7468994497
 20
93.0124333815
 10
86.3437972902
 20
93.2398418651
 10
87.0154242901
 20
93.3222788142
  0
ARC
  5
F8
330
1F
100
AcDbEntity
  8
0
  6
SLD-Gestrichelt
 62
     7
370
     0
100
AcDbCircle
 10
87.007638403
 20
92.6554383985
 30
0.0
 40
0.6668858673151984
100
AcDbArc
 50
19.2765376701
 51
89.3310570404
  0
LWPOLYLINE
  5
F9
330
1F
100
AcDbEntity
  8
0
  6
SLD-Gestrichelt
 62
     7
370
     0
100
AcDbPolyline
 90
        5
 70
   128
 43
0.0
 10
87.6371361254
 20
92.8755960183
 10
87.6693654744
 20
92.8210670815
 10
88.0868494449
 20
92.3409013764
 10
88.3843250511
 20
91.9022912846
 10
88.4154237746
 20
91.7450095282
  0
LINE
  5
FA
330
1F
100
AcDbEntity
  8
0
  6
SLD-Gestrichelt
 62
     7
370
     0
100
AcDbLine
 10
88.4154237746
 20
91.7450095282
 30
0.0
 11
88.4154237746
 21
90.4803014116
 31
0.0
  0
LINE
  5
FB
330
1F
100
AcDbEntity
  8
0
  6
SLD-Gestrichelt
 62
     7
370
     0
100
AcDbLine
 10
84.4154231189
 20
136.736793326
 30
0.0
 11
84.4154231189
 21
135.5528550909
 31
0.0
  0
ARC
  5
FC
330
1F
100
AcDbEntity
  8
0
  6
SLD-Gestrichelt
 62
     7
370
     0
100
AcDbCircle
 10
82.9574992369
 20
136.0815933208
 30
0.0
 40
1.550840469419332
100
AcDbArc
 50
272.1405139456
 51
340.0660547734
  0
LINE
  5
FD
330
1F
100
AcDbEntity
  8
0
  6
SLD-Gestrichelt
 62
     7
370
     0
100
AcDbLine
 10
83.0154236345
 20
134.5318349765
 30
0.0
 11
79.4654231457
 21
134.57868609
 31
0.0
  0
LINE
  5
FE
330
1F
100
AcDbEntity
  8
0
  6
SLD-Gestrichelt
 62
     7
370
     0
100
AcDbLine
 10
79.4654231457
 20
134.57868609
 30
0.0
 11
79.4553797631
 21
134.5687004493
 31
0.0
  0
LINE
  5
FF
330
1F
100
AcDbEntity
  8
0
  6
SLD-Gestrichelt
 62
     7
370
     0
100
AcDbLine
 10
79.4553797631
 20
92.8487944172
 30
0.0
 11
79.4654231457
 21
92.8388087766
 31
0.0
  0
ARC
  5
100
330
1F
100
AcDbEntity
  8
0
  6
SLD-Gestrichelt
 62
     7
370
     0
100
AcDbCircle
 10
100.6965384228
 20
61.524926645
 30
0.0
 40
28.76683857460509
100
AcDbArc
 50
94.9575529144
 51
97.4143934236
  0
LWPOLYLINE
  5
101
330
1F
100
AcDbEntity
  8
0
  6
SLD-Gestrichelt
 62
     7
370
     0
100
AcDbPolyline
 90
       14
 70
   128
 43
0.0
 10
105.3984904601
 20
89.6296891139
 10
105.3998283049
 20
89.6293836401
 10
105.3155324361
 20
89.6485167311
 10
105.0692227608
 20
89.7030903713
 10
104.678538063
 20
89.7857806401
 10
104.1582547067
 20
89.8854582326
 10
103.5249581499
 20
89.990805717
 10
102.7957395589
 20
90.0904665457
 10
102.0031621618
 20
90.1735386567
 10
101.1887978701
 20
90.229896711
 10
100.3723390339
 20
90.2564803825
 10
99.577525997
 20
90.2535020129
 10
98.8442100523
 20
90.2267991321
 10
98.2105744941
 20
90.1841482834
  0
LWPOLYLINE
  5
102
330
1F
100
AcDbEntity
  8
0
  6
SLD-Gestrichelt
 62
     7
370
     0
100
AcDbPolyline
 90
       14
 70
   128
 43
0.0
 10
98.2104813619
 20
137.2333298193
 10
98.8455315991
 20
137.1908112185
 10
99.5790291516
 20
137.1641567664
 10
100.3741569756
 20
137.1611746715
 10
101.1921366615
 20
137.1877453045
 10
102.0060203908
 20
137.2440810071
 10
102.799913281
 20
137.3274548666
 10
103.5275751664
 20
137.4270691292
 10
104.1607175892
 20
137.5324594544
 10
104.6798326014
 20
137.6319023536
 10
105.070010194
 20
137.7144678251
 10
105.3158285966
 20
137.7689557837
 10
105.399936804
 20
137.7881168143
 10
105.3984359777
 20
137.7877759503
  0
ARC
  5
103
330
1F
100
AcDbEntity
  8
0
  6
SLD-Gestrichelt
 62
     7
370
     0
100
AcDbCircle
 10
100.3447570775
 20
162.6464855585
 30
0.0
 40
25.50261981554754
100
AcDbArc
 50
262.427316406
 51
265.1993879062
  0
LINE
  5
104
330
1F
100
AcDbEntity
  8
0
  6
SLD-Gestrichelt
 62
     7
370
     0
100
AcDbLine
 10
78.3154241679
 20
94.0180699097
 30
0.0
 11
78.3362075625
 21
94.0074677335
 31
0.0
  0
ARC
  5
105
330
1F
100
AcDbEntity
  8
0
  6
SLD-Gestrichelt
 62
     7
370
     0
100
AcDbCircle
 10
101.2106588306
 20
74.0330823606
 30
0.0
 40
20.02917819093253
100
AcDbArc
 50
82.0801706333
 51
100.7665046695
  0
ARC
  5
106
330
1F
100
AcDbEntity
  8
0
  6
SLD-Gestrichelt
 62
     7
370
     0
100
AcDbCircle
 10
101.2106588306
 20
153.384412506
 30
0.0
 40
20.02917819093253
100
AcDbArc
 50
259.2334953305
 51
277.9198293667
  0
LWPOLYLINE
  5
107
330
1F
100
AcDbEntity
  8
0
  6
SLD-Gestrichelt
 62
     7
370
     0
100
AcDbPolyline
 90
        7
 70
   128
 43
0.0
 10
103.9704260355
 20
133.5462759004
 10
104.6518668471
 20
133.6231752054
 10
104.9541699639
 20
133.6459199653
 10
104.9277199371
 20
133.6441206501
 10
104.840705072
 20
133.6382067518
 10
104.3210065862
 20
133.5902659909
 10
103.9704260355
 20
133.5462759004
  0
LWPOLYLINE
  5
108
330
1F
100
AcDbEntity
  8
0
  6
SLD-Gestrichelt
 62
     7
370
     0
100
AcDbPolyline
 90
        7
 70
   128
 43
0.0
 10
103.9704260355
 20
93.8712189661
 10
104.6518668471
 20
93.7943196611
 10
104.9541699639
 20
93.7715749012
 10
104.927699448
 20
93.773376079
 10
104.840705072
 20
93.7792881147
 10
104.3210065862
 20
93.8272288756
 10
103.9704260355
 20
93.8712189661
  0
LINE
  5
109
330
1F
100
AcDbEntity
  8
0
  6
SLD-Gestrichelt
 62
     7
370
     0
100
AcDbLine
 10
110.2154239951
 20
96.7087465094
 30
0.0
 11
110.2154239951
 21
130.7087483571
 31
0.0
  0
LINE
  5
10A
330
1F
100
AcDbEntity
  8
0
  6
SLD-Gestrichelt
 62
     7
370
     0
100
AcDbLine
 10
122.4110446809
 20
133.5587481724
 30
0.0
 11
126.331571856
 21
133.5587481724
 31
0.0
  0
LINE
  5
10B
330
1F
100
AcDbEntity
  8
0
  6
SLD-Gestrichelt
 62
     7
370
     0
100
AcDbLine
 10
130.0992764471
 20
133.5587481724
 30
0.0
 11
136.1654236851
 21
133.5587481724
 31
0.0
  0
LINE
  5
10C
330
1F
100
AcDbEntity
  8
0
  6
SLD-Gestrichelt
 62
     7
370
     0
100
AcDbLine
 10
91.2193994908
 20
130.7087483571
 30
0.0
 11
91.2193994908
 21
96.7087465094
 31
0.0
  0
LWPOLYLINE
  5
10D
330
1F
100
AcDbEntity
  8
0
  6
SLD-Gestrichelt
 62
     7
370
     0
100
AcDbPolyline
 90
       15
 70
   128
 43
0.0
 10
118.2154243751
 20
135.6543506251
 10
118.9724285094
 20
135.6904915289
 10
119.7020741118
 20
135.7976141141
 10
120.3779870583
 20
135.9718422161
 10
120.975739689
 20
136.2068819569
 10
121.4737281142
 20
136.4942359494
 10
121.8539517312
 20
136.8235199468
 10
122.1026698066
 20
137.1828316466
 10
122.2108932151
 20
137.5591865496
 10
122.1747094704
 20
137.9389798956
 10
121.9954270808
 20
138.3084858523
 10
121.6795252575
 20
138.6543492542
 10
121.2384220151
 20
138.9640717523
 10
120.6880597336
 20
139.2264551239
 10
120.6018462716
 20
139.2594183551
  0
LWPOLYLINE
  5
10E
330
1F
100
AcDbEntity
  8
0
  6
SLD-Gestrichelt
 62
     7
370
     0
100
AcDbPolyline
 90
       15
 70
   128
 43
0.0
 10
115.8141329823
 20
139.2538658099
 10
115.7427880852
 20
139.2264551239
 10
115.1924258037
 20
138.9640717523
 10
114.7513225613
 20
138.6543492542
 10
114.435420738
 20
138.3084858523
 10
114.2561383484
 20
137.9389798956
 10
114.2199546037
 20
137.5591865496
 10
114.3281775465
 20
137.1828316466
 10
114.5768960877
 20
136.8235199468
 10
114.9571201703
 20
136.4942359494
 10
115.4551081298
 20
136.2068819569
 10
116.0528607605
 20
135.9718422161
 10
116.7287741726
 20
135.7976141141
 10
117.4584188437
 20
135.6904915289
 10
118.2154243751
 20
135.6543506251
  0
LINE
  5
10F
330
1F
100
AcDbEntity
  8
0
  6
SLD-Gestrichelt
 62
     7
370
     0
100
AcDbLine
 10
136.1654236851
 20
95.7087482081
 30
0.0
 11
136.1654236851
 21
131.7087466584
 31
0.0
  0
LINE
  5
110
330
1F
100
AcDbEntity
  8
0
  6
SLD-Gestrichelt
 62
     7
370
     0
100
AcDbLine
 10
78.3154241679
 20
111.7089960014
 30
0.0
 11
78.3154241679
 21
115.7084862923
 31
0.0
  0
LINE
  5
111
330
1F
100
AcDbEntity
  8
0
  6
SLD-Gestrichelt
 62
     7
370
     0
100
AcDbLine
 10
78.3154241679
 20
115.7085880393
 30
0.0
 11
79.3154243319
 21
115.695875719
 31
0.0
  0
LINE
  5
112
330
1F
100
AcDbEntity
  8
0
  6
SLD-Gestrichelt
 62
     7
370
     0
100
AcDbLine
 10
78.3154241679
 20
115.7085880393
 30
0.0
 11
78.3154241679
 21
117.4725267326
 31
0.0
  0
LWPOLYLINE
  5
113
330
1F
100
AcDbEntity
  8
0
  6
SLD-Gestrichelt
 62
     7
370
     0
100
AcDbPolyline
 90
        3
 70
   128
 43
0.0
 10
79.3154243319
 20
111.712047247
 10
78.8154438077
 20
111.7106099834
 10
78.3154241679
 20
111.7089459428
  0
LINE
  5
114
330
1F
100
AcDbEntity
  8
0
  6
SLD-Gestrichelt
 62
     7
370
     0
100
AcDbLine
 10
78.3154241679
 20
109.9449681339
 30
0.0
 11
78.3154241679
 21
111.7089459428
 31
0.0
  0
LINE
  5
115
330
1F
100
AcDbEntity
  8
0
  6
SLD-Gestrichelt
 62
     7
370
     0
100
AcDbLine
 10
78.3154241679
 20
117.4725267326
 30
0.0
 11
78.3154241679
 21
129.8340632336
 31
0.0
  0
LINE
  5
116
330
1F
100
AcDbEntity
  8
0
  6
SLD-Gestrichelt
 62
     7
370
     0
100
AcDbLine
 10
78.3154241679
 20
97.6383927034
 30
0.0
 11
78.3154241679
 21
109.9449681339
 31
0.0
  0
LINE
  5
117
330
1F
100
AcDbEntity
  8
0
  6
SLD-Gestrichelt
 62
     7
370
     0
100
AcDbLine
 10
117.8752499571
 20
130.7087483571
 30
0.0
 11
117.8752499571
 21
96.7087465094
 31
0.0
  0
LINE
  5
118
330
1F
100
AcDbEntity
  8
0
  6
SLD-Gestrichelt
 62
     7
370
     0
100
AcDbLine
 10
120.1654238565
 20
129.4337472634
 30
0.0
 11
120.1654238565
 21
97.9837476031
 31
0.0
  0
LWPOLYLINE
  5
119
330
1F
100
AcDbEntity
  8
0
  6
SLD-Gestrichelt
 62
     7
370
     0
100
AcDbPolyline
 90
        6
 70
   128
 43
0.0
 10
87.0154242901
 20
97.9072562174
 10
87.456018099
 20
97.8792140947
 10
87.8465551822
 20
97.8014896379
 10
88.159155467
 20
97.6847893314
 10
88.361891353
 20
97.540834801
 10
88.4154237746
 20
97.421234356
  0
LINE
  5
11A
330
1F
100
AcDbEntity
  8
0
  6
SLD-Gestrichelt
 62
     7
370
     0
100
AcDbLine
 10
88.4154237746
 20
97.421234356
 30
0.0
 11
88.4154237746
 21
96.7087465094
 31
0.0
  0
LWPOLYLINE
  5
11B
330
1F
100
AcDbEntity
  8
0
  6
SLD-Gestrichelt
 62
     7
370
     0
100
AcDbPolyline
 90
        6
 70
   128
 43
0.0
 10
87.0154242901
 20
97.9072562174
 10
87.456018099
 20
97.8792140947
 10
87.8465551822
 20
97.8014896379
 10
88.159155467
 20
97.6847893314
 10
88.361891353
 20
97.540834801
 10
88.4154237746
 20
97.421234356
  0
LINE
  5
11C
330
1F
100
AcDbEntity
  8
0
  6
SLD-Gestrichelt
 62
     7
370
     0
100
AcDbLine
 10
79.6005915789
 20
97.9072562174
 30
0.0
 11
87.0154242901
 21
97.9072562174
 31
0.0
  0
LWPOLYLINE
  5
11D
330
1F
100
AcDbEntity
  8
0
  6
SLD-Gestrichelt
 62
     7
370
     0
100
AcDbPolyline
 90
        3
 70
   128
 43
0.0
 10
79.6154238222
 20
100.0520595105
 10
79.6079695164
 20
98.8632877113
 10
79.6005915789
 20
97.9072562174
  0
LWPOLYLINE
  5
11E
330
1F
100
AcDbEntity
  8
0
  6
SLD-Gestrichelt
 62
     7
370
     0
100
AcDbPolyline
 90
        3
 70
   128
 43
0.0
 10
79.3154243319
 20
101.0769697593
 10
79.5307721881
 20
100.5646901892
 10
79.6154238222
 20
100.0520595105
  0
LINE
  5
11F
330
1F
100
AcDbEntity
  8
0
  6
SLD-Gestrichelt
 62
     7
370
     0
100
AcDbLine
 10
79.3154243319
 20
104.1079208942
 30
0.0
 11
79.3154243319
 21
101.0769697593
 31
0.0
  0
LWPOLYLINE
  5
120
330
1F
100
AcDbEntity
  8
0
  6
SLD-Gestrichelt
 62
     7
370
     0
100
AcDbPolyline
 90
        3
 70
   128
 43
0.0
 10
79.6154238222
 20
105.4757608788
 10
79.3760124533
 20
104.2568598629
 10
79.3154243319
 20
104.1079208942
  0
LINE
  5
121
330
1F
100
AcDbEntity
  8
0
  6
SLD-Gestrichelt
 62
     7
370
     0
100
AcDbLine
 10
79.6154238222
 20
121.9417339878
 30
0.0
 11
79.6154238222
 21
105.4757608788
 31
0.0
  0
LWPOLYLINE
  5
122
330
1F
100
AcDbEntity
  8
0
  6
SLD-Gestrichelt
 62
     7
370
     0
100
AcDbPolyline
 90
        3
 70
   128
 43
0.0
 10
79.3154243319
 20
123.3156871737
 10
79.5314632295
 20
122.6589976565
 10
79.6154238222
 20
121.9417339878
  0
LINE
  5
123
330
1F
100
AcDbEntity
  8
0
  6
SLD-Gestrichelt
 62
     7
370
     0
100
AcDbLine
 10
79.3154243319
 20
126.3488893153
 30
0.0
 11
79.3154243319
 21
123.3156871737
 31
0.0
  0
ARC
  5
124
330
1F
100
AcDbEntity
  8
0
  6
SLD-Gestrichelt
 62
     7
370
     0
100
AcDbCircle
 10
77.2448365186
 20
127.5124943218
 30
0.0
 40
2.375144312139414
100
AcDbArc
 50
330.6653874696
 51
356.4502153172
  0
LINE
  5
125
330
1F
100
AcDbEntity
  8
0
  6
SLD-Gestrichelt
 62
     7
370
     0
100
AcDbLine
 10
79.6154238222
 20
129.5102386491
 30
0.0
 11
79.6154238222
 21
127.365435356
 31
0.0
  0
LINE
  5
126
330
1F
100
AcDbEntity
  8
0
  6
SLD-Gestrichelt
 62
     7
370
     0
100
AcDbLine
 10
83.0154236345
 20
129.5102386491
 30
0.0
 11
79.6154238222
 21
129.5102386491
 31
0.0
  0
LWPOLYLINE
  5
127
330
1F
100
AcDbEntity
  8
0
  6
SLD-Gestrichelt
 62
     7
370
     0
100
AcDbPolyline
 90
        6
 70
   128
 43
0.0
 10
84.4154231189
 20
129.9962605105
 10
84.3292981325
 20
129.8438160436
 10
84.0804580538
 20
129.6964565979
 10
83.6967959939
 20
129.579327883
 10
83.2443632124
 20
129.5177022682
 10
83.0154236345
 20
129.5102386491
  0
LINE
  5
128
330
1F
100
AcDbEntity
  8
0
  6
SLD-Gestrichelt
 62
     7
370
     0
100
AcDbLine
 10
84.4154231189
 20
129.9962605105
 30
0.0
 11
84.4154231189
 21
130.7087483571
 31
0.0
  0
LWPOLYLINE
  5
129
330
1F
100
AcDbEntity
  8
0
  6
SLD-Gestrichelt
 62
     7
370
     0
100
AcDbPolyline
 90
        6
 70
   128
 43
0.0
 10
84.4154231189
 20
129.9962605105
 10
84.3292981325
 20
129.8438160436
 10
84.0804580538
 20
129.6964565979
 10
83.6967959939
 20
129.579327883
 10
83.2443632124
 20
129.5177022682
 10
83.0154236345
 20
129.5102386491
  0
LINE
  5
12A
330
1F
100
AcDbEntity
  8
0
  6
SLD-Gestrichelt
 62
     7
370
     0
100
AcDbLine
 10
79.5464556603
 20
97.9072562174
 30
0.0
 11
87.0154242901
 21
97.9072562174
 31
0.0
  0
LWPOLYLINE
  5
12B
330
1F
100
AcDbEntity
  8
0
  6
SLD-Gestrichelt
 62
     7
370
     0
100
AcDbPolyline
 90
        8
 70
   128
 43
0.0
 10
79.5464556603
 20
97.9072562174
 10
79.5103389709
 20
98.7532165588
 10
79.4833045392
 20
99.8054862709
 10
79.4756118147
 20
101.6463431285
 10
79.5048832832
 20
103.8270768465
 10
79.5625545023
 20
106.282175401
 10
79.6117842136
 20
108.9454143064
 10
79.6154238222
 20
110.1041136996
  0
LINE
  5
12C
330
1F
100
AcDbEntity
  8
0
  6
SLD-Gestrichelt
 62
     7
370
     0
100
AcDbLine
 10
79.6154238222
 20
117.3133811669
 30
0.0
 11
79.6154238222
 21
129.5102386491
 31
0.0
  0
LWPOLYLINE
  5
12D
330
1F
100
AcDbEntity
  8
0
  6
SLD-Gestrichelt
 62
     7
370
     0
100
AcDbPolyline
 90
        3
 70
   128
 43
0.0
 10
79.6154238222
 20
110.1041136996
 10
79.3762378333
 20
111.5341029351
 10
79.3154243319
 20
111.712047247
  0
LWPOLYLINE
  5
12E
330
1F
100
AcDbEntity
  8
0
  6
SLD-Gestrichelt
 62
     7
370
     0
100
AcDbPolyline
 90
        3
 70
   128
 43
0.0
 10
79.3154243319
 20
115.695875719
 10
79.5338809429
 20
116.4832225756
 10
79.6154238222
 20
117.3133811669
  0
LINE
  5
12F
330
1F
100
AcDbEntity
  8
0
  6
SLD-Gestrichelt
 62
     7
370
     0
100
AcDbLine
 10
79.3154243319
 20
111.712047247
 30
0.0
 11
79.3154243319
 21
115.695875719
 31
0.0
  0
LINE
  5
130
330
1F
100
AcDbEntity
  8
0
  6
SLD-Gestrichelt
 62
     7
370
     0
100
AcDbLine
 10
154.2154237567
 20
97.7087466733
 30
0.0
 11
154.2154237567
 21
129.7087481932
 31
0.0
  0
LINE
  5
131
330
1F
100
AcDbEntity
  8
0
  6
SLD-Gestrichelt
 62
     7
370
     0
100
AcDbLine
 10
154.2154237567
 20
128.2337474392
 30
0.0
 11
154.2154237567
 21
99.2018029781
 31
0.0
  0
LINE
  5
132
330
1F
100
AcDbEntity
  8
0
  6
SLD-Gestrichelt
 62
     7
370
     0
100
AcDbLine
 10
161.165422195
 20
100.0837477611
 30
0.0
 11
161.165422195
 21
127.3337471054
 31
0.0
  0
LINE
  5
133
330
1F
100
AcDbEntity
  8
0
  6
SLD-Gestrichelt
 62
     7
370
     0
100
AcDbLine
 10
161.165422195
 20
126.2587475346
 30
0.0
 11
161.165422195
 21
101.1587473319
 31
0.0
  0
LWPOLYLINE
  5
134
330
1F
100
AcDbEntity
  8
0
  6
SLD-Gestrichelt
 62
     7
370
     0
100
AcDbPolyline
 90
       20
 70
   128
 43
0.0
 10
165.2654245435
 20
119.9587475264
 10
165.3574988185
 20
119.4821678789
 10
165.6229332028
 20
119.0494302416
 10
166.0344473956
 20
118.7114812189
 10
166.5475279032
 20
118.5138187127
 10
167.0996308265
 20
118.4847335087
 10
167.6275566159
 20
118.6252798641
 10
168.0773258148
 20
118.916659964
 10
168.3997832177
 20
119.324349215
 10
168.5547590194
 20
119.7958410473
 10
168.5249119936
 20
120.2708085754
 10
168.3166272877
 20
120.6980979757
 10
167.9512135623
 20
121.0379762331
 10
167.4664527117
 20
121.2570852356
 10
166.9202096699
 20
121.3329945446
 10
166.3775168298
 20
121.2607700133
 10
165.8953525065
 20
121.0481667647
 10
165.5241161524
 20
120.7111555838
 10
165.3085671304
 20
120.2805655764
 10
165.2654245435
 20
119.9587475264
  0
LWPOLYLINE
  5
135
330
1F
100
AcDbEntity
  8
0
  6
SLD-Gestrichelt
 62
     7
370
     0
100
AcDbPolyline
 90
       20
 70
   128
 43
0.0
 10
165.2654245435
 20
119.9587475264
 10
165.3574988185
 20
120.4235063621
 10
165.6229332028
 20
120.8259150141
 10
166.0344473956
 20
121.1279145197
 10
166.5475279032
 20
121.2997579703
 10
167.0996308265
 20
121.3247518742
 10
167.6275566159
 20
121.2032841274
 10
168.0773258148
 20
120.9458139481
 10
168.3997832177
 20
120.5723610462
 10
168.5547590194
 20
120.1202505024
 10
168.5249119936
 20
119.6414030844
 10
168.3166272877
 20
119.188994983
 10
167.9512135623
 20
118.813357664
 10
167.4664527117
 20
118.5632775293
 10
166.9202096699
 20
118.4751227254
 10
166.3775168298
 20
118.5590167285
 10
165.8953525065
 20
118.8018679374
 10
165.5241161524
 20
119.174829101
 10
165.3085671304
 20
119.6313075477
 10
165.2654245435
 20
119.9587475264
  0
LWPOLYLINE
  5
136
330
1F
100
AcDbEntity
  8
0
  6
SLD-Gestrichelt
 62
     7
370
     0
100
AcDbPolyline
 90
       39
 70
   128
 43
0.0
 10
165.3085671304
 20
101.2143687101
 10
165.2654245435
 20
101.208747247
 10
165.2879550992
 20
101.2117014022
 10
165.3574988185
 20
101.2205675931
 10
165.4681250392
 20
101.2338855059
 10
165.6229332028
 20
101.2508970441
 10
165.8101513921
 20
101.2689274491
 10
166.0344473956
 20
101.2868470268
 10
166.2781186341
 20
101.3017472567
 10
166.5475279032
 20
101.3126651512
 10
166.8182149468
 20
101.3177445845
 10
167.0996308265
 20
101.3167564513
 10
167.366234952
 20
101.3099279942
 10
167.6275566159
 20
101.2976783083
 10
167.862600082
 20
101.2819762097
 10
168.0773258148
 20
101.2637679221
 10
168.2552717565
 20
101.2458949105
 10
168.3997832177
 20
101.2295315729
 10
168.4987045763
 20
101.2173796759
 10
168.5547590194
 20
101.2101507501
 10
168.5605704723
 20
101.2093870656
 10
168.5632154284
 20
101.209038751
 10
168.5249119936
 20
101.21403064
 10
168.4434808729
 20
101.2242584245
 10
168.3166272877
 20
101.2391493411
 10
168.1538805304
 20
101.2563871907
 10
167.9512135623
 20
101.2749084027
 10
167.723892623
 20
101.2917783798
 10
167.4664527117
 20
101.3058795349
 10
167.2013908563
 20
101.3148267509
 10
166.9202096699
 20
101.3181254955
 10
166.6489340304
 20
101.3152607472
 10
166.3775168298
 20
101.3064560236
 10
166.1287605701
 20
101.293179089
 10
165.8953525065
 20
101.2762075977
 10
165.6951069771
 20
101.258178124
 10
165.5241161524
 20
101.240257615
 10
165.3962418376
 20
101.2253415526
 10
165.3085671304
 20
101.2143687101
  0
LINE
  5
137
330
1F
100
AcDbEntity
  8
0
  6
SLD-Gestrichelt
 62
     7
370
     0
100
AcDbLine
 10
184.5654234229
 20
101.208747247
 30
0.0
 11
184.5654234229
 21
126.2087476195
 31
0.0
  0
LINE
  5
138
330
1F
100
AcDbEntity
  8
0
  6
SLD-Gestrichelt
 62
     7
370
     0
100
AcDbLine
 10
163.1654225229
 20
101.208747247
 30
0.0
 11
163.1654225229
 21
126.2087476195
 31
0.0
  0
LWPOLYLINE
  5
139
330
1F
100
AcDbEntity
  8
0
  6
SLD-Gestrichelt
 62
     7
370
     0
100
AcDbPolyline
 90
       39
 70
   128
 43
0.0
 10
170.4851113199
 20
126.1961132975
 10
170.4154223142
 20
126.2087476195
 10
170.4465396641
 20
126.2030591012
 10
170.5425627468
 20
126.1859795765
 10
170.6951729892
 20
126.1603104637
 10
170.908538991
 20
126.1274766864
 10
171.1679793833
 20
126.0923891084
 10
171.4790597497
 20
126.0573741735
 10
171.8187913237
 20
126.0279983969
 10
172.195149952
 20
126.0063358338
 10
172.5715868114
 20
125.9961676539
 10
172.9633942185
 20
125.9978272708
 10
173.332376772
 20
126.0108052508
 10
173.6942589222
 20
126.0342540906
 10
174.0211531459
 20
126.0645127611
 10
174.3203535615
 20
126.0997037159
 10
174.5710655986
 20
126.1346637027
 10
174.7756138383
 20
126.1668520735
 10
174.9168395935
 20
126.1909845041
 10
174.9984010993
 20
126.2056258263
 10
175.0093907057
 20
126.207640277
 10
175.0132873593
 20
126.2083546014
 10
174.963569635
 20
126.1993105279
 10
174.8545676409
 20
126.1801522912
 10
174.6832713424
 20
126.1519145907
 10
174.4612589417
 20
126.118741812
 10
174.1838142215
 20
126.082759233
 10
173.8694146214
 20
126.0494001897
 10
173.5119730173
 20
126.021118717
 10
173.1435269056
 20
126.0027809755
 10
172.7513953982
 20
125.9953778924
 10
172.375204408
 20
126.0000345053
 10
171.9979703365
 20
126.0162553505
 10
171.6517344056
 20
126.0412827821
 10
171.3258013068
 20
126.0736592801
 10
171.0427202223
 20
126.1086639704
 10
170.7993134795
 20
126.1438381614
 10
170.6144347726
 20
126.1736646981
 10
170.4851113199
 20
126.1961132975
  0
LWPOLYLINE
  5
13A
330
1F
100
AcDbEntity
  8
0
  6
SLD-Gestrichelt
 62
     7
370
     0
100
AcDbPolyline
 90
       20
 70
   128
 43
0.0
 10
170.4154223142
 20
107.4587473401
 10
170.5425627468
 20
108.1232059503
 10
170.908538991
 20
108.7318112829
 10
171.4790597497
 20
109.2140338139
 10
172.195149952
 20
109.5001817436
 10
172.9633942185
 20
109.5444558875
 10
173.6942589222
 20
109.3484678993
 10
174.3203535615
 20
108.9400303306
 10
174.7756138383
 20
108.3652571531
 10
174.9984010993
 20
107.7022239321
 10
174.963569635
 20
107.0429024973
 10
174.6832713424
 20
106.4560551883
 10
174.1838142215
 20
105.9886499995
 10
173.5119730173
 20
105.6839701475
 10
172.7513953982
 20
105.5738170387
 10
171.9979703365
 20
105.6625227199
 10
171.3258013068
 20
105.9390882717
 10
170.7993134795
 20
106.3894353562
 10
170.4851113199
 20
106.9784680137
 10
170.4154223142
 20
107.4587473401
  0
LWPOLYLINE
  5
13B
330
1F
100
AcDbEntity
  8
0
  6
SLD-Gestrichelt
 62
     7
370
     0
100
AcDbPolyline
 90
       20
 70
   128
 43
0.0
 10
170.4154223142
 20
107.4587473401
 10
170.5425627468
 20
106.8170563073
 10
170.908538991
 20
106.2669547962
 10
171.4790597497
 20
105.8548343123
 10
172.195149952
 20
105.6197247223
 10
172.9633942185
 20
105.5839591415
 10
173.6942589222
 20
105.7435198443
 10
174.3203535615
 20
106.0865077877
 10
174.7756138383
 20
106.5941330732
 10
174.9984010993
 20
107.2183925414
 10
174.963569635
 20
107.8840292746
 10
174.6832713424
 20
108.5182720551
 10
174.1838142215
 20
109.0548330673
 10
173.5119730173
 20
109.4211534352
 10
172.7513953982
 20
109.5570469031
 10
171.9979703365
 20
109.4474642293
 10
171.3258013068
 20
109.113494748
 10
170.7993134795
 20
108.5929687822
 10
170.4851113199
 20
107.9516614543
 10
170.4154223142
 20
107.4587473401
  0
LINE
  5
13C
330
1F
100
AcDbEntity
  8
0
  6
SLD-Gestrichelt
 62
     7
370
     0
100
AcDbLine
 10
185.6654271422
 20
101.208747247
 30
0.0
 11
185.6654271422
 21
126.2087476195
 31
0.0
  0
LINE
  5
13D
330
1F
100
AcDbEntity
  8
0
  6
SLD-Gestrichelt
 62
     7
370
     0
100
AcDbLine
 10
189.5154252587
 20
108.4337475465
 30
0.0
 11
189.5154252587
 21
101.208747247
 31
0.0
  0
LINE
  5
13E
330
1F
100
AcDbEntity
  8
0
  6
SLD-Gestrichelt
 62
     7
370
     0
100
AcDbLine
 10
189.5154252587
 20
108.4337475465
 30
0.0
 11
186.6654217182
 21
108.4337475465
 31
0.0
  0
ARC
  5
13F
330
1F
100
AcDbEntity
  8
0
  6
SLD-Gestrichelt
 62
     7
370
     0
100
AcDbCircle
 10
186.6654256351
 20
108.9337524767
 30
0.0
 40
0.5000049301891435
100
AcDbArc
 50
180.0005555593
 51
269.9995511623
  0
LINE
  5
140
330
1F
100
AcDbEntity
  8
0
  6
SLD-Gestrichelt
 62
     7
370
     0
100
AcDbLine
 10
186.1654207049
 20
108.9337476285
 30
0.0
 11
186.1654207049
 21
118.4837472381
 31
0.0
  0
ARC
  5
141
330
1F
100
AcDbEntity
  8
0
  6
SLD-Gestrichelt
 62
     7
370
     0
100
AcDbCircle
 10
186.6654260955
 20
118.4837419294
 30
0.0
 40
0.5000053906559051
100
AcDbArc
 50
90.0005016018
 51
179.9993916766
  0
LINE
  5
142
330
1F
100
AcDbEntity
  8
0
  6
SLD-Gestrichelt
 62
     7
370
     0
100
AcDbLine
 10
186.6654217182
 20
118.98374732
 30
0.0
 11
189.5154252587
 21
118.98374732
 31
0.0
  0
LINE
  5
143
330
1F
100
AcDbEntity
  8
0
  6
SLD-Gestrichelt
 62
     7
370
     0
100
AcDbLine
 10
189.5154252587
 20
118.98374732
 30
0.0
 11
189.5154252587
 21
126.2087476195
 31
0.0
  0
ARC
  5
144
330
1F
100
AcDbEntity
  8
0
  6
SLD-Gestrichelt
 62
     7
370
     0
100
AcDbCircle
 10
186.6654256351
 20
118.4837423898
 30
0.0
 40
0.5000049301891577
100
AcDbArc
 50
90.0004488377
 51
179.9994444407
  0
ARC
  5
145
330
1F
100
AcDbEntity
  8
0
  6
SLD-Gestrichelt
 62
     7
370
     0
100
AcDbCircle
 10
186.6654260955
 20
108.9337529372
 30
0.0
 40
0.5000053906559193
100
AcDbArc
 50
180.0006083234
 51
269.9994983982
  0
LINE
  5
146
330
1F
100
AcDbEntity
  8
0
  6
SLD-Gestrichelt
 62
     7
370
     0
100
AcDbLine
 10
186.1654207049
 20
118.4837472381
 30
0.0
 11
186.1654207049
 21
108.9337476285
 31
0.0
  0
LINE
  5
147
330
1F
100
AcDbEntity
  8
0
  6
SLD-Gestrichelt
 62
     7
370
     0
100
AcDbLine
 10
185.6654271422
 20
125.7837478758
 30
0.0
 11
185.6654271422
 21
101.6520828695
 31
0.0
  0
LINE
  5
148
330
1F
100
AcDbEntity
  8
0
  6
SLD-Gestrichelt
 62
     7
370
     0
100
AcDbLine
 10
184.5654234229
 20
125.7837478758
 30
0.0
 11
184.5654234229
 21
101.6520828695
 31
0.0
  0
ARC
  5
149
330
1F
100
AcDbEntity
  8
0
  6
SLD-Gestrichelt
 62
     7
370
     0
100
AcDbCircle
 10
172.7154239951
 20
108.6915899442
 30
0.0
 40
2.315465598427092
100
AcDbArc
 50
6.6255239407
 51
173.3744760593
  0
ARC
  5
14A
330
1F
100
AcDbEntity
  8
0
  6
SLD-Gestrichelt
 62
     7
370
     0
100
AcDbCircle
 10
172.7154239951
 20
109.2259046845
 30
0.0
 40
2.315465535744554
100
AcDbArc
 50
186.6255105873
 51
353.3744894127
  0
ARC
  5
14B
330
1F
100
AcDbEntity
  8
0
  6
SLD-Gestrichelt
 62
     7
370
     0
100
AcDbCircle
 10
166.6841309274
 20
118.3919621387
 30
0.0
 40
1.392060877883743
100
AcDbArc
 50
99.039262323
 51
260.960737677
  0
LINE
  5
14C
330
1F
100
AcDbEntity
  8
0
  6
SLD-Gestrichelt
 62
     7
370
     0
100
AcDbLine
 10
166.465422505
 20
117.0171893889
 30
0.0
 11
166.465422505
 21
117.2325873037
 31
0.0
  0
LWPOLYLINE
  5
14D
330
1F
100
AcDbEntity
  8
0
  6
SLD-Gestrichelt
 62
     7
370
     0
100
AcDbPolyline
 90
        7
 70
   128
 43
0.0
 10
166.465422505
 20
117.2325873037
 10
166.4668716429
 20
117.2407878318
 10
166.4778463481
 20
117.2537520749
 10
166.4977133213
 20
117.2615269886
 10
166.5244981585
 20
117.264057392
 10
166.5560737191
 20
117.26128857
 10
166.5654241977
 20
117.2595607338
  0
LWPOLYLINE
  5
14E
330
1F
100
AcDbEntity
  8
0
  6
SLD-Gestrichelt
 62
     7
370
     0
100
AcDbPolyline
 90
        3
 70
   128
 43
0.0
 10
166.5654241977
 20
117.2595607338
 10
167.1124868034
 20
117.2351563571
 10
167.4654245315
 20
117.3133113177
  0
LWPOLYLINE
  5
14F
330
1F
100
AcDbEntity
  8
0
  6
SLD-Gestrichelt
 62
     7
370
     0
100
AcDbPolyline
 90
        6
 70
   128
 43
0.0
 10
167.4654245315
 20
117.3133113177
 10
167.4993134974
 20
117.3220259359
 10
167.5299540101
 20
117.3243460932
 10
167.5520151792
 20
117.31952906
 10
167.5634108423
 20
117.3088637867
 10
167.565422499
 20
117.2995782678
  0
LINE
  5
150
330
1F
100
AcDbEntity
  8
0
  6
SLD-Gestrichelt
 62
     7
370
     0
100
AcDbLine
 10
167.565422499
 20
117.2995782678
 30
0.0
 11
167.565422499
 21
117.0844378637
 31
0.0
  0
ARC
  5
151
330
1F
100
AcDbEntity
  8
0
  6
SLD-Gestrichelt
 62
     7
370
     0
100
AcDbCircle
 10
167.1807191968
 20
118.3978304022
 30
0.0
 40
1.368574656771669
100
AcDbArc
 50
286.3257347651
 51
73.6742652349
  0
LINE
  5
152
330
1F
100
AcDbEntity
  8
0
  6
SLD-Gestrichelt
 62
     7
370
     0
100
AcDbLine
 10
167.565422499
 20
119.7112229408
 30
0.0
 11
167.565422499
 21
119.9263631122
 31
0.0
  0
ARC
  5
153
330
1F
100
AcDbEntity
  8
0
  6
SLD-Gestrichelt
 62
     7
370
     0
100
AcDbCircle
 10
167.4460953752
 20
119.8818748528
 30
0.0
 40
0.127350570053191
100
AcDbArc
 50
20.446765195
 51
81.2699572539
  0
LWPOLYLINE
  5
154
330
1F
100
AcDbEntity
  8
0
  6
SLD-Gestrichelt
 62
     7
370
     0
100
AcDbPolyline
 90
        3
 70
   128
 43
0.0
 10
167.4654245315
 20
120.007749995
 10
166.9261105297
 20
120.0818031782
 10
166.5654241977
 20
120.0524087751
  0
LWPOLYLINE
  5
155
330
1F
100
AcDbEntity
  8
0
  6
SLD-Gestrichelt
 62
     7
370
     0
100
AcDbPolyline
 90
        6
 70
   128
 43
0.0
 10
166.5654241977
 20
120.0524087751
 10
166.5324330269
 20
120.0436752976
 10
166.5026940344
 20
120.0295052247
 10
166.4804987548
 20
120.0121714489
 10
166.4680600105
 20
119.9942723603
 10
166.465422505
 20
119.9821330362
  0
LINE
  5
156
330
1F
100
AcDbEntity
  8
0
  6
SLD-Gestrichelt
 62
     7
370
     0
100
AcDbLine
 10
166.465422505
 20
119.9821330362
 30
0.0
 11
166.465422505
 21
119.7667348885
 31
0.0
  0
LINE
  5
157
330
1F
100
AcDbEntity
  8
0
  6
SLD-Gestrichelt
 62
     7
370
     0
100
AcDbLine
 10
79.4654231457
 20
95.7187468873
 30
0.0
 11
79.4654231457
 21
92.8388087766
 31
0.0
  0
LINE
  5
158
330
1F
100
AcDbEntity
  8
0
  6
SLD-Gestrichelt
 62
     7
370
     0
100
AcDbLine
 10
189.5154252587
 20
118.98374732
 30
0.0
 11
190.215422207
 21
119.6837475279
 31
0.0
  0
LINE
  5
159
330
1F
100
AcDbEntity
  8
0
  6
SLD-Gestrichelt
 62
     7
370
     0
100
AcDbLine
 10
190.215422207
 20
119.6837475279
 30
0.0
 11
190.215422207
 21
125.5087478773
 31
0.0
  0
LINE
  5
15A
330
1F
100
AcDbEntity
  8
0
  6
SLD-Gestrichelt
 62
     7
370
     0
100
AcDbLine
 10
189.6654203473
 20
119.1337475309
 30
0.0
 11
189.5154252587
 21
118.98374732
 31
0.0
  0
LINE
  5
15B
330
1F
100
AcDbEntity
  8
0
  6
SLD-Gestrichelt
 62
     7
370
     0
100
AcDbLine
 10
190.215422207
 20
101.9087469892
 30
0.0
 11
190.215422207
 21
107.7337473386
 31
0.0
  0
LINE
  5
15C
330
1F
100
AcDbEntity
  8
0
  6
SLD-Gestrichelt
 62
     7
370
     0
100
AcDbLine
 10
190.215422207
 20
107.7337473386
 30
0.0
 11
189.5154252587
 21
108.4337475465
 31
0.0
  0
LINE
  5
15D
330
1F
100
AcDbEntity
  8
0
  6
SLD-Gestrichelt
 62
     7
370
     0
100
AcDbLine
 10
189.5154252587
 20
108.4337475465
 30
0.0
 11
189.6654203473
 21
108.2837473357
 31
0.0
  0
LINE
  5
15E
330
1F
100
AcDbEntity
  8
0
  6
SLD-Gestrichelt
 62
     7
370
     0
100
AcDbLine
 10
88.4154237746
 20
95.7187468873
 30
0.0
 11
88.4154237746
 21
91.7450095282
 31
0.0
  0
ARC
  5
15F
330
1F
100
AcDbEntity
  8
0
  6
SLD-Gestrichelt
 62
     7
370
     0
100
AcDbCircle
 10
166.5618088449
 20
103.9105959844
 30
0.0
 40
0.09639078551192
100
AcDbArc
 50
179.4497196348
 51
272.1495110249
  0
LINE
  5
160
330
1F
100
AcDbEntity
  8
0
  6
SLD-Gestrichelt
 62
     7
370
     0
100
AcDbLine
 10
166.465422505
 20
117.2325873037
 30
0.0
 11
166.465422505
 21
103.911521727
 31
0.0
  0
ARC
  5
161
330
1F
100
AcDbEntity
  8
0
  6
SLD-Gestrichelt
 62
     7
370
     0
100
AcDbCircle
 10
167.4711512955
 20
103.8992840483
 30
0.0
 40
0.0942766901646458
100
AcDbArc
 50
266.5174686545
 51
0.6181476605
  0
LINE
  5
162
330
1F
100
AcDbEntity
  8
0
  6
SLD-Gestrichelt
 62
     7
370
     0
100
AcDbLine
 10
167.565422499
 20
117.2995782678
 30
0.0
 11
167.565422499
 21
103.9003011526
 31
0.0
  0
LINE
  5
163
330
1F
100
AcDbEntity
  8
0
  6
SLD-Gestrichelt
 62
     7
370
     0
100
AcDbLine
 10
78.3154241679
 20
95.7187468873
 30
0.0
 11
78.3154241679
 21
94.0180699097
 31
0.0
  0
LINE
  5
164
330
1F
100
AcDbEntity
  8
0
  6
SLD-Gestrichelt
 62
     7
370
     0
100
AcDbLine
 10
79.4654231457
 20
131.6987479792
 30
0.0
 11
79.4654231457
 21
134.57868609
 31
0.0
  0
LINE
  5
165
330
1F
100
AcDbEntity
  8
0
  6
SLD-Gestrichelt
 62
     7
370
     0
100
AcDbLine
 10
78.3154241679
 20
131.6987479792
 30
0.0
 11
78.3154241679
 21
133.3994249569
 31
0.0
  0
LINE
  5
166
330
1F
100
AcDbEntity
  8
0
  6
SLD-Gestrichelt
 62
     7
370
     0
100
AcDbLine
 10
84.4154231189
 20
131.6987479792
 30
0.0
 11
84.4154231189
 21
135.5528550909
 31
0.0
  0
LINE
  5
167
330
1F
100
AcDbEntity
  8
0
  6
SLD-Gestrichelt
 62
     7
370
     0
100
AcDbLine
 10
160.2154247402
 20
104.2587476538
 30
0.0
 11
160.2154247402
 21
123.1587472127
 31
0.0
  0
LINE
  5
168
330
1F
100
AcDbEntity
  8
0
  6
SLD-Gestrichelt
 62
     7
370
     0
100
AcDbLine
 10
162.215425068
 20
104.2087477387
 30
0.0
 11
162.215425068
 21
123.2087471278
 31
0.0
  0
ARC
  5
169
330
1F
100
AcDbEntity
  8
0
  6
SLD-Gestrichelt
 62
     7
370
     0
100
AcDbCircle
 10
166.9311010253
 20
94.7183318284
 30
0.0
 40
9.63547536044208
100
AcDbArc
 50
92.7702263045
 51
99.9394542074
  0
LINE
  5
16A
330
1F
100
AcDbEntity
  8
0
  6
SLD-Gestrichelt
 62
     7
370
     0
100
AcDbLine
 10
166.465422505
 20
119.7667348885
 30
0.0
 11
166.465422505
 21
123.2087471278
 31
0.0
  0
ARC
  5
16B
330
1F
100
AcDbEntity
  8
0
  6
SLD-Gestrichelt
 62
     7
370
     0
100
AcDbCircle
 10
166.6793417221
 20
118.3919621387
 30
0.0
 40
1.391316479145588
100
AcDbArc
 50
98.8444871123
 51
261.1555128877
  0
LINE
  5
16C
330
1F
100
AcDbEntity
  8
0
  6
SLD-Gestrichelt
 62
     7
370
     0
100
AcDbLine
 10
166.465422505
 20
104.3423180224
 30
0.0
 11
166.465422505
 21
117.0171893889
 31
0.0
  0
LINE
  5
16D
330
1F
100
AcDbEntity
  8
0
  6
SLD-Gestrichelt
 62
     7
370
     0
100
AcDbLine
 10
166.465422505
 20
117.0171893889
 30
0.0
 11
166.465422505
 21
104.3423180224
 31
0.0
  0
ARC
  5
16E
330
1F
100
AcDbEntity
  8
0
  6
SLD-Gestrichelt
 62
     7
370
     0
100
AcDbCircle
 10
166.8936199326
 20
94.666450722
 30
0.0
 40
9.687639209644866
100
AcDbArc
 50
80.0636763273
 51
86.0234779021
  0
LINE
  5
16F
330
1F
100
AcDbEntity
  8
0
  6
SLD-Gestrichelt
 62
     7
370
     0
100
AcDbLine
 10
167.565422499
 20
104.3305814953
 30
0.0
 11
167.565422499
 21
117.0844378637
 31
0.0
  0
ARC
  5
170
330
1F
100
AcDbEntity
  8
0
  6
SLD-Gestrichelt
 62
     7
370
     0
100
AcDbCircle
 10
167.1621529254
 20
118.3978304022
 30
0.0
 40
1.373909134318682
100
AcDbArc
 50
287.0688010215
 51
72.9311989785
  0
LINE
  5
171
330
1F
100
AcDbEntity
  8
0
  6
SLD-Gestrichelt
 62
     7
370
     0
100
AcDbLine
 10
167.565422499
 20
119.7112229408
 30
0.0
 11
167.565422499
 21
123.2087471278
 31
0.0
  0
ARC
  5
172
330
1F
100
AcDbEntity
  8
0
  6
SLD-Gestrichelt
 62
     7
370
     0
100
AcDbCircle
 10
172.7154221324
 20
132.4365873945
 30
0.0
 40
9.473262940615117
100
AcDbArc
 50
259.6113253364
 51
280.3886746636
  0
ARC
  5
173
330
1F
100
AcDbEntity
  8
0
  6
SLD-Gestrichelt
 62
     7
370
     0
100
AcDbCircle
 10
172.977265289
 20
138.0408407058
 30
0.0
 40
15.0517121728424
100
AcDbArc
 50
260.2003917653
 51
262.479020736
  0
ARC
  5
174
330
1F
100
AcDbEntity
  8
0
  6
SLD-Gestrichelt
 62
     7
370
     0
100
AcDbCircle
 10
172.9645098174
 20
137.957095219
 30
0.0
 40
14.96701768956783
100
AcDbArc
 50
260.1939438221
 51
262.4854686792
  0
ARC
  5
175
330
1F
100
AcDbEntity
  8
0
  6
SLD-Gestrichelt
 62
     7
370
     0
100
AcDbCircle
 10
172.7154221324
 20
132.4365286988
 30
0.0
 40
9.473205207155308
100
AcDbArc
 50
259.6112613206
 51
280.3887386794
  0
ARC
  5
176
330
1F
100
AcDbEntity
  8
0
  6
SLD-Gestrichelt
 62
     7
370
     0
100
AcDbCircle
 10
172.4614130661
 20
137.9895118969
 30
0.0
 40
14.99979958432929
100
AcDbArc
 50
277.5169749753
 51
279.8035051352
  0
ARC
  5
177
330
1F
100
AcDbEntity
  8
0
  6
SLD-Gestrichelt
 62
     7
370
     0
100
AcDbCircle
 10
172.4697010333
 20
137.9350972706
 30
0.0
 40
14.94476839854701
100
AcDbArc
 50
277.5127645634
 51
279.8077155471
  0
ARC
  5
178
330
1F
100
AcDbEntity
  8
0
  6
SLD-Gestrichelt
 62
     7
370
     0
100
AcDbCircle
 10
173.6503602451
 20
108.9988168712
 30
0.0
 40
1.365653388751531
100
AcDbArc
 50
304.4903698217
 51
358.3186579566
  0
ARC
  5
179
330
1F
100
AcDbEntity
  8
0
  6
SLD-Gestrichelt
 62
     7
370
     0
100
AcDbCircle
 10
173.4070069307
 20
108.8859383718
 30
0.0
 40
1.610065850126945
100
AcDbArc
 50
2.5918715108
 51
50.8426961828
  0
ARC
  5
17A
330
1F
100
AcDbEntity
  8
0
  6
SLD-Gestrichelt
 62
     7
370
     0
100
AcDbCircle
 10
172.7154221324
 20
108.7343381784
 30
0.0
 40
2.208700925610734
100
AcDbArc
 50
39.3375851304
 51
140.6624148696
  0
ARC
  5
17B
330
1F
100
AcDbEntity
  8
0
  6
SLD-Gestrichelt
 62
     7
370
     0
100
AcDbCircle
 10
172.0380832933
 20
108.8787731572
 30
0.0
 40
1.624630592578024
100
AcDbArc
 50
129.3873172113
 51
177.1784048052
  0
ARC
  5
17C
330
1F
100
AcDbEntity
  8
0
  6
SLD-Gestrichelt
 62
     7
370
     0
100
AcDbCircle
 10
171.7812261925
 20
108.9992167539
 30
0.0
 40
1.366403303320585
100
AcDbArc
 50
181.697194114
 51
235.4934749417
  0
ARC
  5
17D
330
1F
100
AcDbEntity
  8
0
  6
SLD-Gestrichelt
 62
     7
370
     0
100
AcDbCircle
 10
172.7154221324
 20
109.6759520303
 30
0.0
 40
2.483550066483915
100
AcDbArc
 50
226.5413163781
 51
313.4586836219
  0
ARC
  5
17E
330
1F
100
AcDbEntity
  8
0
  6
SLD-Gestrichelt
 62
     7
370
     0
100
AcDbCircle
 10
172.7154221324
 20
109.6759629143
 30
0.0
 40
2.483557966888032
100
AcDbArc
 50
226.541489089
 51
313.458510911
  0
ARC
  5
17F
330
1F
100
AcDbEntity
  8
0
  6
SLD-Gestrichelt
 62
     7
370
     0
100
AcDbCircle
 10
171.7929167653
 20
109.0055894263
 30
0.0
 40
1.378290651760029
100
AcDbArc
 50
181.9475983973
 51
235.2430706584
  0
ARC
  5
180
330
1F
100
AcDbEntity
  8
0
  6
SLD-Gestrichelt
 62
     7
370
     0
100
AcDbCircle
 10
172.0283890457
 20
108.8836524897
 30
0.0
 40
1.61471389117395
100
AcDbArc
 50
129.2313240307
 51
177.3343979858
  0
ARC
  5
181
330
1F
100
AcDbEntity
  8
0
  6
SLD-Gestrichelt
 62
     7
370
     0
100
AcDbCircle
 10
172.7154221324
 20
108.7234899996
 30
0.0
 40
2.215593346475146
100
AcDbArc
 50
39.5545594855
 51
140.4454405145
  0
ARC
  5
182
330
1F
100
AcDbEntity
  8
0
  6
SLD-Gestrichelt
 62
     7
370
     0
100
AcDbCircle
 10
173.4229016561
 20
108.8939385945
 30
0.0
 40
1.593842200188682
100
AcDbArc
 50
2.3304099442
 51
51.1041577495
  0
ARC
  5
183
330
1F
100
AcDbEntity
  8
0
  6
SLD-Gestrichelt
 62
     7
370
     0
100
AcDbCircle
 10
173.6358800147
 20
109.0067102692
 30
0.0
 40
1.380379169063086
100
AcDbArc
 50
304.8002289171
 51
358.0087988612
  0
LINE
  5
184
330
1F
100
AcDbEntity
  8
0
  6
SLD-Gestrichelt
 62
     7
370
     0
100
AcDbLine
 10
189.5154252587
 20
118.98374732
 30
0.0
 11
189.5154252587
 21
123.1883921416
 31
0.0
  0
ARC
  5
185
330
1F
100
AcDbEntity
  8
0
  6
SLD-Gestrichelt
 62
     7
370
     0
100
AcDbCircle
 10
186.6654212441
 20
118.4837467808
 30
0.0
 40
0.500000539225721
100
AcDbArc
 50
89.9999456775
 51
179.9999476009
  0
LINE
  5
186
330
1F
100
AcDbEntity
  8
0
  6
SLD-Gestrichelt
 62
     7
370
     0
100
AcDbLine
 10
186.1654207049
 20
118.4837472381
 30
0.0
 11
186.1654207049
 21
108.9337476285
 31
0.0
  0
ARC
  5
187
330
1F
100
AcDbEntity
  8
0
  6
SLD-Gestrichelt
 62
     7
370
     0
100
AcDbCircle
 10
186.6654285806
 20
108.9337554222
 30
0.0
 40
0.5000078757101641
100
AcDbArc
 50
180.0008930789
 51
269.9992136427
  0
LINE
  5
188
330
1F
100
AcDbEntity
  8
0
  6
SLD-Gestrichelt
 62
     7
370
     0
100
AcDbLine
 10
189.5154252587
 20
108.4337475465
 30
0.0
 11
189.5154252587
 21
104.2291027249
 31
0.0
  0
LINE
  5
189
330
1F
100
AcDbEntity
  8
0
  6
SLD-Gestrichelt
 62
     7
370
     0
100
AcDbLine
 10
167.565422499
 20
117.0844378637
 30
0.0
 11
167.565422499
 21
104.3305814953
 31
0.0
  0
ARC
  5
18A
330
1F
100
AcDbEntity
  8
0
  6
SLD-Gestrichelt
 62
     7
370
     0
100
AcDbCircle
 10
186.6654285806
 20
118.4837394444
 30
0.0
 40
0.5000078757101784
100
AcDbArc
 50
90.0007863573
 51
179.9991069211
  0
ARC
  5
18B
330
1F
100
AcDbEntity
  8
0
  6
SLD-Gestrichelt
 62
     7
370
     0
100
AcDbCircle
 10
186.6654212441
 20
108.9337480857
 30
0.0
 40
0.500000539225721
100
AcDbArc
 50
180.0000523991
 51
270.0000543225
  0
LINE
  5
18C
330
1F
100
AcDbEntity
  8
0
  6
SLD-Gestrichelt
 62
     7
370
     0
100
AcDbLine
 10
186.1654207049
 20
108.9337476285
 30
0.0
 11
186.1654207049
 21
118.4837472381
 31
0.0
  0
LINE
  5
18D
330
1F
100
AcDbEntity
  8
0
  6
SLD-Gestrichelt
 62
     7
370
     0
100
AcDbLine
 10
132.0154242156
 20
123.2087471278
 30
0.0
 11
132.0154242156
 21
104.2087477387
 31
0.0
  0
LINE
  5
18E
330
1F
100
AcDbEntity
  8
0
  6
SLD-Gestrichelt
 62
     7
370
     0
100
AcDbLine
 10
129.0154237239
 20
123.2087471278
 30
0.0
 11
129.0154237239
 21
104.2087477387
 31
0.0
  0
ARC
  5
18F
330
1F
100
AcDbEntity
  8
0
  6
SLD-Gestrichelt
 62
     7
370
     0
100
AcDbCircle
 10
172.7154221324
 20
108.5264824511
 30
0.0
 40
2.345972898640994
100
AcDbArc
 50
43.2669293618
 51
136.7330706382
  0
LINE
  5
190
330
1F
100
AcDbEntity
  8
0
  6
SLD-Gestrichelt
 62
     7
370
     0
100
AcDbLine
 10
120.6654239385
 20
122.2087478952
 30
0.0
 11
120.6654239385
 21
105.2087469713
 31
0.0
  0
LINE
  5
191
330
1F
100
AcDbEntity
  8
0
  6
SLD-Gestrichelt
 62
     7
370
     0
100
AcDbLine
 10
120.1654238565
 20
104.7087478207
 30
0.0
 11
120.1654238565
 21
122.6902556361
 31
0.0
  0
LINE
  5
192
330
1F
100
AcDbEntity
  8
0
  6
SLD-Gestrichelt
 62
     7
370
     0
100
AcDbLine
 10
115.1654239683
 20
82.2246241139
 30
0.0
 11
115.1654239683
 21
87.3087475763
 31
0.0
  0
LINE
  5
193
330
1F
100
AcDbEntity
  8
0
  6
SLD-Gestrichelt
 62
     7
370
     0
100
AcDbLine
 10
123.1654243483
 20
87.3087475763
 30
0.0
 11
115.1654239683
 21
87.3087475763
 31
0.0
  0
LINE
  5
194
330
1F
100
AcDbEntity
  8
0
  6
SLD-Gestrichelt
 62
     7
370
     0
100
AcDbLine
 10
126.4030992924
 20
87.3087475763
 30
0.0
 11
123.1654243483
 21
87.3087475763
 31
0.0
  0
LINE
  5
195
330
1F
100
AcDbEntity
  8
0
  6
SLD-Gestrichelt
 62
     7
370
     0
100
AcDbLine
 10
126.3054240434
 20
86.9043524133
 30
0.0
 11
126.3054240434
 21
86.2109101133
 31
0.0
  0
LINE
  5
196
330
1F
100
AcDbEntity
  8
0
  6
SLD-Gestrichelt
 62
     7
370
     0
100
AcDbLine
 10
136.1654236851
 20
87.3087475763
 30
0.0
 11
130.0277490108
 21
87.3087475763
 31
0.0
  0
LINE
  5
197
330
1F
100
AcDbEntity
  8
0
  6
SLD-Gestrichelt
 62
     7
370
     0
100
AcDbLine
 10
130.1254242597
 20
86.2109101133
 30
0.0
 11
130.1254242597
 21
86.9043524133
 31
0.0
  0
LINE
  5
198
330
1F
100
AcDbEntity
  8
0
  6
SLD-Gestrichelt
 62
     7
370
     0
100
AcDbLine
 10
136.1654236851
 20
87.3087475763
 30
0.0
 11
136.1654236851
 21
84.1484701948
 31
0.0
  0
LINE
  5
199
330
1F
100
AcDbEntity
  8
0
  6
SLD-Gestrichelt
 62
     7
370
     0
100
AcDbLine
 10
129.0154237239
 20
105.2087469713
 30
0.0
 11
129.0154237239
 21
122.2087478952
 31
0.0
  0
ARC
  5
19A
330
1F
100
AcDbEntity
  8
0
  6
SLD-Gestrichelt
 62
     7
370
     0
100
AcDbCircle
 10
172.7154221324
 20
109.4811414453
 30
0.0
 40
2.345972726939587
100
AcDbArc
 50
223.2669249066
 51
316.7330750934
  0
LINE
  5
19B
330
1F
100
AcDbEntity
  8
0
  6
SLD-Gestrichelt
 62
     7
370
     0
100
AcDbLine
 10
126.6997218071
 20
140.1087472902
 30
0.0
 11
123.1654243483
 21
140.1087472902
 31
0.0
  0
LINE
  5
19C
330
1F
100
AcDbEntity
  8
0
  6
SLD-Gestrichelt
 62
     7
370
     0
100
AcDbLine
 10
126.3054240434
 20
140.8284007327
 30
0.0
 11
126.3054240434
 21
141.5139808075
 31
0.0
  0
LINE
  5
19D
330
1F
100
AcDbEntity
  8
0
  6
SLD-Gestrichelt
 62
     7
370
     0
100
AcDbLine
 10
123.1654243483
 20
140.1087472902
 30
0.0
 11
115.1654239683
 21
140.1087472902
 31
0.0
  0
LINE
  5
19E
330
1F
100
AcDbEntity
  8
0
  6
SLD-Gestrichelt
 62
     7
370
     0
100
AcDbLine
 10
136.1654236851
 20
140.1087472902
 30
0.0
 11
129.731126496
 21
140.1087472902
 31
0.0
  0
LINE
  5
19F
330
1F
100
AcDbEntity
  8
0
  6
SLD-Gestrichelt
 62
     7
370
     0
100
AcDbLine
 10
130.1254242597
 20
141.5139808075
 30
0.0
 11
130.1254242597
 21
140.8284007327
 31
0.0
  0
LINE
  5
1A0
330
1F
100
AcDbEntity
  8
0
  6
SLD-Gestrichelt
 62
     7
370
     0
100
AcDbLine
 10
136.1654236851
 20
140.1087472902
 30
0.0
 11
136.1654236851
 21
143.555188434
 31
0.0
  0
LWPOLYLINE
  5
1A1
330
1F
100
AcDbEntity
  8
0
  6
SLD-Gestrichelt
 62
     7
370
     0
100
AcDbPolyline
 90
        4
 70
   128
 43
0.0
 10
190.215422207
 20
119.6837475279
 10
189.9821370779
 20
119.4504572765
 10
189.7487550913
 20
119.2170785496
 10
189.5154252587
 20
118.98374732
  0
LINE
  5
1A2
330
1F
100
AcDbEntity
  8
0
  6
SLD-Gestrichelt
 62
     7
370
     0
100
AcDbLine
 10
190.215422207
 20
119.6837475279
 30
0.0
 11
190.215422207
 21
123.5941405164
 31
0.0
  0
LWPOLYLINE
  5
1A3
330
1F
100
AcDbEntity
  8
0
  6
SLD-Gestrichelt
 62
     7
370
     0
100
AcDbPolyline
 90
        4
 70
   128
 43
0.0
 10
189.5154252587
 20
118.98374732
 10
189.7487550913
 20
119.2170785496
 10
189.9821370779
 20
119.4504572765
 10
190.215422207
 20
119.6837475279
  0
LWPOLYLINE
  5
1A4
330
1F
100
AcDbEntity
  8
0
  6
SLD-Gestrichelt
 62
     7
370
     0
100
AcDbPolyline
 90
        4
 70
   128
 43
0.0
 10
189.5154252587
 20
108.4337475465
 10
189.7487550913
 20
108.200416317
 10
189.9821370779
 20
107.96703759
 10
190.215422207
 20
107.7337473386
  0
LINE
  5
1A5
330
1F
100
AcDbEntity
  8
0
  6
SLD-Gestrichelt
 62
     7
370
     0
100
AcDbLine
 10
190.215422207
 20
107.7337473386
 30
0.0
 11
190.215422207
 21
103.8233543502
 31
0.0
  0
LWPOLYLINE
  5
1A6
330
1F
100
AcDbEntity
  8
0
  6
SLD-Gestrichelt
 62
     7
370
     0
100
AcDbPolyline
 90
        4
 70
   128
 43
0.0
 10
190.215422207
 20
107.7337473386
 10
189.9821370779
 20
107.96703759
 10
189.7487550913
 20
108.200416317
 10
189.5154252587
 20
108.4337475465
  0
LWPOLYLINE
  5
1A7
330
1F
100
AcDbEntity
  8
0
  6
SLD-Gestrichelt
 62
     7
370
     0
100
AcDbPolyline
 90
        3
 70
   128
 43
0.0
 10
166.5654241977
 20
120.0524087751
 10
167.1124868034
 20
120.072584016
 10
167.4654245315
 20
120.007749995
  0
LINE
  5
1A8
330
1F
100
AcDbEntity
  8
0
  6
SLD-Gestrichelt
 62
     7
370
     0
100
AcDbLine
 10
167.565422499
 20
119.9263631122
 30
0.0
 11
167.565422499
 21
123.6337478028
 31
0.0
  0
LWPOLYLINE
  5
1A9
330
1F
100
AcDbEntity
  8
0
  6
SLD-Gestrichelt
 62
     7
370
     0
100
AcDbPolyline
 90
        6
 70
   128
 43
0.0
 10
167.4654245315
 20
120.007749995
 10
167.4993134974
 20
119.9949857534
 10
167.5299540101
 20
119.9766200723
 10
167.5520151792
 20
119.9561463424
 10
167.5634108423
 20
119.9371399113
 10
167.565422499
 20
119.9263631122
  0
ARC
  5
1AA
330
1F
100
AcDbEntity
  8
0
  6
SLD-Gestrichelt
 62
     7
370
     0
100
AcDbCircle
 10
166.5679368774
 20
119.942544669
 30
0.0
 40
0.1098928358478692
100
AcDbArc
 50
91.3101717105
 51
158.8847442824
  0
LINE
  5
1AB
330
1F
100
AcDbEntity
  8
0
  6
SLD-Gestrichelt
 62
     7
370
     0
100
AcDbLine
 10
166.465422505
 20
119.9821330362
 30
0.0
 11
166.465422505
 21
123.6337478028
 31
0.0
  0
LWPOLYLINE
  5
1AC
330
1F
100
AcDbEntity
  8
0
  6
SLD-Gestrichelt
 62
     7
370
     0
100
AcDbPolyline
 90
        3
 70
   128
 43
0.0
 10
79.4654231457
 20
97.856715204
 10
78.8911938606
 20
97.7404135035
 10
78.3154241679
 20
97.6383927034
  0
LINE
  5
1AD
330
1F
100
AcDbEntity
  8
0
  6
SLD-Gestrichelt
 62
     7
370
     0
100
AcDbLine
 10
78.3154241679
 20
95.7187468873
 30
0.0
 11
78.3154241679
 21
97.6383927034
 31
0.0
  0
ELLIPSE
  5
1AE
330
1F
100
AcDbEntity
  8
0
  6
SLD-Gestrichelt
 62
     7
370
     0
100
AcDbEllipse
 10
74.0729921323
 20
113.7087474333
 30
0.0
 11
20.19992452772428
 21
-1.421085471520200E-14
 31
0.0
210
0.0
220
0.0
230
1.0
 40
0.816496581
 41
1.300566354937166
 42
1.359198697442763
  0
LINE
  5
1AF
330
1F
100
AcDbEntity
  8
0
  6
SLD-Gestrichelt
 62
     7
370
     0
100
AcDbLine
 10
78.3154241679
 20
131.6987479792
 30
0.0
 11
78.3154241679
 21
129.8340632336
 31
0.0
  0
LINE
  5
1B0
330
1F
100
AcDbEntity
  8
0
  6
SLD-Gestrichelt
 62
     7
370
     0
100
AcDbLine
 10
88.4154237746
 20
95.7187468873
 30
0.0
 11
88.4154237746
 21
97.421234356
 31
0.0
  0
LINE
  5
1B1
330
1F
100
AcDbEntity
  8
0
  6
SLD-Gestrichelt
 62
     7
370
     0
100
AcDbLine
 10
79.4654231457
 20
95.7187468873
 30
0.0
 11
79.4654231457
 21
97.856715204
 31
0.0
  0
LINE
  5
1B2
330
1F
100
AcDbEntity
  8
0
  6
SLD-Gestrichelt
 62
     7
370
     0
100
AcDbLine
 10
79.5464556603
 20
97.9072562174
 30
0.0
 11
79.4654231457
 21
97.856715204
 31
0.0
  0
LINE
  5
1B3
330
1F
100
AcDbEntity
  8
0
  6
SLD-Gestrichelt
 62
     7
370
     0
100
AcDbLine
 10
79.4654231457
 20
131.6987479792
 30
0.0
 11
79.4654231457
 21
129.6033727692
 31
0.0
  0
LWPOLYLINE
  5
1B4
330
1F
100
AcDbEntity
  8
0
  6
SLD-Gestrichelt
 62
     7
370
     0
100
AcDbPolyline
 90
        3
 70
   128
 43
0.0
 10
79.4654231457
 20
129.6033727692
 10
79.5515127419
 20
129.5499297546
 10
79.6154238222
 20
129.5102386491
  0
LINE
  5
1B5
330
1F
100
AcDbEntity
  8
0
  6
SLD-Gestrichelt
 62
     7
370
     0
100
AcDbLine
 10
84.4154231189
 20
131.6987479792
 30
0.0
 11
84.4154231189
 21
129.9962605105
 31
0.0
  0
LINE
  5
1B6
330
1F
100
AcDbEntity
  8
0
  6
SLD-Gestrichelt
 62
     7
370
     0
100
AcDbLine
 10
159.2154227136
 20
109.6587473282
 30
0.0
 11
159.2154227136
 21
117.7587475383
 31
0.0
  0
LINE
  5
1B7
330
1F
100
AcDbEntity
  8
0
  6
SLD-Gestrichelt
 62
     7
370
     0
100
AcDbLine
 10
160.2154247402
 20
118.7587472366
 30
0.0
 11
160.2154247402
 21
108.6769400851
 31
0.0
  0
LWPOLYLINE
  5
1B8
330
1F
100
AcDbEntity
  8
0
  6
SLD-Gestrichelt
 62
     7
370
     0
100
AcDbPolyline
 90
       28
 70
   128
 43
0.0
 10
98.375436285
 20
90.6410849409
 10
98.5592812238
 20
90.6592755334
 10
99.2081997855
 20
90.7037387358
 10
99.8956443681
 20
90.7255391346
 10
101.2130849002
 20
90.7011440711
 10
102.3911409019
 20
90.5894561426
 10
103.1197396977
 20
90.4896984564
 10
103.8590747802
 20
90.3606655763
 10
104.384825
 20
90.2507769631
 10
104.7274944311
 20
90.1721100078
 10
104.9654091647
 20
90.1084485219
 10
104.9640391892
 20
90.1088136004
 10
104.7353976345
 20
90.1698617951
 10
104.3982863365
 20
90.2475471364
 10
103.8795950761
 20
90.3565472679
 10
103.1378185315
 20
90.4866530315
 10
102.407609479
 20
90.5872321443
 10
101.2361891506
 20
90.6998104171
 10
99.9146088897
 20
90.7258930372
 10
99.2260662778
 20
90.704729663
 10
98.5759397907
 20
90.6607600616
 10
97.9952936931
 20
90.6037836091
 10
97.6593162803
 20
90.5630214827
 10
97.4654437913
 20
90.5301327573
 10
97.4664486883
 20
90.530302258
 10
97.6544426693
 20
90.5621814297
 10
97.9864302961
 20
90.6025989668
 10
98.375436285
 20
90.6410849409
  0
LWPOLYLINE
  5
1B9
330
1F
100
AcDbEntity
  8
0
  6
SLD-Gestrichelt
 62
     7
370
     0
100
AcDbPolyline
 90
       41
 70
   128
 43
0.0
 10
99.1902802078
 20
136.7141528742
 10
98.5592784299
 20
136.7581504153
 10
97.9861574186
 20
136.8148120807
 10
97.654355125
 20
136.8552240299
 10
97.5022002993
 20
136.8793881254
 10
97.4660929231
 20
136.8871609436
 10
97.4654363407
 20
136.8873025046
 10
97.5042138187
 20
136.8789932446
 10
97.6584035842
 20
136.8544808344
 10
97.9938315166
 20
136.8137596862
 10
98.2499005212
 20
136.7873231636
 10
98.5740063651
 20
136.7568353878
 10
99.2246841951
 20
136.7128490226
 10
99.9140519588
 20
136.691661434
 10
100.3719041063
 20
136.6902029829
 10
100.8157491623
 20
136.6988773213
 10
101.2374985902
 20
136.7176844494
 10
101.7608106075
 20
136.7590482102
 10
102.4058599895
 20
136.8298734294
 10
103.1342301456
 20
136.9301545189
 10
103.5089012174
 20
136.9913442747
 10
103.8746539442
 20
137.0598970668
 10
104.3959314874
 20
137.1692883538
 10
104.7345953001
 20
137.2472679929
 10
104.9141263528
 20
137.293837847
 10
104.9646152122
 20
137.3087650852
 10
104.9654049738
 20
137.3089979158
 10
104.9024214907
 20
137.291522579
 10
104.6978448456
 20
137.2402663098
 10
104.4697518399
 20
137.1873317973
 10
104.2316829724
 20
137.1343376802
 10
103.9298036074
 20
137.0704023854
 10
103.5881288288
 20
137.0044479833
 10
103.2460885061
 20
136.9448470639
 10
102.9299827231
 20
136.8952858017
 10
102.6492015397
 20
136.8554736243
 10
101.8984721912
 20
136.7703172134
 10
101.1661173715
 20
136.7152443842
 10
100.4829931943
 20
136.6902569996
 10
99.8466353802
 20
136.6915217356
 10
99.1902802078
 20
136.7141528742
  0
LINE
  5
1BA
330
1F
100
AcDbEntity
  8
0
  6
SLD-Gestrichelt
 62
     7
370
     0
100
AcDbLine
 10
155.1154240905
 20
109.6587473282
 30
0.0
 11
155.1154240905
 21
117.7587475383
 31
0.0
  0
LINE
  5
1BB
330
1F
100
AcDbEntity
  8
0
  6
SLD-Gestrichelt
 62
     7
370
     0
100
AcDbLine
 10
154.18409034
 20
111.2087474891
 30
0.0
 11
154.18409034
 21
116.2087473774
 31
0.0
  0
LINE
  5
1BC
330
1F
100
AcDbEntity
  8
0
  6
SLD-Gestrichelt
 62
     7
370
     0
100
AcDbLine
 10
132.0154242156
 20
111.2087474891
 30
0.0
 11
132.0154242156
 21
116.2087473774
 31
0.0
  0
LINE
  5
1BD
330
1F
100
AcDbEntity
  8
0
  6
SLD-Gestrichelt
 62
     7
370
     0
100
AcDbLine
 10
175.0154256759
 20
123.2087471278
 30
0.0
 11
170.4154223142
 21
123.2087471278
 31
0.0
  0
LINE
  5
1BE
330
1F
100
AcDbEntity
  8
0
  6
SLD-Gestrichelt
 62
     7
370
     0
100
AcDbLine
 10
170.4154223142
 20
123.2087471278
 30
0.0
 11
175.0154256759
 21
123.2087471278
 31
0.0
  0
LINE
  5
1BF
330
1F
100
AcDbEntity
  8
0
  6
SLD-Gestrichelt
 62
     7
370
     0
100
AcDbLine
 10
171.0071586011
 20
123.1186183856
 30
0.0
 11
174.4236856638
 21
123.1186183856
 31
0.0
  0
LINE
  5
1C0
330
1F
100
AcDbEntity
  8
0
  6
SLD-Gestrichelt
 62
     7
370
     0
100
AcDbLine
 10
166.465422505
 20
104.3423180224
 30
0.0
 11
166.465422505
 21
103.911521727
 31
0.0
  0
ARC
  5
1C1
330
1F
100
AcDbEntity
  8
0
  6
SLD-Gestrichelt
 62
     7
370
     0
100
AcDbCircle
 10
166.5618832656
 20
103.9106725119
 30
0.0
 40
0.0964644986912369
100
AcDbArc
 50
179.4955960768
 51
272.1036345829
  0
LWPOLYLINE
  5
1C2
330
1F
100
AcDbEntity
  8
0
  6
SLD-Gestrichelt
 62
     7
370
     0
100
AcDbPolyline
 90
        3
 70
   128
 43
0.0
 10
166.5654241977
 20
103.8142730237
 10
167.1124868034
 20
103.8185021596
 10
167.4654245315
 20
103.8051814528
  0
ARC
  5
1C3
330
1F
100
AcDbEntity
  8
0
  6
SLD-Gestrichelt
 62
     7
370
     0
100
AcDbCircle
 10
167.4712190873
 20
103.8992127798
 30
0.0
 40
0.0942096987324954
100
AcDbArc
 50
266.4736828025
 51
0.6619335125
  0
LINE
  5
1C4
330
1F
100
AcDbEntity
  8
0
  6
SLD-Gestrichelt
 62
     7
370
     0
100
AcDbLine
 10
167.565422499
 20
103.9003011526
 30
0.0
 11
167.565422499
 21
104.3305814953
 31
0.0
  0
LWPOLYLINE
  5
1C5
330
1F
100
AcDbEntity
  8
0
  6
SLD-Gestrichelt
 62
     7
370
     0
100
AcDbPolyline
 90
        3
 70
   128
 43
0.0
 10
167.4654245315
 20
103.8051814528
 10
166.9261105297
 20
103.8204597996
 10
166.5654241977
 20
103.8142730237
  0
LINE
  5
1C6
330
1F
100
AcDbEntity
  8
0
  6
SLD-Gestrichelt
 62
     7
370
     0
100
AcDbLine
 10
174.4236856638
 20
123.1186183856
 30
0.0
 11
171.0071586011
 21
123.1186183856
 31
0.0
  0
LINE
  5
1C7
330
1F
100
AcDbEntity
  8
0
  6
SLD-Gestrichelt
 62
     7
370
     0
100
AcDbLine
 10
115.1654239683
 20
87.3087475763
 30
0.0
 11
123.1654243483
 21
87.3087475763
 31
0.0
  0
LWPOLYLINE
  5
1C8
330
1F
100
AcDbEntity
  8
0
  6
SLD-Gestrichelt
 62
     7
370
     0
100
AcDbPolyline
 90
        3
 70
   128
 43
0.0
 10
167.4654245315
 20
117.3133113177
 10
166.9261105297
 20
117.2239795548
 10
166.5654241977
 20
117.2595607338
  0
LWPOLYLINE
  5
1C9
330
1F
100
AcDbEntity
  8
0
  6
SLD-Gestrichelt
 62
     7
370
     0
100
AcDbPolyline
 90
        7
 70
   128
 43
0.0
 10
167.565422499
 20
117.2995782678
 10
167.5628930269
 20
117.3098703136
 10
167.5511509119
 20
117.3199313914
 10
167.5316974459
 20
117.3242445791
 10
167.5055421828
 20
117.323007317
 10
167.4739666222
 20
117.3160040041
 10
167.4654245315
 20
117.3133113177
  0
LINE
  5
1CA
330
1F
100
AcDbEntity
  8
0
  6
SLD-Gestrichelt
 62
     7
370
     0
100
AcDbLine
 10
167.565422499
 20
103.9003011526
 30
0.0
 11
167.565422499
 21
117.2995782678
 31
0.0
  0
LINE
  5
1CB
330
1F
100
AcDbEntity
  8
0
  6
SLD-Gestrichelt
 62
     7
370
     0
100
AcDbLine
 10
166.465422505
 20
103.911521727
 30
0.0
 11
166.465422505
 21
117.2325873037
 31
0.0
  0
LWPOLYLINE
  5
1CC
330
1F
100
AcDbEntity
  8
0
  6
SLD-Gestrichelt
 62
     7
370
     0
100
AcDbPolyline
 90
        6
 70
   128
 43
0.0
 10
166.5654241977
 20
117.2595607338
 10
166.5324330269
 20
117.2638445848
 10
166.5026940344
 20
117.2624734452
 10
166.4804987548
 20
117.2553574422
 10
166.4680600105
 20
117.2434362804
 10
166.465422505
 20
117.2325873037
  0
LINE
  5
1CD
330
1F
100
AcDbEntity
  8
0
  6
SLD-Gestrichelt
 62
     7
370
     0
100
AcDbLine
 10
84.4154231189
 20
131.6987479792
 30
0.0
 11
84.4154231189
 21
135.5528550909
 31
0.0
  0
LINE
  5
1CE
330
1F
100
AcDbEntity
  8
0
  6
SLD-Gestrichelt
 62
     7
370
     0
100
AcDbLine
 10
88.4154237746
 20
95.7187468873
 30
0.0
 11
88.4154237746
 21
91.7450095282
 31
0.0
  0
LINE
  5
1CF
330
1F
100
AcDbEntity
  8
0
  6
SLD-Gestrichelt
 62
     7
370
     0
100
AcDbLine
 10
79.6005915789
 20
97.9072562174
 30
0.0
 11
79.4654231457
 21
97.8233421908
 31
0.0
  0
LWPOLYLINE
  5
1D0
330
1F
100
AcDbEntity
  8
0
  6
SLD-Gestrichelt
 62
     7
370
     0
100
AcDbPolyline
 90
        3
 70
   128
 43
0.0
 10
79.4654231457
 20
97.8233421908
 10
78.8912162123
 20
97.700517507
 10
78.3154241679
 20
97.5916570739
  0
LINE
  5
1D1
330
1F
100
AcDbEntity
  8
0
  6
SLD-Gestrichelt
 62
     7
370
     0
100
AcDbLine
 10
78.3154241679
 20
99.4491128938
 30
0.0
 11
78.3154241679
 21
97.5916570739
 31
0.0
  0
LINE
  5
1D2
330
1F
100
AcDbEntity
  8
0
  6
SLD-Gestrichelt
 62
     7
370
     0
100
AcDbLine
 10
79.4654231457
 20
131.6987479792
 30
0.0
 11
79.4654231457
 21
134.57868609
 31
0.0
  0
LWPOLYLINE
  5
1D3
330
1F
100
AcDbEntity
  8
0
  6
SLD-Gestrichelt
 62
     7
370
     0
100
AcDbPolyline
 90
        3
 70
   128
 43
0.0
 10
79.4654231457
 20
129.6033727692
 10
79.5515127419
 20
129.5499297546
 10
79.6154238222
 20
129.5102386491
  0
LINE
  5
1D4
330
1F
100
AcDbEntity
  8
0
  6
SLD-Gestrichelt
 62
     7
370
     0
100
AcDbLine
 10
78.3154241679
 20
129.8340632336
 30
0.0
 11
78.3154241679
 21
127.9683819727
 31
0.0
  0
LINE
  5
1D5
330
1F
100
AcDbEntity
  8
0
  6
SLD-Gestrichelt
 62
     7
370
     0
100
AcDbLine
 10
79.4553797631
 20
134.5687004493
 30
0.0
 11
79.1395775913
 21
134.0988668369
 31
0.0
  0
LINE
  5
1D6
330
1F
100
AcDbEntity
  8
0
  6
SLD-Gestrichelt
 62
     7
370
     0
100
AcDbLine
 10
78.3154241679
 20
131.6987479792
 30
0.0
 11
78.3154241679
 21
133.3994249569
 31
0.0
  0
LWPOLYLINE
  5
1D7
330
1F
100
AcDbEntity
  8
0
  6
SLD-Gestrichelt
 62
     7
370
     0
100
AcDbPolyline
 90
        3
 70
   128
 43
0.0
 10
78.3780872761
 20
133.3833000378
 10
78.3365800916
 20
133.4458253102
 10
78.3154241679
 20
133.3994249569
  0
LWPOLYLINE
  5
1D8
330
1F
100
AcDbEntity
  8
0
  6
SLD-Gestrichelt
 62
     7
370
     0
100
AcDbPolyline
 90
        3
 70
   128
 43
0.0
 10
79.1395775913
 20
93.3186280297
 10
79.3655089973
 20
92.9459946917
 10
79.4553797631
 20
92.8487944172
  0
LWPOLYLINE
  5
1D9
330
1F
100
AcDbEntity
  8
0
  6
SLD-Gestrichelt
 62
     7
370
     0
100
AcDbPolyline
 90
        3
 70
   128
 43
0.0
 10
78.3154241679
 20
94.0180699097
 10
78.3646725057
 20
93.9929484145
 10
78.3780872761
 20
94.0341948287
  0
LINE
  5
1DA
330
1F
100
AcDbEntity
  8
0
  6
SLD-Gestrichelt
 62
     7
370
     0
100
AcDbLine
 10
78.3154241679
 20
95.7187468873
 30
0.0
 11
78.3154241679
 21
94.0180699097
 31
0.0
  0
LINE
  5
1DB
330
1F
100
AcDbEntity
  8
0
  6
SLD-Gestrichelt
 62
     7
370
     0
100
AcDbLine
 10
79.4654231457
 20
95.7187468873
 30
0.0
 11
79.4654231457
 21
92.8388087766
 31
0.0
  0
LINE
  5
1DC
330
1F
100
AcDbEntity
  8
0
  6
SLD-Gestrichelt
 62
     7
370
     0
100
AcDbLine
 10
79.4654231457
 20
95.7187468873
 30
0.0
 11
79.4654231457
 21
97.8233421908
 31
0.0
  0
LINE
  5
1DD
330
1F
100
AcDbEntity
  8
0
  6
SLD-Gestrichelt
 62
     7
370
     0
100
AcDbLine
 10
78.3154241679
 20
95.7187468873
 30
0.0
 11
78.3154241679
 21
97.5916570739
 31
0.0
  0
ARC
  5
1DE
330
1F
100
AcDbEntity
  8
0
  6
SLD-Gestrichelt
 62
     7
370
     0
100
AcDbCircle
 10
127.151297699
 20
140.8240099928
 30
0.0
 40
0.8458850511768357
100
AcDbArc
 50
179.7025931636
 51
237.7340325855
  0
LINE
  5
1DF
330
1F
100
AcDbEntity
  8
0
  6
SLD-Gestrichelt
 62
     7
370
     0
100
AcDbLine
 10
126.3054240434
 20
140.8284007327
 30
0.0
 11
126.3054240434
 21
86.9043524133
 31
0.0
  0
ARC
  5
1E0
330
1F
100
AcDbEntity
  8
0
  6
SLD-Gestrichelt
 62
     7
370
     0
100
AcDbCircle
 10
127.1895451255
 20
86.9048005004
 30
0.0
 40
0.8841211956749659
100
AcDbArc
 50
152.8133250666
 51
180.0290384411
  0
LINE
  5
1E1
330
1F
100
AcDbEntity
  8
0
  6
SLD-Gestrichelt
 62
     7
370
     0
100
AcDbLine
 10
126.6997218071
 20
140.1087472902
 30
0.0
 11
127.105424547
 21
140.1087472902
 31
0.0
  0
LINE
  5
1E2
330
1F
100
AcDbEntity
  8
0
  6
SLD-Gestrichelt
 62
     7
370
     0
100
AcDbLine
 10
126.4030992924
 20
87.3087475763
 30
0.0
 11
127.105424547
 21
87.3087475763
 31
0.0
  0
LINE
  5
1E3
330
1F
100
AcDbEntity
  8
0
  6
SLD-Gestrichelt
 62
     7
370
     0
100
AcDbLine
 10
130.1254242597
 20
140.8284007327
 30
0.0
 11
130.1254242597
 21
86.9043524133
 31
0.0
  0
ARC
  5
1E4
330
1F
100
AcDbEntity
  8
0
  6
SLD-Gestrichelt
 62
     7
370
     0
100
AcDbCircle
 10
129.2845949865
 20
140.8212461782
 30
0.0
 40
0.8408597114901901
100
AcDbArc
 50
302.075860438
 51
0.4875138129
  0
ARC
  5
1E5
330
1F
100
AcDbEntity
  8
0
  6
SLD-Gestrichelt
 62
     7
370
     0
100
AcDbCircle
 10
129.2452925559
 20
86.9057640715
 30
0.0
 40
0.8801328359032539
100
AcDbArc
 50
359.9081023991
 51
27.2495340932
  0
LINE
  5
1E6
330
1F
100
AcDbEntity
  8
0
  6
SLD-Gestrichelt
 62
     7
370
     0
100
AcDbLine
 10
129.3254237561
 20
140.1087472902
 30
0.0
 11
129.731126496
 21
140.1087472902
 31
0.0
  0
LINE
  5
1E7
330
1F
100
AcDbEntity
  8
0
  6
SLD-Gestrichelt
 62
     7
370
     0
100
AcDbLine
 10
129.3254237561
 20
87.3087475763
 30
0.0
 11
130.0277490108
 21
87.3087475763
 31
0.0
  0
LINE
  5
1E8
330
1F
100
AcDbEntity
  8
0
  6
SLD-Gestrichelt
 62
     7
370
     0
100
AcDbLine
 10
127.105424547
 20
140.1087472902
 30
0.0
 11
129.3254237561
 21
140.1087472902
 31
0.0
  0
LINE
  5
1E9
330
1F
100
AcDbEntity
  8
0
  6
SLD-Gestrichelt
 62
     7
370
     0
100
AcDbLine
 10
127.105424547
 20
87.3087475763
 30
0.0
 11
129.3254237561
 21
87.3087475763
 31
0.0
  0
LINE
  5
1EA
330
1F
100
AcDbEntity
  8
0
  6
SLD-Gestrichelt
 62
     7
370
     0
100
AcDbLine
 10
131.6073559163
 20
144.1759428696
 30
0.0
 11
135.5654247044
 21
144.1759428696
 31
0.0
  0
ARC
  5
1EB
330
1F
100
AcDbEntity
  8
0
  6
SLD-Gestrichelt
 62
     7
370
     0
100
AcDbCircle
 10
135.5558648787
 20
143.566356716
 30
0.0
 40
0.609661109967193
100
AcDbArc
 50
358.9503492893
 51
89.1015334537
  0
LWPOLYLINE
  5
1EC
330
1F
100
AcDbEntity
  8
0
  6
SLD-Gestrichelt
 62
     7
370
     0
100
AcDbPolyline
 90
        3
 70
   128
 43
0.0
 10
130.1254242597
 20
141.5139808075
 10
131.5993521301
 20
144.1616098152
 10
131.6073559163
 20
144.1759428696
  0
LINE
  5
1ED
330
1F
100
AcDbEntity
  8
0
  6
SLD-Gestrichelt
 62
     7
370
     0
100
AcDbLine
 10
130.1254242597
 20
141.5139808075
 30
0.0
 11
130.1254242597
 21
86.2109101133
 31
0.0
  0
LWPOLYLINE
  5
1EE
330
1F
100
AcDbEntity
  8
0
  6
SLD-Gestrichelt
 62
     7
370
     0
100
AcDbPolyline
 90
        3
 70
   128
 43
0.0
 10
124.8234914555
 20
144.1759428696
 10
124.8314952417
 20
144.1616098152
 10
126.3054240434
 20
141.5139808075
  0
LINE
  5
1EF
330
1F
100
AcDbEntity
  8
0
  6
SLD-Gestrichelt
 62
     7
370
     0
100
AcDbLine
 10
131.6073559163
 20
144.1759428696
 30
0.0
 11
131.6073559163
 21
83.5218298004
 31
0.0
  0
ARC
  5
1F0
330
1F
100
AcDbEntity
  8
0
  6
SLD-Gestrichelt
 62
     7
370
     0
100
AcDbCircle
 10
135.5513008901
 20
84.1359184517
 30
0.0
 40
0.6142510510425229
100
AcDbArc
 50
271.317549681
 51
1.1708762429
  0
LINE
  5
1F1
330
1F
100
AcDbEntity
  8
0
  6
SLD-Gestrichelt
 62
     7
370
     0
100
AcDbLine
 10
136.1654236851
 20
143.555188434
 30
0.0
 11
136.1654236851
 21
84.1484701948
 31
0.0
  0
LINE
  5
1F2
330
1F
100
AcDbEntity
  8
0
  6
SLD-Gestrichelt
 62
     7
370
     0
100
AcDbLine
 10
126.3054240434
 20
141.5139808075
 30
0.0
 11
126.3054240434
 21
86.2109101133
 31
0.0
  0
LWPOLYLINE
  5
1F3
330
1F
100
AcDbEntity
  8
0
  6
SLD-Gestrichelt
 62
     7
370
     0
100
AcDbPolyline
 90
       12
 70
   128
 43
0.0
 10
79.1395775913
 20
134.0988668369
 10
79.0737181841
 20
133.9140626357
 10
78.9592847167
 20
133.650567265
 10
78.8299500881
 20
133.4173901693
 10
78.7554033039
 20
133.310804026
 10
78.7166565595
 20
133.2638039009
 10
78.6726050018
 20
133.2180647866
 10
78.6336533664
 20
133.1852859573
 10
78.5970337628
 20
133.1621053384
 10
78.5507544814
 20
133.1457531766
 10
78.470314288
 20
133.1678143458
 10
78.3780872761
 20
133.3833000378
  0
LWPOLYLINE
  5
1F4
330
1F
100
AcDbEntity
  8
0
  6
SLD-Gestrichelt
 62
     7
370
     0
100
AcDbPolyline
 90
       12
 70
   128
 43
0.0
 10
78.3780872761
 20
94.0341948287
 10
78.464025998
 20
94.2439864145
 10
78.5180464326
 20
94.2722110765
 10
78.5604216097
 20
94.2696983682
 10
78.6021970151
 20
94.2526197748
 10
78.6363393007
 20
94.2302028404
 10
78.6756522892
 20
94.1965467052
 10
78.70934754
 20
94.1618679778
 10
78.7573218284
 20
94.1042116599
 10
78.8313619731
 20
93.9978881495
 10
78.9960198043
 20
93.6889069842
 10
79.1395775913
 20
93.3186280297
  0
LINE
  5
1F5
330
1F
100
AcDbEntity
  8
0
  6
SLD-Gestrichelt
 62
     7
370
     0
100
AcDbLine
 10
78.3154241679
 20
133.3994249569
 30
0.0
 11
78.3154241679
 21
94.0180699097
 31
0.0
  0
LINE
  5
1F6
330
1F
100
AcDbEntity
  8
0
  6
SLD-Gestrichelt
 62
     7
370
     0
100
AcDbLine
 10
131.6073559163
 20
83.5218298004
 30
0.0
 11
135.5654247044
 21
83.5218298004
 31
0.0
  0
LINE
  5
1F7
330
1F
100
AcDbEntity
  8
0
  6
SLD-Gestrichelt
 62
     7
370
     0
100
AcDbLine
 10
130.1254242597
 20
86.2109101133
 30
0.0
 11
131.6073559163
 21
83.5218298004
 31
0.0
  0
LINE
  5
1F8
330
1F
100
AcDbEntity
  8
0
  6
SLD-Gestrichelt
 62
     7
370
     0
100
AcDbLine
 10
124.8234914555
 20
83.5218298004
 30
0.0
 11
126.3054240434
 21
86.2109101133
 31
0.0
  0
LINE
  5
1F9
330
1F
100
AcDbEntity
  8
0
  6
SLD-Gestrichelt
 62
     7
370
     0
100
AcDbLine
 10
79.3154243319
 20
126.3488893153
 30
0.0
 11
78.3154241679
 21
126.7358203174
 31
0.0
  0
LINE
  5
1FA
330
1F
100
AcDbEntity
  8
0
  6
SLD-Gestrichelt
 62
     7
370
     0
100
AcDbLine
 10
78.3154241679
 20
127.9683819727
 30
0.0
 11
78.3154241679
 21
126.7358203174
 31
0.0
  0
LWPOLYLINE
  5
1FB
330
1F
100
AcDbEntity
  8
0
  6
SLD-Gestrichelt
 62
     7
370
     0
100
AcDbPolyline
 90
        3
 70
   128
 43
0.0
 10
78.3154241679
 20
100.6815255375
 10
78.8154251812
 20
100.8791037591
 10
79.3154243319
 20
101.0769697593
  0
LINE
  5
1FC
330
1F
100
AcDbEntity
  8
0
  6
SLD-Gestrichelt
 62
     7
370
     0
100
AcDbLine
 10
78.3154241679
 20
100.6815255375
 30
0.0
 11
78.3154241679
 21
99.4491128938
 31
0.0
  0
LWPOLYLINE
  5
1FD
330
1F
100
AcDbEntity
  8
0
  6
SLD-Gestrichelt
 62
     7
370
     0
100
AcDbPolyline
 90
        3
 70
   128
 43
0.0
 10
78.3154241679
 20
123.6895619647
 10
78.8154289065
 20
123.5025170015
 10
79.3154243319
 20
123.3156871737
  0
LINE
  5
1FE
330
1F
100
AcDbEntity
  8
0
  6
SLD-Gestrichelt
 62
     7
370
     0
100
AcDbLine
 10
78.3154241679
 20
126.7358203174
 30
0.0
 11
78.3154241679
 21
123.6895619647
 31
0.0
  0
LWPOLYLINE
  5
1FF
330
1F
100
AcDbEntity
  8
0
  6
SLD-Gestrichelt
 62
     7
370
     0
100
AcDbPolyline
 90
        3
 70
   128
 43
0.0
 10
79.3154243319
 20
104.1079208942
 10
78.815447533
 20
103.917841682
 10
78.3154241679
 20
103.7281042652
  0
LINE
  5
200
330
1F
100
AcDbEntity
  8
0
  6
SLD-Gestrichelt
 62
     7
370
     0
100
AcDbLine
 10
78.3154241679
 20
103.7281042652
 30
0.0
 11
78.3154241679
 21
100.6815255375
 31
0.0
  0
LINE
  5
201
330
1F
100
AcDbEntity
  8
0
  6
SLD-Gestrichelt
 62
     7
370
     0
100
AcDbLine
 10
78.3154241679
 20
123.6895619647
 30
0.0
 11
78.3154241679
 21
122.3052226694
 31
0.0
  0
LINE
  5
202
330
1F
100
AcDbEntity
  8
0
  6
SLD-Gestrichelt
 62
     7
370
     0
100
AcDbLine
 10
78.3154241679
 20
105.1122721971
 30
0.0
 11
78.3154241679
 21
103.7281042652
 31
0.0
  0
LINE
  5
203
330
1F
100
AcDbEntity
  8
0
  6
SLD-Gestrichelt
 62
     7
370
     0
100
AcDbLine
 10
78.3154241679
 20
122.3052226694
 30
0.0
 11
78.3154241679
 21
105.1122721971
 31
0.0
  0
CIRCLE
  5
204
330
1F
100
AcDbEntity
  8
0
  6
SLD-Gestrichelt
 62
     7
370
     0
100
AcDbCircle
 10
117.2154239951
 20
113.7087474333
 30
0.0
 40
5.0
  0
LINE
  5
205
330
1F
100
AcDbEntity
  8
0
  6
SLD-Gestrichelt
 62
     7
370
     0
100
AcDbLine
 10
114.2154241851
 20
128.0065829621
 30
0.0
 11
114.2154241851
 21
126.1026876734
 31
0.0
  0
LINE
  5
206
330
1F
100
AcDbEntity
  8
0
  6
SLD-Gestrichelt
 62
     7
370
     0
100
AcDbLine
 10
122.2154240994
 20
126.1026876734
 30
0.0
 11
122.2154240994
 21
128.0093778612
 31
0.0
  0
LINE
  5
207
330
1F
100
AcDbEntity
  8
0
  6
SLD-Gestrichelt
 62
     7
370
     0
100
AcDbLine
 10
110.2154239951
 20
88.3848163055
 30
0.0
 11
110.3095847674
 21
89.0548041777
 31
0.0
  0
LINE
  5
208
330
1F
100
AcDbEntity
  8
0
  6
SLD-Gestrichelt
 62
     7
370
     0
100
AcDbLine
 10
110.3095847674
 20
138.3626906888
 30
0.0
 11
110.2154239951
 21
139.0326785611
 31
0.0
  0
ARC
  5
209
330
1F
100
AcDbEntity
  8
0
  6
SLD-Gestrichelt
 62
     7
370
     0
100
AcDbCircle
 10
109.7154172424
 20
89.1383098189
 30
0.0
 40
0.6000067526677242
100
AcDbArc
 50
352.0
 51
0.0
  0
ARC
  5
20A
330
1F
100
AcDbEntity
  8
0
  6
SLD-Gestrichelt
 62
     7
370
     0
100
AcDbCircle
 10
109.7154172424
 20
89.1383098189
 30
0.0
 40
0.6000067526677242
100
AcDbArc
 50
0.0
 51
33.5571153394
  0
ARC
  5
20B
330
1F
100
AcDbEntity
  8
0
  6
SLD-Gestrichelt
 62
     7
370
     0
100
AcDbCircle
 10
109.7154172424
 20
138.2791850477
 30
0.0
 40
0.6000067526677308
100
AcDbArc
 50
348.75
 51
8.0
  0
LWPOLYLINE
  5
20C
330
1F
100
AcDbEntity
  8
0
  6
SLD-Gestrichelt
 62
     7
370
     0
100
AcDbPolyline
 90
        3
 70
   128
 43
0.0
 10
110.303895034
 20
138.1621303724
 10
110.2697512023
 20
138.0495725886
 10
110.2154239951
 20
137.9475201236
  0
LINE
  5
20D
330
1F
100
AcDbEntity
  8
0
  6
SLD-Gestrichelt
 62
     7
370
     0
100
AcDbLine
 10
110.3154239926
 20
89.1383102851
 30
0.0
 11
110.3154239926
 21
138.2791845815
 31
0.0
  0
LINE
  5
20E
330
1F
100
AcDbEntity
  8
0
  6
SLD-Gestrichelt
 62
     7
370
     0
100
AcDbLine
 10
110.3154239926
 20
89.1383102851
 30
0.0
 11
110.3154239926
 21
138.2791845815
 31
0.0
  0
ARC
  5
20F
330
1F
100
AcDbEntity
  8
0
  6
SLD-Gestrichelt
 62
     7
370
     0
100
AcDbCircle
 10
93.2978595604
 20
94.3087474333
 30
0.0
 40
0.6000000000000085
100
AcDbArc
 50
210.0
 51
270.0
  0
ARC
  5
210
330
1F
100
AcDbEntity
  8
0
  6
SLD-Gestrichelt
 62
     7
370
     0
100
AcDbCircle
 10
93.2978595604
 20
133.1087474333
 30
0.0
 40
0.599999999999989
100
AcDbArc
 50
90.0
 51
150.0
  0
LINE
  5
211
330
1F
100
AcDbEntity
  8
0
  6
SLD-Gestrichelt
 62
     7
370
     0
100
AcDbLine
 10
93.2978600202
 20
93.7087478803
 30
0.0
 11
97.4895315184
 21
93.7087478803
 31
0.0
  0
LINE
  5
212
330
1F
100
AcDbEntity
  8
0
  6
SLD-Gestrichelt
 62
     7
370
     0
100
AcDbLine
 10
97.4895315184
 20
133.7087469862
 30
0.0
 11
93.2978600202
 21
133.7087469862
 31
0.0
  0
ARC
  5
213
330
1F
100
AcDbEntity
  8
0
  6
SLD-Gestrichelt
 62
     7
370
     0
100
AcDbCircle
 10
103.9704259967
 20
101.7087474333
 30
0.0
 40
8.000000000000004
100
AcDbArc
 50
276.8737622725
 51
321.3178125465
  0
ARC
  5
214
330
1F
100
AcDbEntity
  8
0
  6
SLD-Gestrichelt
 62
     7
370
     0
100
AcDbCircle
 10
103.9704259967
 20
125.7087474333
 30
0.0
 40
8.000000000000005
100
AcDbArc
 50
38.6821874535
 51
83.1187603686
  0
LINE
  5
215
330
1F
100
AcDbEntity
  8
0
  6
SLD-Gestrichelt
 62
     7
370
     0
100
AcDbLine
 10
92.7782434909
 20
133.4087474958
 30
0.0
 11
91.2193994908
 21
130.7087483571
 31
0.0
  0
LINE
  5
216
330
1F
100
AcDbEntity
  8
0
  6
SLD-Gestrichelt
 62
     7
370
     0
100
AcDbLine
 10
91.2193994908
 20
96.7087465094
 30
0.0
 11
92.7782434909
 21
94.0087473707
 31
0.0
  0
LINE
  5
217
330
1F
100
AcDbEntity
  8
0
  6
SLD-Gestrichelt
 62
     7
370
     0
100
AcDbLine
 10
114.2154241851
 20
140.98710555
 30
0.0
 11
114.2154241851
 21
137.6543490903
 31
0.0
  0
LINE
  5
218
330
1F
100
AcDbEntity
  8
0
  6
SLD-Gestrichelt
 62
     7
370
     0
100
AcDbLine
 10
122.2154240994
 20
137.6543490903
 30
0.0
 11
122.2154240994
 21
140.9884801821
 31
0.0
  0
ARC
  5
219
330
1F
100
AcDbEntity
  8
0
  6
SLD-Gestrichelt
 62
     7
370
     0
100
AcDbCircle
 10
118.6654239951
 20
97.9837474333
 30
0.0
 40
1.500000000000001
100
AcDbArc
 50
238.2116693829
 51
0.0
  0
ARC
  5
21A
330
1F
100
AcDbEntity
  8
0
  6
SLD-Gestrichelt
 62
     7
370
     0
100
AcDbCircle
 10
118.6654239951
 20
129.4337474333
 30
0.0
 40
1.5
100
AcDbArc
 50
0.0
 51
121.7883306171
  0
LINE
  5
21B
330
1F
100
AcDbEntity
  8
0
  6
SLD-Gestrichelt
 62
     7
370
     0
100
AcDbLine
 10
88.4154237746
 20
96.7087465094
 30
0.0
 11
91.2193994908
 21
96.7087465094
 31
0.0
  0
LINE
  5
21C
330
1F
100
AcDbEntity
  8
0
  6
SLD-Gestrichelt
 62
     7
370
     0
100
AcDbLine
 10
91.2193994908
 20
130.7087483571
 30
0.0
 11
84.4154231189
 21
130.7087483571
 31
0.0
  0
LINE
  5
21D
330
1F
100
AcDbEntity
  8
0
  6
SLD-Gestrichelt
 62
     7
370
     0
100
AcDbLine
 10
110.2154239951
 20
96.7087465094
 30
0.0
 11
117.8752499571
 21
96.7087465094
 31
0.0
  0
LINE
  5
21E
330
1F
100
AcDbEntity
  8
0
  6
SLD-Gestrichelt
 62
     7
370
     0
100
AcDbLine
 10
117.8752499571
 20
130.7087483571
 30
0.0
 11
110.2154239951
 21
130.7087483571
 31
0.0
  0
LINE
  5
21F
330
1F
100
AcDbEntity
  8
0
  6
SLD-Gestrichelt
 62
     7
370
     0
100
AcDbLine
 10
160.8654245673
 20
127.6337475271
 30
0.0
 11
160.1654238938
 21
127.6337475271
 31
0.0
  0
LINE
  5
220
330
1F
100
AcDbEntity
  8
0
  6
SLD-Gestrichelt
 62
     7
370
     0
100
AcDbLine
 10
160.1654238938
 20
99.7837473394
 30
0.0
 11
160.8654245673
 21
99.7837473394
 31
0.0
  0
ARC
  5
221
330
1F
100
AcDbEntity
  8
0
  6
SLD-Gestrichelt
 62
     7
370
     0
100
AcDbCircle
 10
160.8654239951
 20
127.3337474333
 30
0.0
 40
0.3000000000000114
100
AcDbArc
 50
0.0
 51
90.0
  0
ARC
  5
222
330
1F
100
AcDbEntity
  8
0
  6
SLD-Gestrichelt
 62
     7
370
     0
100
AcDbCircle
 10
160.8654239951
 20
100.0837474333
 30
0.0
 40
0.3000000000000114
100
AcDbArc
 50
270.0
 51
0.0
  0
ARC
  5
223
330
1F
100
AcDbEntity
  8
0
  6
SLD-Gestrichelt
 62
     7
370
     0
100
AcDbCircle
 10
161.3654239951
 20
126.2587474333
 30
0.0
 40
0.2000000000000028
100
AcDbArc
 50
180.0
 51
270.0
  0
ARC
  5
224
330
1F
100
AcDbEntity
  8
0
  6
SLD-Gestrichelt
 62
     7
370
     0
100
AcDbCircle
 10
161.3654239951
 20
101.1587474333
 30
0.0
 40
0.2000000000000028
100
AcDbArc
 50
90.0
 51
180.0
  0
LINE
  5
225
330
1F
100
AcDbEntity
  8
0
  6
SLD-Gestrichelt
 62
     7
370
     0
100
AcDbLine
 10
170.4154223142
 20
126.2087476195
 30
0.0
 11
163.1654225229
 21
126.2087476195
 31
0.0
  0
LINE
  5
226
330
1F
100
AcDbEntity
  8
0
  6
SLD-Gestrichelt
 62
     7
370
     0
100
AcDbLine
 10
184.5654234229
 20
126.2087476195
 30
0.0
 11
175.0093907057
 21
126.2087476195
 31
0.0
  0
LINE
  5
227
330
1F
100
AcDbEntity
  8
0
  6
SLD-Gestrichelt
 62
     7
370
     0
100
AcDbLine
 10
168.5605704723
 20
101.208747247
 30
0.0
 11
184.5654234229
 21
101.208747247
 31
0.0
  0
LINE
  5
228
330
1F
100
AcDbEntity
  8
0
  6
SLD-Gestrichelt
 62
     7
370
     0
100
AcDbLine
 10
163.1654225229
 20
101.208747247
 30
0.0
 11
165.2654245435
 21
101.208747247
 31
0.0
  0
LINE
  5
229
330
1F
100
AcDbEntity
  8
0
  6
SLD-Gestrichelt
 62
     7
370
     0
100
AcDbLine
 10
163.1654225229
 20
126.2087476195
 30
0.0
 11
162.631048256
 21
126.0655623616
 31
0.0
  0
LINE
  5
22A
330
1F
100
AcDbEntity
  8
0
  6
SLD-Gestrichelt
 62
     7
370
     0
100
AcDbLine
 10
162.631048256
 20
101.3519325049
 30
0.0
 11
163.1654225229
 21
101.208747247
 31
0.0
  0
LINE
  5
22B
330
1F
100
AcDbEntity
  8
0
  6
SLD-Gestrichelt
 62
     7
370
     0
100
AcDbLine
 10
189.5154252587
 20
126.2087476195
 30
0.0
 11
185.6654271422
 21
126.2087476195
 31
0.0
  0
LINE
  5
22C
330
1F
100
AcDbEntity
  8
0
  6
SLD-Gestrichelt
 62
     7
370
     0
100
AcDbLine
 10
185.6654271422
 20
101.208747247
 30
0.0
 11
189.5154252587
 21
101.208747247
 31
0.0
  0
ARC
  5
22D
330
1F
100
AcDbEntity
  8
0
  6
SLD-Gestrichelt
 62
     7
370
     0
100
AcDbCircle
 10
162.5792858744
 20
126.2587474333
 30
0.0
 40
0.2000000000000048
100
AcDbArc
 50
270.0
 51
285.0
  0
ARC
  5
22E
330
1F
100
AcDbEntity
  8
0
  6
SLD-Gestrichelt
 62
     7
370
     0
100
AcDbCircle
 10
162.5792858744
 20
101.1587474333
 30
0.0
 40
0.2000000000000028
100
AcDbArc
 50
75.0
 51
90.0
  0
LINE
  5
22F
330
1F
100
AcDbEntity
  8
0
  6
SLD-Gestrichelt
 62
     7
370
     0
100
AcDbLine
 10
162.5792853473
 20
126.0587478743
 30
0.0
 11
161.3654255806
 21
126.0587478743
 31
0.0
  0
LINE
  5
230
330
1F
100
AcDbEntity
  8
0
  6
SLD-Gestrichelt
 62
     7
370
     0
100
AcDbLine
 10
161.3654255806
 20
101.3587469922
 30
0.0
 11
162.5792853473
 21
101.3587469922
 31
0.0
  0
ARC
  5
231
330
1F
100
AcDbEntity
  8
0
  6
SLD-Gestrichelt
 62
     7
370
     0
100
AcDbCircle
 10
185.5654239951
 20
125.7837474333
 30
0.0
 40
0.0999999999999943
100
AcDbArc
 50
270.0
 51
0.0
  0
ARC
  5
232
330
1F
100
AcDbEntity
  8
0
  6
SLD-Gestrichelt
 62
     7
370
     0
100
AcDbCircle
 10
185.5654239951
 20
101.6337474333
 30
0.0
 40
0.0999999999999943
100
AcDbArc
 50
0.0
 51
90.0
  0
ARC
  5
233
330
1F
100
AcDbEntity
  8
0
  6
SLD-Gestrichelt
 62
     7
370
     0
100
AcDbCircle
 10
184.6654239951
 20
125.7837474333
 30
0.0
 40
0.0999999999999943
100
AcDbArc
 50
180.0
 51
270.0
  0
ARC
  5
234
330
1F
100
AcDbEntity
  8
0
  6
SLD-Gestrichelt
 62
     7
370
     0
100
AcDbCircle
 10
184.6654239951
 20
101.6337474333
 30
0.0
 40
0.1000000000000085
100
AcDbArc
 50
90.0
 51
180.0
  0
LINE
  5
235
330
1F
100
AcDbEntity
  8
0
  6
SLD-Gestrichelt
 62
     7
370
     0
100
AcDbLine
 10
185.5654254494
 20
125.6837471144
 30
0.0
 11
184.6654251157
 21
125.6837471144
 31
0.0
  0
LINE
  5
236
330
1F
100
AcDbEntity
  8
0
  6
SLD-Gestrichelt
 62
     7
370
     0
100
AcDbLine
 10
184.6654251157
 20
101.7337477521
 30
0.0
 11
185.5654254494
 21
101.7337477521
 31
0.0
  0
LINE
  5
237
330
1F
100
AcDbEntity
  8
0
  6
SLD-Gestrichelt
 62
     7
370
     0
100
AcDbLine
 10
175.0154256759
 20
107.4614556262
 30
0.0
 11
175.0154256759
 21
108.958747586
 31
0.0
  0
LINE
  5
238
330
1F
100
AcDbEntity
  8
0
  6
SLD-Gestrichelt
 62
     7
370
     0
100
AcDbLine
 10
170.4154223142
 20
108.958747586
 30
0.0
 11
170.4154223142
 21
107.4587473401
 31
0.0
  0
LINE
  5
239
330
1F
100
AcDbEntity
  8
0
  6
SLD-Gestrichelt
 62
     7
370
     0
100
AcDbLine
 10
168.5654245256
 20
118.4567733423
 30
0.0
 11
168.5654245256
 21
119.9573901237
 31
0.0
  0
LINE
  5
23A
330
1F
100
AcDbEntity
  8
0
  6
SLD-Gestrichelt
 62
     7
370
     0
100
AcDbLine
 10
165.2654245435
 20
119.9587475264
 30
0.0
 11
165.2654245435
 21
118.4576599614
 31
0.0
  0
LINE
  5
23B
330
1F
100
AcDbEntity
  8
0
  6
SLD-Gestrichelt
 62
     7
370
     0
100
AcDbLine
 10
189.6654203473
 20
126.0587478743
 30
0.0
 11
189.5154252587
 21
126.2087476195
 31
0.0
  0
LINE
  5
23C
330
1F
100
AcDbEntity
  8
0
  6
SLD-Gestrichelt
 62
     7
370
     0
100
AcDbLine
 10
189.5154252587
 20
101.208747247
 30
0.0
 11
189.6654203473
 21
101.3587469922
 31
0.0
  0
LINE
  5
23D
330
1F
100
AcDbEntity
  8
0
  6
SLD-Gestrichelt
 62
     7
370
     0
100
AcDbLine
 10
161.6292841671
 20
123.3587478043
 30
0.0
 11
160.4154244004
 21
123.3587478043
 31
0.0
  0
LINE
  5
23E
330
1F
100
AcDbEntity
  8
0
  6
SLD-Gestrichelt
 62
     7
370
     0
100
AcDbLine
 10
160.4154244004
 20
104.0587470622
 30
0.0
 11
161.6292841671
 21
104.0587470622
 31
0.0
  0
ARC
  5
23F
330
1F
100
AcDbEntity
  8
0
  6
SLD-Gestrichelt
 62
     7
370
     0
100
AcDbCircle
 10
160.4154239951
 20
123.1587474333
 30
0.0
 40
0.2000000000000171
100
AcDbArc
 50
90.0
 51
180.0
  0
ARC
  5
240
330
1F
100
AcDbEntity
  8
0
  6
SLD-Gestrichelt
 62
     7
370
     0
100
AcDbCircle
 10
160.4154239951
 20
104.2587474333
 30
0.0
 40
0.2000000000000171
100
AcDbArc
 50
180.0
 51
270.0
  0
ARC
  5
241
330
1F
100
AcDbEntity
  8
0
  6
SLD-Gestrichelt
 62
     7
370
     0
100
AcDbCircle
 10
161.6292858744
 20
123.1587474333
 30
0.0
 40
0.1999999999999975
100
AcDbArc
 50
75.0
 51
90.0
  0
ARC
  5
242
330
1F
100
AcDbEntity
  8
0
  6
SLD-Gestrichelt
 62
     7
370
     0
100
AcDbCircle
 10
161.6292858744
 20
104.2587474333
 30
0.0
 40
0.2000000000000028
100
AcDbArc
 50
270.0
 51
285.0
  0
LINE
  5
243
330
1F
100
AcDbEntity
  8
0
  6
SLD-Gestrichelt
 62
     7
370
     0
100
AcDbLine
 10
161.6810508011
 20
104.0655624808
 30
0.0
 11
162.215425068
 21
104.2087477387
 31
0.0
  0
LINE
  5
244
330
1F
100
AcDbEntity
  8
0
  6
SLD-Gestrichelt
 62
     7
370
     0
100
AcDbLine
 10
162.215425068
 20
123.2087471278
 30
0.0
 11
161.6810508011
 21
123.3519323857
 31
0.0
  0
LINE
  5
245
330
1F
100
AcDbEntity
  8
0
  6
SLD-Gestrichelt
 62
     7
370
     0
100
AcDbLine
 10
166.465422505
 20
123.2087471278
 30
0.0
 11
162.215425068
 21
123.2087471278
 31
0.0
  0
LINE
  5
246
330
1F
100
AcDbEntity
  8
0
  6
SLD-Gestrichelt
 62
     7
370
     0
100
AcDbLine
 10
162.215425068
 20
104.2087477387
 30
0.0
 11
165.2707032798
 21
104.2087477387
 31
0.0
  0
LINE
  5
247
330
1F
100
AcDbEntity
  8
0
  6
SLD-Gestrichelt
 62
     7
370
     0
100
AcDbLine
 10
170.4154223142
 20
123.2087471278
 30
0.0
 11
167.565422499
 21
123.2087471278
 31
0.0
  0
LINE
  5
248
330
1F
100
AcDbEntity
  8
0
  6
SLD-Gestrichelt
 62
     7
370
     0
100
AcDbLine
 10
189.5154252587
 20
123.2087471278
 30
0.0
 11
175.0154256759
 21
123.2087471278
 31
0.0
  0
LINE
  5
249
330
1F
100
AcDbEntity
  8
0
  6
SLD-Gestrichelt
 62
     7
370
     0
100
AcDbLine
 10
168.5636550127
 20
104.2087477387
 30
0.0
 11
189.5154252587
 21
104.2087477387
 31
0.0
  0
LINE
  5
24A
330
1F
100
AcDbEntity
  8
0
  6
SLD-Gestrichelt
 62
     7
370
     0
100
AcDbLine
 10
129.0154237239
 20
104.2087477387
 30
0.0
 11
132.0154242156
 21
104.2087477387
 31
0.0
  0
LINE
  5
24B
330
1F
100
AcDbEntity
  8
0
  6
SLD-Gestrichelt
 62
     7
370
     0
100
AcDbLine
 10
132.0154242156
 20
123.2087471278
 30
0.0
 11
129.0154237239
 21
123.2087471278
 31
0.0
  0
LINE
  5
24C
330
1F
100
AcDbEntity
  8
0
  6
SLD-Gestrichelt
 62
     7
370
     0
100
AcDbLine
 10
120.1654238565
 20
104.7087478207
 30
0.0
 11
120.6654239385
 21
105.2087469713
 31
0.0
  0
LINE
  5
24D
330
1F
100
AcDbEntity
  8
0
  6
SLD-Gestrichelt
 62
     7
370
     0
100
AcDbLine
 10
120.6654239385
 20
122.2087478952
 30
0.0
 11
120.1654238565
 21
122.7087470458
 31
0.0
  0
LINE
  5
24E
330
1F
100
AcDbEntity
  8
0
  6
SLD-Gestrichelt
 62
     7
370
     0
100
AcDbLine
 10
120.6654239385
 20
105.2087469713
 30
0.0
 11
129.0154237239
 21
105.2087469713
 31
0.0
  0
LINE
  5
24F
330
1F
100
AcDbEntity
  8
0
  6
SLD-Gestrichelt
 62
     7
370
     0
100
AcDbLine
 10
129.0154237239
 20
122.2087478952
 30
0.0
 11
120.6654239385
 21
122.2087478952
 31
0.0
  0
LINE
  5
250
330
1F
100
AcDbEntity
  8
0
  6
SLD-Gestrichelt
 62
     7
370
     0
100
AcDbLine
 10
115.1654239683
 20
145.2087479399
 30
0.0
 11
115.1654239683
 21
140.1087472902
 31
0.0
  0
LINE
  5
251
330
1F
100
AcDbEntity
  8
0
  6
SLD-Gestrichelt
 62
     7
370
     0
100
AcDbLine
 10
190.215422207
 20
123.6128926964
 30
0.0
 11
189.5154252587
 21
123.2087471278
 31
0.0
  0
LINE
  5
252
330
1F
100
AcDbEntity
  8
0
  6
SLD-Gestrichelt
 62
     7
370
     0
100
AcDbLine
 10
189.5154252587
 20
104.2087477387
 30
0.0
 11
190.215422207
 21
103.8046021701
 31
0.0
  0
LINE
  5
253
330
1F
100
AcDbEntity
  8
0
  6
SLD-Gestrichelt
 62
     7
370
     0
100
AcDbLine
 10
167.4654245315
 20
123.7337476329
 30
0.0
 11
166.5654241977
 21
123.7337476329
 31
0.0
  0
ARC
  5
254
330
1F
100
AcDbEntity
  8
0
  6
SLD-Gestrichelt
 62
     7
370
     0
100
AcDbCircle
 10
167.4654239951
 20
123.6337474333
 30
0.0
 40
0.0999999999999943
100
AcDbArc
 50
0.0
 51
90.0
  0
ARC
  5
255
330
1F
100
AcDbEntity
  8
0
  6
SLD-Gestrichelt
 62
     7
370
     0
100
AcDbCircle
 10
166.5654239951
 20
123.6337474333
 30
0.0
 40
0.1000000000000227
100
AcDbArc
 50
90.0
 51
180.0
  0
LINE
  5
256
330
1F
100
AcDbEntity
  8
0
  6
SLD-Gestrichelt
 62
     7
370
     0
100
AcDbLine
 10
160.2154247402
 20
118.7587472366
 30
0.0
 11
159.2154227136
 21
117.7587475383
 31
0.0
  0
LINE
  5
257
330
1F
100
AcDbEntity
  8
0
  6
SLD-Gestrichelt
 62
     7
370
     0
100
AcDbLine
 10
159.2154227136
 20
109.6587473282
 30
0.0
 11
160.2154247402
 21
108.65874763
 31
0.0
  0
LINE
  5
258
330
1F
100
AcDbEntity
  8
0
  6
SLD-Gestrichelt
 62
     7
370
     0
100
AcDbLine
 10
105.3998618325
 20
89.6293761895
 30
0.0
 11
104.9654296538
 21
90.108442934
 31
0.0
  0
LINE
  5
259
330
1F
100
AcDbEntity
  8
0
  6
SLD-Gestrichelt
 62
     7
370
     0
100
AcDbLine
 10
97.4654260962
 20
90.5301308946
 30
0.0
 11
96.9829926206
 21
90.0510641502
 31
0.0
  0
LINE
  5
25A
330
1F
100
AcDbEntity
  8
0
  6
SLD-Gestrichelt
 62
     7
370
     0
100
AcDbLine
 10
96.9828706173
 20
137.3664251284
 30
0.0
 11
97.4654214395
 21
136.8873043673
 31
0.0
  0
LINE
  5
25B
330
1F
100
AcDbEntity
  8
0
  6
SLD-Gestrichelt
 62
     7
370
     0
100
AcDbLine
 10
104.9654240659
 20
137.3090035038
 30
0.0
 11
105.3999661407
 21
137.7881224023
 31
0.0
  0
LINE
  5
25C
330
1F
100
AcDbEntity
  8
0
  6
SLD-Gestrichelt
 62
     7
370
     0
100
AcDbLine
 10
159.2154227136
 20
117.7587475383
 30
0.0
 11
155.1154240905
 21
117.7587475383
 31
0.0
  0
LINE
  5
25D
330
1F
100
AcDbEntity
  8
0
  6
SLD-Gestrichelt
 62
     7
370
     0
100
AcDbLine
 10
155.1154240905
 20
109.6587473282
 30
0.0
 11
159.2154227136
 21
109.6587473282
 31
0.0
  0
LINE
  5
25E
330
1F
100
AcDbEntity
  8
0
  6
SLD-Gestrichelt
 62
     7
370
     0
100
AcDbLine
 10
155.1154240905
 20
117.7587475383
 30
0.0
 11
154.18409034
 21
116.2087473774
 31
0.0
  0
LINE
  5
25F
330
1F
100
AcDbEntity
  8
0
  6
SLD-Gestrichelt
 62
     7
370
     0
100
AcDbLine
 10
154.18409034
 20
111.2087474891
 30
0.0
 11
155.1154240905
 21
109.6587473282
 31
0.0
  0
LINE
  5
260
330
1F
100
AcDbEntity
  8
0
  6
SLD-Gestrichelt
 62
     7
370
     0
100
AcDbLine
 10
104.9654240659
 20
90.1089253591
 30
0.0
 11
104.9654240659
 21
93.7733462767
 31
0.0
  0
LINE
  5
261
330
1F
100
AcDbEntity
  8
0
  6
SLD-Gestrichelt
 62
     7
370
     0
100
AcDbLine
 10
97.4654242335
 20
93.7131250964
 30
0.0
 11
97.4654242335
 21
90.5304531322
 31
0.0
  0
LINE
  5
262
330
1F
100
AcDbEntity
  8
0
  6
SLD-Gestrichelt
 62
     7
370
     0
100
AcDbLine
 10
104.9654240659
 20
133.6441485898
 30
0.0
 11
104.9654240659
 21
137.3087110685
 31
0.0
  0
LINE
  5
263
330
1F
100
AcDbEntity
  8
0
  6
SLD-Gestrichelt
 62
     7
370
     0
100
AcDbLine
 10
97.4654242335
 20
136.8871609436
 30
0.0
 11
97.4654242335
 21
133.7043697701
 31
0.0
  0
LINE
  5
264
330
1F
100
AcDbEntity
  8
0
  6
SLD-Gestrichelt
 62
     7
370
     0
100
AcDbLine
 10
132.0154242156
 20
111.2087474891
 30
0.0
 11
154.18409034
 21
111.2087474891
 31
0.0
  0
LINE
  5
265
330
1F
100
AcDbEntity
  8
0
  6
SLD-Gestrichelt
 62
     7
370
     0
100
AcDbLine
 10
154.18409034
 20
116.2087473774
 30
0.0
 11
132.0154242156
 21
116.2087473774
 31
0.0
  0
LINE
  5
266
330
1F
100
AcDbEntity
  8
0
  6
SLD-Gestrichelt
 62
     7
370
     0
100
AcDbLine
 10
170.4154223142
 20
126.2087476195
 30
0.0
 11
170.4154223142
 21
123.2087471278
 31
0.0
  0
LINE
  5
267
330
1F
100
AcDbEntity
  8
0
  6
SLD-Gestrichelt
 62
     7
370
     0
100
AcDbLine
 10
175.0154256759
 20
123.2087471278
 30
0.0
 11
175.0154256759
 21
126.2087476195
 31
0.0
  0
LINE
  5
268
330
1F
100
AcDbEntity
  8
0
  6
SLD-Gestrichelt
 62
     7
370
     0
100
AcDbLine
 10
165.2654245435
 20
104.2096613662
 30
0.0
 11
165.2654245435
 21
101.208747247
 31
0.0
  0
LINE
  5
269
330
1F
100
AcDbEntity
  8
0
  6
SLD-Gestrichelt
 62
     7
370
     0
100
AcDbLine
 10
168.5654245256
 20
101.208747247
 30
0.0
 11
168.5654245256
 21
104.2090513499
 31
0.0
  0
ARC
  5
26A
330
1F
100
AcDbEntity
  8
0
  6
SLD-Gestrichelt
 62
     7
370
     0
100
AcDbCircle
 10
83.0154239951
 20
135.9787474333
 30
0.0
 40
1.400000000000015
100
AcDbArc
 50
270.0
 51
301.7485287426
  0
ARC
  5
26B
330
1F
100
AcDbEntity
  8
0
  6
SLD-Gestrichelt
 62
     7
370
     0
100
AcDbCircle
 10
87.0154239951
 20
91.4387474333
 30
0.0
 40
1.400000000000006
100
AcDbArc
 50
42.2465410162
 51
90.0
  0
LINE
  5
26C
330
1F
100
AcDbEntity
  8
0
  6
SLD-Gestrichelt
 62
     7
370
     0
100
AcDbLine
 10
83.0154236345
 20
134.5787475572
 30
0.0
 11
79.5896895169
 21
134.5787475572
 31
0.0
  0
LINE
  5
26D
330
1F
100
AcDbEntity
  8
0
  6
SLD-Gestrichelt
 62
     7
370
     0
100
AcDbLine
 10
79.4565867571
 20
134.5699111687
 30
0.0
 11
78.3253259896
 21
133.4386485384
 31
0.0
  0
LINE
  5
26E
330
1F
100
AcDbEntity
  8
0
  6
SLD-Gestrichelt
 62
     7
370
     0
100
AcDbLine
 10
78.3164560734
 20
93.9877143817
 30
0.0
 11
79.4565867571
 21
92.8475836979
 31
0.0
  0
LINE
  5
26F
330
1F
100
AcDbEntity
  8
0
  6
SLD-Gestrichelt
 62
     7
370
     0
100
AcDbLine
 10
79.5987605987
 20
92.8387473093
 30
0.0
 11
87.0154242901
 21
92.8387473093
 31
0.0
  0
DIMENSION
  5
270
330
1F
100
AcDbEntity
  8
VERMASSUNG
100
AcDbDimension
  2
_D
 10
72.7709048697
 20
82.2087474333
 30
0.0
 11
72.7709048697
 21
113.6954273241
 31
0.0
 70
   160
  1
HSK A %%c<>
 71
     2
 42
-1.0
  3
SLDDIMSTYLE0
100
AcDbAlignedDimension
 13
110.5154239951
 23
145.2087474333
 33
0.0
 14
110.5154239951
 24
82.2087474333
 34
0.0
 50
90.0
100
AcDbRotatedDimension
  0
DIMENSION
  5
27D
330
1F
100
AcDbEntity
  8
VERMASSUNG
100
AcDbDimension
  2
_D_1
 10
190.2154239951
 20
163.4757240091
 30
0.0
 11
130.9996657454
 21
163.4757240091
 31
0.0
 70
   160
  1
<>
 71
     2
 42
-1.0
  3
SLDDIMSTYLE0
100
AcDbAlignedDimension
 13
78.3154239951
 23
133.3994251797
 33
0.0
 14
190.2154239951
 24
125.5087474333
 34
0.0
100
AcDbRotatedDimension
  0
DIMENSION
  5
287
330
1F
100
AcDbEntity
  8
VERMASSUNG
100
AcDbDimension
  2
_D_2
 10
190.2154239951
 20
157.4757240091
 30
0.0
 11
154.2193671932
 21
157.4757240091
 31
0.0
 70
   160
  1
<>
 71
     2
 42
-1.0
  3
SLDDIMSTYLE0
100
AcDbAlignedDimension
 13
110.2154239951
 23
144.9087474333
 33
0.0
 14
190.2154239951
 24
125.5087474333
 34
0.0
100
AcDbRotatedDimension
  0
DIMENSION
  5
291
330
1F
100
AcDbEntity
  8
VERMASSUNG
100
AcDbDimension
  2
_D_3
 10
197.8410986367
 20
104.2087474333
 30
0.0
 11
197.8410986367
 21
113.7087474333
 31
0.0
 70
   160
  1
%%c<>
 71
     2
 42
-1.0
  3
SLDDIMSTYLE0
100
AcDbAlignedDimension
 13
189.5154239951
 23
123.2087474333
 33
0.0
 14
189.5154239951
 24
104.2087474333
 34
0.0
 50
90.0
100
AcDbRotatedDimension
  0
DIMENSION
  5
29C
330
1F
100
AcDbEntity
  8
VERMASSUNG
100
AcDbDimension
  2
_D_4
 10
203.8410986367
 20
97.7087474333
 30
0.0
 11
203.8410986367
 21
113.7087474333
 31
0.0
 70
   160
  1
%%c<>
 71
     2
 42
-1.0
  3
SLDDIMSTYLE0
100
AcDbAlignedDimension
 13
188.6654239951
 23
129.7087474333
 33
0.0
 14
188.6654239951
 24
97.7087474333
 34
0.0
 50
90.0
100
AcDbRotatedDimension
  0
DIMENSION
  5
2A7
330
1F
100
AcDbEntity
  8
VERMASSUNG
100
AcDbDimension
  2
_D_5
 10
136.1654239951
 20
151.4757240091
 30
0.0
 11
165.0512167854
 21
151.4757240091
 31
0.0
 70
   160
  1
<>
 71
     2
 42
-1.0
  3
SLDDIMSTYLE0
100
AcDbAlignedDimension
 13
190.2154239951
 23
125.5087474333
 33
0.0
 14
136.1654239951
 24
143.555187757
 34
0.0
100
AcDbRotatedDimension
  0
DIMENSION
  5
2B1
330
1F
100
AcDbEntity
  8
VERMASSUNG
100
AcDbDimension
  2
_D_6
 10
209.8410986367
 20
96.7087474333
 30
0.0
 11
209.8410986367
 21
113.7087474333
 31
0.0
 70
   160
  1
%%c<>
 71
     2
 42
-1.0
  3
SLDDIMSTYLE0
100
AcDbAlignedDimension
 13
153.2154239951
 23
130.7087474333
 33
0.0
 14
153.2154239951
 24
96.7087474333
 34
0.0
 50
90.0
100
AcDbRotatedDimension
  0
LINE
  5
2BC
330
1F
100
AcDbEntity
  8
VERMASSUNG
  6
SLD-Punktstrich
 62
     7
370
     0
100
AcDbLine
 10
76.1701201528
 20
113.7087474333
 30
0.0
 11
192.2154239951
 21
113.7087474333
 31
0.0
  0
OLE2FRAME
  5
2BD
330
1F
100
AcDbEntity
  8
0
100
AcDbOle2Frame
 70
     2
  3
Paintbrush-Bild
 10
13.8511154363
 20
38.264191557
 30
0.0
 11
51.6290888628
 21
31.9806341108
 31
0.0
 71
     2
 72
     0
 73
     1
 90
    12928
310
80552BED0767C5B32B40DDAF6807D121434000000000000000006FFBDDFB85D0
310
4940DDAF6807D121434000000000000000006FFBDDFB85D04940416F4BD60AFB
310
3F4000000000000000002BED0767C5B32B40416F4BD60AFB3F40000000000000
310
0000000000000100000000010000010000000100000000000100000000320000
310
D0CF11E0A1B11AE1000000000000000000000000000000003E000300FEFF0900
310
0600000000000000000000000100000001000000000000000010000002000000
310
01000000FEFFFFFF0000000000000000FFFFFFFFFFFFFFFFFFFFFFFFFFFFFFFF
310
FFFFFFFFFFFFFFFFFFFFFFFFFFFFFFFFFFFFFFFFFFFFFFFFFFFFFFFFFFFFFFFF
310
FFFFFFFFFFFFFFFFFFFFFFFFFFFFFFFFFFFFFFFFFFFFFFFFFFFFFFFFFFFFFFFF
310
FFFFFFFFFFFFFFFFFFFFFFFFFFFFFFFFFFFFFFFFFFFFFFFFFFFFFFFFFFFFFFFF
310
FFFFFFFFFFFFFFFFFFFFFFFFFFFFFFFFFFFFFFFFFFFFFFFFFFFFFFFFFFFFFFFF
310
FFFFFFFFFFFFFFFFFFFFFFFFFFFFFFFFFFFFFFFFFFFFFFFFFFFFFFFFFFFFFFFF
310
FFFFFFFFFFFFFFFFFFFFFFFFFFFFFFFFFFFFFFFFFFFFFFFFFFFFFFFFFFFFFFFF
310
FFFFFFFFFFFFFFFFFFFFFFFFFFFFFFFFFFFFFFFFFFFFFFFFFFFFFFFFFFFFFFFF
310
FFFFFFFFFFFFFFFFFFFFFFFFFFFFFFFFFFFFFFFFFFFFFFFFFFFFFFFFFFFFFFFF
310
FFFFFFFFFFFFFFFFFFFFFFFFFFFFFFFFFFFFFFFFFFFFFFFFFFFFFFFFFFFFFFFF
310
FFFFFFFFFFFFFFFFFFFFFFFFFFFFFFFFFFFFFFFFFFFFFFFFFFFFFFFFFFFFFFFF
310
FFFFFFFFFFFFFFFFFFFFFFFFFFFFFFFFFFFFFFFFFFFFFFFFFFFFFFFFFFFFFFFF
310
FFFFFFFFFFFFFFFFFFFFFFFFFFFFFFFFFFFFFFFFFFFFFFFFFFFFFFFFFFFFFFFF
310
FFFFFFFFFFFFFFFFFFFFFFFFFFFFFFFFFFFFFFFFFFFFFFFFFFFFFFFFFFFFFFFF
310
FDFFFFFFFEFFFFFFFEFFFFFFFEFFFFFF05000000060000000700000008000000
310
090000000A0000000B0000000C0000000D0000000E0000000F00000010000000
310
11000000120000001300000014000000150000001600000017000000FEFFFFFF
310
FFFFFFFFFFFFFFFFFFFFFFFFFFFFFFFFFFFFFFFFFFFFFFFFFFFFFFFFFFFFFFFF
310
FFFFFFFFFFFFFFFFFFFFFFFFFFFFFFFFFFFFFFFFFFFFFFFFFFFFFFFFFFFFFFFF
310
FFFFFFFFFFFFFFFFFFFFFFFFFFFFFFFFFFFFFFFFFFFFFFFFFFFFFFFFFFFFFFFF
310
FFFFFFFFFFFFFFFFFFFFFFFFFFFFFFFFFFFFFFFFFFFFFFFFFFFFFFFFFFFFFFFF
310
FFFFFFFFFFFFFFFFFFFFFFFFFFFFFFFFFFFFFFFFFFFFFFFFFFFFFFFFFFFFFFFF
310
FFFFFFFFFFFFFFFFFFFFFFFFFFFFFFFFFFFFFFFFFFFFFFFFFFFFFFFFFFFFFFFF
310
FFFFFFFFFFFFFFFFFFFFFFFFFFFFFFFFFFFFFFFFFFFFFFFFFFFFFFFFFFFFFFFF
310
FFFFFFFFFFFFFFFFFFFFFFFFFFFFFFFFFFFFFFFFFFFFFFFFFFFFFFFFFFFFFFFF
310
FFFFFFFFFFFFFFFFFFFFFFFFFFFFFFFFFFFFFFFFFFFFFFFFFFFFFFFFFFFFFFFF
310
FFFFFFFFFFFFFFFFFFFFFFFFFFFFFFFFFFFFFFFFFFFFFFFFFFFFFFFFFFFFFFFF
310
FFFFFFFFFFFFFFFFFFFFFFFFFFFFFFFFFFFFFFFFFFFFFFFFFFFFFFFFFFFFFFFF
310
FFFFFFFFFFFFFFFFFFFFFFFFFFFFFFFFFFFFFFFFFFFFFFFFFFFFFFFFFFFFFFFF
310
FFFFFFFFFFFFFFFFFFFFFFFFFFFFFFFFFFFFFFFFFFFFFFFFFFFFFFFFFFFFFFFF
310
52006F006F007400200045006E00740072007900000000000000000000000000
310
0000000000000000000000000000000000000000000000000000000000000000
310
16000500FFFFFFFFFFFFFFFF020000000A00030000000000C000000000000046
310
000000000000000000000000004014F7DC28D00103000000C000000000000000
310
01004F006C006500000000000000000000000000000000000000000000000000
310
0000000000000000000000000000000000000000000000000000000000000000
310
0A000200FFFFFFFFFFFFFFFFFFFFFFFF00000000000000000000000000000000
310
0000000000000000000000000000000000000000000000001400000000000000
310
010043006F006D0070004F0062006A0000000000000000000000000000000000
310
0000000000000000000000000000000000000000000000000000000000000000
310
120002010100000003000000FFFFFFFF00000000000000000000000000000000
310
0000000000000000000000000000000000000000010000004D00000000000000
310
01004F006C006500310030004E00610074006900760065000000000000000000
310
0000000000000000000000000000000000000000000000000000000000000000
310
1A000200FFFFFFFFFFFFFFFFFFFFFFFF00000000000000000000000000000000
310
0000000000000000000000000000000000000000040000002426000000000000
310
FEFFFFFF02000000FEFFFFFFFFFFFFFFFFFFFFFFFFFFFFFFFFFFFFFFFFFFFFFF
310
FFFFFFFFFFFFFFFFFFFFFFFFFFFFFFFFFFFFFFFFFFFFFFFFFFFFFFFFFFFFFFFF
310
FFFFFFFFFFFFFFFFFFFFFFFFFFFFFFFFFFFFFFFFFFFFFFFFFFFFFFFFFFFFFFFF
310
FFFFFFFFFFFFFFFFFFFFFFFFFFFFFFFFFFFFFFFFFFFFFFFFFFFFFFFFFFFFFFFF
310
FFFFFFFFFFFFFFFFFFFFFFFFFFFFFFFFFFFFFFFFFFFFFFFFFFFFFFFFFFFFFFFF
310
FFFFFFFFFFFFFFFFFFFFFFFFFFFFFFFFFFFFFFFFFFFFFFFFFFFFFFFFFFFFFFFF
310
FFFFFFFFFFFFFFFFFFFFFFFFFFFFFFFFFFFFFFFFFFFFFFFFFFFFFFFFFFFFFFFF
310
FFFFFFFFFFFFFFFFFFFFFFFFFFFFFFFFFFFFFFFFFFFFFFFFFFFFFFFFFFFFFFFF
310
FFFFFFFFFFFFFFFFFFFFFFFFFFFFFFFFFFFFFFFFFFFFFFFFFFFFFFFFFFFFFFFF
310
FFFFFFFFFFFFFFFFFFFFFFFFFFFFFFFFFFFFFFFFFFFFFFFFFFFFFFFFFFFFFFFF
310
FFFFFFFFFFFFFFFFFFFFFFFFFFFFFFFFFFFFFFFFFFFFFFFFFFFFFFFFFFFFFFFF
310
FFFFFFFFFFFFFFFFFFFFFFFFFFFFFFFFFFFFFFFFFFFFFFFFFFFFFFFFFFFFFFFF
310
FFFFFFFFFFFFFFFFFFFFFFFFFFFFFFFFFFFFFFFFFFFFFFFFFFFFFFFFFFFFFFFF
310
FFFFFFFFFFFFFFFFFFFFFFFFFFFFFFFFFFFFFFFFFFFFFFFFFFFFFFFFFFFFFFFF
310
FFFFFFFFFFFFFFFFFFFFFFFFFFFFFFFFFFFFFFFFFFFFFFFFFFFFFFFFFFFFFFFF
310
FFFFFFFFFFFFFFFFFFFFFFFFFFFFFFFFFFFFFFFFFFFFFFFFFFFFFFFFFFFFFFFF
310
0100000200000000000000000000000000000000000000000000000000000000
310
0000000000000000000000000000000000000000000000000000000000000000
310
0100FEFF030A0000FFFFFFFF0A00030000000000C00000000000004607000000
310
5042727573680007000000504272757368000700000050427275736800F439B2
310
7100000000000000000000000000000000000000000000000000000000000000
310
0000000000000000000000000000000000000000000000000000000000000000
310
0000000000000000000000000000000000000000000000000000000000000000
310
0000000000000000000000000000000000000000000000000000000000000000
310
0000000000000000000000000000000000000000000000000000000000000000
310
0000000000000000000000000000000000000000000000000000000000000000
310
0000000000000000000000000000000000000000000000000000000000000000
310
0000000000000000000000000000000000000000000000000000000000000000
310
0000000000000000000000000000000000000000000000000000000000000000
310
0000000000000000000000000000000000000000000000000000000000000000
310
0000000000000000000000000000000000000000000000000000000000000000
310
0000000000000000000000000000000000000000000000000000000000000000
310
20260000424D0E260000000000003E00000028000000B40200006E0000000100
310
01000000000000000000130B0000130B00000200000002000000000000FFFFFF
310
FFFFFFFFFFFFFFFFFFFFFFFFFFFFFFFFFFFFFFFFFFFFFFFFFFFFFFFFFFFFFFFF
310
FFFFFFFFFFFFFFFFFFFFFFFFFFFFFFFFFFFFFFFFFFFFFFFFFFFFFFFFFFFFFFFF
310
FFFFFFFFFFFFFFFFFFFFFFFFFFFFFFFFFFFFFFFFFFFFFFFFF000FFFFFFFFFFFF
310
FFFFFFFFFFFFFFFFFFFFFFFFFFFFFFFFFFFFFFFFFFFFFFFFFFFFFFFFFFFFFFFF
310
FFFFFFFFFFFFFFFFFFFFFFFFFFFFFFFFFFFFFFFFFFFFFFFFFFFFFFFFFFFFFFFF
310
FFFFFFFFFFFFFFFFFFFFFFFFFFFFFFFFF000FFFFFFFFFFFFFFFFFFFFFFFFFFFF
310
FFFFFFFFFFFFFFFFFFFFFFFFFFFFFFFFFFFFFFFFFFFFFFFFFFFFFFFFFFFFFFFF
310
FFFFFFFFFFFFFFFFFFFFFFFFFFFFFFFFFFFFFFFFFFFFFFFFFFFFFFFFFFFFFFFF
310
FFFFFFFFFFFFFFFFF000FFFFFFFFFFFFFFFFFFFFFFFFFFFFFFFFFFFFFFFFFFFF
310
FFFFFFFFFFFFFFFFFFFFFFFFFFFFFFFFFFFFFFFFFFFFFFFFFFFFFFFFFFFFFFFF
310
FFFFFFFFFFFFFFFFFFFFFFFFFFFFFFFFFFFFFFFFFFFFFFFFFFFFFFFFFFFFFFFF
310
F000FFFFFFFFFFFFFFFFFFFFFFFFFFFFFFFFFFFFFFFFFFFFFFFFFFFFFFFFFFFF
310
FFFFFFFFFFFFFFFFFFFFFFFFFFFFFFFFFFFFFFFFFFFFFFFFFFFFFFFFFFFFFFFF
310
FFFFFFFFFFFFFFFFFFFFFFFFFFFFFFFFFFFFFFFFFFFFFFFFF000FFFFFFFFFFFF
310
FFFFFFFFFFFFFFFFFFFFFFFFFFFFFFFFFFFFFFFFFFFFFFFFFFFFFFFFFFFFFFFF
310
FFFFFFFFFFFFFFFFFFFFFFFFFFFFFFFFFFFFFFFFFFFFFFFFFFFFFFFFFFFFFFFF
310
FFFFFFFFFFFFFFFFFFFFFFFFFFFFFFFFF000FFFFFFFFFFFFFFFFFFFFFFFFFFFF
310
FFFFFFFFFFFFFFFFFFFFFFFFFFFFFFFFFFFFFFFFFFFFFFFFFFFFFFFFFFFFFFFF
310
FFFFFFFFFFFFFFFFFFFFFFFFFFFFFFFFFFFFFFFFFFFFFFFFFFFFFFFFFFFFFFFF
310
FFFFFFFFFFFFFFFFF000FFFFFFFFFFFFFFFFFFFFFFFFFFFFFFFFFFFFFFFFFFFF
310
FFFFFFFFFFFFFFFFFFFFFFFFFFFFFFFFFFFFFFFFFFFFFFFFFFFFFFFFFFFFFFFF
310
FFFFFFFFFFFFFFFFFFFFFFFFFFFFFFFFFFFFFFFFFFFFFFFFFFFFFFFFFFFFFFFF
310
F000FFFFFFFFFFFFFFFFFFFFFFFFFFFFFFFFFFFFFFFFFFFFFFFFFFFFFFFFFFFF
310
FFFFFFFFFFFFFFFFFFFFFFFFFFFFFFFFFFFFFFFFFFFFFFFFFFFFFFFFFFFFFFFF
310
FFFFFFFFFFFFFFFFFFFFFFFFFFFFFFFFFFFFFFFFFFFFFFFFF000FFFFFFFFFFFF
310
FFFFFFFFFFFFFFFFFFFFFFFFFFFFFFFFFFFFFFFFFFFFFFFFFFFFFFFFFFFFFFFF
310
FFFFFFFFFFFFFFFFFFFFFFFFFFFFFFFFFFFFFFFFFFFFFFFFFFFFFFFFFFFFFFFF
310
FFFFFFFFFFFFFFFFFFFFFFFFFFFFFFFFF000FFFFFFFFFFFFFFFFFFFFFFFFFFFF
310
FFFFFFFFFFFFFFFFFFFFFFFFFFFFFFFFFFFFFFFFFFFFFFFFFFFFFFFFFFFFFFFF
310
FFFFFFFFFFFFFFFFFFFFFFFFFFFFFFFFFFFFFFFFFFFFFFFFFFFFFFFFFFFFFFFF
310
FFFFFFFFFFFFFFFFF000FFFFFFFFFFFFFFFFFFFFFFFFFFFFFFFFFFFFFFFFFFFF
310
FFFFFFFFFFFFFFFFFFFFFFFFFFFFFFFFFFFFFFFFFFFFFFFFFFFFFFFFFFFFFFFF
310
FFFFFFFFFFFFFFFFFFFFFFFFFFFFFFFFFFFFFFFFFFFFFFFFFFFFFFFFFFFFFFFF
310
F000FFFFFFFFFFFFFFFFFFFFFFFFFFFFFFFFFFFFFFFFFFFFFFFFFFFFFFFFFFFF
310
FFFFFFFFFFFFFFFFFFFFFFFFFFFFFFFFFFFFFFFFFFFFFFFFFFFFFFFFFFFFFFFF
310
FFFFFFFFFFFFFFFFFFFFFFFFFFFFFFFFFFFFFFFFFFFFFFFFF000FFFFFFFFFFFF
310
FFFFFFFFFFFFFFFFFFFFFFFFFFFFFFFFFFFFFFFFFFFFFFFFFFFFFFFFFFFFFFFF
310
FFFFFFFFFFFFFFFFFFFFFFFFFFFFFFFFFFFFFFFFFFFFFFFFFFFFFFFFFFFFFFFF
310
FFFFFFFFFFFFFFFFFFFFFFFFFFFFFFFFF000FFFFFFFFFFFFFFFFFFFFFFFFFFFF
310
FFFFFFFFFFFFFFFFFFFFFFFFFFFFFFFFFFFFFFFFFFFFFFFFFFFFFFFFFFFFFFFF
310
FFFFFFFFFFFFFFFFFFFFFFFFFFFFFFFFFFFFFFFFFFFFFFFFFFFFFFFFFFFFFFFF
310
FFFFFFFFFFFFFFFFF000FFFFFFFFFFFFFFFFFFFFFFFFFFFFFFFFFFFFFFFFFFFF
310
FFFFFFFFFFFFFFFFFFFFFFFFFFFFFFFFFFFFFFFFFFFFFFFFFFFFFFFFFFFFFFFF
310
FFFFFFFFFFFFFFFFFFFFFFFFFFFFFFFFFFFFFFFFFFFFFFFFFFFFFFFFFFFFFFFF
310
F000FFFFFFFFFFFFFFFFFFFFFFFFFFFFFFFFFFFFFFFFFFFFFFFFFFFFFFFFFFFF
310
FFFFFFFFFFFFFFFFFFFFFFFFFFFFFFFFFFFFFFFFFFFFFFFFFFFFFFFFFFFFFFFF
310
FFFFFFFFFFFFFFFFFFFFFFFFFFFFFFFFFFFFFFFFFFFFFFFFF000FFFFFFFFFFFF
310
FFFFFFFFFFFFFFFFFFFFFFFFFFFFFFFFFFFFFFFFFFFFFFFFFFFFFFFFFFFFFFFF
310
FFFFFFFFFFFFFFFFFFFFFFFFFFFFFFFFFFFFFFFFFFFFFFFFFFFFFFFFFFFFFFFF
310
FFFFFFFFFFFFFFFFFFFFFFFFFFFFFFFFF000FFFFFFFFFFFFFFFFFFFFFFFFFFFF
310
FFFFFFFFFFFFFFFFFFFFFFFFFFFFFFFFFFFFFFFFFFFFFFFFFFFFFFFFFFFFFFFF
310
FFFFFFFFFFFFFFFFFFFFFFFFFFFFFFFFFFFFFFFFFFFFFFFFFFFFFFFFFFFFFFFF
310
FFFFFFFFFFFFFFFFF000FFFFF80003FFFFFFFFFFFFFFFFFFFFFFFFFFFFFFFFFF
310
FFFFF00007FFFFFFFFFF00007FFFFFF800000000000000007FFFFFFFFFFFFFFF
310
FFFFFFFC001FFFFFFFFFFFFFFC001FFFFFFFFFFFFFFFFFFFFFFFFFFE0007FFFF
310
F000FFFF8000007FFFFFFFF8000FFFFFC0007FFFFF80007FFFFF0000007FFFFF
310
FFF8000007FFFFF800000000000000007FFFFFF0001FFFFFFFFFFFC00001FFFF
310
FFFFFFFFC00001FFFFFFFF000000000003FFFFE000007FFFF000FFFE0000000F
310
FFFFFFF0000FFFFF80007FFFFF80007FFFFC0000001FFFFFFFC0000001FFFFF8
310
00000000000000007FFFFFF0001FFFFFFFFFFE0000003FFFFFFFFFFE0000003F
310
FFFFFF000000000003FFFF0000000FFFF000FFF800000003FFFFFFF00007FFFF
310
80007FFFFF80007FFFF000000007FFFFFF000000003FFFF80000000000000000
310
7FFFFFF0001FFFFFFFFFF80000000FFFFFFFFFF80000000FFFFFFF0000000000
310
03FFFC00000003FFF000FFE000000000FFFFFFF00007FFFF80003FFFFF80007F
310
FFC000000001FFFFFC000000001FFFF800000000000000007FFFFFF0001FFFFF
310
FFFFE000000003FFFFFFFFE000000003FFFFFF000000000003FFF000000000FF
310
F000FF80000000007FFFFFF00007FFFF80003FFFFF80007FFF8000000000FFFF
310
F80000000007FFF800000000000000007FFFFFF0001FFFFFFFFFC000000001FF
310
FFFFFFC000000001FFFFFF000000000003FFC0000000007FF000FF0000000000
310
3FFFFFE00007FFFF00003FFFFF80007FFE00000000003FFFF00000000003FFF8
310
00000000000000007FFFFFF0001FFFFFFFFF8000000000FFFFFFFF8000000000
310
FFFFFF000000000003FF80000000003FF000FE00000000001FFFFFE00003FFFF
310
00003FFFFF80007FFC00000000001FFFE00000000001FFF8000001FFFE000000
310
7FFFFFF0001FFFFFFFFE00000000003FFFFFFE00000000003FFFFF0000000000
310
03FF00000000001FF000FC00000000000FFFFFE00003FFFF00001FFFFF80007F
310
F800000000001FFFC00000000000FFF8000001FFFE0000007FFFFFF0001FFFFF
310
FFFC00000000001FFFFFFC00000000001FFFFF000000000003FE00000000000F
310
F000F8000000000007FFFFE00003FFFF00001FFFFF80007FF800000000000FFF
310
800000000000FFF8000001FFFE0000007FFFFFF0001FFFFFFFF800000000000F
310
FFFFF800000000000FFFFF000000000003FC000000000007F000F80000000000
310
03FFFFC00003FFFE00001FFFFF80007FF0000000000007FF0000000000007FF8
310
000001FFFE0000007FFFFFF0001FFFFFFFF0000000000007FFFFF00000000000
310
07FFFF000000000003F8000000000003F000F0000000000003FFFFC00001FFFE
310
00001FFFFF80007FE0000000000007FE0000000000003FF8000001FFFE000000
310
7FFFFFF0001FFFFFFFF0000000000007FFFFF0000000000007FFFF0000000000
310
03F800001F800003F000E00001FFF00001FFFFC00001FFFE00000FFFFF80007F
310
E00001FFE00003FE00001FFF00003FF8000001FFFE0000007FFFFFF0001FFFFF
310
FFE000003E000003FFFFE000003E000003FFFF000000000003F00001FFF80001
310
F000E00007FFFC0001FFFFC00001FFFE00000FFFFF80007FC0000FFFFC0003FC
310
0000FFFFC0001FF8000001FFFE0000007FFFFFF0001FFFFFFFC00003FFE00001
310
FFFFC00003FFE00001FFFF0001FFFFFFFFF00007FFFE0001F000E0000FFFFF00
310
00FFFF800001FFFC00000FFFFF80007FC0001FFFFE0001FC0001FFFFE0001FF8
310
000001FFFE0000007FFFFFF0001FFFFFFF80000FFFF80000FFFF80000FFFF800
310
00FFFF0003FFFFFFFFE0000FFFFF8000F000C0003FFFFF8000FFFF800000FFFC
310
000007FFFF80007F80003FFFFF0001FC0003FFFFF0001FF8000001FFFE000000
310
7FFFFFF0001FFFFFFF80003FFFFE0000FFFF80003FFFFE0000FFFF0003FFFFFF
310
FFE0003FFFFF8000F000C0003FFFFF8000FFFF800000FFFC000007FFFF80007F
310
80007FFFFF8001F80007FFFFF8000FF8000001FFFE0000007FFFFFF0001FFFFF
310
FF00007FFFFF00007FFF00007FFFFF00007FFF0003FFFFFFFFE0003FFFFFC000
310
F000C0007FFFFFC000FFFF000000FFFC000007FFFF80007F8000FFFFFF8000F8
310
000FFFFFF8000FF8000001FFFE0000007FFFFFF0001FFFFFFF0000FFFFFF8000
310
7FFF0000FFFFFF80007FFF0003FFFFFFFFC0007FFFFFC00070008000FFFFFFC0
310
00FFFF000000FFF8000007FFFF80007F8000FFFFFF8000F8000FFFFFF8000FF8
310
000001FFFE0000007FFFFFF0001FFFFFFE0001FFFFFFC0003FFE0001FFFFFFC0
310
003FFF0003FFFFFFFFC0007FFFFFE00070008000FFFFFFC0007FFF0000007FF8
310
000003FFFF80007F0001FFFFFF8000F8000FFFFFF8000FF8000001FFFE000000
310
7FFFFFF0001FFFFFFE0001FFFFFFC0003FFE0001FFFFFFC0003FFF0003FFFFFF
310
FFC000FFFFFFE00070008000FFFFFFC0007FFF0000007FF8000003FFFF80007F
310
0001FFFFFF8000F8001FFFFFF8000FF8000001FFFE0000007FFFFFF0001FFFFF
310
FE0003FFFFFFE0003FFE0003FFFFFFE0003FFF0003FFFFFFFFC000FFFFFFE000
310
70008000FFFFFFC0007FFE0000007FF8000003FFFF80007F0001FFFFFF8000F0
310
001FFFFFF8000FF8000001FFFE0000007FFFFFF0001FFFFFFC0003FFFFFFE000
310
1FFC0003FFFFFFE0001FFF0003FFFFFFFFC000FFFFFFC00070008000FFFFFF80
310
007FFE0000007FF0000003FFFF80007F0001FFFFFF0000F0001FFFFFF8000FF8
310
000001FFFE0000007FFFFFF0001FFFFFFC0007FFFFFFF0001FFC0007FFFFFFF0
310
001FFF0003FFFFFFFFC000FFFFFFC00070008001FFFFFF0000FFFE0000003FF0
310
000001FFFF80007F0001FFFFFF0000F8001FFFFFF0000FF8000001FFFE000000
310
7FFFFFF0001FFFFFFC0007FFFFFFF0001FFC0007FFFFFFF0001FFF0003FFFFFF
310
FFC001FFFFFF80007000FFFFFFFFFE0000FFFE0008003FF0008001FFFF80007F
310
FFFFFFFFFC0000FFFFFFFFFFE0000FF8000001FFFE0000007FFFFFF0001FFFFF
310
F8000FFFFFFFF8000FF8000FFFFFFFF8000FFF0003FFFFFFFFFFFFFFFFFF0000
310
7000FFFFFFFFFC0000FFFC0008003FF0008001FFFF80007FFFFFFFFFF80001FF
310
FFFFFFFF80000FF8000001FFFE0000007FFFFFF0001FFFFFF8000FFFFFFFF800
310
0FF8000FFFFFFFF8000FFF0003FFFFFFFFFFFFFFFFFE0000F000FFFFFFFFE000
310
00FFFC000C003FE000C001FFFF80007FFFFFFFFFC00001FFFFFFFFFE00001FF8
310
000001FFFE0000007FFFFFF0001FFFFFF8000FFFFFFFF8000FF8000FFFFFFFF8
310
000FFF0003FFFFFFFFFFFFFFFFF00000F000FFFFFFFE000001FFFC000C001FE0
310
00C000FFFF80007FFFFFFFFE000001FFFFFFFFE000001FF80FFFFFFFFFFFFFC0
310
7FFFFFF0001FFFFFF8000FFFFFFFF8000FF8000FFFFFFFF8000FFF0003FFFFFF
310
FFFFFFFFFF800000F000FFFFFFC0000001FFFC001C001FE001C000FFFF80007F
310
FFFFFF80000003FFFFFFF80000001FF80FFFFFFFFFFFFFC07FFFFFF0001FFFFF
310
F8001FFFFFFFFC000FF8001FFFFFFFFC000FFF0003FFFFFFFFFFFFFFF0000001
310
F000FFFFF800000001FFF8001C001FE001C000FFFF80007FFFFFF800000003FF
310
FFFF800000003FF80FFFFFFFFFFFFFC07FFFFFF0001FFFFFF8001FFFFFFFFC00
310
0FF8001FFFFFFFFC000FFF0003FFFFFFFFFFFFFE00000001F000FFFFC0000000
310
03FFF8001E001FC001E000FFFF80007FFFFF8000000007FFFFFC000000003FF8
310
0FFFFFFFFFFFFFC07FFFFFF0001FFFFFF8001FFFFFFFFC000FF8001FFFFFFFFC
310
000FFF0003FFFFFFFFFFFFE000000003F000FFFE0000000007FFF8001E000FC0
310
01E0007FFF80007FFFFE0000000007FFFFE0000000007FF80FFFFFFFFFFFFFC0
310
7FFFFFF0001FFFFFF0001FFFFFFFFC0007F0001FFFFFFFFC0007FF0003FFFFFF
310
FFFFFF0000000003F000FFF80000000007FFF8001E000FC003E0007FFF80007F
310
FFF0000000000FFFFF8000000000FFF80FFFFFFFFFFFFFC07FFFFFF0001FFFFF
310
F0001FFFFFFFFC0007F0001FFFFFFFFC0007FF0003FFFFFFFFFFFC0000000007
310
F000FFE0000000000FFFF0003E000FC003E0007FFF80007FFFC0000000001FFF
310
FE0000000001FFF80FFFFFFFFFFFFFC07FFFFFF0001FFFFFF0001FFFFFFFFC00
310
07F0001FFFFFFFFC0007FF0003FFFFFFFFFFF0000000000FF000FFC000000000
310
1FFFF0003F000F8003F0003FFF80007FFF80000000003FFFF80000000003FFF8
310
0FFFFFFFFFFFFFC07FFFFFF0001FFFFFF0001FFFFFFFFC0007F0001FFFFFFFFC
310
0007FF0003FFFFFFFFFFE0000000001FF000FF00000000007FFFF0003F000780
310
03F0003FFF80007FFF00000000007FFFF00000000007FFF80FFFFFFFFFFFFFC0
310
7FFFFFF0001FFFFFF0001FFFFFFFFC0007F0001FFFFFFFFC0007FF0003FFFFFF
310
FFFF80000000007FF000FE0000000000FFFFE0003F00078007F0003FFF80007F
310
FE0000000001FFFFE0000000001FFFF80FFFFFFFFFFFFFC07FFFFFF0001FFFFF
310
F0001FFFFFFFFC0007F0001FFFFFFFFC0007FF0003FFFFFFFFFF0000000000FF
310
F000FC0000000003FFFFE0007F00078007F0003FFF80007FFC0000000007FFFF
310
C0000000007FFFF80FFFFFFFFFFFFFC07FFFFFF0001FFFFFF8001FFFFFFFFC00
310
0FF8001FFFFFFFFC000FFF0003FFFFFFFFFE0000000003FFF000FC000000000F
310
FFFFE0007F80070007F8001FFF80007FF8000000001FFFFF8000000001FFFFF8
310
0FFFFFFFFFFFFFC07FFFFFF0001FFFFFF8001FFFFFFFFC000FF8001FFFFFFFFC
310
000FFF0003FFFFFFFFFC000000000FFFF000F8000000007FFFFFE0007F800700
310
07F8001FFF80007FF000000000FFFFFF800000000FFFFFF80FFFFFFFFFFFFFC0
310
7FFFFFF0001FFFFFF8000FFFFFFFF8000FF8000FFFFFFFF8000FFF0003FFFFFF
310
FFFC000000007FFFF000F800000007FFFFFFC0007F8003000FF8001FFF80007F
310
F000000007FFFFFF000000007FFFFFF80FFFFFFFFFFFFFC07FFFFFF0001FFFFF
310
F8000FFFFFFFF8000FF8000FFFFFFFF8000FFF0003FFFFFFFFF80000000FFFFF
310
F000F0000000FFFFFFFFC000FF8003000FF8001FFF80007FE0000000FFFFFFFF
310
0000000FFFFFFFF8000001FFFE0000007FFFFFF0001FFFFFF8000FFFFFFFF800
310
0FF8000FFFFFFFF8000FFF0003FFFFFFFFF8000000FFFFFFF000F000000FFFFF
310
FFFFC000FFC002000FF8000FFF80007FE000001FFFFFFFFE000001FFFFFFFFF8
310
000001FFFE0000007FFFFFF0001FFFFFF8000FFFFFFFF8000FF8000FFFFFFFF8
310
000FFF0003FFFFFFFFF000001FFFFFFFF000E00000FFFFFFFFFFC000FFC00200
310
0FFC000FFF80007FE00001FFFFFFFFFE00001FFFFFFFFFF8000001FFFE000000
310
7FFFFFF0001FFFFFFC000FFFFFFFF8001FFC000FFFFFFFF8001FFF0003FFFFFF
310
FFF00001FFFFFFFFF000E00007FFFFFFFFFF8000FFC000001FFC000FFF80007F
310
C0000FFFFFFFFFFE0000FFFFFFFFFFF8000001FFFE0000007FFFFFF0001FFFFF
310
FC0007FFFFFFF0001FFC0007FFFFFFF0001FFF0003FFFFFFFFF00007FFFFFFFF
310
F000E0001FFFFFFFFFFF8000FFC000001FFC000FFF80007FC0003FFFFFFFFFFE
310
0001FFFFFFFFFFF8000001FFFE0000007FFFFFF0001FFFFFFC0007FFFFFFF000
310
1FFC0007FFFFFFF0001FFF0003FFFFFFFFF0001FFFFFFFFFF000E0003FFFFF00
310
03FF8001FFE000001FFC0007FF80007FC0007FFFFF0007FC0003FFFFF0003FF8
310
000001FFFE0000007FFFFFF0001FFFFFFC0003FFFFFFE0001FFC0003FFFFFFE0
310
001FFF0003FFFFFFFFF0003FFFFFFFFFF000E0003FFFFF0001FF8001FFE00000
310
1FFE0007FF80007FC0007FFFFE0003FC0007FFFFE0003FF8000001FFFE000000
310
7FFFFFF0001FFFFFFE0003FFFFFFE0003FFE0003FFFFFFE0003FFF0003FFFFFF
310
FFF0003FFFFF8001F000E0003FFFFF0001FF0001FFE000001FFE0007FF80007F
310
C0007FFFFE0003FC0007FFFFE0003FF8000001FFFE0000007FFFFFF0001FFFFF
310
FE0001FFFFFFC0003FFE0001FFFFFFC0003FFF0003FFFFFFFFF0003FFFFF0001
310
F000E0003FFFFF0003FF0001FFE000003FFE0007FF80007FC0007FFFFE0003FC
310
0007FFFFE0003FF8000001FFFE0000007FFFFFF0001FFFFFFF0001FFFFFFC000
310
7FFF0001FFFFFFC0007FFF0003FFFFFFFFF0003FFFFF0001F000E0003FFFFE00
310
03FF0003FFF000003FFE0003FF80007FC0007FFFFC0003FE0007FFFFE0003FF8
310
000001FFFE0000007FFFFFF0001FFFFFFF0000FFFFFF80007FFF0000FFFFFF80
310
007FFF0003FFFFFFFFF0003FFFFF0001F000E0003FFFFE0003FF0003FFF00000
310
3FFF0003FF80007FC0007FFFFC0007FE0007FFFFC0003FF8000001FFFE000000
310
7FFFFFF0001FFFFFFF80007FFFFF0000FFFF80007FFFFF0000FFFF0003FFFFFF
310
FFF0003FFFFF0003F000E0003FFFFC0003FE0003FFF000003FFF0003FF80007F
310
E0003FFFF80007FE0003FFFFC0007FF8000001FFFE0000007FFFFFF0001FFFFF
310
FF80003FFFFE0000FFFF80003FFFFE0000FFFF0003FFFFFFFFF0001FFFFE0003
310
F000F0001FFFF80003FE0003FFF000007FFF0001FF80007FE0003FFFF00007FE
310
0001FFFF80007FF8000001FFFE0000007FFFFFF0001FFFFFFFC0000FFFF80001
310
FFFFC0000FFFF80001FFFF0003FFFFFFFFF0001FFFFC0003F000F0000FFFF000
310
07FE0007FFF800007FFF0001FF80007FE0001FFFE00007FF0000FFFE00007FF8
310
000001FFFE0000007FFFFFF0001FFFFFFFC00003FFE00001FFFFC00003FFE000
310
01FFFF0003FFFFFFFFF8000FFFF80003F000F00003FFC00007FC0007FFF80000
310
7FFF8001FF80007FF00007FF80000FFF00007FF80000FFF8000001FFFE000000
310
7F80000000000001FFE000003E000003FFFFE000003E000003FFFF0003FFFFFF
310
FFF80003FFE00007F000F800000000000FFC0007FFF800007FFF8001FF80007F
310
F000000000000FFF000000000000FFF8000001FFFE0000007F80000000000001
310
FFF0000000000007FFFFF0000000000007FFFF0003FFFFFFFFFC00007E000007
310
F000F800000000000FFC0007FFF80000FFFF8000FF80007FF800000000001FFF
310
800000000001FFF8000001FFFE0000007F80000000000001FFF800000000000F
310
FFFFF800000000000FFFFF0003FFFFFFFFFC00000000000FF000FC0000000000
310
1FFC0007FFFC0000FFFF8000FF80007FF800000000003FFFC00000000001FFF8
310
000001FFFE0000007F80000000000001FFF800000000000FFFFFF80000000000
310
0FFFFF0003FFFFFFFFFE00000000001FF000FE00000000003FF8000FFFFC0000
310
FFFF8000FF80007FFC00000000003FFFC00000000003FFF8000001FFFE000000
310
7F80000000000001FFFC00000000001FFFFFFC00000000001FFFFF0003FFFFFF
310
FFFF00000000001FF000FF00000000003FF8000FFFFC0000FFFFC000FF80007F
310
FE00000000007FFFE00000000007FFF8000001FFFE0000007F80000000000001
310
FFFE00000000003FFFFFFE00000000003FFFFF0003FFFFFFFFFF80000000003F
310
F000FF80000000007FF8000FFFFC0001FFFFC0007F80007FFF0000000000FFFF
310
F0000000000FFFF800000000000000007F80000000000001FFFF8000000000FF
310
FFFFFF8000000000FFFFFF0003FFFFFFFFFFC0000000007FF000FFC000000000
310
FFF8000FFFFE0001FFFFC0007F80007FFF8000000001FFFFF8000000001FFFF8
310
00000000000000007F80000000000001FFFFC000000001FFFFFFFFC000000001
310
FFFFFF0003FFFFFFFFFFE000000000FFF000FFE000000003FFF0001FFFFE0001
310
FFFFC0007F80007FFFC000000007FFFFFE000000003FFFF80000000000000000
310
7F80000000000001FFFFE000000003FFFFFFFFE000000003FFFFFF0003FFFFFF
310
FFFFF000000003FFF000FFF80000000FFFF0001FFFFE0001FFFFE0007F80007F
310
FFF00000000FFFFFFF00000000FFFFF800000000000000007F80000000000001
310
FFFFF80000000FFFFFFFFFF80000000FFFFFFF0003FFFFFFFFFFFC0000000FFF
310
F000FFFE0000003FFFF0001FFFFE0003FFFFE0003F80007FFFFC0000003FFFFF
310
FFC0000003FFFFF800000000000000007F80000000000001FFFFFE0000003FFF
310
FFFFFFFE0000003FFFFFFF0003FFFFFFFFFFFF0000003FFFF000FFFF800000FF
310
FFF0001FFFFF0003FFFFE0003F80007FFFFF000001FFFFFFFFF800001FFFFFF8
310
00000000000000007F80000000000001FFFFFFC00001FFFFFFFFFFFFC00001FF
310
FFFFFF0003FFFFFFFFFFFFC00000FFFFF000FFFFF8000FFFFFFFFFFFFFFFFFFF
310
FFFFFFFFFFFFFFFFFFFFF0001FFFFFFFFFFF0000FFFFFFF80000000000000000
310
7FFFFFFFFFFFFFFFFFFFFFFC001FFFFFFFFFFFFFFC001FFFFFFFFFFFFFFFFFFF
310
FFFFFFFC001FFFFFF000FFFFFFFFFFFFFFFFFFFFFFFFFFFFFFFFFFFFFFFFFFFF
310
FFFFFFFFFFFFFFFFFFFFFFFFFFFFFFFFFFFFFFFFFFFFFFFFFFFFFFFFFFFFFFFF
310
FFFFFFFFFFFFFFFFFFFFFFFFFFFFFFFFFFFFFFFFFFFFFFFFFFFFFFFFFFFFFFFF
310
F000FFFFFFFFFFFFFFFFFFFFFFFFFFFFFFFFFFFFFFFFFFFFFFFFFFFFFFFFFFFF
310
FFFFFFFFFFFFFFFFFFFFFFFFFFFFFFFFFFFFFFFFFFFFFFFFFFFFFFFFFFFFFFFF
310
FFFFFFFFFFFFFFFFFFFFFFFFFFFFFFFFFFFFFFFFFFFFFFFFF000FFFFFFFFFFFF
310
FFFFFFFFFFFFFFFFFFFFFFFFFFFFFFFFFFFFFFFFFFFFFFFFFFFFFFFFFFFFFFFF
310
FFFFFFFFFFFFFFFFFFFFFFFFFFFFFFFFFFFFFFFFFFFFFFFFFFFFFFFFFFFFFFFF
310
FFFFFFFFFFFFFFFFFFFFFFFFFFFFFFFFF000FFFFFFFFFFFFFFFFFFFFFFFFFFFF
310
FFFFFFFFFFFFFFFFFFFFFFFFFFFFFFFFFFFFFFFFFFFFFFFFFFFFFFFFFFFFFFFF
310
FFFFFFFFFFFFFFFFFFFFFFFFFFFFFFFFFFFFFFFFFFFFFFFFFFFFFFFFFFFFFFFF
310
FFFFFFFFFFFFFFFFF000FFFFFFFFFFFFFFFFFFFFFFFFFFFFFFFFFFFFFFFFFFFF
310
FFFFFFFFFFFFFFFFFFFFFFFFFFFFFFFFFFFFFFFFFFFFFFFFFFFFFFFFFFFFFFFF
310
FFFFFFFFFFFFFFFFFFFFFFFFFFFFFFFFFFFFFFFFFFFFFFFFFFFFFFFFFFFFFFFF
310
F000FFFFFFFFFFFFFFFFFFFFFFFFFFFFFFFFFFFFFFFFFFFFFFFFFFFFFFFFFFFF
310
FFFFFFFFFFFFFFFFFFFFFFFFFFFFFFFFFFFFFFFFFFFFFFFFFFFFFFFFFFFFFFFF
310
FFFFFFFFFFFFFFFFFFFFFFFFFFFFFFFFFFFFFFFFFFFFFFFFF000FFFFFFFFFFFF
310
FFFFFFFFFFFFFFFFFFFFFFFFFFFFFFFFFFFFFFFFFFFFFFFFFFFFFFFFFFFFFFFF
310
FFFFFFFFFFFFFFFFFFFFFFFFFFFFFFFFFFFFFFFFFFFFFFFFFFFFFFFFFFFFFFFF
310
FFFFFFFFFFFFFFFFFFFFFFFFFFFFFFFFF000FFFFFFFFFFFFFFFFFFFFFFFFFFFF
310
FFFFFFFFFFFFFFFFFFFFFFFFFFFFFFFFFFFFFFFFFFFFFFFFFFFFFFFFFFFFFFFF
310
FFFFFFFFFFFFFFFFFFFFFFFFFFFFFFFFFFFFFFFFFFFFFFFFFFFFFFFFFFFFFFFF
310
FFFFFFFFFFFFFFFFF000FFFFFFFFFFFFFFFFFFFFFFFFFFFFFFFFFFFFFFFFFFFF
310
FFFFFFFFFFFFFFFFFFFFFFFFFFFFFFFFFFFFFFFFFFFFFFFFFFFFFFFFFFFFFFFF
310
FFFFFFFFFFFFFFFFFFFFFFFFFFFFFFFFFFFFFFFFFFFFFFFFFFFFFFFFFFFFFFFF
310
F000FFFFFFFFFFFFFFFFFFFFFFFFFFFFFFFFFFFFFFFFFFFFFFFFFFFFFFFFFFFF
310
FFFFFFFFFFFFFFFFFFFFFFFFFFFFFFFFFFFFFFFFFFFFFFFFFFFFFFFFFFFFFFFF
310
FFFFFFFFFFFFFFFFFFFFFFFFFFFFFFFFFFFFFFFFFFFFFFFFF000FFFFFFFFFFFF
310
FFFFFFFFFFFFFFFFFFFFFFFFFFFFFFFFFFFFFFFFFFFFFFFFFFFFFFFFFFFFFFFF
310
FFFFFFFFFFFFFFFFFFFFFFFFFFFFFFFFFFFFFFFFFFFFFFFFFFFFFFFFFFFFFFFF
310
FFFFFFFFFFFFFFFFFFFFFFFFFFFFFFFFF000FFFFFFFFFFFFFFFFFFFFFFFFFFFF
310
FFFFFFFFFFFFFFFFFFFFFFFFFFFFFFFFFFFFFFFFFFFFFFFFFFFFFFFFFFFFFFFF
310
FFFFFFFFFFFFFFFFFFFFFFFFFFFFFFFFFFFFFFFFFFFFFFFFFFFFFFFFFFFFFFFF
310
FFFFFFFFFFFFFFFFF000FFFFFFFFFFFFFFFFFFFFFFFFFFFFFFFFFFFFFFFFFFFF
310
FFFFFFFFFFFFFFFFFFFFFFFFFFFFFFFFFFFFFFFFFFFFFFFFFFFFFFFFFFFFFFFF
310
FFFFFFFFFFFFFFFFFFFFFFFFFFFFFFFFFFFFFFFFFFFFFFFFFFFFFFFFFFFFFFFF
310
F000FFFFFFFFFFFFFFFFFFFFFFFFFFFFFFFFFFFFFFFFFFFFFFFFFFFFFFFFFFFF
310
FFFFFFFFFFFFFFFFFFFFFFFFFFFFFFFFFFFFFFFFFFFFFFFFFFFFFFFFFFFFFFFF
310
FFFFFFFFFFFFFFFFFFFFFFFFFFFFFFFFFFFFFFFFFFFFFFFFF000FFFFFFFFFFFF
310
FFFFFFFFFFFFFFFFFFFFFFFFFFFFFFFFFFFFFFFFFFFFFFFFFFFFFFFFFFFFFFFF
310
FFFFFFFFFFFFFFFFFFFFFFFFFFFFFFFFFFFFFFFFFFFFFFFFFFFFFFFFFFFFFFFF
310
FFFFFFFFFFFFFFFFFFFFFFFFFFFFFFFFF000FFFFFFFFFFFFFFFFFFFFFFFFFFFF
310
FFFFFFFFFFFFFFFFFFFFFFFFFFFFFFFFFFFFFFFFFFFFFFFFFFFFFFFFFFFFFFFF
310
FFFFFFFFFFFFFFFFFFFFFFFFFFFFFFFFFFFFFFFFFFFFFFFFFFFFFFFFFFFFFFFF
310
FFFFFFFFFFFFFFFFF000FFFFFFFFFFFFFFFFFFFFFFFFFFFFFFFFFFFFFFFFFFFF
310
FFFFFFFFFFFFFFFFFFFFFFFFFFFFFFFFFFFFFFFFFFFFFFFFFFFFFFFFFFFFFFFF
310
FFFFFFFFFFFFFFFFFFFFFFFFFFFFFFFFFFFFFFFFFFFFFFFFFFFFFFFFFFFFFFFF
310
F000FFFFFFFFFFFFFFFFFFFFFFFFFFFFFFFFFFFFFFFFFFFFFFFFFFFFFFFFFFFF
310
FFFFFFFFFFFFFFFFFFFFFFFFFFFFFFFFFFFFFFFFFFFFFFFFFFFFFFFFFFFFFFFF
310
FFFFFFFFFFFFFFFFFFFFFFFFFFFFFFFFFFFFFFFFFFFFFFFFF000FFFFFFFFFFFF
310
FFFFFFFFFFFFFFFFFFFFFFFFFFFFFFFFFFFFFFFFFFFFFFFFFFFFFFFFFFFFFFFF
310
FFFFFFFFFFFFFFFFFFFFFFFFFFFFFFFFFFFFFFFFFFFFFFFFFFFFFFFFFFFFFFFF
310
FFFFFFFFFFFFFFFFFFFFFFFFFFFFFFFFF000FFFFFFFFFFFFFFFFFFFFFFFFFFFF
310
FFFFFFFFFFFFFFFFFFFFFFFFFFFFFFFFFFFFFFFFFFFFFFFFFFFFFFFFFFFFFFFF
310
FFFFFFFFFFFFFFFFFFFFFFFFFFFFFFFFFFFFFFFFFFFFFFFFFFFFFFFFFFFFFFFF
310
FFFFFFFFFFFFFFFFF000FFFFFFFFFFFFFFFFFFFFFFFFFFFFFFFFFFFFFFFFFFFF
310
FFFFFFFFFFFFFFFFFFFFFFFFFFFFFFFFFFFFFFFFFFFFFFFFFFFFFFFFFFFFFFFF
310
FFFFFFFFFFFFFFFFFFFFFFFFFFFFFFFFFFFFFFFFFFFFFFFFFFFFFFFFFFFFFFFF
310
F000FFFFFFFFFFFFFFFFFFFFFFFFFFFFFFFFFFFFFFFFFFFFFFFFFFFFFFFFFFFF
310
FFFFFFFFFFFFFFFFFFFFFFFFFFFFFFFFFFFFFFFFFFFFFFFFFFFFFFFFFFFFFFFF
310
FFFFFFFFFFFFFFFFFFFFFFFFFFFFFFFFFFFFFFFFFFFFFFFFF000FFFFFFFFFFFF
310
FFFFFFFFFFFFFFFFFFFFFFFFFFFFFFFFFFFFFFFFFFFFFFFFFFFFFFFFFFFFFFFF
310
FFFFFFFFFFFFFFFFFFFFFFFFFFFFFFFFFFFFFFFFFFFFFFFFFFFFFFFFFFFFFFFF
310
FFFFFFFFFFFFFFFFFFFFFFFFFFFFFFFFF0000000000000000000000000000000
310
0000000000000000000000000000000000000000000000000000000000000000
310
0000000000000000000000000000000000000000000000000000000000000000
310
0000000000000000000000000000000000000000000000000000000000000000
310
0000000000000000000000000000000000000000000000000000000000000000
310
0000000000000000000000000000000000000000000000000000000000000000
310
0000000000000000000000000000000000000000000000000000000000000000
310
0000000000000000000000000000000000000000000000000000000000000000
310
0000000000000000000000000000000000000000000000000000000000000000
310
0000000000000000000000000000000000000000000000000000000000000000
310
0000000000000000000000000000000000000000000000000000000000000000
310
0000000000000000000000000000000000000000000000000000000000000000
310
0000000000000000000000000000000000000000000000000000000000000000
310
0000000000000000000000000000000000000000000000000000000000000000
310
0000000000000000000000000000000000000000000000000000000000000000
310
0000000000000000000000000000000000000000000000000000000000000000
  1
OLE
  0
ENDSEC
  0
SECTION
  2
OBJECTS
  0
DICTIONARY
  5
C
330
0
100
AcDbDictionary
281
     1
  3
ACAD_GROUP
350
D
  3
ACAD_LAYOUT
350
1A
  3
ACAD_MLINESTYLE
350
17
  3
ACAD_PLOTSETTINGS
350
19
  3
ACAD_PLOTSTYLENAME
350
E
  0
DICTIONARY
  5
D
102
{ACAD_REACTORS
330
C
102
}
330
C
100
AcDbDictionary
281
     1
  0
DICTIONARY
  5
1A
102
{ACAD_REACTORS
330
C
102
}
330
C
100
AcDbDictionary
281
     1
  3
Layout1
350
1E
  3
Layout2
350
26
  3
Model
350
22
  0
DICTIONARY
  5
17
102
{ACAD_REACTORS
330
C
102
}
330
C
100
AcDbDictionary
281
     1
  3
Standard
350
18
  0
DICTIONARY
  5
19
102
{ACAD_REACTORS
330
C
102
}
330
C
100
AcDbDictionary
281
     1
  0
ACDBDICTIONARYWDFLT
  5
E
102
{ACAD_REACTORS
330
C
102
}
330
C
100
AcDbDictionary
281
     1
  3
Normal
350
F
100
AcDbDictionaryWithDefault
340
F
  0
LAYOUT
  5
1E
102
{ACAD_REACTORS
330
1A
102
}
330
1A
100
AcDbPlotSettings
  1

  2
none_device
  4

  6

 40
0.0
 41
0.0
 42
0.0
 43
0.0
 44
0.0
 45
0.0
 46
0.0
 47
0.0
 48
0.0
 49
0.0
140
0.0
141
0.0
142
1.0
143
1.0
 70
   688
 72
     0
 73
     0
 74
     5
  7

 75
    16
147
1.0
148
0.0
149
0.0
100
AcDbLayout
  1
Layout1
 70
     1
 71
     1
 10
0.0
 20
0.0
 11
420.0
 21
297.0
 12
0.0
 22
0.0
 32
0.0
 14
1.0000000000E+20
 24
1.0000000000E+20
 34
1.0000000000E+20
 15
-1.0000000000E+20
 25
-1.0000000000E+20
 35
-1.0000000000E+20
146
0.0
 13
0.0
 23
0.0
 33
0.0
 16
1.0
 26
0.0
 36
0.0
 17
0.0
 27
1.0
 37
0.0
 76
     0
330
1B
  0
LAYOUT
  5
26
102
{ACAD_REACTORS
330
1A
102
}
330
1A
100
AcDbPlotSettings
  1

  2
none_device
  4

  6

 40
0.0
 41
0.0
 42
0.0
 43
0.0
 44
0.0
 45
0.0
 46
0.0
 47
0.0
 48
0.0
 49
0.0
140
0.0
141
0.0
142
1.0
143
1.0
 70
   688
 72
     0
 73
     0
 74
     5
  7

 75
    16
147
1.0
148
0.0
149
0.0
100
AcDbLayout
  1
Layout2
 70
     1
 71
     2
 10
0.0
 20
0.0
 11
0.0
 21
0.0
 12
0.0
 22
0.0
 32
0.0
 14
0.0
 24
0.0
 34
0.0
 15
0.0
 25
0.0
 35
0.0
146
0.0
 13
0.0
 23
0.0
 33
0.0
 16
1.0
 26
0.0
 36
0.0
 17
0.0
 27
1.0
 37
0.0
 76
     0
330
23
  0
LAYOUT
  5
22
102
{ACAD_REACTORS
330
1A
102
}
330
1A
100
AcDbPlotSettings
  1

  2
none_device
  4

  6

 40
0.0
 41
0.0
 42
0.0
 43
0.0
 44
0.0
 45
0.0
 46
0.0
 47
0.0
 48
0.0
 49
0.0
140
0.0
141
0.0
142
1.0
143
1.0
 70
  1712
 72
     0
 73
     0
 74
     0
  7

 75
     0
147
1.0
148
0.0
149
0.0
100
AcDbLayout
  1
Model
 70
     1
 71
     0
 10
0.0
 20
0.0
 11
297.0
 21
210.0
 12
0.0
 22
0.0
 32
0.0
 14
0.0
 24
0.0
 34
0.0
 15
297.0
 25
210.0
 35
0.0
146
0.0
 13
0.0
 23
0.0
 33
0.0
 16
1.0
 26
0.0
 36
0.0
 17
0.0
 27
1.0
 37
0.0
 76
     0
330
1F
331
29
  0
MLINESTYLE
  5
18
102
{ACAD_REACTORS
330
17
102
}
330
17
100
AcDbMlineStyle
  2
Standard
 70
     0
  3

 62
   256
 51
90.0
 52
90.0
 71
     2
 49
0.5
 62
   256
  6
BYLAYER
 49
-0.5
 62
   256
  6
BYLAYER
  0
ACDBPLACEHOLDER
  5
F
102
{ACAD_REACTORS
330
E
102
}
330
E
  0
ENDSEC
  0
EOF
