  0
SECTION
  2
HEADER
  9
$ACADVER
  1
AC1015
  9
$ACADMAINTVER
 70
     6
  9
$DWGCODEPAGE
  3
ANSI_1252
  9
$INSBASE
 10
0.0
 20
0.0
 30
0.0
  9
$EXTMIN
 10
0.0
 20
0.0
 30
0.0
  9
$EXTMAX
 10
297.0
 20
210.0
 30
0.0
  9
$LIMMIN
 10
0.0
 20
0.0
  9
$LIMMAX
 10
297.0
 20
210.0
  9
$ORTHOMODE
 70
     0
  9
$REGENMODE
 70
     1
  9
$FILLMODE
 70
     1
  9
$QTEXTMODE
 70
     0
  9
$MIRRTEXT
 70
     1
  9
$LTSCALE
 40
1.0
  9
$ATTMODE
 70
     1
  9
$TEXTSIZE
 40
2.0
  9
$TRACEWID
 40
1.0
  9
$TEXTSTYLE
  7
Standard
  9
$CLAYER
  8
0
  9
$CELTYPE
  6
ByLayer
  9
$CECOLOR
 62
   256
  9
$CELTSCALE
 40
1.0
  9
$DISPSILH
 70
     0
  9
$DIMSCALE
 40
1.0
  9
$DIMASZ
 40
3.0
  9
$DIMEXO
 40
0.0
  9
$DIMDLI
 40
3.75
  9
$DIMRND
 40
0.0
  9
$DIMDLE
 40
0.0
  9
$DIMEXE
 40
1.0
  9
$DIMTP
 40
0.0
  9
$DIMTM
 40
0.0
  9
$DIMTXT
 40
2.0
  9
$DIMCEN
 40
2.5
  9
$DIMTSZ
 40
0.0
  9
$DIMTOL
 70
     0
  9
$DIMLIM
 70
     0
  9
$DIMTIH
 70
     1
  9
$DIMTOH
 70
     1
  9
$DIMSE1
 70
     0
  9
$DIMSE2
 70
     0
  9
$DIMTAD
 70
     1
  9
$DIMZIN
 70
     0
  9
$DIMBLK
  1

  9
$DIMASO
 70
     1
  9
$DIMSHO
 70
     1
  9
$DIMPOST
  1

  9
$DIMAPOST
  1

  9
$DIMALT
 70
     0
  9
$DIMALTD
 70
     3
  9
$DIMALTF
 40
0.0393700787
  9
$DIMLFAC
 40
1.0
  9
$DIMTOFL
 70
     1
  9
$DIMTVP
 40
0.0
  9
$DIMTIX
 70
     0
  9
$DIMSOXD
 70
     0
  9
$DIMSAH
 70
     0
  9
$DIMBLK1
  1

  9
$DIMBLK2
  1

  9
$DIMSTYLE
  2
ISO-25
  9
$DIMCLRD
 70
     0
  9
$DIMCLRE
 70
     0
  9
$DIMCLRT
 70
     0
  9
$DIMTFAC
 40
1.0
  9
$DIMGAP
 40
1.524
  9
$DIMJUST
 70
     0
  9
$DIMSD1
 70
     0
  9
$DIMSD2
 70
     0
  9
$DIMTOLJ
 70
     0
  9
$DIMTZIN
 70
     0
  9
$DIMALTZ
 70
     0
  9
$DIMALTTZ
 70
     0
  9
$DIMUPT
 70
     0
  9
$DIMDEC
 70
     2
  9
$DIMTDEC
 70
     3
  9
$DIMALTU
 70
     2
  9
$DIMALTTD
 70
     3
  9
$DIMTXSTY
  7
Standard
  9
$DIMAUNIT
 70
     0
  9
$DIMADEC
 70
     2
  9
$DIMALTRND
 40
0.0
  9
$DIMAZIN
 70
     0
  9
$DIMDSEP
 70
    44
  9
$DIMATFIT
 70
     3
  9
$DIMFRAC
 70
     0
  9
$DIMLDRBLK
  1

  9
$DIMLUNIT
 70
     2
  9
$DIMLWD
 70
    -2
  9
$DIMLWE
 70
    -2
  9
$DIMTMOVE
 70
     0
  9
$LUNITS
 70
     2
  9
$LUPREC
 70
     2
  9
$SKETCHINC
 40
1.0
  9
$FILLETRAD
 40
10.0
  9
$AUNITS
 70
     0
  9
$AUPREC
 70
     2
  9
$MENU
  1
.
  9
$ELEVATION
 40
0.0
  9
$PELEVATION
 40
0.0
  9
$THICKNESS
 40
0.0
  9
$LIMCHECK
 70
     0
  9
$CHAMFERA
 40
10.0
  9
$CHAMFERB
 40
10.0
  9
$CHAMFERC
 40
20.0
  9
$CHAMFERD
 40
0.0
  9
$SKPOLY
 70
     0
  9
$TDCREATE
 40
2455643.442571771
  9
$TDUCREATE
 40
2455643.400905104
  9
$TDUPDATE
 40
2455643.442571783
  9
$TDUUPDATE
 40
2455643.400905116
  9
$TDINDWG
 40
0.0000000116
  9
$TDUSRTIMER
 40
0.0000000116
  9
$USRTIMER
 70
     1
  9
$ANGBASE
 50
0.0
  9
$ANGDIR
 70
     0
  9
$PDMODE
 70
     0
  9
$PDSIZE
 40
-1.0
  9
$PLINEWID
 40
0.0
  9
$SPLFRAME
 70
     0
  9
$SPLINETYPE
 70
     6
  9
$SPLINESEGS
 70
     8
  9
$HANDSEED
  5
277
  9
$SURFTAB1
 70
     6
  9
$SURFTAB2
 70
     6
  9
$SURFTYPE
 70
     6
  9
$SURFU
 70
     6
  9
$SURFV
 70
     6
  9
$UCSBASE
  2

  9
$UCSNAME
  2

  9
$UCSORG
 10
0.0
 20
0.0
 30
0.0
  9
$UCSXDIR
 10
1.0
 20
0.0
 30
0.0
  9
$UCSYDIR
 10
0.0
 20
1.0
 30
0.0
  9
$UCSORTHOREF
  2

  9
$UCSORTHOVIEW
 70
     0
  9
$UCSORGTOP
 10
0.0
 20
0.0
 30
0.0
  9
$UCSORGBOTTOM
 10
0.0
 20
0.0
 30
0.0
  9
$UCSORGLEFT
 10
0.0
 20
0.0
 30
0.0
  9
$UCSORGRIGHT
 10
0.0
 20
0.0
 30
0.0
  9
$UCSORGFRONT
 10
0.0
 20
0.0
 30
0.0
  9
$UCSORGBACK
 10
0.0
 20
0.0
 30
0.0
  9
$PUCSBASE
  2

  9
$PUCSNAME
  2

  9
$PUCSORG
 10
0.0
 20
0.0
 30
0.0
  9
$PUCSXDIR
 10
1.0
 20
0.0
 30
0.0
  9
$PUCSYDIR
 10
0.0
 20
1.0
 30
0.0
  9
$PUCSORTHOREF
  2

  9
$PUCSORTHOVIEW
 70
     0
  9
$PUCSORGTOP
 10
0.0
 20
0.0
 30
0.0
  9
$PUCSORGBOTTOM
 10
0.0
 20
0.0
 30
0.0
  9
$PUCSORGLEFT
 10
0.0
 20
0.0
 30
0.0
  9
$PUCSORGRIGHT
 10
0.0
 20
0.0
 30
0.0
  9
$PUCSORGFRONT
 10
0.0
 20
0.0
 30
0.0
  9
$PUCSORGBACK
 10
0.0
 20
0.0
 30
0.0
  9
$USERI1
 70
     0
  9
$USERI2
 70
     0
  9
$USERI3
 70
     0
  9
$USERI4
 70
     0
  9
$USERI5
 70
     0
  9
$USERR1
 40
0.0
  9
$USERR2
 40
0.0
  9
$USERR3
 40
0.0
  9
$USERR4
 40
0.0
  9
$USERR5
 40
0.0
  9
$WORLDVIEW
 70
     1
  9
$SHADEDGE
 70
     3
  9
$SHADEDIF
 70
    70
  9
$TILEMODE
 70
     1
  9
$MAXACTVP
 70
    64
  9
$PINSBASE
 10
0.0
 20
0.0
 30
0.0
  9
$PLIMCHECK
 70
     0
  9
$PEXTMIN
 10
1.0000000000E+20
 20
1.0000000000E+20
 30
1.0000000000E+20
  9
$PEXTMAX
 10
-1.0000000000E+20
 20
-1.0000000000E+20
 30
-1.0000000000E+20
  9
$PLIMMIN
 10
0.0
 20
0.0
  9
$PLIMMAX
 10
420.0
 20
297.0
  9
$UNITMODE
 70
     0
  9
$VISRETAIN
 70
     1
  9
$PLINEGEN
 70
     0
  9
$PSLTSCALE
 70
     1
  9
$TREEDEPTH
 70
  3020
  9
$CMLSTYLE
  2
Standard
  9
$CMLJUST
 70
     0
  9
$CMLSCALE
 40
20.0
  9
$PROXYGRAPHICS
 70
     1
  9
$MEASUREMENT
 70
     1
  9
$CELWEIGHT
370
    -1
  9
$ENDCAPS
280
     0
  9
$JOINSTYLE
280
     0
  9
$LWDISPLAY
290
     1
  9
$INSUNITS
 70
     4
  9
$HYPERLINKBASE
  1

  9
$STYLESHEET
  1

  9
$XEDIT
290
     1
  9
$CEPSNTYPE
380
     0
  9
$PSTYLEMODE
290
     1
  9
$FINGERPRINTGUID
  2
{B832BBAC-F42C-48AF-AC5B-6ECFB5C7572B}
  9
$VERSIONGUID
  2
{FAEB1C32-E019-11D5-929B-00C0DF256EC4}
  9
$EXTNAMES
290
     1
  9
$PSVPSCALE
 40
0.0
  9
$OLESTARTUP
290
     0
  0
ENDSEC
  0
SECTION
  2
CLASSES
  0
CLASS
  1
ACDBDICTIONARYWDFLT
  2
AcDbDictionaryWithDefault
  3
ObjectDBX Classes
 90
        0
280
     0
281
     0
  0
CLASS
  1
VISUALSTYLE
  2
AcDbVisualStyle
  3
ObjectDBX Classes
 90
     4095
280
     0
281
     0
  0
CLASS
  1
DICTIONARYVAR
  2
AcDbDictionaryVar
  3
ObjectDBX Classes
 90
        0
280
     0
281
     0
  0
CLASS
  1
ACDBPLACEHOLDER
  2
AcDbPlaceHolder
  3
ObjectDBX Classes
 90
        0
280
     0
281
     0
  0
CLASS
  1
LAYOUT
  2
AcDbLayout
  3
ObjectDBX Classes
 90
        0
280
     0
281
     0
  0
ENDSEC
  0
SECTION
  2
TABLES
  0
TABLE
  2
VPORT
  5
8
330
0
100
AcDbSymbolTable
 70
     1
  0
VPORT
  5
29
330
8
100
AcDbSymbolTableRecord
100
AcDbViewportTableRecord
  2
*Active
 70
     0
 10
0.0
 20
0.0
 11
1.0
 21
1.0
 12
148.5
 22
105.0
 13
0.0
 23
0.0
 14
10.0
 24
10.0
 15
10.0
 25
10.0
 16
0.0
 26
0.0
 36
1.0
 17
0.0
 27
0.0
 37
0.0
 40
210.0
 41
1.4142857143
 42
50.0
 43
0.0
 44
0.0
 50
0.0
 51
0.0
 71
     0
 72
  2000
 73
     1
 74
     3
 75
     0
 76
     0
 77
     0
 78
     0
281
     0
 65
     1
110
0.0
120
0.0
130
0.0
111
1.0
121
0.0
131
0.0
112
0.0
122
1.0
132
0.0
 79
     0
146
0.0
  0
ENDTAB
  0
TABLE
  2
LTYPE
  5
5
330
0
100
AcDbSymbolTable
 70
     6
  0
LTYPE
  5
14
330
5
100
AcDbSymbolTableRecord
100
AcDbLinetypeTableRecord
  2
ByBlock
 70
     0
  3

 72
    65
 73
     0
 40
0.0
  0
LTYPE
  5
15
330
5
100
AcDbSymbolTableRecord
100
AcDbLinetypeTableRecord
  2
ByLayer
 70
     0
  3

 72
    65
 73
     0
 40
0.0
  0
LTYPE
  5
16
330
5
100
AcDbSymbolTableRecord
100
AcDbLinetypeTableRecord
  2
Continuous
 70
     0
  3
Solid line
 72
    65
 73
     0
 40
0.0
  0
LTYPE
  5
3B
330
5
100
AcDbSymbolTableRecord
100
AcDbLinetypeTableRecord
  2
HIDDEN
 70
     0
  3
Hidden __ __ __ __ __ __ __ __ __ __ __ __ __ __
 72
    65
 73
     2
 40
1.905
 49
1.27
 74
     0
 49
-0.635
 74
     0
  0
LTYPE
  5
3C
330
5
100
AcDbSymbolTableRecord
100
AcDbLinetypeTableRecord
  2
PHANTOM
 70
     0
  3
Phantom ______  __  __  ______  __  __  ______
 72
    65
 73
     6
 40
12.7
 49
6.35
 74
     0
 49
-1.27
 74
     0
 49
1.27
 74
     0
 49
-1.27
 74
     0
 49
1.27
 74
     0
 49
-1.27
 74
     0
  0
LTYPE
  5
3D
330
5
100
AcDbSymbolTableRecord
100
AcDbLinetypeTableRecord
  2
CENTER
 70
     0
  3
Center ____ _ ____ _ ____ _ ____ _ ____ _ ____
 72
    65
 73
     4
 40
10.16
 49
6.35
 74
     0
 49
-1.27
 74
     0
 49
1.27
 74
     0
 49
-1.27
 74
     0
  0
LTYPE
  5
3E
330
5
100
AcDbSymbolTableRecord
100
AcDbLinetypeTableRecord
  2
CENTERX2
 70
     0
  3
Center (2x) ________  __  ________  __  _____
 72
    65
 73
     4
 40
20.32
 49
12.7
 74
     0
 49
-2.54
 74
     0
 49
2.54
 74
     0
 49
-2.54
 74
     0
  0
LTYPE
  5
3F
330
5
100
AcDbSymbolTableRecord
100
AcDbLinetypeTableRecord
  2
DOT2
 70
     0
  3
Dot (.5x) ........................................
 72
    65
 73
     2
 40
0.635
 49
0.0
 74
     0
 49
-0.635
 74
     0
  0
ENDTAB
  0
TABLE
  2
LAYER
  5
2
330
0
100
AcDbSymbolTable
 70
     5
  0
LAYER
  5
10
330
2
100
AcDbSymbolTableRecord
100
AcDbLayerTableRecord
  2
0
 70
     0
 62
     7
  6
Continuous
370
    -3
390
F
  0
LAYER
  5
40
330
2
100
AcDbSymbolTableRecord
100
AcDbLayerTableRecord
  2
FORMAT
 70
     0
 62
     7
  6
Continuous
370
    -3
390
F
  0
LAYER
  5
41
330
2
100
AcDbSymbolTableRecord
100
AcDbLayerTableRecord
  2
VERMASSUNG
 70
     0
 62
     7
  6
Continuous
370
    -3
390
F
  0
LAYER
  5
42
330
2
100
AcDbSymbolTableRecord
100
AcDbLayerTableRecord
  2
KOPF_DÜNN
 70
     0
 62
     7
  6
Continuous
370
    -3
390
F
  0
LAYER
  5
43
330
2
100
AcDbSymbolTableRecord
100
AcDbLayerTableRecord
  2
KOPF_DICK
 70
     0
 62
     7
  6
Continuous
370
    15
390
F
  0
ENDTAB
  0
TABLE
  2
STYLE
  5
3
330
0
100
AcDbSymbolTable
 70
     3
  0
STYLE
  5
11
330
3
100
AcDbSymbolTableRecord
100
AcDbTextStyleTableRecord
  2
Standard
 70
     0
 40
0.0
 41
1.0
 50
0.0
 71
     0
 42
2.5
  3
txt
  4

  0
STYLE
  5
44
330
3
100
AcDbSymbolTableRecord
100
AcDbTextStyleTableRecord
  2
SLDTEXTSTYLE0
 70
     0
 40
0.0
 41
0.7
 50
0.0
 71
     0
 42
0.2
  3
TXT
  4

  0
STYLE
  5
48
330
3
100
AcDbSymbolTableRecord
100
AcDbTextStyleTableRecord
  2
SLDTEXTSTYLE1
 70
     0
 40
0.0
 41
0.6473684211
 50
0.0
 71
     0
 42
0.2
  3
TXT
  4

  0
ENDTAB
  0
TABLE
  2
VIEW
  5
6
330
0
100
AcDbSymbolTable
 70
     0
  0
ENDTAB
  0
TABLE
  2
UCS
  5
7
330
0
100
AcDbSymbolTable
 70
     0
  0
ENDTAB
  0
TABLE
  2
APPID
  5
9
330
0
100
AcDbSymbolTable
 70
     1
  0
APPID
  5
12
330
9
100
AcDbSymbolTableRecord
100
AcDbRegAppTableRecord
  2
ACAD
 70
     0
  0
ENDTAB
  0
TABLE
  2
DIMSTYLE
  5
A
330
0
100
AcDbSymbolTable
 70
     2
100
AcDbDimStyleTable
  0
DIMSTYLE
105
27
330
A
100
AcDbSymbolTableRecord
100
AcDbDimStyleTableRecord
  2
ISO-25
 70
     0
 41
2.5
 42
0.625
 43
3.75
 44
1.25
 73
     0
 74
     0
 77
     1
 78
     8
140
2.5
141
2.5
143
0.0393700787
147
0.625
171
     3
172
     1
271
     2
272
     2
274
     3
278
    44
283
     0
284
     8
340
11
  0
DIMSTYLE
105
219
102
{ACAD_REACTORS
330
218
330
224
330
230
330
23A
330
244
330
24E
330
258
330
263
102
}
330
A
100
AcDbSymbolTableRecord
100
AcDbDimStyleTableRecord
  2
SLDDIMSTYLE0
 70
     0
 41
3.0
 44
0.0
 45
0.000000001
 73
     0
 74
     0
 77
     1
 78
    12
140
2.0
147
0.5
173
     1
271
     2
272
     3
284
    12
340
44
  0
ENDTAB
  0
TABLE
  2
BLOCK_RECORD
  5
1
330
0
100
AcDbSymbolTable
 70
     9
  0
BLOCK_RECORD
  5
1F
330
1
100
AcDbSymbolTableRecord
100
AcDbBlockTableRecord
  2
*Model_Space
340
22
  0
BLOCK_RECORD
  5
1B
330
1
100
AcDbSymbolTableRecord
100
AcDbBlockTableRecord
  2
*Paper_Space
340
1E
  0
BLOCK_RECORD
  5
23
330
1
100
AcDbSymbolTableRecord
100
AcDbBlockTableRecord
  2
*Paper_Space0
340
26
  0
BLOCK_RECORD
  5
21A
330
1
100
AcDbSymbolTableRecord
100
AcDbBlockTableRecord
  2
*D1
340
0
  0
BLOCK_RECORD
  5
225
330
1
100
AcDbSymbolTableRecord
100
AcDbBlockTableRecord
  2
*D2
340
0
  0
BLOCK_RECORD
  5
231
330
1
100
AcDbSymbolTableRecord
100
AcDbBlockTableRecord
  2
*D3
340
0
  0
BLOCK_RECORD
  5
23B
330
1
100
AcDbSymbolTableRecord
100
AcDbBlockTableRecord
  2
*D4
340
0
  0
BLOCK_RECORD
  5
245
330
1
100
AcDbSymbolTableRecord
100
AcDbBlockTableRecord
  2
*D5
340
0
  0
BLOCK_RECORD
  5
24F
330
1
100
AcDbSymbolTableRecord
100
AcDbBlockTableRecord
  2
*D6
340
0
  0
BLOCK_RECORD
  5
259
330
1
100
AcDbSymbolTableRecord
100
AcDbBlockTableRecord
  2
*D7
340
0
  0
BLOCK_RECORD
  5
264
330
1
100
AcDbSymbolTableRecord
100
AcDbBlockTableRecord
  2
*D8
340
0
  0
ENDTAB
  0
ENDSEC
  0
SECTION
  2
BLOCKS
  0
BLOCK
  5
20
330
1F
100
AcDbEntity
  8
0
100
AcDbBlockBegin
  2
*Model_Space
 70
     0
 10
0.0
 20
0.0
 30
0.0
  3
*Model_Space
  1

  0
ENDBLK
  5
21
330
1F
100
AcDbEntity
  8
0
100
AcDbBlockEnd
  0
BLOCK
  5
1C
330
1B
100
AcDbEntity
 67
     1
  8
0
100
AcDbBlockBegin
  2
*Paper_Space
 70
     0
 10
0.0
 20
0.0
 30
0.0
  3
*Paper_Space
  1

  0
ENDBLK
  5
1D
330
1B
100
AcDbEntity
 67
     1
  8
0
100
AcDbBlockEnd
  0
BLOCK
  5
24
330
23
100
AcDbEntity
  8
0
100
AcDbBlockBegin
  2
*Paper_Space0
 70
     0
 10
0.0
 20
0.0
 30
0.0
  3
*Paper_Space0
  1

  0
ENDBLK
  5
25
330
23
100
AcDbEntity
  8
0
100
AcDbBlockEnd
  0
BLOCK
  5
21B
330
21A
100
AcDbEntity
  8
0
100
AcDbBlockBegin
  2
*D1
 70
     1
 10
0.0
 20
0.0
 30
0.0
  3
*D1
  1

  0
SOLID
  5
21D
330
21A
100
AcDbEntity
  8
VERMASSUNG
100
AcDbTrace
 10
251.5874558611
 20
134.2055919999
 30
0.0
 11
251.1374558611
 21
131.2055919999
 31
0.0
 12
252.0374558611
 22
131.2055919999
 32
0.0
 13
252.0374558611
 23
131.2055919999
 33
0.0
  0
SOLID
  5
21E
330
21A
100
AcDbEntity
  8
VERMASSUNG
100
AcDbTrace
 10
251.5874558611
 20
94.2055919999
 30
0.0
 11
252.0374558611
 21
97.2055919999
 31
0.0
 12
251.1374558611
 22
97.2055919999
 32
0.0
 13
251.1374558611
 23
97.2055919999
 33
0.0
  0
LINE
  5
21F
330
21A
100
AcDbEntity
  8
VERMASSUNG
100
AcDbLine
 10
229.6376442077
 20
134.2055919999
 30
0.0
 11
252.5874558611
 21
134.2055919999
 31
0.0
  0
LINE
  5
220
330
21A
100
AcDbEntity
  8
VERMASSUNG
100
AcDbLine
 10
229.6376442077
 20
94.2055919999
 30
0.0
 11
252.5874558611
 21
94.2055919999
 31
0.0
  0
LINE
  5
221
330
21A
100
AcDbEntity
  8
VERMASSUNG
100
AcDbLine
 10
251.5874558611
 20
134.2055919999
 30
0.0
 11
251.5874558611
 21
94.2055919999
 31
0.0
  0
MTEXT
  5
222
330
21A
100
AcDbEntity
  8
VERMASSUNG
100
AcDbMText
 10
249.009320498
 20
111.1036186643
 30
0.0
 40
2.0
 41
0.0
 71
     1
 72
     1
  1
ER
  7
SLDTEXTSTYLE0
 11
-7.044195017643634E-15
 21
1.0
 31
0.0
 73
     1
 44
1.0
  0
MTEXT
  5
223
330
21A
100
AcDbEntity
  8
VERMASSUNG
100
AcDbMText
 10
249.009320498
 20
114.1014371086
 30
0.0
 40
2.0
 41
0.0
 71
     1
 72
     1
  1
40
  7
SLDTEXTSTYLE0
 11
-7.044195017643634E-15
 21
1.0
 31
0.0
 73
     1
 44
1.0
  0
ENDBLK
  5
21C
330
21A
100
AcDbEntity
  8
0
100
AcDbBlockEnd
  0
BLOCK
  5
226
330
225
100
AcDbEntity
  8
0
100
AcDbBlockBegin
  2
*D2
 70
     1
 10
0.0
 20
0.0
 30
0.0
  3
*D2
  1

  0
SOLID
  5
228
330
225
100
AcDbEntity
  8
VERMASSUNG
100
AcDbTrace
 10
44.7338377795
 20
145.7055919999
 30
0.0
 11
44.2838377795
 21
142.7055919999
 31
0.0
 12
45.1838377795
 22
142.7055919999
 32
0.0
 13
45.1838377795
 23
142.7055919999
 33
0.0
  0
SOLID
  5
229
330
225
100
AcDbEntity
  8
VERMASSUNG
100
AcDbTrace
 10
44.7338377795
 20
82.7055919999
 30
0.0
 11
45.1838377795
 21
85.7055919999
 31
0.0
 12
44.2838377795
 22
85.7055919999
 32
0.0
 13
44.2838377795
 23
85.7055919999
 33
0.0
  0
LINE
  5
22A
330
225
100
AcDbEntity
  8
VERMASSUNG
100
AcDbLine
 10
84.9376442077
 20
145.7055919999
 30
0.0
 11
43.7338377795
 21
145.7055919999
 31
0.0
  0
LINE
  5
22B
330
225
100
AcDbEntity
  8
VERMASSUNG
100
AcDbLine
 10
84.9376442077
 20
82.7055919999
 30
0.0
 11
43.7338377795
 21
82.7055919999
 31
0.0
  0
LINE
  5
22C
330
225
100
AcDbEntity
  8
VERMASSUNG
100
AcDbLine
 10
44.7338377795
 20
145.7055919999
 30
0.0
 11
44.7338377795
 21
82.7055919999
 31
0.0
  0
MTEXT
  5
22D
330
225
100
AcDbEntity
  8
VERMASSUNG
100
AcDbMText
 10
41.9557022905
 20
106.39796686
 30
0.0
 40
2.0
 41
0.0
 71
     1
 72
     1
  1
HSK A 
  7
SLDTEXTSTYLE0
 11
-7.044195017643634E-15
 21
1.0
 31
0.0
 73
     1
 44
1.0
  0
MTEXT
  5
22E
330
225
100
AcDbEntity
  8
VERMASSUNG
100
AcDbMText
 10
42.1557023
 20
115.3979674039
 30
0.0
 40
2.0
 41
0.0
 71
     1
 72
     1
  1
%%c
  7
SLDTEXTSTYLE0
 11
-7.044195017643634E-15
 21
1.0
 31
0.0
 73
     1
 44
1.0
  0
MTEXT
  5
22F
330
225
100
AcDbEntity
  8
VERMASSUNG
100
AcDbMText
 10
42.1557024164
 20
119.0062956491
 30
0.0
 40
2.0
 41
0.0
 71
     1
 72
     1
  1
63
  7
SLDTEXTSTYLE0
 11
-7.044195017643634E-15
 21
1.0
 31
0.0
 73
     1
 44
1.0
  0
ENDBLK
  5
227
330
225
100
AcDbEntity
  8
0
100
AcDbBlockEnd
  0
BLOCK
  5
232
330
231
100
AcDbEntity
  8
0
100
AcDbBlockBegin
  2
*D3
 70
     1
 10
0.0
 20
0.0
 30
0.0
  3
*D3
  1

  0
SOLID
  5
234
330
231
100
AcDbEntity
  8
VERMASSUNG
100
AcDbTrace
 10
52.7376442077
 20
168.4345909737
 30
0.0
 11
55.7376442077
 21
167.9845909737
 31
0.0
 12
55.7376442077
 22
168.8845909737
 32
0.0
 13
55.7376442077
 23
168.8845909737
 33
0.0
  0
SOLID
  5
235
330
231
100
AcDbEntity
  8
VERMASSUNG
100
AcDbTrace
 10
244.6376442077
 20
168.4345909737
 30
0.0
 11
241.6376442077
 21
168.8845909737
 31
0.0
 12
241.6376442077
 22
167.9845909737
 32
0.0
 13
241.6376442077
 23
167.9845909737
 33
0.0
  0
LINE
  5
236
330
231
100
AcDbEntity
  8
VERMASSUNG
100
AcDbLine
 10
52.7376442077
 20
133.8962697463
 30
0.0
 11
52.7376442077
 21
169.4345909737
 31
0.0
  0
LINE
  5
237
330
231
100
AcDbEntity
  8
VERMASSUNG
100
AcDbLine
 10
244.6376442077
 20
138.2055919999
 30
0.0
 11
244.6376442077
 21
169.4345909737
 31
0.0
  0
LINE
  5
238
330
231
100
AcDbEntity
  8
VERMASSUNG
100
AcDbLine
 10
52.7376442077
 20
168.4345909737
 30
0.0
 11
244.6376442077
 21
168.4345909737
 31
0.0
  0
MTEXT
  5
239
330
231
100
AcDbEntity
  8
VERMASSUNG
100
AcDbMText
 10
145.9886358676
 20
171.0127263369
 30
0.0
 40
2.0
 41
0.0
 71
     1
 72
     1
  1
191.9
  7
SLDTEXTSTYLE0
 73
     1
 44
1.0
  0
ENDBLK
  5
233
330
231
100
AcDbEntity
  8
0
100
AcDbBlockEnd
  0
BLOCK
  5
23C
330
23B
100
AcDbEntity
  8
0
100
AcDbBlockBegin
  2
*D4
 70
     1
 10
0.0
 20
0.0
 30
0.0
  3
*D4
  1

  0
SOLID
  5
23E
330
23B
100
AcDbEntity
  8
VERMASSUNG
100
AcDbTrace
 10
84.6376442077
 20
162.4345909737
 30
0.0
 11
87.6376442077
 21
161.9845909737
 31
0.0
 12
87.6376442077
 22
162.8845909737
 32
0.0
 13
87.6376442077
 23
162.8845909737
 33
0.0
  0
SOLID
  5
23F
330
23B
100
AcDbEntity
  8
VERMASSUNG
100
AcDbTrace
 10
244.6376442077
 20
162.4345909737
 30
0.0
 11
241.6376442077
 21
162.8845909737
 31
0.0
 12
241.6376442077
 22
161.9845909737
 32
0.0
 13
241.6376442077
 23
161.9845909737
 33
0.0
  0
LINE
  5
240
330
23B
100
AcDbEntity
  8
VERMASSUNG
100
AcDbLine
 10
84.6376442077
 20
145.4055919999
 30
0.0
 11
84.6376442077
 21
163.4345909737
 31
0.0
  0
LINE
  5
241
330
23B
100
AcDbEntity
  8
VERMASSUNG
100
AcDbLine
 10
244.6376442077
 20
138.2055919999
 30
0.0
 11
244.6376442077
 21
163.4345909737
 31
0.0
  0
LINE
  5
242
330
23B
100
AcDbEntity
  8
VERMASSUNG
100
AcDbLine
 10
84.6376442077
 20
162.4345909737
 30
0.0
 11
244.6376442077
 21
162.4345909737
 31
0.0
  0
MTEXT
  5
243
330
23B
100
AcDbEntity
  8
VERMASSUNG
100
AcDbMText
 10
162.7378921627
 20
165.0127263369
 30
0.0
 40
2.0
 41
0.0
 71
     1
 72
     1
  1
160
  7
SLDTEXTSTYLE0
 73
     1
 44
1.0
  0
ENDBLK
  5
23D
330
23B
100
AcDbEntity
  8
0
100
AcDbBlockEnd
  0
BLOCK
  5
246
330
245
100
AcDbEntity
  8
0
100
AcDbBlockBegin
  2
*D5
 70
     1
 10
0.0
 20
0.0
 30
0.0
  3
*D5
  1

  0
SOLID
  5
248
330
245
100
AcDbEntity
  8
VERMASSUNG
100
AcDbTrace
 10
244.6376442077
 20
156.4345909737
 30
0.0
 11
241.6376442077
 21
156.8845909737
 31
0.0
 12
241.6376442077
 22
155.9845909737
 32
0.0
 13
241.6376442077
 23
155.9845909737
 33
0.0
  0
SOLID
  5
249
330
245
100
AcDbEntity
  8
VERMASSUNG
100
AcDbTrace
 10
110.5876442077
 20
156.4345909737
 30
0.0
 11
113.5876442077
 21
155.9845909737
 31
0.0
 12
113.5876442077
 22
156.8845909737
 32
0.0
 13
113.5876442077
 23
156.8845909737
 33
0.0
  0
LINE
  5
24A
330
245
100
AcDbEntity
  8
VERMASSUNG
100
AcDbLine
 10
244.6376442077
 20
138.2055919999
 30
0.0
 11
244.6376442077
 21
157.4345909737
 31
0.0
  0
LINE
  5
24B
330
245
100
AcDbEntity
  8
VERMASSUNG
100
AcDbLine
 10
110.5876442077
 20
144.0520323236
 30
0.0
 11
110.5876442077
 21
157.4345909737
 31
0.0
  0
LINE
  5
24C
330
245
100
AcDbEntity
  8
VERMASSUNG
100
AcDbLine
 10
244.6376442077
 20
156.4345909737
 30
0.0
 11
110.5876442077
 21
156.4345909737
 31
0.0
  0
MTEXT
  5
24D
330
245
100
AcDbEntity
  8
VERMASSUNG
100
AcDbMText
 10
173.9127434859
 20
159.0127263369
 30
0.0
 40
2.0
 41
0.0
 71
     1
 72
     1
  1
134.05
  7
SLDTEXTSTYLE0
 73
     1
 44
1.0
  0
ENDBLK
  5
247
330
245
100
AcDbEntity
  8
0
100
AcDbBlockEnd
  0
BLOCK
  5
250
330
24F
100
AcDbEntity
  8
0
100
AcDbBlockBegin
  2
*D6
 70
     1
 10
0.0
 20
0.0
 30
0.0
  3
*D6
  1

  0
SOLID
  5
252
330
24F
100
AcDbEntity
  8
VERMASSUNG
100
AcDbTrace
 10
191.6376442077
 20
150.4345909737
 30
0.0
 11
194.6376442077
 21
149.9845909737
 31
0.0
 12
194.6376442077
 22
150.8845909737
 32
0.0
 13
194.6376442077
 23
150.8845909737
 33
0.0
  0
SOLID
  5
253
330
24F
100
AcDbEntity
  8
VERMASSUNG
100
AcDbTrace
 10
244.6376442077
 20
150.4345909737
 30
0.0
 11
241.6376442077
 21
150.8845909737
 31
0.0
 12
241.6376442077
 22
149.9845909737
 32
0.0
 13
241.6376442077
 23
149.9845909737
 33
0.0
  0
LINE
  5
254
330
24F
100
AcDbEntity
  8
VERMASSUNG
100
AcDbLine
 10
191.6376442077
 20
129.4555919999
 30
0.0
 11
191.6376442077
 21
151.4345909737
 31
0.0
  0
LINE
  5
255
330
24F
100
AcDbEntity
  8
VERMASSUNG
100
AcDbLine
 10
244.6376442077
 20
138.2055919999
 30
0.0
 11
244.6376442077
 21
151.4345909737
 31
0.0
  0
LINE
  5
256
330
24F
100
AcDbEntity
  8
VERMASSUNG
100
AcDbLine
 10
191.6376442077
 20
150.4345909737
 30
0.0
 11
244.6376442077
 21
150.4345909737
 31
0.0
  0
MTEXT
  5
257
330
24F
100
AcDbEntity
  8
VERMASSUNG
100
AcDbMText
 10
216.7383383536
 20
153.0127263369
 30
0.0
 40
2.0
 41
0.0
 71
     1
 72
     1
  1
53
  7
SLDTEXTSTYLE0
 73
     1
 44
1.0
  0
ENDBLK
  5
251
330
24F
100
AcDbEntity
  8
0
100
AcDbBlockEnd
  0
BLOCK
  5
25A
330
259
100
AcDbEntity
  8
0
100
AcDbBlockBegin
  2
*D7
 70
     1
 10
0.0
 20
0.0
 30
0.0
  3
*D7
  1

  0
SOLID
  5
25C
330
259
100
AcDbEntity
  8
VERMASSUNG
100
AcDbTrace
 10
263.5874558611
 20
145.5555919999
 30
0.0
 11
263.1374558611
 21
142.5555919999
 31
0.0
 12
264.0374558611
 22
142.5555919999
 32
0.0
 13
264.0374558611
 23
142.5555919999
 33
0.0
  0
SOLID
  5
25D
330
259
100
AcDbEntity
  8
VERMASSUNG
100
AcDbTrace
 10
263.5874558611
 20
82.8555919999
 30
0.0
 11
264.0374558611
 21
85.8555919999
 31
0.0
 12
263.1374558611
 22
85.8555919999
 32
0.0
 13
263.1374558611
 23
85.8555919999
 33
0.0
  0
LINE
  5
25E
330
259
100
AcDbEntity
  8
VERMASSUNG
100
AcDbLine
 10
240.3941192074
 20
145.5555919999
 30
0.0
 11
264.5874558611
 21
145.5555919999
 31
0.0
  0
LINE
  5
25F
330
259
100
AcDbEntity
  8
VERMASSUNG
100
AcDbLine
 10
240.3941192074
 20
82.8555919999
 30
0.0
 11
264.5874558611
 21
82.8555919999
 31
0.0
  0
LINE
  5
260
330
259
100
AcDbEntity
  8
VERMASSUNG
100
AcDbLine
 10
263.5874558611
 20
145.5555919999
 30
0.0
 11
263.5874558611
 21
82.8555919999
 31
0.0
  0
MTEXT
  5
261
330
259
100
AcDbEntity
  8
VERMASSUNG
100
AcDbMText
 10
261.0093203816
 20
109.8986608456
 30
0.0
 40
2.0
 41
0.0
 71
     1
 72
     1
  1
%%c
  7
SLDTEXTSTYLE0
 11
-7.044195017643634E-15
 21
1.0
 31
0.0
 73
     1
 44
1.0
  0
MTEXT
  5
262
330
259
100
AcDbEntity
  8
VERMASSUNG
100
AcDbMText
 10
261.009320498
 20
113.5062462505
 30
0.0
 40
2.0
 41
0.0
 71
     1
 72
     1
  1
62.7
  7
SLDTEXTSTYLE0
 11
-7.044195017643634E-15
 21
1.0
 31
0.0
 73
     1
 44
1.0
  0
ENDBLK
  5
25B
330
259
100
AcDbEntity
  8
0
100
AcDbBlockEnd
  0
BLOCK
  5
265
330
264
100
AcDbEntity
  8
0
100
AcDbBlockBegin
  2
*D8
 70
     1
 10
0.0
 20
0.0
 30
0.0
  3
*D8
  1

  0
SOLID
  5
267
330
264
100
AcDbEntity
  8
VERMASSUNG
100
AcDbTrace
 10
257.5874558611
 20
140.2055919999
 30
0.0
 11
257.1374558611
 21
137.2055919999
 31
0.0
 12
258.0374558611
 22
137.2055919999
 32
0.0
 13
258.0374558611
 23
137.2055919999
 33
0.0
  0
SOLID
  5
268
330
264
100
AcDbEntity
  8
VERMASSUNG
100
AcDbTrace
 10
257.5874558611
 20
88.2055919999
 30
0.0
 11
258.0374558611
 21
91.2055919999
 31
0.0
 12
257.1374558611
 22
91.2055919999
 32
0.0
 13
257.1374558611
 23
91.2055919999
 33
0.0
  0
LINE
  5
269
330
264
100
AcDbEntity
  8
VERMASSUNG
100
AcDbLine
 10
155.5876442077
 20
140.2055919999
 30
0.0
 11
258.5874558611
 21
140.2055919999
 31
0.0
  0
LINE
  5
26A
330
264
100
AcDbEntity
  8
VERMASSUNG
100
AcDbLine
 10
155.5876442077
 20
88.2055919999
 30
0.0
 11
258.5874558611
 21
88.2055919999
 31
0.0
  0
LINE
  5
26B
330
264
100
AcDbEntity
  8
VERMASSUNG
100
AcDbLine
 10
257.5874558611
 20
140.2055919999
 30
0.0
 11
257.5874558611
 21
88.2055919999
 31
0.0
  0
MTEXT
  5
26C
330
264
100
AcDbEntity
  8
VERMASSUNG
100
AcDbMText
 10
255.0093203816
 20
110.8983385521
 30
0.0
 40
2.0
 41
0.0
 71
     1
 72
     1
  1
%%c
  7
SLDTEXTSTYLE0
 11
-7.044195017643634E-15
 21
1.0
 31
0.0
 73
     1
 44
1.0
  0
MTEXT
  5
26D
330
264
100
AcDbEntity
  8
VERMASSUNG
100
AcDbMText
 10
255.009320498
 20
114.505923957
 30
0.0
 40
2.0
 41
0.0
 71
     1
 72
     1
  1
52
  7
SLDTEXTSTYLE0
 11
-7.044195017643634E-15
 21
1.0
 31
0.0
 73
     1
 44
1.0
  0
ENDBLK
  5
266
330
264
100
AcDbEntity
  8
0
100
AcDbBlockEnd
  0
ENDSEC
  0
SECTION
  2
ENTITIES
  0
MTEXT
  5
45
330
1F
100
AcDbEntity
  8
KOPF_DÜNN
100
AcDbMText
 10
13.8892156294
 20
23.8442973028
 30
0.0
 40
3.0
 41
0.0
 71
     1
 72
     1
  1
HA6.E40.K01.160
  7
SLDTEXTSTYLE0
 73
     1
 44
1.0
  0
MTEXT
  5
46
330
1F
100
AcDbEntity
  8
VERMASSUNG
100
AcDbMText
 10
13.9329988022
 20
28.8834360957
 30
0.0
 40
3.0
 41
0.0
 71
     1
 72
     1
  1
Spannzangenfutter_Collet chuck ER40
  7
SLDTEXTSTYLE0
 73
     1
 44
1.0
  0
MTEXT
  5
47
330
1F
100
AcDbEntity
  8
VERMASSUNG
100
AcDbMText
 10
98.8601118557
 20
13.8365368179
 30
0.0
 40
2.0
 41
0.0
 71
     1
 72
     1
  1
Datum: 10.10.2006
  7
SLDTEXTSTYLE0
 73
     1
 44
1.0
  0
MTEXT
  5
49
330
1F
100
AcDbEntity
  8
VERMASSUNG
100
AcDbMText
 10
13.933048693
 20
18.0482802738
 30
0.0
 40
2.0
 41
0.0
 71
     1
 72
     1
  1
DIN 69 893 HSK A 63
  7
SLDTEXTSTYLE1
 73
     1
 44
1.0
  0
MTEXT
  5
4A
330
1F
100
AcDbEntity
  8
VERMASSUNG
100
AcDbMText
 10
13.9808475933
 20
13.9090973692
 30
0.0
 40
2.0
 41
0.0
 71
     1
 72
     1
  1
Gewicht: 2474g
  7
SLDTEXTSTYLE0
 73
     1
 44
1.0
  0
LINE
  5
4B
330
1F
100
AcDbEntity
  8
0
  6
Continuous
 62
     7
370
    15
100
AcDbLine
 10
219.9376397492
 20
145.5555936926
 30
0.0
 11
219.1376411082
 21
144.7555913263
 31
0.0
  0
LINE
  5
4C
330
1F
100
AcDbEntity
  8
0
  6
Continuous
 62
     7
370
    15
100
AcDbLine
 10
219.1376411082
 20
83.6555926734
 30
0.0
 11
219.9376397492
 21
82.8555903071
 31
0.0
  0
LINE
  5
4D
330
1F
100
AcDbEntity
  8
0
  6
Continuous
 62
     7
370
    15
100
AcDbLine
 10
219.9376397492
 20
82.8555903071
 30
0.0
 11
240.3941177489
 21
82.8555903071
 31
0.0
  0
LINE
  5
4E
330
1F
100
AcDbEntity
  8
0
  6
Continuous
 62
     7
370
    15
100
AcDbLine
 10
240.3941177489
 20
145.5555936926
 30
0.0
 11
219.9376397492
 21
145.5555936926
 31
0.0
  0
LINE
  5
4F
330
1F
100
AcDbEntity
  8
0
  6
Continuous
 62
     7
370
    15
100
AcDbLine
 10
240.3941177489
 20
82.8555903071
 30
0.0
 11
244.6376406314
 21
90.2055917912
 31
0.0
  0
LINE
  5
50
330
1F
100
AcDbEntity
  8
0
  6
Continuous
 62
     7
370
    15
100
AcDbLine
 10
244.6376406314
 20
138.2055922085
 30
0.0
 11
240.3941177489
 21
145.5555936926
 31
0.0
  0
LINE
  5
51
330
1F
100
AcDbEntity
  8
0
  6
Continuous
 62
     7
370
    15
100
AcDbLine
 10
84.9376442219
 20
82.7055914932
 30
0.0
 11
89.5876441808
 21
82.7055914932
 31
0.0
  0
LINE
  5
52
330
1F
100
AcDbEntity
  8
0
  6
Continuous
 62
     7
370
    15
100
AcDbLine
 10
89.6156327525
 20
145.7055925065
 30
0.0
 11
84.9376442219
 21
145.7055925065
 31
0.0
  0
ARC
  5
53
330
1F
100
AcDbEntity
  8
0
  6
Continuous
 62
     7
370
    15
100
AcDbCircle
 10
84.9376442077
 20
83.0055919999
 30
0.0
 40
0.2999999999999829
100
AcDbArc
 50
180.0
 51
270.0
  0
ARC
  5
54
330
1F
100
AcDbEntity
  8
0
  6
Continuous
 62
     7
370
    15
100
AcDbCircle
 10
84.9376442077
 20
145.4055919999
 30
0.0
 40
0.2999999999999829
100
AcDbArc
 50
90.0
 51
180.0
  0
ARC
  5
55
330
1F
100
AcDbEntity
  8
0
  6
Continuous
 62
     7
370
    15
100
AcDbCircle
 10
111.5876442077
 20
87.2055919999
 30
0.0
 40
1.0
100
AcDbArc
 50
90.0
 51
143.1139143113
  0
ARC
  5
56
330
1F
100
AcDbEntity
  8
0
  6
Continuous
 62
     7
370
    15
100
AcDbCircle
 10
111.5876442077
 20
141.2055919999
 30
0.0
 40
1.000000000000004
100
AcDbArc
 50
216.9133686049
 51
270.0
  0
ARC
  5
57
330
1F
100
AcDbEntity
  8
0
  6
Continuous
 62
     7
370
    15
100
AcDbCircle
 10
208.4932204733
 20
1539.2055919999
 30
0.0
 40
1400.0
100
AcDbArc
 50
267.834294165
 51
270.0
  0
ARC
  5
58
330
1F
100
AcDbEntity
  8
0
  6
Continuous
 62
     7
370
    15
100
AcDbCircle
 10
208.4932204733
 20
-1310.7944080001
 30
0.0
 40
1400.0
100
AcDbArc
 50
90.0
 51
92.165705835
  0
LINE
  5
59
330
1F
100
AcDbEntity
  8
0
  6
Continuous
 62
     7
370
    15
100
AcDbLine
 10
150.0544869067
 20
88.2055914634
 30
0.0
 11
155.5876456859
 21
88.2055914634
 31
0.0
  0
LINE
  5
5A
330
1F
100
AcDbEntity
  8
0
  6
Continuous
 62
     7
370
    15
100
AcDbLine
 10
111.5876440616
 20
88.2055914634
 30
0.0
 11
143.1309566559
 21
88.2055914634
 31
0.0
  0
LINE
  5
5B
330
1F
100
AcDbEntity
  8
0
  6
Continuous
 62
     7
370
    15
100
AcDbLine
 10
143.1161970558
 20
140.2055925363
 30
0.0
 11
111.5876440616
 21
140.2055925363
 31
0.0
  0
LINE
  5
5C
330
1F
100
AcDbEntity
  8
0
  6
Continuous
 62
     7
370
    15
100
AcDbLine
 10
155.5876456859
 20
140.2055925363
 30
0.0
 11
150.0436835648
 21
140.2055925363
 31
0.0
  0
LINE
  5
5D
330
1F
100
AcDbEntity
  8
0
  6
Continuous
 62
     7
370
    15
100
AcDbLine
 10
219.1376411082
 20
139.2055923724
 30
0.0
 11
208.4932201268
 21
139.2055923724
 31
0.0
  0
LINE
  5
5E
330
1F
100
AcDbEntity
  8
0
  6
Continuous
 62
     7
370
    15
100
AcDbLine
 10
208.4932201268
 20
89.2055916273
 30
0.0
 11
219.1376411082
 21
89.2055916273
 31
0.0
  0
ARC
  5
5F
330
1F
100
AcDbEntity
  8
0
  6
Continuous
 62
     7
370
    15
100
AcDbCircle
 10
84.137637455
 20
89.6401644055
 30
0.0
 40
0.6000067526677242
100
AcDbArc
 50
33.5571153394
 51
90.0
  0
ARC
  5
60
330
1F
100
AcDbEntity
  8
0
  6
Continuous
 62
     7
370
    15
100
AcDbCircle
 10
84.137637455
 20
138.7710195942
 30
0.0
 40
0.6000067526677164
100
AcDbArc
 50
270.0
 51
326.4428846606
  0
LINE
  5
61
330
1F
100
AcDbEntity
  8
0
  6
Continuous
 62
     7
370
    15
100
AcDbLine
 10
71.407218902
 20
137.8633758658
 30
0.0
 11
58.8376433315
 21
137.2336378926
 31
0.0
  0
LINE
  5
62
330
1F
100
AcDbEntity
  8
0
  6
Continuous
 62
     7
370
    15
100
AcDbLine
 10
82.6218919555
 20
138.4252334618
 30
0.0
 11
79.8190380173
 21
138.2848105067
 31
0.0
  0
LINE
  5
63
330
1F
100
AcDbEntity
  8
0
  6
Continuous
 62
     7
370
    15
100
AcDbLine
 10
79.819259672
 20
90.1263623172
 30
0.0
 11
82.6218919555
 21
89.9859505379
 31
0.0
  0
LINE
  5
64
330
1F
100
AcDbEntity
  8
0
  6
Continuous
 62
     7
370
    15
100
AcDbLine
 10
62.8376439871
 20
90.9771459782
 30
0.0
 11
71.4079183252
 21
90.5477727437
 31
0.0
  0
LINE
  5
65
330
1F
100
AcDbEntity
  8
0
  6
Continuous
 62
     7
370
    15
100
AcDbLine
 10
82.6218919555
 20
89.9859505379
 30
0.0
 11
83.4943570388
 21
90.2197274053
 31
0.0
  0
LINE
  5
66
330
1F
100
AcDbEntity
  8
0
  6
Continuous
 62
     7
370
    15
100
AcDbLine
 10
83.4943570388
 20
138.1914565944
 30
0.0
 11
82.6218919555
 21
138.4252334618
 31
0.0
  0
ARC
  5
67
330
1F
100
AcDbEntity
  8
0
  6
Continuous
 62
     7
370
    15
100
AcDbCircle
 10
83.6496484081
 20
89.6401711582
 30
0.0
 40
0.6000000000000085
100
AcDbArc
 50
90.0
 51
105.0
  0
ARC
  5
68
330
1F
100
AcDbEntity
  8
0
  6
Continuous
 62
     7
370
    15
100
AcDbCircle
 10
83.6496484081
 20
138.7710128415
 30
0.0
 40
0.5999999999999943
100
AcDbArc
 50
255.0
 51
270.0
  0
LINE
  5
69
330
1F
100
AcDbEntity
  8
0
  6
Continuous
 62
     7
370
    15
100
AcDbLine
 10
83.6496484425
 20
90.2401717984
 30
0.0
 11
84.1376374318
 21
90.2401717984
 31
0.0
  0
LINE
  5
6A
330
1F
100
AcDbEntity
  8
0
  6
Continuous
 62
     7
370
    15
100
AcDbLine
 10
84.1376374318
 20
138.1710122013
 30
0.0
 11
83.6496484425
 21
138.1710122013
 31
0.0
  0
LINE
  5
6B
330
1F
100
AcDbEntity
  8
0
  6
Continuous
 62
     7
370
    15
100
AcDbLine
 10
54.0209808113
 20
93.3355918759
 30
0.0
 11
61.4376445027
 21
93.3355918759
 31
0.0
  0
ARC
  5
6C
330
1F
100
AcDbEntity
  8
0
  6
Continuous
 62
     7
370
    15
100
AcDbCircle
 10
61.4376442077
 20
91.9355919999
 30
0.0
 40
1.400000000000006
100
AcDbArc
 50
42.2465410162
 51
90.0
  0
LINE
  5
6D
330
1F
100
AcDbEntity
  8
0
  6
Continuous
 62
     7
370
    15
100
AcDbLine
 10
52.7386762859
 20
94.4845589482
 30
0.0
 11
53.8788069697
 21
93.3444282645
 31
0.0
  0
LINE
  5
6E
330
1F
100
AcDbEntity
  8
0
  6
Continuous
 62
     7
370
    15
100
AcDbLine
 10
53.8788069697
 20
135.0667557352
 30
0.0
 11
52.7475462021
 21
133.935493105
 31
0.0
  0
ARC
  5
6F
330
1F
100
AcDbEntity
  8
0
  6
Continuous
 62
     7
370
    15
100
AcDbCircle
 10
57.4376442077
 20
136.4755919999
 30
0.0
 40
1.400000000000006
100
AcDbArc
 50
270.0
 51
301.7485287426
  0
LINE
  5
70
330
1F
100
AcDbEntity
  8
0
  6
Continuous
 62
     7
370
    15
100
AcDbLine
 10
57.437643847
 20
135.0755921238
 30
0.0
 11
54.0119097294
 21
135.0755921238
 31
0.0
  0
LINE
  5
71
330
1F
100
AcDbEntity
  8
0
  6
Continuous
 62
     7
370
    15
100
AcDbLine
 10
219.9376397492
 20
82.8555903071
 30
0.0
 11
219.9376397492
 21
145.5555936926
 31
0.0
  0
LINE
  5
72
330
1F
100
AcDbEntity
  8
0
  6
Continuous
 62
     7
370
    15
100
AcDbLine
 10
219.1376411082
 20
83.6555926734
 30
0.0
 11
219.1376411082
 21
144.7555913263
 31
0.0
  0
LINE
  5
73
330
1F
100
AcDbEntity
  8
0
  6
Continuous
 62
     7
370
    15
100
AcDbLine
 10
229.5079254271
 20
140.5117890471
 30
0.0
 11
240.3941177489
 21
140.5117890471
 31
0.0
  0
LINE
  5
74
330
1F
100
AcDbEntity
  8
0
  6
Continuous
 62
     7
370
    15
100
AcDbLine
 10
240.3941177489
 20
119.1737588168
 30
0.0
 11
240.3941177489
 21
140.5117890471
 31
0.0
  0
LINE
  5
75
330
1F
100
AcDbEntity
  8
0
  6
Continuous
 62
     7
370
    15
100
AcDbLine
 10
229.5079254271
 20
119.1737588168
 30
0.0
 11
240.3941177489
 21
119.1737588168
 31
0.0
  0
SPLINE
  5
76
330
1F
100
AcDbEntity
  8
0
  6
Continuous
 62
     7
370
    15
100
AcDbSpline
210
0.0
220
0.0
230
1.0
 70
     8
 71
     3
 72
    18
 73
    14
 74
     0
 42
0.00000001
 43
0.00000001
 40
0.0
 40
0.0
 40
0.0
 40
0.0
 40
0.0823389695929987
 40
0.1971281695234962
 40
0.3099452940307877
 40
0.4180295448072008
 40
0.5204026561902924
 40
0.5325622401096411
 40
0.6297979238885344
 40
0.7297588025077489
 40
0.8340299422932074
 40
0.9435584443620425
 40
1.0
 40
1.0
 40
1.0
 40
1.0
 10
229.5079254271389
 20
119.1737588168347
 30
0.0
 10
229.2166904428953
 20
119.1532671294099
 30
0.0
 10
228.5194432022641
 20
119.1042078704407
 30
0.0
 10
227.4954534700944
 20
118.6464932699205
 30
0.0
 10
226.616240702078
 20
117.8277353008325
 30
0.0
 10
226.0990030254423
 20
116.7876538217867
 30
0.0
 10
226.0155741901621
 20
115.9893378973169
 30
0.0
 10
226.0833129427577
 20
115.2457715424304
 30
0.0
 10
226.2890409927874
 20
114.520166302397
 30
0.0
 10
226.9029417098754
 20
113.6279259107221
 30
0.0
 10
227.8010883714204
 20
112.9520706091165
 30
0.0
 10
228.7223297634534
 20
112.6293156910836
 30
0.0
 10
229.3085642485833
 20
112.6002142121948
 30
0.0
 10
229.5079254271389
 20
112.5903176515589
 30
0.0
  0
LINE
  5
77
330
1F
100
AcDbEntity
  8
0
  6
Continuous
 62
     7
370
    15
100
AcDbLine
 10
229.5079254271
 20
112.5903176516
 30
0.0
 11
240.3941177489
 21
112.5903176516
 31
0.0
  0
LINE
  5
78
330
1F
100
AcDbEntity
  8
0
  6
Continuous
 62
     7
370
    15
100
AcDbLine
 10
240.3941177489
 20
89.8828698927
 30
0.0
 11
240.3941177489
 21
112.5903176516
 31
0.0
  0
LINE
  5
79
330
1F
100
AcDbEntity
  8
0
  6
Continuous
 62
     7
370
    15
100
AcDbLine
 10
229.5079254271
 20
89.8828698927
 30
0.0
 11
240.3941177489
 21
89.8828698927
 31
0.0
  0
SPLINE
  5
7A
330
1F
100
AcDbEntity
  8
0
  6
Continuous
 62
     7
370
    15
100
AcDbSpline
210
0.0
220
0.0
230
1.0
 70
     8
 71
     3
 72
    18
 73
    14
 74
     0
 42
0.00000001
 43
0.00000001
 40
0.0
 40
0.0
 40
0.0
 40
0.0
 40
0.0823389427091132
 40
0.1971280740159059
 40
0.3099451717237139
 40
0.4180294398359591
 40
0.5204025492195667
 40
0.5326711283190014
 40
0.6299065696541367
 40
0.7298707385429867
 40
0.8341475612799643
 40
0.9436807203905869
 40
1.0
 40
1.0
 40
1.0
 40
1.0
 10
229.5079254271389
 20
86.28412025507933
 30
0.0
 10
229.2166905136848
 20
86.2935354870382
 30
0.0
 10
228.5194435526907
 20
86.3160765408992
 30
0.0
 10
227.4954522314382
 20
86.52867477468672
 30
0.0
 10
226.6162441424136
 20
86.92413529937568
 30
0.0
 10
226.0989906301562
 20
87.45309066855417
 30
0.0
 10
226.0155609345852
 20
87.88276152046596
 30
0.0
 10
226.0834111335596
 20
88.29488595986659
 30
0.0
 10
226.2895677700263
 20
88.7082871662248
 30
0.0
 10
226.9037787319668
 20
89.23909670392129
 30
0.0
 10
227.8022092470005
 20
89.65516260705517
 30
0.0
 10
228.7231804548281
 20
89.8583064077664
 30
0.0
 10
229.3089969953386
 20
89.87664318756684
 30
0.0
 10
229.5079254271389
 20
89.88286989268309
 30
0.0
  0
LINE
  5
7B
330
1F
100
AcDbEntity
  8
0
  6
Continuous
 62
     7
370
    15
100
AcDbLine
 10
229.5079254271
 20
86.2841202551
 30
0.0
 11
240.3941177489
 21
86.2841202551
 31
0.0
  0
LINE
  5
7C
330
1F
100
AcDbEntity
  8
0
  6
Continuous
 62
     7
370
    15
100
AcDbLine
 10
240.3941177489
 20
82.8555903071
 30
0.0
 11
240.3941177489
 21
86.2841202551
 31
0.0
  0
LINE
  5
7D
330
1F
100
AcDbEntity
  8
0
  6
Continuous
 62
     7
370
    15
100
AcDbLine
 10
240.3941177489
 20
143.496482321
 30
0.0
 11
240.3941177489
 21
145.5555936926
 31
0.0
  0
LINE
  5
7E
330
1F
100
AcDbEntity
  8
0
  6
Continuous
 62
     7
370
    15
100
AcDbLine
 10
229.5079254271
 20
143.496482321
 30
0.0
 11
240.3941177489
 21
143.496482321
 31
0.0
  0
SPLINE
  5
7F
330
1F
100
AcDbEntity
  8
0
  6
Continuous
 62
     7
370
    15
100
AcDbSpline
210
0.0
220
0.0
230
1.0
 70
     8
 71
     3
 72
    18
 73
    14
 74
     0
 42
0.00000001
 43
0.00000001
 40
0.0
 40
0.0
 40
0.0
 40
0.0
 40
0.0823378905365317
 40
0.1971255851501727
 40
0.3099412449198669
 40
0.418024141360064
 40
0.5203958628429134
 40
0.5371614198808732
 40
0.6343760794741609
 40
0.7344799112683646
 40
0.8389929845470356
 40
0.9487444485855002
 40
1.0
 40
1.0
 40
1.0
 40
1.0
 10
229.5079254271389
 20
140.5117890470887
 30
0.0
 10
229.2166905204262
 20
140.5231034150241
 30
0.0
 10
228.5194434689436
 20
140.550191203955
 30
0.0
 10
227.4954518900359
 20
140.800308427111
 30
0.0
 10
226.6162459346647
 20
141.2305328554201
 30
0.0
 10
226.0989843722998
 20
141.7469479492794
 30
0.0
 10
226.0138910400752
 20
142.1243135301625
 30
0.0
 10
226.0890366645476
 20
142.461664147814
 30
0.0
 10
226.310767869847
 20
142.7763616403222
 30
0.0
 10
226.9386603338273
 20
143.1275952314739
 30
0.0
 10
227.8485061051709
 20
143.3759124049596
 30
0.0
 10
228.7583197755852
 20
143.4843511596091
 30
0.0
 10
229.3269163515358
 20
143.4935529803392
 30
0.0
 10
229.5079254271389
 20
143.4964823209906
 30
0.0
  0
LINE
  5
80
330
1F
100
AcDbEntity
  8
0
  6
Continuous
 62
     7
370
    15
100
AcDbLine
 10
240.3941177489
 20
86.2841202551
 30
0.0
 11
240.6633519294
 21
86.8738709622
 31
0.0
  0
LINE
  5
81
330
1F
100
AcDbEntity
  8
0
  6
Continuous
 62
     7
370
    15
100
AcDbLine
 10
240.6633519294
 20
86.8738709622
 30
0.0
 11
241.7148970725
 21
88.5553105408
 31
0.0
  0
LINE
  5
82
330
1F
100
AcDbEntity
  8
0
  6
Continuous
 62
     7
370
    15
100
AcDbLine
 10
241.7148970725
 20
88.5553105408
 30
0.0
 11
241.9019066455
 21
88.9704289519
 31
0.0
  0
SPLINE
  5
83
330
1F
100
AcDbEntity
  8
0
  6
Continuous
 62
     7
370
    15
100
AcDbSpline
210
0.0
220
0.0
230
1.0
 70
     8
 71
     3
 72
     9
 73
     5
 74
     0
 42
0.00000001
 43
0.00000001
 40
0.0
 40
0.0
 40
0.0
 40
0.0
 40
0.5000512537778279
 40
1.0
 40
1.0
 40
1.0
 40
1.0
 10
241.9019066454769
 20
88.97042895194537
 30
0.0
 10
241.9274340791648
 20
89.38038296948751
 30
0.0
 10
241.9784837135673
 20
90.20020696641784
 30
0.0
 10
241.9274305903968
 20
91.02002975788449
 30
0.0
 10
241.9019066454769
 20
91.4298991346026
 30
0.0
  0
LINE
  5
84
330
1F
100
AcDbEntity
  8
0
  6
Continuous
 62
     7
370
    15
100
AcDbLine
 10
241.7148970725
 20
91.3422858947
 30
0.0
 11
241.9019066455
 21
91.4298991346
 31
0.0
  0
LINE
  5
85
330
1F
100
AcDbEntity
  8
0
  6
Continuous
 62
     7
370
    15
100
AcDbLine
 10
240.6633519294
 20
90.0073374295
 30
0.0
 11
241.7148970725
 21
91.3422858947
 31
0.0
  0
LINE
  5
86
330
1F
100
AcDbEntity
  8
0
  6
Continuous
 62
     7
370
    15
100
AcDbLine
 10
240.3941177489
 20
89.8828698927
 30
0.0
 11
240.6633519294
 21
90.0073374295
 31
0.0
  0
LINE
  5
87
330
1F
100
AcDbEntity
  8
0
  6
Continuous
 62
     7
370
    15
100
AcDbLine
 10
240.3941177489
 20
112.5903176516
 30
0.0
 11
240.6633519294
 21
112.9929860261
 31
0.0
  0
LINE
  5
88
330
1F
100
AcDbEntity
  8
0
  6
Continuous
 62
     7
370
    15
100
AcDbLine
 10
240.6633519294
 20
112.9929860261
 30
0.0
 11
241.7148970725
 21
113.2131234416
 31
0.0
  0
LINE
  5
89
330
1F
100
AcDbEntity
  8
0
  6
Continuous
 62
     7
370
    15
100
AcDbLine
 10
241.7148970725
 20
113.2131234416
 30
0.0
 11
241.9019066455
 21
113.4965574391
 31
0.0
  0
SPLINE
  5
8A
330
1F
100
AcDbEntity
  8
0
  6
Continuous
 62
     7
370
    15
100
AcDbSpline
210
0.0
220
0.0
230
1.0
 70
     8
 71
     3
 72
     9
 73
     5
 74
     0
 42
0.00000001
 43
0.00000001
 40
0.0
 40
0.0
 40
0.0
 40
0.0
 40
0.1255454694547914
 40
1.0
 40
1.0
 40
1.0
 40
1.0
 10
241.9019066454769
 20
117.9958345973158
 30
0.0
 10
241.909902713368
 20
117.8076819641112
 30
0.0
 10
241.9735933262259
 20
116.3090007769548
 30
0.0
 10
241.9353493039886
 20
114.8085945030317
 30
0.0
 10
241.9019066454769
 20
113.4965574391412
 30
0.0
  0
LINE
  5
8B
330
1F
100
AcDbEntity
  8
0
  6
Continuous
 62
     7
370
    15
100
AcDbLine
 10
241.7148970725
 20
118.311532461
 30
0.0
 11
241.9019066455
 21
117.9958345973
 31
0.0
  0
LINE
  5
8C
330
1F
100
AcDbEntity
  8
0
  6
Continuous
 62
     7
370
    15
100
AcDbLine
 10
240.6633519294
 20
118.7252538883
 30
0.0
 11
241.7148970725
 21
118.311532461
 31
0.0
  0
LINE
  5
8D
330
1F
100
AcDbEntity
  8
0
  6
Continuous
 62
     7
370
    15
100
AcDbLine
 10
240.3941177489
 20
119.1737588168
 30
0.0
 11
240.6633519294
 21
118.7252538883
 31
0.0
  0
LINE
  5
8E
330
1F
100
AcDbEntity
  8
0
  6
Continuous
 62
     7
370
    15
100
AcDbLine
 10
240.3941177489
 20
140.5117890471
 30
0.0
 11
240.6633519294
 21
140.3247068309
 31
0.0
  0
LINE
  5
8F
330
1F
100
AcDbEntity
  8
0
  6
Continuous
 62
     7
370
    15
100
AcDbLine
 10
240.6633519294
 20
140.3247068309
 30
0.0
 11
241.7148970725
 21
138.863405832
 31
0.0
  0
LINE
  5
90
330
1F
100
AcDbEntity
  8
0
  6
Continuous
 62
     7
370
    15
100
AcDbLine
 10
241.7148970725
 20
138.863405832
 30
0.0
 11
241.9019066455
 21
138.7317186826
 31
0.0
  0
SPLINE
  5
91
330
1F
100
AcDbEntity
  8
0
  6
Continuous
 62
     7
370
    15
100
AcDbSpline
210
0.0
220
0.0
230
1.0
 70
     8
 71
     3
 72
     9
 73
     5
 74
     0
 42
0.00000001
 43
0.00000001
 40
0.0
 40
0.0
 40
0.0
 40
0.0
 40
0.5000511842784608
 40
1.0
 40
1.0
 40
1.0
 40
1.0
 10
241.9019066454769
 20
138.7317186826134
 30
0.0
 10
241.927434076799
 20
139.0717215656433
 30
0.0
 10
241.9784837135654
 20
139.7516577276194
 30
0.0
 10
241.9274305927616
 20
140.4315940856199
 30
0.0
 10
241.9019066454769
 20
140.7715274625683
 30
0.0
  0
LINE
  5
92
330
1F
100
AcDbEntity
  8
0
  6
Continuous
 62
     7
370
    15
100
AcDbLine
 10
241.7148970725
 20
141.1748385662
 30
0.0
 11
241.9019066455
 21
140.7715274626
 31
0.0
  0
LINE
  5
93
330
1F
100
AcDbEntity
  8
0
  6
Continuous
 62
     7
370
    15
100
AcDbLine
 10
240.6633519294
 20
142.9235084587
 30
0.0
 11
241.7148970725
 21
141.1748385662
 31
0.0
  0
LINE
  5
94
330
1F
100
AcDbEntity
  8
0
  6
Continuous
 62
     7
370
    15
100
AcDbLine
 10
240.3941177489
 20
143.496482321
 30
0.0
 11
240.6633519294
 21
142.9235084587
 31
0.0
  0
LINE
  5
95
330
1F
100
AcDbEntity
  8
0
  6
Continuous
 62
     7
370
    15
100
AcDbLine
 10
244.6376406314
 20
90.2055917912
 30
0.0
 11
244.6376406314
 21
138.2055922085
 31
0.0
  0
ARC
  5
96
330
1F
100
AcDbEntity
  8
0
  6
Continuous
 62
     7
370
    15
100
AcDbCircle
 10
229.5047678085
 20
115.8591199572
 30
0.0
 40
2.866135670466012
100
AcDbArc
 50
89.9368772876
 51
270.0631227124
  0
LINE
  5
97
330
1F
100
AcDbEntity
  8
0
  6
Continuous
 62
     7
370
    15
100
AcDbLine
 10
229.5079254271
 20
112.9929860261
 30
0.0
 11
240.6633519294
 21
112.9929860261
 31
0.0
  0
LINE
  5
98
330
1F
100
AcDbEntity
  8
0
  6
Continuous
 62
     7
370
    15
100
AcDbLine
 10
229.5079254271
 20
118.7252538883
 30
0.0
 11
240.6633519294
 21
118.7252538883
 31
0.0
  0
LINE
  5
99
330
1F
100
AcDbEntity
  8
0
  6
Continuous
 62
     7
370
    15
100
AcDbLine
 10
229.5079254271
 20
113.2131234416
 30
0.0
 11
241.7148970725
 21
113.2131234416
 31
0.0
  0
ARC
  5
9A
330
1F
100
AcDbEntity
  8
0
  6
Continuous
 62
     7
370
    15
100
AcDbCircle
 10
229.5052551896
 20
115.7623279513
 30
0.0
 40
2.549205908213484
100
AcDbArc
 50
89.9399839104
 51
270.0600160896
  0
LINE
  5
9B
330
1F
100
AcDbEntity
  8
0
  6
Continuous
 62
     7
370
    15
100
AcDbLine
 10
229.5079254271
 20
118.311532461
 30
0.0
 11
241.7148970725
 21
118.311532461
 31
0.0
  0
ARC
  5
9C
330
1F
100
AcDbEntity
  8
0
  6
Continuous
 62
     7
370
    15
100
AcDbCircle
 10
229.5055647523
 20
115.7461960182
 30
0.0
 40
2.249639817682787
100
AcDbArc
 50
89.9398762731
 51
270.0601237269
  0
LINE
  5
9D
330
1F
100
AcDbEntity
  8
0
  6
Continuous
 62
     7
370
    15
100
AcDbLine
 10
229.5079254271
 20
113.4965574391
 30
0.0
 11
241.9019066455
 21
113.4965574391
 31
0.0
  0
LINE
  5
9E
330
1F
100
AcDbEntity
  8
0
  6
Continuous
 62
     7
370
    15
100
AcDbLine
 10
229.5079254271
 20
117.9958345973
 30
0.0
 11
241.9019066455
 21
117.9958345973
 31
0.0
  0
LWPOLYLINE
  5
9F
330
1F
100
AcDbEntity
  8
0
  6
Continuous
 62
     7
370
    15
100
AcDbPolyline
 90
        9
 70
   128
 43
0.0
 10
229.5079254271
 20
86.8738709622
 10
228.6992841126
 20
86.9373350078
 10
227.9561334016
 20
87.1225843811
 10
227.3387186887
 20
87.4146117502
 10
226.8970333697
 20
87.7897596591
 10
226.6668551328
 20
88.2176353269
 10
226.6668551328
 20
88.6635730648
 10
226.8970333697
 20
89.0914487326
 10
227.3302846314
 20
89.4612620258
  0
ARC
  5
A0
330
1F
100
AcDbEntity
  8
0
  6
Continuous
 62
     7
370
    15
100
AcDbCircle
 10
229.2715153364
 20
91.601667041
 30
0.0
 40
3.055515939633478
100
AcDbArc
 50
227.0628087253
 51
274.4374998353
  0
ARC
  5
A1
330
1F
100
AcDbEntity
  8
0
  6
Continuous
 62
     7
370
    15
100
AcDbCircle
 10
229.3332354185
 20
91.8480727563
 30
0.0
 40
2.882941286967621
100
AcDbArc
 50
233.4716851894
 51
273.4739296907
  0
LINE
  5
A2
330
1F
100
AcDbEntity
  8
0
  6
Continuous
 62
     7
370
    15
100
AcDbLine
 10
229.5079254271
 20
88.9704289519
 30
0.0
 11
241.9019066455
 21
88.9704289519
 31
0.0
  0
LWPOLYLINE
  5
A3
330
1F
100
AcDbEntity
  8
0
  6
Continuous
 62
     7
370
    15
100
AcDbPolyline
 90
        8
 70
   128
 43
0.0
 10
226.8144958379
 20
141.1750453198
 10
226.6668551328
 20
141.4391833031
 10
226.6668551328
 20
141.8090319866
 10
226.8970333697
 20
142.1638975525
 10
227.3387186887
 20
142.4750337982
 10
227.9561334016
 20
142.7172335469
 10
228.6992841126
 20
142.8708738321
 10
229.5079254271
 20
142.9235084587
  0
ARC
  5
A4
330
1F
100
AcDbEntity
  8
0
  6
Continuous
 62
     7
370
    15
100
AcDbCircle
 10
229.390910978
 20
136.8436392971
 30
0.0
 40
4.332779649310893
100
AcDbArc
 50
88.4524370294
 51
113.840767737
  0
LWPOLYLINE
  5
A5
330
1F
100
AcDbEntity
  8
0
  6
Continuous
 62
     7
370
    15
100
AcDbPolyline
 90
        3
 70
   128
 43
0.0
 10
228.395732558
 20
140.6385774398
 10
228.8117431762
 20
140.7216104352
 10
229.5079254271
 20
140.7715274626
  0
LINE
  5
A6
330
1F
100
AcDbEntity
  8
0
  6
Continuous
 62
     7
370
    15
100
AcDbLine
 10
229.5079254271
 20
140.7715274626
 30
0.0
 11
241.9019066455
 21
140.7715274626
 31
0.0
  0
LINE
  5
A7
330
1F
100
AcDbEntity
  8
0
  6
Continuous
 62
     7
370
    15
100
AcDbLine
 10
229.5079254271
 20
86.8738709622
 30
0.0
 11
240.6633519294
 21
86.8738709622
 31
0.0
  0
LINE
  5
A8
330
1F
100
AcDbEntity
  8
0
  6
Continuous
 62
     7
370
    15
100
AcDbLine
 10
229.5079254271
 20
88.5553105408
 30
0.0
 11
241.7148970725
 21
88.5553105408
 31
0.0
  0
LINE
  5
A9
330
1F
100
AcDbEntity
  8
0
  6
Continuous
 62
     7
370
    15
100
AcDbLine
 10
229.5079254271
 20
141.1748385662
 30
0.0
 11
241.7148970725
 21
141.1748385662
 31
0.0
  0
LINE
  5
AA
330
1F
100
AcDbEntity
  8
0
  6
Continuous
 62
     7
370
    15
100
AcDbLine
 10
229.5079254271
 20
142.9235084587
 30
0.0
 11
240.6633519294
 21
142.9235084587
 31
0.0
  0
LINE
  5
AB
330
1F
100
AcDbEntity
  8
0
  6
Continuous
 62
     7
370
    15
100
AcDbLine
 10
100.7276442559
 20
86.7077546799
 30
0.0
 11
100.7276442559
 21
134.055592739
 31
0.0
  0
SPLINE
  5
AC
330
1F
100
AcDbEntity
  8
0
  6
Continuous
 62
     7
370
    15
100
AcDbSpline
210
0.0
220
0.0
230
1.0
 70
     8
 71
     3
 72
     8
 73
     4
 74
     0
 42
0.00000001
 43
0.00000001
 40
0.0
 40
0.0
 40
0.0
 40
0.0
 40
1.0
 40
1.0
 40
1.0
 40
1.0
 10
100.7276442076565
 20
86.70775484080023
 30
0.0
 10
100.2353050848753
 20
85.81048480659354
 30
0.0
 10
99.74119103683314
 20
84.9142003915413
 30
0.0
 10
99.2457113761674
 20
84.01867430360794
 30
0.0
  0
LINE
  5
AD
330
1F
100
AcDbEntity
  8
0
  6
Continuous
 62
     7
370
    15
100
AcDbLine
 10
99.245711668
 20
84.018674367
 30
0.0
 11
99.245711668
 21
134.055592739
 31
0.0
  0
SPLINE
  5
AE
330
1F
100
AcDbEntity
  8
0
  6
Continuous
 62
     7
370
    15
100
AcDbSpline
210
0.0
220
0.0
230
1.0
 70
    24
 71
     3
 72
     8
 73
     4
 74
     0
 42
0.00000001
 43
0.00000001
 40
0.0
 40
0.0
 40
0.0
 40
0.0
 40
1.0
 40
1.0
 40
1.0
 40
1.0
 10
99.24571137616738
 20
134.0555919998551
 30
0.0
 10
99.75239148431791
 20
134.0555919998551
 30
0.0
 10
100.2476922132915
 20
134.0555919998551
 30
0.0
 10
100.7276442076565
 20
134.0555919998551
 30
0.0
  0
LINE
  5
AF
330
1F
100
AcDbEntity
  8
0
  6
Continuous
 62
     7
370
    15
100
AcDbLine
 10
106.0295761289
 20
84.018674367
 30
0.0
 11
106.0295761289
 21
134.055592739
 31
0.0
  0
SPLINE
  5
B0
330
1F
100
AcDbEntity
  8
0
  6
Continuous
 62
     7
370
    15
100
AcDbSpline
210
0.0
220
0.0
230
1.0
 70
     8
 71
     3
 72
     8
 73
     4
 74
     0
 42
0.00000001
 43
0.00000001
 40
0.0
 40
0.0
 40
0.0
 40
0.0
 40
1.0
 40
1.0
 40
1.0
 40
1.0
 10
106.0295770391455
 20
84.01867430360794
 30
0.0
 10
105.5340973784798
 20
84.91420039154129
 30
0.0
 10
105.0399833304376
 20
85.81048480659354
 30
0.0
 10
104.5476442076565
 20
86.70775484080023
 30
0.0
  0
LINE
  5
B1
330
1F
100
AcDbEntity
  8
0
  6
Continuous
 62
     7
370
    15
100
AcDbLine
 10
104.5476444723
 20
86.7077546799
 30
0.0
 11
104.5476444723
 21
134.055592739
 31
0.0
  0
SPLINE
  5
B2
330
1F
100
AcDbEntity
  8
0
  6
Continuous
 62
     7
370
    15
100
AcDbSpline
210
0.0
220
0.0
230
1.0
 70
    24
 71
     3
 72
     8
 73
     4
 74
     0
 42
0.00000001
 43
0.00000001
 40
0.0
 40
0.0
 40
0.0
 40
0.0
 40
1.0
 40
1.0
 40
1.0
 40
1.0
 10
104.5476442076565
 20
134.0555919998551
 30
0.0
 10
105.0275962020213
 20
134.0555919998551
 30
0.0
 10
105.522896930995
 20
134.0555919998551
 30
0.0
 10
106.0295770391455
 20
134.0555919998551
 30
0.0
  0
LINE
  5
B3
330
1F
100
AcDbEntity
  8
0
  6
Continuous
 62
     7
370
    15
100
AcDbLine
 10
109.987644917
 20
84.018674367
 30
0.0
 11
106.0295761289
 21
84.018674367
 31
0.0
  0
LINE
  5
B4
330
1F
100
AcDbEntity
  8
0
  6
Continuous
 62
     7
370
    15
100
AcDbLine
 10
106.0295761289
 20
134.055592739
 30
0.0
 11
109.987644917
 21
134.055592739
 31
0.0
  0
LINE
  5
B5
330
1F
100
AcDbEntity
  8
0
  6
Continuous
 62
     7
370
    15
100
AcDbLine
 10
110.5876438977
 20
84.6453147614
 30
0.0
 11
110.5876438977
 21
134.055592739
 31
0.0
  0
SPLINE
  5
B6
330
1F
100
AcDbEntity
  8
0
  6
Continuous
 62
     7
370
    15
100
AcDbSpline
210
0.0
220
0.0
230
1.0
 70
     8
 71
     3
 72
    10
 73
     6
 74
     0
 42
0.00000001
 43
0.00000001
 40
0.0
 40
0.0
 40
0.0
 40
0.0
 40
0.5
 40
0.5
 40
1.0
 40
1.0
 40
1.0
 40
1.0
 10
110.5876442076565
 20
84.64531459926225
 30
0.0
 10
110.5876442076565
 20
84.48542733106859
 30
0.0
 10
110.5263345564206
 20
84.32430007555398
 30
0.0
 10
110.3072349188855
 20
84.09020107719915
 30
0.0
 10
110.1491867125721
 20
84.01867430360794
 30
0.0
 10
109.9876442076565
 20
84.01867430360794
 30
0.0
  0
SPLINE
  5
B7
330
1F
100
AcDbEntity
  8
0
  6
Continuous
 62
     7
370
    15
100
AcDbSpline
210
0.0
220
0.0
230
1.0
 70
    24
 71
     3
 72
    12
 73
     8
 74
     0
 42
0.00000001
 43
0.00000001
 40
0.0
 40
0.0
 40
0.0
 40
0.0
 40
0.2500000000000033
 40
0.2500000000000033
 40
0.5000000000000067
 40
0.5000000000000067
 40
1.0
 40
1.0
 40
1.0
 40
1.0
 10
109.9876442076564
 20
134.0555919998551
 30
0.0
 10
110.0778832753435
 20
134.0555919998551
 30
0.0
 10
110.16878138945
 20
134.0555919998551
 30
0.0
 10
110.3233784259385
 20
134.0555919998551
 30
0.0
 10
110.3883568420466
 20
134.0555919998551
 30
0.0
 10
110.5401918699829
 20
134.0555919998551
 30
0.0
 10
110.5876442076565
 20
134.0555919998551
 30
0.0
 10
110.5876442076565
 20
134.0555919998551
 30
0.0
  0
SPLINE
  5
B8
330
1F
100
AcDbEntity
  8
0
  6
Continuous
 62
     7
370
    15
100
AcDbSpline
210
0.0
220
0.0
230
1.0
 70
     8
 71
     3
 72
    70
 73
    66
 74
     0
 42
0.00000001
 43
0.00000001
 40
-0.03125
 40
-0.03125
 40
0.0
 40
0.0
 40
0.03125
 40
0.03125
 40
0.0625
 40
0.0625
 40
0.09375
 40
0.09375
 40
0.125
 40
0.125
 40
0.15625
 40
0.15625
 40
0.1875
 40
0.1875
 40
0.21875
 40
0.21875
 40
0.25
 40
0.25
 40
0.28125
 40
0.28125
 40
0.3125
 40
0.3125
 40
0.34375
 40
0.34375
 40
0.375
 40
0.375
 40
0.40625
 40
0.40625
 40
0.4375
 40
0.4375
 40
0.46875
 40
0.46875
 40
0.5
 40
0.5
 40
0.53125
 40
0.53125
 40
0.5625
 40
0.5625
 40
0.59375
 40
0.59375
 40
0.625
 40
0.625
 40
0.65625
 40
0.65625
 40
0.6875
 40
0.6875
 40
0.71875
 40
0.71875
 40
0.75
 40
0.75
 40
0.78125
 40
0.78125
 40
0.8125
 40
0.8125
 40
0.84375
 40
0.84375
 40
0.875
 40
0.875
 40
0.90625
 40
0.90625
 40
0.9375
 40
0.9375
 40
0.96875
 40
0.96875
 40
1.0
 40
1.0
 40
1.03125
 40
1.03125
 10
92.37309886899631
 20
124.8264988858384
 30
0.0
 10
92.9021895463166
 20
124.8264988858384
 30
0.0
 10
93.16226021369371
 20
124.8511761806236
 30
0.0
 10
93.67383489352912
 20
124.9476478536655
 30
0.0
 10
93.92801017726931
 20
125.0206287696456
 30
0.0
 10
94.41228080733103
 20
125.2103693725842
 30
0.0
 10
94.64192189921218
 20
125.326230030978
 30
0.0
 10
95.07652624744567
 20
125.5988478769357
 30
0.0
 10
95.2820920240923
 20
125.7568869589894
 30
0.0
 10
95.65064916468752
 20
126.1004298099601
 30
0.0
 10
95.81613014742302
 20
126.2871922540618
 30
0.0
 10
96.1085546568581
 20
126.6907354284586
 30
0.0
 10
96.2326556334846
 20
126.9042324248877
 30
0.0
 10
96.43223483023434
 20
127.3436157388102
 30
0.0
 10
96.50916841609259
 20
127.5727557259559
 30
0.0
 10
96.61202547461296
 20
128.0387298487159
 30
0.0
 10
96.6374983840721
 20
128.271612294392
 30
0.0
 10
96.63778879463986
 20
128.7370098294718
 30
0.0
 10
96.61176416086411
 20
128.9718855868662
 30
0.0
 10
96.50961587637212
 20
129.4233787341124
 30
0.0
 10
96.43403942878896
 20
129.6414252095238
 30
0.0
 10
96.23354189764403
 20
130.0625197345616
 30
0.0
 10
96.10841305613566
 20
130.2644411190799
 30
0.0
 10
95.81905425511407
 20
130.6364706015989
 30
0.0
 10
95.6536432680586
 20
130.8090989051792
 30
0.0
 10
95.28065270991078
 20
131.1264169097252
 30
0.0
 10
95.07891967682167
 20
131.2662038432268
 30
0.0
 10
94.6460604259938
 20
131.5103800967787
 30
0.0
 10
94.41214189310443
 20
131.6156096078201
 30
0.0
 10
93.9279581579618
 20
131.7837667541953
 30
0.0
 10
93.67864253200631
 20
131.8470176447892
 30
0.0
 10
93.16561000757858
 20
131.9325968538917
 30
0.0
 10
92.90031618467393
 20
131.9544690188141
 30
0.0
 10
92.3779815648042
 20
131.9546326684581
 30
0.0
 10
92.11822790232245
 20
131.9336309763621
 30
0.0
 10
91.60161608667721
 20
131.8482286212844
 30
0.0
 10
91.34925004617695
 20
131.7842224379975
 30
0.0
 10
90.86772492464411
 20
131.6174079179563
 30
0.0
 10
90.63487419253055
 20
131.5132747545572
 30
0.0
 10
90.19778434409179
 20
131.2672881020622
 30
0.0
 10
89.9964633554346
 20
131.1275382711133
 30
0.0
 10
89.6273773301347
 20
130.8144002013887
 30
0.0
 10
89.458392579083
 20
130.6389440421186
 30
0.0
 10
89.1679365224238
 20
130.2661037780184
 30
0.0
 10
89.04486471106166
 20
130.0679819679075
 30
0.0
 10
88.84352846963965
 20
129.6472706251738
 30
0.0
 10
88.76631592369742
 20
129.4252806045063
 30
0.0
 10
88.66411238079735
 20
128.9754156647979
 30
0.0
 10
88.63788402934503
 20
128.7451602516811
 30
0.0
 10
88.63740763002792
 20
128.2738443091321
 30
0.0
 10
88.6631500425259
 20
128.040606893418
 30
0.0
 10
88.76446081888975
 20
127.5789303539199
 30
0.0
 10
88.8412934582807
 20
127.3480329668078
 30
0.0
 10
89.04169729749587
 20
126.9057569530161
 30
0.0
 10
89.16436879578794
 20
126.6946945217302
 30
0.0
 10
89.45431608495217
 20
126.2931960109975
 30
0.0
 10
89.6228870643174
 20
126.1022894889216
 30
0.0
 10
89.99115665843055
 20
125.7585641569245
 30
0.0
 10
90.19221851570086
 20
125.6034269707104
 30
0.0
 10
90.6292494342858
 20
125.3283496106307
 30
0.0
 10
90.86139764741542
 20
125.2112333812087
 30
0.0
 10
91.34240792891427
 20
125.0223068961442
 30
0.0
 10
91.59450801174468
 20
124.9492319257499
 30
0.0
 10
92.1115774980037
 20
124.8511798666153
 30
0.0
 10
92.37309886899631
 20
124.8264988858384
 30
0.0
 10
92.9021895463166
 20
124.8264988858384
 30
0.0
  0
LINE
  5
B9
330
1F
100
AcDbEntity
  8
0
  6
Continuous
 62
     7
370
    15
100
AcDbLine
 10
89.5876441808
 20
134.055592739
 30
0.0
 11
99.245711668
 21
134.055592739
 31
0.0
  0
LINE
  5
BA
330
1F
100
AcDbEntity
  8
0
  6
Continuous
 62
     7
370
    15
100
AcDbLine
 10
99.245711668
 20
84.018674367
 30
0.0
 11
97.5876445608
 21
84.018674367
 31
0.0
  0
SPLINE
  5
BB
330
1F
100
AcDbEntity
  8
0
  6
Continuous
 62
     7
370
    15
100
AcDbSpline
210
0.0
220
0.0
230
1.0
 70
     8
 71
     3
 72
    28
 73
    24
 74
     0
 42
0.00000001
 43
0.00000001
 40
0.0
 40
0.0
 40
0.0
 40
0.0
 40
0.1250000000000001
 40
0.1250000000000001
 40
0.1875000000000001
 40
0.1875000000000001
 40
0.2500000000000001
 40
0.2500000000000001
 40
0.3749999999999999
 40
0.3749999999999999
 40
0.4375
 40
0.4375
 40
0.4999999999999999
 40
0.4999999999999999
 40
0.6249999999999999
 40
0.6249999999999999
 40
0.7499999999999997
 40
0.7499999999999997
 40
0.8124999999999998
 40
0.8124999999999998
 40
0.8749999999999998
 40
0.8749999999999998
 40
1.0
 40
1.0
 40
1.0
 40
1.0
 10
97.58764420765645
 20
84.01867430360794
 30
0.0
 10
97.05593645016353
 20
84.01867430360794
 30
0.0
 10
96.5336978848532
 20
84.00288958965773
 30
0.0
 10
95.7638273985782
 20
83.95789417558153
 30
0.0
 10
95.50946782638687
 20
83.93933918050578
 30
0.0
 10
95.00534624568834
 20
83.89548645805928
 30
0.0
 10
94.75562342826042
 20
83.87014185110708
 30
0.0
 10
94.030033476814
 20
83.78673977335698
 30
0.0
 10
93.57167321523247
 20
83.7208742142059
 30
0.0
 10
92.92117527183859
 20
83.6119038737141
 30
0.0
 10
92.70949322104613
 20
83.57366423794745
 30
0.0
 10
92.30542173190813
 20
83.4959055005281
 30
0.0
 10
92.11291521808727
 20
83.45640453835273
 30
0.0
 10
91.56308024706598
 20
83.33749679598675
 30
0.0
 10
91.23315146875719
 20
83.25767911456214
 30
0.0
 10
90.64868020018848
 20
83.10433595276608
 30
0.0
 10
90.40240306217507
 20
83.03300219949683
 30
0.0
 10
90.102560269477
 20
82.9390586924222
 30
0.0
 10
90.01410341240481
 20
82.90986489906227
 30
0.0
 10
89.86074205909968
 20
82.85639832479885
 30
0.0
 10
89.79565384487344
 20
82.83203899052367
 30
0.0
 10
89.64005982893265
 20
82.76844884507895
 30
0.0
 10
89.58764420765647
 20
82.73834590998969
 30
0.0
 10
89.58764420765645
 20
82.72146901699276
 30
0.0
  0
LINE
  5
BC
330
1F
100
AcDbEntity
  8
0
  6
Continuous
 62
     7
370
    15
100
AcDbLine
 10
89.5876441808
 20
82.7214686805
 30
0.0
 11
89.5876441808
 21
82.7055914932
 31
0.0
  0
SPLINE
  5
BD
330
1F
100
AcDbEntity
  8
0
  6
Continuous
 62
     7
370
    15
100
AcDbSpline
210
0.0
220
0.0
230
1.0
 70
     8
 71
     3
 72
    17
 73
    13
 74
     0
 42
0.00000001
 43
0.00000001
 40
0.0
 40
0.0
 40
0.0
 40
0.0
 40
0.1034797280380778
 40
0.2100239090909901
 40
0.3134862262879433
 40
0.4198361712144981
 40
0.5254127947779869
 40
0.6339610881168427
 40
0.7409508662120068
 40
0.8511696072047016
 40
0.9558996557845765
 40
1.0
 40
1.0
 40
1.0
 40
1.0
 10
97.58764456081398
 20
144.6727874362136
 30
0.0
 10
97.15239606908807
 20
144.6782354278512
 30
0.0
 10
96.26900961851106
 20
144.6892927481798
 30
0.0
 10
94.98818175628831
 20
144.7756515085548
 30
0.0
 10
93.77076556084637
 20
144.9035226516879
 30
0.0
 10
92.66295894452058
 20
145.0624670590064
 30
0.0
 10
91.67472046519174
 20
145.2369616319909
 30
0.0
 10
90.84999736537591
 20
145.4061280651778
 30
0.0
 10
90.20104370787729
 20
145.5540088736455
 30
0.0
 10
89.78400840439765
 20
145.6557996251681
 30
0.0
 10
89.58541166151967
 20
145.7061565248026
 30
0.0
 10
89.6087247785076
 20
145.7002469198271
 30
0.0
 10
89.615632752508
 20
145.698495828476
 30
0.0
  0
LINE
  5
BE
330
1F
100
AcDbEntity
  8
0
  6
Continuous
 62
     7
370
    15
100
AcDbLine
 10
99.245711668
 20
144.6727874362
 30
0.0
 11
97.5876445608
 21
144.6727874362
 31
0.0
  0
LINE
  5
BF
330
1F
100
AcDbEntity
  8
0
  6
Continuous
 62
     7
370
    15
100
AcDbLine
 10
99.245711668
 20
138.664281615
 30
0.0
 11
99.245711668
 21
144.6727874362
 31
0.0
  0
LINE
  5
C0
330
1F
100
AcDbEntity
  8
0
  6
Continuous
 62
     7
370
    15
100
AcDbLine
 10
96.8332648935
 20
138.664281615
 30
0.0
 11
99.245711668
 21
138.664281615
 31
0.0
  0
SPLINE
  5
C1
330
1F
100
AcDbEntity
  8
0
  6
Continuous
 62
     7
370
    15
100
AcDbSpline
210
0.0
220
0.0
230
1.0
 70
     8
 71
     3
 72
    20
 73
    16
 74
     0
 42
0.00000001
 43
0.00000001
 40
0.0
 40
0.0
 40
0.0
 40
0.0
 40
0.2500000000000003
 40
0.2500000000000003
 40
0.3750000000000001
 40
0.3750000000000001
 40
0.4999999999999999
 40
0.4999999999999999
 40
0.6249999999999999
 40
0.6249999999999999
 40
0.7499999999999999
 40
0.7499999999999999
 40
0.875
 40
0.875
 40
1.0
 40
1.0
 40
1.0
 40
1.0
 10
89.58764420765645
 20
134.0555919998551
 30
0.0
 10
89.83601794194452
 20
134.7094544281525
 30
0.0
 10
90.15558803428978
 20
135.3132402101496
 30
0.0
 10
90.77789426749447
 20
136.1400789463183
 30
0.0
 10
91.00931852792522
 20
136.4025075842712
 30
0.0
 10
91.53053286757492
 20
136.8991702383761
 30
0.0
 10
91.81715335021
 20
137.1297571173977
 30
0.0
 10
92.43663809151761
 20
137.5463113419803
 30
0.0
 10
92.7709384710046
 20
137.7338091439478
 30
0.0
 10
93.49619894362937
 20
138.0652061215842
 30
0.0
 10
93.87811400101984
 20
138.2047101090795
 30
0.0
 10
94.67290217719153
 20
138.4301636165504
 30
0.0
 10
95.08706037139791
 20
138.5167897280941
 30
0.0
 10
95.9526067119793
 20
138.6347705169482
 30
0.0
 10
96.39049432699112
 20
138.6642816622225
 30
0.0
 10
96.83326455334573
 20
138.6642816622225
 30
0.0
  0
SPLINE
  5
C2
330
1F
100
AcDbEntity
  8
0
  6
Continuous
 62
     7
370
    15
100
AcDbSpline
210
0.0
220
0.0
230
1.0
 70
     8
 71
     3
 72
    70
 73
    66
 74
     0
 42
0.00000001
 43
0.00000001
 40
-0.03125
 40
-0.03125
 40
0.0
 40
0.0
 40
0.0312499999999999
 40
0.0312499999999999
 40
0.0624999999999999
 40
0.0624999999999999
 40
0.0937499999999998
 40
0.0937499999999998
 40
0.1249999999999997
 40
0.1249999999999997
 40
0.1562499999999997
 40
0.1562499999999997
 40
0.1874999999999996
 40
0.1874999999999996
 40
0.2187499999999995
 40
0.2187499999999995
 40
0.2499999999999994
 40
0.2499999999999994
 40
0.2812499999999996
 40
0.2812499999999996
 40
0.3124999999999996
 40
0.3124999999999996
 40
0.3437499999999997
 40
0.3437499999999997
 40
0.3749999999999998
 40
0.3749999999999998
 40
0.4062499999999999
 40
0.4062499999999999
 40
0.4375
 40
0.4375
 40
0.4687500000000001
 40
0.4687500000000001
 40
0.5000000000000002
 40
0.5000000000000002
 40
0.5312500000000001
 40
0.5312500000000001
 40
0.5625000000000001
 40
0.5625000000000001
 40
0.59375
 40
0.59375
 40
0.6249999999999999
 40
0.6249999999999999
 40
0.6562499999999999
 40
0.6562499999999999
 40
0.6874999999999998
 40
0.6874999999999998
 40
0.7187499999999998
 40
0.7187499999999998
 40
0.7499999999999997
 40
0.7499999999999997
 40
0.7812499999999997
 40
0.7812499999999997
 40
0.8124999999999998
 40
0.8124999999999998
 40
0.8437499999999998
 40
0.8437499999999998
 40
0.8749999999999998
 40
0.8749999999999998
 40
0.9062499999999999
 40
0.9062499999999999
 40
0.9374999999999999
 40
0.9374999999999999
 40
0.96875
 40
0.96875
 40
1.0
 40
1.0
 40
1.03125
 40
1.03125
 10
92.37309886899631
 20
139.2645553946343
 30
0.0
 10
92.9021895463166
 20
139.2645553946343
 30
0.0
 10
93.1622602136937
 20
139.2804558350491
 30
0.0
 10
93.67383489352912
 20
139.3424001852233
 30
0.0
 10
93.92801017726931
 20
139.3892024193146
 30
0.0
 10
94.41228080733103
 20
139.5101794027697
 30
0.0
 10
94.64192189921218
 20
139.5837817305765
 30
0.0
 10
95.07652624744568
 20
139.7556060015547
 30
0.0
 10
95.28209202409228
 20
139.8546094244821
 30
0.0
 10
95.65064916468752
 20
140.0677058383949
 30
0.0
 10
95.81613014742302
 20
140.1826055545246
 30
0.0
 10
96.1085546568581
 20
140.4279724532149
 30
0.0
 10
96.2326556334846
 20
140.5564123536851
 30
0.0
 10
96.43223483023434
 20
140.8173045017711
 30
0.0
 10
96.50916841609258
 20
140.9516856731105
 30
0.0
 10
96.61202547461296
 20
141.2210056242168
 30
0.0
 10
96.6374983840721
 20
141.353686888435
 30
0.0
 10
96.63778879463986
 20
141.614873362566
 30
0.0
 10
96.61176416086411
 20
141.7446384007308
 30
0.0
 10
96.50961587637214
 20
141.9902210350034
 30
0.0
 10
96.43403942878896
 20
142.1068825723123
 30
0.0
 10
96.23354189764403
 20
142.3287877624668
 30
0.0
 10
96.10841305613566
 20
142.4333990163898
 30
0.0
 10
95.81905425511407
 20
142.6234454279979
 30
0.0
 10
95.65364326805859
 20
142.7102050994476
 30
0.0
 10
95.28065270991078
 20
142.8677094751991
 30
0.0
 10
95.07891967682168
 20
142.9360347399864
 30
0.0
 10
94.6460604259938
 20
143.0542644636056
 30
0.0
 10
94.41214189310443
 20
143.1045593797094
 30
0.0
 10
93.92795815796181
 20
143.1844249165991
 30
0.0
 10
93.67864253200631
 20
143.2141660443987
 30
0.0
 10
93.1656100075786
 20
143.2543187859068
 30
0.0
 10
92.90031618467395
 20
143.2645170553167
 30
0.0
 10
92.3779815648042
 20
143.2645935137014
 30
0.0
 10
92.11822790232246
 20
143.2548025020924
 30
0.0
 10
91.60161608667721
 20
143.2147356633536
 30
0.0
 10
91.34925004617695
 20
143.1846384964968
 30
0.0
 10
90.86772492464412
 20
143.1054162866666
 30
0.0
 10
90.63487419253055
 20
143.0556588072033
 30
0.0
 10
90.19778434409179
 20
142.9365668647529
 30
0.0
 10
89.99646335543461
 20
142.8682516032056
 30
0.0
 10
89.6273773301347
 20
142.712850636272
 30
0.0
 10
89.45839257908301
 20
142.6246982942051
 30
0.0
 10
89.1679365224238
 20
142.4342589050888
 30
0.0
 10
89.04486471106166
 20
142.3316343273897
 30
0.0
 10
88.84352846963966
 20
142.1099939807816
 30
0.0
 10
88.76631592369742
 20
141.9912399052341
 30
0.0
 10
88.66411238079735
 20
141.7465739663164
 30
0.0
 10
88.63788402934503
 20
141.6194172408678
 30
0.0
 10
88.63740763002792
 20
141.3549690950123
 30
0.0
 10
88.6631500425259
 20
141.2220684147551
 30
0.0
 10
88.76446081888975
 20
140.9552761412731
 30
0.0
 10
88.8412934582807
 20
140.8199122398045
 30
0.0
 10
89.04169729749587
 20
140.557332444502
 30
0.0
 10
89.16436879578794
 20
140.4303572847482
 30
0.0
 10
89.45431608495217
 20
140.1862778986658
 30
0.0
 10
89.6228870643174
 20
140.0688527739119
 30
0.0
 10
89.99115665843055
 20
139.8556563129635
 30
0.0
 10
90.19221851570086
 20
139.7584821945386
 30
0.0
 10
90.6292494342858
 20
139.5851273073245
 30
0.0
 10
90.86139764741542
 20
139.5107277556677
 30
0.0
 10
91.34240792891426
 20
139.3902748761631
 30
0.0
 10
91.5945080117447
 20
139.3434165008971
 30
0.0
 10
92.1115774980037
 20
139.2804590039134
 30
0.0
 10
92.37309886899631
 20
139.2645553946343
 30
0.0
 10
92.9021895463166
 20
139.2645553946343
 30
0.0
  0
LINE
  5
C3
330
1F
100
AcDbEntity
  8
0
  6
Continuous
 62
     7
370
    15
100
AcDbLine
 10
84.6376442077
 20
83.0055928462
 30
0.0
 11
84.6376442077
 21
145.4055911535
 31
0.0
  0
ARC
  5
C4
330
1F
100
AcDbEntity
  8
0
  6
Continuous
 62
     7
370
    15
100
AcDbCircle
 10
92.6349204283
 20
126.1128109762
 30
0.0
 40
4.113519740334448
100
AcDbArc
 50
19.620683281
 51
159.096392124
  0
SPLINE
  5
C5
330
1F
100
AcDbEntity
  8
0
  6
Continuous
 62
     7
370
    15
100
AcDbSpline
210
0.0
220
0.0
230
1.0
 70
    24
 71
     3
 72
    14
 73
    10
 74
     0
 42
0.00000001
 43
0.00000001
 40
0.0
 40
0.0
 40
0.0
 40
0.0
 40
0.4999999999999954
 40
0.4999999999999954
 40
0.7499999999999947
 40
0.7499999999999947
 40
0.8749999999999973
 40
0.8749999999999973
 40
1.0
 40
1.0
 40
1.0
 40
1.0
 10
104.4499694053242
 20
87.80559199985511
 30
0.0
 10
104.4027592460944
 20
87.80559199985511
 30
0.0
 10
104.3395247725507
 20
87.80559199985511
 30
0.0
 10
104.1957128418228
 20
87.80559199985511
 30
0.0
 10
104.1403877673464
 20
87.8055919998551
 30
0.0
 10
104.0284765941114
 20
87.80559199985511
 30
0.0
 10
103.9856895076704
 20
87.8055919998551
 30
0.0
 10
103.8813241746368
 20
87.8055919998551
 30
0.0
 10
103.8171003803351
 20
87.8055919998551
 30
0.0
 10
103.7476442077119
 20
87.80559199985511
 30
0.0
  0
SPLINE
  5
C6
330
1F
100
AcDbEntity
  8
0
  6
Continuous
 62
     7
370
    15
100
AcDbSpline
210
0.0
220
0.0
230
1.0
 70
    24
 71
     3
 72
    12
 73
     8
 74
     0
 42
0.00000001
 43
0.00000001
 40
0.0
 40
0.0
 40
0.0
 40
0.0
 40
0.5000000000000074
 40
0.5000000000000074
 40
0.7500000000000037
 40
0.7500000000000037
 40
1.0
 40
1.0
 40
1.0
 40
1.0
 10
104.1533466759657
 20
140.6055919998551
 30
0.0
 10
104.1099084881627
 20
140.6055919998551
 30
0.0
 10
104.0607142398647
 20
140.6055919998551
 30
0.0
 10
103.9639954824837
 20
140.6055919998551
 30
0.0
 10
103.927808000982
 20
140.6055919998551
 30
0.0
 10
103.8449301424573
 20
140.6055919998551
 30
0.0
 10
103.7969766951506
 20
140.6055919998551
 30
0.0
 10
103.7476442076565
 20
140.6055919998551
 30
0.0
  0
SPLINE
  5
C7
330
1F
100
AcDbEntity
  8
0
  6
Continuous
 62
     7
370
    15
100
AcDbSpline
210
0.0
220
0.0
230
1.0
 70
     8
 71
     3
 72
    10
 73
     6
 74
     0
 42
0.00000001
 43
0.00000001
 40
0.0
 40
0.0
 40
0.0
 40
0.0
 40
0.5
 40
0.5
 40
1.0
 40
1.0
 40
1.0
 40
1.0
 10
104.5476442076565
 20
141.3252458508909
 30
0.0
 10
104.5476442076564
 20
141.1814757930731
 30
0.0
 10
104.5115951489377
 20
141.0390564305781
 30
0.0
 10
104.3760862881641
 20
140.7891621372212
 30
0.0
 10
104.2762102950682
 20
140.681131800973
 30
0.0
 10
104.1533466759666
 20
140.6055919998557
 30
0.0
  0
SPLINE
  5
C8
330
1F
100
AcDbEntity
  8
0
  6
Continuous
 62
     7
370
    15
100
AcDbSpline
210
0.0
220
0.0
230
1.0
 70
     8
 71
     3
 72
     9
 73
     5
 74
     0
 42
0.00000001
 43
0.00000001
 40
0.0
 40
0.0
 40
0.0
 40
0.0
 40
0.5
 40
1.0
 40
1.0
 40
1.0
 40
1.0
 10
104.5214965844963
 20
134.0555919998551
 30
0.0
 10
104.5302351543787
 20
134.1027348001905
 30
0.0
 10
104.5432544407151
 20
134.197530881861
 30
0.0
 10
104.5476442076565
 20
134.2933151534214
 30
0.0
 10
104.5476442076565
 20
134.3414586313165
 30
0.0
  0
SPLINE
  5
C9
330
1F
100
AcDbEntity
  8
0
  6
Continuous
 62
     7
370
    15
100
AcDbSpline
210
0.0
220
0.0
230
1.0
 70
     8
 71
     3
 72
    10
 73
     6
 74
     0
 42
0.00000001
 43
0.00000001
 40
0.0
 40
0.0
 40
0.0
 40
0.0
 40
0.5
 40
0.5
 40
1.0
 40
1.0
 40
1.0
 40
1.0
 10
101.1219417393474
 20
140.6055919998551
 30
0.0
 10
101.0004014756789
 20
140.6803181670669
 30
0.0
 10
100.89906711533
 20
140.7892631829837
 30
0.0
 10
100.7634281724415
 20
141.0396936637453
 30
0.0
 10
100.7276442076565
 20
141.1821130258442
 30
0.0
 10
100.7276442076565
 20
141.3252458508909
 30
0.0
  0
SPLINE
  5
CA
330
1F
100
AcDbEntity
  8
0
  6
Continuous
 62
     7
370
    15
100
AcDbSpline
210
0.0
220
0.0
230
1.0
 70
    24
 71
     3
 72
    12
 73
     8
 74
     0
 42
0.00000001
 43
0.00000001
 40
0.0
 40
0.0
 40
0.0
 40
0.0
 40
0.2499999999999992
 40
0.2499999999999992
 40
0.4999999999999983
 40
0.4999999999999983
 40
1.0
 40
1.0
 40
1.0
 40
1.0
 10
101.5276442076565
 20
140.6055919998551
 30
0.0
 10
101.4777675253391
 20
140.6055919998551
 30
0.0
 10
101.4297643319354
 20
140.6055919998551
 30
0.0
 10
101.3467162292234
 20
140.6055919998551
 30
0.0
 10
101.3105866497556
 20
140.6055919998551
 30
0.0
 10
101.2146746188114
 20
140.6055919998551
 30
0.0
 10
101.1649159508426
 20
140.6055919998551
 30
0.0
 10
101.1219417393474
 20
140.6055919998551
 30
0.0
  0
SPLINE
  5
CB
330
1F
100
AcDbEntity
  8
0
  6
Continuous
 62
     7
370
    15
100
AcDbSpline
210
0.0
220
0.0
230
1.0
 70
    24
 71
     3
 72
    14
 73
    10
 74
     0
 42
0.00000001
 43
0.00000001
 40
0.0
 40
0.0
 40
0.0
 40
0.0
 40
0.1249999999999999
 40
0.1249999999999999
 40
0.2499999999999998
 40
0.2499999999999998
 40
0.4999999999999996
 40
0.4999999999999996
 40
1.0
 40
1.0
 40
1.0
 40
1.0
 10
101.5276442076565
 20
87.80559199985511
 30
0.0
 10
101.45920635977
 20
87.8055919998551
 30
0.0
 10
101.393656321005
 20
87.8055919998551
 30
0.0
 10
101.289229681597
 20
87.8055919998551
 30
0.0
 10
101.2466850718356
 20
87.80559199985511
 30
0.0
 10
101.1340756112953
 20
87.80559199985511
 30
0.0
 10
101.0785365642759
 20
87.80559199985511
 30
0.0
 10
100.935924868812
 20
87.80559199985511
 30
0.0
 10
100.8725195138163
 20
87.80559199985511
 30
0.0
 10
100.8253190099887
 20
87.80559199985511
 30
0.0
  0
SPLINE
  5
CC
330
1F
100
AcDbEntity
  8
0
  6
Continuous
 62
     7
370
    15
100
AcDbSpline
210
0.0
220
0.0
230
1.0
 70
     8
 71
     3
 72
    10
 73
     6
 74
     0
 42
0.00000001
 43
0.00000001
 40
0.0
 40
0.0
 40
0.0
 40
0.0
 40
0.5
 40
0.5
 40
1.0
 40
1.0
 40
1.0
 40
1.0
 10
100.7276442076565
 20
134.3414586313165
 30
0.0
 10
100.7276442076565
 20
134.2936871233232
 30
0.0
 10
100.7298054512536
 20
134.2459774012615
 30
0.0
 10
100.7384768251138
 20
134.1506822837133
 30
0.0
 10
100.7450060080698
 20
134.1029897197466
 30
0.0
 10
100.7537918308166
 20
134.0555919998551
 30
0.0
  0
LINE
  5
CD
330
1F
100
AcDbEntity
  8
0
  6
Continuous
 62
     7
370
    15
100
AcDbLine
 10
103.7476439686
 20
140.6055918568
 30
0.0
 11
101.5276447596
 21
140.6055918568
 31
0.0
  0
LINE
  5
CE
330
1F
100
AcDbEntity
  8
0
  6
Continuous
 62
     7
370
    15
100
AcDbLine
 10
103.7476439686
 20
87.8055921429
 30
0.0
 11
101.5276447596
 21
87.8055921429
 31
0.0
  0
LINE
  5
CF
330
1F
100
AcDbEntity
  8
0
  6
Continuous
 62
     7
370
    15
100
AcDbLine
 10
155.5876456859
 20
114.2055919999
 30
0.0
 11
155.5876456859
 21
88.2055914634
 31
0.0
  0
LINE
  5
D0
330
1F
100
AcDbEntity
  8
0
  6
Continuous
 62
     7
370
    15
100
AcDbLine
 10
155.5876456859
 20
140.2055925363
 30
0.0
 11
155.5876456859
 21
114.2055919999
 31
0.0
  0
LINE
  5
D1
330
1F
100
AcDbEntity
  8
0
  6
Continuous
 62
     7
370
    15
100
AcDbLine
 10
144.2179479362
 20
140.101452046
 30
0.0
 11
144.4301777245
 21
140.0889630103
 31
0.0
  0
SPLINE
  5
D2
330
1F
100
AcDbEntity
  8
0
  6
Continuous
 62
     7
370
    15
100
AcDbSpline
210
0.0
220
0.0
230
1.0
 70
     8
 71
     3
 72
    17
 73
    13
 74
     0
 42
0.00000001
 43
0.00000001
 40
0.0
 40
0.0
 40
0.0
 40
0.0
 40
0.0470500473329814
 40
0.1381717384584019
 40
0.2325754195393189
 40
0.3354452055610894
 40
0.4481981225801845
 40
0.5682389173856596
 40
0.6907278140650859
 40
0.8100982880039659
 40
0.9202357197613817
 40
1.0
 40
1.0
 40
1.0
 40
1.0
 10
150.0436835648418
 20
140.2008223020697
 30
0.0
 10
150.0524207311227
 20
140.2017631621899
 30
0.0
 10
150.0780791421694
 20
140.2045261833943
 30
0.0
 10
149.7598037352236
 20
140.1702578901054
 30
0.0
 10
149.1520631927617
 20
140.1138361684596
 30
0.0
 10
148.2491051575516
 20
140.0506528205015
 30
0.0
 10
147.1167597957713
 20
140.0087335481405
 30
0.0
 10
145.8601997515112
 20
140.0120016118536
 30
0.0
 10
144.6546198885351
 20
140.0653920080483
 30
0.0
 10
143.7151711357046
 20
140.139966703957
 30
0.0
 10
143.1603461568084
 20
140.1975047670909
 30
0.0
 10
143.129255881749
 20
140.2010346534946
 30
0.0
 10
143.1161970557571
 20
140.2025173091555
 30
0.0
  0
SPLINE
  5
D3
330
1F
100
AcDbEntity
  8
0
  6
Continuous
 62
     7
370
    15
100
AcDbSpline
210
0.0
220
0.0
230
1.0
 70
     8
 71
     3
 72
     9
 73
     5
 74
     0
 42
0.00000001
 43
0.00000001
 40
0.0
 40
0.0
 40
0.0
 40
0.0
 40
0.1605207762002837
 40
1.0
 40
1.0
 40
1.0
 40
1.0
 10
143.772105193317
 20
140.1382765406037
 30
0.0
 10
143.7900616319964
 20
140.1365500391873
 30
0.0
 10
143.9019252742269
 20
140.125794413297
 30
0.0
 10
144.0737253456391
 20
140.1125611204288
 30
0.0
 10
144.2179479362369
 20
140.1014520460034
 30
0.0
  0
LINE
  5
D4
330
1F
100
AcDbEntity
  8
0
  6
Continuous
 62
     7
370
    15
100
AcDbLine
 10
144.2179479362
 20
88.3097319537
 30
0.0
 11
144.1376046004
 21
88.3028327161
 31
0.0
  0
SPLINE
  5
D5
330
1F
100
AcDbEntity
  8
0
  6
Continuous
 62
     7
370
    15
100
AcDbSpline
210
0.0
220
0.0
230
1.0
 70
     8
 71
     3
 72
    17
 73
    13
 74
     0
 42
0.00000001
 43
0.00000001
 40
0.0
 40
0.0
 40
0.0
 40
0.0
 40
0.0513148443304207
 40
0.142433827648762
 40
0.2371487693589632
 40
0.3404870333523956
 40
0.4536721579876503
 40
0.5739483158256434
 40
0.6964268740923808
 40
0.8155026524786785
 40
0.9250958598933136
 40
1.0
 40
1.0
 40
1.0
 40
1.0
 10
143.1309566559196
 20
88.21029091712481
 30
0.0
 10
143.1239510412199
 20
88.20954131716
 30
0.0
 10
143.1045056637713
 20
88.20746066401601
 30
0.0
 10
143.4374438624241
 20
88.24316525797587
 30
0.0
 10
144.0595818523964
 20
88.30037822657694
 30
0.0
 10
144.9745782086418
 20
88.36318205407645
 30
0.0
 10
146.1159447834409
 20
88.40345180241722
 30
0.0
 10
147.374200583576
 20
88.39771452789898
 30
0.0
 10
148.5725706860436
 20
88.34241061111278
 30
0.0
 10
149.4949140494219
 20
88.26789657365062
 30
0.0
 10
150.0254544121954
 20
88.21250127681039
 30
0.0
 10
150.0461035544897
 20
88.2101316502346
 30
0.0
 10
150.0544869067074
 20
88.20916960474497
 30
0.0
  0
LINE
  5
D6
330
1F
100
AcDbEntity
  8
0
  6
Continuous
 62
     7
370
    15
100
AcDbLine
 10
144.9037478032
 20
88.3529509091
 30
0.0
 11
144.2179479362
 21
88.3097319537
 31
0.0
  0
SPLINE
  5
D7
330
1F
100
AcDbEntity
  8
0
  6
Continuous
 62
     7
370
    15
100
AcDbSpline
210
0.0
220
0.0
230
1.0
 70
     8
 71
     3
 72
    66
 73
    62
 74
     0
 42
0.00000001
 43
0.00000001
 40
-0.0312499999999998
 40
-0.0312499999999998
 40
0.0
 40
0.0
 40
0.0312499999999994
 40
0.0312499999999994
 40
0.0624999999999987
 40
0.0624999999999987
 40
0.0937499999999981
 40
0.0937499999999981
 40
0.1249999999999974
 40
0.1249999999999974
 40
0.1562499999999968
 40
0.1562499999999968
 40
0.1874999999999972
 40
0.1874999999999972
 40
0.2187499999999975
 40
0.2187499999999975
 40
0.2499999999999979
 40
0.2499999999999979
 40
0.2812499999999982
 40
0.2812499999999982
 40
0.3124999999999986
 40
0.3124999999999986
 40
0.3437499999999989
 40
0.3437499999999989
 40
0.3749999999999993
 40
0.3749999999999993
 40
0.4062499999999997
 40
0.4062499999999997
 40
0.4375000000000001
 40
0.4375000000000001
 40
0.4687500000000004
 40
0.4687500000000004
 40
0.5000000000000008
 40
0.5000000000000008
 40
0.5312500000000011
 40
0.5312500000000011
 40
0.5625000000000014
 40
0.5625000000000014
 40
0.5937500000000019
 40
0.5937500000000019
 40
0.6250000000000022
 40
0.6250000000000022
 40
0.6875000000000019
 40
0.6875000000000019
 40
0.7500000000000016
 40
0.7500000000000016
 40
0.7812500000000013
 40
0.7812500000000013
 40
0.8125000000000011
 40
0.8125000000000011
 40
0.843750000000001
 40
0.843750000000001
 40
0.8750000000000008
 40
0.8750000000000008
 40
0.9062500000000006
 40
0.9062500000000006
 40
0.9375000000000003
 40
0.9375000000000003
 40
0.9687500000000002
 40
0.9687500000000002
 40
1.0
 40
1.0
 40
1.031249999999999
 40
1.031249999999999
 10
144.0491169813376
 20
116.3895105913163
 30
0.0
 10
144.3867766969121
 20
116.6711630887032
 30
0.0
 10
144.5663072234885
 20
116.7936010435631
 30
0.0
 10
144.9449325818503
 20
117.0049869750511
 30
0.0
 10
145.1455985512995
 20
117.0944084298343
 30
0.0
 10
145.559724508154
 20
117.2366142867361
 30
0.0
 10
145.7706768164085
 20
117.2888684633378
 30
0.0
 10
146.200051321406
 20
117.3572521268216
 30
0.0
 10
146.4205768778626
 20
117.3732392952728
 30
0.0
 10
146.8570644817809
 20
117.3674176358294
 30
0.0
 10
147.0729964380981
 20
117.3460714174577
 30
0.0
 10
147.5002631235838
 20
117.2666866335776
 30
0.0
 10
147.713620247148
 20
117.20773651958
 30
0.0
 10
148.1215611071194
 20
117.0551797390898
 30
0.0
 10
148.316919024808
 20
116.9618677260039
 30
0.0
 10
148.6899715671539
 20
116.7401928303535
 30
0.0
 10
148.8693398524322
 20
116.610077342483
 30
0.0
 10
149.194874246618
 20
116.3221578805231
 30
0.0
 10
149.3423602653228
 20
116.1641132097565
 30
0.0
 10
149.6049602033294
 20
115.8180738873402
 30
0.0
 10
149.7204584562401
 20
115.6281137027756
 30
0.0
 10
149.9043228415152
 20
115.2349313568675
 30
0.0
 10
149.9745650440105
 20
115.0298806051783
 30
0.0
 10
150.0683604387965
 20
114.6015333671854
 30
0.0
 10
150.0904790665831
 20
114.3820306723128
 30
0.0
 10
150.0842209270085
 20
113.9474217831221
 30
0.0
 10
150.0555061771958
 20
113.7272370763339
 30
0.0
 10
149.949793468639
 20
113.3029347585763
 30
0.0
 10
149.8737061397723
 20
113.0990024598539
 30
0.0
 10
149.6767014100733
 20
112.7069643272134
 30
0.0
 10
149.5571110298104
 20
112.5223306432304
 30
0.0
 10
149.284837776521
 20
112.1827905195521
 30
0.0
 10
149.1295636723091
 20
112.0250400385417
 30
0.0
 10
148.7948904369449
 20
111.7448199791473
 30
0.0
 10
148.6156450545121
 20
111.6217349388477
 30
0.0
 10
148.2343668829841
 20
111.4080167378041
 30
0.0
 10
148.0326081861161
 20
111.3180667067643
 30
0.0
 10
147.6214233631189
 20
111.1762988623708
 30
0.0
 10
147.4102196774146
 20
111.1234124644436
 30
0.0
 10
146.9764742646973
 20
111.0539283331493
 30
0.0
 10
146.7578820515712
 20
111.0381430011834
 30
0.0
 10
146.1062644811414
 20
111.0461191340474
 30
0.0
 10
145.6670662935853
 20
111.1270489859659
 30
0.0
 10
144.854527729987
 20
111.430087842591
 30
0.0
 10
144.4694132994794
 20
111.6569423361874
 30
0.0
 10
143.9827770144322
 20
112.0867318402471
 30
0.0
 10
143.8330145099806
 20
112.2467428107512
 30
0.0
 10
143.5679566123823
 20
112.5964513046672
 30
0.0
 10
143.4554832686422
 20
112.7819284155081
 30
0.0
 10
143.2715787570269
 20
113.1746879618886
 30
0.0
 10
143.1996363517627
 20
113.3851642916086
 30
0.0
 10
143.106677018945
 20
113.8119159989589
 30
0.0
 10
143.0847379041307
 20
114.0281085225632
 30
0.0
 10
143.0911601941449
 20
114.4662704467063
 30
0.0
 10
143.1202109032289
 20
114.6860809569186
 30
0.0
 10
143.225710747914
 20
115.1086993858313
 30
0.0
 10
143.3034575655179
 20
115.3165759206933
 30
0.0
 10
143.5004517989953
 20
115.7072553158864
 30
0.0
 10
143.6188845339892
 20
115.8900688478786
 30
0.0
 10
143.8936040751265
 20
116.2319876312674
 30
0.0
 10
144.0491169813376
 20
116.3895105913163
 30
0.0
 10
144.3867766969121
 20
116.6711630887032
 30
0.0
  0
CIRCLE
  5
D8
330
1F
100
AcDbEntity
  8
0
  6
Continuous
 62
     7
370
    15
100
AcDbCircle
 10
146.5876442077
 20
114.2055919999
 30
0.0
 40
2.500000000000114
  0
LINE
  5
D9
330
1F
100
AcDbEntity
  8
0
  6
Continuous
 62
     7
370
    15
100
AcDbLine
 10
62.8376439871
 20
90.9771459782
 30
0.0
 11
62.8376439871
 21
92.2418540948
 31
0.0
  0
SPLINE
  5
DA
330
1F
100
AcDbEntity
  8
0
  6
Continuous
 62
     7
370
    15
100
AcDbSpline
210
0.0
220
0.0
230
1.0
 70
     8
 71
     3
 72
    14
 73
    10
 74
     0
 42
0.00000001
 43
0.00000001
 40
0.0
 40
0.0
 40
0.0
 40
0.0
 40
0.25
 40
0.25
 40
0.5
 40
0.5
 40
0.75
 40
0.75
 40
1.0
 40
1.0
 40
1.0
 40
1.0
 10
62.05935708974072
 20
93.37244067629516
 30
0.0
 10
62.1159837649428
 20
93.26474322245829
 30
0.0
 10
62.21050642523253
 20
93.16195364073899
 30
0.0
 10
62.39355140079479
 20
92.96359632851882
 30
0.0
 10
62.48517797774949
 20
92.86753681984058
 30
0.0
 10
62.6440312954427
 20
92.68000777713132
 30
0.0
 10
62.71192190306441
 20
92.58859880434778
 30
0.0
 10
62.80883892877198
 20
92.41022258343762
 30
0.0
 10
62.83764420765703
 20
92.32300067719144
 30
0.0
 10
62.83764420765703
 20
92.2418544686572
 30
0.0
  0
SPLINE
  5
DB
330
1F
100
AcDbEntity
  8
0
  6
Continuous
 62
     7
370
    15
100
AcDbSpline
210
0.0
220
0.0
230
1.0
 70
     8
 71
     3
 72
    14
 73
    10
 74
     0
 42
0.00000001
 43
0.00000001
 40
0.0
 40
0.0
 40
0.0
 40
0.0
 40
0.1250000000000015
 40
0.1250000000000015
 40
0.2500000000000029
 40
0.2500000000000029
 40
0.5000000000000032
 40
0.5000000000000032
 40
1.0
 40
1.0
 40
1.0
 40
1.0
 10
61.43764420765646
 20
93.81912253857443
 30
0.0
 10
61.48618861631361
 20
93.82487085185473
 30
0.0
 10
61.53910397109851
 20
93.82176996319849
 30
0.0
 10
61.63439931608156
 20
93.79957511903616
 30
0.0
 10
61.67465031336653
 20
93.78234289194032
 30
0.0
 10
61.77892032687949
 20
93.72601497548827
 30
0.0
 10
61.82924230203281
 20
93.68182862954247
 30
0.0
 10
61.95692524955818
 20
93.55082073069185
 30
0.0
 10
62.01301069662045
 20
93.46058621046156
 30
0.0
 10
62.05935708974219
 20
93.37244067629568
 30
0.0
  0
SPLINE
  5
DC
330
1F
100
AcDbEntity
  8
0
  6
Continuous
 62
     7
370
    15
100
AcDbSpline
210
0.0
220
0.0
230
1.0
 70
     8
 71
     3
 72
     8
 73
     4
 74
     0
 42
0.00000001
 43
0.00000001
 40
0.0
 40
0.0
 40
0.0
 40
0.0
 40
1.0
 40
1.0
 40
1.0
 40
1.0
 10
59.16911911471037
 20
93.50927725199168
 30
0.0
 10
59.90369614119329
 20
93.62790226306063
 30
0.0
 10
60.6671712105889
 20
93.7278881351969
 30
0.0
 10
61.43764420765646
 20
93.81912253857443
 30
0.0
  0
SPLINE
  5
DD
330
1F
100
AcDbEntity
  8
0
  6
Continuous
 62
     7
370
    15
100
AcDbSpline
210
0.0
220
0.0
230
1.0
 70
     8
 71
     3
 72
    14
 73
    10
 74
     0
 42
0.00000001
 43
0.00000001
 40
0.0
 40
0.0
 40
0.0
 40
0.0
 40
0.4999999999999982
 40
0.4999999999999982
 40
0.7499999999999982
 40
0.7499999999999982
 40
0.8749999999999991
 40
0.8749999999999991
 40
1.0
 40
1.0
 40
1.0
 40
1.0
 10
53.88764420765644
 20
93.33565423446002
 30
0.0
 10
54.77979033821005
 20
93.33493200825937
 30
0.0
 10
55.66976677400366
 20
93.33951821471683
 30
0.0
 10
56.99636194107932
 20
93.36724321910839
 30
0.0
 10
57.43720886957806
 20
93.37984975673255
 30
0.0
 10
58.09364910700049
 20
93.41086590473999
 30
0.0
 10
58.31166276359238
 20
93.42320907736678
 30
0.0
 10
58.74437161727515
 20
93.45623313253003
 30
0.0
 10
58.95964808243996
 20
93.47545029766847
 30
0.0
 10
59.16911911471037
 20
93.50927725199166
 30
0.0
  0
SPLINE
  5
DE
330
1F
100
AcDbEntity
  8
0
  6
Continuous
 62
     7
370
    15
100
AcDbSpline
210
0.0
220
0.0
230
1.0
 70
     8
 71
     3
 72
     8
 73
     4
 74
     0
 42
0.00000001
 43
0.00000001
 40
0.0000005163856712
 40
0.0000005163856712
 40
0.0000005163856712
 40
0.0000005163856712
 40
0.000026289209185
 40
0.000026289209185
 40
0.000026289209185
 40
0.000026289209185
 10
53.87759927723777
 20
93.34563810756788
 30
0.0
 10
53.88092701544925
 20
93.34230386069507
 30
0.0
 10
53.88427546842854
 20
93.33897590341606
 30
0.0
 10
53.88764420765643
 20
93.33565423446002
 30
0.0
  0
SPLINE
  5
DF
330
1F
100
AcDbEntity
  8
0
  6
Continuous
 62
     7
370
    15
100
AcDbSpline
210
0.0
220
0.0
230
1.0
 70
     8
 71
     3
 72
     8
 73
     4
 74
     0
 42
0.00000001
 43
0.00000001
 40
0.0000005099763573
 40
0.0000005099763573
 40
0.0000005099763573
 40
0.0000005099763573
 40
0.0000262827998699
 40
0.0000262827998699
 40
0.0000262827998699
 40
0.0000262827998699
 10
53.88764420765643
 20
135.0755297652502
 30
0.0
 10
53.8842754684287
 20
135.0722080962943
 30
0.0
 10
53.88092701544956
 20
135.0688801390154
 30
0.0
 10
53.87759927723825
 20
135.0655458921428
 30
0.0
  0
SPLINE
  5
E0
330
1F
100
AcDbEntity
  8
0
  6
Continuous
 62
     7
370
    15
100
AcDbSpline
210
0.0
220
0.0
230
1.0
 70
     8
 71
     3
 72
    10
 73
     6
 74
     0
 42
0.00000001
 43
0.00000001
 40
0.0
 40
0.0
 40
0.0
 40
0.0
 40
0.5
 40
0.5
 40
1.0
 40
1.0
 40
1.0
 40
1.0
 10
57.43764420765645
 20
135.0286793916828
 30
0.0
 10
56.85005866056586
 20
135.0497449119192
 30
0.0
 10
56.25931226710549
 20
135.0605033977915
 30
0.0
 10
55.07529310180661
 20
135.0738681783271
 30
0.0
 10
54.48187911360117
 20
135.0760108209917
 30
0.0
 10
53.88764420765644
 20
135.0755297652502
 30
0.0
  0
SPLINE
  5
E1
330
1F
100
AcDbEntity
  8
0
  6
Continuous
 62
     7
370
    15
100
AcDbSpline
210
0.0
220
0.0
230
1.0
 70
     8
 71
     3
 72
    18
 73
    14
 74
     0
 42
0.00000001
 43
0.00000001
 40
0.0
 40
0.0
 40
0.0
 40
0.0
 40
0.2499999999999995
 40
0.2499999999999995
 40
0.499999999999999
 40
0.499999999999999
 40
0.7499999999999984
 40
0.7499999999999984
 40
0.8749999999999992
 40
0.8749999999999992
 40
0.9374999999999997
 40
0.9374999999999997
 40
1.0
 40
1.0
 40
1.0
 40
1.0
 10
58.83764420765647
 20
136.0496996722181
 30
0.0
 10
58.83764420765648
 20
135.9664927633609
 30
0.0
 10
58.8017951077182
 20
135.8777561080473
 30
0.0
 10
58.67692337168429
 20
135.6956309174871
 30
0.0
 10
58.58652295403642
 20
135.6005008688605
 30
0.0
 10
58.36428029929424
 20
135.4113193597361
 30
0.0
 10
58.23451551284846
 20
135.3163741916414
 30
0.0
 10
57.99387805553696
 20
135.1780954840615
 30
0.0
 10
57.90611075739952
 20
135.1323850507591
 30
0.0
 10
57.75158667019267
 20
135.0745617455376
 30
0.0
 10
57.69497578413795
 20
135.0568469814998
 30
0.0
 10
57.57093175323134
 20
135.0323076782668
 30
0.0
 10
57.50321707821305
 20
135.0263285397286
 30
0.0
 10
57.43764420765645
 20
135.0286793916828
 30
0.0
  0
LINE
  5
E2
330
1F
100
AcDbEntity
  8
0
  6
Continuous
 62
     7
370
    15
100
AcDbLine
 10
58.8376433315
 20
136.0496996575
 30
0.0
 11
58.8376433315
 21
137.2336378926
 31
0.0
  0
LINE
  5
E3
330
1F
100
AcDbEntity
  8
0
  6
Continuous
 62
     7
370
    15
100
AcDbLine
 10
82.6218919555
 20
89.9859505379
 30
0.0
 11
82.6218919555
 21
138.4252334618
 31
0.0
  0
SPLINE
  5
E4
330
1F
100
AcDbEntity
  8
0
  6
Continuous
 62
     7
370
    15
100
AcDbSpline
210
0.0
220
0.0
230
1.0
 70
     8
 71
     3
 72
    18
 73
    14
 74
     0
 42
0.00000001
 43
0.00000001
 40
0.0
 40
0.0
 40
0.0
 40
0.0
 40
0.0010655926148242
 40
0.12709325815039
 40
0.2524038356025172
 40
0.3766453743158421
 40
0.4391400896889153
 40
0.500826259014492
 40
0.5624240545735271
 40
0.6253147073773685
 40
0.7499969947798797
 40
0.8752743607979104
 40
1.0
 40
1.0
 40
1.0
 40
1.0
 10
71.40794160830983
 20
90.54825330611712
 30
0.0
 10
71.40703110710837
 20
90.54813814008467
 30
0.0
 10
71.2984356057574
 20
90.53440228448062
 30
0.0
 10
71.6860685537117
 20
90.5854181772149
 30
0.0
 10
72.55202672673542
 20
90.68495938055908
 30
0.0
 10
73.75242641770797
 20
90.75409637076442
 30
0.0
 10
74.81000036408294
 20
90.7580465213108
 30
0.0
 10
75.63713394485643
 20
90.73055891690937
 30
0.0
 10
76.4624060230798
 20
90.67201970596275
 30
0.0
 10
77.51677284329384
 20
90.55849985775363
 30
0.0
 10
78.67861281089269
 20
90.37534706720851
 30
0.0
 10
79.63085636848989
 20
90.17074263917391
 30
0.0
 10
79.75656719004854
 20
90.14145707308073
 30
0.0
 10
79.81928388643273
 20
90.12684660490996
 30
0.0
  0
SPLINE
  5
E5
330
1F
100
AcDbEntity
  8
0
  6
Continuous
 62
     7
370
    15
100
AcDbSpline
210
0.0
220
0.0
230
1.0
 70
     8
 71
     3
 72
    18
 73
    14
 74
     0
 42
0.00000001
 43
0.00000001
 40
0.0
 40
0.0
 40
0.0
 40
0.0
 40
0.1248923127334712
 40
0.2505399386723936
 40
0.3748736911050809
 40
0.4374922536789543
 40
0.4990791175657254
 40
0.5607946656977365
 40
0.6233916336253247
 40
0.7478206263602379
 40
0.8731956466947864
 40
0.9991630138369119
 40
1.0
 40
1.0
 40
1.0
 40
1.0
 10
79.8190650256277
 20
138.28427220222
 30
0.0
 10
79.75532120767012
 20
138.2696101306981
 30
0.0
 10
79.62744806726383
 20
138.2401973156135
 30
0.0
 10
78.67543940435233
 20
138.0352439297188
 30
0.0
 10
77.51489234663681
 20
137.8519799235515
 30
0.0
 10
76.4626265159299
 20
137.7389546431901
 30
0.0
 10
75.63839923413508
 20
137.6806890360014
 30
0.0
 10
74.81079595133959
 20
137.6532459275713
 30
0.0
 10
73.75197986977275
 20
137.657230684715
 30
0.0
 10
72.54976930203533
 20
137.7263135890424
 30
0.0
 10
71.68457436947686
 20
137.8259662071091
 30
0.0
 10
71.29848516972712
 20
137.8767209877445
 30
0.0
 10
71.40652440352771
 20
137.8630895870321
 30
0.0
 10
71.40723752844342
 20
137.8629996114636
 30
0.0
  0
SPLINE
  5
E6
330
1F
100
AcDbEntity
  8
0
  6
Continuous
 62
     7
370
    15
100
AcDbSpline
210
0.0
220
0.0
230
1.0
 70
     8
 71
     3
 72
     9
 73
     5
 74
     0
 42
0.00000001
 43
0.00000001
 40
0.0
 40
0.0
 40
0.0
 40
0.0
 40
0.7009339503679092
 40
0.9999999999999999
 40
0.9999999999999999
 40
0.9999999999999999
 40
0.9999999999999999
 10
52.75842777508505
 20
94.5043123000527
 30
0.0
 10
52.76756844603489
 20
94.4864830162918
 30
0.0
 10
52.78060914829369
 20
94.46104654863099
 30
0.0
 10
52.79577261156196
 20
94.51492590810454
 30
0.0
 10
52.80030748862035
 20
94.53103939529902
 30
0.0
  0
LINE
  5
E7
330
1F
100
AcDbEntity
  8
0
  6
Continuous
 62
     7
370
    15
100
AcDbLine
 10
52.7376443805
 20
94.5149144762
 30
0.0
 11
52.7376443805
 21
133.8962695235
 31
0.0
  0
SPLINE
  5
E8
330
1F
100
AcDbEntity
  8
0
  6
Continuous
 62
     7
370
    15
100
AcDbSpline
210
0.0
220
0.0
230
1.0
 70
     8
 71
     3
 72
    10
 73
     6
 74
     0
 42
0.00000001
 43
0.00000001
 40
0.0
 40
0.0
 40
0.0
 40
0.0
 40
0.5
 40
0.5
 40
1.0
 40
1.0
 40
1.0
 40
1.0
 10
52.80030758237986
 20
133.8801445446358
 30
0.0
 10
52.79140329327112
 20
133.925886063849
 30
0.0
 10
52.77488791307813
 20
133.943076903318
 30
0.0
 10
52.74777996701652
 20
133.9427536263823
 30
0.0
 10
52.73764420765647
 20
133.9248760840858
 30
0.0
 10
52.73764420765646
 20
133.8962697463332
 30
0.0
  0
SPLINE
  5
E9
330
1F
100
AcDbEntity
  8
0
  6
Continuous
 62
     7
370
    15
100
AcDbSpline
210
0.0
220
0.0
230
1.0
 70
     8
 71
     3
 72
    26
 73
    22
 74
     0
 42
0.00000001
 43
0.00000001
 40
0.0
 40
0.0
 40
0.0
 40
0.0
 40
0.2499999999999984
 40
0.2499999999999984
 40
0.3749999999999983
 40
0.3749999999999983
 40
0.4374999999999977
 40
0.4374999999999977
 40
0.4687499999999983
 40
0.4687499999999983
 40
0.4999999999999988
 40
0.4999999999999988
 40
0.5312499999999993
 40
0.5312499999999993
 40
0.5624999999999999
 40
0.5624999999999999
 40
0.6249999999999989
 40
0.6249999999999989
 40
0.7500000000000001
 40
0.7500000000000001
 40
1.0
 40
1.0
 40
1.0
 40
1.0
 10
53.56179785376096
 20
134.5957113334529
 30
0.0
 10
53.52319733089249
 20
134.4779366370975
 30
0.0
 10
53.47690032833821
 20
134.3535469509356
 30
0.0
 10
53.3829609799043
 20
134.1483276185821
 30
0.0
 10
53.34764951299084
 20
134.0767547521357
 30
0.0
 10
53.28146953724517
 20
133.9608015195352
 30
0.0
 10
53.25693117057691
 20
133.9202169847249
 30
0.0
 10
53.21355842502312
 20
133.8560753028532
 30
0.0
 10
53.19805002359796
 20
133.8342088775682
 30
0.0
 10
53.16300737901096
 20
133.788614609225
 30
0.0
 10
53.14345708829116
 20
133.7649443182576
 30
0.0
 10
53.10152980792051
 20
133.7203277589176
 30
0.0
 10
53.0788776976889
 20
133.6994477463997
 30
0.0
 10
53.03790398360226
 20
133.6685743326489
 30
0.0
 10
53.02030468370686
 20
133.6587354628165
 30
0.0
 10
52.97567769785072
 20
133.6397458471203
 30
0.0
 10
52.95511847519737
 20
133.6394215224669
 30
0.0
 10
52.9039930357007
 20
133.6486449633431
 30
0.0
 10
52.88308162271218
 20
133.6698918595601
 30
0.0
 10
52.83163171515126
 20
133.7438607383908
 30
0.0
 10
52.81396641584669
 20
133.8099788317056
 30
0.0
 10
52.80030758237986
 20
133.8801445446358
 30
0.0
  0
SPLINE
  5
EA
330
1F
100
AcDbEntity
  8
0
  6
Continuous
 62
     7
370
    15
100
AcDbSpline
210
0.0
220
0.0
230
1.0
 70
     8
 71
     3
 72
    10
 73
     6
 74
     0
 42
0.00000001
 43
0.00000001
 40
0.0
 40
0.0
 40
0.0
 40
0.0
 40
0.5
 40
0.5
 40
1.0
 40
1.0
 40
1.0
 40
1.0
 10
53.87759927723828
 20
135.0655458921428
 30
0.0
 10
53.81004002232002
 20
134.997854499333
 30
0.0
 10
53.74640336698352
 20
134.9231473345794
 30
0.0
 10
53.63618261241165
 20
134.7641812021527
 30
0.0
 10
53.58936631918903
 20
134.6798259361447
 30
0.0
 10
53.56179785376096
 20
134.5957113334529
 30
0.0
  0
SPLINE
  5
EB
330
1F
100
AcDbEntity
  8
0
  6
Continuous
 62
     7
370
    15
100
AcDbSpline
210
0.0
220
0.0
230
1.0
 70
     8
 71
     3
 72
    10
 73
     6
 74
     0
 42
0.00000001
 43
0.00000001
 40
0.0
 40
0.0
 40
0.0
 40
0.0
 40
0.5
 40
0.5
 40
1.0
 40
1.0
 40
1.0
 40
1.0
 10
53.56179785376099
 20
93.81547266625715
 30
0.0
 10
53.5892752685142
 20
93.73163586979153
 30
0.0
 10
53.63598389880187
 20
93.6473253822047
 30
0.0
 10
53.74626236154384
 20
93.48820415172183
 30
0.0
 10
53.81014990015547
 20
93.41321940763375
 30
0.0
 10
53.8775992772378
 20
93.34563810756788
 30
0.0
  0
SPLINE
  5
EC
330
1F
100
AcDbEntity
  8
0
  6
Continuous
 62
     7
370
    15
100
AcDbSpline
210
0.0
220
0.0
230
1.0
 70
     8
 71
     3
 72
    24
 73
    20
 74
     0
 42
0.00000001
 43
0.00000001
 40
0.0
 40
0.0
 40
0.0
 40
0.0
 40
0.2499999999999951
 40
0.2499999999999951
 40
0.3749999999999913
 40
0.3749999999999913
 40
0.4374999999999885
 40
0.4374999999999885
 40
0.4687499999999882
 40
0.4687499999999882
 40
0.499999999999988
 40
0.499999999999988
 40
0.56249999999999
 40
0.56249999999999
 40
0.624999999999992
 40
0.624999999999992
 40
0.7499999999999958
 40
0.7499999999999958
 40
1.0
 40
1.0
 40
1.0
 40
1.0
 10
52.80030758237987
 20
94.53103945507435
 30
0.0
 10
52.81406070105007
 20
94.60168951306463
 30
0.0
 10
52.83183326845595
 20
94.66828762582955
 30
0.0
 10
52.88408436001132
 20
94.74238564606274
 30
0.0
 10
52.90511943559287
 20
94.7636434532243
 30
0.0
 10
52.95801984322132
 20
94.77178937937055
 30
0.0
 10
52.97912551609924
 20
94.77084957597478
 30
0.0
 10
53.02517768477718
 20
94.74983358439744
 30
0.0
 10
53.04354815676057
 20
94.73892477828981
 30
0.0
 10
53.08509979182628
 20
94.70628986734243
 30
0.0
 10
53.1076664645832
 20
94.68479788697108
 30
0.0
 10
53.17044748104323
 20
94.61633194338476
 30
0.0
 10
53.20357724201111
 20
94.5702574851797
 30
0.0
 10
53.26049492849611
 20
94.48524959684501
 30
0.0
 10
53.28468095399988
 20
94.44496929566363
 30
0.0
 10
53.34988890437964
 20
94.33003306919768
 30
0.0
 10
53.3846049645709
 20
94.25945008405068
 30
0.0
 10
53.47782023490177
 20
94.05524432497208
 30
0.0
 10
53.52349277026246
 20
93.93234594264473
 30
0.0
 10
53.561797853761
 20
93.81547266625715
 30
0.0
  0
SPLINE
  5
ED
330
1F
100
AcDbEntity
  8
0
  6
Continuous
 62
     7
370
    15
100
AcDbSpline
210
0.0
220
0.0
230
1.0
 70
     8
 71
     3
 72
     8
 73
     4
 74
     0
 42
0.00000001
 43
0.00000001
 40
0.0
 40
0.0
 40
0.0
 40
0.0
 40
1.0
 40
1.0
 40
1.0
 40
1.0
 10
100.7276442076565
 20
142.0108261910267
 30
0.0
 10
100.2349341108107
 20
142.8988451891531
 30
0.0
 10
99.74085140553173
 20
143.7861078248391
 30
0.0
 10
99.2457113761674
 20
144.6727874730194
 30
0.0
  0
LINE
  5
EE
330
1F
100
AcDbEntity
  8
0
  6
Continuous
 62
     7
370
    15
100
AcDbLine
 10
100.7276442559
 20
135.2557359868
 30
0.0
 11
100.7276442559
 21
142.0108253741
 31
0.0
  0
SPLINE
  5
EF
330
1F
100
AcDbEntity
  8
0
  6
Continuous
 62
     7
370
    15
100
AcDbSpline
210
0.0
220
0.0
230
1.0
 70
     8
 71
     3
 72
     8
 73
     4
 74
     0
 42
0.00000001
 43
0.00000001
 40
0.0
 40
0.0
 40
0.0
 40
0.0
 40
1.0
 40
1.0
 40
1.0
 40
1.0
 10
99.2457113761674
 20
138.6642816622225
 30
0.0
 10
99.75279821792668
 20
137.5331313080589
 30
0.0
 10
100.2483660570666
 20
136.396746897291
 30
0.0
 10
100.7276442076565
 20
135.2557356674384
 30
0.0
  0
LINE
  5
F0
330
1F
100
AcDbEntity
  8
0
  6
Continuous
 62
     7
370
    15
100
AcDbLine
 10
104.5476444723
 20
134.3414584779
 30
0.0
 11
104.5476444723
 21
135.2557359868
 31
0.0
  0
SPLINE
  5
F1
330
1F
100
AcDbEntity
  8
0
  6
Continuous
 62
     7
370
    15
100
AcDbSpline
210
0.0
220
0.0
230
1.0
 70
     8
 71
     3
 72
     8
 73
     4
 74
     0
 42
0.00000001
 43
0.00000001
 40
0.0
 40
0.0
 40
0.0
 40
0.0
 40
1.0
 40
1.0
 40
1.0
 40
1.0
 10
104.5476442076565
 20
135.2557356674384
 30
0.0
 10
105.0269223582463
 20
136.396746897291
 30
0.0
 10
105.5224901973862
 20
137.5331313080589
 30
0.0
 10
106.0295770391455
 20
138.6642816622225
 30
0.0
  0
LINE
  5
F2
330
1F
100
AcDbEntity
  8
0
  6
Continuous
 62
     7
370
    15
100
AcDbLine
 10
106.0295761289
 20
138.664281615
 30
0.0
 11
109.987644917
 21
138.664281615
 31
0.0
  0
SPLINE
  5
F3
330
1F
100
AcDbEntity
  8
0
  6
Continuous
 62
     7
370
    15
100
AcDbSpline
210
0.0
220
0.0
230
1.0
 70
     8
 71
     3
 72
    12
 73
     8
 74
     0
 42
0.00000001
 43
0.00000001
 40
0.0
 40
0.0
 40
0.0
 40
0.0
 40
0.25
 40
0.25
 40
0.5
 40
0.5
 40
1.0
 40
1.0
 40
1.0
 40
1.0
 10
109.9876442076565
 20
138.6642816622225
 30
0.0
 10
110.0788439294821
 20
138.6642816622225
 30
0.0
 10
110.1694389386181
 20
138.6360619636347
 30
0.0
 10
110.3228516650648
 20
138.5416189563866
 30
0.0
 10
110.3880605323885
 20
138.4753319796812
 30
0.0
 10
110.5408450617284
 20
138.2497071563929
 30
0.0
 10
110.5876442076565
 20
138.0672808933604
 30
0.0
 10
110.5876442076565
 20
137.8865442611135
 30
0.0
  0
LINE
  5
F4
330
1F
100
AcDbEntity
  8
0
  6
Continuous
 62
     7
370
    15
100
AcDbLine
 10
110.5876438977
 20
137.8865434461
 30
0.0
 11
110.5876438977
 21
134.055592739
 31
0.0
  0
SPLINE
  5
F5
330
1F
100
AcDbEntity
  8
0
  6
Continuous
 62
     7
370
    15
100
AcDbSpline
210
0.0
220
0.0
230
1.0
 70
     8
 71
     3
 72
    10
 73
     6
 74
     0
 42
0.00000001
 43
0.00000001
 40
0.0
 40
0.0
 40
0.0
 40
0.0
 40
0.5
 40
0.5
 40
1.0
 40
1.0
 40
1.0
 40
1.0
 10
110.5876442076565
 20
144.052032323619
 30
0.0
 10
110.5876442076565
 20
144.2124375899698
 30
0.0
 10
110.5254063765496
 20
144.3714994029584
 30
0.0
 10
110.306271452807
 20
144.6024118685887
 30
0.0
 10
110.1486827578152
 20
144.6727874730194
 30
0.0
 10
109.9876442076565
 20
144.6727874730194
 30
0.0
  0
LINE
  5
F6
330
1F
100
AcDbEntity
  8
0
  6
Continuous
 62
     7
370
    15
100
AcDbLine
 10
110.5876438977
 20
137.8865434461
 30
0.0
 11
110.5876438977
 21
144.0520330006
 31
0.0
  0
LINE
  5
F7
330
1F
100
AcDbEntity
  8
0
  6
Continuous
 62
     7
370
    15
100
AcDbLine
 10
109.987644917
 20
144.6727874362
 30
0.0
 11
106.0295761289
 21
144.6727874362
 31
0.0
  0
LINE
  5
F8
330
1F
100
AcDbEntity
  8
0
  6
Continuous
 62
     7
370
    15
100
AcDbLine
 10
106.0295761289
 20
138.664281615
 30
0.0
 11
106.0295761289
 21
144.6727874362
 31
0.0
  0
SPLINE
  5
F9
330
1F
100
AcDbEntity
  8
0
  6
Continuous
 62
     7
370
    15
100
AcDbSpline
210
0.0
220
0.0
230
1.0
 70
     8
 71
     3
 72
     8
 73
     4
 74
     0
 42
0.00000001
 43
0.00000001
 40
0.0
 40
0.0
 40
0.0
 40
0.0
 40
1.0
 40
1.0
 40
1.0
 40
1.0
 10
106.0295770391455
 20
144.6727874730194
 30
0.0
 10
105.5344370097812
 20
143.7861078248391
 30
0.0
 10
105.0403543045022
 20
142.8988451891531
 30
0.0
 10
104.5476442076565
 20
142.0108261910267
 30
0.0
  0
LINE
  5
FA
330
1F
100
AcDbEntity
  8
0
  6
Continuous
 62
     7
370
    15
100
AcDbLine
 10
104.5476444723
 20
135.2557359868
 30
0.0
 11
104.5476444723
 21
142.0108253741
 31
0.0
  0
LINE
  5
FB
330
1F
100
AcDbEntity
  8
0
  6
Continuous
 62
     7
370
    15
100
AcDbLine
 10
100.7276442559
 20
135.2557359868
 30
0.0
 11
100.7276442559
 21
134.3414584779
 31
0.0
  0
ARC
  5
FC
330
1F
100
AcDbEntity
  8
0
  6
Continuous
 62
     7
370
    15
100
AcDbCircle
 10
92.6375079964
 20
132.9661562608
 30
0.0
 40
7.197556098821862
100
AcDbArc
 50
70.7482971842
 51
109.2067721816
  0
LINE
  5
FD
330
1F
100
AcDbEntity
  8
0
  6
HIDDEN
 62
     7
370
     0
100
AcDbLine
 10
187.0911442401
 20
108.7055920297
 30
0.0
 11
187.0911442401
 21
119.7055919701
 31
0.0
  0
LINE
  5
FE
330
1F
100
AcDbEntity
  8
0
  6
HIDDEN
 62
     7
370
     0
100
AcDbLine
 10
186.5911432268
 20
108.2055919477
 30
0.0
 11
186.5911432268
 21
120.205592052
 31
0.0
  0
LINE
  5
FF
330
1F
100
AcDbEntity
  8
0
  6
HIDDEN
 62
     7
370
     0
100
AcDbLine
 10
171.5911426308
 20
108.2055919477
 30
0.0
 11
171.5911426308
 21
120.205592052
 31
0.0
  0
LINE
  5
100
330
1F
100
AcDbEntity
  8
0
  6
HIDDEN
 62
     7
370
     0
100
AcDbLine
 10
171.0911416175
 20
108.7055920297
 30
0.0
 11
171.0911416175
 21
119.7055919701
 31
0.0
  0
LINE
  5
101
330
1F
100
AcDbEntity
  8
0
  6
HIDDEN
 62
     7
370
     0
100
AcDbLine
 10
191.0911448957
 20
112.7055919868
 30
0.0
 11
189.0911408426
 21
112.7055919868
 31
0.0
  0
LINE
  5
102
330
1F
100
AcDbEntity
  8
0
  6
HIDDEN
 62
     7
370
     0
100
AcDbLine
 10
191.0911448957
 20
108.7055920297
 30
0.0
 11
191.0911448957
 21
112.7055919868
 31
0.0
  0
LINE
  5
103
330
1F
100
AcDbEntity
  8
0
  6
HIDDEN
 62
     7
370
     0
100
AcDbLine
 10
191.0911448957
 20
115.7055920129
 30
0.0
 11
191.0911448957
 21
119.7055919701
 31
0.0
  0
LINE
  5
104
330
1F
100
AcDbEntity
  8
0
  6
HIDDEN
 62
     7
370
     0
100
AcDbLine
 10
189.0911408426
 20
115.7055920129
 30
0.0
 11
191.0911448957
 21
115.7055920129
 31
0.0
  0
LINE
  5
105
330
1F
100
AcDbEntity
  8
0
  6
HIDDEN
 62
     7
370
     0
100
AcDbLine
 10
189.0911408426
 20
112.7055919868
 30
0.0
 11
189.0911408426
 21
115.7055920129
 31
0.0
  0
LINE
  5
106
330
1F
100
AcDbEntity
  8
0
  6
HIDDEN
 62
     7
370
     0
100
AcDbLine
 10
178.0911409022
 20
114.2055919999
 30
0.0
 11
171.0911416175
 21
114.2055919999
 31
0.0
  0
LINE
  5
107
330
1F
100
AcDbEntity
  8
0
  6
HIDDEN
 62
     7
370
     0
100
AcDbLine
 10
184.091145611
 20
115.7055920129
 30
0.0
 11
184.091145611
 21
114.2055919999
 31
0.0
  0
LINE
  5
108
330
1F
100
AcDbEntity
  8
0
  6
HIDDEN
 62
     7
370
     0
100
AcDbLine
 10
184.091145611
 20
114.2055919999
 30
0.0
 11
184.091145611
 21
112.7055919868
 31
0.0
  0
LINE
  5
109
330
1F
100
AcDbEntity
  8
0
  6
HIDDEN
 62
     7
370
     0
100
AcDbLine
 10
184.091145611
 20
114.2055919999
 30
0.0
 11
189.0911408426
 21
114.2055919999
 31
0.0
  0
LINE
  5
10A
330
1F
100
AcDbEntity
  8
0
  6
HIDDEN
 62
     7
370
     0
100
AcDbLine
 10
178.0911409022
 20
114.2055919999
 30
0.0
 11
178.0911409022
 21
115.7055920129
 31
0.0
  0
LINE
  5
10B
330
1F
100
AcDbEntity
  8
0
  6
HIDDEN
 62
     7
370
     0
100
AcDbLine
 10
178.0911409022
 20
112.7055919868
 30
0.0
 11
178.0911409022
 21
114.2055919999
 31
0.0
  0
LINE
  5
10C
330
1F
100
AcDbEntity
  8
0
  6
HIDDEN
 62
     7
370
     0
100
AcDbLine
 10
184.091145611
 20
112.7055919868
 30
0.0
 11
184.091145611
 21
111.2055919738
 31
0.0
  0
LINE
  5
10D
330
1F
100
AcDbEntity
  8
0
  6
HIDDEN
 62
     7
370
     0
100
AcDbLine
 10
178.0911409022
 20
111.2055919738
 30
0.0
 11
178.0911409022
 21
112.7055919868
 31
0.0
  0
LINE
  5
10E
330
1F
100
AcDbEntity
  8
0
  6
HIDDEN
 62
     7
370
     0
100
AcDbLine
 10
178.0911409022
 20
115.7055920129
 30
0.0
 11
178.0911409022
 21
117.2055920259
 31
0.0
  0
LINE
  5
10F
330
1F
100
AcDbEntity
  8
0
  6
HIDDEN
 62
     7
370
     0
100
AcDbLine
 10
184.091145611
 20
117.2055920259
 30
0.0
 11
184.091145611
 21
115.7055920129
 31
0.0
  0
LINE
  5
110
330
1F
100
AcDbEntity
  8
0
  6
HIDDEN
 62
     7
370
     0
100
AcDbLine
 10
178.0911409022
 20
111.2055919738
 30
0.0
 11
171.0911416175
 21
111.2055919738
 31
0.0
  0
LINE
  5
111
330
1F
100
AcDbEntity
  8
0
  6
HIDDEN
 62
     7
370
     0
100
AcDbLine
 10
184.091145611
 20
111.2055919738
 30
0.0
 11
191.0911448957
 21
111.2055919738
 31
0.0
  0
LINE
  5
112
330
1F
100
AcDbEntity
  8
0
  6
HIDDEN
 62
     7
370
     0
100
AcDbLine
 10
184.091145611
 20
117.2055920259
 30
0.0
 11
191.0911448957
 21
117.2055920259
 31
0.0
  0
LINE
  5
113
330
1F
100
AcDbEntity
  8
0
  6
HIDDEN
 62
     7
370
     0
100
AcDbLine
 10
178.0911409022
 20
117.2055920259
 30
0.0
 11
171.0911416175
 21
117.2055920259
 31
0.0
  0
LINE
  5
114
330
1F
100
AcDbEntity
  8
0
  6
HIDDEN
 62
     7
370
     0
100
AcDbLine
 10
229.5079254271
 20
84.9147016787
 30
0.0
 11
240.3941177489
 21
84.9147016787
 31
0.0
  0
SPLINE
  5
115
330
1F
100
AcDbEntity
  8
0
  6
HIDDEN
 62
     7
370
     0
100
AcDbSpline
210
0.0
220
0.0
230
1.0
 70
     8
 71
     3
 72
    18
 73
    14
 74
     0
 42
0.00000001
 43
0.00000001
 40
0.0
 40
0.0
 40
0.0
 40
0.0
 40
0.0823378905365317
 40
0.1971255851501727
 40
0.3099412449198669
 40
0.418024141360064
 40
0.5203958628429134
 40
0.5371614198808732
 40
0.6343760794741609
 40
0.7344799112683646
 40
0.8389929845470356
 40
0.9487444485855002
 40
1.0
 40
1.0
 40
1.0
 40
1.0
 10
229.5079254271389
 20
87.89939495262152
 30
0.0
 10
229.2166905204262
 20
87.88808058468611
 30
0.0
 10
228.5194434689436
 20
87.8609927957552
 30
0.0
 10
227.4954518900359
 20
87.61087557259917
 30
0.0
 10
226.6162459346647
 20
87.18065114429005
 30
0.0
 10
226.0989843722998
 20
86.66423605043077
 30
0.0
 10
226.0138910400752
 20
86.28687046954767
 30
0.0
 10
226.0890366645476
 20
85.94951985189621
 30
0.0
 10
226.310767869847
 20
85.634822359388
 30
0.0
 10
226.9386603338273
 20
85.28358876823633
 30
0.0
 10
227.8485061051709
 20
85.03527159475064
 30
0.0
 10
228.7583197755852
 20
84.92683284010108
 30
0.0
 10
229.3269163515358
 20
84.91763101937103
 30
0.0
 10
229.5079254271389
 20
84.91470167871958
 30
0.0
  0
LINE
  5
116
330
1F
100
AcDbEntity
  8
0
  6
HIDDEN
 62
     7
370
     0
100
AcDbLine
 10
229.5079254271
 20
87.8993949526
 30
0.0
 11
240.3941177489
 21
87.8993949526
 31
0.0
  0
LINE
  5
117
330
1F
100
AcDbEntity
  8
0
  6
HIDDEN
 62
     7
370
     0
100
AcDbLine
 10
240.3941177489
 20
89.8828698927
 30
0.0
 11
240.3941177489
 21
87.8993949526
 31
0.0
  0
LINE
  5
118
330
1F
100
AcDbEntity
  8
0
  6
HIDDEN
 62
     7
370
     0
100
AcDbLine
 10
229.5079254271
 20
109.2374251829
 30
0.0
 11
240.3941177489
 21
109.2374251829
 31
0.0
  0
SPLINE
  5
119
330
1F
100
AcDbEntity
  8
0
  6
HIDDEN
 62
     7
370
     0
100
AcDbSpline
210
0.0
220
0.0
230
1.0
 70
     8
 71
     3
 72
    18
 73
    14
 74
     0
 42
0.00000001
 43
0.00000001
 40
0.0
 40
0.0
 40
0.0
 40
0.0
 40
0.0823389687846548
 40
0.197128153882059
 40
0.3099452961909979
 40
0.4180295651838608
 40
0.5204026535042084
 40
0.5325622519392069
 40
0.6297979164764608
 40
0.7297588044251171
 40
0.8340299454661901
 40
0.9435584428513573
 40
1.0
 40
1.0
 40
1.0
 40
1.0
 10
229.5079254271389
 20
115.8208663481513
 30
0.0
 10
229.2166904539629
 20
115.8001371187542
 30
0.0
 10
228.5194432883079
 20
115.7505091627236
 30
0.0
 10
227.495453276358
 20
115.2877924133394
 30
0.0
 10
226.6162407282254
 20
114.4621036489211
 30
0.0
 10
226.0990030712076
 20
113.4167556005775
 30
0.0
 10
226.0155742403448
 20
112.6175181390957
 30
0.0
 10
226.0833128907306
 20
111.8746761194328
 30
0.0
 10
226.2890410947842
 20
111.1512744885566
 30
0.0
 10
226.9029416667211
 20
110.2647761358741
 30
0.0
 10
227.801088337103
 20
109.5951436832905
 30
0.0
 10
228.722329801039
 20
109.2759813413438
 30
0.0
 10
229.3085642512955
 20
109.2472096073718
 30
0.0
 10
229.5079254271389
 20
109.2374251828755
 30
0.0
  0
LINE
  5
11A
330
1F
100
AcDbEntity
  8
0
  6
HIDDEN
 62
     7
370
     0
100
AcDbLine
 10
229.5079254271
 20
115.8208663482
 30
0.0
 11
240.3941177489
 21
115.8208663482
 31
0.0
  0
LINE
  5
11B
330
1F
100
AcDbEntity
  8
0
  6
HIDDEN
 62
     7
370
     0
100
AcDbLine
 10
240.3941177489
 20
119.1737588168
 30
0.0
 11
240.3941177489
 21
115.8208663482
 31
0.0
  0
LINE
  5
11C
330
1F
100
AcDbEntity
  8
0
  6
HIDDEN
 62
     7
370
     0
100
AcDbLine
 10
229.5079254271
 20
138.528314107
 30
0.0
 11
240.3941177489
 21
138.528314107
 31
0.0
  0
SPLINE
  5
11D
330
1F
100
AcDbEntity
  8
0
  6
HIDDEN
 62
     7
370
     0
100
AcDbSpline
210
0.0
220
0.0
230
1.0
 70
     8
 71
     3
 72
    18
 73
    14
 74
     0
 42
0.00000001
 43
0.00000001
 40
0.0
 40
0.0
 40
0.0
 40
0.0
 40
0.0823389427091132
 40
0.1971280740159059
 40
0.3099451717237139
 40
0.4180294398359591
 40
0.5204025492195667
 40
0.5326711283190014
 40
0.6299065696541367
 40
0.7298707385429867
 40
0.8341475612799643
 40
0.9436807203905869
 40
1.0
 40
1.0
 40
1.0
 40
1.0
 10
229.5079254271389
 20
142.1270637446309
 30
0.0
 10
229.2166905136848
 20
142.117648512672
 30
0.0
 10
228.5194435526907
 20
142.095107458811
 30
0.0
 10
227.4954522314382
 20
141.8825092250235
 30
0.0
 10
226.6162441424136
 20
141.4870487003345
 30
0.0
 10
226.0989906301562
 20
140.958093331156
 30
0.0
 10
226.0155609345852
 20
140.5284224792442
 30
0.0
 10
226.0834111335596
 20
140.1162980398436
 30
0.0
 10
226.2895677700263
 20
139.7028968334854
 30
0.0
 10
226.9037787319668
 20
139.1720872957889
 30
0.0
 10
227.8022092470005
 20
138.756021392655
 30
0.0
 10
228.7231804548281
 20
138.5528775919438
 30
0.0
 10
229.3089969953386
 20
138.5345408121433
 30
0.0
 10
229.5079254271389
 20
138.5283141070271
 30
0.0
  0
LINE
  5
11E
330
1F
100
AcDbEntity
  8
0
  6
HIDDEN
 62
     7
370
     0
100
AcDbLine
 10
229.5079254271
 20
142.1270637446
 30
0.0
 11
240.3941177489
 21
142.1270637446
 31
0.0
  0
LINE
  5
11F
330
1F
100
AcDbEntity
  8
0
  6
HIDDEN
 62
     7
370
     0
100
AcDbLine
 10
240.3941177489
 20
143.496482321
 30
0.0
 11
240.3941177489
 21
142.1270637446
 31
0.0
  0
LINE
  5
120
330
1F
100
AcDbEntity
  8
0
  6
HIDDEN
 62
     7
370
     0
100
AcDbLine
 10
240.3941177489
 20
142.1270637446
 30
0.0
 11
240.6633519294
 21
141.5373130375
 31
0.0
  0
LINE
  5
121
330
1F
100
AcDbEntity
  8
0
  6
HIDDEN
 62
     7
370
     0
100
AcDbLine
 10
240.6633519294
 20
141.5373130375
 30
0.0
 11
241.7148970725
 21
139.8558734589
 31
0.0
  0
LINE
  5
122
330
1F
100
AcDbEntity
  8
0
  6
HIDDEN
 62
     7
370
     0
100
AcDbLine
 10
241.7148970725
 20
139.8558734589
 30
0.0
 11
241.9019066455
 21
139.4407550478
 31
0.0
  0
SPLINE
  5
123
330
1F
100
AcDbEntity
  8
0
  6
HIDDEN
 62
     7
370
     0
100
AcDbSpline
210
0.0
220
0.0
230
1.0
 70
     8
 71
     3
 72
     9
 73
     5
 74
     0
 42
0.00000001
 43
0.00000001
 40
0.0
 40
0.0
 40
0.0
 40
0.0
 40
0.5000512537778279
 40
1.0
 40
1.0
 40
1.0
 40
1.0
 10
241.9019066454769
 20
139.4407550477648
 30
0.0
 10
241.9274340791648
 20
139.0308010302227
 30
0.0
 10
241.9784837135673
 20
138.2109770332924
 30
0.0
 10
241.9274305903968
 20
137.3911542418257
 30
0.0
 10
241.9019066454769
 20
136.9812848651076
 30
0.0
  0
LINE
  5
124
330
1F
100
AcDbEntity
  8
0
  6
HIDDEN
 62
     7
370
     0
100
AcDbLine
 10
241.7148970725
 20
137.068898105
 30
0.0
 11
241.9019066455
 21
136.9812848651
 31
0.0
  0
LINE
  5
125
330
1F
100
AcDbEntity
  8
0
  6
HIDDEN
 62
     7
370
     0
100
AcDbLine
 10
240.6633519294
 20
138.4038465702
 30
0.0
 11
241.7148970725
 21
137.068898105
 31
0.0
  0
LINE
  5
126
330
1F
100
AcDbEntity
  8
0
  6
HIDDEN
 62
     7
370
     0
100
AcDbLine
 10
240.3941177489
 20
138.528314107
 30
0.0
 11
240.6633519294
 21
138.4038465702
 31
0.0
  0
LINE
  5
127
330
1F
100
AcDbEntity
  8
0
  6
HIDDEN
 62
     7
370
     0
100
AcDbLine
 10
240.3941177489
 20
115.8208663482
 30
0.0
 11
240.6633519294
 21
115.4181979736
 31
0.0
  0
LINE
  5
128
330
1F
100
AcDbEntity
  8
0
  6
HIDDEN
 62
     7
370
     0
100
AcDbLine
 10
240.6633519294
 20
115.4181979736
 30
0.0
 11
241.7148970725
 21
115.1980605581
 31
0.0
  0
LINE
  5
129
330
1F
100
AcDbEntity
  8
0
  6
HIDDEN
 62
     7
370
     0
100
AcDbLine
 10
241.7148970725
 20
115.1980605581
 30
0.0
 11
241.9019066455
 21
114.9146265606
 31
0.0
  0
LINE
  5
12A
330
1F
100
AcDbEntity
  8
0
  6
HIDDEN
 62
     7
370
     0
100
AcDbLine
 10
241.9019066455
 20
114.9146265606
 30
0.0
 11
241.9089548947
 21
114.7367137972
 31
0.0
  0
LINE
  5
12B
330
1F
100
AcDbEntity
  8
0
  6
HIDDEN
 62
     7
370
     0
100
AcDbLine
 10
241.918223417
 20
113.2836679834
 30
0.0
 11
241.9019066455
 21
110.4153494024
 31
0.0
  0
LINE
  5
12C
330
1F
100
AcDbEntity
  8
0
  6
HIDDEN
 62
     7
370
     0
100
AcDbLine
 10
241.7148970725
 20
110.0996515387
 30
0.0
 11
241.9019066455
 21
110.4153494024
 31
0.0
  0
LINE
  5
12D
330
1F
100
AcDbEntity
  8
0
  6
HIDDEN
 62
     7
370
     0
100
AcDbLine
 10
240.6633519294
 20
109.6859301114
 30
0.0
 11
241.7148970725
 21
110.0996515387
 31
0.0
  0
LINE
  5
12E
330
1F
100
AcDbEntity
  8
0
  6
HIDDEN
 62
     7
370
     0
100
AcDbLine
 10
240.3941177489
 20
109.2374251829
 30
0.0
 11
240.6633519294
 21
109.6859301114
 31
0.0
  0
LINE
  5
12F
330
1F
100
AcDbEntity
  8
0
  6
HIDDEN
 62
     7
370
     0
100
AcDbLine
 10
240.3941177489
 20
87.8993949526
 30
0.0
 11
240.6633519294
 21
88.0864771688
 31
0.0
  0
LINE
  5
130
330
1F
100
AcDbEntity
  8
0
  6
HIDDEN
 62
     7
370
     0
100
AcDbLine
 10
240.6633519294
 20
88.0864771688
 30
0.0
 11
241.7148970725
 21
89.5477781677
 31
0.0
  0
LINE
  5
131
330
1F
100
AcDbEntity
  8
0
  6
HIDDEN
 62
     7
370
     0
100
AcDbLine
 10
241.7148970725
 20
89.5477781677
 30
0.0
 11
241.9019066455
 21
89.6794653171
 31
0.0
  0
SPLINE
  5
132
330
1F
100
AcDbEntity
  8
0
  6
HIDDEN
 62
     7
370
     0
100
AcDbSpline
210
0.0
220
0.0
230
1.0
 70
     8
 71
     3
 72
     9
 73
     5
 74
     0
 42
0.00000001
 43
0.00000001
 40
0.0
 40
0.0
 40
0.0
 40
0.0
 40
0.5000511842784608
 40
1.0
 40
1.0
 40
1.0
 40
1.0
 10
241.9019066454769
 20
89.67946531709677
 30
0.0
 10
241.927434076799
 20
89.33946243406687
 30
0.0
 10
241.9784837135654
 20
88.65952627209082
 30
0.0
 10
241.9274305927616
 20
87.97958991409025
 30
0.0
 10
241.9019066454769
 20
87.63965653714186
 30
0.0
  0
LINE
  5
133
330
1F
100
AcDbEntity
  8
0
  6
HIDDEN
 62
     7
370
     0
100
AcDbLine
 10
241.7148970725
 20
87.2363454336
 30
0.0
 11
241.9019066455
 21
87.6396565371
 31
0.0
  0
LINE
  5
134
330
1F
100
AcDbEntity
  8
0
  6
HIDDEN
 62
     7
370
     0
100
AcDbLine
 10
240.6633519294
 20
85.487675541
 30
0.0
 11
241.7148970725
 21
87.2363454336
 31
0.0
  0
LINE
  5
135
330
1F
100
AcDbEntity
  8
0
  6
HIDDEN
 62
     7
370
     0
100
AcDbLine
 10
240.3941177489
 20
84.9147016787
 30
0.0
 11
240.6633519294
 21
85.487675541
 31
0.0
  0
LINE
  5
136
330
1F
100
AcDbEntity
  8
0
  6
HIDDEN
 62
     7
370
     0
100
AcDbLine
 10
231.037648833
 20
88.9555911207
 30
0.0
 11
231.037648833
 21
139.455592879
 31
0.0
  0
LINE
  5
137
330
1F
100
AcDbEntity
  8
0
  6
HIDDEN
 62
     7
370
     0
100
AcDbLine
 10
228.8931333186
 20
89.9555912846
 30
0.0
 11
228.8931333186
 21
138.4555927151
 31
0.0
  0
LINE
  5
138
330
1F
100
AcDbEntity
  8
0
  6
HIDDEN
 62
     7
370
     0
100
AcDbLine
 10
235.037642038
 20
89.7555916243
 30
0.0
 11
235.037642038
 21
138.6555923754
 31
0.0
  0
SPLINE
  5
139
330
1F
100
AcDbEntity
  8
0
  6
HIDDEN
 62
     7
370
     0
100
AcDbSpline
210
0.0
220
0.0
230
1.0
 70
     8
 71
     3
 72
    23
 73
    19
 74
     0
 42
0.00000001
 43
0.00000001
 40
0.0
 40
0.0
 40
0.0
 40
0.0
 40
0.5457319340903742
 40
0.7347413217979971
 40
0.7997062572681013
 40
0.831235184913886
 40
0.8423205056072481
 40
0.849841330744483
 40
0.8556524649271413
 40
0.8615060495782549
 40
0.8636068319060306
 40
0.8651152017143818
 40
0.8666290226301896
 40
0.8684136484325332
 40
0.8714438188913733
 40
0.8808509496336063
 40
0.9240310802129309
 40
1.0
 40
1.0
 40
1.0
 40
1.0
 10
236.9376443983913
 20
131.6750111663008
 30
0.0
 10
236.9530018933894
 20
132.2889379046278
 30
0.0
 10
236.9736783197986
 20
133.1154926928452
 30
0.0
 10
237.103667894169
 20
133.7631323614413
 30
0.0
 10
237.1837755815048
 20
133.9731672696306
 30
0.0
 10
237.2281383090573
 20
134.0481452286475
 30
0.0
 10
237.2570281920992
 20
134.0817455207674
 30
0.0
 10
237.2744960992496
 20
134.0976470850285
 30
0.0
 10
237.2916702756145
 20
134.1095391120677
 30
0.0
 10
237.3080508480011
 20
134.1175391653065
 30
0.0
 10
237.3244751524531
 20
134.1213398968414
 30
0.0
 10
237.3350041100315
 20
134.1223403051301
 30
0.0
 10
237.3453012585885
 20
134.1220390601952
 30
0.0
 10
237.3574389271527
 20
134.120094927962
 30
0.0
 10
237.3787490932652
 20
134.1130920638443
 30
0.0
 10
237.4297635704412
 20
134.0781994698864
 30
0.0
 10
237.4843123272271
 20
133.9896971037225
 30
0.0
 10
237.5168767308138
 20
133.9010863835434
 30
0.0
 10
237.5376396538616
 20
133.8445885711575
 30
0.0
  0
LINE
  5
13A
330
1F
100
AcDbEntity
  8
0
  6
HIDDEN
 62
     7
370
     0
100
AcDbLine
 10
236.9376443984
 20
97.9345540189
 30
0.0
 11
236.9376443984
 21
131.6750111663
 31
0.0
  0
SPLINE
  5
13B
330
1F
100
AcDbEntity
  8
0
  6
HIDDEN
 62
     7
370
     0
100
AcDbSpline
210
0.0
220
0.0
230
1.0
 70
     8
 71
     3
 72
    23
 73
    19
 74
     0
 42
0.00000001
 43
0.00000001
 40
0.0
 40
0.0
 40
0.0
 40
0.0
 40
0.0668769610229926
 40
0.0993347144172084
 40
0.1107235776779156
 40
0.1184455601581299
 40
0.1237465178499899
 40
0.1292241160532815
 40
0.1313159530435377
 40
0.1334287125888022
 40
0.1348550057008869
 40
0.1362816671197633
 40
0.1383839833609425
 40
0.1424304601982577
 40
0.1572616616781453
 40
0.216069753184299
 40
0.4504741143134123
 40
1.0
 40
1.0
 40
1.0
 40
1.0
 10
237.5376396538616
 20
95.34257153507716
 30
0.0
 10
237.520094080334
 20
95.27896021877731
 30
0.0
 10
237.4940330197087
 20
95.18447608191329
 30
0.0
 10
237.4488014857074
 20
95.08470257899641
 30
0.0
 10
237.4195294313706
 20
95.03969698313814
 30
0.0
 10
237.4023455184227
 20
95.0189523258694
 30
0.0
 10
237.3861799567794
 20
95.00388017427223
 30
0.0
 10
237.3717655767026
 20
94.99398591849913
 30
0.0
 10
237.3570306715913
 20
94.98797974189465
 30
0.0
 10
237.3463913866632
 20
94.98551519729078
 30
0.0
 10
237.3358060889044
 20
94.98502453680274
 30
0.0
 10
237.3255297483657
 20
94.98612139325455
 30
0.0
 10
237.3120552839036
 20
94.989926827153
 30
0.0
 10
237.2845862871013
 20
95.00486992212575
 30
0.0
 10
237.2276104654425
 20
95.07106737108778
 30
0.0
 10
237.1172882235383
 20
95.35067614900024
 30
0.0
 10
236.9783479981007
 20
96.19032328622849
 30
0.0
 10
236.9544186147572
 20
97.2157452671023
 30
0.0
 10
236.9376443983913
 20
97.93455401894099
 30
0.0
  0
LINE
  5
13C
330
1F
100
AcDbEntity
  8
0
  6
HIDDEN
 62
     7
370
     0
100
AcDbLine
 10
237.5376396539
 20
105.0512647861
 30
0.0
 11
237.5376396539
 21
95.3425715351
 31
0.0
  0
LINE
  5
13D
330
1F
100
AcDbEntity
  8
0
  6
HIDDEN
 62
     7
370
     0
100
AcDbLine
 10
237.5376396539
 20
133.8445885712
 30
0.0
 11
237.5376396539
 21
121.3269789377
 31
0.0
  0
LINE
  5
13E
330
1F
100
AcDbEntity
  8
0
  6
HIDDEN
 62
     7
370
     0
100
AcDbLine
 10
244.1798024537
 20
97.4555915826
 30
0.0
 11
244.1798024537
 21
130.9555924171
 31
0.0
  0
ARC
  5
13F
330
1F
100
AcDbEntity
  8
0
  6
HIDDEN
 62
     7
370
     0
100
AcDbCircle
 10
229.3464052542
 20
86.0364096819
 30
0.0
 40
3.974211361141923
100
AcDbArc
 50
87.6707394294
 51
120.4842043833
  0
SPLINE
  5
140
330
1F
100
AcDbEntity
  8
0
  6
HIDDEN
 62
     7
370
     0
100
AcDbSpline
210
0.0
220
0.0
230
1.0
 70
     8
 71
     3
 72
    24
 73
    20
 74
     0
 42
0.00000001
 43
0.00000001
 40
0.0
 40
0.0
 40
0.0
 40
0.0
 40
0.3313913672747447
 40
0.7329805803868427
 40
0.7989071103209987
 40
0.8308453941590724
 40
0.8420641121713832
 40
0.8496738915007431
 40
0.854899601408805
 40
0.8603257378409004
 40
0.8623836502963893
 40
0.8644629948054151
 40
0.8658871717357709
 40
0.8673118266089596
 40
0.8694391462080681
 40
0.8735739319116117
 40
0.8889112475114848
 40
0.9497213288481906
 40
1.0
 40
1.0
 40
1.0
 40
1.0
 10
236.9376443983913
 20
109.4752900907064
 30
0.0
 10
236.9456730727962
 20
108.7904375625747
 30
0.0
 10
236.9634311166265
 20
107.275661822707
 30
0.0
 10
237.0448902925858
 20
105.682386653302
 30
0.0
 10
237.182634130257
 20
104.7254927794025
 30
0.0
 10
237.2273936960517
 20
104.51997269922
 30
0.0
 10
237.256440780594
 20
104.4265016029022
 30
0.0
 10
237.2735478036075
 20
104.3831854974156
 30
0.0
 10
237.2896185308313
 20
104.3515611728494
 30
0.0
 10
237.3039987023269
 20
104.3307810056159
 30
0.0
 10
237.3186816031189
 20
104.3182051061848
 30
0.0
 10
237.3292631460453
 20
104.3131160299285
 30
0.0
 10
237.3397856068663
 20
104.312187635464
 30
0.0
 10
237.3500802285146
 20
104.314634708093
 30
0.0
 10
237.3636680806835
 20
104.323019507746
 30
0.0
 10
237.3916844350754
 20
104.3560626776615
 30
0.0
 10
237.4495264413105
 20
104.5019729042633
 30
0.0
 10
237.494769467098
 20
104.7411371321184
 30
0.0
 10
237.5242822117343
 20
104.9546355781789
 30
0.0
 10
237.5376396538616
 20
105.0512647860909
 30
0.0
  0
LINE
  5
141
330
1F
100
AcDbEntity
  8
0
  6
HIDDEN
 62
     7
370
     0
100
AcDbLine
 10
237.5376396539
 20
95.3425715351
 30
0.0
 11
237.5376396539
 21
93.1681866431
 31
0.0
  0
LWPOLYLINE
  5
142
330
1F
100
AcDbEntity
  8
0
  6
HIDDEN
 62
     7
370
     0
100
AcDbPolyline
 90
        8
 70
   128
 43
0.0
 10
227.1901094081
 20
89.3647211277
 10
227.0799749257
 20
89.5181863242
 10
226.9550286891
 20
89.9487982177
 10
227.0799749257
 20
90.3794101113
 10
227.4425946833
 20
90.7678703451
 10
228.0073784949
 20
91.0761548811
 10
228.7190430524
 20
91.2740851426
 10
229.5079254271
 20
91.3422858947
  0
LINE
  5
143
330
1F
100
AcDbEntity
  8
0
  6
HIDDEN
 62
     7
370
     0
100
AcDbLine
 10
229.5079254271
 20
90.0073374295
 30
0.0
 11
240.6633519294
 21
90.0073374295
 31
0.0
  0
LINE
  5
144
330
1F
100
AcDbEntity
  8
0
  6
HIDDEN
 62
     7
370
     0
100
AcDbLine
 10
237.5376396539
 20
135.1631438964
 30
0.0
 11
237.5376396539
 21
133.8445885712
 31
0.0
  0
SPLINE
  5
145
330
1F
100
AcDbEntity
  8
0
  6
HIDDEN
 62
     7
370
     0
100
AcDbSpline
210
0.0
220
0.0
230
1.0
 70
     8
 71
     3
 72
    23
 73
    19
 74
     0
 42
0.00000001
 43
0.00000001
 40
0.0
 40
0.0
 40
0.0
 40
0.0
 40
0.0668769111491076
 40
0.0993346586751694
 40
0.1107236208503462
 40
0.1184455488867405
 40
0.1237464792714878
 40
0.1292240917842922
 40
0.1313160060670701
 40
0.1334286944086866
 40
0.1348549914965303
 40
0.1362816523660392
 40
0.1383839414178061
 40
0.1424304250942603
 40
0.1572616619182389
 40
0.2160696730453171
 40
0.4504741104477405
 40
1.0
 40
1.0
 40
1.0
 40
1.0
 10
237.5376396538616
 20
121.3269789376522
 30
0.0
 10
237.5200941632804
 20
121.4605106298639
 30
0.0
 10
237.4940332210476
 20
121.6588500094833
 30
0.0
 10
237.4488011580812
 20
121.87619360551
 30
0.0
 10
237.419529643437
 20
121.9752544632457
 30
0.0
 10
237.4023454410208
 20
122.0211662674647
 30
0.0
 10
237.3861800502166
 20
122.0546398353908
 30
0.0
 10
237.3717650116295
 20
122.0766730491825
 30
0.0
 10
237.3570311923382
 20
122.0900784429548
 30
0.0
 10
237.34639110615
 20
122.0955771526103
 30
0.0
 10
237.3358061253997
 20
122.0966760198365
 30
0.0
 10
237.3255298185604
 20
122.094226800717
 30
0.0
 10
237.3120551273656
 20
122.0857279376625
 30
0.0
 10
237.2845864276675
 20
122.0524161052555
 30
0.0
 10
237.227610405849
 20
121.9054706897113
 30
0.0
 10
237.1172882042475
 20
121.2981990208244
 30
0.0
 10
236.9783480295833
 20
119.5914311563048
 30
0.0
 10
236.9544186267926
 20
117.9476112891096
 30
0.0
 10
236.9376443983913
 20
116.7953129996771
 30
0.0
  0
LWPOLYLINE
  5
146
330
1F
100
AcDbEntity
  8
0
  6
HIDDEN
 62
     7
370
     0
100
AcDbPolyline
 90
        8
 70
   128
 43
0.0
 10
227.6172511937
 20
89.5314483577
 10
227.3653023602
 20
89.8201546305
 10
227.2550337674
 20
90.2001640433
 10
227.3653023602
 20
90.580173456
 10
227.6853047969
 20
90.9229839825
 10
228.1837039353
 20
91.1950400704
 10
228.8117431762
 20
91.3697114819
 10
229.5079254271
 20
91.4298991346
  0
LINE
  5
147
330
1F
100
AcDbEntity
  8
0
  6
HIDDEN
 62
     7
370
     0
100
AcDbLine
 10
229.5079254271
 20
91.3422858947
 30
0.0
 11
241.7148970725
 21
91.3422858947
 31
0.0
  0
LINE
  5
148
330
1F
100
AcDbEntity
  8
0
  6
HIDDEN
 62
     7
370
     0
100
AcDbLine
 10
229.5079254271
 20
91.4298991346
 30
0.0
 11
241.9019066455
 21
91.4298991346
 31
0.0
  0
ARC
  5
149
330
1F
100
AcDbEntity
  8
0
  6
HIDDEN
 62
     7
370
     0
100
AcDbCircle
 10
229.0925092945
 20
143.6997453399
 30
0.0
 40
3.400508123870068
100
AcDbArc
 50
227.9403562904
 51
277.016949548
  0
LWPOLYLINE
  5
14A
330
1F
100
AcDbEntity
  8
0
  6
HIDDEN
 62
     7
370
     0
100
AcDbPolyline
 90
        9
 70
   128
 43
0.0
 10
229.5079254271
 20
138.863405832
 10
228.7190430524
 20
138.9199706399
 10
228.0073784949
 20
139.0841274196
 10
227.4425946833
 20
139.3398089939
 10
227.0799749257
 20
139.6619851374
 10
226.9550286891
 20
140.0191212678
 10
227.0799749257
 20
140.3762573981
 10
227.4425946833
 20
140.6984335416
 10
227.6396178367
 20
140.8067128294
  0
LINE
  5
14B
330
1F
100
AcDbEntity
  8
0
  6
HIDDEN
 62
     7
370
     0
100
AcDbLine
 10
229.5079254271
 20
140.3247068309
 30
0.0
 11
240.6633519294
 21
140.3247068309
 31
0.0
  0
LWPOLYLINE
  5
14C
330
1F
100
AcDbEntity
  8
0
  6
HIDDEN
 62
     7
370
     0
100
AcDbPolyline
 90
       10
 70
   128
 43
0.0
 10
229.5079254271
 20
138.7317186826
 10
228.8117431762
 20
138.7816375726
 10
228.1837039353
 20
138.9265047991
 10
227.6853047969
 20
139.1521381819
 10
227.3653023602
 20
139.4364560628
 10
227.2550337674
 20
139.7516230726
 10
227.3653023602
 20
140.0667919451
 10
227.6853047969
 20
140.3511079633
 10
228.1837039353
 20
140.5767432087
 10
228.395732558
 20
140.6385774398
  0
LINE
  5
14D
330
1F
100
AcDbEntity
  8
0
  6
HIDDEN
 62
     7
370
     0
100
AcDbLine
 10
229.5079254271
 20
138.863405832
 30
0.0
 11
241.7148970725
 21
138.863405832
 31
0.0
  0
LINE
  5
14E
330
1F
100
AcDbEntity
  8
0
  6
HIDDEN
 62
     7
370
     0
100
AcDbLine
 10
229.5079254271
 20
138.7317186826
 30
0.0
 11
241.9019066455
 21
138.7317186826
 31
0.0
  0
LWPOLYLINE
  5
14F
330
1F
100
AcDbEntity
  8
0
  6
HIDDEN
 62
     7
370
     0
100
AcDbPolyline
 90
       12
 70
   128
 43
0.0
 10
229.5079254271
 20
88.0864771688
 10
228.6992841126
 20
88.0338425421
 10
227.9561334016
 20
87.880202257
 10
227.3387186887
 20
87.6380025082
 10
226.8970333697
 20
87.3268662625
 10
226.6668551328
 20
86.9720006966
 10
226.6668551328
 20
86.6021520131
 10
226.8970333697
 20
86.2472864473
 10
227.3387186887
 20
85.9361502015
 10
227.9561334016
 20
85.6939504528
 10
228.6992841126
 20
85.5403101676
 10
229.5079254271
 20
85.487675541
  0
LWPOLYLINE
  5
150
330
1F
100
AcDbEntity
  8
0
  6
HIDDEN
 62
     7
370
     0
100
AcDbPolyline
 90
       11
 70
   128
 43
0.0
 10
229.5079254271
 20
89.5477781677
 10
228.7190430524
 20
89.4912133598
 10
228.0073784949
 20
89.3270565802
 10
227.4425946833
 20
89.0713750058
 10
227.0799749257
 20
88.7491988623
 10
226.9550286891
 20
88.3920627319
 10
227.0799749257
 20
88.0349266016
 10
227.4425946833
 20
87.7127504581
 10
228.0073784949
 20
87.4570688837
 10
228.7190430524
 20
87.2929102415
 10
229.5079254271
 20
87.2363454336
  0
LWPOLYLINE
  5
151
330
1F
100
AcDbEntity
  8
0
  6
HIDDEN
 62
     7
370
     0
100
AcDbPolyline
 90
       11
 70
   128
 43
0.0
 10
229.5079254271
 20
89.6794653171
 10
228.8117431762
 20
89.6295464271
 10
228.1837039353
 20
89.4846792006
 10
227.6853047969
 20
89.2590458178
 10
227.3653023602
 20
88.9747279369
 10
227.2550337674
 20
88.6595609271
 10
227.3653023602
 20
88.3443920546
 10
227.6853047969
 20
88.0600760364
 10
228.1837039353
 20
87.834440791
 10
228.8117431762
 20
87.6895735645
 10
229.5079254271
 20
87.6396565371
  0
LINE
  5
152
330
1F
100
AcDbEntity
  8
0
  6
HIDDEN
 62
     7
370
     0
100
AcDbLine
 10
229.5079254271
 20
87.2363454336
 30
0.0
 11
241.7148970725
 21
87.2363454336
 31
0.0
  0
LINE
  5
153
330
1F
100
AcDbEntity
  8
0
  6
HIDDEN
 62
     7
370
     0
100
AcDbLine
 10
229.5079254271
 20
87.6396565371
 30
0.0
 11
241.9019066455
 21
87.6396565371
 31
0.0
  0
LINE
  5
154
330
1F
100
AcDbEntity
  8
0
  6
HIDDEN
 62
     7
370
     0
100
AcDbLine
 10
229.5079254271
 20
85.487675541
 30
0.0
 11
240.6633519294
 21
85.487675541
 31
0.0
  0
LWPOLYLINE
  5
155
330
1F
100
AcDbEntity
  8
0
  6
HIDDEN
 62
     7
370
     0
100
AcDbPolyline
 90
       11
 70
   128
 43
0.0
 10
229.5079254271
 20
139.8558734589
 10
228.7190430524
 20
139.7876708442
 10
228.0073784949
 20
139.5897405827
 10
227.4425946833
 20
139.2814579093
 10
227.0799749257
 20
138.8929976755
 10
226.9550286891
 20
138.462385782
 10
227.0799749257
 20
138.0317738884
 10
227.4425946833
 20
137.6433136546
 10
228.0073784949
 20
137.3350291186
 10
228.7190430524
 20
137.1370988571
 10
229.5079254271
 20
137.068898105
  0
LWPOLYLINE
  5
156
330
1F
100
AcDbEntity
  8
0
  6
HIDDEN
 62
     7
370
     0
100
AcDbPolyline
 90
       11
 70
   128
 43
0.0
 10
229.5079254271
 20
139.4407550478
 10
228.8117431762
 20
139.3805673951
 10
228.1837039353
 20
139.2058959835
 10
227.6853047969
 20
138.9338398957
 10
227.3653023602
 20
138.5910293692
 10
227.2550337674
 20
138.2110199564
 10
227.3653023602
 20
137.8310105437
 10
227.6853047969
 20
137.4882000172
 10
228.1837039353
 20
137.2161439293
 10
228.8117431762
 20
137.0414725178
 10
229.5079254271
 20
136.9812848651
  0
LWPOLYLINE
  5
157
330
1F
100
AcDbEntity
  8
0
  6
HIDDEN
 62
     7
370
     0
100
AcDbPolyline
 90
       12
 70
   128
 43
0.0
 10
229.5079254271
 20
141.5373130375
 10
228.6992841126
 20
141.473848992
 10
227.9561334016
 20
141.2885996186
 10
227.3387186887
 20
140.9965722495
 10
226.8970333697
 20
140.6214243406
 10
226.6668551328
 20
140.1935486728
 10
226.6668551328
 20
139.7476109349
 10
226.8970333697
 20
139.3197352671
 10
227.3387186887
 20
138.9445873582
 10
227.9561334016
 20
138.6525599891
 10
228.6992841126
 20
138.4673106157
 10
229.5079254271
 20
138.4038465702
  0
LINE
  5
158
330
1F
100
AcDbEntity
  8
0
  6
HIDDEN
 62
     7
370
     0
100
AcDbLine
 10
229.5079254271
 20
139.4407550478
 30
0.0
 11
241.9019066455
 21
139.4407550478
 31
0.0
  0
LINE
  5
159
330
1F
100
AcDbEntity
  8
0
  6
HIDDEN
 62
     7
370
     0
100
AcDbLine
 10
229.5079254271
 20
139.8558734589
 30
0.0
 11
241.7148970725
 21
139.8558734589
 31
0.0
  0
LINE
  5
15A
330
1F
100
AcDbEntity
  8
0
  6
HIDDEN
 62
     7
370
     0
100
AcDbLine
 10
229.5079254271
 20
141.5373130375
 30
0.0
 11
240.6633519294
 21
141.5373130375
 31
0.0
  0
LINE
  5
15B
330
1F
100
AcDbEntity
  8
0
  6
HIDDEN
 62
     7
370
     0
100
AcDbLine
 10
229.5079254271
 20
89.5477781677
 30
0.0
 11
241.7148970725
 21
89.5477781677
 31
0.0
  0
LINE
  5
15C
330
1F
100
AcDbEntity
  8
0
  6
HIDDEN
 62
     7
370
     0
100
AcDbLine
 10
229.5079254271
 20
89.6794653171
 30
0.0
 11
241.9019066455
 21
89.6794653171
 31
0.0
  0
LINE
  5
15D
330
1F
100
AcDbEntity
  8
0
  6
HIDDEN
 62
     7
370
     0
100
AcDbLine
 10
229.5079254271
 20
88.0864771688
 30
0.0
 11
240.6633519294
 21
88.0864771688
 31
0.0
  0
LINE
  5
15E
330
1F
100
AcDbEntity
  8
0
  6
HIDDEN
 62
     7
370
     0
100
AcDbLine
 10
229.5079254271
 20
137.068898105
 30
0.0
 11
241.7148970725
 21
137.068898105
 31
0.0
  0
LINE
  5
15F
330
1F
100
AcDbEntity
  8
0
  6
HIDDEN
 62
     7
370
     0
100
AcDbLine
 10
229.5079254271
 20
136.9812848651
 30
0.0
 11
241.9019066455
 21
136.9812848651
 31
0.0
  0
LINE
  5
160
330
1F
100
AcDbEntity
  8
0
  6
HIDDEN
 62
     7
370
     0
100
AcDbLine
 10
229.5079254271
 20
138.4038465702
 30
0.0
 11
240.6633519294
 21
138.4038465702
 31
0.0
  0
LINE
  5
161
330
1F
100
AcDbEntity
  8
0
  6
HIDDEN
 62
     7
370
     0
100
AcDbLine
 10
229.5079254271
 20
110.4153494024
 30
0.0
 11
241.9019066455
 21
110.4153494024
 31
0.0
  0
ARC
  5
162
330
1F
100
AcDbEntity
  8
0
  6
HIDDEN
 62
     7
370
     0
100
AcDbCircle
 10
229.5055647523
 20
112.6649879815
 30
0.0
 40
2.249639817682787
100
AcDbArc
 50
89.9398762731
 51
270.0601237269
  0
LINE
  5
163
330
1F
100
AcDbEntity
  8
0
  6
HIDDEN
 62
     7
370
     0
100
AcDbLine
 10
229.5079254271
 20
114.9146265606
 30
0.0
 11
241.9019066455
 21
114.9146265606
 31
0.0
  0
ARC
  5
164
330
1F
100
AcDbEntity
  8
0
  6
HIDDEN
 62
     7
370
     0
100
AcDbCircle
 10
229.5052551896
 20
112.6488560484
 30
0.0
 40
2.549205908213484
100
AcDbArc
 50
89.9399839104
 51
270.0600160896
  0
LINE
  5
165
330
1F
100
AcDbEntity
  8
0
  6
HIDDEN
 62
     7
370
     0
100
AcDbLine
 10
229.5079254271
 20
110.0996515387
 30
0.0
 11
241.7148970725
 21
110.0996515387
 31
0.0
  0
LINE
  5
166
330
1F
100
AcDbEntity
  8
0
  6
HIDDEN
 62
     7
370
     0
100
AcDbLine
 10
229.5079254271
 20
115.1980605581
 30
0.0
 11
241.7148970725
 21
115.1980605581
 31
0.0
  0
ARC
  5
167
330
1F
100
AcDbEntity
  8
0
  6
HIDDEN
 62
     7
370
     0
100
AcDbCircle
 10
229.5047678625
 20
112.5520640425
 30
0.0
 40
2.866135670406474
100
AcDbArc
 50
89.936878368
 51
270.063121632
  0
LINE
  5
168
330
1F
100
AcDbEntity
  8
0
  6
HIDDEN
 62
     7
370
     0
100
AcDbLine
 10
229.5079254271
 20
109.6859301114
 30
0.0
 11
240.6633519294
 21
109.6859301114
 31
0.0
  0
LINE
  5
169
330
1F
100
AcDbEntity
  8
0
  6
HIDDEN
 62
     7
370
     0
100
AcDbLine
 10
229.5079254271
 20
115.4181979736
 30
0.0
 11
240.6633519294
 21
115.4181979736
 31
0.0
  0
LINE
  5
16A
330
1F
100
AcDbEntity
  8
0
  6
HIDDEN
 62
     7
370
     0
100
AcDbLine
 10
99.245711668
 20
138.664281615
 30
0.0
 11
99.245711668
 21
134.055592739
 31
0.0
  0
ARC
  5
16B
330
1F
100
AcDbEntity
  8
0
  6
HIDDEN
 62
     7
370
     0
100
AcDbCircle
 10
92.9186174434
 20
126.7020462386
 30
0.0
 40
3.67728921814173
100
AcDbArc
 50
265.6178958577
 51
12.4383908852
  0
ARC
  5
16C
330
1F
100
AcDbEntity
  8
0
  6
HIDDEN
 62
     7
370
     0
100
AcDbCircle
 10
92.353554138
 20
126.6944671924
 30
0.0
 40
3.669972388520374
100
AcDbArc
 50
166.0291549965
 51
274.4396747729
  0
LINE
  5
16D
330
1F
100
AcDbEntity
  8
0
  6
HIDDEN
 62
     7
370
     0
100
AcDbLine
 10
228.1376444461
 20
114.2055919999
 30
0.0
 11
228.1376444461
 21
89.2055916273
 31
0.0
  0
LINE
  5
16E
330
1F
100
AcDbEntity
  8
0
  6
HIDDEN
 62
     7
370
     0
100
AcDbLine
 10
228.1376444461
 20
139.2055923724
 30
0.0
 11
228.1376444461
 21
114.2055919999
 31
0.0
  0
LINE
  5
16F
330
1F
100
AcDbEntity
  8
0
  6
HIDDEN
 62
     7
370
     0
100
AcDbLine
 10
229.6376400353
 20
114.2055919999
 30
0.0
 11
229.6376400353
 21
90.7055928045
 31
0.0
  0
LINE
  5
170
330
1F
100
AcDbEntity
  8
0
  6
HIDDEN
 62
     7
370
     0
100
AcDbLine
 10
229.6376400353
 20
137.7055911952
 30
0.0
 11
229.6376400353
 21
114.2055919999
 31
0.0
  0
LINE
  5
171
330
1F
100
AcDbEntity
  8
0
  6
HIDDEN
 62
     7
370
     0
100
AcDbLine
 10
72.6328086765
 20
90.68099285
 30
0.0
 11
72.0987361582
 21
90.6263856822
 31
0.0
  0
LINE
  5
172
330
1F
100
AcDbEntity
  8
0
  6
HIDDEN
 62
     7
370
     0
100
AcDbLine
 10
71.8606193276
 20
137.8089642757
 30
0.0
 11
72.6327164756
 21
137.7301743859
 31
0.0
  0
SPLINE
  5
173
330
1F
100
AcDbEntity
  8
0
  6
HIDDEN
 62
     7
370
     0
100
AcDbSpline
210
0.0
220
0.0
230
1.0
 70
     8
 71
     3
 72
    15
 73
    11
 74
     0
 42
0.00000001
 43
0.00000001
 40
0.0
 40
0.0
 40
0.0
 40
0.0
 40
0.1409172263352446
 40
0.281889861653346
 40
0.4212989542022905
 40
0.5593768841673977
 40
0.6988856533029646
 40
0.840367202775075
 40
0.9813164473602943
 40
1.0
 40
1.0
 40
1.0
 40
1.0
 10
78.39264624807247
 20
94.36806353267676
 30
0.0
 10
78.07660452845978
 20
94.40841685445143
 30
0.0
 10
77.4443968208914
 20
94.48913936502126
 30
0.0
 10
76.21023364857719
 20
94.56569731140402
 30
0.0
 10
74.93951152476153
 20
94.56101924338908
 30
0.0
 10
73.75095205822507
 20
94.48022277816587
 30
0.0
 10
72.75782937893464
 20
94.35582823131163
 30
0.0
 10
72.11842084762088
 20
94.24942128455041
 30
0.0
 10
71.83740085926748
 20
94.19634422524085
 30
0.0
 10
71.90396142775627
 20
94.20859871720276
 30
0.0
 10
71.91175173091897
 20
94.2100329929257
 30
0.0
  0
SPLINE
  5
174
330
1F
100
AcDbEntity
  8
0
  6
HIDDEN
 62
     7
370
     0
100
AcDbSpline
210
0.0
220
0.0
230
1.0
 70
     8
 71
     3
 72
    15
 73
    11
 74
     0
 42
0.00000001
 43
0.00000001
 40
0.0
 40
0.0
 40
0.0
 40
0.0
 40
0.1201202497733958
 40
0.2584739452442804
 40
0.3987302041697883
 40
0.5404022600041716
 40
0.680739511736143
 40
0.8190355942651634
 40
0.9577823154231621
 40
1.0
 40
1.0
 40
1.0
 40
1.0
 10
71.91175173091897
 20
134.2011510067845
 30
0.0
 10
71.93246097972244
 20
134.1971265027102
 30
0.0
 10
71.97702300195746
 20
134.1884666019216
 30
0.0
 10
72.53946247168588
 20
134.0891736832104
 30
0.0
 10
73.43292472713314
 20
133.9652576714991
 30
0.0
 10
74.59190355098531
 20
133.8655462959655
 30
0.0
 10
75.86494041980504
 20
133.8384092382674
 30
0.0
 10
77.09922576653216
 20
133.8937466003975
 30
0.0
 10
77.92718884422801
 20
133.9802263361889
 30
0.0
 10
78.30459915687435
 20
134.0312232553261
 30
0.0
 10
78.39264624807247
 20
134.0431204670334
 30
0.0
  0
SPLINE
  5
175
330
1F
100
AcDbEntity
  8
0
  6
HIDDEN
 62
     7
370
     0
100
AcDbSpline
210
0.0
220
0.0
230
1.0
 70
     8
 71
     3
 72
    10
 73
     6
 74
     0
 42
0.00000001
 43
0.00000001
 40
0.0
 40
0.0
 40
0.0
 40
0.0
 40
0.4474901861358095
 40
0.8949637174003616
 40
1.0
 40
1.0
 40
1.0
 40
1.0
 10
78.39264624807247
 20
134.0431204670334
 30
0.0
 10
78.63935650037482
 20
134.072632325826
 30
0.0
 10
79.13276782281729
 20
134.1316549450269
 30
0.0
 10
79.42178543716939
 20
134.1455988242131
 30
0.0
 10
79.36137600882276
 20
134.1417022580478
 30
0.0
 10
79.34989172089108
 20
134.1409614914322
 30
0.0
  0
SPLINE
  5
176
330
1F
100
AcDbEntity
  8
0
  6
HIDDEN
 62
     7
370
     0
100
AcDbSpline
210
0.0
220
0.0
230
1.0
 70
     8
 71
     3
 72
    10
 73
     6
 74
     0
 42
0.00000001
 43
0.00000001
 40
0.0
 40
0.0
 40
0.0
 40
0.0
 40
0.3454135788725176
 40
0.7966780504538238
 40
1.0
 40
1.0
 40
1.0
 40
1.0
 10
79.3498982401491
 20
94.2702206456328
 30
0.0
 10
79.34033802973457
 20
94.27077614522622
 30
0.0
 10
79.31828791282881
 20
94.27205737549677
 30
0.0
 10
78.90137217651238
 20
94.30201452067291
 30
0.0
 10
78.51321290890814
 20
94.35241009654618
 30
0.0
 10
78.39264624807247
 20
94.36806353267676
 30
0.0
  0
LINE
  5
177
330
1F
100
AcDbEntity
  8
0
  6
HIDDEN
 62
     7
370
     0
100
AcDbLine
 10
195.8396383287
 20
114.2055919999
 30
0.0
 11
195.8396383287
 21
98.9555918285
 31
0.0
  0
LINE
  5
178
330
1F
100
AcDbEntity
  8
0
  6
HIDDEN
 62
     7
370
     0
100
AcDbLine
 10
195.8396383287
 20
129.4555921712
 30
0.0
 11
195.8396383287
 21
114.2055919999
 31
0.0
  0
LINE
  5
179
330
1F
100
AcDbEntity
  8
0
  6
HIDDEN
 62
     7
370
     0
100
AcDbLine
 10
65.6416197034
 20
97.205591076
 30
0.0
 11
65.6416197034
 21
131.2055929237
 31
0.0
  0
LWPOLYLINE
  5
17A
330
1F
100
AcDbEntity
  8
0
  6
HIDDEN
 62
     7
370
     0
100
AcDbPolyline
 90
       12
 70
   128
 43
0.0
 10
92.6376445876
 20
136.1511951917
 10
93.5601074906
 20
136.2051038676
 10
94.432840562
 20
136.3639297568
 10
95.2087943168
 20
136.6191046917
 10
95.8461365389
 20
136.9568767631
 10
96.3105088757
 20
137.3590348893
 10
96.576875514
 20
137.8038978809
 10
96.6308763908
 20
138.2674841815
 10
96.4696020545
 20
138.7248008185
 10
96.10174547
 20
139.1511938208
 10
95.5471391516
 20
139.5236781472
 10
95.0106768595
 20
139.7612194204
  0
LWPOLYLINE
  5
17B
330
1F
100
AcDbEntity
  8
0
  6
HIDDEN
 62
     7
370
     0
100
AcDbPolyline
 90
       12
 70
   128
 43
0.0
 10
90.269668466
 20
139.7630783403
 10
89.728149558
 20
139.5236781472
 10
89.1735427739
 20
139.1511938208
 10
88.8056861894
 20
138.7248008185
 10
88.6444113875
 20
138.2674841815
 10
88.6984131956
 20
137.8038978809
 10
88.9647798339
 20
137.3590348893
 10
89.4291512394
 20
136.9568767631
 10
90.0664939271
 20
136.6191046917
 10
90.8424476819
 20
136.3639297568
 10
91.7151807534
 20
136.2051038676
 10
92.6376445876
 20
136.1511951917
  0
LINE
  5
17C
330
1F
100
AcDbEntity
  8
0
  6
HIDDEN
 62
     7
370
     0
100
AcDbLine
 10
92.2974701697
 20
97.205591076
 30
0.0
 11
92.2974701697
 21
131.2055929237
 31
0.0
  0
LINE
  5
17D
330
1F
100
AcDbEntity
  8
0
  6
HIDDEN
 62
     7
370
     0
100
AcDbLine
 10
94.5876440691
 20
98.4805921697
 30
0.0
 11
94.5876440691
 21
129.93059183
 31
0.0
  0
SPLINE
  5
17E
330
1F
100
AcDbEntity
  8
0
  6
HIDDEN
 62
     7
370
     0
100
AcDbSpline
210
0.0
220
0.0
230
1.0
 70
     8
 71
     3
 72
    18
 73
    14
 74
     0
 42
0.00000001
 43
0.00000001
 40
0.0
 40
0.0
 40
0.0
 40
0.0
 40
0.2500000000000033
 40
0.2500000000000033
 40
0.3750000000000029
 40
0.3750000000000029
 40
0.5000000000000026
 40
0.5000000000000026
 40
0.6250000000000022
 40
0.6250000000000022
 40
0.7500000000000018
 40
0.7500000000000018
 40
1.0
 40
1.0
 40
1.0
 40
1.0
 10
58.83764420765647
 20
130.4931056222592
 30
0.0
 10
58.83764420765645
 20
130.438631101707
 30
0.0
 10
58.80273351626428
 20
130.3822500423545
 30
0.0
 10
58.70072421493123
 20
130.298173201501
 30
0.0
 10
58.65908786025312
 20
130.2708394975101
 30
0.0
 10
58.56068206476438
 20
130.2178855819112
 30
0.0
 10
58.50313885306011
 20
130.191998228194
 30
0.0
 10
58.37584067948715
 20
130.1442206833607
 30
0.0
 10
58.30625337472968
 20
130.1222727651829
 30
0.0
 10
58.15481912957473
 20
130.0828402002701
 30
0.0
 10
58.07213522648077
 20
130.0652839510443
 30
0.0
 10
57.81602376444273
 20
130.0228451856237
 30
0.0
 10
57.62810876055474
 20
130.0070824358868
 30
0.0
 10
57.43764420765645
 20
130.0070824358868
 30
0.0
  0
LINE
  5
17F
330
1F
100
AcDbEntity
  8
0
  6
HIDDEN
 62
     7
370
     0
100
AcDbLine
 10
57.437643847
 20
130.0070832157
 30
0.0
 11
53.8876433583
 21
130.0070832157
 31
0.0
  0
LINE
  5
180
330
1F
100
AcDbEntity
  8
0
  6
HIDDEN
 62
     7
370
     0
100
AcDbLine
 10
53.8876433583
 20
98.404100784
 30
0.0
 11
61.4376445027
 21
98.404100784
 31
0.0
  0
SPLINE
  5
181
330
1F
100
AcDbEntity
  8
0
  6
HIDDEN
 62
     7
370
     0
100
AcDbSpline
210
0.0
220
0.0
230
1.0
 70
     8
 71
     3
 72
    16
 73
    12
 74
     0
 42
0.00000001
 43
0.00000001
 40
0.0
 40
0.0
 40
0.0
 40
0.0
 40
0.124999999999998
 40
0.124999999999998
 40
0.249999999999996
 40
0.249999999999996
 40
0.4999999999999973
 40
0.4999999999999973
 40
0.7499999999999987
 40
0.7499999999999987
 40
1.0
 40
1.0
 40
1.0
 40
1.0
 10
61.43764420765646
 20
98.40410156382345
 30
0.0
 10
61.53276596232229
 20
98.40410156382345
 30
0.0
 10
61.62609603105036
 20
98.40028573043064
 30
0.0
 10
61.80935779178836
 20
98.38551517770084
 30
0.0
 10
61.90023550734537
 20
98.37435712972525
 30
0.0
 10
62.15703720486511
 20
98.33188585958352
 30
0.0
 10
62.31210456973709
 20
98.29083966238072
 30
0.0
 10
62.56585103129172
 20
98.19569354579883
 30
0.0
 10
62.66672148295958
 20
98.14093081171727
 30
0.0
 10
62.80196789765442
 20
98.02966968781338
 30
0.0
 10
62.83764420765646
 20
97.97249995048469
 30
0.0
 10
62.83764420765646
 20
97.91807837745098
 30
0.0
  0
LINE
  5
182
330
1F
100
AcDbEntity
  8
0
  6
HIDDEN
 62
     7
370
     0
100
AcDbLine
 10
53.8876433583
 20
98.404100784
 30
0.0
 11
53.8876433583
 21
130.0070832157
 31
0.0
  0
LINE
  5
183
330
1F
100
AcDbEntity
  8
0
  6
HIDDEN
 62
     7
370
     0
100
AcDbLine
 10
187.0911442401
 20
114.2055919999
 30
0.0
 11
187.0911442401
 21
108.7055920297
 31
0.0
  0
LINE
  5
184
330
1F
100
AcDbEntity
  8
0
  6
HIDDEN
 62
     7
370
     0
100
AcDbLine
 10
187.0911442401
 20
119.7055919701
 30
0.0
 11
187.0911442401
 21
114.2055919999
 31
0.0
  0
LINE
  5
185
330
1F
100
AcDbEntity
  8
0
  6
HIDDEN
 62
     7
370
     0
100
AcDbLine
 10
191.6376449825
 20
114.2055919999
 30
0.0
 11
191.6376449825
 21
98.9555918285
 31
0.0
  0
LINE
  5
186
330
1F
100
AcDbEntity
  8
0
  6
HIDDEN
 62
     7
370
     0
100
AcDbLine
 10
191.6376449825
 20
129.4555921712
 30
0.0
 11
191.6376449825
 21
114.2055919999
 31
0.0
  0
LINE
  5
187
330
1F
100
AcDbEntity
  8
0
  6
HIDDEN
 62
     7
370
     0
100
AcDbLine
 10
53.8876433583
 20
96.2155914539
 30
0.0
 11
53.8876433583
 21
93.3356533432
 31
0.0
  0
LINE
  5
188
330
1F
100
AcDbEntity
  8
0
  6
HIDDEN
 62
     7
370
     0
100
AcDbLine
 10
62.8376439871
 20
96.2155914539
 30
0.0
 11
62.8376439871
 21
92.2418540948
 31
0.0
  0
LINE
  5
189
330
1F
100
AcDbEntity
  8
0
  6
HIDDEN
 62
     7
370
     0
100
AcDbLine
 10
53.8876433583
 20
132.1955925458
 30
0.0
 11
53.8876433583
 21
135.0755306565
 31
0.0
  0
LINE
  5
18A
330
1F
100
AcDbEntity
  8
0
  6
HIDDEN
 62
     7
370
     0
100
AcDbLine
 10
58.8376433315
 20
132.1955925458
 30
0.0
 11
58.8376433315
 21
136.0496996575
 31
0.0
  0
LINE
  5
18B
330
1F
100
AcDbEntity
  8
0
  6
HIDDEN
 62
     7
370
     0
100
AcDbLine
 10
103.9376449497
 20
104.7055923053
 30
0.0
 11
103.9376449497
 21
123.7055916944
 31
0.0
  0
LINE
  5
18C
330
1F
100
AcDbEntity
  8
0
  6
HIDDEN
 62
     7
370
     0
100
AcDbLine
 10
106.4376444282
 20
104.7055923053
 30
0.0
 11
106.4376444282
 21
123.7055916944
 31
0.0
  0
LINE
  5
18D
330
1F
100
AcDbEntity
  8
0
  6
HIDDEN
 62
     7
370
     0
100
AcDbLine
 10
95.087644151
 20
105.7055915379
 30
0.0
 11
95.087644151
 21
122.7055924618
 31
0.0
  0
LINE
  5
18E
330
1F
100
AcDbEntity
  8
0
  6
HIDDEN
 62
     7
370
     0
100
AcDbLine
 10
110.5876438977
 20
87.8055921429
 30
0.0
 11
104.4499692233
 21
87.8055921429
 31
0.0
  0
LINE
  5
18F
330
1F
100
AcDbEntity
  8
0
  6
HIDDEN
 62
     7
370
     0
100
AcDbLine
 10
100.8253195049
 20
87.8055921429
 30
0.0
 11
97.5876445608
 21
87.8055921429
 31
0.0
  0
LINE
  5
190
330
1F
100
AcDbEntity
  8
0
  6
HIDDEN
 62
     7
370
     0
100
AcDbLine
 10
89.5876441808
 20
82.7214686805
 30
0.0
 11
89.5876441808
 21
87.8055921429
 31
0.0
  0
LINE
  5
191
330
1F
100
AcDbEntity
  8
0
  6
HIDDEN
 62
     7
370
     0
100
AcDbLine
 10
97.5876445608
 20
87.8055921429
 30
0.0
 11
89.5876441808
 21
87.8055921429
 31
0.0
  0
LINE
  5
192
330
1F
100
AcDbEntity
  8
0
  6
HIDDEN
 62
     7
370
     0
100
AcDbLine
 10
110.5876438977
 20
140.6055918568
 30
0.0
 11
104.1533467086
 21
140.6055918568
 31
0.0
  0
LINE
  5
193
330
1F
100
AcDbEntity
  8
0
  6
HIDDEN
 62
     7
370
     0
100
AcDbLine
 10
101.1219420196
 20
140.6055918568
 30
0.0
 11
97.5876445608
 21
140.6055918568
 31
0.0
  0
LINE
  5
194
330
1F
100
AcDbEntity
  8
0
  6
HIDDEN
 62
     7
370
     0
100
AcDbLine
 10
97.5876445608
 20
140.6055918568
 30
0.0
 11
89.5876441808
 21
140.6055918568
 31
0.0
  0
ELLIPSE
  5
195
330
1F
100
AcDbEntity
  8
0
  6
HIDDEN
 62
     7
370
     0
100
AcDbEllipse
 10
48.5702123433
 20
114.2055919999
 30
0.0
 11
20.07002071827083
 21
-1.421085471520200E-14
 31
0.0
210
0.0
220
0.0
230
1.0
 40
0.8164965809
 41
4.921555463185717
 42
4.980534842098416
  0
ELLIPSE
  5
196
330
1F
100
AcDbEntity
  8
0
  6
HIDDEN
 62
     7
370
     0
100
AcDbEllipse
 10
48.5702123433
 20
114.2055919999
 30
0.0
 11
20.07002071827082
 21
-1.421085471520200E-14
 31
0.0
210
0.0
220
0.0
230
1.0
 40
0.8164965809
 41
1.302650465081184
 42
1.361629843993883
  0
LINE
  5
197
330
1F
100
AcDbEntity
  8
0
  6
HIDDEN
 62
     7
370
     0
100
AcDbLine
 10
62.8376439871
 20
96.2155914539
 30
0.0
 11
62.8376439871
 21
97.9180789226
 31
0.0
  0
LINE
  5
198
330
1F
100
AcDbEntity
  8
0
  6
HIDDEN
 62
     7
370
     0
100
AcDbLine
 10
53.8876433583
 20
96.2155914539
 30
0.0
 11
53.8876433583
 21
98.404100784
 31
0.0
  0
LINE
  5
199
330
1F
100
AcDbEntity
  8
0
  6
HIDDEN
 62
     7
370
     0
100
AcDbLine
 10
58.8376433315
 20
132.1955925458
 30
0.0
 11
58.8376433315
 21
130.4931050771
 31
0.0
  0
LINE
  5
19A
330
1F
100
AcDbEntity
  8
0
  6
HIDDEN
 62
     7
370
     0
100
AcDbLine
 10
53.8876433583
 20
132.1955925458
 30
0.0
 11
53.8876433583
 21
130.0070832157
 31
0.0
  0
LINE
  5
19B
330
1F
100
AcDbEntity
  8
0
  6
HIDDEN
 62
     7
370
     0
100
AcDbLine
 10
159.6376471879
 20
114.2055919999
 30
0.0
 11
159.6376471879
 21
108.7055920297
 31
0.0
  0
LINE
  5
19C
330
1F
100
AcDbEntity
  8
0
  6
HIDDEN
 62
     7
370
     0
100
AcDbLine
 10
159.6376471879
 20
119.7055919701
 30
0.0
 11
159.6376471879
 21
114.2055919999
 31
0.0
  0
LINE
  5
19D
330
1F
100
AcDbEntity
  8
0
  6
HIDDEN
 62
     7
370
     0
100
AcDbLine
 10
158.8565283181
 20
114.2055919999
 30
0.0
 11
158.8565283181
 21
110.0055921496
 31
0.0
  0
LINE
  5
19E
330
1F
100
AcDbEntity
  8
0
  6
HIDDEN
 62
     7
370
     0
100
AcDbLine
 10
158.8565283181
 20
118.4055918501
 30
0.0
 11
158.8565283181
 21
114.2055919999
 31
0.0
  0
SPLINE
  5
19F
330
1F
100
AcDbEntity
  8
0
  6
HIDDEN
 62
     7
370
     0
100
AcDbSpline
210
0.0
220
0.0
230
1.0
 70
     8
 71
     3
 72
    20
 73
    16
 74
     0
 42
0.00000001
 43
0.00000001
 40
0.0
 40
0.0
 40
0.0
 40
0.0
 40
0.1119603643778883
 40
0.1774778732364524
 40
0.2490974838777652
 40
0.3298431078205349
 40
0.3986132903736325
 40
0.4998904413655346
 40
0.6138518795039937
 40
0.6790158467905295
 40
0.749540351778822
 40
0.8296834878791812
 40
0.8981249278243038
 40
0.9995327810650393
 40
1.0
 40
1.0
 40
1.0
 40
1.0
 10
79.38648478183158
 20
90.60559856232649
 30
0.0
 10
79.3431602418131
 20
90.61902826400129
 30
0.0
 10
79.2744828374106
 20
90.64031682361511
 30
0.0
 10
78.82929789184874
 20
90.74362682813943
 30
0.0
 10
78.3027366628272
 20
90.85693144268662
 30
0.0
 10
77.61730987811521
 20
90.97986263721603
 30
0.0
 10
76.72399139720059
 20
91.10189865980038
 30
0.0
 10
75.61063009158826
 20
91.21963275497447
 30
0.0
 10
74.49985572423932
 20
91.23160836207926
 30
0.0
 10
73.61510956693807
 20
91.2045499787633
 30
0.0
 10
72.94791561723336
 20
91.15661420770766
 30
0.0
 10
72.40664747354674
 20
91.10033259292932
 30
0.0
 10
72.01906681634466
 20
91.05521044452274
 30
0.0
 10
71.82514856852013
 20
91.01646260597512
 30
0.0
 10
71.88823892652115
 20
91.02707394451151
 30
0.0
 10
71.88852827119835
 20
91.02712261017805
 30
0.0
  0
LINE
  5
1A0
330
1F
100
AcDbEntity
  8
0
  6
HIDDEN
 62
     7
370
     0
100
AcDbLine
 10
72.7976928191
 20
91.1379332328
 30
0.0
 11
72.9815135436
 21
91.1561201
 31
0.0
  0
LINE
  5
1A1
330
1F
100
AcDbEntity
  8
0
  6
HIDDEN
 62
     7
370
     0
100
AcDbLine
 10
72.9815107496
 20
137.2549949819
 30
0.0
 11
72.8074791567
 21
137.2722002351
 31
0.0
  0
SPLINE
  5
1A2
330
1F
100
AcDbEntity
  8
0
  6
HIDDEN
 62
     7
370
     0
100
AcDbSpline
210
0.0
220
0.0
230
1.0
 70
     8
 71
     3
 72
    20
 73
    16
 74
     0
 42
0.00000001
 43
0.00000001
 40
0.0
 40
0.0
 40
0.0
 40
0.0
 40
0.0004882069680911
 40
0.1018316934259301
 40
0.1702470737642088
 40
0.2503682611077764
 40
0.3209559624697701
 40
0.3861807722425712
 40
0.5002543833052276
 40
0.6012236327472428
 40
0.6697671629525405
 40
0.7502388828255369
 40
0.8220479516770123
 40
0.8877196143130994
 40
1.0
 40
1.0
 40
1.0
 40
1.0
 10
71.88856179881104
 20
137.3839943343068
 30
0.0
 10
71.88825868056418
 20
137.3840455060298
 30
0.0
 10
71.82503335523263
 20
137.3947190595585
 30
0.0
 10
72.01822049678006
 20
137.3559549217086
 30
0.0
 10
72.40516881597264
 20
137.310904295618
 30
0.0
 10
72.9461708551768
 20
137.2546498423051
 30
0.0
 10
73.61366822347624
 20
137.2067145421314
 30
0.0
 10
74.49949431943105
 20
137.1796418343322
 30
0.0
 10
75.61030120092602
 20
137.1914686479985
 30
0.0
 10
76.72237338018617
 20
137.3089142870667
 30
0.0
 10
77.61347481049997
 20
137.4306203597781
 30
0.0
 10
78.29896076792318
 20
137.5534404886059
 30
0.0
 10
78.82695190086159
 20
137.666879033028
 30
0.0
 10
79.27434143852255
 20
137.7706212063058
 30
0.0
 10
79.34315313059157
 20
137.7920441997759
 30
0.0
 10
79.38657046350845
 20
137.8055612229968
 30
0.0
  0
LINE
  5
1A3
330
1F
100
AcDbEntity
  8
0
  6
HIDDEN
 62
     7
370
     0
100
AcDbLine
 10
149.0876474144
 20
88.7829425418
 30
0.0
 11
144.0876447322
 21
88.7829425418
 31
0.0
  0
LINE
  5
1A4
330
1F
100
AcDbEntity
  8
0
  6
HIDDEN
 62
     7
370
     0
100
AcDbLine
 10
144.0876447322
 20
139.6282414579
 30
0.0
 11
149.0876474144
 21
139.6282414579
 31
0.0
  0
LINE
  5
1A5
330
1F
100
AcDbEntity
  8
0
  6
HIDDEN
 62
     7
370
     0
100
AcDbLine
 10
149.0876474144
 20
102.2055918955
 30
0.0
 11
144.0876447322
 21
102.2055918955
 31
0.0
  0
LINE
  5
1A6
330
1F
100
AcDbEntity
  8
0
  6
HIDDEN
 62
     7
370
     0
100
AcDbLine
 10
144.0876447322
 20
126.2055921042
 30
0.0
 11
149.0876474144
 21
126.2055921042
 31
0.0
  0
LINE
  5
1A7
330
1F
100
AcDbEntity
  8
0
  6
HIDDEN
 62
     7
370
     0
100
AcDbLine
 10
100.7276442559
 20
134.3414584779
 30
0.0
 11
100.7276442559
 21
134.055592739
 31
0.0
  0
LINE
  5
1A8
330
1F
100
AcDbEntity
  8
0
  6
HIDDEN
 62
     7
370
     0
100
AcDbLine
 10
104.5476444723
 20
134.3894960963
 30
0.0
 11
104.5476444723
 21
134.055592739
 31
0.0
  0
LINE
  5
1A9
330
1F
100
AcDbEntity
  8
0
  6
HIDDEN
 62
     7
370
     0
100
AcDbLine
 10
106.0295761289
 20
138.664281615
 30
0.0
 11
106.0295761289
 21
134.055592739
 31
0.0
  0
SPLINE
  5
1AA
330
1F
100
AcDbEntity
  8
0
  6
HIDDEN
 62
     7
370
     0
100
AcDbSpline
210
0.0
220
0.0
230
1.0
 70
     8
 71
     3
 72
    24
 73
    20
 74
     0
 42
0.00000001
 43
0.00000001
 40
0.0
 40
0.0
 40
0.0
 40
0.0
 40
0.2499999999999951
 40
0.2499999999999951
 40
0.3749999999999913
 40
0.3749999999999913
 40
0.4374999999999885
 40
0.4374999999999885
 40
0.4687499999999882
 40
0.4687499999999882
 40
0.499999999999988
 40
0.499999999999988
 40
0.56249999999999
 40
0.56249999999999
 40
0.624999999999992
 40
0.624999999999992
 40
0.7499999999999958
 40
0.7499999999999958
 40
1.0
 40
1.0
 40
1.0
 40
1.0
 10
52.80030758237987
 20
94.53103945507435
 30
0.0
 10
52.81406070105007
 20
94.60168951306463
 30
0.0
 10
52.83183326845595
 20
94.66828762582955
 30
0.0
 10
52.88408436001132
 20
94.74238564606274
 30
0.0
 10
52.90511943559287
 20
94.7636434532243
 30
0.0
 10
52.95801984322132
 20
94.77178937937055
 30
0.0
 10
52.97912551609924
 20
94.77084957597478
 30
0.0
 10
53.02517768477718
 20
94.74983358439744
 30
0.0
 10
53.04354815676057
 20
94.73892477828981
 30
0.0
 10
53.08509979182628
 20
94.70628986734243
 30
0.0
 10
53.1076664645832
 20
94.68479788697108
 30
0.0
 10
53.17044748104323
 20
94.61633194338476
 30
0.0
 10
53.20357724201111
 20
94.5702574851797
 30
0.0
 10
53.26049492849611
 20
94.48524959684501
 30
0.0
 10
53.28468095399988
 20
94.44496929566363
 30
0.0
 10
53.34988890437964
 20
94.33003306919768
 30
0.0
 10
53.3846049645709
 20
94.25945008405068
 30
0.0
 10
53.47782023490177
 20
94.05524432497208
 30
0.0
 10
53.52349277026246
 20
93.93234594264473
 30
0.0
 10
53.561797853761
 20
93.81547266625715
 30
0.0
  0
CIRCLE
  5
1AB
330
1F
100
AcDbEntity
  8
0
  6
HIDDEN
 62
     7
370
     0
100
AcDbCircle
 10
91.6376442077
 20
114.2055919999
 30
0.0
 40
5.000000000000014
  0
LINE
  5
1AC
330
1F
100
AcDbEntity
  8
0
  6
HIDDEN
 62
     7
370
     0
100
AcDbLine
 10
186.5911432268
 20
108.2055919477
 30
0.0
 11
187.0911442401
 21
108.7055920297
 31
0.0
  0
LINE
  5
1AD
330
1F
100
AcDbEntity
  8
0
  6
HIDDEN
 62
     7
370
     0
100
AcDbLine
 10
187.0911442401
 20
119.7055919701
 30
0.0
 11
186.5911432268
 21
120.205592052
 31
0.0
  0
LINE
  5
1AE
330
1F
100
AcDbEntity
  8
0
  6
HIDDEN
 62
     7
370
     0
100
AcDbLine
 10
171.5911426308
 20
108.2055919477
 30
0.0
 11
186.5911432268
 21
108.2055919477
 31
0.0
  0
LINE
  5
1AF
330
1F
100
AcDbEntity
  8
0
  6
HIDDEN
 62
     7
370
     0
100
AcDbLine
 10
186.5911432268
 20
120.205592052
 30
0.0
 11
171.5911426308
 21
120.205592052
 31
0.0
  0
LINE
  5
1B0
330
1F
100
AcDbEntity
  8
0
  6
HIDDEN
 62
     7
370
     0
100
AcDbLine
 10
171.5911426308
 20
120.205592052
 30
0.0
 11
171.0911416175
 21
119.7055919701
 31
0.0
  0
LINE
  5
1B1
330
1F
100
AcDbEntity
  8
0
  6
HIDDEN
 62
     7
370
     0
100
AcDbLine
 10
171.0911416175
 20
108.7055920297
 30
0.0
 11
171.5911426308
 21
108.2055919477
 31
0.0
  0
LINE
  5
1B2
330
1F
100
AcDbEntity
  8
0
  6
HIDDEN
 62
     7
370
     0
100
AcDbLine
 10
187.0911442401
 20
108.7055920297
 30
0.0
 11
191.0911448957
 21
108.7055920297
 31
0.0
  0
LINE
  5
1B3
330
1F
100
AcDbEntity
  8
0
  6
HIDDEN
 62
     7
370
     0
100
AcDbLine
 10
191.0911448957
 20
119.7055919701
 30
0.0
 11
187.0911442401
 21
119.7055919701
 31
0.0
  0
LINE
  5
1B4
330
1F
100
AcDbEntity
  8
0
  6
HIDDEN
 62
     7
370
     0
100
AcDbLine
 10
178.0911409022
 20
111.2055919738
 30
0.0
 11
184.091145611
 21
111.2055919738
 31
0.0
  0
LINE
  5
1B5
330
1F
100
AcDbEntity
  8
0
  6
HIDDEN
 62
     7
370
     0
100
AcDbLine
 10
184.091145611
 20
117.2055920259
 30
0.0
 11
178.0911409022
 21
117.2055920259
 31
0.0
  0
LINE
  5
1B6
330
1F
100
AcDbEntity
  8
0
  6
HIDDEN
 62
     7
370
     0
100
AcDbLine
 10
231.037648833
 20
88.9555911207
 30
0.0
 11
234.237643397
 21
88.9555911207
 31
0.0
  0
LINE
  5
1B7
330
1F
100
AcDbEntity
  8
0
  6
HIDDEN
 62
     7
370
     0
100
AcDbLine
 10
234.237643397
 20
139.455592879
 30
0.0
 11
231.037648833
 21
139.455592879
 31
0.0
  0
LINE
  5
1B8
330
1F
100
AcDbEntity
  8
0
  6
HIDDEN
 62
     7
370
     0
100
AcDbLine
 10
231.037648833
 20
139.455592879
 30
0.0
 11
228.8931333186
 21
138.4555927151
 31
0.0
  0
LINE
  5
1B9
330
1F
100
AcDbEntity
  8
0
  6
HIDDEN
 62
     7
370
     0
100
AcDbLine
 10
228.8931333186
 20
89.9555912846
 30
0.0
 11
231.037648833
 21
88.9555911207
 31
0.0
  0
ARC
  5
1BA
330
1F
100
AcDbEntity
  8
0
  6
HIDDEN
 62
     7
370
     0
100
AcDbCircle
 10
234.2376442077
 20
89.7555919999
 30
0.0
 40
0.800000000000054
100
AcDbArc
 50
270.0
 51
360.0
  0
ARC
  5
1BB
330
1F
100
AcDbEntity
  8
0
  6
HIDDEN
 62
     7
370
     0
100
AcDbCircle
 10
234.2376442077
 20
138.6555919999
 30
0.0
 40
0.8000000000000398
100
AcDbArc
 50
0.0
 51
90.0
  0
LINE
  5
1BC
330
1F
100
AcDbEntity
  8
0
  6
HIDDEN
 62
     7
370
     0
100
AcDbLine
 10
219.1376411082
 20
89.9555912846
 30
0.0
 11
228.8931333186
 21
89.9555912846
 31
0.0
  0
LINE
  5
1BD
330
1F
100
AcDbEntity
  8
0
  6
HIDDEN
 62
     7
370
     0
100
AcDbLine
 10
228.8931333186
 20
138.4555927151
 30
0.0
 11
219.1376411082
 21
138.4555927151
 31
0.0
  0
LINE
  5
1BE
330
1F
100
AcDbEntity
  8
0
  6
HIDDEN
 62
     7
370
     0
100
AcDbLine
 10
237.5376396539
 20
93.6207423591
 30
0.0
 11
244.1798024537
 21
97.4555915826
 31
0.0
  0
LINE
  5
1BF
330
1F
100
AcDbEntity
  8
0
  6
HIDDEN
 62
     7
370
     0
100
AcDbLine
 10
244.1798024537
 20
130.9555924171
 30
0.0
 11
237.5376396539
 21
134.7904416406
 31
0.0
  0
LINE
  5
1C0
330
1F
100
AcDbEntity
  8
0
  6
HIDDEN
 62
     7
370
     0
100
AcDbLine
 10
227.3302846314
 20
89.4612620258
 30
0.0
 11
226.9343458773
 21
89.2095665121
 31
0.0
  0
LINE
  5
1C1
330
1F
100
AcDbEntity
  8
0
  6
HIDDEN
 62
     7
370
     0
100
AcDbLine
 10
235.037642038
 20
93.1681866431
 30
0.0
 11
237.5376396539
 21
93.1681866431
 31
0.0
  0
LINE
  5
1C2
330
1F
100
AcDbEntity
  8
0
  6
HIDDEN
 62
     7
370
     0
100
AcDbLine
 10
226.9719266059
 20
90.1088683539
 30
0.0
 11
226.6566478373
 21
88.6205739015
 31
0.0
  0
LINE
  5
1C3
330
1F
100
AcDbEntity
  8
0
  6
HIDDEN
 62
     7
370
     0
100
AcDbLine
 10
237.5376396539
 20
135.1631438964
 30
0.0
 11
235.037642038
 21
135.1631438964
 31
0.0
  0
LINE
  5
1C4
330
1F
100
AcDbEntity
  8
0
  6
HIDDEN
 62
     7
370
     0
100
AcDbLine
 10
227.7986877324
 20
91.001282134
 30
0.0
 11
227.5710873963
 21
90.8565937215
 31
0.0
  0
LINE
  5
1C5
330
1F
100
AcDbEntity
  8
0
  6
HIDDEN
 62
     7
370
     0
100
AcDbLine
 10
244.1798024537
 20
97.4555915826
 30
0.0
 11
244.6376406314
 21
97.4555915826
 31
0.0
  0
LINE
  5
1C6
330
1F
100
AcDbEntity
  8
0
  6
HIDDEN
 62
     7
370
     0
100
AcDbLine
 10
244.6376406314
 20
130.9555924171
 30
0.0
 11
244.1798024537
 21
130.9555924171
 31
0.0
  0
LINE
  5
1C7
330
1F
100
AcDbEntity
  8
0
  6
HIDDEN
 62
     7
370
     0
100
AcDbLine
 10
226.571934736
 20
141.3201900804
 30
0.0
 11
227.0351075293
 21
140.9643838787
 31
0.0
  0
LINE
  5
1C8
330
1F
100
AcDbEntity
  8
0
  6
HIDDEN
 62
     7
370
     0
100
AcDbLine
 10
226.6491674544
 20
141.5077807986
 30
0.0
 11
226.965280688
 21
139.9156569177
 31
0.0
  0
LINE
  5
1C9
330
1F
100
AcDbEntity
  8
0
  6
HIDDEN
 62
     7
370
     0
100
AcDbLine
 10
227.3085438372
 20
139.4323489302
 30
0.0
 11
227.5670044782
 21
139.2338039958
 31
0.0
  0
LINE
  5
1CA
330
1F
100
AcDbEntity
  8
0
  6
HIDDEN
 62
     7
370
     0
100
AcDbLine
 10
226.965280688
 20
88.4955270821
 30
0.0
 11
226.6491674544
 21
86.9034032011
 31
0.0
  0
LINE
  5
1CB
330
1F
100
AcDbEntity
  8
0
  6
HIDDEN
 62
     7
370
     0
100
AcDbLine
 10
227.5670044782
 20
89.1773800039
 30
0.0
 11
227.3085438372
 21
88.9788350695
 31
0.0
  0
LINE
  5
1CC
330
1F
100
AcDbEntity
  8
0
  6
HIDDEN
 62
     7
370
     0
100
AcDbLine
 10
227.0351075293
 20
87.446800121
 30
0.0
 11
226.571934736
 21
87.0909939193
 31
0.0
  0
LINE
  5
1CD
330
1F
100
AcDbEntity
  8
0
  6
HIDDEN
 62
     7
370
     0
100
AcDbLine
 10
227.5710873963
 20
137.5545902782
 30
0.0
 11
227.7986877324
 21
137.4099018657
 31
0.0
  0
LINE
  5
1CE
330
1F
100
AcDbEntity
  8
0
  6
HIDDEN
 62
     7
370
     0
100
AcDbLine
 10
226.6566478373
 20
139.7906100982
 30
0.0
 11
226.9719266059
 21
138.3023156458
 31
0.0
  0
LINE
  5
1CF
330
1F
100
AcDbEntity
  8
0
  6
HIDDEN
 62
     7
370
     0
100
AcDbLine
 10
226.9343458773
 20
139.2016174876
 30
0.0
 11
227.3302846314
 21
138.9499219739
 31
0.0
  0
LINE
  5
1D0
330
1F
100
AcDbEntity
  8
0
  6
HIDDEN
 62
     7
370
     0
100
AcDbLine
 10
88.6376443976
 20
128.5062224278
 30
0.0
 11
88.6376443976
 21
126.59953224
 31
0.0
  0
LINE
  5
1D1
330
1F
100
AcDbEntity
  8
0
  6
HIDDEN
 62
     7
370
     0
100
AcDbLine
 10
96.637644312
 20
126.59953224
 30
0.0
 11
96.637644312
 21
128.5034275287
 31
0.0
  0
LINE
  5
1D2
330
1F
100
AcDbEntity
  8
0
  6
HIDDEN
 62
     7
370
     0
100
AcDbLine
 10
84.6376442077
 20
88.8866713875
 30
0.0
 11
84.7318049799
 21
89.5566592598
 31
0.0
  0
LINE
  5
1D3
330
1F
100
AcDbEntity
  8
0
  6
HIDDEN
 62
     7
370
     0
100
AcDbLine
 10
84.7318049799
 20
138.8545247399
 30
0.0
 11
84.6376442077
 21
139.5245126122
 31
0.0
  0
LINE
  5
1D4
330
1F
100
AcDbEntity
  8
0
  6
HIDDEN
 62
     7
370
     0
100
AcDbLine
 10
228.1376444461
 20
139.2055923724
 30
0.0
 11
219.1376411082
 21
139.2055923724
 31
0.0
  0
LINE
  5
1D5
330
1F
100
AcDbEntity
  8
0
  6
HIDDEN
 62
     7
370
     0
100
AcDbLine
 10
219.1376411082
 20
89.2055916273
 30
0.0
 11
228.1376444461
 21
89.2055916273
 31
0.0
  0
LINE
  5
1D6
330
1F
100
AcDbEntity
  8
0
  6
HIDDEN
 62
     7
370
     0
100
AcDbLine
 10
228.1376444461
 20
89.2055916273
 30
0.0
 11
229.6376400353
 21
90.7055928045
 31
0.0
  0
LINE
  5
1D7
330
1F
100
AcDbEntity
  8
0
  6
HIDDEN
 62
     7
370
     0
100
AcDbLine
 10
229.6376400353
 20
137.7055911952
 30
0.0
 11
228.1376444461
 21
139.2055923724
 31
0.0
  0
ARC
  5
1D8
330
1F
100
AcDbEntity
  8
0
  6
HIDDEN
 62
     7
370
     0
100
AcDbCircle
 10
84.137637455
 20
89.6401644055
 30
0.0
 40
0.60000675266771
100
AcDbArc
 50
352.0
 51
0.0
  0
ARC
  5
1D9
330
1F
100
AcDbEntity
  8
0
  6
HIDDEN
 62
     7
370
     0
100
AcDbCircle
 10
84.137637455
 20
89.6401644055
 30
0.0
 40
0.6000067526677242
100
AcDbArc
 50
0.0
 51
33.5571153394
  0
ARC
  5
1DA
330
1F
100
AcDbEntity
  8
0
  6
HIDDEN
 62
     7
370
     0
100
AcDbCircle
 10
84.137637455
 20
138.7710195942
 30
0.0
 40
0.6000067526677113
100
AcDbArc
 50
348.75
 51
8.0
  0
LWPOLYLINE
  5
1DB
330
1F
100
AcDbEntity
  8
0
  6
HIDDEN
 62
     7
370
     0
100
AcDbPolyline
 90
        3
 70
   128
 43
0.0
 10
84.7261152466
 20
138.6539644235
 10
84.6919714148
 20
138.5414066398
 10
84.6376442077
 20
138.4393541747
  0
LINE
  5
1DC
330
1F
100
AcDbEntity
  8
0
  6
HIDDEN
 62
     7
370
     0
100
AcDbLine
 10
84.7376442051
 20
89.6401635044
 30
0.0
 11
84.7376442051
 21
138.7710204953
 31
0.0
  0
ARC
  5
1DD
330
1F
100
AcDbEntity
  8
0
  6
HIDDEN
 62
     7
370
     0
100
AcDbCircle
 10
228.6376442077
 20
135.0748787377
 30
0.0
 40
1.0
100
AcDbArc
 50
278.0
 51
0.0
  0
ARC
  5
1DE
330
1F
100
AcDbEntity
  8
0
  6
HIDDEN
 62
     7
370
     0
100
AcDbCircle
 10
228.6376442077
 20
93.336305262
 30
0.0
 40
1.0
100
AcDbArc
 50
0.0
 51
82.0
  0
LINE
  5
1DF
330
1F
100
AcDbEntity
  8
0
  6
HIDDEN
 62
     7
370
     0
100
AcDbLine
 10
67.7200802328
 20
94.2055924469
 30
0.0
 11
71.9117517309
 21
94.2055924469
 31
0.0
  0
LINE
  5
1E0
330
1F
100
AcDbEntity
  8
0
  6
HIDDEN
 62
     7
370
     0
100
AcDbLine
 10
71.9117517309
 20
134.2055915528
 30
0.0
 11
67.7200802328
 21
134.2055915528
 31
0.0
  0
ARC
  5
1E1
330
1F
100
AcDbEntity
  8
0
  6
HIDDEN
 62
     7
370
     0
100
AcDbCircle
 10
67.720079773
 20
94.8055919999
 30
0.0
 40
0.6000000000000085
100
AcDbArc
 50
210.0
 51
270.0
  0
ARC
  5
1E2
330
1F
100
AcDbEntity
  8
0
  6
HIDDEN
 62
     7
370
     0
100
AcDbCircle
 10
67.720079773
 20
133.6055919999
 30
0.0
 40
0.6000000000000032
100
AcDbArc
 50
90.0
 51
150.0
  0
ARC
  5
1E3
330
1F
100
AcDbEntity
  8
0
  6
HIDDEN
 62
     7
370
     0
100
AcDbCircle
 10
78.3926462093
 20
102.2055919999
 30
0.0
 40
8.00000000000001
100
AcDbArc
 50
276.8683501515
 51
321.3178125465
  0
ARC
  5
1E4
330
1F
100
AcDbEntity
  8
0
  6
HIDDEN
 62
     7
370
     0
100
AcDbCircle
 10
78.3926462093
 20
126.2055919999
 30
0.0
 40
8.000000000000023
100
AcDbArc
 50
38.6821874535
 51
83.1173734875
  0
LINE
  5
1E5
330
1F
100
AcDbEntity
  8
0
  6
HIDDEN
 62
     7
370
     0
100
AcDbLine
 10
228.7768148543
 20
134.0846108877
 30
0.0
 11
195.8396383287
 21
129.4555921712
 31
0.0
  0
LINE
  5
1E6
330
1F
100
AcDbEntity
  8
0
  6
HIDDEN
 62
     7
370
     0
100
AcDbLine
 10
195.8396383287
 20
98.9555918285
 30
0.0
 11
228.7768148543
 21
94.326573112
 31
0.0
  0
LINE
  5
1E7
330
1F
100
AcDbEntity
  8
0
  6
HIDDEN
 62
     7
370
     0
100
AcDbLine
 10
67.2004637035
 20
133.9055920624
 30
0.0
 11
65.6416197034
 21
131.2055929237
 31
0.0
  0
LINE
  5
1E8
330
1F
100
AcDbEntity
  8
0
  6
HIDDEN
 62
     7
370
     0
100
AcDbLine
 10
65.6416197034
 20
97.205591076
 30
0.0
 11
67.2004637035
 21
94.5055919373
 31
0.0
  0
LINE
  5
1E9
330
1F
100
AcDbEntity
  8
0
  6
HIDDEN
 62
     7
370
     0
100
AcDbLine
 10
88.6376443976
 20
141.4852576935
 30
0.0
 11
88.6376443976
 21
138.1511936569
 31
0.0
  0
LINE
  5
1EA
330
1F
100
AcDbEntity
  8
0
  6
HIDDEN
 62
     7
370
     0
100
AcDbLine
 10
96.637644312
 20
138.1511936569
 30
0.0
 11
96.637644312
 21
141.4799249404
 31
0.0
  0
ARC
  5
1EB
330
1F
100
AcDbEntity
  8
0
  6
HIDDEN
 62
     7
370
     0
100
AcDbCircle
 10
93.0876442077
 20
98.4805919999
 30
0.0
 40
1.5
100
AcDbArc
 50
238.2116693829
 51
0.0
  0
ARC
  5
1EC
330
1F
100
AcDbEntity
  8
0
  6
HIDDEN
 62
     7
370
     0
100
AcDbCircle
 10
93.0876442077
 20
129.9305919999
 30
0.0
 40
1.500000000000009
100
AcDbArc
 50
0.0
 51
121.7883306171
  0
LINE
  5
1ED
330
1F
100
AcDbEntity
  8
0
  6
HIDDEN
 62
     7
370
     0
100
AcDbLine
 10
62.8376439871
 20
97.205591076
 30
0.0
 11
65.6416197034
 21
97.205591076
 31
0.0
  0
LINE
  5
1EE
330
1F
100
AcDbEntity
  8
0
  6
HIDDEN
 62
     7
370
     0
100
AcDbLine
 10
65.6416197034
 20
131.2055929237
 30
0.0
 11
58.8376433315
 21
131.2055929237
 31
0.0
  0
LINE
  5
1EF
330
1F
100
AcDbEntity
  8
0
  6
HIDDEN
 62
     7
370
     0
100
AcDbLine
 10
84.6376442077
 20
97.205591076
 30
0.0
 11
92.2974701697
 21
97.205591076
 31
0.0
  0
LINE
  5
1F0
330
1F
100
AcDbEntity
  8
0
  6
HIDDEN
 62
     7
370
     0
100
AcDbLine
 10
92.2974701697
 20
131.2055929237
 30
0.0
 11
84.6376442077
 21
131.2055929237
 31
0.0
  0
LINE
  5
1F1
330
1F
100
AcDbEntity
  8
0
  6
HIDDEN
 62
     7
370
     0
100
AcDbLine
 10
191.6376449825
 20
129.4555921712
 30
0.0
 11
187.0911442401
 21
119.7055919701
 31
0.0
  0
LINE
  5
1F2
330
1F
100
AcDbEntity
  8
0
  6
HIDDEN
 62
     7
370
     0
100
AcDbLine
 10
187.0911442401
 20
108.7055920297
 30
0.0
 11
191.6376449825
 21
98.9555918285
 31
0.0
  0
LINE
  5
1F3
330
1F
100
AcDbEntity
  8
0
  6
HIDDEN
 62
     7
370
     0
100
AcDbLine
 10
195.8396383287
 20
129.4555921712
 30
0.0
 11
191.6376449825
 21
129.4555921712
 31
0.0
  0
LINE
  5
1F4
330
1F
100
AcDbEntity
  8
0
  6
HIDDEN
 62
     7
370
     0
100
AcDbLine
 10
191.6376449825
 20
98.9555918285
 30
0.0
 11
195.8396383287
 21
98.9555918285
 31
0.0
  0
LINE
  5
1F5
330
1F
100
AcDbEntity
  8
0
  6
HIDDEN
 62
     7
370
     0
100
AcDbLine
 10
103.9376449497
 20
104.7055923053
 30
0.0
 11
106.4376444282
 21
104.7055923053
 31
0.0
  0
LINE
  5
1F6
330
1F
100
AcDbEntity
  8
0
  6
HIDDEN
 62
     7
370
     0
100
AcDbLine
 10
106.4376444282
 20
123.7055916944
 30
0.0
 11
103.9376449497
 21
123.7055916944
 31
0.0
  0
LINE
  5
1F7
330
1F
100
AcDbEntity
  8
0
  6
HIDDEN
 62
     7
370
     0
100
AcDbLine
 10
94.5876440691
 20
105.2055923873
 30
0.0
 11
95.087644151
 21
105.7055915379
 31
0.0
  0
LINE
  5
1F8
330
1F
100
AcDbEntity
  8
0
  6
HIDDEN
 62
     7
370
     0
100
AcDbLine
 10
95.087644151
 20
122.7055924618
 30
0.0
 11
94.5876440691
 21
123.2055916124
 31
0.0
  0
LINE
  5
1F9
330
1F
100
AcDbEntity
  8
0
  6
HIDDEN
 62
     7
370
     0
100
AcDbLine
 10
95.087644151
 20
105.7055915379
 30
0.0
 11
103.9376449497
 21
105.7055915379
 31
0.0
  0
LINE
  5
1FA
330
1F
100
AcDbEntity
  8
0
  6
HIDDEN
 62
     7
370
     0
100
AcDbLine
 10
103.9376449497
 20
122.7055924618
 30
0.0
 11
95.087644151
 21
122.7055924618
 31
0.0
  0
LINE
  5
1FB
330
1F
100
AcDbEntity
  8
0
  6
HIDDEN
 62
     7
370
     0
100
AcDbLine
 10
89.5876441808
 20
145.7055925065
 30
0.0
 11
89.5876441808
 21
140.6055918568
 31
0.0
  0
LINE
  5
1FC
330
1F
100
AcDbEntity
  8
0
  6
HIDDEN
 62
     7
370
     0
100
AcDbLine
 10
187.0911442401
 20
119.7055919701
 30
0.0
 11
159.6376471879
 21
119.7055919701
 31
0.0
  0
LINE
  5
1FD
330
1F
100
AcDbEntity
  8
0
  6
HIDDEN
 62
     7
370
     0
100
AcDbLine
 10
159.6376471879
 20
108.7055920297
 30
0.0
 11
187.0911442401
 21
108.7055920297
 31
0.0
  0
LINE
  5
1FE
330
1F
100
AcDbEntity
  8
0
  6
HIDDEN
 62
     7
370
     0
100
AcDbLine
 10
159.6376471879
 20
119.7055919701
 30
0.0
 11
158.8565283181
 21
118.4055918501
 31
0.0
  0
LINE
  5
1FF
330
1F
100
AcDbEntity
  8
0
  6
HIDDEN
 62
     7
370
     0
100
AcDbLine
 10
158.8565283181
 20
110.0055921496
 30
0.0
 11
159.6376471879
 21
108.7055920297
 31
0.0
  0
LINE
  5
200
330
1F
100
AcDbEntity
  8
0
  6
HIDDEN
 62
     7
370
     0
100
AcDbLine
 10
79.8220811138
 20
90.1262207561
 30
0.0
 11
79.3876498664
 21
90.6052856379
 31
0.0
  0
LINE
  5
201
330
1F
100
AcDbEntity
  8
0
  6
HIDDEN
 62
     7
370
     0
100
AcDbLine
 10
71.8876463087
 20
91.0269735986
 30
0.0
 11
71.4052137645
 21
90.5479087168
 31
0.0
  0
LINE
  5
202
330
1F
100
AcDbEntity
  8
0
  6
HIDDEN
 62
     7
370
     0
100
AcDbLine
 10
71.4050917612
 20
137.863269695
 30
0.0
 11
71.8876416521
 21
137.3841507965
 31
0.0
  0
LINE
  5
203
330
1F
100
AcDbEntity
  8
0
  6
HIDDEN
 62
     7
370
     0
100
AcDbLine
 10
79.3876442784
 20
137.8058480703
 30
0.0
 11
79.8221858876
 21
138.2849669689
 31
0.0
  0
LINE
  5
204
330
1F
100
AcDbEntity
  8
0
  6
HIDDEN
 62
     7
370
     0
100
AcDbLine
 10
106.4376444282
 20
110.0055921496
 30
0.0
 11
158.8565283181
 21
110.0055921496
 31
0.0
  0
LINE
  5
205
330
1F
100
AcDbEntity
  8
0
  6
HIDDEN
 62
     7
370
     0
100
AcDbLine
 10
158.8565283181
 20
118.4055918501
 30
0.0
 11
106.4376444282
 21
118.4055918501
 31
0.0
  0
LINE
  5
206
330
1F
100
AcDbEntity
  8
0
  6
HIDDEN
 62
     7
370
     0
100
AcDbLine
 10
79.3876442784
 20
90.5052280658
 30
0.0
 11
79.3876442784
 21
94.2701908433
 31
0.0
  0
LINE
  5
207
330
1F
100
AcDbEntity
  8
0
  6
HIDDEN
 62
     7
370
     0
100
AcDbLine
 10
71.8876444461
 20
94.209969663
 30
0.0
 11
71.8876444461
 21
91.0272976988
 31
0.0
  0
LINE
  5
208
330
1F
100
AcDbEntity
  8
0
  6
HIDDEN
 62
     7
370
     0
100
AcDbLine
 10
79.3876442784
 20
134.1409931564
 30
0.0
 11
79.3876442784
 21
137.9058795654
 31
0.0
  0
LINE
  5
209
330
1F
100
AcDbEntity
  8
0
  6
HIDDEN
 62
     7
370
     0
100
AcDbLine
 10
71.8876444461
 20
137.3838956141
 30
0.0
 11
71.8876444461
 21
134.2012143367
 31
0.0
  0
LINE
  5
20A
330
1F
100
AcDbEntity
  8
0
  6
HIDDEN
 62
     7
370
     0
100
AcDbLine
 10
150.0876419904
 20
88.2055914634
 30
0.0
 11
149.0876474144
 21
88.7829425418
 31
0.0
  0
LINE
  5
20B
330
1F
100
AcDbEntity
  8
0
  6
HIDDEN
 62
     7
370
     0
100
AcDbLine
 10
144.0876447322
 20
88.7829425418
 30
0.0
 11
143.0876427056
 21
88.2055914634
 31
0.0
  0
LINE
  5
20C
330
1F
100
AcDbEntity
  8
0
  6
HIDDEN
 62
     7
370
     0
100
AcDbLine
 10
143.0876427056
 20
140.2055925363
 30
0.0
 11
144.0876447322
 21
139.6282414579
 31
0.0
  0
LINE
  5
20D
330
1F
100
AcDbEntity
  8
0
  6
HIDDEN
 62
     7
370
     0
100
AcDbLine
 10
149.0876474144
 20
139.6282414579
 30
0.0
 11
150.0876419904
 21
140.2055925363
 31
0.0
  0
LINE
  5
20E
330
1F
100
AcDbEntity
  8
0
  6
HIDDEN
 62
     7
370
     0
100
AcDbLine
 10
149.0876474144
 20
88.7829425418
 30
0.0
 11
149.0876474144
 21
102.2055918955
 31
0.0
  0
LINE
  5
20F
330
1F
100
AcDbEntity
  8
0
  6
HIDDEN
 62
     7
370
     0
100
AcDbLine
 10
144.0876447322
 20
102.2055918955
 30
0.0
 11
144.0876447322
 21
88.7829425418
 31
0.0
  0
LINE
  5
210
330
1F
100
AcDbEntity
  8
0
  6
HIDDEN
 62
     7
370
     0
100
AcDbLine
 10
144.0876447322
 20
139.6282414579
 30
0.0
 11
144.0876447322
 21
126.2055921042
 31
0.0
  0
LINE
  5
211
330
1F
100
AcDbEntity
  8
0
  6
HIDDEN
 62
     7
370
     0
100
AcDbLine
 10
149.0876474144
 20
126.2055921042
 30
0.0
 11
149.0876474144
 21
139.6282414579
 31
0.0
  0
LINE
  5
212
330
1F
100
AcDbEntity
  8
0
  6
HIDDEN
 62
     7
370
     0
100
AcDbLine
 10
149.0876474144
 20
102.2055918955
 30
0.0
 11
146.587642348
 21
103.7077434966
 31
0.0
  0
LINE
  5
213
330
1F
100
AcDbEntity
  8
0
  6
HIDDEN
 62
     7
370
     0
100
AcDbLine
 10
146.587642348
 20
103.7077434966
 30
0.0
 11
144.0876447322
 21
102.2055918955
 31
0.0
  0
LINE
  5
214
330
1F
100
AcDbEntity
  8
0
  6
HIDDEN
 62
     7
370
     0
100
AcDbLine
 10
144.0876447322
 20
126.2055921042
 30
0.0
 11
146.587642348
 21
124.7034405031
 31
0.0
  0
LINE
  5
215
330
1F
100
AcDbEntity
  8
0
  6
HIDDEN
 62
     7
370
     0
100
AcDbLine
 10
146.587642348
 20
124.7034405031
 30
0.0
 11
149.0876474144
 21
126.2055921042
 31
0.0
  0
POINT
  5
216
330
1F
100
AcDbEntity
  8
VERMASSUNG
100
AcDbPoint
 10
229.6376442077
 20
134.2055919999
 30
0.0
  0
POINT
  5
217
330
1F
100
AcDbEntity
  8
VERMASSUNG
100
AcDbPoint
 10
229.6376442077
 20
94.2055919999
 30
0.0
  0
DIMENSION
  5
218
330
1F
100
AcDbEntity
  8
VERMASSUNG
100
AcDbDimension
  2
*D1
 10
251.5874558611
 20
94.2055919999
 30
0.0
 11
251.5874558611
 21
114.1014371086
 31
0.0
 70
   160
  1
ER<>
 71
     2
 42
-1.0
  3
SLDDIMSTYLE0
100
AcDbAlignedDimension
 13
229.6376442077
 23
134.2055919999
 33
0.0
 14
229.6376442077
 24
94.2055919999
 34
0.0
 50
90.0
100
AcDbRotatedDimension
  0
DIMENSION
  5
224
330
1F
100
AcDbEntity
  8
VERMASSUNG
100
AcDbDimension
  2
*D2
 10
44.7338377795
 20
82.7055919999
 30
0.0
 11
44.7338377795
 21
114.1014371086
 31
0.0
 70
   160
  1
HSK A %%c<>
 71
     2
 42
-1.0
  3
SLDDIMSTYLE0
100
AcDbAlignedDimension
 13
84.9376442077
 23
145.7055919999
 33
0.0
 14
84.9376442077
 24
82.7055919999
 34
0.0
 50
90.0
100
AcDbRotatedDimension
  0
DIMENSION
  5
230
330
1F
100
AcDbEntity
  8
VERMASSUNG
100
AcDbDimension
  2
*D3
 10
244.6376442077
 20
168.4345909737
 30
0.0
 11
148.6876442077
 21
168.4345909737
 31
0.0
 70
   160
 71
     2
 42
-1.0
  3
SLDDIMSTYLE0
100
AcDbAlignedDimension
 13
52.7376442077
 23
133.8962697463
 33
0.0
 14
244.6376442077
 24
138.2055919999
 34
0.0
100
AcDbRotatedDimension
  0
DIMENSION
  5
23A
330
1F
100
AcDbEntity
  8
VERMASSUNG
100
AcDbDimension
  2
*D4
 10
244.6376442077
 20
162.4345909737
 30
0.0
 11
164.6376442077
 21
162.4345909737
 31
0.0
 70
   160
 71
     2
 42
-1.0
  3
SLDDIMSTYLE0
100
AcDbAlignedDimension
 13
84.6376442077
 23
145.4055919999
 33
0.0
 14
244.6376442077
 24
138.2055919999
 34
0.0
100
AcDbRotatedDimension
  0
DIMENSION
  5
244
330
1F
100
AcDbEntity
  8
VERMASSUNG
100
AcDbDimension
  2
*D5
 10
110.5876442077
 20
156.4345909737
 30
0.0
 11
177.6126442077
 21
156.4345909737
 31
0.0
 70
   160
 71
     2
 42
-1.0
  3
SLDDIMSTYLE0
100
AcDbAlignedDimension
 13
244.6376442077
 23
138.2055919999
 33
0.0
 14
110.5876442077
 24
144.0520323236
 34
0.0
100
AcDbRotatedDimension
  0
DIMENSION
  5
24E
330
1F
100
AcDbEntity
  8
VERMASSUNG
100
AcDbDimension
  2
*D6
 10
244.6376442077
 20
150.4345909737
 30
0.0
 11
218.1376442077
 21
150.4345909737
 31
0.0
 70
   160
 71
     2
 42
-1.0
  3
SLDDIMSTYLE0
100
AcDbAlignedDimension
 13
191.6376442077
 23
129.4555919999
 33
0.0
 14
244.6376442077
 24
138.2055919999
 34
0.0
100
AcDbRotatedDimension
  0
DIMENSION
  5
258
330
1F
100
AcDbEntity
  8
VERMASSUNG
100
AcDbDimension
  2
*D7
 10
263.5874558611
 20
82.8555919999
 30
0.0
 11
263.5874558611
 21
114.1014371086
 31
0.0
 70
   160
  1
%%c<>
 71
     2
 42
-1.0
  3
SLDDIMSTYLE0
100
AcDbAlignedDimension
 13
240.3941192074
 23
145.5555919999
 33
0.0
 14
240.3941192074
 24
82.8555919999
 34
0.0
 50
90.0
100
AcDbRotatedDimension
  0
DIMENSION
  5
263
330
1F
100
AcDbEntity
  8
VERMASSUNG
100
AcDbDimension
  2
*D8
 10
257.5874558611
 20
88.2055919999
 30
0.0
 11
257.5874558611
 21
114.1014371086
 31
0.0
 70
   160
  1
%%c<>
 71
     2
 42
-1.0
  3
SLDDIMSTYLE0
100
AcDbAlignedDimension
 13
155.5876442077
 23
140.2055919999
 33
0.0
 14
155.5876442077
 24
88.2055919999
 34
0.0
 50
90.0
100
AcDbRotatedDimension
  0
LINE
  5
26E
330
1F
100
AcDbEntity
  8
VERMASSUNG
  6
CENTERX2
 62
     7
370
     0
100
AcDbLine
 10
246.6376442077
 20
114.2055919999
 30
0.0
 11
50.5923403653
 21
114.2055919999
 31
0.0
  0
LINE
  5
26F
330
1F
100
AcDbEntity
  8
VERMASSUNG
  6
CENTERX2
 62
     7
370
     0
100
AcDbLine
 10
229.5079308671
 20
85.0735676367
 30
0.0
 11
229.5079308671
 21
93.1746773485
 31
0.0
  0
LINE
  5
270
330
1F
100
AcDbEntity
  8
VERMASSUNG
  6
CENTERX2
 62
     7
370
     0
100
AcDbLine
 10
229.5079308671
 20
145.0788769494
 30
0.0
 11
229.5079308671
 21
136.7145690108
 31
0.0
  0
OLE2FRAME
  5
271
330
1F
100
AcDbEntity
  8
0
100
AcDbOle2Frame
 70
     2
  3
Bitmap Image
 10
13.8511154363
 20
38.264191557
 30
0.0
 11
51.6290888628
 21
31.9806341108
 31
0.0
 71
     2
 72
     0
 73
     1
 90
    12928
310
80552BED0767C5B32B40DDAF6807D121434000000000000000006FFBDDFB85D0
310
4940DDAF6807D121434000000000000000006FFBDDFB85D04940416F4BD60AFB
310
3F4000000000000000002BED0767C5B32B40416F4BD60AFB3F40000000000000
310
0000000000000100000000010000010000000100000000000100000000320000
310
D0CF11E0A1B11AE1000000000000000000000000000000003E000300FEFF0900
310
0600000000000000000000000100000001000000000000000010000002000000
310
01000000FEFFFFFF0000000000000000FFFFFFFFFFFFFFFFFFFFFFFFFFFFFFFF
310
FFFFFFFFFFFFFFFFFFFFFFFFFFFFFFFFFFFFFFFFFFFFFFFFFFFFFFFFFFFFFFFF
310
FFFFFFFFFFFFFFFFFFFFFFFFFFFFFFFFFFFFFFFFFFFFFFFFFFFFFFFFFFFFFFFF
310
FFFFFFFFFFFFFFFFFFFFFFFFFFFFFFFFFFFFFFFFFFFFFFFFFFFFFFFFFFFFFFFF
310
FFFFFFFFFFFFFFFFFFFFFFFFFFFFFFFFFFFFFFFFFFFFFFFFFFFFFFFFFFFFFFFF
310
FFFFFFFFFFFFFFFFFFFFFFFFFFFFFFFFFFFFFFFFFFFFFFFFFFFFFFFFFFFFFFFF
310
FFFFFFFFFFFFFFFFFFFFFFFFFFFFFFFFFFFFFFFFFFFFFFFFFFFFFFFFFFFFFFFF
310
FFFFFFFFFFFFFFFFFFFFFFFFFFFFFFFFFFFFFFFFFFFFFFFFFFFFFFFFFFFFFFFF
310
FFFFFFFFFFFFFFFFFFFFFFFFFFFFFFFFFFFFFFFFFFFFFFFFFFFFFFFFFFFFFFFF
310
FFFFFFFFFFFFFFFFFFFFFFFFFFFFFFFFFFFFFFFFFFFFFFFFFFFFFFFFFFFFFFFF
310
FFFFFFFFFFFFFFFFFFFFFFFFFFFFFFFFFFFFFFFFFFFFFFFFFFFFFFFFFFFFFFFF
310
FFFFFFFFFFFFFFFFFFFFFFFFFFFFFFFFFFFFFFFFFFFFFFFFFFFFFFFFFFFFFFFF
310
FFFFFFFFFFFFFFFFFFFFFFFFFFFFFFFFFFFFFFFFFFFFFFFFFFFFFFFFFFFFFFFF
310
FFFFFFFFFFFFFFFFFFFFFFFFFFFFFFFFFFFFFFFFFFFFFFFFFFFFFFFFFFFFFFFF
310
FDFFFFFFFEFFFFFFFEFFFFFFFEFFFFFF05000000060000000700000008000000
310
090000000A0000000B0000000C0000000D0000000E0000000F00000010000000
310
11000000120000001300000014000000150000001600000017000000FEFFFFFF
310
FFFFFFFFFFFFFFFFFFFFFFFFFFFFFFFFFFFFFFFFFFFFFFFFFFFFFFFFFFFFFFFF
310
FFFFFFFFFFFFFFFFFFFFFFFFFFFFFFFFFFFFFFFFFFFFFFFFFFFFFFFFFFFFFFFF
310
FFFFFFFFFFFFFFFFFFFFFFFFFFFFFFFFFFFFFFFFFFFFFFFFFFFFFFFFFFFFFFFF
310
FFFFFFFFFFFFFFFFFFFFFFFFFFFFFFFFFFFFFFFFFFFFFFFFFFFFFFFFFFFFFFFF
310
FFFFFFFFFFFFFFFFFFFFFFFFFFFFFFFFFFFFFFFFFFFFFFFFFFFFFFFFFFFFFFFF
310
FFFFFFFFFFFFFFFFFFFFFFFFFFFFFFFFFFFFFFFFFFFFFFFFFFFFFFFFFFFFFFFF
310
FFFFFFFFFFFFFFFFFFFFFFFFFFFFFFFFFFFFFFFFFFFFFFFFFFFFFFFFFFFFFFFF
310
FFFFFFFFFFFFFFFFFFFFFFFFFFFFFFFFFFFFFFFFFFFFFFFFFFFFFFFFFFFFFFFF
310
FFFFFFFFFFFFFFFFFFFFFFFFFFFFFFFFFFFFFFFFFFFFFFFFFFFFFFFFFFFFFFFF
310
FFFFFFFFFFFFFFFFFFFFFFFFFFFFFFFFFFFFFFFFFFFFFFFFFFFFFFFFFFFFFFFF
310
FFFFFFFFFFFFFFFFFFFFFFFFFFFFFFFFFFFFFFFFFFFFFFFFFFFFFFFFFFFFFFFF
310
FFFFFFFFFFFFFFFFFFFFFFFFFFFFFFFFFFFFFFFFFFFFFFFFFFFFFFFFFFFFFFFF
310
FFFFFFFFFFFFFFFFFFFFFFFFFFFFFFFFFFFFFFFFFFFFFFFFFFFFFFFFFFFFFFFF
310
52006F006F007400200045006E00740072007900000000000000000000000000
310
0000000000000000000000000000000000000000000000000000000000000000
310
16000500FFFFFFFFFFFFFFFF020000000A00030000000000C000000000000046
310
00000000000000000000000060D94DBC74E8CB0103000000C000000000000000
310
01004F006C006500000000000000000000000000000000000000000000000000
310
0000000000000000000000000000000000000000000000000000000000000000
310
0A000200FFFFFFFFFFFFFFFFFFFFFFFF00000000000000000000000000000000
310
0000000000000000000000000000000000000000000000001400000000000000
310
010043006F006D0070004F0062006A0000000000000000000000000000000000
310
0000000000000000000000000000000000000000000000000000000000000000
310
120002010100000003000000FFFFFFFF00000000000000000000000000000000
310
0000000000000000000000000000000000000000010000004D00000000000000
310
01004F006C006500310030004E00610074006900760065000000000000000000
310
0000000000000000000000000000000000000000000000000000000000000000
310
1A000200FFFFFFFFFFFFFFFFFFFFFFFF00000000000000000000000000000000
310
0000000000000000000000000000000000000000040000002426000000000000
310
FEFFFFFF02000000FEFFFFFFFFFFFFFFFFFFFFFFFFFFFFFFFFFFFFFFFFFFFFFF
310
FFFFFFFFFFFFFFFFFFFFFFFFFFFFFFFFFFFFFFFFFFFFFFFFFFFFFFFFFFFFFFFF
310
FFFFFFFFFFFFFFFFFFFFFFFFFFFFFFFFFFFFFFFFFFFFFFFFFFFFFFFFFFFFFFFF
310
FFFFFFFFFFFFFFFFFFFFFFFFFFFFFFFFFFFFFFFFFFFFFFFFFFFFFFFFFFFFFFFF
310
FFFFFFFFFFFFFFFFFFFFFFFFFFFFFFFFFFFFFFFFFFFFFFFFFFFFFFFFFFFFFFFF
310
FFFFFFFFFFFFFFFFFFFFFFFFFFFFFFFFFFFFFFFFFFFFFFFFFFFFFFFFFFFFFFFF
310
FFFFFFFFFFFFFFFFFFFFFFFFFFFFFFFFFFFFFFFFFFFFFFFFFFFFFFFFFFFFFFFF
310
FFFFFFFFFFFFFFFFFFFFFFFFFFFFFFFFFFFFFFFFFFFFFFFFFFFFFFFFFFFFFFFF
310
FFFFFFFFFFFFFFFFFFFFFFFFFFFFFFFFFFFFFFFFFFFFFFFFFFFFFFFFFFFFFFFF
310
FFFFFFFFFFFFFFFFFFFFFFFFFFFFFFFFFFFFFFFFFFFFFFFFFFFFFFFFFFFFFFFF
310
FFFFFFFFFFFFFFFFFFFFFFFFFFFFFFFFFFFFFFFFFFFFFFFFFFFFFFFFFFFFFFFF
310
FFFFFFFFFFFFFFFFFFFFFFFFFFFFFFFFFFFFFFFFFFFFFFFFFFFFFFFFFFFFFFFF
310
FFFFFFFFFFFFFFFFFFFFFFFFFFFFFFFFFFFFFFFFFFFFFFFFFFFFFFFFFFFFFFFF
310
FFFFFFFFFFFFFFFFFFFFFFFFFFFFFFFFFFFFFFFFFFFFFFFFFFFFFFFFFFFFFFFF
310
FFFFFFFFFFFFFFFFFFFFFFFFFFFFFFFFFFFFFFFFFFFFFFFFFFFFFFFFFFFFFFFF
310
FFFFFFFFFFFFFFFFFFFFFFFFFFFFFFFFFFFFFFFFFFFFFFFFFFFFFFFFFFFFFFFF
310
01000002000000000000000000000000000000004C004C004E00820061007205
310
A807250000000000A80725000000000072006F006700720061006D0020004600
310
0100FEFF030A0000FFFFFFFF0A00030000000000C00000000000004607000000
310
5042727573680007000000504272757368000700000050427275736800F439B2
310
710000000000000000000000000065002D005300740061007400690063003B00
310
43003A005C00500072006F006700720061006D002000460069006C0065007300
310
2000280078003800360029005C0043006F006D006D006F006E00200046006900
310
6C00650073005C004100750074006F006400650073006B002000530068006100
310
7200650064005C003B0043003A005C00500072006F006700720061006D002000
310
460069006C00650073005C004E006F0072006D0061006E005C004E0070006D00
310
5C00420069006E000000000043003A005C00500072006F006700720061006D00
310
2000460069006C00650073005C0053006F006C006900640057006F0072006B00
310
7300200043006F00720070005C0053006F006C006900640057006F0072006B00
310
730020002800320029005C0073006C00640062006700700072006F0063002E00
310
650078006500000073006C00640062006700700072006F0063002E0065007800
310
650020005F005F00530057005F005500540049004C0053005F00340036003800
310
20260000424D0E260000000000003E00000028000000B40200006E0000000100
310
01000000000000000000130B0000130B00000200000002000000000000FFFFFF
310
FFFFFFFFFFFFFFFFFFFFFFFFFFFFFFFFFFFFFFFFFFFFFFFFFFFFFFFFFFFFFFFF
310
FFFFFFFFFFFFFFFFFFFFFFFFFFFFFFFFFFFFFFFFFFFFFFFFFFFFFFFFFFFFFFFF
310
FFFFFFFFFFFFFFFFFFFFFFFFFFFFFFFFFFFFFFFFFFFFFFFFF000FFFFFFFFFFFF
310
FFFFFFFFFFFFFFFFFFFFFFFFFFFFFFFFFFFFFFFFFFFFFFFFFFFFFFFFFFFFFFFF
310
FFFFFFFFFFFFFFFFFFFFFFFFFFFFFFFFFFFFFFFFFFFFFFFFFFFFFFFFFFFFFFFF
310
FFFFFFFFFFFFFFFFFFFFFFFFFFFFFFFFF000FFFFFFFFFFFFFFFFFFFFFFFFFFFF
310
FFFFFFFFFFFFFFFFFFFFFFFFFFFFFFFFFFFFFFFFFFFFFFFFFFFFFFFFFFFFFFFF
310
FFFFFFFFFFFFFFFFFFFFFFFFFFFFFFFFFFFFFFFFFFFFFFFFFFFFFFFFFFFFFFFF
310
FFFFFFFFFFFFFFFFF000FFFFFFFFFFFFFFFFFFFFFFFFFFFFFFFFFFFFFFFFFFFF
310
FFFFFFFFFFFFFFFFFFFFFFFFFFFFFFFFFFFFFFFFFFFFFFFFFFFFFFFFFFFFFFFF
310
FFFFFFFFFFFFFFFFFFFFFFFFFFFFFFFFFFFFFFFFFFFFFFFFFFFFFFFFFFFFFFFF
310
F000FFFFFFFFFFFFFFFFFFFFFFFFFFFFFFFFFFFFFFFFFFFFFFFFFFFFFFFFFFFF
310
FFFFFFFFFFFFFFFFFFFFFFFFFFFFFFFFFFFFFFFFFFFFFFFFFFFFFFFFFFFFFFFF
310
FFFFFFFFFFFFFFFFFFFFFFFFFFFFFFFFFFFFFFFFFFFFFFFFF000FFFFFFFFFFFF
310
FFFFFFFFFFFFFFFFFFFFFFFFFFFFFFFFFFFFFFFFFFFFFFFFFFFFFFFFFFFFFFFF
310
FFFFFFFFFFFFFFFFFFFFFFFFFFFFFFFFFFFFFFFFFFFFFFFFFFFFFFFFFFFFFFFF
310
FFFFFFFFFFFFFFFFFFFFFFFFFFFFFFFFF000FFFFFFFFFFFFFFFFFFFFFFFFFFFF
310
FFFFFFFFFFFFFFFFFFFFFFFFFFFFFFFFFFFFFFFFFFFFFFFFFFFFFFFFFFFFFFFF
310
FFFFFFFFFFFFFFFFFFFFFFFFFFFFFFFFFFFFFFFFFFFFFFFFFFFFFFFFFFFFFFFF
310
FFFFFFFFFFFFFFFFF000FFFFFFFFFFFFFFFFFFFFFFFFFFFFFFFFFFFFFFFFFFFF
310
FFFFFFFFFFFFFFFFFFFFFFFFFFFFFFFFFFFFFFFFFFFFFFFFFFFFFFFFFFFFFFFF
310
FFFFFFFFFFFFFFFFFFFFFFFFFFFFFFFFFFFFFFFFFFFFFFFFFFFFFFFFFFFFFFFF
310
F000FFFFFFFFFFFFFFFFFFFFFFFFFFFFFFFFFFFFFFFFFFFFFFFFFFFFFFFFFFFF
310
FFFFFFFFFFFFFFFFFFFFFFFFFFFFFFFFFFFFFFFFFFFFFFFFFFFFFFFFFFFFFFFF
310
FFFFFFFFFFFFFFFFFFFFFFFFFFFFFFFFFFFFFFFFFFFFFFFFF000FFFFFFFFFFFF
310
FFFFFFFFFFFFFFFFFFFFFFFFFFFFFFFFFFFFFFFFFFFFFFFFFFFFFFFFFFFFFFFF
310
FFFFFFFFFFFFFFFFFFFFFFFFFFFFFFFFFFFFFFFFFFFFFFFFFFFFFFFFFFFFFFFF
310
FFFFFFFFFFFFFFFFFFFFFFFFFFFFFFFFF000FFFFFFFFFFFFFFFFFFFFFFFFFFFF
310
FFFFFFFFFFFFFFFFFFFFFFFFFFFFFFFFFFFFFFFFFFFFFFFFFFFFFFFFFFFFFFFF
310
FFFFFFFFFFFFFFFFFFFFFFFFFFFFFFFFFFFFFFFFFFFFFFFFFFFFFFFFFFFFFFFF
310
FFFFFFFFFFFFFFFFF000FFFFFFFFFFFFFFFFFFFFFFFFFFFFFFFFFFFFFFFFFFFF
310
FFFFFFFFFFFFFFFFFFFFFFFFFFFFFFFFFFFFFFFFFFFFFFFFFFFFFFFFFFFFFFFF
310
FFFFFFFFFFFFFFFFFFFFFFFFFFFFFFFFFFFFFFFFFFFFFFFFFFFFFFFFFFFFFFFF
310
F000FFFFFFFFFFFFFFFFFFFFFFFFFFFFFFFFFFFFFFFFFFFFFFFFFFFFFFFFFFFF
310
FFFFFFFFFFFFFFFFFFFFFFFFFFFFFFFFFFFFFFFFFFFFFFFFFFFFFFFFFFFFFFFF
310
FFFFFFFFFFFFFFFFFFFFFFFFFFFFFFFFFFFFFFFFFFFFFFFFF000FFFFFFFFFFFF
310
FFFFFFFFFFFFFFFFFFFFFFFFFFFFFFFFFFFFFFFFFFFFFFFFFFFFFFFFFFFFFFFF
310
FFFFFFFFFFFFFFFFFFFFFFFFFFFFFFFFFFFFFFFFFFFFFFFFFFFFFFFFFFFFFFFF
310
FFFFFFFFFFFFFFFFFFFFFFFFFFFFFFFFF000FFFFFFFFFFFFFFFFFFFFFFFFFFFF
310
FFFFFFFFFFFFFFFFFFFFFFFFFFFFFFFFFFFFFFFFFFFFFFFFFFFFFFFFFFFFFFFF
310
FFFFFFFFFFFFFFFFFFFFFFFFFFFFFFFFFFFFFFFFFFFFFFFFFFFFFFFFFFFFFFFF
310
FFFFFFFFFFFFFFFFF000FFFFFFFFFFFFFFFFFFFFFFFFFFFFFFFFFFFFFFFFFFFF
310
FFFFFFFFFFFFFFFFFFFFFFFFFFFFFFFFFFFFFFFFFFFFFFFFFFFFFFFFFFFFFFFF
310
FFFFFFFFFFFFFFFFFFFFFFFFFFFFFFFFFFFFFFFFFFFFFFFFFFFFFFFFFFFFFFFF
310
F000FFFFFFFFFFFFFFFFFFFFFFFFFFFFFFFFFFFFFFFFFFFFFFFFFFFFFFFFFFFF
310
FFFFFFFFFFFFFFFFFFFFFFFFFFFFFFFFFFFFFFFFFFFFFFFFFFFFFFFFFFFFFFFF
310
FFFFFFFFFFFFFFFFFFFFFFFFFFFFFFFFFFFFFFFFFFFFFFFFF000FFFFFFFFFFFF
310
FFFFFFFFFFFFFFFFFFFFFFFFFFFFFFFFFFFFFFFFFFFFFFFFFFFFFFFFFFFFFFFF
310
FFFFFFFFFFFFFFFFFFFFFFFFFFFFFFFFFFFFFFFFFFFFFFFFFFFFFFFFFFFFFFFF
310
FFFFFFFFFFFFFFFFFFFFFFFFFFFFFFFFF000FFFFFFFFFFFFFFFFFFFFFFFFFFFF
310
FFFFFFFFFFFFFFFFFFFFFFFFFFFFFFFFFFFFFFFFFFFFFFFFFFFFFFFFFFFFFFFF
310
FFFFFFFFFFFFFFFFFFFFFFFFFFFFFFFFFFFFFFFFFFFFFFFFFFFFFFFFFFFFFFFF
310
FFFFFFFFFFFFFFFFF000FFFFF80003FFFFFFFFFFFFFFFFFFFFFFFFFFFFFFFFFF
310
FFFFF00007FFFFFFFFFF00007FFFFFF800000000000000007FFFFFFFFFFFFFFF
310
FFFFFFFC001FFFFFFFFFFFFFFC001FFFFFFFFFFFFFFFFFFFFFFFFFFE0007FFFF
310
F000FFFF8000007FFFFFFFF8000FFFFFC0007FFFFF80007FFFFF0000007FFFFF
310
FFF8000007FFFFF800000000000000007FFFFFF0001FFFFFFFFFFFC00001FFFF
310
FFFFFFFFC00001FFFFFFFF000000000003FFFFE000007FFFF000FFFE0000000F
310
FFFFFFF0000FFFFF80007FFFFF80007FFFFC0000001FFFFFFFC0000001FFFFF8
310
00000000000000007FFFFFF0001FFFFFFFFFFE0000003FFFFFFFFFFE0000003F
310
FFFFFF000000000003FFFF0000000FFFF000FFF800000003FFFFFFF00007FFFF
310
80007FFFFF80007FFFF000000007FFFFFF000000003FFFF80000000000000000
310
7FFFFFF0001FFFFFFFFFF80000000FFFFFFFFFF80000000FFFFFFF0000000000
310
03FFFC00000003FFF000FFE000000000FFFFFFF00007FFFF80003FFFFF80007F
310
FFC000000001FFFFFC000000001FFFF800000000000000007FFFFFF0001FFFFF
310
FFFFE000000003FFFFFFFFE000000003FFFFFF000000000003FFF000000000FF
310
F000FF80000000007FFFFFF00007FFFF80003FFFFF80007FFF8000000000FFFF
310
F80000000007FFF800000000000000007FFFFFF0001FFFFFFFFFC000000001FF
310
FFFFFFC000000001FFFFFF000000000003FFC0000000007FF000FF0000000000
310
3FFFFFE00007FFFF00003FFFFF80007FFE00000000003FFFF00000000003FFF8
310
00000000000000007FFFFFF0001FFFFFFFFF8000000000FFFFFFFF8000000000
310
FFFFFF000000000003FF80000000003FF000FE00000000001FFFFFE00003FFFF
310
00003FFFFF80007FFC00000000001FFFE00000000001FFF8000001FFFE000000
310
7FFFFFF0001FFFFFFFFE00000000003FFFFFFE00000000003FFFFF0000000000
310
03FF00000000001FF000FC00000000000FFFFFE00003FFFF00001FFFFF80007F
310
F800000000001FFFC00000000000FFF8000001FFFE0000007FFFFFF0001FFFFF
310
FFFC00000000001FFFFFFC00000000001FFFFF000000000003FE00000000000F
310
F000F8000000000007FFFFE00003FFFF00001FFFFF80007FF800000000000FFF
310
800000000000FFF8000001FFFE0000007FFFFFF0001FFFFFFFF800000000000F
310
FFFFF800000000000FFFFF000000000003FC000000000007F000F80000000000
310
03FFFFC00003FFFE00001FFFFF80007FF0000000000007FF0000000000007FF8
310
000001FFFE0000007FFFFFF0001FFFFFFFF0000000000007FFFFF00000000000
310
07FFFF000000000003F8000000000003F000F0000000000003FFFFC00001FFFE
310
00001FFFFF80007FE0000000000007FE0000000000003FF8000001FFFE000000
310
7FFFFFF0001FFFFFFFF0000000000007FFFFF0000000000007FFFF0000000000
310
03F800001F800003F000E00001FFF00001FFFFC00001FFFE00000FFFFF80007F
310
E00001FFE00003FE00001FFF00003FF8000001FFFE0000007FFFFFF0001FFFFF
310
FFE000003E000003FFFFE000003E000003FFFF000000000003F00001FFF80001
310
F000E00007FFFC0001FFFFC00001FFFE00000FFFFF80007FC0000FFFFC0003FC
310
0000FFFFC0001FF8000001FFFE0000007FFFFFF0001FFFFFFFC00003FFE00001
310
FFFFC00003FFE00001FFFF0001FFFFFFFFF00007FFFE0001F000E0000FFFFF00
310
00FFFF800001FFFC00000FFFFF80007FC0001FFFFE0001FC0001FFFFE0001FF8
310
000001FFFE0000007FFFFFF0001FFFFFFF80000FFFF80000FFFF80000FFFF800
310
00FFFF0003FFFFFFFFE0000FFFFF8000F000C0003FFFFF8000FFFF800000FFFC
310
000007FFFF80007F80003FFFFF0001FC0003FFFFF0001FF8000001FFFE000000
310
7FFFFFF0001FFFFFFF80003FFFFE0000FFFF80003FFFFE0000FFFF0003FFFFFF
310
FFE0003FFFFF8000F000C0003FFFFF8000FFFF800000FFFC000007FFFF80007F
310
80007FFFFF8001F80007FFFFF8000FF8000001FFFE0000007FFFFFF0001FFFFF
310
FF00007FFFFF00007FFF00007FFFFF00007FFF0003FFFFFFFFE0003FFFFFC000
310
F000C0007FFFFFC000FFFF000000FFFC000007FFFF80007F8000FFFFFF8000F8
310
000FFFFFF8000FF8000001FFFE0000007FFFFFF0001FFFFFFF0000FFFFFF8000
310
7FFF0000FFFFFF80007FFF0003FFFFFFFFC0007FFFFFC00070008000FFFFFFC0
310
00FFFF000000FFF8000007FFFF80007F8000FFFFFF8000F8000FFFFFF8000FF8
310
000001FFFE0000007FFFFFF0001FFFFFFE0001FFFFFFC0003FFE0001FFFFFFC0
310
003FFF0003FFFFFFFFC0007FFFFFE00070008000FFFFFFC0007FFF0000007FF8
310
000003FFFF80007F0001FFFFFF8000F8000FFFFFF8000FF8000001FFFE000000
310
7FFFFFF0001FFFFFFE0001FFFFFFC0003FFE0001FFFFFFC0003FFF0003FFFFFF
310
FFC000FFFFFFE00070008000FFFFFFC0007FFF0000007FF8000003FFFF80007F
310
0001FFFFFF8000F8001FFFFFF8000FF8000001FFFE0000007FFFFFF0001FFFFF
310
FE0003FFFFFFE0003FFE0003FFFFFFE0003FFF0003FFFFFFFFC000FFFFFFE000
310
70008000FFFFFFC0007FFE0000007FF8000003FFFF80007F0001FFFFFF8000F0
310
001FFFFFF8000FF8000001FFFE0000007FFFFFF0001FFFFFFC0003FFFFFFE000
310
1FFC0003FFFFFFE0001FFF0003FFFFFFFFC000FFFFFFC00070008000FFFFFF80
310
007FFE0000007FF0000003FFFF80007F0001FFFFFF0000F0001FFFFFF8000FF8
310
000001FFFE0000007FFFFFF0001FFFFFFC0007FFFFFFF0001FFC0007FFFFFFF0
310
001FFF0003FFFFFFFFC000FFFFFFC00070008001FFFFFF0000FFFE0000003FF0
310
000001FFFF80007F0001FFFFFF0000F8001FFFFFF0000FF8000001FFFE000000
310
7FFFFFF0001FFFFFFC0007FFFFFFF0001FFC0007FFFFFFF0001FFF0003FFFFFF
310
FFC001FFFFFF80007000FFFFFFFFFE0000FFFE0008003FF0008001FFFF80007F
310
FFFFFFFFFC0000FFFFFFFFFFE0000FF8000001FFFE0000007FFFFFF0001FFFFF
310
F8000FFFFFFFF8000FF8000FFFFFFFF8000FFF0003FFFFFFFFFFFFFFFFFF0000
310
7000FFFFFFFFFC0000FFFC0008003FF0008001FFFF80007FFFFFFFFFF80001FF
310
FFFFFFFF80000FF8000001FFFE0000007FFFFFF0001FFFFFF8000FFFFFFFF800
310
0FF8000FFFFFFFF8000FFF0003FFFFFFFFFFFFFFFFFE0000F000FFFFFFFFE000
310
00FFFC000C003FE000C001FFFF80007FFFFFFFFFC00001FFFFFFFFFE00001FF8
310
000001FFFE0000007FFFFFF0001FFFFFF8000FFFFFFFF8000FF8000FFFFFFFF8
310
000FFF0003FFFFFFFFFFFFFFFFF00000F000FFFFFFFE000001FFFC000C001FE0
310
00C000FFFF80007FFFFFFFFE000001FFFFFFFFE000001FF80FFFFFFFFFFFFFC0
310
7FFFFFF0001FFFFFF8000FFFFFFFF8000FF8000FFFFFFFF8000FFF0003FFFFFF
310
FFFFFFFFFF800000F000FFFFFFC0000001FFFC001C001FE001C000FFFF80007F
310
FFFFFF80000003FFFFFFF80000001FF80FFFFFFFFFFFFFC07FFFFFF0001FFFFF
310
F8001FFFFFFFFC000FF8001FFFFFFFFC000FFF0003FFFFFFFFFFFFFFF0000001
310
F000FFFFF800000001FFF8001C001FE001C000FFFF80007FFFFFF800000003FF
310
FFFF800000003FF80FFFFFFFFFFFFFC07FFFFFF0001FFFFFF8001FFFFFFFFC00
310
0FF8001FFFFFFFFC000FFF0003FFFFFFFFFFFFFE00000001F000FFFFC0000000
310
03FFF8001E001FC001E000FFFF80007FFFFF8000000007FFFFFC000000003FF8
310
0FFFFFFFFFFFFFC07FFFFFF0001FFFFFF8001FFFFFFFFC000FF8001FFFFFFFFC
310
000FFF0003FFFFFFFFFFFFE000000003F000FFFE0000000007FFF8001E000FC0
310
01E0007FFF80007FFFFE0000000007FFFFE0000000007FF80FFFFFFFFFFFFFC0
310
7FFFFFF0001FFFFFF0001FFFFFFFFC0007F0001FFFFFFFFC0007FF0003FFFFFF
310
FFFFFF0000000003F000FFF80000000007FFF8001E000FC003E0007FFF80007F
310
FFF0000000000FFFFF8000000000FFF80FFFFFFFFFFFFFC07FFFFFF0001FFFFF
310
F0001FFFFFFFFC0007F0001FFFFFFFFC0007FF0003FFFFFFFFFFFC0000000007
310
F000FFE0000000000FFFF0003E000FC003E0007FFF80007FFFC0000000001FFF
310
FE0000000001FFF80FFFFFFFFFFFFFC07FFFFFF0001FFFFFF0001FFFFFFFFC00
310
07F0001FFFFFFFFC0007FF0003FFFFFFFFFFF0000000000FF000FFC000000000
310
1FFFF0003F000F8003F0003FFF80007FFF80000000003FFFF80000000003FFF8
310
0FFFFFFFFFFFFFC07FFFFFF0001FFFFFF0001FFFFFFFFC0007F0001FFFFFFFFC
310
0007FF0003FFFFFFFFFFE0000000001FF000FF00000000007FFFF0003F000780
310
03F0003FFF80007FFF00000000007FFFF00000000007FFF80FFFFFFFFFFFFFC0
310
7FFFFFF0001FFFFFF0001FFFFFFFFC0007F0001FFFFFFFFC0007FF0003FFFFFF
310
FFFF80000000007FF000FE0000000000FFFFE0003F00078007F0003FFF80007F
310
FE0000000001FFFFE0000000001FFFF80FFFFFFFFFFFFFC07FFFFFF0001FFFFF
310
F0001FFFFFFFFC0007F0001FFFFFFFFC0007FF0003FFFFFFFFFF0000000000FF
310
F000FC0000000003FFFFE0007F00078007F0003FFF80007FFC0000000007FFFF
310
C0000000007FFFF80FFFFFFFFFFFFFC07FFFFFF0001FFFFFF8001FFFFFFFFC00
310
0FF8001FFFFFFFFC000FFF0003FFFFFFFFFE0000000003FFF000FC000000000F
310
FFFFE0007F80070007F8001FFF80007FF8000000001FFFFF8000000001FFFFF8
310
0FFFFFFFFFFFFFC07FFFFFF0001FFFFFF8001FFFFFFFFC000FF8001FFFFFFFFC
310
000FFF0003FFFFFFFFFC000000000FFFF000F8000000007FFFFFE0007F800700
310
07F8001FFF80007FF000000000FFFFFF800000000FFFFFF80FFFFFFFFFFFFFC0
310
7FFFFFF0001FFFFFF8000FFFFFFFF8000FF8000FFFFFFFF8000FFF0003FFFFFF
310
FFFC000000007FFFF000F800000007FFFFFFC0007F8003000FF8001FFF80007F
310
F000000007FFFFFF000000007FFFFFF80FFFFFFFFFFFFFC07FFFFFF0001FFFFF
310
F8000FFFFFFFF8000FF8000FFFFFFFF8000FFF0003FFFFFFFFF80000000FFFFF
310
F000F0000000FFFFFFFFC000FF8003000FF8001FFF80007FE0000000FFFFFFFF
310
0000000FFFFFFFF8000001FFFE0000007FFFFFF0001FFFFFF8000FFFFFFFF800
310
0FF8000FFFFFFFF8000FFF0003FFFFFFFFF8000000FFFFFFF000F000000FFFFF
310
FFFFC000FFC002000FF8000FFF80007FE000001FFFFFFFFE000001FFFFFFFFF8
310
000001FFFE0000007FFFFFF0001FFFFFF8000FFFFFFFF8000FF8000FFFFFFFF8
310
000FFF0003FFFFFFFFF000001FFFFFFFF000E00000FFFFFFFFFFC000FFC00200
310
0FFC000FFF80007FE00001FFFFFFFFFE00001FFFFFFFFFF8000001FFFE000000
310
7FFFFFF0001FFFFFFC000FFFFFFFF8001FFC000FFFFFFFF8001FFF0003FFFFFF
310
FFF00001FFFFFFFFF000E00007FFFFFFFFFF8000FFC000001FFC000FFF80007F
310
C0000FFFFFFFFFFE0000FFFFFFFFFFF8000001FFFE0000007FFFFFF0001FFFFF
310
FC0007FFFFFFF0001FFC0007FFFFFFF0001FFF0003FFFFFFFFF00007FFFFFFFF
310
F000E0001FFFFFFFFFFF8000FFC000001FFC000FFF80007FC0003FFFFFFFFFFE
310
0001FFFFFFFFFFF8000001FFFE0000007FFFFFF0001FFFFFFC0007FFFFFFF000
310
1FFC0007FFFFFFF0001FFF0003FFFFFFFFF0001FFFFFFFFFF000E0003FFFFF00
310
03FF8001FFE000001FFC0007FF80007FC0007FFFFF0007FC0003FFFFF0003FF8
310
000001FFFE0000007FFFFFF0001FFFFFFC0003FFFFFFE0001FFC0003FFFFFFE0
310
001FFF0003FFFFFFFFF0003FFFFFFFFFF000E0003FFFFF0001FF8001FFE00000
310
1FFE0007FF80007FC0007FFFFE0003FC0007FFFFE0003FF8000001FFFE000000
310
7FFFFFF0001FFFFFFE0003FFFFFFE0003FFE0003FFFFFFE0003FFF0003FFFFFF
310
FFF0003FFFFF8001F000E0003FFFFF0001FF0001FFE000001FFE0007FF80007F
310
C0007FFFFE0003FC0007FFFFE0003FF8000001FFFE0000007FFFFFF0001FFFFF
310
FE0001FFFFFFC0003FFE0001FFFFFFC0003FFF0003FFFFFFFFF0003FFFFF0001
310
F000E0003FFFFF0003FF0001FFE000003FFE0007FF80007FC0007FFFFE0003FC
310
0007FFFFE0003FF8000001FFFE0000007FFFFFF0001FFFFFFF0001FFFFFFC000
310
7FFF0001FFFFFFC0007FFF0003FFFFFFFFF0003FFFFF0001F000E0003FFFFE00
310
03FF0003FFF000003FFE0003FF80007FC0007FFFFC0003FE0007FFFFE0003FF8
310
000001FFFE0000007FFFFFF0001FFFFFFF0000FFFFFF80007FFF0000FFFFFF80
310
007FFF0003FFFFFFFFF0003FFFFF0001F000E0003FFFFE0003FF0003FFF00000
310
3FFF0003FF80007FC0007FFFFC0007FE0007FFFFC0003FF8000001FFFE000000
310
7FFFFFF0001FFFFFFF80007FFFFF0000FFFF80007FFFFF0000FFFF0003FFFFFF
310
FFF0003FFFFF0003F000E0003FFFFC0003FE0003FFF000003FFF0003FF80007F
310
E0003FFFF80007FE0003FFFFC0007FF8000001FFFE0000007FFFFFF0001FFFFF
310
FF80003FFFFE0000FFFF80003FFFFE0000FFFF0003FFFFFFFFF0001FFFFE0003
310
F000F0001FFFF80003FE0003FFF000007FFF0001FF80007FE0003FFFF00007FE
310
0001FFFF80007FF8000001FFFE0000007FFFFFF0001FFFFFFFC0000FFFF80001
310
FFFFC0000FFFF80001FFFF0003FFFFFFFFF0001FFFFC0003F000F0000FFFF000
310
07FE0007FFF800007FFF0001FF80007FE0001FFFE00007FF0000FFFE00007FF8
310
000001FFFE0000007FFFFFF0001FFFFFFFC00003FFE00001FFFFC00003FFE000
310
01FFFF0003FFFFFFFFF8000FFFF80003F000F00003FFC00007FC0007FFF80000
310
7FFF8001FF80007FF00007FF80000FFF00007FF80000FFF8000001FFFE000000
310
7F80000000000001FFE000003E000003FFFFE000003E000003FFFF0003FFFFFF
310
FFF80003FFE00007F000F800000000000FFC0007FFF800007FFF8001FF80007F
310
F000000000000FFF000000000000FFF8000001FFFE0000007F80000000000001
310
FFF0000000000007FFFFF0000000000007FFFF0003FFFFFFFFFC00007E000007
310
F000F800000000000FFC0007FFF80000FFFF8000FF80007FF800000000001FFF
310
800000000001FFF8000001FFFE0000007F80000000000001FFF800000000000F
310
FFFFF800000000000FFFFF0003FFFFFFFFFC00000000000FF000FC0000000000
310
1FFC0007FFFC0000FFFF8000FF80007FF800000000003FFFC00000000001FFF8
310
000001FFFE0000007F80000000000001FFF800000000000FFFFFF80000000000
310
0FFFFF0003FFFFFFFFFE00000000001FF000FE00000000003FF8000FFFFC0000
310
FFFF8000FF80007FFC00000000003FFFC00000000003FFF8000001FFFE000000
310
7F80000000000001FFFC00000000001FFFFFFC00000000001FFFFF0003FFFFFF
310
FFFF00000000001FF000FF00000000003FF8000FFFFC0000FFFFC000FF80007F
310
FE00000000007FFFE00000000007FFF8000001FFFE0000007F80000000000001
310
FFFE00000000003FFFFFFE00000000003FFFFF0003FFFFFFFFFF80000000003F
310
F000FF80000000007FF8000FFFFC0001FFFFC0007F80007FFF0000000000FFFF
310
F0000000000FFFF800000000000000007F80000000000001FFFF8000000000FF
310
FFFFFF8000000000FFFFFF0003FFFFFFFFFFC0000000007FF000FFC000000000
310
FFF8000FFFFE0001FFFFC0007F80007FFF8000000001FFFFF8000000001FFFF8
310
00000000000000007F80000000000001FFFFC000000001FFFFFFFFC000000001
310
FFFFFF0003FFFFFFFFFFE000000000FFF000FFE000000003FFF0001FFFFE0001
310
FFFFC0007F80007FFFC000000007FFFFFE000000003FFFF80000000000000000
310
7F80000000000001FFFFE000000003FFFFFFFFE000000003FFFFFF0003FFFFFF
310
FFFFF000000003FFF000FFF80000000FFFF0001FFFFE0001FFFFE0007F80007F
310
FFF00000000FFFFFFF00000000FFFFF800000000000000007F80000000000001
310
FFFFF80000000FFFFFFFFFF80000000FFFFFFF0003FFFFFFFFFFFC0000000FFF
310
F000FFFE0000003FFFF0001FFFFE0003FFFFE0003F80007FFFFC0000003FFFFF
310
FFC0000003FFFFF800000000000000007F80000000000001FFFFFE0000003FFF
310
FFFFFFFE0000003FFFFFFF0003FFFFFFFFFFFF0000003FFFF000FFFF800000FF
310
FFF0001FFFFF0003FFFFE0003F80007FFFFF000001FFFFFFFFF800001FFFFFF8
310
00000000000000007F80000000000001FFFFFFC00001FFFFFFFFFFFFC00001FF
310
FFFFFF0003FFFFFFFFFFFFC00000FFFFF000FFFFF8000FFFFFFFFFFFFFFFFFFF
310
FFFFFFFFFFFFFFFFFFFFF0001FFFFFFFFFFF0000FFFFFFF80000000000000000
310
7FFFFFFFFFFFFFFFFFFFFFFC001FFFFFFFFFFFFFFC001FFFFFFFFFFFFFFFFFFF
310
FFFFFFFC001FFFFFF000FFFFFFFFFFFFFFFFFFFFFFFFFFFFFFFFFFFFFFFFFFFF
310
FFFFFFFFFFFFFFFFFFFFFFFFFFFFFFFFFFFFFFFFFFFFFFFFFFFFFFFFFFFFFFFF
310
FFFFFFFFFFFFFFFFFFFFFFFFFFFFFFFFFFFFFFFFFFFFFFFFFFFFFFFFFFFFFFFF
310
F000FFFFFFFFFFFFFFFFFFFFFFFFFFFFFFFFFFFFFFFFFFFFFFFFFFFFFFFFFFFF
310
FFFFFFFFFFFFFFFFFFFFFFFFFFFFFFFFFFFFFFFFFFFFFFFFFFFFFFFFFFFFFFFF
310
FFFFFFFFFFFFFFFFFFFFFFFFFFFFFFFFFFFFFFFFFFFFFFFFF000FFFFFFFFFFFF
310
FFFFFFFFFFFFFFFFFFFFFFFFFFFFFFFFFFFFFFFFFFFFFFFFFFFFFFFFFFFFFFFF
310
FFFFFFFFFFFFFFFFFFFFFFFFFFFFFFFFFFFFFFFFFFFFFFFFFFFFFFFFFFFFFFFF
310
FFFFFFFFFFFFFFFFFFFFFFFFFFFFFFFFF000FFFFFFFFFFFFFFFFFFFFFFFFFFFF
310
FFFFFFFFFFFFFFFFFFFFFFFFFFFFFFFFFFFFFFFFFFFFFFFFFFFFFFFFFFFFFFFF
310
FFFFFFFFFFFFFFFFFFFFFFFFFFFFFFFFFFFFFFFFFFFFFFFFFFFFFFFFFFFFFFFF
310
FFFFFFFFFFFFFFFFF000FFFFFFFFFFFFFFFFFFFFFFFFFFFFFFFFFFFFFFFFFFFF
310
FFFFFFFFFFFFFFFFFFFFFFFFFFFFFFFFFFFFFFFFFFFFFFFFFFFFFFFFFFFFFFFF
310
FFFFFFFFFFFFFFFFFFFFFFFFFFFFFFFFFFFFFFFFFFFFFFFFFFFFFFFFFFFFFFFF
310
F000FFFFFFFFFFFFFFFFFFFFFFFFFFFFFFFFFFFFFFFFFFFFFFFFFFFFFFFFFFFF
310
FFFFFFFFFFFFFFFFFFFFFFFFFFFFFFFFFFFFFFFFFFFFFFFFFFFFFFFFFFFFFFFF
310
FFFFFFFFFFFFFFFFFFFFFFFFFFFFFFFFFFFFFFFFFFFFFFFFF000FFFFFFFFFFFF
310
FFFFFFFFFFFFFFFFFFFFFFFFFFFFFFFFFFFFFFFFFFFFFFFFFFFFFFFFFFFFFFFF
310
FFFFFFFFFFFFFFFFFFFFFFFFFFFFFFFFFFFFFFFFFFFFFFFFFFFFFFFFFFFFFFFF
310
FFFFFFFFFFFFFFFFFFFFFFFFFFFFFFFFF000FFFFFFFFFFFFFFFFFFFFFFFFFFFF
310
FFFFFFFFFFFFFFFFFFFFFFFFFFFFFFFFFFFFFFFFFFFFFFFFFFFFFFFFFFFFFFFF
310
FFFFFFFFFFFFFFFFFFFFFFFFFFFFFFFFFFFFFFFFFFFFFFFFFFFFFFFFFFFFFFFF
310
FFFFFFFFFFFFFFFFF000FFFFFFFFFFFFFFFFFFFFFFFFFFFFFFFFFFFFFFFFFFFF
310
FFFFFFFFFFFFFFFFFFFFFFFFFFFFFFFFFFFFFFFFFFFFFFFFFFFFFFFFFFFFFFFF
310
FFFFFFFFFFFFFFFFFFFFFFFFFFFFFFFFFFFFFFFFFFFFFFFFFFFFFFFFFFFFFFFF
310
F000FFFFFFFFFFFFFFFFFFFFFFFFFFFFFFFFFFFFFFFFFFFFFFFFFFFFFFFFFFFF
310
FFFFFFFFFFFFFFFFFFFFFFFFFFFFFFFFFFFFFFFFFFFFFFFFFFFFFFFFFFFFFFFF
310
FFFFFFFFFFFFFFFFFFFFFFFFFFFFFFFFFFFFFFFFFFFFFFFFF000FFFFFFFFFFFF
310
FFFFFFFFFFFFFFFFFFFFFFFFFFFFFFFFFFFFFFFFFFFFFFFFFFFFFFFFFFFFFFFF
310
FFFFFFFFFFFFFFFFFFFFFFFFFFFFFFFFFFFFFFFFFFFFFFFFFFFFFFFFFFFFFFFF
310
FFFFFFFFFFFFFFFFFFFFFFFFFFFFFFFFF000FFFFFFFFFFFFFFFFFFFFFFFFFFFF
310
FFFFFFFFFFFFFFFFFFFFFFFFFFFFFFFFFFFFFFFFFFFFFFFFFFFFFFFFFFFFFFFF
310
FFFFFFFFFFFFFFFFFFFFFFFFFFFFFFFFFFFFFFFFFFFFFFFFFFFFFFFFFFFFFFFF
310
FFFFFFFFFFFFFFFFF000FFFFFFFFFFFFFFFFFFFFFFFFFFFFFFFFFFFFFFFFFFFF
310
FFFFFFFFFFFFFFFFFFFFFFFFFFFFFFFFFFFFFFFFFFFFFFFFFFFFFFFFFFFFFFFF
310
FFFFFFFFFFFFFFFFFFFFFFFFFFFFFFFFFFFFFFFFFFFFFFFFFFFFFFFFFFFFFFFF
310
F000FFFFFFFFFFFFFFFFFFFFFFFFFFFFFFFFFFFFFFFFFFFFFFFFFFFFFFFFFFFF
310
FFFFFFFFFFFFFFFFFFFFFFFFFFFFFFFFFFFFFFFFFFFFFFFFFFFFFFFFFFFFFFFF
310
FFFFFFFFFFFFFFFFFFFFFFFFFFFFFFFFFFFFFFFFFFFFFFFFF000FFFFFFFFFFFF
310
FFFFFFFFFFFFFFFFFFFFFFFFFFFFFFFFFFFFFFFFFFFFFFFFFFFFFFFFFFFFFFFF
310
FFFFFFFFFFFFFFFFFFFFFFFFFFFFFFFFFFFFFFFFFFFFFFFFFFFFFFFFFFFFFFFF
310
FFFFFFFFFFFFFFFFFFFFFFFFFFFFFFFFF000FFFFFFFFFFFFFFFFFFFFFFFFFFFF
310
FFFFFFFFFFFFFFFFFFFFFFFFFFFFFFFFFFFFFFFFFFFFFFFFFFFFFFFFFFFFFFFF
310
FFFFFFFFFFFFFFFFFFFFFFFFFFFFFFFFFFFFFFFFFFFFFFFFFFFFFFFFFFFFFFFF
310
FFFFFFFFFFFFFFFFF000FFFFFFFFFFFFFFFFFFFFFFFFFFFFFFFFFFFFFFFFFFFF
310
FFFFFFFFFFFFFFFFFFFFFFFFFFFFFFFFFFFFFFFFFFFFFFFFFFFFFFFFFFFFFFFF
310
FFFFFFFFFFFFFFFFFFFFFFFFFFFFFFFFFFFFFFFFFFFFFFFFFFFFFFFFFFFFFFFF
310
F000FFFFFFFFFFFFFFFFFFFFFFFFFFFFFFFFFFFFFFFFFFFFFFFFFFFFFFFFFFFF
310
FFFFFFFFFFFFFFFFFFFFFFFFFFFFFFFFFFFFFFFFFFFFFFFFFFFFFFFFFFFFFFFF
310
FFFFFFFFFFFFFFFFFFFFFFFFFFFFFFFFFFFFFFFFFFFFFFFFF000FFFFFFFFFFFF
310
FFFFFFFFFFFFFFFFFFFFFFFFFFFFFFFFFFFFFFFFFFFFFFFFFFFFFFFFFFFFFFFF
310
FFFFFFFFFFFFFFFFFFFFFFFFFFFFFFFFFFFFFFFFFFFFFFFFFFFFFFFFFFFFFFFF
310
FFFFFFFFFFFFFFFFFFFFFFFFFFFFFFFFF000FFFFFFFFFFFFFFFFFFFFFFFFFFFF
310
FFFFFFFFFFFFFFFFFFFFFFFFFFFFFFFFFFFFFFFFFFFFFFFFFFFFFFFFFFFFFFFF
310
FFFFFFFFFFFFFFFFFFFFFFFFFFFFFFFFFFFFFFFFFFFFFFFFFFFFFFFFFFFFFFFF
310
FFFFFFFFFFFFFFFFF000FFFFFFFFFFFFFFFFFFFFFFFFFFFFFFFFFFFFFFFFFFFF
310
FFFFFFFFFFFFFFFFFFFFFFFFFFFFFFFFFFFFFFFFFFFFFFFFFFFFFFFFFFFFFFFF
310
FFFFFFFFFFFFFFFFFFFFFFFFFFFFFFFFFFFFFFFFFFFFFFFFFFFFFFFFFFFFFFFF
310
F000FFFFFFFFFFFFFFFFFFFFFFFFFFFFFFFFFFFFFFFFFFFFFFFFFFFFFFFFFFFF
310
FFFFFFFFFFFFFFFFFFFFFFFFFFFFFFFFFFFFFFFFFFFFFFFFFFFFFFFFFFFFFFFF
310
FFFFFFFFFFFFFFFFFFFFFFFFFFFFFFFFFFFFFFFFFFFFFFFFF000FFFFFFFFFFFF
310
FFFFFFFFFFFFFFFFFFFFFFFFFFFFFFFFFFFFFFFFFFFFFFFFFFFFFFFFFFFFFFFF
310
FFFFFFFFFFFFFFFFFFFFFFFFFFFFFFFFFFFFFFFFFFFFFFFFFFFFFFFFFFFFFFFF
310
FFFFFFFFFFFFFFFFFFFFFFFFFFFFFFFFF0000000000000000000000000000000
310
00000000000000000000000042006C00610063006B0000000000000000000000
310
0000000000000000000000000000000000000000000000000000000000000000
310
0000000000000000000000000000FFFFFFFFFFFFFFFFFFFFFFFFFFFFFFFFFFFF
310
FFFFFFFFFFFFFFFFFFFFFFFFFFFFFFFFFFFFFFFFFFFFFFFFFFFFFFFFFFFFFFFF
310
FFFFFFFFFFFFFFFFFFFFFFFF6476000800000000FFFFFFFF20FF202026000000
310
1E00000008000000060000000000000011000000200000008403000000000000
310
6000000060000000200002FB200020000000002B00FFFFFF40002200E8030000
310
A80400001C020000AF0000804A20004000000000000000000100000000000000
310
616C000800000000E40100007001000002000000270000001100000000000000
310
00000000BC0200000000000003020122420065006C006C00200047006F007400
310
680069006300200053007400640020004C006900670068007400000000000000
310
00000000000000000000000000000000420065006C006C0047006F0074006800
310
690063005300740064002D0042006F006C006400000000000000000000000000
310
0000000000000000000000000000000000000000000000000000000000000000
310
0000000000000000000000000000000000000000000000000000000000000000
  1
OLE
  0
ENDSEC
  0
SECTION
  2
OBJECTS
  0
DICTIONARY
  5
C
330
0
100
AcDbDictionary
281
     1
  3
ACAD_GROUP
350
D
  3
ACAD_LAYOUT
350
1A
  3
ACAD_MLEADERSTYLE
350
273
  3
ACAD_MLINESTYLE
350
17
  3
ACAD_PLOTSETTINGS
350
19
  3
ACAD_PLOTSTYLENAME
350
E
  3
ACAD_TABLESTYLE
350
272
  3
ACAD_VISUALSTYLE
350
2A
  3
AcDbVariableDictionary
350
274
  0
DICTIONARY
  5
D
102
{ACAD_REACTORS
330
C
102
}
330
C
100
AcDbDictionary
281
     1
  0
DICTIONARY
  5
1A
102
{ACAD_REACTORS
330
C
102
}
330
C
100
AcDbDictionary
281
     1
  3
Layout1
350
1E
  3
Layout2
350
26
  3
Model
350
22
  0
DICTIONARY
  5
273
102
{ACAD_REACTORS
330
C
102
}
330
C
100
AcDbDictionary
281
     1
  0
DICTIONARY
  5
17
102
{ACAD_REACTORS
330
C
102
}
330
C
100
AcDbDictionary
281
     1
  3
Standard
350
18
  0
DICTIONARY
  5
19
102
{ACAD_REACTORS
330
C
102
}
330
C
100
AcDbDictionary
281
     1
  0
ACDBDICTIONARYWDFLT
  5
E
102
{ACAD_REACTORS
330
C
102
}
330
C
100
AcDbDictionary
281
     1
  3
Normal
350
F
100
AcDbDictionaryWithDefault
340
F
  0
DICTIONARY
  5
272
102
{ACAD_REACTORS
330
C
102
}
330
C
100
AcDbDictionary
281
     1
  0
DICTIONARY
  5
2A
102
{ACAD_REACTORS
330
C
102
}
330
C
100
AcDbDictionary
281
     1
  3
2dWireframe
350
2F
  3
3D Hidden
350
31
  3
3dWireframe
350
30
  3
Basic
350
32
  3
Brighten
350
36
  3
ColorChange
350
3A
  3
Conceptual
350
34
  3
Dim
350
35
  3
Facepattern
350
39
  3
Flat
350
2B
  3
FlatWithEdges
350
2C
  3
Gouraud
350
2D
  3
GouraudWithEdges
350
2E
  3
Linepattern
350
38
  3
Realistic
350
33
  3
Thicken
350
37
  0
DICTIONARY
  5
274
102
{ACAD_REACTORS
330
C
102
}
330
C
100
AcDbDictionary
281
     1
  3
PSOLHEIGHT
350
276
  3
PSOLWIDTH
350
275
  0
LAYOUT
  5
1E
102
{ACAD_REACTORS
330
1A
102
}
330
1A
100
AcDbPlotSettings
  1

  2
none_device
  4

  6

 40
0.0
 41
0.0
 42
0.0
 43
0.0
 44
0.0
 45
0.0
 46
0.0
 47
0.0
 48
0.0
 49
0.0
140
0.0
141
0.0
142
1.0
143
1.0
 70
   688
 72
     0
 73
     0
 74
     5
  7

 75
    16
147
1.0
148
0.0
149
0.0
100
AcDbLayout
  1
Layout1
 70
     1
 71
     1
 10
0.0
 20
0.0
 11
420.0
 21
297.0
 12
0.0
 22
0.0
 32
0.0
 14
1.0000000000E+20
 24
1.0000000000E+20
 34
1.0000000000E+20
 15
-1.0000000000E+20
 25
-1.0000000000E+20
 35
-1.0000000000E+20
146
0.0
 13
0.0
 23
0.0
 33
0.0
 16
1.0
 26
0.0
 36
0.0
 17
0.0
 27
1.0
 37
0.0
 76
     0
330
1B
  0
LAYOUT
  5
26
102
{ACAD_REACTORS
330
1A
102
}
330
1A
100
AcDbPlotSettings
  1

  2
none_device
  4

  6

 40
0.0
 41
0.0
 42
0.0
 43
0.0
 44
0.0
 45
0.0
 46
0.0
 47
0.0
 48
0.0
 49
0.0
140
0.0
141
0.0
142
1.0
143
1.0
 70
   688
 72
     0
 73
     0
 74
     5
  7

 75
    16
147
1.0
148
0.0
149
0.0
100
AcDbLayout
  1
Layout2
 70
     1
 71
     2
 10
0.0
 20
0.0
 11
0.0
 21
0.0
 12
0.0
 22
0.0
 32
0.0
 14
0.0
 24
0.0
 34
0.0
 15
0.0
 25
0.0
 35
0.0
146
0.0
 13
0.0
 23
0.0
 33
0.0
 16
1.0
 26
0.0
 36
0.0
 17
0.0
 27
1.0
 37
0.0
 76
     0
330
23
  0
LAYOUT
  5
22
102
{ACAD_REACTORS
330
1A
102
}
330
1A
100
AcDbPlotSettings
  1

  2
none_device
  4

  6

 40
0.0
 41
0.0
 42
0.0
 43
0.0
 44
0.0
 45
0.0
 46
0.0
 47
0.0
 48
0.0
 49
0.0
140
0.0
141
0.0
142
1.0
143
1.0
 70
  1712
 72
     0
 73
     0
 74
     0
  7

 75
     0
147
1.0
148
0.0
149
0.0
100
AcDbLayout
  1
Model
 70
     1
 71
     0
 10
0.0
 20
0.0
 11
297.0
 21
210.0
 12
0.0
 22
0.0
 32
0.0
 14
0.0
 24
0.0
 34
0.0
 15
297.0
 25
210.0
 35
0.0
146
0.0
 13
0.0
 23
0.0
 33
0.0
 16
1.0
 26
0.0
 36
0.0
 17
0.0
 27
1.0
 37
0.0
 76
     0
330
1F
331
29
  0
MLINESTYLE
  5
18
102
{ACAD_REACTORS
330
17
102
}
330
17
100
AcDbMlineStyle
  2
Standard
 70
     0
  3

 62
   256
 51
90.0
 52
90.0
 71
     2
 49
0.5
 62
   256
  6
BYLAYER
 49
-0.5
 62
   256
  6
BYLAYER
  0
ACDBPLACEHOLDER
  5
F
102
{ACAD_REACTORS
330
E
102
}
330
E
  0
VISUALSTYLE
  5
2F
102
{ACAD_REACTORS
330
2A
102
}
330
2A
100
AcDbVisualStyle
  2
2dWireframe
 70
     4
 71
     0
 72
     2
 73
     0
 90
        0
 40
-0.6
 41
-30.0
 62
     5
 63
     7
 74
     1
 91
        4
 64
     7
 65
   257
 75
     1
175
     1
 42
1.0
 92
        0
 66
   257
 43
1.0
 76
     1
 77
     6
 78
     2
 67
     7
 79
     5
170
     0
171
     0
290
     0
174
     0
 93
        1
 44
0.0
173
     0
291
     0
 45
0.0
1001
ACAD
1000
AcDbSavedByObjectVersion
1070
     0
  0
VISUALSTYLE
  5
31
102
{ACAD_REACTORS
330
2A
102
}
330
2A
100
AcDbVisualStyle
  2
3D Hidden
 70
     6
 71
     1
 72
     2
 73
     2
 90
        0
 40
-0.6
 41
-30.0
 62
     5
 63
     7
 74
     2
 91
        2
 64
     7
 65
   257
 75
     2
175
     1
 42
40.0
 92
        0
 66
   257
 43
1.0
 76
     1
 77
     6
 78
     2
 67
     7
 79
     3
170
     0
171
     0
290
     0
174
     0
 93
        1
 44
0.0
173
     0
291
     0
 45
0.0
1001
ACAD
1000
AcDbSavedByObjectVersion
1070
     0
  0
VISUALSTYLE
  5
30
102
{ACAD_REACTORS
330
2A
102
}
330
2A
100
AcDbVisualStyle
  2
3dWireframe
 70
     5
 71
     0
 72
     2
 73
     0
 90
        0
 40
-0.6
 41
-30.0
 62
     5
 63
     7
 74
     1
 91
        4
 64
     7
 65
   257
 75
     1
175
     1
 42
1.0
 92
        0
 66
   257
 43
1.0
 76
     1
 77
     6
 78
     2
 67
     7
 79
     5
170
     0
171
     0
290
     0
174
     0
 93
        1
 44
0.0
173
     0
291
     0
 45
0.0
1001
ACAD
1000
AcDbSavedByObjectVersion
1070
     0
  0
VISUALSTYLE
  5
32
102
{ACAD_REACTORS
330
2A
102
}
330
2A
100
AcDbVisualStyle
  2
Basic
 70
     7
 71
     1
 72
     0
 73
     1
 90
        0
 40
-0.6
 41
-30.0
 62
     5
 63
     7
 74
     0
 91
        4
 64
     7
 65
   257
 75
     1
175
     1
 42
1.0
 92
        8
 66
     7
 43
1.0
 76
     1
 77
     6
 78
     2
 67
     7
 79
     5
170
     0
171
     0
290
     0
174
     0
 93
        1
 44
0.0
173
     0
291
     1
 45
0.0
1001
ACAD
1000
AcDbSavedByObjectVersion
1070
     0
  0
VISUALSTYLE
  5
36
102
{ACAD_REACTORS
330
2A
102
}
330
2A
100
AcDbVisualStyle
  2
Brighten
 70
    12
 71
     2
 72
     2
 73
     0
 90
        0
 40
-0.6
 41
-30.0
 62
     5
 63
     7
 74
     1
 91
        4
 64
     7
 65
   257
 75
     1
175
     1
 42
1.0
 92
        8
 66
     7
 43
1.0
 76
     1
 77
     6
 78
     2
 67
     7
 79
     5
170
     0
171
     0
290
     0
174
     0
 93
        1
 44
50.0
173
     0
291
     1
 45
0.0
1001
ACAD
1000
AcDbSavedByObjectVersion
1070
     0
  0
VISUALSTYLE
  5
3A
102
{ACAD_REACTORS
330
2A
102
}
330
2A
100
AcDbVisualStyle
  2
ColorChange
 70
    16
 71
     2
 72
     2
 73
     3
 90
        0
 40
-0.6
 41
-30.0
 62
     5
 63
     8
 74
     1
 91
        4
 64
     7
 65
   257
 75
     1
175
     1
 42
1.0
 92
        8
 66
     8
 43
1.0
 76
     1
 77
     6
 78
     2
 67
     7
 79
     5
170
     0
171
     0
290
     0
174
     0
 93
        1
 44
0.0
173
     0
291
     1
 45
0.0
1001
ACAD
1000
AcDbSavedByObjectVersion
1070
     0
  0
VISUALSTYLE
  5
34
102
{ACAD_REACTORS
330
2A
102
}
330
2A
100
AcDbVisualStyle
  2
Conceptual
 70
     9
 71
     3
 72
     2
 73
     0
 90
        0
 40
-0.6
 41
-30.0
 62
     5
 63
     7
 74
     2
 91
        2
 64
     7
 65
   257
 75
     1
175
     1
 42
40.0
 92
        8
 66
     7
 43
1.0
 76
     1
 77
     6
 78
     2
 67
     7
 79
     3
170
     0
171
     0
290
     0
174
     0
 93
        1
 44
0.0
173
     0
291
     0
 45
0.0
1001
ACAD
1000
AcDbSavedByObjectVersion
1070
     0
  0
VISUALSTYLE
  5
35
102
{ACAD_REACTORS
330
2A
102
}
330
2A
100
AcDbVisualStyle
  2
Dim
 70
    11
 71
     2
 72
     2
 73
     0
 90
        0
 40
-0.6
 41
-30.0
 62
     5
 63
     7
 74
     1
 91
        4
 64
     7
 65
   257
 75
     1
175
     1
 42
1.0
 92
        8
 66
     7
 43
1.0
 76
     1
 77
     6
 78
     2
 67
     7
 79
     5
170
     0
171
     0
290
     0
174
     0
 93
        1
 44
-50.0
173
     0
291
     1
 45
0.0
1001
ACAD
1000
AcDbSavedByObjectVersion
1070
     0
  0
VISUALSTYLE
  5
39
102
{ACAD_REACTORS
330
2A
102
}
330
2A
100
AcDbVisualStyle
  2
Facepattern
 70
    15
 71
     2
 72
     2
 73
     0
 90
        0
 40
-0.6
 41
-30.0
 62
     5
 63
     7
 74
     1
 91
        4
 64
     7
 65
   257
 75
     1
175
     1
 42
1.0
 92
        8
 66
     7
 43
1.0
 76
     1
 77
     6
 78
     2
 67
     7
 79
     5
170
     0
171
     0
290
     0
174
     0
 93
        1
 44
0.0
173
     0
291
     1
 45
0.0
1001
ACAD
1000
AcDbSavedByObjectVersion
1070
     0
  0
VISUALSTYLE
  5
2B
102
{ACAD_REACTORS
330
2A
102
}
330
2A
100
AcDbVisualStyle
  2
Flat
 70
     0
 71
     2
 72
     1
 73
     1
 90
        2
 40
-0.6
 41
30.0
 62
     5
 63
     7
 74
     0
 91
        4
 64
     7
 65
   257
 75
     1
175
     1
 42
1.0
 92
        8
 66
     7
 43
1.0
 76
     1
 77
     6
 78
     2
 67
     7
 79
     5
170
     0
171
     0
290
     0
174
     0
 93
       13
 44
0.0
173
     0
291
     1
 45
0.0
1001
ACAD
1000
AcDbSavedByObjectVersion
1070
     0
  0
VISUALSTYLE
  5
2C
102
{ACAD_REACTORS
330
2A
102
}
330
2A
100
AcDbVisualStyle
  2
FlatWithEdges
 70
     1
 71
     2
 72
     1
 73
     1
 90
        2
 40
-0.6
 41
30.0
 62
     5
 63
     7
 74
     1
 91
        4
 64
     7
 65
   257
 75
     1
175
     1
 42
1.0
 92
        0
 66
   257
 43
1.0
 76
     1
 77
     6
 78
     2
 67
     7
 79
     5
170
     0
171
     0
290
     0
174
     0
 93
       13
 44
0.0
173
     0
291
     1
 45
0.0
1001
ACAD
1000
AcDbSavedByObjectVersion
1070
     0
  0
VISUALSTYLE
  5
2D
102
{ACAD_REACTORS
330
2A
102
}
330
2A
100
AcDbVisualStyle
  2
Gouraud
 70
     2
 71
     2
 72
     2
 73
     1
 90
        2
 40
-0.6
 41
30.0
 62
     5
 63
     7
 74
     0
 91
        4
 64
     7
 65
   257
 75
     1
175
     1
 42
1.0
 92
        0
 66
     7
 43
1.0
 76
     1
 77
     6
 78
     2
 67
     7
 79
     5
170
     0
171
     0
290
     0
174
     0
 93
       13
 44
0.0
173
     0
291
     1
 45
0.0
1001
ACAD
1000
AcDbSavedByObjectVersion
1070
     0
  0
VISUALSTYLE
  5
2E
102
{ACAD_REACTORS
330
2A
102
}
330
2A
100
AcDbVisualStyle
  2
GouraudWithEdges
 70
     3
 71
     2
 72
     2
 73
     1
 90
        2
 40
-0.6
 41
30.0
 62
     5
 63
     7
 74
     1
 91
        4
 64
     7
 65
   257
 75
     1
175
     1
 42
1.0
 92
        0
 66
   257
 43
1.0
 76
     1
 77
     6
 78
     2
 67
     7
 79
     5
170
     0
171
     0
290
     0
174
     0
 93
       13
 44
0.0
173
     0
291
     1
 45
0.0
1001
ACAD
1000
AcDbSavedByObjectVersion
1070
     0
  0
VISUALSTYLE
  5
38
102
{ACAD_REACTORS
330
2A
102
}
330
2A
100
AcDbVisualStyle
  2
Linepattern
 70
    14
 71
     2
 72
     2
 73
     0
 90
        0
 40
-0.6
 41
-30.0
 62
     5
 63
     7
 74
     1
 91
        4
 64
     7
 65
   257
 75
     7
175
     7
 42
1.0
 92
        8
 66
     7
 43
1.0
 76
     1
 77
     6
 78
     2
 67
     7
 79
     5
170
     0
171
     0
290
     0
174
     0
 93
        1
 44
0.0
173
     0
291
     1
 45
0.0
1001
ACAD
1000
AcDbSavedByObjectVersion
1070
     0
  0
VISUALSTYLE
  5
33
102
{ACAD_REACTORS
330
2A
102
}
330
2A
100
AcDbVisualStyle
  2
Realistic
 70
     8
 71
     2
 72
     2
 73
     0
 90
        0
 40
-0.6
 41
-30.0
 62
     5
 63
     7
 74
     1
 91
        0
 64
     7
 65
   257
 75
     1
175
     1
 42
1.0
 92
        8
 66
     8
 43
1.0
 76
     1
 77
     6
 78
     2
 67
     7
 79
     5
170
     0
171
     0
290
     0
174
     0
 93
       13
 44
0.0
173
     0
291
     0
 45
0.0
1001
ACAD
1000
AcDbSavedByObjectVersion
1070
     0
  0
VISUALSTYLE
  5
37
102
{ACAD_REACTORS
330
2A
102
}
330
2A
100
AcDbVisualStyle
  2
Thicken
 70
    13
 71
     2
 72
     2
 73
     0
 90
        0
 40
-0.6
 41
-30.0
 62
     5
 63
     7
 74
     1
 91
        4
 64
     7
 65
   257
 75
     1
175
     1
 42
1.0
 92
       12
 66
     7
 43
1.0
 76
     1
 77
     6
 78
     2
 67
     7
 79
     5
170
     0
171
     0
290
     0
174
     0
 93
        1
 44
0.0
173
     0
291
     1
 45
0.0
1001
ACAD
1000
AcDbSavedByObjectVersion
1070
     0
  0
DICTIONARYVAR
  5
276
102
{ACAD_REACTORS
330
274
102
}
330
274
100
DictionaryVariables
280
     0
  1
80.000000
  0
DICTIONARYVAR
  5
275
102
{ACAD_REACTORS
330
274
102
}
330
274
100
DictionaryVariables
280
     0
  1
5.000000
  0
ENDSEC
  0
EOF
