  0
SECTION
  2
HEADER
  9
$ACADVER
  1
AC1015
  9
$ACADMAINTVER
 70
     6
  9
$DWGCODEPAGE
  3
ANSI_1252
  9
$INSBASE
 10
0.0
 20
0.0
 30
0.0
  9
$EXTMIN
 10
0.0
 20
0.0
 30
0.0
  9
$EXTMAX
 10
297.0
 20
210.0
 30
0.0
  9
$LIMMIN
 10
0.0
 20
0.0
  9
$LIMMAX
 10
297.0
 20
210.0
  9
$ORTHOMODE
 70
     0
  9
$REGENMODE
 70
     1
  9
$FILLMODE
 70
     1
  9
$QTEXTMODE
 70
     0
  9
$MIRRTEXT
 70
     1
  9
$LTSCALE
 40
1.0
  9
$ATTMODE
 70
     1
  9
$TEXTSIZE
 40
2.0
  9
$TRACEWID
 40
1.0
  9
$TEXTSTYLE
  7
Standard
  9
$CLAYER
  8
0
  9
$CELTYPE
  6
ByLayer
  9
$CECOLOR
 62
   256
  9
$CELTSCALE
 40
1.0
  9
$DISPSILH
 70
     0
  9
$DIMSCALE
 40
1.0
  9
$DIMASZ
 40
3.0
  9
$DIMEXO
 40
0.0
  9
$DIMDLI
 40
3.75
  9
$DIMRND
 40
0.0
  9
$DIMDLE
 40
0.0
  9
$DIMEXE
 40
1.0
  9
$DIMTP
 40
0.0
  9
$DIMTM
 40
0.0
  9
$DIMTXT
 40
2.0
  9
$DIMCEN
 40
2.5
  9
$DIMTSZ
 40
0.0
  9
$DIMTOL
 70
     0
  9
$DIMLIM
 70
     0
  9
$DIMTIH
 70
     1
  9
$DIMTOH
 70
     1
  9
$DIMSE1
 70
     0
  9
$DIMSE2
 70
     0
  9
$DIMTAD
 70
     1
  9
$DIMZIN
 70
     0
  9
$DIMBLK
  1

  9
$DIMASO
 70
     1
  9
$DIMSHO
 70
     1
  9
$DIMPOST
  1

  9
$DIMAPOST
  1

  9
$DIMALT
 70
     0
  9
$DIMALTD
 70
     3
  9
$DIMALTF
 40
0.0393700787
  9
$DIMLFAC
 40
1.0
  9
$DIMTOFL
 70
     1
  9
$DIMTVP
 40
0.0
  9
$DIMTIX
 70
     0
  9
$DIMSOXD
 70
     0
  9
$DIMSAH
 70
     0
  9
$DIMBLK1
  1

  9
$DIMBLK2
  1

  9
$DIMSTYLE
  2
ISO-25
  9
$DIMCLRD
 70
     0
  9
$DIMCLRE
 70
     0
  9
$DIMCLRT
 70
     0
  9
$DIMTFAC
 40
1.0
  9
$DIMGAP
 40
1.524
  9
$DIMJUST
 70
     0
  9
$DIMSD1
 70
     0
  9
$DIMSD2
 70
     0
  9
$DIMTOLJ
 70
     0
  9
$DIMTZIN
 70
     0
  9
$DIMALTZ
 70
     0
  9
$DIMALTTZ
 70
     0
  9
$DIMUPT
 70
     0
  9
$DIMDEC
 70
     2
  9
$DIMTDEC
 70
     3
  9
$DIMALTU
 70
     2
  9
$DIMALTTD
 70
     3
  9
$DIMTXSTY
  7
Standard
  9
$DIMAUNIT
 70
     0
  9
$DIMADEC
 70
     2
  9
$DIMALTRND
 40
0.0
  9
$DIMAZIN
 70
     0
  9
$DIMDSEP
 70
    44
  9
$DIMATFIT
 70
     3
  9
$DIMFRAC
 70
     0
  9
$DIMLDRBLK
  1

  9
$DIMLUNIT
 70
     2
  9
$DIMLWD
 70
    -2
  9
$DIMLWE
 70
    -2
  9
$DIMTMOVE
 70
     0
  9
$LUNITS
 70
     2
  9
$LUPREC
 70
     2
  9
$SKETCHINC
 40
1.0
  9
$FILLETRAD
 40
10.0
  9
$AUNITS
 70
     0
  9
$AUPREC
 70
     2
  9
$MENU
  1
.
  9
$ELEVATION
 40
0.0
  9
$PELEVATION
 40
0.0
  9
$THICKNESS
 40
0.0
  9
$LIMCHECK
 70
     0
  9
$CHAMFERA
 40
10.0
  9
$CHAMFERB
 40
10.0
  9
$CHAMFERC
 40
20.0
  9
$CHAMFERD
 40
0.0
  9
$SKPOLY
 70
     0
  9
$TDCREATE
 40
2455643.433688241
  9
$TDUCREATE
 40
2455643.392021574
  9
$TDUPDATE
 40
2455643.433688252
  9
$TDUUPDATE
 40
2455643.392021586
  9
$TDINDWG
 40
0.0000000116
  9
$TDUSRTIMER
 40
0.0000000116
  9
$USRTIMER
 70
     1
  9
$ANGBASE
 50
0.0
  9
$ANGDIR
 70
     0
  9
$PDMODE
 70
     0
  9
$PDSIZE
 40
-1.0
  9
$PLINEWID
 40
0.0
  9
$SPLFRAME
 70
     0
  9
$SPLINETYPE
 70
     6
  9
$SPLINESEGS
 70
     8
  9
$HANDSEED
  5
286
  9
$SURFTAB1
 70
     6
  9
$SURFTAB2
 70
     6
  9
$SURFTYPE
 70
     6
  9
$SURFU
 70
     6
  9
$SURFV
 70
     6
  9
$UCSBASE
  2

  9
$UCSNAME
  2

  9
$UCSORG
 10
0.0
 20
0.0
 30
0.0
  9
$UCSXDIR
 10
1.0
 20
0.0
 30
0.0
  9
$UCSYDIR
 10
0.0
 20
1.0
 30
0.0
  9
$UCSORTHOREF
  2

  9
$UCSORTHOVIEW
 70
     0
  9
$UCSORGTOP
 10
0.0
 20
0.0
 30
0.0
  9
$UCSORGBOTTOM
 10
0.0
 20
0.0
 30
0.0
  9
$UCSORGLEFT
 10
0.0
 20
0.0
 30
0.0
  9
$UCSORGRIGHT
 10
0.0
 20
0.0
 30
0.0
  9
$UCSORGFRONT
 10
0.0
 20
0.0
 30
0.0
  9
$UCSORGBACK
 10
0.0
 20
0.0
 30
0.0
  9
$PUCSBASE
  2

  9
$PUCSNAME
  2

  9
$PUCSORG
 10
0.0
 20
0.0
 30
0.0
  9
$PUCSXDIR
 10
1.0
 20
0.0
 30
0.0
  9
$PUCSYDIR
 10
0.0
 20
1.0
 30
0.0
  9
$PUCSORTHOREF
  2

  9
$PUCSORTHOVIEW
 70
     0
  9
$PUCSORGTOP
 10
0.0
 20
0.0
 30
0.0
  9
$PUCSORGBOTTOM
 10
0.0
 20
0.0
 30
0.0
  9
$PUCSORGLEFT
 10
0.0
 20
0.0
 30
0.0
  9
$PUCSORGRIGHT
 10
0.0
 20
0.0
 30
0.0
  9
$PUCSORGFRONT
 10
0.0
 20
0.0
 30
0.0
  9
$PUCSORGBACK
 10
0.0
 20
0.0
 30
0.0
  9
$USERI1
 70
     0
  9
$USERI2
 70
     0
  9
$USERI3
 70
     0
  9
$USERI4
 70
     0
  9
$USERI5
 70
     0
  9
$USERR1
 40
0.0
  9
$USERR2
 40
0.0
  9
$USERR3
 40
0.0
  9
$USERR4
 40
0.0
  9
$USERR5
 40
0.0
  9
$WORLDVIEW
 70
     1
  9
$SHADEDGE
 70
     3
  9
$SHADEDIF
 70
    70
  9
$TILEMODE
 70
     1
  9
$MAXACTVP
 70
    64
  9
$PINSBASE
 10
0.0
 20
0.0
 30
0.0
  9
$PLIMCHECK
 70
     0
  9
$PEXTMIN
 10
1.0000000000E+20
 20
1.0000000000E+20
 30
1.0000000000E+20
  9
$PEXTMAX
 10
-1.0000000000E+20
 20
-1.0000000000E+20
 30
-1.0000000000E+20
  9
$PLIMMIN
 10
0.0
 20
0.0
  9
$PLIMMAX
 10
420.0
 20
297.0
  9
$UNITMODE
 70
     0
  9
$VISRETAIN
 70
     1
  9
$PLINEGEN
 70
     0
  9
$PSLTSCALE
 70
     1
  9
$TREEDEPTH
 70
  3020
  9
$CMLSTYLE
  2
Standard
  9
$CMLJUST
 70
     0
  9
$CMLSCALE
 40
20.0
  9
$PROXYGRAPHICS
 70
     1
  9
$MEASUREMENT
 70
     1
  9
$CELWEIGHT
370
    -1
  9
$ENDCAPS
280
     0
  9
$JOINSTYLE
280
     0
  9
$LWDISPLAY
290
     1
  9
$INSUNITS
 70
     4
  9
$HYPERLINKBASE
  1

  9
$STYLESHEET
  1

  9
$XEDIT
290
     1
  9
$CEPSNTYPE
380
     0
  9
$PSTYLEMODE
290
     1
  9
$FINGERPRINTGUID
  2
{7438447D-E1D7-492C-8F09-10B7100A7F5A}
  9
$VERSIONGUID
  2
{FAEB1C32-E019-11D5-929B-00C0DF256EC4}
  9
$EXTNAMES
290
     1
  9
$PSVPSCALE
 40
0.0
  9
$OLESTARTUP
290
     0
  0
ENDSEC
  0
SECTION
  2
CLASSES
  0
CLASS
  1
ACDBDICTIONARYWDFLT
  2
AcDbDictionaryWithDefault
  3
ObjectDBX Classes
 90
        0
280
     0
281
     0
  0
CLASS
  1
VISUALSTYLE
  2
AcDbVisualStyle
  3
ObjectDBX Classes
 90
     4095
280
     0
281
     0
  0
CLASS
  1
DICTIONARYVAR
  2
AcDbDictionaryVar
  3
ObjectDBX Classes
 90
        0
280
     0
281
     0
  0
CLASS
  1
ACDBPLACEHOLDER
  2
AcDbPlaceHolder
  3
ObjectDBX Classes
 90
        0
280
     0
281
     0
  0
CLASS
  1
LAYOUT
  2
AcDbLayout
  3
ObjectDBX Classes
 90
        0
280
     0
281
     0
  0
ENDSEC
  0
SECTION
  2
TABLES
  0
TABLE
  2
VPORT
  5
8
330
0
100
AcDbSymbolTable
 70
     1
  0
VPORT
  5
29
330
8
100
AcDbSymbolTableRecord
100
AcDbViewportTableRecord
  2
*Active
 70
     0
 10
0.0
 20
0.0
 11
1.0
 21
1.0
 12
148.5
 22
105.0
 13
0.0
 23
0.0
 14
10.0
 24
10.0
 15
10.0
 25
10.0
 16
0.0
 26
0.0
 36
1.0
 17
0.0
 27
0.0
 37
0.0
 40
210.0
 41
1.4142857143
 42
50.0
 43
0.0
 44
0.0
 50
0.0
 51
0.0
 71
     0
 72
  2000
 73
     1
 74
     3
 75
     0
 76
     0
 77
     0
 78
     0
281
     0
 65
     1
110
0.0
120
0.0
130
0.0
111
1.0
121
0.0
131
0.0
112
0.0
122
1.0
132
0.0
 79
     0
146
0.0
  0
ENDTAB
  0
TABLE
  2
LTYPE
  5
5
330
0
100
AcDbSymbolTable
 70
     6
  0
LTYPE
  5
14
330
5
100
AcDbSymbolTableRecord
100
AcDbLinetypeTableRecord
  2
ByBlock
 70
     0
  3

 72
    65
 73
     0
 40
0.0
  0
LTYPE
  5
15
330
5
100
AcDbSymbolTableRecord
100
AcDbLinetypeTableRecord
  2
ByLayer
 70
     0
  3

 72
    65
 73
     0
 40
0.0
  0
LTYPE
  5
16
330
5
100
AcDbSymbolTableRecord
100
AcDbLinetypeTableRecord
  2
Continuous
 70
     0
  3
Solid line
 72
    65
 73
     0
 40
0.0
  0
LTYPE
  5
3B
330
5
100
AcDbSymbolTableRecord
100
AcDbLinetypeTableRecord
  2
HIDDEN
 70
     0
  3
Hidden __ __ __ __ __ __ __ __ __ __ __ __ __ __
 72
    65
 73
     2
 40
1.905
 49
1.27
 74
     0
 49
-0.635
 74
     0
  0
LTYPE
  5
3C
330
5
100
AcDbSymbolTableRecord
100
AcDbLinetypeTableRecord
  2
PHANTOM
 70
     0
  3
Phantom ______  __  __  ______  __  __  ______
 72
    65
 73
     6
 40
12.7
 49
6.35
 74
     0
 49
-1.27
 74
     0
 49
1.27
 74
     0
 49
-1.27
 74
     0
 49
1.27
 74
     0
 49
-1.27
 74
     0
  0
LTYPE
  5
3D
330
5
100
AcDbSymbolTableRecord
100
AcDbLinetypeTableRecord
  2
CENTER
 70
     0
  3
Center ____ _ ____ _ ____ _ ____ _ ____ _ ____
 72
    65
 73
     4
 40
10.16
 49
6.35
 74
     0
 49
-1.27
 74
     0
 49
1.27
 74
     0
 49
-1.27
 74
     0
  0
LTYPE
  5
3E
330
5
100
AcDbSymbolTableRecord
100
AcDbLinetypeTableRecord
  2
CENTERX2
 70
     0
  3
Center (2x) ________  __  ________  __  _____
 72
    65
 73
     4
 40
20.32
 49
12.7
 74
     0
 49
-2.54
 74
     0
 49
2.54
 74
     0
 49
-2.54
 74
     0
  0
LTYPE
  5
3F
330
5
100
AcDbSymbolTableRecord
100
AcDbLinetypeTableRecord
  2
DOT2
 70
     0
  3
Dot (.5x) ........................................
 72
    65
 73
     2
 40
0.635
 49
0.0
 74
     0
 49
-0.635
 74
     0
  0
ENDTAB
  0
TABLE
  2
LAYER
  5
2
330
0
100
AcDbSymbolTable
 70
     5
  0
LAYER
  5
10
330
2
100
AcDbSymbolTableRecord
100
AcDbLayerTableRecord
  2
0
 70
     0
 62
     7
  6
Continuous
370
    -3
390
F
  0
LAYER
  5
40
330
2
100
AcDbSymbolTableRecord
100
AcDbLayerTableRecord
  2
FORMAT
 70
     0
 62
     7
  6
Continuous
370
    -3
390
F
  0
LAYER
  5
41
330
2
100
AcDbSymbolTableRecord
100
AcDbLayerTableRecord
  2
VERMASSUNG
 70
     0
 62
     7
  6
Continuous
370
    -3
390
F
  0
LAYER
  5
42
330
2
100
AcDbSymbolTableRecord
100
AcDbLayerTableRecord
  2
KOPF_DÜNN
 70
     0
 62
     7
  6
Continuous
370
    -3
390
F
  0
LAYER
  5
43
330
2
100
AcDbSymbolTableRecord
100
AcDbLayerTableRecord
  2
KOPF_DICK
 70
     0
 62
     7
  6
Continuous
370
    15
390
F
  0
ENDTAB
  0
TABLE
  2
STYLE
  5
3
330
0
100
AcDbSymbolTable
 70
     3
  0
STYLE
  5
11
330
3
100
AcDbSymbolTableRecord
100
AcDbTextStyleTableRecord
  2
Standard
 70
     0
 40
0.0
 41
1.0
 50
0.0
 71
     0
 42
2.5
  3
txt
  4

  0
STYLE
  5
44
330
3
100
AcDbSymbolTableRecord
100
AcDbTextStyleTableRecord
  2
SLDTEXTSTYLE0
 70
     0
 40
0.0
 41
0.7
 50
0.0
 71
     0
 42
0.2
  3
TXT
  4

  0
STYLE
  5
48
330
3
100
AcDbSymbolTableRecord
100
AcDbTextStyleTableRecord
  2
SLDTEXTSTYLE1
 70
     0
 40
0.0
 41
0.6473684211
 50
0.0
 71
     0
 42
0.2
  3
TXT
  4

  0
ENDTAB
  0
TABLE
  2
VIEW
  5
6
330
0
100
AcDbSymbolTable
 70
     0
  0
ENDTAB
  0
TABLE
  2
UCS
  5
7
330
0
100
AcDbSymbolTable
 70
     0
  0
ENDTAB
  0
TABLE
  2
APPID
  5
9
330
0
100
AcDbSymbolTable
 70
     1
  0
APPID
  5
12
330
9
100
AcDbSymbolTableRecord
100
AcDbRegAppTableRecord
  2
ACAD
 70
     0
  0
ENDTAB
  0
TABLE
  2
DIMSTYLE
  5
A
330
0
100
AcDbSymbolTable
 70
     2
100
AcDbDimStyleTable
  0
DIMSTYLE
105
27
330
A
100
AcDbSymbolTableRecord
100
AcDbDimStyleTableRecord
  2
ISO-25
 70
     0
 41
2.5
 42
0.625
 43
3.75
 44
1.25
 73
     0
 74
     0
 77
     1
 78
     8
140
2.5
141
2.5
143
0.0393700787
147
0.625
171
     3
172
     1
271
     2
272
     2
274
     3
278
    44
283
     0
284
     8
340
11
  0
DIMSTYLE
105
22A
102
{ACAD_REACTORS
330
229
330
235
330
241
330
24B
330
255
330
25F
330
26A
330
274
102
}
330
A
100
AcDbSymbolTableRecord
100
AcDbDimStyleTableRecord
  2
SLDDIMSTYLE0
 70
     0
 41
3.0
 44
0.0
 45
0.000000001
 73
     0
 74
     0
 77
     1
 78
    12
140
2.0
147
0.5
173
     1
271
     2
272
     3
284
    12
340
44
  0
ENDTAB
  0
TABLE
  2
BLOCK_RECORD
  5
1
330
0
100
AcDbSymbolTable
 70
     9
  0
BLOCK_RECORD
  5
1F
330
1
100
AcDbSymbolTableRecord
100
AcDbBlockTableRecord
  2
*Model_Space
340
22
  0
BLOCK_RECORD
  5
1B
330
1
100
AcDbSymbolTableRecord
100
AcDbBlockTableRecord
  2
*Paper_Space
340
1E
  0
BLOCK_RECORD
  5
23
330
1
100
AcDbSymbolTableRecord
100
AcDbBlockTableRecord
  2
*Paper_Space0
340
26
  0
BLOCK_RECORD
  5
22B
330
1
100
AcDbSymbolTableRecord
100
AcDbBlockTableRecord
  2
*D1
340
0
  0
BLOCK_RECORD
  5
236
330
1
100
AcDbSymbolTableRecord
100
AcDbBlockTableRecord
  2
*D2
340
0
  0
BLOCK_RECORD
  5
242
330
1
100
AcDbSymbolTableRecord
100
AcDbBlockTableRecord
  2
*D3
340
0
  0
BLOCK_RECORD
  5
24C
330
1
100
AcDbSymbolTableRecord
100
AcDbBlockTableRecord
  2
*D4
340
0
  0
BLOCK_RECORD
  5
256
330
1
100
AcDbSymbolTableRecord
100
AcDbBlockTableRecord
  2
*D5
340
0
  0
BLOCK_RECORD
  5
260
330
1
100
AcDbSymbolTableRecord
100
AcDbBlockTableRecord
  2
*D6
340
0
  0
BLOCK_RECORD
  5
26B
330
1
100
AcDbSymbolTableRecord
100
AcDbBlockTableRecord
  2
*D7
340
0
  0
BLOCK_RECORD
  5
275
330
1
100
AcDbSymbolTableRecord
100
AcDbBlockTableRecord
  2
*D8
340
0
  0
ENDTAB
  0
ENDSEC
  0
SECTION
  2
BLOCKS
  0
BLOCK
  5
20
330
1F
100
AcDbEntity
  8
0
100
AcDbBlockBegin
  2
*Model_Space
 70
     0
 10
0.0
 20
0.0
 30
0.0
  3
*Model_Space
  1

  0
ENDBLK
  5
21
330
1F
100
AcDbEntity
  8
0
100
AcDbBlockEnd
  0
BLOCK
  5
1C
330
1B
100
AcDbEntity
 67
     1
  8
0
100
AcDbBlockBegin
  2
*Paper_Space
 70
     0
 10
0.0
 20
0.0
 30
0.0
  3
*Paper_Space
  1

  0
ENDBLK
  5
1D
330
1B
100
AcDbEntity
 67
     1
  8
0
100
AcDbBlockEnd
  0
BLOCK
  5
24
330
23
100
AcDbEntity
  8
0
100
AcDbBlockBegin
  2
*Paper_Space0
 70
     0
 10
0.0
 20
0.0
 30
0.0
  3
*Paper_Space0
  1

  0
ENDBLK
  5
25
330
23
100
AcDbEntity
  8
0
100
AcDbBlockEnd
  0
BLOCK
  5
22C
330
22B
100
AcDbEntity
  8
0
100
AcDbBlockBegin
  2
*D1
 70
     1
 10
0.0
 20
0.0
 30
0.0
  3
*D1
  1

  0
SOLID
  5
22E
330
22B
100
AcDbEntity
  8
VERMASSUNG
100
AcDbTrace
 10
221.7695543679
 20
90.2211080886
 30
0.0
 11
222.2195543679
 21
93.2211080886
 31
0.0
 12
221.3195543679
 22
93.2211080886
 32
0.0
 13
221.3195543679
 23
93.2211080886
 33
0.0
  0
SOLID
  5
22F
330
22B
100
AcDbEntity
  8
VERMASSUNG
100
AcDbTrace
 10
221.7695543679
 20
130.2211080886
 30
0.0
 11
221.3195543679
 21
127.2211080886
 31
0.0
 12
222.2195543679
 22
127.2211080886
 32
0.0
 13
222.2195543679
 23
127.2211080886
 33
0.0
  0
LINE
  5
230
330
22B
100
AcDbEntity
  8
VERMASSUNG
100
AcDbLine
 10
196.7695543679
 20
90.2211080886
 30
0.0
 11
222.7695543679
 21
90.2211080886
 31
0.0
  0
LINE
  5
231
330
22B
100
AcDbEntity
  8
VERMASSUNG
100
AcDbLine
 10
196.7695543679
 20
130.2211080886
 30
0.0
 11
222.7695543679
 21
130.2211080886
 31
0.0
  0
LINE
  5
232
330
22B
100
AcDbEntity
  8
VERMASSUNG
100
AcDbLine
 10
221.7695543679
 20
90.2211080886
 30
0.0
 11
221.7695543679
 21
130.2211080886
 31
0.0
  0
MTEXT
  5
233
330
22B
100
AcDbEntity
  8
VERMASSUNG
100
AcDbMText
 10
219.1914190048
 20
106.7621402121
 30
0.0
 40
2.0
 41
0.0
 71
     1
 72
     1
  1
ER
  7
SLDTEXTSTYLE0
 11
6.123233995736766E-17
 21
1.0
 31
0.0
 73
     1
 44
1.0
  0
MTEXT
  5
234
330
22B
100
AcDbEntity
  8
VERMASSUNG
100
AcDbMText
 10
219.1914190048
 20
109.7599586563
 30
0.0
 40
2.0
 41
0.0
 71
     1
 72
     1
  1
40
  7
SLDTEXTSTYLE0
 11
6.123233995736766E-17
 21
1.0
 31
0.0
 73
     1
 44
1.0
  0
ENDBLK
  5
22D
330
22B
100
AcDbEntity
  8
0
100
AcDbBlockEnd
  0
BLOCK
  5
237
330
236
100
AcDbEntity
  8
0
100
AcDbBlockBegin
  2
*D2
 70
     1
 10
0.0
 20
0.0
 30
0.0
  3
*D2
  1

  0
SOLID
  5
239
330
236
100
AcDbEntity
  8
VERMASSUNG
100
AcDbTrace
 10
72.0335759581
 20
141.7211080886
 30
0.0
 11
71.5835759581
 21
138.7211080886
 31
0.0
 12
72.4835759581
 22
138.7211080886
 32
0.0
 13
72.4835759581
 23
138.7211080886
 33
0.0
  0
SOLID
  5
23A
330
236
100
AcDbEntity
  8
VERMASSUNG
100
AcDbTrace
 10
72.0335759581
 20
78.7211080886
 30
0.0
 11
72.4835759581
 21
81.7211080886
 31
0.0
 12
71.5835759581
 22
81.7211080886
 32
0.0
 13
71.5835759581
 23
81.7211080886
 33
0.0
  0
LINE
  5
23B
330
236
100
AcDbEntity
  8
VERMASSUNG
100
AcDbLine
 10
112.0695543679
 20
141.7211080886
 30
0.0
 11
71.0335759581
 21
141.7211080886
 31
0.0
  0
LINE
  5
23C
330
236
100
AcDbEntity
  8
VERMASSUNG
100
AcDbLine
 10
112.0695543679
 20
78.7211080886
 30
0.0
 11
71.0335759581
 21
78.7211080886
 31
0.0
  0
LINE
  5
23D
330
236
100
AcDbEntity
  8
VERMASSUNG
100
AcDbLine
 10
72.0335759581
 20
141.7211080886
 30
0.0
 11
72.0335759581
 21
78.7211080886
 31
0.0
  0
MTEXT
  5
23E
330
236
100
AcDbEntity
  8
VERMASSUNG
100
AcDbMText
 10
69.255440469
 20
100.6514776757
 30
0.0
 40
2.0
 41
0.0
 71
     1
 72
     1
  1
HSK A 
  7
SLDTEXTSTYLE0
 11
-7.044195017643634E-15
 21
1.0
 31
0.0
 73
     1
 44
1.0
  0
MTEXT
  5
23F
330
236
100
AcDbEntity
  8
VERMASSUNG
100
AcDbMText
 10
69.4554404785
 20
109.6514782196
 30
0.0
 40
2.0
 41
0.0
 71
     1
 72
     1
  1
%%c
  7
SLDTEXTSTYLE0
 11
-7.044195017643634E-15
 21
1.0
 31
0.0
 73
     1
 44
1.0
  0
MTEXT
  5
240
330
236
100
AcDbEntity
  8
VERMASSUNG
100
AcDbMText
 10
69.4554405949
 20
113.2598064648
 30
0.0
 40
2.0
 41
0.0
 71
     1
 72
     1
  1
63
  7
SLDTEXTSTYLE0
 11
-7.044195017643634E-15
 21
1.0
 31
0.0
 73
     1
 44
1.0
  0
ENDBLK
  5
238
330
236
100
AcDbEntity
  8
0
100
AcDbBlockEnd
  0
BLOCK
  5
243
330
242
100
AcDbEntity
  8
0
100
AcDbBlockBegin
  2
*D3
 70
     1
 10
0.0
 20
0.0
 30
0.0
  3
*D3
  1

  0
SOLID
  5
245
330
242
100
AcDbEntity
  8
VERMASSUNG
100
AcDbTrace
 10
137.7195543679
 20
156.0069133151
 30
0.0
 11
140.7195543679
 21
155.5569133151
 31
0.0
 12
140.7195543679
 22
156.4569133151
 32
0.0
 13
140.7195543679
 23
156.4569133151
 33
0.0
  0
SOLID
  5
246
330
242
100
AcDbEntity
  8
VERMASSUNG
100
AcDbTrace
 10
211.7695543679
 20
156.0069133151
 30
0.0
 11
208.7695543679
 21
156.4569133151
 31
0.0
 12
208.7695543679
 22
155.5569133151
 32
0.0
 13
208.7695543679
 23
155.5569133151
 33
0.0
  0
LINE
  5
247
330
242
100
AcDbEntity
  8
VERMASSUNG
100
AcDbLine
 10
137.7195543679
 20
140.0675484123
 30
0.0
 11
137.7195543679
 21
157.0069133151
 31
0.0
  0
LINE
  5
248
330
242
100
AcDbEntity
  8
VERMASSUNG
100
AcDbLine
 10
211.7695543679
 20
134.2211080886
 30
0.0
 11
211.7695543679
 21
157.0069133151
 31
0.0
  0
LINE
  5
249
330
242
100
AcDbEntity
  8
VERMASSUNG
100
AcDbLine
 10
137.7195543679
 20
156.0069133151
 30
0.0
 11
211.7695543679
 21
156.0069133151
 31
0.0
  0
MTEXT
  5
24A
330
242
100
AcDbEntity
  8
VERMASSUNG
100
AcDbMText
 10
171.5450998371
 20
158.5850486783
 30
0.0
 40
2.0
 41
0.0
 71
     1
 72
     1
  1
74.05
  7
SLDTEXTSTYLE0
 73
     1
 44
1.0
  0
ENDBLK
  5
244
330
242
100
AcDbEntity
  8
0
100
AcDbBlockEnd
  0
BLOCK
  5
24D
330
24C
100
AcDbEntity
  8
0
100
AcDbBlockBegin
  2
*D4
 70
     1
 10
0.0
 20
0.0
 30
0.0
  3
*D4
  1

  0
SOLID
  5
24F
330
24C
100
AcDbEntity
  8
VERMASSUNG
100
AcDbTrace
 10
111.7695543679
 20
162.0069133151
 30
0.0
 11
114.7695543679
 21
161.5569133151
 31
0.0
 12
114.7695543679
 22
162.4569133151
 32
0.0
 13
114.7695543679
 23
162.4569133151
 33
0.0
  0
SOLID
  5
250
330
24C
100
AcDbEntity
  8
VERMASSUNG
100
AcDbTrace
 10
211.7695543679
 20
162.0069133151
 30
0.0
 11
208.7695543679
 21
162.4569133151
 31
0.0
 12
208.7695543679
 22
161.5569133151
 32
0.0
 13
208.7695543679
 23
161.5569133151
 33
0.0
  0
LINE
  5
251
330
24C
100
AcDbEntity
  8
VERMASSUNG
100
AcDbLine
 10
111.7695543679
 20
141.4211080886
 30
0.0
 11
111.7695543679
 21
163.0069133151
 31
0.0
  0
LINE
  5
252
330
24C
100
AcDbEntity
  8
VERMASSUNG
100
AcDbLine
 10
211.7695543679
 20
134.2211080886
 30
0.0
 11
211.7695543679
 21
163.0069133151
 31
0.0
  0
LINE
  5
253
330
24C
100
AcDbEntity
  8
VERMASSUNG
100
AcDbLine
 10
111.7695543679
 20
162.0069133151
 30
0.0
 11
211.7695543679
 21
162.0069133151
 31
0.0
  0
MTEXT
  5
254
330
24C
100
AcDbEntity
  8
VERMASSUNG
100
AcDbMText
 10
159.869802323
 20
164.5850486783
 30
0.0
 40
2.0
 41
0.0
 71
     1
 72
     1
  1
100
  7
SLDTEXTSTYLE0
 73
     1
 44
1.0
  0
ENDBLK
  5
24E
330
24C
100
AcDbEntity
  8
0
100
AcDbBlockEnd
  0
BLOCK
  5
257
330
256
100
AcDbEntity
  8
0
100
AcDbBlockBegin
  2
*D5
 70
     1
 10
0.0
 20
0.0
 30
0.0
  3
*D5
  1

  0
SOLID
  5
259
330
256
100
AcDbEntity
  8
VERMASSUNG
100
AcDbTrace
 10
79.8695543679
 20
168.0069133151
 30
0.0
 11
82.8695543679
 21
167.5569133151
 31
0.0
 12
82.8695543679
 22
168.4569133151
 32
0.0
 13
82.8695543679
 23
168.4569133151
 33
0.0
  0
SOLID
  5
25A
330
256
100
AcDbEntity
  8
VERMASSUNG
100
AcDbTrace
 10
211.7695543679
 20
168.0069133151
 30
0.0
 11
208.7695543679
 21
168.4569133151
 31
0.0
 12
208.7695543679
 22
167.5569133151
 32
0.0
 13
208.7695543679
 23
167.5569133151
 33
0.0
  0
LINE
  5
25B
330
256
100
AcDbEntity
  8
VERMASSUNG
100
AcDbLine
 10
79.8695543679
 20
129.911785835
 30
0.0
 11
79.8695543679
 21
169.0069133151
 31
0.0
  0
LINE
  5
25C
330
256
100
AcDbEntity
  8
VERMASSUNG
100
AcDbLine
 10
211.7695543679
 20
134.2211080886
 30
0.0
 11
211.7695543679
 21
169.0069133151
 31
0.0
  0
LINE
  5
25D
330
256
100
AcDbEntity
  8
VERMASSUNG
100
AcDbLine
 10
79.8695543679
 20
168.0069133151
 30
0.0
 11
211.7695543679
 21
168.0069133151
 31
0.0
  0
MTEXT
  5
25E
330
256
100
AcDbEntity
  8
VERMASSUNG
100
AcDbMText
 10
143.1205460279
 20
170.5850486783
 30
0.0
 40
2.0
 41
0.0
 71
     1
 72
     1
  1
131.9
  7
SLDTEXTSTYLE0
 73
     1
 44
1.0
  0
ENDBLK
  5
258
330
256
100
AcDbEntity
  8
0
100
AcDbBlockEnd
  0
BLOCK
  5
261
330
260
100
AcDbEntity
  8
0
100
AcDbBlockBegin
  2
*D6
 70
     1
 10
0.0
 20
0.0
 30
0.0
  3
*D6
  1

  0
SOLID
  5
263
330
260
100
AcDbEntity
  8
VERMASSUNG
100
AcDbTrace
 10
233.7695543679
 20
141.5711080886
 30
0.0
 11
233.3195543679
 21
138.5711080886
 31
0.0
 12
234.2195543679
 22
138.5711080886
 32
0.0
 13
234.2195543679
 23
138.5711080886
 33
0.0
  0
SOLID
  5
264
330
260
100
AcDbEntity
  8
VERMASSUNG
100
AcDbTrace
 10
233.7695543679
 20
78.8711080886
 30
0.0
 11
234.2195543679
 21
81.8711080886
 31
0.0
 12
233.3195543679
 22
81.8711080886
 32
0.0
 13
233.3195543679
 23
81.8711080886
 33
0.0
  0
LINE
  5
265
330
260
100
AcDbEntity
  8
VERMASSUNG
100
AcDbLine
 10
207.5260293677
 20
141.5711080886
 30
0.0
 11
234.7695543679
 21
141.5711080886
 31
0.0
  0
LINE
  5
266
330
260
100
AcDbEntity
  8
VERMASSUNG
100
AcDbLine
 10
207.5260293677
 20
78.8711080886
 30
0.0
 11
234.7695543679
 21
78.8711080886
 31
0.0
  0
LINE
  5
267
330
260
100
AcDbEntity
  8
VERMASSUNG
100
AcDbLine
 10
233.7695543679
 20
141.5711080886
 30
0.0
 11
233.7695543679
 21
78.8711080886
 31
0.0
  0
MTEXT
  5
268
330
260
100
AcDbEntity
  8
VERMASSUNG
100
AcDbMText
 10
231.1914188884
 20
104.1521716613
 30
0.0
 40
2.0
 41
0.0
 71
     1
 72
     1
  1
%%c
  7
SLDTEXTSTYLE0
 11
-7.044195017643634E-15
 21
1.0
 31
0.0
 73
     1
 44
1.0
  0
MTEXT
  5
269
330
260
100
AcDbEntity
  8
VERMASSUNG
100
AcDbMText
 10
231.1914190048
 20
107.7597570662
 30
0.0
 40
2.0
 41
0.0
 71
     1
 72
     1
  1
62.7
  7
SLDTEXTSTYLE0
 11
-7.044195017643634E-15
 21
1.0
 31
0.0
 73
     1
 44
1.0
  0
ENDBLK
  5
262
330
260
100
AcDbEntity
  8
0
100
AcDbBlockEnd
  0
BLOCK
  5
26C
330
26B
100
AcDbEntity
  8
0
100
AcDbBlockBegin
  2
*D7
 70
     1
 10
0.0
 20
0.0
 30
0.0
  3
*D7
  1

  0
SOLID
  5
26E
330
26B
100
AcDbEntity
  8
VERMASSUNG
100
AcDbTrace
 10
158.7695543679
 20
150.0069133151
 30
0.0
 11
161.7695543679
 21
149.5569133151
 31
0.0
 12
161.7695543679
 22
150.4569133151
 32
0.0
 13
161.7695543679
 23
150.4569133151
 33
0.0
  0
SOLID
  5
26F
330
26B
100
AcDbEntity
  8
VERMASSUNG
100
AcDbTrace
 10
211.7695543679
 20
150.0069133151
 30
0.0
 11
208.7695543679
 21
150.4569133151
 31
0.0
 12
208.7695543679
 22
149.5569133151
 32
0.0
 13
208.7695543679
 23
149.5569133151
 33
0.0
  0
LINE
  5
270
330
26B
100
AcDbEntity
  8
VERMASSUNG
100
AcDbLine
 10
158.7695543679
 20
125.4711080886
 30
0.0
 11
158.7695543679
 21
151.0069133151
 31
0.0
  0
LINE
  5
271
330
26B
100
AcDbEntity
  8
VERMASSUNG
100
AcDbLine
 10
211.7695543679
 20
134.2211080886
 30
0.0
 11
211.7695543679
 21
151.0069133151
 31
0.0
  0
LINE
  5
272
330
26B
100
AcDbEntity
  8
VERMASSUNG
100
AcDbLine
 10
158.7695543679
 20
150.0069133151
 30
0.0
 11
211.7695543679
 21
150.0069133151
 31
0.0
  0
MTEXT
  5
273
330
26B
100
AcDbEntity
  8
VERMASSUNG
100
AcDbMText
 10
183.8702485139
 20
152.5850486783
 30
0.0
 40
2.0
 41
0.0
 71
     1
 72
     1
  1
53
  7
SLDTEXTSTYLE0
 73
     1
 44
1.0
  0
ENDBLK
  5
26D
330
26B
100
AcDbEntity
  8
0
100
AcDbBlockEnd
  0
BLOCK
  5
276
330
275
100
AcDbEntity
  8
0
100
AcDbBlockBegin
  2
*D8
 70
     1
 10
0.0
 20
0.0
 30
0.0
  3
*D8
  1

  0
SOLID
  5
278
330
275
100
AcDbEntity
  8
VERMASSUNG
100
AcDbTrace
 10
227.7695543679
 20
136.2211080886
 30
0.0
 11
227.3195543679
 21
133.2211080886
 31
0.0
 12
228.2195543679
 22
133.2211080886
 32
0.0
 13
228.2195543679
 23
133.2211080886
 33
0.0
  0
SOLID
  5
279
330
275
100
AcDbEntity
  8
VERMASSUNG
100
AcDbTrace
 10
227.7695543679
 20
84.2211080886
 30
0.0
 11
228.2195543679
 21
87.2211080886
 31
0.0
 12
227.3195543679
 22
87.2211080886
 32
0.0
 13
227.3195543679
 23
87.2211080886
 33
0.0
  0
LINE
  5
27A
330
275
100
AcDbEntity
  8
VERMASSUNG
100
AcDbLine
 10
157.7195543679
 20
136.2211080886
 30
0.0
 11
228.7695543679
 21
136.2211080886
 31
0.0
  0
LINE
  5
27B
330
275
100
AcDbEntity
  8
VERMASSUNG
100
AcDbLine
 10
157.7195543679
 20
84.2211080886
 30
0.0
 11
228.7695543679
 21
84.2211080886
 31
0.0
  0
LINE
  5
27C
330
275
100
AcDbEntity
  8
VERMASSUNG
100
AcDbLine
 10
227.7695543679
 20
136.2211080886
 30
0.0
 11
227.7695543679
 21
84.2211080886
 31
0.0
  0
MTEXT
  5
27D
330
275
100
AcDbEntity
  8
VERMASSUNG
100
AcDbMText
 10
225.1914188884
 20
105.1518493678
 30
0.0
 40
2.0
 41
0.0
 71
     1
 72
     1
  1
%%c
  7
SLDTEXTSTYLE0
 11
-7.044195017643634E-15
 21
1.0
 31
0.0
 73
     1
 44
1.0
  0
MTEXT
  5
27E
330
275
100
AcDbEntity
  8
VERMASSUNG
100
AcDbMText
 10
225.1914190048
 20
108.7594347727
 30
0.0
 40
2.0
 41
0.0
 71
     1
 72
     1
  1
52
  7
SLDTEXTSTYLE0
 11
-7.044195017643634E-15
 21
1.0
 31
0.0
 73
     1
 44
1.0
  0
ENDBLK
  5
277
330
275
100
AcDbEntity
  8
0
100
AcDbBlockEnd
  0
ENDSEC
  0
SECTION
  2
ENTITIES
  0
MTEXT
  5
45
330
1F
100
AcDbEntity
  8
KOPF_DÜNN
100
AcDbMText
 10
13.8892156294
 20
23.8442973028
 30
0.0
 40
3.0
 41
0.0
 71
     1
 72
     1
  1
HA6.E40.K01.100
  7
SLDTEXTSTYLE0
 73
     1
 44
1.0
  0
MTEXT
  5
46
330
1F
100
AcDbEntity
  8
VERMASSUNG
100
AcDbMText
 10
13.9329988022
 20
28.8834360957
 30
0.0
 40
3.0
 41
0.0
 71
     1
 72
     1
  1
Spannzangenfutter_Collet chuck ER40
  7
SLDTEXTSTYLE0
 73
     1
 44
1.0
  0
MTEXT
  5
47
330
1F
100
AcDbEntity
  8
VERMASSUNG
100
AcDbMText
 10
98.8601118557
 20
13.8365368179
 30
0.0
 40
2.0
 41
0.0
 71
     1
 72
     1
  1
Datum: 10.10.2006
  7
SLDTEXTSTYLE0
 73
     1
 44
1.0
  0
MTEXT
  5
49
330
1F
100
AcDbEntity
  8
VERMASSUNG
100
AcDbMText
 10
13.933048693
 20
18.0482802738
 30
0.0
 40
2.0
 41
0.0
 71
     1
 72
     1
  1
DIN 69 893 HSK A 63
  7
SLDTEXTSTYLE1
 73
     1
 44
1.0
  0
MTEXT
  5
4A
330
1F
100
AcDbEntity
  8
VERMASSUNG
100
AcDbMText
 10
13.9808475933
 20
13.9090973692
 30
0.0
 40
2.0
 41
0.0
 71
     1
 72
     1
  1
Gewicht: 1530g
  7
SLDTEXTSTYLE0
 73
     1
 44
1.0
  0
LINE
  5
4B
330
1F
100
AcDbEntity
  8
0
  6
Continuous
 62
     7
370
    15
100
AcDbLine
 10
112.0695543822
 20
78.7211075819
 30
0.0
 11
116.7195543411
 21
78.7211075819
 31
0.0
  0
LINE
  5
4C
330
1F
100
AcDbEntity
  8
0
  6
Continuous
 62
     7
370
    15
100
AcDbLine
 10
116.7475429128
 20
141.7211085952
 30
0.0
 11
112.0695543822
 21
141.7211085952
 31
0.0
  0
ARC
  5
4D
330
1F
100
AcDbEntity
  8
0
  6
Continuous
 62
     7
370
    15
100
AcDbCircle
 10
112.0695543679
 20
79.0211080886
 30
0.0
 40
0.3000000000000114
100
AcDbArc
 50
180.0
 51
270.0
  0
ARC
  5
4E
330
1F
100
AcDbEntity
  8
0
  6
Continuous
 62
     7
370
    15
100
AcDbCircle
 10
112.0695543679
 20
141.4211080886
 30
0.0
 40
0.3000000000000114
100
AcDbArc
 50
90.0
 51
180.0
  0
ARC
  5
4F
330
1F
100
AcDbEntity
  8
0
  6
Continuous
 62
     7
370
    15
100
AcDbCircle
 10
138.7195543679
 20
83.2211080886
 30
0.0
 40
1.000000000000014
100
AcDbArc
 50
90.0
 51
143.1139143113
  0
ARC
  5
50
330
1F
100
AcDbEntity
  8
0
  6
Continuous
 62
     7
370
    15
100
AcDbCircle
 10
138.7195543679
 20
137.2211080886
 30
0.0
 40
1.0
100
AcDbArc
 50
216.9033030837
 51
270.0
  0
LINE
  5
51
330
1F
100
AcDbEntity
  8
0
  6
Continuous
 62
     7
370
    15
100
AcDbLine
 10
152.1863948318
 20
84.2211075521
 30
0.0
 11
157.719553611
 21
84.2211075521
 31
0.0
  0
LINE
  5
52
330
1F
100
AcDbEntity
  8
0
  6
Continuous
 62
     7
370
    15
100
AcDbLine
 10
138.7195542219
 20
84.2211075521
 30
0.0
 11
145.262864581
 21
84.2211075521
 31
0.0
  0
LINE
  5
53
330
1F
100
AcDbEntity
  8
0
  6
Continuous
 62
     7
370
    15
100
AcDbLine
 10
145.2481087062
 20
136.221108625
 30
0.0
 11
138.7195542219
 21
136.221108625
 31
0.0
  0
LINE
  5
54
330
1F
100
AcDbEntity
  8
0
  6
Continuous
 62
     7
370
    15
100
AcDbLine
 10
157.719553611
 20
136.221108625
 30
0.0
 11
152.17559149
 21
136.221108625
 31
0.0
  0
ARC
  5
55
330
1F
100
AcDbEntity
  8
0
  6
Continuous
 62
     7
370
    15
100
AcDbCircle
 10
170.3290745809
 20
215.2211080886
 30
0.0
 40
80.00000000000001
100
AcDbArc
 50
260.931278454
 51
270.0
  0
ARC
  5
56
330
1F
100
AcDbEntity
  8
0
  6
Continuous
 62
     7
370
    15
100
AcDbCircle
 10
170.3290745809
 20
5.2211080886
 30
0.0
 40
80.0
100
AcDbArc
 50
90.0
 51
99.068721546
  0
LINE
  5
57
330
1F
100
AcDbEntity
  8
0
  6
Continuous
 62
     7
370
    15
100
AcDbLine
 10
186.2695563349
 20
135.2211084611
 30
0.0
 11
170.3290764007
 21
135.2211084611
 31
0.0
  0
LINE
  5
58
330
1F
100
AcDbEntity
  8
0
  6
Continuous
 62
     7
370
    15
100
AcDbLine
 10
170.3290764007
 20
85.221107716
 30
0.0
 11
186.2695563349
 21
85.221107716
 31
0.0
  0
ARC
  5
59
330
1F
100
AcDbEntity
  8
0
  6
Continuous
 62
     7
370
    15
100
AcDbCircle
 10
111.2695476153
 20
85.6556804942
 30
0.0
 40
0.6000067526677242
100
AcDbArc
 50
33.5571153394
 51
90.0
  0
ARC
  5
5A
330
1F
100
AcDbEntity
  8
0
  6
Continuous
 62
     7
370
    15
100
AcDbCircle
 10
111.2695476153
 20
134.7865356829
 30
0.0
 40
0.6000067526677242
100
AcDbArc
 50
270.0
 51
326.4428846606
  0
LINE
  5
5B
330
1F
100
AcDbEntity
  8
0
  6
Continuous
 62
     7
370
    15
100
AcDbLine
 10
109.7538021158
 20
86.0014666266
 30
0.0
 11
110.6262671991
 21
86.235243494
 31
0.0
  0
LINE
  5
5C
330
1F
100
AcDbEntity
  8
0
  6
Continuous
 62
     7
370
    15
100
AcDbLine
 10
110.6262671991
 20
134.2069726831
 30
0.0
 11
109.7538021158
 21
134.4407495505
 31
0.0
  0
LINE
  5
5D
330
1F
100
AcDbEntity
  8
0
  6
Continuous
 62
     7
370
    15
100
AcDbLine
 10
98.5380440715
 20
133.8788379378
 30
0.0
 11
85.9695534918
 21
133.2491539813
 31
0.0
  0
LINE
  5
5E
330
1F
100
AcDbEntity
  8
0
  6
Continuous
 62
     7
370
    15
100
AcDbLine
 10
109.7538021158
 20
134.4407495505
 30
0.0
 11
106.9525537777
 21
134.3004066891
 31
0.0
  0
LINE
  5
5F
330
1F
100
AcDbEntity
  8
0
  6
Continuous
 62
     7
370
    15
100
AcDbLine
 10
106.9526101227
 20
86.1418076254
 30
0.0
 11
109.7538021158
 21
86.0014666266
 31
0.0
  0
LINE
  5
60
330
1F
100
AcDbEntity
  8
0
  6
Continuous
 62
     7
370
    15
100
AcDbLine
 10
89.9695541474
 20
86.9926620669
 30
0.0
 11
98.5384473342
 21
86.5633577503
 31
0.0
  0
ARC
  5
61
330
1F
100
AcDbEntity
  8
0
  6
Continuous
 62
     7
370
    15
100
AcDbCircle
 10
110.7815585684
 20
85.6556872469
 30
0.0
 40
0.6000000000000109
100
AcDbArc
 50
90.0
 51
105.0
  0
ARC
  5
62
330
1F
100
AcDbEntity
  8
0
  6
Continuous
 62
     7
370
    15
100
AcDbCircle
 10
110.7815585684
 20
134.7865289303
 30
0.0
 40
0.5999999999999971
100
AcDbArc
 50
255.0
 51
270.0
  0
LINE
  5
63
330
1F
100
AcDbEntity
  8
0
  6
Continuous
 62
     7
370
    15
100
AcDbLine
 10
110.7815586028
 20
86.2556878871
 30
0.0
 11
111.2695475921
 21
86.2556878871
 31
0.0
  0
LINE
  5
64
330
1F
100
AcDbEntity
  8
0
  6
Continuous
 62
     7
370
    15
100
AcDbLine
 10
111.2695475921
 20
134.18652829
 30
0.0
 11
110.7815586028
 21
134.18652829
 31
0.0
  0
LINE
  5
65
330
1F
100
AcDbEntity
  8
0
  6
Continuous
 62
     7
370
    15
100
AcDbLine
 10
81.1528909716
 20
89.3511079646
 30
0.0
 11
88.569554663
 21
89.3511079646
 31
0.0
  0
ARC
  5
66
330
1F
100
AcDbEntity
  8
0
  6
Continuous
 62
     7
370
    15
100
AcDbCircle
 10
88.5695543679
 20
87.9511080886
 30
0.0
 40
1.400000000000006
100
AcDbArc
 50
42.2465410162
 51
90.0
  0
LINE
  5
67
330
1F
100
AcDbEntity
  8
0
  6
Continuous
 62
     7
370
    15
100
AcDbLine
 10
79.8705864462
 20
90.500075037
 30
0.0
 11
81.01071713
 21
89.3599443532
 31
0.0
  0
LINE
  5
68
330
1F
100
AcDbEntity
  8
0
  6
Continuous
 62
     7
370
    15
100
AcDbLine
 10
81.01071713
 20
131.082271824
 30
0.0
 11
79.8794563624
 21
129.9510091937
 31
0.0
  0
ARC
  5
69
330
1F
100
AcDbEntity
  8
0
  6
Continuous
 62
     7
370
    15
100
AcDbCircle
 10
84.5695543679
 20
132.4911080886
 30
0.0
 40
1.400000000000015
100
AcDbArc
 50
270.0
 51
301.7485287426
  0
LINE
  5
6A
330
1F
100
AcDbEntity
  8
0
  6
Continuous
 62
     7
370
    15
100
AcDbLine
 10
84.5695540073
 20
131.0911082125
 30
0.0
 11
81.1438198897
 21
131.0911082125
 31
0.0
  0
LINE
  5
6B
330
1F
100
AcDbEntity
  8
0
  6
Continuous
 62
     7
370
    15
100
AcDbLine
 10
187.0695549759
 20
78.8711063958
 30
0.0
 11
207.5260329756
 21
78.8711063958
 31
0.0
  0
LINE
  5
6C
330
1F
100
AcDbEntity
  8
0
  6
Continuous
 62
     7
370
    15
100
AcDbLine
 10
207.5260329756
 20
141.5711097813
 30
0.0
 11
187.0695549759
 21
141.5711097813
 31
0.0
  0
LINE
  5
6D
330
1F
100
AcDbEntity
  8
0
  6
Continuous
 62
     7
370
    15
100
AcDbLine
 10
187.0695549759
 20
141.5711097813
 30
0.0
 11
186.2695563349
 21
140.771107415
 31
0.0
  0
LINE
  5
6E
330
1F
100
AcDbEntity
  8
0
  6
Continuous
 62
     7
370
    15
100
AcDbLine
 10
186.2695563349
 20
79.6711087621
 30
0.0
 11
187.0695549759
 21
78.8711063958
 31
0.0
  0
LINE
  5
6F
330
1F
100
AcDbEntity
  8
0
  6
Continuous
 62
     7
370
    15
100
AcDbLine
 10
207.5260329756
 20
78.8711063958
 30
0.0
 11
211.7695558581
 21
86.22110788
 31
0.0
  0
LINE
  5
70
330
1F
100
AcDbEntity
  8
0
  6
Continuous
 62
     7
370
    15
100
AcDbLine
 10
211.7695558581
 20
134.2211082972
 30
0.0
 11
207.5260329756
 21
141.5711097813
 31
0.0
  0
SPLINE
  5
71
330
1F
100
AcDbEntity
  8
0
  6
Continuous
 62
     7
370
    15
100
AcDbSpline
210
0.0
220
0.0
230
1.0
 70
     8
 71
     3
 72
    70
 73
    66
 74
     0
 42
0.00000001
 43
0.00000001
 40
-0.03125
 40
-0.03125
 40
0.0
 40
0.0
 40
0.03125
 40
0.03125
 40
0.0625
 40
0.0625
 40
0.09375
 40
0.09375
 40
0.125
 40
0.125
 40
0.15625
 40
0.15625
 40
0.1875
 40
0.1875
 40
0.21875
 40
0.21875
 40
0.25
 40
0.25
 40
0.28125
 40
0.28125
 40
0.3125
 40
0.3125
 40
0.34375
 40
0.34375
 40
0.375
 40
0.375
 40
0.40625
 40
0.40625
 40
0.4375
 40
0.4375
 40
0.46875
 40
0.46875
 40
0.5
 40
0.5
 40
0.53125
 40
0.53125
 40
0.5625
 40
0.5625
 40
0.59375
 40
0.59375
 40
0.625
 40
0.625
 40
0.65625
 40
0.65625
 40
0.6875
 40
0.6875
 40
0.71875
 40
0.71875
 40
0.75
 40
0.75
 40
0.78125
 40
0.78125
 40
0.8125
 40
0.8125
 40
0.84375
 40
0.84375
 40
0.875
 40
0.875
 40
0.90625
 40
0.90625
 40
0.9375
 40
0.9375
 40
0.96875
 40
0.96875
 40
1.0
 40
1.0
 40
1.03125
 40
1.03125
 10
119.5050090292863
 20
120.842014974554
 30
0.0
 10
120.0340997066066
 20
120.842014974554
 30
0.0
 10
120.2941703739837
 20
120.8666922693392
 30
0.0
 10
120.8057450538192
 20
120.9631639423811
 30
0.0
 10
121.0599203375593
 20
121.0361448583612
 30
0.0
 10
121.544190967621
 20
121.2258854612998
 30
0.0
 10
121.7738320595022
 20
121.3417461196936
 30
0.0
 10
122.2084364077357
 20
121.6143639656513
 30
0.0
 10
122.4140021843823
 20
121.772403047705
 30
0.0
 10
122.7825593249775
 20
122.1159458986757
 30
0.0
 10
122.948040307713
 20
122.3027083427774
 30
0.0
 10
123.2404648171481
 20
122.7062515171742
 30
0.0
 10
123.3645657937746
 20
122.9197485136033
 30
0.0
 10
123.5641449905243
 20
123.3591318275258
 30
0.0
 10
123.6410785763826
 20
123.5882718146715
 30
0.0
 10
123.743935634903
 20
124.0542459374315
 30
0.0
 10
123.7694085443621
 20
124.2871283831076
 30
0.0
 10
123.7696989549299
 20
124.7525259181874
 30
0.0
 10
123.7436743211542
 20
124.9874016755818
 30
0.0
 10
123.6415260366621
 20
125.438894822828
 30
0.0
 10
123.565949589079
 20
125.6569412982394
 30
0.0
 10
123.3654520579341
 20
126.0780358232772
 30
0.0
 10
123.2403232164257
 20
126.2799572077956
 30
0.0
 10
122.9509644154041
 20
126.6519866903145
 30
0.0
 10
122.7855534283486
 20
126.8246149938948
 30
0.0
 10
122.4125628702008
 20
127.1419329984408
 30
0.0
 10
122.2108298371117
 20
127.2817199319425
 30
0.0
 10
121.7779705862838
 20
127.5258961854943
 30
0.0
 10
121.5440520533945
 20
127.6311256965358
 30
0.0
 10
121.0598683182518
 20
127.7992828429109
 30
0.0
 10
120.8105526922963
 20
127.8625337335048
 30
0.0
 10
120.2975201678686
 20
127.9481129426073
 30
0.0
 10
120.032226344964
 20
127.9699851075297
 30
0.0
 10
119.5098917250942
 20
127.9701487571737
 30
0.0
 10
119.2501380626125
 20
127.9491470650777
 30
0.0
 10
118.7335262469672
 20
127.86374471
 30
0.0
 10
118.481160206467
 20
127.7997385267131
 30
0.0
 10
117.9996350849341
 20
127.6329240066719
 30
0.0
 10
117.7667843528206
 20
127.5287908432728
 30
0.0
 10
117.3296945043818
 20
127.2828041907778
 30
0.0
 10
117.1283735157246
 20
127.1430543598289
 30
0.0
 10
116.7592874904247
 20
126.8299162901044
 30
0.0
 10
116.590302739373
 20
126.6544601308342
 30
0.0
 10
116.2998466827138
 20
126.281619866734
 30
0.0
 10
116.1767748713517
 20
126.0834980566231
 30
0.0
 10
115.9754386299297
 20
125.6627867138894
 30
0.0
 10
115.8982260839875
 20
125.4407966932219
 30
0.0
 10
115.7960225410874
 20
124.9909317535135
 30
0.0
 10
115.7697941896351
 20
124.7606763403968
 30
0.0
 10
115.769317790318
 20
124.2893603978477
 30
0.0
 10
115.7950602028159
 20
124.0561229821336
 30
0.0
 10
115.8963709791798
 20
123.5944464426355
 30
0.0
 10
115.9732036185707
 20
123.3635490555234
 30
0.0
 10
116.1736074577859
 20
122.9212730417317
 30
0.0
 10
116.2962789560779
 20
122.7102106104458
 30
0.0
 10
116.5862262452422
 20
122.3087120997131
 30
0.0
 10
116.7547972246074
 20
122.1178055776372
 30
0.0
 10
117.1230668187206
 20
121.7740802456401
 30
0.0
 10
117.3241286759909
 20
121.618943059426
 30
0.0
 10
117.7611595945758
 20
121.3438656993463
 30
0.0
 10
117.9933078077054
 20
121.2267494699243
 30
0.0
 10
118.4743180892043
 20
121.0378229848598
 30
0.0
 10
118.7264181720347
 20
120.9647480144655
 30
0.0
 10
119.2434876582937
 20
120.866695955331
 30
0.0
 10
119.5050090292863
 20
120.842014974554
 30
0.0
 10
120.0340997066066
 20
120.842014974554
 30
0.0
  0
LINE
  5
72
330
1F
100
AcDbEntity
  8
0
  6
Continuous
 62
     7
370
    15
100
AcDbLine
 10
116.7195543411
 20
130.0711088277
 30
0.0
 11
126.3776218283
 21
130.0711088277
 31
0.0
  0
LINE
  5
73
330
1F
100
AcDbEntity
  8
0
  6
Continuous
 62
     7
370
    15
100
AcDbLine
 10
126.3776218283
 20
80.0341904558
 30
0.0
 11
126.3776218283
 21
130.0711088277
 31
0.0
  0
LINE
  5
74
330
1F
100
AcDbEntity
  8
0
  6
Continuous
 62
     7
370
    15
100
AcDbLine
 10
126.3776218283
 20
80.0341904558
 30
0.0
 11
124.7195547211
 21
80.0341904558
 31
0.0
  0
SPLINE
  5
75
330
1F
100
AcDbEntity
  8
0
  6
Continuous
 62
     7
370
    15
100
AcDbSpline
210
0.0
220
0.0
230
1.0
 70
     8
 71
     3
 72
    28
 73
    24
 74
     0
 42
0.00000001
 43
0.00000001
 40
0.0
 40
0.0
 40
0.0
 40
0.0
 40
0.1249999999999999
 40
0.1249999999999999
 40
0.1874999999999998
 40
0.1874999999999998
 40
0.2499999999999997
 40
0.2499999999999997
 40
0.3749999999999993
 40
0.3749999999999993
 40
0.4374999999999993
 40
0.4374999999999993
 40
0.4999999999999992
 40
0.4999999999999992
 40
0.6249999999999992
 40
0.6249999999999992
 40
0.7499999999999992
 40
0.7499999999999992
 40
0.8124999999999993
 40
0.8124999999999993
 40
0.8749999999999996
 40
0.8749999999999996
 40
1.0
 40
1.0
 40
1.0
 40
1.0
 10
124.7195543679465
 20
80.03419039232354
 30
0.0
 10
124.1878466104535
 20
80.03419039232354
 30
0.0
 10
123.6656080451432
 20
80.01840567837331
 30
0.0
 10
122.8957375588682
 20
79.97341026429712
 30
0.0
 10
122.6413779866769
 20
79.95485526922138
 30
0.0
 10
122.1372564059784
 20
79.9110025467749
 30
0.0
 10
121.8875335885505
 20
79.88565793982269
 30
0.0
 10
121.161943637104
 20
79.80225586207258
 30
0.0
 10
120.7035833755225
 20
79.73639030292149
 30
0.0
 10
120.0530854321286
 20
79.62741996242973
 30
0.0
 10
119.8414033813361
 20
79.58918032666307
 30
0.0
 10
119.4373318921982
 20
79.51142158924371
 30
0.0
 10
119.2448253783773
 20
79.47192062706837
 30
0.0
 10
118.694990407356
 20
79.35301288470235
 30
0.0
 10
118.3650616290472
 20
79.27319520327774
 30
0.0
 10
117.7805903604785
 20
79.11985204148168
 30
0.0
 10
117.5343132224651
 20
79.04851828821242
 30
0.0
 10
117.234470429767
 20
78.95457478113781
 30
0.0
 10
117.1460135726948
 20
78.92538098777787
 30
0.0
 10
116.9926522193897
 20
78.87191441351447
 30
0.0
 10
116.9275640051635
 20
78.8475550792393
 30
0.0
 10
116.7719699892227
 20
78.78396493379455
 30
0.0
 10
116.7195543679465
 20
78.75386199870529
 30
0.0
 10
116.7195543679465
 20
78.73698510570837
 30
0.0
  0
LINE
  5
76
330
1F
100
AcDbEntity
  8
0
  6
Continuous
 62
     7
370
    15
100
AcDbLine
 10
116.7195543411
 20
78.7369847692
 30
0.0
 11
116.7195543411
 21
78.7211075819
 31
0.0
  0
SPLINE
  5
77
330
1F
100
AcDbEntity
  8
0
  6
Continuous
 62
     7
370
    15
100
AcDbSpline
210
0.0
220
0.0
230
1.0
 70
     8
 71
     3
 72
    17
 73
    13
 74
     0
 42
0.00000001
 43
0.00000001
 40
0.0
 40
0.0
 40
0.0
 40
0.0
 40
0.1034797280380778
 40
0.2100239090909901
 40
0.3134862262879433
 40
0.4198361712144981
 40
0.5254127947779869
 40
0.6339610881168427
 40
0.7409508662120068
 40
0.8511696072047016
 40
0.9558996557845765
 40
1.0
 40
1.0
 40
1.0
 40
1.0
 10
124.719554721104
 20
140.6883035249292
 30
0.0
 10
124.2843062293781
 20
140.6937515165668
 30
0.0
 10
123.4009197788011
 20
140.7048088368954
 30
0.0
 10
122.1200919165783
 20
140.7911675972705
 30
0.0
 10
120.9026757211364
 20
140.9190387404035
 30
0.0
 10
119.7948691048106
 20
141.077983147722
 30
0.0
 10
118.8066306254818
 20
141.2524777207065
 30
0.0
 10
117.9819075256659
 20
141.4216441538934
 30
0.0
 10
117.3329538681673
 20
141.5695249623611
 30
0.0
 10
116.9159185646877
 20
141.6713157138837
 30
0.0
 10
116.7173218218097
 20
141.7216726135182
 30
0.0
 10
116.7406349387976
 20
141.7157630085427
 30
0.0
 10
116.747542912798
 20
141.7140119171916
 30
0.0
  0
LINE
  5
78
330
1F
100
AcDbEntity
  8
0
  6
Continuous
 62
     7
370
    15
100
AcDbLine
 10
126.3776218283
 20
140.6883035249
 30
0.0
 11
124.7195547211
 21
140.6883035249
 31
0.0
  0
LINE
  5
79
330
1F
100
AcDbEntity
  8
0
  6
Continuous
 62
     7
370
    15
100
AcDbLine
 10
126.3776218283
 20
134.6797977037
 30
0.0
 11
126.3776218283
 21
140.6883035249
 31
0.0
  0
LINE
  5
7A
330
1F
100
AcDbEntity
  8
0
  6
Continuous
 62
     7
370
    15
100
AcDbLine
 10
123.9651750538
 20
134.6797977037
 30
0.0
 11
126.3776218283
 21
134.6797977037
 31
0.0
  0
SPLINE
  5
7B
330
1F
100
AcDbEntity
  8
0
  6
Continuous
 62
     7
370
    15
100
AcDbSpline
210
0.0
220
0.0
230
1.0
 70
     8
 71
     3
 72
    20
 73
    16
 74
     0
 42
0.00000001
 43
0.00000001
 40
0.0
 40
0.0
 40
0.0
 40
0.0
 40
0.2500000000000005
 40
0.2500000000000005
 40
0.3750000000000004
 40
0.3750000000000004
 40
0.5000000000000003
 40
0.5000000000000003
 40
0.6250000000000002
 40
0.6250000000000002
 40
0.7500000000000001
 40
0.7500000000000001
 40
0.8750000000000001
 40
0.8750000000000001
 40
1.0
 40
1.0
 40
1.0
 40
1.0
 10
116.7195543679465
 20
130.0711080885707
 30
0.0
 10
116.9679281022346
 20
130.7249705168681
 30
0.0
 10
117.2874981945798
 20
131.3287562988652
 30
0.0
 10
117.9098044277845
 20
132.1555950350339
 30
0.0
 10
118.1412286882153
 20
132.4180236729868
 30
0.0
 10
118.662443027865
 20
132.9146863270917
 30
0.0
 10
118.9490635105
 20
133.1452732061133
 30
0.0
 10
119.5685482518077
 20
133.5618274306959
 30
0.0
 10
119.9028486312946
 20
133.7493252326634
 30
0.0
 10
120.6281091039194
 20
134.0807222102998
 30
0.0
 10
121.0100241613099
 20
134.2202261977951
 30
0.0
 10
121.8048123374816
 20
134.4456797052661
 30
0.0
 10
122.2189705316879
 20
134.5323058168097
 30
0.0
 10
123.0845168722693
 20
134.6502866056638
 30
0.0
 10
123.5224044872812
 20
134.6797977509381
 30
0.0
 10
123.9651747136358
 20
134.6797977509381
 30
0.0
  0
SPLINE
  5
7C
330
1F
100
AcDbEntity
  8
0
  6
Continuous
 62
     7
370
    15
100
AcDbSpline
210
0.0
220
0.0
230
1.0
 70
     8
 71
     3
 72
    70
 73
    66
 74
     0
 42
0.00000001
 43
0.00000001
 40
-0.03125
 40
-0.03125
 40
0.0
 40
0.0
 40
0.0312499999999999
 40
0.0312499999999999
 40
0.0624999999999999
 40
0.0624999999999999
 40
0.0937499999999998
 40
0.0937499999999998
 40
0.1249999999999997
 40
0.1249999999999997
 40
0.1562499999999997
 40
0.1562499999999997
 40
0.1874999999999996
 40
0.1874999999999996
 40
0.2187499999999995
 40
0.2187499999999995
 40
0.2499999999999994
 40
0.2499999999999994
 40
0.2812499999999996
 40
0.2812499999999996
 40
0.3124999999999996
 40
0.3124999999999996
 40
0.3437499999999997
 40
0.3437499999999997
 40
0.3749999999999998
 40
0.3749999999999998
 40
0.4062499999999999
 40
0.4062499999999999
 40
0.4375
 40
0.4375
 40
0.4687500000000001
 40
0.4687500000000001
 40
0.5000000000000002
 40
0.5000000000000002
 40
0.5312500000000001
 40
0.5312500000000001
 40
0.5625000000000001
 40
0.5625000000000001
 40
0.59375
 40
0.59375
 40
0.6249999999999999
 40
0.6249999999999999
 40
0.6562499999999999
 40
0.6562499999999999
 40
0.6874999999999998
 40
0.6874999999999998
 40
0.7187499999999998
 40
0.7187499999999998
 40
0.7499999999999997
 40
0.7499999999999997
 40
0.7812499999999997
 40
0.7812499999999997
 40
0.8124999999999998
 40
0.8124999999999998
 40
0.8437499999999998
 40
0.8437499999999998
 40
0.8749999999999998
 40
0.8749999999999998
 40
0.9062499999999999
 40
0.9062499999999999
 40
0.9374999999999999
 40
0.9374999999999999
 40
0.96875
 40
0.96875
 40
1.0
 40
1.0
 40
1.03125
 40
1.03125
 10
119.5050090292863
 20
135.2800714833499
 30
0.0
 10
120.0340997066066
 20
135.2800714833499
 30
0.0
 10
120.2941703739837
 20
135.2959719237647
 30
0.0
 10
120.8057450538192
 20
135.3579162739389
 30
0.0
 10
121.0599203375593
 20
135.4047185080302
 30
0.0
 10
121.544190967621
 20
135.5256954914853
 30
0.0
 10
121.7738320595022
 20
135.5992978192921
 30
0.0
 10
122.2084364077357
 20
135.7711220902703
 30
0.0
 10
122.4140021843823
 20
135.8701255131977
 30
0.0
 10
122.7825593249775
 20
136.0832219271105
 30
0.0
 10
122.948040307713
 20
136.1981216432402
 30
0.0
 10
123.2404648171481
 20
136.4434885419305
 30
0.0
 10
123.3645657937746
 20
136.5719284424007
 30
0.0
 10
123.5641449905244
 20
136.8328205904867
 30
0.0
 10
123.6410785763826
 20
136.9672017618262
 30
0.0
 10
123.743935634903
 20
137.2365217129325
 30
0.0
 10
123.7694085443621
 20
137.3692029771506
 30
0.0
 10
123.7696989549299
 20
137.6303894512816
 30
0.0
 10
123.7436743211542
 20
137.7601544894464
 30
0.0
 10
123.6415260366622
 20
138.005737123719
 30
0.0
 10
123.565949589079
 20
138.1223986610279
 30
0.0
 10
123.3654520579341
 20
138.3443038511825
 30
0.0
 10
123.2403232164257
 20
138.4489151051054
 30
0.0
 10
122.9509644154041
 20
138.6389615167135
 30
0.0
 10
122.7855534283486
 20
138.7257211881632
 30
0.0
 10
122.4125628702008
 20
138.8832255639147
 30
0.0
 10
122.2108298371117
 20
138.951550828702
 30
0.0
 10
121.7779705862838
 20
139.0697805523212
 30
0.0
 10
121.5440520533944
 20
139.120075468425
 30
0.0
 10
121.0598683182518
 20
139.1999410053147
 30
0.0
 10
120.8105526922963
 20
139.2296821331143
 30
0.0
 10
120.2975201678686
 20
139.2698348746225
 30
0.0
 10
120.032226344964
 20
139.2800331440323
 30
0.0
 10
119.5098917250942
 20
139.280109602417
 30
0.0
 10
119.2501380626125
 20
139.270318590808
 30
0.0
 10
118.7335262469672
 20
139.2302517520693
 30
0.0
 10
118.481160206467
 20
139.2001545852124
 30
0.0
 10
117.9996350849341
 20
139.1209323753822
 30
0.0
 10
117.7667843528206
 20
139.0711748959189
 30
0.0
 10
117.3296945043818
 20
138.9520829534685
 30
0.0
 10
117.1283735157246
 20
138.8837676919212
 30
0.0
 10
116.7592874904247
 20
138.7283667249876
 30
0.0
 10
116.590302739373
 20
138.6402143829207
 30
0.0
 10
116.2998466827138
 20
138.4497749938044
 30
0.0
 10
116.1767748713517
 20
138.3471504161053
 30
0.0
 10
115.9754386299297
 20
138.1255100694972
 30
0.0
 10
115.8982260839875
 20
138.0067559939497
 30
0.0
 10
115.7960225410874
 20
137.762090055032
 30
0.0
 10
115.7697941896351
 20
137.6349333295835
 30
0.0
 10
115.769317790318
 20
137.3704851837279
 30
0.0
 10
115.7950602028159
 20
137.2375845034708
 30
0.0
 10
115.8963709791798
 20
136.9707922299887
 30
0.0
 10
115.9732036185707
 20
136.8354283285201
 30
0.0
 10
116.1736074577859
 20
136.5728485332176
 30
0.0
 10
116.2962789560779
 20
136.4458733734638
 30
0.0
 10
116.5862262452422
 20
136.2017939873814
 30
0.0
 10
116.7547972246074
 20
136.0843688626275
 30
0.0
 10
117.1230668187206
 20
135.8711724016791
 30
0.0
 10
117.3241286759909
 20
135.7739982832542
 30
0.0
 10
117.7611595945758
 20
135.6006433960401
 30
0.0
 10
117.9933078077054
 20
135.5262438443834
 30
0.0
 10
118.4743180892043
 20
135.4057909648787
 30
0.0
 10
118.7264181720347
 20
135.3589325896127
 30
0.0
 10
119.2434876582937
 20
135.295975092629
 30
0.0
 10
119.5050090292863
 20
135.2800714833499
 30
0.0
 10
120.0340997066066
 20
135.2800714833499
 30
0.0
  0
LINE
  5
7D
330
1F
100
AcDbEntity
  8
0
  6
Continuous
 62
     7
370
    15
100
AcDbLine
 10
127.8595544162
 20
82.7232707686
 30
0.0
 11
127.8595544162
 21
130.0711088277
 31
0.0
  0
SPLINE
  5
7E
330
1F
100
AcDbEntity
  8
0
  6
Continuous
 62
     7
370
    15
100
AcDbSpline
210
0.0
220
0.0
230
1.0
 70
     8
 71
     3
 72
     8
 73
     4
 74
     0
 42
0.00000001
 43
0.00000001
 40
0.0
 40
0.0
 40
0.0
 40
0.0
 40
1.0
 40
1.0
 40
1.0
 40
1.0
 10
127.8595543679465
 20
82.72327092951582
 30
0.0
 10
127.3672152451653
 20
81.82600089530911
 30
0.0
 10
126.8731011971232
 20
80.92971648025687
 30
0.0
 10
126.3776215364574
 20
80.03419039232352
 30
0.0
  0
SPLINE
  5
7F
330
1F
100
AcDbEntity
  8
0
  6
Continuous
 62
     7
370
    15
100
AcDbSpline
210
0.0
220
0.0
230
1.0
 70
    24
 71
     3
 72
     8
 73
     4
 74
     0
 42
0.00000001
 43
0.00000001
 40
0.0
 40
0.0
 40
0.0
 40
0.0
 40
1.0
 40
1.0
 40
1.0
 40
1.0
 10
126.3776215364574
 20
130.0711080885707
 30
0.0
 10
126.884301644608
 20
130.0711080885707
 30
0.0
 10
127.3796023735816
 20
130.0711080885707
 30
0.0
 10
127.8595543679465
 20
130.0711080885707
 30
0.0
  0
LINE
  5
80
330
1F
100
AcDbEntity
  8
0
  6
Continuous
 62
     7
370
    15
100
AcDbLine
 10
133.1614862892
 20
80.0341904558
 30
0.0
 11
133.1614862892
 21
130.0711088277
 31
0.0
  0
SPLINE
  5
81
330
1F
100
AcDbEntity
  8
0
  6
Continuous
 62
     7
370
    15
100
AcDbSpline
210
0.0
220
0.0
230
1.0
 70
     8
 71
     3
 72
     8
 73
     4
 74
     0
 42
0.00000001
 43
0.00000001
 40
0.0
 40
0.0
 40
0.0
 40
0.0
 40
1.0
 40
1.0
 40
1.0
 40
1.0
 10
133.1614871994356
 20
80.03419039232354
 30
0.0
 10
132.6660075387698
 20
80.92971648025689
 30
0.0
 10
132.1718934907277
 20
81.82600089530914
 30
0.0
 10
131.6795543679465
 20
82.72327092951583
 30
0.0
  0
LINE
  5
82
330
1F
100
AcDbEntity
  8
0
  6
Continuous
 62
     7
370
    15
100
AcDbLine
 10
131.6795546326
 20
82.7232707686
 30
0.0
 11
131.6795546326
 21
130.0711088277
 31
0.0
  0
SPLINE
  5
83
330
1F
100
AcDbEntity
  8
0
  6
Continuous
 62
     7
370
    15
100
AcDbSpline
210
0.0
220
0.0
230
1.0
 70
    24
 71
     3
 72
     8
 73
     4
 74
     0
 42
0.00000001
 43
0.00000001
 40
0.0
 40
0.0
 40
0.0
 40
0.0
 40
1.0
 40
1.0
 40
1.0
 40
1.0
 10
131.6795543679465
 20
130.0711080885707
 30
0.0
 10
132.1595063623114
 20
130.0711080885707
 30
0.0
 10
132.654807091285
 20
130.0711080885707
 30
0.0
 10
133.1614871994356
 20
130.0711080885707
 30
0.0
  0
LINE
  5
84
330
1F
100
AcDbEntity
  8
0
  6
Continuous
 62
     7
370
    15
100
AcDbLine
 10
137.1195550772
 20
80.0341904558
 30
0.0
 11
133.1614862892
 21
80.0341904558
 31
0.0
  0
LINE
  5
85
330
1F
100
AcDbEntity
  8
0
  6
Continuous
 62
     7
370
    15
100
AcDbLine
 10
133.1614862892
 20
130.0711088277
 30
0.0
 11
137.1195550772
 21
130.0711088277
 31
0.0
  0
LINE
  5
86
330
1F
100
AcDbEntity
  8
0
  6
Continuous
 62
     7
370
    15
100
AcDbLine
 10
137.719554058
 20
80.6608308501
 30
0.0
 11
137.719554058
 21
130.0711088277
 31
0.0
  0
SPLINE
  5
87
330
1F
100
AcDbEntity
  8
0
  6
Continuous
 62
     7
370
    15
100
AcDbSpline
210
0.0
220
0.0
230
1.0
 70
     8
 71
     3
 72
    10
 73
     6
 74
     0
 42
0.00000001
 43
0.00000001
 40
0.0
 40
0.0
 40
0.0
 40
0.0
 40
0.5
 40
0.5
 40
1.0
 40
1.0
 40
1.0
 40
1.0
 10
137.7195543679465
 20
80.66083068797786
 30
0.0
 10
137.7195543679465
 20
80.50094341978419
 30
0.0
 10
137.6582447167106
 20
80.33981616426959
 30
0.0
 10
137.4391450791756
 20
80.10571716591475
 30
0.0
 10
137.2810968728621
 20
80.03419039232354
 30
0.0
 10
137.1195543679465
 20
80.03419039232354
 30
0.0
  0
SPLINE
  5
88
330
1F
100
AcDbEntity
  8
0
  6
Continuous
 62
     7
370
    15
100
AcDbSpline
210
0.0
220
0.0
230
1.0
 70
    24
 71
     3
 72
    12
 73
     8
 74
     0
 42
0.00000001
 43
0.00000001
 40
0.0
 40
0.0
 40
0.0
 40
0.0
 40
0.250000000000002
 40
0.250000000000002
 40
0.500000000000004
 40
0.500000000000004
 40
1.0
 40
1.0
 40
1.0
 40
1.0
 10
137.1195543679465
 20
130.0711080885707
 30
0.0
 10
137.2097934356335
 20
130.0711080885707
 30
0.0
 10
137.30069154974
 20
130.0711080885707
 30
0.0
 10
137.4552885862286
 20
130.0711080885707
 30
0.0
 10
137.5202670023367
 20
130.0711080885707
 30
0.0
 10
137.6721020302729
 20
130.0711080885707
 30
0.0
 10
137.7195543679465
 20
130.0711080885707
 30
0.0
 10
137.7195543679465
 20
130.0711080885707
 30
0.0
  0
LINE
  5
89
330
1F
100
AcDbEntity
  8
0
  6
Continuous
 62
     7
370
    15
100
AcDbLine
 10
111.7695543679
 20
79.021108935
 30
0.0
 11
111.7695543679
 21
141.4211072422
 31
0.0
  0
ARC
  5
8A
330
1F
100
AcDbEntity
  8
0
  6
Continuous
 62
     7
370
    15
100
AcDbCircle
 10
119.76657772
 20
122.1057416437
 30
0.0
 40
4.121396391263104
100
AcDbArc
 50
19.9152563342
 51
158.8018190708
  0
SPLINE
  5
8B
330
1F
100
AcDbEntity
  8
0
  6
Continuous
 62
     7
370
    15
100
AcDbSpline
210
0.0
220
0.0
230
1.0
 70
    24
 71
     3
 72
    14
 73
    10
 74
     0
 42
0.00000001
 43
0.00000001
 40
0.0
 40
0.0
 40
0.0
 40
0.0
 40
0.4999999999999954
 40
0.4999999999999954
 40
0.7499999999999947
 40
0.7499999999999947
 40
0.8749999999999973
 40
0.8749999999999973
 40
1.0
 40
1.0
 40
1.0
 40
1.0
 10
131.5818795656142
 20
83.82110808857071
 30
0.0
 10
131.5346694063844
 20
83.82110808857071
 30
0.0
 10
131.4714349328407
 20
83.82110808857071
 30
0.0
 10
131.3276230021128
 20
83.82110808857071
 30
0.0
 10
131.2722979276364
 20
83.8211080885707
 30
0.0
 10
131.1603867544014
 20
83.82110808857071
 30
0.0
 10
131.1175996679604
 20
83.8211080885707
 30
0.0
 10
131.0132343349268
 20
83.8211080885707
 30
0.0
 10
130.9490105406251
 20
83.8211080885707
 30
0.0
 10
130.879554368002
 20
83.82110808857071
 30
0.0
  0
SPLINE
  5
8C
330
1F
100
AcDbEntity
  8
0
  6
Continuous
 62
     7
370
    15
100
AcDbSpline
210
0.0
220
0.0
230
1.0
 70
    24
 71
     3
 72
    12
 73
     8
 74
     0
 42
0.00000001
 43
0.00000001
 40
0.0
 40
0.0
 40
0.0
 40
0.0
 40
0.5000000000000074
 40
0.5000000000000074
 40
0.7500000000000037
 40
0.7500000000000037
 40
1.0
 40
1.0
 40
1.0
 40
1.0
 10
131.2852568362557
 20
136.6211080885707
 30
0.0
 10
131.2418186484528
 20
136.6211080885707
 30
0.0
 10
131.1926244001548
 20
136.6211080885707
 30
0.0
 10
131.0959056427737
 20
136.6211080885707
 30
0.0
 10
131.059718161272
 20
136.6211080885707
 30
0.0
 10
130.9768403027473
 20
136.6211080885707
 30
0.0
 10
130.9288868554406
 20
136.6211080885707
 30
0.0
 10
130.8795543679465
 20
136.6211080885707
 30
0.0
  0
SPLINE
  5
8D
330
1F
100
AcDbEntity
  8
0
  6
Continuous
 62
     7
370
    15
100
AcDbSpline
210
0.0
220
0.0
230
1.0
 70
     8
 71
     3
 72
    10
 73
     6
 74
     0
 42
0.00000001
 43
0.00000001
 40
0.0
 40
0.0
 40
0.0
 40
0.0
 40
0.5
 40
0.5
 40
1.0
 40
1.0
 40
1.0
 40
1.0
 10
131.6795543679465
 20
137.3407619396065
 30
0.0
 10
131.6795543679465
 20
137.1969918817887
 30
0.0
 10
131.6435053092277
 20
137.0545725192937
 30
0.0
 10
131.5079964484541
 20
136.8046782259368
 30
0.0
 10
131.4081204553582
 20
136.6966478896886
 30
0.0
 10
131.2852568362566
 20
136.6211080885713
 30
0.0
  0
SPLINE
  5
8E
330
1F
100
AcDbEntity
  8
0
  6
Continuous
 62
     7
370
    15
100
AcDbSpline
210
0.0
220
0.0
230
1.0
 70
     8
 71
     3
 72
     9
 73
     5
 74
     0
 42
0.00000001
 43
0.00000001
 40
0.0
 40
0.0
 40
0.0
 40
0.0
 40
0.5
 40
1.0
 40
1.0
 40
1.0
 40
1.0
 10
131.6534067447864
 20
130.0711080885707
 30
0.0
 10
131.6621453146687
 20
130.1182508889061
 30
0.0
 10
131.6751646010051
 20
130.2130469705766
 30
0.0
 10
131.6795543679465
 20
130.308831242137
 30
0.0
 10
131.6795543679465
 20
130.3569747200321
 30
0.0
  0
SPLINE
  5
8F
330
1F
100
AcDbEntity
  8
0
  6
Continuous
 62
     7
370
    15
100
AcDbSpline
210
0.0
220
0.0
230
1.0
 70
     8
 71
     3
 72
    10
 73
     6
 74
     0
 42
0.00000001
 43
0.00000001
 40
0.0
 40
0.0
 40
0.0
 40
0.0
 40
0.5
 40
0.5
 40
1.0
 40
1.0
 40
1.0
 40
1.0
 10
128.2538518996374
 20
136.6211080885707
 30
0.0
 10
128.1323116359689
 20
136.6958342557825
 30
0.0
 10
128.03097727562
 20
136.8047792716993
 30
0.0
 10
127.8953383327316
 20
137.0552097524609
 30
0.0
 10
127.8595543679465
 20
137.1976291145598
 30
0.0
 10
127.8595543679465
 20
137.3407619396065
 30
0.0
  0
SPLINE
  5
90
330
1F
100
AcDbEntity
  8
0
  6
Continuous
 62
     7
370
    15
100
AcDbSpline
210
0.0
220
0.0
230
1.0
 70
    24
 71
     3
 72
    12
 73
     8
 74
     0
 42
0.00000001
 43
0.00000001
 40
0.0
 40
0.0
 40
0.0
 40
0.0
 40
0.2500000000000008
 40
0.2500000000000008
 40
0.5000000000000017
 40
0.5000000000000017
 40
1.0
 40
1.0
 40
1.0
 40
1.0
 10
128.6595543679465
 20
136.6211080885707
 30
0.0
 10
128.6096776856291
 20
136.6211080885707
 30
0.0
 10
128.5616744922254
 20
136.6211080885707
 30
0.0
 10
128.4786263895135
 20
136.6211080885707
 30
0.0
 10
128.4424968100456
 20
136.6211080885707
 30
0.0
 10
128.3465847791014
 20
136.6211080885707
 30
0.0
 10
128.2968261111326
 20
136.6211080885707
 30
0.0
 10
128.2538518996374
 20
136.6211080885707
 30
0.0
  0
SPLINE
  5
91
330
1F
100
AcDbEntity
  8
0
  6
Continuous
 62
     7
370
    15
100
AcDbSpline
210
0.0
220
0.0
230
1.0
 70
    24
 71
     3
 72
    14
 73
    10
 74
     0
 42
0.00000001
 43
0.00000001
 40
0.0
 40
0.0
 40
0.0
 40
0.0
 40
0.1250000000000006
 40
0.1250000000000006
 40
0.2500000000000012
 40
0.2500000000000012
 40
0.4999999999999998
 40
0.4999999999999998
 40
1.0
 40
1.0
 40
1.0
 40
1.0
 10
128.6595543679465
 20
83.82110808857071
 30
0.0
 10
128.59111652006
 20
83.82110808857071
 30
0.0
 10
128.525566481295
 20
83.82110808857071
 30
0.0
 10
128.4211398418871
 20
83.82110808857071
 30
0.0
 10
128.3785952321256
 20
83.82110808857071
 30
0.0
 10
128.2659857715854
 20
83.82110808857071
 30
0.0
 10
128.2104467245659
 20
83.8211080885707
 30
0.0
 10
128.067835029102
 20
83.82110808857071
 30
0.0
 10
128.0044296741063
 20
83.8211080885707
 30
0.0
 10
127.9572291702788
 20
83.82110808857071
 30
0.0
  0
SPLINE
  5
92
330
1F
100
AcDbEntity
  8
0
  6
Continuous
 62
     7
370
    15
100
AcDbSpline
210
0.0
220
0.0
230
1.0
 70
     8
 71
     3
 72
    10
 73
     6
 74
     0
 42
0.00000001
 43
0.00000001
 40
0.0
 40
0.0
 40
0.0
 40
0.0
 40
0.5
 40
0.5
 40
1.0
 40
1.0
 40
1.0
 40
1.0
 10
127.8595543679465
 20
130.3569747200321
 30
0.0
 10
127.8595543679465
 20
130.3092032120388
 30
0.0
 10
127.8617156115436
 20
130.2614934899771
 30
0.0
 10
127.8703869854038
 20
130.1661983724288
 30
0.0
 10
127.8769161683598
 20
130.1185058084622
 30
0.0
 10
127.8857019911066
 20
130.0711080885707
 30
0.0
  0
LINE
  5
93
330
1F
100
AcDbEntity
  8
0
  6
Continuous
 62
     7
370
    15
100
AcDbLine
 10
130.8795541289
 20
136.6211079455
 30
0.0
 11
128.6595549199
 21
136.6211079455
 31
0.0
  0
LINE
  5
94
330
1F
100
AcDbEntity
  8
0
  6
Continuous
 62
     7
370
    15
100
AcDbLine
 10
130.8795541289
 20
83.8211082316
 30
0.0
 11
128.6595549199
 21
83.8211082316
 31
0.0
  0
LINE
  5
95
330
1F
100
AcDbEntity
  8
0
  6
Continuous
 62
     7
370
    15
100
AcDbLine
 10
137.9195537183
 20
136.6211079455
 30
0.0
 11
137.8940466556
 21
136.6211079455
 31
0.0
  0
SPLINE
  5
96
330
1F
100
AcDbEntity
  8
0
  6
Continuous
 62
     7
370
    15
100
AcDbSpline
210
0.0
220
0.0
230
1.0
 70
    24
 71
     3
 72
    10
 73
     6
 74
     0
 42
0.00000001
 43
0.00000001
 40
0.0
 40
0.0
 40
0.0
 40
0.0
 40
0.5
 40
0.5
 40
1.0
 40
1.0
 40
1.0
 40
1.0
 10
137.9195543679141
 20
83.82110808857071
 30
0.0
 10
137.9195530876169
 20
83.82110808857071
 30
0.0
 10
137.8763481611009
 20
83.8211080885707
 30
0.0
 10
137.7754212067628
 20
83.82110808857071
 30
0.0
 10
137.7195543679465
 20
83.82110808857071
 30
0.0
 10
137.7195543679465
 20
83.82110808857071
 30
0.0
  0
LINE
  5
97
330
1F
100
AcDbEntity
  8
0
  6
Continuous
 62
     7
370
    15
100
AcDbLine
 10
157.719553611
 20
110.2211080886
 30
0.0
 11
157.719553611
 21
84.2211075521
 31
0.0
  0
LINE
  5
98
330
1F
100
AcDbEntity
  8
0
  6
Continuous
 62
     7
370
    15
100
AcDbLine
 10
157.719553611
 20
136.221108625
 30
0.0
 11
157.719553611
 21
110.2211080886
 31
0.0
  0
LINE
  5
99
330
1F
100
AcDbEntity
  8
0
  6
Continuous
 62
     7
370
    15
100
AcDbLine
 10
146.3498558614
 20
136.1169681347
 30
0.0
 11
146.5620856497
 21
136.104479099
 31
0.0
  0
SPLINE
  5
9A
330
1F
100
AcDbEntity
  8
0
  6
Continuous
 62
     7
370
    15
100
AcDbSpline
210
0.0
220
0.0
230
1.0
 70
     8
 71
     3
 72
    17
 73
    13
 74
     0
 42
0.00000001
 43
0.00000001
 40
0.0
 40
0.0
 40
0.0
 40
0.0
 40
0.0470500368908612
 40
0.1381717059409105
 40
0.2325755810966114
 40
0.3354450496541163
 40
0.4481979393574046
 40
0.5682390622772093
 40
0.6907279292821659
 40
0.8100983743020529
 40
0.9202357793772961
 40
1.0
 40
1.0
 40
1.0
 40
1.0
 10
152.1755914899577
 20
136.2163383907854
 30
0.0
 10
152.1843301047102
 20
136.2172792526712
 30
0.0
 10
152.2099927691352
 20
136.2200422790239
 30
0.0
 10
151.8917152332621
 20
136.1857738866803
 30
0.0
 10
151.2839712330826
 20
136.1293524621959
 30
0.0
 10
150.3810166215299
 20
136.0661687797409
 30
0.0
 10
149.2486699860018
 20
136.0242496366768
 30
0.0
 10
147.9921089831014
 20
136.0275176525354
 30
0.0
 10
146.7865276574193
 20
136.0809080955555
 30
0.0
 10
145.8470795390915
 20
136.155482792898
 30
0.0
 10
145.2922527246384
 20
136.2130208484856
 30
0.0
 10
145.2611660260904
 20
136.2165507403506
 30
0.0
 10
145.2481087061633
 20
136.2180333978712
 30
0.0
  0
SPLINE
  5
9B
330
1F
100
AcDbEntity
  8
0
  6
Continuous
 62
     7
370
    15
100
AcDbSpline
210
0.0
220
0.0
230
1.0
 70
     8
 71
     3
 72
     9
 73
     5
 74
     0
 42
0.00000001
 43
0.00000001
 40
0.0
 40
0.0
 40
0.0
 40
0.0
 40
0.1605214281413435
 40
1.0
 40
1.0
 40
1.0
 40
1.0
 10
145.9040168437232
 20
136.1537926293193
 30
0.0
 10
145.9219732897062
 20
136.1520661287709
 30
0.0
 10
146.0338365231138
 20
136.1413105519712
 30
0.0
 10
146.2056348485054
 20
136.1280772272538
 30
0.0
 10
146.3498558613528
 20
136.116968134719
 30
0.0
  0
LINE
  5
9C
330
1F
100
AcDbEntity
  8
0
  6
Continuous
 62
     7
370
    15
100
AcDbLine
 10
146.3498558614
 20
84.3252480424
 30
0.0
 11
146.2695162508
 21
84.3183488048
 31
0.0
  0
SPLINE
  5
9D
330
1F
100
AcDbEntity
  8
0
  6
Continuous
 62
     7
370
    15
100
AcDbSpline
210
0.0
220
0.0
230
1.0
 70
     8
 71
     3
 72
    17
 73
    13
 74
     0
 42
0.00000001
 43
0.00000001
 40
0.0
 40
0.0
 40
0.0
 40
0.0
 40
0.0513148366873553
 40
0.1424338064340226
 40
0.2371487340369514
 40
0.3404872781158086
 40
0.453672043117717
 40
0.5739485400897196
 40
0.6964270801139457
 40
0.8155028407645577
 40
0.9250958710498755
 40
1.0
 40
1.0
 40
1.0
 40
1.0
 10
145.2628645810355
 20
84.22580700584041
 30
0.0
 10
145.2558589635096
 20
84.22505740636934
 30
0.0
 10
145.2364135782166
 20
84.22297675459575
 30
0.0
 10
145.5693518725669
 20
84.25868133183727
 30
0.0
 10
146.1914900739978
 20
84.31589443301425
 30
0.0
 10
147.1064884445954
 20
84.37869794055382
 30
0.0
 10
148.247854812342
 20
84.41896798893342
 30
0.0
 10
149.5061112186329
 20
84.41323064095488
 30
0.0
 10
150.7044819512165
 20
84.35792670051482
 30
0.0
 10
151.6268265637332
 20
84.28341272165663
 30
0.0
 10
152.1573617597908
 20
84.22801734252872
 30
0.0
 10
152.1780113076451
 20
84.22564773290594
 30
0.0
 10
152.1863948318232
 20
84.22468569346057
 30
0.0
  0
LINE
  5
9E
330
1F
100
AcDbEntity
  8
0
  6
Continuous
 62
     7
370
    15
100
AcDbLine
 10
147.0356594536
 20
84.3684669978
 30
0.0
 11
146.3498558614
 21
84.3252480424
 31
0.0
  0
SPLINE
  5
9F
330
1F
100
AcDbEntity
  8
0
  6
Continuous
 62
     7
370
    15
100
AcDbSpline
210
0.0
220
0.0
230
1.0
 70
     8
 71
     3
 72
    66
 73
    62
 74
     0
 42
0.00000001
 43
0.00000001
 40
-0.0312500000000001
 40
-0.0312500000000001
 40
0.0
 40
0.0
 40
0.03125
 40
0.03125
 40
0.0624999999999999
 40
0.0624999999999999
 40
0.0937499999999999
 40
0.0937499999999999
 40
0.1249999999999998
 40
0.1249999999999998
 40
0.1562499999999998
 40
0.1562499999999998
 40
0.1874999999999997
 40
0.1874999999999997
 40
0.2187499999999997
 40
0.2187499999999997
 40
0.2499999999999996
 40
0.2499999999999996
 40
0.2812499999999996
 40
0.2812499999999996
 40
0.3124999999999995
 40
0.3124999999999995
 40
0.3437499999999994
 40
0.3437499999999994
 40
0.3749999999999994
 40
0.3749999999999994
 40
0.4062499999999994
 40
0.4062499999999994
 40
0.4374999999999993
 40
0.4374999999999993
 40
0.4687499999999993
 40
0.4687499999999993
 40
0.4999999999999992
 40
0.4999999999999992
 40
0.5312499999999993
 40
0.5312499999999993
 40
0.5624999999999993
 40
0.5624999999999993
 40
0.5937499999999994
 40
0.5937499999999994
 40
0.6249999999999994
 40
0.6249999999999994
 40
0.6874999999999994
 40
0.6874999999999994
 40
0.7499999999999994
 40
0.7499999999999994
 40
0.7812499999999996
 40
0.7812499999999996
 40
0.8124999999999997
 40
0.8124999999999997
 40
0.8437499999999997
 40
0.8437499999999997
 40
0.8749999999999998
 40
0.8749999999999998
 40
0.9062499999999998
 40
0.9062499999999998
 40
0.9374999999999999
 40
0.9374999999999999
 40
0.9687499999999999
 40
0.9687499999999999
 40
1.0
 40
1.0
 40
1.03125
 40
1.03125
 10
146.1810271416276
 20
112.4050266800319
 30
0.0
 10
146.5186868572022
 20
112.6866791774188
 30
0.0
 10
146.6982173837786
 20
112.8091171322786
 30
0.0
 10
147.0768427421403
 20
113.0205030637667
 30
0.0
 10
147.2775087115895
 20
113.1099245185499
 30
0.0
 10
147.691634668444
 20
113.2521303754517
 30
0.0
 10
147.9025869766986
 20
113.3043845520533
 30
0.0
 10
148.331961481696
 20
113.3727682155371
 30
0.0
 10
148.5524870381526
 20
113.3887553839884
 30
0.0
 10
148.988974642071
 20
113.382933724545
 30
0.0
 10
149.2049065983882
 20
113.3615875061732
 30
0.0
 10
149.6321732838738
 20
113.2822027222931
 30
0.0
 10
149.845530407438
 20
113.2232526082955
 30
0.0
 10
150.2534712674095
 20
113.0706958278054
 30
0.0
 10
150.4488291850981
 20
112.9773838147194
 30
0.0
 10
150.8218817274439
 20
112.755708919069
 30
0.0
 10
151.0012500127222
 20
112.6255934311986
 30
0.0
 10
151.326784406908
 20
112.3376739692387
 30
0.0
 10
151.4742704256127
 20
112.179629298472
 30
0.0
 10
151.7368703636193
 20
111.8335899760558
 30
0.0
 10
151.8523686165301
 20
111.6436297914912
 30
0.0
 10
152.0362330018052
 20
111.2504474455831
 30
0.0
 10
152.1064752043005
 20
111.0453966938939
 30
0.0
 10
152.2002705990865
 20
110.617049455901
 30
0.0
 10
152.2223892268731
 20
110.3975467610284
 30
0.0
 10
152.2161310872985
 20
109.9629378718377
 30
0.0
 10
152.1874163374859
 20
109.7427531650495
 30
0.0
 10
152.0817036289289
 20
109.3184508472919
 30
0.0
 10
152.0056163000623
 20
109.1145185485695
 30
0.0
 10
151.8086115703634
 20
108.722480415929
 30
0.0
 10
151.6890211901004
 20
108.537846731946
 30
0.0
 10
151.416747936811
 20
108.1983066082677
 30
0.0
 10
151.2614738325991
 20
108.0405561272573
 30
0.0
 10
150.9268005972349
 20
107.7603360678629
 30
0.0
 10
150.7475552148021
 20
107.6372510275633
 30
0.0
 10
150.366277043274
 20
107.4235328265198
 30
0.0
 10
150.1645183464061
 20
107.33358279548
 30
0.0
 10
149.7533335234089
 20
107.1918149510864
 30
0.0
 10
149.5421298377047
 20
107.1389285531592
 30
0.0
 10
149.1083844249873
 20
107.0694444218649
 30
0.0
 10
148.8897922118612
 20
107.0536590898991
 30
0.0
 10
148.2381746414315
 20
107.0616352227631
 30
0.0
 10
147.7989764538753
 20
107.1425650746816
 30
0.0
 10
146.9864378902771
 20
107.4456039313066
 30
0.0
 10
146.6013234597694
 20
107.6724584249031
 30
0.0
 10
146.1146871747222
 20
108.1022479289627
 30
0.0
 10
145.9649246702707
 20
108.2622588994668
 30
0.0
 10
145.6998667726724
 20
108.6119673933828
 30
0.0
 10
145.5873934289322
 20
108.7974445042237
 30
0.0
 10
145.4034889173169
 20
109.1902040506042
 30
0.0
 10
145.3315465120527
 20
109.4006803803242
 30
0.0
 10
145.238587179235
 20
109.8274320876746
 30
0.0
 10
145.2166480644207
 20
110.0436246112788
 30
0.0
 10
145.223070354435
 20
110.4817865354219
 30
0.0
 10
145.2521210635189
 20
110.7015970456342
 30
0.0
 10
145.357620908204
 20
111.124215474547
 30
0.0
 10
145.435367725808
 20
111.3320920094089
 30
0.0
 10
145.6323619592852
 20
111.722771404602
 30
0.0
 10
145.7507946942792
 20
111.9055849365942
 30
0.0
 10
146.0255142354166
 20
112.2475037199829
 30
0.0
 10
146.1810271416276
 20
112.4050266800319
 30
0.0
 10
146.5186868572022
 20
112.6866791774188
 30
0.0
  0
CIRCLE
  5
A0
330
1F
100
AcDbEntity
  8
0
  6
Continuous
 62
     7
370
    15
100
AcDbCircle
 10
148.7195543679
 20
110.2211080886
 30
0.0
 40
2.500000000000114
  0
LINE
  5
A1
330
1F
100
AcDbEntity
  8
0
  6
Continuous
 62
     7
370
    15
100
AcDbLine
 10
109.7538021158
 20
86.0014666266
 30
0.0
 11
109.7538021158
 21
134.4407495505
 31
0.0
  0
LINE
  5
A2
330
1F
100
AcDbEntity
  8
0
  6
Continuous
 62
     7
370
    15
100
AcDbLine
 10
89.9695541474
 20
86.9926620669
 30
0.0
 11
89.9695541474
 21
88.2573701835
 31
0.0
  0
SPLINE
  5
A3
330
1F
100
AcDbEntity
  8
0
  6
Continuous
 62
     7
370
    15
100
AcDbSpline
210
0.0
220
0.0
230
1.0
 70
     8
 71
     3
 72
    14
 73
    10
 74
     0
 42
0.00000001
 43
0.00000001
 40
0.0
 40
0.0
 40
0.0
 40
0.0
 40
0.25
 40
0.25
 40
0.5
 40
0.5
 40
0.75
 40
0.75
 40
1.0
 40
1.0
 40
1.0
 40
1.0
 10
89.19126725003075
 20
89.38795676501077
 30
0.0
 10
89.24789392523283
 20
89.28025931117391
 30
0.0
 10
89.34241658552256
 20
89.17746972945459
 30
0.0
 10
89.52546156108482
 20
88.97911241723443
 30
0.0
 10
89.61708813803952
 20
88.8830529085562
 30
0.0
 10
89.77594145573272
 20
88.69552386584694
 30
0.0
 10
89.84383206335441
 20
88.60411489306338
 30
0.0
 10
89.94074908906201
 20
88.42573867215323
 30
0.0
 10
89.96955436794707
 20
88.33851676590706
 30
0.0
 10
89.96955436794705
 20
88.25737055737281
 30
0.0
  0
SPLINE
  5
A4
330
1F
100
AcDbEntity
  8
0
  6
Continuous
 62
     7
370
    15
100
AcDbSpline
210
0.0
220
0.0
230
1.0
 70
     8
 71
     3
 72
    14
 73
    10
 74
     0
 42
0.00000001
 43
0.00000001
 40
0.0
 40
0.0
 40
0.0
 40
0.0
 40
0.1250000000000006
 40
0.1250000000000006
 40
0.2500000000000012
 40
0.2500000000000012
 40
0.4999999999999997
 40
0.4999999999999997
 40
1.0
 40
1.0
 40
1.0
 40
1.0
 10
88.56955436794648
 20
89.83463862729006
 30
0.0
 10
88.61809877660365
 20
89.84038694057035
 30
0.0
 10
88.67101413138855
 20
89.8372860519141
 30
0.0
 10
88.76630947637159
 20
89.81509120775178
 30
0.0
 10
88.80656047365655
 20
89.79785898065593
 30
0.0
 10
88.91083048716952
 20
89.74153106420388
 30
0.0
 10
88.96115246232283
 20
89.69734471825808
 30
0.0
 10
89.08883540984822
 20
89.56633681940745
 30
0.0
 10
89.14492085691047
 20
89.47610229917717
 30
0.0
 10
89.19126725003221
 20
89.3879567650113
 30
0.0
  0
SPLINE
  5
A5
330
1F
100
AcDbEntity
  8
0
  6
Continuous
 62
     7
370
    15
100
AcDbSpline
210
0.0
220
0.0
230
1.0
 70
     8
 71
     3
 72
     8
 73
     4
 74
     0
 42
0.00000001
 43
0.00000001
 40
0.0
 40
0.0
 40
0.0
 40
0.0
 40
1.0
 40
1.0
 40
1.0
 40
1.0
 10
86.30102927500037
 20
89.52479334070729
 30
0.0
 10
87.0356063014833
 20
89.64341835177623
 30
0.0
 10
87.79908137087891
 20
89.7434042239125
 30
0.0
 10
88.56955436794648
 20
89.83463862729006
 30
0.0
  0
SPLINE
  5
A6
330
1F
100
AcDbEntity
  8
0
  6
Continuous
 62
     7
370
    15
100
AcDbSpline
210
0.0
220
0.0
230
1.0
 70
     8
 71
     3
 72
    14
 73
    10
 74
     0
 42
0.00000001
 43
0.00000001
 40
0.0
 40
0.0
 40
0.0
 40
0.0
 40
0.5
 40
0.5
 40
0.75
 40
0.75
 40
0.875
 40
0.875
 40
1.0
 40
1.0
 40
1.0
 40
1.0
 10
81.01955436794647
 20
89.35117032317564
 30
0.0
 10
81.91170049850008
 20
89.350448096975
 30
0.0
 10
82.8016769342937
 20
89.35503430343245
 30
0.0
 10
84.12827210136932
 20
89.38275930782397
 30
0.0
 10
84.56911902986808
 20
89.39536584544815
 30
0.0
 10
85.2255592672905
 20
89.4263819934556
 30
0.0
 10
85.44357292388239
 20
89.43872516608238
 30
0.0
 10
85.87628177756518
 20
89.47174922124564
 30
0.0
 10
86.09155824272996
 20
89.4909663863841
 30
0.0
 10
86.30102927500037
 20
89.52479334070728
 30
0.0
  0
SPLINE
  5
A7
330
1F
100
AcDbEntity
  8
0
  6
Continuous
 62
     7
370
    15
100
AcDbSpline
210
0.0
220
0.0
230
1.0
 70
     8
 71
     3
 72
     8
 73
     4
 74
     0
 42
0.00000001
 43
0.00000001
 40
0.0000005163856711
 40
0.0000005163856711
 40
0.0000005163856711
 40
0.0000005163856711
 40
0.000026289209185
 40
0.000026289209185
 40
0.000026289209185
 40
0.000026289209185
 10
81.00950943752778
 20
89.36115419628352
 30
0.0
 10
81.01283717573926
 20
89.3578199494107
 30
0.0
 10
81.01618562871856
 20
89.35449199213167
 30
0.0
 10
81.01955436794645
 20
89.35117032317564
 30
0.0
  0
SPLINE
  5
A8
330
1F
100
AcDbEntity
  8
0
  6
Continuous
 62
     7
370
    15
100
AcDbSpline
210
0.0
220
0.0
230
1.0
 70
     8
 71
     3
 72
     8
 73
     4
 74
     0
 42
0.00000001
 43
0.00000001
 40
0.0000005099763573
 40
0.0000005099763573
 40
0.0000005099763573
 40
0.0000005099763573
 40
0.0000262827998699
 40
0.0000262827998699
 40
0.0000262827998699
 40
0.0000262827998699
 10
81.01955436794645
 20
131.0910458539658
 30
0.0
 10
81.01618562871872
 20
131.0877241850099
 30
0.0
 10
81.01283717573959
 20
131.084396227731
 30
0.0
 10
81.00950943752827
 20
131.0810619808584
 30
0.0
  0
SPLINE
  5
A9
330
1F
100
AcDbEntity
  8
0
  6
Continuous
 62
     7
370
    15
100
AcDbSpline
210
0.0
220
0.0
230
1.0
 70
     8
 71
     3
 72
    10
 73
     6
 74
     0
 42
0.00000001
 43
0.00000001
 40
0.0
 40
0.0
 40
0.0
 40
0.0
 40
0.5
 40
0.5
 40
1.0
 40
1.0
 40
1.0
 40
1.0
 10
84.56955436794648
 20
131.0441954803985
 30
0.0
 10
83.98196882085588
 20
131.0652610006349
 30
0.0
 10
83.3912224273955
 20
131.0760194865071
 30
0.0
 10
82.20720326209664
 20
131.0893842670428
 30
0.0
 10
81.61378927389119
 20
131.0915269097073
 30
0.0
 10
81.01955436794647
 20
131.0910458539658
 30
0.0
  0
SPLINE
  5
AA
330
1F
100
AcDbEntity
  8
0
  6
Continuous
 62
     7
370
    15
100
AcDbSpline
210
0.0
220
0.0
230
1.0
 70
     8
 71
     3
 72
    18
 73
    14
 74
     0
 42
0.00000001
 43
0.00000001
 40
0.0
 40
0.0
 40
0.0
 40
0.0
 40
0.2500000000000001
 40
0.2500000000000001
 40
0.5000000000000002
 40
0.5000000000000002
 40
0.7500000000000003
 40
0.7500000000000003
 40
0.8750000000000002
 40
0.8750000000000002
 40
0.9375000000000002
 40
0.9375000000000002
 40
1.0
 40
1.0
 40
1.0
 40
1.0
 10
85.9695543679465
 20
132.0652157609337
 30
0.0
 10
85.9695543679465
 20
131.9820088520765
 30
0.0
 10
85.93370526800823
 20
131.893272196763
 30
0.0
 10
85.80883353197432
 20
131.7111470062027
 30
0.0
 10
85.71843311432644
 20
131.6160169575761
 30
0.0
 10
85.49619045958426
 20
131.4268354484517
 30
0.0
 10
85.36642567313848
 20
131.331890280357
 30
0.0
 10
85.12578821582697
 20
131.1936115727771
 30
0.0
 10
85.03802091768954
 20
131.1479011394747
 30
0.0
 10
84.88349683048271
 20
131.0900778342532
 30
0.0
 10
84.82688594442797
 20
131.0723630702154
 30
0.0
 10
84.70284191352137
 20
131.0478237669824
 30
0.0
 10
84.63512723850309
 20
131.0418446284442
 30
0.0
 10
84.56955436794648
 20
131.0441954803985
 30
0.0
  0
LINE
  5
AB
330
1F
100
AcDbEntity
  8
0
  6
Continuous
 62
     7
370
    15
100
AcDbLine
 10
85.9695534918
 20
132.0652157462
 30
0.0
 11
85.9695534918
 21
133.2491539813
 31
0.0
  0
SPLINE
  5
AC
330
1F
100
AcDbEntity
  8
0
  6
Continuous
 62
     7
370
    15
100
AcDbSpline
210
0.0
220
0.0
230
1.0
 70
     8
 71
     3
 72
    24
 73
    20
 74
     0
 42
0.00000001
 43
0.00000001
 40
0.0
 40
0.0
 40
0.0
 40
0.0
 40
0.0010474946484145
 40
0.0637828302210544
 40
0.1272205601866136
 40
0.1903774069572205
 40
0.2526733841119108
 40
0.3146339307651862
 40
0.3770877234832252
 40
0.43935254648919
 40
0.5008118111387415
 40
0.5621830237964962
 40
0.6248423710394803
 40
0.6874289926025918
 40
0.749672828898432
 40
0.8119833266636509
 40
0.8750945389418483
 40
0.9384397350920767
 40
1.0
 40
1.0
 40
1.0
 40
1.0
 10
98.5384594413508
 20
86.56359989412414
 30
0.0
 10
98.53801341563415
 20
86.56354125092705
 30
0.0
 10
98.5108545345824
 20
86.55997041733005
 30
0.0
 10
98.60648132094904
 20
86.57284202377004
 30
0.0
 10
98.8400288378929
 20
86.60207446117252
 30
0.0
 10
99.23558283790776
 20
86.64869117797124
 30
0.0
 10
99.76261966154233
 20
86.69887282692679
 30
0.0
 10
100.4061473816206
 20
86.74325050931846
 30
0.0
 10
101.1448189778431
 20
86.77019688544195
 30
0.0
 10
101.9423322337991
 20
86.77366801690873
 30
0.0
 10
102.7689104593638
 20
86.74604188986767
 30
0.0
 10
103.5944338290986
 20
86.68756400120218
 30
0.0
 10
104.3865618266865
 20
86.60211997922329
 30
0.0
 10
105.1191355292026
 20
86.50038538277197
 30
0.0
 10
105.7547780292524
 20
86.39254032406193
 30
0.0
 10
106.2766921463538
 20
86.29091405530987
 30
0.0
 10
106.6583239776736
 20
86.20842384973704
 30
0.0
 10
106.9091439086846
 20
86.1522769532519
 30
0.0
 10
106.9382681873057
 20
86.1454261975559
 30
0.0
 10
106.9526222298909
 20
86.14204976924049
 30
0.0
  0
SPLINE
  5
AD
330
1F
100
AcDbEntity
  8
0
  6
Continuous
 62
     7
370
    15
100
AcDbSpline
210
0.0
220
0.0
230
1.0
 70
     8
 71
     3
 72
    24
 73
    20
 74
     0
 42
0.00000001
 43
0.00000001
 40
0.0
 40
0.0
 40
0.0
 40
0.0
 40
0.0614395567802912
 40
0.1250751646000355
 40
0.1884268427600819
 40
0.250863885672057
 40
0.3129680353790015
 40
0.3753466426708132
 40
0.437734357290371
 40
0.4990941856795054
 40
0.5605822336536734
 40
0.6229484522722939
 40
0.6854700845150782
 40
0.7475492542958225
 40
0.8098240021919649
 40
0.8730699221640257
 40
0.9364057005206594
 40
0.9991772378074806
 40
1.0
 40
1.0
 40
1.0
 40
1.0
 10
106.952567281859
 20
134.3001366055786
 30
0.0
 10
106.9379646283199
 20
134.2967687037099
 30
0.0
 10
106.9082373745648
 20
134.2899125201265
 30
0.0
 10
106.6554973517053
 20
134.2335715718897
 30
0.0
 10
106.2724967003363
 20
134.1507143952244
 30
0.0
 10
105.750138054594
 20
134.0488073873622
 30
0.0
 10
105.1153513359999
 20
133.9409689018828
 30
0.0
 10
104.3851259096011
 20
133.8395025975207
 30
0.0
 10
103.5946566864013
 20
133.7544407557181
 30
0.0
 10
102.7701728280711
 20
133.6962384334287
 30
0.0
 10
101.9431368884085
 20
133.6686575543139
 30
0.0
 10
101.144813903896
 20
133.6721494467841
 30
0.0
 10
100.4049921711077
 20
133.6991076376792
 30
0.0
 10
99.76074008542768
 20
133.7434582017726
 30
0.0
 10
99.2333360242152
 20
133.7936675162958
 30
0.0
 10
98.83867453266987
 20
133.8402745315362
 30
0.0
 10
98.60615010282311
 20
133.869475307854
 30
0.0
 10
98.5107730641931
 20
133.8822399862968
 30
0.0
 10
98.53770586824396
 20
133.8786938270305
 30
0.0
 10
98.53805431603084
 20
133.8786479479848
 30
0.0
  0
SPLINE
  5
AE
330
1F
100
AcDbEntity
  8
0
  6
Continuous
 62
     7
370
    15
100
AcDbSpline
210
0.0
220
0.0
230
1.0
 70
     8
 71
     3
 72
     9
 73
     5
 74
     0
 42
0.00000001
 43
0.00000001
 40
0.0
 40
0.0
 40
0.0
 40
0.0
 40
0.7009339503679092
 40
0.9999999999999999
 40
0.9999999999999999
 40
0.9999999999999999
 40
0.9999999999999999
 10
79.89033793537507
 20
90.5198283887683
 30
0.0
 10
79.8994786063249
 20
90.5019991050074
 30
0.0
 10
79.91251930858371
 20
90.4765626373466
 30
0.0
 10
79.927682771852
 20
90.53044199682016
 30
0.0
 10
79.93221764891038
 20
90.54655548401462
 30
0.0
  0
LINE
  5
AF
330
1F
100
AcDbEntity
  8
0
  6
Continuous
 62
     7
370
    15
100
AcDbLine
 10
79.8695545408
 20
90.530430565
 30
0.0
 11
79.8695545408
 21
129.9117856122
 31
0.0
  0
SPLINE
  5
B0
330
1F
100
AcDbEntity
  8
0
  6
Continuous
 62
     7
370
    15
100
AcDbSpline
210
0.0
220
0.0
230
1.0
 70
     8
 71
     3
 72
    10
 73
     6
 74
     0
 42
0.00000001
 43
0.00000001
 40
0.0
 40
0.0
 40
0.0
 40
0.0
 40
0.5
 40
0.5
 40
1.0
 40
1.0
 40
1.0
 40
1.0
 10
79.93221774266989
 20
129.8956606333514
 30
0.0
 10
79.92331345356114
 20
129.9414021525646
 30
0.0
 10
79.90679807336815
 20
129.9585929920336
 30
0.0
 10
79.87969012730653
 20
129.9582697150979
 30
0.0
 10
79.86955436794649
 20
129.9403921728015
 30
0.0
 10
79.86955436794649
 20
129.9117858350489
 30
0.0
  0
SPLINE
  5
B1
330
1F
100
AcDbEntity
  8
0
  6
Continuous
 62
     7
370
    15
100
AcDbSpline
210
0.0
220
0.0
230
1.0
 70
     8
 71
     3
 72
    26
 73
    22
 74
     0
 42
0.00000001
 43
0.00000001
 40
0.0
 40
0.0
 40
0.0
 40
0.0
 40
0.2500000000000115
 40
0.2500000000000115
 40
0.3750000000000181
 40
0.3750000000000181
 40
0.4375000000000201
 40
0.4375000000000201
 40
0.4687500000000187
 40
0.4687500000000187
 40
0.5000000000000172
 40
0.5000000000000172
 40
0.5312500000000158
 40
0.5312500000000158
 40
0.5625000000000143
 40
0.5625000000000143
 40
0.625000000000013
 40
0.625000000000013
 40
0.7500000000000084
 40
0.7500000000000084
 40
1.0
 40
1.0
 40
1.0
 40
1.0
 10
80.69370801405098
 20
130.6112274221685
 30
0.0
 10
80.65510749118252
 20
130.4934527258131
 30
0.0
 10
80.60881048862827
 20
130.3690630396512
 30
0.0
 10
80.51487114019434
 20
130.1638437072977
 30
0.0
 10
80.47955967328086
 20
130.0922708408512
 30
0.0
 10
80.41337969753518
 20
129.9763176082508
 30
0.0
 10
80.38884133086695
 20
129.9357330734405
 30
0.0
 10
80.34546858531314
 20
129.8715913915688
 30
0.0
 10
80.32996018388798
 20
129.8497249662838
 30
0.0
 10
80.29491753930095
 20
129.8041306979406
 30
0.0
 10
80.27536724858118
 20
129.7804604069732
 30
0.0
 10
80.23343996821055
 20
129.7358438476332
 30
0.0
 10
80.21078785797891
 20
129.7149638351153
 30
0.0
 10
80.16981414389227
 20
129.6840904213645
 30
0.0
 10
80.15221484399687
 20
129.6742515515321
 30
0.0
 10
80.10758785814073
 20
129.6552619358359
 30
0.0
 10
80.08702863548741
 20
129.6549376111825
 30
0.0
 10
80.03590319599074
 20
129.6641610520587
 30
0.0
 10
80.01499178300223
 20
129.6854079482757
 30
0.0
 10
79.96354187544128
 20
129.7593768271064
 30
0.0
 10
79.94587657613673
 20
129.8254949204212
 30
0.0
 10
79.93221774266989
 20
129.8956606333514
 30
0.0
  0
SPLINE
  5
B2
330
1F
100
AcDbEntity
  8
0
  6
Continuous
 62
     7
370
    15
100
AcDbSpline
210
0.0
220
0.0
230
1.0
 70
     8
 71
     3
 72
    10
 73
     6
 74
     0
 42
0.00000001
 43
0.00000001
 40
0.0
 40
0.0
 40
0.0
 40
0.0
 40
0.5
 40
0.5
 40
1.0
 40
1.0
 40
1.0
 40
1.0
 10
81.0095094375283
 20
131.0810619808584
 30
0.0
 10
80.94195018261006
 20
131.0133705880486
 30
0.0
 10
80.87831352727353
 20
130.938663423295
 30
0.0
 10
80.76809277270166
 20
130.7796972908683
 30
0.0
 10
80.72127647947906
 20
130.6953420248603
 30
0.0
 10
80.69370801405098
 20
130.6112274221686
 30
0.0
  0
SPLINE
  5
B3
330
1F
100
AcDbEntity
  8
0
  6
Continuous
 62
     7
370
    15
100
AcDbSpline
210
0.0
220
0.0
230
1.0
 70
     8
 71
     3
 72
    10
 73
     6
 74
     0
 42
0.00000001
 43
0.00000001
 40
0.0
 40
0.0
 40
0.0
 40
0.0
 40
0.5
 40
0.5
 40
1.0
 40
1.0
 40
1.0
 40
1.0
 10
80.69370801405101
 20
89.83098875497275
 30
0.0
 10
80.72118542880423
 20
89.74715195850716
 30
0.0
 10
80.76789405909187
 20
89.66284147092033
 30
0.0
 10
80.87817252183383
 20
89.50372024043746
 30
0.0
 10
80.94206006044548
 20
89.42873549634939
 30
0.0
 10
81.0095094375278
 20
89.36115419628352
 30
0.0
  0
SPLINE
  5
B4
330
1F
100
AcDbEntity
  8
0
  6
Continuous
 62
     7
370
    15
100
AcDbSpline
210
0.0
220
0.0
230
1.0
 70
     8
 71
     3
 72
    24
 73
    20
 74
     0
 42
0.00000001
 43
0.00000001
 40
0.0
 40
0.0
 40
0.0
 40
0.0
 40
0.24999999999998
 40
0.24999999999998
 40
0.3749999999999705
 40
0.3749999999999705
 40
0.4374999999999656
 40
0.4374999999999656
 40
0.4687499999999649
 40
0.4687499999999649
 40
0.4999999999999643
 40
0.4999999999999643
 40
0.5624999999999676
 40
0.5624999999999676
 40
0.6249999999999709
 40
0.6249999999999709
 40
0.7499999999999798
 40
0.7499999999999798
 40
1.0
 40
1.0
 40
1.0
 40
1.0
 10
79.93221774266989
 20
90.54655554378996
 30
0.0
 10
79.9459708613401
 20
90.61720560178023
 30
0.0
 10
79.96374342874596
 20
90.68380371454515
 30
0.0
 10
80.01599452030135
 20
90.75790173477836
 30
0.0
 10
80.0370295958829
 20
90.7791595419399
 30
0.0
 10
80.08993000351131
 20
90.78730546808615
 30
0.0
 10
80.11103567638922
 20
90.7863656646904
 30
0.0
 10
80.1570878450672
 20
90.76534967311306
 30
0.0
 10
80.17545831705056
 20
90.75444086700546
 30
0.0
 10
80.21700995211626
 20
90.72180595605809
 30
0.0
 10
80.23957662487318
 20
90.70031397568674
 30
0.0
 10
80.30235764133323
 20
90.63184803210044
 30
0.0
 10
80.3354874023011
 20
90.58577357389532
 30
0.0
 10
80.39240508878612
 20
90.50076568556065
 30
0.0
 10
80.41659111428987
 20
90.46048538437925
 30
0.0
 10
80.48179906466966
 20
90.34554915791333
 30
0.0
 10
80.51651512486092
 20
90.27496617276631
 30
0.0
 10
80.6097303951918
 20
90.0707604136877
 30
0.0
 10
80.65540293055248
 20
89.94786203136033
 30
0.0
 10
80.69370801405101
 20
89.83098875497275
 30
0.0
  0
SPLINE
  5
B5
330
1F
100
AcDbEntity
  8
0
  6
Continuous
 62
     7
370
    15
100
AcDbSpline
210
0.0
220
0.0
230
1.0
 70
     8
 71
     3
 72
     8
 73
     4
 74
     0
 42
0.00000001
 43
0.00000001
 40
0.0
 40
0.0
 40
0.0
 40
0.0
 40
1.0
 40
1.0
 40
1.0
 40
1.0
 10
127.8595543679465
 20
138.0263422797423
 30
0.0
 10
127.3668442711007
 20
138.9143612778687
 30
0.0
 10
126.8727615658217
 20
139.8016239135547
 30
0.0
 10
126.3776215364574
 20
140.688303561735
 30
0.0
  0
LINE
  5
B6
330
1F
100
AcDbEntity
  8
0
  6
Continuous
 62
     7
370
    15
100
AcDbLine
 10
127.8595544162
 20
131.2712520755
 30
0.0
 11
127.8595544162
 21
138.0263414628
 31
0.0
  0
SPLINE
  5
B7
330
1F
100
AcDbEntity
  8
0
  6
Continuous
 62
     7
370
    15
100
AcDbSpline
210
0.0
220
0.0
230
1.0
 70
     8
 71
     3
 72
     8
 73
     4
 74
     0
 42
0.00000001
 43
0.00000001
 40
0.0
 40
0.0
 40
0.0
 40
0.0
 40
1.0
 40
1.0
 40
1.0
 40
1.0
 10
126.3776215364574
 20
134.6797977509381
 30
0.0
 10
126.8847083782167
 20
133.5486473967745
 30
0.0
 10
127.3802762173567
 20
132.4122629860067
 30
0.0
 10
127.8595543679465
 20
131.2712517561541
 30
0.0
  0
LINE
  5
B8
330
1F
100
AcDbEntity
  8
0
  6
Continuous
 62
     7
370
    15
100
AcDbLine
 10
131.6795546326
 20
130.3569745667
 30
0.0
 11
131.6795546326
 21
131.2712520755
 31
0.0
  0
SPLINE
  5
B9
330
1F
100
AcDbEntity
  8
0
  6
Continuous
 62
     7
370
    15
100
AcDbSpline
210
0.0
220
0.0
230
1.0
 70
     8
 71
     3
 72
     8
 73
     4
 74
     0
 42
0.00000001
 43
0.00000001
 40
0.0
 40
0.0
 40
0.0
 40
0.0
 40
1.0
 40
1.0
 40
1.0
 40
1.0
 10
131.6795543679465
 20
131.2712517561541
 30
0.0
 10
132.1588325185363
 20
132.4122629860067
 30
0.0
 10
132.6544003576763
 20
133.5486473967745
 30
0.0
 10
133.1614871994356
 20
134.6797977509381
 30
0.0
  0
LINE
  5
BA
330
1F
100
AcDbEntity
  8
0
  6
Continuous
 62
     7
370
    15
100
AcDbLine
 10
133.1614862892
 20
134.6797977037
 30
0.0
 11
137.1195550772
 21
134.6797977037
 31
0.0
  0
SPLINE
  5
BB
330
1F
100
AcDbEntity
  8
0
  6
Continuous
 62
     7
370
    15
100
AcDbSpline
210
0.0
220
0.0
230
1.0
 70
     8
 71
     3
 72
    12
 73
     8
 74
     0
 42
0.00000001
 43
0.00000001
 40
0.0
 40
0.0
 40
0.0
 40
0.0
 40
0.2499999999999987
 40
0.2499999999999987
 40
0.4999999999999973
 40
0.4999999999999973
 40
1.0
 40
1.0
 40
1.0
 40
1.0
 10
137.1195543679465
 20
134.6797977509381
 30
0.0
 10
137.2107540897722
 20
134.6797977509381
 30
0.0
 10
137.3013490989082
 20
134.6515780523503
 30
0.0
 10
137.4547618253548
 20
134.5571350451022
 30
0.0
 10
137.5199706926785
 20
134.4908480683968
 30
0.0
 10
137.6727552220184
 20
134.2652232451085
 30
0.0
 10
137.7195543679465
 20
134.082796982076
 30
0.0
 10
137.7195543679465
 20
133.9020603498291
 30
0.0
  0
LINE
  5
BC
330
1F
100
AcDbEntity
  8
0
  6
Continuous
 62
     7
370
    15
100
AcDbLine
 10
137.719554058
 20
133.9020595349
 30
0.0
 11
137.719554058
 21
130.0711088277
 31
0.0
  0
LINE
  5
BD
330
1F
100
AcDbEntity
  8
0
  6
Continuous
 62
     7
370
    15
100
AcDbLine
 10
137.1195550772
 20
140.6883035249
 30
0.0
 11
133.1614862892
 21
140.6883035249
 31
0.0
  0
LINE
  5
BE
330
1F
100
AcDbEntity
  8
0
  6
Continuous
 62
     7
370
    15
100
AcDbLine
 10
133.1614862892
 20
134.6797977037
 30
0.0
 11
133.1614862892
 21
140.6883035249
 31
0.0
  0
SPLINE
  5
BF
330
1F
100
AcDbEntity
  8
0
  6
Continuous
 62
     7
370
    15
100
AcDbSpline
210
0.0
220
0.0
230
1.0
 70
     8
 71
     3
 72
     8
 73
     4
 74
     0
 42
0.00000001
 43
0.00000001
 40
0.0
 40
0.0
 40
0.0
 40
0.0
 40
1.0
 40
1.0
 40
1.0
 40
1.0
 10
133.1614871994356
 20
140.688303561735
 30
0.0
 10
132.6663471700712
 20
139.8016239135547
 30
0.0
 10
132.1722644647922
 20
138.9143612778687
 30
0.0
 10
131.6795543679465
 20
138.0263422797423
 30
0.0
  0
LINE
  5
C0
330
1F
100
AcDbEntity
  8
0
  6
Continuous
 62
     7
370
    15
100
AcDbLine
 10
131.6795546326
 20
131.2712520755
 30
0.0
 11
131.6795546326
 21
138.0263414628
 31
0.0
  0
SPLINE
  5
C1
330
1F
100
AcDbEntity
  8
0
  6
Continuous
 62
     7
370
    15
100
AcDbSpline
210
0.0
220
0.0
230
1.0
 70
     8
 71
     3
 72
    10
 73
     6
 74
     0
 42
0.00000001
 43
0.00000001
 40
0.0
 40
0.0
 40
0.0
 40
0.0
 40
0.5
 40
0.5
 40
1.0
 40
1.0
 40
1.0
 40
1.0
 10
137.7195543679465
 20
140.0675484123346
 30
0.0
 10
137.7195543679465
 20
140.2279536786854
 30
0.0
 10
137.6573165368396
 20
140.387015491674
 30
0.0
 10
137.4381816130971
 20
140.6179279573043
 30
0.0
 10
137.2805929181052
 20
140.688303561735
 30
0.0
 10
137.1195543679465
 20
140.688303561735
 30
0.0
  0
LINE
  5
C2
330
1F
100
AcDbEntity
  8
0
  6
Continuous
 62
     7
370
    15
100
AcDbLine
 10
137.719554058
 20
133.9020595349
 30
0.0
 11
137.719554058
 21
140.0675490893
 31
0.0
  0
LINE
  5
C3
330
1F
100
AcDbEntity
  8
0
  6
Continuous
 62
     7
370
    15
100
AcDbLine
 10
127.8595544162
 20
131.2712520755
 30
0.0
 11
127.8595544162
 21
130.3569745667
 31
0.0
  0
ARC
  5
C4
330
1F
100
AcDbEntity
  8
0
  6
Continuous
 62
     7
370
    15
100
AcDbCircle
 10
119.7693966094
 20
128.9267180583
 30
0.0
 40
7.249467001132782
100
AcDbArc
 50
70.8913427349
 51
109.0637266309
  0
LINE
  5
C5
330
1F
100
AcDbEntity
  8
0
  6
Continuous
 62
     7
370
    15
100
AcDbLine
 10
196.6398406538
 20
136.5273051358
 30
0.0
 11
207.5260329756
 21
136.5273051358
 31
0.0
  0
LINE
  5
C6
330
1F
100
AcDbEntity
  8
0
  6
Continuous
 62
     7
370
    15
100
AcDbLine
 10
207.5260329756
 20
115.1892749056
 30
0.0
 11
207.5260329756
 21
136.5273051358
 31
0.0
  0
LINE
  5
C7
330
1F
100
AcDbEntity
  8
0
  6
Continuous
 62
     7
370
    15
100
AcDbLine
 10
196.6398406538
 20
115.1892749056
 30
0.0
 11
207.5260329756
 21
115.1892749056
 31
0.0
  0
SPLINE
  5
C8
330
1F
100
AcDbEntity
  8
0
  6
Continuous
 62
     7
370
    15
100
AcDbSpline
210
0.0
220
0.0
230
1.0
 70
     8
 71
     3
 72
    18
 73
    14
 74
     0
 42
0.00000001
 43
0.00000001
 40
0.0
 40
0.0
 40
0.0
 40
0.0
 40
0.0823395948775964
 40
0.1971286929022878
 40
0.3099452073520583
 40
0.4180296723469234
 40
0.5204026928467747
 40
0.5325622659712734
 40
0.6297980546350523
 40
0.7297584473288306
 40
0.8340300546713522
 40
0.9435577933656912
 40
1.0
 40
1.0
 40
1.0
 40
1.0
 10
196.6398406538237
 20
115.1892749055503
 30
0.0
 10
196.3486032513046
 20
115.1687833744159
 30
0.0
 10
195.6513536647818
 20
115.119724731923
 30
0.0
 10
194.6273607710047
 20
114.6620119778139
 30
0.0
 10
193.7481578788325
 20
113.843246621244
 30
0.0
 10
193.2309084764333
 20
112.8031723086462
 30
0.0
 10
193.147482235206
 20
112.0048540367659
 30
0.0
 10
193.2152204629306
 20
111.261286876519
 30
0.0
 10
193.4209606226364
 20
110.5356867925561
 30
0.0
 10
194.0348478954665
 20
109.6434365009559
 30
0.0
 10
194.9330020430993
 20
108.9675915610535
 30
0.0
 10
195.8542418970197
 20
108.6448300274481
 30
0.0
 10
196.4404768736892
 20
108.6157299463909
 30
0.0
 10
196.6398406538237
 20
108.6058337402745
 30
0.0
  0
LINE
  5
C9
330
1F
100
AcDbEntity
  8
0
  6
Continuous
 62
     7
370
    15
100
AcDbLine
 10
196.6398406538
 20
108.6058337403
 30
0.0
 11
207.5260329756
 21
108.6058337403
 31
0.0
  0
LINE
  5
CA
330
1F
100
AcDbEntity
  8
0
  6
Continuous
 62
     7
370
    15
100
AcDbLine
 10
207.5260329756
 20
85.8983859814
 30
0.0
 11
207.5260329756
 21
108.6058337403
 31
0.0
  0
LINE
  5
CB
330
1F
100
AcDbEntity
  8
0
  6
Continuous
 62
     7
370
    15
100
AcDbLine
 10
196.6398406538
 20
85.8983859814
 30
0.0
 11
207.5260329756
 21
85.8983859814
 31
0.0
  0
SPLINE
  5
CC
330
1F
100
AcDbEntity
  8
0
  6
Continuous
 62
     7
370
    15
100
AcDbSpline
210
0.0
220
0.0
230
1.0
 70
     8
 71
     3
 72
    18
 73
    14
 74
     0
 42
0.00000001
 43
0.00000001
 40
0.0
 40
0.0
 40
0.0
 40
0.0
 40
0.0823395679521132
 40
0.1971285972954654
 40
0.3099450848892899
 40
0.4180295671653904
 40
0.5204025856143046
 40
0.5326712176537538
 40
0.6299065726178186
 40
0.7298698579387396
 40
0.834147708601275
 40
0.9436807704171657
 40
1.0
 40
1.0
 40
1.0
 40
1.0
 10
196.6398406538237
 20
82.29963634379493
 30
0.0
 10
196.3486032836456
 20
82.30905150801514
 30
0.0
 10
195.6513538847101
 20
82.33159228837383
 30
0.0
 10
194.627360296625
 20
82.54418954965743
 30
0.0
 10
193.7481585878192
 20
82.9396539060724
 30
0.0
 10
193.2309055848505
 20
83.46860504106827
 30
0.0
 10
193.1474478898132
 20
83.89827877093127
 30
0.0
 10
193.215346011478
 20
84.31040095870397
 30
0.0
 10
193.4214775219172
 20
84.72380029096654
 30
0.0
 10
194.0356802486987
 20
85.2546187788621
 30
0.0
 10
194.9341235385236
 20
85.67067545094186
 30
0.0
 10
195.8550953431019
 20
85.87382277823296
 30
0.0
 10
196.4409121362382
 20
85.89215934770473
 30
0.0
 10
196.6398406538237
 20
85.89838598139869
 30
0.0
  0
LINE
  5
CD
330
1F
100
AcDbEntity
  8
0
  6
Continuous
 62
     7
370
    15
100
AcDbLine
 10
196.6398406538
 20
82.2996363438
 30
0.0
 11
207.5260329756
 21
82.2996363438
 31
0.0
  0
LINE
  5
CE
330
1F
100
AcDbEntity
  8
0
  6
Continuous
 62
     7
370
    15
100
AcDbLine
 10
207.5260329756
 20
78.8711063958
 30
0.0
 11
207.5260329756
 21
82.2996363438
 31
0.0
  0
LINE
  5
CF
330
1F
100
AcDbEntity
  8
0
  6
Continuous
 62
     7
370
    15
100
AcDbLine
 10
207.5260329756
 20
139.5119984097
 30
0.0
 11
207.5260329756
 21
141.5711097813
 31
0.0
  0
LINE
  5
D0
330
1F
100
AcDbEntity
  8
0
  6
Continuous
 62
     7
370
    15
100
AcDbLine
 10
196.6398406538
 20
139.5119984097
 30
0.0
 11
207.5260329756
 21
139.5119984097
 31
0.0
  0
SPLINE
  5
D1
330
1F
100
AcDbEntity
  8
0
  6
Continuous
 62
     7
370
    15
100
AcDbSpline
210
0.0
220
0.0
230
1.0
 70
     8
 71
     3
 72
    18
 73
    14
 74
     0
 42
0.00000001
 43
0.00000001
 40
0.0
 40
0.0
 40
0.0
 40
0.0
 40
0.0823385118003372
 40
0.1971260989156118
 40
0.3099411431380811
 40
0.4180242485265069
 40
0.5203958741385152
 40
0.537161415475576
 40
0.6343759840275972
 40
0.734480127869953
 40
0.8389931032724127
 40
0.9487437950710503
 40
1.0
 40
1.0
 40
1.0
 40
1.0
 10
196.6398406538237
 20
136.5273051358043
 30
0.0
 10
196.3486033283204
 20
136.5386194151149
 30
0.0
 10
195.651353929712
 20
136.5657068580839
 30
0.0
 10
194.6273592012079
 20
136.815823149382
 30
0.0
 10
193.748163074739
 20
137.2460513682129
 30
0.0
 10
193.230889950793
 20
137.762462846502
 30
0.0
 10
193.1457988501404
 20
138.1398296515742
 30
0.0
 10
193.2209444510421
 20
138.4771802069175
 30
0.0
 10
193.4426743904379
 20
138.7918787936224
 30
0.0
 10
194.0705763869488
 20
139.143110461105
 30
0.0
 10
194.9804189682303
 20
139.3914279092907
 30
0.0
 10
195.8902322655871
 20
139.4998677328557
 30
0.0
 10
196.4588290655445
 20
139.5090691560879
 30
0.0
 10
196.6398406538237
 20
139.5119984097063
 30
0.0
  0
LINE
  5
D2
330
1F
100
AcDbEntity
  8
0
  6
Continuous
 62
     7
370
    15
100
AcDbLine
 10
187.0695549759
 20
78.8711063958
 30
0.0
 11
187.0695549759
 21
141.5711097813
 31
0.0
  0
LINE
  5
D3
330
1F
100
AcDbEntity
  8
0
  6
Continuous
 62
     7
370
    15
100
AcDbLine
 10
186.2695563349
 20
79.6711087621
 30
0.0
 11
186.2695563349
 21
140.771107415
 31
0.0
  0
LINE
  5
D4
330
1F
100
AcDbEntity
  8
0
  6
Continuous
 62
     7
370
    15
100
AcDbLine
 10
207.5260329756
 20
82.2996363438
 30
0.0
 11
207.7952671561
 21
82.8893870509
 31
0.0
  0
LINE
  5
D5
330
1F
100
AcDbEntity
  8
0
  6
Continuous
 62
     7
370
    15
100
AcDbLine
 10
207.7952671561
 20
82.8893870509
 30
0.0
 11
208.8468122992
 21
84.5708266295
 31
0.0
  0
LINE
  5
D6
330
1F
100
AcDbEntity
  8
0
  6
Continuous
 62
     7
370
    15
100
AcDbLine
 10
208.8468122992
 20
84.5708266295
 30
0.0
 11
209.0338144216
 21
84.9859450407
 31
0.0
  0
SPLINE
  5
D7
330
1F
100
AcDbEntity
  8
0
  6
Continuous
 62
     7
370
    15
100
AcDbSpline
210
0.0
220
0.0
230
1.0
 70
     8
 71
     3
 72
     9
 73
     5
 74
     0
 42
0.00000001
 43
0.00000001
 40
0.0
 40
0.0
 40
0.0
 40
0.0
 40
0.5000512537701494
 40
1.0
 40
1.0
 40
1.0
 40
1.0
 10
209.0338144215812
 20
84.98594504066097
 30
0.0
 10
209.0593455808137
 20
85.39589905820627
 30
0.0
 10
209.1104026655426
 20
86.21572305515548
 30
0.0
 10
209.059342091537
 20
87.03554584660326
 30
0.0
 10
209.0338144215812
 20
87.44541522331821
 30
0.0
  0
LINE
  5
D8
330
1F
100
AcDbEntity
  8
0
  6
Continuous
 62
     7
370
    15
100
AcDbLine
 10
208.8468122992
 20
87.3578019834
 30
0.0
 11
209.0338144216
 21
87.4454152233
 31
0.0
  0
LINE
  5
D9
330
1F
100
AcDbEntity
  8
0
  6
Continuous
 62
     7
370
    15
100
AcDbLine
 10
207.7952671561
 20
86.0228535182
 30
0.0
 11
208.8468122992
 21
87.3578019834
 31
0.0
  0
LINE
  5
DA
330
1F
100
AcDbEntity
  8
0
  6
Continuous
 62
     7
370
    15
100
AcDbLine
 10
207.5260329756
 20
85.8983859814
 30
0.0
 11
207.7952671561
 21
86.0228535182
 31
0.0
  0
LINE
  5
DB
330
1F
100
AcDbEntity
  8
0
  6
Continuous
 62
     7
370
    15
100
AcDbLine
 10
207.5260329756
 20
108.6058337403
 30
0.0
 11
207.7952671561
 21
109.0085021149
 31
0.0
  0
LINE
  5
DC
330
1F
100
AcDbEntity
  8
0
  6
Continuous
 62
     7
370
    15
100
AcDbLine
 10
207.7952671561
 20
109.0085021149
 30
0.0
 11
208.8468122992
 21
109.2286395303
 31
0.0
  0
LINE
  5
DD
330
1F
100
AcDbEntity
  8
0
  6
Continuous
 62
     7
370
    15
100
AcDbLine
 10
208.8468122992
 20
109.2286395303
 30
0.0
 11
209.0338144216
 21
109.5120735279
 31
0.0
  0
SPLINE
  5
DE
330
1F
100
AcDbEntity
  8
0
  6
Continuous
 62
     7
370
    15
100
AcDbSpline
210
0.0
220
0.0
230
1.0
 70
     8
 71
     3
 72
     9
 73
     5
 74
     0
 42
0.00000001
 43
0.00000001
 40
0.0
 40
0.0
 40
0.0
 40
0.0
 40
0.1255455254824377
 40
1.0
 40
1.0
 40
1.0
 40
1.0
 10
209.0338144215812
 20
114.0113506860314
 30
0.0
 10
209.0418131515525
 20
113.8231980588634
 30
0.0
 10
209.1055249400903
 20
112.3245175886115
 30
0.0
 10
209.0672681995378
 20
110.8241108841603
 30
0.0
 10
209.0338144215812
 20
109.5120735278568
 30
0.0
  0
LINE
  5
DF
330
1F
100
AcDbEntity
  8
0
  6
Continuous
 62
     7
370
    15
100
AcDbLine
 10
208.8468122992
 20
114.3270485497
 30
0.0
 11
209.0338144216
 21
114.011350686
 31
0.0
  0
LINE
  5
E0
330
1F
100
AcDbEntity
  8
0
  6
Continuous
 62
     7
370
    15
100
AcDbLine
 10
207.7952671561
 20
114.7407699771
 30
0.0
 11
208.8468122992
 21
114.3270485497
 31
0.0
  0
LINE
  5
E1
330
1F
100
AcDbEntity
  8
0
  6
Continuous
 62
     7
370
    15
100
AcDbLine
 10
207.5260329756
 20
115.1892749056
 30
0.0
 11
207.7952671561
 21
114.7407699771
 31
0.0
  0
LINE
  5
E2
330
1F
100
AcDbEntity
  8
0
  6
Continuous
 62
     7
370
    15
100
AcDbLine
 10
207.5260329756
 20
136.5273051358
 30
0.0
 11
207.7952671561
 21
136.3402229197
 31
0.0
  0
LINE
  5
E3
330
1F
100
AcDbEntity
  8
0
  6
Continuous
 62
     7
370
    15
100
AcDbLine
 10
207.7952671561
 20
136.3402229197
 30
0.0
 11
208.8468122992
 21
134.8789219207
 31
0.0
  0
LINE
  5
E4
330
1F
100
AcDbEntity
  8
0
  6
Continuous
 62
     7
370
    15
100
AcDbLine
 10
208.8468122992
 20
134.8789219207
 30
0.0
 11
209.0338144216
 21
134.7472347713
 31
0.0
  0
SPLINE
  5
E5
330
1F
100
AcDbEntity
  8
0
  6
Continuous
 62
     7
370
    15
100
AcDbSpline
210
0.0
220
0.0
230
1.0
 70
     8
 71
     3
 72
     9
 73
     5
 74
     0
 42
0.00000001
 43
0.00000001
 40
0.0
 40
0.0
 40
0.0
 40
0.0
 40
0.5000511842707926
 40
1.0
 40
1.0
 40
1.0
 40
1.0
 10
209.0338144215812
 20
134.7472347713291
 30
0.0
 10
209.0593455784475
 20
135.0872376543615
 30
0.0
 10
209.1104026655406
 20
135.7671738163532
 30
0.0
 10
209.0593420939022
 20
136.4471101743382
 30
0.0
 10
209.0338144215812
 20
136.787043551284
 30
0.0
  0
LINE
  5
E6
330
1F
100
AcDbEntity
  8
0
  6
Continuous
 62
     7
370
    15
100
AcDbLine
 10
208.8468122992
 20
137.1903546549
 30
0.0
 11
209.0338144216
 21
136.7870435513
 31
0.0
  0
LINE
  5
E7
330
1F
100
AcDbEntity
  8
0
  6
Continuous
 62
     7
370
    15
100
AcDbLine
 10
207.7952671561
 20
138.9390245474
 30
0.0
 11
208.8468122992
 21
137.1903546549
 31
0.0
  0
LINE
  5
E8
330
1F
100
AcDbEntity
  8
0
  6
Continuous
 62
     7
370
    15
100
AcDbLine
 10
207.5260329756
 20
139.5119984097
 30
0.0
 11
207.7952671561
 21
138.9390245474
 31
0.0
  0
LINE
  5
E9
330
1F
100
AcDbEntity
  8
0
  6
Continuous
 62
     7
370
    15
100
AcDbLine
 10
211.7695558581
 20
86.22110788
 30
0.0
 11
211.7695558581
 21
134.2211082972
 31
0.0
  0
ARC
  5
EA
330
1F
100
AcDbEntity
  8
0
  6
Continuous
 62
     7
370
    15
100
AcDbCircle
 10
196.6366322329
 20
111.874636046
 30
0.0
 40
2.866135726885038
100
AcDbArc
 50
89.9358617203
 51
270.0641382797
  0
LINE
  5
EB
330
1F
100
AcDbEntity
  8
0
  6
Continuous
 62
     7
370
    15
100
AcDbLine
 10
196.6398406538
 20
109.0085021149
 30
0.0
 11
207.7952671561
 21
109.0085021149
 31
0.0
  0
LINE
  5
EC
330
1F
100
AcDbEntity
  8
0
  6
Continuous
 62
     7
370
    15
100
AcDbLine
 10
196.6398406538
 20
114.7407699771
 30
0.0
 11
207.7952671561
 21
114.7407699771
 31
0.0
  0
ARC
  5
ED
330
1F
100
AcDbEntity
  8
0
  6
Continuous
 62
     7
370
    15
100
AcDbCircle
 10
196.6368710485
 20
111.77784404
 30
0.0
 40
2.549206239372927
100
AcDbArc
 50
89.9332553444
 51
270.0667446556
  0
LINE
  5
EE
330
1F
100
AcDbEntity
  8
0
  6
Continuous
 62
     7
370
    15
100
AcDbLine
 10
196.6398406538
 20
109.2286395303
 30
0.0
 11
208.8468122992
 21
109.2286395303
 31
0.0
  0
LINE
  5
EF
330
1F
100
AcDbEntity
  8
0
  6
Continuous
 62
     7
370
    15
100
AcDbLine
 10
196.6398406538
 20
114.3270485497
 30
0.0
 11
208.8468122992
 21
114.3270485497
 31
0.0
  0
LINE
  5
F0
330
1F
100
AcDbEntity
  8
0
  6
Continuous
 62
     7
370
    15
100
AcDbLine
 10
196.6398406538
 20
109.5120735279
 30
0.0
 11
209.0338144216
 21
109.5120735279
 31
0.0
  0
ARC
  5
F1
330
1F
100
AcDbEntity
  8
0
  6
Continuous
 62
     7
370
    15
100
AcDbCircle
 10
196.6373588502
 20
111.7617121069
 30
0.0
 40
2.249639948051035
100
AcDbArc
 50
89.9367912632
 51
270.0632087368
  0
LINE
  5
F2
330
1F
100
AcDbEntity
  8
0
  6
Continuous
 62
     7
370
    15
100
AcDbLine
 10
196.6398406538
 20
114.011350686
 30
0.0
 11
209.0338144216
 21
114.011350686
 31
0.0
  0
LWPOLYLINE
  5
F3
330
1F
100
AcDbEntity
  8
0
  6
Continuous
 62
     7
370
    15
100
AcDbPolyline
 90
       11
 70
   128
 43
0.0
 10
196.6398406538
 20
82.8893870509
 10
195.9529343757
 20
82.9349138237
 10
195.305955759
 20
83.0688473231
 10
194.7364855322
 20
83.2834035552
 10
194.2776415261
 20
83.5661139733
 10
193.9560744676
 20
83.9005481846
 10
193.7904853138
 20
84.2672713495
 10
193.7904853138
 20
84.6449692196
 10
193.9560744676
 20
85.0116923846
 10
194.2776415261
 20
85.3461265958
 10
194.3220171842
 20
85.3802372164
  0
ARC
  5
F4
330
1F
100
AcDbEntity
  8
0
  6
Continuous
 62
     7
370
    15
100
AcDbCircle
 10
196.3687709809
 20
87.5179513102
 30
0.0
 40
2.959564604975883
100
AcDbArc
 50
226.2452767269
 51
275.255146485
  0
ARC
  5
F5
330
1F
100
AcDbEntity
  8
0
  6
Continuous
 62
     7
370
    15
100
AcDbCircle
 10
196.4847301382
 20
87.9295961412
 30
0.0
 40
2.947734905636664
100
AcDbArc
 50
233.9294273469
 51
273.0163106841
  0
LINE
  5
F6
330
1F
100
AcDbEntity
  8
0
  6
Continuous
 62
     7
370
    15
100
AcDbLine
 10
196.6398406538
 20
84.9859450407
 30
0.0
 11
209.0338144216
 21
84.9859450407
 31
0.0
  0
LWPOLYLINE
  5
F7
330
1F
100
AcDbEntity
  8
0
  6
Continuous
 62
     7
370
    15
100
AcDbPolyline
 90
        9
 70
   128
 43
0.0
 10
193.946403614
 20
137.1905614085
 10
193.7904853138
 20
137.4829985596
 10
193.7904853138
 20
137.7962489075
 10
193.9560744676
 20
138.1003983713
 10
194.2776415261
 20
138.3777667231
 10
194.7364855322
 20
138.6122383571
 10
195.305955759
 20
138.7901861615
 10
195.9529343757
 20
138.9012668676
 10
196.6398406538
 20
138.9390245474
  0
ARC
  5
F8
330
1F
100
AcDbEntity
  8
0
  6
Continuous
 62
     7
370
    15
100
AcDbCircle
 10
196.5038006861
 20
132.9556784233
 30
0.0
 40
4.236860826033398
100
AcDbArc
 50
88.1599924446
 51
114.1331256458
  0
LWPOLYLINE
  5
F9
330
1F
100
AcDbEntity
  8
0
  6
Continuous
 62
     7
370
    15
100
AcDbPolyline
 90
        3
 70
   128
 43
0.0
 10
195.5276328835
 20
136.6540935285
 10
196.0051256928
 20
136.7457300819
 10
196.6398406538
 20
136.7870435513
  0
LINE
  5
FA
330
1F
100
AcDbEntity
  8
0
  6
Continuous
 62
     7
370
    15
100
AcDbLine
 10
196.6398406538
 20
136.7870435513
 30
0.0
 11
209.0338144216
 21
136.7870435513
 31
0.0
  0
LINE
  5
FB
330
1F
100
AcDbEntity
  8
0
  6
Continuous
 62
     7
370
    15
100
AcDbLine
 10
196.6398406538
 20
82.8893870509
 30
0.0
 11
207.7952671561
 21
82.8893870509
 31
0.0
  0
LINE
  5
FC
330
1F
100
AcDbEntity
  8
0
  6
Continuous
 62
     7
370
    15
100
AcDbLine
 10
196.6398406538
 20
84.5708266295
 30
0.0
 11
208.8468122992
 21
84.5708266295
 31
0.0
  0
LINE
  5
FD
330
1F
100
AcDbEntity
  8
0
  6
Continuous
 62
     7
370
    15
100
AcDbLine
 10
196.6398406538
 20
137.1903546549
 30
0.0
 11
208.8468122992
 21
137.1903546549
 31
0.0
  0
LINE
  5
FE
330
1F
100
AcDbEntity
  8
0
  6
Continuous
 62
     7
370
    15
100
AcDbLine
 10
196.6398406538
 20
138.9390245474
 30
0.0
 11
207.7952671561
 21
138.9390245474
 31
0.0
  0
LINE
  5
FF
330
1F
100
AcDbEntity
  8
0
  6
HIDDEN
 62
     7
370
     0
100
AcDbLine
 10
126.3776218283
 20
134.6797977037
 30
0.0
 11
126.3776218283
 21
130.0711088277
 31
0.0
  0
ARC
  5
100
330
1F
100
AcDbEntity
  8
0
  6
HIDDEN
 62
     7
370
     0
100
AcDbCircle
 10
120.0688100441
 20
122.7016854039
 30
0.0
 40
3.662907223812149
100
AcDbArc
 50
265.313777804
 51
12.7425089389
  0
ARC
  5
101
330
1F
100
AcDbEntity
  8
0
  6
HIDDEN
 62
     7
370
     0
100
AcDbCircle
 10
119.4672934987
 20
122.6946090468
 30
0.0
 40
3.656101852365246
100
AcDbArc
 50
165.7265978853
 51
274.742231884
  0
LINE
  5
102
330
1F
100
AcDbEntity
  8
0
  6
HIDDEN
 62
     7
370
     0
100
AcDbLine
 10
196.769555262
 20
110.2211080886
 30
0.0
 11
196.769555262
 21
86.7211088932
 31
0.0
  0
LINE
  5
103
330
1F
100
AcDbEntity
  8
0
  6
HIDDEN
 62
     7
370
     0
100
AcDbLine
 10
196.769555262
 20
133.7211072839
 30
0.0
 11
196.769555262
 21
110.2211080886
 31
0.0
  0
LINE
  5
104
330
1F
100
AcDbEntity
  8
0
  6
HIDDEN
 62
     7
370
     0
100
AcDbLine
 10
195.2695522222
 20
110.2211080886
 30
0.0
 11
195.2695522222
 21
85.221107716
 31
0.0
  0
LINE
  5
105
330
1F
100
AcDbEntity
  8
0
  6
HIDDEN
 62
     7
370
     0
100
AcDbLine
 10
195.2695522222
 20
135.2211084611
 30
0.0
 11
195.2695522222
 21
110.2211080886
 31
0.0
  0
LINE
  5
106
330
1F
100
AcDbEntity
  8
0
  6
HIDDEN
 62
     7
370
     0
100
AcDbLine
 10
99.7647188368
 20
86.6965089387
 30
0.0
 11
99.5131173867
 21
86.6729930437
 31
0.0
  0
LINE
  5
107
330
1F
100
AcDbEntity
  8
0
  6
HIDDEN
 62
     7
370
     0
100
AcDbLine
 10
99.3901557985
 20
133.7805573291
 30
0.0
 11
99.7646266359
 21
133.7456904746
 31
0.0
  0
SPLINE
  5
108
330
1F
100
AcDbEntity
  8
0
  6
HIDDEN
 62
     7
370
     0
100
AcDbSpline
210
0.0
220
0.0
230
1.0
 70
     8
 71
     3
 72
    15
 73
    11
 74
     0
 42
0.00000001
 43
0.00000001
 40
0.0
 40
0.0
 40
0.0
 40
0.0
 40
0.1409172263352446
 40
0.281889861653346
 40
0.4212989542022905
 40
0.5593768841673977
 40
0.6988856533029646
 40
0.840367202775075
 40
0.9813164473602943
 40
1.0
 40
1.0
 40
1.0
 40
1.0
 10
105.5245564083625
 20
90.38357962139236
 30
0.0
 10
105.2085146887498
 20
90.42393294316705
 30
0.0
 10
104.5763069811814
 20
90.50465545373687
 30
0.0
 10
103.3421438088672
 20
90.58121340011962
 30
0.0
 10
102.0714216850515
 20
90.5765353321047
 30
0.0
 10
100.8828622185151
 20
90.49573886688148
 30
0.0
 10
99.88973953922466
 20
90.37134432002725
 30
0.0
 10
99.2503310079109
 20
90.26493737326602
 30
0.0
 10
98.9693110195575
 20
90.21186031395646
 30
0.0
 10
99.0358715880463
 20
90.22411480591836
 30
0.0
 10
99.04366189120898
 20
90.2255490816413
 30
0.0
  0
SPLINE
  5
109
330
1F
100
AcDbEntity
  8
0
  6
HIDDEN
 62
     7
370
     0
100
AcDbSpline
210
0.0
220
0.0
230
1.0
 70
     8
 71
     3
 72
    15
 73
    11
 74
     0
 42
0.00000001
 43
0.00000001
 40
0.0
 40
0.0
 40
0.0
 40
0.0
 40
0.1201202497733958
 40
0.2584739452442804
 40
0.3987302041697883
 40
0.5404022600041716
 40
0.680739511736143
 40
0.8190355942651634
 40
0.9577823154231621
 40
1.0
 40
1.0
 40
1.0
 40
1.0
 10
99.04366189120898
 20
130.2166670955001
 30
0.0
 10
99.06437114001245
 20
130.2126425914258
 30
0.0
 10
99.10893316224748
 20
130.2039826906372
 30
0.0
 10
99.67137263197591
 20
130.1046897719261
 30
0.0
 10
100.5648348874232
 20
129.9807737602148
 30
0.0
 10
101.7238137112753
 20
129.8810623846811
 30
0.0
 10
102.9968505800951
 20
129.853925326983
 30
0.0
 10
104.2311359268222
 20
129.9092626891131
 30
0.0
 10
105.059099004518
 20
129.9957424249045
 30
0.0
 10
105.4365093171644
 20
130.0467393440417
 30
0.0
 10
105.5245564083625
 20
130.0586365557491
 30
0.0
  0
SPLINE
  5
10A
330
1F
100
AcDbEntity
  8
0
  6
HIDDEN
 62
     7
370
     0
100
AcDbSpline
210
0.0
220
0.0
230
1.0
 70
     8
 71
     3
 72
    10
 73
     6
 74
     0
 42
0.00000001
 43
0.00000001
 40
0.0
 40
0.0
 40
0.0
 40
0.0
 40
0.4477052241112447
 40
0.8953937853478613
 40
0.9999999999999999
 40
0.9999999999999999
 40
0.9999999999999999
 40
0.9999999999999999
 10
105.5245564083625
 20
130.0586365557491
 30
0.0
 10
105.7712549961465
 20
130.0881479724169
 30
0.0
 10
106.2646429899863
 20
130.1471697073849
 30
0.0
 10
106.5536520530127
 20
130.1611118267313
 30
0.0
 10
106.4933452370348
 20
130.1572233769207
 30
0.0
 10
106.4819229531158
 20
130.1564868933736
 30
0.0
  0
SPLINE
  5
10B
330
1F
100
AcDbEntity
  8
0
  6
HIDDEN
 62
     7
370
     0
100
AcDbSpline
210
0.0
220
0.0
230
1.0
 70
     8
 71
     3
 72
    10
 73
     6
 74
     0
 42
0.00000001
 43
0.00000001
 40
0.0
 40
0.0
 40
0.0
 40
0.0
 40
0.3457309510089583
 40
0.7967766298307097
 40
1.0
 40
1.0
 40
1.0
 40
1.0
 10
106.4819304036964
 20
90.28572928376781
 30
0.0
 10
106.4723710108553
 20
90.28628417796051
 30
0.0
 10
106.4503402936489
 20
90.28756299527058
 30
0.0
 10
106.0332889339684
 20
90.3175301628131
 30
0.0
 10
105.6451246327085
 20
90.36792607942463
 30
0.0
 10
105.5245564083625
 20
90.38357962139236
 30
0.0
  0
LINE
  5
10C
330
1F
100
AcDbEntity
  8
0
  6
HIDDEN
 62
     7
370
     0
100
AcDbLine
 10
162.9715498301
 20
110.2211080886
 30
0.0
 11
162.9715498301
 21
94.9711079172
 31
0.0
  0
LINE
  5
10D
330
1F
100
AcDbEntity
  8
0
  6
HIDDEN
 62
     7
370
     0
100
AcDbLine
 10
162.9715498301
 20
125.4711082599
 30
0.0
 11
162.9715498301
 21
110.2211080886
 31
0.0
  0
LINE
  5
10E
330
1F
100
AcDbEntity
  8
0
  6
HIDDEN
 62
     7
370
     0
100
AcDbLine
 10
92.7735298636
 20
93.2211071647
 30
0.0
 11
92.7735298636
 21
127.2211090124
 31
0.0
  0
LWPOLYLINE
  5
10F
330
1F
100
AcDbEntity
  8
0
  6
HIDDEN
 62
     7
370
     0
100
AcDbPolyline
 90
       14
 70
   128
 43
0.0
 10
119.7695547479
 20
132.1667112804
 10
120.5747483063
 20
132.2076503582
 10
121.3469777021
 20
132.328794936
 10
122.0546273279
 20
132.5251829273
 10
122.6687256011
 20
132.7887770183
 10
123.1641314688
 20
133.1087831802
 10
123.520562588
 20
133.4720995671
 10
123.7234279278
 20
133.8638548202
 10
123.7644200909
 20
134.268009702
 10
123.6418626967
 20
134.6680164731
 10
123.3607727799
 20
135.0474987573
 10
122.9326577622
 20
135.3909220941
 10
122.3750442031
 20
135.6842272378
 10
122.1425870198
 20
135.7767355091
  0
LWPOLYLINE
  5
110
330
1F
100
AcDbEntity
  8
0
  6
HIDDEN
 62
     7
370
     0
100
AcDbPolyline
 90
       14
 70
   128
 43
0.0
 10
117.4015786263
 20
135.778594429
 10
117.1640643614
 20
135.6842272378
 10
116.606451268
 20
135.3909220941
 10
116.1783362503
 20
135.0474987573
 10
115.8972458678
 20
134.6680164731
 10
115.7746884736
 20
134.268009702
 10
115.8156811024
 20
133.8638548202
 10
116.0185459766
 20
133.4720995671
 10
116.3749775614
 20
133.1087831802
 10
116.8703834291
 20
132.7887770183
 10
117.4844817023
 20
132.5251829273
 10
118.1921308625
 20
132.328794936
 10
118.9643602583
 20
132.2076503582
 10
119.7695547479
 20
132.1667112804
  0
LINE
  5
111
330
1F
100
AcDbEntity
  8
0
  6
HIDDEN
 62
     7
370
     0
100
AcDbLine
 10
119.42938033
 20
93.2211071647
 30
0.0
 11
119.42938033
 21
127.2211090124
 31
0.0
  0
LINE
  5
112
330
1F
100
AcDbEntity
  8
0
  6
HIDDEN
 62
     7
370
     0
100
AcDbLine
 10
121.7195542294
 20
94.4961082584
 30
0.0
 11
121.7195542294
 21
125.9461079187
 31
0.0
  0
SPLINE
  5
113
330
1F
100
AcDbEntity
  8
0
  6
HIDDEN
 62
     7
370
     0
100
AcDbSpline
210
0.0
220
0.0
230
1.0
 70
     8
 71
     3
 72
    18
 73
    14
 74
     0
 42
0.00000001
 43
0.00000001
 40
0.0
 40
0.0
 40
0.0
 40
0.0
 40
0.2500000000000033
 40
0.2500000000000033
 40
0.3750000000000029
 40
0.3750000000000029
 40
0.5000000000000026
 40
0.5000000000000026
 40
0.6250000000000022
 40
0.6250000000000022
 40
0.7500000000000018
 40
0.7500000000000018
 40
1.0
 40
1.0
 40
1.0
 40
1.0
 10
85.96955436794649
 20
126.5086217109748
 30
0.0
 10
85.96955436794649
 20
126.4541471904226
 30
0.0
 10
85.93464367655432
 20
126.3977661310702
 30
0.0
 10
85.83263437522126
 20
126.3136892902167
 30
0.0
 10
85.79099802054316
 20
126.2863555862258
 30
0.0
 10
85.6925922250544
 20
126.2334016706268
 30
0.0
 10
85.63504901335011
 20
126.2075143169096
 30
0.0
 10
85.50775083977717
 20
126.1597367720763
 30
0.0
 10
85.43816353501971
 20
126.1377888538985
 30
0.0
 10
85.28672928986475
 20
126.0983562889857
 30
0.0
 10
85.2040453867708
 20
126.0808000397599
 30
0.0
 10
84.94793392473275
 20
126.0383612743394
 30
0.0
 10
84.76001892084477
 20
126.0225985246023
 30
0.0
 10
84.56955436794648
 20
126.0225985246024
 30
0.0
  0
LINE
  5
114
330
1F
100
AcDbEntity
  8
0
  6
HIDDEN
 62
     7
370
     0
100
AcDbLine
 10
84.5695540073
 20
126.0225993044
 30
0.0
 11
81.0195535186
 21
126.0225993044
 31
0.0
  0
LINE
  5
115
330
1F
100
AcDbEntity
  8
0
  6
HIDDEN
 62
     7
370
     0
100
AcDbLine
 10
81.0195535186
 20
94.4196168727
 30
0.0
 11
88.569554663
 21
94.4196168727
 31
0.0
  0
SPLINE
  5
116
330
1F
100
AcDbEntity
  8
0
  6
HIDDEN
 62
     7
370
     0
100
AcDbSpline
210
0.0
220
0.0
230
1.0
 70
     8
 71
     3
 72
    16
 73
    12
 74
     0
 42
0.00000001
 43
0.00000001
 40
0.0
 40
0.0
 40
0.0
 40
0.0
 40
0.124999999999998
 40
0.124999999999998
 40
0.249999999999996
 40
0.249999999999996
 40
0.4999999999999973
 40
0.4999999999999973
 40
0.7499999999999987
 40
0.7499999999999987
 40
1.0
 40
1.0
 40
1.0
 40
1.0
 10
88.56955436794648
 20
94.41961765253905
 30
0.0
 10
88.6646761226123
 20
94.41961765253905
 30
0.0
 10
88.75800619134039
 20
94.41580181914624
 30
0.0
 10
88.94126795207839
 20
94.40103126641644
 30
0.0
 10
89.0321456676354
 20
94.38987321844087
 30
0.0
 10
89.28894736515514
 20
94.34740194829914
 30
0.0
 10
89.44401473002713
 20
94.30635575109633
 30
0.0
 10
89.69776119158175
 20
94.21120963451445
 30
0.0
 10
89.7986316432496
 20
94.15644690043287
 30
0.0
 10
89.93387805794445
 20
94.04518577652898
 30
0.0
 10
89.96955436794649
 20
93.9880160392003
 30
0.0
 10
89.96955436794649
 20
93.93359446616658
 30
0.0
  0
LINE
  5
117
330
1F
100
AcDbEntity
  8
0
  6
HIDDEN
 62
     7
370
     0
100
AcDbLine
 10
81.0195535186
 20
94.4196168727
 30
0.0
 11
81.0195535186
 21
126.0225993044
 31
0.0
  0
LINE
  5
118
330
1F
100
AcDbEntity
  8
0
  6
HIDDEN
 62
     7
370
     0
100
AcDbLine
 10
154.2230557415
 20
110.2211080886
 30
0.0
 11
154.2230557415
 21
104.7211081184
 31
0.0
  0
LINE
  5
119
330
1F
100
AcDbEntity
  8
0
  6
HIDDEN
 62
     7
370
     0
100
AcDbLine
 10
154.2230557415
 20
115.7211080588
 30
0.0
 11
154.2230557415
 21
110.2211080886
 31
0.0
  0
LINE
  5
11A
330
1F
100
AcDbEntity
  8
0
  6
HIDDEN
 62
     7
370
     0
100
AcDbLine
 10
158.7695527586
 20
110.2211080886
 30
0.0
 11
158.7695527586
 21
94.9711079172
 31
0.0
  0
LINE
  5
11B
330
1F
100
AcDbEntity
  8
0
  6
HIDDEN
 62
     7
370
     0
100
AcDbLine
 10
158.7695527586
 20
125.4711082599
 30
0.0
 11
158.7695527586
 21
110.2211080886
 31
0.0
  0
LINE
  5
11C
330
1F
100
AcDbEntity
  8
0
  6
HIDDEN
 62
     7
370
     0
100
AcDbLine
 10
81.0195535186
 20
92.2311075426
 30
0.0
 11
81.0195535186
 21
89.3511694319
 31
0.0
  0
LINE
  5
11D
330
1F
100
AcDbEntity
  8
0
  6
HIDDEN
 62
     7
370
     0
100
AcDbLine
 10
89.9695541474
 20
92.2311075426
 30
0.0
 11
89.9695541474
 21
88.2573701835
 31
0.0
  0
LINE
  5
11E
330
1F
100
AcDbEntity
  8
0
  6
HIDDEN
 62
     7
370
     0
100
AcDbLine
 10
81.0195535186
 20
128.2111086345
 30
0.0
 11
81.0195535186
 21
131.0910467453
 31
0.0
  0
LINE
  5
11F
330
1F
100
AcDbEntity
  8
0
  6
HIDDEN
 62
     7
370
     0
100
AcDbLine
 10
85.9695534918
 20
128.2111086345
 30
0.0
 11
85.9695534918
 21
132.0652157462
 31
0.0
  0
LINE
  5
120
330
1F
100
AcDbEntity
  8
0
  6
HIDDEN
 62
     7
370
     0
100
AcDbLine
 10
131.06955511
 20
100.721108394
 30
0.0
 11
131.06955511
 21
119.7211077831
 31
0.0
  0
LINE
  5
121
330
1F
100
AcDbEntity
  8
0
  6
HIDDEN
 62
     7
370
     0
100
AcDbLine
 10
133.5695545885
 20
100.721108394
 30
0.0
 11
133.5695545885
 21
119.7211077831
 31
0.0
  0
LINE
  5
122
330
1F
100
AcDbEntity
  8
0
  6
HIDDEN
 62
     7
370
     0
100
AcDbLine
 10
122.2195543113
 20
101.7211076266
 30
0.0
 11
122.2195543113
 21
118.7211085505
 31
0.0
  0
LINE
  5
123
330
1F
100
AcDbEntity
  8
0
  6
HIDDEN
 62
     7
370
     0
100
AcDbLine
 10
116.7195543411
 20
78.7369847692
 30
0.0
 11
116.7195543411
 21
83.8211082316
 31
0.0
  0
LINE
  5
124
330
1F
100
AcDbEntity
  8
0
  6
HIDDEN
 62
     7
370
     0
100
AcDbLine
 10
124.7195547211
 20
83.8211082316
 30
0.0
 11
116.7195543411
 21
83.8211082316
 31
0.0
  0
LINE
  5
125
330
1F
100
AcDbEntity
  8
0
  6
HIDDEN
 62
     7
370
     0
100
AcDbLine
 10
137.719554058
 20
83.8211082316
 30
0.0
 11
131.5818793836
 21
83.8211082316
 31
0.0
  0
LINE
  5
126
330
1F
100
AcDbEntity
  8
0
  6
HIDDEN
 62
     7
370
     0
100
AcDbLine
 10
127.9572296652
 20
83.8211082316
 30
0.0
 11
124.7195547211
 21
83.8211082316
 31
0.0
  0
LINE
  5
127
330
1F
100
AcDbEntity
  8
0
  6
HIDDEN
 62
     7
370
     0
100
AcDbLine
 10
128.2538521799
 20
136.6211079455
 30
0.0
 11
124.7195547211
 21
136.6211079455
 31
0.0
  0
LINE
  5
128
330
1F
100
AcDbEntity
  8
0
  6
HIDDEN
 62
     7
370
     0
100
AcDbLine
 10
137.719554058
 20
136.6211079455
 30
0.0
 11
131.2852568689
 21
136.6211079455
 31
0.0
  0
LINE
  5
129
330
1F
100
AcDbEntity
  8
0
  6
HIDDEN
 62
     7
370
     0
100
AcDbLine
 10
124.7195547211
 20
136.6211079455
 30
0.0
 11
116.7195543411
 21
136.6211079455
 31
0.0
  0
ELLIPSE
  5
12A
330
1F
100
AcDbEntity
  8
0
  6
HIDDEN
 62
     7
370
     0
100
AcDbEllipse
 10
75.7021225036
 20
110.2211080886
 30
0.0
 11
20.07002071827083
 21
-1.421085471520200E-14
 31
0.0
210
0.0
220
0.0
230
1.0
 40
0.8164965809
 41
4.921555463185717
 42
4.980534842098416
  0
ELLIPSE
  5
12B
330
1F
100
AcDbEntity
  8
0
  6
HIDDEN
 62
     7
370
     0
100
AcDbEllipse
 10
75.7021225036
 20
110.2211080886
 30
0.0
 11
20.07002071827081
 21
-1.421085471520200E-14
 31
0.0
210
0.0
220
0.0
230
1.0
 40
0.8164965809
 41
1.302650465081183
 42
1.361629843993882
  0
LINE
  5
12C
330
1F
100
AcDbEntity
  8
0
  6
HIDDEN
 62
     7
370
     0
100
AcDbLine
 10
89.9695541474
 20
92.2311075426
 30
0.0
 11
89.9695541474
 21
93.9335950113
 31
0.0
  0
LINE
  5
12D
330
1F
100
AcDbEntity
  8
0
  6
HIDDEN
 62
     7
370
     0
100
AcDbLine
 10
81.0195535186
 20
92.2311075426
 30
0.0
 11
81.0195535186
 21
94.4196168727
 31
0.0
  0
LINE
  5
12E
330
1F
100
AcDbEntity
  8
0
  6
HIDDEN
 62
     7
370
     0
100
AcDbLine
 10
85.9695534918
 20
128.2111086345
 30
0.0
 11
85.9695534918
 21
126.5086211658
 31
0.0
  0
LINE
  5
12F
330
1F
100
AcDbEntity
  8
0
  6
HIDDEN
 62
     7
370
     0
100
AcDbLine
 10
81.0195535186
 20
128.2111086345
 30
0.0
 11
81.0195535186
 21
126.0225993044
 31
0.0
  0
LINE
  5
130
330
1F
100
AcDbEntity
  8
0
  6
HIDDEN
 62
     7
370
     0
100
AcDbLine
 10
134.4884346935
 20
106.0211082383
 30
0.0
 11
134.4884346935
 21
114.4211079388
 31
0.0
  0
LINE
  5
131
330
1F
100
AcDbEntity
  8
0
  6
HIDDEN
 62
     7
370
     0
100
AcDbLine
 10
135.2695535633
 20
104.7211081184
 30
0.0
 11
135.2695535633
 21
115.7211080588
 31
0.0
  0
SPLINE
  5
132
330
1F
100
AcDbEntity
  8
0
  6
HIDDEN
 62
     7
370
     0
100
AcDbSpline
210
0.0
220
0.0
230
1.0
 70
     8
 71
     3
 72
    20
 73
    16
 74
     0
 42
0.00000001
 43
0.00000001
 40
0.0
 40
0.0
 40
0.0
 40
0.0
 40
0.1119132804539768
 40
0.1774326012666928
 40
0.2490541829634065
 40
0.3298020291201306
 40
0.3985741043090375
 40
0.4998540425665176
 40
0.6138186170569636
 40
0.6789843777320493
 40
0.7495108358967654
 40
0.8296561620891977
 40
0.8980994766513762
 40
0.9995101055204568
 40
0.9999999999999999
 40
0.9999999999999999
 40
0.9999999999999999
 40
0.9999999999999999
 10
106.5182924966384
 20
86.62114072807418
 30
0.0
 10
106.4749823213354
 20
86.63456604410548
 30
0.0
 10
106.4063163235723
 20
86.65585117431164
 30
0.0
 10
105.961205128016
 20
86.75914348904898
 30
0.0
 10
105.4346477620234
 20
86.87244734767727
 30
0.0
 10
104.7492198209876
 20
86.99537876793589
 30
0.0
 10
103.8559016392435
 20
87.11741473464
 30
0.0
 10
102.74254023357
 20
87.23514883426746
 30
0.0
 10
101.6317658488626
 20
87.2471245023829
 30
0.0
 10
100.7470197658727
 20
87.22006595786645
 30
0.0
 10
100.079825388224
 20
87.17213077023517
 30
0.0
 10
99.53855980455715
 20
87.11584682141005
 30
0.0
 10
99.15096871766457
 20
87.07073348801352
 30
0.0
 10
98.95706008093924
 20
87.0319507246793
 30
0.0
 10
99.02017690210872
 20
87.04259497642823
 30
0.0
 10
99.02048034100423
 20
87.04264614947425
 30
0.0
  0
LINE
  5
133
330
1F
100
AcDbEntity
  8
0
  6
HIDDEN
 62
     7
370
     0
100
AcDbLine
 10
99.9295992541
 20
87.1534493215
 30
0.0
 11
100.1134237039
 21
87.1716361887
 31
0.0
  0
SPLINE
  5
134
330
1F
100
AcDbEntity
  8
0
  6
HIDDEN
 62
     7
370
     0
100
AcDbSpline
210
0.0
220
0.0
230
1.0
 70
     8
 71
     3
 72
    27
 73
    23
 74
     0
 42
0.00000001
 43
0.00000001
 40
0.0
 40
0.0
 40
0.0
 40
0.0
 40
0.0007839203936236
 40
0.0456666070870267
 40
0.1022481123880099
 40
0.1705257039875152
 40
0.2091170097519627
 40
0.2506437746545643
 40
0.321089324456636
 40
0.3861827626082237
 40
0.4266616937783687
 40
0.4647926196337303
 40
0.50059670041683
 40
0.5451885957067533
 40
0.6016826452603221
 40
0.6700881286327095
 40
0.708825083102272
 40
0.75055341518904
 40
0.8222178604050022
 40
0.887757260156296
 40
0.947231110100097
 40
1.0
 40
1.0
 40
1.0
 40
1.0
 10
99.020202806877
 20
133.3995271868287
 30
0.0
 10
99.01998739010949
 20
133.3995732927406
 30
0.0
 10
99.0074384719264
 20
133.4022591529115
 30
0.0
 10
99.05651597436047
 20
133.3904578107617
 30
0.0
 10
99.20161185605583
 20
133.3669993823167
 30
0.0
 10
99.4746637603628
 20
133.3330998663443
 30
0.0
 10
99.80318734193031
 20
133.2995306394213
 30
0.0
 10
100.1959123183145
 20
133.2613482100265
 30
0.0
 10
100.7456379208516
 20
133.2223773134614
 30
0.0
 10
101.3716601803126
 20
133.2029164429132
 30
0.0
 10
101.9148506794362
 20
133.2007311354005
 30
0.0
 10
102.359918560994
 20
133.209245942543
 30
0.0
 10
102.8263670167182
 20
133.2290294386814
 30
0.0
 10
103.3636096746095
 20
133.2731898450071
 30
0.0
 10
104.0118248328614
 20
133.3456053836413
 30
0.0
 10
104.5973637199778
 20
133.4265083894779
 30
0.0
 10
105.0783327260195
 20
133.5046735345805
 30
0.0
 10
105.5237494645007
 20
133.5894458337132
 30
0.0
 10
105.9622514170609
 20
133.6832286256586
 30
0.0
 10
106.3012835664764
 20
133.7611349554375
 30
0.0
 10
106.4886481616628
 20
133.8113310705955
 30
0.0
 10
106.5091394508504
 20
133.8179985816048
 30
0.0
 10
106.5187730590869
 20
133.8211331910669
 30
0.0
  0
LINE
  5
135
330
1F
100
AcDbEntity
  8
0
  6
HIDDEN
 62
     7
370
     0
100
AcDbLine
 10
151.2195553395
 20
84.7984586305
 30
0.0
 11
146.2195526573
 21
84.7984586305
 31
0.0
  0
LINE
  5
136
330
1F
100
AcDbEntity
  8
0
  6
HIDDEN
 62
     7
370
     0
100
AcDbLine
 10
146.2195526573
 20
135.6437575466
 30
0.0
 11
151.2195553395
 21
135.6437575466
 31
0.0
  0
LINE
  5
137
330
1F
100
AcDbEntity
  8
0
  6
HIDDEN
 62
     7
370
     0
100
AcDbLine
 10
151.2195553395
 20
98.2211079843
 30
0.0
 11
146.2195526573
 21
98.2211079843
 31
0.0
  0
LINE
  5
138
330
1F
100
AcDbEntity
  8
0
  6
HIDDEN
 62
     7
370
     0
100
AcDbLine
 10
146.2195526573
 20
122.2211081929
 30
0.0
 11
151.2195553395
 21
122.2211081929
 31
0.0
  0
LINE
  5
139
330
1F
100
AcDbEntity
  8
0
  6
HIDDEN
 62
     7
370
     0
100
AcDbLine
 10
127.8595544162
 20
130.3569745667
 30
0.0
 11
127.8595544162
 21
130.0711088277
 31
0.0
  0
LINE
  5
13A
330
1F
100
AcDbEntity
  8
0
  6
HIDDEN
 62
     7
370
     0
100
AcDbLine
 10
131.6795546326
 20
130.3569745667
 30
0.0
 11
131.6795546326
 21
130.0711088277
 31
0.0
  0
LINE
  5
13B
330
1F
100
AcDbEntity
  8
0
  6
HIDDEN
 62
     7
370
     0
100
AcDbLine
 10
133.1614862892
 20
134.6797977037
 30
0.0
 11
133.1614862892
 21
130.0711088277
 31
0.0
  0
SPLINE
  5
13C
330
1F
100
AcDbEntity
  8
0
  6
HIDDEN
 62
     7
370
     0
100
AcDbSpline
210
0.0
220
0.0
230
1.0
 70
     8
 71
     3
 72
    24
 73
    20
 74
     0
 42
0.00000001
 43
0.00000001
 40
0.0
 40
0.0
 40
0.0
 40
0.0
 40
0.24999999999998
 40
0.24999999999998
 40
0.3749999999999705
 40
0.3749999999999705
 40
0.4374999999999656
 40
0.4374999999999656
 40
0.4687499999999649
 40
0.4687499999999649
 40
0.4999999999999643
 40
0.4999999999999643
 40
0.5624999999999676
 40
0.5624999999999676
 40
0.6249999999999709
 40
0.6249999999999709
 40
0.7499999999999798
 40
0.7499999999999798
 40
1.0
 40
1.0
 40
1.0
 40
1.0
 10
79.93221774266989
 20
90.54655554378996
 30
0.0
 10
79.9459708613401
 20
90.61720560178023
 30
0.0
 10
79.96374342874596
 20
90.68380371454515
 30
0.0
 10
80.01599452030135
 20
90.75790173477836
 30
0.0
 10
80.0370295958829
 20
90.7791595419399
 30
0.0
 10
80.08993000351131
 20
90.78730546808615
 30
0.0
 10
80.11103567638922
 20
90.7863656646904
 30
0.0
 10
80.1570878450672
 20
90.76534967311306
 30
0.0
 10
80.17545831705056
 20
90.75444086700546
 30
0.0
 10
80.21700995211626
 20
90.72180595605809
 30
0.0
 10
80.23957662487318
 20
90.70031397568674
 30
0.0
 10
80.30235764133323
 20
90.63184803210044
 30
0.0
 10
80.3354874023011
 20
90.58577357389532
 30
0.0
 10
80.39240508878612
 20
90.50076568556065
 30
0.0
 10
80.41659111428987
 20
90.46048538437925
 30
0.0
 10
80.48179906466966
 20
90.34554915791333
 30
0.0
 10
80.51651512486092
 20
90.27496617276631
 30
0.0
 10
80.6097303951918
 20
90.0707604136877
 30
0.0
 10
80.65540293055248
 20
89.94786203136033
 30
0.0
 10
80.69370801405101
 20
89.83098875497275
 30
0.0
  0
CIRCLE
  5
13D
330
1F
100
AcDbEntity
  8
0
  6
HIDDEN
 62
     7
370
     0
100
AcDbCircle
 10
118.7695543679
 20
110.2211080886
 30
0.0
 40
5.0
  0
LINE
  5
13E
330
1F
100
AcDbEntity
  8
0
  6
HIDDEN
 62
     7
370
     0
100
AcDbLine
 10
154.7695558283
 20
104.7211081184
 30
0.0
 11
154.7695558283
 21
115.7211080588
 31
0.0
  0
LINE
  5
13F
330
1F
100
AcDbEntity
  8
0
  6
HIDDEN
 62
     7
370
     0
100
AcDbLine
 10
154.269554815
 20
104.2211080364
 30
0.0
 11
154.269554815
 21
116.2211081407
 31
0.0
  0
LINE
  5
140
330
1F
100
AcDbEntity
  8
0
  6
HIDDEN
 62
     7
370
     0
100
AcDbLine
 10
139.2695542189
 20
104.2211080364
 30
0.0
 11
139.2695542189
 21
116.2211081407
 31
0.0
  0
LINE
  5
141
330
1F
100
AcDbEntity
  8
0
  6
HIDDEN
 62
     7
370
     0
100
AcDbLine
 10
138.7695550683
 20
104.7211081184
 30
0.0
 11
138.7695550683
 21
115.7211080588
 31
0.0
  0
LINE
  5
142
330
1F
100
AcDbEntity
  8
0
  6
HIDDEN
 62
     7
370
     0
100
AcDbLine
 10
158.7695527586
 20
105.5298006556
 30
0.0
 11
156.7695561561
 21
105.5298006556
 31
0.0
  0
LINE
  5
143
330
1F
100
AcDbEntity
  8
0
  6
HIDDEN
 62
     7
370
     0
100
AcDbLine
 10
156.7695561561
 20
112.7079917512
 30
0.0
 11
158.7695527586
 21
112.7079917512
 31
0.0
  0
LINE
  5
144
330
1F
100
AcDbEntity
  8
0
  6
HIDDEN
 62
     7
370
     0
100
AcDbLine
 10
158.7695527586
 20
114.9124155215
 30
0.0
 11
156.7695561561
 21
114.9124155215
 31
0.0
  0
LINE
  5
145
330
1F
100
AcDbEntity
  8
0
  6
HIDDEN
 62
     7
370
     0
100
AcDbLine
 10
156.7695561561
 20
107.7342244259
 30
0.0
 11
158.7695527586
 21
107.7342244259
 31
0.0
  0
LINE
  5
146
330
1F
100
AcDbEntity
  8
0
  6
HIDDEN
 62
     7
370
     0
100
AcDbLine
 10
156.7695561561
 20
105.5298006556
 30
0.0
 11
156.7695561561
 21
107.7342244259
 31
0.0
  0
LINE
  5
147
330
1F
100
AcDbEntity
  8
0
  6
HIDDEN
 62
     7
370
     0
100
AcDbLine
 10
156.7695561561
 20
109.5611090002
 30
0.0
 11
156.7695561561
 21
107.7342244259
 31
0.0
  0
LINE
  5
148
330
1F
100
AcDbEntity
  8
0
  6
HIDDEN
 62
     7
370
     0
100
AcDbLine
 10
158.7695527586
 20
109.5611090002
 30
0.0
 11
156.7695561561
 21
109.5611090002
 31
0.0
  0
LINE
  5
149
330
1F
100
AcDbEntity
  8
0
  6
HIDDEN
 62
     7
370
     0
100
AcDbLine
 10
151.7695534739
 20
111.2507244268
 30
0.0
 11
151.7695534739
 21
109.5611090002
 31
0.0
  0
LINE
  5
14A
330
1F
100
AcDbEntity
  8
0
  6
HIDDEN
 62
     7
370
     0
100
AcDbLine
 10
145.7695562157
 20
109.5611090002
 30
0.0
 11
145.7695562157
 21
111.2507244268
 31
0.0
  0
LINE
  5
14B
330
1F
100
AcDbEntity
  8
0
  6
HIDDEN
 62
     7
370
     0
100
AcDbLine
 10
151.7695534739
 20
109.5611090002
 30
0.0
 11
151.7695534739
 21
107.8714934572
 31
0.0
  0
LINE
  5
14C
330
1F
100
AcDbEntity
  8
0
  6
HIDDEN
 62
     7
370
     0
100
AcDbLine
 10
145.7695562157
 20
107.8714934572
 30
0.0
 11
145.7695562157
 21
109.5611090002
 31
0.0
  0
LINE
  5
14D
330
1F
100
AcDbEntity
  8
0
  6
HIDDEN
 62
     7
370
     0
100
AcDbLine
 10
151.7695534739
 20
112.4255318589
 30
0.0
 11
151.7695534739
 21
111.2507244268
 31
0.0
  0
LINE
  5
14E
330
1F
100
AcDbEntity
  8
0
  6
HIDDEN
 62
     7
370
     0
100
AcDbLine
 10
151.7695534739
 20
111.2507244268
 30
0.0
 11
158.7695527586
 21
111.2507244268
 31
0.0
  0
LINE
  5
14F
330
1F
100
AcDbEntity
  8
0
  6
HIDDEN
 62
     7
370
     0
100
AcDbLine
 10
145.7695562157
 20
111.2507244268
 30
0.0
 11
145.7695562157
 21
112.4255318589
 31
0.0
  0
LINE
  5
150
330
1F
100
AcDbEntity
  8
0
  6
HIDDEN
 62
     7
370
     0
100
AcDbLine
 10
145.7695562157
 20
111.2507244268
 30
0.0
 11
138.7695550683
 21
111.2507244268
 31
0.0
  0
LINE
  5
151
330
1F
100
AcDbEntity
  8
0
  6
HIDDEN
 62
     7
370
     0
100
AcDbLine
 10
156.7695561561
 20
107.3566853463
 30
0.0
 11
158.7695527586
 21
107.3566853463
 31
0.0
  0
LINE
  5
152
330
1F
100
AcDbEntity
  8
0
  6
HIDDEN
 62
     7
370
     0
100
AcDbLine
 10
145.7695562157
 20
107.3566853463
 30
0.0
 11
145.7695562157
 21
107.8714934572
 31
0.0
  0
LINE
  5
153
330
1F
100
AcDbEntity
  8
0
  6
HIDDEN
 62
     7
370
     0
100
AcDbLine
 10
145.7695562157
 20
107.8714934572
 30
0.0
 11
138.7695550683
 21
107.8714934572
 31
0.0
  0
LINE
  5
154
330
1F
100
AcDbEntity
  8
0
  6
HIDDEN
 62
     7
370
     0
100
AcDbLine
 10
151.7695534739
 20
107.8714934572
 30
0.0
 11
151.7695534739
 21
107.3566853463
 31
0.0
  0
LINE
  5
155
330
1F
100
AcDbEntity
  8
0
  6
HIDDEN
 62
     7
370
     0
100
AcDbLine
 10
151.7695534739
 20
107.8714934572
 30
0.0
 11
156.7695561561
 21
107.8714934572
 31
0.0
  0
LINE
  5
156
330
1F
100
AcDbEntity
  8
0
  6
HIDDEN
 62
     7
370
     0
100
AcDbLine
 10
145.7695562157
 20
112.4255318589
 30
0.0
 11
145.7695562157
 21
113.6003389417
 31
0.0
  0
LINE
  5
157
330
1F
100
AcDbEntity
  8
0
  6
HIDDEN
 62
     7
370
     0
100
AcDbLine
 10
151.7695534739
 20
113.6003389417
 30
0.0
 11
151.7695534739
 21
112.4255318589
 31
0.0
  0
LINE
  5
158
330
1F
100
AcDbEntity
  8
0
  6
HIDDEN
 62
     7
370
     0
100
AcDbLine
 10
145.7695562157
 20
106.8418772354
 30
0.0
 11
145.7695562157
 21
107.3566853463
 31
0.0
  0
LINE
  5
159
330
1F
100
AcDbEntity
  8
0
  6
HIDDEN
 62
     7
370
     0
100
AcDbLine
 10
151.7695534739
 20
107.3566853463
 30
0.0
 11
151.7695534739
 21
106.8418772354
 31
0.0
  0
LINE
  5
15A
330
1F
100
AcDbEntity
  8
0
  6
HIDDEN
 62
     7
370
     0
100
AcDbLine
 10
156.7695561561
 20
113.0855308308
 30
0.0
 11
158.7695527586
 21
113.0855308308
 31
0.0
  0
LINE
  5
15B
330
1F
100
AcDbEntity
  8
0
  6
HIDDEN
 62
     7
370
     0
100
AcDbLine
 10
156.7695561561
 20
112.57072272
 30
0.0
 11
156.7695561561
 21
113.0855308308
 31
0.0
  0
LINE
  5
15C
330
1F
100
AcDbEntity
  8
0
  6
HIDDEN
 62
     7
370
     0
100
AcDbLine
 10
151.7695534739
 20
112.57072272
 30
0.0
 11
156.7695561561
 21
112.57072272
 31
0.0
  0
LINE
  5
15D
330
1F
100
AcDbEntity
  8
0
  6
HIDDEN
 62
     7
370
     0
100
AcDbLine
 10
151.7695534739
 20
113.6003389417
 30
0.0
 11
158.7695527586
 21
113.6003389417
 31
0.0
  0
LINE
  5
15E
330
1F
100
AcDbEntity
  8
0
  6
HIDDEN
 62
     7
370
     0
100
AcDbLine
 10
145.7695562157
 20
112.57072272
 30
0.0
 11
138.7695550683
 21
112.57072272
 31
0.0
  0
LINE
  5
15F
330
1F
100
AcDbEntity
  8
0
  6
HIDDEN
 62
     7
370
     0
100
AcDbLine
 10
145.7695562157
 20
113.6003389417
 30
0.0
 11
138.7695550683
 21
113.6003389417
 31
0.0
  0
LINE
  5
160
330
1F
100
AcDbEntity
  8
0
  6
HIDDEN
 62
     7
370
     0
100
AcDbLine
 10
151.7695534739
 20
109.1914917504
 30
0.0
 11
158.7695527586
 21
109.1914917504
 31
0.0
  0
LINE
  5
161
330
1F
100
AcDbEntity
  8
0
  6
HIDDEN
 62
     7
370
     0
100
AcDbLine
 10
151.7695534739
 20
106.8418772354
 30
0.0
 11
158.7695527586
 21
106.8418772354
 31
0.0
  0
LINE
  5
162
330
1F
100
AcDbEntity
  8
0
  6
HIDDEN
 62
     7
370
     0
100
AcDbLine
 10
145.7695562157
 20
109.1914917504
 30
0.0
 11
138.7695550683
 21
109.1914917504
 31
0.0
  0
LINE
  5
163
330
1F
100
AcDbEntity
  8
0
  6
HIDDEN
 62
     7
370
     0
100
AcDbLine
 10
145.7695562157
 20
106.8418772354
 30
0.0
 11
138.7695550683
 21
106.8418772354
 31
0.0
  0
LINE
  5
164
330
1F
100
AcDbEntity
  8
0
  6
HIDDEN
 62
     7
370
     0
100
AcDbLine
 10
156.7695561561
 20
114.9124155215
 30
0.0
 11
156.7695561561
 21
113.0855308308
 31
0.0
  0
LINE
  5
165
330
1F
100
AcDbEntity
  8
0
  6
HIDDEN
 62
     7
370
     0
100
AcDbLine
 10
158.7695527586
 20
110.881107177
 30
0.0
 11
156.7695561561
 21
110.881107177
 31
0.0
  0
LINE
  5
166
330
1F
100
AcDbEntity
  8
0
  6
HIDDEN
 62
     7
370
     0
100
AcDbLine
 10
156.7695561561
 20
110.881107177
 30
0.0
 11
156.7695561561
 21
112.57072272
 31
0.0
  0
LINE
  5
167
330
1F
100
AcDbEntity
  8
0
  6
HIDDEN
 62
     7
370
     0
100
AcDbLine
 10
196.6398406538
 20
80.9302177674
 30
0.0
 11
207.5260329756
 21
80.9302177674
 31
0.0
  0
SPLINE
  5
168
330
1F
100
AcDbEntity
  8
0
  6
HIDDEN
 62
     7
370
     0
100
AcDbSpline
210
0.0
220
0.0
230
1.0
 70
     8
 71
     3
 72
    18
 73
    14
 74
     0
 42
0.00000001
 43
0.00000001
 40
0.0
 40
0.0
 40
0.0
 40
0.0
 40
0.0823385118003372
 40
0.1971260989156118
 40
0.3099411431380811
 40
0.4180242485265069
 40
0.5203958741385152
 40
0.537161415475576
 40
0.6343759840275972
 40
0.734480127869953
 40
0.8389931032724127
 40
0.9487437950710503
 40
1.0
 40
1.0
 40
1.0
 40
1.0
 10
196.6398406538237
 20
83.91491104133712
 30
0.0
 10
196.3486033283204
 20
83.90359676202651
 30
0.0
 10
195.651353929712
 20
83.87650931905753
 30
0.0
 10
194.6273592012079
 20
83.62639302775943
 30
0.0
 10
193.748163074739
 20
83.19616480892847
 30
0.0
 10
193.230889950793
 20
82.67975333063939
 30
0.0
 10
193.1457988501404
 20
82.30238652556714
 30
0.0
 10
193.2209444510421
 20
81.96503597022392
 30
0.0
 10
193.4426743904379
 20
81.65033738351902
 30
0.0
 10
194.0705763869488
 20
81.29910571603646
 30
0.0
 10
194.9804189682303
 20
81.05078826785075
 30
0.0
 10
195.8902322655871
 20
80.94234844428574
 30
0.0
 10
196.4588290655445
 20
80.93314702105357
 30
0.0
 10
196.6398406538237
 20
80.93021776743518
 30
0.0
  0
LINE
  5
169
330
1F
100
AcDbEntity
  8
0
  6
HIDDEN
 62
     7
370
     0
100
AcDbLine
 10
196.6398406538
 20
83.9149110413
 30
0.0
 11
207.5260329756
 21
83.9149110413
 31
0.0
  0
LINE
  5
16A
330
1F
100
AcDbEntity
  8
0
  6
HIDDEN
 62
     7
370
     0
100
AcDbLine
 10
207.5260329756
 20
85.8983859814
 30
0.0
 11
207.5260329756
 21
83.9149110413
 31
0.0
  0
LINE
  5
16B
330
1F
100
AcDbEntity
  8
0
  6
HIDDEN
 62
     7
370
     0
100
AcDbLine
 10
196.6398406538
 20
105.2529412716
 30
0.0
 11
207.5260329756
 21
105.2529412716
 31
0.0
  0
SPLINE
  5
16C
330
1F
100
AcDbEntity
  8
0
  6
HIDDEN
 62
     7
370
     0
100
AcDbSpline
210
0.0
220
0.0
230
1.0
 70
     8
 71
     3
 72
    18
 73
    14
 74
     0
 42
0.00000001
 43
0.00000001
 40
0.0
 40
0.0
 40
0.0
 40
0.0
 40
0.0823395940692522
 40
0.1971286772608577
 40
0.3099452095123371
 40
0.4180296927235763
 40
0.5204026901606988
 40
0.5325622778008339
 40
0.6297980472230222
 40
0.729758449246268
 40
0.8340300578443882
 40
0.9435577918550327
 40
0.9999999999999999
 40
0.9999999999999999
 40
0.9999999999999999
 40
0.9999999999999999
 10
196.6398406538237
 20
111.8363824368669
 30
0.0
 10
196.3486032623723
 20
111.8156533658541
 30
0.0
 10
195.651353750826
 20
111.7660260341215
 30
0.0
 10
194.6273605772686
 20
111.3033111420944
 30
0.0
 10
193.7481579049814
 20
110.4776149390883
 30
0.0
 10
193.230908522199
 20
109.4322740977771
 30
0.0
 10
193.147482285389
 20
108.6330342779181
 30
0.0
 10
193.215220410903
 20
107.8901914548688
 30
0.0
 10
193.4209607246332
 20
107.1667949565133
 30
0.0
 10
194.0348478523115
 20
106.2802867659846
 30
0.0
 10
194.9330020087817
 20
105.6106645911487
 30
0.0
 10
195.8542419346051
 20
105.2914956960971
 30
0.0
 10
196.4404768764013
 20
105.2627253452127
 30
0.0
 10
196.6398406538237
 20
105.2529412715911
 30
0.0
  0
LINE
  5
16D
330
1F
100
AcDbEntity
  8
0
  6
HIDDEN
 62
     7
370
     0
100
AcDbLine
 10
196.6398406538
 20
111.8363824369
 30
0.0
 11
207.5260329756
 21
111.8363824369
 31
0.0
  0
LINE
  5
16E
330
1F
100
AcDbEntity
  8
0
  6
HIDDEN
 62
     7
370
     0
100
AcDbLine
 10
207.5260329756
 20
115.1892749056
 30
0.0
 11
207.5260329756
 21
111.8363824369
 31
0.0
  0
LINE
  5
16F
330
1F
100
AcDbEntity
  8
0
  6
HIDDEN
 62
     7
370
     0
100
AcDbLine
 10
196.6398406538
 20
134.5438301957
 30
0.0
 11
207.5260329756
 21
134.5438301957
 31
0.0
  0
SPLINE
  5
170
330
1F
100
AcDbEntity
  8
0
  6
HIDDEN
 62
     7
370
     0
100
AcDbSpline
210
0.0
220
0.0
230
1.0
 70
     8
 71
     3
 72
    18
 73
    14
 74
     0
 42
0.00000001
 43
0.00000001
 40
0.0
 40
0.0
 40
0.0
 40
0.0
 40
0.0823395679521132
 40
0.1971285972954654
 40
0.3099450848892899
 40
0.4180295671653904
 40
0.5204025856143046
 40
0.5326712176537538
 40
0.6299065726178186
 40
0.7298698579387396
 40
0.834147708601275
 40
0.9436807704171657
 40
1.0
 40
1.0
 40
1.0
 40
1.0
 10
196.6398406538237
 20
138.1425798333465
 30
0.0
 10
196.3486032836456
 20
138.1331646691262
 30
0.0
 10
195.6513538847101
 20
138.1106238887676
 30
0.0
 10
194.627360296625
 20
137.898026627484
 30
0.0
 10
193.7481585878192
 20
137.502562271069
 30
0.0
 10
193.2309055848505
 20
136.9736111360731
 30
0.0
 10
193.1474478898132
 20
136.5439374062101
 30
0.0
 10
193.215346011478
 20
136.1318152184374
 30
0.0
 10
193.4214775219172
 20
135.7184158861749
 30
0.0
 10
194.0356802486987
 20
135.1875973982793
 30
0.0
 10
194.9341235385236
 20
134.7715407261996
 30
0.0
 10
195.8550953431019
 20
134.5683933989085
 30
0.0
 10
196.4409121362382
 20
134.5500568294367
 30
0.0
 10
196.6398406538237
 20
134.5438301957427
 30
0.0
  0
LINE
  5
171
330
1F
100
AcDbEntity
  8
0
  6
HIDDEN
 62
     7
370
     0
100
AcDbLine
 10
196.6398406538
 20
138.1425798333
 30
0.0
 11
207.5260329756
 21
138.1425798333
 31
0.0
  0
LINE
  5
172
330
1F
100
AcDbEntity
  8
0
  6
HIDDEN
 62
     7
370
     0
100
AcDbLine
 10
207.5260329756
 20
139.5119984097
 30
0.0
 11
207.5260329756
 21
138.1425798333
 31
0.0
  0
LINE
  5
173
330
1F
100
AcDbEntity
  8
0
  6
HIDDEN
 62
     7
370
     0
100
AcDbLine
 10
207.5260329756
 20
138.1425798333
 30
0.0
 11
207.7952671561
 21
137.5528291262
 31
0.0
  0
LINE
  5
174
330
1F
100
AcDbEntity
  8
0
  6
HIDDEN
 62
     7
370
     0
100
AcDbLine
 10
207.7952671561
 20
137.5528291262
 30
0.0
 11
208.8468122992
 21
135.8713895477
 31
0.0
  0
LINE
  5
175
330
1F
100
AcDbEntity
  8
0
  6
HIDDEN
 62
     7
370
     0
100
AcDbLine
 10
208.8468122992
 20
135.8713895477
 30
0.0
 11
209.0338144216
 21
135.4562711365
 31
0.0
  0
SPLINE
  5
176
330
1F
100
AcDbEntity
  8
0
  6
HIDDEN
 62
     7
370
     0
100
AcDbSpline
210
0.0
220
0.0
230
1.0
 70
     8
 71
     3
 72
     9
 73
     5
 74
     0
 42
0.00000001
 43
0.00000001
 40
0.0
 40
0.0
 40
0.0
 40
0.0
 40
0.5000512537701494
 40
1.0
 40
1.0
 40
1.0
 40
1.0
 10
209.0338144215812
 20
135.4562711364805
 30
0.0
 10
209.0593455808137
 20
135.0463171189351
 30
0.0
 10
209.1104026655426
 20
134.2264931219859
 30
0.0
 10
209.059342091537
 20
133.4066703305382
 30
0.0
 10
209.0338144215812
 20
132.9968009538232
 30
0.0
  0
LINE
  5
177
330
1F
100
AcDbEntity
  8
0
  6
HIDDEN
 62
     7
370
     0
100
AcDbLine
 10
208.8468122992
 20
133.0844141937
 30
0.0
 11
209.0338144216
 21
132.9968009538
 31
0.0
  0
LINE
  5
178
330
1F
100
AcDbEntity
  8
0
  6
HIDDEN
 62
     7
370
     0
100
AcDbLine
 10
207.7952671561
 20
134.4193626589
 30
0.0
 11
208.8468122992
 21
133.0844141937
 31
0.0
  0
LINE
  5
179
330
1F
100
AcDbEntity
  8
0
  6
HIDDEN
 62
     7
370
     0
100
AcDbLine
 10
207.5260329756
 20
134.5438301957
 30
0.0
 11
207.7952671561
 21
134.4193626589
 31
0.0
  0
LINE
  5
17A
330
1F
100
AcDbEntity
  8
0
  6
HIDDEN
 62
     7
370
     0
100
AcDbLine
 10
207.5260329756
 20
111.8363824369
 30
0.0
 11
207.7952671561
 21
111.4337140623
 31
0.0
  0
LINE
  5
17B
330
1F
100
AcDbEntity
  8
0
  6
HIDDEN
 62
     7
370
     0
100
AcDbLine
 10
207.7952671561
 20
111.4337140623
 30
0.0
 11
208.8468122992
 21
111.2135766468
 31
0.0
  0
LINE
  5
17C
330
1F
100
AcDbEntity
  8
0
  6
HIDDEN
 62
     7
370
     0
100
AcDbLine
 10
208.8468122992
 20
111.2135766468
 30
0.0
 11
209.0338144216
 21
110.9301426493
 31
0.0
  0
LINE
  5
17D
330
1F
100
AcDbEntity
  8
0
  6
HIDDEN
 62
     7
370
     0
100
AcDbLine
 10
209.0338144216
 20
110.9301426493
 30
0.0
 11
209.0408701214
 21
110.752229886
 31
0.0
  0
LINE
  5
17E
330
1F
100
AcDbEntity
  8
0
  6
HIDDEN
 62
     7
370
     0
100
AcDbLine
 10
209.0504292163
 20
109.3512421519
 30
0.0
 11
209.0338144216
 21
106.4308654911
 31
0.0
  0
LINE
  5
17F
330
1F
100
AcDbEntity
  8
0
  6
HIDDEN
 62
     7
370
     0
100
AcDbLine
 10
208.8468122992
 20
106.1151676274
 30
0.0
 11
209.0338144216
 21
106.4308654911
 31
0.0
  0
LINE
  5
180
330
1F
100
AcDbEntity
  8
0
  6
HIDDEN
 62
     7
370
     0
100
AcDbLine
 10
207.7952671561
 20
105.7014462001
 30
0.0
 11
208.8468122992
 21
106.1151676274
 31
0.0
  0
LINE
  5
181
330
1F
100
AcDbEntity
  8
0
  6
HIDDEN
 62
     7
370
     0
100
AcDbLine
 10
207.5260329756
 20
105.2529412716
 30
0.0
 11
207.7952671561
 21
105.7014462001
 31
0.0
  0
LINE
  5
182
330
1F
100
AcDbEntity
  8
0
  6
HIDDEN
 62
     7
370
     0
100
AcDbLine
 10
207.5260329756
 20
83.9149110413
 30
0.0
 11
207.7952671561
 21
84.1019932575
 31
0.0
  0
LINE
  5
183
330
1F
100
AcDbEntity
  8
0
  6
HIDDEN
 62
     7
370
     0
100
AcDbLine
 10
207.7952671561
 20
84.1019932575
 30
0.0
 11
208.8468122992
 21
85.5632942564
 31
0.0
  0
LINE
  5
184
330
1F
100
AcDbEntity
  8
0
  6
HIDDEN
 62
     7
370
     0
100
AcDbLine
 10
208.8468122992
 20
85.5632942564
 30
0.0
 11
209.0338144216
 21
85.6949814058
 31
0.0
  0
SPLINE
  5
185
330
1F
100
AcDbEntity
  8
0
  6
HIDDEN
 62
     7
370
     0
100
AcDbSpline
210
0.0
220
0.0
230
1.0
 70
     8
 71
     3
 72
     9
 73
     5
 74
     0
 42
0.00000001
 43
0.00000001
 40
0.0
 40
0.0
 40
0.0
 40
0.0
 40
0.5000511842707926
 40
1.0
 40
1.0
 40
1.0
 40
1.0
 10
209.0338144215812
 20
85.69498140581237
 30
0.0
 10
209.0593455784475
 20
85.35497852277989
 30
0.0
 10
209.1104026655406
 20
84.67504236078817
 30
0.0
 10
209.0593420939022
 20
83.99510600280325
 30
0.0
 10
209.0338144215812
 20
83.65517262585746
 30
0.0
  0
LINE
  5
186
330
1F
100
AcDbEntity
  8
0
  6
HIDDEN
 62
     7
370
     0
100
AcDbLine
 10
208.8468122992
 20
83.2518615223
 30
0.0
 11
209.0338144216
 21
83.6551726259
 31
0.0
  0
LINE
  5
187
330
1F
100
AcDbEntity
  8
0
  6
HIDDEN
 62
     7
370
     0
100
AcDbLine
 10
207.7952671561
 20
81.5031916297
 30
0.0
 11
208.8468122992
 21
83.2518615223
 31
0.0
  0
LINE
  5
188
330
1F
100
AcDbEntity
  8
0
  6
HIDDEN
 62
     7
370
     0
100
AcDbLine
 10
207.5260329756
 20
80.9302177674
 30
0.0
 11
207.7952671561
 21
81.5031916297
 31
0.0
  0
LINE
  5
189
330
1F
100
AcDbEntity
  8
0
  6
HIDDEN
 62
     7
370
     0
100
AcDbLine
 10
196.0250485453
 20
85.9711073733
 30
0.0
 11
196.0250485453
 21
134.4711088038
 31
0.0
  0
LINE
  5
18A
330
1F
100
AcDbEntity
  8
0
  6
HIDDEN
 62
     7
370
     0
100
AcDbLine
 10
198.1695566091
 20
84.9711072094
 30
0.0
 11
198.1695566091
 21
135.4711089677
 31
0.0
  0
LINE
  5
18B
330
1F
100
AcDbEntity
  8
0
  6
HIDDEN
 62
     7
370
     0
100
AcDbLine
 10
202.1695572647
 20
85.7711077131
 30
0.0
 11
202.1695572647
 21
134.6711084641
 31
0.0
  0
SPLINE
  5
18C
330
1F
100
AcDbEntity
  8
0
  6
HIDDEN
 62
     7
370
     0
100
AcDbSpline
210
0.0
220
0.0
230
1.0
 70
     8
 71
     3
 72
    24
 73
    20
 74
     0
 42
0.00000001
 43
0.00000001
 40
0.0
 40
0.0
 40
0.0
 40
0.0
 40
0.2717915154742923
 40
0.5460077737494116
 40
0.7349024193469237
 40
0.7998279164914004
 40
0.8313377038408671
 40
0.8424159633514312
 40
0.8499322228141433
 40
0.8557398292260049
 40
0.8615905772797711
 40
0.8636900842836059
 40
0.8651963993452652
 40
0.8667104787044794
 40
0.8684929488355101
 40
0.8715212797658661
 40
0.8809232815617849
 40
0.924077198737862
 40
1.0
 40
1.0
 40
1.0
 40
1.0
 10
204.0695521744956
 20
127.6905272550164
 30
0.0
 10
204.0741445675213
 20
128.0065358634733
 30
0.0
 10
204.0833703238434
 20
128.6413722986289
 30
0.0
 10
204.1513895764334
 20
129.3447803358617
 30
0.0
 10
204.2354696906575
 20
129.7790727364616
 30
0.0
 10
204.3156925371023
 20
129.9886552790119
 30
0.0
 10
204.3600610959085
 20
130.0636619231773
 30
0.0
 10
204.388934525384
 20
130.097261870102
 30
0.0
 10
204.4064047333947
 20
130.113163029899
 30
0.0
 10
204.4235768624181
 20
130.1250560637301
 30
0.0
 10
204.4399652890632
 20
130.1330549213467
 30
0.0
 10
204.456388530761
 20
130.136855418601
 30
0.0
 10
204.4669164144839
 20
130.1378566074905
 30
0.0
 10
204.477212397595
 20
130.1375557967941
 30
0.0
 10
204.4893476661388
 20
130.1356100536136
 30
0.0
 10
204.5106579346312
 20
130.1286082421634
 30
0.0
 10
204.5616884786237
 20
130.0937171560223
 30
0.0
 10
204.6162206649204
 20
130.0052123621595
 30
0.0
 10
204.6487892752789
 20
129.9166021489912
 30
0.0
 10
204.6695548805465
 20
129.8601046598731
 30
0.0
  0
LINE
  5
18D
330
1F
100
AcDbEntity
  8
0
  6
HIDDEN
 62
     7
370
     0
100
AcDbLine
 10
204.0695521745
 20
93.9500701077
 30
0.0
 11
204.0695521745
 21
127.690527255
 31
0.0
  0
SPLINE
  5
18E
330
1F
100
AcDbEntity
  8
0
  6
HIDDEN
 62
     7
370
     0
100
AcDbSpline
210
0.0
220
0.0
230
1.0
 70
     8
 71
     3
 72
    24
 73
    20
 74
     0
 42
0.00000001
 43
0.00000001
 40
0.0
 40
0.0
 40
0.0
 40
0.0
 40
0.0668356627830969
 40
0.0992730491830813
 40
0.1106548512517713
 40
0.1183724506547157
 40
0.1236701217077532
 40
0.1291443237536039
 40
0.1312348637871473
 40
0.1333452581149699
 40
0.1347718423257123
 40
0.1361976192023836
 40
0.1382976286343476
 40
0.1423415966216321
 40
0.1571640859032155
 40
0.2159357158928172
 40
0.4501946301460137
 40
0.7238384015180209
 40
0.9999999999999999
 40
0.9999999999999999
 40
0.9999999999999999
 40
0.9999999999999999
 10
204.6695548805465
 20
91.35808762379276
 30
0.0
 10
204.6520046093786
 20
91.29447641891345
 30
0.0
 10
204.6259366561292
 20
91.19999275543768
 30
0.0
 10
204.5807138756397
 20
91.10021891410963
 30
0.0
 10
204.5514480275946
 20
91.05521216852658
 30
0.0
 10
204.5342521832372
 20
91.034468937849
 30
0.0
 10
204.5180879821012
 20
91.01939631673527
 30
0.0
 10
204.5036736450505
 20
91.00950169187263
 30
0.0
 10
204.4889396378887
 20
91.00349689999301
 30
0.0
 10
204.4783024800318
 20
91.00103023565158
 30
0.0
 10
204.4677162991152
 20
91.00054076018021
 30
0.0
 10
204.4574391293916
 20
91.00163675937792
 30
0.0
 10
204.4439705136485
 20
91.00544468374206
 30
0.0
 10
204.4164994801699
 20
91.02038474943708
 30
0.0
 10
204.3595146695997
 20
91.08659445771107
 30
0.0
 10
204.2490521762397
 20
91.36576451646498
 30
0.0
 10
204.1583863563695
 20
91.93842781115639
 30
0.0
 10
204.0833352790758
 20
92.84032166564442
 30
0.0
 10
204.0741605478795
 20
93.57902633059562
 30
0.0
 10
204.0695521744956
 20
93.95007010765659
 30
0.0
  0
LINE
  5
18F
330
1F
100
AcDbEntity
  8
0
  6
HIDDEN
 62
     7
370
     0
100
AcDbLine
 10
204.6695548805
 20
101.0667808748
 30
0.0
 11
204.6695548805
 21
91.3580876238
 31
0.0
  0
LINE
  5
190
330
1F
100
AcDbEntity
  8
0
  6
HIDDEN
 62
     7
370
     0
100
AcDbLine
 10
204.6695548805
 20
129.8601046599
 30
0.0
 11
204.6695548805
 21
117.3424950264
 31
0.0
  0
LINE
  5
191
330
1F
100
AcDbEntity
  8
0
  6
HIDDEN
 62
     7
370
     0
100
AcDbLine
 10
211.3117102298
 20
93.4711076713
 30
0.0
 11
211.3117102298
 21
126.9711085058
 31
0.0
  0
ARC
  5
192
330
1F
100
AcDbEntity
  8
0
  6
HIDDEN
 62
     7
370
     0
100
AcDbCircle
 10
196.4921028998
 20
82.0543879919
 30
0.0
 40
3.971214559491303
100
AcDbArc
 50
87.8679813426
 51
123.1240747167
  0
SPLINE
  5
193
330
1F
100
AcDbEntity
  8
0
  6
HIDDEN
 62
     7
370
     0
100
AcDbSpline
210
0.0
220
0.0
230
1.0
 70
     8
 71
     3
 72
    24
 73
    20
 74
     0
 42
0.00000001
 43
0.00000001
 40
0.0
 40
0.0
 40
0.0
 40
0.0
 40
0.3313913429916555
 40
0.7329806040360319
 40
0.7989071291393445
 40
0.8308451656496086
 40
0.8420642123522644
 40
0.849673174973658
 40
0.8548998953418084
 40
0.8603246972111818
 40
0.8623843640669446
 40
0.8644626470860844
 40
0.8658880008899199
 40
0.8673103614435151
 40
0.8694386790493429
 40
0.8735734644499052
 40
0.8889112556516428
 40
0.9497213325324189
 40
1.0
 40
1.0
 40
1.0
 40
1.0
 10
204.0695521744956
 20
105.490806179422
 30
0.0
 10
204.077584820561
 20
104.8059550248589
 30
0.0
 10
204.0953516508949
 20
103.2911821632182
 30
0.0
 10
204.1767568829725
 20
101.6978881845524
 30
0.0
 10
204.3145701536087
 20
100.7410156094821
 30
0.0
 10
204.3592820318744
 20
100.5354810313207
 30
0.0
 10
204.3883683610587
 20
100.4420248316935
 30
0.0
 10
204.4054373079557
 20
100.398692551432
 30
0.0
 10
204.4215430367372
 20
100.3670882907967
 30
0.0
 10
204.4358942766438
 20
100.3462843005792
 30
0.0
 10
204.4505950517874
 20
100.333727424804
 30
0.0
 10
204.4611743729314
 20
100.3286302764163
 30
0.0
 10
204.4716942112382
 20
100.3277025954524
 30
0.0
 10
204.4819857972669
 20
100.3301554359709
 30
0.0
 10
204.4955762389128
 20
100.3385314126961
 30
0.0
 10
204.5235900816992
 20
100.3715832959734
 30
0.0
 10
204.5814562798189
 20
100.51747767367
 30
0.0
 10
204.62668035834
 20
100.7566562761074
 30
0.0
 10
204.656196087587
 20
100.970152618853
 30
0.0
 10
204.6695548805465
 20
101.0667808748065
 30
0.0
  0
LINE
  5
194
330
1F
100
AcDbEntity
  8
0
  6
HIDDEN
 62
     7
370
     0
100
AcDbLine
 10
204.6695548805
 20
91.3580876238
 30
0.0
 11
204.6695548805
 21
89.1837027318
 31
0.0
  0
LWPOLYLINE
  5
195
330
1F
100
AcDbEntity
  8
0
  6
HIDDEN
 62
     7
370
     0
100
AcDbPolyline
 90
        9
 70
   128
 43
0.0
 10
194.3220171842
 20
85.3802372164
 10
194.1739294442
 20
85.6036540515
 10
194.0869439158
 20
85.9643143065
 10
194.1739294442
 20
86.3249764241
 10
194.4289628181
 20
86.6610590763
 10
194.8346692833
 20
86.9496591783
 10
195.3633922848
 20
87.1711109228
 10
195.9791008147
 20
87.3103212959
 10
196.6398406538
 20
87.3578019834
  0
LINE
  5
196
330
1F
100
AcDbEntity
  8
0
  6
HIDDEN
 62
     7
370
     0
100
AcDbLine
 10
196.6398406538
 20
86.0228535182
 30
0.0
 11
207.7952671561
 21
86.0228535182
 31
0.0
  0
LINE
  5
197
330
1F
100
AcDbEntity
  8
0
  6
HIDDEN
 62
     7
370
     0
100
AcDbLine
 10
204.6695548805
 20
131.1786599851
 30
0.0
 11
204.6695548805
 21
129.8601046599
 31
0.0
  0
SPLINE
  5
198
330
1F
100
AcDbEntity
  8
0
  6
HIDDEN
 62
     7
370
     0
100
AcDbSpline
210
0.0
220
0.0
230
1.0
 70
     8
 71
     3
 72
    24
 73
    20
 74
     0
 42
0.00000001
 43
0.00000001
 40
0.0
 40
0.0
 40
0.0
 40
0.0
 40
0.0668353903055703
 40
0.0992726627894421
 40
0.1106545257972586
 40
0.1183720450853425
 40
0.1236696712013261
 40
0.1291438693127684
 40
0.1312344796268995
 40
0.1333447957297056
 40
0.1347713791586986
 40
0.1361971507369689
 40
0.1382971259879242
 40
0.1423410873393063
 40
0.1571635625670365
 40
0.2159349164547018
 40
0.450193126598635
 40
0.7250857958757628
 40
1.0
 40
1.0
 40
1.0
 40
1.0
 10
204.6695548805465
 20
117.3424950263678
 30
0.0
 10
204.6520046923391
 20
117.4760264800315
 30
0.0
 10
204.6259368575015
 20
117.674364859006
 30
0.0
 10
204.580713547983
 20
117.8917091411994
 30
0.0
 10
204.5514482397253
 20
117.9907725483408
 30
0.0
 10
204.5342521058227
 20
118.0366811970807
 30
0.0
 10
204.5180880755833
 20
118.0701558028661
 30
0.0
 10
204.5036730798568
 20
118.092189841992
 30
0.0
 10
204.488940158718
 20
118.1055921446011
 30
0.0
 10
204.4783021992864
 20
118.1110955865416
 30
0.0
 10
204.4677163356464
 20
118.1121918085929
 30
0.0
 10
204.4574391994882
 20
118.1097444980416
 30
0.0
 10
204.4439703582383
 20
118.1012401203308
 30
0.0
 10
204.4164996004172
 20
118.0679343527435
 30
0.0
 10
204.3595153426272
 20
117.9209858978579
 30
0.0
 10
204.2490242809264
 20
117.3137676221082
 30
0.0
 10
204.1586631103807
 20
116.1619246455442
 30
0.0
 10
204.0812271502124
 20
114.541100199368
 30
0.0
 10
204.0734439346856
 20
113.3876011854756
 30
0.0
 10
204.0695521744956
 20
112.8108290883927
 30
0.0
  0
LWPOLYLINE
  5
199
330
1F
100
AcDbEntity
  8
0
  6
HIDDEN
 62
     7
370
     0
100
AcDbPolyline
 90
        9
 70
   128
 43
0.0
 10
194.7491589698
 20
85.5469644464
 10
194.5905361089
 20
85.7048310734
 10
194.4098744306
 20
86.0406715817
 10
194.4098744306
 20
86.3906905449
 10
194.5905361089
 20
86.7265310533
 10
194.9372116241
 20
87.020985449
 10
195.421834639
 20
87.2501988358
 10
196.0051256928
 20
87.3956025041
 10
196.6398406538
 20
87.4454152233
  0
LINE
  5
19A
330
1F
100
AcDbEntity
  8
0
  6
HIDDEN
 62
     7
370
     0
100
AcDbLine
 10
196.6398406538
 20
87.3578019834
 30
0.0
 11
208.8468122992
 21
87.3578019834
 31
0.0
  0
LINE
  5
19B
330
1F
100
AcDbEntity
  8
0
  6
HIDDEN
 62
     7
370
     0
100
AcDbLine
 10
196.6398406538
 20
87.4454152233
 30
0.0
 11
209.0338144216
 21
87.4454152233
 31
0.0
  0
ARC
  5
19C
330
1F
100
AcDbEntity
  8
0
  6
HIDDEN
 62
     7
370
     0
100
AcDbCircle
 10
196.2459602302
 20
139.7834954904
 30
0.0
 40
3.465727598094282
100
AcDbArc
 50
228.4316235752
 51
276.5257732669
  0
LWPOLYLINE
  5
19D
330
1F
100
AcDbEntity
  8
0
  6
HIDDEN
 62
     7
370
     0
100
AcDbPolyline
 90
       10
 70
   128
 43
0.0
 10
196.6398406538
 20
134.8789219207
 10
195.9791008147
 20
134.9183019645
 10
195.3633922848
 20
135.0337580241
 10
194.8346692833
 20
135.2174222863
 10
194.4289628181
 20
135.4567796386
 10
194.1739294442
 20
135.735515172
 10
194.0869439158
 20
136.0346373565
 10
194.1739294442
 20
136.333759541
 10
194.4289628181
 20
136.6124950743
 10
194.7715256128
 20
136.8222289182
  0
LINE
  5
19E
330
1F
100
AcDbEntity
  8
0
  6
HIDDEN
 62
     7
370
     0
100
AcDbLine
 10
196.6398406538
 20
136.3402229197
 30
0.0
 11
207.7952671561
 21
136.3402229197
 31
0.0
  0
LWPOLYLINE
  5
19F
330
1F
100
AcDbEntity
  8
0
  6
HIDDEN
 62
     7
370
     0
100
AcDbPolyline
 90
       11
 70
   128
 43
0.0
 10
196.6398406538
 20
134.7472347713
 10
196.0051256928
 20
134.7885482407
 10
195.421834639
 20
134.9091414756
 10
194.9372116241
 20
135.0992449022
 10
194.5905361089
 20
135.3434563077
 10
194.4098744306
 20
135.6219925381
 10
194.4098744306
 20
135.9122876472
 10
194.5905361089
 20
136.1908238775
 10
194.9372116241
 20
136.435035283
 10
195.421834639
 20
136.625136847
 10
195.5276328835
 20
136.6540935285
  0
LINE
  5
1A0
330
1F
100
AcDbEntity
  8
0
  6
HIDDEN
 62
     7
370
     0
100
AcDbLine
 10
196.6398406538
 20
134.8789219207
 30
0.0
 11
208.8468122992
 21
134.8789219207
 31
0.0
  0
LINE
  5
1A1
330
1F
100
AcDbEntity
  8
0
  6
HIDDEN
 62
     7
370
     0
100
AcDbLine
 10
196.6398406538
 20
134.7472347713
 30
0.0
 11
209.0338144216
 21
134.7472347713
 31
0.0
  0
LWPOLYLINE
  5
1A2
330
1F
100
AcDbEntity
  8
0
  6
HIDDEN
 62
     7
370
     0
100
AcDbPolyline
 90
       14
 70
   128
 43
0.0
 10
196.6398406538
 20
84.1019932575
 10
195.9529343757
 20
84.0642355777
 10
195.305955759
 20
83.9531548715
 10
194.7364855322
 20
83.7752070672
 10
194.2776415261
 20
83.5407354332
 10
193.9560744676
 20
83.2633670814
 10
193.7904853138
 20
82.9592176176
 10
193.7904853138
 20
82.6459672696
 10
193.9560744676
 20
82.3418178058
 10
194.2776415261
 20
82.064449454
 10
194.7364855322
 20
81.82997782
 10
195.305955759
 20
81.6520300157
 10
195.9529343757
 20
81.5409493095
 10
196.6398406538
 20
81.5031916297
  0
LWPOLYLINE
  5
1A3
330
1F
100
AcDbEntity
  8
0
  6
HIDDEN
 62
     7
370
     0
100
AcDbPolyline
 90
       13
 70
   128
 43
0.0
 10
196.6398406538
 20
85.5632942564
 10
195.9791008147
 20
85.5239142127
 10
195.3633922848
 20
85.4084581531
 10
194.8346692833
 20
85.2247938908
 10
194.4289628181
 20
84.9854365385
 10
194.1739294442
 20
84.7067010052
 10
194.0869439158
 20
84.4075788207
 10
194.1739294442
 20
84.1084566361
 10
194.4289628181
 20
83.8297211028
 10
194.8346692833
 20
83.5903637505
 10
195.3633922848
 20
83.4066994882
 10
195.9791008147
 20
83.2912434287
 10
196.6398406538
 20
83.2518615223
  0
LWPOLYLINE
  5
1A4
330
1F
100
AcDbEntity
  8
0
  6
HIDDEN
 62
     7
370
     0
100
AcDbPolyline
 90
       12
 70
   128
 43
0.0
 10
196.6398406538
 20
85.6949814058
 10
196.0051256928
 20
85.6536679364
 10
195.421834639
 20
85.5330747015
 10
194.9372116241
 20
85.3429712749
 10
194.5905361089
 20
85.0987598694
 10
194.4098744306
 20
84.8202236391
 10
194.4098744306
 20
84.5299285299
 10
194.5905361089
 20
84.2513922996
 10
194.9372116241
 20
84.0071808941
 10
195.421834639
 20
83.8170793302
 10
196.0051256928
 20
83.6964860953
 10
196.6398406538
 20
83.6551726259
  0
LINE
  5
1A5
330
1F
100
AcDbEntity
  8
0
  6
HIDDEN
 62
     7
370
     0
100
AcDbLine
 10
196.6398406538
 20
83.2518615223
 30
0.0
 11
208.8468122992
 21
83.2518615223
 31
0.0
  0
LINE
  5
1A6
330
1F
100
AcDbEntity
  8
0
  6
HIDDEN
 62
     7
370
     0
100
AcDbLine
 10
196.6398406538
 20
83.6551726259
 30
0.0
 11
209.0338144216
 21
83.6551726259
 31
0.0
  0
LINE
  5
1A7
330
1F
100
AcDbEntity
  8
0
  6
HIDDEN
 62
     7
370
     0
100
AcDbLine
 10
196.6398406538
 20
81.5031916297
 30
0.0
 11
207.7952671561
 21
81.5031916297
 31
0.0
  0
LWPOLYLINE
  5
1A8
330
1F
100
AcDbEntity
  8
0
  6
HIDDEN
 62
     7
370
     0
100
AcDbPolyline
 90
       13
 70
   128
 43
0.0
 10
196.6398406538
 20
135.8713895477
 10
195.9791008147
 20
135.8239069975
 10
195.3633922848
 20
135.684698487
 10
194.8346692833
 20
135.4632467426
 10
194.4289628181
 20
135.1746447779
 10
194.1739294442
 20
134.8385621256
 10
194.0869439158
 20
134.4779018707
 10
194.1739294442
 20
134.1172397531
 10
194.4289628181
 20
133.7811571009
 10
194.8346692833
 20
133.4925569988
 10
195.3633922848
 20
133.2711052544
 10
195.9791008147
 20
133.1318948812
 10
196.6398406538
 20
133.0844141937
  0
LWPOLYLINE
  5
1A9
330
1F
100
AcDbEntity
  8
0
  6
HIDDEN
 62
     7
370
     0
100
AcDbPolyline
 90
       12
 70
   128
 43
0.0
 10
196.6398406538
 20
135.4562711365
 10
196.0051256928
 20
135.4064565546
 10
195.421834639
 20
135.261054749
 10
194.9372116241
 20
135.0318413622
 10
194.5905361089
 20
134.7373851038
 10
194.4098744306
 20
134.4015445954
 10
194.4098744306
 20
134.0515256322
 10
194.5905361089
 20
133.7156851239
 10
194.9372116241
 20
133.4212307281
 10
195.421834639
 20
133.1920173413
 10
196.0051256928
 20
133.046613673
 10
196.6398406538
 20
132.9968009538
  0
LWPOLYLINE
  5
1AA
330
1F
100
AcDbEntity
  8
0
  6
HIDDEN
 62
     7
370
     0
100
AcDbPolyline
 90
       14
 70
   128
 43
0.0
 10
196.6398406538
 20
137.5528291262
 10
195.9529343757
 20
137.5073023535
 10
195.305955759
 20
137.373368854
 10
194.7364855322
 20
137.1588126219
 10
194.2776415261
 20
136.8761022038
 10
193.9560744676
 20
136.5416679926
 10
193.7904853138
 20
136.1749448276
 10
193.7904853138
 20
135.7972469575
 10
193.9560744676
 20
135.4305237926
 10
194.2776415261
 20
135.0960895813
 10
194.7364855322
 20
134.8133791632
 10
195.305955759
 20
134.5988229311
 10
195.9529343757
 20
134.4648894317
 10
196.6398406538
 20
134.4193626589
  0
LINE
  5
1AB
330
1F
100
AcDbEntity
  8
0
  6
HIDDEN
 62
     7
370
     0
100
AcDbLine
 10
196.6398406538
 20
135.4562711365
 30
0.0
 11
209.0338144216
 21
135.4562711365
 31
0.0
  0
LINE
  5
1AC
330
1F
100
AcDbEntity
  8
0
  6
HIDDEN
 62
     7
370
     0
100
AcDbLine
 10
196.6398406538
 20
135.8713895477
 30
0.0
 11
208.8468122992
 21
135.8713895477
 31
0.0
  0
LINE
  5
1AD
330
1F
100
AcDbEntity
  8
0
  6
HIDDEN
 62
     7
370
     0
100
AcDbLine
 10
196.6398406538
 20
137.5528291262
 30
0.0
 11
207.7952671561
 21
137.5528291262
 31
0.0
  0
LINE
  5
1AE
330
1F
100
AcDbEntity
  8
0
  6
HIDDEN
 62
     7
370
     0
100
AcDbLine
 10
196.6398406538
 20
85.5632942564
 30
0.0
 11
208.8468122992
 21
85.5632942564
 31
0.0
  0
LINE
  5
1AF
330
1F
100
AcDbEntity
  8
0
  6
HIDDEN
 62
     7
370
     0
100
AcDbLine
 10
196.6398406538
 20
85.6949814058
 30
0.0
 11
209.0338144216
 21
85.6949814058
 31
0.0
  0
LINE
  5
1B0
330
1F
100
AcDbEntity
  8
0
  6
HIDDEN
 62
     7
370
     0
100
AcDbLine
 10
196.6398406538
 20
84.1019932575
 30
0.0
 11
207.7952671561
 21
84.1019932575
 31
0.0
  0
LINE
  5
1B1
330
1F
100
AcDbEntity
  8
0
  6
HIDDEN
 62
     7
370
     0
100
AcDbLine
 10
196.6398406538
 20
133.0844141937
 30
0.0
 11
208.8468122992
 21
133.0844141937
 31
0.0
  0
LINE
  5
1B2
330
1F
100
AcDbEntity
  8
0
  6
HIDDEN
 62
     7
370
     0
100
AcDbLine
 10
196.6398406538
 20
132.9968009538
 30
0.0
 11
209.0338144216
 21
132.9968009538
 31
0.0
  0
LINE
  5
1B3
330
1F
100
AcDbEntity
  8
0
  6
HIDDEN
 62
     7
370
     0
100
AcDbLine
 10
196.6398406538
 20
134.4193626589
 30
0.0
 11
207.7952671561
 21
134.4193626589
 31
0.0
  0
LINE
  5
1B4
330
1F
100
AcDbEntity
  8
0
  6
HIDDEN
 62
     7
370
     0
100
AcDbLine
 10
196.6398406538
 20
106.4308654911
 30
0.0
 11
209.0338144216
 21
106.4308654911
 31
0.0
  0
ARC
  5
1B5
330
1F
100
AcDbEntity
  8
0
  6
HIDDEN
 62
     7
370
     0
100
AcDbCircle
 10
196.6373588002
 20
108.6805040702
 30
0.0
 40
2.249639948106263
100
AcDbArc
 50
89.9367899882
 51
270.0632100118
  0
LINE
  5
1B6
330
1F
100
AcDbEntity
  8
0
  6
HIDDEN
 62
     7
370
     0
100
AcDbLine
 10
196.6398406538
 20
110.9301426493
 30
0.0
 11
209.0338144216
 21
110.9301426493
 31
0.0
  0
ARC
  5
1B7
330
1F
100
AcDbEntity
  8
0
  6
HIDDEN
 62
     7
370
     0
100
AcDbCircle
 10
196.6368710485
 20
108.6643721371
 30
0.0
 40
2.549206239372927
100
AcDbArc
 50
89.9332553444
 51
270.0667446556
  0
LINE
  5
1B8
330
1F
100
AcDbEntity
  8
0
  6
HIDDEN
 62
     7
370
     0
100
AcDbLine
 10
196.6398406538
 20
106.1151676274
 30
0.0
 11
208.8468122992
 21
106.1151676274
 31
0.0
  0
LINE
  5
1B9
330
1F
100
AcDbEntity
  8
0
  6
HIDDEN
 62
     7
370
     0
100
AcDbLine
 10
196.6398406538
 20
111.2135766468
 30
0.0
 11
208.8468122992
 21
111.2135766468
 31
0.0
  0
ARC
  5
1BA
330
1F
100
AcDbEntity
  8
0
  6
HIDDEN
 62
     7
370
     0
100
AcDbCircle
 10
196.6366322376
 20
108.5675801312
 30
0.0
 40
2.866135726879771
100
AcDbArc
 50
89.9358618143
 51
270.0641381857
  0
LINE
  5
1BB
330
1F
100
AcDbEntity
  8
0
  6
HIDDEN
 62
     7
370
     0
100
AcDbLine
 10
196.6398406538
 20
105.7014462001
 30
0.0
 11
207.7952671561
 21
105.7014462001
 31
0.0
  0
LINE
  5
1BC
330
1F
100
AcDbEntity
  8
0
  6
HIDDEN
 62
     7
370
     0
100
AcDbLine
 10
196.6398406538
 20
111.4337140623
 30
0.0
 11
207.7952671561
 21
111.4337140623
 31
0.0
  0
LINE
  5
1BD
330
1F
100
AcDbEntity
  8
0
  6
HIDDEN
 62
     7
370
     0
100
AcDbLine
 10
115.7695545579
 20
124.5217385165
 30
0.0
 11
115.7695545579
 21
122.6150483287
 31
0.0
  0
LINE
  5
1BE
330
1F
100
AcDbEntity
  8
0
  6
HIDDEN
 62
     7
370
     0
100
AcDbLine
 10
123.7695544723
 20
122.6150483287
 30
0.0
 11
123.7695544723
 21
124.5189436174
 31
0.0
  0
LINE
  5
1BF
330
1F
100
AcDbEntity
  8
0
  6
HIDDEN
 62
     7
370
     0
100
AcDbLine
 10
111.7695543679
 20
84.9021874762
 30
0.0
 11
111.8637151402
 21
85.5721753485
 31
0.0
  0
LINE
  5
1C0
330
1F
100
AcDbEntity
  8
0
  6
HIDDEN
 62
     7
370
     0
100
AcDbLine
 10
111.8637151402
 20
134.8700408287
 30
0.0
 11
111.7695543679
 21
135.5400287009
 31
0.0
  0
LINE
  5
1C1
330
1F
100
AcDbEntity
  8
0
  6
HIDDEN
 62
     7
370
     0
100
AcDbLine
 10
195.2695522222
 20
85.221107716
 30
0.0
 11
196.769555262
 21
86.7211088932
 31
0.0
  0
LINE
  5
1C2
330
1F
100
AcDbEntity
  8
0
  6
HIDDEN
 62
     7
370
     0
100
AcDbLine
 10
196.769555262
 20
133.7211072839
 30
0.0
 11
195.2695522222
 21
135.2211084611
 31
0.0
  0
LINE
  5
1C3
330
1F
100
AcDbEntity
  8
0
  6
HIDDEN
 62
     7
370
     0
100
AcDbLine
 10
195.2695522222
 20
135.2211084611
 30
0.0
 11
186.2695563349
 21
135.2211084611
 31
0.0
  0
LINE
  5
1C4
330
1F
100
AcDbEntity
  8
0
  6
HIDDEN
 62
     7
370
     0
100
AcDbLine
 10
186.2695563349
 20
85.221107716
 30
0.0
 11
195.2695522222
 21
85.221107716
 31
0.0
  0
ARC
  5
1C5
330
1F
100
AcDbEntity
  8
0
  6
HIDDEN
 62
     7
370
     0
100
AcDbCircle
 10
111.2695476153
 20
85.6556804942
 30
0.0
 40
0.6000067526677242
100
AcDbArc
 50
352.0
 51
0.0
  0
ARC
  5
1C6
330
1F
100
AcDbEntity
  8
0
  6
HIDDEN
 62
     7
370
     0
100
AcDbCircle
 10
111.2695476153
 20
85.6556804942
 30
0.0
 40
0.6000067526677242
100
AcDbArc
 50
0.0
 51
33.5571153394
  0
ARC
  5
1C7
330
1F
100
AcDbEntity
  8
0
  6
HIDDEN
 62
     7
370
     0
100
AcDbCircle
 10
111.2695476153
 20
134.7865356829
 30
0.0
 40
0.6000067526677222
100
AcDbArc
 50
348.75
 51
8.0
  0
LWPOLYLINE
  5
1C8
330
1F
100
AcDbEntity
  8
0
  6
HIDDEN
 62
     7
370
     0
100
AcDbPolyline
 90
        3
 70
   128
 43
0.0
 10
111.8580254069
 20
134.6694805122
 10
111.8238815751
 20
134.5569227285
 10
111.7695543679
 20
134.4548702634
  0
LINE
  5
1C9
330
1F
100
AcDbEntity
  8
0
  6
HIDDEN
 62
     7
370
     0
100
AcDbLine
 10
111.8695543654
 20
85.6556795932
 30
0.0
 11
111.8695543654
 21
134.786536584
 31
0.0
  0
ARC
  5
1CA
330
1F
100
AcDbEntity
  8
0
  6
HIDDEN
 62
     7
370
     0
100
AcDbCircle
 10
195.7695543679
 20
131.0903948264
 30
0.0
 40
1.000000000000057
100
AcDbArc
 50
278.0
 51
0.0
  0
ARC
  5
1CB
330
1F
100
AcDbEntity
  8
0
  6
HIDDEN
 62
     7
370
     0
100
AcDbCircle
 10
195.7695543679
 20
89.3518213508
 30
0.0
 40
1.000000000000057
100
AcDbArc
 50
0.0
 51
82.0
  0
LINE
  5
1CC
330
1F
100
AcDbEntity
  8
0
  6
HIDDEN
 62
     7
370
     0
100
AcDbLine
 10
94.8519903931
 20
90.2211085356
 30
0.0
 11
99.0436618912
 21
90.2211085356
 31
0.0
  0
LINE
  5
1CD
330
1F
100
AcDbEntity
  8
0
  6
HIDDEN
 62
     7
370
     0
100
AcDbLine
 10
99.0436618912
 20
130.2211076415
 30
0.0
 11
94.8519903931
 21
130.2211076415
 31
0.0
  0
ARC
  5
1CE
330
1F
100
AcDbEntity
  8
0
  6
HIDDEN
 62
     7
370
     0
100
AcDbCircle
 10
105.5245563695
 20
98.2211080886
 30
0.0
 40
8.000000000000014
100
AcDbArc
 50
276.8782348276
 51
321.3178125465
  0
ARC
  5
1CF
330
1F
100
AcDbEntity
  8
0
  6
HIDDEN
 62
     7
370
     0
100
AcDbCircle
 10
105.5245563695
 20
122.2211080886
 30
0.0
 40
8.000000000000004
100
AcDbArc
 50
38.6821874535
 51
83.1187538369
  0
ARC
  5
1D0
330
1F
100
AcDbEntity
  8
0
  6
HIDDEN
 62
     7
370
     0
100
AcDbCircle
 10
94.8519899332
 20
90.8211080886
 30
0.0
 40
0.6000000000000085
100
AcDbArc
 50
210.0
 51
270.0
  0
ARC
  5
1D1
330
1F
100
AcDbEntity
  8
0
  6
HIDDEN
 62
     7
370
     0
100
AcDbCircle
 10
94.8519899332
 20
129.6211080886
 30
0.0
 40
0.6000000000000032
100
AcDbArc
 50
90.0
 51
150.0
  0
LINE
  5
1D2
330
1F
100
AcDbEntity
  8
0
  6
HIDDEN
 62
     7
370
     0
100
AcDbLine
 10
195.908730081
 20
130.1001269764
 30
0.0
 11
162.9715498301
 21
125.4711082599
 31
0.0
  0
LINE
  5
1D3
330
1F
100
AcDbEntity
  8
0
  6
HIDDEN
 62
     7
370
     0
100
AcDbLine
 10
162.9715498301
 20
94.9711079172
 30
0.0
 11
195.908730081
 21
90.3420892007
 31
0.0
  0
LINE
  5
1D4
330
1F
100
AcDbEntity
  8
0
  6
HIDDEN
 62
     7
370
     0
100
AcDbLine
 10
94.3323738637
 20
129.9211081512
 30
0.0
 11
92.7735298636
 21
127.2211090124
 31
0.0
  0
LINE
  5
1D5
330
1F
100
AcDbEntity
  8
0
  6
HIDDEN
 62
     7
370
     0
100
AcDbLine
 10
92.7735298636
 20
93.2211071647
 30
0.0
 11
94.3323738637
 21
90.521108026
 31
0.0
  0
LINE
  5
1D6
330
1F
100
AcDbEntity
  8
0
  6
HIDDEN
 62
     7
370
     0
100
AcDbLine
 10
115.7695545579
 20
137.5007737822
 30
0.0
 11
115.7695545579
 21
134.1667097456
 31
0.0
  0
LINE
  5
1D7
330
1F
100
AcDbEntity
  8
0
  6
HIDDEN
 62
     7
370
     0
100
AcDbLine
 10
123.7695544723
 20
134.1667097456
 30
0.0
 11
123.7695544723
 21
137.4954410291
 31
0.0
  0
ARC
  5
1D8
330
1F
100
AcDbEntity
  8
0
  6
HIDDEN
 62
     7
370
     0
100
AcDbCircle
 10
120.2195543679
 20
94.4961080886
 30
0.0
 40
1.500000000000001
100
AcDbArc
 50
238.2116693829
 51
0.0
  0
ARC
  5
1D9
330
1F
100
AcDbEntity
  8
0
  6
HIDDEN
 62
     7
370
     0
100
AcDbCircle
 10
120.2195543679
 20
125.9461080886
 30
0.0
 40
1.5
100
AcDbArc
 50
0.0
 51
121.7883306171
  0
LINE
  5
1DA
330
1F
100
AcDbEntity
  8
0
  6
HIDDEN
 62
     7
370
     0
100
AcDbLine
 10
89.9695541474
 20
93.2211071647
 30
0.0
 11
92.7735298636
 21
93.2211071647
 31
0.0
  0
LINE
  5
1DB
330
1F
100
AcDbEntity
  8
0
  6
HIDDEN
 62
     7
370
     0
100
AcDbLine
 10
92.7735298636
 20
127.2211090124
 30
0.0
 11
85.9695534918
 21
127.2211090124
 31
0.0
  0
LINE
  5
1DC
330
1F
100
AcDbEntity
  8
0
  6
HIDDEN
 62
     7
370
     0
100
AcDbLine
 10
111.7695543679
 20
93.2211071647
 30
0.0
 11
119.42938033
 21
93.2211071647
 31
0.0
  0
LINE
  5
1DD
330
1F
100
AcDbEntity
  8
0
  6
HIDDEN
 62
     7
370
     0
100
AcDbLine
 10
119.42938033
 20
127.2211090124
 30
0.0
 11
111.7695543679
 21
127.2211090124
 31
0.0
  0
LINE
  5
1DE
330
1F
100
AcDbEntity
  8
0
  6
HIDDEN
 62
     7
370
     0
100
AcDbLine
 10
158.7695527586
 20
125.4711082599
 30
0.0
 11
154.2230557415
 21
115.7211080588
 31
0.0
  0
LINE
  5
1DF
330
1F
100
AcDbEntity
  8
0
  6
HIDDEN
 62
     7
370
     0
100
AcDbLine
 10
154.2230557415
 20
104.7211081184
 30
0.0
 11
158.7695527586
 21
94.9711079172
 31
0.0
  0
LINE
  5
1E0
330
1F
100
AcDbEntity
  8
0
  6
HIDDEN
 62
     7
370
     0
100
AcDbLine
 10
162.9715498301
 20
125.4711082599
 30
0.0
 11
158.7695527586
 21
125.4711082599
 31
0.0
  0
LINE
  5
1E1
330
1F
100
AcDbEntity
  8
0
  6
HIDDEN
 62
     7
370
     0
100
AcDbLine
 10
158.7695527586
 20
94.9711079172
 30
0.0
 11
162.9715498301
 21
94.9711079172
 31
0.0
  0
LINE
  5
1E2
330
1F
100
AcDbEntity
  8
0
  6
HIDDEN
 62
     7
370
     0
100
AcDbLine
 10
131.06955511
 20
100.721108394
 30
0.0
 11
133.5695545885
 21
100.721108394
 31
0.0
  0
LINE
  5
1E3
330
1F
100
AcDbEntity
  8
0
  6
HIDDEN
 62
     7
370
     0
100
AcDbLine
 10
133.5695545885
 20
119.7211077831
 30
0.0
 11
131.06955511
 21
119.7211077831
 31
0.0
  0
LINE
  5
1E4
330
1F
100
AcDbEntity
  8
0
  6
HIDDEN
 62
     7
370
     0
100
AcDbLine
 10
121.7195542294
 20
101.221108476
 30
0.0
 11
122.2195543113
 21
101.7211076266
 31
0.0
  0
LINE
  5
1E5
330
1F
100
AcDbEntity
  8
0
  6
HIDDEN
 62
     7
370
     0
100
AcDbLine
 10
122.2195543113
 20
118.7211085505
 30
0.0
 11
121.7195542294
 21
119.2211077011
 31
0.0
  0
LINE
  5
1E6
330
1F
100
AcDbEntity
  8
0
  6
HIDDEN
 62
     7
370
     0
100
AcDbLine
 10
122.2195543113
 20
101.7211076266
 30
0.0
 11
131.06955511
 21
101.7211076266
 31
0.0
  0
LINE
  5
1E7
330
1F
100
AcDbEntity
  8
0
  6
HIDDEN
 62
     7
370
     0
100
AcDbLine
 10
131.06955511
 20
118.7211085505
 30
0.0
 11
122.2195543113
 21
118.7211085505
 31
0.0
  0
LINE
  5
1E8
330
1F
100
AcDbEntity
  8
0
  6
HIDDEN
 62
     7
370
     0
100
AcDbLine
 10
116.7195543411
 20
141.7211085952
 30
0.0
 11
116.7195543411
 21
136.6211079455
 31
0.0
  0
LINE
  5
1E9
330
1F
100
AcDbEntity
  8
0
  6
HIDDEN
 62
     7
370
     0
100
AcDbLine
 10
135.2695535633
 20
115.7211080588
 30
0.0
 11
134.4884346935
 21
114.4211079388
 31
0.0
  0
LINE
  5
1EA
330
1F
100
AcDbEntity
  8
0
  6
HIDDEN
 62
     7
370
     0
100
AcDbLine
 10
134.4884346935
 20
106.0211082383
 30
0.0
 11
135.2695535633
 21
104.7211081184
 31
0.0
  0
LINE
  5
1EB
330
1F
100
AcDbEntity
  8
0
  6
HIDDEN
 62
     7
370
     0
100
AcDbLine
 10
135.2695535633
 20
104.7211081184
 30
0.0
 11
154.2230557415
 21
104.7211081184
 31
0.0
  0
LINE
  5
1EC
330
1F
100
AcDbEntity
  8
0
  6
HIDDEN
 62
     7
370
     0
100
AcDbLine
 10
154.2230557415
 20
115.7211080588
 30
0.0
 11
135.2695535633
 21
115.7211080588
 31
0.0
  0
LINE
  5
1ED
330
1F
100
AcDbEntity
  8
0
  6
HIDDEN
 62
     7
370
     0
100
AcDbLine
 10
106.9539912741
 20
86.1417368449
 30
0.0
 11
106.5195600267
 21
86.6208017267
 31
0.0
  0
LINE
  5
1EE
330
1F
100
AcDbEntity
  8
0
  6
HIDDEN
 62
     7
370
     0
100
AcDbLine
 10
99.019556469
 20
87.0424896873
 30
0.0
 11
98.5371239248
 21
86.5634248055
 31
0.0
  0
LINE
  5
1EF
330
1F
100
AcDbEntity
  8
0
  6
HIDDEN
 62
     7
370
     0
100
AcDbLine
 10
98.5370019215
 20
133.8787857837
 30
0.0
 11
99.0195518124
 21
133.3996668852
 31
0.0
  0
LINE
  5
1F0
330
1F
100
AcDbEntity
  8
0
  6
HIDDEN
 62
     7
370
     0
100
AcDbLine
 10
106.5195544387
 20
133.8213641591
 30
0.0
 11
106.9540960479
 21
134.3004830576
 31
0.0
  0
LINE
  5
1F1
330
1F
100
AcDbEntity
  8
0
  6
HIDDEN
 62
     7
370
     0
100
AcDbLine
 10
133.5695545885
 20
106.0211082383
 30
0.0
 11
134.4884346935
 21
106.0211082383
 31
0.0
  0
LINE
  5
1F2
330
1F
100
AcDbEntity
  8
0
  6
HIDDEN
 62
     7
370
     0
100
AcDbLine
 10
134.4884346935
 20
114.4211079388
 30
0.0
 11
133.5695545885
 21
114.4211079388
 31
0.0
  0
LINE
  5
1F3
330
1F
100
AcDbEntity
  8
0
  6
HIDDEN
 62
     7
370
     0
100
AcDbLine
 10
106.5195544387
 20
86.6212860144
 30
0.0
 11
106.5195544387
 21
90.285706932
 31
0.0
  0
LINE
  5
1F4
330
1F
100
AcDbEntity
  8
0
  6
HIDDEN
 62
     7
370
     0
100
AcDbLine
 10
99.0195546064
 20
90.2254857517
 30
0.0
 11
99.0195546064
 21
87.0428137875
 31
0.0
  0
LINE
  5
1F5
330
1F
100
AcDbEntity
  8
0
  6
HIDDEN
 62
     7
370
     0
100
AcDbLine
 10
106.5195544387
 20
130.1565092451
 30
0.0
 11
106.5195544387
 21
133.8210735864
 31
0.0
  0
LINE
  5
1F6
330
1F
100
AcDbEntity
  8
0
  6
HIDDEN
 62
     7
370
     0
100
AcDbLine
 10
99.0195546064
 20
133.3995234615
 30
0.0
 11
99.0195546064
 21
130.2167304254
 31
0.0
  0
LINE
  5
1F7
330
1F
100
AcDbEntity
  8
0
  6
HIDDEN
 62
     7
370
     0
100
AcDbLine
 10
152.2195536408
 20
84.2211075521
 30
0.0
 11
151.2195553395
 21
84.7984586305
 31
0.0
  0
LINE
  5
1F8
330
1F
100
AcDbEntity
  8
0
  6
HIDDEN
 62
     7
370
     0
100
AcDbLine
 10
146.2195526573
 20
84.7984586305
 30
0.0
 11
145.219554356
 21
84.2211075521
 31
0.0
  0
LINE
  5
1F9
330
1F
100
AcDbEntity
  8
0
  6
HIDDEN
 62
     7
370
     0
100
AcDbLine
 10
145.219554356
 20
136.221108625
 30
0.0
 11
146.2195526573
 21
135.6437575466
 31
0.0
  0
LINE
  5
1FA
330
1F
100
AcDbEntity
  8
0
  6
HIDDEN
 62
     7
370
     0
100
AcDbLine
 10
151.2195553395
 20
135.6437575466
 30
0.0
 11
152.2195536408
 21
136.221108625
 31
0.0
  0
LINE
  5
1FB
330
1F
100
AcDbEntity
  8
0
  6
HIDDEN
 62
     7
370
     0
100
AcDbLine
 10
151.2195553395
 20
84.7984586305
 30
0.0
 11
151.2195553395
 21
98.2211079843
 31
0.0
  0
LINE
  5
1FC
330
1F
100
AcDbEntity
  8
0
  6
HIDDEN
 62
     7
370
     0
100
AcDbLine
 10
146.2195526573
 20
98.2211079843
 30
0.0
 11
146.2195526573
 21
84.7984586305
 31
0.0
  0
LINE
  5
1FD
330
1F
100
AcDbEntity
  8
0
  6
HIDDEN
 62
     7
370
     0
100
AcDbLine
 10
146.2195526573
 20
135.6437575466
 30
0.0
 11
146.2195526573
 21
122.2211081929
 31
0.0
  0
LINE
  5
1FE
330
1F
100
AcDbEntity
  8
0
  6
HIDDEN
 62
     7
370
     0
100
AcDbLine
 10
151.2195553395
 20
122.2211081929
 30
0.0
 11
151.2195553395
 21
135.6437575466
 31
0.0
  0
LINE
  5
1FF
330
1F
100
AcDbEntity
  8
0
  6
HIDDEN
 62
     7
370
     0
100
AcDbLine
 10
151.2195553395
 20
98.2211079843
 30
0.0
 11
148.7195539984
 21
99.7232595853
 31
0.0
  0
LINE
  5
200
330
1F
100
AcDbEntity
  8
0
  6
HIDDEN
 62
     7
370
     0
100
AcDbLine
 10
148.7195539984
 20
99.7232595853
 30
0.0
 11
146.2195526573
 21
98.2211079843
 31
0.0
  0
LINE
  5
201
330
1F
100
AcDbEntity
  8
0
  6
HIDDEN
 62
     7
370
     0
100
AcDbLine
 10
146.2195526573
 20
122.2211081929
 30
0.0
 11
148.7195539984
 21
120.7189565919
 31
0.0
  0
LINE
  5
202
330
1F
100
AcDbEntity
  8
0
  6
HIDDEN
 62
     7
370
     0
100
AcDbLine
 10
148.7195539984
 20
120.7189565919
 30
0.0
 11
151.2195553395
 21
122.2211081929
 31
0.0
  0
LINE
  5
203
330
1F
100
AcDbEntity
  8
0
  6
HIDDEN
 62
     7
370
     0
100
AcDbLine
 10
154.269554815
 20
104.2211080364
 30
0.0
 11
154.7695558283
 21
104.7211081184
 31
0.0
  0
LINE
  5
204
330
1F
100
AcDbEntity
  8
0
  6
HIDDEN
 62
     7
370
     0
100
AcDbLine
 10
154.7695558283
 20
115.7211080588
 30
0.0
 11
154.269554815
 21
116.2211081407
 31
0.0
  0
LINE
  5
205
330
1F
100
AcDbEntity
  8
0
  6
HIDDEN
 62
     7
370
     0
100
AcDbLine
 10
139.2695542189
 20
104.2211080364
 30
0.0
 11
154.269554815
 21
104.2211080364
 31
0.0
  0
LINE
  5
206
330
1F
100
AcDbEntity
  8
0
  6
HIDDEN
 62
     7
370
     0
100
AcDbLine
 10
154.269554815
 20
116.2211081407
 30
0.0
 11
139.2695542189
 21
116.2211081407
 31
0.0
  0
LINE
  5
207
330
1F
100
AcDbEntity
  8
0
  6
HIDDEN
 62
     7
370
     0
100
AcDbLine
 10
139.2695542189
 20
116.2211081407
 30
0.0
 11
138.7695550683
 21
115.7211080588
 31
0.0
  0
LINE
  5
208
330
1F
100
AcDbEntity
  8
0
  6
HIDDEN
 62
     7
370
     0
100
AcDbLine
 10
138.7695550683
 20
104.7211081184
 30
0.0
 11
139.2695542189
 21
104.2211080364
 31
0.0
  0
LINE
  5
209
330
1F
100
AcDbEntity
  8
0
  6
HIDDEN
 62
     7
370
     0
100
AcDbLine
 10
154.7695558283
 20
104.7211081184
 30
0.0
 11
158.7695527586
 21
104.7211081184
 31
0.0
  0
LINE
  5
20A
330
1F
100
AcDbEntity
  8
0
  6
HIDDEN
 62
     7
370
     0
100
AcDbLine
 10
158.7695527586
 20
115.7211080588
 30
0.0
 11
154.7695558283
 21
115.7211080588
 31
0.0
  0
LINE
  5
20B
330
1F
100
AcDbEntity
  8
0
  6
HIDDEN
 62
     7
370
     0
100
AcDbLine
 10
145.7695562157
 20
107.2211080625
 30
0.0
 11
151.7695534739
 21
107.2211080625
 31
0.0
  0
LINE
  5
20C
330
1F
100
AcDbEntity
  8
0
  6
HIDDEN
 62
     7
370
     0
100
AcDbLine
 10
151.7695534739
 20
113.2211081146
 30
0.0
 11
145.7695562157
 21
113.2211081146
 31
0.0
  0
LINE
  5
20D
330
1F
100
AcDbEntity
  8
0
  6
HIDDEN
 62
     7
370
     0
100
AcDbLine
 10
198.1695566091
 20
135.4711089677
 30
0.0
 11
196.0250485453
 21
134.4711088038
 31
0.0
  0
LINE
  5
20E
330
1F
100
AcDbEntity
  8
0
  6
HIDDEN
 62
     7
370
     0
100
AcDbLine
 10
196.0250485453
 20
85.9711073733
 30
0.0
 11
198.1695566091
 21
84.9711072094
 31
0.0
  0
ARC
  5
20F
330
1F
100
AcDbEntity
  8
0
  6
HIDDEN
 62
     7
370
     0
100
AcDbCircle
 10
201.3695543679
 20
85.7711080886
 30
0.0
 40
0.8000000000000398
100
AcDbArc
 50
270.0
 51
360.0
  0
ARC
  5
210
330
1F
100
AcDbEntity
  8
0
  6
HIDDEN
 62
     7
370
     0
100
AcDbCircle
 10
201.3695543679
 20
134.6711080886
 30
0.0
 40
0.8000000000000398
100
AcDbArc
 50
0.0
 51
90.0
  0
LINE
  5
211
330
1F
100
AcDbEntity
  8
0
  6
HIDDEN
 62
     7
370
     0
100
AcDbLine
 10
198.1695566091
 20
84.9711072094
 30
0.0
 11
201.3695511731
 21
84.9711072094
 31
0.0
  0
LINE
  5
212
330
1F
100
AcDbEntity
  8
0
  6
HIDDEN
 62
     7
370
     0
100
AcDbLine
 10
201.3695511731
 20
135.4711089677
 30
0.0
 11
198.1695566091
 21
135.4711089677
 31
0.0
  0
LINE
  5
213
330
1F
100
AcDbEntity
  8
0
  6
HIDDEN
 62
     7
370
     0
100
AcDbLine
 10
186.2695563349
 20
85.9711073733
 30
0.0
 11
196.0250485453
 21
85.9711073733
 31
0.0
  0
LINE
  5
214
330
1F
100
AcDbEntity
  8
0
  6
HIDDEN
 62
     7
370
     0
100
AcDbLine
 10
196.0250485453
 20
134.4711088038
 30
0.0
 11
186.2695563349
 21
134.4711088038
 31
0.0
  0
LINE
  5
215
330
1F
100
AcDbEntity
  8
0
  6
HIDDEN
 62
     7
370
     0
100
AcDbLine
 10
204.6695548805
 20
89.6362584478
 30
0.0
 11
211.3117102298
 21
93.4711076713
 31
0.0
  0
LINE
  5
216
330
1F
100
AcDbEntity
  8
0
  6
HIDDEN
 62
     7
370
     0
100
AcDbLine
 10
211.3117102298
 20
126.9711085058
 30
0.0
 11
204.6695548805
 21
130.8059577293
 31
0.0
  0
LINE
  5
217
330
1F
100
AcDbEntity
  8
0
  6
HIDDEN
 62
     7
370
     0
100
AcDbLine
 10
194.4621924075
 20
85.4767781145
 30
0.0
 11
194.0662536535
 21
85.2250826008
 31
0.0
  0
LINE
  5
218
330
1F
100
AcDbEntity
  8
0
  6
HIDDEN
 62
     7
370
     0
100
AcDbLine
 10
202.1695572647
 20
89.1837027318
 30
0.0
 11
204.6695548805
 21
89.1837027318
 31
0.0
  0
LINE
  5
219
330
1F
100
AcDbEntity
  8
0
  6
HIDDEN
 62
     7
370
     0
100
AcDbLine
 10
194.1038418326
 20
86.1243844426
 30
0.0
 11
193.7885556134
 21
84.6360899902
 31
0.0
  0
LINE
  5
21A
330
1F
100
AcDbEntity
  8
0
  6
HIDDEN
 62
     7
370
     0
100
AcDbLine
 10
204.6695548805
 20
131.1786599851
 30
0.0
 11
202.1695572647
 21
131.1786599851
 31
0.0
  0
LINE
  5
21B
330
1F
100
AcDbEntity
  8
0
  6
HIDDEN
 62
     7
370
     0
100
AcDbLine
 10
194.9305955085
 20
87.0167982227
 30
0.0
 11
194.7029951724
 21
86.8721098102
 31
0.0
  0
LINE
  5
21C
330
1F
100
AcDbEntity
  8
0
  6
HIDDEN
 62
     7
370
     0
100
AcDbLine
 10
211.3117102298
 20
93.4711076713
 30
0.0
 11
211.7695558581
 21
93.4711076713
 31
0.0
  0
LINE
  5
21D
330
1F
100
AcDbEntity
  8
0
  6
HIDDEN
 62
     7
370
     0
100
AcDbLine
 10
211.7695558581
 20
126.9711085058
 30
0.0
 11
211.3117102298
 21
126.9711085058
 31
0.0
  0
LINE
  5
21E
330
1F
100
AcDbEntity
  8
0
  6
HIDDEN
 62
     7
370
     0
100
AcDbLine
 10
193.7038350615
 20
137.3357061691
 30
0.0
 11
194.1670153054
 21
136.9798999674
 31
0.0
  0
LINE
  5
21F
330
1F
100
AcDbEntity
  8
0
  6
HIDDEN
 62
     7
370
     0
100
AcDbLine
 10
193.7810826811
 20
137.5232968874
 30
0.0
 11
194.0971959147
 21
135.9311730064
 31
0.0
  0
LINE
  5
220
330
1F
100
AcDbEntity
  8
0
  6
HIDDEN
 62
     7
370
     0
100
AcDbLine
 10
194.4404516134
 20
135.4478650189
 30
0.0
 11
194.6989122543
 21
135.2493200845
 31
0.0
  0
LINE
  5
221
330
1F
100
AcDbEntity
  8
0
  6
HIDDEN
 62
     7
370
     0
100
AcDbLine
 10
194.0971959147
 20
84.5110431708
 30
0.0
 11
193.7810826811
 21
82.9189192898
 31
0.0
  0
LINE
  5
222
330
1F
100
AcDbEntity
  8
0
  6
HIDDEN
 62
     7
370
     0
100
AcDbLine
 10
194.6989122543
 20
85.1928960926
 30
0.0
 11
194.4404516134
 21
84.9943511582
 31
0.0
  0
LINE
  5
223
330
1F
100
AcDbEntity
  8
0
  6
HIDDEN
 62
     7
370
     0
100
AcDbLine
 10
194.1670153054
 20
83.4623162098
 30
0.0
 11
193.7038350615
 21
83.1065100081
 31
0.0
  0
LINE
  5
224
330
1F
100
AcDbEntity
  8
0
  6
HIDDEN
 62
     7
370
     0
100
AcDbLine
 10
194.7029951724
 20
133.570106367
 30
0.0
 11
194.9305955085
 21
133.4254179544
 31
0.0
  0
LINE
  5
225
330
1F
100
AcDbEntity
  8
0
  6
HIDDEN
 62
     7
370
     0
100
AcDbLine
 10
193.7885556134
 20
135.8061261869
 30
0.0
 11
194.1038418326
 21
134.3178317345
 31
0.0
  0
LINE
  5
226
330
1F
100
AcDbEntity
  8
0
  6
HIDDEN
 62
     7
370
     0
100
AcDbLine
 10
194.0662536535
 20
135.2171335764
 30
0.0
 11
194.4621924075
 21
134.9654380626
 31
0.0
  0
POINT
  5
227
330
1F
100
AcDbEntity
  8
VERMASSUNG
100
AcDbPoint
 10
196.7695543679
 20
130.2211080886
 30
0.0
  0
POINT
  5
228
330
1F
100
AcDbEntity
  8
VERMASSUNG
100
AcDbPoint
 10
196.7695543679
 20
90.2211080886
 30
0.0
  0
DIMENSION
  5
229
330
1F
100
AcDbEntity
  8
VERMASSUNG
100
AcDbDimension
  2
*D1
 10
221.7695543679
 20
130.2211080886
 30
0.0
 11
221.7695543679
 21
109.7599586563
 31
0.0
 70
   160
  1
ER<>
 71
     2
 42
-1.0
  3
SLDDIMSTYLE0
100
AcDbAlignedDimension
 13
196.7695543679
 23
90.2211080886
 33
0.0
 14
196.7695543679
 24
130.2211080886
 34
0.0
 50
90.0
100
AcDbRotatedDimension
  0
DIMENSION
  5
235
330
1F
100
AcDbEntity
  8
VERMASSUNG
100
AcDbDimension
  2
*D2
 10
72.0335759581
 20
78.7211080886
 30
0.0
 11
72.0335759581
 21
108.3549479243
 31
0.0
 70
   160
  1
HSK A %%c<>
 71
     2
 42
-1.0
  3
SLDDIMSTYLE0
100
AcDbAlignedDimension
 13
112.0695543679
 23
141.7211080886
 33
0.0
 14
112.0695543679
 24
78.7211080886
 34
0.0
 50
90.0
100
AcDbRotatedDimension
  0
DIMENSION
  5
241
330
1F
100
AcDbEntity
  8
VERMASSUNG
100
AcDbDimension
  2
*D3
 10
211.7695543679
 20
156.0069133151
 30
0.0
 11
174.7445543679
 21
156.0069133151
 31
0.0
 70
   160
 71
     2
 42
-1.0
  3
SLDDIMSTYLE0
100
AcDbAlignedDimension
 13
137.7195543679
 23
140.0675484123
 33
0.0
 14
211.7695543679
 24
134.2211080886
 34
0.0
100
AcDbRotatedDimension
  0
DIMENSION
  5
24B
330
1F
100
AcDbEntity
  8
VERMASSUNG
100
AcDbDimension
  2
*D4
 10
211.7695543679
 20
162.0069133151
 30
0.0
 11
161.7695543679
 21
162.0069133151
 31
0.0
 70
   160
 71
     2
 42
-1.0
  3
SLDDIMSTYLE0
100
AcDbAlignedDimension
 13
111.7695543679
 23
141.4211080886
 33
0.0
 14
211.7695543679
 24
134.2211080886
 34
0.0
100
AcDbRotatedDimension
  0
DIMENSION
  5
255
330
1F
100
AcDbEntity
  8
VERMASSUNG
100
AcDbDimension
  2
*D5
 10
211.7695543679
 20
168.0069133151
 30
0.0
 11
145.8195543679
 21
168.0069133151
 31
0.0
 70
   160
 71
     2
 42
-1.0
  3
SLDDIMSTYLE0
100
AcDbAlignedDimension
 13
79.8695543679
 23
129.911785835
 33
0.0
 14
211.7695543679
 24
134.2211080886
 34
0.0
100
AcDbRotatedDimension
  0
DIMENSION
  5
25F
330
1F
100
AcDbEntity
  8
VERMASSUNG
100
AcDbDimension
  2
*D6
 10
233.7695543679
 20
78.8711080886
 30
0.0
 11
233.7695543679
 21
108.3549479243
 31
0.0
 70
   160
  1
%%c<>
 71
     2
 42
-1.0
  3
SLDDIMSTYLE0
100
AcDbAlignedDimension
 13
207.5260293677
 23
141.5711080886
 33
0.0
 14
207.5260293677
 24
78.8711080886
 34
0.0
 50
90.0
100
AcDbRotatedDimension
  0
DIMENSION
  5
26A
330
1F
100
AcDbEntity
  8
VERMASSUNG
100
AcDbDimension
  2
*D7
 10
211.7695543679
 20
150.0069133151
 30
0.0
 11
185.2695543679
 21
150.0069133151
 31
0.0
 70
   160
 71
     2
 42
-1.0
  3
SLDDIMSTYLE0
100
AcDbAlignedDimension
 13
158.7695543679
 23
125.4711080886
 33
0.0
 14
211.7695543679
 24
134.2211080886
 34
0.0
100
AcDbRotatedDimension
  0
DIMENSION
  5
274
330
1F
100
AcDbEntity
  8
VERMASSUNG
100
AcDbDimension
  2
*D8
 10
227.7695543679
 20
84.2211080886
 30
0.0
 11
227.7695543679
 21
108.3549479243
 31
0.0
 70
   160
  1
%%c<>
 71
     2
 42
-1.0
  3
SLDDIMSTYLE0
100
AcDbAlignedDimension
 13
157.7195543679
 23
136.2211080886
 33
0.0
 14
157.7195543679
 24
84.2211080886
 34
0.0
 50
90.0
100
AcDbRotatedDimension
  0
LINE
  5
27F
330
1F
100
AcDbEntity
  8
VERMASSUNG
  6
CENTERX2
370
     0
100
AcDbLine
 10
76.2268243785
 20
110.2211080886
 30
0.0
 11
213.7280593424
 21
110.2211080886
 31
0.0
  0
OLE2FRAME
  5
280
330
1F
100
AcDbEntity
  8
0
100
AcDbOle2Frame
 70
     2
  3
Bitmap Image
 10
13.8511154363
 20
38.264191557
 30
0.0
 11
51.6290888628
 21
31.9806341108
 31
0.0
 71
     2
 72
     0
 73
     1
 90
    12928
310
80552BED0767C5B32B40DDAF6807D121434000000000000000006FFBDDFB85D0
310
4940DDAF6807D121434000000000000000006FFBDDFB85D04940416F4BD60AFB
310
3F4000000000000000002BED0767C5B32B40416F4BD60AFB3F40000000000000
310
0000000000000100000000010000010000000100000000000100000000320000
310
D0CF11E0A1B11AE1000000000000000000000000000000003E000300FEFF0900
310
0600000000000000000000000100000001000000000000000010000002000000
310
01000000FEFFFFFF0000000000000000FFFFFFFFFFFFFFFFFFFFFFFFFFFFFFFF
310
FFFFFFFFFFFFFFFFFFFFFFFFFFFFFFFFFFFFFFFFFFFFFFFFFFFFFFFFFFFFFFFF
310
FFFFFFFFFFFFFFFFFFFFFFFFFFFFFFFFFFFFFFFFFFFFFFFFFFFFFFFFFFFFFFFF
310
FFFFFFFFFFFFFFFFFFFFFFFFFFFFFFFFFFFFFFFFFFFFFFFFFFFFFFFFFFFFFFFF
310
FFFFFFFFFFFFFFFFFFFFFFFFFFFFFFFFFFFFFFFFFFFFFFFFFFFFFFFFFFFFFFFF
310
FFFFFFFFFFFFFFFFFFFFFFFFFFFFFFFFFFFFFFFFFFFFFFFFFFFFFFFFFFFFFFFF
310
FFFFFFFFFFFFFFFFFFFFFFFFFFFFFFFFFFFFFFFFFFFFFFFFFFFFFFFFFFFFFFFF
310
FFFFFFFFFFFFFFFFFFFFFFFFFFFFFFFFFFFFFFFFFFFFFFFFFFFFFFFFFFFFFFFF
310
FFFFFFFFFFFFFFFFFFFFFFFFFFFFFFFFFFFFFFFFFFFFFFFFFFFFFFFFFFFFFFFF
310
FFFFFFFFFFFFFFFFFFFFFFFFFFFFFFFFFFFFFFFFFFFFFFFFFFFFFFFFFFFFFFFF
310
FFFFFFFFFFFFFFFFFFFFFFFFFFFFFFFFFFFFFFFFFFFFFFFFFFFFFFFFFFFFFFFF
310
FFFFFFFFFFFFFFFFFFFFFFFFFFFFFFFFFFFFFFFFFFFFFFFFFFFFFFFFFFFFFFFF
310
FFFFFFFFFFFFFFFFFFFFFFFFFFFFFFFFFFFFFFFFFFFFFFFFFFFFFFFFFFFFFFFF
310
FFFFFFFFFFFFFFFFFFFFFFFFFFFFFFFFFFFFFFFFFFFFFFFFFFFFFFFFFFFFFFFF
310
FDFFFFFFFEFFFFFFFEFFFFFFFEFFFFFF05000000060000000700000008000000
310
090000000A0000000B0000000C0000000D0000000E0000000F00000010000000
310
11000000120000001300000014000000150000001600000017000000FEFFFFFF
310
FFFFFFFFFFFFFFFFFFFFFFFFFFFFFFFFFFFFFFFFFFFFFFFFFFFFFFFFFFFFFFFF
310
FFFFFFFFFFFFFFFFFFFFFFFFFFFFFFFFFFFFFFFFFFFFFFFFFFFFFFFFFFFFFFFF
310
FFFFFFFFFFFFFFFFFFFFFFFFFFFFFFFFFFFFFFFFFFFFFFFFFFFFFFFFFFFFFFFF
310
FFFFFFFFFFFFFFFFFFFFFFFFFFFFFFFFFFFFFFFFFFFFFFFFFFFFFFFFFFFFFFFF
310
FFFFFFFFFFFFFFFFFFFFFFFFFFFFFFFFFFFFFFFFFFFFFFFFFFFFFFFFFFFFFFFF
310
FFFFFFFFFFFFFFFFFFFFFFFFFFFFFFFFFFFFFFFFFFFFFFFFFFFFFFFFFFFFFFFF
310
FFFFFFFFFFFFFFFFFFFFFFFFFFFFFFFFFFFFFFFFFFFFFFFFFFFFFFFFFFFFFFFF
310
FFFFFFFFFFFFFFFFFFFFFFFFFFFFFFFFFFFFFFFFFFFFFFFFFFFFFFFFFFFFFFFF
310
FFFFFFFFFFFFFFFFFFFFFFFFFFFFFFFFFFFFFFFFFFFFFFFFFFFFFFFFFFFFFFFF
310
FFFFFFFFFFFFFFFFFFFFFFFFFFFFFFFFFFFFFFFFFFFFFFFFFFFFFFFFFFFFFFFF
310
FFFFFFFFFFFFFFFFFFFFFFFFFFFFFFFFFFFFFFFFFFFFFFFFFFFFFFFFFFFFFFFF
310
FFFFFFFFFFFFFFFFFFFFFFFFFFFFFFFFFFFFFFFFFFFFFFFFFFFFFFFFFFFFFFFF
310
FFFFFFFFFFFFFFFFFFFFFFFFFFFFFFFFFFFFFFFFFFFFFFFFFFFFFFFFFFFFFFFF
310
52006F006F007400200045006E00740072007900000000000000000000000000
310
0000000000000000000000000000000000000000000000000000000000000000
310
16000500FFFFFFFFFFFFFFFF020000000A00030000000000C000000000000046
310
0000000000000000000000005070D3F272E8CB0103000000C000000000000000
310
01004F006C006500000000000000000000000000000000000000000000000000
310
0000000000000000000000000000000000000000000000000000000000000000
310
0A000200FFFFFFFFFFFFFFFFFFFFFFFF00000000000000000000000000000000
310
0000000000000000000000000000000000000000000000001400000000000000
310
010043006F006D0070004F0062006A0000000000000000000000000000000000
310
0000000000000000000000000000000000000000000000000000000000000000
310
120002010100000003000000FFFFFFFF00000000000000000000000000000000
310
0000000000000000000000000000000000000000010000004D00000000000000
310
01004F006C006500310030004E00610074006900760065000000000000000000
310
0000000000000000000000000000000000000000000000000000000000000000
310
1A000200FFFFFFFFFFFFFFFFFFFFFFFF00000000000000000000000000000000
310
0000000000000000000000000000000000000000040000002426000000000000
310
FEFFFFFF02000000FEFFFFFFFFFFFFFFFFFFFFFFFFFFFFFFFFFFFFFFFFFFFFFF
310
FFFFFFFFFFFFFFFFFFFFFFFFFFFFFFFFFFFFFFFFFFFFFFFFFFFFFFFFFFFFFFFF
310
FFFFFFFFFFFFFFFFFFFFFFFFFFFFFFFFFFFFFFFFFFFFFFFFFFFFFFFFFFFFFFFF
310
FFFFFFFFFFFFFFFFFFFFFFFFFFFFFFFFFFFFFFFFFFFFFFFFFFFFFFFFFFFFFFFF
310
FFFFFFFFFFFFFFFFFFFFFFFFFFFFFFFFFFFFFFFFFFFFFFFFFFFFFFFFFFFFFFFF
310
FFFFFFFFFFFFFFFFFFFFFFFFFFFFFFFFFFFFFFFFFFFFFFFFFFFFFFFFFFFFFFFF
310
FFFFFFFFFFFFFFFFFFFFFFFFFFFFFFFFFFFFFFFFFFFFFFFFFFFFFFFFFFFFFFFF
310
FFFFFFFFFFFFFFFFFFFFFFFFFFFFFFFFFFFFFFFFFFFFFFFFFFFFFFFFFFFFFFFF
310
FFFFFFFFFFFFFFFFFFFFFFFFFFFFFFFFFFFFFFFFFFFFFFFFFFFFFFFFFFFFFFFF
310
FFFFFFFFFFFFFFFFFFFFFFFFFFFFFFFFFFFFFFFFFFFFFFFFFFFFFFFFFFFFFFFF
310
FFFFFFFFFFFFFFFFFFFFFFFFFFFFFFFFFFFFFFFFFFFFFFFFFFFFFFFFFFFFFFFF
310
FFFFFFFFFFFFFFFFFFFFFFFFFFFFFFFFFFFFFFFFFFFFFFFFFFFFFFFFFFFFFFFF
310
FFFFFFFFFFFFFFFFFFFFFFFFFFFFFFFFFFFFFFFFFFFFFFFFFFFFFFFFFFFFFFFF
310
FFFFFFFFFFFFFFFFFFFFFFFFFFFFFFFFFFFFFFFFFFFFFFFFFFFFFFFFFFFFFFFF
310
FFFFFFFFFFFFFFFFFFFFFFFFFFFFFFFFFFFFFFFFFFFFFFFFFFFFFFFFFFFFFFFF
310
FFFFFFFFFFFFFFFFFFFFFFFFFFFFFFFFFFFFFFFFFFFFFFFFFFFFFFFFFFFFFFFF
310
0100000200000000000000000000000000000000000000004E00820000000004
310
A807250000000000A807250000000000B610F20100000000AA115B0100000000
310
0100FEFF030A0000FFFFFFFF0A00030000000000C00000000000004607000000
310
5042727573680007000000504272757368000700000050427275736800F439B2
310
7100000000000000000000000000000000000000000000000000C70600000000
310
0000000000000000000000000000000000000000000000003800000041000000
310
B610F20100000000F41123010000000000000000000000000000000000000000
310
0000C70600000000000000000000000000000000000000000000000000000000
310
3800000041000000B610F20100000000FE115401000000000000000000000000
310
00000000000000000000C7060000000000000000000000000000000000000000
310
00000000000000003800000041000000B610F20100000000B011350100000000
310
000000000000000000000000000000000000C706000000000000000000000000
310
000000000000000000000000000000003800000041000000B610F20100000000
310
D2112A0100000000000000000000000000000000000000000000C70600000000
310
0000000000000000000000000000000000000000000000003800000041000000
310
B610F20100000000B811EB000000000000000000000000000000000000000000
310
20260000424D0E260000000000003E00000028000000B40200006E0000000100
310
01000000000000000000130B0000130B00000200000002000000000000FFFFFF
310
FFFFFFFFFFFFFFFFFFFFFFFFFFFFFFFFFFFFFFFFFFFFFFFFFFFFFFFFFFFFFFFF
310
FFFFFFFFFFFFFFFFFFFFFFFFFFFFFFFFFFFFFFFFFFFFFFFFFFFFFFFFFFFFFFFF
310
FFFFFFFFFFFFFFFFFFFFFFFFFFFFFFFFFFFFFFFFFFFFFFFFF000FFFFFFFFFFFF
310
FFFFFFFFFFFFFFFFFFFFFFFFFFFFFFFFFFFFFFFFFFFFFFFFFFFFFFFFFFFFFFFF
310
FFFFFFFFFFFFFFFFFFFFFFFFFFFFFFFFFFFFFFFFFFFFFFFFFFFFFFFFFFFFFFFF
310
FFFFFFFFFFFFFFFFFFFFFFFFFFFFFFFFF000FFFFFFFFFFFFFFFFFFFFFFFFFFFF
310
FFFFFFFFFFFFFFFFFFFFFFFFFFFFFFFFFFFFFFFFFFFFFFFFFFFFFFFFFFFFFFFF
310
FFFFFFFFFFFFFFFFFFFFFFFFFFFFFFFFFFFFFFFFFFFFFFFFFFFFFFFFFFFFFFFF
310
FFFFFFFFFFFFFFFFF000FFFFFFFFFFFFFFFFFFFFFFFFFFFFFFFFFFFFFFFFFFFF
310
FFFFFFFFFFFFFFFFFFFFFFFFFFFFFFFFFFFFFFFFFFFFFFFFFFFFFFFFFFFFFFFF
310
FFFFFFFFFFFFFFFFFFFFFFFFFFFFFFFFFFFFFFFFFFFFFFFFFFFFFFFFFFFFFFFF
310
F000FFFFFFFFFFFFFFFFFFFFFFFFFFFFFFFFFFFFFFFFFFFFFFFFFFFFFFFFFFFF
310
FFFFFFFFFFFFFFFFFFFFFFFFFFFFFFFFFFFFFFFFFFFFFFFFFFFFFFFFFFFFFFFF
310
FFFFFFFFFFFFFFFFFFFFFFFFFFFFFFFFFFFFFFFFFFFFFFFFF000FFFFFFFFFFFF
310
FFFFFFFFFFFFFFFFFFFFFFFFFFFFFFFFFFFFFFFFFFFFFFFFFFFFFFFFFFFFFFFF
310
FFFFFFFFFFFFFFFFFFFFFFFFFFFFFFFFFFFFFFFFFFFFFFFFFFFFFFFFFFFFFFFF
310
FFFFFFFFFFFFFFFFFFFFFFFFFFFFFFFFF000FFFFFFFFFFFFFFFFFFFFFFFFFFFF
310
FFFFFFFFFFFFFFFFFFFFFFFFFFFFFFFFFFFFFFFFFFFFFFFFFFFFFFFFFFFFFFFF
310
FFFFFFFFFFFFFFFFFFFFFFFFFFFFFFFFFFFFFFFFFFFFFFFFFFFFFFFFFFFFFFFF
310
FFFFFFFFFFFFFFFFF000FFFFFFFFFFFFFFFFFFFFFFFFFFFFFFFFFFFFFFFFFFFF
310
FFFFFFFFFFFFFFFFFFFFFFFFFFFFFFFFFFFFFFFFFFFFFFFFFFFFFFFFFFFFFFFF
310
FFFFFFFFFFFFFFFFFFFFFFFFFFFFFFFFFFFFFFFFFFFFFFFFFFFFFFFFFFFFFFFF
310
F000FFFFFFFFFFFFFFFFFFFFFFFFFFFFFFFFFFFFFFFFFFFFFFFFFFFFFFFFFFFF
310
FFFFFFFFFFFFFFFFFFFFFFFFFFFFFFFFFFFFFFFFFFFFFFFFFFFFFFFFFFFFFFFF
310
FFFFFFFFFFFFFFFFFFFFFFFFFFFFFFFFFFFFFFFFFFFFFFFFF000FFFFFFFFFFFF
310
FFFFFFFFFFFFFFFFFFFFFFFFFFFFFFFFFFFFFFFFFFFFFFFFFFFFFFFFFFFFFFFF
310
FFFFFFFFFFFFFFFFFFFFFFFFFFFFFFFFFFFFFFFFFFFFFFFFFFFFFFFFFFFFFFFF
310
FFFFFFFFFFFFFFFFFFFFFFFFFFFFFFFFF000FFFFFFFFFFFFFFFFFFFFFFFFFFFF
310
FFFFFFFFFFFFFFFFFFFFFFFFFFFFFFFFFFFFFFFFFFFFFFFFFFFFFFFFFFFFFFFF
310
FFFFFFFFFFFFFFFFFFFFFFFFFFFFFFFFFFFFFFFFFFFFFFFFFFFFFFFFFFFFFFFF
310
FFFFFFFFFFFFFFFFF000FFFFFFFFFFFFFFFFFFFFFFFFFFFFFFFFFFFFFFFFFFFF
310
FFFFFFFFFFFFFFFFFFFFFFFFFFFFFFFFFFFFFFFFFFFFFFFFFFFFFFFFFFFFFFFF
310
FFFFFFFFFFFFFFFFFFFFFFFFFFFFFFFFFFFFFFFFFFFFFFFFFFFFFFFFFFFFFFFF
310
F000FFFFFFFFFFFFFFFFFFFFFFFFFFFFFFFFFFFFFFFFFFFFFFFFFFFFFFFFFFFF
310
FFFFFFFFFFFFFFFFFFFFFFFFFFFFFFFFFFFFFFFFFFFFFFFFFFFFFFFFFFFFFFFF
310
FFFFFFFFFFFFFFFFFFFFFFFFFFFFFFFFFFFFFFFFFFFFFFFFF000FFFFFFFFFFFF
310
FFFFFFFFFFFFFFFFFFFFFFFFFFFFFFFFFFFFFFFFFFFFFFFFFFFFFFFFFFFFFFFF
310
FFFFFFFFFFFFFFFFFFFFFFFFFFFFFFFFFFFFFFFFFFFFFFFFFFFFFFFFFFFFFFFF
310
FFFFFFFFFFFFFFFFFFFFFFFFFFFFFFFFF000FFFFFFFFFFFFFFFFFFFFFFFFFFFF
310
FFFFFFFFFFFFFFFFFFFFFFFFFFFFFFFFFFFFFFFFFFFFFFFFFFFFFFFFFFFFFFFF
310
FFFFFFFFFFFFFFFFFFFFFFFFFFFFFFFFFFFFFFFFFFFFFFFFFFFFFFFFFFFFFFFF
310
FFFFFFFFFFFFFFFFF000FFFFFFFFFFFFFFFFFFFFFFFFFFFFFFFFFFFFFFFFFFFF
310
FFFFFFFFFFFFFFFFFFFFFFFFFFFFFFFFFFFFFFFFFFFFFFFFFFFFFFFFFFFFFFFF
310
FFFFFFFFFFFFFFFFFFFFFFFFFFFFFFFFFFFFFFFFFFFFFFFFFFFFFFFFFFFFFFFF
310
F000FFFFFFFFFFFFFFFFFFFFFFFFFFFFFFFFFFFFFFFFFFFFFFFFFFFFFFFFFFFF
310
FFFFFFFFFFFFFFFFFFFFFFFFFFFFFFFFFFFFFFFFFFFFFFFFFFFFFFFFFFFFFFFF
310
FFFFFFFFFFFFFFFFFFFFFFFFFFFFFFFFFFFFFFFFFFFFFFFFF000FFFFFFFFFFFF
310
FFFFFFFFFFFFFFFFFFFFFFFFFFFFFFFFFFFFFFFFFFFFFFFFFFFFFFFFFFFFFFFF
310
FFFFFFFFFFFFFFFFFFFFFFFFFFFFFFFFFFFFFFFFFFFFFFFFFFFFFFFFFFFFFFFF
310
FFFFFFFFFFFFFFFFFFFFFFFFFFFFFFFFF000FFFFFFFFFFFFFFFFFFFFFFFFFFFF
310
FFFFFFFFFFFFFFFFFFFFFFFFFFFFFFFFFFFFFFFFFFFFFFFFFFFFFFFFFFFFFFFF
310
FFFFFFFFFFFFFFFFFFFFFFFFFFFFFFFFFFFFFFFFFFFFFFFFFFFFFFFFFFFFFFFF
310
FFFFFFFFFFFFFFFFF000FFFFF80003FFFFFFFFFFFFFFFFFFFFFFFFFFFFFFFFFF
310
FFFFF00007FFFFFFFFFF00007FFFFFF800000000000000007FFFFFFFFFFFFFFF
310
FFFFFFFC001FFFFFFFFFFFFFFC001FFFFFFFFFFFFFFFFFFFFFFFFFFE0007FFFF
310
F000FFFF8000007FFFFFFFF8000FFFFFC0007FFFFF80007FFFFF0000007FFFFF
310
FFF8000007FFFFF800000000000000007FFFFFF0001FFFFFFFFFFFC00001FFFF
310
FFFFFFFFC00001FFFFFFFF000000000003FFFFE000007FFFF000FFFE0000000F
310
FFFFFFF0000FFFFF80007FFFFF80007FFFFC0000001FFFFFFFC0000001FFFFF8
310
00000000000000007FFFFFF0001FFFFFFFFFFE0000003FFFFFFFFFFE0000003F
310
FFFFFF000000000003FFFF0000000FFFF000FFF800000003FFFFFFF00007FFFF
310
80007FFFFF80007FFFF000000007FFFFFF000000003FFFF80000000000000000
310
7FFFFFF0001FFFFFFFFFF80000000FFFFFFFFFF80000000FFFFFFF0000000000
310
03FFFC00000003FFF000FFE000000000FFFFFFF00007FFFF80003FFFFF80007F
310
FFC000000001FFFFFC000000001FFFF800000000000000007FFFFFF0001FFFFF
310
FFFFE000000003FFFFFFFFE000000003FFFFFF000000000003FFF000000000FF
310
F000FF80000000007FFFFFF00007FFFF80003FFFFF80007FFF8000000000FFFF
310
F80000000007FFF800000000000000007FFFFFF0001FFFFFFFFFC000000001FF
310
FFFFFFC000000001FFFFFF000000000003FFC0000000007FF000FF0000000000
310
3FFFFFE00007FFFF00003FFFFF80007FFE00000000003FFFF00000000003FFF8
310
00000000000000007FFFFFF0001FFFFFFFFF8000000000FFFFFFFF8000000000
310
FFFFFF000000000003FF80000000003FF000FE00000000001FFFFFE00003FFFF
310
00003FFFFF80007FFC00000000001FFFE00000000001FFF8000001FFFE000000
310
7FFFFFF0001FFFFFFFFE00000000003FFFFFFE00000000003FFFFF0000000000
310
03FF00000000001FF000FC00000000000FFFFFE00003FFFF00001FFFFF80007F
310
F800000000001FFFC00000000000FFF8000001FFFE0000007FFFFFF0001FFFFF
310
FFFC00000000001FFFFFFC00000000001FFFFF000000000003FE00000000000F
310
F000F8000000000007FFFFE00003FFFF00001FFFFF80007FF800000000000FFF
310
800000000000FFF8000001FFFE0000007FFFFFF0001FFFFFFFF800000000000F
310
FFFFF800000000000FFFFF000000000003FC000000000007F000F80000000000
310
03FFFFC00003FFFE00001FFFFF80007FF0000000000007FF0000000000007FF8
310
000001FFFE0000007FFFFFF0001FFFFFFFF0000000000007FFFFF00000000000
310
07FFFF000000000003F8000000000003F000F0000000000003FFFFC00001FFFE
310
00001FFFFF80007FE0000000000007FE0000000000003FF8000001FFFE000000
310
7FFFFFF0001FFFFFFFF0000000000007FFFFF0000000000007FFFF0000000000
310
03F800001F800003F000E00001FFF00001FFFFC00001FFFE00000FFFFF80007F
310
E00001FFE00003FE00001FFF00003FF8000001FFFE0000007FFFFFF0001FFFFF
310
FFE000003E000003FFFFE000003E000003FFFF000000000003F00001FFF80001
310
F000E00007FFFC0001FFFFC00001FFFE00000FFFFF80007FC0000FFFFC0003FC
310
0000FFFFC0001FF8000001FFFE0000007FFFFFF0001FFFFFFFC00003FFE00001
310
FFFFC00003FFE00001FFFF0001FFFFFFFFF00007FFFE0001F000E0000FFFFF00
310
00FFFF800001FFFC00000FFFFF80007FC0001FFFFE0001FC0001FFFFE0001FF8
310
000001FFFE0000007FFFFFF0001FFFFFFF80000FFFF80000FFFF80000FFFF800
310
00FFFF0003FFFFFFFFE0000FFFFF8000F000C0003FFFFF8000FFFF800000FFFC
310
000007FFFF80007F80003FFFFF0001FC0003FFFFF0001FF8000001FFFE000000
310
7FFFFFF0001FFFFFFF80003FFFFE0000FFFF80003FFFFE0000FFFF0003FFFFFF
310
FFE0003FFFFF8000F000C0003FFFFF8000FFFF800000FFFC000007FFFF80007F
310
80007FFFFF8001F80007FFFFF8000FF8000001FFFE0000007FFFFFF0001FFFFF
310
FF00007FFFFF00007FFF00007FFFFF00007FFF0003FFFFFFFFE0003FFFFFC000
310
F000C0007FFFFFC000FFFF000000FFFC000007FFFF80007F8000FFFFFF8000F8
310
000FFFFFF8000FF8000001FFFE0000007FFFFFF0001FFFFFFF0000FFFFFF8000
310
7FFF0000FFFFFF80007FFF0003FFFFFFFFC0007FFFFFC00070008000FFFFFFC0
310
00FFFF000000FFF8000007FFFF80007F8000FFFFFF8000F8000FFFFFF8000FF8
310
000001FFFE0000007FFFFFF0001FFFFFFE0001FFFFFFC0003FFE0001FFFFFFC0
310
003FFF0003FFFFFFFFC0007FFFFFE00070008000FFFFFFC0007FFF0000007FF8
310
000003FFFF80007F0001FFFFFF8000F8000FFFFFF8000FF8000001FFFE000000
310
7FFFFFF0001FFFFFFE0001FFFFFFC0003FFE0001FFFFFFC0003FFF0003FFFFFF
310
FFC000FFFFFFE00070008000FFFFFFC0007FFF0000007FF8000003FFFF80007F
310
0001FFFFFF8000F8001FFFFFF8000FF8000001FFFE0000007FFFFFF0001FFFFF
310
FE0003FFFFFFE0003FFE0003FFFFFFE0003FFF0003FFFFFFFFC000FFFFFFE000
310
70008000FFFFFFC0007FFE0000007FF8000003FFFF80007F0001FFFFFF8000F0
310
001FFFFFF8000FF8000001FFFE0000007FFFFFF0001FFFFFFC0003FFFFFFE000
310
1FFC0003FFFFFFE0001FFF0003FFFFFFFFC000FFFFFFC00070008000FFFFFF80
310
007FFE0000007FF0000003FFFF80007F0001FFFFFF0000F0001FFFFFF8000FF8
310
000001FFFE0000007FFFFFF0001FFFFFFC0007FFFFFFF0001FFC0007FFFFFFF0
310
001FFF0003FFFFFFFFC000FFFFFFC00070008001FFFFFF0000FFFE0000003FF0
310
000001FFFF80007F0001FFFFFF0000F8001FFFFFF0000FF8000001FFFE000000
310
7FFFFFF0001FFFFFFC0007FFFFFFF0001FFC0007FFFFFFF0001FFF0003FFFFFF
310
FFC001FFFFFF80007000FFFFFFFFFE0000FFFE0008003FF0008001FFFF80007F
310
FFFFFFFFFC0000FFFFFFFFFFE0000FF8000001FFFE0000007FFFFFF0001FFFFF
310
F8000FFFFFFFF8000FF8000FFFFFFFF8000FFF0003FFFFFFFFFFFFFFFFFF0000
310
7000FFFFFFFFFC0000FFFC0008003FF0008001FFFF80007FFFFFFFFFF80001FF
310
FFFFFFFF80000FF8000001FFFE0000007FFFFFF0001FFFFFF8000FFFFFFFF800
310
0FF8000FFFFFFFF8000FFF0003FFFFFFFFFFFFFFFFFE0000F000FFFFFFFFE000
310
00FFFC000C003FE000C001FFFF80007FFFFFFFFFC00001FFFFFFFFFE00001FF8
310
000001FFFE0000007FFFFFF0001FFFFFF8000FFFFFFFF8000FF8000FFFFFFFF8
310
000FFF0003FFFFFFFFFFFFFFFFF00000F000FFFFFFFE000001FFFC000C001FE0
310
00C000FFFF80007FFFFFFFFE000001FFFFFFFFE000001FF80FFFFFFFFFFFFFC0
310
7FFFFFF0001FFFFFF8000FFFFFFFF8000FF8000FFFFFFFF8000FFF0003FFFFFF
310
FFFFFFFFFF800000F000FFFFFFC0000001FFFC001C001FE001C000FFFF80007F
310
FFFFFF80000003FFFFFFF80000001FF80FFFFFFFFFFFFFC07FFFFFF0001FFFFF
310
F8001FFFFFFFFC000FF8001FFFFFFFFC000FFF0003FFFFFFFFFFFFFFF0000001
310
F000FFFFF800000001FFF8001C001FE001C000FFFF80007FFFFFF800000003FF
310
FFFF800000003FF80FFFFFFFFFFFFFC07FFFFFF0001FFFFFF8001FFFFFFFFC00
310
0FF8001FFFFFFFFC000FFF0003FFFFFFFFFFFFFE00000001F000FFFFC0000000
310
03FFF8001E001FC001E000FFFF80007FFFFF8000000007FFFFFC000000003FF8
310
0FFFFFFFFFFFFFC07FFFFFF0001FFFFFF8001FFFFFFFFC000FF8001FFFFFFFFC
310
000FFF0003FFFFFFFFFFFFE000000003F000FFFE0000000007FFF8001E000FC0
310
01E0007FFF80007FFFFE0000000007FFFFE0000000007FF80FFFFFFFFFFFFFC0
310
7FFFFFF0001FFFFFF0001FFFFFFFFC0007F0001FFFFFFFFC0007FF0003FFFFFF
310
FFFFFF0000000003F000FFF80000000007FFF8001E000FC003E0007FFF80007F
310
FFF0000000000FFFFF8000000000FFF80FFFFFFFFFFFFFC07FFFFFF0001FFFFF
310
F0001FFFFFFFFC0007F0001FFFFFFFFC0007FF0003FFFFFFFFFFFC0000000007
310
F000FFE0000000000FFFF0003E000FC003E0007FFF80007FFFC0000000001FFF
310
FE0000000001FFF80FFFFFFFFFFFFFC07FFFFFF0001FFFFFF0001FFFFFFFFC00
310
07F0001FFFFFFFFC0007FF0003FFFFFFFFFFF0000000000FF000FFC000000000
310
1FFFF0003F000F8003F0003FFF80007FFF80000000003FFFF80000000003FFF8
310
0FFFFFFFFFFFFFC07FFFFFF0001FFFFFF0001FFFFFFFFC0007F0001FFFFFFFFC
310
0007FF0003FFFFFFFFFFE0000000001FF000FF00000000007FFFF0003F000780
310
03F0003FFF80007FFF00000000007FFFF00000000007FFF80FFFFFFFFFFFFFC0
310
7FFFFFF0001FFFFFF0001FFFFFFFFC0007F0001FFFFFFFFC0007FF0003FFFFFF
310
FFFF80000000007FF000FE0000000000FFFFE0003F00078007F0003FFF80007F
310
FE0000000001FFFFE0000000001FFFF80FFFFFFFFFFFFFC07FFFFFF0001FFFFF
310
F0001FFFFFFFFC0007F0001FFFFFFFFC0007FF0003FFFFFFFFFF0000000000FF
310
F000FC0000000003FFFFE0007F00078007F0003FFF80007FFC0000000007FFFF
310
C0000000007FFFF80FFFFFFFFFFFFFC07FFFFFF0001FFFFFF8001FFFFFFFFC00
310
0FF8001FFFFFFFFC000FFF0003FFFFFFFFFE0000000003FFF000FC000000000F
310
FFFFE0007F80070007F8001FFF80007FF8000000001FFFFF8000000001FFFFF8
310
0FFFFFFFFFFFFFC07FFFFFF0001FFFFFF8001FFFFFFFFC000FF8001FFFFFFFFC
310
000FFF0003FFFFFFFFFC000000000FFFF000F8000000007FFFFFE0007F800700
310
07F8001FFF80007FF000000000FFFFFF800000000FFFFFF80FFFFFFFFFFFFFC0
310
7FFFFFF0001FFFFFF8000FFFFFFFF8000FF8000FFFFFFFF8000FFF0003FFFFFF
310
FFFC000000007FFFF000F800000007FFFFFFC0007F8003000FF8001FFF80007F
310
F000000007FFFFFF000000007FFFFFF80FFFFFFFFFFFFFC07FFFFFF0001FFFFF
310
F8000FFFFFFFF8000FF8000FFFFFFFF8000FFF0003FFFFFFFFF80000000FFFFF
310
F000F0000000FFFFFFFFC000FF8003000FF8001FFF80007FE0000000FFFFFFFF
310
0000000FFFFFFFF8000001FFFE0000007FFFFFF0001FFFFFF8000FFFFFFFF800
310
0FF8000FFFFFFFF8000FFF0003FFFFFFFFF8000000FFFFFFF000F000000FFFFF
310
FFFFC000FFC002000FF8000FFF80007FE000001FFFFFFFFE000001FFFFFFFFF8
310
000001FFFE0000007FFFFFF0001FFFFFF8000FFFFFFFF8000FF8000FFFFFFFF8
310
000FFF0003FFFFFFFFF000001FFFFFFFF000E00000FFFFFFFFFFC000FFC00200
310
0FFC000FFF80007FE00001FFFFFFFFFE00001FFFFFFFFFF8000001FFFE000000
310
7FFFFFF0001FFFFFFC000FFFFFFFF8001FFC000FFFFFFFF8001FFF0003FFFFFF
310
FFF00001FFFFFFFFF000E00007FFFFFFFFFF8000FFC000001FFC000FFF80007F
310
C0000FFFFFFFFFFE0000FFFFFFFFFFF8000001FFFE0000007FFFFFF0001FFFFF
310
FC0007FFFFFFF0001FFC0007FFFFFFF0001FFF0003FFFFFFFFF00007FFFFFFFF
310
F000E0001FFFFFFFFFFF8000FFC000001FFC000FFF80007FC0003FFFFFFFFFFE
310
0001FFFFFFFFFFF8000001FFFE0000007FFFFFF0001FFFFFFC0007FFFFFFF000
310
1FFC0007FFFFFFF0001FFF0003FFFFFFFFF0001FFFFFFFFFF000E0003FFFFF00
310
03FF8001FFE000001FFC0007FF80007FC0007FFFFF0007FC0003FFFFF0003FF8
310
000001FFFE0000007FFFFFF0001FFFFFFC0003FFFFFFE0001FFC0003FFFFFFE0
310
001FFF0003FFFFFFFFF0003FFFFFFFFFF000E0003FFFFF0001FF8001FFE00000
310
1FFE0007FF80007FC0007FFFFE0003FC0007FFFFE0003FF8000001FFFE000000
310
7FFFFFF0001FFFFFFE0003FFFFFFE0003FFE0003FFFFFFE0003FFF0003FFFFFF
310
FFF0003FFFFF8001F000E0003FFFFF0001FF0001FFE000001FFE0007FF80007F
310
C0007FFFFE0003FC0007FFFFE0003FF8000001FFFE0000007FFFFFF0001FFFFF
310
FE0001FFFFFFC0003FFE0001FFFFFFC0003FFF0003FFFFFFFFF0003FFFFF0001
310
F000E0003FFFFF0003FF0001FFE000003FFE0007FF80007FC0007FFFFE0003FC
310
0007FFFFE0003FF8000001FFFE0000007FFFFFF0001FFFFFFF0001FFFFFFC000
310
7FFF0001FFFFFFC0007FFF0003FFFFFFFFF0003FFFFF0001F000E0003FFFFE00
310
03FF0003FFF000003FFE0003FF80007FC0007FFFFC0003FE0007FFFFE0003FF8
310
000001FFFE0000007FFFFFF0001FFFFFFF0000FFFFFF80007FFF0000FFFFFF80
310
007FFF0003FFFFFFFFF0003FFFFF0001F000E0003FFFFE0003FF0003FFF00000
310
3FFF0003FF80007FC0007FFFFC0007FE0007FFFFC0003FF8000001FFFE000000
310
7FFFFFF0001FFFFFFF80007FFFFF0000FFFF80007FFFFF0000FFFF0003FFFFFF
310
FFF0003FFFFF0003F000E0003FFFFC0003FE0003FFF000003FFF0003FF80007F
310
E0003FFFF80007FE0003FFFFC0007FF8000001FFFE0000007FFFFFF0001FFFFF
310
FF80003FFFFE0000FFFF80003FFFFE0000FFFF0003FFFFFFFFF0001FFFFE0003
310
F000F0001FFFF80003FE0003FFF000007FFF0001FF80007FE0003FFFF00007FE
310
0001FFFF80007FF8000001FFFE0000007FFFFFF0001FFFFFFFC0000FFFF80001
310
FFFFC0000FFFF80001FFFF0003FFFFFFFFF0001FFFFC0003F000F0000FFFF000
310
07FE0007FFF800007FFF0001FF80007FE0001FFFE00007FF0000FFFE00007FF8
310
000001FFFE0000007FFFFFF0001FFFFFFFC00003FFE00001FFFFC00003FFE000
310
01FFFF0003FFFFFFFFF8000FFFF80003F000F00003FFC00007FC0007FFF80000
310
7FFF8001FF80007FF00007FF80000FFF00007FF80000FFF8000001FFFE000000
310
7F80000000000001FFE000003E000003FFFFE000003E000003FFFF0003FFFFFF
310
FFF80003FFE00007F000F800000000000FFC0007FFF800007FFF8001FF80007F
310
F000000000000FFF000000000000FFF8000001FFFE0000007F80000000000001
310
FFF0000000000007FFFFF0000000000007FFFF0003FFFFFFFFFC00007E000007
310
F000F800000000000FFC0007FFF80000FFFF8000FF80007FF800000000001FFF
310
800000000001FFF8000001FFFE0000007F80000000000001FFF800000000000F
310
FFFFF800000000000FFFFF0003FFFFFFFFFC00000000000FF000FC0000000000
310
1FFC0007FFFC0000FFFF8000FF80007FF800000000003FFFC00000000001FFF8
310
000001FFFE0000007F80000000000001FFF800000000000FFFFFF80000000000
310
0FFFFF0003FFFFFFFFFE00000000001FF000FE00000000003FF8000FFFFC0000
310
FFFF8000FF80007FFC00000000003FFFC00000000003FFF8000001FFFE000000
310
7F80000000000001FFFC00000000001FFFFFFC00000000001FFFFF0003FFFFFF
310
FFFF00000000001FF000FF00000000003FF8000FFFFC0000FFFFC000FF80007F
310
FE00000000007FFFE00000000007FFF8000001FFFE0000007F80000000000001
310
FFFE00000000003FFFFFFE00000000003FFFFF0003FFFFFFFFFF80000000003F
310
F000FF80000000007FF8000FFFFC0001FFFFC0007F80007FFF0000000000FFFF
310
F0000000000FFFF800000000000000007F80000000000001FFFF8000000000FF
310
FFFFFF8000000000FFFFFF0003FFFFFFFFFFC0000000007FF000FFC000000000
310
FFF8000FFFFE0001FFFFC0007F80007FFF8000000001FFFFF8000000001FFFF8
310
00000000000000007F80000000000001FFFFC000000001FFFFFFFFC000000001
310
FFFFFF0003FFFFFFFFFFE000000000FFF000FFE000000003FFF0001FFFFE0001
310
FFFFC0007F80007FFFC000000007FFFFFE000000003FFFF80000000000000000
310
7F80000000000001FFFFE000000003FFFFFFFFE000000003FFFFFF0003FFFFFF
310
FFFFF000000003FFF000FFF80000000FFFF0001FFFFE0001FFFFE0007F80007F
310
FFF00000000FFFFFFF00000000FFFFF800000000000000007F80000000000001
310
FFFFF80000000FFFFFFFFFF80000000FFFFFFF0003FFFFFFFFFFFC0000000FFF
310
F000FFFE0000003FFFF0001FFFFE0003FFFFE0003F80007FFFFC0000003FFFFF
310
FFC0000003FFFFF800000000000000007F80000000000001FFFFFE0000003FFF
310
FFFFFFFE0000003FFFFFFF0003FFFFFFFFFFFF0000003FFFF000FFFF800000FF
310
FFF0001FFFFF0003FFFFE0003F80007FFFFF000001FFFFFFFFF800001FFFFFF8
310
00000000000000007F80000000000001FFFFFFC00001FFFFFFFFFFFFC00001FF
310
FFFFFF0003FFFFFFFFFFFFC00000FFFFF000FFFFF8000FFFFFFFFFFFFFFFFFFF
310
FFFFFFFFFFFFFFFFFFFFF0001FFFFFFFFFFF0000FFFFFFF80000000000000000
310
7FFFFFFFFFFFFFFFFFFFFFFC001FFFFFFFFFFFFFFC001FFFFFFFFFFFFFFFFFFF
310
FFFFFFFC001FFFFFF000FFFFFFFFFFFFFFFFFFFFFFFFFFFFFFFFFFFFFFFFFFFF
310
FFFFFFFFFFFFFFFFFFFFFFFFFFFFFFFFFFFFFFFFFFFFFFFFFFFFFFFFFFFFFFFF
310
FFFFFFFFFFFFFFFFFFFFFFFFFFFFFFFFFFFFFFFFFFFFFFFFFFFFFFFFFFFFFFFF
310
F000FFFFFFFFFFFFFFFFFFFFFFFFFFFFFFFFFFFFFFFFFFFFFFFFFFFFFFFFFFFF
310
FFFFFFFFFFFFFFFFFFFFFFFFFFFFFFFFFFFFFFFFFFFFFFFFFFFFFFFFFFFFFFFF
310
FFFFFFFFFFFFFFFFFFFFFFFFFFFFFFFFFFFFFFFFFFFFFFFFF000FFFFFFFFFFFF
310
FFFFFFFFFFFFFFFFFFFFFFFFFFFFFFFFFFFFFFFFFFFFFFFFFFFFFFFFFFFFFFFF
310
FFFFFFFFFFFFFFFFFFFFFFFFFFFFFFFFFFFFFFFFFFFFFFFFFFFFFFFFFFFFFFFF
310
FFFFFFFFFFFFFFFFFFFFFFFFFFFFFFFFF000FFFFFFFFFFFFFFFFFFFFFFFFFFFF
310
FFFFFFFFFFFFFFFFFFFFFFFFFFFFFFFFFFFFFFFFFFFFFFFFFFFFFFFFFFFFFFFF
310
FFFFFFFFFFFFFFFFFFFFFFFFFFFFFFFFFFFFFFFFFFFFFFFFFFFFFFFFFFFFFFFF
310
FFFFFFFFFFFFFFFFF000FFFFFFFFFFFFFFFFFFFFFFFFFFFFFFFFFFFFFFFFFFFF
310
FFFFFFFFFFFFFFFFFFFFFFFFFFFFFFFFFFFFFFFFFFFFFFFFFFFFFFFFFFFFFFFF
310
FFFFFFFFFFFFFFFFFFFFFFFFFFFFFFFFFFFFFFFFFFFFFFFFFFFFFFFFFFFFFFFF
310
F000FFFFFFFFFFFFFFFFFFFFFFFFFFFFFFFFFFFFFFFFFFFFFFFFFFFFFFFFFFFF
310
FFFFFFFFFFFFFFFFFFFFFFFFFFFFFFFFFFFFFFFFFFFFFFFFFFFFFFFFFFFFFFFF
310
FFFFFFFFFFFFFFFFFFFFFFFFFFFFFFFFFFFFFFFFFFFFFFFFF000FFFFFFFFFFFF
310
FFFFFFFFFFFFFFFFFFFFFFFFFFFFFFFFFFFFFFFFFFFFFFFFFFFFFFFFFFFFFFFF
310
FFFFFFFFFFFFFFFFFFFFFFFFFFFFFFFFFFFFFFFFFFFFFFFFFFFFFFFFFFFFFFFF
310
FFFFFFFFFFFFFFFFFFFFFFFFFFFFFFFFF000FFFFFFFFFFFFFFFFFFFFFFFFFFFF
310
FFFFFFFFFFFFFFFFFFFFFFFFFFFFFFFFFFFFFFFFFFFFFFFFFFFFFFFFFFFFFFFF
310
FFFFFFFFFFFFFFFFFFFFFFFFFFFFFFFFFFFFFFFFFFFFFFFFFFFFFFFFFFFFFFFF
310
FFFFFFFFFFFFFFFFF000FFFFFFFFFFFFFFFFFFFFFFFFFFFFFFFFFFFFFFFFFFFF
310
FFFFFFFFFFFFFFFFFFFFFFFFFFFFFFFFFFFFFFFFFFFFFFFFFFFFFFFFFFFFFFFF
310
FFFFFFFFFFFFFFFFFFFFFFFFFFFFFFFFFFFFFFFFFFFFFFFFFFFFFFFFFFFFFFFF
310
F000FFFFFFFFFFFFFFFFFFFFFFFFFFFFFFFFFFFFFFFFFFFFFFFFFFFFFFFFFFFF
310
FFFFFFFFFFFFFFFFFFFFFFFFFFFFFFFFFFFFFFFFFFFFFFFFFFFFFFFFFFFFFFFF
310
FFFFFFFFFFFFFFFFFFFFFFFFFFFFFFFFFFFFFFFFFFFFFFFFF000FFFFFFFFFFFF
310
FFFFFFFFFFFFFFFFFFFFFFFFFFFFFFFFFFFFFFFFFFFFFFFFFFFFFFFFFFFFFFFF
310
FFFFFFFFFFFFFFFFFFFFFFFFFFFFFFFFFFFFFFFFFFFFFFFFFFFFFFFFFFFFFFFF
310
FFFFFFFFFFFFFFFFFFFFFFFFFFFFFFFFF000FFFFFFFFFFFFFFFFFFFFFFFFFFFF
310
FFFFFFFFFFFFFFFFFFFFFFFFFFFFFFFFFFFFFFFFFFFFFFFFFFFFFFFFFFFFFFFF
310
FFFFFFFFFFFFFFFFFFFFFFFFFFFFFFFFFFFFFFFFFFFFFFFFFFFFFFFFFFFFFFFF
310
FFFFFFFFFFFFFFFFF000FFFFFFFFFFFFFFFFFFFFFFFFFFFFFFFFFFFFFFFFFFFF
310
FFFFFFFFFFFFFFFFFFFFFFFFFFFFFFFFFFFFFFFFFFFFFFFFFFFFFFFFFFFFFFFF
310
FFFFFFFFFFFFFFFFFFFFFFFFFFFFFFFFFFFFFFFFFFFFFFFFFFFFFFFFFFFFFFFF
310
F000FFFFFFFFFFFFFFFFFFFFFFFFFFFFFFFFFFFFFFFFFFFFFFFFFFFFFFFFFFFF
310
FFFFFFFFFFFFFFFFFFFFFFFFFFFFFFFFFFFFFFFFFFFFFFFFFFFFFFFFFFFFFFFF
310
FFFFFFFFFFFFFFFFFFFFFFFFFFFFFFFFFFFFFFFFFFFFFFFFF000FFFFFFFFFFFF
310
FFFFFFFFFFFFFFFFFFFFFFFFFFFFFFFFFFFFFFFFFFFFFFFFFFFFFFFFFFFFFFFF
310
FFFFFFFFFFFFFFFFFFFFFFFFFFFFFFFFFFFFFFFFFFFFFFFFFFFFFFFFFFFFFFFF
310
FFFFFFFFFFFFFFFFFFFFFFFFFFFFFFFFF000FFFFFFFFFFFFFFFFFFFFFFFFFFFF
310
FFFFFFFFFFFFFFFFFFFFFFFFFFFFFFFFFFFFFFFFFFFFFFFFFFFFFFFFFFFFFFFF
310
FFFFFFFFFFFFFFFFFFFFFFFFFFFFFFFFFFFFFFFFFFFFFFFFFFFFFFFFFFFFFFFF
310
FFFFFFFFFFFFFFFFF000FFFFFFFFFFFFFFFFFFFFFFFFFFFFFFFFFFFFFFFFFFFF
310
FFFFFFFFFFFFFFFFFFFFFFFFFFFFFFFFFFFFFFFFFFFFFFFFFFFFFFFFFFFFFFFF
310
FFFFFFFFFFFFFFFFFFFFFFFFFFFFFFFFFFFFFFFFFFFFFFFFFFFFFFFFFFFFFFFF
310
F000FFFFFFFFFFFFFFFFFFFFFFFFFFFFFFFFFFFFFFFFFFFFFFFFFFFFFFFFFFFF
310
FFFFFFFFFFFFFFFFFFFFFFFFFFFFFFFFFFFFFFFFFFFFFFFFFFFFFFFFFFFFFFFF
310
FFFFFFFFFFFFFFFFFFFFFFFFFFFFFFFFFFFFFFFFFFFFFFFFF000FFFFFFFFFFFF
310
FFFFFFFFFFFFFFFFFFFFFFFFFFFFFFFFFFFFFFFFFFFFFFFFFFFFFFFFFFFFFFFF
310
FFFFFFFFFFFFFFFFFFFFFFFFFFFFFFFFFFFFFFFFFFFFFFFFFFFFFFFFFFFFFFFF
310
FFFFFFFFFFFFFFFFFFFFFFFFFFFFFFFFF000FFFFFFFFFFFFFFFFFFFFFFFFFFFF
310
FFFFFFFFFFFFFFFFFFFFFFFFFFFFFFFFFFFFFFFFFFFFFFFFFFFFFFFFFFFFFFFF
310
FFFFFFFFFFFFFFFFFFFFFFFFFFFFFFFFFFFFFFFFFFFFFFFFFFFFFFFFFFFFFFFF
310
FFFFFFFFFFFFFFFFF000FFFFFFFFFFFFFFFFFFFFFFFFFFFFFFFFFFFFFFFFFFFF
310
FFFFFFFFFFFFFFFFFFFFFFFFFFFFFFFFFFFFFFFFFFFFFFFFFFFFFFFFFFFFFFFF
310
FFFFFFFFFFFFFFFFFFFFFFFFFFFFFFFFFFFFFFFFFFFFFFFFFFFFFFFFFFFFFFFF
310
F000FFFFFFFFFFFFFFFFFFFFFFFFFFFFFFFFFFFFFFFFFFFFFFFFFFFFFFFFFFFF
310
FFFFFFFFFFFFFFFFFFFFFFFFFFFFFFFFFFFFFFFFFFFFFFFFFFFFFFFFFFFFFFFF
310
FFFFFFFFFFFFFFFFFFFFFFFFFFFFFFFFFFFFFFFFFFFFFFFFF000FFFFFFFFFFFF
310
FFFFFFFFFFFFFFFFFFFFFFFFFFFFFFFFFFFFFFFFFFFFFFFFFFFFFFFFFFFFFFFF
310
FFFFFFFFFFFFFFFFFFFFFFFFFFFFFFFFFFFFFFFFFFFFFFFFFFFFFFFFFFFFFFFF
310
FFFFFFFFFFFFFFFFFFFFFFFFFFFFFFFFF0000000000000000000000000000000
310
00000000221AB03DEB03E53DA1E4AF3DD215E53D9EA9AF3DDD1BE53D3F6CAF3D
310
D215E53DCCE6093EDD1BE53D7B050A3ED11BE53D3A080A3EAC1BE53DF90A0A3E
310
6F1BE53DB70D0A3E191BE53D74100A3EAB1AE53D31130A3E241AE53DEC150A3E
310
8519E53DA6180A3ECE18E53D5F1B0A3ED215E53DCCE6093EEB03E53D4AC9093E
310
70E7E43D8AAE093EDD1BE53D3F6CAF3DDD1BE53D3C98AF3DDD1BE53DE71BB03D
310
DD1BE53D5AF6B03DDD1BE53D1626B23DDD1BE53D08A9B33DDD1BE53D8C7CB53D
310
DD1BE53D709DB73DDD1BE53DFB07BA3DDD1BE53DF4B7BC3DDD1BE53DA7A8BF3D
310
DD1BE53DF0D4C23DDD1BE53D4337C63DDD1BE53DB5C9C93DDD1BE53D0686CD3D
310
DD1BE53DAF65D13DDD1BE53DE961D53DDD1BE53DBB73D93DDD1BE53D0994DD3D
310
DD1BE53D9BBBE13DDD1BE53D2CE3E53DDD1BE53D7A03EA3DDD1BE53D4D15EE3D
310
DD1BE53D8611F23DDD1BE53D2FF1F53DDD1BE53D80ADF93DDD1BE53DF23FFD3D
310
DD1BE53D2351003EDD1BE53D47E7013EDD1BE53DA15F033EDD1BE53D9DB7043E
310
DD1BE53DE3EC053EDD1BE53D55FD063EDD1BE53D17E7073EDD1BE53D90A8083E
310
DD1BE53D6E40093EDD1BE53DA7AD093EDD1BE53D7DEF093EDD1BE53D7B050A3E
310
F57D493E8F3C063EC679493EEA0D063E5B6D493EC1E0053E1A59493E87B6053E
  1
OLE
  0
ENDSEC
  0
SECTION
  2
OBJECTS
  0
DICTIONARY
  5
C
330
0
100
AcDbDictionary
281
     1
  3
ACAD_GROUP
350
D
  3
ACAD_LAYOUT
350
1A
  3
ACAD_MLEADERSTYLE
350
282
  3
ACAD_MLINESTYLE
350
17
  3
ACAD_PLOTSETTINGS
350
19
  3
ACAD_PLOTSTYLENAME
350
E
  3
ACAD_TABLESTYLE
350
281
  3
ACAD_VISUALSTYLE
350
2A
  3
AcDbVariableDictionary
350
283
  0
DICTIONARY
  5
D
102
{ACAD_REACTORS
330
C
102
}
330
C
100
AcDbDictionary
281
     1
  0
DICTIONARY
  5
1A
102
{ACAD_REACTORS
330
C
102
}
330
C
100
AcDbDictionary
281
     1
  3
Layout1
350
1E
  3
Layout2
350
26
  3
Model
350
22
  0
DICTIONARY
  5
282
102
{ACAD_REACTORS
330
C
102
}
330
C
100
AcDbDictionary
281
     1
  0
DICTIONARY
  5
17
102
{ACAD_REACTORS
330
C
102
}
330
C
100
AcDbDictionary
281
     1
  3
Standard
350
18
  0
DICTIONARY
  5
19
102
{ACAD_REACTORS
330
C
102
}
330
C
100
AcDbDictionary
281
     1
  0
ACDBDICTIONARYWDFLT
  5
E
102
{ACAD_REACTORS
330
C
102
}
330
C
100
AcDbDictionary
281
     1
  3
Normal
350
F
100
AcDbDictionaryWithDefault
340
F
  0
DICTIONARY
  5
281
102
{ACAD_REACTORS
330
C
102
}
330
C
100
AcDbDictionary
281
     1
  0
DICTIONARY
  5
2A
102
{ACAD_REACTORS
330
C
102
}
330
C
100
AcDbDictionary
281
     1
  3
2dWireframe
350
2F
  3
3D Hidden
350
31
  3
3dWireframe
350
30
  3
Basic
350
32
  3
Brighten
350
36
  3
ColorChange
350
3A
  3
Conceptual
350
34
  3
Dim
350
35
  3
Facepattern
350
39
  3
Flat
350
2B
  3
FlatWithEdges
350
2C
  3
Gouraud
350
2D
  3
GouraudWithEdges
350
2E
  3
Linepattern
350
38
  3
Realistic
350
33
  3
Thicken
350
37
  0
DICTIONARY
  5
283
102
{ACAD_REACTORS
330
C
102
}
330
C
100
AcDbDictionary
281
     1
  3
PSOLHEIGHT
350
285
  3
PSOLWIDTH
350
284
  0
LAYOUT
  5
1E
102
{ACAD_REACTORS
330
1A
102
}
330
1A
100
AcDbPlotSettings
  1

  2
none_device
  4

  6

 40
0.0
 41
0.0
 42
0.0
 43
0.0
 44
0.0
 45
0.0
 46
0.0
 47
0.0
 48
0.0
 49
0.0
140
0.0
141
0.0
142
1.0
143
1.0
 70
   688
 72
     0
 73
     0
 74
     5
  7

 75
    16
147
1.0
148
0.0
149
0.0
100
AcDbLayout
  1
Layout1
 70
     1
 71
     1
 10
0.0
 20
0.0
 11
420.0
 21
297.0
 12
0.0
 22
0.0
 32
0.0
 14
1.0000000000E+20
 24
1.0000000000E+20
 34
1.0000000000E+20
 15
-1.0000000000E+20
 25
-1.0000000000E+20
 35
-1.0000000000E+20
146
0.0
 13
0.0
 23
0.0
 33
0.0
 16
1.0
 26
0.0
 36
0.0
 17
0.0
 27
1.0
 37
0.0
 76
     0
330
1B
  0
LAYOUT
  5
26
102
{ACAD_REACTORS
330
1A
102
}
330
1A
100
AcDbPlotSettings
  1

  2
none_device
  4

  6

 40
0.0
 41
0.0
 42
0.0
 43
0.0
 44
0.0
 45
0.0
 46
0.0
 47
0.0
 48
0.0
 49
0.0
140
0.0
141
0.0
142
1.0
143
1.0
 70
   688
 72
     0
 73
     0
 74
     5
  7

 75
    16
147
1.0
148
0.0
149
0.0
100
AcDbLayout
  1
Layout2
 70
     1
 71
     2
 10
0.0
 20
0.0
 11
0.0
 21
0.0
 12
0.0
 22
0.0
 32
0.0
 14
0.0
 24
0.0
 34
0.0
 15
0.0
 25
0.0
 35
0.0
146
0.0
 13
0.0
 23
0.0
 33
0.0
 16
1.0
 26
0.0
 36
0.0
 17
0.0
 27
1.0
 37
0.0
 76
     0
330
23
  0
LAYOUT
  5
22
102
{ACAD_REACTORS
330
1A
102
}
330
1A
100
AcDbPlotSettings
  1

  2
none_device
  4

  6

 40
0.0
 41
0.0
 42
0.0
 43
0.0
 44
0.0
 45
0.0
 46
0.0
 47
0.0
 48
0.0
 49
0.0
140
0.0
141
0.0
142
1.0
143
1.0
 70
  1712
 72
     0
 73
     0
 74
     0
  7

 75
     0
147
1.0
148
0.0
149
0.0
100
AcDbLayout
  1
Model
 70
     1
 71
     0
 10
0.0
 20
0.0
 11
297.0
 21
210.0
 12
0.0
 22
0.0
 32
0.0
 14
0.0
 24
0.0
 34
0.0
 15
297.0
 25
210.0
 35
0.0
146
0.0
 13
0.0
 23
0.0
 33
0.0
 16
1.0
 26
0.0
 36
0.0
 17
0.0
 27
1.0
 37
0.0
 76
     0
330
1F
331
29
  0
MLINESTYLE
  5
18
102
{ACAD_REACTORS
330
17
102
}
330
17
100
AcDbMlineStyle
  2
Standard
 70
     0
  3

 62
   256
 51
90.0
 52
90.0
 71
     2
 49
0.5
 62
   256
  6
BYLAYER
 49
-0.5
 62
   256
  6
BYLAYER
  0
ACDBPLACEHOLDER
  5
F
102
{ACAD_REACTORS
330
E
102
}
330
E
  0
VISUALSTYLE
  5
2F
102
{ACAD_REACTORS
330
2A
102
}
330
2A
100
AcDbVisualStyle
  2
2dWireframe
 70
     4
 71
     0
 72
     2
 73
     0
 90
        0
 40
-0.6
 41
-30.0
 62
     5
 63
     7
 74
     1
 91
        4
 64
     7
 65
   257
 75
     1
175
     1
 42
1.0
 92
        0
 66
   257
 43
1.0
 76
     1
 77
     6
 78
     2
 67
     7
 79
     5
170
     0
171
     0
290
     0
174
     0
 93
        1
 44
0.0
173
     0
291
     0
 45
0.0
1001
ACAD
1000
AcDbSavedByObjectVersion
1070
     0
  0
VISUALSTYLE
  5
31
102
{ACAD_REACTORS
330
2A
102
}
330
2A
100
AcDbVisualStyle
  2
3D Hidden
 70
     6
 71
     1
 72
     2
 73
     2
 90
        0
 40
-0.6
 41
-30.0
 62
     5
 63
     7
 74
     2
 91
        2
 64
     7
 65
   257
 75
     2
175
     1
 42
40.0
 92
        0
 66
   257
 43
1.0
 76
     1
 77
     6
 78
     2
 67
     7
 79
     3
170
     0
171
     0
290
     0
174
     0
 93
        1
 44
0.0
173
     0
291
     0
 45
0.0
1001
ACAD
1000
AcDbSavedByObjectVersion
1070
     0
  0
VISUALSTYLE
  5
30
102
{ACAD_REACTORS
330
2A
102
}
330
2A
100
AcDbVisualStyle
  2
3dWireframe
 70
     5
 71
     0
 72
     2
 73
     0
 90
        0
 40
-0.6
 41
-30.0
 62
     5
 63
     7
 74
     1
 91
        4
 64
     7
 65
   257
 75
     1
175
     1
 42
1.0
 92
        0
 66
   257
 43
1.0
 76
     1
 77
     6
 78
     2
 67
     7
 79
     5
170
     0
171
     0
290
     0
174
     0
 93
        1
 44
0.0
173
     0
291
     0
 45
0.0
1001
ACAD
1000
AcDbSavedByObjectVersion
1070
     0
  0
VISUALSTYLE
  5
32
102
{ACAD_REACTORS
330
2A
102
}
330
2A
100
AcDbVisualStyle
  2
Basic
 70
     7
 71
     1
 72
     0
 73
     1
 90
        0
 40
-0.6
 41
-30.0
 62
     5
 63
     7
 74
     0
 91
        4
 64
     7
 65
   257
 75
     1
175
     1
 42
1.0
 92
        8
 66
     7
 43
1.0
 76
     1
 77
     6
 78
     2
 67
     7
 79
     5
170
     0
171
     0
290
     0
174
     0
 93
        1
 44
0.0
173
     0
291
     1
 45
0.0
1001
ACAD
1000
AcDbSavedByObjectVersion
1070
     0
  0
VISUALSTYLE
  5
36
102
{ACAD_REACTORS
330
2A
102
}
330
2A
100
AcDbVisualStyle
  2
Brighten
 70
    12
 71
     2
 72
     2
 73
     0
 90
        0
 40
-0.6
 41
-30.0
 62
     5
 63
     7
 74
     1
 91
        4
 64
     7
 65
   257
 75
     1
175
     1
 42
1.0
 92
        8
 66
     7
 43
1.0
 76
     1
 77
     6
 78
     2
 67
     7
 79
     5
170
     0
171
     0
290
     0
174
     0
 93
        1
 44
50.0
173
     0
291
     1
 45
0.0
1001
ACAD
1000
AcDbSavedByObjectVersion
1070
     0
  0
VISUALSTYLE
  5
3A
102
{ACAD_REACTORS
330
2A
102
}
330
2A
100
AcDbVisualStyle
  2
ColorChange
 70
    16
 71
     2
 72
     2
 73
     3
 90
        0
 40
-0.6
 41
-30.0
 62
     5
 63
     8
 74
     1
 91
        4
 64
     7
 65
   257
 75
     1
175
     1
 42
1.0
 92
        8
 66
     8
 43
1.0
 76
     1
 77
     6
 78
     2
 67
     7
 79
     5
170
     0
171
     0
290
     0
174
     0
 93
        1
 44
0.0
173
     0
291
     1
 45
0.0
1001
ACAD
1000
AcDbSavedByObjectVersion
1070
     0
  0
VISUALSTYLE
  5
34
102
{ACAD_REACTORS
330
2A
102
}
330
2A
100
AcDbVisualStyle
  2
Conceptual
 70
     9
 71
     3
 72
     2
 73
     0
 90
        0
 40
-0.6
 41
-30.0
 62
     5
 63
     7
 74
     2
 91
        2
 64
     7
 65
   257
 75
     1
175
     1
 42
40.0
 92
        8
 66
     7
 43
1.0
 76
     1
 77
     6
 78
     2
 67
     7
 79
     3
170
     0
171
     0
290
     0
174
     0
 93
        1
 44
0.0
173
     0
291
     0
 45
0.0
1001
ACAD
1000
AcDbSavedByObjectVersion
1070
     0
  0
VISUALSTYLE
  5
35
102
{ACAD_REACTORS
330
2A
102
}
330
2A
100
AcDbVisualStyle
  2
Dim
 70
    11
 71
     2
 72
     2
 73
     0
 90
        0
 40
-0.6
 41
-30.0
 62
     5
 63
     7
 74
     1
 91
        4
 64
     7
 65
   257
 75
     1
175
     1
 42
1.0
 92
        8
 66
     7
 43
1.0
 76
     1
 77
     6
 78
     2
 67
     7
 79
     5
170
     0
171
     0
290
     0
174
     0
 93
        1
 44
-50.0
173
     0
291
     1
 45
0.0
1001
ACAD
1000
AcDbSavedByObjectVersion
1070
     0
  0
VISUALSTYLE
  5
39
102
{ACAD_REACTORS
330
2A
102
}
330
2A
100
AcDbVisualStyle
  2
Facepattern
 70
    15
 71
     2
 72
     2
 73
     0
 90
        0
 40
-0.6
 41
-30.0
 62
     5
 63
     7
 74
     1
 91
        4
 64
     7
 65
   257
 75
     1
175
     1
 42
1.0
 92
        8
 66
     7
 43
1.0
 76
     1
 77
     6
 78
     2
 67
     7
 79
     5
170
     0
171
     0
290
     0
174
     0
 93
        1
 44
0.0
173
     0
291
     1
 45
0.0
1001
ACAD
1000
AcDbSavedByObjectVersion
1070
     0
  0
VISUALSTYLE
  5
2B
102
{ACAD_REACTORS
330
2A
102
}
330
2A
100
AcDbVisualStyle
  2
Flat
 70
     0
 71
     2
 72
     1
 73
     1
 90
        2
 40
-0.6
 41
30.0
 62
     5
 63
     7
 74
     0
 91
        4
 64
     7
 65
   257
 75
     1
175
     1
 42
1.0
 92
        8
 66
     7
 43
1.0
 76
     1
 77
     6
 78
     2
 67
     7
 79
     5
170
     0
171
     0
290
     0
174
     0
 93
       13
 44
0.0
173
     0
291
     1
 45
0.0
1001
ACAD
1000
AcDbSavedByObjectVersion
1070
     0
  0
VISUALSTYLE
  5
2C
102
{ACAD_REACTORS
330
2A
102
}
330
2A
100
AcDbVisualStyle
  2
FlatWithEdges
 70
     1
 71
     2
 72
     1
 73
     1
 90
        2
 40
-0.6
 41
30.0
 62
     5
 63
     7
 74
     1
 91
        4
 64
     7
 65
   257
 75
     1
175
     1
 42
1.0
 92
        0
 66
   257
 43
1.0
 76
     1
 77
     6
 78
     2
 67
     7
 79
     5
170
     0
171
     0
290
     0
174
     0
 93
       13
 44
0.0
173
     0
291
     1
 45
0.0
1001
ACAD
1000
AcDbSavedByObjectVersion
1070
     0
  0
VISUALSTYLE
  5
2D
102
{ACAD_REACTORS
330
2A
102
}
330
2A
100
AcDbVisualStyle
  2
Gouraud
 70
     2
 71
     2
 72
     2
 73
     1
 90
        2
 40
-0.6
 41
30.0
 62
     5
 63
     7
 74
     0
 91
        4
 64
     7
 65
   257
 75
     1
175
     1
 42
1.0
 92
        0
 66
     7
 43
1.0
 76
     1
 77
     6
 78
     2
 67
     7
 79
     5
170
     0
171
     0
290
     0
174
     0
 93
       13
 44
0.0
173
     0
291
     1
 45
0.0
1001
ACAD
1000
AcDbSavedByObjectVersion
1070
     0
  0
VISUALSTYLE
  5
2E
102
{ACAD_REACTORS
330
2A
102
}
330
2A
100
AcDbVisualStyle
  2
GouraudWithEdges
 70
     3
 71
     2
 72
     2
 73
     1
 90
        2
 40
-0.6
 41
30.0
 62
     5
 63
     7
 74
     1
 91
        4
 64
     7
 65
   257
 75
     1
175
     1
 42
1.0
 92
        0
 66
   257
 43
1.0
 76
     1
 77
     6
 78
     2
 67
     7
 79
     5
170
     0
171
     0
290
     0
174
     0
 93
       13
 44
0.0
173
     0
291
     1
 45
0.0
1001
ACAD
1000
AcDbSavedByObjectVersion
1070
     0
  0
VISUALSTYLE
  5
38
102
{ACAD_REACTORS
330
2A
102
}
330
2A
100
AcDbVisualStyle
  2
Linepattern
 70
    14
 71
     2
 72
     2
 73
     0
 90
        0
 40
-0.6
 41
-30.0
 62
     5
 63
     7
 74
     1
 91
        4
 64
     7
 65
   257
 75
     7
175
     7
 42
1.0
 92
        8
 66
     7
 43
1.0
 76
     1
 77
     6
 78
     2
 67
     7
 79
     5
170
     0
171
     0
290
     0
174
     0
 93
        1
 44
0.0
173
     0
291
     1
 45
0.0
1001
ACAD
1000
AcDbSavedByObjectVersion
1070
     0
  0
VISUALSTYLE
  5
33
102
{ACAD_REACTORS
330
2A
102
}
330
2A
100
AcDbVisualStyle
  2
Realistic
 70
     8
 71
     2
 72
     2
 73
     0
 90
        0
 40
-0.6
 41
-30.0
 62
     5
 63
     7
 74
     1
 91
        0
 64
     7
 65
   257
 75
     1
175
     1
 42
1.0
 92
        8
 66
     8
 43
1.0
 76
     1
 77
     6
 78
     2
 67
     7
 79
     5
170
     0
171
     0
290
     0
174
     0
 93
       13
 44
0.0
173
     0
291
     0
 45
0.0
1001
ACAD
1000
AcDbSavedByObjectVersion
1070
     0
  0
VISUALSTYLE
  5
37
102
{ACAD_REACTORS
330
2A
102
}
330
2A
100
AcDbVisualStyle
  2
Thicken
 70
    13
 71
     2
 72
     2
 73
     0
 90
        0
 40
-0.6
 41
-30.0
 62
     5
 63
     7
 74
     1
 91
        4
 64
     7
 65
   257
 75
     1
175
     1
 42
1.0
 92
       12
 66
     7
 43
1.0
 76
     1
 77
     6
 78
     2
 67
     7
 79
     5
170
     0
171
     0
290
     0
174
     0
 93
        1
 44
0.0
173
     0
291
     1
 45
0.0
1001
ACAD
1000
AcDbSavedByObjectVersion
1070
     0
  0
DICTIONARYVAR
  5
285
102
{ACAD_REACTORS
330
283
102
}
330
283
100
DictionaryVariables
280
     0
  1
80.000000
  0
DICTIONARYVAR
  5
284
102
{ACAD_REACTORS
330
283
102
}
330
283
100
DictionaryVariables
280
     0
  1
5.000000
  0
ENDSEC
  0
EOF
