  0
SECTION
  2
HEADER
  9
$ACADVER
  1
AC1015
  9
$ACADMAINTVER
 70
     6
  9
$DWGCODEPAGE
  3
ANSI_1252
  9
$INSBASE
 10
0.0
 20
0.0
 30
0.0
  9
$EXTMIN
 10
0.0
 20
0.0
 30
0.0
  9
$EXTMAX
 10
297.0
 20
210.0
 30
0.0
  9
$LIMMIN
 10
0.0
 20
0.0
  9
$LIMMAX
 10
297.0
 20
210.0
  9
$ORTHOMODE
 70
     0
  9
$REGENMODE
 70
     1
  9
$FILLMODE
 70
     1
  9
$QTEXTMODE
 70
     0
  9
$MIRRTEXT
 70
     1
  9
$LTSCALE
 40
1.0
  9
$ATTMODE
 70
     1
  9
$TEXTSIZE
 40
2.0
  9
$TRACEWID
 40
1.0
  9
$TEXTSTYLE
  7
Standard
  9
$CLAYER
  8
0
  9
$CELTYPE
  6
ByLayer
  9
$CECOLOR
 62
   256
  9
$CELTSCALE
 40
1.0
  9
$DISPSILH
 70
     0
  9
$DIMSCALE
 40
1.0
  9
$DIMASZ
 40
3.0
  9
$DIMEXO
 40
0.0
  9
$DIMDLI
 40
3.75
  9
$DIMRND
 40
0.0
  9
$DIMDLE
 40
0.0
  9
$DIMEXE
 40
1.0
  9
$DIMTP
 40
0.0
  9
$DIMTM
 40
0.0
  9
$DIMTXT
 40
2.0
  9
$DIMCEN
 40
2.5
  9
$DIMTSZ
 40
0.0
  9
$DIMTOL
 70
     0
  9
$DIMLIM
 70
     0
  9
$DIMTIH
 70
     1
  9
$DIMTOH
 70
     1
  9
$DIMSE1
 70
     0
  9
$DIMSE2
 70
     0
  9
$DIMTAD
 70
     1
  9
$DIMZIN
 70
     0
  9
$DIMBLK
  1

  9
$DIMASO
 70
     1
  9
$DIMSHO
 70
     1
  9
$DIMPOST
  1

  9
$DIMAPOST
  1

  9
$DIMALT
 70
     0
  9
$DIMALTD
 70
     3
  9
$DIMALTF
 40
0.0393700787
  9
$DIMLFAC
 40
1.0
  9
$DIMTOFL
 70
     1
  9
$DIMTVP
 40
0.0
  9
$DIMTIX
 70
     0
  9
$DIMSOXD
 70
     0
  9
$DIMSAH
 70
     0
  9
$DIMBLK1
  1

  9
$DIMBLK2
  1

  9
$DIMSTYLE
  2
ISO-25
  9
$DIMCLRD
 70
     0
  9
$DIMCLRE
 70
     0
  9
$DIMCLRT
 70
     0
  9
$DIMTFAC
 40
1.0
  9
$DIMGAP
 40
1.524
  9
$DIMJUST
 70
     0
  9
$DIMSD1
 70
     0
  9
$DIMSD2
 70
     0
  9
$DIMTOLJ
 70
     0
  9
$DIMTZIN
 70
     0
  9
$DIMALTZ
 70
     0
  9
$DIMALTTZ
 70
     0
  9
$DIMUPT
 70
     0
  9
$DIMDEC
 70
     2
  9
$DIMTDEC
 70
     3
  9
$DIMALTU
 70
     2
  9
$DIMALTTD
 70
     3
  9
$DIMTXSTY
  7
Standard
  9
$DIMAUNIT
 70
     0
  9
$DIMADEC
 70
     2
  9
$DIMALTRND
 40
0.0
  9
$DIMAZIN
 70
     0
  9
$DIMDSEP
 70
    44
  9
$DIMATFIT
 70
     3
  9
$DIMFRAC
 70
     0
  9
$DIMLDRBLK
  1

  9
$DIMLUNIT
 70
     2
  9
$DIMLWD
 70
    -2
  9
$DIMLWE
 70
    -2
  9
$DIMTMOVE
 70
     0
  9
$LUNITS
 70
     2
  9
$LUPREC
 70
     2
  9
$SKETCHINC
 40
1.0
  9
$FILLETRAD
 40
10.0
  9
$AUNITS
 70
     0
  9
$AUPREC
 70
     2
  9
$MENU
  1
.
  9
$ELEVATION
 40
0.0
  9
$PELEVATION
 40
0.0
  9
$THICKNESS
 40
0.0
  9
$LIMCHECK
 70
     0
  9
$CHAMFERA
 40
10.0
  9
$CHAMFERB
 40
10.0
  9
$CHAMFERC
 40
20.0
  9
$CHAMFERD
 40
0.0
  9
$SKPOLY
 70
     0
  9
$TDCREATE
 40
2455643.44372066
  9
$TDUCREATE
 40
2455643.402053993
  9
$TDUPDATE
 40
2455643.443720671
  9
$TDUUPDATE
 40
2455643.402054005
  9
$TDINDWG
 40
0.0000000116
  9
$TDUSRTIMER
 40
0.0000000116
  9
$USRTIMER
 70
     1
  9
$ANGBASE
 50
0.0
  9
$ANGDIR
 70
     0
  9
$PDMODE
 70
     0
  9
$PDSIZE
 40
-1.0
  9
$PLINEWID
 40
0.0
  9
$SPLFRAME
 70
     0
  9
$SPLINETYPE
 70
     6
  9
$SPLINESEGS
 70
     8
  9
$HANDSEED
  5
29B
  9
$SURFTAB1
 70
     6
  9
$SURFTAB2
 70
     6
  9
$SURFTYPE
 70
     6
  9
$SURFU
 70
     6
  9
$SURFV
 70
     6
  9
$UCSBASE
  2

  9
$UCSNAME
  2

  9
$UCSORG
 10
0.0
 20
0.0
 30
0.0
  9
$UCSXDIR
 10
1.0
 20
0.0
 30
0.0
  9
$UCSYDIR
 10
0.0
 20
1.0
 30
0.0
  9
$UCSORTHOREF
  2

  9
$UCSORTHOVIEW
 70
     0
  9
$UCSORGTOP
 10
0.0
 20
0.0
 30
0.0
  9
$UCSORGBOTTOM
 10
0.0
 20
0.0
 30
0.0
  9
$UCSORGLEFT
 10
0.0
 20
0.0
 30
0.0
  9
$UCSORGRIGHT
 10
0.0
 20
0.0
 30
0.0
  9
$UCSORGFRONT
 10
0.0
 20
0.0
 30
0.0
  9
$UCSORGBACK
 10
0.0
 20
0.0
 30
0.0
  9
$PUCSBASE
  2

  9
$PUCSNAME
  2

  9
$PUCSORG
 10
0.0
 20
0.0
 30
0.0
  9
$PUCSXDIR
 10
1.0
 20
0.0
 30
0.0
  9
$PUCSYDIR
 10
0.0
 20
1.0
 30
0.0
  9
$PUCSORTHOREF
  2

  9
$PUCSORTHOVIEW
 70
     0
  9
$PUCSORGTOP
 10
0.0
 20
0.0
 30
0.0
  9
$PUCSORGBOTTOM
 10
0.0
 20
0.0
 30
0.0
  9
$PUCSORGLEFT
 10
0.0
 20
0.0
 30
0.0
  9
$PUCSORGRIGHT
 10
0.0
 20
0.0
 30
0.0
  9
$PUCSORGFRONT
 10
0.0
 20
0.0
 30
0.0
  9
$PUCSORGBACK
 10
0.0
 20
0.0
 30
0.0
  9
$USERI1
 70
     0
  9
$USERI2
 70
     0
  9
$USERI3
 70
     0
  9
$USERI4
 70
     0
  9
$USERI5
 70
     0
  9
$USERR1
 40
0.0
  9
$USERR2
 40
0.0
  9
$USERR3
 40
0.0
  9
$USERR4
 40
0.0
  9
$USERR5
 40
0.0
  9
$WORLDVIEW
 70
     1
  9
$SHADEDGE
 70
     3
  9
$SHADEDIF
 70
    70
  9
$TILEMODE
 70
     1
  9
$MAXACTVP
 70
    64
  9
$PINSBASE
 10
0.0
 20
0.0
 30
0.0
  9
$PLIMCHECK
 70
     0
  9
$PEXTMIN
 10
1.0000000000E+20
 20
1.0000000000E+20
 30
1.0000000000E+20
  9
$PEXTMAX
 10
-1.0000000000E+20
 20
-1.0000000000E+20
 30
-1.0000000000E+20
  9
$PLIMMIN
 10
0.0
 20
0.0
  9
$PLIMMAX
 10
420.0
 20
297.0
  9
$UNITMODE
 70
     0
  9
$VISRETAIN
 70
     1
  9
$PLINEGEN
 70
     0
  9
$PSLTSCALE
 70
     1
  9
$TREEDEPTH
 70
  3020
  9
$CMLSTYLE
  2
Standard
  9
$CMLJUST
 70
     0
  9
$CMLSCALE
 40
20.0
  9
$PROXYGRAPHICS
 70
     1
  9
$MEASUREMENT
 70
     1
  9
$CELWEIGHT
370
    -1
  9
$ENDCAPS
280
     0
  9
$JOINSTYLE
280
     0
  9
$LWDISPLAY
290
     1
  9
$INSUNITS
 70
     4
  9
$HYPERLINKBASE
  1

  9
$STYLESHEET
  1

  9
$XEDIT
290
     1
  9
$CEPSNTYPE
380
     0
  9
$PSTYLEMODE
290
     1
  9
$FINGERPRINTGUID
  2
{FCBE5E8D-36F1-4598-8BCF-187A047A19A7}
  9
$VERSIONGUID
  2
{FAEB1C32-E019-11D5-929B-00C0DF256EC4}
  9
$EXTNAMES
290
     1
  9
$PSVPSCALE
 40
0.0
  9
$OLESTARTUP
290
     0
  0
ENDSEC
  0
SECTION
  2
CLASSES
  0
CLASS
  1
ACDBDICTIONARYWDFLT
  2
AcDbDictionaryWithDefault
  3
ObjectDBX Classes
 90
        0
280
     0
281
     0
  0
CLASS
  1
VISUALSTYLE
  2
AcDbVisualStyle
  3
ObjectDBX Classes
 90
     4095
280
     0
281
     0
  0
CLASS
  1
DICTIONARYVAR
  2
AcDbDictionaryVar
  3
ObjectDBX Classes
 90
        0
280
     0
281
     0
  0
CLASS
  1
ACDBPLACEHOLDER
  2
AcDbPlaceHolder
  3
ObjectDBX Classes
 90
        0
280
     0
281
     0
  0
CLASS
  1
LAYOUT
  2
AcDbLayout
  3
ObjectDBX Classes
 90
        0
280
     0
281
     0
  0
ENDSEC
  0
SECTION
  2
TABLES
  0
TABLE
  2
VPORT
  5
8
330
0
100
AcDbSymbolTable
 70
     1
  0
VPORT
  5
29
330
8
100
AcDbSymbolTableRecord
100
AcDbViewportTableRecord
  2
*Active
 70
     0
 10
0.0
 20
0.0
 11
1.0
 21
1.0
 12
148.5
 22
105.0
 13
0.0
 23
0.0
 14
10.0
 24
10.0
 15
10.0
 25
10.0
 16
0.0
 26
0.0
 36
1.0
 17
0.0
 27
0.0
 37
0.0
 40
210.0
 41
1.4142857143
 42
50.0
 43
0.0
 44
0.0
 50
0.0
 51
0.0
 71
     0
 72
  2000
 73
     1
 74
     3
 75
     0
 76
     0
 77
     0
 78
     0
281
     0
 65
     1
110
0.0
120
0.0
130
0.0
111
1.0
121
0.0
131
0.0
112
0.0
122
1.0
132
0.0
 79
     0
146
0.0
  0
ENDTAB
  0
TABLE
  2
LTYPE
  5
5
330
0
100
AcDbSymbolTable
 70
     6
  0
LTYPE
  5
14
330
5
100
AcDbSymbolTableRecord
100
AcDbLinetypeTableRecord
  2
ByBlock
 70
     0
  3

 72
    65
 73
     0
 40
0.0
  0
LTYPE
  5
15
330
5
100
AcDbSymbolTableRecord
100
AcDbLinetypeTableRecord
  2
ByLayer
 70
     0
  3

 72
    65
 73
     0
 40
0.0
  0
LTYPE
  5
16
330
5
100
AcDbSymbolTableRecord
100
AcDbLinetypeTableRecord
  2
Continuous
 70
     0
  3
Solid line
 72
    65
 73
     0
 40
0.0
  0
LTYPE
  5
3B
330
5
100
AcDbSymbolTableRecord
100
AcDbLinetypeTableRecord
  2
HIDDEN
 70
     0
  3
Hidden __ __ __ __ __ __ __ __ __ __ __ __ __ __
 72
    65
 73
     2
 40
1.905
 49
1.27
 74
     0
 49
-0.635
 74
     0
  0
LTYPE
  5
3C
330
5
100
AcDbSymbolTableRecord
100
AcDbLinetypeTableRecord
  2
PHANTOM
 70
     0
  3
Phantom ______  __  __  ______  __  __  ______
 72
    65
 73
     6
 40
12.7
 49
6.35
 74
     0
 49
-1.27
 74
     0
 49
1.27
 74
     0
 49
-1.27
 74
     0
 49
1.27
 74
     0
 49
-1.27
 74
     0
  0
LTYPE
  5
3D
330
5
100
AcDbSymbolTableRecord
100
AcDbLinetypeTableRecord
  2
CENTER
 70
     0
  3
Center ____ _ ____ _ ____ _ ____ _ ____ _ ____
 72
    65
 73
     4
 40
10.16
 49
6.35
 74
     0
 49
-1.27
 74
     0
 49
1.27
 74
     0
 49
-1.27
 74
     0
  0
LTYPE
  5
3E
330
5
100
AcDbSymbolTableRecord
100
AcDbLinetypeTableRecord
  2
CENTERX2
 70
     0
  3
Center (2x) ________  __  ________  __  _____
 72
    65
 73
     4
 40
20.32
 49
12.7
 74
     0
 49
-2.54
 74
     0
 49
2.54
 74
     0
 49
-2.54
 74
     0
  0
LTYPE
  5
3F
330
5
100
AcDbSymbolTableRecord
100
AcDbLinetypeTableRecord
  2
DOT2
 70
     0
  3
Dot (.5x) ........................................
 72
    65
 73
     2
 40
0.635
 49
0.0
 74
     0
 49
-0.635
 74
     0
  0
ENDTAB
  0
TABLE
  2
LAYER
  5
2
330
0
100
AcDbSymbolTable
 70
     5
  0
LAYER
  5
10
330
2
100
AcDbSymbolTableRecord
100
AcDbLayerTableRecord
  2
0
 70
     0
 62
     7
  6
Continuous
370
    -3
390
F
  0
LAYER
  5
40
330
2
100
AcDbSymbolTableRecord
100
AcDbLayerTableRecord
  2
FORMAT
 70
     0
 62
     7
  6
Continuous
370
    -3
390
F
  0
LAYER
  5
41
330
2
100
AcDbSymbolTableRecord
100
AcDbLayerTableRecord
  2
VERMASSUNG
 70
     0
 62
     7
  6
Continuous
370
    -3
390
F
  0
LAYER
  5
42
330
2
100
AcDbSymbolTableRecord
100
AcDbLayerTableRecord
  2
KOPF_DÜNN
 70
     0
 62
     7
  6
Continuous
370
    -3
390
F
  0
LAYER
  5
43
330
2
100
AcDbSymbolTableRecord
100
AcDbLayerTableRecord
  2
KOPF_DICK
 70
     0
 62
     7
  6
Continuous
370
    15
390
F
  0
ENDTAB
  0
TABLE
  2
STYLE
  5
3
330
0
100
AcDbSymbolTable
 70
     3
  0
STYLE
  5
11
330
3
100
AcDbSymbolTableRecord
100
AcDbTextStyleTableRecord
  2
Standard
 70
     0
 40
0.0
 41
1.0
 50
0.0
 71
     0
 42
2.5
  3
txt
  4

  0
STYLE
  5
44
330
3
100
AcDbSymbolTableRecord
100
AcDbTextStyleTableRecord
  2
SLDTEXTSTYLE0
 70
     0
 40
0.0
 41
0.7
 50
0.0
 71
     0
 42
0.2
  3
TXT
  4

  0
STYLE
  5
48
330
3
100
AcDbSymbolTableRecord
100
AcDbTextStyleTableRecord
  2
SLDTEXTSTYLE1
 70
     0
 40
0.0
 41
0.6473684211
 50
0.0
 71
     0
 42
0.2
  3
TXT
  4

  0
ENDTAB
  0
TABLE
  2
VIEW
  5
6
330
0
100
AcDbSymbolTable
 70
     0
  0
ENDTAB
  0
TABLE
  2
UCS
  5
7
330
0
100
AcDbSymbolTable
 70
     0
  0
ENDTAB
  0
TABLE
  2
APPID
  5
9
330
0
100
AcDbSymbolTable
 70
     1
  0
APPID
  5
12
330
9
100
AcDbSymbolTableRecord
100
AcDbRegAppTableRecord
  2
ACAD
 70
     0
  0
ENDTAB
  0
TABLE
  2
DIMSTYLE
  5
A
330
0
100
AcDbSymbolTable
 70
     3
100
AcDbDimStyleTable
  0
DIMSTYLE
105
27
330
A
100
AcDbSymbolTableRecord
100
AcDbDimStyleTableRecord
  2
ISO-25
 70
     0
 41
2.5
 42
0.625
 43
3.75
 44
1.25
 73
     0
 74
     0
 77
     1
 78
     8
140
2.5
141
2.5
143
0.0393700787
147
0.625
171
     3
172
     1
271
     2
272
     2
274
     3
278
    44
283
     0
284
     8
340
11
  0
DIMSTYLE
105
233
102
{ACAD_REACTORS
330
232
330
23E
330
24A
330
254
330
25E
330
268
330
272
330
27D
102
}
330
A
100
AcDbSymbolTableRecord
100
AcDbDimStyleTableRecord
  2
SLDDIMSTYLE0
 70
     0
 41
3.0
 44
0.0
 45
0.000000001
 73
     0
 74
     0
 77
     1
 78
    12
140
2.0
147
0.5
173
     1
271
     2
272
     3
284
    12
340
44
  0
DIMSTYLE
105
289
102
{ACAD_REACTORS
330
288
102
}
330
A
100
AcDbSymbolTableRecord
100
AcDbDimStyleTableRecord
  2
SLDDIMSTYLE1
 70
     0
 41
3.0
 44
0.0
 45
0.000000001
 73
     0
 74
     0
 77
     1
 78
    12
140
2.0
147
0.5
173
     1
271
     0
272
     3
284
    12
340
44
  0
ENDTAB
  0
TABLE
  2
BLOCK_RECORD
  5
1
330
0
100
AcDbSymbolTable
 70
    10
  0
BLOCK_RECORD
  5
1F
330
1
100
AcDbSymbolTableRecord
100
AcDbBlockTableRecord
  2
*Model_Space
340
22
  0
BLOCK_RECORD
  5
1B
330
1
100
AcDbSymbolTableRecord
100
AcDbBlockTableRecord
  2
*Paper_Space
340
1E
  0
BLOCK_RECORD
  5
23
330
1
100
AcDbSymbolTableRecord
100
AcDbBlockTableRecord
  2
*Paper_Space0
340
26
  0
BLOCK_RECORD
  5
234
330
1
100
AcDbSymbolTableRecord
100
AcDbBlockTableRecord
  2
*D1
340
0
  0
BLOCK_RECORD
  5
23F
330
1
100
AcDbSymbolTableRecord
100
AcDbBlockTableRecord
  2
*D2
340
0
  0
BLOCK_RECORD
  5
24B
330
1
100
AcDbSymbolTableRecord
100
AcDbBlockTableRecord
  2
*D3
340
0
  0
BLOCK_RECORD
  5
255
330
1
100
AcDbSymbolTableRecord
100
AcDbBlockTableRecord
  2
*D4
340
0
  0
BLOCK_RECORD
  5
25F
330
1
100
AcDbSymbolTableRecord
100
AcDbBlockTableRecord
  2
*D5
340
0
  0
BLOCK_RECORD
  5
269
330
1
100
AcDbSymbolTableRecord
100
AcDbBlockTableRecord
  2
*D6
340
0
  0
BLOCK_RECORD
  5
273
330
1
100
AcDbSymbolTableRecord
100
AcDbBlockTableRecord
  2
*D7
340
0
  0
BLOCK_RECORD
  5
27E
330
1
100
AcDbSymbolTableRecord
100
AcDbBlockTableRecord
  2
*D8
340
0
  0
BLOCK_RECORD
  5
28A
330
1
100
AcDbSymbolTableRecord
100
AcDbBlockTableRecord
  2
*D9
340
0
  0
ENDTAB
  0
ENDSEC
  0
SECTION
  2
BLOCKS
  0
BLOCK
  5
20
330
1F
100
AcDbEntity
  8
0
100
AcDbBlockBegin
  2
*Model_Space
 70
     0
 10
0.0
 20
0.0
 30
0.0
  3
*Model_Space
  1

  0
ENDBLK
  5
21
330
1F
100
AcDbEntity
  8
0
100
AcDbBlockEnd
  0
BLOCK
  5
1C
330
1B
100
AcDbEntity
 67
     1
  8
0
100
AcDbBlockBegin
  2
*Paper_Space
 70
     0
 10
0.0
 20
0.0
 30
0.0
  3
*Paper_Space
  1

  0
ENDBLK
  5
1D
330
1B
100
AcDbEntity
 67
     1
  8
0
100
AcDbBlockEnd
  0
BLOCK
  5
24
330
23
100
AcDbEntity
  8
0
100
AcDbBlockBegin
  2
*Paper_Space0
 70
     0
 10
0.0
 20
0.0
 30
0.0
  3
*Paper_Space0
  1

  0
ENDBLK
  5
25
330
23
100
AcDbEntity
  8
0
100
AcDbBlockEnd
  0
BLOCK
  5
235
330
234
100
AcDbEntity
  8
0
100
AcDbBlockBegin
  2
*D1
 70
     1
 10
0.0
 20
0.0
 30
0.0
  3
*D1
  1

  0
SOLID
  5
237
330
234
100
AcDbEntity
  8
VERMASSUNG
100
AcDbTrace
 10
247.3348327271
 20
94.8668947886
 30
0.0
 11
247.7848327271
 21
97.8668947886
 31
0.0
 12
246.8848327271
 22
97.8668947886
 32
0.0
 13
246.8848327271
 23
97.8668947886
 33
0.0
  0
SOLID
  5
238
330
234
100
AcDbEntity
  8
VERMASSUNG
100
AcDbTrace
 10
247.3348327271
 20
126.8668947886
 30
0.0
 11
246.8848327271
 21
123.8668947886
 31
0.0
 12
247.7848327271
 22
123.8668947886
 32
0.0
 13
247.7848327271
 23
123.8668947886
 33
0.0
  0
LINE
  5
239
330
234
100
AcDbEntity
  8
VERMASSUNG
100
AcDbLine
 10
225.3186433491
 20
94.8668947886
 30
0.0
 11
248.3348327271
 21
94.8668947886
 31
0.0
  0
LINE
  5
23A
330
234
100
AcDbEntity
  8
VERMASSUNG
100
AcDbLine
 10
225.3186433491
 20
126.8668947886
 30
0.0
 11
248.3348327271
 21
126.8668947886
 31
0.0
  0
LINE
  5
23B
330
234
100
AcDbEntity
  8
VERMASSUNG
100
AcDbLine
 10
247.3348327271
 20
94.8668947886
 30
0.0
 11
247.3348327271
 21
126.8668947886
 31
0.0
  0
MTEXT
  5
23C
330
234
100
AcDbEntity
  8
VERMASSUNG
100
AcDbMText
 10
244.756697364
 20
107.9686797124
 30
0.0
 40
2.0
 41
0.0
 71
     1
 72
     1
  1
ER
  7
SLDTEXTSTYLE0
 11
6.123233995736766E-17
 21
1.0
 31
0.0
 73
     1
 44
1.0
  0
MTEXT
  5
23D
330
234
100
AcDbEntity
  8
VERMASSUNG
100
AcDbMText
 10
244.756697364
 20
110.9664981566
 30
0.0
 40
2.0
 41
0.0
 71
     1
 72
     1
  1
32
  7
SLDTEXTSTYLE0
 11
6.123233995736766E-17
 21
1.0
 31
0.0
 73
     1
 44
1.0
  0
ENDBLK
  5
236
330
234
100
AcDbEntity
  8
0
100
AcDbBlockEnd
  0
BLOCK
  5
240
330
23F
100
AcDbEntity
  8
0
100
AcDbBlockBegin
  2
*D2
 70
     1
 10
0.0
 20
0.0
 30
0.0
  3
*D2
  1

  0
SOLID
  5
242
330
23F
100
AcDbEntity
  8
VERMASSUNG
100
AcDbTrace
 10
37.9826445948
 20
142.3668947886
 30
0.0
 11
37.5326445948
 21
139.3668947886
 31
0.0
 12
38.4326445948
 22
139.3668947886
 32
0.0
 13
38.4326445948
 23
139.3668947886
 33
0.0
  0
SOLID
  5
243
330
23F
100
AcDbEntity
  8
VERMASSUNG
100
AcDbTrace
 10
37.9826445948
 20
79.3668947886
 30
0.0
 11
38.4326445948
 21
82.3668947886
 31
0.0
 12
37.5326445948
 22
82.3668947886
 32
0.0
 13
37.5326445948
 23
82.3668947886
 33
0.0
  0
LINE
  5
244
330
23F
100
AcDbEntity
  8
VERMASSUNG
100
AcDbLine
 10
78.6186433491
 20
142.3668947886
 30
0.0
 11
36.9826445948
 21
142.3668947886
 31
0.0
  0
LINE
  5
245
330
23F
100
AcDbEntity
  8
VERMASSUNG
100
AcDbLine
 10
78.6186433491
 20
79.3668947886
 30
0.0
 11
36.9826445948
 21
79.3668947886
 31
0.0
  0
LINE
  5
246
330
23F
100
AcDbEntity
  8
VERMASSUNG
100
AcDbLine
 10
37.9826445948
 20
142.3668947886
 30
0.0
 11
37.9826445948
 21
79.3668947886
 31
0.0
  0
MTEXT
  5
247
330
23F
100
AcDbEntity
  8
VERMASSUNG
100
AcDbMText
 10
35.2045091057
 20
103.6278635305
 30
0.0
 40
2.0
 41
0.0
 71
     1
 72
     1
  1
HSK A 
  7
SLDTEXTSTYLE0
 11
-7.044195017643634E-15
 21
1.0
 31
0.0
 73
     1
 44
1.0
  0
MTEXT
  5
248
330
23F
100
AcDbEntity
  8
VERMASSUNG
100
AcDbMText
 10
35.4045091152
 20
112.6278640744
 30
0.0
 40
2.0
 41
0.0
 71
     1
 72
     1
  1
%%c
  7
SLDTEXTSTYLE0
 11
-7.044195017643634E-15
 21
1.0
 31
0.0
 73
     1
 44
1.0
  0
MTEXT
  5
249
330
23F
100
AcDbEntity
  8
VERMASSUNG
100
AcDbMText
 10
35.4045092317
 20
116.2361923196
 30
0.0
 40
2.0
 41
0.0
 71
     1
 72
     1
  1
63
  7
SLDTEXTSTYLE0
 11
-7.044195017643634E-15
 21
1.0
 31
0.0
 73
     1
 44
1.0
  0
ENDBLK
  5
241
330
23F
100
AcDbEntity
  8
0
100
AcDbBlockEnd
  0
BLOCK
  5
24C
330
24B
100
AcDbEntity
  8
0
100
AcDbBlockBegin
  2
*D3
 70
     1
 10
0.0
 20
0.0
 30
0.0
  3
*D3
  1

  0
SOLID
  5
24E
330
24B
100
AcDbEntity
  8
VERMASSUNG
100
AcDbTrace
 10
238.3186433491
 20
166.1748959408
 30
0.0
 11
235.3186433491
 21
166.6248959408
 31
0.0
 12
235.3186433491
 22
165.7248959408
 32
0.0
 13
235.3186433491
 23
165.7248959408
 33
0.0
  0
SOLID
  5
24F
330
24B
100
AcDbEntity
  8
VERMASSUNG
100
AcDbTrace
 10
46.4186433491
 20
166.1748959408
 30
0.0
 11
49.4186433491
 21
165.7248959408
 31
0.0
 12
49.4186433491
 22
166.6248959408
 32
0.0
 13
49.4186433491
 23
166.6248959408
 33
0.0
  0
LINE
  5
250
330
24B
100
AcDbEntity
  8
VERMASSUNG
100
AcDbLine
 10
238.3186433491
 20
95.6092339242
 30
0.0
 11
238.3186433491
 21
167.1748959408
 31
0.0
  0
LINE
  5
251
330
24B
100
AcDbEntity
  8
VERMASSUNG
100
AcDbLine
 10
46.4186433491
 20
130.557572535
 30
0.0
 11
46.4186433491
 21
167.1748959408
 31
0.0
  0
LINE
  5
252
330
24B
100
AcDbEntity
  8
VERMASSUNG
100
AcDbLine
 10
238.3186433491
 20
166.1748959408
 30
0.0
 11
46.4186433491
 21
166.1748959408
 31
0.0
  0
MTEXT
  5
253
330
24B
100
AcDbEntity
  8
VERMASSUNG
100
AcDbMText
 10
139.669635009
 20
168.7530313039
 30
0.0
 40
2.0
 41
0.0
 71
     1
 72
     1
  1
191.9
  7
SLDTEXTSTYLE0
 73
     1
 44
1.0
  0
ENDBLK
  5
24D
330
24B
100
AcDbEntity
  8
0
100
AcDbBlockEnd
  0
BLOCK
  5
256
330
255
100
AcDbEntity
  8
0
100
AcDbBlockBegin
  2
*D4
 70
     1
 10
0.0
 20
0.0
 30
0.0
  3
*D4
  1

  0
SOLID
  5
258
330
255
100
AcDbEntity
  8
VERMASSUNG
100
AcDbTrace
 10
238.3186433491
 20
160.1748959408
 30
0.0
 11
235.3186433491
 21
160.6248959408
 31
0.0
 12
235.3186433491
 22
159.7248959408
 32
0.0
 13
235.3186433491
 23
159.7248959408
 33
0.0
  0
SOLID
  5
259
330
255
100
AcDbEntity
  8
VERMASSUNG
100
AcDbTrace
 10
78.3186433491
 20
160.1748959408
 30
0.0
 11
81.3186433491
 21
159.7248959408
 31
0.0
 12
81.3186433491
 22
160.6248959408
 32
0.0
 13
81.3186433491
 23
160.6248959408
 33
0.0
  0
LINE
  5
25A
330
255
100
AcDbEntity
  8
VERMASSUNG
100
AcDbLine
 10
238.3186433491
 20
95.6092339242
 30
0.0
 11
238.3186433491
 21
161.1748959408
 31
0.0
  0
LINE
  5
25B
330
255
100
AcDbEntity
  8
VERMASSUNG
100
AcDbLine
 10
78.3186433491
 20
142.0668947886
 30
0.0
 11
78.3186433491
 21
161.1748959408
 31
0.0
  0
LINE
  5
25C
330
255
100
AcDbEntity
  8
VERMASSUNG
100
AcDbLine
 10
238.3186433491
 20
160.1748959408
 30
0.0
 11
78.3186433491
 21
160.1748959408
 31
0.0
  0
MTEXT
  5
25D
330
255
100
AcDbEntity
  8
VERMASSUNG
100
AcDbMText
 10
156.4188913041
 20
162.7530313039
 30
0.0
 40
2.0
 41
0.0
 71
     1
 72
     1
  1
160
  7
SLDTEXTSTYLE0
 73
     1
 44
1.0
  0
ENDBLK
  5
257
330
255
100
AcDbEntity
  8
0
100
AcDbBlockEnd
  0
BLOCK
  5
260
330
25F
100
AcDbEntity
  8
0
100
AcDbBlockBegin
  2
*D5
 70
     1
 10
0.0
 20
0.0
 30
0.0
  3
*D5
  1

  0
SOLID
  5
262
330
25F
100
AcDbEntity
  8
VERMASSUNG
100
AcDbTrace
 10
104.2686433491
 20
154.1748959408
 30
0.0
 11
107.2686433491
 21
153.7248959408
 31
0.0
 12
107.2686433491
 22
154.6248959408
 32
0.0
 13
107.2686433491
 23
154.6248959408
 33
0.0
  0
SOLID
  5
263
330
25F
100
AcDbEntity
  8
VERMASSUNG
100
AcDbTrace
 10
238.3186433491
 20
154.1748959408
 30
0.0
 11
235.3186433491
 21
154.6248959408
 31
0.0
 12
235.3186433491
 22
153.7248959408
 32
0.0
 13
235.3186433491
 23
153.7248959408
 33
0.0
  0
LINE
  5
264
330
25F
100
AcDbEntity
  8
VERMASSUNG
100
AcDbLine
 10
104.2686433491
 20
140.7133351123
 30
0.0
 11
104.2686433491
 21
155.1748959408
 31
0.0
  0
LINE
  5
265
330
25F
100
AcDbEntity
  8
VERMASSUNG
100
AcDbLine
 10
238.3186433491
 20
95.6092339242
 30
0.0
 11
238.3186433491
 21
155.1748959408
 31
0.0
  0
LINE
  5
266
330
25F
100
AcDbEntity
  8
VERMASSUNG
100
AcDbLine
 10
104.2686433491
 20
154.1748959408
 30
0.0
 11
238.3186433491
 21
154.1748959408
 31
0.0
  0
MTEXT
  5
267
330
25F
100
AcDbEntity
  8
VERMASSUNG
100
AcDbMText
 10
167.5937426273
 20
156.7530313039
 30
0.0
 40
2.0
 41
0.0
 71
     1
 72
     1
  1
134.05
  7
SLDTEXTSTYLE0
 73
     1
 44
1.0
  0
ENDBLK
  5
261
330
25F
100
AcDbEntity
  8
0
100
AcDbBlockEnd
  0
BLOCK
  5
26A
330
269
100
AcDbEntity
  8
0
100
AcDbBlockBegin
  2
*D6
 70
     1
 10
0.0
 20
0.0
 30
0.0
  3
*D6
  1

  0
SOLID
  5
26C
330
269
100
AcDbEntity
  8
VERMASSUNG
100
AcDbTrace
 10
191.3186433491
 20
148.1748959408
 30
0.0
 11
194.3186433491
 21
147.7248959408
 31
0.0
 12
194.3186433491
 22
148.6248959408
 32
0.0
 13
194.3186433491
 23
148.6248959408
 33
0.0
  0
SOLID
  5
26D
330
269
100
AcDbEntity
  8
VERMASSUNG
100
AcDbTrace
 10
238.3186433491
 20
148.1748959408
 30
0.0
 11
235.3186433491
 21
148.6248959408
 31
0.0
 12
235.3186433491
 22
147.7248959408
 32
0.0
 13
235.3186433491
 23
147.7248959408
 33
0.0
  0
LINE
  5
26E
330
269
100
AcDbEntity
  8
VERMASSUNG
100
AcDbLine
 10
191.3186433491
 20
122.6168947886
 30
0.0
 11
191.3186433491
 21
149.1748959408
 31
0.0
  0
LINE
  5
26F
330
269
100
AcDbEntity
  8
VERMASSUNG
100
AcDbLine
 10
238.3186433491
 20
129.8668947886
 30
0.0
 11
238.3186433491
 21
149.1748959408
 31
0.0
  0
LINE
  5
270
330
269
100
AcDbEntity
  8
VERMASSUNG
100
AcDbLine
 10
191.3186433491
 20
148.1748959408
 30
0.0
 11
238.3186433491
 21
148.1748959408
 31
0.0
  0
MTEXT
  5
271
330
269
100
AcDbEntity
  8
VERMASSUNG
100
AcDbMText
 10
213.3197341269
 20
150.7530313039
 30
0.0
 40
2.0
 41
0.0
 71
     1
 72
     1
  1
47
  7
SLDTEXTSTYLE0
 73
     1
 44
1.0
  0
ENDBLK
  5
26B
330
269
100
AcDbEntity
  8
0
100
AcDbBlockEnd
  0
BLOCK
  5
274
330
273
100
AcDbEntity
  8
0
100
AcDbBlockBegin
  2
*D7
 70
     1
 10
0.0
 20
0.0
 30
0.0
  3
*D7
  1

  0
SOLID
  5
276
330
273
100
AcDbEntity
  8
VERMASSUNG
100
AcDbTrace
 10
259.3348327271
 20
135.7168947886
 30
0.0
 11
258.8848327271
 21
132.7168947886
 31
0.0
 12
259.7848327271
 22
132.7168947886
 32
0.0
 13
259.7848327271
 23
132.7168947886
 33
0.0
  0
SOLID
  5
277
330
273
100
AcDbEntity
  8
VERMASSUNG
100
AcDbTrace
 10
259.3348327271
 20
86.0168947886
 30
0.0
 11
259.7848327271
 21
89.0168947886
 31
0.0
 12
258.8848327271
 22
89.0168947886
 32
0.0
 13
258.8848327271
 23
89.0168947886
 33
0.0
  0
LINE
  5
278
330
273
100
AcDbEntity
  8
VERMASSUNG
100
AcDbLine
 10
221.4824636452
 20
135.7168947886
 30
0.0
 11
260.3348327271
 21
135.7168947886
 31
0.0
  0
LINE
  5
279
330
273
100
AcDbEntity
  8
VERMASSUNG
100
AcDbLine
 10
221.4824636452
 20
86.0168947886
 30
0.0
 11
260.3348327271
 21
86.0168947886
 31
0.0
  0
LINE
  5
27A
330
273
100
AcDbEntity
  8
VERMASSUNG
100
AcDbLine
 10
259.3348327271
 20
135.7168947886
 30
0.0
 11
259.3348327271
 21
86.0168947886
 31
0.0
  0
MTEXT
  5
27B
330
273
100
AcDbEntity
  8
VERMASSUNG
100
AcDbMText
 10
256.7566972476
 20
106.5633004822
 30
0.0
 40
2.0
 41
0.0
 71
     1
 72
     1
  1
%%c
  7
SLDTEXTSTYLE0
 11
-7.044195017643634E-15
 21
1.0
 31
0.0
 73
     1
 44
1.0
  0
MTEXT
  5
27C
330
273
100
AcDbEntity
  8
VERMASSUNG
100
AcDbMText
 10
256.756697364
 20
110.1708858872
 30
0.0
 40
2.0
 41
0.0
 71
     1
 72
     1
  1
49.7
  7
SLDTEXTSTYLE0
 11
-7.044195017643634E-15
 21
1.0
 31
0.0
 73
     1
 44
1.0
  0
ENDBLK
  5
275
330
273
100
AcDbEntity
  8
0
100
AcDbBlockEnd
  0
BLOCK
  5
27F
330
27E
100
AcDbEntity
  8
0
100
AcDbBlockBegin
  2
*D8
 70
     1
 10
0.0
 20
0.0
 30
0.0
  3
*D8
  1

  0
SOLID
  5
281
330
27E
100
AcDbEntity
  8
VERMASSUNG
100
AcDbTrace
 10
253.3348327271
 20
133.3668947886
 30
0.0
 11
252.8848327271
 21
130.3668947886
 31
0.0
 12
253.7848327271
 22
130.3668947886
 32
0.0
 13
253.7848327271
 23
130.3668947886
 33
0.0
  0
SOLID
  5
282
330
27E
100
AcDbEntity
  8
VERMASSUNG
100
AcDbTrace
 10
253.3348327271
 20
88.3668947886
 30
0.0
 11
253.7848327271
 21
91.3668947886
 31
0.0
 12
252.8848327271
 22
91.3668947886
 32
0.0
 13
252.8848327271
 23
91.3668947886
 33
0.0
  0
LINE
  5
283
330
27E
100
AcDbEntity
  8
VERMASSUNG
100
AcDbLine
 10
149.2686433491
 20
133.3668947886
 30
0.0
 11
254.3348327271
 21
133.3668947886
 31
0.0
  0
LINE
  5
284
330
27E
100
AcDbEntity
  8
VERMASSUNG
100
AcDbLine
 10
149.2686433491
 20
88.3668947886
 30
0.0
 11
254.3348327271
 21
88.3668947886
 31
0.0
  0
LINE
  5
285
330
27E
100
AcDbEntity
  8
VERMASSUNG
100
AcDbLine
 10
253.3348327271
 20
133.3668947886
 30
0.0
 11
253.3348327271
 21
88.3668947886
 31
0.0
  0
MTEXT
  5
286
330
27E
100
AcDbEntity
  8
VERMASSUNG
100
AcDbMText
 10
250.7566972476
 20
107.5641928639
 30
0.0
 40
2.0
 41
0.0
 71
     1
 72
     1
  1
%%c
  7
SLDTEXTSTYLE0
 11
-7.044195017643634E-15
 21
1.0
 31
0.0
 73
     1
 44
1.0
  0
MTEXT
  5
287
330
27E
100
AcDbEntity
  8
VERMASSUNG
100
AcDbMText
 10
250.756697364
 20
111.1717782689
 30
0.0
 40
2.0
 41
0.0
 71
     1
 72
     1
  1
45
  7
SLDTEXTSTYLE0
 11
-7.044195017643634E-15
 21
1.0
 31
0.0
 73
     1
 44
1.0
  0
ENDBLK
  5
280
330
27E
100
AcDbEntity
  8
0
100
AcDbBlockEnd
  0
BLOCK
  5
28B
330
28A
100
AcDbEntity
  8
0
100
AcDbBlockBegin
  2
*D9
 70
     1
 10
0.0
 20
0.0
 30
0.0
  3
*D9
  1

  0
SOLID
  5
28D
330
28A
100
AcDbEntity
  8
VERMASSUNG
100
AcDbTrace
 10
265.3348327271
 20
136.0910063323
 30
0.0
 11
264.8848327271
 21
133.0910063323
 31
0.0
 12
265.7848327271
 22
133.0910063323
 32
0.0
 13
265.7848327271
 23
133.0910063323
 33
0.0
  0
SOLID
  5
28E
330
28A
100
AcDbEntity
  8
VERMASSUNG
100
AcDbTrace
 10
265.3348327271
 20
85.6427832449
 30
0.0
 11
265.7848327271
 21
88.6427832449
 31
0.0
 12
264.8848327271
 22
88.6427832449
 32
0.0
 13
264.8848327271
 23
88.6427832449
 33
0.0
  0
LINE
  5
28F
330
28A
100
AcDbEntity
  8
VERMASSUNG
100
AcDbLine
 10
105.8449145355
 20
136.0910063323
 30
0.0
 11
266.3348327271
 21
136.0910063323
 31
0.0
  0
LINE
  5
290
330
28A
100
AcDbEntity
  8
VERMASSUNG
100
AcDbLine
 10
105.8449145355
 20
85.6427832449
 30
0.0
 11
266.3348327271
 21
85.6427832449
 31
0.0
  0
LINE
  5
291
330
28A
100
AcDbEntity
  8
VERMASSUNG
100
AcDbLine
 10
265.3348327271
 20
136.0910063323
 30
0.0
 11
265.3348327271
 21
85.6427832449
 31
0.0
  0
MTEXT
  5
292
330
28A
100
AcDbEntity
  8
VERMASSUNG
100
AcDbMText
 10
262.7566972476
 20
107.663796232
 30
0.0
 40
2.0
 41
0.0
 71
     1
 72
     1
  1
%%c
  7
SLDTEXTSTYLE0
 11
-3.491481338843133E-15
 21
1.0
 31
0.0
 73
     1
 44
1.0
  0
MTEXT
  5
293
330
28A
100
AcDbEntity
  8
VERMASSUNG
100
AcDbMText
 10
262.756697364
 20
111.271381637
 30
0.0
 40
2.0
 41
0.0
 71
     1
 72
     1
  1
50
  7
SLDTEXTSTYLE0
 11
-3.491481338843133E-15
 21
1.0
 31
0.0
 73
     1
 44
1.0
  0
ENDBLK
  5
28C
330
28A
100
AcDbEntity
  8
0
100
AcDbBlockEnd
  0
ENDSEC
  0
SECTION
  2
ENTITIES
  0
MTEXT
  5
45
330
1F
100
AcDbEntity
  8
KOPF_DÜNN
100
AcDbMText
 10
13.8892156294
 20
23.8442973028
 30
0.0
 40
3.0
 41
0.0
 71
     1
 72
     1
  1
HA6.E32.K01.160
  7
SLDTEXTSTYLE0
 73
     1
 44
1.0
  0
MTEXT
  5
46
330
1F
100
AcDbEntity
  8
VERMASSUNG
100
AcDbMText
 10
13.9329988022
 20
28.8834360957
 30
0.0
 40
3.0
 41
0.0
 71
     1
 72
     1
  1
Spannzangenfutter_Collet chuck ER32
  7
SLDTEXTSTYLE0
 73
     1
 44
1.0
  0
MTEXT
  5
47
330
1F
100
AcDbEntity
  8
VERMASSUNG
100
AcDbMText
 10
98.8601118557
 20
13.8365368179
 30
0.0
 40
2.0
 41
0.0
 71
     1
 72
     1
  1
Datum: 10.10.2006
  7
SLDTEXTSTYLE0
 73
     1
 44
1.0
  0
MTEXT
  5
49
330
1F
100
AcDbEntity
  8
VERMASSUNG
100
AcDbMText
 10
13.933048693
 20
18.0482802738
 30
0.0
 40
2.0
 41
0.0
 71
     1
 72
     1
  1
DIN 69 893 HSK A 63
  7
SLDTEXTSTYLE1
 73
     1
 44
1.0
  0
MTEXT
  5
4A
330
1F
100
AcDbEntity
  8
VERMASSUNG
100
AcDbMText
 10
13.9808475933
 20
13.9090973692
 30
0.0
 40
2.0
 41
0.0
 71
     1
 72
     1
  1
Gewicht: 1960g
  7
SLDTEXTSTYLE0
 73
     1
 44
1.0
  0
LINE
  5
4B
330
1F
100
AcDbEntity
  8
0
  6
Continuous
 62
     7
370
    15
100
AcDbLine
 10
78.6186433633
 20
79.3668942819
 30
0.0
 11
83.2686433222
 21
79.3668942819
 31
0.0
  0
LINE
  5
4C
330
1F
100
AcDbEntity
  8
0
  6
Continuous
 62
     7
370
    15
100
AcDbLine
 10
83.2966318939
 20
142.3668952952
 30
0.0
 11
78.6186433633
 21
142.3668952952
 31
0.0
  0
ARC
  5
4D
330
1F
100
AcDbEntity
  8
0
  6
Continuous
 62
     7
370
    15
100
AcDbCircle
 10
78.6186433491
 20
79.6668947886
 30
0.0
 40
0.3000000000000114
100
AcDbArc
 50
180.0
 51
270.0
  0
ARC
  5
4E
330
1F
100
AcDbEntity
  8
0
  6
Continuous
 62
     7
370
    15
100
AcDbCircle
 10
78.6186433491
 20
142.0668947886
 30
0.0
 40
0.2999999999999972
100
AcDbArc
 50
90.0
 51
180.0
  0
ARC
  5
4F
330
1F
100
AcDbEntity
  8
0
  6
Continuous
 62
     7
370
    15
100
AcDbCircle
 10
106.2686433491
 20
83.6881851039
 30
0.0
 40
2.000000000000008
100
AcDbArc
 50
102.2316336591
 51
157.0847813893
  0
ARC
  5
50
330
1F
100
AcDbEntity
  8
0
  6
Continuous
 62
     7
370
    15
100
AcDbCircle
 10
106.2686433491
 20
138.0456044732
 30
0.0
 40
2.000000000000008
100
AcDbArc
 50
202.8251605426
 51
257.7683663409
  0
ARC
  5
51
330
1F
100
AcDbEntity
  8
0
  6
Continuous
 62
     7
370
    15
100
AcDbCircle
 10
131.2686433491
 20
-31.6331052114
 30
0.0
 40
120.0
100
AcDbArc
 50
90.0
 51
102.2316336591
  0
ARC
  5
52
330
1F
100
AcDbEntity
  8
0
  6
Continuous
 62
     7
370
    15
100
AcDbCircle
 10
131.2686433491
 20
253.3668947886
 30
0.0
 40
120.0
100
AcDbArc
 50
257.7683663409
 51
270.0
  0
ARC
  5
53
330
1F
100
AcDbEntity
  8
0
  6
Continuous
 62
     7
370
    15
100
AcDbCircle
 10
77.8186365964
 20
86.2964571742
 30
0.0
 40
0.6000067526677242
100
AcDbArc
 50
33.5571153394
 51
90.0
  0
ARC
  5
54
330
1F
100
AcDbEntity
  8
0
  6
Continuous
 62
     7
370
    15
100
AcDbCircle
 10
77.8186365964
 20
135.437332403
 30
0.0
 40
0.6000067526677242
100
AcDbArc
 50
270.0
 51
326.4428846606
  0
LINE
  5
55
330
1F
100
AcDbEntity
  8
0
  6
Continuous
 62
     7
370
    15
100
AcDbLine
 10
65.0882208374
 20
134.5246786545
 30
0.0
 11
52.5186424729
 21
133.8949406813
 31
0.0
  0
LINE
  5
56
330
1F
100
AcDbEntity
  8
0
  6
Continuous
 62
     7
370
    15
100
AcDbLine
 10
76.3186432541
 20
135.0873260121
 30
0.0
 11
73.500033899
 21
134.9461132954
 31
0.0
  0
LINE
  5
57
330
1F
100
AcDbEntity
  8
0
  6
Continuous
 62
     7
370
    15
100
AcDbLine
 10
73.5002555538
 20
86.7876651059
 30
0.0
 11
76.3186432541
 21
86.6464635651
 31
0.0
  0
LINE
  5
58
330
1F
100
AcDbEntity
  8
0
  6
Continuous
 62
     7
370
    15
100
AcDbLine
 10
56.5186431285
 20
87.6384487669
 30
0.0
 11
65.0889202606
 21
87.2090755324
 31
0.0
  0
LINE
  5
59
330
1F
100
AcDbEntity
  8
0
  6
Continuous
 62
     7
370
    15
100
AcDbLine
 10
76.3186432541
 20
86.6464635651
 30
0.0
 11
77.1753561802
 21
86.8760196785
 31
0.0
  0
LINE
  5
5A
330
1F
100
AcDbEntity
  8
0
  6
Continuous
 62
     7
370
    15
100
AcDbLine
 10
77.1753561802
 20
134.8577698986
 30
0.0
 11
76.3186432541
 21
135.0873260121
 31
0.0
  0
ARC
  5
5B
330
1F
100
AcDbEntity
  8
0
  6
Continuous
 62
     7
370
    15
100
AcDbCircle
 10
77.3306475495
 20
86.2964639268
 30
0.0
 40
0.6000000000000085
100
AcDbArc
 50
90.0
 51
105.0
  0
ARC
  5
5C
330
1F
100
AcDbEntity
  8
0
  6
Continuous
 62
     7
370
    15
100
AcDbCircle
 10
77.3306475495
 20
135.4373256503
 30
0.0
 40
0.6000000000000227
100
AcDbArc
 50
255.0
 51
270.0
  0
LINE
  5
5D
330
1F
100
AcDbEntity
  8
0
  6
Continuous
 62
     7
370
    15
100
AcDbLine
 10
77.3306475839
 20
86.8964640717
 30
0.0
 11
77.8186365732
 21
86.8964640717
 31
0.0
  0
LINE
  5
5E
330
1F
100
AcDbEntity
  8
0
  6
Continuous
 62
     7
370
    15
100
AcDbLine
 10
77.8186365732
 20
134.8373255054
 30
0.0
 11
77.3306475839
 21
134.8373255054
 31
0.0
  0
LINE
  5
5F
330
1F
100
AcDbEntity
  8
0
  6
Continuous
 62
     7
370
    15
100
AcDbLine
 10
143.7674862918
 20
88.3668938945
 30
0.0
 11
149.2686448272
 21
88.3668938945
 31
0.0
  0
LINE
  5
60
330
1F
100
AcDbEntity
  8
0
  6
Continuous
 62
     7
370
    15
100
AcDbLine
 10
131.2686418768
 20
88.3668938945
 30
0.0
 11
136.7792812761
 21
88.3668938945
 31
0.0
  0
LINE
  5
61
330
1F
100
AcDbEntity
  8
0
  6
Continuous
 62
     7
370
    15
100
AcDbLine
 10
136.7688839909
 20
133.3668956826
 30
0.0
 11
131.2686418768
 21
133.3668956826
 31
0.0
  0
LINE
  5
62
330
1F
100
AcDbEntity
  8
0
  6
Continuous
 62
     7
370
    15
100
AcDbLine
 10
149.2686448272
 20
133.3668956826
 30
0.0
 11
143.75835188
 21
133.3668956826
 31
0.0
  0
ARC
  5
63
330
1F
100
AcDbEntity
  8
0
  6
Continuous
 62
     7
370
    15
100
AcDbCircle
 10
204.8901320023
 20
750.8668947886
 30
0.0
 40
620.0
100
AcDbArc
 50
264.8529566016
 51
270.0
  0
ARC
  5
64
330
1F
100
AcDbEntity
  8
0
  6
Continuous
 62
     7
370
    15
100
AcDbCircle
 10
204.8901320023
 20
-529.1331052114
 30
0.0
 40
620.0
100
AcDbArc
 50
90.0
 51
95.1470433984
  0
LINE
  5
65
330
1F
100
AcDbEntity
  8
0
  6
Continuous
 62
     7
370
    15
100
AcDbLine
 10
215.8186463293
 20
130.8668943415
 30
0.0
 11
204.8901347097
 21
130.8668943415
 31
0.0
  0
LINE
  5
66
330
1F
100
AcDbEntity
  8
0
  6
Continuous
 62
     7
370
    15
100
AcDbLine
 10
204.8901347097
 20
90.8668952356
 30
0.0
 11
215.8186463293
 21
90.8668952356
 31
0.0
  0
LINE
  5
67
330
1F
100
AcDbEntity
  8
0
  6
Continuous
 62
     7
370
    15
100
AcDbLine
 10
47.7019799527
 20
89.9968946646
 30
0.0
 11
55.1186436441
 21
89.9968946646
 31
0.0
  0
ARC
  5
68
330
1F
100
AcDbEntity
  8
0
  6
Continuous
 62
     7
370
    15
100
AcDbCircle
 10
55.1186433491
 20
88.5968947886
 30
0.0
 40
1.399999999999997
100
AcDbArc
 50
42.2465410162
 51
90.0
  0
LINE
  5
69
330
1F
100
AcDbEntity
  8
0
  6
Continuous
 62
     7
370
    15
100
AcDbLine
 10
46.4196754273
 20
91.145861737
 30
0.0
 11
47.5598061111
 21
90.0057310532
 31
0.0
  0
LINE
  5
6A
330
1F
100
AcDbEntity
  8
0
  6
Continuous
 62
     7
370
    15
100
AcDbLine
 10
47.5598061111
 20
131.728058524
 30
0.0
 11
46.4285453435
 21
130.5967958937
 31
0.0
  0
ARC
  5
6B
330
1F
100
AcDbEntity
  8
0
  6
Continuous
 62
     7
370
    15
100
AcDbCircle
 10
51.1186433491
 20
133.1368947886
 30
0.0
 40
1.399999999999987
100
AcDbArc
 50
270.0
 51
301.7485287426
  0
LINE
  5
6C
330
1F
100
AcDbEntity
  8
0
  6
Continuous
 62
     7
370
    15
100
AcDbLine
 10
51.1186429884
 20
131.7368949125
 30
0.0
 11
47.6929088708
 21
131.7368949125
 31
0.0
  0
LINE
  5
6D
330
1F
100
AcDbEntity
  8
0
  6
Continuous
 62
     7
370
    15
100
AcDbLine
 10
216.318639892
 20
86.0168950925
 30
0.0
 11
221.4856920418
 21
86.0168950925
 31
0.0
  0
LINE
  5
6E
330
1F
100
AcDbEntity
  8
0
  6
Continuous
 62
     7
370
    15
100
AcDbLine
 10
221.4856920418
 20
135.7168944846
 30
0.0
 11
216.318639892
 21
135.7168944846
 31
0.0
  0
LINE
  5
6F
330
1F
100
AcDbEntity
  8
0
  6
Continuous
 62
     7
370
    15
100
AcDbLine
 10
216.318639892
 20
135.7168944846
 30
0.0
 11
215.8186463293
 21
135.2168953339
 31
0.0
  0
LINE
  5
70
330
1F
100
AcDbEntity
  8
0
  6
Continuous
 62
     7
370
    15
100
AcDbLine
 10
215.8186463293
 20
86.5168942432
 30
0.0
 11
216.318639892
 21
86.0168950925
 31
0.0
  0
LINE
  5
71
330
1F
100
AcDbEntity
  8
0
  6
Continuous
 62
     7
370
    15
100
AcDbLine
 10
236.1463931974
 20
88.1044602315
 30
0.0
 11
238.3186397728
 21
91.8668953995
 31
0.0
  0
LINE
  5
72
330
1F
100
AcDbEntity
  8
0
  6
Continuous
 62
     7
370
    15
100
AcDbLine
 10
238.3186397728
 20
129.8668941776
 30
0.0
 11
236.1463931974
 21
133.6293293456
 31
0.0
  0
SPLINE
  5
73
330
1F
100
AcDbEntity
  8
0
  6
Continuous
 62
     7
370
    15
100
AcDbSpline
210
0.0
220
0.0
230
1.0
 70
     8
 71
     3
 72
    70
 73
    66
 74
     0
 42
0.00000001
 43
0.00000001
 40
-0.03125
 40
-0.03125
 40
0.0
 40
0.0
 40
0.03125
 40
0.03125
 40
0.0625
 40
0.0625
 40
0.09375
 40
0.09375
 40
0.125
 40
0.125
 40
0.15625
 40
0.15625
 40
0.1875
 40
0.1875
 40
0.21875
 40
0.21875
 40
0.25
 40
0.25
 40
0.28125
 40
0.28125
 40
0.3125
 40
0.3125
 40
0.34375
 40
0.34375
 40
0.375
 40
0.375
 40
0.40625
 40
0.40625
 40
0.4375
 40
0.4375
 40
0.46875
 40
0.46875
 40
0.5
 40
0.5
 40
0.53125
 40
0.53125
 40
0.5625
 40
0.5625
 40
0.59375
 40
0.59375
 40
0.625
 40
0.625
 40
0.65625
 40
0.65625
 40
0.6875
 40
0.6875
 40
0.71875
 40
0.71875
 40
0.75
 40
0.75
 40
0.78125
 40
0.78125
 40
0.8125
 40
0.8125
 40
0.84375
 40
0.84375
 40
0.875
 40
0.875
 40
0.90625
 40
0.90625
 40
0.9375
 40
0.9375
 40
0.96875
 40
0.96875
 40
1.0
 40
1.0
 40
1.03125
 40
1.03125
 10
86.05409801039451
 20
121.4878016745476
 30
0.0
 10
86.58318868771481
 20
121.4878016745476
 30
0.0
 10
86.8432593550919
 20
121.5124789693328
 30
0.0
 10
87.35483403492732
 20
121.6089506423747
 30
0.0
 10
87.60900931866752
 20
121.6819315583547
 30
0.0
 10
88.0932799487292
 20
121.8716721612934
 30
0.0
 10
88.32292104061038
 20
121.9875328196871
 30
0.0
 10
88.75752538884386
 20
122.2601506656448
 30
0.0
 10
88.96309116549048
 20
122.4181897476986
 30
0.0
 10
89.33164830608571
 20
122.7617325986692
 30
0.0
 10
89.4971292888212
 20
122.9484950427709
 30
0.0
 10
89.7895537982563
 20
123.3520382171677
 30
0.0
 10
89.91365477488279
 20
123.5655352135969
 30
0.0
 10
90.11323397163251
 20
124.0049185275194
 30
0.0
 10
90.1901675574908
 20
124.234058514665
 30
0.0
 10
90.29302461601115
 20
124.700032637425
 30
0.0
 10
90.31849752547028
 20
124.9329150831012
 30
0.0
 10
90.31878793603806
 20
125.398312618181
 30
0.0
 10
90.29276330226233
 20
125.6331883755753
 30
0.0
 10
90.19061501777031
 20
126.0846815228216
 30
0.0
 10
90.11503857018715
 20
126.302727998233
 30
0.0
 10
89.91454103904223
 20
126.7238225232708
 30
0.0
 10
89.78941219753385
 20
126.9257439077891
 30
0.0
 10
89.50005339651226
 20
127.297773390308
 30
0.0
 10
89.33464240945679
 20
127.4704016938883
 30
0.0
 10
88.96165185130897
 20
127.7877196984344
 30
0.0
 10
88.75991881821987
 20
127.927506631936
 30
0.0
 10
88.327059567392
 20
128.1716828854878
 30
0.0
 10
88.09314103450262
 20
128.2769123965293
 30
0.0
 10
87.60895729936
 20
128.4450695429044
 30
0.0
 10
87.3596416734045
 20
128.5083204334983
 30
0.0
 10
86.84660914897677
 20
128.5938996426009
 30
0.0
 10
86.58131532607213
 20
128.6157718075233
 30
0.0
 10
86.05898070620238
 20
128.6159354571672
 30
0.0
 10
85.79922704372065
 20
128.5949337650713
 30
0.0
 10
85.28261522807541
 20
128.5095314099936
 30
0.0
 10
85.03024918757512
 20
128.4455252267066
 30
0.0
 10
84.5487240660423
 20
128.2787107066654
 30
0.0
 10
84.31587333392875
 20
128.1745775432663
 30
0.0
 10
83.87878348548998
 20
127.9285908907713
 30
0.0
 10
83.6774624968328
 20
127.7888410598225
 30
0.0
 10
83.3083764715329
 20
127.4757029900979
 30
0.0
 10
83.13939172048121
 20
127.3002468308278
 30
0.0
 10
82.84893566382199
 20
126.9274065667276
 30
0.0
 10
82.72586385245987
 20
126.7292847566166
 30
0.0
 10
82.52452761103784
 20
126.308573413883
 30
0.0
 10
82.44731506509562
 20
126.0865833932154
 30
0.0
 10
82.34511152219555
 20
125.6367184535071
 30
0.0
 10
82.31888317074323
 20
125.4064630403903
 30
0.0
 10
82.31840677142613
 20
124.9351470978412
 30
0.0
 10
82.3441491839241
 20
124.7019096821271
 30
0.0
 10
82.44545996028796
 20
124.240233142629
 30
0.0
 10
82.52229259967889
 20
124.0093357555169
 30
0.0
 10
82.72269643889408
 20
123.5670597417252
 30
0.0
 10
82.84536793718611
 20
123.3559973104393
 30
0.0
 10
83.13531522635036
 20
122.9544987997067
 30
0.0
 10
83.30388620571557
 20
122.7635922776307
 30
0.0
 10
83.67215579982874
 20
122.4198669456337
 30
0.0
 10
83.87321765709906
 20
122.2647297594196
 30
0.0
 10
84.31024857568397
 20
121.9896523993398
 30
0.0
 10
84.54239678881359
 20
121.8725361699178
 30
0.0
 10
85.02340707031244
 20
121.6836096848533
 30
0.0
 10
85.27550715314288
 20
121.610534714459
 30
0.0
 10
85.79257663940189
 20
121.5124826553245
 30
0.0
 10
86.05409801039451
 20
121.4878016745476
 30
0.0
 10
86.58318868771481
 20
121.4878016745476
 30
0.0
  0
LINE
  5
74
330
1F
100
AcDbEntity
  8
0
  6
Continuous
 62
     7
370
    15
100
AcDbLine
 10
83.2686433222
 20
130.7168955277
 30
0.0
 11
92.9267108094
 21
130.7168955277
 31
0.0
  0
LINE
  5
75
330
1F
100
AcDbEntity
  8
0
  6
Continuous
 62
     7
370
    15
100
AcDbLine
 10
92.9267108094
 20
80.6799771557
 30
0.0
 11
92.9267108094
 21
130.7168955277
 31
0.0
  0
LINE
  5
76
330
1F
100
AcDbEntity
  8
0
  6
Continuous
 62
     7
370
    15
100
AcDbLine
 10
92.9267108094
 20
80.6799771557
 30
0.0
 11
91.2686437022
 21
80.6799771557
 31
0.0
  0
SPLINE
  5
77
330
1F
100
AcDbEntity
  8
0
  6
Continuous
 62
     7
370
    15
100
AcDbSpline
210
0.0
220
0.0
230
1.0
 70
     8
 71
     3
 72
    28
 73
    24
 74
     0
 42
0.00000001
 43
0.00000001
 40
0.0
 40
0.0
 40
0.0
 40
0.0
 40
0.1250000000000001
 40
0.1250000000000001
 40
0.1875000000000001
 40
0.1875000000000001
 40
0.2500000000000001
 40
0.2500000000000001
 40
0.3749999999999999
 40
0.3749999999999999
 40
0.4375
 40
0.4375
 40
0.4999999999999999
 40
0.4999999999999999
 40
0.6249999999999999
 40
0.6249999999999999
 40
0.7499999999999997
 40
0.7499999999999997
 40
0.8124999999999998
 40
0.8124999999999998
 40
0.8749999999999998
 40
0.8749999999999998
 40
1.0
 40
1.0
 40
1.0
 40
1.0
 10
91.26864334905464
 20
80.67997709231709
 30
0.0
 10
90.7369355915617
 20
80.67997709231709
 30
0.0
 10
90.21469702625139
 20
80.66419237836688
 30
0.0
 10
89.44482653997638
 20
80.61919696429068
 30
0.0
 10
89.19046696778504
 20
80.60064196921493
 30
0.0
 10
88.68634538708653
 20
80.55678924676843
 30
0.0
 10
88.43662256965862
 20
80.53144463981623
 30
0.0
 10
87.7110326182122
 20
80.44804256206614
 30
0.0
 10
87.25267235663065
 20
80.38217700291506
 30
0.0
 10
86.60217441323678
 20
80.27320666242325
 30
0.0
 10
86.39049236244432
 20
80.2349670266566
 30
0.0
 10
85.98642087330633
 20
80.15720828923725
 30
0.0
 10
85.79391435948547
 20
80.1177073270619
 30
0.0
 10
85.24407938846417
 20
79.9987995846959
 30
0.0
 10
84.91415061015536
 20
79.91898190327129
 30
0.0
 10
84.32967934158668
 20
79.76563874147523
 30
0.0
 10
84.08340220357324
 20
79.69430498820599
 30
0.0
 10
83.78355941087517
 20
79.60036148113136
 30
0.0
 10
83.695102553803
 20
79.57116768777142
 30
0.0
 10
83.54174120049787
 20
79.51770111350801
 30
0.0
 10
83.47665298627163
 20
79.49334177923282
 30
0.0
 10
83.32105897033085
 20
79.4297516337881
 30
0.0
 10
83.26864334905466
 20
79.39964869869884
 30
0.0
 10
83.26864334905466
 20
79.3827718057019
 30
0.0
  0
LINE
  5
78
330
1F
100
AcDbEntity
  8
0
  6
Continuous
 62
     7
370
    15
100
AcDbLine
 10
83.2686433222
 20
79.3827714692
 30
0.0
 11
83.2686433222
 21
79.3668942819
 31
0.0
  0
SPLINE
  5
79
330
1F
100
AcDbEntity
  8
0
  6
Continuous
 62
     7
370
    15
100
AcDbSpline
210
0.0
220
0.0
230
1.0
 70
     8
 71
     3
 72
    17
 73
    13
 74
     0
 42
0.00000001
 43
0.00000001
 40
0.0
 40
0.0
 40
0.0
 40
0.0
 40
0.1034797280380778
 40
0.2100239090909901
 40
0.3134862262879433
 40
0.4198361712144981
 40
0.5254127947779869
 40
0.6339610881168427
 40
0.7409508662120068
 40
0.8511696072047016
 40
0.9558996557845765
 40
1.0
 40
1.0
 40
1.0
 40
1.0
 10
91.26864370221217
 20
141.3340902249227
 30
0.0
 10
90.83339521048627
 20
141.3395382165604
 30
0.0
 10
89.95000875990927
 20
141.350595536889
 30
0.0
 10
88.6691808976865
 20
141.436954297264
 30
0.0
 10
87.45176470224459
 20
141.564825440397
 30
0.0
 10
86.34395808591877
 20
141.7237698477155
 30
0.0
 10
85.35571960658993
 20
141.8982644207001
 30
0.0
 10
84.5309965067741
 20
142.067430853887
 30
0.0
 10
83.88204284927548
 20
142.2153116623547
 30
0.0
 10
83.46500754579583
 20
142.3171024138773
 30
0.0
 10
83.26641080291787
 20
142.3674593135117
 30
0.0
 10
83.28972391990577
 20
142.3615497085362
 30
0.0
 10
83.2966318939062
 20
142.3597986171852
 30
0.0
  0
LINE
  5
7A
330
1F
100
AcDbEntity
  8
0
  6
Continuous
 62
     7
370
    15
100
AcDbLine
 10
92.9267108094
 20
141.3340902249
 30
0.0
 11
91.2686437022
 21
141.3340902249
 31
0.0
  0
LINE
  5
7B
330
1F
100
AcDbEntity
  8
0
  6
Continuous
 62
     7
370
    15
100
AcDbLine
 10
92.9267108094
 20
135.3255844037
 30
0.0
 11
92.9267108094
 21
141.3340902249
 31
0.0
  0
LINE
  5
7C
330
1F
100
AcDbEntity
  8
0
  6
Continuous
 62
     7
370
    15
100
AcDbLine
 10
90.5142640349
 20
135.3255844037
 30
0.0
 11
92.9267108094
 21
135.3255844037
 31
0.0
  0
SPLINE
  5
7D
330
1F
100
AcDbEntity
  8
0
  6
Continuous
 62
     7
370
    15
100
AcDbSpline
210
0.0
220
0.0
230
1.0
 70
     8
 71
     3
 72
    20
 73
    16
 74
     0
 42
0.00000001
 43
0.00000001
 40
0.0
 40
0.0
 40
0.0
 40
0.0
 40
0.2499999999999997
 40
0.2499999999999997
 40
0.3749999999999997
 40
0.3749999999999997
 40
0.4999999999999998
 40
0.4999999999999998
 40
0.6249999999999998
 40
0.6249999999999998
 40
0.7499999999999999
 40
0.7499999999999999
 40
0.8749999999999999
 40
0.8749999999999999
 40
1.0
 40
1.0
 40
1.0
 40
1.0
 10
83.26864334905466
 20
130.7168947885642
 30
0.0
 10
83.51701708334271
 20
131.3707572168616
 30
0.0
 10
83.83658717568797
 20
131.9745429988588
 30
0.0
 10
84.45889340889265
 20
132.8013817350274
 30
0.0
 10
84.69031766932342
 20
133.0638103729803
 30
0.0
 10
85.21153200897314
 20
133.5604730270853
 30
0.0
 10
85.4981524916082
 20
133.7910599061068
 30
0.0
 10
86.11763723291583
 20
134.2076141306894
 30
0.0
 10
86.45193761240277
 20
134.395111932657
 30
0.0
 10
87.17719808502757
 20
134.7265089102934
 30
0.0
 10
87.55911314241803
 20
134.8660128977887
 30
0.0
 10
88.35390131858972
 20
135.0914664052596
 30
0.0
 10
88.7680595127961
 20
135.1780925168032
 30
0.0
 10
89.63360585337749
 20
135.2960733056574
 30
0.0
 10
90.0714934683893
 20
135.3255844509317
 30
0.0
 10
90.51426369474393
 20
135.3255844509317
 30
0.0
  0
SPLINE
  5
7E
330
1F
100
AcDbEntity
  8
0
  6
Continuous
 62
     7
370
    15
100
AcDbSpline
210
0.0
220
0.0
230
1.0
 70
     8
 71
     3
 72
    70
 73
    66
 74
     0
 42
0.00000001
 43
0.00000001
 40
-0.03125
 40
-0.03125
 40
0.0
 40
0.0
 40
0.0312499999999999
 40
0.0312499999999999
 40
0.0624999999999999
 40
0.0624999999999999
 40
0.0937499999999998
 40
0.0937499999999998
 40
0.1249999999999997
 40
0.1249999999999997
 40
0.1562499999999997
 40
0.1562499999999997
 40
0.1874999999999996
 40
0.1874999999999996
 40
0.2187499999999995
 40
0.2187499999999995
 40
0.2499999999999994
 40
0.2499999999999994
 40
0.2812499999999996
 40
0.2812499999999996
 40
0.3124999999999996
 40
0.3124999999999996
 40
0.3437499999999997
 40
0.3437499999999997
 40
0.3749999999999998
 40
0.3749999999999998
 40
0.4062499999999999
 40
0.4062499999999999
 40
0.4375
 40
0.4375
 40
0.4687500000000001
 40
0.4687500000000001
 40
0.5000000000000002
 40
0.5000000000000002
 40
0.5312500000000001
 40
0.5312500000000001
 40
0.5625000000000001
 40
0.5625000000000001
 40
0.59375
 40
0.59375
 40
0.6249999999999999
 40
0.6249999999999999
 40
0.6562499999999999
 40
0.6562499999999999
 40
0.6874999999999998
 40
0.6874999999999998
 40
0.7187499999999998
 40
0.7187499999999998
 40
0.7499999999999997
 40
0.7499999999999997
 40
0.7812499999999997
 40
0.7812499999999997
 40
0.8124999999999998
 40
0.8124999999999998
 40
0.8437499999999998
 40
0.8437499999999998
 40
0.8749999999999998
 40
0.8749999999999998
 40
0.9062499999999999
 40
0.9062499999999999
 40
0.9374999999999999
 40
0.9374999999999999
 40
0.96875
 40
0.96875
 40
1.0
 40
1.0
 40
1.03125
 40
1.03125
 10
86.05409801039451
 20
135.9258581833434
 30
0.0
 10
86.58318868771481
 20
135.9258581833434
 30
0.0
 10
86.8432593550919
 20
135.9417586237582
 30
0.0
 10
87.35483403492732
 20
136.0037029739325
 30
0.0
 10
87.60900931866752
 20
136.0505052080238
 30
0.0
 10
88.09327994872922
 20
136.1714821914788
 30
0.0
 10
88.32292104061038
 20
136.2450845192857
 30
0.0
 10
88.75752538884387
 20
136.4169087902638
 30
0.0
 10
88.96309116549048
 20
136.5159122131912
 30
0.0
 10
89.33164830608571
 20
136.7290086271041
 30
0.0
 10
89.4971292888212
 20
136.8439083432337
 30
0.0
 10
89.7895537982563
 20
137.089275241924
 30
0.0
 10
89.91365477488279
 20
137.2177151423943
 30
0.0
 10
90.11323397163252
 20
137.4786072904803
 30
0.0
 10
90.1901675574908
 20
137.6129884618197
 30
0.0
 10
90.29302461601115
 20
137.882308412926
 30
0.0
 10
90.31849752547028
 20
138.0149896771441
 30
0.0
 10
90.31878793603806
 20
138.2761761512752
 30
0.0
 10
90.29276330226233
 20
138.4059411894399
 30
0.0
 10
90.19061501777033
 20
138.6515238237126
 30
0.0
 10
90.11503857018715
 20
138.7681853610214
 30
0.0
 10
89.91454103904223
 20
138.990090551176
 30
0.0
 10
89.78941219753385
 20
139.094701805099
 30
0.0
 10
89.50005339651226
 20
139.284748216707
 30
0.0
 10
89.33464240945679
 20
139.3715078881567
 30
0.0
 10
88.96165185130897
 20
139.5290122639083
 30
0.0
 10
88.75991881821987
 20
139.5973375286955
 30
0.0
 10
88.32705956739201
 20
139.7155672523147
 30
0.0
 10
88.09314103450261
 20
139.7658621684186
 30
0.0
 10
87.60895729936001
 20
139.8457277053082
 30
0.0
 10
87.35964167340451
 20
139.8754688331078
 30
0.0
 10
86.84660914897678
 20
139.915621574616
 30
0.0
 10
86.58131532607213
 20
139.9258198440259
 30
0.0
 10
86.05898070620239
 20
139.9258963024106
 30
0.0
 10
85.79922704372066
 20
139.9161052908015
 30
0.0
 10
85.28261522807541
 20
139.8760384520628
 30
0.0
 10
85.03024918757514
 20
139.845941285206
 30
0.0
 10
84.5487240660423
 20
139.7667190753757
 30
0.0
 10
84.31587333392876
 20
139.7169615959124
 30
0.0
 10
83.87878348548998
 20
139.597869653462
 30
0.0
 10
83.6774624968328
 20
139.5295543919147
 30
0.0
 10
83.3083764715329
 20
139.3741534249812
 30
0.0
 10
83.13939172048121
 20
139.2860010829143
 30
0.0
 10
82.848935663822
 20
139.0955616937979
 30
0.0
 10
82.72586385245987
 20
138.9929371160989
 30
0.0
 10
82.52452761103784
 20
138.7712967694907
 30
0.0
 10
82.44731506509562
 20
138.6525426939432
 30
0.0
 10
82.34511152219555
 20
138.4078767550256
 30
0.0
 10
82.31888317074323
 20
138.280720029577
 30
0.0
 10
82.31840677142613
 20
138.0162718837215
 30
0.0
 10
82.3441491839241
 20
137.8833712034643
 30
0.0
 10
82.44545996028796
 20
137.6165789299822
 30
0.0
 10
82.52229259967889
 20
137.4812150285137
 30
0.0
 10
82.72269643889408
 20
137.2186352332111
 30
0.0
 10
82.84536793718611
 20
137.0916600734573
 30
0.0
 10
83.13531522635034
 20
136.847580687375
 30
0.0
 10
83.30388620571559
 20
136.7301555626211
 30
0.0
 10
83.67215579982874
 20
136.5169591016727
 30
0.0
 10
83.87321765709906
 20
136.4197849832478
 30
0.0
 10
84.31024857568397
 20
136.2464300960336
 30
0.0
 10
84.54239678881359
 20
136.1720305443769
 30
0.0
 10
85.02340707031244
 20
136.0515776648722
 30
0.0
 10
85.27550715314288
 20
136.0047192896062
 30
0.0
 10
85.7925766394019
 20
135.9417617926225
 30
0.0
 10
86.05409801039451
 20
135.9258581833434
 30
0.0
 10
86.58318868771481
 20
135.9258581833434
 30
0.0
  0
LINE
  5
7F
330
1F
100
AcDbEntity
  8
0
  6
Continuous
 62
     7
370
    15
100
AcDbLine
 10
104.2686430391
 20
81.3066175501
 30
0.0
 11
104.2686430391
 21
130.7168955277
 31
0.0
  0
SPLINE
  5
80
330
1F
100
AcDbEntity
  8
0
  6
Continuous
 62
     7
370
    15
100
AcDbSpline
210
0.0
220
0.0
230
1.0
 70
     8
 71
     3
 72
    10
 73
     6
 74
     0
 42
0.00000001
 43
0.00000001
 40
0.0
 40
0.0
 40
0.0
 40
0.0
 40
0.5
 40
0.5
 40
1.0
 40
1.0
 40
1.0
 40
1.0
 10
104.2686433490547
 20
81.3066173879714
 30
0.0
 10
104.2686433490546
 20
81.14673011977774
 30
0.0
 10
104.2073336978188
 20
80.98560286426314
 30
0.0
 10
103.9882340602837
 20
80.7515038659083
 30
0.0
 10
103.8301858539702
 20
80.67997709231709
 30
0.0
 10
103.6686433490546
 20
80.67997709231709
 30
0.0
  0
SPLINE
  5
81
330
1F
100
AcDbEntity
  8
0
  6
Continuous
 62
     7
370
    15
100
AcDbSpline
210
0.0
220
0.0
230
1.0
 70
    24
 71
     3
 72
    12
 73
     8
 74
     0
 42
0.00000001
 43
0.00000001
 40
0.0
 40
0.0
 40
0.0
 40
0.0
 40
0.2500000000000033
 40
0.2500000000000033
 40
0.5000000000000067
 40
0.5000000000000067
 40
1.0
 40
1.0
 40
1.0
 40
1.0
 10
103.6686433490546
 20
130.7168947885642
 30
0.0
 10
103.7588824167417
 20
130.7168947885642
 30
0.0
 10
103.8497805308482
 20
130.7168947885642
 30
0.0
 10
104.0043775673367
 20
130.7168947885642
 30
0.0
 10
104.0693559834448
 20
130.7168947885642
 30
0.0
 10
104.2211910113811
 20
130.7168947885642
 30
0.0
 10
104.2686433490547
 20
130.7168947885642
 30
0.0
 10
104.2686433490546
 20
130.7168947885642
 30
0.0
  0
LINE
  5
82
330
1F
100
AcDbEntity
  8
0
  6
Continuous
 62
     7
370
    15
100
AcDbLine
 10
94.4086433973
 20
83.3690574686
 30
0.0
 11
94.4086433973
 21
130.7168955277
 31
0.0
  0
SPLINE
  5
83
330
1F
100
AcDbEntity
  8
0
  6
Continuous
 62
     7
370
    15
100
AcDbSpline
210
0.0
220
0.0
230
1.0
 70
     8
 71
     3
 72
     8
 73
     4
 74
     0
 42
0.00000001
 43
0.00000001
 40
0.0
 40
0.0
 40
0.0
 40
0.0
 40
1.0
 40
1.0
 40
1.0
 40
1.0
 10
94.40864334905466
 20
83.36905762950938
 30
0.0
 10
93.91630422627348
 20
82.47178759530269
 30
0.0
 10
93.42219017823133
 20
81.57550318025045
 30
0.0
 10
92.9267105175656
 20
80.67997709231709
 30
0.0
  0
SPLINE
  5
84
330
1F
100
AcDbEntity
  8
0
  6
Continuous
 62
     7
370
    15
100
AcDbSpline
210
0.0
220
0.0
230
1.0
 70
    24
 71
     3
 72
     8
 73
     4
 74
     0
 42
0.00000001
 43
0.00000001
 40
0.0
 40
0.0
 40
0.0
 40
0.0
 40
1.0
 40
1.0
 40
1.0
 40
1.0
 10
92.92671051756557
 20
130.7168947885642
 30
0.0
 10
93.43339062571613
 20
130.7168947885642
 30
0.0
 10
93.92869135468976
 20
130.7168947885642
 30
0.0
 10
94.40864334905466
 20
130.7168947885642
 30
0.0
  0
LINE
  5
85
330
1F
100
AcDbEntity
  8
0
  6
Continuous
 62
     7
370
    15
100
AcDbLine
 10
99.7105752703
 20
80.6799771557
 30
0.0
 11
99.7105752703
 21
130.7168955277
 31
0.0
  0
SPLINE
  5
86
330
1F
100
AcDbEntity
  8
0
  6
Continuous
 62
     7
370
    15
100
AcDbSpline
210
0.0
220
0.0
230
1.0
 70
     8
 71
     3
 72
     8
 73
     4
 74
     0
 42
0.00000001
 43
0.00000001
 40
0.0
 40
0.0
 40
0.0
 40
0.0
 40
1.0
 40
1.0
 40
1.0
 40
1.0
 10
99.7105761805437
 20
80.67997709231709
 30
0.0
 10
99.21509651987796
 20
81.57550318025045
 30
0.0
 10
98.72098247183584
 20
82.4717875953027
 30
0.0
 10
98.22864334905465
 20
83.3690576295094
 30
0.0
  0
LINE
  5
87
330
1F
100
AcDbEntity
  8
0
  6
Continuous
 62
     7
370
    15
100
AcDbLine
 10
98.2286436137
 20
83.3690574686
 30
0.0
 11
98.2286436137
 21
130.7168955277
 31
0.0
  0
SPLINE
  5
88
330
1F
100
AcDbEntity
  8
0
  6
Continuous
 62
     7
370
    15
100
AcDbSpline
210
0.0
220
0.0
230
1.0
 70
    24
 71
     3
 72
     8
 73
     4
 74
     0
 42
0.00000001
 43
0.00000001
 40
0.0
 40
0.0
 40
0.0
 40
0.0
 40
1.0
 40
1.0
 40
1.0
 40
1.0
 10
98.22864334905465
 20
130.7168947885642
 30
0.0
 10
98.70859534341955
 20
130.7168947885642
 30
0.0
 10
99.20389607239316
 20
130.7168947885642
 30
0.0
 10
99.71057618054371
 20
130.7168947885642
 30
0.0
  0
LINE
  5
89
330
1F
100
AcDbEntity
  8
0
  6
Continuous
 62
     7
370
    15
100
AcDbLine
 10
103.6686440583
 20
80.6799771557
 30
0.0
 11
99.7105752703
 21
80.6799771557
 31
0.0
  0
LINE
  5
8A
330
1F
100
AcDbEntity
  8
0
  6
Continuous
 62
     7
370
    15
100
AcDbLine
 10
99.7105752703
 20
130.7168955277
 30
0.0
 11
103.6686440583
 21
130.7168955277
 31
0.0
  0
LINE
  5
8B
330
1F
100
AcDbEntity
  8
0
  6
Continuous
 62
     7
370
    15
100
AcDbLine
 10
78.3186433491
 20
79.666895635
 30
0.0
 11
78.3186433491
 21
142.0668939422
 31
0.0
  0
ARC
  5
8C
330
1F
100
AcDbEntity
  8
0
  6
Continuous
 62
     7
370
    15
100
AcDbCircle
 10
86.3156954201
 20
122.7540934313
 30
0.0
 40
4.120496344242248
100
AcDbArc
 50
19.8818576628
 51
158.8352177423
  0
SPLINE
  5
8D
330
1F
100
AcDbEntity
  8
0
  6
Continuous
 62
     7
370
    15
100
AcDbSpline
210
0.0
220
0.0
230
1.0
 70
     8
 71
     3
 72
    10
 73
     6
 74
     0
 42
0.00000001
 43
0.00000001
 40
0.0
 40
0.0
 40
0.0
 40
0.0
 40
0.5
 40
0.5
 40
1.0
 40
1.0
 40
1.0
 40
1.0
 10
94.80294088074561
 20
137.2668947885642
 30
0.0
 10
94.6814006170771
 20
137.341620955776
 30
0.0
 10
94.58006625672816
 20
137.4505659716928
 30
0.0
 10
94.44442731383973
 20
137.7009964524544
 30
0.0
 10
94.40864334905466
 20
137.8434158145533
 30
0.0
 10
94.40864334905466
 20
137.9865486396
 30
0.0
  0
SPLINE
  5
8E
330
1F
100
AcDbEntity
  8
0
  6
Continuous
 62
     7
370
    15
100
AcDbSpline
210
0.0
220
0.0
230
1.0
 70
    24
 71
     3
 72
    12
 73
     8
 74
     0
 42
0.00000001
 43
0.00000001
 40
0.0
 40
0.0
 40
0.0
 40
0.0
 40
0.2500000000000037
 40
0.2500000000000037
 40
0.5000000000000074
 40
0.5000000000000074
 40
1.0
 40
1.0
 40
1.0
 40
1.0
 10
95.20864334905465
 20
137.2668947885642
 30
0.0
 10
95.1587666667372
 20
137.2668947885642
 30
0.0
 10
95.1107634733336
 20
137.2668947885642
 30
0.0
 10
95.02771537062164
 20
137.2668947885642
 30
0.0
 10
94.99158579115378
 20
137.2668947885642
 30
0.0
 10
94.89567376020958
 20
137.2668947885642
 30
0.0
 10
94.84591509224077
 20
137.2668947885642
 30
0.0
 10
94.80294088074561
 20
137.2668947885642
 30
0.0
  0
SPLINE
  5
8F
330
1F
100
AcDbEntity
  8
0
  6
Continuous
 62
     7
370
    15
100
AcDbSpline
210
0.0
220
0.0
230
1.0
 70
    24
 71
     3
 72
    14
 73
    10
 74
     0
 42
0.00000001
 43
0.00000001
 40
0.0
 40
0.0
 40
0.0
 40
0.0
 40
0.1249999999999991
 40
0.1249999999999991
 40
0.2499999999999982
 40
0.2499999999999982
 40
0.4999999999999998
 40
0.4999999999999998
 40
1.0
 40
1.0
 40
1.0
 40
1.0
 10
95.20864334905464
 20
84.46689478856426
 30
0.0
 10
95.1402055011682
 20
84.46689478856426
 30
0.0
 10
95.07465546240314
 20
84.46689478856426
 30
0.0
 10
94.9702288229952
 20
84.46689478856426
 30
0.0
 10
94.92768421323377
 20
84.46689478856426
 30
0.0
 10
94.81507475269352
 20
84.46689478856425
 30
0.0
 10
94.75953570567403
 20
84.46689478856426
 30
0.0
 10
94.61692401021023
 20
84.46689478856425
 30
0.0
 10
94.55351865521448
 20
84.46689478856425
 30
0.0
 10
94.50631815138694
 20
84.46689478856426
 30
0.0
  0
SPLINE
  5
90
330
1F
100
AcDbEntity
  8
0
  6
Continuous
 62
     7
370
    15
100
AcDbSpline
210
0.0
220
0.0
230
1.0
 70
     8
 71
     3
 72
    10
 73
     6
 74
     0
 42
0.00000001
 43
0.00000001
 40
0.0
 40
0.0
 40
0.0
 40
0.0
 40
0.5
 40
0.5
 40
1.0
 40
1.0
 40
1.0
 40
1.0
 10
94.40864334905466
 20
131.0027614200256
 30
0.0
 10
94.40864334905466
 20
130.9549899120323
 30
0.0
 10
94.4108045926518
 20
130.9072801899707
 30
0.0
 10
94.41947596651197
 20
130.8119850724224
 30
0.0
 10
94.42600514946795
 20
130.7642925084557
 30
0.0
 10
94.43479097221478
 20
130.7168947885642
 30
0.0
  0
SPLINE
  5
91
330
1F
100
AcDbEntity
  8
0
  6
Continuous
 62
     7
370
    15
100
AcDbSpline
210
0.0
220
0.0
230
1.0
 70
    24
 71
     3
 72
    14
 73
    10
 74
     0
 42
0.00000001
 43
0.00000001
 40
0.0
 40
0.0
 40
0.0
 40
0.0
 40
0.4999999999999984
 40
0.4999999999999984
 40
0.7499999999999992
 40
0.7499999999999992
 40
0.8749999999999996
 40
0.8749999999999996
 40
1.0
 40
1.0
 40
1.0
 40
1.0
 10
98.13096854672236
 20
84.46689478856426
 30
0.0
 10
98.08418384167415
 20
84.46689478856426
 30
0.0
 10
98.02213264489454
 20
84.46689478856426
 30
0.0
 10
97.87874100634393
 20
84.46689478856425
 30
0.0
 10
97.82259735279278
 20
84.46689478856426
 30
0.0
 10
97.7096463306566
 20
84.46689478856426
 30
0.0
 10
97.66664556861843
 20
84.46689478856426
 30
0.0
 10
97.56258285831198
 20
84.46689478856426
 30
0.0
 10
97.49725061995507
 20
84.46689478856426
 30
0.0
 10
97.42864334905465
 20
84.46689478856426
 30
0.0
  0
SPLINE
  5
92
330
1F
100
AcDbEntity
  8
0
  6
Continuous
 62
     7
370
    15
100
AcDbSpline
210
0.0
220
0.0
230
1.0
 70
    24
 71
     3
 72
    12
 73
     8
 74
     0
 42
0.00000001
 43
0.00000001
 40
0.0
 40
0.0
 40
0.0
 40
0.0
 40
0.5000000000000017
 40
0.5000000000000017
 40
0.7500000000000008
 40
0.7500000000000008
 40
1.0
 40
1.0
 40
1.0
 40
1.0
 10
97.83434581736368
 20
137.2668947885642
 30
0.0
 10
97.79126026775273
 20
137.2668947885642
 30
0.0
 10
97.74210806600341
 20
137.2668947885642
 30
0.0
 10
97.6456354717155
 20
137.2668947885642
 30
0.0
 10
97.60953388658092
 20
137.2668947885642
 30
0.0
 10
97.52642812871964
 20
137.2668947885642
 30
0.0
 10
97.47843153175336
 20
137.2668947885642
 30
0.0
 10
97.42864334905465
 20
137.2668947885642
 30
0.0
  0
SPLINE
  5
93
330
1F
100
AcDbEntity
  8
0
  6
Continuous
 62
     7
370
    15
100
AcDbSpline
210
0.0
220
0.0
230
1.0
 70
     8
 71
     3
 72
    10
 73
     6
 74
     0
 42
0.00000001
 43
0.00000001
 40
0.0
 40
0.0
 40
0.0
 40
0.0
 40
0.5
 40
0.5
 40
1.0
 40
1.0
 40
1.0
 40
1.0
 10
98.22864334905465
 20
137.9865486396
 30
0.0
 10
98.22864334905465
 20
137.842778581782
 30
0.0
 10
98.19259429033576
 20
137.7003592192869
 30
0.0
 10
98.05708542956175
 20
137.4504649259296
 30
0.0
 10
97.95720943646558
 20
137.3424345896814
 30
0.0
 10
97.83434581736365
 20
137.2668947885642
 30
0.0
  0
SPLINE
  5
94
330
1F
100
AcDbEntity
  8
0
  6
Continuous
 62
     7
370
    15
100
AcDbSpline
210
0.0
220
0.0
230
1.0
 70
     8
 71
     3
 72
    10
 73
     6
 74
     0
 42
0.00000001
 43
0.00000001
 40
0.0
 40
0.0
 40
0.0
 40
0.0
 40
0.5
 40
0.5
 40
1.0
 40
1.0
 40
1.0
 40
1.0
 10
98.20249572589451
 20
130.7168947885642
 30
0.0
 10
98.21118536880618
 20
130.7637736378825
 30
0.0
 10
98.2177244335567
 20
130.8111961032837
 30
0.0
 10
98.22648306794972
 20
130.9071329018705
 30
0.0
 10
98.22864334905465
 20
130.9550481898811
 30
0.0
 10
98.22864334905465
 20
131.0027614200256
 30
0.0
  0
LINE
  5
95
330
1F
100
AcDbEntity
  8
0
  6
Continuous
 62
     7
370
    15
100
AcDbLine
 10
97.42864311
 20
137.2668946455
 30
0.0
 11
95.208643901
 21
137.2668946455
 31
0.0
  0
LINE
  5
96
330
1F
100
AcDbEntity
  8
0
  6
Continuous
 62
     7
370
    15
100
AcDbLine
 10
97.42864311
 20
84.4668949316
 30
0.0
 11
95.208643901
 21
84.4668949316
 31
0.0
  0
LINE
  5
97
330
1F
100
AcDbEntity
  8
0
  6
Continuous
 62
     7
370
    15
100
AcDbLine
 10
56.5186431285
 20
87.6384487669
 30
0.0
 11
56.5186431285
 21
88.9031568835
 31
0.0
  0
SPLINE
  5
98
330
1F
100
AcDbEntity
  8
0
  6
Continuous
 62
     7
370
    15
100
AcDbSpline
210
0.0
220
0.0
230
1.0
 70
     8
 71
     3
 72
    14
 73
    10
 74
     0
 42
0.00000001
 43
0.00000001
 40
0.0
 40
0.0
 40
0.0
 40
0.0
 40
0.25
 40
0.25
 40
0.5
 40
0.5
 40
0.75
 40
0.75
 40
1.0
 40
1.0
 40
1.0
 40
1.0
 10
55.74035623113893
 20
90.03374346500429
 30
0.0
 10
55.79698290634101
 20
89.92604601116744
 30
0.0
 10
55.89150556663073
 20
89.82325642944812
 30
0.0
 10
56.07455054219297
 20
89.62489911722797
 30
0.0
 10
56.1661771191477
 20
89.52883960854972
 30
0.0
 10
56.3250304368409
 20
89.34131056584047
 30
0.0
 10
56.39292104446258
 20
89.24990159305693
 30
0.0
 10
56.48983807017017
 20
89.07152537214677
 30
0.0
 10
56.51864334905524
 20
88.9843034659006
 30
0.0
 10
56.51864334905522
 20
88.90315725736633
 30
0.0
  0
SPLINE
  5
99
330
1F
100
AcDbEntity
  8
0
  6
Continuous
 62
     7
370
    15
100
AcDbSpline
210
0.0
220
0.0
230
1.0
 70
     8
 71
     3
 72
    14
 73
    10
 74
     0
 42
0.00000001
 43
0.00000001
 40
0.0
 40
0.0
 40
0.0
 40
0.0
 40
0.1249999999999975
 40
0.1249999999999975
 40
0.249999999999995
 40
0.249999999999995
 40
0.4999999999999953
 40
0.4999999999999953
 40
1.0
 40
1.0
 40
1.0
 40
1.0
 10
55.11864334905466
 20
90.48042532728363
 30
0.0
 10
55.16718775771182
 20
90.4861736405639
 30
0.0
 10
55.22010311249673
 20
90.48307275190767
 30
0.0
 10
55.31539845747977
 20
90.46087790774534
 30
0.0
 10
55.35564945476472
 20
90.44364568064948
 30
0.0
 10
55.45991946827769
 20
90.38731776419742
 30
0.0
 10
55.51024144343101
 20
90.34313141825162
 30
0.0
 10
55.6379243909564
 20
90.212123519401
 30
0.0
 10
55.69400983801866
 20
90.12188899917071
 30
0.0
 10
55.7403562311404
 20
90.03374346500483
 30
0.0
  0
SPLINE
  5
9A
330
1F
100
AcDbEntity
  8
0
  6
Continuous
 62
     7
370
    15
100
AcDbSpline
210
0.0
220
0.0
230
1.0
 70
     8
 71
     3
 72
     8
 73
     4
 74
     0
 42
0.00000001
 43
0.00000001
 40
0.0
 40
0.0
 40
0.0
 40
0.0
 40
1.0
 40
1.0
 40
1.0
 40
1.0
 10
52.85011825610843
 20
90.17058004070083
 30
0.0
 10
53.58469528259138
 20
90.2892050517698
 30
0.0
 10
54.34817035198705
 20
90.38919092390607
 30
0.0
 10
55.11864334905467
 20
90.48042532728363
 30
0.0
  0
SPLINE
  5
9B
330
1F
100
AcDbEntity
  8
0
  6
Continuous
 62
     7
370
    15
100
AcDbSpline
210
0.0
220
0.0
230
1.0
 70
     8
 71
     3
 72
    14
 73
    10
 74
     0
 42
0.00000001
 43
0.00000001
 40
0.0
 40
0.0
 40
0.0
 40
0.0
 40
0.500000000000001
 40
0.500000000000001
 40
0.7500000000000004
 40
0.7500000000000004
 40
0.8750000000000003
 40
0.8750000000000003
 40
1.0
 40
1.0
 40
1.0
 40
1.0
 10
47.56864334905465
 20
89.99695702316917
 30
0.0
 10
48.46078947960823
 20
89.99623479696852
 30
0.0
 10
49.35076591540183
 20
90.00082100342598
 30
0.0
 10
50.67736108247745
 20
90.02854600781752
 30
0.0
 10
51.11820801097616
 20
90.0411525454417
 30
0.0
 10
51.77464824839858
 20
90.07216869344916
 30
0.0
 10
51.99266190499047
 20
90.08451186607593
 30
0.0
 10
52.42537075867325
 20
90.11753592123921
 30
0.0
 10
52.64064722383804
 20
90.13675308637764
 30
0.0
 10
52.85011825610844
 20
90.17058004070083
 30
0.0
  0
SPLINE
  5
9C
330
1F
100
AcDbEntity
  8
0
  6
Continuous
 62
     7
370
    15
100
AcDbSpline
210
0.0
220
0.0
230
1.0
 70
     8
 71
     3
 72
     8
 73
     4
 74
     0
 42
0.00000001
 43
0.00000001
 40
0.0000005163856712
 40
0.0000005163856712
 40
0.0000005163856712
 40
0.0000005163856712
 40
0.000026289209185
 40
0.000026289209185
 40
0.000026289209185
 40
0.000026289209185
 10
47.55859841863597
 20
90.00694089627704
 30
0.0
 10
47.56192615684744
 20
90.00360664940422
 30
0.0
 10
47.56527460982674
 20
90.0002786921252
 30
0.0
 10
47.56864334905462
 20
89.99695702316916
 30
0.0
  0
SPLINE
  5
9D
330
1F
100
AcDbEntity
  8
0
  6
Continuous
 62
     7
370
    15
100
AcDbSpline
210
0.0
220
0.0
230
1.0
 70
     8
 71
     3
 72
     8
 73
     4
 74
     0
 42
0.00000001
 43
0.00000001
 40
0.0000005099763573
 40
0.0000005099763573
 40
0.0000005099763573
 40
0.0000005099763573
 40
0.0000262827998699
 40
0.0000262827998699
 40
0.0000262827998699
 40
0.0000262827998699
 10
47.56864334905464
 20
131.7368325539593
 30
0.0
 10
47.5652746098269
 20
131.7335108850035
 30
0.0
 10
47.56192615684776
 20
131.7301829277246
 30
0.0
 10
47.55859841863644
 20
131.7268486808519
 30
0.0
  0
SPLINE
  5
9E
330
1F
100
AcDbEntity
  8
0
  6
Continuous
 62
     7
370
    15
100
AcDbSpline
210
0.0
220
0.0
230
1.0
 70
     8
 71
     3
 72
    10
 73
     6
 74
     0
 42
0.00000001
 43
0.00000001
 40
0.0
 40
0.0
 40
0.0
 40
0.0
 40
0.5
 40
0.5
 40
1.0
 40
1.0
 40
1.0
 40
1.0
 10
51.11864334905466
 20
131.689982180392
 30
0.0
 10
50.53105780196407
 20
131.7110477006284
 30
0.0
 10
49.94031140850367
 20
131.7218061865006
 30
0.0
 10
48.75629224320483
 20
131.7351709670363
 30
0.0
 10
48.16287825499936
 20
131.7373136097009
 30
0.0
 10
47.56864334905465
 20
131.7368325539593
 30
0.0
  0
SPLINE
  5
9F
330
1F
100
AcDbEntity
  8
0
  6
Continuous
 62
     7
370
    15
100
AcDbSpline
210
0.0
220
0.0
230
1.0
 70
     8
 71
     3
 72
    18
 73
    14
 74
     0
 42
0.00000001
 43
0.00000001
 40
0.0
 40
0.0
 40
0.0
 40
0.0
 40
0.2500000000000009
 40
0.2500000000000009
 40
0.500000000000001
 40
0.500000000000001
 40
0.7500000000000011
 40
0.7500000000000011
 40
0.875000000000001
 40
0.875000000000001
 40
0.9375000000000006
 40
0.9375000000000006
 40
1.0
 40
1.0
 40
1.0
 40
1.0
 10
52.51864334905466
 20
132.7110024609272
 30
0.0
 10
52.51864334905468
 20
132.62779555207
 30
0.0
 10
52.4827942491164
 20
132.5390588967565
 30
0.0
 10
52.35792251308246
 20
132.3569337061963
 30
0.0
 10
52.2675220954346
 20
132.2618036575696
 30
0.0
 10
52.04527944069243
 20
132.0726221484453
 30
0.0
 10
51.91551465424665
 20
131.9776769803506
 30
0.0
 10
51.67487719693514
 20
131.8393982727707
 30
0.0
 10
51.58710989879769
 20
131.7936878394683
 30
0.0
 10
51.4325858115909
 20
131.7358645342468
 30
0.0
 10
51.37597492553614
 20
131.7181497702089
 30
0.0
 10
51.25193089462954
 20
131.693610466976
 30
0.0
 10
51.18421621961125
 20
131.6876313284377
 30
0.0
 10
51.11864334905465
 20
131.689982180392
 30
0.0
  0
LINE
  5
A0
330
1F
100
AcDbEntity
  8
0
  6
Continuous
 62
     7
370
    15
100
AcDbLine
 10
52.5186424729
 20
132.7110024462
 30
0.0
 11
52.5186424729
 21
133.8949406813
 31
0.0
  0
LINE
  5
A1
330
1F
100
AcDbEntity
  8
0
  6
Continuous
 62
     7
370
    15
100
AcDbLine
 10
76.3186432541
 20
86.6464635651
 30
0.0
 11
76.3186432541
 21
135.0873260121
 31
0.0
  0
SPLINE
  5
A2
330
1F
100
AcDbEntity
  8
0
  6
Continuous
 62
     7
370
    15
100
AcDbSpline
210
0.0
220
0.0
230
1.0
 70
     8
 71
     3
 72
    18
 73
    14
 74
     0
 42
0.00000001
 43
0.00000001
 40
0.0
 40
0.0
 40
0.0
 40
0.0
 40
0.001067142096085
 40
0.1270947925777493
 40
0.2524053537361832
 40
0.3766468838452861
 40
0.4391416358858051
 40
0.5008278334298175
 40
0.5624255844801763
 40
0.6253162510714301
 40
0.7499985254815132
 40
0.8752758926324193
 40
1.0
 40
1.0
 40
1.0
 40
1.0
 10
65.08894447499831
 20
87.20955609482627
 30
0.0
 10
65.08803239971559
 20
87.20944092693422
 30
0.0
 10
64.97940579853505
 20
87.19572462860448
 30
0.0
 10
65.3670872705778
 20
87.24671088998612
 30
0.0
 10
66.23303573068735
 20
87.34626792586063
 30
0.0
 10
67.43344352441017
 20
87.41539855547971
 30
0.0
 10
68.4910190742679
 20
87.41934925574644
 30
0.0
 10
69.31815343839115
 20
87.39186238782219
 30
0.0
 10
70.143425074439
 20
87.3333198990099
 30
0.0
 10
71.19779028154778
 20
87.21980129705018
 30
0.0
 10
72.3596264878012
 20
87.03664714121665
 30
0.0
 10
73.31186120847434
 20
86.8320469925505
 30
0.0
 10
73.43756631118298
 20
86.80276032254139
 30
0.0
 10
73.5002797682019
 20
86.78814939361911
 30
0.0
  0
SPLINE
  5
A3
330
1F
100
AcDbEntity
  8
0
  6
Continuous
 62
     7
370
    15
100
AcDbSpline
210
0.0
220
0.0
230
1.0
 70
     8
 71
     3
 72
    18
 73
    14
 74
     0
 42
0.00000001
 43
0.00000001
 40
0.0
 40
0.0
 40
0.0
 40
0.0
 40
0.1248907819469273
 40
0.2505384063477967
 40
0.3748721756041158
 40
0.4374907331267689
 40
0.4990776026247599
 40
0.5607931145009658
 40
0.6233901196104445
 40
0.7478191009174896
 40
0.8731941046696081
 40
0.9991614615322162
 40
0.9999999999999999
 40
0.9999999999999999
 40
0.9999999999999999
 40
0.9999999999999999
 10
73.50006090739687
 20
134.9455749909292
 30
0.0
 10
73.43632007542917
 20
134.9309135247022
 30
0.0
 10
73.3084521398496
 20
134.9015017432561
 30
0.0
 10
72.35645330326108
 20
134.6965477838986
 30
0.0
 10
71.19590923240844
 20
134.5132865220349
 30
0.0
 10
70.14364546074508
 20
134.4002559676599
 30
0.0
 10
69.31941816172679
 20
134.3419951601872
 30
0.0
 10
68.49181441640212
 20
134.3145480240651
 30
0.0
 10
67.43299708670789
 20
134.3185328179397
 30
0.0
 10
66.23077734708205
 20
134.3876256024356
 30
0.0
 10
65.36559657608315
 20
134.4872343396228
 30
0.0
 10
64.97944782844547
 20
134.538091945266
 30
0.0
 10
65.08752570080908
 20
134.5243911378427
 30
0.0
 10
65.0882403951319
 20
134.5243005375276
 30
0.0
  0
SPLINE
  5
A4
330
1F
100
AcDbEntity
  8
0
  6
Continuous
 62
     7
370
    15
100
AcDbSpline
210
0.0
220
0.0
230
1.0
 70
     8
 71
     3
 72
     9
 73
     5
 74
     0
 42
0.00000001
 43
0.00000001
 40
0.0
 40
0.0
 40
0.0
 40
0.0
 40
0.7009339503679092
 40
0.9999999999999999
 40
0.9999999999999999
 40
0.9999999999999999
 40
0.9999999999999999
 10
46.43942691648324
 20
91.16561508876185
 30
0.0
 10
46.44856758743307
 20
91.14778580500095
 30
0.0
 10
46.46160828969188
 20
91.12234933734015
 30
0.0
 10
46.47677175296017
 20
91.17622869681371
 30
0.0
 10
46.48130663001855
 20
91.19234218400817
 30
0.0
  0
LINE
  5
A5
330
1F
100
AcDbEntity
  8
0
  6
Continuous
 62
     7
370
    15
100
AcDbLine
 10
46.4186435219
 20
91.176217265
 30
0.0
 11
46.4186435219
 21
130.5575723122
 31
0.0
  0
SPLINE
  5
A6
330
1F
100
AcDbEntity
  8
0
  6
Continuous
 62
     7
370
    15
100
AcDbSpline
210
0.0
220
0.0
230
1.0
 70
     8
 71
     3
 72
    10
 73
     6
 74
     0
 42
0.00000001
 43
0.00000001
 40
0.0
 40
0.0
 40
0.0
 40
0.0
 40
0.5
 40
0.5
 40
1.0
 40
1.0
 40
1.0
 40
1.0
 10
46.48130672377807
 20
130.541447333345
 30
0.0
 10
46.4724024346693
 20
130.5871888525581
 30
0.0
 10
46.45588705447631
 20
130.6043796920272
 30
0.0
 10
46.42877910841469
 20
130.6040564150914
 30
0.0
 10
46.41864334905465
 20
130.586178872795
 30
0.0
 10
46.41864334905465
 20
130.5575725350424
 30
0.0
  0
SPLINE
  5
A7
330
1F
100
AcDbEntity
  8
0
  6
Continuous
 62
     7
370
    15
100
AcDbSpline
210
0.0
220
0.0
230
1.0
 70
     8
 71
     3
 72
    26
 73
    22
 74
     0
 42
0.00000001
 43
0.00000001
 40
0.0
 40
0.0
 40
0.0
 40
0.0
 40
0.2500000000000165
 40
0.2500000000000165
 40
0.3750000000000256
 40
0.3750000000000256
 40
0.4375000000000291
 40
0.4375000000000291
 40
0.4687500000000291
 40
0.4687500000000291
 40
0.5000000000000292
 40
0.5000000000000292
 40
0.5312500000000293
 40
0.5312500000000293
 40
0.5625000000000293
 40
0.5625000000000293
 40
0.625000000000026
 40
0.625000000000026
 40
0.7500000000000173
 40
0.7500000000000173
 40
1.0
 40
1.0
 40
1.0
 40
1.0
 10
47.24279699515917
 20
131.2570141221621
 30
0.0
 10
47.2041964722907
 20
131.1392394258066
 30
0.0
 10
47.15789946973644
 20
131.0148497396447
 30
0.0
 10
47.06396012130251
 20
130.8096304072913
 30
0.0
 10
47.02864865438905
 20
130.7380575408448
 30
0.0
 10
46.96246867864337
 20
130.6221043082443
 30
0.0
 10
46.93793031197516
 20
130.5815197734341
 30
0.0
 10
46.89455756642135
 20
130.5173780915624
 30
0.0
 10
46.87904916499616
 20
130.4955116662773
 30
0.0
 10
46.84400652040912
 20
130.4499173979341
 30
0.0
 10
46.82445622968937
 20
130.4262471069667
 30
0.0
 10
46.78252894931875
 20
130.3816305476267
 30
0.0
 10
46.75987683908711
 20
130.3607505351088
 30
0.0
 10
46.71890312500049
 20
130.329877121358
 30
0.0
 10
46.70130382510506
 20
130.3200382515256
 30
0.0
 10
46.65667683924892
 20
130.3010486358295
 30
0.0
 10
46.63611761659558
 20
130.300724311176
 30
0.0
 10
46.58499217709891
 20
130.3099477520522
 30
0.0
 10
46.56408076411036
 20
130.3311946482692
 30
0.0
 10
46.51263085654944
 20
130.4051635270999
 30
0.0
 10
46.49496555724489
 20
130.4712816204147
 30
0.0
 10
46.48130672377807
 20
130.541447333345
 30
0.0
  0
SPLINE
  5
A8
330
1F
100
AcDbEntity
  8
0
  6
Continuous
 62
     7
370
    15
100
AcDbSpline
210
0.0
220
0.0
230
1.0
 70
     8
 71
     3
 72
    10
 73
     6
 74
     0
 42
0.00000001
 43
0.00000001
 40
0.0
 40
0.0
 40
0.0
 40
0.0
 40
0.5
 40
0.5
 40
1.0
 40
1.0
 40
1.0
 40
1.0
 10
47.55859841863646
 20
131.7268486808519
 30
0.0
 10
47.49103916371822
 20
131.6591572880421
 30
0.0
 10
47.42740250838172
 20
131.5844501232885
 30
0.0
 10
47.31718175380985
 20
131.4254839908619
 30
0.0
 10
47.27036546058723
 20
131.3411287248539
 30
0.0
 10
47.24279699515915
 20
131.2570141221621
 30
0.0
  0
SPLINE
  5
A9
330
1F
100
AcDbEntity
  8
0
  6
Continuous
 62
     7
370
    15
100
AcDbSpline
210
0.0
220
0.0
230
1.0
 70
     8
 71
     3
 72
    10
 73
     6
 74
     0
 42
0.00000001
 43
0.00000001
 40
0.0
 40
0.0
 40
0.0
 40
0.0
 40
0.5
 40
0.5
 40
1.0
 40
1.0
 40
1.0
 40
1.0
 10
47.24279699515921
 20
90.47677545496629
 30
0.0
 10
47.27027440991241
 20
90.3929386585007
 30
0.0
 10
47.31698304020007
 20
90.30862817091385
 30
0.0
 10
47.42726150294202
 20
90.149506940431
 30
0.0
 10
47.49114904155366
 20
90.07452219634291
 30
0.0
 10
47.558598418636
 20
90.00694089627704
 30
0.0
  0
SPLINE
  5
AA
330
1F
100
AcDbEntity
  8
0
  6
Continuous
 62
     7
370
    15
100
AcDbSpline
210
0.0
220
0.0
230
1.0
 70
     8
 71
     3
 72
    24
 73
    20
 74
     0
 42
0.00000001
 43
0.00000001
 40
0.0
 40
0.0
 40
0.0
 40
0.0
 40
0.25
 40
0.25
 40
0.374999999999999
 40
0.374999999999999
 40
0.4374999999999993
 40
0.4374999999999993
 40
0.4687499999999994
 40
0.4687499999999994
 40
0.4999999999999995
 40
0.4999999999999995
 40
0.5624999999999971
 40
0.5624999999999971
 40
0.6249999999999947
 40
0.6249999999999947
 40
0.7499999999999947
 40
0.7499999999999947
 40
1.0
 40
1.0
 40
1.0
 40
1.0
 10
46.48130672377807
 20
91.1923422437835
 30
0.0
 10
46.49505984244828
 20
91.26299230177379
 30
0.0
 10
46.51283240985416
 20
91.32959041453873
 30
0.0
 10
46.5650835014095
 20
91.40368843477192
 30
0.0
 10
46.58611857699108
 20
91.42494624193348
 30
0.0
 10
46.6390189846195
 20
91.43309216807972
 30
0.0
 10
46.66012465749741
 20
91.43215236468396
 30
0.0
 10
46.70617682617539
 20
91.4111363731066
 30
0.0
 10
46.72454729815878
 20
91.40022756699899
 30
0.0
 10
46.76609893322448
 20
91.36759265605163
 30
0.0
 10
46.7886656059814
 20
91.34610067568025
 30
0.0
 10
46.85144662244141
 20
91.27763473209394
 30
0.0
 10
46.88457638340932
 20
91.23156027388885
 30
0.0
 10
46.94149406989431
 20
91.14655238555417
 30
0.0
 10
46.96568009539808
 20
91.1062720843728
 30
0.0
 10
47.03088804577785
 20
90.99133585790685
 30
0.0
 10
47.06560410596909
 20
90.92075287275985
 30
0.0
 10
47.15881937629998
 20
90.71654711368124
 30
0.0
 10
47.20449191166065
 20
90.59364873135388
 30
0.0
 10
47.2427969951592
 20
90.4767754549663
 30
0.0
  0
LINE
  5
AB
330
1F
100
AcDbEntity
  8
0
  6
Continuous
 62
     7
370
    15
100
AcDbLine
 10
149.2686448272
 20
110.8668947886
 30
0.0
 11
149.2686448272
 21
88.3668938945
 31
0.0
  0
LINE
  5
AC
330
1F
100
AcDbEntity
  8
0
  6
Continuous
 62
     7
370
    15
100
AcDbLine
 10
149.2686448272
 20
133.3668956826
 30
0.0
 11
149.2686448272
 21
110.8668947886
 31
0.0
  0
SPLINE
  5
AD
330
1F
100
AcDbEntity
  8
0
  6
Continuous
 62
     7
370
    15
100
AcDbSpline
210
0.0
220
0.0
230
1.0
 70
     8
 71
     3
 72
    70
 73
    66
 74
     0
 42
0.00000001
 43
0.00000001
 40
-0.0312500000000006
 40
-0.0312500000000006
 40
0.0
 40
0.0
 40
0.0312499999999997
 40
0.0312499999999997
 40
0.0624999999999993
 40
0.0624999999999993
 40
0.093749999999999
 40
0.093749999999999
 40
0.1249999999999986
 40
0.1249999999999986
 40
0.1562499999999983
 40
0.1562499999999983
 40
0.1874999999999979
 40
0.1874999999999979
 40
0.2187499999999976
 40
0.2187499999999976
 40
0.2499999999999972
 40
0.2499999999999972
 40
0.2812499999999968
 40
0.2812499999999968
 40
0.3124999999999964
 40
0.3124999999999964
 40
0.343749999999996
 40
0.343749999999996
 40
0.3749999999999956
 40
0.3749999999999956
 40
0.4062499999999952
 40
0.4062499999999952
 40
0.4374999999999948
 40
0.4374999999999948
 40
0.4687499999999944
 40
0.4687499999999944
 40
0.499999999999994
 40
0.499999999999994
 40
0.5312499999999937
 40
0.5312499999999937
 40
0.5624999999999933
 40
0.5624999999999933
 40
0.593749999999993
 40
0.593749999999993
 40
0.6249999999999934
 40
0.6249999999999934
 40
0.656249999999994
 40
0.656249999999994
 40
0.6874999999999946
 40
0.6874999999999946
 40
0.7187499999999951
 40
0.7187499999999951
 40
0.7499999999999957
 40
0.7499999999999957
 40
0.7812499999999962
 40
0.7812499999999962
 40
0.8124999999999968
 40
0.8124999999999968
 40
0.8437499999999973
 40
0.8437499999999973
 40
0.8749999999999978
 40
0.8749999999999978
 40
0.9062499999999983
 40
0.9062499999999983
 40
0.9374999999999989
 40
0.9374999999999989
 40
0.9687499999999994
 40
0.9687499999999994
 40
1.0
 40
1.0
 40
1.03125
 40
1.03125
 10
137.7409110995395
 20
113.030471715702
 30
0.0
 10
138.0792145645744
 20
113.3066927868173
 30
0.0
 10
138.2587353263114
 20
113.4265643831784
 30
0.0
 10
138.6366483479733
 20
113.6332781894074
 30
0.0
 10
138.8364540164299
 20
113.7205345822461
 30
0.0
 10
139.2489537608827
 20
113.8593715964612
 30
0.0
 10
139.4588534431587
 20
113.9102983194716
 30
0.0
 10
139.8856440589906
 20
113.9768269803382
 30
0.0
 10
140.1045483666787
 20
113.9923156560649
 30
0.0
 10
140.5386571743975
 20
113.9863910262332
 30
0.0
 10
140.7532903089468
 20
113.9653976756659
 30
0.0
 10
141.1777626204402
 20
113.8876694473917
 30
0.0
 10
141.3896459831734
 20
113.830092688533
 30
0.0
 10
141.7963420719138
 20
113.6805137796032
 30
0.0
 10
141.9910568030117
 20
113.5890605307268
 30
0.0
 10
142.362876978411
 20
113.3720184420369
 30
0.0
 10
142.5418705120901
 20
113.24466931121
 30
0.0
 10
142.8685946633053
 20
112.9611709330809
 30
0.0
 10
143.0165868085247
 20
112.8056056884127
 30
0.0
 10
143.2801779335402
 20
112.4652172328112
 30
0.0
 10
143.3968017719795
 20
112.2776292090544
 30
0.0
 10
143.5830202747745
 20
111.8877292384146
 30
0.0
 10
143.6540276010774
 20
111.6846163402105
 30
0.0
 10
143.7488805091337
 20
111.2609288084676
 30
0.0
 10
143.7715833494836
 20
111.0413785879273
 30
0.0
 10
143.7650782440367
 20
110.6093825903841
 30
0.0
 10
143.7359432171632
 20
110.3912818712014
 30
0.0
 10
143.6283217359908
 20
109.9693564082977
 30
0.0
 10
143.5510346798645
 20
109.7672741322517
 30
0.0
 10
143.3519360298942
 20
109.37990624325
 30
0.0
 10
143.230965799723
 20
109.1972670172039
 30
0.0
 10
142.9568356020067
 20
108.8627176839774
 30
0.0
 10
142.800984250241
 20
108.7077307909427
 30
0.0
 10
142.4655278778939
 20
108.4325572455994
 30
0.0
 10
142.2862436521241
 20
108.3119389804264
 30
0.0
 10
141.9057096612906
 20
108.1027958179553
 30
0.0
 10
141.7045099221527
 20
108.014826045032
 30
0.0
 10
141.2949590505276
 20
107.876323060256
 30
0.0
 10
141.0848525794596
 20
107.8247462342193
 30
0.0
 10
140.6539106264512
 20
107.7570668845824
 30
0.0
 10
140.4361873555188
 20
107.7416851014529
 30
0.0
 10
140.0043638332082
 20
107.7470674725696
 30
0.0
 10
139.7890008780124
 20
107.7676200645023
 30
0.0
 10
139.3594188410911
 20
107.8459964683554
 30
0.0
 10
139.1495916860512
 20
107.9031785966991
 30
0.0
 10
138.7450549477647
 20
108.0515677681507
 30
0.0
 10
138.5494432067796
 20
108.1429102166555
 30
0.0
 10
138.1725904154303
 20
108.3627764527754
 30
0.0
 10
137.9959211207231
 20
108.4888426691659
 30
0.0
 10
137.6710603552933
 20
108.7704045327439
 30
0.0
 10
137.5220265964481
 20
108.9263239070905
 30
0.0
 10
137.2541891054769
 20
109.2724902602127
 30
0.0
 10
137.1405290658048
 20
109.4562032976888
 30
0.0
 10
136.9549106588663
 20
109.8445766062647
 30
0.0
 10
136.8822600134579
 20
110.0522551873876
 30
0.0
 10
136.7876973320936
 20
110.4774329057416
 30
0.0
 10
136.765607490877
 20
110.6923482763479
 30
0.0
 10
136.7723412062228
 20
111.1268846835239
 30
0.0
 10
136.8020784947312
 20
111.3462055180933
 30
0.0
 10
136.909538588592
 20
111.7658558059226
 30
0.0
 10
136.9883789526069
 20
111.9714985424156
 30
0.0
 10
137.1881210820352
 20
112.3584075432247
 30
0.0
 10
137.3078455787715
 20
112.5388470335296
 30
0.0
 10
137.5844446044575
 20
112.8754724803291
 30
0.0
 10
137.7409110995395
 20
113.030471715702
 30
0.0
 10
138.0792145645744
 20
113.3066927868173
 30
0.0
  0
SPLINE
  5
AE
330
1F
100
AcDbEntity
  8
0
  6
Continuous
 62
     7
370
    15
100
AcDbSpline
210
0.0
220
0.0
230
1.0
 70
     8
 71
     3
 72
    38
 73
    34
 74
     0
 42
0.00000001
 43
0.00000001
 40
0.0
 40
0.0
 40
0.0
 40
0.0
 40
0.0259614299021418
 40
0.0498498073489251
 40
0.0717159084922846
 40
0.1161440152434122
 40
0.1387421071403828
 40
0.1616130124372328
 40
0.2080115726159518
 40
0.2315676978326495
 40
0.2568131553627143
 40
0.3080187000716789
 40
0.3340125321869892
 40
0.3619758304789816
 40
0.4187398355271488
 40
0.4475898006023507
 40
0.4775005769181557
 40
0.5076107638389333
 40
0.53834727761978
 40
0.5693003200234066
 40
0.5998192514923969
 40
0.6305553182240973
 40
0.6619949101948359
 40
0.6936865526636091
 40
0.7233136257154706
 40
0.7837379652914717
 40
0.8146577019284669
 40
0.8416706793107448
 40
0.8968506538829443
 40
0.9251408924514295
 40
0.948889553946181
 40
0.997328817188382
 40
1.0
 40
1.0
 40
1.0
 40
1.0
 10
136.77928127611
 20
88.3681958834539
 30
0.0
 10
136.7772949897728
 20
88.36795462250628
 30
0.0
 10
136.773481024532
 20
88.36749136559769
 30
0.0
 10
136.813531857841
 20
88.37237323155472
 30
0.0
 10
136.8830413285664
 20
88.38073978648507
 30
0.0
 10
136.9899510726527
 20
88.39333247486493
 30
0.0
 10
137.1308553183802
 20
88.40918129943348
 30
0.0
 10
137.296752383173
 20
88.42720495478207
 30
0.0
 10
137.4959037283763
 20
88.44756669160334
 30
0.0
 10
137.7270572224246
 20
88.46918152466372
 30
0.0
 10
137.987949667867
 20
88.49193145900702
 30
0.0
 10
138.2815621712959
 20
88.51446799018086
 30
0.0
 10
138.6031022967155
 20
88.53512329058688
 30
0.0
 10
138.9546226086167
 20
88.55458456397318
 30
0.0
 10
139.3331019444981
 20
88.57005763189493
 30
0.0
 10
139.7276566859495
 20
88.57992798327228
 30
0.0
 10
140.0347805275768
 20
88.58425879330431
 30
0.0
 10
140.3499564374829
 20
88.58514676699755
 30
0.0
 10
140.6682250824229
 20
88.58239187153424
 30
0.0
 10
140.98513198494
 20
88.57599007213686
 30
0.0
 10
141.2970134331192
 20
88.5661559487944
 30
0.0
 10
141.6032655475513
 20
88.55311967420381
 30
0.0
 10
141.9035310856852
 20
88.5370839938167
 30
0.0
 10
142.1878920355647
 20
88.51890682919135
 30
0.0
 10
142.5417856538042
 20
88.49287453463437
 30
0.0
 10
142.8615803725226
 20
88.46493057146266
 30
0.0
 10
143.1309812444923
 20
88.43846735060538
 30
0.0
 10
143.3592714417816
 20
88.41460985164655
 30
0.0
 10
143.5378138611558
 20
88.3944404575421
 30
0.0
 10
143.6596788396416
 20
88.38008170269262
 30
0.0
 10
143.7396554185562
 20
88.37046352280021
 30
0.0
 10
143.7749072407368
 20
88.36612970884524
 30
0.0
 10
143.7678548695113
 20
88.36699223975894
 30
0.0
 10
143.7674862917693
 20
88.36703731817107
 30
0.0
  0
LINE
  5
AF
330
1F
100
AcDbEntity
  8
0
  6
Continuous
 62
     7
370
    15
100
AcDbLine
 10
137.9100633439
 20
133.2488561342
 30
0.0
 11
138.0322789427
 21
133.2390958737
 31
0.0
  0
SPLINE
  5
B0
330
1F
100
AcDbEntity
  8
0
  6
Continuous
 62
     7
370
    15
100
AcDbSpline
210
0.0
220
0.0
230
1.0
 70
     8
 71
     3
 72
    37
 73
    33
 74
     0
 42
0.00000001
 43
0.00000001
 40
0.0
 40
0.0
 40
0.0
 40
0.0
 40
0.0280518422228616
 40
0.0518977422139492
 40
0.0737667247535264
 40
0.1181981230730839
 40
0.1407965115506685
 40
0.1637112517325744
 40
0.2101976754703647
 40
0.2337979980909365
 40
0.2591079908095491
 40
0.3104446532007252
 40
0.3365050516551067
 40
0.3645270427154604
 40
0.4214113634987049
 40
0.4503236162810654
 40
0.4802658554638313
 40
0.5411265566951585
 40
0.5721141484967018
 40
0.6026318959856742
 40
0.6333679156238473
 40
0.6648085797794014
 40
0.6965023036147764
 40
0.7260910523835062
 40
0.7864391497355263
 40
0.8173218564037799
 40
0.8442610537472994
 40
0.8992899938866393
 40
0.9275029729502656
 40
0.9511890730518507
 40
0.9994973417561119
 40
1.0
 40
1.0
 40
1.0
 40
1.0
 10
143.7583518799575
 20
133.3656346718679
 30
0.0
 10
143.759812286639
 20
133.3658125652709
 30
0.0
 10
143.7625141344849
 20
133.3661416796977
 30
0.0
 10
143.7197752978374
 20
133.3609320790403
 30
0.0
 10
143.6478588287168
 20
133.3522929932931
 30
0.0
 10
143.538853915628
 20
133.339478758092
 30
0.0
 10
143.3958845199475
 20
133.3234416631936
 30
0.0
 10
143.2278434098565
 20
133.3052500529592
 30
0.0
 10
143.0265535556622
 20
133.2847632427313
 30
0.0
 10
142.7933082547054
 20
133.2630810425822
 30
0.0
 10
142.5302272084576
 20
133.2403037119654
 30
0.0
 10
142.2344760377193
 20
133.2178079340623
 30
0.0
 10
141.9109660745048
 20
133.1972849314283
 30
0.0
 10
141.5575911004991
 20
133.1780200911986
 30
0.0
 10
141.1775131722561
 20
133.1628374781489
 30
0.0
 10
140.781701634348
 20
133.1533269800536
 30
0.0
 10
140.367830260458
 20
133.1479074404232
 30
0.0
 10
139.9431702329321
 20
133.1496306169209
 30
0.0
 10
139.523248773931
 20
133.1585644851348
 30
0.0
 10
139.2118262713697
 20
133.1687055205586
 30
0.0
 10
138.9063883388491
 20
133.1820125395517
 30
0.0
 10
138.6071509812695
 20
133.1982812002755
 30
0.0
 10
138.3241549764932
 20
133.2166316885817
 30
0.0
 10
137.9725224887641
 20
133.2428000853383
 30
0.0
 10
137.6554684101115
 20
133.2707406154362
 30
0.0
 10
137.3892078317912
 20
133.2970624594634
 30
0.0
 10
137.1642499315469
 20
133.3206936755358
 30
0.0
 10
136.9892536557329
 20
133.3405303249016
 30
0.0
 10
136.8707226986607
 20
133.3545300216227
 30
0.0
 10
136.7941051371147
 20
133.3637622961853
 30
0.0
 10
136.7611053275567
 20
133.3677921490169
 30
0.0
 10
136.7688047022035
 20
133.3668753218599
 30
0.0
 10
136.768883990887
 20
133.3668658803115
 30
0.0
  0
SPLINE
  5
B1
330
1F
100
AcDbEntity
  8
0
  6
Continuous
 62
     7
370
    15
100
AcDbSpline
210
0.0
220
0.0
230
1.0
 70
     8
 71
     3
 72
     9
 73
     5
 74
     0
 42
0.00000001
 43
0.00000001
 40
0.0
 40
0.0
 40
0.0
 40
0.0
 40
0.3529455585401194
 40
1.0
 40
1.0
 40
1.0
 40
1.0
 10
137.6111385997565
 20
133.2756372461925
 30
0.0
 10
137.6441303066531
 20
133.2724964852372
 30
0.0
 10
137.7376056489495
 20
133.2635977730155
 30
0.0
 10
137.8423123851661
 20
133.2546474685158
 30
0.0
 10
137.9100633438857
 20
133.2488561342369
 30
0.0
  0
CIRCLE
  5
B2
330
1F
100
AcDbEntity
  8
0
  6
Continuous
 62
     7
370
    15
100
AcDbCircle
 10
140.2686433491
 20
110.8668947886
 30
0.0
 40
2.5
  0
SPLINE
  5
B3
330
1F
100
AcDbEntity
  8
0
  6
Continuous
 62
     7
370
    15
100
AcDbSpline
210
0.0
220
0.0
230
1.0
 70
     8
 71
     3
 72
     8
 73
     4
 74
     0
 42
0.00000001
 43
0.00000001
 40
0.0
 40
0.0
 40
0.0
 40
0.0
 40
1.0
 40
1.0
 40
1.0
 40
1.0
 10
92.9267105175656
 20
135.3255844509317
 30
0.0
 10
93.43379735932487
 20
134.194434096768
 30
0.0
 10
93.92936519846481
 20
133.0580496860002
 30
0.0
 10
94.40864334905466
 20
131.9170384561476
 30
0.0
  0
LINE
  5
B4
330
1F
100
AcDbEntity
  8
0
  6
Continuous
 62
     7
370
    15
100
AcDbLine
 10
94.4086433973
 20
131.9170387755
 30
0.0
 11
94.4086433973
 21
131.0027612666
 31
0.0
  0
SPLINE
  5
B5
330
1F
100
AcDbEntity
  8
0
  6
Continuous
 62
     7
370
    15
100
AcDbSpline
210
0.0
220
0.0
230
1.0
 70
     8
 71
     3
 72
     8
 73
     4
 74
     0
 42
0.00000001
 43
0.00000001
 40
0.0
 40
0.0
 40
0.0
 40
0.0
 40
1.0
 40
1.0
 40
1.0
 40
1.0
 10
94.40864334905466
 20
138.6721289797358
 30
0.0
 10
93.9159332522089
 20
139.5601479778623
 30
0.0
 10
93.42185054692992
 20
140.4474106135482
 30
0.0
 10
92.9267105175656
 20
141.3340902617285
 30
0.0
  0
LINE
  5
B6
330
1F
100
AcDbEntity
  8
0
  6
Continuous
 62
     7
370
    15
100
AcDbLine
 10
94.4086433973
 20
131.9170387755
 30
0.0
 11
94.4086433973
 21
138.6721281628
 31
0.0
  0
LINE
  5
B7
330
1F
100
AcDbEntity
  8
0
  6
Continuous
 62
     7
370
    15
100
AcDbLine
 10
103.6686440583
 20
141.3340902249
 30
0.0
 11
99.7105752703
 21
141.3340902249
 31
0.0
  0
LINE
  5
B8
330
1F
100
AcDbEntity
  8
0
  6
Continuous
 62
     7
370
    15
100
AcDbLine
 10
99.7105752703
 20
135.3255844037
 30
0.0
 11
103.6686440583
 21
135.3255844037
 31
0.0
  0
LINE
  5
B9
330
1F
100
AcDbEntity
  8
0
  6
Continuous
 62
     7
370
    15
100
AcDbLine
 10
99.7105752703
 20
135.3255844037
 30
0.0
 11
99.7105752703
 21
141.3340902249
 31
0.0
  0
SPLINE
  5
BA
330
1F
100
AcDbEntity
  8
0
  6
Continuous
 62
     7
370
    15
100
AcDbSpline
210
0.0
220
0.0
230
1.0
 70
     8
 71
     3
 72
     8
 73
     4
 74
     0
 42
0.00000001
 43
0.00000001
 40
0.0
 40
0.0
 40
0.0
 40
0.0
 40
1.0
 40
1.0
 40
1.0
 40
1.0
 10
99.71057618054371
 20
141.3340902617285
 30
0.0
 10
99.21543615117939
 20
140.4474106135482
 30
0.0
 10
98.7213534459004
 20
139.5601479778622
 30
0.0
 10
98.22864334905465
 20
138.6721289797358
 30
0.0
  0
SPLINE
  5
BB
330
1F
100
AcDbEntity
  8
0
  6
Continuous
 62
     7
370
    15
100
AcDbSpline
210
0.0
220
0.0
230
1.0
 70
     8
 71
     3
 72
     8
 73
     4
 74
     0
 42
0.00000001
 43
0.00000001
 40
0.0
 40
0.0
 40
0.0
 40
0.0
 40
1.0
 40
1.0
 40
1.0
 40
1.0
 10
98.22864334905465
 20
131.9170384561476
 30
0.0
 10
98.7079214996445
 20
133.0580496860002
 30
0.0
 10
99.20348933878442
 20
134.194434096768
 30
0.0
 10
99.71057618054371
 20
135.3255844509317
 30
0.0
  0
LINE
  5
BC
330
1F
100
AcDbEntity
  8
0
  6
Continuous
 62
     7
370
    15
100
AcDbLine
 10
98.2286436137
 20
131.9170387755
 30
0.0
 11
98.2286436137
 21
138.6721281628
 31
0.0
  0
SPLINE
  5
BD
330
1F
100
AcDbEntity
  8
0
  6
Continuous
 62
     7
370
    15
100
AcDbSpline
210
0.0
220
0.0
230
1.0
 70
     8
 71
     3
 72
    12
 73
     8
 74
     0
 42
0.00000001
 43
0.00000001
 40
0.0
 40
0.0
 40
0.0
 40
0.0
 40
0.25
 40
0.25
 40
0.5
 40
0.5
 40
1.0
 40
1.0
 40
1.0
 40
1.0
 10
103.6686433490546
 20
135.3255844509317
 30
0.0
 10
103.7598430708803
 20
135.3255844509317
 30
0.0
 10
103.8504380800163
 20
135.2973647523438
 30
0.0
 10
104.003850806463
 20
135.2029217450957
 30
0.0
 10
104.0690596737867
 20
135.1366347683904
 30
0.0
 10
104.2218442031266
 20
134.9110099451021
 30
0.0
 10
104.2686433490547
 20
134.7285836820695
 30
0.0
 10
104.2686433490547
 20
134.5478470498226
 30
0.0
  0
LINE
  5
BE
330
1F
100
AcDbEntity
  8
0
  6
Continuous
 62
     7
370
    15
100
AcDbLine
 10
98.2286436137
 20
131.0027612666
 30
0.0
 11
98.2286436137
 21
131.9170387755
 31
0.0
  0
LINE
  5
BF
330
1F
100
AcDbEntity
  8
0
  6
Continuous
 62
     7
370
    15
100
AcDbLine
 10
104.2686430391
 20
134.5478462349
 30
0.0
 11
104.2686430391
 21
130.7168955277
 31
0.0
  0
SPLINE
  5
C0
330
1F
100
AcDbEntity
  8
0
  6
Continuous
 62
     7
370
    15
100
AcDbSpline
210
0.0
220
0.0
230
1.0
 70
     8
 71
     3
 72
    10
 73
     6
 74
     0
 42
0.00000001
 43
0.00000001
 40
0.0
 40
0.0
 40
0.0
 40
0.0
 40
0.5
 40
0.5
 40
1.0
 40
1.0
 40
1.0
 40
1.0
 10
104.2686433490546
 20
140.7133351123281
 30
0.0
 10
104.2686433490546
 20
140.873740378679
 30
0.0
 10
104.2064055179478
 20
141.0328021916675
 30
0.0
 10
103.9872705942052
 20
141.2637146572979
 30
0.0
 10
103.8296818992134
 20
141.3340902617285
 30
0.0
 10
103.6686433490546
 20
141.3340902617285
 30
0.0
  0
LINE
  5
C1
330
1F
100
AcDbEntity
  8
0
  6
Continuous
 62
     7
370
    15
100
AcDbLine
 10
104.2686430391
 20
134.5478462349
 30
0.0
 11
104.2686430391
 21
140.7133357893
 31
0.0
  0
ARC
  5
C2
330
1F
100
AcDbEntity
  8
0
  6
Continuous
 62
     7
370
    15
100
AcDbCircle
 10
86.3185062441
 20
129.6251798961
 30
0.0
 40
7.19970813395452
100
AcDbArc
 50
70.7542707965
 51
109.2007985693
  0
LINE
  5
C3
330
1F
100
AcDbEntity
  8
0
  6
Continuous
 62
     7
370
    15
100
AcDbLine
 10
223.2153741297
 20
117.6487378138
 30
0.0
 11
234.9411425766
 21
117.6487378138
 31
0.0
  0
LINE
  5
C4
330
1F
100
AcDbEntity
  8
0
  6
Continuous
 62
     7
370
    15
100
AcDbLine
 10
234.9411425766
 20
98.8209702368
 30
0.0
 11
234.9411425766
 21
117.6487378138
 31
0.0
  0
LINE
  5
C5
330
1F
100
AcDbEntity
  8
0
  6
Continuous
 62
     7
370
    15
100
AcDbLine
 10
223.2153741297
 20
98.8209702368
 30
0.0
 11
234.9411425766
 21
98.8209702368
 31
0.0
  0
SPLINE
  5
C6
330
1F
100
AcDbEntity
  8
0
  6
Continuous
 62
     7
370
    15
100
AcDbSpline
210
0.0
220
0.0
230
1.0
 70
     8
 71
     3
 72
    17
 73
    13
 74
     0
 42
0.00000001
 43
0.00000001
 40
0.0
 40
0.0
 40
0.0
 40
0.0
 40
0.083815845389642
 40
0.2002644905382571
 40
0.3144085093223047
 40
0.4226825371819573
 40
0.5326536934261351
 40
0.6305354172477439
 40
0.7286824595229519
 40
0.8323799744359784
 40
0.9426001613351456
 40
0.9999999999999999
 40
0.9999999999999999
 40
0.9999999999999999
 40
0.9999999999999999
 10
223.2153741296561
 20
98.82097023677926
 30
0.0
 10
222.9184455618949
 20
98.80238588376373
 30
0.0
 10
222.2089824756189
 20
98.7579815593626
 30
0.0
 10
221.1689550323953
 20
98.34686689040349
 30
0.0
 10
220.2816201985381
 20
97.62912222925688
 30
0.0
 10
219.7555827029363
 20
96.7253187986072
 30
0.0
 10
219.6667868849341
 20
95.80073890841804
 30
0.0
 10
219.9767160612874
 20
94.97470806116117
 30
0.0
 10
220.5956233252487
 20
94.30697245537958
 30
0.0
 10
221.4929227535493
 20
93.81550310146524
 30
0.0
 10
222.4193085166719
 20
93.58245220126916
 30
0.0
 10
223.0123074452613
 20
93.56127947674119
 30
0.0
 10
223.2153741296561
 20
93.55402908426623
 30
0.0
  0
LINE
  5
C7
330
1F
100
AcDbEntity
  8
0
  6
Continuous
 62
     7
370
    15
100
AcDbLine
 10
223.2153741297
 20
93.5540290843
 30
0.0
 11
234.9411425766
 21
93.5540290843
 31
0.0
  0
LINE
  5
C8
330
1F
100
AcDbEntity
  8
0
  6
Continuous
 62
     7
370
    15
100
AcDbLine
 10
234.9411425766
 20
86.0207116525
 30
0.0
 11
234.9411425766
 21
93.5540290843
 31
0.0
  0
LINE
  5
C9
330
1F
100
AcDbEntity
  8
0
  6
Continuous
 62
     7
370
    15
100
AcDbLine
 10
223.2153741297
 20
86.0207116525
 30
0.0
 11
234.9411425766
 21
86.0207116525
 31
0.0
  0
SPLINE
  5
CA
330
1F
100
AcDbEntity
  8
0
  6
Continuous
 62
     7
370
    15
100
AcDbSpline
210
0.0
220
0.0
230
1.0
 70
     8
 71
     3
 72
    11
 73
     7
 74
     0
 42
0.00000001
 43
0.00000001
 40
0.0
 40
0.0
 40
0.0
 40
0.0
 40
0.0111988480517875
 40
0.3326875411392726
 40
0.6627684984979596
 40
1.0
 40
1.0
 40
1.0
 40
1.0
 10
221.4856920417579
 20
86.01695842248301
 30
0.0
 10
221.4913513213557
 20
86.01693732875057
 30
0.0
 10
221.6594732393692
 20
86.01631069090831
 30
0.0
 10
222.0372739062198
 20
86.01825141508769
 30
0.0
 10
222.6109245273807
 20
86.0201057623456
 30
0.0
 10
223.0124567313134
 20
86.02050825147215
 30
0.0
 10
223.2153741296561
 20
86.02071165245871
 30
0.0
  0
LINE
  5
CB
330
1F
100
AcDbEntity
  8
0
  6
Continuous
 62
     7
370
    15
100
AcDbLine
 10
223.2153741297
 20
135.7130779247
 30
0.0
 11
234.9411425766
 21
135.7130779247
 31
0.0
  0
SPLINE
  5
CC
330
1F
100
AcDbEntity
  8
0
  6
Continuous
 62
     7
370
    15
100
AcDbSpline
210
0.0
220
0.0
230
1.0
 70
     8
 71
     3
 72
    25
 73
    21
 74
     0
 42
0.00000001
 43
0.00000001
 40
0.0
 40
0.0
 40
0.0
 40
0.0
 40
0.0835493531949674
 40
0.1409409485385031
 40
0.2000594940259595
 40
0.2562751934142337
 40
0.3142936738348607
 40
0.3675955793592992
 40
0.4226685414208227
 40
0.476778035432583
 40
0.5329365960584243
 40
0.5811952412912607
 40
0.6308521426114161
 40
0.6792960657459276
 40
0.7290035288587827
 40
0.7801949494546545
 40
0.8327051437156648
 40
0.8870976821963709
 40
0.9429439423010612
 40
1.0
 40
1.0
 40
1.0
 40
1.0
 10
223.2153741296561
 20
134.9616049150835
 30
0.0
 10
222.9181774783395
 20
134.9666258596347
 30
0.0
 10
222.416830952756
 20
134.9750957838237
 30
0.0
 10
221.7417026406182
 20
135.0315257751825
 30
0.0
 10
221.2005421806765
 20
135.0983865762361
 30
0.0
 10
220.7170390768623
 20
135.1813308483468
 30
0.0
 10
220.3224034518747
 20
135.2705007982777
 30
0.0
 10
220.0165200633647
 20
135.3617176329745
 30
0.0
 10
219.8115634793778
 20
135.4477825884748
 30
0.0
 10
219.7092035842627
 20
135.526850451163
 30
0.0
 10
219.7189776544701
 20
135.5904844434968
 30
0.0
 10
219.827257200181
 20
135.6389661316262
 30
0.0
 10
220.0137974557171
 20
135.6729702819865
 30
0.0
 10
220.2795951112914
 20
135.6960328078308
 30
0.0
 10
220.6173310928876
 20
135.7097351500754
 30
0.0
 10
221.0264274659339
 20
135.7161177874589
 30
0.0
 10
221.501502947203
 20
135.7173517940138
 30
0.0
 10
222.0337749334318
 20
135.7158175302251
 30
0.0
 10
222.6118312253568
 20
135.7136114213742
 30
0.0
 10
223.0127611153245
 20
135.7132570227499
 30
0.0
 10
223.2153741296562
 20
135.7130779246698
 30
0.0
  0
LINE
  5
CD
330
1F
100
AcDbEntity
  8
0
  6
Continuous
 62
     7
370
    15
100
AcDbLine
 10
223.2153741297
 20
134.9616049151
 30
0.0
 11
234.9411425766
 21
134.9616049151
 31
0.0
  0
LINE
  5
CE
330
1F
100
AcDbEntity
  8
0
  6
Continuous
 62
     7
370
    15
100
AcDbLine
 10
234.9411425766
 20
123.6671533729
 30
0.0
 11
234.9411425766
 21
134.9616049151
 31
0.0
  0
LINE
  5
CF
330
1F
100
AcDbEntity
  8
0
  6
Continuous
 62
     7
370
    15
100
AcDbLine
 10
223.2153741297
 20
123.6671533729
 30
0.0
 11
234.9411425766
 21
123.6671533729
 31
0.0
  0
SPLINE
  5
D0
330
1F
100
AcDbEntity
  8
0
  6
Continuous
 62
     7
370
    15
100
AcDbSpline
210
0.0
220
0.0
230
1.0
 70
     8
 71
     3
 72
    18
 73
    14
 74
     0
 42
0.00000001
 43
0.00000001
 40
0.0
 40
0.0
 40
0.0
 40
0.0
 40
0.0838016655932103
 40
0.2002306191101714
 40
0.3143553422780882
 40
0.422611048634605
 40
0.5235779351705949
 40
0.5374369287987563
 40
0.6352755911435671
 40
0.7336010184316789
 40
0.8375991339881514
 40
0.9480868265119079
 40
1.0
 40
1.0
 40
1.0
 40
1.0
 10
223.2153741296561
 20
117.6487378138016
 30
0.0
 10
222.9184455249815
 20
117.6691706096687
 30
0.0
 10
222.2089823189143
 20
117.7179914933308
 30
0.0
 10
221.1689556537988
 20
118.1709088156817
 30
0.0
 10
220.2816179462752
 20
118.9680829037295
 30
0.0
 10
219.7698137223302
 20
119.9554516488694
 30
0.0
 10
219.6951570015647
 20
120.6971538087779
 30
0.0
 10
219.7751906159476
 20
121.3791894531559
 30
0.0
 10
219.9993962247296
 20
122.0331181118694
 30
0.0
 10
220.6328884936247
 20
122.8060028498982
 30
0.0
 10
221.5426152115506
 20
123.3774587046309
 30
0.0
 10
222.4572160846362
 20
123.6377149446268
 30
0.0
 10
223.0317259178342
 20
123.660022518383
 30
0.0
 10
223.2153741296561
 20
123.6671533728848
 30
0.0
  0
LINE
  5
D1
330
1F
100
AcDbEntity
  8
0
  6
Continuous
 62
     7
370
    15
100
AcDbLine
 10
216.318639892
 20
86.0168950925
 30
0.0
 11
216.318639892
 21
135.7168944846
 31
0.0
  0
LINE
  5
D2
330
1F
100
AcDbEntity
  8
0
  6
Continuous
 62
     7
370
    15
100
AcDbLine
 10
215.8186463293
 20
86.5168942432
 30
0.0
 11
215.8186463293
 21
135.2168953339
 31
0.0
  0
LINE
  5
D3
330
1F
100
AcDbEntity
  8
0
  6
Continuous
 62
     7
370
    15
100
AcDbLine
 10
234.9411425766
 20
134.9616049151
 30
0.0
 11
235.1880250152
 21
134.625306196
 31
0.0
  0
LINE
  5
D4
330
1F
100
AcDbEntity
  8
0
  6
Continuous
 62
     7
370
    15
100
AcDbLine
 10
235.1880250152
 20
134.625306196
 30
0.0
 11
236.3292900499
 21
132.7275427352
 31
0.0
  0
LINE
  5
D5
330
1F
100
AcDbEntity
  8
0
  6
Continuous
 62
     7
370
    15
100
AcDbLine
 10
236.3292900499
 20
132.7275427352
 30
0.0
 11
236.5201739248
 21
132.4638909022
 31
0.0
  0
SPLINE
  5
D6
330
1F
100
AcDbEntity
  8
0
  6
Continuous
 62
     7
370
    15
100
AcDbSpline
210
0.0
220
0.0
230
1.0
 70
     8
 71
     3
 72
     9
 73
     5
 74
     0
 42
0.00000001
 43
0.00000001
 40
0.0
 40
0.0
 40
0.0
 40
0.0
 40
0.5000511979393082
 40
0.9999999999999999
 40
0.9999999999999999
 40
0.9999999999999999
 40
0.9999999999999999
 10
236.5201739248069
 20
132.4638909022222
 30
0.0
 10
236.5533834296157
 20
132.549941323824
 30
0.0
 10
236.6197956388968
 20
132.722024546415
 30
0.0
 10
236.5533788959033
 20
132.8941084768888
 30
0.0
 10
236.5201739248069
 20
132.9801416317831
 30
0.0
  0
LINE
  5
D7
330
1F
100
AcDbEntity
  8
0
  6
Continuous
 62
     7
370
    15
100
AcDbLine
 10
236.3292900499
 20
133.3125381092
 30
0.0
 11
236.5201739248
 21
132.9801416318
 31
0.0
  0
LINE
  5
D8
330
1F
100
AcDbEntity
  8
0
  6
Continuous
 62
     7
370
    15
100
AcDbLine
 10
235.1880250152
 20
135.2890914599
 30
0.0
 11
236.3292900499
 21
133.3125381092
 31
0.0
  0
LINE
  5
D9
330
1F
100
AcDbEntity
  8
0
  6
Continuous
 62
     7
370
    15
100
AcDbLine
 10
234.9411425766
 20
135.7130779247
 30
0.0
 11
235.1880250152
 21
135.2890914599
 31
0.0
  0
LINE
  5
DA
330
1F
100
AcDbEntity
  8
0
  6
Continuous
 62
     7
370
    15
100
AcDbLine
 10
235.1880250152
 20
86.4446981172
 30
0.0
 11
236.1463782963
 21
88.1044695447
 31
0.0
  0
LINE
  5
DB
330
1F
100
AcDbEntity
  8
0
  6
Continuous
 62
     7
370
    15
100
AcDbLine
 10
234.9411425766
 20
86.0207116525
 30
0.0
 11
235.1880250152
 21
86.4446981172
 31
0.0
  0
LINE
  5
DC
330
1F
100
AcDbEntity
  8
0
  6
Continuous
 62
     7
370
    15
100
AcDbLine
 10
234.9411425766
 20
93.5540290843
 30
0.0
 11
235.1880250152
 21
94.0893607507
 31
0.0
  0
LINE
  5
DD
330
1F
100
AcDbEntity
  8
0
  6
Continuous
 62
     7
370
    15
100
AcDbLine
 10
235.1880250152
 20
94.0893607507
 30
0.0
 11
236.3292900499
 21
95.5275416667
 31
0.0
  0
LINE
  5
DE
330
1F
100
AcDbEntity
  8
0
  6
Continuous
 62
     7
370
    15
100
AcDbLine
 10
236.3292900499
 20
95.5275416667
 30
0.0
 11
236.5201739248
 21
95.9472319404
 31
0.0
  0
SPLINE
  5
DF
330
1F
100
AcDbEntity
  8
0
  6
Continuous
 62
     7
370
    15
100
AcDbSpline
210
0.0
220
0.0
230
1.0
 70
     8
 71
     3
 72
    10
 73
     6
 74
     0
 42
0.00000001
 43
0.00000001
 40
0.0
 40
0.0
 40
0.0
 40
0.0
 40
0.1217600661712454
 40
0.5602913035277786
 40
1.0
 40
1.0
 40
1.0
 40
1.0
 10
236.5201739248069
 20
99.56554307741027
 30
0.0
 10
236.5300605387705
 20
99.4188356541782
 30
0.0
 10
236.5755547964472
 20
98.74374655489754
 30
0.0
 10
236.6069482605706
 20
97.53634713377583
 30
0.0
 10
236.5491245448756
 20
96.47741024492709
 30
0.0
 10
236.5201739248069
 20
95.94723194044929
 30
0.0
  0
LINE
  5
E0
330
1F
100
AcDbEntity
  8
0
  6
Continuous
 62
     7
370
    15
100
AcDbLine
 10
236.3292900499
 20
99.627673469
 30
0.0
 11
236.5201739248
 21
99.5655430774
 31
0.0
  0
LINE
  5
E1
330
1F
100
AcDbEntity
  8
0
  6
Continuous
 62
     7
370
    15
100
AcDbLine
 10
235.1880250152
 20
98.7417193423
 30
0.0
 11
236.3292900499
 21
99.627673469
 31
0.0
  0
LINE
  5
E2
330
1F
100
AcDbEntity
  8
0
  6
Continuous
 62
     7
370
    15
100
AcDbLine
 10
234.9411425766
 20
98.8209702368
 30
0.0
 11
235.1880250152
 21
98.7417193423
 31
0.0
  0
LINE
  5
E3
330
1F
100
AcDbEntity
  8
0
  6
Continuous
 62
     7
370
    15
100
AcDbLine
 10
234.9411425766
 20
117.6487378138
 30
0.0
 11
235.1880250152
 21
117.8477707612
 31
0.0
  0
LINE
  5
E4
330
1F
100
AcDbEntity
  8
0
  6
Continuous
 62
     7
370
    15
100
AcDbLine
 10
235.1880250152
 20
117.8477707612
 30
0.0
 11
236.3292900499
 21
117.3881891477
 31
0.0
  0
LINE
  5
E5
330
1F
100
AcDbEntity
  8
0
  6
Continuous
 62
     7
370
    15
100
AcDbLine
 10
236.3292900499
 20
117.3881891477
 30
0.0
 11
236.5201739248
 21
117.5442271228
 31
0.0
  0
SPLINE
  5
E6
330
1F
100
AcDbEntity
  8
0
  6
Continuous
 62
     7
370
    15
100
AcDbSpline
210
0.0
220
0.0
230
1.0
 70
     8
 71
     3
 72
     9
 73
     5
 74
     0
 42
0.00000001
 43
0.00000001
 40
0.0
 40
0.0
 40
0.0
 40
0.0
 40
0.5000511556972611
 40
1.0
 40
1.0
 40
1.0
 40
1.0
 10
236.5201739248069
 20
117.5442271227847
 30
0.0
 10
236.553383427745
 20
118.2333916093071
 30
0.0
 10
236.6197956388953
 20
119.6115795780189
 30
0.0
 10
236.5533788977732
 20
120.9897668078448
 30
0.0
 10
236.5201739248069
 20
121.6787899206291
 30
0.0
  0
LINE
  5
E7
330
1F
100
AcDbEntity
  8
0
  6
Continuous
 62
     7
370
    15
100
AcDbLine
 10
236.3292900499
 20
122.073317721
 30
0.0
 11
236.5201739248
 21
121.6787899206
 31
0.0
  0
LINE
  5
E8
330
1F
100
AcDbEntity
  8
0
  6
Continuous
 62
     7
370
    15
100
AcDbLine
 10
235.1880250152
 20
123.163916945
 30
0.0
 11
236.3292900499
 21
122.073317721
 31
0.0
  0
LINE
  5
E9
330
1F
100
AcDbEntity
  8
0
  6
Continuous
 62
     7
370
    15
100
AcDbLine
 10
234.9411425766
 20
123.6671533729
 30
0.0
 11
235.1880250152
 21
123.163916945
 31
0.0
  0
LINE
  5
EA
330
1F
100
AcDbEntity
  8
0
  6
Continuous
 62
     7
370
    15
100
AcDbLine
 10
238.3186397728
 20
91.8668953995
 30
0.0
 11
238.3186397728
 21
129.8668941776
 31
0.0
  0
ARC
  5
EB
330
1F
100
AcDbEntity
  8
0
  6
Continuous
 62
     7
370
    15
100
AcDbCircle
 10
223.0409930692
 20
120.5058438531
 30
0.0
 40
2.663787025273267
100
AcDbArc
 50
86.2465284397
 51
273.7534715603
  0
ARC
  5
EC
330
1F
100
AcDbEntity
  8
0
  6
Continuous
 62
     7
370
    15
100
AcDbCircle
 10
223.0777298907
 20
119.6839541823
 30
0.0
 40
2.393324895729696
100
AcDbArc
 50
86.7030017569
 51
194.1095265925
  0
LINE
  5
ED
330
1F
100
AcDbEntity
  8
0
  6
Continuous
 62
     7
370
    15
100
AcDbLine
 10
223.2153741297
 20
117.8477707612
 30
0.0
 11
235.1880250152
 21
117.8477707612
 31
0.0
  0
ARC
  5
EE
330
1F
100
AcDbEntity
  8
0
  6
Continuous
 62
     7
370
    15
100
AcDbCircle
 10
223.0821963013
 20
119.6015118389
 30
0.0
 40
2.081542832323813
100
AcDbArc
 50
86.3316906613
 51
212.0179757788
  0
LINE
  5
EF
330
1F
100
AcDbEntity
  8
0
  6
Continuous
 62
     7
370
    15
100
AcDbLine
 10
235.9418002542
 20
117.5442271228
 30
0.0
 11
236.5201739248
 21
117.5442271228
 31
0.0
  0
LINE
  5
F0
330
1F
100
AcDbEntity
  8
0
  6
Continuous
 62
     7
370
    15
100
AcDbLine
 10
223.2153741297
 20
121.6787899206
 30
0.0
 11
236.5201739248
 21
121.6787899206
 31
0.0
  0
LWPOLYLINE
  5
F1
330
1F
100
AcDbEntity
  8
0
  6
Continuous
 62
     7
370
    15
100
AcDbPolyline
 90
       12
 70
   128
 43
0.0
 10
223.2153741297
 20
98.7417193423
 10
222.3992673334
 20
98.6474927808
 10
221.6492918905
 20
98.3724462162
 10
221.0261700329
 20
97.9388634036
 10
220.5804166969
 20
97.3818701054
 10
220.3481224951
 20
96.7465898315
 10
220.3481224951
 20
96.0844902615
 10
220.5804166969
 20
95.4492099876
 10
221.0261700329
 20
94.8922166894
 10
221.6492918905
 20
94.4586338769
 10
222.3992673334
 20
94.1835863809
 10
223.2153741297
 20
94.0893607507
  0
LINE
  5
F2
330
1F
100
AcDbEntity
  8
0
  6
Continuous
 62
     7
370
    15
100
AcDbLine
 10
223.2153741297
 20
98.7417193423
 30
0.0
 11
235.1880250152
 21
98.7417193423
 31
0.0
  0
LINE
  5
F3
330
1F
100
AcDbEntity
  8
0
  6
Continuous
 62
     7
370
    15
100
AcDbLine
 10
223.2153741297
 20
123.163916945
 30
0.0
 11
235.1880250152
 21
123.163916945
 31
0.0
  0
ARC
  5
F4
330
1F
100
AcDbEntity
  8
0
  6
Continuous
 62
     7
370
    15
100
AcDbCircle
 10
223.009633716
 20
97.8949785125
 30
0.0
 40
2.376359892055504
100
AcDbArc
 50
189.1648249705
 51
274.9667704071
  0
LINE
  5
F5
330
1F
100
AcDbEntity
  8
0
  6
Continuous
 62
     7
370
    15
100
AcDbLine
 10
223.2153741297
 20
122.073317721
 30
0.0
 11
236.3292900499
 21
122.073317721
 31
0.0
  0
ARC
  5
F6
330
1F
100
AcDbEntity
  8
0
  6
Continuous
 62
     7
370
    15
100
AcDbCircle
 10
222.9670897028
 20
97.9314019799
 30
0.0
 40
1.999643943814659
100
AcDbArc
 50
181.3799533978
 51
277.1324987827
  0
LINE
  5
F7
330
1F
100
AcDbEntity
  8
0
  6
Continuous
 62
     7
370
    15
100
AcDbLine
 10
236.2492559131
 20
99.5655430774
 30
0.0
 11
236.5201739248
 21
99.5655430774
 31
0.0
  0
LINE
  5
F8
330
1F
100
AcDbEntity
  8
0
  6
Continuous
 62
     7
370
    15
100
AcDbLine
 10
223.2153741297
 20
95.9472319404
 30
0.0
 11
236.5201739248
 21
95.9472319404
 31
0.0
  0
LINE
  5
F9
330
1F
100
AcDbEntity
  8
0
  6
Continuous
 62
     7
370
    15
100
AcDbLine
 10
223.2153741297
 20
94.0893607507
 30
0.0
 11
235.1880250152
 21
94.0893607507
 31
0.0
  0
LINE
  5
FA
330
1F
100
AcDbEntity
  8
0
  6
Continuous
 62
     7
370
    15
100
AcDbLine
 10
223.2153741297
 20
95.5275416667
 30
0.0
 11
236.3292900499
 21
95.5275416667
 31
0.0
  0
ARC
  5
FB
330
1F
100
AcDbEntity
  8
0
  6
Continuous
 62
     7
370
    15
100
AcDbCircle
 10
222.9569751296
 20
119.5574118613
 30
0.0
 40
15.73380160794341
100
AcDbArc
 50
89.0589789976
 51
97.591108646
  0
LINE
  5
FC
330
1F
100
AcDbEntity
  8
0
  6
Continuous
 62
     7
370
    15
100
AcDbLine
 10
236.1773876127
 20
132.9801416318
 30
0.0
 11
236.5201739248
 21
132.9801416318
 31
0.0
  0
LINE
  5
FD
330
1F
100
AcDbEntity
  8
0
  6
Continuous
 62
     7
370
    15
100
AcDbLine
 10
235.9774885353
 20
133.3125381092
 30
0.0
 11
236.3292900499
 21
133.3125381092
 31
0.0
  0
LINE
  5
FE
330
1F
100
AcDbEntity
  8
0
  6
Continuous
 62
     7
370
    15
100
AcDbLine
 10
223.2153741297
 20
135.2890914599
 30
0.0
 11
235.1880250152
 21
135.2890914599
 31
0.0
  0
LINE
  5
FF
330
1F
100
AcDbEntity
  8
0
  6
HIDDEN
 62
     7
370
     0
100
AcDbLine
 10
92.9267108094
 20
135.3255844037
 30
0.0
 11
92.9267108094
 21
130.7168955277
 31
0.0
  0
ARC
  5
100
330
1F
100
AcDbEntity
  8
0
  6
HIDDEN
 62
     7
370
     0
100
AcDbCircle
 10
86.6094685971
 20
123.3547932962
 30
0.0
 40
3.669526223368466
100
AcDbArc
 50
265.4543093601
 51
12.6019773828
  0
ARC
  5
101
330
1F
100
AcDbEntity
  8
0
  6
HIDDEN
 62
     7
370
     0
100
AcDbCircle
 10
86.0246682046
 20
123.3474062624
 30
0.0
 40
3.662414023744736
100
AcDbArc
 50
165.864845482
 51
274.6039842873
  0
LINE
  5
102
330
1F
100
AcDbEntity
  8
0
  6
HIDDEN
 62
     7
370
     0
100
AcDbLine
 10
66.3137938481
 20
87.3422956387
 30
0.0
 11
65.7796477553
 21
87.2876810203
 31
0.0
  0
LINE
  5
103
330
1F
100
AcDbEntity
  8
0
  6
HIDDEN
 62
     7
370
     0
100
AcDbLine
 10
65.5419947233
 20
134.4702279488
 30
0.0
 11
66.3137007158
 21
134.3914771746
 31
0.0
  0
LINE
  5
104
330
1F
100
AcDbEntity
  8
0
  6
HIDDEN
 62
     7
370
     0
100
AcDbLine
 10
224.5686379846
 20
110.8668947886
 30
0.0
 11
224.5686379846
 21
90.8668952356
 31
0.0
  0
LINE
  5
105
330
1F
100
AcDbEntity
  8
0
  6
HIDDEN
 62
     7
370
     0
100
AcDbLine
 10
224.5686379846
 20
130.8668943415
 30
0.0
 11
224.5686379846
 21
110.8668947886
 31
0.0
  0
LINE
  5
106
330
1F
100
AcDbEntity
  8
0
  6
HIDDEN
 62
     7
370
     0
100
AcDbLine
 10
225.3186432298
 20
110.8668947886
 30
0.0
 11
225.3186432298
 21
91.6168948929
 31
0.0
  0
LINE
  5
107
330
1F
100
AcDbEntity
  8
0
  6
HIDDEN
 62
     7
370
     0
100
AcDbLine
 10
225.3186432298
 20
130.1168946843
 30
0.0
 11
225.3186432298
 21
110.8668947886
 31
0.0
  0
SPLINE
  5
108
330
1F
100
AcDbEntity
  8
0
  6
HIDDEN
 62
     7
370
     0
100
AcDbSpline
210
0.0
220
0.0
230
1.0
 70
     8
 71
     3
 72
    15
 73
    11
 74
     0
 42
0.00000001
 43
0.00000001
 40
0.0
 40
0.0
 40
0.0
 40
0.0
 40
0.1100703677478277
 40
0.2209149183566728
 40
0.3341874022386493
 40
0.4482944612981735
 40
0.5583878721506211
 40
0.782281465744046
 40
0.8963423632222638
 40
1.0
 40
1.0
 40
1.0
 40
1.0
 10
72.07364538947066
 20
130.7044232557426
 30
0.0
 10
72.14123944583837
 20
130.7134912061432
 30
0.0
 10
72.27690298316821
 20
130.7316908866148
 30
0.0
 10
72.45734834108517
 20
130.7524126788706
 30
0.0
 10
72.61949662395669
 20
130.7691524045385
 30
0.0
 10
72.75754792203894
 20
130.7817330447626
 30
0.0
 10
72.90918887593007
 20
130.7941158411117
 30
0.0
 10
73.01063479443958
 20
130.8010704088232
 30
0.0
 10
73.06204968975725
 20
130.8043686475763
 30
0.0
 10
73.06600465780583
 20
130.8046137344054
 30
0.0
 10
73.06788765156587
 20
130.804730422319
 30
0.0
  0
SPLINE
  5
109
330
1F
100
AcDbEntity
  8
0
  6
HIDDEN
 62
     7
370
     0
100
AcDbSpline
210
0.0
220
0.0
230
1.0
 70
     8
 71
     3
 72
    13
 73
     9
 74
     0
 42
0.00000001
 43
0.00000001
 40
0.0
 40
0.0
 40
0.0
 40
0.0
 40
0.1180794491784117
 40
0.3464385546901457
 40
0.5686688424437054
 40
0.7973962760471255
 40
0.8984002448913424
 40
1.0
 40
1.0
 40
1.0
 40
1.0
 10
73.05583866575678
 20
90.9298228393207
 30
0.0
 10
73.05797004456099
 20
90.9296859137738
 30
0.0
 10
73.06422339175701
 20
90.92928418181361
 30
0.0
 10
72.95922919832856
 20
90.93600808743501
 30
0.0
 10
72.75061332382374
 20
90.9519932516023
 30
0.0
 10
72.49684120314056
 20
90.97660785220779
 30
0.0
 10
72.26076313850322
 20
91.00419587623739
 30
0.0
 10
72.13614012995437
 20
91.02095974079401
 30
0.0
 10
72.07364538947066
 20
91.02936632138591
 30
0.0
  0
SPLINE
  5
10A
330
1F
100
AcDbEntity
  8
0
  6
HIDDEN
 62
     7
370
     0
100
AcDbSpline
210
0.0
220
0.0
230
1.0
 70
     8
 71
     3
 72
    32
 73
    28
 74
     0
 42
0.00000001
 43
0.00000001
 40
0.0
 40
0.0
 40
0.0
 40
0.0
 40
0.0346246398690349
 40
0.0694870586071574
 40
0.1051007942635744
 40
0.1409754003922404
 40
0.1756005999802061
 40
0.2104692913927726
 40
0.2461123024905376
 40
0.2820258489382428
 40
0.3162664415223801
 40
0.3859338983833381
 40
0.4214462221160897
 40
0.4553763288093113
 40
0.5243713480224321
 40
0.5595125206652528
 40
0.593798732937926
 40
0.6635059792189233
 40
0.6990055738234109
 40
0.7337623606872737
 40
0.7687606796896899
 40
0.8045245796794579
 40
0.8405553862630515
 40
0.8751701097005637
 40
0.9456085120736846
 40
0.9815233260152604
 40
1.0
 40
1.0
 40
1.0
 40
1.0
 10
72.07364538947066
 20
91.02936632138591
 30
0.0
 10
72.00164709381625
 20
91.03915482121721
 30
0.0
 10
71.85715606636651
 20
91.05879904175
 30
0.0
 10
71.6158357454484
 20
91.08824493396247
 30
0.0
 10
71.3565377899709
 20
91.11679809226887
 30
0.0
 10
71.08255017131857
 20
91.14322688932329
 30
0.0
 10
70.79792235535805
 20
91.16668031173258
 30
0.0
 10
70.50333750528826
 20
91.18667916315574
 30
0.0
 10
70.19640654968697
 20
91.20283477659858
 30
0.0
 10
69.88467501586578
 20
91.21427630953077
 30
0.0
 10
69.4674093966404
 20
91.22296721844761
 30
0.0
 10
69.04676641003122
 20
91.22167931282951
 30
0.0
 10
68.63336311896026
 20
91.2104506360197
 30
0.0
 10
68.2285193154987
 20
91.19315180729143
 30
0.0
 10
67.8378811833675
 20
91.16743767946146
 30
0.0
 10
67.46909974554234
 20
91.13534307515178
 30
0.0
 10
67.11568255209816
 20
91.09978448015322
 30
0.0
 10
66.79024122517838
 20
91.06053690337141
 30
0.0
 10
66.50086359507709
 20
91.02090630028312
 30
0.0
 10
66.30295050189164
 20
90.99176865673742
 30
0.0
 10
66.12562292469453
 20
90.96403543473832
 30
0.0
 10
65.96901417285413
 20
90.93825679082042
 30
0.0
 10
65.83736626721986
 20
90.9156465304859
 30
0.0
 10
65.69550556009601
 20
90.89046466645695
 30
0.0
 10
65.60668646193102
 20
90.87401592150684
 30
0.0
 10
65.56986372808629
 20
90.86712473987676
 30
0.0
 10
65.57127971601199
 20
90.86738860806317
 30
0.0
 10
65.57176072413047
 20
90.8674782435308
 30
0.0
  0
SPLINE
  5
10B
330
1F
100
AcDbEntity
  8
0
  6
HIDDEN
 62
     7
370
     0
100
AcDbSpline
210
0.0
220
0.0
230
1.0
 70
     8
 71
     3
 72
    30
 73
    26
 74
     0
 42
0.00000001
 43
0.00000001
 40
0.0
 40
0.0
 40
0.0
 40
0.0
 40
0.0156161599134492
 40
0.0849748354430979
 40
0.1203204707274447
 40
0.1543185374002934
 40
0.2234436738941646
 40
0.2586467327159568
 40
0.2931107352539268
 40
0.3631864008633959
 40
0.3988795402369778
 40
0.4336750588357229
 40
0.4687146119081173
 40
0.5045294366644589
 40
0.5406150942464
 40
0.5750767691290661
 40
0.6452033550959662
 40
0.6809575540931957
 40
0.7149323054552074
 40
0.7840330493487319
 40
0.8192378352640541
 40
0.8533346902847149
 40
0.9226550316361518
 40
0.9579547206872956
 40
1.0
 40
1.0
 40
1.0
 40
1.0
 10
65.57176072413047
 20
130.8663113335977
 30
0.0
 10
65.57116290495394
 20
130.8664231694167
 30
0.0
 10
65.56790989099709
 20
130.8670317204538
 30
0.0
 10
65.61823080978023
 20
130.8575754408843
 30
0.0
 10
65.71853675707148
 20
130.8392699230916
 30
0.0
 10
65.8531538979823
 20
130.8152864627107
 30
0.0
 10
66.03521124079626
 20
130.7841868298526
 30
0.0
 10
66.26213503244779
 20
130.7482680300888
 30
0.0
 10
66.51872080639178
 20
130.7099478380925
 30
0.0
 10
66.81675749093112
 20
130.669705708377
 30
0.0
 10
67.14930714515346
 20
130.6310430539554
 30
0.0
 10
67.41450455303857
 20
130.6036403103096
 30
0.0
 10
67.6935627293498
 20
130.5785942983437
 30
0.0
 10
67.9880136789613
 20
130.5564293384621
 30
0.0
 10
68.29087838341276
 20
130.5382653101159
 30
0.0
 10
68.70126428526827
 20
130.5200088238526
 30
0.0
 10
69.12210514294438
 20
130.5111606746254
 30
0.0
 10
69.54200902997569
 20
130.512626733868
 30
0.0
 10
69.95662360583069
 20
130.5206684747563
 30
0.0
 10
70.36284471604604
 20
130.5381765395248
 30
0.0
 10
70.75237530959893
 20
130.5637414416095
 30
0.0
 10
71.12919603643272
 20
130.5939251878166
 30
0.0
 10
71.48233310227681
 20
130.6298247748349
 30
0.0
 10
71.82408489226917
 20
130.6706416300512
 30
0.0
 10
71.98575847228558
 20
130.692526489336
 30
0.0
 10
72.07364538947066
 20
130.7044232557426
 30
0.0
  0
LINE
  5
10C
330
1F
100
AcDbEntity
  8
0
  6
HIDDEN
 62
     7
370
     0
100
AcDbLine
 10
59.3226188448
 20
93.8668938647
 30
0.0
 11
59.3226188448
 21
127.8668957124
 31
0.0
  0
LWPOLYLINE
  5
10D
330
1F
100
AcDbEntity
  8
0
  6
HIDDEN
 62
     7
370
     0
100
AcDbPolyline
 90
       12
 70
   128
 43
0.0
 10
86.318643729
 20
132.8124979804
 10
87.2759064313
 20
132.8706143717
 10
88.1775356483
 20
133.0415847073
 10
88.9711342406
 20
133.3154755006
 10
89.6105784577
 20
133.6763685862
 10
90.0587085288
 20
134.1032868544
 10
90.2894790869
 20
134.5714235972
 10
90.2894790869
 20
135.0535711567
 10
90.0587085288
 20
135.5217078994
 10
89.6105784577
 20
135.9486261676
 10
88.9711342406
 20
136.3095192532
 10
88.6916760009
 20
136.4225222091
  0
LWPOLYLINE
  5
10E
330
1F
100
AcDbEntity
  8
0
  6
HIDDEN
 62
     7
370
     0
100
AcDbPolyline
 90
       12
 70
   128
 43
0.0
 10
83.9506676074
 20
136.424381129
 10
83.6661527518
 20
136.3095192532
 10
83.0267080691
 20
135.9486261676
 10
82.5785784636
 20
135.5217078994
 10
82.3478079055
 20
135.0535711567
 10
82.3478079055
 20
134.5714235972
 10
82.5785784636
 20
134.1032868544
 10
83.0267080691
 20
133.6763685862
 10
83.6661527518
 20
133.3154755006
 10
84.4597508785
 20
133.0415847073
 10
85.3613805611
 20
132.8706143717
 10
86.318643729
 20
132.8124979804
  0
SPLINE
  5
10F
330
1F
100
AcDbEntity
  8
0
  6
HIDDEN
 62
     7
370
     0
100
AcDbSpline
210
0.0
220
0.0
230
1.0
 70
     8
 71
     3
 72
    11
 73
     7
 74
     0
 42
0.00000001
 43
0.00000001
 40
0.0
 40
0.0
 40
0.0
 40
0.0
 40
0.0005779865010845
 40
0.0005779865010845
 40
0.0005779865010845
 40
0.0011559733324421
 40
0.0011559733324421
 40
0.0011559733324421
 40
0.0011559733324421
 10
46.41864334905467
 20
112.8667353967181
 30
0.0
 10
46.58531060386063
 20
112.8647517573771
 30
0.0
 10
46.7519770335383
 20
112.8627141503745
 30
0.0
 10
46.91864337199011
 20
112.8606026869681
 30
0.0
 10
47.08530980081652
 20
112.8584912224168
 30
0.0
 10
47.25197617445421
 20
112.8563056592604
 30
0.0
 10
47.41864334905465
 20
112.8540230819288
 30
0.0
  0
SPLINE
  5
110
330
1F
100
AcDbEntity
  8
0
  6
HIDDEN
 62
     7
370
     0
100
AcDbSpline
210
0.0
220
0.0
230
1.0
 70
     8
 71
     3
 72
     8
 73
     4
 74
     0
 42
0.00000001
 43
0.00000001
 40
0.0
 40
0.0
 40
0.0
 40
0.0
 40
0.0011564765856722
 40
0.0011564765856722
 40
0.0011564765856722
 40
0.0011564765856722
 10
47.41864334905465
 20
108.870194486348
 30
0.0
 10
47.0853354184858
 20
108.8693193307647
 30
0.0
 10
46.7520001860936
 20
108.8682644795132
 30
0.0
 10
46.41864334905465
 20
108.8670933924756
 30
0.0
  0
LINE
  5
111
330
1F
100
AcDbEntity
  8
0
  6
HIDDEN
 62
     7
370
     0
100
AcDbLine
 10
85.9784693111
 20
93.8668938647
 30
0.0
 11
85.9784693111
 21
127.8668957124
 31
0.0
  0
LINE
  5
112
330
1F
100
AcDbEntity
  8
0
  6
HIDDEN
 62
     7
370
     0
100
AcDbLine
 10
88.2686432105
 20
95.1418949584
 30
0.0
 11
88.2686432105
 21
126.5918946187
 31
0.0
  0
SPLINE
  5
113
330
1F
100
AcDbEntity
  8
0
  6
HIDDEN
 62
     7
370
     0
100
AcDbSpline
210
0.0
220
0.0
230
1.0
 70
     8
 71
     3
 72
    16
 73
    12
 74
     0
 42
0.00000001
 43
0.00000001
 40
0.0
 40
0.0
 40
0.0
 40
0.0
 40
0.124999999999998
 40
0.124999999999998
 40
0.249999999999996
 40
0.249999999999996
 40
0.4999999999999973
 40
0.4999999999999973
 40
0.7499999999999987
 40
0.7499999999999987
 40
1.0
 40
1.0
 40
1.0
 40
1.0
 10
55.11864334905466
 20
95.0654043525326
 30
0.0
 10
55.21376510372048
 20
95.0654043525326
 30
0.0
 10
55.30709517244856
 20
95.06158851913979
 30
0.0
 10
55.49035693318656
 20
95.04681796640999
 30
0.0
 10
55.58123464874357
 20
95.0356599184344
 30
0.0
 10
55.8380363462633
 20
94.99318864829267
 30
0.0
 10
55.9931037111353
 20
94.95214245108988
 30
0.0
 10
56.24685017268992
 20
94.85699633450798
 30
0.0
 10
56.34772062435778
 20
94.80223360042642
 30
0.0
 10
56.48296703905262
 20
94.69097247652253
 30
0.0
 10
56.51864334905466
 20
94.63380273919385
 30
0.0
 10
56.51864334905466
 20
94.57938116616013
 30
0.0
  0
SPLINE
  5
114
330
1F
100
AcDbEntity
  8
0
  6
HIDDEN
 62
     7
370
     0
100
AcDbSpline
210
0.0
220
0.0
230
1.0
 70
     8
 71
     3
 72
     8
 73
     4
 74
     0
 42
0.00000001
 43
0.00000001
 40
0.0
 40
0.0
 40
0.0
 40
0.0
 40
1.0
 40
1.0
 40
1.0
 40
1.0
 10
47.71864335236964
 20
97.21020729861483
 30
0.0
 10
47.71864335237158
 20
96.32631015629791
 30
0.0
 10
47.70516272646176
 20
95.61172691123596
 30
0.0
 10
47.70381135827245
 20
95.0654043525326
 30
0.0
  0
LINE
  5
115
330
1F
100
AcDbEntity
  8
0
  6
HIDDEN
 62
     7
370
     0
100
AcDbLine
 10
47.4186436858
 20
101.2660682495
 30
0.0
 11
47.4186436858
 21
98.2351171146
 31
0.0
  0
LINE
  5
116
330
1F
100
AcDbEntity
  8
0
  6
HIDDEN
 62
     7
370
     0
100
AcDbLine
 10
47.7186431762
 20
114.4715285222
 30
0.0
 11
47.7186431762
 21
102.6339082341
 31
0.0
  0
SPLINE
  5
117
330
1F
100
AcDbEntity
  8
0
  6
HIDDEN
 62
     7
370
     0
100
AcDbSpline
210
0.0
220
0.0
230
1.0
 70
     8
 71
     3
 72
     8
 73
     4
 74
     0
 42
0.00000001
 43
0.00000001
 40
0.0
 40
0.0
 40
0.0
 40
0.0
 40
1.0
 40
1.0
 40
1.0
 40
1.0
 10
47.41864334905465
 20
120.4738341096324
 30
0.0
 10
47.59967481561349
 20
120.0417266239697
 30
0.0
 10
47.71864335224796
 20
119.5875812178702
 30
0.0
 10
47.71864335224227
 20
119.0998811641762
 30
0.0
  0
LINE
  5
118
330
1F
100
AcDbEntity
  8
0
  6
HIDDEN
 62
     7
370
     0
100
AcDbLine
 10
47.4186436858
 20
123.5070366706
 30
0.0
 11
47.4186436858
 21
120.473834529
 31
0.0
  0
SPLINE
  5
119
330
1F
100
AcDbEntity
  8
0
  6
HIDDEN
 62
     7
370
     0
100
AcDbSpline
210
0.0
220
0.0
230
1.0
 70
     8
 71
     3
 72
    10
 73
     6
 74
     0
 42
0.00000001
 43
0.00000001
 40
0.0
 40
0.0
 40
0.0
 40
0.0
 40
0.5
 40
0.5
 40
1.0
 40
1.0
 40
1.0
 40
1.0
 10
47.71864335244787
 20
124.5235822784841
 30
0.0
 10
47.71864335244609
 20
124.3589459318787
 30
0.0
 10
47.69148468169102
 20
124.1917907080489
 30
0.0
 10
47.58571968637334
 20
123.8531677002486
 30
0.0
 10
47.50930489807469
 20
123.6808959229544
 30
0.0
 10
47.41864334905467
 20
123.5070370956111
 30
0.0
  0
SPLINE
  5
11A
330
1F
100
AcDbEntity
  8
0
  6
HIDDEN
 62
     7
370
     0
100
AcDbSpline
210
0.0
220
0.0
230
1.0
 70
     8
 71
     3
 72
    18
 73
    14
 74
     0
 42
0.00000001
 43
0.00000001
 40
0.0
 40
0.0
 40
0.0
 40
0.0
 40
0.2500000000000033
 40
0.2500000000000033
 40
0.3750000000000029
 40
0.3750000000000029
 40
0.5000000000000026
 40
0.5000000000000026
 40
0.6250000000000022
 40
0.6250000000000022
 40
0.7500000000000018
 40
0.7500000000000018
 40
1.0
 40
1.0
 40
1.0
 40
1.0
 10
52.51864334905465
 20
127.1544084109684
 30
0.0
 10
52.51864334905465
 20
127.0999338904162
 30
0.0
 10
52.48373265766249
 20
127.0435528310637
 30
0.0
 10
52.38172335632943
 20
126.9594759902102
 30
0.0
 10
52.34008700165133
 20
126.9321422862193
 30
0.0
 10
52.24168120616257
 20
126.8791883706203
 30
0.0
 10
52.18413799445828
 20
126.8533010169031
 30
0.0
 10
52.05683982088534
 20
126.8055234720699
 30
0.0
 10
51.98725251612787
 20
126.783575553892
 30
0.0
 10
51.83581827097291
 20
126.7441429889793
 30
0.0
 10
51.75313436787897
 20
126.7265867397534
 30
0.0
 10
51.49702290584092
 20
126.6841479743329
 30
0.0
 10
51.30910790195293
 20
126.6683852245959
 30
0.0
 10
51.11864334905465
 20
126.6683852245959
 30
0.0
  0
LINE
  5
11B
330
1F
100
AcDbEntity
  8
0
  6
HIDDEN
 62
     7
370
     0
100
AcDbLine
 10
51.1186429884
 20
126.6683860044
 30
0.0
 11
47.7186431762
 21
126.6683860044
 31
0.0
  0
LINE
  5
11C
330
1F
100
AcDbEntity
  8
0
  6
HIDDEN
 62
     7
370
     0
100
AcDbLine
 10
47.6496750143
 20
95.0654035727
 30
0.0
 11
55.1186436441
 21
95.0654035727
 31
0.0
  0
SPLINE
  5
11D
330
1F
100
AcDbEntity
  8
0
  6
HIDDEN
 62
     7
370
     0
100
AcDbSpline
210
0.0
220
0.0
230
1.0
 70
     8
 71
     3
 72
    22
 73
    18
 74
     0
 42
0.00000001
 43
0.00000001
 40
0.0
 40
0.0
 40
0.0
 40
0.0
 40
0.1249999999999998
 40
0.1249999999999998
 40
0.2499999999999995
 40
0.2499999999999995
 40
0.4999999999999992
 40
0.4999999999999992
 40
0.5624999999999993
 40
0.5624999999999993
 40
0.6249999999999994
 40
0.6249999999999994
 40
0.7499999999999996
 40
0.7499999999999996
 40
0.8749999999999998
 40
0.8749999999999998
 40
1.0
 40
1.0
 40
1.0
 40
1.0
 10
47.64967436241258
 20
95.0654043525326
 30
0.0
 10
47.6365919696842
 20
95.32051006268026
 30
0.0
 10
47.62337240624437
 20
95.61366832178416
 30
0.0
 10
47.60092522845024
 20
96.27596878740897
 30
0.0
 10
47.59144676142579
 20
96.64624270802035
 30
0.0
 10
47.57224880048924
 20
97.86879951113414
 30
0.0
 10
47.57336257348613
 20
98.80593843726601
 30
0.0
 10
47.5922733664392
 20
100.125809666781
 30
0.0
 10
47.59690289429822
 20
100.3973115757573
 30
0.0
 10
47.60738411404417
 20
100.9556964105596
 30
0.0
 10
47.61317937532858
 20
101.2428192664992
 30
0.0
 10
47.63148859623352
 20
102.1154085208709
 30
0.0
 10
47.64552353051388
 20
102.7158641972268
 30
0.0
 10
47.67498070265069
 20
103.9533386897228
 30
0.0
 10
47.69053639363227
 20
104.5903548463663
 30
0.0
 10
47.71433094362916
 20
105.9018434440509
 30
0.0
 10
47.72234999577451
 20
106.5779660557114
 30
0.0
 10
47.71864334905465
 20
107.2622611669962
 30
0.0
  0
LINE
  5
11E
330
1F
100
AcDbEntity
  8
0
  6
HIDDEN
 62
     7
370
     0
100
AcDbLine
 10
47.7186431762
 20
114.4715285222
 30
0.0
 11
47.7186431762
 21
126.6683860044
 31
0.0
  0
SPLINE
  5
11F
330
1F
100
AcDbEntity
  8
0
  6
HIDDEN
 62
     7
370
     0
100
AcDbSpline
210
0.0
220
0.0
230
1.0
 70
     8
 71
     3
 72
    10
 73
     6
 74
     0
 42
0.00000001
 43
0.00000001
 40
0.0
 40
0.0
 40
0.0
 40
0.0
 40
0.5
 40
0.5
 40
1.0
 40
1.0
 40
1.0
 40
1.0
 10
47.71864334905465
 20
107.2622611669811
 30
0.0
 10
47.71864334905447
 20
107.5361763150554
 30
0.0
 10
47.69288411918676
 20
107.8071178937855
 30
0.0
 10
47.58967818645365
 20
108.3428089753884
 30
0.0
 10
47.51234002257841
 20
108.6085557789104
 30
0.0
 10
47.41864334905464
 20
108.870194486348
 30
0.0
  0
SPLINE
  5
120
330
1F
100
AcDbEntity
  8
0
  6
HIDDEN
 62
     7
370
     0
100
AcDbSpline
210
0.0
220
0.0
230
1.0
 70
     8
 71
     3
 72
    10
 73
     6
 74
     0
 42
0.00000001
 43
0.00000001
 40
0.0
 40
0.0
 40
0.0
 40
0.0
 40
0.5
 40
0.5
 40
1.0
 40
1.0
 40
1.0
 40
1.0
 10
47.41864334905464
 20
112.8540230819288
 30
0.0
 10
47.51187393044566
 20
113.1179168899989
 30
0.0
 10
47.58690354268241
 20
113.3840972006371
 30
0.0
 10
47.69197064186056
 20
113.9224197755953
 30
0.0
 10
47.71864335244674
 20
114.1951678918409
 30
0.0
 10
47.71864335244793
 20
114.4715284101314
 30
0.0
  0
LINE
  5
121
330
1F
100
AcDbEntity
  8
0
  6
HIDDEN
 62
     7
370
     0
100
AcDbLine
 10
47.4186436858
 20
108.8701946023
 30
0.0
 11
47.4186436858
 21
112.8540230743
 31
0.0
  0
LINE
  5
122
330
1F
100
AcDbEntity
  8
0
  6
HIDDEN
 62
     7
370
     0
100
AcDbLine
 10
195.0783235606
 20
110.8668947886
 30
0.0
 11
195.0783235606
 21
99.1168951909
 31
0.0
  0
LINE
  5
123
330
1F
100
AcDbEntity
  8
0
  6
HIDDEN
 62
     7
370
     0
100
AcDbLine
 10
195.0783235606
 20
122.6168943862
 30
0.0
 11
195.0783235606
 21
110.8668947886
 31
0.0
  0
LINE
  5
124
330
1F
100
AcDbEntity
  8
0
  6
HIDDEN
 62
     7
370
     0
100
AcDbLine
 10
191.3186413821
 20
110.8668947886
 30
0.0
 11
191.3186413821
 21
99.1168951909
 31
0.0
  0
LINE
  5
125
330
1F
100
AcDbEntity
  8
0
  6
HIDDEN
 62
     7
370
     0
100
AcDbLine
 10
191.3186413821
 20
122.6168943862
 30
0.0
 11
191.3186413821
 21
110.8668947886
 31
0.0
  0
LINE
  5
126
330
1F
100
AcDbEntity
  8
0
  6
HIDDEN
 62
     7
370
     0
100
AcDbLine
 10
188.4042201217
 20
110.8668947886
 30
0.0
 11
188.4042201217
 21
105.3668948184
 31
0.0
  0
LINE
  5
127
330
1F
100
AcDbEntity
  8
0
  6
HIDDEN
 62
     7
370
     0
100
AcDbLine
 10
188.4042201217
 20
116.3668947588
 30
0.0
 11
188.4042201217
 21
110.8668947886
 31
0.0
  0
LINE
  5
128
330
1F
100
AcDbEntity
  8
0
  6
HIDDEN
 62
     7
370
     0
100
AcDbLine
 10
47.5686424997
 20
92.8768942426
 30
0.0
 11
47.5686424997
 21
89.9969561319
 31
0.0
  0
LINE
  5
129
330
1F
100
AcDbEntity
  8
0
  6
HIDDEN
 62
     7
370
     0
100
AcDbLine
 10
56.5186431285
 20
92.8768942426
 30
0.0
 11
56.5186431285
 21
88.9031568835
 31
0.0
  0
LINE
  5
12A
330
1F
100
AcDbEntity
  8
0
  6
HIDDEN
 62
     7
370
     0
100
AcDbLine
 10
47.5686424997
 20
128.8568953345
 30
0.0
 11
47.5686424997
 21
131.7368334453
 31
0.0
  0
LINE
  5
12B
330
1F
100
AcDbEntity
  8
0
  6
HIDDEN
 62
     7
370
     0
100
AcDbLine
 10
52.5186424729
 20
128.8568953345
 30
0.0
 11
52.5186424729
 21
132.7110024462
 31
0.0
  0
LINE
  5
12C
330
1F
100
AcDbEntity
  8
0
  6
HIDDEN
 62
     7
370
     0
100
AcDbLine
 10
97.1186430779
 20
101.366895094
 30
0.0
 11
97.1186430779
 21
120.3668944831
 31
0.0
  0
LINE
  5
12D
330
1F
100
AcDbEntity
  8
0
  6
HIDDEN
 62
     7
370
     0
100
AcDbLine
 10
100.1186435696
 20
101.366895094
 30
0.0
 11
100.1186435696
 21
120.3668944831
 31
0.0
  0
LINE
  5
12E
330
1F
100
AcDbEntity
  8
0
  6
HIDDEN
 62
     7
370
     0
100
AcDbLine
 10
88.7686432924
 20
102.3668943266
 30
0.0
 11
88.7686432924
 21
119.3668952505
 31
0.0
  0
LINE
  5
12F
330
1F
100
AcDbEntity
  8
0
  6
HIDDEN
 62
     7
370
     0
100
AcDbLine
 10
104.2686430391
 20
84.4668949316
 30
0.0
 11
98.1309683647
 21
84.4668949316
 31
0.0
  0
LINE
  5
130
330
1F
100
AcDbEntity
  8
0
  6
HIDDEN
 62
     7
370
     0
100
AcDbLine
 10
94.5063186463
 20
84.4668949316
 30
0.0
 11
91.2686437022
 21
84.4668949316
 31
0.0
  0
LINE
  5
131
330
1F
100
AcDbEntity
  8
0
  6
HIDDEN
 62
     7
370
     0
100
AcDbLine
 10
83.2686433222
 20
79.3827714692
 30
0.0
 11
83.2686433222
 21
84.4668949316
 31
0.0
  0
LINE
  5
132
330
1F
100
AcDbEntity
  8
0
  6
HIDDEN
 62
     7
370
     0
100
AcDbLine
 10
91.2686437022
 20
84.4668949316
 30
0.0
 11
83.2686433222
 21
84.4668949316
 31
0.0
  0
LINE
  5
133
330
1F
100
AcDbEntity
  8
0
  6
HIDDEN
 62
     7
370
     0
100
AcDbLine
 10
94.802941161
 20
137.2668946455
 30
0.0
 11
91.2686437022
 21
137.2668946455
 31
0.0
  0
LINE
  5
134
330
1F
100
AcDbEntity
  8
0
  6
HIDDEN
 62
     7
370
     0
100
AcDbLine
 10
91.2686437022
 20
137.2668946455
 30
0.0
 11
83.2686433222
 21
137.2668946455
 31
0.0
  0
LINE
  5
135
330
1F
100
AcDbEntity
  8
0
  6
HIDDEN
 62
     7
370
     0
100
AcDbLine
 10
104.2686430391
 20
137.2668946455
 30
0.0
 11
97.83434585
 21
137.2668946455
 31
0.0
  0
SPLINE
  5
136
330
1F
100
AcDbEntity
  8
0
  6
HIDDEN
 62
     7
370
     0
100
AcDbSpline
210
0.0
220
0.0
230
1.0
 70
     8
 71
     3
 72
    11
 73
     7
 74
     0
 42
0.00000001
 43
0.00000001
 40
0.0
 40
0.0
 40
0.0
 40
0.0
 40
0.0008203708524183
 40
0.0008203708524183
 40
0.0008203708524183
 40
0.0016409967870154
 40
0.0016409967870154
 40
0.0016409967870154
 40
0.0016409967870154
 10
47.56864334905465
 20
95.01486203792152
 30
0.0
 10
47.37748504875599
 20
94.97368300930238
 30
0.0
 10
47.18605797868382
 20
94.93492903707238
 30
0.0
 10
46.99441235516319
 20
94.89856127779383
 30
0.0
 10
46.80270695008274
 20
94.86218217402781
 30
0.0
 10
46.61076799802377
 20
94.82818792326026
 30
0.0
 10
46.41864335095297
 20
94.79653979786904
 30
0.0
  0
ELLIPSE
  5
137
330
1F
100
AcDbEntity
  8
0
  6
HIDDEN
 62
     7
370
     0
100
AcDbEllipse
 10
42.1762114805
 20
110.8668947886
 30
0.0
 11
20.19992453366627
 21
-1.421085471520200E-14
 31
0.0
210
0.0
220
0.0
230
1.0
 40
0.8164965809
 41
1.300566354718001
 42
1.359198697209605
  0
LINE
  5
138
330
1F
100
AcDbEntity
  8
0
  6
HIDDEN
 62
     7
370
     0
100
AcDbLine
 10
47.5686424997
 20
92.8768942426
 30
0.0
 11
47.5686424997
 21
95.0148625593
 31
0.0
  0
LINE
  5
139
330
1F
100
AcDbEntity
  8
0
  6
HIDDEN
 62
     7
370
     0
100
AcDbLine
 10
47.6496750143
 20
95.0654035727
 30
0.0
 11
47.5686424997
 21
95.0148625593
 31
0.0
  0
LINE
  5
13A
330
1F
100
AcDbEntity
  8
0
  6
HIDDEN
 62
     7
370
     0
100
AcDbLine
 10
56.5186431285
 20
92.8768942426
 30
0.0
 11
56.5186431285
 21
94.5793817113
 31
0.0
  0
LINE
  5
13B
330
1F
100
AcDbEntity
  8
0
  6
HIDDEN
 62
     7
370
     0
100
AcDbLine
 10
47.5686424997
 20
128.8568953345
 30
0.0
 11
47.5686424997
 21
126.7615201245
 31
0.0
  0
SPLINE
  5
13C
330
1F
100
AcDbEntity
  8
0
  6
HIDDEN
 62
     7
370
     0
100
AcDbSpline
210
0.0
220
0.0
230
1.0
 70
     8
 71
     3
 72
     8
 73
     4
 74
     0
 42
0.00000001
 43
0.00000001
 40
0.0
 40
0.0
 40
0.0
 40
0.0
 40
1.0
 40
1.0
 40
1.0
 40
1.0
 10
47.56864334905465
 20
126.7615192396229
 30
0.0
 10
47.61864884799838
 20
126.7304834654038
 30
0.0
 10
47.66864891866279
 20
126.6994388203762
 30
0.0
 10
47.71864335244791
 20
126.6683852245959
 30
0.0
  0
LINE
  5
13D
330
1F
100
AcDbEntity
  8
0
  6
HIDDEN
 62
     7
370
     0
100
AcDbLine
 10
52.5186424729
 20
128.8568953345
 30
0.0
 11
52.5186424729
 21
127.1544078658
 31
0.0
  0
LINE
  5
13E
330
1F
100
AcDbEntity
  8
0
  6
HIDDEN
 62
     7
370
     0
100
AcDbLine
 10
161.5375233468
 20
110.8668947886
 30
0.0
 11
161.5375233468
 21
106.6668949383
 31
0.0
  0
LINE
  5
13F
330
1F
100
AcDbEntity
  8
0
  6
HIDDEN
 62
     7
370
     0
100
AcDbLine
 10
161.5375233468
 20
115.0668946388
 30
0.0
 11
161.5375233468
 21
110.8668947886
 31
0.0
  0
LINE
  5
140
330
1F
100
AcDbEntity
  8
0
  6
HIDDEN
 62
     7
370
     0
100
AcDbLine
 10
162.3186422166
 20
110.8668947886
 30
0.0
 11
162.3186422166
 21
105.3668948184
 31
0.0
  0
LINE
  5
141
330
1F
100
AcDbEntity
  8
0
  6
HIDDEN
 62
     7
370
     0
100
AcDbLine
 10
162.3186422166
 20
116.3668947588
 30
0.0
 11
162.3186422166
 21
110.8668947886
 31
0.0
  0
SPLINE
  5
142
330
1F
100
AcDbEntity
  8
0
  6
HIDDEN
 62
     7
370
     0
100
AcDbSpline
210
0.0
220
0.0
230
1.0
 70
     8
 71
     3
 72
    20
 73
    16
 74
     0
 42
0.00000001
 43
0.00000001
 40
0.0
 40
0.0
 40
0.0
 40
0.0
 40
0.1119595197270015
 40
0.1774767654920859
 40
0.249096185325418
 40
0.3298422369283467
 40
0.3986125725171922
 40
0.4998892967520781
 40
0.6138510411462624
 40
0.6790150058045442
 40
0.7495394119902732
 40
0.8296829969661308
 40
0.8981246339666275
 40
0.9995320129300933
 40
0.9999999999999999
 40
0.9999999999999999
 40
0.9999999999999999
 40
0.9999999999999999
 10
73.06748392322977
 20
87.26690135103564
 30
0.0
 10
73.0241600067624
 20
87.28032971925307
 30
0.0
 10
72.95548350134483
 20
87.30161619281851
 30
0.0
 10
72.51030499197464
 20
87.40493110648484
 30
0.0
 10
71.98374628527505
 20
87.51823134920299
 30
0.0
 10
71.2983212885741
 20
87.64116600249514
 30
0.0
 10
70.4050041107855
 20
87.76320068964054
 30
0.0
 10
69.291644460179
 20
87.88093632682374
 30
0.0
 10
68.18087033152764
 20
87.89291019906635
 30
0.0
 10
67.29612205426503
 20
87.86585466047204
 30
0.0
 10
66.62892578420707
 20
87.81792159427177
 30
0.0
 10
66.08765129419983
 20
87.76162448486768
 30
0.0
 10
65.70007887699109
 20
87.71655279051801
 30
0.0
 10
65.50611617186809
 20
87.67764836796323
 30
0.0
 10
65.56923930514064
 20
87.6883779727152
 30
0.0
 10
65.56952927524169
 20
87.68842726153235
 30
0.0
  0
LINE
  5
143
330
1F
100
AcDbEntity
  8
0
  6
HIDDEN
 62
     7
370
     0
100
AcDbLine
 10
66.4786556389
 20
87.7992322962
 30
0.0
 11
66.6625005778
 21
87.8174228887
 31
0.0
  0
LINE
  5
144
330
1F
100
AcDbEntity
  8
0
  6
HIDDEN
 62
     7
370
     0
100
AcDbLine
 10
66.6624977838
 20
133.9162977706
 30
0.0
 11
66.4884242814
 21
133.9335067491
 31
0.0
  0
SPLINE
  5
145
330
1F
100
AcDbEntity
  8
0
  6
HIDDEN
 62
     7
370
     0
100
AcDbSpline
210
0.0
220
0.0
230
1.0
 70
     8
 71
     3
 72
    20
 73
    16
 74
     0
 42
0.00000001
 43
0.00000001
 40
0.0
 40
0.0
 40
0.0
 40
0.0
 40
0.0004889697591047
 40
0.1018319945141926
 40
0.1702475571949642
 40
0.2503691863856972
 40
0.3209567830713191
 40
0.3861815969282947
 40
0.5002554405931924
 40
0.6012243594512068
 40
0.6697680251707869
 40
0.7502401868573377
 40
0.8220490723920678
 40
0.8877204424947721
 40
1.0
 40
1.0
 40
1.0
 40
1.0
 10
65.56956280285438
 20
134.0452971230159
 30
0.0
 10
65.56925905899907
 20
134.045348295319
 30
0.0
 10
65.50600189015972
 20
134.0560053504651
 30
0.0
 10
65.69923394158498
 20
134.0172635895257
 30
0.0
 10
66.08617228673597
 20
133.9722031766939
 30
0.0
 10
66.62718110513107
 20
133.9159507687687
 30
0.0
 10
67.2946807732254
 20
133.86801770261
 30
0.0
 10
68.1805085904026
 20
133.8409446292779
 30
0.0
 10
69.29131540921821
 20
133.8527699183369
 30
0.0
 10
70.40338552668912
 20
133.9702208936
 30
0.0
 10
71.29448645168053
 20
134.09192202146
 30
0.0
 10
71.97997032873982
 20
134.2147451394301
 30
0.0
 10
72.50795886675775
 20
134.3281841361085
 30
0.0
 10
72.95534225038668
 20
134.4319227884448
 30
0.0
 10
73.02415294693368
 20
134.4533465306428
 30
0.0
 10
73.06756960490664
 20
134.4668640117059
 30
0.0
  0
LINE
  5
146
330
1F
100
AcDbEntity
  8
0
  6
HIDDEN
 62
     7
370
     0
100
AcDbLine
 10
140.2686414894
 20
132.7895446042
 30
0.0
 11
142.7686465558
 21
132.7895446042
 31
0.0
  0
LINE
  5
147
330
1F
100
AcDbEntity
  8
0
  6
HIDDEN
 62
     7
370
     0
100
AcDbLine
 10
137.7686438736
 20
132.7895446042
 30
0.0
 11
140.2686414894
 21
132.7895446042
 31
0.0
  0
LINE
  5
148
330
1F
100
AcDbEntity
  8
0
  6
HIDDEN
 62
     7
370
     0
100
AcDbLine
 10
142.7686465558
 20
88.9442449729
 30
0.0
 11
137.7686438736
 21
88.9442449729
 31
0.0
  0
LINE
  5
149
330
1F
100
AcDbEntity
  8
0
  6
HIDDEN
 62
     7
370
     0
100
AcDbLine
 10
140.2686414894
 20
121.366894647
 30
0.0
 11
142.7686465558
 21
121.366894647
 31
0.0
  0
LINE
  5
14A
330
1F
100
AcDbEntity
  8
0
  6
HIDDEN
 62
     7
370
     0
100
AcDbLine
 10
137.7686438736
 20
121.366894647
 30
0.0
 11
140.2686414894
 21
121.366894647
 31
0.0
  0
LINE
  5
14B
330
1F
100
AcDbEntity
  8
0
  6
HIDDEN
 62
     7
370
     0
100
AcDbLine
 10
142.7686465558
 20
100.3668949301
 30
0.0
 11
137.7686438736
 21
100.3668949301
 31
0.0
  0
SPLINE
  5
14C
330
1F
100
AcDbEntity
  8
0
  6
HIDDEN
 62
     7
370
     0
100
AcDbSpline
210
0.0
220
0.0
230
1.0
 70
     8
 71
     3
 72
     8
 73
     4
 74
     0
 42
0.00000001
 43
0.00000001
 40
0.0
 40
0.0
 40
0.0
 40
0.0
 40
0.0001590976953428
 40
0.0001590976953428
 40
0.0001590976953428
 40
0.0001590976953428
 10
47.70381135827247
 20
95.0654043525326
 30
0.0
 10
47.65875988776818
 20
95.03742546820885
 30
0.0
 10
47.61370384935346
 20
95.00945393783381
 30
0.0
 10
47.56864334905467
 20
94.98148959848135
 30
0.0
  0
SPLINE
  5
14D
330
1F
100
AcDbEntity
  8
0
  6
HIDDEN
 62
     7
370
     0
100
AcDbSpline
210
0.0
220
0.0
230
1.0
 70
     8
 71
     3
 72
    11
 73
     7
 74
     0
 42
0.00000001
 43
0.00000001
 40
0.0
 40
0.0
 40
0.0
 40
0.0
 40
0.0008212909311457
 40
0.0008212909311457
 40
0.0008212909311457
 40
0.001642825724306
 40
0.001642825724306
 40
0.001642825724306
 40
0.001642825724306
 10
47.56864334905465
 20
94.98148959848132
 30
0.0
 10
47.37749832757246
 20
94.93820340962876
 30
0.0
 10
47.18607999189597
 20
94.89726689999146
 30
0.0
 10
46.99443391723482
 20
94.85866512860485
 30
0.0
 10
46.80273083569323
 20
94.82005187476774
 30
0.0
 10
46.61078571240773
 20
94.78377166548171
 30
0.0
 10
46.41864334905456
 20
94.7498047591302
 30
0.0
  0
LINE
  5
14E
330
1F
100
AcDbEntity
  8
0
  6
HIDDEN
 62
     7
370
     0
100
AcDbLine
 10
94.4086433973
 20
131.0027612666
 30
0.0
 11
94.4086433973
 21
130.7168955277
 31
0.0
  0
LINE
  5
14F
330
1F
100
AcDbEntity
  8
0
  6
HIDDEN
 62
     7
370
     0
100
AcDbLine
 10
98.2286436137
 20
131.0542764435
 30
0.0
 11
98.2286436137
 21
130.7168955277
 31
0.0
  0
LINE
  5
150
330
1F
100
AcDbEntity
  8
0
  6
HIDDEN
 62
     7
370
     0
100
AcDbLine
 10
99.7105752703
 20
135.3255844037
 30
0.0
 11
99.7105752703
 21
130.7168955277
 31
0.0
  0
SPLINE
  5
151
330
1F
100
AcDbEntity
  8
0
  6
HIDDEN
 62
     7
370
     0
100
AcDbSpline
210
0.0
220
0.0
230
1.0
 70
     8
 71
     3
 72
    24
 73
    20
 74
     0
 42
0.00000001
 43
0.00000001
 40
0.0
 40
0.0
 40
0.0
 40
0.0
 40
0.25
 40
0.25
 40
0.374999999999999
 40
0.374999999999999
 40
0.4374999999999993
 40
0.4374999999999993
 40
0.4687499999999994
 40
0.4687499999999994
 40
0.4999999999999995
 40
0.4999999999999995
 40
0.5624999999999971
 40
0.5624999999999971
 40
0.6249999999999947
 40
0.6249999999999947
 40
0.7499999999999947
 40
0.7499999999999947
 40
1.0
 40
1.0
 40
1.0
 40
1.0
 10
46.48130672377807
 20
91.1923422437835
 30
0.0
 10
46.49505984244828
 20
91.26299230177379
 30
0.0
 10
46.51283240985416
 20
91.32959041453873
 30
0.0
 10
46.5650835014095
 20
91.40368843477192
 30
0.0
 10
46.58611857699108
 20
91.42494624193348
 30
0.0
 10
46.6390189846195
 20
91.43309216807972
 30
0.0
 10
46.66012465749741
 20
91.43215236468396
 30
0.0
 10
46.70617682617539
 20
91.4111363731066
 30
0.0
 10
46.72454729815878
 20
91.40022756699899
 30
0.0
 10
46.76609893322448
 20
91.36759265605163
 30
0.0
 10
46.7886656059814
 20
91.34610067568025
 30
0.0
 10
46.85144662244141
 20
91.27763473209394
 30
0.0
 10
46.88457638340932
 20
91.23156027388885
 30
0.0
 10
46.94149406989431
 20
91.14655238555417
 30
0.0
 10
46.96568009539808
 20
91.1062720843728
 30
0.0
 10
47.03088804577785
 20
90.99133585790685
 30
0.0
 10
47.06560410596909
 20
90.92075287275985
 30
0.0
 10
47.15881937629998
 20
90.71654711368124
 30
0.0
 10
47.20449191166065
 20
90.59364873135388
 30
0.0
 10
47.2427969951592
 20
90.4767754549663
 30
0.0
  0
SPLINE
  5
152
330
1F
100
AcDbEntity
  8
0
  6
HIDDEN
 62
     7
370
     0
100
AcDbSpline
210
0.0
220
0.0
230
1.0
 70
     8
 71
     3
 72
    11
 73
     7
 74
     0
 42
0.00000001
 43
0.00000001
 40
0.0
 40
0.0
 40
0.0
 40
0.0
 40
0.000578186222398
 40
0.000578186222398
 40
0.000578186222398
 40
0.0011563724723931
 40
0.0011563724723931
 40
0.0011563724723931
 40
0.0011563724723931
 10
47.41864334905493
 20
123.5070370956159
 30
0.0
 10
47.25198279477927
 20
123.5715666070295
 30
0.0
 10
47.08531949787276
 20
123.6360693108684
 30
0.0
 10
46.91865291404246
 20
123.700555759302
 30
0.0
 10
46.75198632178333
 20
123.7650422109969
 30
0.0
 10
46.58531645615741
 20
123.829512219725
 30
0.0
 10
46.41864334905463
 20
123.8939679864576
 30
0.0
  0
SPLINE
  5
153
330
1F
100
AcDbEntity
  8
0
  6
HIDDEN
 62
     7
370
     0
100
AcDbSpline
210
0.0
220
0.0
230
1.0
 70
     8
 71
     3
 72
    11
 73
     7
 74
     0
 42
0.00000001
 43
0.00000001
 40
0.0
 40
0.0
 40
0.0
 40
0.0
 40
0.0005778746105108
 40
0.0005778746105108
 40
0.0005778746105108
 40
0.0011557494857227
 40
0.0011557494857227
 40
0.0011557494857227
 40
0.0011557494857227
 10
46.41864334905463
 20
97.83967293307435
 30
0.0
 10
46.58531022546797
 20
97.90548505976818
 30
0.0
 10
46.75197694502945
 20
97.9713435399058
 30
0.0
 10
46.91864359307808
 20
98.0372511128364
 30
0.0
 10
47.08531031759674
 20
98.1031587160067
 30
0.0
 10
47.25197701201732
 20
98.16911582439515
 30
0.0
 10
47.41864334905464
 20
98.23511756431783
 30
0.0
  0
SPLINE
  5
154
330
1F
100
AcDbEntity
  8
0
  6
HIDDEN
 62
     7
370
     0
100
AcDbSpline
210
0.0
220
0.0
230
1.0
 70
     8
 71
     3
 72
    11
 73
     7
 74
     0
 42
0.00000001
 43
0.00000001
 40
0.0000000000000007
 40
0.0000000000000007
 40
0.0000000000000007
 40
0.0000000000000007
 40
0.0005780486062768
 40
0.0005780486062768
 40
0.0005780486062768
 40
0.0011560973514127
 40
0.0011560973514127
 40
0.0011560973514127
 40
0.0011560973514127
 10
46.41864334905463
 20
120.847709290256
 30
0.0
 10
46.58531320509954
 20
120.7853374287415
 30
0.0
 10
46.75198090918379
 20
120.7229835684438
 30
0.0
 10
46.91864721363745
 20
120.6606640082576
 30
0.0
 10
47.08531355433118
 20
120.5983444345207
 30
0.0
 10
47.25197851095997
 20
120.5360592302011
 30
0.0
 10
47.41864334905465
 20
120.4738341096324
 30
0.0
  0
SPLINE
  5
155
330
1F
100
AcDbEntity
  8
0
  6
HIDDEN
 62
     7
370
     0
100
AcDbSpline
210
0.0
220
0.0
230
1.0
 70
     8
 71
     3
 72
    11
 73
     7
 74
     0
 42
0.00000001
 43
0.00000001
 40
0.0
 40
0.0
 40
0.0
 40
0.0
 40
0.0005782401583533
 40
0.0005782401583533
 40
0.0005782401583533
 40
0.0011564805960992
 40
0.0011564805960992
 40
0.0011564805960992
 40
0.0011564805960992
 10
47.41864334905464
 20
101.2660679961668
 30
0.0
 10
47.25199239870574
 20
101.2026425381059
 30
0.0
 10
47.08533280612309
 20
101.1392870144506
 30
0.0
 10
46.91866575369455
 20
101.0759894301006
 30
0.0
 10
46.75199861713072
 20
101.0126918137973
 30
0.0
 10
46.58532400968465
 20
100.9494520188565
 30
0.0
 10
46.41864334905458
 20
100.8862520122176
 30
0.0
  0
CIRCLE
  5
156
330
1F
100
AcDbEntity
  8
0
  6
HIDDEN
 62
     7
370
     0
100
AcDbCircle
 10
85.3186433491
 20
110.8668947886
 30
0.0
 40
5.000000000000014
  0
SPLINE
  5
157
330
1F
100
AcDbEntity
  8
0
  6
HIDDEN
 62
     7
370
     0
100
AcDbSpline
210
0.0
220
0.0
230
1.0
 70
     8
 71
     3
 72
    22
 73
    18
 74
     0
 42
0.00000001
 43
0.00000001
 40
0.0
 40
0.0
 40
0.0
 40
0.0
 40
0.1005636805440591
 40
0.1696427318991675
 40
0.2408004164925666
 40
0.3084641076961485
 40
0.3782977055344993
 40
0.4424542261366496
 40
0.5087424683740981
 40
0.5738710380411953
 40
0.6414659545142465
 40
0.6995521849529086
 40
0.7593214179895179
 40
0.8176306570692218
 40
0.8774607485059783
 40
0.9390769965143461
 40
1.0
 40
1.0
 40
1.0
 40
1.0
 10
223.2153741296561
 20
86.77218466204505
 30
0.0
 10
222.9181774783845
 20
86.7671637174969
 30
0.0
 10
222.416830952877
 20
86.758693793313
 30
0.0
 10
221.7417026403012
 20
86.70226380192445
 30
0.0
 10
221.2005421818947
 20
86.63540300097524
 30
0.0
 10
220.7170390725047
 20
86.55245872848532
 30
0.0
 10
220.322403468167
 20
86.4632887799591
 30
0.0
 10
220.0165200073153
 20
86.37207194034129
 30
0.0
 10
219.8115636953105
 20
86.28600700334233
 30
0.0
 10
219.7092027821475
 20
86.2069390714021
 30
0.0
 10
219.7189805899058
 20
86.14330533331288
 30
0.0
 10
219.8272478439171
 20
86.09482280904807
 30
0.0
 10
220.0138333105618
 20
86.06082173414609
 30
0.0
 10
220.2794635779877
 20
86.03774782182435
 30
0.0
 10
220.6178430534288
 20
86.02408925285872
 30
0.0
 10
221.019411539597
 20
86.01761707165534
 30
0.0
 10
221.330852515439
 20
86.01717714259972
 30
0.0
 10
221.4856920417579
 20
86.01695842248301
 30
0.0
  0
LINE
  5
158
330
1F
100
AcDbEntity
  8
0
  6
HIDDEN
 62
     7
370
     0
100
AcDbLine
 10
223.2153741297
 20
86.772184662
 30
0.0
 11
234.9411425766
 21
86.772184662
 31
0.0
  0
LINE
  5
159
330
1F
100
AcDbEntity
  8
0
  6
HIDDEN
 62
     7
370
     0
100
AcDbLine
 10
234.9411425766
 20
98.0666362042
 30
0.0
 11
234.9411425766
 21
93.5540290843
 31
0.0
  0
LINE
  5
15A
330
1F
100
AcDbEntity
  8
0
  6
HIDDEN
 62
     7
370
     0
100
AcDbLine
 10
223.2153741297
 20
98.0666362042
 30
0.0
 11
234.9411425766
 21
98.0666362042
 31
0.0
  0
SPLINE
  5
15B
330
1F
100
AcDbEntity
  8
0
  6
HIDDEN
 62
     7
370
     0
100
AcDbSpline
210
0.0
220
0.0
230
1.0
 70
     8
 71
     3
 72
    18
 73
    14
 74
     0
 42
0.00000001
 43
0.00000001
 40
0.0
 40
0.0
 40
0.0
 40
0.0
 40
0.0838016655932103
 40
0.2002306191101714
 40
0.3143553422780882
 40
0.422611048634605
 40
0.5235779351705949
 40
0.5374369287987563
 40
0.6352755911435671
 40
0.7336010184316789
 40
0.8375991339881514
 40
0.9480868265119079
 40
1.0
 40
1.0
 40
1.0
 40
1.0
 10
223.2153741296561
 20
104.0850517633269
 30
0.0
 10
222.9184455249815
 20
104.0646189674598
 30
0.0
 10
222.2089823189143
 20
104.0157980837977
 30
0.0
 10
221.1689556537988
 20
103.5628807614468
 30
0.0
 10
220.2816179462752
 20
102.765706673399
 30
0.0
 10
219.7698137223302
 20
101.7783379282591
 30
0.0
 10
219.6951570015647
 20
101.0366357683506
 30
0.0
 10
219.7751906159476
 20
100.3546001239726
 30
0.0
 10
219.9993962247296
 20
99.70067146525906
 30
0.0
 10
220.6328884936247
 20
98.92778672723028
 30
0.0
 10
221.5426152115506
 20
98.3563308724976
 30
0.0
 10
222.4572160846362
 20
98.0960746325017
 30
0.0
 10
223.0317259178342
 20
98.07376705874555
 30
0.0
 10
223.2153741296561
 20
98.06663620424371
 30
0.0
  0
LINE
  5
15C
330
1F
100
AcDbEntity
  8
0
  6
HIDDEN
 62
     7
370
     0
100
AcDbLine
 10
223.2153741297
 20
104.0850517633
 30
0.0
 11
234.9411425766
 21
104.0850517633
 31
0.0
  0
LINE
  5
15D
330
1F
100
AcDbEntity
  8
0
  6
HIDDEN
 62
     7
370
     0
100
AcDbLine
 10
234.9411425766
 20
122.9128193403
 30
0.0
 11
234.9411425766
 21
117.6487378138
 31
0.0
  0
LINE
  5
15E
330
1F
100
AcDbEntity
  8
0
  6
HIDDEN
 62
     7
370
     0
100
AcDbLine
 10
223.2153741297
 20
122.9128193403
 30
0.0
 11
234.9411425766
 21
122.9128193403
 31
0.0
  0
SPLINE
  5
15F
330
1F
100
AcDbEntity
  8
0
  6
HIDDEN
 62
     7
370
     0
100
AcDbSpline
210
0.0
220
0.0
230
1.0
 70
     8
 71
     3
 72
    17
 73
    13
 74
     0
 42
0.00000001
 43
0.00000001
 40
0.0
 40
0.0
 40
0.0
 40
0.0
 40
0.0838158468428507
 40
0.2002644715715242
 40
0.3144085494045438
 40
0.422682565682476
 40
0.5326537803857309
 40
0.6305354261657765
 40
0.7286823760613508
 40
0.832379938340611
 40
0.9426001557314173
 40
1.0
 40
1.0
 40
1.0
 40
1.0
 10
223.2153741296561
 20
128.1797604928623
 30
0.0
 10
222.918445584383
 20
128.1645572321584
 30
0.0
 10
222.2089826313314
 20
128.1282314884512
 30
0.0
 10
221.1689545449686
 20
127.7878699092977
 30
0.0
 10
220.2816205266101
 20
127.1671552815433
 30
0.0
 10
219.7555825507355
 20
126.3373143198436
 30
0.0
 10
219.6667868545548
 20
125.4262858984483
 30
0.0
 10
219.9767159074423
 20
124.5546165939413
 30
0.0
 10
220.5956239904908
 20
123.8076564559383
 30
0.0
 10
221.4929225809691
 20
123.2306141182468
 30
0.0
 10
222.41930843636
 20
122.9474858059261
 30
0.0
 10
223.012307442581
 20
122.9216623345601
 30
0.0
 10
223.2153741296562
 20
122.9128193403492
 30
0.0
  0
LINE
  5
160
330
1F
100
AcDbEntity
  8
0
  6
HIDDEN
 62
     7
370
     0
100
AcDbLine
 10
223.2153741297
 20
128.1797604929
 30
0.0
 11
234.9411425766
 21
128.1797604929
 31
0.0
  0
LINE
  5
161
330
1F
100
AcDbEntity
  8
0
  6
HIDDEN
 62
     7
370
     0
100
AcDbLine
 10
234.9411425766
 20
135.7130779247
 30
0.0
 11
234.9411425766
 21
134.9616049151
 31
0.0
  0
LINE
  5
162
330
1F
100
AcDbEntity
  8
0
  6
HIDDEN
 62
     7
370
     0
100
AcDbLine
 10
234.9411425766
 20
128.1797604929
 30
0.0
 11
235.1880250152
 21
127.6444288264
 31
0.0
  0
LINE
  5
163
330
1F
100
AcDbEntity
  8
0
  6
HIDDEN
 62
     7
370
     0
100
AcDbLine
 10
235.1880250152
 20
127.6444288264
 30
0.0
 11
236.3292900499
 21
126.2062479104
 31
0.0
  0
LINE
  5
164
330
1F
100
AcDbEntity
  8
0
  6
HIDDEN
 62
     7
370
     0
100
AcDbLine
 10
236.3292900499
 20
126.2062479104
 30
0.0
 11
236.5201739248
 21
125.7865576367
 31
0.0
  0
SPLINE
  5
165
330
1F
100
AcDbEntity
  8
0
  6
HIDDEN
 62
     7
370
     0
100
AcDbSpline
210
0.0
220
0.0
230
1.0
 70
     8
 71
     3
 72
     9
 73
     5
 74
     0
 42
0.00000001
 43
0.00000001
 40
0.0
 40
0.0
 40
0.0
 40
0.0
 40
0.1217959313634958
 40
1.0
 40
1.0
 40
1.0
 40
1.0
 10
236.5201739248069
 20
125.7865576366792
 30
0.0
 10
236.5302763747479
 20
125.6398397920715
 30
0.0
 10
236.6132220842469
 20
124.4352195476576
 30
0.0
 10
236.5636810567336
 20
123.228229803681
 30
0.0
 10
236.520173924807
 20
122.1682464997182
 30
0.0
  0
LINE
  5
166
330
1F
100
AcDbEntity
  8
0
  6
HIDDEN
 62
     7
370
     0
100
AcDbLine
 10
236.3292900499
 20
122.1061161081
 30
0.0
 11
236.5201739248
 21
122.1682464997
 31
0.0
  0
LINE
  5
167
330
1F
100
AcDbEntity
  8
0
  6
HIDDEN
 62
     7
370
     0
100
AcDbLine
 10
235.1880250152
 20
122.9920702348
 30
0.0
 11
236.3292900499
 21
122.1061161081
 31
0.0
  0
LINE
  5
168
330
1F
100
AcDbEntity
  8
0
  6
HIDDEN
 62
     7
370
     0
100
AcDbLine
 10
234.9411425766
 20
122.9128193403
 30
0.0
 11
235.1880250152
 21
122.9920702348
 31
0.0
  0
LINE
  5
169
330
1F
100
AcDbEntity
  8
0
  6
HIDDEN
 62
     7
370
     0
100
AcDbLine
 10
234.9411425766
 20
104.0850517633
 30
0.0
 11
235.1880250152
 21
103.8860188159
 31
0.0
  0
LINE
  5
16A
330
1F
100
AcDbEntity
  8
0
  6
HIDDEN
 62
     7
370
     0
100
AcDbLine
 10
235.1880250152
 20
103.8860188159
 30
0.0
 11
236.3292900499
 21
104.3456004294
 31
0.0
  0
LINE
  5
16B
330
1F
100
AcDbEntity
  8
0
  6
HIDDEN
 62
     7
370
     0
100
AcDbLine
 10
236.3292900499
 20
104.3456004294
 30
0.0
 11
236.5201739248
 21
104.1895624543
 31
0.0
  0
SPLINE
  5
16C
330
1F
100
AcDbEntity
  8
0
  6
HIDDEN
 62
     7
370
     0
100
AcDbSpline
210
0.0
220
0.0
230
1.0
 70
     8
 71
     3
 72
     9
 73
     5
 74
     0
 42
0.00000001
 43
0.00000001
 40
0.0
 40
0.0
 40
0.0
 40
0.0
 40
0.5000511556972611
 40
1.0
 40
1.0
 40
1.0
 40
1.0
 10
236.5201739248069
 20
104.1895624543438
 30
0.0
 10
236.553383427745
 20
103.5003979678214
 30
0.0
 10
236.6197956388953
 20
102.1222099991096
 30
0.0
 10
236.5533788977732
 20
100.7440227692837
 30
0.0
 10
236.5201739248069
 20
100.0549996564994
 30
0.0
  0
LINE
  5
16D
330
1F
100
AcDbEntity
  8
0
  6
HIDDEN
 62
     7
370
     0
100
AcDbLine
 10
236.3292900499
 20
99.6604718561
 30
0.0
 11
236.5201739248
 21
100.0549996565
 31
0.0
  0
LINE
  5
16E
330
1F
100
AcDbEntity
  8
0
  6
HIDDEN
 62
     7
370
     0
100
AcDbLine
 10
235.1880250152
 20
98.5698726321
 30
0.0
 11
236.3292900499
 21
99.6604718561
 31
0.0
  0
LINE
  5
16F
330
1F
100
AcDbEntity
  8
0
  6
HIDDEN
 62
     7
370
     0
100
AcDbLine
 10
234.9411425766
 20
98.0666362042
 30
0.0
 11
235.1880250152
 21
98.5698726321
 31
0.0
  0
LINE
  5
170
330
1F
100
AcDbEntity
  8
0
  6
HIDDEN
 62
     7
370
     0
100
AcDbLine
 10
234.9411425766
 20
86.772184662
 30
0.0
 11
235.1880250152
 21
87.1084833811
 31
0.0
  0
LINE
  5
171
330
1F
100
AcDbEntity
  8
0
  6
HIDDEN
 62
     7
370
     0
100
AcDbLine
 10
235.1880250152
 20
87.1084833811
 30
0.0
 11
236.3292900499
 21
89.006246842
 31
0.0
  0
LINE
  5
172
330
1F
100
AcDbEntity
  8
0
  6
HIDDEN
 62
     7
370
     0
100
AcDbLine
 10
236.3292900499
 20
89.006246842
 30
0.0
 11
236.5201739248
 21
89.2698986749
 31
0.0
  0
SPLINE
  5
173
330
1F
100
AcDbEntity
  8
0
  6
HIDDEN
 62
     7
370
     0
100
AcDbSpline
210
0.0
220
0.0
230
1.0
 70
     8
 71
     3
 72
     9
 73
     5
 74
     0
 42
0.00000001
 43
0.00000001
 40
0.0
 40
0.0
 40
0.0
 40
0.0
 40
0.5000511979393082
 40
0.9999999999999999
 40
0.9999999999999999
 40
0.9999999999999999
 40
0.9999999999999999
 10
236.5201739248069
 20
89.2698986749063
 30
0.0
 10
236.5533834296157
 20
89.18384825330445
 30
0.0
 10
236.6197956388968
 20
89.01176503071352
 30
0.0
 10
236.5533788959033
 20
88.83968110023972
 30
0.0
 10
236.5201739248069
 20
88.75364794534545
 30
0.0
  0
LINE
  5
174
330
1F
100
AcDbEntity
  8
0
  6
HIDDEN
 62
     7
370
     0
100
AcDbLine
 10
236.3292900499
 20
88.4212514679
 30
0.0
 11
236.5201739248
 21
88.7536479453
 31
0.0
  0
LINE
  5
175
330
1F
100
AcDbEntity
  8
0
  6
HIDDEN
 62
     7
370
     0
100
AcDbLine
 10
236.1463782963
 20
88.1044695447
 30
0.0
 11
236.3292900499
 21
88.4212514679
 31
0.0
  0
LINE
  5
176
330
1F
100
AcDbEntity
  8
0
  6
HIDDEN
 62
     7
370
     0
100
AcDbLine
 10
224.224138039
 20
91.6168948929
 30
0.0
 11
224.224138039
 21
130.1168946843
 31
0.0
  0
LINE
  5
177
330
1F
100
AcDbEntity
  8
0
  6
HIDDEN
 62
     7
370
     0
100
AcDbLine
 10
226.3686386522
 20
90.616894729
 30
0.0
 11
226.3686386522
 21
131.1168948482
 31
0.0
  0
LINE
  5
178
330
1F
100
AcDbEntity
  8
0
  6
HIDDEN
 62
     7
370
     0
100
AcDbLine
 10
230.3686467584
 20
91.4168952326
 30
0.0
 11
230.3686467584
 21
130.3168943445
 31
0.0
  0
ARC
  5
179
330
1F
100
AcDbEntity
  8
0
  6
HIDDEN
 62
     7
370
     0
100
AcDbCircle
 10
223.1271972167
 20
119.8830333625
 30
0.0
 40
2.496401975688531
100
AcDbArc
 50
198.26769715
 51
272.0241996789
  0
SPLINE
  5
17A
330
1F
100
AcDbEntity
  8
0
  6
HIDDEN
 62
     7
370
     0
100
AcDbSpline
210
0.0
220
0.0
230
1.0
 70
     8
 71
     3
 72
    37
 73
    33
 74
     0
 42
0.00000001
 43
0.00000001
 40
0.0
 40
0.0
 40
0.0
 40
0.0
 40
0.0229573058675666
 40
0.186317320055257
 40
0.3540847152329443
 40
0.446331448526922
 40
0.4993928826839779
 40
0.5525983139509897
 40
0.6155024585977409
 40
0.6786470324626298
 40
0.7415520252301614
 40
0.7645525656457289
 40
0.7753034323051109
 40
0.7806300124390483
 40
0.7824152735212487
 40
0.7836257192134991
 40
0.7844451173563745
 40
0.785001991261063
 40
0.7853842044776428
 40
0.7857454574290696
 40
0.7859214308010573
 40
0.78605724640124
 40
0.7861499482470703
 40
0.7862435450482737
 40
0.7863538340197191
 40
0.7865413235519373
 40
0.7871272910479321
 40
0.789824495513844
 40
0.800528263753174
 40
0.8432811955639241
 40
0.9214070343192077
 40
1.0
 40
1.0
 40
1.0
 40
1.0
 10
231.8186489518913
 20
119.1584317306886
 30
0.0
 10
231.8187420601782
 20
119.2609158693478
 30
0.0
 10
231.8194977101051
 20
120.0926585038409
 30
0.0
 10
231.8400616626388
 20
121.5913195973457
 30
0.0
 10
231.890810295677
 20
123.1699084236508
 30
0.0
 10
231.9404841146754
 20
124.1862591999755
 30
0.0
 10
231.9757465231308
 20
124.7738311951198
 30
0.0
 10
232.0081826941824
 20
125.2377701124855
 30
0.0
 10
232.045335057261
 20
125.6853702125096
 30
0.0
 10
232.0886861346586
 20
126.1049881538497
 30
0.0
 10
232.1274758168267
 20
126.3935837487376
 30
0.0
 10
232.1610118650598
 20
126.5613619570463
 30
0.0
 10
232.1792956339088
 20
126.626001619483
 30
0.0
 10
232.1906557652596
 20
126.6547892540162
 30
0.0
 10
232.1978416960428
 20
126.6679709456972
 30
0.0
 10
232.2018571161562
 20
126.6739471605916
 30
0.0
 10
232.2052052200162
 20
126.6779358142718
 30
0.0
 10
232.2079563687462
 20
126.6806047633021
 30
0.0
 10
232.210500277355
 20
126.6825107609343
 30
0.0
 10
232.2127557784127
 20
126.6838003548966
 30
0.0
 10
232.2149615727532
 20
126.684620325866
 30
0.0
 10
232.2166560837164
 20
126.6849993230352
 30
0.0
 10
232.218247676748
 20
126.6851458228954
 30
0.0
 10
232.2197783172895
 20
126.6851053764304
 30
0.0
 10
232.2215870942761
 20
126.6848252206452
 30
0.0
 10
232.2247760568297
 20
126.6838135849934
 30
0.0
 10
232.2324825537265
 20
126.6787725641799
 30
0.0
 10
232.2469973059258
 20
126.6568234488876
 30
0.0
 10
232.2784749200146
 20
126.5660366818967
 30
0.0
 10
232.3186086107696
 20
126.3352514591034
 30
0.0
 10
232.3692889466308
 20
125.9347919196931
 30
0.0
 10
232.4021597947423
 20
125.5508914296855
 30
0.0
 10
232.4186442073615
 20
125.3583690444837
 30
0.0
  0
LINE
  5
17B
330
1F
100
AcDbEntity
  8
0
  6
HIDDEN
 62
     7
370
     0
100
AcDbLine
 10
231.8186489519
 20
94.6597157339
 30
0.0
 11
231.8186489519
 21
119.1584317307
 31
0.0
  0
SPLINE
  5
17C
330
1F
100
AcDbEntity
  8
0
  6
HIDDEN
 62
     7
370
     0
100
AcDbSpline
210
0.0
220
0.0
230
1.0
 70
     8
 71
     3
 72
    34
 73
    30
 74
     0
 42
0.00000001
 43
0.00000001
 40
0.0
 40
0.0
 40
0.0
 40
0.0
 40
0.0524140141449583
 40
0.1227387601658681
 40
0.1934092929069387
 40
0.2035653565251812
 40
0.2086060284163684
 40
0.210299728094634
 40
0.2114470099761667
 40
0.2122238696126542
 40
0.2127524791229431
 40
0.2131155639700602
 40
0.2134714108626349
 40
0.2136265170708452
 40
0.2137823943486675
 40
0.2138716953216182
 40
0.2139608119466079
 40
0.2140856185996689
 40
0.2143180634435421
 40
0.2153332925938838
 40
0.219339035269199
 40
0.2352927621096053
 40
0.2990706875234452
 40
0.3627434091636645
 40
0.4266665757810513
 40
0.5962398867269345
 40
0.7707318323663249
 40
0.8846365158582457
 40
1.0
 40
1.0
 40
1.0
 40
1.0
 10
232.4186442073615
 20
99.01030904752116
 30
0.0
 10
232.4077740841759
 20
99.19362706592393
 30
0.0
 10
232.3823193376845
 20
99.62290588880886
 30
0.0
 10
232.3353124413898
 20
100.3499686784036
 30
0.0
 10
232.2975910643804
 20
100.9500057185017
 30
0.0
 10
232.2568672231142
 20
101.3000331825948
 30
0.0
 10
232.2458337446063
 20
101.3689926952939
 30
0.0
 10
232.2388435458085
 20
101.4010084774318
 30
0.0
 10
232.2349269469435
 20
101.4156068530184
 30
0.0
 10
232.2316822337833
 20
101.4253912063093
 30
0.0
 10
232.2289825276092
 20
101.4319361904016
 30
0.0
 10
232.2264866346638
 20
101.4366721445912
 30
0.0
 10
232.2242726373422
 20
101.4398390817644
 30
0.0
 10
232.2219892800294
 20
101.4418793483781
 30
0.0
 10
232.2202417195899
 20
101.4428091766988
 30
0.0
 10
232.2185345167213
 20
101.4430228070003
 30
0.0
 10
232.2170059220496
 20
101.4427576579863
 30
0.0
 10
232.2150499367595
 20
101.4417702972102
 30
0.0
 10
232.210596247614
 20
101.4373187433193
 30
0.0
 10
232.2014974610376
 20
101.4165565972929
 30
0.0
 10
232.1832600783915
 20
101.3313730148888
 30
0.0
 10
232.1448880125278
 20
100.9889182782595
 30
0.0
 10
232.1057961165798
 20
100.4187942565186
 30
0.0
 10
232.0595075603488
 20
99.6958106305998
 30
0.0
 10
231.996296455236
 20
98.63787626656179
 30
0.0
 10
231.9217223658633
 20
97.35417524830187
 30
0.0
 10
231.8602655258736
 20
96.24642446521631
 30
0.0
 10
231.8251619860861
 20
95.51903667535578
 30
0.0
 10
231.8208291530225
 20
95.26438890022646
 30
0.0
 10
231.8186489518912
 20
95.13625486892562
 30
0.0
  0
LINE
  5
17D
330
1F
100
AcDbEntity
  8
0
  6
HIDDEN
 62
     7
370
     0
100
AcDbLine
 10
232.4186442074
 20
108.5729352957
 30
0.0
 11
232.4186442074
 21
99.0103090475
 31
0.0
  0
LINE
  5
17E
330
1F
100
AcDbEntity
  8
0
  6
HIDDEN
 62
     7
370
     0
100
AcDbLine
 10
237.6210121092
 20
97.3168945233
 30
0.0
 11
237.6210121092
 21
124.4168950538
 31
0.0
  0
ARC
  5
17F
330
1F
100
AcDbEntity
  8
0
  6
HIDDEN
 62
     7
370
     0
100
AcDbCircle
 10
223.1757311603
 20
119.8310104859
 30
0.0
 40
2.28712695647499
100
AcDbArc
 50
215.6527921826
 51
270.9931624364
  0
LINE
  5
180
330
1F
100
AcDbEntity
  8
0
  6
HIDDEN
 62
     7
370
     0
100
AcDbLine
 10
223.2153741297
 20
117.5442271228
 30
0.0
 11
235.9418002542
 21
117.5442271228
 31
0.0
  0
LINE
  5
181
330
1F
100
AcDbEntity
  8
0
  6
HIDDEN
 62
     7
370
     0
100
AcDbLine
 10
231.8186489519
 20
123.4262658576
 30
0.0
 11
231.8186489519
 21
121.204844519
 31
0.0
  0
LINE
  5
182
330
1F
100
AcDbEntity
  8
0
  6
HIDDEN
 62
     7
370
     0
100
AcDbLine
 10
232.4186442074
 20
127.4678947697
 30
0.0
 11
232.4186442074
 21
125.3583690445
 31
0.0
  0
SPLINE
  5
183
330
1F
100
AcDbEntity
  8
0
  6
HIDDEN
 62
     7
370
     0
100
AcDbSpline
210
0.0
220
0.0
230
1.0
 70
     8
 71
     3
 72
    38
 73
    34
 74
     0
 42
0.00000001
 43
0.00000001
 40
0.0
 40
0.0
 40
0.0
 40
0.0
 40
0.0523931680312775
 40
0.1226899727689849
 40
0.193332446097348
 40
0.2034844547820786
 40
0.2085231332644976
 40
0.2102161181913886
 40
0.2113630029515615
 40
0.2121395364436075
 40
0.2126679279892746
 40
0.2130308572180113
 40
0.2133865750027478
 40
0.2135416224312374
 40
0.2136974406356321
 40
0.2137867050141965
 40
0.2138757841343517
 40
0.2140005459650072
 40
0.2142329285292784
 40
0.2152477323913527
 40
0.2192518658732945
 40
0.2351992524481371
 40
0.2989518353305549
 40
0.3625992640862349
 40
0.4264969755277503
 40
0.5110299201138627
 40
0.5961493835451306
 40
0.6831203194805783
 40
0.7707319514251243
 40
0.8275947201615792
 40
0.8846359208545939
 40
0.9422249625428837
 40
1.0
 40
1.0
 40
1.0
 40
1.0
 10
232.4186442073615
 20
127.2222379515777
 30
0.0
 10
232.4077740992576
 20
127.2652751087708
 30
0.0
 10
232.3823193822137
 20
127.3660559518173
 30
0.0
 10
232.3353121305445
 20
127.4532218621465
 30
0.0
 10
232.2975917920336
 20
127.4720768040776
 30
0.0
 10
232.2568669717375
 20
127.4652207213613
 30
0.0
 10
232.2458340616423
 20
127.4632551429466
 30
0.0
 10
232.2388432909712
 20
127.4622172813935
 30
0.0
 10
232.2349271315248
 20
127.4617188610397
 30
0.0
 10
232.231682192496
 20
127.4613747302382
 30
0.0
 10
232.2289825794361
 20
127.4611414274003
 30
0.0
 10
232.2264865240857
 20
127.4609677235509
 30
0.0
 10
232.2242726703566
 20
127.4608501871902
 30
0.0
 10
232.2219892725261
 20
127.4607781782027
 30
0.0
 10
232.2202417503315
 20
127.4607411820505
 30
0.0
 10
232.2185345273999
 20
127.4607345175395
 30
0.0
 10
232.2170058669307
 20
127.4607427908483
 30
0.0
 10
232.2150498348889
 20
127.4607821248648
 30
0.0
 10
232.2105968834047
 20
127.4609420652081
 30
0.0
 10
232.2014963761461
 20
127.4617067207869
 30
0.0
 10
232.1832617876789
 20
127.4645453594505
 30
0.0
 10
232.1448851848656
 20
127.4720602767932
 30
0.0
 10
232.1057958938764
 20
127.4566369043524
 30
0.0
 10
232.0595121393407
 20
127.3758880652685
 30
0.0
 10
232.014357777924
 20
127.2198526805939
 30
0.0
 10
231.9692317255939
 20
126.9634523991361
 30
0.0
 10
231.9253631042731
 20
126.5774381562479
 30
0.0
 10
231.8871536765986
 20
126.0824683182291
 30
0.0
 10
231.8594219381728
 20
125.5500214015964
 30
0.0
 10
231.8405339034682
 20
125.0239111566731
 30
0.0
 10
231.8284391684448
 20
124.534683953803
 30
0.0
 10
231.8202984117946
 20
124.0057400214555
 30
0.0
 10
231.8191993625066
 20
123.6196314134808
 30
0.0
 10
231.8186489518912
 20
123.4262658576379
 30
0.0
  0
LINE
  5
184
330
1F
100
AcDbEntity
  8
0
  6
HIDDEN
 62
     7
370
     0
100
AcDbLine
 10
223.2153741297
 20
117.3881891477
 30
0.0
 11
236.3292900499
 21
117.3881891477
 31
0.0
  0
ARC
  5
185
330
1F
100
AcDbEntity
  8
0
  6
HIDDEN
 62
     7
370
     0
100
AcDbCircle
 10
222.9402660825
 20
97.3624575851
 30
0.0
 40
2.281860521188822
100
AcDbArc
 50
83.0754015303
 51
176.1295844387
  0
ARC
  5
186
330
1F
100
AcDbEntity
  8
0
  6
HIDDEN
 62
     7
370
     0
100
AcDbCircle
 10
223.0104813307
 20
97.4970121104
 30
0.0
 40
2.078653751964067
100
AcDbArc
 50
84.3431721399
 51
169.2916676068
  0
LINE
  5
187
330
1F
100
AcDbEntity
  8
0
  6
HIDDEN
 62
     7
370
     0
100
AcDbLine
 10
223.2153741297
 20
99.5655430774
 30
0.0
 11
236.2492559131
 21
99.5655430774
 31
0.0
  0
LINE
  5
188
330
1F
100
AcDbEntity
  8
0
  6
HIDDEN
 62
     7
370
     0
100
AcDbLine
 10
223.2153741297
 20
99.627673469
 30
0.0
 11
236.3292900499
 21
99.627673469
 31
0.0
  0
LINE
  5
189
330
1F
100
AcDbEntity
  8
0
  6
HIDDEN
 62
     7
370
     0
100
AcDbLine
 10
231.8186489519
 20
119.5987750138
 30
0.0
 11
231.8186489519
 21
119.1584317307
 31
0.0
  0
SPLINE
  5
18A
330
1F
100
AcDbEntity
  8
0
  6
HIDDEN
 62
     7
370
     0
100
AcDbSpline
210
0.0
220
0.0
230
1.0
 70
     8
 71
     3
 72
    36
 73
    32
 74
     0
 42
0.00000001
 43
0.00000001
 40
0.0
 40
0.0
 40
0.0
 40
0.0
 40
0.0674476583260184
 40
0.2365638866697806
 40
0.4105795738797512
 40
0.4607714654990056
 40
0.511085138240048
 40
0.5729734810819078
 40
0.6379557041439915
 40
0.7032035019237981
 40
0.753749958894488
 40
0.7701035399514681
 40
0.7780386707401145
 40
0.7820005292246667
 40
0.7833445182542066
 40
0.7842538896350708
 40
0.7848710363726615
 40
0.7852930591580607
 40
0.7856560399064656
 40
0.7859101036212088
 40
0.7860301197804629
 40
0.7861301975127882
 40
0.7862313807251213
 40
0.7863378282958904
 40
0.7865122300591836
 40
0.787033528934557
 40
0.7893906462572948
 40
0.7987387529695008
 40
0.8360660354283856
 40
0.9177648384060494
 40
1.0
 40
1.0
 40
1.0
 40
1.0
 10
231.8186489518912
 20
117.0324742155979
 30
0.0
 10
231.8194480078485
 20
116.7215203881957
 30
0.0
 10
231.8222505926615
 20
115.6308902935295
 30
0.0
 10
231.8551529383142
 20
113.6299320756961
 30
0.0
 10
231.9088650737824
 20
111.6481266146199
 30
0.0
 10
231.9549836085298
 20
110.2600534344778
 30
0.0
 10
231.9843996056829
 20
109.4391916907886
 30
0.0
 10
232.01911190744
 20
108.5463602328927
 30
0.0
 10
232.0601481018133
 20
107.5854013882875
 30
0.0
 10
232.1035031944204
 20
106.6917926259157
 30
0.0
 10
232.1405594893527
 20
106.0479612709761
 30
0.0
 10
232.169880666567
 20
105.6874858049077
 30
0.0
 10
232.184997692219
 20
105.5522708750635
 30
0.0
 10
232.1946579273505
 20
105.4892978610465
 30
0.0
 10
232.2008607566765
 20
105.4600464126336
 30
0.0
 10
232.204370742946
 20
105.4466768969234
 30
0.0
 10
232.2072716160463
 20
105.4377390299716
 30
0.0
 10
232.2098424751178
 20
105.4314611078155
 30
0.0
 10
232.2122377603405
 20
105.4270192002963
 30
0.0
 10
232.2144950729264
 20
105.4241524659127
 30
0.0
 10
232.2164249151972
 20
105.4227660630757
 30
0.0
 10
232.2179710823773
 20
105.4222052599434
 30
0.0
 10
232.2195719597258
 20
105.4222543399713
 30
0.0
 10
232.2213690650503
 20
105.4230156824824
 30
0.0
 10
232.2243611092047
 20
105.4256991666573
 30
0.0
 10
232.2315371737278
 20
105.438896199778
 30
0.0
 10
232.2451057672878
 20
105.4964406093414
 30
0.0
 10
232.2743114148235
 20
105.7303748591546
 30
0.0
 10
232.3154349605364
 20
106.3511961756846
 30
0.0
 10
232.366877832568
 20
107.3400586583929
 30
0.0
 10
232.4013511525314
 20
108.1610810105347
 30
0.0
 10
232.4186442073615
 20
108.5729352957467
 30
0.0
  0
LWPOLYLINE
  5
18B
330
1F
100
AcDbEntity
  8
0
  6
HIDDEN
 62
     7
370
     0
100
AcDbPolyline
 90
        9
 70
   128
 43
0.0
 10
223.2153741297
 20
134.625306196
 10
222.3992673334
 20
134.6387489061
 10
221.6492918905
 20
134.6779929767
 10
221.0261700329
 20
134.7398551474
 10
220.5804166969
 20
134.8193249027
 10
220.3481224951
 20
134.909964941
 10
220.3481224951
 20
135.004432715
 10
220.5804166969
 20
135.0950727533
 10
220.8784995254
 20
135.153323255
  0
LWPOLYLINE
  5
18C
330
1F
100
AcDbEntity
  8
0
  6
HIDDEN
 62
     7
370
     0
100
AcDbPolyline
 90
       11
 70
   128
 43
0.0
 10
223.2153741297
 20
132.7275427352
 10
222.4264917549
 20
132.7418571631
 10
221.7148271974
 20
132.7834034632
 10
221.1500433859
 20
132.8481136183
 10
220.7874236282
 20
132.9296527724
 10
220.6624773916
 20
133.0200394909
 10
220.7874236282
 20
133.110428072
 10
221.1500433859
 20
133.1919672261
 10
221.7148271974
 20
133.2566773812
 10
222.4264917549
 20
133.2982236813
 10
223.2153741297
 20
133.3125381092
  0
LINE
  5
18D
330
1F
100
AcDbEntity
  8
0
  6
HIDDEN
 62
     7
370
     0
100
AcDbLine
 10
223.2153741297
 20
134.625306196
 30
0.0
 11
235.1880250152
 21
134.625306196
 31
0.0
  0
LINE
  5
18E
330
1F
100
AcDbEntity
  8
0
  6
HIDDEN
 62
     7
370
     0
100
AcDbLine
 10
223.2153741297
 20
132.7275427352
 30
0.0
 11
236.3292900499
 21
132.7275427352
 31
0.0
  0
LWPOLYLINE
  5
18F
330
1F
100
AcDbEntity
  8
0
  6
HIDDEN
 62
     7
370
     0
100
AcDbPolyline
 90
       11
 70
   128
 43
0.0
 10
223.2153741297
 20
132.4638909022
 10
222.5191918787
 20
132.4765233616
 10
221.8911526378
 20
132.5131876687
 10
221.3927534994
 20
132.5702926437
 10
221.0727510628
 20
132.6422503511
 10
220.9624824699
 20
132.722016267
 10
221.0727510628
 20
132.8017821829
 10
221.3927534994
 20
132.8737380276
 10
221.8911526378
 20
132.9308448653
 10
222.5191918787
 20
132.9675073097
 10
223.2153741297
 20
132.9801416318
  0
LINE
  5
190
330
1F
100
AcDbEntity
  8
0
  6
HIDDEN
 62
     7
370
     0
100
AcDbLine
 10
223.2153741297
 20
132.9801416318
 30
0.0
 11
236.1773876127
 21
132.9801416318
 31
0.0
  0
LINE
  5
191
330
1F
100
AcDbEntity
  8
0
  6
HIDDEN
 62
     7
370
     0
100
AcDbLine
 10
223.2153741297
 20
132.4638909022
 30
0.0
 11
236.5201739248
 21
132.4638909022
 31
0.0
  0
LWPOLYLINE
  5
192
330
1F
100
AcDbEntity
  8
0
  6
HIDDEN
 62
     7
370
     0
100
AcDbPolyline
 90
       12
 70
   128
 43
0.0
 10
223.2153741297
 20
87.1084833811
 10
222.3992673334
 20
87.0950406711
 10
221.6492918905
 20
87.0557966004
 10
221.0261700329
 20
86.9939344297
 10
220.5804166969
 20
86.9144646744
 10
220.3481224951
 20
86.8238246362
 10
220.3481224951
 20
86.7293568621
 10
220.5804166969
 20
86.6387168239
 10
221.0261700329
 20
86.5592470686
 10
221.6492918905
 20
86.4973848979
 10
222.3992673334
 20
86.4581408272
 10
223.2153741297
 20
86.4446981172
  0
LWPOLYLINE
  5
193
330
1F
100
AcDbEntity
  8
0
  6
HIDDEN
 62
     7
370
     0
100
AcDbPolyline
 90
       11
 70
   128
 43
0.0
 10
223.2153741297
 20
89.006246842
 10
222.4264917549
 20
88.991932414
 10
221.7148271974
 20
88.9503861139
 10
221.1500433859
 20
88.8856759588
 10
220.7874236282
 20
88.8041368048
 10
220.6624773916
 20
88.7137500862
 10
220.7874236282
 20
88.6233615051
 10
221.1500433859
 20
88.541822351
 10
221.7148271974
 20
88.4771121959
 10
222.4264917549
 20
88.4355658959
 10
223.2153741297
 20
88.4212514679
  0
LINE
  5
194
330
1F
100
AcDbEntity
  8
0
  6
HIDDEN
 62
     7
370
     0
100
AcDbLine
 10
223.2153741297
 20
133.3125381092
 30
0.0
 11
235.9774885353
 21
133.3125381092
 31
0.0
  0
LINE
  5
195
330
1F
100
AcDbEntity
  8
0
  6
HIDDEN
 62
     7
370
     0
100
AcDbLine
 10
223.2153741297
 20
86.4446981172
 30
0.0
 11
235.1880250152
 21
86.4446981172
 31
0.0
  0
LWPOLYLINE
  5
196
330
1F
100
AcDbEntity
  8
0
  6
HIDDEN
 62
     7
370
     0
100
AcDbPolyline
 90
       11
 70
   128
 43
0.0
 10
223.2153741297
 20
89.2698986749
 10
222.5191918787
 20
89.2572662155
 10
221.8911526378
 20
89.2206019084
 10
221.3927534994
 20
89.1634969334
 10
221.0727510628
 20
89.091539226
 10
220.9624824699
 20
89.0117733101
 10
221.0727510628
 20
88.9320073943
 10
221.3927534994
 20
88.8600515495
 10
221.8911526378
 20
88.8029447119
 10
222.5191918787
 20
88.7662822674
 10
223.2153741297
 20
88.7536479453
  0
LINE
  5
197
330
1F
100
AcDbEntity
  8
0
  6
HIDDEN
 62
     7
370
     0
100
AcDbLine
 10
223.2153741297
 20
88.4212514679
 30
0.0
 11
236.3292900499
 21
88.4212514679
 31
0.0
  0
LINE
  5
198
330
1F
100
AcDbEntity
  8
0
  6
HIDDEN
 62
     7
370
     0
100
AcDbLine
 10
223.2153741297
 20
88.7536479453
 30
0.0
 11
236.5201739248
 21
88.7536479453
 31
0.0
  0
LINE
  5
199
330
1F
100
AcDbEntity
  8
0
  6
HIDDEN
 62
     7
370
     0
100
AcDbLine
 10
223.2153741297
 20
87.1084833811
 30
0.0
 11
235.1880250152
 21
87.1084833811
 31
0.0
  0
LINE
  5
19A
330
1F
100
AcDbEntity
  8
0
  6
HIDDEN
 62
     7
370
     0
100
AcDbLine
 10
223.2153741297
 20
89.006246842
 30
0.0
 11
236.3292900499
 21
89.006246842
 31
0.0
  0
LINE
  5
19B
330
1F
100
AcDbEntity
  8
0
  6
HIDDEN
 62
     7
370
     0
100
AcDbLine
 10
223.2153741297
 20
89.2698986749
 30
0.0
 11
236.5201739248
 21
89.2698986749
 31
0.0
  0
LINE
  5
19C
330
1F
100
AcDbEntity
  8
0
  6
HIDDEN
 62
     7
370
     0
100
AcDbLine
 10
231.8186489519
 20
121.204844519
 30
0.0
 11
231.8186489519
 21
119.5987750138
 31
0.0
  0
LWPOLYLINE
  5
19D
330
1F
100
AcDbEntity
  8
0
  6
HIDDEN
 62
     7
370
     0
100
AcDbPolyline
 90
       12
 70
   128
 43
0.0
 10
223.2153741297
 20
127.6444288264
 10
222.3992673334
 20
127.5502031962
 10
221.6492918905
 20
127.2751557003
 10
221.0261700329
 20
126.8415728877
 10
220.5804166969
 20
126.2845795895
 10
220.3481224951
 20
125.6492993156
 10
220.3481224951
 20
124.9871997456
 10
220.5804166969
 20
124.3519194717
 10
221.0261700329
 20
123.7949261735
 10
221.6492918905
 20
123.361343361
 10
222.3992673334
 20
123.0862967963
 10
223.2153741297
 20
122.9920702348
  0
LWPOLYLINE
  5
19E
330
1F
100
AcDbEntity
  8
0
  6
HIDDEN
 62
     7
370
     0
100
AcDbPolyline
 90
       11
 70
   128
 43
0.0
 10
223.2153741297
 20
126.2062479104
 10
222.4264917549
 20
126.1059109415
 10
221.7148271974
 20
125.8147199
 10
221.1500433859
 20
125.3611807073
 10
220.7874236282
 20
124.7896867166
 10
220.6624773916
 20
124.1561815436
 10
220.7874236282
 20
123.5226763706
 10
221.1500433859
 20
122.9511833112
 10
221.7148271974
 20
122.4976441185
 10
222.4264917549
 20
122.206453077
 10
223.2153741297
 20
122.1061161081
  0
LINE
  5
19F
330
1F
100
AcDbEntity
  8
0
  6
HIDDEN
 62
     7
370
     0
100
AcDbLine
 10
223.2153741297
 20
126.2062479104
 30
0.0
 11
236.3292900499
 21
126.2062479104
 31
0.0
  0
LINE
  5
1A0
330
1F
100
AcDbEntity
  8
0
  6
HIDDEN
 62
     7
370
     0
100
AcDbLine
 10
223.2153741297
 20
125.7865576367
 30
0.0
 11
236.5201739248
 21
125.7865576367
 31
0.0
  0
LWPOLYLINE
  5
1A1
330
1F
100
AcDbEntity
  8
0
  6
HIDDEN
 62
     7
370
     0
100
AcDbPolyline
 90
       11
 70
   128
 43
0.0
 10
223.2153741297
 20
125.7865576367
 10
222.5191918787
 20
125.6980112116
 10
221.8911526378
 20
125.4410397555
 10
221.3927534994
 20
125.0407973598
 10
221.0727510628
 20
124.5364619712
 10
220.9624824699
 20
123.9774020682
 10
221.0727510628
 20
123.4183421652
 10
221.3927534994
 20
122.914007708
 10
221.8911526378
 20
122.5137643809
 10
222.5191918787
 20
122.2567929248
 10
223.2153741297
 20
122.1682464997
  0
LINE
  5
1A2
330
1F
100
AcDbEntity
  8
0
  6
HIDDEN
 62
     7
370
     0
100
AcDbLine
 10
223.2153741297
 20
127.6444288264
 30
0.0
 11
235.1880250152
 21
127.6444288264
 31
0.0
  0
ARC
  5
1A3
330
1F
100
AcDbEntity
  8
0
  6
HIDDEN
 62
     7
370
     0
100
AcDbCircle
 10
223.0409930692
 20
101.227945724
 30
0.0
 40
2.663787025273267
100
AcDbArc
 50
86.2465284397
 51
273.7534715603
  0
ARC
  5
1A4
330
1F
100
AcDbEntity
  8
0
  6
HIDDEN
 62
     7
370
     0
100
AcDbCircle
 10
223.0691317252
 20
102.0030361428
 30
0.0
 40
2.347124683098032
100
AcDbArc
 50
86.4277553691
 51
273.5722446309
  0
ARC
  5
1A5
330
1F
100
AcDbEntity
  8
0
  6
HIDDEN
 62
     7
370
     0
100
AcDbCircle
 10
223.0863130895
 20
102.1222810554
 30
0.0
 40
2.071306142127984
100
AcDbArc
 50
86.4276424529
 51
273.5723575471
  0
LINE
  5
1A6
330
1F
100
AcDbEntity
  8
0
  6
HIDDEN
 62
     7
370
     0
100
AcDbLine
 10
223.2153741297
 20
122.1682464997
 30
0.0
 11
236.5201739248
 21
122.1682464997
 31
0.0
  0
LINE
  5
1A7
330
1F
100
AcDbEntity
  8
0
  6
HIDDEN
 62
     7
370
     0
100
AcDbLine
 10
223.2153741297
 20
100.0549996565
 30
0.0
 11
236.5201739248
 21
100.0549996565
 31
0.0
  0
LINE
  5
1A8
330
1F
100
AcDbEntity
  8
0
  6
HIDDEN
 62
     7
370
     0
100
AcDbLine
 10
223.2153741297
 20
122.9920702348
 30
0.0
 11
235.1880250152
 21
122.9920702348
 31
0.0
  0
LINE
  5
1A9
330
1F
100
AcDbEntity
  8
0
  6
HIDDEN
 62
     7
370
     0
100
AcDbLine
 10
223.2153741297
 20
122.1061161081
 30
0.0
 11
236.3292900499
 21
122.1061161081
 31
0.0
  0
LINE
  5
1AA
330
1F
100
AcDbEntity
  8
0
  6
HIDDEN
 62
     7
370
     0
100
AcDbLine
 10
223.2153741297
 20
99.6604718561
 30
0.0
 11
236.3292900499
 21
99.6604718561
 31
0.0
  0
LINE
  5
1AB
330
1F
100
AcDbEntity
  8
0
  6
HIDDEN
 62
     7
370
     0
100
AcDbLine
 10
223.2153741297
 20
98.5698726321
 30
0.0
 11
235.1880250152
 21
98.5698726321
 31
0.0
  0
LINE
  5
1AC
330
1F
100
AcDbEntity
  8
0
  6
HIDDEN
 62
     7
370
     0
100
AcDbLine
 10
223.2153741297
 20
104.1895624543
 30
0.0
 11
236.5201739248
 21
104.1895624543
 31
0.0
  0
LINE
  5
1AD
330
1F
100
AcDbEntity
  8
0
  6
HIDDEN
 62
     7
370
     0
100
AcDbLine
 10
223.2153741297
 20
103.8860188159
 30
0.0
 11
235.1880250152
 21
103.8860188159
 31
0.0
  0
LINE
  5
1AE
330
1F
100
AcDbEntity
  8
0
  6
HIDDEN
 62
     7
370
     0
100
AcDbLine
 10
223.2153741297
 20
104.3456004294
 30
0.0
 11
236.3292900499
 21
104.3456004294
 31
0.0
  0
LINE
  5
1AF
330
1F
100
AcDbEntity
  8
0
  6
HIDDEN
 62
     7
370
     0
100
AcDbLine
 10
187.9042191085
 20
104.8668947364
 30
0.0
 11
187.9042191085
 21
116.8668948407
 31
0.0
  0
LINE
  5
1B0
330
1F
100
AcDbEntity
  8
0
  6
HIDDEN
 62
     7
370
     0
100
AcDbLine
 10
172.9042185124
 20
104.8668947364
 30
0.0
 11
172.9042185124
 21
116.8668948407
 31
0.0
  0
LINE
  5
1B1
330
1F
100
AcDbEntity
  8
0
  6
HIDDEN
 62
     7
370
     0
100
AcDbLine
 10
188.4042201217
 20
105.3668948184
 30
0.0
 11
188.4042201217
 21
116.3668947588
 31
0.0
  0
LINE
  5
1B2
330
1F
100
AcDbEntity
  8
0
  6
HIDDEN
 62
     7
370
     0
100
AcDbLine
 10
172.4042174991
 20
105.3668948184
 30
0.0
 11
172.4042174991
 21
116.3668947588
 31
0.0
  0
LINE
  5
1B3
330
1F
100
AcDbEntity
  8
0
  6
HIDDEN
 62
     7
370
     0
100
AcDbLine
 10
192.4042207774
 20
109.3668947755
 30
0.0
 11
190.4042241749
 21
109.3668947755
 31
0.0
  0
LINE
  5
1B4
330
1F
100
AcDbEntity
  8
0
  6
HIDDEN
 62
     7
370
     0
100
AcDbLine
 10
192.4042207774
 20
105.3668948184
 30
0.0
 11
192.4042207774
 21
109.3668947755
 31
0.0
  0
LINE
  5
1B5
330
1F
100
AcDbEntity
  8
0
  6
HIDDEN
 62
     7
370
     0
100
AcDbLine
 10
192.4042207774
 20
112.3668948016
 30
0.0
 11
192.4042207774
 21
116.3668947588
 31
0.0
  0
LINE
  5
1B6
330
1F
100
AcDbEntity
  8
0
  6
HIDDEN
 62
     7
370
     0
100
AcDbLine
 10
190.4042241749
 20
112.3668948016
 30
0.0
 11
192.4042207774
 21
112.3668948016
 31
0.0
  0
LINE
  5
1B7
330
1F
100
AcDbEntity
  8
0
  6
HIDDEN
 62
     7
370
     0
100
AcDbLine
 10
190.4042241749
 20
109.3668947755
 30
0.0
 11
190.4042241749
 21
112.3668948016
 31
0.0
  0
LINE
  5
1B8
330
1F
100
AcDbEntity
  8
0
  6
HIDDEN
 62
     7
370
     0
100
AcDbLine
 10
185.4042214927
 20
110.8668947886
 30
0.0
 11
185.4042214927
 21
109.3668947755
 31
0.0
  0
LINE
  5
1B9
330
1F
100
AcDbEntity
  8
0
  6
HIDDEN
 62
     7
370
     0
100
AcDbLine
 10
185.4042214927
 20
110.8668947886
 30
0.0
 11
190.4042241749
 21
110.8668947886
 31
0.0
  0
LINE
  5
1BA
330
1F
100
AcDbEntity
  8
0
  6
HIDDEN
 62
     7
370
     0
100
AcDbLine
 10
185.4042214927
 20
112.3668948016
 30
0.0
 11
185.4042214927
 21
110.8668947886
 31
0.0
  0
LINE
  5
1BB
330
1F
100
AcDbEntity
  8
0
  6
HIDDEN
 62
     7
370
     0
100
AcDbLine
 10
179.4042167839
 20
110.8668947886
 30
0.0
 11
172.4042174991
 21
110.8668947886
 31
0.0
  0
LINE
  5
1BC
330
1F
100
AcDbEntity
  8
0
  6
HIDDEN
 62
     7
370
     0
100
AcDbLine
 10
179.4042167839
 20
109.3668947755
 30
0.0
 11
179.4042167839
 21
110.8668947886
 31
0.0
  0
LINE
  5
1BD
330
1F
100
AcDbEntity
  8
0
  6
HIDDEN
 62
     7
370
     0
100
AcDbLine
 10
179.4042167839
 20
110.8668947886
 30
0.0
 11
179.4042167839
 21
112.3668948016
 31
0.0
  0
LINE
  5
1BE
330
1F
100
AcDbEntity
  8
0
  6
HIDDEN
 62
     7
370
     0
100
AcDbLine
 10
185.4042214927
 20
109.3668947755
 30
0.0
 11
185.4042214927
 21
107.8668947625
 31
0.0
  0
LINE
  5
1BF
330
1F
100
AcDbEntity
  8
0
  6
HIDDEN
 62
     7
370
     0
100
AcDbLine
 10
179.4042167839
 20
107.8668947625
 30
0.0
 11
179.4042167839
 21
109.3668947755
 31
0.0
  0
LINE
  5
1C0
330
1F
100
AcDbEntity
  8
0
  6
HIDDEN
 62
     7
370
     0
100
AcDbLine
 10
179.4042167839
 20
112.3668948016
 30
0.0
 11
179.4042167839
 21
113.8668948146
 31
0.0
  0
LINE
  5
1C1
330
1F
100
AcDbEntity
  8
0
  6
HIDDEN
 62
     7
370
     0
100
AcDbLine
 10
185.4042214927
 20
113.8668948146
 30
0.0
 11
185.4042214927
 21
112.3668948016
 31
0.0
  0
LINE
  5
1C2
330
1F
100
AcDbEntity
  8
0
  6
HIDDEN
 62
     7
370
     0
100
AcDbLine
 10
179.4042167839
 20
107.8668947625
 30
0.0
 11
172.4042174991
 21
107.8668947625
 31
0.0
  0
LINE
  5
1C3
330
1F
100
AcDbEntity
  8
0
  6
HIDDEN
 62
     7
370
     0
100
AcDbLine
 10
185.4042214927
 20
113.8668948146
 30
0.0
 11
192.4042207774
 21
113.8668948146
 31
0.0
  0
LINE
  5
1C4
330
1F
100
AcDbEntity
  8
0
  6
HIDDEN
 62
     7
370
     0
100
AcDbLine
 10
179.4042167839
 20
113.8668948146
 30
0.0
 11
172.4042174991
 21
113.8668948146
 31
0.0
  0
LINE
  5
1C5
330
1F
100
AcDbEntity
  8
0
  6
HIDDEN
 62
     7
370
     0
100
AcDbLine
 10
185.4042214927
 20
107.8668947625
 30
0.0
 11
192.4042207774
 21
107.8668947625
 31
0.0
  0
LINE
  5
1C6
330
1F
100
AcDbEntity
  8
0
  6
HIDDEN
 62
     7
370
     0
100
AcDbLine
 10
82.318643539
 20
125.1675252165
 30
0.0
 11
82.318643539
 21
123.2608350287
 31
0.0
  0
LINE
  5
1C7
330
1F
100
AcDbEntity
  8
0
  6
HIDDEN
 62
     7
370
     0
100
AcDbLine
 10
90.3186434534
 20
123.2608350287
 30
0.0
 11
90.3186434534
 21
125.1647303174
 31
0.0
  0
LINE
  5
1C8
330
1F
100
AcDbEntity
  8
0
  6
HIDDEN
 62
     7
370
     0
100
AcDbLine
 10
78.3186433491
 20
85.5429636608
 30
0.0
 11
78.4128041213
 21
86.212951533
 31
0.0
  0
LINE
  5
1C9
330
1F
100
AcDbEntity
  8
0
  6
HIDDEN
 62
     7
370
     0
100
AcDbLine
 10
78.4128041213
 20
135.5208380441
 30
0.0
 11
78.3186433491
 21
136.1908259164
 31
0.0
  0
ARC
  5
1CA
330
1F
100
AcDbEntity
  8
0
  6
HIDDEN
 62
     7
370
     0
100
AcDbCircle
 10
77.8186365964
 20
86.2964571742
 30
0.0
 40
0.6000067526677242
100
AcDbArc
 50
352.0
 51
0.0
  0
ARC
  5
1CB
330
1F
100
AcDbEntity
  8
0
  6
HIDDEN
 62
     7
370
     0
100
AcDbCircle
 10
77.8186365964
 20
86.2964571742
 30
0.0
 40
0.6000067526677242
100
AcDbArc
 50
0.0
 51
33.5571153394
  0
ARC
  5
1CC
330
1F
100
AcDbEntity
  8
0
  6
HIDDEN
 62
     7
370
     0
100
AcDbCircle
 10
77.8186365964
 20
135.437332403
 30
0.0
 40
0.6000067526677253
100
AcDbArc
 50
348.75
 51
8.0
  0
LWPOLYLINE
  5
1CD
330
1F
100
AcDbEntity
  8
0
  6
HIDDEN
 62
     7
370
     0
100
AcDbPolyline
 90
        3
 70
   128
 43
0.0
 10
78.407114388
 20
135.3202777277
 10
78.3729705562
 20
135.2077199439
 10
78.3186433491
 20
135.1056674789
  0
LINE
  5
1CE
330
1F
100
AcDbEntity
  8
0
  6
HIDDEN
 62
     7
370
     0
100
AcDbLine
 10
78.4186433465
 20
86.2964576404
 30
0.0
 11
78.4186433465
 21
135.4373319368
 31
0.0
  0
LINE
  5
1CF
330
1F
100
AcDbEntity
  8
0
  6
HIDDEN
 62
     7
370
     0
100
AcDbLine
 10
224.5686379846
 20
130.8668943415
 30
0.0
 11
215.8186463293
 21
130.8668943415
 31
0.0
  0
LINE
  5
1D0
330
1F
100
AcDbEntity
  8
0
  6
HIDDEN
 62
     7
370
     0
100
AcDbLine
 10
215.8186463293
 20
90.8668952356
 30
0.0
 11
224.5686379846
 21
90.8668952356
 31
0.0
  0
LINE
  5
1D1
330
1F
100
AcDbEntity
  8
0
  6
HIDDEN
 62
     7
370
     0
100
AcDbLine
 10
224.5686379846
 20
90.8668952356
 30
0.0
 11
225.3186432298
 21
91.6168948929
 31
0.0
  0
LINE
  5
1D2
330
1F
100
AcDbEntity
  8
0
  6
HIDDEN
 62
     7
370
     0
100
AcDbLine
 10
225.3186432298
 20
130.1168946843
 30
0.0
 11
224.5686379846
 21
130.8668943415
 31
0.0
  0
ARC
  5
1D3
330
1F
100
AcDbEntity
  8
0
  6
HIDDEN
 62
     7
370
     0
100
AcDbCircle
 10
72.0736453507
 20
98.8668947886
 30
0.0
 40
8.000000000000014
100
AcDbArc
 50
277.0410626109
 51
321.3178125465
  0
ARC
  5
1D4
330
1F
100
AcDbEntity
  8
0
  6
HIDDEN
 62
     7
370
     0
100
AcDbCircle
 10
72.0736453507
 20
122.8668947886
 30
0.0
 40
8.000000000000016
100
AcDbArc
 50
38.6821874535
 51
82.8524015534
  0
ARC
  5
1D5
330
1F
100
AcDbEntity
  8
0
  6
HIDDEN
 62
     7
370
     0
100
AcDbCircle
 10
61.4010789144
 20
91.4668947886
 30
0.0
 40
0.6000000000000032
100
AcDbArc
 50
210.0
 51
270.0
  0
ARC
  5
1D6
330
1F
100
AcDbEntity
  8
0
  6
HIDDEN
 62
     7
370
     0
100
AcDbCircle
 10
61.4010789144
 20
130.2668947886
 30
0.0
 40
0.6000000000000032
100
AcDbArc
 50
90.0
 51
150.0
  0
LINE
  5
1D7
330
1F
100
AcDbEntity
  8
0
  6
HIDDEN
 62
     7
370
     0
100
AcDbLine
 10
61.4010793742
 20
90.8668952356
 30
0.0
 11
65.5717607241
 21
90.8668952356
 31
0.0
  0
LINE
  5
1D8
330
1F
100
AcDbEntity
  8
0
  6
HIDDEN
 62
     7
370
     0
100
AcDbLine
 10
65.5717607241
 20
130.8668943415
 30
0.0
 11
61.4010793742
 21
130.8668943415
 31
0.0
  0
LINE
  5
1D9
330
1F
100
AcDbEntity
  8
0
  6
HIDDEN
 62
     7
370
     0
100
AcDbLine
 10
60.8814628449
 20
130.5668948511
 30
0.0
 11
59.3226188448
 21
127.8668957124
 31
0.0
  0
LINE
  5
1DA
330
1F
100
AcDbEntity
  8
0
  6
HIDDEN
 62
     7
370
     0
100
AcDbLine
 10
59.3226188448
 20
93.8668938647
 30
0.0
 11
60.8814628449
 21
91.166894726
 31
0.0
  0
LINE
  5
1DB
330
1F
100
AcDbEntity
  8
0
  6
HIDDEN
 62
     7
370
     0
100
AcDbLine
 10
82.318643539
 20
138.1465604822
 30
0.0
 11
82.318643539
 21
134.8124964456
 31
0.0
  0
LINE
  5
1DC
330
1F
100
AcDbEntity
  8
0
  6
HIDDEN
 62
     7
370
     0
100
AcDbLine
 10
90.3186434534
 20
134.8124964456
 30
0.0
 11
90.3186434534
 21
138.1412277291
 31
0.0
  0
ARC
  5
1DD
330
1F
100
AcDbEntity
  8
0
  6
HIDDEN
 62
     7
370
     0
100
AcDbCircle
 10
86.7686433491
 20
95.1418947886
 30
0.0
 40
1.5
100
AcDbArc
 50
238.2116693829
 51
0.0
  0
ARC
  5
1DE
330
1F
100
AcDbEntity
  8
0
  6
HIDDEN
 62
     7
370
     0
100
AcDbCircle
 10
86.7686433491
 20
126.5918947886
 30
0.0
 40
1.500000000000001
100
AcDbArc
 50
0.0
 51
121.7883306171
  0
LINE
  5
1DF
330
1F
100
AcDbEntity
  8
0
  6
HIDDEN
 62
     7
370
     0
100
AcDbLine
 10
78.3186433491
 20
93.8668938647
 30
0.0
 11
85.9784693111
 21
93.8668938647
 31
0.0
  0
LINE
  5
1E0
330
1F
100
AcDbEntity
  8
0
  6
HIDDEN
 62
     7
370
     0
100
AcDbLine
 10
85.9784693111
 20
127.8668957124
 30
0.0
 11
78.3186433491
 21
127.8668957124
 31
0.0
  0
LINE
  5
1E1
330
1F
100
AcDbEntity
  8
0
  6
HIDDEN
 62
     7
370
     0
100
AcDbLine
 10
56.5186431285
 20
93.8668938647
 30
0.0
 11
59.3226188448
 21
93.8668938647
 31
0.0
  0
LINE
  5
1E2
330
1F
100
AcDbEntity
  8
0
  6
HIDDEN
 62
     7
370
     0
100
AcDbLine
 10
59.3226188448
 20
127.8668957124
 30
0.0
 11
52.5186424729
 21
127.8668957124
 31
0.0
  0
ARC
  5
1E3
330
1F
100
AcDbEntity
  8
0
  6
HIDDEN
 62
     7
370
     0
100
AcDbCircle
 10
224.3186433491
 20
127.7361815264
 30
0.0
 40
1.0
100
AcDbArc
 50
278.0
 51
0.0
  0
ARC
  5
1E4
330
1F
100
AcDbEntity
  8
0
  6
HIDDEN
 62
     7
370
     0
100
AcDbCircle
 10
224.3186433491
 20
93.9976080507
 30
0.0
 40
1.0
100
AcDbArc
 50
0.0
 51
82.0
  0
LINE
  5
1E5
330
1F
100
AcDbEntity
  8
0
  6
HIDDEN
 62
     7
370
     0
100
AcDbLine
 10
224.4578180488
 20
126.7459130208
 30
0.0
 11
195.0783235606
 21
122.6168943862
 31
0.0
  0
LINE
  5
1E6
330
1F
100
AcDbEntity
  8
0
  6
HIDDEN
 62
     7
370
     0
100
AcDbLine
 10
195.0783235606
 20
99.1168951909
 30
0.0
 11
224.4578180488
 21
94.9878765563
 31
0.0
  0
LINE
  5
1E7
330
1F
100
AcDbEntity
  8
0
  6
HIDDEN
 62
     7
370
     0
100
AcDbLine
 10
195.0783235606
 20
122.6168943862
 30
0.0
 11
191.3186413821
 21
122.6168943862
 31
0.0
  0
LINE
  5
1E8
330
1F
100
AcDbEntity
  8
0
  6
HIDDEN
 62
     7
370
     0
100
AcDbLine
 10
191.3186413821
 20
99.1168951909
 30
0.0
 11
195.0783235606
 21
99.1168951909
 31
0.0
  0
LINE
  5
1E9
330
1F
100
AcDbEntity
  8
0
  6
HIDDEN
 62
     7
370
     0
100
AcDbLine
 10
191.3186413821
 20
122.6168943862
 30
0.0
 11
188.4042201217
 21
116.3668947588
 31
0.0
  0
LINE
  5
1EA
330
1F
100
AcDbEntity
  8
0
  6
HIDDEN
 62
     7
370
     0
100
AcDbLine
 10
188.4042201217
 20
105.3668948184
 30
0.0
 11
191.3186413821
 21
99.1168951909
 31
0.0
  0
LINE
  5
1EB
330
1F
100
AcDbEntity
  8
0
  6
HIDDEN
 62
     7
370
     0
100
AcDbLine
 10
97.1186430779
 20
101.366895094
 30
0.0
 11
100.1186435696
 21
101.366895094
 31
0.0
  0
LINE
  5
1EC
330
1F
100
AcDbEntity
  8
0
  6
HIDDEN
 62
     7
370
     0
100
AcDbLine
 10
100.1186435696
 20
120.3668944831
 30
0.0
 11
97.1186430779
 21
120.3668944831
 31
0.0
  0
LINE
  5
1ED
330
1F
100
AcDbEntity
  8
0
  6
HIDDEN
 62
     7
370
     0
100
AcDbLine
 10
88.2686432105
 20
101.866895176
 30
0.0
 11
88.7686432924
 21
102.3668943266
 31
0.0
  0
LINE
  5
1EE
330
1F
100
AcDbEntity
  8
0
  6
HIDDEN
 62
     7
370
     0
100
AcDbLine
 10
88.7686432924
 20
119.3668952505
 30
0.0
 11
88.2686432105
 21
119.8668944011
 31
0.0
  0
LINE
  5
1EF
330
1F
100
AcDbEntity
  8
0
  6
HIDDEN
 62
     7
370
     0
100
AcDbLine
 10
88.7686432924
 20
102.3668943266
 30
0.0
 11
97.1186430779
 21
102.3668943266
 31
0.0
  0
LINE
  5
1F0
330
1F
100
AcDbEntity
  8
0
  6
HIDDEN
 62
     7
370
     0
100
AcDbLine
 10
97.1186430779
 20
119.3668952505
 30
0.0
 11
88.7686432924
 21
119.3668952505
 31
0.0
  0
LINE
  5
1F1
330
1F
100
AcDbEntity
  8
0
  6
HIDDEN
 62
     7
370
     0
100
AcDbLine
 10
83.2686433222
 20
142.3668952952
 30
0.0
 11
83.2686433222
 21
137.2668946455
 31
0.0
  0
LINE
  5
1F2
330
1F
100
AcDbEntity
  8
0
  6
HIDDEN
 62
     7
370
     0
100
AcDbLine
 10
162.3186422166
 20
116.3668947588
 30
0.0
 11
161.5375233468
 21
115.0668946388
 31
0.0
  0
LINE
  5
1F3
330
1F
100
AcDbEntity
  8
0
  6
HIDDEN
 62
     7
370
     0
100
AcDbLine
 10
161.5375233468
 20
106.6668949383
 30
0.0
 11
162.3186422166
 21
105.3668948184
 31
0.0
  0
LINE
  5
1F4
330
1F
100
AcDbEntity
  8
0
  6
HIDDEN
 62
     7
370
     0
100
AcDbLine
 10
188.4042201217
 20
116.3668947588
 30
0.0
 11
162.3186422166
 21
116.3668947588
 31
0.0
  0
LINE
  5
1F5
330
1F
100
AcDbEntity
  8
0
  6
HIDDEN
 62
     7
370
     0
100
AcDbLine
 10
162.3186422166
 20
105.3668948184
 30
0.0
 11
188.4042201217
 21
105.3668948184
 31
0.0
  0
LINE
  5
1F6
330
1F
100
AcDbEntity
  8
0
  6
HIDDEN
 62
     7
370
     0
100
AcDbLine
 10
73.5030811865
 20
86.7875235448
 30
0.0
 11
73.0686490078
 21
87.2665902893
 31
0.0
  0
LINE
  5
1F7
330
1F
100
AcDbEntity
  8
0
  6
HIDDEN
 62
     7
370
     0
100
AcDbLine
 10
65.5686454501
 20
87.6882782499
 30
0.0
 11
65.0862119746
 21
87.2092115055
 31
0.0
  0
LINE
  5
1F8
330
1F
100
AcDbEntity
  8
0
  6
HIDDEN
 62
     7
370
     0
100
AcDbLine
 10
65.0860899713
 20
134.5245724837
 30
0.0
 11
65.5686407935
 21
134.0454517226
 31
0.0
  0
LINE
  5
1F9
330
1F
100
AcDbEntity
  8
0
  6
HIDDEN
 62
     7
370
     0
100
AcDbLine
 10
73.0686434198
 20
134.4671508591
 30
0.0
 11
73.5031854946
 21
134.9462697576
 31
0.0
  0
LINE
  5
1FA
330
1F
100
AcDbEntity
  8
0
  6
HIDDEN
 62
     7
370
     0
100
AcDbLine
 10
100.1186435696
 20
106.6668949383
 30
0.0
 11
161.5375233468
 21
106.6668949383
 31
0.0
  0
LINE
  5
1FB
330
1F
100
AcDbEntity
  8
0
  6
HIDDEN
 62
     7
370
     0
100
AcDbLine
 10
161.5375233468
 20
115.0668946388
 30
0.0
 11
100.1186435696
 21
115.0668946388
 31
0.0
  0
LINE
  5
1FC
330
1F
100
AcDbEntity
  8
0
  6
HIDDEN
 62
     7
370
     0
100
AcDbLine
 10
73.0686434198
 20
87.1665308545
 30
0.0
 11
73.0686434198
 21
90.9298228393
 31
0.0
  0
LINE
  5
1FD
330
1F
100
AcDbEntity
  8
0
  6
HIDDEN
 62
     7
370
     0
100
AcDbLine
 10
65.5686435875
 20
90.8674782435
 30
0.0
 11
65.5686435875
 21
87.6886004875
 31
0.0
  0
LINE
  5
1FE
330
1F
100
AcDbEntity
  8
0
  6
HIDDEN
 62
     7
370
     0
100
AcDbLine
 10
73.0686434198
 20
130.8047304223
 30
0.0
 11
73.0686434198
 21
134.5671804915
 31
0.0
  0
LINE
  5
1FF
330
1F
100
AcDbEntity
  8
0
  6
HIDDEN
 62
     7
370
     0
100
AcDbLine
 10
65.5686435875
 20
134.0451965402
 30
0.0
 11
65.5686435875
 21
130.8663113336
 31
0.0
  0
LINE
  5
200
330
1F
100
AcDbEntity
  8
0
  6
HIDDEN
 62
     7
370
     0
100
AcDbLine
 10
136.768641847
 20
133.3668956826
 30
0.0
 11
137.7686438736
 21
132.7895446042
 31
0.0
  0
LINE
  5
201
330
1F
100
AcDbEntity
  8
0
  6
HIDDEN
 62
     7
370
     0
100
AcDbLine
 10
142.7686465558
 20
132.7895446042
 30
0.0
 11
143.7686411318
 21
133.3668956826
 31
0.0
  0
LINE
  5
202
330
1F
100
AcDbEntity
  8
0
  6
HIDDEN
 62
     7
370
     0
100
AcDbLine
 10
143.7686411318
 20
88.3668938945
 30
0.0
 11
142.7686465558
 21
88.9442449729
 31
0.0
  0
LINE
  5
203
330
1F
100
AcDbEntity
  8
0
  6
HIDDEN
 62
     7
370
     0
100
AcDbLine
 10
137.7686438736
 20
88.9442449729
 30
0.0
 11
136.768641847
 21
88.3668938945
 31
0.0
  0
LINE
  5
204
330
1F
100
AcDbEntity
  8
0
  6
HIDDEN
 62
     7
370
     0
100
AcDbLine
 10
137.7686438736
 20
132.7895446042
 30
0.0
 11
137.7686438736
 21
121.366894647
 31
0.0
  0
LINE
  5
205
330
1F
100
AcDbEntity
  8
0
  6
HIDDEN
 62
     7
370
     0
100
AcDbLine
 10
142.7686465558
 20
121.366894647
 30
0.0
 11
142.7686465558
 21
132.7895446042
 31
0.0
  0
LINE
  5
206
330
1F
100
AcDbEntity
  8
0
  6
HIDDEN
 62
     7
370
     0
100
AcDbLine
 10
137.7686438736
 20
121.366894647
 30
0.0
 11
140.2686414894
 21
119.864743046
 31
0.0
  0
LINE
  5
207
330
1F
100
AcDbEntity
  8
0
  6
HIDDEN
 62
     7
370
     0
100
AcDbLine
 10
140.2686414894
 20
119.864743046
 30
0.0
 11
142.7686465558
 21
121.366894647
 31
0.0
  0
LINE
  5
208
330
1F
100
AcDbEntity
  8
0
  6
HIDDEN
 62
     7
370
     0
100
AcDbLine
 10
142.7686465558
 20
100.3668949301
 30
0.0
 11
140.2686414894
 21
101.8690465311
 31
0.0
  0
LINE
  5
209
330
1F
100
AcDbEntity
  8
0
  6
HIDDEN
 62
     7
370
     0
100
AcDbLine
 10
140.2686414894
 20
101.8690465311
 30
0.0
 11
137.7686438736
 21
100.3668949301
 31
0.0
  0
LINE
  5
20A
330
1F
100
AcDbEntity
  8
0
  6
HIDDEN
 62
     7
370
     0
100
AcDbLine
 10
142.7686465558
 20
88.9442449729
 30
0.0
 11
142.7686465558
 21
100.3668949301
 31
0.0
  0
LINE
  5
20B
330
1F
100
AcDbEntity
  8
0
  6
HIDDEN
 62
     7
370
     0
100
AcDbLine
 10
137.7686438736
 20
100.3668949301
 30
0.0
 11
137.7686438736
 21
88.9442449729
 31
0.0
  0
LINE
  5
20C
330
1F
100
AcDbEntity
  8
0
  6
HIDDEN
 62
     7
370
     0
100
AcDbLine
 10
226.3686386522
 20
131.1168948482
 30
0.0
 11
224.224138039
 21
130.1168946843
 31
0.0
  0
LINE
  5
20D
330
1F
100
AcDbEntity
  8
0
  6
HIDDEN
 62
     7
370
     0
100
AcDbLine
 10
224.224138039
 20
91.6168948929
 30
0.0
 11
226.3686386522
 21
90.616894729
 31
0.0
  0
LINE
  5
20E
330
1F
100
AcDbEntity
  8
0
  6
HIDDEN
 62
     7
370
     0
100
AcDbLine
 10
226.3686386522
 20
90.616894729
 30
0.0
 11
229.5686481174
 21
90.616894729
 31
0.0
  0
LINE
  5
20F
330
1F
100
AcDbEntity
  8
0
  6
HIDDEN
 62
     7
370
     0
100
AcDbLine
 10
229.5686481174
 20
131.1168948482
 30
0.0
 11
226.3686386522
 21
131.1168948482
 31
0.0
  0
ARC
  5
210
330
1F
100
AcDbEntity
  8
0
  6
HIDDEN
 62
     7
370
     0
100
AcDbCircle
 10
229.5686433491
 20
91.4168947886
 30
0.0
 40
0.8000000000000114
100
AcDbArc
 50
270.0
 51
360.0
  0
ARC
  5
211
330
1F
100
AcDbEntity
  8
0
  6
HIDDEN
 62
     7
370
     0
100
AcDbCircle
 10
229.5686433491
 20
130.3168947886
 30
0.0
 40
0.8000000000000114
100
AcDbArc
 50
0.0
 51
90.0
  0
LINE
  5
212
330
1F
100
AcDbEntity
  8
0
  6
HIDDEN
 62
     7
370
     0
100
AcDbLine
 10
215.8186463293
 20
91.6168948929
 30
0.0
 11
224.224138039
 21
91.6168948929
 31
0.0
  0
LINE
  5
213
330
1F
100
AcDbEntity
  8
0
  6
HIDDEN
 62
     7
370
     0
100
AcDbLine
 10
224.224138039
 20
130.1168946843
 30
0.0
 11
215.8186463293
 21
130.1168946843
 31
0.0
  0
LINE
  5
214
330
1F
100
AcDbEntity
  8
0
  6
HIDDEN
 62
     7
370
     0
100
AcDbLine
 10
220.5694941458
 20
119.4238474886
 30
0.0
 11
220.8835659202
 21
118.7771883155
 31
0.0
  0
ARC
  5
215
330
1F
100
AcDbEntity
  8
0
  6
HIDDEN
 62
     7
370
     0
100
AcDbCircle
 10
232.2186433491
 20
94.6597150754
 30
0.0
 40
0.4000000000000542
100
AcDbArc
 50
180.0
 51
299.99999741
  0
LINE
  5
216
330
1F
100
AcDbEntity
  8
0
  6
HIDDEN
 62
     7
370
     0
100
AcDbLine
 10
232.4186442074
 20
94.3133047144
 30
0.0
 11
237.6210121092
 21
97.3168945233
 31
0.0
  0
LINE
  5
217
330
1F
100
AcDbEntity
  8
0
  6
HIDDEN
 62
     7
370
     0
100
AcDbLine
 10
237.6210121092
 20
124.4168950538
 30
0.0
 11
232.4186442074
 21
127.4204848627
 31
0.0
  0
LINE
  5
218
330
1F
100
AcDbEntity
  8
0
  6
HIDDEN
 62
     7
370
     0
100
AcDbLine
 10
232.1577695783
 20
127.4678947697
 30
0.0
 11
230.3686467584
 21
127.4678947697
 31
0.0
  0
LINE
  5
219
330
1F
100
AcDbEntity
  8
0
  6
HIDDEN
 62
     7
370
     0
100
AcDbLine
 10
232.4186442074
 20
127.4678947697
 30
0.0
 11
232.1577695783
 21
127.4678947697
 31
0.0
  0
LINE
  5
21A
330
1F
100
AcDbEntity
  8
0
  6
HIDDEN
 62
     7
370
     0
100
AcDbLine
 10
220.7355973896
 20
98.0647139544
 30
0.0
 11
220.4016027626
 21
96.9682529862
 31
0.0
  0
LINE
  5
21B
330
1F
100
AcDbEntity
  8
0
  6
HIDDEN
 62
     7
370
     0
100
AcDbLine
 10
237.6210121092
 20
97.3168945233
 30
0.0
 11
238.3186397728
 21
97.3168945233
 31
0.0
  0
LINE
  5
21C
330
1F
100
AcDbEntity
  8
0
  6
HIDDEN
 62
     7
370
     0
100
AcDbLine
 10
238.3186397728
 20
124.4168950538
 30
0.0
 11
237.6210121092
 21
124.4168950538
 31
0.0
  0
LINE
  5
21D
330
1F
100
AcDbEntity
  8
0
  6
HIDDEN
 62
     7
370
     0
100
AcDbLine
 10
230.3686467584
 20
94.8618257712
 30
0.0
 11
231.8186489519
 21
94.8618257712
 31
0.0
  0
LINE
  5
21E
330
1F
100
AcDbEntity
  8
0
  6
HIDDEN
 62
     7
370
     0
100
AcDbLine
 10
219.7511670765
 20
135.497968487
 30
0.0
 11
220.3379748043
 21
134.9189205388
 31
0.0
  0
LINE
  5
21F
330
1F
100
AcDbEntity
  8
0
  6
HIDDEN
 62
     7
370
     0
100
AcDbLine
 10
220.3192440447
 20
134.9504495333
 30
0.0
 11
220.6630138334
 21
133.0140920649
 31
0.0
  0
LINE
  5
220
330
1F
100
AcDbEntity
  8
0
  6
HIDDEN
 62
     7
370
     0
100
AcDbLine
 10
220.67952432
 20
132.9863051246
 30
0.0
 11
220.9775177416
 21
132.6922456096
 31
0.0
  0
LINE
  5
221
330
1F
100
AcDbEntity
  8
0
  6
HIDDEN
 62
     7
370
     0
100
AcDbLine
 10
220.6630138334
 20
88.7196975122
 30
0.0
 11
220.3192440447
 21
86.7833400438
 31
0.0
  0
LINE
  5
222
330
1F
100
AcDbEntity
  8
0
  6
HIDDEN
 62
     7
370
     0
100
AcDbLine
 10
220.3379748043
 20
86.8148690383
 30
0.0
 11
219.7511670765
 21
86.2358210902
 31
0.0
  0
LINE
  5
223
330
1F
100
AcDbEntity
  8
0
  6
HIDDEN
 62
     7
370
     0
100
AcDbLine
 10
220.9775177416
 20
89.0415439675
 30
0.0
 11
220.67952432
 21
88.7474844525
 31
0.0
  0
LINE
  5
224
330
1F
100
AcDbEntity
  8
0
  6
HIDDEN
 62
     7
370
     0
100
AcDbLine
 10
220.4016027626
 20
124.7655365909
 30
0.0
 11
220.7355973896
 21
123.6690756227
 31
0.0
  0
LINE
  5
225
330
1F
100
AcDbEntity
  8
0
  6
HIDDEN
 62
     7
370
     0
100
AcDbLine
 10
220.8835659202
 20
102.9566012616
 30
0.0
 11
220.5694941458
 21
102.3099420885
 31
0.0
  0
LINE
  5
226
330
1F
100
AcDbEntity
  8
0
  6
HIDDEN
 62
     7
370
     0
100
AcDbLine
 10
172.9042185124
 20
104.8668947364
 30
0.0
 11
187.9042191085
 21
104.8668947364
 31
0.0
  0
LINE
  5
227
330
1F
100
AcDbEntity
  8
0
  6
HIDDEN
 62
     7
370
     0
100
AcDbLine
 10
187.9042191085
 20
116.8668948407
 30
0.0
 11
172.9042185124
 21
116.8668948407
 31
0.0
  0
LINE
  5
228
330
1F
100
AcDbEntity
  8
0
  6
HIDDEN
 62
     7
370
     0
100
AcDbLine
 10
187.9042191085
 20
104.8668947364
 30
0.0
 11
188.4042201217
 21
105.3668948184
 31
0.0
  0
LINE
  5
229
330
1F
100
AcDbEntity
  8
0
  6
HIDDEN
 62
     7
370
     0
100
AcDbLine
 10
188.4042201217
 20
116.3668947588
 30
0.0
 11
187.9042191085
 21
116.8668948407
 31
0.0
  0
LINE
  5
22A
330
1F
100
AcDbEntity
  8
0
  6
HIDDEN
 62
     7
370
     0
100
AcDbLine
 10
172.9042185124
 20
116.8668948407
 30
0.0
 11
172.4042174991
 21
116.3668947588
 31
0.0
  0
LINE
  5
22B
330
1F
100
AcDbEntity
  8
0
  6
HIDDEN
 62
     7
370
     0
100
AcDbLine
 10
172.4042174991
 20
105.3668948184
 30
0.0
 11
172.9042185124
 21
104.8668947364
 31
0.0
  0
LINE
  5
22C
330
1F
100
AcDbEntity
  8
0
  6
HIDDEN
 62
     7
370
     0
100
AcDbLine
 10
188.4042201217
 20
105.3668948184
 30
0.0
 11
192.4042207774
 21
105.3668948184
 31
0.0
  0
LINE
  5
22D
330
1F
100
AcDbEntity
  8
0
  6
HIDDEN
 62
     7
370
     0
100
AcDbLine
 10
192.4042207774
 20
116.3668947588
 30
0.0
 11
188.4042201217
 21
116.3668947588
 31
0.0
  0
LINE
  5
22E
330
1F
100
AcDbEntity
  8
0
  6
HIDDEN
 62
     7
370
     0
100
AcDbLine
 10
179.4042167839
 20
107.8668947625
 30
0.0
 11
185.4042214927
 21
107.8668947625
 31
0.0
  0
LINE
  5
22F
330
1F
100
AcDbEntity
  8
0
  6
HIDDEN
 62
     7
370
     0
100
AcDbLine
 10
185.4042214927
 20
113.8668948146
 30
0.0
 11
179.4042167839
 21
113.8668948146
 31
0.0
  0
POINT
  5
230
330
1F
100
AcDbEntity
  8
VERMASSUNG
100
AcDbPoint
 10
225.3186433491
 20
126.8668947886
 30
0.0
  0
POINT
  5
231
330
1F
100
AcDbEntity
  8
VERMASSUNG
100
AcDbPoint
 10
225.3186433491
 20
94.8668947886
 30
0.0
  0
DIMENSION
  5
232
330
1F
100
AcDbEntity
  8
VERMASSUNG
100
AcDbDimension
  2
*D1
 10
247.3348327271
 20
126.8668947886
 30
0.0
 11
247.3348327271
 21
110.8668947886
 31
0.0
 70
   160
  1
ER<>
 71
     2
 42
-1.0
  3
SLDDIMSTYLE0
100
AcDbAlignedDimension
 13
225.3186433491
 23
94.8668947886
 33
0.0
 14
225.3186433491
 24
126.8668947886
 34
0.0
 50
90.0
100
AcDbRotatedDimension
  0
DIMENSION
  5
23E
330
1F
100
AcDbEntity
  8
VERMASSUNG
100
AcDbDimension
  2
*D2
 10
37.9826445948
 20
79.3668947886
 30
0.0
 11
37.9826445948
 21
111.3313337791
 31
0.0
 70
   160
  1
HSK A %%c<>
 71
     2
 42
-1.0
  3
SLDDIMSTYLE0
100
AcDbAlignedDimension
 13
78.6186433491
 23
142.3668947886
 33
0.0
 14
78.6186433491
 24
79.3668947886
 34
0.0
 50
90.0
100
AcDbRotatedDimension
  0
DIMENSION
  5
24A
330
1F
100
AcDbEntity
  8
VERMASSUNG
100
AcDbDimension
  2
*D3
 10
46.4186433491
 20
166.1748959408
 30
0.0
 11
142.3686433491
 21
166.1748959408
 31
0.0
 70
   160
 71
     2
 42
-1.0
  3
SLDDIMSTYLE0
100
AcDbAlignedDimension
 13
238.3186433491
 23
95.6092339242
 33
0.0
 14
46.4186433491
 24
130.557572535
 34
0.0
100
AcDbRotatedDimension
  0
DIMENSION
  5
254
330
1F
100
AcDbEntity
  8
VERMASSUNG
100
AcDbDimension
  2
*D4
 10
78.3186433491
 20
160.1748959408
 30
0.0
 11
158.3186433491
 21
160.1748959408
 31
0.0
 70
   160
 71
     2
 42
-1.0
  3
SLDDIMSTYLE0
100
AcDbAlignedDimension
 13
238.3186433491
 23
95.6092339242
 33
0.0
 14
78.3186433491
 24
142.0668947886
 34
0.0
100
AcDbRotatedDimension
  0
DIMENSION
  5
25E
330
1F
100
AcDbEntity
  8
VERMASSUNG
100
AcDbDimension
  2
*D5
 10
238.3186433491
 20
154.1748959408
 30
0.0
 11
171.2936433491
 21
154.1748959408
 31
0.0
 70
   160
 71
     2
 42
-1.0
  3
SLDDIMSTYLE0
100
AcDbAlignedDimension
 13
104.2686433491
 23
140.7133351123
 33
0.0
 14
238.3186433491
 24
95.6092339242
 34
0.0
100
AcDbRotatedDimension
  0
DIMENSION
  5
268
330
1F
100
AcDbEntity
  8
VERMASSUNG
100
AcDbDimension
  2
*D6
 10
238.3186433491
 20
148.1748959408
 30
0.0
 11
214.8186433491
 21
148.1748959408
 31
0.0
 70
   160
 71
     2
 42
-1.0
  3
SLDDIMSTYLE0
100
AcDbAlignedDimension
 13
191.3186433491
 23
122.6168947886
 33
0.0
 14
238.3186433491
 24
129.8668947886
 34
0.0
100
AcDbRotatedDimension
  0
DIMENSION
  5
272
330
1F
100
AcDbEntity
  8
VERMASSUNG
100
AcDbDimension
  2
*D7
 10
259.3348327271
 20
86.0168947886
 30
0.0
 11
259.3348327271
 21
110.8668947886
 31
0.0
 70
   160
  1
%%c<>
 71
     2
 42
-1.0
  3
SLDDIMSTYLE0
100
AcDbAlignedDimension
 13
221.4824636452
 23
135.7168947886
 33
0.0
 14
221.4824636452
 24
86.0168947886
 34
0.0
 50
90.0
100
AcDbRotatedDimension
  0
DIMENSION
  5
27D
330
1F
100
AcDbEntity
  8
VERMASSUNG
100
AcDbDimension
  2
*D8
 10
253.3348327271
 20
88.3668947886
 30
0.0
 11
253.3348327271
 21
110.8668947886
 31
0.0
 70
   160
  1
%%c<>
 71
     2
 42
-1.0
  3
SLDDIMSTYLE0
100
AcDbAlignedDimension
 13
149.2686433491
 23
133.3668947886
 33
0.0
 14
149.2686433491
 24
88.3668947886
 34
0.0
 50
90.0
100
AcDbRotatedDimension
  0
DIMENSION
  5
288
330
1F
100
AcDbEntity
  8
VERMASSUNG
100
AcDbDimension
  2
*D9
 10
265.3348327271
 20
85.6427832449
 30
0.0
 11
265.3348327271
 21
110.8668947886
 31
0.0
 70
   160
  1
%%c<>
 71
     2
 42
-1.0
  3
SLDDIMSTYLE1
100
AcDbAlignedDimension
 13
105.8449145355
 23
136.0910063323
 33
0.0
 14
105.8449145355
 24
85.6427832449
 34
0.0
 50
90.0
100
AcDbRotatedDimension
  0
LINE
  5
294
330
1F
100
AcDbEntity
  8
VERMASSUNG
  6
CENTERX2
370
     0
100
AcDbLine
 10
42.2442457541
 20
110.8668947886
 30
0.0
 11
239.9673226771
 21
110.8668947886
 31
0.0
  0
OLE2FRAME
  5
295
330
1F
100
AcDbEntity
  8
0
100
AcDbOle2Frame
 70
     2
  3
Bitmap Image
 10
13.8511154363
 20
38.264191557
 30
0.0
 11
51.6290888628
 21
31.9806341108
 31
0.0
 71
     2
 72
     0
 73
     1
 90
    12928
310
80552BED0767C5B32B40DDAF6807D121434000000000000000006FFBDDFB85D0
310
4940DDAF6807D121434000000000000000006FFBDDFB85D04940416F4BD60AFB
310
3F4000000000000000002BED0767C5B32B40416F4BD60AFB3F40000000000000
310
0000000000000100000000010000010000000100000000000100000000320000
310
D0CF11E0A1B11AE1000000000000000000000000000000003E000300FEFF0900
310
0600000000000000000000000100000001000000000000000010000002000000
310
01000000FEFFFFFF0000000000000000FFFFFFFFFFFFFFFFFFFFFFFFFFFFFFFF
310
FFFFFFFFFFFFFFFFFFFFFFFFFFFFFFFFFFFFFFFFFFFFFFFFFFFFFFFFFFFFFFFF
310
FFFFFFFFFFFFFFFFFFFFFFFFFFFFFFFFFFFFFFFFFFFFFFFFFFFFFFFFFFFFFFFF
310
FFFFFFFFFFFFFFFFFFFFFFFFFFFFFFFFFFFFFFFFFFFFFFFFFFFFFFFFFFFFFFFF
310
FFFFFFFFFFFFFFFFFFFFFFFFFFFFFFFFFFFFFFFFFFFFFFFFFFFFFFFFFFFFFFFF
310
FFFFFFFFFFFFFFFFFFFFFFFFFFFFFFFFFFFFFFFFFFFFFFFFFFFFFFFFFFFFFFFF
310
FFFFFFFFFFFFFFFFFFFFFFFFFFFFFFFFFFFFFFFFFFFFFFFFFFFFFFFFFFFFFFFF
310
FFFFFFFFFFFFFFFFFFFFFFFFFFFFFFFFFFFFFFFFFFFFFFFFFFFFFFFFFFFFFFFF
310
FFFFFFFFFFFFFFFFFFFFFFFFFFFFFFFFFFFFFFFFFFFFFFFFFFFFFFFFFFFFFFFF
310
FFFFFFFFFFFFFFFFFFFFFFFFFFFFFFFFFFFFFFFFFFFFFFFFFFFFFFFFFFFFFFFF
310
FFFFFFFFFFFFFFFFFFFFFFFFFFFFFFFFFFFFFFFFFFFFFFFFFFFFFFFFFFFFFFFF
310
FFFFFFFFFFFFFFFFFFFFFFFFFFFFFFFFFFFFFFFFFFFFFFFFFFFFFFFFFFFFFFFF
310
FFFFFFFFFFFFFFFFFFFFFFFFFFFFFFFFFFFFFFFFFFFFFFFFFFFFFFFFFFFFFFFF
310
FFFFFFFFFFFFFFFFFFFFFFFFFFFFFFFFFFFFFFFFFFFFFFFFFFFFFFFFFFFFFFFF
310
FDFFFFFFFEFFFFFFFEFFFFFFFEFFFFFF05000000060000000700000008000000
310
090000000A0000000B0000000C0000000D0000000E0000000F00000010000000
310
11000000120000001300000014000000150000001600000017000000FEFFFFFF
310
FFFFFFFFFFFFFFFFFFFFFFFFFFFFFFFFFFFFFFFFFFFFFFFFFFFFFFFFFFFFFFFF
310
FFFFFFFFFFFFFFFFFFFFFFFFFFFFFFFFFFFFFFFFFFFFFFFFFFFFFFFFFFFFFFFF
310
FFFFFFFFFFFFFFFFFFFFFFFFFFFFFFFFFFFFFFFFFFFFFFFFFFFFFFFFFFFFFFFF
310
FFFFFFFFFFFFFFFFFFFFFFFFFFFFFFFFFFFFFFFFFFFFFFFFFFFFFFFFFFFFFFFF
310
FFFFFFFFFFFFFFFFFFFFFFFFFFFFFFFFFFFFFFFFFFFFFFFFFFFFFFFFFFFFFFFF
310
FFFFFFFFFFFFFFFFFFFFFFFFFFFFFFFFFFFFFFFFFFFFFFFFFFFFFFFFFFFFFFFF
310
FFFFFFFFFFFFFFFFFFFFFFFFFFFFFFFFFFFFFFFFFFFFFFFFFFFFFFFFFFFFFFFF
310
FFFFFFFFFFFFFFFFFFFFFFFFFFFFFFFFFFFFFFFFFFFFFFFFFFFFFFFFFFFFFFFF
310
FFFFFFFFFFFFFFFFFFFFFFFFFFFFFFFFFFFFFFFFFFFFFFFFFFFFFFFFFFFFFFFF
310
FFFFFFFFFFFFFFFFFFFFFFFFFFFFFFFFFFFFFFFFFFFFFFFFFFFFFFFFFFFFFFFF
310
FFFFFFFFFFFFFFFFFFFFFFFFFFFFFFFFFFFFFFFFFFFFFFFFFFFFFFFFFFFFFFFF
310
FFFFFFFFFFFFFFFFFFFFFFFFFFFFFFFFFFFFFFFFFFFFFFFFFFFFFFFFFFFFFFFF
310
FFFFFFFFFFFFFFFFFFFFFFFFFFFFFFFFFFFFFFFFFFFFFFFFFFFFFFFFFFFFFFFF
310
52006F006F007400200045006E00740072007900000000000000000000000000
310
0000000000000000000000000000000000000000000000000000000000000000
310
16000500FFFFFFFFFFFFFFFF020000000A00030000000000C000000000000046
310
00000000000000000000000060377DF774E8CB0103000000C000000000000000
310
01004F006C006500000000000000000000000000000000000000000000000000
310
0000000000000000000000000000000000000000000000000000000000000000
310
0A000200FFFFFFFFFFFFFFFFFFFFFFFF00000000000000000000000000000000
310
0000000000000000000000000000000000000000000000001400000000000000
310
010043006F006D0070004F0062006A0000000000000000000000000000000000
310
0000000000000000000000000000000000000000000000000000000000000000
310
120002010100000003000000FFFFFFFF00000000000000000000000000000000
310
0000000000000000000000000000000000000000010000004D00000000000000
310
01004F006C006500310030004E00610074006900760065000000000000000000
310
0000000000000000000000000000000000000000000000000000000000000000
310
1A000200FFFFFFFFFFFFFFFFFFFFFFFF00000000000000000000000000000000
310
0000000000000000000000000000000000000000040000002426000000000000
310
FEFFFFFF02000000FEFFFFFFFFFFFFFFFFFFFFFFFFFFFFFFFFFFFFFFFFFFFFFF
310
FFFFFFFFFFFFFFFFFFFFFFFFFFFFFFFFFFFFFFFFFFFFFFFFFFFFFFFFFFFFFFFF
310
FFFFFFFFFFFFFFFFFFFFFFFFFFFFFFFFFFFFFFFFFFFFFFFFFFFFFFFFFFFFFFFF
310
FFFFFFFFFFFFFFFFFFFFFFFFFFFFFFFFFFFFFFFFFFFFFFFFFFFFFFFFFFFFFFFF
310
FFFFFFFFFFFFFFFFFFFFFFFFFFFFFFFFFFFFFFFFFFFFFFFFFFFFFFFFFFFFFFFF
310
FFFFFFFFFFFFFFFFFFFFFFFFFFFFFFFFFFFFFFFFFFFFFFFFFFFFFFFFFFFFFFFF
310
FFFFFFFFFFFFFFFFFFFFFFFFFFFFFFFFFFFFFFFFFFFFFFFFFFFFFFFFFFFFFFFF
310
FFFFFFFFFFFFFFFFFFFFFFFFFFFFFFFFFFFFFFFFFFFFFFFFFFFFFFFFFFFFFFFF
310
FFFFFFFFFFFFFFFFFFFFFFFFFFFFFFFFFFFFFFFFFFFFFFFFFFFFFFFFFFFFFFFF
310
FFFFFFFFFFFFFFFFFFFFFFFFFFFFFFFFFFFFFFFFFFFFFFFFFFFFFFFFFFFFFFFF
310
FFFFFFFFFFFFFFFFFFFFFFFFFFFFFFFFFFFFFFFFFFFFFFFFFFFFFFFFFFFFFFFF
310
FFFFFFFFFFFFFFFFFFFFFFFFFFFFFFFFFFFFFFFFFFFFFFFFFFFFFFFFFFFFFFFF
310
FFFFFFFFFFFFFFFFFFFFFFFFFFFFFFFFFFFFFFFFFFFFFFFFFFFFFFFFFFFFFFFF
310
FFFFFFFFFFFFFFFFFFFFFFFFFFFFFFFFFFFFFFFFFFFFFFFFFFFFFFFFFFFFFFFF
310
FFFFFFFFFFFFFFFFFFFFFFFFFFFFFFFFFFFFFFFFFFFFFFFFFFFFFFFFFFFFFFFF
310
FFFFFFFFFFFFFFFFFFFFFFFFFFFFFFFFFFFFFFFFFFFFFFFFFFFFFFFFFFFFFFFF
310
0100000200000000000000000000000000000000000000004E00820000000005
310
A807250000000000A8072500000000000410100200000000EC10F00100000000
310
0100FEFF030A0000FFFFFFFF0A00030000000000C00000000000004607000000
310
5042727573680007000000504272757368000700000050427275736800F439B2
310
7100000000000000000000000000000000000000000000000000C70600000000
310
0000000000000000000000000000000000000000000000003800000041000000
310
0410100200000000DE10AE010000000000000000000000000000000000000000
310
0000C70600000000000000000000000000000000000000000000000000000000
310
38000000410000000410100200000000C610CE01000000000000000000000000
310
00000000000000000000C7060000000000000000000000000000000000000000
310
0000000000000000380000004100000004101002000000003A11C90100000000
310
000000000000000000000000000000000000C706000000000000000000000000
310
0000000000000000000000000000000038000000410000000410100200000000
310
0211F10100000000000000000000000000000000000000000000C70600000000
310
0000000000000000000000000000000000000000000000003800000041000000
310
04101002000000004E119B010000000000000000000000000000000000000000
310
20260000424D0E260000000000003E00000028000000B40200006E0000000100
310
01000000000000000000130B0000130B00000200000002000000000000FFFFFF
310
FFFFFFFFFFFFFFFFFFFFFFFFFFFFFFFFFFFFFFFFFFFFFFFFFFFFFFFFFFFFFFFF
310
FFFFFFFFFFFFFFFFFFFFFFFFFFFFFFFFFFFFFFFFFFFFFFFFFFFFFFFFFFFFFFFF
310
FFFFFFFFFFFFFFFFFFFFFFFFFFFFFFFFFFFFFFFFFFFFFFFFF000FFFFFFFFFFFF
310
FFFFFFFFFFFFFFFFFFFFFFFFFFFFFFFFFFFFFFFFFFFFFFFFFFFFFFFFFFFFFFFF
310
FFFFFFFFFFFFFFFFFFFFFFFFFFFFFFFFFFFFFFFFFFFFFFFFFFFFFFFFFFFFFFFF
310
FFFFFFFFFFFFFFFFFFFFFFFFFFFFFFFFF000FFFFFFFFFFFFFFFFFFFFFFFFFFFF
310
FFFFFFFFFFFFFFFFFFFFFFFFFFFFFFFFFFFFFFFFFFFFFFFFFFFFFFFFFFFFFFFF
310
FFFFFFFFFFFFFFFFFFFFFFFFFFFFFFFFFFFFFFFFFFFFFFFFFFFFFFFFFFFFFFFF
310
FFFFFFFFFFFFFFFFF000FFFFFFFFFFFFFFFFFFFFFFFFFFFFFFFFFFFFFFFFFFFF
310
FFFFFFFFFFFFFFFFFFFFFFFFFFFFFFFFFFFFFFFFFFFFFFFFFFFFFFFFFFFFFFFF
310
FFFFFFFFFFFFFFFFFFFFFFFFFFFFFFFFFFFFFFFFFFFFFFFFFFFFFFFFFFFFFFFF
310
F000FFFFFFFFFFFFFFFFFFFFFFFFFFFFFFFFFFFFFFFFFFFFFFFFFFFFFFFFFFFF
310
FFFFFFFFFFFFFFFFFFFFFFFFFFFFFFFFFFFFFFFFFFFFFFFFFFFFFFFFFFFFFFFF
310
FFFFFFFFFFFFFFFFFFFFFFFFFFFFFFFFFFFFFFFFFFFFFFFFF000FFFFFFFFFFFF
310
FFFFFFFFFFFFFFFFFFFFFFFFFFFFFFFFFFFFFFFFFFFFFFFFFFFFFFFFFFFFFFFF
310
FFFFFFFFFFFFFFFFFFFFFFFFFFFFFFFFFFFFFFFFFFFFFFFFFFFFFFFFFFFFFFFF
310
FFFFFFFFFFFFFFFFFFFFFFFFFFFFFFFFF000FFFFFFFFFFFFFFFFFFFFFFFFFFFF
310
FFFFFFFFFFFFFFFFFFFFFFFFFFFFFFFFFFFFFFFFFFFFFFFFFFFFFFFFFFFFFFFF
310
FFFFFFFFFFFFFFFFFFFFFFFFFFFFFFFFFFFFFFFFFFFFFFFFFFFFFFFFFFFFFFFF
310
FFFFFFFFFFFFFFFFF000FFFFFFFFFFFFFFFFFFFFFFFFFFFFFFFFFFFFFFFFFFFF
310
FFFFFFFFFFFFFFFFFFFFFFFFFFFFFFFFFFFFFFFFFFFFFFFFFFFFFFFFFFFFFFFF
310
FFFFFFFFFFFFFFFFFFFFFFFFFFFFFFFFFFFFFFFFFFFFFFFFFFFFFFFFFFFFFFFF
310
F000FFFFFFFFFFFFFFFFFFFFFFFFFFFFFFFFFFFFFFFFFFFFFFFFFFFFFFFFFFFF
310
FFFFFFFFFFFFFFFFFFFFFFFFFFFFFFFFFFFFFFFFFFFFFFFFFFFFFFFFFFFFFFFF
310
FFFFFFFFFFFFFFFFFFFFFFFFFFFFFFFFFFFFFFFFFFFFFFFFF000FFFFFFFFFFFF
310
FFFFFFFFFFFFFFFFFFFFFFFFFFFFFFFFFFFFFFFFFFFFFFFFFFFFFFFFFFFFFFFF
310
FFFFFFFFFFFFFFFFFFFFFFFFFFFFFFFFFFFFFFFFFFFFFFFFFFFFFFFFFFFFFFFF
310
FFFFFFFFFFFFFFFFFFFFFFFFFFFFFFFFF000FFFFFFFFFFFFFFFFFFFFFFFFFFFF
310
FFFFFFFFFFFFFFFFFFFFFFFFFFFFFFFFFFFFFFFFFFFFFFFFFFFFFFFFFFFFFFFF
310
FFFFFFFFFFFFFFFFFFFFFFFFFFFFFFFFFFFFFFFFFFFFFFFFFFFFFFFFFFFFFFFF
310
FFFFFFFFFFFFFFFFF000FFFFFFFFFFFFFFFFFFFFFFFFFFFFFFFFFFFFFFFFFFFF
310
FFFFFFFFFFFFFFFFFFFFFFFFFFFFFFFFFFFFFFFFFFFFFFFFFFFFFFFFFFFFFFFF
310
FFFFFFFFFFFFFFFFFFFFFFFFFFFFFFFFFFFFFFFFFFFFFFFFFFFFFFFFFFFFFFFF
310
F000FFFFFFFFFFFFFFFFFFFFFFFFFFFFFFFFFFFFFFFFFFFFFFFFFFFFFFFFFFFF
310
FFFFFFFFFFFFFFFFFFFFFFFFFFFFFFFFFFFFFFFFFFFFFFFFFFFFFFFFFFFFFFFF
310
FFFFFFFFFFFFFFFFFFFFFFFFFFFFFFFFFFFFFFFFFFFFFFFFF000FFFFFFFFFFFF
310
FFFFFFFFFFFFFFFFFFFFFFFFFFFFFFFFFFFFFFFFFFFFFFFFFFFFFFFFFFFFFFFF
310
FFFFFFFFFFFFFFFFFFFFFFFFFFFFFFFFFFFFFFFFFFFFFFFFFFFFFFFFFFFFFFFF
310
FFFFFFFFFFFFFFFFFFFFFFFFFFFFFFFFF000FFFFFFFFFFFFFFFFFFFFFFFFFFFF
310
FFFFFFFFFFFFFFFFFFFFFFFFFFFFFFFFFFFFFFFFFFFFFFFFFFFFFFFFFFFFFFFF
310
FFFFFFFFFFFFFFFFFFFFFFFFFFFFFFFFFFFFFFFFFFFFFFFFFFFFFFFFFFFFFFFF
310
FFFFFFFFFFFFFFFFF000FFFFFFFFFFFFFFFFFFFFFFFFFFFFFFFFFFFFFFFFFFFF
310
FFFFFFFFFFFFFFFFFFFFFFFFFFFFFFFFFFFFFFFFFFFFFFFFFFFFFFFFFFFFFFFF
310
FFFFFFFFFFFFFFFFFFFFFFFFFFFFFFFFFFFFFFFFFFFFFFFFFFFFFFFFFFFFFFFF
310
F000FFFFFFFFFFFFFFFFFFFFFFFFFFFFFFFFFFFFFFFFFFFFFFFFFFFFFFFFFFFF
310
FFFFFFFFFFFFFFFFFFFFFFFFFFFFFFFFFFFFFFFFFFFFFFFFFFFFFFFFFFFFFFFF
310
FFFFFFFFFFFFFFFFFFFFFFFFFFFFFFFFFFFFFFFFFFFFFFFFF000FFFFFFFFFFFF
310
FFFFFFFFFFFFFFFFFFFFFFFFFFFFFFFFFFFFFFFFFFFFFFFFFFFFFFFFFFFFFFFF
310
FFFFFFFFFFFFFFFFFFFFFFFFFFFFFFFFFFFFFFFFFFFFFFFFFFFFFFFFFFFFFFFF
310
FFFFFFFFFFFFFFFFFFFFFFFFFFFFFFFFF000FFFFFFFFFFFFFFFFFFFFFFFFFFFF
310
FFFFFFFFFFFFFFFFFFFFFFFFFFFFFFFFFFFFFFFFFFFFFFFFFFFFFFFFFFFFFFFF
310
FFFFFFFFFFFFFFFFFFFFFFFFFFFFFFFFFFFFFFFFFFFFFFFFFFFFFFFFFFFFFFFF
310
FFFFFFFFFFFFFFFFF000FFFFF80003FFFFFFFFFFFFFFFFFFFFFFFFFFFFFFFFFF
310
FFFFF00007FFFFFFFFFF00007FFFFFF800000000000000007FFFFFFFFFFFFFFF
310
FFFFFFFC001FFFFFFFFFFFFFFC001FFFFFFFFFFFFFFFFFFFFFFFFFFE0007FFFF
310
F000FFFF8000007FFFFFFFF8000FFFFFC0007FFFFF80007FFFFF0000007FFFFF
310
FFF8000007FFFFF800000000000000007FFFFFF0001FFFFFFFFFFFC00001FFFF
310
FFFFFFFFC00001FFFFFFFF000000000003FFFFE000007FFFF000FFFE0000000F
310
FFFFFFF0000FFFFF80007FFFFF80007FFFFC0000001FFFFFFFC0000001FFFFF8
310
00000000000000007FFFFFF0001FFFFFFFFFFE0000003FFFFFFFFFFE0000003F
310
FFFFFF000000000003FFFF0000000FFFF000FFF800000003FFFFFFF00007FFFF
310
80007FFFFF80007FFFF000000007FFFFFF000000003FFFF80000000000000000
310
7FFFFFF0001FFFFFFFFFF80000000FFFFFFFFFF80000000FFFFFFF0000000000
310
03FFFC00000003FFF000FFE000000000FFFFFFF00007FFFF80003FFFFF80007F
310
FFC000000001FFFFFC000000001FFFF800000000000000007FFFFFF0001FFFFF
310
FFFFE000000003FFFFFFFFE000000003FFFFFF000000000003FFF000000000FF
310
F000FF80000000007FFFFFF00007FFFF80003FFFFF80007FFF8000000000FFFF
310
F80000000007FFF800000000000000007FFFFFF0001FFFFFFFFFC000000001FF
310
FFFFFFC000000001FFFFFF000000000003FFC0000000007FF000FF0000000000
310
3FFFFFE00007FFFF00003FFFFF80007FFE00000000003FFFF00000000003FFF8
310
00000000000000007FFFFFF0001FFFFFFFFF8000000000FFFFFFFF8000000000
310
FFFFFF000000000003FF80000000003FF000FE00000000001FFFFFE00003FFFF
310
00003FFFFF80007FFC00000000001FFFE00000000001FFF8000001FFFE000000
310
7FFFFFF0001FFFFFFFFE00000000003FFFFFFE00000000003FFFFF0000000000
310
03FF00000000001FF000FC00000000000FFFFFE00003FFFF00001FFFFF80007F
310
F800000000001FFFC00000000000FFF8000001FFFE0000007FFFFFF0001FFFFF
310
FFFC00000000001FFFFFFC00000000001FFFFF000000000003FE00000000000F
310
F000F8000000000007FFFFE00003FFFF00001FFFFF80007FF800000000000FFF
310
800000000000FFF8000001FFFE0000007FFFFFF0001FFFFFFFF800000000000F
310
FFFFF800000000000FFFFF000000000003FC000000000007F000F80000000000
310
03FFFFC00003FFFE00001FFFFF80007FF0000000000007FF0000000000007FF8
310
000001FFFE0000007FFFFFF0001FFFFFFFF0000000000007FFFFF00000000000
310
07FFFF000000000003F8000000000003F000F0000000000003FFFFC00001FFFE
310
00001FFFFF80007FE0000000000007FE0000000000003FF8000001FFFE000000
310
7FFFFFF0001FFFFFFFF0000000000007FFFFF0000000000007FFFF0000000000
310
03F800001F800003F000E00001FFF00001FFFFC00001FFFE00000FFFFF80007F
310
E00001FFE00003FE00001FFF00003FF8000001FFFE0000007FFFFFF0001FFFFF
310
FFE000003E000003FFFFE000003E000003FFFF000000000003F00001FFF80001
310
F000E00007FFFC0001FFFFC00001FFFE00000FFFFF80007FC0000FFFFC0003FC
310
0000FFFFC0001FF8000001FFFE0000007FFFFFF0001FFFFFFFC00003FFE00001
310
FFFFC00003FFE00001FFFF0001FFFFFFFFF00007FFFE0001F000E0000FFFFF00
310
00FFFF800001FFFC00000FFFFF80007FC0001FFFFE0001FC0001FFFFE0001FF8
310
000001FFFE0000007FFFFFF0001FFFFFFF80000FFFF80000FFFF80000FFFF800
310
00FFFF0003FFFFFFFFE0000FFFFF8000F000C0003FFFFF8000FFFF800000FFFC
310
000007FFFF80007F80003FFFFF0001FC0003FFFFF0001FF8000001FFFE000000
310
7FFFFFF0001FFFFFFF80003FFFFE0000FFFF80003FFFFE0000FFFF0003FFFFFF
310
FFE0003FFFFF8000F000C0003FFFFF8000FFFF800000FFFC000007FFFF80007F
310
80007FFFFF8001F80007FFFFF8000FF8000001FFFE0000007FFFFFF0001FFFFF
310
FF00007FFFFF00007FFF00007FFFFF00007FFF0003FFFFFFFFE0003FFFFFC000
310
F000C0007FFFFFC000FFFF000000FFFC000007FFFF80007F8000FFFFFF8000F8
310
000FFFFFF8000FF8000001FFFE0000007FFFFFF0001FFFFFFF0000FFFFFF8000
310
7FFF0000FFFFFF80007FFF0003FFFFFFFFC0007FFFFFC00070008000FFFFFFC0
310
00FFFF000000FFF8000007FFFF80007F8000FFFFFF8000F8000FFFFFF8000FF8
310
000001FFFE0000007FFFFFF0001FFFFFFE0001FFFFFFC0003FFE0001FFFFFFC0
310
003FFF0003FFFFFFFFC0007FFFFFE00070008000FFFFFFC0007FFF0000007FF8
310
000003FFFF80007F0001FFFFFF8000F8000FFFFFF8000FF8000001FFFE000000
310
7FFFFFF0001FFFFFFE0001FFFFFFC0003FFE0001FFFFFFC0003FFF0003FFFFFF
310
FFC000FFFFFFE00070008000FFFFFFC0007FFF0000007FF8000003FFFF80007F
310
0001FFFFFF8000F8001FFFFFF8000FF8000001FFFE0000007FFFFFF0001FFFFF
310
FE0003FFFFFFE0003FFE0003FFFFFFE0003FFF0003FFFFFFFFC000FFFFFFE000
310
70008000FFFFFFC0007FFE0000007FF8000003FFFF80007F0001FFFFFF8000F0
310
001FFFFFF8000FF8000001FFFE0000007FFFFFF0001FFFFFFC0003FFFFFFE000
310
1FFC0003FFFFFFE0001FFF0003FFFFFFFFC000FFFFFFC00070008000FFFFFF80
310
007FFE0000007FF0000003FFFF80007F0001FFFFFF0000F0001FFFFFF8000FF8
310
000001FFFE0000007FFFFFF0001FFFFFFC0007FFFFFFF0001FFC0007FFFFFFF0
310
001FFF0003FFFFFFFFC000FFFFFFC00070008001FFFFFF0000FFFE0000003FF0
310
000001FFFF80007F0001FFFFFF0000F8001FFFFFF0000FF8000001FFFE000000
310
7FFFFFF0001FFFFFFC0007FFFFFFF0001FFC0007FFFFFFF0001FFF0003FFFFFF
310
FFC001FFFFFF80007000FFFFFFFFFE0000FFFE0008003FF0008001FFFF80007F
310
FFFFFFFFFC0000FFFFFFFFFFE0000FF8000001FFFE0000007FFFFFF0001FFFFF
310
F8000FFFFFFFF8000FF8000FFFFFFFF8000FFF0003FFFFFFFFFFFFFFFFFF0000
310
7000FFFFFFFFFC0000FFFC0008003FF0008001FFFF80007FFFFFFFFFF80001FF
310
FFFFFFFF80000FF8000001FFFE0000007FFFFFF0001FFFFFF8000FFFFFFFF800
310
0FF8000FFFFFFFF8000FFF0003FFFFFFFFFFFFFFFFFE0000F000FFFFFFFFE000
310
00FFFC000C003FE000C001FFFF80007FFFFFFFFFC00001FFFFFFFFFE00001FF8
310
000001FFFE0000007FFFFFF0001FFFFFF8000FFFFFFFF8000FF8000FFFFFFFF8
310
000FFF0003FFFFFFFFFFFFFFFFF00000F000FFFFFFFE000001FFFC000C001FE0
310
00C000FFFF80007FFFFFFFFE000001FFFFFFFFE000001FF80FFFFFFFFFFFFFC0
310
7FFFFFF0001FFFFFF8000FFFFFFFF8000FF8000FFFFFFFF8000FFF0003FFFFFF
310
FFFFFFFFFF800000F000FFFFFFC0000001FFFC001C001FE001C000FFFF80007F
310
FFFFFF80000003FFFFFFF80000001FF80FFFFFFFFFFFFFC07FFFFFF0001FFFFF
310
F8001FFFFFFFFC000FF8001FFFFFFFFC000FFF0003FFFFFFFFFFFFFFF0000001
310
F000FFFFF800000001FFF8001C001FE001C000FFFF80007FFFFFF800000003FF
310
FFFF800000003FF80FFFFFFFFFFFFFC07FFFFFF0001FFFFFF8001FFFFFFFFC00
310
0FF8001FFFFFFFFC000FFF0003FFFFFFFFFFFFFE00000001F000FFFFC0000000
310
03FFF8001E001FC001E000FFFF80007FFFFF8000000007FFFFFC000000003FF8
310
0FFFFFFFFFFFFFC07FFFFFF0001FFFFFF8001FFFFFFFFC000FF8001FFFFFFFFC
310
000FFF0003FFFFFFFFFFFFE000000003F000FFFE0000000007FFF8001E000FC0
310
01E0007FFF80007FFFFE0000000007FFFFE0000000007FF80FFFFFFFFFFFFFC0
310
7FFFFFF0001FFFFFF0001FFFFFFFFC0007F0001FFFFFFFFC0007FF0003FFFFFF
310
FFFFFF0000000003F000FFF80000000007FFF8001E000FC003E0007FFF80007F
310
FFF0000000000FFFFF8000000000FFF80FFFFFFFFFFFFFC07FFFFFF0001FFFFF
310
F0001FFFFFFFFC0007F0001FFFFFFFFC0007FF0003FFFFFFFFFFFC0000000007
310
F000FFE0000000000FFFF0003E000FC003E0007FFF80007FFFC0000000001FFF
310
FE0000000001FFF80FFFFFFFFFFFFFC07FFFFFF0001FFFFFF0001FFFFFFFFC00
310
07F0001FFFFFFFFC0007FF0003FFFFFFFFFFF0000000000FF000FFC000000000
310
1FFFF0003F000F8003F0003FFF80007FFF80000000003FFFF80000000003FFF8
310
0FFFFFFFFFFFFFC07FFFFFF0001FFFFFF0001FFFFFFFFC0007F0001FFFFFFFFC
310
0007FF0003FFFFFFFFFFE0000000001FF000FF00000000007FFFF0003F000780
310
03F0003FFF80007FFF00000000007FFFF00000000007FFF80FFFFFFFFFFFFFC0
310
7FFFFFF0001FFFFFF0001FFFFFFFFC0007F0001FFFFFFFFC0007FF0003FFFFFF
310
FFFF80000000007FF000FE0000000000FFFFE0003F00078007F0003FFF80007F
310
FE0000000001FFFFE0000000001FFFF80FFFFFFFFFFFFFC07FFFFFF0001FFFFF
310
F0001FFFFFFFFC0007F0001FFFFFFFFC0007FF0003FFFFFFFFFF0000000000FF
310
F000FC0000000003FFFFE0007F00078007F0003FFF80007FFC0000000007FFFF
310
C0000000007FFFF80FFFFFFFFFFFFFC07FFFFFF0001FFFFFF8001FFFFFFFFC00
310
0FF8001FFFFFFFFC000FFF0003FFFFFFFFFE0000000003FFF000FC000000000F
310
FFFFE0007F80070007F8001FFF80007FF8000000001FFFFF8000000001FFFFF8
310
0FFFFFFFFFFFFFC07FFFFFF0001FFFFFF8001FFFFFFFFC000FF8001FFFFFFFFC
310
000FFF0003FFFFFFFFFC000000000FFFF000F8000000007FFFFFE0007F800700
310
07F8001FFF80007FF000000000FFFFFF800000000FFFFFF80FFFFFFFFFFFFFC0
310
7FFFFFF0001FFFFFF8000FFFFFFFF8000FF8000FFFFFFFF8000FFF0003FFFFFF
310
FFFC000000007FFFF000F800000007FFFFFFC0007F8003000FF8001FFF80007F
310
F000000007FFFFFF000000007FFFFFF80FFFFFFFFFFFFFC07FFFFFF0001FFFFF
310
F8000FFFFFFFF8000FF8000FFFFFFFF8000FFF0003FFFFFFFFF80000000FFFFF
310
F000F0000000FFFFFFFFC000FF8003000FF8001FFF80007FE0000000FFFFFFFF
310
0000000FFFFFFFF8000001FFFE0000007FFFFFF0001FFFFFF8000FFFFFFFF800
310
0FF8000FFFFFFFF8000FFF0003FFFFFFFFF8000000FFFFFFF000F000000FFFFF
310
FFFFC000FFC002000FF8000FFF80007FE000001FFFFFFFFE000001FFFFFFFFF8
310
000001FFFE0000007FFFFFF0001FFFFFF8000FFFFFFFF8000FF8000FFFFFFFF8
310
000FFF0003FFFFFFFFF000001FFFFFFFF000E00000FFFFFFFFFFC000FFC00200
310
0FFC000FFF80007FE00001FFFFFFFFFE00001FFFFFFFFFF8000001FFFE000000
310
7FFFFFF0001FFFFFFC000FFFFFFFF8001FFC000FFFFFFFF8001FFF0003FFFFFF
310
FFF00001FFFFFFFFF000E00007FFFFFFFFFF8000FFC000001FFC000FFF80007F
310
C0000FFFFFFFFFFE0000FFFFFFFFFFF8000001FFFE0000007FFFFFF0001FFFFF
310
FC0007FFFFFFF0001FFC0007FFFFFFF0001FFF0003FFFFFFFFF00007FFFFFFFF
310
F000E0001FFFFFFFFFFF8000FFC000001FFC000FFF80007FC0003FFFFFFFFFFE
310
0001FFFFFFFFFFF8000001FFFE0000007FFFFFF0001FFFFFFC0007FFFFFFF000
310
1FFC0007FFFFFFF0001FFF0003FFFFFFFFF0001FFFFFFFFFF000E0003FFFFF00
310
03FF8001FFE000001FFC0007FF80007FC0007FFFFF0007FC0003FFFFF0003FF8
310
000001FFFE0000007FFFFFF0001FFFFFFC0003FFFFFFE0001FFC0003FFFFFFE0
310
001FFF0003FFFFFFFFF0003FFFFFFFFFF000E0003FFFFF0001FF8001FFE00000
310
1FFE0007FF80007FC0007FFFFE0003FC0007FFFFE0003FF8000001FFFE000000
310
7FFFFFF0001FFFFFFE0003FFFFFFE0003FFE0003FFFFFFE0003FFF0003FFFFFF
310
FFF0003FFFFF8001F000E0003FFFFF0001FF0001FFE000001FFE0007FF80007F
310
C0007FFFFE0003FC0007FFFFE0003FF8000001FFFE0000007FFFFFF0001FFFFF
310
FE0001FFFFFFC0003FFE0001FFFFFFC0003FFF0003FFFFFFFFF0003FFFFF0001
310
F000E0003FFFFF0003FF0001FFE000003FFE0007FF80007FC0007FFFFE0003FC
310
0007FFFFE0003FF8000001FFFE0000007FFFFFF0001FFFFFFF0001FFFFFFC000
310
7FFF0001FFFFFFC0007FFF0003FFFFFFFFF0003FFFFF0001F000E0003FFFFE00
310
03FF0003FFF000003FFE0003FF80007FC0007FFFFC0003FE0007FFFFE0003FF8
310
000001FFFE0000007FFFFFF0001FFFFFFF0000FFFFFF80007FFF0000FFFFFF80
310
007FFF0003FFFFFFFFF0003FFFFF0001F000E0003FFFFE0003FF0003FFF00000
310
3FFF0003FF80007FC0007FFFFC0007FE0007FFFFC0003FF8000001FFFE000000
310
7FFFFFF0001FFFFFFF80007FFFFF0000FFFF80007FFFFF0000FFFF0003FFFFFF
310
FFF0003FFFFF0003F000E0003FFFFC0003FE0003FFF000003FFF0003FF80007F
310
E0003FFFF80007FE0003FFFFC0007FF8000001FFFE0000007FFFFFF0001FFFFF
310
FF80003FFFFE0000FFFF80003FFFFE0000FFFF0003FFFFFFFFF0001FFFFE0003
310
F000F0001FFFF80003FE0003FFF000007FFF0001FF80007FE0003FFFF00007FE
310
0001FFFF80007FF8000001FFFE0000007FFFFFF0001FFFFFFFC0000FFFF80001
310
FFFFC0000FFFF80001FFFF0003FFFFFFFFF0001FFFFC0003F000F0000FFFF000
310
07FE0007FFF800007FFF0001FF80007FE0001FFFE00007FF0000FFFE00007FF8
310
000001FFFE0000007FFFFFF0001FFFFFFFC00003FFE00001FFFFC00003FFE000
310
01FFFF0003FFFFFFFFF8000FFFF80003F000F00003FFC00007FC0007FFF80000
310
7FFF8001FF80007FF00007FF80000FFF00007FF80000FFF8000001FFFE000000
310
7F80000000000001FFE000003E000003FFFFE000003E000003FFFF0003FFFFFF
310
FFF80003FFE00007F000F800000000000FFC0007FFF800007FFF8001FF80007F
310
F000000000000FFF000000000000FFF8000001FFFE0000007F80000000000001
310
FFF0000000000007FFFFF0000000000007FFFF0003FFFFFFFFFC00007E000007
310
F000F800000000000FFC0007FFF80000FFFF8000FF80007FF800000000001FFF
310
800000000001FFF8000001FFFE0000007F80000000000001FFF800000000000F
310
FFFFF800000000000FFFFF0003FFFFFFFFFC00000000000FF000FC0000000000
310
1FFC0007FFFC0000FFFF8000FF80007FF800000000003FFFC00000000001FFF8
310
000001FFFE0000007F80000000000001FFF800000000000FFFFFF80000000000
310
0FFFFF0003FFFFFFFFFE00000000001FF000FE00000000003FF8000FFFFC0000
310
FFFF8000FF80007FFC00000000003FFFC00000000003FFF8000001FFFE000000
310
7F80000000000001FFFC00000000001FFFFFFC00000000001FFFFF0003FFFFFF
310
FFFF00000000001FF000FF00000000003FF8000FFFFC0000FFFFC000FF80007F
310
FE00000000007FFFE00000000007FFF8000001FFFE0000007F80000000000001
310
FFFE00000000003FFFFFFE00000000003FFFFF0003FFFFFFFFFF80000000003F
310
F000FF80000000007FF8000FFFFC0001FFFFC0007F80007FFF0000000000FFFF
310
F0000000000FFFF800000000000000007F80000000000001FFFF8000000000FF
310
FFFFFF8000000000FFFFFF0003FFFFFFFFFFC0000000007FF000FFC000000000
310
FFF8000FFFFE0001FFFFC0007F80007FFF8000000001FFFFF8000000001FFFF8
310
00000000000000007F80000000000001FFFFC000000001FFFFFFFFC000000001
310
FFFFFF0003FFFFFFFFFFE000000000FFF000FFE000000003FFF0001FFFFE0001
310
FFFFC0007F80007FFFC000000007FFFFFE000000003FFFF80000000000000000
310
7F80000000000001FFFFE000000003FFFFFFFFE000000003FFFFFF0003FFFFFF
310
FFFFF000000003FFF000FFF80000000FFFF0001FFFFE0001FFFFE0007F80007F
310
FFF00000000FFFFFFF00000000FFFFF800000000000000007F80000000000001
310
FFFFF80000000FFFFFFFFFF80000000FFFFFFF0003FFFFFFFFFFFC0000000FFF
310
F000FFFE0000003FFFF0001FFFFE0003FFFFE0003F80007FFFFC0000003FFFFF
310
FFC0000003FFFFF800000000000000007F80000000000001FFFFFE0000003FFF
310
FFFFFFFE0000003FFFFFFF0003FFFFFFFFFFFF0000003FFFF000FFFF800000FF
310
FFF0001FFFFF0003FFFFE0003F80007FFFFF000001FFFFFFFFF800001FFFFFF8
310
00000000000000007F80000000000001FFFFFFC00001FFFFFFFFFFFFC00001FF
310
FFFFFF0003FFFFFFFFFFFFC00000FFFFF000FFFFF8000FFFFFFFFFFFFFFFFFFF
310
FFFFFFFFFFFFFFFFFFFFF0001FFFFFFFFFFF0000FFFFFFF80000000000000000
310
7FFFFFFFFFFFFFFFFFFFFFFC001FFFFFFFFFFFFFFC001FFFFFFFFFFFFFFFFFFF
310
FFFFFFFC001FFFFFF000FFFFFFFFFFFFFFFFFFFFFFFFFFFFFFFFFFFFFFFFFFFF
310
FFFFFFFFFFFFFFFFFFFFFFFFFFFFFFFFFFFFFFFFFFFFFFFFFFFFFFFFFFFFFFFF
310
FFFFFFFFFFFFFFFFFFFFFFFFFFFFFFFFFFFFFFFFFFFFFFFFFFFFFFFFFFFFFFFF
310
F000FFFFFFFFFFFFFFFFFFFFFFFFFFFFFFFFFFFFFFFFFFFFFFFFFFFFFFFFFFFF
310
FFFFFFFFFFFFFFFFFFFFFFFFFFFFFFFFFFFFFFFFFFFFFFFFFFFFFFFFFFFFFFFF
310
FFFFFFFFFFFFFFFFFFFFFFFFFFFFFFFFFFFFFFFFFFFFFFFFF000FFFFFFFFFFFF
310
FFFFFFFFFFFFFFFFFFFFFFFFFFFFFFFFFFFFFFFFFFFFFFFFFFFFFFFFFFFFFFFF
310
FFFFFFFFFFFFFFFFFFFFFFFFFFFFFFFFFFFFFFFFFFFFFFFFFFFFFFFFFFFFFFFF
310
FFFFFFFFFFFFFFFFFFFFFFFFFFFFFFFFF000FFFFFFFFFFFFFFFFFFFFFFFFFFFF
310
FFFFFFFFFFFFFFFFFFFFFFFFFFFFFFFFFFFFFFFFFFFFFFFFFFFFFFFFFFFFFFFF
310
FFFFFFFFFFFFFFFFFFFFFFFFFFFFFFFFFFFFFFFFFFFFFFFFFFFFFFFFFFFFFFFF
310
FFFFFFFFFFFFFFFFF000FFFFFFFFFFFFFFFFFFFFFFFFFFFFFFFFFFFFFFFFFFFF
310
FFFFFFFFFFFFFFFFFFFFFFFFFFFFFFFFFFFFFFFFFFFFFFFFFFFFFFFFFFFFFFFF
310
FFFFFFFFFFFFFFFFFFFFFFFFFFFFFFFFFFFFFFFFFFFFFFFFFFFFFFFFFFFFFFFF
310
F000FFFFFFFFFFFFFFFFFFFFFFFFFFFFFFFFFFFFFFFFFFFFFFFFFFFFFFFFFFFF
310
FFFFFFFFFFFFFFFFFFFFFFFFFFFFFFFFFFFFFFFFFFFFFFFFFFFFFFFFFFFFFFFF
310
FFFFFFFFFFFFFFFFFFFFFFFFFFFFFFFFFFFFFFFFFFFFFFFFF000FFFFFFFFFFFF
310
FFFFFFFFFFFFFFFFFFFFFFFFFFFFFFFFFFFFFFFFFFFFFFFFFFFFFFFFFFFFFFFF
310
FFFFFFFFFFFFFFFFFFFFFFFFFFFFFFFFFFFFFFFFFFFFFFFFFFFFFFFFFFFFFFFF
310
FFFFFFFFFFFFFFFFFFFFFFFFFFFFFFFFF000FFFFFFFFFFFFFFFFFFFFFFFFFFFF
310
FFFFFFFFFFFFFFFFFFFFFFFFFFFFFFFFFFFFFFFFFFFFFFFFFFFFFFFFFFFFFFFF
310
FFFFFFFFFFFFFFFFFFFFFFFFFFFFFFFFFFFFFFFFFFFFFFFFFFFFFFFFFFFFFFFF
310
FFFFFFFFFFFFFFFFF000FFFFFFFFFFFFFFFFFFFFFFFFFFFFFFFFFFFFFFFFFFFF
310
FFFFFFFFFFFFFFFFFFFFFFFFFFFFFFFFFFFFFFFFFFFFFFFFFFFFFFFFFFFFFFFF
310
FFFFFFFFFFFFFFFFFFFFFFFFFFFFFFFFFFFFFFFFFFFFFFFFFFFFFFFFFFFFFFFF
310
F000FFFFFFFFFFFFFFFFFFFFFFFFFFFFFFFFFFFFFFFFFFFFFFFFFFFFFFFFFFFF
310
FFFFFFFFFFFFFFFFFFFFFFFFFFFFFFFFFFFFFFFFFFFFFFFFFFFFFFFFFFFFFFFF
310
FFFFFFFFFFFFFFFFFFFFFFFFFFFFFFFFFFFFFFFFFFFFFFFFF000FFFFFFFFFFFF
310
FFFFFFFFFFFFFFFFFFFFFFFFFFFFFFFFFFFFFFFFFFFFFFFFFFFFFFFFFFFFFFFF
310
FFFFFFFFFFFFFFFFFFFFFFFFFFFFFFFFFFFFFFFFFFFFFFFFFFFFFFFFFFFFFFFF
310
FFFFFFFFFFFFFFFFFFFFFFFFFFFFFFFFF000FFFFFFFFFFFFFFFFFFFFFFFFFFFF
310
FFFFFFFFFFFFFFFFFFFFFFFFFFFFFFFFFFFFFFFFFFFFFFFFFFFFFFFFFFFFFFFF
310
FFFFFFFFFFFFFFFFFFFFFFFFFFFFFFFFFFFFFFFFFFFFFFFFFFFFFFFFFFFFFFFF
310
FFFFFFFFFFFFFFFFF000FFFFFFFFFFFFFFFFFFFFFFFFFFFFFFFFFFFFFFFFFFFF
310
FFFFFFFFFFFFFFFFFFFFFFFFFFFFFFFFFFFFFFFFFFFFFFFFFFFFFFFFFFFFFFFF
310
FFFFFFFFFFFFFFFFFFFFFFFFFFFFFFFFFFFFFFFFFFFFFFFFFFFFFFFFFFFFFFFF
310
F000FFFFFFFFFFFFFFFFFFFFFFFFFFFFFFFFFFFFFFFFFFFFFFFFFFFFFFFFFFFF
310
FFFFFFFFFFFFFFFFFFFFFFFFFFFFFFFFFFFFFFFFFFFFFFFFFFFFFFFFFFFFFFFF
310
FFFFFFFFFFFFFFFFFFFFFFFFFFFFFFFFFFFFFFFFFFFFFFFFF000FFFFFFFFFFFF
310
FFFFFFFFFFFFFFFFFFFFFFFFFFFFFFFFFFFFFFFFFFFFFFFFFFFFFFFFFFFFFFFF
310
FFFFFFFFFFFFFFFFFFFFFFFFFFFFFFFFFFFFFFFFFFFFFFFFFFFFFFFFFFFFFFFF
310
FFFFFFFFFFFFFFFFFFFFFFFFFFFFFFFFF000FFFFFFFFFFFFFFFFFFFFFFFFFFFF
310
FFFFFFFFFFFFFFFFFFFFFFFFFFFFFFFFFFFFFFFFFFFFFFFFFFFFFFFFFFFFFFFF
310
FFFFFFFFFFFFFFFFFFFFFFFFFFFFFFFFFFFFFFFFFFFFFFFFFFFFFFFFFFFFFFFF
310
FFFFFFFFFFFFFFFFF000FFFFFFFFFFFFFFFFFFFFFFFFFFFFFFFFFFFFFFFFFFFF
310
FFFFFFFFFFFFFFFFFFFFFFFFFFFFFFFFFFFFFFFFFFFFFFFFFFFFFFFFFFFFFFFF
310
FFFFFFFFFFFFFFFFFFFFFFFFFFFFFFFFFFFFFFFFFFFFFFFFFFFFFFFFFFFFFFFF
310
F000FFFFFFFFFFFFFFFFFFFFFFFFFFFFFFFFFFFFFFFFFFFFFFFFFFFFFFFFFFFF
310
FFFFFFFFFFFFFFFFFFFFFFFFFFFFFFFFFFFFFFFFFFFFFFFFFFFFFFFFFFFFFFFF
310
FFFFFFFFFFFFFFFFFFFFFFFFFFFFFFFFFFFFFFFFFFFFFFFFF000FFFFFFFFFFFF
310
FFFFFFFFFFFFFFFFFFFFFFFFFFFFFFFFFFFFFFFFFFFFFFFFFFFFFFFFFFFFFFFF
310
FFFFFFFFFFFFFFFFFFFFFFFFFFFFFFFFFFFFFFFFFFFFFFFFFFFFFFFFFFFFFFFF
310
FFFFFFFFFFFFFFFFFFFFFFFFFFFFFFFFF000FFFFFFFFFFFFFFFFFFFFFFFFFFFF
310
FFFFFFFFFFFFFFFFFFFFFFFFFFFFFFFFFFFFFFFFFFFFFFFFFFFFFFFFFFFFFFFF
310
FFFFFFFFFFFFFFFFFFFFFFFFFFFFFFFFFFFFFFFFFFFFFFFFFFFFFFFFFFFFFFFF
310
FFFFFFFFFFFFFFFFF000FFFFFFFFFFFFFFFFFFFFFFFFFFFFFFFFFFFFFFFFFFFF
310
FFFFFFFFFFFFFFFFFFFFFFFFFFFFFFFFFFFFFFFFFFFFFFFFFFFFFFFFFFFFFFFF
310
FFFFFFFFFFFFFFFFFFFFFFFFFFFFFFFFFFFFFFFFFFFFFFFFFFFFFFFFFFFFFFFF
310
F000FFFFFFFFFFFFFFFFFFFFFFFFFFFFFFFFFFFFFFFFFFFFFFFFFFFFFFFFFFFF
310
FFFFFFFFFFFFFFFFFFFFFFFFFFFFFFFFFFFFFFFFFFFFFFFFFFFFFFFFFFFFFFFF
310
FFFFFFFFFFFFFFFFFFFFFFFFFFFFFFFFFFFFFFFFFFFFFFFFF000FFFFFFFFFFFF
310
FFFFFFFFFFFFFFFFFFFFFFFFFFFFFFFFFFFFFFFFFFFFFFFFFFFFFFFFFFFFFFFF
310
FFFFFFFFFFFFFFFFFFFFFFFFFFFFFFFFFFFFFFFFFFFFFFFFFFFFFFFFFFFFFFFF
310
FFFFFFFFFFFFFFFFFFFFFFFFFFFFFFFFF0000000000000000000000000000000
310
00000000000000000000000042006C00610063006B0000000000000000000000
310
0000000000000000000000000000000000000000000000000000000000000000
310
0000000000000000000000000000FFFFFFFFFFFFFFFFFFFFFFFFFFFFFFFFFFFF
310
FFFFFFFFFFFFFFFFFFFFFFFFFFFFFFFFFFFFFFFFFFFFFFFFFFFFFFFFFFFFFFFF
310
FFFFFFFFFFFFFFFFFFFFFFFF6476000800000000FFFFFFFF20FF202026000000
310
1E00000008000000060000000000000011000000200000008403000000000000
310
6000000060000000200002FB200020000000002B00FFFFFF40002200E8030000
310
A80400001C020000AF0000804A20004000000000000000000100000000000000
310
616C000800000000E40100007001000002000000270000001100000000000000
310
00000000BC0200000000000003020122420065006C006C00200047006F007400
310
680069006300200053007400640020004C006900670068007400000000000000
310
00000000000000000000000000000000420065006C006C0047006F0074006800
310
690063005300740064002D0042006F006C006400000000000000000000000000
310
0000000000000000000000000000000000000000000000000000000000000000
310
0000000000000000000000000000000000000000000000000000000000000000
  1
OLE
  0
ENDSEC
  0
SECTION
  2
OBJECTS
  0
DICTIONARY
  5
C
330
0
100
AcDbDictionary
281
     1
  3
ACAD_GROUP
350
D
  3
ACAD_LAYOUT
350
1A
  3
ACAD_MLEADERSTYLE
350
297
  3
ACAD_MLINESTYLE
350
17
  3
ACAD_PLOTSETTINGS
350
19
  3
ACAD_PLOTSTYLENAME
350
E
  3
ACAD_TABLESTYLE
350
296
  3
ACAD_VISUALSTYLE
350
2A
  3
AcDbVariableDictionary
350
298
  0
DICTIONARY
  5
D
102
{ACAD_REACTORS
330
C
102
}
330
C
100
AcDbDictionary
281
     1
  0
DICTIONARY
  5
1A
102
{ACAD_REACTORS
330
C
102
}
330
C
100
AcDbDictionary
281
     1
  3
Layout1
350
1E
  3
Layout2
350
26
  3
Model
350
22
  0
DICTIONARY
  5
297
102
{ACAD_REACTORS
330
C
102
}
330
C
100
AcDbDictionary
281
     1
  0
DICTIONARY
  5
17
102
{ACAD_REACTORS
330
C
102
}
330
C
100
AcDbDictionary
281
     1
  3
Standard
350
18
  0
DICTIONARY
  5
19
102
{ACAD_REACTORS
330
C
102
}
330
C
100
AcDbDictionary
281
     1
  0
ACDBDICTIONARYWDFLT
  5
E
102
{ACAD_REACTORS
330
C
102
}
330
C
100
AcDbDictionary
281
     1
  3
Normal
350
F
100
AcDbDictionaryWithDefault
340
F
  0
DICTIONARY
  5
296
102
{ACAD_REACTORS
330
C
102
}
330
C
100
AcDbDictionary
281
     1
  0
DICTIONARY
  5
2A
102
{ACAD_REACTORS
330
C
102
}
330
C
100
AcDbDictionary
281
     1
  3
2dWireframe
350
2F
  3
3D Hidden
350
31
  3
3dWireframe
350
30
  3
Basic
350
32
  3
Brighten
350
36
  3
ColorChange
350
3A
  3
Conceptual
350
34
  3
Dim
350
35
  3
Facepattern
350
39
  3
Flat
350
2B
  3
FlatWithEdges
350
2C
  3
Gouraud
350
2D
  3
GouraudWithEdges
350
2E
  3
Linepattern
350
38
  3
Realistic
350
33
  3
Thicken
350
37
  0
DICTIONARY
  5
298
102
{ACAD_REACTORS
330
C
102
}
330
C
100
AcDbDictionary
281
     1
  3
PSOLHEIGHT
350
29A
  3
PSOLWIDTH
350
299
  0
LAYOUT
  5
1E
102
{ACAD_REACTORS
330
1A
102
}
330
1A
100
AcDbPlotSettings
  1

  2
none_device
  4

  6

 40
0.0
 41
0.0
 42
0.0
 43
0.0
 44
0.0
 45
0.0
 46
0.0
 47
0.0
 48
0.0
 49
0.0
140
0.0
141
0.0
142
1.0
143
1.0
 70
   688
 72
     0
 73
     0
 74
     5
  7

 75
    16
147
1.0
148
0.0
149
0.0
100
AcDbLayout
  1
Layout1
 70
     1
 71
     1
 10
0.0
 20
0.0
 11
420.0
 21
297.0
 12
0.0
 22
0.0
 32
0.0
 14
1.0000000000E+20
 24
1.0000000000E+20
 34
1.0000000000E+20
 15
-1.0000000000E+20
 25
-1.0000000000E+20
 35
-1.0000000000E+20
146
0.0
 13
0.0
 23
0.0
 33
0.0
 16
1.0
 26
0.0
 36
0.0
 17
0.0
 27
1.0
 37
0.0
 76
     0
330
1B
  0
LAYOUT
  5
26
102
{ACAD_REACTORS
330
1A
102
}
330
1A
100
AcDbPlotSettings
  1

  2
none_device
  4

  6

 40
0.0
 41
0.0
 42
0.0
 43
0.0
 44
0.0
 45
0.0
 46
0.0
 47
0.0
 48
0.0
 49
0.0
140
0.0
141
0.0
142
1.0
143
1.0
 70
   688
 72
     0
 73
     0
 74
     5
  7

 75
    16
147
1.0
148
0.0
149
0.0
100
AcDbLayout
  1
Layout2
 70
     1
 71
     2
 10
0.0
 20
0.0
 11
0.0
 21
0.0
 12
0.0
 22
0.0
 32
0.0
 14
0.0
 24
0.0
 34
0.0
 15
0.0
 25
0.0
 35
0.0
146
0.0
 13
0.0
 23
0.0
 33
0.0
 16
1.0
 26
0.0
 36
0.0
 17
0.0
 27
1.0
 37
0.0
 76
     0
330
23
  0
LAYOUT
  5
22
102
{ACAD_REACTORS
330
1A
102
}
330
1A
100
AcDbPlotSettings
  1

  2
none_device
  4

  6

 40
0.0
 41
0.0
 42
0.0
 43
0.0
 44
0.0
 45
0.0
 46
0.0
 47
0.0
 48
0.0
 49
0.0
140
0.0
141
0.0
142
1.0
143
1.0
 70
  1712
 72
     0
 73
     0
 74
     0
  7

 75
     0
147
1.0
148
0.0
149
0.0
100
AcDbLayout
  1
Model
 70
     1
 71
     0
 10
0.0
 20
0.0
 11
297.0
 21
210.0
 12
0.0
 22
0.0
 32
0.0
 14
0.0
 24
0.0
 34
0.0
 15
297.0
 25
210.0
 35
0.0
146
0.0
 13
0.0
 23
0.0
 33
0.0
 16
1.0
 26
0.0
 36
0.0
 17
0.0
 27
1.0
 37
0.0
 76
     0
330
1F
331
29
  0
MLINESTYLE
  5
18
102
{ACAD_REACTORS
330
17
102
}
330
17
100
AcDbMlineStyle
  2
Standard
 70
     0
  3

 62
   256
 51
90.0
 52
90.0
 71
     2
 49
0.5
 62
   256
  6
BYLAYER
 49
-0.5
 62
   256
  6
BYLAYER
  0
ACDBPLACEHOLDER
  5
F
102
{ACAD_REACTORS
330
E
102
}
330
E
  0
VISUALSTYLE
  5
2F
102
{ACAD_REACTORS
330
2A
102
}
330
2A
100
AcDbVisualStyle
  2
2dWireframe
 70
     4
 71
     0
 72
     2
 73
     0
 90
        0
 40
-0.6
 41
-30.0
 62
     5
 63
     7
 74
     1
 91
        4
 64
     7
 65
   257
 75
     1
175
     1
 42
1.0
 92
        0
 66
   257
 43
1.0
 76
     1
 77
     6
 78
     2
 67
     7
 79
     5
170
     0
171
     0
290
     0
174
     0
 93
        1
 44
0.0
173
     0
291
     0
 45
0.0
1001
ACAD
1000
AcDbSavedByObjectVersion
1070
     0
  0
VISUALSTYLE
  5
31
102
{ACAD_REACTORS
330
2A
102
}
330
2A
100
AcDbVisualStyle
  2
3D Hidden
 70
     6
 71
     1
 72
     2
 73
     2
 90
        0
 40
-0.6
 41
-30.0
 62
     5
 63
     7
 74
     2
 91
        2
 64
     7
 65
   257
 75
     2
175
     1
 42
40.0
 92
        0
 66
   257
 43
1.0
 76
     1
 77
     6
 78
     2
 67
     7
 79
     3
170
     0
171
     0
290
     0
174
     0
 93
        1
 44
0.0
173
     0
291
     0
 45
0.0
1001
ACAD
1000
AcDbSavedByObjectVersion
1070
     0
  0
VISUALSTYLE
  5
30
102
{ACAD_REACTORS
330
2A
102
}
330
2A
100
AcDbVisualStyle
  2
3dWireframe
 70
     5
 71
     0
 72
     2
 73
     0
 90
        0
 40
-0.6
 41
-30.0
 62
     5
 63
     7
 74
     1
 91
        4
 64
     7
 65
   257
 75
     1
175
     1
 42
1.0
 92
        0
 66
   257
 43
1.0
 76
     1
 77
     6
 78
     2
 67
     7
 79
     5
170
     0
171
     0
290
     0
174
     0
 93
        1
 44
0.0
173
     0
291
     0
 45
0.0
1001
ACAD
1000
AcDbSavedByObjectVersion
1070
     0
  0
VISUALSTYLE
  5
32
102
{ACAD_REACTORS
330
2A
102
}
330
2A
100
AcDbVisualStyle
  2
Basic
 70
     7
 71
     1
 72
     0
 73
     1
 90
        0
 40
-0.6
 41
-30.0
 62
     5
 63
     7
 74
     0
 91
        4
 64
     7
 65
   257
 75
     1
175
     1
 42
1.0
 92
        8
 66
     7
 43
1.0
 76
     1
 77
     6
 78
     2
 67
     7
 79
     5
170
     0
171
     0
290
     0
174
     0
 93
        1
 44
0.0
173
     0
291
     1
 45
0.0
1001
ACAD
1000
AcDbSavedByObjectVersion
1070
     0
  0
VISUALSTYLE
  5
36
102
{ACAD_REACTORS
330
2A
102
}
330
2A
100
AcDbVisualStyle
  2
Brighten
 70
    12
 71
     2
 72
     2
 73
     0
 90
        0
 40
-0.6
 41
-30.0
 62
     5
 63
     7
 74
     1
 91
        4
 64
     7
 65
   257
 75
     1
175
     1
 42
1.0
 92
        8
 66
     7
 43
1.0
 76
     1
 77
     6
 78
     2
 67
     7
 79
     5
170
     0
171
     0
290
     0
174
     0
 93
        1
 44
50.0
173
     0
291
     1
 45
0.0
1001
ACAD
1000
AcDbSavedByObjectVersion
1070
     0
  0
VISUALSTYLE
  5
3A
102
{ACAD_REACTORS
330
2A
102
}
330
2A
100
AcDbVisualStyle
  2
ColorChange
 70
    16
 71
     2
 72
     2
 73
     3
 90
        0
 40
-0.6
 41
-30.0
 62
     5
 63
     8
 74
     1
 91
        4
 64
     7
 65
   257
 75
     1
175
     1
 42
1.0
 92
        8
 66
     8
 43
1.0
 76
     1
 77
     6
 78
     2
 67
     7
 79
     5
170
     0
171
     0
290
     0
174
     0
 93
        1
 44
0.0
173
     0
291
     1
 45
0.0
1001
ACAD
1000
AcDbSavedByObjectVersion
1070
     0
  0
VISUALSTYLE
  5
34
102
{ACAD_REACTORS
330
2A
102
}
330
2A
100
AcDbVisualStyle
  2
Conceptual
 70
     9
 71
     3
 72
     2
 73
     0
 90
        0
 40
-0.6
 41
-30.0
 62
     5
 63
     7
 74
     2
 91
        2
 64
     7
 65
   257
 75
     1
175
     1
 42
40.0
 92
        8
 66
     7
 43
1.0
 76
     1
 77
     6
 78
     2
 67
     7
 79
     3
170
     0
171
     0
290
     0
174
     0
 93
        1
 44
0.0
173
     0
291
     0
 45
0.0
1001
ACAD
1000
AcDbSavedByObjectVersion
1070
     0
  0
VISUALSTYLE
  5
35
102
{ACAD_REACTORS
330
2A
102
}
330
2A
100
AcDbVisualStyle
  2
Dim
 70
    11
 71
     2
 72
     2
 73
     0
 90
        0
 40
-0.6
 41
-30.0
 62
     5
 63
     7
 74
     1
 91
        4
 64
     7
 65
   257
 75
     1
175
     1
 42
1.0
 92
        8
 66
     7
 43
1.0
 76
     1
 77
     6
 78
     2
 67
     7
 79
     5
170
     0
171
     0
290
     0
174
     0
 93
        1
 44
-50.0
173
     0
291
     1
 45
0.0
1001
ACAD
1000
AcDbSavedByObjectVersion
1070
     0
  0
VISUALSTYLE
  5
39
102
{ACAD_REACTORS
330
2A
102
}
330
2A
100
AcDbVisualStyle
  2
Facepattern
 70
    15
 71
     2
 72
     2
 73
     0
 90
        0
 40
-0.6
 41
-30.0
 62
     5
 63
     7
 74
     1
 91
        4
 64
     7
 65
   257
 75
     1
175
     1
 42
1.0
 92
        8
 66
     7
 43
1.0
 76
     1
 77
     6
 78
     2
 67
     7
 79
     5
170
     0
171
     0
290
     0
174
     0
 93
        1
 44
0.0
173
     0
291
     1
 45
0.0
1001
ACAD
1000
AcDbSavedByObjectVersion
1070
     0
  0
VISUALSTYLE
  5
2B
102
{ACAD_REACTORS
330
2A
102
}
330
2A
100
AcDbVisualStyle
  2
Flat
 70
     0
 71
     2
 72
     1
 73
     1
 90
        2
 40
-0.6
 41
30.0
 62
     5
 63
     7
 74
     0
 91
        4
 64
     7
 65
   257
 75
     1
175
     1
 42
1.0
 92
        8
 66
     7
 43
1.0
 76
     1
 77
     6
 78
     2
 67
     7
 79
     5
170
     0
171
     0
290
     0
174
     0
 93
       13
 44
0.0
173
     0
291
     1
 45
0.0
1001
ACAD
1000
AcDbSavedByObjectVersion
1070
     0
  0
VISUALSTYLE
  5
2C
102
{ACAD_REACTORS
330
2A
102
}
330
2A
100
AcDbVisualStyle
  2
FlatWithEdges
 70
     1
 71
     2
 72
     1
 73
     1
 90
        2
 40
-0.6
 41
30.0
 62
     5
 63
     7
 74
     1
 91
        4
 64
     7
 65
   257
 75
     1
175
     1
 42
1.0
 92
        0
 66
   257
 43
1.0
 76
     1
 77
     6
 78
     2
 67
     7
 79
     5
170
     0
171
     0
290
     0
174
     0
 93
       13
 44
0.0
173
     0
291
     1
 45
0.0
1001
ACAD
1000
AcDbSavedByObjectVersion
1070
     0
  0
VISUALSTYLE
  5
2D
102
{ACAD_REACTORS
330
2A
102
}
330
2A
100
AcDbVisualStyle
  2
Gouraud
 70
     2
 71
     2
 72
     2
 73
     1
 90
        2
 40
-0.6
 41
30.0
 62
     5
 63
     7
 74
     0
 91
        4
 64
     7
 65
   257
 75
     1
175
     1
 42
1.0
 92
        0
 66
     7
 43
1.0
 76
     1
 77
     6
 78
     2
 67
     7
 79
     5
170
     0
171
     0
290
     0
174
     0
 93
       13
 44
0.0
173
     0
291
     1
 45
0.0
1001
ACAD
1000
AcDbSavedByObjectVersion
1070
     0
  0
VISUALSTYLE
  5
2E
102
{ACAD_REACTORS
330
2A
102
}
330
2A
100
AcDbVisualStyle
  2
GouraudWithEdges
 70
     3
 71
     2
 72
     2
 73
     1
 90
        2
 40
-0.6
 41
30.0
 62
     5
 63
     7
 74
     1
 91
        4
 64
     7
 65
   257
 75
     1
175
     1
 42
1.0
 92
        0
 66
   257
 43
1.0
 76
     1
 77
     6
 78
     2
 67
     7
 79
     5
170
     0
171
     0
290
     0
174
     0
 93
       13
 44
0.0
173
     0
291
     1
 45
0.0
1001
ACAD
1000
AcDbSavedByObjectVersion
1070
     0
  0
VISUALSTYLE
  5
38
102
{ACAD_REACTORS
330
2A
102
}
330
2A
100
AcDbVisualStyle
  2
Linepattern
 70
    14
 71
     2
 72
     2
 73
     0
 90
        0
 40
-0.6
 41
-30.0
 62
     5
 63
     7
 74
     1
 91
        4
 64
     7
 65
   257
 75
     7
175
     7
 42
1.0
 92
        8
 66
     7
 43
1.0
 76
     1
 77
     6
 78
     2
 67
     7
 79
     5
170
     0
171
     0
290
     0
174
     0
 93
        1
 44
0.0
173
     0
291
     1
 45
0.0
1001
ACAD
1000
AcDbSavedByObjectVersion
1070
     0
  0
VISUALSTYLE
  5
33
102
{ACAD_REACTORS
330
2A
102
}
330
2A
100
AcDbVisualStyle
  2
Realistic
 70
     8
 71
     2
 72
     2
 73
     0
 90
        0
 40
-0.6
 41
-30.0
 62
     5
 63
     7
 74
     1
 91
        0
 64
     7
 65
   257
 75
     1
175
     1
 42
1.0
 92
        8
 66
     8
 43
1.0
 76
     1
 77
     6
 78
     2
 67
     7
 79
     5
170
     0
171
     0
290
     0
174
     0
 93
       13
 44
0.0
173
     0
291
     0
 45
0.0
1001
ACAD
1000
AcDbSavedByObjectVersion
1070
     0
  0
VISUALSTYLE
  5
37
102
{ACAD_REACTORS
330
2A
102
}
330
2A
100
AcDbVisualStyle
  2
Thicken
 70
    13
 71
     2
 72
     2
 73
     0
 90
        0
 40
-0.6
 41
-30.0
 62
     5
 63
     7
 74
     1
 91
        4
 64
     7
 65
   257
 75
     1
175
     1
 42
1.0
 92
       12
 66
     7
 43
1.0
 76
     1
 77
     6
 78
     2
 67
     7
 79
     5
170
     0
171
     0
290
     0
174
     0
 93
        1
 44
0.0
173
     0
291
     1
 45
0.0
1001
ACAD
1000
AcDbSavedByObjectVersion
1070
     0
  0
DICTIONARYVAR
  5
29A
102
{ACAD_REACTORS
330
298
102
}
330
298
100
DictionaryVariables
280
     0
  1
80.000000
  0
DICTIONARYVAR
  5
299
102
{ACAD_REACTORS
330
298
102
}
330
298
100
DictionaryVariables
280
     0
  1
5.000000
  0
ENDSEC
  0
EOF
