  0
SECTION
  2
HEADER
  9
$ACADVER
  1
AC1015
  9
$ACADMAINTVER
 70
     6
  9
$DWGCODEPAGE
  3
ANSI_1252
  9
$INSBASE
 10
0.0
 20
0.0
 30
0.0
  9
$EXTMIN
 10
0.0
 20
0.0
 30
0.0
  9
$EXTMAX
 10
297.0
 20
210.0
 30
0.0
  9
$LIMMIN
 10
0.0
 20
0.0
  9
$LIMMAX
 10
297.0
 20
210.0
  9
$ORTHOMODE
 70
     0
  9
$REGENMODE
 70
     1
  9
$FILLMODE
 70
     1
  9
$QTEXTMODE
 70
     0
  9
$MIRRTEXT
 70
     1
  9
$LTSCALE
 40
1.0
  9
$ATTMODE
 70
     1
  9
$TEXTSIZE
 40
2.0
  9
$TRACEWID
 40
1.0
  9
$TEXTSTYLE
  7
Standard
  9
$CLAYER
  8
0
  9
$CELTYPE
  6
ByLayer
  9
$CECOLOR
 62
   256
  9
$CELTSCALE
 40
1.0
  9
$DISPSILH
 70
     0
  9
$DIMSCALE
 40
1.0
  9
$DIMASZ
 40
3.0
  9
$DIMEXO
 40
0.0
  9
$DIMDLI
 40
3.75
  9
$DIMRND
 40
0.0
  9
$DIMDLE
 40
0.0
  9
$DIMEXE
 40
1.0
  9
$DIMTP
 40
0.0
  9
$DIMTM
 40
0.0
  9
$DIMTXT
 40
2.0
  9
$DIMCEN
 40
2.5
  9
$DIMTSZ
 40
0.0
  9
$DIMTOL
 70
     0
  9
$DIMLIM
 70
     0
  9
$DIMTIH
 70
     1
  9
$DIMTOH
 70
     1
  9
$DIMSE1
 70
     0
  9
$DIMSE2
 70
     0
  9
$DIMTAD
 70
     1
  9
$DIMZIN
 70
     0
  9
$DIMBLK
  1

  9
$DIMASO
 70
     1
  9
$DIMSHO
 70
     1
  9
$DIMPOST
  1

  9
$DIMAPOST
  1

  9
$DIMALT
 70
     0
  9
$DIMALTD
 70
     3
  9
$DIMALTF
 40
0.0393700787
  9
$DIMLFAC
 40
1.0
  9
$DIMTOFL
 70
     1
  9
$DIMTVP
 40
0.0
  9
$DIMTIX
 70
     0
  9
$DIMSOXD
 70
     0
  9
$DIMSAH
 70
     0
  9
$DIMBLK1
  1

  9
$DIMBLK2
  1

  9
$DIMSTYLE
  2
ISO-25
  9
$DIMCLRD
 70
     0
  9
$DIMCLRE
 70
     0
  9
$DIMCLRT
 70
     0
  9
$DIMTFAC
 40
1.0
  9
$DIMGAP
 40
1.524
  9
$DIMJUST
 70
     0
  9
$DIMSD1
 70
     0
  9
$DIMSD2
 70
     0
  9
$DIMTOLJ
 70
     0
  9
$DIMTZIN
 70
     0
  9
$DIMALTZ
 70
     0
  9
$DIMALTTZ
 70
     0
  9
$DIMUPT
 70
     0
  9
$DIMDEC
 70
     2
  9
$DIMTDEC
 70
     3
  9
$DIMALTU
 70
     2
  9
$DIMALTTD
 70
     3
  9
$DIMTXSTY
  7
Standard
  9
$DIMAUNIT
 70
     0
  9
$DIMADEC
 70
     2
  9
$DIMALTRND
 40
0.0
  9
$DIMAZIN
 70
     0
  9
$DIMDSEP
 70
    44
  9
$DIMATFIT
 70
     3
  9
$DIMFRAC
 70
     0
  9
$DIMLDRBLK
  1

  9
$DIMLUNIT
 70
     2
  9
$DIMLWD
 70
    -2
  9
$DIMLWE
 70
    -2
  9
$DIMTMOVE
 70
     0
  9
$LUNITS
 70
     2
  9
$LUPREC
 70
     2
  9
$SKETCHINC
 40
1.0
  9
$FILLETRAD
 40
10.0
  9
$AUNITS
 70
     0
  9
$AUPREC
 70
     2
  9
$MENU
  1
.
  9
$ELEVATION
 40
0.0
  9
$PELEVATION
 40
0.0
  9
$THICKNESS
 40
0.0
  9
$LIMCHECK
 70
     0
  9
$CHAMFERA
 40
10.0
  9
$CHAMFERB
 40
10.0
  9
$CHAMFERC
 40
20.0
  9
$CHAMFERD
 40
0.0
  9
$SKPOLY
 70
     0
  9
$TDCREATE
 40
2455643.436130336
  9
$TDUCREATE
 40
2455643.394463669
  9
$TDUPDATE
 40
2455643.436130347
  9
$TDUUPDATE
 40
2455643.394463681
  9
$TDINDWG
 40
0.0000000116
  9
$TDUSRTIMER
 40
0.0000000116
  9
$USRTIMER
 70
     1
  9
$ANGBASE
 50
0.0
  9
$ANGDIR
 70
     0
  9
$PDMODE
 70
     0
  9
$PDSIZE
 40
-1.0
  9
$PLINEWID
 40
0.0
  9
$SPLFRAME
 70
     0
  9
$SPLINETYPE
 70
     6
  9
$SPLINESEGS
 70
     8
  9
$HANDSEED
  5
28E
  9
$SURFTAB1
 70
     6
  9
$SURFTAB2
 70
     6
  9
$SURFTYPE
 70
     6
  9
$SURFU
 70
     6
  9
$SURFV
 70
     6
  9
$UCSBASE
  2

  9
$UCSNAME
  2

  9
$UCSORG
 10
0.0
 20
0.0
 30
0.0
  9
$UCSXDIR
 10
1.0
 20
0.0
 30
0.0
  9
$UCSYDIR
 10
0.0
 20
1.0
 30
0.0
  9
$UCSORTHOREF
  2

  9
$UCSORTHOVIEW
 70
     0
  9
$UCSORGTOP
 10
0.0
 20
0.0
 30
0.0
  9
$UCSORGBOTTOM
 10
0.0
 20
0.0
 30
0.0
  9
$UCSORGLEFT
 10
0.0
 20
0.0
 30
0.0
  9
$UCSORGRIGHT
 10
0.0
 20
0.0
 30
0.0
  9
$UCSORGFRONT
 10
0.0
 20
0.0
 30
0.0
  9
$UCSORGBACK
 10
0.0
 20
0.0
 30
0.0
  9
$PUCSBASE
  2

  9
$PUCSNAME
  2

  9
$PUCSORG
 10
0.0
 20
0.0
 30
0.0
  9
$PUCSXDIR
 10
1.0
 20
0.0
 30
0.0
  9
$PUCSYDIR
 10
0.0
 20
1.0
 30
0.0
  9
$PUCSORTHOREF
  2

  9
$PUCSORTHOVIEW
 70
     0
  9
$PUCSORGTOP
 10
0.0
 20
0.0
 30
0.0
  9
$PUCSORGBOTTOM
 10
0.0
 20
0.0
 30
0.0
  9
$PUCSORGLEFT
 10
0.0
 20
0.0
 30
0.0
  9
$PUCSORGRIGHT
 10
0.0
 20
0.0
 30
0.0
  9
$PUCSORGFRONT
 10
0.0
 20
0.0
 30
0.0
  9
$PUCSORGBACK
 10
0.0
 20
0.0
 30
0.0
  9
$USERI1
 70
     0
  9
$USERI2
 70
     0
  9
$USERI3
 70
     0
  9
$USERI4
 70
     0
  9
$USERI5
 70
     0
  9
$USERR1
 40
0.0
  9
$USERR2
 40
0.0
  9
$USERR3
 40
0.0
  9
$USERR4
 40
0.0
  9
$USERR5
 40
0.0
  9
$WORLDVIEW
 70
     1
  9
$SHADEDGE
 70
     3
  9
$SHADEDIF
 70
    70
  9
$TILEMODE
 70
     1
  9
$MAXACTVP
 70
    64
  9
$PINSBASE
 10
0.0
 20
0.0
 30
0.0
  9
$PLIMCHECK
 70
     0
  9
$PEXTMIN
 10
1.0000000000E+20
 20
1.0000000000E+20
 30
1.0000000000E+20
  9
$PEXTMAX
 10
-1.0000000000E+20
 20
-1.0000000000E+20
 30
-1.0000000000E+20
  9
$PLIMMIN
 10
0.0
 20
0.0
  9
$PLIMMAX
 10
420.0
 20
297.0
  9
$UNITMODE
 70
     0
  9
$VISRETAIN
 70
     1
  9
$PLINEGEN
 70
     0
  9
$PSLTSCALE
 70
     1
  9
$TREEDEPTH
 70
  3020
  9
$CMLSTYLE
  2
Standard
  9
$CMLJUST
 70
     0
  9
$CMLSCALE
 40
20.0
  9
$PROXYGRAPHICS
 70
     1
  9
$MEASUREMENT
 70
     1
  9
$CELWEIGHT
370
    -1
  9
$ENDCAPS
280
     0
  9
$JOINSTYLE
280
     0
  9
$LWDISPLAY
290
     1
  9
$INSUNITS
 70
     4
  9
$HYPERLINKBASE
  1

  9
$STYLESHEET
  1

  9
$XEDIT
290
     1
  9
$CEPSNTYPE
380
     0
  9
$PSTYLEMODE
290
     1
  9
$FINGERPRINTGUID
  2
{03F034FB-9552-4A66-87DD-FB84ED01C72E}
  9
$VERSIONGUID
  2
{FAEB1C32-E019-11D5-929B-00C0DF256EC4}
  9
$EXTNAMES
290
     1
  9
$PSVPSCALE
 40
0.0
  9
$OLESTARTUP
290
     0
  0
ENDSEC
  0
SECTION
  2
CLASSES
  0
CLASS
  1
ACDBDICTIONARYWDFLT
  2
AcDbDictionaryWithDefault
  3
ObjectDBX Classes
 90
        0
280
     0
281
     0
  0
CLASS
  1
VISUALSTYLE
  2
AcDbVisualStyle
  3
ObjectDBX Classes
 90
     4095
280
     0
281
     0
  0
CLASS
  1
DICTIONARYVAR
  2
AcDbDictionaryVar
  3
ObjectDBX Classes
 90
        0
280
     0
281
     0
  0
CLASS
  1
ACDBPLACEHOLDER
  2
AcDbPlaceHolder
  3
ObjectDBX Classes
 90
        0
280
     0
281
     0
  0
CLASS
  1
LAYOUT
  2
AcDbLayout
  3
ObjectDBX Classes
 90
        0
280
     0
281
     0
  0
ENDSEC
  0
SECTION
  2
TABLES
  0
TABLE
  2
VPORT
  5
8
330
0
100
AcDbSymbolTable
 70
     1
  0
VPORT
  5
29
330
8
100
AcDbSymbolTableRecord
100
AcDbViewportTableRecord
  2
*Active
 70
     0
 10
0.0
 20
0.0
 11
1.0
 21
1.0
 12
148.5
 22
105.0
 13
0.0
 23
0.0
 14
10.0
 24
10.0
 15
10.0
 25
10.0
 16
0.0
 26
0.0
 36
1.0
 17
0.0
 27
0.0
 37
0.0
 40
210.0
 41
1.4142857143
 42
50.0
 43
0.0
 44
0.0
 50
0.0
 51
0.0
 71
     0
 72
  2000
 73
     1
 74
     3
 75
     0
 76
     0
 77
     0
 78
     0
281
     0
 65
     1
110
0.0
120
0.0
130
0.0
111
1.0
121
0.0
131
0.0
112
0.0
122
1.0
132
0.0
 79
     0
146
0.0
  0
ENDTAB
  0
TABLE
  2
LTYPE
  5
5
330
0
100
AcDbSymbolTable
 70
     6
  0
LTYPE
  5
14
330
5
100
AcDbSymbolTableRecord
100
AcDbLinetypeTableRecord
  2
ByBlock
 70
     0
  3

 72
    65
 73
     0
 40
0.0
  0
LTYPE
  5
15
330
5
100
AcDbSymbolTableRecord
100
AcDbLinetypeTableRecord
  2
ByLayer
 70
     0
  3

 72
    65
 73
     0
 40
0.0
  0
LTYPE
  5
16
330
5
100
AcDbSymbolTableRecord
100
AcDbLinetypeTableRecord
  2
Continuous
 70
     0
  3
Solid line
 72
    65
 73
     0
 40
0.0
  0
LTYPE
  5
3B
330
5
100
AcDbSymbolTableRecord
100
AcDbLinetypeTableRecord
  2
HIDDEN
 70
     0
  3
Hidden __ __ __ __ __ __ __ __ __ __ __ __ __ __
 72
    65
 73
     2
 40
1.905
 49
1.27
 74
     0
 49
-0.635
 74
     0
  0
LTYPE
  5
3C
330
5
100
AcDbSymbolTableRecord
100
AcDbLinetypeTableRecord
  2
PHANTOM
 70
     0
  3
Phantom ______  __  __  ______  __  __  ______
 72
    65
 73
     6
 40
12.7
 49
6.35
 74
     0
 49
-1.27
 74
     0
 49
1.27
 74
     0
 49
-1.27
 74
     0
 49
1.27
 74
     0
 49
-1.27
 74
     0
  0
LTYPE
  5
3D
330
5
100
AcDbSymbolTableRecord
100
AcDbLinetypeTableRecord
  2
CENTER
 70
     0
  3
Center ____ _ ____ _ ____ _ ____ _ ____ _ ____
 72
    65
 73
     4
 40
10.16
 49
6.35
 74
     0
 49
-1.27
 74
     0
 49
1.27
 74
     0
 49
-1.27
 74
     0
  0
LTYPE
  5
3E
330
5
100
AcDbSymbolTableRecord
100
AcDbLinetypeTableRecord
  2
CENTERX2
 70
     0
  3
Center (2x) ________  __  ________  __  _____
 72
    65
 73
     4
 40
20.32
 49
12.7
 74
     0
 49
-2.54
 74
     0
 49
2.54
 74
     0
 49
-2.54
 74
     0
  0
LTYPE
  5
3F
330
5
100
AcDbSymbolTableRecord
100
AcDbLinetypeTableRecord
  2
DOT2
 70
     0
  3
Dot (.5x) ........................................
 72
    65
 73
     2
 40
0.635
 49
0.0
 74
     0
 49
-0.635
 74
     0
  0
ENDTAB
  0
TABLE
  2
LAYER
  5
2
330
0
100
AcDbSymbolTable
 70
     5
  0
LAYER
  5
10
330
2
100
AcDbSymbolTableRecord
100
AcDbLayerTableRecord
  2
0
 70
     0
 62
     7
  6
Continuous
370
    -3
390
F
  0
LAYER
  5
40
330
2
100
AcDbSymbolTableRecord
100
AcDbLayerTableRecord
  2
FORMAT
 70
     0
 62
     7
  6
Continuous
370
    -3
390
F
  0
LAYER
  5
41
330
2
100
AcDbSymbolTableRecord
100
AcDbLayerTableRecord
  2
VERMASSUNG
 70
     0
 62
     7
  6
Continuous
370
    -3
390
F
  0
LAYER
  5
42
330
2
100
AcDbSymbolTableRecord
100
AcDbLayerTableRecord
  2
KOPF_DÜNN
 70
     0
 62
     7
  6
Continuous
370
    -3
390
F
  0
LAYER
  5
43
330
2
100
AcDbSymbolTableRecord
100
AcDbLayerTableRecord
  2
KOPF_DICK
 70
     0
 62
     7
  6
Continuous
370
    15
390
F
  0
ENDTAB
  0
TABLE
  2
STYLE
  5
3
330
0
100
AcDbSymbolTable
 70
     3
  0
STYLE
  5
11
330
3
100
AcDbSymbolTableRecord
100
AcDbTextStyleTableRecord
  2
Standard
 70
     0
 40
0.0
 41
1.0
 50
0.0
 71
     0
 42
2.5
  3
txt
  4

  0
STYLE
  5
44
330
3
100
AcDbSymbolTableRecord
100
AcDbTextStyleTableRecord
  2
SLDTEXTSTYLE0
 70
     0
 40
0.0
 41
0.7
 50
0.0
 71
     0
 42
0.2
  3
TXT
  4

  0
STYLE
  5
48
330
3
100
AcDbSymbolTableRecord
100
AcDbTextStyleTableRecord
  2
SLDTEXTSTYLE1
 70
     0
 40
0.0
 41
0.6473684211
 50
0.0
 71
     0
 42
0.2
  3
TXT
  4

  0
ENDTAB
  0
TABLE
  2
VIEW
  5
6
330
0
100
AcDbSymbolTable
 70
     0
  0
ENDTAB
  0
TABLE
  2
UCS
  5
7
330
0
100
AcDbSymbolTable
 70
     0
  0
ENDTAB
  0
TABLE
  2
APPID
  5
9
330
0
100
AcDbSymbolTable
 70
     1
  0
APPID
  5
12
330
9
100
AcDbSymbolTableRecord
100
AcDbRegAppTableRecord
  2
ACAD
 70
     0
  0
ENDTAB
  0
TABLE
  2
DIMSTYLE
  5
A
330
0
100
AcDbSymbolTable
 70
     2
100
AcDbDimStyleTable
  0
DIMSTYLE
105
27
330
A
100
AcDbSymbolTableRecord
100
AcDbDimStyleTableRecord
  2
ISO-25
 70
     0
 41
2.5
 42
0.625
 43
3.75
 44
1.25
 73
     0
 74
     0
 77
     1
 78
     8
140
2.5
141
2.5
143
0.0393700787
147
0.625
171
     3
172
     1
271
     2
272
     2
274
     3
278
    44
283
     0
284
     8
340
11
  0
DIMSTYLE
105
232
102
{ACAD_REACTORS
330
231
330
23D
330
249
330
253
330
25D
330
267
330
271
330
27C
102
}
330
A
100
AcDbSymbolTableRecord
100
AcDbDimStyleTableRecord
  2
SLDDIMSTYLE0
 70
     0
 41
3.0
 44
0.0
 45
0.000000001
 73
     0
 74
     0
 77
     1
 78
    12
140
2.0
147
0.5
173
     1
271
     2
272
     3
284
    12
340
44
  0
ENDTAB
  0
TABLE
  2
BLOCK_RECORD
  5
1
330
0
100
AcDbSymbolTable
 70
     9
  0
BLOCK_RECORD
  5
1F
330
1
100
AcDbSymbolTableRecord
100
AcDbBlockTableRecord
  2
*Model_Space
340
22
  0
BLOCK_RECORD
  5
1B
330
1
100
AcDbSymbolTableRecord
100
AcDbBlockTableRecord
  2
*Paper_Space
340
1E
  0
BLOCK_RECORD
  5
23
330
1
100
AcDbSymbolTableRecord
100
AcDbBlockTableRecord
  2
*Paper_Space0
340
26
  0
BLOCK_RECORD
  5
233
330
1
100
AcDbSymbolTableRecord
100
AcDbBlockTableRecord
  2
*D1
340
0
  0
BLOCK_RECORD
  5
23E
330
1
100
AcDbSymbolTableRecord
100
AcDbBlockTableRecord
  2
*D2
340
0
  0
BLOCK_RECORD
  5
24A
330
1
100
AcDbSymbolTableRecord
100
AcDbBlockTableRecord
  2
*D3
340
0
  0
BLOCK_RECORD
  5
254
330
1
100
AcDbSymbolTableRecord
100
AcDbBlockTableRecord
  2
*D4
340
0
  0
BLOCK_RECORD
  5
25E
330
1
100
AcDbSymbolTableRecord
100
AcDbBlockTableRecord
  2
*D5
340
0
  0
BLOCK_RECORD
  5
268
330
1
100
AcDbSymbolTableRecord
100
AcDbBlockTableRecord
  2
*D6
340
0
  0
BLOCK_RECORD
  5
272
330
1
100
AcDbSymbolTableRecord
100
AcDbBlockTableRecord
  2
*D7
340
0
  0
BLOCK_RECORD
  5
27D
330
1
100
AcDbSymbolTableRecord
100
AcDbBlockTableRecord
  2
*D8
340
0
  0
ENDTAB
  0
ENDSEC
  0
SECTION
  2
BLOCKS
  0
BLOCK
  5
20
330
1F
100
AcDbEntity
  8
0
100
AcDbBlockBegin
  2
*Model_Space
 70
     0
 10
0.0
 20
0.0
 30
0.0
  3
*Model_Space
  1

  0
ENDBLK
  5
21
330
1F
100
AcDbEntity
  8
0
100
AcDbBlockEnd
  0
BLOCK
  5
1C
330
1B
100
AcDbEntity
 67
     1
  8
0
100
AcDbBlockBegin
  2
*Paper_Space
 70
     0
 10
0.0
 20
0.0
 30
0.0
  3
*Paper_Space
  1

  0
ENDBLK
  5
1D
330
1B
100
AcDbEntity
 67
     1
  8
0
100
AcDbBlockEnd
  0
BLOCK
  5
24
330
23
100
AcDbEntity
  8
0
100
AcDbBlockBegin
  2
*Paper_Space0
 70
     0
 10
0.0
 20
0.0
 30
0.0
  3
*Paper_Space0
  1

  0
ENDBLK
  5
25
330
23
100
AcDbEntity
  8
0
100
AcDbBlockEnd
  0
BLOCK
  5
234
330
233
100
AcDbEntity
  8
0
100
AcDbBlockBegin
  2
*D1
 70
     1
 10
0.0
 20
0.0
 30
0.0
  3
*D1
  1

  0
SOLID
  5
236
330
233
100
AcDbEntity
  8
VERMASSUNG
100
AcDbTrace
 10
218.5780272268
 20
97.7012648344
 30
0.0
 11
219.0280272268
 21
100.7012648344
 31
0.0
 12
218.1280272268
 22
100.7012648344
 32
0.0
 13
218.1280272268
 23
100.7012648344
 33
0.0
  0
SOLID
  5
237
330
233
100
AcDbEntity
  8
VERMASSUNG
100
AcDbTrace
 10
218.5780272268
 20
129.7012648344
 30
0.0
 11
218.1280272268
 21
126.7012648344
 31
0.0
 12
219.0280272268
 22
126.7012648344
 32
0.0
 13
219.0280272268
 23
126.7012648344
 33
0.0
  0
LINE
  5
238
330
233
100
AcDbEntity
  8
VERMASSUNG
100
AcDbLine
 10
197.9339974914
 20
97.7012648344
 30
0.0
 11
219.5780272268
 21
97.7012648344
 31
0.0
  0
LINE
  5
239
330
233
100
AcDbEntity
  8
VERMASSUNG
100
AcDbLine
 10
197.9339974914
 20
129.7012648344
 30
0.0
 11
219.5780272268
 21
129.7012648344
 31
0.0
  0
LINE
  5
23A
330
233
100
AcDbEntity
  8
VERMASSUNG
100
AcDbLine
 10
218.5780272268
 20
97.7012648344
 30
0.0
 11
218.5780272268
 21
129.7012648344
 31
0.0
  0
MTEXT
  5
23B
330
233
100
AcDbEntity
  8
VERMASSUNG
100
AcDbMText
 10
215.9998918636
 20
110.7412771954
 30
0.0
 40
2.0
 41
0.0
 71
     1
 72
     1
  1
ER
  7
SLDTEXTSTYLE0
 11
6.123233995736766E-17
 21
1.0
 31
0.0
 73
     1
 44
1.0
  0
MTEXT
  5
23C
330
233
100
AcDbEntity
  8
VERMASSUNG
100
AcDbMText
 10
215.9998918636
 20
113.7390956397
 30
0.0
 40
2.0
 41
0.0
 71
     1
 72
     1
  1
32
  7
SLDTEXTSTYLE0
 11
6.123233995736766E-17
 21
1.0
 31
0.0
 73
     1
 44
1.0
  0
ENDBLK
  5
235
330
233
100
AcDbEntity
  8
0
100
AcDbBlockEnd
  0
BLOCK
  5
23F
330
23E
100
AcDbEntity
  8
0
100
AcDbBlockBegin
  2
*D2
 70
     1
 10
0.0
 20
0.0
 30
0.0
  3
*D2
  1

  0
SOLID
  5
241
330
23E
100
AcDbEntity
  8
VERMASSUNG
100
AcDbTrace
 10
71.1980190815
 20
145.2012648344
 30
0.0
 11
70.7480190815
 21
142.2012648344
 31
0.0
 12
71.6480190815
 22
142.2012648344
 32
0.0
 13
71.6480190815
 23
142.2012648344
 33
0.0
  0
SOLID
  5
242
330
23E
100
AcDbEntity
  8
VERMASSUNG
100
AcDbTrace
 10
71.1980190815
 20
82.2012648344
 30
0.0
 11
71.6480190815
 21
85.2012648344
 31
0.0
 12
70.7480190815
 22
85.2012648344
 32
0.0
 13
70.7480190815
 23
85.2012648344
 33
0.0
  0
LINE
  5
243
330
23E
100
AcDbEntity
  8
VERMASSUNG
100
AcDbLine
 10
111.2339974914
 20
145.2012648344
 30
0.0
 11
70.1980190815
 21
145.2012648344
 31
0.0
  0
LINE
  5
244
330
23E
100
AcDbEntity
  8
VERMASSUNG
100
AcDbLine
 10
111.2339974914
 20
82.2012648344
 30
0.0
 11
70.1980190815
 21
82.2012648344
 31
0.0
  0
LINE
  5
245
330
23E
100
AcDbEntity
  8
VERMASSUNG
100
AcDbLine
 10
71.1980190815
 20
145.2012648344
 30
0.0
 11
71.1980190815
 21
82.2012648344
 31
0.0
  0
MTEXT
  5
246
330
23E
100
AcDbEntity
  8
VERMASSUNG
100
AcDbMText
 10
68.4198835925
 20
104.1316344215
 30
0.0
 40
2.0
 41
0.0
 71
     1
 72
     1
  1
HSK A 
  7
SLDTEXTSTYLE0
 11
-7.044195017643634E-15
 21
1.0
 31
0.0
 73
     1
 44
1.0
  0
MTEXT
  5
247
330
23E
100
AcDbEntity
  8
VERMASSUNG
100
AcDbMText
 10
68.619883602
 20
113.1316349654
 30
0.0
 40
2.0
 41
0.0
 71
     1
 72
     1
  1
%%c
  7
SLDTEXTSTYLE0
 11
-7.044195017643634E-15
 21
1.0
 31
0.0
 73
     1
 44
1.0
  0
MTEXT
  5
248
330
23E
100
AcDbEntity
  8
VERMASSUNG
100
AcDbMText
 10
68.6198837184
 20
116.7399632106
 30
0.0
 40
2.0
 41
0.0
 71
     1
 72
     1
  1
63
  7
SLDTEXTSTYLE0
 11
-7.044195017643634E-15
 21
1.0
 31
0.0
 73
     1
 44
1.0
  0
ENDBLK
  5
240
330
23E
100
AcDbEntity
  8
0
100
AcDbBlockEnd
  0
BLOCK
  5
24B
330
24A
100
AcDbEntity
  8
0
100
AcDbBlockBegin
  2
*D3
 70
     1
 10
0.0
 20
0.0
 30
0.0
  3
*D3
  1

  0
SOLID
  5
24D
330
24A
100
AcDbEntity
  8
VERMASSUNG
100
AcDbTrace
 10
136.8839974914
 20
152.9321582688
 30
0.0
 11
139.8839974914
 21
152.4821582688
 31
0.0
 12
139.8839974914
 22
153.3821582688
 32
0.0
 13
139.8839974914
 23
153.3821582688
 33
0.0
  0
SOLID
  5
24E
330
24A
100
AcDbEntity
  8
VERMASSUNG
100
AcDbTrace
 10
210.9339974914
 20
152.9321582688
 30
0.0
 11
207.9339974914
 21
153.3821582688
 31
0.0
 12
207.9339974914
 22
152.4821582688
 32
0.0
 13
207.9339974914
 23
152.4821582688
 33
0.0
  0
LINE
  5
24F
330
24A
100
AcDbEntity
  8
VERMASSUNG
100
AcDbLine
 10
136.8839974914
 20
143.5477051581
 30
0.0
 11
136.8839974914
 21
153.9321582688
 31
0.0
  0
LINE
  5
250
330
24A
100
AcDbEntity
  8
VERMASSUNG
100
AcDbLine
 10
210.9339974914
 20
103.8451382661
 30
0.0
 11
210.9339974914
 21
153.9321582688
 31
0.0
  0
LINE
  5
251
330
24A
100
AcDbEntity
  8
VERMASSUNG
100
AcDbLine
 10
136.8839974914
 20
152.9321582688
 30
0.0
 11
210.9339974914
 21
152.9321582688
 31
0.0
  0
MTEXT
  5
252
330
24A
100
AcDbEntity
  8
VERMASSUNG
100
AcDbMText
 10
170.7095429605
 20
155.5102936319
 30
0.0
 40
2.0
 41
0.0
 71
     1
 72
     1
  1
74.05
  7
SLDTEXTSTYLE0
 73
     1
 44
1.0
  0
ENDBLK
  5
24C
330
24A
100
AcDbEntity
  8
0
100
AcDbBlockEnd
  0
BLOCK
  5
255
330
254
100
AcDbEntity
  8
0
100
AcDbBlockBegin
  2
*D4
 70
     1
 10
0.0
 20
0.0
 30
0.0
  3
*D4
  1

  0
SOLID
  5
257
330
254
100
AcDbEntity
  8
VERMASSUNG
100
AcDbTrace
 10
110.9339974914
 20
158.9321582688
 30
0.0
 11
113.9339974914
 21
158.4821582688
 31
0.0
 12
113.9339974914
 22
159.3821582688
 32
0.0
 13
113.9339974914
 23
159.3821582688
 33
0.0
  0
SOLID
  5
258
330
254
100
AcDbEntity
  8
VERMASSUNG
100
AcDbTrace
 10
210.9339974914
 20
158.9321582688
 30
0.0
 11
207.9339974914
 21
159.3821582688
 31
0.0
 12
207.9339974914
 22
158.4821582688
 32
0.0
 13
207.9339974914
 23
158.4821582688
 33
0.0
  0
LINE
  5
259
330
254
100
AcDbEntity
  8
VERMASSUNG
100
AcDbLine
 10
110.9339974914
 20
144.9012648344
 30
0.0
 11
110.9339974914
 21
159.9321582688
 31
0.0
  0
LINE
  5
25A
330
254
100
AcDbEntity
  8
VERMASSUNG
100
AcDbLine
 10
210.9339974914
 20
103.8451382661
 30
0.0
 11
210.9339974914
 21
159.9321582688
 31
0.0
  0
LINE
  5
25B
330
254
100
AcDbEntity
  8
VERMASSUNG
100
AcDbLine
 10
110.9339974914
 20
158.9321582688
 30
0.0
 11
210.9339974914
 21
158.9321582688
 31
0.0
  0
MTEXT
  5
25C
330
254
100
AcDbEntity
  8
VERMASSUNG
100
AcDbMText
 10
159.0342454465
 20
161.5102936319
 30
0.0
 40
2.0
 41
0.0
 71
     1
 72
     1
  1
100
  7
SLDTEXTSTYLE0
 73
     1
 44
1.0
  0
ENDBLK
  5
256
330
254
100
AcDbEntity
  8
0
100
AcDbBlockEnd
  0
BLOCK
  5
25F
330
25E
100
AcDbEntity
  8
0
100
AcDbBlockBegin
  2
*D5
 70
     1
 10
0.0
 20
0.0
 30
0.0
  3
*D5
  1

  0
SOLID
  5
261
330
25E
100
AcDbEntity
  8
VERMASSUNG
100
AcDbTrace
 10
79.0339974914
 20
164.9321582688
 30
0.0
 11
82.0339974914
 21
164.4821582688
 31
0.0
 12
82.0339974914
 22
165.3821582688
 32
0.0
 13
82.0339974914
 23
165.3821582688
 33
0.0
  0
SOLID
  5
262
330
25E
100
AcDbEntity
  8
VERMASSUNG
100
AcDbTrace
 10
210.9339974914
 20
164.9321582688
 30
0.0
 11
207.9339974914
 21
165.3821582688
 31
0.0
 12
207.9339974914
 22
164.4821582688
 32
0.0
 13
207.9339974914
 23
164.4821582688
 33
0.0
  0
LINE
  5
263
330
25E
100
AcDbEntity
  8
VERMASSUNG
100
AcDbLine
 10
79.0339974914
 20
133.3919425808
 30
0.0
 11
79.0339974914
 21
165.9321582688
 31
0.0
  0
LINE
  5
264
330
25E
100
AcDbEntity
  8
VERMASSUNG
100
AcDbLine
 10
210.9339974914
 20
103.8451382661
 30
0.0
 11
210.9339974914
 21
165.9321582688
 31
0.0
  0
LINE
  5
265
330
25E
100
AcDbEntity
  8
VERMASSUNG
100
AcDbLine
 10
79.0339974914
 20
164.9321582688
 30
0.0
 11
210.9339974914
 21
164.9321582688
 31
0.0
  0
MTEXT
  5
266
330
25E
100
AcDbEntity
  8
VERMASSUNG
100
AcDbMText
 10
142.2849891514
 20
167.5102936319
 30
0.0
 40
2.0
 41
0.0
 71
     1
 72
     1
  1
131.9
  7
SLDTEXTSTYLE0
 73
     1
 44
1.0
  0
ENDBLK
  5
260
330
25E
100
AcDbEntity
  8
0
100
AcDbBlockEnd
  0
BLOCK
  5
269
330
268
100
AcDbEntity
  8
0
100
AcDbBlockBegin
  2
*D6
 70
     1
 10
0.0
 20
0.0
 30
0.0
  3
*D6
  1

  0
SOLID
  5
26B
330
268
100
AcDbEntity
  8
VERMASSUNG
100
AcDbTrace
 10
163.9339974914
 20
146.9321582688
 30
0.0
 11
166.9339974914
 21
146.4821582688
 31
0.0
 12
166.9339974914
 22
147.3821582688
 32
0.0
 13
166.9339974914
 23
147.3821582688
 33
0.0
  0
SOLID
  5
26C
330
268
100
AcDbEntity
  8
VERMASSUNG
100
AcDbTrace
 10
210.9339974914
 20
146.9321582688
 30
0.0
 11
207.9339974914
 21
147.3821582688
 31
0.0
 12
207.9339974914
 22
146.4821582688
 32
0.0
 13
207.9339974914
 23
146.4821582688
 33
0.0
  0
LINE
  5
26D
330
268
100
AcDbEntity
  8
VERMASSUNG
100
AcDbLine
 10
163.9339974914
 20
125.4512648344
 30
0.0
 11
163.9339974914
 21
147.9321582688
 31
0.0
  0
LINE
  5
26E
330
268
100
AcDbEntity
  8
VERMASSUNG
100
AcDbLine
 10
210.9339974914
 20
132.7012648344
 30
0.0
 11
210.9339974914
 21
147.9321582688
 31
0.0
  0
LINE
  5
26F
330
268
100
AcDbEntity
  8
VERMASSUNG
100
AcDbLine
 10
163.9339974914
 20
146.9321582688
 30
0.0
 11
210.9339974914
 21
146.9321582688
 31
0.0
  0
MTEXT
  5
270
330
268
100
AcDbEntity
  8
VERMASSUNG
100
AcDbMText
 10
185.9350882693
 20
149.5102936319
 30
0.0
 40
2.0
 41
0.0
 71
     1
 72
     1
  1
47
  7
SLDTEXTSTYLE0
 73
     1
 44
1.0
  0
ENDBLK
  5
26A
330
268
100
AcDbEntity
  8
0
100
AcDbBlockEnd
  0
BLOCK
  5
273
330
272
100
AcDbEntity
  8
0
100
AcDbBlockBegin
  2
*D7
 70
     1
 10
0.0
 20
0.0
 30
0.0
  3
*D7
  1

  0
SOLID
  5
275
330
272
100
AcDbEntity
  8
VERMASSUNG
100
AcDbTrace
 10
224.5780272268
 20
136.2012648344
 30
0.0
 11
224.1280272268
 21
133.2012648344
 31
0.0
 12
225.0280272268
 22
133.2012648344
 32
0.0
 13
225.0280272268
 23
133.2012648344
 33
0.0
  0
SOLID
  5
276
330
272
100
AcDbEntity
  8
VERMASSUNG
100
AcDbTrace
 10
224.5780272268
 20
91.2012648344
 30
0.0
 11
225.0280272268
 21
94.2012648344
 31
0.0
 12
224.1280272268
 22
94.2012648344
 32
0.0
 13
224.1280272268
 23
94.2012648344
 33
0.0
  0
LINE
  5
277
330
272
100
AcDbEntity
  8
VERMASSUNG
100
AcDbLine
 10
156.8839974914
 20
136.2012648344
 30
0.0
 11
225.5780272268
 21
136.2012648344
 31
0.0
  0
LINE
  5
278
330
272
100
AcDbEntity
  8
VERMASSUNG
100
AcDbLine
 10
156.8839974914
 20
91.2012648344
 30
0.0
 11
225.5780272268
 21
91.2012648344
 31
0.0
  0
LINE
  5
279
330
272
100
AcDbEntity
  8
VERMASSUNG
100
AcDbLine
 10
224.5780272268
 20
136.2012648344
 30
0.0
 11
224.5780272268
 21
91.2012648344
 31
0.0
  0
MTEXT
  5
27A
330
272
100
AcDbEntity
  8
VERMASSUNG
100
AcDbMText
 10
221.9998917472
 20
110.336790347
 30
0.0
 40
2.0
 41
0.0
 71
     1
 72
     1
  1
%%c
  7
SLDTEXTSTYLE0
 11
-7.044195017643634E-15
 21
1.0
 31
0.0
 73
     1
 44
1.0
  0
MTEXT
  5
27B
330
272
100
AcDbEntity
  8
VERMASSUNG
100
AcDbMText
 10
221.9998918636
 20
113.9443757519
 30
0.0
 40
2.0
 41
0.0
 71
     1
 72
     1
  1
45
  7
SLDTEXTSTYLE0
 11
-7.044195017643634E-15
 21
1.0
 31
0.0
 73
     1
 44
1.0
  0
ENDBLK
  5
274
330
272
100
AcDbEntity
  8
0
100
AcDbBlockEnd
  0
BLOCK
  5
27E
330
27D
100
AcDbEntity
  8
0
100
AcDbBlockBegin
  2
*D8
 70
     1
 10
0.0
 20
0.0
 30
0.0
  3
*D8
  1

  0
SOLID
  5
280
330
27D
100
AcDbEntity
  8
VERMASSUNG
100
AcDbTrace
 10
230.5780272268
 20
138.5512648344
 30
0.0
 11
230.1280272268
 21
135.5512648344
 31
0.0
 12
231.0280272268
 22
135.5512648344
 32
0.0
 13
231.0280272268
 23
135.5512648344
 33
0.0
  0
SOLID
  5
281
330
27D
100
AcDbEntity
  8
VERMASSUNG
100
AcDbTrace
 10
230.5780272268
 20
88.8512648344
 30
0.0
 11
231.0280272268
 21
91.8512648344
 31
0.0
 12
230.1280272268
 22
91.8512648344
 32
0.0
 13
230.1280272268
 23
91.8512648344
 33
0.0
  0
LINE
  5
282
330
27D
100
AcDbEntity
  8
VERMASSUNG
100
AcDbLine
 10
207.5564980014
 20
138.5512648344
 30
0.0
 11
231.5780272268
 21
138.5512648344
 31
0.0
  0
LINE
  5
283
330
27D
100
AcDbEntity
  8
VERMASSUNG
100
AcDbLine
 10
207.5564980014
 20
88.8512648344
 30
0.0
 11
231.5780272268
 21
88.8512648344
 31
0.0
  0
LINE
  5
284
330
27D
100
AcDbEntity
  8
VERMASSUNG
100
AcDbLine
 10
230.5780272268
 20
138.5512648344
 30
0.0
 11
230.5780272268
 21
88.8512648344
 31
0.0
  0
MTEXT
  5
285
330
27D
100
AcDbEntity
  8
VERMASSUNG
100
AcDbMText
 10
227.9998917472
 20
109.3358979653
 30
0.0
 40
2.0
 41
0.0
 71
     1
 72
     1
  1
%%c
  7
SLDTEXTSTYLE0
 11
-7.044195017643634E-15
 21
1.0
 31
0.0
 73
     1
 44
1.0
  0
MTEXT
  5
286
330
27D
100
AcDbEntity
  8
VERMASSUNG
100
AcDbMText
 10
227.9998918636
 20
112.9434833702
 30
0.0
 40
2.0
 41
0.0
 71
     1
 72
     1
  1
49.7
  7
SLDTEXTSTYLE0
 11
-7.044195017643634E-15
 21
1.0
 31
0.0
 73
     1
 44
1.0
  0
ENDBLK
  5
27F
330
27D
100
AcDbEntity
  8
0
100
AcDbBlockEnd
  0
ENDSEC
  0
SECTION
  2
ENTITIES
  0
MTEXT
  5
45
330
1F
100
AcDbEntity
  8
KOPF_DÜNN
100
AcDbMText
 10
13.8892156294
 20
23.8442973028
 30
0.0
 40
3.0
 41
0.0
 71
     1
 72
     1
  1
HA6.E32.K01.100
  7
SLDTEXTSTYLE0
 73
     1
 44
1.0
  0
MTEXT
  5
46
330
1F
100
AcDbEntity
  8
VERMASSUNG
100
AcDbMText
 10
13.9329988022
 20
28.8834360957
 30
0.0
 40
3.0
 41
0.0
 71
     1
 72
     1
  1
Spannzangenfutter_Collet chuck ER32
  7
SLDTEXTSTYLE0
 73
     1
 44
1.0
  0
MTEXT
  5
47
330
1F
100
AcDbEntity
  8
VERMASSUNG
100
AcDbMText
 10
98.8601118557
 20
13.8365368179
 30
0.0
 40
2.0
 41
0.0
 71
     1
 72
     1
  1
Datum: 10.10.2006
  7
SLDTEXTSTYLE0
 73
     1
 44
1.0
  0
MTEXT
  5
49
330
1F
100
AcDbEntity
  8
VERMASSUNG
100
AcDbMText
 10
13.933048693
 20
18.0482802738
 30
0.0
 40
2.0
 41
0.0
 71
     1
 72
     1
  1
DIN 69 893 HSK A 63
  7
SLDTEXTSTYLE1
 73
     1
 44
1.0
  0
MTEXT
  5
4A
330
1F
100
AcDbEntity
  8
VERMASSUNG
100
AcDbMText
 10
13.9808475933
 20
13.9090973692
 30
0.0
 40
2.0
 41
0.0
 71
     1
 72
     1
  1
Gewicht: 1268g
  7
SLDTEXTSTYLE0
 73
     1
 44
1.0
  0
LINE
  5
4B
330
1F
100
AcDbEntity
  8
0
  6
Continuous
 62
     7
370
    15
100
AcDbLine
 10
188.9339974914
 20
88.8512648344
 30
0.0
 11
207.5564980014
 21
88.8512648344
 31
0.0
  0
LINE
  5
4C
330
1F
100
AcDbEntity
  8
0
  6
Continuous
 62
     7
370
    15
100
AcDbLine
 10
207.5564980014
 20
138.5512648344
 30
0.0
 11
188.9339974914
 21
138.5512648344
 31
0.0
  0
LINE
  5
4D
330
1F
100
AcDbEntity
  8
0
  6
Continuous
 62
     7
370
    15
100
AcDbLine
 10
188.9339974914
 20
138.5512648344
 30
0.0
 11
188.4339974914
 21
138.0512648344
 31
0.0
  0
LINE
  5
4E
330
1F
100
AcDbEntity
  8
0
  6
Continuous
 62
     7
370
    15
100
AcDbLine
 10
188.4339974914
 20
89.3512648344
 30
0.0
 11
188.9339974914
 21
88.8512648344
 31
0.0
  0
LINE
  5
4F
330
1F
100
AcDbEntity
  8
0
  6
Continuous
 62
     7
370
    15
100
AcDbLine
 10
207.5564980014
 20
88.8512648344
 30
0.0
 11
210.9339974914
 21
94.7012648344
 31
0.0
  0
LINE
  5
50
330
1F
100
AcDbEntity
  8
0
  6
Continuous
 62
     7
370
    15
100
AcDbLine
 10
210.9339974914
 20
132.7012648344
 30
0.0
 11
207.5564980014
 21
138.5512648344
 31
0.0
  0
LINE
  5
51
330
1F
100
AcDbEntity
  8
0
  6
Continuous
 62
     7
370
    15
100
AcDbLine
 10
111.2339974914
 20
82.2012648344
 30
0.0
 11
115.8839974914
 21
82.2012648344
 31
0.0
  0
LINE
  5
52
330
1F
100
AcDbEntity
  8
0
  6
Continuous
 62
     7
370
    15
100
AcDbLine
 10
115.9119858505
 20
145.2012648344
 30
0.0
 11
111.2339974914
 21
145.2012648344
 31
0.0
  0
ARC
  5
53
330
1F
100
AcDbEntity
  8
0
  6
Continuous
 62
     7
370
    15
100
AcDbCircle
 10
111.2339974914
 20
82.5012648344
 30
0.0
 40
0.3000000000000114
100
AcDbArc
 50
180.0
 51
270.0
  0
ARC
  5
54
330
1F
100
AcDbEntity
  8
0
  6
Continuous
 62
     7
370
    15
100
AcDbCircle
 10
111.2339974914
 20
144.9012648344
 30
0.0
 40
0.3000000000000114
100
AcDbArc
 50
90.0
 51
180.0
  0
ARC
  5
55
330
1F
100
AcDbEntity
  8
0
  6
Continuous
 62
     7
370
    15
100
AcDbCircle
 10
139.8839974914
 20
88.2012648344
 30
0.0
 40
3.0
100
AcDbArc
 50
90.0
 51
180.0
  0
ARC
  5
56
330
1F
100
AcDbEntity
  8
0
  6
Continuous
 62
     7
370
    15
100
AcDbCircle
 10
139.8839974914
 20
139.2012648344
 30
0.0
 40
3.0
100
AcDbArc
 50
180.0
 51
270.0
  0
ARC
  5
57
330
1F
100
AcDbEntity
  8
0
  6
Continuous
 62
     7
370
    15
100
AcDbCircle
 10
110.4339907387
 20
89.13082722
 30
0.0
 40
0.6000067526677164
100
AcDbArc
 50
33.5571153394
 51
90.0
  0
ARC
  5
58
330
1F
100
AcDbEntity
  8
0
  6
Continuous
 62
     7
370
    15
100
AcDbCircle
 10
110.4339907387
 20
138.2717024488
 30
0.0
 40
0.6000067526677242
100
AcDbArc
 50
270.0
 51
326.4428846606
  0
LINE
  5
59
330
1F
100
AcDbEntity
  8
0
  6
Continuous
 62
     7
370
    15
100
AcDbLine
 10
108.9339974914
 20
89.4808339726
 30
0.0
 11
109.7907102648
 21
89.7103894684
 31
0.0
  0
LINE
  5
5A
330
1F
100
AcDbEntity
  8
0
  6
Continuous
 62
     7
370
    15
100
AcDbLine
 10
109.7907102648
 20
137.6921402003
 30
0.0
 11
108.9339974914
 21
137.9216956961
 31
0.0
  0
LINE
  5
5B
330
1F
100
AcDbEntity
  8
0
  6
Continuous
 62
     7
370
    15
100
AcDbLine
 10
97.7024886926
 20
137.3589948545
 30
0.0
 11
85.1339974914
 21
136.7293109266
 31
0.0
  0
LINE
  5
5C
330
1F
100
AcDbEntity
  8
0
  6
Continuous
 62
     7
370
    15
100
AcDbLine
 10
108.9339974914
 20
137.9216956961
 30
0.0
 11
106.1169958341
 21
137.7805633485
 31
0.0
  0
LINE
  5
5D
330
1F
100
AcDbEntity
  8
0
  6
Continuous
 62
     7
370
    15
100
AcDbLine
 10
106.1170519241
 20
89.6219635101
 30
0.0
 11
108.9339974914
 21
89.4808339726
 31
0.0
  0
LINE
  5
5E
330
1F
100
AcDbEntity
  8
0
  6
Continuous
 62
     7
370
    15
100
AcDbLine
 10
89.1339974914
 20
90.4728179406
 30
0.0
 11
97.7028912113
 21
90.043514648
 31
0.0
  0
ARC
  5
5F
330
1F
100
AcDbEntity
  8
0
  6
Continuous
 62
     7
370
    15
100
AcDbCircle
 10
109.9460016918
 20
89.1308339726
 30
0.0
 40
0.6000000000000085
100
AcDbArc
 50
90.0
 51
105.0
  0
ARC
  5
60
330
1F
100
AcDbEntity
  8
0
  6
Continuous
 62
     7
370
    15
100
AcDbCircle
 10
109.9460016918
 20
138.2716956961
 30
0.0
 40
0.5999999999999943
100
AcDbArc
 50
255.0
 51
270.0
  0
LINE
  5
61
330
1F
100
AcDbEntity
  8
0
  6
Continuous
 62
     7
370
    15
100
AcDbLine
 10
109.9460016918
 20
89.7308339726
 30
0.0
 11
110.4339907387
 21
89.7308339726
 31
0.0
  0
LINE
  5
62
330
1F
100
AcDbEntity
  8
0
  6
Continuous
 62
     7
370
    15
100
AcDbLine
 10
110.4339907387
 20
137.6716956961
 30
0.0
 11
109.9460016918
 21
137.6716956961
 31
0.0
  0
LINE
  5
63
330
1F
100
AcDbEntity
  8
0
  6
Continuous
 62
     7
370
    15
100
AcDbLine
 10
151.3828379215
 20
91.2012648344
 30
0.0
 11
156.8839974914
 21
91.2012648344
 31
0.0
  0
LINE
  5
64
330
1F
100
AcDbEntity
  8
0
  6
Continuous
 62
     7
370
    15
100
AcDbLine
 10
139.8839974914
 20
91.2012648344
 30
0.0
 11
144.3946338404
 21
91.2012648344
 31
0.0
  0
LINE
  5
65
330
1F
100
AcDbEntity
  8
0
  6
Continuous
 62
     7
370
    15
100
AcDbLine
 10
144.384236324
 20
136.2012648344
 30
0.0
 11
139.8839974914
 21
136.2012648344
 31
0.0
  0
LINE
  5
66
330
1F
100
AcDbEntity
  8
0
  6
Continuous
 62
     7
370
    15
100
AcDbLine
 10
156.8839974914
 20
136.2012648344
 30
0.0
 11
151.373704715
 21
136.2012648344
 31
0.0
  0
ARC
  5
67
330
1F
100
AcDbEntity
  8
0
  6
Continuous
 62
     7
370
    15
100
AcDbCircle
 10
176.7271323244
 20
13.7012648344
 30
0.0
 40
79.99999999999999
100
AcDbArc
 50
90.0
 51
104.3615115629
  0
ARC
  5
68
330
1F
100
AcDbEntity
  8
0
  6
Continuous
 62
     7
370
    15
100
AcDbCircle
 10
176.7271323244
 20
213.7012648344
 30
0.0
 40
80.00000000000003
100
AcDbArc
 50
255.6384884371
 51
270.0
  0
LINE
  5
69
330
1F
100
AcDbEntity
  8
0
  6
Continuous
 62
     7
370
    15
100
AcDbLine
 10
176.7271323244
 20
93.7012648344
 30
0.0
 11
188.4339974914
 21
93.7012648344
 31
0.0
  0
LINE
  5
6A
330
1F
100
AcDbEntity
  8
0
  6
Continuous
 62
     7
370
    15
100
AcDbLine
 10
188.4339974914
 20
133.7012648344
 30
0.0
 11
176.7271323244
 21
133.7012648344
 31
0.0
  0
LINE
  5
6B
330
1F
100
AcDbEntity
  8
0
  6
Continuous
 62
     7
370
    15
100
AcDbLine
 10
80.3173341314
 20
92.8312648344
 30
0.0
 11
87.7339974914
 21
92.8312648344
 31
0.0
  0
ARC
  5
6C
330
1F
100
AcDbEntity
  8
0
  6
Continuous
 62
     7
370
    15
100
AcDbCircle
 10
87.7339974914
 20
91.4312648344
 30
0.0
 40
1.399999999999991
100
AcDbArc
 50
42.2465410162
 51
90.0
  0
LINE
  5
6D
330
1F
100
AcDbEntity
  8
0
  6
Continuous
 62
     7
370
    15
100
AcDbLine
 10
79.0350299856
 20
93.9802323402
 30
0.0
 11
80.1751609496
 21
92.8401013762
 31
0.0
  0
LINE
  5
6E
330
1F
100
AcDbEntity
  8
0
  6
Continuous
 62
     7
370
    15
100
AcDbLine
 10
80.1751609496
 20
134.5624282925
 30
0.0
 11
79.0438982648
 21
133.4311656077
 31
0.0
  0
ARC
  5
6F
330
1F
100
AcDbEntity
  8
0
  6
Continuous
 62
     7
370
    15
100
AcDbCircle
 10
83.7339974914
 20
135.9712648344
 30
0.0
 40
1.400000000000015
100
AcDbArc
 50
270.0
 51
301.7485287426
  0
LINE
  5
70
330
1F
100
AcDbEntity
  8
0
  6
Continuous
 62
     7
370
    15
100
AcDbLine
 10
83.7339974914
 20
134.5712648344
 30
0.0
 11
80.3082632253
 21
134.5712648344
 31
0.0
  0
LINE
  5
71
330
1F
100
AcDbEntity
  8
0
  6
Continuous
 62
     7
370
    15
100
AcDbLine
 10
195.830733198
 20
110.9591463927
 30
0.0
 11
207.5564980014
 21
110.9591463927
 31
0.0
  0
LINE
  5
72
330
1F
100
AcDbEntity
  8
0
  6
Continuous
 62
     7
370
    15
100
AcDbLine
 10
207.5564980014
 20
94.3432311212
 30
0.0
 11
207.5564980014
 21
110.9591463927
 31
0.0
  0
LINE
  5
73
330
1F
100
AcDbEntity
  8
0
  6
Continuous
 62
     7
370
    15
100
AcDbLine
 10
195.830733198
 20
94.3432311212
 30
0.0
 11
207.5564980014
 21
94.3432311212
 31
0.0
  0
SPLINE
  5
74
330
1F
100
AcDbEntity
  8
0
  6
Continuous
 62
     7
370
    15
100
AcDbSpline
210
0.0
220
0.0
230
1.0
 70
     8
 71
     3
 72
    17
 73
    13
 74
     0
 42
0.00000001
 43
0.00000001
 40
0.0
 40
0.0
 40
0.0
 40
0.0
 40
0.083816260914446
 40
0.2002648250935445
 40
0.3144082807988346
 40
0.4226827326430908
 40
0.5326537231938324
 40
0.6305353703154579
 40
0.7286820769677166
 40
0.8323793116815213
 40
0.9426002361614074
 40
1.0
 40
1.0
 40
1.0
 40
1.0
 10
195.8307331979957
 20
94.34323112122597
 30
0.0
 10
195.5338029778347
 20
94.32989306640665
 30
0.0
 10
194.8243382754397
 20
94.29802403304325
 30
0.0
 10
193.784307713457
 20
94.00455514413505
 30
0.0
 10
192.8969845713052
 20
93.50264189767665
 30
0.0
 10
192.370925239413
 20
92.88964425170614
 30
0.0
 10
192.2821454583718
 20
92.28704036465781
 30
0.0
 10
192.5920722197761
 20
91.77143735607476
 30
0.0
 10
193.2109766525037
 20
91.37133424411542
 30
0.0
 10
194.1082754702861
 20
91.08759663737627
 30
0.0
 10
195.0346650625309
 20
90.95679988606025
 30
0.0
 10
195.6276666654335
 20
90.94495462967474
 30
0.0
 10
195.8307331979957
 20
90.94089835878147
 30
0.0
  0
LINE
  5
75
330
1F
100
AcDbEntity
  8
0
  6
Continuous
 62
     7
370
    15
100
AcDbLine
 10
195.830733198
 20
90.9408983588
 30
0.0
 11
207.5564980014
 21
90.9408983588
 31
0.0
  0
LINE
  5
76
330
1F
100
AcDbEntity
  8
0
  6
Continuous
 62
     7
370
    15
100
AcDbLine
 10
207.5564980014
 20
88.8512648344
 30
0.0
 11
207.5564980014
 21
90.9408983588
 31
0.0
  0
LINE
  5
77
330
1F
100
AcDbEntity
  8
0
  6
Continuous
 62
     7
370
    15
100
AcDbLine
 10
207.5564980014
 20
136.8744201618
 30
0.0
 11
207.5564980014
 21
138.5512648344
 31
0.0
  0
LINE
  5
78
330
1F
100
AcDbEntity
  8
0
  6
Continuous
 62
     7
370
    15
100
AcDbLine
 10
195.830733198
 20
136.8744201618
 30
0.0
 11
207.5564980014
 21
136.8744201618
 31
0.0
  0
SPLINE
  5
79
330
1F
100
AcDbEntity
  8
0
  6
Continuous
 62
     7
370
    15
100
AcDbSpline
210
0.0
220
0.0
230
1.0
 70
     8
 71
     3
 72
    39
 73
    35
 74
     0
 42
0.00000001
 43
0.00000001
 40
0.0
 40
0.0
 40
0.0
 40
0.0
 40
0.0415096548715213
 40
0.0836347776361914
 40
0.1122309614575211
 40
0.1410299247397867
 40
0.1704788355106542
 40
0.2001574982529402
 40
0.2281640491149626
 40
0.2563788251798709
 40
0.2852724852544042
 40
0.3144110635999869
 40
0.3409637455318836
 40
0.3950888870586912
 40
0.4227532833212128
 40
0.449696207442598
 40
0.4768781693970908
 40
0.5048323283321665
 40
0.5330584675098962
 40
0.5571041762805956
 40
0.6060176190818477
 40
0.6309365322194916
 40
0.6550800552547159
 40
0.7041143955812027
 40
0.72904627725804
 40
0.7545604627321436
 40
0.8063670335389977
 40
0.8327035226486134
 40
0.8598114495188419
 40
0.8870955245133743
 40
0.9149259114429801
 40
0.9429416789536296
 40
0.971373371337831
 40
1.0
 40
1.0
 40
1.0
 40
1.0
 10
195.8307331979957
 20
133.7195128683252
 30
0.0
 10
195.6832910016795
 20
133.7225426690433
 30
0.0
 10
195.3862204685405
 20
133.7286471936443
 30
0.0
 10
194.9932877280835
 20
133.7729109423036
 30
0.0
 10
194.6538020764859
 20
133.8309090433933
 30
0.0
 10
194.3658216693689
 20
133.8959612088148
 30
0.0
 10
194.0849780978229
 20
133.9755817651345
 30
0.0
 10
193.8196940917046
 20
134.0676544214414
 30
0.0
 10
193.5729072508117
 20
134.1701438065566
 30
0.0
 10
193.344573775118
 20
134.2820883969486
 30
0.0
 10
193.1319316260535
 20
134.405110915749
 30
0.0
 10
192.9440926110422
 20
134.5341047348898
 30
0.0
 10
192.7286284511256
 20
134.7101222344768
 30
0.0
 10
192.5593176155038
 20
134.8942205168593
 30
0.0
 10
192.439857081573
 20
135.0832846822462
 30
0.0
 10
192.3761151549915
 20
135.2264786928372
 30
0.0
 10
192.3390045293255
 20
135.3696855735418
 30
0.0
 10
192.3295669546858
 20
135.5132104229137
 30
0.0
 10
192.348345955901
 20
135.6481084193031
 30
0.0
 10
192.4043268198269
 20
135.8128983594955
 30
0.0
 10
192.5016266563961
 20
135.9639761797905
 30
0.0
 10
192.6394648864582
 20
136.1036802778851
 30
0.0
 10
192.8030736328534
 20
136.2355515084301
 30
0.0
 10
193.0032763356306
 20
136.3549470722203
 30
0.0
 10
193.2381339921627
 20
136.4618973412384
 30
0.0
 10
193.5002111118596
 20
136.561983714672
 30
0.0
 10
193.7956283261048
 20
136.6481104581941
 30
0.0
 10
194.1186821378633
 20
136.7195260264676
 30
0.0
 10
194.3772587941531
 20
136.7660630271809
 30
0.0
 10
194.6499012356991
 20
136.8049334607727
 30
0.0
 10
194.9332408540635
 20
136.8356308963768
 30
0.0
 10
195.2264327366759
 20
136.8577599413628
 30
0.0
 10
195.5264663796805
 20
136.8717962644857
 30
0.0
 10
195.7290801859818
 20
136.8735435395398
 30
0.0
 10
195.8307331979957
 20
136.8744201617963
 30
0.0
  0
LINE
  5
7A
330
1F
100
AcDbEntity
  8
0
  6
Continuous
 62
     7
370
    15
100
AcDbLine
 10
195.830733198
 20
133.7195128683
 30
0.0
 11
207.5564980014
 21
133.7195128683
 31
0.0
  0
LINE
  5
7B
330
1F
100
AcDbEntity
  8
0
  6
Continuous
 62
     7
370
    15
100
AcDbLine
 10
207.5564980014
 20
117.5163864487
 30
0.0
 11
207.5564980014
 21
133.7195128683
 31
0.0
  0
LINE
  5
7C
330
1F
100
AcDbEntity
  8
0
  6
Continuous
 62
     7
370
    15
100
AcDbLine
 10
195.830733198
 20
117.5163864487
 30
0.0
 11
207.5564980014
 21
117.5163864487
 31
0.0
  0
SPLINE
  5
7D
330
1F
100
AcDbEntity
  8
0
  6
Continuous
 62
     7
370
    15
100
AcDbSpline
210
0.0
220
0.0
230
1.0
 70
     8
 71
     3
 72
    18
 73
    14
 74
     0
 42
0.00000001
 43
0.00000001
 40
0.0
 40
0.0
 40
0.0
 40
0.0
 40
0.0838020797575637
 40
0.2002309416099402
 40
0.3143550849976096
 40
0.4226112175208757
 40
0.5235779222650342
 40
0.5374369383783252
 40
0.6352753908905943
 40
0.7336003242293342
 40
0.8375987687631421
 40
0.9480870868454937
 40
0.9999999999999999
 40
0.9999999999999999
 40
0.9999999999999999
 40
0.9999999999999999
 10
195.8307331979957
 20
110.959146392736
 30
0.0
 10
195.5338029346765
 20
110.9802416519041
 30
0.0
 10
194.824338129162
 20
111.0306452172923
 30
0.0
 10
193.7843085657382
 20
111.4996955835764
 30
0.0
 10
192.8969815464391
 20
112.3347620110952
 30
0.0
 10
192.3851592864632
 20
113.3856963182032
 30
0.0
 10
192.310505081442
 20
114.1899120650369
 30
0.0
 10
192.3905587129028
 20
114.9370503278962
 30
0.0
 10
192.6147478845606
 20
115.6608441930768
 30
0.0
 10
193.2482375146337
 20
116.5306442328014
 30
0.0
 10
194.1579697287677
 20
117.1826286190283
 30
0.0
 10
195.07257422241
 20
117.4824509577446
 30
0.0
 10
195.6470857716037
 20
117.5081663183503
 30
0.0
 10
195.8307331979957
 20
117.5163864486516
 30
0.0
  0
LINE
  5
7E
330
1F
100
AcDbEntity
  8
0
  6
Continuous
 62
     7
370
    15
100
AcDbLine
 10
188.9339974914
 20
88.8512648344
 30
0.0
 11
188.9339974914
 21
138.5512648344
 31
0.0
  0
LINE
  5
7F
330
1F
100
AcDbEntity
  8
0
  6
Continuous
 62
     7
370
    15
100
AcDbLine
 10
188.4339974914
 20
89.3512648344
 30
0.0
 11
188.4339974914
 21
138.0512648344
 31
0.0
  0
LINE
  5
80
330
1F
100
AcDbEntity
  8
0
  6
Continuous
 62
     7
370
    15
100
AcDbLine
 10
207.5564980014
 20
133.7195128683
 30
0.0
 11
207.803373527
 21
133.5680969656
 31
0.0
  0
LINE
  5
81
330
1F
100
AcDbEntity
  8
0
  6
Continuous
 62
     7
370
    15
100
AcDbLine
 10
207.803373527
 20
133.5680969656
 30
0.0
 11
208.9446492017
 21
132.023904958
 31
0.0
  0
LINE
  5
82
330
1F
100
AcDbEntity
  8
0
  6
Continuous
 62
     7
370
    15
100
AcDbLine
 10
208.9446492017
 20
132.023904958
 30
0.0
 11
209.1355208351
 21
131.9051977382
 31
0.0
  0
SPLINE
  5
83
330
1F
100
AcDbEntity
  8
0
  6
Continuous
 62
     7
370
    15
100
AcDbSpline
210
0.0
220
0.0
230
1.0
 70
     8
 71
     3
 72
     9
 73
     5
 74
     0
 42
0.00000001
 43
0.00000001
 40
0.0
 40
0.0
 40
0.0
 40
0.0
 40
0.5000512094882996
 40
1.0
 40
1.0
 40
1.0
 40
1.0
 10
209.1355208350573
 20
131.9051977382057
 30
0.0
 10
209.1687359206109
 20
132.2664639244962
 30
0.0
 10
209.2351592887046
 20
132.9889223036293
 30
0.0
 10
209.1687313851138
 20
133.7113804897865
 30
0.0
 10
209.1355208350573
 20
134.0725725861512
 30
0.0
  0
LINE
  5
84
330
1F
100
AcDbEntity
  8
0
  6
Continuous
 62
     7
370
    15
100
AcDbLine
 10
208.9446492017
 20
134.4798913753
 30
0.0
 11
209.1355208351
 21
134.0725725862
 31
0.0
  0
LINE
  5
85
330
1F
100
AcDbEntity
  8
0
  6
Continuous
 62
     7
370
    15
100
AcDbLine
 10
207.803373527
 20
136.3548684258
 30
0.0
 11
208.9446492017
 21
134.4798913753
 31
0.0
  0
LINE
  5
86
330
1F
100
AcDbEntity
  8
0
  6
Continuous
 62
     7
370
    15
100
AcDbLine
 10
207.5564980014
 20
136.8744201618
 30
0.0
 11
207.803373527
 21
136.3548684258
 31
0.0
  0
LINE
  5
87
330
1F
100
AcDbEntity
  8
0
  6
Continuous
 62
     7
370
    15
100
AcDbLine
 10
207.5564980014
 20
90.9408983588
 30
0.0
 11
207.803373527
 21
91.4665513121
 31
0.0
  0
LINE
  5
88
330
1F
100
AcDbEntity
  8
0
  6
Continuous
 62
     7
370
    15
100
AcDbLine
 10
207.803373527
 20
91.4665513121
 30
0.0
 11
208.9446492017
 21
93.3120281945
 31
0.0
  0
LINE
  5
89
330
1F
100
AcDbEntity
  8
0
  6
Continuous
 62
     7
370
    15
100
AcDbLine
 10
208.9446492017
 20
93.3120281945
 30
0.0
 11
209.1355208351
 21
93.7241302232
 31
0.0
  0
SPLINE
  5
8A
330
1F
100
AcDbEntity
  8
0
  6
Continuous
 62
     7
370
    15
100
AcDbSpline
210
0.0
220
0.0
230
1.0
 70
     8
 71
     3
 72
    10
 73
     6
 74
     0
 42
0.00000001
 43
0.00000001
 40
0.0
 40
0.0
 40
0.0
 40
0.0
 40
0.1217600371992607
 40
0.5602913356226549
 40
1.0
 40
1.0
 40
1.0
 40
1.0
 10
209.1355208350573
 20
96.06148272448394
 30
0.0
 10
209.1454101589453
 20
95.96671280231273
 30
0.0
 10
209.1909169000492
 20
95.53061925724204
 30
0.0
 10
209.2223067953724
 20
94.75066500823196
 30
0.0
 10
209.1644753313934
 20
94.06661416374925
 30
0.0
 10
209.1355208350573
 20
93.72413022321611
 30
0.0
  0
LINE
  5
8B
330
1F
100
AcDbEntity
  8
0
  6
Continuous
 62
     7
370
    15
100
AcDbLine
 10
208.9446492017
 20
95.9606267979
 30
0.0
 11
209.1355208351
 21
96.0614827245
 31
0.0
  0
LINE
  5
8C
330
1F
100
AcDbEntity
  8
0
  6
Continuous
 62
     7
370
    15
100
AcDbLine
 10
207.803373527
 20
94.471876971
 30
0.0
 11
208.9446492017
 21
95.9606267979
 31
0.0
  0
LINE
  5
8D
330
1F
100
AcDbEntity
  8
0
  6
Continuous
 62
     7
370
    15
100
AcDbLine
 10
207.5564980014
 20
94.3432311212
 30
0.0
 11
207.803373527
 21
94.471876971
 31
0.0
  0
LINE
  5
8E
330
1F
100
AcDbEntity
  8
0
  6
Continuous
 62
     7
370
    15
100
AcDbLine
 10
207.5564980014
 20
110.9591463927
 30
0.0
 11
207.803373527
 21
111.3333834433
 31
0.0
  0
LINE
  5
8F
330
1F
100
AcDbEntity
  8
0
  6
Continuous
 62
     7
370
    15
100
AcDbLine
 10
207.803373527
 20
111.3333834433
 30
0.0
 11
208.9446492017
 21
111.6346683182
 31
0.0
  0
LINE
  5
90
330
1F
100
AcDbEntity
  8
0
  6
Continuous
 62
     7
370
    15
100
AcDbLine
 10
208.9446492017
 20
111.6346683182
 30
0.0
 11
209.1355208351
 21
111.9280631271
 31
0.0
  0
SPLINE
  5
91
330
1F
100
AcDbEntity
  8
0
  6
Continuous
 62
     7
370
    15
100
AcDbSpline
210
0.0
220
0.0
230
1.0
 70
     8
 71
     3
 72
     9
 73
     5
 74
     0
 42
0.00000001
 43
0.00000001
 40
0.0
 40
0.0
 40
0.0
 40
0.0
 40
0.5000512094883
 40
1.0
 40
1.0
 40
1.0
 40
1.0
 10
209.1355208350573
 20
111.9280631270512
 30
0.0
 10
209.1687359206109
 20
112.6789280137926
 30
0.0
 10
209.2351592887046
 20
114.1805039973997
 30
0.0
 10
209.1687313851137
 20
115.682079579921
 30
0.0
 10
209.1355208350573
 20
116.4327904762645
 30
0.0
  0
LINE
  5
92
330
1F
100
AcDbEntity
  8
0
  6
Continuous
 62
     7
370
    15
100
AcDbLine
 10
208.9446492017
 20
116.7392533388
 30
0.0
 11
209.1355208351
 21
116.4327904763
 31
0.0
  0
LINE
  5
93
330
1F
100
AcDbEntity
  8
0
  6
Continuous
 62
     7
370
    15
100
AcDbLine
 10
207.803373527
 20
117.1254805624
 30
0.0
 11
208.9446492017
 21
116.7392533388
 31
0.0
  0
LINE
  5
94
330
1F
100
AcDbEntity
  8
0
  6
Continuous
 62
     7
370
    15
100
AcDbLine
 10
207.5564980014
 20
117.5163864487
 30
0.0
 11
207.803373527
 21
117.1254805624
 31
0.0
  0
LINE
  5
95
330
1F
100
AcDbEntity
  8
0
  6
Continuous
 62
     7
370
    15
100
AcDbLine
 10
210.9339974914
 20
94.7012648344
 30
0.0
 11
210.9339974914
 21
132.7012648344
 31
0.0
  0
ARC
  5
96
330
1F
100
AcDbEntity
  8
0
  6
Continuous
 62
     7
370
    15
100
AcDbCircle
 10
195.8302021068
 20
114.2294320029
 30
0.0
 40
2.896048608207594
100
AcDbArc
 50
89.9894928267
 51
270.0105071733
  0
ARC
  5
97
330
1F
100
AcDbEntity
  8
0
  6
Continuous
 62
     7
370
    15
100
AcDbCircle
 10
195.8302459195
 20
114.1869608285
 30
0.0
 40
2.552292556836855
100
AcDbArc
 50
89.9890612068
 51
270.0109387932
  0
LINE
  5
98
330
1F
100
AcDbEntity
  8
0
  6
Continuous
 62
     7
370
    15
100
AcDbLine
 10
195.830733198
 20
111.3333834433
 30
0.0
 11
207.803373527
 21
111.3333834433
 31
0.0
  0
LINE
  5
99
330
1F
100
AcDbEntity
  8
0
  6
Continuous
 62
     7
370
    15
100
AcDbLine
 10
195.830733198
 20
117.1254805624
 30
0.0
 11
207.803373527
 21
117.1254805624
 31
0.0
  0
ARC
  5
9A
330
1F
100
AcDbEntity
  8
0
  6
Continuous
 62
     7
370
    15
100
AcDbCircle
 10
195.8303259808
 20
114.1804268017
 30
0.0
 40
2.252363711418125
100
AcDbArc
 50
89.9896411822
 51
270.0103588178
  0
LINE
  5
9B
330
1F
100
AcDbEntity
  8
0
  6
Continuous
 62
     7
370
    15
100
AcDbLine
 10
195.830733198
 20
111.6346683182
 30
0.0
 11
208.9446492017
 21
111.6346683182
 31
0.0
  0
LINE
  5
9C
330
1F
100
AcDbEntity
  8
0
  6
Continuous
 62
     7
370
    15
100
AcDbLine
 10
195.830733198
 20
116.7392533388
 30
0.0
 11
208.9446492017
 21
116.7392533388
 31
0.0
  0
LINE
  5
9D
330
1F
100
AcDbEntity
  8
0
  6
Continuous
 62
     7
370
    15
100
AcDbLine
 10
195.830733198
 20
111.9280631271
 30
0.0
 11
209.1355208351
 21
111.9280631271
 31
0.0
  0
LINE
  5
9E
330
1F
100
AcDbEntity
  8
0
  6
Continuous
 62
     7
370
    15
100
AcDbLine
 10
195.830733198
 20
116.4327904763
 30
0.0
 11
209.1355208351
 21
116.4327904763
 31
0.0
  0
LWPOLYLINE
  5
9F
330
1F
100
AcDbEntity
  8
0
  6
Continuous
 62
     7
370
    15
100
AcDbPolyline
 90
       10
 70
   128
 43
0.0
 10
193.3597068981
 20
93.7533763716
 10
193.1222382616
 20
93.5020657244
 10
192.9551179561
 20
93.1503401305
 10
192.9551179561
 20
92.7880881525
 10
193.1222382616
 20
92.4363625586
 10
193.4467664477
 20
92.1156043619
 10
193.909842116
 20
91.8444548628
 10
194.4845529919
 20
91.6386722847
 10
195.1374989681
 20
91.5102159629
 10
195.830733198
 20
91.4665513121
  0
ARC
  5
A0
330
1F
100
AcDbEntity
  8
0
  6
Continuous
 62
     7
370
    15
100
AcDbCircle
 10
195.6679803537
 20
96.8406058921
 30
0.0
 40
3.532329126257166
100
AcDbArc
 50
236.0775726834
 51
272.6408506414
  0
LWPOLYLINE
  5
A1
330
1F
100
AcDbEntity
  8
0
  6
Continuous
 62
     7
370
    15
100
AcDbPolyline
 90
        8
 70
   128
 43
0.0
 10
192.9475852941
 20
134.8266805988
 10
192.9551179561
 20
135.1294367859
 10
193.1222382616
 20
135.4555840851
 10
193.4467664477
 20
135.7530160076
 10
193.909842116
 20
136.004446891
 10
194.4845529919
 20
136.1952644865
 10
195.1374989681
 20
136.3143791688
 10
195.830733198
 20
136.3548684258
  0
ARC
  5
A2
330
1F
100
AcDbEntity
  8
0
  6
Continuous
 62
     7
370
    15
100
AcDbCircle
 10
195.6890632485
 20
130.5274966709
 30
0.0
 40
3.954932903798386
100
AcDbArc
 50
87.9471643903
 51
117.104338159
  0
ARC
  5
A3
330
1F
100
AcDbEntity
  8
0
  6
Continuous
 62
     7
370
    15
100
AcDbCircle
 10
195.7503966036
 20
97.2212122127
 30
0.0
 40
3.498004632571904
100
AcDbArc
 50
244.0376224235
 51
271.315993836
  0
LINE
  5
A4
330
1F
100
AcDbEntity
  8
0
  6
Continuous
 62
     7
370
    15
100
AcDbLine
 10
195.830733198
 20
93.7241302232
 30
0.0
 11
209.1355208351
 21
93.7241302232
 31
0.0
  0
ARC
  5
A5
330
1F
100
AcDbEntity
  8
0
  6
Continuous
 62
     7
370
    15
100
AcDbCircle
 10
195.7729939602
 20
130.0974288567
 30
0.0
 40
3.97556304058503
100
AcDbArc
 50
89.1678333561
 51
108.2543829488
  0
LINE
  5
A6
330
1F
100
AcDbEntity
  8
0
  6
Continuous
 62
     7
370
    15
100
AcDbLine
 10
195.830733198
 20
134.0725725862
 30
0.0
 11
209.1355208351
 21
134.0725725862
 31
0.0
  0
LINE
  5
A7
330
1F
100
AcDbEntity
  8
0
  6
Continuous
 62
     7
370
    15
100
AcDbLine
 10
195.830733198
 20
91.4665513121
 30
0.0
 11
207.803373527
 21
91.4665513121
 31
0.0
  0
LINE
  5
A8
330
1F
100
AcDbEntity
  8
0
  6
Continuous
 62
     7
370
    15
100
AcDbLine
 10
195.830733198
 20
93.3120281945
 30
0.0
 11
208.9446492017
 21
93.3120281945
 31
0.0
  0
LINE
  5
A9
330
1F
100
AcDbEntity
  8
0
  6
Continuous
 62
     7
370
    15
100
AcDbLine
 10
195.830733198
 20
134.4798913753
 30
0.0
 11
208.9446492017
 21
134.4798913753
 31
0.0
  0
LINE
  5
AA
330
1F
100
AcDbEntity
  8
0
  6
Continuous
 62
     7
370
    15
100
AcDbLine
 10
195.830733198
 20
136.3548684258
 30
0.0
 11
207.803373527
 21
136.3548684258
 31
0.0
  0
LINE
  5
AB
330
1F
100
AcDbEntity
  8
0
  6
Continuous
 62
     7
370
    15
100
AcDbLine
 10
132.3259303229
 20
83.5143471381
 30
0.0
 11
132.3259303229
 21
133.5512648344
 31
0.0
  0
SPLINE
  5
AC
330
1F
100
AcDbEntity
  8
0
  6
Continuous
 62
     7
370
    15
100
AcDbSpline
210
0.0
220
0.0
230
1.0
 70
     8
 71
     3
 72
     8
 73
     4
 74
     0
 42
0.00000001
 43
0.00000001
 40
0.0
 40
0.0
 40
0.0
 40
0.0
 40
1.0
 40
1.0
 40
1.0
 40
1.0
 10
132.3259303228908
 20
83.5143471381233
 30
0.0
 10
131.830450662225
 20
84.40987322605666
 30
0.0
 10
131.3363366141829
 20
85.30615764110891
 30
0.0
 10
130.8439974914017
 20
86.20342767531561
 30
0.0
  0
LINE
  5
AD
330
1F
100
AcDbEntity
  8
0
  6
Continuous
 62
     7
370
    15
100
AcDbLine
 10
130.8439974914
 20
86.2034276753
 30
0.0
 11
130.8439974914
 21
133.5512648344
 31
0.0
  0
SPLINE
  5
AE
330
1F
100
AcDbEntity
  8
0
  6
Continuous
 62
     7
370
    15
100
AcDbSpline
210
0.0
220
0.0
230
1.0
 70
    24
 71
     3
 72
     8
 73
     4
 74
     0
 42
0.00000001
 43
0.00000001
 40
0.0
 40
0.0
 40
0.0
 40
0.0
 40
1.0
 40
1.0
 40
1.0
 40
1.0
 10
130.8439974914017
 20
133.5512648343705
 30
0.0
 10
131.3239494857666
 20
133.5512648343705
 30
0.0
 10
131.8192502147402
 20
133.5512648343705
 30
0.0
 10
132.3259303228908
 20
133.5512648343705
 30
0.0
  0
LINE
  5
AF
330
1F
100
AcDbEntity
  8
0
  6
Continuous
 62
     7
370
    15
100
AcDbLine
 10
136.2839974914
 20
83.5143471381
 30
0.0
 11
132.3259303229
 21
83.5143471381
 31
0.0
  0
LINE
  5
B0
330
1F
100
AcDbEntity
  8
0
  6
Continuous
 62
     7
370
    15
100
AcDbLine
 10
132.3259303229
 20
133.5512648344
 30
0.0
 11
136.2839974914
 21
133.5512648344
 31
0.0
  0
SPLINE
  5
B1
330
1F
100
AcDbEntity
  8
0
  6
Continuous
 62
     7
370
    15
100
AcDbSpline
210
0.0
220
0.0
230
1.0
 70
     8
 71
     3
 72
    70
 73
    66
 74
     0
 42
0.00000001
 43
0.00000001
 40
-0.03125
 40
-0.03125
 40
0.0
 40
0.0
 40
0.03125
 40
0.03125
 40
0.0625
 40
0.0625
 40
0.09375
 40
0.09375
 40
0.125
 40
0.125
 40
0.15625
 40
0.15625
 40
0.1875
 40
0.1875
 40
0.21875
 40
0.21875
 40
0.25
 40
0.25
 40
0.28125
 40
0.28125
 40
0.3125
 40
0.3125
 40
0.34375
 40
0.34375
 40
0.375
 40
0.375
 40
0.40625
 40
0.40625
 40
0.4375
 40
0.4375
 40
0.46875
 40
0.46875
 40
0.5
 40
0.5
 40
0.53125
 40
0.53125
 40
0.5625
 40
0.5625
 40
0.59375
 40
0.59375
 40
0.625
 40
0.625
 40
0.65625
 40
0.65625
 40
0.6875
 40
0.6875
 40
0.71875
 40
0.71875
 40
0.75
 40
0.75
 40
0.78125
 40
0.78125
 40
0.8125
 40
0.8125
 40
0.84375
 40
0.84375
 40
0.875
 40
0.875
 40
0.90625
 40
0.90625
 40
0.9375
 40
0.9375
 40
0.96875
 40
0.96875
 40
1.0
 40
1.0
 40
1.03125
 40
1.03125
 10
118.6694521527416
 20
124.3221717203538
 30
0.0
 10
119.1985428300619
 20
124.3221717203538
 30
0.0
 10
119.458613497439
 20
124.346849015139
 30
0.0
 10
119.9701881772744
 20
124.4433206881809
 30
0.0
 10
120.2243634610146
 20
124.516301604161
 30
0.0
 10
120.7086340910763
 20
124.7060422070996
 30
0.0
 10
120.9382751829574
 20
124.8219028654933
 30
0.0
 10
121.3728795311909
 20
125.094520711451
 30
0.0
 10
121.5784453078375
 20
125.2525597935048
 30
0.0
 10
121.9470024484328
 20
125.5961026444755
 30
0.0
 10
122.1124834311683
 20
125.7828650885771
 30
0.0
 10
122.4049079406034
 20
126.1864082629739
 30
0.0
 10
122.5290089172299
 20
126.3999052594031
 30
0.0
 10
122.7285881139796
 20
126.8392885733256
 30
0.0
 10
122.8055216998379
 20
127.0684285604712
 30
0.0
 10
122.9083787583582
 20
127.5344026832312
 30
0.0
 10
122.9338516678173
 20
127.7672851289074
 30
0.0
 10
122.9341420783851
 20
128.2326826639872
 30
0.0
 10
122.9081174446094
 20
128.4675584213815
 30
0.0
 10
122.8059691601174
 20
128.9190515686278
 30
0.0
 10
122.7303927125342
 20
129.1370980440392
 30
0.0
 10
122.5298951813893
 20
129.558192569077
 30
0.0
 10
122.4047663398809
 20
129.7601139535953
 30
0.0
 10
122.1154075388593
 20
130.1321434361142
 30
0.0
 10
121.9499965518039
 20
130.3047717396946
 30
0.0
 10
121.577005993656
 20
130.6220897442406
 30
0.0
 10
121.3752729605669
 20
130.7618766777422
 30
0.0
 10
120.9424137097391
 20
131.006052931294
 30
0.0
 10
120.7084951768497
 20
131.1112824423355
 30
0.0
 10
120.2243114417071
 20
131.2794395887106
 30
0.0
 10
119.9749958157516
 20
131.3426904793045
 30
0.0
 10
119.4619632913238
 20
131.4282696884071
 30
0.0
 10
119.1966694684192
 20
131.4501418533295
 30
0.0
 10
118.6743348485494
 20
131.4503055029735
 30
0.0
 10
118.4145811860677
 20
131.4293038108775
 30
0.0
 10
117.8979693704225
 20
131.3439014557998
 30
0.0
 10
117.6456033299222
 20
131.2798952725128
 30
0.0
 10
117.1640782083894
 20
131.1130807524716
 30
0.0
 10
116.9312274762758
 20
131.0089475890725
 30
0.0
 10
116.494137627837
 20
130.7629609365775
 30
0.0
 10
116.2928166391799
 20
130.6232111056287
 30
0.0
 10
115.92373061388
 20
130.3100730359041
 30
0.0
 10
115.7547458628283
 20
130.134616876634
 30
0.0
 10
115.4642898061691
 20
129.7617766125338
 30
0.0
 10
115.3412179948069
 20
129.5636548024229
 30
0.0
 10
115.1398817533849
 20
129.1429434596891
 30
0.0
 10
115.0626692074427
 20
128.9209534390216
 30
0.0
 10
114.9604656645426
 20
128.4710884993133
 30
0.0
 10
114.9342373130903
 20
128.2408330861965
 30
0.0
 10
114.9337609137732
 20
127.7695171436474
 30
0.0
 10
114.9595033262712
 20
127.5362797279333
 30
0.0
 10
115.060814102635
 20
127.0746031884352
 30
0.0
 10
115.137646742026
 20
126.8437058013231
 30
0.0
 10
115.3380505812411
 20
126.4014297875314
 30
0.0
 10
115.4607220795332
 20
126.1903673562455
 30
0.0
 10
115.7506693686974
 20
125.7888688455129
 30
0.0
 10
115.9192403480626
 20
125.5979623234369
 30
0.0
 10
116.2875099421758
 20
125.2542369914399
 30
0.0
 10
116.4885717994461
 20
125.0990998052258
 30
0.0
 10
116.925602718031
 20
124.8240224451461
 30
0.0
 10
117.1577509311606
 20
124.706906215724
 30
0.0
 10
117.6387612126595
 20
124.5179797306595
 30
0.0
 10
117.89086129549
 20
124.4449047602652
 30
0.0
 10
118.4079307817489
 20
124.3468527011307
 30
0.0
 10
118.6694521527416
 20
124.3221717203538
 30
0.0
 10
119.1985428300619
 20
124.3221717203538
 30
0.0
  0
LINE
  5
B2
330
1F
100
AcDbEntity
  8
0
  6
Continuous
 62
     7
370
    15
100
AcDbLine
 10
115.8839974914
 20
133.5512648344
 30
0.0
 11
125.5420646599
 21
133.5512648344
 31
0.0
  0
LINE
  5
B3
330
1F
100
AcDbEntity
  8
0
  6
Continuous
 62
     7
370
    15
100
AcDbLine
 10
125.5420646599
 20
83.5143471381
 30
0.0
 11
125.5420646599
 21
133.5512648344
 31
0.0
  0
LINE
  5
B4
330
1F
100
AcDbEntity
  8
0
  6
Continuous
 62
     7
370
    15
100
AcDbLine
 10
125.5420646599
 20
83.5143471381
 30
0.0
 11
123.8839974914
 21
83.5143471381
 31
0.0
  0
SPLINE
  5
B5
330
1F
100
AcDbEntity
  8
0
  6
Continuous
 62
     7
370
    15
100
AcDbSpline
210
0.0
220
0.0
230
1.0
 70
     8
 71
     3
 72
    28
 73
    24
 74
     0
 42
0.00000001
 43
0.00000001
 40
0.0
 40
0.0
 40
0.0
 40
0.0
 40
0.1250000000000001
 40
0.1250000000000001
 40
0.1875000000000001
 40
0.1875000000000001
 40
0.2500000000000001
 40
0.2500000000000001
 40
0.3749999999999999
 40
0.3749999999999999
 40
0.4375
 40
0.4375
 40
0.4999999999999999
 40
0.4999999999999999
 40
0.6249999999999999
 40
0.6249999999999999
 40
0.7499999999999997
 40
0.7499999999999997
 40
0.8124999999999998
 40
0.8124999999999998
 40
0.8749999999999998
 40
0.8749999999999998
 40
1.0
 40
1.0
 40
1.0
 40
1.0
 10
123.8839974914017
 20
83.5143471381233
 30
0.0
 10
123.3522897339088
 20
83.51434713812331
 30
0.0
 10
122.8300511685984
 20
83.49856242417309
 30
0.0
 10
122.0601806823234
 20
83.45356701009688
 30
0.0
 10
121.8058211101321
 20
83.43501201502116
 30
0.0
 10
121.3016995294336
 20
83.39115929257464
 30
0.0
 10
121.0519767120057
 20
83.36581468562244
 30
0.0
 10
120.3263867605593
 20
83.28241260787233
 30
0.0
 10
119.8680264989777
 20
83.21654704872125
 30
0.0
 10
119.2175285555838
 20
83.10757670822946
 30
0.0
 10
119.0058465047914
 20
83.0693370724628
 30
0.0
 10
118.6017750156534
 20
82.99157833504344
 30
0.0
 10
118.4092685018325
 20
82.9520773728681
 30
0.0
 10
117.8594335308112
 20
82.83316963050211
 30
0.0
 10
117.5295047525024
 20
82.7533519490775
 30
0.0
 10
116.9450334839337
 20
82.60000878728144
 30
0.0
 10
116.6987563459203
 20
82.52867503401218
 30
0.0
 10
116.3989135532222
 20
82.43473152693755
 30
0.0
 10
116.3104566961501
 20
82.40553773357763
 30
0.0
 10
116.1570953428449
 20
82.35207115931422
 30
0.0
 10
116.0920071286187
 20
82.32771182503903
 30
0.0
 10
115.9364131126779
 20
82.2641216795943
 30
0.0
 10
115.8839974914017
 20
82.23401874450505
 30
0.0
 10
115.8839974914017
 20
82.21714185150813
 30
0.0
  0
LINE
  5
B6
330
1F
100
AcDbEntity
  8
0
  6
Continuous
 62
     7
370
    15
100
AcDbLine
 10
115.8839974914
 20
82.2171418515
 30
0.0
 11
115.8839974914
 21
82.2012648344
 31
0.0
  0
SPLINE
  5
B7
330
1F
100
AcDbEntity
  8
0
  6
Continuous
 62
     7
370
    15
100
AcDbSpline
210
0.0
220
0.0
230
1.0
 70
     8
 71
     3
 72
    17
 73
    13
 74
     0
 42
0.00000001
 43
0.00000001
 40
0.0
 40
0.0
 40
0.0
 40
0.0
 40
0.1034796923964056
 40
0.210023918880785
 40
0.3134862136955583
 40
0.4198361274354882
 40
0.5254127712915682
 40
0.633961069541979
 40
0.7409508756305031
 40
0.8511696089308174
 40
0.9558996534551937
 40
1.0
 40
1.0
 40
1.0
 40
1.0
 10
123.8839974914017
 20
144.1684603075347
 30
0.0
 10
123.4487491422917
 20
144.173908504068
 30
0.0
 10
122.5653626357267
 20
144.1849662445798
 30
0.0
 10
121.284535050498
 20
144.2713246374814
 30
0.0
 10
120.067118514624
 20
144.3991948140192
 30
0.0
 10
118.9593126623774
 20
144.5581401126124
 30
0.0
 10
117.9710738584292
 20
144.7326338003279
 30
0.0
 10
117.1463503008977
 20
144.9017996509678
 30
0.0
 10
116.4973968002384
 20
145.0496834334961
 30
0.0
 10
116.0803619847767
 20
145.1514740177269
 30
0.0
 10
115.8817652718122
 20
145.2018255403301
 30
0.0
 10
115.9050779932454
 20
145.1959198561077
 30
0.0
 10
115.911985850483
 20
145.1941699264131
 30
0.0
  0
LINE
  5
B8
330
1F
100
AcDbEntity
  8
0
  6
Continuous
 62
     7
370
    15
100
AcDbLine
 10
125.5420646599
 20
144.1684603075
 30
0.0
 11
123.8839974914
 21
144.1684603075
 31
0.0
  0
LINE
  5
B9
330
1F
100
AcDbEntity
  8
0
  6
Continuous
 62
     7
370
    15
100
AcDbLine
 10
125.5420646599
 20
138.1599544967
 30
0.0
 11
125.5420646599
 21
144.1684603075
 31
0.0
  0
LINE
  5
BA
330
1F
100
AcDbEntity
  8
0
  6
Continuous
 62
     7
370
    15
100
AcDbLine
 10
123.1296178371
 20
138.1599544967
 30
0.0
 11
125.5420646599
 21
138.1599544967
 31
0.0
  0
SPLINE
  5
BB
330
1F
100
AcDbEntity
  8
0
  6
Continuous
 62
     7
370
    15
100
AcDbSpline
210
0.0
220
0.0
230
1.0
 70
     8
 71
     3
 72
    20
 73
    16
 74
     0
 42
0.00000001
 43
0.00000001
 40
0.0
 40
0.0
 40
0.0
 40
0.0
 40
0.2499999999999997
 40
0.2499999999999997
 40
0.3749999999999997
 40
0.3749999999999997
 40
0.4999999999999998
 40
0.4999999999999998
 40
0.6249999999999998
 40
0.6249999999999998
 40
0.7499999999999999
 40
0.7499999999999999
 40
0.8749999999999999
 40
0.8749999999999999
 40
1.0
 40
1.0
 40
1.0
 40
1.0
 10
115.8839974914017
 20
133.5512648343705
 30
0.0
 10
116.1323712256898
 20
134.2051272626679
 30
0.0
 10
116.451941318035
 20
134.808913044665
 30
0.0
 10
117.0742475512397
 20
135.6357517808336
 30
0.0
 10
117.3056718116705
 20
135.8981804187866
 30
0.0
 10
117.8268861513202
 20
136.3948430728915
 30
0.0
 10
118.1135066339553
 20
136.625429951913
 30
0.0
 10
118.7329913752629
 20
137.0419841764956
 30
0.0
 10
119.0672917547498
 20
137.2294819784632
 30
0.0
 10
119.7925522273746
 20
137.5608789560996
 30
0.0
 10
120.1744672847651
 20
137.7003829435949
 30
0.0
 10
120.9692554609368
 20
137.9258364510658
 30
0.0
 10
121.3834136551432
 20
138.0124625626094
 30
0.0
 10
122.2489599957245
 20
138.1304433514636
 30
0.0
 10
122.6868476107364
 20
138.1599544967379
 30
0.0
 10
123.129617837091
 20
138.1599544967379
 30
0.0
  0
SPLINE
  5
BC
330
1F
100
AcDbEntity
  8
0
  6
Continuous
 62
     7
370
    15
100
AcDbSpline
210
0.0
220
0.0
230
1.0
 70
     8
 71
     3
 72
    70
 73
    66
 74
     0
 42
0.00000001
 43
0.00000001
 40
-0.03125
 40
-0.03125
 40
0.0
 40
0.0
 40
0.0312499999999999
 40
0.0312499999999999
 40
0.0624999999999999
 40
0.0624999999999999
 40
0.0937499999999998
 40
0.0937499999999998
 40
0.1249999999999997
 40
0.1249999999999997
 40
0.1562499999999997
 40
0.1562499999999997
 40
0.1874999999999996
 40
0.1874999999999996
 40
0.2187499999999995
 40
0.2187499999999995
 40
0.2499999999999994
 40
0.2499999999999994
 40
0.2812499999999996
 40
0.2812499999999996
 40
0.3124999999999996
 40
0.3124999999999996
 40
0.3437499999999997
 40
0.3437499999999997
 40
0.3749999999999998
 40
0.3749999999999998
 40
0.4062499999999999
 40
0.4062499999999999
 40
0.4375
 40
0.4375
 40
0.4687500000000001
 40
0.4687500000000001
 40
0.5000000000000002
 40
0.5000000000000002
 40
0.5312500000000001
 40
0.5312500000000001
 40
0.5625000000000001
 40
0.5625000000000001
 40
0.59375
 40
0.59375
 40
0.6249999999999999
 40
0.6249999999999999
 40
0.6562499999999999
 40
0.6562499999999999
 40
0.6874999999999998
 40
0.6874999999999998
 40
0.7187499999999998
 40
0.7187499999999998
 40
0.7499999999999997
 40
0.7499999999999997
 40
0.7812499999999997
 40
0.7812499999999997
 40
0.8124999999999998
 40
0.8124999999999998
 40
0.8437499999999998
 40
0.8437499999999998
 40
0.8749999999999998
 40
0.8749999999999998
 40
0.9062499999999999
 40
0.9062499999999999
 40
0.9374999999999999
 40
0.9374999999999999
 40
0.96875
 40
0.96875
 40
1.0
 40
1.0
 40
1.03125
 40
1.03125
 10
118.6694521527416
 20
138.7602282291496
 30
0.0
 10
119.1985428300619
 20
138.7602282291496
 30
0.0
 10
119.458613497439
 20
138.7761286695644
 30
0.0
 10
119.9701881772744
 20
138.8380730197387
 30
0.0
 10
120.2243634610146
 20
138.88487525383
 30
0.0
 10
120.7086340910763
 20
139.0058522372851
 30
0.0
 10
120.9382751829574
 20
139.0794545650919
 30
0.0
 10
121.3728795311909
 20
139.25127883607
 30
0.0
 10
121.5784453078375
 20
139.3502822589974
 30
0.0
 10
121.9470024484328
 20
139.5633786729103
 30
0.0
 10
122.1124834311683
 20
139.6782783890399
 30
0.0
 10
122.4049079406034
 20
139.9236452877302
 30
0.0
 10
122.5290089172299
 20
140.0520851882005
 30
0.0
 10
122.7285881139796
 20
140.3129773362865
 30
0.0
 10
122.8055216998379
 20
140.4473585076259
 30
0.0
 10
122.9083787583582
 20
140.7166784587322
 30
0.0
 10
122.9338516678173
 20
140.8493597229503
 30
0.0
 10
122.9341420783851
 20
141.1105461970814
 30
0.0
 10
122.9081174446094
 20
141.2403112352461
 30
0.0
 10
122.8059691601174
 20
141.4858938695188
 30
0.0
 10
122.7303927125342
 20
141.6025554068276
 30
0.0
 10
122.5298951813893
 20
141.8244605969822
 30
0.0
 10
122.4047663398809
 20
141.9290718509052
 30
0.0
 10
122.1154075388593
 20
142.1191182625133
 30
0.0
 10
121.9499965518039
 20
142.2058779339629
 30
0.0
 10
121.577005993656
 20
142.3633823097145
 30
0.0
 10
121.3752729605669
 20
142.4317075745017
 30
0.0
 10
120.9424137097391
 20
142.5499372981209
 30
0.0
 10
120.7084951768497
 20
142.6002322142248
 30
0.0
 10
120.2243114417071
 20
142.6800977511144
 30
0.0
 10
119.9749958157516
 20
142.709838878914
 30
0.0
 10
119.4619632913238
 20
142.7499916204222
 30
0.0
 10
119.1966694684192
 20
142.7601898898321
 30
0.0
 10
118.6743348485495
 20
142.7602663482168
 30
0.0
 10
118.4145811860677
 20
142.7504753366078
 30
0.0
 10
117.8979693704225
 20
142.710408497869
 30
0.0
 10
117.6456033299222
 20
142.6803113310122
 30
0.0
 10
117.1640782083894
 20
142.601089121182
 30
0.0
 10
116.9312274762758
 20
142.5513316417186
 30
0.0
 10
116.494137627837
 20
142.4322396992682
 30
0.0
 10
116.2928166391799
 20
142.363924437721
 30
0.0
 10
115.92373061388
 20
142.2085234707874
 30
0.0
 10
115.7547458628283
 20
142.1203711287205
 30
0.0
 10
115.4642898061691
 20
141.9299317396041
 30
0.0
 10
115.3412179948069
 20
141.8273071619051
 30
0.0
 10
115.1398817533849
 20
141.605666815297
 30
0.0
 10
115.0626692074427
 20
141.4869127397494
 30
0.0
 10
114.9604656645426
 20
141.2422468008318
 30
0.0
 10
114.9342373130903
 20
141.1150900753832
 30
0.0
 10
114.9337609137732
 20
140.8506419295277
 30
0.0
 10
114.9595033262712
 20
140.7177412492705
 30
0.0
 10
115.060814102635
 20
140.4509489757884
 30
0.0
 10
115.137646742026
 20
140.3155850743199
 30
0.0
 10
115.3380505812411
 20
140.0530052790173
 30
0.0
 10
115.4607220795332
 20
139.9260301192636
 30
0.0
 10
115.7506693686974
 20
139.6819507331812
 30
0.0
 10
115.9192403480627
 20
139.5645256084273
 30
0.0
 10
116.2875099421758
 20
139.3513291474789
 30
0.0
 10
116.4885717994461
 20
139.254155029054
 30
0.0
 10
116.925602718031
 20
139.0808001418398
 30
0.0
 10
117.1577509311606
 20
139.0064005901831
 30
0.0
 10
117.6387612126595
 20
138.8859477106784
 30
0.0
 10
117.89086129549
 20
138.8390893354124
 30
0.0
 10
118.4079307817489
 20
138.7761318384287
 30
0.0
 10
118.6694521527416
 20
138.7602282291496
 30
0.0
 10
119.1985428300619
 20
138.7602282291496
 30
0.0
  0
LINE
  5
BD
330
1F
100
AcDbEntity
  8
0
  6
Continuous
 62
     7
370
    15
100
AcDbLine
 10
127.0239974914
 20
86.2034276753
 30
0.0
 11
127.0239974914
 21
133.5512648344
 31
0.0
  0
SPLINE
  5
BE
330
1F
100
AcDbEntity
  8
0
  6
Continuous
 62
     7
370
    15
100
AcDbSpline
210
0.0
220
0.0
230
1.0
 70
     8
 71
     3
 72
     8
 73
     4
 74
     0
 42
0.00000001
 43
0.00000001
 40
0.0
 40
0.0
 40
0.0
 40
0.0
 40
1.0
 40
1.0
 40
1.0
 40
1.0
 10
127.0239974914017
 20
86.2034276753156
 30
0.0
 10
126.5316583686205
 20
85.3061576411089
 30
0.0
 10
126.0375443205784
 20
84.40987322605665
 30
0.0
 10
125.5420646599127
 20
83.5143471381233
 30
0.0
  0
SPLINE
  5
BF
330
1F
100
AcDbEntity
  8
0
  6
Continuous
 62
     7
370
    15
100
AcDbSpline
210
0.0
220
0.0
230
1.0
 70
    24
 71
     3
 72
     8
 73
     4
 74
     0
 42
0.00000001
 43
0.00000001
 40
0.0
 40
0.0
 40
0.0
 40
0.0
 40
1.0
 40
1.0
 40
1.0
 40
1.0
 10
125.5420646599126
 20
133.5512648343705
 30
0.0
 10
126.0487447680632
 20
133.5512648343705
 30
0.0
 10
126.5440454970368
 20
133.5512648343705
 30
0.0
 10
127.0239974914017
 20
133.5512648343705
 30
0.0
  0
LINE
  5
C0
330
1F
100
AcDbEntity
  8
0
  6
Continuous
 62
     7
370
    15
100
AcDbLine
 10
136.8839974914
 20
84.1409874338
 30
0.0
 11
136.8839974914
 21
133.5512648344
 31
0.0
  0
SPLINE
  5
C1
330
1F
100
AcDbEntity
  8
0
  6
Continuous
 62
     7
370
    15
100
AcDbSpline
210
0.0
220
0.0
230
1.0
 70
     8
 71
     3
 72
    10
 73
     6
 74
     0
 42
0.00000001
 43
0.00000001
 40
0.0
 40
0.0
 40
0.0
 40
0.0
 40
0.5
 40
0.5
 40
1.0
 40
1.0
 40
1.0
 40
1.0
 10
136.8839974914017
 20
84.14098743377761
 30
0.0
 10
136.8839974914017
 20
83.98110016558395
 30
0.0
 10
136.8226878401659
 20
83.81997291006934
 30
0.0
 10
136.6035882026308
 20
83.58587391171451
 30
0.0
 10
136.4455399963173
 20
83.5143471381233
 30
0.0
 10
136.2839974914017
 20
83.5143471381233
 30
0.0
  0
SPLINE
  5
C2
330
1F
100
AcDbEntity
  8
0
  6
Continuous
 62
     7
370
    15
100
AcDbSpline
210
0.0
220
0.0
230
1.0
 70
    24
 71
     3
 72
    12
 73
     8
 74
     0
 42
0.00000001
 43
0.00000001
 40
0.0
 40
0.0
 40
0.0
 40
0.0
 40
0.2500000000000033
 40
0.2500000000000033
 40
0.5000000000000067
 40
0.5000000000000067
 40
1.0
 40
1.0
 40
1.0
 40
1.0
 10
136.2839974914017
 20
133.5512648343705
 30
0.0
 10
136.3742365590888
 20
133.5512648343705
 30
0.0
 10
136.4651346731953
 20
133.5512648343705
 30
0.0
 10
136.6197317096838
 20
133.5512648343705
 30
0.0
 10
136.6847101257919
 20
133.5512648343705
 30
0.0
 10
136.8365451537281
 20
133.5512648343705
 30
0.0
 10
136.8839974914017
 20
133.5512648343705
 30
0.0
 10
136.8839974914017
 20
133.5512648343705
 30
0.0
  0
LINE
  5
C3
330
1F
100
AcDbEntity
  8
0
  6
Continuous
 62
     7
370
    15
100
AcDbLine
 10
110.9339974914
 20
82.5012648344
 30
0.0
 11
110.9339974914
 21
144.9012648344
 31
0.0
  0
ARC
  5
C4
330
1F
100
AcDbEntity
  8
0
  6
Continuous
 62
     7
370
    15
100
AcDbCircle
 10
118.9310210442
 20
125.585898055
 30
0.0
 40
4.121396852555112
100
AcDbArc
 50
19.9152649534
 51
158.8018160429
  0
SPLINE
  5
C5
330
1F
100
AcDbEntity
  8
0
  6
Continuous
 62
     7
370
    15
100
AcDbSpline
210
0.0
220
0.0
230
1.0
 70
     8
 71
     3
 72
    10
 73
     6
 74
     0
 42
0.00000001
 43
0.00000001
 40
0.0
 40
0.0
 40
0.0
 40
0.0
 40
0.5
 40
0.5
 40
1.0
 40
1.0
 40
1.0
 40
1.0
 10
127.4182950230927
 20
140.1012648343705
 30
0.0
 10
127.2967547594241
 20
140.1759910015822
 30
0.0
 10
127.1954203990752
 20
140.284936017499
 30
0.0
 10
127.0597814561868
 20
140.5353664982606
 30
0.0
 10
127.0239974914017
 20
140.6777858603595
 30
0.0
 10
127.0239974914017
 20
140.8209186854062
 30
0.0
  0
SPLINE
  5
C6
330
1F
100
AcDbEntity
  8
0
  6
Continuous
 62
     7
370
    15
100
AcDbSpline
210
0.0
220
0.0
230
1.0
 70
    24
 71
     3
 72
    12
 73
     8
 74
     0
 42
0.00000001
 43
0.00000001
 40
0.0
 40
0.0
 40
0.0
 40
0.0
 40
0.2500000000000037
 40
0.2500000000000037
 40
0.5000000000000074
 40
0.5000000000000074
 40
1.0
 40
1.0
 40
1.0
 40
1.0
 10
127.8239974914017
 20
140.1012648343705
 30
0.0
 10
127.7741208090843
 20
140.1012648343705
 30
0.0
 10
127.7261176156807
 20
140.1012648343705
 30
0.0
 10
127.6430695129687
 20
140.1012648343705
 30
0.0
 10
127.6069399335009
 20
140.1012648343705
 30
0.0
 10
127.5110279025566
 20
140.1012648343705
 30
0.0
 10
127.4612692345878
 20
140.1012648343705
 30
0.0
 10
127.4182950230927
 20
140.1012648343705
 30
0.0
  0
SPLINE
  5
C7
330
1F
100
AcDbEntity
  8
0
  6
Continuous
 62
     7
370
    15
100
AcDbSpline
210
0.0
220
0.0
230
1.0
 70
    24
 71
     3
 72
    14
 73
    10
 74
     0
 42
0.00000001
 43
0.00000001
 40
0.0
 40
0.0
 40
0.0
 40
0.0
 40
0.1249999999999991
 40
0.1249999999999991
 40
0.2499999999999982
 40
0.2499999999999982
 40
0.4999999999999998
 40
0.4999999999999998
 40
1.0
 40
1.0
 40
1.0
 40
1.0
 10
127.8239974914017
 20
87.30126483437046
 30
0.0
 10
127.7555596435153
 20
87.30126483437046
 30
0.0
 10
127.6900096047502
 20
87.30126483437047
 30
0.0
 10
127.5855829653423
 20
87.30126483437047
 30
0.0
 10
127.5430383555808
 20
87.30126483437047
 30
0.0
 10
127.4304288950406
 20
87.30126483437046
 30
0.0
 10
127.3748898480211
 20
87.30126483437046
 30
0.0
 10
127.2322781525573
 20
87.30126483437046
 30
0.0
 10
127.1688727975615
 20
87.30126483437046
 30
0.0
 10
127.121672293734
 20
87.30126483437046
 30
0.0
  0
SPLINE
  5
C8
330
1F
100
AcDbEntity
  8
0
  6
Continuous
 62
     7
370
    15
100
AcDbSpline
210
0.0
220
0.0
230
1.0
 70
     8
 71
     3
 72
    10
 73
     6
 74
     0
 42
0.00000001
 43
0.00000001
 40
0.0
 40
0.0
 40
0.0
 40
0.0
 40
0.5
 40
0.5
 40
1.0
 40
1.0
 40
1.0
 40
1.0
 10
127.0239974914017
 20
133.8371314658318
 30
0.0
 10
127.0239974914017
 20
133.7893599578385
 30
0.0
 10
127.0261587349989
 20
133.7416502357769
 30
0.0
 10
127.0348301088591
 20
133.6463551182286
 30
0.0
 10
127.041359291815
 20
133.5986625542619
 30
0.0
 10
127.0501451145618
 20
133.5512648343705
 30
0.0
  0
SPLINE
  5
C9
330
1F
100
AcDbEntity
  8
0
  6
Continuous
 62
     7
370
    15
100
AcDbSpline
210
0.0
220
0.0
230
1.0
 70
    24
 71
     3
 72
    14
 73
    10
 74
     0
 42
0.00000001
 43
0.00000001
 40
0.0
 40
0.0
 40
0.0
 40
0.0
 40
0.4999999999999984
 40
0.4999999999999984
 40
0.7499999999999992
 40
0.7499999999999992
 40
0.8749999999999996
 40
0.8749999999999996
 40
1.0
 40
1.0
 40
1.0
 40
1.0
 10
130.7463226890694
 20
87.30126483437046
 30
0.0
 10
130.6995379840212
 20
87.30126483437047
 30
0.0
 10
130.6374867872416
 20
87.30126483437047
 30
0.0
 10
130.494095148691
 20
87.30126483437046
 30
0.0
 10
130.4379514951399
 20
87.30126483437046
 30
0.0
 10
130.3250004730037
 20
87.30126483437047
 30
0.0
 10
130.2819997109655
 20
87.30126483437047
 30
0.0
 10
130.1779370006591
 20
87.30126483437046
 30
0.0
 10
130.1126047623021
 20
87.30126483437049
 30
0.0
 10
130.0439974914017
 20
87.30126483437046
 30
0.0
  0
SPLINE
  5
CA
330
1F
100
AcDbEntity
  8
0
  6
Continuous
 62
     7
370
    15
100
AcDbSpline
210
0.0
220
0.0
230
1.0
 70
    24
 71
     3
 72
    12
 73
     8
 74
     0
 42
0.00000001
 43
0.00000001
 40
0.0
 40
0.0
 40
0.0
 40
0.0
 40
0.5000000000000017
 40
0.5000000000000017
 40
0.7500000000000008
 40
0.7500000000000008
 40
1.0
 40
1.0
 40
1.0
 40
1.0
 10
130.4496999597107
 20
140.1012648343705
 30
0.0
 10
130.4066144100998
 20
140.1012648343705
 30
0.0
 10
130.3574622083505
 20
140.1012648343705
 30
0.0
 10
130.2609896140626
 20
140.1012648343705
 30
0.0
 10
130.224888028928
 20
140.1012648343705
 30
0.0
 10
130.1417822710667
 20
140.1012648343705
 30
0.0
 10
130.0937856741004
 20
140.1012648343705
 30
0.0
 10
130.0439974914017
 20
140.1012648343705
 30
0.0
  0
SPLINE
  5
CB
330
1F
100
AcDbEntity
  8
0
  6
Continuous
 62
     7
370
    15
100
AcDbSpline
210
0.0
220
0.0
230
1.0
 70
     8
 71
     3
 72
    10
 73
     6
 74
     0
 42
0.00000001
 43
0.00000001
 40
0.0
 40
0.0
 40
0.0
 40
0.0
 40
0.5
 40
0.5
 40
1.0
 40
1.0
 40
1.0
 40
1.0
 10
130.8439974914017
 20
140.8209186854062
 30
0.0
 10
130.8439974914017
 20
140.6771486275882
 30
0.0
 10
130.8079484326828
 20
140.5347292650931
 30
0.0
 10
130.6724395719088
 20
140.2848349717358
 30
0.0
 10
130.5725635788126
 20
140.1768046354877
 30
0.0
 10
130.4496999597107
 20
140.1012648343704
 30
0.0
  0
SPLINE
  5
CC
330
1F
100
AcDbEntity
  8
0
  6
Continuous
 62
     7
370
    15
100
AcDbSpline
210
0.0
220
0.0
230
1.0
 70
     8
 71
     3
 72
    10
 73
     6
 74
     0
 42
0.00000001
 43
0.00000001
 40
0.0
 40
0.0
 40
0.0
 40
0.0
 40
0.5
 40
0.5
 40
1.0
 40
1.0
 40
1.0
 40
1.0
 10
130.8178498682416
 20
133.5512648343705
 30
0.0
 10
130.8265395111532
 20
133.5981436836886
 30
0.0
 10
130.8330785759038
 20
133.6455661490899
 30
0.0
 10
130.8418372102968
 20
133.7415029476768
 30
0.0
 10
130.8439974914017
 20
133.7894182356873
 30
0.0
 10
130.8439974914017
 20
133.8371314658318
 30
0.0
  0
LINE
  5
CD
330
1F
100
AcDbEntity
  8
0
  6
Continuous
 62
     7
370
    15
100
AcDbLine
 10
130.0439974914
 20
140.1012648344
 30
0.0
 11
127.8239974914
 21
140.1012648344
 31
0.0
  0
LINE
  5
CE
330
1F
100
AcDbEntity
  8
0
  6
Continuous
 62
     7
370
    15
100
AcDbLine
 10
130.0439974914
 20
87.3012648344
 30
0.0
 11
127.8239974914
 21
87.3012648344
 31
0.0
  0
LINE
  5
CF
330
1F
100
AcDbEntity
  8
0
  6
Continuous
 62
     7
370
    15
100
AcDbLine
 10
108.9339974914
 20
89.4808339726
 30
0.0
 11
108.9339974914
 21
137.9216956961
 31
0.0
  0
LINE
  5
D0
330
1F
100
AcDbEntity
  8
0
  6
Continuous
 62
     7
370
    15
100
AcDbLine
 10
89.1339974914
 20
90.4728179406
 30
0.0
 11
89.1339974914
 21
91.7375273032
 31
0.0
  0
SPLINE
  5
D1
330
1F
100
AcDbEntity
  8
0
  6
Continuous
 62
     7
370
    15
100
AcDbSpline
210
0.0
220
0.0
230
1.0
 70
     8
 71
     3
 72
    14
 73
    10
 74
     0
 42
0.00000001
 43
0.00000001
 40
0.0
 40
0.0
 40
0.0
 40
0.0
 40
0.25
 40
0.25
 40
0.5
 40
0.5
 40
0.75
 40
0.75
 40
1.0
 40
1.0
 40
1.0
 40
1.0
 10
88.35571037348599
 20
92.8681135108105
 30
0.0
 10
88.41233704868807
 20
92.76041605697364
 30
0.0
 10
88.5068597089778
 20
92.65762647525433
 30
0.0
 10
88.68990468454004
 20
92.45926916303418
 30
0.0
 10
88.78153126149476
 20
92.36320965435593
 30
0.0
 10
88.94038457918796
 20
92.17568061164668
 30
0.0
 10
89.00827518680966
 20
92.08427163886313
 30
0.0
 10
89.10519221251724
 20
91.90589541795298
 30
0.0
 10
89.1339974914023
 20
91.8186735117068
 30
0.0
 10
89.13399749140228
 20
91.73752730317256
 30
0.0
  0
SPLINE
  5
D2
330
1F
100
AcDbEntity
  8
0
  6
Continuous
 62
     7
370
    15
100
AcDbSpline
210
0.0
220
0.0
230
1.0
 70
     8
 71
     3
 72
    14
 73
    10
 74
     0
 42
0.00000001
 43
0.00000001
 40
0.0
 40
0.0
 40
0.0
 40
0.0
 40
0.1249999999999975
 40
0.1249999999999975
 40
0.249999999999995
 40
0.249999999999995
 40
0.4999999999999953
 40
0.4999999999999953
 40
1.0
 40
1.0
 40
1.0
 40
1.0
 10
87.73399749140172
 20
93.31479537308982
 30
0.0
 10
87.78254190005887
 20
93.32054368637012
 30
0.0
 10
87.83545725484379
 20
93.31744279771388
 30
0.0
 10
87.93075259982683
 20
93.29524795355155
 30
0.0
 10
87.97100359711179
 20
93.27801572645569
 30
0.0
 10
88.07527361062475
 20
93.22168781000363
 30
0.0
 10
88.12559558577809
 20
93.17750146405783
 30
0.0
 10
88.25327853330346
 20
93.04649356520721
 30
0.0
 10
88.30936398036572
 20
92.95625904497692
 30
0.0
 10
88.35571037348747
 20
92.86811351081103
 30
0.0
  0
SPLINE
  5
D3
330
1F
100
AcDbEntity
  8
0
  6
Continuous
 62
     7
370
    15
100
AcDbSpline
210
0.0
220
0.0
230
1.0
 70
     8
 71
     3
 72
     8
 73
     4
 74
     0
 42
0.00000001
 43
0.00000001
 40
0.0
 40
0.0
 40
0.0
 40
0.0
 40
1.0
 40
1.0
 40
1.0
 40
1.0
 10
85.46547239845549
 20
93.00495008650704
 30
0.0
 10
86.20004942493844
 20
93.123575097576
 30
0.0
 10
86.96352449433411
 20
93.22356096971227
 30
0.0
 10
87.73399749140174
 20
93.31479537308981
 30
0.0
  0
SPLINE
  5
D4
330
1F
100
AcDbEntity
  8
0
  6
Continuous
 62
     7
370
    15
100
AcDbSpline
210
0.0
220
0.0
230
1.0
 70
     8
 71
     3
 72
    14
 73
    10
 74
     0
 42
0.00000001
 43
0.00000001
 40
0.0
 40
0.0
 40
0.0
 40
0.0
 40
0.500000000000001
 40
0.500000000000001
 40
0.7500000000000004
 40
0.7500000000000004
 40
0.8750000000000003
 40
0.8750000000000003
 40
1.0
 40
1.0
 40
1.0
 40
1.0
 10
80.18399749140171
 20
92.83132706897538
 30
0.0
 10
81.0761436219553
 20
92.83060484277473
 30
0.0
 10
81.9661200577489
 20
92.8351910492322
 30
0.0
 10
83.2927152248245
 20
92.86291605362374
 30
0.0
 10
83.73356215332322
 20
92.8755225912479
 30
0.0
 10
84.39000239074565
 20
92.90653873925537
 30
0.0
 10
84.60801604733753
 20
92.91888191188214
 30
0.0
 10
85.04072490102031
 20
92.95190596704542
 30
0.0
 10
85.2560013661851
 20
92.97112313218385
 30
0.0
 10
85.4654723984555
 20
93.00495008650704
 30
0.0
  0
SPLINE
  5
D5
330
1F
100
AcDbEntity
  8
0
  6
Continuous
 62
     7
370
    15
100
AcDbSpline
210
0.0
220
0.0
230
1.0
 70
     8
 71
     3
 72
     8
 73
     4
 74
     0
 42
0.00000001
 43
0.00000001
 40
0.0000005163856712
 40
0.0000005163856712
 40
0.0000005163856712
 40
0.0000005163856712
 40
0.000026289209185
 40
0.000026289209185
 40
0.000026289209185
 40
0.000026289209185
 10
80.17395256098303
 20
92.84131094208325
 30
0.0
 10
80.1772802991945
 20
92.83797669521043
 30
0.0
 10
80.1806287521738
 20
92.83464873793142
 30
0.0
 10
80.18399749140168
 20
92.83132706897537
 30
0.0
  0
SPLINE
  5
D6
330
1F
100
AcDbEntity
  8
0
  6
Continuous
 62
     7
370
    15
100
AcDbSpline
210
0.0
220
0.0
230
1.0
 70
     8
 71
     3
 72
     8
 73
     4
 74
     0
 42
0.00000001
 43
0.00000001
 40
0.0000005099763573
 40
0.0000005099763573
 40
0.0000005099763573
 40
0.0000005099763573
 40
0.0000262827998699
 40
0.0000262827998699
 40
0.0000262827998699
 40
0.0000262827998699
 10
80.1839974914017
 20
134.5712025997655
 30
0.0
 10
80.18062875217396
 20
134.5678809308097
 30
0.0
 10
80.17728029919482
 20
134.5645529735308
 30
0.0
 10
80.17395256098351
 20
134.5612187266581
 30
0.0
  0
SPLINE
  5
D7
330
1F
100
AcDbEntity
  8
0
  6
Continuous
 62
     7
370
    15
100
AcDbSpline
210
0.0
220
0.0
230
1.0
 70
     8
 71
     3
 72
    10
 73
     6
 74
     0
 42
0.00000001
 43
0.00000001
 40
0.0
 40
0.0
 40
0.0
 40
0.0
 40
0.5
 40
0.5
 40
1.0
 40
1.0
 40
1.0
 40
1.0
 10
83.73399749140172
 20
134.5243522261982
 30
0.0
 10
83.14641194431113
 20
134.5454177464346
 30
0.0
 10
82.55566555085073
 20
134.5561762323069
 30
0.0
 10
81.37164638555188
 20
134.5695410128425
 30
0.0
 10
80.77823239734643
 20
134.5716836555071
 30
0.0
 10
80.18399749140171
 20
134.5712025997655
 30
0.0
  0
SPLINE
  5
D8
330
1F
100
AcDbEntity
  8
0
  6
Continuous
 62
     7
370
    15
100
AcDbSpline
210
0.0
220
0.0
230
1.0
 70
     8
 71
     3
 72
    18
 73
    14
 74
     0
 42
0.00000001
 43
0.00000001
 40
0.0
 40
0.0
 40
0.0
 40
0.0
 40
0.2500000000000009
 40
0.2500000000000009
 40
0.500000000000001
 40
0.500000000000001
 40
0.7500000000000011
 40
0.7500000000000011
 40
0.875000000000001
 40
0.875000000000001
 40
0.9375000000000006
 40
0.9375000000000006
 40
1.0
 40
1.0
 40
1.0
 40
1.0
 10
85.13399749140173
 20
135.5453725067335
 30
0.0
 10
85.13399749140174
 20
135.4621655978762
 30
0.0
 10
85.09814839146345
 20
135.3734289425627
 30
0.0
 10
84.97327665542953
 20
135.1913037520025
 30
0.0
 10
84.88287623778166
 20
135.0961737033759
 30
0.0
 10
84.66063358303948
 20
134.9069921942515
 30
0.0
 10
84.53086879659372
 20
134.8120470261568
 30
0.0
 10
84.2902313392822
 20
134.6737683185769
 30
0.0
 10
84.20246404114476
 20
134.6280578852745
 30
0.0
 10
84.04793995393796
 20
134.570234580053
 30
0.0
 10
83.9913290678832
 20
134.5525198160151
 30
0.0
 10
83.8672850369766
 20
134.5279805127822
 30
0.0
 10
83.79957036195832
 20
134.522001374244
 30
0.0
 10
83.73399749140171
 20
134.5243522261982
 30
0.0
  0
LINE
  5
D9
330
1F
100
AcDbEntity
  8
0
  6
Continuous
 62
     7
370
    15
100
AcDbLine
 10
85.1339974914
 20
135.5453725067
 30
0.0
 11
85.1339974914
 21
136.7293109266
 31
0.0
  0
SPLINE
  5
DA
330
1F
100
AcDbEntity
  8
0
  6
Continuous
 62
     7
370
    15
100
AcDbSpline
210
0.0
220
0.0
230
1.0
 70
     8
 71
     3
 72
    24
 73
    20
 74
     0
 42
0.00000001
 43
0.00000001
 40
0.0
 40
0.0
 40
0.0
 40
0.0
 40
0.0010489762969682
 40
0.0637843125639766
 40
0.1272220590447888
 40
0.1903788924487598
 40
0.252674865369363
 40
0.3146354154424954
 40
0.377089199714964
 40
0.4393540298504154
 40
0.5008133242537826
 40
0.562184510458698
 40
0.624843845111553
 40
0.6874304766616532
 40
0.7496743174679398
 40
0.8119848426977657
 40
0.8750960525413161
 40
0.9384412526965076
 40
0.9999999999999999
 40
0.9999999999999999
 40
0.9999999999999999
 40
0.9999999999999999
 10
97.70290332337741
 20
90.04375640579032
 30
0.0
 10
97.7024568632732
 20
90.04369811997141
 30
0.0
 10
97.67530929957944
 20
90.0401539780289
 30
0.0
 10
97.77092107719312
 20
90.05298772271163
 30
0.0
 10
98.00448133508752
 20
90.08223440791183
 30
0.0
 10
98.40003564240479
 20
90.12884873097467
 30
0.0
 10
98.92707594624234
 20
90.17903187263401
 30
0.0
 10
99.57060635823214
 20
90.22340833508363
 30
0.0
 10
100.3092802134712
 20
90.25035311602184
 30
0.0
 10
101.1067947189045
 20
90.25382496672863
 30
0.0
 10
101.9333736013472
 20
90.22619772269839
 30
0.0
 10
102.758896618958
 20
90.16771883372505
 30
0.0
 10
103.5510231669592
 20
90.08227380436499
 30
0.0
 10
104.2835954409651
 20
89.98053956452864
 30
0.0
 10
104.9192356776931
 20
89.8726964425557
 30
0.0
 10
105.4411467847026
 20
89.7710662858166
 30
0.0
 10
105.8227755618182
 20
89.68858112913837
 30
0.0
 10
106.0735900320519
 20
89.63243192278874
 30
0.0
 10
106.1027115880362
 20
89.625582464175
 30
0.0
 10
106.1170641088524
 20
89.62220671744683
 30
0.0
  0
SPLINE
  5
DB
330
1F
100
AcDbEntity
  8
0
  6
Continuous
 62
     7
370
    15
100
AcDbSpline
210
0.0
220
0.0
230
1.0
 70
     8
 71
     3
 72
    24
 73
    20
 74
     0
 42
0.00000001
 43
0.00000001
 40
0.0
 40
0.0
 40
0.0
 40
0.0
 40
0.0614384276250176
 40
0.1250736755369651
 40
0.1884253490729237
 40
0.2508623904037427
 40
0.3129665632511172
 40
0.3753451453465143
 40
0.4377328972324873
 40
0.4990927322917189
 40
0.5605807588447405
 40
0.6229469893028771
 40
0.6854686282025979
 40
0.7475477813740068
 40
0.8098225060804932
 40
0.8730684085990272
 40
0.9364041844536292
 40
0.9991757196257863
 40
1.0
 40
1.0
 40
1.0
 40
1.0
 10
106.1170093380495
 20
137.7802938088278
 30
0.0
 10
106.102408613746
 20
137.7769257519753
 30
0.0
 10
106.0726850950181
 20
137.7700692085015
 30
0.0
 10
105.8199472793694
 20
137.7137305879755
 30
0.0
 10
105.4369513629198
 20
137.6308735058455
 30
0.0
 10
104.9145957784827
 20
137.5289664758943
 30
0.0
 10
104.2798113004828
 20
137.4211273368504
 30
0.0
 10
103.5495876963101
 20
137.3196603848753
 30
0.0
 10
102.7591191110761
 20
137.2346006711846
 30
0.0
 10
101.934635596248
 20
137.1763963772983
 30
0.0
 10
101.1075991373645
 20
137.1488129384716
 30
0.0
 10
100.3092748697128
 20
137.1523059159644
 30
0.0
 10
99.56945090542352
 20
137.1792618358176
 30
0.0
 10
98.92519667244842
 20
137.2236157778168
 30
0.0
 10
98.39778941723246
 20
137.2738212275746
 30
0.0
 10
98.00312481508224
 20
137.3204310827731
 30
0.0
 10
97.77059553589395
 20
137.3496266753204
 30
0.0
 10
97.67521550334537
 20
137.3624047442617
 30
0.0
 10
97.7021491402463
 20
137.3588504857539
 30
0.0
 10
97.70249823347065
 20
137.3588044181705
 30
0.0
  0
SPLINE
  5
DC
330
1F
100
AcDbEntity
  8
0
  6
Continuous
 62
     7
370
    15
100
AcDbSpline
210
0.0
220
0.0
230
1.0
 70
     8
 71
     3
 72
     9
 73
     5
 74
     0
 42
0.00000001
 43
0.00000001
 40
0.0
 40
0.0
 40
0.0
 40
0.0
 40
0.7009329310330151
 40
1.0
 40
1.0
 40
1.0
 40
1.0
 10
79.05478217563717
 20
93.99998453026784
 30
0.0
 10
79.06392145231244
 20
93.9821552447263
 30
0.0
 10
79.07696018436606
 20
93.95671873753405
 30
0.0
 10
79.09212543813138
 20
94.01059859772582
 30
0.0
 10
79.0966608661251
 20
94.02671228958972
 30
0.0
  0
LINE
  5
DD
330
1F
100
AcDbEntity
  8
0
  6
Continuous
 62
     7
370
    15
100
AcDbLine
 10
79.0339974914
 20
94.0105870879
 30
0.0
 11
79.0339974914
 21
133.3919425808
 31
0.0
  0
SPLINE
  5
DE
330
1F
100
AcDbEntity
  8
0
  6
Continuous
 62
     7
370
    15
100
AcDbSpline
210
0.0
220
0.0
230
1.0
 70
     8
 71
     3
 72
    10
 73
     6
 74
     0
 42
0.00000001
 43
0.00000001
 40
0.0
 40
0.0
 40
0.0
 40
0.0
 40
0.5
 40
0.5
 40
1.0
 40
1.0
 40
1.0
 40
1.0
 10
79.09666086612513
 20
133.3758173791512
 30
0.0
 10
79.08775657701636
 20
133.4215588983644
 30
0.0
 10
79.07124119682338
 20
133.4387497378334
 30
0.0
 10
79.04413325076176
 20
133.4384264608977
 30
0.0
 10
79.03399749140172
 20
133.4205489186012
 30
0.0
 10
79.03399749140172
 20
133.3919425808486
 30
0.0
  0
SPLINE
  5
DF
330
1F
100
AcDbEntity
  8
0
  6
Continuous
 62
     7
370
    15
100
AcDbSpline
210
0.0
220
0.0
230
1.0
 70
     8
 71
     3
 72
    26
 73
    22
 74
     0
 42
0.00000001
 43
0.00000001
 40
0.0
 40
0.0
 40
0.0
 40
0.0
 40
0.2500000000000165
 40
0.2500000000000165
 40
0.3750000000000256
 40
0.3750000000000256
 40
0.4375000000000291
 40
0.4375000000000291
 40
0.4687500000000291
 40
0.4687500000000291
 40
0.5000000000000292
 40
0.5000000000000292
 40
0.5312500000000293
 40
0.5312500000000293
 40
0.5625000000000293
 40
0.5625000000000293
 40
0.625000000000026
 40
0.625000000000026
 40
0.7500000000000173
 40
0.7500000000000173
 40
1.0
 40
1.0
 40
1.0
 40
1.0
 10
79.85815113750623
 20
134.0913841679683
 30
0.0
 10
79.81955061463776
 20
133.9736094716129
 30
0.0
 10
79.7732536120835
 20
133.8492197854509
 30
0.0
 10
79.67931426364957
 20
133.6440004530974
 30
0.0
 10
79.64400279673612
 20
133.572427586651
 30
0.0
 10
79.57782282099043
 20
133.4564743540506
 30
0.0
 10
79.55328445432222
 20
133.4158898192403
 30
0.0
 10
79.50991170876843
 20
133.3517481373686
 30
0.0
 10
79.49440330734322
 20
133.3298817120835
 30
0.0
 10
79.4593606627562
 20
133.2842874437403
 30
0.0
 10
79.43981037203643
 20
133.2606171527729
 30
0.0
 10
79.39788309166582
 20
133.216000593433
 30
0.0
 10
79.37523098143417
 20
133.195120580915
 30
0.0
 10
79.33425726734755
 20
133.1642471671642
 30
0.0
 10
79.31665796745213
 20
133.1544082973318
 30
0.0
 10
79.27203098159598
 20
133.1354186816357
 30
0.0
 10
79.25147175894264
 20
133.1350943569822
 30
0.0
 10
79.20034631944597
 20
133.1443177978584
 30
0.0
 10
79.17943490645743
 20
133.1655646940754
 30
0.0
 10
79.12798499889651
 20
133.2395335729062
 30
0.0
 10
79.11031969959195
 20
133.3056516662209
 30
0.0
 10
79.09666086612513
 20
133.3758173791512
 30
0.0
  0
SPLINE
  5
E0
330
1F
100
AcDbEntity
  8
0
  6
Continuous
 62
     7
370
    15
100
AcDbSpline
210
0.0
220
0.0
230
1.0
 70
     8
 71
     3
 72
    10
 73
     6
 74
     0
 42
0.00000001
 43
0.00000001
 40
0.0
 40
0.0
 40
0.0
 40
0.0
 40
0.5
 40
0.5
 40
1.0
 40
1.0
 40
1.0
 40
1.0
 10
80.17395256098354
 20
134.5612187266581
 30
0.0
 10
80.10639330606529
 20
134.4935273338484
 30
0.0
 10
80.04275665072878
 20
134.4188201690947
 30
0.0
 10
79.9325358961569
 20
134.2598540366681
 30
0.0
 10
79.88571960293429
 20
134.1754987706601
 30
0.0
 10
79.85815113750621
 20
134.0913841679683
 30
0.0
  0
SPLINE
  5
E1
330
1F
100
AcDbEntity
  8
0
  6
Continuous
 62
     7
370
    15
100
AcDbSpline
210
0.0
220
0.0
230
1.0
 70
     8
 71
     3
 72
    10
 73
     6
 74
     0
 42
0.00000001
 43
0.00000001
 40
0.0
 40
0.0
 40
0.0
 40
0.0
 40
0.5
 40
0.5
 40
1.0
 40
1.0
 40
1.0
 40
1.0
 10
79.85815113750627
 20
93.3111455007725
 30
0.0
 10
79.88562855225948
 20
93.22730870430689
 30
0.0
 10
79.93233718254713
 20
93.14299821672006
 30
0.0
 10
80.04261564528909
 20
92.98387698623719
 30
0.0
 10
80.10650318390073
 20
92.90889224214912
 30
0.0
 10
80.17395256098305
 20
92.84131094208325
 30
0.0
  0
SPLINE
  5
E2
330
1F
100
AcDbEntity
  8
0
  6
Continuous
 62
     7
370
    15
100
AcDbSpline
210
0.0
220
0.0
230
1.0
 70
     8
 71
     3
 72
    24
 73
    20
 74
     0
 42
0.00000001
 43
0.00000001
 40
0.0
 40
0.0
 40
0.0
 40
0.0
 40
0.25
 40
0.25
 40
0.374999999999999
 40
0.374999999999999
 40
0.4374999999999993
 40
0.4374999999999993
 40
0.4687499999999994
 40
0.4687499999999994
 40
0.4999999999999995
 40
0.4999999999999995
 40
0.5624999999999971
 40
0.5624999999999971
 40
0.6249999999999947
 40
0.6249999999999947
 40
0.7499999999999947
 40
0.7499999999999947
 40
1.0
 40
1.0
 40
1.0
 40
1.0
 10
79.09666086612513
 20
94.02671228958972
 30
0.0
 10
79.11041398479534
 20
94.09736234758002
 30
0.0
 10
79.12818655220121
 20
94.16396046034492
 30
0.0
 10
79.18043764375656
 20
94.23805848057813
 30
0.0
 10
79.20147271933814
 20
94.2593162877397
 30
0.0
 10
79.25437312696657
 20
94.26746221388593
 30
0.0
 10
79.27547879984448
 20
94.26652241049015
 30
0.0
 10
79.32153096852245
 20
94.24550641891281
 30
0.0
 10
79.33990144050584
 20
94.2345976128052
 30
0.0
 10
79.38145307557154
 20
94.20196270185782
 30
0.0
 10
79.40401974832847
 20
94.18047072148647
 30
0.0
 10
79.46680076478847
 20
94.11200477790014
 30
0.0
 10
79.49993052575638
 20
94.06593031969506
 30
0.0
 10
79.55684821224138
 20
93.98092243136038
 30
0.0
 10
79.58103423774516
 20
93.940642130179
 30
0.0
 10
79.64624218812492
 20
93.82570590371306
 30
0.0
 10
79.68095824831616
 20
93.75512291856606
 30
0.0
 10
79.77417351864705
 20
93.55091715948745
 30
0.0
 10
79.81984605400771
 20
93.42801877716009
 30
0.0
 10
79.85815113750625
 20
93.31114550077253
 30
0.0
  0
LINE
  5
E3
330
1F
100
AcDbEntity
  8
0
  6
Continuous
 62
     7
370
    15
100
AcDbLine
 10
156.8839974914
 20
91.2012648344
 30
0.0
 11
156.8839974914
 21
136.2012648344
 31
0.0
  0
SPLINE
  5
E4
330
1F
100
AcDbEntity
  8
0
  6
Continuous
 62
     7
370
    15
100
AcDbSpline
210
0.0
220
0.0
230
1.0
 70
     8
 71
     3
 72
    70
 73
    66
 74
     0
 42
0.00000001
 43
0.00000001
 40
-0.03125
 40
-0.03125
 40
0.0
 40
0.0
 40
0.03125
 40
0.03125
 40
0.0625
 40
0.0625
 40
0.09375
 40
0.09375
 40
0.125
 40
0.125
 40
0.15625
 40
0.15625
 40
0.1875
 40
0.1875
 40
0.21875
 40
0.21875
 40
0.25
 40
0.25
 40
0.28125
 40
0.28125
 40
0.3125
 40
0.3125
 40
0.34375
 40
0.34375
 40
0.375
 40
0.375
 40
0.40625
 40
0.40625
 40
0.4375
 40
0.4375
 40
0.46875
 40
0.46875
 40
0.5
 40
0.5
 40
0.53125
 40
0.53125
 40
0.5625
 40
0.5625
 40
0.59375
 40
0.59375
 40
0.625
 40
0.625
 40
0.65625
 40
0.65625
 40
0.6875
 40
0.6875
 40
0.71875
 40
0.71875
 40
0.75
 40
0.75
 40
0.78125
 40
0.78125
 40
0.8125
 40
0.8125
 40
0.84375
 40
0.84375
 40
0.875
 40
0.875
 40
0.90625
 40
0.90625
 40
0.9375
 40
0.9375
 40
0.96875
 40
0.96875
 40
1.0
 40
1.0
 40
1.03125
 40
1.03125
 10
145.3562652418865
 20
115.8648417615082
 30
0.0
 10
145.6945687069215
 20
116.1410628326235
 30
0.0
 10
145.8740894686585
 20
116.2609344289846
 30
0.0
 10
146.2520024903204
 20
116.4676482352136
 30
0.0
 10
146.451808158777
 20
116.5549046280523
 30
0.0
 10
146.8643079032297
 20
116.6937416422674
 30
0.0
 10
147.0742075855057
 20
116.7446683652778
 30
0.0
 10
147.5009982013377
 20
116.8111970261444
 30
0.0
 10
147.7199025090257
 20
116.8266857018712
 30
0.0
 10
148.1540113167446
 20
116.8207610720394
 30
0.0
 10
148.3686444512939
 20
116.7997677214721
 30
0.0
 10
148.7931167627873
 20
116.7220394931979
 30
0.0
 10
149.0050001255205
 20
116.6644627343392
 30
0.0
 10
149.4116962142608
 20
116.5148838254094
 30
0.0
 10
149.6064109453588
 20
116.423430576533
 30
0.0
 10
149.978231120758
 20
116.2063884878431
 30
0.0
 10
150.1572246544372
 20
116.0790393570162
 30
0.0
 10
150.4839488056523
 20
115.7955409788871
 30
0.0
 10
150.6319409508718
 20
115.6399757342189
 30
0.0
 10
150.8955320758872
 20
115.2995872786174
 30
0.0
 10
151.0121559143266
 20
115.1119992548606
 30
0.0
 10
151.1983744171216
 20
114.7220992842208
 30
0.0
 10
151.2693817434244
 20
114.5189863860167
 30
0.0
 10
151.3642346514808
 20
114.0952988542738
 30
0.0
 10
151.3869374918306
 20
113.8757486337335
 30
0.0
 10
151.3804323863838
 20
113.4437526361903
 30
0.0
 10
151.3512973595103
 20
113.2256519170076
 30
0.0
 10
151.2436758783379
 20
112.8037264541039
 30
0.0
 10
151.1663888222115
 20
112.601644178058
 30
0.0
 10
150.9672901722413
 20
112.2142762890562
 30
0.0
 10
150.84631994207
 20
112.0316370630101
 30
0.0
 10
150.5721897443537
 20
111.6970877297836
 30
0.0
 10
150.416338392588
 20
111.542100836749
 30
0.0
 10
150.0808820202409
 20
111.2669272914056
 30
0.0
 10
149.9015977944711
 20
111.1463090262326
 30
0.0
 10
149.5210638036377
 20
110.9371658637615
 30
0.0
 10
149.3198640644998
 20
110.8491960908382
 30
0.0
 10
148.9103131928748
 20
110.7106931060622
 30
0.0
 10
148.7002067218067
 20
110.6591162800256
 30
0.0
 10
148.2692647687983
 20
110.5914369303887
 30
0.0
 10
148.0515414978659
 20
110.5760551472591
 30
0.0
 10
147.6197179755552
 20
110.5814375183758
 30
0.0
 10
147.4043550203594
 20
110.6019901103085
 30
0.0
 10
146.9747729834382
 20
110.6803665141616
 30
0.0
 10
146.7649458283983
 20
110.7375486425053
 30
0.0
 10
146.3604090901118
 20
110.885937813957
 30
0.0
 10
146.1647973491266
 20
110.9772802624617
 30
0.0
 10
145.7879445577774
 20
111.1971464985817
 30
0.0
 10
145.6112752630702
 20
111.3232127149722
 30
0.0
 10
145.2864144976404
 20
111.6047745785501
 30
0.0
 10
145.1373807387952
 20
111.7606939528967
 30
0.0
 10
144.869543247824
 20
112.1068603060189
 30
0.0
 10
144.7558832081519
 20
112.2905733434951
 30
0.0
 10
144.5702648012133
 20
112.6789466520709
 30
0.0
 10
144.4976141558049
 20
112.8866252331938
 30
0.0
 10
144.4030514744407
 20
113.3118029515478
 30
0.0
 10
144.380961633224
 20
113.5267183221541
 30
0.0
 10
144.3876953485699
 20
113.9612547293301
 30
0.0
 10
144.4174326370783
 20
114.1805755638995
 30
0.0
 10
144.5248927309391
 20
114.6002258517288
 30
0.0
 10
144.603733094954
 20
114.8058685882218
 30
0.0
 10
144.8034752243823
 20
115.1927775890309
 30
0.0
 10
144.9231997211186
 20
115.3732170793358
 30
0.0
 10
145.1997987468046
 20
115.7098425261352
 30
0.0
 10
145.3562652418865
 20
115.8648417615082
 30
0.0
 10
145.6945687069215
 20
116.1410628326235
 30
0.0
  0
LINE
  5
E5
330
1F
100
AcDbEntity
  8
0
  6
Continuous
 62
     7
370
    15
100
AcDbLine
 10
145.5254169738
 20
91.3193025696
 30
0.0
 11
145.4493815863
 21
91.3126522467
 31
0.0
  0
SPLINE
  5
E6
330
1F
100
AcDbEntity
  8
0
  6
Continuous
 62
     7
370
    15
100
AcDbSpline
210
0.0
220
0.0
230
1.0
 70
     8
 71
     3
 72
    38
 73
    34
 74
     0
 42
0.00000001
 43
0.00000001
 40
0.0
 40
0.0
 40
0.0
 40
0.0
 40
0.025961431026342
 40
0.0498497943506412
 40
0.0717159278983569
 40
0.1161439718778393
 40
0.1387420493699609
 40
0.1616129899743165
 40
0.2080115409768554
 40
0.2315675705719523
 40
0.2568130416558992
 40
0.3080187861351197
 40
0.3340126560192831
 40
0.3619757020340935
 40
0.4187397887275237
 40
0.4475897790563946
 40
0.4775006765338847
 40
0.507610754329614
 40
0.53834732518174
 40
0.5693004259647735
 40
0.599818973466736
 40
0.6305550766916105
 40
0.6619946964656765
 40
0.6936862926850607
 40
0.7233137838653946
 40
0.7837381014386222
 40
0.8146576117808099
 40
0.8416708402037404
 40
0.8968505224344102
 40
0.9251409634192423
 40
0.948889627416858
 40
0.9973288213276953
 40
1.0
 40
1.0
 40
1.0
 40
1.0
 10
144.3946338404208
 20
91.20256625600791
 30
0.0
 10
144.3926490480688
 20
91.202324426567
 30
0.0
 10
144.3888379526604
 20
91.20186007820791
 30
0.0
 10
144.4288850078662
 20
91.20674419771134
 30
0.0
 10
144.4983989711261
 20
91.2151087693
 30
0.0
 10
144.605305023805
 20
91.22770148200247
 30
0.0
 10
144.7462087922391
 20
91.24355189305747
 30
0.0
 10
144.9121072784335
 20
91.26157387345413
 30
0.0
 10
145.1112578383074
 20
91.28193768767562
 30
0.0
 10
145.3424102333417
 20
91.30355209450468
 30
0.0
 10
145.6033031146577
 20
91.32630099186153
 30
0.0
 10
145.8969171653669
 20
91.34883788989593
 30
0.0
 10
146.2184575020227
 20
91.36949449006312
 30
0.0
 10
146.5699764426587
 20
91.3889542878429
 30
0.0
 10
146.9484558279467
 20
91.40442827960953
 30
0.0
 10
147.3430112717237
 20
91.41429817512238
 30
0.0
 10
147.6501353004637
 20
91.41862930757905
 30
0.0
 10
147.9653114438294
 20
91.41951546635558
 30
0.0
 10
148.28358010581
 20
91.41676239906204
 30
0.0
 10
148.6004862365655
 20
91.41036057023338
 30
0.0
 10
148.912366284676
 20
91.40052549074953
 30
0.0
 10
149.2186174225798
 20
91.3874895763938
 30
0.0
 10
149.5188833968686
 20
91.37145545822328
 30
0.0
 10
149.8032446205166
 20
91.35327614386301
 30
0.0
 10
150.1571421977502
 20
91.32724457066033
 30
0.0
 10
150.4769386801984
 20
91.29930115390596
 30
0.0
 10
150.746333364391
 20
91.27283711245741
 30
0.0
 10
150.974632167624
 20
91.24897974276837
 30
0.0
 10
151.1531599007572
 20
91.22881179471459
 30
0.0
 10
151.275037149356
 20
91.21445048489937
 30
0.0
 10
151.3550151670707
 20
91.20483483294554
 30
0.0
 10
151.3902506503991
 20
91.2004992996236
 30
0.0
 10
151.3832060909695
 20
91.20136169282803
 30
0.0
 10
151.3828379215362
 20
91.201406764038
 30
0.0
  0
LINE
  5
E7
330
1F
100
AcDbEntity
  8
0
  6
Continuous
 62
     7
370
    15
100
AcDbLine
 10
145.5254169734
 20
136.0832270991
 30
0.0
 11
145.6476321919
 21
136.0734653085
 31
0.0
  0
SPLINE
  5
E8
330
1F
100
AcDbEntity
  8
0
  6
Continuous
 62
     7
370
    15
100
AcDbSpline
210
0.0
220
0.0
230
1.0
 70
     8
 71
     3
 72
    37
 73
    33
 74
     0
 42
0.00000001
 43
0.00000001
 40
0.0
 40
0.0
 40
0.0
 40
0.0
 40
0.0280518452031814
 40
0.0518976852759693
 40
0.0737666435336882
 40
0.1181981254430498
 40
0.1407964566095412
 40
0.1637112430508425
 40
0.21019789241126
 40
0.2337981632276093
 40
0.259107949524767
 40
0.3104446026594904
 40
0.3365053181415182
 40
0.3645269433736029
 40
0.4214114492891646
 40
0.4503237149874195
 40
0.4802659791643953
 40
0.5411265088198088
 40
0.5721142978286882
 40
0.602632065472823
 40
0.6333677559839076
 40
0.6648086860239716
 40
0.6965024572390809
 40
0.7260910278637064
 40
0.7864390551571158
 40
0.8173217737225679
 40
0.8442610498563029
 40
0.899289994404188
 40
0.9275029883220942
 40
0.9511890595554711
 40
0.9994973449091408
 40
0.9999999999999999
 40
0.9999999999999999
 40
0.9999999999999999
 40
0.9999999999999999
 10
151.3737047149681
 20
136.2000055997371
 30
0.0
 10
151.3751639795079
 20
136.2001827655931
 30
0.0
 10
151.3778637110682
 20
136.2005105336158
 30
0.0
 10
151.3351318505227
 20
136.1953032379512
 30
0.0
 10
151.2632160791485
 20
136.1866612011002
 30
0.0
 10
151.154207266272
 20
136.1738480553594
 30
0.0
 10
151.011240432406
 20
136.1578121530214
 30
0.0
 10
150.8431974351191
 20
136.1396210076041
 30
0.0
 10
150.6419047122786
 20
136.1191324395207
 30
0.0
 10
150.408660366772
 20
136.0974511367911
 30
0.0
 10
150.145581901703
 20
136.0746723000761
 30
0.0
 10
149.8498301806508
 20
136.0521803310717
 30
0.0
 10
149.526318748432
 20
136.0316536320895
 30
0.0
 10
149.1729451708382
 20
136.0123914747788
 30
0.0
 10
148.7928668815805
 20
135.9972051993161
 30
0.0
 10
148.3970546181483
 20
135.9876986794204
 30
0.0
 10
147.9831837104649
 20
135.9822772774006
 30
0.0
 10
147.5585235709852
 20
135.9840019944663
 30
0.0
 10
147.1386018831199
 20
135.9929338899158
 30
0.0
 10
146.8271795296786
 20
136.0030746899295
 30
0.0
 10
146.5217427069929
 20
136.0163832021185
 30
0.0
 10
146.2225043737357
 20
136.0326511119145
 30
0.0
 10
145.9395079746216
 20
136.0510028982125
 30
0.0
 10
145.5878771479503
 20
136.077168868209
 30
0.0
 10
145.2708235376007
 20
136.1051113465543
 30
0.0
 10
145.0045636998501
 20
136.1314334896107
 30
0.0
 10
144.7796030453933
 20
136.1550626950326
 30
0.0
 10
144.604608025071
 20
136.1749018104315
 30
0.0
 10
144.4860767042928
 20
136.1889004727667
 30
0.0
 10
144.4094558982388
 20
136.1981264570684
 30
0.0
 10
144.376484412012
 20
136.2021841167958
 30
0.0
 10
144.3841573085553
 20
136.2012452803073
 30
0.0
 10
144.384236324048
 20
136.2012356121686
 30
0.0
  0
SPLINE
  5
E9
330
1F
100
AcDbEntity
  8
0
  6
Continuous
 62
     7
370
    15
100
AcDbSpline
210
0.0
220
0.0
230
1.0
 70
     8
 71
     3
 72
     9
 73
     5
 74
     0
 42
0.00000001
 43
0.00000001
 40
0.0
 40
0.0
 40
0.0
 40
0.0
 40
0.3529434880695637
 40
0.9999999999999999
 40
0.9999999999999999
 40
0.9999999999999999
 40
0.9999999999999999
 10
145.2264924744678
 20
136.1100079295644
 30
0.0
 10
145.2594837572581
 20
136.1068669610937
 30
0.0
 10
145.3529584462817
 20
136.0979676087131
 30
0.0
 10
145.4576655561022
 20
136.089018001056
 30
0.0
 10
145.525416973357
 20
136.0832270991422
 30
0.0
  0
CIRCLE
  5
EA
330
1F
100
AcDbEntity
  8
0
  6
Continuous
 62
     7
370
    15
100
AcDbCircle
 10
147.8839974914
 20
113.7012648344
 30
0.0
 40
2.5
  0
SPLINE
  5
EB
330
1F
100
AcDbEntity
  8
0
  6
Continuous
 62
     7
370
    15
100
AcDbSpline
210
0.0
220
0.0
230
1.0
 70
     8
 71
     3
 72
     8
 73
     4
 74
     0
 42
0.00000001
 43
0.00000001
 40
0.0
 40
0.0
 40
0.0
 40
0.0
 40
1.0
 40
1.0
 40
1.0
 40
1.0
 10
132.3259303228908
 20
144.1684603075347
 30
0.0
 10
131.8307902935265
 20
143.2817806593544
 30
0.0
 10
131.3367075882475
 20
142.3945180236685
 30
0.0
 10
130.8439974914017
 20
141.506499025542
 30
0.0
  0
LINE
  5
EC
330
1F
100
AcDbEntity
  8
0
  6
Continuous
 62
     7
370
    15
100
AcDbLine
 10
132.3259303229
 20
138.1599544967
 30
0.0
 11
132.3259303229
 21
144.1684603075
 31
0.0
  0
SPLINE
  5
ED
330
1F
100
AcDbEntity
  8
0
  6
Continuous
 62
     7
370
    15
100
AcDbSpline
210
0.0
220
0.0
230
1.0
 70
     8
 71
     3
 72
     8
 73
     4
 74
     0
 42
0.00000001
 43
0.00000001
 40
0.0
 40
0.0
 40
0.0
 40
0.0
 40
1.0
 40
1.0
 40
1.0
 40
1.0
 10
130.8439974914017
 20
134.7514085019538
 30
0.0
 10
131.3232756419916
 20
135.8924197318064
 30
0.0
 10
131.8188434811315
 20
137.0288041425742
 30
0.0
 10
132.3259303228908
 20
138.1599544967379
 30
0.0
  0
LINE
  5
EE
330
1F
100
AcDbEntity
  8
0
  6
Continuous
 62
     7
370
    15
100
AcDbLine
 10
130.8439974914
 20
134.751408502
 30
0.0
 11
130.8439974914
 21
141.5064990255
 31
0.0
  0
SPLINE
  5
EF
330
1F
100
AcDbEntity
  8
0
  6
Continuous
 62
     7
370
    15
100
AcDbSpline
210
0.0
220
0.0
230
1.0
 70
     8
 71
     3
 72
    10
 73
     6
 74
     0
 42
0.00000001
 43
0.00000001
 40
0.0
 40
0.0
 40
0.0
 40
0.0
 40
0.5
 40
0.5
 40
1.0
 40
1.0
 40
1.0
 40
1.0
 10
136.8839974914017
 20
143.5477051581344
 30
0.0
 10
136.8839974914017
 20
143.7081104244852
 30
0.0
 10
136.8217596602949
 20
143.8671722374737
 30
0.0
 10
136.6026247365523
 20
144.0980847031041
 30
0.0
 10
136.4450360415604
 20
144.1684603075347
 30
0.0
 10
136.2839974914017
 20
144.1684603075347
 30
0.0
  0
SPLINE
  5
F0
330
1F
100
AcDbEntity
  8
0
  6
Continuous
 62
     7
370
    15
100
AcDbSpline
210
0.0
220
0.0
230
1.0
 70
     8
 71
     3
 72
    12
 73
     8
 74
     0
 42
0.00000001
 43
0.00000001
 40
0.0
 40
0.0
 40
0.0
 40
0.0
 40
0.25
 40
0.25
 40
0.5
 40
0.5
 40
1.0
 40
1.0
 40
1.0
 40
1.0
 10
136.2839974914017
 20
138.1599544967379
 30
0.0
 10
136.3751972132274
 20
138.1599544967379
 30
0.0
 10
136.4657922223634
 20
138.13173479815
 30
0.0
 10
136.6192049488101
 20
138.0372917909019
 30
0.0
 10
136.6844138161337
 20
137.9710048141966
 30
0.0
 10
136.8371983454736
 20
137.7453799909083
 30
0.0
 10
136.8839974914017
 20
137.5629537278757
 30
0.0
 10
136.8839974914017
 20
137.3822170956289
 30
0.0
  0
LINE
  5
F1
330
1F
100
AcDbEntity
  8
0
  6
Continuous
 62
     7
370
    15
100
AcDbLine
 10
136.8839974914
 20
137.3822170956
 30
0.0
 11
136.8839974914
 21
143.5477051581
 31
0.0
  0
SPLINE
  5
F2
330
1F
100
AcDbEntity
  8
0
  6
Continuous
 62
     7
370
    15
100
AcDbSpline
210
0.0
220
0.0
230
1.0
 70
     8
 71
     3
 72
     8
 73
     4
 74
     0
 42
0.00000001
 43
0.00000001
 40
0.0
 40
0.0
 40
0.0
 40
0.0
 40
1.0
 40
1.0
 40
1.0
 40
1.0
 10
127.0239974914017
 20
141.5064990255421
 30
0.0
 10
126.531287394556
 20
142.3945180236685
 30
0.0
 10
126.037204689277
 20
143.2817806593544
 30
0.0
 10
125.5420646599127
 20
144.1684603075347
 30
0.0
  0
LINE
  5
F3
330
1F
100
AcDbEntity
  8
0
  6
Continuous
 62
     7
370
    15
100
AcDbLine
 10
127.0239974914
 20
134.751408502
 30
0.0
 11
127.0239974914
 21
141.5064990255
 31
0.0
  0
SPLINE
  5
F4
330
1F
100
AcDbEntity
  8
0
  6
Continuous
 62
     7
370
    15
100
AcDbSpline
210
0.0
220
0.0
230
1.0
 70
     8
 71
     3
 72
     8
 73
     4
 74
     0
 42
0.00000001
 43
0.00000001
 40
0.0
 40
0.0
 40
0.0
 40
0.0
 40
1.0
 40
1.0
 40
1.0
 40
1.0
 10
125.5420646599127
 20
138.1599544967379
 30
0.0
 10
126.049151501672
 20
137.0288041425742
 30
0.0
 10
126.5447193408119
 20
135.8924197318064
 30
0.0
 10
127.0239974914017
 20
134.7514085019538
 30
0.0
  0
LINE
  5
F5
330
1F
100
AcDbEntity
  8
0
  6
Continuous
 62
     7
370
    15
100
AcDbLine
 10
127.0239974914
 20
134.751408502
 30
0.0
 11
127.0239974914
 21
133.8371314658
 31
0.0
  0
LINE
  5
F6
330
1F
100
AcDbEntity
  8
0
  6
Continuous
 62
     7
370
    15
100
AcDbLine
 10
136.2839974914
 20
144.1684603075
 30
0.0
 11
132.3259303229
 21
144.1684603075
 31
0.0
  0
LINE
  5
F7
330
1F
100
AcDbEntity
  8
0
  6
Continuous
 62
     7
370
    15
100
AcDbLine
 10
132.3259303229
 20
138.1599544967
 30
0.0
 11
136.2839974914
 21
138.1599544967
 31
0.0
  0
LINE
  5
F8
330
1F
100
AcDbEntity
  8
0
  6
Continuous
 62
     7
370
    15
100
AcDbLine
 10
130.8439974914
 20
133.8371314658
 30
0.0
 11
130.8439974914
 21
134.751408502
 31
0.0
  0
LINE
  5
F9
330
1F
100
AcDbEntity
  8
0
  6
Continuous
 62
     7
370
    15
100
AcDbLine
 10
136.8839974914
 20
137.3822170956
 30
0.0
 11
136.8839974914
 21
133.5512648344
 31
0.0
  0
ARC
  5
FA
330
1F
100
AcDbEntity
  8
0
  6
Continuous
 62
     7
370
    15
100
AcDbCircle
 10
118.9338377232
 20
132.4068565833
 30
0.0
 40
7.249484423466798
100
AcDbArc
 50
70.8913700801
 51
109.06366314
  0
LINE
  5
FB
330
1F
100
AcDbEntity
  8
0
  6
HIDDEN
 62
     7
370
     0
100
AcDbLine
 10
195.830733198
 20
90.5281095069
 30
0.0
 11
207.5564980014
 21
90.5281095069
 31
0.0
  0
SPLINE
  5
FC
330
1F
100
AcDbEntity
  8
0
  6
HIDDEN
 62
     7
370
     0
100
AcDbSpline
210
0.0
220
0.0
230
1.0
 70
     8
 71
     3
 72
    25
 73
    21
 74
     0
 42
0.00000001
 43
0.00000001
 40
0.0
 40
0.0
 40
0.0
 40
0.0
 40
0.083549766843326
 40
0.1409412749259824
 40
0.2000597966267894
 40
0.2562750153913291
 40
0.3142933583895381
 40
0.3675953482708027
 40
0.4226685848598771
 40
0.4767780436155777
 40
0.5329365488819501
 40
0.5811949077403546
 40
0.6308518892109645
 40
0.6792956141078296
 40
0.729003287475543
 40
0.7801952537384161
 40
0.8327049268328969
 40
0.8870977141115864
 40
0.9429434941824719
 40
1.0
 40
1.0
 40
1.0
 40
1.0
 10
195.8307331979958
 20
93.68301680041564
 30
0.0
 10
195.5335347756312
 20
93.6709303669275
 30
0.0
 10
195.0321865835699
 20
93.65054159255396
 30
0.0
 10
194.3570565264558
 20
93.51172600569699
 30
0.0
 10
193.8158966746183
 20
93.34240692395252
 30
0.0
 10
193.3323980552001
 20
93.12364276903867
 30
0.0
 10
192.9377637765102
 20
92.87507118336174
 30
0.0
 10
192.6318798027609
 20
92.60189909083088
 30
0.0
 10
192.426911020579
 20
92.32011541892852
 30
0.0
 10
192.3245467711904
 20
92.0296804381918
 30
0.0
 10
192.3343471526306
 20
91.75850274122774
 30
0.0
 10
192.4425986261664
 20
91.51131268757915
 30
0.0
 10
192.6291517291288
 20
91.2964136755958
 30
0.0
 10
192.8949419466645
 20
91.10375722198746
 30
0.0
 10
193.2326841940845
 20
90.93603335691292
 30
0.0
 10
193.6417869280089
 20
90.79346447435054
 30
0.0
 10
194.116859109858
 20
90.67808977436235
 30
0.0
 10
194.6491314633376
 20
90.59331447267995
 30
0.0
 10
195.2271879380426
 20
90.53846543094606
 30
0.0
 10
195.6281182977013
 20
90.53158607224671
 30
0.0
 10
195.8307331979958
 20
90.52810950694457
 30
0.0
  0
LINE
  5
FD
330
1F
100
AcDbEntity
  8
0
  6
HIDDEN
 62
     7
370
     0
100
AcDbLine
 10
195.830733198
 20
93.6830168004
 30
0.0
 11
207.5564980014
 21
93.6830168004
 31
0.0
  0
LINE
  5
FE
330
1F
100
AcDbEntity
  8
0
  6
HIDDEN
 62
     7
370
     0
100
AcDbLine
 10
207.5564980014
 20
94.3432311212
 30
0.0
 11
207.5564980014
 21
93.6830168004
 31
0.0
  0
LINE
  5
FF
330
1F
100
AcDbEntity
  8
0
  6
HIDDEN
 62
     7
370
     0
100
AcDbLine
 10
195.830733198
 20
109.8861432201
 30
0.0
 11
207.5564980014
 21
109.8861432201
 31
0.0
  0
SPLINE
  5
100
330
1F
100
AcDbEntity
  8
0
  6
HIDDEN
 62
     7
370
     0
100
AcDbSpline
210
0.0
220
0.0
230
1.0
 70
     8
 71
     3
 72
    18
 73
    14
 74
     0
 42
0.00000001
 43
0.00000001
 40
0.0
 40
0.0
 40
0.0
 40
0.0
 40
0.0838020797575661
 40
0.2002309416099398
 40
0.3143550849976103
 40
0.4226112175208758
 40
0.5235779222650341
 40
0.5374369383783263
 40
0.6352753908905951
 40
0.7336003242293331
 40
0.8375987687631401
 40
0.9480870868454913
 40
1.0
 40
1.0
 40
1.0
 40
1.0
 10
195.8307331979958
 20
116.4433832760047
 30
0.0
 10
195.5338029346765
 20
116.4222880168367
 30
0.0
 10
194.824338129162
 20
116.3718844514485
 30
0.0
 10
193.7843085657382
 20
115.9028340851643
 30
0.0
 10
192.8969815464391
 20
115.0677676576455
 30
0.0
 10
192.3851592864632
 20
114.0168333505375
 30
0.0
 10
192.3105050814419
 20
113.2126176037038
 30
0.0
 10
192.3905587129029
 20
112.4654793408446
 30
0.0
 10
192.6147478845606
 20
111.7416854756639
 30
0.0
 10
193.2482375146337
 20
110.8718854359393
 30
0.0
 10
194.1579697287677
 20
110.2199010497124
 30
0.0
 10
195.0725742224101
 20
109.9200787109961
 30
0.0
 10
195.6470857716037
 20
109.8943633503905
 30
0.0
 10
195.8307331979958
 20
109.8861432200892
 30
0.0
  0
LINE
  5
101
330
1F
100
AcDbEntity
  8
0
  6
HIDDEN
 62
     7
370
     0
100
AcDbLine
 10
195.830733198
 20
116.443383276
 30
0.0
 11
207.5564980014
 21
116.443383276
 31
0.0
  0
LINE
  5
102
330
1F
100
AcDbEntity
  8
0
  6
HIDDEN
 62
     7
370
     0
100
AcDbLine
 10
207.5564980014
 20
117.5163864487
 30
0.0
 11
207.5564980014
 21
116.443383276
 31
0.0
  0
LINE
  5
103
330
1F
100
AcDbEntity
  8
0
  6
HIDDEN
 62
     7
370
     0
100
AcDbLine
 10
195.830733198
 20
133.0592985475
 30
0.0
 11
207.5564980014
 21
133.0592985475
 31
0.0
  0
SPLINE
  5
104
330
1F
100
AcDbEntity
  8
0
  6
HIDDEN
 62
     7
370
     0
100
AcDbSpline
210
0.0
220
0.0
230
1.0
 70
     8
 71
     3
 72
    27
 73
    23
 74
     0
 42
0.00000001
 43
0.00000001
 40
0.0
 40
0.0
 40
0.0
 40
0.0
 40
0.0415353202575732
 40
0.0836864889515958
 40
0.1410663547166864
 40
0.2001728837616717
 40
0.25637669882816
 40
0.3143832723504266
 40
0.3676744495049698
 40
0.4227365140560359
 40
0.4767699092140714
 40
0.5328441891384355
 40
0.5810930590496735
 40
0.6307404536435748
 40
0.6791715536721756
 40
0.7288663582407109
 40
0.7800433281707722
 40
0.8325375882529087
 40
0.886915185259503
 40
0.9427452632827429
 40
0.9712742727541818
 40
1.0
 40
1.0
 40
1.0
 40
1.0
 10
195.8307331979957
 20
136.4616313099595
 30
0.0
 10
195.6832825827245
 20
136.4595743457947
 30
0.0
 10
195.3861950868466
 20
136.4554299186472
 30
0.0
 10
194.8927559348505
 20
136.4176986860196
 30
0.0
 10
194.3569797234437
 20
136.3444299923397
 30
0.0
 10
193.8159163586566
 20
136.2218325708731
 30
0.0
 10
193.3323926950114
 20
136.0569017169229
 30
0.0
 10
192.9377650966377
 20
135.8575287156288
 30
0.0
 10
192.631879458479
 20
135.6229514010298
 30
0.0
 10
192.4269931966275
 20
135.3626441202296
 30
0.0
 10
192.3246511461134
 20
135.0723890142291
 30
0.0
 10
192.3342418177944
 20
134.7780185591889
 30
0.0
 10
192.4421859580682
 20
134.487720660532
 30
0.0
 10
192.6285098195159
 20
134.2165188943465
 30
0.0
 10
192.894083080787
 20
133.9563261570452
 30
0.0
 10
193.2316178161453
 20
133.7151785520676
 30
0.0
 10
193.6405211310945
 20
133.4980001270127
 30
0.0
 10
194.1154317660126
 20
133.3135056330748
 30
0.0
 10
194.6474933453752
 20
133.1710450651793
 30
0.0
 10
195.1271136125081
 20
133.0961601868287
 30
0.0
 10
195.5255930808004
 20
133.0639035389212
 30
0.0
 10
195.7287871119398
 20
133.0608370566252
 30
0.0
 10
195.8307331979957
 20
133.0592985475151
 30
0.0
  0
LINE
  5
105
330
1F
100
AcDbEntity
  8
0
  6
HIDDEN
 62
     7
370
     0
100
AcDbLine
 10
195.830733198
 20
136.46163131
 30
0.0
 11
207.5564980014
 21
136.46163131
 31
0.0
  0
LINE
  5
106
330
1F
100
AcDbEntity
  8
0
  6
HIDDEN
 62
     7
370
     0
100
AcDbLine
 10
207.5564980014
 20
136.8744201618
 30
0.0
 11
207.5564980014
 21
136.46163131
 31
0.0
  0
LINE
  5
107
330
1F
100
AcDbEntity
  8
0
  6
HIDDEN
 62
     7
370
     0
100
AcDbLine
 10
207.5564980014
 20
136.46163131
 30
0.0
 11
207.803373527
 21
135.9359783566
 31
0.0
  0
LINE
  5
108
330
1F
100
AcDbEntity
  8
0
  6
HIDDEN
 62
     7
370
     0
100
AcDbLine
 10
207.803373527
 20
135.9359783566
 30
0.0
 11
208.9446492017
 21
134.0905014742
 31
0.0
  0
LINE
  5
109
330
1F
100
AcDbEntity
  8
0
  6
HIDDEN
 62
     7
370
     0
100
AcDbLine
 10
208.9446492017
 20
134.0905014742
 30
0.0
 11
209.1355208351
 21
133.6783994455
 31
0.0
  0
SPLINE
  5
10A
330
1F
100
AcDbEntity
  8
0
  6
HIDDEN
 62
     7
370
     0
100
AcDbSpline
210
0.0
220
0.0
230
1.0
 70
     8
 71
     3
 72
    10
 73
     6
 74
     0
 42
0.00000001
 43
0.00000001
 40
0.0
 40
0.0
 40
0.0
 40
0.0
 40
0.1217600371992607
 40
0.5602913356226551
 40
1.0
 40
1.0
 40
1.0
 40
1.0
 10
209.1355208350573
 20
133.6783994455249
 30
0.0
 10
209.1454101589453
 20
133.5836295233537
 30
0.0
 10
209.1909169000491
 20
133.147535978283
 30
0.0
 10
209.2223067953724
 20
132.3675817292729
 30
0.0
 10
209.1644753313934
 20
131.6835308847902
 30
0.0
 10
209.1355208350573
 20
131.3410469442571
 30
0.0
  0
LINE
  5
10B
330
1F
100
AcDbEntity
  8
0
  6
HIDDEN
 62
     7
370
     0
100
AcDbLine
 10
208.9446492017
 20
131.4419028708
 30
0.0
 11
209.1355208351
 21
131.3410469443
 31
0.0
  0
LINE
  5
10C
330
1F
100
AcDbEntity
  8
0
  6
HIDDEN
 62
     7
370
     0
100
AcDbLine
 10
207.803373527
 20
132.9306526978
 30
0.0
 11
208.9446492017
 21
131.4419028708
 31
0.0
  0
LINE
  5
10D
330
1F
100
AcDbEntity
  8
0
  6
HIDDEN
 62
     7
370
     0
100
AcDbLine
 10
207.5564980014
 20
133.0592985475
 30
0.0
 11
207.803373527
 21
132.9306526978
 31
0.0
  0
LINE
  5
10E
330
1F
100
AcDbEntity
  8
0
  6
HIDDEN
 62
     7
370
     0
100
AcDbLine
 10
207.5564980014
 20
116.443383276
 30
0.0
 11
207.803373527
 21
116.0691462254
 31
0.0
  0
LINE
  5
10F
330
1F
100
AcDbEntity
  8
0
  6
HIDDEN
 62
     7
370
     0
100
AcDbLine
 10
207.803373527
 20
116.0691462254
 30
0.0
 11
208.9446492017
 21
115.7678613506
 31
0.0
  0
LINE
  5
110
330
1F
100
AcDbEntity
  8
0
  6
HIDDEN
 62
     7
370
     0
100
AcDbLine
 10
208.9446492017
 20
115.7678613506
 30
0.0
 11
209.1355208351
 21
115.4744665417
 31
0.0
  0
SPLINE
  5
111
330
1F
100
AcDbEntity
  8
0
  6
HIDDEN
 62
     7
370
     0
100
AcDbSpline
210
0.0
220
0.0
230
1.0
 70
     8
 71
     3
 72
     9
 73
     5
 74
     0
 42
0.00000001
 43
0.00000001
 40
0.0
 40
0.0
 40
0.0
 40
0.0
 40
0.5000512094883013
 40
1.0
 40
1.0
 40
1.0
 40
1.0
 10
209.1355208350573
 20
115.4744665416895
 30
0.0
 10
209.1687359206109
 20
114.7236016549482
 30
0.0
 10
209.2351592887047
 20
113.2220256713411
 30
0.0
 10
209.1687313851138
 20
111.7204500888197
 30
0.0
 10
209.1355208350573
 20
110.9697391924763
 30
0.0
  0
LINE
  5
112
330
1F
100
AcDbEntity
  8
0
  6
HIDDEN
 62
     7
370
     0
100
AcDbLine
 10
208.9446492017
 20
110.6632763299
 30
0.0
 11
209.1355208351
 21
110.9697391925
 31
0.0
  0
LINE
  5
113
330
1F
100
AcDbEntity
  8
0
  6
HIDDEN
 62
     7
370
     0
100
AcDbLine
 10
207.803373527
 20
110.2770491064
 30
0.0
 11
208.9446492017
 21
110.6632763299
 31
0.0
  0
LINE
  5
114
330
1F
100
AcDbEntity
  8
0
  6
HIDDEN
 62
     7
370
     0
100
AcDbLine
 10
207.5564980014
 20
109.8861432201
 30
0.0
 11
207.803373527
 21
110.2770491064
 31
0.0
  0
LINE
  5
115
330
1F
100
AcDbEntity
  8
0
  6
HIDDEN
 62
     7
370
     0
100
AcDbLine
 10
207.5564980014
 20
93.6830168004
 30
0.0
 11
207.803373527
 21
93.8344327031
 31
0.0
  0
LINE
  5
116
330
1F
100
AcDbEntity
  8
0
  6
HIDDEN
 62
     7
370
     0
100
AcDbLine
 10
207.803373527
 20
93.8344327031
 30
0.0
 11
208.9446492017
 21
95.3786247107
 31
0.0
  0
LINE
  5
117
330
1F
100
AcDbEntity
  8
0
  6
HIDDEN
 62
     7
370
     0
100
AcDbLine
 10
208.9446492017
 20
95.3786247107
 30
0.0
 11
209.1355208351
 21
95.4973319305
 31
0.0
  0
SPLINE
  5
118
330
1F
100
AcDbEntity
  8
0
  6
HIDDEN
 62
     7
370
     0
100
AcDbSpline
210
0.0
220
0.0
230
1.0
 70
     8
 71
     3
 72
     9
 73
     5
 74
     0
 42
0.00000001
 43
0.00000001
 40
0.0
 40
0.0
 40
0.0
 40
0.0
 40
0.5000512094882994
 40
1.0
 40
1.0
 40
1.0
 40
1.0
 10
209.1355208350573
 20
95.49733193053507
 30
0.0
 10
209.1687359206109
 20
95.13606574424463
 30
0.0
 10
209.2351592887047
 20
94.41360736511157
 30
0.0
 10
209.1687313851138
 20
93.69114917895429
 30
0.0
 10
209.1355208350573
 20
93.3299570825897
 30
0.0
  0
LINE
  5
119
330
1F
100
AcDbEntity
  8
0
  6
HIDDEN
 62
     7
370
     0
100
AcDbLine
 10
208.9446492017
 20
92.9226382935
 30
0.0
 11
209.1355208351
 21
93.3299570826
 31
0.0
  0
LINE
  5
11A
330
1F
100
AcDbEntity
  8
0
  6
HIDDEN
 62
     7
370
     0
100
AcDbLine
 10
207.803373527
 20
91.047661243
 30
0.0
 11
208.9446492017
 21
92.9226382935
 31
0.0
  0
LINE
  5
11B
330
1F
100
AcDbEntity
  8
0
  6
HIDDEN
 62
     7
370
     0
100
AcDbLine
 10
207.5564980014
 20
90.5281095069
 30
0.0
 11
207.803373527
 21
91.047661243
 31
0.0
  0
LINE
  5
11C
330
1F
100
AcDbEntity
  8
0
  6
HIDDEN
 62
     7
370
     0
100
AcDbLine
 10
196.8394904917
 20
94.4512648344
 30
0.0
 11
196.8394904917
 21
132.9512648344
 31
0.0
  0
LINE
  5
11D
330
1F
100
AcDbEntity
  8
0
  6
HIDDEN
 62
     7
370
     0
100
AcDbLine
 10
198.9839974914
 20
93.4512648344
 30
0.0
 11
198.9839974914
 21
133.9512648344
 31
0.0
  0
LINE
  5
11E
330
1F
100
AcDbEntity
  8
0
  6
HIDDEN
 62
     7
370
     0
100
AcDbLine
 10
202.9839974914
 20
94.2512648344
 30
0.0
 11
202.9839974914
 21
133.1512648344
 31
0.0
  0
SPLINE
  5
11F
330
1F
100
AcDbEntity
  8
0
  6
HIDDEN
 62
     7
370
     0
100
AcDbSpline
210
0.0
220
0.0
230
1.0
 70
     8
 71
     3
 72
    37
 73
    33
 74
     0
 42
0.00000001
 43
0.00000001
 40
0.0
 40
0.0
 40
0.0
 40
0.0
 40
0.022957279809135
 40
0.1863172595857051
 40
0.3540846544158798
 40
0.4463313580108114
 40
0.4993928418160528
 40
0.5525982477282441
 40
0.6155023401467902
 40
0.6786469047505229
 40
0.7415519161450436
 40
0.7645523912089888
 40
0.7753032844777464
 40
0.7806299190872998
 40
0.7824152229929269
 40
0.7836256160043162
 40
0.7844449034434445
 40
0.7850019396487289
 40
0.785383902695676
 40
0.7857452177380929
 40
0.7859216410364391
 40
0.78605709058025
 40
0.7861500708750837
 40
0.7862434772999269
 40
0.7863538395582281
 40
0.7865414519047212
 40
0.7871273746190373
 40
0.7898245036326359
 40
0.8005282588455518
 40
0.8432812291311135
 40
0.9214070303411475
 40
1.0
 40
1.0
 40
1.0
 40
1.0
 10
204.4339974914017
 20
116.1240703189641
 30
0.0
 10
204.4340950411875
 20
116.2395867470881
 30
0.0
 10
204.434886738153
 20
117.1770978330757
 30
0.0
 10
204.4553892785318
 20
118.9413158183394
 30
0.0
 10
204.5061811843093
 20
120.9544512950012
 30
0.0
 10
204.5558229394248
 20
122.3546626791342
 30
0.0
 10
204.5911086639566
 20
123.2060231280628
 30
0.0
 10
204.6235439806359
 20
123.9069315960871
 30
0.0
 10
204.66068231864
 20
124.6189723498169
 30
0.0
 10
204.7040350206684
 20
125.3315022695053
 30
0.0
 10
204.7428298579289
 20
125.8614564219629
 30
0.0
 10
204.7763634594536
 20
126.189708423265
 30
0.0
 10
204.7946410335611
 20
126.3197437157461
 30
0.0
 10
204.8060104722385
 20
126.3784531696848
 30
0.0
 10
204.8132008750802
 20
126.4055067246818
 30
0.0
 10
204.8172191209528
 20
126.4177986066146
 30
0.0
 10
204.8205476635278
 20
126.4260304063284
 30
0.0
 10
204.8233197547109
 20
126.4315283033567
 30
0.0
 10
204.8258468268046
 20
126.4354733974292
 30
0.0
 10
204.8281028977714
 20
126.4381364644965
 30
0.0
 10
204.8303204973861
 20
126.439829762087
 30
0.0
 10
204.8320112746735
 20
126.4406171126421
 30
0.0
 10
204.8336031026297
 20
126.4409198649421
 30
0.0
 10
204.8351340712805
 20
126.4408320694023
 30
0.0
 10
204.8369428041646
 20
126.4402535392995
 30
0.0
 10
204.8401354194244
 20
126.4381624921859
 30
0.0
 10
204.8478362721938
 20
126.4277446293511
 30
0.0
 10
204.8623511480352
 20
126.3825101256415
 30
0.0
 10
204.8938246780581
 20
126.1975728371935
 30
0.0
 10
204.9339786099339
 20
125.7485387720046
 30
0.0
 10
204.9846286998512
 20
125.0280946440662
 30
0.0
 10
205.0175085566477
 20
124.4109301912631
 30
0.0
 10
205.0339974914017
 20
124.1014281013427
 30
0.0
  0
LINE
  5
120
330
1F
100
AcDbEntity
  8
0
  6
HIDDEN
 62
     7
370
     0
100
AcDbLine
 10
204.4339974914
 20
97.4940851212
 30
0.0
 11
204.4339974914
 21
116.124070319
 31
0.0
  0
SPLINE
  5
121
330
1F
100
AcDbEntity
  8
0
  6
HIDDEN
 62
     7
370
     0
100
AcDbSpline
210
0.0
220
0.0
230
1.0
 70
     8
 71
     3
 72
    34
 73
    30
 74
     0
 42
0.00000001
 43
0.00000001
 40
0.0
 40
0.0
 40
0.0
 40
0.0
 40
0.0524139960691425
 40
0.1227387395669116
 40
0.1934092771634581
 40
0.2035653071447778
 40
0.2086060493458102
 40
0.2102997120269515
 40
0.2114470416537072
 40
0.2122239123993523
 40
0.2127525986948966
 40
0.2131156710358647
 40
0.213471449373086
 40
0.2136261509904334
 40
0.2137826423126008
 40
0.2138717105914466
 40
0.213960855130775
 40
0.2140853383252844
 40
0.2143183174967075
 40
0.2153332913533529
 40
0.2193390822837935
 40
0.2352927866683907
 40
0.2990707317776183
 40
0.3627434601146721
 40
0.4266665814482687
 40
0.5962399042659405
 40
0.7707318400050207
 40
0.884636519822431
 40
1.0
 40
1.0
 40
1.0
 40
1.0
 10
205.0339974914018
 20
107.0811378142565
 30
0.0
 10
205.0231241215221
 20
107.3230903893172
 30
0.0
 10
204.9976617676859
 20
107.8896748195285
 30
0.0
 10
204.9506744875601
 20
108.8098870219122
 30
0.0
 10
204.9129285978038
 20
109.5442929720619
 30
0.0
 10
204.8722340426227
 20
109.9642732078872
 30
0.0
 10
204.8611885113139
 20
110.0467254566207
 30
0.0
 10
204.8541972788037
 20
110.084945983082
 30
0.0
 10
204.850281642298
 20
110.1023622894126
 30
0.0
 10
204.8470370631372
 20
110.1140317022616
 30
0.0
 10
204.8443309078916
 20
110.1218318135586
 30
0.0
 10
204.8418371079608
 20
110.1274780380717
 30
0.0
 10
204.8396206448859
 20
110.131246901068
 30
0.0
 10
204.8373485801927
 20
110.1336897987191
 30
0.0
 10
204.8355947859209
 20
110.1347889357711
 30
0.0
 10
204.8338869514944
 20
110.1350462326539
 30
0.0
 10
204.8323599898608
 20
110.134731566049
 30
0.0
 10
204.8304072667498
 20
110.1335488085104
 30
0.0
 10
204.8259328490654
 20
110.1282632855851
 30
0.0
 10
204.8168857106524
 20
110.1034753148718
 30
0.0
 10
204.7985497404598
 20
110.0018974878534
 30
0.0
 10
204.7603522615117
 20
109.5912460784164
 30
0.0
 10
204.7211040328107
 20
108.8947482709903
 30
0.0
 10
204.6748668102853
 20
107.9824568587509
 30
0.0
 10
204.6116447853314
 20
106.6002109089978
 30
0.0
 10
204.5370850172419
 20
104.7970307205475
 30
0.0
 10
204.4756250854334
 20
102.9993631798655
 30
0.0
 10
204.4405159613899
 20
101.6032734800352
 30
0.0
 10
204.4361795121323
 20
100.9399985367355
 30
0.0
 10
204.4339974914017
 20
100.6062509035042
 30
0.0
  0
LINE
  5
122
330
1F
100
AcDbEntity
  8
0
  6
HIDDEN
 62
     7
370
     0
100
AcDbLine
 10
205.0339974914
 20
117.7640345684
 30
0.0
 11
205.0339974914
 21
107.0811378143
 31
0.0
  0
LINE
  5
123
330
1F
100
AcDbEntity
  8
0
  6
HIDDEN
 62
     7
370
     0
100
AcDbLine
 10
210.2363683025
 20
100.1512648344
 30
0.0
 11
210.2363683025
 21
127.2512648344
 31
0.0
  0
LINE
  5
124
330
1F
100
AcDbEntity
  8
0
  6
HIDDEN
 62
     7
370
     0
100
AcDbLine
 10
204.4339974914
 20
129.1978871896
 30
0.0
 11
204.4339974914
 21
127.8988871456
 31
0.0
  0
LINE
  5
125
330
1F
100
AcDbEntity
  8
0
  6
HIDDEN
 62
     7
370
     0
100
AcDbLine
 10
205.0339974757
 20
129.8110905923
 30
0.0
 11
205.0339974914
 21
124.1014281013
 31
0.0
  0
SPLINE
  5
126
330
1F
100
AcDbEntity
  8
0
  6
HIDDEN
 62
     7
370
     0
100
AcDbSpline
210
0.0
220
0.0
230
1.0
 70
     8
 71
     3
 72
    33
 73
    29
 74
     0
 42
0.00000001
 43
0.00000001
 40
0.0
 40
0.0
 40
0.0
 40
0.0
 40
0.0817700268081655
 40
0.1914822524913371
 40
0.301733944631378
 40
0.3175781638625538
 40
0.3254421249445514
 40
0.3280843742167572
 40
0.3298743002181861
 40
0.3310862807293051
 40
0.3319110736440918
 40
0.3324774955409507
 40
0.3330325382084017
 40
0.3332738851073637
 40
0.3335180240890215
 40
0.3336569777292835
 40
0.333796050341994
 40
0.3339902540838676
 40
0.3343537202292844
 40
0.3359371606426056
 40
0.3421865149535801
 40
0.3670755700748889
 40
0.4665742666210276
 40
0.5659088164548614
 40
0.665633999393579
 40
0.7975645499765869
 40
0.9304105221397332
 40
1.0
 40
1.0
 40
1.0
 40
1.0
 10
205.0339974757426
 20
129.811090592298
 30
0.0
 10
205.0231241122922
 20
129.7522821874896
 30
0.0
 10
204.9976617735
 20
129.6145695529499
 30
0.0
 10
204.9506744857111
 20
129.3276225246613
 30
0.0
 10
204.912928597867
 20
129.0566811632335
 30
0.0
 10
204.8722340426204
 20
128.8871417446832
 30
0.0
 10
204.8611885113137
 20
128.8533466888693
 30
0.0
 10
204.8541972788036
 20
128.8375757270603
 30
0.0
 10
204.8502816422976
 20
128.8303692196769
 30
0.0
 10
204.847037063137
 20
128.8255316574184
 30
0.0
 10
204.8443309078915
 20
128.8222940909537
 30
0.0
 10
204.841837107961
 20
128.8199486024546
 30
0.0
 10
204.8396206448865
 20
128.818381955872
 30
0.0
 10
204.8373485801929
 20
128.8173660866473
 30
0.0
 10
204.8355947859204
 20
128.816908915314
 30
0.0
 10
204.8338869514937
 20
128.8168018880839
 30
0.0
 10
204.8323599898598
 20
128.8169327782637
 30
0.0
 10
204.8304072667489
 20
128.8174247260084
 30
0.0
 10
204.8259328490577
 20
128.8196226696406
 30
0.0
 10
204.8168857108213
 20
128.8299200218292
 30
0.0
 10
204.7985497338557
 20
128.8719127169528
 30
0.0
 10
204.7603525128291
 20
129.0383255908364
 30
0.0
 10
204.721100052292
 20
129.2973915662843
 30
0.0
 10
204.6748810692008
 20
129.5863257526368
 30
0.0
 10
204.629669204182
 20
129.8432337288704
 30
0.0
 10
204.5847894502784
 20
130.0372009429723
 30
0.0
 10
204.547348178636
 20
130.1435542865553
 30
0.0
 10
204.5288051052324
 20
130.1360213513865
 30
0.0
 10
204.5224307138106
 20
130.1334318196366
 30
0.0
  0
SPLINE
  5
127
330
1F
100
AcDbEntity
  8
0
  6
HIDDEN
 62
     7
370
     0
100
AcDbSpline
210
0.0
220
0.0
230
1.0
 70
     8
 71
     3
 72
    13
 73
     9
 74
     0
 42
0.00000001
 43
0.00000001
 40
0.0
 40
0.0
 40
0.0
 40
0.0
 40
0.0098221846599591
 40
0.2835887304973484
 40
0.4612722651839319
 40
0.6395130434473701
 40
0.8194658731815323
 40
1.0
 40
1.0
 40
1.0
 40
1.0
 10
204.5051729026633
 20
130.1340747832758
 30
0.0
 10
204.5047107404568
 20
130.1341136630308
 30
0.0
 10
204.4913670701896
 20
130.1352362096685
 30
0.0
 10
204.4751037705584
 20
130.0487473676039
 30
0.0
 10
204.4558079560221
 20
129.8977073289478
 30
0.0
 10
204.443815770941
 20
129.7138119306624
 30
0.0
 10
204.4356421007383
 20
129.4864957705681
 30
0.0
 10
204.4345462835277
 20
129.2941934145502
 30
0.0
 10
204.4339974914017
 20
129.1978871896016
 30
0.0
  0
ARC
  5
128
330
1F
100
AcDbEntity
  8
0
  6
HIDDEN
 62
     7
370
     0
100
AcDbCircle
 10
195.5779369092
 20
90.7329228665
 30
0.0
 40
3.747490328016637
100
AcDbArc
 50
86.1320332349
 51
126.2936706391
  0
LWPOLYLINE
  5
129
330
1F
100
AcDbEntity
  8
0
  6
HIDDEN
 62
     7
370
     0
100
AcDbPolyline
 90
       10
 70
   128
 43
0.0
 10
195.830733198
 20
95.9606267979
 10
195.169994551
 20
95.9155023935
 10
194.5542841509
 20
95.7832043337
 10
194.0255616439
 20
95.5727485128
 10
193.6198585951
 20
95.2984771471
 10
193.3648229969
 20
94.9790813769
 10
193.2778351038
 20
94.6363274962
 10
193.3648229969
 20
94.2935736155
 10
193.6198585951
 20
93.9741778454
 10
193.6966935852
 20
93.9095007195
  0
LINE
  5
12A
330
1F
100
AcDbEntity
  8
0
  6
HIDDEN
 62
     7
370
     0
100
AcDbLine
 10
195.830733198
 20
94.471876971
 30
0.0
 11
207.803373527
 21
94.471876971
 31
0.0
  0
LWPOLYLINE
  5
12B
330
1F
100
AcDbEntity
  8
0
  6
HIDDEN
 62
     7
370
     0
100
AcDbPolyline
 90
        8
 70
   128
 43
0.0
 10
195.830733198
 20
133.5680969656
 10
195.1374989681
 20
133.6085862226
 10
194.4845529919
 20
133.7277009049
 10
193.909842116
 20
133.9185185004
 10
193.4467664477
 20
134.1699493838
 10
193.1222382616
 20
134.4673813063
 10
192.9551179561
 20
134.7935286055
 10
192.9475852941
 20
134.8266805988
  0
LWPOLYLINE
  5
12C
330
1F
100
AcDbEntity
  8
0
  6
HIDDEN
 62
     7
370
     0
100
AcDbPolyline
 90
       10
 70
   128
 43
0.0
 10
195.830733198
 20
132.023904958
 10
195.169994551
 20
132.0657478119
 10
194.5542841509
 20
132.1884248523
 10
194.0255616439
 20
132.3835758416
 10
193.6198585951
 20
132.6379015623
 10
193.3648229969
 20
132.934070137
 10
193.2778351038
 20
133.2518981666
 10
193.3648229969
 20
133.5697261963
 10
193.6198585951
 20
133.865894771
 10
193.8871471381
 20
134.048092161
  0
LINE
  5
12D
330
1F
100
AcDbEntity
  8
0
  6
HIDDEN
 62
     7
370
     0
100
AcDbLine
 10
195.830733198
 20
133.5680969656
 30
0.0
 11
207.803373527
 21
133.5680969656
 31
0.0
  0
LINE
  5
12E
330
1F
100
AcDbEntity
  8
0
  6
HIDDEN
 62
     7
370
     0
100
AcDbLine
 10
195.830733198
 20
95.9606267979
 30
0.0
 11
208.9446492017
 21
95.9606267979
 31
0.0
  0
LWPOLYLINE
  5
12F
330
1F
100
AcDbEntity
  8
0
  6
HIDDEN
 62
     7
370
     0
100
AcDbPolyline
 90
       10
 70
   128
 43
0.0
 10
195.830733198
 20
96.0614827245
 10
195.1960184576
 20
96.0141431248
 10
194.6127245307
 20
95.8759594984
 10
194.1281064222
 20
95.6581266611
 10
193.7814250092
 20
95.3782921337
 10
193.600766358
 20
95.0591264455
 10
193.600766358
 20
94.7264865022
 10
193.7814250092
 20
94.407320814
 10
194.1281064222
 20
94.1274862866
 10
194.2190370834
 20
94.0762202526
  0
LINE
  5
130
330
1F
100
AcDbEntity
  8
0
  6
HIDDEN
 62
     7
370
     0
100
AcDbLine
 10
195.830733198
 20
96.0614827245
 30
0.0
 11
209.1355208351
 21
96.0614827245
 31
0.0
  0
LINE
  5
131
330
1F
100
AcDbEntity
  8
0
  6
HIDDEN
 62
     7
370
     0
100
AcDbLine
 10
195.830733198
 20
132.023904958
 30
0.0
 11
208.9446492017
 21
132.023904958
 31
0.0
  0
LWPOLYLINE
  5
132
330
1F
100
AcDbEntity
  8
0
  6
HIDDEN
 62
     7
370
     0
100
AcDbPolyline
 90
       10
 70
   128
 43
0.0
 10
195.830733198
 20
131.9051977382
 10
195.1960184576
 20
131.9490946933
 10
194.6127245307
 20
132.0772292883
 10
194.1281064222
 20
132.2792208203
 10
193.7814250092
 20
132.5387051369
 10
193.600766358
 20
132.8346603617
 10
193.600766358
 20
133.1431099627
 10
193.7814250092
 20
133.4390651875
 10
194.1281064222
 20
133.698549504
 10
194.5277026883
 20
133.8729223526
  0
LINE
  5
133
330
1F
100
AcDbEntity
  8
0
  6
HIDDEN
 62
     7
370
     0
100
AcDbLine
 10
195.830733198
 20
131.9051977382
 30
0.0
 11
209.1355208351
 21
131.9051977382
 31
0.0
  0
SPLINE
  5
134
330
1F
100
AcDbEntity
  8
0
  6
HIDDEN
 62
     7
370
     0
100
AcDbSpline
210
0.0
220
0.0
230
1.0
 70
     8
 71
     3
 72
    36
 73
    32
 74
     0
 42
0.00000001
 43
0.00000001
 40
0.0
 40
0.0
 40
0.0
 40
0.0
 40
0.0674476524608097
 40
0.2365638779598651
 40
0.4105795611592887
 40
0.4607714520376841
 40
0.5110851289009911
 40
0.5729734879779083
 40
0.6379556844435089
 40
0.7032034800960583
 40
0.7537499208160404
 40
0.770103540728562
 40
0.7780386283081436
 40
0.7820005864181158
 40
0.7833444638236123
 40
0.78425376998194
 40
0.7848710218818932
 40
0.7852931372849506
 40
0.785656086123944
 40
0.7859102874782319
 40
0.7860298229675118
 40
0.7861302690932039
 40
0.7862314693408029
 40
0.7863378014777903
 40
0.7865123487803991
 40
0.7870336405299404
 40
0.7893906835156429
 40
0.7987386998673496
 40
0.8360660638985125
 40
0.9177648506558962
 40
1.0
 40
1.0
 40
1.0
 40
1.0
 10
204.4339974914017
 20
125.0676330339994
 30
0.0
 10
204.4347962490232
 20
124.832736765063
 30
0.0
 10
204.437597787603
 20
124.0088686203533
 30
0.0
 10
204.4705141734567
 20
122.3817599393276
 30
0.0
 10
204.5242179309907
 20
120.6437794356949
 30
0.0
 10
204.5703348322669
 20
119.3676987757715
 30
0.0
 10
204.5997540157749
 20
118.5979062225209
 30
0.0
 10
204.6344773541468
 20
117.7420337018881
 30
0.0
 10
204.6754897655007
 20
116.7980301540441
 30
0.0
 10
204.7188800511091
 20
115.8979890983903
 30
0.0
 10
204.7558779077735
 20
115.2349259084148
 30
0.0
 10
204.7852548292132
 20
114.8588663557056
 30
0.0
 10
204.8003356402058
 20
114.7171338604944
 30
0.0
 10
204.8100209122199
 20
114.6509807373311
 30
0.0
 10
204.8162159459211
 20
114.6202169421759
 30
0.0
 10
204.8197164779321
 20
114.6061487146532
 30
0.0
 10
204.8226248195781
 20
114.596743416796
 30
0.0
 10
204.825201031032
 20
114.5901385064393
 30
0.0
 10
204.8275910195946
 20
114.5854555373636
 30
0.0
 10
204.8298559241558
 20
114.5824480169646
 30
0.0
 10
204.8317776990873
 20
114.5809778156127
 30
0.0
 10
204.8333262871552
 20
114.5803925906649
 30
0.0
 10
204.8349279636609
 20
114.5804423278016
 30
0.0
 10
204.8367247724464
 20
114.5812462954722
 30
0.0
 10
204.8397203635806
 20
114.5840668049381
 30
0.0
 10
204.8468895025181
 20
114.5979685396694
 30
0.0
 10
204.8604602194144
 20
114.6585077496649
 30
0.0
 10
204.8896465548949
 20
114.9041391265118
 30
0.0
 10
204.9308080222767
 20
115.5498242012062
 30
0.0
 10
204.9822246385935
 20
116.5573301949431
 30
0.0
 10
205.0167022722439
 20
117.3609233727826
 30
0.0
 10
205.0339974914017
 20
117.7640345684451
 30
0.0
  0
LINE
  5
135
330
1F
100
AcDbEntity
  8
0
  6
HIDDEN
 62
     7
370
     0
100
AcDbLine
 10
204.4339974914
 20
126.8614001384
 30
0.0
 11
204.4339974914
 21
125.067633034
 31
0.0
  0
LINE
  5
136
330
1F
100
AcDbEntity
  8
0
  6
HIDDEN
 62
     7
370
     0
100
AcDbLine
 10
204.4339974914
 20
127.8988871456
 30
0.0
 11
204.4339974914
 21
126.8614001384
 31
0.0
  0
LWPOLYLINE
  5
137
330
1F
100
AcDbEntity
  8
0
  6
HIDDEN
 62
     7
370
     0
100
AcDbPolyline
 90
       14
 70
   128
 43
0.0
 10
195.830733198
 20
93.8344327031
 10
195.1374989681
 20
93.7939434462
 10
194.4845529919
 20
93.6748287638
 10
193.909842116
 20
93.4840111684
 10
193.4467664477
 20
93.2325802849
 10
193.1222382616
 20
92.9351483625
 10
192.9551179561
 20
92.6090010633
 10
192.9551179561
 20
92.2730928828
 10
193.1222382616
 20
91.9469455836
 10
193.4467664477
 20
91.6495136612
 10
193.909842116
 20
91.3980827777
 10
194.4845529919
 20
91.2072651823
 10
195.1374989681
 20
91.0881504999
 10
195.830733198
 20
91.047661243
  0
LWPOLYLINE
  5
138
330
1F
100
AcDbEntity
  8
0
  6
HIDDEN
 62
     7
370
     0
100
AcDbPolyline
 90
       13
 70
   128
 43
0.0
 10
195.830733198
 20
95.3786247107
 10
195.169994551
 20
95.3367818568
 10
194.5542841509
 20
95.2141048164
 10
194.0255616439
 20
95.0189538272
 10
193.6198585951
 20
94.7646281064
 10
193.3648229969
 20
94.4684595317
 10
193.2778351038
 20
94.1506315021
 10
193.3648229969
 20
93.8328034724
 10
193.6198585951
 20
93.5366348978
 10
194.0255616439
 20
93.282309177
 10
194.5542841509
 20
93.0871581878
 10
195.169994551
 20
92.9644811474
 10
195.830733198
 20
92.9226382935
  0
LWPOLYLINE
  5
139
330
1F
100
AcDbEntity
  8
0
  6
HIDDEN
 62
     7
370
     0
100
AcDbPolyline
 90
       12
 70
   128
 43
0.0
 10
195.830733198
 20
95.4973319305
 10
195.1960184576
 20
95.4534349755
 10
194.6127245307
 20
95.3253003805
 10
194.1281064222
 20
95.1233088484
 10
193.7814250092
 20
94.8638245319
 10
193.600766358
 20
94.567869307
 10
193.600766358
 20
94.2594197061
 10
193.7814250092
 20
93.9634644812
 10
194.1281064222
 20
93.7039801647
 10
194.6127245307
 20
93.5019886327
 10
195.1960184576
 20
93.3738540377
 10
195.830733198
 20
93.3299570826
  0
LINE
  5
13A
330
1F
100
AcDbEntity
  8
0
  6
HIDDEN
 62
     7
370
     0
100
AcDbLine
 10
195.830733198
 20
92.9226382935
 30
0.0
 11
208.9446492017
 21
92.9226382935
 31
0.0
  0
LINE
  5
13B
330
1F
100
AcDbEntity
  8
0
  6
HIDDEN
 62
     7
370
     0
100
AcDbLine
 10
195.830733198
 20
93.3299570826
 30
0.0
 11
209.1355208351
 21
93.3299570826
 31
0.0
  0
LINE
  5
13C
330
1F
100
AcDbEntity
  8
0
  6
HIDDEN
 62
     7
370
     0
100
AcDbLine
 10
195.830733198
 20
91.047661243
 30
0.0
 11
207.803373527
 21
91.047661243
 31
0.0
  0
LWPOLYLINE
  5
13D
330
1F
100
AcDbEntity
  8
0
  6
HIDDEN
 62
     7
370
     0
100
AcDbPolyline
 90
       14
 70
   128
 43
0.0
 10
195.830733198
 20
135.9359783566
 10
195.1374989681
 20
135.8923137058
 10
194.4845529919
 20
135.7638573841
 10
193.909842116
 20
135.5580748059
 10
193.4467664477
 20
135.2869253068
 10
193.1222382616
 20
134.9661671101
 10
192.9551179561
 20
134.6144415162
 10
192.9551179561
 20
134.2521895382
 10
193.1222382616
 20
133.9004639443
 10
193.4467664477
 20
133.5797057476
 10
193.909842116
 20
133.3085562485
 10
194.4845529919
 20
133.1027736704
 10
195.1374989681
 20
132.9743173486
 10
195.830733198
 20
132.9306526978
  0
LWPOLYLINE
  5
13E
330
1F
100
AcDbEntity
  8
0
  6
HIDDEN
 62
     7
370
     0
100
AcDbPolyline
 90
       13
 70
   128
 43
0.0
 10
195.830733198
 20
134.0905014742
 10
195.169994551
 20
134.0453770698
 10
194.5542841509
 20
133.91307901
 10
194.0255616439
 20
133.7026231891
 10
193.6198585951
 20
133.4283518234
 10
193.3648229969
 20
133.1089560532
 10
193.2778351038
 20
132.7662021725
 10
193.3648229969
 20
132.4234482918
 10
193.6198585951
 20
132.1040525217
 10
194.0255616439
 20
131.829781156
 10
194.5542841509
 20
131.619325335
 10
195.169994551
 20
131.4870272753
 10
195.830733198
 20
131.4419028708
  0
LWPOLYLINE
  5
13F
330
1F
100
AcDbEntity
  8
0
  6
HIDDEN
 62
     7
370
     0
100
AcDbPolyline
 90
       12
 70
   128
 43
0.0
 10
195.830733198
 20
133.6783994455
 10
195.1960184576
 20
133.6310598458
 10
194.6127245307
 20
133.4928762195
 10
194.1281064222
 20
133.2750433821
 10
193.7814250092
 20
132.9952088547
 10
193.600766358
 20
132.6760431665
 10
193.600766358
 20
132.3434032233
 10
193.7814250092
 20
132.024237535
 10
194.1281064222
 20
131.7444030077
 10
194.6127245307
 20
131.5265701703
 10
195.1960184576
 20
131.388386544
 10
195.830733198
 20
131.3410469443
  0
LINE
  5
140
330
1F
100
AcDbEntity
  8
0
  6
HIDDEN
 62
     7
370
     0
100
AcDbLine
 10
195.830733198
 20
134.0905014742
 30
0.0
 11
208.9446492017
 21
134.0905014742
 31
0.0
  0
LINE
  5
141
330
1F
100
AcDbEntity
  8
0
  6
HIDDEN
 62
     7
370
     0
100
AcDbLine
 10
195.830733198
 20
133.6783994455
 30
0.0
 11
209.1355208351
 21
133.6783994455
 31
0.0
  0
LINE
  5
142
330
1F
100
AcDbEntity
  8
0
  6
HIDDEN
 62
     7
370
     0
100
AcDbLine
 10
195.830733198
 20
135.9359783566
 30
0.0
 11
207.803373527
 21
135.9359783566
 31
0.0
  0
LINE
  5
143
330
1F
100
AcDbEntity
  8
0
  6
HIDDEN
 62
     7
370
     0
100
AcDbLine
 10
195.830733198
 20
95.3786247107
 30
0.0
 11
208.9446492017
 21
95.3786247107
 31
0.0
  0
LINE
  5
144
330
1F
100
AcDbEntity
  8
0
  6
HIDDEN
 62
     7
370
     0
100
AcDbLine
 10
195.830733198
 20
95.4973319305
 30
0.0
 11
209.1355208351
 21
95.4973319305
 31
0.0
  0
LINE
  5
145
330
1F
100
AcDbEntity
  8
0
  6
HIDDEN
 62
     7
370
     0
100
AcDbLine
 10
195.830733198
 20
93.8344327031
 30
0.0
 11
207.803373527
 21
93.8344327031
 31
0.0
  0
LINE
  5
146
330
1F
100
AcDbEntity
  8
0
  6
HIDDEN
 62
     7
370
     0
100
AcDbLine
 10
195.830733198
 20
131.4419028708
 30
0.0
 11
208.9446492017
 21
131.4419028708
 31
0.0
  0
LINE
  5
147
330
1F
100
AcDbEntity
  8
0
  6
HIDDEN
 62
     7
370
     0
100
AcDbLine
 10
195.830733198
 20
131.3410469443
 30
0.0
 11
209.1355208351
 21
131.3410469443
 31
0.0
  0
LINE
  5
148
330
1F
100
AcDbEntity
  8
0
  6
HIDDEN
 62
     7
370
     0
100
AcDbLine
 10
195.830733198
 20
132.9306526978
 30
0.0
 11
207.803373527
 21
132.9306526978
 31
0.0
  0
ARC
  5
149
330
1F
100
AcDbEntity
  8
0
  6
HIDDEN
 62
     7
370
     0
100
AcDbCircle
 10
195.8303259808
 20
113.2221028671
 30
0.0
 40
2.252363711418111
100
AcDbArc
 50
89.9896411822
 51
270.0103588178
  0
ARC
  5
14A
330
1F
100
AcDbEntity
  8
0
  6
HIDDEN
 62
     7
370
     0
100
AcDbCircle
 10
195.8302459195
 20
113.2155688403
 30
0.0
 40
2.552292556836855
100
AcDbArc
 50
89.9890612068
 51
270.0109387932
  0
ARC
  5
14B
330
1F
100
AcDbEntity
  8
0
  6
HIDDEN
 62
     7
370
     0
100
AcDbCircle
 10
195.8302021068
 20
113.1730976659
 30
0.0
 40
2.896048608207594
100
AcDbArc
 50
89.9894928267
 51
270.0105071733
  0
LINE
  5
14C
330
1F
100
AcDbEntity
  8
0
  6
HIDDEN
 62
     7
370
     0
100
AcDbLine
 10
195.830733198
 20
110.9697391925
 30
0.0
 11
209.1355208351
 21
110.9697391925
 31
0.0
  0
LINE
  5
14D
330
1F
100
AcDbEntity
  8
0
  6
HIDDEN
 62
     7
370
     0
100
AcDbLine
 10
195.830733198
 20
115.4744665417
 30
0.0
 11
209.1355208351
 21
115.4744665417
 31
0.0
  0
LINE
  5
14E
330
1F
100
AcDbEntity
  8
0
  6
HIDDEN
 62
     7
370
     0
100
AcDbLine
 10
195.830733198
 20
110.6632763299
 30
0.0
 11
208.9446492017
 21
110.6632763299
 31
0.0
  0
LINE
  5
14F
330
1F
100
AcDbEntity
  8
0
  6
HIDDEN
 62
     7
370
     0
100
AcDbLine
 10
195.830733198
 20
115.7678613506
 30
0.0
 11
208.9446492017
 21
115.7678613506
 31
0.0
  0
LINE
  5
150
330
1F
100
AcDbEntity
  8
0
  6
HIDDEN
 62
     7
370
     0
100
AcDbLine
 10
195.830733198
 20
110.2770491064
 30
0.0
 11
207.803373527
 21
110.2770491064
 31
0.0
  0
LINE
  5
151
330
1F
100
AcDbEntity
  8
0
  6
HIDDEN
 62
     7
370
     0
100
AcDbLine
 10
195.830733198
 20
116.0691462254
 30
0.0
 11
207.803373527
 21
116.0691462254
 31
0.0
  0
LINE
  5
152
330
1F
100
AcDbEntity
  8
0
  6
HIDDEN
 62
     7
370
     0
100
AcDbLine
 10
125.5420646599
 20
138.1599544967
 30
0.0
 11
125.5420646599
 21
133.5512648344
 31
0.0
  0
ARC
  5
153
330
1F
100
AcDbEntity
  8
0
  6
HIDDEN
 62
     7
370
     0
100
AcDbCircle
 10
119.2332519062
 20
126.1818432895
 30
0.0
 40
3.662908705035578
100
AcDbArc
 50
265.3137935365
 51
12.7424919244
  0
ARC
  5
154
330
1F
100
AcDbEntity
  8
0
  6
HIDDEN
 62
     7
370
     0
100
AcDbCircle
 10
118.6317373941
 20
126.1747662598
 30
0.0
 40
3.656102639917268
100
AcDbArc
 50
165.7266080072
 51
274.7422127463
  0
LINE
  5
155
330
1F
100
AcDbEntity
  8
0
  6
HIDDEN
 62
     7
370
     0
100
AcDbLine
 10
98.929147696
 20
90.1766652115
 30
0.0
 11
98.6802828772
 21
90.153402245
 31
0.0
  0
LINE
  5
156
330
1F
100
AcDbEntity
  8
0
  6
HIDDEN
 62
     7
370
     0
100
AcDbLine
 10
98.547722116
 20
137.2613511626
 30
0.0
 11
98.9290549757
 21
137.2258478644
 31
0.0
  0
LINE
  5
157
330
1F
100
AcDbEntity
  8
0
  6
HIDDEN
 62
     7
370
     0
100
AcDbLine
 10
197.1839974914
 20
113.7012648344
 30
0.0
 11
197.1839974914
 21
93.7012648344
 31
0.0
  0
LINE
  5
158
330
1F
100
AcDbEntity
  8
0
  6
HIDDEN
 62
     7
370
     0
100
AcDbLine
 10
197.1839974914
 20
133.7012648344
 30
0.0
 11
197.1839974914
 21
113.7012648344
 31
0.0
  0
LINE
  5
159
330
1F
100
AcDbEntity
  8
0
  6
HIDDEN
 62
     7
370
     0
100
AcDbLine
 10
197.9339974914
 20
113.7012648344
 30
0.0
 11
197.9339974914
 21
94.4512648344
 31
0.0
  0
LINE
  5
15A
330
1F
100
AcDbEntity
  8
0
  6
HIDDEN
 62
     7
370
     0
100
AcDbLine
 10
197.9339974914
 20
132.9512648344
 30
0.0
 11
197.9339974914
 21
113.7012648344
 31
0.0
  0
SPLINE
  5
15B
330
1F
100
AcDbEntity
  8
0
  6
HIDDEN
 62
     7
370
     0
100
AcDbSpline
210
0.0
220
0.0
230
1.0
 70
     8
 71
     3
 72
    32
 73
    28
 74
     0
 42
0.00000001
 43
0.00000001
 40
0.0
 40
0.0
 40
0.0
 40
0.0
 40
0.0346246159901393
 40
0.0694870388940023
 40
0.105100760954932
 40
0.1409753874086758
 40
0.1756005721189328
 40
0.210469240812561
 40
0.2461122854708169
 40
0.2820258067991321
 40
0.3162663828049037
 40
0.3859338563640312
 40
0.4214461814158482
 40
0.4553763558770598
 40
0.5243713305904967
 40
0.5595124638219118
 40
0.593798734303577
 40
0.6635059787021123
 40
0.6990055363805018
 40
0.7337623601246063
 40
0.7687606633024604
 40
0.8045245907686109
 40
0.8405553812432468
 40
0.875170121130555
 40
0.9456085132854553
 40
0.9815233266320907
 40
1.0
 40
1.0
 40
1.0
 40
1.0
 10
104.6889994930033
 20
93.863736358554
 30
0.0
 10
104.6170011911569
 20
93.87352430146231
 30
0.0
 10
104.4725100926237
 20
93.89316741229875
 30
0.0
 10
104.2311901583653
 20
93.92261663092047
 30
0.0
 10
103.9718919073796
 20
93.95116701301089
 30
0.0
 10
103.697904488247
 20
93.97759823196571
 30
0.0
 10
103.4132767072255
 20
94.00105070931703
 30
0.0
 10
103.1186917482573
 20
94.02104816577564
 30
0.0
 10
102.811760839289
 20
94.03720384427939
 30
0.0
 10
102.5000293735365
 20
94.04864583197487
 30
0.0
 10
102.0827638248511
 20
94.05733695967272
 30
0.0
 10
101.6621208314936
 20
94.05604890321253
 30
0.0
 10
101.2487172783281
 20
94.04482109184505
 30
0.0
 10
100.8438733152608
 20
94.02752281976417
 30
0.0
 10
100.4532352306986
 20
94.00180717599596
 30
0.0
 10
100.0844541526574
 20
93.96971386509904
 30
0.0
 10
99.73103637040894
 20
93.9341556565966
 30
0.0
 10
99.40559528008805
 20
93.894907200261
 30
0.0
 10
99.1162180743707
 20
93.85527568288866
 30
0.0
 10
98.9183041973954
 20
93.82613993974643
 30
0.0
 10
98.7409772333579
 20
93.79840570743367
 30
0.0
 10
98.58436790484538
 20
93.77262516317928
 30
0.0
 10
98.45272038514268
 20
93.7500185264451
 30
0.0
 10
98.31085918957098
 20
93.72483248113845
 30
0.0
 10
98.22204060175534
 20
93.70838693201483
 30
0.0
 10
98.18521766320494
 20
93.70149410119866
 30
0.0
 10
98.18663381037813
 20
93.70175908710786
 30
0.0
 10
98.1871148725873
 20
93.70184910226256
 30
0.0
  0
SPLINE
  5
15C
330
1F
100
AcDbEntity
  8
0
  6
HIDDEN
 62
     7
370
     0
100
AcDbSpline
210
0.0
220
0.0
230
1.0
 70
     8
 71
     3
 72
    30
 73
    26
 74
     0
 42
0.00000001
 43
0.00000001
 40
0.0
 40
0.0
 40
0.0
 40
0.0
 40
0.0156161600804337
 40
0.0849748372628082
 40
0.1203204532886746
 40
0.15431851909124
 40
0.2234436946574013
 40
0.2586467089786606
 40
0.2931107206687011
 40
0.3631864361325603
 40
0.3988795186727328
 40
0.4336750628309723
 40
0.4687145712104809
 40
0.5045294144990544
 40
0.5406151111978532
 40
0.5750767863722916
 40
0.6452033649630275
 40
0.6809575734718859
 40
0.7149323277721685
 40
0.784033058295527
 40
0.8192378401372485
 40
0.8533347063218409
 40
0.9226550151093995
 40
0.9579547149334489
 40
1.0
 40
1.0
 40
1.0
 40
1.0
 10
98.1871148725873
 20
133.7006805664784
 30
0.0
 10
98.1865171335022
 20
133.70079281936
 30
0.0
 10
98.18326455532555
 20
133.7014036398373
 30
0.0
 10
98.23358545777388
 20
133.6919445053802
 30
0.0
 10
98.33389048681518
 20
133.6736396692841
 30
0.0
 10
98.46850747488486
 20
133.6496563639103
 30
0.0
 10
98.65056611991493
 20
133.6185575697638
 30
0.0
 10
98.8774886935802
 20
133.5826384257215
 30
0.0
 10
99.13407509895758
 20
133.5443194045824
 30
0.0
 10
99.43211175743028
 20
133.5040742692742
 30
0.0
 10
99.76466101143001
 20
133.4654132458718
 30
0.0
 10
100.0298587168343
 20
133.4380105871406
 30
0.0
 10
100.3089165420932
 20
133.4129657505284
 30
0.0
 10
100.6033675579874
 20
133.3907980532328
 30
0.0
 10
100.9062324913037
 20
133.3726359659629
 30
0.0
 10
101.3166184781724
 20
133.3543778609685
 30
0.0
 10
101.7374593171272
 20
133.3455306269641
 30
0.0
 10
102.1573632343562
 20
133.3469960214052
 30
0.0
 10
102.5719777552099
 20
133.3550394145726
 30
0.0
 10
102.9781988746857
 20
133.3725462001718
 30
0.0
 10
103.3677293744077
 20
133.3981115131997
 30
0.0
 10
103.744550075646
 20
133.4282957489139
 30
0.0
 10
104.09768723535
 20
133.4641933237613
 30
0.0
 10
104.4394387231716
 20
133.5050116016199
 30
0.0
 10
104.6011124841812
 20
133.5268965151864
 30
0.0
 10
104.6889994930033
 20
133.5387933101869
 30
0.0
  0
SPLINE
  5
15D
330
1F
100
AcDbEntity
  8
0
  6
HIDDEN
 62
     7
370
     0
100
AcDbSpline
210
0.0
220
0.0
230
1.0
 70
     8
 71
     3
 72
    15
 73
    11
 74
     0
 42
0.00000001
 43
0.00000001
 40
0.0
 40
0.0
 40
0.0
 40
0.0
 40
0.1100490805235397
 40
0.2208721917327207
 40
0.3341227911673595
 40
0.4482077753497716
 40
0.5582798144726866
 40
0.782130094010282
 40
0.8961689293868764
 40
1.0
 40
1.0
 40
1.0
 40
1.0
 10
104.6889994930033
 20
133.5387933101869
 30
0.0
 10
104.7565934788646
 20
133.5478615642396
 30
0.0
 10
104.8922568731802
 20
133.5660618539493
 30
0.0
 10
105.0727023069443
 20
133.5867829098642
 30
0.0
 10
105.234851045956
 20
133.6035225929186
 30
0.0
 10
105.3729023252743
 20
133.6161047133608
 30
0.0
 10
105.5245423952878
 20
133.6284834714859
 30
0.0
 10
105.6259920638554
 20
133.6354410158026
 30
0.0
 10
105.6774213312004
 20
133.6387386506586
 30
0.0
 10
105.6813765300557
 20
133.6389839710915
 30
0.0
 10
105.6832614738701
 20
133.6391008843617
 30
0.0
  0
SPLINE
  5
15E
330
1F
100
AcDbEntity
  8
0
  6
HIDDEN
 62
     7
370
     0
100
AcDbSpline
210
0.0
220
0.0
230
1.0
 70
     8
 71
     3
 72
    17
 73
    13
 74
     0
 42
0.00000001
 43
0.00000001
 40
0.0
 40
0.0
 40
0.0
 40
0.0
 40
0.0067987047815482
 40
0.118160628309646
 40
0.231936990417469
 40
0.3465482186491267
 40
0.4572859974803491
 40
0.5687963664610285
 40
0.6827512456923212
 40
0.7975558950347377
 40
0.8984802718462506
 40
0.9999999999999999
 40
0.9999999999999999
 40
0.9999999999999999
 40
0.9999999999999999
 10
105.6832607204334
 20
93.7634288319756
 30
0.0
 10
105.6835039595905
 20
93.76341347103977
 30
0.0
 10
105.6877314253445
 20
93.76314649991956
 30
0.0
 10
105.6718059513236
 20
93.76414372256355
 30
0.0
 10
105.6327986015446
 20
93.76665973875551
 30
0.0
 10
105.5643441724784
 20
93.77135749258507
 30
0.0
 10
105.4715927980369
 20
93.77830732180692
 30
0.0
 10
105.3543010672253
 20
93.7880368163956
 30
0.0
 10
105.2114644688538
 20
93.80128382056738
 30
0.0
 10
105.0499150668335
 20
93.81827090980279
 30
0.0
 10
104.8761117287024
 20
93.83856355008643
 30
0.0
 10
104.7514923991741
 20
93.85532898769586
 30
0.0
 10
104.6889994930033
 20
93.863736358554
 30
0.0
  0
LINE
  5
15F
330
1F
100
AcDbEntity
  8
0
  6
HIDDEN
 62
     7
370
     0
100
AcDbLine
 10
91.9379720876
 20
96.7012648344
 30
0.0
 11
91.9379720876
 21
130.7012648344
 31
0.0
  0
LWPOLYLINE
  5
160
330
1F
100
AcDbEntity
  8
0
  6
HIDDEN
 62
     7
370
     0
100
AcDbPolyline
 90
       14
 70
   128
 43
0.0
 10
118.9339974914
 20
135.646867249
 10
119.7391915718
 20
135.6878073665
 10
120.5114209119
 20
135.8089516258
 10
121.2190703518
 20
136.0053403666
 10
121.8331686403
 20
136.2689334109
 10
122.3285745214
 20
136.5889392284
 10
122.68500602
 20
136.9522567433
 10
122.8878707887
 20
137.344011694
 10
122.9288635201
 20
137.7481655867
 10
122.8063059669
 20
138.1481723135
 10
122.5252156497
 20
138.5276555521
 10
122.0971004392
 20
138.8710792141
 10
121.5394874223
 20
139.1643834944
 10
121.3070305677
 20
139.2568916292
  0
LWPOLYLINE
  5
161
330
1F
100
AcDbEntity
  8
0
  6
HIDDEN
 62
     7
370
     0
100
AcDbPolyline
 90
       14
 70
   128
 43
0.0
 10
116.5660216424
 20
139.2587520447
 10
116.3285075605
 20
139.1643834944
 10
115.7708945437
 20
138.8710792141
 10
115.3427793331
 20
138.5276555521
 10
115.0616890159
 20
138.1481723135
 10
114.9391314627
 20
137.7481655867
 10
114.9801241941
 20
137.344011694
 10
115.1829889628
 20
136.9522567433
 10
115.5394204614
 20
136.5889392284
 10
116.0348263425
 20
136.2689334109
 10
116.648924631
 20
136.0053403666
 10
117.3565740709
 20
135.8089516258
 10
118.128803411
 20
135.6878073665
 10
118.9339974914
 20
135.646867249
  0
SPLINE
  5
162
330
1F
100
AcDbEntity
  8
0
  6
HIDDEN
 62
     7
370
     0
100
AcDbSpline
210
0.0
220
0.0
230
1.0
 70
     8
 71
     3
 72
    11
 73
     7
 74
     0
 42
0.00000001
 43
0.00000001
 40
0.0
 40
0.0
 40
0.0
 40
0.0
 40
0.0005779865010845
 40
0.0005779865010845
 40
0.0005779865010845
 40
0.0011559733324421
 40
0.0011559733324421
 40
0.0011559733324421
 40
0.0011559733324421
 10
79.03399749140173
 20
115.7011054425243
 30
0.0
 10
79.20066474620769
 20
115.6991218031833
 30
0.0
 10
79.36733117588535
 20
115.6970841961807
 30
0.0
 10
79.53399751433717
 20
115.6949727327743
 30
0.0
 10
79.70066394316358
 20
115.692861268223
 30
0.0
 10
79.86733031680129
 20
115.6906757050666
 30
0.0
 10
80.03399749140172
 20
115.688393127735
 30
0.0
  0
SPLINE
  5
163
330
1F
100
AcDbEntity
  8
0
  6
HIDDEN
 62
     7
370
     0
100
AcDbSpline
210
0.0
220
0.0
230
1.0
 70
     8
 71
     3
 72
     8
 73
     4
 74
     0
 42
0.00000001
 43
0.00000001
 40
0.0
 40
0.0
 40
0.0
 40
0.0
 40
0.0011564765856722
 40
0.0011564765856722
 40
0.0011564765856722
 40
0.0011564765856722
 10
80.03399749140172
 20
111.7045645321542
 30
0.0
 10
79.70068956083287
 20
111.7036893765709
 30
0.0
 10
79.36735432844067
 20
111.7026345253194
 30
0.0
 10
79.03399749140172
 20
111.7014634382818
 30
0.0
  0
LINE
  5
164
330
1F
100
AcDbEntity
  8
0
  6
HIDDEN
 62
     7
370
     0
100
AcDbLine
 10
118.5938234599
 20
96.7012648344
 30
0.0
 11
118.5938234599
 21
130.7012648344
 31
0.0
  0
LINE
  5
165
330
1F
100
AcDbEntity
  8
0
  6
HIDDEN
 62
     7
370
     0
100
AcDbLine
 10
120.8839974914
 20
97.9762648344
 30
0.0
 11
120.8839974914
 21
129.4262648243
 31
0.0
  0
SPLINE
  5
166
330
1F
100
AcDbEntity
  8
0
  6
HIDDEN
 62
     7
370
     0
100
AcDbSpline
210
0.0
220
0.0
230
1.0
 70
     8
 71
     3
 72
    16
 73
    12
 74
     0
 42
0.00000001
 43
0.00000001
 40
0.0
 40
0.0
 40
0.0
 40
0.0
 40
0.124999999999998
 40
0.124999999999998
 40
0.249999999999996
 40
0.249999999999996
 40
0.4999999999999973
 40
0.4999999999999973
 40
0.7499999999999987
 40
0.7499999999999987
 40
1.0
 40
1.0
 40
1.0
 40
1.0
 10
87.73399749140172
 20
97.8997743983388
 30
0.0
 10
87.82911924606753
 20
97.8997743983388
 30
0.0
 10
87.92244931479561
 20
97.895958564946
 30
0.0
 10
88.10571107553362
 20
97.88118801221619
 30
0.0
 10
88.19658879109063
 20
97.8700299642406
 30
0.0
 10
88.45339048861037
 20
97.82755869409888
 30
0.0
 10
88.60845785348236
 20
97.78651249689608
 30
0.0
 10
88.86220431503698
 20
97.6913663803142
 30
0.0
 10
88.96307476670484
 20
97.63660364623262
 30
0.0
 10
89.09832118139968
 20
97.52534252232876
 30
0.0
 10
89.13399749140171
 20
97.46817278500005
 30
0.0
 10
89.13399749140171
 20
97.41375121196633
 30
0.0
  0
SPLINE
  5
167
330
1F
100
AcDbEntity
  8
0
  6
HIDDEN
 62
     7
370
     0
100
AcDbSpline
210
0.0
220
0.0
230
1.0
 70
     8
 71
     3
 72
     8
 73
     4
 74
     0
 42
0.00000001
 43
0.00000001
 40
0.0
 40
0.0
 40
0.0
 40
0.0
 40
1.0
 40
1.0
 40
1.0
 40
1.0
 10
80.3339974947167
 20
100.044577344421
 30
0.0
 10
80.33399749471864
 20
99.16068020210412
 30
0.0
 10
80.32051686880882
 20
98.44609695704216
 30
0.0
 10
80.31916550061952
 20
97.8997743983388
 30
0.0
  0
LINE
  5
168
330
1F
100
AcDbEntity
  8
0
  6
HIDDEN
 62
     7
370
     0
100
AcDbLine
 10
80.0339974914
 20
104.100438042
 30
0.0
 11
80.0339974914
 21
101.0694876101
 31
0.0
  0
SPLINE
  5
169
330
1F
100
AcDbEntity
  8
0
  6
HIDDEN
 62
     7
370
     0
100
AcDbSpline
210
0.0
220
0.0
230
1.0
 70
     8
 71
     3
 72
    10
 73
     6
 74
     0
 42
0.00000001
 43
0.00000001
 40
0.0
 40
0.0
 40
0.0
 40
0.0
 40
0.5
 40
0.5
 40
1.0
 40
1.0
 40
1.0
 40
1.0
 10
80.33399749458931
 20
105.4682784587276
 30
0.0
 10
80.3339974945893
 20
105.2262944911209
 30
0.0
 10
80.30584746551872
 20
104.9919520621559
 30
0.0
 10
80.20225755137636
 20
104.5365770398782
 30
0.0
 10
80.1256288417849
 20
104.3149724767709
 30
0.0
 10
80.03399749140172
 20
104.100438041973
 30
0.0
  0
LINE
  5
16A
330
1F
100
AcDbEntity
  8
0
  6
HIDDEN
 62
     7
370
     0
100
AcDbLine
 10
80.3339974946
 20
117.3058984559
 30
0.0
 11
80.3339974946
 21
105.4682784587
 31
0.0
  0
SPLINE
  5
16B
330
1F
100
AcDbEntity
  8
0
  6
HIDDEN
 62
     7
370
     0
100
AcDbSpline
210
0.0
220
0.0
230
1.0
 70
     8
 71
     3
 72
     8
 73
     4
 74
     0
 42
0.00000001
 43
0.00000001
 40
0.0
 40
0.0
 40
0.0
 40
0.0
 40
1.0
 40
1.0
 40
1.0
 40
1.0
 10
80.03399749140172
 20
123.3082041554386
 30
0.0
 10
80.21502895796056
 20
122.8760966697759
 30
0.0
 10
80.33399749459502
 20
122.4219512636764
 30
0.0
 10
80.33399749458933
 20
121.9342512099824
 30
0.0
  0
LINE
  5
16C
330
1F
100
AcDbEntity
  8
0
  6
HIDDEN
 62
     7
370
     0
100
AcDbLine
 10
80.0339974914
 20
126.3414071414
 30
0.0
 11
80.0339974914
 21
123.3082041554
 31
0.0
  0
SPLINE
  5
16D
330
1F
100
AcDbEntity
  8
0
  6
HIDDEN
 62
     7
370
     0
100
AcDbSpline
210
0.0
220
0.0
230
1.0
 70
     8
 71
     3
 72
    10
 73
     6
 74
     0
 42
0.00000001
 43
0.00000001
 40
0.0
 40
0.0
 40
0.0
 40
0.0
 40
0.5
 40
0.5
 40
1.0
 40
1.0
 40
1.0
 40
1.0
 10
80.33399749479493
 20
127.3579523242903
 30
0.0
 10
80.33399749479315
 20
127.1933159776849
 30
0.0
 10
80.30683882403808
 20
127.0261607538551
 30
0.0
 10
80.20107382872041
 20
126.6875377460549
 30
0.0
 10
80.12465904042175
 20
126.5152659687606
 30
0.0
 10
80.03399749140173
 20
126.3414071414173
 30
0.0
  0
SPLINE
  5
16E
330
1F
100
AcDbEntity
  8
0
  6
HIDDEN
 62
     7
370
     0
100
AcDbSpline
210
0.0
220
0.0
230
1.0
 70
     8
 71
     3
 72
    18
 73
    14
 74
     0
 42
0.00000001
 43
0.00000001
 40
0.0
 40
0.0
 40
0.0
 40
0.0
 40
0.2500000000000033
 40
0.2500000000000033
 40
0.3750000000000029
 40
0.3750000000000029
 40
0.5000000000000026
 40
0.5000000000000026
 40
0.6250000000000022
 40
0.6250000000000022
 40
0.7500000000000018
 40
0.7500000000000018
 40
1.0
 40
1.0
 40
1.0
 40
1.0
 10
85.13399749140171
 20
129.9887784567746
 30
0.0
 10
85.13399749140171
 20
129.9343039362224
 30
0.0
 10
85.09908680000954
 20
129.8779228768699
 30
0.0
 10
84.99707749867649
 20
129.7938460360164
 30
0.0
 10
84.95544114399839
 20
129.7665123320255
 30
0.0
 10
84.85703534850964
 20
129.7135584164265
 30
0.0
 10
84.79949213680536
 20
129.6876710627093
 30
0.0
 10
84.6721939632324
 20
129.6398935178761
 30
0.0
 10
84.60260665847494
 20
129.6179455996982
 30
0.0
 10
84.45117241331998
 20
129.5785130347855
 30
0.0
 10
84.36848851022603
 20
129.5609567855596
 30
0.0
 10
84.11237704818798
 20
129.5185180201391
 30
0.0
 10
83.9244620443
 20
129.5027552704021
 30
0.0
 10
83.73399749140171
 20
129.5027552704021
 30
0.0
  0
LINE
  5
16F
330
1F
100
AcDbEntity
  8
0
  6
HIDDEN
 62
     7
370
     0
100
AcDbLine
 10
83.7339974914
 20
129.5027552704
 30
0.0
 11
80.3339974948
 21
129.5027552704
 31
0.0
  0
LINE
  5
170
330
1F
100
AcDbEntity
  8
0
  6
HIDDEN
 62
     7
370
     0
100
AcDbLine
 10
80.2650285048
 20
97.8997743983
 30
0.0
 11
87.7339974914
 21
97.8997743983
 31
0.0
  0
SPLINE
  5
171
330
1F
100
AcDbEntity
  8
0
  6
HIDDEN
 62
     7
370
     0
100
AcDbSpline
210
0.0
220
0.0
230
1.0
 70
     8
 71
     3
 72
    22
 73
    18
 74
     0
 42
0.00000001
 43
0.00000001
 40
0.0
 40
0.0
 40
0.0
 40
0.0
 40
0.1249999999999998
 40
0.1249999999999998
 40
0.2499999999999995
 40
0.2499999999999995
 40
0.4999999999999992
 40
0.4999999999999992
 40
0.5624999999999993
 40
0.5624999999999993
 40
0.6249999999999994
 40
0.6249999999999994
 40
0.7499999999999996
 40
0.7499999999999996
 40
0.8749999999999998
 40
0.8749999999999998
 40
1.0
 40
1.0
 40
1.0
 40
1.0
 10
80.26502850475964
 20
97.8997743983388
 30
0.0
 10
80.25194611203126
 20
98.15488010848647
 30
0.0
 10
80.23872654859143
 20
98.44803836759037
 30
0.0
 10
80.21627937079731
 20
99.11033883321518
 30
0.0
 10
80.20680090377286
 20
99.48061275382656
 30
0.0
 10
80.1876029428363
 20
100.7031695569404
 30
0.0
 10
80.1887167158332
 20
101.6403084830722
 30
0.0
 10
80.20762750878626
 20
102.9601797125872
 30
0.0
 10
80.21225703664528
 20
103.2316816215635
 30
0.0
 10
80.22273825639122
 20
103.7900664563658
 30
0.0
 10
80.22853351767564
 20
104.0771893123054
 30
0.0
 10
80.24684273858058
 20
104.9497785666771
 30
0.0
 10
80.26087767286094
 20
105.550234243033
 30
0.0
 10
80.29033484499776
 20
106.7877087355291
 30
0.0
 10
80.30589053597933
 20
107.4247248921725
 30
0.0
 10
80.32968508597622
 20
108.7362134898571
 30
0.0
 10
80.33770413812158
 20
109.4123361015176
 30
0.0
 10
80.33399749140172
 20
110.0966312128024
 30
0.0
  0
LINE
  5
172
330
1F
100
AcDbEntity
  8
0
  6
HIDDEN
 62
     7
370
     0
100
AcDbLine
 10
80.3339974948
 20
117.3058984559
 30
0.0
 11
80.3339974948
 21
129.5027552704
 31
0.0
  0
SPLINE
  5
173
330
1F
100
AcDbEntity
  8
0
  6
HIDDEN
 62
     7
370
     0
100
AcDbSpline
210
0.0
220
0.0
230
1.0
 70
     8
 71
     3
 72
    10
 73
     6
 74
     0
 42
0.00000001
 43
0.00000001
 40
0.0
 40
0.0
 40
0.0
 40
0.0
 40
0.5
 40
0.5
 40
1.0
 40
1.0
 40
1.0
 40
1.0
 10
80.33399749140172
 20
110.0966312127873
 30
0.0
 10
80.33399749140153
 20
110.3705463608617
 30
0.0
 10
80.30823826153383
 20
110.6414879395917
 30
0.0
 10
80.20503232880071
 20
111.1771790211946
 30
0.0
 10
80.12769416492547
 20
111.4429258247166
 30
0.0
 10
80.0339974914017
 20
111.7045645321542
 30
0.0
  0
SPLINE
  5
174
330
1F
100
AcDbEntity
  8
0
  6
HIDDEN
 62
     7
370
     0
100
AcDbSpline
210
0.0
220
0.0
230
1.0
 70
     8
 71
     3
 72
    10
 73
     6
 74
     0
 42
0.00000001
 43
0.00000001
 40
0.0
 40
0.0
 40
0.0
 40
0.0
 40
0.5
 40
0.5
 40
1.0
 40
1.0
 40
1.0
 40
1.0
 10
80.0339974914017
 20
115.688393127735
 30
0.0
 10
80.12722807279272
 20
115.9522869358051
 30
0.0
 10
80.20225768502948
 20
116.2184672464434
 30
0.0
 10
80.30732478420762
 20
116.7567898214015
 30
0.0
 10
80.3339974947938
 20
117.0295379376471
 30
0.0
 10
80.333997494795
 20
117.3058984559376
 30
0.0
  0
LINE
  5
175
330
1F
100
AcDbEntity
  8
0
  6
HIDDEN
 62
     7
370
     0
100
AcDbLine
 10
80.0339974914
 20
111.7045645322
 30
0.0
 11
80.0339974914
 21
115.6883931277
 31
0.0
  0
LINE
  5
176
330
1F
100
AcDbEntity
  8
0
  6
HIDDEN
 62
     7
370
     0
100
AcDbLine
 10
167.6936761713
 20
113.7012648344
 30
0.0
 11
167.6936761713
 21
101.9512648344
 31
0.0
  0
LINE
  5
177
330
1F
100
AcDbEntity
  8
0
  6
HIDDEN
 62
     7
370
     0
100
AcDbLine
 10
167.6936761713
 20
125.4512648344
 30
0.0
 11
167.6936761713
 21
113.7012648344
 31
0.0
  0
LINE
  5
178
330
1F
100
AcDbEntity
  8
0
  6
HIDDEN
 62
     7
370
     0
100
AcDbLine
 10
163.9339974914
 20
113.7012648344
 30
0.0
 11
163.9339974914
 21
101.9512648344
 31
0.0
  0
LINE
  5
179
330
1F
100
AcDbEntity
  8
0
  6
HIDDEN
 62
     7
370
     0
100
AcDbLine
 10
163.9339974914
 20
125.4512648344
 30
0.0
 11
163.9339974914
 21
113.7012648344
 31
0.0
  0
LINE
  5
17A
330
1F
100
AcDbEntity
  8
0
  6
HIDDEN
 62
     7
370
     0
100
AcDbLine
 10
161.0195746279
 20
113.7012648344
 30
0.0
 11
161.0195746279
 21
108.2012648344
 31
0.0
  0
LINE
  5
17B
330
1F
100
AcDbEntity
  8
0
  6
HIDDEN
 62
     7
370
     0
100
AcDbLine
 10
161.0195746279
 20
119.2012648344
 30
0.0
 11
161.0195746279
 21
113.7012648344
 31
0.0
  0
LINE
  5
17C
330
1F
100
AcDbEntity
  8
0
  6
HIDDEN
 62
     7
370
     0
100
AcDbLine
 10
80.1839974914
 20
95.7112648344
 30
0.0
 11
80.1839974914
 21
92.831327069
 31
0.0
  0
LINE
  5
17D
330
1F
100
AcDbEntity
  8
0
  6
HIDDEN
 62
     7
370
     0
100
AcDbLine
 10
89.1339974914
 20
95.7112648344
 30
0.0
 11
89.1339974914
 21
91.7375273032
 31
0.0
  0
LINE
  5
17E
330
1F
100
AcDbEntity
  8
0
  6
HIDDEN
 62
     7
370
     0
100
AcDbLine
 10
80.1839974914
 20
131.6912648344
 30
0.0
 11
80.1839974914
 21
134.5712025998
 31
0.0
  0
LINE
  5
17F
330
1F
100
AcDbEntity
  8
0
  6
HIDDEN
 62
     7
370
     0
100
AcDbLine
 10
85.1339974914
 20
131.6912648344
 30
0.0
 11
85.1339974914
 21
135.5453725067
 31
0.0
  0
LINE
  5
180
330
1F
100
AcDbEntity
  8
0
  6
HIDDEN
 62
     7
370
     0
100
AcDbLine
 10
132.7339974914
 20
104.2012648344
 30
0.0
 11
132.7339974914
 21
123.2012648344
 31
0.0
  0
LINE
  5
181
330
1F
100
AcDbEntity
  8
0
  6
HIDDEN
 62
     7
370
     0
100
AcDbLine
 10
129.7339974914
 20
104.2012648344
 30
0.0
 11
129.7339974914
 21
123.2012648344
 31
0.0
  0
LINE
  5
182
330
1F
100
AcDbEntity
  8
0
  6
HIDDEN
 62
     7
370
     0
100
AcDbLine
 10
121.3839974914
 20
105.2012648344
 30
0.0
 11
121.3839974914
 21
122.2012648344
 31
0.0
  0
LINE
  5
183
330
1F
100
AcDbEntity
  8
0
  6
HIDDEN
 62
     7
370
     0
100
AcDbLine
 10
136.8839974914
 20
87.3012648344
 30
0.0
 11
130.7463226891
 21
87.3012648344
 31
0.0
  0
LINE
  5
184
330
1F
100
AcDbEntity
  8
0
  6
HIDDEN
 62
     7
370
     0
100
AcDbLine
 10
127.1216722937
 20
87.3012648344
 30
0.0
 11
123.8839974914
 21
87.3012648344
 31
0.0
  0
LINE
  5
185
330
1F
100
AcDbEntity
  8
0
  6
HIDDEN
 62
     7
370
     0
100
AcDbLine
 10
115.8839974914
 20
82.2171418515
 30
0.0
 11
115.8839974914
 21
87.3012648344
 31
0.0
  0
LINE
  5
186
330
1F
100
AcDbEntity
  8
0
  6
HIDDEN
 62
     7
370
     0
100
AcDbLine
 10
123.8839974914
 20
87.3012648344
 30
0.0
 11
115.8839974914
 21
87.3012648344
 31
0.0
  0
LINE
  5
187
330
1F
100
AcDbEntity
  8
0
  6
HIDDEN
 62
     7
370
     0
100
AcDbLine
 10
136.8839974914
 20
140.1012648344
 30
0.0
 11
130.4496999597
 21
140.1012648344
 31
0.0
  0
LINE
  5
188
330
1F
100
AcDbEntity
  8
0
  6
HIDDEN
 62
     7
370
     0
100
AcDbLine
 10
123.8839974914
 20
140.1012648344
 30
0.0
 11
115.8839974914
 21
140.1012648344
 31
0.0
  0
LINE
  5
189
330
1F
100
AcDbEntity
  8
0
  6
HIDDEN
 62
     7
370
     0
100
AcDbLine
 10
127.4182950231
 20
140.1012648344
 30
0.0
 11
123.8839974914
 21
140.1012648344
 31
0.0
  0
SPLINE
  5
18A
330
1F
100
AcDbEntity
  8
0
  6
HIDDEN
 62
     7
370
     0
100
AcDbSpline
210
0.0
220
0.0
230
1.0
 70
     8
 71
     3
 72
    11
 73
     7
 74
     0
 42
0.00000001
 43
0.00000001
 40
0.0
 40
0.0
 40
0.0
 40
0.0
 40
0.0008203708524183
 40
0.0008203708524183
 40
0.0008203708524183
 40
0.0016409967870154
 40
0.0016409967870154
 40
0.0016409967870154
 40
0.0016409967870154
 10
80.18399749140171
 20
97.84923208372773
 30
0.0
 10
79.99283919110306
 20
97.80805305510859
 30
0.0
 10
79.80141212103088
 20
97.7692990828786
 30
0.0
 10
79.60976649751025
 20
97.73293132360004
 30
0.0
 10
79.4180610924298
 20
97.69655221983402
 30
0.0
 10
79.22612214037083
 20
97.66255796906647
 30
0.0
 10
79.03399749330003
 20
97.63090984367525
 30
0.0
  0
ELLIPSE
  5
18B
330
1F
100
AcDbEntity
  8
0
  6
HIDDEN
 62
     7
370
     0
100
AcDbEllipse
 10
74.7915656228
 20
113.7012648344
 30
0.0
 11
20.19992453366626
 21
-1.421085471520200E-14
 31
0.0
210
0.0
220
0.0
230
1.0
 40
0.8164965809
 41
1.300566354718001
 42
1.359198697209606
  0
LINE
  5
18C
330
1F
100
AcDbEntity
  8
0
  6
HIDDEN
 62
     7
370
     0
100
AcDbLine
 10
89.1339974914
 20
95.7112648344
 30
0.0
 11
89.1339974914
 21
97.413751212
 31
0.0
  0
LINE
  5
18D
330
1F
100
AcDbEntity
  8
0
  6
HIDDEN
 62
     7
370
     0
100
AcDbLine
 10
80.1839974914
 20
95.7112648344
 30
0.0
 11
80.1839974914
 21
97.8492320837
 31
0.0
  0
LINE
  5
18E
330
1F
100
AcDbEntity
  8
0
  6
HIDDEN
 62
     7
370
     0
100
AcDbLine
 10
80.2650285048
 20
97.8997743983
 30
0.0
 11
80.1839974914
 21
97.8492320837
 31
0.0
  0
LINE
  5
18F
330
1F
100
AcDbEntity
  8
0
  6
HIDDEN
 62
     7
370
     0
100
AcDbLine
 10
85.1339974914
 20
131.6912648344
 30
0.0
 11
85.1339974914
 21
129.9887784568
 31
0.0
  0
LINE
  5
190
330
1F
100
AcDbEntity
  8
0
  6
HIDDEN
 62
     7
370
     0
100
AcDbLine
 10
80.1839974914
 20
131.6912648344
 30
0.0
 11
80.1839974914
 21
129.5958892854
 31
0.0
  0
SPLINE
  5
191
330
1F
100
AcDbEntity
  8
0
  6
HIDDEN
 62
     7
370
     0
100
AcDbSpline
210
0.0
220
0.0
230
1.0
 70
     8
 71
     3
 72
     8
 73
     4
 74
     0
 42
0.00000001
 43
0.00000001
 40
0.0
 40
0.0
 40
0.0
 40
0.0
 40
1.0
 40
1.0
 40
1.0
 40
1.0
 10
80.18399749140171
 20
129.5958892854291
 30
0.0
 10
80.23400299034545
 20
129.56485351121
 30
0.0
 10
80.28400306100986
 20
129.5338088661824
 30
0.0
 10
80.33399749479497
 20
129.5027552704021
 30
0.0
  0
LINE
  5
192
330
1F
100
AcDbEntity
  8
0
  6
HIDDEN
 62
     7
370
     0
100
AcDbLine
 10
135.9339974914
 20
113.7012648344
 30
0.0
 11
135.9339974914
 21
108.2012648344
 31
0.0
  0
LINE
  5
193
330
1F
100
AcDbEntity
  8
0
  6
HIDDEN
 62
     7
370
     0
100
AcDbLine
 10
135.9339974914
 20
119.2012648344
 30
0.0
 11
135.9339974914
 21
113.7012648344
 31
0.0
  0
LINE
  5
194
330
1F
100
AcDbEntity
  8
0
  6
HIDDEN
 62
     7
370
     0
100
AcDbLine
 10
135.1528786867
 20
113.7012648344
 30
0.0
 11
135.1528786867
 21
109.5012648344
 31
0.0
  0
LINE
  5
195
330
1F
100
AcDbEntity
  8
0
  6
HIDDEN
 62
     7
370
     0
100
AcDbLine
 10
135.1528786867
 20
117.9012648344
 30
0.0
 11
135.1528786867
 21
113.7012648344
 31
0.0
  0
SPLINE
  5
196
330
1F
100
AcDbEntity
  8
0
  6
HIDDEN
 62
     7
370
     0
100
AcDbSpline
210
0.0
220
0.0
230
1.0
 70
     8
 71
     3
 72
    20
 73
    16
 74
     0
 42
0.00000001
 43
0.00000001
 40
0.0
 40
0.0
 40
0.0
 40
0.0
 40
0.1119183715830388
 40
0.1774373100473166
 40
0.2490585882167353
 40
0.3298067194071873
 40
0.3985788492036634
 40
0.4998581882381558
 40
0.6138228637986533
 40
0.6789885378043753
 40
0.7495147647509247
 40
0.8296604119548576
 40
0.898103816475145
 40
0.9995138286910727
 40
0.9999999999999999
 40
0.9999999999999999
 40
0.9999999999999999
 40
0.9999999999999999
 10
105.6827479086158
 20
90.1012951119025
 30
0.0
 10
105.6394368320261
 20
90.11472006944105
 30
0.0
 10
105.5707707067366
 20
90.13600422788119
 30
0.0
 10
105.1256562532811
 20
90.23929972895509
 30
0.0
 10
104.5991014002886
 20
90.35260223666583
 30
0.0
 10
103.9136753580621
 20
90.47553531973773
 30
0.0
 10
103.0203582242922
 20
90.59756972229687
 30
0.0
 10
101.9069987527097
 20
90.71530605425495
 30
0.0
 10
100.7962246417895
 20
90.72728153867523
 30
0.0
 10
99.91147647939923
 20
90.70022327695132
 30
0.0
 10
99.24427936094412
 20
90.65229111275914
 30
0.0
 10
98.70300900874423
 20
90.59599800817581
 30
0.0
 10
98.3154208763629
 20
90.55091354785687
 30
0.0
 10
98.12149127468628
 20
90.51204146042515
 30
0.0
 10
98.18461558698202
 20
90.52275143631653
 30
0.0
 10
98.18491676832633
 20
90.52280253619897
 30
0.0
  0
LINE
  5
197
330
1F
100
AcDbEntity
  8
0
  6
HIDDEN
 62
     7
370
     0
100
AcDbLine
 10
99.0940094038
 20
90.6336029778
 30
0.0
 11
99.2778547169
 21
90.6517923203
 31
0.0
  0
SPLINE
  5
198
330
1F
100
AcDbEntity
  8
0
  6
HIDDEN
 62
     7
370
     0
100
AcDbSpline
210
0.0
220
0.0
230
1.0
 70
     8
 71
     3
 72
    27
 73
    23
 74
     0
 42
0.00000001
 43
0.00000001
 40
0.0
 40
0.0
 40
0.0
 40
0.0
 40
0.0007830689521488
 40
0.0456653187724238
 40
0.1022466546010754
 40
0.1705243468426235
 40
0.2091157940587543
 40
0.2506427910656956
 40
0.3210881578202067
 40
0.3861815128377879
 40
0.426660426718234
 40
0.4647914573694539
 40
0.5005955654517996
 40
0.5451870698803766
 40
0.601680996784284
 40
0.6700865729025445
 40
0.7088236772492108
 40
0.7505521795929864
 40
0.8222163473542644
 40
0.8877553901305901
 40
0.9472287986113177
 40
1.0
 40
1.0
 40
1.0
 40
1.0
 10
98.18464525492992
 20
136.8796834371169
 30
0.0
 10
98.1844300322201
 20
136.8797298301138
 30
0.0
 10
98.17187914047042
 20
136.8824352764036
 30
0.0
 10
98.22096334800786
 20
136.8706016058976
 30
0.0
 10
98.36605789683553
 20
136.8471597083685
 30
0.0
 10
98.63911314063265
 20
136.8132548475534
 30
0.0
 10
98.96763912469727
 20
136.7796861652826
 30
0.0
 10
99.36036702166567
 20
136.7415027962815
 30
0.0
 10
99.9100949399235
 20
136.7025341368991
 30
0.0
 10
100.5361176003926
 20
136.6830730289777
 30
0.0
 10
101.0793091083798
 20
136.6808873516994
 30
0.0
 10
101.5243780057553
 20
136.6894022327717
 30
0.0
 10
101.9908258019536
 20
136.7091856296945
 30
0.0
 10
102.5280664517853
 20
136.7533480153654
 30
0.0
 10
103.1762798791282
 20
136.8257636345087
 30
0.0
 10
103.7618185227181
 20
136.9066657311535
 30
0.0
 10
104.2427881046348
 20
136.9848317113166
 30
0.0
 10
104.6882031412212
 20
137.0696038859725
 30
0.0
 10
105.1267019730517
 20
137.1633867017898
 30
0.0
 10
105.4657304590101
 20
137.2412912919617
 30
0.0
 10
105.6530942067137
 20
137.2914891653301
 30
0.0
 10
105.6735852014135
 20
137.2981563138263
 30
0.0
 10
105.6832189326832
 20
137.3012908379374
 30
0.0
  0
LINE
  5
199
330
1F
100
AcDbEntity
  8
0
  6
HIDDEN
 62
     7
370
     0
100
AcDbLine
 10
147.8839974914
 20
135.6239145652
 30
0.0
 11
150.3839974914
 21
135.6239145652
 31
0.0
  0
LINE
  5
19A
330
1F
100
AcDbEntity
  8
0
  6
HIDDEN
 62
     7
370
     0
100
AcDbLine
 10
145.3839974914
 20
135.6239145652
 30
0.0
 11
147.8839974914
 21
135.6239145652
 31
0.0
  0
LINE
  5
19B
330
1F
100
AcDbEntity
  8
0
  6
HIDDEN
 62
     7
370
     0
100
AcDbLine
 10
150.3839974914
 20
91.7786151036
 30
0.0
 11
145.3839974914
 21
91.7786151036
 31
0.0
  0
LINE
  5
19C
330
1F
100
AcDbEntity
  8
0
  6
HIDDEN
 62
     7
370
     0
100
AcDbLine
 10
147.8839974914
 20
124.2012648344
 30
0.0
 11
150.3839974914
 21
124.2012648344
 31
0.0
  0
LINE
  5
19D
330
1F
100
AcDbEntity
  8
0
  6
HIDDEN
 62
     7
370
     0
100
AcDbLine
 10
145.3839974914
 20
124.2012648344
 30
0.0
 11
147.8839974914
 21
124.2012648344
 31
0.0
  0
LINE
  5
19E
330
1F
100
AcDbEntity
  8
0
  6
HIDDEN
 62
     7
370
     0
100
AcDbLine
 10
150.3839974914
 20
103.2012648344
 30
0.0
 11
145.3839974914
 21
103.2012648344
 31
0.0
  0
SPLINE
  5
19F
330
1F
100
AcDbEntity
  8
0
  6
HIDDEN
 62
     7
370
     0
100
AcDbSpline
210
0.0
220
0.0
230
1.0
 70
     8
 71
     3
 72
     8
 73
     4
 74
     0
 42
0.00000001
 43
0.00000001
 40
0.0
 40
0.0
 40
0.0
 40
0.0
 40
0.0001590976953428
 40
0.0001590976953428
 40
0.0001590976953428
 40
0.0001590976953428
 10
80.31916550061953
 20
97.8997743983388
 30
0.0
 10
80.27411403011526
 20
97.87179551401506
 30
0.0
 10
80.22905799170051
 20
97.84382398364002
 30
0.0
 10
80.18399749140173
 20
97.81585964428754
 30
0.0
  0
SPLINE
  5
1A0
330
1F
100
AcDbEntity
  8
0
  6
HIDDEN
 62
     7
370
     0
100
AcDbSpline
210
0.0
220
0.0
230
1.0
 70
     8
 71
     3
 72
    11
 73
     7
 74
     0
 42
0.00000001
 43
0.00000001
 40
0.0
 40
0.0
 40
0.0
 40
0.0
 40
0.0008212909311457
 40
0.0008212909311457
 40
0.0008212909311457
 40
0.001642825724306
 40
0.001642825724306
 40
0.001642825724306
 40
0.001642825724306
 10
80.18399749140171
 20
97.81585964428754
 30
0.0
 10
79.99285246991953
 20
97.77257345543497
 30
0.0
 10
79.80143413424304
 20
97.73163694579767
 30
0.0
 10
79.60978805958189
 20
97.69303517441107
 30
0.0
 10
79.41808497804028
 20
97.65442192057395
 30
0.0
 10
79.22613985475479
 20
97.61814171128793
 30
0.0
 10
79.03399749140162
 20
97.5841748049364
 30
0.0
  0
LINE
  5
1A1
330
1F
100
AcDbEntity
  8
0
  6
HIDDEN
 62
     7
370
     0
100
AcDbLine
 10
127.0239974914
 20
133.8371314658
 30
0.0
 11
127.0239974914
 21
133.5512648344
 31
0.0
  0
LINE
  5
1A2
330
1F
100
AcDbEntity
  8
0
  6
HIDDEN
 62
     7
370
     0
100
AcDbLine
 10
130.8439974914
 20
133.8756228452
 30
0.0
 11
130.8439974914
 21
133.5512648344
 31
0.0
  0
LINE
  5
1A3
330
1F
100
AcDbEntity
  8
0
  6
HIDDEN
 62
     7
370
     0
100
AcDbLine
 10
132.3259303229
 20
138.1599544967
 30
0.0
 11
132.3259303229
 21
133.5512648344
 31
0.0
  0
SPLINE
  5
1A4
330
1F
100
AcDbEntity
  8
0
  6
HIDDEN
 62
     7
370
     0
100
AcDbSpline
210
0.0
220
0.0
230
1.0
 70
     8
 71
     3
 72
    24
 73
    20
 74
     0
 42
0.00000001
 43
0.00000001
 40
0.0
 40
0.0
 40
0.0
 40
0.0
 40
0.25
 40
0.25
 40
0.374999999999999
 40
0.374999999999999
 40
0.4374999999999993
 40
0.4374999999999993
 40
0.4687499999999994
 40
0.4687499999999994
 40
0.4999999999999995
 40
0.4999999999999995
 40
0.5624999999999971
 40
0.5624999999999971
 40
0.6249999999999947
 40
0.6249999999999947
 40
0.7499999999999947
 40
0.7499999999999947
 40
1.0
 40
1.0
 40
1.0
 40
1.0
 10
79.09666086612513
 20
94.02671228958972
 30
0.0
 10
79.11041398479534
 20
94.09736234758002
 30
0.0
 10
79.12818655220121
 20
94.16396046034492
 30
0.0
 10
79.18043764375656
 20
94.23805848057813
 30
0.0
 10
79.20147271933814
 20
94.2593162877397
 30
0.0
 10
79.25437312696657
 20
94.26746221388593
 30
0.0
 10
79.27547879984448
 20
94.26652241049015
 30
0.0
 10
79.32153096852245
 20
94.24550641891281
 30
0.0
 10
79.33990144050584
 20
94.2345976128052
 30
0.0
 10
79.38145307557154
 20
94.20196270185782
 30
0.0
 10
79.40401974832847
 20
94.18047072148647
 30
0.0
 10
79.46680076478847
 20
94.11200477790014
 30
0.0
 10
79.49993052575638
 20
94.06593031969506
 30
0.0
 10
79.55684821224138
 20
93.98092243136038
 30
0.0
 10
79.58103423774516
 20
93.940642130179
 30
0.0
 10
79.64624218812492
 20
93.82570590371306
 30
0.0
 10
79.68095824831616
 20
93.75512291856606
 30
0.0
 10
79.77417351864705
 20
93.55091715948745
 30
0.0
 10
79.81984605400771
 20
93.42801877716009
 30
0.0
 10
79.85815113750625
 20
93.31114550077253
 30
0.0
  0
SPLINE
  5
1A5
330
1F
100
AcDbEntity
  8
0
  6
HIDDEN
 62
     7
370
     0
100
AcDbSpline
210
0.0
220
0.0
230
1.0
 70
     8
 71
     3
 72
    11
 73
     7
 74
     0
 42
0.00000001
 43
0.00000001
 40
0.0
 40
0.0
 40
0.0
 40
0.0
 40
0.000578186222398
 40
0.000578186222398
 40
0.000578186222398
 40
0.0011563724723931
 40
0.0011563724723931
 40
0.0011563724723931
 40
0.0011563724723931
 10
80.033997491402
 20
126.3414071414221
 30
0.0
 10
79.86733693712634
 20
126.4059366528357
 30
0.0
 10
79.70067364021982
 20
126.4704393566746
 30
0.0
 10
79.53400705638953
 20
126.5349258051082
 30
0.0
 10
79.3673404641304
 20
126.5994122568031
 30
0.0
 10
79.20067059850447
 20
126.6638822655312
 30
0.0
 10
79.03399749140169
 20
126.7283380322638
 30
0.0
  0
SPLINE
  5
1A6
330
1F
100
AcDbEntity
  8
0
  6
HIDDEN
 62
     7
370
     0
100
AcDbSpline
210
0.0
220
0.0
230
1.0
 70
     8
 71
     3
 72
    11
 73
     7
 74
     0
 42
0.00000001
 43
0.00000001
 40
0.0
 40
0.0
 40
0.0
 40
0.0
 40
0.0005778746105108
 40
0.0005778746105108
 40
0.0005778746105108
 40
0.0011557494857227
 40
0.0011557494857227
 40
0.0011557494857227
 40
0.0011557494857227
 10
79.03399749140169
 20
100.6740429788806
 30
0.0
 10
79.20066436781504
 20
100.7398551055744
 30
0.0
 10
79.36733108737651
 20
100.805713585712
 30
0.0
 10
79.53399773542515
 20
100.8716211586426
 30
0.0
 10
79.70066445994381
 20
100.9375287618129
 30
0.0
 10
79.86733115436438
 20
101.0034858702014
 30
0.0
 10
80.0339974914017
 20
101.069487610124
 30
0.0
  0
SPLINE
  5
1A7
330
1F
100
AcDbEntity
  8
0
  6
HIDDEN
 62
     7
370
     0
100
AcDbSpline
210
0.0
220
0.0
230
1.0
 70
     8
 71
     3
 72
    11
 73
     7
 74
     0
 42
0.00000001
 43
0.00000001
 40
0.0000000000000007
 40
0.0000000000000007
 40
0.0000000000000007
 40
0.0000000000000007
 40
0.0005780486062768
 40
0.0005780486062768
 40
0.0005780486062768
 40
0.0011560973514127
 40
0.0011560973514127
 40
0.0011560973514127
 40
0.0011560973514127
 10
79.03399749140169
 20
123.6820793360623
 30
0.0
 10
79.2006673474466
 20
123.6197074745477
 30
0.0
 10
79.36733505153086
 20
123.55735361425
 30
0.0
 10
79.53400135598451
 20
123.4950340540639
 30
0.0
 10
79.70066769667825
 20
123.4327144803269
 30
0.0
 10
79.86733265330703
 20
123.3704292760073
 30
0.0
 10
80.03399749140172
 20
123.3082041554386
 30
0.0
  0
SPLINE
  5
1A8
330
1F
100
AcDbEntity
  8
0
  6
HIDDEN
 62
     7
370
     0
100
AcDbSpline
210
0.0
220
0.0
230
1.0
 70
     8
 71
     3
 72
    11
 73
     7
 74
     0
 42
0.00000001
 43
0.00000001
 40
0.0
 40
0.0
 40
0.0
 40
0.0
 40
0.0005782401583533
 40
0.0005782401583533
 40
0.0005782401583533
 40
0.0011564805960992
 40
0.0011564805960992
 40
0.0011564805960992
 40
0.0011564805960992
 10
80.0339974914017
 20
104.100438041973
 30
0.0
 10
79.86734654105281
 20
104.0370125839121
 30
0.0
 10
79.70068694847015
 20
103.9736570602568
 30
0.0
 10
79.53401989604161
 20
103.9103594759068
 30
0.0
 10
79.36735275947778
 20
103.8470618596035
 30
0.0
 10
79.20067815203171
 20
103.7838220646627
 30
0.0
 10
79.03399749140165
 20
103.7206220580238
 30
0.0
  0
CIRCLE
  5
1A9
330
1F
100
AcDbEntity
  8
0
  6
HIDDEN
 62
     7
370
     0
100
AcDbCircle
 10
117.9339974914
 20
113.7012648344
 30
0.0
 40
5.000000000000014
  0
LINE
  5
1AA
330
1F
100
AcDbEntity
  8
0
  6
HIDDEN
 62
     7
370
     0
100
AcDbLine
 10
160.5195746279
 20
107.7012648344
 30
0.0
 11
160.5195746279
 21
119.7012648344
 31
0.0
  0
LINE
  5
1AB
330
1F
100
AcDbEntity
  8
0
  6
HIDDEN
 62
     7
370
     0
100
AcDbLine
 10
145.5195746279
 20
107.7012648344
 30
0.0
 11
145.5195746279
 21
119.7012648344
 31
0.0
  0
LINE
  5
1AC
330
1F
100
AcDbEntity
  8
0
  6
HIDDEN
 62
     7
370
     0
100
AcDbLine
 10
161.0195746279
 20
108.2012648344
 30
0.0
 11
161.0195746279
 21
119.2012648344
 31
0.0
  0
LINE
  5
1AD
330
1F
100
AcDbEntity
  8
0
  6
HIDDEN
 62
     7
370
     0
100
AcDbLine
 10
145.0195746279
 20
108.2012648344
 30
0.0
 11
145.0195746279
 21
119.2012648344
 31
0.0
  0
LINE
  5
1AE
330
1F
100
AcDbEntity
  8
0
  6
HIDDEN
 62
     7
370
     0
100
AcDbLine
 10
165.0195746279
 20
112.2012648344
 30
0.0
 11
163.0195746279
 21
112.2012648344
 31
0.0
  0
LINE
  5
1AF
330
1F
100
AcDbEntity
  8
0
  6
HIDDEN
 62
     7
370
     0
100
AcDbLine
 10
165.0195746279
 20
108.2012648344
 30
0.0
 11
165.0195746279
 21
112.2012648344
 31
0.0
  0
LINE
  5
1B0
330
1F
100
AcDbEntity
  8
0
  6
HIDDEN
 62
     7
370
     0
100
AcDbLine
 10
165.0195746279
 20
115.2012648344
 30
0.0
 11
165.0195746279
 21
119.2012648344
 31
0.0
  0
LINE
  5
1B1
330
1F
100
AcDbEntity
  8
0
  6
HIDDEN
 62
     7
370
     0
100
AcDbLine
 10
163.0195746279
 20
115.2012648344
 30
0.0
 11
165.0195746279
 21
115.2012648344
 31
0.0
  0
LINE
  5
1B2
330
1F
100
AcDbEntity
  8
0
  6
HIDDEN
 62
     7
370
     0
100
AcDbLine
 10
163.0195746279
 20
112.2012648344
 30
0.0
 11
163.0195746279
 21
115.2012648344
 31
0.0
  0
LINE
  5
1B3
330
1F
100
AcDbEntity
  8
0
  6
HIDDEN
 62
     7
370
     0
100
AcDbLine
 10
152.0195746279
 20
112.2012648344
 30
0.0
 11
152.0195746279
 21
113.7012648344
 31
0.0
  0
LINE
  5
1B4
330
1F
100
AcDbEntity
  8
0
  6
HIDDEN
 62
     7
370
     0
100
AcDbLine
 10
152.0195746279
 20
113.7012648344
 30
0.0
 11
152.0195746279
 21
115.2012648344
 31
0.0
  0
LINE
  5
1B5
330
1F
100
AcDbEntity
  8
0
  6
HIDDEN
 62
     7
370
     0
100
AcDbLine
 10
152.0195746279
 20
113.7012648344
 30
0.0
 11
145.0195746279
 21
113.7012648344
 31
0.0
  0
LINE
  5
1B6
330
1F
100
AcDbEntity
  8
0
  6
HIDDEN
 62
     7
370
     0
100
AcDbLine
 10
158.0195746279
 20
113.7012648344
 30
0.0
 11
158.0195746279
 21
112.2012648344
 31
0.0
  0
LINE
  5
1B7
330
1F
100
AcDbEntity
  8
0
  6
HIDDEN
 62
     7
370
     0
100
AcDbLine
 10
158.0195746279
 20
115.2012648344
 30
0.0
 11
158.0195746279
 21
113.7012648344
 31
0.0
  0
LINE
  5
1B8
330
1F
100
AcDbEntity
  8
0
  6
HIDDEN
 62
     7
370
     0
100
AcDbLine
 10
158.0195746279
 20
113.7012648344
 30
0.0
 11
163.0195746279
 21
113.7012648344
 31
0.0
  0
LINE
  5
1B9
330
1F
100
AcDbEntity
  8
0
  6
HIDDEN
 62
     7
370
     0
100
AcDbLine
 10
152.0195746279
 20
110.7012648344
 30
0.0
 11
152.0195746279
 21
112.2012648344
 31
0.0
  0
LINE
  5
1BA
330
1F
100
AcDbEntity
  8
0
  6
HIDDEN
 62
     7
370
     0
100
AcDbLine
 10
158.0195746279
 20
112.2012648344
 30
0.0
 11
158.0195746279
 21
110.7012648344
 31
0.0
  0
LINE
  5
1BB
330
1F
100
AcDbEntity
  8
0
  6
HIDDEN
 62
     7
370
     0
100
AcDbLine
 10
152.0195746279
 20
115.2012648344
 30
0.0
 11
152.0195746279
 21
116.7012648344
 31
0.0
  0
LINE
  5
1BC
330
1F
100
AcDbEntity
  8
0
  6
HIDDEN
 62
     7
370
     0
100
AcDbLine
 10
158.0195746279
 20
116.7012648344
 30
0.0
 11
158.0195746279
 21
115.2012648344
 31
0.0
  0
LINE
  5
1BD
330
1F
100
AcDbEntity
  8
0
  6
HIDDEN
 62
     7
370
     0
100
AcDbLine
 10
152.0195746279
 20
110.7012648344
 30
0.0
 11
148.6972445481
 21
110.7012648344
 31
0.0
  0
LINE
  5
1BE
330
1F
100
AcDbEntity
  8
0
  6
HIDDEN
 62
     7
370
     0
100
AcDbLine
 10
147.0065297198
 20
110.7012648344
 30
0.0
 11
145.0195746279
 21
110.7012648344
 31
0.0
  0
LINE
  5
1BF
330
1F
100
AcDbEntity
  8
0
  6
HIDDEN
 62
     7
370
     0
100
AcDbLine
 10
152.0195746279
 20
116.7012648344
 30
0.0
 11
148.6632786868
 21
116.7012648344
 31
0.0
  0
LINE
  5
1C0
330
1F
100
AcDbEntity
  8
0
  6
HIDDEN
 62
     7
370
     0
100
AcDbLine
 10
147.1291243187
 20
116.7012648344
 30
0.0
 11
145.0195746279
 21
116.7012648344
 31
0.0
  0
LINE
  5
1C1
330
1F
100
AcDbEntity
  8
0
  6
HIDDEN
 62
     7
370
     0
100
AcDbLine
 10
158.0195746279
 20
116.7012648344
 30
0.0
 11
165.0195746279
 21
116.7012648344
 31
0.0
  0
LINE
  5
1C2
330
1F
100
AcDbEntity
  8
0
  6
HIDDEN
 62
     7
370
     0
100
AcDbLine
 10
158.0195746279
 20
110.7012648344
 30
0.0
 11
165.0195746279
 21
110.7012648344
 31
0.0
  0
LINE
  5
1C3
330
1F
100
AcDbEntity
  8
0
  6
HIDDEN
 62
     7
370
     0
100
AcDbLine
 10
198.9839974914
 20
133.9512648344
 30
0.0
 11
196.8394904917
 21
132.9512648344
 31
0.0
  0
LINE
  5
1C4
330
1F
100
AcDbEntity
  8
0
  6
HIDDEN
 62
     7
370
     0
100
AcDbLine
 10
196.8394904917
 20
94.4512648344
 30
0.0
 11
198.9839974914
 21
93.4512648344
 31
0.0
  0
ARC
  5
1C5
330
1F
100
AcDbEntity
  8
0
  6
HIDDEN
 62
     7
370
     0
100
AcDbCircle
 10
202.1839974914
 20
94.2512648344
 30
0.0
 40
0.8000000000000114
100
AcDbArc
 50
270.0
 51
0.0
  0
ARC
  5
1C6
330
1F
100
AcDbEntity
  8
0
  6
HIDDEN
 62
     7
370
     0
100
AcDbCircle
 10
202.1839974914
 20
133.1512648344
 30
0.0
 40
0.8000000000000114
100
AcDbArc
 50
0.0
 51
90.0
  0
LINE
  5
1C7
330
1F
100
AcDbEntity
  8
0
  6
HIDDEN
 62
     7
370
     0
100
AcDbLine
 10
198.9839974914
 20
93.4512648344
 30
0.0
 11
202.1839974914
 21
93.4512648344
 31
0.0
  0
LINE
  5
1C8
330
1F
100
AcDbEntity
  8
0
  6
HIDDEN
 62
     7
370
     0
100
AcDbLine
 10
202.1839974914
 20
133.9512648344
 30
0.0
 11
198.9839974914
 21
133.9512648344
 31
0.0
  0
LINE
  5
1C9
330
1F
100
AcDbEntity
  8
0
  6
HIDDEN
 62
     7
370
     0
100
AcDbLine
 10
188.4339974914
 20
94.4512648344
 30
0.0
 11
196.8394904917
 21
94.4512648344
 31
0.0
  0
LINE
  5
1CA
330
1F
100
AcDbEntity
  8
0
  6
HIDDEN
 62
     7
370
     0
100
AcDbLine
 10
196.8394904917
 20
132.9512648344
 30
0.0
 11
188.4339974914
 21
132.9512648344
 31
0.0
  0
ARC
  5
1CB
330
1F
100
AcDbEntity
  8
0
  6
HIDDEN
 62
     7
370
     0
100
AcDbCircle
 10
204.8339974914
 20
97.4940851212
 30
0.0
 40
0.4000000000000523
100
AcDbArc
 50
180.0
 51
299.99999741
  0
LINE
  5
1CC
330
1F
100
AcDbEntity
  8
0
  6
HIDDEN
 62
     7
370
     0
100
AcDbLine
 10
205.0339974757
 20
97.1476749507
 30
0.0
 11
210.2363683025
 21
100.1512648344
 31
0.0
  0
LINE
  5
1CD
330
1F
100
AcDbEntity
  8
0
  6
HIDDEN
 62
     7
370
     0
100
AcDbLine
 10
210.2363683025
 20
127.2512648344
 30
0.0
 11
205.0339974757
 21
130.2548547181
 31
0.0
  0
LINE
  5
1CE
330
1F
100
AcDbEntity
  8
0
  6
HIDDEN
 62
     7
370
     0
100
AcDbLine
 10
204.5224307138
 20
130.1474733007
 30
0.0
 11
202.9839974914
 21
130.1474733007
 31
0.0
  0
LINE
  5
1CF
330
1F
100
AcDbEntity
  8
0
  6
HIDDEN
 62
     7
370
     0
100
AcDbLine
 10
210.2363683025
 20
100.1512648344
 30
0.0
 11
210.9339974914
 21
100.1512648344
 31
0.0
  0
LINE
  5
1D0
330
1F
100
AcDbEntity
  8
0
  6
HIDDEN
 62
     7
370
     0
100
AcDbLine
 10
210.9339974914
 20
127.2512648344
 30
0.0
 11
210.2363683025
 21
127.2512648344
 31
0.0
  0
LINE
  5
1D1
330
1F
100
AcDbEntity
  8
0
  6
HIDDEN
 62
     7
370
     0
100
AcDbLine
 10
193.5281772749
 20
93.880980776
 30
0.0
 11
193.1356494509
 21
93.6142320954
 31
0.0
  0
LINE
  5
1D2
330
1F
100
AcDbEntity
  8
0
  6
HIDDEN
 62
     7
370
     0
100
AcDbLine
 10
193.2924883387
 20
94.7780135397
 30
0.0
 11
192.9506243003
 21
93.1299831993
 31
0.0
  0
LINE
  5
1D3
330
1F
100
AcDbEntity
  8
0
  6
HIDDEN
 62
     7
370
     0
100
AcDbLine
 10
192.9675501234
 20
134.5205047416
 30
0.0
 11
193.4089378579
 21
134.1969820145
 31
0.0
  0
LINE
  5
1D4
330
1F
100
AcDbEntity
  8
0
  6
HIDDEN
 62
     7
370
     0
100
AcDbLine
 10
192.9475852941
 20
134.8266805988
 30
0.0
 11
193.2898100573
 21
133.1330968499
 31
0.0
  0
LINE
  5
1D5
330
1F
100
AcDbEntity
  8
0
  6
HIDDEN
 62
     7
370
     0
100
AcDbLine
 10
194.0399506149
 20
95.6019209811
 30
0.0
 11
193.8014867553
 21
95.4398689785
 31
0.0
  0
LINE
  5
1D6
330
1F
100
AcDbEntity
  8
0
  6
HIDDEN
 62
     7
370
     0
100
AcDbLine
 10
193.6964008548
 20
132.5781424189
 30
0.0
 11
193.9472137268
 21
132.3943048131
 31
0.0
  0
ARC
  5
1D7
330
1F
100
AcDbEntity
  8
0
  6
HIDDEN
 62
     7
370
     0
100
AcDbCircle
 10
204.8339974914
 20
129.9084445475
 30
0.0
 40
0.4000000000000523
100
AcDbArc
 50
60.00000259
 51
145.5321843327
  0
LINE
  5
1D8
330
1F
100
AcDbEntity
  8
0
  6
HIDDEN
 62
     7
370
     0
100
AcDbLine
 10
202.9839974914
 20
98.1099862935
 30
0.0
 11
204.4339974914
 21
98.1099862935
 31
0.0
  0
LINE
  5
1D9
330
1F
100
AcDbEntity
  8
0
  6
HIDDEN
 62
     7
370
     0
100
AcDbLine
 10
193.2898100573
 20
94.2694328188
 30
0.0
 11
192.9475852941
 21
92.5758490699
 31
0.0
  0
LINE
  5
1DA
330
1F
100
AcDbEntity
  8
0
  6
HIDDEN
 62
     7
370
     0
100
AcDbLine
 10
193.9472137268
 20
95.0082248557
 30
0.0
 11
193.6964008548
 21
94.8243872499
 31
0.0
  0
LINE
  5
1DB
330
1F
100
AcDbEntity
  8
0
  6
HIDDEN
 62
     7
370
     0
100
AcDbLine
 10
193.4089378579
 20
93.2055476542
 30
0.0
 11
192.9683675492
 21
92.8826240734
 31
0.0
  0
LINE
  5
1DC
330
1F
100
AcDbEntity
  8
0
  6
HIDDEN
 62
     7
370
     0
100
AcDbLine
 10
192.9506243003
 20
134.2725464695
 30
0.0
 11
193.2924883387
 21
132.6245161291
 31
0.0
  0
LINE
  5
1DD
330
1F
100
AcDbEntity
  8
0
  6
HIDDEN
 62
     7
370
     0
100
AcDbLine
 10
193.8014867553
 20
131.9626606902
 30
0.0
 11
194.0399506149
 21
131.8006086877
 31
0.0
  0
LINE
  5
1DE
330
1F
100
AcDbEntity
  8
0
  6
HIDDEN
 62
     7
370
     0
100
AcDbLine
 10
193.1236665045
 20
133.7964407799
 30
0.0
 11
193.5281772749
 21
133.5215488927
 31
0.0
  0
LINE
  5
1DF
330
1F
100
AcDbEntity
  8
0
  6
HIDDEN
 62
     7
370
     0
100
AcDbLine
 10
114.9339974914
 20
128.0018953401
 30
0.0
 11
114.9339974914
 21
126.0952054773
 31
0.0
  0
LINE
  5
1E0
330
1F
100
AcDbEntity
  8
0
  6
HIDDEN
 62
     7
370
     0
100
AcDbLine
 10
122.9339974914
 20
126.0952054773
 30
0.0
 11
122.9339974914
 21
127.9990999841
 31
0.0
  0
LINE
  5
1E1
330
1F
100
AcDbEntity
  8
0
  6
HIDDEN
 62
     7
370
     0
100
AcDbLine
 10
110.9339974914
 20
88.3773336884
 30
0.0
 11
111.0281582669
 21
89.0473224196
 31
0.0
  0
LINE
  5
1E2
330
1F
100
AcDbEntity
  8
0
  6
HIDDEN
 62
     7
370
     0
100
AcDbLine
 10
111.0281582669
 20
138.3552072491
 30
0.0
 11
110.9339974914
 21
139.0251959804
 31
0.0
  0
ARC
  5
1E3
330
1F
100
AcDbEntity
  8
0
  6
HIDDEN
 62
     7
370
     0
100
AcDbCircle
 10
110.4339907387
 20
89.13082722
 30
0.0
 40
0.6000067526677242
100
AcDbArc
 50
352.0
 51
0.0
  0
ARC
  5
1E4
330
1F
100
AcDbEntity
  8
0
  6
HIDDEN
 62
     7
370
     0
100
AcDbCircle
 10
110.4339907387
 20
89.13082722
 30
0.0
 40
0.6000067526677242
100
AcDbArc
 50
0.0
 51
33.5571153394
  0
ARC
  5
1E5
330
1F
100
AcDbEntity
  8
0
  6
HIDDEN
 62
     7
370
     0
100
AcDbCircle
 10
110.4339907387
 20
138.2717024488
 30
0.0
 40
0.6000067526677262
100
AcDbArc
 50
348.75
 51
8.0
  0
LWPOLYLINE
  5
1E6
330
1F
100
AcDbEntity
  8
0
  6
HIDDEN
 62
     7
370
     0
100
AcDbPolyline
 90
        3
 70
   128
 43
0.0
 10
111.0224685299
 20
138.1546469382
 10
110.9883246969
 20
138.0420898052
 10
110.9339974914
 20
137.9400379337
  0
LINE
  5
1E7
330
1F
100
AcDbEntity
  8
0
  6
HIDDEN
 62
     7
370
     0
100
AcDbLine
 10
111.0339974914
 20
89.13082722
 30
0.0
 11
111.0339974914
 21
138.2717024488
 31
0.0
  0
LINE
  5
1E8
330
1F
100
AcDbEntity
  8
0
  6
HIDDEN
 62
     7
370
     0
100
AcDbLine
 10
188.4339974914
 20
93.7012648344
 30
0.0
 11
197.1839974914
 21
93.7012648344
 31
0.0
  0
LINE
  5
1E9
330
1F
100
AcDbEntity
  8
0
  6
HIDDEN
 62
     7
370
     0
100
AcDbLine
 10
197.1839974914
 20
133.7012648344
 30
0.0
 11
188.4339974914
 21
133.7012648344
 31
0.0
  0
LINE
  5
1EA
330
1F
100
AcDbEntity
  8
0
  6
HIDDEN
 62
     7
370
     0
100
AcDbLine
 10
197.1839974914
 20
93.7012648344
 30
0.0
 11
197.9339974914
 21
94.4512648344
 31
0.0
  0
LINE
  5
1EB
330
1F
100
AcDbEntity
  8
0
  6
HIDDEN
 62
     7
370
     0
100
AcDbLine
 10
197.9339974914
 20
132.9512648344
 30
0.0
 11
197.1839974914
 21
133.7012648344
 31
0.0
  0
LINE
  5
1EC
330
1F
100
AcDbEntity
  8
0
  6
HIDDEN
 62
     7
370
     0
100
AcDbLine
 10
94.0164330567
 20
93.7012648344
 30
0.0
 11
98.1871148726
 21
93.7012648344
 31
0.0
  0
LINE
  5
1ED
330
1F
100
AcDbEntity
  8
0
  6
HIDDEN
 62
     7
370
     0
100
AcDbLine
 10
98.1871148726
 20
133.7012648344
 30
0.0
 11
94.0164330567
 21
133.7012648344
 31
0.0
  0
ARC
  5
1EE
330
1F
100
AcDbEntity
  8
0
  6
HIDDEN
 62
     7
370
     0
100
AcDbCircle
 10
104.688999493
 20
101.7012648344
 30
0.0
 40
7.999999999999996
100
AcDbArc
 50
277.1460684377
 51
321.3178125465
  0
ARC
  5
1EF
330
1F
100
AcDbEntity
  8
0
  6
HIDDEN
 62
     7
370
     0
100
AcDbCircle
 10
104.688999493
 20
125.7012648344
 30
0.0
 40
7.999999999999996
100
AcDbArc
 50
38.6821874535
 51
82.8556730445
  0
ARC
  5
1F0
330
1F
100
AcDbEntity
  8
0
  6
HIDDEN
 62
     7
370
     0
100
AcDbCircle
 10
94.0164330567
 20
94.3012648344
 30
0.0
 40
0.6000000000000085
100
AcDbArc
 50
210.0
 51
270.0
  0
ARC
  5
1F1
330
1F
100
AcDbEntity
  8
0
  6
HIDDEN
 62
     7
370
     0
100
AcDbCircle
 10
94.0164330567
 20
133.1012648344
 30
0.0
 40
0.6000000000000155
100
AcDbArc
 50
90.0
 51
150.0
  0
LINE
  5
1F2
330
1F
100
AcDbEntity
  8
0
  6
HIDDEN
 62
     7
370
     0
100
AcDbLine
 10
93.4968178144
 20
133.4012648344
 30
0.0
 11
91.9379720876
 21
130.7012648344
 31
0.0
  0
LINE
  5
1F3
330
1F
100
AcDbEntity
  8
0
  6
HIDDEN
 62
     7
370
     0
100
AcDbLine
 10
91.9379720876
 20
96.7012648344
 30
0.0
 11
93.4968178144
 21
94.0012648344
 31
0.0
  0
LINE
  5
1F4
330
1F
100
AcDbEntity
  8
0
  6
HIDDEN
 62
     7
370
     0
100
AcDbLine
 10
114.9339974914
 20
140.9809310723
 30
0.0
 11
114.9339974914
 21
137.646867249
 31
0.0
  0
LINE
  5
1F5
330
1F
100
AcDbEntity
  8
0
  6
HIDDEN
 62
     7
370
     0
100
AcDbLine
 10
122.9339974914
 20
137.646867249
 30
0.0
 11
122.9339974914
 21
140.9755986936
 31
0.0
  0
ARC
  5
1F6
330
1F
100
AcDbEntity
  8
0
  6
HIDDEN
 62
     7
370
     0
100
AcDbCircle
 10
119.3839974914
 20
97.9762648344
 30
0.0
 40
1.5
100
AcDbArc
 50
238.2116693829
 51
0.0
  0
ARC
  5
1F7
330
1F
100
AcDbEntity
  8
0
  6
HIDDEN
 62
     7
370
     0
100
AcDbCircle
 10
119.3839974914
 20
129.4262648344
 30
0.0
 40
1.500000000000001
100
AcDbArc
 50
0.0
 51
121.7883306171
  0
LINE
  5
1F8
330
1F
100
AcDbEntity
  8
0
  6
HIDDEN
 62
     7
370
     0
100
AcDbLine
 10
89.1339974914
 20
96.7012648344
 30
0.0
 11
91.9379720876
 21
96.7012648344
 31
0.0
  0
LINE
  5
1F9
330
1F
100
AcDbEntity
  8
0
  6
HIDDEN
 62
     7
370
     0
100
AcDbLine
 10
91.9379720876
 20
130.7012648344
 30
0.0
 11
85.1339974914
 21
130.7012648344
 31
0.0
  0
LINE
  5
1FA
330
1F
100
AcDbEntity
  8
0
  6
HIDDEN
 62
     7
370
     0
100
AcDbLine
 10
110.9339974914
 20
96.7012648344
 30
0.0
 11
118.5938234599
 21
96.7012648344
 31
0.0
  0
LINE
  5
1FB
330
1F
100
AcDbEntity
  8
0
  6
HIDDEN
 62
     7
370
     0
100
AcDbLine
 10
118.5938234599
 20
130.7012648344
 30
0.0
 11
110.9339974914
 21
130.7012648344
 31
0.0
  0
ARC
  5
1FC
330
1F
100
AcDbEntity
  8
0
  6
HIDDEN
 62
     7
370
     0
100
AcDbCircle
 10
196.9339974914
 20
130.5705515722
 30
0.0
 40
1.000000000000013
100
AcDbArc
 50
278.0
 51
0.0
  0
ARC
  5
1FD
330
1F
100
AcDbEntity
  8
0
  6
HIDDEN
 62
     7
370
     0
100
AcDbCircle
 10
196.9339974914
 20
96.8319780966
 30
0.0
 40
1.0
100
AcDbArc
 50
0.0
 51
82.0
  0
LINE
  5
1FE
330
1F
100
AcDbEntity
  8
0
  6
HIDDEN
 62
     7
370
     0
100
AcDbLine
 10
197.0731705924
 20
129.5802835034
 30
0.0
 11
167.6936761713
 21
125.4512648344
 31
0.0
  0
LINE
  5
1FF
330
1F
100
AcDbEntity
  8
0
  6
HIDDEN
 62
     7
370
     0
100
AcDbLine
 10
167.6936761713
 20
101.9512648344
 30
0.0
 11
197.0731705924
 21
97.8222461653
 31
0.0
  0
LINE
  5
200
330
1F
100
AcDbEntity
  8
0
  6
HIDDEN
 62
     7
370
     0
100
AcDbLine
 10
167.6936761713
 20
125.4512648344
 30
0.0
 11
163.9339974914
 21
125.4512648344
 31
0.0
  0
LINE
  5
201
330
1F
100
AcDbEntity
  8
0
  6
HIDDEN
 62
     7
370
     0
100
AcDbLine
 10
163.9339974914
 20
101.9512648344
 30
0.0
 11
167.6936761713
 21
101.9512648344
 31
0.0
  0
LINE
  5
202
330
1F
100
AcDbEntity
  8
0
  6
HIDDEN
 62
     7
370
     0
100
AcDbLine
 10
163.9339974914
 20
125.4512648344
 30
0.0
 11
161.0195746279
 21
119.2012648344
 31
0.0
  0
LINE
  5
203
330
1F
100
AcDbEntity
  8
0
  6
HIDDEN
 62
     7
370
     0
100
AcDbLine
 10
161.0195746279
 20
108.2012648344
 30
0.0
 11
163.9339974914
 21
101.9512648344
 31
0.0
  0
LINE
  5
204
330
1F
100
AcDbEntity
  8
0
  6
HIDDEN
 62
     7
370
     0
100
AcDbLine
 10
129.7339974914
 20
104.2012648344
 30
0.0
 11
132.7339974914
 21
104.2012648344
 31
0.0
  0
LINE
  5
205
330
1F
100
AcDbEntity
  8
0
  6
HIDDEN
 62
     7
370
     0
100
AcDbLine
 10
132.7339974914
 20
123.2012648344
 30
0.0
 11
129.7339974914
 21
123.2012648344
 31
0.0
  0
LINE
  5
206
330
1F
100
AcDbEntity
  8
0
  6
HIDDEN
 62
     7
370
     0
100
AcDbLine
 10
120.8839974914
 20
104.7012648344
 30
0.0
 11
121.3839974914
 21
105.2012648344
 31
0.0
  0
LINE
  5
207
330
1F
100
AcDbEntity
  8
0
  6
HIDDEN
 62
     7
370
     0
100
AcDbLine
 10
121.3839974914
 20
122.2012648344
 30
0.0
 11
120.8839974914
 21
122.7012648344
 31
0.0
  0
LINE
  5
208
330
1F
100
AcDbEntity
  8
0
  6
HIDDEN
 62
     7
370
     0
100
AcDbLine
 10
121.3839974914
 20
105.2012648344
 30
0.0
 11
129.7339974914
 21
105.2012648344
 31
0.0
  0
LINE
  5
209
330
1F
100
AcDbEntity
  8
0
  6
HIDDEN
 62
     7
370
     0
100
AcDbLine
 10
129.7339974914
 20
122.2012648344
 30
0.0
 11
121.3839974914
 21
122.2012648344
 31
0.0
  0
LINE
  5
20A
330
1F
100
AcDbEntity
  8
0
  6
HIDDEN
 62
     7
370
     0
100
AcDbLine
 10
115.8839974914
 20
145.2012648344
 30
0.0
 11
115.8839974914
 21
140.1012648344
 31
0.0
  0
LINE
  5
20B
330
1F
100
AcDbEntity
  8
0
  6
HIDDEN
 62
     7
370
     0
100
AcDbLine
 10
161.0195746279
 20
119.2012648344
 30
0.0
 11
135.9339974914
 21
119.2012648344
 31
0.0
  0
LINE
  5
20C
330
1F
100
AcDbEntity
  8
0
  6
HIDDEN
 62
     7
370
     0
100
AcDbLine
 10
135.9339974914
 20
108.2012648344
 30
0.0
 11
161.0195746279
 21
108.2012648344
 31
0.0
  0
LINE
  5
20D
330
1F
100
AcDbEntity
  8
0
  6
HIDDEN
 62
     7
370
     0
100
AcDbLine
 10
135.9339974914
 20
119.2012648344
 30
0.0
 11
135.1528786867
 21
117.9012648344
 31
0.0
  0
LINE
  5
20E
330
1F
100
AcDbEntity
  8
0
  6
HIDDEN
 62
     7
370
     0
100
AcDbLine
 10
135.1528786867
 20
109.5012648344
 30
0.0
 11
135.9339974914
 21
108.2012648344
 31
0.0
  0
LINE
  5
20F
330
1F
100
AcDbEntity
  8
0
  6
HIDDEN
 62
     7
370
     0
100
AcDbLine
 10
106.1184353219
 20
89.6218935008
 30
0.0
 11
105.6840031724
 21
90.1009595199
 31
0.0
  0
LINE
  5
210
330
1F
100
AcDbEntity
  8
0
  6
HIDDEN
 62
     7
370
     0
100
AcDbLine
 10
98.1839998473
 20
90.5226474791
 30
0.0
 11
97.701566104
 21
90.0435815036
 31
0.0
  0
LINE
  5
211
330
1F
100
AcDbEntity
  8
0
  6
HIDDEN
 62
     7
370
     0
100
AcDbLine
 10
97.7014441757
 20
137.3589428747
 30
0.0
 11
98.1839949267
 21
136.8798226168
 31
0.0
  0
LINE
  5
212
330
1F
100
AcDbEntity
  8
0
  6
HIDDEN
 62
     7
370
     0
100
AcDbLine
 10
105.6839973734
 20
137.3015203945
 30
0.0
 11
106.1185397637
 21
137.780640645
 31
0.0
  0
LINE
  5
213
330
1F
100
AcDbEntity
  8
0
  6
HIDDEN
 62
     7
370
     0
100
AcDbLine
 10
132.7339974914
 20
109.5012648344
 30
0.0
 11
135.1528786867
 21
109.5012648344
 31
0.0
  0
LINE
  5
214
330
1F
100
AcDbEntity
  8
0
  6
HIDDEN
 62
     7
370
     0
100
AcDbLine
 10
135.1528786867
 20
117.9012648344
 30
0.0
 11
132.7339974914
 21
117.9012648344
 31
0.0
  0
LINE
  5
215
330
1F
100
AcDbEntity
  8
0
  6
HIDDEN
 62
     7
370
     0
100
AcDbLine
 10
105.6839974914
 20
90.1014434216
 30
0.0
 11
105.6839974914
 21
93.7634286437
 31
0.0
  0
LINE
  5
216
330
1F
100
AcDbEntity
  8
0
  6
HIDDEN
 62
     7
370
     0
100
AcDbLine
 10
98.1839974914
 20
93.7018490956
 30
0.0
 11
98.1839974914
 21
90.5229707169
 31
0.0
  0
LINE
  5
217
330
1F
100
AcDbEntity
  8
0
  6
HIDDEN
 62
     7
370
     0
100
AcDbLine
 10
105.6839974914
 20
133.639101025
 30
0.0
 11
105.6839974914
 21
137.3012290884
 31
0.0
  0
LINE
  5
218
330
1F
100
AcDbEntity
  8
0
  6
HIDDEN
 62
     7
370
     0
100
AcDbLine
 10
98.1839974914
 20
136.8796788376
 30
0.0
 11
98.1839974914
 21
133.7006805731
 31
0.0
  0
LINE
  5
219
330
1F
100
AcDbEntity
  8
0
  6
HIDDEN
 62
     7
370
     0
100
AcDbLine
 10
144.3839974914
 20
136.2012648344
 30
0.0
 11
145.3839974914
 21
135.6239145652
 31
0.0
  0
LINE
  5
21A
330
1F
100
AcDbEntity
  8
0
  6
HIDDEN
 62
     7
370
     0
100
AcDbLine
 10
150.3839974914
 20
135.6239145652
 30
0.0
 11
151.3839974914
 21
136.2012648344
 31
0.0
  0
LINE
  5
21B
330
1F
100
AcDbEntity
  8
0
  6
HIDDEN
 62
     7
370
     0
100
AcDbLine
 10
151.3839974914
 20
91.2012648344
 30
0.0
 11
150.3839974914
 21
91.7786151036
 31
0.0
  0
LINE
  5
21C
330
1F
100
AcDbEntity
  8
0
  6
HIDDEN
 62
     7
370
     0
100
AcDbLine
 10
145.3839974914
 20
91.7786151036
 30
0.0
 11
144.3839974914
 21
91.2012648344
 31
0.0
  0
LINE
  5
21D
330
1F
100
AcDbEntity
  8
0
  6
HIDDEN
 62
     7
370
     0
100
AcDbLine
 10
145.3839974914
 20
135.6239145652
 30
0.0
 11
145.3839974914
 21
124.2012648344
 31
0.0
  0
LINE
  5
21E
330
1F
100
AcDbEntity
  8
0
  6
HIDDEN
 62
     7
370
     0
100
AcDbLine
 10
150.3839974914
 20
124.2012648344
 30
0.0
 11
150.3839974914
 21
135.6239145652
 31
0.0
  0
LINE
  5
21F
330
1F
100
AcDbEntity
  8
0
  6
HIDDEN
 62
     7
370
     0
100
AcDbLine
 10
145.3839974914
 20
124.2012648344
 30
0.0
 11
147.8839974914
 21
122.6991132868
 31
0.0
  0
LINE
  5
220
330
1F
100
AcDbEntity
  8
0
  6
HIDDEN
 62
     7
370
     0
100
AcDbLine
 10
147.8839974914
 20
122.6991132868
 30
0.0
 11
150.3839974914
 21
124.2012648344
 31
0.0
  0
LINE
  5
221
330
1F
100
AcDbEntity
  8
0
  6
HIDDEN
 62
     7
370
     0
100
AcDbLine
 10
150.3839974914
 20
91.7786151036
 30
0.0
 11
150.3839974914
 21
103.2012648344
 31
0.0
  0
LINE
  5
222
330
1F
100
AcDbEntity
  8
0
  6
HIDDEN
 62
     7
370
     0
100
AcDbLine
 10
145.3839974914
 20
103.2012648344
 30
0.0
 11
145.3839974914
 21
91.7786151036
 31
0.0
  0
LINE
  5
223
330
1F
100
AcDbEntity
  8
0
  6
HIDDEN
 62
     7
370
     0
100
AcDbLine
 10
150.3839974914
 20
103.2012648344
 30
0.0
 11
147.8839974914
 21
104.7034163819
 31
0.0
  0
LINE
  5
224
330
1F
100
AcDbEntity
  8
0
  6
HIDDEN
 62
     7
370
     0
100
AcDbLine
 10
147.8839974914
 20
104.7034163819
 30
0.0
 11
145.3839974914
 21
103.2012648344
 31
0.0
  0
LINE
  5
225
330
1F
100
AcDbEntity
  8
0
  6
HIDDEN
 62
     7
370
     0
100
AcDbLine
 10
145.5195746279
 20
107.7012648344
 30
0.0
 11
160.5195746279
 21
107.7012648344
 31
0.0
  0
LINE
  5
226
330
1F
100
AcDbEntity
  8
0
  6
HIDDEN
 62
     7
370
     0
100
AcDbLine
 10
160.5195746279
 20
119.7012648344
 30
0.0
 11
145.5195746279
 21
119.7012648344
 31
0.0
  0
LINE
  5
227
330
1F
100
AcDbEntity
  8
0
  6
HIDDEN
 62
     7
370
     0
100
AcDbLine
 10
160.5195746279
 20
107.7012648344
 30
0.0
 11
161.0195746279
 21
108.2012648344
 31
0.0
  0
LINE
  5
228
330
1F
100
AcDbEntity
  8
0
  6
HIDDEN
 62
     7
370
     0
100
AcDbLine
 10
161.0195746279
 20
119.2012648344
 30
0.0
 11
160.5195746279
 21
119.7012648344
 31
0.0
  0
LINE
  5
229
330
1F
100
AcDbEntity
  8
0
  6
HIDDEN
 62
     7
370
     0
100
AcDbLine
 10
145.5195746279
 20
119.7012648344
 30
0.0
 11
145.0195746279
 21
119.2012648344
 31
0.0
  0
LINE
  5
22A
330
1F
100
AcDbEntity
  8
0
  6
HIDDEN
 62
     7
370
     0
100
AcDbLine
 10
145.0195746279
 20
108.2012648344
 30
0.0
 11
145.5195746279
 21
107.7012648344
 31
0.0
  0
LINE
  5
22B
330
1F
100
AcDbEntity
  8
0
  6
HIDDEN
 62
     7
370
     0
100
AcDbLine
 10
161.0195746279
 20
108.2012648344
 30
0.0
 11
165.0195746279
 21
108.2012648344
 31
0.0
  0
LINE
  5
22C
330
1F
100
AcDbEntity
  8
0
  6
HIDDEN
 62
     7
370
     0
100
AcDbLine
 10
165.0195746279
 20
119.2012648344
 30
0.0
 11
161.0195746279
 21
119.2012648344
 31
0.0
  0
LINE
  5
22D
330
1F
100
AcDbEntity
  8
0
  6
HIDDEN
 62
     7
370
     0
100
AcDbLine
 10
152.0195746279
 20
110.7012648344
 30
0.0
 11
158.0195746279
 21
110.7012648344
 31
0.0
  0
LINE
  5
22E
330
1F
100
AcDbEntity
  8
0
  6
HIDDEN
 62
     7
370
     0
100
AcDbLine
 10
158.0195746279
 20
116.7012648344
 30
0.0
 11
152.0195746279
 21
116.7012648344
 31
0.0
  0
POINT
  5
22F
330
1F
100
AcDbEntity
  8
VERMASSUNG
100
AcDbPoint
 10
197.9339974914
 20
129.7012648344
 30
0.0
  0
POINT
  5
230
330
1F
100
AcDbEntity
  8
VERMASSUNG
100
AcDbPoint
 10
197.9339974914
 20
97.7012648344
 30
0.0
  0
DIMENSION
  5
231
330
1F
100
AcDbEntity
  8
VERMASSUNG
100
AcDbDimension
  2
*D1
 10
218.5780272268
 20
129.7012648344
 30
0.0
 11
218.5780272268
 21
113.6394922716
 31
0.0
 70
   160
  1
ER<>
 71
     2
 42
-1.0
  3
SLDDIMSTYLE0
100
AcDbAlignedDimension
 13
197.9339974914
 23
97.7012648344
 33
0.0
 14
197.9339974914
 24
129.7012648344
 34
0.0
 50
90.0
100
AcDbRotatedDimension
  0
DIMENSION
  5
23D
330
1F
100
AcDbEntity
  8
VERMASSUNG
100
AcDbDimension
  2
*D2
 10
71.1980190815
 20
82.2012648344
 30
0.0
 11
71.1980190815
 21
111.8351046701
 31
0.0
 70
   160
  1
HSK A %%c<>
 71
     2
 42
-1.0
  3
SLDDIMSTYLE0
100
AcDbAlignedDimension
 13
111.2339974914
 23
145.2012648344
 33
0.0
 14
111.2339974914
 24
82.2012648344
 34
0.0
 50
90.0
100
AcDbRotatedDimension
  0
DIMENSION
  5
249
330
1F
100
AcDbEntity
  8
VERMASSUNG
100
AcDbDimension
  2
*D3
 10
210.9339974914
 20
152.9321582688
 30
0.0
 11
173.9089974914
 21
152.9321582688
 31
0.0
 70
   160
 71
     2
 42
-1.0
  3
SLDDIMSTYLE0
100
AcDbAlignedDimension
 13
136.8839974914
 23
143.5477051581
 33
0.0
 14
210.9339974914
 24
103.8451382661
 34
0.0
100
AcDbRotatedDimension
  0
DIMENSION
  5
253
330
1F
100
AcDbEntity
  8
VERMASSUNG
100
AcDbDimension
  2
*D4
 10
210.9339974914
 20
158.9321582688
 30
0.0
 11
160.9339974914
 21
158.9321582688
 31
0.0
 70
   160
 71
     2
 42
-1.0
  3
SLDDIMSTYLE0
100
AcDbAlignedDimension
 13
110.9339974914
 23
144.9012648344
 33
0.0
 14
210.9339974914
 24
103.8451382661
 34
0.0
100
AcDbRotatedDimension
  0
DIMENSION
  5
25D
330
1F
100
AcDbEntity
  8
VERMASSUNG
100
AcDbDimension
  2
*D5
 10
210.9339974914
 20
164.9321582688
 30
0.0
 11
144.9839974914
 21
164.9321582688
 31
0.0
 70
   160
 71
     2
 42
-1.0
  3
SLDDIMSTYLE0
100
AcDbAlignedDimension
 13
79.0339974914
 23
133.3919425808
 33
0.0
 14
210.9339974914
 24
103.8451382661
 34
0.0
100
AcDbRotatedDimension
  0
DIMENSION
  5
267
330
1F
100
AcDbEntity
  8
VERMASSUNG
100
AcDbDimension
  2
*D6
 10
210.9339974914
 20
146.9321582688
 30
0.0
 11
187.4339974914
 21
146.9321582688
 31
0.0
 70
   160
 71
     2
 42
-1.0
  3
SLDDIMSTYLE0
100
AcDbAlignedDimension
 13
163.9339974914
 23
125.4512648344
 33
0.0
 14
210.9339974914
 24
132.7012648344
 34
0.0
100
AcDbRotatedDimension
  0
DIMENSION
  5
271
330
1F
100
AcDbEntity
  8
VERMASSUNG
100
AcDbDimension
  2
*D7
 10
224.5780272268
 20
91.2012648344
 30
0.0
 11
224.5780272268
 21
113.6394922716
 31
0.0
 70
   160
  1
%%c<>
 71
     2
 42
-1.0
  3
SLDDIMSTYLE0
100
AcDbAlignedDimension
 13
156.8839974914
 23
136.2012648344
 33
0.0
 14
156.8839974914
 24
91.2012648344
 34
0.0
 50
90.0
100
AcDbRotatedDimension
  0
DIMENSION
  5
27C
330
1F
100
AcDbEntity
  8
VERMASSUNG
100
AcDbDimension
  2
*D8
 10
230.5780272268
 20
88.8512648344
 30
0.0
 11
230.5780272268
 21
113.6394922716
 31
0.0
 70
   160
  1
%%c<>
 71
     2
 42
-1.0
  3
SLDDIMSTYLE0
100
AcDbAlignedDimension
 13
207.5564980014
 23
138.5512648344
 33
0.0
 14
207.5564980014
 24
88.8512648344
 34
0.0
 50
90.0
100
AcDbRotatedDimension
  0
LINE
  5
287
330
1F
100
AcDbEntity
  8
VERMASSUNG
  6
CENTERX2
370
     0
100
AcDbLine
 10
71.9560973311
 20
113.7012648344
 30
0.0
 11
212.1259781545
 21
113.7012648344
 31
0.0
  0
OLE2FRAME
  5
288
330
1F
100
AcDbEntity
  8
0
100
AcDbOle2Frame
 70
     2
  3
Bitmap Image
 10
13.8511154363
 20
38.264191557
 30
0.0
 11
51.6290888628
 21
31.9806341108
 31
0.0
 71
     2
 72
     0
 73
     1
 90
    12928
310
80552BED0767C5B32B40DDAF6807D121434000000000000000006FFBDDFB85D0
310
4940DDAF6807D121434000000000000000006FFBDDFB85D04940416F4BD60AFB
310
3F4000000000000000002BED0767C5B32B40416F4BD60AFB3F40000000000000
310
0000000000000100000000010000010000000100000000000100000000320000
310
D0CF11E0A1B11AE1000000000000000000000000000000003E000300FEFF0900
310
0600000000000000000000000100000001000000000000000010000002000000
310
01000000FEFFFFFF0000000000000000FFFFFFFFFFFFFFFFFFFFFFFFFFFFFFFF
310
FFFFFFFFFFFFFFFFFFFFFFFFFFFFFFFFFFFFFFFFFFFFFFFFFFFFFFFFFFFFFFFF
310
FFFFFFFFFFFFFFFFFFFFFFFFFFFFFFFFFFFFFFFFFFFFFFFFFFFFFFFFFFFFFFFF
310
FFFFFFFFFFFFFFFFFFFFFFFFFFFFFFFFFFFFFFFFFFFFFFFFFFFFFFFFFFFFFFFF
310
FFFFFFFFFFFFFFFFFFFFFFFFFFFFFFFFFFFFFFFFFFFFFFFFFFFFFFFFFFFFFFFF
310
FFFFFFFFFFFFFFFFFFFFFFFFFFFFFFFFFFFFFFFFFFFFFFFFFFFFFFFFFFFFFFFF
310
FFFFFFFFFFFFFFFFFFFFFFFFFFFFFFFFFFFFFFFFFFFFFFFFFFFFFFFFFFFFFFFF
310
FFFFFFFFFFFFFFFFFFFFFFFFFFFFFFFFFFFFFFFFFFFFFFFFFFFFFFFFFFFFFFFF
310
FFFFFFFFFFFFFFFFFFFFFFFFFFFFFFFFFFFFFFFFFFFFFFFFFFFFFFFFFFFFFFFF
310
FFFFFFFFFFFFFFFFFFFFFFFFFFFFFFFFFFFFFFFFFFFFFFFFFFFFFFFFFFFFFFFF
310
FFFFFFFFFFFFFFFFFFFFFFFFFFFFFFFFFFFFFFFFFFFFFFFFFFFFFFFFFFFFFFFF
310
FFFFFFFFFFFFFFFFFFFFFFFFFFFFFFFFFFFFFFFFFFFFFFFFFFFFFFFFFFFFFFFF
310
FFFFFFFFFFFFFFFFFFFFFFFFFFFFFFFFFFFFFFFFFFFFFFFFFFFFFFFFFFFFFFFF
310
FFFFFFFFFFFFFFFFFFFFFFFFFFFFFFFFFFFFFFFFFFFFFFFFFFFFFFFFFFFFFFFF
310
FDFFFFFFFEFFFFFFFEFFFFFFFEFFFFFF05000000060000000700000008000000
310
090000000A0000000B0000000C0000000D0000000E0000000F00000010000000
310
11000000120000001300000014000000150000001600000017000000FEFFFFFF
310
FFFFFFFFFFFFFFFFFFFFFFFFFFFFFFFFFFFFFFFFFFFFFFFFFFFFFFFFFFFFFFFF
310
FFFFFFFFFFFFFFFFFFFFFFFFFFFFFFFFFFFFFFFFFFFFFFFFFFFFFFFFFFFFFFFF
310
FFFFFFFFFFFFFFFFFFFFFFFFFFFFFFFFFFFFFFFFFFFFFFFFFFFFFFFFFFFFFFFF
310
FFFFFFFFFFFFFFFFFFFFFFFFFFFFFFFFFFFFFFFFFFFFFFFFFFFFFFFFFFFFFFFF
310
FFFFFFFFFFFFFFFFFFFFFFFFFFFFFFFFFFFFFFFFFFFFFFFFFFFFFFFFFFFFFFFF
310
FFFFFFFFFFFFFFFFFFFFFFFFFFFFFFFFFFFFFFFFFFFFFFFFFFFFFFFFFFFFFFFF
310
FFFFFFFFFFFFFFFFFFFFFFFFFFFFFFFFFFFFFFFFFFFFFFFFFFFFFFFFFFFFFFFF
310
FFFFFFFFFFFFFFFFFFFFFFFFFFFFFFFFFFFFFFFFFFFFFFFFFFFFFFFFFFFFFFFF
310
FFFFFFFFFFFFFFFFFFFFFFFFFFFFFFFFFFFFFFFFFFFFFFFFFFFFFFFFFFFFFFFF
310
FFFFFFFFFFFFFFFFFFFFFFFFFFFFFFFFFFFFFFFFFFFFFFFFFFFFFFFFFFFFFFFF
310
FFFFFFFFFFFFFFFFFFFFFFFFFFFFFFFFFFFFFFFFFFFFFFFFFFFFFFFFFFFFFFFF
310
FFFFFFFFFFFFFFFFFFFFFFFFFFFFFFFFFFFFFFFFFFFFFFFFFFFFFFFFFFFFFFFF
310
FFFFFFFFFFFFFFFFFFFFFFFFFFFFFFFFFFFFFFFFFFFFFFFFFFFFFFFFFFFFFFFF
310
52006F006F007400200045006E00740072007900000000000000000000000000
310
0000000000000000000000000000000000000000000000000000000000000000
310
16000500FFFFFFFFFFFFFFFF020000000A00030000000000C000000000000046
310
000000000000000000000000B04B927073E8CB0103000000C000000000000000
310
01004F006C006500000000000000000000000000000000000000000000000000
310
0000000000000000000000000000000000000000000000000000000000000000
310
0A000200FFFFFFFFFFFFFFFFFFFFFFFF00000000000000000000000000000000
310
0000000000000000000000000000000000000000000000001400000000000000
310
010043006F006D0070004F0062006A0000000000000000000000000000000000
310
0000000000000000000000000000000000000000000000000000000000000000
310
120002010100000003000000FFFFFFFF00000000000000000000000000000000
310
0000000000000000000000000000000000000000010000004D00000000000000
310
01004F006C006500310030004E00610074006900760065000000000000000000
310
0000000000000000000000000000000000000000000000000000000000000000
310
1A000200FFFFFFFFFFFFFFFFFFFFFFFF00000000000000000000000000000000
310
0000000000000000000000000000000000000000040000002426000000000000
310
FEFFFFFF02000000FEFFFFFFFFFFFFFFFFFFFFFFFFFFFFFFFFFFFFFFFFFFFFFF
310
FFFFFFFFFFFFFFFFFFFFFFFFFFFFFFFFFFFFFFFFFFFFFFFFFFFFFFFFFFFFFFFF
310
FFFFFFFFFFFFFFFFFFFFFFFFFFFFFFFFFFFFFFFFFFFFFFFFFFFFFFFFFFFFFFFF
310
FFFFFFFFFFFFFFFFFFFFFFFFFFFFFFFFFFFFFFFFFFFFFFFFFFFFFFFFFFFFFFFF
310
FFFFFFFFFFFFFFFFFFFFFFFFFFFFFFFFFFFFFFFFFFFFFFFFFFFFFFFFFFFFFFFF
310
FFFFFFFFFFFFFFFFFFFFFFFFFFFFFFFFFFFFFFFFFFFFFFFFFFFFFFFFFFFFFFFF
310
FFFFFFFFFFFFFFFFFFFFFFFFFFFFFFFFFFFFFFFFFFFFFFFFFFFFFFFFFFFFFFFF
310
FFFFFFFFFFFFFFFFFFFFFFFFFFFFFFFFFFFFFFFFFFFFFFFFFFFFFFFFFFFFFFFF
310
FFFFFFFFFFFFFFFFFFFFFFFFFFFFFFFFFFFFFFFFFFFFFFFFFFFFFFFFFFFFFFFF
310
FFFFFFFFFFFFFFFFFFFFFFFFFFFFFFFFFFFFFFFFFFFFFFFFFFFFFFFFFFFFFFFF
310
FFFFFFFFFFFFFFFFFFFFFFFFFFFFFFFFFFFFFFFFFFFFFFFFFFFFFFFFFFFFFFFF
310
FFFFFFFFFFFFFFFFFFFFFFFFFFFFFFFFFFFFFFFFFFFFFFFFFFFFFFFFFFFFFFFF
310
FFFFFFFFFFFFFFFFFFFFFFFFFFFFFFFFFFFFFFFFFFFFFFFFFFFFFFFFFFFFFFFF
310
FFFFFFFFFFFFFFFFFFFFFFFFFFFFFFFFFFFFFFFFFFFFFFFFFFFFFFFFFFFFFFFF
310
FFFFFFFFFFFFFFFFFFFFFFFFFFFFFFFFFFFFFFFFFFFFFFFFFFFFFFFFFFFFFFFF
310
FFFFFFFFFFFFFFFFFFFFFFFFFFFFFFFFFFFFFFFFFFFFFFFFFFFFFFFFFFFFFFFF
310
0100000200000000000000000000000000000000000000003200820000000005
310
E80525000000000060EEF10D0000000034104501000000006810D00000000000
310
0100FEFF030A0000FFFFFFFF0A00030000000000C00000000000004607000000
310
5042727573680007000000504272757368000700000050427275736800F439B2
310
7100000000000000000000000000000000000000000000000000C70600000000
310
425D000000000000000000000000000000000000000000003800000041000000
310
341045010000000018106E010000000000000000000000000000000000000000
310
0000C70600000000435D00000000000000000000000000000000000000000000
310
3800000041000000341045010000000014105E01000000000000000000000000
310
00000000000000000000C706000000003D5D0000000000000000000000000000
310
0000000000000000380000004100000034104501000000004C109C0000000000
310
000000000000000000000000000000000000C706000000003E5D000000000000
310
0000000000000000000000000000000038000000410000003410450100000000
310
2210170200000000000000000000000000000000000000000000C70600000000
310
3F5D000000000000000000000000000000000000000000003800000041000000
310
3410450100000000A01058010000000000000000000000000000000000000000
310
20260000424D0E260000000000003E00000028000000B40200006E0000000100
310
01000000000000000000130B0000130B00000200000002000000000000FFFFFF
310
FFFFFFFFFFFFFFFFFFFFFFFFFFFFFFFFFFFFFFFFFFFFFFFFFFFFFFFFFFFFFFFF
310
FFFFFFFFFFFFFFFFFFFFFFFFFFFFFFFFFFFFFFFFFFFFFFFFFFFFFFFFFFFFFFFF
310
FFFFFFFFFFFFFFFFFFFFFFFFFFFFFFFFFFFFFFFFFFFFFFFFF000FFFFFFFFFFFF
310
FFFFFFFFFFFFFFFFFFFFFFFFFFFFFFFFFFFFFFFFFFFFFFFFFFFFFFFFFFFFFFFF
310
FFFFFFFFFFFFFFFFFFFFFFFFFFFFFFFFFFFFFFFFFFFFFFFFFFFFFFFFFFFFFFFF
310
FFFFFFFFFFFFFFFFFFFFFFFFFFFFFFFFF000FFFFFFFFFFFFFFFFFFFFFFFFFFFF
310
FFFFFFFFFFFFFFFFFFFFFFFFFFFFFFFFFFFFFFFFFFFFFFFFFFFFFFFFFFFFFFFF
310
FFFFFFFFFFFFFFFFFFFFFFFFFFFFFFFFFFFFFFFFFFFFFFFFFFFFFFFFFFFFFFFF
310
FFFFFFFFFFFFFFFFF000FFFFFFFFFFFFFFFFFFFFFFFFFFFFFFFFFFFFFFFFFFFF
310
FFFFFFFFFFFFFFFFFFFFFFFFFFFFFFFFFFFFFFFFFFFFFFFFFFFFFFFFFFFFFFFF
310
FFFFFFFFFFFFFFFFFFFFFFFFFFFFFFFFFFFFFFFFFFFFFFFFFFFFFFFFFFFFFFFF
310
F000FFFFFFFFFFFFFFFFFFFFFFFFFFFFFFFFFFFFFFFFFFFFFFFFFFFFFFFFFFFF
310
FFFFFFFFFFFFFFFFFFFFFFFFFFFFFFFFFFFFFFFFFFFFFFFFFFFFFFFFFFFFFFFF
310
FFFFFFFFFFFFFFFFFFFFFFFFFFFFFFFFFFFFFFFFFFFFFFFFF000FFFFFFFFFFFF
310
FFFFFFFFFFFFFFFFFFFFFFFFFFFFFFFFFFFFFFFFFFFFFFFFFFFFFFFFFFFFFFFF
310
FFFFFFFFFFFFFFFFFFFFFFFFFFFFFFFFFFFFFFFFFFFFFFFFFFFFFFFFFFFFFFFF
310
FFFFFFFFFFFFFFFFFFFFFFFFFFFFFFFFF000FFFFFFFFFFFFFFFFFFFFFFFFFFFF
310
FFFFFFFFFFFFFFFFFFFFFFFFFFFFFFFFFFFFFFFFFFFFFFFFFFFFFFFFFFFFFFFF
310
FFFFFFFFFFFFFFFFFFFFFFFFFFFFFFFFFFFFFFFFFFFFFFFFFFFFFFFFFFFFFFFF
310
FFFFFFFFFFFFFFFFF000FFFFFFFFFFFFFFFFFFFFFFFFFFFFFFFFFFFFFFFFFFFF
310
FFFFFFFFFFFFFFFFFFFFFFFFFFFFFFFFFFFFFFFFFFFFFFFFFFFFFFFFFFFFFFFF
310
FFFFFFFFFFFFFFFFFFFFFFFFFFFFFFFFFFFFFFFFFFFFFFFFFFFFFFFFFFFFFFFF
310
F000FFFFFFFFFFFFFFFFFFFFFFFFFFFFFFFFFFFFFFFFFFFFFFFFFFFFFFFFFFFF
310
FFFFFFFFFFFFFFFFFFFFFFFFFFFFFFFFFFFFFFFFFFFFFFFFFFFFFFFFFFFFFFFF
310
FFFFFFFFFFFFFFFFFFFFFFFFFFFFFFFFFFFFFFFFFFFFFFFFF000FFFFFFFFFFFF
310
FFFFFFFFFFFFFFFFFFFFFFFFFFFFFFFFFFFFFFFFFFFFFFFFFFFFFFFFFFFFFFFF
310
FFFFFFFFFFFFFFFFFFFFFFFFFFFFFFFFFFFFFFFFFFFFFFFFFFFFFFFFFFFFFFFF
310
FFFFFFFFFFFFFFFFFFFFFFFFFFFFFFFFF000FFFFFFFFFFFFFFFFFFFFFFFFFFFF
310
FFFFFFFFFFFFFFFFFFFFFFFFFFFFFFFFFFFFFFFFFFFFFFFFFFFFFFFFFFFFFFFF
310
FFFFFFFFFFFFFFFFFFFFFFFFFFFFFFFFFFFFFFFFFFFFFFFFFFFFFFFFFFFFFFFF
310
FFFFFFFFFFFFFFFFF000FFFFFFFFFFFFFFFFFFFFFFFFFFFFFFFFFFFFFFFFFFFF
310
FFFFFFFFFFFFFFFFFFFFFFFFFFFFFFFFFFFFFFFFFFFFFFFFFFFFFFFFFFFFFFFF
310
FFFFFFFFFFFFFFFFFFFFFFFFFFFFFFFFFFFFFFFFFFFFFFFFFFFFFFFFFFFFFFFF
310
F000FFFFFFFFFFFFFFFFFFFFFFFFFFFFFFFFFFFFFFFFFFFFFFFFFFFFFFFFFFFF
310
FFFFFFFFFFFFFFFFFFFFFFFFFFFFFFFFFFFFFFFFFFFFFFFFFFFFFFFFFFFFFFFF
310
FFFFFFFFFFFFFFFFFFFFFFFFFFFFFFFFFFFFFFFFFFFFFFFFF000FFFFFFFFFFFF
310
FFFFFFFFFFFFFFFFFFFFFFFFFFFFFFFFFFFFFFFFFFFFFFFFFFFFFFFFFFFFFFFF
310
FFFFFFFFFFFFFFFFFFFFFFFFFFFFFFFFFFFFFFFFFFFFFFFFFFFFFFFFFFFFFFFF
310
FFFFFFFFFFFFFFFFFFFFFFFFFFFFFFFFF000FFFFFFFFFFFFFFFFFFFFFFFFFFFF
310
FFFFFFFFFFFFFFFFFFFFFFFFFFFFFFFFFFFFFFFFFFFFFFFFFFFFFFFFFFFFFFFF
310
FFFFFFFFFFFFFFFFFFFFFFFFFFFFFFFFFFFFFFFFFFFFFFFFFFFFFFFFFFFFFFFF
310
FFFFFFFFFFFFFFFFF000FFFFFFFFFFFFFFFFFFFFFFFFFFFFFFFFFFFFFFFFFFFF
310
FFFFFFFFFFFFFFFFFFFFFFFFFFFFFFFFFFFFFFFFFFFFFFFFFFFFFFFFFFFFFFFF
310
FFFFFFFFFFFFFFFFFFFFFFFFFFFFFFFFFFFFFFFFFFFFFFFFFFFFFFFFFFFFFFFF
310
F000FFFFFFFFFFFFFFFFFFFFFFFFFFFFFFFFFFFFFFFFFFFFFFFFFFFFFFFFFFFF
310
FFFFFFFFFFFFFFFFFFFFFFFFFFFFFFFFFFFFFFFFFFFFFFFFFFFFFFFFFFFFFFFF
310
FFFFFFFFFFFFFFFFFFFFFFFFFFFFFFFFFFFFFFFFFFFFFFFFF000FFFFFFFFFFFF
310
FFFFFFFFFFFFFFFFFFFFFFFFFFFFFFFFFFFFFFFFFFFFFFFFFFFFFFFFFFFFFFFF
310
FFFFFFFFFFFFFFFFFFFFFFFFFFFFFFFFFFFFFFFFFFFFFFFFFFFFFFFFFFFFFFFF
310
FFFFFFFFFFFFFFFFFFFFFFFFFFFFFFFFF000FFFFFFFFFFFFFFFFFFFFFFFFFFFF
310
FFFFFFFFFFFFFFFFFFFFFFFFFFFFFFFFFFFFFFFFFFFFFFFFFFFFFFFFFFFFFFFF
310
FFFFFFFFFFFFFFFFFFFFFFFFFFFFFFFFFFFFFFFFFFFFFFFFFFFFFFFFFFFFFFFF
310
FFFFFFFFFFFFFFFFF000FFFFF80003FFFFFFFFFFFFFFFFFFFFFFFFFFFFFFFFFF
310
FFFFF00007FFFFFFFFFF00007FFFFFF800000000000000007FFFFFFFFFFFFFFF
310
FFFFFFFC001FFFFFFFFFFFFFFC001FFFFFFFFFFFFFFFFFFFFFFFFFFE0007FFFF
310
F000FFFF8000007FFFFFFFF8000FFFFFC0007FFFFF80007FFFFF0000007FFFFF
310
FFF8000007FFFFF800000000000000007FFFFFF0001FFFFFFFFFFFC00001FFFF
310
FFFFFFFFC00001FFFFFFFF000000000003FFFFE000007FFFF000FFFE0000000F
310
FFFFFFF0000FFFFF80007FFFFF80007FFFFC0000001FFFFFFFC0000001FFFFF8
310
00000000000000007FFFFFF0001FFFFFFFFFFE0000003FFFFFFFFFFE0000003F
310
FFFFFF000000000003FFFF0000000FFFF000FFF800000003FFFFFFF00007FFFF
310
80007FFFFF80007FFFF000000007FFFFFF000000003FFFF80000000000000000
310
7FFFFFF0001FFFFFFFFFF80000000FFFFFFFFFF80000000FFFFFFF0000000000
310
03FFFC00000003FFF000FFE000000000FFFFFFF00007FFFF80003FFFFF80007F
310
FFC000000001FFFFFC000000001FFFF800000000000000007FFFFFF0001FFFFF
310
FFFFE000000003FFFFFFFFE000000003FFFFFF000000000003FFF000000000FF
310
F000FF80000000007FFFFFF00007FFFF80003FFFFF80007FFF8000000000FFFF
310
F80000000007FFF800000000000000007FFFFFF0001FFFFFFFFFC000000001FF
310
FFFFFFC000000001FFFFFF000000000003FFC0000000007FF000FF0000000000
310
3FFFFFE00007FFFF00003FFFFF80007FFE00000000003FFFF00000000003FFF8
310
00000000000000007FFFFFF0001FFFFFFFFF8000000000FFFFFFFF8000000000
310
FFFFFF000000000003FF80000000003FF000FE00000000001FFFFFE00003FFFF
310
00003FFFFF80007FFC00000000001FFFE00000000001FFF8000001FFFE000000
310
7FFFFFF0001FFFFFFFFE00000000003FFFFFFE00000000003FFFFF0000000000
310
03FF00000000001FF000FC00000000000FFFFFE00003FFFF00001FFFFF80007F
310
F800000000001FFFC00000000000FFF8000001FFFE0000007FFFFFF0001FFFFF
310
FFFC00000000001FFFFFFC00000000001FFFFF000000000003FE00000000000F
310
F000F8000000000007FFFFE00003FFFF00001FFFFF80007FF800000000000FFF
310
800000000000FFF8000001FFFE0000007FFFFFF0001FFFFFFFF800000000000F
310
FFFFF800000000000FFFFF000000000003FC000000000007F000F80000000000
310
03FFFFC00003FFFE00001FFFFF80007FF0000000000007FF0000000000007FF8
310
000001FFFE0000007FFFFFF0001FFFFFFFF0000000000007FFFFF00000000000
310
07FFFF000000000003F8000000000003F000F0000000000003FFFFC00001FFFE
310
00001FFFFF80007FE0000000000007FE0000000000003FF8000001FFFE000000
310
7FFFFFF0001FFFFFFFF0000000000007FFFFF0000000000007FFFF0000000000
310
03F800001F800003F000E00001FFF00001FFFFC00001FFFE00000FFFFF80007F
310
E00001FFE00003FE00001FFF00003FF8000001FFFE0000007FFFFFF0001FFFFF
310
FFE000003E000003FFFFE000003E000003FFFF000000000003F00001FFF80001
310
F000E00007FFFC0001FFFFC00001FFFE00000FFFFF80007FC0000FFFFC0003FC
310
0000FFFFC0001FF8000001FFFE0000007FFFFFF0001FFFFFFFC00003FFE00001
310
FFFFC00003FFE00001FFFF0001FFFFFFFFF00007FFFE0001F000E0000FFFFF00
310
00FFFF800001FFFC00000FFFFF80007FC0001FFFFE0001FC0001FFFFE0001FF8
310
000001FFFE0000007FFFFFF0001FFFFFFF80000FFFF80000FFFF80000FFFF800
310
00FFFF0003FFFFFFFFE0000FFFFF8000F000C0003FFFFF8000FFFF800000FFFC
310
000007FFFF80007F80003FFFFF0001FC0003FFFFF0001FF8000001FFFE000000
310
7FFFFFF0001FFFFFFF80003FFFFE0000FFFF80003FFFFE0000FFFF0003FFFFFF
310
FFE0003FFFFF8000F000C0003FFFFF8000FFFF800000FFFC000007FFFF80007F
310
80007FFFFF8001F80007FFFFF8000FF8000001FFFE0000007FFFFFF0001FFFFF
310
FF00007FFFFF00007FFF00007FFFFF00007FFF0003FFFFFFFFE0003FFFFFC000
310
F000C0007FFFFFC000FFFF000000FFFC000007FFFF80007F8000FFFFFF8000F8
310
000FFFFFF8000FF8000001FFFE0000007FFFFFF0001FFFFFFF0000FFFFFF8000
310
7FFF0000FFFFFF80007FFF0003FFFFFFFFC0007FFFFFC00070008000FFFFFFC0
310
00FFFF000000FFF8000007FFFF80007F8000FFFFFF8000F8000FFFFFF8000FF8
310
000001FFFE0000007FFFFFF0001FFFFFFE0001FFFFFFC0003FFE0001FFFFFFC0
310
003FFF0003FFFFFFFFC0007FFFFFE00070008000FFFFFFC0007FFF0000007FF8
310
000003FFFF80007F0001FFFFFF8000F8000FFFFFF8000FF8000001FFFE000000
310
7FFFFFF0001FFFFFFE0001FFFFFFC0003FFE0001FFFFFFC0003FFF0003FFFFFF
310
FFC000FFFFFFE00070008000FFFFFFC0007FFF0000007FF8000003FFFF80007F
310
0001FFFFFF8000F8001FFFFFF8000FF8000001FFFE0000007FFFFFF0001FFFFF
310
FE0003FFFFFFE0003FFE0003FFFFFFE0003FFF0003FFFFFFFFC000FFFFFFE000
310
70008000FFFFFFC0007FFE0000007FF8000003FFFF80007F0001FFFFFF8000F0
310
001FFFFFF8000FF8000001FFFE0000007FFFFFF0001FFFFFFC0003FFFFFFE000
310
1FFC0003FFFFFFE0001FFF0003FFFFFFFFC000FFFFFFC00070008000FFFFFF80
310
007FFE0000007FF0000003FFFF80007F0001FFFFFF0000F0001FFFFFF8000FF8
310
000001FFFE0000007FFFFFF0001FFFFFFC0007FFFFFFF0001FFC0007FFFFFFF0
310
001FFF0003FFFFFFFFC000FFFFFFC00070008001FFFFFF0000FFFE0000003FF0
310
000001FFFF80007F0001FFFFFF0000F8001FFFFFF0000FF8000001FFFE000000
310
7FFFFFF0001FFFFFFC0007FFFFFFF0001FFC0007FFFFFFF0001FFF0003FFFFFF
310
FFC001FFFFFF80007000FFFFFFFFFE0000FFFE0008003FF0008001FFFF80007F
310
FFFFFFFFFC0000FFFFFFFFFFE0000FF8000001FFFE0000007FFFFFF0001FFFFF
310
F8000FFFFFFFF8000FF8000FFFFFFFF8000FFF0003FFFFFFFFFFFFFFFFFF0000
310
7000FFFFFFFFFC0000FFFC0008003FF0008001FFFF80007FFFFFFFFFF80001FF
310
FFFFFFFF80000FF8000001FFFE0000007FFFFFF0001FFFFFF8000FFFFFFFF800
310
0FF8000FFFFFFFF8000FFF0003FFFFFFFFFFFFFFFFFE0000F000FFFFFFFFE000
310
00FFFC000C003FE000C001FFFF80007FFFFFFFFFC00001FFFFFFFFFE00001FF8
310
000001FFFE0000007FFFFFF0001FFFFFF8000FFFFFFFF8000FF8000FFFFFFFF8
310
000FFF0003FFFFFFFFFFFFFFFFF00000F000FFFFFFFE000001FFFC000C001FE0
310
00C000FFFF80007FFFFFFFFE000001FFFFFFFFE000001FF80FFFFFFFFFFFFFC0
310
7FFFFFF0001FFFFFF8000FFFFFFFF8000FF8000FFFFFFFF8000FFF0003FFFFFF
310
FFFFFFFFFF800000F000FFFFFFC0000001FFFC001C001FE001C000FFFF80007F
310
FFFFFF80000003FFFFFFF80000001FF80FFFFFFFFFFFFFC07FFFFFF0001FFFFF
310
F8001FFFFFFFFC000FF8001FFFFFFFFC000FFF0003FFFFFFFFFFFFFFF0000001
310
F000FFFFF800000001FFF8001C001FE001C000FFFF80007FFFFFF800000003FF
310
FFFF800000003FF80FFFFFFFFFFFFFC07FFFFFF0001FFFFFF8001FFFFFFFFC00
310
0FF8001FFFFFFFFC000FFF0003FFFFFFFFFFFFFE00000001F000FFFFC0000000
310
03FFF8001E001FC001E000FFFF80007FFFFF8000000007FFFFFC000000003FF8
310
0FFFFFFFFFFFFFC07FFFFFF0001FFFFFF8001FFFFFFFFC000FF8001FFFFFFFFC
310
000FFF0003FFFFFFFFFFFFE000000003F000FFFE0000000007FFF8001E000FC0
310
01E0007FFF80007FFFFE0000000007FFFFE0000000007FF80FFFFFFFFFFFFFC0
310
7FFFFFF0001FFFFFF0001FFFFFFFFC0007F0001FFFFFFFFC0007FF0003FFFFFF
310
FFFFFF0000000003F000FFF80000000007FFF8001E000FC003E0007FFF80007F
310
FFF0000000000FFFFF8000000000FFF80FFFFFFFFFFFFFC07FFFFFF0001FFFFF
310
F0001FFFFFFFFC0007F0001FFFFFFFFC0007FF0003FFFFFFFFFFFC0000000007
310
F000FFE0000000000FFFF0003E000FC003E0007FFF80007FFFC0000000001FFF
310
FE0000000001FFF80FFFFFFFFFFFFFC07FFFFFF0001FFFFFF0001FFFFFFFFC00
310
07F0001FFFFFFFFC0007FF0003FFFFFFFFFFF0000000000FF000FFC000000000
310
1FFFF0003F000F8003F0003FFF80007FFF80000000003FFFF80000000003FFF8
310
0FFFFFFFFFFFFFC07FFFFFF0001FFFFFF0001FFFFFFFFC0007F0001FFFFFFFFC
310
0007FF0003FFFFFFFFFFE0000000001FF000FF00000000007FFFF0003F000780
310
03F0003FFF80007FFF00000000007FFFF00000000007FFF80FFFFFFFFFFFFFC0
310
7FFFFFF0001FFFFFF0001FFFFFFFFC0007F0001FFFFFFFFC0007FF0003FFFFFF
310
FFFF80000000007FF000FE0000000000FFFFE0003F00078007F0003FFF80007F
310
FE0000000001FFFFE0000000001FFFF80FFFFFFFFFFFFFC07FFFFFF0001FFFFF
310
F0001FFFFFFFFC0007F0001FFFFFFFFC0007FF0003FFFFFFFFFF0000000000FF
310
F000FC0000000003FFFFE0007F00078007F0003FFF80007FFC0000000007FFFF
310
C0000000007FFFF80FFFFFFFFFFFFFC07FFFFFF0001FFFFFF8001FFFFFFFFC00
310
0FF8001FFFFFFFFC000FFF0003FFFFFFFFFE0000000003FFF000FC000000000F
310
FFFFE0007F80070007F8001FFF80007FF8000000001FFFFF8000000001FFFFF8
310
0FFFFFFFFFFFFFC07FFFFFF0001FFFFFF8001FFFFFFFFC000FF8001FFFFFFFFC
310
000FFF0003FFFFFFFFFC000000000FFFF000F8000000007FFFFFE0007F800700
310
07F8001FFF80007FF000000000FFFFFF800000000FFFFFF80FFFFFFFFFFFFFC0
310
7FFFFFF0001FFFFFF8000FFFFFFFF8000FF8000FFFFFFFF8000FFF0003FFFFFF
310
FFFC000000007FFFF000F800000007FFFFFFC0007F8003000FF8001FFF80007F
310
F000000007FFFFFF000000007FFFFFF80FFFFFFFFFFFFFC07FFFFFF0001FFFFF
310
F8000FFFFFFFF8000FF8000FFFFFFFF8000FFF0003FFFFFFFFF80000000FFFFF
310
F000F0000000FFFFFFFFC000FF8003000FF8001FFF80007FE0000000FFFFFFFF
310
0000000FFFFFFFF8000001FFFE0000007FFFFFF0001FFFFFF8000FFFFFFFF800
310
0FF8000FFFFFFFF8000FFF0003FFFFFFFFF8000000FFFFFFF000F000000FFFFF
310
FFFFC000FFC002000FF8000FFF80007FE000001FFFFFFFFE000001FFFFFFFFF8
310
000001FFFE0000007FFFFFF0001FFFFFF8000FFFFFFFF8000FF8000FFFFFFFF8
310
000FFF0003FFFFFFFFF000001FFFFFFFF000E00000FFFFFFFFFFC000FFC00200
310
0FFC000FFF80007FE00001FFFFFFFFFE00001FFFFFFFFFF8000001FFFE000000
310
7FFFFFF0001FFFFFFC000FFFFFFFF8001FFC000FFFFFFFF8001FFF0003FFFFFF
310
FFF00001FFFFFFFFF000E00007FFFFFFFFFF8000FFC000001FFC000FFF80007F
310
C0000FFFFFFFFFFE0000FFFFFFFFFFF8000001FFFE0000007FFFFFF0001FFFFF
310
FC0007FFFFFFF0001FFC0007FFFFFFF0001FFF0003FFFFFFFFF00007FFFFFFFF
310
F000E0001FFFFFFFFFFF8000FFC000001FFC000FFF80007FC0003FFFFFFFFFFE
310
0001FFFFFFFFFFF8000001FFFE0000007FFFFFF0001FFFFFFC0007FFFFFFF000
310
1FFC0007FFFFFFF0001FFF0003FFFFFFFFF0001FFFFFFFFFF000E0003FFFFF00
310
03FF8001FFE000001FFC0007FF80007FC0007FFFFF0007FC0003FFFFF0003FF8
310
000001FFFE0000007FFFFFF0001FFFFFFC0003FFFFFFE0001FFC0003FFFFFFE0
310
001FFF0003FFFFFFFFF0003FFFFFFFFFF000E0003FFFFF0001FF8001FFE00000
310
1FFE0007FF80007FC0007FFFFE0003FC0007FFFFE0003FF8000001FFFE000000
310
7FFFFFF0001FFFFFFE0003FFFFFFE0003FFE0003FFFFFFE0003FFF0003FFFFFF
310
FFF0003FFFFF8001F000E0003FFFFF0001FF0001FFE000001FFE0007FF80007F
310
C0007FFFFE0003FC0007FFFFE0003FF8000001FFFE0000007FFFFFF0001FFFFF
310
FE0001FFFFFFC0003FFE0001FFFFFFC0003FFF0003FFFFFFFFF0003FFFFF0001
310
F000E0003FFFFF0003FF0001FFE000003FFE0007FF80007FC0007FFFFE0003FC
310
0007FFFFE0003FF8000001FFFE0000007FFFFFF0001FFFFFFF0001FFFFFFC000
310
7FFF0001FFFFFFC0007FFF0003FFFFFFFFF0003FFFFF0001F000E0003FFFFE00
310
03FF0003FFF000003FFE0003FF80007FC0007FFFFC0003FE0007FFFFE0003FF8
310
000001FFFE0000007FFFFFF0001FFFFFFF0000FFFFFF80007FFF0000FFFFFF80
310
007FFF0003FFFFFFFFF0003FFFFF0001F000E0003FFFFE0003FF0003FFF00000
310
3FFF0003FF80007FC0007FFFFC0007FE0007FFFFC0003FF8000001FFFE000000
310
7FFFFFF0001FFFFFFF80007FFFFF0000FFFF80007FFFFF0000FFFF0003FFFFFF
310
FFF0003FFFFF0003F000E0003FFFFC0003FE0003FFF000003FFF0003FF80007F
310
E0003FFFF80007FE0003FFFFC0007FF8000001FFFE0000007FFFFFF0001FFFFF
310
FF80003FFFFE0000FFFF80003FFFFE0000FFFF0003FFFFFFFFF0001FFFFE0003
310
F000F0001FFFF80003FE0003FFF000007FFF0001FF80007FE0003FFFF00007FE
310
0001FFFF80007FF8000001FFFE0000007FFFFFF0001FFFFFFFC0000FFFF80001
310
FFFFC0000FFFF80001FFFF0003FFFFFFFFF0001FFFFC0003F000F0000FFFF000
310
07FE0007FFF800007FFF0001FF80007FE0001FFFE00007FF0000FFFE00007FF8
310
000001FFFE0000007FFFFFF0001FFFFFFFC00003FFE00001FFFFC00003FFE000
310
01FFFF0003FFFFFFFFF8000FFFF80003F000F00003FFC00007FC0007FFF80000
310
7FFF8001FF80007FF00007FF80000FFF00007FF80000FFF8000001FFFE000000
310
7F80000000000001FFE000003E000003FFFFE000003E000003FFFF0003FFFFFF
310
FFF80003FFE00007F000F800000000000FFC0007FFF800007FFF8001FF80007F
310
F000000000000FFF000000000000FFF8000001FFFE0000007F80000000000001
310
FFF0000000000007FFFFF0000000000007FFFF0003FFFFFFFFFC00007E000007
310
F000F800000000000FFC0007FFF80000FFFF8000FF80007FF800000000001FFF
310
800000000001FFF8000001FFFE0000007F80000000000001FFF800000000000F
310
FFFFF800000000000FFFFF0003FFFFFFFFFC00000000000FF000FC0000000000
310
1FFC0007FFFC0000FFFF8000FF80007FF800000000003FFFC00000000001FFF8
310
000001FFFE0000007F80000000000001FFF800000000000FFFFFF80000000000
310
0FFFFF0003FFFFFFFFFE00000000001FF000FE00000000003FF8000FFFFC0000
310
FFFF8000FF80007FFC00000000003FFFC00000000003FFF8000001FFFE000000
310
7F80000000000001FFFC00000000001FFFFFFC00000000001FFFFF0003FFFFFF
310
FFFF00000000001FF000FF00000000003FF8000FFFFC0000FFFFC000FF80007F
310
FE00000000007FFFE00000000007FFF8000001FFFE0000007F80000000000001
310
FFFE00000000003FFFFFFE00000000003FFFFF0003FFFFFFFFFF80000000003F
310
F000FF80000000007FF8000FFFFC0001FFFFC0007F80007FFF0000000000FFFF
310
F0000000000FFFF800000000000000007F80000000000001FFFF8000000000FF
310
FFFFFF8000000000FFFFFF0003FFFFFFFFFFC0000000007FF000FFC000000000
310
FFF8000FFFFE0001FFFFC0007F80007FFF8000000001FFFFF8000000001FFFF8
310
00000000000000007F80000000000001FFFFC000000001FFFFFFFFC000000001
310
FFFFFF0003FFFFFFFFFFE000000000FFF000FFE000000003FFF0001FFFFE0001
310
FFFFC0007F80007FFFC000000007FFFFFE000000003FFFF80000000000000000
310
7F80000000000001FFFFE000000003FFFFFFFFE000000003FFFFFF0003FFFFFF
310
FFFFF000000003FFF000FFF80000000FFFF0001FFFFE0001FFFFE0007F80007F
310
FFF00000000FFFFFFF00000000FFFFF800000000000000007F80000000000001
310
FFFFF80000000FFFFFFFFFF80000000FFFFFFF0003FFFFFFFFFFFC0000000FFF
310
F000FFFE0000003FFFF0001FFFFE0003FFFFE0003F80007FFFFC0000003FFFFF
310
FFC0000003FFFFF800000000000000007F80000000000001FFFFFE0000003FFF
310
FFFFFFFE0000003FFFFFFF0003FFFFFFFFFFFF0000003FFFF000FFFF800000FF
310
FFF0001FFFFF0003FFFFE0003F80007FFFFF000001FFFFFFFFF800001FFFFFF8
310
00000000000000007F80000000000001FFFFFFC00001FFFFFFFFFFFFC00001FF
310
FFFFFF0003FFFFFFFFFFFFC00000FFFFF000FFFFF8000FFFFFFFFFFFFFFFFFFF
310
FFFFFFFFFFFFFFFFFFFFF0001FFFFFFFFFFF0000FFFFFFF80000000000000000
310
7FFFFFFFFFFFFFFFFFFFFFFC001FFFFFFFFFFFFFFC001FFFFFFFFFFFFFFFFFFF
310
FFFFFFFC001FFFFFF000FFFFFFFFFFFFFFFFFFFFFFFFFFFFFFFFFFFFFFFFFFFF
310
FFFFFFFFFFFFFFFFFFFFFFFFFFFFFFFFFFFFFFFFFFFFFFFFFFFFFFFFFFFFFFFF
310
FFFFFFFFFFFFFFFFFFFFFFFFFFFFFFFFFFFFFFFFFFFFFFFFFFFFFFFFFFFFFFFF
310
F000FFFFFFFFFFFFFFFFFFFFFFFFFFFFFFFFFFFFFFFFFFFFFFFFFFFFFFFFFFFF
310
FFFFFFFFFFFFFFFFFFFFFFFFFFFFFFFFFFFFFFFFFFFFFFFFFFFFFFFFFFFFFFFF
310
FFFFFFFFFFFFFFFFFFFFFFFFFFFFFFFFFFFFFFFFFFFFFFFFF000FFFFFFFFFFFF
310
FFFFFFFFFFFFFFFFFFFFFFFFFFFFFFFFFFFFFFFFFFFFFFFFFFFFFFFFFFFFFFFF
310
FFFFFFFFFFFFFFFFFFFFFFFFFFFFFFFFFFFFFFFFFFFFFFFFFFFFFFFFFFFFFFFF
310
FFFFFFFFFFFFFFFFFFFFFFFFFFFFFFFFF000FFFFFFFFFFFFFFFFFFFFFFFFFFFF
310
FFFFFFFFFFFFFFFFFFFFFFFFFFFFFFFFFFFFFFFFFFFFFFFFFFFFFFFFFFFFFFFF
310
FFFFFFFFFFFFFFFFFFFFFFFFFFFFFFFFFFFFFFFFFFFFFFFFFFFFFFFFFFFFFFFF
310
FFFFFFFFFFFFFFFFF000FFFFFFFFFFFFFFFFFFFFFFFFFFFFFFFFFFFFFFFFFFFF
310
FFFFFFFFFFFFFFFFFFFFFFFFFFFFFFFFFFFFFFFFFFFFFFFFFFFFFFFFFFFFFFFF
310
FFFFFFFFFFFFFFFFFFFFFFFFFFFFFFFFFFFFFFFFFFFFFFFFFFFFFFFFFFFFFFFF
310
F000FFFFFFFFFFFFFFFFFFFFFFFFFFFFFFFFFFFFFFFFFFFFFFFFFFFFFFFFFFFF
310
FFFFFFFFFFFFFFFFFFFFFFFFFFFFFFFFFFFFFFFFFFFFFFFFFFFFFFFFFFFFFFFF
310
FFFFFFFFFFFFFFFFFFFFFFFFFFFFFFFFFFFFFFFFFFFFFFFFF000FFFFFFFFFFFF
310
FFFFFFFFFFFFFFFFFFFFFFFFFFFFFFFFFFFFFFFFFFFFFFFFFFFFFFFFFFFFFFFF
310
FFFFFFFFFFFFFFFFFFFFFFFFFFFFFFFFFFFFFFFFFFFFFFFFFFFFFFFFFFFFFFFF
310
FFFFFFFFFFFFFFFFFFFFFFFFFFFFFFFFF000FFFFFFFFFFFFFFFFFFFFFFFFFFFF
310
FFFFFFFFFFFFFFFFFFFFFFFFFFFFFFFFFFFFFFFFFFFFFFFFFFFFFFFFFFFFFFFF
310
FFFFFFFFFFFFFFFFFFFFFFFFFFFFFFFFFFFFFFFFFFFFFFFFFFFFFFFFFFFFFFFF
310
FFFFFFFFFFFFFFFFF000FFFFFFFFFFFFFFFFFFFFFFFFFFFFFFFFFFFFFFFFFFFF
310
FFFFFFFFFFFFFFFFFFFFFFFFFFFFFFFFFFFFFFFFFFFFFFFFFFFFFFFFFFFFFFFF
310
FFFFFFFFFFFFFFFFFFFFFFFFFFFFFFFFFFFFFFFFFFFFFFFFFFFFFFFFFFFFFFFF
310
F000FFFFFFFFFFFFFFFFFFFFFFFFFFFFFFFFFFFFFFFFFFFFFFFFFFFFFFFFFFFF
310
FFFFFFFFFFFFFFFFFFFFFFFFFFFFFFFFFFFFFFFFFFFFFFFFFFFFFFFFFFFFFFFF
310
FFFFFFFFFFFFFFFFFFFFFFFFFFFFFFFFFFFFFFFFFFFFFFFFF000FFFFFFFFFFFF
310
FFFFFFFFFFFFFFFFFFFFFFFFFFFFFFFFFFFFFFFFFFFFFFFFFFFFFFFFFFFFFFFF
310
FFFFFFFFFFFFFFFFFFFFFFFFFFFFFFFFFFFFFFFFFFFFFFFFFFFFFFFFFFFFFFFF
310
FFFFFFFFFFFFFFFFFFFFFFFFFFFFFFFFF000FFFFFFFFFFFFFFFFFFFFFFFFFFFF
310
FFFFFFFFFFFFFFFFFFFFFFFFFFFFFFFFFFFFFFFFFFFFFFFFFFFFFFFFFFFFFFFF
310
FFFFFFFFFFFFFFFFFFFFFFFFFFFFFFFFFFFFFFFFFFFFFFFFFFFFFFFFFFFFFFFF
310
FFFFFFFFFFFFFFFFF000FFFFFFFFFFFFFFFFFFFFFFFFFFFFFFFFFFFFFFFFFFFF
310
FFFFFFFFFFFFFFFFFFFFFFFFFFFFFFFFFFFFFFFFFFFFFFFFFFFFFFFFFFFFFFFF
310
FFFFFFFFFFFFFFFFFFFFFFFFFFFFFFFFFFFFFFFFFFFFFFFFFFFFFFFFFFFFFFFF
310
F000FFFFFFFFFFFFFFFFFFFFFFFFFFFFFFFFFFFFFFFFFFFFFFFFFFFFFFFFFFFF
310
FFFFFFFFFFFFFFFFFFFFFFFFFFFFFFFFFFFFFFFFFFFFFFFFFFFFFFFFFFFFFFFF
310
FFFFFFFFFFFFFFFFFFFFFFFFFFFFFFFFFFFFFFFFFFFFFFFFF000FFFFFFFFFFFF
310
FFFFFFFFFFFFFFFFFFFFFFFFFFFFFFFFFFFFFFFFFFFFFFFFFFFFFFFFFFFFFFFF
310
FFFFFFFFFFFFFFFFFFFFFFFFFFFFFFFFFFFFFFFFFFFFFFFFFFFFFFFFFFFFFFFF
310
FFFFFFFFFFFFFFFFFFFFFFFFFFFFFFFFF000FFFFFFFFFFFFFFFFFFFFFFFFFFFF
310
FFFFFFFFFFFFFFFFFFFFFFFFFFFFFFFFFFFFFFFFFFFFFFFFFFFFFFFFFFFFFFFF
310
FFFFFFFFFFFFFFFFFFFFFFFFFFFFFFFFFFFFFFFFFFFFFFFFFFFFFFFFFFFFFFFF
310
FFFFFFFFFFFFFFFFF000FFFFFFFFFFFFFFFFFFFFFFFFFFFFFFFFFFFFFFFFFFFF
310
FFFFFFFFFFFFFFFFFFFFFFFFFFFFFFFFFFFFFFFFFFFFFFFFFFFFFFFFFFFFFFFF
310
FFFFFFFFFFFFFFFFFFFFFFFFFFFFFFFFFFFFFFFFFFFFFFFFFFFFFFFFFFFFFFFF
310
F000FFFFFFFFFFFFFFFFFFFFFFFFFFFFFFFFFFFFFFFFFFFFFFFFFFFFFFFFFFFF
310
FFFFFFFFFFFFFFFFFFFFFFFFFFFFFFFFFFFFFFFFFFFFFFFFFFFFFFFFFFFFFFFF
310
FFFFFFFFFFFFFFFFFFFFFFFFFFFFFFFFFFFFFFFFFFFFFFFFF000FFFFFFFFFFFF
310
FFFFFFFFFFFFFFFFFFFFFFFFFFFFFFFFFFFFFFFFFFFFFFFFFFFFFFFFFFFFFFFF
310
FFFFFFFFFFFFFFFFFFFFFFFFFFFFFFFFFFFFFFFFFFFFFFFFFFFFFFFFFFFFFFFF
310
FFFFFFFFFFFFFFFFFFFFFFFFFFFFFFFFF000FFFFFFFFFFFFFFFFFFFFFFFFFFFF
310
FFFFFFFFFFFFFFFFFFFFFFFFFFFFFFFFFFFFFFFFFFFFFFFFFFFFFFFFFFFFFFFF
310
FFFFFFFFFFFFFFFFFFFFFFFFFFFFFFFFFFFFFFFFFFFFFFFFFFFFFFFFFFFFFFFF
310
FFFFFFFFFFFFFFFFF000FFFFFFFFFFFFFFFFFFFFFFFFFFFFFFFFFFFFFFFFFFFF
310
FFFFFFFFFFFFFFFFFFFFFFFFFFFFFFFFFFFFFFFFFFFFFFFFFFFFFFFFFFFFFFFF
310
FFFFFFFFFFFFFFFFFFFFFFFFFFFFFFFFFFFFFFFFFFFFFFFFFFFFFFFFFFFFFFFF
310
F000FFFFFFFFFFFFFFFFFFFFFFFFFFFFFFFFFFFFFFFFFFFFFFFFFFFFFFFFFFFF
310
FFFFFFFFFFFFFFFFFFFFFFFFFFFFFFFFFFFFFFFFFFFFFFFFFFFFFFFFFFFFFFFF
310
FFFFFFFFFFFFFFFFFFFFFFFFFFFFFFFFFFFFFFFFFFFFFFFFF000FFFFFFFFFFFF
310
FFFFFFFFFFFFFFFFFFFFFFFFFFFFFFFFFFFFFFFFFFFFFFFFFFFFFFFFFFFFFFFF
310
FFFFFFFFFFFFFFFFFFFFFFFFFFFFFFFFFFFFFFFFFFFFFFFFFFFFFFFFFFFFFFFF
310
FFFFFFFFFFFFFFFFFFFFFFFFFFFFFFFFF0000000000000000000000000000000
310
0000000001000000000000000100000000000000010000000000000001000000
310
0000000001000000010000000100000001000000010000000100000001000000
310
0100000001000000000000000100000001000000010000000100000000000000
310
0100000001000000010000000100000001000000010000000100000000000000
310
0100000001000000010000000100000000000000010000000100000001000000
310
0000000001000000000000000100000001000000010000000000000001000000
310
0000000001000000000000000100000000000000010000000000000001000000
310
0000000001000000010000000100000001000000010000000100000001000000
310
0100000001000000010000000100000001000000010000000100000001000000
310
0100000001000000010000000100000001000000010000000100000001000000
310
0100000001000000010000000100000000000000010000000000000001000000
310
0100000001000000010000000100000001000000010000000100000001000000
310
0100000001000000010000000100000001000000010000000100000001000000
310
0100000001000000010000000100000001000000010000000100000001000000
310
0100000000000000010000000100000000000000010000000000000001000000
  1
OLE
  0
ENDSEC
  0
SECTION
  2
OBJECTS
  0
DICTIONARY
  5
C
330
0
100
AcDbDictionary
281
     1
  3
ACAD_GROUP
350
D
  3
ACAD_LAYOUT
350
1A
  3
ACAD_MLEADERSTYLE
350
28A
  3
ACAD_MLINESTYLE
350
17
  3
ACAD_PLOTSETTINGS
350
19
  3
ACAD_PLOTSTYLENAME
350
E
  3
ACAD_TABLESTYLE
350
289
  3
ACAD_VISUALSTYLE
350
2A
  3
AcDbVariableDictionary
350
28B
  0
DICTIONARY
  5
D
102
{ACAD_REACTORS
330
C
102
}
330
C
100
AcDbDictionary
281
     1
  0
DICTIONARY
  5
1A
102
{ACAD_REACTORS
330
C
102
}
330
C
100
AcDbDictionary
281
     1
  3
Layout1
350
1E
  3
Layout2
350
26
  3
Model
350
22
  0
DICTIONARY
  5
28A
102
{ACAD_REACTORS
330
C
102
}
330
C
100
AcDbDictionary
281
     1
  0
DICTIONARY
  5
17
102
{ACAD_REACTORS
330
C
102
}
330
C
100
AcDbDictionary
281
     1
  3
Standard
350
18
  0
DICTIONARY
  5
19
102
{ACAD_REACTORS
330
C
102
}
330
C
100
AcDbDictionary
281
     1
  0
ACDBDICTIONARYWDFLT
  5
E
102
{ACAD_REACTORS
330
C
102
}
330
C
100
AcDbDictionary
281
     1
  3
Normal
350
F
100
AcDbDictionaryWithDefault
340
F
  0
DICTIONARY
  5
289
102
{ACAD_REACTORS
330
C
102
}
330
C
100
AcDbDictionary
281
     1
  0
DICTIONARY
  5
2A
102
{ACAD_REACTORS
330
C
102
}
330
C
100
AcDbDictionary
281
     1
  3
2dWireframe
350
2F
  3
3D Hidden
350
31
  3
3dWireframe
350
30
  3
Basic
350
32
  3
Brighten
350
36
  3
ColorChange
350
3A
  3
Conceptual
350
34
  3
Dim
350
35
  3
Facepattern
350
39
  3
Flat
350
2B
  3
FlatWithEdges
350
2C
  3
Gouraud
350
2D
  3
GouraudWithEdges
350
2E
  3
Linepattern
350
38
  3
Realistic
350
33
  3
Thicken
350
37
  0
DICTIONARY
  5
28B
102
{ACAD_REACTORS
330
C
102
}
330
C
100
AcDbDictionary
281
     1
  3
PSOLHEIGHT
350
28D
  3
PSOLWIDTH
350
28C
  0
LAYOUT
  5
1E
102
{ACAD_REACTORS
330
1A
102
}
330
1A
100
AcDbPlotSettings
  1

  2
none_device
  4

  6

 40
0.0
 41
0.0
 42
0.0
 43
0.0
 44
0.0
 45
0.0
 46
0.0
 47
0.0
 48
0.0
 49
0.0
140
0.0
141
0.0
142
1.0
143
1.0
 70
   688
 72
     0
 73
     0
 74
     5
  7

 75
    16
147
1.0
148
0.0
149
0.0
100
AcDbLayout
  1
Layout1
 70
     1
 71
     1
 10
0.0
 20
0.0
 11
420.0
 21
297.0
 12
0.0
 22
0.0
 32
0.0
 14
1.0000000000E+20
 24
1.0000000000E+20
 34
1.0000000000E+20
 15
-1.0000000000E+20
 25
-1.0000000000E+20
 35
-1.0000000000E+20
146
0.0
 13
0.0
 23
0.0
 33
0.0
 16
1.0
 26
0.0
 36
0.0
 17
0.0
 27
1.0
 37
0.0
 76
     0
330
1B
  0
LAYOUT
  5
26
102
{ACAD_REACTORS
330
1A
102
}
330
1A
100
AcDbPlotSettings
  1

  2
none_device
  4

  6

 40
0.0
 41
0.0
 42
0.0
 43
0.0
 44
0.0
 45
0.0
 46
0.0
 47
0.0
 48
0.0
 49
0.0
140
0.0
141
0.0
142
1.0
143
1.0
 70
   688
 72
     0
 73
     0
 74
     5
  7

 75
    16
147
1.0
148
0.0
149
0.0
100
AcDbLayout
  1
Layout2
 70
     1
 71
     2
 10
0.0
 20
0.0
 11
0.0
 21
0.0
 12
0.0
 22
0.0
 32
0.0
 14
0.0
 24
0.0
 34
0.0
 15
0.0
 25
0.0
 35
0.0
146
0.0
 13
0.0
 23
0.0
 33
0.0
 16
1.0
 26
0.0
 36
0.0
 17
0.0
 27
1.0
 37
0.0
 76
     0
330
23
  0
LAYOUT
  5
22
102
{ACAD_REACTORS
330
1A
102
}
330
1A
100
AcDbPlotSettings
  1

  2
none_device
  4

  6

 40
0.0
 41
0.0
 42
0.0
 43
0.0
 44
0.0
 45
0.0
 46
0.0
 47
0.0
 48
0.0
 49
0.0
140
0.0
141
0.0
142
1.0
143
1.0
 70
  1712
 72
     0
 73
     0
 74
     0
  7

 75
     0
147
1.0
148
0.0
149
0.0
100
AcDbLayout
  1
Model
 70
     1
 71
     0
 10
0.0
 20
0.0
 11
297.0
 21
210.0
 12
0.0
 22
0.0
 32
0.0
 14
0.0
 24
0.0
 34
0.0
 15
297.0
 25
210.0
 35
0.0
146
0.0
 13
0.0
 23
0.0
 33
0.0
 16
1.0
 26
0.0
 36
0.0
 17
0.0
 27
1.0
 37
0.0
 76
     0
330
1F
331
29
  0
MLINESTYLE
  5
18
102
{ACAD_REACTORS
330
17
102
}
330
17
100
AcDbMlineStyle
  2
Standard
 70
     0
  3

 62
   256
 51
90.0
 52
90.0
 71
     2
 49
0.5
 62
   256
  6
BYLAYER
 49
-0.5
 62
   256
  6
BYLAYER
  0
ACDBPLACEHOLDER
  5
F
102
{ACAD_REACTORS
330
E
102
}
330
E
  0
VISUALSTYLE
  5
2F
102
{ACAD_REACTORS
330
2A
102
}
330
2A
100
AcDbVisualStyle
  2
2dWireframe
 70
     4
 71
     0
 72
     2
 73
     0
 90
        0
 40
-0.6
 41
-30.0
 62
     5
 63
     7
 74
     1
 91
        4
 64
     7
 65
   257
 75
     1
175
     1
 42
1.0
 92
        0
 66
   257
 43
1.0
 76
     1
 77
     6
 78
     2
 67
     7
 79
     5
170
     0
171
     0
290
     0
174
     0
 93
        1
 44
0.0
173
     0
291
     0
 45
0.0
1001
ACAD
1000
AcDbSavedByObjectVersion
1070
     0
  0
VISUALSTYLE
  5
31
102
{ACAD_REACTORS
330
2A
102
}
330
2A
100
AcDbVisualStyle
  2
3D Hidden
 70
     6
 71
     1
 72
     2
 73
     2
 90
        0
 40
-0.6
 41
-30.0
 62
     5
 63
     7
 74
     2
 91
        2
 64
     7
 65
   257
 75
     2
175
     1
 42
40.0
 92
        0
 66
   257
 43
1.0
 76
     1
 77
     6
 78
     2
 67
     7
 79
     3
170
     0
171
     0
290
     0
174
     0
 93
        1
 44
0.0
173
     0
291
     0
 45
0.0
1001
ACAD
1000
AcDbSavedByObjectVersion
1070
     0
  0
VISUALSTYLE
  5
30
102
{ACAD_REACTORS
330
2A
102
}
330
2A
100
AcDbVisualStyle
  2
3dWireframe
 70
     5
 71
     0
 72
     2
 73
     0
 90
        0
 40
-0.6
 41
-30.0
 62
     5
 63
     7
 74
     1
 91
        4
 64
     7
 65
   257
 75
     1
175
     1
 42
1.0
 92
        0
 66
   257
 43
1.0
 76
     1
 77
     6
 78
     2
 67
     7
 79
     5
170
     0
171
     0
290
     0
174
     0
 93
        1
 44
0.0
173
     0
291
     0
 45
0.0
1001
ACAD
1000
AcDbSavedByObjectVersion
1070
     0
  0
VISUALSTYLE
  5
32
102
{ACAD_REACTORS
330
2A
102
}
330
2A
100
AcDbVisualStyle
  2
Basic
 70
     7
 71
     1
 72
     0
 73
     1
 90
        0
 40
-0.6
 41
-30.0
 62
     5
 63
     7
 74
     0
 91
        4
 64
     7
 65
   257
 75
     1
175
     1
 42
1.0
 92
        8
 66
     7
 43
1.0
 76
     1
 77
     6
 78
     2
 67
     7
 79
     5
170
     0
171
     0
290
     0
174
     0
 93
        1
 44
0.0
173
     0
291
     1
 45
0.0
1001
ACAD
1000
AcDbSavedByObjectVersion
1070
     0
  0
VISUALSTYLE
  5
36
102
{ACAD_REACTORS
330
2A
102
}
330
2A
100
AcDbVisualStyle
  2
Brighten
 70
    12
 71
     2
 72
     2
 73
     0
 90
        0
 40
-0.6
 41
-30.0
 62
     5
 63
     7
 74
     1
 91
        4
 64
     7
 65
   257
 75
     1
175
     1
 42
1.0
 92
        8
 66
     7
 43
1.0
 76
     1
 77
     6
 78
     2
 67
     7
 79
     5
170
     0
171
     0
290
     0
174
     0
 93
        1
 44
50.0
173
     0
291
     1
 45
0.0
1001
ACAD
1000
AcDbSavedByObjectVersion
1070
     0
  0
VISUALSTYLE
  5
3A
102
{ACAD_REACTORS
330
2A
102
}
330
2A
100
AcDbVisualStyle
  2
ColorChange
 70
    16
 71
     2
 72
     2
 73
     3
 90
        0
 40
-0.6
 41
-30.0
 62
     5
 63
     8
 74
     1
 91
        4
 64
     7
 65
   257
 75
     1
175
     1
 42
1.0
 92
        8
 66
     8
 43
1.0
 76
     1
 77
     6
 78
     2
 67
     7
 79
     5
170
     0
171
     0
290
     0
174
     0
 93
        1
 44
0.0
173
     0
291
     1
 45
0.0
1001
ACAD
1000
AcDbSavedByObjectVersion
1070
     0
  0
VISUALSTYLE
  5
34
102
{ACAD_REACTORS
330
2A
102
}
330
2A
100
AcDbVisualStyle
  2
Conceptual
 70
     9
 71
     3
 72
     2
 73
     0
 90
        0
 40
-0.6
 41
-30.0
 62
     5
 63
     7
 74
     2
 91
        2
 64
     7
 65
   257
 75
     1
175
     1
 42
40.0
 92
        8
 66
     7
 43
1.0
 76
     1
 77
     6
 78
     2
 67
     7
 79
     3
170
     0
171
     0
290
     0
174
     0
 93
        1
 44
0.0
173
     0
291
     0
 45
0.0
1001
ACAD
1000
AcDbSavedByObjectVersion
1070
     0
  0
VISUALSTYLE
  5
35
102
{ACAD_REACTORS
330
2A
102
}
330
2A
100
AcDbVisualStyle
  2
Dim
 70
    11
 71
     2
 72
     2
 73
     0
 90
        0
 40
-0.6
 41
-30.0
 62
     5
 63
     7
 74
     1
 91
        4
 64
     7
 65
   257
 75
     1
175
     1
 42
1.0
 92
        8
 66
     7
 43
1.0
 76
     1
 77
     6
 78
     2
 67
     7
 79
     5
170
     0
171
     0
290
     0
174
     0
 93
        1
 44
-50.0
173
     0
291
     1
 45
0.0
1001
ACAD
1000
AcDbSavedByObjectVersion
1070
     0
  0
VISUALSTYLE
  5
39
102
{ACAD_REACTORS
330
2A
102
}
330
2A
100
AcDbVisualStyle
  2
Facepattern
 70
    15
 71
     2
 72
     2
 73
     0
 90
        0
 40
-0.6
 41
-30.0
 62
     5
 63
     7
 74
     1
 91
        4
 64
     7
 65
   257
 75
     1
175
     1
 42
1.0
 92
        8
 66
     7
 43
1.0
 76
     1
 77
     6
 78
     2
 67
     7
 79
     5
170
     0
171
     0
290
     0
174
     0
 93
        1
 44
0.0
173
     0
291
     1
 45
0.0
1001
ACAD
1000
AcDbSavedByObjectVersion
1070
     0
  0
VISUALSTYLE
  5
2B
102
{ACAD_REACTORS
330
2A
102
}
330
2A
100
AcDbVisualStyle
  2
Flat
 70
     0
 71
     2
 72
     1
 73
     1
 90
        2
 40
-0.6
 41
30.0
 62
     5
 63
     7
 74
     0
 91
        4
 64
     7
 65
   257
 75
     1
175
     1
 42
1.0
 92
        8
 66
     7
 43
1.0
 76
     1
 77
     6
 78
     2
 67
     7
 79
     5
170
     0
171
     0
290
     0
174
     0
 93
       13
 44
0.0
173
     0
291
     1
 45
0.0
1001
ACAD
1000
AcDbSavedByObjectVersion
1070
     0
  0
VISUALSTYLE
  5
2C
102
{ACAD_REACTORS
330
2A
102
}
330
2A
100
AcDbVisualStyle
  2
FlatWithEdges
 70
     1
 71
     2
 72
     1
 73
     1
 90
        2
 40
-0.6
 41
30.0
 62
     5
 63
     7
 74
     1
 91
        4
 64
     7
 65
   257
 75
     1
175
     1
 42
1.0
 92
        0
 66
   257
 43
1.0
 76
     1
 77
     6
 78
     2
 67
     7
 79
     5
170
     0
171
     0
290
     0
174
     0
 93
       13
 44
0.0
173
     0
291
     1
 45
0.0
1001
ACAD
1000
AcDbSavedByObjectVersion
1070
     0
  0
VISUALSTYLE
  5
2D
102
{ACAD_REACTORS
330
2A
102
}
330
2A
100
AcDbVisualStyle
  2
Gouraud
 70
     2
 71
     2
 72
     2
 73
     1
 90
        2
 40
-0.6
 41
30.0
 62
     5
 63
     7
 74
     0
 91
        4
 64
     7
 65
   257
 75
     1
175
     1
 42
1.0
 92
        0
 66
     7
 43
1.0
 76
     1
 77
     6
 78
     2
 67
     7
 79
     5
170
     0
171
     0
290
     0
174
     0
 93
       13
 44
0.0
173
     0
291
     1
 45
0.0
1001
ACAD
1000
AcDbSavedByObjectVersion
1070
     0
  0
VISUALSTYLE
  5
2E
102
{ACAD_REACTORS
330
2A
102
}
330
2A
100
AcDbVisualStyle
  2
GouraudWithEdges
 70
     3
 71
     2
 72
     2
 73
     1
 90
        2
 40
-0.6
 41
30.0
 62
     5
 63
     7
 74
     1
 91
        4
 64
     7
 65
   257
 75
     1
175
     1
 42
1.0
 92
        0
 66
   257
 43
1.0
 76
     1
 77
     6
 78
     2
 67
     7
 79
     5
170
     0
171
     0
290
     0
174
     0
 93
       13
 44
0.0
173
     0
291
     1
 45
0.0
1001
ACAD
1000
AcDbSavedByObjectVersion
1070
     0
  0
VISUALSTYLE
  5
38
102
{ACAD_REACTORS
330
2A
102
}
330
2A
100
AcDbVisualStyle
  2
Linepattern
 70
    14
 71
     2
 72
     2
 73
     0
 90
        0
 40
-0.6
 41
-30.0
 62
     5
 63
     7
 74
     1
 91
        4
 64
     7
 65
   257
 75
     7
175
     7
 42
1.0
 92
        8
 66
     7
 43
1.0
 76
     1
 77
     6
 78
     2
 67
     7
 79
     5
170
     0
171
     0
290
     0
174
     0
 93
        1
 44
0.0
173
     0
291
     1
 45
0.0
1001
ACAD
1000
AcDbSavedByObjectVersion
1070
     0
  0
VISUALSTYLE
  5
33
102
{ACAD_REACTORS
330
2A
102
}
330
2A
100
AcDbVisualStyle
  2
Realistic
 70
     8
 71
     2
 72
     2
 73
     0
 90
        0
 40
-0.6
 41
-30.0
 62
     5
 63
     7
 74
     1
 91
        0
 64
     7
 65
   257
 75
     1
175
     1
 42
1.0
 92
        8
 66
     8
 43
1.0
 76
     1
 77
     6
 78
     2
 67
     7
 79
     5
170
     0
171
     0
290
     0
174
     0
 93
       13
 44
0.0
173
     0
291
     0
 45
0.0
1001
ACAD
1000
AcDbSavedByObjectVersion
1070
     0
  0
VISUALSTYLE
  5
37
102
{ACAD_REACTORS
330
2A
102
}
330
2A
100
AcDbVisualStyle
  2
Thicken
 70
    13
 71
     2
 72
     2
 73
     0
 90
        0
 40
-0.6
 41
-30.0
 62
     5
 63
     7
 74
     1
 91
        4
 64
     7
 65
   257
 75
     1
175
     1
 42
1.0
 92
       12
 66
     7
 43
1.0
 76
     1
 77
     6
 78
     2
 67
     7
 79
     5
170
     0
171
     0
290
     0
174
     0
 93
        1
 44
0.0
173
     0
291
     1
 45
0.0
1001
ACAD
1000
AcDbSavedByObjectVersion
1070
     0
  0
DICTIONARYVAR
  5
28D
102
{ACAD_REACTORS
330
28B
102
}
330
28B
100
DictionaryVariables
280
     0
  1
80.000000
  0
DICTIONARYVAR
  5
28C
102
{ACAD_REACTORS
330
28B
102
}
330
28B
100
DictionaryVariables
280
     0
  1
5.000000
  0
ENDSEC
  0
EOF
