  0
SECTION
  2
HEADER
  9
$ACADVER
  1
AC1015
  9
$ACADMAINTVER
 70
     6
  9
$DWGCODEPAGE
  3
ANSI_1252
  9
$INSBASE
 10
0.0
 20
0.0
 30
0.0
  9
$EXTMIN
 10
0.0
 20
0.0
 30
0.0
  9
$EXTMAX
 10
297.0
 20
210.0
 30
0.0
  9
$LIMMIN
 10
0.0
 20
0.0
  9
$LIMMAX
 10
297.0
 20
210.0
  9
$ORTHOMODE
 70
     0
  9
$REGENMODE
 70
     1
  9
$FILLMODE
 70
     1
  9
$QTEXTMODE
 70
     0
  9
$MIRRTEXT
 70
     1
  9
$LTSCALE
 40
1.0
  9
$ATTMODE
 70
     1
  9
$TEXTSIZE
 40
2.0
  9
$TRACEWID
 40
1.0
  9
$TEXTSTYLE
  7
Standard
  9
$CLAYER
  8
0
  9
$CELTYPE
  6
ByLayer
  9
$CECOLOR
 62
   256
  9
$CELTSCALE
 40
1.0
  9
$DISPSILH
 70
     0
  9
$DIMSCALE
 40
1.0
  9
$DIMASZ
 40
3.0
  9
$DIMEXO
 40
0.0
  9
$DIMDLI
 40
3.75
  9
$DIMRND
 40
0.0
  9
$DIMDLE
 40
0.0
  9
$DIMEXE
 40
1.0
  9
$DIMTP
 40
0.0
  9
$DIMTM
 40
0.0
  9
$DIMTXT
 40
2.0
  9
$DIMCEN
 40
2.5
  9
$DIMTSZ
 40
0.0
  9
$DIMTOL
 70
     0
  9
$DIMLIM
 70
     0
  9
$DIMTIH
 70
     1
  9
$DIMTOH
 70
     1
  9
$DIMSE1
 70
     0
  9
$DIMSE2
 70
     0
  9
$DIMTAD
 70
     1
  9
$DIMZIN
 70
     0
  9
$DIMBLK
  1

  9
$DIMASO
 70
     1
  9
$DIMSHO
 70
     1
  9
$DIMPOST
  1

  9
$DIMAPOST
  1

  9
$DIMALT
 70
     0
  9
$DIMALTD
 70
     3
  9
$DIMALTF
 40
0.0393700787
  9
$DIMLFAC
 40
1.0
  9
$DIMTOFL
 70
     1
  9
$DIMTVP
 40
0.0
  9
$DIMTIX
 70
     0
  9
$DIMSOXD
 70
     0
  9
$DIMSAH
 70
     0
  9
$DIMBLK1
  1

  9
$DIMBLK2
  1

  9
$DIMSTYLE
  2
ISO-25
  9
$DIMCLRD
 70
     0
  9
$DIMCLRE
 70
     0
  9
$DIMCLRT
 70
     0
  9
$DIMTFAC
 40
1.0
  9
$DIMGAP
 40
1.524
  9
$DIMJUST
 70
     0
  9
$DIMSD1
 70
     0
  9
$DIMSD2
 70
     0
  9
$DIMTOLJ
 70
     0
  9
$DIMTZIN
 70
     0
  9
$DIMALTZ
 70
     0
  9
$DIMALTTZ
 70
     0
  9
$DIMUPT
 70
     0
  9
$DIMDEC
 70
     2
  9
$DIMTDEC
 70
     3
  9
$DIMALTU
 70
     2
  9
$DIMALTTD
 70
     3
  9
$DIMTXSTY
  7
Standard
  9
$DIMAUNIT
 70
     0
  9
$DIMADEC
 70
     2
  9
$DIMALTRND
 40
0.0
  9
$DIMAZIN
 70
     0
  9
$DIMDSEP
 70
    44
  9
$DIMATFIT
 70
     3
  9
$DIMFRAC
 70
     0
  9
$DIMLDRBLK
  1

  9
$DIMLUNIT
 70
     2
  9
$DIMLWD
 70
    -2
  9
$DIMLWE
 70
    -2
  9
$DIMTMOVE
 70
     0
  9
$LUNITS
 70
     2
  9
$LUPREC
 70
     2
  9
$SKETCHINC
 40
1.0
  9
$FILLETRAD
 40
10.0
  9
$AUNITS
 70
     0
  9
$AUPREC
 70
     2
  9
$MENU
  1
.
  9
$ELEVATION
 40
0.0
  9
$PELEVATION
 40
0.0
  9
$THICKNESS
 40
0.0
  9
$LIMCHECK
 70
     0
  9
$CHAMFERA
 40
10.0
  9
$CHAMFERB
 40
10.0
  9
$CHAMFERC
 40
20.0
  9
$CHAMFERD
 40
0.0
  9
$SKPOLY
 70
     0
  9
$TDCREATE
 40
2455643.444773171
  9
$TDUCREATE
 40
2455643.403106505
  9
$TDUPDATE
 40
2455643.444773183
  9
$TDUUPDATE
 40
2455643.403106516
  9
$TDINDWG
 40
0.0000000116
  9
$TDUSRTIMER
 40
0.0000000116
  9
$USRTIMER
 70
     1
  9
$ANGBASE
 50
0.0
  9
$ANGDIR
 70
     0
  9
$PDMODE
 70
     0
  9
$PDSIZE
 40
-1.0
  9
$PLINEWID
 40
0.0
  9
$SPLFRAME
 70
     0
  9
$SPLINETYPE
 70
     6
  9
$SPLINESEGS
 70
     8
  9
$HANDSEED
  5
2B2
  9
$SURFTAB1
 70
     6
  9
$SURFTAB2
 70
     6
  9
$SURFTYPE
 70
     6
  9
$SURFU
 70
     6
  9
$SURFV
 70
     6
  9
$UCSBASE
  2

  9
$UCSNAME
  2

  9
$UCSORG
 10
0.0
 20
0.0
 30
0.0
  9
$UCSXDIR
 10
1.0
 20
0.0
 30
0.0
  9
$UCSYDIR
 10
0.0
 20
1.0
 30
0.0
  9
$UCSORTHOREF
  2

  9
$UCSORTHOVIEW
 70
     0
  9
$UCSORGTOP
 10
0.0
 20
0.0
 30
0.0
  9
$UCSORGBOTTOM
 10
0.0
 20
0.0
 30
0.0
  9
$UCSORGLEFT
 10
0.0
 20
0.0
 30
0.0
  9
$UCSORGRIGHT
 10
0.0
 20
0.0
 30
0.0
  9
$UCSORGFRONT
 10
0.0
 20
0.0
 30
0.0
  9
$UCSORGBACK
 10
0.0
 20
0.0
 30
0.0
  9
$PUCSBASE
  2

  9
$PUCSNAME
  2

  9
$PUCSORG
 10
0.0
 20
0.0
 30
0.0
  9
$PUCSXDIR
 10
1.0
 20
0.0
 30
0.0
  9
$PUCSYDIR
 10
0.0
 20
1.0
 30
0.0
  9
$PUCSORTHOREF
  2

  9
$PUCSORTHOVIEW
 70
     0
  9
$PUCSORGTOP
 10
0.0
 20
0.0
 30
0.0
  9
$PUCSORGBOTTOM
 10
0.0
 20
0.0
 30
0.0
  9
$PUCSORGLEFT
 10
0.0
 20
0.0
 30
0.0
  9
$PUCSORGRIGHT
 10
0.0
 20
0.0
 30
0.0
  9
$PUCSORGFRONT
 10
0.0
 20
0.0
 30
0.0
  9
$PUCSORGBACK
 10
0.0
 20
0.0
 30
0.0
  9
$USERI1
 70
     0
  9
$USERI2
 70
     0
  9
$USERI3
 70
     0
  9
$USERI4
 70
     0
  9
$USERI5
 70
     0
  9
$USERR1
 40
0.0
  9
$USERR2
 40
0.0
  9
$USERR3
 40
0.0
  9
$USERR4
 40
0.0
  9
$USERR5
 40
0.0
  9
$WORLDVIEW
 70
     1
  9
$SHADEDGE
 70
     3
  9
$SHADEDIF
 70
    70
  9
$TILEMODE
 70
     1
  9
$MAXACTVP
 70
    64
  9
$PINSBASE
 10
0.0
 20
0.0
 30
0.0
  9
$PLIMCHECK
 70
     0
  9
$PEXTMIN
 10
1.0000000000E+20
 20
1.0000000000E+20
 30
1.0000000000E+20
  9
$PEXTMAX
 10
-1.0000000000E+20
 20
-1.0000000000E+20
 30
-1.0000000000E+20
  9
$PLIMMIN
 10
0.0
 20
0.0
  9
$PLIMMAX
 10
420.0
 20
297.0
  9
$UNITMODE
 70
     0
  9
$VISRETAIN
 70
     1
  9
$PLINEGEN
 70
     0
  9
$PSLTSCALE
 70
     1
  9
$TREEDEPTH
 70
  3020
  9
$CMLSTYLE
  2
Standard
  9
$CMLJUST
 70
     0
  9
$CMLSCALE
 40
20.0
  9
$PROXYGRAPHICS
 70
     1
  9
$MEASUREMENT
 70
     1
  9
$CELWEIGHT
370
    -1
  9
$ENDCAPS
280
     0
  9
$JOINSTYLE
280
     0
  9
$LWDISPLAY
290
     1
  9
$INSUNITS
 70
     4
  9
$HYPERLINKBASE
  1

  9
$STYLESHEET
  1

  9
$XEDIT
290
     1
  9
$CEPSNTYPE
380
     0
  9
$PSTYLEMODE
290
     1
  9
$FINGERPRINTGUID
  2
{5F143FC9-6D20-41AB-B853-C8AEBE162A14}
  9
$VERSIONGUID
  2
{FAEB1C32-E019-11D5-929B-00C0DF256EC4}
  9
$EXTNAMES
290
     1
  9
$PSVPSCALE
 40
0.0
  9
$OLESTARTUP
290
     0
  0
ENDSEC
  0
SECTION
  2
CLASSES
  0
CLASS
  1
ACDBDICTIONARYWDFLT
  2
AcDbDictionaryWithDefault
  3
ObjectDBX Classes
 90
        0
280
     0
281
     0
  0
CLASS
  1
VISUALSTYLE
  2
AcDbVisualStyle
  3
ObjectDBX Classes
 90
     4095
280
     0
281
     0
  0
CLASS
  1
DICTIONARYVAR
  2
AcDbDictionaryVar
  3
ObjectDBX Classes
 90
        0
280
     0
281
     0
  0
CLASS
  1
ACDBPLACEHOLDER
  2
AcDbPlaceHolder
  3
ObjectDBX Classes
 90
        0
280
     0
281
     0
  0
CLASS
  1
LAYOUT
  2
AcDbLayout
  3
ObjectDBX Classes
 90
        0
280
     0
281
     0
  0
ENDSEC
  0
SECTION
  2
TABLES
  0
TABLE
  2
VPORT
  5
8
330
0
100
AcDbSymbolTable
 70
     1
  0
VPORT
  5
29
330
8
100
AcDbSymbolTableRecord
100
AcDbViewportTableRecord
  2
*Active
 70
     0
 10
0.0
 20
0.0
 11
1.0
 21
1.0
 12
148.5
 22
105.0
 13
0.0
 23
0.0
 14
10.0
 24
10.0
 15
10.0
 25
10.0
 16
0.0
 26
0.0
 36
1.0
 17
0.0
 27
0.0
 37
0.0
 40
210.0
 41
1.4142857143
 42
50.0
 43
0.0
 44
0.0
 50
0.0
 51
0.0
 71
     0
 72
  2000
 73
     1
 74
     3
 75
     0
 76
     0
 77
     0
 78
     0
281
     0
 65
     1
110
0.0
120
0.0
130
0.0
111
1.0
121
0.0
131
0.0
112
0.0
122
1.0
132
0.0
 79
     0
146
0.0
  0
ENDTAB
  0
TABLE
  2
LTYPE
  5
5
330
0
100
AcDbSymbolTable
 70
     6
  0
LTYPE
  5
14
330
5
100
AcDbSymbolTableRecord
100
AcDbLinetypeTableRecord
  2
ByBlock
 70
     0
  3

 72
    65
 73
     0
 40
0.0
  0
LTYPE
  5
15
330
5
100
AcDbSymbolTableRecord
100
AcDbLinetypeTableRecord
  2
ByLayer
 70
     0
  3

 72
    65
 73
     0
 40
0.0
  0
LTYPE
  5
16
330
5
100
AcDbSymbolTableRecord
100
AcDbLinetypeTableRecord
  2
Continuous
 70
     0
  3
Solid line
 72
    65
 73
     0
 40
0.0
  0
LTYPE
  5
3B
330
5
100
AcDbSymbolTableRecord
100
AcDbLinetypeTableRecord
  2
HIDDEN
 70
     0
  3
Hidden __ __ __ __ __ __ __ __ __ __ __ __ __ __
 72
    65
 73
     2
 40
1.905
 49
1.27
 74
     0
 49
-0.635
 74
     0
  0
LTYPE
  5
3C
330
5
100
AcDbSymbolTableRecord
100
AcDbLinetypeTableRecord
  2
PHANTOM
 70
     0
  3
Phantom ______  __  __  ______  __  __  ______
 72
    65
 73
     6
 40
12.7
 49
6.35
 74
     0
 49
-1.27
 74
     0
 49
1.27
 74
     0
 49
-1.27
 74
     0
 49
1.27
 74
     0
 49
-1.27
 74
     0
  0
LTYPE
  5
3D
330
5
100
AcDbSymbolTableRecord
100
AcDbLinetypeTableRecord
  2
CENTER
 70
     0
  3
Center ____ _ ____ _ ____ _ ____ _ ____ _ ____
 72
    65
 73
     4
 40
10.16
 49
6.35
 74
     0
 49
-1.27
 74
     0
 49
1.27
 74
     0
 49
-1.27
 74
     0
  0
LTYPE
  5
3E
330
5
100
AcDbSymbolTableRecord
100
AcDbLinetypeTableRecord
  2
CENTERX2
 70
     0
  3
Center (2x) ________  __  ________  __  _____
 72
    65
 73
     4
 40
20.32
 49
12.7
 74
     0
 49
-2.54
 74
     0
 49
2.54
 74
     0
 49
-2.54
 74
     0
  0
LTYPE
  5
3F
330
5
100
AcDbSymbolTableRecord
100
AcDbLinetypeTableRecord
  2
DOT2
 70
     0
  3
Dot (.5x) ........................................
 72
    65
 73
     2
 40
0.635
 49
0.0
 74
     0
 49
-0.635
 74
     0
  0
ENDTAB
  0
TABLE
  2
LAYER
  5
2
330
0
100
AcDbSymbolTable
 70
     5
  0
LAYER
  5
10
330
2
100
AcDbSymbolTableRecord
100
AcDbLayerTableRecord
  2
0
 70
     0
 62
     7
  6
Continuous
370
    -3
390
F
  0
LAYER
  5
40
330
2
100
AcDbSymbolTableRecord
100
AcDbLayerTableRecord
  2
FORMAT
 70
     0
 62
     7
  6
Continuous
370
    -3
390
F
  0
LAYER
  5
41
330
2
100
AcDbSymbolTableRecord
100
AcDbLayerTableRecord
  2
VERMASSUNG
 70
     0
 62
     7
  6
Continuous
370
    -3
390
F
  0
LAYER
  5
42
330
2
100
AcDbSymbolTableRecord
100
AcDbLayerTableRecord
  2
KOPF_DÜNN
 70
     0
 62
     7
  6
Continuous
370
    -3
390
F
  0
LAYER
  5
43
330
2
100
AcDbSymbolTableRecord
100
AcDbLayerTableRecord
  2
KOPF_DICK
 70
     0
 62
     7
  6
Continuous
370
    15
390
F
  0
ENDTAB
  0
TABLE
  2
STYLE
  5
3
330
0
100
AcDbSymbolTable
 70
     3
  0
STYLE
  5
11
330
3
100
AcDbSymbolTableRecord
100
AcDbTextStyleTableRecord
  2
Standard
 70
     0
 40
0.0
 41
1.0
 50
0.0
 71
     0
 42
2.5
  3
txt
  4

  0
STYLE
  5
44
330
3
100
AcDbSymbolTableRecord
100
AcDbTextStyleTableRecord
  2
SLDTEXTSTYLE0
 70
     0
 40
0.0
 41
0.7
 50
0.0
 71
     0
 42
0.2
  3
TXT
  4

  0
STYLE
  5
48
330
3
100
AcDbSymbolTableRecord
100
AcDbTextStyleTableRecord
  2
SLDTEXTSTYLE1
 70
     0
 40
0.0
 41
0.6473684211
 50
0.0
 71
     0
 42
0.2
  3
TXT
  4

  0
ENDTAB
  0
TABLE
  2
VIEW
  5
6
330
0
100
AcDbSymbolTable
 70
     0
  0
ENDTAB
  0
TABLE
  2
UCS
  5
7
330
0
100
AcDbSymbolTable
 70
     0
  0
ENDTAB
  0
TABLE
  2
APPID
  5
9
330
0
100
AcDbSymbolTable
 70
     1
  0
APPID
  5
12
330
9
100
AcDbSymbolTableRecord
100
AcDbRegAppTableRecord
  2
ACAD
 70
     0
  0
ENDTAB
  0
TABLE
  2
DIMSTYLE
  5
A
330
0
100
AcDbSymbolTable
 70
     3
100
AcDbDimStyleTable
  0
DIMSTYLE
105
27
330
A
100
AcDbSymbolTableRecord
100
AcDbDimStyleTableRecord
  2
ISO-25
 70
     0
 41
2.5
 42
0.625
 43
3.75
 44
1.25
 73
     0
 74
     0
 77
     1
 78
     8
140
2.5
141
2.5
143
0.0393700787
147
0.625
171
     3
172
     1
271
     2
272
     2
274
     3
278
    44
283
     0
284
     8
340
11
  0
DIMSTYLE
105
24A
102
{ACAD_REACTORS
330
249
330
255
330
261
330
26B
330
275
330
27F
330
289
330
294
102
}
330
A
100
AcDbSymbolTableRecord
100
AcDbDimStyleTableRecord
  2
SLDDIMSTYLE0
 70
     0
 41
3.0
 44
0.0
 45
0.000000001
 73
     0
 74
     0
 77
     1
 78
    12
140
2.0
147
0.5
173
     1
271
     2
272
     3
284
    12
340
44
  0
DIMSTYLE
105
2A0
102
{ACAD_REACTORS
330
29F
102
}
330
A
100
AcDbSymbolTableRecord
100
AcDbDimStyleTableRecord
  2
SLDDIMSTYLE1
 70
     0
 41
3.0
 44
0.0
 45
0.000000001
 73
     0
 74
     0
 77
     1
 78
    12
140
2.0
147
0.5
173
     1
271
     0
272
     3
284
    12
340
44
  0
ENDTAB
  0
TABLE
  2
BLOCK_RECORD
  5
1
330
0
100
AcDbSymbolTable
 70
    10
  0
BLOCK_RECORD
  5
1F
330
1
100
AcDbSymbolTableRecord
100
AcDbBlockTableRecord
  2
*Model_Space
340
22
  0
BLOCK_RECORD
  5
1B
330
1
100
AcDbSymbolTableRecord
100
AcDbBlockTableRecord
  2
*Paper_Space
340
1E
  0
BLOCK_RECORD
  5
23
330
1
100
AcDbSymbolTableRecord
100
AcDbBlockTableRecord
  2
*Paper_Space0
340
26
  0
BLOCK_RECORD
  5
24B
330
1
100
AcDbSymbolTableRecord
100
AcDbBlockTableRecord
  2
*D1
340
0
  0
BLOCK_RECORD
  5
256
330
1
100
AcDbSymbolTableRecord
100
AcDbBlockTableRecord
  2
*D2
340
0
  0
BLOCK_RECORD
  5
262
330
1
100
AcDbSymbolTableRecord
100
AcDbBlockTableRecord
  2
*D3
340
0
  0
BLOCK_RECORD
  5
26C
330
1
100
AcDbSymbolTableRecord
100
AcDbBlockTableRecord
  2
*D4
340
0
  0
BLOCK_RECORD
  5
276
330
1
100
AcDbSymbolTableRecord
100
AcDbBlockTableRecord
  2
*D5
340
0
  0
BLOCK_RECORD
  5
280
330
1
100
AcDbSymbolTableRecord
100
AcDbBlockTableRecord
  2
*D6
340
0
  0
BLOCK_RECORD
  5
28A
330
1
100
AcDbSymbolTableRecord
100
AcDbBlockTableRecord
  2
*D7
340
0
  0
BLOCK_RECORD
  5
295
330
1
100
AcDbSymbolTableRecord
100
AcDbBlockTableRecord
  2
*D8
340
0
  0
BLOCK_RECORD
  5
2A1
330
1
100
AcDbSymbolTableRecord
100
AcDbBlockTableRecord
  2
*D9
340
0
  0
ENDTAB
  0
ENDSEC
  0
SECTION
  2
BLOCKS
  0
BLOCK
  5
20
330
1F
100
AcDbEntity
  8
0
100
AcDbBlockBegin
  2
*Model_Space
 70
     0
 10
0.0
 20
0.0
 30
0.0
  3
*Model_Space
  1

  0
ENDBLK
  5
21
330
1F
100
AcDbEntity
  8
0
100
AcDbBlockEnd
  0
BLOCK
  5
1C
330
1B
100
AcDbEntity
 67
     1
  8
0
100
AcDbBlockBegin
  2
*Paper_Space
 70
     0
 10
0.0
 20
0.0
 30
0.0
  3
*Paper_Space
  1

  0
ENDBLK
  5
1D
330
1B
100
AcDbEntity
 67
     1
  8
0
100
AcDbBlockEnd
  0
BLOCK
  5
24
330
23
100
AcDbEntity
  8
0
100
AcDbBlockBegin
  2
*Paper_Space0
 70
     0
 10
0.0
 20
0.0
 30
0.0
  3
*Paper_Space0
  1

  0
ENDBLK
  5
25
330
23
100
AcDbEntity
  8
0
100
AcDbBlockEnd
  0
BLOCK
  5
24C
330
24B
100
AcDbEntity
  8
0
100
AcDbBlockBegin
  2
*D1
 70
     1
 10
0.0
 20
0.0
 30
0.0
  3
*D1
  1

  0
SOLID
  5
24E
330
24B
100
AcDbEntity
  8
VERMASSUNG
100
AcDbTrace
 10
250.2580721411
 20
99.9932813116
 30
0.0
 11
250.7080721411
 21
102.9932813116
 31
0.0
 12
249.8080721411
 22
102.9932813116
 32
0.0
 13
249.8080721411
 23
102.9932813116
 33
0.0
  0
SOLID
  5
24F
330
24B
100
AcDbEntity
  8
VERMASSUNG
100
AcDbTrace
 10
250.2580721411
 20
124.9932813116
 30
0.0
 11
249.8080721411
 21
121.9932813116
 31
0.0
 12
250.7080721411
 22
121.9932813116
 32
0.0
 13
250.7080721411
 23
121.9932813116
 33
0.0
  0
LINE
  5
250
330
24B
100
AcDbEntity
  8
VERMASSUNG
100
AcDbLine
 10
229.6561692931
 20
99.9932813116
 30
0.0
 11
251.2580721411
 21
99.9932813116
 31
0.0
  0
LINE
  5
251
330
24B
100
AcDbEntity
  8
VERMASSUNG
100
AcDbLine
 10
229.6561692931
 20
124.9932813116
 30
0.0
 11
251.2580721411
 21
124.9932813116
 31
0.0
  0
LINE
  5
252
330
24B
100
AcDbEntity
  8
VERMASSUNG
100
AcDbLine
 10
250.2580721411
 20
99.9932813116
 30
0.0
 11
250.2580721411
 21
124.9932813116
 31
0.0
  0
MTEXT
  5
253
330
24B
100
AcDbEntity
  8
VERMASSUNG
100
AcDbMText
 10
247.679936778
 20
109.5950662354
 30
0.0
 40
2.0
 41
0.0
 71
     1
 72
     1
  1
ER
  7
SLDTEXTSTYLE0
 11
6.123233995736766E-17
 21
1.0
 31
0.0
 73
     1
 44
1.0
  0
MTEXT
  5
254
330
24B
100
AcDbEntity
  8
VERMASSUNG
100
AcDbMText
 10
247.679936778
 20
112.5928846797
 30
0.0
 40
2.0
 41
0.0
 71
     1
 72
     1
  1
25
  7
SLDTEXTSTYLE0
 11
6.123233995736766E-17
 21
1.0
 31
0.0
 73
     1
 44
1.0
  0
ENDBLK
  5
24D
330
24B
100
AcDbEntity
  8
0
100
AcDbBlockEnd
  0
BLOCK
  5
257
330
256
100
AcDbEntity
  8
0
100
AcDbBlockBegin
  2
*D2
 70
     1
 10
0.0
 20
0.0
 30
0.0
  3
*D2
  1

  0
SOLID
  5
259
330
256
100
AcDbEntity
  8
VERMASSUNG
100
AcDbTrace
 10
41.3201705388
 20
143.9932813116
 30
0.0
 11
40.8701705388
 21
140.9932813116
 31
0.0
 12
41.7701705388
 22
140.9932813116
 32
0.0
 13
41.7701705388
 23
140.9932813116
 33
0.0
  0
SOLID
  5
25A
330
256
100
AcDbEntity
  8
VERMASSUNG
100
AcDbTrace
 10
41.3201705388
 20
80.9932813116
 30
0.0
 11
41.7701705388
 21
83.9932813116
 31
0.0
 12
40.8701705388
 22
83.9932813116
 32
0.0
 13
40.8701705388
 23
83.9932813116
 33
0.0
  0
LINE
  5
25B
330
256
100
AcDbEntity
  8
VERMASSUNG
100
AcDbLine
 10
81.9561692931
 20
143.9932813116
 30
0.0
 11
40.3201705388
 21
143.9932813116
 31
0.0
  0
LINE
  5
25C
330
256
100
AcDbEntity
  8
VERMASSUNG
100
AcDbLine
 10
81.9561692931
 20
80.9932813116
 30
0.0
 11
40.3201705388
 21
80.9932813116
 31
0.0
  0
LINE
  5
25D
330
256
100
AcDbEntity
  8
VERMASSUNG
100
AcDbLine
 10
41.3201705388
 20
143.9932813116
 30
0.0
 11
41.3201705388
 21
80.9932813116
 31
0.0
  0
MTEXT
  5
25E
330
256
100
AcDbEntity
  8
VERMASSUNG
100
AcDbMText
 10
38.5420350498
 20
105.2542500536
 30
0.0
 40
2.0
 41
0.0
 71
     1
 72
     1
  1
HSK A 
  7
SLDTEXTSTYLE0
 11
-7.044195017643634E-15
 21
1.0
 31
0.0
 73
     1
 44
1.0
  0
MTEXT
  5
25F
330
256
100
AcDbEntity
  8
VERMASSUNG
100
AcDbMText
 10
38.7420350593
 20
114.2542505975
 30
0.0
 40
2.0
 41
0.0
 71
     1
 72
     1
  1
%%c
  7
SLDTEXTSTYLE0
 11
-7.044195017643634E-15
 21
1.0
 31
0.0
 73
     1
 44
1.0
  0
MTEXT
  5
260
330
256
100
AcDbEntity
  8
VERMASSUNG
100
AcDbMText
 10
38.7420351757
 20
117.8625788427
 30
0.0
 40
2.0
 41
0.0
 71
     1
 72
     1
  1
63
  7
SLDTEXTSTYLE0
 11
-7.044195017643634E-15
 21
1.0
 31
0.0
 73
     1
 44
1.0
  0
ENDBLK
  5
258
330
256
100
AcDbEntity
  8
0
100
AcDbBlockEnd
  0
BLOCK
  5
263
330
262
100
AcDbEntity
  8
0
100
AcDbBlockBegin
  2
*D3
 70
     1
 10
0.0
 20
0.0
 30
0.0
  3
*D3
  1

  0
SOLID
  5
265
330
262
100
AcDbEntity
  8
VERMASSUNG
100
AcDbTrace
 10
241.6561692931
 20
165.9932813116
 30
0.0
 11
238.6561692931
 21
166.4432813116
 31
0.0
 12
238.6561692931
 22
165.5432813116
 32
0.0
 13
238.6561692931
 23
165.5432813116
 33
0.0
  0
SOLID
  5
266
330
262
100
AcDbEntity
  8
VERMASSUNG
100
AcDbTrace
 10
49.7561692931
 20
165.9932813116
 30
0.0
 11
52.7561692931
 21
165.5432813116
 31
0.0
 12
52.7561692931
 22
166.4432813116
 32
0.0
 13
52.7561692931
 23
166.4432813116
 33
0.0
  0
LINE
  5
267
330
262
100
AcDbEntity
  8
VERMASSUNG
100
AcDbLine
 10
241.6561692931
 20
127.4932813116
 30
0.0
 11
241.6561692931
 21
166.9932813116
 31
0.0
  0
LINE
  5
268
330
262
100
AcDbEntity
  8
VERMASSUNG
100
AcDbLine
 10
49.7561692931
 20
132.1839590581
 30
0.0
 11
49.7561692931
 21
166.9932813116
 31
0.0
  0
LINE
  5
269
330
262
100
AcDbEntity
  8
VERMASSUNG
100
AcDbLine
 10
241.6561692931
 20
165.9932813116
 30
0.0
 11
49.7561692931
 21
165.9932813116
 31
0.0
  0
MTEXT
  5
26A
330
262
100
AcDbEntity
  8
VERMASSUNG
100
AcDbMText
 10
148.2002265556
 20
168.5714166748
 30
0.0
 40
2.0
 41
0.0
 71
     1
 72
     1
  1
191.9
  7
SLDTEXTSTYLE0
 73
     1
 44
1.0
  0
ENDBLK
  5
264
330
262
100
AcDbEntity
  8
0
100
AcDbBlockEnd
  0
BLOCK
  5
26D
330
26C
100
AcDbEntity
  8
0
100
AcDbBlockBegin
  2
*D4
 70
     1
 10
0.0
 20
0.0
 30
0.0
  3
*D4
  1

  0
SOLID
  5
26F
330
26C
100
AcDbEntity
  8
VERMASSUNG
100
AcDbTrace
 10
241.6561692931
 20
159.9932813116
 30
0.0
 11
238.6561692931
 21
160.4432813116
 31
0.0
 12
238.6561692931
 22
159.5432813116
 32
0.0
 13
238.6561692931
 23
159.5432813116
 33
0.0
  0
SOLID
  5
270
330
26C
100
AcDbEntity
  8
VERMASSUNG
100
AcDbTrace
 10
81.6561692931
 20
159.9932813116
 30
0.0
 11
84.6561692931
 21
159.5432813116
 31
0.0
 12
84.6561692931
 22
160.4432813116
 32
0.0
 13
84.6561692931
 23
160.4432813116
 33
0.0
  0
LINE
  5
271
330
26C
100
AcDbEntity
  8
VERMASSUNG
100
AcDbLine
 10
241.6561692931
 20
104.7121287577
 30
0.0
 11
241.6561692931
 21
160.9932813116
 31
0.0
  0
LINE
  5
272
330
26C
100
AcDbEntity
  8
VERMASSUNG
100
AcDbLine
 10
81.6561692931
 20
143.6932813116
 30
0.0
 11
81.6561692931
 21
160.9932813116
 31
0.0
  0
LINE
  5
273
330
26C
100
AcDbEntity
  8
VERMASSUNG
100
AcDbLine
 10
241.6561692931
 20
159.9932813116
 30
0.0
 11
81.6561692931
 21
159.9932813116
 31
0.0
  0
MTEXT
  5
274
330
26C
100
AcDbEntity
  8
VERMASSUNG
100
AcDbMText
 10
155.2562761255
 20
162.5714166748
 30
0.0
 40
2.0
 41
0.0
 71
     1
 72
     1
  1
160
  7
SLDTEXTSTYLE0
 73
     1
 44
1.0
  0
ENDBLK
  5
26E
330
26C
100
AcDbEntity
  8
0
100
AcDbBlockEnd
  0
BLOCK
  5
277
330
276
100
AcDbEntity
  8
0
100
AcDbBlockBegin
  2
*D5
 70
     1
 10
0.0
 20
0.0
 30
0.0
  3
*D5
  1

  0
SOLID
  5
279
330
276
100
AcDbEntity
  8
VERMASSUNG
100
AcDbTrace
 10
107.6061692931
 20
153.9932813116
 30
0.0
 11
110.6061692931
 21
153.5432813116
 31
0.0
 12
110.6061692931
 22
154.4432813116
 32
0.0
 13
110.6061692931
 23
154.4432813116
 33
0.0
  0
SOLID
  5
27A
330
276
100
AcDbEntity
  8
VERMASSUNG
100
AcDbTrace
 10
241.6561692931
 20
153.9932813116
 30
0.0
 11
238.6561692931
 21
154.4432813116
 31
0.0
 12
238.6561692931
 22
153.5432813116
 32
0.0
 13
238.6561692931
 23
153.5432813116
 33
0.0
  0
LINE
  5
27B
330
276
100
AcDbEntity
  8
VERMASSUNG
100
AcDbLine
 10
107.6061692931
 20
142.3397216354
 30
0.0
 11
107.6061692931
 21
154.9932813116
 31
0.0
  0
LINE
  5
27C
330
276
100
AcDbEntity
  8
VERMASSUNG
100
AcDbLine
 10
241.6561692931
 20
104.7121287577
 30
0.0
 11
241.6561692931
 21
154.9932813116
 31
0.0
  0
LINE
  5
27D
330
276
100
AcDbEntity
  8
VERMASSUNG
100
AcDbLine
 10
107.6061692931
 20
153.9932813116
 30
0.0
 11
241.6561692931
 21
153.9932813116
 31
0.0
  0
MTEXT
  5
27E
330
276
100
AcDbEntity
  8
VERMASSUNG
100
AcDbMText
 10
164.7675980269
 20
156.5714166748
 30
0.0
 40
2.0
 41
0.0
 71
     1
 72
     1
  1
134.05
  7
SLDTEXTSTYLE0
 73
     1
 44
1.0
  0
ENDBLK
  5
278
330
276
100
AcDbEntity
  8
0
100
AcDbBlockEnd
  0
BLOCK
  5
281
330
280
100
AcDbEntity
  8
0
100
AcDbBlockBegin
  2
*D6
 70
     1
 10
0.0
 20
0.0
 30
0.0
  3
*D6
  1

  0
SOLID
  5
283
330
280
100
AcDbEntity
  8
VERMASSUNG
100
AcDbTrace
 10
204.7523752648
 20
147.9932813116
 30
0.0
 11
207.7523752648
 21
147.5432813116
 31
0.0
 12
207.7523752648
 22
148.4432813116
 32
0.0
 13
207.7523752648
 23
148.4432813116
 33
0.0
  0
SOLID
  5
284
330
280
100
AcDbEntity
  8
VERMASSUNG
100
AcDbTrace
 10
241.6561692931
 20
147.9932813116
 30
0.0
 11
238.6561692931
 21
148.4432813116
 31
0.0
 12
238.6561692931
 22
147.5432813116
 32
0.0
 13
238.6561692931
 23
147.5432813116
 33
0.0
  0
LINE
  5
285
330
280
100
AcDbEntity
  8
VERMASSUNG
100
AcDbLine
 10
204.7523752648
 20
121.4932813116
 30
0.0
 11
204.7523752648
 21
148.9932813116
 31
0.0
  0
LINE
  5
286
330
280
100
AcDbEntity
  8
VERMASSUNG
100
AcDbLine
 10
241.6561692931
 20
127.4932813116
 30
0.0
 11
241.6561692931
 21
148.9932813116
 31
0.0
  0
LINE
  5
287
330
280
100
AcDbEntity
  8
VERMASSUNG
100
AcDbLine
 10
204.7523752648
 20
147.9932813116
 30
0.0
 11
241.6561692931
 21
147.9932813116
 31
0.0
  0
MTEXT
  5
288
330
280
100
AcDbEntity
  8
VERMASSUNG
100
AcDbMText
 10
221.6179203435
 20
150.5714166748
 30
0.0
 40
2.0
 41
0.0
 71
     1
 72
     1
  1
36.9
  7
SLDTEXTSTYLE0
 73
     1
 44
1.0
  0
ENDBLK
  5
282
330
280
100
AcDbEntity
  8
0
100
AcDbBlockEnd
  0
BLOCK
  5
28B
330
28A
100
AcDbEntity
  8
0
100
AcDbBlockBegin
  2
*D7
 70
     1
 10
0.0
 20
0.0
 30
0.0
  3
*D7
  1

  0
SOLID
  5
28D
330
28A
100
AcDbEntity
  8
VERMASSUNG
100
AcDbTrace
 10
262.2580721411
 20
133.3432813116
 30
0.0
 11
261.8080721411
 21
130.3432813116
 31
0.0
 12
262.7080721411
 22
130.3432813116
 32
0.0
 13
262.7080721411
 23
130.3432813116
 33
0.0
  0
SOLID
  5
28E
330
28A
100
AcDbEntity
  8
VERMASSUNG
100
AcDbTrace
 10
262.2580721411
 20
91.6432813116
 30
0.0
 11
262.7080721411
 21
94.6432813116
 31
0.0
 12
261.8080721411
 22
94.6432813116
 32
0.0
 13
261.8080721411
 23
94.6432813116
 33
0.0
  0
LINE
  5
28F
330
28A
100
AcDbEntity
  8
VERMASSUNG
100
AcDbLine
 10
238.2786698031
 20
133.3432813116
 30
0.0
 11
263.2580721411
 21
133.3432813116
 31
0.0
  0
LINE
  5
290
330
28A
100
AcDbEntity
  8
VERMASSUNG
100
AcDbLine
 10
238.2786698031
 20
91.6432813116
 30
0.0
 11
263.2580721411
 21
91.6432813116
 31
0.0
  0
LINE
  5
291
330
28A
100
AcDbEntity
  8
VERMASSUNG
100
AcDbLine
 10
262.2580721411
 20
133.3432813116
 30
0.0
 11
262.2580721411
 21
91.6432813116
 31
0.0
  0
MTEXT
  5
292
330
28A
100
AcDbEntity
  8
VERMASSUNG
100
AcDbMText
 10
259.6799366616
 20
108.3901084167
 30
0.0
 40
2.0
 41
0.0
 71
     1
 72
     1
  1
%%c
  7
SLDTEXTSTYLE0
 11
-7.044195017643634E-15
 21
1.0
 31
0.0
 73
     1
 44
1.0
  0
MTEXT
  5
293
330
28A
100
AcDbEntity
  8
VERMASSUNG
100
AcDbMText
 10
259.679936778
 20
111.9976938217
 30
0.0
 40
2.0
 41
0.0
 71
     1
 72
     1
  1
41.7
  7
SLDTEXTSTYLE0
 11
-7.044195017643634E-15
 21
1.0
 31
0.0
 73
     1
 44
1.0
  0
ENDBLK
  5
28C
330
28A
100
AcDbEntity
  8
0
100
AcDbBlockEnd
  0
BLOCK
  5
296
330
295
100
AcDbEntity
  8
0
100
AcDbBlockBegin
  2
*D8
 70
     1
 10
0.0
 20
0.0
 30
0.0
  3
*D8
  1

  0
SOLID
  5
298
330
295
100
AcDbEntity
  8
VERMASSUNG
100
AcDbTrace
 10
256.2580721411
 20
130.9932813116
 30
0.0
 11
255.8080721411
 21
127.9932813116
 31
0.0
 12
256.7080721411
 22
127.9932813116
 32
0.0
 13
256.7080721411
 23
127.9932813116
 33
0.0
  0
SOLID
  5
299
330
295
100
AcDbEntity
  8
VERMASSUNG
100
AcDbTrace
 10
256.2580721411
 20
93.9932813116
 30
0.0
 11
256.7080721411
 21
96.9932813116
 31
0.0
 12
255.8080721411
 22
96.9932813116
 32
0.0
 13
255.8080721411
 23
96.9932813116
 33
0.0
  0
LINE
  5
29A
330
295
100
AcDbEntity
  8
VERMASSUNG
100
AcDbLine
 10
152.6061692931
 20
130.9932813116
 30
0.0
 11
257.2580721411
 21
130.9932813116
 31
0.0
  0
LINE
  5
29B
330
295
100
AcDbEntity
  8
VERMASSUNG
100
AcDbLine
 10
152.6061692931
 20
93.9932813116
 30
0.0
 11
257.2580721411
 21
93.9932813116
 31
0.0
  0
LINE
  5
29C
330
295
100
AcDbEntity
  8
VERMASSUNG
100
AcDbLine
 10
256.2580721411
 20
130.9932813116
 30
0.0
 11
256.2580721411
 21
93.9932813116
 31
0.0
  0
MTEXT
  5
29D
330
295
100
AcDbEntity
  8
VERMASSUNG
100
AcDbMText
 10
253.6799366616
 20
109.2901827551
 30
0.0
 40
2.0
 41
0.0
 71
     1
 72
     1
  1
%%c
  7
SLDTEXTSTYLE0
 11
-7.044195017643634E-15
 21
1.0
 31
0.0
 73
     1
 44
1.0
  0
MTEXT
  5
29E
330
295
100
AcDbEntity
  8
VERMASSUNG
100
AcDbMText
 10
253.679936778
 20
112.8977681601
 30
0.0
 40
2.0
 41
0.0
 71
     1
 72
     1
  1
37
  7
SLDTEXTSTYLE0
 11
-7.044195017643634E-15
 21
1.0
 31
0.0
 73
     1
 44
1.0
  0
ENDBLK
  5
297
330
295
100
AcDbEntity
  8
0
100
AcDbBlockEnd
  0
BLOCK
  5
2A2
330
2A1
100
AcDbEntity
  8
0
100
AcDbBlockBegin
  2
*D9
 70
     1
 10
0.0
 20
0.0
 30
0.0
  3
*D9
  1

  0
SOLID
  5
2A4
330
2A1
100
AcDbEntity
  8
VERMASSUNG
100
AcDbTrace
 10
268.2580721411
 20
134.1025171895
 30
0.0
 11
267.8080721411
 21
131.1025171895
 31
0.0
 12
268.7080721411
 22
131.1025171895
 32
0.0
 13
268.7080721411
 23
131.1025171895
 33
0.0
  0
SOLID
  5
2A5
330
2A1
100
AcDbEntity
  8
VERMASSUNG
100
AcDbTrace
 10
268.2580721411
 20
90.8840454338
 30
0.0
 11
268.7080721411
 21
93.8840454338
 31
0.0
 12
267.8080721411
 22
93.8840454338
 32
0.0
 13
267.8080721411
 23
93.8840454338
 33
0.0
  0
LINE
  5
2A6
330
2A1
100
AcDbEntity
  8
VERMASSUNG
100
AcDbLine
 10
109.8639012519
 20
134.1025171895
 30
0.0
 11
269.2580721411
 21
134.1025171895
 31
0.0
  0
LINE
  5
2A7
330
2A1
100
AcDbEntity
  8
VERMASSUNG
100
AcDbLine
 10
109.8639012519
 20
90.8840454338
 30
0.0
 11
269.2580721411
 21
90.8840454338
 31
0.0
  0
LINE
  5
2A8
330
2A1
100
AcDbEntity
  8
VERMASSUNG
100
AcDbLine
 10
268.2580721411
 20
134.1025171895
 30
0.0
 11
268.2580721411
 21
90.8840454338
 31
0.0
  0
MTEXT
  5
2A9
330
2A1
100
AcDbEntity
  8
VERMASSUNG
100
AcDbMText
 10
265.6799366616
 20
109.190579387
 30
0.0
 40
2.0
 41
0.0
 71
     1
 72
     1
  1
%%c
  7
SLDTEXTSTYLE0
 11
-6.156016597943509E-15
 21
1.0
 31
0.0
 73
     1
 44
1.0
  0
MTEXT
  5
2AA
330
2A1
100
AcDbEntity
  8
VERMASSUNG
100
AcDbMText
 10
265.679936778
 20
112.798164792
 30
0.0
 40
2.0
 41
0.0
 71
     1
 72
     1
  1
43
  7
SLDTEXTSTYLE0
 11
-6.156016597943509E-15
 21
1.0
 31
0.0
 73
     1
 44
1.0
  0
ENDBLK
  5
2A3
330
2A1
100
AcDbEntity
  8
0
100
AcDbBlockEnd
  0
ENDSEC
  0
SECTION
  2
ENTITIES
  0
MTEXT
  5
45
330
1F
100
AcDbEntity
  8
KOPF_DÜNN
100
AcDbMText
 10
13.8892156294
 20
23.8442973028
 30
0.0
 40
3.0
 41
0.0
 71
     1
 72
     1
  1
HA6.E25.K01.160
  7
SLDTEXTSTYLE0
 73
     1
 44
1.0
  0
MTEXT
  5
46
330
1F
100
AcDbEntity
  8
VERMASSUNG
100
AcDbMText
 10
13.9329988022
 20
28.8834360957
 30
0.0
 40
3.0
 41
0.0
 71
     1
 72
     1
  1
Spannzangenfutter_Collet chuck ER25
  7
SLDTEXTSTYLE0
 73
     1
 44
1.0
  0
MTEXT
  5
47
330
1F
100
AcDbEntity
  8
VERMASSUNG
100
AcDbMText
 10
98.8601118557
 20
13.8365368179
 30
0.0
 40
2.0
 41
0.0
 71
     1
 72
     1
  1
Datum: 10.10.2006
  7
SLDTEXTSTYLE0
 73
     1
 44
1.0
  0
MTEXT
  5
49
330
1F
100
AcDbEntity
  8
VERMASSUNG
100
AcDbMText
 10
13.933048693
 20
18.0482802738
 30
0.0
 40
2.0
 41
0.0
 71
     1
 72
     1
  1
DIN 69 893 HSK A 63
  7
SLDTEXTSTYLE1
 73
     1
 44
1.0
  0
MTEXT
  5
4A
330
1F
100
AcDbEntity
  8
VERMASSUNG
100
AcDbMText
 10
13.9808475933
 20
13.9090973692
 30
0.0
 40
2.0
 41
0.0
 71
     1
 72
     1
  1
Gewicht: 1544g
  7
SLDTEXTSTYLE0
 73
     1
 44
1.0
  0
LINE
  5
4B
330
1F
100
AcDbEntity
  8
0
  6
Continuous
 62
     7
370
    15
100
AcDbLine
 10
81.9561693073
 20
80.993280805
 30
0.0
 11
86.6061692663
 21
80.993280805
 31
0.0
  0
LINE
  5
4C
330
1F
100
AcDbEntity
  8
0
  6
Continuous
 62
     7
370
    15
100
AcDbLine
 10
86.6154773697
 20
143.9932818183
 30
0.0
 11
81.9561693073
 21
143.9932818183
 31
0.0
  0
ARC
  5
4D
330
1F
100
AcDbEntity
  8
0
  6
Continuous
 62
     7
370
    15
100
AcDbCircle
 10
81.9561692931
 20
81.2932813116
 30
0.0
 40
0.3000000000000114
100
AcDbArc
 50
180.0
 51
270.0
  0
ARC
  5
4E
330
1F
100
AcDbEntity
  8
0
  6
Continuous
 62
     7
370
    15
100
AcDbCircle
 10
81.9561692931
 20
143.6932813116
 30
0.0
 40
0.2999999999999972
100
AcDbArc
 50
90.0
 51
180.0
  0
ARC
  5
4F
330
1F
100
AcDbEntity
  8
0
  6
Continuous
 62
     7
370
    15
100
AcDbCircle
 10
81.1561625404
 20
87.9228436972
 30
0.0
 40
0.6000067526677242
100
AcDbArc
 50
33.5571153394
 51
90.0
  0
ARC
  5
50
330
1F
100
AcDbEntity
  8
0
  6
Continuous
 62
     7
370
    15
100
AcDbCircle
 10
81.1561625404
 20
137.063718926
 30
0.0
 40
0.6000067526677242
100
AcDbArc
 50
270.0
 51
326.4428846606
  0
ARC
  5
51
330
1F
100
AcDbEntity
  8
0
  6
Continuous
 62
     7
370
    15
100
AcDbCircle
 10
110.6061692931
 20
87.9773225101
 30
0.0
 40
3.000000000000003
100
AcDbArc
 50
104.3250519401
 51
180.0
  0
ARC
  5
52
330
1F
100
AcDbEntity
  8
0
  6
Continuous
 62
     7
370
    15
100
AcDbCircle
 10
110.6061692931
 20
137.0092401131
 30
0.0
 40
3.0
100
AcDbArc
 50
180.0
 51
255.6749480599
  0
LINE
  5
53
330
1F
100
AcDbEntity
  8
0
  6
Continuous
 62
     7
370
    15
100
AcDbLine
 10
79.6561691981
 20
88.2728500881
 30
0.0
 11
80.5128821243
 21
88.5024062016
 31
0.0
  0
LINE
  5
54
330
1F
100
AcDbEntity
  8
0
  6
Continuous
 62
     7
370
    15
100
AcDbLine
 10
80.5128821243
 20
136.4841564217
 30
0.0
 11
79.6561691981
 21
136.7137125351
 31
0.0
  0
LINE
  5
55
330
1F
100
AcDbEntity
  8
0
  6
Continuous
 62
     7
370
    15
100
AcDbLine
 10
68.4257467814
 20
136.1510651776
 30
0.0
 11
55.8561684169
 21
135.5213272043
 31
0.0
  0
LINE
  5
56
330
1F
100
AcDbEntity
  8
0
  6
Continuous
 62
     7
370
    15
100
AcDbLine
 10
79.6561691981
 20
136.7137125351
 30
0.0
 11
76.8375598431
 21
136.5724998184
 31
0.0
  0
LINE
  5
57
330
1F
100
AcDbEntity
  8
0
  6
Continuous
 62
     7
370
    15
100
AcDbLine
 10
76.8377814979
 20
88.4140516289
 30
0.0
 11
79.6561691981
 21
88.2728500881
 31
0.0
  0
LINE
  5
58
330
1F
100
AcDbEntity
  8
0
  6
Continuous
 62
     7
370
    15
100
AcDbLine
 10
59.8561690726
 20
89.26483529
 30
0.0
 11
68.4264462047
 21
88.8354620554
 31
0.0
  0
ARC
  5
59
330
1F
100
AcDbEntity
  8
0
  6
Continuous
 62
     7
370
    15
100
AcDbCircle
 10
80.6681734935
 20
87.9228504499
 30
0.0
 40
0.5999999999999943
100
AcDbArc
 50
90.0
 51
105.0
  0
ARC
  5
5A
330
1F
100
AcDbEntity
  8
0
  6
Continuous
 62
     7
370
    15
100
AcDbCircle
 10
80.6681734935
 20
137.0637121734
 30
0.0
 40
0.6000000000000227
100
AcDbArc
 50
255.0
 51
270.0
  0
LINE
  5
5B
330
1F
100
AcDbEntity
  8
0
  6
Continuous
 62
     7
370
    15
100
AcDbLine
 10
80.6681735279
 20
88.5228505948
 30
0.0
 11
81.1561625173
 21
88.5228505948
 31
0.0
  0
LINE
  5
5C
330
1F
100
AcDbEntity
  8
0
  6
Continuous
 62
     7
370
    15
100
AcDbLine
 10
81.1561625173
 20
136.4637120285
 30
0.0
 11
80.6681735279
 21
136.4637120285
 31
0.0
  0
ARC
  5
5D
330
1F
100
AcDbEntity
  8
0
  6
Continuous
 62
     7
370
    15
100
AcDbCircle
 10
134.6061692931
 20
-6.0067186884
 30
0.0
 40
99.99999999999997
100
AcDbArc
 50
90.0
 51
104.3250519401
  0
ARC
  5
5E
330
1F
100
AcDbEntity
  8
0
  6
Continuous
 62
     7
370
    15
100
AcDbCircle
 10
134.6061692931
 20
230.9932813116
 30
0.0
 40
100.0
100
AcDbArc
 50
255.6749480599
 51
270.0
  0
ARC
  5
5F
330
1F
100
AcDbEntity
  8
0
  6
Continuous
 62
     7
370
    15
100
AcDbCircle
 10
211.2896422646
 20
818.4932813116
 30
0.0
 40
689.9999999999999
100
AcDbArc
 50
265.1211855216
 51
270.0
  0
ARC
  5
60
330
1F
100
AcDbEntity
  8
0
  6
Continuous
 62
     7
370
    15
100
AcDbCircle
 10
211.2896422646
 20
-593.5067186884
 30
0.0
 40
690.0
100
AcDbArc
 50
90.0
 51
94.8788144784
  0
LINE
  5
61
330
1F
100
AcDbEntity
  8
0
  6
Continuous
 62
     7
370
    15
100
AcDbLine
 10
147.1048930265
 20
93.9932810732
 30
0.0
 11
152.6061707713
 21
93.9932810732
 31
0.0
  0
LINE
  5
62
330
1F
100
AcDbEntity
  8
0
  6
Continuous
 62
     7
370
    15
100
AcDbLine
 10
134.6061678209
 20
93.9932810732
 30
0.0
 11
140.1166246809
 21
93.9932810732
 31
0.0
  0
LINE
  5
63
330
1F
100
AcDbEntity
  8
0
  6
Continuous
 62
     7
370
    15
100
AcDbLine
 10
140.1127429284
 20
130.99328155
 30
0.0
 11
134.6061678209
 21
130.99328155
 31
0.0
  0
LINE
  5
64
330
1F
100
AcDbEntity
  8
0
  6
Continuous
 62
     7
370
    15
100
AcDbLine
 10
152.6061707713
 20
130.99328155
 30
0.0
 11
147.099483905
 21
130.99328155
 31
0.0
  0
LINE
  5
65
330
1F
100
AcDbEntity
  8
0
  6
Continuous
 62
     7
370
    15
100
AcDbLine
 10
221.6561698891
 20
128.4932820716
 30
0.0
 11
211.2896406628
 21
128.4932820716
 31
0.0
  0
LINE
  5
66
330
1F
100
AcDbEntity
  8
0
  6
Continuous
 62
     7
370
    15
100
AcDbLine
 10
211.2896406628
 20
96.4932805517
 30
0.0
 11
221.6561698891
 21
96.4932805517
 31
0.0
  0
LINE
  5
67
330
1F
100
AcDbEntity
  8
0
  6
Continuous
 62
     7
370
    15
100
AcDbLine
 10
51.0395058967
 20
91.6232811876
 30
0.0
 11
58.4561695881
 21
91.6232811876
 31
0.0
  0
ARC
  5
68
330
1F
100
AcDbEntity
  8
0
  6
Continuous
 62
     7
370
    15
100
AcDbCircle
 10
58.4561692931
 20
90.2232813116
 30
0.0
 40
1.400000000000006
100
AcDbArc
 50
42.2465410162
 51
90.0
  0
LINE
  5
69
330
1F
100
AcDbEntity
  8
0
  6
Continuous
 62
     7
370
    15
100
AcDbLine
 10
49.7572013714
 20
92.77224826
 30
0.0
 11
50.8973320551
 21
91.6321175762
 31
0.0
  0
LINE
  5
6A
330
1F
100
AcDbEntity
  8
0
  6
Continuous
 62
     7
370
    15
100
AcDbLine
 10
50.8973320551
 20
133.354445047
 30
0.0
 11
49.7660712876
 21
132.2231824168
 31
0.0
  0
ARC
  5
6B
330
1F
100
AcDbEntity
  8
0
  6
Continuous
 62
     7
370
    15
100
AcDbCircle
 10
54.4561692931
 20
134.7632813116
 30
0.0
 40
1.399999999999987
100
AcDbArc
 50
270.0
 51
301.7485287426
  0
LINE
  5
6C
330
1F
100
AcDbEntity
  8
0
  6
Continuous
 62
     7
370
    15
100
AcDbLine
 10
54.4561689325
 20
133.3632814356
 30
0.0
 11
51.0304348149
 21
133.3632814356
 31
0.0
  0
LINE
  5
6D
330
1F
100
AcDbEntity
  8
0
  6
Continuous
 62
     7
370
    15
100
AcDbLine
 10
222.4561685302
 20
91.6432804086
 30
0.0
 11
238.2786685206
 21
91.6432804086
 31
0.0
  0
LINE
  5
6E
330
1F
100
AcDbEntity
  8
0
  6
Continuous
 62
     7
370
    15
100
AcDbLine
 10
238.2786685206
 20
133.3432822146
 30
0.0
 11
222.4561685302
 21
133.3432822146
 31
0.0
  0
LINE
  5
6F
330
1F
100
AcDbEntity
  8
0
  6
Continuous
 62
     7
370
    15
100
AcDbLine
 10
222.4561685302
 20
133.3432822146
 30
0.0
 11
221.6561698891
 21
132.543281711
 31
0.0
  0
LINE
  5
70
330
1F
100
AcDbEntity
  8
0
  6
Continuous
 62
     7
370
    15
100
AcDbLine
 10
221.6561698891
 20
92.4432809123
 30
0.0
 11
222.4561685302
 21
91.6432804086
 31
0.0
  0
LINE
  5
71
330
1F
100
AcDbEntity
  8
0
  6
Continuous
 62
     7
370
    15
100
AcDbLine
 10
238.2786685206
 20
91.6432804086
 30
0.0
 11
241.6561657168
 21
97.4932816469
 31
0.0
  0
LINE
  5
72
330
1F
100
AcDbEntity
  8
0
  6
Continuous
 62
     7
370
    15
100
AcDbLine
 10
241.6561657168
 20
127.4932809764
 30
0.0
 11
238.2786685206
 21
133.3432822146
 31
0.0
  0
SPLINE
  5
73
330
1F
100
AcDbEntity
  8
0
  6
Continuous
 62
     7
370
    15
100
AcDbSpline
210
0.0
220
0.0
230
1.0
 70
     8
 71
     3
 72
    70
 73
    66
 74
     0
 42
0.00000001
 43
0.00000001
 40
-0.03125
 40
-0.03125
 40
0.0
 40
0.0
 40
0.03125
 40
0.03125
 40
0.0625
 40
0.0625
 40
0.09375
 40
0.09375
 40
0.125
 40
0.125
 40
0.15625
 40
0.15625
 40
0.1875
 40
0.1875
 40
0.21875
 40
0.21875
 40
0.25
 40
0.25
 40
0.28125
 40
0.28125
 40
0.3125
 40
0.3125
 40
0.34375
 40
0.34375
 40
0.375
 40
0.375
 40
0.40625
 40
0.40625
 40
0.4375
 40
0.4375
 40
0.46875
 40
0.46875
 40
0.5
 40
0.5
 40
0.53125
 40
0.53125
 40
0.5625
 40
0.5625
 40
0.59375
 40
0.59375
 40
0.625
 40
0.625
 40
0.65625
 40
0.65625
 40
0.6875
 40
0.6875
 40
0.71875
 40
0.71875
 40
0.75
 40
0.75
 40
0.78125
 40
0.78125
 40
0.8125
 40
0.8125
 40
0.84375
 40
0.84375
 40
0.875
 40
0.875
 40
0.90625
 40
0.90625
 40
0.9375
 40
0.9375
 40
0.96875
 40
0.96875
 40
1.0
 40
1.0
 40
1.03125
 40
1.03125
 10
89.39162395443856
 20
123.1141881976109
 30
0.0
 10
89.92071463175886
 20
123.1141881976109
 30
0.0
 10
90.18078529913595
 20
123.1388654923961
 30
0.0
 10
90.69235997897137
 20
123.235337165438
 30
0.0
 10
90.94653526271155
 20
123.308318081418
 30
0.0
 10
91.43080589277325
 20
123.4980586843567
 30
0.0
 10
91.66044698465441
 20
123.6139193427504
 30
0.0
 10
92.0950513328879
 20
123.8865371887081
 30
0.0
 10
92.30061710953453
 20
124.0445762707619
 30
0.0
 10
92.66917425012976
 20
124.3881191217325
 30
0.0
 10
92.83465523286525
 20
124.5748815658342
 30
0.0
 10
93.12707974230035
 20
124.978424740231
 30
0.0
 10
93.25118071892683
 20
125.1919217366602
 30
0.0
 10
93.45075991567656
 20
125.6313050505827
 30
0.0
 10
93.52769350153484
 20
125.8604450377283
 30
0.0
 10
93.6305505600552
 20
126.3264191604883
 30
0.0
 10
93.65602346951432
 20
126.5593016061645
 30
0.0
 10
93.65631388008211
 20
127.0246991412443
 30
0.0
 10
93.63028924630638
 20
127.2595748986386
 30
0.0
 10
93.52814096181436
 20
127.7110680458849
 30
0.0
 10
93.4525645142312
 20
127.9291145212963
 30
0.0
 10
93.25206698308628
 20
128.3502090463341
 30
0.0
 10
93.1269381415779
 20
128.5521304308524
 30
0.0
 10
92.8375793405563
 20
128.9241599133713
 30
0.0
 10
92.67216835350084
 20
129.0967882169516
 30
0.0
 10
92.29917779535302
 20
129.4141062214977
 30
0.0
 10
92.09744476226392
 20
129.5538931549993
 30
0.0
 10
91.66458551143604
 20
129.7980694085511
 30
0.0
 10
91.43066697854667
 20
129.9032989195926
 30
0.0
 10
90.94648324340405
 20
130.0714560659677
 30
0.0
 10
90.69716761744854
 20
130.1347069565616
 30
0.0
 10
90.18413509302081
 20
130.2202861656642
 30
0.0
 10
89.91884127011618
 20
130.2421583305866
 30
0.0
 10
89.39650665024642
 20
130.2423219802305
 30
0.0
 10
89.1367529877647
 20
130.2213202881345
 30
0.0
 10
88.62014117211946
 20
130.1359179330569
 30
0.0
 10
88.36777513161917
 20
130.0719117497699
 30
0.0
 10
87.88625001008634
 20
129.9050972297287
 30
0.0
 10
87.6533992779728
 20
129.8009640663296
 30
0.0
 10
87.21630942953402
 20
129.5549774138346
 30
0.0
 10
87.01498844087685
 20
129.4152275828858
 30
0.0
 10
86.64590241557694
 20
129.1020895131612
 30
0.0
 10
86.47691766452526
 20
128.9266333538911
 30
0.0
 10
86.18646160786604
 20
128.5537930897909
 30
0.0
 10
86.06338979650391
 20
128.3556712796799
 30
0.0
 10
85.86205355508189
 20
127.9349599369463
 30
0.0
 10
85.78484100913967
 20
127.7129699162787
 30
0.0
 10
85.6826374662396
 20
127.2631049765704
 30
0.0
 10
85.65640911478728
 20
127.0328495634536
 30
0.0
 10
85.65593271547017
 20
126.5615336209045
 30
0.0
 10
85.68167512796815
 20
126.3282962051904
 30
0.0
 10
85.78298590433201
 20
125.8666196656923
 30
0.0
 10
85.85981854372294
 20
125.6357222785802
 30
0.0
 10
86.06022238293812
 20
125.1934462647885
 30
0.0
 10
86.18289388123016
 20
124.9823838335026
 30
0.0
 10
86.4728411703944
 20
124.58088532277
 30
0.0
 10
86.64141214975962
 20
124.389978800694
 30
0.0
 10
87.00968174387279
 20
124.0462534686969
 30
0.0
 10
87.21074360114311
 20
123.8911162824829
 30
0.0
 10
87.64777451972802
 20
123.6160389224031
 30
0.0
 10
87.87992273285764
 20
123.4989226929811
 30
0.0
 10
88.36093301435649
 20
123.3099962079166
 30
0.0
 10
88.61303309718693
 20
123.2369212375223
 30
0.0
 10
89.13010258344593
 20
123.1388691783878
 30
0.0
 10
89.39162395443856
 20
123.1141881976109
 30
0.0
 10
89.92071463175886
 20
123.1141881976109
 30
0.0
  0
LINE
  5
74
330
1F
100
AcDbEntity
  8
0
  6
Continuous
 62
     7
370
    15
100
AcDbLine
 10
86.6061692663
 20
132.3432820507
 30
0.0
 11
96.2642367535
 21
132.3432820507
 31
0.0
  0
LINE
  5
75
330
1F
100
AcDbEntity
  8
0
  6
Continuous
 62
     7
370
    15
100
AcDbLine
 10
96.2642367535
 20
82.3063636788
 30
0.0
 11
96.2642367535
 21
132.3432820507
 31
0.0
  0
LINE
  5
76
330
1F
100
AcDbEntity
  8
0
  6
Continuous
 62
     7
370
    15
100
AcDbLine
 10
96.2642367535
 20
82.3063636788
 30
0.0
 11
94.6061696463
 21
82.3063636788
 31
0.0
  0
SPLINE
  5
77
330
1F
100
AcDbEntity
  8
0
  6
Continuous
 62
     7
370
    15
100
AcDbSpline
210
0.0
220
0.0
230
1.0
 70
     8
 71
     3
 72
    28
 73
    24
 74
     0
 42
0.00000001
 43
0.00000001
 40
0.0
 40
0.0
 40
0.0
 40
0.0
 40
0.1250000000000001
 40
0.1250000000000001
 40
0.1875000000000001
 40
0.1875000000000001
 40
0.2500000000000001
 40
0.2500000000000001
 40
0.3749999999999999
 40
0.3749999999999999
 40
0.4375
 40
0.4375
 40
0.4999999999999999
 40
0.4999999999999999
 40
0.6249999999999999
 40
0.6249999999999999
 40
0.7499999999999997
 40
0.7499999999999997
 40
0.8124999999999998
 40
0.8124999999999998
 40
0.8749999999999998
 40
0.8749999999999998
 40
1.0
 40
1.0
 40
1.0
 40
1.0
 10
94.60616929309869
 20
82.30636361538038
 30
0.0
 10
94.07446153560575
 20
82.30636361538038
 30
0.0
 10
93.55222297029543
 20
82.29057890143017
 30
0.0
 10
92.78235248402042
 20
82.24558348735397
 30
0.0
 10
92.52799291182909
 20
82.22702849227822
 30
0.0
 10
92.02387133113058
 20
82.18317576983172
 30
0.0
 10
91.77414851370267
 20
82.15783116287953
 30
0.0
 10
91.04855856225625
 20
82.07442908512944
 30
0.0
 10
90.5901983006747
 20
82.00856352597835
 30
0.0
 10
89.93970035728083
 20
81.89959318548655
 30
0.0
 10
89.72801830648837
 20
81.86135354971991
 30
0.0
 10
89.32394681735038
 20
81.78359481230055
 30
0.0
 10
89.13144030352952
 20
81.74409385012518
 30
0.0
 10
88.58160533250822
 20
81.62518610775919
 30
0.0
 10
88.2516765541994
 20
81.54536842633459
 30
0.0
 10
87.66720528563073
 20
81.39202526453852
 30
0.0
 10
87.42092814761729
 20
81.32069151126927
 30
0.0
 10
87.12108535491922
 20
81.22674800419465
 30
0.0
 10
87.03262849784704
 20
81.19755421083471
 30
0.0
 10
86.87926714454191
 20
81.1440876365713
 30
0.0
 10
86.81417893031568
 20
81.11972830229612
 30
0.0
 10
86.6585849143749
 20
81.05613815685139
 30
0.0
 10
86.60616929309869
 20
81.02603522176213
 30
0.0
 10
86.60616929309869
 20
81.00915832876521
 30
0.0
  0
LINE
  5
78
330
1F
100
AcDbEntity
  8
0
  6
Continuous
 62
     7
370
    15
100
AcDbLine
 10
86.6061692663
 20
81.0091579922
 30
0.0
 11
86.6061692663
 21
80.993280805
 31
0.0
  0
SPLINE
  5
79
330
1F
100
AcDbEntity
  8
0
  6
Continuous
 62
     7
370
    15
100
AcDbSpline
210
0.0
220
0.0
230
1.0
 70
     8
 71
     3
 72
    22
 73
    18
 74
     0
 42
0.00000001
 43
0.00000001
 40
0.0
 40
0.0
 40
0.0
 40
0.0
 40
0.0515773577784208
 40
0.1565264757892313
 40
0.2100197406902932
 40
0.2615951437009166
 40
0.3664424270180118
 40
0.4198227064993583
 40
0.4724528986337964
 40
0.5794489137126942
 40
0.6339397578022523
 40
0.6872670505634269
 40
0.7409741306318132
 40
0.7958968745516029
 40
0.8512481486671734
 40
0.9034470737560792
 40
0.9999999999999999
 40
0.9999999999999999
 40
0.9999999999999999
 40
0.9999999999999999
 10
94.60616964625622
 20
142.960476747986
 30
0.0
 10
94.38935937217695
 20
142.9618734546486
 30
0.0
 10
93.7313856104671
 20
142.9661121667702
 30
0.0
 10
92.85629073708445
 20
143.0056456033628
 30
0.0
 10
92.01146503818241
 20
143.0686168579432
 30
0.0
 10
91.19173964013721
 20
143.1466318922402
 30
0.0
 10
90.41594984899697
 20
143.2435159632937
 30
0.0
 10
89.69846070699039
 20
143.3517739162902
 30
0.0
 10
89.01919635838797
 20
143.4654921491103
 30
0.0
 10
88.41088132935967
 20
143.581993071325
 30
0.0
 10
87.89078977468932
 20
143.6910935888186
 30
0.0
 10
87.54689936124926
 20
143.7670969293282
 30
0.0
 10
87.25194575788339
 20
143.8351288319382
 30
0.0
 10
87.00617125082763
 20
143.8938410746531
 30
0.0
 10
86.82026864577236
 20
143.9394590150214
 30
0.0
 10
86.64867219344771
 20
143.9824153448836
 30
0.0
 10
86.62854298304795
 20
143.987577042695
 30
0.0
 10
86.6154773697486
 20
143.9909274347984
 30
0.0
  0
LINE
  5
7A
330
1F
100
AcDbEntity
  8
0
  6
Continuous
 62
     7
370
    15
100
AcDbLine
 10
96.2642367535
 20
142.960476748
 30
0.0
 11
94.6061696463
 21
142.960476748
 31
0.0
  0
LINE
  5
7B
330
1F
100
AcDbEntity
  8
0
  6
Continuous
 62
     7
370
    15
100
AcDbLine
 10
96.2642367535
 20
136.9519709268
 30
0.0
 11
96.2642367535
 21
142.960476748
 31
0.0
  0
LINE
  5
7C
330
1F
100
AcDbEntity
  8
0
  6
Continuous
 62
     7
370
    15
100
AcDbLine
 10
93.8517899789
 20
136.9519709268
 30
0.0
 11
96.2642367535
 21
136.9519709268
 31
0.0
  0
SPLINE
  5
7D
330
1F
100
AcDbEntity
  8
0
  6
Continuous
 62
     7
370
    15
100
AcDbSpline
210
0.0
220
0.0
230
1.0
 70
     8
 71
     3
 72
    20
 73
    16
 74
     0
 42
0.00000001
 43
0.00000001
 40
0.0
 40
0.0
 40
0.0
 40
0.0
 40
0.2499999999999997
 40
0.2499999999999997
 40
0.3749999999999997
 40
0.3749999999999997
 40
0.4999999999999998
 40
0.4999999999999998
 40
0.6249999999999998
 40
0.6249999999999998
 40
0.7499999999999999
 40
0.7499999999999999
 40
0.8749999999999999
 40
0.8749999999999999
 40
1.0
 40
1.0
 40
1.0
 40
1.0
 10
86.60616929309869
 20
132.3432813116275
 30
0.0
 10
86.85454302738675
 20
132.997143739925
 30
0.0
 10
87.17411311973201
 20
133.6009295219221
 30
0.0
 10
87.7964193529367
 20
134.4277682580907
 30
0.0
 10
88.02784361336747
 20
134.6901968960436
 30
0.0
 10
88.54905795301718
 20
135.1868595501486
 30
0.0
 10
88.83567843565224
 20
135.4174464291701
 30
0.0
 10
89.45516317695987
 20
135.8340006537528
 30
0.0
 10
89.78946355644682
 20
136.0214984557203
 30
0.0
 10
90.51472402907162
 20
136.3528954333567
 30
0.0
 10
90.89663908646207
 20
136.4923994208519
 30
0.0
 10
91.69142726263377
 20
136.7178529283229
 30
0.0
 10
92.10558545684015
 20
136.8044790398665
 30
0.0
 10
92.97113179742153
 20
136.9224598287206
 30
0.0
 10
93.40901941243335
 20
136.951970973995
 30
0.0
 10
93.85178963878798
 20
136.951970973995
 30
0.0
  0
SPLINE
  5
7E
330
1F
100
AcDbEntity
  8
0
  6
Continuous
 62
     7
370
    15
100
AcDbSpline
210
0.0
220
0.0
230
1.0
 70
     8
 71
     3
 72
    70
 73
    66
 74
     0
 42
0.00000001
 43
0.00000001
 40
-0.03125
 40
-0.03125
 40
0.0
 40
0.0
 40
0.0312499999999999
 40
0.0312499999999999
 40
0.0624999999999999
 40
0.0624999999999999
 40
0.0937499999999998
 40
0.0937499999999998
 40
0.1249999999999997
 40
0.1249999999999997
 40
0.1562499999999997
 40
0.1562499999999997
 40
0.1874999999999996
 40
0.1874999999999996
 40
0.2187499999999995
 40
0.2187499999999995
 40
0.2499999999999994
 40
0.2499999999999994
 40
0.2812499999999996
 40
0.2812499999999996
 40
0.3124999999999996
 40
0.3124999999999996
 40
0.3437499999999997
 40
0.3437499999999997
 40
0.3749999999999998
 40
0.3749999999999998
 40
0.4062499999999999
 40
0.4062499999999999
 40
0.4375
 40
0.4375
 40
0.4687500000000001
 40
0.4687500000000001
 40
0.5000000000000002
 40
0.5000000000000002
 40
0.5312500000000001
 40
0.5312500000000001
 40
0.5625000000000001
 40
0.5625000000000001
 40
0.59375
 40
0.59375
 40
0.6249999999999999
 40
0.6249999999999999
 40
0.6562499999999999
 40
0.6562499999999999
 40
0.6874999999999998
 40
0.6874999999999998
 40
0.7187499999999998
 40
0.7187499999999998
 40
0.7499999999999997
 40
0.7499999999999997
 40
0.7812499999999997
 40
0.7812499999999997
 40
0.8124999999999998
 40
0.8124999999999998
 40
0.8437499999999998
 40
0.8437499999999998
 40
0.8749999999999998
 40
0.8749999999999998
 40
0.9062499999999999
 40
0.9062499999999999
 40
0.9374999999999999
 40
0.9374999999999999
 40
0.96875
 40
0.96875
 40
1.0
 40
1.0
 40
1.03125
 40
1.03125
 10
89.39162395443856
 20
137.5522447064067
 30
0.0
 10
89.92071463175886
 20
137.5522447064067
 30
0.0
 10
90.18078529913595
 20
137.5681451468215
 30
0.0
 10
90.69235997897137
 20
137.6300894969958
 30
0.0
 10
90.94653526271155
 20
137.6768917310871
 30
0.0
 10
91.43080589277326
 20
137.7978687145421
 30
0.0
 10
91.66044698465441
 20
137.871471042349
 30
0.0
 10
92.09505133288792
 20
138.0432953133271
 30
0.0
 10
92.30061710953453
 20
138.1422987362545
 30
0.0
 10
92.66917425012976
 20
138.3553951501674
 30
0.0
 10
92.83465523286525
 20
138.470294866297
 30
0.0
 10
93.12707974230035
 20
138.7156617649873
 30
0.0
 10
93.25118071892683
 20
138.8441016654576
 30
0.0
 10
93.45075991567657
 20
139.1049938135436
 30
0.0
 10
93.52769350153484
 20
139.239374984883
 30
0.0
 10
93.6305505600552
 20
139.5086949359893
 30
0.0
 10
93.65602346951432
 20
139.6413762002074
 30
0.0
 10
93.65631388008211
 20
139.9025626743385
 30
0.0
 10
93.63028924630638
 20
140.0323277125032
 30
0.0
 10
93.52814096181437
 20
140.2779103467759
 30
0.0
 10
93.4525645142312
 20
140.3945718840847
 30
0.0
 10
93.25206698308628
 20
140.6164770742393
 30
0.0
 10
93.1269381415779
 20
140.7210883281623
 30
0.0
 10
92.8375793405563
 20
140.9111347397703
 30
0.0
 10
92.67216835350084
 20
140.99789441122
 30
0.0
 10
92.29917779535302
 20
141.1553987869715
 30
0.0
 10
92.09744476226392
 20
141.2237240517588
 30
0.0
 10
91.66458551143606
 20
141.341953775378
 30
0.0
 10
91.43066697854665
 20
141.3922486914819
 30
0.0
 10
90.94648324340406
 20
141.4721142283715
 30
0.0
 10
90.69716761744856
 20
141.5018553561711
 30
0.0
 10
90.18413509302083
 20
141.5420080976793
 30
0.0
 10
89.91884127011618
 20
141.5522063670892
 30
0.0
 10
89.39650665024644
 20
141.5522828254739
 30
0.0
 10
89.13675298776471
 20
141.5424918138648
 30
0.0
 10
88.62014117211946
 20
141.5024249751261
 30
0.0
 10
88.36777513161918
 20
141.4723278082693
 30
0.0
 10
87.88625001008634
 20
141.393105598439
 30
0.0
 10
87.65339927797281
 20
141.3433481189757
 30
0.0
 10
87.21630942953402
 20
141.2242561765253
 30
0.0
 10
87.01498844087685
 20
141.155940914978
 30
0.0
 10
86.64590241557694
 20
141.0005399480445
 30
0.0
 10
86.47691766452526
 20
140.9123876059776
 30
0.0
 10
86.18646160786605
 20
140.7219482168613
 30
0.0
 10
86.06338979650391
 20
140.6193236391622
 30
0.0
 10
85.86205355508189
 20
140.397683292554
 30
0.0
 10
85.78484100913967
 20
140.2789292170065
 30
0.0
 10
85.6826374662396
 20
140.0342632780888
 30
0.0
 10
85.65640911478728
 20
139.9071065526403
 30
0.0
 10
85.65593271547017
 20
139.6426584067848
 30
0.0
 10
85.68167512796815
 20
139.5097577265276
 30
0.0
 10
85.78298590433201
 20
139.2429654530455
 30
0.0
 10
85.85981854372294
 20
139.107601551577
 30
0.0
 10
86.06022238293812
 20
138.8450217562744
 30
0.0
 10
86.18289388123016
 20
138.7180465965207
 30
0.0
 10
86.47284117039439
 20
138.4739672104382
 30
0.0
 10
86.64141214975963
 20
138.3565420856844
 30
0.0
 10
87.00968174387279
 20
138.143345624736
 30
0.0
 10
87.21074360114311
 20
138.0461715063111
 30
0.0
 10
87.64777451972802
 20
137.8728166190969
 30
0.0
 10
87.87992273285764
 20
137.7984170674402
 30
0.0
 10
88.36093301435649
 20
137.6779641879355
 30
0.0
 10
88.61303309718693
 20
137.6311058126695
 30
0.0
 10
89.13010258344595
 20
137.5681483156858
 30
0.0
 10
89.39162395443856
 20
137.5522447064067
 30
0.0
 10
89.92071463175886
 20
137.5522447064067
 30
0.0
  0
LINE
  5
7F
330
1F
100
AcDbEntity
  8
0
  6
Continuous
 62
     7
370
    15
100
AcDbLine
 10
103.0481012143
 20
82.3063636788
 30
0.0
 11
103.0481012143
 21
132.3432820507
 31
0.0
  0
SPLINE
  5
80
330
1F
100
AcDbEntity
  8
0
  6
Continuous
 62
     7
370
    15
100
AcDbSpline
210
0.0
220
0.0
230
1.0
 70
     8
 71
     3
 72
     8
 73
     4
 74
     0
 42
0.00000001
 43
0.00000001
 40
0.0
 40
0.0
 40
0.0
 40
0.0
 40
1.0
 40
1.0
 40
1.0
 40
1.0
 10
103.0481021245877
 20
82.30636361538038
 30
0.0
 10
102.552622463922
 20
83.20188970331374
 30
0.0
 10
102.0585084158799
 20
84.09817411836599
 30
0.0
 10
101.5661692930987
 20
84.99544415257269
 30
0.0
  0
LINE
  5
81
330
1F
100
AcDbEntity
  8
0
  6
Continuous
 62
     7
370
    15
100
AcDbLine
 10
101.5661695577
 20
84.9954439917
 30
0.0
 11
101.5661695577
 21
132.3432820507
 31
0.0
  0
SPLINE
  5
82
330
1F
100
AcDbEntity
  8
0
  6
Continuous
 62
     7
370
    15
100
AcDbSpline
210
0.0
220
0.0
230
1.0
 70
    24
 71
     3
 72
     8
 73
     4
 74
     0
 42
0.00000001
 43
0.00000001
 40
0.0
 40
0.0
 40
0.0
 40
0.0
 40
1.0
 40
1.0
 40
1.0
 40
1.0
 10
101.5661692930987
 20
132.3432813116275
 30
0.0
 10
102.0461212874636
 20
132.3432813116275
 30
0.0
 10
102.5414220164372
 20
132.3432813116275
 30
0.0
 10
103.0481021245878
 20
132.3432813116275
 30
0.0
  0
LINE
  5
83
330
1F
100
AcDbEntity
  8
0
  6
Continuous
 62
     7
370
    15
100
AcDbLine
 10
97.7461693414
 20
84.9954439917
 30
0.0
 11
97.7461693414
 21
132.3432820507
 31
0.0
  0
SPLINE
  5
84
330
1F
100
AcDbEntity
  8
0
  6
Continuous
 62
     7
370
    15
100
AcDbSpline
210
0.0
220
0.0
230
1.0
 70
     8
 71
     3
 72
     8
 73
     4
 74
     0
 42
0.00000001
 43
0.00000001
 40
0.0
 40
0.0
 40
0.0
 40
0.0
 40
1.0
 40
1.0
 40
1.0
 40
1.0
 10
97.7461692930987
 20
84.99544415257267
 30
0.0
 10
97.25383017031753
 20
84.09817411836598
 30
0.0
 10
96.75971612227538
 20
83.20188970331374
 30
0.0
 10
96.26423646160964
 20
82.30636361538038
 30
0.0
  0
SPLINE
  5
85
330
1F
100
AcDbEntity
  8
0
  6
Continuous
 62
     7
370
    15
100
AcDbSpline
210
0.0
220
0.0
230
1.0
 70
    24
 71
     3
 72
     8
 73
     4
 74
     0
 42
0.00000001
 43
0.00000001
 40
0.0
 40
0.0
 40
0.0
 40
0.0
 40
1.0
 40
1.0
 40
1.0
 40
1.0
 10
96.26423646160961
 20
132.3432813116275
 30
0.0
 10
96.77091656976017
 20
132.3432813116275
 30
0.0
 10
97.2662172987338
 20
132.3432813116275
 30
0.0
 10
97.7461692930987
 20
132.3432813116275
 30
0.0
  0
LINE
  5
86
330
1F
100
AcDbEntity
  8
0
  6
Continuous
 62
     7
370
    15
100
AcDbLine
 10
107.6061689832
 20
82.9330040731
 30
0.0
 11
107.6061689832
 21
132.3432820507
 31
0.0
  0
SPLINE
  5
87
330
1F
100
AcDbEntity
  8
0
  6
Continuous
 62
     7
370
    15
100
AcDbSpline
210
0.0
220
0.0
230
1.0
 70
     8
 71
     3
 72
    10
 73
     6
 74
     0
 42
0.00000001
 43
0.00000001
 40
0.0
 40
0.0
 40
0.0
 40
0.0
 40
0.5
 40
0.5
 40
1.0
 40
1.0
 40
1.0
 40
1.0
 10
107.6061692930987
 20
82.9330039110347
 30
0.0
 10
107.6061692930987
 20
82.77311664284103
 30
0.0
 10
107.5448596418629
 20
82.61198938732643
 30
0.0
 10
107.3257600043278
 20
82.3778903889716
 30
0.0
 10
107.1677117980143
 20
82.30636361538038
 30
0.0
 10
107.0061692930987
 20
82.30636361538038
 30
0.0
  0
SPLINE
  5
88
330
1F
100
AcDbEntity
  8
0
  6
Continuous
 62
     7
370
    15
100
AcDbSpline
210
0.0
220
0.0
230
1.0
 70
    24
 71
     3
 72
    12
 73
     8
 74
     0
 42
0.00000001
 43
0.00000001
 40
0.0
 40
0.0
 40
0.0
 40
0.0
 40
0.2500000000000033
 40
0.2500000000000033
 40
0.5000000000000067
 40
0.5000000000000067
 40
1.0
 40
1.0
 40
1.0
 40
1.0
 10
107.0061692930987
 20
132.3432813116275
 30
0.0
 10
107.0964083607857
 20
132.3432813116275
 30
0.0
 10
107.1873064748922
 20
132.3432813116275
 30
0.0
 10
107.3419035113808
 20
132.3432813116275
 30
0.0
 10
107.4068819274889
 20
132.3432813116275
 30
0.0
 10
107.5587169554251
 20
132.3432813116275
 30
0.0
 10
107.6061692930987
 20
132.3432813116275
 30
0.0
 10
107.6061692930987
 20
132.3432813116275
 30
0.0
  0
LINE
  5
89
330
1F
100
AcDbEntity
  8
0
  6
Continuous
 62
     7
370
    15
100
AcDbLine
 10
81.6561692931
 20
81.293282158
 30
0.0
 11
81.6561692931
 21
143.6932804652
 31
0.0
  0
LINE
  5
8A
330
1F
100
AcDbEntity
  8
0
  6
Continuous
 62
     7
370
    15
100
AcDbLine
 10
107.0061700024
 20
82.3063636788
 30
0.0
 11
103.0481012143
 21
82.3063636788
 31
0.0
  0
LINE
  5
8B
330
1F
100
AcDbEntity
  8
0
  6
Continuous
 62
     7
370
    15
100
AcDbLine
 10
103.0481012143
 20
132.3432820507
 30
0.0
 11
107.0061700024
 21
132.3432820507
 31
0.0
  0
ARC
  5
8C
330
1F
100
AcDbEntity
  8
0
  6
Continuous
 62
     7
370
    15
100
AcDbCircle
 10
89.6534455137
 20
124.400500288
 30
0.0
 40
4.113519740334429
100
AcDbArc
 50
19.620683281
 51
159.096392124
  0
SPLINE
  5
8D
330
1F
100
AcDbEntity
  8
0
  6
Continuous
 62
     7
370
    15
100
AcDbSpline
210
0.0
220
0.0
230
1.0
 70
     8
 71
     3
 72
    10
 73
     6
 74
     0
 42
0.00000001
 43
0.00000001
 40
0.0
 40
0.0
 40
0.0
 40
0.0
 40
0.5
 40
0.5
 40
1.0
 40
1.0
 40
1.0
 40
1.0
 10
98.14046682478966
 20
138.8932813116275
 30
0.0
 10
98.01892656112115
 20
138.9680074788393
 30
0.0
 10
97.9175922007722
 20
139.0769524947561
 30
0.0
 10
97.78195325788377
 20
139.3273829755177
 30
0.0
 10
97.7461692930987
 20
139.4698023376166
 30
0.0
 10
97.7461692930987
 20
139.6129351626633
 30
0.0
  0
SPLINE
  5
8E
330
1F
100
AcDbEntity
  8
0
  6
Continuous
 62
     7
370
    15
100
AcDbSpline
210
0.0
220
0.0
230
1.0
 70
    24
 71
     3
 72
    12
 73
     8
 74
     0
 42
0.00000001
 43
0.00000001
 40
0.0
 40
0.0
 40
0.0
 40
0.0
 40
0.2500000000000037
 40
0.2500000000000037
 40
0.5000000000000074
 40
0.5000000000000074
 40
1.0
 40
1.0
 40
1.0
 40
1.0
 10
98.5461692930987
 20
138.8932813116275
 30
0.0
 10
98.49629261078124
 20
138.8932813116275
 30
0.0
 10
98.44828941737765
 20
138.8932813116275
 30
0.0
 10
98.36524131466568
 20
138.8932813116275
 30
0.0
 10
98.32911173519783
 20
138.8932813116275
 30
0.0
 10
98.23319970425362
 20
138.8932813116275
 30
0.0
 10
98.18344103628482
 20
138.8932813116275
 30
0.0
 10
98.14046682478966
 20
138.8932813116275
 30
0.0
  0
SPLINE
  5
8F
330
1F
100
AcDbEntity
  8
0
  6
Continuous
 62
     7
370
    15
100
AcDbSpline
210
0.0
220
0.0
230
1.0
 70
    24
 71
     3
 72
    14
 73
    10
 74
     0
 42
0.00000001
 43
0.00000001
 40
0.0
 40
0.0
 40
0.0
 40
0.0
 40
0.1249999999999991
 40
0.1249999999999991
 40
0.2499999999999982
 40
0.2499999999999982
 40
0.4999999999999998
 40
0.4999999999999998
 40
1.0
 40
1.0
 40
1.0
 40
1.0
 10
98.54616929309869
 20
86.09328131162755
 30
0.0
 10
98.47773144521224
 20
86.09328131162755
 30
0.0
 10
98.41218140644719
 20
86.09328131162755
 30
0.0
 10
98.30775476703923
 20
86.09328131162755
 30
0.0
 10
98.26521015727782
 20
86.09328131162755
 30
0.0
 10
98.15260069673757
 20
86.09328131162754
 30
0.0
 10
98.09706164971807
 20
86.09328131162755
 30
0.0
 10
97.95444995425427
 20
86.09328131162754
 30
0.0
 10
97.89104459925852
 20
86.09328131162754
 30
0.0
 10
97.84384409543098
 20
86.09328131162755
 30
0.0
  0
SPLINE
  5
90
330
1F
100
AcDbEntity
  8
0
  6
Continuous
 62
     7
370
    15
100
AcDbSpline
210
0.0
220
0.0
230
1.0
 70
     8
 71
     3
 72
    10
 73
     6
 74
     0
 42
0.00000001
 43
0.00000001
 40
0.0
 40
0.0
 40
0.0
 40
0.0
 40
0.5
 40
0.5
 40
1.0
 40
1.0
 40
1.0
 40
1.0
 10
97.7461692930987
 20
132.6291479430889
 30
0.0
 10
97.7461692930987
 20
132.5813764350956
 30
0.0
 10
97.74833053669585
 20
132.533666713034
 30
0.0
 10
97.75700191055601
 20
132.4383715954856
 30
0.0
 10
97.763531093512
 20
132.390679031519
 30
0.0
 10
97.77231691625883
 20
132.3432813116275
 30
0.0
  0
SPLINE
  5
91
330
1F
100
AcDbEntity
  8
0
  6
Continuous
 62
     7
370
    15
100
AcDbSpline
210
0.0
220
0.0
230
1.0
 70
    24
 71
     3
 72
    14
 73
    10
 74
     0
 42
0.00000001
 43
0.00000001
 40
0.0
 40
0.0
 40
0.0
 40
0.0
 40
0.4999999999999984
 40
0.4999999999999984
 40
0.7499999999999992
 40
0.7499999999999992
 40
0.8749999999999996
 40
0.8749999999999996
 40
1.0
 40
1.0
 40
1.0
 40
1.0
 10
101.4684944907664
 20
86.09328131162755
 30
0.0
 10
101.4217097857182
 20
86.09328131162755
 30
0.0
 10
101.3596585889386
 20
86.09328131162755
 30
0.0
 10
101.216266950388
 20
86.09328131162754
 30
0.0
 10
101.1601232968368
 20
86.09328131162755
 30
0.0
 10
101.0471722747006
 20
86.09328131162755
 30
0.0
 10
101.0041715126625
 20
86.09328131162755
 30
0.0
 10
100.900108802356
 20
86.09328131162755
 30
0.0
 10
100.8347765639991
 20
86.09328131162755
 30
0.0
 10
100.7661692930987
 20
86.09328131162755
 30
0.0
  0
SPLINE
  5
92
330
1F
100
AcDbEntity
  8
0
  6
Continuous
 62
     7
370
    15
100
AcDbSpline
210
0.0
220
0.0
230
1.0
 70
    24
 71
     3
 72
    12
 73
     8
 74
     0
 42
0.00000001
 43
0.00000001
 40
0.0
 40
0.0
 40
0.0
 40
0.0
 40
0.5000000000000017
 40
0.5000000000000017
 40
0.7500000000000008
 40
0.7500000000000008
 40
1.0
 40
1.0
 40
1.0
 40
1.0
 10
101.1718717614077
 20
138.8932813116275
 30
0.0
 10
101.1287862117968
 20
138.8932813116275
 30
0.0
 10
101.0796340100475
 20
138.8932813116275
 30
0.0
 10
100.9831614157595
 20
138.8932813116275
 30
0.0
 10
100.947059830625
 20
138.8932813116275
 30
0.0
 10
100.8639540727637
 20
138.8932813116275
 30
0.0
 10
100.8159574757974
 20
138.8932813116275
 30
0.0
 10
100.7661692930987
 20
138.8932813116275
 30
0.0
  0
SPLINE
  5
93
330
1F
100
AcDbEntity
  8
0
  6
Continuous
 62
     7
370
    15
100
AcDbSpline
210
0.0
220
0.0
230
1.0
 70
     8
 71
     3
 72
    10
 73
     6
 74
     0
 42
0.00000001
 43
0.00000001
 40
0.0
 40
0.0
 40
0.0
 40
0.0
 40
0.5
 40
0.5
 40
1.0
 40
1.0
 40
1.0
 40
1.0
 10
101.5661692930987
 20
139.6129351626633
 30
0.0
 10
101.5661692930987
 20
139.4691651048453
 30
0.0
 10
101.5301202343798
 20
139.3267457423502
 30
0.0
 10
101.3946113736058
 20
139.0768514489929
 30
0.0
 10
101.2947353805096
 20
138.9688211127447
 30
0.0
 10
101.1718717614077
 20
138.8932813116275
 30
0.0
  0
SPLINE
  5
94
330
1F
100
AcDbEntity
  8
0
  6
Continuous
 62
     7
370
    15
100
AcDbSpline
210
0.0
220
0.0
230
1.0
 70
     8
 71
     3
 72
    10
 73
     6
 74
     0
 42
0.00000001
 43
0.00000001
 40
0.0
 40
0.0
 40
0.0
 40
0.0
 40
0.5
 40
0.5
 40
1.0
 40
1.0
 40
1.0
 40
1.0
 10
101.5400216699386
 20
132.3432813116275
 30
0.0
 10
101.5487113128502
 20
132.3901601609457
 30
0.0
 10
101.5552503776007
 20
132.437582626347
 30
0.0
 10
101.5640090119938
 20
132.5335194249338
 30
0.0
 10
101.5661692930987
 20
132.5814347129444
 30
0.0
 10
101.5661692930987
 20
132.6291479430889
 30
0.0
  0
LINE
  5
95
330
1F
100
AcDbEntity
  8
0
  6
Continuous
 62
     7
370
    15
100
AcDbLine
 10
100.7661690541
 20
138.8932811686
 30
0.0
 11
98.546169845
 21
138.8932811686
 31
0.0
  0
LINE
  5
96
330
1F
100
AcDbEntity
  8
0
  6
Continuous
 62
     7
370
    15
100
AcDbLine
 10
100.7661690541
 20
86.0932814547
 30
0.0
 11
98.546169845
 21
86.0932814547
 31
0.0
  0
LINE
  5
97
330
1F
100
AcDbEntity
  8
0
  6
Continuous
 62
     7
370
    15
100
AcDbLine
 10
79.6561691981
 20
88.2728500881
 30
0.0
 11
79.6561691981
 21
136.7137125351
 31
0.0
  0
LINE
  5
98
330
1F
100
AcDbEntity
  8
0
  6
Continuous
 62
     7
370
    15
100
AcDbLine
 10
59.8561690726
 20
89.26483529
 30
0.0
 11
59.8561690726
 21
90.5295434066
 31
0.0
  0
SPLINE
  5
99
330
1F
100
AcDbEntity
  8
0
  6
Continuous
 62
     7
370
    15
100
AcDbSpline
210
0.0
220
0.0
230
1.0
 70
     8
 71
     3
 72
    14
 73
    10
 74
     0
 42
0.00000001
 43
0.00000001
 40
0.0
 40
0.0
 40
0.0
 40
0.0
 40
0.25
 40
0.25
 40
0.5
 40
0.5
 40
0.75
 40
0.75
 40
1.0
 40
1.0
 40
1.0
 40
1.0
 10
59.07788217518298
 20
91.6601299880676
 30
0.0
 10
59.13450885038505
 20
91.55243253423073
 30
0.0
 10
59.22903151067478
 20
91.44964295251141
 30
0.0
 10
59.41207648623702
 20
91.25128564029127
 30
0.0
 10
59.50370306319175
 20
91.15522613161302
 30
0.0
 10
59.66255638088494
 20
90.96769708890378
 30
0.0
 10
59.73044698850663
 20
90.87628811612022
 30
0.0
 10
59.82736401421422
 20
90.69791189521007
 30
0.0
 10
59.85616929309928
 20
90.6106899889639
 30
0.0
 10
59.85616929309927
 20
90.52954378042963
 30
0.0
  0
SPLINE
  5
9A
330
1F
100
AcDbEntity
  8
0
  6
Continuous
 62
     7
370
    15
100
AcDbSpline
210
0.0
220
0.0
230
1.0
 70
     8
 71
     3
 72
    14
 73
    10
 74
     0
 42
0.00000001
 43
0.00000001
 40
0.0
 40
0.0
 40
0.0
 40
0.0
 40
0.1249999999999975
 40
0.1249999999999975
 40
0.249999999999995
 40
0.249999999999995
 40
0.4999999999999953
 40
0.4999999999999953
 40
1.0
 40
1.0
 40
1.0
 40
1.0
 10
58.4561692930987
 20
92.10681185034692
 30
0.0
 10
58.50471370175586
 20
92.11256016362721
 30
0.0
 10
58.55762905654077
 20
92.10945927497097
 30
0.0
 10
58.65292440152381
 20
92.08726443080864
 30
0.0
 10
58.69317539880876
 20
92.07003220371278
 30
0.0
 10
58.79744541232174
 20
92.01370428726072
 30
0.0
 10
58.84776738747506
 20
91.96951794131492
 30
0.0
 10
58.97545033500045
 20
91.83851004246429
 30
0.0
 10
59.0315357820627
 20
91.748275522234
 30
0.0
 10
59.07788217518445
 20
91.66012998806812
 30
0.0
  0
SPLINE
  5
9B
330
1F
100
AcDbEntity
  8
0
  6
Continuous
 62
     7
370
    15
100
AcDbSpline
210
0.0
220
0.0
230
1.0
 70
     8
 71
     3
 72
     8
 73
     4
 74
     0
 42
0.00000001
 43
0.00000001
 40
0.0
 40
0.0
 40
0.0
 40
0.0
 40
1.0
 40
1.0
 40
1.0
 40
1.0
 10
56.18764420015247
 20
91.79696656376413
 30
0.0
 10
56.92222122663543
 20
91.91559157483309
 30
0.0
 10
57.6856962960311
 20
92.01557744696936
 30
0.0
 10
58.45616929309871
 20
92.10681185034692
 30
0.0
  0
SPLINE
  5
9C
330
1F
100
AcDbEntity
  8
0
  6
Continuous
 62
     7
370
    15
100
AcDbSpline
210
0.0
220
0.0
230
1.0
 70
     8
 71
     3
 72
    14
 73
    10
 74
     0
 42
0.00000001
 43
0.00000001
 40
0.0
 40
0.0
 40
0.0
 40
0.0
 40
0.500000000000001
 40
0.500000000000001
 40
0.7500000000000004
 40
0.7500000000000004
 40
0.8750000000000003
 40
0.8750000000000003
 40
1.0
 40
1.0
 40
1.0
 40
1.0
 10
50.9061692930987
 20
91.62334354623248
 30
0.0
 10
51.79831542365228
 20
91.62262132003183
 30
0.0
 10
52.68829185944588
 20
91.62720752648929
 30
0.0
 10
54.01488702652149
 20
91.65493253088081
 30
0.0
 10
54.45573395502021
 20
91.667539068505
 30
0.0
 10
55.11217419244263
 20
91.69855521651245
 30
0.0
 10
55.33018784903451
 20
91.71089838913922
 30
0.0
 10
55.76289670271729
 20
91.7439224443025
 30
0.0
 10
55.97817316788209
 20
91.76313960944094
 30
0.0
 10
56.18764420015248
 20
91.79696656376413
 30
0.0
  0
SPLINE
  5
9D
330
1F
100
AcDbEntity
  8
0
  6
Continuous
 62
     7
370
    15
100
AcDbSpline
210
0.0
220
0.0
230
1.0
 70
     8
 71
     3
 72
     8
 73
     4
 74
     0
 42
0.00000001
 43
0.00000001
 40
0.0000005163856712
 40
0.0000005163856712
 40
0.0000005163856712
 40
0.0000005163856712
 40
0.000026289209185
 40
0.000026289209185
 40
0.000026289209185
 40
0.000026289209185
 10
50.89612436268001
 20
91.63332741934035
 30
0.0
 10
50.89945210089149
 20
91.62999317246752
 30
0.0
 10
50.90280055387078
 20
91.6266652151885
 30
0.0
 10
50.90616929309867
 20
91.62334354623246
 30
0.0
  0
SPLINE
  5
9E
330
1F
100
AcDbEntity
  8
0
  6
Continuous
 62
     7
370
    15
100
AcDbSpline
210
0.0
220
0.0
230
1.0
 70
     8
 71
     3
 72
     8
 73
     4
 74
     0
 42
0.00000001
 43
0.00000001
 40
0.0000005099763573
 40
0.0000005099763573
 40
0.0000005099763573
 40
0.0000005099763573
 40
0.0000262827998699
 40
0.0000262827998699
 40
0.0000262827998699
 40
0.0000262827998699
 10
50.90616929309869
 20
133.3632190770226
 30
0.0
 10
50.90280055387095
 20
133.3598974080668
 30
0.0
 10
50.89945210089181
 20
133.3565694507879
 30
0.0
 10
50.89612436268048
 20
133.3532352039152
 30
0.0
  0
SPLINE
  5
9F
330
1F
100
AcDbEntity
  8
0
  6
Continuous
 62
     7
370
    15
100
AcDbSpline
210
0.0
220
0.0
230
1.0
 70
     8
 71
     3
 72
    10
 73
     6
 74
     0
 42
0.00000001
 43
0.00000001
 40
0.0
 40
0.0
 40
0.0
 40
0.0
 40
0.5
 40
0.5
 40
1.0
 40
1.0
 40
1.0
 40
1.0
 10
54.45616929309871
 20
133.3163687034553
 30
0.0
 10
53.86858374600811
 20
133.3374342236917
 30
0.0
 10
53.27783735254772
 20
133.3481927095639
 30
0.0
 10
52.09381818724887
 20
133.3615574900996
 30
0.0
 10
51.50040419904341
 20
133.3637001327642
 30
0.0
 10
50.9061692930987
 20
133.3632190770226
 30
0.0
  0
SPLINE
  5
A0
330
1F
100
AcDbEntity
  8
0
  6
Continuous
 62
     7
370
    15
100
AcDbSpline
210
0.0
220
0.0
230
1.0
 70
     8
 71
     3
 72
    18
 73
    14
 74
     0
 42
0.00000001
 43
0.00000001
 40
0.0
 40
0.0
 40
0.0
 40
0.0
 40
0.2500000000000009
 40
0.2500000000000009
 40
0.500000000000001
 40
0.500000000000001
 40
0.7500000000000011
 40
0.7500000000000011
 40
0.875000000000001
 40
0.875000000000001
 40
0.9375000000000006
 40
0.9375000000000006
 40
1.0
 40
1.0
 40
1.0
 40
1.0
 10
55.85616929309871
 20
134.3373889839905
 30
0.0
 10
55.85616929309872
 20
134.2541820751333
 30
0.0
 10
55.82032019316044
 20
134.1654454198198
 30
0.0
 10
55.69544845712651
 20
133.9833202292595
 30
0.0
 10
55.60504803947865
 20
133.8881901806329
 30
0.0
 10
55.38280538473647
 20
133.6990086715086
 30
0.0
 10
55.2530405982907
 20
133.6040635034139
 30
0.0
 10
55.01240314097919
 20
133.465784795834
 30
0.0
 10
54.92463584284174
 20
133.4200743625316
 30
0.0
 10
54.77011175563494
 20
133.3622510573101
 30
0.0
 10
54.71350086958019
 20
133.3445362932722
 30
0.0
 10
54.58945683867358
 20
133.3199969900393
 30
0.0
 10
54.5217421636553
 20
133.314017851501
 30
0.0
 10
54.4561692930987
 20
133.3163687034553
 30
0.0
  0
LINE
  5
A1
330
1F
100
AcDbEntity
  8
0
  6
Continuous
 62
     7
370
    15
100
AcDbLine
 10
55.8561684169
 20
134.3373889693
 30
0.0
 11
55.8561684169
 21
135.5213272043
 31
0.0
  0
SPLINE
  5
A2
330
1F
100
AcDbEntity
  8
0
  6
Continuous
 62
     7
370
    15
100
AcDbSpline
210
0.0
220
0.0
230
1.0
 70
     8
 71
     3
 72
    18
 73
    14
 74
     0
 42
0.00000001
 43
0.00000001
 40
0.0
 40
0.0
 40
0.0
 40
0.0
 40
0.001067142096085
 40
0.1270947925777493
 40
0.2524053537361832
 40
0.3766468838452861
 40
0.4391416358858051
 40
0.5008278334298175
 40
0.5624255844801763
 40
0.6253162510714301
 40
0.7499985254815132
 40
0.8752758926324193
 40
1.0
 40
1.0
 40
1.0
 40
1.0
 10
68.42647041904236
 20
88.83594261788956
 30
0.0
 10
68.42555834375963
 20
88.83582744999752
 30
0.0
 10
68.3169317425791
 20
88.82211115166777
 30
0.0
 10
68.70461321462184
 20
88.87309741304941
 30
0.0
 10
69.5705616747314
 20
88.97265444892392
 30
0.0
 10
70.77096946845421
 20
89.041785078543
 30
0.0
 10
71.82854501831194
 20
89.04573577880974
 30
0.0
 10
72.6556793824352
 20
89.01824891088549
 30
0.0
 10
73.48095101848304
 20
88.95970642207318
 30
0.0
 10
74.53531622559183
 20
88.84618782011347
 30
0.0
 10
75.69715243184524
 20
88.66303366427994
 30
0.0
 10
76.64938715251839
 20
88.45843351561379
 30
0.0
 10
76.77509225522702
 20
88.42914684560468
 30
0.0
 10
76.83780571224595
 20
88.4145359166824
 30
0.0
  0
SPLINE
  5
A3
330
1F
100
AcDbEntity
  8
0
  6
Continuous
 62
     7
370
    15
100
AcDbSpline
210
0.0
220
0.0
230
1.0
 70
     8
 71
     3
 72
    18
 73
    14
 74
     0
 42
0.00000001
 43
0.00000001
 40
0.0
 40
0.0
 40
0.0
 40
0.0
 40
0.1248907819469273
 40
0.2505384063477967
 40
0.3748721756041158
 40
0.4374907331267689
 40
0.4990776026247599
 40
0.5607931145009658
 40
0.6233901196104445
 40
0.7478191009174896
 40
0.8731941046696081
 40
0.9991614615322162
 40
0.9999999999999999
 40
0.9999999999999999
 40
0.9999999999999999
 40
0.9999999999999999
 10
76.83758685144092
 20
136.5719615139925
 30
0.0
 10
76.77384601947321
 20
136.5573000477654
 30
0.0
 10
76.64597808389365
 20
136.5278882663194
 30
0.0
 10
75.69397924730511
 20
136.3229343069619
 30
0.0
 10
74.53343517645249
 20
136.1396730450982
 30
0.0
 10
73.48117140478912
 20
136.0266424907232
 30
0.0
 10
72.65694410577083
 20
135.9683816832504
 30
0.0
 10
71.82934036044617
 20
135.9409345471284
 30
0.0
 10
70.77052303075193
 20
135.944919341003
 30
0.0
 10
69.5683032911261
 20
136.0140121254989
 30
0.0
 10
68.7031225201272
 20
136.1136208626861
 30
0.0
 10
68.31697377248952
 20
136.1644784683293
 30
0.0
 10
68.42505164485313
 20
136.1507776609059
 30
0.0
 10
68.42576633917595
 20
136.1506870605909
 30
0.0
  0
SPLINE
  5
A4
330
1F
100
AcDbEntity
  8
0
  6
Continuous
 62
     7
370
    15
100
AcDbSpline
210
0.0
220
0.0
230
1.0
 70
     8
 71
     3
 72
     9
 73
     5
 74
     0
 42
0.00000001
 43
0.00000001
 40
0.0
 40
0.0
 40
0.0
 40
0.0
 40
0.7009339503679092
 40
0.9999999999999999
 40
0.9999999999999999
 40
0.9999999999999999
 40
0.9999999999999999
 10
49.77695286052729
 20
92.79200161182514
 30
0.0
 10
49.78609353147711
 20
92.77417232806424
 30
0.0
 10
49.79913423373593
 20
92.74873586040344
 30
0.0
 10
49.81429769700421
 20
92.802615219877
 30
0.0
 10
49.8188325740626
 20
92.81872870707146
 30
0.0
  0
LINE
  5
A5
330
1F
100
AcDbEntity
  8
0
  6
Continuous
 62
     7
370
    15
100
AcDbLine
 10
49.756169466
 20
92.802603788
 30
0.0
 11
49.756169466
 21
132.1839588352
 31
0.0
  0
SPLINE
  5
A6
330
1F
100
AcDbEntity
  8
0
  6
Continuous
 62
     7
370
    15
100
AcDbSpline
210
0.0
220
0.0
230
1.0
 70
     8
 71
     3
 72
    10
 73
     6
 74
     0
 42
0.00000001
 43
0.00000001
 40
0.0
 40
0.0
 40
0.0
 40
0.0
 40
0.5
 40
0.5
 40
1.0
 40
1.0
 40
1.0
 40
1.0
 10
49.81883266782211
 20
132.1678338564083
 30
0.0
 10
49.80992837871334
 20
132.2135753756214
 30
0.0
 10
49.79341299852036
 20
132.2307662150905
 30
0.0
 10
49.76630505245874
 20
132.2304429381547
 30
0.0
 10
49.7561692930987
 20
132.2125653958583
 30
0.0
 10
49.7561692930987
 20
132.1839590581057
 30
0.0
  0
SPLINE
  5
A7
330
1F
100
AcDbEntity
  8
0
  6
Continuous
 62
     7
370
    15
100
AcDbSpline
210
0.0
220
0.0
230
1.0
 70
     8
 71
     3
 72
    26
 73
    22
 74
     0
 42
0.00000001
 43
0.00000001
 40
0.0
 40
0.0
 40
0.0
 40
0.0
 40
0.2500000000000165
 40
0.2500000000000165
 40
0.3750000000000256
 40
0.3750000000000256
 40
0.4375000000000291
 40
0.4375000000000291
 40
0.4687500000000291
 40
0.4687500000000291
 40
0.5000000000000292
 40
0.5000000000000292
 40
0.5312500000000293
 40
0.5312500000000293
 40
0.5625000000000293
 40
0.5625000000000293
 40
0.625000000000026
 40
0.625000000000026
 40
0.7500000000000173
 40
0.7500000000000173
 40
1.0
 40
1.0
 40
1.0
 40
1.0
 10
50.58032293920321
 20
132.8834006452254
 30
0.0
 10
50.54172241633474
 20
132.7656259488699
 30
0.0
 10
50.49542541378048
 20
132.641236262708
 30
0.0
 10
50.40148606534656
 20
132.4360169303545
 30
0.0
 10
50.3661745984331
 20
132.3644440639081
 30
0.0
 10
50.29999462268741
 20
132.2484908313076
 30
0.0
 10
50.2754562560192
 20
132.2079062964974
 30
0.0
 10
50.2320835104654
 20
132.1437646146257
 30
0.0
 10
50.21657510904021
 20
132.1218981893406
 30
0.0
 10
50.18153246445317
 20
132.0763039209974
 30
0.0
 10
50.16198217373341
 20
132.05263363003
 30
0.0
 10
50.1200548933628
 20
132.00801707069
 30
0.0
 10
50.09740278313116
 20
131.9871370581722
 30
0.0
 10
50.05642906904453
 20
131.9562636444213
 30
0.0
 10
50.03882976914911
 20
131.9464247745889
 30
0.0
 10
49.99420278329296
 20
131.9274351588927
 30
0.0
 10
49.97364356063963
 20
131.9271108342393
 30
0.0
 10
49.92251812114296
 20
131.9363342751155
 30
0.0
 10
49.90160670815441
 20
131.9575811713325
 30
0.0
 10
49.85015680059349
 20
132.0315500501632
 30
0.0
 10
49.83249150128893
 20
132.097668143478
 30
0.0
 10
49.81883266782211
 20
132.1678338564083
 30
0.0
  0
SPLINE
  5
A8
330
1F
100
AcDbEntity
  8
0
  6
Continuous
 62
     7
370
    15
100
AcDbSpline
210
0.0
220
0.0
230
1.0
 70
     8
 71
     3
 72
    10
 73
     6
 74
     0
 42
0.00000001
 43
0.00000001
 40
0.0
 40
0.0
 40
0.0
 40
0.0
 40
0.5
 40
0.5
 40
1.0
 40
1.0
 40
1.0
 40
1.0
 10
50.89612436268051
 20
133.3532352039152
 30
0.0
 10
50.82856510776227
 20
133.2855438111054
 30
0.0
 10
50.76492845242576
 20
133.2108366463518
 30
0.0
 10
50.65470769785389
 20
133.0518705139252
 30
0.0
 10
50.60789140463127
 20
132.9675152479172
 30
0.0
 10
50.5803229392032
 20
132.8834006452254
 30
0.0
  0
SPLINE
  5
A9
330
1F
100
AcDbEntity
  8
0
  6
Continuous
 62
     7
370
    15
100
AcDbSpline
210
0.0
220
0.0
230
1.0
 70
     8
 71
     3
 72
    10
 73
     6
 74
     0
 42
0.00000001
 43
0.00000001
 40
0.0
 40
0.0
 40
0.0
 40
0.0
 40
0.5
 40
0.5
 40
1.0
 40
1.0
 40
1.0
 40
1.0
 10
50.58032293920326
 20
92.10316197802958
 30
0.0
 10
50.60780035395646
 20
92.01932518156399
 30
0.0
 10
50.65450898424412
 20
91.93501469397715
 30
0.0
 10
50.76478744698606
 20
91.7758934634943
 30
0.0
 10
50.82867498559771
 20
91.70090871940621
 30
0.0
 10
50.89612436268004
 20
91.63332741934035
 30
0.0
  0
SPLINE
  5
AA
330
1F
100
AcDbEntity
  8
0
  6
Continuous
 62
     7
370
    15
100
AcDbSpline
210
0.0
220
0.0
230
1.0
 70
     8
 71
     3
 72
    24
 73
    20
 74
     0
 42
0.00000001
 43
0.00000001
 40
0.0
 40
0.0
 40
0.0
 40
0.0
 40
0.25
 40
0.25
 40
0.374999999999999
 40
0.374999999999999
 40
0.4374999999999993
 40
0.4374999999999993
 40
0.4687499999999994
 40
0.4687499999999994
 40
0.4999999999999995
 40
0.4999999999999995
 40
0.5624999999999971
 40
0.5624999999999971
 40
0.6249999999999947
 40
0.6249999999999947
 40
0.7499999999999947
 40
0.7499999999999947
 40
1.0
 40
1.0
 40
1.0
 40
1.0
 10
49.81883266782211
 20
92.8187287668468
 30
0.0
 10
49.83258578649233
 20
92.88937882483708
 30
0.0
 10
49.8503583538982
 20
92.95597693760202
 30
0.0
 10
49.90260944545355
 20
93.03007495783521
 30
0.0
 10
49.92364452103512
 20
93.05133276499677
 30
0.0
 10
49.97654492866354
 20
93.05947869114301
 30
0.0
 10
49.99765060154146
 20
93.05853888774725
 30
0.0
 10
50.04370277021944
 20
93.0375228961699
 30
0.0
 10
50.06207324220283
 20
93.02661409006228
 30
0.0
 10
50.10362487726852
 20
92.99397917911492
 30
0.0
 10
50.12619155002544
 20
92.97248719874354
 30
0.0
 10
50.18897256648545
 20
92.90402125515723
 30
0.0
 10
50.22210232745336
 20
92.85794679695213
 30
0.0
 10
50.27902001393836
 20
92.77293890861748
 30
0.0
 10
50.30320603944213
 20
92.7326586074361
 30
0.0
 10
50.36841398982189
 20
92.61772238097015
 30
0.0
 10
50.40313005001314
 20
92.54713939582314
 30
0.0
 10
50.49634532034403
 20
92.34293363674453
 30
0.0
 10
50.5420178557047
 20
92.22003525441717
 30
0.0
 10
50.58032293920324
 20
92.10316197802959
 30
0.0
  0
SPLINE
  5
AB
330
1F
100
AcDbEntity
  8
0
  6
Continuous
 62
     7
370
    15
100
AcDbSpline
210
0.0
220
0.0
230
1.0
 70
     8
 71
     3
 72
     8
 73
     4
 74
     0
 42
0.00000001
 43
0.00000001
 40
0.0
 40
0.0
 40
0.0
 40
0.0
 40
1.0
 40
1.0
 40
1.0
 40
1.0
 10
103.0481021245878
 20
142.9604767847918
 30
0.0
 10
102.5529620952234
 20
142.0737971366115
 30
0.0
 10
102.0588793899445
 20
141.1865345009255
 30
0.0
 10
101.5661692930987
 20
140.2985155027991
 30
0.0
  0
LINE
  5
AC
330
1F
100
AcDbEntity
  8
0
  6
Continuous
 62
     7
370
    15
100
AcDbLine
 10
103.0481012143
 20
136.9519709268
 30
0.0
 11
103.0481012143
 21
142.960476748
 31
0.0
  0
SPLINE
  5
AD
330
1F
100
AcDbEntity
  8
0
  6
Continuous
 62
     7
370
    15
100
AcDbSpline
210
0.0
220
0.0
230
1.0
 70
     8
 71
     3
 72
     8
 73
     4
 74
     0
 42
0.00000001
 43
0.00000001
 40
0.0
 40
0.0
 40
0.0
 40
0.0
 40
1.0
 40
1.0
 40
1.0
 40
1.0
 10
101.5661692930987
 20
133.5434249792109
 30
0.0
 10
102.0454474436885
 20
134.6844362090635
 30
0.0
 10
102.5410152828285
 20
135.8208206198313
 30
0.0
 10
103.0481021245878
 20
136.951970973995
 30
0.0
  0
LINE
  5
AE
330
1F
100
AcDbEntity
  8
0
  6
Continuous
 62
     7
370
    15
100
AcDbLine
 10
101.5661695577
 20
133.5434252986
 30
0.0
 11
101.5661695577
 21
140.2985146859
 31
0.0
  0
LINE
  5
AF
330
1F
100
AcDbEntity
  8
0
  6
Continuous
 62
     7
370
    15
100
AcDbLine
 10
103.0481012143
 20
136.9519709268
 30
0.0
 11
107.0061700024
 21
136.9519709268
 31
0.0
  0
SPLINE
  5
B0
330
1F
100
AcDbEntity
  8
0
  6
Continuous
 62
     7
370
    15
100
AcDbSpline
210
0.0
220
0.0
230
1.0
 70
     8
 71
     3
 72
    12
 73
     8
 74
     0
 42
0.00000001
 43
0.00000001
 40
0.0
 40
0.0
 40
0.0
 40
0.0
 40
0.25
 40
0.25
 40
0.5
 40
0.5
 40
1.0
 40
1.0
 40
1.0
 40
1.0
 10
107.0061692930987
 20
136.951970973995
 30
0.0
 10
107.0973690149244
 20
136.951970973995
 30
0.0
 10
107.1879640240604
 20
136.9237512754071
 30
0.0
 10
107.341376750507
 20
136.829308268159
 30
0.0
 10
107.4065856178307
 20
136.7630212914537
 30
0.0
 10
107.5593701471706
 20
136.5373964681654
 30
0.0
 10
107.6061692930987
 20
136.3549702051328
 30
0.0
 10
107.6061692930987
 20
136.174233572886
 30
0.0
  0
LINE
  5
B1
330
1F
100
AcDbEntity
  8
0
  6
Continuous
 62
     7
370
    15
100
AcDbLine
 10
101.5661695577
 20
132.6291477897
 30
0.0
 11
101.5661695577
 21
133.5434252986
 31
0.0
  0
LINE
  5
B2
330
1F
100
AcDbEntity
  8
0
  6
Continuous
 62
     7
370
    15
100
AcDbLine
 10
107.6061689832
 20
136.1742327579
 30
0.0
 11
107.6061689832
 21
132.3432820507
 31
0.0
  0
SPLINE
  5
B3
330
1F
100
AcDbEntity
  8
0
  6
Continuous
 62
     7
370
    15
100
AcDbSpline
210
0.0
220
0.0
230
1.0
 70
     8
 71
     3
 72
    10
 73
     6
 74
     0
 42
0.00000001
 43
0.00000001
 40
0.0
 40
0.0
 40
0.0
 40
0.0
 40
0.5
 40
0.5
 40
1.0
 40
1.0
 40
1.0
 40
1.0
 10
107.6061692930987
 20
142.3397216353914
 30
0.0
 10
107.6061692930987
 20
142.5001269017423
 30
0.0
 10
107.5439314619918
 20
142.6591887147308
 30
0.0
 10
107.3247965382493
 20
142.8901011803612
 30
0.0
 10
107.1672078432574
 20
142.9604767847918
 30
0.0
 10
107.0061692930987
 20
142.9604767847918
 30
0.0
  0
LINE
  5
B4
330
1F
100
AcDbEntity
  8
0
  6
Continuous
 62
     7
370
    15
100
AcDbLine
 10
107.6061689832
 20
136.1742327579
 30
0.0
 11
107.6061689832
 21
142.3397223123
 31
0.0
  0
LINE
  5
B5
330
1F
100
AcDbEntity
  8
0
  6
Continuous
 62
     7
370
    15
100
AcDbLine
 10
107.0061700024
 20
142.960476748
 30
0.0
 11
103.0481012143
 21
142.960476748
 31
0.0
  0
SPLINE
  5
B6
330
1F
100
AcDbEntity
  8
0
  6
Continuous
 62
     7
370
    15
100
AcDbSpline
210
0.0
220
0.0
230
1.0
 70
     8
 71
     3
 72
     8
 73
     4
 74
     0
 42
0.00000001
 43
0.00000001
 40
0.0
 40
0.0
 40
0.0
 40
0.0
 40
1.0
 40
1.0
 40
1.0
 40
1.0
 10
96.26423646160964
 20
136.951970973995
 30
0.0
 10
96.77132330336892
 20
135.8208206198313
 30
0.0
 10
97.26689114250885
 20
134.6844362090635
 30
0.0
 10
97.7461692930987
 20
133.5434249792109
 30
0.0
  0
LINE
  5
B7
330
1F
100
AcDbEntity
  8
0
  6
Continuous
 62
     7
370
    15
100
AcDbLine
 10
97.7461693414
 20
133.5434252986
 30
0.0
 11
97.7461693414
 21
132.6291477897
 31
0.0
  0
SPLINE
  5
B8
330
1F
100
AcDbEntity
  8
0
  6
Continuous
 62
     7
370
    15
100
AcDbSpline
210
0.0
220
0.0
230
1.0
 70
     8
 71
     3
 72
     8
 73
     4
 74
     0
 42
0.00000001
 43
0.00000001
 40
0.0
 40
0.0
 40
0.0
 40
0.0
 40
1.0
 40
1.0
 40
1.0
 40
1.0
 10
97.7461692930987
 20
140.2985155027991
 30
0.0
 10
97.25345919625295
 20
141.1865345009255
 30
0.0
 10
96.75937649097396
 20
142.0737971366115
 30
0.0
 10
96.26423646160964
 20
142.9604767847918
 30
0.0
  0
LINE
  5
B9
330
1F
100
AcDbEntity
  8
0
  6
Continuous
 62
     7
370
    15
100
AcDbLine
 10
97.7461693414
 20
133.5434252986
 30
0.0
 11
97.7461693414
 21
140.2985146859
 31
0.0
  0
ARC
  5
BA
330
1F
100
AcDbEntity
  8
0
  6
Continuous
 62
     7
370
    15
100
AcDbCircle
 10
89.6560330818
 20
131.2538455726
 30
0.0
 40
7.197556098821888
100
AcDbArc
 50
70.7482971842
 51
109.2067721816
  0
LINE
  5
BB
330
1F
100
AcDbEntity
  8
0
  6
Continuous
 62
     7
370
    15
100
AcDbLine
 10
152.6061707713
 20
112.4932813116
 30
0.0
 11
152.6061707713
 21
93.9932810732
 31
0.0
  0
LINE
  5
BC
330
1F
100
AcDbEntity
  8
0
  6
Continuous
 62
     7
370
    15
100
AcDbLine
 10
152.6061707713
 20
130.99328155
 30
0.0
 11
152.6061707713
 21
112.4932813116
 31
0.0
  0
SPLINE
  5
BD
330
1F
100
AcDbEntity
  8
0
  6
Continuous
 62
     7
370
    15
100
AcDbSpline
210
0.0
220
0.0
230
1.0
 70
     8
 71
     3
 72
    70
 73
    66
 74
     0
 42
0.00000001
 43
0.00000001
 40
-0.0312499999999993
 40
-0.0312499999999993
 40
0.0
 40
0.0
 40
0.0312500000000004
 40
0.0312500000000004
 40
0.0625000000000008
 40
0.0625000000000008
 40
0.0937500000000012
 40
0.0937500000000012
 40
0.1250000000000016
 40
0.1250000000000016
 40
0.1562500000000021
 40
0.1562500000000021
 40
0.1875000000000024
 40
0.1875000000000024
 40
0.2187500000000029
 40
0.2187500000000029
 40
0.2500000000000033
 40
0.2500000000000033
 40
0.2812500000000037
 40
0.2812500000000037
 40
0.3125000000000041
 40
0.3125000000000041
 40
0.3437500000000045
 40
0.3437500000000045
 40
0.3750000000000049
 40
0.3750000000000049
 40
0.4062500000000053
 40
0.4062500000000053
 40
0.4375000000000057
 40
0.4375000000000057
 40
0.4687500000000062
 40
0.4687500000000062
 40
0.5000000000000066
 40
0.5000000000000066
 40
0.531250000000007
 40
0.531250000000007
 40
0.5625000000000073
 40
0.5625000000000073
 40
0.5937500000000078
 40
0.5937500000000078
 40
0.6250000000000072
 40
0.6250000000000072
 40
0.6562500000000066
 40
0.6562500000000066
 40
0.687500000000006
 40
0.687500000000006
 40
0.7187500000000054
 40
0.7187500000000054
 40
0.7500000000000048
 40
0.7500000000000048
 40
0.7812500000000042
 40
0.7812500000000042
 40
0.8125000000000037
 40
0.8125000000000037
 40
0.8437500000000031
 40
0.8437500000000031
 40
0.8750000000000024
 40
0.8750000000000024
 40
0.9062500000000019
 40
0.9062500000000019
 40
0.9375000000000013
 40
0.9375000000000013
 40
0.9687500000000007
 40
0.9687500000000007
 40
1.0
 40
1.0
 40
1.03125
 40
1.03125
 10
141.0936494713066
 20
114.6242950764851
 30
0.0
 10
141.4326222003993
 20
114.8924817229167
 30
0.0
 10
141.6119852347923
 20
115.0085977776946
 30
0.0
 10
141.9885758928524
 20
115.2085404118737
 30
0.0
 10
142.1869489638209
 20
115.2926851989218
 30
0.0
 10
142.5968573357701
 20
115.426770423544
 30
0.0
 10
142.8051226117013
 20
115.4758596316972
 30
0.0
 10
143.2279736685237
 20
115.5398982900534
 30
0.0
 10
143.4443116307185
 20
115.5547727841848
 30
0.0
 10
143.8749074178217
 20
115.5489424244223
 30
0.0
 10
144.0876282062779
 20
115.528584163734
 30
0.0
 10
144.5080018251474
 20
115.453509339314
 30
0.0
 10
144.7173439291847
 20
115.3981674676309
 30
0.0
 10
145.122347447854
 20
115.2532059774356
 30
0.0
 10
145.3161862942806
 20
115.1646004126536
 30
0.0
 10
145.6863493850224
 20
114.9545910021668
 30
0.0
 10
145.8641521912298
 20
114.8319663965233
 30
0.0
 10
146.1931145296174
 20
114.5551952004935
 30
0.0
 10
146.3420777599626
 20
114.4033840694545
 30
0.0
 10
146.6075668995769
 20
114.0715122998054
 30
0.0
 10
146.725396987019
 20
113.8887621754098
 30
0.0
 10
146.9159878578322
 20
113.5034860113137
 30
0.0
 10
146.988456619411
 20
113.3031418959489
 30
0.0
 10
147.0853912329944
 20
112.8861935416511
 30
0.0
 10
147.109116790306
 20
112.6675581568621
 30
0.0
 10
147.1026150626964
 20
112.2390198577452
 30
0.0
 10
147.0730490560038
 20
112.0244352522991
 30
0.0
 10
146.9627336100667
 20
111.6058495253169
 30
0.0
 10
146.8836994539932
 20
111.4064875730706
 30
0.0
 10
146.6815922479917
 20
111.0260127383506
 30
0.0
 10
146.5587341820508
 20
110.846518930887
 30
0.0
 10
146.2820589097094
 20
110.5193937894629
 30
0.0
 10
146.1254985801617
 20
110.3685055991432
 30
0.0
 10
145.7891550605728
 20
110.1007380280861
 30
0.0
 10
145.6099525013265
 20
109.9837021359272
 30
0.0
 10
145.2307769809009
 20
109.7811329187188
 30
0.0
 10
145.0305245909742
 20
109.6959738812102
 30
0.0
 10
144.6235563988763
 20
109.5620302143994
 30
0.0
 10
144.4151411974264
 20
109.5122461367204
 30
0.0
 10
143.9884408607198
 20
109.4469482134883
 30
0.0
 10
143.7720691822184
 20
109.4320276962251
 30
0.0
 10
143.3440460318156
 20
109.4372452378939
 30
0.0
 10
143.1308010363857
 20
109.4571105769791
 30
0.0
 10
142.705895153411
 20
109.5325590402328
 30
0.0
 10
142.4964462723167
 20
109.5880596449659
 30
0.0
 10
142.0943054500983
 20
109.7316309991589
 30
0.0
 10
141.8999408794295
 20
109.8199443969743
 30
0.0
 10
141.5255378868125
 20
110.0320972245679
 30
0.0
 10
141.3472539337574
 20
110.1554458209754
 30
0.0
 10
141.0213657025619
 20
110.4295007265926
 30
0.0
 10
140.8718458390624
 20
110.581167338877
 30
0.0
 10
140.6028486264703
 20
110.9174841482793
 30
0.0
 10
140.485660891592
 20
111.1002403012892
 30
0.0
 10
140.2968404526541
 20
111.4822363432044
 30
0.0
 10
140.2233581285413
 20
111.684202434645
 30
0.0
 10
140.1255880739633
 20
112.1077158151794
 30
0.0
 10
140.1030516429432
 20
112.3209837943565
 30
0.0
 10
140.1099709661441
 20
112.7505050362662
 30
0.0
 10
140.1405646605529
 20
112.9684951307631
 30
0.0
 10
140.2508742437963
 20
113.383964097596
 30
0.0
 10
140.3312532233108
 20
113.586140164296
 30
0.0
 10
140.5350218392184
 20
113.967415256229
 30
0.0
 10
140.6566189765532
 20
114.1443012661528
 30
0.0
 10
140.9358701490956
 20
114.4730636476661
 30
0.0
 10
141.0936494713066
 20
114.6242950764851
 30
0.0
 10
141.4326222003993
 20
114.8924817229167
 30
0.0
  0
SPLINE
  5
BE
330
1F
100
AcDbEntity
  8
0
  6
Continuous
 62
     7
370
    15
100
AcDbSpline
210
0.0
220
0.0
230
1.0
 70
     8
 71
     3
 72
    37
 73
    33
 74
     0
 42
0.00000001
 43
0.00000001
 40
0.0
 40
0.0
 40
0.0
 40
0.0
 40
0.0247245017630594
 40
0.0480518934153816
 40
0.0691161275066212
 40
0.1119071339741941
 40
0.1336659871674633
 40
0.1558751804110035
 40
0.2009126800235956
 40
0.2237645991224101
 40
0.2487140460157812
 40
0.299296715981107
 40
0.3249593471729472
 40
0.3531017825730599
 40
0.410212829368584
 40
0.4392274178929784
 40
0.4696741758947999
 40
0.5315500434295595
 40
0.5630481009868055
 40
0.5942485245135236
 40
0.6256707709082239
 40
0.65780958122107
 40
0.6902056349454426
 40
0.7205293950463352
 40
0.7823933017198488
 40
0.8140675159000337
 40
0.8414015398639019
 40
0.8972950787522044
 40
0.9259978535357716
 40
0.949358296361239
 40
0.9970427611019138
 40
1.0
 40
1.0
 40
1.0
 40
1.0
 10
140.1166246809294
 20
93.9947693266832
 30
0.0
 10
140.114555818707
 20
93.99447627530046
 30
0.0
 10
140.1105349996849
 20
93.99390673202132
 30
0.0
 10
140.1487733924739
 20
93.9993312592561
 30
0.0
 10
140.2151569985351
 20
94.00863071916102
 30
0.0
 10
140.3168035860752
 20
94.02259219419263
 30
0.0
 10
140.4507190241742
 20
94.04021744585948
 30
0.0
 10
140.6088814544236
 20
94.06036745351038
 30
0.0
 10
140.7989188615225
 20
94.08325613462861
 30
0.0
 10
141.0202699156364
 20
94.10779700823846
 30
0.0
 10
141.2722886415527
 20
94.13397809415927
 30
0.0
 10
141.5572020295934
 20
94.16024413576343
 30
0.0
 10
141.8709087515833
 20
94.18474192266979
 30
0.0
 10
142.2173132058138
 20
94.20828514710988
 30
0.0
 10
142.5925030926087
 20
94.22751649358815
 30
0.0
 10
142.9855750141293
 20
94.24039966178613
 30
0.0
 10
143.4000237031685
 20
94.248688242795
 30
0.0
 10
143.8279754105459
 20
94.24857763010137
 30
0.0
 10
144.2532484702797
 20
94.23975865192209
 30
0.0
 10
144.5701660034993
 20
94.2289150885633
 30
0.0
 10
144.8824078517621
 20
94.2141056932883
 30
0.0
 10
145.1891917983636
 20
94.19558358639073
 30
0.0
 10
145.4805170995285
 20
94.17432610022068
 30
0.0
 10
145.8442079843683
 20
94.14359921482449
 30
0.0
 10
146.1743518560447
 20
94.11025789551974
 30
0.0
 10
146.4526348439488
 20
94.07853811744455
 30
0.0
 10
146.6876889167138
 20
94.05000208288867
 30
0.0
 10
146.8716779152767
 20
94.02583211503446
 30
0.0
 10
146.9962445219384
 20
94.00875233049503
 30
0.0
 10
147.0767820024562
 20
93.99748817052003
 30
0.0
 10
147.1121964078281
 20
93.99242679913073
 30
0.0
 10
147.1052959793109
 20
93.99340640786043
 30
0.0
 10
147.1048930265239
 20
93.99346361243359
 30
0.0
  0
SPLINE
  5
BF
330
1F
100
AcDbEntity
  8
0
  6
Continuous
 62
     7
370
    15
100
AcDbSpline
210
0.0
220
0.0
230
1.0
 70
     8
 71
     3
 72
     9
 73
     5
 74
     0
 42
0.00000001
 43
0.00000001
 40
0.0
 40
0.0
 40
0.0
 40
0.0
 40
0.3013430995318132
 40
1.0
 40
1.0
 40
1.0
 40
1.0
 10
141.5477731801799
 20
94.15803576194874
 30
0.0
 10
141.5175194763967
 20
94.15562474030305
 30
0.0
 10
141.4171232707754
 20
94.14762382158467
 30
0.0
 10
141.3264702693437
 20
94.13870442081587
 30
0.0
 10
141.2631349243453
 20
94.1324728199207
 30
0.0
  0
SPLINE
  5
C0
330
1F
100
AcDbEntity
  8
0
  6
Continuous
 62
     7
370
    15
100
AcDbSpline
210
0.0
220
0.0
230
1.0
 70
     8
 71
     3
 72
    36
 73
    32
 74
     0
 42
0.00000001
 43
0.00000001
 40
0.0
 40
0.0
 40
0.0
 40
0.0
 40
0.0357613807417357
 40
0.0587513364736018
 40
0.0798387645102884
 40
0.1226631619884676
 40
0.1444302178106827
 40
0.1669146272259863
 40
0.2125052539083292
 40
0.2356348359800407
 40
0.2609851876552722
 40
0.3123833432004283
 40
0.338462785395839
 40
0.3669653687395558
 40
0.4248180321138106
 40
0.4542163476724539
 40
0.4848437113527901
 40
0.5470976293555989
 40
0.5787956597830676
 40
0.6099839210066647
 40
0.6413961916760336
 40
0.6735356097562047
 40
0.7059378918155927
 40
0.7360123865022847
 40
0.7973898841671259
 40
0.8288324529813217
 40
0.8556704983645065
 40
0.9105528638171336
 40
0.9387354343135963
 40
0.9616844624865212
 40
1.0
 40
1.0
 40
1.0
 40
1.0
 10
147.0994839050105
 20
130.99233160102
 30
0.0
 10
147.0975699606809
 20
130.9920558853914
 30
0.0
 10
147.0944255969857
 20
130.9916029201721
 30
0.0
 10
147.0410364800628
 20
130.9840604463394
 30
0.0
 10
146.9624835653406
 20
130.9731379337367
 30
0.0
 10
146.8500504052335
 20
130.9578677071109
 30
0.0
 10
146.7055128323321
 20
130.9391296835724
 30
0.0
 10
146.5360708123693
 20
130.917931598957
 30
0.0
 10
146.3345996458214
 20
130.8942444700079
 30
0.0
 10
146.101920286601
 20
130.8692333354523
 30
0.0
 10
145.8378466945482
 20
130.8427941496191
 30
0.0
 10
145.5409582529352
 20
130.8167282658044
 30
0.0
 10
145.2160540881358
 20
130.792972163007
 30
0.0
 10
144.8590339208183
 20
130.7706209352751
 30
0.0
 10
144.4744626378743
 20
130.7531925373872
 30
0.0
 10
144.0741231803916
 20
130.7426155123069
 30
0.0
 10
143.6547741082503
 20
130.7369919079821
 30
0.0
 10
143.2245729605
 20
130.7400298696274
 30
0.0
 10
142.7999939852011
 20
130.751712460506
 30
0.0
 10
142.485613814178
 20
130.7645708580816
 30
0.0
 10
142.1777539122422
 20
130.7811635835258
 30
0.0
 10
141.8765750989685
 20
130.8012189873035
 30
0.0
 10
141.5927968906084
 20
130.8235968761028
 30
0.0
 10
141.2417852810043
 20
130.8551714090044
 30
0.0
 10
140.9270901383565
 20
130.8884602005691
 30
0.0
 10
140.6665702907514
 20
130.9191715066608
 30
0.0
 10
140.4507380877347
 20
130.9460916870167
 30
0.0
 10
140.2860432230788
 20
130.9681383658204
 30
0.0
 10
140.1821702625029
 20
130.9825334155845
 30
0.0
 10
140.1196434763316
 20
130.9913522944063
 30
0.0
 10
140.1153980592645
 20
130.9919651057985
 30
0.0
 10
140.1127429284385
 20
130.9923483648264
 30
0.0
  0
SPLINE
  5
C1
330
1F
100
AcDbEntity
  8
0
  6
Continuous
 62
     7
370
    15
100
AcDbSpline
210
0.0
220
0.0
230
1.0
 70
     8
 71
     3
 72
    10
 73
     6
 74
     0
 42
0.00000001
 43
0.00000001
 40
0.0
 40
0.0
 40
0.0
 40
0.0
 40
0.0662317870605338
 40
0.5317866834393732
 40
1.0
 40
1.0
 40
1.0
 40
1.0
 10
140.8724078513911
 20
130.8953231790029
 30
0.0
 10
140.8801183258969
 20
130.8944330041945
 30
0.0
 10
140.9420270837176
 20
130.8872856338749
 30
0.0
 10
141.0709558474862
 20
130.8733320557873
 30
0.0
 10
141.198953762856
 20
130.8605160497931
 30
0.0
 10
141.2631349243453
 20
130.8540898033344
 30
0.0
  0
CIRCLE
  5
C2
330
1F
100
AcDbEntity
  8
0
  6
Continuous
 62
     7
370
    15
100
AcDbCircle
 10
143.6061692931
 20
112.4932813116
 30
0.0
 40
2.5
  0
LINE
  5
C3
330
1F
100
AcDbEntity
  8
0
  6
Continuous
 62
     7
370
    15
100
AcDbLine
 10
230.5264586188
 20
109.7225873389
 30
0.0
 11
238.2786685206
 21
109.7225873389
 31
0.0
  0
LINE
  5
C4
330
1F
100
AcDbEntity
  8
0
  6
Continuous
 62
     7
370
    15
100
AcDbLine
 10
238.2786685206
 20
96.5522816994
 30
0.0
 11
238.2786685206
 21
109.7225873389
 31
0.0
  0
LINE
  5
C5
330
1F
100
AcDbEntity
  8
0
  6
Continuous
 62
     7
370
    15
100
AcDbLine
 10
230.5264586188
 20
96.5522816994
 30
0.0
 11
238.2786685206
 21
96.5522816994
 31
0.0
  0
SPLINE
  5
C6
330
1F
100
AcDbEntity
  8
0
  6
Continuous
 62
     7
370
    15
100
AcDbSpline
210
0.0
220
0.0
230
1.0
 70
     8
 71
     3
 72
    17
 73
    13
 74
     0
 42
0.00000001
 43
0.00000001
 40
0.0
 40
0.0
 40
0.0
 40
0.0
 40
0.0849597123719548
 40
0.2026991489237447
 40
0.3179169685885245
 40
0.426331385181459
 40
0.5328083127205963
 40
0.6312075497284145
 40
0.7278429679567875
 40
0.8310955018231873
 40
0.9419115822815323
 40
1.0
 40
1.0
 40
1.0
 40
1.0
 10
230.5264586188128
 20
96.55228169941536
 30
0.0
 10
230.2291647028322
 20
96.538517250687
 30
0.0
 10
229.5198729448088
 20
96.50567766160704
 30
0.0
 10
228.4813962094688
 20
96.20427206928369
 30
0.0
 10
227.599466600466
 20
95.69324811663617
 30
0.0
 10
227.0885067513023
 20
95.08255352567346
 30
0.0
 10
227.0076602402134
 20
94.49220387186594
 30
0.0
 10
227.3162748839138
 20
93.99683398642584
 30
0.0
 10
227.9308922477105
 20
93.61598435681118
 30
0.0
 10
228.8153310137829
 20
93.34920078174466
 30
0.0
 10
229.7332557729235
 20
93.22646875533373
 30
0.0
 10
230.3234747588727
 20
93.21528970386034
 30
0.0
 10
230.5264586188128
 20
93.21144508504501
 30
0.0
  0
LINE
  5
C7
330
1F
100
AcDbEntity
  8
0
  6
Continuous
 62
     7
370
    15
100
AcDbLine
 10
230.5264586188
 20
93.211445085
 30
0.0
 11
238.2786685206
 21
93.211445085
 31
0.0
  0
LINE
  5
C8
330
1F
100
AcDbEntity
  8
0
  6
Continuous
 62
     7
370
    15
100
AcDbLine
 10
238.2786685206
 20
91.6432804086
 30
0.0
 11
238.2786685206
 21
93.211445085
 31
0.0
  0
LINE
  5
C9
330
1F
100
AcDbEntity
  8
0
  6
Continuous
 62
     7
370
    15
100
AcDbLine
 10
238.2786685206
 20
132.1023060598
 30
0.0
 11
238.2786685206
 21
133.3432822146
 31
0.0
  0
LINE
  5
CA
330
1F
100
AcDbEntity
  8
0
  6
Continuous
 62
     7
370
    15
100
AcDbLine
 10
230.5264586188
 20
132.1023060598
 30
0.0
 11
238.2786685206
 21
132.1023060598
 31
0.0
  0
SPLINE
  5
CB
330
1F
100
AcDbEntity
  8
0
  6
Continuous
 62
     7
370
    15
100
AcDbSpline
210
0.0
220
0.0
230
1.0
 70
     8
 71
     3
 72
    17
 73
    13
 74
     0
 42
0.00000001
 43
0.00000001
 40
0.0
 40
0.0
 40
0.0
 40
0.0
 40
0.0849598854013361
 40
0.2026995710234449
 40
0.3179176323928332
 40
0.4263322353132614
 40
0.5329714941006364
 40
0.6313702084492487
 40
0.7280136374071301
 40
0.8312797250581913
 40
0.942108323644322
 40
1.0
 40
1.0
 40
1.0
 40
1.0
 10
230.5264586188128
 20
129.0044235655033
 30
0.0
 10
230.2291646937578
 20
129.0174667762964
 30
0.0
 10
229.5198728816059
 20
129.0485856180891
 30
0.0
 10
228.4813963053881
 20
129.3338998585818
 30
0.0
 10
227.5994664328432
 20
129.815693969988
 30
0.0
 10
227.0882568774111
 20
130.3881326151641
 30
0.0
 10
227.007668644552
 20
130.9368553158976
 30
0.0
 10
227.3170677847313
 20
131.3925900268165
 30
0.0
 10
227.9321806991928
 20
131.7391828374529
 30
0.0
 10
228.8170716590039
 20
131.9794844155746
 30
0.0
 10
229.7345951332117
 20
132.0889529621398
 30
0.0
 10
230.3241643251366
 20
132.0988947957516
 30
0.0
 10
230.5264586188128
 20
132.1023060598337
 30
0.0
  0
LINE
  5
CC
330
1F
100
AcDbEntity
  8
0
  6
Continuous
 62
     7
370
    15
100
AcDbLine
 10
230.5264586188
 20
129.0044235655
 30
0.0
 11
238.2786685206
 21
129.0044235655
 31
0.0
  0
LINE
  5
CD
330
1F
100
AcDbEntity
  8
0
  6
Continuous
 62
     7
370
    15
100
AcDbLine
 10
238.2786685206
 20
116.1613078446
 30
0.0
 11
238.2786685206
 21
129.0044235655
 31
0.0
  0
LINE
  5
CE
330
1F
100
AcDbEntity
  8
0
  6
Continuous
 62
     7
370
    15
100
AcDbLine
 10
230.5264586188
 20
116.1613078446
 30
0.0
 11
238.2786685206
 21
116.1613078446
 31
0.0
  0
SPLINE
  5
CF
330
1F
100
AcDbEntity
  8
0
  6
Continuous
 62
     7
370
    15
100
AcDbSpline
210
0.0
220
0.0
230
1.0
 70
     8
 71
     3
 72
    17
 73
    13
 74
     0
 42
0.00000001
 43
0.00000001
 40
0.0
 40
0.0
 40
0.0
 40
0.0
 40
0.0849661538431225
 40
0.2027145161196043
 40
0.3179410496161336
 40
0.4263636816393239
 40
0.5376354093465503
 40
0.6360086973968079
 40
0.7328946971543876
 40
0.8365475038873837
 40
0.9477174778078208
 40
1.0
 40
1.0
 40
1.0
 40
1.0
 10
230.5264586188128
 20
109.7225873389207
 30
0.0
 10
230.229165113332
 20
109.7436977195817
 30
0.0
 10
229.5198743383214
 20
109.7940634288345
 30
0.0
 10
228.4813882186492
 20
110.2620628759548
 30
0.0
 10
227.5994951635199
 20
111.0934494752966
 30
0.0
 10
227.0809971591461
 20
112.1716327227623
 30
0.0
 10
227.008531703766
 20
113.3105506460168
 30
0.0
 10
227.3398844027747
 20
114.3480135359389
 30
0.0
 10
227.9694158508206
 20
115.1976174815563
 30
0.0
 10
228.8669917827369
 20
115.8334156832581
 30
0.0
 10
229.7728199071987
 20
116.1278500621285
 30
0.0
 10
230.3438172795696
 20
116.1531994843188
 30
0.0
 10
230.5264586188128
 20
116.1613078446054
 30
0.0
  0
LINE
  5
D0
330
1F
100
AcDbEntity
  8
0
  6
Continuous
 62
     7
370
    15
100
AcDbLine
 10
222.4561685302
 20
91.6432804086
 30
0.0
 11
222.4561685302
 21
133.3432822146
 31
0.0
  0
LINE
  5
D1
330
1F
100
AcDbEntity
  8
0
  6
Continuous
 62
     7
370
    15
100
AcDbLine
 10
221.6561698891
 20
92.4432809123
 30
0.0
 11
221.6561698891
 21
132.543281711
 31
0.0
  0
LINE
  5
D2
330
1F
100
AcDbEntity
  8
0
  6
Continuous
 62
     7
370
    15
100
AcDbLine
 10
238.2786685206
 20
129.0044235655
 30
0.0
 11
238.5082209088
 21
128.8659955033
 31
0.0
  0
LINE
  5
D3
330
1F
100
AcDbEntity
  8
0
  6
Continuous
 62
     7
370
    15
100
AcDbLine
 10
238.5082209088
 20
128.8659955033
 30
0.0
 11
239.56282079
 21
127.4405876764
 31
0.0
  0
LINE
  5
D4
330
1F
100
AcDbEntity
  8
0
  6
Continuous
 62
     7
370
    15
100
AcDbLine
 10
239.56282079
 20
127.4405876764
 30
0.0
 11
239.7571021296
 21
127.3218803697
 31
0.0
  0
SPLINE
  5
D5
330
1F
100
AcDbEntity
  8
0
  6
Continuous
 62
     7
370
    15
100
AcDbSpline
210
0.0
220
0.0
230
1.0
 70
     8
 71
     3
 72
     9
 73
     5
 74
     0
 42
0.00000001
 43
0.00000001
 40
0.0
 40
0.0
 40
0.0
 40
0.0
 40
0.5000512833502081
 40
1.0
 40
1.0
 40
1.0
 40
1.0
 10
239.7571021296313
 20
127.3218803697192
 30
0.0
 10
239.7973082118298
 20
127.6831470947286
 30
0.0
 10
239.8777121294621
 20
128.4056064444758
 30
0.0
 10
239.7973027137987
 20
129.128063645967
 30
0.0
 10
239.7571021296313
 20
129.4892551966869
 30
0.0
  0
LINE
  5
D6
330
1F
100
AcDbEntity
  8
0
  6
Continuous
 62
     7
370
    15
100
AcDbLine
 10
239.56282079
 20
129.8965747126
 30
0.0
 11
239.7571021296
 21
129.4892551967
 31
0.0
  0
LINE
  5
D7
330
1F
100
AcDbEntity
  8
0
  6
Continuous
 62
     7
370
    15
100
AcDbLine
 10
238.5082209088
 20
131.6273222336
 30
0.0
 11
239.56282079
 21
129.8965747126
 31
0.0
  0
LINE
  5
D8
330
1F
100
AcDbEntity
  8
0
  6
Continuous
 62
     7
370
    15
100
AcDbLine
 10
238.2786685206
 20
132.1023060598
 30
0.0
 11
238.5082209088
 21
131.6273222336
 31
0.0
  0
LINE
  5
D9
330
1F
100
AcDbEntity
  8
0
  6
Continuous
 62
     7
370
    15
100
AcDbLine
 10
238.2786685206
 20
93.211445085
 30
0.0
 11
238.5082209088
 21
93.6920075335
 31
0.0
  0
LINE
  5
DA
330
1F
100
AcDbEntity
  8
0
  6
Continuous
 62
     7
370
    15
100
AcDbLine
 10
238.5082209088
 20
93.6920075335
 30
0.0
 11
239.56282079
 21
95.395525045
 31
0.0
  0
LINE
  5
DB
330
1F
100
AcDbEntity
  8
0
  6
Continuous
 62
     7
370
    15
100
AcDbLine
 10
239.56282079
 20
95.395525045
 30
0.0
 11
239.7571021296
 21
95.8076278337
 31
0.0
  0
SPLINE
  5
DC
330
1F
100
AcDbEntity
  8
0
  6
Continuous
 62
     7
370
    15
100
AcDbSpline
210
0.0
220
0.0
230
1.0
 70
     8
 71
     3
 72
    10
 73
     6
 74
     0
 42
0.00000001
 43
0.00000001
 40
0.0
 40
0.0
 40
0.0
 40
0.0
 40
0.1222274445690599
 40
0.56025264029593
 40
1.0
 40
1.0
 40
1.0
 40
1.0
 10
239.7571021296313
 20
98.14497927510372
 30
0.0
 10
239.7691002504066
 20
98.04988962637235
 30
0.0
 10
239.8240959092512
 20
97.61402821280527
 30
0.0
 10
239.8621629712414
 20
96.83368721865371
 30
0.0
 10
239.7921681860723
 20
96.15009469151946
 30
0.0
 10
239.7571021296313
 20
95.80762783372036
 30
0.0
  0
LINE
  5
DD
330
1F
100
AcDbEntity
  8
0
  6
Continuous
 62
     7
370
    15
100
AcDbLine
 10
239.56282079
 20
98.0441235595
 30
0.0
 11
239.7571021296
 21
98.1449792751
 31
0.0
  0
LINE
  5
DE
330
1F
100
AcDbEntity
  8
0
  6
Continuous
 62
     7
370
    15
100
AcDbLine
 10
238.5082209088
 20
96.6698928394
 30
0.0
 11
239.56282079
 21
98.0441235595
 31
0.0
  0
LINE
  5
DF
330
1F
100
AcDbEntity
  8
0
  6
Continuous
 62
     7
370
    15
100
AcDbLine
 10
238.2786685206
 20
96.5522816994
 30
0.0
 11
238.5082209088
 21
96.6698928394
 31
0.0
  0
LINE
  5
E0
330
1F
100
AcDbEntity
  8
0
  6
Continuous
 62
     7
370
    15
100
AcDbLine
 10
238.2786685206
 20
109.7225873389
 30
0.0
 11
238.5082209088
 21
110.0647224237
 31
0.0
  0
LINE
  5
E1
330
1F
100
AcDbEntity
  8
0
  6
Continuous
 62
     7
370
    15
100
AcDbLine
 10
238.5082209088
 20
110.0647224237
 30
0.0
 11
239.56282079
 21
110.3428314098
 31
0.0
  0
LINE
  5
E2
330
1F
100
AcDbEntity
  8
0
  6
Continuous
 62
     7
370
    15
100
AcDbLine
 10
239.56282079
 20
110.3428314098
 30
0.0
 11
239.7571021296
 21
110.6362263097
 31
0.0
  0
SPLINE
  5
E3
330
1F
100
AcDbEntity
  8
0
  6
Continuous
 62
     7
370
    15
100
AcDbSpline
210
0.0
220
0.0
230
1.0
 70
     8
 71
     3
 72
     9
 73
     5
 74
     0
 42
0.00000001
 43
0.00000001
 40
0.0
 40
0.0
 40
0.0
 40
0.0
 40
0.5000511795231916
 40
1.0
 40
1.0
 40
1.0
 40
1.0
 10
239.7571021296313
 20
110.6362263097354
 30
0.0
 10
239.797308206263
 20
111.3870911965861
 30
0.0
 10
239.8777121294576
 20
112.8886672703925
 30
0.0
 10
239.7973027193632
 20
114.3902427406248
 30
0.0
 10
239.7571021296313
 20
115.1409536258244
 30
0.0
  0
LINE
  5
E4
330
1F
100
AcDbEntity
  8
0
  6
Continuous
 62
     7
370
    15
100
AcDbLine
 10
239.56282079
 20
115.4474164949
 30
0.0
 11
239.7571021296
 21
115.1409536258
 31
0.0
  0
LINE
  5
E5
330
1F
100
AcDbEntity
  8
0
  6
Continuous
 62
     7
370
    15
100
AcDbLine
 10
238.5082209088
 20
115.8039339942
 30
0.0
 11
239.56282079
 21
115.4474164949
 31
0.0
  0
LINE
  5
E6
330
1F
100
AcDbEntity
  8
0
  6
Continuous
 62
     7
370
    15
100
AcDbLine
 10
238.2786685206
 20
116.1613078446
 30
0.0
 11
238.5082209088
 21
115.8039339942
 31
0.0
  0
LINE
  5
E7
330
1F
100
AcDbEntity
  8
0
  6
Continuous
 62
     7
370
    15
100
AcDbLine
 10
241.6561657168
 20
97.4932816469
 30
0.0
 11
241.6561657168
 21
127.4932809764
 31
0.0
  0
ARC
  5
E8
330
1F
100
AcDbEntity
  8
0
  6
Continuous
 62
     7
370
    15
100
AcDbCircle
 10
230.5259396534
 20
112.9343282089
 30
0.0
 40
2.869605832162958
100
AcDbArc
 50
89.9896381141
 51
270.0103618859
  0
ARC
  5
E9
330
1F
100
AcDbEntity
  8
0
  6
Continuous
 62
     7
370
    15
100
AcDbCircle
 10
230.5260160077
 20
112.8951239523
 30
0.0
 40
2.552292580910244
100
AcDbArc
 50
89.9900639341
 51
270.0099360659
  0
ARC
  5
EA
330
1F
100
AcDbEntity
  8
0
  6
Continuous
 62
     7
370
    15
100
AcDbCircle
 10
230.5260674545
 20
112.8885899678
 30
0.0
 40
2.252363692010916
100
AcDbArc
 50
89.9900495364
 51
270.0099504636
  0
LINE
  5
EB
330
1F
100
AcDbEntity
  8
0
  6
Continuous
 62
     7
370
    15
100
AcDbLine
 10
230.5264586188
 20
110.0647224237
 30
0.0
 11
238.5082209088
 21
110.0647224237
 31
0.0
  0
LINE
  5
EC
330
1F
100
AcDbEntity
  8
0
  6
Continuous
 62
     7
370
    15
100
AcDbLine
 10
230.5264586188
 20
115.8039339942
 30
0.0
 11
238.5082209088
 21
115.8039339942
 31
0.0
  0
LINE
  5
ED
330
1F
100
AcDbEntity
  8
0
  6
Continuous
 62
     7
370
    15
100
AcDbLine
 10
230.5264586188
 20
110.3428314098
 30
0.0
 11
239.56282079
 21
110.3428314098
 31
0.0
  0
LINE
  5
EE
330
1F
100
AcDbEntity
  8
0
  6
Continuous
 62
     7
370
    15
100
AcDbLine
 10
230.5264586188
 20
115.4474164949
 30
0.0
 11
239.56282079
 21
115.4474164949
 31
0.0
  0
LINE
  5
EF
330
1F
100
AcDbEntity
  8
0
  6
Continuous
 62
     7
370
    15
100
AcDbLine
 10
230.5264586188
 20
110.6362263097
 30
0.0
 11
239.7571021296
 21
110.6362263097
 31
0.0
  0
LINE
  5
F0
330
1F
100
AcDbEntity
  8
0
  6
Continuous
 62
     7
370
    15
100
AcDbLine
 10
230.5264586188
 20
115.1409536258
 30
0.0
 11
239.7571021296
 21
115.1409536258
 31
0.0
  0
LWPOLYLINE
  5
F1
330
1F
100
AcDbEntity
  8
0
  6
Continuous
 62
     7
370
    15
100
AcDbPolyline
 90
        9
 70
   128
 43
0.0
 10
228.082206247
 20
95.9615121254
 10
227.9155516602
 20
95.7994787612
 10
227.6853883244
 20
95.392848424
 10
227.6853883244
 20
94.969051949
 10
227.9155516602
 20
94.5624216118
 10
228.3572369792
 20
94.2059001543
 10
228.9746665932
 20
93.928371615
 10
229.7178024031
 20
93.7523199835
 10
230.5264586188
 20
93.6920075335
  0
LWPOLYLINE
  5
F2
330
1F
100
AcDbEntity
  8
0
  6
Continuous
 62
     7
370
    15
100
AcDbPolyline
 90
        8
 70
   128
 43
0.0
 10
227.9112154223
 20
129.677706457
 10
227.6853883244
 20
130.0501702943
 10
227.6853883244
 20
130.4431474426
 10
227.9155516602
 20
130.8202064254
 10
228.3572369792
 20
131.150801725
 10
228.9746665932
 20
131.4081466415
 10
229.7178024031
 20
131.5713963129
 10
230.5264586188
 20
131.6273222336
  0
ARC
  5
F3
330
1F
100
AcDbEntity
  8
0
  6
Continuous
 62
     7
370
    15
100
AcDbCircle
 10
230.3055644345
 20
98.6789642219
 30
0.0
 40
3.290861144008955
100
AcDbArc
 50
232.7512011532
 51
273.8487882718
  0
ARC
  5
F4
330
1F
100
AcDbEntity
  8
0
  6
Continuous
 62
     7
370
    15
100
AcDbCircle
 10
230.3248445629
 20
126.2536572379
 30
0.0
 40
3.648492285212237
100
AcDbArc
 50
86.8322472044
 51
120.7616423144
  0
ARC
  5
F5
330
1F
100
AcDbEntity
  8
0
  6
Continuous
 62
     7
370
    15
100
AcDbCircle
 10
230.420029701
 20
99.1336158982
 30
0.0
 40
3.327690448252388
100
AcDbArc
 50
240.44519519
 51
271.8327930372
  0
LINE
  5
F6
330
1F
100
AcDbEntity
  8
0
  6
Continuous
 62
     7
370
    15
100
AcDbLine
 10
230.5264586188
 20
95.8076278337
 30
0.0
 11
239.7571021296
 21
95.8076278337
 31
0.0
  0
ARC
  5
F7
330
1F
100
AcDbEntity
  8
0
  6
Continuous
 62
     7
370
    15
100
AcDbCircle
 10
230.4455787814
 20
125.6945124482
 30
0.0
 40
3.795604573100767
100
AcDbArc
 50
88.779002394
 51
111.4633842771
  0
LINE
  5
F8
330
1F
100
AcDbEntity
  8
0
  6
Continuous
 62
     7
370
    15
100
AcDbLine
 10
230.5264586188
 20
129.4892551967
 30
0.0
 11
239.7571021296
 21
129.4892551967
 31
0.0
  0
LINE
  5
F9
330
1F
100
AcDbEntity
  8
0
  6
Continuous
 62
     7
370
    15
100
AcDbLine
 10
230.5264586188
 20
93.6920075335
 30
0.0
 11
238.5082209088
 21
93.6920075335
 31
0.0
  0
LINE
  5
FA
330
1F
100
AcDbEntity
  8
0
  6
Continuous
 62
     7
370
    15
100
AcDbLine
 10
230.5264586188
 20
95.395525045
 30
0.0
 11
239.56282079
 21
95.395525045
 31
0.0
  0
LINE
  5
FB
330
1F
100
AcDbEntity
  8
0
  6
Continuous
 62
     7
370
    15
100
AcDbLine
 10
230.5264586188
 20
129.8965747126
 30
0.0
 11
239.56282079
 21
129.8965747126
 31
0.0
  0
LINE
  5
FC
330
1F
100
AcDbEntity
  8
0
  6
Continuous
 62
     7
370
    15
100
AcDbLine
 10
230.5264586188
 20
131.6273222336
 30
0.0
 11
238.5082209088
 21
131.6273222336
 31
0.0
  0
LINE
  5
FD
330
1F
100
AcDbEntity
  8
0
  6
HIDDEN
 62
     7
370
     0
100
AcDbLine
 10
96.2642367535
 20
136.9519709268
 30
0.0
 11
96.2642367535
 21
132.3432820507
 31
0.0
  0
ARC
  5
FE
330
1F
100
AcDbEntity
  8
0
  6
HIDDEN
 62
     7
370
     0
100
AcDbCircle
 10
89.9371425289
 20
124.9897355504
 30
0.0
 40
3.677289218141747
100
AcDbArc
 50
265.6178958577
 51
12.4383908852
  0
ARC
  5
FF
330
1F
100
AcDbEntity
  8
0
  6
HIDDEN
 62
     7
370
     0
100
AcDbCircle
 10
89.3720792234
 20
124.9821565042
 30
0.0
 40
3.669972388520402
100
AcDbArc
 50
166.0291549965
 51
274.4396747729
  0
LINE
  5
100
330
1F
100
AcDbEntity
  8
0
  6
HIDDEN
 62
     7
370
     0
100
AcDbLine
 10
69.6513197921
 20
88.9686821618
 30
0.0
 11
69.1171736993
 21
88.9140675434
 31
0.0
  0
LINE
  5
101
330
1F
100
AcDbEntity
  8
0
  6
HIDDEN
 62
     7
370
     0
100
AcDbLine
 10
68.8795206674
 20
136.0966144719
 30
0.0
 11
69.6512266599
 21
136.0178636976
 31
0.0
  0
SPLINE
  5
102
330
1F
100
AcDbEntity
  8
0
  6
HIDDEN
 62
     7
370
     0
100
AcDbSpline
210
0.0
220
0.0
230
1.0
 70
     8
 71
     3
 72
    22
 73
    18
 74
     0
 42
0.00000001
 43
0.00000001
 40
0.0
 40
0.0
 40
0.0
 40
0.0
 40
0.0694705205686055
 40
0.1409377331649949
 40
0.2104135932234474
 40
0.2819466554347119
 40
0.3506518590239928
 40
0.4213898075947659
 40
0.4894670079785227
 40
0.559481139205132
 40
0.6282707070598401
 40
0.6989997640116924
 40
0.7687375463058662
 40
0.8405098058647738
 40
0.9099666327908917
 40
0.9814998906941905
 40
1.0
 40
1.0
 40
1.0
 40
1.0
 10
75.4111713335147
 20
92.6557528444492
 30
0.0
 10
75.26299742078565
 20
92.67547897135383
 30
0.0
 10
74.9623908440205
 20
92.71549818507654
 30
0.0
 10
74.42749586546367
 20
92.77087117709746
 30
0.0
 10
73.84185740261299
 20
92.81533027427122
 30
0.0
 10
73.2276247060539
 20
92.84301439801935
 30
0.0
 10
72.59370810886007
 20
92.85126696315704
 30
0.0
 10
71.97155949345441
 20
92.83928603290857
 30
0.0
 10
71.36556179901854
 20
92.8085381616027
 30
0.0
 10
70.80107278365259
 20
92.7630691377629
 30
0.0
 10
70.28169683927456
 20
92.70698822591626
 30
0.0
 10
69.82883102022181
 20
92.64699958111211
 30
0.0
 10
69.45011617279401
 20
92.58901904523168
 30
0.0
 10
69.16203147798889
 20
92.54009927409597
 30
0.0
 10
68.97957234568047
 20
92.50706403700909
 30
0.0
 10
68.89891586108098
 20
92.49192526156818
 30
0.0
 10
68.91320505113741
 20
92.49459722901295
 30
0.0
 10
68.91614120232369
 20
92.49514626645676
 30
0.0
  0
SPLINE
  5
103
330
1F
100
AcDbEntity
  8
0
  6
HIDDEN
 62
     7
370
     0
100
AcDbSpline
210
0.0
220
0.0
230
1.0
 70
     8
 71
     3
 72
    22
 73
    18
 74
     0
 42
0.00000001
 43
0.00000001
 40
0.0
 40
0.0
 40
0.0
 40
0.0
 40
0.0499040264366858
 40
0.120307606233534
 40
0.1885125575187676
 40
0.2586444383709652
 40
0.3277839293783175
 40
0.3988873421999256
 40
0.4686969862694503
 40
0.5405663562233802
 40
0.6097088194995841
 40
0.6809159464843816
 40
0.7490773455562517
 40
0.8192056025505766
 40
0.8876078267004751
 40
0.9579332920453139
 40
1.0
 40
1.0
 40
1.0
 40
1.0
 10
68.91614120232369
 20
132.4914163567983
 30
0.0
 10
68.91739204480866
 20
132.4911775905683
 30
0.0
 10
68.92040755028765
 20
132.4906019778246
 30
0.0
 10
69.045302038885
 20
132.4674037218923
 30
0.0
 10
69.26978336481798
 20
132.427722451066
 30
0.0
 10
69.58881185664463
 20
132.3755106822637
 30
0.0
 10
69.99634655777973
 20
132.3161835084191
 30
0.0
 10
70.47813359656539
 20
132.2567070609435
 30
0.0
 10
71.02855309750728
 20
132.2030997107946
 30
0.0
 10
71.62144798037384
 20
132.1626266865622
 30
0.0
 10
72.24840045991175
 20
132.1394287545432
 30
0.0
 10
72.87661147248126
 20
132.1364498117735
 30
0.0
 10
73.50087150170947
 20
132.1535843362909
 30
0.0
 10
74.09348986671696
 20
132.1882694605304
 30
0.0
 10
74.65031570962459
 20
132.2372263121837
 30
0.0
 10
75.08812290335266
 20
132.2871266397347
 30
0.0
 10
75.3231894456718
 20
132.318912723493
 30
0.0
 10
75.4111713335147
 20
132.3308097788059
 30
0.0
  0
SPLINE
  5
104
330
1F
100
AcDbEntity
  8
0
  6
HIDDEN
 62
     7
370
     0
100
AcDbSpline
210
0.0
220
0.0
230
1.0
 70
     8
 71
     3
 72
    12
 73
     8
 74
     0
 42
0.00000001
 43
0.00000001
 40
0.0
 40
0.0
 40
0.0
 40
0.0
 40
0.2208160780363722
 40
0.4480844952931958
 40
0.6689350254617065
 40
0.8961260746717999
 40
1.0
 40
1.0
 40
1.0
 40
1.0
 10
75.4111713335147
 20
132.3308097788059
 30
0.0
 10
75.54321463248971
 20
132.3478668424745
 30
0.0
 10
75.8111595914991
 20
132.3824793844284
 30
0.0
 10
76.10631485962246
 20
132.4094498874361
 30
0.0
 10
76.3074085520873
 20
132.4249621165532
 30
0.0
 10
76.40474069682477
 20
132.4310724769367
 30
0.0
 10
76.39608149443546
 20
132.4305250270569
 30
0.0
 10
76.39336460980083
 20
132.4303532608711
 30
0.0
  0
SPLINE
  5
105
330
1F
100
AcDbEntity
  8
0
  6
HIDDEN
 62
     7
370
     0
100
AcDbSpline
210
0.0
220
0.0
230
1.0
 70
     8
 71
     3
 72
    12
 73
     8
 74
     0
 42
0.00000001
 43
0.00000001
 40
0.0
 40
0.0
 40
0.0
 40
0.0
 40
0.1180926159875947
 40
0.3464868845152984
 40
0.5687513915619303
 40
0.7975140448969327
 40
1.0
 40
1.0
 40
1.0
 40
1.0
 10
76.39336460980083
 20
92.556209362384
 30
0.0
 10
76.39548703751218
 20
92.5560751653776
 30
0.0
 10
76.40171429701664
 20
92.55568142778219
 30
0.0
 10
76.29704968983403
 20
92.56230323881766
 30
0.0
 10
76.0870767281288
 20
92.57870929341186
 30
0.0
 10
75.79161799736032
 20
92.6063108669314
 30
0.0
 10
75.53272870236658
 20
92.63995552706139
 30
0.0
 10
75.4111713335147
 20
92.6557528444492
 30
0.0
  0
LINE
  5
106
330
1F
100
AcDbEntity
  8
0
  6
HIDDEN
 62
     7
370
     0
100
AcDbLine
 10
62.6601447888
 20
95.4932803878
 30
0.0
 11
62.6601447888
 21
129.4932822355
 31
0.0
  0
LWPOLYLINE
  5
107
330
1F
100
AcDbEntity
  8
0
  6
HIDDEN
 62
     7
370
     0
100
AcDbPolyline
 90
       12
 70
   128
 43
0.0
 10
89.6561696731
 20
134.4388845035
 10
90.578632576
 20
134.4927931794
 10
91.4513656475
 20
134.6516190686
 10
92.2273194023
 20
134.9067940035
 10
92.8646616243
 20
135.2445660748
 10
93.3290339612
 20
135.6467242011
 10
93.5954005994
 20
136.0915871927
 10
93.6494014763
 20
136.5551734933
 10
93.48812714
 20
137.0124901303
 10
93.1202705555
 20
137.4388831326
 10
92.565664237
 20
137.8113674589
 10
92.0292019449
 20
138.0489087322
  0
LWPOLYLINE
  5
108
330
1F
100
AcDbEntity
  8
0
  6
HIDDEN
 62
     7
370
     0
100
AcDbPolyline
 90
       12
 70
   128
 43
0.0
 10
87.2881935515
 20
138.050767652
 10
86.7466746435
 20
137.8113674589
 10
86.1920678593
 20
137.4388831326
 10
85.8242112749
 20
137.0124901303
 10
85.6629364729
 20
136.5551734933
 10
85.7169382811
 20
136.0915871927
 10
85.9833049193
 20
135.6467242011
 10
86.4476763249
 20
135.2445660748
 10
87.0850190126
 20
134.9067940035
 10
87.8609727673
 20
134.6516190686
 10
88.7337058388
 20
134.4927931794
 10
89.6561696731
 20
134.4388845035
  0
SPLINE
  5
109
330
1F
100
AcDbEntity
  8
0
  6
HIDDEN
 62
     7
370
     0
100
AcDbSpline
210
0.0
220
0.0
230
1.0
 70
     8
 71
     3
 72
    11
 73
     7
 74
     0
 42
0.00000001
 43
0.00000001
 40
0.0
 40
0.0
 40
0.0
 40
0.0
 40
0.0005779865010845
 40
0.0005779865010845
 40
0.0005779865010845
 40
0.0011559733324421
 40
0.0011559733324421
 40
0.0011559733324421
 40
0.0011559733324421
 10
49.75616929309871
 20
114.4931219197813
 30
0.0
 10
49.92283654790468
 20
114.4911382804404
 30
0.0
 10
50.08950297758234
 20
114.4891006734378
 30
0.0
 10
50.25616931603416
 20
114.4869892100314
 30
0.0
 10
50.42283574486056
 20
114.48487774548
 30
0.0
 10
50.58950211849826
 20
114.4826921823237
 30
0.0
 10
50.7561692930987
 20
114.4804096049921
 30
0.0
  0
SPLINE
  5
10A
330
1F
100
AcDbEntity
  8
0
  6
HIDDEN
 62
     7
370
     0
100
AcDbSpline
210
0.0
220
0.0
230
1.0
 70
     8
 71
     3
 72
     8
 73
     4
 74
     0
 42
0.00000001
 43
0.00000001
 40
0.0
 40
0.0
 40
0.0
 40
0.0
 40
0.0011564765856722
 40
0.0011564765856722
 40
0.0011564765856722
 40
0.0011564765856722
 10
50.7561692930987
 20
110.4965810094113
 30
0.0
 10
50.42286136252985
 20
110.495705853828
 30
0.0
 10
50.08952613013765
 20
110.4946510025765
 30
0.0
 10
49.7561692930987
 20
110.4934799155389
 30
0.0
  0
LINE
  5
10B
330
1F
100
AcDbEntity
  8
0
  6
HIDDEN
 62
     7
370
     0
100
AcDbLine
 10
89.3159952551
 20
95.4932803878
 30
0.0
 11
89.3159952551
 21
129.4932822355
 31
0.0
  0
LINE
  5
10C
330
1F
100
AcDbEntity
  8
0
  6
HIDDEN
 62
     7
370
     0
100
AcDbLine
 10
91.6061691545
 20
96.7682814815
 30
0.0
 11
91.6061691545
 21
128.2182811418
 31
0.0
  0
SPLINE
  5
10D
330
1F
100
AcDbEntity
  8
0
  6
HIDDEN
 62
     7
370
     0
100
AcDbSpline
210
0.0
220
0.0
230
1.0
 70
     8
 71
     3
 72
    16
 73
    12
 74
     0
 42
0.00000001
 43
0.00000001
 40
0.0
 40
0.0
 40
0.0
 40
0.0
 40
0.124999999999998
 40
0.124999999999998
 40
0.249999999999996
 40
0.249999999999996
 40
0.4999999999999973
 40
0.4999999999999973
 40
0.7499999999999987
 40
0.7499999999999987
 40
1.0
 40
1.0
 40
1.0
 40
1.0
 10
58.4561692930987
 20
96.69179087559588
 30
0.0
 10
58.55129104776452
 20
96.69179087559588
 30
0.0
 10
58.6446211164926
 20
96.68797504220308
 30
0.0
 10
58.82788287723061
 20
96.67320448947328
 30
0.0
 10
58.91876059278761
 20
96.66204644149771
 30
0.0
 10
59.17556229030735
 20
96.61957517135598
 30
0.0
 10
59.33062965517935
 20
96.57852897415317
 30
0.0
 10
59.58437611673396
 20
96.48338285757129
 30
0.0
 10
59.68524656840182
 20
96.42862012348971
 30
0.0
 10
59.82049298309666
 20
96.31735899958582
 30
0.0
 10
59.8561692930987
 20
96.26018926225714
 30
0.0
 10
59.8561692930987
 20
96.20576768922342
 30
0.0
  0
SPLINE
  5
10E
330
1F
100
AcDbEntity
  8
0
  6
HIDDEN
 62
     7
370
     0
100
AcDbSpline
210
0.0
220
0.0
230
1.0
 70
     8
 71
     3
 72
     8
 73
     4
 74
     0
 42
0.00000001
 43
0.00000001
 40
0.0
 40
0.0
 40
0.0
 40
0.0
 40
1.0
 40
1.0
 40
1.0
 40
1.0
 10
51.05616929641369
 20
98.83659382167812
 30
0.0
 10
51.05616929641563
 20
97.9526966793612
 30
0.0
 10
51.0426886705058
 20
97.23811343429925
 30
0.0
 10
51.0413373023165
 20
96.69179087559588
 30
0.0
  0
LINE
  5
10F
330
1F
100
AcDbEntity
  8
0
  6
HIDDEN
 62
     7
370
     0
100
AcDbLine
 10
50.7561696299
 20
102.8924547725
 30
0.0
 11
50.7561696299
 21
99.8615036377
 31
0.0
  0
LINE
  5
110
330
1F
100
AcDbEntity
  8
0
  6
HIDDEN
 62
     7
370
     0
100
AcDbLine
 10
51.0561691202
 20
116.0979150453
 30
0.0
 11
51.0561691202
 21
104.2602947571
 31
0.0
  0
SPLINE
  5
111
330
1F
100
AcDbEntity
  8
0
  6
HIDDEN
 62
     7
370
     0
100
AcDbSpline
210
0.0
220
0.0
230
1.0
 70
     8
 71
     3
 72
     8
 73
     4
 74
     0
 42
0.00000001
 43
0.00000001
 40
0.0
 40
0.0
 40
0.0
 40
0.0
 40
1.0
 40
1.0
 40
1.0
 40
1.0
 10
50.7561692930987
 20
122.1002206326957
 30
0.0
 10
50.93720075965754
 20
121.668113147033
 30
0.0
 10
51.056169296292
 20
121.2139677409335
 30
0.0
 10
51.05616929628631
 20
120.7262676872395
 30
0.0
  0
LINE
  5
112
330
1F
100
AcDbEntity
  8
0
  6
HIDDEN
 62
     7
370
     0
100
AcDbLine
 10
50.7561696299
 20
125.1334231936
 30
0.0
 11
50.7561696299
 21
122.1002210521
 31
0.0
  0
SPLINE
  5
113
330
1F
100
AcDbEntity
  8
0
  6
HIDDEN
 62
     7
370
     0
100
AcDbSpline
210
0.0
220
0.0
230
1.0
 70
     8
 71
     3
 72
    10
 73
     6
 74
     0
 42
0.00000001
 43
0.00000001
 40
0.0
 40
0.0
 40
0.0
 40
0.0
 40
0.5
 40
0.5
 40
1.0
 40
1.0
 40
1.0
 40
1.0
 10
51.05616929649192
 20
126.1499688015474
 30
0.0
 10
51.05616929649014
 20
125.985332454942
 30
0.0
 10
51.02901062573506
 20
125.8181772311122
 30
0.0
 10
50.92324563041739
 20
125.479554223312
 30
0.0
 10
50.84683084211873
 20
125.3072824460177
 30
0.0
 10
50.75616929309871
 20
125.1334236186744
 30
0.0
  0
SPLINE
  5
114
330
1F
100
AcDbEntity
  8
0
  6
HIDDEN
 62
     7
370
     0
100
AcDbSpline
210
0.0
220
0.0
230
1.0
 70
     8
 71
     3
 72
    18
 73
    14
 74
     0
 42
0.00000001
 43
0.00000001
 40
0.0
 40
0.0
 40
0.0
 40
0.0
 40
0.2500000000000033
 40
0.2500000000000033
 40
0.3750000000000029
 40
0.3750000000000029
 40
0.5000000000000026
 40
0.5000000000000026
 40
0.6250000000000022
 40
0.6250000000000022
 40
0.7500000000000018
 40
0.7500000000000018
 40
1.0
 40
1.0
 40
1.0
 40
1.0
 10
55.8561692930987
 20
128.7807949340317
 30
0.0
 10
55.8561692930987
 20
128.7263204134795
 30
0.0
 10
55.82125860170653
 20
128.669939354127
 30
0.0
 10
55.71924930037348
 20
128.5858625132735
 30
0.0
 10
55.67761294569537
 20
128.5585288092826
 30
0.0
 10
55.57920715020661
 20
128.5055748936836
 30
0.0
 10
55.52166393850233
 20
128.4796875399664
 30
0.0
 10
55.39436576492938
 20
128.4319099951332
 30
0.0
 10
55.32477846017192
 20
128.4099620769553
 30
0.0
 10
55.17334421501696
 20
128.3705295120426
 30
0.0
 10
55.09066031192302
 20
128.3529732628167
 30
0.0
 10
54.83454884988497
 20
128.3105344973962
 30
0.0
 10
54.64663384599698
 20
128.2947717476592
 30
0.0
 10
54.4561692930987
 20
128.2947717476592
 30
0.0
  0
LINE
  5
115
330
1F
100
AcDbEntity
  8
0
  6
HIDDEN
 62
     7
370
     0
100
AcDbLine
 10
54.4561689325
 20
128.2947725275
 30
0.0
 11
51.0561691202
 21
128.2947725275
 31
0.0
  0
LINE
  5
116
330
1F
100
AcDbEntity
  8
0
  6
HIDDEN
 62
     7
370
     0
100
AcDbLine
 10
50.9872009583
 20
96.6917900958
 30
0.0
 11
58.4561695881
 21
96.6917900958
 31
0.0
  0
SPLINE
  5
117
330
1F
100
AcDbEntity
  8
0
  6
HIDDEN
 62
     7
370
     0
100
AcDbSpline
210
0.0
220
0.0
230
1.0
 70
     8
 71
     3
 72
    22
 73
    18
 74
     0
 42
0.00000001
 43
0.00000001
 40
0.0
 40
0.0
 40
0.0
 40
0.0
 40
0.1249999999999998
 40
0.1249999999999998
 40
0.2499999999999995
 40
0.2499999999999995
 40
0.4999999999999992
 40
0.4999999999999992
 40
0.5624999999999993
 40
0.5624999999999993
 40
0.6249999999999994
 40
0.6249999999999994
 40
0.7499999999999996
 40
0.7499999999999996
 40
0.8749999999999998
 40
0.8749999999999998
 40
1.0
 40
1.0
 40
1.0
 40
1.0
 10
50.98720030645662
 20
96.69179087559588
 30
0.0
 10
50.97411791372824
 20
96.94689658574356
 30
0.0
 10
50.96089835028842
 20
97.24005484484746
 30
0.0
 10
50.93845117249429
 20
97.90235531047227
 30
0.0
 10
50.92897270546984
 20
98.27262923108366
 30
0.0
 10
50.90977474453329
 20
99.49518603419743
 30
0.0
 10
50.91088851753018
 20
100.4323249603293
 30
0.0
 10
50.92979931048325
 20
101.7521961898443
 30
0.0
 10
50.93442883834226
 20
102.0236980988206
 30
0.0
 10
50.94491005808821
 20
102.5820829336229
 30
0.0
 10
50.95070531937262
 20
102.8692057895625
 30
0.0
 10
50.96901454027756
 20
103.7417950439342
 30
0.0
 10
50.98304947455792
 20
104.3422507202901
 30
0.0
 10
51.01250664669474
 20
105.5797252127861
 30
0.0
 10
51.02806233767632
 20
106.2167413694296
 30
0.0
 10
51.0518568876732
 20
107.5282299671141
 30
0.0
 10
51.05987593981856
 20
108.2043525787747
 30
0.0
 10
51.0561692930987
 20
108.8886476900594
 30
0.0
  0
LINE
  5
118
330
1F
100
AcDbEntity
  8
0
  6
HIDDEN
 62
     7
370
     0
100
AcDbLine
 10
51.0561691202
 20
116.0979150453
 30
0.0
 11
51.0561691202
 21
128.2947725275
 31
0.0
  0
SPLINE
  5
119
330
1F
100
AcDbEntity
  8
0
  6
HIDDEN
 62
     7
370
     0
100
AcDbSpline
210
0.0
220
0.0
230
1.0
 70
     8
 71
     3
 72
    10
 73
     6
 74
     0
 42
0.00000001
 43
0.00000001
 40
0.0
 40
0.0
 40
0.0
 40
0.0
 40
0.5
 40
0.5
 40
1.0
 40
1.0
 40
1.0
 40
1.0
 10
51.0561692930987
 20
108.8886476900444
 30
0.0
 10
51.05616929309851
 20
109.1625628381187
 30
0.0
 10
51.03041006323081
 20
109.4335044168488
 30
0.0
 10
50.9272041304977
 20
109.9691954984517
 30
0.0
 10
50.84986596662246
 20
110.2349423019737
 30
0.0
 10
50.75616929309869
 20
110.4965810094113
 30
0.0
  0
SPLINE
  5
11A
330
1F
100
AcDbEntity
  8
0
  6
HIDDEN
 62
     7
370
     0
100
AcDbSpline
210
0.0
220
0.0
230
1.0
 70
     8
 71
     3
 72
    10
 73
     6
 74
     0
 42
0.00000001
 43
0.00000001
 40
0.0
 40
0.0
 40
0.0
 40
0.0
 40
0.5
 40
0.5
 40
1.0
 40
1.0
 40
1.0
 40
1.0
 10
50.75616929309869
 20
114.4804096049921
 30
0.0
 10
50.84939987448971
 20
114.7443034130622
 30
0.0
 10
50.92442948672646
 20
115.0104837237004
 30
0.0
 10
51.02949658590461
 20
115.5488062986586
 30
0.0
 10
51.05616929649079
 20
115.8215544149042
 30
0.0
 10
51.05616929649198
 20
116.0979149331947
 30
0.0
  0
LINE
  5
11B
330
1F
100
AcDbEntity
  8
0
  6
HIDDEN
 62
     7
370
     0
100
AcDbLine
 10
50.7561696299
 20
110.4965811253
 30
0.0
 11
50.7561696299
 21
114.4804095973
 31
0.0
  0
LINE
  5
11C
330
1F
100
AcDbEntity
  8
0
  6
HIDDEN
 62
     7
370
     0
100
AcDbLine
 10
228.9061659552
 20
112.4932813116
 30
0.0
 11
228.9061659552
 21
96.4932805517
 31
0.0
  0
LINE
  5
11D
330
1F
100
AcDbEntity
  8
0
  6
HIDDEN
 62
     7
370
     0
100
AcDbLine
 10
228.9061659552
 20
128.4932820716
 30
0.0
 11
228.9061659552
 21
112.4932813116
 31
0.0
  0
LINE
  5
11E
330
1F
100
AcDbEntity
  8
0
  6
HIDDEN
 62
     7
370
     0
100
AcDbLine
 10
229.6561712004
 20
112.4932813116
 30
0.0
 11
229.6561712004
 21
97.2432811403
 31
0.0
  0
LINE
  5
11F
330
1F
100
AcDbEntity
  8
0
  6
HIDDEN
 62
     7
370
     0
100
AcDbLine
 10
229.6561712004
 20
127.743281483
 30
0.0
 11
229.6561712004
 21
112.4932813116
 31
0.0
  0
LINE
  5
120
330
1F
100
AcDbEntity
  8
0
  6
HIDDEN
 62
     7
370
     0
100
AcDbLine
 10
204.7523745872
 20
112.4932813116
 30
0.0
 11
204.7523745872
 21
103.4932816991
 31
0.0
  0
LINE
  5
121
330
1F
100
AcDbEntity
  8
0
  6
HIDDEN
 62
     7
370
     0
100
AcDbLine
 10
204.7523745872
 20
121.4932809242
 30
0.0
 11
204.7523745872
 21
112.4932813116
 31
0.0
  0
LINE
  5
122
330
1F
100
AcDbEntity
  8
0
  6
HIDDEN
 62
     7
370
     0
100
AcDbLine
 10
50.9061684437
 20
94.5032807656
 30
0.0
 11
50.9061684437
 21
91.6233426549
 31
0.0
  0
LINE
  5
123
330
1F
100
AcDbEntity
  8
0
  6
HIDDEN
 62
     7
370
     0
100
AcDbLine
 10
59.8561690726
 20
94.5032807656
 30
0.0
 11
59.8561690726
 21
90.5295434066
 31
0.0
  0
LINE
  5
124
330
1F
100
AcDbEntity
  8
0
  6
HIDDEN
 62
     7
370
     0
100
AcDbLine
 10
50.9061684437
 20
130.4832818576
 30
0.0
 11
50.9061684437
 21
133.3632199683
 31
0.0
  0
LINE
  5
125
330
1F
100
AcDbEntity
  8
0
  6
HIDDEN
 62
     7
370
     0
100
AcDbLine
 10
55.8561684169
 20
130.4832818576
 30
0.0
 11
55.8561684169
 21
134.3373889693
 31
0.0
  0
LINE
  5
126
330
1F
100
AcDbEntity
  8
0
  6
HIDDEN
 62
     7
370
     0
100
AcDbLine
 10
103.4561695136
 20
102.9932816171
 30
0.0
 11
103.4561695136
 21
121.9932810062
 31
0.0
  0
LINE
  5
127
330
1F
100
AcDbEntity
  8
0
  6
HIDDEN
 62
     7
370
     0
100
AcDbLine
 10
100.4561690219
 20
102.9932816171
 30
0.0
 11
100.4561690219
 21
121.9932810062
 31
0.0
  0
LINE
  5
128
330
1F
100
AcDbEntity
  8
0
  6
HIDDEN
 62
     7
370
     0
100
AcDbLine
 10
199.0240925528
 20
112.4932813116
 30
0.0
 11
199.0240925528
 21
106.9932813414
 31
0.0
  0
LINE
  5
129
330
1F
100
AcDbEntity
  8
0
  6
HIDDEN
 62
     7
370
     0
100
AcDbLine
 10
199.0240925528
 20
117.9932812818
 30
0.0
 11
199.0240925528
 21
112.4932813116
 31
0.0
  0
LINE
  5
12A
330
1F
100
AcDbEntity
  8
0
  6
HIDDEN
 62
     7
370
     0
100
AcDbLine
 10
200.6561720349
 20
112.4932813116
 30
0.0
 11
200.6561720349
 21
103.4932816991
 31
0.0
  0
LINE
  5
12B
330
1F
100
AcDbEntity
  8
0
  6
HIDDEN
 62
     7
370
     0
100
AcDbLine
 10
200.6561720349
 20
121.4932809242
 30
0.0
 11
200.6561720349
 21
112.4932813116
 31
0.0
  0
LINE
  5
12C
330
1F
100
AcDbEntity
  8
0
  6
HIDDEN
 62
     7
370
     0
100
AcDbLine
 10
92.1061692365
 20
103.9932808497
 30
0.0
 11
92.1061692365
 21
120.9932817736
 31
0.0
  0
LINE
  5
12D
330
1F
100
AcDbEntity
  8
0
  6
HIDDEN
 62
     7
370
     0
100
AcDbLine
 10
97.8438445904
 20
86.0932814547
 30
0.0
 11
94.6061696463
 21
86.0932814547
 31
0.0
  0
LINE
  5
12E
330
1F
100
AcDbEntity
  8
0
  6
HIDDEN
 62
     7
370
     0
100
AcDbLine
 10
107.6061689832
 20
86.0932814547
 30
0.0
 11
101.4684943088
 21
86.0932814547
 31
0.0
  0
LINE
  5
12F
330
1F
100
AcDbEntity
  8
0
  6
HIDDEN
 62
     7
370
     0
100
AcDbLine
 10
86.6061692663
 20
81.0091579922
 30
0.0
 11
86.6061692663
 21
86.0932814547
 31
0.0
  0
LINE
  5
130
330
1F
100
AcDbEntity
  8
0
  6
HIDDEN
 62
     7
370
     0
100
AcDbLine
 10
94.6061696463
 20
86.0932814547
 30
0.0
 11
86.6061692663
 21
86.0932814547
 31
0.0
  0
LINE
  5
131
330
1F
100
AcDbEntity
  8
0
  6
HIDDEN
 62
     7
370
     0
100
AcDbLine
 10
98.1404671051
 20
138.8932811686
 30
0.0
 11
94.6061696463
 21
138.8932811686
 31
0.0
  0
LINE
  5
132
330
1F
100
AcDbEntity
  8
0
  6
HIDDEN
 62
     7
370
     0
100
AcDbLine
 10
107.6061689832
 20
138.8932811686
 30
0.0
 11
101.171871794
 21
138.8932811686
 31
0.0
  0
LINE
  5
133
330
1F
100
AcDbEntity
  8
0
  6
HIDDEN
 62
     7
370
     0
100
AcDbLine
 10
94.6061696463
 20
138.8932811686
 30
0.0
 11
86.6061692663
 21
138.8932811686
 31
0.0
  0
SPLINE
  5
134
330
1F
100
AcDbEntity
  8
0
  6
HIDDEN
 62
     7
370
     0
100
AcDbSpline
210
0.0
220
0.0
230
1.0
 70
     8
 71
     3
 72
    11
 73
     7
 74
     0
 42
0.00000001
 43
0.00000001
 40
0.0
 40
0.0
 40
0.0
 40
0.0
 40
0.0008203708524183
 40
0.0008203708524183
 40
0.0008203708524183
 40
0.0016409967870154
 40
0.0016409967870154
 40
0.0016409967870154
 40
0.0016409967870154
 10
50.9061692930987
 20
96.6412485609848
 30
0.0
 10
50.71501099280004
 20
96.60006953236568
 30
0.0
 10
50.52358392272787
 20
96.56131556013567
 30
0.0
 10
50.33193829920724
 20
96.52494780085713
 30
0.0
 10
50.14023289412678
 20
96.4885686970911
 30
0.0
 10
49.94829394206782
 20
96.45457444632355
 30
0.0
 10
49.75616929499702
 20
96.42292632093235
 30
0.0
  0
ELLIPSE
  5
135
330
1F
100
AcDbEntity
  8
0
  6
HIDDEN
 62
     7
370
     0
100
AcDbEllipse
 10
45.5137374245
 20
112.4932813116
 30
0.0
 11
20.19992453366627
 21
-1.421085471520200E-14
 31
0.0
210
0.0
220
0.0
230
1.0
 40
0.8164965809
 41
1.300566354718001
 42
1.359198697209606
  0
LINE
  5
136
330
1F
100
AcDbEntity
  8
0
  6
HIDDEN
 62
     7
370
     0
100
AcDbLine
 10
50.9061684437
 20
94.5032807656
 30
0.0
 11
50.9061684437
 21
96.6412490823
 31
0.0
  0
LINE
  5
137
330
1F
100
AcDbEntity
  8
0
  6
HIDDEN
 62
     7
370
     0
100
AcDbLine
 10
50.9872009583
 20
96.6917900958
 30
0.0
 11
50.9061684437
 21
96.6412490823
 31
0.0
  0
LINE
  5
138
330
1F
100
AcDbEntity
  8
0
  6
HIDDEN
 62
     7
370
     0
100
AcDbLine
 10
59.8561690726
 20
94.5032807656
 30
0.0
 11
59.8561690726
 21
96.2057682344
 31
0.0
  0
LINE
  5
139
330
1F
100
AcDbEntity
  8
0
  6
HIDDEN
 62
     7
370
     0
100
AcDbLine
 10
55.8561684169
 20
130.4832818576
 30
0.0
 11
55.8561684169
 21
128.7807943889
 31
0.0
  0
LINE
  5
13A
330
1F
100
AcDbEntity
  8
0
  6
HIDDEN
 62
     7
370
     0
100
AcDbLine
 10
50.9061684437
 20
130.4832818576
 30
0.0
 11
50.9061684437
 21
128.3879066476
 31
0.0
  0
SPLINE
  5
13B
330
1F
100
AcDbEntity
  8
0
  6
HIDDEN
 62
     7
370
     0
100
AcDbSpline
210
0.0
220
0.0
230
1.0
 70
     8
 71
     3
 72
     8
 73
     4
 74
     0
 42
0.00000001
 43
0.00000001
 40
0.0
 40
0.0
 40
0.0
 40
0.0
 40
1.0
 40
1.0
 40
1.0
 40
1.0
 10
50.9061692930987
 20
128.3879057626862
 30
0.0
 10
50.95617479204243
 20
128.3568699884671
 30
0.0
 10
51.00617486270684
 20
128.3258253434395
 30
0.0
 10
51.05616929649195
 20
128.2947717476592
 30
0.0
  0
LINE
  5
13C
330
1F
100
AcDbEntity
  8
0
  6
HIDDEN
 62
     7
370
     0
100
AcDbLine
 10
171.6561728694
 20
112.4932813116
 30
0.0
 11
171.6561728694
 21
106.9932813414
 31
0.0
  0
LINE
  5
13D
330
1F
100
AcDbEntity
  8
0
  6
HIDDEN
 62
     7
370
     0
100
AcDbLine
 10
171.6561728694
 20
117.9932812818
 30
0.0
 11
171.6561728694
 21
112.4932813116
 31
0.0
  0
LINE
  5
13E
330
1F
100
AcDbEntity
  8
0
  6
HIDDEN
 62
     7
370
     0
100
AcDbLine
 10
170.8750539996
 20
112.4932813116
 30
0.0
 11
170.8750539996
 21
108.2932814614
 31
0.0
  0
LINE
  5
13F
330
1F
100
AcDbEntity
  8
0
  6
HIDDEN
 62
     7
370
     0
100
AcDbLine
 10
170.8750539996
 20
116.6932811619
 30
0.0
 11
170.8750539996
 21
112.4932813116
 31
0.0
  0
SPLINE
  5
140
330
1F
100
AcDbEntity
  8
0
  6
HIDDEN
 62
     7
370
     0
100
AcDbSpline
210
0.0
220
0.0
230
1.0
 70
     8
 71
     3
 72
    20
 73
    16
 74
     0
 42
0.00000001
 43
0.00000001
 40
0.0
 40
0.0
 40
0.0
 40
0.0
 40
0.1119595197270015
 40
0.1774767654920859
 40
0.249096185325418
 40
0.3298422369283467
 40
0.3986125725171922
 40
0.4998892967520781
 40
0.6138510411462624
 40
0.6790150058045442
 40
0.7495394119902732
 40
0.8296829969661308
 40
0.8981246339666275
 40
0.9995320129300933
 40
0.9999999999999999
 40
0.9999999999999999
 40
0.9999999999999999
 40
0.9999999999999999
 10
76.40500986727382
 20
88.89328787409893
 30
0.0
 10
76.36168595080645
 20
88.90671624231638
 30
0.0
 10
76.29300944538888
 20
88.9280027158818
 30
0.0
 10
75.84783093601868
 20
89.03131762954814
 30
0.0
 10
75.32127222931909
 20
89.14461787226628
 30
0.0
 10
74.63584723261815
 20
89.26755252555843
 30
0.0
 10
73.74253005482954
 20
89.38958721270383
 30
0.0
 10
72.62917040422305
 20
89.50732284988703
 30
0.0
 10
71.51839627557169
 20
89.51929672212965
 30
0.0
 10
70.63364799830907
 20
89.49224118353534
 30
0.0
 10
69.96645172825112
 20
89.44430811733505
 30
0.0
 10
69.42517723824388
 20
89.38801100793098
 30
0.0
 10
69.03760482103513
 20
89.3429393135813
 30
0.0
 10
68.84364211591213
 20
89.30403489102652
 30
0.0
 10
68.90676524918469
 20
89.31476449577849
 30
0.0
 10
68.90705521928574
 20
89.31481378459564
 30
0.0
  0
LINE
  5
141
330
1F
100
AcDbEntity
  8
0
  6
HIDDEN
 62
     7
370
     0
100
AcDbLine
 10
69.816181583
 20
89.4256188192
 30
0.0
 11
70.0000265219
 21
89.4438094118
 31
0.0
  0
LINE
  5
142
330
1F
100
AcDbEntity
  8
0
  6
HIDDEN
 62
     7
370
     0
100
AcDbLine
 10
70.0000237279
 20
135.5426842936
 30
0.0
 11
69.8259502255
 21
135.5598932722
 31
0.0
  0
SPLINE
  5
143
330
1F
100
AcDbEntity
  8
0
  6
HIDDEN
 62
     7
370
     0
100
AcDbSpline
210
0.0
220
0.0
230
1.0
 70
     8
 71
     3
 72
    20
 73
    16
 74
     0
 42
0.00000001
 43
0.00000001
 40
0.0
 40
0.0
 40
0.0
 40
0.0
 40
0.0004889697591047
 40
0.1018319945141926
 40
0.1702475571949642
 40
0.2503691863856972
 40
0.3209567830713191
 40
0.3861815969282947
 40
0.5002554405931924
 40
0.6012243594512068
 40
0.6697680251707869
 40
0.7502401868573377
 40
0.8220490723920678
 40
0.8877204424947721
 40
1.0
 40
1.0
 40
1.0
 40
1.0
 10
68.90708874689842
 20
135.6716836460792
 30
0.0
 10
68.90678500304311
 20
135.6717348183823
 30
0.0
 10
68.84352783420377
 20
135.6823918735284
 30
0.0
 10
69.03675988562902
 20
135.643650112589
 30
0.0
 10
69.42369823078002
 20
135.5985896997572
 30
0.0
 10
69.96470704917512
 20
135.542337291832
 30
0.0
 10
70.63220671726944
 20
135.4944042256733
 30
0.0
 10
71.51803453444664
 20
135.4673311523412
 30
0.0
 10
72.62884135326225
 20
135.4791564414002
 30
0.0
 10
73.74091147073317
 20
135.5966074166632
 30
0.0
 10
74.63201239572457
 20
135.7183085445233
 30
0.0
 10
75.31749627278386
 20
135.8411316624934
 30
0.0
 10
75.84548481080179
 20
135.9545706591718
 30
0.0
 10
76.29286819443072
 20
136.0583093115081
 30
0.0
 10
76.36167889097773
 20
136.0797330537061
 30
0.0
 10
76.40509554895068
 20
136.0932505347692
 30
0.0
  0
LINE
  5
144
330
1F
100
AcDbEntity
  8
0
  6
HIDDEN
 62
     7
370
     0
100
AcDbLine
 10
143.6061674334
 20
130.4159304717
 30
0.0
 11
146.1061724998
 21
130.4159304717
 31
0.0
  0
LINE
  5
145
330
1F
100
AcDbEntity
  8
0
  6
HIDDEN
 62
     7
370
     0
100
AcDbLine
 10
141.1061698176
 20
130.4159304717
 30
0.0
 11
143.6061674334
 21
130.4159304717
 31
0.0
  0
LINE
  5
146
330
1F
100
AcDbEntity
  8
0
  6
HIDDEN
 62
     7
370
     0
100
AcDbLine
 10
146.1061724998
 20
94.5706321516
 30
0.0
 11
141.1061698176
 21
94.5706321516
 31
0.0
  0
LINE
  5
147
330
1F
100
AcDbEntity
  8
0
  6
HIDDEN
 62
     7
370
     0
100
AcDbLine
 10
143.6061674334
 20
121.9932810062
 30
0.0
 11
146.1061724998
 21
121.9932810062
 31
0.0
  0
LINE
  5
148
330
1F
100
AcDbEntity
  8
0
  6
HIDDEN
 62
     7
370
     0
100
AcDbLine
 10
141.1061698176
 20
121.9932810062
 30
0.0
 11
143.6061674334
 21
121.9932810062
 31
0.0
  0
LINE
  5
149
330
1F
100
AcDbEntity
  8
0
  6
HIDDEN
 62
     7
370
     0
100
AcDbLine
 10
146.1061724998
 20
102.9932816171
 30
0.0
 11
141.1061698176
 21
102.9932816171
 31
0.0
  0
SPLINE
  5
14A
330
1F
100
AcDbEntity
  8
0
  6
HIDDEN
 62
     7
370
     0
100
AcDbSpline
210
0.0
220
0.0
230
1.0
 70
     8
 71
     3
 72
     8
 73
     4
 74
     0
 42
0.00000001
 43
0.00000001
 40
0.0
 40
0.0
 40
0.0
 40
0.0
 40
0.0001590976953428
 40
0.0001590976953428
 40
0.0001590976953428
 40
0.0001590976953428
 10
51.04133730231651
 20
96.69179087559588
 30
0.0
 10
50.99628583181223
 20
96.66381199127215
 30
0.0
 10
50.9512297933975
 20
96.63584046089711
 30
0.0
 10
50.90616929309871
 20
96.60787612154465
 30
0.0
  0
SPLINE
  5
14B
330
1F
100
AcDbEntity
  8
0
  6
HIDDEN
 62
     7
370
     0
100
AcDbSpline
210
0.0
220
0.0
230
1.0
 70
     8
 71
     3
 72
    11
 73
     7
 74
     0
 42
0.00000001
 43
0.00000001
 40
0.0
 40
0.0
 40
0.0
 40
0.0
 40
0.0008212909311457
 40
0.0008212909311457
 40
0.0008212909311457
 40
0.001642825724306
 40
0.001642825724306
 40
0.001642825724306
 40
0.001642825724306
 10
50.9061692930987
 20
96.60787612154462
 30
0.0
 10
50.71502427161651
 20
96.56458993269206
 30
0.0
 10
50.52360593594002
 20
96.52365342305475
 30
0.0
 10
50.33195986127886
 20
96.48505165166816
 30
0.0
 10
50.14025677973727
 20
96.44643839783105
 30
0.0
 10
49.94831165645178
 20
96.41015818854501
 30
0.0
 10
49.7561692930986
 20
96.37619128219349
 30
0.0
  0
LINE
  5
14C
330
1F
100
AcDbEntity
  8
0
  6
HIDDEN
 62
     7
370
     0
100
AcDbLine
 10
97.7461693414
 20
132.6291477897
 30
0.0
 11
97.7461693414
 21
132.3432820507
 31
0.0
  0
LINE
  5
14D
330
1F
100
AcDbEntity
  8
0
  6
HIDDEN
 62
     7
370
     0
100
AcDbLine
 10
101.5661695577
 20
132.6742629179
 30
0.0
 11
101.5661695577
 21
132.3432820507
 31
0.0
  0
LINE
  5
14E
330
1F
100
AcDbEntity
  8
0
  6
HIDDEN
 62
     7
370
     0
100
AcDbLine
 10
103.0481012143
 20
136.9519709268
 30
0.0
 11
103.0481012143
 21
132.3432820507
 31
0.0
  0
SPLINE
  5
14F
330
1F
100
AcDbEntity
  8
0
  6
HIDDEN
 62
     7
370
     0
100
AcDbSpline
210
0.0
220
0.0
230
1.0
 70
     8
 71
     3
 72
    24
 73
    20
 74
     0
 42
0.00000001
 43
0.00000001
 40
0.0
 40
0.0
 40
0.0
 40
0.0
 40
0.25
 40
0.25
 40
0.374999999999999
 40
0.374999999999999
 40
0.4374999999999993
 40
0.4374999999999993
 40
0.4687499999999994
 40
0.4687499999999994
 40
0.4999999999999995
 40
0.4999999999999995
 40
0.5624999999999971
 40
0.5624999999999971
 40
0.6249999999999947
 40
0.6249999999999947
 40
0.7499999999999947
 40
0.7499999999999947
 40
1.0
 40
1.0
 40
1.0
 40
1.0
 10
49.81883266782211
 20
92.8187287668468
 30
0.0
 10
49.83258578649233
 20
92.88937882483708
 30
0.0
 10
49.8503583538982
 20
92.95597693760202
 30
0.0
 10
49.90260944545355
 20
93.03007495783521
 30
0.0
 10
49.92364452103512
 20
93.05133276499677
 30
0.0
 10
49.97654492866354
 20
93.05947869114301
 30
0.0
 10
49.99765060154146
 20
93.05853888774725
 30
0.0
 10
50.04370277021944
 20
93.0375228961699
 30
0.0
 10
50.06207324220283
 20
93.02661409006228
 30
0.0
 10
50.10362487726852
 20
92.99397917911492
 30
0.0
 10
50.12619155002544
 20
92.97248719874354
 30
0.0
 10
50.18897256648545
 20
92.90402125515723
 30
0.0
 10
50.22210232745336
 20
92.85794679695213
 30
0.0
 10
50.27902001393836
 20
92.77293890861748
 30
0.0
 10
50.30320603944213
 20
92.7326586074361
 30
0.0
 10
50.36841398982189
 20
92.61772238097015
 30
0.0
 10
50.40313005001314
 20
92.54713939582314
 30
0.0
 10
50.49634532034403
 20
92.34293363674453
 30
0.0
 10
50.5420178557047
 20
92.22003525441717
 30
0.0
 10
50.58032293920324
 20
92.10316197802959
 30
0.0
  0
SPLINE
  5
150
330
1F
100
AcDbEntity
  8
0
  6
HIDDEN
 62
     7
370
     0
100
AcDbSpline
210
0.0
220
0.0
230
1.0
 70
     8
 71
     3
 72
    11
 73
     7
 74
     0
 42
0.00000001
 43
0.00000001
 40
0.0
 40
0.0
 40
0.0
 40
0.0
 40
0.000578186222398
 40
0.000578186222398
 40
0.000578186222398
 40
0.0011563724723931
 40
0.0011563724723931
 40
0.0011563724723931
 40
0.0011563724723931
 10
50.75616929309898
 20
125.1334236186792
 30
0.0
 10
50.58950873882331
 20
125.1979531300928
 30
0.0
 10
50.42284544191681
 20
125.2624558339317
 30
0.0
 10
50.2561788580865
 20
125.3269422823653
 30
0.0
 10
50.08951226582737
 20
125.3914287340602
 30
0.0
 10
49.92284240020145
 20
125.4558987427883
 30
0.0
 10
49.75616929309867
 20
125.5203545095209
 30
0.0
  0
SPLINE
  5
151
330
1F
100
AcDbEntity
  8
0
  6
HIDDEN
 62
     7
370
     0
100
AcDbSpline
210
0.0
220
0.0
230
1.0
 70
     8
 71
     3
 72
    11
 73
     7
 74
     0
 42
0.00000001
 43
0.00000001
 40
0.0
 40
0.0
 40
0.0
 40
0.0
 40
0.0005778746105108
 40
0.0005778746105108
 40
0.0005778746105108
 40
0.0011557494857227
 40
0.0011557494857227
 40
0.0011557494857227
 40
0.0011557494857227
 10
49.75616929309867
 20
99.46605945613766
 30
0.0
 10
49.92283616951202
 20
99.53187158283147
 30
0.0
 10
50.08950288907349
 20
99.59773006296909
 30
0.0
 10
50.25616953712213
 20
99.66363763589969
 30
0.0
 10
50.42283626164079
 20
99.72954523907
 30
0.0
 10
50.58950295606137
 20
99.79550234745845
 30
0.0
 10
50.75616929309869
 20
99.86150408738112
 30
0.0
  0
SPLINE
  5
152
330
1F
100
AcDbEntity
  8
0
  6
HIDDEN
 62
     7
370
     0
100
AcDbSpline
210
0.0
220
0.0
230
1.0
 70
     8
 71
     3
 72
    11
 73
     7
 74
     0
 42
0.00000001
 43
0.00000001
 40
0.0000000000000007
 40
0.0000000000000007
 40
0.0000000000000007
 40
0.0000000000000007
 40
0.0005780486062768
 40
0.0005780486062768
 40
0.0005780486062768
 40
0.0011560973514127
 40
0.0011560973514127
 40
0.0011560973514127
 40
0.0011560973514127
 10
49.75616929309867
 20
122.4740958133194
 30
0.0
 10
49.92283914914358
 20
122.4117239518048
 30
0.0
 10
50.08950685322784
 20
122.3493700915071
 30
0.0
 10
50.25617315768149
 20
122.2870505313209
 30
0.0
 10
50.42283949837523
 20
122.224730957584
 30
0.0
 10
50.58950445500401
 20
122.1624457532644
 30
0.0
 10
50.7561692930987
 20
122.1002206326957
 30
0.0
  0
SPLINE
  5
153
330
1F
100
AcDbEntity
  8
0
  6
HIDDEN
 62
     7
370
     0
100
AcDbSpline
210
0.0
220
0.0
230
1.0
 70
     8
 71
     3
 72
    11
 73
     7
 74
     0
 42
0.00000001
 43
0.00000001
 40
0.0
 40
0.0
 40
0.0
 40
0.0
 40
0.0005782401583533
 40
0.0005782401583533
 40
0.0005782401583533
 40
0.0011564805960992
 40
0.0011564805960992
 40
0.0011564805960992
 40
0.0011564805960992
 10
50.75616929309869
 20
102.89245451923
 30
0.0
 10
50.58951834274978
 20
102.8290290611692
 30
0.0
 10
50.42285875016714
 20
102.7656735375139
 30
0.0
 10
50.25619169773859
 20
102.7023759531639
 30
0.0
 10
50.08952456117477
 20
102.6390783368606
 30
0.0
 10
49.9228499537287
 20
102.5758385419198
 30
0.0
 10
49.75616929309863
 20
102.5126385352809
 30
0.0
  0
CIRCLE
  5
154
330
1F
100
AcDbEntity
  8
0
  6
HIDDEN
 62
     7
370
     0
100
AcDbCircle
 10
88.6561692931
 20
112.4932813116
 30
0.0
 40
5.0
  0
LINE
  5
155
330
1F
100
AcDbEntity
  8
0
  6
HIDDEN
 62
     7
370
     0
100
AcDbLine
 10
230.5264586188
 20
92.8842565634
 30
0.0
 11
238.2786685206
 21
92.8842565634
 31
0.0
  0
SPLINE
  5
156
330
1F
100
AcDbEntity
  8
0
  6
HIDDEN
 62
     7
370
     0
100
AcDbSpline
210
0.0
220
0.0
230
1.0
 70
     8
 71
     3
 72
    17
 73
    13
 74
     0
 42
0.00000001
 43
0.00000001
 40
0.0
 40
0.0
 40
0.0
 40
0.0
 40
0.0849598854013361
 40
0.2026995710234449
 40
0.3179176323928332
 40
0.4263322353132614
 40
0.5329714941006364
 40
0.6313702084492487
 40
0.7280136374071301
 40
0.8312797250581913
 40
0.942108323644322
 40
1.0
 40
1.0
 40
1.0
 40
1.0
 10
230.5264586188128
 20
95.98213905775181
 30
0.0
 10
230.2291646937578
 20
95.96909584695871
 30
0.0
 10
229.5198728816059
 20
95.93797700516596
 30
0.0
 10
228.4813963053881
 20
95.65266276467328
 30
0.0
 10
227.5994664328432
 20
95.17086865326709
 30
0.0
 10
227.0882568774111
 20
94.59843000809103
 30
0.0
 10
227.007668644552
 20
94.04970730735745
 30
0.0
 10
227.3170677847313
 20
93.59397259643856
 30
0.0
 10
227.9321806991928
 20
93.24737978580222
 30
0.0
 10
228.8170716590039
 20
93.00707820768046
 30
0.0
 10
229.7345951332117
 20
92.89760966111524
 30
0.0
 10
230.3241643251366
 20
92.8876678275035
 30
0.0
 10
230.5264586188128
 20
92.8842565634214
 30
0.0
  0
LINE
  5
157
330
1F
100
AcDbEntity
  8
0
  6
HIDDEN
 62
     7
370
     0
100
AcDbLine
 10
230.5264586188
 20
95.9821390578
 30
0.0
 11
238.2786685206
 21
95.9821390578
 31
0.0
  0
LINE
  5
158
330
1F
100
AcDbEntity
  8
0
  6
HIDDEN
 62
     7
370
     0
100
AcDbLine
 10
238.2786685206
 20
96.5522816994
 30
0.0
 11
238.2786685206
 21
95.9821390578
 31
0.0
  0
LINE
  5
159
330
1F
100
AcDbEntity
  8
0
  6
HIDDEN
 62
     7
370
     0
100
AcDbLine
 10
230.5264586188
 20
108.8252547786
 30
0.0
 11
238.2786685206
 21
108.8252547786
 31
0.0
  0
SPLINE
  5
15A
330
1F
100
AcDbEntity
  8
0
  6
HIDDEN
 62
     7
370
     0
100
AcDbSpline
210
0.0
220
0.0
230
1.0
 70
     8
 71
     3
 72
    17
 73
    13
 74
     0
 42
0.00000001
 43
0.00000001
 40
0.0
 40
0.0
 40
0.0
 40
0.0
 40
0.0849661538431225
 40
0.2027145161196043
 40
0.3179410496161336
 40
0.4263636816393239
 40
0.5376354093465503
 40
0.6360086973968079
 40
0.7328946971543876
 40
0.8365475038873837
 40
0.9477174778078208
 40
1.0
 40
1.0
 40
1.0
 40
1.0
 10
230.5264586188128
 20
115.2639752843343
 30
0.0
 10
230.229165113332
 20
115.2428649036734
 30
0.0
 10
229.5198743383214
 20
115.1924991944206
 30
0.0
 10
228.4813882186492
 20
114.7244997473003
 30
0.0
 10
227.5994951635199
 20
113.8931131479585
 30
0.0
 10
227.0809971591461
 20
112.8149299004928
 30
0.0
 10
227.008531703766
 20
111.6760119772383
 30
0.0
 10
227.3398844027747
 20
110.6385490873162
 30
0.0
 10
227.9694158508206
 20
109.7889451416988
 30
0.0
 10
228.8669917827369
 20
109.153146939997
 30
0.0
 10
229.7728199071987
 20
108.8587125611266
 30
0.0
 10
230.3438172795696
 20
108.8333631389363
 30
0.0
 10
230.5264586188128
 20
108.8252547786497
 30
0.0
  0
LINE
  5
15B
330
1F
100
AcDbEntity
  8
0
  6
HIDDEN
 62
     7
370
     0
100
AcDbLine
 10
230.5264586188
 20
115.2639752843
 30
0.0
 11
238.2786685206
 21
115.2639752843
 31
0.0
  0
LINE
  5
15C
330
1F
100
AcDbEntity
  8
0
  6
HIDDEN
 62
     7
370
     0
100
AcDbLine
 10
238.2786685206
 20
116.1613078446
 30
0.0
 11
238.2786685206
 21
115.2639752843
 31
0.0
  0
LINE
  5
15D
330
1F
100
AcDbEntity
  8
0
  6
HIDDEN
 62
     7
370
     0
100
AcDbLine
 10
230.5264586188
 20
128.4342809238
 30
0.0
 11
238.2786685206
 21
128.4342809238
 31
0.0
  0
SPLINE
  5
15E
330
1F
100
AcDbEntity
  8
0
  6
HIDDEN
 62
     7
370
     0
100
AcDbSpline
210
0.0
220
0.0
230
1.0
 70
     8
 71
     3
 72
    17
 73
    13
 74
     0
 42
0.00000001
 43
0.00000001
 40
0.0
 40
0.0
 40
0.0
 40
0.0
 40
0.0849597177592899
 40
0.2026991271566995
 40
0.3179168793415708
 40
0.4263313499873705
 40
0.5328083261645953
 40
0.6312075178203888
 40
0.7278430291023605
 40
0.831095508479628
 40
0.9419115844628131
 40
1.0
 40
1.0
 40
1.0
 40
1.0
 10
230.5264586188128
 20
131.7751175382101
 30
0.0
 10
230.2291647140198
 20
131.7670509762689
 30
0.0
 10
229.5198731038324
 20
131.7478055608209
 30
0.0
 10
228.4813964554578
 20
131.5651001388591
 30
0.0
 10
227.5994660982809
 20
131.2155936349017
 30
0.0
 10
227.0885068908231
 20
130.7246756363348
 30
0.0
 10
227.00766004129
 20
130.1547531822765
 30
0.0
 10
227.3162753867615
 20
129.5840086578054
 30
0.0
 10
227.930891502703
 20
129.0727631221057
 30
0.0
 10
228.8153314081921
 20
128.665559466657
 30
0.0
 10
229.7332557471902
 20
128.4597511941063
 30
0.0
 10
230.3234747520067
 20
128.4407988704235
 30
0.0
 10
230.5264586188128
 20
128.4342809238397
 30
0.0
  0
LINE
  5
15F
330
1F
100
AcDbEntity
  8
0
  6
HIDDEN
 62
     7
370
     0
100
AcDbLine
 10
230.5264586188
 20
131.7751175382
 30
0.0
 11
238.2786685206
 21
131.7751175382
 31
0.0
  0
LINE
  5
160
330
1F
100
AcDbEntity
  8
0
  6
HIDDEN
 62
     7
370
     0
100
AcDbLine
 10
238.2786685206
 20
132.1023060598
 30
0.0
 11
238.2786685206
 21
131.7751175382
 31
0.0
  0
LINE
  5
161
330
1F
100
AcDbEntity
  8
0
  6
HIDDEN
 62
     7
370
     0
100
AcDbLine
 10
238.2786685206
 20
131.7751175382
 30
0.0
 11
238.5082209088
 21
131.2945550897
 31
0.0
  0
LINE
  5
162
330
1F
100
AcDbEntity
  8
0
  6
HIDDEN
 62
     7
370
     0
100
AcDbLine
 10
238.5082209088
 20
131.2945550897
 30
0.0
 11
239.56282079
 21
129.5910375782
 31
0.0
  0
LINE
  5
163
330
1F
100
AcDbEntity
  8
0
  6
HIDDEN
 62
     7
370
     0
100
AcDbLine
 10
239.56282079
 20
129.5910375782
 30
0.0
 11
239.7571021296
 21
129.1789347895
 31
0.0
  0
SPLINE
  5
164
330
1F
100
AcDbEntity
  8
0
  6
HIDDEN
 62
     7
370
     0
100
AcDbSpline
210
0.0
220
0.0
230
1.0
 70
     8
 71
     3
 72
    10
 73
     6
 74
     0
 42
0.00000001
 43
0.00000001
 40
0.0
 40
0.0
 40
0.0
 40
0.0
 40
0.1222272494911042
 40
0.5602523380264887
 40
1.0
 40
1.0
 40
1.0
 40
1.0
 10
239.7571021296313
 20
129.1789347895347
 30
0.0
 10
239.7691002513515
 20
129.08384545757
 30
0.0
 10
239.8240959726304
 20
128.6479850354757
 30
0.0
 10
239.8621629333104
 20
127.8676446733208
 30
0.0
 10
239.7921681842786
 20
127.1840509596661
 30
0.0
 10
239.7571021296313
 20
126.8415833481514
 30
0.0
  0
LINE
  5
165
330
1F
100
AcDbEntity
  8
0
  6
HIDDEN
 62
     7
370
     0
100
AcDbLine
 10
239.56282079
 20
126.9424390637
 30
0.0
 11
239.7571021296
 21
126.8415833482
 31
0.0
  0
LINE
  5
166
330
1F
100
AcDbEntity
  8
0
  6
HIDDEN
 62
     7
370
     0
100
AcDbLine
 10
238.5082209088
 20
128.3166697838
 30
0.0
 11
239.56282079
 21
126.9424390637
 31
0.0
  0
LINE
  5
167
330
1F
100
AcDbEntity
  8
0
  6
HIDDEN
 62
     7
370
     0
100
AcDbLine
 10
238.2786685206
 20
128.4342809238
 30
0.0
 11
238.5082209088
 21
128.3166697838
 31
0.0
  0
LINE
  5
168
330
1F
100
AcDbEntity
  8
0
  6
HIDDEN
 62
     7
370
     0
100
AcDbLine
 10
238.2786685206
 20
115.2639752843
 30
0.0
 11
238.5082209088
 21
114.9218401995
 31
0.0
  0
LINE
  5
169
330
1F
100
AcDbEntity
  8
0
  6
HIDDEN
 62
     7
370
     0
100
AcDbLine
 10
238.5082209088
 20
114.9218401995
 30
0.0
 11
239.56282079
 21
114.6437312134
 31
0.0
  0
LINE
  5
16A
330
1F
100
AcDbEntity
  8
0
  6
HIDDEN
 62
     7
370
     0
100
AcDbLine
 10
239.56282079
 20
114.6437312134
 30
0.0
 11
239.7571021296
 21
114.3503363135
 31
0.0
  0
SPLINE
  5
16B
330
1F
100
AcDbEntity
  8
0
  6
HIDDEN
 62
     7
370
     0
100
AcDbSpline
210
0.0
220
0.0
230
1.0
 70
     8
 71
     3
 72
     9
 73
     5
 74
     0
 42
0.00000001
 43
0.00000001
 40
0.0
 40
0.0
 40
0.0
 40
0.0
 40
0.5000511795231916
 40
1.0
 40
1.0
 40
1.0
 40
1.0
 10
239.7571021296313
 20
114.3503363135197
 30
0.0
 10
239.797308206263
 20
113.599471426669
 30
0.0
 10
239.8777121294576
 20
112.0978953528626
 30
0.0
 10
239.7973027193632
 20
110.5963198826303
 30
0.0
 10
239.7571021296313
 20
109.8456089974307
 30
0.0
  0
LINE
  5
16C
330
1F
100
AcDbEntity
  8
0
  6
HIDDEN
 62
     7
370
     0
100
AcDbLine
 10
239.56282079
 20
109.5391461284
 30
0.0
 11
239.7571021296
 21
109.8456089974
 31
0.0
  0
LINE
  5
16D
330
1F
100
AcDbEntity
  8
0
  6
HIDDEN
 62
     7
370
     0
100
AcDbLine
 10
238.5082209088
 20
109.1826286291
 30
0.0
 11
239.56282079
 21
109.5391461284
 31
0.0
  0
LINE
  5
16E
330
1F
100
AcDbEntity
  8
0
  6
HIDDEN
 62
     7
370
     0
100
AcDbLine
 10
238.2786685206
 20
108.8252547786
 30
0.0
 11
238.5082209088
 21
109.1826286291
 31
0.0
  0
LINE
  5
16F
330
1F
100
AcDbEntity
  8
0
  6
HIDDEN
 62
     7
370
     0
100
AcDbLine
 10
238.2786685206
 20
95.9821390578
 30
0.0
 11
238.5082209088
 21
96.12056712
 31
0.0
  0
LINE
  5
170
330
1F
100
AcDbEntity
  8
0
  6
HIDDEN
 62
     7
370
     0
100
AcDbLine
 10
238.5082209088
 20
96.12056712
 30
0.0
 11
239.56282079
 21
97.5459749469
 31
0.0
  0
LINE
  5
171
330
1F
100
AcDbEntity
  8
0
  6
HIDDEN
 62
     7
370
     0
100
AcDbLine
 10
239.56282079
 20
97.5459749469
 30
0.0
 11
239.7571021296
 21
97.6646822535
 31
0.0
  0
SPLINE
  5
172
330
1F
100
AcDbEntity
  8
0
  6
HIDDEN
 62
     7
370
     0
100
AcDbSpline
210
0.0
220
0.0
230
1.0
 70
     8
 71
     3
 72
     9
 73
     5
 74
     0
 42
0.00000001
 43
0.00000001
 40
0.0
 40
0.0
 40
0.0
 40
0.0
 40
0.5000512833502081
 40
1.0
 40
1.0
 40
1.0
 40
1.0
 10
239.7571021296313
 20
97.6646822535359
 30
0.0
 10
239.7973082118298
 20
97.30341552852647
 30
0.0
 10
239.8777121294621
 20
96.58095617877933
 30
0.0
 10
239.7973027137987
 20
95.85849897728812
 30
0.0
 10
239.7571021296313
 20
95.49730742656818
 30
0.0
  0
LINE
  5
173
330
1F
100
AcDbEntity
  8
0
  6
HIDDEN
 62
     7
370
     0
100
AcDbLine
 10
239.56282079
 20
95.0899879106
 30
0.0
 11
239.7571021296
 21
95.4973074266
 31
0.0
  0
LINE
  5
174
330
1F
100
AcDbEntity
  8
0
  6
HIDDEN
 62
     7
370
     0
100
AcDbLine
 10
238.5082209088
 20
93.3592403897
 30
0.0
 11
239.56282079
 21
95.0899879106
 31
0.0
  0
LINE
  5
175
330
1F
100
AcDbEntity
  8
0
  6
HIDDEN
 62
     7
370
     0
100
AcDbLine
 10
238.2786685206
 20
92.8842565634
 30
0.0
 11
238.5082209088
 21
93.3592403897
 31
0.0
  0
LINE
  5
176
330
1F
100
AcDbEntity
  8
0
  6
HIDDEN
 62
     7
370
     0
100
AcDbLine
 10
228.6616677024
 20
97.2432811403
 30
0.0
 11
228.6616677024
 21
127.743281483
 31
0.0
  0
LINE
  5
177
330
1F
100
AcDbEntity
  8
0
  6
HIDDEN
 62
     7
370
     0
100
AcDbLine
 10
230.8061683156
 20
96.2432819077
 30
0.0
 11
230.8061683156
 21
128.7432807156
 31
0.0
  0
LINE
  5
178
330
1F
100
AcDbEntity
  8
0
  6
HIDDEN
 62
     7
370
     0
100
AcDbLine
 10
234.8061764218
 20
97.04328148
 30
0.0
 11
234.8061764218
 21
127.9432811432
 31
0.0
  0
SPLINE
  5
179
330
1F
100
AcDbEntity
  8
0
  6
HIDDEN
 62
     7
370
     0
100
AcDbSpline
210
0.0
220
0.0
230
1.0
 70
     8
 71
     3
 72
    37
 73
    33
 74
     0
 42
0.00000001
 43
0.00000001
 40
0.0
 40
0.0
 40
0.0
 40
0.0
 40
0.0719560057076187
 40
0.1443983429663569
 40
0.2902809851309007
 40
0.440343249925863
 40
0.4926990243352601
 40
0.5452389461271864
 40
0.6063818550321313
 40
0.6678188344971686
 40
0.7289623130535129
 40
0.7549407419985954
 40
0.766711634118916
 40
0.7725172115821164
 40
0.7744528516118697
 40
0.7757693241325364
 40
0.7766606872899199
 40
0.7772659266440346
 40
0.7776806777807624
 40
0.7780533517221205
 40
0.7782722752480821
 40
0.7784051335231232
 40
0.7785042973785541
 40
0.7786040822516128
 40
0.7787136770183616
 40
0.7788953572056462
 40
0.779442315420221
 40
0.7819253814431073
 40
0.7917749604423308
 40
0.8311100614697303
 40
0.9151675606860373
 40
1.0
 40
1.0
 40
1.0
 40
1.0
 10
235.9561735369494
 20
116.8200164691471
 30
0.0
 10
235.9570661715219
 20
117.134344977568
 30
0.0
 10
235.9588574737473
 20
117.7651264574002
 30
0.0
 10
235.976486795264
 20
118.9857984448705
 30
0.0
 10
236.0155576177712
 20
120.448678669857
 30
0.0
 10
236.0704368338266
 20
121.6760055088072
 30
0.0
 10
236.1173973012629
 20
122.4784341423473
 30
0.0
 10
236.1502267882004
 20
122.9674258545917
 30
0.0
 10
236.1873728680752
 20
123.4426842794383
 30
0.0
 10
236.2298144148386
 20
123.8930989455692
 30
0.0
 10
236.2679229403272
 20
124.2166156896666
 30
0.0
 10
236.2996953061123
 20
124.4118326613237
 30
0.0
 10
236.3181291710229
 20
124.4938172192943
 30
0.0
 10
236.3292324779758
 20
124.5296255732143
 30
0.0
 10
236.336173939922
 20
124.5459787808587
 30
0.0
 10
236.3400332328409
 20
124.5533769704168
 30
0.0
 10
236.3432429075842
 20
124.5583325841109
 30
0.0
 10
236.3458693213453
 20
124.561644786578
 30
0.0
 10
236.3482679636836
 20
124.5639857327402
 30
0.0
 10
236.3504216816272
 20
124.5656038422312
 30
0.0
 10
236.3524950787022
 20
124.5666420704074
 30
0.0
 10
236.354169472679
 20
124.5671377753882
 30
0.0
 10
236.3556321450861
 20
124.5673382814583
 30
0.0
 10
236.357082524177
 20
124.5673122344921
 30
0.0
 10
236.3587428578463
 20
124.567012125767
 30
0.0
 10
236.3615654638544
 20
124.5659495784907
 30
0.0
 10
236.3683160721523
 20
124.5606887316767
 30
0.0
 10
236.381157639758
 20
124.5377318720606
 30
0.0
 10
236.4091078546795
 20
124.4430608309292
 30
0.0
 10
236.4494916381856
 20
124.1815869662219
 30
0.0
 10
236.5021158697544
 20
123.7187224796815
 30
0.0
 10
236.5380961205462
 20
123.2643560301031
 30
0.0
 10
236.5561687924197
 20
123.036130390402
 30
0.0
  0
LINE
  5
17A
330
1F
100
AcDbEntity
  8
0
  6
HIDDEN
 62
     7
370
     0
100
AcDbLine
 10
235.9561735369
 20
99.8032810756
 30
0.0
 11
235.9561735369
 21
116.8200164691
 31
0.0
  0
SPLINE
  5
17B
330
1F
100
AcDbEntity
  8
0
  6
HIDDEN
 62
     7
370
     0
100
AcDbSpline
210
0.0
220
0.0
230
1.0
 70
     8
 71
     3
 72
    34
 73
    30
 74
     0
 42
0.00000001
 43
0.00000001
 40
0.0
 40
0.0
 40
0.0
 40
0.0
 40
0.0578953162895314
 40
0.1244591771719242
 40
0.1914073417695946
 40
0.2065709877199913
 40
0.2139491594315505
 40
0.2176363452299633
 40
0.218890744363013
 40
0.2197398548044452
 40
0.2203172669368516
 40
0.22071330340486
 40
0.2210843126027169
 40
0.2212710570337376
 40
0.2214088574575543
 40
0.2215046467943353
 40
0.2216013703890657
 40
0.2217143267488652
 40
0.2219041366796802
 40
0.222493665327603
 40
0.2252006730398712
 40
0.2359423718354756
 40
0.2788487626244668
 40
0.3598224509011283
 40
0.4414871562281974
 40
0.5885392537017937
 40
0.739858932255823
 40
0.8685081010981529
 40
1.0
 40
1.0
 40
1.0
 40
1.0
 10
236.5561687924197
 20
110.5608351652437
 30
0.0
 10
236.5439280400479
 20
110.8227706537336
 30
0.0
 10
236.5176137530588
 20
111.3858606834442
 30
0.0
 10
236.4721024043852
 20
112.2610501790051
 30
0.0
 10
236.4336450501127
 20
112.9420002555983
 30
0.0
 10
236.3995364161308
 20
113.3502780972475
 30
0.0
 10
236.3859973794493
 20
113.4695062323301
 30
0.0
 10
236.3773942484049
 20
113.5252109244283
 30
0.0
 10
236.3718564925504
 20
113.5511086774224
 30
0.0
 10
236.3687586029733
 20
113.5629714156639
 30
0.0
 10
236.3661665053206
 20
113.5709007868434
 30
0.0
 10
236.3637951384235
 20
113.5765740683924
 30
0.0
 10
236.3616916124924
 20
113.580425009207
 30
0.0
 10
236.3596290558219
 20
113.5828720995537
 30
0.0
 10
236.3580502713711
 20
113.5840245187666
 30
0.0
 10
236.3565733674301
 20
113.584469776824
 30
0.0
 10
236.3551446966687
 20
113.5843549959065
 30
0.0
 10
236.3534635863606
 20
113.583549280369
 30
0.0
 10
236.3505329160341
 20
113.5806182311331
 30
0.0
 10
236.3434499688094
 20
113.56609578982
 30
0.0
 10
236.3300518670183
 20
113.5030332039686
 30
0.0
 10
236.3006759483568
 20
113.2470437760857
 30
0.0
 10
236.2609701716851
 20
112.6311263117053
 30
0.0
 10
236.209407772011
 20
111.6898065209654
 30
0.0
 10
236.1421482598832
 20
110.2818523103309
 30
0.0
 10
236.0697937996647
 20
108.5892564757536
 30
0.0
 10
236.0070674966941
 20
106.8017625472702
 30
0.0
 10
235.9649971032771
 20
105.2115249985714
 30
0.0
 10
235.9591360748109
 20
104.3470619983744
 30
0.0
 10
235.9561735369494
 20
103.9101072245204
 30
0.0
  0
LINE
  5
17C
330
1F
100
AcDbEntity
  8
0
  6
HIDDEN
 62
     7
370
     0
100
AcDbLine
 10
236.5561687924
 20
119.3352221169
 30
0.0
 11
236.5561687924
 21
110.5608351652
 31
0.0
  0
LINE
  5
17D
330
1F
100
AcDbEntity
  8
0
  6
HIDDEN
 62
     7
370
     0
100
AcDbLine
 10
241.0359644868
 20
102.0432813683
 30
0.0
 11
241.0359644868
 21
122.943281255
 31
0.0
  0
LINE
  5
17E
330
1F
100
AcDbEntity
  8
0
  6
HIDDEN
 62
     7
370
     0
100
AcDbLine
 10
236.5561687924
 20
125.5546324545
 30
0.0
 11
236.5561687924
 21
123.0361303904
 31
0.0
  0
LINE
  5
17F
330
1F
100
AcDbEntity
  8
0
  6
HIDDEN
 62
     7
370
     0
100
AcDbLine
 10
236.497800944
 20
125.546160213
 30
0.0
 11
236.2141275384
 21
125.5521504798
 31
0.0
  0
LINE
  5
180
330
1F
100
AcDbEntity
  8
0
  6
HIDDEN
 62
     7
370
     0
100
AcDbLine
 10
236.2109386899
 20
125.5544974127
 30
0.0
 11
236.2014764525
 21
125.5444801071
 31
0.0
  0
SPLINE
  5
181
330
1F
100
AcDbEntity
  8
0
  6
HIDDEN
 62
     7
370
     0
100
AcDbSpline
210
0.0
220
0.0
230
1.0
 70
     8
 71
     3
 72
    13
 73
     9
 74
     0
 42
0.00000001
 43
0.00000001
 40
0.0
 40
0.0
 40
0.0
 40
0.0
 40
0.1846796458526641
 40
0.3706412531124991
 40
0.5606499934598779
 40
0.752059201602674
 40
0.8758368510056426
 40
1.0
 40
1.0
 40
1.0
 40
1.0
 10
236.1571305968097
 20
125.4975405179822
 30
0.0
 10
236.1422852561593
 20
125.457051317848
 30
0.0
 10
236.1124915253119
 20
125.3757918601209
 30
0.0
 10
236.0727589381915
 20
125.1468281019716
 30
0.0
 10
236.0369466389897
 20
124.8374504772658
 30
0.0
 10
236.0100281200598
 20
124.4854039181931
 30
0.0
 10
235.9902629731524
 20
124.131083621302
 30
0.0
 10
235.9815681483399
 20
123.903232520236
 30
0.0
 10
235.9772139765551
 20
123.7891298376881
 30
0.0
  0
ARC
  5
182
330
1F
100
AcDbEntity
  8
0
  6
HIDDEN
 62
     7
370
     0
100
AcDbCircle
 10
230.3141427196
 20
92.8313738732
 30
0.0
 40
3.844386283321892
100
AcDbArc
 50
86.8340857316
 51
125.4906640432
  0
ARC
  5
183
330
1F
100
AcDbEntity
  8
0
  6
HIDDEN
 62
     7
370
     0
100
AcDbCircle
 10
230.1531319291
 20
132.2820461633
 30
0.0
 40
3.43638981042573
100
AcDbArc
 50
229.2768555781
 51
276.2368781947
  0
LWPOLYLINE
  5
184
330
1F
100
AcDbEntity
  8
0
  6
HIDDEN
 62
     7
370
     0
100
AcDbPolyline
 90
        8
 70
   128
 43
0.0
 10
230.5264586188
 20
98.0441235595
 10
229.7375613429
 20
97.9793072336
 10
229.0258967854
 20
97.7912052193
 10
228.4611129739
 20
97.4982279011
 10
228.0985081174
 20
97.1290553578
 10
227.9735618808
 20
96.7198247679
 10
228.0985081174
 20
96.3105923154
 10
228.313680885
 20
96.0593904027
  0
LINE
  5
185
330
1F
100
AcDbEntity
  8
0
  6
HIDDEN
 62
     7
370
     0
100
AcDbLine
 10
230.5264586188
 20
96.6698928394
 30
0.0
 11
238.5082209088
 21
96.6698928394
 31
0.0
  0
LWPOLYLINE
  5
186
330
1F
100
AcDbEntity
  8
0
  6
HIDDEN
 62
     7
370
     0
100
AcDbPolyline
 90
        8
 70
   128
 43
0.0
 10
230.5264586188
 20
127.4405876764
 10
229.7375613429
 20
127.5006905788
 10
229.0258967854
 20
127.6751133271
 10
228.4611129739
 20
127.9467847788
 10
228.0985081174
 20
128.2891100862
 10
227.9735618808
 20
128.6685811945
 10
228.0985081174
 20
129.0480523028
 10
228.4587585904
 20
129.3888157823
  0
LINE
  5
187
330
1F
100
AcDbEntity
  8
0
  6
HIDDEN
 62
     7
370
     0
100
AcDbLine
 10
230.5264586188
 20
128.8659955033
 30
0.0
 11
238.5082209088
 21
128.8659955033
 31
0.0
  0
LWPOLYLINE
  5
188
330
1F
100
AcDbEntity
  8
0
  6
HIDDEN
 62
     7
370
     0
100
AcDbPolyline
 90
        9
 70
   128
 43
0.0
 10
230.5264586188
 20
98.1449792751
 10
229.8302763678
 20
98.0877802365
 10
229.202237127
 20
97.9217822322
 10
228.7038230874
 20
97.6632340469
 10
228.3838206507
 20
97.3374443718
 10
228.2735520579
 20
96.9763035544
 10
228.3838206507
 20
96.615162737
 10
228.7038230874
 20
96.2893730619
 10
228.7786269166
 20
96.2389102795
  0
LINE
  5
189
330
1F
100
AcDbEntity
  8
0
  6
HIDDEN
 62
     7
370
     0
100
AcDbLine
 10
230.5264586188
 20
98.0441235595
 30
0.0
 11
239.56282079
 21
98.0441235595
 31
0.0
  0
LINE
  5
18A
330
1F
100
AcDbEntity
  8
0
  6
HIDDEN
 62
     7
370
     0
100
AcDbLine
 10
230.5264586188
 20
98.1449792751
 30
0.0
 11
239.7571021296
 21
98.1449792751
 31
0.0
  0
LWPOLYLINE
  5
18B
330
1F
100
AcDbEntity
  8
0
  6
HIDDEN
 62
     7
370
     0
100
AcDbPolyline
 90
        9
 70
   128
 43
0.0
 10
230.5264586188
 20
127.3218803697
 10
229.8302763678
 20
127.3749201217
 10
229.202237127
 20
127.5288463228
 10
228.7038230874
 20
127.7685929679
 10
228.3838206507
 20
128.0706897967
 10
228.2735520579
 20
128.4055682489
 10
228.3838206507
 20
128.7404457697
 10
228.7038230874
 20
129.0425444611
 10
229.0567421891
 20
129.2268979021
  0
LINE
  5
18C
330
1F
100
AcDbEntity
  8
0
  6
HIDDEN
 62
     7
370
     0
100
AcDbLine
 10
230.5264586188
 20
127.4405876764
 30
0.0
 11
239.56282079
 21
127.4405876764
 31
0.0
  0
LINE
  5
18D
330
1F
100
AcDbEntity
  8
0
  6
HIDDEN
 62
     7
370
     0
100
AcDbLine
 10
230.5264586188
 20
127.3218803697
 30
0.0
 11
239.7571021296
 21
127.3218803697
 31
0.0
  0
SPLINE
  5
18E
330
1F
100
AcDbEntity
  8
0
  6
HIDDEN
 62
     7
370
     0
100
AcDbSpline
210
0.0
220
0.0
230
1.0
 70
     8
 71
     3
 72
    40
 73
    36
 74
     0
 42
0.00000001
 43
0.00000001
 40
0.0
 40
0.0
 40
0.0
 40
0.0
 40
0.0693985928937134
 40
0.1145754864595733
 40
0.1598358090898474
 40
0.2101261288052843
 40
0.2605313461443939
 40
0.3175080920258251
 40
0.3746517001505367
 40
0.4236418167312762
 40
0.4727377175629086
 40
0.5469256611330834
 40
0.6214831445515914
 40
0.6626275787123632
 40
0.7038381646597156
 40
0.7198829921043389
 40
0.727746878254972
 40
0.7316848723687036
 40
0.7330303028172326
 40
0.7339419221697442
 40
0.7345627281550682
 40
0.7349893992323616
 40
0.7354167800983424
 40
0.7355920237747963
 40
0.7357682663214473
 40
0.7358765551029514
 40
0.7359860062641848
 40
0.7361389419053109
 40
0.7364275095060346
 40
0.7376970472844705
 40
0.7427076634322761
 40
0.7626651057707287
 40
0.8424688443828433
 40
0.9210146806085737
 40
1.0
 40
1.0
 40
1.0
 40
1.0
 10
235.9772139765551
 20
123.0836390175783
 30
0.0
 10
235.9824102911226
 20
122.9410611822312
 30
0.0
 10
235.9909892873894
 20
122.7056684435302
 30
0.0
 10
236.0062913575684
 20
122.3409567605692
 30
0.0
 10
236.0212680934042
 20
122.0031702846129
 30
0.0
 10
236.0384753630876
 20
121.6329171700476
 30
0.0
 10
236.0588157251566
 20
121.2118819279149
 30
0.0
 10
236.0818733043255
 20
120.7499560711366
 30
0.0
 10
236.106526902398
 20
120.2696172981037
 30
0.0
 10
236.131512017852
 20
119.7939325463407
 30
0.0
 10
236.1607487885358
 20
119.2481286090656
 30
0.0
 10
236.1965808199831
 20
118.5970804272254
 30
0.0
 10
236.23395754285
 20
117.9473399781228
 30
0.0
 10
236.2687301771953
 20
117.3968143714317
 30
0.0
 10
236.2935079718968
 20
117.0460036218595
 30
0.0
 10
236.315388477012
 20
116.8118723804331
 30
0.0
 10
236.3280216328561
 20
116.7116617003236
 30
0.0
 10
236.336161102368
 20
116.6645261870367
 30
0.0
 10
236.3413725026362
 20
116.6425529805276
 30
0.0
 10
236.3443412066235
 20
116.6324729041131
 30
0.0
 10
236.3468130536829
 20
116.6257340323912
 30
0.0
 10
236.3491032602723
 20
116.6208314600658
 30
0.0
 10
236.3511337856603
 20
116.6175729645928
 30
0.0
 10
236.353217330313
 20
116.6155263690951
 30
0.0
 10
236.3547626027331
 20
116.6146257882486
 30
0.0
 10
236.35629184651
 20
116.6144136514076
 30
0.0
 10
236.3577119131468
 20
116.6147023379427
 30
0.0
 10
236.3595340915837
 20
116.6157915153394
 30
0.0
 10
236.363766002407
 20
116.6206562941178
 30
0.0
 10
236.3722362485194
 20
116.643578184713
 30
0.0
 10
236.3896781223603
 20
116.7372328577244
 30
0.0
 10
236.4264164675772
 20
117.1155309708552
 30
0.0
 10
236.4661949551075
 20
117.7475095532399
 30
0.0
 10
236.5141482076818
 20
118.5640931029599
 30
0.0
 10
236.5421359039859
 20
119.0777014877388
 30
0.0
 10
236.5561687924197
 20
119.3352221169435
 30
0.0
  0
SPLINE
  5
18F
330
1F
100
AcDbEntity
  8
0
  6
HIDDEN
 62
     7
370
     0
100
AcDbSpline
210
0.0
220
0.0
230
1.0
 70
     8
 71
     3
 72
     9
 73
     5
 74
     0
 42
0.00000001
 43
0.00000001
 40
0.0
 40
0.0
 40
0.0
 40
0.0
 40
0.5000001776045093
 40
1.0
 40
1.0
 40
1.0
 40
1.0
 10
235.9772139765551
 20
123.7891298376881
 30
0.0
 10
235.974405107005
 20
123.6715478223889
 30
0.0
 10
235.9687873699
 20
123.4363838753227
 30
0.0
 10
235.9744051083353
 20
123.2012206089824
 30
0.0
 10
235.9772139765551
 20
123.0836390175783
 30
0.0
  0
LWPOLYLINE
  5
190
330
1F
100
AcDbEntity
  8
0
  6
HIDDEN
 62
     7
370
     0
100
AcDbPolyline
 90
       12
 70
   128
 43
0.0
 10
230.5264586188
 20
96.12056712
 10
229.7178024031
 20
96.0646393367
 10
228.9746665932
 20
95.9013915279
 10
228.3572369792
 20
95.6440447488
 10
227.9155516602
 20
95.3134513118
 10
227.6853883244
 20
94.936392329
 10
227.6853883244
 20
94.5434151807
 10
227.9155516602
 20
94.1663561978
 10
228.3572369792
 20
93.8357608982
 10
228.9746665932
 20
93.5784159818
 10
229.7178024031
 20
93.4151663103
 10
230.5264586188
 20
93.3592403897
  0
LWPOLYLINE
  5
191
330
1F
100
AcDbEntity
  8
0
  6
HIDDEN
 62
     7
370
     0
100
AcDbPolyline
 90
       11
 70
   128
 43
0.0
 10
230.5264586188
 20
97.5459749469
 10
229.7375613429
 20
97.4858720445
 10
229.0258967854
 20
97.3114492961
 10
228.4611129739
 20
97.0397778445
 10
228.0985081174
 20
96.6974525371
 10
227.9735618808
 20
96.3179814287
 10
228.0985081174
 20
95.9385103204
 10
228.4611129739
 20
95.5961859443
 10
229.0258967854
 20
95.3245135614
 10
229.7375613429
 20
95.1500898817
 10
230.5264586188
 20
95.0899879106
  0
LWPOLYLINE
  5
192
330
1F
100
AcDbEntity
  8
0
  6
HIDDEN
 62
     7
370
     0
100
AcDbPolyline
 90
       11
 70
   128
 43
0.0
 10
230.5264586188
 20
97.6646822535
 10
229.8302763678
 20
97.6116425016
 10
229.202237127
 20
97.4577163004
 10
228.7038230874
 20
97.2179696553
 10
228.3838206507
 20
96.9158728265
 10
228.2735520579
 20
96.5809943744
 10
228.3838206507
 20
96.2461168536
 10
228.7038230874
 20
95.9440181621
 10
229.202237127
 20
95.7042733797
 10
229.8302763678
 20
95.5503462472
 10
230.5264586188
 20
95.4973074266
  0
LINE
  5
193
330
1F
100
AcDbEntity
  8
0
  6
HIDDEN
 62
     7
370
     0
100
AcDbLine
 10
230.5264586188
 20
95.0899879106
 30
0.0
 11
239.56282079
 21
95.0899879106
 31
0.0
  0
LINE
  5
194
330
1F
100
AcDbEntity
  8
0
  6
HIDDEN
 62
     7
370
     0
100
AcDbLine
 10
230.5264586188
 20
95.4973074266
 30
0.0
 11
239.7571021296
 21
95.4973074266
 31
0.0
  0
LINE
  5
195
330
1F
100
AcDbEntity
  8
0
  6
HIDDEN
 62
     7
370
     0
100
AcDbLine
 10
230.5264586188
 20
93.3592403897
 30
0.0
 11
238.5082209088
 21
93.3592403897
 31
0.0
  0
LWPOLYLINE
  5
196
330
1F
100
AcDbEntity
  8
0
  6
HIDDEN
 62
     7
370
     0
100
AcDbPolyline
 90
       12
 70
   128
 43
0.0
 10
230.5264586188
 20
131.2945550897
 10
229.7178024031
 20
131.2342426398
 10
228.9746665932
 20
131.0581910082
 10
228.3572369792
 20
130.7806624689
 10
227.9155516602
 20
130.4241410115
 10
227.6853883244
 20
130.0175106742
 10
227.6853883244
 20
129.5937141993
 10
227.9155516602
 20
129.1870838621
 10
228.3572369792
 20
128.8305624046
 10
228.9746665932
 20
128.5530338653
 10
229.7178024031
 20
128.3769822338
 10
230.5264586188
 20
128.3166697838
  0
LWPOLYLINE
  5
197
330
1F
100
AcDbEntity
  8
0
  6
HIDDEN
 62
     7
370
     0
100
AcDbPolyline
 90
       11
 70
   128
 43
0.0
 10
230.5264586188
 20
129.5910375782
 10
229.7375613429
 20
129.5262212523
 10
229.0258967854
 20
129.3381183066
 10
228.4611129739
 20
129.0451428511
 10
228.0985081174
 20
128.6759703078
 10
227.9735618808
 20
128.2667378553
 10
228.0985081174
 20
127.8575072654
 10
228.4611129739
 20
127.4883347222
 10
229.0258967854
 20
127.195357404
 10
229.7375613429
 20
127.0072553896
 10
230.5264586188
 20
126.9424390637
  0
LINE
  5
198
330
1F
100
AcDbEntity
  8
0
  6
HIDDEN
 62
     7
370
     0
100
AcDbLine
 10
230.5264586188
 20
129.5910375782
 30
0.0
 11
239.56282079
 21
129.5910375782
 31
0.0
  0
LWPOLYLINE
  5
199
330
1F
100
AcDbEntity
  8
0
  6
HIDDEN
 62
     7
370
     0
100
AcDbPolyline
 90
       11
 70
   128
 43
0.0
 10
230.5264586188
 20
129.1789347895
 10
229.8302763678
 20
129.1217366823
 10
229.202237127
 20
128.9557377466
 10
228.7038230874
 20
128.6971895614
 10
228.3838206507
 20
128.3713998862
 10
228.2735520579
 20
128.0102590688
 10
228.3838206507
 20
127.6491182514
 10
228.7038230874
 20
127.3233285763
 10
229.202237127
 20
127.0647803911
 10
229.8302763678
 20
126.8987823867
 10
230.5264586188
 20
126.8415833482
  0
LINE
  5
19A
330
1F
100
AcDbEntity
  8
0
  6
HIDDEN
 62
     7
370
     0
100
AcDbLine
 10
230.5264586188
 20
129.1789347895
 30
0.0
 11
239.7571021296
 21
129.1789347895
 31
0.0
  0
LINE
  5
19B
330
1F
100
AcDbEntity
  8
0
  6
HIDDEN
 62
     7
370
     0
100
AcDbLine
 10
230.5264586188
 20
131.2945550897
 30
0.0
 11
238.5082209088
 21
131.2945550897
 31
0.0
  0
LINE
  5
19C
330
1F
100
AcDbEntity
  8
0
  6
HIDDEN
 62
     7
370
     0
100
AcDbLine
 10
230.5264586188
 20
97.5459749469
 30
0.0
 11
239.56282079
 21
97.5459749469
 31
0.0
  0
LINE
  5
19D
330
1F
100
AcDbEntity
  8
0
  6
HIDDEN
 62
     7
370
     0
100
AcDbLine
 10
230.5264586188
 20
97.6646822535
 30
0.0
 11
239.7571021296
 21
97.6646822535
 31
0.0
  0
LINE
  5
19E
330
1F
100
AcDbEntity
  8
0
  6
HIDDEN
 62
     7
370
     0
100
AcDbLine
 10
230.5264586188
 20
96.12056712
 30
0.0
 11
238.5082209088
 21
96.12056712
 31
0.0
  0
LINE
  5
19F
330
1F
100
AcDbEntity
  8
0
  6
HIDDEN
 62
     7
370
     0
100
AcDbLine
 10
230.5264586188
 20
126.9424390637
 30
0.0
 11
239.56282079
 21
126.9424390637
 31
0.0
  0
LINE
  5
1A0
330
1F
100
AcDbEntity
  8
0
  6
HIDDEN
 62
     7
370
     0
100
AcDbLine
 10
230.5264586188
 20
126.8415833482
 30
0.0
 11
239.7571021296
 21
126.8415833482
 31
0.0
  0
LINE
  5
1A1
330
1F
100
AcDbEntity
  8
0
  6
HIDDEN
 62
     7
370
     0
100
AcDbLine
 10
230.5264586188
 20
128.3166697838
 30
0.0
 11
238.5082209088
 21
128.3166697838
 31
0.0
  0
ARC
  5
1A2
330
1F
100
AcDbEntity
  8
0
  6
HIDDEN
 62
     7
370
     0
100
AcDbCircle
 10
230.5260674545
 20
112.0979726555
 30
0.0
 40
2.252363692010916
100
AcDbArc
 50
89.9900495364
 51
270.0099504636
  0
ARC
  5
1A3
330
1F
100
AcDbEntity
  8
0
  6
HIDDEN
 62
     7
370
     0
100
AcDbCircle
 10
230.5260160077
 20
112.0914386709
 30
0.0
 40
2.552292580910244
100
AcDbArc
 50
89.9900639341
 51
270.0099360659
  0
ARC
  5
1A4
330
1F
100
AcDbEntity
  8
0
  6
HIDDEN
 62
     7
370
     0
100
AcDbCircle
 10
230.5259396534
 20
112.0522344143
 30
0.0
 40
2.869605832162958
100
AcDbArc
 50
89.9896381141
 51
270.0103618859
  0
LINE
  5
1A5
330
1F
100
AcDbEntity
  8
0
  6
HIDDEN
 62
     7
370
     0
100
AcDbLine
 10
230.5264586188
 20
109.8456089974
 30
0.0
 11
239.7571021296
 21
109.8456089974
 31
0.0
  0
LINE
  5
1A6
330
1F
100
AcDbEntity
  8
0
  6
HIDDEN
 62
     7
370
     0
100
AcDbLine
 10
230.5264586188
 20
114.3503363135
 30
0.0
 11
239.7571021296
 21
114.3503363135
 31
0.0
  0
LINE
  5
1A7
330
1F
100
AcDbEntity
  8
0
  6
HIDDEN
 62
     7
370
     0
100
AcDbLine
 10
230.5264586188
 20
109.5391461284
 30
0.0
 11
239.56282079
 21
109.5391461284
 31
0.0
  0
LINE
  5
1A8
330
1F
100
AcDbEntity
  8
0
  6
HIDDEN
 62
     7
370
     0
100
AcDbLine
 10
230.5264586188
 20
114.6437312134
 30
0.0
 11
239.56282079
 21
114.6437312134
 31
0.0
  0
LINE
  5
1A9
330
1F
100
AcDbEntity
  8
0
  6
HIDDEN
 62
     7
370
     0
100
AcDbLine
 10
230.5264586188
 20
109.1826286291
 30
0.0
 11
238.5082209088
 21
109.1826286291
 31
0.0
  0
LINE
  5
1AA
330
1F
100
AcDbEntity
  8
0
  6
HIDDEN
 62
     7
370
     0
100
AcDbLine
 10
230.5264586188
 20
114.9218401995
 30
0.0
 11
238.5082209088
 21
114.9218401995
 31
0.0
  0
LINE
  5
1AB
330
1F
100
AcDbEntity
  8
0
  6
HIDDEN
 62
     7
370
     0
100
AcDbLine
 10
198.5240915396
 20
110.7173737262
 30
0.0
 11
198.5240915396
 21
118.4932813638
 31
0.0
  0
LINE
  5
1AC
330
1F
100
AcDbEntity
  8
0
  6
HIDDEN
 62
     7
370
     0
100
AcDbLine
 10
198.5240915396
 20
106.4932812595
 30
0.0
 11
198.5240915396
 21
110.7173737262
 31
0.0
  0
LINE
  5
1AD
330
1F
100
AcDbEntity
  8
0
  6
HIDDEN
 62
     7
370
     0
100
AcDbLine
 10
183.5240909435
 20
110.7173737262
 30
0.0
 11
183.5240909435
 21
118.4932813638
 31
0.0
  0
LINE
  5
1AE
330
1F
100
AcDbEntity
  8
0
  6
HIDDEN
 62
     7
370
     0
100
AcDbLine
 10
183.5240909435
 20
106.4932812595
 30
0.0
 11
183.5240909435
 21
110.7173737262
 31
0.0
  0
LINE
  5
1AF
330
1F
100
AcDbEntity
  8
0
  6
HIDDEN
 62
     7
370
     0
100
AcDbLine
 10
199.0240925528
 20
110.8653660056
 30
0.0
 11
199.0240925528
 21
117.9932812818
 31
0.0
  0
LINE
  5
1B0
330
1F
100
AcDbEntity
  8
0
  6
HIDDEN
 62
     7
370
     0
100
AcDbLine
 10
199.0240925528
 20
106.9932813414
 30
0.0
 11
199.0240925528
 21
110.8653660056
 31
0.0
  0
LINE
  5
1B1
330
1F
100
AcDbEntity
  8
0
  6
HIDDEN
 62
     7
370
     0
100
AcDbLine
 10
183.0240899302
 20
110.8653660056
 30
0.0
 11
183.0240899302
 21
117.9932812818
 31
0.0
  0
LINE
  5
1B2
330
1F
100
AcDbEntity
  8
0
  6
HIDDEN
 62
     7
370
     0
100
AcDbLine
 10
183.0240899302
 20
106.9932813414
 30
0.0
 11
183.0240899302
 21
110.8653660056
 31
0.0
  0
LINE
  5
1B3
330
1F
100
AcDbEntity
  8
0
  6
HIDDEN
 62
     7
370
     0
100
AcDbLine
 10
203.0240932085
 20
117.1037089669
 30
0.0
 11
201.0240891554
 21
117.1037089669
 31
0.0
  0
LINE
  5
1B4
330
1F
100
AcDbEntity
  8
0
  6
HIDDEN
 62
     7
370
     0
100
AcDbLine
 10
203.0240932085
 20
106.9932813414
 30
0.0
 11
203.0240932085
 21
117.1037089669
 31
0.0
  0
LINE
  5
1B5
330
1F
100
AcDbEntity
  8
0
  6
HIDDEN
 62
     7
370
     0
100
AcDbLine
 10
201.0240891554
 20
106.9948995144
 30
0.0
 11
203.0240932085
 21
106.9948995144
 31
0.0
  0
LINE
  5
1B6
330
1F
100
AcDbEntity
  8
0
  6
HIDDEN
 62
     7
370
     0
100
AcDbLine
 10
203.0240932085
 20
107.8828536563
 30
0.0
 11
201.0240891554
 21
107.8828536563
 31
0.0
  0
LINE
  5
1B7
330
1F
100
AcDbEntity
  8
0
  6
HIDDEN
 62
     7
370
     0
100
AcDbLine
 10
203.0240932085
 20
117.9916631089
 30
0.0
 11
203.0240932085
 21
117.9932812818
 31
0.0
  0
LINE
  5
1B8
330
1F
100
AcDbEntity
  8
0
  6
HIDDEN
 62
     7
370
     0
100
AcDbLine
 10
201.0240891554
 20
117.9916631089
 30
0.0
 11
203.0240932085
 21
117.9916631089
 31
0.0
  0
LINE
  5
1B9
330
1F
100
AcDbEntity
  8
0
  6
HIDDEN
 62
     7
370
     0
100
AcDbLine
 10
201.0240891554
 20
117.1037089669
 30
0.0
 11
201.0240891554
 21
117.9916631089
 31
0.0
  0
LINE
  5
1BA
330
1F
100
AcDbEntity
  8
0
  6
HIDDEN
 62
     7
370
     0
100
AcDbLine
 10
190.024089215
 20
113.2597698605
 30
0.0
 11
190.024089215
 21
114.5309678403
 31
0.0
  0
LINE
  5
1BB
330
1F
100
AcDbEntity
  8
0
  6
HIDDEN
 62
     7
370
     0
100
AcDbLine
 10
196.0240939237
 20
114.5309678403
 30
0.0
 11
196.0240939237
 21
113.2597698605
 31
0.0
  0
LINE
  5
1BC
330
1F
100
AcDbEntity
  8
0
  6
HIDDEN
 62
     7
370
     0
100
AcDbLine
 10
190.024089215
 20
111.6053275189
 30
0.0
 11
190.024089215
 21
113.2597698605
 31
0.0
  0
LINE
  5
1BD
330
1F
100
AcDbEntity
  8
0
  6
HIDDEN
 62
     7
370
     0
100
AcDbLine
 10
190.024089215
 20
113.2597698605
 30
0.0
 11
183.0240899302
 21
113.2597698605
 31
0.0
  0
LINE
  5
1BE
330
1F
100
AcDbEntity
  8
0
  6
HIDDEN
 62
     7
370
     0
100
AcDbLine
 10
196.0240939237
 20
113.2597698605
 30
0.0
 11
196.0240939237
 21
111.6053275189
 31
0.0
  0
LINE
  5
1BF
330
1F
100
AcDbEntity
  8
0
  6
HIDDEN
 62
     7
370
     0
100
AcDbLine
 10
196.0240939237
 20
113.2597698605
 30
0.0
 11
203.0240932085
 21
113.2597698605
 31
0.0
  0
LINE
  5
1C0
330
1F
100
AcDbEntity
  8
0
  6
HIDDEN
 62
     7
370
     0
100
AcDbLine
 10
201.0240891554
 20
114.5309678403
 30
0.0
 11
201.0240891554
 21
117.1037089669
 31
0.0
  0
LINE
  5
1C1
330
1F
100
AcDbEntity
  8
0
  6
HIDDEN
 62
     7
370
     0
100
AcDbLine
 10
201.0240891554
 20
114.5309678403
 30
0.0
 11
203.0240932085
 21
114.5309678403
 31
0.0
  0
LINE
  5
1C2
330
1F
100
AcDbEntity
  8
0
  6
HIDDEN
 62
     7
370
     0
100
AcDbLine
 10
190.024089215
 20
109.9508852356
 30
0.0
 11
190.024089215
 21
111.6053275189
 31
0.0
  0
LINE
  5
1C3
330
1F
100
AcDbEntity
  8
0
  6
HIDDEN
 62
     7
370
     0
100
AcDbLine
 10
196.0240939237
 20
111.6053275189
 30
0.0
 11
196.0240939237
 21
109.9508852356
 31
0.0
  0
LINE
  5
1C4
330
1F
100
AcDbEntity
  8
0
  6
HIDDEN
 62
     7
370
     0
100
AcDbLine
 10
196.0240939237
 20
115.8021658783
 30
0.0
 11
196.0240939237
 21
114.5309678403
 31
0.0
  0
LINE
  5
1C5
330
1F
100
AcDbEntity
  8
0
  6
HIDDEN
 62
     7
370
     0
100
AcDbLine
 10
190.024089215
 20
114.5309678403
 30
0.0
 11
190.024089215
 21
115.8021658783
 31
0.0
  0
LINE
  5
1C6
330
1F
100
AcDbEntity
  8
0
  6
HIDDEN
 62
     7
370
     0
100
AcDbLine
 10
190.024089215
 20
109.5676408739
 30
0.0
 11
190.024089215
 21
109.9508852356
 31
0.0
  0
LINE
  5
1C7
330
1F
100
AcDbEntity
  8
0
  6
HIDDEN
 62
     7
370
     0
100
AcDbLine
 10
190.024089215
 20
109.9508852356
 30
0.0
 11
183.0240899302
 21
109.9508852356
 31
0.0
  0
LINE
  5
1C8
330
1F
100
AcDbEntity
  8
0
  6
HIDDEN
 62
     7
370
     0
100
AcDbLine
 10
196.0240939237
 20
109.9508852356
 30
0.0
 11
196.0240939237
 21
109.5676408739
 31
0.0
  0
LINE
  5
1C9
330
1F
100
AcDbEntity
  8
0
  6
HIDDEN
 62
     7
370
     0
100
AcDbLine
 10
196.0240939237
 20
109.9508852356
 30
0.0
 11
203.0240932085
 21
109.9508852356
 31
0.0
  0
LINE
  5
1CA
330
1F
100
AcDbEntity
  8
0
  6
HIDDEN
 62
     7
370
     0
100
AcDbLine
 10
196.0240939237
 20
115.0356773877
 30
0.0
 11
203.0240932085
 21
115.0356773877
 31
0.0
  0
LINE
  5
1CB
330
1F
100
AcDbEntity
  8
0
  6
HIDDEN
 62
     7
370
     0
100
AcDbLine
 10
203.0240932085
 20
115.4189217494
 30
0.0
 11
201.0240891554
 21
115.4189217494
 31
0.0
  0
LINE
  5
1CC
330
1F
100
AcDbEntity
  8
0
  6
HIDDEN
 62
     7
370
     0
100
AcDbLine
 10
196.0240939237
 20
115.8021658783
 30
0.0
 11
201.0240891554
 21
115.8021658783
 31
0.0
  0
LINE
  5
1CD
330
1F
100
AcDbEntity
  8
0
  6
HIDDEN
 62
     7
370
     0
100
AcDbLine
 10
190.024089215
 20
115.0356773877
 30
0.0
 11
183.0240899302
 21
115.0356773877
 31
0.0
  0
LINE
  5
1CE
330
1F
100
AcDbEntity
  8
0
  6
HIDDEN
 62
     7
370
     0
100
AcDbLine
 10
190.024089215
 20
115.8021658783
 30
0.0
 11
183.0240899302
 21
115.8021658783
 31
0.0
  0
LINE
  5
1CF
330
1F
100
AcDbEntity
  8
0
  6
HIDDEN
 62
     7
370
     0
100
AcDbLine
 10
190.024089215
 20
109.184396745
 30
0.0
 11
190.024089215
 21
109.5676408739
 31
0.0
  0
LINE
  5
1D0
330
1F
100
AcDbEntity
  8
0
  6
HIDDEN
 62
     7
370
     0
100
AcDbLine
 10
203.0240932085
 20
109.5676408739
 30
0.0
 11
201.0240891554
 21
109.5676408739
 31
0.0
  0
LINE
  5
1D1
330
1F
100
AcDbEntity
  8
0
  6
HIDDEN
 62
     7
370
     0
100
AcDbLine
 10
201.0240891554
 20
106.9948995144
 30
0.0
 11
201.0240891554
 21
109.5676408739
 31
0.0
  0
LINE
  5
1D2
330
1F
100
AcDbEntity
  8
0
  6
HIDDEN
 62
     7
370
     0
100
AcDbLine
 10
196.0240939237
 20
109.5676408739
 30
0.0
 11
196.0240939237
 21
109.184396745
 31
0.0
  0
LINE
  5
1D3
330
1F
100
AcDbEntity
  8
0
  6
HIDDEN
 62
     7
370
     0
100
AcDbLine
 10
203.0240932085
 20
117.1037089669
 30
0.0
 11
203.0240932085
 21
117.9916631089
 31
0.0
  0
LINE
  5
1D4
330
1F
100
AcDbEntity
  8
0
  6
HIDDEN
 62
     7
370
     0
100
AcDbLine
 10
196.0240939237
 20
111.7267927628
 30
0.0
 11
203.0240932085
 21
111.7267927628
 31
0.0
  0
LINE
  5
1D5
330
1F
100
AcDbEntity
  8
0
  6
HIDDEN
 62
     7
370
     0
100
AcDbLine
 10
201.0240891554
 20
110.455594783
 30
0.0
 11
203.0240932085
 21
110.455594783
 31
0.0
  0
LINE
  5
1D6
330
1F
100
AcDbEntity
  8
0
  6
HIDDEN
 62
     7
370
     0
100
AcDbLine
 10
201.0240891554
 20
109.5676408739
 30
0.0
 11
201.0240891554
 21
110.455594783
 31
0.0
  0
LINE
  5
1D7
330
1F
100
AcDbEntity
  8
0
  6
HIDDEN
 62
     7
370
     0
100
AcDbLine
 10
196.0240939237
 20
109.184396745
 30
0.0
 11
201.0240891554
 21
109.184396745
 31
0.0
  0
LINE
  5
1D8
330
1F
100
AcDbEntity
  8
0
  6
HIDDEN
 62
     7
370
     0
100
AcDbLine
 10
190.024089215
 20
111.7267927628
 30
0.0
 11
183.0240899302
 21
111.7267927628
 31
0.0
  0
LINE
  5
1D9
330
1F
100
AcDbEntity
  8
0
  6
HIDDEN
 62
     7
370
     0
100
AcDbLine
 10
190.024089215
 20
109.184396745
 30
0.0
 11
183.0240899302
 21
109.184396745
 31
0.0
  0
LINE
  5
1DA
330
1F
100
AcDbEntity
  8
0
  6
HIDDEN
 62
     7
370
     0
100
AcDbLine
 10
85.6561694831
 20
126.7939117395
 30
0.0
 11
85.6561694831
 21
124.8872215518
 31
0.0
  0
LINE
  5
1DB
330
1F
100
AcDbEntity
  8
0
  6
HIDDEN
 62
     7
370
     0
100
AcDbLine
 10
93.6561693974
 20
124.8872215518
 30
0.0
 11
93.6561693974
 21
126.7911168405
 31
0.0
  0
LINE
  5
1DC
330
1F
100
AcDbEntity
  8
0
  6
HIDDEN
 62
     7
370
     0
100
AcDbLine
 10
81.6561692931
 20
87.1693501838
 30
0.0
 11
81.7503300654
 21
87.8393380561
 31
0.0
  0
LINE
  5
1DD
330
1F
100
AcDbEntity
  8
0
  6
HIDDEN
 62
     7
370
     0
100
AcDbLine
 10
81.7503300654
 20
137.1472245672
 30
0.0
 11
81.6561692931
 21
137.8172124394
 31
0.0
  0
ARC
  5
1DE
330
1F
100
AcDbEntity
  8
0
  6
HIDDEN
 62
     7
370
     0
100
AcDbCircle
 10
81.1561625404
 20
87.9228436972
 30
0.0
 40
0.6000067526677242
100
AcDbArc
 50
352.0
 51
0.0
  0
ARC
  5
1DF
330
1F
100
AcDbEntity
  8
0
  6
HIDDEN
 62
     7
370
     0
100
AcDbCircle
 10
81.1561625404
 20
87.9228436972
 30
0.0
 40
0.6000067526677242
100
AcDbArc
 50
0.0
 51
33.5571153394
  0
ARC
  5
1E0
330
1F
100
AcDbEntity
  8
0
  6
HIDDEN
 62
     7
370
     0
100
AcDbCircle
 10
81.1561625404
 20
137.063718926
 30
0.0
 40
0.6000067526677169
100
AcDbArc
 50
348.75
 51
8.0
  0
LWPOLYLINE
  5
1E1
330
1F
100
AcDbEntity
  8
0
  6
HIDDEN
 62
     7
370
     0
100
AcDbPolyline
 90
        3
 70
   128
 43
0.0
 10
81.744640332
 20
136.9466642507
 10
81.7104965003
 20
136.834106467
 10
81.6561692931
 20
136.7320540019
  0
LINE
  5
1E2
330
1F
100
AcDbEntity
  8
0
  6
HIDDEN
 62
     7
370
     0
100
AcDbLine
 10
81.7561692906
 20
87.9228441634
 30
0.0
 11
81.7561692906
 21
137.0637184598
 31
0.0
  0
LINE
  5
1E3
330
1F
100
AcDbEntity
  8
0
  6
HIDDEN
 62
     7
370
     0
100
AcDbLine
 10
64.7386053182
 20
92.4932817587
 30
0.0
 11
68.9161412023
 21
92.4932817587
 31
0.0
  0
LINE
  5
1E4
330
1F
100
AcDbEntity
  8
0
  6
HIDDEN
 62
     7
370
     0
100
AcDbLine
 10
68.9161412023
 20
132.4932808646
 30
0.0
 11
64.7386053182
 21
132.4932808646
 31
0.0
  0
ARC
  5
1E5
330
1F
100
AcDbEntity
  8
0
  6
HIDDEN
 62
     7
370
     0
100
AcDbCircle
 10
64.7386048584
 20
93.0932813116
 30
0.0
 40
0.6000000000000085
100
AcDbArc
 50
210.0
 51
270.0
  0
ARC
  5
1E6
330
1F
100
AcDbEntity
  8
0
  6
HIDDEN
 62
     7
370
     0
100
AcDbCircle
 10
64.7386048584
 20
131.8932813116
 30
0.0
 40
0.5999999999999943
100
AcDbArc
 50
90.0
 51
150.0
  0
ARC
  5
1E7
330
1F
100
AcDbEntity
  8
0
  6
HIDDEN
 62
     7
370
     0
100
AcDbCircle
 10
75.4111712947
 20
100.4932813116
 30
0.0
 40
7.999999999999999
100
AcDbArc
 50
277.0401353439
 51
321.3178125465
  0
ARC
  5
1E8
330
1F
100
AcDbEntity
  8
0
  6
HIDDEN
 62
     7
370
     0
100
AcDbCircle
 10
75.4111712947
 20
124.4932813116
 30
0.0
 40
8.000000000000002
100
AcDbArc
 50
38.6821874535
 51
82.941437939
  0
LINE
  5
1E9
330
1F
100
AcDbEntity
  8
0
  6
HIDDEN
 62
     7
370
     0
100
AcDbLine
 10
64.2189887889
 20
132.1932813742
 30
0.0
 11
62.6601447888
 21
129.4932822355
 31
0.0
  0
LINE
  5
1EA
330
1F
100
AcDbEntity
  8
0
  6
HIDDEN
 62
     7
370
     0
100
AcDbLine
 10
62.6601447888
 20
95.4932803878
 30
0.0
 11
64.2189887889
 21
92.793281249
 31
0.0
  0
LINE
  5
1EB
330
1F
100
AcDbEntity
  8
0
  6
HIDDEN
 62
     7
370
     0
100
AcDbLine
 10
85.6561694831
 20
139.7729470053
 30
0.0
 11
85.6561694831
 21
136.4388829687
 31
0.0
  0
LINE
  5
1EC
330
1F
100
AcDbEntity
  8
0
  6
HIDDEN
 62
     7
370
     0
100
AcDbLine
 10
93.6561693974
 20
136.4388829687
 30
0.0
 11
93.6561693974
 21
139.7676142522
 31
0.0
  0
ARC
  5
1ED
330
1F
100
AcDbEntity
  8
0
  6
HIDDEN
 62
     7
370
     0
100
AcDbCircle
 10
90.1061692931
 20
96.7682813116
 30
0.0
 40
1.500000000000001
100
AcDbArc
 50
238.2116693829
 51
0.0
  0
ARC
  5
1EE
330
1F
100
AcDbEntity
  8
0
  6
HIDDEN
 62
     7
370
     0
100
AcDbCircle
 10
90.1061692931
 20
128.2182813116
 30
0.0
 40
1.500000000000001
100
AcDbArc
 50
0.0
 51
121.7883306171
  0
LINE
  5
1EF
330
1F
100
AcDbEntity
  8
0
  6
HIDDEN
 62
     7
370
     0
100
AcDbLine
 10
59.8561690726
 20
95.4932803878
 30
0.0
 11
62.6601447888
 21
95.4932803878
 31
0.0
  0
LINE
  5
1F0
330
1F
100
AcDbEntity
  8
0
  6
HIDDEN
 62
     7
370
     0
100
AcDbLine
 10
62.6601447888
 20
129.4932822355
 30
0.0
 11
55.8561684169
 21
129.4932822355
 31
0.0
  0
LINE
  5
1F1
330
1F
100
AcDbEntity
  8
0
  6
HIDDEN
 62
     7
370
     0
100
AcDbLine
 10
81.6561692931
 20
95.4932803878
 30
0.0
 11
89.3159952551
 21
95.4932803878
 31
0.0
  0
LINE
  5
1F2
330
1F
100
AcDbEntity
  8
0
  6
HIDDEN
 62
     7
370
     0
100
AcDbLine
 10
89.3159952551
 20
129.4932822355
 30
0.0
 11
81.6561692931
 21
129.4932822355
 31
0.0
  0
LINE
  5
1F3
330
1F
100
AcDbEntity
  8
0
  6
HIDDEN
 62
     7
370
     0
100
AcDbLine
 10
228.9061659552
 20
128.4932820716
 30
0.0
 11
221.6561698891
 21
128.4932820716
 31
0.0
  0
LINE
  5
1F4
330
1F
100
AcDbEntity
  8
0
  6
HIDDEN
 62
     7
370
     0
100
AcDbLine
 10
221.6561698891
 20
96.4932805517
 30
0.0
 11
228.9061659552
 21
96.4932805517
 31
0.0
  0
LINE
  5
1F5
330
1F
100
AcDbEntity
  8
0
  6
HIDDEN
 62
     7
370
     0
100
AcDbLine
 10
228.9061659552
 20
96.4932805517
 30
0.0
 11
229.6561712004
 21
97.2432811403
 31
0.0
  0
LINE
  5
1F6
330
1F
100
AcDbEntity
  8
0
  6
HIDDEN
 62
     7
370
     0
100
AcDbLine
 10
229.6561712004
 20
127.743281483
 30
0.0
 11
228.9061659552
 21
128.4932820716
 31
0.0
  0
ARC
  5
1F7
330
1F
100
AcDbEntity
  8
0
  6
HIDDEN
 62
     7
370
     0
100
AcDbCircle
 10
228.6561692931
 20
125.8625680494
 30
0.0
 40
1.0
100
AcDbArc
 50
278.0
 51
0.0
  0
ARC
  5
1F8
330
1F
100
AcDbEntity
  8
0
  6
HIDDEN
 62
     7
370
     0
100
AcDbCircle
 10
228.6561692931
 20
99.1239945738
 30
0.0
 40
1.0
100
AcDbArc
 50
0.0
 51
82.0
  0
LINE
  5
1F9
330
1F
100
AcDbEntity
  8
0
  6
HIDDEN
 62
     7
370
     0
100
AcDbLine
 10
228.7953460194
 20
124.8722999015
 30
0.0
 11
204.7523745872
 21
121.4932809242
 31
0.0
  0
LINE
  5
1FA
330
1F
100
AcDbEntity
  8
0
  6
HIDDEN
 62
     7
370
     0
100
AcDbLine
 10
204.7523745872
 20
103.4932816991
 30
0.0
 11
228.7953460194
 21
100.1142627218
 31
0.0
  0
LINE
  5
1FB
330
1F
100
AcDbEntity
  8
0
  6
HIDDEN
 62
     7
370
     0
100
AcDbLine
 10
100.4561690219
 20
102.9932816171
 30
0.0
 11
103.4561695136
 21
102.9932816171
 31
0.0
  0
LINE
  5
1FC
330
1F
100
AcDbEntity
  8
0
  6
HIDDEN
 62
     7
370
     0
100
AcDbLine
 10
103.4561695136
 20
121.9932810062
 30
0.0
 11
100.4561690219
 21
121.9932810062
 31
0.0
  0
LINE
  5
1FD
330
1F
100
AcDbEntity
  8
0
  6
HIDDEN
 62
     7
370
     0
100
AcDbLine
 10
200.6561720349
 20
121.4932809242
 30
0.0
 11
199.0240925528
 21
117.9932812818
 31
0.0
  0
LINE
  5
1FE
330
1F
100
AcDbEntity
  8
0
  6
HIDDEN
 62
     7
370
     0
100
AcDbLine
 10
199.0240925528
 20
106.9932813414
 30
0.0
 11
200.6561720349
 21
103.4932816991
 31
0.0
  0
LINE
  5
1FF
330
1F
100
AcDbEntity
  8
0
  6
HIDDEN
 62
     7
370
     0
100
AcDbLine
 10
204.7523745872
 20
121.4932809242
 30
0.0
 11
200.6561720349
 21
121.4932809242
 31
0.0
  0
LINE
  5
200
330
1F
100
AcDbEntity
  8
0
  6
HIDDEN
 62
     7
370
     0
100
AcDbLine
 10
200.6561720349
 20
103.4932816991
 30
0.0
 11
204.7523745872
 21
103.4932816991
 31
0.0
  0
LINE
  5
201
330
1F
100
AcDbEntity
  8
0
  6
HIDDEN
 62
     7
370
     0
100
AcDbLine
 10
91.6061691545
 20
103.4932816991
 30
0.0
 11
92.1061692365
 21
103.9932808497
 31
0.0
  0
LINE
  5
202
330
1F
100
AcDbEntity
  8
0
  6
HIDDEN
 62
     7
370
     0
100
AcDbLine
 10
92.1061692365
 20
120.9932817736
 30
0.0
 11
91.6061691545
 21
121.4932809242
 31
0.0
  0
LINE
  5
203
330
1F
100
AcDbEntity
  8
0
  6
HIDDEN
 62
     7
370
     0
100
AcDbLine
 10
92.1061692365
 20
103.9932808497
 30
0.0
 11
100.4561690219
 21
103.9932808497
 31
0.0
  0
LINE
  5
204
330
1F
100
AcDbEntity
  8
0
  6
HIDDEN
 62
     7
370
     0
100
AcDbLine
 10
100.4561690219
 20
120.9932817736
 30
0.0
 11
92.1061692365
 21
120.9932817736
 31
0.0
  0
LINE
  5
205
330
1F
100
AcDbEntity
  8
0
  6
HIDDEN
 62
     7
370
     0
100
AcDbLine
 10
86.6061692663
 20
143.9932818183
 30
0.0
 11
86.6061692663
 21
138.8932811686
 31
0.0
  0
LINE
  5
206
330
1F
100
AcDbEntity
  8
0
  6
HIDDEN
 62
     7
370
     0
100
AcDbLine
 10
199.0240925528
 20
117.9932812818
 30
0.0
 11
171.6561728694
 21
117.9932812818
 31
0.0
  0
LINE
  5
207
330
1F
100
AcDbEntity
  8
0
  6
HIDDEN
 62
     7
370
     0
100
AcDbLine
 10
171.6561728694
 20
106.9932813414
 30
0.0
 11
199.0240925528
 21
106.9932813414
 31
0.0
  0
LINE
  5
208
330
1F
100
AcDbEntity
  8
0
  6
HIDDEN
 62
     7
370
     0
100
AcDbLine
 10
171.6561728694
 20
117.9932812818
 30
0.0
 11
170.8750539996
 21
116.6932811619
 31
0.0
  0
LINE
  5
209
330
1F
100
AcDbEntity
  8
0
  6
HIDDEN
 62
     7
370
     0
100
AcDbLine
 10
170.8750539996
 20
108.2932814614
 30
0.0
 11
171.6561728694
 21
106.9932813414
 31
0.0
  0
LINE
  5
20A
330
1F
100
AcDbEntity
  8
0
  6
HIDDEN
 62
     7
370
     0
100
AcDbLine
 10
76.8406071306
 20
88.4139100679
 30
0.0
 11
76.4061749518
 21
88.8929768124
 31
0.0
  0
LINE
  5
20B
330
1F
100
AcDbEntity
  8
0
  6
HIDDEN
 62
     7
370
     0
100
AcDbLine
 10
68.9061713942
 20
89.314664773
 30
0.0
 11
68.4237379186
 21
88.8355980285
 31
0.0
  0
LINE
  5
20C
330
1F
100
AcDbEntity
  8
0
  6
HIDDEN
 62
     7
370
     0
100
AcDbLine
 10
68.4236159154
 20
136.1509590068
 30
0.0
 11
68.9061667375
 21
135.6718382456
 31
0.0
  0
LINE
  5
20D
330
1F
100
AcDbEntity
  8
0
  6
HIDDEN
 62
     7
370
     0
100
AcDbLine
 10
76.4061693639
 20
136.0935373821
 30
0.0
 11
76.8407114387
 21
136.5726562806
 31
0.0
  0
LINE
  5
20E
330
1F
100
AcDbEntity
  8
0
  6
HIDDEN
 62
     7
370
     0
100
AcDbLine
 10
103.4561695136
 20
108.2932814614
 30
0.0
 11
170.8750539996
 21
108.2932814614
 31
0.0
  0
LINE
  5
20F
330
1F
100
AcDbEntity
  8
0
  6
HIDDEN
 62
     7
370
     0
100
AcDbLine
 10
170.8750539996
 20
116.6932811619
 30
0.0
 11
103.4561695136
 21
116.6932811619
 31
0.0
  0
LINE
  5
210
330
1F
100
AcDbEntity
  8
0
  6
HIDDEN
 62
     7
370
     0
100
AcDbLine
 10
76.4061693639
 20
88.7929173776
 30
0.0
 11
76.4061693639
 21
92.5562093624
 31
0.0
  0
LINE
  5
211
330
1F
100
AcDbEntity
  8
0
  6
HIDDEN
 62
     7
370
     0
100
AcDbLine
 10
68.9061695315
 20
92.4951444038
 30
0.0
 11
68.9061695315
 21
89.3149870106
 31
0.0
  0
LINE
  5
212
330
1F
100
AcDbEntity
  8
0
  6
HIDDEN
 62
     7
370
     0
100
AcDbLine
 10
76.4061693639
 20
132.4303532609
 30
0.0
 11
76.4061693639
 21
136.1935670146
 31
0.0
  0
LINE
  5
213
330
1F
100
AcDbEntity
  8
0
  6
HIDDEN
 62
     7
370
     0
100
AcDbLine
 10
68.9061695315
 20
135.6715830632
 30
0.0
 11
68.9061695315
 21
132.4914182194
 31
0.0
  0
LINE
  5
214
330
1F
100
AcDbEntity
  8
0
  6
HIDDEN
 62
     7
370
     0
100
AcDbLine
 10
140.1061677911
 20
130.99328155
 30
0.0
 11
141.1061698176
 21
130.4159304717
 31
0.0
  0
LINE
  5
215
330
1F
100
AcDbEntity
  8
0
  6
HIDDEN
 62
     7
370
     0
100
AcDbLine
 10
146.1061724998
 20
130.4159304717
 30
0.0
 11
147.1061670758
 21
130.99328155
 31
0.0
  0
LINE
  5
216
330
1F
100
AcDbEntity
  8
0
  6
HIDDEN
 62
     7
370
     0
100
AcDbLine
 10
147.1061670758
 20
93.9932810732
 30
0.0
 11
146.1061724998
 21
94.5706321516
 31
0.0
  0
LINE
  5
217
330
1F
100
AcDbEntity
  8
0
  6
HIDDEN
 62
     7
370
     0
100
AcDbLine
 10
141.1061698176
 20
94.5706321516
 30
0.0
 11
140.1061677911
 21
93.9932810732
 31
0.0
  0
LINE
  5
218
330
1F
100
AcDbEntity
  8
0
  6
HIDDEN
 62
     7
370
     0
100
AcDbLine
 10
141.1061698176
 20
130.4159304717
 30
0.0
 11
141.1061698176
 21
121.9932810062
 31
0.0
  0
LINE
  5
219
330
1F
100
AcDbEntity
  8
0
  6
HIDDEN
 62
     7
370
     0
100
AcDbLine
 10
146.1061724998
 20
121.9932810062
 30
0.0
 11
146.1061724998
 21
130.4159304717
 31
0.0
  0
LINE
  5
21A
330
1F
100
AcDbEntity
  8
0
  6
HIDDEN
 62
     7
370
     0
100
AcDbLine
 10
141.1061698176
 20
121.9932810062
 30
0.0
 11
143.6061674334
 21
120.4911294051
 31
0.0
  0
LINE
  5
21B
330
1F
100
AcDbEntity
  8
0
  6
HIDDEN
 62
     7
370
     0
100
AcDbLine
 10
143.6061674334
 20
120.4911294051
 30
0.0
 11
146.1061724998
 21
121.9932810062
 31
0.0
  0
LINE
  5
21C
330
1F
100
AcDbEntity
  8
0
  6
HIDDEN
 62
     7
370
     0
100
AcDbLine
 10
146.1061724998
 20
94.5706321516
 30
0.0
 11
146.1061724998
 21
102.9932816171
 31
0.0
  0
LINE
  5
21D
330
1F
100
AcDbEntity
  8
0
  6
HIDDEN
 62
     7
370
     0
100
AcDbLine
 10
141.1061698176
 20
102.9932816171
 30
0.0
 11
141.1061698176
 21
94.5706321516
 31
0.0
  0
LINE
  5
21E
330
1F
100
AcDbEntity
  8
0
  6
HIDDEN
 62
     7
370
     0
100
AcDbLine
 10
146.1061724998
 20
102.9932816171
 30
0.0
 11
143.6061674334
 21
104.4954332181
 31
0.0
  0
LINE
  5
21F
330
1F
100
AcDbEntity
  8
0
  6
HIDDEN
 62
     7
370
     0
100
AcDbLine
 10
143.6061674334
 20
104.4954332181
 30
0.0
 11
141.1061698176
 21
102.9932816171
 31
0.0
  0
LINE
  5
220
330
1F
100
AcDbEntity
  8
0
  6
HIDDEN
 62
     7
370
     0
100
AcDbLine
 10
230.8061683156
 20
128.7432807156
 30
0.0
 11
228.6616677024
 21
127.743281483
 31
0.0
  0
LINE
  5
221
330
1F
100
AcDbEntity
  8
0
  6
HIDDEN
 62
     7
370
     0
100
AcDbLine
 10
228.6616677024
 20
97.2432811403
 30
0.0
 11
230.8061683156
 21
96.2432819077
 31
0.0
  0
ARC
  5
222
330
1F
100
AcDbEntity
  8
0
  6
HIDDEN
 62
     7
370
     0
100
AcDbCircle
 10
234.0061692931
 20
97.0432813116
 30
0.0
 40
0.8000000000000114
100
AcDbArc
 50
270.0
 51
0.0
  0
ARC
  5
223
330
1F
100
AcDbEntity
  8
0
  6
HIDDEN
 62
     7
370
     0
100
AcDbCircle
 10
234.0061692931
 20
127.9432813116
 30
0.0
 40
0.8000000000000114
100
AcDbArc
 50
0.0
 51
90.0
  0
LINE
  5
224
330
1F
100
AcDbEntity
  8
0
  6
HIDDEN
 62
     7
370
     0
100
AcDbLine
 10
230.8061683156
 20
96.2432819077
 30
0.0
 11
234.0061628796
 21
96.2432819077
 31
0.0
  0
LINE
  5
225
330
1F
100
AcDbEntity
  8
0
  6
HIDDEN
 62
     7
370
     0
100
AcDbLine
 10
234.0061628796
 20
128.7432807156
 30
0.0
 11
230.8061683156
 21
128.7432807156
 31
0.0
  0
LINE
  5
226
330
1F
100
AcDbEntity
  8
0
  6
HIDDEN
 62
     7
370
     0
100
AcDbLine
 10
221.6561698891
 20
97.2432811403
 30
0.0
 11
228.6616677024
 21
97.2432811403
 31
0.0
  0
LINE
  5
227
330
1F
100
AcDbEntity
  8
0
  6
HIDDEN
 62
     7
370
     0
100
AcDbLine
 10
228.6616677024
 20
127.743281483
 30
0.0
 11
221.6561698891
 21
127.743281483
 31
0.0
  0
ARC
  5
228
330
1F
100
AcDbEntity
  8
0
  6
HIDDEN
 62
     7
370
     0
100
AcDbCircle
 10
236.3561692931
 20
99.8032813116
 30
0.0
 40
0.4000000000000625
100
AcDbArc
 50
180.0
 51
299.99999741
  0
LINE
  5
229
330
1F
100
AcDbEntity
  8
0
  6
HIDDEN
 62
     7
370
     0
100
AcDbLine
 10
236.5561687924
 20
99.4568709874
 30
0.0
 11
241.0359644868
 21
102.0432813683
 31
0.0
  0
LINE
  5
22A
330
1F
100
AcDbEntity
  8
0
  6
HIDDEN
 62
     7
370
     0
100
AcDbLine
 10
241.0359644868
 20
122.943281255
 30
0.0
 11
236.5561687924
 21
125.5296916359
 31
0.0
  0
LINE
  5
22B
330
1F
100
AcDbEntity
  8
0
  6
HIDDEN
 62
     7
370
     0
100
AcDbLine
 10
236.2141275384
 20
125.5546324545
 30
0.0
 11
234.8061764218
 21
125.5546324545
 31
0.0
  0
LINE
  5
22C
330
1F
100
AcDbEntity
  8
0
  6
HIDDEN
 62
     7
370
     0
100
AcDbLine
 10
236.5561687924
 20
125.5546324545
 30
0.0
 11
236.497800944
 21
125.5546324545
 31
0.0
  0
LINE
  5
22D
330
1F
100
AcDbEntity
  8
0
  6
HIDDEN
 62
     7
370
     0
100
AcDbLine
 10
241.0359644868
 20
102.0432813683
 30
0.0
 11
241.6561657168
 21
102.0432813683
 31
0.0
  0
LINE
  5
22E
330
1F
100
AcDbEntity
  8
0
  6
HIDDEN
 62
     7
370
     0
100
AcDbLine
 10
241.6561657168
 20
122.943281255
 30
0.0
 11
241.0359644868
 21
122.943281255
 31
0.0
  0
LINE
  5
22F
330
1F
100
AcDbEntity
  8
0
  6
HIDDEN
 62
     7
370
     0
100
AcDbLine
 10
228.2449269273
 20
96.0843926885
 30
0.0
 11
227.8653794505
 21
95.8264666268
 31
0.0
  0
LINE
  5
230
330
1F
100
AcDbEntity
  8
0
  6
HIDDEN
 62
     7
370
     0
100
AcDbLine
 10
227.7007663228
 20
129.8013823696
 30
0.0
 11
228.1267756202
 21
129.4891397127
 31
0.0
  0
LINE
  5
231
330
1F
100
AcDbEntity
  8
0
  6
HIDDEN
 62
     7
370
     0
100
AcDbLine
 10
227.9882097222
 20
96.8615105965
 30
0.0
 11
227.6726478316
 21
95.3402510502
 31
0.0
  0
LINE
  5
232
330
1F
100
AcDbEntity
  8
0
  6
HIDDEN
 62
     7
370
     0
100
AcDbLine
 10
227.6696377971
 20
130.1130885848
 30
0.0
 11
227.9855275132
 21
128.5497798243
 31
0.0
  0
LINE
  5
233
330
1F
100
AcDbEntity
  8
0
  6
HIDDEN
 62
     7
370
     0
100
AcDbLine
 10
228.7356668689
 20
97.6854172193
 30
0.0
 11
228.4972035863
 21
97.5233652287
 31
0.0
  0
LINE
  5
234
330
1F
100
AcDbEntity
  8
0
  6
HIDDEN
 62
     7
370
     0
100
AcDbLine
 10
228.3921205975
 20
127.9948251911
 30
0.0
 11
228.6429369427
 21
127.8109877028
 31
0.0
  0
LINE
  5
235
330
1F
100
AcDbEntity
  8
0
  6
HIDDEN
 62
     7
370
     0
100
AcDbLine
 10
234.8061764218
 20
100.5091416308
 30
0.0
 11
235.9561735369
 21
100.5091416308
 31
0.0
  0
ARC
  5
236
330
1F
100
AcDbEntity
  8
0
  6
HIDDEN
 62
     7
370
     0
100
AcDbCircle
 10
236.3561692931
 20
125.1832813116
 30
0.0
 40
0.4000000000000346
100
AcDbArc
 50
66.8728324226
 51
113.0263819018
  0
LINE
  5
237
330
1F
100
AcDbEntity
  8
0
  6
HIDDEN
 62
     7
370
     0
100
AcDbLine
 10
227.9855275132
 20
96.436782799
 30
0.0
 11
227.6696377971
 21
94.8734740385
 31
0.0
  0
LINE
  5
238
330
1F
100
AcDbEntity
  8
0
  6
HIDDEN
 62
     7
370
     0
100
AcDbLine
 10
228.6429369427
 20
97.1755749204
 30
0.0
 11
228.3921205975
 21
96.9917374321
 31
0.0
  0
LINE
  5
239
330
1F
100
AcDbEntity
  8
0
  6
HIDDEN
 62
     7
370
     0
100
AcDbLine
 10
228.1267756202
 20
95.4974229106
 30
0.0
 11
227.7007663228
 21
95.1851802536
 31
0.0
  0
LINE
  5
23A
330
1F
100
AcDbEntity
  8
0
  6
HIDDEN
 62
     7
370
     0
100
AcDbLine
 10
227.6726478316
 20
129.646311573
 30
0.0
 11
227.9882097222
 21
128.1250520267
 31
0.0
  0
LINE
  5
23B
330
1F
100
AcDbEntity
  8
0
  6
HIDDEN
 62
     7
370
     0
100
AcDbLine
 10
228.4972035863
 20
127.4631973945
 30
0.0
 11
228.7356668689
 21
127.3011454039
 31
0.0
  0
LINE
  5
23C
330
1F
100
AcDbEntity
  8
0
  6
HIDDEN
 62
     7
370
     0
100
AcDbLine
 10
227.8564238526
 20
129.1661775329
 30
0.0
 11
228.2449269273
 21
128.9021699347
 31
0.0
  0
LINE
  5
23D
330
1F
100
AcDbEntity
  8
0
  6
HIDDEN
 62
     7
370
     0
100
AcDbLine
 10
183.5240909435
 20
106.4932812595
 30
0.0
 11
198.5240915396
 21
106.4932812595
 31
0.0
  0
LINE
  5
23E
330
1F
100
AcDbEntity
  8
0
  6
HIDDEN
 62
     7
370
     0
100
AcDbLine
 10
198.5240915396
 20
118.4932813638
 30
0.0
 11
183.5240909435
 21
118.4932813638
 31
0.0
  0
LINE
  5
23F
330
1F
100
AcDbEntity
  8
0
  6
HIDDEN
 62
     7
370
     0
100
AcDbLine
 10
198.5240915396
 20
106.4932812595
 30
0.0
 11
199.0240925528
 21
106.9932813414
 31
0.0
  0
LINE
  5
240
330
1F
100
AcDbEntity
  8
0
  6
HIDDEN
 62
     7
370
     0
100
AcDbLine
 10
199.0240925528
 20
117.9932812818
 30
0.0
 11
198.5240915396
 21
118.4932813638
 31
0.0
  0
LINE
  5
241
330
1F
100
AcDbEntity
  8
0
  6
HIDDEN
 62
     7
370
     0
100
AcDbLine
 10
183.5240909435
 20
118.4932813638
 30
0.0
 11
183.0240899302
 21
117.9932812818
 31
0.0
  0
LINE
  5
242
330
1F
100
AcDbEntity
  8
0
  6
HIDDEN
 62
     7
370
     0
100
AcDbLine
 10
183.0240899302
 20
106.9932813414
 30
0.0
 11
183.5240909435
 21
106.4932812595
 31
0.0
  0
LINE
  5
243
330
1F
100
AcDbEntity
  8
0
  6
HIDDEN
 62
     7
370
     0
100
AcDbLine
 10
199.0240925528
 20
106.9932813414
 30
0.0
 11
203.0240932085
 21
106.9932813414
 31
0.0
  0
LINE
  5
244
330
1F
100
AcDbEntity
  8
0
  6
HIDDEN
 62
     7
370
     0
100
AcDbLine
 10
203.0240932085
 20
117.9932812818
 30
0.0
 11
199.0240925528
 21
117.9932812818
 31
0.0
  0
LINE
  5
245
330
1F
100
AcDbEntity
  8
0
  6
HIDDEN
 62
     7
370
     0
100
AcDbLine
 10
190.024089215
 20
109.4932812856
 30
0.0
 11
196.0240939237
 21
109.4932812856
 31
0.0
  0
LINE
  5
246
330
1F
100
AcDbEntity
  8
0
  6
HIDDEN
 62
     7
370
     0
100
AcDbLine
 10
196.0240939237
 20
115.4932813377
 30
0.0
 11
190.024089215
 21
115.4932813377
 31
0.0
  0
POINT
  5
247
330
1F
100
AcDbEntity
  8
VERMASSUNG
100
AcDbPoint
 10
229.6561692931
 20
124.9932813116
 30
0.0
  0
POINT
  5
248
330
1F
100
AcDbEntity
  8
VERMASSUNG
100
AcDbPoint
 10
229.6561692931
 20
99.9932813116
 30
0.0
  0
DIMENSION
  5
249
330
1F
100
AcDbEntity
  8
VERMASSUNG
100
AcDbDimension
  2
*D1
 10
250.2580721411
 20
124.9932813116
 30
0.0
 11
250.2580721411
 21
112.4932813116
 31
0.0
 70
   160
  1
ER<>
 71
     2
 42
-1.0
  3
SLDDIMSTYLE0
100
AcDbAlignedDimension
 13
229.6561692931
 23
99.9932813116
 33
0.0
 14
229.6561692931
 24
124.9932813116
 34
0.0
 50
90.0
100
AcDbRotatedDimension
  0
DIMENSION
  5
255
330
1F
100
AcDbEntity
  8
VERMASSUNG
100
AcDbDimension
  2
*D2
 10
41.3201705388
 20
80.9932813116
 30
0.0
 11
41.3201705388
 21
112.9577203022
 31
0.0
 70
   160
  1
HSK A %%c<>
 71
     2
 42
-1.0
  3
SLDDIMSTYLE0
100
AcDbAlignedDimension
 13
81.9561692931
 23
143.9932813116
 33
0.0
 14
81.9561692931
 24
80.9932813116
 34
0.0
 50
90.0
100
AcDbRotatedDimension
  0
DIMENSION
  5
261
330
1F
100
AcDbEntity
  8
VERMASSUNG
100
AcDbDimension
  2
*D3
 10
49.7561692931
 20
165.9932813116
 30
0.0
 11
150.8992348957
 21
165.9932813116
 31
0.0
 70
   160
 71
     2
 42
-1.0
  3
SLDDIMSTYLE0
100
AcDbAlignedDimension
 13
241.6561692931
 23
127.4932813116
 33
0.0
 14
49.7561692931
 24
132.1839590581
 34
0.0
100
AcDbRotatedDimension
  0
DIMENSION
  5
26B
330
1F
100
AcDbEntity
  8
VERMASSUNG
100
AcDbDimension
  2
*D4
 10
81.6561692931
 20
159.9932813116
 30
0.0
 11
157.1560281704
 21
159.9932813116
 31
0.0
 70
   160
 71
     2
 42
-1.0
  3
SLDDIMSTYLE0
100
AcDbAlignedDimension
 13
241.6561692931
 23
104.7121287577
 33
0.0
 14
81.6561692931
 24
143.6932813116
 34
0.0
100
AcDbRotatedDimension
  0
DIMENSION
  5
275
330
1F
100
AcDbEntity
  8
VERMASSUNG
100
AcDbDimension
  2
*D5
 10
241.6561692931
 20
153.9932813116
 30
0.0
 11
168.4674987486
 21
153.9932813116
 31
0.0
 70
   160
 71
     2
 42
-1.0
  3
SLDDIMSTYLE0
100
AcDbAlignedDimension
 13
107.6061692931
 23
142.3397216354
 33
0.0
 14
241.6561692931
 24
104.7121287577
 34
0.0
100
AcDbRotatedDimension
  0
DIMENSION
  5
27F
330
1F
100
AcDbEntity
  8
VERMASSUNG
100
AcDbDimension
  2
*D6
 10
241.6561692931
 20
147.9932813116
 30
0.0
 11
224.016903904
 21
147.9932813116
 31
0.0
 70
   160
 71
     2
 42
-1.0
  3
SLDDIMSTYLE0
100
AcDbAlignedDimension
 13
204.7523752648
 23
121.4932813116
 33
0.0
 14
241.6561692931
 24
127.4932813116
 34
0.0
100
AcDbRotatedDimension
  0
DIMENSION
  5
289
330
1F
100
AcDbEntity
  8
VERMASSUNG
100
AcDbDimension
  2
*D7
 10
262.2580721411
 20
91.6432813116
 30
0.0
 11
262.2580721411
 21
112.4932813116
 31
0.0
 70
   160
  1
%%c<>
 71
     2
 42
-1.0
  3
SLDDIMSTYLE0
100
AcDbAlignedDimension
 13
238.2786698031
 23
133.3432813116
 33
0.0
 14
238.2786698031
 24
91.6432813116
 34
0.0
 50
90.0
100
AcDbRotatedDimension
  0
DIMENSION
  5
294
330
1F
100
AcDbEntity
  8
VERMASSUNG
100
AcDbDimension
  2
*D8
 10
256.2580721411
 20
93.9932813116
 30
0.0
 11
256.2580721411
 21
112.4932813116
 31
0.0
 70
   160
  1
%%c<>
 71
     2
 42
-1.0
  3
SLDDIMSTYLE0
100
AcDbAlignedDimension
 13
152.6061692931
 23
130.9932813116
 33
0.0
 14
152.6061692931
 24
93.9932813116
 34
0.0
 50
90.0
100
AcDbRotatedDimension
  0
DIMENSION
  5
29F
330
1F
100
AcDbEntity
  8
VERMASSUNG
100
AcDbDimension
  2
*D9
 10
268.2580721411
 20
90.8840454338
 30
0.0
 11
268.2580721411
 21
112.4932813116
 31
0.0
 70
   160
  1
%%c<>
 71
     2
 42
-1.0
  3
SLDDIMSTYLE1
100
AcDbAlignedDimension
 13
109.8639012519
 23
134.1025171895
 33
0.0
 14
109.8639012519
 24
90.8840454338
 34
0.0
 50
90.0
100
AcDbRotatedDimension
  0
LINE
  5
2AB
330
1F
100
AcDbEntity
  8
VERMASSUNG
  6
CENTERX2
370
     0
100
AcDbLine
 10
45.3845594517
 20
112.4932813116
 30
0.0
 11
243.1076363748
 21
112.4932813116
 31
0.0
  0
OLE2FRAME
  5
2AC
330
1F
100
AcDbEntity
  8
0
100
AcDbOle2Frame
 70
     2
  3
Bitmap Image
 10
13.8511154363
 20
38.264191557
 30
0.0
 11
51.6290888628
 21
31.9806341108
 31
0.0
 71
     2
 72
     0
 73
     1
 90
    12928
310
80552BED0767C5B32B40DDAF6807D121434000000000000000006FFBDDFB85D0
310
4940DDAF6807D121434000000000000000006FFBDDFB85D04940416F4BD60AFB
310
3F4000000000000000002BED0767C5B32B40416F4BD60AFB3F40000000000000
310
0000000000000100000000010000010000000100000000000100000000320000
310
D0CF11E0A1B11AE1000000000000000000000000000000003E000300FEFF0900
310
0600000000000000000000000100000001000000000000000010000002000000
310
01000000FEFFFFFF0000000000000000FFFFFFFFFFFFFFFFFFFFFFFFFFFFFFFF
310
FFFFFFFFFFFFFFFFFFFFFFFFFFFFFFFFFFFFFFFFFFFFFFFFFFFFFFFFFFFFFFFF
310
FFFFFFFFFFFFFFFFFFFFFFFFFFFFFFFFFFFFFFFFFFFFFFFFFFFFFFFFFFFFFFFF
310
FFFFFFFFFFFFFFFFFFFFFFFFFFFFFFFFFFFFFFFFFFFFFFFFFFFFFFFFFFFFFFFF
310
FFFFFFFFFFFFFFFFFFFFFFFFFFFFFFFFFFFFFFFFFFFFFFFFFFFFFFFFFFFFFFFF
310
FFFFFFFFFFFFFFFFFFFFFFFFFFFFFFFFFFFFFFFFFFFFFFFFFFFFFFFFFFFFFFFF
310
FFFFFFFFFFFFFFFFFFFFFFFFFFFFFFFFFFFFFFFFFFFFFFFFFFFFFFFFFFFFFFFF
310
FFFFFFFFFFFFFFFFFFFFFFFFFFFFFFFFFFFFFFFFFFFFFFFFFFFFFFFFFFFFFFFF
310
FFFFFFFFFFFFFFFFFFFFFFFFFFFFFFFFFFFFFFFFFFFFFFFFFFFFFFFFFFFFFFFF
310
FFFFFFFFFFFFFFFFFFFFFFFFFFFFFFFFFFFFFFFFFFFFFFFFFFFFFFFFFFFFFFFF
310
FFFFFFFFFFFFFFFFFFFFFFFFFFFFFFFFFFFFFFFFFFFFFFFFFFFFFFFFFFFFFFFF
310
FFFFFFFFFFFFFFFFFFFFFFFFFFFFFFFFFFFFFFFFFFFFFFFFFFFFFFFFFFFFFFFF
310
FFFFFFFFFFFFFFFFFFFFFFFFFFFFFFFFFFFFFFFFFFFFFFFFFFFFFFFFFFFFFFFF
310
FFFFFFFFFFFFFFFFFFFFFFFFFFFFFFFFFFFFFFFFFFFFFFFFFFFFFFFFFFFFFFFF
310
FDFFFFFFFEFFFFFFFEFFFFFFFEFFFFFF05000000060000000700000008000000
310
090000000A0000000B0000000C0000000D0000000E0000000F00000010000000
310
11000000120000001300000014000000150000001600000017000000FEFFFFFF
310
FFFFFFFFFFFFFFFFFFFFFFFFFFFFFFFFFFFFFFFFFFFFFFFFFFFFFFFFFFFFFFFF
310
FFFFFFFFFFFFFFFFFFFFFFFFFFFFFFFFFFFFFFFFFFFFFFFFFFFFFFFFFFFFFFFF
310
FFFFFFFFFFFFFFFFFFFFFFFFFFFFFFFFFFFFFFFFFFFFFFFFFFFFFFFFFFFFFFFF
310
FFFFFFFFFFFFFFFFFFFFFFFFFFFFFFFFFFFFFFFFFFFFFFFFFFFFFFFFFFFFFFFF
310
FFFFFFFFFFFFFFFFFFFFFFFFFFFFFFFFFFFFFFFFFFFFFFFFFFFFFFFFFFFFFFFF
310
FFFFFFFFFFFFFFFFFFFFFFFFFFFFFFFFFFFFFFFFFFFFFFFFFFFFFFFFFFFFFFFF
310
FFFFFFFFFFFFFFFFFFFFFFFFFFFFFFFFFFFFFFFFFFFFFFFFFFFFFFFFFFFFFFFF
310
FFFFFFFFFFFFFFFFFFFFFFFFFFFFFFFFFFFFFFFFFFFFFFFFFFFFFFFFFFFFFFFF
310
FFFFFFFFFFFFFFFFFFFFFFFFFFFFFFFFFFFFFFFFFFFFFFFFFFFFFFFFFFFFFFFF
310
FFFFFFFFFFFFFFFFFFFFFFFFFFFFFFFFFFFFFFFFFFFFFFFFFFFFFFFFFFFFFFFF
310
FFFFFFFFFFFFFFFFFFFFFFFFFFFFFFFFFFFFFFFFFFFFFFFFFFFFFFFFFFFFFFFF
310
FFFFFFFFFFFFFFFFFFFFFFFFFFFFFFFFFFFFFFFFFFFFFFFFFFFFFFFFFFFFFFFF
310
FFFFFFFFFFFFFFFFFFFFFFFFFFFFFFFFFFFFFFFFFFFFFFFFFFFFFFFFFFFFFFFF
310
52006F006F007400200045006E00740072007900000000000000000000000000
310
0000000000000000000000000000000000000000000000000000000000000000
310
16000500FFFFFFFFFFFFFFFF020000000A00030000000000C000000000000046
310
000000000000000000000000E0F2B02D75E8CB0103000000C000000000000000
310
01004F006C006500000000000000000000000000000000000000000000000000
310
0000000000000000000000000000000000000000000000000000000000000000
310
0A000200FFFFFFFFFFFFFFFFFFFFFFFF00000000000000000000000000000000
310
0000000000000000000000000000000000000000000000001400000000000000
310
010043006F006D0070004F0062006A0000000000000000000000000000000000
310
0000000000000000000000000000000000000000000000000000000000000000
310
120002010100000003000000FFFFFFFF00000000000000000000000000000000
310
0000000000000000000000000000000000000000010000004D00000000000000
310
01004F006C006500310030004E00610074006900760065000000000000000000
310
0000000000000000000000000000000000000000000000000000000000000000
310
1A000200FFFFFFFFFFFFFFFFFFFFFFFF00000000000000000000000000000000
310
0000000000000000000000000000000000000000040000002426000000000000
310
FEFFFFFF02000000FEFFFFFFFFFFFFFFFFFFFFFFFFFFFFFFFFFFFFFFFFFFFFFF
310
FFFFFFFFFFFFFFFFFFFFFFFFFFFFFFFFFFFFFFFFFFFFFFFFFFFFFFFFFFFFFFFF
310
FFFFFFFFFFFFFFFFFFFFFFFFFFFFFFFFFFFFFFFFFFFFFFFFFFFFFFFFFFFFFFFF
310
FFFFFFFFFFFFFFFFFFFFFFFFFFFFFFFFFFFFFFFFFFFFFFFFFFFFFFFFFFFFFFFF
310
FFFFFFFFFFFFFFFFFFFFFFFFFFFFFFFFFFFFFFFFFFFFFFFFFFFFFFFFFFFFFFFF
310
FFFFFFFFFFFFFFFFFFFFFFFFFFFFFFFFFFFFFFFFFFFFFFFFFFFFFFFFFFFFFFFF
310
FFFFFFFFFFFFFFFFFFFFFFFFFFFFFFFFFFFFFFFFFFFFFFFFFFFFFFFFFFFFFFFF
310
FFFFFFFFFFFFFFFFFFFFFFFFFFFFFFFFFFFFFFFFFFFFFFFFFFFFFFFFFFFFFFFF
310
FFFFFFFFFFFFFFFFFFFFFFFFFFFFFFFFFFFFFFFFFFFFFFFFFFFFFFFFFFFFFFFF
310
FFFFFFFFFFFFFFFFFFFFFFFFFFFFFFFFFFFFFFFFFFFFFFFFFFFFFFFFFFFFFFFF
310
FFFFFFFFFFFFFFFFFFFFFFFFFFFFFFFFFFFFFFFFFFFFFFFFFFFFFFFFFFFFFFFF
310
FFFFFFFFFFFFFFFFFFFFFFFFFFFFFFFFFFFFFFFFFFFFFFFFFFFFFFFFFFFFFFFF
310
FFFFFFFFFFFFFFFFFFFFFFFFFFFFFFFFFFFFFFFFFFFFFFFFFFFFFFFFFFFFFFFF
310
FFFFFFFFFFFFFFFFFFFFFFFFFFFFFFFFFFFFFFFFFFFFFFFFFFFFFFFFFFFFFFFF
310
FFFFFFFFFFFFFFFFFFFFFFFFFFFFFFFFFFFFFFFFFFFFFFFFFFFFFFFFFFFFFFFF
310
FFFFFFFFFFFFFFFFFFFFFFFFFFFFFFFFFFFFFFFFFFFFFFFFFFFFFFFFFFFFFFFF
310
0100000200000000000000000000000000000000000000004E00820000000005
310
A807250000000000A807250000000000D00F760100000000FE0F840100000000
310
0100FEFF030A0000FFFFFFFF0A00030000000000C00000000000004607000000
310
5042727573680007000000504272757368000700000050427275736800F439B2
310
7100000000000000000000000000000000000000000000000000C70600000000
310
0000000000000000000000000000000000000000000000003800000041000000
310
D00F760100000000720F4E010000000000000000000000000000000000000000
310
0000C70600000000000000000000000000000000000000000000000000000000
310
3800000041000000D00F760100000000D20FAE01000000000000000000000000
310
00000000000000000000C7060000000000000000000000000000000000000000
310
00000000000000003800000041000000D00F760100000000F80F610100000000
310
000000000000000000000000000000000000C706000000000000000000000000
310
000000000000000000000000000000003800000041000000D00F760100000000
310
880F070100000000000000000000000000000000000000000000C70600000000
310
0000000000000000000000000000000000000000000000003800000041000000
310
D00F760100000000800FD2010000000000000000000000000000000000000000
310
20260000424D0E260000000000003E00000028000000B40200006E0000000100
310
01000000000000000000130B0000130B00000200000002000000000000FFFFFF
310
FFFFFFFFFFFFFFFFFFFFFFFFFFFFFFFFFFFFFFFFFFFFFFFFFFFFFFFFFFFFFFFF
310
FFFFFFFFFFFFFFFFFFFFFFFFFFFFFFFFFFFFFFFFFFFFFFFFFFFFFFFFFFFFFFFF
310
FFFFFFFFFFFFFFFFFFFFFFFFFFFFFFFFFFFFFFFFFFFFFFFFF000FFFFFFFFFFFF
310
FFFFFFFFFFFFFFFFFFFFFFFFFFFFFFFFFFFFFFFFFFFFFFFFFFFFFFFFFFFFFFFF
310
FFFFFFFFFFFFFFFFFFFFFFFFFFFFFFFFFFFFFFFFFFFFFFFFFFFFFFFFFFFFFFFF
310
FFFFFFFFFFFFFFFFFFFFFFFFFFFFFFFFF000FFFFFFFFFFFFFFFFFFFFFFFFFFFF
310
FFFFFFFFFFFFFFFFFFFFFFFFFFFFFFFFFFFFFFFFFFFFFFFFFFFFFFFFFFFFFFFF
310
FFFFFFFFFFFFFFFFFFFFFFFFFFFFFFFFFFFFFFFFFFFFFFFFFFFFFFFFFFFFFFFF
310
FFFFFFFFFFFFFFFFF000FFFFFFFFFFFFFFFFFFFFFFFFFFFFFFFFFFFFFFFFFFFF
310
FFFFFFFFFFFFFFFFFFFFFFFFFFFFFFFFFFFFFFFFFFFFFFFFFFFFFFFFFFFFFFFF
310
FFFFFFFFFFFFFFFFFFFFFFFFFFFFFFFFFFFFFFFFFFFFFFFFFFFFFFFFFFFFFFFF
310
F000FFFFFFFFFFFFFFFFFFFFFFFFFFFFFFFFFFFFFFFFFFFFFFFFFFFFFFFFFFFF
310
FFFFFFFFFFFFFFFFFFFFFFFFFFFFFFFFFFFFFFFFFFFFFFFFFFFFFFFFFFFFFFFF
310
FFFFFFFFFFFFFFFFFFFFFFFFFFFFFFFFFFFFFFFFFFFFFFFFF000FFFFFFFFFFFF
310
FFFFFFFFFFFFFFFFFFFFFFFFFFFFFFFFFFFFFFFFFFFFFFFFFFFFFFFFFFFFFFFF
310
FFFFFFFFFFFFFFFFFFFFFFFFFFFFFFFFFFFFFFFFFFFFFFFFFFFFFFFFFFFFFFFF
310
FFFFFFFFFFFFFFFFFFFFFFFFFFFFFFFFF000FFFFFFFFFFFFFFFFFFFFFFFFFFFF
310
FFFFFFFFFFFFFFFFFFFFFFFFFFFFFFFFFFFFFFFFFFFFFFFFFFFFFFFFFFFFFFFF
310
FFFFFFFFFFFFFFFFFFFFFFFFFFFFFFFFFFFFFFFFFFFFFFFFFFFFFFFFFFFFFFFF
310
FFFFFFFFFFFFFFFFF000FFFFFFFFFFFFFFFFFFFFFFFFFFFFFFFFFFFFFFFFFFFF
310
FFFFFFFFFFFFFFFFFFFFFFFFFFFFFFFFFFFFFFFFFFFFFFFFFFFFFFFFFFFFFFFF
310
FFFFFFFFFFFFFFFFFFFFFFFFFFFFFFFFFFFFFFFFFFFFFFFFFFFFFFFFFFFFFFFF
310
F000FFFFFFFFFFFFFFFFFFFFFFFFFFFFFFFFFFFFFFFFFFFFFFFFFFFFFFFFFFFF
310
FFFFFFFFFFFFFFFFFFFFFFFFFFFFFFFFFFFFFFFFFFFFFFFFFFFFFFFFFFFFFFFF
310
FFFFFFFFFFFFFFFFFFFFFFFFFFFFFFFFFFFFFFFFFFFFFFFFF000FFFFFFFFFFFF
310
FFFFFFFFFFFFFFFFFFFFFFFFFFFFFFFFFFFFFFFFFFFFFFFFFFFFFFFFFFFFFFFF
310
FFFFFFFFFFFFFFFFFFFFFFFFFFFFFFFFFFFFFFFFFFFFFFFFFFFFFFFFFFFFFFFF
310
FFFFFFFFFFFFFFFFFFFFFFFFFFFFFFFFF000FFFFFFFFFFFFFFFFFFFFFFFFFFFF
310
FFFFFFFFFFFFFFFFFFFFFFFFFFFFFFFFFFFFFFFFFFFFFFFFFFFFFFFFFFFFFFFF
310
FFFFFFFFFFFFFFFFFFFFFFFFFFFFFFFFFFFFFFFFFFFFFFFFFFFFFFFFFFFFFFFF
310
FFFFFFFFFFFFFFFFF000FFFFFFFFFFFFFFFFFFFFFFFFFFFFFFFFFFFFFFFFFFFF
310
FFFFFFFFFFFFFFFFFFFFFFFFFFFFFFFFFFFFFFFFFFFFFFFFFFFFFFFFFFFFFFFF
310
FFFFFFFFFFFFFFFFFFFFFFFFFFFFFFFFFFFFFFFFFFFFFFFFFFFFFFFFFFFFFFFF
310
F000FFFFFFFFFFFFFFFFFFFFFFFFFFFFFFFFFFFFFFFFFFFFFFFFFFFFFFFFFFFF
310
FFFFFFFFFFFFFFFFFFFFFFFFFFFFFFFFFFFFFFFFFFFFFFFFFFFFFFFFFFFFFFFF
310
FFFFFFFFFFFFFFFFFFFFFFFFFFFFFFFFFFFFFFFFFFFFFFFFF000FFFFFFFFFFFF
310
FFFFFFFFFFFFFFFFFFFFFFFFFFFFFFFFFFFFFFFFFFFFFFFFFFFFFFFFFFFFFFFF
310
FFFFFFFFFFFFFFFFFFFFFFFFFFFFFFFFFFFFFFFFFFFFFFFFFFFFFFFFFFFFFFFF
310
FFFFFFFFFFFFFFFFFFFFFFFFFFFFFFFFF000FFFFFFFFFFFFFFFFFFFFFFFFFFFF
310
FFFFFFFFFFFFFFFFFFFFFFFFFFFFFFFFFFFFFFFFFFFFFFFFFFFFFFFFFFFFFFFF
310
FFFFFFFFFFFFFFFFFFFFFFFFFFFFFFFFFFFFFFFFFFFFFFFFFFFFFFFFFFFFFFFF
310
FFFFFFFFFFFFFFFFF000FFFFFFFFFFFFFFFFFFFFFFFFFFFFFFFFFFFFFFFFFFFF
310
FFFFFFFFFFFFFFFFFFFFFFFFFFFFFFFFFFFFFFFFFFFFFFFFFFFFFFFFFFFFFFFF
310
FFFFFFFFFFFFFFFFFFFFFFFFFFFFFFFFFFFFFFFFFFFFFFFFFFFFFFFFFFFFFFFF
310
F000FFFFFFFFFFFFFFFFFFFFFFFFFFFFFFFFFFFFFFFFFFFFFFFFFFFFFFFFFFFF
310
FFFFFFFFFFFFFFFFFFFFFFFFFFFFFFFFFFFFFFFFFFFFFFFFFFFFFFFFFFFFFFFF
310
FFFFFFFFFFFFFFFFFFFFFFFFFFFFFFFFFFFFFFFFFFFFFFFFF000FFFFFFFFFFFF
310
FFFFFFFFFFFFFFFFFFFFFFFFFFFFFFFFFFFFFFFFFFFFFFFFFFFFFFFFFFFFFFFF
310
FFFFFFFFFFFFFFFFFFFFFFFFFFFFFFFFFFFFFFFFFFFFFFFFFFFFFFFFFFFFFFFF
310
FFFFFFFFFFFFFFFFFFFFFFFFFFFFFFFFF000FFFFFFFFFFFFFFFFFFFFFFFFFFFF
310
FFFFFFFFFFFFFFFFFFFFFFFFFFFFFFFFFFFFFFFFFFFFFFFFFFFFFFFFFFFFFFFF
310
FFFFFFFFFFFFFFFFFFFFFFFFFFFFFFFFFFFFFFFFFFFFFFFFFFFFFFFFFFFFFFFF
310
FFFFFFFFFFFFFFFFF000FFFFF80003FFFFFFFFFFFFFFFFFFFFFFFFFFFFFFFFFF
310
FFFFF00007FFFFFFFFFF00007FFFFFF800000000000000007FFFFFFFFFFFFFFF
310
FFFFFFFC001FFFFFFFFFFFFFFC001FFFFFFFFFFFFFFFFFFFFFFFFFFE0007FFFF
310
F000FFFF8000007FFFFFFFF8000FFFFFC0007FFFFF80007FFFFF0000007FFFFF
310
FFF8000007FFFFF800000000000000007FFFFFF0001FFFFFFFFFFFC00001FFFF
310
FFFFFFFFC00001FFFFFFFF000000000003FFFFE000007FFFF000FFFE0000000F
310
FFFFFFF0000FFFFF80007FFFFF80007FFFFC0000001FFFFFFFC0000001FFFFF8
310
00000000000000007FFFFFF0001FFFFFFFFFFE0000003FFFFFFFFFFE0000003F
310
FFFFFF000000000003FFFF0000000FFFF000FFF800000003FFFFFFF00007FFFF
310
80007FFFFF80007FFFF000000007FFFFFF000000003FFFF80000000000000000
310
7FFFFFF0001FFFFFFFFFF80000000FFFFFFFFFF80000000FFFFFFF0000000000
310
03FFFC00000003FFF000FFE000000000FFFFFFF00007FFFF80003FFFFF80007F
310
FFC000000001FFFFFC000000001FFFF800000000000000007FFFFFF0001FFFFF
310
FFFFE000000003FFFFFFFFE000000003FFFFFF000000000003FFF000000000FF
310
F000FF80000000007FFFFFF00007FFFF80003FFFFF80007FFF8000000000FFFF
310
F80000000007FFF800000000000000007FFFFFF0001FFFFFFFFFC000000001FF
310
FFFFFFC000000001FFFFFF000000000003FFC0000000007FF000FF0000000000
310
3FFFFFE00007FFFF00003FFFFF80007FFE00000000003FFFF00000000003FFF8
310
00000000000000007FFFFFF0001FFFFFFFFF8000000000FFFFFFFF8000000000
310
FFFFFF000000000003FF80000000003FF000FE00000000001FFFFFE00003FFFF
310
00003FFFFF80007FFC00000000001FFFE00000000001FFF8000001FFFE000000
310
7FFFFFF0001FFFFFFFFE00000000003FFFFFFE00000000003FFFFF0000000000
310
03FF00000000001FF000FC00000000000FFFFFE00003FFFF00001FFFFF80007F
310
F800000000001FFFC00000000000FFF8000001FFFE0000007FFFFFF0001FFFFF
310
FFFC00000000001FFFFFFC00000000001FFFFF000000000003FE00000000000F
310
F000F8000000000007FFFFE00003FFFF00001FFFFF80007FF800000000000FFF
310
800000000000FFF8000001FFFE0000007FFFFFF0001FFFFFFFF800000000000F
310
FFFFF800000000000FFFFF000000000003FC000000000007F000F80000000000
310
03FFFFC00003FFFE00001FFFFF80007FF0000000000007FF0000000000007FF8
310
000001FFFE0000007FFFFFF0001FFFFFFFF0000000000007FFFFF00000000000
310
07FFFF000000000003F8000000000003F000F0000000000003FFFFC00001FFFE
310
00001FFFFF80007FE0000000000007FE0000000000003FF8000001FFFE000000
310
7FFFFFF0001FFFFFFFF0000000000007FFFFF0000000000007FFFF0000000000
310
03F800001F800003F000E00001FFF00001FFFFC00001FFFE00000FFFFF80007F
310
E00001FFE00003FE00001FFF00003FF8000001FFFE0000007FFFFFF0001FFFFF
310
FFE000003E000003FFFFE000003E000003FFFF000000000003F00001FFF80001
310
F000E00007FFFC0001FFFFC00001FFFE00000FFFFF80007FC0000FFFFC0003FC
310
0000FFFFC0001FF8000001FFFE0000007FFFFFF0001FFFFFFFC00003FFE00001
310
FFFFC00003FFE00001FFFF0001FFFFFFFFF00007FFFE0001F000E0000FFFFF00
310
00FFFF800001FFFC00000FFFFF80007FC0001FFFFE0001FC0001FFFFE0001FF8
310
000001FFFE0000007FFFFFF0001FFFFFFF80000FFFF80000FFFF80000FFFF800
310
00FFFF0003FFFFFFFFE0000FFFFF8000F000C0003FFFFF8000FFFF800000FFFC
310
000007FFFF80007F80003FFFFF0001FC0003FFFFF0001FF8000001FFFE000000
310
7FFFFFF0001FFFFFFF80003FFFFE0000FFFF80003FFFFE0000FFFF0003FFFFFF
310
FFE0003FFFFF8000F000C0003FFFFF8000FFFF800000FFFC000007FFFF80007F
310
80007FFFFF8001F80007FFFFF8000FF8000001FFFE0000007FFFFFF0001FFFFF
310
FF00007FFFFF00007FFF00007FFFFF00007FFF0003FFFFFFFFE0003FFFFFC000
310
F000C0007FFFFFC000FFFF000000FFFC000007FFFF80007F8000FFFFFF8000F8
310
000FFFFFF8000FF8000001FFFE0000007FFFFFF0001FFFFFFF0000FFFFFF8000
310
7FFF0000FFFFFF80007FFF0003FFFFFFFFC0007FFFFFC00070008000FFFFFFC0
310
00FFFF000000FFF8000007FFFF80007F8000FFFFFF8000F8000FFFFFF8000FF8
310
000001FFFE0000007FFFFFF0001FFFFFFE0001FFFFFFC0003FFE0001FFFFFFC0
310
003FFF0003FFFFFFFFC0007FFFFFE00070008000FFFFFFC0007FFF0000007FF8
310
000003FFFF80007F0001FFFFFF8000F8000FFFFFF8000FF8000001FFFE000000
310
7FFFFFF0001FFFFFFE0001FFFFFFC0003FFE0001FFFFFFC0003FFF0003FFFFFF
310
FFC000FFFFFFE00070008000FFFFFFC0007FFF0000007FF8000003FFFF80007F
310
0001FFFFFF8000F8001FFFFFF8000FF8000001FFFE0000007FFFFFF0001FFFFF
310
FE0003FFFFFFE0003FFE0003FFFFFFE0003FFF0003FFFFFFFFC000FFFFFFE000
310
70008000FFFFFFC0007FFE0000007FF8000003FFFF80007F0001FFFFFF8000F0
310
001FFFFFF8000FF8000001FFFE0000007FFFFFF0001FFFFFFC0003FFFFFFE000
310
1FFC0003FFFFFFE0001FFF0003FFFFFFFFC000FFFFFFC00070008000FFFFFF80
310
007FFE0000007FF0000003FFFF80007F0001FFFFFF0000F0001FFFFFF8000FF8
310
000001FFFE0000007FFFFFF0001FFFFFFC0007FFFFFFF0001FFC0007FFFFFFF0
310
001FFF0003FFFFFFFFC000FFFFFFC00070008001FFFFFF0000FFFE0000003FF0
310
000001FFFF80007F0001FFFFFF0000F8001FFFFFF0000FF8000001FFFE000000
310
7FFFFFF0001FFFFFFC0007FFFFFFF0001FFC0007FFFFFFF0001FFF0003FFFFFF
310
FFC001FFFFFF80007000FFFFFFFFFE0000FFFE0008003FF0008001FFFF80007F
310
FFFFFFFFFC0000FFFFFFFFFFE0000FF8000001FFFE0000007FFFFFF0001FFFFF
310
F8000FFFFFFFF8000FF8000FFFFFFFF8000FFF0003FFFFFFFFFFFFFFFFFF0000
310
7000FFFFFFFFFC0000FFFC0008003FF0008001FFFF80007FFFFFFFFFF80001FF
310
FFFFFFFF80000FF8000001FFFE0000007FFFFFF0001FFFFFF8000FFFFFFFF800
310
0FF8000FFFFFFFF8000FFF0003FFFFFFFFFFFFFFFFFE0000F000FFFFFFFFE000
310
00FFFC000C003FE000C001FFFF80007FFFFFFFFFC00001FFFFFFFFFE00001FF8
310
000001FFFE0000007FFFFFF0001FFFFFF8000FFFFFFFF8000FF8000FFFFFFFF8
310
000FFF0003FFFFFFFFFFFFFFFFF00000F000FFFFFFFE000001FFFC000C001FE0
310
00C000FFFF80007FFFFFFFFE000001FFFFFFFFE000001FF80FFFFFFFFFFFFFC0
310
7FFFFFF0001FFFFFF8000FFFFFFFF8000FF8000FFFFFFFF8000FFF0003FFFFFF
310
FFFFFFFFFF800000F000FFFFFFC0000001FFFC001C001FE001C000FFFF80007F
310
FFFFFF80000003FFFFFFF80000001FF80FFFFFFFFFFFFFC07FFFFFF0001FFFFF
310
F8001FFFFFFFFC000FF8001FFFFFFFFC000FFF0003FFFFFFFFFFFFFFF0000001
310
F000FFFFF800000001FFF8001C001FE001C000FFFF80007FFFFFF800000003FF
310
FFFF800000003FF80FFFFFFFFFFFFFC07FFFFFF0001FFFFFF8001FFFFFFFFC00
310
0FF8001FFFFFFFFC000FFF0003FFFFFFFFFFFFFE00000001F000FFFFC0000000
310
03FFF8001E001FC001E000FFFF80007FFFFF8000000007FFFFFC000000003FF8
310
0FFFFFFFFFFFFFC07FFFFFF0001FFFFFF8001FFFFFFFFC000FF8001FFFFFFFFC
310
000FFF0003FFFFFFFFFFFFE000000003F000FFFE0000000007FFF8001E000FC0
310
01E0007FFF80007FFFFE0000000007FFFFE0000000007FF80FFFFFFFFFFFFFC0
310
7FFFFFF0001FFFFFF0001FFFFFFFFC0007F0001FFFFFFFFC0007FF0003FFFFFF
310
FFFFFF0000000003F000FFF80000000007FFF8001E000FC003E0007FFF80007F
310
FFF0000000000FFFFF8000000000FFF80FFFFFFFFFFFFFC07FFFFFF0001FFFFF
310
F0001FFFFFFFFC0007F0001FFFFFFFFC0007FF0003FFFFFFFFFFFC0000000007
310
F000FFE0000000000FFFF0003E000FC003E0007FFF80007FFFC0000000001FFF
310
FE0000000001FFF80FFFFFFFFFFFFFC07FFFFFF0001FFFFFF0001FFFFFFFFC00
310
07F0001FFFFFFFFC0007FF0003FFFFFFFFFFF0000000000FF000FFC000000000
310
1FFFF0003F000F8003F0003FFF80007FFF80000000003FFFF80000000003FFF8
310
0FFFFFFFFFFFFFC07FFFFFF0001FFFFFF0001FFFFFFFFC0007F0001FFFFFFFFC
310
0007FF0003FFFFFFFFFFE0000000001FF000FF00000000007FFFF0003F000780
310
03F0003FFF80007FFF00000000007FFFF00000000007FFF80FFFFFFFFFFFFFC0
310
7FFFFFF0001FFFFFF0001FFFFFFFFC0007F0001FFFFFFFFC0007FF0003FFFFFF
310
FFFF80000000007FF000FE0000000000FFFFE0003F00078007F0003FFF80007F
310
FE0000000001FFFFE0000000001FFFF80FFFFFFFFFFFFFC07FFFFFF0001FFFFF
310
F0001FFFFFFFFC0007F0001FFFFFFFFC0007FF0003FFFFFFFFFF0000000000FF
310
F000FC0000000003FFFFE0007F00078007F0003FFF80007FFC0000000007FFFF
310
C0000000007FFFF80FFFFFFFFFFFFFC07FFFFFF0001FFFFFF8001FFFFFFFFC00
310
0FF8001FFFFFFFFC000FFF0003FFFFFFFFFE0000000003FFF000FC000000000F
310
FFFFE0007F80070007F8001FFF80007FF8000000001FFFFF8000000001FFFFF8
310
0FFFFFFFFFFFFFC07FFFFFF0001FFFFFF8001FFFFFFFFC000FF8001FFFFFFFFC
310
000FFF0003FFFFFFFFFC000000000FFFF000F8000000007FFFFFE0007F800700
310
07F8001FFF80007FF000000000FFFFFF800000000FFFFFF80FFFFFFFFFFFFFC0
310
7FFFFFF0001FFFFFF8000FFFFFFFF8000FF8000FFFFFFFF8000FFF0003FFFFFF
310
FFFC000000007FFFF000F800000007FFFFFFC0007F8003000FF8001FFF80007F
310
F000000007FFFFFF000000007FFFFFF80FFFFFFFFFFFFFC07FFFFFF0001FFFFF
310
F8000FFFFFFFF8000FF8000FFFFFFFF8000FFF0003FFFFFFFFF80000000FFFFF
310
F000F0000000FFFFFFFFC000FF8003000FF8001FFF80007FE0000000FFFFFFFF
310
0000000FFFFFFFF8000001FFFE0000007FFFFFF0001FFFFFF8000FFFFFFFF800
310
0FF8000FFFFFFFF8000FFF0003FFFFFFFFF8000000FFFFFFF000F000000FFFFF
310
FFFFC000FFC002000FF8000FFF80007FE000001FFFFFFFFE000001FFFFFFFFF8
310
000001FFFE0000007FFFFFF0001FFFFFF8000FFFFFFFF8000FF8000FFFFFFFF8
310
000FFF0003FFFFFFFFF000001FFFFFFFF000E00000FFFFFFFFFFC000FFC00200
310
0FFC000FFF80007FE00001FFFFFFFFFE00001FFFFFFFFFF8000001FFFE000000
310
7FFFFFF0001FFFFFFC000FFFFFFFF8001FFC000FFFFFFFF8001FFF0003FFFFFF
310
FFF00001FFFFFFFFF000E00007FFFFFFFFFF8000FFC000001FFC000FFF80007F
310
C0000FFFFFFFFFFE0000FFFFFFFFFFF8000001FFFE0000007FFFFFF0001FFFFF
310
FC0007FFFFFFF0001FFC0007FFFFFFF0001FFF0003FFFFFFFFF00007FFFFFFFF
310
F000E0001FFFFFFFFFFF8000FFC000001FFC000FFF80007FC0003FFFFFFFFFFE
310
0001FFFFFFFFFFF8000001FFFE0000007FFFFFF0001FFFFFFC0007FFFFFFF000
310
1FFC0007FFFFFFF0001FFF0003FFFFFFFFF0001FFFFFFFFFF000E0003FFFFF00
310
03FF8001FFE000001FFC0007FF80007FC0007FFFFF0007FC0003FFFFF0003FF8
310
000001FFFE0000007FFFFFF0001FFFFFFC0003FFFFFFE0001FFC0003FFFFFFE0
310
001FFF0003FFFFFFFFF0003FFFFFFFFFF000E0003FFFFF0001FF8001FFE00000
310
1FFE0007FF80007FC0007FFFFE0003FC0007FFFFE0003FF8000001FFFE000000
310
7FFFFFF0001FFFFFFE0003FFFFFFE0003FFE0003FFFFFFE0003FFF0003FFFFFF
310
FFF0003FFFFF8001F000E0003FFFFF0001FF0001FFE000001FFE0007FF80007F
310
C0007FFFFE0003FC0007FFFFE0003FF8000001FFFE0000007FFFFFF0001FFFFF
310
FE0001FFFFFFC0003FFE0001FFFFFFC0003FFF0003FFFFFFFFF0003FFFFF0001
310
F000E0003FFFFF0003FF0001FFE000003FFE0007FF80007FC0007FFFFE0003FC
310
0007FFFFE0003FF8000001FFFE0000007FFFFFF0001FFFFFFF0001FFFFFFC000
310
7FFF0001FFFFFFC0007FFF0003FFFFFFFFF0003FFFFF0001F000E0003FFFFE00
310
03FF0003FFF000003FFE0003FF80007FC0007FFFFC0003FE0007FFFFE0003FF8
310
000001FFFE0000007FFFFFF0001FFFFFFF0000FFFFFF80007FFF0000FFFFFF80
310
007FFF0003FFFFFFFFF0003FFFFF0001F000E0003FFFFE0003FF0003FFF00000
310
3FFF0003FF80007FC0007FFFFC0007FE0007FFFFC0003FF8000001FFFE000000
310
7FFFFFF0001FFFFFFF80007FFFFF0000FFFF80007FFFFF0000FFFF0003FFFFFF
310
FFF0003FFFFF0003F000E0003FFFFC0003FE0003FFF000003FFF0003FF80007F
310
E0003FFFF80007FE0003FFFFC0007FF8000001FFFE0000007FFFFFF0001FFFFF
310
FF80003FFFFE0000FFFF80003FFFFE0000FFFF0003FFFFFFFFF0001FFFFE0003
310
F000F0001FFFF80003FE0003FFF000007FFF0001FF80007FE0003FFFF00007FE
310
0001FFFF80007FF8000001FFFE0000007FFFFFF0001FFFFFFFC0000FFFF80001
310
FFFFC0000FFFF80001FFFF0003FFFFFFFFF0001FFFFC0003F000F0000FFFF000
310
07FE0007FFF800007FFF0001FF80007FE0001FFFE00007FF0000FFFE00007FF8
310
000001FFFE0000007FFFFFF0001FFFFFFFC00003FFE00001FFFFC00003FFE000
310
01FFFF0003FFFFFFFFF8000FFFF80003F000F00003FFC00007FC0007FFF80000
310
7FFF8001FF80007FF00007FF80000FFF00007FF80000FFF8000001FFFE000000
310
7F80000000000001FFE000003E000003FFFFE000003E000003FFFF0003FFFFFF
310
FFF80003FFE00007F000F800000000000FFC0007FFF800007FFF8001FF80007F
310
F000000000000FFF000000000000FFF8000001FFFE0000007F80000000000001
310
FFF0000000000007FFFFF0000000000007FFFF0003FFFFFFFFFC00007E000007
310
F000F800000000000FFC0007FFF80000FFFF8000FF80007FF800000000001FFF
310
800000000001FFF8000001FFFE0000007F80000000000001FFF800000000000F
310
FFFFF800000000000FFFFF0003FFFFFFFFFC00000000000FF000FC0000000000
310
1FFC0007FFFC0000FFFF8000FF80007FF800000000003FFFC00000000001FFF8
310
000001FFFE0000007F80000000000001FFF800000000000FFFFFF80000000000
310
0FFFFF0003FFFFFFFFFE00000000001FF000FE00000000003FF8000FFFFC0000
310
FFFF8000FF80007FFC00000000003FFFC00000000003FFF8000001FFFE000000
310
7F80000000000001FFFC00000000001FFFFFFC00000000001FFFFF0003FFFFFF
310
FFFF00000000001FF000FF00000000003FF8000FFFFC0000FFFFC000FF80007F
310
FE00000000007FFFE00000000007FFF8000001FFFE0000007F80000000000001
310
FFFE00000000003FFFFFFE00000000003FFFFF0003FFFFFFFFFF80000000003F
310
F000FF80000000007FF8000FFFFC0001FFFFC0007F80007FFF0000000000FFFF
310
F0000000000FFFF800000000000000007F80000000000001FFFF8000000000FF
310
FFFFFF8000000000FFFFFF0003FFFFFFFFFFC0000000007FF000FFC000000000
310
FFF8000FFFFE0001FFFFC0007F80007FFF8000000001FFFFF8000000001FFFF8
310
00000000000000007F80000000000001FFFFC000000001FFFFFFFFC000000001
310
FFFFFF0003FFFFFFFFFFE000000000FFF000FFE000000003FFF0001FFFFE0001
310
FFFFC0007F80007FFFC000000007FFFFFE000000003FFFF80000000000000000
310
7F80000000000001FFFFE000000003FFFFFFFFE000000003FFFFFF0003FFFFFF
310
FFFFF000000003FFF000FFF80000000FFFF0001FFFFE0001FFFFE0007F80007F
310
FFF00000000FFFFFFF00000000FFFFF800000000000000007F80000000000001
310
FFFFF80000000FFFFFFFFFF80000000FFFFFFF0003FFFFFFFFFFFC0000000FFF
310
F000FFFE0000003FFFF0001FFFFE0003FFFFE0003F80007FFFFC0000003FFFFF
310
FFC0000003FFFFF800000000000000007F80000000000001FFFFFE0000003FFF
310
FFFFFFFE0000003FFFFFFF0003FFFFFFFFFFFF0000003FFFF000FFFF800000FF
310
FFF0001FFFFF0003FFFFE0003F80007FFFFF000001FFFFFFFFF800001FFFFFF8
310
00000000000000007F80000000000001FFFFFFC00001FFFFFFFFFFFFC00001FF
310
FFFFFF0003FFFFFFFFFFFFC00000FFFFF000FFFFF8000FFFFFFFFFFFFFFFFFFF
310
FFFFFFFFFFFFFFFFFFFFF0001FFFFFFFFFFF0000FFFFFFF80000000000000000
310
7FFFFFFFFFFFFFFFFFFFFFFC001FFFFFFFFFFFFFFC001FFFFFFFFFFFFFFFFFFF
310
FFFFFFFC001FFFFFF000FFFFFFFFFFFFFFFFFFFFFFFFFFFFFFFFFFFFFFFFFFFF
310
FFFFFFFFFFFFFFFFFFFFFFFFFFFFFFFFFFFFFFFFFFFFFFFFFFFFFFFFFFFFFFFF
310
FFFFFFFFFFFFFFFFFFFFFFFFFFFFFFFFFFFFFFFFFFFFFFFFFFFFFFFFFFFFFFFF
310
F000FFFFFFFFFFFFFFFFFFFFFFFFFFFFFFFFFFFFFFFFFFFFFFFFFFFFFFFFFFFF
310
FFFFFFFFFFFFFFFFFFFFFFFFFFFFFFFFFFFFFFFFFFFFFFFFFFFFFFFFFFFFFFFF
310
FFFFFFFFFFFFFFFFFFFFFFFFFFFFFFFFFFFFFFFFFFFFFFFFF000FFFFFFFFFFFF
310
FFFFFFFFFFFFFFFFFFFFFFFFFFFFFFFFFFFFFFFFFFFFFFFFFFFFFFFFFFFFFFFF
310
FFFFFFFFFFFFFFFFFFFFFFFFFFFFFFFFFFFFFFFFFFFFFFFFFFFFFFFFFFFFFFFF
310
FFFFFFFFFFFFFFFFFFFFFFFFFFFFFFFFF000FFFFFFFFFFFFFFFFFFFFFFFFFFFF
310
FFFFFFFFFFFFFFFFFFFFFFFFFFFFFFFFFFFFFFFFFFFFFFFFFFFFFFFFFFFFFFFF
310
FFFFFFFFFFFFFFFFFFFFFFFFFFFFFFFFFFFFFFFFFFFFFFFFFFFFFFFFFFFFFFFF
310
FFFFFFFFFFFFFFFFF000FFFFFFFFFFFFFFFFFFFFFFFFFFFFFFFFFFFFFFFFFFFF
310
FFFFFFFFFFFFFFFFFFFFFFFFFFFFFFFFFFFFFFFFFFFFFFFFFFFFFFFFFFFFFFFF
310
FFFFFFFFFFFFFFFFFFFFFFFFFFFFFFFFFFFFFFFFFFFFFFFFFFFFFFFFFFFFFFFF
310
F000FFFFFFFFFFFFFFFFFFFFFFFFFFFFFFFFFFFFFFFFFFFFFFFFFFFFFFFFFFFF
310
FFFFFFFFFFFFFFFFFFFFFFFFFFFFFFFFFFFFFFFFFFFFFFFFFFFFFFFFFFFFFFFF
310
FFFFFFFFFFFFFFFFFFFFFFFFFFFFFFFFFFFFFFFFFFFFFFFFF000FFFFFFFFFFFF
310
FFFFFFFFFFFFFFFFFFFFFFFFFFFFFFFFFFFFFFFFFFFFFFFFFFFFFFFFFFFFFFFF
310
FFFFFFFFFFFFFFFFFFFFFFFFFFFFFFFFFFFFFFFFFFFFFFFFFFFFFFFFFFFFFFFF
310
FFFFFFFFFFFFFFFFFFFFFFFFFFFFFFFFF000FFFFFFFFFFFFFFFFFFFFFFFFFFFF
310
FFFFFFFFFFFFFFFFFFFFFFFFFFFFFFFFFFFFFFFFFFFFFFFFFFFFFFFFFFFFFFFF
310
FFFFFFFFFFFFFFFFFFFFFFFFFFFFFFFFFFFFFFFFFFFFFFFFFFFFFFFFFFFFFFFF
310
FFFFFFFFFFFFFFFFF000FFFFFFFFFFFFFFFFFFFFFFFFFFFFFFFFFFFFFFFFFFFF
310
FFFFFFFFFFFFFFFFFFFFFFFFFFFFFFFFFFFFFFFFFFFFFFFFFFFFFFFFFFFFFFFF
310
FFFFFFFFFFFFFFFFFFFFFFFFFFFFFFFFFFFFFFFFFFFFFFFFFFFFFFFFFFFFFFFF
310
F000FFFFFFFFFFFFFFFFFFFFFFFFFFFFFFFFFFFFFFFFFFFFFFFFFFFFFFFFFFFF
310
FFFFFFFFFFFFFFFFFFFFFFFFFFFFFFFFFFFFFFFFFFFFFFFFFFFFFFFFFFFFFFFF
310
FFFFFFFFFFFFFFFFFFFFFFFFFFFFFFFFFFFFFFFFFFFFFFFFF000FFFFFFFFFFFF
310
FFFFFFFFFFFFFFFFFFFFFFFFFFFFFFFFFFFFFFFFFFFFFFFFFFFFFFFFFFFFFFFF
310
FFFFFFFFFFFFFFFFFFFFFFFFFFFFFFFFFFFFFFFFFFFFFFFFFFFFFFFFFFFFFFFF
310
FFFFFFFFFFFFFFFFFFFFFFFFFFFFFFFFF000FFFFFFFFFFFFFFFFFFFFFFFFFFFF
310
FFFFFFFFFFFFFFFFFFFFFFFFFFFFFFFFFFFFFFFFFFFFFFFFFFFFFFFFFFFFFFFF
310
FFFFFFFFFFFFFFFFFFFFFFFFFFFFFFFFFFFFFFFFFFFFFFFFFFFFFFFFFFFFFFFF
310
FFFFFFFFFFFFFFFFF000FFFFFFFFFFFFFFFFFFFFFFFFFFFFFFFFFFFFFFFFFFFF
310
FFFFFFFFFFFFFFFFFFFFFFFFFFFFFFFFFFFFFFFFFFFFFFFFFFFFFFFFFFFFFFFF
310
FFFFFFFFFFFFFFFFFFFFFFFFFFFFFFFFFFFFFFFFFFFFFFFFFFFFFFFFFFFFFFFF
310
F000FFFFFFFFFFFFFFFFFFFFFFFFFFFFFFFFFFFFFFFFFFFFFFFFFFFFFFFFFFFF
310
FFFFFFFFFFFFFFFFFFFFFFFFFFFFFFFFFFFFFFFFFFFFFFFFFFFFFFFFFFFFFFFF
310
FFFFFFFFFFFFFFFFFFFFFFFFFFFFFFFFFFFFFFFFFFFFFFFFF000FFFFFFFFFFFF
310
FFFFFFFFFFFFFFFFFFFFFFFFFFFFFFFFFFFFFFFFFFFFFFFFFFFFFFFFFFFFFFFF
310
FFFFFFFFFFFFFFFFFFFFFFFFFFFFFFFFFFFFFFFFFFFFFFFFFFFFFFFFFFFFFFFF
310
FFFFFFFFFFFFFFFFFFFFFFFFFFFFFFFFF000FFFFFFFFFFFFFFFFFFFFFFFFFFFF
310
FFFFFFFFFFFFFFFFFFFFFFFFFFFFFFFFFFFFFFFFFFFFFFFFFFFFFFFFFFFFFFFF
310
FFFFFFFFFFFFFFFFFFFFFFFFFFFFFFFFFFFFFFFFFFFFFFFFFFFFFFFFFFFFFFFF
310
FFFFFFFFFFFFFFFFF000FFFFFFFFFFFFFFFFFFFFFFFFFFFFFFFFFFFFFFFFFFFF
310
FFFFFFFFFFFFFFFFFFFFFFFFFFFFFFFFFFFFFFFFFFFFFFFFFFFFFFFFFFFFFFFF
310
FFFFFFFFFFFFFFFFFFFFFFFFFFFFFFFFFFFFFFFFFFFFFFFFFFFFFFFFFFFFFFFF
310
F000FFFFFFFFFFFFFFFFFFFFFFFFFFFFFFFFFFFFFFFFFFFFFFFFFFFFFFFFFFFF
310
FFFFFFFFFFFFFFFFFFFFFFFFFFFFFFFFFFFFFFFFFFFFFFFFFFFFFFFFFFFFFFFF
310
FFFFFFFFFFFFFFFFFFFFFFFFFFFFFFFFFFFFFFFFFFFFFFFFF000FFFFFFFFFFFF
310
FFFFFFFFFFFFFFFFFFFFFFFFFFFFFFFFFFFFFFFFFFFFFFFFFFFFFFFFFFFFFFFF
310
FFFFFFFFFFFFFFFFFFFFFFFFFFFFFFFFFFFFFFFFFFFFFFFFFFFFFFFFFFFFFFFF
310
FFFFFFFFFFFFFFFFFFFFFFFFFFFFFFFFF000FFFFFFFFFFFFFFFFFFFFFFFFFFFF
310
FFFFFFFFFFFFFFFFFFFFFFFFFFFFFFFFFFFFFFFFFFFFFFFFFFFFFFFFFFFFFFFF
310
FFFFFFFFFFFFFFFFFFFFFFFFFFFFFFFFFFFFFFFFFFFFFFFFFFFFFFFFFFFFFFFF
310
FFFFFFFFFFFFFFFFF000FFFFFFFFFFFFFFFFFFFFFFFFFFFFFFFFFFFFFFFFFFFF
310
FFFFFFFFFFFFFFFFFFFFFFFFFFFFFFFFFFFFFFFFFFFFFFFFFFFFFFFFFFFFFFFF
310
FFFFFFFFFFFFFFFFFFFFFFFFFFFFFFFFFFFFFFFFFFFFFFFFFFFFFFFFFFFFFFFF
310
F000FFFFFFFFFFFFFFFFFFFFFFFFFFFFFFFFFFFFFFFFFFFFFFFFFFFFFFFFFFFF
310
FFFFFFFFFFFFFFFFFFFFFFFFFFFFFFFFFFFFFFFFFFFFFFFFFFFFFFFFFFFFFFFF
310
FFFFFFFFFFFFFFFFFFFFFFFFFFFFFFFFFFFFFFFFFFFFFFFFF000FFFFFFFFFFFF
310
FFFFFFFFFFFFFFFFFFFFFFFFFFFFFFFFFFFFFFFFFFFFFFFFFFFFFFFFFFFFFFFF
310
FFFFFFFFFFFFFFFFFFFFFFFFFFFFFFFFFFFFFFFFFFFFFFFFFFFFFFFFFFFFFFFF
310
FFFFFFFFFFFFFFFFFFFFFFFFFFFFFFFFF0000000000000000000000000000000
310
0000000000000000000000000000000000000000000000000000000000000000
310
0000000000000000000000000000000000000000000000000000000000000000
310
0000000000000000000000000000000000000000000000000000000000000000
310
000000000000000052006500670075006C006100720000000000000000000000
310
0000000000000000000000000000000000000000000000000000000000000000
310
00000000000000000000FFFFFFFFFFFFFFFFFFFFFFFFFFFFFFFFFFFFFFFFFFFF
310
FFFFFFFFFFFFFF00000000000000000000000000000000000000000000000000
310
00000000000000006476000800000000000000001EFF1F203000000024000000
310
0C00000010000000020000002900000073000000900100000000000060000000
310
6000000020001E201F0020000000000700FFFFFF4000000000080000150C0000
310
3F0A0000000000000000000000000000000000000000000000000000616C0008
310
00000000E401000070010000040000002D000000120000000000000000000000
310
90010000000000000302010247006F0074006800690063004900000000000000
310
0000000000000000000000000000000000000000000000000000000000000000
310
00000000000000000000000047006F0074006800690063004900000000000000
  1
OLE
  0
ENDSEC
  0
SECTION
  2
OBJECTS
  0
DICTIONARY
  5
C
330
0
100
AcDbDictionary
281
     1
  3
ACAD_GROUP
350
D
  3
ACAD_LAYOUT
350
1A
  3
ACAD_MLEADERSTYLE
350
2AE
  3
ACAD_MLINESTYLE
350
17
  3
ACAD_PLOTSETTINGS
350
19
  3
ACAD_PLOTSTYLENAME
350
E
  3
ACAD_TABLESTYLE
350
2AD
  3
ACAD_VISUALSTYLE
350
2A
  3
AcDbVariableDictionary
350
2AF
  0
DICTIONARY
  5
D
102
{ACAD_REACTORS
330
C
102
}
330
C
100
AcDbDictionary
281
     1
  0
DICTIONARY
  5
1A
102
{ACAD_REACTORS
330
C
102
}
330
C
100
AcDbDictionary
281
     1
  3
Layout1
350
1E
  3
Layout2
350
26
  3
Model
350
22
  0
DICTIONARY
  5
2AE
102
{ACAD_REACTORS
330
C
102
}
330
C
100
AcDbDictionary
281
     1
  0
DICTIONARY
  5
17
102
{ACAD_REACTORS
330
C
102
}
330
C
100
AcDbDictionary
281
     1
  3
Standard
350
18
  0
DICTIONARY
  5
19
102
{ACAD_REACTORS
330
C
102
}
330
C
100
AcDbDictionary
281
     1
  0
ACDBDICTIONARYWDFLT
  5
E
102
{ACAD_REACTORS
330
C
102
}
330
C
100
AcDbDictionary
281
     1
  3
Normal
350
F
100
AcDbDictionaryWithDefault
340
F
  0
DICTIONARY
  5
2AD
102
{ACAD_REACTORS
330
C
102
}
330
C
100
AcDbDictionary
281
     1
  0
DICTIONARY
  5
2A
102
{ACAD_REACTORS
330
C
102
}
330
C
100
AcDbDictionary
281
     1
  3
2dWireframe
350
2F
  3
3D Hidden
350
31
  3
3dWireframe
350
30
  3
Basic
350
32
  3
Brighten
350
36
  3
ColorChange
350
3A
  3
Conceptual
350
34
  3
Dim
350
35
  3
Facepattern
350
39
  3
Flat
350
2B
  3
FlatWithEdges
350
2C
  3
Gouraud
350
2D
  3
GouraudWithEdges
350
2E
  3
Linepattern
350
38
  3
Realistic
350
33
  3
Thicken
350
37
  0
DICTIONARY
  5
2AF
102
{ACAD_REACTORS
330
C
102
}
330
C
100
AcDbDictionary
281
     1
  3
PSOLHEIGHT
350
2B1
  3
PSOLWIDTH
350
2B0
  0
LAYOUT
  5
1E
102
{ACAD_REACTORS
330
1A
102
}
330
1A
100
AcDbPlotSettings
  1

  2
none_device
  4

  6

 40
0.0
 41
0.0
 42
0.0
 43
0.0
 44
0.0
 45
0.0
 46
0.0
 47
0.0
 48
0.0
 49
0.0
140
0.0
141
0.0
142
1.0
143
1.0
 70
   688
 72
     0
 73
     0
 74
     5
  7

 75
    16
147
1.0
148
0.0
149
0.0
100
AcDbLayout
  1
Layout1
 70
     1
 71
     1
 10
0.0
 20
0.0
 11
420.0
 21
297.0
 12
0.0
 22
0.0
 32
0.0
 14
1.0000000000E+20
 24
1.0000000000E+20
 34
1.0000000000E+20
 15
-1.0000000000E+20
 25
-1.0000000000E+20
 35
-1.0000000000E+20
146
0.0
 13
0.0
 23
0.0
 33
0.0
 16
1.0
 26
0.0
 36
0.0
 17
0.0
 27
1.0
 37
0.0
 76
     0
330
1B
  0
LAYOUT
  5
26
102
{ACAD_REACTORS
330
1A
102
}
330
1A
100
AcDbPlotSettings
  1

  2
none_device
  4

  6

 40
0.0
 41
0.0
 42
0.0
 43
0.0
 44
0.0
 45
0.0
 46
0.0
 47
0.0
 48
0.0
 49
0.0
140
0.0
141
0.0
142
1.0
143
1.0
 70
   688
 72
     0
 73
     0
 74
     5
  7

 75
    16
147
1.0
148
0.0
149
0.0
100
AcDbLayout
  1
Layout2
 70
     1
 71
     2
 10
0.0
 20
0.0
 11
0.0
 21
0.0
 12
0.0
 22
0.0
 32
0.0
 14
0.0
 24
0.0
 34
0.0
 15
0.0
 25
0.0
 35
0.0
146
0.0
 13
0.0
 23
0.0
 33
0.0
 16
1.0
 26
0.0
 36
0.0
 17
0.0
 27
1.0
 37
0.0
 76
     0
330
23
  0
LAYOUT
  5
22
102
{ACAD_REACTORS
330
1A
102
}
330
1A
100
AcDbPlotSettings
  1

  2
none_device
  4

  6

 40
0.0
 41
0.0
 42
0.0
 43
0.0
 44
0.0
 45
0.0
 46
0.0
 47
0.0
 48
0.0
 49
0.0
140
0.0
141
0.0
142
1.0
143
1.0
 70
  1712
 72
     0
 73
     0
 74
     0
  7

 75
     0
147
1.0
148
0.0
149
0.0
100
AcDbLayout
  1
Model
 70
     1
 71
     0
 10
0.0
 20
0.0
 11
297.0
 21
210.0
 12
0.0
 22
0.0
 32
0.0
 14
0.0
 24
0.0
 34
0.0
 15
297.0
 25
210.0
 35
0.0
146
0.0
 13
0.0
 23
0.0
 33
0.0
 16
1.0
 26
0.0
 36
0.0
 17
0.0
 27
1.0
 37
0.0
 76
     0
330
1F
331
29
  0
MLINESTYLE
  5
18
102
{ACAD_REACTORS
330
17
102
}
330
17
100
AcDbMlineStyle
  2
Standard
 70
     0
  3

 62
   256
 51
90.0
 52
90.0
 71
     2
 49
0.5
 62
   256
  6
BYLAYER
 49
-0.5
 62
   256
  6
BYLAYER
  0
ACDBPLACEHOLDER
  5
F
102
{ACAD_REACTORS
330
E
102
}
330
E
  0
VISUALSTYLE
  5
2F
102
{ACAD_REACTORS
330
2A
102
}
330
2A
100
AcDbVisualStyle
  2
2dWireframe
 70
     4
 71
     0
 72
     2
 73
     0
 90
        0
 40
-0.6
 41
-30.0
 62
     5
 63
     7
 74
     1
 91
        4
 64
     7
 65
   257
 75
     1
175
     1
 42
1.0
 92
        0
 66
   257
 43
1.0
 76
     1
 77
     6
 78
     2
 67
     7
 79
     5
170
     0
171
     0
290
     0
174
     0
 93
        1
 44
0.0
173
     0
291
     0
 45
0.0
1001
ACAD
1000
AcDbSavedByObjectVersion
1070
     0
  0
VISUALSTYLE
  5
31
102
{ACAD_REACTORS
330
2A
102
}
330
2A
100
AcDbVisualStyle
  2
3D Hidden
 70
     6
 71
     1
 72
     2
 73
     2
 90
        0
 40
-0.6
 41
-30.0
 62
     5
 63
     7
 74
     2
 91
        2
 64
     7
 65
   257
 75
     2
175
     1
 42
40.0
 92
        0
 66
   257
 43
1.0
 76
     1
 77
     6
 78
     2
 67
     7
 79
     3
170
     0
171
     0
290
     0
174
     0
 93
        1
 44
0.0
173
     0
291
     0
 45
0.0
1001
ACAD
1000
AcDbSavedByObjectVersion
1070
     0
  0
VISUALSTYLE
  5
30
102
{ACAD_REACTORS
330
2A
102
}
330
2A
100
AcDbVisualStyle
  2
3dWireframe
 70
     5
 71
     0
 72
     2
 73
     0
 90
        0
 40
-0.6
 41
-30.0
 62
     5
 63
     7
 74
     1
 91
        4
 64
     7
 65
   257
 75
     1
175
     1
 42
1.0
 92
        0
 66
   257
 43
1.0
 76
     1
 77
     6
 78
     2
 67
     7
 79
     5
170
     0
171
     0
290
     0
174
     0
 93
        1
 44
0.0
173
     0
291
     0
 45
0.0
1001
ACAD
1000
AcDbSavedByObjectVersion
1070
     0
  0
VISUALSTYLE
  5
32
102
{ACAD_REACTORS
330
2A
102
}
330
2A
100
AcDbVisualStyle
  2
Basic
 70
     7
 71
     1
 72
     0
 73
     1
 90
        0
 40
-0.6
 41
-30.0
 62
     5
 63
     7
 74
     0
 91
        4
 64
     7
 65
   257
 75
     1
175
     1
 42
1.0
 92
        8
 66
     7
 43
1.0
 76
     1
 77
     6
 78
     2
 67
     7
 79
     5
170
     0
171
     0
290
     0
174
     0
 93
        1
 44
0.0
173
     0
291
     1
 45
0.0
1001
ACAD
1000
AcDbSavedByObjectVersion
1070
     0
  0
VISUALSTYLE
  5
36
102
{ACAD_REACTORS
330
2A
102
}
330
2A
100
AcDbVisualStyle
  2
Brighten
 70
    12
 71
     2
 72
     2
 73
     0
 90
        0
 40
-0.6
 41
-30.0
 62
     5
 63
     7
 74
     1
 91
        4
 64
     7
 65
   257
 75
     1
175
     1
 42
1.0
 92
        8
 66
     7
 43
1.0
 76
     1
 77
     6
 78
     2
 67
     7
 79
     5
170
     0
171
     0
290
     0
174
     0
 93
        1
 44
50.0
173
     0
291
     1
 45
0.0
1001
ACAD
1000
AcDbSavedByObjectVersion
1070
     0
  0
VISUALSTYLE
  5
3A
102
{ACAD_REACTORS
330
2A
102
}
330
2A
100
AcDbVisualStyle
  2
ColorChange
 70
    16
 71
     2
 72
     2
 73
     3
 90
        0
 40
-0.6
 41
-30.0
 62
     5
 63
     8
 74
     1
 91
        4
 64
     7
 65
   257
 75
     1
175
     1
 42
1.0
 92
        8
 66
     8
 43
1.0
 76
     1
 77
     6
 78
     2
 67
     7
 79
     5
170
     0
171
     0
290
     0
174
     0
 93
        1
 44
0.0
173
     0
291
     1
 45
0.0
1001
ACAD
1000
AcDbSavedByObjectVersion
1070
     0
  0
VISUALSTYLE
  5
34
102
{ACAD_REACTORS
330
2A
102
}
330
2A
100
AcDbVisualStyle
  2
Conceptual
 70
     9
 71
     3
 72
     2
 73
     0
 90
        0
 40
-0.6
 41
-30.0
 62
     5
 63
     7
 74
     2
 91
        2
 64
     7
 65
   257
 75
     1
175
     1
 42
40.0
 92
        8
 66
     7
 43
1.0
 76
     1
 77
     6
 78
     2
 67
     7
 79
     3
170
     0
171
     0
290
     0
174
     0
 93
        1
 44
0.0
173
     0
291
     0
 45
0.0
1001
ACAD
1000
AcDbSavedByObjectVersion
1070
     0
  0
VISUALSTYLE
  5
35
102
{ACAD_REACTORS
330
2A
102
}
330
2A
100
AcDbVisualStyle
  2
Dim
 70
    11
 71
     2
 72
     2
 73
     0
 90
        0
 40
-0.6
 41
-30.0
 62
     5
 63
     7
 74
     1
 91
        4
 64
     7
 65
   257
 75
     1
175
     1
 42
1.0
 92
        8
 66
     7
 43
1.0
 76
     1
 77
     6
 78
     2
 67
     7
 79
     5
170
     0
171
     0
290
     0
174
     0
 93
        1
 44
-50.0
173
     0
291
     1
 45
0.0
1001
ACAD
1000
AcDbSavedByObjectVersion
1070
     0
  0
VISUALSTYLE
  5
39
102
{ACAD_REACTORS
330
2A
102
}
330
2A
100
AcDbVisualStyle
  2
Facepattern
 70
    15
 71
     2
 72
     2
 73
     0
 90
        0
 40
-0.6
 41
-30.0
 62
     5
 63
     7
 74
     1
 91
        4
 64
     7
 65
   257
 75
     1
175
     1
 42
1.0
 92
        8
 66
     7
 43
1.0
 76
     1
 77
     6
 78
     2
 67
     7
 79
     5
170
     0
171
     0
290
     0
174
     0
 93
        1
 44
0.0
173
     0
291
     1
 45
0.0
1001
ACAD
1000
AcDbSavedByObjectVersion
1070
     0
  0
VISUALSTYLE
  5
2B
102
{ACAD_REACTORS
330
2A
102
}
330
2A
100
AcDbVisualStyle
  2
Flat
 70
     0
 71
     2
 72
     1
 73
     1
 90
        2
 40
-0.6
 41
30.0
 62
     5
 63
     7
 74
     0
 91
        4
 64
     7
 65
   257
 75
     1
175
     1
 42
1.0
 92
        8
 66
     7
 43
1.0
 76
     1
 77
     6
 78
     2
 67
     7
 79
     5
170
     0
171
     0
290
     0
174
     0
 93
       13
 44
0.0
173
     0
291
     1
 45
0.0
1001
ACAD
1000
AcDbSavedByObjectVersion
1070
     0
  0
VISUALSTYLE
  5
2C
102
{ACAD_REACTORS
330
2A
102
}
330
2A
100
AcDbVisualStyle
  2
FlatWithEdges
 70
     1
 71
     2
 72
     1
 73
     1
 90
        2
 40
-0.6
 41
30.0
 62
     5
 63
     7
 74
     1
 91
        4
 64
     7
 65
   257
 75
     1
175
     1
 42
1.0
 92
        0
 66
   257
 43
1.0
 76
     1
 77
     6
 78
     2
 67
     7
 79
     5
170
     0
171
     0
290
     0
174
     0
 93
       13
 44
0.0
173
     0
291
     1
 45
0.0
1001
ACAD
1000
AcDbSavedByObjectVersion
1070
     0
  0
VISUALSTYLE
  5
2D
102
{ACAD_REACTORS
330
2A
102
}
330
2A
100
AcDbVisualStyle
  2
Gouraud
 70
     2
 71
     2
 72
     2
 73
     1
 90
        2
 40
-0.6
 41
30.0
 62
     5
 63
     7
 74
     0
 91
        4
 64
     7
 65
   257
 75
     1
175
     1
 42
1.0
 92
        0
 66
     7
 43
1.0
 76
     1
 77
     6
 78
     2
 67
     7
 79
     5
170
     0
171
     0
290
     0
174
     0
 93
       13
 44
0.0
173
     0
291
     1
 45
0.0
1001
ACAD
1000
AcDbSavedByObjectVersion
1070
     0
  0
VISUALSTYLE
  5
2E
102
{ACAD_REACTORS
330
2A
102
}
330
2A
100
AcDbVisualStyle
  2
GouraudWithEdges
 70
     3
 71
     2
 72
     2
 73
     1
 90
        2
 40
-0.6
 41
30.0
 62
     5
 63
     7
 74
     1
 91
        4
 64
     7
 65
   257
 75
     1
175
     1
 42
1.0
 92
        0
 66
   257
 43
1.0
 76
     1
 77
     6
 78
     2
 67
     7
 79
     5
170
     0
171
     0
290
     0
174
     0
 93
       13
 44
0.0
173
     0
291
     1
 45
0.0
1001
ACAD
1000
AcDbSavedByObjectVersion
1070
     0
  0
VISUALSTYLE
  5
38
102
{ACAD_REACTORS
330
2A
102
}
330
2A
100
AcDbVisualStyle
  2
Linepattern
 70
    14
 71
     2
 72
     2
 73
     0
 90
        0
 40
-0.6
 41
-30.0
 62
     5
 63
     7
 74
     1
 91
        4
 64
     7
 65
   257
 75
     7
175
     7
 42
1.0
 92
        8
 66
     7
 43
1.0
 76
     1
 77
     6
 78
     2
 67
     7
 79
     5
170
     0
171
     0
290
     0
174
     0
 93
        1
 44
0.0
173
     0
291
     1
 45
0.0
1001
ACAD
1000
AcDbSavedByObjectVersion
1070
     0
  0
VISUALSTYLE
  5
33
102
{ACAD_REACTORS
330
2A
102
}
330
2A
100
AcDbVisualStyle
  2
Realistic
 70
     8
 71
     2
 72
     2
 73
     0
 90
        0
 40
-0.6
 41
-30.0
 62
     5
 63
     7
 74
     1
 91
        0
 64
     7
 65
   257
 75
     1
175
     1
 42
1.0
 92
        8
 66
     8
 43
1.0
 76
     1
 77
     6
 78
     2
 67
     7
 79
     5
170
     0
171
     0
290
     0
174
     0
 93
       13
 44
0.0
173
     0
291
     0
 45
0.0
1001
ACAD
1000
AcDbSavedByObjectVersion
1070
     0
  0
VISUALSTYLE
  5
37
102
{ACAD_REACTORS
330
2A
102
}
330
2A
100
AcDbVisualStyle
  2
Thicken
 70
    13
 71
     2
 72
     2
 73
     0
 90
        0
 40
-0.6
 41
-30.0
 62
     5
 63
     7
 74
     1
 91
        4
 64
     7
 65
   257
 75
     1
175
     1
 42
1.0
 92
       12
 66
     7
 43
1.0
 76
     1
 77
     6
 78
     2
 67
     7
 79
     5
170
     0
171
     0
290
     0
174
     0
 93
        1
 44
0.0
173
     0
291
     1
 45
0.0
1001
ACAD
1000
AcDbSavedByObjectVersion
1070
     0
  0
DICTIONARYVAR
  5
2B1
102
{ACAD_REACTORS
330
2AF
102
}
330
2AF
100
DictionaryVariables
280
     0
  1
80.000000
  0
DICTIONARYVAR
  5
2B0
102
{ACAD_REACTORS
330
2AF
102
}
330
2AF
100
DictionaryVariables
280
     0
  1
5.000000
  0
ENDSEC
  0
EOF
