  0
SECTION
  2
HEADER
  9
$ACADVER
  1
AC1015
  9
$ACADMAINTVER
 70
     6
  9
$DWGCODEPAGE
  3
ANSI_1252
  9
$INSBASE
 10
0.0
 20
0.0
 30
0.0
  9
$EXTMIN
 10
0.0
 20
0.0
 30
0.0
  9
$EXTMAX
 10
297.0
 20
210.0
 30
0.0
  9
$LIMMIN
 10
0.0
 20
0.0
  9
$LIMMAX
 10
297.0
 20
210.0
  9
$ORTHOMODE
 70
     0
  9
$REGENMODE
 70
     1
  9
$FILLMODE
 70
     1
  9
$QTEXTMODE
 70
     0
  9
$MIRRTEXT
 70
     1
  9
$LTSCALE
 40
1.0
  9
$ATTMODE
 70
     1
  9
$TEXTSIZE
 40
2.0
  9
$TRACEWID
 40
1.0
  9
$TEXTSTYLE
  7
Standard
  9
$CLAYER
  8
0
  9
$CELTYPE
  6
ByLayer
  9
$CECOLOR
 62
   256
  9
$CELTSCALE
 40
1.0
  9
$DISPSILH
 70
     0
  9
$DIMSCALE
 40
1.0
  9
$DIMASZ
 40
3.0
  9
$DIMEXO
 40
0.0
  9
$DIMDLI
 40
3.75
  9
$DIMRND
 40
0.0
  9
$DIMDLE
 40
0.0
  9
$DIMEXE
 40
1.0
  9
$DIMTP
 40
0.0
  9
$DIMTM
 40
0.0
  9
$DIMTXT
 40
2.0
  9
$DIMCEN
 40
2.5
  9
$DIMTSZ
 40
0.0
  9
$DIMTOL
 70
     0
  9
$DIMLIM
 70
     0
  9
$DIMTIH
 70
     1
  9
$DIMTOH
 70
     1
  9
$DIMSE1
 70
     0
  9
$DIMSE2
 70
     0
  9
$DIMTAD
 70
     1
  9
$DIMZIN
 70
     0
  9
$DIMBLK
  1

  9
$DIMASO
 70
     1
  9
$DIMSHO
 70
     1
  9
$DIMPOST
  1

  9
$DIMAPOST
  1

  9
$DIMALT
 70
     0
  9
$DIMALTD
 70
     3
  9
$DIMALTF
 40
0.0393700787
  9
$DIMLFAC
 40
1.0
  9
$DIMTOFL
 70
     1
  9
$DIMTVP
 40
0.0
  9
$DIMTIX
 70
     0
  9
$DIMSOXD
 70
     0
  9
$DIMSAH
 70
     0
  9
$DIMBLK1
  1

  9
$DIMBLK2
  1

  9
$DIMSTYLE
  2
ISO-25
  9
$DIMCLRD
 70
     0
  9
$DIMCLRE
 70
     0
  9
$DIMCLRT
 70
     0
  9
$DIMTFAC
 40
1.0
  9
$DIMGAP
 40
1.524
  9
$DIMJUST
 70
     0
  9
$DIMSD1
 70
     0
  9
$DIMSD2
 70
     0
  9
$DIMTOLJ
 70
     0
  9
$DIMTZIN
 70
     0
  9
$DIMALTZ
 70
     0
  9
$DIMALTTZ
 70
     0
  9
$DIMUPT
 70
     0
  9
$DIMDEC
 70
     2
  9
$DIMTDEC
 70
     3
  9
$DIMALTU
 70
     2
  9
$DIMALTTD
 70
     3
  9
$DIMTXSTY
  7
Standard
  9
$DIMAUNIT
 70
     0
  9
$DIMADEC
 70
     2
  9
$DIMALTRND
 40
0.0
  9
$DIMAZIN
 70
     0
  9
$DIMDSEP
 70
    44
  9
$DIMATFIT
 70
     3
  9
$DIMFRAC
 70
     0
  9
$DIMLDRBLK
  1

  9
$DIMLUNIT
 70
     2
  9
$DIMLWD
 70
    -2
  9
$DIMLWE
 70
    -2
  9
$DIMTMOVE
 70
     0
  9
$LUNITS
 70
     2
  9
$LUPREC
 70
     2
  9
$SKETCHINC
 40
1.0
  9
$FILLETRAD
 40
10.0
  9
$AUNITS
 70
     0
  9
$AUPREC
 70
     2
  9
$MENU
  1
.
  9
$ELEVATION
 40
0.0
  9
$PELEVATION
 40
0.0
  9
$THICKNESS
 40
0.0
  9
$LIMCHECK
 70
     0
  9
$CHAMFERA
 40
10.0
  9
$CHAMFERB
 40
10.0
  9
$CHAMFERC
 40
20.0
  9
$CHAMFERD
 40
0.0
  9
$SKPOLY
 70
     0
  9
$TDCREATE
 40
2455643.439080243
  9
$TDUCREATE
 40
2455643.397413576
  9
$TDUPDATE
 40
2455643.439080255
  9
$TDUUPDATE
 40
2455643.397413588
  9
$TDINDWG
 40
0.0000000116
  9
$TDUSRTIMER
 40
0.0000000116
  9
$USRTIMER
 70
     1
  9
$ANGBASE
 50
0.0
  9
$ANGDIR
 70
     0
  9
$PDMODE
 70
     0
  9
$PDSIZE
 40
-1.0
  9
$PLINEWID
 40
0.0
  9
$SPLFRAME
 70
     0
  9
$SPLINETYPE
 70
     6
  9
$SPLINESEGS
 70
     8
  9
$HANDSEED
  5
263
  9
$SURFTAB1
 70
     6
  9
$SURFTAB2
 70
     6
  9
$SURFTYPE
 70
     6
  9
$SURFU
 70
     6
  9
$SURFV
 70
     6
  9
$UCSBASE
  2

  9
$UCSNAME
  2

  9
$UCSORG
 10
0.0
 20
0.0
 30
0.0
  9
$UCSXDIR
 10
1.0
 20
0.0
 30
0.0
  9
$UCSYDIR
 10
0.0
 20
1.0
 30
0.0
  9
$UCSORTHOREF
  2

  9
$UCSORTHOVIEW
 70
     0
  9
$UCSORGTOP
 10
0.0
 20
0.0
 30
0.0
  9
$UCSORGBOTTOM
 10
0.0
 20
0.0
 30
0.0
  9
$UCSORGLEFT
 10
0.0
 20
0.0
 30
0.0
  9
$UCSORGRIGHT
 10
0.0
 20
0.0
 30
0.0
  9
$UCSORGFRONT
 10
0.0
 20
0.0
 30
0.0
  9
$UCSORGBACK
 10
0.0
 20
0.0
 30
0.0
  9
$PUCSBASE
  2

  9
$PUCSNAME
  2

  9
$PUCSORG
 10
0.0
 20
0.0
 30
0.0
  9
$PUCSXDIR
 10
1.0
 20
0.0
 30
0.0
  9
$PUCSYDIR
 10
0.0
 20
1.0
 30
0.0
  9
$PUCSORTHOREF
  2

  9
$PUCSORTHOVIEW
 70
     0
  9
$PUCSORGTOP
 10
0.0
 20
0.0
 30
0.0
  9
$PUCSORGBOTTOM
 10
0.0
 20
0.0
 30
0.0
  9
$PUCSORGLEFT
 10
0.0
 20
0.0
 30
0.0
  9
$PUCSORGRIGHT
 10
0.0
 20
0.0
 30
0.0
  9
$PUCSORGFRONT
 10
0.0
 20
0.0
 30
0.0
  9
$PUCSORGBACK
 10
0.0
 20
0.0
 30
0.0
  9
$USERI1
 70
     0
  9
$USERI2
 70
     0
  9
$USERI3
 70
     0
  9
$USERI4
 70
     0
  9
$USERI5
 70
     0
  9
$USERR1
 40
0.0
  9
$USERR2
 40
0.0
  9
$USERR3
 40
0.0
  9
$USERR4
 40
0.0
  9
$USERR5
 40
0.0
  9
$WORLDVIEW
 70
     1
  9
$SHADEDGE
 70
     3
  9
$SHADEDIF
 70
    70
  9
$TILEMODE
 70
     1
  9
$MAXACTVP
 70
    64
  9
$PINSBASE
 10
0.0
 20
0.0
 30
0.0
  9
$PLIMCHECK
 70
     0
  9
$PEXTMIN
 10
1.0000000000E+20
 20
1.0000000000E+20
 30
1.0000000000E+20
  9
$PEXTMAX
 10
-1.0000000000E+20
 20
-1.0000000000E+20
 30
-1.0000000000E+20
  9
$PLIMMIN
 10
0.0
 20
0.0
  9
$PLIMMAX
 10
420.0
 20
297.0
  9
$UNITMODE
 70
     0
  9
$VISRETAIN
 70
     1
  9
$PLINEGEN
 70
     0
  9
$PSLTSCALE
 70
     1
  9
$TREEDEPTH
 70
  3020
  9
$CMLSTYLE
  2
Standard
  9
$CMLJUST
 70
     0
  9
$CMLSCALE
 40
20.0
  9
$PROXYGRAPHICS
 70
     1
  9
$MEASUREMENT
 70
     1
  9
$CELWEIGHT
370
    -1
  9
$ENDCAPS
280
     0
  9
$JOINSTYLE
280
     0
  9
$LWDISPLAY
290
     1
  9
$INSUNITS
 70
     4
  9
$HYPERLINKBASE
  1

  9
$STYLESHEET
  1

  9
$XEDIT
290
     1
  9
$CEPSNTYPE
380
     0
  9
$PSTYLEMODE
290
     1
  9
$FINGERPRINTGUID
  2
{8955771E-DCF6-4352-B865-CDB53DBC1372}
  9
$VERSIONGUID
  2
{FAEB1C32-E019-11D5-929B-00C0DF256EC4}
  9
$EXTNAMES
290
     1
  9
$PSVPSCALE
 40
0.0
  9
$OLESTARTUP
290
     0
  0
ENDSEC
  0
SECTION
  2
CLASSES
  0
CLASS
  1
ACDBDICTIONARYWDFLT
  2
AcDbDictionaryWithDefault
  3
ObjectDBX Classes
 90
        0
280
     0
281
     0
  0
CLASS
  1
VISUALSTYLE
  2
AcDbVisualStyle
  3
ObjectDBX Classes
 90
     4095
280
     0
281
     0
  0
CLASS
  1
DICTIONARYVAR
  2
AcDbDictionaryVar
  3
ObjectDBX Classes
 90
        0
280
     0
281
     0
  0
CLASS
  1
ACDBPLACEHOLDER
  2
AcDbPlaceHolder
  3
ObjectDBX Classes
 90
        0
280
     0
281
     0
  0
CLASS
  1
LAYOUT
  2
AcDbLayout
  3
ObjectDBX Classes
 90
        0
280
     0
281
     0
  0
ENDSEC
  0
SECTION
  2
TABLES
  0
TABLE
  2
VPORT
  5
8
330
0
100
AcDbSymbolTable
 70
     1
  0
VPORT
  5
29
330
8
100
AcDbSymbolTableRecord
100
AcDbViewportTableRecord
  2
*Active
 70
     0
 10
0.0
 20
0.0
 11
1.0
 21
1.0
 12
148.5
 22
105.0
 13
0.0
 23
0.0
 14
10.0
 24
10.0
 15
10.0
 25
10.0
 16
0.0
 26
0.0
 36
1.0
 17
0.0
 27
0.0
 37
0.0
 40
210.0
 41
1.4142857143
 42
50.0
 43
0.0
 44
0.0
 50
0.0
 51
0.0
 71
     0
 72
  2000
 73
     1
 74
     3
 75
     0
 76
     0
 77
     0
 78
     0
281
     0
 65
     1
110
0.0
120
0.0
130
0.0
111
1.0
121
0.0
131
0.0
112
0.0
122
1.0
132
0.0
 79
     0
146
0.0
  0
ENDTAB
  0
TABLE
  2
LTYPE
  5
5
330
0
100
AcDbSymbolTable
 70
     6
  0
LTYPE
  5
14
330
5
100
AcDbSymbolTableRecord
100
AcDbLinetypeTableRecord
  2
ByBlock
 70
     0
  3

 72
    65
 73
     0
 40
0.0
  0
LTYPE
  5
15
330
5
100
AcDbSymbolTableRecord
100
AcDbLinetypeTableRecord
  2
ByLayer
 70
     0
  3

 72
    65
 73
     0
 40
0.0
  0
LTYPE
  5
16
330
5
100
AcDbSymbolTableRecord
100
AcDbLinetypeTableRecord
  2
Continuous
 70
     0
  3
Solid line
 72
    65
 73
     0
 40
0.0
  0
LTYPE
  5
3B
330
5
100
AcDbSymbolTableRecord
100
AcDbLinetypeTableRecord
  2
HIDDEN
 70
     0
  3
Hidden __ __ __ __ __ __ __ __ __ __ __ __ __ __
 72
    65
 73
     2
 40
1.905
 49
1.27
 74
     0
 49
-0.635
 74
     0
  0
LTYPE
  5
3C
330
5
100
AcDbSymbolTableRecord
100
AcDbLinetypeTableRecord
  2
PHANTOM
 70
     0
  3
Phantom ______  __  __  ______  __  __  ______
 72
    65
 73
     6
 40
12.7
 49
6.35
 74
     0
 49
-1.27
 74
     0
 49
1.27
 74
     0
 49
-1.27
 74
     0
 49
1.27
 74
     0
 49
-1.27
 74
     0
  0
LTYPE
  5
3D
330
5
100
AcDbSymbolTableRecord
100
AcDbLinetypeTableRecord
  2
CENTER
 70
     0
  3
Center ____ _ ____ _ ____ _ ____ _ ____ _ ____
 72
    65
 73
     4
 40
10.16
 49
6.35
 74
     0
 49
-1.27
 74
     0
 49
1.27
 74
     0
 49
-1.27
 74
     0
  0
LTYPE
  5
3E
330
5
100
AcDbSymbolTableRecord
100
AcDbLinetypeTableRecord
  2
CENTERX2
 70
     0
  3
Center (2x) ________  __  ________  __  _____
 72
    65
 73
     4
 40
20.32
 49
12.7
 74
     0
 49
-2.54
 74
     0
 49
2.54
 74
     0
 49
-2.54
 74
     0
  0
LTYPE
  5
3F
330
5
100
AcDbSymbolTableRecord
100
AcDbLinetypeTableRecord
  2
DOT2
 70
     0
  3
Dot (.5x) ........................................
 72
    65
 73
     2
 40
0.635
 49
0.0
 74
     0
 49
-0.635
 74
     0
  0
ENDTAB
  0
TABLE
  2
LAYER
  5
2
330
0
100
AcDbSymbolTable
 70
     5
  0
LAYER
  5
10
330
2
100
AcDbSymbolTableRecord
100
AcDbLayerTableRecord
  2
0
 70
     0
 62
     7
  6
Continuous
370
    -3
390
F
  0
LAYER
  5
40
330
2
100
AcDbSymbolTableRecord
100
AcDbLayerTableRecord
  2
FORMAT
 70
     0
 62
     7
  6
Continuous
370
    -3
390
F
  0
LAYER
  5
41
330
2
100
AcDbSymbolTableRecord
100
AcDbLayerTableRecord
  2
VERMASSUNG
 70
     0
 62
     7
  6
Continuous
370
    -3
390
F
  0
LAYER
  5
42
330
2
100
AcDbSymbolTableRecord
100
AcDbLayerTableRecord
  2
KOPF_DÜNN
 70
     0
 62
     7
  6
Continuous
370
    -3
390
F
  0
LAYER
  5
43
330
2
100
AcDbSymbolTableRecord
100
AcDbLayerTableRecord
  2
KOPF_DICK
 70
     0
 62
     7
  6
Continuous
370
    15
390
F
  0
ENDTAB
  0
TABLE
  2
STYLE
  5
3
330
0
100
AcDbSymbolTable
 70
     3
  0
STYLE
  5
11
330
3
100
AcDbSymbolTableRecord
100
AcDbTextStyleTableRecord
  2
Standard
 70
     0
 40
0.0
 41
1.0
 50
0.0
 71
     0
 42
2.5
  3
txt
  4

  0
STYLE
  5
44
330
3
100
AcDbSymbolTableRecord
100
AcDbTextStyleTableRecord
  2
SLDTEXTSTYLE0
 70
     0
 40
0.0
 41
0.7
 50
0.0
 71
     0
 42
0.2
  3
TXT
  4

  0
STYLE
  5
48
330
3
100
AcDbSymbolTableRecord
100
AcDbTextStyleTableRecord
  2
SLDTEXTSTYLE1
 70
     0
 40
0.0
 41
0.6473684211
 50
0.0
 71
     0
 42
0.2
  3
TXT
  4

  0
ENDTAB
  0
TABLE
  2
VIEW
  5
6
330
0
100
AcDbSymbolTable
 70
     0
  0
ENDTAB
  0
TABLE
  2
UCS
  5
7
330
0
100
AcDbSymbolTable
 70
     0
  0
ENDTAB
  0
TABLE
  2
APPID
  5
9
330
0
100
AcDbSymbolTable
 70
     1
  0
APPID
  5
12
330
9
100
AcDbSymbolTableRecord
100
AcDbRegAppTableRecord
  2
ACAD
 70
     0
  0
ENDTAB
  0
TABLE
  2
DIMSTYLE
  5
A
330
0
100
AcDbSymbolTable
 70
     2
100
AcDbDimStyleTable
  0
DIMSTYLE
105
27
330
A
100
AcDbSymbolTableRecord
100
AcDbDimStyleTableRecord
  2
ISO-25
 70
     0
 41
2.5
 42
0.625
 43
3.75
 44
1.25
 73
     0
 74
     0
 77
     1
 78
     8
140
2.5
141
2.5
143
0.0393700787
147
0.625
171
     3
172
     1
271
     2
272
     2
274
     3
278
    44
283
     0
284
     8
340
11
  0
DIMSTYLE
105
207
102
{ACAD_REACTORS
330
206
330
212
330
21E
330
228
330
232
330
23C
330
246
330
251
102
}
330
A
100
AcDbSymbolTableRecord
100
AcDbDimStyleTableRecord
  2
SLDDIMSTYLE0
 70
     0
 41
3.0
 44
0.0
 45
0.000000001
 73
     0
 74
     0
 77
     1
 78
    12
140
2.0
147
0.5
173
     1
271
     2
272
     3
284
    12
340
44
  0
ENDTAB
  0
TABLE
  2
BLOCK_RECORD
  5
1
330
0
100
AcDbSymbolTable
 70
     9
  0
BLOCK_RECORD
  5
1F
330
1
100
AcDbSymbolTableRecord
100
AcDbBlockTableRecord
  2
*Model_Space
340
22
  0
BLOCK_RECORD
  5
1B
330
1
100
AcDbSymbolTableRecord
100
AcDbBlockTableRecord
  2
*Paper_Space
340
1E
  0
BLOCK_RECORD
  5
23
330
1
100
AcDbSymbolTableRecord
100
AcDbBlockTableRecord
  2
*Paper_Space0
340
26
  0
BLOCK_RECORD
  5
208
330
1
100
AcDbSymbolTableRecord
100
AcDbBlockTableRecord
  2
*D1
340
0
  0
BLOCK_RECORD
  5
213
330
1
100
AcDbSymbolTableRecord
100
AcDbBlockTableRecord
  2
*D2
340
0
  0
BLOCK_RECORD
  5
21F
330
1
100
AcDbSymbolTableRecord
100
AcDbBlockTableRecord
  2
*D3
340
0
  0
BLOCK_RECORD
  5
229
330
1
100
AcDbSymbolTableRecord
100
AcDbBlockTableRecord
  2
*D4
340
0
  0
BLOCK_RECORD
  5
233
330
1
100
AcDbSymbolTableRecord
100
AcDbBlockTableRecord
  2
*D5
340
0
  0
BLOCK_RECORD
  5
23D
330
1
100
AcDbSymbolTableRecord
100
AcDbBlockTableRecord
  2
*D6
340
0
  0
BLOCK_RECORD
  5
247
330
1
100
AcDbSymbolTableRecord
100
AcDbBlockTableRecord
  2
*D7
340
0
  0
BLOCK_RECORD
  5
252
330
1
100
AcDbSymbolTableRecord
100
AcDbBlockTableRecord
  2
*D8
340
0
  0
ENDTAB
  0
ENDSEC
  0
SECTION
  2
BLOCKS
  0
BLOCK
  5
20
330
1F
100
AcDbEntity
  8
0
100
AcDbBlockBegin
  2
*Model_Space
 70
     0
 10
0.0
 20
0.0
 30
0.0
  3
*Model_Space
  1

  0
ENDBLK
  5
21
330
1F
100
AcDbEntity
  8
0
100
AcDbBlockEnd
  0
BLOCK
  5
1C
330
1B
100
AcDbEntity
 67
     1
  8
0
100
AcDbBlockBegin
  2
*Paper_Space
 70
     0
 10
0.0
 20
0.0
 30
0.0
  3
*Paper_Space
  1

  0
ENDBLK
  5
1D
330
1B
100
AcDbEntity
 67
     1
  8
0
100
AcDbBlockEnd
  0
BLOCK
  5
24
330
23
100
AcDbEntity
  8
0
100
AcDbBlockBegin
  2
*Paper_Space0
 70
     0
 10
0.0
 20
0.0
 30
0.0
  3
*Paper_Space0
  1

  0
ENDBLK
  5
25
330
23
100
AcDbEntity
  8
0
100
AcDbBlockEnd
  0
BLOCK
  5
209
330
208
100
AcDbEntity
  8
0
100
AcDbBlockBegin
  2
*D1
 70
     1
 10
0.0
 20
0.0
 30
0.0
  3
*D1
  1

  0
SOLID
  5
20B
330
208
100
AcDbEntity
  8
VERMASSUNG
100
AcDbTrace
 10
218.2834851229
 20
122.7533583251
 30
0.0
 11
217.8334851229
 21
119.7533583251
 31
0.0
 12
218.7334851229
 22
119.7533583251
 32
0.0
 13
218.7334851229
 23
119.7533583251
 33
0.0
  0
SOLID
  5
20C
330
208
100
AcDbEntity
  8
VERMASSUNG
100
AcDbTrace
 10
218.2834851229
 20
97.7533583251
 30
0.0
 11
218.7334851229
 21
100.7533583251
 31
0.0
 12
217.8334851229
 22
100.7533583251
 32
0.0
 13
217.8334851229
 23
100.7533583251
 33
0.0
  0
LINE
  5
20D
330
208
100
AcDbEntity
  8
VERMASSUNG
100
AcDbLine
 10
199.0433245556
 20
122.7533583251
 30
0.0
 11
219.2834851229
 21
122.7533583251
 31
0.0
  0
LINE
  5
20E
330
208
100
AcDbEntity
  8
VERMASSUNG
100
AcDbLine
 10
199.0433245556
 20
97.7533583251
 30
0.0
 11
219.2834851229
 21
97.7533583251
 31
0.0
  0
LINE
  5
20F
330
208
100
AcDbEntity
  8
VERMASSUNG
100
AcDbLine
 10
218.2834851229
 20
122.7533583251
 30
0.0
 11
218.2834851229
 21
97.7533583251
 31
0.0
  0
MTEXT
  5
210
330
208
100
AcDbEntity
  8
VERMASSUNG
100
AcDbMText
 10
215.7053497597
 20
106.7625765115
 30
0.0
 40
2.0
 41
0.0
 71
     1
 72
     1
  1
ER
  7
SLDTEXTSTYLE0
 11
-7.044195017643634E-15
 21
1.0
 31
0.0
 73
     1
 44
1.0
  0
MTEXT
  5
211
330
208
100
AcDbEntity
  8
VERMASSUNG
100
AcDbMText
 10
215.7053497597
 20
109.7603949558
 30
0.0
 40
2.0
 41
0.0
 71
     1
 72
     1
  1
25
  7
SLDTEXTSTYLE0
 11
-7.044195017643634E-15
 21
1.0
 31
0.0
 73
     1
 44
1.0
  0
ENDBLK
  5
20A
330
208
100
AcDbEntity
  8
0
100
AcDbBlockEnd
  0
BLOCK
  5
214
330
213
100
AcDbEntity
  8
0
100
AcDbBlockBegin
  2
*D2
 70
     1
 10
0.0
 20
0.0
 30
0.0
  3
*D2
  1

  0
SOLID
  5
216
330
213
100
AcDbEntity
  8
VERMASSUNG
100
AcDbTrace
 10
71.3073461457
 20
141.7533583251
 30
0.0
 11
70.8573461457
 21
138.7533583251
 31
0.0
 12
71.7573461457
 22
138.7533583251
 32
0.0
 13
71.7573461457
 23
138.7533583251
 33
0.0
  0
SOLID
  5
217
330
213
100
AcDbEntity
  8
VERMASSUNG
100
AcDbTrace
 10
71.3073461457
 20
78.7533583251
 30
0.0
 11
71.7573461457
 21
81.7533583251
 31
0.0
 12
70.8573461457
 22
81.7533583251
 32
0.0
 13
70.8573461457
 23
81.7533583251
 33
0.0
  0
LINE
  5
218
330
213
100
AcDbEntity
  8
VERMASSUNG
100
AcDbLine
 10
111.3433245556
 20
141.7533583251
 30
0.0
 11
70.3073461457
 21
141.7533583251
 31
0.0
  0
LINE
  5
219
330
213
100
AcDbEntity
  8
VERMASSUNG
100
AcDbLine
 10
111.3433245556
 20
78.7533583251
 30
0.0
 11
70.3073461457
 21
78.7533583251
 31
0.0
  0
LINE
  5
21A
330
213
100
AcDbEntity
  8
VERMASSUNG
100
AcDbLine
 10
71.3073461457
 20
141.7533583251
 30
0.0
 11
71.3073461457
 21
78.7533583251
 31
0.0
  0
MTEXT
  5
21B
330
213
100
AcDbEntity
  8
VERMASSUNG
100
AcDbMText
 10
68.5292106566
 20
100.6837279122
 30
0.0
 40
2.0
 41
0.0
 71
     1
 72
     1
  1
HSK A 
  7
SLDTEXTSTYLE0
 11
-7.044195017643634E-15
 21
1.0
 31
0.0
 73
     1
 44
1.0
  0
MTEXT
  5
21C
330
213
100
AcDbEntity
  8
VERMASSUNG
100
AcDbMText
 10
68.7292106661
 20
109.6837284561
 30
0.0
 40
2.0
 41
0.0
 71
     1
 72
     1
  1
%%c
  7
SLDTEXTSTYLE0
 11
-7.044195017643634E-15
 21
1.0
 31
0.0
 73
     1
 44
1.0
  0
MTEXT
  5
21D
330
213
100
AcDbEntity
  8
VERMASSUNG
100
AcDbMText
 10
68.7292107826
 20
113.2920567013
 30
0.0
 40
2.0
 41
0.0
 71
     1
 72
     1
  1
63
  7
SLDTEXTSTYLE0
 11
-7.044195017643634E-15
 21
1.0
 31
0.0
 73
     1
 44
1.0
  0
ENDBLK
  5
215
330
213
100
AcDbEntity
  8
0
100
AcDbBlockEnd
  0
BLOCK
  5
220
330
21F
100
AcDbEntity
  8
0
100
AcDbBlockBegin
  2
*D3
 70
     1
 10
0.0
 20
0.0
 30
0.0
  3
*D3
  1

  0
SOLID
  5
222
330
21F
100
AcDbEntity
  8
VERMASSUNG
100
AcDbTrace
 10
136.9933245556
 20
151.7533583251
 30
0.0
 11
139.9933245556
 21
151.3033583251
 31
0.0
 12
139.9933245556
 22
152.2033583251
 32
0.0
 13
139.9933245556
 23
152.2033583251
 33
0.0
  0
SOLID
  5
223
330
21F
100
AcDbEntity
  8
VERMASSUNG
100
AcDbTrace
 10
211.0433245556
 20
151.7533583251
 30
0.0
 11
208.0433245556
 21
152.2033583251
 31
0.0
 12
208.0433245556
 22
151.3033583251
 32
0.0
 13
208.0433245556
 23
151.3033583251
 33
0.0
  0
LINE
  5
224
330
21F
100
AcDbEntity
  8
VERMASSUNG
100
AcDbLine
 10
136.9933245556
 20
140.0997986488
 30
0.0
 11
136.9933245556
 21
152.7533583251
 31
0.0
  0
LINE
  5
225
330
21F
100
AcDbEntity
  8
VERMASSUNG
100
AcDbLine
 10
211.0433245556
 20
95.2533583251
 30
0.0
 11
211.0433245556
 21
152.7533583251
 31
0.0
  0
LINE
  5
226
330
21F
100
AcDbEntity
  8
VERMASSUNG
100
AcDbLine
 10
136.9933245556
 20
151.7533583251
 30
0.0
 11
211.0433245556
 21
151.7533583251
 31
0.0
  0
MTEXT
  5
227
330
21F
100
AcDbEntity
  8
VERMASSUNG
100
AcDbMText
 10
169.8376347134
 20
154.3314936882
 30
0.0
 40
2.0
 41
0.0
 71
     1
 72
     1
  1
74.05
  7
SLDTEXTSTYLE0
 73
     1
 44
1.0
  0
ENDBLK
  5
221
330
21F
100
AcDbEntity
  8
0
100
AcDbBlockEnd
  0
BLOCK
  5
22A
330
229
100
AcDbEntity
  8
0
100
AcDbBlockBegin
  2
*D4
 70
     1
 10
0.0
 20
0.0
 30
0.0
  3
*D4
  1

  0
SOLID
  5
22C
330
229
100
AcDbEntity
  8
VERMASSUNG
100
AcDbTrace
 10
111.0433245556
 20
157.7533583251
 30
0.0
 11
114.0433245556
 21
157.3033583251
 31
0.0
 12
114.0433245556
 22
158.2033583251
 32
0.0
 13
114.0433245556
 23
158.2033583251
 33
0.0
  0
SOLID
  5
22D
330
229
100
AcDbEntity
  8
VERMASSUNG
100
AcDbTrace
 10
211.0433245556
 20
157.7533583251
 30
0.0
 11
208.0433245556
 21
158.2033583251
 31
0.0
 12
208.0433245556
 22
157.3033583251
 32
0.0
 13
208.0433245556
 23
157.3033583251
 33
0.0
  0
LINE
  5
22E
330
229
100
AcDbEntity
  8
VERMASSUNG
100
AcDbLine
 10
111.0433245556
 20
141.4533583251
 30
0.0
 11
111.0433245556
 21
158.7533583251
 31
0.0
  0
LINE
  5
22F
330
229
100
AcDbEntity
  8
VERMASSUNG
100
AcDbLine
 10
211.0433245556
 20
95.2533583251
 30
0.0
 11
211.0433245556
 21
158.7533583251
 31
0.0
  0
LINE
  5
230
330
229
100
AcDbEntity
  8
VERMASSUNG
100
AcDbLine
 10
111.0433245556
 20
157.7533583251
 30
0.0
 11
211.0433245556
 21
157.7533583251
 31
0.0
  0
MTEXT
  5
231
330
229
100
AcDbEntity
  8
VERMASSUNG
100
AcDbMText
 10
159.8580139388
 20
160.3314936882
 30
0.0
 40
2.0
 41
0.0
 71
     1
 72
     1
  1
100
  7
SLDTEXTSTYLE0
 73
     1
 44
1.0
  0
ENDBLK
  5
22B
330
229
100
AcDbEntity
  8
0
100
AcDbBlockEnd
  0
BLOCK
  5
234
330
233
100
AcDbEntity
  8
0
100
AcDbBlockBegin
  2
*D5
 70
     1
 10
0.0
 20
0.0
 30
0.0
  3
*D5
  1

  0
SOLID
  5
236
330
233
100
AcDbEntity
  8
VERMASSUNG
100
AcDbTrace
 10
79.1433245556
 20
163.7533583251
 30
0.0
 11
82.1433245556
 21
163.3033583251
 31
0.0
 12
82.1433245556
 22
164.2033583251
 32
0.0
 13
82.1433245556
 23
164.2033583251
 33
0.0
  0
SOLID
  5
237
330
233
100
AcDbEntity
  8
VERMASSUNG
100
AcDbTrace
 10
211.0433245556
 20
163.7533583251
 30
0.0
 11
208.0433245556
 21
164.2033583251
 31
0.0
 12
208.0433245556
 22
163.3033583251
 32
0.0
 13
208.0433245556
 23
163.3033583251
 33
0.0
  0
LINE
  5
238
330
233
100
AcDbEntity
  8
VERMASSUNG
100
AcDbLine
 10
79.1433245556
 20
129.9440360716
 30
0.0
 11
79.1433245556
 21
164.7533583251
 31
0.0
  0
LINE
  5
239
330
233
100
AcDbEntity
  8
VERMASSUNG
100
AcDbLine
 10
211.0433245556
 20
95.2533583251
 30
0.0
 11
211.0433245556
 21
164.7533583251
 31
0.0
  0
LINE
  5
23A
330
233
100
AcDbEntity
  8
VERMASSUNG
100
AcDbLine
 10
79.1433245556
 20
163.7533583251
 30
0.0
 11
211.0433245556
 21
163.7533583251
 31
0.0
  0
MTEXT
  5
23B
330
233
100
AcDbEntity
  8
VERMASSUNG
100
AcDbMText
 10
149.2927609982
 20
166.3314936882
 30
0.0
 40
2.0
 41
0.0
 71
     1
 72
     1
  1
131.9
  7
SLDTEXTSTYLE0
 73
     1
 44
1.0
  0
ENDBLK
  5
235
330
233
100
AcDbEntity
  8
0
100
AcDbBlockEnd
  0
BLOCK
  5
23E
330
23D
100
AcDbEntity
  8
0
100
AcDbBlockBegin
  2
*D6
 70
     1
 10
0.0
 20
0.0
 30
0.0
  3
*D6
  1

  0
SOLID
  5
240
330
23D
100
AcDbEntity
  8
VERMASSUNG
100
AcDbTrace
 10
170.0433245556
 20
145.7533583251
 30
0.0
 11
173.0433245556
 21
145.3033583251
 31
0.0
 12
173.0433245556
 22
146.2033583251
 32
0.0
 13
173.0433245556
 23
146.2033583251
 33
0.0
  0
SOLID
  5
241
330
23D
100
AcDbEntity
  8
VERMASSUNG
100
AcDbTrace
 10
211.0433245556
 20
145.7533583251
 30
0.0
 11
208.0433245556
 21
146.2033583251
 31
0.0
 12
208.0433245556
 22
145.3033583251
 32
0.0
 13
208.0433245556
 23
145.3033583251
 33
0.0
  0
LINE
  5
242
330
23D
100
AcDbEntity
  8
VERMASSUNG
100
AcDbLine
 10
170.0433245556
 20
119.2533583251
 30
0.0
 11
170.0433245556
 21
146.7533583251
 31
0.0
  0
LINE
  5
243
330
23D
100
AcDbEntity
  8
VERMASSUNG
100
AcDbLine
 10
211.0433245556
 20
125.2533583251
 30
0.0
 11
211.0433245556
 21
146.7533583251
 31
0.0
  0
LINE
  5
244
330
23D
100
AcDbEntity
  8
VERMASSUNG
100
AcDbLine
 10
170.0433245556
 20
145.7533583251
 30
0.0
 11
211.0433245556
 21
145.7533583251
 31
0.0
  0
MTEXT
  5
245
330
23D
100
AcDbEntity
  8
VERMASSUNG
100
AcDbMText
 10
189.3077257952
 20
148.3314936882
 30
0.0
 40
2.0
 41
0.0
 71
     1
 72
     1
  1
41
  7
SLDTEXTSTYLE0
 73
     1
 44
1.0
  0
ENDBLK
  5
23F
330
23D
100
AcDbEntity
  8
0
100
AcDbBlockEnd
  0
BLOCK
  5
248
330
247
100
AcDbEntity
  8
0
100
AcDbBlockBegin
  2
*D7
 70
     1
 10
0.0
 20
0.0
 30
0.0
  3
*D7
  1

  0
SOLID
  5
24A
330
247
100
AcDbEntity
  8
VERMASSUNG
100
AcDbTrace
 10
230.2834851229
 20
131.1033583251
 30
0.0
 11
229.8334851229
 21
128.1033583251
 31
0.0
 12
230.7334851229
 22
128.1033583251
 32
0.0
 13
230.7334851229
 23
128.1033583251
 33
0.0
  0
SOLID
  5
24B
330
247
100
AcDbEntity
  8
VERMASSUNG
100
AcDbTrace
 10
230.2834851229
 20
89.4033583251
 30
0.0
 11
230.7334851229
 21
92.4033583251
 31
0.0
 12
229.8334851229
 22
92.4033583251
 32
0.0
 13
229.8334851229
 23
92.4033583251
 33
0.0
  0
LINE
  5
24C
330
247
100
AcDbEntity
  8
VERMASSUNG
100
AcDbLine
 10
207.6658250656
 20
131.1033583251
 30
0.0
 11
231.2834851229
 21
131.1033583251
 31
0.0
  0
LINE
  5
24D
330
247
100
AcDbEntity
  8
VERMASSUNG
100
AcDbLine
 10
207.6658250656
 20
89.4033583251
 30
0.0
 11
231.2834851229
 21
89.4033583251
 31
0.0
  0
LINE
  5
24E
330
247
100
AcDbEntity
  8
VERMASSUNG
100
AcDbLine
 10
230.2834851229
 20
131.1033583251
 30
0.0
 11
230.2834851229
 21
89.4033583251
 31
0.0
  0
MTEXT
  5
24F
330
247
100
AcDbEntity
  8
VERMASSUNG
100
AcDbMText
 10
227.7053496433
 20
105.3900769439
 30
0.0
 40
2.0
 41
0.0
 71
     1
 72
     1
  1
%%c
  7
SLDTEXTSTYLE0
 11
-7.044195017643634E-15
 21
1.0
 31
0.0
 73
     1
 44
1.0
  0
MTEXT
  5
250
330
247
100
AcDbEntity
  8
VERMASSUNG
100
AcDbMText
 10
227.7053497597
 20
108.9976623488
 30
0.0
 40
2.0
 41
0.0
 71
     1
 72
     1
  1
41.7
  7
SLDTEXTSTYLE0
 11
-7.044195017643634E-15
 21
1.0
 31
0.0
 73
     1
 44
1.0
  0
ENDBLK
  5
249
330
247
100
AcDbEntity
  8
0
100
AcDbBlockEnd
  0
BLOCK
  5
253
330
252
100
AcDbEntity
  8
0
100
AcDbBlockBegin
  2
*D8
 70
     1
 10
0.0
 20
0.0
 30
0.0
  3
*D8
  1

  0
SOLID
  5
255
330
252
100
AcDbEntity
  8
VERMASSUNG
100
AcDbTrace
 10
224.2834851229
 20
128.7533583251
 30
0.0
 11
223.8334851229
 21
125.7533583251
 31
0.0
 12
224.7334851229
 22
125.7533583251
 32
0.0
 13
224.7334851229
 23
125.7533583251
 33
0.0
  0
SOLID
  5
256
330
252
100
AcDbEntity
  8
VERMASSUNG
100
AcDbTrace
 10
224.2834851229
 20
91.7533583251
 30
0.0
 11
224.7334851229
 21
94.7533583251
 31
0.0
 12
223.8334851229
 22
94.7533583251
 32
0.0
 13
223.8334851229
 23
94.7533583251
 33
0.0
  0
LINE
  5
257
330
252
100
AcDbEntity
  8
VERMASSUNG
100
AcDbLine
 10
156.9933245556
 20
128.7533583251
 30
0.0
 11
225.2834851229
 21
128.7533583251
 31
0.0
  0
LINE
  5
258
330
252
100
AcDbEntity
  8
VERMASSUNG
100
AcDbLine
 10
156.9933245556
 20
91.7533583251
 30
0.0
 11
225.2834851229
 21
91.7533583251
 31
0.0
  0
LINE
  5
259
330
252
100
AcDbEntity
  8
VERMASSUNG
100
AcDbLine
 10
224.2834851229
 20
128.7533583251
 30
0.0
 11
224.2834851229
 21
91.7533583251
 31
0.0
  0
MTEXT
  5
25A
330
252
100
AcDbEntity
  8
VERMASSUNG
100
AcDbMText
 10
221.7053496433
 20
106.2901512823
 30
0.0
 40
2.0
 41
0.0
 71
     1
 72
     1
  1
%%c
  7
SLDTEXTSTYLE0
 11
-7.044195017643634E-15
 21
1.0
 31
0.0
 73
     1
 44
1.0
  0
MTEXT
  5
25B
330
252
100
AcDbEntity
  8
VERMASSUNG
100
AcDbMText
 10
221.7053497597
 20
109.8977366872
 30
0.0
 40
2.0
 41
0.0
 71
     1
 72
     1
  1
37
  7
SLDTEXTSTYLE0
 11
-7.044195017643634E-15
 21
1.0
 31
0.0
 73
     1
 44
1.0
  0
ENDBLK
  5
254
330
252
100
AcDbEntity
  8
0
100
AcDbBlockEnd
  0
ENDSEC
  0
SECTION
  2
ENTITIES
  0
MTEXT
  5
45
330
1F
100
AcDbEntity
  8
KOPF_DÜNN
100
AcDbMText
 10
13.8892156294
 20
23.8442973028
 30
0.0
 40
3.0
 41
0.0
 71
     1
 72
     1
  1
HA6.E25.K01.100
  7
SLDTEXTSTYLE0
 73
     1
 44
1.0
  0
MTEXT
  5
46
330
1F
100
AcDbEntity
  8
VERMASSUNG
100
AcDbMText
 10
13.9329988022
 20
28.8834360957
 30
0.0
 40
3.0
 41
0.0
 71
     1
 72
     1
  1
Spannzangenfutter_Collet chuck ER25
  7
SLDTEXTSTYLE0
 73
     1
 44
1.0
  0
MTEXT
  5
47
330
1F
100
AcDbEntity
  8
VERMASSUNG
100
AcDbMText
 10
98.8601118557
 20
13.8365368179
 30
0.0
 40
2.0
 41
0.0
 71
     1
 72
     1
  1
Datum: 10.10.2006
  7
SLDTEXTSTYLE0
 73
     1
 44
1.0
  0
MTEXT
  5
49
330
1F
100
AcDbEntity
  8
VERMASSUNG
100
AcDbMText
 10
13.933048693
 20
18.0482802738
 30
0.0
 40
2.0
 41
0.0
 71
     1
 72
     1
  1
DIN 69 893 HSK A 63
  7
SLDTEXTSTYLE1
 73
     1
 44
1.0
  0
MTEXT
  5
4A
330
1F
100
AcDbEntity
  8
VERMASSUNG
100
AcDbMText
 10
13.9808475933
 20
13.9090973692
 30
0.0
 40
2.0
 41
0.0
 71
     1
 72
     1
  1
Gewicht: 1083g
  7
SLDTEXTSTYLE0
 73
     1
 44
1.0
  0
LINE
  5
4B
330
1F
100
AcDbEntity
  8
0
  6
Continuous
 62
     7
370
    15
100
AcDbLine
 10
191.8433245556
 20
89.4033583251
 30
0.0
 11
207.6658250656
 21
89.4033583251
 31
0.0
  0
LINE
  5
4C
330
1F
100
AcDbEntity
  8
0
  6
Continuous
 62
     7
370
    15
100
AcDbLine
 10
207.6658250656
 20
131.1033583251
 30
0.0
 11
191.8433245556
 21
131.1033583251
 31
0.0
  0
LINE
  5
4D
330
1F
100
AcDbEntity
  8
0
  6
Continuous
 62
     7
370
    15
100
AcDbLine
 10
191.8433245556
 20
131.1033583251
 30
0.0
 11
191.0433245556
 21
130.3033583251
 31
0.0
  0
LINE
  5
4E
330
1F
100
AcDbEntity
  8
0
  6
Continuous
 62
     7
370
    15
100
AcDbLine
 10
191.0433245556
 20
90.2033583251
 30
0.0
 11
191.8433245556
 21
89.4033583251
 31
0.0
  0
LINE
  5
4F
330
1F
100
AcDbEntity
  8
0
  6
Continuous
 62
     7
370
    15
100
AcDbLine
 10
207.6658250656
 20
89.4033583251
 30
0.0
 11
211.0433245556
 21
95.2533583251
 31
0.0
  0
LINE
  5
50
330
1F
100
AcDbEntity
  8
0
  6
Continuous
 62
     7
370
    15
100
AcDbLine
 10
211.0433245556
 20
125.2533583251
 30
0.0
 11
207.6658250656
 21
131.1033583251
 31
0.0
  0
ARC
  5
51
330
1F
100
AcDbEntity
  8
0
  6
Continuous
 62
     7
370
    15
100
AcDbCircle
 10
111.3433245556
 20
79.0533583251
 30
0.0
 40
0.3000000000000114
100
AcDbArc
 50
180.0
 51
270.0
  0
ARC
  5
52
330
1F
100
AcDbEntity
  8
0
  6
Continuous
 62
     7
370
    15
100
AcDbCircle
 10
111.3433245556
 20
141.4533583251
 30
0.0
 40
0.3000000000000114
100
AcDbArc
 50
90.0
 51
180.0
  0
LINE
  5
53
330
1F
100
AcDbEntity
  8
0
  6
Continuous
 62
     7
370
    15
100
AcDbLine
 10
111.3433245556
 20
78.7533583251
 30
0.0
 11
115.9933245556
 21
78.7533583251
 31
0.0
  0
LINE
  5
54
330
1F
100
AcDbEntity
  8
0
  6
Continuous
 62
     7
370
    15
100
AcDbLine
 10
116.0213129146
 20
141.7533583251
 30
0.0
 11
111.3433245556
 21
141.7533583251
 31
0.0
  0
ARC
  5
55
330
1F
100
AcDbEntity
  8
0
  6
Continuous
 62
     7
370
    15
100
AcDbCircle
 10
110.5433178029
 20
85.6829207107
 30
0.0
 40
0.6000067526677242
100
AcDbArc
 50
33.5571153394
 51
90.0
  0
ARC
  5
56
330
1F
100
AcDbEntity
  8
0
  6
Continuous
 62
     7
370
    15
100
AcDbCircle
 10
110.5433178029
 20
134.8237959395
 30
0.0
 40
0.6000067526677164
100
AcDbArc
 50
270.0
 51
326.4428846606
  0
LINE
  5
57
330
1F
100
AcDbEntity
  8
0
  6
Continuous
 62
     7
370
    15
100
AcDbLine
 10
97.8118157567
 20
133.9110883452
 30
0.0
 11
85.2433245556
 21
133.2814044173
 31
0.0
  0
LINE
  5
58
330
1F
100
AcDbEntity
  8
0
  6
Continuous
 62
     7
370
    15
100
AcDbLine
 10
109.0433245556
 20
134.4737891868
 30
0.0
 11
106.2263228982
 21
134.3326568392
 31
0.0
  0
LINE
  5
59
330
1F
100
AcDbEntity
  8
0
  6
Continuous
 62
     7
370
    15
100
AcDbLine
 10
106.2263789883
 20
86.1740570008
 30
0.0
 11
109.0433245556
 21
86.0329274634
 31
0.0
  0
LINE
  5
5A
330
1F
100
AcDbEntity
  8
0
  6
Continuous
 62
     7
370
    15
100
AcDbLine
 10
89.2433245556
 20
87.0249114313
 30
0.0
 11
97.8122182754
 21
86.5956081387
 31
0.0
  0
LINE
  5
5B
330
1F
100
AcDbEntity
  8
0
  6
Continuous
 62
     7
370
    15
100
AcDbLine
 10
109.0433245556
 20
86.0329274634
 30
0.0
 11
109.9000373289
 21
86.2624829591
 31
0.0
  0
LINE
  5
5C
330
1F
100
AcDbEntity
  8
0
  6
Continuous
 62
     7
370
    15
100
AcDbLine
 10
109.9000373289
 20
134.244233691
 30
0.0
 11
109.0433245556
 21
134.4737891868
 31
0.0
  0
ARC
  5
5D
330
1F
100
AcDbEntity
  8
0
  6
Continuous
 62
     7
370
    15
100
AcDbCircle
 10
110.055328756
 20
85.6829274634
 30
0.0
 40
0.6000000000000085
100
AcDbArc
 50
90.0
 51
105.0
  0
ARC
  5
5E
330
1F
100
AcDbEntity
  8
0
  6
Continuous
 62
     7
370
    15
100
AcDbCircle
 10
110.055328756
 20
134.8237891868
 30
0.0
 40
0.6000000000000208
100
AcDbArc
 50
255.0
 51
270.0
  0
LINE
  5
5F
330
1F
100
AcDbEntity
  8
0
  6
Continuous
 62
     7
370
    15
100
AcDbLine
 10
110.055328756
 20
86.2829274634
 30
0.0
 11
110.5433178029
 21
86.2829274634
 31
0.0
  0
LINE
  5
60
330
1F
100
AcDbEntity
  8
0
  6
Continuous
 62
     7
370
    15
100
AcDbLine
 10
110.5433178029
 20
134.2237891868
 30
0.0
 11
110.055328756
 21
134.2237891868
 31
0.0
  0
ARC
  5
61
330
1F
100
AcDbEntity
  8
0
  6
Continuous
 62
     7
370
    15
100
AcDbCircle
 10
139.9933245556
 20
88.7533583251
 30
0.0
 40
2.999999999999986
100
AcDbArc
 50
90.0
 51
180.0
  0
ARC
  5
62
330
1F
100
AcDbEntity
  8
0
  6
Continuous
 62
     7
370
    15
100
AcDbCircle
 10
139.9933245556
 20
131.7533583251
 30
0.0
 40
3.0
100
AcDbArc
 50
180.0
 51
270.0
  0
ARC
  5
63
330
1F
100
AcDbEntity
  8
0
  6
Continuous
 62
     7
370
    15
100
AcDbCircle
 10
180.3117721883
 20
-15.7466416749
 30
0.0
 40
110.0
100
AcDbArc
 50
90.0
 51
102.2387557679
  0
ARC
  5
64
330
1F
100
AcDbEntity
  8
0
  6
Continuous
 62
     7
370
    15
100
AcDbCircle
 10
180.3117721883
 20
236.2533583251
 30
0.0
 40
110.0
100
AcDbArc
 50
257.7612442321
 51
270.0
  0
LINE
  5
65
330
1F
100
AcDbEntity
  8
0
  6
Continuous
 62
     7
370
    15
100
AcDbLine
 10
151.4920451458
 20
91.7533583251
 30
0.0
 11
156.9933245556
 21
91.7533583251
 31
0.0
  0
LINE
  5
66
330
1F
100
AcDbEntity
  8
0
  6
Continuous
 62
     7
370
    15
100
AcDbLine
 10
139.9933245556
 20
91.7533583251
 30
0.0
 11
144.5037807953
 21
91.7533583251
 31
0.0
  0
LINE
  5
67
330
1F
100
AcDbEntity
  8
0
  6
Continuous
 62
     7
370
    15
100
AcDbLine
 10
144.4998982414
 20
128.7533583251
 30
0.0
 11
139.9933245556
 21
128.7533583251
 31
0.0
  0
LINE
  5
68
330
1F
100
AcDbEntity
  8
0
  6
Continuous
 62
     7
370
    15
100
AcDbLine
 10
156.9933245556
 20
128.7533583251
 30
0.0
 11
151.4866390929
 21
128.7533583251
 31
0.0
  0
LINE
  5
69
330
1F
100
AcDbEntity
  8
0
  6
Continuous
 62
     7
370
    15
100
AcDbLine
 10
180.3117721883
 20
94.2533583251
 30
0.0
 11
191.0433245556
 21
94.2533583251
 31
0.0
  0
LINE
  5
6A
330
1F
100
AcDbEntity
  8
0
  6
Continuous
 62
     7
370
    15
100
AcDbLine
 10
191.0433245556
 20
126.2533583251
 30
0.0
 11
180.3117721883
 21
126.2533583251
 31
0.0
  0
LINE
  5
6B
330
1F
100
AcDbEntity
  8
0
  6
Continuous
 62
     7
370
    15
100
AcDbLine
 10
80.4266611956
 20
89.3833583251
 30
0.0
 11
87.8433245556
 21
89.3833583251
 31
0.0
  0
ARC
  5
6C
330
1F
100
AcDbEntity
  8
0
  6
Continuous
 62
     7
370
    15
100
AcDbCircle
 10
87.8433245556
 20
87.9833583251
 30
0.0
 40
1.399999999999997
100
AcDbArc
 50
42.2465410162
 51
90.0
  0
LINE
  5
6D
330
1F
100
AcDbEntity
  8
0
  6
Continuous
 62
     7
370
    15
100
AcDbLine
 10
79.1544849907
 20
90.52219789
 30
0.0
 11
80.2844880137
 21
89.3921948669
 31
0.0
  0
LINE
  5
6E
330
1F
100
AcDbEntity
  8
0
  6
Continuous
 62
     7
370
    15
100
AcDbLine
 10
80.2844880137
 20
131.1145217833
 30
0.0
 11
79.1532253289
 21
129.9832590985
 31
0.0
  0
ARC
  5
6F
330
1F
100
AcDbEntity
  8
0
  6
Continuous
 62
     7
370
    15
100
AcDbCircle
 10
83.8433245556
 20
132.5233583251
 30
0.0
 40
1.400000000000008
100
AcDbArc
 50
270.0
 51
301.7485287426
  0
LINE
  5
70
330
1F
100
AcDbEntity
  8
0
  6
Continuous
 62
     7
370
    15
100
AcDbLine
 10
83.8433245556
 20
131.1233583251
 30
0.0
 11
80.4175902895
 21
131.1233583251
 31
0.0
  0
LINE
  5
71
330
1F
100
AcDbEntity
  8
0
  6
Continuous
 62
     7
370
    15
100
AcDbLine
 10
199.9136112151
 20
126.4832787986
 30
0.0
 11
207.6658250656
 21
126.4832787986
 31
0.0
  0
LINE
  5
72
330
1F
100
AcDbEntity
  8
0
  6
Continuous
 62
     7
370
    15
100
AcDbLine
 10
207.6658250656
 20
113.4734823874
 30
0.0
 11
207.6658250656
 21
126.4832787986
 31
0.0
  0
LINE
  5
73
330
1F
100
AcDbEntity
  8
0
  6
Continuous
 62
     7
370
    15
100
AcDbLine
 10
199.9136112151
 20
113.4734823874
 30
0.0
 11
207.6658250656
 21
113.4734823874
 31
0.0
  0
SPLINE
  5
74
330
1F
100
AcDbEntity
  8
0
  6
Continuous
 62
     7
370
    15
100
AcDbSpline
210
0.0
220
0.0
230
1.0
 70
     8
 71
     3
 72
    17
 73
    13
 74
     0
 42
0.00000001
 43
0.00000001
 40
0.0
 40
0.0
 40
0.0
 40
0.0
 40
0.0849596105225761
 40
0.2026986851973021
 40
0.3179163521929674
 40
0.426330985721538
 40
0.5328080587032032
 40
0.6312074462326325
 40
0.7278427938071651
 40
0.831095830015221
 40
0.9419123957341515
 40
1.0
 40
1.0
 40
1.0
 40
1.0
 10
199.9136112150536
 20
113.4734823873982
 30
0.0
 10
199.6163177808453
 20
113.4524406750625
 30
0.0
 10
198.9070279446378
 20
113.4022388509426
 30
0.0
 10
197.8685543255407
 20
112.9356169658702
 30
0.0
 10
196.9866279661192
 20
112.1061783462009
 30
0.0
 10
196.4756668101397
 20
111.0443726194105
 30
0.0
 10
196.3948043865598
 20
109.9260251617935
 30
0.0
 10
196.7034307391464
 20
108.8984320307514
 30
0.0
 10
197.3180424029019
 20
108.0385660355314
 30
0.0
 10
198.2024885196844
 20
107.3889346056657
 30
0.0
 10
199.1204127949663
 20
107.0722677832989
 30
0.0
 10
199.710630309325
 20
107.0432230110323
 30
0.0
 10
199.9136112150536
 20
107.0332342627523
 30
0.0
  0
LINE
  5
75
330
1F
100
AcDbEntity
  8
0
  6
Continuous
 62
     7
370
    15
100
AcDbLine
 10
199.9136112151
 20
107.0332342628
 30
0.0
 11
207.6658250656
 21
107.0332342628
 31
0.0
  0
LINE
  5
76
330
1F
100
AcDbEntity
  8
0
  6
Continuous
 62
     7
370
    15
100
AcDbLine
 10
207.6658250656
 20
94.0234378516
 30
0.0
 11
207.6658250656
 21
107.0332342628
 31
0.0
  0
LINE
  5
77
330
1F
100
AcDbEntity
  8
0
  6
Continuous
 62
     7
370
    15
100
AcDbLine
 10
199.9136112151
 20
94.0234378516
 30
0.0
 11
207.6658250656
 21
94.0234378516
 31
0.0
  0
SPLINE
  5
78
330
1F
100
AcDbEntity
  8
0
  6
Continuous
 62
     7
370
    15
100
AcDbSpline
210
0.0
220
0.0
230
1.0
 70
     8
 71
     3
 72
    17
 73
    13
 74
     0
 42
0.00000001
 43
0.00000001
 40
0.0
 40
0.0
 40
0.0
 40
0.0
 40
0.0849598125208221
 40
0.2026991671295827
 40
0.3179171080644353
 40
0.4263319993574384
 40
0.5329713714308597
 40
0.63136993235757
 40
0.7280135479053464
 40
0.8312800725864057
 40
0.9421086574597108
 40
1.0
 40
1.0
 40
1.0
 40
1.0
 10
199.9136112150536
 20
90.80331378922956
 30
0.0
 10
199.6163177939566
 20
90.81094848661644
 30
0.0
 10
198.9070279890302
 20
90.82916353153811
 30
0.0
 10
197.8685540678357
 20
91.00235418143446
 30
0.0
 10
196.9866288761462
 20
91.3352686917689
 30
0.0
 10
196.4754128344227
 20
91.8057313140111
 30
0.0
 10
196.3948280658791
 20
92.35493924245746
 30
0.0
 10
196.7042168664487
 20
92.90719582383187
 30
0.0
 10
197.3193352520663
 20
93.40306164326145
 30
0.0
 10
198.2042280773846
 20
93.7987896144562
 30
0.0
 10
199.121750710929
 20
93.9987511077191
 30
0.0
 10
199.7113182412852
 20
94.01713124224862
 30
0.0
 10
199.9136112150536
 20
94.02343785155256
 30
0.0
  0
LINE
  5
79
330
1F
100
AcDbEntity
  8
0
  6
Continuous
 62
     7
370
    15
100
AcDbLine
 10
199.9136112151
 20
90.8033137892
 30
0.0
 11
207.6658250656
 21
90.8033137892
 31
0.0
  0
LINE
  5
7A
330
1F
100
AcDbEntity
  8
0
  6
Continuous
 62
     7
370
    15
100
AcDbLine
 10
207.6658250656
 20
89.4033583251
 30
0.0
 11
207.6658250656
 21
90.8033137892
 31
0.0
  0
LINE
  5
7B
330
1F
100
AcDbEntity
  8
0
  6
Continuous
 62
     7
370
    15
100
AcDbLine
 10
207.6658250656
 20
129.7034028609
 30
0.0
 11
207.6658250656
 21
131.1033583251
 31
0.0
  0
LINE
  5
7C
330
1F
100
AcDbEntity
  8
0
  6
Continuous
 62
     7
370
    15
100
AcDbLine
 10
199.9136112151
 20
129.7034028609
 30
0.0
 11
207.6658250656
 21
129.7034028609
 31
0.0
  0
SPLINE
  5
7D
330
1F
100
AcDbEntity
  8
0
  6
Continuous
 62
     7
370
    15
100
AcDbSpline
210
0.0
220
0.0
230
1.0
 70
     8
 71
     3
 72
    17
 73
    13
 74
     0
 42
0.00000001
 43
0.00000001
 40
0.0
 40
0.0
 40
0.0
 40
0.0
 40
0.084966075312286
 40
0.2027141090483085
 40
0.3179405432450382
 40
0.4263634263148085
 40
0.5376352989838048
 40
0.6360089261139562
 40
0.7328950238512574
 40
0.8365482611293854
 40
0.9477172271558258
 40
1.0
 40
1.0
 40
1.0
 40
1.0
 10
199.9136112150536
 20
126.4832787985978
 30
0.0
 10
199.616318191452
 20
126.4966862184155
 30
0.0
 10
198.9070293348801
 20
126.5286739635596
 30
0.0
 10
197.8685462549601
 20
126.8220958701204
 30
0.0
 10
196.9866564655628
 20
127.3186560384424
 30
0.0
 10
196.4681577446441
 20
127.9186801257959
 30
0.0
 10
196.3956733924479
 20
128.4974634701377
 30
0.0
 10
196.7270454510231
 20
128.9759964113342
 30
0.0
 10
197.3565729924418
 20
129.3348016229352
 30
0.0
 10
198.254150963382
 20
129.5828996093333
 30
0.0
 10
199.1599745516023
 20
129.691154151405
 30
0.0
 10
199.7309690676796
 20
129.7004344137671
 30
0.0
 10
199.9136112150536
 20
129.7034028609208
 30
0.0
  0
LINE
  5
7E
330
1F
100
AcDbEntity
  8
0
  6
Continuous
 62
     7
370
    15
100
AcDbLine
 10
191.8433245556
 20
89.4033583251
 30
0.0
 11
191.8433245556
 21
131.1033583251
 31
0.0
  0
LINE
  5
7F
330
1F
100
AcDbEntity
  8
0
  6
Continuous
 62
     7
370
    15
100
AcDbLine
 10
191.0433245556
 20
90.2033583251
 30
0.0
 11
191.0433245556
 21
130.3033583251
 31
0.0
  0
ARC
  5
80
330
1F
100
AcDbEntity
  8
0
  6
Continuous
 62
     7
370
    15
100
AcDbCircle
 10
199.9136112151
 20
110.2533583251
 30
0.0
 40
2.870286659487775
100
AcDbArc
 50
90.0
 51
270.0
  0
LINE
  5
81
330
1F
100
AcDbEntity
  8
0
  6
Continuous
 62
     7
370
    15
100
AcDbLine
 10
207.6658250656
 20
113.4734823874
 30
0.0
 11
207.8953742009
 21
113.1236449846
 31
0.0
  0
LINE
  5
82
330
1F
100
AcDbEntity
  8
0
  6
Continuous
 62
     7
370
    15
100
AcDbLine
 10
199.9136112151
 20
113.1236449846
 30
0.0
 11
207.8953742009
 21
113.1236449846
 31
0.0
  0
LINE
  5
83
330
1F
100
AcDbEntity
  8
0
  6
Continuous
 62
     7
370
    15
100
AcDbLine
 10
199.9136112151
 20
107.3830716656
 30
0.0
 11
207.8953742009
 21
107.3830716656
 31
0.0
  0
LINE
  5
84
330
1F
100
AcDbEntity
  8
0
  6
Continuous
 62
     7
370
    15
100
AcDbLine
 10
207.6658250656
 20
107.0332342628
 30
0.0
 11
207.8953742009
 21
107.3830716656
 31
0.0
  0
LINE
  5
85
330
1F
100
AcDbEntity
  8
0
  6
Continuous
 62
     7
370
    15
100
AcDbLine
 10
207.6658250656
 20
90.8033137892
 30
0.0
 11
207.8953742009
 21
91.2812005687
 31
0.0
  0
LINE
  5
86
330
1F
100
AcDbEntity
  8
0
  6
Continuous
 62
     7
370
    15
100
AcDbLine
 10
207.8953742009
 20
91.2812005687
 30
0.0
 11
208.9499775642
 21
92.9987405781
 31
0.0
  0
LINE
  5
87
330
1F
100
AcDbEntity
  8
0
  6
Continuous
 62
     7
370
    15
100
AcDbLine
 10
208.9499775642
 20
92.9987405781
 30
0.0
 11
209.1442531002
 21
93.4085481993
 31
0.0
  0
SPLINE
  5
88
330
1F
100
AcDbEntity
  8
0
  6
Continuous
 62
     7
370
    15
100
AcDbSpline
210
0.0
220
0.0
230
1.0
 70
     8
 71
     3
 72
     9
 73
     5
 74
     0
 42
0.00000001
 43
0.00000001
 40
0.0
 40
0.0
 40
0.0
 40
0.0
 40
0.5000511887841887
 40
1.0
 40
1.0
 40
1.0
 40
1.0
 10
209.144253100208
 20
93.4085481992814
 30
0.0
 10
209.1844647863109
 20
93.78406972949637
 30
0.0
 10
209.2648799258101
 20
94.53503590783502
 30
0.0
 10
209.1844592976526
 20
95.28600179229468
 30
0.0
 10
209.144253100208
 20
95.66144629349392
 30
0.0
  0
LINE
  5
89
330
1F
100
AcDbEntity
  8
0
  6
Continuous
 62
     7
370
    15
100
AcDbLine
 10
208.9499775642
 20
95.5516386724
 30
0.0
 11
209.1442531002
 21
95.6614462935
 31
0.0
  0
LINE
  5
8A
330
1F
100
AcDbEntity
  8
0
  6
Continuous
 62
     7
370
    15
100
AcDbLine
 10
207.8953742009
 20
94.1514872282
 30
0.0
 11
208.9499775642
 21
95.5516386724
 31
0.0
  0
LINE
  5
8B
330
1F
100
AcDbEntity
  8
0
  6
Continuous
 62
     7
370
    15
100
AcDbLine
 10
207.6658250656
 20
94.0234378516
 30
0.0
 11
207.8953742009
 21
94.1514872282
 31
0.0
  0
LINE
  5
8C
330
1F
100
AcDbEntity
  8
0
  6
Continuous
 62
     7
370
    15
100
AcDbLine
 10
207.8953742009
 20
107.3830716656
 30
0.0
 11
208.9499775642
 21
107.7004602309
 31
0.0
  0
LINE
  5
8D
330
1F
100
AcDbEntity
  8
0
  6
Continuous
 62
     7
370
    15
100
AcDbLine
 10
208.9499775642
 20
107.7004602309
 30
0.0
 11
209.1442531002
 21
108.0004602309
 31
0.0
  0
SPLINE
  5
8E
330
1F
100
AcDbEntity
  8
0
  6
Continuous
 62
     7
370
    15
100
AcDbSpline
210
0.0
220
0.0
230
1.0
 70
     8
 71
     3
 72
    10
 73
     6
 74
     0
 42
0.00000001
 43
0.00000001
 40
0.0
 40
0.0
 40
0.0
 40
0.0
 40
0.1222275762238934
 40
0.5602524839097507
 40
1.0
 40
1.0
 40
1.0
 40
1.0
 10
209.144253100208
 20
112.5062564192878
 30
0.0
 10
209.1562540508898
 20
112.3229486008999
 30
0.0
 10
209.2112626065407
 20
111.4827236390324
 30
0.0
 10
209.2493077192981
 20
109.9784338807572
 30
0.0
 10
209.1793170915761
 20
108.6606468231972
 30
0.0
 10
209.144253100208
 20
108.0004602308627
 30
0.0
  0
LINE
  5
8F
330
1F
100
AcDbEntity
  8
0
  6
Continuous
 62
     7
370
    15
100
AcDbLine
 10
208.9499775642
 20
112.8062564193
 30
0.0
 11
209.1442531002
 21
112.5062564193
 31
0.0
  0
LINE
  5
90
330
1F
100
AcDbEntity
  8
0
  6
Continuous
 62
     7
370
    15
100
AcDbLine
 10
207.8953742009
 20
113.1236449846
 30
0.0
 11
208.9499775642
 21
112.8062564193
 31
0.0
  0
LINE
  5
91
330
1F
100
AcDbEntity
  8
0
  6
Continuous
 62
     7
370
    15
100
AcDbLine
 10
207.6658250656
 20
126.4832787986
 30
0.0
 11
207.8953742009
 21
126.355229422
 31
0.0
  0
LINE
  5
92
330
1F
100
AcDbEntity
  8
0
  6
Continuous
 62
     7
370
    15
100
AcDbLine
 10
207.8953742009
 20
126.355229422
 30
0.0
 11
208.9499775642
 21
124.9550779778
 31
0.0
  0
LINE
  5
93
330
1F
100
AcDbEntity
  8
0
  6
Continuous
 62
     7
370
    15
100
AcDbLine
 10
208.9499775642
 20
124.9550779778
 30
0.0
 11
209.1442531002
 21
124.8452703567
 31
0.0
  0
SPLINE
  5
94
330
1F
100
AcDbEntity
  8
0
  6
Continuous
 62
     7
370
    15
100
AcDbSpline
210
0.0
220
0.0
230
1.0
 70
     8
 71
     3
 72
     9
 73
     5
 74
     0
 42
0.00000001
 43
0.00000001
 40
0.0
 40
0.0
 40
0.0
 40
0.0
 40
0.5000511887841882
 40
1.0
 40
1.0
 40
1.0
 40
1.0
 10
209.144253100208
 20
124.8452703566564
 30
0.0
 10
209.1844647863109
 20
125.2207918868714
 30
0.0
 10
209.2648799258101
 20
125.9717580652101
 30
0.0
 10
209.1844592976526
 20
126.7227239496698
 30
0.0
 10
209.144253100208
 20
127.098168450869
 30
0.0
  0
LINE
  5
95
330
1F
100
AcDbEntity
  8
0
  6
Continuous
 62
     7
370
    15
100
AcDbLine
 10
208.9499775642
 20
127.507976072
 30
0.0
 11
209.1442531002
 21
127.0981684509
 31
0.0
  0
LINE
  5
96
330
1F
100
AcDbEntity
  8
0
  6
Continuous
 62
     7
370
    15
100
AcDbLine
 10
207.8953742009
 20
129.2255160815
 30
0.0
 11
208.9499775642
 21
127.507976072
 31
0.0
  0
LINE
  5
97
330
1F
100
AcDbEntity
  8
0
  6
Continuous
 62
     7
370
    15
100
AcDbLine
 10
207.6658250656
 20
129.7034028609
 30
0.0
 11
207.8953742009
 21
129.2255160815
 31
0.0
  0
LINE
  5
98
330
1F
100
AcDbEntity
  8
0
  6
Continuous
 62
     7
370
    15
100
AcDbLine
 10
211.0433245556
 20
95.2533583251
 30
0.0
 11
211.0433245556
 21
125.2533583251
 31
0.0
  0
LINE
  5
99
330
1F
100
AcDbEntity
  8
0
  6
Continuous
 62
     7
370
    15
100
AcDbLine
 10
199.9136112151
 20
112.8062564193
 30
0.0
 11
208.9499775642
 21
112.8062564193
 31
0.0
  0
LINE
  5
9A
330
1F
100
AcDbEntity
  8
0
  6
Continuous
 62
     7
370
    15
100
AcDbLine
 10
199.9136112151
 20
107.7004602309
 30
0.0
 11
208.9499775642
 21
107.7004602309
 31
0.0
  0
ARC
  5
9B
330
1F
100
AcDbEntity
  8
0
  6
Continuous
 62
     7
370
    15
100
AcDbCircle
 10
199.9136112151
 20
110.2533583251
 30
0.0
 40
2.552898094212537
100
AcDbArc
 50
90.0
 51
270.0
  0
ARC
  5
9C
330
1F
100
AcDbEntity
  8
0
  6
Continuous
 62
     7
370
    15
100
AcDbCircle
 10
199.9136112151
 20
110.2533583251
 30
0.0
 40
2.252898094212526
100
AcDbArc
 50
90.0
 51
270.0
  0
LINE
  5
9D
330
1F
100
AcDbEntity
  8
0
  6
Continuous
 62
     7
370
    15
100
AcDbLine
 10
199.9136112151
 20
108.0004602309
 30
0.0
 11
209.1442531002
 21
108.0004602309
 31
0.0
  0
LINE
  5
9E
330
1F
100
AcDbEntity
  8
0
  6
Continuous
 62
     7
370
    15
100
AcDbLine
 10
199.9136112151
 20
112.5062564193
 30
0.0
 11
209.1442531002
 21
112.5062564193
 31
0.0
  0
LWPOLYLINE
  5
9F
330
1F
100
AcDbEntity
  8
0
  6
Continuous
 62
     7
370
    15
100
AcDbPolyline
 90
       10
 70
   128
 43
0.0
 10
197.3837747399
 20
127.112421257
 10
197.2298465673
 20
127.2814639134
 10
197.064252177
 20
127.6173853391
 10
197.064252177
 20
127.9633601644
 10
197.2298465673
 20
128.29928159
 10
197.5514116038
 20
128.6056270838
 10
198.0102590955
 20
128.8645929592
 10
198.579722494
 20
129.0611290607
 10
199.2267066564
 20
129.1838134246
 10
199.9136112151
 20
129.2255160815
  0
LWPOLYLINE
  5
A0
330
1F
100
AcDbEntity
  8
0
  6
Continuous
 62
     7
370
    15
100
AcDbPolyline
 90
       10
 70
   128
 43
0.0
 10
199.9136112151
 20
91.2812005687
 10
199.2267066564
 20
91.3229032256
 10
198.579722494
 20
91.4455875894
 10
198.0102590955
 20
91.642123691
 10
197.5514116038
 20
91.9010895663
 10
197.2298465673
 20
92.2074350601
 10
197.064252177
 20
92.5433564858
 10
197.064252177
 20
92.8893313111
 10
197.2298465673
 20
93.2252527368
 10
197.4447957004
 20
93.4483779588
  0
ARC
  5
A1
330
1F
100
AcDbEntity
  8
0
  6
Continuous
 62
     7
370
    15
100
AcDbCircle
 10
199.7446375596
 20
123.8993506439
 30
0.0
 40
3.612579352269013
100
AcDbArc
 50
87.3190870021
 51
123.1726613699
  0
ARC
  5
A2
330
1F
100
AcDbEntity
  8
0
  6
Continuous
 62
     7
370
    15
100
AcDbCircle
 10
199.7465179945
 20
96.6211946116
 30
0.0
 40
3.626305746784582
100
AcDbArc
 50
237.1422344284
 51
272.6410148627
  0
ARC
  5
A3
330
1F
100
AcDbEntity
  8
0
  6
Continuous
 62
     7
370
    15
100
AcDbCircle
 10
199.8301017633
 20
123.5026449724
 30
0.0
 40
3.596493140936207
100
AcDbArc
 50
88.66949025
 51
115.337682412
  0
ARC
  5
A4
330
1F
100
AcDbEntity
  8
0
  6
Continuous
 62
     7
370
    15
100
AcDbCircle
 10
199.8267519656
 20
96.9737241226
 30
0.0
 40
3.566233852893153
100
AcDbArc
 50
243.8965611167
 51
271.3956349412
  0
LINE
  5
A5
330
1F
100
AcDbEntity
  8
0
  6
Continuous
 62
     7
370
    15
100
AcDbLine
 10
199.9136112151
 20
127.0981684509
 30
0.0
 11
209.1442531002
 21
127.0981684509
 31
0.0
  0
LINE
  5
A6
330
1F
100
AcDbEntity
  8
0
  6
Continuous
 62
     7
370
    15
100
AcDbLine
 10
199.9136112151
 20
93.4085481993
 30
0.0
 11
209.1442531002
 21
93.4085481993
 31
0.0
  0
LINE
  5
A7
330
1F
100
AcDbEntity
  8
0
  6
Continuous
 62
     7
370
    15
100
AcDbLine
 10
199.9136112151
 20
127.507976072
 30
0.0
 11
208.9499775642
 21
127.507976072
 31
0.0
  0
LINE
  5
A8
330
1F
100
AcDbEntity
  8
0
  6
Continuous
 62
     7
370
    15
100
AcDbLine
 10
199.9136112151
 20
129.2255160815
 30
0.0
 11
207.8953742009
 21
129.2255160815
 31
0.0
  0
LINE
  5
A9
330
1F
100
AcDbEntity
  8
0
  6
Continuous
 62
     7
370
    15
100
AcDbLine
 10
199.9136112151
 20
91.2812005687
 30
0.0
 11
207.8953742009
 21
91.2812005687
 31
0.0
  0
LINE
  5
AA
330
1F
100
AcDbEntity
  8
0
  6
Continuous
 62
     7
370
    15
100
AcDbLine
 10
199.9136112151
 20
92.9987405781
 30
0.0
 11
208.9499775642
 21
92.9987405781
 31
0.0
  0
LINE
  5
AB
330
1F
100
AcDbEntity
  8
0
  6
Continuous
 62
     7
370
    15
100
AcDbLine
 10
111.0433245556
 20
79.0533583251
 30
0.0
 11
111.0433245556
 21
141.4533583247
 31
0.0
  0
LINE
  5
AC
330
1F
100
AcDbEntity
  8
0
  6
Continuous
 62
     7
370
    15
100
AcDbLine
 10
132.4352573871
 20
80.0664406288
 30
0.0
 11
132.4352573871
 21
130.1033583251
 31
0.0
  0
SPLINE
  5
AD
330
1F
100
AcDbEntity
  8
0
  6
Continuous
 62
     7
370
    15
100
AcDbSpline
210
0.0
220
0.0
230
1.0
 70
     8
 71
     3
 72
     8
 73
     4
 74
     0
 42
0.00000001
 43
0.00000001
 40
0.0
 40
0.0
 40
0.0
 40
0.0
 40
1.0
 40
1.0
 40
1.0
 40
1.0
 10
132.4352573870549
 20
80.06644062882809
 30
0.0
 10
131.9397777263891
 20
80.96196671676145
 30
0.0
 10
131.445663678347
 20
81.8582511318137
 30
0.0
 10
130.9533245555658
 20
82.7555211660204
 30
0.0
  0
LINE
  5
AE
330
1F
100
AcDbEntity
  8
0
  6
Continuous
 62
     7
370
    15
100
AcDbLine
 10
130.9533245556
 20
82.755521166
 30
0.0
 11
130.9533245556
 21
130.1033583251
 31
0.0
  0
SPLINE
  5
AF
330
1F
100
AcDbEntity
  8
0
  6
Continuous
 62
     7
370
    15
100
AcDbSpline
210
0.0
220
0.0
230
1.0
 70
    24
 71
     3
 72
     8
 73
     4
 74
     0
 42
0.00000001
 43
0.00000001
 40
0.0
 40
0.0
 40
0.0
 40
0.0
 40
1.0
 40
1.0
 40
1.0
 40
1.0
 10
130.9533245555658
 20
130.1033583250752
 30
0.0
 10
131.4332765499307
 20
130.1033583250752
 30
0.0
 10
131.9285772789043
 20
130.1033583250752
 30
0.0
 10
132.4352573870549
 20
130.1033583250752
 30
0.0
  0
LINE
  5
B0
330
1F
100
AcDbEntity
  8
0
  6
Continuous
 62
     7
370
    15
100
AcDbLine
 10
136.3933245556
 20
80.0664406288
 30
0.0
 11
132.4352573871
 21
80.0664406288
 31
0.0
  0
LINE
  5
B1
330
1F
100
AcDbEntity
  8
0
  6
Continuous
 62
     7
370
    15
100
AcDbLine
 10
132.4352573871
 20
130.1033583251
 30
0.0
 11
136.3933245556
 21
130.1033583251
 31
0.0
  0
LINE
  5
B2
330
1F
100
AcDbEntity
  8
0
  6
Continuous
 62
     7
370
    15
100
AcDbLine
 10
136.9933245556
 20
80.6930809245
 30
0.0
 11
136.9933245556
 21
130.1033583251
 31
0.0
  0
SPLINE
  5
B3
330
1F
100
AcDbEntity
  8
0
  6
Continuous
 62
     7
370
    15
100
AcDbSpline
210
0.0
220
0.0
230
1.0
 70
     8
 71
     3
 72
    10
 73
     6
 74
     0
 42
0.00000001
 43
0.00000001
 40
0.0
 40
0.0
 40
0.0
 40
0.0
 40
0.5
 40
0.5
 40
1.0
 40
1.0
 40
1.0
 40
1.0
 10
136.9933245555658
 20
80.6930809244824
 30
0.0
 10
136.9933245555658
 20
80.53319365628874
 30
0.0
 10
136.93201490433
 20
80.37206640077414
 30
0.0
 10
136.7129152667949
 20
80.1379674024193
 30
0.0
 10
136.5548670604814
 20
80.06644062882809
 30
0.0
 10
136.3933245555658
 20
80.06644062882809
 30
0.0
  0
SPLINE
  5
B4
330
1F
100
AcDbEntity
  8
0
  6
Continuous
 62
     7
370
    15
100
AcDbSpline
210
0.0
220
0.0
230
1.0
 70
    24
 71
     3
 72
    12
 73
     8
 74
     0
 42
0.00000001
 43
0.00000001
 40
0.0
 40
0.0
 40
0.0
 40
0.0
 40
0.2500000000000033
 40
0.2500000000000033
 40
0.5000000000000067
 40
0.5000000000000067
 40
1.0
 40
1.0
 40
1.0
 40
1.0
 10
136.3933245555658
 20
130.1033583250752
 30
0.0
 10
136.4835636232529
 20
130.1033583250752
 30
0.0
 10
136.5744617373593
 20
130.1033583250752
 30
0.0
 10
136.7290587738479
 20
130.1033583250752
 30
0.0
 10
136.794037189956
 20
130.1033583250752
 30
0.0
 10
136.9458722178922
 20
130.1033583250752
 30
0.0
 10
136.9933245555658
 20
130.1033583250752
 30
0.0
 10
136.9933245555658
 20
130.1033583250752
 30
0.0
  0
LINE
  5
B5
330
1F
100
AcDbEntity
  8
0
  6
Continuous
 62
     7
370
    15
100
AcDbLine
 10
127.1333245556
 20
82.755521166
 30
0.0
 11
127.1333245556
 21
130.1033583251
 31
0.0
  0
SPLINE
  5
B6
330
1F
100
AcDbEntity
  8
0
  6
Continuous
 62
     7
370
    15
100
AcDbSpline
210
0.0
220
0.0
230
1.0
 70
     8
 71
     3
 72
     8
 73
     4
 74
     0
 42
0.00000001
 43
0.00000001
 40
0.0
 40
0.0
 40
0.0
 40
0.0
 40
1.0
 40
1.0
 40
1.0
 40
1.0
 10
127.1333245555658
 20
82.75552116602039
 30
0.0
 10
126.6409854327846
 20
81.85825113181369
 30
0.0
 10
126.1468713847425
 20
80.96196671676145
 30
0.0
 10
125.6513917240768
 20
80.06644062882809
 30
0.0
  0
LINE
  5
B7
330
1F
100
AcDbEntity
  8
0
  6
Continuous
 62
     7
370
    15
100
AcDbLine
 10
125.6513917241
 20
80.0664406288
 30
0.0
 11
125.6513917241
 21
130.1033583251
 31
0.0
  0
SPLINE
  5
B8
330
1F
100
AcDbEntity
  8
0
  6
Continuous
 62
     7
370
    15
100
AcDbSpline
210
0.0
220
0.0
230
1.0
 70
    24
 71
     3
 72
     8
 73
     4
 74
     0
 42
0.00000001
 43
0.00000001
 40
0.0
 40
0.0
 40
0.0
 40
0.0
 40
1.0
 40
1.0
 40
1.0
 40
1.0
 10
125.6513917240767
 20
130.1033583250752
 30
0.0
 10
126.1580718322273
 20
130.1033583250752
 30
0.0
 10
126.6533725612009
 20
130.1033583250752
 30
0.0
 10
127.1333245555658
 20
130.1033583250752
 30
0.0
  0
SPLINE
  5
B9
330
1F
100
AcDbEntity
  8
0
  6
Continuous
 62
     7
370
    15
100
AcDbSpline
210
0.0
220
0.0
230
1.0
 70
     8
 71
     3
 72
    70
 73
    66
 74
     0
 42
0.00000001
 43
0.00000001
 40
-0.03125
 40
-0.03125
 40
0.0
 40
0.0
 40
0.03125
 40
0.03125
 40
0.0625
 40
0.0625
 40
0.09375
 40
0.09375
 40
0.125
 40
0.125
 40
0.15625
 40
0.15625
 40
0.1875
 40
0.1875
 40
0.21875
 40
0.21875
 40
0.25
 40
0.25
 40
0.28125
 40
0.28125
 40
0.3125
 40
0.3125
 40
0.34375
 40
0.34375
 40
0.375
 40
0.375
 40
0.40625
 40
0.40625
 40
0.4375
 40
0.4375
 40
0.46875
 40
0.46875
 40
0.5
 40
0.5
 40
0.53125
 40
0.53125
 40
0.5625
 40
0.5625
 40
0.59375
 40
0.59375
 40
0.625
 40
0.625
 40
0.65625
 40
0.65625
 40
0.6875
 40
0.6875
 40
0.71875
 40
0.71875
 40
0.75
 40
0.75
 40
0.78125
 40
0.78125
 40
0.8125
 40
0.8125
 40
0.84375
 40
0.84375
 40
0.875
 40
0.875
 40
0.90625
 40
0.90625
 40
0.9375
 40
0.9375
 40
0.96875
 40
0.96875
 40
1.0
 40
1.0
 40
1.03125
 40
1.03125
 10
118.7787792169057
 20
120.8742652110586
 30
0.0
 10
119.307869894226
 20
120.8742652110586
 30
0.0
 10
119.5679405616031
 20
120.8989425058438
 30
0.0
 10
120.0795152414385
 20
120.9954141788857
 30
0.0
 10
120.3336905251787
 20
121.0683950948657
 30
0.0
 10
120.8179611552404
 20
121.2581356978044
 30
0.0
 10
121.0476022471215
 20
121.3739963561981
 30
0.0
 10
121.482206595355
 20
121.6466142021558
 30
0.0
 10
121.6877723720016
 20
121.8046532842096
 30
0.0
 10
122.0563295125969
 20
122.1481961351802
 30
0.0
 10
122.2218104953324
 20
122.3349585792819
 30
0.0
 10
122.5142350047675
 20
122.7385017536787
 30
0.0
 10
122.638335981394
 20
122.9519987501079
 30
0.0
 10
122.8379151781437
 20
123.3913820640304
 30
0.0
 10
122.914848764002
 20
123.620522051176
 30
0.0
 10
123.0177058225223
 20
124.086496173936
 30
0.0
 10
123.0431787319815
 20
124.3193786196122
 30
0.0
 10
123.0434691425492
 20
124.784776154692
 30
0.0
 10
123.0174445087735
 20
125.0196519120863
 30
0.0
 10
122.9152962242815
 20
125.4711450593326
 30
0.0
 10
122.8397197766983
 20
125.689191534744
 30
0.0
 10
122.6392222455534
 20
126.1102860597818
 30
0.0
 10
122.514093404045
 20
126.3122074443001
 30
0.0
 10
122.2247346030234
 20
126.684236926819
 30
0.0
 10
122.059323615968
 20
126.8568652303994
 30
0.0
 10
121.6863330578201
 20
127.1741832349454
 30
0.0
 10
121.4846000247311
 20
127.313970168447
 30
0.0
 10
121.0517407739032
 20
127.5581464219988
 30
0.0
 10
120.8178222410138
 20
127.6633759330403
 30
0.0
 10
120.3336385058712
 20
127.8315330794155
 30
0.0
 10
120.0843228799157
 20
127.8947839700093
 30
0.0
 10
119.5712903554879
 20
127.9803631791119
 30
0.0
 10
119.3059965325833
 20
128.0022353440343
 30
0.0
 10
118.7836619127136
 20
128.0023989936782
 30
0.0
 10
118.5239082502318
 20
127.9813973015823
 30
0.0
 10
118.0072964345866
 20
127.8959949465046
 30
0.0
 10
117.7549303940863
 20
127.8319887632176
 30
0.0
 10
117.2734052725535
 20
127.6651742431764
 30
0.0
 10
117.0405545404399
 20
127.5610410797773
 30
0.0
 10
116.6034646920012
 20
127.3150544272823
 30
0.0
 10
116.402143703344
 20
127.1753045963335
 30
0.0
 10
116.0330576780441
 20
126.8621665266089
 30
0.0
 10
115.8640729269924
 20
126.6867103673388
 30
0.0
 10
115.5736168703332
 20
126.3138701032386
 30
0.0
 10
115.450545058971
 20
126.1157482931276
 30
0.0
 10
115.249208817549
 20
125.695036950394
 30
0.0
 10
115.1719962716068
 20
125.4730469297264
 30
0.0
 10
115.0697927287067
 20
125.0231819900181
 30
0.0
 10
115.0435643772544
 20
124.7929265769013
 30
0.0
 10
115.0430879779373
 20
124.3216106343522
 30
0.0
 10
115.0688303904353
 20
124.0883732186381
 30
0.0
 10
115.1701411667991
 20
123.62669667914
 30
0.0
 10
115.2469738061901
 20
123.3957992920279
 30
0.0
 10
115.4473776454053
 20
122.9535232782362
 30
0.0
 10
115.5700491436973
 20
122.7424608469503
 30
0.0
 10
115.8599964328615
 20
122.3409623362177
 30
0.0
 10
116.0285674122267
 20
122.1500558141418
 30
0.0
 10
116.3968370063399
 20
121.8063304821447
 30
0.0
 10
116.5978988636102
 20
121.6511932959306
 30
0.0
 10
117.0349297821951
 20
121.3761159358508
 30
0.0
 10
117.2670779953248
 20
121.2589997064288
 30
0.0
 10
117.7480882768236
 20
121.0700732213643
 30
0.0
 10
118.0001883596541
 20
120.99699825097
 30
0.0
 10
118.5172578459131
 20
120.8989461918355
 30
0.0
 10
118.7787792169057
 20
120.8742652110586
 30
0.0
 10
119.307869894226
 20
120.8742652110586
 30
0.0
  0
LINE
  5
BA
330
1F
100
AcDbEntity
  8
0
  6
Continuous
 62
     7
370
    15
100
AcDbLine
 10
115.9933245556
 20
130.1033583251
 30
0.0
 11
125.6513917241
 21
130.1033583251
 31
0.0
  0
LINE
  5
BB
330
1F
100
AcDbEntity
  8
0
  6
Continuous
 62
     7
370
    15
100
AcDbLine
 10
125.6513917241
 20
80.0664406288
 30
0.0
 11
123.9933245556
 21
80.0664406288
 31
0.0
  0
SPLINE
  5
BC
330
1F
100
AcDbEntity
  8
0
  6
Continuous
 62
     7
370
    15
100
AcDbSpline
210
0.0
220
0.0
230
1.0
 70
     8
 71
     3
 72
    28
 73
    24
 74
     0
 42
0.00000001
 43
0.00000001
 40
0.0
 40
0.0
 40
0.0
 40
0.0
 40
0.1250000000000001
 40
0.1250000000000001
 40
0.1875000000000001
 40
0.1875000000000001
 40
0.2500000000000001
 40
0.2500000000000001
 40
0.3749999999999999
 40
0.3749999999999999
 40
0.4375
 40
0.4375
 40
0.4999999999999999
 40
0.4999999999999999
 40
0.6249999999999999
 40
0.6249999999999999
 40
0.7499999999999997
 40
0.7499999999999997
 40
0.8124999999999998
 40
0.8124999999999998
 40
0.8749999999999998
 40
0.8749999999999998
 40
1.0
 40
1.0
 40
1.0
 40
1.0
 10
123.9933245555658
 20
80.06644062882809
 30
0.0
 10
123.4616167980729
 20
80.06644062882809
 30
0.0
 10
122.9393782327626
 20
80.05065591487788
 30
0.0
 10
122.1695077464876
 20
80.00566050080168
 30
0.0
 10
121.9151481742962
 20
79.98710550572594
 30
0.0
 10
121.4110265935977
 20
79.94325278327943
 30
0.0
 10
121.1613037761698
 20
79.91790817632724
 30
0.0
 10
120.4357138247234
 20
79.83450609857715
 30
0.0
 10
119.9773535631418
 20
79.76864053942606
 30
0.0
 10
119.326855619748
 20
79.65967019893426
 30
0.0
 10
119.1151735689555
 20
79.62143056316762
 30
0.0
 10
118.7111020798175
 20
79.54367182574826
 30
0.0
 10
118.5185955659966
 20
79.5041708635729
 30
0.0
 10
117.9687605949754
 20
79.3852631212069
 30
0.0
 10
117.6388318166665
 20
79.30544543978229
 30
0.0
 10
117.0543605480979
 20
79.15210227798623
 30
0.0
 10
116.8080834100844
 20
79.08076852471699
 30
0.0
 10
116.5082406173863
 20
78.98682501764236
 30
0.0
 10
116.4197837603142
 20
78.95763122428242
 30
0.0
 10
116.266422407009
 20
78.90416465001901
 30
0.0
 10
116.2013341927828
 20
78.87980531574384
 30
0.0
 10
116.045740176842
 20
78.8162151702991
 30
0.0
 10
115.9933245555658
 20
78.78611223520984
 30
0.0
 10
115.9933245555658
 20
78.76923534221292
 30
0.0
  0
LINE
  5
BD
330
1F
100
AcDbEntity
  8
0
  6
Continuous
 62
     7
370
    15
100
AcDbLine
 10
115.9933245556
 20
78.7692353422
 30
0.0
 11
115.9933245556
 21
78.7533583251
 31
0.0
  0
SPLINE
  5
BE
330
1F
100
AcDbEntity
  8
0
  6
Continuous
 62
     7
370
    15
100
AcDbSpline
210
0.0
220
0.0
230
1.0
 70
     8
 71
     3
 72
    17
 73
    13
 74
     0
 42
0.00000001
 43
0.00000001
 40
0.0
 40
0.0
 40
0.0
 40
0.0
 40
0.1034796923964056
 40
0.210023918880785
 40
0.3134862136955583
 40
0.4198361274354882
 40
0.5254127712915682
 40
0.633961069541979
 40
0.7409508756305031
 40
0.8511696089308174
 40
0.9558996534551937
 40
1.0
 40
1.0
 40
1.0
 40
1.0
 10
123.9933245555658
 20
140.7205537982395
 30
0.0
 10
123.5580762064558
 20
140.7260019947728
 30
0.0
 10
122.6746896998908
 20
140.7370597352847
 30
0.0
 10
121.3938621146621
 20
140.8234181281862
 30
0.0
 10
120.1764455787881
 20
140.951288304724
 30
0.0
 10
119.0686397265415
 20
141.1102336033171
 30
0.0
 10
118.0804009225933
 20
141.2847272910327
 30
0.0
 10
117.2556773650618
 20
141.4538931416726
 30
0.0
 10
116.6067238644025
 20
141.6017769242009
 30
0.0
 10
116.1896890489408
 20
141.7035675084317
 30
0.0
 10
115.9910923359763
 20
141.7539190310349
 30
0.0
 10
116.0144050574095
 20
141.7480133468125
 30
0.0
 10
116.0213129146471
 20
141.7462634171179
 30
0.0
  0
LINE
  5
BF
330
1F
100
AcDbEntity
  8
0
  6
Continuous
 62
     7
370
    15
100
AcDbLine
 10
125.6513917241
 20
140.7205537982
 30
0.0
 11
123.9933245556
 21
140.7205537982
 31
0.0
  0
LINE
  5
C0
330
1F
100
AcDbEntity
  8
0
  6
Continuous
 62
     7
370
    15
100
AcDbLine
 10
125.6513917241
 20
134.7120479874
 30
0.0
 11
125.6513917241
 21
140.7205537982
 31
0.0
  0
LINE
  5
C1
330
1F
100
AcDbEntity
  8
0
  6
Continuous
 62
     7
370
    15
100
AcDbLine
 10
123.2389449013
 20
134.7120479874
 30
0.0
 11
125.6513917241
 21
134.7120479874
 31
0.0
  0
SPLINE
  5
C2
330
1F
100
AcDbEntity
  8
0
  6
Continuous
 62
     7
370
    15
100
AcDbSpline
210
0.0
220
0.0
230
1.0
 70
     8
 71
     3
 72
    20
 73
    16
 74
     0
 42
0.00000001
 43
0.00000001
 40
0.0
 40
0.0
 40
0.0
 40
0.0
 40
0.2499999999999997
 40
0.2499999999999997
 40
0.3749999999999997
 40
0.3749999999999997
 40
0.4999999999999998
 40
0.4999999999999998
 40
0.6249999999999998
 40
0.6249999999999998
 40
0.7499999999999999
 40
0.7499999999999999
 40
0.8749999999999999
 40
0.8749999999999999
 40
1.0
 40
1.0
 40
1.0
 40
1.0
 10
115.9933245555658
 20
130.1033583250752
 30
0.0
 10
116.2416982898539
 20
130.7572207533726
 30
0.0
 10
116.5612683821991
 20
131.3610065353698
 30
0.0
 10
117.1835746154038
 20
132.1878452715384
 30
0.0
 10
117.4149988758346
 20
132.4502739094913
 30
0.0
 10
117.9362132154843
 20
132.9469365635963
 30
0.0
 10
118.2228336981194
 20
133.1775234426178
 30
0.0
 10
118.842318439427
 20
133.5940776672005
 30
0.0
 10
119.176618818914
 20
133.781575469168
 30
0.0
 10
119.9018792915387
 20
134.1129724468044
 30
0.0
 10
120.2837943489292
 20
134.2524764342997
 30
0.0
 10
121.0785825251009
 20
134.4779299417706
 30
0.0
 10
121.4927407193073
 20
134.5645560533142
 30
0.0
 10
122.3582870598887
 20
134.6825368421684
 30
0.0
 10
122.7961746749005
 20
134.7120479874427
 30
0.0
 10
123.2389449012551
 20
134.7120479874427
 30
0.0
  0
SPLINE
  5
C3
330
1F
100
AcDbEntity
  8
0
  6
Continuous
 62
     7
370
    15
100
AcDbSpline
210
0.0
220
0.0
230
1.0
 70
     8
 71
     3
 72
    70
 73
    66
 74
     0
 42
0.00000001
 43
0.00000001
 40
-0.03125
 40
-0.03125
 40
0.0
 40
0.0
 40
0.0312499999999999
 40
0.0312499999999999
 40
0.0624999999999999
 40
0.0624999999999999
 40
0.0937499999999998
 40
0.0937499999999998
 40
0.1249999999999997
 40
0.1249999999999997
 40
0.1562499999999997
 40
0.1562499999999997
 40
0.1874999999999996
 40
0.1874999999999996
 40
0.2187499999999995
 40
0.2187499999999995
 40
0.2499999999999994
 40
0.2499999999999994
 40
0.2812499999999996
 40
0.2812499999999996
 40
0.3124999999999996
 40
0.3124999999999996
 40
0.3437499999999997
 40
0.3437499999999997
 40
0.3749999999999998
 40
0.3749999999999998
 40
0.4062499999999999
 40
0.4062499999999999
 40
0.4375
 40
0.4375
 40
0.4687500000000001
 40
0.4687500000000001
 40
0.5000000000000002
 40
0.5000000000000002
 40
0.5312500000000001
 40
0.5312500000000001
 40
0.5625000000000001
 40
0.5625000000000001
 40
0.59375
 40
0.59375
 40
0.6249999999999999
 40
0.6249999999999999
 40
0.6562499999999999
 40
0.6562499999999999
 40
0.6874999999999998
 40
0.6874999999999998
 40
0.7187499999999998
 40
0.7187499999999998
 40
0.7499999999999997
 40
0.7499999999999997
 40
0.7812499999999997
 40
0.7812499999999997
 40
0.8124999999999998
 40
0.8124999999999998
 40
0.8437499999999998
 40
0.8437499999999998
 40
0.8749999999999998
 40
0.8749999999999998
 40
0.9062499999999999
 40
0.9062499999999999
 40
0.9374999999999999
 40
0.9374999999999999
 40
0.96875
 40
0.96875
 40
1.0
 40
1.0
 40
1.03125
 40
1.03125
 10
118.7787792169057
 20
135.3123217198544
 30
0.0
 10
119.307869894226
 20
135.3123217198545
 30
0.0
 10
119.5679405616031
 20
135.3282221602692
 30
0.0
 10
120.0795152414385
 20
135.3901665104435
 30
0.0
 10
120.3336905251787
 20
135.4369687445348
 30
0.0
 10
120.8179611552404
 20
135.5579457279898
 30
0.0
 10
121.0476022471215
 20
135.6315480557967
 30
0.0
 10
121.4822065953551
 20
135.8033723267748
 30
0.0
 10
121.6877723720016
 20
135.9023757497022
 30
0.0
 10
122.0563295125969
 20
136.1154721636151
 30
0.0
 10
122.2218104953324
 20
136.2303718797448
 30
0.0
 10
122.5142350047675
 20
136.475738778435
 30
0.0
 10
122.638335981394
 20
136.6041786789053
 30
0.0
 10
122.8379151781437
 20
136.8650708269913
 30
0.0
 10
122.914848764002
 20
136.9994519983307
 30
0.0
 10
123.0177058225223
 20
137.268771949437
 30
0.0
 10
123.0431787319815
 20
137.4014532136551
 30
0.0
 10
123.0434691425492
 20
137.6626396877862
 30
0.0
 10
123.0174445087735
 20
137.7924047259509
 30
0.0
 10
122.9152962242815
 20
138.0379873602236
 30
0.0
 10
122.8397197766983
 20
138.1546488975325
 30
0.0
 10
122.6392222455534
 20
138.376554087687
 30
0.0
 10
122.514093404045
 20
138.48116534161
 30
0.0
 10
122.2247346030234
 20
138.6712117532181
 30
0.0
 10
122.059323615968
 20
138.7579714246677
 30
0.0
 10
121.6863330578201
 20
138.9154758004193
 30
0.0
 10
121.4846000247311
 20
138.9838010652065
 30
0.0
 10
121.0517407739032
 20
139.1020307888257
 30
0.0
 10
120.8178222410138
 20
139.1523257049296
 30
0.0
 10
120.3336385058712
 20
139.2321912418192
 30
0.0
 10
120.0843228799157
 20
139.2619323696188
 30
0.0
 10
119.571290355488
 20
139.302085111127
 30
0.0
 10
119.3059965325833
 20
139.3122833805369
 30
0.0
 10
118.7836619127136
 20
139.3123598389216
 30
0.0
 10
118.5239082502318
 20
139.3025688273125
 30
0.0
 10
118.0072964345866
 20
139.2625019885738
 30
0.0
 10
117.7549303940863
 20
139.232404821717
 30
0.0
 10
117.2734052725535
 20
139.1531826118868
 30
0.0
 10
117.0405545404399
 20
139.1034251324234
 30
0.0
 10
116.6034646920012
 20
138.984333189973
 30
0.0
 10
116.402143703344
 20
138.9160179284257
 30
0.0
 10
116.0330576780441
 20
138.7606169614922
 30
0.0
 10
115.8640729269924
 20
138.6724646194253
 30
0.0
 10
115.5736168703332
 20
138.4820252303089
 30
0.0
 10
115.450545058971
 20
138.3794006526099
 30
0.0
 10
115.249208817549
 20
138.1577603060017
 30
0.0
 10
115.1719962716068
 20
138.0390062304542
 30
0.0
 10
115.0697927287067
 20
137.7943402915366
 30
0.0
 10
115.0435643772544
 20
137.667183566088
 30
0.0
 10
115.0430879779373
 20
137.4027354202325
 30
0.0
 10
115.0688303904353
 20
137.2698347399753
 30
0.0
 10
115.1701411667991
 20
137.0030424664932
 30
0.0
 10
115.2469738061901
 20
136.8676785650247
 30
0.0
 10
115.4473776454053
 20
136.6050987697221
 30
0.0
 10
115.5700491436973
 20
136.4781236099683
 30
0.0
 10
115.8599964328615
 20
136.234044223886
 30
0.0
 10
116.0285674122268
 20
136.1166190991321
 30
0.0
 10
116.3968370063399
 20
135.9034226381837
 30
0.0
 10
116.5978988636102
 20
135.8062485197588
 30
0.0
 10
117.0349297821951
 20
135.6328936325446
 30
0.0
 10
117.2670779953248
 20
135.5584940808879
 30
0.0
 10
117.7480882768236
 20
135.4380412013832
 30
0.0
 10
118.0001883596541
 20
135.3911828261172
 30
0.0
 10
118.5172578459131
 20
135.3282253291335
 30
0.0
 10
118.7787792169057
 20
135.3123217198544
 30
0.0
 10
119.307869894226
 20
135.3123217198545
 30
0.0
  0
ARC
  5
C4
330
1F
100
AcDbEntity
  8
0
  6
Continuous
 62
     7
370
    15
100
AcDbCircle
 10
119.0410239301
 20
122.1392089457
 30
0.0
 40
4.120394170593635
100
AcDbArc
 50
19.9127907637
 51
159.0999392525
  0
SPLINE
  5
C5
330
1F
100
AcDbEntity
  8
0
  6
Continuous
 62
     7
370
    15
100
AcDbSpline
210
0.0
220
0.0
230
1.0
 70
     8
 71
     3
 72
    10
 73
     6
 74
     0
 42
0.00000001
 43
0.00000001
 40
0.0
 40
0.0
 40
0.0
 40
0.0
 40
0.5
 40
0.5
 40
1.0
 40
1.0
 40
1.0
 40
1.0
 10
127.5276220872568
 20
136.6533583250753
 30
0.0
 10
127.4060818235883
 20
136.728084492287
 30
0.0
 10
127.3047474632393
 20
136.8370295082038
 30
0.0
 10
127.1691085203509
 20
137.0874599889654
 30
0.0
 10
127.1333245555658
 20
137.2298793510643
 30
0.0
 10
127.1333245555658
 20
137.373012176111
 30
0.0
  0
SPLINE
  5
C6
330
1F
100
AcDbEntity
  8
0
  6
Continuous
 62
     7
370
    15
100
AcDbSpline
210
0.0
220
0.0
230
1.0
 70
    24
 71
     3
 72
    12
 73
     8
 74
     0
 42
0.00000001
 43
0.00000001
 40
0.0
 40
0.0
 40
0.0
 40
0.0
 40
0.2500000000000037
 40
0.2500000000000037
 40
0.5000000000000074
 40
0.5000000000000074
 40
1.0
 40
1.0
 40
1.0
 40
1.0
 10
127.9333245555658
 20
136.6533583250753
 30
0.0
 10
127.8834478732484
 20
136.6533583250753
 30
0.0
 10
127.8354446798448
 20
136.6533583250753
 30
0.0
 10
127.7523965771328
 20
136.6533583250753
 30
0.0
 10
127.716266997665
 20
136.6533583250753
 30
0.0
 10
127.6203549667208
 20
136.6533583250753
 30
0.0
 10
127.570596298752
 20
136.6533583250753
 30
0.0
 10
127.5276220872568
 20
136.6533583250753
 30
0.0
  0
SPLINE
  5
C7
330
1F
100
AcDbEntity
  8
0
  6
Continuous
 62
     7
370
    15
100
AcDbSpline
210
0.0
220
0.0
230
1.0
 70
    24
 71
     3
 72
    14
 73
    10
 74
     0
 42
0.00000001
 43
0.00000001
 40
0.0
 40
0.0
 40
0.0
 40
0.0
 40
0.1249999999999991
 40
0.1249999999999991
 40
0.2499999999999982
 40
0.2499999999999982
 40
0.4999999999999998
 40
0.4999999999999998
 40
1.0
 40
1.0
 40
1.0
 40
1.0
 10
127.9333245555658
 20
83.85335832507526
 30
0.0
 10
127.8648867076794
 20
83.85335832507526
 30
0.0
 10
127.7993366689143
 20
83.85335832507526
 30
0.0
 10
127.6949100295064
 20
83.85335832507526
 30
0.0
 10
127.652365419745
 20
83.85335832507526
 30
0.0
 10
127.5397559592047
 20
83.85335832507525
 30
0.0
 10
127.4842169121852
 20
83.85335832507526
 30
0.0
 10
127.3416052167214
 20
83.85335832507525
 30
0.0
 10
127.2781998617256
 20
83.85335832507525
 30
0.0
 10
127.2309993578981
 20
83.85335832507526
 30
0.0
  0
SPLINE
  5
C8
330
1F
100
AcDbEntity
  8
0
  6
Continuous
 62
     7
370
    15
100
AcDbSpline
210
0.0
220
0.0
230
1.0
 70
     8
 71
     3
 72
    10
 73
     6
 74
     0
 42
0.00000001
 43
0.00000001
 40
0.0
 40
0.0
 40
0.0
 40
0.0
 40
0.5
 40
0.5
 40
1.0
 40
1.0
 40
1.0
 40
1.0
 10
127.1333245555658
 20
130.3892249565366
 30
0.0
 10
127.1333245555658
 20
130.3414534485433
 30
0.0
 10
127.135485799163
 20
130.2937437264817
 30
0.0
 10
127.1441571730232
 20
130.1984486089334
 30
0.0
 10
127.1506863559791
 20
130.1507560449667
 30
0.0
 10
127.1594721787259
 20
130.1033583250752
 30
0.0
  0
SPLINE
  5
C9
330
1F
100
AcDbEntity
  8
0
  6
Continuous
 62
     7
370
    15
100
AcDbSpline
210
0.0
220
0.0
230
1.0
 70
    24
 71
     3
 72
    14
 73
    10
 74
     0
 42
0.00000001
 43
0.00000001
 40
0.0
 40
0.0
 40
0.0
 40
0.0
 40
0.4999999999999984
 40
0.4999999999999984
 40
0.7499999999999992
 40
0.7499999999999992
 40
0.8749999999999996
 40
0.8749999999999996
 40
1.0
 40
1.0
 40
1.0
 40
1.0
 10
130.8556497532335
 20
83.85335832507526
 30
0.0
 10
130.8088650481853
 20
83.85335832507526
 30
0.0
 10
130.7468138514057
 20
83.85335832507526
 30
0.0
 10
130.6034222128551
 20
83.85335832507525
 30
0.0
 10
130.5472785593039
 20
83.85335832507526
 30
0.0
 10
130.4343275371678
 20
83.85335832507526
 30
0.0
 10
130.3913267751296
 20
83.85335832507526
 30
0.0
 10
130.2872640648231
 20
83.85335832507526
 30
0.0
 10
130.2219318264662
 20
83.85335832507526
 30
0.0
 10
130.1533245555658
 20
83.85335832507526
 30
0.0
  0
SPLINE
  5
CA
330
1F
100
AcDbEntity
  8
0
  6
Continuous
 62
     7
370
    15
100
AcDbSpline
210
0.0
220
0.0
230
1.0
 70
    24
 71
     3
 72
    12
 73
     8
 74
     0
 42
0.00000001
 43
0.00000001
 40
0.0
 40
0.0
 40
0.0
 40
0.0
 40
0.5000000000000017
 40
0.5000000000000017
 40
0.7500000000000008
 40
0.7500000000000008
 40
1.0
 40
1.0
 40
1.0
 40
1.0
 10
130.5590270238748
 20
136.6533583250753
 30
0.0
 10
130.5159414742639
 20
136.6533583250753
 30
0.0
 10
130.4667892725146
 20
136.6533583250753
 30
0.0
 10
130.3703166782267
 20
136.6533583250753
 30
0.0
 10
130.3342150930921
 20
136.6533583250753
 30
0.0
 10
130.2511093352308
 20
136.6533583250753
 30
0.0
 10
130.2031127382645
 20
136.6533583250753
 30
0.0
 10
130.1533245555658
 20
136.6533583250753
 30
0.0
  0
SPLINE
  5
CB
330
1F
100
AcDbEntity
  8
0
  6
Continuous
 62
     7
370
    15
100
AcDbSpline
210
0.0
220
0.0
230
1.0
 70
     8
 71
     3
 72
    10
 73
     6
 74
     0
 42
0.00000001
 43
0.00000001
 40
0.0
 40
0.0
 40
0.0
 40
0.0
 40
0.5
 40
0.5
 40
1.0
 40
1.0
 40
1.0
 40
1.0
 10
130.9533245555658
 20
137.373012176111
 30
0.0
 10
130.9533245555658
 20
137.229242118293
 30
0.0
 10
130.9172754968469
 20
137.0868227557979
 30
0.0
 10
130.7817666360729
 20
136.8369284624406
 30
0.0
 10
130.6818906429768
 20
136.7288981261924
 30
0.0
 10
130.5590270238748
 20
136.6533583250752
 30
0.0
  0
SPLINE
  5
CC
330
1F
100
AcDbEntity
  8
0
  6
Continuous
 62
     7
370
    15
100
AcDbSpline
210
0.0
220
0.0
230
1.0
 70
     8
 71
     3
 72
    10
 73
     6
 74
     0
 42
0.00000001
 43
0.00000001
 40
0.0
 40
0.0
 40
0.0
 40
0.0
 40
0.5
 40
0.5
 40
1.0
 40
1.0
 40
1.0
 40
1.0
 10
130.9271769324057
 20
130.1033583250752
 30
0.0
 10
130.9358665753174
 20
130.1502371743935
 30
0.0
 10
130.9424056400679
 20
130.1976596397948
 30
0.0
 10
130.9511642744609
 20
130.2935964383815
 30
0.0
 10
130.9533245555658
 20
130.3415117263921
 30
0.0
 10
130.9533245555658
 20
130.3892249565366
 30
0.0
  0
LINE
  5
CD
330
1F
100
AcDbEntity
  8
0
  6
Continuous
 62
     7
370
    15
100
AcDbLine
 10
130.1533245556
 20
136.6533583251
 30
0.0
 11
127.9333245556
 21
136.6533583251
 31
0.0
  0
LINE
  5
CE
330
1F
100
AcDbEntity
  8
0
  6
Continuous
 62
     7
370
    15
100
AcDbLine
 10
130.1533245556
 20
83.8533583251
 30
0.0
 11
127.9333245556
 21
83.8533583251
 31
0.0
  0
LINE
  5
CF
330
1F
100
AcDbEntity
  8
0
  6
Continuous
 62
     7
370
    15
100
AcDbLine
 10
89.2433245556
 20
87.0249114313
 30
0.0
 11
89.2433245556
 21
88.2896207939
 31
0.0
  0
SPLINE
  5
D0
330
1F
100
AcDbEntity
  8
0
  6
Continuous
 62
     7
370
    15
100
AcDbSpline
210
0.0
220
0.0
230
1.0
 70
     8
 71
     3
 72
    14
 73
    10
 74
     0
 42
0.00000001
 43
0.00000001
 40
0.0
 40
0.0
 40
0.0
 40
0.0
 40
0.25
 40
0.25
 40
0.5
 40
0.5
 40
0.75
 40
0.75
 40
1.0
 40
1.0
 40
1.0
 40
1.0
 10
88.46503743765011
 20
89.42020700151531
 30
0.0
 10
88.52166411285219
 20
89.31250954767845
 30
0.0
 10
88.6161867731419
 20
89.20971996595912
 30
0.0
 10
88.79923174870414
 20
89.01136265373897
 30
0.0
 10
88.89085832565888
 20
88.91530314506073
 30
0.0
 10
89.04971164335207
 20
88.72777410235149
 30
0.0
 10
89.11760225097376
 20
88.63636512956793
 30
0.0
 10
89.21451927668134
 20
88.45798890865778
 30
0.0
 10
89.24332455556642
 20
88.3707670024116
 30
0.0
 10
89.2433245555664
 20
88.28962079387733
 30
0.0
  0
SPLINE
  5
D1
330
1F
100
AcDbEntity
  8
0
  6
Continuous
 62
     7
370
    15
100
AcDbSpline
210
0.0
220
0.0
230
1.0
 70
     8
 71
     3
 72
    14
 73
    10
 74
     0
 42
0.00000001
 43
0.00000001
 40
0.0
 40
0.0
 40
0.0
 40
0.0
 40
0.1249999999999975
 40
0.1249999999999975
 40
0.249999999999995
 40
0.249999999999995
 40
0.4999999999999953
 40
0.4999999999999953
 40
1.0
 40
1.0
 40
1.0
 40
1.0
 10
87.84332455556583
 20
89.86688886379463
 30
0.0
 10
87.891868964223
 20
89.87263717707492
 30
0.0
 10
87.94478431900791
 20
89.86953628841867
 30
0.0
 10
88.04007966399094
 20
89.84734144425636
 30
0.0
 10
88.0803306612759
 20
89.83010921716048
 30
0.0
 10
88.18460067478887
 20
89.77378130070842
 30
0.0
 10
88.23492264994219
 20
89.72959495476263
 30
0.0
 10
88.36260559746758
 20
89.598587055912
 30
0.0
 10
88.41869104452984
 20
89.50835253568171
 30
0.0
 10
88.46503743765157
 20
89.42020700151583
 30
0.0
  0
SPLINE
  5
D2
330
1F
100
AcDbEntity
  8
0
  6
Continuous
 62
     7
370
    15
100
AcDbSpline
210
0.0
220
0.0
230
1.0
 70
     8
 71
     3
 72
     8
 73
     4
 74
     0
 42
0.00000001
 43
0.00000001
 40
0.0
 40
0.0
 40
0.0
 40
0.0
 40
1.0
 40
1.0
 40
1.0
 40
1.0
 10
85.57479946261961
 20
89.55704357721184
 30
0.0
 10
86.30937648910256
 20
89.6756685882808
 30
0.0
 10
87.07285155849823
 20
89.77565446041707
 30
0.0
 10
87.84332455556584
 20
89.86688886379463
 30
0.0
  0
SPLINE
  5
D3
330
1F
100
AcDbEntity
  8
0
  6
Continuous
 62
     7
370
    15
100
AcDbSpline
210
0.0
220
0.0
230
1.0
 70
     8
 71
     3
 72
    14
 73
    10
 74
     0
 42
0.00000001
 43
0.00000001
 40
0.0
 40
0.0
 40
0.0
 40
0.0
 40
0.500000000000001
 40
0.500000000000001
 40
0.7500000000000004
 40
0.7500000000000004
 40
0.8750000000000003
 40
0.8750000000000003
 40
1.0
 40
1.0
 40
1.0
 40
1.0
 10
80.29332455556583
 20
89.38342055968019
 30
0.0
 10
81.1854706861194
 20
89.38269833347954
 30
0.0
 10
82.075447121913
 20
89.387284539937
 30
0.0
 10
83.40204228898862
 20
89.41500954432853
 30
0.0
 10
83.84288921748734
 20
89.4276160819527
 30
0.0
 10
84.49932945490976
 20
89.45863222996016
 30
0.0
 10
84.71734311150165
 20
89.47097540258693
 30
0.0
 10
85.15005196518442
 20
89.50399945775021
 30
0.0
 10
85.36532843034922
 20
89.52321662288864
 30
0.0
 10
85.57479946261962
 20
89.55704357721184
 30
0.0
  0
SPLINE
  5
D4
330
1F
100
AcDbEntity
  8
0
  6
Continuous
 62
     7
370
    15
100
AcDbSpline
210
0.0
220
0.0
230
1.0
 70
     8
 71
     3
 72
     8
 73
     4
 74
     0
 42
0.00000001
 43
0.00000001
 40
0.0000005163856712
 40
0.0000005163856712
 40
0.0000005163856712
 40
0.0000005163856712
 40
0.000026289209185
 40
0.000026289209185
 40
0.000026289209185
 40
0.000026289209185
 10
80.28327962514714
 20
89.39340443278805
 30
0.0
 10
80.28660736335861
 20
89.39007018591523
 30
0.0
 10
80.28995581633791
 20
89.38674222863621
 30
0.0
 10
80.2933245555658
 20
89.38342055968018
 30
0.0
  0
SPLINE
  5
D5
330
1F
100
AcDbEntity
  8
0
  6
Continuous
 62
     7
370
    15
100
AcDbSpline
210
0.0
220
0.0
230
1.0
 70
     8
 71
     3
 72
     8
 73
     4
 74
     0
 42
0.00000001
 43
0.00000001
 40
0.0000005099763573
 40
0.0000005099763573
 40
0.0000005099763573
 40
0.0000005099763573
 40
0.0000262827998699
 40
0.0000262827998699
 40
0.0000262827998699
 40
0.0000262827998699
 10
80.29332455556582
 20
131.1232960904703
 30
0.0
 10
80.28995581633808
 20
131.1199744215145
 30
0.0
 10
80.28660736335894
 20
131.1166464642356
 30
0.0
 10
80.28327962514761
 20
131.1133122173629
 30
0.0
  0
SPLINE
  5
D6
330
1F
100
AcDbEntity
  8
0
  6
Continuous
 62
     7
370
    15
100
AcDbSpline
210
0.0
220
0.0
230
1.0
 70
     8
 71
     3
 72
    10
 73
     6
 74
     0
 42
0.00000001
 43
0.00000001
 40
0.0
 40
0.0
 40
0.0
 40
0.0
 40
0.5
 40
0.5
 40
1.0
 40
1.0
 40
1.0
 40
1.0
 10
83.84332455556584
 20
131.076445716903
 30
0.0
 10
83.25573900847525
 20
131.0975112371394
 30
0.0
 10
82.66499261501485
 20
131.1082697230116
 30
0.0
 10
81.480973449716
 20
131.1216345035473
 30
0.0
 10
80.88755946151053
 20
131.1237771462119
 30
0.0
 10
80.29332455556583
 20
131.1232960904703
 30
0.0
  0
SPLINE
  5
D7
330
1F
100
AcDbEntity
  8
0
  6
Continuous
 62
     7
370
    15
100
AcDbSpline
210
0.0
220
0.0
230
1.0
 70
     8
 71
     3
 72
    18
 73
    14
 74
     0
 42
0.00000001
 43
0.00000001
 40
0.0
 40
0.0
 40
0.0
 40
0.0
 40
0.2500000000000009
 40
0.2500000000000009
 40
0.500000000000001
 40
0.500000000000001
 40
0.7500000000000011
 40
0.7500000000000011
 40
0.875000000000001
 40
0.875000000000001
 40
0.9375000000000006
 40
0.9375000000000006
 40
1.0
 40
1.0
 40
1.0
 40
1.0
 10
85.24332455556583
 20
132.0974659974382
 30
0.0
 10
85.24332455556585
 20
132.014259088581
 30
0.0
 10
85.20747545562757
 20
131.9255224332675
 30
0.0
 10
85.08260371959364
 20
131.7433972427073
 30
0.0
 10
84.99220330194578
 20
131.6482671940806
 30
0.0
 10
84.7699606472036
 20
131.4590856849563
 30
0.0
 10
84.64019586075783
 20
131.3641405168616
 30
0.0
 10
84.39955840344632
 20
131.2258618092817
 30
0.0
 10
84.31179110530887
 20
131.1801513759793
 30
0.0
 10
84.15726701810208
 20
131.1223280707578
 30
0.0
 10
84.10065613204732
 20
131.1046133067199
 30
0.0
 10
83.97661210114072
 20
131.080074003487
 30
0.0
 10
83.90889742612242
 20
131.0740948649487
 30
0.0
 10
83.84332455556583
 20
131.076445716903
 30
0.0
  0
LINE
  5
D8
330
1F
100
AcDbEntity
  8
0
  6
Continuous
 62
     7
370
    15
100
AcDbLine
 10
85.2433245556
 20
132.0974659974
 30
0.0
 11
85.2433245556
 21
133.2814044173
 31
0.0
  0
LINE
  5
D9
330
1F
100
AcDbEntity
  8
0
  6
Continuous
 62
     7
370
    15
100
AcDbLine
 10
109.0433245556
 20
86.0329274634
 30
0.0
 11
109.0433245556
 21
134.4737891868
 31
0.0
  0
SPLINE
  5
DA
330
1F
100
AcDbEntity
  8
0
  6
Continuous
 62
     7
370
    15
100
AcDbSpline
210
0.0
220
0.0
230
1.0
 70
     8
 71
     3
 72
    24
 73
    20
 74
     0
 42
0.00000001
 43
0.00000001
 40
0.0
 40
0.0
 40
0.0
 40
0.0
 40
0.0010489762969682
 40
0.0637843125639766
 40
0.1272220590447888
 40
0.1903788924487598
 40
0.252674865369363
 40
0.3146354154424954
 40
0.377089199714964
 40
0.4393540298504154
 40
0.5008133242537826
 40
0.562184510458698
 40
0.624843845111553
 40
0.6874304766616532
 40
0.7496743174679398
 40
0.8119848426977657
 40
0.8750960525413161
 40
0.9384412526965076
 40
0.9999999999999999
 40
0.9999999999999999
 40
0.9999999999999999
 40
0.9999999999999999
 10
97.81223038754153
 20
86.5958498964951
 30
0.0
 10
97.8117839274373
 20
86.59579161067622
 30
0.0
 10
97.78463636374354
 20
86.59224746873369
 30
0.0
 10
97.88024814135723
 20
86.60508121341644
 30
0.0
 10
98.11380839925162
 20
86.63432789861662
 30
0.0
 10
98.50936270656891
 20
86.68094222167946
 30
0.0
 10
99.03640301040645
 20
86.73112536333882
 30
0.0
 10
99.67993342239626
 20
86.77550182578842
 30
0.0
 10
100.4186072776353
 20
86.80244660672663
 30
0.0
 10
101.2161217830686
 20
86.80591845743342
 30
0.0
 10
102.0427006655113
 20
86.77829121340318
 30
0.0
 10
102.8682236831221
 20
86.71981232442985
 30
0.0
 10
103.6603502311233
 20
86.63436729506977
 30
0.0
 10
104.3929225051292
 20
86.53263305523345
 30
0.0
 10
105.0285627418572
 20
86.42478993326047
 30
0.0
 10
105.5504738488667
 20
86.32315977652138
 30
0.0
 10
105.9321026259823
 20
86.24067461984316
 30
0.0
 10
106.182917096216
 20
86.18452541349355
 30
0.0
 10
106.2120386522003
 20
86.17767595487979
 30
0.0
 10
106.2263911730165
 20
86.17430020815164
 30
0.0
  0
SPLINE
  5
DB
330
1F
100
AcDbEntity
  8
0
  6
Continuous
 62
     7
370
    15
100
AcDbSpline
210
0.0
220
0.0
230
1.0
 70
     8
 71
     3
 72
    24
 73
    20
 74
     0
 42
0.00000001
 43
0.00000001
 40
0.0
 40
0.0
 40
0.0
 40
0.0
 40
0.0614384276250176
 40
0.1250736755369651
 40
0.1884253490729237
 40
0.2508623904037427
 40
0.3129665632511172
 40
0.3753451453465143
 40
0.4377328972324873
 40
0.4990927322917189
 40
0.5605807588447405
 40
0.6229469893028771
 40
0.6854686282025979
 40
0.7475477813740068
 40
0.8098225060804932
 40
0.8730684085990272
 40
0.9364041844536292
 40
0.9991757196257863
 40
1.0
 40
1.0
 40
1.0
 40
1.0
 10
106.2263364022136
 20
134.3323872995327
 30
0.0
 10
106.2117356779101
 20
134.32901924268
 30
0.0
 10
106.1820121591822
 20
134.3221626992063
 30
0.0
 10
105.9292743435335
 20
134.2658240786803
 30
0.0
 10
105.5462784270839
 20
134.1829669965503
 30
0.0
 10
105.0239228426468
 20
134.0810599665991
 30
0.0
 10
104.3891383646469
 20
133.9732208275552
 30
0.0
 10
103.6589147604743
 20
133.8717538755801
 30
0.0
 10
102.8684461752402
 20
133.7866941618895
 30
0.0
 10
102.0439626604121
 20
133.7284898680031
 30
0.0
 10
101.2169262015286
 20
133.7009064291764
 30
0.0
 10
100.4186019338769
 20
133.7043994066692
 30
0.0
 10
99.67877796958763
 20
133.7313553265224
 30
0.0
 10
99.03452373661253
 20
133.7757092685216
 30
0.0
 10
98.50711648139657
 20
133.8259147182794
 30
0.0
 10
98.11245187924636
 20
133.8725245734779
 30
0.0
 10
97.87992260005805
 20
133.9017201660252
 30
0.0
 10
97.78454256750949
 20
133.9144982349665
 30
0.0
 10
97.81147620441041
 20
133.9109439764587
 30
0.0
 10
97.81182529763475
 20
133.9108979088753
 30
0.0
  0
SPLINE
  5
DC
330
1F
100
AcDbEntity
  8
0
  6
Continuous
 62
     7
370
    15
100
AcDbSpline
210
0.0
220
0.0
230
1.0
 70
     8
 71
     3
 72
    10
 73
     6
 74
     0
 42
0.00000001
 43
0.00000001
 40
0.0
 40
0.0
 40
0.0
 40
0.0
 40
0.0840381716605994
 40
0.7011125076933077
 40
1.0
 40
1.0
 40
1.0
 40
1.0
 10
79.1568715181015
 20
90.52458441739192
 30
0.0
 10
79.15754607543641
 20
90.52237879055602
 30
0.0
 10
79.16317376313265
 20
90.50397771719382
 30
0.0
 10
79.18949524325946
 20
90.51821227991697
 30
0.0
 10
79.20193026010415
 20
90.56389805546796
 30
0.0
 10
79.20598793028921
 20
90.57880578029453
 30
0.0
  0
LINE
  5
DD
330
1F
100
AcDbEntity
  8
0
  6
Continuous
 62
     7
370
    15
100
AcDbLine
 10
79.1433245556
 20
90.5626805786
 30
0.0
 11
79.1433245556
 21
129.9440360716
 31
0.0
  0
SPLINE
  5
DE
330
1F
100
AcDbEntity
  8
0
  6
Continuous
 62
     7
370
    15
100
AcDbSpline
210
0.0
220
0.0
230
1.0
 70
     8
 71
     3
 72
    10
 73
     6
 74
     0
 42
0.00000001
 43
0.00000001
 40
0.0
 40
0.0
 40
0.0
 40
0.0
 40
0.5
 40
0.5
 40
1.0
 40
1.0
 40
1.0
 40
1.0
 10
79.20598793028924
 20
129.927910869856
 30
0.0
 10
79.19708364118047
 20
129.9736523890692
 30
0.0
 10
79.18056826098749
 20
129.9908432285382
 30
0.0
 10
79.15346031492587
 20
129.9905199516024
 30
0.0
 10
79.14332455556583
 20
129.972642409306
 30
0.0
 10
79.14332455556583
 20
129.9440360715534
 30
0.0
  0
SPLINE
  5
DF
330
1F
100
AcDbEntity
  8
0
  6
Continuous
 62
     7
370
    15
100
AcDbSpline
210
0.0
220
0.0
230
1.0
 70
     8
 71
     3
 72
    26
 73
    22
 74
     0
 42
0.00000001
 43
0.00000001
 40
0.0
 40
0.0
 40
0.0
 40
0.0
 40
0.2500000000000165
 40
0.2500000000000165
 40
0.3750000000000256
 40
0.3750000000000256
 40
0.4375000000000291
 40
0.4375000000000291
 40
0.4687500000000291
 40
0.4687500000000291
 40
0.5000000000000292
 40
0.5000000000000292
 40
0.5312500000000293
 40
0.5312500000000293
 40
0.5625000000000293
 40
0.5625000000000293
 40
0.625000000000026
 40
0.625000000000026
 40
0.7500000000000173
 40
0.7500000000000173
 40
1.0
 40
1.0
 40
1.0
 40
1.0
 10
79.96747820167035
 20
130.6434776586731
 30
0.0
 10
79.92887767880187
 20
130.5257029623176
 30
0.0
 10
79.88258067624761
 20
130.4013132761557
 30
0.0
 10
79.78864132781369
 20
130.1960939438023
 30
0.0
 10
79.75332986090022
 20
130.1245210773558
 30
0.0
 10
79.68714988515454
 20
130.0085678447553
 30
0.0
 10
79.66261151848633
 20
129.9679833099451
 30
0.0
 10
79.61923877293253
 20
129.9038416280734
 30
0.0
 10
79.60373037150734
 20
129.8819752027883
 30
0.0
 10
79.5686877269203
 20
129.8363809344451
 30
0.0
 10
79.54913743620054
 20
129.8127106434777
 30
0.0
 10
79.50721015582992
 20
129.7680940841377
 30
0.0
 10
79.48455804559829
 20
129.7472140716199
 30
0.0
 10
79.44358433151166
 20
129.716340657869
 30
0.0
 10
79.42598503161624
 20
129.7065017880366
 30
0.0
 10
79.3813580457601
 20
129.6875121723405
 30
0.0
 10
79.36079882310676
 20
129.687187847687
 30
0.0
 10
79.30967338361009
 20
129.6964112885632
 30
0.0
 10
79.28876197062154
 20
129.7176581847802
 30
0.0
 10
79.23731206306061
 20
129.7916270636109
 30
0.0
 10
79.21964676375606
 20
129.8577451569257
 30
0.0
 10
79.20598793028924
 20
129.927910869856
 30
0.0
  0
SPLINE
  5
E0
330
1F
100
AcDbEntity
  8
0
  6
Continuous
 62
     7
370
    15
100
AcDbSpline
210
0.0
220
0.0
230
1.0
 70
     8
 71
     3
 72
    10
 73
     6
 74
     0
 42
0.00000001
 43
0.00000001
 40
0.0
 40
0.0
 40
0.0
 40
0.0
 40
0.5
 40
0.5
 40
1.0
 40
1.0
 40
1.0
 40
1.0
 10
80.28327962514764
 20
131.1133122173629
 30
0.0
 10
80.21572037022939
 20
131.0456208245531
 30
0.0
 10
80.1520837148929
 20
130.9709136597995
 30
0.0
 10
80.04186296032103
 20
130.8119475273729
 30
0.0
 10
79.9950466670984
 20
130.7275922613649
 30
0.0
 10
79.96747820167033
 20
130.6434776586731
 30
0.0
  0
SPLINE
  5
E1
330
1F
100
AcDbEntity
  8
0
  6
Continuous
 62
     7
370
    15
100
AcDbSpline
210
0.0
220
0.0
230
1.0
 70
     8
 71
     3
 72
    10
 73
     6
 74
     0
 42
0.00000001
 43
0.00000001
 40
0.0
 40
0.0
 40
0.0
 40
0.0
 40
0.5
 40
0.5
 40
1.0
 40
1.0
 40
1.0
 40
1.0
 10
79.96747820167039
 20
89.86323899147729
 30
0.0
 10
79.99495561642358
 20
89.7794021950117
 30
0.0
 10
80.04166424671125
 20
89.69509170742487
 30
0.0
 10
80.1519427094532
 20
89.53597047694201
 30
0.0
 10
80.21583024806483
 20
89.46098573285393
 30
0.0
 10
80.28327962514717
 20
89.39340443278805
 30
0.0
  0
SPLINE
  5
E2
330
1F
100
AcDbEntity
  8
0
  6
Continuous
 62
     7
370
    15
100
AcDbSpline
210
0.0
220
0.0
230
1.0
 70
     8
 71
     3
 72
    24
 73
    20
 74
     0
 42
0.00000001
 43
0.00000001
 40
0.0
 40
0.0
 40
0.0
 40
0.0
 40
0.25
 40
0.25
 40
0.374999999999999
 40
0.374999999999999
 40
0.4374999999999993
 40
0.4374999999999993
 40
0.4687499999999994
 40
0.4687499999999994
 40
0.4999999999999995
 40
0.4999999999999995
 40
0.5624999999999971
 40
0.5624999999999971
 40
0.6249999999999947
 40
0.6249999999999947
 40
0.7499999999999947
 40
0.7499999999999947
 40
1.0
 40
1.0
 40
1.0
 40
1.0
 10
79.20598793028924
 20
90.5788057802945
 30
0.0
 10
79.21974104895946
 20
90.6494558382848
 30
0.0
 10
79.23751361636533
 20
90.71605395104973
 30
0.0
 10
79.28976470792068
 20
90.79015197128292
 30
0.0
 10
79.31079978350225
 20
90.81140977844449
 30
0.0
 10
79.36370019113068
 20
90.81955570459073
 30
0.0
 10
79.38480586400858
 20
90.81861590119496
 30
0.0
 10
79.43085803268657
 20
90.79759990961762
 30
0.0
 10
79.44922850466996
 20
90.78669110351
 30
0.0
 10
79.49078013973565
 20
90.75405619256263
 30
0.0
 10
79.51334681249257
 20
90.73256421219125
 30
0.0
 10
79.57612782895258
 20
90.66409826860495
 30
0.0
 10
79.60925758992049
 20
90.61802381039985
 30
0.0
 10
79.66617527640548
 20
90.53301592206519
 30
0.0
 10
79.69036130190926
 20
90.4927356208838
 30
0.0
 10
79.75556925228902
 20
90.37779939441785
 30
0.0
 10
79.79028531248026
 20
90.30721640927085
 30
0.0
 10
79.88350058281115
 20
90.10301065019225
 30
0.0
 10
79.92917311817183
 20
89.98011226786488
 30
0.0
 10
79.96747820167037
 20
89.8632389914773
 30
0.0
  0
SPLINE
  5
E3
330
1F
100
AcDbEntity
  8
0
  6
Continuous
 62
     7
370
    15
100
AcDbSpline
210
0.0
220
0.0
230
1.0
 70
     8
 71
     3
 72
    10
 73
     6
 74
     0
 42
0.00000001
 43
0.00000001
 40
0.0
 40
0.0
 40
0.0
 40
0.0
 40
0.5
 40
0.5
 40
1.0
 40
1.0
 40
1.0
 40
1.0
 10
136.9933245555658
 20
140.0997986488391
 30
0.0
 10
136.9933245555658
 20
140.26020391519
 30
0.0
 10
136.931086724459
 20
140.4192657281786
 30
0.0
 10
136.7119518007164
 20
140.6501781938089
 30
0.0
 10
136.5543631057245
 20
140.7205537982395
 30
0.0
 10
136.3933245555658
 20
140.7205537982395
 30
0.0
  0
SPLINE
  5
E4
330
1F
100
AcDbEntity
  8
0
  6
Continuous
 62
     7
370
    15
100
AcDbSpline
210
0.0
220
0.0
230
1.0
 70
     8
 71
     3
 72
    12
 73
     8
 74
     0
 42
0.00000001
 43
0.00000001
 40
0.0
 40
0.0
 40
0.0
 40
0.0
 40
0.25
 40
0.25
 40
0.5
 40
0.5
 40
1.0
 40
1.0
 40
1.0
 40
1.0
 10
136.3933245555658
 20
134.7120479874427
 30
0.0
 10
136.4845242773915
 20
134.7120479874427
 30
0.0
 10
136.5751192865275
 20
134.6838282888548
 30
0.0
 10
136.7285320129742
 20
134.5893852816067
 30
0.0
 10
136.7937408802978
 20
134.5230983049014
 30
0.0
 10
136.9465254096378
 20
134.2974734816131
 30
0.0
 10
136.9933245555658
 20
134.1150472185805
 30
0.0
 10
136.9933245555658
 20
133.9343105863337
 30
0.0
  0
LINE
  5
E5
330
1F
100
AcDbEntity
  8
0
  6
Continuous
 62
     7
370
    15
100
AcDbLine
 10
136.9933245556
 20
133.9343105863
 30
0.0
 11
136.9933245556
 21
140.0997986488
 31
0.0
  0
LINE
  5
E6
330
1F
100
AcDbEntity
  8
0
  6
Continuous
 62
     7
370
    15
100
AcDbLine
 10
136.3933245556
 20
140.7205537982
 30
0.0
 11
132.4352573871
 21
140.7205537982
 31
0.0
  0
LINE
  5
E7
330
1F
100
AcDbEntity
  8
0
  6
Continuous
 62
     7
370
    15
100
AcDbLine
 10
132.4352573871
 20
134.7120479874
 30
0.0
 11
136.3933245556
 21
134.7120479874
 31
0.0
  0
LINE
  5
E8
330
1F
100
AcDbEntity
  8
0
  6
Continuous
 62
     7
370
    15
100
AcDbLine
 10
132.4352573871
 20
134.7120479874
 30
0.0
 11
132.4352573871
 21
140.7205537982
 31
0.0
  0
SPLINE
  5
E9
330
1F
100
AcDbEntity
  8
0
  6
Continuous
 62
     7
370
    15
100
AcDbSpline
210
0.0
220
0.0
230
1.0
 70
     8
 71
     3
 72
     8
 73
     4
 74
     0
 42
0.00000001
 43
0.00000001
 40
0.0
 40
0.0
 40
0.0
 40
0.0
 40
1.0
 40
1.0
 40
1.0
 40
1.0
 10
125.6513917240768
 20
134.7120479874427
 30
0.0
 10
126.1584785658361
 20
133.580897633279
 30
0.0
 10
126.654046404976
 20
132.4445132225112
 30
0.0
 10
127.1333245555658
 20
131.3035019926586
 30
0.0
  0
LINE
  5
EA
330
1F
100
AcDbEntity
  8
0
  6
Continuous
 62
     7
370
    15
100
AcDbLine
 10
127.1333245556
 20
131.3035019927
 30
0.0
 11
127.1333245556
 21
130.3892249565
 31
0.0
  0
SPLINE
  5
EB
330
1F
100
AcDbEntity
  8
0
  6
Continuous
 62
     7
370
    15
100
AcDbSpline
210
0.0
220
0.0
230
1.0
 70
     8
 71
     3
 72
     8
 73
     4
 74
     0
 42
0.00000001
 43
0.00000001
 40
0.0
 40
0.0
 40
0.0
 40
0.0
 40
1.0
 40
1.0
 40
1.0
 40
1.0
 10
127.1333245555658
 20
138.0585925162468
 30
0.0
 10
126.6406144587201
 20
138.9466115143733
 30
0.0
 10
126.1465317534411
 20
139.8338741500592
 30
0.0
 10
125.6513917240768
 20
140.7205537982395
 30
0.0
  0
LINE
  5
EC
330
1F
100
AcDbEntity
  8
0
  6
Continuous
 62
     7
370
    15
100
AcDbLine
 10
127.1333245556
 20
131.3035019927
 30
0.0
 11
127.1333245556
 21
138.0585925162
 31
0.0
  0
SPLINE
  5
ED
330
1F
100
AcDbEntity
  8
0
  6
Continuous
 62
     7
370
    15
100
AcDbSpline
210
0.0
220
0.0
230
1.0
 70
     8
 71
     3
 72
     8
 73
     4
 74
     0
 42
0.00000001
 43
0.00000001
 40
0.0
 40
0.0
 40
0.0
 40
0.0
 40
1.0
 40
1.0
 40
1.0
 40
1.0
 10
130.9533245555658
 20
131.3035019926586
 30
0.0
 10
131.4326027061557
 20
132.4445132225112
 30
0.0
 10
131.9281705452956
 20
133.580897633279
 30
0.0
 10
132.4352573870549
 20
134.7120479874427
 30
0.0
  0
LINE
  5
EE
330
1F
100
AcDbEntity
  8
0
  6
Continuous
 62
     7
370
    15
100
AcDbLine
 10
130.9533245556
 20
130.3892249565
 30
0.0
 11
130.9533245556
 21
131.3035019927
 31
0.0
  0
LINE
  5
EF
330
1F
100
AcDbEntity
  8
0
  6
Continuous
 62
     7
370
    15
100
AcDbLine
 10
136.9933245556
 20
133.9343105863
 30
0.0
 11
136.9933245556
 21
130.1033583251
 31
0.0
  0
SPLINE
  5
F0
330
1F
100
AcDbEntity
  8
0
  6
Continuous
 62
     7
370
    15
100
AcDbSpline
210
0.0
220
0.0
230
1.0
 70
     8
 71
     3
 72
     8
 73
     4
 74
     0
 42
0.00000001
 43
0.00000001
 40
0.0
 40
0.0
 40
0.0
 40
0.0
 40
1.0
 40
1.0
 40
1.0
 40
1.0
 10
132.4352573870549
 20
140.7205537982395
 30
0.0
 10
131.9401173576906
 20
139.8338741500592
 30
0.0
 10
131.4460346524116
 20
138.9466115143732
 30
0.0
 10
130.9533245555658
 20
138.0585925162468
 30
0.0
  0
LINE
  5
F1
330
1F
100
AcDbEntity
  8
0
  6
Continuous
 62
     7
370
    15
100
AcDbLine
 10
130.9533245556
 20
131.3035019927
 30
0.0
 11
130.9533245556
 21
138.0585925162
 31
0.0
  0
ARC
  5
F2
330
1F
100
AcDbEntity
  8
0
  6
Continuous
 62
     7
370
    15
100
AcDbCircle
 10
119.0432686112
 20
128.9670355711
 30
0.0
 40
7.241546527673811
100
AcDbArc
 50
70.7644260524
 51
109.2201240972
  0
LINE
  5
F3
330
1F
100
AcDbEntity
  8
0
  6
Continuous
 62
     7
370
    15
100
AcDbLine
 10
156.9933245556
 20
91.7533583251
 30
0.0
 11
156.9933245556
 21
128.7533583251
 31
0.0
  0
SPLINE
  5
F4
330
1F
100
AcDbEntity
  8
0
  6
Continuous
 62
     7
370
    15
100
AcDbSpline
210
0.0
220
0.0
230
1.0
 70
     8
 71
     3
 72
    36
 73
    32
 74
     0
 42
0.00000001
 43
0.00000001
 40
0.0
 40
0.0
 40
0.0
 40
0.0
 40
0.0357613722576535
 40
0.058751345064443
 40
0.0798388081700865
 40
0.1226632230220703
 40
0.1444303390643943
 40
0.1669146488119489
 40
0.2125050862170847
 40
0.2356350186856511
 40
0.260985145826638
 40
0.3123834852203747
 40
0.3384625442801784
 40
0.366965641632564
 40
0.4248179541335052
 40
0.4542164102240723
 40
0.4848436370423824
 40
0.547097498136445
 40
0.5787958321522269
 40
0.6099841110857992
 40
0.6413962239135067
 40
0.6735357952132713
 40
0.7059378823974455
 40
0.7360124283565407
 40
0.7973900325835226
 40
0.8288324257838962
 40
0.8556704492915499
 40
0.9105528265500127
 40
0.9387354336579365
 40
0.9616844615909637
 40
1.0
 40
1.0
 40
1.0
 40
1.0
 10
151.486639092884
 20
128.752408287942
 30
0.0
 10
151.484726212908
 20
128.7521320075034
 30
0.0
 10
151.4815835966033
 20
128.7516781142002
 30
0.0
 10
151.4281925905935
 20
128.7441387900855
 30
0.0
 10
151.3496379558863
 20
128.7332130212558
 30
0.0
 10
151.23720590209
 20
128.7179436232955
 30
0.0
 10
151.0926654480062
 20
128.6992076784105
 30
0.0
 10
150.9232265458307
 20
128.6780095469088
 30
0.0
 10
150.7217587778822
 20
128.6543197919096
 30
0.0
 10
150.4890737191104
 20
128.6293104499534
 30
0.0
 10
150.2250031661885
 20
128.6028719756458
 30
0.0
 10
149.9281127292563
 20
128.5768053411851
 30
0.0
 10
149.6032101352809
 20
128.553049427256
 30
0.0
 10
149.2461882303394
 20
128.5306990211851
 30
0.0
 10
148.8616175198216
 20
128.513269122633
 30
0.0
 10
148.4612788589374
 20
128.5026942053275
 30
0.0
 10
148.0419301339093
 20
128.4970666760952
 30
0.0
 10
147.611728605601
 20
128.5001063895743
 30
0.0
 10
147.1871486330701
 20
128.5117898638308
 30
0.0
 10
146.8727678526909
 20
128.5246478914022
 30
0.0
 10
146.5649083292454
 20
128.5412405762128
 30
0.0
 10
146.263729348983
 20
128.5612955250328
 30
0.0
 10
145.9799520846993
 20
128.5836738274518
 30
0.0
 10
145.6289406336467
 20
128.6152496013223
 30
0.0
 10
145.3142429402484
 20
128.6485349326194
 30
0.0
 10
145.0537270109276
 20
128.679249097342
 30
0.0
 10
144.8378948592089
 20
128.7061683406711
 30
0.0
 10
144.6732007131189
 20
128.7282139948194
 30
0.0
 10
144.5693255877794
 20
128.7426112480749
 30
0.0
 10
144.5067989685282
 20
128.7514290021356
 30
0.0
 10
144.5025534411837
 20
128.7520415362571
 30
0.0
 10
144.4998982413553
 20
128.7524246218816
 30
0.0
  0
SPLINE
  5
F5
330
1F
100
AcDbEntity
  8
0
  6
Continuous
 62
     7
370
    15
100
AcDbSpline
210
0.0
220
0.0
230
1.0
 70
     8
 71
     3
 72
    10
 73
     6
 74
     0
 42
0.00000001
 43
0.00000001
 40
0.0
 40
0.0
 40
0.0
 40
0.0
 40
0.0662302223960662
 40
0.5317874780765501
 40
1.0
 40
1.0
 40
1.0
 40
1.0
 10
145.2595632520831
 20
128.655400671201
 30
0.0
 10
145.2672732581299
 20
128.6545101761459
 30
0.0
 10
145.3291798095998
 20
128.647360054911
 30
0.0
 10
145.4581127366638
 20
128.63340980173
 30
0.0
 10
145.5861103190581
 20
128.6205933189684
 30
0.0
 10
145.6502910971153
 20
128.6141668551227
 30
0.0
  0
SPLINE
  5
F6
330
1F
100
AcDbEntity
  8
0
  6
Continuous
 62
     7
370
    15
100
AcDbSpline
210
0.0
220
0.0
230
1.0
 70
     8
 71
     3
 72
    70
 73
    66
 74
     0
 42
0.00000001
 43
0.00000001
 40
-0.03125
 40
-0.03125
 40
0.0
 40
0.0
 40
0.03125
 40
0.03125
 40
0.0625
 40
0.0625
 40
0.09375
 40
0.09375
 40
0.125
 40
0.125
 40
0.15625
 40
0.15625
 40
0.1875
 40
0.1875
 40
0.21875
 40
0.21875
 40
0.25
 40
0.25
 40
0.28125
 40
0.28125
 40
0.3125
 40
0.3125
 40
0.34375
 40
0.34375
 40
0.375
 40
0.375
 40
0.40625
 40
0.40625
 40
0.4375
 40
0.4375
 40
0.46875
 40
0.46875
 40
0.5
 40
0.5
 40
0.53125
 40
0.53125
 40
0.5625
 40
0.5625
 40
0.59375
 40
0.59375
 40
0.625
 40
0.625
 40
0.65625
 40
0.65625
 40
0.6875
 40
0.6875
 40
0.71875
 40
0.71875
 40
0.75
 40
0.75
 40
0.78125
 40
0.78125
 40
0.8125
 40
0.8125
 40
0.84375
 40
0.84375
 40
0.875
 40
0.875
 40
0.90625
 40
0.90625
 40
0.9375
 40
0.9375
 40
0.96875
 40
0.96875
 40
1.0
 40
1.0
 40
1.03125
 40
1.03125
 10
145.4808047337737
 20
112.3843720899328
 30
0.0
 10
145.8197774628664
 20
112.6525587363644
 30
0.0
 10
145.9991404972594
 20
112.7686747911423
 30
0.0
 10
146.3757311553195
 20
112.9686174253214
 30
0.0
 10
146.5741042262881
 20
113.0527622123694
 30
0.0
 10
146.9840125982372
 20
113.1868474369917
 30
0.0
 10
147.1922778741684
 20
113.2359366451448
 30
0.0
 10
147.6151289309908
 20
113.2999753035011
 30
0.0
 10
147.8314668931857
 20
113.3148497976324
 30
0.0
 10
148.2620626802889
 20
113.3090194378699
 30
0.0
 10
148.474783468745
 20
113.2886611771817
 30
0.0
 10
148.8951570876146
 20
113.2135863527616
 30
0.0
 10
149.1044991916518
 20
113.1582444810786
 30
0.0
 10
149.5095027103212
 20
113.0132829908833
 30
0.0
 10
149.7033415567477
 20
112.9246774261012
 30
0.0
 10
150.0735046474895
 20
112.7146680156144
 30
0.0
 10
150.2513074536969
 20
112.592043409971
 30
0.0
 10
150.5802697920845
 20
112.3152722139411
 30
0.0
 10
150.7292330224298
 20
112.1634610829021
 30
0.0
 10
150.9947221620441
 20
111.831589313253
 30
0.0
 10
151.1125522494861
 20
111.6488391888574
 30
0.0
 10
151.3031431202994
 20
111.2635630247614
 30
0.0
 10
151.3756118818781
 20
111.0632189093965
 30
0.0
 10
151.4725464954615
 20
110.6462705550988
 30
0.0
 10
151.4962720527732
 20
110.4276351703097
 30
0.0
 10
151.4897703251636
 20
109.9990968711928
 30
0.0
 10
151.4602043184709
 20
109.7845122657467
 30
0.0
 10
151.3498888725338
 20
109.3659265387645
 30
0.0
 10
151.2708547164604
 20
109.1665645865183
 30
0.0
 10
151.0687475104588
 20
108.7860897517982
 30
0.0
 10
150.9458894445179
 20
108.6065959443347
 30
0.0
 10
150.6692141721765
 20
108.2794708029105
 30
0.0
 10
150.5126538426289
 20
108.1285826125909
 30
0.0
 10
150.1763103230399
 20
107.8608150415337
 30
0.0
 10
149.9971077637936
 20
107.7437791493749
 30
0.0
 10
149.6179322433681
 20
107.5412099321665
 30
0.0
 10
149.4176798534413
 20
107.4560508946578
 30
0.0
 10
149.0107116613435
 20
107.322107227847
 30
0.0
 10
148.8022964598935
 20
107.272323150168
 30
0.0
 10
148.3755961231869
 20
107.2070252269359
 30
0.0
 10
148.1592244446855
 20
107.1921047096727
 30
0.0
 10
147.7312012942828
 20
107.1973222513416
 30
0.0
 10
147.5179562988528
 20
107.2171875904267
 30
0.0
 10
147.0930504158781
 20
107.2926360536804
 30
0.0
 10
146.8836015347838
 20
107.3481366584136
 30
0.0
 10
146.4814607125654
 20
107.4917080126066
 30
0.0
 10
146.2870961418967
 20
107.580021410422
 30
0.0
 10
145.9126931492796
 20
107.7921742380156
 30
0.0
 10
145.7344091962246
 20
107.915522834423
 30
0.0
 10
145.408520965029
 20
108.1895777400402
 30
0.0
 10
145.2590011015295
 20
108.3412443523247
 30
0.0
 10
144.9900038889374
 20
108.6775611617269
 30
0.0
 10
144.8728161540591
 20
108.8603173147368
 30
0.0
 10
144.6839957151212
 20
109.242313356652
 30
0.0
 10
144.6105133910085
 20
109.4442794480926
 30
0.0
 10
144.5127433364304
 20
109.8677928286271
 30
0.0
 10
144.4902069054103
 20
110.0810608078041
 30
0.0
 10
144.4971262286113
 20
110.5105820497139
 30
0.0
 10
144.52771992302
 20
110.7285721442107
 30
0.0
 10
144.6380295062635
 20
111.1440411110436
 30
0.0
 10
144.7184084857779
 20
111.3462171777436
 30
0.0
 10
144.9221771016855
 20
111.7274922696766
 30
0.0
 10
145.0437742390204
 20
111.9043782796004
 30
0.0
 10
145.3230254115627
 20
112.2331406611138
 30
0.0
 10
145.4808047337737
 20
112.3843720899328
 30
0.0
 10
145.8197774628664
 20
112.6525587363644
 30
0.0
  0
SPLINE
  5
F7
330
1F
100
AcDbEntity
  8
0
  6
Continuous
 62
     7
370
    15
100
AcDbSpline
210
0.0
220
0.0
230
1.0
 70
     8
 71
     3
 72
    37
 73
    33
 74
     0
 42
0.00000001
 43
0.00000001
 40
0.0
 40
0.0
 40
0.0
 40
0.0
 40
0.024724503664582
 40
0.048051889920864
 40
0.0691161430317032
 40
0.1119071179046584
 40
0.1336660088391355
 40
0.1558752525102247
 40
0.2009126093896626
 40
0.2237645340798511
 40
0.2487139659497838
 40
0.2992967066616417
 40
0.324959302200794
 40
0.3531019205296209
 40
0.4102127799702259
 40
0.4392275574027585
 40
0.46967424450548
 40
0.5315502554999183
 40
0.5630484658565248
 40
0.5942487587617671
 40
0.6256707381820338
 40
0.6578096998518167
 40
0.690205739199152
 40
0.7205295116672666
 40
0.7823931135550825
 40
0.8140676204320506
 40
0.841401554530443
 40
0.8972950313940267
 40
0.9259977916749697
 40
0.9493583217592951
 40
0.9970427586930037
 40
0.9999999999999999
 40
0.9999999999999999
 40
0.9999999999999999
 40
0.9999999999999999
 10
144.5037807953058
 20
91.75484618992277
 30
0.0
 10
144.5017120142515
 20
91.75455283272687
 30
0.0
 10
144.4976913535806
 20
91.75398269518737
 30
0.0
 10
144.5359285867093
 20
91.75940786751642
 30
0.0
 10
144.6023138303693
 20
91.7687083156168
 30
0.0
 10
144.7039578360097
 20
91.78266891346976
 30
0.0
 10
144.8378751598026
 20
91.80029365173866
 30
0.0
 10
144.9960383187335
 20
91.8204462495364
 30
0.0
 10
145.1860731914223
 20
91.84333428269034
 30
0.0
 10
145.4074241303917
 20
91.86787416792039
 30
0.0
 10
145.6594431156677
 20
91.8940540304325
 30
0.0
 10
145.9443570187764
 20
91.9203201322168
 30
0.0
 10
146.258063693074
 20
91.94481883810602
 30
0.0
 10
146.6044690154491
 20
91.96836201158406
 30
0.0
 10
146.9796586966906
 20
91.9875924465345
 30
0.0
 10
147.3727306335631
 20
92.00047664159489
 30
0.0
 10
147.7871800127388
 20
92.00876642818372
 30
0.0
 10
148.2151324810208
 20
92.00865489934642
 30
0.0
 10
148.6404061474958
 20
91.99983656461137
 30
0.0
 10
148.9573227221034
 20
91.98899143685134
 30
0.0
 10
149.2695633730372
 20
91.97418389808396
 30
0.0
 10
149.5763473115873
 20
91.95566100583899
 30
0.0
 10
149.8676725575644
 20
91.93440281451981
 30
0.0
 10
150.2313637805954
 20
91.90367745357985
 30
0.0
 10
150.5615026062383
 20
91.87033464552826
 30
0.0
 10
150.8397911590439
 20
91.83861571337152
 30
0.0
 10
151.0748424652496
 20
91.81008032148169
 30
0.0
 10
151.2588317732178
 20
91.78590860558444
 30
0.0
 10
151.3833955679385
 20
91.7688303380383
 30
0.0
 10
151.4639409432049
 20
91.75756601633006
 30
0.0
 10
151.4993516302338
 20
91.75250021417193
 30
0.0
 10
151.4924482702928
 20
91.75348304656353
 30
0.0
 10
151.4920451457937
 20
91.753540439459
 30
0.0
  0
SPLINE
  5
F8
330
1F
100
AcDbEntity
  8
0
  6
Continuous
 62
     7
370
    15
100
AcDbSpline
210
0.0
220
0.0
230
1.0
 70
     8
 71
     3
 72
     9
 73
     5
 74
     0
 42
0.00000001
 43
0.00000001
 40
0.0
 40
0.0
 40
0.0
 40
0.0
 40
0.3013459654884402
 40
1.0
 40
1.0
 40
1.0
 40
1.0
 10
145.934930029987
 20
91.91811190541266
 30
0.0
 10
145.9046757835825
 20
91.91570150567719
 30
0.0
 10
145.8042787321222
 20
91.90770272682659
 30
0.0
 10
145.7136259968284
 20
91.89878217476247
 30
0.0
 10
145.6502910975759
 20
91.89254979507281
 30
0.0
  0
CIRCLE
  5
F9
330
1F
100
AcDbEntity
  8
0
  6
Continuous
 62
     7
370
    15
100
AcDbCircle
 10
147.9933245556
 20
110.2533583251
 30
0.0
 40
2.5
  0
LINE
  5
FA
330
1F
100
AcDbEntity
  8
0
  6
HIDDEN
 62
     7
370
     0
100
AcDbLine
 10
197.6766892094
 20
93.523760652
 30
0.0
 11
197.1789857374
 21
93.2421545926
 31
0.0
  0
LINE
  5
FB
330
1F
100
AcDbEntity
  8
0
  6
HIDDEN
 62
     7
370
     0
100
AcDbLine
 10
196.9298310008
 20
127.4656249218
 30
0.0
 11
197.1813385764
 21
127.2627401889
 31
0.0
  0
LINE
  5
FC
330
1F
100
AcDbEntity
  8
0
  6
HIDDEN
 62
     7
370
     0
100
AcDbLine
 10
204.1933245556
 20
94.8033583251
 30
0.0
 11
204.1933245556
 21
125.7033583238
 31
0.0
  0
LINE
  5
FD
330
1F
100
AcDbEntity
  8
0
  6
HIDDEN
 62
     7
370
     0
100
AcDbLine
 10
200.1933245556
 20
94.0033583251
 30
0.0
 11
200.1933245556
 21
126.5033583251
 31
0.0
  0
LINE
  5
FE
330
1F
100
AcDbEntity
  8
0
  6
HIDDEN
 62
     7
370
     0
100
AcDbLine
 10
198.0488175559
 20
95.0033583251
 30
0.0
 11
198.0488175559
 21
125.5033583251
 31
0.0
  0
ARC
  5
FF
330
1F
100
AcDbEntity
  8
0
  6
HIDDEN
 62
     7
370
     0
100
AcDbCircle
 10
199.6376477227
 20
130.03799962
 30
0.0
 40
3.693095203284932
100
AcDbArc
 50
232.38925275
 51
274.2853742261
  0
ARC
  5
100
330
1F
100
AcDbEntity
  8
0
  6
HIDDEN
 62
     7
370
     0
100
AcDbCircle
 10
199.6905972575
 20
90.2486428962
 30
0.0
 40
3.90921080335227
100
AcDbArc
 50
86.7295957554
 51
125.0639072619
  0
SPLINE
  5
101
330
1F
100
AcDbEntity
  8
0
  6
HIDDEN
 62
     7
370
     0
100
AcDbSpline
210
0.0
220
0.0
230
1.0
 70
     8
 71
     3
 72
    10
 73
     6
 74
     0
 42
0.00000001
 43
0.00000001
 40
0.0
 40
0.0
 40
0.0
 40
0.0
 40
0.3923137152593028
 40
0.7872787436789662
 40
0.9999999999999999
 40
0.9999999999999999
 40
0.9999999999999999
 40
0.9999999999999999
 10
205.3433245555654
 20
122.6967999052561
 30
0.0
 10
205.3443699034692
 20
122.771920071619
 30
0.0
 10
205.3464676638898
 20
122.9226680773573
 30
0.0
 10
205.3557106482792
 20
123.0587688299474
 30
0.0
 10
205.3681434987025
 20
123.0556547416004
 30
0.0
 10
205.372495631749
 20
123.054564651529
 30
0.0
  0
SPLINE
  5
102
330
1F
100
AcDbEntity
  8
0
  6
HIDDEN
 62
     7
370
     0
100
AcDbSpline
210
0.0
220
0.0
230
1.0
 70
     8
 71
     3
 72
    35
 73
    31
 74
     0
 42
0.00000001
 43
0.00000001
 40
0.0
 40
0.0
 40
0.0
 40
0.0
 40
0.2037368206461135
 40
0.2748192384493049
 40
0.3461517664699306
 40
0.3894339711840238
 40
0.4655920595984679
 40
0.5490038473089656
 40
0.632017269501297
 40
0.6672876640592876
 40
0.6832688831303112
 40
0.6911510043295869
 40
0.6937789597855362
 40
0.6955662020165017
 40
0.6967762813179664
 40
0.6975982996472374
 40
0.6981610280097086
 40
0.6986671704852688
 40
0.6989647528475853
 40
0.6991446396979188
 40
0.6992792194561682
 40
0.6994146423438002
 40
0.6995636635979913
 40
0.6998100306668619
 40
0.7005528064701855
 40
0.7039241277115327
 40
0.7172966323728112
 40
0.7707012642048233
 40
0.8848245259077362
 40
1.0
 40
1.0
 40
1.0
 40
1.0
 10
205.4059698558709
 20
123.0744112017098
 30
0.0
 10
205.4002476585294
 20
122.9892817784142
 30
0.0
 10
205.3925290247024
 20
122.8744512671423
 30
0.0
 10
205.58252011712
 20
122.5909065688388
 30
0.0
 10
205.2787140522409
 20
122.3165645106037
 30
0.0
 10
206.2695297800597
 20
122.2945843844863
 30
0.0
 10
205.3124871079424
 20
122.0063037097076
 30
0.0
 10
205.691876990225
 20
121.6508819944281
 30
0.0
 10
205.6470044327651
 20
121.3047458703318
 30
0.0
 10
205.6874182070671
 20
121.0574313502657
 30
0.0
 10
205.7052456067102
 20
120.9450923794863
 30
0.0
 10
205.7163966436142
 20
120.8942150378578
 30
0.0
 10
205.7233361870732
 20
120.8706076196357
 30
0.0
 10
205.7271936223067
 20
120.8598539851286
 30
0.0
 10
205.7303851344448
 20
120.8526161639852
 30
0.0
 10
205.7330375129534
 20
120.8477711555513
 30
0.0
 10
205.735416447694
 20
120.844331062441
 30
0.0
 10
205.7375751285613
 20
120.8419525706449
 30
0.0
 10
205.7396545903324
 20
120.8404290484083
 30
0.0
 10
205.7413241784926
 20
120.8396968183388
 30
0.0
 10
205.7427856338504
 20
120.8394014699313
 30
0.0
 10
205.7442360448498
 20
120.8394412205374
 30
0.0
 10
205.7458969775863
 20
120.8398817518254
 30
0.0
 10
205.7487160442711
 20
120.8414469270121
 30
0.0
 10
205.7554789418478
 20
120.8491764904004
 30
0.0
 10
205.7683073533183
 20
120.8827312282028
 30
0.0
 10
205.7962638339345
 20
121.0176304795822
 30
0.0
 10
205.8366601662167
 20
121.3530161354864
 30
0.0
 10
205.8892574724981
 20
121.8272809822953
 30
0.0
 10
205.9252471444088
 20
122.1272279466959
 30
0.0
 10
205.9433245555658
 20
122.2778896313649
 30
0.0
  0
LINE
  5
103
330
1F
100
AcDbEntity
  8
0
  6
HIDDEN
 62
     7
370
     0
100
AcDbLine
 10
205.3433245556
 20
97.8099167449
 30
0.0
 11
205.3433245556
 21
122.6967999053
 31
0.0
  0
SPLINE
  5
104
330
1F
100
AcDbEntity
  8
0
  6
HIDDEN
 62
     7
370
     0
100
AcDbSpline
210
0.0
220
0.0
230
1.0
 70
     8
 71
     3
 72
    34
 73
    30
 74
     0
 42
0.00000001
 43
0.00000001
 40
0.0
 40
0.0
 40
0.0
 40
0.0
 40
0.0782236867309866
 40
0.1681597474663504
 40
0.258614932015526
 40
0.2791029524015496
 40
0.2890716607776066
 40
0.2940535321379322
 40
0.2957482557087107
 40
0.296895826153301
 40
0.2976759541191689
 40
0.2982106823855437
 40
0.2987119943317642
 40
0.2989643960915726
 40
0.2991512959689654
 40
0.2992808409551106
 40
0.2994110171049842
 40
0.2995629221080268
 40
0.2998197126304593
 40
0.3006163393629827
 40
0.3042737511384259
 40
0.3187870883667311
 40
0.3767589226870374
 40
0.4861643714914958
 40
0.5965034555724201
 40
0.6955882137209053
 40
0.7953607384685804
 40
0.8973046542292101
 40
1.0
 40
1.0
 40
1.0
 40
1.0
 10
205.9433245555658
 20
98.2288270187856
 30
0.0
 10
205.9310881755869
 20
98.32950795019772
 30
0.0
 10
205.9047832716231
 20
98.54594469344617
 30
0.0
 10
205.8592257539527
 20
98.94894765050078
 30
0.0
 10
205.8208419485611
 20
99.3034085466263
 30
0.0
 10
205.7866679084674
 20
99.53255195801614
 30
0.0
 10
205.7731676307993
 20
99.6007546776468
 30
0.0
 10
205.7645368774165
 20
99.63291173910129
 30
0.0
 10
205.7590260278599
 20
99.64792835311918
 30
0.0
 10
205.7559068824845
 20
99.65481433528156
 30
0.0
 10
205.7533133337334
 20
99.65942302693985
 30
0.0
 10
205.7509571727919
 20
99.66272696035315
 30
0.0
 10
205.7488502261087
 20
99.66496681647772
 30
0.0
 10
205.7467868862816
 20
99.66639430140434
 30
0.0
 10
205.7452007274744
 20
99.6670626349899
 30
0.0
 10
205.7437236359725
 20
99.66732275527352
 30
0.0
 10
205.7422980953715
 20
99.66725632264283
 30
0.0
 10
205.7406229691211
 20
99.66678422134447
 30
0.0
 10
205.7376866745359
 20
99.66508254588136
 30
0.0
 10
205.7306071316891
 20
99.6566222962712
 30
0.0
 10
205.7172102749581
 20
99.62001482176557
 30
0.0
 10
205.6878369752022
 20
99.473016148724
 30
0.0
 10
205.6481272513829
 20
99.1352917309719
 30
0.0
 10
205.5965674988052
 20
98.67542932327846
 30
0.0
 10
205.5453115944413
 20
98.23608164310804
 30
0.0
 10
205.499800512822
 20
97.89503206335849
 30
0.0
 10
205.459941894296
 20
97.646081024168
 30
0.0
 10
205.4238562859342
 20
97.47299413418483
 30
0.0
 10
205.4043367239175
 20
97.4315670127414
 30
0.0
 10
205.3945411052487
 20
97.41077739236707
 30
0.0
  0
LINE
  5
105
330
1F
100
AcDbEntity
  8
0
  6
HIDDEN
 62
     7
370
     0
100
AcDbLine
 10
205.3844381156
 20
97.4113473939
 30
0.0
 11
205.3735586463
 21
97.4119612036
 31
0.0
  0
SPLINE
  5
106
330
1F
100
AcDbEntity
  8
0
  6
HIDDEN
 62
     7
370
     0
100
AcDbSpline
210
0.0
220
0.0
230
1.0
 70
     8
 71
     3
 72
    10
 73
     6
 74
     0
 42
0.00000001
 43
0.00000001
 40
0.0
 40
0.0
 40
0.0
 40
0.0
 40
0.283082583604837
 40
0.6405402889452667
 40
0.9999999999999999
 40
0.9999999999999999
 40
0.9999999999999999
 40
0.9999999999999999
 10
205.3704306140496
 20
97.42475885800833
 30
0.0
 10
205.3658630145682
 20
97.43927409703689
 30
0.0
 10
205.3555277567281
 20
97.4721182066358
 30
0.0
 10
205.3456669470716
 20
97.5977683439714
 30
0.0
 10
205.3441068049767
 20
97.73906908290708
 30
0.0
 10
205.3433245555658
 20
97.80991674489447
 30
0.0
  0
LINE
  5
107
330
1F
100
AcDbEntity
  8
0
  6
HIDDEN
 62
     7
370
     0
100
AcDbLine
 10
205.9433245556
 20
104.3157051423
 30
0.0
 11
205.9433245556
 21
98.2288270188
 31
0.0
  0
LWPOLYLINE
  5
108
330
1F
100
AcDbEntity
  8
0
  6
HIDDEN
 62
     7
370
     0
100
AcDbPolyline
 90
        9
 70
   128
 43
0.0
 10
205.9433245556
 20
122.2778896314
 10
205.9433245555
 20
121.7908351357
 10
205.9433245553
 20
121.2151746933
 10
205.943324555
 20
120.5553292827
 10
205.9433245546
 20
119.8163664095
 10
205.9433245541
 20
119.0039611884
 10
205.9433245534
 20
118.1243527595
 10
205.9433245527
 20
117.1842963726
 10
205.9433245399
 20
116.191011512
  0
LINE
  5
109
330
1F
100
AcDbEntity
  8
0
  6
HIDDEN
 62
     7
370
     0
100
AcDbLine
 10
210.4231188322
 20
99.8033583251
 30
0.0
 11
210.4231188322
 21
120.7033583251
 31
0.0
  0
LWPOLYLINE
  5
10A
330
1F
100
AcDbEntity
  8
0
  6
HIDDEN
 62
     7
370
     0
100
AcDbPolyline
 90
       10
 70
   128
 43
0.0
 10
199.9136112151
 20
124.9550779778
 10
199.2528725681
 20
124.9985719244
 10
198.6371621679
 20
125.1260897235
 10
198.108439661
 20
125.3289412479
 10
197.7027366122
 20
125.5933025013
 10
197.447701014
 20
125.9011577014
 10
197.3607131208
 20
126.2315270249
 10
197.447701014
 20
126.5618963484
 10
197.7027366122
 20
126.8697515485
 10
197.7679645527
 20
126.9231716374
  0
LINE
  5
10B
330
1F
100
AcDbEntity
  8
0
  6
HIDDEN
 62
     7
370
     0
100
AcDbLine
 10
199.9136112151
 20
126.355229422
 30
0.0
 11
207.8953742009
 21
126.355229422
 31
0.0
  0
LWPOLYLINE
  5
10C
330
1F
100
AcDbEntity
  8
0
  6
HIDDEN
 62
     7
370
     0
100
AcDbPolyline
 90
       10
 70
   128
 43
0.0
 10
197.7790462528
 20
93.5750251622
 10
197.7027366122
 20
93.6369651017
 10
197.447701014
 20
93.9448203018
 10
197.3607131208
 20
94.2751896253
 10
197.447701014
 20
94.6055589487
 10
197.7027366122
 20
94.9134141488
 10
198.108439661
 20
95.1777754023
 10
198.6371621679
 20
95.3806269267
 10
199.2528725681
 20
95.5081447258
 10
199.9136112151
 20
95.5516386724
  0
LINE
  5
10D
330
1F
100
AcDbEntity
  8
0
  6
HIDDEN
 62
     7
370
     0
100
AcDbLine
 10
199.9136112151
 20
94.1514872282
 30
0.0
 11
207.8953742009
 21
94.1514872282
 31
0.0
  0
SPLINE
  5
10E
330
1F
100
AcDbEntity
  8
0
  6
HIDDEN
 62
     7
370
     0
100
AcDbSpline
210
0.0
220
0.0
230
1.0
 70
     8
 71
     3
 72
    40
 73
    36
 74
     0
 42
0.00000001
 43
0.00000001
 40
0.0
 40
0.0
 40
0.0
 40
0.0
 40
0.0693985593470733
 40
0.1145755016854224
 40
0.1598357934678879
 40
0.2101261486102239
 40
0.2605313530335818
 40
0.3175080875589098
 40
0.3746517443078219
 40
0.4236417984306678
 40
0.472737684215316
 40
0.5469256565622679
 40
0.6214831098735655
 40
0.6626275439029667
 40
0.7038382118209022
 40
0.7198830167910881
 40
0.7277468142204083
 40
0.7316847898710103
 40
0.7330302292483205
 40
0.7339418131891919
 40
0.7345626432551767
 40
0.7349894742538913
 40
0.7354168966316521
 40
0.7355917816257356
 40
0.735768479114293
 40
0.7358771633408455
 40
0.7359859214454261
 40
0.7361391157690615
 40
0.736427299987747
 40
0.7376970260342097
 40
0.7427076247375718
 40
0.7626651249808275
 40
0.8424688466584409
 40
0.9210146352205588
 40
1.0
 40
1.0
 40
1.0
 40
1.0
 10
205.3643743537373
 20
109.5733583250752
 30
0.0
 10
205.369564308201
 20
109.3066063586534
 30
0.0
 10
205.378132809363
 20
108.8662047038365
 30
0.0
 10
205.3934607015707
 20
108.2541981786461
 30
0.0
 10
205.4084120886907
 20
107.7178907729028
 30
0.0
 10
205.4256264750457
 20
107.1655228396715
 30
0.0
 10
205.4459693603528
 20
106.5745919770662
 30
0.0
 10
205.4690312269876
 20
105.9658644159857
 30
0.0
 10
205.4936907899796
 20
105.3724690856073
 30
0.0
 10
205.5186677383128
 20
104.8182370593598
 30
0.0
 10
205.547897928831
 20
104.2152219503937
 30
0.0
 10
205.5837437510507
 20
103.5418868273613
 30
0.0
 10
205.6211126082714
 20
102.9211483375744
 30
0.0
 10
205.6558779373162
 20
102.4268213972482
 30
0.0
 10
205.6806639328186
 20
102.1255726605298
 30
0.0
 10
205.7025574809244
 20
101.9307236542147
 30
0.0
 10
205.7151751471484
 20
101.8484153561749
 30
0.0
 10
205.7233117360993
 20
101.8099508823225
 30
0.0
 10
205.7285271315294
 20
101.7920726144542
 30
0.0
 10
205.7314923965662
 20
101.7838797433302
 30
0.0
 10
205.7339646145869
 20
101.7784074248643
 30
0.0
 10
205.7362588910288
 20
101.7744283309694
 30
0.0
 10
205.7382935665561
 20
101.7717893243696
 30
0.0
 10
205.7403697125598
 20
101.7701222222068
 30
0.0
 10
205.7419202720236
 20
101.7693961534947
 30
0.0
 10
205.7434500330146
 20
101.7692228528423
 30
0.0
 10
205.7448688528722
 20
101.7694594839209
 30
0.0
 10
205.7466914058545
 20
101.7703377704183
 30
0.0
 10
205.7509087935054
 20
101.7742946828535
 30
0.0
 10
205.7594160753188
 20
101.7928757917096
 30
0.0
 10
205.7767887123057
 20
101.8691888487518
 30
0.0
 10
205.8136586627833
 20
102.1814052000509
 30
0.0
 10
205.8533319084949
 20
102.7333829995542
 30
0.0
 10
205.9012978653996
 20
103.5050037239214
 30
0.0
 10
205.929289622701
 20
104.0449690949002
 30
0.0
 10
205.9433245555658
 20
104.3157051422809
 30
0.0
  0
SPLINE
  5
10F
330
1F
100
AcDbEntity
  8
0
  6
HIDDEN
 62
     7
370
     0
100
AcDbSpline
210
0.0
220
0.0
230
1.0
 70
     8
 71
     3
 72
    36
 73
    32
 74
     0
 42
0.00000001
 43
0.00000001
 40
0.0
 40
0.0
 40
0.0
 40
0.0
 40
0.0690396388812446
 40
0.1484165312311802
 40
0.2282515983638257
 40
0.2463341714201883
 40
0.2551324786305251
 40
0.2595294409106014
 40
0.2610251912174026
 40
0.2620380282807361
 40
0.2627265633695141
 40
0.2631985105250155
 40
0.263640964687069
 40
0.2638637325863388
 40
0.2640286890156918
 40
0.2641430244483891
 40
0.2642579169414564
 40
0.2643919871573149
 40
0.2646186285455411
 40
0.2653217253221242
 40
0.2685497295116445
 40
0.281359092048146
 40
0.3325245980261173
 40
0.4290850261856922
 40
0.5264694738343466
 40
0.6139209378718516
 40
0.7019794195489935
 40
0.7919543546406578
 40
0.8825924962207684
 40
0.9412049745541764
 40
1.0
 40
1.0
 40
1.0
 40
1.0
 10
205.9433245399067
 20
116.1910115119874
 30
0.0
 10
205.9310881664564
 20
116.4279162681557
 30
0.0
 10
205.9047832765152
 20
116.9371973523622
 30
0.0
 10
205.8592257524928
 20
117.6833750048374
 30
0.0
 10
205.8208419486416
 20
118.2360984528445
 30
0.0
 10
205.7866679084634
 20
118.5561563793516
 30
0.0
 10
205.7731676307997
 20
118.6487561647064
 30
0.0
 10
205.7645368774164
 20
118.6918097538697
 30
0.0
 10
205.7590260278598
 20
118.7117919609254
 30
0.0
 10
205.7559068824847
 20
118.7209312623685
 30
0.0
 10
205.7533133337336
 20
118.7270374773932
 30
0.0
 10
205.7509571727921
 20
118.7314099405355
 30
0.0
 10
205.748850226109
 20
118.7343715458524
 30
0.0
 10
205.7467868862813
 20
118.7362579268975
 30
0.0
 10
205.7452007274742
 20
118.7371408589026
 30
0.0
 10
205.7437236359723
 20
118.7374844580955
 30
0.0
 10
205.7422980953712
 20
118.7373967082026
 30
0.0
 10
205.7406229691209
 20
118.7367730725304
 30
0.0
 10
205.7376866745349
 20
118.7345247254794
 30
0.0
 10
205.7306071316937
 20
118.7233381162151
 30
0.0
 10
205.7172102747052
 20
118.6747445709306
 30
0.0
 10
205.6878369846252
 20
118.4762990228687
 30
0.0
 10
205.648127039511
 20
117.9880543405872
 30
0.0
 10
205.5965690139319
 20
117.2035398733571
 30
0.0
 10
205.5453062577476
 20
116.2513212587393
 30
0.0
 10
205.4998182017242
 20
115.2880548662325
 30
0.0
 10
205.459874523092
 20
114.3204165660396
 30
0.0
 10
205.4241146265007
 20
113.3167616397835
 30
0.0
 10
205.3971760740656
 20
112.407448468767
 30
0.0
 10
205.3774200033233
 20
111.6105241506124
 30
0.0
 10
205.3687274087288
 20
111.159314116508
 30
0.0
 10
205.3643743537373
 20
110.9333583250753
 30
0.0
  0
LWPOLYLINE
  5
110
330
1F
100
AcDbEntity
  8
0
  6
HIDDEN
 62
     7
370
     0
100
AcDbPolyline
 90
       10
 70
   128
 43
0.0
 10
199.9136112151
 20
124.8452703567
 10
199.2788964747
 20
124.8908994579
 10
198.6956025478
 20
125.0240901633
 10
198.2109844393
 20
125.234052154
 10
197.8643030263
 20
125.5037755582
 10
197.683644375
 20
125.8114089898
 10
197.683644375
 20
126.1320298177
 10
197.8643030263
 20
126.4396632493
 10
198.2109844393
 20
126.7093866535
 10
198.2909740004
 20
126.7531601073
  0
LINE
  5
111
330
1F
100
AcDbEntity
  8
0
  6
HIDDEN
 62
     7
370
     0
100
AcDbLine
 10
199.9136112151
 20
124.9550779778
 30
0.0
 11
208.9499775642
 21
124.9550779778
 31
0.0
  0
LINE
  5
112
330
1F
100
AcDbEntity
  8
0
  6
HIDDEN
 62
     7
370
     0
100
AcDbLine
 10
199.9136112151
 20
95.5516386724
 30
0.0
 11
208.9499775642
 21
95.5516386724
 31
0.0
  0
LWPOLYLINE
  5
113
330
1F
100
AcDbEntity
  8
0
  6
HIDDEN
 62
     7
370
     0
100
AcDbPolyline
 90
       10
 70
   128
 43
0.0
 10
198.2576337896
 20
93.7712419536
 10
198.2109844393
 20
93.7973299966
 10
197.8643030263
 20
94.0670534008
 10
197.683644375
 20
94.3746868324
 10
197.683644375
 20
94.6953076603
 10
197.8643030263
 20
95.0029410919
 10
198.2109844393
 20
95.2726644961
 10
198.6956025478
 20
95.4826264868
 10
199.2788964747
 20
95.6158171922
 10
199.9136112151
 20
95.6614462935
  0
LINE
  5
114
330
1F
100
AcDbEntity
  8
0
  6
HIDDEN
 62
     7
370
     0
100
AcDbLine
 10
199.9136112151
 20
124.8452703567
 30
0.0
 11
209.1442531002
 21
124.8452703567
 31
0.0
  0
LINE
  5
115
330
1F
100
AcDbEntity
  8
0
  6
HIDDEN
 62
     7
370
     0
100
AcDbLine
 10
199.9136112151
 20
95.6614462935
 30
0.0
 11
209.1442531002
 21
95.6614462935
 31
0.0
  0
SPLINE
  5
116
330
1F
100
AcDbEntity
  8
0
  6
HIDDEN
 62
     7
370
     0
100
AcDbSpline
210
0.0
220
0.0
230
1.0
 70
     8
 71
     3
 72
     9
 73
     5
 74
     0
 42
0.00000001
 43
0.00000001
 40
0.0
 40
0.0
 40
0.0
 40
0.0
 40
0.4999999999999997
 40
1.0
 40
1.0
 40
1.0
 40
1.0
 10
205.3643743537373
 20
110.9333583250753
 30
0.0
 10
205.3615606094213
 20
110.7066916584086
 30
0.0
 10
205.3559331207892
 20
110.2533583250753
 30
0.0
 10
205.3615606094213
 20
109.8000249917419
 30
0.0
 10
205.3643743537373
 20
109.5733583250752
 30
0.0
  0
LINE
  5
117
330
1F
100
AcDbEntity
  8
0
  6
HIDDEN
 62
     7
370
     0
100
AcDbLine
 10
125.6513917241
 20
134.7120479874
 30
0.0
 11
125.6513917241
 21
130.1033583251
 31
0.0
  0
ARC
  5
118
330
1F
100
AcDbEntity
  8
0
  6
HIDDEN
 62
     7
370
     0
100
AcDbCircle
 10
119.3426039107
 20
122.7338782863
 30
0.0
 40
3.662852444348017
100
AcDbArc
 50
265.3133299617
 51
12.7549928709
  0
ARC
  5
119
330
1F
100
AcDbEntity
  8
0
  6
HIDDEN
 62
     7
370
     0
100
AcDbCircle
 10
118.7417245168
 20
122.7284187801
 30
0.0
 40
3.657601848303722
100
AcDbArc
 50
166.0671275791
 51
274.7298893946
  0
LINE
  5
11A
330
1F
100
AcDbEntity
  8
0
  6
HIDDEN
 62
     7
370
     0
100
AcDbLine
 10
99.0384747601
 20
86.7287587023
 30
0.0
 11
98.7896099414
 21
86.7054957357
 31
0.0
  0
LINE
  5
11B
330
1F
100
AcDbEntity
  8
0
  6
HIDDEN
 62
     7
370
     0
100
AcDbLine
 10
98.6570491802
 20
133.8134446533
 30
0.0
 11
99.0383820399
 21
133.7779413551
 31
0.0
  0
SPLINE
  5
11C
330
1F
100
AcDbEntity
  8
0
  6
HIDDEN
 62
     7
370
     0
100
AcDbSpline
210
0.0
220
0.0
230
1.0
 70
     8
 71
     3
 72
    22
 73
    18
 74
     0
 42
0.00000001
 43
0.00000001
 40
0.0
 40
0.0
 40
0.0
 40
0.0
 40
0.069470503305567
 40
0.1409377255045835
 40
0.210413548914841
 40
0.2819466223559928
 40
0.3506518733998513
 40
0.4213897814436845
 40
0.4894670043894698
 40
0.5594810940348494
 40
0.6282706827033766
 40
0.6989997382187428
 40
0.7687375408512302
 40
0.8405098102584779
 40
0.9099666189318144
 40
0.9814998892127903
 40
1.0
 40
1.0
 40
1.0
 40
1.0
 10
104.7983265571674
 20
90.41582984925878
 30
0.0
 10
104.6501527027081
 20
90.43555618906811
 30
0.0
 10
104.349546185797
 20
90.4755758424889
 30
0.0
 10
103.8146513231162
 20
90.53094950601876
 30
0.0
 10
103.2290127704474
 20
90.57540589114656
 30
0.0
 10
102.6147801108741
 20
90.60309086659873
 30
0.0
 10
101.9808634655058
 20
90.6113441200686
 30
0.0
 10
101.358714764934
 20
90.59936406518811
 30
0.0
 10
100.7527172950734
 20
90.56861331142716
 30
0.0
 10
100.1882283739469
 20
90.52314734067694
 30
0.0
 10
99.6688521363652
 20
90.46706618887735
 30
0.0
 10
99.21598663868377
 20
90.40707602655895
 30
0.0
 10
98.8372714950181
 20
90.34909611220004
 30
0.0
 10
98.54918637394299
 20
90.30017730405355
 30
0.0
 10
98.36672847739037
 20
90.26714194152778
 30
0.0
 10
98.2860705260563
 20
90.25200214527214
 30
0.0
 10
98.30036040475517
 20
90.25467409864514
 30
0.0
 10
98.30329669722724
 20
90.25522313315693
 30
0.0
  0
SPLINE
  5
11D
330
1F
100
AcDbEntity
  8
0
  6
HIDDEN
 62
     7
370
     0
100
AcDbSpline
210
0.0
220
0.0
230
1.0
 70
     8
 71
     3
 72
    22
 73
    18
 74
     0
 42
0.00000001
 43
0.00000001
 40
0.0
 40
0.0
 40
0.0
 40
0.0
 40
0.0499040281125884
 40
0.1203075863893544
 40
0.1885125365560131
 40
0.258644416829719
 40
0.3277839407293157
 40
0.3988873214655099
 40
0.4686969488930336
 40
0.5405663748364754
 40
0.609708789122301
 40
0.6809159691092499
 40
0.7490773369981711
 40
0.8192056085539694
 40
0.8876078379088254
 40
0.9579332867310426
 40
1.0
 40
1.0
 40
1.0
 40
1.0
 10
98.30329669722724
 20
130.2514935169936
 30
0.0
 10
98.30454763125272
 20
130.2512544865978
 30
0.0
 10
98.30756335681703
 20
130.2506782371232
 30
0.0
 10
98.43245668387053
 20
130.2274802022997
 30
0.0
 10
98.6569385117481
 20
130.187800165982
 30
0.0
 10
98.97596667392561
 20
130.1355887445828
 30
0.0
 10
99.38350190492228
 20
130.0762589329106
 30
0.0
 10
99.86528845875523
 20
130.0167841563946
 30
0.0
 10
100.4157081405505
 20
129.9631778000326
 30
0.0
 10
101.0086030264987
 20
129.9227038815583
 30
0.0
 10
101.6355555968159
 20
129.899504633192
 30
0.0
 10
102.2637665706439
 20
129.8965265299771
 30
0.0
 10
102.888026663121
 20
129.9136608556763
 30
0.0
 10
103.4806449529493
 20
129.9483467113664
 30
0.0
 10
104.0374710364774
 20
129.9973030750302
 30
0.0
 10
104.4752778811103
 20
130.0472032396534
 30
0.0
 10
104.7103445878832
 20
130.0789896286451
 30
0.0
 10
104.7983265571674
 20
130.0908868008917
 30
0.0
  0
SPLINE
  5
11E
330
1F
100
AcDbEntity
  8
0
  6
HIDDEN
 62
     7
370
     0
100
AcDbSpline
210
0.0
220
0.0
230
1.0
 70
     8
 71
     3
 72
    12
 73
     8
 74
     0
 42
0.00000001
 43
0.00000001
 40
0.0
 40
0.0
 40
0.0
 40
0.0
 40
0.2208222396165173
 40
0.4480970101862083
 40
0.6689536278141412
 40
0.8961510028112456
 40
1.0
 40
1.0
 40
1.0
 40
1.0
 10
104.7983265571674
 20
130.0908868008917
 30
0.0
 10
104.9303697633782
 20
130.1079438881608
 30
0.0
 10
105.1983145411378
 20
130.1425564789081
 30
0.0
 10
105.4934706630286
 20
130.1695284251162
 30
0.0
 10
105.6945628478845
 20
130.1850381498035
 30
0.0
 10
105.7918936959754
 20
130.1911473372002
 30
0.0
 10
105.7832361148356
 20
130.1906021483667
 30
0.0
 10
105.780520238164
 20
130.1904311230409
 30
0.0
  0
SPLINE
  5
11F
330
1F
100
AcDbEntity
  8
0
  6
HIDDEN
 62
     7
370
     0
100
AcDbSpline
210
0.0
220
0.0
230
1.0
 70
     8
 71
     3
 72
    12
 73
     8
 74
     0
 42
0.00000001
 43
0.00000001
 40
0.0
 40
0.0
 40
0.0
 40
0.0
 40
0.1181237309796412
 40
0.3465099096369202
 40
0.5687665618909818
 40
0.7975211382752527
 40
1.0
 40
1.0
 40
1.0
 40
1.0
 10
105.7805203153232
 20
90.31628552219199
 30
0.0
 10
105.7826438417085
 20
90.31615144385866
 30
0.0
 10
105.7888730975048
 20
90.31575813194087
 30
0.0
 10
105.6842062166898
 20
90.32238152187976
 30
0.0
 10
105.4742317418234
 20
90.33878595546844
 30
0.0
 10
105.1787734941611
 20
90.36638765299564
 30
0.0
 10
104.9198840253898
 20
90.40003246040716
 30
0.0
 10
104.7983265571674
 20
90.41582984925878
 30
0.0
  0
LINE
  5
120
330
1F
100
AcDbEntity
  8
0
  6
HIDDEN
 62
     7
370
     0
100
AcDbLine
 10
92.0472991518
 20
93.2533583251
 30
0.0
 11
92.0472991518
 21
127.2533583251
 31
0.0
  0
LWPOLYLINE
  5
121
330
1F
100
AcDbEntity
  8
0
  6
HIDDEN
 62
     7
370
     0
100
AcDbPolyline
 90
       14
 70
   128
 43
0.0
 10
119.0433245556
 20
132.1989607397
 10
119.8485186359
 20
132.2399008572
 10
120.620747976
 20
132.3610451165
 10
121.3283974159
 20
132.5574338573
 10
121.9424957045
 20
132.8210269016
 10
122.4379015855
 20
133.1410327191
 10
122.7943330842
 20
133.504350234
 10
122.9971978529
 20
133.8961051847
 10
123.0381905843
 20
134.3002590774
 10
122.915633031
 20
134.7002658042
 10
122.6345427138
 20
135.0797490428
 10
122.2064275033
 20
135.4231727048
 10
121.6488144865
 20
135.7164769851
 10
121.4290173331
 20
135.8043010441
  0
LWPOLYLINE
  5
122
330
1F
100
AcDbEntity
  8
0
  6
HIDDEN
 62
     7
370
     0
100
AcDbPolyline
 90
       14
 70
   128
 43
0.0
 10
116.6593636498
 20
135.8049441145
 10
116.4378346247
 20
135.7164769851
 10
115.8802216078
 20
135.4231727048
 10
115.4521063973
 20
135.0797490428
 10
115.1710160801
 20
134.7002658042
 10
115.0484585269
 20
134.3002590774
 10
115.0894512583
 20
133.8961051847
 10
115.292316027
 20
133.504350234
 10
115.6487475256
 20
133.1410327191
 10
116.1441534066
 20
132.8210269016
 10
116.7582516952
 20
132.5574338573
 10
117.4659011351
 20
132.3610451165
 10
118.2381304752
 20
132.2399008572
 10
119.0433245556
 20
132.1989607397
  0
SPLINE
  5
123
330
1F
100
AcDbEntity
  8
0
  6
HIDDEN
 62
     7
370
     0
100
AcDbSpline
210
0.0
220
0.0
230
1.0
 70
     8
 71
     3
 72
    11
 73
     7
 74
     0
 42
0.00000001
 43
0.00000001
 40
0.0
 40
0.0
 40
0.0
 40
0.0
 40
0.0005779865010845
 40
0.0005779865010845
 40
0.0005779865010845
 40
0.0011559733324421
 40
0.0011559733324421
 40
0.0011559733324421
 40
0.0011559733324421
 10
79.14332455556584
 20
112.2531989332291
 30
0.0
 10
79.30999181037181
 20
112.2512152938881
 30
0.0
 10
79.47665824004947
 20
112.2491776868855
 30
0.0
 10
79.64332457850129
 20
112.2470662234791
 30
0.0
 10
79.8099910073277
 20
112.2449547589278
 30
0.0
 10
79.97665738096539
 20
112.2427691957714
 30
0.0
 10
80.14332455556583
 20
112.2404866184398
 30
0.0
  0
SPLINE
  5
124
330
1F
100
AcDbEntity
  8
0
  6
HIDDEN
 62
     7
370
     0
100
AcDbSpline
210
0.0
220
0.0
230
1.0
 70
     8
 71
     3
 72
     8
 73
     4
 74
     0
 42
0.00000001
 43
0.00000001
 40
0.0
 40
0.0
 40
0.0
 40
0.0
 40
0.0011564765856722
 40
0.0011564765856722
 40
0.0011564765856722
 40
0.0011564765856722
 10
80.14332455556583
 20
108.256658022859
 30
0.0
 10
79.81001662499698
 20
108.2557828672757
 30
0.0
 10
79.47668139260477
 20
108.2547280160242
 30
0.0
 10
79.14332455556583
 20
108.2535569289866
 30
0.0
  0
LINE
  5
125
330
1F
100
AcDbEntity
  8
0
  6
HIDDEN
 62
     7
370
     0
100
AcDbLine
 10
118.7031505241
 20
93.2533583251
 30
0.0
 11
118.7031505241
 21
127.2533583251
 31
0.0
  0
LINE
  5
126
330
1F
100
AcDbEntity
  8
0
  6
HIDDEN
 62
     7
370
     0
100
AcDbLine
 10
120.9933245556
 20
94.5283583251
 30
0.0
 11
120.9933245556
 21
125.9783583251
 31
0.0
  0
SPLINE
  5
127
330
1F
100
AcDbEntity
  8
0
  6
HIDDEN
 62
     7
370
     0
100
AcDbSpline
210
0.0
220
0.0
230
1.0
 70
     8
 71
     3
 72
    16
 73
    12
 74
     0
 42
0.00000001
 43
0.00000001
 40
0.0
 40
0.0
 40
0.0
 40
0.0
 40
0.124999999999998
 40
0.124999999999998
 40
0.249999999999996
 40
0.249999999999996
 40
0.4999999999999973
 40
0.4999999999999973
 40
0.7499999999999987
 40
0.7499999999999987
 40
1.0
 40
1.0
 40
1.0
 40
1.0
 10
87.84332455556583
 20
94.4518678890436
 30
0.0
 10
87.93844631023165
 20
94.4518678890436
 30
0.0
 10
88.03177637895973
 20
94.44805205565079
 30
0.0
 10
88.21503813969774
 20
94.43328150292099
 30
0.0
 10
88.30591585525474
 20
94.4221234549454
 30
0.0
 10
88.56271755277447
 20
94.37965218480367
 30
0.0
 10
88.71778491764648
 20
94.33860598760089
 30
0.0
 10
88.9715313792011
 20
94.243459871019
 30
0.0
 10
89.07240183086896
 20
94.18869713693742
 30
0.0
 10
89.20764824556379
 20
94.07743601303353
 30
0.0
 10
89.24332455556583
 20
94.02026627570486
 30
0.0
 10
89.24332455556583
 20
93.96584470267113
 30
0.0
  0
SPLINE
  5
128
330
1F
100
AcDbEntity
  8
0
  6
HIDDEN
 62
     7
370
     0
100
AcDbSpline
210
0.0
220
0.0
230
1.0
 70
     8
 71
     3
 72
     8
 73
     4
 74
     0
 42
0.00000001
 43
0.00000001
 40
0.0
 40
0.0
 40
0.0
 40
0.0
 40
1.0
 40
1.0
 40
1.0
 40
1.0
 10
80.44332455888082
 20
96.59667083512583
 30
0.0
 10
80.44332455888275
 20
95.71277369280891
 30
0.0
 10
80.42984393297293
 20
94.99819044774696
 30
0.0
 10
80.42849256478362
 20
94.4518678890436
 30
0.0
  0
SPLINE
  5
129
330
1F
100
AcDbEntity
  8
0
  6
HIDDEN
 62
     7
370
     0
100
AcDbSpline
210
0.0
220
0.0
230
1.0
 70
     8
 71
     3
 72
    10
 73
     6
 74
     0
 42
0.00000001
 43
0.00000001
 40
0.0
 40
0.0
 40
0.0
 40
0.0
 40
0.5
 40
0.5
 40
1.0
 40
1.0
 40
1.0
 40
1.0
 10
80.14332455556583
 20
97.62158110082882
 30
0.0
 10
80.2347156712587
 20
97.44694231321144
 30
0.0
 10
80.30736750499169
 20
97.27334048595588
 30
0.0
 10
80.41486639799972
 20
96.92972706694924
 30
0.0
 10
80.4433245588752
 20
96.76140124041784
 30
0.0
 10
80.44332455888082
 20
96.59667083518531
 30
0.0
  0
LINE
  5
12A
330
1F
100
AcDbEntity
  8
0
  6
HIDDEN
 62
     7
370
     0
100
AcDbLine
 10
80.1433245556
 20
100.6525315327
 30
0.0
 11
80.1433245556
 21
97.6215811008
 31
0.0
  0
SPLINE
  5
12B
330
1F
100
AcDbEntity
  8
0
  6
HIDDEN
 62
     7
370
     0
100
AcDbSpline
210
0.0
220
0.0
230
1.0
 70
     8
 71
     3
 72
    10
 73
     6
 74
     0
 42
0.00000001
 43
0.00000001
 40
0.0
 40
0.0
 40
0.0
 40
0.0
 40
0.5
 40
0.5
 40
1.0
 40
1.0
 40
1.0
 40
1.0
 10
80.44332455875343
 20
102.0203719494324
 30
0.0
 10
80.44332455875342
 20
101.7783879818256
 30
0.0
 10
80.41517452968283
 20
101.5440455528607
 30
0.0
 10
80.31158461554047
 20
101.088670530583
 30
0.0
 10
80.23495590594901
 20
100.8670659674757
 30
0.0
 10
80.14332455556583
 20
100.6525315326778
 30
0.0
  0
LINE
  5
12C
330
1F
100
AcDbEntity
  8
0
  6
HIDDEN
 62
     7
370
     0
100
AcDbLine
 10
80.4433245588
 20
113.8579919466
 30
0.0
 11
80.4433245588
 21
102.0203719494
 31
0.0
  0
SPLINE
  5
12D
330
1F
100
AcDbEntity
  8
0
  6
HIDDEN
 62
     7
370
     0
100
AcDbSpline
210
0.0
220
0.0
230
1.0
 70
     8
 71
     3
 72
     8
 73
     4
 74
     0
 42
0.00000001
 43
0.00000001
 40
0.0
 40
0.0
 40
0.0
 40
0.0
 40
1.0
 40
1.0
 40
1.0
 40
1.0
 10
80.14332455556583
 20
119.8602976461434
 30
0.0
 10
80.32435602212466
 20
119.4281901604807
 30
0.0
 10
80.44332455875913
 20
118.9740447543812
 30
0.0
 10
80.44332455875345
 20
118.4863447006872
 30
0.0
  0
LINE
  5
12E
330
1F
100
AcDbEntity
  8
0
  6
HIDDEN
 62
     7
370
     0
100
AcDbLine
 10
80.1433245556
 20
122.8935006321
 30
0.0
 11
80.1433245556
 21
119.8602976461
 31
0.0
  0
SPLINE
  5
12F
330
1F
100
AcDbEntity
  8
0
  6
HIDDEN
 62
     7
370
     0
100
AcDbSpline
210
0.0
220
0.0
230
1.0
 70
     8
 71
     3
 72
    10
 73
     6
 74
     0
 42
0.00000001
 43
0.00000001
 40
0.0
 40
0.0
 40
0.0
 40
0.0
 40
0.5
 40
0.5
 40
1.0
 40
1.0
 40
1.0
 40
1.0
 10
80.44332455895905
 20
123.9100458149951
 30
0.0
 10
80.44332455895727
 20
123.7454094683897
 30
0.0
 10
80.41616588820219
 20
123.5782542445599
 30
0.0
 10
80.31040089288452
 20
123.2396312367596
 30
0.0
 10
80.23398610458587
 20
123.0673594594654
 30
0.0
 10
80.14332455556584
 20
122.8935006321221
 30
0.0
  0
SPLINE
  5
130
330
1F
100
AcDbEntity
  8
0
  6
HIDDEN
 62
     7
370
     0
100
AcDbSpline
210
0.0
220
0.0
230
1.0
 70
     8
 71
     3
 72
    18
 73
    14
 74
     0
 42
0.00000001
 43
0.00000001
 40
0.0
 40
0.0
 40
0.0
 40
0.0
 40
0.2500000000000033
 40
0.2500000000000033
 40
0.3750000000000029
 40
0.3750000000000029
 40
0.5000000000000026
 40
0.5000000000000026
 40
0.6250000000000022
 40
0.6250000000000022
 40
0.7500000000000018
 40
0.7500000000000018
 40
1.0
 40
1.0
 40
1.0
 40
1.0
 10
85.24332455556582
 20
126.5408719474794
 30
0.0
 10
85.24332455556582
 20
126.4863974269272
 30
0.0
 10
85.20841386417366
 20
126.4300163675747
 30
0.0
 10
85.10640456284061
 20
126.3459395267212
 30
0.0
 10
85.0647682081625
 20
126.3186058227303
 30
0.0
 10
84.96636241267375
 20
126.2656519071313
 30
0.0
 10
84.90881920096946
 20
126.2397645534141
 30
0.0
 10
84.78152102739651
 20
126.1919870085809
 30
0.0
 10
84.71193372263905
 20
126.170039090403
 30
0.0
 10
84.56049947748409
 20
126.1306065254903
 30
0.0
 10
84.47781557439015
 20
126.1130502762644
 30
0.0
 10
84.2217041123521
 20
126.0706115108439
 30
0.0
 10
84.0337891084641
 20
126.0548487611069
 30
0.0
 10
83.84332455556583
 20
126.0548487611069
 30
0.0
  0
LINE
  5
131
330
1F
100
AcDbEntity
  8
0
  6
HIDDEN
 62
     7
370
     0
100
AcDbLine
 10
83.8433245556
 20
126.0548487611
 30
0.0
 11
80.443324559
 21
126.0548487611
 31
0.0
  0
LINE
  5
132
330
1F
100
AcDbEntity
  8
0
  6
HIDDEN
 62
     7
370
     0
100
AcDbLine
 10
80.3743555689
 20
94.451867889
 30
0.0
 11
87.8433245556
 21
94.451867889
 31
0.0
  0
SPLINE
  5
133
330
1F
100
AcDbEntity
  8
0
  6
HIDDEN
 62
     7
370
     0
100
AcDbSpline
210
0.0
220
0.0
230
1.0
 70
     8
 71
     3
 72
    22
 73
    18
 74
     0
 42
0.00000001
 43
0.00000001
 40
0.0
 40
0.0
 40
0.0
 40
0.0
 40
0.1249999999999998
 40
0.1249999999999998
 40
0.2499999999999995
 40
0.2499999999999995
 40
0.4999999999999992
 40
0.4999999999999992
 40
0.5624999999999993
 40
0.5624999999999993
 40
0.6249999999999994
 40
0.6249999999999994
 40
0.7499999999999996
 40
0.7499999999999996
 40
0.8749999999999998
 40
0.8749999999999998
 40
1.0
 40
1.0
 40
1.0
 40
1.0
 10
80.37435556892375
 20
94.4518678890436
 30
0.0
 10
80.36127317619537
 20
94.70697359919127
 30
0.0
 10
80.34805361275555
 20
95.00013185829518
 30
0.0
 10
80.32560643496141
 20
95.66243232391999
 30
0.0
 10
80.31612796793696
 20
96.03270624453137
 30
0.0
 10
80.29693000700041
 20
97.25526304764514
 30
0.0
 10
80.2980437799973
 20
98.19240197377701
 30
0.0
 10
80.31695457295038
 20
99.51227320329201
 30
0.0
 10
80.32158410080939
 20
99.78377511226833
 30
0.0
 10
80.33206532055534
 20
100.3421599470706
 30
0.0
 10
80.33786058183975
 20
100.6292828030102
 30
0.0
 10
80.3561698027447
 20
101.5018720573819
 30
0.0
 10
80.37020473702505
 20
102.1023277337378
 30
0.0
 10
80.39966190916186
 20
103.3398022262338
 30
0.0
 10
80.41521760014345
 20
103.9768183828773
 30
0.0
 10
80.43901215014033
 20
105.2883069805619
 30
0.0
 10
80.44703120228569
 20
105.9644295922224
 30
0.0
 10
80.44332455556582
 20
106.6487247035072
 30
0.0
  0
LINE
  5
134
330
1F
100
AcDbEntity
  8
0
  6
HIDDEN
 62
     7
370
     0
100
AcDbLine
 10
80.443324559
 20
113.8579919466
 30
0.0
 11
80.443324559
 21
126.0548487611
 31
0.0
  0
SPLINE
  5
135
330
1F
100
AcDbEntity
  8
0
  6
HIDDEN
 62
     7
370
     0
100
AcDbSpline
210
0.0
220
0.0
230
1.0
 70
     8
 71
     3
 72
    10
 73
     6
 74
     0
 42
0.00000001
 43
0.00000001
 40
0.0
 40
0.0
 40
0.0
 40
0.0
 40
0.5
 40
0.5
 40
1.0
 40
1.0
 40
1.0
 40
1.0
 10
80.44332455556582
 20
106.6487247034921
 30
0.0
 10
80.44332455556565
 20
106.9226398515664
 30
0.0
 10
80.41756532569794
 20
107.1935814302965
 30
0.0
 10
80.31435939296483
 20
107.7292725118994
 30
0.0
 10
80.23702122908959
 20
107.9950193154214
 30
0.0
 10
80.14332455556581
 20
108.256658022859
 30
0.0
  0
SPLINE
  5
136
330
1F
100
AcDbEntity
  8
0
  6
HIDDEN
 62
     7
370
     0
100
AcDbSpline
210
0.0
220
0.0
230
1.0
 70
     8
 71
     3
 72
    10
 73
     6
 74
     0
 42
0.00000001
 43
0.00000001
 40
0.0
 40
0.0
 40
0.0
 40
0.0
 40
0.5
 40
0.5
 40
1.0
 40
1.0
 40
1.0
 40
1.0
 10
80.14332455556581
 20
112.2404866184398
 30
0.0
 10
80.23655513695684
 20
112.5043804265099
 30
0.0
 10
80.31158474919359
 20
112.7705607371482
 30
0.0
 10
80.41665184837174
 20
113.3088833121063
 30
0.0
 10
80.44332455895791
 20
113.5816314283519
 30
0.0
 10
80.4433245589591
 20
113.8579919466424
 30
0.0
  0
LINE
  5
137
330
1F
100
AcDbEntity
  8
0
  6
HIDDEN
 62
     7
370
     0
100
AcDbLine
 10
80.1433245556
 20
108.2566580229
 30
0.0
 11
80.1433245556
 21
112.2404866184
 31
0.0
  0
LINE
  5
138
330
1F
100
AcDbEntity
  8
0
  6
HIDDEN
 62
     7
370
     0
100
AcDbLine
 10
199.0433245556
 20
110.2533583251
 30
0.0
 11
199.0433245556
 21
95.0033583251
 31
0.0
  0
LINE
  5
139
330
1F
100
AcDbEntity
  8
0
  6
HIDDEN
 62
     7
370
     0
100
AcDbLine
 10
199.0433245556
 20
125.5033583251
 30
0.0
 11
199.0433245556
 21
110.2533583251
 31
0.0
  0
LINE
  5
13A
330
1F
100
AcDbEntity
  8
0
  6
HIDDEN
 62
     7
370
     0
100
AcDbLine
 10
198.2933245556
 20
110.2533583251
 30
0.0
 11
198.2933245556
 21
94.2533583251
 31
0.0
  0
LINE
  5
13B
330
1F
100
AcDbEntity
  8
0
  6
HIDDEN
 62
     7
370
     0
100
AcDbLine
 10
198.2933245556
 20
126.2533583251
 30
0.0
 11
198.2933245556
 21
110.2533583251
 31
0.0
  0
LINE
  5
13C
330
1F
100
AcDbEntity
  8
0
  6
HIDDEN
 62
     7
370
     0
100
AcDbLine
 10
174.1395305272
 20
110.2533583251
 30
0.0
 11
174.1395305272
 21
101.2533583251
 31
0.0
  0
LINE
  5
13D
330
1F
100
AcDbEntity
  8
0
  6
HIDDEN
 62
     7
370
     0
100
AcDbLine
 10
174.1395305272
 20
119.2533583251
 30
0.0
 11
174.1395305272
 21
110.2533583251
 31
0.0
  0
LINE
  5
13E
330
1F
100
AcDbEntity
  8
0
  6
HIDDEN
 62
     7
370
     0
100
AcDbLine
 10
80.2933245556
 20
92.2633583251
 30
0.0
 11
80.2933245556
 21
89.3834205597
 31
0.0
  0
LINE
  5
13F
330
1F
100
AcDbEntity
  8
0
  6
HIDDEN
 62
     7
370
     0
100
AcDbLine
 10
89.2433245556
 20
92.2633583251
 30
0.0
 11
89.2433245556
 21
88.2896207939
 31
0.0
  0
LINE
  5
140
330
1F
100
AcDbEntity
  8
0
  6
HIDDEN
 62
     7
370
     0
100
AcDbLine
 10
80.2933245556
 20
128.2433583251
 30
0.0
 11
80.2933245556
 21
131.1232960905
 31
0.0
  0
LINE
  5
141
330
1F
100
AcDbEntity
  8
0
  6
HIDDEN
 62
     7
370
     0
100
AcDbLine
 10
85.2433245556
 20
128.2433583251
 30
0.0
 11
85.2433245556
 21
132.0974659974
 31
0.0
  0
LINE
  5
142
330
1F
100
AcDbEntity
  8
0
  6
HIDDEN
 62
     7
370
     0
100
AcDbLine
 10
129.8433245556
 20
100.7533583251
 30
0.0
 11
129.8433245556
 21
119.7533583251
 31
0.0
  0
LINE
  5
143
330
1F
100
AcDbEntity
  8
0
  6
HIDDEN
 62
     7
370
     0
100
AcDbLine
 10
132.8433245556
 20
100.7533583251
 30
0.0
 11
132.8433245556
 21
119.7533583251
 31
0.0
  0
LINE
  5
144
330
1F
100
AcDbEntity
  8
0
  6
HIDDEN
 62
     7
370
     0
100
AcDbLine
 10
170.0433245556
 20
110.2533583251
 30
0.0
 11
170.0433245556
 21
101.2533583251
 31
0.0
  0
LINE
  5
145
330
1F
100
AcDbEntity
  8
0
  6
HIDDEN
 62
     7
370
     0
100
AcDbLine
 10
170.0433245556
 20
119.2533583251
 30
0.0
 11
170.0433245556
 21
110.2533583251
 31
0.0
  0
LINE
  5
146
330
1F
100
AcDbEntity
  8
0
  6
HIDDEN
 62
     7
370
     0
100
AcDbLine
 10
168.411247752
 20
110.2533583251
 30
0.0
 11
168.411247752
 21
104.7533583251
 31
0.0
  0
LINE
  5
147
330
1F
100
AcDbEntity
  8
0
  6
HIDDEN
 62
     7
370
     0
100
AcDbLine
 10
168.411247752
 20
115.7533583251
 30
0.0
 11
168.411247752
 21
110.2533583251
 31
0.0
  0
LINE
  5
148
330
1F
100
AcDbEntity
  8
0
  6
HIDDEN
 62
     7
370
     0
100
AcDbLine
 10
121.4933245556
 20
101.7533583251
 30
0.0
 11
121.4933245556
 21
118.7533583251
 31
0.0
  0
LINE
  5
149
330
1F
100
AcDbEntity
  8
0
  6
HIDDEN
 62
     7
370
     0
100
AcDbLine
 10
136.9933245556
 20
83.8533583251
 30
0.0
 11
130.8556497532
 21
83.8533583251
 31
0.0
  0
LINE
  5
14A
330
1F
100
AcDbEntity
  8
0
  6
HIDDEN
 62
     7
370
     0
100
AcDbLine
 10
127.2309993579
 20
83.8533583251
 30
0.0
 11
123.9933245556
 21
83.8533583251
 31
0.0
  0
LINE
  5
14B
330
1F
100
AcDbEntity
  8
0
  6
HIDDEN
 62
     7
370
     0
100
AcDbLine
 10
115.9933245556
 20
78.7692353422
 30
0.0
 11
115.9933245556
 21
83.8533583251
 31
0.0
  0
LINE
  5
14C
330
1F
100
AcDbEntity
  8
0
  6
HIDDEN
 62
     7
370
     0
100
AcDbLine
 10
123.9933245556
 20
83.8533583251
 30
0.0
 11
115.9933245556
 21
83.8533583251
 31
0.0
  0
LINE
  5
14D
330
1F
100
AcDbEntity
  8
0
  6
HIDDEN
 62
     7
370
     0
100
AcDbLine
 10
123.9933245556
 20
136.6533583251
 30
0.0
 11
115.9933245556
 21
136.6533583251
 31
0.0
  0
LINE
  5
14E
330
1F
100
AcDbEntity
  8
0
  6
HIDDEN
 62
     7
370
     0
100
AcDbLine
 10
127.5276220873
 20
136.6533583251
 30
0.0
 11
123.9933245556
 21
136.6533583251
 31
0.0
  0
LINE
  5
14F
330
1F
100
AcDbEntity
  8
0
  6
HIDDEN
 62
     7
370
     0
100
AcDbLine
 10
136.9933245556
 20
136.6533583251
 30
0.0
 11
130.5590270239
 21
136.6533583251
 31
0.0
  0
SPLINE
  5
150
330
1F
100
AcDbEntity
  8
0
  6
HIDDEN
 62
     7
370
     0
100
AcDbSpline
210
0.0
220
0.0
230
1.0
 70
     8
 71
     3
 72
    11
 73
     7
 74
     0
 42
0.00000001
 43
0.00000001
 40
0.0
 40
0.0
 40
0.0
 40
0.0
 40
0.0008203708524183
 40
0.0008203708524183
 40
0.0008203708524183
 40
0.0016409967870154
 40
0.0016409967870154
 40
0.0016409967870154
 40
0.0016409967870154
 10
80.29332455556583
 20
94.40132557443252
 30
0.0
 10
80.10216625526716
 20
94.3601465458134
 30
0.0
 10
79.910739185195
 20
94.32139257358338
 30
0.0
 10
79.71909356167437
 20
94.28502481430485
 30
0.0
 10
79.52738815659391
 20
94.24864571053881
 30
0.0
 10
79.33544920453495
 20
94.21465145977126
 30
0.0
 10
79.14332455746414
 20
94.18300333438005
 30
0.0
  0
ELLIPSE
  5
151
330
1F
100
AcDbEntity
  8
0
  6
HIDDEN
 62
     7
370
     0
100
AcDbEllipse
 10
74.900892687
 20
110.2533583251
 30
0.0
 11
20.19992453366628
 21
-1.421085471520200E-14
 31
0.0
210
0.0
220
0.0
230
1.0
 40
0.8164965809
 41
1.300566354718001
 42
1.359198697209606
  0
LINE
  5
152
330
1F
100
AcDbEntity
  8
0
  6
HIDDEN
 62
     7
370
     0
100
AcDbLine
 10
89.2433245556
 20
92.2633583251
 30
0.0
 11
89.2433245556
 21
93.9658447027
 31
0.0
  0
LINE
  5
153
330
1F
100
AcDbEntity
  8
0
  6
HIDDEN
 62
     7
370
     0
100
AcDbLine
 10
80.2933245556
 20
92.2633583251
 30
0.0
 11
80.2933245556
 21
94.4013255744
 31
0.0
  0
LINE
  5
154
330
1F
100
AcDbEntity
  8
0
  6
HIDDEN
 62
     7
370
     0
100
AcDbLine
 10
80.3743555689
 20
94.451867889
 30
0.0
 11
80.2933245556
 21
94.4013255744
 31
0.0
  0
LINE
  5
155
330
1F
100
AcDbEntity
  8
0
  6
HIDDEN
 62
     7
370
     0
100
AcDbLine
 10
80.2933245556
 20
128.2433583251
 30
0.0
 11
80.2933245556
 21
126.1479827761
 31
0.0
  0
SPLINE
  5
156
330
1F
100
AcDbEntity
  8
0
  6
HIDDEN
 62
     7
370
     0
100
AcDbSpline
210
0.0
220
0.0
230
1.0
 70
     8
 71
     3
 72
     8
 73
     4
 74
     0
 42
0.00000001
 43
0.00000001
 40
0.0
 40
0.0
 40
0.0
 40
0.0
 40
1.0
 40
1.0
 40
1.0
 40
1.0
 10
80.29332455556583
 20
126.1479827761339
 30
0.0
 10
80.34333005450955
 20
126.1169470019148
 30
0.0
 10
80.39333012517396
 20
126.0859023568872
 30
0.0
 10
80.44332455895909
 20
126.0548487611069
 30
0.0
  0
LINE
  5
157
330
1F
100
AcDbEntity
  8
0
  6
HIDDEN
 62
     7
370
     0
100
AcDbLine
 10
85.2433245556
 20
128.2433583251
 30
0.0
 11
85.2433245556
 21
126.5408719475
 31
0.0
  0
LINE
  5
158
330
1F
100
AcDbEntity
  8
0
  6
HIDDEN
 62
     7
370
     0
100
AcDbLine
 10
141.0433245556
 20
110.2533583251
 30
0.0
 11
141.0433245556
 21
104.7533583251
 31
0.0
  0
LINE
  5
159
330
1F
100
AcDbEntity
  8
0
  6
HIDDEN
 62
     7
370
     0
100
AcDbLine
 10
141.0433245556
 20
115.7533583251
 30
0.0
 11
141.0433245556
 21
110.2533583251
 31
0.0
  0
LINE
  5
15A
330
1F
100
AcDbEntity
  8
0
  6
HIDDEN
 62
     7
370
     0
100
AcDbLine
 10
140.2622057508
 20
110.2533583251
 30
0.0
 11
140.2622057508
 21
106.0533583251
 31
0.0
  0
LINE
  5
15B
330
1F
100
AcDbEntity
  8
0
  6
HIDDEN
 62
     7
370
     0
100
AcDbLine
 10
140.2622057508
 20
114.4533583251
 30
0.0
 11
140.2622057508
 21
110.2533583251
 31
0.0
  0
SPLINE
  5
15C
330
1F
100
AcDbEntity
  8
0
  6
HIDDEN
 62
     7
370
     0
100
AcDbSpline
210
0.0
220
0.0
230
1.0
 70
     8
 71
     3
 72
    20
 73
    16
 74
     0
 42
0.00000001
 43
0.00000001
 40
0.0
 40
0.0
 40
0.0
 40
0.0
 40
0.1119047120606274
 40
0.1774237728752215
 40
0.249045184790489
 40
0.3297934667703099
 40
0.3985657249921242
 40
0.4998452531560416
 40
0.61381014153461
 40
0.6789759372309611
 40
0.7495022958784563
 40
0.8296480927466774
 40
0.8980916250784401
 40
0.9995018266678125
 40
1.0
 40
1.0
 40
1.0
 40
1.0
 10
105.7920466236585
 20
86.65339617200615
 30
0.0
 10
105.7487395341765
 20
86.66681975647714
 30
0.0
 10
105.6800765881159
 20
86.68810271193533
 30
0.0
 10
105.2349824980397
 20
86.7913933921822
 30
0.0
 10
104.7084287255912
 20
86.90469567235186
 30
0.0
 10
104.0230023619965
 20
87.02762882328277
 30
0.0
 10
103.1296853102481
 20
87.14966320781892
 30
0.0
 10
102.0163258175811
 20
87.26739954843677
 30
0.0
 10
100.9055516761412
 20
87.27937502322351
 30
0.0
 10
100.0208036075188
 20
87.25231677989382
 30
0.0
 10
99.35360614293154
 20
87.204384549928
 30
0.0
 10
98.81233720989434
 20
87.1480917144592
 30
0.0
 10
98.42474368300715
 20
87.10300623134131
 30
0.0
 10
98.23081864598724
 20
87.06413486116706
 30
0.0
 10
98.2939573855668
 20
87.07484742424646
 30
0.0
 10
98.2942660357274
 20
87.07489979200572
 30
0.0
  0
LINE
  5
15D
330
1F
100
AcDbEntity
  8
0
  6
HIDDEN
 62
     7
370
     0
100
AcDbLine
 10
99.2033364679
 20
87.1856964685
 30
0.0
 11
99.3871817811
 21
87.2038858111
 31
0.0
  0
SPLINE
  5
15E
330
1F
100
AcDbEntity
  8
0
  6
HIDDEN
 62
     7
370
     0
100
AcDbSpline
210
0.0
220
0.0
230
1.0
 70
     8
 71
     3
 72
    27
 73
    23
 74
     0
 42
0.00000001
 43
0.00000001
 40
0.0
 40
0.0
 40
0.0
 40
0.0
 40
0.0007884410150004
 40
0.0456707458491723
 40
0.1022521510317397
 40
0.1705299269638766
 40
0.209121421483026
 40
0.2506484693912021
 40
0.3210939224933039
 40
0.3861873572983096
 40
0.4266663207953146
 40
0.4647973981852028
 40
0.5006015501540185
 40
0.5451931092401144
 40
0.6016871053907972
 40
0.670092765356399
 40
0.7088299171846214
 40
0.7505584706766245
 40
0.8222227262794245
 40
0.8877618493894713
 40
0.9472353307690391
 40
1.0
 40
1.0
 40
1.0
 40
1.0
 10
98.29397667822441
 20
133.4317759893047
 30
0.0
 10
98.29375995641551
 20
133.431822705816
 30
0.0
 10
98.28120626315784
 20
133.4345287775107
 30
0.0
 10
98.33028888126735
 20
133.4226954514565
 30
0.0
 10
98.4753855230232
 20
133.3992530687998
 30
0.0
 10
98.7484401187928
 20
133.3653483581933
 30
0.0
 10
99.07696620747616
 20
133.3317796516726
 30
0.0
 10
99.46969407657954
 20
133.2935962891304
 30
0.0
 10
100.0194220068861
 20
133.2546276269553
 30
0.0
 10
100.6454446641281
 20
133.2351665197815
 30
0.0
 10
101.1886361726309
 20
133.2329808423848
 30
0.0
 10
101.6337050698932
 20
133.2414957234798
 30
0.0
 10
102.1001528661461
 20
133.2612791204032
 30
0.0
 10
102.6373935158318
 20
133.3054415060414
 30
0.0
 10
103.2856069438976
 20
133.3778571253679
 30
0.0
 10
103.8711455846344
 20
133.4587592212833
 30
0.0
 10
104.3521151733808
 20
133.5369252031938
 30
0.0
 10
104.7975301806879
 20
133.6216973703578
 30
0.0
 10
105.2360291987251
 20
133.7154802338215
 30
0.0
 10
105.5750570072507
 20
133.7933846506523
 30
0.0
 10
105.7624159678082
 20
133.8435812154017
 30
0.0
 10
105.7829067080542
 20
133.8502482151016
 30
0.0
 10
105.7925396815618
 20
133.8533824616302
 30
0.0
  0
LINE
  5
15F
330
1F
100
AcDbEntity
  8
0
  6
HIDDEN
 62
     7
370
     0
100
AcDbLine
 10
147.9933245556
 20
128.1760080559
 30
0.0
 11
150.4933245556
 21
128.1760080559
 31
0.0
  0
LINE
  5
160
330
1F
100
AcDbEntity
  8
0
  6
HIDDEN
 62
     7
370
     0
100
AcDbLine
 10
145.4933245556
 20
128.1760080559
 30
0.0
 11
147.9933245556
 21
128.1760080559
 31
0.0
  0
LINE
  5
161
330
1F
100
AcDbEntity
  8
0
  6
HIDDEN
 62
     7
370
     0
100
AcDbLine
 10
150.4933245556
 20
92.3307085943
 30
0.0
 11
145.4933245556
 21
92.3307085943
 31
0.0
  0
LINE
  5
162
330
1F
100
AcDbEntity
  8
0
  6
HIDDEN
 62
     7
370
     0
100
AcDbLine
 10
147.9933245556
 20
119.7533583251
 30
0.0
 11
150.4933245556
 21
119.7533583251
 31
0.0
  0
LINE
  5
163
330
1F
100
AcDbEntity
  8
0
  6
HIDDEN
 62
     7
370
     0
100
AcDbLine
 10
145.4933245556
 20
119.7533583251
 30
0.0
 11
147.9933245556
 21
119.7533583251
 31
0.0
  0
LINE
  5
164
330
1F
100
AcDbEntity
  8
0
  6
HIDDEN
 62
     7
370
     0
100
AcDbLine
 10
150.4933245556
 20
100.7533583251
 30
0.0
 11
145.4933245556
 21
100.7533583251
 31
0.0
  0
SPLINE
  5
165
330
1F
100
AcDbEntity
  8
0
  6
HIDDEN
 62
     7
370
     0
100
AcDbSpline
210
0.0
220
0.0
230
1.0
 70
     8
 71
     3
 72
     8
 73
     4
 74
     0
 42
0.00000001
 43
0.00000001
 40
0.0
 40
0.0
 40
0.0
 40
0.0
 40
0.0001590976953428
 40
0.0001590976953428
 40
0.0001590976953428
 40
0.0001590976953428
 10
80.42849256478364
 20
94.4518678890436
 30
0.0
 10
80.38344109427936
 20
94.42388900471985
 30
0.0
 10
80.33838505586463
 20
94.39591747434483
 30
0.0
 10
80.29332455556585
 20
94.36795313499235
 30
0.0
  0
SPLINE
  5
166
330
1F
100
AcDbEntity
  8
0
  6
HIDDEN
 62
     7
370
     0
100
AcDbSpline
210
0.0
220
0.0
230
1.0
 70
     8
 71
     3
 72
    11
 73
     7
 74
     0
 42
0.00000001
 43
0.00000001
 40
0.0
 40
0.0
 40
0.0
 40
0.0
 40
0.0008212909311457
 40
0.0008212909311457
 40
0.0008212909311457
 40
0.001642825724306
 40
0.001642825724306
 40
0.001642825724306
 40
0.001642825724306
 10
80.29332455556583
 20
94.36795313499233
 30
0.0
 10
80.10217953408363
 20
94.32466694613977
 30
0.0
 10
79.91076119840714
 20
94.28373043650247
 30
0.0
 10
79.719115123746
 20
94.24512866511586
 30
0.0
 10
79.5274120422044
 20
94.20651541127876
 30
0.0
 10
79.33546691891891
 20
94.17023520199272
 30
0.0
 10
79.14332455556573
 20
94.1362682956412
 30
0.0
  0
LINE
  5
167
330
1F
100
AcDbEntity
  8
0
  6
HIDDEN
 62
     7
370
     0
100
AcDbLine
 10
127.1333245556
 20
130.3892249565
 30
0.0
 11
127.1333245556
 21
130.1033583251
 31
0.0
  0
LINE
  5
168
330
1F
100
AcDbEntity
  8
0
  6
HIDDEN
 62
     7
370
     0
100
AcDbLine
 10
130.9533245556
 20
130.4317448296
 30
0.0
 11
130.9533245556
 21
130.1033583251
 31
0.0
  0
LINE
  5
169
330
1F
100
AcDbEntity
  8
0
  6
HIDDEN
 62
     7
370
     0
100
AcDbLine
 10
132.4352573871
 20
134.7120479874
 30
0.0
 11
132.4352573871
 21
130.1033583251
 31
0.0
  0
SPLINE
  5
16A
330
1F
100
AcDbEntity
  8
0
  6
HIDDEN
 62
     7
370
     0
100
AcDbSpline
210
0.0
220
0.0
230
1.0
 70
     8
 71
     3
 72
    11
 73
     7
 74
     0
 42
0.00000001
 43
0.00000001
 40
0.0
 40
0.0
 40
0.0
 40
0.0
 40
0.000578186222398
 40
0.000578186222398
 40
0.000578186222398
 40
0.0011563724723931
 40
0.0011563724723931
 40
0.0011563724723931
 40
0.0011563724723931
 10
80.14332455556611
 20
122.8935006321269
 30
0.0
 10
79.97666400129044
 20
122.9580301435405
 30
0.0
 10
79.81000070438394
 20
123.0225328473794
 30
0.0
 10
79.64333412055363
 20
123.087019295813
 30
0.0
 10
79.47666752829451
 20
123.1515057475079
 30
0.0
 10
79.30999766266858
 20
123.215975756236
 30
0.0
 10
79.1433245555658
 20
123.2804315229686
 30
0.0
  0
SPLINE
  5
16B
330
1F
100
AcDbEntity
  8
0
  6
HIDDEN
 62
     7
370
     0
100
AcDbSpline
210
0.0
220
0.0
230
1.0
 70
     8
 71
     3
 72
    11
 73
     7
 74
     0
 42
0.00000001
 43
0.00000001
 40
0.0
 40
0.0
 40
0.0
 40
0.0
 40
0.0005778746105108
 40
0.0005778746105108
 40
0.0005778746105108
 40
0.0011557494857227
 40
0.0011557494857227
 40
0.0011557494857227
 40
0.0011557494857227
 10
79.1433245555658
 20
97.22613646958536
 30
0.0
 10
79.30999143197914
 20
97.29194859627918
 30
0.0
 10
79.47665815154062
 20
97.3578070764168
 30
0.0
 10
79.64332479958925
 20
97.4237146493474
 30
0.0
 10
79.80999152410791
 20
97.48962225251772
 30
0.0
 10
79.9766582185285
 20
97.55557936090615
 30
0.0
 10
80.14332455556581
 20
97.62158110082883
 30
0.0
  0
SPLINE
  5
16C
330
1F
100
AcDbEntity
  8
0
  6
HIDDEN
 62
     7
370
     0
100
AcDbSpline
210
0.0
220
0.0
230
1.0
 70
     8
 71
     3
 72
    11
 73
     7
 74
     0
 42
0.00000001
 43
0.00000001
 40
0.0000000000000007
 40
0.0000000000000007
 40
0.0000000000000007
 40
0.0000000000000007
 40
0.0005780486062768
 40
0.0005780486062768
 40
0.0005780486062768
 40
0.0011560973514127
 40
0.0011560973514127
 40
0.0011560973514127
 40
0.0011560973514127
 10
79.1433245555658
 20
120.2341728267671
 30
0.0
 10
79.30999441161072
 20
120.1718009652525
 30
0.0
 10
79.47666211569496
 20
120.1094471049548
 30
0.0
 10
79.64332842014862
 20
120.0471275447687
 30
0.0
 10
79.80999476084236
 20
119.9848079710317
 30
0.0
 10
79.97665971747114
 20
119.9225227667121
 30
0.0
 10
80.14332455556583
 20
119.8602976461434
 30
0.0
  0
SPLINE
  5
16D
330
1F
100
AcDbEntity
  8
0
  6
HIDDEN
 62
     7
370
     0
100
AcDbSpline
210
0.0
220
0.0
230
1.0
 70
     8
 71
     3
 72
    11
 73
     7
 74
     0
 42
0.00000001
 43
0.00000001
 40
0.0
 40
0.0
 40
0.0
 40
0.0
 40
0.0005782401583533
 40
0.0005782401583533
 40
0.0005782401583533
 40
0.0011564805960992
 40
0.0011564805960992
 40
0.0011564805960992
 40
0.0011564805960992
 10
80.14332455556581
 20
100.6525315326778
 30
0.0
 10
79.97667360521692
 20
100.5891060746169
 30
0.0
 10
79.81001401263427
 20
100.5257505509616
 30
0.0
 10
79.64334696020572
 20
100.4624529666116
 30
0.0
 10
79.4766798236419
 20
100.3991553503083
 30
0.0
 10
79.31000521619583
 20
100.3359155553675
 30
0.0
 10
79.14332455556575
 20
100.2727155487286
 30
0.0
  0
CIRCLE
  5
16E
330
1F
100
AcDbEntity
  8
0
  6
HIDDEN
 62
     7
370
     0
100
AcDbCircle
 10
118.0433245556
 20
110.2533583251
 30
0.0
 40
5.0
  0
LINE
  5
16F
330
1F
100
AcDbEntity
  8
0
  6
HIDDEN
 62
     7
370
     0
100
AcDbLine
 10
168.411247752
 20
104.7533583251
 30
0.0
 11
168.411247752
 21
115.7533583251
 31
0.0
  0
LINE
  5
170
330
1F
100
AcDbEntity
  8
0
  6
HIDDEN
 62
     7
370
     0
100
AcDbLine
 10
167.911247752
 20
104.2533583251
 30
0.0
 11
167.911247752
 21
116.2533583251
 31
0.0
  0
LINE
  5
171
330
1F
100
AcDbEntity
  8
0
  6
HIDDEN
 62
     7
370
     0
100
AcDbLine
 10
152.911247752
 20
104.2533583251
 30
0.0
 11
152.911247752
 21
116.2533583251
 31
0.0
  0
LINE
  5
172
330
1F
100
AcDbEntity
  8
0
  6
HIDDEN
 62
     7
370
     0
100
AcDbLine
 10
152.411247752
 20
104.7533583251
 30
0.0
 11
152.411247752
 21
115.7533583251
 31
0.0
  0
LINE
  5
173
330
1F
100
AcDbEntity
  8
0
  6
HIDDEN
 62
     7
370
     0
100
AcDbLine
 10
172.411247752
 20
107.4852987977
 30
0.0
 11
170.411247752
 21
107.4852987977
 31
0.0
  0
LINE
  5
174
330
1F
100
AcDbEntity
  8
0
  6
HIDDEN
 62
     7
370
     0
100
AcDbLine
 10
172.411247752
 20
104.7533583251
 30
0.0
 11
172.411247752
 21
107.4852987977
 31
0.0
  0
LINE
  5
175
330
1F
100
AcDbEntity
  8
0
  6
HIDDEN
 62
     7
370
     0
100
AcDbLine
 10
170.411247752
 20
110.1155493469
 30
0.0
 11
172.411247752
 21
110.1155493469
 31
0.0
  0
LINE
  5
176
330
1F
100
AcDbEntity
  8
0
  6
HIDDEN
 62
     7
370
     0
100
AcDbLine
 10
172.411247752
 20
113.0214178525
 30
0.0
 11
170.411247752
 21
113.0214178525
 31
0.0
  0
LINE
  5
177
330
1F
100
AcDbEntity
  8
0
  6
HIDDEN
 62
     7
370
     0
100
AcDbLine
 10
172.411247752
 20
110.3911673033
 30
0.0
 11
172.411247752
 21
115.7533583251
 31
0.0
  0
LINE
  5
178
330
1F
100
AcDbEntity
  8
0
  6
HIDDEN
 62
     7
370
     0
100
AcDbLine
 10
170.411247752
 20
110.3911673033
 30
0.0
 11
172.411247752
 21
110.3911673033
 31
0.0
  0
LINE
  5
179
330
1F
100
AcDbEntity
  8
0
  6
HIDDEN
 62
     7
370
     0
100
AcDbLine
 10
170.411247752
 20
107.4852987977
 30
0.0
 11
170.411247752
 21
110.3911673033
 31
0.0
  0
LINE
  5
17A
330
1F
100
AcDbEntity
  8
0
  6
HIDDEN
 62
     7
370
     0
100
AcDbLine
 10
170.411247752
 20
111.0605788865
 30
0.0
 11
170.411247752
 21
110.3911673033
 31
0.0
  0
LINE
  5
17B
330
1F
100
AcDbEntity
  8
0
  6
HIDDEN
 62
     7
370
     0
100
AcDbLine
 10
170.411247752
 20
108.1547103809
 30
0.0
 11
172.411247752
 21
108.1547103809
 31
0.0
  0
LINE
  5
17C
330
1F
100
AcDbEntity
  8
0
  6
HIDDEN
 62
     7
370
     0
100
AcDbLine
 10
172.411247752
 20
108.1547103809
 30
0.0
 11
172.411247752
 21
107.4852987977
 31
0.0
  0
LINE
  5
17D
330
1F
100
AcDbEntity
  8
0
  6
HIDDEN
 62
     7
370
     0
100
AcDbLine
 10
172.411247752
 20
111.0605788865
 30
0.0
 11
170.411247752
 21
111.0605788865
 31
0.0
  0
LINE
  5
17E
330
1F
100
AcDbEntity
  8
0
  6
HIDDEN
 62
     7
370
     0
100
AcDbLine
 10
165.411247752
 20
111.0605788865
 30
0.0
 11
165.411247752
 21
109.3924067366
 31
0.0
  0
LINE
  5
17F
330
1F
100
AcDbEntity
  8
0
  6
HIDDEN
 62
     7
370
     0
100
AcDbLine
 10
159.411247752
 20
109.3924067366
 30
0.0
 11
159.411247752
 21
111.0605788865
 31
0.0
  0
LINE
  5
180
330
1F
100
AcDbEntity
  8
0
  6
HIDDEN
 62
     7
370
     0
100
AcDbLine
 10
159.411247752
 20
108.1547103809
 30
0.0
 11
159.411247752
 21
109.3924067366
 31
0.0
  0
LINE
  5
181
330
1F
100
AcDbEntity
  8
0
  6
HIDDEN
 62
     7
370
     0
100
AcDbLine
 10
159.411247752
 20
109.3924067366
 30
0.0
 11
152.411247752
 21
109.3924067366
 31
0.0
  0
LINE
  5
182
330
1F
100
AcDbEntity
  8
0
  6
HIDDEN
 62
     7
370
     0
100
AcDbLine
 10
165.411247752
 20
109.3924067366
 30
0.0
 11
165.411247752
 21
108.1547103809
 31
0.0
  0
LINE
  5
183
330
1F
100
AcDbEntity
  8
0
  6
HIDDEN
 62
     7
370
     0
100
AcDbLine
 10
165.411247752
 20
109.3924067366
 30
0.0
 11
170.411247752
 21
109.3924067366
 31
0.0
  0
LINE
  5
184
330
1F
100
AcDbEntity
  8
0
  6
HIDDEN
 62
     7
370
     0
100
AcDbLine
 10
165.411247752
 20
112.7287510364
 30
0.0
 11
165.411247752
 21
111.0605788865
 31
0.0
  0
LINE
  5
185
330
1F
100
AcDbEntity
  8
0
  6
HIDDEN
 62
     7
370
     0
100
AcDbLine
 10
159.411247752
 20
111.0605788865
 30
0.0
 11
159.411247752
 21
112.7287510364
 31
0.0
  0
LINE
  5
186
330
1F
100
AcDbEntity
  8
0
  6
HIDDEN
 62
     7
370
     0
100
AcDbLine
 10
165.411247752
 20
113.1592268307
 30
0.0
 11
165.411247752
 21
112.7287510364
 31
0.0
  0
LINE
  5
187
330
1F
100
AcDbEntity
  8
0
  6
HIDDEN
 62
     7
370
     0
100
AcDbLine
 10
165.411247752
 20
112.7287510364
 30
0.0
 11
172.411247752
 21
112.7287510364
 31
0.0
  0
LINE
  5
188
330
1F
100
AcDbEntity
  8
0
  6
HIDDEN
 62
     7
370
     0
100
AcDbLine
 10
159.411247752
 20
112.7287510364
 30
0.0
 11
159.411247752
 21
113.1592268307
 31
0.0
  0
LINE
  5
189
330
1F
100
AcDbEntity
  8
0
  6
HIDDEN
 62
     7
370
     0
100
AcDbLine
 10
159.411247752
 20
112.7287510364
 30
0.0
 11
152.411247752
 21
112.7287510364
 31
0.0
  0
LINE
  5
18A
330
1F
100
AcDbEntity
  8
0
  6
HIDDEN
 62
     7
370
     0
100
AcDbLine
 10
159.411247752
 20
106.9170140253
 30
0.0
 11
159.411247752
 21
108.1547103809
 31
0.0
  0
LINE
  5
18B
330
1F
100
AcDbEntity
  8
0
  6
HIDDEN
 62
     7
370
     0
100
AcDbLine
 10
165.411247752
 20
108.1547103809
 30
0.0
 11
165.411247752
 21
106.9170140253
 31
0.0
  0
LINE
  5
18C
330
1F
100
AcDbEntity
  8
0
  6
HIDDEN
 62
     7
370
     0
100
AcDbLine
 10
165.411247752
 20
107.7779656137
 30
0.0
 11
172.411247752
 21
107.7779656137
 31
0.0
  0
LINE
  5
18D
330
1F
100
AcDbEntity
  8
0
  6
HIDDEN
 62
     7
370
     0
100
AcDbLine
 10
165.411247752
 20
106.9170140253
 30
0.0
 11
172.411247752
 21
106.9170140253
 31
0.0
  0
LINE
  5
18E
330
1F
100
AcDbEntity
  8
0
  6
HIDDEN
 62
     7
370
     0
100
AcDbLine
 10
159.411247752
 20
107.7779656137
 30
0.0
 11
152.411247752
 21
107.7779656137
 31
0.0
  0
LINE
  5
18F
330
1F
100
AcDbEntity
  8
0
  6
HIDDEN
 62
     7
370
     0
100
AcDbLine
 10
159.411247752
 20
106.9170140253
 30
0.0
 11
152.411247752
 21
106.9170140253
 31
0.0
  0
LINE
  5
190
330
1F
100
AcDbEntity
  8
0
  6
HIDDEN
 62
     7
370
     0
100
AcDbLine
 10
165.411247752
 20
113.5897026249
 30
0.0
 11
165.411247752
 21
113.1592268307
 31
0.0
  0
LINE
  5
191
330
1F
100
AcDbEntity
  8
0
  6
HIDDEN
 62
     7
370
     0
100
AcDbLine
 10
159.411247752
 20
113.1592268307
 30
0.0
 11
159.411247752
 21
113.5897026249
 31
0.0
  0
LINE
  5
192
330
1F
100
AcDbEntity
  8
0
  6
HIDDEN
 62
     7
370
     0
100
AcDbLine
 10
170.411247752
 20
112.3520062692
 30
0.0
 11
172.411247752
 21
112.3520062692
 31
0.0
  0
LINE
  5
193
330
1F
100
AcDbEntity
  8
0
  6
HIDDEN
 62
     7
370
     0
100
AcDbLine
 10
170.411247752
 20
111.1143099135
 30
0.0
 11
170.411247752
 21
112.3520062692
 31
0.0
  0
LINE
  5
194
330
1F
100
AcDbEntity
  8
0
  6
HIDDEN
 62
     7
370
     0
100
AcDbLine
 10
165.411247752
 20
111.1143099135
 30
0.0
 11
170.411247752
 21
111.1143099135
 31
0.0
  0
LINE
  5
195
330
1F
100
AcDbEntity
  8
0
  6
HIDDEN
 62
     7
370
     0
100
AcDbLine
 10
165.411247752
 20
113.5897026249
 30
0.0
 11
172.411247752
 21
113.5897026249
 31
0.0
  0
LINE
  5
196
330
1F
100
AcDbEntity
  8
0
  6
HIDDEN
 62
     7
370
     0
100
AcDbLine
 10
159.411247752
 20
111.1143099135
 30
0.0
 11
152.411247752
 21
111.1143099135
 31
0.0
  0
LINE
  5
197
330
1F
100
AcDbEntity
  8
0
  6
HIDDEN
 62
     7
370
     0
100
AcDbLine
 10
159.411247752
 20
113.5897026249
 30
0.0
 11
152.411247752
 21
113.5897026249
 31
0.0
  0
LINE
  5
198
330
1F
100
AcDbEntity
  8
0
  6
HIDDEN
 62
     7
370
     0
100
AcDbLine
 10
170.411247752
 20
111.0605788865
 30
0.0
 11
170.411247752
 21
111.1143099135
 31
0.0
  0
LINE
  5
199
330
1F
100
AcDbEntity
  8
0
  6
HIDDEN
 62
     7
370
     0
100
AcDbLine
 10
172.411247752
 20
109.4461377636
 30
0.0
 11
170.411247752
 21
109.4461377636
 31
0.0
  0
LINE
  5
19A
330
1F
100
AcDbEntity
  8
0
  6
HIDDEN
 62
     7
370
     0
100
AcDbLine
 10
172.411247752
 20
109.4461377636
 30
0.0
 11
172.411247752
 21
108.1547103809
 31
0.0
  0
LINE
  5
19B
330
1F
100
AcDbEntity
  8
0
  6
HIDDEN
 62
     7
370
     0
100
AcDbLine
 10
170.411247752
 20
113.0214178525
 30
0.0
 11
170.411247752
 21
112.3520062692
 31
0.0
  0
LINE
  5
19C
330
1F
100
AcDbEntity
  8
0
  6
HIDDEN
 62
     7
370
     0
100
AcDbLine
 10
172.411247752
 20
110.1155493469
 30
0.0
 11
172.411247752
 21
109.4461377636
 31
0.0
  0
ARC
  5
19D
330
1F
100
AcDbEntity
  8
0
  6
HIDDEN
 62
     7
370
     0
100
AcDbCircle
 10
203.3933245556
 20
94.8033583251
 30
0.0
 40
0.7999999999999972
100
AcDbArc
 50
270.0
 51
0.0
  0
ARC
  5
19E
330
1F
100
AcDbEntity
  8
0
  6
HIDDEN
 62
     7
370
     0
100
AcDbCircle
 10
203.3933245556
 20
125.7033583251
 30
0.0
 40
0.7999999999999972
100
AcDbArc
 50
0.0
 51
90.0
  0
LINE
  5
19F
330
1F
100
AcDbEntity
  8
0
  6
HIDDEN
 62
     7
370
     0
100
AcDbLine
 10
200.1933245556
 20
94.0033583251
 30
0.0
 11
203.3933245556
 21
94.0033583251
 31
0.0
  0
LINE
  5
1A0
330
1F
100
AcDbEntity
  8
0
  6
HIDDEN
 62
     7
370
     0
100
AcDbLine
 10
203.3933245556
 20
126.5033583251
 30
0.0
 11
200.1933245556
 21
126.5033583251
 31
0.0
  0
LINE
  5
1A1
330
1F
100
AcDbEntity
  8
0
  6
HIDDEN
 62
     7
370
     0
100
AcDbLine
 10
200.1933245556
 20
126.5033583251
 30
0.0
 11
198.0488175559
 21
125.5033583251
 31
0.0
  0
LINE
  5
1A2
330
1F
100
AcDbEntity
  8
0
  6
HIDDEN
 62
     7
370
     0
100
AcDbLine
 10
198.0488175559
 20
95.0033583251
 30
0.0
 11
200.1933245556
 21
94.0033583251
 31
0.0
  0
LINE
  5
1A3
330
1F
100
AcDbEntity
  8
0
  6
HIDDEN
 62
     7
370
     0
100
AcDbLine
 10
191.0433245556
 20
95.0033583251
 30
0.0
 11
198.0488175559
 21
95.0033583251
 31
0.0
  0
LINE
  5
1A4
330
1F
100
AcDbEntity
  8
0
  6
HIDDEN
 62
     7
370
     0
100
AcDbLine
 10
198.0488175559
 20
125.5033583251
 30
0.0
 11
191.0433245556
 21
125.5033583251
 31
0.0
  0
LINE
  5
1A5
330
1F
100
AcDbEntity
  8
0
  6
HIDDEN
 62
     7
370
     0
100
AcDbLine
 10
197.1676594186
 20
127.2463127245
 30
0.0
 11
197.5700319713
 21
126.961792364
 31
0.0
  0
LINE
  5
1A6
330
1F
100
AcDbEntity
  8
0
  6
HIDDEN
 62
     7
370
     0
100
AcDbLine
 10
197.5700319713
 20
93.5449242862
 30
0.0
 11
197.1684557108
 21
93.2609669892
 31
0.0
  0
ARC
  5
1A7
330
1F
100
AcDbEntity
  8
0
  6
HIDDEN
 62
     7
370
     0
100
AcDbCircle
 10
205.7433245556
 20
97.5633583251
 30
0.0
 40
0.40000000000004
100
AcDbArc
 50
200.3644367983
 51
299.99999741
  0
ARC
  5
1A8
330
1F
100
AcDbEntity
  8
0
  6
HIDDEN
 62
     7
370
     0
100
AcDbCircle
 10
205.7433245556
 20
122.9433583251
 30
0.0
 40
0.400000000000042
100
AcDbArc
 50
60.00000259
 51
163.5179525641
  0
LINE
  5
1A9
330
1F
100
AcDbEntity
  8
0
  6
HIDDEN
 62
     7
370
     0
100
AcDbLine
 10
205.9433245399
 20
97.2169481545
 30
0.0
 11
210.4231188322
 21
99.8033583251
 31
0.0
  0
LINE
  5
1AA
330
1F
100
AcDbEntity
  8
0
  6
HIDDEN
 62
     7
370
     0
100
AcDbLine
 10
210.4231188322
 20
120.7033583251
 30
0.0
 11
205.9433245399
 21
123.2897684956
 31
0.0
  0
LINE
  5
1AB
330
1F
100
AcDbEntity
  8
0
  6
HIDDEN
 62
     7
370
     0
100
AcDbLine
 10
197.0582367374
 20
127.6442716737
 30
0.0
 11
197.3739763538
 21
126.1015814104
 31
0.0
  0
LINE
  5
1AC
330
1F
100
AcDbEntity
  8
0
  6
HIDDEN
 62
     7
370
     0
100
AcDbLine
 10
197.3739763538
 20
94.4051352397
 30
0.0
 11
197.0582367374
 21
92.8624449765
 31
0.0
  0
LINE
  5
1AD
330
1F
100
AcDbEntity
  8
0
  6
HIDDEN
 62
     7
370
     0
100
AcDbLine
 10
204.1933245556
 20
97.4033583251
 30
0.0
 11
205.3844381156
 21
97.4033583251
 31
0.0
  0
LINE
  5
1AE
330
1F
100
AcDbEntity
  8
0
  6
HIDDEN
 62
     7
370
     0
100
AcDbLine
 10
205.3868676318
 20
123.1033583251
 30
0.0
 11
204.1933245556
 21
123.1033583251
 31
0.0
  0
LINE
  5
1AF
330
1F
100
AcDbEntity
  8
0
  6
HIDDEN
 62
     7
370
     0
100
AcDbLine
 10
197.8291786497
 20
125.4945688239
 30
0.0
 11
198.074127624
 21
125.3213637432
 31
0.0
  0
LINE
  5
1B0
330
1F
100
AcDbEntity
  8
0
  6
HIDDEN
 62
     7
370
     0
100
AcDbLine
 10
198.074127624
 20
95.185352907
 30
0.0
 11
197.8291786497
 21
95.0121478262
 31
0.0
  0
LINE
  5
1B1
330
1F
100
AcDbEntity
  8
0
  6
HIDDEN
 62
     7
370
     0
100
AcDbLine
 10
210.4231188322
 20
99.8033583251
 30
0.0
 11
211.0433245556
 21
99.8033583251
 31
0.0
  0
LINE
  5
1B2
330
1F
100
AcDbEntity
  8
0
  6
HIDDEN
 62
     7
370
     0
100
AcDbLine
 10
211.0433245556
 20
120.7033583251
 30
0.0
 11
210.4231188322
 21
120.7033583251
 31
0.0
  0
LINE
  5
1B3
330
1F
100
AcDbEntity
  8
0
  6
HIDDEN
 62
     7
370
     0
100
AcDbLine
 10
197.1684557108
 20
93.2609669892
 30
0.0
 11
197.1676594186
 21
93.2604039257
 31
0.0
  0
LINE
  5
1B4
330
1F
100
AcDbEntity
  8
0
  6
HIDDEN
 62
     7
370
     0
100
AcDbLine
 10
115.0433245556
 20
124.5539888308
 30
0.0
 11
115.0433245556
 21
122.647298968
 31
0.0
  0
LINE
  5
1B5
330
1F
100
AcDbEntity
  8
0
  6
HIDDEN
 62
     7
370
     0
100
AcDbLine
 10
123.0433245556
 20
122.647298968
 30
0.0
 11
123.0433245556
 21
124.5511934748
 31
0.0
  0
LINE
  5
1B6
330
1F
100
AcDbEntity
  8
0
  6
HIDDEN
 62
     7
370
     0
100
AcDbLine
 10
111.0433245556
 20
84.9294271791
 30
0.0
 11
111.1374853311
 21
85.5994159103
 31
0.0
  0
LINE
  5
1B7
330
1F
100
AcDbEntity
  8
0
  6
HIDDEN
 62
     7
370
     0
100
AcDbLine
 10
111.1374853311
 20
134.9073007398
 30
0.0
 11
111.0433245556
 21
135.5772894711
 31
0.0
  0
ARC
  5
1B8
330
1F
100
AcDbEntity
  8
0
  6
HIDDEN
 62
     7
370
     0
100
AcDbCircle
 10
110.5433178029
 20
85.6829207107
 30
0.0
 40
0.60000675266771
100
AcDbArc
 50
352.0
 51
0.0
  0
ARC
  5
1B9
330
1F
100
AcDbEntity
  8
0
  6
HIDDEN
 62
     7
370
     0
100
AcDbCircle
 10
110.5433178029
 20
85.6829207107
 30
0.0
 40
0.6000067526677242
100
AcDbArc
 50
0.0
 51
33.5571153394
  0
ARC
  5
1BA
330
1F
100
AcDbEntity
  8
0
  6
HIDDEN
 62
     7
370
     0
100
AcDbCircle
 10
110.5433178029
 20
134.8237959395
 30
0.0
 40
0.6000067526677113
100
AcDbArc
 50
348.75
 51
8.0
  0
LWPOLYLINE
  5
1BB
330
1F
100
AcDbEntity
  8
0
  6
HIDDEN
 62
     7
370
     0
100
AcDbPolyline
 90
        3
 70
   128
 43
0.0
 10
111.1317955941
 20
134.7067404289
 10
111.0976517611
 20
134.5941832959
 10
111.0433245556
 20
134.4921314244
  0
LINE
  5
1BC
330
1F
100
AcDbEntity
  8
0
  6
HIDDEN
 62
     7
370
     0
100
AcDbLine
 10
111.1433245556
 20
85.6829207107
 30
0.0
 11
111.1433245556
 21
134.8237959395
 31
0.0
  0
ARC
  5
1BD
330
1F
100
AcDbEntity
  8
0
  6
HIDDEN
 62
     7
370
     0
100
AcDbCircle
 10
94.1257601209
 20
90.8533583251
 30
0.0
 40
0.5999999999999962
100
AcDbArc
 50
210.0
 51
270.0
  0
ARC
  5
1BE
330
1F
100
AcDbEntity
  8
0
  6
HIDDEN
 62
     7
370
     0
100
AcDbCircle
 10
94.1257601209
 20
129.6533583251
 30
0.0
 40
0.6000000000000032
100
AcDbArc
 50
90.0
 51
150.0
  0
LINE
  5
1BF
330
1F
100
AcDbEntity
  8
0
  6
HIDDEN
 62
     7
370
     0
100
AcDbLine
 10
94.1257601209
 20
90.2533583251
 30
0.0
 11
98.3032966972
 21
90.2533583251
 31
0.0
  0
LINE
  5
1C0
330
1F
100
AcDbEntity
  8
0
  6
HIDDEN
 62
     7
370
     0
100
AcDbLine
 10
98.3032966972
 20
130.2533583251
 30
0.0
 11
94.1257601209
 21
130.2533583251
 31
0.0
  0
ARC
  5
1C1
330
1F
100
AcDbEntity
  8
0
  6
HIDDEN
 62
     7
370
     0
100
AcDbCircle
 10
104.7983265572
 20
98.2533583251
 30
0.0
 40
8.000000000000016
100
AcDbArc
 50
277.0522505187
 51
321.3178125465
  0
ARC
  5
1C2
330
1F
100
AcDbEntity
  8
0
  6
HIDDEN
 62
     7
370
     0
100
AcDbCircle
 10
104.7983265572
 20
122.2533583251
 30
0.0
 40
8.000000000000016
100
AcDbArc
 50
38.6821874535
 51
82.9386025247
  0
LINE
  5
1C3
330
1F
100
AcDbEntity
  8
0
  6
HIDDEN
 62
     7
370
     0
100
AcDbLine
 10
93.6061448786
 20
129.9533583251
 30
0.0
 11
92.0472991518
 21
127.2533583251
 31
0.0
  0
LINE
  5
1C4
330
1F
100
AcDbEntity
  8
0
  6
HIDDEN
 62
     7
370
     0
100
AcDbLine
 10
92.0472991518
 20
93.2533583251
 30
0.0
 11
93.6061448786
 21
90.5533583251
 31
0.0
  0
LINE
  5
1C5
330
1F
100
AcDbEntity
  8
0
  6
HIDDEN
 62
     7
370
     0
100
AcDbLine
 10
115.0433245556
 20
137.5330905622
 30
0.0
 11
115.0433245556
 21
134.1989607397
 31
0.0
  0
LINE
  5
1C6
330
1F
100
AcDbEntity
  8
0
  6
HIDDEN
 62
     7
370
     0
100
AcDbLine
 10
123.0433245556
 20
134.1989607397
 30
0.0
 11
123.0433245556
 21
137.5317158729
 31
0.0
  0
ARC
  5
1C7
330
1F
100
AcDbEntity
  8
0
  6
HIDDEN
 62
     7
370
     0
100
AcDbCircle
 10
119.4933245556
 20
94.5283583251
 30
0.0
 40
1.5
100
AcDbArc
 50
238.2116693829
 51
0.0
  0
ARC
  5
1C8
330
1F
100
AcDbEntity
  8
0
  6
HIDDEN
 62
     7
370
     0
100
AcDbCircle
 10
119.4933245556
 20
125.9783583251
 30
0.0
 40
1.5
100
AcDbArc
 50
0.0
 51
121.7883306171
  0
LINE
  5
1C9
330
1F
100
AcDbEntity
  8
0
  6
HIDDEN
 62
     7
370
     0
100
AcDbLine
 10
89.2433245556
 20
93.2533583251
 30
0.0
 11
92.0472991518
 21
93.2533583251
 31
0.0
  0
LINE
  5
1CA
330
1F
100
AcDbEntity
  8
0
  6
HIDDEN
 62
     7
370
     0
100
AcDbLine
 10
92.0472991518
 20
127.2533583251
 30
0.0
 11
85.2433245556
 21
127.2533583251
 31
0.0
  0
LINE
  5
1CB
330
1F
100
AcDbEntity
  8
0
  6
HIDDEN
 62
     7
370
     0
100
AcDbLine
 10
111.0433245556
 20
93.2533583251
 30
0.0
 11
118.7031505241
 21
93.2533583251
 31
0.0
  0
LINE
  5
1CC
330
1F
100
AcDbEntity
  8
0
  6
HIDDEN
 62
     7
370
     0
100
AcDbLine
 10
118.7031505241
 20
127.2533583251
 30
0.0
 11
111.0433245556
 21
127.2533583251
 31
0.0
  0
LINE
  5
1CD
330
1F
100
AcDbEntity
  8
0
  6
HIDDEN
 62
     7
370
     0
100
AcDbLine
 10
198.2933245556
 20
94.2533583251
 30
0.0
 11
199.0433245556
 21
95.0033583251
 31
0.0
  0
LINE
  5
1CE
330
1F
100
AcDbEntity
  8
0
  6
HIDDEN
 62
     7
370
     0
100
AcDbLine
 10
199.0433245556
 20
125.5033583251
 30
0.0
 11
198.2933245556
 21
126.2533583251
 31
0.0
  0
LINE
  5
1CF
330
1F
100
AcDbEntity
  8
0
  6
HIDDEN
 62
     7
370
     0
100
AcDbLine
 10
191.0433245556
 20
94.2533583251
 30
0.0
 11
198.2933245556
 21
94.2533583251
 31
0.0
  0
LINE
  5
1D0
330
1F
100
AcDbEntity
  8
0
  6
HIDDEN
 62
     7
370
     0
100
AcDbLine
 10
198.2933245556
 20
126.2533583251
 30
0.0
 11
191.0433245556
 21
126.2533583251
 31
0.0
  0
ARC
  5
1D1
330
1F
100
AcDbEntity
  8
0
  6
HIDDEN
 62
     7
370
     0
100
AcDbCircle
 10
198.0433245556
 20
123.6226450629
 30
0.0
 40
1.0
100
AcDbArc
 50
278.0
 51
0.0
  0
ARC
  5
1D2
330
1F
100
AcDbEntity
  8
0
  6
HIDDEN
 62
     7
370
     0
100
AcDbCircle
 10
198.0433245556
 20
96.8840715873
 30
0.0
 40
1.0
100
AcDbArc
 50
0.0
 51
82.0
  0
LINE
  5
1D3
330
1F
100
AcDbEntity
  8
0
  6
HIDDEN
 62
     7
370
     0
100
AcDbLine
 10
198.1824976565
 20
122.6323769941
 30
0.0
 11
174.1395305272
 21
119.2533583251
 31
0.0
  0
LINE
  5
1D4
330
1F
100
AcDbEntity
  8
0
  6
HIDDEN
 62
     7
370
     0
100
AcDbLine
 10
174.1395305272
 20
101.2533583251
 30
0.0
 11
198.1824976565
 21
97.874339656
 31
0.0
  0
LINE
  5
1D5
330
1F
100
AcDbEntity
  8
0
  6
HIDDEN
 62
     7
370
     0
100
AcDbLine
 10
129.8433245556
 20
100.7533583251
 30
0.0
 11
132.8433245556
 21
100.7533583251
 31
0.0
  0
LINE
  5
1D6
330
1F
100
AcDbEntity
  8
0
  6
HIDDEN
 62
     7
370
     0
100
AcDbLine
 10
132.8433245556
 20
119.7533583251
 30
0.0
 11
129.8433245556
 21
119.7533583251
 31
0.0
  0
LINE
  5
1D7
330
1F
100
AcDbEntity
  8
0
  6
HIDDEN
 62
     7
370
     0
100
AcDbLine
 10
174.1395305272
 20
119.2533583251
 30
0.0
 11
170.0433245556
 21
119.2533583251
 31
0.0
  0
LINE
  5
1D8
330
1F
100
AcDbEntity
  8
0
  6
HIDDEN
 62
     7
370
     0
100
AcDbLine
 10
170.0433245556
 20
101.2533583251
 30
0.0
 11
174.1395305272
 21
101.2533583251
 31
0.0
  0
LINE
  5
1D9
330
1F
100
AcDbEntity
  8
0
  6
HIDDEN
 62
     7
370
     0
100
AcDbLine
 10
170.0433245556
 20
119.2533583251
 30
0.0
 11
168.411247752
 21
115.7533583251
 31
0.0
  0
LINE
  5
1DA
330
1F
100
AcDbEntity
  8
0
  6
HIDDEN
 62
     7
370
     0
100
AcDbLine
 10
168.411247752
 20
104.7533583251
 30
0.0
 11
170.0433245556
 21
101.2533583251
 31
0.0
  0
LINE
  5
1DB
330
1F
100
AcDbEntity
  8
0
  6
HIDDEN
 62
     7
370
     0
100
AcDbLine
 10
120.9933245556
 20
101.2533583251
 30
0.0
 11
121.4933245556
 21
101.7533583251
 31
0.0
  0
LINE
  5
1DC
330
1F
100
AcDbEntity
  8
0
  6
HIDDEN
 62
     7
370
     0
100
AcDbLine
 10
121.4933245556
 20
118.7533583251
 30
0.0
 11
120.9933245556
 21
119.2533583251
 31
0.0
  0
LINE
  5
1DD
330
1F
100
AcDbEntity
  8
0
  6
HIDDEN
 62
     7
370
     0
100
AcDbLine
 10
121.4933245556
 20
101.7533583251
 30
0.0
 11
129.8433245556
 21
101.7533583251
 31
0.0
  0
LINE
  5
1DE
330
1F
100
AcDbEntity
  8
0
  6
HIDDEN
 62
     7
370
     0
100
AcDbLine
 10
129.8433245556
 20
118.7533583251
 30
0.0
 11
121.4933245556
 21
118.7533583251
 31
0.0
  0
LINE
  5
1DF
330
1F
100
AcDbEntity
  8
0
  6
HIDDEN
 62
     7
370
     0
100
AcDbLine
 10
115.9933245556
 20
141.7533583251
 30
0.0
 11
115.9933245556
 21
136.6533583251
 31
0.0
  0
LINE
  5
1E0
330
1F
100
AcDbEntity
  8
0
  6
HIDDEN
 62
     7
370
     0
100
AcDbLine
 10
168.411247752
 20
115.7533583251
 30
0.0
 11
141.0433245556
 21
115.7533583251
 31
0.0
  0
LINE
  5
1E1
330
1F
100
AcDbEntity
  8
0
  6
HIDDEN
 62
     7
370
     0
100
AcDbLine
 10
141.0433245556
 20
104.7533583251
 30
0.0
 11
168.411247752
 21
104.7533583251
 31
0.0
  0
LINE
  5
1E2
330
1F
100
AcDbEntity
  8
0
  6
HIDDEN
 62
     7
370
     0
100
AcDbLine
 10
141.0433245556
 20
115.7533583251
 30
0.0
 11
140.2622057508
 21
114.4533583251
 31
0.0
  0
LINE
  5
1E3
330
1F
100
AcDbEntity
  8
0
  6
HIDDEN
 62
     7
370
     0
100
AcDbLine
 10
140.2622057508
 20
106.0533583251
 30
0.0
 11
141.0433245556
 21
104.7533583251
 31
0.0
  0
LINE
  5
1E4
330
1F
100
AcDbEntity
  8
0
  6
HIDDEN
 62
     7
370
     0
100
AcDbLine
 10
106.227762386
 20
86.1739869915
 30
0.0
 11
105.7933302365
 21
86.6530530106
 31
0.0
  0
LINE
  5
1E5
330
1F
100
AcDbEntity
  8
0
  6
HIDDEN
 62
     7
370
     0
100
AcDbLine
 10
98.2933269115
 20
87.0747409698
 30
0.0
 11
97.8108931681
 21
86.5956749943
 31
0.0
  0
LINE
  5
1E6
330
1F
100
AcDbEntity
  8
0
  6
HIDDEN
 62
     7
370
     0
100
AcDbLine
 10
97.8107712399
 20
133.9110363654
 30
0.0
 11
98.2933219909
 21
133.4319161075
 31
0.0
  0
LINE
  5
1E7
330
1F
100
AcDbEntity
  8
0
  6
HIDDEN
 62
     7
370
     0
100
AcDbLine
 10
105.7933244376
 20
133.8536138852
 30
0.0
 11
106.2278668279
 21
134.3327341357
 31
0.0
  0
LINE
  5
1E8
330
1F
100
AcDbEntity
  8
0
  6
HIDDEN
 62
     7
370
     0
100
AcDbLine
 10
132.8433245556
 20
106.0533583251
 30
0.0
 11
140.2622057508
 21
106.0533583251
 31
0.0
  0
LINE
  5
1E9
330
1F
100
AcDbEntity
  8
0
  6
HIDDEN
 62
     7
370
     0
100
AcDbLine
 10
140.2622057508
 20
114.4533583251
 30
0.0
 11
132.8433245556
 21
114.4533583251
 31
0.0
  0
LINE
  5
1EA
330
1F
100
AcDbEntity
  8
0
  6
HIDDEN
 62
     7
370
     0
100
AcDbLine
 10
105.7933245556
 20
130.1904311511
 30
0.0
 11
105.7933245556
 21
133.8533225791
 31
0.0
  0
LINE
  5
1EB
330
1F
100
AcDbEntity
  8
0
  6
HIDDEN
 62
     7
370
     0
100
AcDbLine
 10
98.2933245556
 20
133.4317723283
 30
0.0
 11
98.2933245556
 21
130.2514960795
 31
0.0
  0
LINE
  5
1EC
330
1F
100
AcDbEntity
  8
0
  6
HIDDEN
 62
     7
370
     0
100
AcDbLine
 10
105.7933245556
 20
86.6535369123
 30
0.0
 11
105.7933245556
 21
90.316285499
 31
0.0
  0
LINE
  5
1ED
330
1F
100
AcDbEntity
  8
0
  6
HIDDEN
 62
     7
370
     0
100
AcDbLine
 10
98.2933245556
 20
90.2552205707
 30
0.0
 11
98.2933245556
 21
87.0750642076
 31
0.0
  0
LINE
  5
1EE
330
1F
100
AcDbEntity
  8
0
  6
HIDDEN
 62
     7
370
     0
100
AcDbLine
 10
144.4933245556
 20
128.7533583251
 30
0.0
 11
145.4933245556
 21
128.1760080559
 31
0.0
  0
LINE
  5
1EF
330
1F
100
AcDbEntity
  8
0
  6
HIDDEN
 62
     7
370
     0
100
AcDbLine
 10
150.4933245556
 20
128.1760080559
 30
0.0
 11
151.4933245556
 21
128.7533583251
 31
0.0
  0
LINE
  5
1F0
330
1F
100
AcDbEntity
  8
0
  6
HIDDEN
 62
     7
370
     0
100
AcDbLine
 10
151.4933245556
 20
91.7533583251
 30
0.0
 11
150.4933245556
 21
92.3307085943
 31
0.0
  0
LINE
  5
1F1
330
1F
100
AcDbEntity
  8
0
  6
HIDDEN
 62
     7
370
     0
100
AcDbLine
 10
145.4933245556
 20
92.3307085943
 30
0.0
 11
144.4933245556
 21
91.7533583251
 31
0.0
  0
LINE
  5
1F2
330
1F
100
AcDbEntity
  8
0
  6
HIDDEN
 62
     7
370
     0
100
AcDbLine
 10
145.4933245556
 20
128.1760080559
 30
0.0
 11
145.4933245556
 21
119.7533583251
 31
0.0
  0
LINE
  5
1F3
330
1F
100
AcDbEntity
  8
0
  6
HIDDEN
 62
     7
370
     0
100
AcDbLine
 10
150.4933245556
 20
119.7533583251
 30
0.0
 11
150.4933245556
 21
128.1760080559
 31
0.0
  0
LINE
  5
1F4
330
1F
100
AcDbEntity
  8
0
  6
HIDDEN
 62
     7
370
     0
100
AcDbLine
 10
145.4933245556
 20
119.7533583251
 30
0.0
 11
147.9933245556
 21
118.2512067775
 31
0.0
  0
LINE
  5
1F5
330
1F
100
AcDbEntity
  8
0
  6
HIDDEN
 62
     7
370
     0
100
AcDbLine
 10
147.9933245556
 20
118.2512067775
 30
0.0
 11
150.4933245556
 21
119.7533583251
 31
0.0
  0
LINE
  5
1F6
330
1F
100
AcDbEntity
  8
0
  6
HIDDEN
 62
     7
370
     0
100
AcDbLine
 10
150.4933245556
 20
92.3307085943
 30
0.0
 11
150.4933245556
 21
100.7533583251
 31
0.0
  0
LINE
  5
1F7
330
1F
100
AcDbEntity
  8
0
  6
HIDDEN
 62
     7
370
     0
100
AcDbLine
 10
145.4933245556
 20
100.7533583251
 30
0.0
 11
145.4933245556
 21
92.3307085943
 31
0.0
  0
LINE
  5
1F8
330
1F
100
AcDbEntity
  8
0
  6
HIDDEN
 62
     7
370
     0
100
AcDbLine
 10
150.4933245556
 20
100.7533583251
 30
0.0
 11
147.9933245556
 21
102.2555098726
 31
0.0
  0
LINE
  5
1F9
330
1F
100
AcDbEntity
  8
0
  6
HIDDEN
 62
     7
370
     0
100
AcDbLine
 10
147.9933245556
 20
102.2555098726
 30
0.0
 11
145.4933245556
 21
100.7533583251
 31
0.0
  0
LINE
  5
1FA
330
1F
100
AcDbEntity
  8
0
  6
HIDDEN
 62
     7
370
     0
100
AcDbLine
 10
167.911247752
 20
104.2533583251
 30
0.0
 11
168.411247752
 21
104.7533583251
 31
0.0
  0
LINE
  5
1FB
330
1F
100
AcDbEntity
  8
0
  6
HIDDEN
 62
     7
370
     0
100
AcDbLine
 10
168.411247752
 20
115.7533583251
 30
0.0
 11
167.911247752
 21
116.2533583251
 31
0.0
  0
LINE
  5
1FC
330
1F
100
AcDbEntity
  8
0
  6
HIDDEN
 62
     7
370
     0
100
AcDbLine
 10
152.911247752
 20
104.2533583251
 30
0.0
 11
167.911247752
 21
104.2533583251
 31
0.0
  0
LINE
  5
1FD
330
1F
100
AcDbEntity
  8
0
  6
HIDDEN
 62
     7
370
     0
100
AcDbLine
 10
167.911247752
 20
116.2533583251
 30
0.0
 11
152.911247752
 21
116.2533583251
 31
0.0
  0
LINE
  5
1FE
330
1F
100
AcDbEntity
  8
0
  6
HIDDEN
 62
     7
370
     0
100
AcDbLine
 10
152.911247752
 20
116.2533583251
 30
0.0
 11
152.411247752
 21
115.7533583251
 31
0.0
  0
LINE
  5
1FF
330
1F
100
AcDbEntity
  8
0
  6
HIDDEN
 62
     7
370
     0
100
AcDbLine
 10
152.411247752
 20
104.7533583251
 30
0.0
 11
152.911247752
 21
104.2533583251
 31
0.0
  0
LINE
  5
200
330
1F
100
AcDbEntity
  8
0
  6
HIDDEN
 62
     7
370
     0
100
AcDbLine
 10
168.411247752
 20
104.7533583251
 30
0.0
 11
172.411247752
 21
104.7533583251
 31
0.0
  0
LINE
  5
201
330
1F
100
AcDbEntity
  8
0
  6
HIDDEN
 62
     7
370
     0
100
AcDbLine
 10
172.411247752
 20
115.7533583251
 30
0.0
 11
168.411247752
 21
115.7533583251
 31
0.0
  0
LINE
  5
202
330
1F
100
AcDbEntity
  8
0
  6
HIDDEN
 62
     7
370
     0
100
AcDbLine
 10
159.411247752
 20
107.2533583251
 30
0.0
 11
165.411247752
 21
107.2533583251
 31
0.0
  0
LINE
  5
203
330
1F
100
AcDbEntity
  8
0
  6
HIDDEN
 62
     7
370
     0
100
AcDbLine
 10
165.411247752
 20
113.2533583251
 30
0.0
 11
159.411247752
 21
113.2533583251
 31
0.0
  0
POINT
  5
204
330
1F
100
AcDbEntity
  8
VERMASSUNG
100
AcDbPoint
 10
199.0433245556
 20
97.7533583251
 30
0.0
  0
POINT
  5
205
330
1F
100
AcDbEntity
  8
VERMASSUNG
100
AcDbPoint
 10
199.0433245556
 20
122.7533583251
 30
0.0
  0
DIMENSION
  5
206
330
1F
100
AcDbEntity
  8
VERMASSUNG
100
AcDbDimension
  2
*D1
 10
218.2834851229
 20
97.7533583251
 30
0.0
 11
218.2834851229
 21
109.6607915877
 31
0.0
 70
   160
  1
ER<>
 71
     2
 42
-1.0
  3
SLDDIMSTYLE0
100
AcDbAlignedDimension
 13
199.0433245556
 23
122.7533583251
 33
0.0
 14
199.0433245556
 24
97.7533583251
 34
0.0
 50
90.0
100
AcDbRotatedDimension
  0
DIMENSION
  5
212
330
1F
100
AcDbEntity
  8
VERMASSUNG
100
AcDbDimension
  2
*D2
 10
71.3073461457
 20
78.7533583251
 30
0.0
 11
71.3073461457
 21
108.3871981608
 31
0.0
 70
   160
  1
HSK A %%c<>
 71
     2
 42
-1.0
  3
SLDDIMSTYLE0
100
AcDbAlignedDimension
 13
111.3433245556
 23
141.7533583251
 33
0.0
 14
111.3433245556
 24
78.7533583251
 34
0.0
 50
90.0
100
AcDbRotatedDimension
  0
DIMENSION
  5
21E
330
1F
100
AcDbEntity
  8
VERMASSUNG
100
AcDbDimension
  2
*D3
 10
211.0433245556
 20
151.7533583251
 30
0.0
 11
173.0370892443
 21
151.7533583251
 31
0.0
 70
   160
 71
     2
 42
-1.0
  3
SLDDIMSTYLE0
100
AcDbAlignedDimension
 13
136.9933245556
 23
140.0997986488
 33
0.0
 14
211.0433245556
 24
95.2533583251
 34
0.0
100
AcDbRotatedDimension
  0
DIMENSION
  5
228
330
1F
100
AcDbEntity
  8
VERMASSUNG
100
AcDbDimension
  2
*D4
 10
211.0433245556
 20
157.7533583251
 30
0.0
 11
161.7577659837
 21
157.7533583251
 31
0.0
 70
   160
 71
     2
 42
-1.0
  3
SLDDIMSTYLE0
100
AcDbAlignedDimension
 13
111.0433245556
 23
141.4533583251
 33
0.0
 14
211.0433245556
 24
95.2533583251
 34
0.0
100
AcDbRotatedDimension
  0
DIMENSION
  5
232
330
1F
100
AcDbEntity
  8
VERMASSUNG
100
AcDbDimension
  2
*D5
 10
211.0433245556
 20
163.7533583251
 30
0.0
 11
151.9917693382
 21
163.7533583251
 31
0.0
 70
   160
 71
     2
 42
-1.0
  3
SLDDIMSTYLE0
100
AcDbAlignedDimension
 13
79.1433245556
 23
129.9440360716
 33
0.0
 14
211.0433245556
 24
95.2533583251
 34
0.0
100
AcDbRotatedDimension
  0
DIMENSION
  5
23C
330
1F
100
AcDbEntity
  8
VERMASSUNG
100
AcDbDimension
  2
*D6
 10
211.0433245556
 20
145.7533583251
 30
0.0
 11
190.6074282812
 21
145.7533583251
 31
0.0
 70
   160
 71
     2
 42
-1.0
  3
SLDDIMSTYLE0
100
AcDbAlignedDimension
 13
170.0433245556
 23
119.2533583251
 33
0.0
 14
211.0433245556
 24
125.2533583251
 34
0.0
100
AcDbRotatedDimension
  0
DIMENSION
  5
246
330
1F
100
AcDbEntity
  8
VERMASSUNG
100
AcDbDimension
  2
*D7
 10
230.2834851229
 20
89.4033583251
 30
0.0
 11
230.2834851229
 21
109.4932498388
 31
0.0
 70
   160
  1
%%c<>
 71
     2
 42
-1.0
  3
SLDDIMSTYLE0
100
AcDbAlignedDimension
 13
207.6658250656
 23
131.1033583251
 33
0.0
 14
207.6658250656
 24
89.4033583251
 34
0.0
 50
90.0
100
AcDbRotatedDimension
  0
DIMENSION
  5
251
330
1F
100
AcDbEntity
  8
VERMASSUNG
100
AcDbDimension
  2
*D8
 10
224.2834851229
 20
91.7533583251
 30
0.0
 11
224.2834851229
 21
109.4932498388
 31
0.0
 70
   160
  1
%%c<>
 71
     2
 42
-1.0
  3
SLDDIMSTYLE0
100
AcDbAlignedDimension
 13
156.9933245556
 23
128.7533583251
 33
0.0
 14
156.9933245556
 24
91.7533583251
 34
0.0
 50
90.0
100
AcDbRotatedDimension
  0
LINE
  5
25C
330
1F
100
AcDbEntity
  8
VERMASSUNG
  6
CENTERX2
370
     0
100
AcDbLine
 10
77.6670156347
 20
110.2533583251
 30
0.0
 11
213.6596483541
 21
110.2533583251
 31
0.0
  0
OLE2FRAME
  5
25D
330
1F
100
AcDbEntity
  8
0
100
AcDbOle2Frame
 70
     2
  3
Bitmap Image
 10
13.8511154363
 20
38.264191557
 30
0.0
 11
51.6290888628
 21
31.9806341108
 31
0.0
 71
     2
 72
     0
 73
     1
 90
    12928
310
80552BED0767C5B32B40DDAF6807D121434000000000000000006FFBDDFB85D0
310
4940DDAF6807D121434000000000000000006FFBDDFB85D04940416F4BD60AFB
310
3F4000000000000000002BED0767C5B32B40416F4BD60AFB3F40000000000000
310
0000000000000100000000010000010000000100000000000100000000320000
310
D0CF11E0A1B11AE1000000000000000000000000000000003E000300FEFF0900
310
0600000000000000000000000100000001000000000000000010000002000000
310
01000000FEFFFFFF0000000000000000FFFFFFFFFFFFFFFFFFFFFFFFFFFFFFFF
310
FFFFFFFFFFFFFFFFFFFFFFFFFFFFFFFFFFFFFFFFFFFFFFFFFFFFFFFFFFFFFFFF
310
FFFFFFFFFFFFFFFFFFFFFFFFFFFFFFFFFFFFFFFFFFFFFFFFFFFFFFFFFFFFFFFF
310
FFFFFFFFFFFFFFFFFFFFFFFFFFFFFFFFFFFFFFFFFFFFFFFFFFFFFFFFFFFFFFFF
310
FFFFFFFFFFFFFFFFFFFFFFFFFFFFFFFFFFFFFFFFFFFFFFFFFFFFFFFFFFFFFFFF
310
FFFFFFFFFFFFFFFFFFFFFFFFFFFFFFFFFFFFFFFFFFFFFFFFFFFFFFFFFFFFFFFF
310
FFFFFFFFFFFFFFFFFFFFFFFFFFFFFFFFFFFFFFFFFFFFFFFFFFFFFFFFFFFFFFFF
310
FFFFFFFFFFFFFFFFFFFFFFFFFFFFFFFFFFFFFFFFFFFFFFFFFFFFFFFFFFFFFFFF
310
FFFFFFFFFFFFFFFFFFFFFFFFFFFFFFFFFFFFFFFFFFFFFFFFFFFFFFFFFFFFFFFF
310
FFFFFFFFFFFFFFFFFFFFFFFFFFFFFFFFFFFFFFFFFFFFFFFFFFFFFFFFFFFFFFFF
310
FFFFFFFFFFFFFFFFFFFFFFFFFFFFFFFFFFFFFFFFFFFFFFFFFFFFFFFFFFFFFFFF
310
FFFFFFFFFFFFFFFFFFFFFFFFFFFFFFFFFFFFFFFFFFFFFFFFFFFFFFFFFFFFFFFF
310
FFFFFFFFFFFFFFFFFFFFFFFFFFFFFFFFFFFFFFFFFFFFFFFFFFFFFFFFFFFFFFFF
310
FFFFFFFFFFFFFFFFFFFFFFFFFFFFFFFFFFFFFFFFFFFFFFFFFFFFFFFFFFFFFFFF
310
FDFFFFFFFEFFFFFFFEFFFFFFFEFFFFFF05000000060000000700000008000000
310
090000000A0000000B0000000C0000000D0000000E0000000F00000010000000
310
11000000120000001300000014000000150000001600000017000000FEFFFFFF
310
FFFFFFFFFFFFFFFFFFFFFFFFFFFFFFFFFFFFFFFFFFFFFFFFFFFFFFFFFFFFFFFF
310
FFFFFFFFFFFFFFFFFFFFFFFFFFFFFFFFFFFFFFFFFFFFFFFFFFFFFFFFFFFFFFFF
310
FFFFFFFFFFFFFFFFFFFFFFFFFFFFFFFFFFFFFFFFFFFFFFFFFFFFFFFFFFFFFFFF
310
FFFFFFFFFFFFFFFFFFFFFFFFFFFFFFFFFFFFFFFFFFFFFFFFFFFFFFFFFFFFFFFF
310
FFFFFFFFFFFFFFFFFFFFFFFFFFFFFFFFFFFFFFFFFFFFFFFFFFFFFFFFFFFFFFFF
310
FFFFFFFFFFFFFFFFFFFFFFFFFFFFFFFFFFFFFFFFFFFFFFFFFFFFFFFFFFFFFFFF
310
FFFFFFFFFFFFFFFFFFFFFFFFFFFFFFFFFFFFFFFFFFFFFFFFFFFFFFFFFFFFFFFF
310
FFFFFFFFFFFFFFFFFFFFFFFFFFFFFFFFFFFFFFFFFFFFFFFFFFFFFFFFFFFFFFFF
310
FFFFFFFFFFFFFFFFFFFFFFFFFFFFFFFFFFFFFFFFFFFFFFFFFFFFFFFFFFFFFFFF
310
FFFFFFFFFFFFFFFFFFFFFFFFFFFFFFFFFFFFFFFFFFFFFFFFFFFFFFFFFFFFFFFF
310
FFFFFFFFFFFFFFFFFFFFFFFFFFFFFFFFFFFFFFFFFFFFFFFFFFFFFFFFFFFFFFFF
310
FFFFFFFFFFFFFFFFFFFFFFFFFFFFFFFFFFFFFFFFFFFFFFFFFFFFFFFFFFFFFFFF
310
FFFFFFFFFFFFFFFFFFFFFFFFFFFFFFFFFFFFFFFFFFFFFFFFFFFFFFFFFFFFFFFF
310
52006F006F007400200045006E00740072007900000000000000000000000000
310
0000000000000000000000000000000000000000000000000000000000000000
310
16000500FFFFFFFFFFFFFFFF020000000A00030000000000C000000000000046
310
00000000000000000000000010B2830874E8CB0103000000C000000000000000
310
01004F006C006500000000000000000000000000000000000000000000000000
310
0000000000000000000000000000000000000000000000000000000000000000
310
0A000200FFFFFFFFFFFFFFFFFFFFFFFF00000000000000000000000000000000
310
0000000000000000000000000000000000000000000000001400000000000000
310
010043006F006D0070004F0062006A0000000000000000000000000000000000
310
0000000000000000000000000000000000000000000000000000000000000000
310
120002010100000003000000FFFFFFFF00000000000000000000000000000000
310
0000000000000000000000000000000000000000010000004D00000000000000
310
01004F006C006500310030004E00610074006900760065000000000000000000
310
0000000000000000000000000000000000000000000000000000000000000000
310
1A000200FFFFFFFFFFFFFFFFFFFFFFFF00000000000000000000000000000000
310
0000000000000000000000000000000000000000040000002426000000000000
310
FEFFFFFF02000000FEFFFFFFFFFFFFFFFFFFFFFFFFFFFFFFFFFFFFFFFFFFFFFF
310
FFFFFFFFFFFFFFFFFFFFFFFFFFFFFFFFFFFFFFFFFFFFFFFFFFFFFFFFFFFFFFFF
310
FFFFFFFFFFFFFFFFFFFFFFFFFFFFFFFFFFFFFFFFFFFFFFFFFFFFFFFFFFFFFFFF
310
FFFFFFFFFFFFFFFFFFFFFFFFFFFFFFFFFFFFFFFFFFFFFFFFFFFFFFFFFFFFFFFF
310
FFFFFFFFFFFFFFFFFFFFFFFFFFFFFFFFFFFFFFFFFFFFFFFFFFFFFFFFFFFFFFFF
310
FFFFFFFFFFFFFFFFFFFFFFFFFFFFFFFFFFFFFFFFFFFFFFFFFFFFFFFFFFFFFFFF
310
FFFFFFFFFFFFFFFFFFFFFFFFFFFFFFFFFFFFFFFFFFFFFFFFFFFFFFFFFFFFFFFF
310
FFFFFFFFFFFFFFFFFFFFFFFFFFFFFFFFFFFFFFFFFFFFFFFFFFFFFFFFFFFFFFFF
310
FFFFFFFFFFFFFFFFFFFFFFFFFFFFFFFFFFFFFFFFFFFFFFFFFFFFFFFFFFFFFFFF
310
FFFFFFFFFFFFFFFFFFFFFFFFFFFFFFFFFFFFFFFFFFFFFFFFFFFFFFFFFFFFFFFF
310
FFFFFFFFFFFFFFFFFFFFFFFFFFFFFFFFFFFFFFFFFFFFFFFFFFFFFFFFFFFFFFFF
310
FFFFFFFFFFFFFFFFFFFFFFFFFFFFFFFFFFFFFFFFFFFFFFFFFFFFFFFFFFFFFFFF
310
FFFFFFFFFFFFFFFFFFFFFFFFFFFFFFFFFFFFFFFFFFFFFFFFFFFFFFFFFFFFFFFF
310
FFFFFFFFFFFFFFFFFFFFFFFFFFFFFFFFFFFFFFFFFFFFFFFFFFFFFFFFFFFFFFFF
310
FFFFFFFFFFFFFFFFFFFFFFFFFFFFFFFFFFFFFFFFFFFFFFFFFFFFFFFFFFFFFFFF
310
FFFFFFFFFFFFFFFFFFFFFFFFFFFFFFFFFFFFFFFFFFFFFFFFFFFFFFFFFFFFFFFF
310
0100000200000000000000000000000000000000000000003200820000000005
310
E80525000000000060EEF10D00000000E00E390100000000B40E820100000000
310
0100FEFF030A0000FFFFFFFF0A00030000000000C00000000000004607000000
310
5042727573680007000000504272757368000700000050427275736800F439B2
310
7100000000000000000000000000000000000000000000000000C70600000000
310
425D000000000000000000000000000000000000000000003800000041000000
310
E00E3901000000003C0F95010000000000000000000000000000000000000000
310
0000C70600000000435D00000000000000000000000000000000000000000000
310
3800000041000000E00E390100000000D80EA001000000000000000000000000
310
00000000000000000000C706000000003D5D0000000000000000000000000000
310
00000000000000003800000041000000E00E3901000000000E0F1E0100000000
310
000000000000000000000000000000000000C706000000003E5D000000000000
310
000000000000000000000000000000003800000041000000E00E390100000000
310
CE0E2C0100000000000000000000000000000000000000000000C70600000000
310
3F5D000000000000000000000000000000000000000000003800000041000000
310
E00E390100000000CC0EA9010000000000000000000000000000000000000000
310
20260000424D0E260000000000003E00000028000000B40200006E0000000100
310
01000000000000000000130B0000130B00000200000002000000000000FFFFFF
310
FFFFFFFFFFFFFFFFFFFFFFFFFFFFFFFFFFFFFFFFFFFFFFFFFFFFFFFFFFFFFFFF
310
FFFFFFFFFFFFFFFFFFFFFFFFFFFFFFFFFFFFFFFFFFFFFFFFFFFFFFFFFFFFFFFF
310
FFFFFFFFFFFFFFFFFFFFFFFFFFFFFFFFFFFFFFFFFFFFFFFFF000FFFFFFFFFFFF
310
FFFFFFFFFFFFFFFFFFFFFFFFFFFFFFFFFFFFFFFFFFFFFFFFFFFFFFFFFFFFFFFF
310
FFFFFFFFFFFFFFFFFFFFFFFFFFFFFFFFFFFFFFFFFFFFFFFFFFFFFFFFFFFFFFFF
310
FFFFFFFFFFFFFFFFFFFFFFFFFFFFFFFFF000FFFFFFFFFFFFFFFFFFFFFFFFFFFF
310
FFFFFFFFFFFFFFFFFFFFFFFFFFFFFFFFFFFFFFFFFFFFFFFFFFFFFFFFFFFFFFFF
310
FFFFFFFFFFFFFFFFFFFFFFFFFFFFFFFFFFFFFFFFFFFFFFFFFFFFFFFFFFFFFFFF
310
FFFFFFFFFFFFFFFFF000FFFFFFFFFFFFFFFFFFFFFFFFFFFFFFFFFFFFFFFFFFFF
310
FFFFFFFFFFFFFFFFFFFFFFFFFFFFFFFFFFFFFFFFFFFFFFFFFFFFFFFFFFFFFFFF
310
FFFFFFFFFFFFFFFFFFFFFFFFFFFFFFFFFFFFFFFFFFFFFFFFFFFFFFFFFFFFFFFF
310
F000FFFFFFFFFFFFFFFFFFFFFFFFFFFFFFFFFFFFFFFFFFFFFFFFFFFFFFFFFFFF
310
FFFFFFFFFFFFFFFFFFFFFFFFFFFFFFFFFFFFFFFFFFFFFFFFFFFFFFFFFFFFFFFF
310
FFFFFFFFFFFFFFFFFFFFFFFFFFFFFFFFFFFFFFFFFFFFFFFFF000FFFFFFFFFFFF
310
FFFFFFFFFFFFFFFFFFFFFFFFFFFFFFFFFFFFFFFFFFFFFFFFFFFFFFFFFFFFFFFF
310
FFFFFFFFFFFFFFFFFFFFFFFFFFFFFFFFFFFFFFFFFFFFFFFFFFFFFFFFFFFFFFFF
310
FFFFFFFFFFFFFFFFFFFFFFFFFFFFFFFFF000FFFFFFFFFFFFFFFFFFFFFFFFFFFF
310
FFFFFFFFFFFFFFFFFFFFFFFFFFFFFFFFFFFFFFFFFFFFFFFFFFFFFFFFFFFFFFFF
310
FFFFFFFFFFFFFFFFFFFFFFFFFFFFFFFFFFFFFFFFFFFFFFFFFFFFFFFFFFFFFFFF
310
FFFFFFFFFFFFFFFFF000FFFFFFFFFFFFFFFFFFFFFFFFFFFFFFFFFFFFFFFFFFFF
310
FFFFFFFFFFFFFFFFFFFFFFFFFFFFFFFFFFFFFFFFFFFFFFFFFFFFFFFFFFFFFFFF
310
FFFFFFFFFFFFFFFFFFFFFFFFFFFFFFFFFFFFFFFFFFFFFFFFFFFFFFFFFFFFFFFF
310
F000FFFFFFFFFFFFFFFFFFFFFFFFFFFFFFFFFFFFFFFFFFFFFFFFFFFFFFFFFFFF
310
FFFFFFFFFFFFFFFFFFFFFFFFFFFFFFFFFFFFFFFFFFFFFFFFFFFFFFFFFFFFFFFF
310
FFFFFFFFFFFFFFFFFFFFFFFFFFFFFFFFFFFFFFFFFFFFFFFFF000FFFFFFFFFFFF
310
FFFFFFFFFFFFFFFFFFFFFFFFFFFFFFFFFFFFFFFFFFFFFFFFFFFFFFFFFFFFFFFF
310
FFFFFFFFFFFFFFFFFFFFFFFFFFFFFFFFFFFFFFFFFFFFFFFFFFFFFFFFFFFFFFFF
310
FFFFFFFFFFFFFFFFFFFFFFFFFFFFFFFFF000FFFFFFFFFFFFFFFFFFFFFFFFFFFF
310
FFFFFFFFFFFFFFFFFFFFFFFFFFFFFFFFFFFFFFFFFFFFFFFFFFFFFFFFFFFFFFFF
310
FFFFFFFFFFFFFFFFFFFFFFFFFFFFFFFFFFFFFFFFFFFFFFFFFFFFFFFFFFFFFFFF
310
FFFFFFFFFFFFFFFFF000FFFFFFFFFFFFFFFFFFFFFFFFFFFFFFFFFFFFFFFFFFFF
310
FFFFFFFFFFFFFFFFFFFFFFFFFFFFFFFFFFFFFFFFFFFFFFFFFFFFFFFFFFFFFFFF
310
FFFFFFFFFFFFFFFFFFFFFFFFFFFFFFFFFFFFFFFFFFFFFFFFFFFFFFFFFFFFFFFF
310
F000FFFFFFFFFFFFFFFFFFFFFFFFFFFFFFFFFFFFFFFFFFFFFFFFFFFFFFFFFFFF
310
FFFFFFFFFFFFFFFFFFFFFFFFFFFFFFFFFFFFFFFFFFFFFFFFFFFFFFFFFFFFFFFF
310
FFFFFFFFFFFFFFFFFFFFFFFFFFFFFFFFFFFFFFFFFFFFFFFFF000FFFFFFFFFFFF
310
FFFFFFFFFFFFFFFFFFFFFFFFFFFFFFFFFFFFFFFFFFFFFFFFFFFFFFFFFFFFFFFF
310
FFFFFFFFFFFFFFFFFFFFFFFFFFFFFFFFFFFFFFFFFFFFFFFFFFFFFFFFFFFFFFFF
310
FFFFFFFFFFFFFFFFFFFFFFFFFFFFFFFFF000FFFFFFFFFFFFFFFFFFFFFFFFFFFF
310
FFFFFFFFFFFFFFFFFFFFFFFFFFFFFFFFFFFFFFFFFFFFFFFFFFFFFFFFFFFFFFFF
310
FFFFFFFFFFFFFFFFFFFFFFFFFFFFFFFFFFFFFFFFFFFFFFFFFFFFFFFFFFFFFFFF
310
FFFFFFFFFFFFFFFFF000FFFFFFFFFFFFFFFFFFFFFFFFFFFFFFFFFFFFFFFFFFFF
310
FFFFFFFFFFFFFFFFFFFFFFFFFFFFFFFFFFFFFFFFFFFFFFFFFFFFFFFFFFFFFFFF
310
FFFFFFFFFFFFFFFFFFFFFFFFFFFFFFFFFFFFFFFFFFFFFFFFFFFFFFFFFFFFFFFF
310
F000FFFFFFFFFFFFFFFFFFFFFFFFFFFFFFFFFFFFFFFFFFFFFFFFFFFFFFFFFFFF
310
FFFFFFFFFFFFFFFFFFFFFFFFFFFFFFFFFFFFFFFFFFFFFFFFFFFFFFFFFFFFFFFF
310
FFFFFFFFFFFFFFFFFFFFFFFFFFFFFFFFFFFFFFFFFFFFFFFFF000FFFFFFFFFFFF
310
FFFFFFFFFFFFFFFFFFFFFFFFFFFFFFFFFFFFFFFFFFFFFFFFFFFFFFFFFFFFFFFF
310
FFFFFFFFFFFFFFFFFFFFFFFFFFFFFFFFFFFFFFFFFFFFFFFFFFFFFFFFFFFFFFFF
310
FFFFFFFFFFFFFFFFFFFFFFFFFFFFFFFFF000FFFFFFFFFFFFFFFFFFFFFFFFFFFF
310
FFFFFFFFFFFFFFFFFFFFFFFFFFFFFFFFFFFFFFFFFFFFFFFFFFFFFFFFFFFFFFFF
310
FFFFFFFFFFFFFFFFFFFFFFFFFFFFFFFFFFFFFFFFFFFFFFFFFFFFFFFFFFFFFFFF
310
FFFFFFFFFFFFFFFFF000FFFFF80003FFFFFFFFFFFFFFFFFFFFFFFFFFFFFFFFFF
310
FFFFF00007FFFFFFFFFF00007FFFFFF800000000000000007FFFFFFFFFFFFFFF
310
FFFFFFFC001FFFFFFFFFFFFFFC001FFFFFFFFFFFFFFFFFFFFFFFFFFE0007FFFF
310
F000FFFF8000007FFFFFFFF8000FFFFFC0007FFFFF80007FFFFF0000007FFFFF
310
FFF8000007FFFFF800000000000000007FFFFFF0001FFFFFFFFFFFC00001FFFF
310
FFFFFFFFC00001FFFFFFFF000000000003FFFFE000007FFFF000FFFE0000000F
310
FFFFFFF0000FFFFF80007FFFFF80007FFFFC0000001FFFFFFFC0000001FFFFF8
310
00000000000000007FFFFFF0001FFFFFFFFFFE0000003FFFFFFFFFFE0000003F
310
FFFFFF000000000003FFFF0000000FFFF000FFF800000003FFFFFFF00007FFFF
310
80007FFFFF80007FFFF000000007FFFFFF000000003FFFF80000000000000000
310
7FFFFFF0001FFFFFFFFFF80000000FFFFFFFFFF80000000FFFFFFF0000000000
310
03FFFC00000003FFF000FFE000000000FFFFFFF00007FFFF80003FFFFF80007F
310
FFC000000001FFFFFC000000001FFFF800000000000000007FFFFFF0001FFFFF
310
FFFFE000000003FFFFFFFFE000000003FFFFFF000000000003FFF000000000FF
310
F000FF80000000007FFFFFF00007FFFF80003FFFFF80007FFF8000000000FFFF
310
F80000000007FFF800000000000000007FFFFFF0001FFFFFFFFFC000000001FF
310
FFFFFFC000000001FFFFFF000000000003FFC0000000007FF000FF0000000000
310
3FFFFFE00007FFFF00003FFFFF80007FFE00000000003FFFF00000000003FFF8
310
00000000000000007FFFFFF0001FFFFFFFFF8000000000FFFFFFFF8000000000
310
FFFFFF000000000003FF80000000003FF000FE00000000001FFFFFE00003FFFF
310
00003FFFFF80007FFC00000000001FFFE00000000001FFF8000001FFFE000000
310
7FFFFFF0001FFFFFFFFE00000000003FFFFFFE00000000003FFFFF0000000000
310
03FF00000000001FF000FC00000000000FFFFFE00003FFFF00001FFFFF80007F
310
F800000000001FFFC00000000000FFF8000001FFFE0000007FFFFFF0001FFFFF
310
FFFC00000000001FFFFFFC00000000001FFFFF000000000003FE00000000000F
310
F000F8000000000007FFFFE00003FFFF00001FFFFF80007FF800000000000FFF
310
800000000000FFF8000001FFFE0000007FFFFFF0001FFFFFFFF800000000000F
310
FFFFF800000000000FFFFF000000000003FC000000000007F000F80000000000
310
03FFFFC00003FFFE00001FFFFF80007FF0000000000007FF0000000000007FF8
310
000001FFFE0000007FFFFFF0001FFFFFFFF0000000000007FFFFF00000000000
310
07FFFF000000000003F8000000000003F000F0000000000003FFFFC00001FFFE
310
00001FFFFF80007FE0000000000007FE0000000000003FF8000001FFFE000000
310
7FFFFFF0001FFFFFFFF0000000000007FFFFF0000000000007FFFF0000000000
310
03F800001F800003F000E00001FFF00001FFFFC00001FFFE00000FFFFF80007F
310
E00001FFE00003FE00001FFF00003FF8000001FFFE0000007FFFFFF0001FFFFF
310
FFE000003E000003FFFFE000003E000003FFFF000000000003F00001FFF80001
310
F000E00007FFFC0001FFFFC00001FFFE00000FFFFF80007FC0000FFFFC0003FC
310
0000FFFFC0001FF8000001FFFE0000007FFFFFF0001FFFFFFFC00003FFE00001
310
FFFFC00003FFE00001FFFF0001FFFFFFFFF00007FFFE0001F000E0000FFFFF00
310
00FFFF800001FFFC00000FFFFF80007FC0001FFFFE0001FC0001FFFFE0001FF8
310
000001FFFE0000007FFFFFF0001FFFFFFF80000FFFF80000FFFF80000FFFF800
310
00FFFF0003FFFFFFFFE0000FFFFF8000F000C0003FFFFF8000FFFF800000FFFC
310
000007FFFF80007F80003FFFFF0001FC0003FFFFF0001FF8000001FFFE000000
310
7FFFFFF0001FFFFFFF80003FFFFE0000FFFF80003FFFFE0000FFFF0003FFFFFF
310
FFE0003FFFFF8000F000C0003FFFFF8000FFFF800000FFFC000007FFFF80007F
310
80007FFFFF8001F80007FFFFF8000FF8000001FFFE0000007FFFFFF0001FFFFF
310
FF00007FFFFF00007FFF00007FFFFF00007FFF0003FFFFFFFFE0003FFFFFC000
310
F000C0007FFFFFC000FFFF000000FFFC000007FFFF80007F8000FFFFFF8000F8
310
000FFFFFF8000FF8000001FFFE0000007FFFFFF0001FFFFFFF0000FFFFFF8000
310
7FFF0000FFFFFF80007FFF0003FFFFFFFFC0007FFFFFC00070008000FFFFFFC0
310
00FFFF000000FFF8000007FFFF80007F8000FFFFFF8000F8000FFFFFF8000FF8
310
000001FFFE0000007FFFFFF0001FFFFFFE0001FFFFFFC0003FFE0001FFFFFFC0
310
003FFF0003FFFFFFFFC0007FFFFFE00070008000FFFFFFC0007FFF0000007FF8
310
000003FFFF80007F0001FFFFFF8000F8000FFFFFF8000FF8000001FFFE000000
310
7FFFFFF0001FFFFFFE0001FFFFFFC0003FFE0001FFFFFFC0003FFF0003FFFFFF
310
FFC000FFFFFFE00070008000FFFFFFC0007FFF0000007FF8000003FFFF80007F
310
0001FFFFFF8000F8001FFFFFF8000FF8000001FFFE0000007FFFFFF0001FFFFF
310
FE0003FFFFFFE0003FFE0003FFFFFFE0003FFF0003FFFFFFFFC000FFFFFFE000
310
70008000FFFFFFC0007FFE0000007FF8000003FFFF80007F0001FFFFFF8000F0
310
001FFFFFF8000FF8000001FFFE0000007FFFFFF0001FFFFFFC0003FFFFFFE000
310
1FFC0003FFFFFFE0001FFF0003FFFFFFFFC000FFFFFFC00070008000FFFFFF80
310
007FFE0000007FF0000003FFFF80007F0001FFFFFF0000F0001FFFFFF8000FF8
310
000001FFFE0000007FFFFFF0001FFFFFFC0007FFFFFFF0001FFC0007FFFFFFF0
310
001FFF0003FFFFFFFFC000FFFFFFC00070008001FFFFFF0000FFFE0000003FF0
310
000001FFFF80007F0001FFFFFF0000F8001FFFFFF0000FF8000001FFFE000000
310
7FFFFFF0001FFFFFFC0007FFFFFFF0001FFC0007FFFFFFF0001FFF0003FFFFFF
310
FFC001FFFFFF80007000FFFFFFFFFE0000FFFE0008003FF0008001FFFF80007F
310
FFFFFFFFFC0000FFFFFFFFFFE0000FF8000001FFFE0000007FFFFFF0001FFFFF
310
F8000FFFFFFFF8000FF8000FFFFFFFF8000FFF0003FFFFFFFFFFFFFFFFFF0000
310
7000FFFFFFFFFC0000FFFC0008003FF0008001FFFF80007FFFFFFFFFF80001FF
310
FFFFFFFF80000FF8000001FFFE0000007FFFFFF0001FFFFFF8000FFFFFFFF800
310
0FF8000FFFFFFFF8000FFF0003FFFFFFFFFFFFFFFFFE0000F000FFFFFFFFE000
310
00FFFC000C003FE000C001FFFF80007FFFFFFFFFC00001FFFFFFFFFE00001FF8
310
000001FFFE0000007FFFFFF0001FFFFFF8000FFFFFFFF8000FF8000FFFFFFFF8
310
000FFF0003FFFFFFFFFFFFFFFFF00000F000FFFFFFFE000001FFFC000C001FE0
310
00C000FFFF80007FFFFFFFFE000001FFFFFFFFE000001FF80FFFFFFFFFFFFFC0
310
7FFFFFF0001FFFFFF8000FFFFFFFF8000FF8000FFFFFFFF8000FFF0003FFFFFF
310
FFFFFFFFFF800000F000FFFFFFC0000001FFFC001C001FE001C000FFFF80007F
310
FFFFFF80000003FFFFFFF80000001FF80FFFFFFFFFFFFFC07FFFFFF0001FFFFF
310
F8001FFFFFFFFC000FF8001FFFFFFFFC000FFF0003FFFFFFFFFFFFFFF0000001
310
F000FFFFF800000001FFF8001C001FE001C000FFFF80007FFFFFF800000003FF
310
FFFF800000003FF80FFFFFFFFFFFFFC07FFFFFF0001FFFFFF8001FFFFFFFFC00
310
0FF8001FFFFFFFFC000FFF0003FFFFFFFFFFFFFE00000001F000FFFFC0000000
310
03FFF8001E001FC001E000FFFF80007FFFFF8000000007FFFFFC000000003FF8
310
0FFFFFFFFFFFFFC07FFFFFF0001FFFFFF8001FFFFFFFFC000FF8001FFFFFFFFC
310
000FFF0003FFFFFFFFFFFFE000000003F000FFFE0000000007FFF8001E000FC0
310
01E0007FFF80007FFFFE0000000007FFFFE0000000007FF80FFFFFFFFFFFFFC0
310
7FFFFFF0001FFFFFF0001FFFFFFFFC0007F0001FFFFFFFFC0007FF0003FFFFFF
310
FFFFFF0000000003F000FFF80000000007FFF8001E000FC003E0007FFF80007F
310
FFF0000000000FFFFF8000000000FFF80FFFFFFFFFFFFFC07FFFFFF0001FFFFF
310
F0001FFFFFFFFC0007F0001FFFFFFFFC0007FF0003FFFFFFFFFFFC0000000007
310
F000FFE0000000000FFFF0003E000FC003E0007FFF80007FFFC0000000001FFF
310
FE0000000001FFF80FFFFFFFFFFFFFC07FFFFFF0001FFFFFF0001FFFFFFFFC00
310
07F0001FFFFFFFFC0007FF0003FFFFFFFFFFF0000000000FF000FFC000000000
310
1FFFF0003F000F8003F0003FFF80007FFF80000000003FFFF80000000003FFF8
310
0FFFFFFFFFFFFFC07FFFFFF0001FFFFFF0001FFFFFFFFC0007F0001FFFFFFFFC
310
0007FF0003FFFFFFFFFFE0000000001FF000FF00000000007FFFF0003F000780
310
03F0003FFF80007FFF00000000007FFFF00000000007FFF80FFFFFFFFFFFFFC0
310
7FFFFFF0001FFFFFF0001FFFFFFFFC0007F0001FFFFFFFFC0007FF0003FFFFFF
310
FFFF80000000007FF000FE0000000000FFFFE0003F00078007F0003FFF80007F
310
FE0000000001FFFFE0000000001FFFF80FFFFFFFFFFFFFC07FFFFFF0001FFFFF
310
F0001FFFFFFFFC0007F0001FFFFFFFFC0007FF0003FFFFFFFFFF0000000000FF
310
F000FC0000000003FFFFE0007F00078007F0003FFF80007FFC0000000007FFFF
310
C0000000007FFFF80FFFFFFFFFFFFFC07FFFFFF0001FFFFFF8001FFFFFFFFC00
310
0FF8001FFFFFFFFC000FFF0003FFFFFFFFFE0000000003FFF000FC000000000F
310
FFFFE0007F80070007F8001FFF80007FF8000000001FFFFF8000000001FFFFF8
310
0FFFFFFFFFFFFFC07FFFFFF0001FFFFFF8001FFFFFFFFC000FF8001FFFFFFFFC
310
000FFF0003FFFFFFFFFC000000000FFFF000F8000000007FFFFFE0007F800700
310
07F8001FFF80007FF000000000FFFFFF800000000FFFFFF80FFFFFFFFFFFFFC0
310
7FFFFFF0001FFFFFF8000FFFFFFFF8000FF8000FFFFFFFF8000FFF0003FFFFFF
310
FFFC000000007FFFF000F800000007FFFFFFC0007F8003000FF8001FFF80007F
310
F000000007FFFFFF000000007FFFFFF80FFFFFFFFFFFFFC07FFFFFF0001FFFFF
310
F8000FFFFFFFF8000FF8000FFFFFFFF8000FFF0003FFFFFFFFF80000000FFFFF
310
F000F0000000FFFFFFFFC000FF8003000FF8001FFF80007FE0000000FFFFFFFF
310
0000000FFFFFFFF8000001FFFE0000007FFFFFF0001FFFFFF8000FFFFFFFF800
310
0FF8000FFFFFFFF8000FFF0003FFFFFFFFF8000000FFFFFFF000F000000FFFFF
310
FFFFC000FFC002000FF8000FFF80007FE000001FFFFFFFFE000001FFFFFFFFF8
310
000001FFFE0000007FFFFFF0001FFFFFF8000FFFFFFFF8000FF8000FFFFFFFF8
310
000FFF0003FFFFFFFFF000001FFFFFFFF000E00000FFFFFFFFFFC000FFC00200
310
0FFC000FFF80007FE00001FFFFFFFFFE00001FFFFFFFFFF8000001FFFE000000
310
7FFFFFF0001FFFFFFC000FFFFFFFF8001FFC000FFFFFFFF8001FFF0003FFFFFF
310
FFF00001FFFFFFFFF000E00007FFFFFFFFFF8000FFC000001FFC000FFF80007F
310
C0000FFFFFFFFFFE0000FFFFFFFFFFF8000001FFFE0000007FFFFFF0001FFFFF
310
FC0007FFFFFFF0001FFC0007FFFFFFF0001FFF0003FFFFFFFFF00007FFFFFFFF
310
F000E0001FFFFFFFFFFF8000FFC000001FFC000FFF80007FC0003FFFFFFFFFFE
310
0001FFFFFFFFFFF8000001FFFE0000007FFFFFF0001FFFFFFC0007FFFFFFF000
310
1FFC0007FFFFFFF0001FFF0003FFFFFFFFF0001FFFFFFFFFF000E0003FFFFF00
310
03FF8001FFE000001FFC0007FF80007FC0007FFFFF0007FC0003FFFFF0003FF8
310
000001FFFE0000007FFFFFF0001FFFFFFC0003FFFFFFE0001FFC0003FFFFFFE0
310
001FFF0003FFFFFFFFF0003FFFFFFFFFF000E0003FFFFF0001FF8001FFE00000
310
1FFE0007FF80007FC0007FFFFE0003FC0007FFFFE0003FF8000001FFFE000000
310
7FFFFFF0001FFFFFFE0003FFFFFFE0003FFE0003FFFFFFE0003FFF0003FFFFFF
310
FFF0003FFFFF8001F000E0003FFFFF0001FF0001FFE000001FFE0007FF80007F
310
C0007FFFFE0003FC0007FFFFE0003FF8000001FFFE0000007FFFFFF0001FFFFF
310
FE0001FFFFFFC0003FFE0001FFFFFFC0003FFF0003FFFFFFFFF0003FFFFF0001
310
F000E0003FFFFF0003FF0001FFE000003FFE0007FF80007FC0007FFFFE0003FC
310
0007FFFFE0003FF8000001FFFE0000007FFFFFF0001FFFFFFF0001FFFFFFC000
310
7FFF0001FFFFFFC0007FFF0003FFFFFFFFF0003FFFFF0001F000E0003FFFFE00
310
03FF0003FFF000003FFE0003FF80007FC0007FFFFC0003FE0007FFFFE0003FF8
310
000001FFFE0000007FFFFFF0001FFFFFFF0000FFFFFF80007FFF0000FFFFFF80
310
007FFF0003FFFFFFFFF0003FFFFF0001F000E0003FFFFE0003FF0003FFF00000
310
3FFF0003FF80007FC0007FFFFC0007FE0007FFFFC0003FF8000001FFFE000000
310
7FFFFFF0001FFFFFFF80007FFFFF0000FFFF80007FFFFF0000FFFF0003FFFFFF
310
FFF0003FFFFF0003F000E0003FFFFC0003FE0003FFF000003FFF0003FF80007F
310
E0003FFFF80007FE0003FFFFC0007FF8000001FFFE0000007FFFFFF0001FFFFF
310
FF80003FFFFE0000FFFF80003FFFFE0000FFFF0003FFFFFFFFF0001FFFFE0003
310
F000F0001FFFF80003FE0003FFF000007FFF0001FF80007FE0003FFFF00007FE
310
0001FFFF80007FF8000001FFFE0000007FFFFFF0001FFFFFFFC0000FFFF80001
310
FFFFC0000FFFF80001FFFF0003FFFFFFFFF0001FFFFC0003F000F0000FFFF000
310
07FE0007FFF800007FFF0001FF80007FE0001FFFE00007FF0000FFFE00007FF8
310
000001FFFE0000007FFFFFF0001FFFFFFFC00003FFE00001FFFFC00003FFE000
310
01FFFF0003FFFFFFFFF8000FFFF80003F000F00003FFC00007FC0007FFF80000
310
7FFF8001FF80007FF00007FF80000FFF00007FF80000FFF8000001FFFE000000
310
7F80000000000001FFE000003E000003FFFFE000003E000003FFFF0003FFFFFF
310
FFF80003FFE00007F000F800000000000FFC0007FFF800007FFF8001FF80007F
310
F000000000000FFF000000000000FFF8000001FFFE0000007F80000000000001
310
FFF0000000000007FFFFF0000000000007FFFF0003FFFFFFFFFC00007E000007
310
F000F800000000000FFC0007FFF80000FFFF8000FF80007FF800000000001FFF
310
800000000001FFF8000001FFFE0000007F80000000000001FFF800000000000F
310
FFFFF800000000000FFFFF0003FFFFFFFFFC00000000000FF000FC0000000000
310
1FFC0007FFFC0000FFFF8000FF80007FF800000000003FFFC00000000001FFF8
310
000001FFFE0000007F80000000000001FFF800000000000FFFFFF80000000000
310
0FFFFF0003FFFFFFFFFE00000000001FF000FE00000000003FF8000FFFFC0000
310
FFFF8000FF80007FFC00000000003FFFC00000000003FFF8000001FFFE000000
310
7F80000000000001FFFC00000000001FFFFFFC00000000001FFFFF0003FFFFFF
310
FFFF00000000001FF000FF00000000003FF8000FFFFC0000FFFFC000FF80007F
310
FE00000000007FFFE00000000007FFF8000001FFFE0000007F80000000000001
310
FFFE00000000003FFFFFFE00000000003FFFFF0003FFFFFFFFFF80000000003F
310
F000FF80000000007FF8000FFFFC0001FFFFC0007F80007FFF0000000000FFFF
310
F0000000000FFFF800000000000000007F80000000000001FFFF8000000000FF
310
FFFFFF8000000000FFFFFF0003FFFFFFFFFFC0000000007FF000FFC000000000
310
FFF8000FFFFE0001FFFFC0007F80007FFF8000000001FFFFF8000000001FFFF8
310
00000000000000007F80000000000001FFFFC000000001FFFFFFFFC000000001
310
FFFFFF0003FFFFFFFFFFE000000000FFF000FFE000000003FFF0001FFFFE0001
310
FFFFC0007F80007FFFC000000007FFFFFE000000003FFFF80000000000000000
310
7F80000000000001FFFFE000000003FFFFFFFFE000000003FFFFFF0003FFFFFF
310
FFFFF000000003FFF000FFF80000000FFFF0001FFFFE0001FFFFE0007F80007F
310
FFF00000000FFFFFFF00000000FFFFF800000000000000007F80000000000001
310
FFFFF80000000FFFFFFFFFF80000000FFFFFFF0003FFFFFFFFFFFC0000000FFF
310
F000FFFE0000003FFFF0001FFFFE0003FFFFE0003F80007FFFFC0000003FFFFF
310
FFC0000003FFFFF800000000000000007F80000000000001FFFFFE0000003FFF
310
FFFFFFFE0000003FFFFFFF0003FFFFFFFFFFFF0000003FFFF000FFFF800000FF
310
FFF0001FFFFF0003FFFFE0003F80007FFFFF000001FFFFFFFFF800001FFFFFF8
310
00000000000000007F80000000000001FFFFFFC00001FFFFFFFFFFFFC00001FF
310
FFFFFF0003FFFFFFFFFFFFC00000FFFFF000FFFFF8000FFFFFFFFFFFFFFFFFFF
310
FFFFFFFFFFFFFFFFFFFFF0001FFFFFFFFFFF0000FFFFFFF80000000000000000
310
7FFFFFFFFFFFFFFFFFFFFFFC001FFFFFFFFFFFFFFC001FFFFFFFFFFFFFFFFFFF
310
FFFFFFFC001FFFFFF000FFFFFFFFFFFFFFFFFFFFFFFFFFFFFFFFFFFFFFFFFFFF
310
FFFFFFFFFFFFFFFFFFFFFFFFFFFFFFFFFFFFFFFFFFFFFFFFFFFFFFFFFFFFFFFF
310
FFFFFFFFFFFFFFFFFFFFFFFFFFFFFFFFFFFFFFFFFFFFFFFFFFFFFFFFFFFFFFFF
310
F000FFFFFFFFFFFFFFFFFFFFFFFFFFFFFFFFFFFFFFFFFFFFFFFFFFFFFFFFFFFF
310
FFFFFFFFFFFFFFFFFFFFFFFFFFFFFFFFFFFFFFFFFFFFFFFFFFFFFFFFFFFFFFFF
310
FFFFFFFFFFFFFFFFFFFFFFFFFFFFFFFFFFFFFFFFFFFFFFFFF000FFFFFFFFFFFF
310
FFFFFFFFFFFFFFFFFFFFFFFFFFFFFFFFFFFFFFFFFFFFFFFFFFFFFFFFFFFFFFFF
310
FFFFFFFFFFFFFFFFFFFFFFFFFFFFFFFFFFFFFFFFFFFFFFFFFFFFFFFFFFFFFFFF
310
FFFFFFFFFFFFFFFFFFFFFFFFFFFFFFFFF000FFFFFFFFFFFFFFFFFFFFFFFFFFFF
310
FFFFFFFFFFFFFFFFFFFFFFFFFFFFFFFFFFFFFFFFFFFFFFFFFFFFFFFFFFFFFFFF
310
FFFFFFFFFFFFFFFFFFFFFFFFFFFFFFFFFFFFFFFFFFFFFFFFFFFFFFFFFFFFFFFF
310
FFFFFFFFFFFFFFFFF000FFFFFFFFFFFFFFFFFFFFFFFFFFFFFFFFFFFFFFFFFFFF
310
FFFFFFFFFFFFFFFFFFFFFFFFFFFFFFFFFFFFFFFFFFFFFFFFFFFFFFFFFFFFFFFF
310
FFFFFFFFFFFFFFFFFFFFFFFFFFFFFFFFFFFFFFFFFFFFFFFFFFFFFFFFFFFFFFFF
310
F000FFFFFFFFFFFFFFFFFFFFFFFFFFFFFFFFFFFFFFFFFFFFFFFFFFFFFFFFFFFF
310
FFFFFFFFFFFFFFFFFFFFFFFFFFFFFFFFFFFFFFFFFFFFFFFFFFFFFFFFFFFFFFFF
310
FFFFFFFFFFFFFFFFFFFFFFFFFFFFFFFFFFFFFFFFFFFFFFFFF000FFFFFFFFFFFF
310
FFFFFFFFFFFFFFFFFFFFFFFFFFFFFFFFFFFFFFFFFFFFFFFFFFFFFFFFFFFFFFFF
310
FFFFFFFFFFFFFFFFFFFFFFFFFFFFFFFFFFFFFFFFFFFFFFFFFFFFFFFFFFFFFFFF
310
FFFFFFFFFFFFFFFFFFFFFFFFFFFFFFFFF000FFFFFFFFFFFFFFFFFFFFFFFFFFFF
310
FFFFFFFFFFFFFFFFFFFFFFFFFFFFFFFFFFFFFFFFFFFFFFFFFFFFFFFFFFFFFFFF
310
FFFFFFFFFFFFFFFFFFFFFFFFFFFFFFFFFFFFFFFFFFFFFFFFFFFFFFFFFFFFFFFF
310
FFFFFFFFFFFFFFFFF000FFFFFFFFFFFFFFFFFFFFFFFFFFFFFFFFFFFFFFFFFFFF
310
FFFFFFFFFFFFFFFFFFFFFFFFFFFFFFFFFFFFFFFFFFFFFFFFFFFFFFFFFFFFFFFF
310
FFFFFFFFFFFFFFFFFFFFFFFFFFFFFFFFFFFFFFFFFFFFFFFFFFFFFFFFFFFFFFFF
310
F000FFFFFFFFFFFFFFFFFFFFFFFFFFFFFFFFFFFFFFFFFFFFFFFFFFFFFFFFFFFF
310
FFFFFFFFFFFFFFFFFFFFFFFFFFFFFFFFFFFFFFFFFFFFFFFFFFFFFFFFFFFFFFFF
310
FFFFFFFFFFFFFFFFFFFFFFFFFFFFFFFFFFFFFFFFFFFFFFFFF000FFFFFFFFFFFF
310
FFFFFFFFFFFFFFFFFFFFFFFFFFFFFFFFFFFFFFFFFFFFFFFFFFFFFFFFFFFFFFFF
310
FFFFFFFFFFFFFFFFFFFFFFFFFFFFFFFFFFFFFFFFFFFFFFFFFFFFFFFFFFFFFFFF
310
FFFFFFFFFFFFFFFFFFFFFFFFFFFFFFFFF000FFFFFFFFFFFFFFFFFFFFFFFFFFFF
310
FFFFFFFFFFFFFFFFFFFFFFFFFFFFFFFFFFFFFFFFFFFFFFFFFFFFFFFFFFFFFFFF
310
FFFFFFFFFFFFFFFFFFFFFFFFFFFFFFFFFFFFFFFFFFFFFFFFFFFFFFFFFFFFFFFF
310
FFFFFFFFFFFFFFFFF000FFFFFFFFFFFFFFFFFFFFFFFFFFFFFFFFFFFFFFFFFFFF
310
FFFFFFFFFFFFFFFFFFFFFFFFFFFFFFFFFFFFFFFFFFFFFFFFFFFFFFFFFFFFFFFF
310
FFFFFFFFFFFFFFFFFFFFFFFFFFFFFFFFFFFFFFFFFFFFFFFFFFFFFFFFFFFFFFFF
310
F000FFFFFFFFFFFFFFFFFFFFFFFFFFFFFFFFFFFFFFFFFFFFFFFFFFFFFFFFFFFF
310
FFFFFFFFFFFFFFFFFFFFFFFFFFFFFFFFFFFFFFFFFFFFFFFFFFFFFFFFFFFFFFFF
310
FFFFFFFFFFFFFFFFFFFFFFFFFFFFFFFFFFFFFFFFFFFFFFFFF000FFFFFFFFFFFF
310
FFFFFFFFFFFFFFFFFFFFFFFFFFFFFFFFFFFFFFFFFFFFFFFFFFFFFFFFFFFFFFFF
310
FFFFFFFFFFFFFFFFFFFFFFFFFFFFFFFFFFFFFFFFFFFFFFFFFFFFFFFFFFFFFFFF
310
FFFFFFFFFFFFFFFFFFFFFFFFFFFFFFFFF000FFFFFFFFFFFFFFFFFFFFFFFFFFFF
310
FFFFFFFFFFFFFFFFFFFFFFFFFFFFFFFFFFFFFFFFFFFFFFFFFFFFFFFFFFFFFFFF
310
FFFFFFFFFFFFFFFFFFFFFFFFFFFFFFFFFFFFFFFFFFFFFFFFFFFFFFFFFFFFFFFF
310
FFFFFFFFFFFFFFFFF000FFFFFFFFFFFFFFFFFFFFFFFFFFFFFFFFFFFFFFFFFFFF
310
FFFFFFFFFFFFFFFFFFFFFFFFFFFFFFFFFFFFFFFFFFFFFFFFFFFFFFFFFFFFFFFF
310
FFFFFFFFFFFFFFFFFFFFFFFFFFFFFFFFFFFFFFFFFFFFFFFFFFFFFFFFFFFFFFFF
310
F000FFFFFFFFFFFFFFFFFFFFFFFFFFFFFFFFFFFFFFFFFFFFFFFFFFFFFFFFFFFF
310
FFFFFFFFFFFFFFFFFFFFFFFFFFFFFFFFFFFFFFFFFFFFFFFFFFFFFFFFFFFFFFFF
310
FFFFFFFFFFFFFFFFFFFFFFFFFFFFFFFFFFFFFFFFFFFFFFFFF000FFFFFFFFFFFF
310
FFFFFFFFFFFFFFFFFFFFFFFFFFFFFFFFFFFFFFFFFFFFFFFFFFFFFFFFFFFFFFFF
310
FFFFFFFFFFFFFFFFFFFFFFFFFFFFFFFFFFFFFFFFFFFFFFFFFFFFFFFFFFFFFFFF
310
FFFFFFFFFFFFFFFFFFFFFFFFFFFFFFFFF000FFFFFFFFFFFFFFFFFFFFFFFFFFFF
310
FFFFFFFFFFFFFFFFFFFFFFFFFFFFFFFFFFFFFFFFFFFFFFFFFFFFFFFFFFFFFFFF
310
FFFFFFFFFFFFFFFFFFFFFFFFFFFFFFFFFFFFFFFFFFFFFFFFFFFFFFFFFFFFFFFF
310
FFFFFFFFFFFFFFFFF000FFFFFFFFFFFFFFFFFFFFFFFFFFFFFFFFFFFFFFFFFFFF
310
FFFFFFFFFFFFFFFFFFFFFFFFFFFFFFFFFFFFFFFFFFFFFFFFFFFFFFFFFFFFFFFF
310
FFFFFFFFFFFFFFFFFFFFFFFFFFFFFFFFFFFFFFFFFFFFFFFFFFFFFFFFFFFFFFFF
310
F000FFFFFFFFFFFFFFFFFFFFFFFFFFFFFFFFFFFFFFFFFFFFFFFFFFFFFFFFFFFF
310
FFFFFFFFFFFFFFFFFFFFFFFFFFFFFFFFFFFFFFFFFFFFFFFFFFFFFFFFFFFFFFFF
310
FFFFFFFFFFFFFFFFFFFFFFFFFFFFFFFFFFFFFFFFFFFFFFFFF000FFFFFFFFFFFF
310
FFFFFFFFFFFFFFFFFFFFFFFFFFFFFFFFFFFFFFFFFFFFFFFFFFFFFFFFFFFFFFFF
310
FFFFFFFFFFFFFFFFFFFFFFFFFFFFFFFFFFFFFFFFFFFFFFFFFFFFFFFFFFFFFFFF
310
FFFFFFFFFFFFFFFFFFFFFFFFFFFFFFFFF0000000000000000000000000000000
310
00000000BBA6B93D2B33DD3D1337BA3DC89DDE3D39EBBA3D55F5DF3D7FC1BB3D
310
A036E13DE5B7BC3DA95EE23D21CCBD3DAF6AE33D9EFBBE3DAF6AE33DB44E023E
310
B85EE23D6BE6023EC136E13D8370033E8AF5DF3DB2EB033E139EDE3DD256043E
310
8D33DD3DE4B0043E5AB9DB3D12F9043EFF32DA3DAF2E053E1FA4D83D3B51053E
310
94B4BF3D7E12053E4B83BC3DB44E023E4B83BC3D9EFBBE3D94B4BF3D0A74B93D
310
D69BEB3D79D50C3ED69BEB3D746B093E23FEFB3D746B093E23FEFB3D1DD50C3E
310
A31AF33D9EFBBE3DB4D8F33D4AA6BE3D82A6F43DDE85BE3D9A75F53DA09CBE3D
310
7537F63DF6E8BE3D76DEF63D8665BF3DE65EF73D9109C03DC0AFF73D94C9C03D
310
59CBF73D1598C13D59CBF73D7900013EC0AFF73DB967013EE65EF73DBBC7013E
310
76DEF63DC019023E7537F63D0858023E9A75F53D347E023E82A6F43D9489023E
310
B4D8F33D5E79023EA31AF33DB44E023E34C5B63D9EFBBE3D4B83BC3D9EFBBE3D
310
4B83BC3DB44E023E0D94AE3DB44E023EAF6AE33D9EFBBE3DA31AF33D9EFBBE3D
310
A31AF33DB44E023EAF6AE33DB44E023E680D4B3EE807C13D03D24B3E1F91C23D
310
03D24B3EF483003E680D4B3E8F48013EDCA0433EE807C13D680D4B3EE807C13D
310
680D4B3E8F48013EDCA0433E8F48013E03D24B3EDF2DFD3DD4CD4B3E93D0FC3D
  1
OLE
  0
ENDSEC
  0
SECTION
  2
OBJECTS
  0
DICTIONARY
  5
C
330
0
100
AcDbDictionary
281
     1
  3
ACAD_GROUP
350
D
  3
ACAD_LAYOUT
350
1A
  3
ACAD_MLEADERSTYLE
350
25F
  3
ACAD_MLINESTYLE
350
17
  3
ACAD_PLOTSETTINGS
350
19
  3
ACAD_PLOTSTYLENAME
350
E
  3
ACAD_TABLESTYLE
350
25E
  3
ACAD_VISUALSTYLE
350
2A
  3
AcDbVariableDictionary
350
260
  0
DICTIONARY
  5
D
102
{ACAD_REACTORS
330
C
102
}
330
C
100
AcDbDictionary
281
     1
  0
DICTIONARY
  5
1A
102
{ACAD_REACTORS
330
C
102
}
330
C
100
AcDbDictionary
281
     1
  3
Layout1
350
1E
  3
Layout2
350
26
  3
Model
350
22
  0
DICTIONARY
  5
25F
102
{ACAD_REACTORS
330
C
102
}
330
C
100
AcDbDictionary
281
     1
  0
DICTIONARY
  5
17
102
{ACAD_REACTORS
330
C
102
}
330
C
100
AcDbDictionary
281
     1
  3
Standard
350
18
  0
DICTIONARY
  5
19
102
{ACAD_REACTORS
330
C
102
}
330
C
100
AcDbDictionary
281
     1
  0
ACDBDICTIONARYWDFLT
  5
E
102
{ACAD_REACTORS
330
C
102
}
330
C
100
AcDbDictionary
281
     1
  3
Normal
350
F
100
AcDbDictionaryWithDefault
340
F
  0
DICTIONARY
  5
25E
102
{ACAD_REACTORS
330
C
102
}
330
C
100
AcDbDictionary
281
     1
  0
DICTIONARY
  5
2A
102
{ACAD_REACTORS
330
C
102
}
330
C
100
AcDbDictionary
281
     1
  3
2dWireframe
350
2F
  3
3D Hidden
350
31
  3
3dWireframe
350
30
  3
Basic
350
32
  3
Brighten
350
36
  3
ColorChange
350
3A
  3
Conceptual
350
34
  3
Dim
350
35
  3
Facepattern
350
39
  3
Flat
350
2B
  3
FlatWithEdges
350
2C
  3
Gouraud
350
2D
  3
GouraudWithEdges
350
2E
  3
Linepattern
350
38
  3
Realistic
350
33
  3
Thicken
350
37
  0
DICTIONARY
  5
260
102
{ACAD_REACTORS
330
C
102
}
330
C
100
AcDbDictionary
281
     1
  3
PSOLHEIGHT
350
262
  3
PSOLWIDTH
350
261
  0
LAYOUT
  5
1E
102
{ACAD_REACTORS
330
1A
102
}
330
1A
100
AcDbPlotSettings
  1

  2
none_device
  4

  6

 40
0.0
 41
0.0
 42
0.0
 43
0.0
 44
0.0
 45
0.0
 46
0.0
 47
0.0
 48
0.0
 49
0.0
140
0.0
141
0.0
142
1.0
143
1.0
 70
   688
 72
     0
 73
     0
 74
     5
  7

 75
    16
147
1.0
148
0.0
149
0.0
100
AcDbLayout
  1
Layout1
 70
     1
 71
     1
 10
0.0
 20
0.0
 11
420.0
 21
297.0
 12
0.0
 22
0.0
 32
0.0
 14
1.0000000000E+20
 24
1.0000000000E+20
 34
1.0000000000E+20
 15
-1.0000000000E+20
 25
-1.0000000000E+20
 35
-1.0000000000E+20
146
0.0
 13
0.0
 23
0.0
 33
0.0
 16
1.0
 26
0.0
 36
0.0
 17
0.0
 27
1.0
 37
0.0
 76
     0
330
1B
  0
LAYOUT
  5
26
102
{ACAD_REACTORS
330
1A
102
}
330
1A
100
AcDbPlotSettings
  1

  2
none_device
  4

  6

 40
0.0
 41
0.0
 42
0.0
 43
0.0
 44
0.0
 45
0.0
 46
0.0
 47
0.0
 48
0.0
 49
0.0
140
0.0
141
0.0
142
1.0
143
1.0
 70
   688
 72
     0
 73
     0
 74
     5
  7

 75
    16
147
1.0
148
0.0
149
0.0
100
AcDbLayout
  1
Layout2
 70
     1
 71
     2
 10
0.0
 20
0.0
 11
0.0
 21
0.0
 12
0.0
 22
0.0
 32
0.0
 14
0.0
 24
0.0
 34
0.0
 15
0.0
 25
0.0
 35
0.0
146
0.0
 13
0.0
 23
0.0
 33
0.0
 16
1.0
 26
0.0
 36
0.0
 17
0.0
 27
1.0
 37
0.0
 76
     0
330
23
  0
LAYOUT
  5
22
102
{ACAD_REACTORS
330
1A
102
}
330
1A
100
AcDbPlotSettings
  1

  2
none_device
  4

  6

 40
0.0
 41
0.0
 42
0.0
 43
0.0
 44
0.0
 45
0.0
 46
0.0
 47
0.0
 48
0.0
 49
0.0
140
0.0
141
0.0
142
1.0
143
1.0
 70
  1712
 72
     0
 73
     0
 74
     0
  7

 75
     0
147
1.0
148
0.0
149
0.0
100
AcDbLayout
  1
Model
 70
     1
 71
     0
 10
0.0
 20
0.0
 11
297.0
 21
210.0
 12
0.0
 22
0.0
 32
0.0
 14
0.0
 24
0.0
 34
0.0
 15
297.0
 25
210.0
 35
0.0
146
0.0
 13
0.0
 23
0.0
 33
0.0
 16
1.0
 26
0.0
 36
0.0
 17
0.0
 27
1.0
 37
0.0
 76
     0
330
1F
331
29
  0
MLINESTYLE
  5
18
102
{ACAD_REACTORS
330
17
102
}
330
17
100
AcDbMlineStyle
  2
Standard
 70
     0
  3

 62
   256
 51
90.0
 52
90.0
 71
     2
 49
0.5
 62
   256
  6
BYLAYER
 49
-0.5
 62
   256
  6
BYLAYER
  0
ACDBPLACEHOLDER
  5
F
102
{ACAD_REACTORS
330
E
102
}
330
E
  0
VISUALSTYLE
  5
2F
102
{ACAD_REACTORS
330
2A
102
}
330
2A
100
AcDbVisualStyle
  2
2dWireframe
 70
     4
 71
     0
 72
     2
 73
     0
 90
        0
 40
-0.6
 41
-30.0
 62
     5
 63
     7
 74
     1
 91
        4
 64
     7
 65
   257
 75
     1
175
     1
 42
1.0
 92
        0
 66
   257
 43
1.0
 76
     1
 77
     6
 78
     2
 67
     7
 79
     5
170
     0
171
     0
290
     0
174
     0
 93
        1
 44
0.0
173
     0
291
     0
 45
0.0
1001
ACAD
1000
AcDbSavedByObjectVersion
1070
     0
  0
VISUALSTYLE
  5
31
102
{ACAD_REACTORS
330
2A
102
}
330
2A
100
AcDbVisualStyle
  2
3D Hidden
 70
     6
 71
     1
 72
     2
 73
     2
 90
        0
 40
-0.6
 41
-30.0
 62
     5
 63
     7
 74
     2
 91
        2
 64
     7
 65
   257
 75
     2
175
     1
 42
40.0
 92
        0
 66
   257
 43
1.0
 76
     1
 77
     6
 78
     2
 67
     7
 79
     3
170
     0
171
     0
290
     0
174
     0
 93
        1
 44
0.0
173
     0
291
     0
 45
0.0
1001
ACAD
1000
AcDbSavedByObjectVersion
1070
     0
  0
VISUALSTYLE
  5
30
102
{ACAD_REACTORS
330
2A
102
}
330
2A
100
AcDbVisualStyle
  2
3dWireframe
 70
     5
 71
     0
 72
     2
 73
     0
 90
        0
 40
-0.6
 41
-30.0
 62
     5
 63
     7
 74
     1
 91
        4
 64
     7
 65
   257
 75
     1
175
     1
 42
1.0
 92
        0
 66
   257
 43
1.0
 76
     1
 77
     6
 78
     2
 67
     7
 79
     5
170
     0
171
     0
290
     0
174
     0
 93
        1
 44
0.0
173
     0
291
     0
 45
0.0
1001
ACAD
1000
AcDbSavedByObjectVersion
1070
     0
  0
VISUALSTYLE
  5
32
102
{ACAD_REACTORS
330
2A
102
}
330
2A
100
AcDbVisualStyle
  2
Basic
 70
     7
 71
     1
 72
     0
 73
     1
 90
        0
 40
-0.6
 41
-30.0
 62
     5
 63
     7
 74
     0
 91
        4
 64
     7
 65
   257
 75
     1
175
     1
 42
1.0
 92
        8
 66
     7
 43
1.0
 76
     1
 77
     6
 78
     2
 67
     7
 79
     5
170
     0
171
     0
290
     0
174
     0
 93
        1
 44
0.0
173
     0
291
     1
 45
0.0
1001
ACAD
1000
AcDbSavedByObjectVersion
1070
     0
  0
VISUALSTYLE
  5
36
102
{ACAD_REACTORS
330
2A
102
}
330
2A
100
AcDbVisualStyle
  2
Brighten
 70
    12
 71
     2
 72
     2
 73
     0
 90
        0
 40
-0.6
 41
-30.0
 62
     5
 63
     7
 74
     1
 91
        4
 64
     7
 65
   257
 75
     1
175
     1
 42
1.0
 92
        8
 66
     7
 43
1.0
 76
     1
 77
     6
 78
     2
 67
     7
 79
     5
170
     0
171
     0
290
     0
174
     0
 93
        1
 44
50.0
173
     0
291
     1
 45
0.0
1001
ACAD
1000
AcDbSavedByObjectVersion
1070
     0
  0
VISUALSTYLE
  5
3A
102
{ACAD_REACTORS
330
2A
102
}
330
2A
100
AcDbVisualStyle
  2
ColorChange
 70
    16
 71
     2
 72
     2
 73
     3
 90
        0
 40
-0.6
 41
-30.0
 62
     5
 63
     8
 74
     1
 91
        4
 64
     7
 65
   257
 75
     1
175
     1
 42
1.0
 92
        8
 66
     8
 43
1.0
 76
     1
 77
     6
 78
     2
 67
     7
 79
     5
170
     0
171
     0
290
     0
174
     0
 93
        1
 44
0.0
173
     0
291
     1
 45
0.0
1001
ACAD
1000
AcDbSavedByObjectVersion
1070
     0
  0
VISUALSTYLE
  5
34
102
{ACAD_REACTORS
330
2A
102
}
330
2A
100
AcDbVisualStyle
  2
Conceptual
 70
     9
 71
     3
 72
     2
 73
     0
 90
        0
 40
-0.6
 41
-30.0
 62
     5
 63
     7
 74
     2
 91
        2
 64
     7
 65
   257
 75
     1
175
     1
 42
40.0
 92
        8
 66
     7
 43
1.0
 76
     1
 77
     6
 78
     2
 67
     7
 79
     3
170
     0
171
     0
290
     0
174
     0
 93
        1
 44
0.0
173
     0
291
     0
 45
0.0
1001
ACAD
1000
AcDbSavedByObjectVersion
1070
     0
  0
VISUALSTYLE
  5
35
102
{ACAD_REACTORS
330
2A
102
}
330
2A
100
AcDbVisualStyle
  2
Dim
 70
    11
 71
     2
 72
     2
 73
     0
 90
        0
 40
-0.6
 41
-30.0
 62
     5
 63
     7
 74
     1
 91
        4
 64
     7
 65
   257
 75
     1
175
     1
 42
1.0
 92
        8
 66
     7
 43
1.0
 76
     1
 77
     6
 78
     2
 67
     7
 79
     5
170
     0
171
     0
290
     0
174
     0
 93
        1
 44
-50.0
173
     0
291
     1
 45
0.0
1001
ACAD
1000
AcDbSavedByObjectVersion
1070
     0
  0
VISUALSTYLE
  5
39
102
{ACAD_REACTORS
330
2A
102
}
330
2A
100
AcDbVisualStyle
  2
Facepattern
 70
    15
 71
     2
 72
     2
 73
     0
 90
        0
 40
-0.6
 41
-30.0
 62
     5
 63
     7
 74
     1
 91
        4
 64
     7
 65
   257
 75
     1
175
     1
 42
1.0
 92
        8
 66
     7
 43
1.0
 76
     1
 77
     6
 78
     2
 67
     7
 79
     5
170
     0
171
     0
290
     0
174
     0
 93
        1
 44
0.0
173
     0
291
     1
 45
0.0
1001
ACAD
1000
AcDbSavedByObjectVersion
1070
     0
  0
VISUALSTYLE
  5
2B
102
{ACAD_REACTORS
330
2A
102
}
330
2A
100
AcDbVisualStyle
  2
Flat
 70
     0
 71
     2
 72
     1
 73
     1
 90
        2
 40
-0.6
 41
30.0
 62
     5
 63
     7
 74
     0
 91
        4
 64
     7
 65
   257
 75
     1
175
     1
 42
1.0
 92
        8
 66
     7
 43
1.0
 76
     1
 77
     6
 78
     2
 67
     7
 79
     5
170
     0
171
     0
290
     0
174
     0
 93
       13
 44
0.0
173
     0
291
     1
 45
0.0
1001
ACAD
1000
AcDbSavedByObjectVersion
1070
     0
  0
VISUALSTYLE
  5
2C
102
{ACAD_REACTORS
330
2A
102
}
330
2A
100
AcDbVisualStyle
  2
FlatWithEdges
 70
     1
 71
     2
 72
     1
 73
     1
 90
        2
 40
-0.6
 41
30.0
 62
     5
 63
     7
 74
     1
 91
        4
 64
     7
 65
   257
 75
     1
175
     1
 42
1.0
 92
        0
 66
   257
 43
1.0
 76
     1
 77
     6
 78
     2
 67
     7
 79
     5
170
     0
171
     0
290
     0
174
     0
 93
       13
 44
0.0
173
     0
291
     1
 45
0.0
1001
ACAD
1000
AcDbSavedByObjectVersion
1070
     0
  0
VISUALSTYLE
  5
2D
102
{ACAD_REACTORS
330
2A
102
}
330
2A
100
AcDbVisualStyle
  2
Gouraud
 70
     2
 71
     2
 72
     2
 73
     1
 90
        2
 40
-0.6
 41
30.0
 62
     5
 63
     7
 74
     0
 91
        4
 64
     7
 65
   257
 75
     1
175
     1
 42
1.0
 92
        0
 66
     7
 43
1.0
 76
     1
 77
     6
 78
     2
 67
     7
 79
     5
170
     0
171
     0
290
     0
174
     0
 93
       13
 44
0.0
173
     0
291
     1
 45
0.0
1001
ACAD
1000
AcDbSavedByObjectVersion
1070
     0
  0
VISUALSTYLE
  5
2E
102
{ACAD_REACTORS
330
2A
102
}
330
2A
100
AcDbVisualStyle
  2
GouraudWithEdges
 70
     3
 71
     2
 72
     2
 73
     1
 90
        2
 40
-0.6
 41
30.0
 62
     5
 63
     7
 74
     1
 91
        4
 64
     7
 65
   257
 75
     1
175
     1
 42
1.0
 92
        0
 66
   257
 43
1.0
 76
     1
 77
     6
 78
     2
 67
     7
 79
     5
170
     0
171
     0
290
     0
174
     0
 93
       13
 44
0.0
173
     0
291
     1
 45
0.0
1001
ACAD
1000
AcDbSavedByObjectVersion
1070
     0
  0
VISUALSTYLE
  5
38
102
{ACAD_REACTORS
330
2A
102
}
330
2A
100
AcDbVisualStyle
  2
Linepattern
 70
    14
 71
     2
 72
     2
 73
     0
 90
        0
 40
-0.6
 41
-30.0
 62
     5
 63
     7
 74
     1
 91
        4
 64
     7
 65
   257
 75
     7
175
     7
 42
1.0
 92
        8
 66
     7
 43
1.0
 76
     1
 77
     6
 78
     2
 67
     7
 79
     5
170
     0
171
     0
290
     0
174
     0
 93
        1
 44
0.0
173
     0
291
     1
 45
0.0
1001
ACAD
1000
AcDbSavedByObjectVersion
1070
     0
  0
VISUALSTYLE
  5
33
102
{ACAD_REACTORS
330
2A
102
}
330
2A
100
AcDbVisualStyle
  2
Realistic
 70
     8
 71
     2
 72
     2
 73
     0
 90
        0
 40
-0.6
 41
-30.0
 62
     5
 63
     7
 74
     1
 91
        0
 64
     7
 65
   257
 75
     1
175
     1
 42
1.0
 92
        8
 66
     8
 43
1.0
 76
     1
 77
     6
 78
     2
 67
     7
 79
     5
170
     0
171
     0
290
     0
174
     0
 93
       13
 44
0.0
173
     0
291
     0
 45
0.0
1001
ACAD
1000
AcDbSavedByObjectVersion
1070
     0
  0
VISUALSTYLE
  5
37
102
{ACAD_REACTORS
330
2A
102
}
330
2A
100
AcDbVisualStyle
  2
Thicken
 70
    13
 71
     2
 72
     2
 73
     0
 90
        0
 40
-0.6
 41
-30.0
 62
     5
 63
     7
 74
     1
 91
        4
 64
     7
 65
   257
 75
     1
175
     1
 42
1.0
 92
       12
 66
     7
 43
1.0
 76
     1
 77
     6
 78
     2
 67
     7
 79
     5
170
     0
171
     0
290
     0
174
     0
 93
        1
 44
0.0
173
     0
291
     1
 45
0.0
1001
ACAD
1000
AcDbSavedByObjectVersion
1070
     0
  0
DICTIONARYVAR
  5
262
102
{ACAD_REACTORS
330
260
102
}
330
260
100
DictionaryVariables
280
     0
  1
80.000000
  0
DICTIONARYVAR
  5
261
102
{ACAD_REACTORS
330
260
102
}
330
260
100
DictionaryVariables
280
     0
  1
5.000000
  0
ENDSEC
  0
EOF
