  0
SECTION
  2
HEADER
  9
$ACADVER
  1
AC1015
  9
$ACADMAINTVER
 70
     6
  9
$DWGCODEPAGE
  3
ANSI_1252
  9
$INSBASE
 10
0.0
 20
0.0
 30
0.0
  9
$EXTMIN
 10
0.0
 20
0.0
 30
0.0
  9
$EXTMAX
 10
297.0
 20
210.0
 30
0.0
  9
$LIMMIN
 10
0.0
 20
0.0
  9
$LIMMAX
 10
297.0
 20
210.0
  9
$ORTHOMODE
 70
     0
  9
$REGENMODE
 70
     1
  9
$FILLMODE
 70
     1
  9
$QTEXTMODE
 70
     0
  9
$MIRRTEXT
 70
     1
  9
$LTSCALE
 40
1.0
  9
$ATTMODE
 70
     1
  9
$TEXTSIZE
 40
2.0
  9
$TRACEWID
 40
1.0
  9
$TEXTSTYLE
  7
Standard
  9
$CLAYER
  8
0
  9
$CELTYPE
  6
ByLayer
  9
$CECOLOR
 62
   256
  9
$CELTSCALE
 40
1.0
  9
$DISPSILH
 70
     0
  9
$DIMSCALE
 40
1.0
  9
$DIMASZ
 40
3.0
  9
$DIMEXO
 40
0.0
  9
$DIMDLI
 40
3.75
  9
$DIMRND
 40
0.0
  9
$DIMDLE
 40
0.0
  9
$DIMEXE
 40
1.0
  9
$DIMTP
 40
0.0
  9
$DIMTM
 40
0.0
  9
$DIMTXT
 40
2.0
  9
$DIMCEN
 40
2.5
  9
$DIMTSZ
 40
0.0
  9
$DIMTOL
 70
     0
  9
$DIMLIM
 70
     0
  9
$DIMTIH
 70
     1
  9
$DIMTOH
 70
     1
  9
$DIMSE1
 70
     0
  9
$DIMSE2
 70
     0
  9
$DIMTAD
 70
     1
  9
$DIMZIN
 70
     0
  9
$DIMBLK
  1

  9
$DIMASO
 70
     1
  9
$DIMSHO
 70
     1
  9
$DIMPOST
  1

  9
$DIMAPOST
  1

  9
$DIMALT
 70
     0
  9
$DIMALTD
 70
     3
  9
$DIMALTF
 40
0.0393700787
  9
$DIMLFAC
 40
1.0
  9
$DIMTOFL
 70
     1
  9
$DIMTVP
 40
0.0
  9
$DIMTIX
 70
     0
  9
$DIMSOXD
 70
     0
  9
$DIMSAH
 70
     0
  9
$DIMBLK1
  1

  9
$DIMBLK2
  1

  9
$DIMSTYLE
  2
ISO-25
  9
$DIMCLRD
 70
     0
  9
$DIMCLRE
 70
     0
  9
$DIMCLRT
 70
     0
  9
$DIMTFAC
 40
1.0
  9
$DIMGAP
 40
1.524
  9
$DIMJUST
 70
     0
  9
$DIMSD1
 70
     0
  9
$DIMSD2
 70
     0
  9
$DIMTOLJ
 70
     0
  9
$DIMTZIN
 70
     0
  9
$DIMALTZ
 70
     0
  9
$DIMALTTZ
 70
     0
  9
$DIMUPT
 70
     0
  9
$DIMDEC
 70
     2
  9
$DIMTDEC
 70
     3
  9
$DIMALTU
 70
     2
  9
$DIMALTTD
 70
     3
  9
$DIMTXSTY
  7
Standard
  9
$DIMAUNIT
 70
     0
  9
$DIMADEC
 70
     2
  9
$DIMALTRND
 40
0.0
  9
$DIMAZIN
 70
     0
  9
$DIMDSEP
 70
    44
  9
$DIMATFIT
 70
     3
  9
$DIMFRAC
 70
     0
  9
$DIMLDRBLK
  1

  9
$DIMLUNIT
 70
     2
  9
$DIMLWD
 70
    -2
  9
$DIMLWE
 70
    -2
  9
$DIMTMOVE
 70
     0
  9
$LUNITS
 70
     2
  9
$LUPREC
 70
     2
  9
$SKETCHINC
 40
1.0
  9
$FILLETRAD
 40
10.0
  9
$AUNITS
 70
     0
  9
$AUPREC
 70
     2
  9
$MENU
  1
.
  9
$ELEVATION
 40
0.0
  9
$PELEVATION
 40
0.0
  9
$THICKNESS
 40
0.0
  9
$LIMCHECK
 70
     0
  9
$CHAMFERA
 40
10.0
  9
$CHAMFERB
 40
10.0
  9
$CHAMFERC
 40
20.0
  9
$CHAMFERD
 40
0.0
  9
$SKPOLY
 70
     0
  9
$TDCREATE
 40
2455643.445435775
  9
$TDUCREATE
 40
2455643.403769109
  9
$TDUPDATE
 40
2455643.445435787
  9
$TDUUPDATE
 40
2455643.403769121
  9
$TDINDWG
 40
0.0000000116
  9
$TDUSRTIMER
 40
0.0000000116
  9
$USRTIMER
 70
     1
  9
$ANGBASE
 50
0.0
  9
$ANGDIR
 70
     0
  9
$PDMODE
 70
     0
  9
$PDSIZE
 40
-1.0
  9
$PLINEWID
 40
0.0
  9
$SPLFRAME
 70
     0
  9
$SPLINETYPE
 70
     6
  9
$SPLINESEGS
 70
     8
  9
$HANDSEED
  5
242
  9
$SURFTAB1
 70
     6
  9
$SURFTAB2
 70
     6
  9
$SURFTYPE
 70
     6
  9
$SURFU
 70
     6
  9
$SURFV
 70
     6
  9
$UCSBASE
  2

  9
$UCSNAME
  2

  9
$UCSORG
 10
0.0
 20
0.0
 30
0.0
  9
$UCSXDIR
 10
1.0
 20
0.0
 30
0.0
  9
$UCSYDIR
 10
0.0
 20
1.0
 30
0.0
  9
$UCSORTHOREF
  2

  9
$UCSORTHOVIEW
 70
     0
  9
$UCSORGTOP
 10
0.0
 20
0.0
 30
0.0
  9
$UCSORGBOTTOM
 10
0.0
 20
0.0
 30
0.0
  9
$UCSORGLEFT
 10
0.0
 20
0.0
 30
0.0
  9
$UCSORGRIGHT
 10
0.0
 20
0.0
 30
0.0
  9
$UCSORGFRONT
 10
0.0
 20
0.0
 30
0.0
  9
$UCSORGBACK
 10
0.0
 20
0.0
 30
0.0
  9
$PUCSBASE
  2

  9
$PUCSNAME
  2

  9
$PUCSORG
 10
0.0
 20
0.0
 30
0.0
  9
$PUCSXDIR
 10
1.0
 20
0.0
 30
0.0
  9
$PUCSYDIR
 10
0.0
 20
1.0
 30
0.0
  9
$PUCSORTHOREF
  2

  9
$PUCSORTHOVIEW
 70
     0
  9
$PUCSORGTOP
 10
0.0
 20
0.0
 30
0.0
  9
$PUCSORGBOTTOM
 10
0.0
 20
0.0
 30
0.0
  9
$PUCSORGLEFT
 10
0.0
 20
0.0
 30
0.0
  9
$PUCSORGRIGHT
 10
0.0
 20
0.0
 30
0.0
  9
$PUCSORGFRONT
 10
0.0
 20
0.0
 30
0.0
  9
$PUCSORGBACK
 10
0.0
 20
0.0
 30
0.0
  9
$USERI1
 70
     0
  9
$USERI2
 70
     0
  9
$USERI3
 70
     0
  9
$USERI4
 70
     0
  9
$USERI5
 70
     0
  9
$USERR1
 40
0.0
  9
$USERR2
 40
0.0
  9
$USERR3
 40
0.0
  9
$USERR4
 40
0.0
  9
$USERR5
 40
0.0
  9
$WORLDVIEW
 70
     1
  9
$SHADEDGE
 70
     3
  9
$SHADEDIF
 70
    70
  9
$TILEMODE
 70
     1
  9
$MAXACTVP
 70
    64
  9
$PINSBASE
 10
0.0
 20
0.0
 30
0.0
  9
$PLIMCHECK
 70
     0
  9
$PEXTMIN
 10
1.0000000000E+20
 20
1.0000000000E+20
 30
1.0000000000E+20
  9
$PEXTMAX
 10
-1.0000000000E+20
 20
-1.0000000000E+20
 30
-1.0000000000E+20
  9
$PLIMMIN
 10
0.0
 20
0.0
  9
$PLIMMAX
 10
420.0
 20
297.0
  9
$UNITMODE
 70
     0
  9
$VISRETAIN
 70
     1
  9
$PLINEGEN
 70
     0
  9
$PSLTSCALE
 70
     1
  9
$TREEDEPTH
 70
  3020
  9
$CMLSTYLE
  2
Standard
  9
$CMLJUST
 70
     0
  9
$CMLSCALE
 40
20.0
  9
$PROXYGRAPHICS
 70
     1
  9
$MEASUREMENT
 70
     1
  9
$CELWEIGHT
370
    -1
  9
$ENDCAPS
280
     0
  9
$JOINSTYLE
280
     0
  9
$LWDISPLAY
290
     1
  9
$INSUNITS
 70
     4
  9
$HYPERLINKBASE
  1

  9
$STYLESHEET
  1

  9
$XEDIT
290
     1
  9
$CEPSNTYPE
380
     0
  9
$PSTYLEMODE
290
     1
  9
$FINGERPRINTGUID
  2
{E3D78B38-733A-4DCA-A2D1-7B42B2AA02EC}
  9
$VERSIONGUID
  2
{FAEB1C32-E019-11D5-929B-00C0DF256EC4}
  9
$EXTNAMES
290
     1
  9
$PSVPSCALE
 40
0.0
  9
$OLESTARTUP
290
     0
  0
ENDSEC
  0
SECTION
  2
CLASSES
  0
CLASS
  1
ACDBDICTIONARYWDFLT
  2
AcDbDictionaryWithDefault
  3
ObjectDBX Classes
 90
        0
280
     0
281
     0
  0
CLASS
  1
VISUALSTYLE
  2
AcDbVisualStyle
  3
ObjectDBX Classes
 90
     4095
280
     0
281
     0
  0
CLASS
  1
DICTIONARYVAR
  2
AcDbDictionaryVar
  3
ObjectDBX Classes
 90
        0
280
     0
281
     0
  0
CLASS
  1
ACDBPLACEHOLDER
  2
AcDbPlaceHolder
  3
ObjectDBX Classes
 90
        0
280
     0
281
     0
  0
CLASS
  1
LAYOUT
  2
AcDbLayout
  3
ObjectDBX Classes
 90
        0
280
     0
281
     0
  0
ENDSEC
  0
SECTION
  2
TABLES
  0
TABLE
  2
VPORT
  5
8
330
0
100
AcDbSymbolTable
 70
     1
  0
VPORT
  5
29
330
8
100
AcDbSymbolTableRecord
100
AcDbViewportTableRecord
  2
*Active
 70
     0
 10
0.0
 20
0.0
 11
1.0
 21
1.0
 12
148.5
 22
105.0
 13
0.0
 23
0.0
 14
10.0
 24
10.0
 15
10.0
 25
10.0
 16
0.0
 26
0.0
 36
1.0
 17
0.0
 27
0.0
 37
0.0
 40
210.0
 41
1.4142857143
 42
50.0
 43
0.0
 44
0.0
 50
0.0
 51
0.0
 71
     0
 72
  2000
 73
     1
 74
     3
 75
     0
 76
     0
 77
     0
 78
     0
281
     0
 65
     1
110
0.0
120
0.0
130
0.0
111
1.0
121
0.0
131
0.0
112
0.0
122
1.0
132
0.0
 79
     0
146
0.0
  0
ENDTAB
  0
TABLE
  2
LTYPE
  5
5
330
0
100
AcDbSymbolTable
 70
     6
  0
LTYPE
  5
14
330
5
100
AcDbSymbolTableRecord
100
AcDbLinetypeTableRecord
  2
ByBlock
 70
     0
  3

 72
    65
 73
     0
 40
0.0
  0
LTYPE
  5
15
330
5
100
AcDbSymbolTableRecord
100
AcDbLinetypeTableRecord
  2
ByLayer
 70
     0
  3

 72
    65
 73
     0
 40
0.0
  0
LTYPE
  5
16
330
5
100
AcDbSymbolTableRecord
100
AcDbLinetypeTableRecord
  2
Continuous
 70
     0
  3
Solid line
 72
    65
 73
     0
 40
0.0
  0
LTYPE
  5
3B
330
5
100
AcDbSymbolTableRecord
100
AcDbLinetypeTableRecord
  2
HIDDEN
 70
     0
  3
Hidden __ __ __ __ __ __ __ __ __ __ __ __ __ __
 72
    65
 73
     2
 40
1.905
 49
1.27
 74
     0
 49
-0.635
 74
     0
  0
LTYPE
  5
3C
330
5
100
AcDbSymbolTableRecord
100
AcDbLinetypeTableRecord
  2
PHANTOM
 70
     0
  3
Phantom ______  __  __  ______  __  __  ______
 72
    65
 73
     6
 40
12.7
 49
6.35
 74
     0
 49
-1.27
 74
     0
 49
1.27
 74
     0
 49
-1.27
 74
     0
 49
1.27
 74
     0
 49
-1.27
 74
     0
  0
LTYPE
  5
3D
330
5
100
AcDbSymbolTableRecord
100
AcDbLinetypeTableRecord
  2
CENTER
 70
     0
  3
Center ____ _ ____ _ ____ _ ____ _ ____ _ ____
 72
    65
 73
     4
 40
10.16
 49
6.35
 74
     0
 49
-1.27
 74
     0
 49
1.27
 74
     0
 49
-1.27
 74
     0
  0
LTYPE
  5
3E
330
5
100
AcDbSymbolTableRecord
100
AcDbLinetypeTableRecord
  2
CENTERX2
 70
     0
  3
Center (2x) ________  __  ________  __  _____
 72
    65
 73
     4
 40
20.32
 49
12.7
 74
     0
 49
-2.54
 74
     0
 49
2.54
 74
     0
 49
-2.54
 74
     0
  0
LTYPE
  5
3F
330
5
100
AcDbSymbolTableRecord
100
AcDbLinetypeTableRecord
  2
DOT2
 70
     0
  3
Dot (.5x) ........................................
 72
    65
 73
     2
 40
0.635
 49
0.0
 74
     0
 49
-0.635
 74
     0
  0
ENDTAB
  0
TABLE
  2
LAYER
  5
2
330
0
100
AcDbSymbolTable
 70
     5
  0
LAYER
  5
10
330
2
100
AcDbSymbolTableRecord
100
AcDbLayerTableRecord
  2
0
 70
     0
 62
     7
  6
Continuous
370
    -3
390
F
  0
LAYER
  5
40
330
2
100
AcDbSymbolTableRecord
100
AcDbLayerTableRecord
  2
FORMAT
 70
     0
 62
     7
  6
Continuous
370
    -3
390
F
  0
LAYER
  5
41
330
2
100
AcDbSymbolTableRecord
100
AcDbLayerTableRecord
  2
VERMASSUNG
 70
     0
 62
     7
  6
Continuous
370
    -3
390
F
  0
LAYER
  5
42
330
2
100
AcDbSymbolTableRecord
100
AcDbLayerTableRecord
  2
KOPF_DÜNN
 70
     0
 62
     7
  6
Continuous
370
    -3
390
F
  0
LAYER
  5
43
330
2
100
AcDbSymbolTableRecord
100
AcDbLayerTableRecord
  2
KOPF_DICK
 70
     0
 62
     7
  6
Continuous
370
    15
390
F
  0
ENDTAB
  0
TABLE
  2
STYLE
  5
3
330
0
100
AcDbSymbolTable
 70
     3
  0
STYLE
  5
11
330
3
100
AcDbSymbolTableRecord
100
AcDbTextStyleTableRecord
  2
Standard
 70
     0
 40
0.0
 41
1.0
 50
0.0
 71
     0
 42
2.5
  3
txt
  4

  0
STYLE
  5
44
330
3
100
AcDbSymbolTableRecord
100
AcDbTextStyleTableRecord
  2
SLDTEXTSTYLE0
 70
     0
 40
0.0
 41
0.7
 50
0.0
 71
     0
 42
0.2
  3
TXT
  4

  0
STYLE
  5
48
330
3
100
AcDbSymbolTableRecord
100
AcDbTextStyleTableRecord
  2
SLDTEXTSTYLE1
 70
     0
 40
0.0
 41
0.6473684211
 50
0.0
 71
     0
 42
0.2
  3
TXT
  4

  0
ENDTAB
  0
TABLE
  2
VIEW
  5
6
330
0
100
AcDbSymbolTable
 70
     0
  0
ENDTAB
  0
TABLE
  2
UCS
  5
7
330
0
100
AcDbSymbolTable
 70
     0
  0
ENDTAB
  0
TABLE
  2
APPID
  5
9
330
0
100
AcDbSymbolTable
 70
     1
  0
APPID
  5
12
330
9
100
AcDbSymbolTableRecord
100
AcDbRegAppTableRecord
  2
ACAD
 70
     0
  0
ENDTAB
  0
TABLE
  2
DIMSTYLE
  5
A
330
0
100
AcDbSymbolTable
 70
     3
100
AcDbDimStyleTable
  0
DIMSTYLE
105
27
330
A
100
AcDbSymbolTableRecord
100
AcDbDimStyleTableRecord
  2
ISO-25
 70
     0
 41
2.5
 42
0.625
 43
3.75
 44
1.25
 73
     0
 74
     0
 77
     1
 78
     8
140
2.5
141
2.5
143
0.0393700787
147
0.625
171
     3
172
     1
271
     2
272
     2
274
     3
278
    44
283
     0
284
     8
340
11
  0
DIMSTYLE
105
1DA
102
{ACAD_REACTORS
330
1D9
330
1E5
330
1F1
330
1FC
330
206
330
210
330
21A
330
224
102
}
330
A
100
AcDbSymbolTableRecord
100
AcDbDimStyleTableRecord
  2
SLDDIMSTYLE0
 70
     0
 41
3.0
 44
0.0
 45
0.000000001
 73
     0
 74
     0
 77
     1
 78
    12
140
2.0
147
0.5
173
     1
271
     2
272
     3
284
    12
340
44
  0
DIMSTYLE
105
230
102
{ACAD_REACTORS
330
22F
102
}
330
A
100
AcDbSymbolTableRecord
100
AcDbDimStyleTableRecord
  2
SLDDIMSTYLE1
 70
     0
 41
3.0
 44
0.0
 45
0.000000001
 73
     0
 74
     0
 77
     1
 78
    12
140
2.0
147
0.5
173
     1
271
     0
272
     3
284
    12
340
44
  0
ENDTAB
  0
TABLE
  2
BLOCK_RECORD
  5
1
330
0
100
AcDbSymbolTable
 70
    10
  0
BLOCK_RECORD
  5
1F
330
1
100
AcDbSymbolTableRecord
100
AcDbBlockTableRecord
  2
*Model_Space
340
22
  0
BLOCK_RECORD
  5
1B
330
1
100
AcDbSymbolTableRecord
100
AcDbBlockTableRecord
  2
*Paper_Space
340
1E
  0
BLOCK_RECORD
  5
23
330
1
100
AcDbSymbolTableRecord
100
AcDbBlockTableRecord
  2
*Paper_Space0
340
26
  0
BLOCK_RECORD
  5
1DB
330
1
100
AcDbSymbolTableRecord
100
AcDbBlockTableRecord
  2
*D1
340
0
  0
BLOCK_RECORD
  5
1E6
330
1
100
AcDbSymbolTableRecord
100
AcDbBlockTableRecord
  2
*D2
340
0
  0
BLOCK_RECORD
  5
1F2
330
1
100
AcDbSymbolTableRecord
100
AcDbBlockTableRecord
  2
*D3
340
0
  0
BLOCK_RECORD
  5
1FD
330
1
100
AcDbSymbolTableRecord
100
AcDbBlockTableRecord
  2
*D4
340
0
  0
BLOCK_RECORD
  5
207
330
1
100
AcDbSymbolTableRecord
100
AcDbBlockTableRecord
  2
*D5
340
0
  0
BLOCK_RECORD
  5
211
330
1
100
AcDbSymbolTableRecord
100
AcDbBlockTableRecord
  2
*D6
340
0
  0
BLOCK_RECORD
  5
21B
330
1
100
AcDbSymbolTableRecord
100
AcDbBlockTableRecord
  2
*D7
340
0
  0
BLOCK_RECORD
  5
225
330
1
100
AcDbSymbolTableRecord
100
AcDbBlockTableRecord
  2
*D8
340
0
  0
BLOCK_RECORD
  5
231
330
1
100
AcDbSymbolTableRecord
100
AcDbBlockTableRecord
  2
*D9
340
0
  0
ENDTAB
  0
ENDSEC
  0
SECTION
  2
BLOCKS
  0
BLOCK
  5
20
330
1F
100
AcDbEntity
  8
0
100
AcDbBlockBegin
  2
*Model_Space
 70
     0
 10
0.0
 20
0.0
 30
0.0
  3
*Model_Space
  1

  0
ENDBLK
  5
21
330
1F
100
AcDbEntity
  8
0
100
AcDbBlockEnd
  0
BLOCK
  5
1C
330
1B
100
AcDbEntity
 67
     1
  8
0
100
AcDbBlockBegin
  2
*Paper_Space
 70
     0
 10
0.0
 20
0.0
 30
0.0
  3
*Paper_Space
  1

  0
ENDBLK
  5
1D
330
1B
100
AcDbEntity
 67
     1
  8
0
100
AcDbBlockEnd
  0
BLOCK
  5
24
330
23
100
AcDbEntity
  8
0
100
AcDbBlockBegin
  2
*Paper_Space0
 70
     0
 10
0.0
 20
0.0
 30
0.0
  3
*Paper_Space0
  1

  0
ENDBLK
  5
25
330
23
100
AcDbEntity
  8
0
100
AcDbBlockEnd
  0
BLOCK
  5
1DC
330
1DB
100
AcDbEntity
  8
0
100
AcDbBlockBegin
  2
*D1
 70
     1
 10
0.0
 20
0.0
 30
0.0
  3
*D1
  1

  0
SOLID
  5
1DE
330
1DB
100
AcDbEntity
  8
VERMASSUNG
100
AcDbTrace
 10
253.6732926704
 20
103.2786060911
 30
0.0
 11
254.1232926704
 21
106.2786060911
 31
0.0
 12
253.2232926704
 22
106.2786060911
 32
0.0
 13
253.2232926704
 23
106.2786060911
 33
0.0
  0
SOLID
  5
1DF
330
1DB
100
AcDbEntity
  8
VERMASSUNG
100
AcDbTrace
 10
253.6732926704
 20
119.2786060911
 30
0.0
 11
253.2232926704
 21
116.2786060911
 31
0.0
 12
254.1232926704
 22
116.2786060911
 32
0.0
 13
254.1232926704
 23
116.2786060911
 33
0.0
  0
LINE
  5
1E0
330
1DB
100
AcDbEntity
  8
VERMASSUNG
100
AcDbLine
 10
233.0713898224
 20
103.2786060911
 30
0.0
 11
254.6732926704
 21
103.2786060911
 31
0.0
  0
LINE
  5
1E1
330
1DB
100
AcDbEntity
  8
VERMASSUNG
100
AcDbLine
 10
233.0713898224
 20
119.2786060911
 30
0.0
 11
254.6732926704
 21
119.2786060911
 31
0.0
  0
LINE
  5
1E2
330
1DB
100
AcDbEntity
  8
VERMASSUNG
100
AcDbLine
 10
253.6732926704
 20
103.2786060911
 30
0.0
 11
253.6732926704
 21
119.2786060911
 31
0.0
  0
MTEXT
  5
1E3
330
1DB
100
AcDbEntity
  8
VERMASSUNG
100
AcDbMText
 10
251.0951573073
 20
108.5808124263
 30
0.0
 40
2.0
 41
0.0
 71
     1
 72
     1
  1
ER
  7
SLDTEXTSTYLE0
 11
6.123233995736766E-17
 21
1.0
 31
0.0
 73
     1
 44
1.0
  0
MTEXT
  5
1E4
330
1DB
100
AcDbEntity
  8
VERMASSUNG
100
AcDbMText
 10
251.0951573073
 20
111.5786308706
 30
0.0
 40
2.0
 41
0.0
 71
     1
 72
     1
  1
16
  7
SLDTEXTSTYLE0
 11
6.123233995736766E-17
 21
1.0
 31
0.0
 73
     1
 44
1.0
  0
ENDBLK
  5
1DD
330
1DB
100
AcDbEntity
  8
0
100
AcDbBlockEnd
  0
BLOCK
  5
1E7
330
1E6
100
AcDbEntity
  8
0
100
AcDbBlockBegin
  2
*D2
 70
     1
 10
0.0
 20
0.0
 30
0.0
  3
*D2
  1

  0
SOLID
  5
1E9
330
1E6
100
AcDbEntity
  8
VERMASSUNG
100
AcDbTrace
 10
44.2353910681
 20
142.7786060911
 30
0.0
 11
43.7853910681
 21
139.7786060911
 31
0.0
 12
44.6853910681
 22
139.7786060911
 32
0.0
 13
44.6853910681
 23
139.7786060911
 33
0.0
  0
SOLID
  5
1EA
330
1E6
100
AcDbEntity
  8
VERMASSUNG
100
AcDbTrace
 10
44.2353910681
 20
79.7786060911
 30
0.0
 11
44.6853910681
 21
82.7786060911
 31
0.0
 12
43.7853910681
 22
82.7786060911
 32
0.0
 13
43.7853910681
 23
82.7786060911
 33
0.0
  0
LINE
  5
1EB
330
1E6
100
AcDbEntity
  8
VERMASSUNG
100
AcDbLine
 10
84.8713898224
 20
142.7786060911
 30
0.0
 11
43.2353910681
 21
142.7786060911
 31
0.0
  0
LINE
  5
1EC
330
1E6
100
AcDbEntity
  8
VERMASSUNG
100
AcDbLine
 10
84.8713898224
 20
79.7786060911
 30
0.0
 11
43.2353910681
 21
79.7786060911
 31
0.0
  0
LINE
  5
1ED
330
1E6
100
AcDbEntity
  8
VERMASSUNG
100
AcDbLine
 10
44.2353910681
 20
142.7786060911
 30
0.0
 11
44.2353910681
 21
79.7786060911
 31
0.0
  0
MTEXT
  5
1EE
330
1E6
100
AcDbEntity
  8
VERMASSUNG
100
AcDbMText
 10
41.4572555791
 20
104.0395748331
 30
0.0
 40
2.0
 41
0.0
 71
     1
 72
     1
  1
HSK A 
  7
SLDTEXTSTYLE0
 11
-7.044195017643634E-15
 21
1.0
 31
0.0
 73
     1
 44
1.0
  0
MTEXT
  5
1EF
330
1E6
100
AcDbEntity
  8
VERMASSUNG
100
AcDbMText
 10
41.6572555886
 20
113.039575377
 30
0.0
 40
2.0
 41
0.0
 71
     1
 72
     1
  1
%%c
  7
SLDTEXTSTYLE0
 11
-7.044195017643634E-15
 21
1.0
 31
0.0
 73
     1
 44
1.0
  0
MTEXT
  5
1F0
330
1E6
100
AcDbEntity
  8
VERMASSUNG
100
AcDbMText
 10
41.657255705
 20
116.6479036222
 30
0.0
 40
2.0
 41
0.0
 71
     1
 72
     1
  1
63
  7
SLDTEXTSTYLE0
 11
-7.044195017643634E-15
 21
1.0
 31
0.0
 73
     1
 44
1.0
  0
ENDBLK
  5
1E8
330
1E6
100
AcDbEntity
  8
0
100
AcDbBlockEnd
  0
BLOCK
  5
1F3
330
1F2
100
AcDbEntity
  8
0
100
AcDbBlockBegin
  2
*D3
 70
     1
 10
0.0
 20
0.0
 30
0.0
  3
*D3
  1

  0
SOLID
  5
1F5
330
1F2
100
AcDbEntity
  8
VERMASSUNG
100
AcDbTrace
 10
259.6732926704
 20
122.2786060911
 30
0.0
 11
259.2232926704
 21
119.2786060911
 31
0.0
 12
260.1232926704
 22
119.2786060911
 32
0.0
 13
260.1232926704
 23
119.2786060911
 33
0.0
  0
SOLID
  5
1F6
330
1F2
100
AcDbEntity
  8
VERMASSUNG
100
AcDbTrace
 10
259.6732926704
 20
100.2786060911
 30
0.0
 11
260.1232926704
 21
103.2786060911
 31
0.0
 12
259.2232926704
 22
103.2786060911
 32
0.0
 13
259.2232926704
 23
103.2786060911
 33
0.0
  0
LINE
  5
1F7
330
1F2
100
AcDbEntity
  8
VERMASSUNG
100
AcDbLine
 10
244.0713898224
 20
122.2786060911
 30
0.0
 11
260.6732926704
 21
122.2786060911
 31
0.0
  0
LINE
  5
1F8
330
1F2
100
AcDbEntity
  8
VERMASSUNG
100
AcDbLine
 10
244.0713898224
 20
100.2786060911
 30
0.0
 11
260.6732926704
 21
100.2786060911
 31
0.0
  0
LINE
  5
1F9
330
1F2
100
AcDbEntity
  8
VERMASSUNG
100
AcDbLine
 10
259.6732926704
 20
122.2786060911
 30
0.0
 11
259.6732926704
 21
100.2786060911
 31
0.0
  0
MTEXT
  5
1FA
330
1F2
100
AcDbEntity
  8
VERMASSUNG
100
AcDbMText
 10
257.0951571909
 20
108.0755075346
 30
0.0
 40
2.0
 41
0.0
 71
     1
 72
     1
  1
%%c
  7
SLDTEXTSTYLE0
 11
-7.044195017643634E-15
 21
1.0
 31
0.0
 73
     1
 44
1.0
  0
MTEXT
  5
1FB
330
1F2
100
AcDbEntity
  8
VERMASSUNG
100
AcDbMText
 10
257.0951573073
 20
111.6830929395
 30
0.0
 40
2.0
 41
0.0
 71
     1
 72
     1
  1
22
  7
SLDTEXTSTYLE0
 11
-7.044195017643634E-15
 21
1.0
 31
0.0
 73
     1
 44
1.0
  0
ENDBLK
  5
1F4
330
1F2
100
AcDbEntity
  8
0
100
AcDbBlockEnd
  0
BLOCK
  5
1FE
330
1FD
100
AcDbEntity
  8
0
100
AcDbBlockBegin
  2
*D4
 70
     1
 10
0.0
 20
0.0
 30
0.0
  3
*D4
  1

  0
SOLID
  5
200
330
1FD
100
AcDbEntity
  8
VERMASSUNG
100
AcDbTrace
 10
244.5713898224
 20
159.629923113
 30
0.0
 11
241.5713898224
 21
160.079923113
 31
0.0
 12
241.5713898224
 22
159.179923113
 32
0.0
 13
241.5713898224
 23
159.179923113
 33
0.0
  0
SOLID
  5
201
330
1FD
100
AcDbEntity
  8
VERMASSUNG
100
AcDbTrace
 10
52.6713898224
 20
159.629923113
 30
0.0
 11
55.6713898224
 21
159.179923113
 31
0.0
 12
55.6713898224
 22
160.079923113
 32
0.0
 13
55.6713898224
 23
160.079923113
 33
0.0
  0
LINE
  5
202
330
1FD
100
AcDbEntity
  8
VERMASSUNG
100
AcDbLine
 10
244.5713898224
 20
121.2053916268
 30
0.0
 11
244.5713898224
 21
160.629923113
 31
0.0
  0
LINE
  5
203
330
1FD
100
AcDbEntity
  8
VERMASSUNG
100
AcDbLine
 10
52.6713898224
 20
130.9692838376
 30
0.0
 11
52.6713898224
 21
160.629923113
 31
0.0
  0
LINE
  5
204
330
1FD
100
AcDbEntity
  8
VERMASSUNG
100
AcDbLine
 10
244.5713898224
 20
159.629923113
 30
0.0
 11
52.6713898224
 21
159.629923113
 31
0.0
  0
MTEXT
  5
205
330
1FD
100
AcDbEntity
  8
VERMASSUNG
100
AcDbMText
 10
147.0833426801
 20
162.2080584761
 30
0.0
 40
2.0
 41
0.0
 71
     1
 72
     1
  1
191.9
  7
SLDTEXTSTYLE0
 73
     1
 44
1.0
  0
ENDBLK
  5
1FF
330
1FD
100
AcDbEntity
  8
0
100
AcDbBlockEnd
  0
BLOCK
  5
208
330
207
100
AcDbEntity
  8
0
100
AcDbBlockBegin
  2
*D5
 70
     1
 10
0.0
 20
0.0
 30
0.0
  3
*D5
  1

  0
SOLID
  5
20A
330
207
100
AcDbEntity
  8
VERMASSUNG
100
AcDbTrace
 10
244.5713898224
 20
153.629923113
 30
0.0
 11
241.5713898224
 21
154.079923113
 31
0.0
 12
241.5713898224
 22
153.179923113
 32
0.0
 13
241.5713898224
 23
153.179923113
 33
0.0
  0
SOLID
  5
20B
330
207
100
AcDbEntity
  8
VERMASSUNG
100
AcDbTrace
 10
84.5713898224
 20
153.629923113
 30
0.0
 11
87.5713898224
 21
153.179923113
 31
0.0
 12
87.5713898224
 22
154.079923113
 32
0.0
 13
87.5713898224
 23
154.079923113
 33
0.0
  0
LINE
  5
20C
330
207
100
AcDbEntity
  8
VERMASSUNG
100
AcDbLine
 10
244.5713898224
 20
121.2053916268
 30
0.0
 11
244.5713898224
 21
154.629923113
 31
0.0
  0
LINE
  5
20D
330
207
100
AcDbEntity
  8
VERMASSUNG
100
AcDbLine
 10
84.5713898224
 20
142.4786060911
 30
0.0
 11
84.5713898224
 21
154.629923113
 31
0.0
  0
LINE
  5
20E
330
207
100
AcDbEntity
  8
VERMASSUNG
100
AcDbLine
 10
244.5713898224
 20
153.629923113
 30
0.0
 11
84.5713898224
 21
153.629923113
 31
0.0
  0
MTEXT
  5
20F
330
207
100
AcDbEntity
  8
VERMASSUNG
100
AcDbMText
 10
158.1714966548
 20
156.2080584761
 30
0.0
 40
2.0
 41
0.0
 71
     1
 72
     1
  1
160
  7
SLDTEXTSTYLE0
 73
     1
 44
1.0
  0
ENDBLK
  5
209
330
207
100
AcDbEntity
  8
0
100
AcDbBlockEnd
  0
BLOCK
  5
212
330
211
100
AcDbEntity
  8
0
100
AcDbBlockBegin
  2
*D6
 70
     1
 10
0.0
 20
0.0
 30
0.0
  3
*D6
  1

  0
SOLID
  5
214
330
211
100
AcDbEntity
  8
VERMASSUNG
100
AcDbTrace
 10
110.5213898224
 20
147.629923113
 30
0.0
 11
113.5213898224
 21
147.179923113
 31
0.0
 12
113.5213898224
 22
148.079923113
 32
0.0
 13
113.5213898224
 23
148.079923113
 33
0.0
  0
SOLID
  5
215
330
211
100
AcDbEntity
  8
VERMASSUNG
100
AcDbTrace
 10
244.5713898224
 20
147.629923113
 30
0.0
 11
241.5713898224
 21
148.079923113
 31
0.0
 12
241.5713898224
 22
147.179923113
 32
0.0
 13
241.5713898224
 23
147.179923113
 33
0.0
  0
LINE
  5
216
330
211
100
AcDbEntity
  8
VERMASSUNG
100
AcDbLine
 10
110.5213898224
 20
141.1250464149
 30
0.0
 11
110.5213898224
 21
148.629923113
 31
0.0
  0
LINE
  5
217
330
211
100
AcDbEntity
  8
VERMASSUNG
100
AcDbLine
 10
244.5713898224
 20
121.2053916268
 30
0.0
 11
244.5713898224
 21
148.629923113
 31
0.0
  0
LINE
  5
218
330
211
100
AcDbEntity
  8
VERMASSUNG
100
AcDbLine
 10
110.5213898224
 20
147.629923113
 30
0.0
 11
244.5713898224
 21
147.629923113
 31
0.0
  0
MTEXT
  5
219
330
211
100
AcDbEntity
  8
VERMASSUNG
100
AcDbMText
 10
167.6828185562
 20
150.2080584761
 30
0.0
 40
2.0
 41
0.0
 71
     1
 72
     1
  1
134.05
  7
SLDTEXTSTYLE0
 73
     1
 44
1.0
  0
ENDBLK
  5
213
330
211
100
AcDbEntity
  8
0
100
AcDbBlockEnd
  0
BLOCK
  5
21C
330
21B
100
AcDbEntity
  8
0
100
AcDbBlockBegin
  2
*D7
 70
     1
 10
0.0
 20
0.0
 30
0.0
  3
*D7
  1

  0
SOLID
  5
21E
330
21B
100
AcDbEntity
  8
VERMASSUNG
100
AcDbTrace
 10
211.0713898224
 20
141.629923113
 30
0.0
 11
214.0713898224
 21
141.179923113
 31
0.0
 12
214.0713898224
 22
142.079923113
 32
0.0
 13
214.0713898224
 23
142.079923113
 33
0.0
  0
SOLID
  5
21F
330
21B
100
AcDbEntity
  8
VERMASSUNG
100
AcDbTrace
 10
244.5713898224
 20
141.629923113
 30
0.0
 11
241.5713898224
 21
142.079923113
 31
0.0
 12
241.5713898224
 22
141.179923113
 32
0.0
 13
241.5713898224
 23
141.179923113
 33
0.0
  0
LINE
  5
220
330
21B
100
AcDbEntity
  8
VERMASSUNG
100
AcDbLine
 10
211.0713898224
 20
116.5286060911
 30
0.0
 11
211.0713898224
 21
142.629923113
 31
0.0
  0
LINE
  5
221
330
21B
100
AcDbEntity
  8
VERMASSUNG
100
AcDbLine
 10
244.5713898224
 20
121.2053916268
 30
0.0
 11
244.5713898224
 21
142.629923113
 31
0.0
  0
LINE
  5
222
330
21B
100
AcDbEntity
  8
VERMASSUNG
100
AcDbLine
 10
211.0713898224
 20
141.629923113
 30
0.0
 11
244.5713898224
 21
141.629923113
 31
0.0
  0
MTEXT
  5
223
330
21B
100
AcDbEntity
  8
VERMASSUNG
100
AcDbMText
 10
224.8853220717
 20
144.2080584761
 30
0.0
 40
2.0
 41
0.0
 71
     1
 72
     1
  1
33.5
  7
SLDTEXTSTYLE0
 73
     1
 44
1.0
  0
ENDBLK
  5
21D
330
21B
100
AcDbEntity
  8
0
100
AcDbBlockEnd
  0
BLOCK
  5
226
330
225
100
AcDbEntity
  8
0
100
AcDbBlockBegin
  2
*D8
 70
     1
 10
0.0
 20
0.0
 30
0.0
  3
*D8
  1

  0
SOLID
  5
228
330
225
100
AcDbEntity
  8
VERMASSUNG
100
AcDbTrace
 10
265.6732926704
 20
124.7786060911
 30
0.0
 11
265.2232926704
 21
121.7786060911
 31
0.0
 12
266.1232926704
 22
121.7786060911
 32
0.0
 13
266.1232926704
 23
121.7786060911
 33
0.0
  0
SOLID
  5
229
330
225
100
AcDbEntity
  8
VERMASSUNG
100
AcDbTrace
 10
265.6732926704
 20
97.7786060911
 30
0.0
 11
266.1232926704
 21
100.7786060911
 31
0.0
 12
265.2232926704
 22
100.7786060911
 32
0.0
 13
265.2232926704
 23
100.7786060911
 33
0.0
  0
LINE
  5
22A
330
225
100
AcDbEntity
  8
VERMASSUNG
100
AcDbLine
 10
155.5213898224
 20
124.7786060911
 30
0.0
 11
266.6732926704
 21
124.7786060911
 31
0.0
  0
LINE
  5
22B
330
225
100
AcDbEntity
  8
VERMASSUNG
100
AcDbLine
 10
155.5213898224
 20
97.7786060911
 30
0.0
 11
266.6732926704
 21
97.7786060911
 31
0.0
  0
LINE
  5
22C
330
225
100
AcDbEntity
  8
VERMASSUNG
100
AcDbLine
 10
265.6732926704
 20
124.7786060911
 30
0.0
 11
265.6732926704
 21
97.7786060911
 31
0.0
  0
MTEXT
  5
22D
330
225
100
AcDbEntity
  8
VERMASSUNG
100
AcDbMText
 10
263.0951571909
 20
108.0755075346
 30
0.0
 40
2.0
 41
0.0
 71
     1
 72
     1
  1
%%c
  7
SLDTEXTSTYLE0
 11
-7.044195017643634E-15
 21
1.0
 31
0.0
 73
     1
 44
1.0
  0
MTEXT
  5
22E
330
225
100
AcDbEntity
  8
VERMASSUNG
100
AcDbMText
 10
263.0951573073
 20
111.6830929395
 30
0.0
 40
2.0
 41
0.0
 71
     1
 72
     1
  1
27
  7
SLDTEXTSTYLE0
 11
-7.044195017643634E-15
 21
1.0
 31
0.0
 73
     1
 44
1.0
  0
ENDBLK
  5
227
330
225
100
AcDbEntity
  8
0
100
AcDbBlockEnd
  0
BLOCK
  5
232
330
231
100
AcDbEntity
  8
0
100
AcDbBlockBegin
  2
*D9
 70
     1
 10
0.0
 20
0.0
 30
0.0
  3
*D9
  1

  0
SOLID
  5
234
330
231
100
AcDbEntity
  8
VERMASSUNG
100
AcDbTrace
 10
271.6732926704
 20
127.8878419689
 30
0.0
 11
271.2232926704
 21
124.8878419689
 31
0.0
 12
272.1232926704
 22
124.8878419689
 32
0.0
 13
272.1232926704
 23
124.8878419689
 33
0.0
  0
SOLID
  5
235
330
231
100
AcDbEntity
  8
VERMASSUNG
100
AcDbTrace
 10
271.6732926704
 20
94.6693702133
 30
0.0
 11
272.1232926704
 21
97.6693702133
 31
0.0
 12
271.2232926704
 22
97.6693702133
 32
0.0
 13
271.2232926704
 23
97.6693702133
 33
0.0
  0
LINE
  5
236
330
231
100
AcDbEntity
  8
VERMASSUNG
100
AcDbLine
 10
112.7791217811
 20
127.8878419689
 30
0.0
 11
272.6732926704
 21
127.8878419689
 31
0.0
  0
LINE
  5
237
330
231
100
AcDbEntity
  8
VERMASSUNG
100
AcDbLine
 10
112.7791217811
 20
94.6693702133
 30
0.0
 11
272.6732926704
 21
94.6693702133
 31
0.0
  0
LINE
  5
238
330
231
100
AcDbEntity
  8
VERMASSUNG
100
AcDbLine
 10
271.6732926704
 20
127.8878419689
 30
0.0
 11
271.6732926704
 21
94.6693702133
 31
0.0
  0
MTEXT
  5
239
330
231
100
AcDbEntity
  8
VERMASSUNG
100
AcDbMText
 10
269.0951571909
 20
108.0755075346
 30
0.0
 40
2.0
 41
0.0
 71
     1
 72
     1
  1
%%c
  7
SLDTEXTSTYLE0
 11
-7.044195017643634E-15
 21
1.0
 31
0.0
 73
     1
 44
1.0
  0
MTEXT
  5
23A
330
231
100
AcDbEntity
  8
VERMASSUNG
100
AcDbMText
 10
269.0951573073
 20
111.6830929395
 30
0.0
 40
2.0
 41
0.0
 71
     1
 72
     1
  1
33
  7
SLDTEXTSTYLE0
 11
-7.044195017643634E-15
 21
1.0
 31
0.0
 73
     1
 44
1.0
  0
ENDBLK
  5
233
330
231
100
AcDbEntity
  8
0
100
AcDbBlockEnd
  0
ENDSEC
  0
SECTION
  2
ENTITIES
  0
MTEXT
  5
45
330
1F
100
AcDbEntity
  8
KOPF_DÜNN
100
AcDbMText
 10
13.8892156294
 20
23.8442973028
 30
0.0
 40
3.0
 41
0.0
 71
     1
 72
     1
  1
HA6.E17.K01.160
  7
SLDTEXTSTYLE0
 73
     1
 44
1.0
  0
MTEXT
  5
46
330
1F
100
AcDbEntity
  8
VERMASSUNG
100
AcDbMText
 10
13.9329988022
 20
28.8834360957
 30
0.0
 40
3.0
 41
0.0
 71
     1
 72
     1
  1
Spannzangenfutter_Collet chuck ER16
  7
SLDTEXTSTYLE0
 73
     1
 44
1.0
  0
MTEXT
  5
47
330
1F
100
AcDbEntity
  8
VERMASSUNG
100
AcDbMText
 10
98.8601118557
 20
13.8365368179
 30
0.0
 40
2.0
 41
0.0
 71
     1
 72
     1
  1
Datum: 10.10.2006
  7
SLDTEXTSTYLE0
 73
     1
 44
1.0
  0
MTEXT
  5
49
330
1F
100
AcDbEntity
  8
VERMASSUNG
100
AcDbMText
 10
13.933048693
 20
18.0482802738
 30
0.0
 40
2.0
 41
0.0
 71
     1
 72
     1
  1
DIN 69 893 HSK A 63
  7
SLDTEXTSTYLE1
 73
     1
 44
1.0
  0
MTEXT
  5
4A
330
1F
100
AcDbEntity
  8
VERMASSUNG
100
AcDbMText
 10
13.9808475933
 20
13.9090973692
 30
0.0
 40
2.0
 41
0.0
 71
     1
 72
     1
  1
Gewicht: 1038g
  7
SLDTEXTSTYLE0
 73
     1
 44
1.0
  0
LINE
  5
4B
330
1F
100
AcDbEntity
  8
0
  6
Continuous
 62
     7
370
    15
100
AcDbLine
 10
84.8713898366
 20
79.7786055845
 30
0.0
 11
89.5213897955
 21
79.7786055845
 31
0.0
  0
LINE
  5
4C
330
1F
100
AcDbEntity
  8
0
  6
Continuous
 62
     7
370
    15
100
AcDbLine
 10
89.5493783672
 20
142.7786065977
 30
0.0
 11
84.8713898366
 21
142.7786065977
 31
0.0
  0
ARC
  5
4D
330
1F
100
AcDbEntity
  8
0
  6
Continuous
 62
     7
370
    15
100
AcDbCircle
 10
84.8713898224
 20
80.0786060911
 30
0.0
 40
0.3000000000000114
100
AcDbArc
 50
180.0
 51
270.0
  0
ARC
  5
4E
330
1F
100
AcDbEntity
  8
0
  6
Continuous
 62
     7
370
    15
100
AcDbCircle
 10
84.8713898224
 20
142.4786060911
 30
0.0
 40
0.3000000000000114
100
AcDbArc
 50
90.0
 51
180.0
  0
ARC
  5
4F
330
1F
100
AcDbEntity
  8
0
  6
Continuous
 62
     7
370
    15
100
AcDbCircle
 10
84.0713830697
 20
86.7081684767
 30
0.0
 40
0.6000067526677242
100
AcDbArc
 50
33.5571153394
 51
90.0
  0
ARC
  5
50
330
1F
100
AcDbEntity
  8
0
  6
Continuous
 62
     7
370
    15
100
AcDbCircle
 10
84.0713830697
 20
135.8490437055
 30
0.0
 40
0.6000067526677164
100
AcDbArc
 50
270.0
 51
326.4428846606
  0
LINE
  5
51
330
1F
100
AcDbEntity
  8
0
  6
Continuous
 62
     7
370
    15
100
AcDbLine
 10
82.5713897274
 20
87.0581748676
 30
0.0
 11
83.4281026536
 21
87.2877309811
 31
0.0
  0
LINE
  5
52
330
1F
100
AcDbEntity
  8
0
  6
Continuous
 62
     7
370
    15
100
AcDbLine
 10
83.4281026536
 20
135.2694812011
 30
0.0
 11
82.5713897274
 21
135.4990373146
 31
0.0
  0
LINE
  5
53
330
1F
100
AcDbEntity
  8
0
  6
Continuous
 62
     7
370
    15
100
AcDbLine
 10
71.3409673107
 20
134.936389957
 30
0.0
 11
58.7713889462
 21
134.3066519838
 31
0.0
  0
LINE
  5
54
330
1F
100
AcDbEntity
  8
0
  6
Continuous
 62
     7
370
    15
100
AcDbLine
 10
82.5713897274
 20
135.4990373146
 30
0.0
 11
79.7527803724
 21
135.3578245979
 31
0.0
  0
LINE
  5
55
330
1F
100
AcDbEntity
  8
0
  6
Continuous
 62
     7
370
    15
100
AcDbLine
 10
79.7530020271
 20
87.1993764084
 30
0.0
 11
82.5713897274
 21
87.0581748676
 31
0.0
  0
LINE
  5
56
330
1F
100
AcDbEntity
  8
0
  6
Continuous
 62
     7
370
    15
100
AcDbLine
 10
62.7713896018
 20
88.0501600694
 30
0.0
 11
71.3416667339
 21
87.6207868349
 31
0.0
  0
ARC
  5
57
330
1F
100
AcDbEntity
  8
0
  6
Continuous
 62
     7
370
    15
100
AcDbCircle
 10
83.5833940228
 20
86.7081752294
 30
0.0
 40
0.6000000000000085
100
AcDbArc
 50
90.0
 51
105.0
  0
ARC
  5
58
330
1F
100
AcDbEntity
  8
0
  6
Continuous
 62
     7
370
    15
100
AcDbCircle
 10
83.5833940228
 20
135.8490369528
 30
0.0
 40
0.6000000000000208
100
AcDbArc
 50
255.0
 51
270.0
  0
LINE
  5
59
330
1F
100
AcDbEntity
  8
0
  6
Continuous
 62
     7
370
    15
100
AcDbLine
 10
83.5833940572
 20
87.3081753742
 30
0.0
 11
84.0713830465
 21
87.3081753742
 31
0.0
  0
LINE
  5
5A
330
1F
100
AcDbEntity
  8
0
  6
Continuous
 62
     7
370
    15
100
AcDbLine
 10
84.0713830465
 20
135.249036808
 30
0.0
 11
83.5833940572
 21
135.249036808
 31
0.0
  0
ARC
  5
5B
330
1F
100
AcDbEntity
  8
0
  6
Continuous
 62
     7
370
    15
100
AcDbCircle
 10
113.5213898224
 20
91.7626472896
 30
0.0
 40
3.000000000000007
100
AcDbArc
 50
104.3250519401
 51
180.0
  0
ARC
  5
5C
330
1F
100
AcDbEntity
  8
0
  6
Continuous
 62
     7
370
    15
100
AcDbCircle
 10
113.5213898224
 20
130.7945648926
 30
0.0
 40
3.0
100
AcDbArc
 50
180.0
 51
255.6749480599
  0
ARC
  5
5D
330
1F
100
AcDbEntity
  8
0
  6
Continuous
 62
     7
370
    15
100
AcDbCircle
 10
137.5213898224
 20
-2.2213939089
 30
0.0
 40
100.0
100
AcDbArc
 50
90.0
 51
104.3250519401
  0
ARC
  5
5E
330
1F
100
AcDbEntity
  8
0
  6
Continuous
 62
     7
370
    15
100
AcDbCircle
 10
137.5213898224
 20
224.7786060911
 30
0.0
 40
100.0
100
AcDbArc
 50
255.6749480599
 51
270.0
  0
ARC
  5
5F
330
1F
100
AcDbEntity
  8
0
  6
Continuous
 62
     7
370
    15
100
AcDbCircle
 10
216.0523736241
 20
-358.2213939089
 30
0.0
 40
460.0
100
AcDbArc
 50
90.0
 51
97.5614297057
  0
ARC
  5
60
330
1F
100
AcDbEntity
  8
0
  6
Continuous
 62
     7
370
    15
100
AcDbCircle
 10
216.0523736241
 20
580.7786060911
 30
0.0
 40
460.0000000000001
100
AcDbArc
 50
262.4385702943
 51
270.0
  0
LINE
  5
61
330
1F
100
AcDbEntity
  8
0
  6
Continuous
 62
     7
370
    15
100
AcDbLine
 10
150.0200092477
 20
97.7786057409
 30
0.0
 11
155.5213913006
 21
97.7786057409
 31
0.0
  0
LINE
  5
62
330
1F
100
AcDbEntity
  8
0
  6
Continuous
 62
     7
370
    15
100
AcDbLine
 10
137.5213883501
 20
97.7786057409
 30
0.0
 11
143.0247820598
 21
97.7786057409
 31
0.0
  0
LINE
  5
63
330
1F
100
AcDbEntity
  8
0
  6
Continuous
 62
     7
370
    15
100
AcDbLine
 10
143.0226847214
 20
124.7786064413
 30
0.0
 11
137.5213883501
 21
124.7786064413
 31
0.0
  0
LINE
  5
64
330
1F
100
AcDbEntity
  8
0
  6
Continuous
 62
     7
370
    15
100
AcDbLine
 10
155.5213913006
 20
124.7786064413
 30
0.0
 11
150.0125735682
 21
124.7786064413
 31
0.0
  0
LINE
  5
65
330
1F
100
AcDbEntity
  8
0
  6
Continuous
 62
     7
370
    15
100
AcDbLine
 10
53.954726426
 20
90.4086059671
 30
0.0
 11
61.3713901174
 21
90.4086059671
 31
0.0
  0
ARC
  5
66
330
1F
100
AcDbEntity
  8
0
  6
Continuous
 62
     7
370
    15
100
AcDbCircle
 10
61.3713898224
 20
89.0086060911
 30
0.0
 40
1.399999999999997
100
AcDbArc
 50
42.2465410162
 51
90.0
  0
LINE
  5
67
330
1F
100
AcDbEntity
  8
0
  6
Continuous
 62
     7
370
    15
100
AcDbLine
 10
52.6724219006
 20
91.5575730395
 30
0.0
 11
53.8125525844
 21
90.4174423557
 31
0.0
  0
LINE
  5
68
330
1F
100
AcDbEntity
  8
0
  6
Continuous
 62
     7
370
    15
100
AcDbLine
 10
53.8125525844
 20
132.1397698265
 30
0.0
 11
52.6812918168
 21
131.0085071963
 31
0.0
  0
ARC
  5
69
330
1F
100
AcDbEntity
  8
0
  6
Continuous
 62
     7
370
    15
100
AcDbCircle
 10
57.3713898224
 20
133.5486060911
 30
0.0
 40
1.400000000000008
100
AcDbArc
 50
270.0
 51
301.7485287426
  0
LINE
  5
6A
330
1F
100
AcDbEntity
  8
0
  6
Continuous
 62
     7
370
    15
100
AcDbLine
 10
57.3713894618
 20
132.1486062151
 30
0.0
 11
53.9622775894
 21
132.1486062151
 31
0.0
  0
LINE
  5
6B
330
1F
100
AcDbEntity
  8
0
  6
Continuous
 62
     7
370
    15
100
AcDbLine
 10
216.0523667616
 20
101.7786063966
 30
0.0
 11
226.1713877004
 21
101.7786063966
 31
0.0
  0
LINE
  5
6C
330
1F
100
AcDbEntity
  8
0
  6
Continuous
 62
     7
370
    15
100
AcDbLine
 10
226.1713877004
 20
120.7786057856
 30
0.0
 11
216.0523667616
 21
120.7786057856
 31
0.0
  0
LINE
  5
6D
330
1F
100
AcDbEntity
  8
0
  6
Continuous
 62
     7
370
    15
100
AcDbLine
 10
226.9713863415
 20
122.2786060315
 30
0.0
 11
226.1713877004
 21
121.4786064592
 31
0.0
  0
LINE
  5
6E
330
1F
100
AcDbEntity
  8
0
  6
Continuous
 62
     7
370
    15
100
AcDbLine
 10
226.1713877004
 20
101.078605723
 30
0.0
 11
226.9713863415
 21
100.2786061507
 31
0.0
  0
LINE
  5
6F
330
1F
100
AcDbEntity
  8
0
  6
Continuous
 62
     7
370
    15
100
AcDbLine
 10
226.9713863415
 20
100.2786061507
 30
0.0
 11
244.0713926834
 21
100.2786061507
 31
0.0
  0
LINE
  5
70
330
1F
100
AcDbEntity
  8
0
  6
Continuous
 62
     7
370
    15
100
AcDbLine
 10
244.0713926834
 20
122.2786060315
 30
0.0
 11
226.9713863415
 21
122.2786060315
 31
0.0
  0
LINE
  5
71
330
1F
100
AcDbEntity
  8
0
  6
Continuous
 62
     7
370
    15
100
AcDbLine
 10
244.5713862461
 20
121.7786059495
 30
0.0
 11
244.0713926834
 21
122.2786060315
 31
0.0
  0
LINE
  5
72
330
1F
100
AcDbEntity
  8
0
  6
Continuous
 62
     7
370
    15
100
AcDbLine
 10
244.0713926834
 20
100.2786061507
 30
0.0
 11
244.5713862461
 21
100.7786062327
 31
0.0
  0
SPLINE
  5
73
330
1F
100
AcDbEntity
  8
0
  6
Continuous
 62
     7
370
    15
100
AcDbSpline
210
0.0
220
0.0
230
1.0
 70
     8
 71
     3
 72
    70
 73
    66
 74
     0
 42
0.00000001
 43
0.00000001
 40
-0.0312499999999997
 40
-0.0312499999999997
 40
0.0
 40
0.0
 40
0.0312500000000002
 40
0.0312500000000002
 40
0.0625000000000004
 40
0.0625000000000004
 40
0.0937500000000006
 40
0.0937500000000006
 40
0.1250000000000009
 40
0.1250000000000009
 40
0.1562500000000011
 40
0.1562500000000011
 40
0.1875000000000013
 40
0.1875000000000013
 40
0.2187500000000015
 40
0.2187500000000015
 40
0.2500000000000017
 40
0.2500000000000017
 40
0.2812500000000019
 40
0.2812500000000019
 40
0.3125000000000022
 40
0.3125000000000022
 40
0.3437500000000024
 40
0.3437500000000024
 40
0.3750000000000026
 40
0.3750000000000026
 40
0.4062500000000028
 40
0.4062500000000028
 40
0.437500000000003
 40
0.437500000000003
 40
0.4687500000000032
 40
0.4687500000000032
 40
0.5000000000000034
 40
0.5000000000000034
 40
0.5312500000000034
 40
0.5312500000000034
 40
0.5625000000000034
 40
0.5625000000000034
 40
0.5937500000000034
 40
0.5937500000000034
 40
0.6250000000000034
 40
0.6250000000000034
 40
0.6562500000000034
 40
0.6562500000000034
 40
0.6875000000000034
 40
0.6875000000000034
 40
0.7187500000000031
 40
0.7187500000000031
 40
0.7500000000000027
 40
0.7500000000000027
 40
0.7812500000000023
 40
0.7812500000000023
 40
0.812500000000002
 40
0.812500000000002
 40
0.8437500000000017
 40
0.8437500000000017
 40
0.8750000000000013
 40
0.8750000000000013
 40
0.906250000000001
 40
0.906250000000001
 40
0.9375000000000007
 40
0.9375000000000007
 40
0.9687500000000003
 40
0.9687500000000003
 40
1.0
 40
1.0
 40
1.03125
 40
1.03125
 10
92.30684448370887
 20
121.8995129770816
 30
0.0
 10
92.83593516102917
 20
121.8995129770816
 30
0.0
 10
93.09600582840628
 20
121.9241902718668
 30
0.0
 10
93.60758050824168
 20
122.0206619449087
 30
0.0
 10
93.86175579198186
 20
122.0936428608888
 30
0.0
 10
94.34602642204358
 20
122.2833834638274
 30
0.0
 10
94.57566751392474
 20
122.3992441222212
 30
0.0
 10
95.01027186215823
 20
122.6718619681789
 30
0.0
 10
95.21583763880484
 20
122.8299010502326
 30
0.0
 10
95.58439477940007
 20
123.1734439012033
 30
0.0
 10
95.74987576213556
 20
123.3602063453049
 30
0.0
 10
96.04230027157067
 20
123.7637495197017
 30
0.0
 10
96.16640124819718
 20
123.9772465161309
 30
0.0
 10
96.36598044494689
 20
124.4166298300534
 30
0.0
 10
96.44291403080516
 20
124.6457698171991
 30
0.0
 10
96.54577108932553
 20
125.1117439399591
 30
0.0
 10
96.57124399878465
 20
125.3446263856352
 30
0.0
 10
96.57153440935242
 20
125.8100239207151
 30
0.0
 10
96.54550977557669
 20
126.0448996781094
 30
0.0
 10
96.44336149108467
 20
126.4963928253556
 30
0.0
 10
96.36778504350151
 20
126.714439300767
 30
0.0
 10
96.1672875123566
 20
127.1355338258048
 30
0.0
 10
96.04215867084821
 20
127.3374552103231
 30
0.0
 10
95.75279986982663
 20
127.709484692842
 30
0.0
 10
95.58738888277115
 20
127.8821129964224
 30
0.0
 10
95.21439832462333
 20
128.1994310009684
 30
0.0
 10
95.01266529153423
 20
128.3392179344701
 30
0.0
 10
94.57980604070636
 20
128.5833941880219
 30
0.0
 10
94.34588750781697
 20
128.6886236990633
 30
0.0
 10
93.86170377267436
 20
128.8567808454385
 30
0.0
 10
93.61238814671886
 20
128.9200317360323
 30
0.0
 10
93.09935562229113
 20
129.0056109451349
 30
0.0
 10
92.8340617993865
 20
129.0274831100573
 30
0.0
 10
92.31172717951675
 20
129.0276467597013
 30
0.0
 10
92.05197351703501
 20
129.0066450676053
 30
0.0
 10
91.53536170138977
 20
128.9212427125276
 30
0.0
 10
91.28299566088948
 20
128.8572365292407
 30
0.0
 10
90.80147053935667
 20
128.6904220091995
 30
0.0
 10
90.5686198072431
 20
128.5862888458003
 30
0.0
 10
90.13152995880435
 20
128.3403021933053
 30
0.0
 10
89.93020897014716
 20
128.2005523623565
 30
0.0
 10
89.56112294484727
 20
127.8874142926319
 30
0.0
 10
89.39213819379557
 20
127.7119581333618
 30
0.0
 10
89.10168213713636
 20
127.3391178692616
 30
0.0
 10
88.97861032577423
 20
127.1409960591507
 30
0.0
 10
88.77727408435221
 20
126.720284716417
 30
0.0
 10
88.70006153840998
 20
126.4982946957495
 30
0.0
 10
88.59785799550991
 20
126.0484297560411
 30
0.0
 10
88.5716296440576
 20
125.8181743429243
 30
0.0
 10
88.57115324474049
 20
125.3468584003753
 30
0.0
 10
88.59689565723846
 20
125.1136209846611
 30
0.0
 10
88.69820643360232
 20
124.6519444451631
 30
0.0
 10
88.77503907299325
 20
124.4210470580509
 30
0.0
 10
88.97544291220844
 20
123.9787710442593
 30
0.0
 10
89.09811441050047
 20
123.7677086129734
 30
0.0
 10
89.38806169966472
 20
123.3662101022407
 30
0.0
 10
89.55663267902995
 20
123.1753035801648
 30
0.0
 10
89.9249022731431
 20
122.8315782481677
 30
0.0
 10
90.12596413041342
 20
122.6764410619536
 30
0.0
 10
90.56299504899835
 20
122.4013637018739
 30
0.0
 10
90.79514326212795
 20
122.2842474724519
 30
0.0
 10
91.2761535436268
 20
122.0953209873873
 30
0.0
 10
91.52825362645726
 20
122.0222460169931
 30
0.0
 10
92.04532311271625
 20
121.9241939578585
 30
0.0
 10
92.30684448370887
 20
121.8995129770816
 30
0.0
 10
92.83593516102917
 20
121.8995129770816
 30
0.0
  0
LINE
  5
74
330
1F
100
AcDbEntity
  8
0
  6
Continuous
 62
     7
370
    15
100
AcDbLine
 10
89.5213897955
 20
131.1286068302
 30
0.0
 11
99.1794572827
 21
131.1286068302
 31
0.0
  0
LINE
  5
75
330
1F
100
AcDbEntity
  8
0
  6
Continuous
 62
     7
370
    15
100
AcDbLine
 10
99.1794572827
 20
81.0916884583
 30
0.0
 11
99.1794572827
 21
131.1286068302
 31
0.0
  0
LINE
  5
76
330
1F
100
AcDbEntity
  8
0
  6
Continuous
 62
     7
370
    15
100
AcDbLine
 10
99.1794572827
 20
81.0916884583
 30
0.0
 11
97.5213901755
 21
81.0916884583
 31
0.0
  0
SPLINE
  5
77
330
1F
100
AcDbEntity
  8
0
  6
Continuous
 62
     7
370
    15
100
AcDbSpline
210
0.0
220
0.0
230
1.0
 70
     8
 71
     3
 72
    28
 73
    24
 74
     0
 42
0.00000001
 43
0.00000001
 40
0.0
 40
0.0
 40
0.0
 40
0.0
 40
0.1249999999999999
 40
0.1249999999999999
 40
0.1874999999999998
 40
0.1874999999999998
 40
0.2499999999999997
 40
0.2499999999999997
 40
0.3749999999999993
 40
0.3749999999999993
 40
0.4374999999999993
 40
0.4374999999999993
 40
0.4999999999999992
 40
0.4999999999999992
 40
0.6249999999999992
 40
0.6249999999999992
 40
0.7499999999999992
 40
0.7499999999999992
 40
0.8124999999999993
 40
0.8124999999999993
 40
0.8749999999999996
 40
0.8749999999999996
 40
1.0
 40
1.0
 40
1.0
 40
1.0
 10
97.521389822369
 20
81.09168839485112
 30
0.0
 10
96.98968206487606
 20
81.09168839485112
 30
0.0
 10
96.46744349956575
 20
81.0759036809009
 30
0.0
 10
95.69757301329074
 20
81.0309082668247
 30
0.0
 10
95.4432134410994
 20
81.01235327174896
 30
0.0
 10
94.9390918604009
 20
80.96850054930248
 30
0.0
 10
94.68936904297297
 20
80.94315594235027
 30
0.0
 10
93.96377909152656
 20
80.85975386460017
 30
0.0
 10
93.50541882994503
 20
80.79388830544907
 30
0.0
 10
92.85492088655114
 20
80.68491796495731
 30
0.0
 10
92.64323883575868
 20
80.64667832919065
 30
0.0
 10
92.23916734662069
 20
80.56891959177129
 30
0.0
 10
92.04666083279982
 20
80.52941862959595
 30
0.0
 10
91.49682586177855
 20
80.41051088722993
 30
0.0
 10
91.16689708346973
 20
80.33069320580532
 30
0.0
 10
90.58242581490104
 20
80.17735004400926
 30
0.0
 10
90.3361486768876
 20
80.10601629074
 30
0.0
 10
90.03630588418955
 20
80.01207278366539
 30
0.0
 10
89.94784902711736
 20
79.98287899030545
 30
0.0
 10
89.79448767381223
 20
79.92941241604206
 30
0.0
 10
89.72939945958599
 20
79.90505308176688
 30
0.0
 10
89.57380544364521
 20
79.84146293632213
 30
0.0
 10
89.52138982236902
 20
79.81136000123287
 30
0.0
 10
89.52138982236902
 20
79.79448310823595
 30
0.0
  0
LINE
  5
78
330
1F
100
AcDbEntity
  8
0
  6
Continuous
 62
     7
370
    15
100
AcDbLine
 10
89.5213897955
 20
79.7944827717
 30
0.0
 11
89.5213897955
 21
79.7786055845
 31
0.0
  0
SPLINE
  5
79
330
1F
100
AcDbEntity
  8
0
  6
Continuous
 62
     7
370
    15
100
AcDbSpline
210
0.0
220
0.0
230
1.0
 70
     8
 71
     3
 72
    17
 73
    13
 74
     0
 42
0.00000001
 43
0.00000001
 40
0.0
 40
0.0
 40
0.0
 40
0.0
 40
0.1034797280380778
 40
0.2100239090909901
 40
0.3134862262879433
 40
0.4198361712144981
 40
0.5254127947779869
 40
0.6339610881168427
 40
0.7409508662120068
 40
0.8511696072047016
 40
0.9558996557845765
 40
1.0
 40
1.0
 40
1.0
 40
1.0
 10
97.52139017552653
 20
141.7458015274568
 30
0.0
 10
97.08614168380065
 20
141.7512495190944
 30
0.0
 10
96.20275523322364
 20
141.762306839423
 30
0.0
 10
94.92192737100088
 20
141.848665599798
 30
0.0
 10
93.70451117555895
 20
141.9765367429311
 30
0.0
 10
92.59670455923313
 20
142.1354811502495
 30
0.0
 10
91.60846607990429
 20
142.3099757232341
 30
0.0
 10
90.78374298008848
 20
142.479142156421
 30
0.0
 10
90.13478932258984
 20
142.6270229648887
 30
0.0
 10
89.7177540191102
 20
142.7288137164113
 30
0.0
 10
89.51915727623224
 20
142.7791706160457
 30
0.0
 10
89.54247039322014
 20
142.7732610110702
 30
0.0
 10
89.54937836722056
 20
142.7715099197192
 30
0.0
  0
LINE
  5
7A
330
1F
100
AcDbEntity
  8
0
  6
Continuous
 62
     7
370
    15
100
AcDbLine
 10
99.1794572827
 20
141.7458015275
 30
0.0
 11
97.5213901755
 21
141.7458015275
 31
0.0
  0
LINE
  5
7B
330
1F
100
AcDbEntity
  8
0
  6
Continuous
 62
     7
370
    15
100
AcDbLine
 10
99.1794572827
 20
135.7372957062
 30
0.0
 11
99.1794572827
 21
141.7458015275
 31
0.0
  0
LINE
  5
7C
330
1F
100
AcDbEntity
  8
0
  6
Continuous
 62
     7
370
    15
100
AcDbLine
 10
96.7670105082
 20
135.7372957062
 30
0.0
 11
99.1794572827
 21
135.7372957062
 31
0.0
  0
SPLINE
  5
7D
330
1F
100
AcDbEntity
  8
0
  6
Continuous
 62
     7
370
    15
100
AcDbSpline
210
0.0
220
0.0
230
1.0
 70
     8
 71
     3
 72
    20
 73
    16
 74
     0
 42
0.00000001
 43
0.00000001
 40
0.0
 40
0.0
 40
0.0
 40
0.0
 40
0.2499999999999995
 40
0.2499999999999995
 40
0.3749999999999996
 40
0.3749999999999996
 40
0.4999999999999997
 40
0.4999999999999997
 40
0.6249999999999998
 40
0.6249999999999998
 40
0.7499999999999998
 40
0.7499999999999998
 40
0.8749999999999999
 40
0.8749999999999999
 40
1.0
 40
1.0
 40
1.0
 40
1.0
 10
89.52138982236902
 20
131.1286060910983
 30
0.0
 10
89.76976355665707
 20
131.7824685193957
 30
0.0
 10
90.08933364900234
 20
132.3862543013928
 30
0.0
 10
90.71163988220701
 20
133.2130930375615
 30
0.0
 10
90.94306414263778
 20
133.4755216755144
 30
0.0
 10
91.46427848228748
 20
133.9721843296193
 30
0.0
 10
91.75089896492256
 20
134.2027712086409
 30
0.0
 10
92.37038370623017
 20
134.6193254332235
 30
0.0
 10
92.70468408571713
 20
134.806823235191
 30
0.0
 10
93.42994455834193
 20
135.1382202128274
 30
0.0
 10
93.8118596157324
 20
135.2777242003227
 30
0.0
 10
94.60664779190408
 20
135.5031777077936
 30
0.0
 10
95.02080598611046
 20
135.5898038193373
 30
0.0
 10
95.88635232669185
 20
135.7077846081914
 30
0.0
 10
96.32423994170367
 20
135.7372957534657
 30
0.0
 10
96.76701016805829
 20
135.7372957534657
 30
0.0
  0
SPLINE
  5
7E
330
1F
100
AcDbEntity
  8
0
  6
Continuous
 62
     7
370
    15
100
AcDbSpline
210
0.0
220
0.0
230
1.0
 70
     8
 71
     3
 72
    70
 73
    66
 74
     0
 42
0.00000001
 43
0.00000001
 40
-0.0312500000000001
 40
-0.0312500000000001
 40
0.0
 40
0.0
 40
0.0312499999999998
 40
0.0312499999999998
 40
0.0624999999999996
 40
0.0624999999999996
 40
0.0937499999999995
 40
0.0937499999999995
 40
0.1249999999999993
 40
0.1249999999999993
 40
0.1562499999999991
 40
0.1562499999999991
 40
0.1874999999999989
 40
0.1874999999999989
 40
0.2187499999999987
 40
0.2187499999999987
 40
0.2499999999999986
 40
0.2499999999999986
 40
0.2812499999999986
 40
0.2812499999999986
 40
0.3124999999999985
 40
0.3124999999999985
 40
0.3437499999999985
 40
0.3437499999999985
 40
0.3749999999999985
 40
0.3749999999999985
 40
0.4062499999999985
 40
0.4062499999999985
 40
0.4374999999999984
 40
0.4374999999999984
 40
0.4687499999999984
 40
0.4687499999999984
 40
0.4999999999999984
 40
0.4999999999999984
 40
0.5312499999999984
 40
0.5312499999999984
 40
0.5624999999999986
 40
0.5624999999999986
 40
0.5937499999999986
 40
0.5937499999999986
 40
0.6249999999999986
 40
0.6249999999999986
 40
0.6562499999999987
 40
0.6562499999999987
 40
0.6874999999999987
 40
0.6874999999999987
 40
0.7187499999999988
 40
0.7187499999999988
 40
0.7499999999999988
 40
0.7499999999999988
 40
0.7812499999999989
 40
0.7812499999999989
 40
0.8124999999999991
 40
0.8124999999999991
 40
0.8437499999999992
 40
0.8437499999999992
 40
0.8749999999999993
 40
0.8749999999999993
 40
0.9062499999999996
 40
0.9062499999999996
 40
0.9374999999999997
 40
0.9374999999999997
 40
0.9687499999999999
 40
0.9687499999999999
 40
1.0
 40
1.0
 40
1.03125
 40
1.03125
 10
92.30684448370887
 20
136.3375694858775
 30
0.0
 10
92.83593516102917
 20
136.3375694858775
 30
0.0
 10
93.09600582840628
 20
136.3534699262922
 30
0.0
 10
93.60758050824168
 20
136.4154142764665
 30
0.0
 10
93.86175579198188
 20
136.4622165105578
 30
0.0
 10
94.34602642204358
 20
136.5831934940129
 30
0.0
 10
94.57566751392474
 20
136.6567958218197
 30
0.0
 10
95.01027186215823
 20
136.8286200927978
 30
0.0
 10
95.21583763880484
 20
136.9276235157253
 30
0.0
 10
95.58439477940007
 20
137.1407199296381
 30
0.0
 10
95.74987576213556
 20
137.2556196457678
 30
0.0
 10
96.04230027157067
 20
137.500986544458
 30
0.0
 10
96.16640124819718
 20
137.6294264449284
 30
0.0
 10
96.36598044494687
 20
137.8903185930143
 30
0.0
 10
96.44291403080516
 20
138.0246997643538
 30
0.0
 10
96.54577108932553
 20
138.2940197154601
 30
0.0
 10
96.57124399878464
 20
138.4267009796782
 30
0.0
 10
96.57153440935242
 20
138.6878874538092
 30
0.0
 10
96.54550977557669
 20
138.8176524919739
 30
0.0
 10
96.44336149108467
 20
139.0632351262466
 30
0.0
 10
96.36778504350151
 20
139.1798966635555
 30
0.0
 10
96.1672875123566
 20
139.40180185371
 30
0.0
 10
96.04215867084821
 20
139.5064131076331
 30
0.0
 10
95.75279986982663
 20
139.6964595192411
 30
0.0
 10
95.58738888277115
 20
139.7832191906907
 30
0.0
 10
95.21439832462333
 20
139.9407235664423
 30
0.0
 10
95.01266529153423
 20
140.0090488312296
 30
0.0
 10
94.57980604070637
 20
140.1272785548487
 30
0.0
 10
94.34588750781697
 20
140.1775734709526
 30
0.0
 10
93.86170377267436
 20
140.2574390078422
 30
0.0
 10
93.61238814671887
 20
140.2871801356418
 30
0.0
 10
93.09935562229113
 20
140.32733287715
 30
0.0
 10
92.8340617993865
 20
140.3375311465599
 30
0.0
 10
92.31172717951675
 20
140.3376076049446
 30
0.0
 10
92.05197351703501
 20
140.3278165933356
 30
0.0
 10
91.53536170138977
 20
140.2877497545968
 30
0.0
 10
91.2829956608895
 20
140.25765258774
 30
0.0
 10
90.80147053935667
 20
140.1784303779098
 30
0.0
 10
90.56861980724311
 20
140.1286728984464
 30
0.0
 10
90.13152995880435
 20
140.0095809559961
 30
0.0
 10
89.93020897014716
 20
139.9412656944488
 30
0.0
 10
89.56112294484727
 20
139.7858647275152
 30
0.0
 10
89.39213819379557
 20
139.6977123854483
 30
0.0
 10
89.10168213713636
 20
139.507272996332
 30
0.0
 10
88.97861032577423
 20
139.4046484186329
 30
0.0
 10
88.77727408435221
 20
139.1830080720248
 30
0.0
 10
88.70006153840998
 20
139.0642539964773
 30
0.0
 10
88.59785799550991
 20
138.8195880575596
 30
0.0
 10
88.5716296440576
 20
138.692431332111
 30
0.0
 10
88.57115324474049
 20
138.4279831862555
 30
0.0
 10
88.59689565723845
 20
138.2950825059984
 30
0.0
 10
88.69820643360232
 20
138.0282902325163
 30
0.0
 10
88.77503907299325
 20
137.8929263310477
 30
0.0
 10
88.97544291220844
 20
137.6303465357452
 30
0.0
 10
89.09811441050047
 20
137.5033713759914
 30
0.0
 10
89.3880616996647
 20
137.259291989909
 30
0.0
 10
89.55663267902995
 20
137.1418668651552
 30
0.0
 10
89.92490227314309
 20
136.9286704042067
 30
0.0
 10
90.12596413041342
 20
136.8314962857818
 30
0.0
 10
90.56299504899835
 20
136.6581413985676
 30
0.0
 10
90.79514326212795
 20
136.5837418469109
 30
0.0
 10
91.2761535436268
 20
136.4632889674063
 30
0.0
 10
91.52825362645726
 20
136.4164305921403
 30
0.0
 10
92.04532311271625
 20
136.3534730951565
 30
0.0
 10
92.30684448370887
 20
136.3375694858775
 30
0.0
 10
92.83593516102917
 20
136.3375694858775
 30
0.0
  0
LINE
  5
7F
330
1F
100
AcDbEntity
  8
0
  6
Continuous
 62
     7
370
    15
100
AcDbLine
 10
110.5213895124
 20
81.7183288526
 30
0.0
 11
110.5213895124
 21
131.1286068302
 31
0.0
  0
SPLINE
  5
80
330
1F
100
AcDbEntity
  8
0
  6
Continuous
 62
     7
370
    15
100
AcDbSpline
210
0.0
220
0.0
230
1.0
 70
     8
 71
     3
 72
    10
 73
     6
 74
     0
 42
0.00000001
 43
0.00000001
 40
0.0
 40
0.0
 40
0.0
 40
0.0
 40
0.5
 40
0.5
 40
1.0
 40
1.0
 40
1.0
 40
1.0
 10
110.521389822369
 20
81.71832869050544
 30
0.0
 10
110.521389822369
 20
81.55844142231177
 30
0.0
 10
110.4600801711332
 20
81.39731416679717
 30
0.0
 10
110.2409805335981
 20
81.16321516844233
 30
0.0
 10
110.0829323272846
 20
81.09168839485112
 30
0.0
 10
109.921389822369
 20
81.09168839485112
 30
0.0
  0
SPLINE
  5
81
330
1F
100
AcDbEntity
  8
0
  6
Continuous
 62
     7
370
    15
100
AcDbSpline
210
0.0
220
0.0
230
1.0
 70
    24
 71
     3
 72
    12
 73
     8
 74
     0
 42
0.00000001
 43
0.00000001
 40
0.0
 40
0.0
 40
0.0
 40
0.0
 40
0.2500000000000033
 40
0.2500000000000033
 40
0.5000000000000067
 40
0.5000000000000067
 40
1.0
 40
1.0
 40
1.0
 40
1.0
 10
109.921389822369
 20
131.1286060910983
 30
0.0
 10
110.0116288900561
 20
131.1286060910983
 30
0.0
 10
110.1025270041626
 20
131.1286060910983
 30
0.0
 10
110.2571240406511
 20
131.1286060910983
 30
0.0
 10
110.3221024567592
 20
131.1286060910983
 30
0.0
 10
110.4739374846954
 20
131.1286060910983
 30
0.0
 10
110.521389822369
 20
131.1286060910983
 30
0.0
 10
110.521389822369
 20
131.1286060910983
 30
0.0
  0
LINE
  5
82
330
1F
100
AcDbEntity
  8
0
  6
Continuous
 62
     7
370
    15
100
AcDbLine
 10
109.9213905317
 20
81.0916884583
 30
0.0
 11
105.9633217436
 21
81.0916884583
 31
0.0
  0
LINE
  5
83
330
1F
100
AcDbEntity
  8
0
  6
Continuous
 62
     7
370
    15
100
AcDbLine
 10
105.9633217436
 20
81.0916884583
 30
0.0
 11
105.9633217436
 21
131.1286068302
 31
0.0
  0
LINE
  5
84
330
1F
100
AcDbEntity
  8
0
  6
Continuous
 62
     7
370
    15
100
AcDbLine
 10
105.9633217436
 20
131.1286068302
 30
0.0
 11
109.9213905317
 21
131.1286068302
 31
0.0
  0
LINE
  5
85
330
1F
100
AcDbEntity
  8
0
  6
Continuous
 62
     7
370
    15
100
AcDbLine
 10
100.6613898706
 20
83.7807687711
 30
0.0
 11
100.6613898706
 21
131.1286068302
 31
0.0
  0
SPLINE
  5
86
330
1F
100
AcDbEntity
  8
0
  6
Continuous
 62
     7
370
    15
100
AcDbSpline
210
0.0
220
0.0
230
1.0
 70
     8
 71
     3
 72
     8
 73
     4
 74
     0
 42
0.00000001
 43
0.00000001
 40
0.0
 40
0.0
 40
0.0
 40
0.0
 40
1.0
 40
1.0
 40
1.0
 40
1.0
 10
100.661389822369
 20
83.78076893204342
 30
0.0
 10
100.1690506995878
 20
82.88349889783672
 30
0.0
 10
99.67493665154569
 20
81.98721448278448
 30
0.0
 10
99.17945699087996
 20
81.09168839485112
 30
0.0
  0
SPLINE
  5
87
330
1F
100
AcDbEntity
  8
0
  6
Continuous
 62
     7
370
    15
100
AcDbSpline
210
0.0
220
0.0
230
1.0
 70
    24
 71
     3
 72
     8
 73
     4
 74
     0
 42
0.00000001
 43
0.00000001
 40
0.0
 40
0.0
 40
0.0
 40
0.0
 40
1.0
 40
1.0
 40
1.0
 40
1.0
 10
99.17945699087993
 20
131.1286060910983
 30
0.0
 10
99.68613709903049
 20
131.1286060910983
 30
0.0
 10
100.1814378280041
 20
131.1286060910983
 30
0.0
 10
100.661389822369
 20
131.1286060910983
 30
0.0
  0
LINE
  5
88
330
1F
100
AcDbEntity
  8
0
  6
Continuous
 62
     7
370
    15
100
AcDbLine
 10
84.5713898224
 20
80.0786069375
 30
0.0
 11
84.5713898224
 21
142.4786052447
 31
0.0
  0
SPLINE
  5
89
330
1F
100
AcDbEntity
  8
0
  6
Continuous
 62
     7
370
    15
100
AcDbSpline
210
0.0
220
0.0
230
1.0
 70
     8
 71
     3
 72
     8
 73
     4
 74
     0
 42
0.00000001
 43
0.00000001
 40
0.0
 40
0.0
 40
0.0
 40
0.0
 40
1.0
 40
1.0
 40
1.0
 40
1.0
 10
105.9633226538581
 20
81.09168839485112
 30
0.0
 10
105.4678429931923
 20
81.98721448278448
 30
0.0
 10
104.9737289451502
 20
82.88349889783673
 30
0.0
 10
104.481389822369
 20
83.78076893204343
 30
0.0
  0
LINE
  5
8A
330
1F
100
AcDbEntity
  8
0
  6
Continuous
 62
     7
370
    15
100
AcDbLine
 10
104.481390087
 20
83.7807687711
 30
0.0
 11
104.481390087
 21
131.1286068302
 31
0.0
  0
SPLINE
  5
8B
330
1F
100
AcDbEntity
  8
0
  6
Continuous
 62
     7
370
    15
100
AcDbSpline
210
0.0
220
0.0
230
1.0
 70
    24
 71
     3
 72
     8
 73
     4
 74
     0
 42
0.00000001
 43
0.00000001
 40
0.0
 40
0.0
 40
0.0
 40
0.0
 40
1.0
 40
1.0
 40
1.0
 40
1.0
 10
104.481389822369
 20
131.1286060910983
 30
0.0
 10
104.9613418167339
 20
131.1286060910983
 30
0.0
 10
105.4566425457075
 20
131.1286060910983
 30
0.0
 10
105.9633226538581
 20
131.1286060910983
 30
0.0
  0
ARC
  5
8C
330
1F
100
AcDbEntity
  8
0
  6
Continuous
 62
     7
370
    15
100
AcDbCircle
 10
92.568666043
 20
123.1858250674
 30
0.0
 40
4.11351974033444
100
AcDbArc
 50
19.620683281
 51
159.096392124
  0
SPLINE
  5
8D
330
1F
100
AcDbEntity
  8
0
  6
Continuous
 62
     7
370
    15
100
AcDbSpline
210
0.0
220
0.0
230
1.0
 70
     8
 71
     3
 72
    10
 73
     6
 74
     0
 42
0.00000001
 43
0.00000001
 40
0.0
 40
0.0
 40
0.0
 40
0.0
 40
0.5
 40
0.5
 40
1.0
 40
1.0
 40
1.0
 40
1.0
 10
101.05568735406
 20
137.6786060910983
 30
0.0
 10
100.9341470903914
 20
137.7533322583101
 30
0.0
 10
100.8328127300425
 20
137.8622772742268
 30
0.0
 10
100.6971737871541
 20
138.1127077549884
 30
0.0
 10
100.661389822369
 20
138.2551271170874
 30
0.0
 10
100.661389822369
 20
138.3982599421341
 30
0.0
  0
SPLINE
  5
8E
330
1F
100
AcDbEntity
  8
0
  6
Continuous
 62
     7
370
    15
100
AcDbSpline
210
0.0
220
0.0
230
1.0
 70
    24
 71
     3
 72
    12
 73
     8
 74
     0
 42
0.00000001
 43
0.00000001
 40
0.0
 40
0.0
 40
0.0
 40
0.0
 40
0.2499999999999971
 40
0.2499999999999971
 40
0.4999999999999942
 40
0.4999999999999942
 40
1.0
 40
1.0
 40
1.0
 40
1.0
 10
101.461389822369
 20
137.6786060910983
 30
0.0
 10
101.4115131400516
 20
137.6786060910983
 30
0.0
 10
101.363509946648
 20
137.6786060910983
 30
0.0
 10
101.280461843936
 20
137.6786060910983
 30
0.0
 10
101.2443322644681
 20
137.6786060910983
 30
0.0
 10
101.1484202335239
 20
137.6786060910983
 30
0.0
 10
101.0986615655551
 20
137.6786060910983
 30
0.0
 10
101.05568735406
 20
137.6786060910983
 30
0.0
  0
SPLINE
  5
8F
330
1F
100
AcDbEntity
  8
0
  6
Continuous
 62
     7
370
    15
100
AcDbSpline
210
0.0
220
0.0
230
1.0
 70
    24
 71
     3
 72
    14
 73
    10
 74
     0
 42
0.00000001
 43
0.00000001
 40
0.0
 40
0.0
 40
0.0
 40
0.0
 40
0.1250000000000017
 40
0.1250000000000017
 40
0.2500000000000034
 40
0.2500000000000034
 40
0.5000000000000032
 40
0.5000000000000032
 40
1.0
 40
1.0
 40
1.0
 40
1.0
 10
101.461389822369
 20
84.87860609109829
 30
0.0
 10
101.3929519744826
 20
84.87860609109829
 30
0.0
 10
101.3274019357175
 20
84.87860609109829
 30
0.0
 10
101.2229752963096
 20
84.87860609109829
 30
0.0
 10
101.1804306865481
 20
84.87860609109829
 30
0.0
 10
101.0678212260079
 20
84.87860609109829
 30
0.0
 10
101.0122821789884
 20
84.87860609109828
 30
0.0
 10
100.8696704835246
 20
84.87860609109829
 30
0.0
 10
100.8062651285288
 20
84.87860609109829
 30
0.0
 10
100.7590646247013
 20
84.87860609109829
 30
0.0
  0
SPLINE
  5
90
330
1F
100
AcDbEntity
  8
0
  6
Continuous
 62
     7
370
    15
100
AcDbSpline
210
0.0
220
0.0
230
1.0
 70
     8
 71
     3
 72
    10
 73
     6
 74
     0
 42
0.00000001
 43
0.00000001
 40
0.0
 40
0.0
 40
0.0
 40
0.0
 40
0.5
 40
0.5
 40
1.0
 40
1.0
 40
1.0
 40
1.0
 10
100.661389822369
 20
131.4144727225597
 30
0.0
 10
100.661389822369
 20
131.3667012145664
 30
0.0
 10
100.6635510659662
 20
131.3189914925047
 30
0.0
 10
100.6722224398263
 20
131.2236963749564
 30
0.0
 10
100.6787516227823
 20
131.1760038109898
 30
0.0
 10
100.6875374455291
 20
131.1286060910983
 30
0.0
  0
SPLINE
  5
91
330
1F
100
AcDbEntity
  8
0
  6
Continuous
 62
     7
370
    15
100
AcDbSpline
210
0.0
220
0.0
230
1.0
 70
    24
 71
     3
 72
    14
 73
    10
 74
     0
 42
0.00000001
 43
0.00000001
 40
0.0
 40
0.0
 40
0.0
 40
0.0
 40
0.5
 40
0.5
 40
0.75
 40
0.75
 40
0.875
 40
0.875
 40
1.0
 40
1.0
 40
1.0
 40
1.0
 10
104.3837150200367
 20
84.87860609109829
 30
0.0
 10
104.3369303149885
 20
84.87860609109829
 30
0.0
 10
104.2748791182089
 20
84.87860609109829
 30
0.0
 10
104.1314874796583
 20
84.87860609109828
 30
0.0
 10
104.0753438261071
 20
84.87860609109829
 30
0.0
 10
103.962392803971
 20
84.87860609109828
 30
0.0
 10
103.9193920419328
 20
84.87860609109829
 30
0.0
 10
103.8153293316263
 20
84.87860609109828
 30
0.0
 10
103.7499970932694
 20
84.87860609109828
 30
0.0
 10
103.681389822369
 20
84.87860609109829
 30
0.0
  0
SPLINE
  5
92
330
1F
100
AcDbEntity
  8
0
  6
Continuous
 62
     7
370
    15
100
AcDbSpline
210
0.0
220
0.0
230
1.0
 70
    24
 71
     3
 72
    12
 73
     8
 74
     0
 42
0.00000001
 43
0.00000001
 40
0.0
 40
0.0
 40
0.0
 40
0.0
 40
0.5000000000000074
 40
0.5000000000000074
 40
0.7500000000000037
 40
0.7500000000000037
 40
1.0
 40
1.0
 40
1.0
 40
1.0
 10
104.087092290678
 20
137.6786060910983
 30
0.0
 10
104.0440067410671
 20
137.6786060910983
 30
0.0
 10
103.9948545393178
 20
137.6786060910983
 30
0.0
 10
103.8983819450299
 20
137.6786060910983
 30
0.0
 10
103.8622803598953
 20
137.6786060910983
 30
0.0
 10
103.779174602034
 20
137.6786060910983
 30
0.0
 10
103.7311780050677
 20
137.6786060910983
 30
0.0
 10
103.681389822369
 20
137.6786060910983
 30
0.0
  0
SPLINE
  5
93
330
1F
100
AcDbEntity
  8
0
  6
Continuous
 62
     7
370
    15
100
AcDbSpline
210
0.0
220
0.0
230
1.0
 70
     8
 71
     3
 72
    10
 73
     6
 74
     0
 42
0.00000001
 43
0.00000001
 40
0.0
 40
0.0
 40
0.0
 40
0.0
 40
0.5
 40
0.5
 40
1.0
 40
1.0
 40
1.0
 40
1.0
 10
104.481389822369
 20
138.3982599421341
 30
0.0
 10
104.481389822369
 20
138.2544898843161
 30
0.0
 10
104.4453407636501
 20
138.1120705218209
 30
0.0
 10
104.3098319028761
 20
137.8621762284637
 30
0.0
 10
104.2099559097799
 20
137.7541458922155
 30
0.0
 10
104.087092290678
 20
137.6786060910983
 30
0.0
  0
SPLINE
  5
94
330
1F
100
AcDbEntity
  8
0
  6
Continuous
 62
     7
370
    15
100
AcDbSpline
210
0.0
220
0.0
230
1.0
 70
     8
 71
     3
 72
    10
 73
     6
 74
     0
 42
0.00000001
 43
0.00000001
 40
0.0
 40
0.0
 40
0.0
 40
0.0
 40
0.5
 40
0.5
 40
1.0
 40
1.0
 40
1.0
 40
1.0
 10
104.4552421992089
 20
131.1286060910983
 30
0.0
 10
104.4639318421205
 20
131.1754849404165
 30
0.0
 10
104.4704709068711
 20
131.2229074058178
 30
0.0
 10
104.4792295412641
 20
131.3188442044046
 30
0.0
 10
104.481389822369
 20
131.3667594924151
 30
0.0
 10
104.481389822369
 20
131.4144727225597
 30
0.0
  0
LINE
  5
95
330
1F
100
AcDbEntity
  8
0
  6
Continuous
 62
     7
370
    15
100
AcDbLine
 10
103.6813895834
 20
137.678605948
 30
0.0
 11
101.4613903743
 21
137.678605948
 31
0.0
  0
LINE
  5
96
330
1F
100
AcDbEntity
  8
0
  6
Continuous
 62
     7
370
    15
100
AcDbLine
 10
103.6813895834
 20
84.8786062341
 30
0.0
 11
101.4613903743
 21
84.8786062341
 31
0.0
  0
LINE
  5
97
330
1F
100
AcDbEntity
  8
0
  6
Continuous
 62
     7
370
    15
100
AcDbLine
 10
82.5713897274
 20
87.0581748676
 30
0.0
 11
82.5713897274
 21
135.4990373146
 31
0.0
  0
LINE
  5
98
330
1F
100
AcDbEntity
  8
0
  6
Continuous
 62
     7
370
    15
100
AcDbLine
 10
62.7713896018
 20
88.0501600694
 30
0.0
 11
62.7713896018
 21
89.3148681861
 31
0.0
  0
SPLINE
  5
99
330
1F
100
AcDbEntity
  8
0
  6
Continuous
 62
     7
370
    15
100
AcDbSpline
210
0.0
220
0.0
230
1.0
 70
     8
 71
     3
 72
    14
 73
    10
 74
     0
 42
0.00000001
 43
0.00000001
 40
0.0
 40
0.0
 40
0.0
 40
0.0
 40
0.25
 40
0.25
 40
0.5
 40
0.5
 40
0.75
 40
0.75
 40
1.0
 40
1.0
 40
1.0
 40
1.0
 10
61.99310270445329
 20
90.44545476753834
 30
0.0
 10
62.04972937965537
 20
90.33775731370147
 30
0.0
 10
62.1442520399451
 20
90.23496773198215
 30
0.0
 10
62.32729701550733
 20
90.036610419762
 30
0.0
 10
62.41892359246206
 20
89.94055091108376
 30
0.0
 10
62.57777691015526
 20
89.75302186837452
 30
0.0
 10
62.64566751777695
 20
89.66161289559096
 30
0.0
 10
62.74258454348454
 20
89.48323667468081
 30
0.0
 10
62.7713898223696
 20
89.39601476843463
 30
0.0
 10
62.77138982236958
 20
89.31486855990036
 30
0.0
  0
SPLINE
  5
9A
330
1F
100
AcDbEntity
  8
0
  6
Continuous
 62
     7
370
    15
100
AcDbSpline
210
0.0
220
0.0
230
1.0
 70
     8
 71
     3
 72
    14
 73
    10
 74
     0
 42
0.00000001
 43
0.00000001
 40
0.0
 40
0.0
 40
0.0
 40
0.0
 40
0.125
 40
0.125
 40
0.25
 40
0.25
 40
0.5
 40
0.5
 40
1.0
 40
1.0
 40
1.0
 40
1.0
 10
61.37138982236902
 20
90.89213662981766
 30
0.0
 10
61.41993423102618
 20
90.89788494309795
 30
0.0
 10
61.47284958581109
 20
90.8947840544417
 30
0.0
 10
61.56814493079413
 20
90.87258921027939
 30
0.0
 10
61.60839592807908
 20
90.85535698318351
 30
0.0
 10
61.71266594159204
 20
90.79902906673146
 30
0.0
 10
61.76298791674538
 20
90.75484272078566
 30
0.0
 10
61.89067086427075
 20
90.62383482193503
 30
0.0
 10
61.94675631133302
 20
90.53360030170474
 30
0.0
 10
61.99310270445476
 20
90.44545476753886
 30
0.0
  0
SPLINE
  5
9B
330
1F
100
AcDbEntity
  8
0
  6
Continuous
 62
     7
370
    15
100
AcDbSpline
210
0.0
220
0.0
230
1.0
 70
     8
 71
     3
 72
     8
 73
     4
 74
     0
 42
0.00000001
 43
0.00000001
 40
0.0
 40
0.0
 40
0.0
 40
0.0
 40
1.0
 40
1.0
 40
1.0
 40
1.0
 10
59.10286472942275
 20
90.58229134323486
 30
0.0
 10
59.83744175590572
 20
90.70091635430381
 30
0.0
 10
60.60091682530139
 20
90.8009022264401
 30
0.0
 10
61.37138982236902
 20
90.89213662981766
 30
0.0
  0
SPLINE
  5
9C
330
1F
100
AcDbEntity
  8
0
  6
Continuous
 62
     7
370
    15
100
AcDbSpline
210
0.0
220
0.0
230
1.0
 70
     8
 71
     3
 72
    14
 73
    10
 74
     0
 42
0.00000001
 43
0.00000001
 40
0.0
 40
0.0
 40
0.0
 40
0.0
 40
0.5000000000000002
 40
0.5000000000000002
 40
0.7500000000000002
 40
0.7500000000000002
 40
0.8750000000000001
 40
0.8750000000000001
 40
1.0
 40
1.0
 40
1.0
 40
1.0
 10
53.82138982236902
 20
90.40866832570322
 30
0.0
 10
54.71353595292258
 20
90.40794609950257
 30
0.0
 10
55.60351238871616
 20
90.41253230596003
 30
0.0
 10
56.93010755579175
 20
90.44025731035156
 30
0.0
 10
57.37095448429049
 20
90.45286384797573
 30
0.0
 10
58.02739472171291
 20
90.48387999598317
 30
0.0
 10
58.24540837830479
 20
90.49622316860996
 30
0.0
 10
58.67811723198754
 20
90.52924722377323
 30
0.0
 10
58.89339369715236
 20
90.54846438891168
 30
0.0
 10
59.10286472942275
 20
90.58229134323486
 30
0.0
  0
SPLINE
  5
9D
330
1F
100
AcDbEntity
  8
0
  6
Continuous
 62
     7
370
    15
100
AcDbSpline
210
0.0
220
0.0
230
1.0
 70
     8
 71
     3
 72
     8
 73
     4
 74
     0
 42
0.00000001
 43
0.00000001
 40
0.0000005163856712
 40
0.0000005163856712
 40
0.0000005163856712
 40
0.0000005163856712
 40
0.000026289209185
 40
0.000026289209185
 40
0.000026289209185
 40
0.000026289209185
 10
53.81134489195033
 20
90.41865219881107
 30
0.0
 10
53.81467263016181
 20
90.41531795193826
 30
0.0
 10
53.8180210831411
 20
90.41198999465924
 30
0.0
 10
53.82138982236899
 20
90.4086683257032
 30
0.0
  0
SPLINE
  5
9E
330
1F
100
AcDbEntity
  8
0
  6
Continuous
 62
     7
370
    15
100
AcDbSpline
210
0.0
220
0.0
230
1.0
 70
     8
 71
     3
 72
     8
 73
     4
 74
     0
 42
0.00000001
 43
0.00000001
 40
0.0000005099763573
 40
0.0000005099763573
 40
0.0000005099763573
 40
0.0000005099763573
 40
0.0000262827998699
 40
0.0000262827998699
 40
0.0000262827998699
 40
0.0000262827998699
 10
53.82138982236901
 20
132.1485438564933
 30
0.0
 10
53.81802108314127
 20
132.1452221875375
 30
0.0
 10
53.81467263016212
 20
132.1418942302586
 30
0.0
 10
53.8113448919508
 20
132.1385599833859
 30
0.0
  0
SPLINE
  5
9F
330
1F
100
AcDbEntity
  8
0
  6
Continuous
 62
     7
370
    15
100
AcDbSpline
210
0.0
220
0.0
230
1.0
 70
     8
 71
     3
 72
    10
 73
     6
 74
     0
 42
0.00000001
 43
0.00000001
 40
0.0
 40
0.0
 40
0.0
 40
0.0
 40
0.5
 40
0.5
 40
1.0
 40
1.0
 40
1.0
 40
1.0
 10
57.37138982236903
 20
132.101693482926
 30
0.0
 10
56.78380427527843
 20
132.1227590031625
 30
0.0
 10
56.19305788181804
 20
132.1335174890347
 30
0.0
 10
55.00903871651919
 20
132.1468822695703
 30
0.0
 10
54.41562472831372
 20
132.1490249122349
 30
0.0
 10
53.82138982236902
 20
132.1485438564933
 30
0.0
  0
SPLINE
  5
A0
330
1F
100
AcDbEntity
  8
0
  6
Continuous
 62
     7
370
    15
100
AcDbSpline
210
0.0
220
0.0
230
1.0
 70
     8
 71
     3
 72
    18
 73
    14
 74
     0
 42
0.00000001
 43
0.00000001
 40
0.0
 40
0.0
 40
0.0
 40
0.0
 40
0.2500000000000008
 40
0.2500000000000008
 40
0.5000000000000009
 40
0.5000000000000009
 40
0.7500000000000009
 40
0.7500000000000009
 40
0.875000000000001
 40
0.875000000000001
 40
0.9375000000000006
 40
0.9375000000000006
 40
1.0
 40
1.0
 40
1.0
 40
1.0
 10
58.77138982236903
 20
133.1227137634613
 30
0.0
 10
58.77138982236904
 20
133.0395068546041
 30
0.0
 10
58.73554072243077
 20
132.9507701992905
 30
0.0
 10
58.61066898639685
 20
132.7686450087303
 30
0.0
 10
58.52026856874898
 20
132.6735149601037
 30
0.0
 10
58.29802591400679
 20
132.4843334509793
 30
0.0
 10
58.16826112756102
 20
132.3893882828846
 30
0.0
 10
57.92762367024952
 20
132.2511095753047
 30
0.0
 10
57.83985637211209
 20
132.2053991420023
 30
0.0
 10
57.68533228490524
 20
132.1475758367808
 30
0.0
 10
57.6287213988505
 20
132.129861072743
 30
0.0
 10
57.5046773679439
 20
132.10532176951
 30
0.0
 10
57.43696269292561
 20
132.0993426309718
 30
0.0
 10
57.37138982236902
 20
132.101693482926
 30
0.0
  0
LINE
  5
A1
330
1F
100
AcDbEntity
  8
0
  6
Continuous
 62
     7
370
    15
100
AcDbLine
 10
58.7713889462
 20
133.1227137488
 30
0.0
 11
58.7713889462
 21
134.3066519838
 31
0.0
  0
SPLINE
  5
A2
330
1F
100
AcDbEntity
  8
0
  6
Continuous
 62
     7
370
    15
100
AcDbSpline
210
0.0
220
0.0
230
1.0
 70
     8
 71
     3
 72
    18
 73
    14
 74
     0
 42
0.00000001
 43
0.00000001
 40
0.0
 40
0.0
 40
0.0
 40
0.0
 40
0.001067142096085
 40
0.1270947925777493
 40
0.2524053537361832
 40
0.3766468838452861
 40
0.4391416358858051
 40
0.5008278334298175
 40
0.5624255844801763
 40
0.6253162510714301
 40
0.7499985254815132
 40
0.8752758926324193
 40
1.0
 40
1.0
 40
1.0
 40
1.0
 10
71.34169094831267
 20
87.6212673973603
 30
0.0
 10
71.34077887302995
 20
87.62115222946825
 30
0.0
 10
71.23215227184943
 20
87.60743593113851
 30
0.0
 10
71.61983374389216
 20
87.65842219252015
 30
0.0
 10
72.48578220400172
 20
87.75797922839466
 30
0.0
 10
73.68618999772453
 20
87.82710985801374
 30
0.0
 10
74.74376554758226
 20
87.83106055828048
 30
0.0
 10
75.57089991170551
 20
87.80357369035623
 30
0.0
 10
76.39617154775335
 20
87.74503120154392
 30
0.0
 10
77.45053675486214
 20
87.63151259958421
 30
0.0
 10
78.61237296111557
 20
87.44835844375068
 30
0.0
 10
79.5646076817887
 20
87.24375829508453
 30
0.0
 10
79.69031278449734
 20
87.21447162507542
 30
0.0
 10
79.75302624151627
 20
87.19986069615314
 30
0.0
  0
SPLINE
  5
A3
330
1F
100
AcDbEntity
  8
0
  6
Continuous
 62
     7
370
    15
100
AcDbSpline
210
0.0
220
0.0
230
1.0
 70
     8
 71
     3
 72
    18
 73
    14
 74
     0
 42
0.00000001
 43
0.00000001
 40
0.0
 40
0.0
 40
0.0
 40
0.0
 40
0.1248907819469273
 40
0.2505384063477967
 40
0.3748721756041158
 40
0.4374907331267689
 40
0.4990776026247599
 40
0.5607931145009658
 40
0.6233901196104445
 40
0.7478191009174896
 40
0.8731941046696081
 40
0.9991614615322162
 40
0.9999999999999999
 40
0.9999999999999999
 40
0.9999999999999999
 40
0.9999999999999999
 10
79.75280738071123
 20
135.3572862934632
 30
0.0
 10
79.68906654874353
 20
135.3426248272362
 30
0.0
 10
79.56119861316397
 20
135.3132130457902
 30
0.0
 10
78.60919977657544
 20
135.1082590864326
 30
0.0
 10
77.4486557057228
 20
134.9249978245689
 30
0.0
 10
76.39639193405944
 20
134.8119672701939
 30
0.0
 10
75.57216463504116
 20
134.7537064627212
 30
0.0
 10
74.74456088971648
 20
134.7262593265991
 30
0.0
 10
73.68574356002225
 20
134.7302441204737
 30
0.0
 10
72.48352382039641
 20
134.7993369049696
 30
0.0
 10
71.61834304939751
 20
134.8989456421568
 30
0.0
 10
71.23219430175983
 20
134.9498032478001
 30
0.0
 10
71.34027217412344
 20
134.9361024403767
 30
0.0
 10
71.34098686844627
 20
134.9360118400617
 30
0.0
  0
SPLINE
  5
A4
330
1F
100
AcDbEntity
  8
0
  6
Continuous
 62
     7
370
    15
100
AcDbSpline
210
0.0
220
0.0
230
1.0
 70
     8
 71
     3
 72
     9
 73
     5
 74
     0
 42
0.00000001
 43
0.00000001
 40
0.0
 40
0.0
 40
0.0
 40
0.0
 40
0.7009339503679092
 40
0.9999999999999999
 40
0.9999999999999999
 40
0.9999999999999999
 40
0.9999999999999999
 10
52.6921733897976
 20
91.57732639129588
 30
0.0
 10
52.70131406074744
 20
91.55949710753498
 30
0.0
 10
52.71435476300625
 20
91.53406063987418
 30
0.0
 10
52.72951822627453
 20
91.58793999934774
 30
0.0
 10
52.73405310333291
 20
91.6040534865422
 30
0.0
  0
LINE
  5
A5
330
1F
100
AcDbEntity
  8
0
  6
Continuous
 62
     7
370
    15
100
AcDbLine
 10
52.6713899952
 20
91.5879285675
 30
0.0
 11
52.6713899952
 21
130.9692836147
 31
0.0
  0
SPLINE
  5
A6
330
1F
100
AcDbEntity
  8
0
  6
Continuous
 62
     7
370
    15
100
AcDbSpline
210
0.0
220
0.0
230
1.0
 70
     8
 71
     3
 72
    10
 73
     6
 74
     0
 42
0.00000001
 43
0.00000001
 40
0.0
 40
0.0
 40
0.0
 40
0.0
 40
0.5
 40
0.5
 40
1.0
 40
1.0
 40
1.0
 40
1.0
 10
52.73405319709243
 20
130.953158635879
 30
0.0
 10
52.72514890798366
 20
130.9989001550922
 30
0.0
 10
52.70863352779067
 20
131.0160909945612
 30
0.0
 10
52.68152558172906
 20
131.0157677176255
 30
0.0
 10
52.67138982236902
 20
130.997890175329
 30
0.0
 10
52.67138982236902
 20
130.9692838375764
 30
0.0
  0
SPLINE
  5
A7
330
1F
100
AcDbEntity
  8
0
  6
Continuous
 62
     7
370
    15
100
AcDbSpline
210
0.0
220
0.0
230
1.0
 70
     8
 71
     3
 72
    26
 73
    22
 74
     0
 42
0.00000001
 43
0.00000001
 40
0.0
 40
0.0
 40
0.0
 40
0.0
 40
0.2500000000000165
 40
0.2500000000000165
 40
0.3750000000000256
 40
0.3750000000000256
 40
0.4375000000000291
 40
0.4375000000000291
 40
0.4687500000000291
 40
0.4687500000000291
 40
0.5000000000000292
 40
0.5000000000000292
 40
0.5312500000000293
 40
0.5312500000000293
 40
0.5625000000000293
 40
0.5625000000000293
 40
0.625000000000026
 40
0.625000000000026
 40
0.7500000000000173
 40
0.7500000000000173
 40
1.0
 40
1.0
 40
1.0
 40
1.0
 10
53.49554346847353
 20
131.6687254246961
 30
0.0
 10
53.45694294560506
 20
131.5509507283407
 30
0.0
 10
53.4106459430508
 20
131.4265610421787
 30
0.0
 10
53.31670659461687
 20
131.2213417098253
 30
0.0
 10
53.28139512770341
 20
131.1497688433788
 30
0.0
 10
53.21521515195774
 20
131.0338156107784
 30
0.0
 10
53.19067678528952
 20
130.9932310759681
 30
0.0
 10
53.14730403973572
 20
130.9290893940964
 30
0.0
 10
53.13179563831053
 20
130.9072229688114
 30
0.0
 10
53.09675299372349
 20
130.8616287004681
 30
0.0
 10
53.07720270300373
 20
130.8379584095007
 30
0.0
 10
53.03527542263311
 20
130.7933418501608
 30
0.0
 10
53.01262331240147
 20
130.7724618376429
 30
0.0
 10
52.97164959831485
 20
130.741588423892
 30
0.0
 10
52.95405029841943
 20
130.7317495540596
 30
0.0
 10
52.90942331256328
 20
130.7127599383635
 30
0.0
 10
52.88886408990995
 20
130.7124356137101
 30
0.0
 10
52.83773865041327
 20
130.7216590545862
 30
0.0
 10
52.81682723742473
 20
130.7429059508032
 30
0.0
 10
52.7653773298638
 20
130.816874829634
 30
0.0
 10
52.74771203055925
 20
130.8829929229487
 30
0.0
 10
52.73405319709243
 20
130.953158635879
 30
0.0
  0
SPLINE
  5
A8
330
1F
100
AcDbEntity
  8
0
  6
Continuous
 62
     7
370
    15
100
AcDbSpline
210
0.0
220
0.0
230
1.0
 70
     8
 71
     3
 72
    10
 73
     6
 74
     0
 42
0.00000001
 43
0.00000001
 40
0.0
 40
0.0
 40
0.0
 40
0.0
 40
0.5
 40
0.5
 40
1.0
 40
1.0
 40
1.0
 40
1.0
 10
53.81134489195083
 20
132.1385599833859
 30
0.0
 10
53.74378563703258
 20
132.0708685905762
 30
0.0
 10
53.68014898169609
 20
131.9961614258225
 30
0.0
 10
53.56992822712421
 20
131.8371952933959
 30
0.0
 10
53.5231119339016
 20
131.7528400273879
 30
0.0
 10
53.49554346847351
 20
131.6687254246961
 30
0.0
  0
SPLINE
  5
A9
330
1F
100
AcDbEntity
  8
0
  6
Continuous
 62
     7
370
    15
100
AcDbSpline
210
0.0
220
0.0
230
1.0
 70
     8
 71
     3
 72
    10
 73
     6
 74
     0
 42
0.00000001
 43
0.00000001
 40
0.0
 40
0.0
 40
0.0
 40
0.0
 40
0.5
 40
0.5
 40
1.0
 40
1.0
 40
1.0
 40
1.0
 10
53.49554346847357
 20
90.88848675750032
 30
0.0
 10
53.52302088322677
 20
90.80464996103473
 30
0.0
 10
53.56972951351444
 20
90.7203394734479
 30
0.0
 10
53.68000797625638
 20
90.56121824296504
 30
0.0
 10
53.74389551486802
 20
90.48623349887696
 30
0.0
 10
53.81134489195036
 20
90.41865219881107
 30
0.0
  0
SPLINE
  5
AA
330
1F
100
AcDbEntity
  8
0
  6
Continuous
 62
     7
370
    15
100
AcDbSpline
210
0.0
220
0.0
230
1.0
 70
     8
 71
     3
 72
    24
 73
    20
 74
     0
 42
0.00000001
 43
0.00000001
 40
0.0
 40
0.0
 40
0.0
 40
0.0
 40
0.2499999999999952
 40
0.2499999999999952
 40
0.3749999999999937
 40
0.3749999999999937
 40
0.4374999999999931
 40
0.4374999999999931
 40
0.468749999999992
 40
0.468749999999992
 40
0.4999999999999909
 40
0.4999999999999909
 40
0.5624999999999933
 40
0.5624999999999933
 40
0.6249999999999958
 40
0.6249999999999958
 40
0.7499999999999981
 40
0.7499999999999981
 40
1.0
 40
1.0
 40
1.0
 40
1.0
 10
52.73405319709243
 20
91.60405354631754
 30
0.0
 10
52.74780631576265
 20
91.67470360430782
 30
0.0
 10
52.7655788831685
 20
91.74130171707276
 30
0.0
 10
52.81782997472387
 20
91.81539973730594
 30
0.0
 10
52.83886505030541
 20
91.83665754446751
 30
0.0
 10
52.89176545793386
 20
91.84480347061375
 30
0.0
 10
52.91287113081177
 20
91.84386366721799
 30
0.0
 10
52.95892329948973
 20
91.82284767564066
 30
0.0
 10
52.97729377147311
 20
91.81193886953304
 30
0.0
 10
53.01884540653882
 20
91.77930395858567
 30
0.0
 10
53.04141207929575
 20
91.7578119782143
 30
0.0
 10
53.10419309575578
 20
91.68934603462799
 30
0.0
 10
53.13732285672365
 20
91.6432715764229
 30
0.0
 10
53.19424054320868
 20
91.55826368808823
 30
0.0
 10
53.21842656871244
 20
91.51798338690683
 30
0.0
 10
53.28363451909221
 20
91.40304716044089
 30
0.0
 10
53.31835057928345
 20
91.3324641752939
 30
0.0
 10
53.41156584961435
 20
91.12825841621529
 30
0.0
 10
53.45723838497501
 20
91.00536003388791
 30
0.0
 10
53.49554346847356
 20
90.88848675750033
 30
0.0
  0
SPLINE
  5
AB
330
1F
100
AcDbEntity
  8
0
  6
Continuous
 62
     7
370
    15
100
AcDbSpline
210
0.0
220
0.0
230
1.0
 70
     8
 71
     3
 72
     8
 73
     4
 74
     0
 42
0.00000001
 43
0.00000001
 40
0.0
 40
0.0
 40
0.0
 40
0.0
 40
1.0
 40
1.0
 40
1.0
 40
1.0
 10
99.17945699087996
 20
135.7372957534657
 30
0.0
 10
99.68654383263923
 20
134.6061453993021
 30
0.0
 10
100.1821116717792
 20
133.4697609885342
 30
0.0
 10
100.661389822369
 20
132.3287497586816
 30
0.0
  0
LINE
  5
AC
330
1F
100
AcDbEntity
  8
0
  6
Continuous
 62
     7
370
    15
100
AcDbLine
 10
100.6613898706
 20
132.328750078
 30
0.0
 11
100.6613898706
 21
131.4144725692
 31
0.0
  0
SPLINE
  5
AD
330
1F
100
AcDbEntity
  8
0
  6
Continuous
 62
     7
370
    15
100
AcDbSpline
210
0.0
220
0.0
230
1.0
 70
     8
 71
     3
 72
    10
 73
     6
 74
     0
 42
0.00000001
 43
0.00000001
 40
0.0
 40
0.0
 40
0.0
 40
0.0
 40
0.5
 40
0.5
 40
1.0
 40
1.0
 40
1.0
 40
1.0
 10
110.521389822369
 20
141.1250464148622
 30
0.0
 10
110.521389822369
 20
141.285451681213
 30
0.0
 10
110.4591519912622
 20
141.4445134942016
 30
0.0
 10
110.2400170675196
 20
141.6754259598319
 30
0.0
 10
110.0824283725277
 20
141.7458015642625
 30
0.0
 10
109.921389822369
 20
141.7458015642625
 30
0.0
  0
SPLINE
  5
AE
330
1F
100
AcDbEntity
  8
0
  6
Continuous
 62
     7
370
    15
100
AcDbSpline
210
0.0
220
0.0
230
1.0
 70
     8
 71
     3
 72
    12
 73
     8
 74
     0
 42
0.00000001
 43
0.00000001
 40
0.0
 40
0.0
 40
0.0
 40
0.0
 40
0.25
 40
0.25
 40
0.5
 40
0.5
 40
1.0
 40
1.0
 40
1.0
 40
1.0
 10
109.921389822369
 20
135.7372957534657
 30
0.0
 10
110.0125895441947
 20
135.7372957534657
 30
0.0
 10
110.1031845533307
 20
135.7090760548778
 30
0.0
 10
110.2565972797773
 20
135.6146330476298
 30
0.0
 10
110.321806147101
 20
135.5483460709244
 30
0.0
 10
110.474590676441
 20
135.3227212476361
 30
0.0
 10
110.521389822369
 20
135.1402949846036
 30
0.0
 10
110.521389822369
 20
134.9595583523567
 30
0.0
  0
LINE
  5
AF
330
1F
100
AcDbEntity
  8
0
  6
Continuous
 62
     7
370
    15
100
AcDbLine
 10
110.5213895124
 20
134.9595575374
 30
0.0
 11
110.5213895124
 21
141.1250470918
 31
0.0
  0
LINE
  5
B0
330
1F
100
AcDbEntity
  8
0
  6
Continuous
 62
     7
370
    15
100
AcDbLine
 10
109.9213905317
 20
141.7458015275
 30
0.0
 11
105.9633217436
 21
141.7458015275
 31
0.0
  0
LINE
  5
B1
330
1F
100
AcDbEntity
  8
0
  6
Continuous
 62
     7
370
    15
100
AcDbLine
 10
105.9633217436
 20
135.7372957062
 30
0.0
 11
109.9213905317
 21
135.7372957062
 31
0.0
  0
LINE
  5
B2
330
1F
100
AcDbEntity
  8
0
  6
Continuous
 62
     7
370
    15
100
AcDbLine
 10
105.9633217436
 20
135.7372957062
 30
0.0
 11
105.9633217436
 21
141.7458015275
 31
0.0
  0
SPLINE
  5
B3
330
1F
100
AcDbEntity
  8
0
  6
Continuous
 62
     7
370
    15
100
AcDbSpline
210
0.0
220
0.0
230
1.0
 70
     8
 71
     3
 72
     8
 73
     4
 74
     0
 42
0.00000001
 43
0.00000001
 40
0.0
 40
0.0
 40
0.0
 40
0.0
 40
1.0
 40
1.0
 40
1.0
 40
1.0
 10
105.9633226538581
 20
141.7458015642625
 30
0.0
 10
105.4681826244937
 20
140.8591219160823
 30
0.0
 10
104.9740999192148
 20
139.9718592803963
 30
0.0
 10
104.481389822369
 20
139.0838402822699
 30
0.0
  0
SPLINE
  5
B4
330
1F
100
AcDbEntity
  8
0
  6
Continuous
 62
     7
370
    15
100
AcDbSpline
210
0.0
220
0.0
230
1.0
 70
     8
 71
     3
 72
     8
 73
     4
 74
     0
 42
0.00000001
 43
0.00000001
 40
0.0
 40
0.0
 40
0.0
 40
0.0
 40
1.0
 40
1.0
 40
1.0
 40
1.0
 10
104.481389822369
 20
132.3287497586816
 30
0.0
 10
104.9606679729589
 20
133.4697609885342
 30
0.0
 10
105.4562358120988
 20
134.6061453993021
 30
0.0
 10
105.9633226538581
 20
135.7372957534657
 30
0.0
  0
LINE
  5
B5
330
1F
100
AcDbEntity
  8
0
  6
Continuous
 62
     7
370
    15
100
AcDbLine
 10
104.481390087
 20
132.328750078
 30
0.0
 11
104.481390087
 21
139.0838394653
 31
0.0
  0
SPLINE
  5
B6
330
1F
100
AcDbEntity
  8
0
  6
Continuous
 62
     7
370
    15
100
AcDbSpline
210
0.0
220
0.0
230
1.0
 70
     8
 71
     3
 72
     8
 73
     4
 74
     0
 42
0.00000001
 43
0.00000001
 40
0.0
 40
0.0
 40
0.0
 40
0.0
 40
1.0
 40
1.0
 40
1.0
 40
1.0
 10
100.661389822369
 20
139.0838402822699
 30
0.0
 10
100.1686797255233
 20
139.9718592803963
 30
0.0
 10
99.67459702024428
 20
140.8591219160823
 30
0.0
 10
99.17945699087996
 20
141.7458015642625
 30
0.0
  0
LINE
  5
B7
330
1F
100
AcDbEntity
  8
0
  6
Continuous
 62
     7
370
    15
100
AcDbLine
 10
100.6613898706
 20
132.328750078
 30
0.0
 11
100.6613898706
 21
139.0838394653
 31
0.0
  0
LINE
  5
B8
330
1F
100
AcDbEntity
  8
0
  6
Continuous
 62
     7
370
    15
100
AcDbLine
 10
104.481390087
 20
131.4144725692
 30
0.0
 11
104.481390087
 21
132.328750078
 31
0.0
  0
LINE
  5
B9
330
1F
100
AcDbEntity
  8
0
  6
Continuous
 62
     7
370
    15
100
AcDbLine
 10
110.5213895124
 20
134.9595575374
 30
0.0
 11
110.5213895124
 21
131.1286068302
 31
0.0
  0
ARC
  5
BA
330
1F
100
AcDbEntity
  8
0
  6
Continuous
 62
     7
370
    15
100
AcDbCircle
 10
92.5712536111
 20
130.039170352
 30
0.0
 40
7.197556098821915
100
AcDbArc
 50
70.7482971842
 51
109.2067721816
  0
LINE
  5
BB
330
1F
100
AcDbEntity
  8
0
  6
Continuous
 62
     7
370
    15
100
AcDbLine
 10
155.5213913006
 20
97.7786057409
 30
0.0
 11
155.5213913006
 21
124.7786064413
 31
0.0
  0
SPLINE
  5
BC
330
1F
100
AcDbEntity
  8
0
  6
Continuous
 62
     7
370
    15
100
AcDbSpline
210
0.0
220
0.0
230
1.0
 70
     8
 71
     3
 72
    58
 73
    54
 74
     0
 42
0.00000001
 43
0.00000001
 40
-0.0312500000000002
 40
-0.0312500000000002
 40
0.0
 40
0.0
 40
0.0624999999999999
 40
0.0624999999999999
 40
0.1249999999999998
 40
0.1249999999999998
 40
0.1874999999999997
 40
0.1874999999999997
 40
0.2499999999999996
 40
0.2499999999999996
 40
0.2812499999999996
 40
0.2812499999999996
 40
0.3124999999999995
 40
0.3124999999999995
 40
0.3437499999999994
 40
0.3437499999999994
 40
0.3749999999999994
 40
0.3749999999999994
 40
0.4062499999999994
 40
0.4062499999999994
 40
0.4374999999999993
 40
0.4374999999999993
 40
0.4687499999999993
 40
0.4687499999999993
 40
0.4999999999999992
 40
0.4999999999999992
 40
0.5624999999999976
 40
0.5624999999999976
 40
0.5937499999999978
 40
0.5937499999999978
 40
0.6249999999999979
 40
0.6249999999999979
 40
0.6562499999999981
 40
0.6562499999999981
 40
0.6874999999999982
 40
0.6874999999999982
 40
0.7499999999999987
 40
0.7499999999999987
 40
0.7812499999999988
 40
0.7812499999999988
 40
0.812499999999999
 40
0.812499999999999
 40
0.8437499999999991
 40
0.8437499999999991
 40
0.8749999999999993
 40
0.8749999999999993
 40
0.9062499999999994
 40
0.9062499999999994
 40
0.9374999999999997
 40
0.9374999999999997
 40
0.9687499999999998
 40
0.9687499999999998
 40
1.0
 40
1.0
 40
1.0625
 40
1.0625
 10
144.0332549772948
 20
113.3427579049988
 30
0.0
 10
144.5424099193641
 20
113.7235566941084
 30
0.0
 10
144.9179471059936
 20
113.9101167498389
 30
0.0
 10
145.7277031257829
 20
114.1625632403129
 30
0.0
 10
146.1450463605842
 20
114.2224546349362
 30
0.0
 10
146.993995732563
 20
114.2124257018753
 30
0.0
 10
147.4073588360212
 20
114.1432688114414
 30
0.0
 10
148.2111774894271
 20
113.8713673184288
 30
0.0
 10
148.580450330386
 20
113.6761362590531
 30
0.0
 10
149.0773196548245
 20
113.2835722578088
 30
0.0
 10
149.2304461634309
 20
113.1374223771744
 30
0.0
 10
149.5023037109172
 20
112.8188692657359
 30
0.0
 10
149.62355560098
 20
112.6430250658487
 30
0.0
 10
149.8208721173025
 20
112.2705798070111
 30
0.0
 10
149.8967596932036
 20
112.0758028816269
 30
0.0
 10
149.998981444799
 20
111.6675325827817
 30
0.0
 10
150.0242632798654
 20
111.4528595159338
 30
0.0
 10
150.0179771092726
 20
111.0321734850001
 30
0.0
 10
149.9867028535894
 20
110.8198162222874
 30
0.0
 10
149.8720083892949
 20
110.4119296096171
 30
0.0
 10
149.7899354854499
 20
110.2177672277343
 30
0.0
 10
149.5801498632393
 20
109.8473906183954
 30
0.0
 10
149.4558446843163
 20
109.6772057808828
 30
0.0
 10
149.1742138667558
 20
109.3636453193523
 30
0.0
 10
149.0160600594251
 20
109.2201563300232
 30
0.0
 10
148.5123063001685
 20
108.8410135513554
 30
0.0
 10
148.127742816722
 20
108.6487711466645
 30
0.0
 10
147.5257918478826
 20
108.459965790775
 30
0.0
 10
147.3182849368297
 20
108.4126913629598
 30
0.0
 10
146.8985454265022
 20
108.35141463609
 30
0.0
 10
146.6884653367182
 20
108.3374867930303
 30
0.0
 10
146.2678975445432
 20
108.341946873099
 30
0.0
 10
146.0562883700351
 20
108.3605304338546
 30
0.0
 10
145.63761330211
 20
108.4310577369877
 30
0.0
 10
145.43373452312
 20
108.4822697282894
 30
0.0
 10
144.8382372107104
 20
108.6833948095777
 30
0.0
 10
144.4571380763251
 20
108.8849636118931
 30
0.0
 10
143.9664445896159
 20
109.2729694331596
 30
0.0
 10
143.8147911275052
 20
109.4170090233809
 30
0.0
 10
143.5392176048506
 20
109.7397188103743
 30
0.0
 10
143.4192846492911
 20
109.9141122829044
 30
0.0
 10
143.222071474879
 20
110.2862833981507
 30
0.0
 10
143.1438930343254
 20
110.4876104418252
 30
0.0
 10
143.0426857264225
 20
110.8964906690407
 30
0.0
 10
143.0180609304003
 20
111.1060958751086
 30
0.0
 10
143.0254349064809
 20
111.5342978315389
 30
0.0
 10
143.0571748031649
 20
111.7431026463899
 30
0.0
 10
143.1728651847071
 20
112.1508767246413
 30
0.0
 10
143.2572704531112
 20
112.3485103670047
 30
0.0
 10
143.4663511715282
 20
112.7150910350082
 30
0.0
 10
143.5932743420722
 20
112.8881043241145
 30
0.0
 10
143.8762528288945
 20
113.201032637844
 30
0.0
 10
144.0332549772948
 20
113.3427579049988
 30
0.0
 10
144.5424099193641
 20
113.7235566941084
 30
0.0
  0
SPLINE
  5
BD
330
1F
100
AcDbEntity
  8
0
  6
Continuous
 62
     7
370
    15
100
AcDbSpline
210
0.0
220
0.0
230
1.0
 70
     8
 71
     3
 72
     9
 73
     5
 74
     0
 42
0.00000001
 43
0.00000001
 40
0.0
 40
0.0
 40
0.0
 40
0.0
 40
0.752353727521873
 40
1.0
 40
1.0
 40
1.0
 40
1.0
 10
144.2029721719078
 20
97.95760221447179
 30
0.0
 10
144.1310159228343
 20
97.94870977402907
 30
0.0
 10
144.0353744094858
 20
97.93689027993018
 30
0.0
 10
143.9546911906272
 20
97.92524117023032
 30
0.0
 10
143.9347102922253
 20
97.92235631163547
 30
0.0
  0
SPLINE
  5
BE
330
1F
100
AcDbEntity
  8
0
  6
Continuous
 62
     7
370
    15
100
AcDbSpline
210
0.0
220
0.0
230
1.0
 70
     8
 71
     3
 72
    40
 73
    36
 74
     0
 42
0.00000001
 43
0.00000001
 40
0.0
 40
0.0
 40
0.0
 40
0.0
 40
0.0040479124135096
 40
0.0262942488234626
 40
0.0459117790369953
 40
0.0857838010292077
 40
0.1060688193704959
 40
0.1264633894288295
 40
0.1678024128859417
 40
0.1887641566832991
 40
0.2121601347382458
 40
0.2595512740729298
 40
0.2835654778998645
 40
0.3110387470334957
 40
0.3667364994106375
 40
0.3949974968531924
 40
0.4258926458832757
 40
0.4886421899321821
 40
0.5205593693476063
 40
0.5528993262927142
 40
0.5854634367925107
 40
0.6187431239610917
 40
0.6522766573691696
 40
0.6843212060613814
 40
0.7166111243012767
 40
0.7497283525066423
 40
0.7831595602095605
 40
0.8070152464812635
 40
0.8554501396108642
 40
0.8801138609579799
 40
0.9039770534289997
 40
0.9527596801369791
 40
0.9777981307863448
 40
0.9983882925001555
 40
1.0
 40
1.0
 40
1.0
 40
1.0
 10
143.0247820597939
 20
97.7792111005945
 30
0.0
 10
143.0236267310443
 20
97.77900496026002
 30
0.0
 10
143.0161219981076
 20
97.7776659230741
 30
0.0
 10
143.0341404328343
 20
97.78088740491332
 30
0.0
 10
143.0724241377768
 20
97.78769806512722
 30
0.0
 10
143.1469895724646
 20
97.8008152260132
 30
0.0
 10
143.2506419629352
 20
97.81849879882957
 30
0.0
 10
143.375817252241
 20
97.83935876345276
 30
0.0
 10
143.5296537412766
 20
97.86398690764285
 30
0.0
 10
143.7130238482258
 20
97.89159930379334
 30
0.0
 10
143.9260680590872
 20
97.92218188030175
 30
0.0
 10
144.1712041411909
 20
97.95441438038509
 30
0.0
 10
144.4469366219735
 20
97.98653011848805
 30
0.0
 10
144.759900492005
 20
98.0195011964095
 30
0.0
 10
145.1059277322298
 20
98.04940786646185
 30
0.0
 10
145.4763763873701
 20
98.07338300303175
 30
0.0
 10
145.8779732366752
 20
98.09316023337811
 30
0.0
 10
146.3020131517358
 20
98.10330437126053
 30
0.0
 10
146.7316158774568
 20
98.10218671595383
 30
0.0
 10
147.0578246442
 20
98.09553075583709
 30
0.0
 10
147.3848810362398
 20
98.08302604418697
 30
0.0
 10
147.7097457436687
 20
98.06487156474468
 30
0.0
 10
148.0241896275845
 20
98.04185561506551
 30
0.0
 10
148.3244590534202
 20
98.0150188028408
 30
0.0
 10
148.6102107658921
 20
97.98518669836969
 30
0.0
 10
148.8835615587025
 20
97.95276149531253
 30
0.0
 10
149.1153571578725
 20
97.9221840866119
 30
0.0
 10
149.3645075565376
 20
97.88680169663925
 30
0.0
 10
149.5651457892642
 20
97.8558313584142
 30
0.0
 10
149.7300813989742
 20
97.82891288051798
 30
0.0
 10
149.8691586974409
 20
97.80548923230744
 30
0.0
 10
149.9687590352586
 20
97.7879908314795
 30
0.0
 10
150.0100844988044
 20
97.78062745623232
 30
0.0
 10
150.0269133031551
 20
97.77762100099125
 30
0.0
 10
150.0204765154831
 20
97.77876919050884
 30
0.0
 10
150.0200092476658
 20
97.77885254140327
 30
0.0
  0
LINE
  5
BF
330
1F
100
AcDbEntity
  8
0
  6
Continuous
 62
     7
370
    15
100
AcDbLine
 10
144.2029721719
 20
124.5996099677
 30
0.0
 11
144.3517639917
 21
124.5822342825
 31
0.0
  0
SPLINE
  5
C0
330
1F
100
AcDbEntity
  8
0
  6
Continuous
 62
     7
370
    15
100
AcDbSpline
210
0.0
220
0.0
230
1.0
 70
     8
 71
     3
 72
    37
 73
    33
 74
     0
 42
0.00000001
 43
0.00000001
 40
0.0
 40
0.0
 40
0.0
 40
0.0
 40
0.0283360602624041
 40
0.0502893513602313
 40
0.0698507652317371
 40
0.1095666660831411
 40
0.1297454447432172
 40
0.1508470565205863
 40
0.1936026294128514
 40
0.2152735906706806
 40
0.2398338352358383
 40
0.289587064651963
 40
0.314803513900208
 40
0.3434524396300173
 40
0.4015624584713688
 40
0.4310678378482274
 40
0.4626098534529383
 40
0.5267059629289033
 40
0.559330452292874
 40
0.5917586721529065
 40
0.6244160542010514
 40
0.6578161144198108
 40
0.6914823724735317
 40
0.7230430451145452
 40
0.7874712429276686
 40
0.8205003095261556
 40
0.8428788466784561
 40
0.8883211427755913
 40
0.9114626912926059
 40
0.9338477202472014
 40
0.9795606493513156
 40
1.0
 40
1.0
 40
1.0
 40
1.0
 10
150.0125735682301
 20
124.7770315748019
 30
0.0
 10
150.0131366398768
 20
124.7771296432284
 30
0.0
 10
150.0141359498591
 20
124.7773036899206
 30
0.0
 10
149.9718549668451
 20
124.7697840255572
 30
0.0
 10
149.9049855530179
 20
124.7580317211714
 30
0.0
 10
149.8075138097703
 20
124.7412285261705
 30
0.0
 10
149.6809400285475
 20
124.7202258041792
 30
0.0
 10
149.5311155385269
 20
124.6960846093769
 30
0.0
 10
149.351817361345
 20
124.6686343311299
 30
0.0
 10
149.1425039641019
 20
124.6388816787508
 30
0.0
 10
148.9006518343296
 20
124.6064818540442
 30
0.0
 10
148.6258050405171
 20
124.5734939706539
 30
0.0
 10
148.3209886158416
 20
124.5420792627478
 30
0.0
 10
147.9787577030181
 20
124.5110704422228
 30
0.0
 10
147.6050047672279
 20
124.4850711511771
 30
0.0
 10
147.211202953159
 20
124.466949177686
 30
0.0
 10
146.7918117600347
 20
124.4545683429072
 30
0.0
 10
146.3560839607993
 20
124.4532594501307
 30
0.0
 10
145.921875662464
 20
124.4636435312988
 30
0.0
 10
145.5974044804123
 20
124.4771612242355
 30
0.0
 10
145.2768896768615
 20
124.4960792401247
 30
0.0
 10
144.9614728762694
 20
124.5200525260744
 30
0.0
 10
144.6612650240194
 20
124.5478036111608
 30
0.0
 10
144.2854681759135
 20
124.5881593609368
 30
0.0
 10
143.9431440691006
 20
124.6322253834003
 30
0.0
 10
143.6687304758329
 20
124.6720895019109
 30
0.0
 10
143.4617827567092
 20
124.7038750174791
 30
0.0
 10
143.3041314373977
 20
124.7296468176111
 30
0.0
 10
143.1821016663812
 20
124.7503801969749
 30
0.0
 10
143.0858662572686
 20
124.7670906583342
 30
0.0
 10
143.0281567294948
 20
124.7773954595852
 30
0.0
 10
143.0239763507268
 20
124.7781434363873
 30
0.0
 10
143.0226847213558
 20
124.7783745419545
 30
0.0
  0
SPLINE
  5
C1
330
1F
100
AcDbEntity
  8
0
  6
Continuous
 62
     7
370
    15
100
AcDbSpline
210
0.0
220
0.0
230
1.0
 70
     8
 71
     3
 72
     9
 73
     5
 74
     0
 42
0.00000001
 43
0.00000001
 40
0.0
 40
0.0
 40
0.0
 40
0.0
 40
0.3788333439180508
 40
1.0
 40
1.0
 40
1.0
 40
1.0
 10
143.9231246393971
 20
124.6365154873891
 30
0.0
 10
143.9558197046526
 20
124.6318600132323
 30
0.0
 10
144.0421243179619
 20
124.6195710364792
 30
0.0
 10
144.1413416645206
 20
124.607258256248
 30
0.0
 10
144.2029721719078
 20
124.5996099677248
 30
0.0
  0
CIRCLE
  5
C2
330
1F
100
AcDbEntity
  8
0
  6
Continuous
 62
     7
370
    15
100
AcDbCircle
 10
146.5213898224
 20
111.2786060911
 30
0.0
 40
2.5
  0
LINE
  5
C3
330
1F
100
AcDbEntity
  8
0
  6
Continuous
 62
     7
370
    15
100
AcDbLine
 10
244.5713862461
 20
113.2786061861
 30
0.0
 11
244.5713862461
 21
109.2786059961
 31
0.0
  0
ELLIPSE
  5
C4
330
1F
100
AcDbEntity
  8
0
  6
Continuous
 62
     7
370
    15
100
AcDbEllipse
 10
268.3713898224
 20
111.2786060911
 30
0.0
 11
30.80000000000001
 21
0.0
 31
0.0
210
0.0
220
0.0
230
1.0
 40
0.3571428571
 41
2.958757516596884
 42
3.32442779058274
  0
LINE
  5
C5
330
1F
100
AcDbEntity
  8
0
  6
Continuous
 62
     7
370
    15
100
AcDbLine
 10
226.9713863415
 20
100.2786061507
 30
0.0
 11
226.9713863415
 21
122.2786060315
 31
0.0
  0
LINE
  5
C6
330
1F
100
AcDbEntity
  8
0
  6
Continuous
 62
     7
370
    15
100
AcDbLine
 10
226.1713877004
 20
101.078605723
 30
0.0
 11
226.1713877004
 21
121.4786064592
 31
0.0
  0
ELLIPSE
  5
C7
330
1F
100
AcDbEntity
  8
0
  6
Continuous
 62
     7
370
    15
100
AcDbEllipse
 10
268.3713898224
 20
111.2786060911
 30
0.0
 11
30.75879161510397
 21
-9.79794714490923
 31
0.0
210
0.0
220
0.0
230
1.0
 40
0.1625559039
 41
3.010492089676338
 42
3.376162363662233
  0
LINE
  5
C8
330
1F
100
AcDbEntity
  8
0
  6
Continuous
 62
     7
370
    15
100
AcDbLine
 10
244.0713926834
 20
119.6461026337
 30
0.0
 11
238.0847617668
 21
119.6461026337
 31
0.0
  0
LINE
  5
C9
330
1F
100
AcDbEntity
  8
0
  6
Continuous
 62
     7
370
    15
100
AcDbLine
 10
244.0713926834
 20
113.2786061861
 30
0.0
 11
244.0713926834
 21
119.6461026337
 31
0.0
  0
LINE
  5
CA
330
1F
100
AcDbEntity
  8
0
  6
Continuous
 62
     7
370
    15
100
AcDbLine
 10
244.0713926834
 20
113.2786061861
 30
0.0
 11
238.0847617668
 21
113.2786061861
 31
0.0
  0
LINE
  5
CB
330
1F
100
AcDbEntity
  8
0
  6
Continuous
 62
     7
370
    15
100
AcDbLine
 10
244.0713926834
 20
109.2786059961
 30
0.0
 11
238.0847617668
 21
109.2786059961
 31
0.0
  0
LINE
  5
CC
330
1F
100
AcDbEntity
  8
0
  6
Continuous
 62
     7
370
    15
100
AcDbLine
 10
244.0713926834
 20
102.9111095485
 30
0.0
 11
244.0713926834
 21
109.2786059961
 31
0.0
  0
LINE
  5
CD
330
1F
100
AcDbEntity
  8
0
  6
Continuous
 62
     7
370
    15
100
AcDbLine
 10
244.0713926834
 20
102.9111095485
 30
0.0
 11
238.0847617668
 21
102.9111095485
 31
0.0
  0
ELLIPSE
  5
CE
330
1F
100
AcDbEntity
  8
0
  6
Continuous
 62
     7
370
    15
100
AcDbEllipse
 10
268.3713898224
 20
111.2786060911
 30
0.0
 11
30.75879161510402
 21
9.797947144909298
 31
0.0
210
0.0
220
0.0
230
1.0
 40
0.1625559039
 41
2.907022943517434
 42
3.272693217503333
  0
LINE
  5
CF
330
1F
100
AcDbEntity
  8
0
  6
Continuous
 62
     7
370
    15
100
AcDbLine
 10
244.0713926834
 20
100.9111092206
 30
0.0
 11
238.0847617668
 21
100.9111092206
 31
0.0
  0
LINE
  5
D0
330
1F
100
AcDbEntity
  8
0
  6
Continuous
 62
     7
370
    15
100
AcDbLine
 10
244.0713926834
 20
100.2786061507
 30
0.0
 11
244.0713926834
 21
100.9111092206
 31
0.0
  0
LINE
  5
D1
330
1F
100
AcDbEntity
  8
0
  6
Continuous
 62
     7
370
    15
100
AcDbLine
 10
244.0713926834
 20
121.6461029616
 30
0.0
 11
244.0713926834
 21
122.2786060315
 31
0.0
  0
LINE
  5
D2
330
1F
100
AcDbEntity
  8
0
  6
Continuous
 62
     7
370
    15
100
AcDbLine
 10
244.0713926834
 20
121.6461029616
 30
0.0
 11
238.0847617668
 21
121.6461029616
 31
0.0
  0
LINE
  5
D3
330
1F
100
AcDbEntity
  8
0
  6
Continuous
 62
     7
370
    15
100
AcDbLine
 10
244.5713862461
 20
103.351820704
 30
0.0
 11
244.5713862461
 21
109.2786059961
 31
0.0
  0
LINE
  5
D4
330
1F
100
AcDbEntity
  8
0
  6
Continuous
 62
     7
370
    15
100
AcDbLine
 10
244.5713862461
 20
103.351820704
 30
0.0
 11
244.0713926834
 21
102.9111095485
 31
0.0
  0
LINE
  5
D5
330
1F
100
AcDbEntity
  8
0
  6
Continuous
 62
     7
370
    15
100
AcDbLine
 10
244.5713862461
 20
109.2786059961
 30
0.0
 11
244.0713926834
 21
109.2786059961
 31
0.0
  0
LINE
  5
D6
330
1F
100
AcDbEntity
  8
0
  6
Continuous
 62
     7
370
    15
100
AcDbLine
 10
244.5713862461
 20
113.2786061861
 30
0.0
 11
244.0713926834
 21
113.2786061861
 31
0.0
  0
LINE
  5
D7
330
1F
100
AcDbEntity
  8
0
  6
Continuous
 62
     7
370
    15
100
AcDbLine
 10
244.5713862461
 20
119.2053914782
 30
0.0
 11
244.0713926834
 21
119.6461026337
 31
0.0
  0
LINE
  5
D8
330
1F
100
AcDbEntity
  8
0
  6
Continuous
 62
     7
370
    15
100
AcDbLine
 10
244.5713862461
 20
113.2786061861
 30
0.0
 11
244.5713862461
 21
119.2053914782
 31
0.0
  0
LINE
  5
D9
330
1F
100
AcDbEntity
  8
0
  6
Continuous
 62
     7
370
    15
100
AcDbLine
 10
238.0847617668
 20
121.6461029616
 30
0.0
 11
244.5713862461
 21
119.6398217943
 31
0.0
  0
LINE
  5
DA
330
1F
100
AcDbEntity
  8
0
  6
Continuous
 62
     7
370
    15
100
AcDbLine
 10
244.5713862461
 20
119.6398217943
 30
0.0
 11
244.5713862461
 21
119.2053914782
 31
0.0
  0
LINE
  5
DB
330
1F
100
AcDbEntity
  8
0
  6
Continuous
 62
     7
370
    15
100
AcDbLine
 10
238.0847617668
 20
100.9111092206
 30
0.0
 11
244.5713862461
 21
102.9173903879
 31
0.0
  0
LINE
  5
DC
330
1F
100
AcDbEntity
  8
0
  6
Continuous
 62
     7
370
    15
100
AcDbLine
 10
244.5713862461
 20
103.351820704
 30
0.0
 11
244.5713862461
 21
102.9173903879
 31
0.0
  0
LINE
  5
DD
330
1F
100
AcDbEntity
  8
0
  6
Continuous
 62
     7
370
    15
100
AcDbLine
 10
244.5713862461
 20
121.205391806
 30
0.0
 11
244.0713926834
 21
121.6461029616
 31
0.0
  0
LINE
  5
DE
330
1F
100
AcDbEntity
  8
0
  6
Continuous
 62
     7
370
    15
100
AcDbLine
 10
244.5713862461
 20
119.6398217943
 30
0.0
 11
244.5713862461
 21
121.205391806
 31
0.0
  0
LINE
  5
DF
330
1F
100
AcDbEntity
  8
0
  6
Continuous
 62
     7
370
    15
100
AcDbLine
 10
244.5713862461
 20
121.205391806
 30
0.0
 11
244.5713862461
 21
121.7786059495
 31
0.0
  0
LINE
  5
E0
330
1F
100
AcDbEntity
  8
0
  6
Continuous
 62
     7
370
    15
100
AcDbLine
 10
244.5713862461
 20
101.3518203762
 30
0.0
 11
244.0713926834
 21
100.9111092206
 31
0.0
  0
LINE
  5
E1
330
1F
100
AcDbEntity
  8
0
  6
Continuous
 62
     7
370
    15
100
AcDbLine
 10
244.5713862461
 20
102.9173903879
 30
0.0
 11
244.5713862461
 21
101.3518203762
 31
0.0
  0
LINE
  5
E2
330
1F
100
AcDbEntity
  8
0
  6
Continuous
 62
     7
370
    15
100
AcDbLine
 10
244.5713862461
 20
100.7786062327
 30
0.0
 11
244.5713862461
 21
101.3518203762
 31
0.0
  0
LINE
  5
E3
330
1F
100
AcDbEntity
  8
0
  6
HIDDEN
 62
     7
370
     0
100
AcDbLine
 10
99.1794572827
 20
135.7372957062
 30
0.0
 11
99.1794572827
 21
131.1286068302
 31
0.0
  0
ARC
  5
E4
330
1F
100
AcDbEntity
  8
0
  6
HIDDEN
 62
     7
370
     0
100
AcDbCircle
 10
92.8523630581
 20
123.7750603299
 30
0.0
 40
3.677289218141747
100
AcDbArc
 50
265.6178958577
 51
12.4383908852
  0
ARC
  5
E5
330
1F
100
AcDbEntity
  8
0
  6
HIDDEN
 62
     7
370
     0
100
AcDbCircle
 10
92.2872997527
 20
123.7674812837
 30
0.0
 40
3.66997238852038
100
AcDbArc
 50
166.0291549965
 51
274.4396747729
  0
LINE
  5
E6
330
1F
100
AcDbEntity
  8
0
  6
HIDDEN
 62
     7
370
     0
100
AcDbLine
 10
72.5665403214
 20
87.7540069413
 30
0.0
 11
72.0323942286
 21
87.6993923229
 31
0.0
  0
LINE
  5
E7
330
1F
100
AcDbEntity
  8
0
  6
HIDDEN
 62
     7
370
     0
100
AcDbLine
 10
71.7947411966
 20
134.8819392514
 30
0.0
 11
72.5664471892
 21
134.8031884771
 31
0.0
  0
SPLINE
  5
E8
330
1F
100
AcDbEntity
  8
0
  6
HIDDEN
 62
     7
370
     0
100
AcDbSpline
210
0.0
220
0.0
230
1.0
 70
     8
 71
     3
 72
    12
 73
     8
 74
     0
 42
0.00000001
 43
0.00000001
 40
0.0
 40
0.0
 40
0.0
 40
0.0
 40
0.2208160780363722
 40
0.4480844952931958
 40
0.6689350254617065
 40
0.8961260746717999
 40
1.0
 40
1.0
 40
1.0
 40
1.0
 10
78.32639186278502
 20
131.1161345582767
 30
0.0
 10
78.45843516176002
 20
131.1331916219453
 30
0.0
 10
78.72638012076942
 20
131.1678041638991
 30
0.0
 10
79.02153538889277
 20
131.1947746669069
 30
0.0
 10
79.22262908135762
 20
131.2102868960239
 30
0.0
 10
79.31996122609509
 20
131.2163972564074
 30
0.0
 10
79.31130202370579
 20
131.2158498065276
 30
0.0
 10
79.30858513907114
 20
131.2156780403419
 30
0.0
  0
SPLINE
  5
E9
330
1F
100
AcDbEntity
  8
0
  6
HIDDEN
 62
     7
370
     0
100
AcDbSpline
210
0.0
220
0.0
230
1.0
 70
     8
 71
     3
 72
    12
 73
     8
 74
     0
 42
0.00000001
 43
0.00000001
 40
0.0
 40
0.0
 40
0.0
 40
0.0
 40
0.1180926159875947
 40
0.3464868845152984
 40
0.5687513915619303
 40
0.7975140448969327
 40
1.0
 40
1.0
 40
1.0
 40
1.0
 10
79.30858513907114
 20
91.34153414185474
 30
0.0
 10
79.3107075667825
 20
91.34139994484835
 30
0.0
 10
79.31693482628697
 20
91.34100620725293
 30
0.0
 10
79.21227021910434
 20
91.3476280182884
 30
0.0
 10
79.00229725739914
 20
91.3640340728826
 30
0.0
 10
78.70683852663065
 20
91.39163564640214
 30
0.0
 10
78.44794923163691
 20
91.42528030653213
 30
0.0
 10
78.32639186278502
 20
91.44107762391994
 30
0.0
  0
SPLINE
  5
EA
330
1F
100
AcDbEntity
  8
0
  6
HIDDEN
 62
     7
370
     0
100
AcDbSpline
210
0.0
220
0.0
230
1.0
 70
     8
 71
     3
 72
    22
 73
    18
 74
     0
 42
0.00000001
 43
0.00000001
 40
0.0
 40
0.0
 40
0.0
 40
0.0
 40
0.0694705205686055
 40
0.1409377331649949
 40
0.2104135932234474
 40
0.2819466554347119
 40
0.3506518590239928
 40
0.4213898075947659
 40
0.4894670079785227
 40
0.559481139205132
 40
0.6282707070598401
 40
0.6989997640116924
 40
0.7687375463058662
 40
0.8405098058647738
 40
0.9099666327908917
 40
0.9814998906941905
 40
1.0
 40
1.0
 40
1.0
 40
1.0
 10
78.32639186278502
 20
91.44107762391994
 30
0.0
 10
78.17821795005597
 20
91.46080375082457
 30
0.0
 10
77.87761137329083
 20
91.50082296454728
 30
0.0
 10
77.34271639473398
 20
91.5561959565682
 30
0.0
 10
76.7570779318833
 20
91.60065505374196
 30
0.0
 10
76.14284523532422
 20
91.62833917749009
 30
0.0
 10
75.50892863813039
 20
91.63659174262779
 30
0.0
 10
74.88678002272472
 20
91.62461081237932
 30
0.0
 10
74.28078232828886
 20
91.59386294107344
 30
0.0
 10
73.7162933129229
 20
91.54839391723364
 30
0.0
 10
73.19691736854487
 20
91.492313005387
 30
0.0
 10
72.74405154949214
 20
91.43232436058285
 30
0.0
 10
72.36533670206433
 20
91.37434382470241
 30
0.0
 10
72.0772520072592
 20
91.3254240535667
 30
0.0
 10
71.8947928749508
 20
91.29238881647983
 30
0.0
 10
71.8141363903513
 20
91.27725004103893
 30
0.0
 10
71.82842558040772
 20
91.2799220084837
 30
0.0
 10
71.831361731594
 20
91.2804710459275
 30
0.0
  0
SPLINE
  5
EB
330
1F
100
AcDbEntity
  8
0
  6
HIDDEN
 62
     7
370
     0
100
AcDbSpline
210
0.0
220
0.0
230
1.0
 70
     8
 71
     3
 72
    22
 73
    18
 74
     0
 42
0.00000001
 43
0.00000001
 40
0.0
 40
0.0
 40
0.0
 40
0.0
 40
0.0499040264366858
 40
0.120307606233534
 40
0.1885125575187676
 40
0.2586444383709652
 40
0.3277839293783175
 40
0.3988873421999256
 40
0.4686969862694503
 40
0.5405663562233802
 40
0.6097088194995841
 40
0.6809159464843816
 40
0.7490773455562517
 40
0.8192056025505766
 40
0.8876078267004751
 40
0.9579332920453139
 40
1.0
 40
1.0
 40
1.0
 40
1.0
 10
71.831361731594
 20
131.2767411362691
 30
0.0
 10
71.83261257407898
 20
131.2765023700391
 30
0.0
 10
71.83562807955796
 20
131.2759267572954
 30
0.0
 10
71.96052256815531
 20
131.252728501363
 30
0.0
 10
72.1850038940883
 20
131.2130472305367
 30
0.0
 10
72.50403238591495
 20
131.1608354617344
 30
0.0
 10
72.91156708705005
 20
131.1015082878898
 30
0.0
 10
73.3933541258357
 20
131.0420318404142
 30
0.0
 10
73.94377362677761
 20
130.9884244902653
 30
0.0
 10
74.53666850964416
 20
130.947951466033
 30
0.0
 10
75.16362098918206
 20
130.9247535340139
 30
0.0
 10
75.79183200175157
 20
130.9217745912442
 30
0.0
 10
76.4160920309798
 20
130.9389091157617
 30
0.0
 10
77.00871039598728
 20
130.9735942400011
 30
0.0
 10
77.56553623889491
 20
131.0225510916544
 30
0.0
 10
78.00334343262297
 20
131.0724514192054
 30
0.0
 10
78.23840997494212
 20
131.1042375029637
 30
0.0
 10
78.32639186278502
 20
131.1161345582767
 30
0.0
  0
LINE
  5
EC
330
1F
100
AcDbEntity
  8
0
  6
HIDDEN
 62
     7
370
     0
100
AcDbLine
 10
65.5753653181
 20
94.2786051672
 30
0.0
 11
65.5753653181
 21
128.278607015
 31
0.0
  0
LWPOLYLINE
  5
ED
330
1F
100
AcDbEntity
  8
0
  6
HIDDEN
 62
     7
370
     0
100
AcDbPolyline
 90
       12
 70
   128
 43
0.0
 10
92.5713902023
 20
133.224209283
 10
93.4938531053
 20
133.2781179589
 10
94.3665861768
 20
133.4369438481
 10
95.1425399315
 20
133.692118783
 10
95.7798821536
 20
134.0298908543
 10
96.2442544904
 20
134.4320489806
 10
96.5106211287
 20
134.8769119721
 10
96.5646220055
 20
135.3404982727
 10
96.4033476692
 20
135.7978149098
 10
96.0354910848
 20
136.224207912
 10
95.4808847663
 20
136.5966922384
 10
94.9444224742
 20
136.8342335116
  0
LWPOLYLINE
  5
EE
330
1F
100
AcDbEntity
  8
0
  6
HIDDEN
 62
     7
370
     0
100
AcDbPolyline
 90
       12
 70
   128
 43
0.0
 10
90.2034140807
 20
136.8360924315
 10
89.6618951728
 20
136.5966922384
 10
89.1072883886
 20
136.224207912
 10
88.7394318041
 20
135.7978149098
 10
88.5781570022
 20
135.3404982727
 10
88.6321588104
 20
134.8769119721
 10
88.8985254486
 20
134.4320489806
 10
89.3628968541
 20
134.0298908543
 10
90.0002395418
 20
133.692118783
 10
90.7761932966
 20
133.4369438481
 10
91.6489263681
 20
133.2781179589
 10
92.5713902023
 20
133.224209283
  0
SPLINE
  5
EF
330
1F
100
AcDbEntity
  8
0
  6
HIDDEN
 62
     7
370
     0
100
AcDbSpline
210
0.0
220
0.0
230
1.0
 70
     8
 71
     3
 72
     8
 73
     4
 74
     0
 42
0.00000001
 43
0.00000001
 40
0.0
 40
0.0
 40
0.0
 40
0.0
 40
0.0011559732291307
 40
0.0011559732291307
 40
0.0011559732291307
 40
0.0011559732291307
 10
52.67138982236901
 20
113.2784467097249
 30
0.0
 10
53.00472439743632
 20
113.2744794299254
 30
0.0
 10
53.33805558846308
 20
113.2702995473545
 30
0.0
 10
53.67138982236902
 20
113.2657343939464
 30
0.0
  0
SPLINE
  5
F0
330
1F
100
AcDbEntity
  8
0
  6
HIDDEN
 62
     7
370
     0
100
AcDbSpline
210
0.0
220
0.0
230
1.0
 70
     8
 71
     3
 72
     8
 73
     4
 74
     0
 42
0.00000001
 43
0.00000001
 40
0.0
 40
0.0
 40
0.0
 40
0.0
 40
0.0011564765856722
 40
0.0011564765856722
 40
0.0011564765856722
 40
0.0011564765856722
 10
53.67138982236902
 20
109.2819057888811
 30
0.0
 10
53.33808189180017
 20
109.2810306332982
 30
0.0
 10
53.00474665940796
 20
109.2799757820469
 30
0.0
 10
52.67138982236902
 20
109.2788046950097
 30
0.0
  0
LINE
  5
F1
330
1F
100
AcDbEntity
  8
0
  6
HIDDEN
 62
     7
370
     0
100
AcDbLine
 10
92.2312157844
 20
94.2786051672
 30
0.0
 11
92.2312157844
 21
128.278607015
 31
0.0
  0
LINE
  5
F2
330
1F
100
AcDbEntity
  8
0
  6
HIDDEN
 62
     7
370
     0
100
AcDbLine
 10
94.5213896838
 20
95.553606261
 30
0.0
 11
94.5213896838
 21
127.0036059212
 31
0.0
  0
SPLINE
  5
F3
330
1F
100
AcDbEntity
  8
0
  6
HIDDEN
 62
     7
370
     0
100
AcDbSpline
210
0.0
220
0.0
230
1.0
 70
     8
 71
     3
 72
    16
 73
    12
 74
     0
 42
0.00000001
 43
0.00000001
 40
0.0
 40
0.0
 40
0.0
 40
0.0
 40
0.124999999999998
 40
0.124999999999998
 40
0.249999999999996
 40
0.249999999999996
 40
0.4999999999999973
 40
0.4999999999999973
 40
0.7499999999999987
 40
0.7499999999999987
 40
1.0
 40
1.0
 40
1.0
 40
1.0
 10
61.37138982236902
 20
95.47711565506663
 30
0.0
 10
61.46651157703484
 20
95.47711565506663
 30
0.0
 10
61.55984164576292
 20
95.47329982167382
 30
0.0
 10
61.74310340650092
 20
95.45852926894402
 30
0.0
 10
61.83398112205793
 20
95.44737122096844
 30
0.0
 10
62.09078281957767
 20
95.40489995082672
 30
0.0
 10
62.24585018444967
 20
95.36385375362391
 30
0.0
 10
62.49959664600429
 20
95.26870763704203
 30
0.0
 10
62.60046709767214
 20
95.21394490296045
 30
0.0
 10
62.73571351236698
 20
95.10268377905656
 30
0.0
 10
62.77138982236902
 20
95.04551404172788
 30
0.0
 10
62.77138982236902
 20
94.99109246869416
 30
0.0
  0
SPLINE
  5
F4
330
1F
100
AcDbEntity
  8
0
  6
HIDDEN
 62
     7
370
     0
100
AcDbSpline
210
0.0
220
0.0
230
1.0
 70
     8
 71
     3
 72
     8
 73
     4
 74
     0
 42
0.00000001
 43
0.00000001
 40
0.0
 40
0.0
 40
0.0
 40
0.0
 40
1.0
 40
1.0
 40
1.0
 40
1.0
 10
53.97138982246125
 20
97.62191860114886
 30
0.0
 10
53.97138982246316
 20
96.73802145883194
 30
0.0
 10
53.95790919655263
 20
96.02343821376999
 30
0.0
 10
53.95655782836153
 20
95.47711565506663
 30
0.0
  0
LINE
  5
F5
330
1F
100
AcDbEntity
  8
0
  6
HIDDEN
 62
     7
370
     0
100
AcDbLine
 10
53.6713901591
 20
101.677779552
 30
0.0
 11
53.6713901591
 21
98.6468284171
 31
0.0
  0
LINE
  5
F6
330
1F
100
AcDbEntity
  8
0
  6
HIDDEN
 62
     7
370
     0
100
AcDbLine
 10
53.9713896495
 20
114.8832398247
 30
0.0
 11
53.9713896495
 21
103.0456195366
 31
0.0
  0
SPLINE
  5
F7
330
1F
100
AcDbEntity
  8
0
  6
HIDDEN
 62
     7
370
     0
100
AcDbSpline
210
0.0
220
0.0
230
1.0
 70
     8
 71
     3
 72
     8
 73
     4
 74
     0
 42
0.00000001
 43
0.00000001
 40
0.0
 40
0.0
 40
0.0
 40
0.0
 40
1.0
 40
1.0
 40
1.0
 40
1.0
 10
53.67138982236902
 20
120.8855454046037
 30
0.0
 10
53.85242128710777
 20
120.4534379211292
 30
0.0
 10
53.97138982246111
 20
119.9992925174804
 30
0.0
 10
53.97138982245542
 20
119.5115924667102
 30
0.0
  0
LINE
  5
F8
330
1F
100
AcDbEntity
  8
0
  6
HIDDEN
 62
     7
370
     0
100
AcDbLine
 10
53.6713901591
 20
123.9187479731
 30
0.0
 11
53.6713901591
 21
120.8855458316
 31
0.0
  0
SPLINE
  5
F9
330
1F
100
AcDbEntity
  8
0
  6
HIDDEN
 62
     7
370
     0
100
AcDbSpline
210
0.0
220
0.0
230
1.0
 70
     8
 71
     3
 72
    10
 73
     6
 74
     0
 42
0.00000001
 43
0.00000001
 40
0.0
 40
0.0
 40
0.0
 40
0.0
 40
0.5
 40
0.5
 40
1.0
 40
1.0
 40
1.0
 40
1.0
 10
53.97138982247457
 20
124.9352935810181
 30
0.0
 10
53.97138982247279
 20
124.7706572354248
 30
0.0
 10
53.94423115204795
 20
124.6035020126384
 30
0.0
 10
53.83846615798825
 20
124.2648790069761
 30
0.0
 10
53.7620513704673
 20
124.0926072308193
 30
0.0
 10
53.67138982236905
 20
123.9187484045688
 30
0.0
  0
SPLINE
  5
FA
330
1F
100
AcDbEntity
  8
0
  6
HIDDEN
 62
     7
370
     0
100
AcDbSpline
210
0.0
220
0.0
230
1.0
 70
     8
 71
     3
 72
    18
 73
    14
 74
     0
 42
0.00000001
 43
0.00000001
 40
0.0
 40
0.0
 40
0.0
 40
0.0
 40
0.2500000000000033
 40
0.2500000000000033
 40
0.3750000000000029
 40
0.3750000000000029
 40
0.5000000000000026
 40
0.5000000000000026
 40
0.6250000000000022
 40
0.6250000000000022
 40
0.7500000000000018
 40
0.7500000000000018
 40
1.0
 40
1.0
 40
1.0
 40
1.0
 10
58.77138982236902
 20
127.5661197135024
 30
0.0
 10
58.77138982236902
 20
127.5116451929502
 30
0.0
 10
58.73647913097685
 20
127.4552641335977
 30
0.0
 10
58.63446982964379
 20
127.3711872927442
 30
0.0
 10
58.59283347496569
 20
127.3438535887533
 30
0.0
 10
58.49442767947694
 20
127.2908996731544
 30
0.0
 10
58.43688446777265
 20
127.2650123194372
 30
0.0
 10
58.3095862941997
 20
127.2172347746039
 30
0.0
 10
58.23999898944223
 20
127.195286856426
 30
0.0
 10
58.08856474428728
 20
127.1558542915133
 30
0.0
 10
58.00588084119333
 20
127.1382980422875
 30
0.0
 10
57.74976937915528
 20
127.0958592768669
 30
0.0
 10
57.5618543752673
 20
127.0800965271299
 30
0.0
 10
57.37138982236902
 20
127.08009652713
 30
0.0
  0
LINE
  5
FB
330
1F
100
AcDbEntity
  8
0
  6
HIDDEN
 62
     7
370
     0
100
AcDbLine
 10
57.3713894618
 20
127.0800973069
 30
0.0
 11
53.9713896495
 21
127.0800973069
 31
0.0
  0
LINE
  5
FC
330
1F
100
AcDbEntity
  8
0
  6
HIDDEN
 62
     7
370
     0
100
AcDbLine
 10
53.9024214876
 20
95.4771148753
 30
0.0
 11
61.3713901174
 21
95.4771148753
 31
0.0
  0
SPLINE
  5
FD
330
1F
100
AcDbEntity
  8
0
  6
HIDDEN
 62
     7
370
     0
100
AcDbSpline
210
0.0
220
0.0
230
1.0
 70
     8
 71
     3
 72
    22
 73
    18
 74
     0
 42
0.00000001
 43
0.00000001
 40
0.0
 40
0.0
 40
0.0
 40
0.0
 40
0.1249999999999998
 40
0.1249999999999998
 40
0.2499999999999996
 40
0.2499999999999996
 40
0.4999999999999992
 40
0.4999999999999992
 40
0.5624999999999992
 40
0.5624999999999992
 40
0.6249999999999992
 40
0.6249999999999992
 40
0.7499999999999994
 40
0.7499999999999994
 40
0.8749999999999998
 40
0.8749999999999998
 40
1.0
 40
1.0
 40
1.0
 40
1.0
 10
53.90242083572694
 20
95.47711565506663
 30
0.0
 10
53.88933844299856
 20
95.7322213652143
 30
0.0
 10
53.87611887955875
 20
96.0253796243182
 30
0.0
 10
53.85367170176461
 20
96.68768008994302
 30
0.0
 10
53.84419323474015
 20
97.05795401055438
 30
0.0
 10
53.82499527380361
 20
98.28051081366817
 30
0.0
 10
53.82610904680049
 20
99.21764973980005
 30
0.0
 10
53.84501983975357
 20
100.537520969315
 30
0.0
 10
53.84964936761256
 20
100.8090228782913
 30
0.0
 10
53.86013058735853
 20
101.3674077130936
 30
0.0
 10
53.86592584864295
 20
101.6545305690333
 30
0.0
 10
53.88423506954787
 20
102.527119823405
 30
0.0
 10
53.89827000382824
 20
103.1275754997608
 30
0.0
 10
53.92772717596507
 20
104.3650499922569
 30
0.0
 10
53.94328286694663
 20
105.0020661489003
 30
0.0
 10
53.96707741694352
 20
106.3135547465849
 30
0.0
 10
53.9750964690889
 20
106.9896773582454
 30
0.0
 10
53.97138982236901
 20
107.6739724695302
 30
0.0
  0
LINE
  5
FE
330
1F
100
AcDbEntity
  8
0
  6
HIDDEN
 62
     7
370
     0
100
AcDbLine
 10
53.9713896495
 20
114.8832398247
 30
0.0
 11
53.9713896495
 21
127.0800973069
 31
0.0
  0
SPLINE
  5
FF
330
1F
100
AcDbEntity
  8
0
  6
HIDDEN
 62
     7
370
     0
100
AcDbSpline
210
0.0
220
0.0
230
1.0
 70
     8
 71
     3
 72
    10
 73
     6
 74
     0
 42
0.00000001
 43
0.00000001
 40
0.0
 40
0.0
 40
0.0
 40
0.0
 40
0.5
 40
0.5
 40
1.0
 40
1.0
 40
1.0
 40
1.0
 10
53.97138982236901
 20
107.6739724695151
 30
0.0
 10
53.97138982236882
 20
107.9478876175893
 30
0.0
 10
53.94563059250099
 20
108.2188291963192
 30
0.0
 10
53.84242465976785
 20
108.7545202779218
 30
0.0
 10
53.76508649589272
 20
109.0202670814437
 30
0.0
 10
53.67138982236902
 20
109.2819057888811
 30
0.0
  0
SPLINE
  5
100
330
1F
100
AcDbEntity
  8
0
  6
HIDDEN
 62
     7
370
     0
100
AcDbSpline
210
0.0
220
0.0
230
1.0
 70
     8
 71
     3
 72
    10
 73
     6
 74
     0
 42
0.00000001
 43
0.00000001
 40
0.0
 40
0.0
 40
0.0
 40
0.0
 40
0.5
 40
0.5
 40
1.0
 40
1.0
 40
1.0
 40
1.0
 10
53.67138982236902
 20
113.2657343939464
 30
0.0
 10
53.76462040272026
 20
113.5296282005448
 30
0.0
 10
53.83965001424906
 20
113.7958085096434
 30
0.0
 10
53.94471711222876
 20
114.3341310814623
 30
0.0
 10
53.97138982247336
 20
114.6068791960781
 30
0.0
 10
53.97138982247454
 20
114.8832397126654
 30
0.0
  0
LINE
  5
101
330
1F
100
AcDbEntity
  8
0
  6
HIDDEN
 62
     7
370
     0
100
AcDbLine
 10
53.6713901591
 20
109.2819059048
 30
0.0
 11
53.6713901591
 21
113.2657343768
 31
0.0
  0
LINE
  5
102
330
1F
100
AcDbEntity
  8
0
  6
HIDDEN
 62
     7
370
     0
100
AcDbLine
 10
53.821388973
 20
93.2886055451
 30
0.0
 11
53.821388973
 21
90.4086674344
 31
0.0
  0
LINE
  5
103
330
1F
100
AcDbEntity
  8
0
  6
HIDDEN
 62
     7
370
     0
100
AcDbLine
 10
62.7713896018
 20
93.2886055451
 30
0.0
 11
62.7713896018
 21
89.3148681861
 31
0.0
  0
LINE
  5
104
330
1F
100
AcDbEntity
  8
0
  6
HIDDEN
 62
     7
370
     0
100
AcDbLine
 10
53.821388973
 20
129.2686066371
 30
0.0
 11
53.821388973
 21
132.1485447478
 31
0.0
  0
LINE
  5
105
330
1F
100
AcDbEntity
  8
0
  6
HIDDEN
 62
     7
370
     0
100
AcDbLine
 10
58.7713889462
 20
129.2686066371
 30
0.0
 11
58.7713889462
 21
133.1227137488
 31
0.0
  0
LINE
  5
106
330
1F
100
AcDbEntity
  8
0
  6
HIDDEN
 62
     7
370
     0
100
AcDbLine
 10
232.5713917297
 20
111.2786060911
 30
0.0
 11
232.5713917297
 21
101.7786063966
 31
0.0
  0
LINE
  5
107
330
1F
100
AcDbEntity
  8
0
  6
HIDDEN
 62
     7
370
     0
100
AcDbLine
 10
232.5713917297
 20
120.7786057856
 30
0.0
 11
232.5713917297
 21
111.2786060911
 31
0.0
  0
LINE
  5
108
330
1F
100
AcDbEntity
  8
0
  6
HIDDEN
 62
     7
370
     0
100
AcDbLine
 10
233.0713852924
 20
111.2786060911
 30
0.0
 11
233.0713852924
 21
102.2786064785
 31
0.0
  0
LINE
  5
109
330
1F
100
AcDbEntity
  8
0
  6
HIDDEN
 62
     7
370
     0
100
AcDbLine
 10
233.0713852924
 20
120.2786057037
 30
0.0
 11
233.0713852924
 21
111.2786060911
 31
0.0
  0
LINE
  5
10A
330
1F
100
AcDbEntity
  8
0
  6
HIDDEN
 62
     7
370
     0
100
AcDbLine
 10
106.3713900429
 20
101.7786063966
 30
0.0
 11
106.3713900429
 21
120.7786057856
 31
0.0
  0
LINE
  5
10B
330
1F
100
AcDbEntity
  8
0
  6
HIDDEN
 62
     7
370
     0
100
AcDbLine
 10
103.3713895512
 20
101.7786063966
 30
0.0
 11
103.3713895512
 21
120.7786057856
 31
0.0
  0
LINE
  5
10C
330
1F
100
AcDbEntity
  8
0
  6
HIDDEN
 62
     7
370
     0
100
AcDbLine
 10
95.0213897657
 20
102.7786056292
 30
0.0
 11
95.0213897657
 21
119.778606553
 31
0.0
  0
LINE
  5
10D
330
1F
100
AcDbEntity
  8
0
  6
HIDDEN
 62
     7
370
     0
100
AcDbLine
 10
110.5213895124
 20
84.8786062341
 30
0.0
 11
104.383714838
 21
84.8786062341
 31
0.0
  0
LINE
  5
10E
330
1F
100
AcDbEntity
  8
0
  6
HIDDEN
 62
     7
370
     0
100
AcDbLine
 10
100.7590651196
 20
84.8786062341
 30
0.0
 11
97.5213901755
 21
84.8786062341
 31
0.0
  0
LINE
  5
10F
330
1F
100
AcDbEntity
  8
0
  6
HIDDEN
 62
     7
370
     0
100
AcDbLine
 10
89.5213897955
 20
79.7944827717
 30
0.0
 11
89.5213897955
 21
84.8786062341
 31
0.0
  0
LINE
  5
110
330
1F
100
AcDbEntity
  8
0
  6
HIDDEN
 62
     7
370
     0
100
AcDbLine
 10
97.5213901755
 20
84.8786062341
 30
0.0
 11
89.5213897955
 21
84.8786062341
 31
0.0
  0
LINE
  5
111
330
1F
100
AcDbEntity
  8
0
  6
HIDDEN
 62
     7
370
     0
100
AcDbLine
 10
101.0556876344
 20
137.678605948
 30
0.0
 11
97.5213901755
 21
137.678605948
 31
0.0
  0
LINE
  5
112
330
1F
100
AcDbEntity
  8
0
  6
HIDDEN
 62
     7
370
     0
100
AcDbLine
 10
110.5213895124
 20
137.678605948
 30
0.0
 11
104.0870923233
 21
137.678605948
 31
0.0
  0
LINE
  5
113
330
1F
100
AcDbEntity
  8
0
  6
HIDDEN
 62
     7
370
     0
100
AcDbLine
 10
97.5213901755
 20
137.678605948
 30
0.0
 11
89.5213897955
 21
137.678605948
 31
0.0
  0
LINE
  5
114
330
1F
100
AcDbEntity
  8
0
  6
HIDDEN
 62
     7
370
     0
100
AcDbLine
 10
213.5041191858
 20
111.2786060911
 30
0.0
 11
213.5041191858
 21
106.0286061619
 31
0.0
  0
LINE
  5
115
330
1F
100
AcDbEntity
  8
0
  6
HIDDEN
 62
     7
370
     0
100
AcDbLine
 10
213.5041191858
 20
116.5286060203
 30
0.0
 11
213.5041191858
 21
111.2786060911
 31
0.0
  0
SPLINE
  5
116
330
1F
100
AcDbEntity
  8
0
  6
HIDDEN
 62
     7
370
     0
100
AcDbSpline
210
0.0
220
0.0
230
1.0
 70
     8
 71
     3
 72
    11
 73
     7
 74
     0
 42
0.00000001
 43
0.00000001
 40
0.0
 40
0.0
 40
0.0
 40
0.0
 40
0.0008203708524183
 40
0.0008203708524183
 40
0.0008203708524183
 40
0.0016409967870154
 40
0.0016409967870154
 40
0.0016409967870154
 40
0.0016409967870154
 10
53.82138982236902
 20
95.42657334045555
 30
0.0
 10
53.63023152207036
 20
95.38539431183642
 30
0.0
 10
53.43880445199818
 20
95.34664033960642
 30
0.0
 10
53.24715882847755
 20
95.31027258032789
 30
0.0
 10
53.0554534233971
 20
95.27389347656185
 30
0.0
 10
52.86351447133814
 20
95.23989922579429
 30
0.0
 10
52.67138982426731
 20
95.20825110040307
 30
0.0
  0
ELLIPSE
  5
117
330
1F
100
AcDbEntity
  8
0
  6
HIDDEN
 62
     7
370
     0
100
AcDbEllipse
 10
48.4289579596
 20
111.2786060911
 30
0.0
 11
20.19992452771987
 21
-1.421085471520200E-14
 31
0.0
210
0.0
220
0.0
230
1.0
 40
0.816496581
 41
1.300566354937426
 42
1.359198697443033
  0
LINE
  5
118
330
1F
100
AcDbEntity
  8
0
  6
HIDDEN
 62
     7
370
     0
100
AcDbLine
 10
53.821388973
 20
93.2886055451
 30
0.0
 11
53.821388973
 21
95.4265738618
 31
0.0
  0
LINE
  5
119
330
1F
100
AcDbEntity
  8
0
  6
HIDDEN
 62
     7
370
     0
100
AcDbLine
 10
53.9024214876
 20
95.4771148753
 30
0.0
 11
53.821388973
 21
95.4265738618
 31
0.0
  0
LINE
  5
11A
330
1F
100
AcDbEntity
  8
0
  6
HIDDEN
 62
     7
370
     0
100
AcDbLine
 10
62.7713896018
 20
93.2886055451
 30
0.0
 11
62.7713896018
 21
94.9910930138
 31
0.0
  0
LINE
  5
11B
330
1F
100
AcDbEntity
  8
0
  6
HIDDEN
 62
     7
370
     0
100
AcDbLine
 10
58.7713889462
 20
129.2686066371
 30
0.0
 11
58.7713889462
 21
127.5661191684
 31
0.0
  0
LINE
  5
11C
330
1F
100
AcDbEntity
  8
0
  6
HIDDEN
 62
     7
370
     0
100
AcDbLine
 10
53.821388973
 20
129.2686066371
 30
0.0
 11
53.821388973
 21
127.173231427
 31
0.0
  0
SPLINE
  5
11D
330
1F
100
AcDbEntity
  8
0
  6
HIDDEN
 62
     7
370
     0
100
AcDbSpline
210
0.0
220
0.0
230
1.0
 70
     8
 71
     3
 72
     8
 73
     4
 74
     0
 42
0.00000001
 43
0.00000001
 40
0.0
 40
0.0
 40
0.0
 40
0.0
 40
1.0
 40
1.0
 40
1.0
 40
1.0
 10
53.82138982236902
 20
127.1732305400971
 30
0.0
 10
53.87139532021661
 20
127.1421947665642
 30
0.0
 10
53.9213953897851
 20
127.1111501222232
 30
0.0
 10
53.97138982247456
 20
127.0800965271299
 30
0.0
  0
LINE
  5
11E
330
1F
100
AcDbEntity
  8
0
  6
HIDDEN
 62
     7
370
     0
100
AcDbLine
 10
211.0713854116
 20
111.2786060911
 30
0.0
 11
211.0713854116
 21
106.0286061619
 31
0.0
  0
LINE
  5
11F
330
1F
100
AcDbEntity
  8
0
  6
HIDDEN
 62
     7
370
     0
100
AcDbLine
 10
211.0713854116
 20
116.5286060203
 30
0.0
 11
211.0713854116
 21
111.2786060911
 31
0.0
  0
LINE
  5
120
330
1F
100
AcDbEntity
  8
0
  6
HIDDEN
 62
     7
370
     0
100
AcDbLine
 10
209.7890510839
 20
111.2786060911
 30
0.0
 11
209.7890510839
 21
108.778606147
 31
0.0
  0
LINE
  5
121
330
1F
100
AcDbEntity
  8
0
  6
HIDDEN
 62
     7
370
     0
100
AcDbLine
 10
209.7890510839
 20
113.7786060352
 30
0.0
 11
209.7890510839
 21
111.2786060911
 31
0.0
  0
SPLINE
  5
122
330
1F
100
AcDbEntity
  8
0
  6
HIDDEN
 62
     7
370
     0
100
AcDbSpline
210
0.0
220
0.0
230
1.0
 70
     8
 71
     3
 72
    20
 73
    16
 74
     0
 42
0.00000001
 43
0.00000001
 40
0.0
 40
0.0
 40
0.0
 40
0.0
 40
0.1119595197270015
 40
0.1774767654920859
 40
0.249096185325418
 40
0.3298422369283467
 40
0.3986125725171922
 40
0.4998892967520781
 40
0.6138510411462624
 40
0.6790150058045442
 40
0.7495394119902732
 40
0.8296829969661308
 40
0.8981246339666275
 40
0.9995320129300933
 40
0.9999999999999999
 40
0.9999999999999999
 40
0.9999999999999999
 40
0.9999999999999999
 10
79.32023039654413
 20
87.67861265356967
 30
0.0
 10
79.27690648007676
 20
87.6920410217871
 30
0.0
 10
79.20822997465919
 20
87.71332749535254
 30
0.0
 10
78.763051465289
 20
87.81664240901887
 30
0.0
 10
78.2364927585894
 20
87.92994265173702
 30
0.0
 10
77.55106776188848
 20
88.05287730502917
 30
0.0
 10
76.65775058409986
 20
88.17491199217457
 30
0.0
 10
75.54439093349337
 20
88.29264762935777
 30
0.0
 10
74.433616804842
 20
88.30462150160038
 30
0.0
 10
73.54886852757939
 20
88.27756596300608
 30
0.0
 10
72.88167225752143
 20
88.2296328968058
 30
0.0
 10
72.34039776751419
 20
88.17333578740173
 30
0.0
 10
71.95282535030545
 20
88.12826409305204
 30
0.0
 10
71.75886264518246
 20
88.08935967049726
 30
0.0
 10
71.821985778455
 20
88.10008927524923
 30
0.0
 10
71.82227574855605
 20
88.10013856406638
 30
0.0
  0
LINE
  5
123
330
1F
100
AcDbEntity
  8
0
  6
HIDDEN
 62
     7
370
     0
100
AcDbLine
 10
72.7314021123
 20
88.2109435987
 30
0.0
 11
72.9152470511
 21
88.2291341912
 31
0.0
  0
LINE
  5
124
330
1F
100
AcDbEntity
  8
0
  6
HIDDEN
 62
     7
370
     0
100
AcDbLine
 10
72.9152442572
 20
134.3280090731
 30
0.0
 11
72.7411707547
 21
134.3452180516
 31
0.0
  0
SPLINE
  5
125
330
1F
100
AcDbEntity
  8
0
  6
HIDDEN
 62
     7
370
     0
100
AcDbSpline
210
0.0
220
0.0
230
1.0
 70
     8
 71
     3
 72
    20
 73
    16
 74
     0
 42
0.00000001
 43
0.00000001
 40
0.0
 40
0.0
 40
0.0
 40
0.0
 40
0.0004889697591047
 40
0.1018319945141926
 40
0.1702475571949642
 40
0.2503691863856972
 40
0.3209567830713191
 40
0.3861815969282947
 40
0.5002554405931924
 40
0.6012243594512068
 40
0.6697680251707869
 40
0.7502401868573377
 40
0.8220490723920678
 40
0.8877204424947721
 40
1.0
 40
1.0
 40
1.0
 40
1.0
 10
71.82230927616874
 20
134.45700842555
 30
0.0
 10
71.82200553231343
 20
134.4570595978531
 30
0.0
 10
71.75874836347408
 20
134.4677166529991
 30
0.0
 10
71.95198041489934
 20
134.4289748920597
 30
0.0
 10
72.33891876005033
 20
134.383914479228
 30
0.0
 10
72.87992757844545
 20
134.3276620713028
 30
0.0
 10
73.54742724653975
 20
134.279729005144
 30
0.0
 10
74.43325506371697
 20
134.2526559318119
 30
0.0
 10
75.54406188253257
 20
134.2644812208709
 30
0.0
 10
76.65613200000348
 20
134.381932196134
 30
0.0
 10
77.54723292499489
 20
134.503633323994
 30
0.0
 10
78.23271680205418
 20
134.6264564419642
 30
0.0
 10
78.76070534007211
 20
134.7398954386426
 30
0.0
 10
79.20808872370104
 20
134.8436340909788
 30
0.0
 10
79.27689942024804
 20
134.8650578331768
 30
0.0
 10
79.320316078221
 20
134.87857531424
 30
0.0
  0
LINE
  5
126
330
1F
100
AcDbEntity
  8
0
  6
HIDDEN
 62
     7
370
     0
100
AcDbLine
 10
137.6713908893
 20
107.0786062409
 30
0.0
 11
137.6713908893
 21
115.4786059413
 31
0.0
  0
LINE
  5
127
330
1F
100
AcDbEntity
  8
0
  6
HIDDEN
 62
     7
370
     0
100
AcDbLine
 10
138.1520799977
 20
107.878606046
 30
0.0
 11
138.1520799977
 21
114.6786061362
 31
0.0
  0
LINE
  5
128
330
1F
100
AcDbEntity
  8
0
  6
HIDDEN
 62
     7
370
     0
100
AcDbLine
 10
192.671386866
 20
107.878606046
 30
0.0
 11
192.671386866
 21
114.6786061362
 31
0.0
  0
LINE
  5
129
330
1F
100
AcDbEntity
  8
0
  6
HIDDEN
 62
     7
370
     0
100
AcDbLine
 10
193.2121649069
 20
108.778606147
 30
0.0
 11
193.2121649069
 21
113.7786060352
 31
0.0
  0
LINE
  5
12A
330
1F
100
AcDbEntity
  8
0
  6
HIDDEN
 62
     7
370
     0
100
AcDbLine
 10
149.0213930291
 20
98.3559568193
 30
0.0
 11
144.0213903469
 21
98.3559568193
 31
0.0
  0
LINE
  5
12B
330
1F
100
AcDbEntity
  8
0
  6
HIDDEN
 62
     7
370
     0
100
AcDbLine
 10
146.5213879627
 20
124.2012553629
 30
0.0
 11
149.0213930291
 21
124.2012553629
 31
0.0
  0
LINE
  5
12C
330
1F
100
AcDbEntity
  8
0
  6
HIDDEN
 62
     7
370
     0
100
AcDbLine
 10
144.0213903469
 20
124.2012553629
 30
0.0
 11
146.5213879627
 21
124.2012553629
 31
0.0
  0
LINE
  5
12D
330
1F
100
AcDbEntity
  8
0
  6
HIDDEN
 62
     7
370
     0
100
AcDbLine
 10
146.5213879627
 20
116.7786060613
 30
0.0
 11
149.0213930291
 21
116.7786060613
 31
0.0
  0
LINE
  5
12E
330
1F
100
AcDbEntity
  8
0
  6
HIDDEN
 62
     7
370
     0
100
AcDbLine
 10
144.0213903469
 20
116.7786060613
 30
0.0
 11
146.5213879627
 21
116.7786060613
 31
0.0
  0
LINE
  5
12F
330
1F
100
AcDbEntity
  8
0
  6
HIDDEN
 62
     7
370
     0
100
AcDbLine
 10
149.0213930291
 20
105.7786061209
 30
0.0
 11
144.0213903469
 21
105.7786061209
 31
0.0
  0
SPLINE
  5
130
330
1F
100
AcDbEntity
  8
0
  6
HIDDEN
 62
     7
370
     0
100
AcDbSpline
210
0.0
220
0.0
230
1.0
 70
     8
 71
     3
 72
     8
 73
     4
 74
     0
 42
0.00000001
 43
0.00000001
 40
0.0
 40
0.0
 40
0.0
 40
0.0
 40
0.000159097691538
 40
0.000159097691538
 40
0.000159097691538
 40
0.000159097691538
 10
53.95655782836153
 20
95.47711565506663
 30
0.0
 10
53.91150635893213
 20
95.44913677141604
 30
0.0
 10
53.8664503215925
 20
95.42116524171381
 30
0.0
 10
53.82138982236901
 20
95.39320090303377
 30
0.0
  0
SPLINE
  5
131
330
1F
100
AcDbEntity
  8
0
  6
HIDDEN
 62
     7
370
     0
100
AcDbSpline
210
0.0
220
0.0
230
1.0
 70
     8
 71
     3
 72
    11
 73
     7
 74
     0
 42
0.00000001
 43
0.00000001
 40
0.0
 40
0.0
 40
0.0
 40
0.0
 40
0.000821290931132
 40
0.000821290931132
 40
0.000821290931132
 40
0.0016428257242788
 40
0.0016428257242788
 40
0.0016428257242788
 40
0.0016428257242788
 10
53.82138982236902
 20
95.39320090303377
 30
0.0
 10
53.63024480088659
 20
95.34991471421212
 30
0.0
 10
53.43882646521001
 20
95.30897820460632
 30
0.0
 10
53.24718039054888
 20
95.27037643325181
 30
0.0
 10
53.05547730900725
 20
95.23176317944682
 30
0.0
 10
52.86353218572186
 20
95.19548297019352
 30
0.0
 10
52.67138982236895
 20
95.16151606387537
 30
0.0
  0
LINE
  5
132
330
1F
100
AcDbEntity
  8
0
  6
HIDDEN
 62
     7
370
     0
100
AcDbLine
 10
100.6613898706
 20
131.4144725692
 30
0.0
 11
100.6613898706
 21
131.1286068302
 31
0.0
  0
LINE
  5
133
330
1F
100
AcDbEntity
  8
0
  6
HIDDEN
 62
     7
370
     0
100
AcDbLine
 10
104.481390087
 20
131.4595876973
 30
0.0
 11
104.481390087
 21
131.1286068302
 31
0.0
  0
LINE
  5
134
330
1F
100
AcDbEntity
  8
0
  6
HIDDEN
 62
     7
370
     0
100
AcDbLine
 10
105.9633217436
 20
135.7372957062
 30
0.0
 11
105.9633217436
 21
131.1286068302
 31
0.0
  0
SPLINE
  5
135
330
1F
100
AcDbEntity
  8
0
  6
HIDDEN
 62
     7
370
     0
100
AcDbSpline
210
0.0
220
0.0
230
1.0
 70
     8
 71
     3
 72
    24
 73
    20
 74
     0
 42
0.00000001
 43
0.00000001
 40
0.0
 40
0.0
 40
0.0
 40
0.0
 40
0.2499999999999952
 40
0.2499999999999952
 40
0.3749999999999937
 40
0.3749999999999937
 40
0.4374999999999931
 40
0.4374999999999931
 40
0.468749999999992
 40
0.468749999999992
 40
0.4999999999999909
 40
0.4999999999999909
 40
0.5624999999999933
 40
0.5624999999999933
 40
0.6249999999999958
 40
0.6249999999999958
 40
0.7499999999999981
 40
0.7499999999999981
 40
1.0
 40
1.0
 40
1.0
 40
1.0
 10
52.73405319709243
 20
91.60405354631754
 30
0.0
 10
52.74780631576265
 20
91.67470360430782
 30
0.0
 10
52.7655788831685
 20
91.74130171707276
 30
0.0
 10
52.81782997472387
 20
91.81539973730594
 30
0.0
 10
52.83886505030541
 20
91.83665754446751
 30
0.0
 10
52.89176545793386
 20
91.84480347061375
 30
0.0
 10
52.91287113081177
 20
91.84386366721799
 30
0.0
 10
52.95892329948973
 20
91.82284767564066
 30
0.0
 10
52.97729377147311
 20
91.81193886953304
 30
0.0
 10
53.01884540653882
 20
91.77930395858567
 30
0.0
 10
53.04141207929575
 20
91.7578119782143
 30
0.0
 10
53.10419309575578
 20
91.68934603462799
 30
0.0
 10
53.13732285672365
 20
91.6432715764229
 30
0.0
 10
53.19424054320868
 20
91.55826368808823
 30
0.0
 10
53.21842656871244
 20
91.51798338690683
 30
0.0
 10
53.28363451909221
 20
91.40304716044089
 30
0.0
 10
53.31835057928345
 20
91.3324641752939
 30
0.0
 10
53.41156584961435
 20
91.12825841621529
 30
0.0
 10
53.45723838497501
 20
91.00536003388791
 30
0.0
 10
53.49554346847356
 20
90.88848675750033
 30
0.0
  0
SPLINE
  5
136
330
1F
100
AcDbEntity
  8
0
  6
HIDDEN
 62
     7
370
     0
100
AcDbSpline
210
0.0
220
0.0
230
1.0
 70
     8
 71
     3
 72
     8
 73
     4
 74
     0
 42
0.00000001
 43
0.00000001
 40
0.0
 40
0.0
 40
0.0
 40
0.0
 40
0.0011563724678166
 40
0.0011563724678166
 40
0.0011563724678166
 40
0.0011563724678166
 10
53.67138982236902
 20
123.9187484045689
 30
0.0
 10
53.33806870717188
 20
124.0478074301956
 30
0.0
 10
53.00473602636389
 20
124.1767677663693
 30
0.0
 10
52.67138982236902
 20
124.3056792961423
 30
0.0
  0
SPLINE
  5
137
330
1F
100
AcDbEntity
  8
0
  6
HIDDEN
 62
     7
370
     0
100
AcDbSpline
210
0.0
220
0.0
230
1.0
 70
     8
 71
     3
 72
     8
 73
     4
 74
     0
 42
0.00000001
 43
0.00000001
 40
0.0
 40
0.0
 40
0.0
 40
0.0
 40
0.0011557494192775
 40
0.0011557494192775
 40
0.0011557494192775
 40
0.0011557494192775
 10
52.67138982236902
 20
98.25138422864757
 30
0.0
 10
53.00472363238316
 20
98.38300850484238
 30
0.0
 10
53.33805724404581
 20
98.5148254184158
 30
0.0
 10
53.67138982236901
 20
98.6468288605786
 30
0.0
  0
SPLINE
  5
138
330
1F
100
AcDbEntity
  8
0
  6
HIDDEN
 62
     7
370
     0
100
AcDbSpline
210
0.0
220
0.0
230
1.0
 70
     8
 71
     3
 72
     8
 73
     4
 74
     0
 42
0.00000001
 43
0.00000001
 40
0.0000000000000006
 40
0.0000000000000006
 40
0.0000000000000006
 40
0.0000000000000006
 40
0.0011560973009451
 40
0.0011560973009451
 40
0.0011560973009451
 40
0.0011560973009451
 10
52.67138982236901
 20
121.2594205843854
 30
0.0
 10
53.00472955995575
 20
121.1346768521121
 30
0.0
 10
53.33806019316435
 20
121.009995627935
 30
0.0
 10
53.67138982236901
 20
120.8855454046037
 30
0.0
  0
SPLINE
  5
139
330
1F
100
AcDbEntity
  8
0
  6
HIDDEN
 62
     7
370
     0
100
AcDbSpline
210
0.0
220
0.0
230
1.0
 70
     8
 71
     3
 72
     8
 73
     4
 74
     0
 42
0.00000001
 43
0.00000001
 40
0.0
 40
0.0
 40
0.0
 40
0.0
 40
0.0011564805411644
 40
0.0011564805411644
 40
0.0011564805411644
 40
0.0011564805411644
 10
53.67138982236902
 20
101.6777793061174
 30
0.0
 10
53.33808785696755
 20
101.5509283656831
 30
0.0
 10
53.00475104006086
 20
101.4243632968208
 30
0.0
 10
52.67138982236899
 20
101.29796332316
 30
0.0
  0
CIRCLE
  5
13A
330
1F
100
AcDbEntity
  8
0
  6
HIDDEN
 62
     7
370
     0
100
AcDbCircle
 10
91.5713898224
 20
111.2786060911
 30
0.0
 40
5.0
  0
LINE
  5
13B
330
1F
100
AcDbEntity
  8
0
  6
HIDDEN
 62
     7
370
     0
100
AcDbLine
 10
209.7890510839
 20
108.778606147
 30
0.0
 11
209.7890510839
 21
113.7786060352
 31
0.0
  0
LINE
  5
13C
330
1F
100
AcDbEntity
  8
0
  6
HIDDEN
 62
     7
370
     0
100
AcDbLine
 10
209.2890426201
 20
108.278606065
 30
0.0
 11
209.2890426201
 21
114.2786061172
 31
0.0
  0
LINE
  5
13D
330
1F
100
AcDbEntity
  8
0
  6
HIDDEN
 62
     7
370
     0
100
AcDbLine
 10
196.7890470904
 20
108.278606065
 30
0.0
 11
196.7890470904
 21
114.2786061172
 31
0.0
  0
LINE
  5
13E
330
1F
100
AcDbEntity
  8
0
  6
HIDDEN
 62
     7
370
     0
100
AcDbLine
 10
196.2890460771
 20
108.778606147
 30
0.0
 11
196.2890460771
 21
113.7786060352
 31
0.0
  0
LINE
  5
13F
330
1F
100
AcDbEntity
  8
0
  6
HIDDEN
 62
     7
370
     0
100
AcDbLine
 10
212.2890486997
 20
109.0455720913
 30
0.0
 11
210.2890446466
 21
109.0455720913
 31
0.0
  0
LINE
  5
140
330
1F
100
AcDbEntity
  8
0
  6
HIDDEN
 62
     7
370
     0
100
AcDbLine
 10
210.2890446466
 20
113.6212593191
 30
0.0
 11
212.2890486997
 21
113.6212593191
 31
0.0
  0
LINE
  5
141
330
1F
100
AcDbEntity
  8
0
  6
HIDDEN
 62
     7
370
     0
100
AcDbLine
 10
210.2890446466
 20
113.5116400909
 30
0.0
 11
210.2890446466
 21
113.7786060352
 31
0.0
  0
LINE
  5
142
330
1F
100
AcDbEntity
  8
0
  6
HIDDEN
 62
     7
370
     0
100
AcDbLine
 10
212.2890486997
 20
113.5116400909
 30
0.0
 11
210.2890446466
 21
113.5116400909
 31
0.0
  0
LINE
  5
143
330
1F
100
AcDbEntity
  8
0
  6
HIDDEN
 62
     7
370
     0
100
AcDbLine
 10
212.2890486997
 20
108.9359528631
 30
0.0
 11
212.2890486997
 21
113.5116400909
 31
0.0
  0
LINE
  5
144
330
1F
100
AcDbEntity
  8
0
  6
HIDDEN
 62
     7
370
     0
100
AcDbLine
 10
210.2890446466
 20
108.9359528631
 30
0.0
 11
212.2890486997
 21
108.9359528631
 31
0.0
  0
LINE
  5
145
330
1F
100
AcDbEntity
  8
0
  6
HIDDEN
 62
     7
370
     0
100
AcDbLine
 10
210.2890446466
 20
108.778606147
 30
0.0
 11
210.2890446466
 21
108.9359528631
 31
0.0
  0
LINE
  5
146
330
1F
100
AcDbEntity
  8
0
  6
HIDDEN
 62
     7
370
     0
100
AcDbLine
 10
207.7890470308
 20
112.5345842228
 30
0.0
 11
207.7890470308
 21
112.0611151927
 31
0.0
  0
LINE
  5
147
330
1F
100
AcDbEntity
  8
0
  6
HIDDEN
 62
     7
370
     0
100
AcDbLine
 10
200.7890402955
 20
112.0611151927
 30
0.0
 11
200.7890402955
 21
112.5345842228
 31
0.0
  0
LINE
  5
148
330
1F
100
AcDbEntity
  8
0
  6
HIDDEN
 62
     7
370
     0
100
AcDbLine
 10
207.7890470308
 20
112.0611151927
 30
0.0
 11
207.7890470308
 21
111.1963915899
 31
0.0
  0
LINE
  5
149
330
1F
100
AcDbEntity
  8
0
  6
HIDDEN
 62
     7
370
     0
100
AcDbLine
 10
207.7890470308
 20
112.0611151927
 30
0.0
 11
212.2890486997
 21
112.0611151927
 31
0.0
  0
LINE
  5
14A
330
1F
100
AcDbEntity
  8
0
  6
HIDDEN
 62
     7
370
     0
100
AcDbLine
 10
200.7890402955
 20
111.1963915899
 30
0.0
 11
200.7890402955
 21
112.0611151927
 31
0.0
  0
LINE
  5
14B
330
1F
100
AcDbEntity
  8
0
  6
HIDDEN
 62
     7
370
     0
100
AcDbLine
 10
200.7890402955
 20
112.0611151927
 30
0.0
 11
196.2890460771
 21
112.0611151927
 31
0.0
  0
LINE
  5
14C
330
1F
100
AcDbEntity
  8
0
  6
HIDDEN
 62
     7
370
     0
100
AcDbLine
 10
207.7890470308
 20
111.1963915899
 30
0.0
 11
207.7890470308
 21
110.3316679727
 31
0.0
  0
LINE
  5
14D
330
1F
100
AcDbEntity
  8
0
  6
HIDDEN
 62
     7
370
     0
100
AcDbLine
 10
200.7890402955
 20
110.3316679727
 30
0.0
 11
200.7890402955
 21
111.1963915899
 31
0.0
  0
LINE
  5
14E
330
1F
100
AcDbEntity
  8
0
  6
HIDDEN
 62
     7
370
     0
100
AcDbLine
 10
207.7890470308
 20
110.3316679727
 30
0.0
 11
207.7890470308
 21
109.9404134801
 31
0.0
  0
LINE
  5
14F
330
1F
100
AcDbEntity
  8
0
  6
HIDDEN
 62
     7
370
     0
100
AcDbLine
 10
207.7890470308
 20
110.3316679727
 30
0.0
 11
212.2890486997
 21
110.3316679727
 31
0.0
  0
LINE
  5
150
330
1F
100
AcDbEntity
  8
0
  6
HIDDEN
 62
     7
370
     0
100
AcDbLine
 10
200.7890402955
 20
109.9404134801
 30
0.0
 11
200.7890402955
 21
110.3316679727
 31
0.0
  0
LINE
  5
151
330
1F
100
AcDbEntity
  8
0
  6
HIDDEN
 62
     7
370
     0
100
AcDbLine
 10
200.7890402955
 20
110.3316679727
 30
0.0
 11
196.2890460771
 21
110.3316679727
 31
0.0
  0
LINE
  5
152
330
1F
100
AcDbEntity
  8
0
  6
HIDDEN
 62
     7
370
     0
100
AcDbLine
 10
210.2890446466
 20
113.5116400909
 30
0.0
 11
210.2890446466
 21
112.3767612515
 31
0.0
  0
LINE
  5
153
330
1F
100
AcDbEntity
  8
0
  6
HIDDEN
 62
     7
370
     0
100
AcDbLine
 10
210.2890446466
 20
112.3767612515
 30
0.0
 11
212.2890486997
 21
112.3767612515
 31
0.0
  0
LINE
  5
154
330
1F
100
AcDbEntity
  8
0
  6
HIDDEN
 62
     7
370
     0
100
AcDbLine
 10
212.2890486997
 20
110.0708315861
 30
0.0
 11
210.2890446466
 21
110.0708315861
 31
0.0
  0
LINE
  5
155
330
1F
100
AcDbEntity
  8
0
  6
HIDDEN
 62
     7
370
     0
100
AcDbLine
 10
210.2890446466
 20
110.0708315861
 30
0.0
 11
210.2890446466
 21
108.9359528631
 31
0.0
  0
LINE
  5
156
330
1F
100
AcDbEntity
  8
0
  6
HIDDEN
 62
     7
370
     0
100
AcDbLine
 10
200.7890402955
 20
112.5345842228
 30
0.0
 11
200.7890402955
 21
113.0080533693
 31
0.0
  0
LINE
  5
157
330
1F
100
AcDbEntity
  8
0
  6
HIDDEN
 62
     7
370
     0
100
AcDbLine
 10
207.7890470308
 20
113.0080533693
 30
0.0
 11
207.7890470308
 21
112.5345842228
 31
0.0
  0
LINE
  5
158
330
1F
100
AcDbEntity
  8
0
  6
HIDDEN
 62
     7
370
     0
100
AcDbLine
 10
200.7890402955
 20
109.5491588129
 30
0.0
 11
200.7890402955
 21
109.9404134801
 31
0.0
  0
LINE
  5
159
330
1F
100
AcDbEntity
  8
0
  6
HIDDEN
 62
     7
370
     0
100
AcDbLine
 10
207.7890470308
 20
109.9404134801
 30
0.0
 11
207.7890470308
 21
109.5491588129
 31
0.0
  0
LINE
  5
15A
330
1F
100
AcDbEntity
  8
0
  6
HIDDEN
 62
     7
370
     0
100
AcDbLine
 10
200.7890402955
 20
112.2255442095
 30
0.0
 11
196.2890460771
 21
112.2255442095
 31
0.0
  0
LINE
  5
15B
330
1F
100
AcDbEntity
  8
0
  6
HIDDEN
 62
     7
370
     0
100
AcDbLine
 10
200.7890402955
 20
113.0080533693
 30
0.0
 11
196.2890460771
 21
113.0080533693
 31
0.0
  0
LINE
  5
15C
330
1F
100
AcDbEntity
  8
0
  6
HIDDEN
 62
     7
370
     0
100
AcDbLine
 10
207.7890470308
 20
112.2255442095
 30
0.0
 11
212.2890486997
 21
112.2255442095
 31
0.0
  0
LINE
  5
15D
330
1F
100
AcDbEntity
  8
0
  6
HIDDEN
 62
     7
370
     0
100
AcDbLine
 10
212.2890486997
 20
112.4863805961
 30
0.0
 11
210.2890446466
 21
112.4863805961
 31
0.0
  0
LINE
  5
15E
330
1F
100
AcDbEntity
  8
0
  6
HIDDEN
 62
     7
370
     0
100
AcDbLine
 10
207.7890470308
 20
113.0080533693
 30
0.0
 11
210.2890446466
 21
113.0080533693
 31
0.0
  0
LINE
  5
15F
330
1F
100
AcDbEntity
  8
0
  6
HIDDEN
 62
     7
370
     0
100
AcDbLine
 10
200.7890402955
 20
110.4960969895
 30
0.0
 11
196.2890460771
 21
110.4960969895
 31
0.0
  0
LINE
  5
160
330
1F
100
AcDbEntity
  8
0
  6
HIDDEN
 62
     7
370
     0
100
AcDbLine
 10
200.7890402955
 20
109.5491588129
 30
0.0
 11
196.2890460771
 21
109.5491588129
 31
0.0
  0
LINE
  5
161
330
1F
100
AcDbEntity
  8
0
  6
HIDDEN
 62
     7
370
     0
100
AcDbLine
 10
207.7890470308
 20
110.4960969895
 30
0.0
 11
212.2890486997
 21
110.4960969895
 31
0.0
  0
LINE
  5
162
330
1F
100
AcDbEntity
  8
0
  6
HIDDEN
 62
     7
370
     0
100
AcDbLine
 10
210.2890446466
 20
110.1804509307
 30
0.0
 11
212.2890486997
 21
110.1804509307
 31
0.0
  0
LINE
  5
163
330
1F
100
AcDbEntity
  8
0
  6
HIDDEN
 62
     7
370
     0
100
AcDbLine
 10
210.2890446466
 20
110.0708315861
 30
0.0
 11
210.2890446466
 21
110.1804509307
 31
0.0
  0
LINE
  5
164
330
1F
100
AcDbEntity
  8
0
  6
HIDDEN
 62
     7
370
     0
100
AcDbLine
 10
207.7890470308
 20
109.5491588129
 30
0.0
 11
210.2890446466
 21
109.5491588129
 31
0.0
  0
LINE
  5
165
330
1F
100
AcDbEntity
  8
0
  6
HIDDEN
 62
     7
370
     0
100
AcDbLine
 10
212.2890486997
 20
113.6212593191
 30
0.0
 11
212.2890486997
 21
113.5116400909
 31
0.0
  0
LINE
  5
166
330
1F
100
AcDbEntity
  8
0
  6
HIDDEN
 62
     7
370
     0
100
AcDbLine
 10
235.1713910383
 20
101.2786063146
 30
0.0
 11
235.1713910383
 21
121.2786058676
 31
0.0
  0
LINE
  5
167
330
1F
100
AcDbEntity
  8
0
  6
HIDDEN
 62
     7
370
     0
100
AcDbLine
 10
238.171397118
 20
102.078605887
 30
0.0
 11
238.171397118
 21
120.4786062952
 31
0.0
  0
LINE
  5
168
330
1F
100
AcDbEntity
  8
0
  6
HIDDEN
 62
     7
370
     0
100
AcDbLine
 10
233.0268755239
 20
102.2786064785
 30
0.0
 11
233.0268755239
 21
120.2786057037
 31
0.0
  0
SPLINE
  5
169
330
1F
100
AcDbEntity
  8
0
  6
HIDDEN
 62
     7
370
     0
100
AcDbSpline
210
0.0
220
0.0
230
1.0
 70
     8
 71
     3
 72
    11
 73
     7
 74
     0
 42
0.00000001
 43
0.00000001
 40
0.0
 40
0.0
 40
0.0
 40
0.0
 40
0.2328875716235269
 40
0.4667472697181723
 40
0.7655821588136552
 40
1.0
 40
1.0
 40
1.0
 40
1.0
 10
239.021389154797
 20
119.2894759368462
 30
0.0
 10
239.0217501799885
 20
119.3312149394498
 30
0.0
 10
239.0224737373741
 20
119.4148671728866
 30
0.0
 10
239.0284039802389
 20
119.5081705593943
 30
0.0
 10
239.0372430045881
 20
119.5700684848464
 30
0.0
 10
239.0461040636894
 20
119.5728509669746
 30
0.0
 10
239.0499993842892
 20
119.5740741458101
 30
0.0
  0
SPLINE
  5
16A
330
1F
100
AcDbEntity
  8
0
  6
HIDDEN
 62
     7
370
     0
100
AcDbSpline
210
0.0
220
0.0
230
1.0
 70
     8
 71
     3
 72
    25
 73
    21
 74
     0
 42
0.00000001
 43
0.00000001
 40
0.0
 40
0.0
 40
0.0
 40
0.0
 40
0.0544153555239352
 40
0.1092238944528582
 40
0.1625261784358132
 40
0.2161972723282183
 40
0.2710321413534819
 40
0.3262704221421694
 40
0.3796141962663083
 40
0.433332307349665
 40
0.4882331041580271
 40
0.5435428129589001
 40
0.59659336363863
 40
0.6500094400577539
 40
0.704574163239806
 40
0.759534798187736
 40
0.8183450202749483
 40
0.877652375218835
 40
0.9385484560784889
 40
0.9999999999999999
 40
0.9999999999999999
 40
0.9999999999999999
 40
0.9999999999999999
 10
239.0531584304623
 20
119.5773198049826
 30
0.0
 10
239.0588437151134
 20
119.5680658179068
 30
0.0
 10
239.0702553639889
 20
119.549490978178
 30
0.0
 10
239.0898625231646
 20
119.4525346218385
 30
0.0
 10
239.1098688233249
 20
119.3067959003188
 30
0.0
 10
239.1294508500702
 20
119.1083911661523
 30
0.0
 10
239.1472960870551
 20
118.8563047000972
 30
0.0
 10
239.1616718135775
 20
118.5542101949322
 30
0.0
 10
239.1710097809864
 20
118.2069505912477
 30
0.0
 10
239.1744783267272
 20
117.8162867838055
 30
0.0
 10
239.1714661721055
 20
117.378382617404
 30
0.0
 10
239.1623282047742
 20
116.9025376197922
 30
0.0
 10
239.1483400936745
 20
116.3957925703577
 30
0.0
 10
239.1309983452107
 20
115.8603473038681
 30
0.0
 10
239.1114248237253
 20
115.2904438456666
 30
0.0
 10
239.0905220432581
 20
114.6764489183724
 30
0.0
 10
239.0697580450988
 20
114.0228635752462
 30
0.0
 10
239.0506520469557
 20
113.3285976178141
 30
0.0
 10
239.0344853044294
 20
112.6112135046551
 30
0.0
 10
239.0282772621152
 20
112.1235465903176
 30
0.0
 10
239.025159148579
 20
111.8786061195968
 30
0.0
  0
LINE
  5
16B
330
1F
100
AcDbEntity
  8
0
  6
HIDDEN
 62
     7
370
     0
100
AcDbLine
 10
239.0213891548
 20
103.2677362454
 30
0.0
 11
239.0213891548
 21
119.2894759368
 31
0.0
  0
SPLINE
  5
16C
330
1F
100
AcDbEntity
  8
0
  6
HIDDEN
 62
     7
370
     0
100
AcDbSpline
210
0.0
220
0.0
230
1.0
 70
     8
 71
     3
 72
    26
 73
    22
 74
     0
 42
0.00000001
 43
0.00000001
 40
0.0
 40
0.0
 40
0.0
 40
0.0
 40
0.0338821206218996
 40
0.0678567832098877
 40
0.1218341785067298
 40
0.1761866727336646
 40
0.2317198909494003
 40
0.2876603589677776
 40
0.3416375162243769
 40
0.3959884836599816
 40
0.4515210087283421
 40
0.5074636988037761
 40
0.5614102837621051
 40
0.6157354119500733
 40
0.6712533728231053
 40
0.727182491999911
 40
0.7809176198118467
 40
0.8350222211787689
 40
0.8902890927443454
 40
0.9459571850148647
 40
1.0
 40
1.0
 40
1.0
 40
1.0
 10
239.025159148579
 20
110.6786060625998
 30
0.0
 10
239.0266970662639
 20
110.5452529584806
 30
0.0
 10
239.029777102136
 20
110.2781825239714
 30
0.0
 10
239.0380303202768
 20
109.8000281858967
 30
0.0
 10
239.0502818800673
 20
109.2453456758449
 30
0.0
 10
239.0674044813613
 20
108.6167189399232
 30
0.0
 10
239.0867766660191
 20
107.9952698524059
 30
0.0
 10
239.1070060694853
 20
107.3946153439639
 30
0.0
 10
239.1267673479591
 20
106.821526394938
 30
0.0
 10
239.1447734191511
 20
106.2766059761049
 30
0.0
 10
239.1598276287883
 20
105.7564562710948
 30
0.0
 10
239.1700379890574
 20
105.2730398501785
 30
0.0
 10
239.1743378372283
 20
104.8313817739547
 30
0.0
 10
239.1723115682734
 20
104.4314783096157
 30
0.0
 10
239.1640804003939
 20
104.0713183723411
 30
0.0
 10
239.150608234888
 20
103.7601081262828
 30
0.0
 10
239.1335950049829
 20
103.5003752115613
 30
0.0
 10
239.1144191168251
 20
103.2908692728839
 30
0.0
 10
239.0942528635388
 20
103.1321283727043
 30
0.0
 10
239.0743539153882
 20
103.0235893429973
 30
0.0
 10
239.0626692877871
 20
102.9970713823682
 30
0.0
 10
239.0569135230831
 20
102.9840088229937
 30
0.0
  0
LINE
  5
16D
330
1F
100
AcDbEntity
  8
0
  6
HIDDEN
 62
     7
370
     0
100
AcDbLine
 10
239.0501036924
 20
102.9852372375
 30
0.0
 11
239.041744141
 21
102.9867441174
 31
0.0
  0
SPLINE
  5
16E
330
1F
100
AcDbEntity
  8
0
  6
HIDDEN
 62
     7
370
     0
100
AcDbSpline
210
0.0
220
0.0
230
1.0
 70
     8
 71
     3
 72
    10
 73
     6
 74
     0
 42
0.00000001
 43
0.00000001
 40
0.0
 40
0.0
 40
0.0
 40
0.0
 40
0.3155562492231609
 40
0.72490375842582
 40
1.0
 40
1.0
 40
1.0
 40
1.0
 10
239.0391066354565
 20
102.9997230287952
 30
0.0
 10
239.0358399406621
 20
103.0121826753533
 30
0.0
 10
239.0283356071561
 20
103.0408052890422
 30
0.0
 10
239.0225040351925
 20
103.1366156334805
 30
0.0
 10
239.0217087865049
 20
103.230144495339
 30
0.0
 10
239.021389154797
 20
103.2677362453503
 30
0.0
  0
SPLINE
  5
16F
330
1F
100
AcDbEntity
  8
0
  6
HIDDEN
 62
     7
370
     0
100
AcDbSpline
210
0.0
220
0.0
230
1.0
 70
     8
 71
     3
 72
     9
 73
     5
 74
     0
 42
0.00000001
 43
0.00000001
 40
0.0
 40
0.0
 40
0.0
 40
0.0
 40
0.5
 40
1.0
 40
1.0
 40
1.0
 40
1.0
 10
239.025159148579
 20
111.8786061195968
 30
0.0
 10
239.0239521545223
 20
111.6786061100973
 30
0.0
 10
239.0215381664089
 20
111.2786060910983
 30
0.0
 10
239.0239521545224
 20
110.8786060720993
 30
0.0
 10
239.025159148579
 20
110.6786060625998
 30
0.0
  0
LINE
  5
170
330
1F
100
AcDbEntity
  8
0
  6
HIDDEN
 62
     7
370
     0
100
AcDbLine
 10
243.3688327354
 20
104.9286061678
 30
0.0
 11
243.3688327354
 21
117.6286060144
 31
0.0
  0
LINE
  5
171
330
1F
100
AcDbEntity
  8
0
  6
HIDDEN
 62
     7
370
     0
100
AcDbLine
 10
238.0847617668
 20
119.6461026337
 30
0.0
 11
244.5713862461
 21
117.6398219321
 31
0.0
  0
LINE
  5
172
330
1F
100
AcDbEntity
  8
0
  6
HIDDEN
 62
     7
370
     0
100
AcDbLine
 10
238.0847617668
 20
102.9111095485
 30
0.0
 11
244.5713862461
 21
104.9173902501
 31
0.0
  0
LINE
  5
173
330
1F
100
AcDbEntity
  8
0
  6
HIDDEN
 62
     7
370
     0
100
AcDbLine
 10
88.5713900124
 20
125.579236519
 30
0.0
 11
88.5713900124
 21
123.6725463312
 31
0.0
  0
LINE
  5
174
330
1F
100
AcDbEntity
  8
0
  6
HIDDEN
 62
     7
370
     0
100
AcDbLine
 10
96.5713899267
 20
123.6725463312
 30
0.0
 11
96.5713899267
 21
125.5764416199
 31
0.0
  0
LINE
  5
175
330
1F
100
AcDbEntity
  8
0
  6
HIDDEN
 62
     7
370
     0
100
AcDbLine
 10
84.5713898224
 20
85.9546749633
 30
0.0
 11
84.6655505946
 21
86.6246628356
 31
0.0
  0
LINE
  5
176
330
1F
100
AcDbEntity
  8
0
  6
HIDDEN
 62
     7
370
     0
100
AcDbLine
 10
84.6655505946
 20
135.9325493466
 30
0.0
 11
84.5713898224
 21
136.6025372189
 31
0.0
  0
ARC
  5
177
330
1F
100
AcDbEntity
  8
0
  6
HIDDEN
 62
     7
370
     0
100
AcDbCircle
 10
84.0713830697
 20
86.7081684767
 30
0.0
 40
0.6000067526677242
100
AcDbArc
 50
352.0
 51
0.0
  0
ARC
  5
178
330
1F
100
AcDbEntity
  8
0
  6
HIDDEN
 62
     7
370
     0
100
AcDbCircle
 10
84.0713830697
 20
86.7081684767
 30
0.0
 40
0.6000067526677242
100
AcDbArc
 50
0.0
 51
33.5571153394
  0
ARC
  5
179
330
1F
100
AcDbEntity
  8
0
  6
HIDDEN
 62
     7
370
     0
100
AcDbCircle
 10
84.0713830697
 20
135.8490437055
 30
0.0
 40
0.6000067526677253
100
AcDbArc
 50
348.75
 51
8.0
  0
LWPOLYLINE
  5
17A
330
1F
100
AcDbEntity
  8
0
  6
HIDDEN
 62
     7
370
     0
100
AcDbPolyline
 90
        3
 70
   128
 43
0.0
 10
84.6598608613
 20
135.7319890302
 10
84.6257170295
 20
135.6194312465
 10
84.5713898224
 20
135.5173787814
  0
LINE
  5
17B
330
1F
100
AcDbEntity
  8
0
  6
HIDDEN
 62
     7
370
     0
100
AcDbLine
 10
84.6713898198
 20
86.7081689429
 30
0.0
 11
84.6713898198
 21
135.8490432393
 31
0.0
  0
ARC
  5
17C
330
1F
100
AcDbEntity
  8
0
  6
HIDDEN
 62
     7
370
     0
100
AcDbCircle
 10
78.326391824
 20
99.2786060911
 30
0.0
 40
7.999999999999999
100
AcDbArc
 50
277.0401353439
 51
321.3178125465
  0
ARC
  5
17D
330
1F
100
AcDbEntity
  8
0
  6
HIDDEN
 62
     7
370
     0
100
AcDbCircle
 10
78.326391824
 20
123.2786060911
 30
0.0
 40
7.999999999999993
100
AcDbArc
 50
38.6821874535
 51
82.941437939
  0
LINE
  5
17E
330
1F
100
AcDbEntity
  8
0
  6
HIDDEN
 62
     7
370
     0
100
AcDbLine
 10
67.6538258475
 20
91.2786065381
 30
0.0
 11
71.8313617316
 21
91.2786065381
 31
0.0
  0
LINE
  5
17F
330
1F
100
AcDbEntity
  8
0
  6
HIDDEN
 62
     7
370
     0
100
AcDbLine
 10
71.8313617316
 20
131.2786056441
 30
0.0
 11
67.6538258475
 21
131.2786056441
 31
0.0
  0
ARC
  5
180
330
1F
100
AcDbEntity
  8
0
  6
HIDDEN
 62
     7
370
     0
100
AcDbCircle
 10
67.6538253877
 20
91.8786060911
 30
0.0
 40
0.5999999999999962
100
AcDbArc
 50
210.0
 51
270.0
  0
ARC
  5
181
330
1F
100
AcDbEntity
  8
0
  6
HIDDEN
 62
     7
370
     0
100
AcDbCircle
 10
67.6538253877
 20
130.6786060911
 30
0.0
 40
0.6000000000000032
100
AcDbArc
 50
90.0
 51
150.0
  0
LINE
  5
182
330
1F
100
AcDbEntity
  8
0
  6
HIDDEN
 62
     7
370
     0
100
AcDbLine
 10
67.1342093182
 20
130.9786061537
 30
0.0
 11
65.5753653181
 21
128.278607015
 31
0.0
  0
LINE
  5
183
330
1F
100
AcDbEntity
  8
0
  6
HIDDEN
 62
     7
370
     0
100
AcDbLine
 10
65.5753653181
 20
94.2786051672
 30
0.0
 11
67.1342093182
 21
91.5786060285
 31
0.0
  0
LINE
  5
184
330
1F
100
AcDbEntity
  8
0
  6
HIDDEN
 62
     7
370
     0
100
AcDbLine
 10
88.5713900124
 20
138.5582717847
 30
0.0
 11
88.5713900124
 21
135.2242077481
 31
0.0
  0
LINE
  5
185
330
1F
100
AcDbEntity
  8
0
  6
HIDDEN
 62
     7
370
     0
100
AcDbLine
 10
96.5713899267
 20
135.2242077481
 30
0.0
 11
96.5713899267
 21
138.5529390317
 31
0.0
  0
ARC
  5
186
330
1F
100
AcDbEntity
  8
0
  6
HIDDEN
 62
     7
370
     0
100
AcDbCircle
 10
93.0213898224
 20
95.5536060911
 30
0.0
 40
1.5
100
AcDbArc
 50
238.2116693829
 51
0.0
  0
ARC
  5
187
330
1F
100
AcDbEntity
  8
0
  6
HIDDEN
 62
     7
370
     0
100
AcDbCircle
 10
93.0213898224
 20
127.0036060911
 30
0.0
 40
1.5
100
AcDbArc
 50
0.0
 51
121.7883306171
  0
LINE
  5
188
330
1F
100
AcDbEntity
  8
0
  6
HIDDEN
 62
     7
370
     0
100
AcDbLine
 10
84.5713898224
 20
94.2786051672
 30
0.0
 11
92.2312157844
 21
94.2786051672
 31
0.0
  0
LINE
  5
189
330
1F
100
AcDbEntity
  8
0
  6
HIDDEN
 62
     7
370
     0
100
AcDbLine
 10
92.2312157844
 20
128.278607015
 30
0.0
 11
84.5713898224
 21
128.278607015
 31
0.0
  0
LINE
  5
18A
330
1F
100
AcDbEntity
  8
0
  6
HIDDEN
 62
     7
370
     0
100
AcDbLine
 10
62.7713896018
 20
94.2786051672
 30
0.0
 11
65.5753653181
 21
94.2786051672
 31
0.0
  0
LINE
  5
18B
330
1F
100
AcDbEntity
  8
0
  6
HIDDEN
 62
     7
370
     0
100
AcDbLine
 10
65.5753653181
 20
128.278607015
 30
0.0
 11
58.7713889462
 21
128.278607015
 31
0.0
  0
LINE
  5
18C
330
1F
100
AcDbEntity
  8
0
  6
HIDDEN
 62
     7
370
     0
100
AcDbLine
 10
226.1713877004
 20
101.7786063966
 30
0.0
 11
232.5713917297
 21
101.7786063966
 31
0.0
  0
LINE
  5
18D
330
1F
100
AcDbEntity
  8
0
  6
HIDDEN
 62
     7
370
     0
100
AcDbLine
 10
232.5713917297
 20
120.7786057856
 30
0.0
 11
226.1713877004
 21
120.7786057856
 31
0.0
  0
LINE
  5
18E
330
1F
100
AcDbEntity
  8
0
  6
HIDDEN
 62
     7
370
     0
100
AcDbLine
 10
232.5713917297
 20
101.7786063966
 30
0.0
 11
233.0713852924
 21
102.2786064785
 31
0.0
  0
LINE
  5
18F
330
1F
100
AcDbEntity
  8
0
  6
HIDDEN
 62
     7
370
     0
100
AcDbLine
 10
233.0713852924
 20
120.2786057037
 30
0.0
 11
232.5713917297
 21
120.7786057856
 31
0.0
  0
LINE
  5
190
330
1F
100
AcDbEntity
  8
0
  6
HIDDEN
 62
     7
370
     0
100
AcDbLine
 10
103.3713895512
 20
101.7786063966
 30
0.0
 11
106.3713900429
 21
101.7786063966
 31
0.0
  0
LINE
  5
191
330
1F
100
AcDbEntity
  8
0
  6
HIDDEN
 62
     7
370
     0
100
AcDbLine
 10
106.3713900429
 20
120.7786057856
 30
0.0
 11
103.3713895512
 21
120.7786057856
 31
0.0
  0
LINE
  5
192
330
1F
100
AcDbEntity
  8
0
  6
HIDDEN
 62
     7
370
     0
100
AcDbLine
 10
94.5213896838
 20
102.2786064785
 30
0.0
 11
95.0213897657
 21
102.7786056292
 31
0.0
  0
LINE
  5
193
330
1F
100
AcDbEntity
  8
0
  6
HIDDEN
 62
     7
370
     0
100
AcDbLine
 10
95.0213897657
 20
119.778606553
 30
0.0
 11
94.5213896838
 21
120.2786057037
 31
0.0
  0
ARC
  5
194
330
1F
100
AcDbEntity
  8
0
  6
HIDDEN
 62
     7
370
     0
100
AcDbCircle
 10
232.4713898224
 20
119.8001781338
 30
0.0
 40
0.5999999999999851
100
AcDbArc
 50
278.0
 51
0.0
  0
ARC
  5
195
330
1F
100
AcDbEntity
  8
0
  6
HIDDEN
 62
     7
370
     0
100
AcDbCircle
 10
232.4713898224
 20
102.7570340484
 30
0.0
 40
0.5999999999999851
100
AcDbArc
 50
0.0
 51
82.0
  0
LINE
  5
196
330
1F
100
AcDbEntity
  8
0
  6
HIDDEN
 62
     7
370
     0
100
AcDbLine
 10
95.0213897657
 20
102.7786056292
 30
0.0
 11
103.3713895512
 21
102.7786056292
 31
0.0
  0
LINE
  5
197
330
1F
100
AcDbEntity
  8
0
  6
HIDDEN
 62
     7
370
     0
100
AcDbLine
 10
103.3713895512
 20
119.778606553
 30
0.0
 11
95.0213897657
 21
119.778606553
 31
0.0
  0
LINE
  5
198
330
1F
100
AcDbEntity
  8
0
  6
HIDDEN
 62
     7
370
     0
100
AcDbLine
 10
89.5213897955
 20
142.7786065977
 30
0.0
 11
89.5213897955
 21
137.678605948
 31
0.0
  0
LINE
  5
199
330
1F
100
AcDbEntity
  8
0
  6
HIDDEN
 62
     7
370
     0
100
AcDbLine
 10
232.5548961443
 20
119.206017327
 30
0.0
 11
213.5041191858
 21
116.5286060203
 31
0.0
  0
LINE
  5
19A
330
1F
100
AcDbEntity
  8
0
  6
HIDDEN
 62
     7
370
     0
100
AcDbLine
 10
213.5041191858
 20
106.0286061619
 30
0.0
 11
232.5548961443
 21
103.3511948552
 31
0.0
  0
LINE
  5
19B
330
1F
100
AcDbEntity
  8
0
  6
HIDDEN
 62
     7
370
     0
100
AcDbLine
 10
213.5041191858
 20
116.5286060203
 30
0.0
 11
211.0713854116
 21
116.5286060203
 31
0.0
  0
LINE
  5
19C
330
1F
100
AcDbEntity
  8
0
  6
HIDDEN
 62
     7
370
     0
100
AcDbLine
 10
211.0713854116
 20
106.0286061619
 30
0.0
 11
213.5041191858
 21
106.0286061619
 31
0.0
  0
LINE
  5
19D
330
1F
100
AcDbEntity
  8
0
  6
HIDDEN
 62
     7
370
     0
100
AcDbLine
 10
211.0713854116
 20
116.5286060203
 30
0.0
 11
209.7890510839
 21
113.7786060352
 31
0.0
  0
LINE
  5
19E
330
1F
100
AcDbEntity
  8
0
  6
HIDDEN
 62
     7
370
     0
100
AcDbLine
 10
209.7890510839
 20
108.778606147
 30
0.0
 11
211.0713854116
 21
106.0286061619
 31
0.0
  0
LINE
  5
19F
330
1F
100
AcDbEntity
  8
0
  6
HIDDEN
 62
     7
370
     0
100
AcDbLine
 10
79.7558276598
 20
87.1992348474
 30
0.0
 11
79.3213954811
 21
87.6783015918
 31
0.0
  0
LINE
  5
1A0
330
1F
100
AcDbEntity
  8
0
  6
HIDDEN
 62
     7
370
     0
100
AcDbLine
 10
71.8213919234
 20
88.0999895525
 30
0.0
 11
71.3389584479
 21
87.620922808
 31
0.0
  0
LINE
  5
1A1
330
1F
100
AcDbEntity
  8
0
  6
HIDDEN
 62
     7
370
     0
100
AcDbLine
 10
71.3388364446
 20
134.9362837863
 30
0.0
 11
71.8213872668
 21
134.4571630251
 31
0.0
  0
LINE
  5
1A2
330
1F
100
AcDbEntity
  8
0
  6
HIDDEN
 62
     7
370
     0
100
AcDbLine
 10
79.3213898931
 20
134.8788621616
 30
0.0
 11
79.7559319679
 21
135.3579810601
 31
0.0
  0
LINE
  5
1A3
330
1F
100
AcDbEntity
  8
0
  6
HIDDEN
 62
     7
370
     0
100
AcDbLine
 10
137.6713908893
 20
107.0786062409
 30
0.0
 11
138.1520799977
 21
107.878606046
 31
0.0
  0
LINE
  5
1A4
330
1F
100
AcDbEntity
  8
0
  6
HIDDEN
 62
     7
370
     0
100
AcDbLine
 10
138.1520799977
 20
114.6786061362
 30
0.0
 11
137.6713908893
 21
115.4786059413
 31
0.0
  0
LINE
  5
1A5
330
1F
100
AcDbEntity
  8
0
  6
HIDDEN
 62
     7
370
     0
100
AcDbLine
 10
106.3713900429
 20
107.0786062409
 30
0.0
 11
137.6713908893
 21
107.0786062409
 31
0.0
  0
LINE
  5
1A6
330
1F
100
AcDbEntity
  8
0
  6
HIDDEN
 62
     7
370
     0
100
AcDbLine
 10
137.6713908893
 20
115.4786059413
 30
0.0
 11
106.3713900429
 21
115.4786059413
 31
0.0
  0
LINE
  5
1A7
330
1F
100
AcDbEntity
  8
0
  6
HIDDEN
 62
     7
370
     0
100
AcDbLine
 10
79.3213898931
 20
87.5782421571
 30
0.0
 11
79.3213898931
 21
91.3415341419
 31
0.0
  0
LINE
  5
1A8
330
1F
100
AcDbEntity
  8
0
  6
HIDDEN
 62
     7
370
     0
100
AcDbLine
 10
71.8213900608
 20
91.2804691833
 30
0.0
 11
71.8213900608
 21
88.1003117901
 31
0.0
  0
LINE
  5
1A9
330
1F
100
AcDbEntity
  8
0
  6
HIDDEN
 62
     7
370
     0
100
AcDbLine
 10
79.3213898931
 20
131.2156780403
 30
0.0
 11
79.3213898931
 21
134.978891794
 31
0.0
  0
LINE
  5
1AA
330
1F
100
AcDbEntity
  8
0
  6
HIDDEN
 62
     7
370
     0
100
AcDbLine
 10
71.8213900608
 20
134.4569078427
 30
0.0
 11
71.8213900608
 21
131.2767429989
 31
0.0
  0
LINE
  5
1AB
330
1F
100
AcDbEntity
  8
0
  6
HIDDEN
 62
     7
370
     0
100
AcDbLine
 10
138.1520799977
 20
107.878606046
 30
0.0
 11
192.671386866
 21
107.878606046
 31
0.0
  0
LINE
  5
1AC
330
1F
100
AcDbEntity
  8
0
  6
HIDDEN
 62
     7
370
     0
100
AcDbLine
 10
192.671386866
 20
114.6786061362
 30
0.0
 11
138.1520799977
 21
114.6786061362
 31
0.0
  0
LINE
  5
1AD
330
1F
100
AcDbEntity
  8
0
  6
HIDDEN
 62
     7
370
     0
100
AcDbLine
 10
192.671386866
 20
107.878606046
 30
0.0
 11
193.2121649069
 21
108.778606147
 31
0.0
  0
LINE
  5
1AE
330
1F
100
AcDbEntity
  8
0
  6
HIDDEN
 62
     7
370
     0
100
AcDbLine
 10
193.2121649069
 20
113.7786060352
 30
0.0
 11
192.671386866
 21
114.6786061362
 31
0.0
  0
LINE
  5
1AF
330
1F
100
AcDbEntity
  8
0
  6
HIDDEN
 62
     7
370
     0
100
AcDbLine
 10
150.0213876051
 20
97.7786057409
 30
0.0
 11
149.0213930291
 21
98.3559568193
 31
0.0
  0
LINE
  5
1B0
330
1F
100
AcDbEntity
  8
0
  6
HIDDEN
 62
     7
370
     0
100
AcDbLine
 10
144.0213903469
 20
98.3559568193
 30
0.0
 11
143.0213883203
 21
97.7786057409
 31
0.0
  0
LINE
  5
1B1
330
1F
100
AcDbEntity
  8
0
  6
HIDDEN
 62
     7
370
     0
100
AcDbLine
 10
143.0213883203
 20
124.7786064413
 30
0.0
 11
144.0213903469
 21
124.2012553629
 31
0.0
  0
LINE
  5
1B2
330
1F
100
AcDbEntity
  8
0
  6
HIDDEN
 62
     7
370
     0
100
AcDbLine
 10
149.0213930291
 20
124.2012553629
 30
0.0
 11
150.0213876051
 21
124.7786064413
 31
0.0
  0
LINE
  5
1B3
330
1F
100
AcDbEntity
  8
0
  6
HIDDEN
 62
     7
370
     0
100
AcDbLine
 10
144.0213903469
 20
124.2012553629
 30
0.0
 11
144.0213903469
 21
116.7786060613
 31
0.0
  0
LINE
  5
1B4
330
1F
100
AcDbEntity
  8
0
  6
HIDDEN
 62
     7
370
     0
100
AcDbLine
 10
149.0213930291
 20
116.7786060613
 30
0.0
 11
149.0213930291
 21
124.2012553629
 31
0.0
  0
LINE
  5
1B5
330
1F
100
AcDbEntity
  8
0
  6
HIDDEN
 62
     7
370
     0
100
AcDbLine
 10
144.0213903469
 20
116.7786060613
 30
0.0
 11
146.5213879627
 21
115.2764544603
 31
0.0
  0
LINE
  5
1B6
330
1F
100
AcDbEntity
  8
0
  6
HIDDEN
 62
     7
370
     0
100
AcDbLine
 10
146.5213879627
 20
115.2764544603
 30
0.0
 11
149.0213930291
 21
116.7786060613
 31
0.0
  0
LINE
  5
1B7
330
1F
100
AcDbEntity
  8
0
  6
HIDDEN
 62
     7
370
     0
100
AcDbLine
 10
193.2121649069
 20
108.778606147
 30
0.0
 11
209.7890510839
 21
108.778606147
 31
0.0
  0
LINE
  5
1B8
330
1F
100
AcDbEntity
  8
0
  6
HIDDEN
 62
     7
370
     0
100
AcDbLine
 10
209.7890510839
 20
113.7786060352
 30
0.0
 11
193.2121649069
 21
113.7786060352
 31
0.0
  0
LINE
  5
1B9
330
1F
100
AcDbEntity
  8
0
  6
HIDDEN
 62
     7
370
     0
100
AcDbLine
 10
149.0213930291
 20
105.7786061209
 30
0.0
 11
146.5213879627
 21
107.2807577219
 31
0.0
  0
LINE
  5
1BA
330
1F
100
AcDbEntity
  8
0
  6
HIDDEN
 62
     7
370
     0
100
AcDbLine
 10
146.5213879627
 20
107.2807577219
 30
0.0
 11
144.0213903469
 21
105.7786061209
 31
0.0
  0
LINE
  5
1BB
330
1F
100
AcDbEntity
  8
0
  6
HIDDEN
 62
     7
370
     0
100
AcDbLine
 10
149.0213930291
 20
98.3559568193
 30
0.0
 11
149.0213930291
 21
105.7786061209
 31
0.0
  0
LINE
  5
1BC
330
1F
100
AcDbEntity
  8
0
  6
HIDDEN
 62
     7
370
     0
100
AcDbLine
 10
144.0213903469
 20
105.7786061209
 30
0.0
 11
144.0213903469
 21
98.3559568193
 31
0.0
  0
LINE
  5
1BD
330
1F
100
AcDbEntity
  8
0
  6
HIDDEN
 62
     7
370
     0
100
AcDbLine
 10
209.2890426201
 20
108.278606065
 30
0.0
 11
209.7890510839
 21
108.778606147
 31
0.0
  0
LINE
  5
1BE
330
1F
100
AcDbEntity
  8
0
  6
HIDDEN
 62
     7
370
     0
100
AcDbLine
 10
209.7890510839
 20
113.7786060352
 30
0.0
 11
209.2890426201
 21
114.2786061172
 31
0.0
  0
LINE
  5
1BF
330
1F
100
AcDbEntity
  8
0
  6
HIDDEN
 62
     7
370
     0
100
AcDbLine
 10
196.7890470904
 20
108.278606065
 30
0.0
 11
209.2890426201
 21
108.278606065
 31
0.0
  0
LINE
  5
1C0
330
1F
100
AcDbEntity
  8
0
  6
HIDDEN
 62
     7
370
     0
100
AcDbLine
 10
209.2890426201
 20
114.2786061172
 30
0.0
 11
196.7890470904
 21
114.2786061172
 31
0.0
  0
LINE
  5
1C1
330
1F
100
AcDbEntity
  8
0
  6
HIDDEN
 62
     7
370
     0
100
AcDbLine
 10
196.7890470904
 20
114.2786061172
 30
0.0
 11
196.2890460771
 21
113.7786060352
 31
0.0
  0
LINE
  5
1C2
330
1F
100
AcDbEntity
  8
0
  6
HIDDEN
 62
     7
370
     0
100
AcDbLine
 10
196.2890460771
 20
108.778606147
 30
0.0
 11
196.7890470904
 21
108.278606065
 31
0.0
  0
LINE
  5
1C3
330
1F
100
AcDbEntity
  8
0
  6
HIDDEN
 62
     7
370
     0
100
AcDbLine
 10
209.7890510839
 20
108.778606147
 30
0.0
 11
210.2890446466
 21
108.778606147
 31
0.0
  0
LINE
  5
1C4
330
1F
100
AcDbEntity
  8
0
  6
HIDDEN
 62
     7
370
     0
100
AcDbLine
 10
210.2890446466
 20
113.7786060352
 30
0.0
 11
209.7890510839
 21
113.7786060352
 31
0.0
  0
LINE
  5
1C5
330
1F
100
AcDbEntity
  8
0
  6
HIDDEN
 62
     7
370
     0
100
AcDbLine
 10
200.7890402955
 20
109.7786060781
 30
0.0
 11
207.7890470308
 21
109.7786060781
 31
0.0
  0
LINE
  5
1C6
330
1F
100
AcDbEntity
  8
0
  6
HIDDEN
 62
     7
370
     0
100
AcDbLine
 10
207.7890470308
 20
112.7786061041
 30
0.0
 11
200.7890402955
 21
112.7786061041
 31
0.0
  0
LINE
  5
1C7
330
1F
100
AcDbEntity
  8
0
  6
HIDDEN
 62
     7
370
     0
100
AcDbLine
 10
235.1713910383
 20
101.2786063146
 30
0.0
 11
237.3713835758
 21
101.2786063146
 31
0.0
  0
LINE
  5
1C8
330
1F
100
AcDbEntity
  8
0
  6
HIDDEN
 62
     7
370
     0
100
AcDbLine
 10
237.3713835758
 20
121.2786058676
 30
0.0
 11
235.1713910383
 21
121.2786058676
 31
0.0
  0
ARC
  5
1C9
330
1F
100
AcDbEntity
  8
0
  6
HIDDEN
 62
     7
370
     0
100
AcDbCircle
 10
237.3713898224
 20
102.0786060911
 30
0.0
 40
0.8000000000000114
100
AcDbArc
 50
270.0
 51
0.0
  0
ARC
  5
1CA
330
1F
100
AcDbEntity
  8
0
  6
HIDDEN
 62
     7
370
     0
100
AcDbCircle
 10
237.3713898224
 20
120.4786060911
 30
0.0
 40
0.8000000000000114
100
AcDbArc
 50
0.0
 51
90.0
  0
LINE
  5
1CB
330
1F
100
AcDbEntity
  8
0
  6
HIDDEN
 62
     7
370
     0
100
AcDbLine
 10
235.1713910383
 20
121.2786058676
 30
0.0
 11
233.0268755239
 21
120.2786057037
 31
0.0
  0
LINE
  5
1CC
330
1F
100
AcDbEntity
  8
0
  6
HIDDEN
 62
     7
370
     0
100
AcDbLine
 10
233.0268755239
 20
102.2786064785
 30
0.0
 11
235.1713910383
 21
101.2786063146
 31
0.0
  0
LINE
  5
1CD
330
1F
100
AcDbEntity
  8
0
  6
HIDDEN
 62
     7
370
     0
100
AcDbLine
 10
226.1713877004
 20
102.2786064785
 30
0.0
 11
233.0268755239
 21
102.2786064785
 31
0.0
  0
LINE
  5
1CE
330
1F
100
AcDbEntity
  8
0
  6
HIDDEN
 62
     7
370
     0
100
AcDbLine
 10
233.0268755239
 20
120.2786057037
 30
0.0
 11
226.1713877004
 21
120.2786057037
 31
0.0
  0
ARC
  5
1CF
330
1F
100
AcDbEntity
  8
0
  6
HIDDEN
 62
     7
370
     0
100
AcDbCircle
 10
239.4213898224
 20
103.111426378
 30
0.0
 40
0.4000000000000625
100
AcDbArc
 50
180.0
 51
299.99999741
  0
ARC
  5
1D0
330
1F
100
AcDbEntity
  8
0
  6
HIDDEN
 62
     7
370
     0
100
AcDbCircle
 10
239.4213898224
 20
119.4457858042
 30
0.0
 40
0.4000000000000419
100
AcDbArc
 50
60.00000259
 51
163.0661997756
  0
LINE
  5
1D1
330
1F
100
AcDbEntity
  8
0
  6
HIDDEN
 62
     7
370
     0
100
AcDbLine
 10
239.6213844103
 20
102.7650157702
 30
0.0
 11
243.3688327354
 21
104.9286061678
 31
0.0
  0
LINE
  5
1D2
330
1F
100
AcDbEntity
  8
0
  6
HIDDEN
 62
     7
370
     0
100
AcDbLine
 10
243.3688327354
 20
117.6286060144
 30
0.0
 11
239.6213844103
 21
119.792196412
 31
0.0
  0
LINE
  5
1D3
330
1F
100
AcDbEntity
  8
0
  6
HIDDEN
 62
     7
370
     0
100
AcDbLine
 10
238.171397118
 20
102.9786062207
 30
0.0
 11
239.0501036924
 21
102.9786062207
 31
0.0
  0
LINE
  5
1D4
330
1F
100
AcDbEntity
  8
0
  6
HIDDEN
 62
     7
370
     0
100
AcDbLine
 10
239.0499993843
 20
119.5786059615
 30
0.0
 11
238.171397118
 21
119.5786059615
 31
0.0
  0
LINE
  5
1D5
330
1F
100
AcDbEntity
  8
0
  6
HIDDEN
 62
     7
370
     0
100
AcDbLine
 10
243.3688327354
 20
104.9286061678
 30
0.0
 11
244.5713862461
 21
104.9286061678
 31
0.0
  0
LINE
  5
1D6
330
1F
100
AcDbEntity
  8
0
  6
HIDDEN
 62
     7
370
     0
100
AcDbLine
 10
244.5713862461
 20
117.6286060144
 30
0.0
 11
243.3688327354
 21
117.6286060144
 31
0.0
  0
POINT
  5
1D7
330
1F
100
AcDbEntity
  8
VERMASSUNG
100
AcDbPoint
 10
233.0713898224
 20
119.2786060911
 30
0.0
  0
POINT
  5
1D8
330
1F
100
AcDbEntity
  8
VERMASSUNG
100
AcDbPoint
 10
233.0713898224
 20
103.2786060911
 30
0.0
  0
DIMENSION
  5
1D9
330
1F
100
AcDbEntity
  8
VERMASSUNG
100
AcDbDimension
  2
*D1
 10
253.6732926704
 20
119.2786060911
 30
0.0
 11
253.6732926704
 21
111.2786060911
 31
0.0
 70
   160
  1
ER<>
 71
     2
 42
-1.0
  3
SLDDIMSTYLE0
100
AcDbAlignedDimension
 13
233.0713898224
 23
103.2786060911
 33
0.0
 14
233.0713898224
 24
119.2786060911
 34
0.0
 50
90.0
100
AcDbRotatedDimension
  0
DIMENSION
  5
1E5
330
1F
100
AcDbEntity
  8
VERMASSUNG
100
AcDbDimension
  2
*D2
 10
44.2353910681
 20
79.7786060911
 30
0.0
 11
44.2353910681
 21
111.7430450817
 31
0.0
 70
   160
  1
HSK A %%c<>
 71
     2
 42
-1.0
  3
SLDDIMSTYLE0
100
AcDbAlignedDimension
 13
84.8713898224
 23
142.7786060911
 33
0.0
 14
84.8713898224
 24
79.7786060911
 34
0.0
 50
90.0
100
AcDbRotatedDimension
  0
DIMENSION
  5
1F1
330
1F
100
AcDbEntity
  8
VERMASSUNG
100
AcDbDimension
  2
*D3
 10
259.6732926704
 20
100.2786060911
 30
0.0
 11
259.6732926704
 21
111.2786060911
 31
0.0
 70
   160
  1
%%c<>
 71
     2
 42
-1.0
  3
SLDDIMSTYLE0
100
AcDbAlignedDimension
 13
244.0713898224
 23
122.2786060911
 33
0.0
 14
244.0713898224
 24
100.2786060911
 34
0.0
 50
90.0
100
AcDbRotatedDimension
  0
DIMENSION
  5
1FC
330
1F
100
AcDbEntity
  8
VERMASSUNG
100
AcDbDimension
  2
*D4
 10
52.6713898224
 20
159.629923113
 30
0.0
 11
149.7823510201
 21
159.629923113
 31
0.0
 70
   160
 71
     2
 42
-1.0
  3
SLDDIMSTYLE0
100
AcDbAlignedDimension
 13
244.5713898224
 23
121.2053916268
 33
0.0
 14
52.6713898224
 24
130.9692838376
 34
0.0
100
AcDbRotatedDimension
  0
DIMENSION
  5
206
330
1F
100
AcDbEntity
  8
VERMASSUNG
100
AcDbDimension
  2
*D5
 10
84.5713898224
 20
153.629923113
 30
0.0
 11
160.0712486997
 21
153.629923113
 31
0.0
 70
   160
 71
     2
 42
-1.0
  3
SLDDIMSTYLE0
100
AcDbAlignedDimension
 13
244.5713898224
 23
121.2053916268
 33
0.0
 14
84.5713898224
 24
142.4786060911
 34
0.0
100
AcDbRotatedDimension
  0
DIMENSION
  5
210
330
1F
100
AcDbEntity
  8
VERMASSUNG
100
AcDbDimension
  2
*D6
 10
244.5713898224
 20
147.629923113
 30
0.0
 11
171.3827192779
 21
147.629923113
 31
0.0
 70
   160
 71
     2
 42
-1.0
  3
SLDDIMSTYLE0
100
AcDbAlignedDimension
 13
110.5213898224
 23
141.1250464149
 33
0.0
 14
244.5713898224
 24
121.2053916268
 34
0.0
100
AcDbRotatedDimension
  0
DIMENSION
  5
21A
330
1F
100
AcDbEntity
  8
VERMASSUNG
100
AcDbDimension
  2
*D7
 10
244.5713898224
 20
141.629923113
 30
0.0
 11
227.2843056323
 21
141.629923113
 31
0.0
 70
   160
 71
     2
 42
-1.0
  3
SLDDIMSTYLE0
100
AcDbAlignedDimension
 13
211.0713898224
 23
116.5286060911
 33
0.0
 14
244.5713898224
 24
121.2053916268
 34
0.0
100
AcDbRotatedDimension
  0
DIMENSION
  5
224
330
1F
100
AcDbEntity
  8
VERMASSUNG
100
AcDbDimension
  2
*D8
 10
265.6732926704
 20
97.7786060911
 30
0.0
 11
265.6732926704
 21
111.2786060911
 31
0.0
 70
   160
  1
%%c<>
 71
     2
 42
-1.0
  3
SLDDIMSTYLE0
100
AcDbAlignedDimension
 13
155.5213898224
 23
124.7786060911
 33
0.0
 14
155.5213898224
 24
97.7786060911
 34
0.0
 50
90.0
100
AcDbRotatedDimension
  0
DIMENSION
  5
22F
330
1F
100
AcDbEntity
  8
VERMASSUNG
100
AcDbDimension
  2
*D9
 10
271.6732926704
 20
94.6693702133
 30
0.0
 11
271.6732926704
 21
111.2786060911
 31
0.0
 70
   160
  1
%%c<>
 71
     2
 42
-1.0
  3
SLDDIMSTYLE1
100
AcDbAlignedDimension
 13
112.7791217811
 23
127.8878419689
 33
0.0
 14
112.7791217811
 24
94.6693702133
 34
0.0
 50
90.0
100
AcDbRotatedDimension
  0
LINE
  5
23B
330
1F
100
AcDbEntity
  8
VERMASSUNG
  6
CENTERX2
370
     0
100
AcDbLine
 10
48.5318493201
 20
111.2786060911
 30
0.0
 11
246.7190649214
 21
111.2786060911
 31
0.0
  0
OLE2FRAME
  5
23C
330
1F
100
AcDbEntity
  8
0
100
AcDbOle2Frame
 70
     2
  3
Bitmap Image
 10
13.8511154363
 20
38.264191557
 30
0.0
 11
51.6290888628
 21
31.9806341108
 31
0.0
 71
     2
 72
     0
 73
     1
 90
    12928
310
80552BED0767C5B32B40DDAF6807D121434000000000000000006FFBDDFB85D0
310
4940DDAF6807D121434000000000000000006FFBDDFB85D04940416F4BD60AFB
310
3F4000000000000000002BED0767C5B32B40416F4BD60AFB3F40000000000000
310
0000000000000100000000010000010000000100000000000100000000320000
310
D0CF11E0A1B11AE1000000000000000000000000000000003E000300FEFF0900
310
0600000000000000000000000100000001000000000000000010000002000000
310
01000000FEFFFFFF0000000000000000FFFFFFFFFFFFFFFFFFFFFFFFFFFFFFFF
310
FFFFFFFFFFFFFFFFFFFFFFFFFFFFFFFFFFFFFFFFFFFFFFFFFFFFFFFFFFFFFFFF
310
FFFFFFFFFFFFFFFFFFFFFFFFFFFFFFFFFFFFFFFFFFFFFFFFFFFFFFFFFFFFFFFF
310
FFFFFFFFFFFFFFFFFFFFFFFFFFFFFFFFFFFFFFFFFFFFFFFFFFFFFFFFFFFFFFFF
310
FFFFFFFFFFFFFFFFFFFFFFFFFFFFFFFFFFFFFFFFFFFFFFFFFFFFFFFFFFFFFFFF
310
FFFFFFFFFFFFFFFFFFFFFFFFFFFFFFFFFFFFFFFFFFFFFFFFFFFFFFFFFFFFFFFF
310
FFFFFFFFFFFFFFFFFFFFFFFFFFFFFFFFFFFFFFFFFFFFFFFFFFFFFFFFFFFFFFFF
310
FFFFFFFFFFFFFFFFFFFFFFFFFFFFFFFFFFFFFFFFFFFFFFFFFFFFFFFFFFFFFFFF
310
FFFFFFFFFFFFFFFFFFFFFFFFFFFFFFFFFFFFFFFFFFFFFFFFFFFFFFFFFFFFFFFF
310
FFFFFFFFFFFFFFFFFFFFFFFFFFFFFFFFFFFFFFFFFFFFFFFFFFFFFFFFFFFFFFFF
310
FFFFFFFFFFFFFFFFFFFFFFFFFFFFFFFFFFFFFFFFFFFFFFFFFFFFFFFFFFFFFFFF
310
FFFFFFFFFFFFFFFFFFFFFFFFFFFFFFFFFFFFFFFFFFFFFFFFFFFFFFFFFFFFFFFF
310
FFFFFFFFFFFFFFFFFFFFFFFFFFFFFFFFFFFFFFFFFFFFFFFFFFFFFFFFFFFFFFFF
310
FFFFFFFFFFFFFFFFFFFFFFFFFFFFFFFFFFFFFFFFFFFFFFFFFFFFFFFFFFFFFFFF
310
FDFFFFFFFEFFFFFFFEFFFFFFFEFFFFFF05000000060000000700000008000000
310
090000000A0000000B0000000C0000000D0000000E0000000F00000010000000
310
11000000120000001300000014000000150000001600000017000000FEFFFFFF
310
FFFFFFFFFFFFFFFFFFFFFFFFFFFFFFFFFFFFFFFFFFFFFFFFFFFFFFFFFFFFFFFF
310
FFFFFFFFFFFFFFFFFFFFFFFFFFFFFFFFFFFFFFFFFFFFFFFFFFFFFFFFFFFFFFFF
310
FFFFFFFFFFFFFFFFFFFFFFFFFFFFFFFFFFFFFFFFFFFFFFFFFFFFFFFFFFFFFFFF
310
FFFFFFFFFFFFFFFFFFFFFFFFFFFFFFFFFFFFFFFFFFFFFFFFFFFFFFFFFFFFFFFF
310
FFFFFFFFFFFFFFFFFFFFFFFFFFFFFFFFFFFFFFFFFFFFFFFFFFFFFFFFFFFFFFFF
310
FFFFFFFFFFFFFFFFFFFFFFFFFFFFFFFFFFFFFFFFFFFFFFFFFFFFFFFFFFFFFFFF
310
FFFFFFFFFFFFFFFFFFFFFFFFFFFFFFFFFFFFFFFFFFFFFFFFFFFFFFFFFFFFFFFF
310
FFFFFFFFFFFFFFFFFFFFFFFFFFFFFFFFFFFFFFFFFFFFFFFFFFFFFFFFFFFFFFFF
310
FFFFFFFFFFFFFFFFFFFFFFFFFFFFFFFFFFFFFFFFFFFFFFFFFFFFFFFFFFFFFFFF
310
FFFFFFFFFFFFFFFFFFFFFFFFFFFFFFFFFFFFFFFFFFFFFFFFFFFFFFFFFFFFFFFF
310
FFFFFFFFFFFFFFFFFFFFFFFFFFFFFFFFFFFFFFFFFFFFFFFFFFFFFFFFFFFFFFFF
310
FFFFFFFFFFFFFFFFFFFFFFFFFFFFFFFFFFFFFFFFFFFFFFFFFFFFFFFFFFFFFFFF
310
FFFFFFFFFFFFFFFFFFFFFFFFFFFFFFFFFFFFFFFFFFFFFFFFFFFFFFFFFFFFFFFF
310
52006F006F007400200045006E00740072007900000000000000000000000000
310
0000000000000000000000000000000000000000000000000000000000000000
310
16000500FFFFFFFFFFFFFFFF020000000A00030000000000C000000000000046
310
00000000000000000000000000B9CB4F75E8CB0103000000C000000000000000
310
01004F006C006500000000000000000000000000000000000000000000000000
310
0000000000000000000000000000000000000000000000000000000000000000
310
0A000200FFFFFFFFFFFFFFFFFFFFFFFF00000000000000000000000000000000
310
0000000000000000000000000000000000000000000000001400000000000000
310
010043006F006D0070004F0062006A0000000000000000000000000000000000
310
0000000000000000000000000000000000000000000000000000000000000000
310
120002010100000003000000FFFFFFFF00000000000000000000000000000000
310
0000000000000000000000000000000000000000010000004D00000000000000
310
01004F006C006500310030004E00610074006900760065000000000000000000
310
0000000000000000000000000000000000000000000000000000000000000000
310
1A000200FFFFFFFFFFFFFFFFFFFFFFFF00000000000000000000000000000000
310
0000000000000000000000000000000000000000040000002426000000000000
310
FEFFFFFF02000000FEFFFFFFFFFFFFFFFFFFFFFFFFFFFFFFFFFFFFFFFFFFFFFF
310
FFFFFFFFFFFFFFFFFFFFFFFFFFFFFFFFFFFFFFFFFFFFFFFFFFFFFFFFFFFFFFFF
310
FFFFFFFFFFFFFFFFFFFFFFFFFFFFFFFFFFFFFFFFFFFFFFFFFFFFFFFFFFFFFFFF
310
FFFFFFFFFFFFFFFFFFFFFFFFFFFFFFFFFFFFFFFFFFFFFFFFFFFFFFFFFFFFFFFF
310
FFFFFFFFFFFFFFFFFFFFFFFFFFFFFFFFFFFFFFFFFFFFFFFFFFFFFFFFFFFFFFFF
310
FFFFFFFFFFFFFFFFFFFFFFFFFFFFFFFFFFFFFFFFFFFFFFFFFFFFFFFFFFFFFFFF
310
FFFFFFFFFFFFFFFFFFFFFFFFFFFFFFFFFFFFFFFFFFFFFFFFFFFFFFFFFFFFFFFF
310
FFFFFFFFFFFFFFFFFFFFFFFFFFFFFFFFFFFFFFFFFFFFFFFFFFFFFFFFFFFFFFFF
310
FFFFFFFFFFFFFFFFFFFFFFFFFFFFFFFFFFFFFFFFFFFFFFFFFFFFFFFFFFFFFFFF
310
FFFFFFFFFFFFFFFFFFFFFFFFFFFFFFFFFFFFFFFFFFFFFFFFFFFFFFFFFFFFFFFF
310
FFFFFFFFFFFFFFFFFFFFFFFFFFFFFFFFFFFFFFFFFFFFFFFFFFFFFFFFFFFFFFFF
310
FFFFFFFFFFFFFFFFFFFFFFFFFFFFFFFFFFFFFFFFFFFFFFFFFFFFFFFFFFFFFFFF
310
FFFFFFFFFFFFFFFFFFFFFFFFFFFFFFFFFFFFFFFFFFFFFFFFFFFFFFFFFFFFFFFF
310
FFFFFFFFFFFFFFFFFFFFFFFFFFFFFFFFFFFFFFFFFFFFFFFFFFFFFFFFFFFFFFFF
310
FFFFFFFFFFFFFFFFFFFFFFFFFFFFFFFFFFFFFFFFFFFFFFFFFFFFFFFFFFFFFFFF
310
FFFFFFFFFFFFFFFFFFFFFFFFFFFFFFFFFFFFFFFFFFFFFFFFFFFFFFFFFFFFFFFF
310
0100000200000000000000000000000000000000000000004E00820000000005
310
A807250000000000A807250000000000020E7C0100000000420E390100000000
310
0100FEFF030A0000FFFFFFFF0A00030000000000C00000000000004607000000
310
5042727573680007000000504272757368000700000050427275736800F439B2
310
7100000000000000000000000000000000000000000000000000C70600000000
310
0000000000000000000000000000000000000000000000003800000041000000
310
020E7C01000000005C0E7A010000000000000000000000000000000000000000
310
0000C70600000000000000000000000000000000000000000000000000000000
310
3800000041000000020E7C0100000000980EE401000000000000000000000000
310
00000000000000000000C7060000000000000000000000000000000000000000
310
00000000000000003800000041000000020E7C0100000000900E180100000000
310
000000000000000000000000000000000000C706000000000000000000000000
310
000000000000000000000000000000003800000041000000020E7C0100000000
310
040E640100000000000000000000000000000000000000000000C70600000000
310
0000000000000000000000000000000000000000000000003800000041000000
310
020E7C0100000000760EDC010000000000000000000000000000000000000000
310
20260000424D0E260000000000003E00000028000000B40200006E0000000100
310
01000000000000000000130B0000130B00000200000002000000000000FFFFFF
310
FFFFFFFFFFFFFFFFFFFFFFFFFFFFFFFFFFFFFFFFFFFFFFFFFFFFFFFFFFFFFFFF
310
FFFFFFFFFFFFFFFFFFFFFFFFFFFFFFFFFFFFFFFFFFFFFFFFFFFFFFFFFFFFFFFF
310
FFFFFFFFFFFFFFFFFFFFFFFFFFFFFFFFFFFFFFFFFFFFFFFFF000FFFFFFFFFFFF
310
FFFFFFFFFFFFFFFFFFFFFFFFFFFFFFFFFFFFFFFFFFFFFFFFFFFFFFFFFFFFFFFF
310
FFFFFFFFFFFFFFFFFFFFFFFFFFFFFFFFFFFFFFFFFFFFFFFFFFFFFFFFFFFFFFFF
310
FFFFFFFFFFFFFFFFFFFFFFFFFFFFFFFFF000FFFFFFFFFFFFFFFFFFFFFFFFFFFF
310
FFFFFFFFFFFFFFFFFFFFFFFFFFFFFFFFFFFFFFFFFFFFFFFFFFFFFFFFFFFFFFFF
310
FFFFFFFFFFFFFFFFFFFFFFFFFFFFFFFFFFFFFFFFFFFFFFFFFFFFFFFFFFFFFFFF
310
FFFFFFFFFFFFFFFFF000FFFFFFFFFFFFFFFFFFFFFFFFFFFFFFFFFFFFFFFFFFFF
310
FFFFFFFFFFFFFFFFFFFFFFFFFFFFFFFFFFFFFFFFFFFFFFFFFFFFFFFFFFFFFFFF
310
FFFFFFFFFFFFFFFFFFFFFFFFFFFFFFFFFFFFFFFFFFFFFFFFFFFFFFFFFFFFFFFF
310
F000FFFFFFFFFFFFFFFFFFFFFFFFFFFFFFFFFFFFFFFFFFFFFFFFFFFFFFFFFFFF
310
FFFFFFFFFFFFFFFFFFFFFFFFFFFFFFFFFFFFFFFFFFFFFFFFFFFFFFFFFFFFFFFF
310
FFFFFFFFFFFFFFFFFFFFFFFFFFFFFFFFFFFFFFFFFFFFFFFFF000FFFFFFFFFFFF
310
FFFFFFFFFFFFFFFFFFFFFFFFFFFFFFFFFFFFFFFFFFFFFFFFFFFFFFFFFFFFFFFF
310
FFFFFFFFFFFFFFFFFFFFFFFFFFFFFFFFFFFFFFFFFFFFFFFFFFFFFFFFFFFFFFFF
310
FFFFFFFFFFFFFFFFFFFFFFFFFFFFFFFFF000FFFFFFFFFFFFFFFFFFFFFFFFFFFF
310
FFFFFFFFFFFFFFFFFFFFFFFFFFFFFFFFFFFFFFFFFFFFFFFFFFFFFFFFFFFFFFFF
310
FFFFFFFFFFFFFFFFFFFFFFFFFFFFFFFFFFFFFFFFFFFFFFFFFFFFFFFFFFFFFFFF
310
FFFFFFFFFFFFFFFFF000FFFFFFFFFFFFFFFFFFFFFFFFFFFFFFFFFFFFFFFFFFFF
310
FFFFFFFFFFFFFFFFFFFFFFFFFFFFFFFFFFFFFFFFFFFFFFFFFFFFFFFFFFFFFFFF
310
FFFFFFFFFFFFFFFFFFFFFFFFFFFFFFFFFFFFFFFFFFFFFFFFFFFFFFFFFFFFFFFF
310
F000FFFFFFFFFFFFFFFFFFFFFFFFFFFFFFFFFFFFFFFFFFFFFFFFFFFFFFFFFFFF
310
FFFFFFFFFFFFFFFFFFFFFFFFFFFFFFFFFFFFFFFFFFFFFFFFFFFFFFFFFFFFFFFF
310
FFFFFFFFFFFFFFFFFFFFFFFFFFFFFFFFFFFFFFFFFFFFFFFFF000FFFFFFFFFFFF
310
FFFFFFFFFFFFFFFFFFFFFFFFFFFFFFFFFFFFFFFFFFFFFFFFFFFFFFFFFFFFFFFF
310
FFFFFFFFFFFFFFFFFFFFFFFFFFFFFFFFFFFFFFFFFFFFFFFFFFFFFFFFFFFFFFFF
310
FFFFFFFFFFFFFFFFFFFFFFFFFFFFFFFFF000FFFFFFFFFFFFFFFFFFFFFFFFFFFF
310
FFFFFFFFFFFFFFFFFFFFFFFFFFFFFFFFFFFFFFFFFFFFFFFFFFFFFFFFFFFFFFFF
310
FFFFFFFFFFFFFFFFFFFFFFFFFFFFFFFFFFFFFFFFFFFFFFFFFFFFFFFFFFFFFFFF
310
FFFFFFFFFFFFFFFFF000FFFFFFFFFFFFFFFFFFFFFFFFFFFFFFFFFFFFFFFFFFFF
310
FFFFFFFFFFFFFFFFFFFFFFFFFFFFFFFFFFFFFFFFFFFFFFFFFFFFFFFFFFFFFFFF
310
FFFFFFFFFFFFFFFFFFFFFFFFFFFFFFFFFFFFFFFFFFFFFFFFFFFFFFFFFFFFFFFF
310
F000FFFFFFFFFFFFFFFFFFFFFFFFFFFFFFFFFFFFFFFFFFFFFFFFFFFFFFFFFFFF
310
FFFFFFFFFFFFFFFFFFFFFFFFFFFFFFFFFFFFFFFFFFFFFFFFFFFFFFFFFFFFFFFF
310
FFFFFFFFFFFFFFFFFFFFFFFFFFFFFFFFFFFFFFFFFFFFFFFFF000FFFFFFFFFFFF
310
FFFFFFFFFFFFFFFFFFFFFFFFFFFFFFFFFFFFFFFFFFFFFFFFFFFFFFFFFFFFFFFF
310
FFFFFFFFFFFFFFFFFFFFFFFFFFFFFFFFFFFFFFFFFFFFFFFFFFFFFFFFFFFFFFFF
310
FFFFFFFFFFFFFFFFFFFFFFFFFFFFFFFFF000FFFFFFFFFFFFFFFFFFFFFFFFFFFF
310
FFFFFFFFFFFFFFFFFFFFFFFFFFFFFFFFFFFFFFFFFFFFFFFFFFFFFFFFFFFFFFFF
310
FFFFFFFFFFFFFFFFFFFFFFFFFFFFFFFFFFFFFFFFFFFFFFFFFFFFFFFFFFFFFFFF
310
FFFFFFFFFFFFFFFFF000FFFFFFFFFFFFFFFFFFFFFFFFFFFFFFFFFFFFFFFFFFFF
310
FFFFFFFFFFFFFFFFFFFFFFFFFFFFFFFFFFFFFFFFFFFFFFFFFFFFFFFFFFFFFFFF
310
FFFFFFFFFFFFFFFFFFFFFFFFFFFFFFFFFFFFFFFFFFFFFFFFFFFFFFFFFFFFFFFF
310
F000FFFFFFFFFFFFFFFFFFFFFFFFFFFFFFFFFFFFFFFFFFFFFFFFFFFFFFFFFFFF
310
FFFFFFFFFFFFFFFFFFFFFFFFFFFFFFFFFFFFFFFFFFFFFFFFFFFFFFFFFFFFFFFF
310
FFFFFFFFFFFFFFFFFFFFFFFFFFFFFFFFFFFFFFFFFFFFFFFFF000FFFFFFFFFFFF
310
FFFFFFFFFFFFFFFFFFFFFFFFFFFFFFFFFFFFFFFFFFFFFFFFFFFFFFFFFFFFFFFF
310
FFFFFFFFFFFFFFFFFFFFFFFFFFFFFFFFFFFFFFFFFFFFFFFFFFFFFFFFFFFFFFFF
310
FFFFFFFFFFFFFFFFFFFFFFFFFFFFFFFFF000FFFFFFFFFFFFFFFFFFFFFFFFFFFF
310
FFFFFFFFFFFFFFFFFFFFFFFFFFFFFFFFFFFFFFFFFFFFFFFFFFFFFFFFFFFFFFFF
310
FFFFFFFFFFFFFFFFFFFFFFFFFFFFFFFFFFFFFFFFFFFFFFFFFFFFFFFFFFFFFFFF
310
FFFFFFFFFFFFFFFFF000FFFFF80003FFFFFFFFFFFFFFFFFFFFFFFFFFFFFFFFFF
310
FFFFF00007FFFFFFFFFF00007FFFFFF800000000000000007FFFFFFFFFFFFFFF
310
FFFFFFFC001FFFFFFFFFFFFFFC001FFFFFFFFFFFFFFFFFFFFFFFFFFE0007FFFF
310
F000FFFF8000007FFFFFFFF8000FFFFFC0007FFFFF80007FFFFF0000007FFFFF
310
FFF8000007FFFFF800000000000000007FFFFFF0001FFFFFFFFFFFC00001FFFF
310
FFFFFFFFC00001FFFFFFFF000000000003FFFFE000007FFFF000FFFE0000000F
310
FFFFFFF0000FFFFF80007FFFFF80007FFFFC0000001FFFFFFFC0000001FFFFF8
310
00000000000000007FFFFFF0001FFFFFFFFFFE0000003FFFFFFFFFFE0000003F
310
FFFFFF000000000003FFFF0000000FFFF000FFF800000003FFFFFFF00007FFFF
310
80007FFFFF80007FFFF000000007FFFFFF000000003FFFF80000000000000000
310
7FFFFFF0001FFFFFFFFFF80000000FFFFFFFFFF80000000FFFFFFF0000000000
310
03FFFC00000003FFF000FFE000000000FFFFFFF00007FFFF80003FFFFF80007F
310
FFC000000001FFFFFC000000001FFFF800000000000000007FFFFFF0001FFFFF
310
FFFFE000000003FFFFFFFFE000000003FFFFFF000000000003FFF000000000FF
310
F000FF80000000007FFFFFF00007FFFF80003FFFFF80007FFF8000000000FFFF
310
F80000000007FFF800000000000000007FFFFFF0001FFFFFFFFFC000000001FF
310
FFFFFFC000000001FFFFFF000000000003FFC0000000007FF000FF0000000000
310
3FFFFFE00007FFFF00003FFFFF80007FFE00000000003FFFF00000000003FFF8
310
00000000000000007FFFFFF0001FFFFFFFFF8000000000FFFFFFFF8000000000
310
FFFFFF000000000003FF80000000003FF000FE00000000001FFFFFE00003FFFF
310
00003FFFFF80007FFC00000000001FFFE00000000001FFF8000001FFFE000000
310
7FFFFFF0001FFFFFFFFE00000000003FFFFFFE00000000003FFFFF0000000000
310
03FF00000000001FF000FC00000000000FFFFFE00003FFFF00001FFFFF80007F
310
F800000000001FFFC00000000000FFF8000001FFFE0000007FFFFFF0001FFFFF
310
FFFC00000000001FFFFFFC00000000001FFFFF000000000003FE00000000000F
310
F000F8000000000007FFFFE00003FFFF00001FFFFF80007FF800000000000FFF
310
800000000000FFF8000001FFFE0000007FFFFFF0001FFFFFFFF800000000000F
310
FFFFF800000000000FFFFF000000000003FC000000000007F000F80000000000
310
03FFFFC00003FFFE00001FFFFF80007FF0000000000007FF0000000000007FF8
310
000001FFFE0000007FFFFFF0001FFFFFFFF0000000000007FFFFF00000000000
310
07FFFF000000000003F8000000000003F000F0000000000003FFFFC00001FFFE
310
00001FFFFF80007FE0000000000007FE0000000000003FF8000001FFFE000000
310
7FFFFFF0001FFFFFFFF0000000000007FFFFF0000000000007FFFF0000000000
310
03F800001F800003F000E00001FFF00001FFFFC00001FFFE00000FFFFF80007F
310
E00001FFE00003FE00001FFF00003FF8000001FFFE0000007FFFFFF0001FFFFF
310
FFE000003E000003FFFFE000003E000003FFFF000000000003F00001FFF80001
310
F000E00007FFFC0001FFFFC00001FFFE00000FFFFF80007FC0000FFFFC0003FC
310
0000FFFFC0001FF8000001FFFE0000007FFFFFF0001FFFFFFFC00003FFE00001
310
FFFFC00003FFE00001FFFF0001FFFFFFFFF00007FFFE0001F000E0000FFFFF00
310
00FFFF800001FFFC00000FFFFF80007FC0001FFFFE0001FC0001FFFFE0001FF8
310
000001FFFE0000007FFFFFF0001FFFFFFF80000FFFF80000FFFF80000FFFF800
310
00FFFF0003FFFFFFFFE0000FFFFF8000F000C0003FFFFF8000FFFF800000FFFC
310
000007FFFF80007F80003FFFFF0001FC0003FFFFF0001FF8000001FFFE000000
310
7FFFFFF0001FFFFFFF80003FFFFE0000FFFF80003FFFFE0000FFFF0003FFFFFF
310
FFE0003FFFFF8000F000C0003FFFFF8000FFFF800000FFFC000007FFFF80007F
310
80007FFFFF8001F80007FFFFF8000FF8000001FFFE0000007FFFFFF0001FFFFF
310
FF00007FFFFF00007FFF00007FFFFF00007FFF0003FFFFFFFFE0003FFFFFC000
310
F000C0007FFFFFC000FFFF000000FFFC000007FFFF80007F8000FFFFFF8000F8
310
000FFFFFF8000FF8000001FFFE0000007FFFFFF0001FFFFFFF0000FFFFFF8000
310
7FFF0000FFFFFF80007FFF0003FFFFFFFFC0007FFFFFC00070008000FFFFFFC0
310
00FFFF000000FFF8000007FFFF80007F8000FFFFFF8000F8000FFFFFF8000FF8
310
000001FFFE0000007FFFFFF0001FFFFFFE0001FFFFFFC0003FFE0001FFFFFFC0
310
003FFF0003FFFFFFFFC0007FFFFFE00070008000FFFFFFC0007FFF0000007FF8
310
000003FFFF80007F0001FFFFFF8000F8000FFFFFF8000FF8000001FFFE000000
310
7FFFFFF0001FFFFFFE0001FFFFFFC0003FFE0001FFFFFFC0003FFF0003FFFFFF
310
FFC000FFFFFFE00070008000FFFFFFC0007FFF0000007FF8000003FFFF80007F
310
0001FFFFFF8000F8001FFFFFF8000FF8000001FFFE0000007FFFFFF0001FFFFF
310
FE0003FFFFFFE0003FFE0003FFFFFFE0003FFF0003FFFFFFFFC000FFFFFFE000
310
70008000FFFFFFC0007FFE0000007FF8000003FFFF80007F0001FFFFFF8000F0
310
001FFFFFF8000FF8000001FFFE0000007FFFFFF0001FFFFFFC0003FFFFFFE000
310
1FFC0003FFFFFFE0001FFF0003FFFFFFFFC000FFFFFFC00070008000FFFFFF80
310
007FFE0000007FF0000003FFFF80007F0001FFFFFF0000F0001FFFFFF8000FF8
310
000001FFFE0000007FFFFFF0001FFFFFFC0007FFFFFFF0001FFC0007FFFFFFF0
310
001FFF0003FFFFFFFFC000FFFFFFC00070008001FFFFFF0000FFFE0000003FF0
310
000001FFFF80007F0001FFFFFF0000F8001FFFFFF0000FF8000001FFFE000000
310
7FFFFFF0001FFFFFFC0007FFFFFFF0001FFC0007FFFFFFF0001FFF0003FFFFFF
310
FFC001FFFFFF80007000FFFFFFFFFE0000FFFE0008003FF0008001FFFF80007F
310
FFFFFFFFFC0000FFFFFFFFFFE0000FF8000001FFFE0000007FFFFFF0001FFFFF
310
F8000FFFFFFFF8000FF8000FFFFFFFF8000FFF0003FFFFFFFFFFFFFFFFFF0000
310
7000FFFFFFFFFC0000FFFC0008003FF0008001FFFF80007FFFFFFFFFF80001FF
310
FFFFFFFF80000FF8000001FFFE0000007FFFFFF0001FFFFFF8000FFFFFFFF800
310
0FF8000FFFFFFFF8000FFF0003FFFFFFFFFFFFFFFFFE0000F000FFFFFFFFE000
310
00FFFC000C003FE000C001FFFF80007FFFFFFFFFC00001FFFFFFFFFE00001FF8
310
000001FFFE0000007FFFFFF0001FFFFFF8000FFFFFFFF8000FF8000FFFFFFFF8
310
000FFF0003FFFFFFFFFFFFFFFFF00000F000FFFFFFFE000001FFFC000C001FE0
310
00C000FFFF80007FFFFFFFFE000001FFFFFFFFE000001FF80FFFFFFFFFFFFFC0
310
7FFFFFF0001FFFFFF8000FFFFFFFF8000FF8000FFFFFFFF8000FFF0003FFFFFF
310
FFFFFFFFFF800000F000FFFFFFC0000001FFFC001C001FE001C000FFFF80007F
310
FFFFFF80000003FFFFFFF80000001FF80FFFFFFFFFFFFFC07FFFFFF0001FFFFF
310
F8001FFFFFFFFC000FF8001FFFFFFFFC000FFF0003FFFFFFFFFFFFFFF0000001
310
F000FFFFF800000001FFF8001C001FE001C000FFFF80007FFFFFF800000003FF
310
FFFF800000003FF80FFFFFFFFFFFFFC07FFFFFF0001FFFFFF8001FFFFFFFFC00
310
0FF8001FFFFFFFFC000FFF0003FFFFFFFFFFFFFE00000001F000FFFFC0000000
310
03FFF8001E001FC001E000FFFF80007FFFFF8000000007FFFFFC000000003FF8
310
0FFFFFFFFFFFFFC07FFFFFF0001FFFFFF8001FFFFFFFFC000FF8001FFFFFFFFC
310
000FFF0003FFFFFFFFFFFFE000000003F000FFFE0000000007FFF8001E000FC0
310
01E0007FFF80007FFFFE0000000007FFFFE0000000007FF80FFFFFFFFFFFFFC0
310
7FFFFFF0001FFFFFF0001FFFFFFFFC0007F0001FFFFFFFFC0007FF0003FFFFFF
310
FFFFFF0000000003F000FFF80000000007FFF8001E000FC003E0007FFF80007F
310
FFF0000000000FFFFF8000000000FFF80FFFFFFFFFFFFFC07FFFFFF0001FFFFF
310
F0001FFFFFFFFC0007F0001FFFFFFFFC0007FF0003FFFFFFFFFFFC0000000007
310
F000FFE0000000000FFFF0003E000FC003E0007FFF80007FFFC0000000001FFF
310
FE0000000001FFF80FFFFFFFFFFFFFC07FFFFFF0001FFFFFF0001FFFFFFFFC00
310
07F0001FFFFFFFFC0007FF0003FFFFFFFFFFF0000000000FF000FFC000000000
310
1FFFF0003F000F8003F0003FFF80007FFF80000000003FFFF80000000003FFF8
310
0FFFFFFFFFFFFFC07FFFFFF0001FFFFFF0001FFFFFFFFC0007F0001FFFFFFFFC
310
0007FF0003FFFFFFFFFFE0000000001FF000FF00000000007FFFF0003F000780
310
03F0003FFF80007FFF00000000007FFFF00000000007FFF80FFFFFFFFFFFFFC0
310
7FFFFFF0001FFFFFF0001FFFFFFFFC0007F0001FFFFFFFFC0007FF0003FFFFFF
310
FFFF80000000007FF000FE0000000000FFFFE0003F00078007F0003FFF80007F
310
FE0000000001FFFFE0000000001FFFF80FFFFFFFFFFFFFC07FFFFFF0001FFFFF
310
F0001FFFFFFFFC0007F0001FFFFFFFFC0007FF0003FFFFFFFFFF0000000000FF
310
F000FC0000000003FFFFE0007F00078007F0003FFF80007FFC0000000007FFFF
310
C0000000007FFFF80FFFFFFFFFFFFFC07FFFFFF0001FFFFFF8001FFFFFFFFC00
310
0FF8001FFFFFFFFC000FFF0003FFFFFFFFFE0000000003FFF000FC000000000F
310
FFFFE0007F80070007F8001FFF80007FF8000000001FFFFF8000000001FFFFF8
310
0FFFFFFFFFFFFFC07FFFFFF0001FFFFFF8001FFFFFFFFC000FF8001FFFFFFFFC
310
000FFF0003FFFFFFFFFC000000000FFFF000F8000000007FFFFFE0007F800700
310
07F8001FFF80007FF000000000FFFFFF800000000FFFFFF80FFFFFFFFFFFFFC0
310
7FFFFFF0001FFFFFF8000FFFFFFFF8000FF8000FFFFFFFF8000FFF0003FFFFFF
310
FFFC000000007FFFF000F800000007FFFFFFC0007F8003000FF8001FFF80007F
310
F000000007FFFFFF000000007FFFFFF80FFFFFFFFFFFFFC07FFFFFF0001FFFFF
310
F8000FFFFFFFF8000FF8000FFFFFFFF8000FFF0003FFFFFFFFF80000000FFFFF
310
F000F0000000FFFFFFFFC000FF8003000FF8001FFF80007FE0000000FFFFFFFF
310
0000000FFFFFFFF8000001FFFE0000007FFFFFF0001FFFFFF8000FFFFFFFF800
310
0FF8000FFFFFFFF8000FFF0003FFFFFFFFF8000000FFFFFFF000F000000FFFFF
310
FFFFC000FFC002000FF8000FFF80007FE000001FFFFFFFFE000001FFFFFFFFF8
310
000001FFFE0000007FFFFFF0001FFFFFF8000FFFFFFFF8000FF8000FFFFFFFF8
310
000FFF0003FFFFFFFFF000001FFFFFFFF000E00000FFFFFFFFFFC000FFC00200
310
0FFC000FFF80007FE00001FFFFFFFFFE00001FFFFFFFFFF8000001FFFE000000
310
7FFFFFF0001FFFFFFC000FFFFFFFF8001FFC000FFFFFFFF8001FFF0003FFFFFF
310
FFF00001FFFFFFFFF000E00007FFFFFFFFFF8000FFC000001FFC000FFF80007F
310
C0000FFFFFFFFFFE0000FFFFFFFFFFF8000001FFFE0000007FFFFFF0001FFFFF
310
FC0007FFFFFFF0001FFC0007FFFFFFF0001FFF0003FFFFFFFFF00007FFFFFFFF
310
F000E0001FFFFFFFFFFF8000FFC000001FFC000FFF80007FC0003FFFFFFFFFFE
310
0001FFFFFFFFFFF8000001FFFE0000007FFFFFF0001FFFFFFC0007FFFFFFF000
310
1FFC0007FFFFFFF0001FFF0003FFFFFFFFF0001FFFFFFFFFF000E0003FFFFF00
310
03FF8001FFE000001FFC0007FF80007FC0007FFFFF0007FC0003FFFFF0003FF8
310
000001FFFE0000007FFFFFF0001FFFFFFC0003FFFFFFE0001FFC0003FFFFFFE0
310
001FFF0003FFFFFFFFF0003FFFFFFFFFF000E0003FFFFF0001FF8001FFE00000
310
1FFE0007FF80007FC0007FFFFE0003FC0007FFFFE0003FF8000001FFFE000000
310
7FFFFFF0001FFFFFFE0003FFFFFFE0003FFE0003FFFFFFE0003FFF0003FFFFFF
310
FFF0003FFFFF8001F000E0003FFFFF0001FF0001FFE000001FFE0007FF80007F
310
C0007FFFFE0003FC0007FFFFE0003FF8000001FFFE0000007FFFFFF0001FFFFF
310
FE0001FFFFFFC0003FFE0001FFFFFFC0003FFF0003FFFFFFFFF0003FFFFF0001
310
F000E0003FFFFF0003FF0001FFE000003FFE0007FF80007FC0007FFFFE0003FC
310
0007FFFFE0003FF8000001FFFE0000007FFFFFF0001FFFFFFF0001FFFFFFC000
310
7FFF0001FFFFFFC0007FFF0003FFFFFFFFF0003FFFFF0001F000E0003FFFFE00
310
03FF0003FFF000003FFE0003FF80007FC0007FFFFC0003FE0007FFFFE0003FF8
310
000001FFFE0000007FFFFFF0001FFFFFFF0000FFFFFF80007FFF0000FFFFFF80
310
007FFF0003FFFFFFFFF0003FFFFF0001F000E0003FFFFE0003FF0003FFF00000
310
3FFF0003FF80007FC0007FFFFC0007FE0007FFFFC0003FF8000001FFFE000000
310
7FFFFFF0001FFFFFFF80007FFFFF0000FFFF80007FFFFF0000FFFF0003FFFFFF
310
FFF0003FFFFF0003F000E0003FFFFC0003FE0003FFF000003FFF0003FF80007F
310
E0003FFFF80007FE0003FFFFC0007FF8000001FFFE0000007FFFFFF0001FFFFF
310
FF80003FFFFE0000FFFF80003FFFFE0000FFFF0003FFFFFFFFF0001FFFFE0003
310
F000F0001FFFF80003FE0003FFF000007FFF0001FF80007FE0003FFFF00007FE
310
0001FFFF80007FF8000001FFFE0000007FFFFFF0001FFFFFFFC0000FFFF80001
310
FFFFC0000FFFF80001FFFF0003FFFFFFFFF0001FFFFC0003F000F0000FFFF000
310
07FE0007FFF800007FFF0001FF80007FE0001FFFE00007FF0000FFFE00007FF8
310
000001FFFE0000007FFFFFF0001FFFFFFFC00003FFE00001FFFFC00003FFE000
310
01FFFF0003FFFFFFFFF8000FFFF80003F000F00003FFC00007FC0007FFF80000
310
7FFF8001FF80007FF00007FF80000FFF00007FF80000FFF8000001FFFE000000
310
7F80000000000001FFE000003E000003FFFFE000003E000003FFFF0003FFFFFF
310
FFF80003FFE00007F000F800000000000FFC0007FFF800007FFF8001FF80007F
310
F000000000000FFF000000000000FFF8000001FFFE0000007F80000000000001
310
FFF0000000000007FFFFF0000000000007FFFF0003FFFFFFFFFC00007E000007
310
F000F800000000000FFC0007FFF80000FFFF8000FF80007FF800000000001FFF
310
800000000001FFF8000001FFFE0000007F80000000000001FFF800000000000F
310
FFFFF800000000000FFFFF0003FFFFFFFFFC00000000000FF000FC0000000000
310
1FFC0007FFFC0000FFFF8000FF80007FF800000000003FFFC00000000001FFF8
310
000001FFFE0000007F80000000000001FFF800000000000FFFFFF80000000000
310
0FFFFF0003FFFFFFFFFE00000000001FF000FE00000000003FF8000FFFFC0000
310
FFFF8000FF80007FFC00000000003FFFC00000000003FFF8000001FFFE000000
310
7F80000000000001FFFC00000000001FFFFFFC00000000001FFFFF0003FFFFFF
310
FFFF00000000001FF000FF00000000003FF8000FFFFC0000FFFFC000FF80007F
310
FE00000000007FFFE00000000007FFF8000001FFFE0000007F80000000000001
310
FFFE00000000003FFFFFFE00000000003FFFFF0003FFFFFFFFFF80000000003F
310
F000FF80000000007FF8000FFFFC0001FFFFC0007F80007FFF0000000000FFFF
310
F0000000000FFFF800000000000000007F80000000000001FFFF8000000000FF
310
FFFFFF8000000000FFFFFF0003FFFFFFFFFFC0000000007FF000FFC000000000
310
FFF8000FFFFE0001FFFFC0007F80007FFF8000000001FFFFF8000000001FFFF8
310
00000000000000007F80000000000001FFFFC000000001FFFFFFFFC000000001
310
FFFFFF0003FFFFFFFFFFE000000000FFF000FFE000000003FFF0001FFFFE0001
310
FFFFC0007F80007FFFC000000007FFFFFE000000003FFFF80000000000000000
310
7F80000000000001FFFFE000000003FFFFFFFFE000000003FFFFFF0003FFFFFF
310
FFFFF000000003FFF000FFF80000000FFFF0001FFFFE0001FFFFE0007F80007F
310
FFF00000000FFFFFFF00000000FFFFF800000000000000007F80000000000001
310
FFFFF80000000FFFFFFFFFF80000000FFFFFFF0003FFFFFFFFFFFC0000000FFF
310
F000FFFE0000003FFFF0001FFFFE0003FFFFE0003F80007FFFFC0000003FFFFF
310
FFC0000003FFFFF800000000000000007F80000000000001FFFFFE0000003FFF
310
FFFFFFFE0000003FFFFFFF0003FFFFFFFFFFFF0000003FFFF000FFFF800000FF
310
FFF0001FFFFF0003FFFFE0003F80007FFFFF000001FFFFFFFFF800001FFFFFF8
310
00000000000000007F80000000000001FFFFFFC00001FFFFFFFFFFFFC00001FF
310
FFFFFF0003FFFFFFFFFFFFC00000FFFFF000FFFFF8000FFFFFFFFFFFFFFFFFFF
310
FFFFFFFFFFFFFFFFFFFFF0001FFFFFFFFFFF0000FFFFFFF80000000000000000
310
7FFFFFFFFFFFFFFFFFFFFFFC001FFFFFFFFFFFFFFC001FFFFFFFFFFFFFFFFFFF
310
FFFFFFFC001FFFFFF000FFFFFFFFFFFFFFFFFFFFFFFFFFFFFFFFFFFFFFFFFFFF
310
FFFFFFFFFFFFFFFFFFFFFFFFFFFFFFFFFFFFFFFFFFFFFFFFFFFFFFFFFFFFFFFF
310
FFFFFFFFFFFFFFFFFFFFFFFFFFFFFFFFFFFFFFFFFFFFFFFFFFFFFFFFFFFFFFFF
310
F000FFFFFFFFFFFFFFFFFFFFFFFFFFFFFFFFFFFFFFFFFFFFFFFFFFFFFFFFFFFF
310
FFFFFFFFFFFFFFFFFFFFFFFFFFFFFFFFFFFFFFFFFFFFFFFFFFFFFFFFFFFFFFFF
310
FFFFFFFFFFFFFFFFFFFFFFFFFFFFFFFFFFFFFFFFFFFFFFFFF000FFFFFFFFFFFF
310
FFFFFFFFFFFFFFFFFFFFFFFFFFFFFFFFFFFFFFFFFFFFFFFFFFFFFFFFFFFFFFFF
310
FFFFFFFFFFFFFFFFFFFFFFFFFFFFFFFFFFFFFFFFFFFFFFFFFFFFFFFFFFFFFFFF
310
FFFFFFFFFFFFFFFFFFFFFFFFFFFFFFFFF000FFFFFFFFFFFFFFFFFFFFFFFFFFFF
310
FFFFFFFFFFFFFFFFFFFFFFFFFFFFFFFFFFFFFFFFFFFFFFFFFFFFFFFFFFFFFFFF
310
FFFFFFFFFFFFFFFFFFFFFFFFFFFFFFFFFFFFFFFFFFFFFFFFFFFFFFFFFFFFFFFF
310
FFFFFFFFFFFFFFFFF000FFFFFFFFFFFFFFFFFFFFFFFFFFFFFFFFFFFFFFFFFFFF
310
FFFFFFFFFFFFFFFFFFFFFFFFFFFFFFFFFFFFFFFFFFFFFFFFFFFFFFFFFFFFFFFF
310
FFFFFFFFFFFFFFFFFFFFFFFFFFFFFFFFFFFFFFFFFFFFFFFFFFFFFFFFFFFFFFFF
310
F000FFFFFFFFFFFFFFFFFFFFFFFFFFFFFFFFFFFFFFFFFFFFFFFFFFFFFFFFFFFF
310
FFFFFFFFFFFFFFFFFFFFFFFFFFFFFFFFFFFFFFFFFFFFFFFFFFFFFFFFFFFFFFFF
310
FFFFFFFFFFFFFFFFFFFFFFFFFFFFFFFFFFFFFFFFFFFFFFFFF000FFFFFFFFFFFF
310
FFFFFFFFFFFFFFFFFFFFFFFFFFFFFFFFFFFFFFFFFFFFFFFFFFFFFFFFFFFFFFFF
310
FFFFFFFFFFFFFFFFFFFFFFFFFFFFFFFFFFFFFFFFFFFFFFFFFFFFFFFFFFFFFFFF
310
FFFFFFFFFFFFFFFFFFFFFFFFFFFFFFFFF000FFFFFFFFFFFFFFFFFFFFFFFFFFFF
310
FFFFFFFFFFFFFFFFFFFFFFFFFFFFFFFFFFFFFFFFFFFFFFFFFFFFFFFFFFFFFFFF
310
FFFFFFFFFFFFFFFFFFFFFFFFFFFFFFFFFFFFFFFFFFFFFFFFFFFFFFFFFFFFFFFF
310
FFFFFFFFFFFFFFFFF000FFFFFFFFFFFFFFFFFFFFFFFFFFFFFFFFFFFFFFFFFFFF
310
FFFFFFFFFFFFFFFFFFFFFFFFFFFFFFFFFFFFFFFFFFFFFFFFFFFFFFFFFFFFFFFF
310
FFFFFFFFFFFFFFFFFFFFFFFFFFFFFFFFFFFFFFFFFFFFFFFFFFFFFFFFFFFFFFFF
310
F000FFFFFFFFFFFFFFFFFFFFFFFFFFFFFFFFFFFFFFFFFFFFFFFFFFFFFFFFFFFF
310
FFFFFFFFFFFFFFFFFFFFFFFFFFFFFFFFFFFFFFFFFFFFFFFFFFFFFFFFFFFFFFFF
310
FFFFFFFFFFFFFFFFFFFFFFFFFFFFFFFFFFFFFFFFFFFFFFFFF000FFFFFFFFFFFF
310
FFFFFFFFFFFFFFFFFFFFFFFFFFFFFFFFFFFFFFFFFFFFFFFFFFFFFFFFFFFFFFFF
310
FFFFFFFFFFFFFFFFFFFFFFFFFFFFFFFFFFFFFFFFFFFFFFFFFFFFFFFFFFFFFFFF
310
FFFFFFFFFFFFFFFFFFFFFFFFFFFFFFFFF000FFFFFFFFFFFFFFFFFFFFFFFFFFFF
310
FFFFFFFFFFFFFFFFFFFFFFFFFFFFFFFFFFFFFFFFFFFFFFFFFFFFFFFFFFFFFFFF
310
FFFFFFFFFFFFFFFFFFFFFFFFFFFFFFFFFFFFFFFFFFFFFFFFFFFFFFFFFFFFFFFF
310
FFFFFFFFFFFFFFFFF000FFFFFFFFFFFFFFFFFFFFFFFFFFFFFFFFFFFFFFFFFFFF
310
FFFFFFFFFFFFFFFFFFFFFFFFFFFFFFFFFFFFFFFFFFFFFFFFFFFFFFFFFFFFFFFF
310
FFFFFFFFFFFFFFFFFFFFFFFFFFFFFFFFFFFFFFFFFFFFFFFFFFFFFFFFFFFFFFFF
310
F000FFFFFFFFFFFFFFFFFFFFFFFFFFFFFFFFFFFFFFFFFFFFFFFFFFFFFFFFFFFF
310
FFFFFFFFFFFFFFFFFFFFFFFFFFFFFFFFFFFFFFFFFFFFFFFFFFFFFFFFFFFFFFFF
310
FFFFFFFFFFFFFFFFFFFFFFFFFFFFFFFFFFFFFFFFFFFFFFFFF000FFFFFFFFFFFF
310
FFFFFFFFFFFFFFFFFFFFFFFFFFFFFFFFFFFFFFFFFFFFFFFFFFFFFFFFFFFFFFFF
310
FFFFFFFFFFFFFFFFFFFFFFFFFFFFFFFFFFFFFFFFFFFFFFFFFFFFFFFFFFFFFFFF
310
FFFFFFFFFFFFFFFFFFFFFFFFFFFFFFFFF000FFFFFFFFFFFFFFFFFFFFFFFFFFFF
310
FFFFFFFFFFFFFFFFFFFFFFFFFFFFFFFFFFFFFFFFFFFFFFFFFFFFFFFFFFFFFFFF
310
FFFFFFFFFFFFFFFFFFFFFFFFFFFFFFFFFFFFFFFFFFFFFFFFFFFFFFFFFFFFFFFF
310
FFFFFFFFFFFFFFFFF000FFFFFFFFFFFFFFFFFFFFFFFFFFFFFFFFFFFFFFFFFFFF
310
FFFFFFFFFFFFFFFFFFFFFFFFFFFFFFFFFFFFFFFFFFFFFFFFFFFFFFFFFFFFFFFF
310
FFFFFFFFFFFFFFFFFFFFFFFFFFFFFFFFFFFFFFFFFFFFFFFFFFFFFFFFFFFFFFFF
310
F000FFFFFFFFFFFFFFFFFFFFFFFFFFFFFFFFFFFFFFFFFFFFFFFFFFFFFFFFFFFF
310
FFFFFFFFFFFFFFFFFFFFFFFFFFFFFFFFFFFFFFFFFFFFFFFFFFFFFFFFFFFFFFFF
310
FFFFFFFFFFFFFFFFFFFFFFFFFFFFFFFFFFFFFFFFFFFFFFFFF000FFFFFFFFFFFF
310
FFFFFFFFFFFFFFFFFFFFFFFFFFFFFFFFFFFFFFFFFFFFFFFFFFFFFFFFFFFFFFFF
310
FFFFFFFFFFFFFFFFFFFFFFFFFFFFFFFFFFFFFFFFFFFFFFFFFFFFFFFFFFFFFFFF
310
FFFFFFFFFFFFFFFFFFFFFFFFFFFFFFFFF000FFFFFFFFFFFFFFFFFFFFFFFFFFFF
310
FFFFFFFFFFFFFFFFFFFFFFFFFFFFFFFFFFFFFFFFFFFFFFFFFFFFFFFFFFFFFFFF
310
FFFFFFFFFFFFFFFFFFFFFFFFFFFFFFFFFFFFFFFFFFFFFFFFFFFFFFFFFFFFFFFF
310
FFFFFFFFFFFFFFFFF000FFFFFFFFFFFFFFFFFFFFFFFFFFFFFFFFFFFFFFFFFFFF
310
FFFFFFFFFFFFFFFFFFFFFFFFFFFFFFFFFFFFFFFFFFFFFFFFFFFFFFFFFFFFFFFF
310
FFFFFFFFFFFFFFFFFFFFFFFFFFFFFFFFFFFFFFFFFFFFFFFFFFFFFFFFFFFFFFFF
310
F000FFFFFFFFFFFFFFFFFFFFFFFFFFFFFFFFFFFFFFFFFFFFFFFFFFFFFFFFFFFF
310
FFFFFFFFFFFFFFFFFFFFFFFFFFFFFFFFFFFFFFFFFFFFFFFFFFFFFFFFFFFFFFFF
310
FFFFFFFFFFFFFFFFFFFFFFFFFFFFFFFFFFFFFFFFFFFFFFFFF000FFFFFFFFFFFF
310
FFFFFFFFFFFFFFFFFFFFFFFFFFFFFFFFFFFFFFFFFFFFFFFFFFFFFFFFFFFFFFFF
310
FFFFFFFFFFFFFFFFFFFFFFFFFFFFFFFFFFFFFFFFFFFFFFFFFFFFFFFFFFFFFFFF
310
FFFFFFFFFFFFFFFFFFFFFFFFFFFFFFFFF0000000000000000000000000000000
310
0000000001000000010000000100000001000000010000000100000001000000
310
0100000001000000010000000100000001000000010000000100000001000000
310
0100000001000000010000000100000001000000010000000000000001000000
310
0100000001000000010000000000000001000000000000000100000001000000
310
0100000001000000010000000100000001000000010000000000000001000000
310
0000000001000000000000000100000001000000010000000100000001000000
310
0100000001000000010000000000000001000000000000000100000001000000
310
0100000001000000000000000100000000000000010000000100000001000000
310
0100000000000000010000000100000001000000010000000000000001000000
310
0000000001000000010000000100000001000000010000000100000001000000
310
0100000000000000010000000000000001000000000000000100000000000000
310
0100000000000000010000000100000001000000010000000100000001000000
310
0100000001000000000000000100000000000000010000000000000001000000
310
0000000001000000000000000100000000000000010000000000000001000000
310
0100000001000000010000000000000001000000000000000100000000000000
  1
OLE
  0
ENDSEC
  0
SECTION
  2
OBJECTS
  0
DICTIONARY
  5
C
330
0
100
AcDbDictionary
281
     1
  3
ACAD_GROUP
350
D
  3
ACAD_LAYOUT
350
1A
  3
ACAD_MLEADERSTYLE
350
23E
  3
ACAD_MLINESTYLE
350
17
  3
ACAD_PLOTSETTINGS
350
19
  3
ACAD_PLOTSTYLENAME
350
E
  3
ACAD_TABLESTYLE
350
23D
  3
ACAD_VISUALSTYLE
350
2A
  3
AcDbVariableDictionary
350
23F
  0
DICTIONARY
  5
D
102
{ACAD_REACTORS
330
C
102
}
330
C
100
AcDbDictionary
281
     1
  0
DICTIONARY
  5
1A
102
{ACAD_REACTORS
330
C
102
}
330
C
100
AcDbDictionary
281
     1
  3
Layout1
350
1E
  3
Layout2
350
26
  3
Model
350
22
  0
DICTIONARY
  5
23E
102
{ACAD_REACTORS
330
C
102
}
330
C
100
AcDbDictionary
281
     1
  0
DICTIONARY
  5
17
102
{ACAD_REACTORS
330
C
102
}
330
C
100
AcDbDictionary
281
     1
  3
Standard
350
18
  0
DICTIONARY
  5
19
102
{ACAD_REACTORS
330
C
102
}
330
C
100
AcDbDictionary
281
     1
  0
ACDBDICTIONARYWDFLT
  5
E
102
{ACAD_REACTORS
330
C
102
}
330
C
100
AcDbDictionary
281
     1
  3
Normal
350
F
100
AcDbDictionaryWithDefault
340
F
  0
DICTIONARY
  5
23D
102
{ACAD_REACTORS
330
C
102
}
330
C
100
AcDbDictionary
281
     1
  0
DICTIONARY
  5
2A
102
{ACAD_REACTORS
330
C
102
}
330
C
100
AcDbDictionary
281
     1
  3
2dWireframe
350
2F
  3
3D Hidden
350
31
  3
3dWireframe
350
30
  3
Basic
350
32
  3
Brighten
350
36
  3
ColorChange
350
3A
  3
Conceptual
350
34
  3
Dim
350
35
  3
Facepattern
350
39
  3
Flat
350
2B
  3
FlatWithEdges
350
2C
  3
Gouraud
350
2D
  3
GouraudWithEdges
350
2E
  3
Linepattern
350
38
  3
Realistic
350
33
  3
Thicken
350
37
  0
DICTIONARY
  5
23F
102
{ACAD_REACTORS
330
C
102
}
330
C
100
AcDbDictionary
281
     1
  3
PSOLHEIGHT
350
241
  3
PSOLWIDTH
350
240
  0
LAYOUT
  5
1E
102
{ACAD_REACTORS
330
1A
102
}
330
1A
100
AcDbPlotSettings
  1

  2
none_device
  4

  6

 40
0.0
 41
0.0
 42
0.0
 43
0.0
 44
0.0
 45
0.0
 46
0.0
 47
0.0
 48
0.0
 49
0.0
140
0.0
141
0.0
142
1.0
143
1.0
 70
   688
 72
     0
 73
     0
 74
     5
  7

 75
    16
147
1.0
148
0.0
149
0.0
100
AcDbLayout
  1
Layout1
 70
     1
 71
     1
 10
0.0
 20
0.0
 11
420.0
 21
297.0
 12
0.0
 22
0.0
 32
0.0
 14
1.0000000000E+20
 24
1.0000000000E+20
 34
1.0000000000E+20
 15
-1.0000000000E+20
 25
-1.0000000000E+20
 35
-1.0000000000E+20
146
0.0
 13
0.0
 23
0.0
 33
0.0
 16
1.0
 26
0.0
 36
0.0
 17
0.0
 27
1.0
 37
0.0
 76
     0
330
1B
  0
LAYOUT
  5
26
102
{ACAD_REACTORS
330
1A
102
}
330
1A
100
AcDbPlotSettings
  1

  2
none_device
  4

  6

 40
0.0
 41
0.0
 42
0.0
 43
0.0
 44
0.0
 45
0.0
 46
0.0
 47
0.0
 48
0.0
 49
0.0
140
0.0
141
0.0
142
1.0
143
1.0
 70
   688
 72
     0
 73
     0
 74
     5
  7

 75
    16
147
1.0
148
0.0
149
0.0
100
AcDbLayout
  1
Layout2
 70
     1
 71
     2
 10
0.0
 20
0.0
 11
0.0
 21
0.0
 12
0.0
 22
0.0
 32
0.0
 14
0.0
 24
0.0
 34
0.0
 15
0.0
 25
0.0
 35
0.0
146
0.0
 13
0.0
 23
0.0
 33
0.0
 16
1.0
 26
0.0
 36
0.0
 17
0.0
 27
1.0
 37
0.0
 76
     0
330
23
  0
LAYOUT
  5
22
102
{ACAD_REACTORS
330
1A
102
}
330
1A
100
AcDbPlotSettings
  1

  2
none_device
  4

  6

 40
0.0
 41
0.0
 42
0.0
 43
0.0
 44
0.0
 45
0.0
 46
0.0
 47
0.0
 48
0.0
 49
0.0
140
0.0
141
0.0
142
1.0
143
1.0
 70
  1712
 72
     0
 73
     0
 74
     0
  7

 75
     0
147
1.0
148
0.0
149
0.0
100
AcDbLayout
  1
Model
 70
     1
 71
     0
 10
0.0
 20
0.0
 11
297.0
 21
210.0
 12
0.0
 22
0.0
 32
0.0
 14
0.0
 24
0.0
 34
0.0
 15
297.0
 25
210.0
 35
0.0
146
0.0
 13
0.0
 23
0.0
 33
0.0
 16
1.0
 26
0.0
 36
0.0
 17
0.0
 27
1.0
 37
0.0
 76
     0
330
1F
331
29
  0
MLINESTYLE
  5
18
102
{ACAD_REACTORS
330
17
102
}
330
17
100
AcDbMlineStyle
  2
Standard
 70
     0
  3

 62
   256
 51
90.0
 52
90.0
 71
     2
 49
0.5
 62
   256
  6
BYLAYER
 49
-0.5
 62
   256
  6
BYLAYER
  0
ACDBPLACEHOLDER
  5
F
102
{ACAD_REACTORS
330
E
102
}
330
E
  0
VISUALSTYLE
  5
2F
102
{ACAD_REACTORS
330
2A
102
}
330
2A
100
AcDbVisualStyle
  2
2dWireframe
 70
     4
 71
     0
 72
     2
 73
     0
 90
        0
 40
-0.6
 41
-30.0
 62
     5
 63
     7
 74
     1
 91
        4
 64
     7
 65
   257
 75
     1
175
     1
 42
1.0
 92
        0
 66
   257
 43
1.0
 76
     1
 77
     6
 78
     2
 67
     7
 79
     5
170
     0
171
     0
290
     0
174
     0
 93
        1
 44
0.0
173
     0
291
     0
 45
0.0
1001
ACAD
1000
AcDbSavedByObjectVersion
1070
     0
  0
VISUALSTYLE
  5
31
102
{ACAD_REACTORS
330
2A
102
}
330
2A
100
AcDbVisualStyle
  2
3D Hidden
 70
     6
 71
     1
 72
     2
 73
     2
 90
        0
 40
-0.6
 41
-30.0
 62
     5
 63
     7
 74
     2
 91
        2
 64
     7
 65
   257
 75
     2
175
     1
 42
40.0
 92
        0
 66
   257
 43
1.0
 76
     1
 77
     6
 78
     2
 67
     7
 79
     3
170
     0
171
     0
290
     0
174
     0
 93
        1
 44
0.0
173
     0
291
     0
 45
0.0
1001
ACAD
1000
AcDbSavedByObjectVersion
1070
     0
  0
VISUALSTYLE
  5
30
102
{ACAD_REACTORS
330
2A
102
}
330
2A
100
AcDbVisualStyle
  2
3dWireframe
 70
     5
 71
     0
 72
     2
 73
     0
 90
        0
 40
-0.6
 41
-30.0
 62
     5
 63
     7
 74
     1
 91
        4
 64
     7
 65
   257
 75
     1
175
     1
 42
1.0
 92
        0
 66
   257
 43
1.0
 76
     1
 77
     6
 78
     2
 67
     7
 79
     5
170
     0
171
     0
290
     0
174
     0
 93
        1
 44
0.0
173
     0
291
     0
 45
0.0
1001
ACAD
1000
AcDbSavedByObjectVersion
1070
     0
  0
VISUALSTYLE
  5
32
102
{ACAD_REACTORS
330
2A
102
}
330
2A
100
AcDbVisualStyle
  2
Basic
 70
     7
 71
     1
 72
     0
 73
     1
 90
        0
 40
-0.6
 41
-30.0
 62
     5
 63
     7
 74
     0
 91
        4
 64
     7
 65
   257
 75
     1
175
     1
 42
1.0
 92
        8
 66
     7
 43
1.0
 76
     1
 77
     6
 78
     2
 67
     7
 79
     5
170
     0
171
     0
290
     0
174
     0
 93
        1
 44
0.0
173
     0
291
     1
 45
0.0
1001
ACAD
1000
AcDbSavedByObjectVersion
1070
     0
  0
VISUALSTYLE
  5
36
102
{ACAD_REACTORS
330
2A
102
}
330
2A
100
AcDbVisualStyle
  2
Brighten
 70
    12
 71
     2
 72
     2
 73
     0
 90
        0
 40
-0.6
 41
-30.0
 62
     5
 63
     7
 74
     1
 91
        4
 64
     7
 65
   257
 75
     1
175
     1
 42
1.0
 92
        8
 66
     7
 43
1.0
 76
     1
 77
     6
 78
     2
 67
     7
 79
     5
170
     0
171
     0
290
     0
174
     0
 93
        1
 44
50.0
173
     0
291
     1
 45
0.0
1001
ACAD
1000
AcDbSavedByObjectVersion
1070
     0
  0
VISUALSTYLE
  5
3A
102
{ACAD_REACTORS
330
2A
102
}
330
2A
100
AcDbVisualStyle
  2
ColorChange
 70
    16
 71
     2
 72
     2
 73
     3
 90
        0
 40
-0.6
 41
-30.0
 62
     5
 63
     8
 74
     1
 91
        4
 64
     7
 65
   257
 75
     1
175
     1
 42
1.0
 92
        8
 66
     8
 43
1.0
 76
     1
 77
     6
 78
     2
 67
     7
 79
     5
170
     0
171
     0
290
     0
174
     0
 93
        1
 44
0.0
173
     0
291
     1
 45
0.0
1001
ACAD
1000
AcDbSavedByObjectVersion
1070
     0
  0
VISUALSTYLE
  5
34
102
{ACAD_REACTORS
330
2A
102
}
330
2A
100
AcDbVisualStyle
  2
Conceptual
 70
     9
 71
     3
 72
     2
 73
     0
 90
        0
 40
-0.6
 41
-30.0
 62
     5
 63
     7
 74
     2
 91
        2
 64
     7
 65
   257
 75
     1
175
     1
 42
40.0
 92
        8
 66
     7
 43
1.0
 76
     1
 77
     6
 78
     2
 67
     7
 79
     3
170
     0
171
     0
290
     0
174
     0
 93
        1
 44
0.0
173
     0
291
     0
 45
0.0
1001
ACAD
1000
AcDbSavedByObjectVersion
1070
     0
  0
VISUALSTYLE
  5
35
102
{ACAD_REACTORS
330
2A
102
}
330
2A
100
AcDbVisualStyle
  2
Dim
 70
    11
 71
     2
 72
     2
 73
     0
 90
        0
 40
-0.6
 41
-30.0
 62
     5
 63
     7
 74
     1
 91
        4
 64
     7
 65
   257
 75
     1
175
     1
 42
1.0
 92
        8
 66
     7
 43
1.0
 76
     1
 77
     6
 78
     2
 67
     7
 79
     5
170
     0
171
     0
290
     0
174
     0
 93
        1
 44
-50.0
173
     0
291
     1
 45
0.0
1001
ACAD
1000
AcDbSavedByObjectVersion
1070
     0
  0
VISUALSTYLE
  5
39
102
{ACAD_REACTORS
330
2A
102
}
330
2A
100
AcDbVisualStyle
  2
Facepattern
 70
    15
 71
     2
 72
     2
 73
     0
 90
        0
 40
-0.6
 41
-30.0
 62
     5
 63
     7
 74
     1
 91
        4
 64
     7
 65
   257
 75
     1
175
     1
 42
1.0
 92
        8
 66
     7
 43
1.0
 76
     1
 77
     6
 78
     2
 67
     7
 79
     5
170
     0
171
     0
290
     0
174
     0
 93
        1
 44
0.0
173
     0
291
     1
 45
0.0
1001
ACAD
1000
AcDbSavedByObjectVersion
1070
     0
  0
VISUALSTYLE
  5
2B
102
{ACAD_REACTORS
330
2A
102
}
330
2A
100
AcDbVisualStyle
  2
Flat
 70
     0
 71
     2
 72
     1
 73
     1
 90
        2
 40
-0.6
 41
30.0
 62
     5
 63
     7
 74
     0
 91
        4
 64
     7
 65
   257
 75
     1
175
     1
 42
1.0
 92
        8
 66
     7
 43
1.0
 76
     1
 77
     6
 78
     2
 67
     7
 79
     5
170
     0
171
     0
290
     0
174
     0
 93
       13
 44
0.0
173
     0
291
     1
 45
0.0
1001
ACAD
1000
AcDbSavedByObjectVersion
1070
     0
  0
VISUALSTYLE
  5
2C
102
{ACAD_REACTORS
330
2A
102
}
330
2A
100
AcDbVisualStyle
  2
FlatWithEdges
 70
     1
 71
     2
 72
     1
 73
     1
 90
        2
 40
-0.6
 41
30.0
 62
     5
 63
     7
 74
     1
 91
        4
 64
     7
 65
   257
 75
     1
175
     1
 42
1.0
 92
        0
 66
   257
 43
1.0
 76
     1
 77
     6
 78
     2
 67
     7
 79
     5
170
     0
171
     0
290
     0
174
     0
 93
       13
 44
0.0
173
     0
291
     1
 45
0.0
1001
ACAD
1000
AcDbSavedByObjectVersion
1070
     0
  0
VISUALSTYLE
  5
2D
102
{ACAD_REACTORS
330
2A
102
}
330
2A
100
AcDbVisualStyle
  2
Gouraud
 70
     2
 71
     2
 72
     2
 73
     1
 90
        2
 40
-0.6
 41
30.0
 62
     5
 63
     7
 74
     0
 91
        4
 64
     7
 65
   257
 75
     1
175
     1
 42
1.0
 92
        0
 66
     7
 43
1.0
 76
     1
 77
     6
 78
     2
 67
     7
 79
     5
170
     0
171
     0
290
     0
174
     0
 93
       13
 44
0.0
173
     0
291
     1
 45
0.0
1001
ACAD
1000
AcDbSavedByObjectVersion
1070
     0
  0
VISUALSTYLE
  5
2E
102
{ACAD_REACTORS
330
2A
102
}
330
2A
100
AcDbVisualStyle
  2
GouraudWithEdges
 70
     3
 71
     2
 72
     2
 73
     1
 90
        2
 40
-0.6
 41
30.0
 62
     5
 63
     7
 74
     1
 91
        4
 64
     7
 65
   257
 75
     1
175
     1
 42
1.0
 92
        0
 66
   257
 43
1.0
 76
     1
 77
     6
 78
     2
 67
     7
 79
     5
170
     0
171
     0
290
     0
174
     0
 93
       13
 44
0.0
173
     0
291
     1
 45
0.0
1001
ACAD
1000
AcDbSavedByObjectVersion
1070
     0
  0
VISUALSTYLE
  5
38
102
{ACAD_REACTORS
330
2A
102
}
330
2A
100
AcDbVisualStyle
  2
Linepattern
 70
    14
 71
     2
 72
     2
 73
     0
 90
        0
 40
-0.6
 41
-30.0
 62
     5
 63
     7
 74
     1
 91
        4
 64
     7
 65
   257
 75
     7
175
     7
 42
1.0
 92
        8
 66
     7
 43
1.0
 76
     1
 77
     6
 78
     2
 67
     7
 79
     5
170
     0
171
     0
290
     0
174
     0
 93
        1
 44
0.0
173
     0
291
     1
 45
0.0
1001
ACAD
1000
AcDbSavedByObjectVersion
1070
     0
  0
VISUALSTYLE
  5
33
102
{ACAD_REACTORS
330
2A
102
}
330
2A
100
AcDbVisualStyle
  2
Realistic
 70
     8
 71
     2
 72
     2
 73
     0
 90
        0
 40
-0.6
 41
-30.0
 62
     5
 63
     7
 74
     1
 91
        0
 64
     7
 65
   257
 75
     1
175
     1
 42
1.0
 92
        8
 66
     8
 43
1.0
 76
     1
 77
     6
 78
     2
 67
     7
 79
     5
170
     0
171
     0
290
     0
174
     0
 93
       13
 44
0.0
173
     0
291
     0
 45
0.0
1001
ACAD
1000
AcDbSavedByObjectVersion
1070
     0
  0
VISUALSTYLE
  5
37
102
{ACAD_REACTORS
330
2A
102
}
330
2A
100
AcDbVisualStyle
  2
Thicken
 70
    13
 71
     2
 72
     2
 73
     0
 90
        0
 40
-0.6
 41
-30.0
 62
     5
 63
     7
 74
     1
 91
        4
 64
     7
 65
   257
 75
     1
175
     1
 42
1.0
 92
       12
 66
     7
 43
1.0
 76
     1
 77
     6
 78
     2
 67
     7
 79
     5
170
     0
171
     0
290
     0
174
     0
 93
        1
 44
0.0
173
     0
291
     1
 45
0.0
1001
ACAD
1000
AcDbSavedByObjectVersion
1070
     0
  0
DICTIONARYVAR
  5
241
102
{ACAD_REACTORS
330
23F
102
}
330
23F
100
DictionaryVariables
280
     0
  1
80.000000
  0
DICTIONARYVAR
  5
240
102
{ACAD_REACTORS
330
23F
102
}
330
23F
100
DictionaryVariables
280
     0
  1
5.000000
  0
ENDSEC
  0
EOF
