  0
SECTION
  2
HEADER
  9
$ACADVER
  1
AC1015
  9
$ACADMAINTVER
 70
     6
  9
$DWGCODEPAGE
  3
ANSI_1252
  9
$INSBASE
 10
0.0
 20
0.0
 30
0.0
  9
$EXTMIN
 10
0.0
 20
0.0
 30
0.0
  9
$EXTMAX
 10
297.0
 20
210.0
 30
0.0
  9
$LIMMIN
 10
0.0
 20
0.0
  9
$LIMMAX
 10
297.0
 20
210.0
  9
$ORTHOMODE
 70
     0
  9
$REGENMODE
 70
     1
  9
$FILLMODE
 70
     1
  9
$QTEXTMODE
 70
     0
  9
$MIRRTEXT
 70
     1
  9
$LTSCALE
 40
1.0
  9
$ATTMODE
 70
     1
  9
$TEXTSIZE
 40
2.0
  9
$TRACEWID
 40
1.0
  9
$TEXTSTYLE
  7
Standard
  9
$CLAYER
  8
0
  9
$CELTYPE
  6
ByLayer
  9
$CECOLOR
 62
   256
  9
$CELTSCALE
 40
1.0
  9
$DISPSILH
 70
     0
  9
$DIMSCALE
 40
1.0
  9
$DIMASZ
 40
3.0
  9
$DIMEXO
 40
0.0
  9
$DIMDLI
 40
3.75
  9
$DIMRND
 40
0.0
  9
$DIMDLE
 40
0.0
  9
$DIMEXE
 40
1.0
  9
$DIMTP
 40
0.0
  9
$DIMTM
 40
0.0
  9
$DIMTXT
 40
2.0
  9
$DIMCEN
 40
2.5
  9
$DIMTSZ
 40
0.0
  9
$DIMTOL
 70
     0
  9
$DIMLIM
 70
     0
  9
$DIMTIH
 70
     1
  9
$DIMTOH
 70
     1
  9
$DIMSE1
 70
     0
  9
$DIMSE2
 70
     0
  9
$DIMTAD
 70
     1
  9
$DIMZIN
 70
     0
  9
$DIMBLK
  1

  9
$DIMASO
 70
     1
  9
$DIMSHO
 70
     1
  9
$DIMPOST
  1

  9
$DIMAPOST
  1

  9
$DIMALT
 70
     0
  9
$DIMALTD
 70
     3
  9
$DIMALTF
 40
0.0393700787
  9
$DIMLFAC
 40
1.0
  9
$DIMTOFL
 70
     1
  9
$DIMTVP
 40
0.0
  9
$DIMTIX
 70
     0
  9
$DIMSOXD
 70
     0
  9
$DIMSAH
 70
     0
  9
$DIMBLK1
  1

  9
$DIMBLK2
  1

  9
$DIMSTYLE
  2
ISO-25
  9
$DIMCLRD
 70
     0
  9
$DIMCLRE
 70
     0
  9
$DIMCLRT
 70
     0
  9
$DIMTFAC
 40
1.0
  9
$DIMGAP
 40
1.524
  9
$DIMJUST
 70
     0
  9
$DIMSD1
 70
     0
  9
$DIMSD2
 70
     0
  9
$DIMTOLJ
 70
     0
  9
$DIMTZIN
 70
     0
  9
$DIMALTZ
 70
     0
  9
$DIMALTTZ
 70
     0
  9
$DIMUPT
 70
     0
  9
$DIMDEC
 70
     2
  9
$DIMTDEC
 70
     3
  9
$DIMALTU
 70
     2
  9
$DIMALTTD
 70
     3
  9
$DIMTXSTY
  7
Standard
  9
$DIMAUNIT
 70
     0
  9
$DIMADEC
 70
     2
  9
$DIMALTRND
 40
0.0
  9
$DIMAZIN
 70
     0
  9
$DIMDSEP
 70
    44
  9
$DIMATFIT
 70
     3
  9
$DIMFRAC
 70
     0
  9
$DIMLDRBLK
  1

  9
$DIMLUNIT
 70
     2
  9
$DIMLWD
 70
    -2
  9
$DIMLWE
 70
    -2
  9
$DIMTMOVE
 70
     0
  9
$LUNITS
 70
     2
  9
$LUPREC
 70
     2
  9
$SKETCHINC
 40
1.0
  9
$FILLETRAD
 40
10.0
  9
$AUNITS
 70
     0
  9
$AUPREC
 70
     2
  9
$MENU
  1
.
  9
$ELEVATION
 40
0.0
  9
$PELEVATION
 40
0.0
  9
$THICKNESS
 40
0.0
  9
$LIMCHECK
 70
     0
  9
$CHAMFERA
 40
10.0
  9
$CHAMFERB
 40
10.0
  9
$CHAMFERC
 40
20.0
  9
$CHAMFERD
 40
0.0
  9
$SKPOLY
 70
     0
  9
$TDCREATE
 40
2455643.445784444
  9
$TDUCREATE
 40
2455643.404117778
  9
$TDUPDATE
 40
2455643.445784456
  9
$TDUUPDATE
 40
2455643.404117789
  9
$TDINDWG
 40
0.0000000116
  9
$TDUSRTIMER
 40
0.0000000116
  9
$USRTIMER
 70
     1
  9
$ANGBASE
 50
0.0
  9
$ANGDIR
 70
     0
  9
$PDMODE
 70
     0
  9
$PDSIZE
 40
-1.0
  9
$PLINEWID
 40
0.0
  9
$SPLFRAME
 70
     0
  9
$SPLINETYPE
 70
     6
  9
$SPLINESEGS
 70
     8
  9
$HANDSEED
  5
23F
  9
$SURFTAB1
 70
     6
  9
$SURFTAB2
 70
     6
  9
$SURFTYPE
 70
     6
  9
$SURFU
 70
     6
  9
$SURFV
 70
     6
  9
$UCSBASE
  2

  9
$UCSNAME
  2

  9
$UCSORG
 10
0.0
 20
0.0
 30
0.0
  9
$UCSXDIR
 10
1.0
 20
0.0
 30
0.0
  9
$UCSYDIR
 10
0.0
 20
1.0
 30
0.0
  9
$UCSORTHOREF
  2

  9
$UCSORTHOVIEW
 70
     0
  9
$UCSORGTOP
 10
0.0
 20
0.0
 30
0.0
  9
$UCSORGBOTTOM
 10
0.0
 20
0.0
 30
0.0
  9
$UCSORGLEFT
 10
0.0
 20
0.0
 30
0.0
  9
$UCSORGRIGHT
 10
0.0
 20
0.0
 30
0.0
  9
$UCSORGFRONT
 10
0.0
 20
0.0
 30
0.0
  9
$UCSORGBACK
 10
0.0
 20
0.0
 30
0.0
  9
$PUCSBASE
  2

  9
$PUCSNAME
  2

  9
$PUCSORG
 10
0.0
 20
0.0
 30
0.0
  9
$PUCSXDIR
 10
1.0
 20
0.0
 30
0.0
  9
$PUCSYDIR
 10
0.0
 20
1.0
 30
0.0
  9
$PUCSORTHOREF
  2

  9
$PUCSORTHOVIEW
 70
     0
  9
$PUCSORGTOP
 10
0.0
 20
0.0
 30
0.0
  9
$PUCSORGBOTTOM
 10
0.0
 20
0.0
 30
0.0
  9
$PUCSORGLEFT
 10
0.0
 20
0.0
 30
0.0
  9
$PUCSORGRIGHT
 10
0.0
 20
0.0
 30
0.0
  9
$PUCSORGFRONT
 10
0.0
 20
0.0
 30
0.0
  9
$PUCSORGBACK
 10
0.0
 20
0.0
 30
0.0
  9
$USERI1
 70
     0
  9
$USERI2
 70
     0
  9
$USERI3
 70
     0
  9
$USERI4
 70
     0
  9
$USERI5
 70
     0
  9
$USERR1
 40
0.0
  9
$USERR2
 40
0.0
  9
$USERR3
 40
0.0
  9
$USERR4
 40
0.0
  9
$USERR5
 40
0.0
  9
$WORLDVIEW
 70
     1
  9
$SHADEDGE
 70
     3
  9
$SHADEDIF
 70
    70
  9
$TILEMODE
 70
     1
  9
$MAXACTVP
 70
    64
  9
$PINSBASE
 10
0.0
 20
0.0
 30
0.0
  9
$PLIMCHECK
 70
     0
  9
$PEXTMIN
 10
1.0000000000E+20
 20
1.0000000000E+20
 30
1.0000000000E+20
  9
$PEXTMAX
 10
-1.0000000000E+20
 20
-1.0000000000E+20
 30
-1.0000000000E+20
  9
$PLIMMIN
 10
0.0
 20
0.0
  9
$PLIMMAX
 10
420.0
 20
297.0
  9
$UNITMODE
 70
     0
  9
$VISRETAIN
 70
     1
  9
$PLINEGEN
 70
     0
  9
$PSLTSCALE
 70
     1
  9
$TREEDEPTH
 70
  3020
  9
$CMLSTYLE
  2
Standard
  9
$CMLJUST
 70
     0
  9
$CMLSCALE
 40
20.0
  9
$PROXYGRAPHICS
 70
     1
  9
$MEASUREMENT
 70
     1
  9
$CELWEIGHT
370
    -1
  9
$ENDCAPS
280
     0
  9
$JOINSTYLE
280
     0
  9
$LWDISPLAY
290
     1
  9
$INSUNITS
 70
     4
  9
$HYPERLINKBASE
  1

  9
$STYLESHEET
  1

  9
$XEDIT
290
     1
  9
$CEPSNTYPE
380
     0
  9
$PSTYLEMODE
290
     1
  9
$FINGERPRINTGUID
  2
{E4A5E89F-5161-48E1-BF21-494285161ADE}
  9
$VERSIONGUID
  2
{FAEB1C32-E019-11D5-929B-00C0DF256EC4}
  9
$EXTNAMES
290
     1
  9
$PSVPSCALE
 40
0.0
  9
$OLESTARTUP
290
     0
  0
ENDSEC
  0
SECTION
  2
CLASSES
  0
CLASS
  1
ACDBDICTIONARYWDFLT
  2
AcDbDictionaryWithDefault
  3
ObjectDBX Classes
 90
        0
280
     0
281
     0
  0
CLASS
  1
VISUALSTYLE
  2
AcDbVisualStyle
  3
ObjectDBX Classes
 90
     4095
280
     0
281
     0
  0
CLASS
  1
DICTIONARYVAR
  2
AcDbDictionaryVar
  3
ObjectDBX Classes
 90
        0
280
     0
281
     0
  0
CLASS
  1
ACDBPLACEHOLDER
  2
AcDbPlaceHolder
  3
ObjectDBX Classes
 90
        0
280
     0
281
     0
  0
CLASS
  1
LAYOUT
  2
AcDbLayout
  3
ObjectDBX Classes
 90
        0
280
     0
281
     0
  0
ENDSEC
  0
SECTION
  2
TABLES
  0
TABLE
  2
VPORT
  5
8
330
0
100
AcDbSymbolTable
 70
     1
  0
VPORT
  5
29
330
8
100
AcDbSymbolTableRecord
100
AcDbViewportTableRecord
  2
*Active
 70
     0
 10
0.0
 20
0.0
 11
1.0
 21
1.0
 12
148.5
 22
105.0
 13
0.0
 23
0.0
 14
10.0
 24
10.0
 15
10.0
 25
10.0
 16
0.0
 26
0.0
 36
1.0
 17
0.0
 27
0.0
 37
0.0
 40
210.0
 41
1.4142857143
 42
50.0
 43
0.0
 44
0.0
 50
0.0
 51
0.0
 71
     0
 72
  2000
 73
     1
 74
     3
 75
     0
 76
     0
 77
     0
 78
     0
281
     0
 65
     1
110
0.0
120
0.0
130
0.0
111
1.0
121
0.0
131
0.0
112
0.0
122
1.0
132
0.0
 79
     0
146
0.0
  0
ENDTAB
  0
TABLE
  2
LTYPE
  5
5
330
0
100
AcDbSymbolTable
 70
     6
  0
LTYPE
  5
14
330
5
100
AcDbSymbolTableRecord
100
AcDbLinetypeTableRecord
  2
ByBlock
 70
     0
  3

 72
    65
 73
     0
 40
0.0
  0
LTYPE
  5
15
330
5
100
AcDbSymbolTableRecord
100
AcDbLinetypeTableRecord
  2
ByLayer
 70
     0
  3

 72
    65
 73
     0
 40
0.0
  0
LTYPE
  5
16
330
5
100
AcDbSymbolTableRecord
100
AcDbLinetypeTableRecord
  2
Continuous
 70
     0
  3
Solid line
 72
    65
 73
     0
 40
0.0
  0
LTYPE
  5
3B
330
5
100
AcDbSymbolTableRecord
100
AcDbLinetypeTableRecord
  2
HIDDEN
 70
     0
  3
Hidden __ __ __ __ __ __ __ __ __ __ __ __ __ __
 72
    65
 73
     2
 40
1.905
 49
1.27
 74
     0
 49
-0.635
 74
     0
  0
LTYPE
  5
3C
330
5
100
AcDbSymbolTableRecord
100
AcDbLinetypeTableRecord
  2
PHANTOM
 70
     0
  3
Phantom ______  __  __  ______  __  __  ______
 72
    65
 73
     6
 40
12.7
 49
6.35
 74
     0
 49
-1.27
 74
     0
 49
1.27
 74
     0
 49
-1.27
 74
     0
 49
1.27
 74
     0
 49
-1.27
 74
     0
  0
LTYPE
  5
3D
330
5
100
AcDbSymbolTableRecord
100
AcDbLinetypeTableRecord
  2
CENTER
 70
     0
  3
Center ____ _ ____ _ ____ _ ____ _ ____ _ ____
 72
    65
 73
     4
 40
10.16
 49
6.35
 74
     0
 49
-1.27
 74
     0
 49
1.27
 74
     0
 49
-1.27
 74
     0
  0
LTYPE
  5
3E
330
5
100
AcDbSymbolTableRecord
100
AcDbLinetypeTableRecord
  2
CENTERX2
 70
     0
  3
Center (2x) ________  __  ________  __  _____
 72
    65
 73
     4
 40
20.32
 49
12.7
 74
     0
 49
-2.54
 74
     0
 49
2.54
 74
     0
 49
-2.54
 74
     0
  0
LTYPE
  5
3F
330
5
100
AcDbSymbolTableRecord
100
AcDbLinetypeTableRecord
  2
DOT2
 70
     0
  3
Dot (.5x) ........................................
 72
    65
 73
     2
 40
0.635
 49
0.0
 74
     0
 49
-0.635
 74
     0
  0
ENDTAB
  0
TABLE
  2
LAYER
  5
2
330
0
100
AcDbSymbolTable
 70
     5
  0
LAYER
  5
10
330
2
100
AcDbSymbolTableRecord
100
AcDbLayerTableRecord
  2
0
 70
     0
 62
     7
  6
Continuous
370
    -3
390
F
  0
LAYER
  5
40
330
2
100
AcDbSymbolTableRecord
100
AcDbLayerTableRecord
  2
FORMAT
 70
     0
 62
     7
  6
Continuous
370
    -3
390
F
  0
LAYER
  5
41
330
2
100
AcDbSymbolTableRecord
100
AcDbLayerTableRecord
  2
VERMASSUNG
 70
     0
 62
     7
  6
Continuous
370
    -3
390
F
  0
LAYER
  5
42
330
2
100
AcDbSymbolTableRecord
100
AcDbLayerTableRecord
  2
KOPF_DÜNN
 70
     0
 62
     7
  6
Continuous
370
    -3
390
F
  0
LAYER
  5
43
330
2
100
AcDbSymbolTableRecord
100
AcDbLayerTableRecord
  2
KOPF_DICK
 70
     0
 62
     7
  6
Continuous
370
    15
390
F
  0
ENDTAB
  0
TABLE
  2
STYLE
  5
3
330
0
100
AcDbSymbolTable
 70
     3
  0
STYLE
  5
11
330
3
100
AcDbSymbolTableRecord
100
AcDbTextStyleTableRecord
  2
Standard
 70
     0
 40
0.0
 41
1.0
 50
0.0
 71
     0
 42
2.5
  3
txt
  4

  0
STYLE
  5
44
330
3
100
AcDbSymbolTableRecord
100
AcDbTextStyleTableRecord
  2
SLDTEXTSTYLE0
 70
     0
 40
0.0
 41
0.7
 50
0.0
 71
     0
 42
0.2
  3
TXT
  4

  0
STYLE
  5
48
330
3
100
AcDbSymbolTableRecord
100
AcDbTextStyleTableRecord
  2
SLDTEXTSTYLE1
 70
     0
 40
0.0
 41
0.6473684211
 50
0.0
 71
     0
 42
0.2
  3
TXT
  4

  0
ENDTAB
  0
TABLE
  2
VIEW
  5
6
330
0
100
AcDbSymbolTable
 70
     0
  0
ENDTAB
  0
TABLE
  2
UCS
  5
7
330
0
100
AcDbSymbolTable
 70
     0
  0
ENDTAB
  0
TABLE
  2
APPID
  5
9
330
0
100
AcDbSymbolTable
 70
     1
  0
APPID
  5
12
330
9
100
AcDbSymbolTableRecord
100
AcDbRegAppTableRecord
  2
ACAD
 70
     0
  0
ENDTAB
  0
TABLE
  2
DIMSTYLE
  5
A
330
0
100
AcDbSymbolTable
 70
     2
100
AcDbDimStyleTable
  0
DIMSTYLE
105
27
330
A
100
AcDbSymbolTableRecord
100
AcDbDimStyleTableRecord
  2
ISO-25
 70
     0
 41
2.5
 42
0.625
 43
3.75
 44
1.25
 73
     0
 74
     0
 77
     1
 78
     8
140
2.5
141
2.5
143
0.0393700787
147
0.625
171
     3
172
     1
271
     2
272
     2
274
     3
278
    44
283
     0
284
     8
340
11
  0
DIMSTYLE
105
1E3
102
{ACAD_REACTORS
330
1E2
330
1EE
330
1FA
330
205
330
20F
330
219
330
223
330
22D
102
}
330
A
100
AcDbSymbolTableRecord
100
AcDbDimStyleTableRecord
  2
SLDDIMSTYLE0
 70
     0
 41
3.0
 44
0.0
 45
0.000000001
 73
     0
 74
     0
 77
     1
 78
    12
140
2.0
147
0.5
173
     1
271
     2
272
     3
284
    12
340
44
  0
ENDTAB
  0
TABLE
  2
BLOCK_RECORD
  5
1
330
0
100
AcDbSymbolTable
 70
     9
  0
BLOCK_RECORD
  5
1F
330
1
100
AcDbSymbolTableRecord
100
AcDbBlockTableRecord
  2
*Model_Space
340
22
  0
BLOCK_RECORD
  5
1B
330
1
100
AcDbSymbolTableRecord
100
AcDbBlockTableRecord
  2
*Paper_Space
340
1E
  0
BLOCK_RECORD
  5
23
330
1
100
AcDbSymbolTableRecord
100
AcDbBlockTableRecord
  2
*Paper_Space0
340
26
  0
BLOCK_RECORD
  5
1E4
330
1
100
AcDbSymbolTableRecord
100
AcDbBlockTableRecord
  2
*D1
340
0
  0
BLOCK_RECORD
  5
1EF
330
1
100
AcDbSymbolTableRecord
100
AcDbBlockTableRecord
  2
*D2
340
0
  0
BLOCK_RECORD
  5
1FB
330
1
100
AcDbSymbolTableRecord
100
AcDbBlockTableRecord
  2
*D3
340
0
  0
BLOCK_RECORD
  5
206
330
1
100
AcDbSymbolTableRecord
100
AcDbBlockTableRecord
  2
*D4
340
0
  0
BLOCK_RECORD
  5
210
330
1
100
AcDbSymbolTableRecord
100
AcDbBlockTableRecord
  2
*D5
340
0
  0
BLOCK_RECORD
  5
21A
330
1
100
AcDbSymbolTableRecord
100
AcDbBlockTableRecord
  2
*D6
340
0
  0
BLOCK_RECORD
  5
224
330
1
100
AcDbSymbolTableRecord
100
AcDbBlockTableRecord
  2
*D7
340
0
  0
BLOCK_RECORD
  5
22E
330
1
100
AcDbSymbolTableRecord
100
AcDbBlockTableRecord
  2
*D8
340
0
  0
ENDTAB
  0
ENDSEC
  0
SECTION
  2
BLOCKS
  0
BLOCK
  5
20
330
1F
100
AcDbEntity
  8
0
100
AcDbBlockBegin
  2
*Model_Space
 70
     0
 10
0.0
 20
0.0
 30
0.0
  3
*Model_Space
  1

  0
ENDBLK
  5
21
330
1F
100
AcDbEntity
  8
0
100
AcDbBlockEnd
  0
BLOCK
  5
1C
330
1B
100
AcDbEntity
 67
     1
  8
0
100
AcDbBlockBegin
  2
*Paper_Space
 70
     0
 10
0.0
 20
0.0
 30
0.0
  3
*Paper_Space
  1

  0
ENDBLK
  5
1D
330
1B
100
AcDbEntity
 67
     1
  8
0
100
AcDbBlockEnd
  0
BLOCK
  5
24
330
23
100
AcDbEntity
  8
0
100
AcDbBlockBegin
  2
*Paper_Space0
 70
     0
 10
0.0
 20
0.0
 30
0.0
  3
*Paper_Space0
  1

  0
ENDBLK
  5
25
330
23
100
AcDbEntity
  8
0
100
AcDbBlockEnd
  0
BLOCK
  5
1E5
330
1E4
100
AcDbEntity
  8
0
100
AcDbBlockBegin
  2
*D1
 70
     1
 10
0.0
 20
0.0
 30
0.0
  3
*D1
  1

  0
SOLID
  5
1E7
330
1E4
100
AcDbEntity
  8
VERMASSUNG
100
AcDbTrace
 10
220.9779774085
 20
100.4319879022
 30
0.0
 11
221.4279774085
 21
103.4319879022
 31
0.0
 12
220.5279774085
 22
103.4319879022
 32
0.0
 13
220.5279774085
 23
103.4319879022
 33
0.0
  0
SOLID
  5
1E8
330
1E4
100
AcDbEntity
  8
VERMASSUNG
100
AcDbTrace
 10
220.9779774085
 20
116.4319879022
 30
0.0
 11
220.5279774085
 21
113.4319879022
 31
0.0
 12
221.4279774085
 22
113.4319879022
 32
0.0
 13
221.4279774085
 23
113.4319879022
 33
0.0
  0
LINE
  5
1E9
330
1E4
100
AcDbEntity
  8
VERMASSUNG
100
AcDbLine
 10
203.3386417039
 20
100.4319879022
 30
0.0
 11
221.9779774085
 21
100.4319879022
 31
0.0
  0
LINE
  5
1EA
330
1E4
100
AcDbEntity
  8
VERMASSUNG
100
AcDbLine
 10
203.3386417039
 20
116.4319879022
 30
0.0
 11
221.9779774085
 21
116.4319879022
 31
0.0
  0
LINE
  5
1EB
330
1E4
100
AcDbEntity
  8
VERMASSUNG
100
AcDbLine
 10
220.9779774085
 20
100.4319879022
 30
0.0
 11
220.9779774085
 21
116.4319879022
 31
0.0
  0
MTEXT
  5
1EC
330
1E4
100
AcDbEntity
  8
VERMASSUNG
100
AcDbMText
 10
218.3998420454
 20
106.1542082406
 30
0.0
 40
2.0
 41
0.0
 71
     1
 72
     1
  1
ER
  7
SLDTEXTSTYLE0
 11
6.123233995736766E-17
 21
1.0
 31
0.0
 73
     1
 44
1.0
  0
MTEXT
  5
1ED
330
1E4
100
AcDbEntity
  8
VERMASSUNG
100
AcDbMText
 10
218.3998420454
 20
109.1520266849
 30
0.0
 40
2.0
 41
0.0
 71
     1
 72
     1
  1
16
  7
SLDTEXTSTYLE0
 11
6.123233995736766E-17
 21
1.0
 31
0.0
 73
     1
 44
1.0
  0
ENDBLK
  5
1E6
330
1E4
100
AcDbEntity
  8
0
100
AcDbBlockEnd
  0
BLOCK
  5
1F0
330
1EF
100
AcDbEntity
  8
0
100
AcDbBlockBegin
  2
*D2
 70
     1
 10
0.0
 20
0.0
 30
0.0
  3
*D2
  1

  0
SOLID
  5
1F2
330
1EF
100
AcDbEntity
  8
VERMASSUNG
100
AcDbTrace
 10
75.102663294
 20
139.9319879022
 30
0.0
 11
74.652663294
 21
136.9319879022
 31
0.0
 12
75.552663294
 22
136.9319879022
 32
0.0
 13
75.552663294
 23
136.9319879022
 33
0.0
  0
SOLID
  5
1F3
330
1EF
100
AcDbEntity
  8
VERMASSUNG
100
AcDbTrace
 10
75.102663294
 20
76.9319879022
 30
0.0
 11
75.552663294
 21
79.9319879022
 31
0.0
 12
74.652663294
 22
79.9319879022
 32
0.0
 13
74.652663294
 23
79.9319879022
 33
0.0
  0
LINE
  5
1F4
330
1EF
100
AcDbEntity
  8
VERMASSUNG
100
AcDbLine
 10
115.1386417039
 20
139.9319879022
 30
0.0
 11
74.102663294
 21
139.9319879022
 31
0.0
  0
LINE
  5
1F5
330
1EF
100
AcDbEntity
  8
VERMASSUNG
100
AcDbLine
 10
115.1386417039
 20
76.9319879022
 30
0.0
 11
74.102663294
 21
76.9319879022
 31
0.0
  0
LINE
  5
1F6
330
1EF
100
AcDbEntity
  8
VERMASSUNG
100
AcDbLine
 10
75.102663294
 20
139.9319879022
 30
0.0
 11
75.102663294
 21
76.9319879022
 31
0.0
  0
MTEXT
  5
1F7
330
1EF
100
AcDbEntity
  8
VERMASSUNG
100
AcDbMText
 10
72.324527805
 20
98.8623574894
 30
0.0
 40
2.0
 41
0.0
 71
     1
 72
     1
  1
HSK A 
  7
SLDTEXTSTYLE0
 11
-7.044195017643634E-15
 21
1.0
 31
0.0
 73
     1
 44
1.0
  0
MTEXT
  5
1F8
330
1EF
100
AcDbEntity
  8
VERMASSUNG
100
AcDbMText
 10
72.5245278145
 20
107.8623580333
 30
0.0
 40
2.0
 41
0.0
 71
     1
 72
     1
  1
%%c
  7
SLDTEXTSTYLE0
 11
-7.044195017643634E-15
 21
1.0
 31
0.0
 73
     1
 44
1.0
  0
MTEXT
  5
1F9
330
1EF
100
AcDbEntity
  8
VERMASSUNG
100
AcDbMText
 10
72.5245279309
 20
111.4706862785
 30
0.0
 40
2.0
 41
0.0
 71
     1
 72
     1
  1
63
  7
SLDTEXTSTYLE0
 11
-7.044195017643634E-15
 21
1.0
 31
0.0
 73
     1
 44
1.0
  0
ENDBLK
  5
1F1
330
1EF
100
AcDbEntity
  8
0
100
AcDbBlockEnd
  0
BLOCK
  5
1FC
330
1FB
100
AcDbEntity
  8
0
100
AcDbBlockBegin
  2
*D3
 70
     1
 10
0.0
 20
0.0
 30
0.0
  3
*D3
  1

  0
SOLID
  5
1FE
330
1FB
100
AcDbEntity
  8
VERMASSUNG
100
AcDbTrace
 10
226.9779774085
 20
119.4319879022
 30
0.0
 11
226.5279774085
 21
116.4319879022
 31
0.0
 12
227.4279774085
 22
116.4319879022
 32
0.0
 13
227.4279774085
 23
116.4319879022
 33
0.0
  0
SOLID
  5
1FF
330
1FB
100
AcDbEntity
  8
VERMASSUNG
100
AcDbTrace
 10
226.9779774085
 20
97.4319879022
 30
0.0
 11
227.4279774085
 21
100.4319879022
 31
0.0
 12
226.5279774085
 22
100.4319879022
 32
0.0
 13
226.5279774085
 23
100.4319879022
 33
0.0
  0
LINE
  5
200
330
1FB
100
AcDbEntity
  8
VERMASSUNG
100
AcDbLine
 10
214.3386417039
 20
119.4319879022
 30
0.0
 11
227.9779774085
 21
119.4319879022
 31
0.0
  0
LINE
  5
201
330
1FB
100
AcDbEntity
  8
VERMASSUNG
100
AcDbLine
 10
214.3386417039
 20
97.4319879022
 30
0.0
 11
227.9779774085
 21
97.4319879022
 31
0.0
  0
LINE
  5
202
330
1FB
100
AcDbEntity
  8
VERMASSUNG
100
AcDbLine
 10
226.9779774085
 20
119.4319879022
 30
0.0
 11
226.9779774085
 21
97.4319879022
 31
0.0
  0
MTEXT
  5
203
330
1FB
100
AcDbEntity
  8
VERMASSUNG
100
AcDbMText
 10
224.399841929
 20
105.2562660477
 30
0.0
 40
2.0
 41
0.0
 71
     1
 72
     1
  1
%%c
  7
SLDTEXTSTYLE0
 11
-7.044195017643634E-15
 21
1.0
 31
0.0
 73
     1
 44
1.0
  0
MTEXT
  5
204
330
1FB
100
AcDbEntity
  8
VERMASSUNG
100
AcDbMText
 10
224.3998420454
 20
108.8638514527
 30
0.0
 40
2.0
 41
0.0
 71
     1
 72
     1
  1
22
  7
SLDTEXTSTYLE0
 11
-7.044195017643634E-15
 21
1.0
 31
0.0
 73
     1
 44
1.0
  0
ENDBLK
  5
1FD
330
1FB
100
AcDbEntity
  8
0
100
AcDbBlockEnd
  0
BLOCK
  5
207
330
206
100
AcDbEntity
  8
0
100
AcDbBlockBegin
  2
*D4
 70
     1
 10
0.0
 20
0.0
 30
0.0
  3
*D4
  1

  0
SOLID
  5
209
330
206
100
AcDbEntity
  8
VERMASSUNG
100
AcDbTrace
 10
140.7886417039
 20
145.3091041012
 30
0.0
 11
143.7886417039
 21
144.8591041012
 31
0.0
 12
143.7886417039
 22
145.7591041012
 32
0.0
 13
143.7886417039
 23
145.7591041012
 33
0.0
  0
SOLID
  5
20A
330
206
100
AcDbEntity
  8
VERMASSUNG
100
AcDbTrace
 10
214.8386417039
 20
145.3091041012
 30
0.0
 11
211.8386417039
 21
145.7591041012
 31
0.0
 12
211.8386417039
 22
144.8591041012
 32
0.0
 13
211.8386417039
 23
144.8591041012
 33
0.0
  0
LINE
  5
20B
330
206
100
AcDbEntity
  8
VERMASSUNG
100
AcDbLine
 10
140.7886417039
 20
138.278428226
 30
0.0
 11
140.7886417039
 21
146.3091041012
 31
0.0
  0
LINE
  5
20C
330
206
100
AcDbEntity
  8
VERMASSUNG
100
AcDbLine
 10
214.8386417039
 20
118.3587734379
 30
0.0
 11
214.8386417039
 21
146.3091041012
 31
0.0
  0
LINE
  5
20D
330
206
100
AcDbEntity
  8
VERMASSUNG
100
AcDbLine
 10
140.7886417039
 20
145.3091041012
 30
0.0
 11
214.8386417039
 21
145.3091041012
 31
0.0
  0
MTEXT
  5
20E
330
206
100
AcDbEntity
  8
VERMASSUNG
100
AcDbMText
 10
173.6329518617
 20
147.8872394643
 30
0.0
 40
2.0
 41
0.0
 71
     1
 72
     1
  1
74.05
  7
SLDTEXTSTYLE0
 73
     1
 44
1.0
  0
ENDBLK
  5
208
330
206
100
AcDbEntity
  8
0
100
AcDbBlockEnd
  0
BLOCK
  5
211
330
210
100
AcDbEntity
  8
0
100
AcDbBlockBegin
  2
*D5
 70
     1
 10
0.0
 20
0.0
 30
0.0
  3
*D5
  1

  0
SOLID
  5
213
330
210
100
AcDbEntity
  8
VERMASSUNG
100
AcDbTrace
 10
114.8386417039
 20
151.3091041012
 30
0.0
 11
117.8386417039
 21
150.8591041012
 31
0.0
 12
117.8386417039
 22
151.7591041012
 32
0.0
 13
117.8386417039
 23
151.7591041012
 33
0.0
  0
SOLID
  5
214
330
210
100
AcDbEntity
  8
VERMASSUNG
100
AcDbTrace
 10
214.8386417039
 20
151.3091041012
 30
0.0
 11
211.8386417039
 21
151.7591041012
 31
0.0
 12
211.8386417039
 22
150.8591041012
 32
0.0
 13
211.8386417039
 23
150.8591041012
 33
0.0
  0
LINE
  5
215
330
210
100
AcDbEntity
  8
VERMASSUNG
100
AcDbLine
 10
114.8386417039
 20
139.6319879022
 30
0.0
 11
114.8386417039
 21
152.3091041012
 31
0.0
  0
LINE
  5
216
330
210
100
AcDbEntity
  8
VERMASSUNG
100
AcDbLine
 10
214.8386417039
 20
118.3587734379
 30
0.0
 11
214.8386417039
 21
152.3091041012
 31
0.0
  0
LINE
  5
217
330
210
100
AcDbEntity
  8
VERMASSUNG
100
AcDbLine
 10
114.8386417039
 20
151.3091041012
 30
0.0
 11
214.8386417039
 21
151.3091041012
 31
0.0
  0
MTEXT
  5
218
330
210
100
AcDbEntity
  8
VERMASSUNG
100
AcDbMText
 10
163.6533310871
 20
153.8872394643
 30
0.0
 40
2.0
 41
0.0
 71
     1
 72
     1
  1
100
  7
SLDTEXTSTYLE0
 73
     1
 44
1.0
  0
ENDBLK
  5
212
330
210
100
AcDbEntity
  8
0
100
AcDbBlockEnd
  0
BLOCK
  5
21B
330
21A
100
AcDbEntity
  8
0
100
AcDbBlockBegin
  2
*D6
 70
     1
 10
0.0
 20
0.0
 30
0.0
  3
*D6
  1

  0
SOLID
  5
21D
330
21A
100
AcDbEntity
  8
VERMASSUNG
100
AcDbTrace
 10
82.9386417039
 20
157.3091041012
 30
0.0
 11
85.9386417039
 21
156.8591041012
 31
0.0
 12
85.9386417039
 22
157.7591041012
 32
0.0
 13
85.9386417039
 23
157.7591041012
 33
0.0
  0
SOLID
  5
21E
330
21A
100
AcDbEntity
  8
VERMASSUNG
100
AcDbTrace
 10
214.8386417039
 20
157.3091041012
 30
0.0
 11
211.8386417039
 21
157.7591041012
 31
0.0
 12
211.8386417039
 22
156.8591041012
 32
0.0
 13
211.8386417039
 23
156.8591041012
 33
0.0
  0
LINE
  5
21F
330
21A
100
AcDbEntity
  8
VERMASSUNG
100
AcDbLine
 10
82.9386417039
 20
128.1226656487
 30
0.0
 11
82.9386417039
 21
158.3091041012
 31
0.0
  0
LINE
  5
220
330
21A
100
AcDbEntity
  8
VERMASSUNG
100
AcDbLine
 10
214.8386417039
 20
118.3587734379
 30
0.0
 11
214.8386417039
 21
158.3091041012
 31
0.0
  0
LINE
  5
221
330
21A
100
AcDbEntity
  8
VERMASSUNG
100
AcDbLine
 10
82.9386417039
 20
157.3091041012
 30
0.0
 11
214.8386417039
 21
157.3091041012
 31
0.0
  0
MTEXT
  5
222
330
21A
100
AcDbEntity
  8
VERMASSUNG
100
AcDbMText
 10
149.1428993816
 20
159.8872394643
 30
0.0
 40
2.0
 41
0.0
 71
     1
 72
     1
  1
131.9
  7
SLDTEXTSTYLE0
 73
     1
 44
1.0
  0
ENDBLK
  5
21C
330
21A
100
AcDbEntity
  8
0
100
AcDbBlockEnd
  0
BLOCK
  5
225
330
224
100
AcDbEntity
  8
0
100
AcDbBlockBegin
  2
*D7
 70
     1
 10
0.0
 20
0.0
 30
0.0
  3
*D7
  1

  0
SOLID
  5
227
330
224
100
AcDbEntity
  8
VERMASSUNG
100
AcDbTrace
 10
214.8386417039
 20
139.3091041012
 30
0.0
 11
211.8386417039
 21
139.7591041012
 31
0.0
 12
211.8386417039
 22
138.8591041012
 32
0.0
 13
211.8386417039
 23
138.8591041012
 33
0.0
  0
SOLID
  5
228
330
224
100
AcDbEntity
  8
VERMASSUNG
100
AcDbTrace
 10
181.3386417039
 20
139.3091041012
 30
0.0
 11
184.3386417039
 21
138.8591041012
 31
0.0
 12
184.3386417039
 22
139.7591041012
 32
0.0
 13
184.3386417039
 23
139.7591041012
 33
0.0
  0
LINE
  5
229
330
224
100
AcDbEntity
  8
VERMASSUNG
100
AcDbLine
 10
214.8386417039
 20
118.3587734379
 30
0.0
 11
214.8386417039
 21
140.3091041012
 31
0.0
  0
LINE
  5
22A
330
224
100
AcDbEntity
  8
VERMASSUNG
100
AcDbLine
 10
181.3386417039
 20
113.6819879022
 30
0.0
 11
181.3386417039
 21
140.3091041012
 31
0.0
  0
LINE
  5
22B
330
224
100
AcDbEntity
  8
VERMASSUNG
100
AcDbLine
 10
214.8386417039
 20
139.3091041012
 30
0.0
 11
181.3386417039
 21
139.3091041012
 31
0.0
  0
MTEXT
  5
22C
330
224
100
AcDbEntity
  8
VERMASSUNG
100
AcDbMText
 10
194.9396039618
 20
141.8872394643
 30
0.0
 40
2.0
 41
0.0
 71
     1
 72
     1
  1
33.5
  7
SLDTEXTSTYLE0
 73
     1
 44
1.0
  0
ENDBLK
  5
226
330
224
100
AcDbEntity
  8
0
100
AcDbBlockEnd
  0
BLOCK
  5
22F
330
22E
100
AcDbEntity
  8
0
100
AcDbBlockBegin
  2
*D8
 70
     1
 10
0.0
 20
0.0
 30
0.0
  3
*D8
  1

  0
SOLID
  5
231
330
22E
100
AcDbEntity
  8
VERMASSUNG
100
AcDbTrace
 10
232.9779774085
 20
121.9319879022
 30
0.0
 11
232.5279774085
 21
118.9319879022
 31
0.0
 12
233.4279774085
 22
118.9319879022
 32
0.0
 13
233.4279774085
 23
118.9319879022
 33
0.0
  0
SOLID
  5
232
330
22E
100
AcDbEntity
  8
VERMASSUNG
100
AcDbTrace
 10
232.9779774085
 20
94.9319879022
 30
0.0
 11
233.4279774085
 21
97.9319879022
 31
0.0
 12
232.5279774085
 22
97.9319879022
 32
0.0
 13
232.5279774085
 23
97.9319879022
 33
0.0
  0
LINE
  5
233
330
22E
100
AcDbEntity
  8
VERMASSUNG
100
AcDbLine
 10
143.1916492416
 20
121.9319879022
 30
0.0
 11
233.9779774085
 21
121.9319879022
 31
0.0
  0
LINE
  5
234
330
22E
100
AcDbEntity
  8
VERMASSUNG
100
AcDbLine
 10
143.1916492416
 20
94.9319879022
 30
0.0
 11
233.9779774085
 21
94.9319879022
 31
0.0
  0
LINE
  5
235
330
22E
100
AcDbEntity
  8
VERMASSUNG
100
AcDbLine
 10
232.9779774085
 20
121.9319879022
 30
0.0
 11
232.9779774085
 21
94.9319879022
 31
0.0
  0
MTEXT
  5
236
330
22E
100
AcDbEntity
  8
VERMASSUNG
100
AcDbMText
 10
230.399841929
 20
105.2562660477
 30
0.0
 40
2.0
 41
0.0
 71
     1
 72
     1
  1
%%c
  7
SLDTEXTSTYLE0
 11
-7.044195017643634E-15
 21
1.0
 31
0.0
 73
     1
 44
1.0
  0
MTEXT
  5
237
330
22E
100
AcDbEntity
  8
VERMASSUNG
100
AcDbMText
 10
230.3998420454
 20
108.8638514527
 30
0.0
 40
2.0
 41
0.0
 71
     1
 72
     1
  1
27
  7
SLDTEXTSTYLE0
 11
-7.044195017643634E-15
 21
1.0
 31
0.0
 73
     1
 44
1.0
  0
ENDBLK
  5
230
330
22E
100
AcDbEntity
  8
0
100
AcDbBlockEnd
  0
ENDSEC
  0
SECTION
  2
ENTITIES
  0
MTEXT
  5
45
330
1F
100
AcDbEntity
  8
KOPF_DÜNN
100
AcDbMText
 10
13.8892156294
 20
23.8442973028
 30
0.0
 40
3.0
 41
0.0
 71
     1
 72
     1
  1
HA6.E17.K01.100
  7
SLDTEXTSTYLE0
 73
     1
 44
1.0
  0
MTEXT
  5
46
330
1F
100
AcDbEntity
  8
VERMASSUNG
100
AcDbMText
 10
13.9329988022
 20
28.8834360957
 30
0.0
 40
3.0
 41
0.0
 71
     1
 72
     1
  1
Spannzangenfutter_Collet chuck ER16
  7
SLDTEXTSTYLE0
 73
     1
 44
1.0
  0
MTEXT
  5
47
330
1F
100
AcDbEntity
  8
VERMASSUNG
100
AcDbMText
 10
98.8601118557
 20
13.8365368179
 30
0.0
 40
2.0
 41
0.0
 71
     1
 72
     1
  1
Datum: 10.10.2006
  7
SLDTEXTSTYLE0
 73
     1
 44
1.0
  0
MTEXT
  5
49
330
1F
100
AcDbEntity
  8
VERMASSUNG
100
AcDbMText
 10
13.933048693
 20
18.0482802738
 30
0.0
 40
2.0
 41
0.0
 71
     1
 72
     1
  1
DIN 69 893 HSK A 63
  7
SLDTEXTSTYLE1
 73
     1
 44
1.0
  0
MTEXT
  5
4A
330
1F
100
AcDbEntity
  8
VERMASSUNG
100
AcDbMText
 10
13.9808475933
 20
13.9090973692
 30
0.0
 40
2.0
 41
0.0
 71
     1
 72
     1
  1
Gewicht: 792g
  7
SLDTEXTSTYLE0
 73
     1
 44
1.0
  0
LINE
  5
4B
330
1F
100
AcDbEntity
  8
0
  6
Continuous
 62
     7
370
    15
100
AcDbLine
 10
197.2386432894
 20
119.4319878426
 30
0.0
 11
196.4386446483
 21
118.6319882703
 31
0.0
  0
LINE
  5
4C
330
1F
100
AcDbEntity
  8
0
  6
Continuous
 62
     7
370
    15
100
AcDbLine
 10
196.4386446483
 20
98.2319875342
 30
0.0
 11
197.2386432894
 21
97.4319879619
 31
0.0
  0
LINE
  5
4D
330
1F
100
AcDbEntity
  8
0
  6
Continuous
 62
     7
370
    15
100
AcDbLine
 10
197.2386432894
 20
97.4319879619
 30
0.0
 11
214.3386421807
 21
97.4319879619
 31
0.0
  0
LINE
  5
4E
330
1F
100
AcDbEntity
  8
0
  6
Continuous
 62
     7
370
    15
100
AcDbLine
 10
214.3386421807
 20
119.4319878426
 30
0.0
 11
197.2386432894
 21
119.4319878426
 31
0.0
  0
LINE
  5
4F
330
1F
100
AcDbEntity
  8
0
  6
Continuous
 62
     7
370
    15
100
AcDbLine
 10
214.838643194
 20
118.9319877607
 30
0.0
 11
214.3386421807
 21
119.4319878426
 31
0.0
  0
LINE
  5
50
330
1F
100
AcDbEntity
  8
0
  6
Continuous
 62
     7
370
    15
100
AcDbLine
 10
214.3386421807
 20
97.4319879619
 30
0.0
 11
214.838643194
 21
97.9319880438
 31
0.0
  0
LINE
  5
51
330
1F
100
AcDbEntity
  8
0
  6
Continuous
 62
     7
370
    15
100
AcDbLine
 10
115.1386417181
 20
76.9319873956
 30
0.0
 11
119.7886416771
 21
76.9319873956
 31
0.0
  0
LINE
  5
52
330
1F
100
AcDbEntity
  8
0
  6
Continuous
 62
     7
370
    15
100
AcDbLine
 10
119.8166302487
 20
139.9319884089
 30
0.0
 11
115.1386417181
 21
139.9319884089
 31
0.0
  0
ARC
  5
53
330
1F
100
AcDbEntity
  8
0
  6
Continuous
 62
     7
370
    15
100
AcDbCircle
 10
115.1386417039
 20
77.2319879022
 30
0.0
 40
0.3000000000000114
100
AcDbArc
 50
180.0
 51
270.0
  0
ARC
  5
54
330
1F
100
AcDbEntity
  8
0
  6
Continuous
 62
     7
370
    15
100
AcDbCircle
 10
115.1386417039
 20
139.6319879022
 30
0.0
 40
0.3000000000000114
100
AcDbArc
 50
90.0
 51
180.0
  0
ARC
  5
55
330
1F
100
AcDbEntity
  8
0
  6
Continuous
 62
     7
370
    15
100
AcDbCircle
 10
114.3386349512
 20
83.8615502879
 30
0.0
 40
0.6000067526677242
100
AcDbArc
 50
33.5571153394
 51
90.0
  0
ARC
  5
56
330
1F
100
AcDbEntity
  8
0
  6
Continuous
 62
     7
370
    15
100
AcDbCircle
 10
114.3386349512
 20
133.0024255166
 30
0.0
 40
0.6000067526677242
100
AcDbArc
 50
270.0
 51
326.4428846606
  0
LINE
  5
57
330
1F
100
AcDbEntity
  8
0
  6
Continuous
 62
     7
370
    15
100
AcDbLine
 10
112.8386416089
 20
84.2115566787
 30
0.0
 11
113.6953545351
 21
84.4411127922
 31
0.0
  0
LINE
  5
58
330
1F
100
AcDbEntity
  8
0
  6
Continuous
 62
     7
370
    15
100
AcDbLine
 10
113.6953545351
 20
132.4228630123
 30
0.0
 11
112.8386416089
 21
132.6524191258
 31
0.0
  0
LINE
  5
59
330
1F
100
AcDbEntity
  8
0
  6
Continuous
 62
     7
370
    15
100
AcDbLine
 10
101.6071332701
 20
132.0897177515
 30
0.0
 11
89.0386408277
 21
131.460033795
 31
0.0
  0
LINE
  5
5A
330
1F
100
AcDbEntity
  8
0
  6
Continuous
 62
     7
370
    15
100
AcDbLine
 10
112.8386416089
 20
132.6524191258
 30
0.0
 11
110.0216401823
 21
132.5112865028
 31
0.0
  0
LINE
  5
5B
330
1F
100
AcDbEntity
  8
0
  6
Continuous
 62
     7
370
    15
100
AcDbLine
 10
110.0216960616
 20
84.352687439
 30
0.0
 11
112.8386416089
 21
84.2115566787
 31
0.0
  0
LINE
  5
5C
330
1F
100
AcDbEntity
  8
0
  6
Continuous
 62
     7
370
    15
100
AcDbLine
 10
93.0386414833
 20
85.2035418806
 30
0.0
 11
101.6075356014
 21
84.7742375639
 31
0.0
  0
ARC
  5
5D
330
1F
100
AcDbEntity
  8
0
  6
Continuous
 62
     7
370
    15
100
AcDbCircle
 10
113.8506459043
 20
83.8615570405
 30
0.0
 40
0.6000000000000085
100
AcDbArc
 50
90.0
 51
105.0
  0
ARC
  5
5E
330
1F
100
AcDbEntity
  8
0
  6
Continuous
 62
     7
370
    15
100
AcDbCircle
 10
113.8506459043
 20
133.002418764
 30
0.0
 40
0.6000000000000227
100
AcDbArc
 50
255.0
 51
270.0
  0
LINE
  5
5F
330
1F
100
AcDbEntity
  8
0
  6
Continuous
 62
     7
370
    15
100
AcDbLine
 10
113.8506459387
 20
84.4615571854
 30
0.0
 11
114.338634928
 21
84.4615571854
 31
0.0
  0
LINE
  5
60
330
1F
100
AcDbEntity
  8
0
  6
Continuous
 62
     7
370
    15
100
AcDbLine
 10
114.338634928
 20
132.4024186191
 30
0.0
 11
113.8506459387
 21
132.4024186191
 31
0.0
  0
ARC
  5
61
330
1F
100
AcDbEntity
  8
0
  6
Continuous
 62
     7
370
    15
100
AcDbCircle
 10
143.7886417039
 20
91.9919879022
 30
0.0
 40
3.000000000000011
100
AcDbArc
 50
101.4783409545
 51
180.0
  0
ARC
  5
62
330
1F
100
AcDbEntity
  8
0
  6
Continuous
 62
     7
370
    15
100
AcDbCircle
 10
143.7886417039
 20
124.8719879022
 30
0.0
 40
3.000000000000011
100
AcDbArc
 50
180.0
 51
258.5216590455
  0
ARC
  5
63
330
1F
100
AcDbEntity
  8
0
  6
Continuous
 62
     7
370
    15
100
AcDbCircle
 10
182.9911467259
 20
-101.0680120978
 30
0.0
 40
200.0
100
AcDbArc
 50
90.0
 51
98.1059889416
  0
ARC
  5
64
330
1F
100
AcDbEntity
  8
0
  6
Continuous
 62
     7
370
    15
100
AcDbCircle
 10
182.9911467259
 20
-101.0680120978
 30
0.0
 40
200.0
100
AcDbArc
 50
99.8224402921
 51
101.4783409545
  0
ARC
  5
65
330
1F
100
AcDbEntity
  8
0
  6
Continuous
 62
     7
370
    15
100
AcDbCircle
 10
182.9911467259
 20
317.9319879022
 30
0.0
 40
200.0
100
AcDbArc
 50
258.5216590455
 51
260.1765990818
  0
ARC
  5
66
330
1F
100
AcDbEntity
  8
0
  6
Continuous
 62
     7
370
    15
100
AcDbCircle
 10
182.9911467259
 20
317.9319879022
 30
0.0
 40
200.0
100
AcDbArc
 50
261.8935567134
 51
270.0
  0
LINE
  5
67
330
1F
100
AcDbEntity
  8
0
  6
Continuous
 62
     7
370
    15
100
AcDbLine
 10
84.2219783075
 20
87.5619877783
 30
0.0
 11
91.6386419989
 21
87.5619877783
 31
0.0
  0
ARC
  5
68
330
1F
100
AcDbEntity
  8
0
  6
Continuous
 62
     7
370
    15
100
AcDbCircle
 10
91.6386417039
 20
86.1619879022
 30
0.0
 40
1.399999999999997
100
AcDbArc
 50
42.2465410162
 51
90.0
  0
LINE
  5
69
330
1F
100
AcDbEntity
  8
0
  6
Continuous
 62
     7
370
    15
100
AcDbLine
 10
82.9396737821
 20
88.7109548506
 30
0.0
 11
84.0798044659
 21
87.5708241669
 31
0.0
  0
LINE
  5
6A
330
1F
100
AcDbEntity
  8
0
  6
Continuous
 62
     7
370
    15
100
AcDbLine
 10
84.0798044659
 20
129.2931516376
 30
0.0
 11
82.9485436983
 21
128.1618890074
 31
0.0
  0
ARC
  5
6B
330
1F
100
AcDbEntity
  8
0
  6
Continuous
 62
     7
370
    15
100
AcDbCircle
 10
87.6386417039
 20
130.7019879022
 30
0.0
 40
1.399999999999991
100
AcDbArc
 50
270.0
 51
301.7485287426
  0
LINE
  5
6C
330
1F
100
AcDbEntity
  8
0
  6
Continuous
 62
     7
370
    15
100
AcDbLine
 10
87.6386413433
 20
129.3019880262
 30
0.0
 11
84.2129072256
 21
129.3019880262
 31
0.0
  0
LINE
  5
6D
330
1F
100
AcDbEntity
  8
0
  6
Continuous
 62
     7
370
    15
100
AcDbLine
 10
182.991143883
 20
98.9319882077
 30
0.0
 11
196.4386446483
 21
98.9319882077
 31
0.0
  0
LINE
  5
6E
330
1F
100
AcDbEntity
  8
0
  6
Continuous
 62
     7
370
    15
100
AcDbLine
 10
196.4386446483
 20
117.9319875968
 30
0.0
 11
182.991143883
 21
117.9319875968
 31
0.0
  0
LINE
  5
6F
330
1F
100
AcDbEntity
  8
0
  6
Continuous
 62
     7
370
    15
100
AcDbLine
 10
197.2386432894
 20
97.4319879619
 30
0.0
 11
197.2386432894
 21
119.4319878426
 31
0.0
  0
LINE
  5
70
330
1F
100
AcDbEntity
  8
0
  6
Continuous
 62
     7
370
    15
100
AcDbLine
 10
196.4386446483
 20
98.2319875342
 30
0.0
 11
196.4386446483
 21
118.6319882703
 31
0.0
  0
LINE
  5
71
330
1F
100
AcDbEntity
  8
0
  6
Continuous
 62
     7
370
    15
100
AcDbLine
 10
214.838643194
 20
110.4319879972
 30
0.0
 11
214.838643194
 21
106.4319878073
 31
0.0
  0
ELLIPSE
  5
72
330
1F
100
AcDbEntity
  8
0
  6
Continuous
 62
     7
370
    15
100
AcDbEllipse
 10
238.6386417039
 20
108.4319879022
 30
0.0
 11
30.80000000000004
 21
0.0
 31
0.0
210
0.0
220
0.0
230
1.0
 40
0.3571428571
 41
2.958757516596884
 42
3.324427790582741
  0
ELLIPSE
  5
73
330
1F
100
AcDbEntity
  8
0
  6
Continuous
 62
     7
370
    15
100
AcDbEllipse
 10
238.6386417039
 20
108.4319879022
 30
0.0
 11
30.758791615104
 21
-9.79794714490923
 31
0.0
210
0.0
220
0.0
230
0.9999999999999999
 40
0.1625559039
 41
3.010492089676335
 42
3.376162363662234
  0
LINE
  5
74
330
1F
100
AcDbEntity
  8
0
  6
Continuous
 62
     7
370
    15
100
AcDbLine
 10
214.3386421807
 20
116.7994844449
 30
0.0
 11
208.3520112641
 21
116.7994844449
 31
0.0
  0
LINE
  5
75
330
1F
100
AcDbEntity
  8
0
  6
Continuous
 62
     7
370
    15
100
AcDbLine
 10
214.3386421807
 20
110.4319879972
 30
0.0
 11
214.3386421807
 21
116.7994844449
 31
0.0
  0
LINE
  5
76
330
1F
100
AcDbEntity
  8
0
  6
Continuous
 62
     7
370
    15
100
AcDbLine
 10
214.3386421807
 20
110.4319879972
 30
0.0
 11
208.3520112641
 21
110.4319879972
 31
0.0
  0
LINE
  5
77
330
1F
100
AcDbEntity
  8
0
  6
Continuous
 62
     7
370
    15
100
AcDbLine
 10
214.3386421807
 20
106.4319878073
 30
0.0
 11
208.3520112641
 21
106.4319878073
 31
0.0
  0
LINE
  5
78
330
1F
100
AcDbEntity
  8
0
  6
Continuous
 62
     7
370
    15
100
AcDbLine
 10
214.3386421807
 20
100.0644913596
 30
0.0
 11
214.3386421807
 21
106.4319878073
 31
0.0
  0
LINE
  5
79
330
1F
100
AcDbEntity
  8
0
  6
Continuous
 62
     7
370
    15
100
AcDbLine
 10
214.3386421807
 20
100.0644913596
 30
0.0
 11
208.3520112641
 21
100.0644913596
 31
0.0
  0
ELLIPSE
  5
7A
330
1F
100
AcDbEntity
  8
0
  6
Continuous
 62
     7
370
    15
100
AcDbEllipse
 10
238.6386417039
 20
108.4319879022
 30
0.0
 11
30.75879161510401
 21
9.797947144909303
 31
0.0
210
0.0
220
0.0
230
1.0
 40
0.1625559039
 41
2.907022943517431
 42
3.272693217503331
  0
LINE
  5
7B
330
1F
100
AcDbEntity
  8
0
  6
Continuous
 62
     7
370
    15
100
AcDbLine
 10
214.3386421807
 20
98.0644910318
 30
0.0
 11
208.3520112641
 21
98.0644910318
 31
0.0
  0
LINE
  5
7C
330
1F
100
AcDbEntity
  8
0
  6
Continuous
 62
     7
370
    15
100
AcDbLine
 10
214.3386421807
 20
97.4319879619
 30
0.0
 11
214.3386421807
 21
98.0644910318
 31
0.0
  0
LINE
  5
7D
330
1F
100
AcDbEntity
  8
0
  6
Continuous
 62
     7
370
    15
100
AcDbLine
 10
214.3386421807
 20
118.7994847727
 30
0.0
 11
214.3386421807
 21
119.4319878426
 31
0.0
  0
LINE
  5
7E
330
1F
100
AcDbEntity
  8
0
  6
Continuous
 62
     7
370
    15
100
AcDbLine
 10
214.3386421807
 20
118.7994847727
 30
0.0
 11
208.3520112641
 21
118.7994847727
 31
0.0
  0
LINE
  5
7F
330
1F
100
AcDbEntity
  8
0
  6
Continuous
 62
     7
370
    15
100
AcDbLine
 10
214.838643194
 20
106.4319878073
 30
0.0
 11
214.3386421807
 21
106.4319878073
 31
0.0
  0
LINE
  5
80
330
1F
100
AcDbEntity
  8
0
  6
Continuous
 62
     7
370
    15
100
AcDbLine
 10
214.838643194
 20
100.5052025151
 30
0.0
 11
214.838643194
 21
106.4319878073
 31
0.0
  0
LINE
  5
81
330
1F
100
AcDbEntity
  8
0
  6
Continuous
 62
     7
370
    15
100
AcDbLine
 10
214.838643194
 20
100.5052025151
 30
0.0
 11
214.3386421807
 21
100.0644913596
 31
0.0
  0
LINE
  5
82
330
1F
100
AcDbEntity
  8
0
  6
Continuous
 62
     7
370
    15
100
AcDbLine
 10
214.838643194
 20
110.4319879972
 30
0.0
 11
214.3386421807
 21
110.4319879972
 31
0.0
  0
LINE
  5
83
330
1F
100
AcDbEntity
  8
0
  6
Continuous
 62
     7
370
    15
100
AcDbLine
 10
214.838643194
 20
116.3587732893
 30
0.0
 11
214.3386421807
 21
116.7994844449
 31
0.0
  0
LINE
  5
84
330
1F
100
AcDbEntity
  8
0
  6
Continuous
 62
     7
370
    15
100
AcDbLine
 10
214.838643194
 20
110.4319879972
 30
0.0
 11
214.838643194
 21
116.3587732893
 31
0.0
  0
LINE
  5
85
330
1F
100
AcDbEntity
  8
0
  6
Continuous
 62
     7
370
    15
100
AcDbLine
 10
208.3520112641
 20
118.7994847727
 30
0.0
 11
214.838643194
 21
116.7932036054
 31
0.0
  0
LINE
  5
86
330
1F
100
AcDbEntity
  8
0
  6
Continuous
 62
     7
370
    15
100
AcDbLine
 10
214.838643194
 20
116.7932036054
 30
0.0
 11
214.838643194
 21
116.3587732893
 31
0.0
  0
LINE
  5
87
330
1F
100
AcDbEntity
  8
0
  6
Continuous
 62
     7
370
    15
100
AcDbLine
 10
208.3520112641
 20
98.0644910318
 30
0.0
 11
214.838643194
 21
100.0707721991
 31
0.0
  0
LINE
  5
88
330
1F
100
AcDbEntity
  8
0
  6
Continuous
 62
     7
370
    15
100
AcDbLine
 10
214.838643194
 20
100.5052025151
 30
0.0
 11
214.838643194
 21
100.0707721991
 31
0.0
  0
LINE
  5
89
330
1F
100
AcDbEntity
  8
0
  6
Continuous
 62
     7
370
    15
100
AcDbLine
 10
214.838643194
 20
118.3587736172
 30
0.0
 11
214.3386421807
 21
118.7994847727
 31
0.0
  0
LINE
  5
8A
330
1F
100
AcDbEntity
  8
0
  6
Continuous
 62
     7
370
    15
100
AcDbLine
 10
214.838643194
 20
116.7932036054
 30
0.0
 11
214.838643194
 21
118.3587736172
 31
0.0
  0
LINE
  5
8B
330
1F
100
AcDbEntity
  8
0
  6
Continuous
 62
     7
370
    15
100
AcDbLine
 10
214.838643194
 20
118.3587736172
 30
0.0
 11
214.838643194
 21
118.9319877607
 31
0.0
  0
LINE
  5
8C
330
1F
100
AcDbEntity
  8
0
  6
Continuous
 62
     7
370
    15
100
AcDbLine
 10
214.838643194
 20
98.5052021873
 30
0.0
 11
214.3386421807
 21
98.0644910318
 31
0.0
  0
LINE
  5
8D
330
1F
100
AcDbEntity
  8
0
  6
Continuous
 62
     7
370
    15
100
AcDbLine
 10
214.838643194
 20
100.0707721991
 30
0.0
 11
214.838643194
 21
98.5052021873
 31
0.0
  0
LINE
  5
8E
330
1F
100
AcDbEntity
  8
0
  6
Continuous
 62
     7
370
    15
100
AcDbLine
 10
214.838643194
 20
97.9319880438
 30
0.0
 11
214.838643194
 21
98.5052021873
 31
0.0
  0
LINE
  5
8F
330
1F
100
AcDbEntity
  8
0
  6
Continuous
 62
     7
370
    15
100
AcDbLine
 10
140.1886424132
 20
78.2450702694
 30
0.0
 11
136.2305736251
 21
78.2450702694
 31
0.0
  0
LINE
  5
90
330
1F
100
AcDbEntity
  8
0
  6
Continuous
 62
     7
370
    15
100
AcDbLine
 10
136.2305736251
 20
78.2450702694
 30
0.0
 11
136.2305736251
 21
128.2819886413
 31
0.0
  0
LINE
  5
91
330
1F
100
AcDbEntity
  8
0
  6
Continuous
 62
     7
370
    15
100
AcDbLine
 10
136.2305736251
 20
128.2819886413
 30
0.0
 11
140.1886424132
 21
128.2819886413
 31
0.0
  0
LINE
  5
92
330
1F
100
AcDbEntity
  8
0
  6
Continuous
 62
     7
370
    15
100
AcDbLine
 10
140.7886413939
 20
78.8717106638
 30
0.0
 11
140.7886413939
 21
128.2819886413
 31
0.0
  0
SPLINE
  5
93
330
1F
100
AcDbEntity
  8
0
  6
Continuous
 62
     7
370
    15
100
AcDbSpline
210
0.0
220
0.0
230
1.0
 70
     8
 71
     3
 72
    10
 73
     6
 74
     0
 42
0.00000001
 43
0.00000001
 40
0.0
 40
0.0
 40
0.0
 40
0.0
 40
0.5
 40
0.5
 40
1.0
 40
1.0
 40
1.0
 40
1.0
 10
140.7886417038787
 20
78.87171050165371
 30
0.0
 10
140.7886417038787
 20
78.71182323346004
 30
0.0
 10
140.7273320526429
 20
78.55069597794544
 30
0.0
 10
140.5082324151078
 20
78.3165969795906
 30
0.0
 10
140.3501842087943
 20
78.24507020599938
 30
0.0
 10
140.1886417038787
 20
78.24507020599938
 30
0.0
  0
SPLINE
  5
94
330
1F
100
AcDbEntity
  8
0
  6
Continuous
 62
     7
370
    15
100
AcDbSpline
210
0.0
220
0.0
230
1.0
 70
    24
 71
     3
 72
    12
 73
     8
 74
     0
 42
0.00000001
 43
0.00000001
 40
0.0
 40
0.0
 40
0.0
 40
0.0
 40
0.2500000000000033
 40
0.2500000000000033
 40
0.5000000000000067
 40
0.5000000000000067
 40
1.0
 40
1.0
 40
1.0
 40
1.0
 10
140.1886417038787
 20
128.2819879022466
 30
0.0
 10
140.2788807715658
 20
128.2819879022466
 30
0.0
 10
140.3697788856722
 20
128.2819879022466
 30
0.0
 10
140.5243759221608
 20
128.2819879022466
 30
0.0
 10
140.5893543382689
 20
128.2819879022466
 30
0.0
 10
140.7411893662051
 20
128.2819879022466
 30
0.0
 10
140.7886417038787
 20
128.2819879022466
 30
0.0
 10
140.7886417038787
 20
128.2819879022466
 30
0.0
  0
SPLINE
  5
95
330
1F
100
AcDbEntity
  8
0
  6
Continuous
 62
     7
370
    15
100
AcDbSpline
210
0.0
220
0.0
230
1.0
 70
     8
 71
     3
 72
    70
 73
    66
 74
     0
 42
0.00000001
 43
0.00000001
 40
-0.03125
 40
-0.03125
 40
0.0
 40
0.0
 40
0.03125
 40
0.03125
 40
0.0625
 40
0.0625
 40
0.09375
 40
0.09375
 40
0.125
 40
0.125
 40
0.15625
 40
0.15625
 40
0.1875
 40
0.1875
 40
0.21875
 40
0.21875
 40
0.25
 40
0.25
 40
0.28125
 40
0.28125
 40
0.3125
 40
0.3125
 40
0.34375
 40
0.34375
 40
0.375
 40
0.375
 40
0.40625
 40
0.40625
 40
0.4375
 40
0.4375
 40
0.46875
 40
0.46875
 40
0.5
 40
0.5
 40
0.53125
 40
0.53125
 40
0.5625
 40
0.5625
 40
0.59375
 40
0.59375
 40
0.625
 40
0.625
 40
0.65625
 40
0.65625
 40
0.6875
 40
0.6875
 40
0.71875
 40
0.71875
 40
0.75
 40
0.75
 40
0.78125
 40
0.78125
 40
0.8125
 40
0.8125
 40
0.84375
 40
0.84375
 40
0.875
 40
0.875
 40
0.90625
 40
0.90625
 40
0.9375
 40
0.9375
 40
0.96875
 40
0.96875
 40
1.0
 40
1.0
 40
1.03125
 40
1.03125
 10
122.5740963652186
 20
119.0528947882299
 30
0.0
 10
123.1031870425389
 20
119.0528947882299
 30
0.0
 10
123.363257709916
 20
119.0775720830151
 30
0.0
 10
123.8748323897514
 20
119.174043756057
 30
0.0
 10
124.1290076734916
 20
119.247024672037
 30
0.0
 10
124.6132783035533
 20
119.4367652749757
 30
0.0
 10
124.8429193954345
 20
119.5526259333694
 30
0.0
 10
125.277523743668
 20
119.8252437793271
 30
0.0
 10
125.4830895203146
 20
119.9832828613809
 30
0.0
 10
125.8516466609098
 20
120.3268257123515
 30
0.0
 10
126.0171276436453
 20
120.5135881564532
 30
0.0
 10
126.3095521530804
 20
120.91713133085
 30
0.0
 10
126.4336531297069
 20
121.1306283272792
 30
0.0
 10
126.6332323264566
 20
121.5700116412017
 30
0.0
 10
126.7101659123149
 20
121.7991516283473
 30
0.0
 10
126.8130229708352
 20
122.2651257511073
 30
0.0
 10
126.8384958802944
 20
122.4980081967835
 30
0.0
 10
126.8387862908621
 20
122.9634057318633
 30
0.0
 10
126.8127616570864
 20
123.1982814892576
 30
0.0
 10
126.7106133725944
 20
123.6497746365039
 30
0.0
 10
126.6350369250112
 20
123.8678211119153
 30
0.0
 10
126.4345393938663
 20
124.2889156369531
 30
0.0
 10
126.3094105523579
 20
124.4908370214714
 30
0.0
 10
126.0200517513364
 20
124.8628665039903
 30
0.0
 10
125.8546407642809
 20
125.0354948075706
 30
0.0
 10
125.4816502061331
 20
125.3528128121167
 30
0.0
 10
125.279917173044
 20
125.4925997456183
 30
0.0
 10
124.8470579222161
 20
125.7367759991701
 30
0.0
 10
124.6131393893267
 20
125.8420055102116
 30
0.0
 10
124.1289556541841
 20
126.0101626565867
 30
0.0
 10
123.8796400282286
 20
126.0734135471806
 30
0.0
 10
123.3666075038009
 20
126.1589927562832
 30
0.0
 10
123.1013136808962
 20
126.1808649212056
 30
0.0
 10
122.5789790610265
 20
126.1810285708495
 30
0.0
 10
122.3192253985447
 20
126.1600268787536
 30
0.0
 10
121.8026135828995
 20
126.0746245236759
 30
0.0
 10
121.5502475423992
 20
126.0106183403889
 30
0.0
 10
121.0687224208664
 20
125.8438038203477
 30
0.0
 10
120.8358716887528
 20
125.7396706569486
 30
0.0
 10
120.3987818403141
 20
125.4936840044536
 30
0.0
 10
120.1974608516569
 20
125.3539341735048
 30
0.0
 10
119.828374826357
 20
125.0407961037802
 30
0.0
 10
119.6593900753053
 20
124.8653399445101
 30
0.0
 10
119.3689340186461
 20
124.4924996804099
 30
0.0
 10
119.2458622072839
 20
124.2943778702989
 30
0.0
 10
119.0445259658619
 20
123.8736665275653
 30
0.0
 10
118.9673134199197
 20
123.6516765068977
 30
0.0
 10
118.8651098770196
 20
123.2018115671894
 30
0.0
 10
118.8388815255673
 20
122.9715561540726
 30
0.0
 10
118.8384051262502
 20
122.5002402115235
 30
0.0
 10
118.8641475387482
 20
122.2670027958094
 30
0.0
 10
118.965458315112
 20
121.8053262563113
 30
0.0
 10
119.042290954503
 20
121.5744288691992
 30
0.0
 10
119.2426947937182
 20
121.1321528554075
 30
0.0
 10
119.3653662920102
 20
120.9210904241216
 30
0.0
 10
119.6553135811744
 20
120.519591913389
 30
0.0
 10
119.8238845605397
 20
120.328685391313
 30
0.0
 10
120.1921541546528
 20
119.984960059316
 30
0.0
 10
120.3932160119231
 20
119.8298228731019
 30
0.0
 10
120.8302469305081
 20
119.5547455130221
 30
0.0
 10
121.0623951436377
 20
119.4376292836001
 30
0.0
 10
121.5434054251365
 20
119.2487027985356
 30
0.0
 10
121.795505507967
 20
119.1756278281413
 30
0.0
 10
122.312574994226
 20
119.0775757690068
 30
0.0
 10
122.5740963652186
 20
119.0528947882299
 30
0.0
 10
123.1031870425389
 20
119.0528947882299
 30
0.0
  0
LINE
  5
96
330
1F
100
AcDbEntity
  8
0
  6
Continuous
 62
     7
370
    15
100
AcDbLine
 10
119.7886416771
 20
128.2819886413
 30
0.0
 11
129.4467091642
 21
128.2819886413
 31
0.0
  0
LINE
  5
97
330
1F
100
AcDbEntity
  8
0
  6
Continuous
 62
     7
370
    15
100
AcDbLine
 10
129.4467091642
 20
78.2450702694
 30
0.0
 11
129.4467091642
 21
128.2819886413
 31
0.0
  0
LINE
  5
98
330
1F
100
AcDbEntity
  8
0
  6
Continuous
 62
     7
370
    15
100
AcDbLine
 10
129.4467091642
 20
78.2450702694
 30
0.0
 11
127.788642057
 21
78.2450702694
 31
0.0
  0
SPLINE
  5
99
330
1F
100
AcDbEntity
  8
0
  6
Continuous
 62
     7
370
    15
100
AcDbSpline
210
0.0
220
0.0
230
1.0
 70
     8
 71
     3
 72
    28
 73
    24
 74
     0
 42
0.00000001
 43
0.00000001
 40
0.0
 40
0.0
 40
0.0
 40
0.0
 40
0.1250000000000001
 40
0.1250000000000001
 40
0.1875000000000001
 40
0.1875000000000001
 40
0.2500000000000001
 40
0.2500000000000001
 40
0.3749999999999999
 40
0.3749999999999999
 40
0.4375
 40
0.4375
 40
0.4999999999999999
 40
0.4999999999999999
 40
0.6249999999999999
 40
0.6249999999999999
 40
0.7499999999999997
 40
0.7499999999999997
 40
0.8124999999999998
 40
0.8124999999999998
 40
0.8749999999999998
 40
0.8749999999999998
 40
1.0
 40
1.0
 40
1.0
 40
1.0
 10
127.7886417038787
 20
78.24507020599938
 30
0.0
 10
127.2569339463858
 20
78.24507020599938
 30
0.0
 10
126.7346953810755
 20
78.22928549204917
 30
0.0
 10
125.9648248948005
 20
78.18429007797297
 30
0.0
 10
125.7104653226091
 20
78.16573508289723
 30
0.0
 10
125.2063437419106
 20
78.12188236045073
 30
0.0
 10
124.9566209244827
 20
78.09653775349854
 30
0.0
 10
124.2310309730363
 20
78.01313567574844
 30
0.0
 10
123.7726707114547
 20
77.94727011659735
 30
0.0
 10
123.1221727680609
 20
77.83829977610556
 30
0.0
 10
122.9104907172684
 20
77.80006014033891
 30
0.0
 10
122.5064192281304
 20
77.72230140291956
 30
0.0
 10
122.3139127143096
 20
77.68280044074419
 30
0.0
 10
121.7640777432883
 20
77.5638926983782
 30
0.0
 10
121.4341489649794
 20
77.4840750169536
 30
0.0
 10
120.8496776964108
 20
77.33073185515752
 30
0.0
 10
120.6034005583973
 20
77.25939810188828
 30
0.0
 10
120.3035577656993
 20
77.16545459481365
 30
0.0
 10
120.2151009086271
 20
77.13626080145372
 30
0.0
 10
120.0617395553219
 20
77.0827942271903
 30
0.0
 10
119.9966513410957
 20
77.05843489291513
 30
0.0
 10
119.8410573251549
 20
76.9948447474704
 30
0.0
 10
119.7886417038787
 20
76.96474181238113
 30
0.0
 10
119.7886417038787
 20
76.94786491938422
 30
0.0
  0
LINE
  5
9A
330
1F
100
AcDbEntity
  8
0
  6
Continuous
 62
     7
370
    15
100
AcDbLine
 10
119.7886416771
 20
76.9478645829
 30
0.0
 11
119.7886416771
 21
76.9319873956
 31
0.0
  0
SPLINE
  5
9B
330
1F
100
AcDbEntity
  8
0
  6
Continuous
 62
     7
370
    15
100
AcDbSpline
210
0.0
220
0.0
230
1.0
 70
     8
 71
     3
 72
    17
 73
    13
 74
     0
 42
0.00000001
 43
0.00000001
 40
0.0
 40
0.0
 40
0.0
 40
0.0
 40
0.1034797280380778
 40
0.2100239090909901
 40
0.3134862262879433
 40
0.4198361712144981
 40
0.5254127947779869
 40
0.6339610881168427
 40
0.7409508662120068
 40
0.8511696072047016
 40
0.9558996557845765
 40
1.0
 40
1.0
 40
1.0
 40
1.0
 10
127.7886420570363
 20
138.899183338605
 30
0.0
 10
127.3533935653104
 20
138.9046313302427
 30
0.0
 10
126.4700071147334
 20
138.9156886505713
 30
0.0
 10
125.1891792525106
 20
139.0020474109463
 30
0.0
 10
123.9717630570687
 20
139.1299185540793
 30
0.0
 10
122.8639564407429
 20
139.2888629613978
 30
0.0
 10
121.875717961414
 20
139.4633575343824
 30
0.0
 10
121.0509948615982
 20
139.6325239675693
 30
0.0
 10
120.4020412040996
 20
139.780404776037
 30
0.0
 10
119.9850059006199
 20
139.8821955275595
 30
0.0
 10
119.786409157742
 20
139.932552427194
 30
0.0
 10
119.8097222747299
 20
139.9266428222185
 30
0.0
 10
119.8166302487303
 20
139.9248917308675
 30
0.0
  0
LINE
  5
9C
330
1F
100
AcDbEntity
  8
0
  6
Continuous
 62
     7
370
    15
100
AcDbLine
 10
129.4467091642
 20
138.8991833386
 30
0.0
 11
127.788642057
 21
138.8991833386
 31
0.0
  0
LINE
  5
9D
330
1F
100
AcDbEntity
  8
0
  6
Continuous
 62
     7
370
    15
100
AcDbLine
 10
129.4467091642
 20
132.8906775174
 30
0.0
 11
129.4467091642
 21
138.8991833386
 31
0.0
  0
LINE
  5
9E
330
1F
100
AcDbEntity
  8
0
  6
Continuous
 62
     7
370
    15
100
AcDbLine
 10
127.0342623897
 20
132.8906775174
 30
0.0
 11
129.4467091642
 21
132.8906775174
 31
0.0
  0
SPLINE
  5
9F
330
1F
100
AcDbEntity
  8
0
  6
Continuous
 62
     7
370
    15
100
AcDbSpline
210
0.0
220
0.0
230
1.0
 70
     8
 71
     3
 72
    20
 73
    16
 74
     0
 42
0.00000001
 43
0.00000001
 40
0.0
 40
0.0
 40
0.0
 40
0.0
 40
0.2499999999999997
 40
0.2499999999999997
 40
0.3749999999999997
 40
0.3749999999999997
 40
0.4999999999999998
 40
0.4999999999999998
 40
0.6249999999999998
 40
0.6249999999999998
 40
0.7499999999999999
 40
0.7499999999999999
 40
0.8749999999999999
 40
0.8749999999999999
 40
1.0
 40
1.0
 40
1.0
 40
1.0
 10
119.7886417038787
 20
128.2819879022466
 30
0.0
 10
120.0370154381668
 20
128.935850330544
 30
0.0
 10
120.356585530512
 20
129.5396361125411
 30
0.0
 10
120.9788917637167
 20
130.3664748487097
 30
0.0
 10
121.2103160241475
 20
130.6289034866626
 30
0.0
 10
121.7315303637972
 20
131.1255661407676
 30
0.0
 10
122.0181508464323
 20
131.3561530197891
 30
0.0
 10
122.6376355877399
 20
131.7727072443718
 30
0.0
 10
122.9719359672269
 20
131.9602050463393
 30
0.0
 10
123.6971964398517
 20
132.2916020239757
 30
0.0
 10
124.0791114972421
 20
132.4311060114709
 30
0.0
 10
124.8738996734138
 20
132.6565595189419
 30
0.0
 10
125.2880578676202
 20
132.7431856304855
 30
0.0
 10
126.1536042082016
 20
132.8611664193396
 30
0.0
 10
126.5914918232134
 20
132.890677564614
 30
0.0
 10
127.034262049568
 20
132.890677564614
 30
0.0
  0
SPLINE
  5
A0
330
1F
100
AcDbEntity
  8
0
  6
Continuous
 62
     7
370
    15
100
AcDbSpline
210
0.0
220
0.0
230
1.0
 70
     8
 71
     3
 72
    70
 73
    66
 74
     0
 42
0.00000001
 43
0.00000001
 40
-0.03125
 40
-0.03125
 40
0.0
 40
0.0
 40
0.0312499999999999
 40
0.0312499999999999
 40
0.0624999999999999
 40
0.0624999999999999
 40
0.0937499999999998
 40
0.0937499999999998
 40
0.1249999999999997
 40
0.1249999999999997
 40
0.1562499999999997
 40
0.1562499999999997
 40
0.1874999999999996
 40
0.1874999999999996
 40
0.2187499999999995
 40
0.2187499999999995
 40
0.2499999999999994
 40
0.2499999999999994
 40
0.2812499999999996
 40
0.2812499999999996
 40
0.3124999999999996
 40
0.3124999999999996
 40
0.3437499999999997
 40
0.3437499999999997
 40
0.3749999999999998
 40
0.3749999999999998
 40
0.4062499999999999
 40
0.4062499999999999
 40
0.4375
 40
0.4375
 40
0.4687500000000001
 40
0.4687500000000001
 40
0.5000000000000002
 40
0.5000000000000002
 40
0.5312500000000001
 40
0.5312500000000001
 40
0.5625000000000001
 40
0.5625000000000001
 40
0.59375
 40
0.59375
 40
0.6249999999999999
 40
0.6249999999999999
 40
0.6562499999999999
 40
0.6562499999999999
 40
0.6874999999999998
 40
0.6874999999999998
 40
0.7187499999999998
 40
0.7187499999999998
 40
0.7499999999999997
 40
0.7499999999999997
 40
0.7812499999999997
 40
0.7812499999999997
 40
0.8124999999999998
 40
0.8124999999999998
 40
0.8437499999999998
 40
0.8437499999999998
 40
0.8749999999999998
 40
0.8749999999999998
 40
0.9062499999999999
 40
0.9062499999999999
 40
0.9374999999999999
 40
0.9374999999999999
 40
0.96875
 40
0.96875
 40
1.0
 40
1.0
 40
1.03125
 40
1.03125
 10
122.5740963652186
 20
133.4909512970257
 30
0.0
 10
123.1031870425389
 20
133.4909512970257
 30
0.0
 10
123.363257709916
 20
133.5068517374405
 30
0.0
 10
123.8748323897514
 20
133.5687960876148
 30
0.0
 10
124.1290076734916
 20
133.6155983217061
 30
0.0
 10
124.6132783035533
 20
133.7365753051612
 30
0.0
 10
124.8429193954345
 20
133.810177632968
 30
0.0
 10
125.277523743668
 20
133.9820019039461
 30
0.0
 10
125.4830895203146
 20
134.0810053268735
 30
0.0
 10
125.8516466609098
 20
134.2941017407864
 30
0.0
 10
126.0171276436453
 20
134.409001456916
 30
0.0
 10
126.3095521530804
 20
134.6543683556063
 30
0.0
 10
126.4336531297069
 20
134.7828082560766
 30
0.0
 10
126.6332323264566
 20
135.0437004041626
 30
0.0
 10
126.7101659123149
 20
135.178081575502
 30
0.0
 10
126.8130229708352
 20
135.4474015266083
 30
0.0
 10
126.8384958802944
 20
135.5800827908265
 30
0.0
 10
126.8387862908621
 20
135.8412692649575
 30
0.0
 10
126.8127616570864
 20
135.9710343031222
 30
0.0
 10
126.7106133725944
 20
136.2166169373949
 30
0.0
 10
126.6350369250112
 20
136.3332784747037
 30
0.0
 10
126.4345393938663
 20
136.5551836648583
 30
0.0
 10
126.3094105523579
 20
136.6597949187813
 30
0.0
 10
126.0200517513364
 20
136.8498413303894
 30
0.0
 10
125.8546407642809
 20
136.936601001839
 30
0.0
 10
125.4816502061331
 20
137.0941053775906
 30
0.0
 10
125.279917173044
 20
137.1624306423778
 30
0.0
 10
124.8470579222161
 20
137.280660365997
 30
0.0
 10
124.6131393893267
 20
137.3309552821009
 30
0.0
 10
124.1289556541841
 20
137.4108208189905
 30
0.0
 10
123.8796400282286
 20
137.4405619467901
 30
0.0
 10
123.3666075038009
 20
137.4807146882983
 30
0.0
 10
123.1013136808962
 20
137.4909129577082
 30
0.0
 10
122.5789790610265
 20
137.4909894160929
 30
0.0
 10
122.3192253985447
 20
137.4811984044838
 30
0.0
 10
121.8026135828995
 20
137.4411315657451
 30
0.0
 10
121.5502475423992
 20
137.4110343988883
 30
0.0
 10
121.0687224208664
 20
137.331812189058
 30
0.0
 10
120.8358716887528
 20
137.2820547095947
 30
0.0
 10
120.3987818403141
 20
137.1629627671443
 30
0.0
 10
120.1974608516569
 20
137.094647505597
 30
0.0
 10
119.828374826357
 20
136.9392465386635
 30
0.0
 10
119.6593900753053
 20
136.8510941965966
 30
0.0
 10
119.3689340186461
 20
136.6606548074802
 30
0.0
 10
119.2458622072839
 20
136.5580302297812
 30
0.0
 10
119.0445259658619
 20
136.336389883173
 30
0.0
 10
118.9673134199197
 20
136.2176358076256
 30
0.0
 10
118.8651098770196
 20
135.9729698687078
 30
0.0
 10
118.8388815255673
 20
135.8458131432593
 30
0.0
 10
118.8384051262502
 20
135.5813649974037
 30
0.0
 10
118.8641475387482
 20
135.4484643171466
 30
0.0
 10
118.965458315112
 20
135.1816720436645
 30
0.0
 10
119.042290954503
 20
135.046308142196
 30
0.0
 10
119.2426947937182
 20
134.7837283468934
 30
0.0
 10
119.3653662920102
 20
134.6567531871397
 30
0.0
 10
119.6553135811744
 20
134.4126738010573
 30
0.0
 10
119.8238845605397
 20
134.2952486763034
 30
0.0
 10
120.1921541546528
 20
134.082052215355
 30
0.0
 10
120.3932160119231
 20
133.9848780969301
 30
0.0
 10
120.8302469305081
 20
133.8115232097159
 30
0.0
 10
121.0623951436377
 20
133.7371236580592
 30
0.0
 10
121.5434054251365
 20
133.6166707785545
 30
0.0
 10
121.795505507967
 20
133.5698124032886
 30
0.0
 10
122.312574994226
 20
133.5068549063048
 30
0.0
 10
122.5740963652186
 20
133.4909512970257
 30
0.0
 10
123.1031870425389
 20
133.4909512970257
 30
0.0
  0
LINE
  5
A1
330
1F
100
AcDbEntity
  8
0
  6
Continuous
 62
     7
370
    15
100
AcDbLine
 10
130.9286417522
 20
80.9341505823
 30
0.0
 11
130.9286417522
 21
128.2819886413
 31
0.0
  0
SPLINE
  5
A2
330
1F
100
AcDbEntity
  8
0
  6
Continuous
 62
     7
370
    15
100
AcDbSpline
210
0.0
220
0.0
230
1.0
 70
     8
 71
     3
 72
     8
 73
     4
 74
     0
 42
0.00000001
 43
0.00000001
 40
0.0
 40
0.0
 40
0.0
 40
0.0
 40
1.0
 40
1.0
 40
1.0
 40
1.0
 10
130.9286417038788
 20
80.93415074319168
 30
0.0
 10
130.4363025810976
 20
80.03688070898498
 30
0.0
 10
129.9421885330554
 20
79.14059629393275
 30
0.0
 10
129.4467088723897
 20
78.24507020599938
 30
0.0
  0
SPLINE
  5
A3
330
1F
100
AcDbEntity
  8
0
  6
Continuous
 62
     7
370
    15
100
AcDbSpline
210
0.0
220
0.0
230
1.0
 70
    24
 71
     3
 72
     8
 73
     4
 74
     0
 42
0.00000001
 43
0.00000001
 40
0.0
 40
0.0
 40
0.0
 40
0.0
 40
1.0
 40
1.0
 40
1.0
 40
1.0
 10
129.4467088723896
 20
128.2819879022466
 30
0.0
 10
129.9533889805402
 20
128.2819879022466
 30
0.0
 10
130.4486897095138
 20
128.2819879022466
 30
0.0
 10
130.9286417038788
 20
128.2819879022466
 30
0.0
  0
LINE
  5
A4
330
1F
100
AcDbEntity
  8
0
  6
Continuous
 62
     7
370
    15
100
AcDbLine
 10
114.8386417039
 20
77.2319887486
 30
0.0
 11
114.8386417039
 21
139.6319870559
 31
0.0
  0
SPLINE
  5
A5
330
1F
100
AcDbEntity
  8
0
  6
Continuous
 62
     7
370
    15
100
AcDbSpline
210
0.0
220
0.0
230
1.0
 70
     8
 71
     3
 72
     8
 73
     4
 74
     0
 42
0.00000001
 43
0.00000001
 40
0.0
 40
0.0
 40
0.0
 40
0.0
 40
1.0
 40
1.0
 40
1.0
 40
1.0
 10
136.2305745353678
 20
78.24507020599938
 30
0.0
 10
135.735094874702
 20
79.14059629393275
 30
0.0
 10
135.2409808266599
 20
80.036880708985
 30
0.0
 10
134.7486417038787
 20
80.9341507431917
 30
0.0
  0
LINE
  5
A6
330
1F
100
AcDbEntity
  8
0
  6
Continuous
 62
     7
370
    15
100
AcDbLine
 10
134.7486419685
 20
80.9341505823
 30
0.0
 11
134.7486419685
 21
128.2819886413
 31
0.0
  0
SPLINE
  5
A7
330
1F
100
AcDbEntity
  8
0
  6
Continuous
 62
     7
370
    15
100
AcDbSpline
210
0.0
220
0.0
230
1.0
 70
    24
 71
     3
 72
     8
 73
     4
 74
     0
 42
0.00000001
 43
0.00000001
 40
0.0
 40
0.0
 40
0.0
 40
0.0
 40
1.0
 40
1.0
 40
1.0
 40
1.0
 10
134.7486417038787
 20
128.2819879022466
 30
0.0
 10
135.2285936982436
 20
128.2819879022466
 30
0.0
 10
135.7238944272172
 20
128.2819879022466
 30
0.0
 10
136.2305745353678
 20
128.2819879022466
 30
0.0
  0
ARC
  5
A8
330
1F
100
AcDbEntity
  8
0
  6
Continuous
 62
     7
370
    15
100
AcDbCircle
 10
122.8369284552
 20
120.3466813963
 30
0.0
 40
4.107780965392879
100
AcDbArc
 50
18.987196649
 51
160.2269863703
  0
SPLINE
  5
A9
330
1F
100
AcDbEntity
  8
0
  6
Continuous
 62
     7
370
    15
100
AcDbSpline
210
0.0
220
0.0
230
1.0
 70
     8
 71
     3
 72
    10
 73
     6
 74
     0
 42
0.00000001
 43
0.00000001
 40
0.0
 40
0.0
 40
0.0
 40
0.0
 40
0.5
 40
0.5
 40
1.0
 40
1.0
 40
1.0
 40
1.0
 10
131.3229392355697
 20
134.8319879022465
 30
0.0
 10
131.2013989719012
 20
134.9067140694583
 30
0.0
 10
131.1000646115523
 20
135.0156590853751
 30
0.0
 10
130.9644256686638
 20
135.2660895661367
 30
0.0
 10
130.9286417038788
 20
135.4085089282356
 30
0.0
 10
130.9286417038788
 20
135.5516417532823
 30
0.0
  0
SPLINE
  5
AA
330
1F
100
AcDbEntity
  8
0
  6
Continuous
 62
     7
370
    15
100
AcDbSpline
210
0.0
220
0.0
230
1.0
 70
    24
 71
     3
 72
    12
 73
     8
 74
     0
 42
0.00000001
 43
0.00000001
 40
0.0
 40
0.0
 40
0.0
 40
0.0
 40
0.2500000000000037
 40
0.2500000000000037
 40
0.5000000000000074
 40
0.5000000000000074
 40
1.0
 40
1.0
 40
1.0
 40
1.0
 10
131.7286417038787
 20
134.8319879022465
 30
0.0
 10
131.6787650215613
 20
134.8319879022465
 30
0.0
 10
131.6307618281577
 20
134.8319879022465
 30
0.0
 10
131.5477137254457
 20
134.8319879022465
 30
0.0
 10
131.5115841459779
 20
134.8319879022465
 30
0.0
 10
131.4156721150337
 20
134.8319879022465
 30
0.0
 10
131.3659134470649
 20
134.8319879022465
 30
0.0
 10
131.3229392355697
 20
134.8319879022465
 30
0.0
  0
SPLINE
  5
AB
330
1F
100
AcDbEntity
  8
0
  6
Continuous
 62
     7
370
    15
100
AcDbSpline
210
0.0
220
0.0
230
1.0
 70
    24
 71
     3
 72
    14
 73
    10
 74
     0
 42
0.00000001
 43
0.00000001
 40
0.0
 40
0.0
 40
0.0
 40
0.0
 40
0.1249999999999991
 40
0.1249999999999991
 40
0.2499999999999982
 40
0.2499999999999982
 40
0.4999999999999998
 40
0.4999999999999998
 40
1.0
 40
1.0
 40
1.0
 40
1.0
 10
131.7286417038787
 20
82.03198790224656
 30
0.0
 10
131.6602038559923
 20
82.03198790224656
 30
0.0
 10
131.5946538172272
 20
82.03198790224656
 30
0.0
 10
131.4902271778193
 20
82.03198790224656
 30
0.0
 10
131.4476825680579
 20
82.03198790224656
 30
0.0
 10
131.3350731075176
 20
82.03198790224654
 30
0.0
 10
131.2795340604981
 20
82.03198790224656
 30
0.0
 10
131.1369223650343
 20
82.03198790224654
 30
0.0
 10
131.0735170100386
 20
82.03198790224654
 30
0.0
 10
131.026316506211
 20
82.03198790224656
 30
0.0
  0
SPLINE
  5
AC
330
1F
100
AcDbEntity
  8
0
  6
Continuous
 62
     7
370
    15
100
AcDbSpline
210
0.0
220
0.0
230
1.0
 70
     8
 71
     3
 72
    10
 73
     6
 74
     0
 42
0.00000001
 43
0.00000001
 40
0.0
 40
0.0
 40
0.0
 40
0.0
 40
0.5
 40
0.5
 40
1.0
 40
1.0
 40
1.0
 40
1.0
 10
130.9286417038788
 20
128.5678545337079
 30
0.0
 10
130.9286417038788
 20
128.5200830257146
 30
0.0
 10
130.9308029474759
 20
128.472373303653
 30
0.0
 10
130.9394743213361
 20
128.3770781861047
 30
0.0
 10
130.946003504292
 20
128.329385622138
 30
0.0
 10
130.9547893270389
 20
128.2819879022466
 30
0.0
  0
SPLINE
  5
AD
330
1F
100
AcDbEntity
  8
0
  6
Continuous
 62
     7
370
    15
100
AcDbSpline
210
0.0
220
0.0
230
1.0
 70
    24
 71
     3
 72
    14
 73
    10
 74
     0
 42
0.00000001
 43
0.00000001
 40
0.0
 40
0.0
 40
0.0
 40
0.0
 40
0.4999999999999984
 40
0.4999999999999984
 40
0.7499999999999992
 40
0.7499999999999992
 40
0.8749999999999996
 40
0.8749999999999996
 40
1.0
 40
1.0
 40
1.0
 40
1.0
 10
134.6509669015465
 20
82.03198790224656
 30
0.0
 10
134.6041821964982
 20
82.03198790224656
 30
0.0
 10
134.5421309997186
 20
82.03198790224656
 30
0.0
 10
134.398739361168
 20
82.03198790224654
 30
0.0
 10
134.3425957076169
 20
82.03198790224656
 30
0.0
 10
134.2296446854807
 20
82.03198790224656
 30
0.0
 10
134.1866439234425
 20
82.03198790224656
 30
0.0
 10
134.0825812131361
 20
82.03198790224656
 30
0.0
 10
134.0172489747792
 20
82.03198790224656
 30
0.0
 10
133.9486417038787
 20
82.03198790224656
 30
0.0
  0
SPLINE
  5
AE
330
1F
100
AcDbEntity
  8
0
  6
Continuous
 62
     7
370
    15
100
AcDbSpline
210
0.0
220
0.0
230
1.0
 70
    24
 71
     3
 72
    12
 73
     8
 74
     0
 42
0.00000001
 43
0.00000001
 40
0.0
 40
0.0
 40
0.0
 40
0.0
 40
0.5000000000000017
 40
0.5000000000000017
 40
0.7500000000000008
 40
0.7500000000000008
 40
1.0
 40
1.0
 40
1.0
 40
1.0
 10
134.3543441721878
 20
134.8319879022465
 30
0.0
 10
134.3112586225768
 20
134.8319879022465
 30
0.0
 10
134.2621064208275
 20
134.8319879022465
 30
0.0
 10
134.1656338265396
 20
134.8319879022465
 30
0.0
 10
134.129532241405
 20
134.8319879022465
 30
0.0
 10
134.0464264835437
 20
134.8319879022465
 30
0.0
 10
133.9984298865774
 20
134.8319879022465
 30
0.0
 10
133.9486417038787
 20
134.8319879022465
 30
0.0
  0
SPLINE
  5
AF
330
1F
100
AcDbEntity
  8
0
  6
Continuous
 62
     7
370
    15
100
AcDbSpline
210
0.0
220
0.0
230
1.0
 70
     8
 71
     3
 72
    10
 73
     6
 74
     0
 42
0.00000001
 43
0.00000001
 40
0.0
 40
0.0
 40
0.0
 40
0.0
 40
0.5
 40
0.5
 40
1.0
 40
1.0
 40
1.0
 40
1.0
 10
134.7486417038787
 20
135.5516417532823
 30
0.0
 10
134.7486417038787
 20
135.4078716954643
 30
0.0
 10
134.7125926451599
 20
135.2654523329691
 30
0.0
 10
134.5770837843858
 20
135.0155580396119
 30
0.0
 10
134.4772077912897
 20
134.9075277033637
 30
0.0
 10
134.3543441721878
 20
134.8319879022465
 30
0.0
  0
SPLINE
  5
B0
330
1F
100
AcDbEntity
  8
0
  6
Continuous
 62
     7
370
    15
100
AcDbSpline
210
0.0
220
0.0
230
1.0
 70
     8
 71
     3
 72
    10
 73
     6
 74
     0
 42
0.00000001
 43
0.00000001
 40
0.0
 40
0.0
 40
0.0
 40
0.0
 40
0.5
 40
0.5
 40
1.0
 40
1.0
 40
1.0
 40
1.0
 10
134.7224940807186
 20
128.2819879022466
 30
0.0
 10
134.7311837236303
 20
128.3288667515647
 30
0.0
 10
134.7377227883808
 20
128.376289216966
 30
0.0
 10
134.7464814227738
 20
128.4722260155528
 30
0.0
 10
134.7486417038787
 20
128.5201413035634
 30
0.0
 10
134.7486417038787
 20
128.5678545337079
 30
0.0
  0
LINE
  5
B1
330
1F
100
AcDbEntity
  8
0
  6
Continuous
 62
     7
370
    15
100
AcDbLine
 10
133.9486414649
 20
134.8319877592
 30
0.0
 11
131.7286422558
 21
134.8319877592
 31
0.0
  0
LINE
  5
B2
330
1F
100
AcDbEntity
  8
0
  6
Continuous
 62
     7
370
    15
100
AcDbLine
 10
133.9486414649
 20
82.0319880453
 30
0.0
 11
131.7286422558
 21
82.0319880453
 31
0.0
  0
LINE
  5
B3
330
1F
100
AcDbEntity
  8
0
  6
Continuous
 62
     7
370
    15
100
AcDbLine
 10
112.8386416089
 20
84.2115566787
 30
0.0
 11
112.8386416089
 21
132.6524191258
 31
0.0
  0
LINE
  5
B4
330
1F
100
AcDbEntity
  8
0
  6
Continuous
 62
     7
370
    15
100
AcDbLine
 10
93.0386414833
 20
85.2035418806
 30
0.0
 11
93.0386414833
 21
86.4682499972
 31
0.0
  0
SPLINE
  5
B5
330
1F
100
AcDbEntity
  8
0
  6
Continuous
 62
     7
370
    15
100
AcDbSpline
210
0.0
220
0.0
230
1.0
 70
     8
 71
     3
 72
    14
 73
    10
 74
     0
 42
0.00000001
 43
0.00000001
 40
0.0
 40
0.0
 40
0.0
 40
0.0
 40
0.25
 40
0.25
 40
0.5
 40
0.5
 40
0.75
 40
0.75
 40
1.0
 40
1.0
 40
1.0
 40
1.0
 10
92.26035458596301
 20
87.5988365786866
 30
0.0
 10
92.3169812611651
 20
87.49113912484974
 30
0.0
 10
92.41150392145482
 20
87.38834954313042
 30
0.0
 10
92.59454889701706
 20
87.18999223091028
 30
0.0
 10
92.68617547397179
 20
87.09393272223203
 30
0.0
 10
92.84502879166497
 20
86.90640367952278
 30
0.0
 10
92.91291939928666
 20
86.81499470673923
 30
0.0
 10
93.00983642499426
 20
86.63661848582908
 30
0.0
 10
93.03864170387932
 20
86.54939657958289
 30
0.0
 10
93.0386417038793
 20
86.46825037104863
 30
0.0
  0
SPLINE
  5
B6
330
1F
100
AcDbEntity
  8
0
  6
Continuous
 62
     7
370
    15
100
AcDbSpline
210
0.0
220
0.0
230
1.0
 70
     8
 71
     3
 72
    14
 73
    10
 74
     0
 42
0.00000001
 43
0.00000001
 40
0.0
 40
0.0
 40
0.0
 40
0.0
 40
0.1249999999999975
 40
0.1249999999999975
 40
0.249999999999995
 40
0.249999999999995
 40
0.4999999999999953
 40
0.4999999999999953
 40
1.0
 40
1.0
 40
1.0
 40
1.0
 10
91.63864170387873
 20
88.04551844096592
 30
0.0
 10
91.6871861125359
 20
88.05126675424621
 30
0.0
 10
91.74010146732081
 20
88.04816586558998
 30
0.0
 10
91.83539681230386
 20
88.02597102142765
 30
0.0
 10
91.8756478095888
 20
88.00873879433179
 30
0.0
 10
91.97991782310177
 20
87.95241087787973
 30
0.0
 10
92.0302397982551
 20
87.90822453193393
 30
0.0
 10
92.15792274578048
 20
87.7772166330833
 30
0.0
 10
92.21400819284274
 20
87.686982112853
 30
0.0
 10
92.26035458596449
 20
87.59883657868713
 30
0.0
  0
SPLINE
  5
B7
330
1F
100
AcDbEntity
  8
0
  6
Continuous
 62
     7
370
    15
100
AcDbSpline
210
0.0
220
0.0
230
1.0
 70
     8
 71
     3
 72
     8
 73
     4
 74
     0
 42
0.00000001
 43
0.00000001
 40
0.0
 40
0.0
 40
0.0
 40
0.0
 40
1.0
 40
1.0
 40
1.0
 40
1.0
 10
89.37011661093251
 20
87.73567315438314
 30
0.0
 10
90.10469363741547
 20
87.8542981654521
 30
0.0
 10
90.86816870681113
 20
87.95428403758837
 30
0.0
 10
91.63864170387875
 20
88.04551844096592
 30
0.0
  0
SPLINE
  5
B8
330
1F
100
AcDbEntity
  8
0
  6
Continuous
 62
     7
370
    15
100
AcDbSpline
210
0.0
220
0.0
230
1.0
 70
     8
 71
     3
 72
    14
 73
    10
 74
     0
 42
0.00000001
 43
0.00000001
 40
0.0
 40
0.0
 40
0.0
 40
0.0
 40
0.500000000000001
 40
0.500000000000001
 40
0.7500000000000004
 40
0.7500000000000004
 40
0.8750000000000003
 40
0.8750000000000003
 40
1.0
 40
1.0
 40
1.0
 40
1.0
 10
84.08864170387874
 20
87.56205013685148
 30
0.0
 10
84.98078783443232
 20
87.56132791065083
 30
0.0
 10
85.87076427022592
 20
87.56591411710829
 30
0.0
 10
87.19735943730153
 20
87.59363912149982
 30
0.0
 10
87.63820636580024
 20
87.606245659124
 30
0.0
 10
88.29464660322267
 20
87.63726180713145
 30
0.0
 10
88.51266025981455
 20
87.64960497975822
 30
0.0
 10
88.94536911349734
 20
87.6826290349215
 30
0.0
 10
89.16064557866213
 20
87.70184620005995
 30
0.0
 10
89.37011661093253
 20
87.73567315438314
 30
0.0
  0
SPLINE
  5
B9
330
1F
100
AcDbEntity
  8
0
  6
Continuous
 62
     7
370
    15
100
AcDbSpline
210
0.0
220
0.0
230
1.0
 70
     8
 71
     3
 72
     8
 73
     4
 74
     0
 42
0.00000001
 43
0.00000001
 40
0.0000005163856712
 40
0.0000005163856712
 40
0.0000005163856712
 40
0.0000005163856712
 40
0.000026289209185
 40
0.000026289209185
 40
0.000026289209185
 40
0.000026289209185
 10
84.07859677346005
 20
87.57203400995935
 30
0.0
 10
84.08192451167153
 20
87.56869976308653
 30
0.0
 10
84.08527296465083
 20
87.5653718058075
 30
0.0
 10
84.08864170387871
 20
87.56205013685147
 30
0.0
  0
SPLINE
  5
BA
330
1F
100
AcDbEntity
  8
0
  6
Continuous
 62
     7
370
    15
100
AcDbSpline
210
0.0
220
0.0
230
1.0
 70
     8
 71
     3
 72
     8
 73
     4
 74
     0
 42
0.00000001
 43
0.00000001
 40
0.0000005099763573
 40
0.0000005099763573
 40
0.0000005099763573
 40
0.0000005099763573
 40
0.0000262827998699
 40
0.0000262827998699
 40
0.0000262827998699
 40
0.0000262827998699
 10
84.08864170387872
 20
129.3019256676416
 30
0.0
 10
84.08527296465098
 20
129.2986039986858
 30
0.0
 10
84.08192451167184
 20
129.2952760414069
 30
0.0
 10
84.07859677346052
 20
129.2919417945342
 30
0.0
  0
SPLINE
  5
BB
330
1F
100
AcDbEntity
  8
0
  6
Continuous
 62
     7
370
    15
100
AcDbSpline
210
0.0
220
0.0
230
1.0
 70
     8
 71
     3
 72
    10
 73
     6
 74
     0
 42
0.00000001
 43
0.00000001
 40
0.0
 40
0.0
 40
0.0
 40
0.0
 40
0.5
 40
0.5
 40
1.0
 40
1.0
 40
1.0
 40
1.0
 10
87.63864170387875
 20
129.2550752940743
 30
0.0
 10
87.05105615678815
 20
129.2761408143107
 30
0.0
 10
86.46030976332776
 20
129.2868993001829
 30
0.0
 10
85.27629059802891
 20
129.3002640807186
 30
0.0
 10
84.68287660982345
 20
129.3024067233832
 30
0.0
 10
84.08864170387874
 20
129.3019256676416
 30
0.0
  0
SPLINE
  5
BC
330
1F
100
AcDbEntity
  8
0
  6
Continuous
 62
     7
370
    15
100
AcDbSpline
210
0.0
220
0.0
230
1.0
 70
     8
 71
     3
 72
    18
 73
    14
 74
     0
 42
0.00000001
 43
0.00000001
 40
0.0
 40
0.0
 40
0.0
 40
0.0
 40
0.2500000000000009
 40
0.2500000000000009
 40
0.500000000000001
 40
0.500000000000001
 40
0.7500000000000011
 40
0.7500000000000011
 40
0.875000000000001
 40
0.875000000000001
 40
0.9375000000000006
 40
0.9375000000000006
 40
1.0
 40
1.0
 40
1.0
 40
1.0
 10
89.03864170387875
 20
130.2760955746095
 30
0.0
 10
89.03864170387877
 20
130.1928886657523
 30
0.0
 10
89.00279260394048
 20
130.1041520104388
 30
0.0
 10
88.87792086790655
 20
129.9220268198785
 30
0.0
 10
88.78752045025868
 20
129.8268967712519
 30
0.0
 10
88.56527779551651
 20
129.6377152621276
 30
0.0
 10
88.43551300907073
 20
129.5427700940329
 30
0.0
 10
88.19487555175922
 20
129.404491386453
 30
0.0
 10
88.10710825362177
 20
129.3587809531506
 30
0.0
 10
87.95258416641498
 20
129.3009576479291
 30
0.0
 10
87.89597328036022
 20
129.2832428838912
 30
0.0
 10
87.77192924945362
 20
129.2587035806583
 30
0.0
 10
87.70421457443534
 20
129.25272444212
 30
0.0
 10
87.63864170387873
 20
129.2550752940743
 30
0.0
  0
LINE
  5
BD
330
1F
100
AcDbEntity
  8
0
  6
Continuous
 62
     7
370
    15
100
AcDbLine
 10
89.0386408277
 20
130.2760955599
 30
0.0
 11
89.0386408277
 21
131.460033795
 31
0.0
  0
SPLINE
  5
BE
330
1F
100
AcDbEntity
  8
0
  6
Continuous
 62
     7
370
    15
100
AcDbSpline
210
0.0
220
0.0
230
1.0
 70
     8
 71
     3
 72
    24
 73
    20
 74
     0
 42
0.00000001
 43
0.00000001
 40
0.0
 40
0.0
 40
0.0
 40
0.0
 40
0.0010489815523775
 40
0.0637843212772741
 40
0.1272220630088516
 40
0.1903789073370505
 40
0.2526748662763491
 40
0.3146354150030102
 40
0.3770891884518245
 40
0.4393540587943444
 40
0.5008133488401828
 40
0.5621845177353679
 40
0.6248438462901906
 40
0.6874304788646655
 40
0.7496743245911356
 40
0.811984857412469
 40
0.8750960476811308
 40
0.9384412548145236
 40
1.0
 40
1.0
 40
1.0
 40
1.0
 10
101.6075477086056
 20
84.77447970779998
 30
0.0
 10
101.6071010428549
 20
84.77442106283351
 30
0.0
 10
101.5799411069313
 20
84.77085509985281
 30
0.0
 10
101.6755710300631
 20
84.78371970932803
 30
0.0
 10
101.9091242060836
 20
84.81295419166808
 30
0.0
 10
102.304680158318
 20
84.8595734024095
 30
0.0
 10
102.8317201586881
 20
84.90975420183466
 30
0.0
 10
103.4752506005243
 20
84.95413287527771
 30
0.0
 10
104.213924434794
 20
84.98107607178851
 30
0.0
 10
105.0114391049129
 20
84.98454782009064
 30
0.0
 10
105.8380181546775
 20
84.95692237379723
 30
0.0
 10
106.6635409760961
 20
84.89844123081858
 30
0.0
 10
107.4556674470118
 20
84.81299816741999
 30
0.0
 10
108.1882398258491
 20
84.71126299892748
 30
0.0
 10
108.8238800076699
 20
84.60341934787955
 30
0.0
 10
109.3457909382161
 20
84.50178795260473
 30
0.0
 10
109.727419775855
 20
84.41930598831222
 30
0.0
 10
109.9782344517884
 20
84.36315388080531
 30
0.0
 10
110.0073557674957
 20
84.35630502989244
 30
0.0
 10
110.0217081688393
 20
84.35292958291633
 30
0.0
  0
SPLINE
  5
BF
330
1F
100
AcDbEntity
  8
0
  6
Continuous
 62
     7
370
    15
100
AcDbSpline
210
0.0
220
0.0
230
1.0
 70
     8
 71
     3
 72
    24
 73
    20
 74
     0
 42
0.00000001
 43
0.00000001
 40
0.0
 40
0.0
 40
0.0
 40
0.0
 40
0.061438429114026
 40
0.1250736777967296
 40
0.1884253375120635
 40
0.2508623992448768
 40
0.3129665476325514
 40
0.3753451442328022
 40
0.4377328732174486
 40
0.499092717251918
 40
0.560580729454827
 40
0.622946985474185
 40
0.6854686070210457
 40
0.7475477863222202
 40
0.8098225081553685
 40
0.873068419947611
 40
0.936404185690527
 40
0.9991757203144552
 40
1.0
 40
1.0
 40
1.0
 40
1.0
 10
110.0216536864687
 20
132.5110164192544
 30
0.0
 10
110.0070528780165
 20
132.5076482613814
 30
0.0
 10
109.9773291881655
 20
132.500791512297
 30
0.0
 10
109.7245911881796
 20
132.4444536924009
 30
0.0
 10
109.3415958891584
 20
132.3615958795157
 30
0.0
 10
108.8192399322755
 20
132.2596891312946
 30
0.0
 10
108.1844555875738
 20
132.1518505614056
 30
0.0
 10
107.4542318509597
 20
132.0503843081766
 30
0.0
 10
106.6637637560486
 20
131.9653222296094
 30
0.0
 10
105.8392800285908
 20
131.9071208726528
 30
0.0
 10
105.0122436481108
 20
131.8795364249682
 30
0.0
 10
104.2139191891203
 20
131.8830303535024
 30
0.0
 10
103.4740954381207
 20
131.909984012176
 30
0.0
 10
102.8298405666611
 20
131.9543395127895
 30
0.0
 10
102.3024337095635
 20
132.0045446965122
 30
0.0
 10
101.9077684692505
 20
132.0511521565574
 30
0.0
 10
101.6752397836623
 20
132.0803553333958
 30
0.0
 10
101.579860554996
 20
132.093113472113
 30
0.0
 10
101.6067934993228
 20
132.0895736421942
 30
0.0
 10
101.6071425832857
 20
132.0895277616607
 30
0.0
  0
SPLINE
  5
C0
330
1F
100
AcDbEntity
  8
0
  6
Continuous
 62
     7
370
    15
100
AcDbSpline
210
0.0
220
0.0
230
1.0
 70
     8
 71
     3
 72
     9
 73
     5
 74
     0
 42
0.00000001
 43
0.00000001
 40
0.0
 40
0.0
 40
0.0
 40
0.0
 40
0.7009339503679092
 40
0.9999999999999999
 40
0.9999999999999999
 40
0.9999999999999999
 40
0.9999999999999999
 10
82.95942527130732
 20
88.73070820244415
 30
0.0
 10
82.96856594225716
 20
88.71287891868324
 30
0.0
 10
82.98160664451596
 20
88.68744245102245
 30
0.0
 10
82.99677010778426
 20
88.741321810496
 30
0.0
 10
83.00130498484263
 20
88.75743529769046
 30
0.0
  0
LINE
  5
C1
330
1F
100
AcDbEntity
  8
0
  6
Continuous
 62
     7
370
    15
100
AcDbLine
 10
82.9386418767
 20
88.7413103786
 30
0.0
 11
82.9386418767
 21
128.1226654259
 31
0.0
  0
SPLINE
  5
C2
330
1F
100
AcDbEntity
  8
0
  6
Continuous
 62
     7
370
    15
100
AcDbSpline
210
0.0
220
0.0
230
1.0
 70
     8
 71
     3
 72
    10
 73
     6
 74
     0
 42
0.00000001
 43
0.00000001
 40
0.0
 40
0.0
 40
0.0
 40
0.0
 40
0.5
 40
0.5
 40
1.0
 40
1.0
 40
1.0
 40
1.0
 10
83.00130507860214
 20
128.1065404470273
 30
0.0
 10
82.99240078949339
 20
128.1522819662405
 30
0.0
 10
82.9758854093004
 20
128.1694728057095
 30
0.0
 10
82.94877746323878
 20
128.1691495287737
 30
0.0
 10
82.93864170387874
 20
128.1512719864773
 30
0.0
 10
82.93864170387874
 20
128.1226656487247
 30
0.0
  0
SPLINE
  5
C3
330
1F
100
AcDbEntity
  8
0
  6
Continuous
 62
     7
370
    15
100
AcDbSpline
210
0.0
220
0.0
230
1.0
 70
     8
 71
     3
 72
    26
 73
    22
 74
     0
 42
0.00000001
 43
0.00000001
 40
0.0
 40
0.0
 40
0.0
 40
0.0
 40
0.2500000000000165
 40
0.2500000000000165
 40
0.3750000000000256
 40
0.3750000000000256
 40
0.4375000000000291
 40
0.4375000000000291
 40
0.4687500000000291
 40
0.4687500000000291
 40
0.5000000000000292
 40
0.5000000000000292
 40
0.5312500000000293
 40
0.5312500000000293
 40
0.5625000000000293
 40
0.5625000000000293
 40
0.625000000000026
 40
0.625000000000026
 40
0.7500000000000173
 40
0.7500000000000173
 40
1.0
 40
1.0
 40
1.0
 40
1.0
 10
83.76279534998325
 20
128.8221072358444
 30
0.0
 10
83.72419482711479
 20
128.7043325394889
 30
0.0
 10
83.67789782456052
 20
128.579942853327
 30
0.0
 10
83.5839584761266
 20
128.3747235209735
 30
0.0
 10
83.54864700921313
 20
128.3031506545271
 30
0.0
 10
83.48246703346746
 20
128.1871974219266
 30
0.0
 10
83.45792866679925
 20
128.1466128871164
 30
0.0
 10
83.41455592124544
 20
128.0824712052446
 30
0.0
 10
83.39904751982024
 20
128.0606047799596
 30
0.0
 10
83.3640048752332
 20
128.0150105116164
 30
0.0
 10
83.34445458451344
 20
127.991340220649
 30
0.0
 10
83.30252730414284
 20
127.9467236613091
 30
0.0
 10
83.2798751939112
 20
127.9258436487911
 30
0.0
 10
83.23890147982458
 20
127.8949702350403
 30
0.0
 10
83.22130217992915
 20
127.8851313652079
 30
0.0
 10
83.176675194073
 20
127.8661417495117
 30
0.0
 10
83.15611597141967
 20
127.8658174248583
 30
0.0
 10
83.104990531923
 20
127.8750408657345
 30
0.0
 10
83.08407911893445
 20
127.8962877619515
 30
0.0
 10
83.03262921137353
 20
127.9702566407822
 30
0.0
 10
83.01496391206898
 20
128.036374734097
 30
0.0
 10
83.00130507860214
 20
128.1065404470273
 30
0.0
  0
SPLINE
  5
C4
330
1F
100
AcDbEntity
  8
0
  6
Continuous
 62
     7
370
    15
100
AcDbSpline
210
0.0
220
0.0
230
1.0
 70
     8
 71
     3
 72
    10
 73
     6
 74
     0
 42
0.00000001
 43
0.00000001
 40
0.0
 40
0.0
 40
0.0
 40
0.0
 40
0.5
 40
0.5
 40
1.0
 40
1.0
 40
1.0
 40
1.0
 10
84.07859677346055
 20
129.2919417945342
 30
0.0
 10
84.01103751854231
 20
129.2242504017244
 30
0.0
 10
83.9474008632058
 20
129.1495432369708
 30
0.0
 10
83.83718010863393
 20
128.9905771045442
 30
0.0
 10
83.79036381541131
 20
128.9062218385362
 30
0.0
 10
83.76279534998324
 20
128.8221072358444
 30
0.0
  0
SPLINE
  5
C5
330
1F
100
AcDbEntity
  8
0
  6
Continuous
 62
     7
370
    15
100
AcDbSpline
210
0.0
220
0.0
230
1.0
 70
     8
 71
     3
 72
    10
 73
     6
 74
     0
 42
0.00000001
 43
0.00000001
 40
0.0
 40
0.0
 40
0.0
 40
0.0
 40
0.5
 40
0.5
 40
1.0
 40
1.0
 40
1.0
 40
1.0
 10
83.76279534998329
 20
88.04186856864858
 30
0.0
 10
83.7902727647365
 20
87.95803177218299
 30
0.0
 10
83.83698139502415
 20
87.87372128459616
 30
0.0
 10
83.9472598577661
 20
87.7146000541133
 30
0.0
 10
84.01114739637775
 20
87.63961531002522
 30
0.0
 10
84.07859677346008
 20
87.57203400995935
 30
0.0
  0
SPLINE
  5
C6
330
1F
100
AcDbEntity
  8
0
  6
Continuous
 62
     7
370
    15
100
AcDbSpline
210
0.0
220
0.0
230
1.0
 70
     8
 71
     3
 72
    24
 73
    20
 74
     0
 42
0.00000001
 43
0.00000001
 40
0.0
 40
0.0
 40
0.0
 40
0.0
 40
0.25
 40
0.25
 40
0.374999999999999
 40
0.374999999999999
 40
0.4374999999999993
 40
0.4374999999999993
 40
0.4687499999999994
 40
0.4687499999999994
 40
0.4999999999999995
 40
0.4999999999999995
 40
0.5624999999999971
 40
0.5624999999999971
 40
0.6249999999999947
 40
0.6249999999999947
 40
0.7499999999999947
 40
0.7499999999999947
 40
1.0
 40
1.0
 40
1.0
 40
1.0
 10
83.00130507860214
 20
88.75743535746581
 30
0.0
 10
83.01505819727237
 20
88.82808541545609
 30
0.0
 10
83.03283076467824
 20
88.89468352822102
 30
0.0
 10
83.08508185623359
 20
88.96878154845422
 30
0.0
 10
83.10611693181517
 20
88.99003935561578
 30
0.0
 10
83.15901733944358
 20
88.99818528176202
 30
0.0
 10
83.1801230123215
 20
88.99724547836625
 30
0.0
 10
83.22617518099948
 20
88.97622948678891
 30
0.0
 10
83.24454565298286
 20
88.96532068068129
 30
0.0
 10
83.28609728804857
 20
88.93268576973392
 30
0.0
 10
83.30866396080548
 20
88.91119378936254
 30
0.0
 10
83.3714449772655
 20
88.84272784577624
 30
0.0
 10
83.4045747382334
 20
88.79665338757114
 30
0.0
 10
83.4614924247184
 20
88.71164549923648
 30
0.0
 10
83.48567845022217
 20
88.6713651980551
 30
0.0
 10
83.55088640060193
 20
88.55642897158914
 30
0.0
 10
83.58560246079318
 20
88.48584598644214
 30
0.0
 10
83.67881773112407
 20
88.28164022736354
 30
0.0
 10
83.72449026648474
 20
88.15874184503618
 30
0.0
 10
83.76279534998328
 20
88.0418685686486
 30
0.0
  0
LINE
  5
C7
330
1F
100
AcDbEntity
  8
0
  6
Continuous
 62
     7
370
    15
100
AcDbLine
 10
140.1886424132
 20
138.8991833386
 30
0.0
 11
136.2305736251
 21
138.8991833386
 31
0.0
  0
LINE
  5
C8
330
1F
100
AcDbEntity
  8
0
  6
Continuous
 62
     7
370
    15
100
AcDbLine
 10
136.2305736251
 20
132.8906775174
 30
0.0
 11
140.1886424132
 21
132.8906775174
 31
0.0
  0
LINE
  5
C9
330
1F
100
AcDbEntity
  8
0
  6
Continuous
 62
     7
370
    15
100
AcDbLine
 10
136.2305736251
 20
132.8906775174
 30
0.0
 11
136.2305736251
 21
138.8991833386
 31
0.0
  0
SPLINE
  5
CA
330
1F
100
AcDbEntity
  8
0
  6
Continuous
 62
     7
370
    15
100
AcDbSpline
210
0.0
220
0.0
230
1.0
 70
     8
 71
     3
 72
    10
 73
     6
 74
     0
 42
0.00000001
 43
0.00000001
 40
0.0
 40
0.0
 40
0.0
 40
0.0
 40
0.5
 40
0.5
 40
1.0
 40
1.0
 40
1.0
 40
1.0
 10
140.7886417038787
 20
138.2784282260104
 30
0.0
 10
140.7886417038787
 20
138.4388334923613
 30
0.0
 10
140.7264038727719
 20
138.5978953053499
 30
0.0
 10
140.5072689490293
 20
138.8288077709802
 30
0.0
 10
140.3496802540375
 20
138.8991833754108
 30
0.0
 10
140.1886417038787
 20
138.8991833754108
 30
0.0
  0
SPLINE
  5
CB
330
1F
100
AcDbEntity
  8
0
  6
Continuous
 62
     7
370
    15
100
AcDbSpline
210
0.0
220
0.0
230
1.0
 70
     8
 71
     3
 72
    12
 73
     8
 74
     0
 42
0.00000001
 43
0.00000001
 40
0.0
 40
0.0
 40
0.0
 40
0.0
 40
0.25
 40
0.25
 40
0.5
 40
0.5
 40
1.0
 40
1.0
 40
1.0
 40
1.0
 10
140.1886417038787
 20
132.890677564614
 30
0.0
 10
140.2798414257044
 20
132.890677564614
 30
0.0
 10
140.3704364348404
 20
132.8624578660261
 30
0.0
 10
140.5238491612871
 20
132.768014858778
 30
0.0
 10
140.5890580286107
 20
132.7017278820727
 30
0.0
 10
140.7418425579507
 20
132.4761030587844
 30
0.0
 10
140.7886417038787
 20
132.2936767957518
 30
0.0
 10
140.7886417038787
 20
132.1129401635049
 30
0.0
  0
LINE
  5
CC
330
1F
100
AcDbEntity
  8
0
  6
Continuous
 62
     7
370
    15
100
AcDbLine
 10
140.7886413939
 20
132.1129393485
 30
0.0
 11
140.7886413939
 21
138.2784289029
 31
0.0
  0
SPLINE
  5
CD
330
1F
100
AcDbEntity
  8
0
  6
Continuous
 62
     7
370
    15
100
AcDbSpline
210
0.0
220
0.0
230
1.0
 70
     8
 71
     3
 72
     8
 73
     4
 74
     0
 42
0.00000001
 43
0.00000001
 40
0.0
 40
0.0
 40
0.0
 40
0.0
 40
1.0
 40
1.0
 40
1.0
 40
1.0
 10
129.4467088723897
 20
132.890677564614
 30
0.0
 10
129.953795714149
 20
131.7595272104503
 30
0.0
 10
130.4493635532889
 20
130.6231427996825
 30
0.0
 10
130.9286417038788
 20
129.4821315698299
 30
0.0
  0
LINE
  5
CE
330
1F
100
AcDbEntity
  8
0
  6
Continuous
 62
     7
370
    15
100
AcDbLine
 10
130.9286417522
 20
129.4821318892
 30
0.0
 11
130.9286417522
 21
128.5678543803
 31
0.0
  0
SPLINE
  5
CF
330
1F
100
AcDbEntity
  8
0
  6
Continuous
 62
     7
370
    15
100
AcDbSpline
210
0.0
220
0.0
230
1.0
 70
     8
 71
     3
 72
     8
 73
     4
 74
     0
 42
0.00000001
 43
0.00000001
 40
0.0
 40
0.0
 40
0.0
 40
0.0
 40
1.0
 40
1.0
 40
1.0
 40
1.0
 10
136.2305745353678
 20
138.8991833754108
 30
0.0
 10
135.7354345060035
 20
138.0125037272305
 30
0.0
 10
135.2413518007245
 20
137.1252410915445
 30
0.0
 10
134.7486417038787
 20
136.2372220934182
 30
0.0
  0
SPLINE
  5
D0
330
1F
100
AcDbEntity
  8
0
  6
Continuous
 62
     7
370
    15
100
AcDbSpline
210
0.0
220
0.0
230
1.0
 70
     8
 71
     3
 72
     8
 73
     4
 74
     0
 42
0.00000001
 43
0.00000001
 40
0.0
 40
0.0
 40
0.0
 40
0.0
 40
1.0
 40
1.0
 40
1.0
 40
1.0
 10
134.7486417038787
 20
129.4821315698299
 30
0.0
 10
135.2279198544686
 20
130.6231427996825
 30
0.0
 10
135.7234876936085
 20
131.7595272104503
 30
0.0
 10
136.2305745353678
 20
132.890677564614
 30
0.0
  0
LINE
  5
D1
330
1F
100
AcDbEntity
  8
0
  6
Continuous
 62
     7
370
    15
100
AcDbLine
 10
134.7486419685
 20
129.4821318892
 30
0.0
 11
134.7486419685
 21
136.2372212765
 31
0.0
  0
LINE
  5
D2
330
1F
100
AcDbEntity
  8
0
  6
Continuous
 62
     7
370
    15
100
AcDbLine
 10
134.7486419685
 20
128.5678543803
 30
0.0
 11
134.7486419685
 21
129.4821318892
 31
0.0
  0
LINE
  5
D3
330
1F
100
AcDbEntity
  8
0
  6
Continuous
 62
     7
370
    15
100
AcDbLine
 10
140.7886413939
 20
132.1129393485
 30
0.0
 11
140.7886413939
 21
128.2819886413
 31
0.0
  0
SPLINE
  5
D4
330
1F
100
AcDbEntity
  8
0
  6
Continuous
 62
     7
370
    15
100
AcDbSpline
210
0.0
220
0.0
230
1.0
 70
     8
 71
     3
 72
     8
 73
     4
 74
     0
 42
0.00000001
 43
0.00000001
 40
0.0
 40
0.0
 40
0.0
 40
0.0
 40
1.0
 40
1.0
 40
1.0
 40
1.0
 10
130.9286417038788
 20
136.2372220934182
 30
0.0
 10
130.435931607033
 20
137.1252410915446
 30
0.0
 10
129.941848901754
 20
138.0125037272305
 30
0.0
 10
129.4467088723897
 20
138.8991833754108
 30
0.0
  0
LINE
  5
D5
330
1F
100
AcDbEntity
  8
0
  6
Continuous
 62
     7
370
    15
100
AcDbLine
 10
130.9286417522
 20
129.4821318892
 30
0.0
 11
130.9286417522
 21
136.2372212765
 31
0.0
  0
ARC
  5
D6
330
1F
100
AcDbEntity
  8
0
  6
Continuous
 62
     7
370
    15
100
AcDbCircle
 10
122.8384847497
 20
127.1373344314
 30
0.0
 40
7.24972564017692
100
AcDbArc
 50
70.8960302631
 51
109.0596161117
  0
SPLINE
  5
D7
330
1F
100
AcDbEntity
  8
0
  6
Continuous
 62
     7
370
    15
100
AcDbSpline
210
0.0
220
0.0
230
1.0
 70
     8
 71
     3
 72
    39
 73
    35
 74
     0
 42
0.00000001
 43
0.00000001
 40
-0.0947743877391588
 40
-0.0628077872729944
 40
-0.0312383264105915
 40
0.0
 40
0.0311074797662741
 40
0.0620373128257721
 40
0.0932007168949909
 40
0.1235226199460148
 40
0.1541074119974122
 40
0.1850639852156244
 40
0.2162565873456871
 40
0.2472861677294218
 40
0.2785556085457069
 40
0.3103753278988872
 40
0.342282922860829
 40
0.3739330686587875
 40
0.4055380877367175
 40
0.437329781396116
 40
0.4689689660466242
 40
0.500115117861724
 40
0.5309246296586031
 40
0.5620703576582988
 40
0.5928687058239003
 40
0.623577097825517
 40
0.654029767465444
 40
0.6853709540543734
 40
0.7164968152650975
 40
0.74769487872817
 40
0.7790006633384425
 40
0.8105935922809131
 40
0.8425069020297703
 40
0.8738783867147253
 40
0.9052256122608412
 40
0.9371922127270056
 40
0.9687616735894085
 40
1.0
 40
1.031107479766274
 40
1.062037312825772
 40
1.093200716894991
 10
149.4920319837435
 20
110.3684243462194
 30
0.0
 10
149.8953874875432
 20
110.7980422619444
 30
0.0
 10
150.3686860024517
 20
111.1385781100737
 30
0.0
 10
150.900845444208
 20
111.3789024608907
 30
0.0
 10
151.468023031177
 20
111.5151984540645
 30
0.0
 10
152.0548505836082
 20
111.5343610349031
 30
0.0
 10
152.6375709279022
 20
111.4339228348788
 30
0.0
 10
153.19367449273
 20
111.2102508478678
 30
0.0
 10
153.700639943141
 20
110.8840603793415
 30
0.0
 10
154.1306319375869
 20
110.4588983391765
 30
0.0
 10
154.470772431626
 20
109.9548982253308
 30
0.0
 10
154.7066259425838
 20
109.3885737761373
 30
0.0
 10
154.8365462331705
 20
108.7860232076377
 30
0.0
 10
154.8454400744505
 20
108.1706254405838
 30
0.0
 10
154.7376252928968
 20
107.5656225106427
 30
0.0
 10
154.5125913113439
 20
106.9944537483463
 30
0.0
 10
154.1881287018373
 20
106.4770530511326
 30
0.0
 10
153.7707251850353
 20
106.0389759811921
 30
0.0
 10
153.276766742923
 20
105.6936707598769
 30
0.0
 10
152.7243350631339
 20
105.4603152419803
 30
0.0
 10
152.1407704778816
 20
105.3363479900277
 30
0.0
 10
151.5530815374785
 20
105.3375794811251
 30
0.0
 10
150.9803774126242
 20
105.4560757133245
 30
0.0
 10
150.4450547911001
 20
105.6858234445898
 30
0.0
 10
149.9594520929739
 20
106.0125279331995
 30
0.0
 10
149.5455968263737
 20
106.4286172126945
 30
0.0
 10
149.2141744597027
 20
106.9225064043126
 30
0.0
 10
148.9828392291474
 20
107.4820952864365
 30
0.0
 10
148.8542996847244
 20
108.0799236450278
 30
0.0
 10
148.8454114975877
 20
108.6925687448564
 30
0.0
 10
148.9539728849526
 20
109.2939983360089
 30
0.0
 10
149.1758448357312
 20
109.8588362651857
 30
0.0
 10
149.4920319837435
 20
110.3684243462194
 30
0.0
 10
149.8953874875432
 20
110.7980422619444
 30
0.0
 10
150.3686860024517
 20
111.1385781100737
 30
0.0
  0
SPLINE
  5
D8
330
1F
100
AcDbEntity
  8
0
  6
Continuous
 62
     7
370
    15
100
AcDbSpline
210
0.0
220
0.0
230
1.0
 70
     8
 71
     3
 72
    19
 73
    15
 74
     0
 42
0.00000001
 43
0.00000001
 40
0.0
 40
0.0
 40
0.0
 40
0.0
 40
0.0381619458484861
 40
0.1646519202603021
 40
0.2898387143946386
 40
0.351549858888729
 40
0.4140154468133237
 40
0.475754311832585
 40
0.5374017401024999
 40
0.6608612815855724
 40
0.7854456234105978
 40
0.9110924436033433
 40
0.97513036248217
 40
1.0
 40
1.0
 40
1.0
 40
1.0
 10
154.786404789244
 20
119.9172264617906
 30
0.0
 10
154.8009561348132
 20
119.9190355967014
 30
0.0
 10
154.86373875601
 20
119.9268412138007
 30
0.0
 10
154.4947144903541
 20
119.877907909048
 30
0.0
 10
153.8616623865623
 20
119.8291684747937
 30
0.0
 10
153.183024395544
 20
119.8303091879639
 30
0.0
 10
152.6240102251638
 20
119.8633885032818
 30
0.0
 10
152.0369328185415
 20
119.9299673278345
 30
0.0
 10
151.2528179738645
 20
120.0662872784906
 30
0.0
 10
150.3233042289332
 20
120.3103637759694
 30
0.0
 10
149.4310811685218
 20
120.6250303806514
 30
0.0
 10
148.9964809483839
 20
120.8070941322754
 30
0.0
 10
148.8530668210469
 20
120.8675143059024
 30
0.0
 10
148.8651163121843
 20
120.8623132035513
 30
0.0
 10
148.8684868522037
 20
120.8608583268748
 30
0.0
  0
SPLINE
  5
D9
330
1F
100
AcDbEntity
  8
0
  6
Continuous
 62
     7
370
    15
100
AcDbSpline
210
0.0
220
0.0
230
1.0
 70
     8
 71
     3
 72
    20
 73
    16
 74
     0
 42
0.00000001
 43
0.00000001
 40
0.0
 40
0.0
 40
0.0
 40
0.0
 40
0.0340409354739512
 40
0.0971677967035425
 40
0.1603647561704734
 40
0.2855815500389158
 40
0.4093517024565919
 40
0.4710856320526521
 40
0.5325480838468079
 40
0.5948715766321966
 40
0.6561338095894013
 40
0.7181070032336694
 40
0.7811979495322466
 40
0.9070909444362614
 40
1.0
 40
1.0
 40
1.0
 40
1.0
 10
148.8710684783806
 20
96.0038876813875
 30
0.0
 10
148.8687775120519
 20
96.0028339370652
 30
0.0
 10
148.8622380868753
 20
95.99982608746703
 30
0.0
 10
148.9743734133667
 20
96.04896818046662
 30
0.0
 10
149.275719918909
 20
96.17295570871914
 30
0.0
 10
149.9056023909597
 20
96.41433365098403
 30
0.0
 10
150.7643774899653
 20
96.67728151697125
 30
0.0
 10
151.5257656518893
 20
96.84697310030266
 30
0.0
 10
152.1166050659546
 20
96.94424870472024
 30
0.0
 10
152.7004760647537
 20
97.00799670724211
 30
0.0
 10
153.252139637106
 20
97.03524867241313
 30
0.0
 10
153.7495273939807
 20
97.03279947171798
 30
0.0
 10
154.3049664405066
 20
97.00376590402324
 30
0.0
 10
154.7722360880258
 20
96.9501194337519
 30
0.0
 10
154.7838473532175
 20
96.94746881001124
 30
0.0
 10
154.7887777991642
 20
96.94634328605993
 30
0.0
  0
SPLINE
  5
DA
330
1F
100
AcDbEntity
  8
0
  6
Continuous
 62
     7
370
    15
100
AcDbSpline
210
0.0
220
0.0
230
1.0
 70
     8
 71
     3
 72
    38
 73
    34
 74
     0
 42
0.00000001
 43
0.00000001
 40
-0.0806793197034598
 40
-0.0577107106206415
 40
-0.0308179347455384
 40
0.0
 40
0.0295993018752628
 40
0.0569103278154869
 40
0.081979776989926
 40
0.1048683961897322
 40
0.125656388804299
 40
0.1836608649073721
 40
0.2498807210686229
 40
0.268997321941582
 40
0.3129881555116791
 40
0.3479814575629807
 40
0.376061121079323
 40
0.4366930954048333
 40
0.500281300924319
 40
0.5252014194482716
 40
0.5626376568746935
 40
0.5982184134202936
 40
0.6249388578692993
 40
0.6526302915081059
 40
0.6941303242487008
 40
0.7493693569463541
 40
0.774702354803066
 40
0.7989094913089001
 40
0.8220199317035174
 40
0.8440672540800942
 40
0.8650901913456716
 40
0.8851334760102929
 40
0.9002720968594164
 40
0.9193206802965402
 40
0.9422892893793585
 40
0.9691820652544616
 40
1.0
 40
1.029599301875263
 40
1.056910327815487
 40
1.081979776989926
 10
150.5294514195855
 20
110.6066921347156
 30
0.0
 10
150.1652133456047
 20
110.3516926021891
 30
0.0
 10
149.8511038784754
 20
110.0319683439668
 30
0.0
 10
149.6112599130799
 20
109.6827557123582
 30
0.0
 10
149.4443625880382
 20
109.3274042941345
 30
0.0
 10
149.3414087849256
 20
108.9804108350342
 30
0.0
 10
149.2604262731331
 20
108.4477417147341
 30
0.0
 10
149.3401662482699
 20
107.660789648441
 30
0.0
 10
149.7099551099451
 20
106.9879293965356
 30
0.0
 10
150.1618071111285
 20
106.5126381106355
 30
0.0
 10
150.5719634415573
 20
106.219989965098
 30
0.0
 10
151.081281461703
 20
106.0179188367009
 30
0.0
 10
151.7075552405894
 20
105.9001817553399
 30
0.0
 10
152.5250505755973
 20
105.9724947089909
 30
0.0
 10
153.2456429833003
 20
106.3570942414363
 30
0.0
 10
153.7245893250551
 20
106.8241433932301
 30
0.0
 10
154.0207030649929
 20
107.2564036466997
 30
0.0
 10
154.2120097579537
 20
107.7535889431532
 30
0.0
 10
154.2927143174199
 20
108.2258944434517
 30
0.0
 10
154.2906585194898
 20
108.7369791630929
 30
0.0
 10
154.1427194162085
 20
109.3870602903075
 30
0.0
 10
153.8060948661113
 20
109.956723269726
 30
0.0
 10
153.4100906063959
 20
110.3484211360725
 30
0.0
 10
153.0958720440904
 20
110.5741157583959
 30
0.0
 10
152.7673118271305
 20
110.7418137928789
 30
0.0
 10
152.4349694412229
 20
110.8550429870459
 30
0.0
 10
152.1078505898668
 20
110.9185813449575
 30
0.0
 10
151.8136226979312
 20
110.9369195369415
 30
0.0
 10
151.5330288973124
 20
110.9235919173899
 30
0.0
 10
151.24238548583
 20
110.878730210561
 30
0.0
 10
150.9033267062443
 20
110.7804029296322
 30
0.0
 10
150.5294514195855
 20
110.6066921347156
 30
0.0
 10
150.1652133456047
 20
110.3516926021891
 30
0.0
 10
149.8511038784754
 20
110.0319683439668
 30
0.0
  0
LINE
  5
DB
330
1F
100
AcDbEntity
  8
0
  6
HIDDEN
 62
     7
370
     0
100
AcDbLine
 10
180.0562931307
 20
106.0737005622
 30
0.0
 11
180.0562931307
 21
110.9319878464
 31
0.0
  0
LINE
  5
DC
330
1F
100
AcDbEntity
  8
0
  6
HIDDEN
 62
     7
370
     0
100
AcDbLine
 10
180.0562931307
 20
105.9319879581
 30
0.0
 11
180.0562931307
 21
106.0737005622
 31
0.0
  0
LINE
  5
DD
330
1F
100
AcDbEntity
  8
0
  6
HIDDEN
 62
     7
370
     0
100
AcDbLine
 10
179.5562921174
 20
105.6020429545
 30
0.0
 11
179.5562921174
 21
111.4319879283
 31
0.0
  0
LINE
  5
DE
330
1F
100
AcDbEntity
  8
0
  6
HIDDEN
 62
     7
370
     0
100
AcDbLine
 10
179.5562921174
 20
105.4319878762
 30
0.0
 11
179.5562921174
 21
105.6020429545
 31
0.0
  0
LINE
  5
DF
330
1F
100
AcDbEntity
  8
0
  6
HIDDEN
 62
     7
370
     0
100
AcDbLine
 10
167.0562965877
 20
105.6020429545
 30
0.0
 11
167.0562965877
 21
111.4319879283
 31
0.0
  0
LINE
  5
E0
330
1F
100
AcDbEntity
  8
0
  6
HIDDEN
 62
     7
370
     0
100
AcDbLine
 10
167.0562965877
 20
105.4319878762
 30
0.0
 11
167.0562965877
 21
105.6020429545
 31
0.0
  0
LINE
  5
E1
330
1F
100
AcDbEntity
  8
0
  6
HIDDEN
 62
     7
370
     0
100
AcDbLine
 10
166.5562955745
 20
106.0737005622
 30
0.0
 11
166.5562955745
 21
110.9319878464
 31
0.0
  0
LINE
  5
E2
330
1F
100
AcDbEntity
  8
0
  6
HIDDEN
 62
     7
370
     0
100
AcDbLine
 10
166.5562955745
 20
105.9319879581
 30
0.0
 11
166.5562955745
 21
106.0737005622
 31
0.0
  0
LINE
  5
E3
330
1F
100
AcDbEntity
  8
0
  6
HIDDEN
 62
     7
370
     0
100
AcDbLine
 10
182.5562981971
 20
108.2491488791
 30
0.0
 11
180.5562941439
 21
108.2491488791
 31
0.0
  0
LINE
  5
E4
330
1F
100
AcDbEntity
  8
0
  6
HIDDEN
 62
     7
370
     0
100
AcDbLine
 10
182.5562981971
 20
105.9319879581
 30
0.0
 11
182.5562981971
 21
108.2491488791
 31
0.0
  0
LINE
  5
E5
330
1F
100
AcDbEntity
  8
0
  6
HIDDEN
 62
     7
370
     0
100
AcDbLine
 10
180.5562941439
 20
106.7281970476
 30
0.0
 11
182.5562981971
 21
106.7281970476
 31
0.0
  0
LINE
  5
E6
330
1F
100
AcDbEntity
  8
0
  6
HIDDEN
 62
     7
370
     0
100
AcDbLine
 10
182.5562981971
 20
108.6148269254
 30
0.0
 11
180.5562941439
 21
108.6148269254
 31
0.0
  0
LINE
  5
E7
330
1F
100
AcDbEntity
  8
0
  6
HIDDEN
 62
     7
370
     0
100
AcDbLine
 10
182.5562981971
 20
110.1357787569
 30
0.0
 11
182.5562981971
 21
110.9319878464
 31
0.0
  0
LINE
  5
E8
330
1F
100
AcDbEntity
  8
0
  6
HIDDEN
 62
     7
370
     0
100
AcDbLine
 10
180.5562941439
 20
110.1357787569
 30
0.0
 11
182.5562981971
 21
110.1357787569
 31
0.0
  0
LINE
  5
E9
330
1F
100
AcDbEntity
  8
0
  6
HIDDEN
 62
     7
370
     0
100
AcDbLine
 10
180.5562941439
 20
108.2491488791
 30
0.0
 11
180.5562941439
 21
110.1357787569
 31
0.0
  0
LINE
  5
EA
330
1F
100
AcDbEntity
  8
0
  6
HIDDEN
 62
     7
370
     0
100
AcDbLine
 10
180.5562941439
 20
107.8719168157
 30
0.0
 11
180.5562941439
 21
108.2491488791
 31
0.0
  0
LINE
  5
EB
330
1F
100
AcDbEntity
  8
0
  6
HIDDEN
 62
     7
370
     0
100
AcDbLine
 10
180.5562941439
 20
107.8719168157
 30
0.0
 11
182.5562981971
 21
107.8719168157
 31
0.0
  0
LINE
  5
EC
330
1F
100
AcDbEntity
  8
0
  6
HIDDEN
 62
     7
370
     0
100
AcDbLine
 10
178.0562965281
 20
109.0068536881
 30
0.0
 11
178.0562965281
 21
108.1556510193
 31
0.0
  0
LINE
  5
ED
330
1F
100
AcDbEntity
  8
0
  6
HIDDEN
 62
     7
370
     0
100
AcDbLine
 10
171.0562972434
 20
108.1556510193
 30
0.0
 11
171.0562972434
 21
109.0068536881
 31
0.0
  0
LINE
  5
EE
330
1F
100
AcDbEntity
  8
0
  6
HIDDEN
 62
     7
370
     0
100
AcDbLine
 10
182.5562981971
 20
109.7585466645
 30
0.0
 11
182.5562981971
 21
110.1357787569
 31
0.0
  0
LINE
  5
EF
330
1F
100
AcDbEntity
  8
0
  6
HIDDEN
 62
     7
370
     0
100
AcDbLine
 10
182.5562981971
 20
109.7585466645
 30
0.0
 11
180.5562941439
 21
109.7585466645
 31
0.0
  0
LINE
  5
F0
330
1F
100
AcDbEntity
  8
0
  6
HIDDEN
 62
     7
370
     0
100
AcDbLine
 10
171.0562972434
 20
107.3044483504
 30
0.0
 11
171.0562972434
 21
108.1556510193
 31
0.0
  0
LINE
  5
F1
330
1F
100
AcDbEntity
  8
0
  6
HIDDEN
 62
     7
370
     0
100
AcDbLine
 10
178.0562965281
 20
108.1556510193
 30
0.0
 11
178.0562965281
 21
107.3044483504
 31
0.0
  0
LINE
  5
F2
330
1F
100
AcDbEntity
  8
0
  6
HIDDEN
 62
     7
370
     0
100
AcDbLine
 10
171.0562972434
 20
109.0068536881
 30
0.0
 11
171.0562972434
 21
109.570623464
 31
0.0
  0
LINE
  5
F3
330
1F
100
AcDbEntity
  8
0
  6
HIDDEN
 62
     7
370
     0
100
AcDbLine
 10
171.0562972434
 20
109.0068536881
 30
0.0
 11
166.5562955745
 21
109.0068536881
 31
0.0
  0
LINE
  5
F4
330
1F
100
AcDbEntity
  8
0
  6
HIDDEN
 62
     7
370
     0
100
AcDbLine
 10
178.0562965281
 20
109.570623464
 30
0.0
 11
178.0562965281
 21
109.0068536881
 31
0.0
  0
LINE
  5
F5
330
1F
100
AcDbEntity
  8
0
  6
HIDDEN
 62
     7
370
     0
100
AcDbLine
 10
178.0562965281
 20
109.0068536881
 30
0.0
 11
180.5562941439
 21
109.0068536881
 31
0.0
  0
LINE
  5
F6
330
1F
100
AcDbEntity
  8
0
  6
HIDDEN
 62
     7
370
     0
100
AcDbLine
 10
171.0562972434
 20
107.0170154284
 30
0.0
 11
171.0562972434
 21
107.3044483504
 31
0.0
  0
LINE
  5
F7
330
1F
100
AcDbEntity
  8
0
  6
HIDDEN
 62
     7
370
     0
100
AcDbLine
 10
171.0562972434
 20
107.3044483504
 30
0.0
 11
166.5562955745
 21
107.3044483504
 31
0.0
  0
LINE
  5
F8
330
1F
100
AcDbEntity
  8
0
  6
HIDDEN
 62
     7
370
     0
100
AcDbLine
 10
178.0562965281
 20
107.3044483504
 30
0.0
 11
178.0562965281
 21
107.0170154284
 31
0.0
  0
LINE
  5
F9
330
1F
100
AcDbEntity
  8
0
  6
HIDDEN
 62
     7
370
     0
100
AcDbLine
 10
178.0562965281
 20
107.3044483504
 30
0.0
 11
182.5562981971
 21
107.3044483504
 31
0.0
  0
LINE
  5
FA
330
1F
100
AcDbEntity
  8
0
  6
HIDDEN
 62
     7
370
     0
100
AcDbLine
 10
178.0562965281
 20
110.1343931817
 30
0.0
 11
178.0562965281
 21
109.570623464
 31
0.0
  0
LINE
  5
FB
330
1F
100
AcDbEntity
  8
0
  6
HIDDEN
 62
     7
370
     0
100
AcDbLine
 10
171.0562972434
 20
109.570623464
 30
0.0
 11
171.0562972434
 21
110.1343931817
 31
0.0
  0
LINE
  5
FC
330
1F
100
AcDbEntity
  8
0
  6
HIDDEN
 62
     7
370
     0
100
AcDbLine
 10
178.0562965281
 20
107.0170154284
 30
0.0
 11
178.0562965281
 21
106.7295826227
 31
0.0
  0
LINE
  5
FD
330
1F
100
AcDbEntity
  8
0
  6
HIDDEN
 62
     7
370
     0
100
AcDbLine
 10
171.0562972434
 20
106.7295826227
 30
0.0
 11
171.0562972434
 21
107.0170154284
 31
0.0
  0
LINE
  5
FE
330
1F
100
AcDbEntity
  8
0
  6
HIDDEN
 62
     7
370
     0
100
AcDbLine
 10
171.0562972434
 20
109.5595274541
 30
0.0
 11
166.5562955745
 21
109.5595274541
 31
0.0
  0
LINE
  5
FF
330
1F
100
AcDbEntity
  8
0
  6
HIDDEN
 62
     7
370
     0
100
AcDbLine
 10
171.0562972434
 20
110.1343931817
 30
0.0
 11
166.5562955745
 21
110.1343931817
 31
0.0
  0
LINE
  5
100
330
1F
100
AcDbEntity
  8
0
  6
HIDDEN
 62
     7
370
     0
100
AcDbLine
 10
178.0562965281
 20
109.5595274541
 30
0.0
 11
182.5562981971
 21
109.5595274541
 31
0.0
  0
LINE
  5
101
330
1F
100
AcDbEntity
  8
0
  6
HIDDEN
 62
     7
370
     0
100
AcDbLine
 10
178.0562965281
 20
110.1343931817
 30
0.0
 11
182.5562981971
 21
110.1343931817
 31
0.0
  0
LINE
  5
102
330
1F
100
AcDbEntity
  8
0
  6
HIDDEN
 62
     7
370
     0
100
AcDbLine
 10
182.5562981971
 20
109.7585466645
 30
0.0
 11
182.5562981971
 21
109.5595274541
 31
0.0
  0
LINE
  5
103
330
1F
100
AcDbEntity
  8
0
  6
HIDDEN
 62
     7
370
     0
100
AcDbLine
 10
171.0562972434
 20
107.8571221164
 30
0.0
 11
166.5562955745
 21
107.8571221164
 31
0.0
  0
LINE
  5
104
330
1F
100
AcDbEntity
  8
0
  6
HIDDEN
 62
     7
370
     0
100
AcDbLine
 10
171.0562972434
 20
106.7295826227
 30
0.0
 11
166.5562955745
 21
106.7295826227
 31
0.0
  0
LINE
  5
105
330
1F
100
AcDbEntity
  8
0
  6
HIDDEN
 62
     7
370
     0
100
AcDbLine
 10
178.0562965281
 20
107.8571221164
 30
0.0
 11
180.5562941439
 21
107.8571221164
 31
0.0
  0
LINE
  5
106
330
1F
100
AcDbEntity
  8
0
  6
HIDDEN
 62
     7
370
     0
100
AcDbLine
 10
180.5562941439
 20
107.10542914
 30
0.0
 11
180.5562941439
 21
107.8571221164
 31
0.0
  0
LINE
  5
107
330
1F
100
AcDbEntity
  8
0
  6
HIDDEN
 62
     7
370
     0
100
AcDbLine
 10
182.5562981971
 20
107.10542914
 30
0.0
 11
180.5562941439
 21
107.10542914
 31
0.0
  0
LINE
  5
108
330
1F
100
AcDbEntity
  8
0
  6
HIDDEN
 62
     7
370
     0
100
AcDbLine
 10
178.0562965281
 20
106.7295826227
 30
0.0
 11
182.5562981971
 21
106.7295826227
 31
0.0
  0
LINE
  5
109
330
1F
100
AcDbEntity
  8
0
  6
HIDDEN
 62
     7
370
     0
100
AcDbLine
 10
180.5562941439
 20
106.7281970476
 30
0.0
 11
180.5562941439
 21
107.10542914
 31
0.0
  0
LINE
  5
10A
330
1F
100
AcDbEntity
  8
0
  6
HIDDEN
 62
     7
370
     0
100
AcDbLine
 10
180.5562941439
 20
108.9920589888
 30
0.0
 11
182.5562981971
 21
108.9920589888
 31
0.0
  0
LINE
  5
10B
330
1F
100
AcDbEntity
  8
0
  6
HIDDEN
 62
     7
370
     0
100
AcDbLine
 10
180.5562941439
 20
107.8571221164
 30
0.0
 11
180.5562941439
 21
107.8719168157
 31
0.0
  0
LINE
  5
10C
330
1F
100
AcDbEntity
  8
0
  6
HIDDEN
 62
     7
370
     0
100
AcDbLine
 10
182.5562981971
 20
109.5595274541
 30
0.0
 11
182.5562981971
 21
108.9920589888
 31
0.0
  0
LINE
  5
10D
330
1F
100
AcDbEntity
  8
0
  6
HIDDEN
 62
     7
370
     0
100
AcDbLine
 10
182.5562981971
 20
108.6148269254
 30
0.0
 11
182.5562981971
 21
108.9920589888
 31
0.0
  0
LINE
  5
10E
330
1F
100
AcDbEntity
  8
0
  6
HIDDEN
 62
     7
370
     0
100
AcDbLine
 10
205.4386405356
 20
98.4319881258
 30
0.0
 11
205.4386405356
 21
118.4319876787
 31
0.0
  0
LINE
  5
10F
330
1F
100
AcDbEntity
  8
0
  6
HIDDEN
 62
     7
370
     0
100
AcDbLine
 10
208.4386391647
 20
99.2319876981
 30
0.0
 11
208.4386391647
 21
117.6319881064
 31
0.0
  0
LINE
  5
110
330
1F
100
AcDbEntity
  8
0
  6
HIDDEN
 62
     7
370
     0
100
AcDbLine
 10
203.2941324718
 20
99.4319882897
 30
0.0
 11
203.2941324718
 21
117.4319875148
 31
0.0
  0
SPLINE
  5
111
330
1F
100
AcDbEntity
  8
0
  6
HIDDEN
 62
     7
370
     0
100
AcDbSpline
210
0.0
220
0.0
230
1.0
 70
     8
 71
     3
 72
    11
 73
     7
 74
     0
 42
0.00000001
 43
0.00000001
 40
0.0
 40
0.0
 40
0.0
 40
0.0
 40
0.2328875716235269
 40
0.4667472697181723
 40
0.7655821588136552
 40
1.0
 40
1.0
 40
1.0
 40
1.0
 10
209.2886386521209
 20
116.4428577479945
 30
0.0
 10
209.2889996773125
 20
116.4845967505981
 30
0.0
 10
209.289723234698
 20
116.5682489840348
 30
0.0
 10
209.2956534775628
 20
116.6615523705426
 30
0.0
 10
209.3044925019121
 20
116.7234502959947
 30
0.0
 10
209.3133535610133
 20
116.7262327781229
 30
0.0
 10
209.3172488816131
 20
116.7274559569584
 30
0.0
  0
SPLINE
  5
112
330
1F
100
AcDbEntity
  8
0
  6
HIDDEN
 62
     7
370
     0
100
AcDbSpline
210
0.0
220
0.0
230
1.0
 70
     8
 71
     3
 72
    25
 73
    21
 74
     0
 42
0.00000001
 43
0.00000001
 40
0.0
 40
0.0
 40
0.0
 40
0.0
 40
0.054415340450248
 40
0.1092238810759563
 40
0.1625261859089258
 40
0.2161972627785728
 40
0.2710321503227952
 40
0.326270405831087
 40
0.3796141904508838
 40
0.4333322999322708
 40
0.4882330956418497
 40
0.5435428147410698
 40
0.5965933537692674
 40
0.650009431842068
 40
0.7045741567133573
 40
0.7595347741555991
 40
0.8183449980634823
 40
0.877652371431147
 40
0.9385484541760469
 40
1.0
 40
1.0
 40
1.0
 40
1.0
 10
209.3204153783668
 20
116.7307016161309
 30
0.0
 10
209.326097836745
 20
116.7214476289131
 30
0.0
 10
209.3375038144158
 20
116.7028727860289
 30
0.0
 10
209.3571087033152
 20
116.6059163897896
 30
0.0
 10
209.3771321934021
 20
116.4601778076929
 30
0.0
 10
209.3966924993007
 20
116.2617728534664
 30
0.0
 10
209.4145632182019
 20
116.0096866822615
 30
0.0
 10
209.4289038094625
 20
115.7075918492583
 30
0.0
 10
209.4382672970345
 20
115.3603324703488
 30
0.0
 10
209.4417128034092
 20
114.969668593435
 30
0.0
 10
209.4387230020708
 20
114.531764353574
 30
0.0
 10
209.4295638548848
 20
114.0559195703093
 30
0.0
 10
209.4155930998313
 20
113.5491742903476
 30
0.0
 10
209.3982474840777
 20
113.0137291105084
 30
0.0
 10
209.3786720905219
 20
112.4438257921013
 30
0.0
 10
209.3577811747753
 20
111.8298305936437
 30
0.0
 10
209.3370168920958
 20
111.1762452759583
 30
0.0
 10
209.3178989705032
 20
110.4819795601945
 30
0.0
 10
209.3017354595665
 20
109.764595299015
 30
0.0
 10
209.2955269793728
 20
109.2769283958528
 30
0.0
 10
209.292408645903
 20
109.031987930745
 30
0.0
  0
LINE
  5
113
330
1F
100
AcDbEntity
  8
0
  6
HIDDEN
 62
     7
370
     0
100
AcDbLine
 10
209.2886386521
 20
100.4211180565
 30
0.0
 11
209.2886386521
 21
116.442857748
 31
0.0
  0
SPLINE
  5
114
330
1F
100
AcDbEntity
  8
0
  6
HIDDEN
 62
     7
370
     0
100
AcDbSpline
210
0.0
220
0.0
230
1.0
 70
     8
 71
     3
 72
    26
 73
    22
 74
     0
 42
0.00000001
 43
0.00000001
 40
0.0
 40
0.0
 40
0.0
 40
0.0
 40
0.0338821205833288
 40
0.0678567937812222
 40
0.1218341753276358
 40
0.1761866860837832
 40
0.2317198856961262
 40
0.2876603730597422
 40
0.3416375111949964
 40
0.3959884959662301
 40
0.4515210066761506
 40
0.507463706400874
 40
0.5614102871972406
 40
0.6157354133918339
 40
0.6712533742016652
 40
0.7271824933148021
 40
0.7809176375063737
 40
0.8350222388117041
 40
0.8902891103143658
 40
0.9459572025215134
 40
0.9999999999999999
 40
0.9999999999999999
 40
0.9999999999999999
 40
0.9999999999999999
 10
209.292408645903
 20
107.8319878737481
 30
0.0
 10
209.2939456250935
 20
107.6986347529892
 30
0.0
 10
209.2970237818967
 20
107.4315642432446
 30
0.0
 10
209.3052939012202
 20
106.9534102169727
 30
0.0
 10
209.3175233490807
 20
106.3987271866601
 30
0.0
 10
209.3346690615852
 20
105.7701010810768
 30
0.0
 10
209.3540185639998
 20
105.1486513171963
 30
0.0
 10
209.3742704739334
 20
104.547997490226
 30
0.0
 10
209.3940095106985
 20
103.97490790434
 30
0.0
 10
209.4120377946762
 20
103.4299880390459
 30
0.0
 10
209.4270696386396
 20
102.909837900375
 30
0.0
 10
209.4373021385341
 20
102.4264217605098
 30
0.0
 10
209.4415808969513
 20
101.9847635599511
 30
0.0
 10
209.4395725243982
 20
101.5848601162219
 30
0.0
 10
209.4313355426464
 20
101.2247001906743
 30
0.0
 10
209.4178682808731
 20
100.913489878343
 30
0.0
 10
209.4008417426325
 20
100.6537570739694
 30
0.0
 10
209.3816692392047
 20
100.4442510759065
 30
0.0
 10
209.3615027072534
 20
100.2855101854297
 30
0.0
 10
209.3416014030509
 20
100.1769711675902
 30
0.0
 10
209.3299231129444
 20
100.1504531965201
 30
0.0
 10
209.3241704709877
 20
100.137390634142
 30
0.0
  0
LINE
  5
115
330
1F
100
AcDbEntity
  8
0
  6
HIDDEN
 62
     7
370
     0
100
AcDbLine
 10
209.3173531897
 20
100.1386190486
 30
0.0
 11
209.3089936383
 21
100.1401259285
 31
0.0
  0
SPLINE
  5
116
330
1F
100
AcDbEntity
  8
0
  6
HIDDEN
 62
     7
370
     0
100
AcDbSpline
210
0.0
220
0.0
230
1.0
 70
     8
 71
     3
 72
    10
 73
     6
 74
     0
 42
0.00000001
 43
0.00000001
 40
0.0
 40
0.0
 40
0.0
 40
0.0
 40
0.3155561768776498
 40
0.724903749151177
 40
1.0
 40
1.0
 40
1.0
 40
1.0
 10
209.3063561327804
 20
100.1531048399435
 30
0.0
 10
209.3030931029728
 20
100.165564489763
 30
0.0
 10
209.2955971871442
 20
100.1941871171401
 30
0.0
 10
209.2897514263703
 20
100.2899974348433
 30
0.0
 10
209.2889576799889
 20
100.3835263056121
 30
0.0
 10
209.2886386521209
 20
100.4211180564986
 30
0.0
  0
SPLINE
  5
117
330
1F
100
AcDbEntity
  8
0
  6
HIDDEN
 62
     7
370
     0
100
AcDbSpline
210
0.0
220
0.0
230
1.0
 70
     8
 71
     3
 72
     9
 73
     5
 74
     0
 42
0.00000001
 43
0.00000001
 40
0.0
 40
0.0
 40
0.0
 40
0.0
 40
0.5
 40
1.0
 40
1.0
 40
1.0
 40
1.0
 10
209.292408645903
 20
109.031987930745
 30
0.0
 10
209.291197926556
 20
108.8319879212455
 30
0.0
 10
209.288776487862
 20
108.4319879022465
 30
0.0
 10
209.291197926556
 20
108.0319878832476
 30
0.0
 10
209.292408645903
 20
107.8319878737481
 30
0.0
  0
LINE
  5
118
330
1F
100
AcDbEntity
  8
0
  6
HIDDEN
 62
     7
370
     0
100
AcDbLine
 10
213.6360896833
 20
102.081987979
 30
0.0
 11
213.6360896833
 21
114.7819878255
 31
0.0
  0
LINE
  5
119
330
1F
100
AcDbEntity
  8
0
  6
HIDDEN
 62
     7
370
     0
100
AcDbLine
 10
208.3520112641
 20
116.7994844449
 30
0.0
 11
214.838643194
 21
114.7932037433
 31
0.0
  0
LINE
  5
11A
330
1F
100
AcDbEntity
  8
0
  6
HIDDEN
 62
     7
370
     0
100
AcDbLine
 10
208.3520112641
 20
100.0644913596
 30
0.0
 11
214.838643194
 21
102.0707720612
 31
0.0
  0
LINE
  5
11B
330
1F
100
AcDbEntity
  8
0
  6
HIDDEN
 62
     7
370
     0
100
AcDbLine
 10
129.4467091642
 20
132.8906775174
 30
0.0
 11
129.4467091642
 21
128.2819886413
 31
0.0
  0
ARC
  5
11C
330
1F
100
AcDbEntity
  8
0
  6
HIDDEN
 62
     7
370
     0
100
AcDbCircle
 10
123.122228203
 20
120.9282572378
 30
0.0
 40
3.677305461821107
100
AcDbArc
 50
265.577077725
 51
11.8465529053
  0
ARC
  5
11D
330
1F
100
AcDbEntity
  8
0
  6
HIDDEN
 62
     7
370
     0
100
AcDbCircle
 10
122.5388311652
 20
120.9112618529
 30
0.0
 40
3.661653669478364
100
AcDbArc
 50
166.9780409334
 51
274.6965534439
  0
LINE
  5
11E
330
1F
100
AcDbEntity
  8
0
  6
HIDDEN
 62
     7
370
     0
100
AcDbLine
 10
102.8337922029
 20
84.9073887524
 30
0.0
 11
102.5849269785
 21
84.8841261772
 31
0.0
  0
LINE
  5
11F
330
1F
100
AcDbEntity
  8
0
  6
HIDDEN
 62
     7
370
     0
100
AcDbLine
 10
102.4523662485
 20
131.9920741675
 30
0.0
 11
102.8336990707
 21
131.9565702883
 31
0.0
  0
SPLINE
  5
120
330
1F
100
AcDbEntity
  8
0
  6
HIDDEN
 62
     7
370
     0
100
AcDbSpline
210
0.0
220
0.0
230
1.0
 70
     8
 71
     3
 72
    15
 73
    11
 74
     0
 42
0.00000001
 43
0.00000001
 40
0.0
 40
0.0
 40
0.0
 40
0.0
 40
0.110051543785069
 40
0.2208771380323124
 40
0.3341302503335283
 40
0.4482177950853038
 40
0.5582923780342179
 40
0.7821476818975915
 40
0.8961890729625006
 40
1.0
 40
1.0
 40
1.0
 40
1.0
 10
108.5936437442947
 20
128.2695163694249
 30
0.0
 10
108.6612378001825
 20
128.2785843198272
 30
0.0
 10
108.7969013365492
 20
128.2967840003025
 30
0.0
 10
108.9773467017824
 20
128.317505792531
 30
0.0
 10
109.1394949561522
 20
128.3342455183052
 30
0.0
 10
109.2775463607068
 20
128.3468261581324
 30
0.0
 10
109.4291867992789
 20
128.359208956402
 30
0.0
 10
109.5306359138014
 20
128.3661635122025
 30
0.0
 10
109.5820633072694
 20
128.3694630560795
 30
0.0
 10
109.5860185057564
 20
128.3697071977021
 30
0.0
 10
109.5879032358576
 20
128.3698235360013
 30
0.0
  0
SPLINE
  5
121
330
1F
100
AcDbEntity
  8
0
  6
HIDDEN
 62
     7
370
     0
100
AcDbSpline
210
0.0
220
0.0
230
1.0
 70
     8
 71
     3
 72
    12
 73
     8
 74
     0
 42
0.00000001
 43
0.00000001
 40
0.0
 40
0.0
 40
0.0
 40
0.0
 40
0.1181237384421946
 40
0.3465099469509189
 40
0.5687666102974582
 40
0.7975211906132053
 40
1.0
 40
1.0
 40
1.0
 40
1.0
 10
109.5758374862422
 20
88.494915953003
 30
0.0
 10
109.5779610793176
 20
88.49478167060967
 30
0.0
 10
109.5841905310233
 20
88.4943877600748
 30
0.0
 10
109.4795229726835
 20
88.5010097796314
 30
0.0
 10
109.2695489005631
 20
88.51741589764318
 30
0.0
 10
108.9740904604377
 20
88.5450174545636
 30
0.0
 10
108.7152011298563
 20
88.5786621167261
 30
0.0
 10
108.5936437442947
 20
88.5944594350682
 30
0.0
  0
SPLINE
  5
122
330
1F
100
AcDbEntity
  8
0
  6
HIDDEN
 62
     7
370
     0
100
AcDbSpline
210
0.0
220
0.0
230
1.0
 70
     8
 71
     3
 72
    22
 73
    18
 74
     0
 42
0.00000001
 43
0.00000001
 40
0.0
 40
0.0
 40
0.0
 40
0.0
 40
0.0694705205686055
 40
0.1409377331649949
 40
0.2104135932234474
 40
0.2819466554347119
 40
0.3506518590239928
 40
0.4213898075947659
 40
0.4894670079785227
 40
0.559481139205132
 40
0.6282707070598401
 40
0.6989997640116924
 40
0.7687375463058662
 40
0.8405098058647738
 40
0.9099666327908917
 40
0.9814998906941905
 40
1.0
 40
1.0
 40
1.0
 40
1.0
 10
108.5936437442947
 20
88.5944594350682
 30
0.0
 10
108.4454698315657
 20
88.61418556197283
 30
0.0
 10
108.1448632548006
 20
88.65420477569555
 30
0.0
 10
107.6099682762437
 20
88.70957776771647
 30
0.0
 10
107.024329813393
 20
88.75403686489022
 30
0.0
 10
106.4100971168339
 20
88.78172098863836
 30
0.0
 10
105.7761805196401
 20
88.78997355377605
 30
0.0
 10
105.1540319042344
 20
88.77799262352758
 30
0.0
 10
104.5480342097986
 20
88.7472447522217
 30
0.0
 10
103.9835451944326
 20
88.7017757283819
 30
0.0
 10
103.4641692500546
 20
88.64569481653527
 30
0.0
 10
103.0113034310019
 20
88.58570617173112
 30
0.0
 10
102.632588583574
 20
88.52772563585069
 30
0.0
 10
102.3445038887689
 20
88.47880586471497
 30
0.0
 10
102.1620447564605
 20
88.4457706276281
 30
0.0
 10
102.081388271861
 20
88.43063185218719
 30
0.0
 10
102.0956774619174
 20
88.43330381963196
 30
0.0
 10
102.0986136131037
 20
88.43385285707576
 30
0.0
  0
SPLINE
  5
123
330
1F
100
AcDbEntity
  8
0
  6
HIDDEN
 62
     7
370
     0
100
AcDbSpline
210
0.0
220
0.0
230
1.0
 70
     8
 71
     3
 72
    30
 73
    26
 74
     0
 42
0.00000001
 43
0.00000001
 40
0.0
 40
0.0
 40
0.0
 40
0.0
 40
0.0156161599134492
 40
0.0849748354430979
 40
0.1203204707274447
 40
0.1543185374002934
 40
0.2234436738941646
 40
0.2586467327159568
 40
0.2931107352539268
 40
0.3631864008633959
 40
0.3988795402369778
 40
0.4336750588357229
 40
0.4687146119081173
 40
0.5045294366644589
 40
0.5406150942464
 40
0.5750767691290661
 40
0.6452033550959662
 40
0.6809575540931957
 40
0.7149323054552074
 40
0.7840330493487319
 40
0.8192378352640541
 40
0.8533346902847149
 40
0.9226550316361518
 40
0.9579547206872956
 40
1.0
 40
1.0
 40
1.0
 40
1.0
 10
102.0917590789546
 20
128.43140444728
 30
0.0
 10
102.091161259778
 20
128.4315162830989
 30
0.0
 10
102.0879082458212
 20
128.4321248341361
 30
0.0
 10
102.1382291646043
 20
128.4226685545666
 30
0.0
 10
102.2385351118955
 20
128.4043630367739
 30
0.0
 10
102.3731522528064
 20
128.380379576393
 30
0.0
 10
102.5552095956203
 20
128.3492799435349
 30
0.0
 10
102.7821333872719
 20
128.3133611437711
 30
0.0
 10
103.0387191612159
 20
128.2750409517748
 30
0.0
 10
103.3367558457552
 20
128.2347988220593
 30
0.0
 10
103.6693054999776
 20
128.1961361676376
 30
0.0
 10
103.9345029078627
 20
128.1687334239919
 30
0.0
 10
104.2135610841739
 20
128.143687412026
 30
0.0
 10
104.5080120337854
 20
128.1215224521444
 30
0.0
 10
104.8108767382368
 20
128.1033584237983
 30
0.0
 10
105.2212626400923
 20
128.0851019375349
 30
0.0
 10
105.6421034977685
 20
128.0762537883077
 30
0.0
 10
106.0620073847998
 20
128.0777198475503
 30
0.0
 10
106.4766219606548
 20
128.0857615884387
 30
0.0
 10
106.8828430708701
 20
128.1032696532071
 30
0.0
 10
107.272373664423
 20
128.1288345552918
 30
0.0
 10
107.6491943912568
 20
128.1590183014988
 30
0.0
 10
108.0023314571009
 20
128.1949178885172
 30
0.0
 10
108.3440832470932
 20
128.2357347437335
 30
0.0
 10
108.5057568271097
 20
128.2576196030183
 30
0.0
 10
108.5936437442947
 20
128.2695163694249
 30
0.0
  0
LINE
  5
124
330
1F
100
AcDbEntity
  8
0
  6
HIDDEN
 62
     7
370
     0
100
AcDbLine
 10
95.8426171996
 20
91.4319869784
 30
0.0
 11
95.8426171996
 21
125.4319888261
 31
0.0
  0
LWPOLYLINE
  5
125
330
1F
100
AcDbEntity
  8
0
  6
HIDDEN
 62
     7
370
     0
100
AcDbPolyline
 90
       14
 70
   128
 43
0.0
 10
122.8386420839
 20
130.3775910941
 10
123.6438356422
 20
130.4185301718
 10
124.416065038
 20
130.5396747497
 10
125.1237146638
 20
130.736062741
 10
125.7378129371
 20
130.9996568319
 10
126.2332188048
 20
131.3196629939
 10
126.5896499239
 20
131.6829793808
 10
126.7925152637
 20
132.0747346339
 10
126.8335074268
 20
132.4788895157
 10
126.7109500326
 20
132.8788962868
 10
126.4298601158
 20
133.258378571
 10
126.0017450981
 20
133.6018019077
 10
125.444131539
 20
133.8951070515
 10
125.2111993812
 20
133.9877904114
  0
LWPOLYLINE
  5
126
330
1F
100
AcDbEntity
  8
0
  6
HIDDEN
 62
     7
370
     0
100
AcDbPolyline
 90
       14
 70
   128
 43
0.0
 10
120.4710738815
 20
133.9896251169
 10
120.2331516974
 20
133.8951070515
 10
119.675538604
 20
133.6018019077
 10
119.2474235863
 20
133.258378571
 10
118.9663332038
 20
132.8788962868
 10
118.8437758096
 20
132.4788895157
 10
118.8847684383
 20
132.0747346339
 10
119.0876333125
 20
131.6829793808
 10
119.4440648973
 20
131.3196629939
 10
119.939470765
 20
130.9996568319
 10
120.5535690382
 20
130.736062741
 10
121.2612181984
 20
130.5396747497
 10
122.0334475942
 20
130.4185301718
 10
122.8386420839
 20
130.3775910941
  0
SPLINE
  5
127
330
1F
100
AcDbEntity
  8
0
  6
HIDDEN
 62
     7
370
     0
100
AcDbSpline
210
0.0
220
0.0
230
1.0
 70
     8
 71
     3
 72
    11
 73
     7
 74
     0
 42
0.00000001
 43
0.00000001
 40
0.0
 40
0.0
 40
0.0
 40
0.0
 40
0.0005779865010845
 40
0.0005779865010845
 40
0.0005779865010845
 40
0.0011559733324421
 40
0.0011559733324421
 40
0.0011559733324421
 40
0.0011559733324421
 10
82.93864170387876
 20
110.4318285104004
 30
0.0
 10
83.10530895868472
 20
110.4298448710594
 30
0.0
 10
83.27197538836238
 20
110.4278072640568
 30
0.0
 10
83.4386417268142
 20
110.4256958006504
 30
0.0
 10
83.6053081556406
 20
110.4235843360991
 30
0.0
 10
83.7719745292783
 20
110.4213987729427
 30
0.0
 10
83.93864170387874
 20
110.4191161956111
 30
0.0
  0
SPLINE
  5
128
330
1F
100
AcDbEntity
  8
0
  6
HIDDEN
 62
     7
370
     0
100
AcDbSpline
210
0.0
220
0.0
230
1.0
 70
     8
 71
     3
 72
     8
 73
     4
 74
     0
 42
0.00000001
 43
0.00000001
 40
0.0
 40
0.0
 40
0.0
 40
0.0
 40
0.0011564765856722
 40
0.0011564765856722
 40
0.0011564765856722
 40
0.0011564765856722
 10
83.93864170387874
 20
106.4352876000303
 30
0.0
 10
83.6053337733099
 20
106.434412444447
 30
0.0
 10
83.27199854091768
 20
106.4333575931955
 30
0.0
 10
82.93864170387874
 20
106.4321865061579
 30
0.0
  0
LINE
  5
129
330
1F
100
AcDbEntity
  8
0
  6
HIDDEN
 62
     7
370
     0
100
AcDbLine
 10
122.4984676659
 20
91.4319869784
 30
0.0
 11
122.4984676659
 21
125.4319888261
 31
0.0
  0
LINE
  5
12A
330
1F
100
AcDbEntity
  8
0
  6
HIDDEN
 62
     7
370
     0
100
AcDbLine
 10
124.7886415653
 20
92.7069880721
 30
0.0
 11
124.7886415653
 21
124.1569877324
 31
0.0
  0
SPLINE
  5
12B
330
1F
100
AcDbEntity
  8
0
  6
HIDDEN
 62
     7
370
     0
100
AcDbSpline
210
0.0
220
0.0
230
1.0
 70
     8
 71
     3
 72
    16
 73
    12
 74
     0
 42
0.00000001
 43
0.00000001
 40
0.0
 40
0.0
 40
0.0
 40
0.0
 40
0.124999999999998
 40
0.124999999999998
 40
0.249999999999996
 40
0.249999999999996
 40
0.4999999999999973
 40
0.4999999999999973
 40
0.7499999999999987
 40
0.7499999999999987
 40
1.0
 40
1.0
 40
1.0
 40
1.0
 10
91.63864170387873
 20
92.63049746621489
 30
0.0
 10
91.73376345854456
 20
92.63049746621489
 30
0.0
 10
91.82709352727264
 20
92.62668163282208
 30
0.0
 10
92.01035528801064
 20
92.61191108009228
 30
0.0
 10
92.10123300356766
 20
92.6007530321167
 30
0.0
 10
92.35803470108739
 20
92.55828176197498
 30
0.0
 10
92.51310206595939
 20
92.51723556477218
 30
0.0
 10
92.766848527514
 20
92.42208944819029
 30
0.0
 10
92.86771897918186
 20
92.36732671410871
 30
0.0
 10
93.0029653938767
 20
92.25606559020483
 30
0.0
 10
93.03864170387874
 20
92.19889585287615
 30
0.0
 10
93.03864170387874
 20
92.14447427984243
 30
0.0
  0
SPLINE
  5
12C
330
1F
100
AcDbEntity
  8
0
  6
HIDDEN
 62
     7
370
     0
100
AcDbSpline
210
0.0
220
0.0
230
1.0
 70
     8
 71
     3
 72
     8
 73
     4
 74
     0
 42
0.00000001
 43
0.00000001
 40
0.0
 40
0.0
 40
0.0
 40
0.0
 40
1.0
 40
1.0
 40
1.0
 40
1.0
 10
84.23864170719372
 20
94.77530041229713
 30
0.0
 10
84.23864170719567
 20
93.8914032699802
 30
0.0
 10
84.22516108128585
 20
93.17682002491826
 30
0.0
 10
84.22380971309654
 20
92.63049746621489
 30
0.0
  0
SPLINE
  5
12D
330
1F
100
AcDbEntity
  8
0
  6
HIDDEN
 62
     7
370
     0
100
AcDbSpline
210
0.0
220
0.0
230
1.0
 70
     8
 71
     3
 72
    10
 73
     6
 74
     0
 42
0.00000001
 43
0.00000001
 40
0.0
 40
0.0
 40
0.0
 40
0.0
 40
0.5
 40
0.5
 40
1.0
 40
1.0
 40
1.0
 40
1.0
 10
83.93864170387874
 20
95.80021067800011
 30
0.0
 10
84.03003281957162
 20
95.62557189038273
 30
0.0
 10
84.1026846533046
 20
95.45197006312718
 30
0.0
 10
84.21018354631263
 20
95.10835664412053
 30
0.0
 10
84.23864170718812
 20
94.94003081758913
 30
0.0
 10
84.23864170719372
 20
94.7753004123566
 30
0.0
  0
LINE
  5
12E
330
1F
100
AcDbEntity
  8
0
  6
HIDDEN
 62
     7
370
     0
100
AcDbLine
 10
83.9386420406
 20
98.8311613631
 30
0.0
 11
83.9386420406
 21
95.8002102283
 31
0.0
  0
SPLINE
  5
12F
330
1F
100
AcDbEntity
  8
0
  6
HIDDEN
 62
     7
370
     0
100
AcDbSpline
210
0.0
220
0.0
230
1.0
 70
     8
 71
     3
 72
    10
 73
     6
 74
     0
 42
0.00000001
 43
0.00000001
 40
0.0
 40
0.0
 40
0.0
 40
0.0
 40
0.5
 40
0.5
 40
1.0
 40
1.0
 40
1.0
 40
1.0
 10
84.23864170706634
 20
100.1990015266037
 30
0.0
 10
84.23864170706632
 20
99.95701755899694
 30
0.0
 10
84.21049167799575
 20
99.72267513003196
 30
0.0
 10
84.10690176385339
 20
99.26730010775431
 30
0.0
 10
84.03027305426191
 20
99.04569554464697
 30
0.0
 10
83.93864170387874
 20
98.83116110984905
 30
0.0
  0
LINE
  5
130
330
1F
100
AcDbEntity
  8
0
  6
HIDDEN
 62
     7
370
     0
100
AcDbLine
 10
84.238641531
 20
112.0366216359
 30
0.0
 11
84.238641531
 21
100.1990013477
 31
0.0
  0
SPLINE
  5
131
330
1F
100
AcDbEntity
  8
0
  6
HIDDEN
 62
     7
370
     0
100
AcDbSpline
210
0.0
220
0.0
230
1.0
 70
     8
 71
     3
 72
     8
 73
     4
 74
     0
 42
0.00000001
 43
0.00000001
 40
0.0
 40
0.0
 40
0.0
 40
0.0
 40
1.0
 40
1.0
 40
1.0
 40
1.0
 10
83.93864170387874
 20
118.0389272233147
 30
0.0
 10
84.11967317043758
 20
117.606819737652
 30
0.0
 10
84.23864170707205
 20
117.1526743315525
 30
0.0
 10
84.23864170706635
 20
116.6649742778585
 30
0.0
  0
LINE
  5
132
330
1F
100
AcDbEntity
  8
0
  6
HIDDEN
 62
     7
370
     0
100
AcDbLine
 10
83.9386420406
 20
121.0721297842
 30
0.0
 11
83.9386420406
 21
118.0389276427
 31
0.0
  0
SPLINE
  5
133
330
1F
100
AcDbEntity
  8
0
  6
HIDDEN
 62
     7
370
     0
100
AcDbSpline
210
0.0
220
0.0
230
1.0
 70
     8
 71
     3
 72
    10
 73
     6
 74
     0
 42
0.00000001
 43
0.00000001
 40
0.0
 40
0.0
 40
0.0
 40
0.0
 40
0.5
 40
0.5
 40
1.0
 40
1.0
 40
1.0
 40
1.0
 10
84.23864170727195
 20
122.0886753921664
 30
0.0
 10
84.23864170727018
 20
121.924039045561
 30
0.0
 10
84.2114830365151
 20
121.7568838217312
 30
0.0
 10
84.10571804119743
 20
121.418260813931
 30
0.0
 10
84.02930325289877
 20
121.2459890366367
 30
0.0
 10
83.93864170387876
 20
121.0721302092934
 30
0.0
  0
SPLINE
  5
134
330
1F
100
AcDbEntity
  8
0
  6
HIDDEN
 62
     7
370
     0
100
AcDbSpline
210
0.0
220
0.0
230
1.0
 70
     8
 71
     3
 72
    18
 73
    14
 74
     0
 42
0.00000001
 43
0.00000001
 40
0.0
 40
0.0
 40
0.0
 40
0.0
 40
0.2500000000000033
 40
0.2500000000000033
 40
0.3750000000000029
 40
0.3750000000000029
 40
0.5000000000000026
 40
0.5000000000000026
 40
0.6250000000000022
 40
0.6250000000000022
 40
0.7500000000000018
 40
0.7500000000000018
 40
1.0
 40
1.0
 40
1.0
 40
1.0
 10
89.03864170387874
 20
124.7195015246507
 30
0.0
 10
89.03864170387874
 20
124.6650270040985
 30
0.0
 10
89.00373101248657
 20
124.608645944746
 30
0.0
 10
88.90172171115351
 20
124.5245691038925
 30
0.0
 10
88.86008535647541
 20
124.4972353999016
 30
0.0
 10
88.76167956098665
 20
124.4442814843026
 30
0.0
 10
88.70413634928236
 20
124.4183941305854
 30
0.0
 10
88.57683817570943
 20
124.3706165857522
 30
0.0
 10
88.50725087095196
 20
124.3486686675743
 30
0.0
 10
88.355816625797
 20
124.3092361026616
 30
0.0
 10
88.27313272270305
 20
124.2916798534357
 30
0.0
 10
88.017021260665
 20
124.2492410880152
 30
0.0
 10
87.82910625677702
 20
124.2334783382782
 30
0.0
 10
87.63864170387873
 20
124.2334783382782
 30
0.0
  0
LINE
  5
135
330
1F
100
AcDbEntity
  8
0
  6
HIDDEN
 62
     7
370
     0
100
AcDbLine
 10
87.6386413433
 20
124.2334791181
 30
0.0
 11
84.238641531
 21
124.2334791181
 31
0.0
  0
LINE
  5
136
330
1F
100
AcDbEntity
  8
0
  6
HIDDEN
 62
     7
370
     0
100
AcDbLine
 10
84.1696733691
 20
92.6304966864
 30
0.0
 11
91.6386419989
 21
92.6304966864
 31
0.0
  0
SPLINE
  5
137
330
1F
100
AcDbEntity
  8
0
  6
HIDDEN
 62
     7
370
     0
100
AcDbSpline
210
0.0
220
0.0
230
1.0
 70
     8
 71
     3
 72
    22
 73
    18
 74
     0
 42
0.00000001
 43
0.00000001
 40
0.0
 40
0.0
 40
0.0
 40
0.0
 40
0.1249999999999998
 40
0.1249999999999998
 40
0.2499999999999995
 40
0.2499999999999995
 40
0.4999999999999992
 40
0.4999999999999992
 40
0.5624999999999993
 40
0.5624999999999993
 40
0.6249999999999994
 40
0.6249999999999994
 40
0.7499999999999996
 40
0.7499999999999996
 40
0.8749999999999998
 40
0.8749999999999998
 40
1.0
 40
1.0
 40
1.0
 40
1.0
 10
84.16967271723666
 20
92.63049746621489
 30
0.0
 10
84.15659032450829
 20
92.88560317636257
 30
0.0
 10
84.14337076106845
 20
93.17876143546647
 30
0.0
 10
84.12092358327433
 20
93.84106190109128
 30
0.0
 10
84.11144511624988
 20
94.21133582170266
 30
0.0
 10
84.09224715531333
 20
95.43389262481644
 30
0.0
 10
84.09336092831022
 20
96.37103155094832
 30
0.0
 10
84.11227172126328
 20
97.6909027804633
 30
0.0
 10
84.1169012491223
 20
97.96240468943962
 30
0.0
 10
84.12738246886825
 20
98.52078952424192
 30
0.0
 10
84.13317773015267
 20
98.80791238018152
 30
0.0
 10
84.1514869510576
 20
99.68050163455321
 30
0.0
 10
84.16552188533797
 20
100.2809573109091
 30
0.0
 10
84.19497905747478
 20
101.5184318034051
 30
0.0
 10
84.21053474845635
 20
102.1554479600486
 30
0.0
 10
84.23432929845325
 20
103.4669365577331
 30
0.0
 10
84.2423483505986
 20
104.1430591693937
 30
0.0
 10
84.23864170387874
 20
104.8273542806784
 30
0.0
  0
LINE
  5
138
330
1F
100
AcDbEntity
  8
0
  6
HIDDEN
 62
     7
370
     0
100
AcDbLine
 10
84.238641531
 20
112.0366216359
 30
0.0
 11
84.238641531
 21
124.2334791181
 31
0.0
  0
SPLINE
  5
139
330
1F
100
AcDbEntity
  8
0
  6
HIDDEN
 62
     7
370
     0
100
AcDbSpline
210
0.0
220
0.0
230
1.0
 70
     8
 71
     3
 72
    10
 73
     6
 74
     0
 42
0.00000001
 43
0.00000001
 40
0.0
 40
0.0
 40
0.0
 40
0.0
 40
0.5
 40
0.5
 40
1.0
 40
1.0
 40
1.0
 40
1.0
 10
84.23864170387874
 20
104.8273542806634
 30
0.0
 10
84.23864170387856
 20
105.1012694287377
 30
0.0
 10
84.21288247401085
 20
105.3722110074678
 30
0.0
 10
84.10967654127774
 20
105.9079020890707
 30
0.0
 10
84.0323383774025
 20
106.1736488925927
 30
0.0
 10
83.93864170387873
 20
106.4352876000303
 30
0.0
  0
SPLINE
  5
13A
330
1F
100
AcDbEntity
  8
0
  6
HIDDEN
 62
     7
370
     0
100
AcDbSpline
210
0.0
220
0.0
230
1.0
 70
     8
 71
     3
 72
    10
 73
     6
 74
     0
 42
0.00000001
 43
0.00000001
 40
0.0
 40
0.0
 40
0.0
 40
0.0
 40
0.5
 40
0.5
 40
1.0
 40
1.0
 40
1.0
 40
1.0
 10
83.93864170387873
 20
110.4191161956111
 30
0.0
 10
84.03187228526974
 20
110.6830100036812
 30
0.0
 10
84.1069018975065
 20
110.9491903143195
 30
0.0
 10
84.21196899668465
 20
111.4875128892776
 30
0.0
 10
84.23864170727083
 20
111.7602610055232
 30
0.0
 10
84.23864170727202
 20
112.0366215238137
 30
0.0
  0
LINE
  5
13B
330
1F
100
AcDbEntity
  8
0
  6
HIDDEN
 62
     7
370
     0
100
AcDbLine
 10
83.9386420406
 20
106.435287716
 30
0.0
 11
83.9386420406
 21
110.4191161879
 31
0.0
  0
SPLINE
  5
13C
330
1F
100
AcDbEntity
  8
0
  6
HIDDEN
 62
     7
370
     0
100
AcDbSpline
210
0.0
220
0.0
230
1.0
 70
     8
 71
     3
 72
     9
 73
     5
 74
     0
 42
0.00000001
 43
0.00000001
 40
0.0
 40
0.0
 40
0.0
 40
0.0
 40
0.7053329932125925
 40
0.9999999999999999
 40
0.9999999999999999
 40
0.9999999999999999
 40
0.9999999999999999
 10
149.6928786940921
 20
120.5409313273655
 30
0.0
 10
149.7774754828661
 20
120.5060112416301
 30
0.0
 10
149.8974142771491
 20
120.4565025895871
 30
0.0
 10
150.0968143132429
 20
120.400298581978
 30
0.0
 10
150.155570925032
 20
120.3837371152864
 30
0.0
  0
SPLINE
  5
13D
330
1F
100
AcDbEntity
  8
0
  6
HIDDEN
 62
     7
370
     0
100
AcDbSpline
210
0.0
220
0.0
230
1.0
 70
     8
 71
     3
 72
     9
 73
     5
 74
     0
 42
0.00000001
 43
0.00000001
 40
0.0
 40
0.0
 40
0.0
 40
0.0
 40
0.4301638763776048
 40
0.9999999999999999
 40
0.9999999999999999
 40
0.9999999999999999
 40
0.9999999999999999
 10
150.6493171758999
 20
96.6244605091439
 30
0.0
 10
150.5616050616033
 20
96.60395281274481
 30
0.0
 10
150.3577011098461
 20
96.55627866452997
 30
0.0
 10
150.2149010276357
 20
96.50291169073408
 30
0.0
 10
150.133528382336
 20
96.47250126125677
 30
0.0
  0
LINE
  5
13E
330
1F
100
AcDbEntity
  8
0
  6
HIDDEN
 62
     7
370
     0
100
AcDbLine
 10
84.0886408545
 20
90.4419873563
 30
0.0
 11
84.0886408545
 21
87.5620492456
 31
0.0
  0
LINE
  5
13F
330
1F
100
AcDbEntity
  8
0
  6
HIDDEN
 62
     7
370
     0
100
AcDbLine
 10
93.0386414833
 20
90.4419873563
 30
0.0
 11
93.0386414833
 21
86.4682499972
 31
0.0
  0
LINE
  5
140
330
1F
100
AcDbEntity
  8
0
  6
HIDDEN
 62
     7
370
     0
100
AcDbLine
 10
84.0886408545
 20
126.4219884482
 30
0.0
 11
84.0886408545
 21
129.3019265589
 31
0.0
  0
LINE
  5
141
330
1F
100
AcDbEntity
  8
0
  6
HIDDEN
 62
     7
370
     0
100
AcDbLine
 10
89.0386408277
 20
126.4219884482
 30
0.0
 11
89.0386408277
 21
130.2760955599
 31
0.0
  0
LINE
  5
142
330
1F
100
AcDbEntity
  8
0
  6
HIDDEN
 62
     7
370
     0
100
AcDbLine
 10
202.838641227
 20
108.4319879022
 30
0.0
 11
202.838641227
 21
98.9319882077
 31
0.0
  0
LINE
  5
143
330
1F
100
AcDbEntity
  8
0
  6
HIDDEN
 62
     7
370
     0
100
AcDbLine
 10
202.838641227
 20
117.9319875968
 30
0.0
 11
202.838641227
 21
108.4319879022
 31
0.0
  0
LINE
  5
144
330
1F
100
AcDbEntity
  8
0
  6
HIDDEN
 62
     7
370
     0
100
AcDbLine
 10
203.3386422403
 20
108.4319879022
 30
0.0
 11
203.3386422403
 21
99.4319882897
 31
0.0
  0
LINE
  5
145
330
1F
100
AcDbEntity
  8
0
  6
HIDDEN
 62
     7
370
     0
100
AcDbLine
 10
203.3386422403
 20
117.4319875148
 30
0.0
 11
203.3386422403
 21
108.4319879022
 31
0.0
  0
LINE
  5
146
330
1F
100
AcDbEntity
  8
0
  6
HIDDEN
 62
     7
370
     0
100
AcDbLine
 10
133.6386414327
 20
98.9319882077
 30
0.0
 11
133.6386414327
 21
117.9319875968
 31
0.0
  0
LINE
  5
147
330
1F
100
AcDbEntity
  8
0
  6
HIDDEN
 62
     7
370
     0
100
AcDbLine
 10
136.6386419244
 20
98.9319882077
 30
0.0
 11
136.6386419244
 21
117.9319875968
 31
0.0
  0
LINE
  5
148
330
1F
100
AcDbEntity
  8
0
  6
HIDDEN
 62
     7
370
     0
100
AcDbLine
 10
125.2886416473
 20
99.9319874403
 30
0.0
 11
125.2886416473
 21
116.9319883642
 31
0.0
  0
LINE
  5
149
330
1F
100
AcDbEntity
  8
0
  6
HIDDEN
 62
     7
370
     0
100
AcDbLine
 10
119.7886416771
 20
76.9478645829
 30
0.0
 11
119.7886416771
 21
82.0319880453
 31
0.0
  0
LINE
  5
14A
330
1F
100
AcDbEntity
  8
0
  6
HIDDEN
 62
     7
370
     0
100
AcDbLine
 10
127.788642057
 20
82.0319880453
 30
0.0
 11
119.7886416771
 21
82.0319880453
 31
0.0
  0
LINE
  5
14B
330
1F
100
AcDbEntity
  8
0
  6
HIDDEN
 62
     7
370
     0
100
AcDbLine
 10
140.7886413939
 20
82.0319880453
 30
0.0
 11
134.6509667195
 21
82.0319880453
 31
0.0
  0
LINE
  5
14C
330
1F
100
AcDbEntity
  8
0
  6
HIDDEN
 62
     7
370
     0
100
AcDbLine
 10
131.0263170011
 20
82.0319880453
 30
0.0
 11
127.788642057
 21
82.0319880453
 31
0.0
  0
LINE
  5
14D
330
1F
100
AcDbEntity
  8
0
  6
HIDDEN
 62
     7
370
     0
100
AcDbLine
 10
131.3229395159
 20
134.8319877592
 30
0.0
 11
127.788642057
 21
134.8319877592
 31
0.0
  0
LINE
  5
14E
330
1F
100
AcDbEntity
  8
0
  6
HIDDEN
 62
     7
370
     0
100
AcDbLine
 10
140.7886413939
 20
134.8319877592
 30
0.0
 11
134.3543442048
 21
134.8319877592
 31
0.0
  0
LINE
  5
14F
330
1F
100
AcDbEntity
  8
0
  6
HIDDEN
 62
     7
370
     0
100
AcDbLine
 10
127.788642057
 20
134.8319877592
 30
0.0
 11
119.7886416771
 21
134.8319877592
 31
0.0
  0
LINE
  5
150
330
1F
100
AcDbEntity
  8
0
  6
HIDDEN
 62
     7
370
     0
100
AcDbLine
 10
183.7713761337
 20
108.4319879022
 30
0.0
 11
183.7713761337
 21
103.181987973
 31
0.0
  0
LINE
  5
151
330
1F
100
AcDbEntity
  8
0
  6
HIDDEN
 62
     7
370
     0
100
AcDbLine
 10
183.7713761337
 20
113.6819878315
 30
0.0
 11
183.7713761337
 21
108.4319879022
 31
0.0
  0
SPLINE
  5
152
330
1F
100
AcDbEntity
  8
0
  6
HIDDEN
 62
     7
370
     0
100
AcDbSpline
210
0.0
220
0.0
230
1.0
 70
     8
 71
     3
 72
    11
 73
     7
 74
     0
 42
0.00000001
 43
0.00000001
 40
0.0
 40
0.0
 40
0.0
 40
0.0
 40
0.0008203708524183
 40
0.0008203708524183
 40
0.0008203708524183
 40
0.0016409967870154
 40
0.0016409967870154
 40
0.0016409967870154
 40
0.0016409967870154
 10
84.08864170387874
 20
92.57995515160381
 30
0.0
 10
83.89748340358008
 20
92.53877612298469
 30
0.0
 10
83.7060563335079
 20
92.50002215075467
 30
0.0
 10
83.51441070998727
 20
92.46365439147614
 30
0.0
 10
83.32270530490682
 20
92.4272752877101
 30
0.0
 10
83.13076635284786
 20
92.39328103694255
 30
0.0
 10
82.93864170577706
 20
92.36163291155135
 30
0.0
  0
ELLIPSE
  5
153
330
1F
100
AcDbEntity
  8
0
  6
HIDDEN
 62
     7
370
     0
100
AcDbEllipse
 10
78.6962098353
 20
108.4319879022
 30
0.0
 11
20.19992453366626
 21
-1.421085471520200E-14
 31
0.0
210
0.0
220
0.0
230
1.0
 40
0.8164965809
 41
1.300566354718001
 42
1.359198697209606
  0
LINE
  5
154
330
1F
100
AcDbEntity
  8
0
  6
HIDDEN
 62
     7
370
     0
100
AcDbLine
 10
93.0386414833
 20
90.4419873563
 30
0.0
 11
93.0386414833
 21
92.144474825
 31
0.0
  0
LINE
  5
155
330
1F
100
AcDbEntity
  8
0
  6
HIDDEN
 62
     7
370
     0
100
AcDbLine
 10
84.0886408545
 20
90.4419873563
 30
0.0
 11
84.0886408545
 21
92.5799556729
 31
0.0
  0
LINE
  5
156
330
1F
100
AcDbEntity
  8
0
  6
HIDDEN
 62
     7
370
     0
100
AcDbLine
 10
84.1696733691
 20
92.6304966864
 30
0.0
 11
84.0886408545
 21
92.5799556729
 31
0.0
  0
LINE
  5
157
330
1F
100
AcDbEntity
  8
0
  6
HIDDEN
 62
     7
370
     0
100
AcDbLine
 10
89.0386408277
 20
126.4219884482
 30
0.0
 11
89.0386408277
 21
124.7195009795
 31
0.0
  0
LINE
  5
158
330
1F
100
AcDbEntity
  8
0
  6
HIDDEN
 62
     7
370
     0
100
AcDbLine
 10
84.0886408545
 20
126.4219884482
 30
0.0
 11
84.0886408545
 21
124.3266132382
 31
0.0
  0
SPLINE
  5
159
330
1F
100
AcDbEntity
  8
0
  6
HIDDEN
 62
     7
370
     0
100
AcDbSpline
210
0.0
220
0.0
230
1.0
 70
     8
 71
     3
 72
     8
 73
     4
 74
     0
 42
0.00000001
 43
0.00000001
 40
0.0
 40
0.0
 40
0.0
 40
0.0
 40
1.0
 40
1.0
 40
1.0
 40
1.0
 10
84.08864170387874
 20
124.3266123533052
 30
0.0
 10
84.13864720282247
 20
124.2955765790861
 30
0.0
 10
84.18864727348688
 20
124.2645319340585
 30
0.0
 10
84.238641707272
 20
124.2334783382782
 30
0.0
  0
LINE
  5
15A
330
1F
100
AcDbEntity
  8
0
  6
HIDDEN
 62
     7
370
     0
100
AcDbLine
 10
180.0562931307
 20
108.4319879022
 30
0.0
 11
180.0562931307
 21
105.9319879581
 31
0.0
  0
LINE
  5
15B
330
1F
100
AcDbEntity
  8
0
  6
HIDDEN
 62
     7
370
     0
100
AcDbLine
 10
180.0562931307
 20
110.9319878464
 30
0.0
 11
180.0562931307
 21
108.4319879022
 31
0.0
  0
LINE
  5
15C
330
1F
100
AcDbEntity
  8
0
  6
HIDDEN
 62
     7
370
     0
100
AcDbLine
 10
181.3386423595
 20
108.4319879022
 30
0.0
 11
181.3386423595
 21
103.181987973
 31
0.0
  0
LINE
  5
15D
330
1F
100
AcDbEntity
  8
0
  6
HIDDEN
 62
     7
370
     0
100
AcDbLine
 10
181.3386423595
 20
113.6819878315
 30
0.0
 11
181.3386423595
 21
108.4319879022
 31
0.0
  0
SPLINE
  5
15E
330
1F
100
AcDbEntity
  8
0
  6
HIDDEN
 62
     7
370
     0
100
AcDbSpline
210
0.0
220
0.0
230
1.0
 70
     8
 71
     3
 72
    20
 73
    16
 74
     0
 42
0.00000001
 43
0.00000001
 40
0.0
 40
0.0
 40
0.0
 40
0.0
 40
0.1119047131391997
 40
0.1774237759187677
 40
0.249045182000478
 40
0.3297934729641053
 40
0.3985657157866013
 40
0.4998452487670721
 40
0.6138101537052891
 40
0.6789759255803763
 40
0.7495022876460571
 40
0.8296480952741794
 40
0.8980916303924045
 40
0.9995018217249522
 40
1.0
 40
1.0
 40
1.0
 40
1.0
 10
109.5873640000869
 20
84.83202612968547
 30
0.0
 10
109.5440566872381
 20
84.84544873952781
 30
0.0
 10
109.4753933865157
 20
84.86673014988224
 30
0.0
 10
109.0302999294073
 20
84.97002494238927
 30
0.0
 10
108.503745729363
 20
85.0833242325131
 30
0.0
 10
107.818319391493
 20
85.20625917014235
 30
0.0
 10
106.9250025591572
 20
85.32829378083284
 30
0.0
 10
105.8116428017109
 20
85.44602945990208
 30
0.0
 10
104.7008686177108
 20
85.45800327037809
 30
0.0
 10
103.8161205606854
 20
85.43094785969677
 30
0.0
 10
103.1489234681256
 20
85.38301433306091
 30
0.0
 10
102.6076523529402
 20
85.32671910837122
 30
0.0
 10
102.2200671066965
 20
85.28164025073008
 30
0.0
 10
102.026113383362
 20
85.24275313913729
 30
0.0
 10
102.0892747455905
 20
85.25347726364086
 30
0.0
 10
102.0895835094203
 20
85.2535296884404
 30
0.0
  0
LINE
  5
15F
330
1F
100
AcDbEntity
  8
0
  6
HIDDEN
 62
     7
370
     0
100
AcDbLine
 10
102.9986539938
 20
85.3643254099
 30
0.0
 11
103.1824989326
 21
85.3825160024
 31
0.0
  0
SPLINE
  5
160
330
1F
100
AcDbEntity
  8
0
  6
HIDDEN
 62
     7
370
     0
100
AcDbSpline
210
0.0
220
0.0
230
1.0
 70
     8
 71
     3
 72
    27
 73
    23
 74
     0
 42
0.00000001
 43
0.00000001
 40
0.0
 40
0.0
 40
0.0
 40
0.0
 40
0.0007884407193624
 40
0.0456707455746795
 40
0.1022521499851523
 40
0.1705299244336915
 40
0.2091214038242543
 40
0.2506484516953882
 40
0.3210938856948646
 40
0.3861873374545791
 40
0.4266663227110686
 40
0.464797408866654
 40
0.5006015076826779
 40
0.5451931321096497
 40
0.6016871232775184
 40
0.6700927427666772
 40
0.7088299320451624
 40
0.7505584753452949
 40
0.8222227385308296
 40
0.8877618471766348
 40
0.9472353326374976
 40
1.0
 40
1.0
 40
1.0
 40
1.0
 10
102.0892938680995
 20
131.6104051378594
 30
0.0
 10
102.0890771704464
 20
131.610451877291
 30
0.0
 10
102.0765248717869
 20
131.6131592776517
 30
0.0
 10
102.1256054756629
 20
131.6013224324975
 30
0.0
 10
102.2707035150696
 20
131.5778852460432
 30
0.0
 10
102.5437575297332
 20
131.5439765394837
 30
0.0
 10
102.8722830918219
 20
131.5104088769924
 30
0.0
 10
103.2650111258279
 20
131.4722258614189
 30
0.0
 10
103.8147389117592
 20
131.4332577693947
 30
0.0
 10
104.4407615464268
 20
131.4137961426486
 30
0.0
 10
104.9839533864003
 20
131.411610986243
 30
0.0
 10
105.4290221358126
 20
131.4201257075756
 30
0.0
 10
105.8954699902662
 20
131.439909257731
 30
0.0
 10
106.432710915993
 20
131.4840691395031
 30
0.0
 10
107.0809238849273
 20
131.5564889745096
 30
0.0
 10
107.6664630324535
 20
131.6373866345722
 30
0.0
 10
108.1474321702621
 20
131.7155559914567
 30
0.0
 10
108.5928472799356
 20
131.8003265687632
 30
0.0
 10
109.0313466514451
 20
131.8941112129559
 30
0.0
 10
109.3703740300001
 20
131.9720139119518
 30
0.0
 10
109.5577330123989
 20
132.0222104052223
 30
0.0
 10
109.5782237146256
 20
132.0288770585676
 30
0.0
 10
109.5878566697289
 20
132.0320111420976
 30
0.0
  0
LINE
  5
161
330
1F
100
AcDbEntity
  8
0
  6
HIDDEN
 62
     7
370
     0
100
AcDbLine
 10
144.9386408635
 20
104.231988052
 30
0.0
 11
144.9386408635
 21
112.6319877525
 31
0.0
  0
LINE
  5
162
330
1F
100
AcDbEntity
  8
0
  6
HIDDEN
 62
     7
370
     0
100
AcDbLine
 10
145.4193299718
 20
105.0319878572
 30
0.0
 11
145.4193299718
 21
111.8319879473
 31
0.0
  0
LINE
  5
163
330
1F
100
AcDbEntity
  8
0
  6
HIDDEN
 62
     7
370
     0
100
AcDbLine
 10
162.9386400886
 20
105.0319878572
 30
0.0
 11
162.9386400886
 21
111.8319879473
 31
0.0
  0
LINE
  5
164
330
1F
100
AcDbEntity
  8
0
  6
HIDDEN
 62
     7
370
     0
100
AcDbLine
 10
163.4794144042
 20
105.9319879581
 30
0.0
 11
163.4794144042
 21
110.9319878464
 31
0.0
  0
SPLINE
  5
165
330
1F
100
AcDbEntity
  8
0
  6
HIDDEN
 62
     7
370
     0
100
AcDbSpline
210
0.0
220
0.0
230
1.0
 70
     8
 71
     3
 72
    10
 73
     6
 74
     0
 42
0.00000001
 43
0.00000001
 40
0.0
 40
0.0
 40
0.0
 40
0.0
 40
0.4419963418943856
 40
0.8461773112422046
 40
1.0
 40
1.0
 40
1.0
 40
1.0
 10
150.5784100003589
 20
96.91292184414728
 30
0.0
 10
150.7441208299173
 20
96.96720530083522
 30
0.0
 10
151.061364958225
 20
97.0711279469555
 30
0.0
 10
151.4777641962244
 20
97.18521588548806
 30
0.0
 10
151.7145352062754
 20
97.22243436989538
 30
0.0
 10
151.779804945742
 20
97.23269424410923
 30
0.0
  0
SPLINE
  5
166
330
1F
100
AcDbEntity
  8
0
  6
HIDDEN
 62
     7
370
     0
100
AcDbSpline
210
0.0
220
0.0
230
1.0
 70
     8
 71
     3
 72
    20
 73
    16
 74
     0
 42
0.00000001
 43
0.00000001
 40
0.0
 40
0.0
 40
0.0
 40
0.0
 40
0.0892720250249878
 40
0.2124081742763032
 40
0.2740909830935005
 40
0.3362831551676639
 40
0.3970173221246496
 40
0.4593419021465232
 40
0.5633065923245645
 40
0.630987866733157
 40
0.7121571531981418
 40
0.7856385875228834
 40
0.8484135256180367
 40
0.9581254648402558
 40
1.0
 40
1.0
 40
1.0
 40
1.0
 10
154.2575849302162
 20
97.30788270952566
 30
0.0
 10
154.249172770765
 20
97.30872392320194
 30
0.0
 10
154.2291574139917
 20
97.31072545348098
 30
0.0
 10
153.8457724269017
 20
97.36080555481185
 30
0.0
 10
153.3804772147112
 20
97.38780705446197
 30
0.0
 10
152.9656068062487
 20
97.38586892435124
 30
0.0
 10
152.5053470154223
 20
97.35621950966
 30
0.0
 10
151.9108328991774
 20
97.27853164475823
 30
0.0
 10
151.29088992265
 20
97.13444913188567
 30
0.0
 10
150.6753690273801
 20
96.9481626963298
 30
0.0
 10
150.1924584851077
 20
96.77121672877465
 30
0.0
 10
149.8020432205691
 20
96.60813038881128
 30
0.0
 10
149.4676660676921
 20
96.45062057549501
 30
0.0
 10
149.2874369253252
 20
96.35876304385897
 30
0.0
 10
149.2975159131489
 20
96.36409340331261
 30
0.0
 10
149.3003001518596
 20
96.36556587191684
 30
0.0
  0
SPLINE
  5
167
330
1F
100
AcDbEntity
  8
0
  6
HIDDEN
 62
     7
370
     0
100
AcDbSpline
210
0.0
220
0.0
230
1.0
 70
     8
 71
     3
 72
    10
 73
     6
 74
     0
 42
0.00000001
 43
0.00000001
 40
0.0
 40
0.0
 40
0.0
 40
0.0
 40
0.1520780421917459
 40
0.5320493628415796
 40
1.0
 40
1.0
 40
1.0
 40
1.0
 10
149.6588965959896
 20
96.53904705318077
 30
0.0
 10
149.686935267571
 20
96.55292141608558
 30
0.0
 10
149.785029358834
 20
96.60146126994584
 30
0.0
 10
150.0986586353951
 20
96.73739725453157
 30
0.0
 10
150.407800810859
 20
96.85050178626189
 30
0.0
 10
150.5784100003589
 20
96.91292184414728
 30
0.0
  0
SPLINE
  5
168
330
1F
100
AcDbEntity
  8
0
  6
HIDDEN
 62
     7
370
     0
100
AcDbSpline
210
0.0
220
0.0
230
1.0
 70
     8
 71
     3
 72
    10
 73
     6
 74
     0
 42
0.00000001
 43
0.00000001
 40
0.0
 40
0.0
 40
0.0
 40
0.0
 40
0.3837470097489574
 40
0.7274053617161116
 40
1.0
 40
1.0
 40
1.0
 40
1.0
 10
150.2346625633587
 20
120.0800393429623
 30
0.0
 10
150.0959624828574
 20
120.1363130776463
 30
0.0
 10
149.8330518160276
 20
120.2429818341265
 30
0.0
 10
149.5446878771024
 20
120.3738944052215
 30
0.0
 10
149.4695299420247
 20
120.4140993562084
 30
0.0
 10
149.4362844236244
 20
120.4318836984263
 30
0.0
  0
SPLINE
  5
169
330
1F
100
AcDbEntity
  8
0
  6
HIDDEN
 62
     7
370
     0
100
AcDbSpline
210
0.0
220
0.0
230
1.0
 70
     8
 71
     3
 72
    20
 73
    16
 74
     0
 42
0.00000001
 43
0.00000001
 40
0.0
 40
0.0
 40
0.0
 40
0.0
 40
0.0271888202908979
 40
0.0873128390810102
 40
0.1510941894762727
 40
0.2189195398328125
 40
0.3441061200022124
 40
0.4692243762810411
 40
0.5301827799904746
 40
0.591801624685066
 40
0.6543355299965791
 40
0.7180288900820465
 40
0.8416165414649577
 40
0.9650940582226523
 40
1.0
 40
1.0
 40
1.0
 40
1.0
 10
149.2996705777992
 20
120.5008984264956
 30
0.0
 10
149.2958453156603
 20
120.5025983308581
 30
0.0
 10
149.2835610571304
 20
120.5080573200479
 30
0.0
 10
149.3596669282642
 20
120.4675464342338
 30
0.0
 10
149.5329031781594
 20
120.3850880861151
 30
0.0
 10
149.8912234710543
 20
120.2195521325473
 30
0.0
 10
150.517506393203
 20
119.9590463691412
 30
0.0
 10
151.2894797241369
 20
119.7184995553026
 30
0.0
 10
151.9385648227373
 20
119.5848635498298
 30
0.0
 10
152.4244394163367
 20
119.5178311025407
 30
0.0
 10
152.8952511710657
 20
119.4805197768739
 30
0.0
 10
153.4661288974907
 20
119.4751258509598
 30
0.0
 10
154.0072241486781
 20
119.5171469048591
 30
0.0
 10
154.2978033240912
 20
119.5656151817832
 30
0.0
 10
154.2666733514143
 20
119.5579668326771
 30
0.0
 10
154.2598126538147
 20
119.5562812221275
 30
0.0
  0
LINE
  5
16A
330
1F
100
AcDbEntity
  8
0
  6
HIDDEN
 62
     7
370
     0
100
AcDbLine
 10
150.4219440825
 20
120.01306328
 30
0.0
 11
150.2346625634
 21
120.080039343
 31
0.0
  0
LINE
  5
16B
330
1F
100
AcDbEntity
  8
0
  6
HIDDEN
 62
     7
370
     0
100
AcDbLine
 10
151.7886413343
 20
102.4830033724
 30
0.0
 11
154.2886426754
 21
102.4830033724
 31
0.0
  0
LINE
  5
16C
330
1F
100
AcDbEntity
  8
0
  6
HIDDEN
 62
     7
370
     0
100
AcDbLine
 10
149.2886399932
 20
102.4830033724
 30
0.0
 11
151.7886413343
 21
102.4830033724
 31
0.0
  0
LINE
  5
16D
330
1F
100
AcDbEntity
  8
0
  6
HIDDEN
 62
     7
370
     0
100
AcDbLine
 10
154.2886426754
 20
114.3809724321
 30
0.0
 11
149.2886399932
 21
114.3809724321
 31
0.0
  0
LINE
  5
16E
330
1F
100
AcDbEntity
  8
0
  6
HIDDEN
 62
     7
370
     0
100
AcDbLine
 10
151.7886413343
 20
105.9319879581
 30
0.0
 11
152.1169995971
 21
105.9536456318
 31
0.0
  0
ARC
  5
16F
330
1F
100
AcDbEntity
  8
0
  6
HIDDEN
 62
     7
370
     0
100
AcDbCircle
 10
151.7886417039
 20
108.4319879022
 30
0.0
 40
2.500000000000005
100
AcDbArc
 50
117.5355680917
 51
140.7649365495
  0
LINE
  5
170
330
1F
100
AcDbEntity
  8
0
  6
HIDDEN
 62
     7
370
     0
100
AcDbLine
 10
151.6366755672
 20
105.9366108106
 30
0.0
 11
151.7886413343
 21
105.9319879581
 31
0.0
  0
SPLINE
  5
171
330
1F
100
AcDbEntity
  8
0
  6
HIDDEN
 62
     7
370
     0
100
AcDbSpline
210
0.0
220
0.0
230
1.0
 70
     8
 71
     3
 72
     8
 73
     4
 74
     0
 42
0.00000001
 43
0.00000001
 40
0.0
 40
0.0
 40
0.0
 40
0.0
 40
0.0001590976953428
 40
0.0001590976953428
 40
0.0001590976953428
 40
0.0001590976953428
 10
84.22380971309656
 20
92.63049746621489
 30
0.0
 10
84.17875824259227
 20
92.60251858189116
 30
0.0
 10
84.13370220417754
 20
92.57454705151612
 30
0.0
 10
84.08864170387875
 20
92.54658271216366
 30
0.0
  0
SPLINE
  5
172
330
1F
100
AcDbEntity
  8
0
  6
HIDDEN
 62
     7
370
     0
100
AcDbSpline
210
0.0
220
0.0
230
1.0
 70
     8
 71
     3
 72
    11
 73
     7
 74
     0
 42
0.00000001
 43
0.00000001
 40
0.0
 40
0.0
 40
0.0
 40
0.0
 40
0.0008212909311457
 40
0.0008212909311457
 40
0.0008212909311457
 40
0.001642825724306
 40
0.001642825724306
 40
0.001642825724306
 40
0.001642825724306
 10
84.08864170387874
 20
92.54658271216363
 30
0.0
 10
83.89749668239655
 20
92.50329652331106
 30
0.0
 10
83.70607834672006
 20
92.46236001367376
 30
0.0
 10
83.5144322720589
 20
92.42375824228716
 30
0.0
 10
83.32272919051731
 20
92.38514498845005
 30
0.0
 10
83.13078406723182
 20
92.34886477916402
 30
0.0
 10
82.93864170387864
 20
92.3148978728125
 30
0.0
  0
LINE
  5
173
330
1F
100
AcDbEntity
  8
0
  6
HIDDEN
 62
     7
370
     0
100
AcDbLine
 10
130.9286417522
 20
128.5678543803
 30
0.0
 11
130.9286417522
 21
128.2819886413
 31
0.0
  0
LINE
  5
174
330
1F
100
AcDbEntity
  8
0
  6
HIDDEN
 62
     7
370
     0
100
AcDbLine
 10
134.7486419685
 20
128.6103748438
 30
0.0
 11
134.7486419685
 21
128.2819886413
 31
0.0
  0
LINE
  5
175
330
1F
100
AcDbEntity
  8
0
  6
HIDDEN
 62
     7
370
     0
100
AcDbLine
 10
136.2305736251
 20
132.8906775174
 30
0.0
 11
136.2305736251
 21
128.2819886413
 31
0.0
  0
SPLINE
  5
176
330
1F
100
AcDbEntity
  8
0
  6
HIDDEN
 62
     7
370
     0
100
AcDbSpline
210
0.0
220
0.0
230
1.0
 70
     8
 71
     3
 72
    24
 73
    20
 74
     0
 42
0.00000001
 43
0.00000001
 40
0.0
 40
0.0
 40
0.0
 40
0.0
 40
0.25
 40
0.25
 40
0.374999999999999
 40
0.374999999999999
 40
0.4374999999999993
 40
0.4374999999999993
 40
0.4687499999999994
 40
0.4687499999999994
 40
0.4999999999999995
 40
0.4999999999999995
 40
0.5624999999999971
 40
0.5624999999999971
 40
0.6249999999999947
 40
0.6249999999999947
 40
0.7499999999999947
 40
0.7499999999999947
 40
1.0
 40
1.0
 40
1.0
 40
1.0
 10
83.00130507860214
 20
88.75743535746581
 30
0.0
 10
83.01505819727237
 20
88.82808541545609
 30
0.0
 10
83.03283076467824
 20
88.89468352822102
 30
0.0
 10
83.08508185623359
 20
88.96878154845422
 30
0.0
 10
83.10611693181517
 20
88.99003935561578
 30
0.0
 10
83.15901733944358
 20
88.99818528176202
 30
0.0
 10
83.1801230123215
 20
88.99724547836625
 30
0.0
 10
83.22617518099948
 20
88.97622948678891
 30
0.0
 10
83.24454565298286
 20
88.96532068068129
 30
0.0
 10
83.28609728804857
 20
88.93268576973392
 30
0.0
 10
83.30866396080548
 20
88.91119378936254
 30
0.0
 10
83.3714449772655
 20
88.84272784577624
 30
0.0
 10
83.4045747382334
 20
88.79665338757114
 30
0.0
 10
83.4614924247184
 20
88.71164549923648
 30
0.0
 10
83.48567845022217
 20
88.6713651980551
 30
0.0
 10
83.55088640060193
 20
88.55642897158914
 30
0.0
 10
83.58560246079318
 20
88.48584598644214
 30
0.0
 10
83.67881773112407
 20
88.28164022736354
 30
0.0
 10
83.72449026648474
 20
88.15874184503618
 30
0.0
 10
83.76279534998328
 20
88.0418685686486
 30
0.0
  0
SPLINE
  5
177
330
1F
100
AcDbEntity
  8
0
  6
HIDDEN
 62
     7
370
     0
100
AcDbSpline
210
0.0
220
0.0
230
1.0
 70
     8
 71
     3
 72
    11
 73
     7
 74
     0
 42
0.00000001
 43
0.00000001
 40
0.0
 40
0.0
 40
0.0
 40
0.0
 40
0.000578186222398
 40
0.000578186222398
 40
0.000578186222398
 40
0.0011563724723931
 40
0.0011563724723931
 40
0.0011563724723931
 40
0.0011563724723931
 10
83.93864170387901
 20
121.0721302092982
 30
0.0
 10
83.77198114960335
 20
121.1366597207118
 30
0.0
 10
83.60531785269684
 20
121.2011624245507
 30
0.0
 10
83.43865126886654
 20
121.2656488729843
 30
0.0
 10
83.27198467660742
 20
121.3301353246792
 30
0.0
 10
83.1053148109815
 20
121.3946053334073
 30
0.0
 10
82.93864170387872
 20
121.4590611001399
 30
0.0
  0
SPLINE
  5
178
330
1F
100
AcDbEntity
  8
0
  6
HIDDEN
 62
     7
370
     0
100
AcDbSpline
210
0.0
220
0.0
230
1.0
 70
     8
 71
     3
 72
    11
 73
     7
 74
     0
 42
0.00000001
 43
0.00000001
 40
0.0
 40
0.0
 40
0.0
 40
0.0
 40
0.0005778746105108
 40
0.0005778746105108
 40
0.0005778746105108
 40
0.0011557494857227
 40
0.0011557494857227
 40
0.0011557494857227
 40
0.0011557494857227
 10
82.93864170387872
 20
95.40476604675666
 30
0.0
 10
83.10530858029205
 20
95.47057817345048
 30
0.0
 10
83.27197529985352
 20
95.5364366535881
 30
0.0
 10
83.43864194790217
 20
95.6023442265187
 30
0.0
 10
83.60530867242083
 20
95.66825182968901
 30
0.0
 10
83.7719753668414
 20
95.73420893807744
 30
0.0
 10
83.93864170387873
 20
95.80021067800013
 30
0.0
  0
SPLINE
  5
179
330
1F
100
AcDbEntity
  8
0
  6
HIDDEN
 62
     7
370
     0
100
AcDbSpline
210
0.0
220
0.0
230
1.0
 70
     8
 71
     3
 72
    11
 73
     7
 74
     0
 42
0.00000001
 43
0.00000001
 40
0.0000000000000007
 40
0.0000000000000007
 40
0.0000000000000007
 40
0.0000000000000007
 40
0.0005780486062768
 40
0.0005780486062768
 40
0.0005780486062768
 40
0.0011560973514127
 40
0.0011560973514127
 40
0.0011560973514127
 40
0.0011560973514127
 10
82.93864170387872
 20
118.4128024039384
 30
0.0
 10
83.10531155992362
 20
118.3504305424238
 30
0.0
 10
83.27197926400788
 20
118.2880766821261
 30
0.0
 10
83.43864556846154
 20
118.2257571219399
 30
0.0
 10
83.60531190915526
 20
118.163437548203
 30
0.0
 10
83.77197686578405
 20
118.1011523438834
 30
0.0
 10
83.93864170387874
 20
118.0389272233147
 30
0.0
  0
SPLINE
  5
17A
330
1F
100
AcDbEntity
  8
0
  6
HIDDEN
 62
     7
370
     0
100
AcDbSpline
210
0.0
220
0.0
230
1.0
 70
     8
 71
     3
 72
    11
 73
     7
 74
     0
 42
0.00000001
 43
0.00000001
 40
0.0
 40
0.0
 40
0.0
 40
0.0
 40
0.0005782401583533
 40
0.0005782401583533
 40
0.0005782401583533
 40
0.0011564805960992
 40
0.0011564805960992
 40
0.0011564805960992
 40
0.0011564805960992
 10
83.93864170387873
 20
98.83116110984905
 30
0.0
 10
83.77199075352982
 20
98.76773565178823
 30
0.0
 10
83.60533116094717
 20
98.7043801281329
 30
0.0
 10
83.43866410851864
 20
98.64108254378289
 30
0.0
 10
83.2719969719548
 20
98.5777849274796
 30
0.0
 10
83.10532236450874
 20
98.51454513253883
 30
0.0
 10
82.93864170387867
 20
98.45134512589993
 30
0.0
  0
CIRCLE
  5
17B
330
1F
100
AcDbEntity
  8
0
  6
HIDDEN
 62
     7
370
     0
100
AcDbCircle
 10
121.8386417039
 20
108.4319879022
 30
0.0
 40
5.0
  0
LINE
  5
17C
330
1F
100
AcDbEntity
  8
0
  6
HIDDEN
 62
     7
370
     0
100
AcDbLine
 10
179.5562921174
 20
105.4319878762
 30
0.0
 11
180.0562931307
 21
105.9319879581
 31
0.0
  0
LINE
  5
17D
330
1F
100
AcDbEntity
  8
0
  6
HIDDEN
 62
     7
370
     0
100
AcDbLine
 10
180.0562931307
 20
110.9319878464
 30
0.0
 11
179.5562921174
 21
111.4319879283
 31
0.0
  0
LINE
  5
17E
330
1F
100
AcDbEntity
  8
0
  6
HIDDEN
 62
     7
370
     0
100
AcDbLine
 10
167.0562965877
 20
105.4319878762
 30
0.0
 11
179.5562921174
 21
105.4319878762
 31
0.0
  0
LINE
  5
17F
330
1F
100
AcDbEntity
  8
0
  6
HIDDEN
 62
     7
370
     0
100
AcDbLine
 10
179.5562921174
 20
111.4319879283
 30
0.0
 11
167.0562965877
 21
111.4319879283
 31
0.0
  0
LINE
  5
180
330
1F
100
AcDbEntity
  8
0
  6
HIDDEN
 62
     7
370
     0
100
AcDbLine
 10
167.0562965877
 20
111.4319879283
 30
0.0
 11
166.5562955745
 21
110.9319878464
 31
0.0
  0
LINE
  5
181
330
1F
100
AcDbEntity
  8
0
  6
HIDDEN
 62
     7
370
     0
100
AcDbLine
 10
166.5562955745
 20
105.9319879581
 30
0.0
 11
167.0562965877
 21
105.4319878762
 31
0.0
  0
LINE
  5
182
330
1F
100
AcDbEntity
  8
0
  6
HIDDEN
 62
     7
370
     0
100
AcDbLine
 10
180.0562931307
 20
105.9319879581
 30
0.0
 11
182.5562981971
 21
105.9319879581
 31
0.0
  0
LINE
  5
183
330
1F
100
AcDbEntity
  8
0
  6
HIDDEN
 62
     7
370
     0
100
AcDbLine
 10
182.5562981971
 20
110.9319878464
 30
0.0
 11
180.0562931307
 21
110.9319878464
 31
0.0
  0
LINE
  5
184
330
1F
100
AcDbEntity
  8
0
  6
HIDDEN
 62
     7
370
     0
100
AcDbLine
 10
171.0562972434
 20
106.9319878892
 30
0.0
 11
178.0562965281
 21
106.9319878892
 31
0.0
  0
LINE
  5
185
330
1F
100
AcDbEntity
  8
0
  6
HIDDEN
 62
     7
370
     0
100
AcDbLine
 10
178.0562965281
 20
109.9319879153
 30
0.0
 11
171.0562972434
 21
109.9319879153
 31
0.0
  0
LINE
  5
186
330
1F
100
AcDbEntity
  8
0
  6
HIDDEN
 62
     7
370
     0
100
AcDbLine
 10
205.4386405356
 20
98.4319881258
 30
0.0
 11
207.6386405237
 21
98.4319881258
 31
0.0
  0
LINE
  5
187
330
1F
100
AcDbEntity
  8
0
  6
HIDDEN
 62
     7
370
     0
100
AcDbLine
 10
207.6386405237
 20
118.4319876787
 30
0.0
 11
205.4386405356
 21
118.4319876787
 31
0.0
  0
ARC
  5
188
330
1F
100
AcDbEntity
  8
0
  6
HIDDEN
 62
     7
370
     0
100
AcDbCircle
 10
207.6386417039
 20
99.2319879022
 30
0.0
 40
0.8000000000000114
100
AcDbArc
 50
270.0
 51
0.0
  0
ARC
  5
189
330
1F
100
AcDbEntity
  8
0
  6
HIDDEN
 62
     7
370
     0
100
AcDbCircle
 10
207.6386417039
 20
117.6319879022
 30
0.0
 40
0.8000000000000114
100
AcDbArc
 50
0.0
 51
90.0
  0
LINE
  5
18A
330
1F
100
AcDbEntity
  8
0
  6
HIDDEN
 62
     7
370
     0
100
AcDbLine
 10
205.4386405356
 20
118.4319876787
 30
0.0
 11
203.2941324718
 21
117.4319875148
 31
0.0
  0
LINE
  5
18B
330
1F
100
AcDbEntity
  8
0
  6
HIDDEN
 62
     7
370
     0
100
AcDbLine
 10
203.2941324718
 20
99.4319882897
 30
0.0
 11
205.4386405356
 21
98.4319881258
 31
0.0
  0
LINE
  5
18C
330
1F
100
AcDbEntity
  8
0
  6
HIDDEN
 62
     7
370
     0
100
AcDbLine
 10
196.4386446483
 20
99.4319882897
 30
0.0
 11
203.2941324718
 21
99.4319882897
 31
0.0
  0
LINE
  5
18D
330
1F
100
AcDbEntity
  8
0
  6
HIDDEN
 62
     7
370
     0
100
AcDbLine
 10
203.2941324718
 20
117.4319875148
 30
0.0
 11
196.4386446483
 21
117.4319875148
 31
0.0
  0
ARC
  5
18E
330
1F
100
AcDbEntity
  8
0
  6
HIDDEN
 62
     7
370
     0
100
AcDbCircle
 10
209.6886417039
 20
100.2648081891
 30
0.0
 40
0.4000000000000695
100
AcDbArc
 50
196.2939857749
 51
299.99999741
  0
ARC
  5
18F
330
1F
100
AcDbEntity
  8
0
  6
HIDDEN
 62
     7
370
     0
100
AcDbCircle
 10
209.6886417039
 20
116.5991676154
 30
0.0
 40
0.4000000000000457
100
AcDbArc
 50
60.00000259
 51
163.0661997756
  0
LINE
  5
190
330
1F
100
AcDbEntity
  8
0
  6
HIDDEN
 62
     7
370
     0
100
AcDbLine
 10
209.8886413582
 20
99.9183975813
 30
0.0
 11
213.6360896833
 21
102.081987979
 31
0.0
  0
LINE
  5
191
330
1F
100
AcDbEntity
  8
0
  6
HIDDEN
 62
     7
370
     0
100
AcDbLine
 10
213.6360896833
 20
114.7819878255
 30
0.0
 11
209.8886413582
 21
116.9455782232
 31
0.0
  0
LINE
  5
192
330
1F
100
AcDbEntity
  8
0
  6
HIDDEN
 62
     7
370
     0
100
AcDbLine
 10
208.4386391647
 20
100.1319880319
 30
0.0
 11
209.3173531897
 21
100.1319880319
 31
0.0
  0
LINE
  5
193
330
1F
100
AcDbEntity
  8
0
  6
HIDDEN
 62
     7
370
     0
100
AcDbLine
 10
209.3172488816
 20
116.7319877726
 30
0.0
 11
208.4386391647
 21
116.7319877726
 31
0.0
  0
LINE
  5
194
330
1F
100
AcDbEntity
  8
0
  6
HIDDEN
 62
     7
370
     0
100
AcDbLine
 10
213.6360896833
 20
102.081987979
 30
0.0
 11
214.838643194
 21
102.081987979
 31
0.0
  0
LINE
  5
195
330
1F
100
AcDbEntity
  8
0
  6
HIDDEN
 62
     7
370
     0
100
AcDbLine
 10
214.838643194
 20
114.7819878255
 30
0.0
 11
213.6360896833
 21
114.7819878255
 31
0.0
  0
LINE
  5
196
330
1F
100
AcDbEntity
  8
0
  6
HIDDEN
 62
     7
370
     0
100
AcDbLine
 10
118.8386418939
 20
122.7326527891
 30
0.0
 11
118.8386418939
 21
120.8259281424
 31
0.0
  0
LINE
  5
197
330
1F
100
AcDbEntity
  8
0
  6
HIDDEN
 62
     7
370
     0
100
AcDbLine
 10
126.8386418082
 20
120.8259281424
 30
0.0
 11
126.8386418082
 21
122.7319319454
 31
0.0
  0
LINE
  5
198
330
1F
100
AcDbEntity
  8
0
  6
HIDDEN
 62
     7
370
     0
100
AcDbLine
 10
114.8386417039
 20
83.1080567745
 30
0.0
 11
114.9328024762
 21
83.7780446467
 31
0.0
  0
LINE
  5
199
330
1F
100
AcDbEntity
  8
0
  6
HIDDEN
 62
     7
370
     0
100
AcDbLine
 10
114.9328024762
 20
133.0859311578
 30
0.0
 11
114.8386417039
 21
133.75591903
 31
0.0
  0
ARC
  5
19A
330
1F
100
AcDbEntity
  8
0
  6
HIDDEN
 62
     7
370
     0
100
AcDbCircle
 10
114.3386349512
 20
83.8615502879
 30
0.0
 40
0.6000067526677242
100
AcDbArc
 50
352.0
 51
0.0
  0
ARC
  5
19B
330
1F
100
AcDbEntity
  8
0
  6
HIDDEN
 62
     7
370
     0
100
AcDbCircle
 10
114.3386349512
 20
83.8615502879
 30
0.0
 40
0.6000067526677242
100
AcDbArc
 50
0.0
 51
33.5571153394
  0
ARC
  5
19C
330
1F
100
AcDbEntity
  8
0
  6
HIDDEN
 62
     7
370
     0
100
AcDbCircle
 10
114.3386349512
 20
133.0024255166
 30
0.0
 40
0.6000067526677308
100
AcDbArc
 50
348.75
 51
8.0
  0
LWPOLYLINE
  5
19D
330
1F
100
AcDbEntity
  8
0
  6
HIDDEN
 62
     7
370
     0
100
AcDbPolyline
 90
        3
 70
   128
 43
0.0
 10
114.9271127428
 20
132.8853708413
 10
114.8929689111
 20
132.7728130576
 10
114.8386417039
 20
132.6707605925
  0
LINE
  5
19E
330
1F
100
AcDbEntity
  8
0
  6
HIDDEN
 62
     7
370
     0
100
AcDbLine
 10
114.9386417014
 20
83.861550754
 30
0.0
 11
114.9386417014
 21
133.0024250505
 31
0.0
  0
ARC
  5
19F
330
1F
100
AcDbEntity
  8
0
  6
HIDDEN
 62
     7
370
     0
100
AcDbCircle
 10
97.9210772692
 20
89.0319879022
 30
0.0
 40
0.6000000000000084
100
AcDbArc
 50
210.0
 51
270.0
  0
ARC
  5
1A0
330
1F
100
AcDbEntity
  8
0
  6
HIDDEN
 62
     7
370
     0
100
AcDbCircle
 10
97.9210772692
 20
127.8319879022
 30
0.0
 40
0.6000000000000013
100
AcDbArc
 50
90.0
 51
150.0
  0
ARC
  5
1A1
330
1F
100
AcDbEntity
  8
0
  6
HIDDEN
 62
     7
370
     0
100
AcDbCircle
 10
108.5936437055
 20
96.4319879022
 30
0.0
 40
8.000000000000014
100
AcDbArc
 50
277.0522505187
 51
321.3178125465
  0
ARC
  5
1A2
330
1F
100
AcDbEntity
  8
0
  6
HIDDEN
 62
     7
370
     0
100
AcDbCircle
 10
108.5936437055
 20
120.4319879022
 30
0.0
 40
8.000000000000004
100
AcDbArc
 50
38.6821874535
 51
82.8520060266
  0
LINE
  5
1A3
330
1F
100
AcDbEntity
  8
0
  6
HIDDEN
 62
     7
370
     0
100
AcDbLine
 10
97.921077729
 20
88.4319883493
 30
0.0
 11
102.0986136131
 21
88.4319883493
 31
0.0
  0
LINE
  5
1A4
330
1F
100
AcDbEntity
  8
0
  6
HIDDEN
 62
     7
370
     0
100
AcDbLine
 10
102.091759079
 20
128.4319874552
 30
0.0
 11
97.921077729
 21
128.4319874552
 31
0.0
  0
LINE
  5
1A5
330
1F
100
AcDbEntity
  8
0
  6
HIDDEN
 62
     7
370
     0
100
AcDbLine
 10
97.4014611997
 20
128.1319879648
 30
0.0
 11
95.8426171996
 21
125.4319888261
 31
0.0
  0
LINE
  5
1A6
330
1F
100
AcDbEntity
  8
0
  6
HIDDEN
 62
     7
370
     0
100
AcDbLine
 10
95.8426171996
 20
91.4319869784
 30
0.0
 11
97.4014611997
 21
88.7319878397
 31
0.0
  0
LINE
  5
1A7
330
1F
100
AcDbEntity
  8
0
  6
HIDDEN
 62
     7
370
     0
100
AcDbLine
 10
118.8386418939
 20
135.7116535959
 30
0.0
 11
118.8386418939
 21
132.3775895593
 31
0.0
  0
LINE
  5
1A8
330
1F
100
AcDbEntity
  8
0
  6
HIDDEN
 62
     7
370
     0
100
AcDbLine
 10
126.8386418082
 20
132.3775895593
 30
0.0
 11
126.8386418082
 21
135.7063208428
 31
0.0
  0
ARC
  5
1A9
330
1F
100
AcDbEntity
  8
0
  6
HIDDEN
 62
     7
370
     0
100
AcDbCircle
 10
123.2886417039
 20
92.7069879022
 30
0.0
 40
1.500000000000001
100
AcDbArc
 50
238.2116693829
 51
0.0
  0
ARC
  5
1AA
330
1F
100
AcDbEntity
  8
0
  6
HIDDEN
 62
     7
370
     0
100
AcDbCircle
 10
123.2886417039
 20
124.1569879022
 30
0.0
 40
1.5
100
AcDbArc
 50
0.0
 51
121.7883306171
  0
LINE
  5
1AB
330
1F
100
AcDbEntity
  8
0
  6
HIDDEN
 62
     7
370
     0
100
AcDbLine
 10
114.8386417039
 20
91.4319869784
 30
0.0
 11
122.4984676659
 21
91.4319869784
 31
0.0
  0
LINE
  5
1AC
330
1F
100
AcDbEntity
  8
0
  6
HIDDEN
 62
     7
370
     0
100
AcDbLine
 10
122.4984676659
 20
125.4319888261
 30
0.0
 11
114.8386417039
 21
125.4319888261
 31
0.0
  0
LINE
  5
1AD
330
1F
100
AcDbEntity
  8
0
  6
HIDDEN
 62
     7
370
     0
100
AcDbLine
 10
93.0386414833
 20
91.4319869784
 30
0.0
 11
95.8426171996
 21
91.4319869784
 31
0.0
  0
LINE
  5
1AE
330
1F
100
AcDbEntity
  8
0
  6
HIDDEN
 62
     7
370
     0
100
AcDbLine
 10
95.8426171996
 20
125.4319888261
 30
0.0
 11
89.0386408277
 21
125.4319888261
 31
0.0
  0
LINE
  5
1AF
330
1F
100
AcDbEntity
  8
0
  6
HIDDEN
 62
     7
370
     0
100
AcDbLine
 10
196.4386446483
 20
98.9319882077
 30
0.0
 11
202.838641227
 21
98.9319882077
 31
0.0
  0
LINE
  5
1B0
330
1F
100
AcDbEntity
  8
0
  6
HIDDEN
 62
     7
370
     0
100
AcDbLine
 10
202.838641227
 20
117.9319875968
 30
0.0
 11
196.4386446483
 21
117.9319875968
 31
0.0
  0
LINE
  5
1B1
330
1F
100
AcDbEntity
  8
0
  6
HIDDEN
 62
     7
370
     0
100
AcDbLine
 10
202.838641227
 20
98.9319882077
 30
0.0
 11
203.3386422403
 21
99.4319882897
 31
0.0
  0
LINE
  5
1B2
330
1F
100
AcDbEntity
  8
0
  6
HIDDEN
 62
     7
370
     0
100
AcDbLine
 10
203.3386422403
 20
117.4319875148
 30
0.0
 11
202.838641227
 21
117.9319875968
 31
0.0
  0
LINE
  5
1B3
330
1F
100
AcDbEntity
  8
0
  6
HIDDEN
 62
     7
370
     0
100
AcDbLine
 10
133.6386414327
 20
98.9319882077
 30
0.0
 11
136.6386419244
 21
98.9319882077
 31
0.0
  0
LINE
  5
1B4
330
1F
100
AcDbEntity
  8
0
  6
HIDDEN
 62
     7
370
     0
100
AcDbLine
 10
136.6386419244
 20
117.9319875968
 30
0.0
 11
133.6386414327
 21
117.9319875968
 31
0.0
  0
LINE
  5
1B5
330
1F
100
AcDbEntity
  8
0
  6
HIDDEN
 62
     7
370
     0
100
AcDbLine
 10
124.7886415653
 20
99.4319882897
 30
0.0
 11
125.2886416473
 21
99.9319874403
 31
0.0
  0
LINE
  5
1B6
330
1F
100
AcDbEntity
  8
0
  6
HIDDEN
 62
     7
370
     0
100
AcDbLine
 10
125.2886416473
 20
116.9319883642
 30
0.0
 11
124.7886415653
 21
117.4319875148
 31
0.0
  0
ARC
  5
1B7
330
1F
100
AcDbEntity
  8
0
  6
HIDDEN
 62
     7
370
     0
100
AcDbCircle
 10
202.7386417039
 20
116.9535599449
 30
0.0
 40
0.5999999999999992
100
AcDbArc
 50
278.0
 51
0.0
  0
ARC
  5
1B8
330
1F
100
AcDbEntity
  8
0
  6
HIDDEN
 62
     7
370
     0
100
AcDbCircle
 10
202.7386417039
 20
99.9104158596
 30
0.0
 40
0.5999999999999992
100
AcDbArc
 50
0.0
 51
82.0
  0
LINE
  5
1B9
330
1F
100
AcDbEntity
  8
0
  6
HIDDEN
 62
     7
370
     0
100
AcDbLine
 10
125.2886416473
 20
99.9319874403
 30
0.0
 11
133.6386414327
 21
99.9319874403
 31
0.0
  0
LINE
  5
1BA
330
1F
100
AcDbEntity
  8
0
  6
HIDDEN
 62
     7
370
     0
100
AcDbLine
 10
133.6386414327
 20
116.9319883642
 30
0.0
 11
125.2886416473
 21
116.9319883642
 31
0.0
  0
LINE
  5
1BB
330
1F
100
AcDbEntity
  8
0
  6
HIDDEN
 62
     7
370
     0
100
AcDbLine
 10
119.7886416771
 20
139.9319884089
 30
0.0
 11
119.7886416771
 21
134.8319877592
 31
0.0
  0
LINE
  5
1BC
330
1F
100
AcDbEntity
  8
0
  6
HIDDEN
 62
     7
370
     0
100
AcDbLine
 10
202.8221456416
 20
116.3593991381
 30
0.0
 11
183.7713761337
 21
113.6819878315
 31
0.0
  0
LINE
  5
1BD
330
1F
100
AcDbEntity
  8
0
  6
HIDDEN
 62
     7
370
     0
100
AcDbLine
 10
183.7713761337
 20
103.181987973
 30
0.0
 11
202.8221456416
 21
100.5045766664
 31
0.0
  0
LINE
  5
1BE
330
1F
100
AcDbEntity
  8
0
  6
HIDDEN
 62
     7
370
     0
100
AcDbLine
 10
181.3386423595
 20
113.6819878315
 30
0.0
 11
180.0562931307
 21
110.9319878464
 31
0.0
  0
LINE
  5
1BF
330
1F
100
AcDbEntity
  8
0
  6
HIDDEN
 62
     7
370
     0
100
AcDbLine
 10
180.0562931307
 20
105.9319879581
 30
0.0
 11
181.3386423595
 21
103.181987973
 31
0.0
  0
LINE
  5
1C0
330
1F
100
AcDbEntity
  8
0
  6
HIDDEN
 62
     7
370
     0
100
AcDbLine
 10
183.7713761337
 20
113.6819878315
 30
0.0
 11
181.3386423595
 21
113.6819878315
 31
0.0
  0
LINE
  5
1C1
330
1F
100
AcDbEntity
  8
0
  6
HIDDEN
 62
     7
370
     0
100
AcDbLine
 10
181.3386423595
 20
103.181987973
 30
0.0
 11
183.7713761337
 21
103.181987973
 31
0.0
  0
LINE
  5
1C2
330
1F
100
AcDbEntity
  8
0
  6
HIDDEN
 62
     7
370
     0
100
AcDbLine
 10
110.0230795413
 20
84.3526166585
 30
0.0
 11
109.5886473626
 21
84.831683403
 31
0.0
  0
LINE
  5
1C3
330
1F
100
AcDbEntity
  8
0
  6
HIDDEN
 62
     7
370
     0
100
AcDbLine
 10
102.0886438049
 20
85.2533713636
 30
0.0
 11
101.6062103294
 21
84.7743046192
 31
0.0
  0
LINE
  5
1C4
330
1F
100
AcDbEntity
  8
0
  6
HIDDEN
 62
     7
370
     0
100
AcDbLine
 10
101.6060883261
 20
132.0896655974
 30
0.0
 11
102.0886391483
 21
131.6105448362
 31
0.0
  0
LINE
  5
1C5
330
1F
100
AcDbEntity
  8
0
  6
HIDDEN
 62
     7
370
     0
100
AcDbLine
 10
109.5886417747
 20
132.0322439727
 30
0.0
 11
110.0231838495
 21
132.5113628713
 31
0.0
  0
LINE
  5
1C6
330
1F
100
AcDbEntity
  8
0
  6
HIDDEN
 62
     7
370
     0
100
AcDbLine
 10
144.9386408635
 20
104.231988052
 30
0.0
 11
145.4193299718
 21
105.0319878572
 31
0.0
  0
LINE
  5
1C7
330
1F
100
AcDbEntity
  8
0
  6
HIDDEN
 62
     7
370
     0
100
AcDbLine
 10
145.4193299718
 20
111.8319879473
 30
0.0
 11
144.9386408635
 21
112.6319877525
 31
0.0
  0
LINE
  5
1C8
330
1F
100
AcDbEntity
  8
0
  6
HIDDEN
 62
     7
370
     0
100
AcDbLine
 10
136.6386419244
 20
104.231988052
 30
0.0
 11
144.9386408635
 21
104.231988052
 31
0.0
  0
LINE
  5
1C9
330
1F
100
AcDbEntity
  8
0
  6
HIDDEN
 62
     7
370
     0
100
AcDbLine
 10
144.9386408635
 20
112.6319877525
 30
0.0
 11
136.6386419244
 21
112.6319877525
 31
0.0
  0
LINE
  5
1CA
330
1F
100
AcDbEntity
  8
0
  6
HIDDEN
 62
     7
370
     0
100
AcDbLine
 10
109.5886417747
 20
84.8321658281
 30
0.0
 11
109.5886417747
 21
88.494915953
 31
0.0
  0
LINE
  5
1CB
330
1F
100
AcDbEntity
  8
0
  6
HIDDEN
 62
     7
370
     0
100
AcDbLine
 10
102.0886419423
 20
88.4338509944
 30
0.0
 11
102.0886419423
 21
85.2536936012
 31
0.0
  0
LINE
  5
1CC
330
1F
100
AcDbEntity
  8
0
  6
HIDDEN
 62
     7
370
     0
100
AcDbLine
 10
109.5886417747
 20
128.369823536
 30
0.0
 11
109.5886417747
 21
132.0319515375
 31
0.0
  0
LINE
  5
1CD
330
1F
100
AcDbEntity
  8
0
  6
HIDDEN
 62
     7
370
     0
100
AcDbLine
 10
102.0886419423
 20
131.6104014126
 30
0.0
 11
102.0886419423
 21
128.4314044473
 31
0.0
  0
LINE
  5
1CE
330
1F
100
AcDbEntity
  8
0
  6
HIDDEN
 62
     7
370
     0
100
AcDbLine
 10
162.9386400886
 20
105.0319878572
 30
0.0
 11
163.4794144042
 21
105.9319879581
 31
0.0
  0
LINE
  5
1CF
330
1F
100
AcDbEntity
  8
0
  6
HIDDEN
 62
     7
370
     0
100
AcDbLine
 10
163.4794144042
 20
110.9319878464
 30
0.0
 11
162.9386400886
 21
111.8319879473
 31
0.0
  0
LINE
  5
1D0
330
1F
100
AcDbEntity
  8
0
  6
HIDDEN
 62
     7
370
     0
100
AcDbLine
 10
145.4193299718
 20
105.0319878572
 30
0.0
 11
162.9386400886
 21
105.0319878572
 31
0.0
  0
LINE
  5
1D1
330
1F
100
AcDbEntity
  8
0
  6
HIDDEN
 62
     7
370
     0
100
AcDbLine
 10
162.9386400886
 20
111.8319879473
 30
0.0
 11
145.4193299718
 21
111.8319879473
 31
0.0
  0
LINE
  5
1D2
330
1F
100
AcDbEntity
  8
0
  6
HIDDEN
 62
     7
370
     0
100
AcDbLine
 10
149.2915531702
 20
96.3591155318
 30
0.0
 11
148.8566553302
 21
95.9992226866
 31
0.0
  0
LINE
  5
1D3
330
1F
100
AcDbEntity
  8
0
  6
HIDDEN
 62
     7
370
     0
100
AcDbLine
 10
154.834293396
 20
96.9418468607
 30
0.0
 11
154.2867316015
 21
97.3030901236
 31
0.0
  0
LINE
  5
1D4
330
1F
100
AcDbEntity
  8
0
  6
HIDDEN
 62
     7
370
     0
100
AcDbLine
 10
154.2879646726
 20
119.5619380754
 30
0.0
 11
154.8357909627
 21
119.9232130033
 31
0.0
  0
LINE
  5
1D5
330
1F
100
AcDbEntity
  8
0
  6
HIDDEN
 62
     7
370
     0
100
AcDbLine
 10
148.854714454
 20
120.8664043528
 30
0.0
 11
149.2895936675
 21
120.506596258
 31
0.0
  0
LINE
  5
1D6
330
1F
100
AcDbEntity
  8
0
  6
HIDDEN
 62
     7
370
     0
100
AcDbLine
 10
149.2886399932
 20
102.4830033724
 30
0.0
 11
149.2886399932
 21
96.3657716942
 31
0.0
  0
LINE
  5
1D7
330
1F
100
AcDbEntity
  8
0
  6
HIDDEN
 62
     7
370
     0
100
AcDbLine
 10
154.2886426754
 20
97.3077625689
 30
0.0
 11
154.2886426754
 21
102.4830033724
 31
0.0
  0
LINE
  5
1D8
330
1F
100
AcDbEntity
  8
0
  6
HIDDEN
 62
     7
370
     0
100
AcDbLine
 10
154.2886426754
 20
114.3809724321
 30
0.0
 11
154.2886426754
 21
119.5560735372
 31
0.0
  0
LINE
  5
1D9
330
1F
100
AcDbEntity
  8
0
  6
HIDDEN
 62
     7
370
     0
100
AcDbLine
 10
149.2886399932
 20
120.5015252066
 30
0.0
 11
149.2886399932
 21
114.3809724321
 31
0.0
  0
LINE
  5
1DA
330
1F
100
AcDbEntity
  8
0
  6
HIDDEN
 62
     7
370
     0
100
AcDbLine
 10
154.2886426754
 20
102.4830033724
 30
0.0
 11
151.7886413343
 21
103.9851549734
 31
0.0
  0
LINE
  5
1DB
330
1F
100
AcDbEntity
  8
0
  6
HIDDEN
 62
     7
370
     0
100
AcDbLine
 10
151.7886413343
 20
103.9851549734
 30
0.0
 11
149.2886399932
 21
102.4830033724
 31
0.0
  0
LINE
  5
1DC
330
1F
100
AcDbEntity
  8
0
  6
HIDDEN
 62
     7
370
     0
100
AcDbLine
 10
163.4794144042
 20
105.9319879581
 30
0.0
 11
180.0562931307
 21
105.9319879581
 31
0.0
  0
LINE
  5
1DD
330
1F
100
AcDbEntity
  8
0
  6
HIDDEN
 62
     7
370
     0
100
AcDbLine
 10
180.0562931307
 20
110.9319878464
 30
0.0
 11
163.4794144042
 21
110.9319878464
 31
0.0
  0
LINE
  5
1DE
330
1F
100
AcDbEntity
  8
0
  6
HIDDEN
 62
     7
370
     0
100
AcDbLine
 10
149.2886399932
 20
114.3809724321
 30
0.0
 11
151.7886413343
 21
112.8788208311
 31
0.0
  0
LINE
  5
1DF
330
1F
100
AcDbEntity
  8
0
  6
HIDDEN
 62
     7
370
     0
100
AcDbLine
 10
151.7886413343
 20
112.8788208311
 30
0.0
 11
154.2886426754
 21
114.3809724321
 31
0.0
  0
POINT
  5
1E0
330
1F
100
AcDbEntity
  8
VERMASSUNG
100
AcDbPoint
 10
203.3386417039
 20
116.4319879022
 30
0.0
  0
POINT
  5
1E1
330
1F
100
AcDbEntity
  8
VERMASSUNG
100
AcDbPoint
 10
203.3386417039
 20
100.4319879022
 30
0.0
  0
DIMENSION
  5
1E2
330
1F
100
AcDbEntity
  8
VERMASSUNG
100
AcDbDimension
  2
*D1
 10
220.9779774085
 20
116.4319879022
 30
0.0
 11
220.9779774085
 21
108.8520019054
 31
0.0
 70
   160
  1
ER<>
 71
     2
 42
-1.0
  3
SLDDIMSTYLE0
100
AcDbAlignedDimension
 13
203.3386417039
 23
100.4319879022
 33
0.0
 14
203.3386417039
 24
116.4319879022
 34
0.0
 50
90.0
100
AcDbRotatedDimension
  0
DIMENSION
  5
1EE
330
1F
100
AcDbEntity
  8
VERMASSUNG
100
AcDbDimension
  2
*D2
 10
75.102663294
 20
76.9319879022
 30
0.0
 11
75.102663294
 21
106.565827738
 31
0.0
 70
   160
  1
HSK A %%c<>
 71
     2
 42
-1.0
  3
SLDDIMSTYLE0
100
AcDbAlignedDimension
 13
115.1386417039
 23
139.9319879022
 33
0.0
 14
115.1386417039
 24
76.9319879022
 34
0.0
 50
90.0
100
AcDbRotatedDimension
  0
DIMENSION
  5
1FA
330
1F
100
AcDbEntity
  8
VERMASSUNG
100
AcDbDimension
  2
*D3
 10
226.9779774085
 20
97.4319879022
 30
0.0
 11
226.9779774085
 21
108.4593646042
 31
0.0
 70
   160
  1
%%c<>
 71
     2
 42
-1.0
  3
SLDDIMSTYLE0
100
AcDbAlignedDimension
 13
214.3386417039
 23
119.4319879022
 33
0.0
 14
214.3386417039
 24
97.4319879022
 34
0.0
 50
90.0
100
AcDbRotatedDimension
  0
DIMENSION
  5
205
330
1F
100
AcDbEntity
  8
VERMASSUNG
100
AcDbDimension
  2
*D4
 10
214.8386417039
 20
145.3091041012
 30
0.0
 11
176.8324063926
 21
145.3091041012
 31
0.0
 70
   160
 71
     2
 42
-1.0
  3
SLDDIMSTYLE0
100
AcDbAlignedDimension
 13
140.7886417039
 23
138.278428226
 33
0.0
 14
214.8386417039
 24
118.3587734379
 34
0.0
100
AcDbRotatedDimension
  0
DIMENSION
  5
20F
330
1F
100
AcDbEntity
  8
VERMASSUNG
100
AcDbDimension
  2
*D5
 10
214.8386417039
 20
151.3091041012
 30
0.0
 11
165.553083132
 21
151.3091041012
 31
0.0
 70
   160
 71
     2
 42
-1.0
  3
SLDDIMSTYLE0
100
AcDbAlignedDimension
 13
114.8386417039
 23
139.6319879022
 33
0.0
 14
214.8386417039
 24
118.3587734379
 34
0.0
100
AcDbRotatedDimension
  0
DIMENSION
  5
219
330
1F
100
AcDbEntity
  8
VERMASSUNG
100
AcDbDimension
  2
*D6
 10
214.8386417039
 20
157.3091041012
 30
0.0
 11
151.8419077216
 21
157.3091041012
 31
0.0
 70
   160
 71
     2
 42
-1.0
  3
SLDDIMSTYLE0
100
AcDbAlignedDimension
 13
82.9386417039
 23
128.1226656487
 33
0.0
 14
214.8386417039
 24
118.3587734379
 34
0.0
100
AcDbRotatedDimension
  0
DIMENSION
  5
223
330
1F
100
AcDbEntity
  8
VERMASSUNG
100
AcDbDimension
  2
*D7
 10
181.3386417039
 20
139.3091041012
 30
0.0
 11
197.3385875223
 21
139.3091041012
 31
0.0
 70
   160
 71
     2
 42
-1.0
  3
SLDDIMSTYLE0
100
AcDbAlignedDimension
 13
214.8386417039
 23
118.3587734379
 33
0.0
 14
181.3386417039
 24
113.6819879022
 34
0.0
100
AcDbRotatedDimension
  0
DIMENSION
  5
22D
330
1F
100
AcDbEntity
  8
VERMASSUNG
100
AcDbDimension
  2
*D8
 10
232.9779774085
 20
94.9319879022
 30
0.0
 11
232.9779774085
 21
108.4593646042
 31
0.0
 70
   160
  1
%%c<>
 71
     2
 42
-1.0
  3
SLDDIMSTYLE0
100
AcDbAlignedDimension
 13
143.1916492416
 23
121.9319879022
 33
0.0
 14
143.1916492416
 24
94.9319879022
 34
0.0
 50
90.0
100
AcDbRotatedDimension
  0
LINE
  5
238
330
1F
100
AcDbEntity
  8
VERMASSUNG
  6
CENTERX2
370
     0
100
AcDbLine
 10
81.2421670899
 20
108.4319879022
 30
0.0
 11
216.5052935005
 21
108.4319879022
 31
0.0
  0
OLE2FRAME
  5
239
330
1F
100
AcDbEntity
  8
0
100
AcDbOle2Frame
 70
     2
  3
Bitmap Image
 10
13.8511154363
 20
38.264191557
 30
0.0
 11
51.6290888628
 21
31.9806341108
 31
0.0
 71
     2
 72
     0
 73
     1
 90
    12928
310
80552BED0767C5B32B40DDAF6807D121434000000000000000006FFBDDFB85D0
310
4940DDAF6807D121434000000000000000006FFBDDFB85D04940416F4BD60AFB
310
3F4000000000000000002BED0767C5B32B40416F4BD60AFB3F40000000000000
310
0000000000000100000000010000010000000100000000000100000000320000
310
D0CF11E0A1B11AE1000000000000000000000000000000003E000300FEFF0900
310
0600000000000000000000000100000001000000000000000010000002000000
310
01000000FEFFFFFF0000000000000000FFFFFFFFFFFFFFFFFFFFFFFFFFFFFFFF
310
FFFFFFFFFFFFFFFFFFFFFFFFFFFFFFFFFFFFFFFFFFFFFFFFFFFFFFFFFFFFFFFF
310
FFFFFFFFFFFFFFFFFFFFFFFFFFFFFFFFFFFFFFFFFFFFFFFFFFFFFFFFFFFFFFFF
310
FFFFFFFFFFFFFFFFFFFFFFFFFFFFFFFFFFFFFFFFFFFFFFFFFFFFFFFFFFFFFFFF
310
FFFFFFFFFFFFFFFFFFFFFFFFFFFFFFFFFFFFFFFFFFFFFFFFFFFFFFFFFFFFFFFF
310
FFFFFFFFFFFFFFFFFFFFFFFFFFFFFFFFFFFFFFFFFFFFFFFFFFFFFFFFFFFFFFFF
310
FFFFFFFFFFFFFFFFFFFFFFFFFFFFFFFFFFFFFFFFFFFFFFFFFFFFFFFFFFFFFFFF
310
FFFFFFFFFFFFFFFFFFFFFFFFFFFFFFFFFFFFFFFFFFFFFFFFFFFFFFFFFFFFFFFF
310
FFFFFFFFFFFFFFFFFFFFFFFFFFFFFFFFFFFFFFFFFFFFFFFFFFFFFFFFFFFFFFFF
310
FFFFFFFFFFFFFFFFFFFFFFFFFFFFFFFFFFFFFFFFFFFFFFFFFFFFFFFFFFFFFFFF
310
FFFFFFFFFFFFFFFFFFFFFFFFFFFFFFFFFFFFFFFFFFFFFFFFFFFFFFFFFFFFFFFF
310
FFFFFFFFFFFFFFFFFFFFFFFFFFFFFFFFFFFFFFFFFFFFFFFFFFFFFFFFFFFFFFFF
310
FFFFFFFFFFFFFFFFFFFFFFFFFFFFFFFFFFFFFFFFFFFFFFFFFFFFFFFFFFFFFFFF
310
FFFFFFFFFFFFFFFFFFFFFFFFFFFFFFFFFFFFFFFFFFFFFFFFFFFFFFFFFFFFFFFF
310
FDFFFFFFFEFFFFFFFEFFFFFFFEFFFFFF05000000060000000700000008000000
310
090000000A0000000B0000000C0000000D0000000E0000000F00000010000000
310
11000000120000001300000014000000150000001600000017000000FEFFFFFF
310
FFFFFFFFFFFFFFFFFFFFFFFFFFFFFFFFFFFFFFFFFFFFFFFFFFFFFFFFFFFFFFFF
310
FFFFFFFFFFFFFFFFFFFFFFFFFFFFFFFFFFFFFFFFFFFFFFFFFFFFFFFFFFFFFFFF
310
FFFFFFFFFFFFFFFFFFFFFFFFFFFFFFFFFFFFFFFFFFFFFFFFFFFFFFFFFFFFFFFF
310
FFFFFFFFFFFFFFFFFFFFFFFFFFFFFFFFFFFFFFFFFFFFFFFFFFFFFFFFFFFFFFFF
310
FFFFFFFFFFFFFFFFFFFFFFFFFFFFFFFFFFFFFFFFFFFFFFFFFFFFFFFFFFFFFFFF
310
FFFFFFFFFFFFFFFFFFFFFFFFFFFFFFFFFFFFFFFFFFFFFFFFFFFFFFFFFFFFFFFF
310
FFFFFFFFFFFFFFFFFFFFFFFFFFFFFFFFFFFFFFFFFFFFFFFFFFFFFFFFFFFFFFFF
310
FFFFFFFFFFFFFFFFFFFFFFFFFFFFFFFFFFFFFFFFFFFFFFFFFFFFFFFFFFFFFFFF
310
FFFFFFFFFFFFFFFFFFFFFFFFFFFFFFFFFFFFFFFFFFFFFFFFFFFFFFFFFFFFFFFF
310
FFFFFFFFFFFFFFFFFFFFFFFFFFFFFFFFFFFFFFFFFFFFFFFFFFFFFFFFFFFFFFFF
310
FFFFFFFFFFFFFFFFFFFFFFFFFFFFFFFFFFFFFFFFFFFFFFFFFFFFFFFFFFFFFFFF
310
FFFFFFFFFFFFFFFFFFFFFFFFFFFFFFFFFFFFFFFFFFFFFFFFFFFFFFFFFFFFFFFF
310
FFFFFFFFFFFFFFFFFFFFFFFFFFFFFFFFFFFFFFFFFFFFFFFFFFFFFFFFFFFFFFFF
310
52006F006F007400200045006E00740072007900000000000000000000000000
310
0000000000000000000000000000000000000000000000000000000000000000
310
16000500FFFFFFFFFFFFFFFF020000000A00030000000000C000000000000046
310
000000000000000000000000C029C56175E8CB0103000000C000000000000000
310
01004F006C006500000000000000000000000000000000000000000000000000
310
0000000000000000000000000000000000000000000000000000000000000000
310
0A000200FFFFFFFFFFFFFFFFFFFFFFFF00000000000000000000000000000000
310
0000000000000000000000000000000000000000000000001400000000000000
310
010043006F006D0070004F0062006A0000000000000000000000000000000000
310
0000000000000000000000000000000000000000000000000000000000000000
310
120002010100000003000000FFFFFFFF00000000000000000000000000000000
310
0000000000000000000000000000000000000000010000004D00000000000000
310
01004F006C006500310030004E00610074006900760065000000000000000000
310
0000000000000000000000000000000000000000000000000000000000000000
310
1A000200FFFFFFFFFFFFFFFFFFFFFFFF00000000000000000000000000000000
310
0000000000000000000000000000000000000000040000002426000000000000
310
FEFFFFFF02000000FEFFFFFFFFFFFFFFFFFFFFFFFFFFFFFFFFFFFFFFFFFFFFFF
310
FFFFFFFFFFFFFFFFFFFFFFFFFFFFFFFFFFFFFFFFFFFFFFFFFFFFFFFFFFFFFFFF
310
FFFFFFFFFFFFFFFFFFFFFFFFFFFFFFFFFFFFFFFFFFFFFFFFFFFFFFFFFFFFFFFF
310
FFFFFFFFFFFFFFFFFFFFFFFFFFFFFFFFFFFFFFFFFFFFFFFFFFFFFFFFFFFFFFFF
310
FFFFFFFFFFFFFFFFFFFFFFFFFFFFFFFFFFFFFFFFFFFFFFFFFFFFFFFFFFFFFFFF
310
FFFFFFFFFFFFFFFFFFFFFFFFFFFFFFFFFFFFFFFFFFFFFFFFFFFFFFFFFFFFFFFF
310
FFFFFFFFFFFFFFFFFFFFFFFFFFFFFFFFFFFFFFFFFFFFFFFFFFFFFFFFFFFFFFFF
310
FFFFFFFFFFFFFFFFFFFFFFFFFFFFFFFFFFFFFFFFFFFFFFFFFFFFFFFFFFFFFFFF
310
FFFFFFFFFFFFFFFFFFFFFFFFFFFFFFFFFFFFFFFFFFFFFFFFFFFFFFFFFFFFFFFF
310
FFFFFFFFFFFFFFFFFFFFFFFFFFFFFFFFFFFFFFFFFFFFFFFFFFFFFFFFFFFFFFFF
310
FFFFFFFFFFFFFFFFFFFFFFFFFFFFFFFFFFFFFFFFFFFFFFFFFFFFFFFFFFFFFFFF
310
FFFFFFFFFFFFFFFFFFFFFFFFFFFFFFFFFFFFFFFFFFFFFFFFFFFFFFFFFFFFFFFF
310
FFFFFFFFFFFFFFFFFFFFFFFFFFFFFFFFFFFFFFFFFFFFFFFFFFFFFFFFFFFFFFFF
310
FFFFFFFFFFFFFFFFFFFFFFFFFFFFFFFFFFFFFFFFFFFFFFFFFFFFFFFFFFFFFFFF
310
FFFFFFFFFFFFFFFFFFFFFFFFFFFFFFFFFFFFFFFFFFFFFFFFFFFFFFFFFFFFFFFF
310
FFFFFFFFFFFFFFFFFFFFFFFFFFFFFFFFFFFFFFFFFFFFFFFFFFFFFFFFFFFFFFFF
310
0100000200000000000000000000000000000000000000004E00820000000005
310
A807250000000000A807250000000000940D780200000000EE0D650200000000
310
0100FEFF030A0000FFFFFFFF0A00030000000000C00000000000004607000000
310
5042727573680007000000504272757368000700000050427275736800F439B2
310
7100000000000000000000000000000000000000000000000000C70600000000
310
0000000000000000000000000000000000000000000000003800000041000000
310
940D780200000000EC0D91020000000000000000000000000000000000000000
310
0000C70600000000000000000000000000000000000000000000000000000000
310
3800000041000000940D780200000000560D6802000000000000000000000000
310
00000000000000000000C7060000000000000000000000000000000000000000
310
00000000000000003800000041000000940D780200000000E60D4C0200000000
310
000000000000000000000000000000000000C706000000000000000000000000
310
000000000000000000000000000000003800000041000000940D780200000000
310
D40D3A0200000000000000000000000000000000000000000000C70600000000
310
0000000000000000000000000000000000000000000000003800000041000000
310
940D780200000000FA0D87020000000000000000000000000000000000000000
310
20260000424D0E260000000000003E00000028000000B40200006E0000000100
310
01000000000000000000130B0000130B00000200000002000000000000FFFFFF
310
FFFFFFFFFFFFFFFFFFFFFFFFFFFFFFFFFFFFFFFFFFFFFFFFFFFFFFFFFFFFFFFF
310
FFFFFFFFFFFFFFFFFFFFFFFFFFFFFFFFFFFFFFFFFFFFFFFFFFFFFFFFFFFFFFFF
310
FFFFFFFFFFFFFFFFFFFFFFFFFFFFFFFFFFFFFFFFFFFFFFFFF000FFFFFFFFFFFF
310
FFFFFFFFFFFFFFFFFFFFFFFFFFFFFFFFFFFFFFFFFFFFFFFFFFFFFFFFFFFFFFFF
310
FFFFFFFFFFFFFFFFFFFFFFFFFFFFFFFFFFFFFFFFFFFFFFFFFFFFFFFFFFFFFFFF
310
FFFFFFFFFFFFFFFFFFFFFFFFFFFFFFFFF000FFFFFFFFFFFFFFFFFFFFFFFFFFFF
310
FFFFFFFFFFFFFFFFFFFFFFFFFFFFFFFFFFFFFFFFFFFFFFFFFFFFFFFFFFFFFFFF
310
FFFFFFFFFFFFFFFFFFFFFFFFFFFFFFFFFFFFFFFFFFFFFFFFFFFFFFFFFFFFFFFF
310
FFFFFFFFFFFFFFFFF000FFFFFFFFFFFFFFFFFFFFFFFFFFFFFFFFFFFFFFFFFFFF
310
FFFFFFFFFFFFFFFFFFFFFFFFFFFFFFFFFFFFFFFFFFFFFFFFFFFFFFFFFFFFFFFF
310
FFFFFFFFFFFFFFFFFFFFFFFFFFFFFFFFFFFFFFFFFFFFFFFFFFFFFFFFFFFFFFFF
310
F000FFFFFFFFFFFFFFFFFFFFFFFFFFFFFFFFFFFFFFFFFFFFFFFFFFFFFFFFFFFF
310
FFFFFFFFFFFFFFFFFFFFFFFFFFFFFFFFFFFFFFFFFFFFFFFFFFFFFFFFFFFFFFFF
310
FFFFFFFFFFFFFFFFFFFFFFFFFFFFFFFFFFFFFFFFFFFFFFFFF000FFFFFFFFFFFF
310
FFFFFFFFFFFFFFFFFFFFFFFFFFFFFFFFFFFFFFFFFFFFFFFFFFFFFFFFFFFFFFFF
310
FFFFFFFFFFFFFFFFFFFFFFFFFFFFFFFFFFFFFFFFFFFFFFFFFFFFFFFFFFFFFFFF
310
FFFFFFFFFFFFFFFFFFFFFFFFFFFFFFFFF000FFFFFFFFFFFFFFFFFFFFFFFFFFFF
310
FFFFFFFFFFFFFFFFFFFFFFFFFFFFFFFFFFFFFFFFFFFFFFFFFFFFFFFFFFFFFFFF
310
FFFFFFFFFFFFFFFFFFFFFFFFFFFFFFFFFFFFFFFFFFFFFFFFFFFFFFFFFFFFFFFF
310
FFFFFFFFFFFFFFFFF000FFFFFFFFFFFFFFFFFFFFFFFFFFFFFFFFFFFFFFFFFFFF
310
FFFFFFFFFFFFFFFFFFFFFFFFFFFFFFFFFFFFFFFFFFFFFFFFFFFFFFFFFFFFFFFF
310
FFFFFFFFFFFFFFFFFFFFFFFFFFFFFFFFFFFFFFFFFFFFFFFFFFFFFFFFFFFFFFFF
310
F000FFFFFFFFFFFFFFFFFFFFFFFFFFFFFFFFFFFFFFFFFFFFFFFFFFFFFFFFFFFF
310
FFFFFFFFFFFFFFFFFFFFFFFFFFFFFFFFFFFFFFFFFFFFFFFFFFFFFFFFFFFFFFFF
310
FFFFFFFFFFFFFFFFFFFFFFFFFFFFFFFFFFFFFFFFFFFFFFFFF000FFFFFFFFFFFF
310
FFFFFFFFFFFFFFFFFFFFFFFFFFFFFFFFFFFFFFFFFFFFFFFFFFFFFFFFFFFFFFFF
310
FFFFFFFFFFFFFFFFFFFFFFFFFFFFFFFFFFFFFFFFFFFFFFFFFFFFFFFFFFFFFFFF
310
FFFFFFFFFFFFFFFFFFFFFFFFFFFFFFFFF000FFFFFFFFFFFFFFFFFFFFFFFFFFFF
310
FFFFFFFFFFFFFFFFFFFFFFFFFFFFFFFFFFFFFFFFFFFFFFFFFFFFFFFFFFFFFFFF
310
FFFFFFFFFFFFFFFFFFFFFFFFFFFFFFFFFFFFFFFFFFFFFFFFFFFFFFFFFFFFFFFF
310
FFFFFFFFFFFFFFFFF000FFFFFFFFFFFFFFFFFFFFFFFFFFFFFFFFFFFFFFFFFFFF
310
FFFFFFFFFFFFFFFFFFFFFFFFFFFFFFFFFFFFFFFFFFFFFFFFFFFFFFFFFFFFFFFF
310
FFFFFFFFFFFFFFFFFFFFFFFFFFFFFFFFFFFFFFFFFFFFFFFFFFFFFFFFFFFFFFFF
310
F000FFFFFFFFFFFFFFFFFFFFFFFFFFFFFFFFFFFFFFFFFFFFFFFFFFFFFFFFFFFF
310
FFFFFFFFFFFFFFFFFFFFFFFFFFFFFFFFFFFFFFFFFFFFFFFFFFFFFFFFFFFFFFFF
310
FFFFFFFFFFFFFFFFFFFFFFFFFFFFFFFFFFFFFFFFFFFFFFFFF000FFFFFFFFFFFF
310
FFFFFFFFFFFFFFFFFFFFFFFFFFFFFFFFFFFFFFFFFFFFFFFFFFFFFFFFFFFFFFFF
310
FFFFFFFFFFFFFFFFFFFFFFFFFFFFFFFFFFFFFFFFFFFFFFFFFFFFFFFFFFFFFFFF
310
FFFFFFFFFFFFFFFFFFFFFFFFFFFFFFFFF000FFFFFFFFFFFFFFFFFFFFFFFFFFFF
310
FFFFFFFFFFFFFFFFFFFFFFFFFFFFFFFFFFFFFFFFFFFFFFFFFFFFFFFFFFFFFFFF
310
FFFFFFFFFFFFFFFFFFFFFFFFFFFFFFFFFFFFFFFFFFFFFFFFFFFFFFFFFFFFFFFF
310
FFFFFFFFFFFFFFFFF000FFFFFFFFFFFFFFFFFFFFFFFFFFFFFFFFFFFFFFFFFFFF
310
FFFFFFFFFFFFFFFFFFFFFFFFFFFFFFFFFFFFFFFFFFFFFFFFFFFFFFFFFFFFFFFF
310
FFFFFFFFFFFFFFFFFFFFFFFFFFFFFFFFFFFFFFFFFFFFFFFFFFFFFFFFFFFFFFFF
310
F000FFFFFFFFFFFFFFFFFFFFFFFFFFFFFFFFFFFFFFFFFFFFFFFFFFFFFFFFFFFF
310
FFFFFFFFFFFFFFFFFFFFFFFFFFFFFFFFFFFFFFFFFFFFFFFFFFFFFFFFFFFFFFFF
310
FFFFFFFFFFFFFFFFFFFFFFFFFFFFFFFFFFFFFFFFFFFFFFFFF000FFFFFFFFFFFF
310
FFFFFFFFFFFFFFFFFFFFFFFFFFFFFFFFFFFFFFFFFFFFFFFFFFFFFFFFFFFFFFFF
310
FFFFFFFFFFFFFFFFFFFFFFFFFFFFFFFFFFFFFFFFFFFFFFFFFFFFFFFFFFFFFFFF
310
FFFFFFFFFFFFFFFFFFFFFFFFFFFFFFFFF000FFFFFFFFFFFFFFFFFFFFFFFFFFFF
310
FFFFFFFFFFFFFFFFFFFFFFFFFFFFFFFFFFFFFFFFFFFFFFFFFFFFFFFFFFFFFFFF
310
FFFFFFFFFFFFFFFFFFFFFFFFFFFFFFFFFFFFFFFFFFFFFFFFFFFFFFFFFFFFFFFF
310
FFFFFFFFFFFFFFFFF000FFFFF80003FFFFFFFFFFFFFFFFFFFFFFFFFFFFFFFFFF
310
FFFFF00007FFFFFFFFFF00007FFFFFF800000000000000007FFFFFFFFFFFFFFF
310
FFFFFFFC001FFFFFFFFFFFFFFC001FFFFFFFFFFFFFFFFFFFFFFFFFFE0007FFFF
310
F000FFFF8000007FFFFFFFF8000FFFFFC0007FFFFF80007FFFFF0000007FFFFF
310
FFF8000007FFFFF800000000000000007FFFFFF0001FFFFFFFFFFFC00001FFFF
310
FFFFFFFFC00001FFFFFFFF000000000003FFFFE000007FFFF000FFFE0000000F
310
FFFFFFF0000FFFFF80007FFFFF80007FFFFC0000001FFFFFFFC0000001FFFFF8
310
00000000000000007FFFFFF0001FFFFFFFFFFE0000003FFFFFFFFFFE0000003F
310
FFFFFF000000000003FFFF0000000FFFF000FFF800000003FFFFFFF00007FFFF
310
80007FFFFF80007FFFF000000007FFFFFF000000003FFFF80000000000000000
310
7FFFFFF0001FFFFFFFFFF80000000FFFFFFFFFF80000000FFFFFFF0000000000
310
03FFFC00000003FFF000FFE000000000FFFFFFF00007FFFF80003FFFFF80007F
310
FFC000000001FFFFFC000000001FFFF800000000000000007FFFFFF0001FFFFF
310
FFFFE000000003FFFFFFFFE000000003FFFFFF000000000003FFF000000000FF
310
F000FF80000000007FFFFFF00007FFFF80003FFFFF80007FFF8000000000FFFF
310
F80000000007FFF800000000000000007FFFFFF0001FFFFFFFFFC000000001FF
310
FFFFFFC000000001FFFFFF000000000003FFC0000000007FF000FF0000000000
310
3FFFFFE00007FFFF00003FFFFF80007FFE00000000003FFFF00000000003FFF8
310
00000000000000007FFFFFF0001FFFFFFFFF8000000000FFFFFFFF8000000000
310
FFFFFF000000000003FF80000000003FF000FE00000000001FFFFFE00003FFFF
310
00003FFFFF80007FFC00000000001FFFE00000000001FFF8000001FFFE000000
310
7FFFFFF0001FFFFFFFFE00000000003FFFFFFE00000000003FFFFF0000000000
310
03FF00000000001FF000FC00000000000FFFFFE00003FFFF00001FFFFF80007F
310
F800000000001FFFC00000000000FFF8000001FFFE0000007FFFFFF0001FFFFF
310
FFFC00000000001FFFFFFC00000000001FFFFF000000000003FE00000000000F
310
F000F8000000000007FFFFE00003FFFF00001FFFFF80007FF800000000000FFF
310
800000000000FFF8000001FFFE0000007FFFFFF0001FFFFFFFF800000000000F
310
FFFFF800000000000FFFFF000000000003FC000000000007F000F80000000000
310
03FFFFC00003FFFE00001FFFFF80007FF0000000000007FF0000000000007FF8
310
000001FFFE0000007FFFFFF0001FFFFFFFF0000000000007FFFFF00000000000
310
07FFFF000000000003F8000000000003F000F0000000000003FFFFC00001FFFE
310
00001FFFFF80007FE0000000000007FE0000000000003FF8000001FFFE000000
310
7FFFFFF0001FFFFFFFF0000000000007FFFFF0000000000007FFFF0000000000
310
03F800001F800003F000E00001FFF00001FFFFC00001FFFE00000FFFFF80007F
310
E00001FFE00003FE00001FFF00003FF8000001FFFE0000007FFFFFF0001FFFFF
310
FFE000003E000003FFFFE000003E000003FFFF000000000003F00001FFF80001
310
F000E00007FFFC0001FFFFC00001FFFE00000FFFFF80007FC0000FFFFC0003FC
310
0000FFFFC0001FF8000001FFFE0000007FFFFFF0001FFFFFFFC00003FFE00001
310
FFFFC00003FFE00001FFFF0001FFFFFFFFF00007FFFE0001F000E0000FFFFF00
310
00FFFF800001FFFC00000FFFFF80007FC0001FFFFE0001FC0001FFFFE0001FF8
310
000001FFFE0000007FFFFFF0001FFFFFFF80000FFFF80000FFFF80000FFFF800
310
00FFFF0003FFFFFFFFE0000FFFFF8000F000C0003FFFFF8000FFFF800000FFFC
310
000007FFFF80007F80003FFFFF0001FC0003FFFFF0001FF8000001FFFE000000
310
7FFFFFF0001FFFFFFF80003FFFFE0000FFFF80003FFFFE0000FFFF0003FFFFFF
310
FFE0003FFFFF8000F000C0003FFFFF8000FFFF800000FFFC000007FFFF80007F
310
80007FFFFF8001F80007FFFFF8000FF8000001FFFE0000007FFFFFF0001FFFFF
310
FF00007FFFFF00007FFF00007FFFFF00007FFF0003FFFFFFFFE0003FFFFFC000
310
F000C0007FFFFFC000FFFF000000FFFC000007FFFF80007F8000FFFFFF8000F8
310
000FFFFFF8000FF8000001FFFE0000007FFFFFF0001FFFFFFF0000FFFFFF8000
310
7FFF0000FFFFFF80007FFF0003FFFFFFFFC0007FFFFFC00070008000FFFFFFC0
310
00FFFF000000FFF8000007FFFF80007F8000FFFFFF8000F8000FFFFFF8000FF8
310
000001FFFE0000007FFFFFF0001FFFFFFE0001FFFFFFC0003FFE0001FFFFFFC0
310
003FFF0003FFFFFFFFC0007FFFFFE00070008000FFFFFFC0007FFF0000007FF8
310
000003FFFF80007F0001FFFFFF8000F8000FFFFFF8000FF8000001FFFE000000
310
7FFFFFF0001FFFFFFE0001FFFFFFC0003FFE0001FFFFFFC0003FFF0003FFFFFF
310
FFC000FFFFFFE00070008000FFFFFFC0007FFF0000007FF8000003FFFF80007F
310
0001FFFFFF8000F8001FFFFFF8000FF8000001FFFE0000007FFFFFF0001FFFFF
310
FE0003FFFFFFE0003FFE0003FFFFFFE0003FFF0003FFFFFFFFC000FFFFFFE000
310
70008000FFFFFFC0007FFE0000007FF8000003FFFF80007F0001FFFFFF8000F0
310
001FFFFFF8000FF8000001FFFE0000007FFFFFF0001FFFFFFC0003FFFFFFE000
310
1FFC0003FFFFFFE0001FFF0003FFFFFFFFC000FFFFFFC00070008000FFFFFF80
310
007FFE0000007FF0000003FFFF80007F0001FFFFFF0000F0001FFFFFF8000FF8
310
000001FFFE0000007FFFFFF0001FFFFFFC0007FFFFFFF0001FFC0007FFFFFFF0
310
001FFF0003FFFFFFFFC000FFFFFFC00070008001FFFFFF0000FFFE0000003FF0
310
000001FFFF80007F0001FFFFFF0000F8001FFFFFF0000FF8000001FFFE000000
310
7FFFFFF0001FFFFFFC0007FFFFFFF0001FFC0007FFFFFFF0001FFF0003FFFFFF
310
FFC001FFFFFF80007000FFFFFFFFFE0000FFFE0008003FF0008001FFFF80007F
310
FFFFFFFFFC0000FFFFFFFFFFE0000FF8000001FFFE0000007FFFFFF0001FFFFF
310
F8000FFFFFFFF8000FF8000FFFFFFFF8000FFF0003FFFFFFFFFFFFFFFFFF0000
310
7000FFFFFFFFFC0000FFFC0008003FF0008001FFFF80007FFFFFFFFFF80001FF
310
FFFFFFFF80000FF8000001FFFE0000007FFFFFF0001FFFFFF8000FFFFFFFF800
310
0FF8000FFFFFFFF8000FFF0003FFFFFFFFFFFFFFFFFE0000F000FFFFFFFFE000
310
00FFFC000C003FE000C001FFFF80007FFFFFFFFFC00001FFFFFFFFFE00001FF8
310
000001FFFE0000007FFFFFF0001FFFFFF8000FFFFFFFF8000FF8000FFFFFFFF8
310
000FFF0003FFFFFFFFFFFFFFFFF00000F000FFFFFFFE000001FFFC000C001FE0
310
00C000FFFF80007FFFFFFFFE000001FFFFFFFFE000001FF80FFFFFFFFFFFFFC0
310
7FFFFFF0001FFFFFF8000FFFFFFFF8000FF8000FFFFFFFF8000FFF0003FFFFFF
310
FFFFFFFFFF800000F000FFFFFFC0000001FFFC001C001FE001C000FFFF80007F
310
FFFFFF80000003FFFFFFF80000001FF80FFFFFFFFFFFFFC07FFFFFF0001FFFFF
310
F8001FFFFFFFFC000FF8001FFFFFFFFC000FFF0003FFFFFFFFFFFFFFF0000001
310
F000FFFFF800000001FFF8001C001FE001C000FFFF80007FFFFFF800000003FF
310
FFFF800000003FF80FFFFFFFFFFFFFC07FFFFFF0001FFFFFF8001FFFFFFFFC00
310
0FF8001FFFFFFFFC000FFF0003FFFFFFFFFFFFFE00000001F000FFFFC0000000
310
03FFF8001E001FC001E000FFFF80007FFFFF8000000007FFFFFC000000003FF8
310
0FFFFFFFFFFFFFC07FFFFFF0001FFFFFF8001FFFFFFFFC000FF8001FFFFFFFFC
310
000FFF0003FFFFFFFFFFFFE000000003F000FFFE0000000007FFF8001E000FC0
310
01E0007FFF80007FFFFE0000000007FFFFE0000000007FF80FFFFFFFFFFFFFC0
310
7FFFFFF0001FFFFFF0001FFFFFFFFC0007F0001FFFFFFFFC0007FF0003FFFFFF
310
FFFFFF0000000003F000FFF80000000007FFF8001E000FC003E0007FFF80007F
310
FFF0000000000FFFFF8000000000FFF80FFFFFFFFFFFFFC07FFFFFF0001FFFFF
310
F0001FFFFFFFFC0007F0001FFFFFFFFC0007FF0003FFFFFFFFFFFC0000000007
310
F000FFE0000000000FFFF0003E000FC003E0007FFF80007FFFC0000000001FFF
310
FE0000000001FFF80FFFFFFFFFFFFFC07FFFFFF0001FFFFFF0001FFFFFFFFC00
310
07F0001FFFFFFFFC0007FF0003FFFFFFFFFFF0000000000FF000FFC000000000
310
1FFFF0003F000F8003F0003FFF80007FFF80000000003FFFF80000000003FFF8
310
0FFFFFFFFFFFFFC07FFFFFF0001FFFFFF0001FFFFFFFFC0007F0001FFFFFFFFC
310
0007FF0003FFFFFFFFFFE0000000001FF000FF00000000007FFFF0003F000780
310
03F0003FFF80007FFF00000000007FFFF00000000007FFF80FFFFFFFFFFFFFC0
310
7FFFFFF0001FFFFFF0001FFFFFFFFC0007F0001FFFFFFFFC0007FF0003FFFFFF
310
FFFF80000000007FF000FE0000000000FFFFE0003F00078007F0003FFF80007F
310
FE0000000001FFFFE0000000001FFFF80FFFFFFFFFFFFFC07FFFFFF0001FFFFF
310
F0001FFFFFFFFC0007F0001FFFFFFFFC0007FF0003FFFFFFFFFF0000000000FF
310
F000FC0000000003FFFFE0007F00078007F0003FFF80007FFC0000000007FFFF
310
C0000000007FFFF80FFFFFFFFFFFFFC07FFFFFF0001FFFFFF8001FFFFFFFFC00
310
0FF8001FFFFFFFFC000FFF0003FFFFFFFFFE0000000003FFF000FC000000000F
310
FFFFE0007F80070007F8001FFF80007FF8000000001FFFFF8000000001FFFFF8
310
0FFFFFFFFFFFFFC07FFFFFF0001FFFFFF8001FFFFFFFFC000FF8001FFFFFFFFC
310
000FFF0003FFFFFFFFFC000000000FFFF000F8000000007FFFFFE0007F800700
310
07F8001FFF80007FF000000000FFFFFF800000000FFFFFF80FFFFFFFFFFFFFC0
310
7FFFFFF0001FFFFFF8000FFFFFFFF8000FF8000FFFFFFFF8000FFF0003FFFFFF
310
FFFC000000007FFFF000F800000007FFFFFFC0007F8003000FF8001FFF80007F
310
F000000007FFFFFF000000007FFFFFF80FFFFFFFFFFFFFC07FFFFFF0001FFFFF
310
F8000FFFFFFFF8000FF8000FFFFFFFF8000FFF0003FFFFFFFFF80000000FFFFF
310
F000F0000000FFFFFFFFC000FF8003000FF8001FFF80007FE0000000FFFFFFFF
310
0000000FFFFFFFF8000001FFFE0000007FFFFFF0001FFFFFF8000FFFFFFFF800
310
0FF8000FFFFFFFF8000FFF0003FFFFFFFFF8000000FFFFFFF000F000000FFFFF
310
FFFFC000FFC002000FF8000FFF80007FE000001FFFFFFFFE000001FFFFFFFFF8
310
000001FFFE0000007FFFFFF0001FFFFFF8000FFFFFFFF8000FF8000FFFFFFFF8
310
000FFF0003FFFFFFFFF000001FFFFFFFF000E00000FFFFFFFFFFC000FFC00200
310
0FFC000FFF80007FE00001FFFFFFFFFE00001FFFFFFFFFF8000001FFFE000000
310
7FFFFFF0001FFFFFFC000FFFFFFFF8001FFC000FFFFFFFF8001FFF0003FFFFFF
310
FFF00001FFFFFFFFF000E00007FFFFFFFFFF8000FFC000001FFC000FFF80007F
310
C0000FFFFFFFFFFE0000FFFFFFFFFFF8000001FFFE0000007FFFFFF0001FFFFF
310
FC0007FFFFFFF0001FFC0007FFFFFFF0001FFF0003FFFFFFFFF00007FFFFFFFF
310
F000E0001FFFFFFFFFFF8000FFC000001FFC000FFF80007FC0003FFFFFFFFFFE
310
0001FFFFFFFFFFF8000001FFFE0000007FFFFFF0001FFFFFFC0007FFFFFFF000
310
1FFC0007FFFFFFF0001FFF0003FFFFFFFFF0001FFFFFFFFFF000E0003FFFFF00
310
03FF8001FFE000001FFC0007FF80007FC0007FFFFF0007FC0003FFFFF0003FF8
310
000001FFFE0000007FFFFFF0001FFFFFFC0003FFFFFFE0001FFC0003FFFFFFE0
310
001FFF0003FFFFFFFFF0003FFFFFFFFFF000E0003FFFFF0001FF8001FFE00000
310
1FFE0007FF80007FC0007FFFFE0003FC0007FFFFE0003FF8000001FFFE000000
310
7FFFFFF0001FFFFFFE0003FFFFFFE0003FFE0003FFFFFFE0003FFF0003FFFFFF
310
FFF0003FFFFF8001F000E0003FFFFF0001FF0001FFE000001FFE0007FF80007F
310
C0007FFFFE0003FC0007FFFFE0003FF8000001FFFE0000007FFFFFF0001FFFFF
310
FE0001FFFFFFC0003FFE0001FFFFFFC0003FFF0003FFFFFFFFF0003FFFFF0001
310
F000E0003FFFFF0003FF0001FFE000003FFE0007FF80007FC0007FFFFE0003FC
310
0007FFFFE0003FF8000001FFFE0000007FFFFFF0001FFFFFFF0001FFFFFFC000
310
7FFF0001FFFFFFC0007FFF0003FFFFFFFFF0003FFFFF0001F000E0003FFFFE00
310
03FF0003FFF000003FFE0003FF80007FC0007FFFFC0003FE0007FFFFE0003FF8
310
000001FFFE0000007FFFFFF0001FFFFFFF0000FFFFFF80007FFF0000FFFFFF80
310
007FFF0003FFFFFFFFF0003FFFFF0001F000E0003FFFFE0003FF0003FFF00000
310
3FFF0003FF80007FC0007FFFFC0007FE0007FFFFC0003FF8000001FFFE000000
310
7FFFFFF0001FFFFFFF80007FFFFF0000FFFF80007FFFFF0000FFFF0003FFFFFF
310
FFF0003FFFFF0003F000E0003FFFFC0003FE0003FFF000003FFF0003FF80007F
310
E0003FFFF80007FE0003FFFFC0007FF8000001FFFE0000007FFFFFF0001FFFFF
310
FF80003FFFFE0000FFFF80003FFFFE0000FFFF0003FFFFFFFFF0001FFFFE0003
310
F000F0001FFFF80003FE0003FFF000007FFF0001FF80007FE0003FFFF00007FE
310
0001FFFF80007FF8000001FFFE0000007FFFFFF0001FFFFFFFC0000FFFF80001
310
FFFFC0000FFFF80001FFFF0003FFFFFFFFF0001FFFFC0003F000F0000FFFF000
310
07FE0007FFF800007FFF0001FF80007FE0001FFFE00007FF0000FFFE00007FF8
310
000001FFFE0000007FFFFFF0001FFFFFFFC00003FFE00001FFFFC00003FFE000
310
01FFFF0003FFFFFFFFF8000FFFF80003F000F00003FFC00007FC0007FFF80000
310
7FFF8001FF80007FF00007FF80000FFF00007FF80000FFF8000001FFFE000000
310
7F80000000000001FFE000003E000003FFFFE000003E000003FFFF0003FFFFFF
310
FFF80003FFE00007F000F800000000000FFC0007FFF800007FFF8001FF80007F
310
F000000000000FFF000000000000FFF8000001FFFE0000007F80000000000001
310
FFF0000000000007FFFFF0000000000007FFFF0003FFFFFFFFFC00007E000007
310
F000F800000000000FFC0007FFF80000FFFF8000FF80007FF800000000001FFF
310
800000000001FFF8000001FFFE0000007F80000000000001FFF800000000000F
310
FFFFF800000000000FFFFF0003FFFFFFFFFC00000000000FF000FC0000000000
310
1FFC0007FFFC0000FFFF8000FF80007FF800000000003FFFC00000000001FFF8
310
000001FFFE0000007F80000000000001FFF800000000000FFFFFF80000000000
310
0FFFFF0003FFFFFFFFFE00000000001FF000FE00000000003FF8000FFFFC0000
310
FFFF8000FF80007FFC00000000003FFFC00000000003FFF8000001FFFE000000
310
7F80000000000001FFFC00000000001FFFFFFC00000000001FFFFF0003FFFFFF
310
FFFF00000000001FF000FF00000000003FF8000FFFFC0000FFFFC000FF80007F
310
FE00000000007FFFE00000000007FFF8000001FFFE0000007F80000000000001
310
FFFE00000000003FFFFFFE00000000003FFFFF0003FFFFFFFFFF80000000003F
310
F000FF80000000007FF8000FFFFC0001FFFFC0007F80007FFF0000000000FFFF
310
F0000000000FFFF800000000000000007F80000000000001FFFF8000000000FF
310
FFFFFF8000000000FFFFFF0003FFFFFFFFFFC0000000007FF000FFC000000000
310
FFF8000FFFFE0001FFFFC0007F80007FFF8000000001FFFFF8000000001FFFF8
310
00000000000000007F80000000000001FFFFC000000001FFFFFFFFC000000001
310
FFFFFF0003FFFFFFFFFFE000000000FFF000FFE000000003FFF0001FFFFE0001
310
FFFFC0007F80007FFFC000000007FFFFFE000000003FFFF80000000000000000
310
7F80000000000001FFFFE000000003FFFFFFFFE000000003FFFFFF0003FFFFFF
310
FFFFF000000003FFF000FFF80000000FFFF0001FFFFE0001FFFFE0007F80007F
310
FFF00000000FFFFFFF00000000FFFFF800000000000000007F80000000000001
310
FFFFF80000000FFFFFFFFFF80000000FFFFFFF0003FFFFFFFFFFFC0000000FFF
310
F000FFFE0000003FFFF0001FFFFE0003FFFFE0003F80007FFFFC0000003FFFFF
310
FFC0000003FFFFF800000000000000007F80000000000001FFFFFE0000003FFF
310
FFFFFFFE0000003FFFFFFF0003FFFFFFFFFFFF0000003FFFF000FFFF800000FF
310
FFF0001FFFFF0003FFFFE0003F80007FFFFF000001FFFFFFFFF800001FFFFFF8
310
00000000000000007F80000000000001FFFFFFC00001FFFFFFFFFFFFC00001FF
310
FFFFFF0003FFFFFFFFFFFFC00000FFFFF000FFFFF8000FFFFFFFFFFFFFFFFFFF
310
FFFFFFFFFFFFFFFFFFFFF0001FFFFFFFFFFF0000FFFFFFF80000000000000000
310
7FFFFFFFFFFFFFFFFFFFFFFC001FFFFFFFFFFFFFFC001FFFFFFFFFFFFFFFFFFF
310
FFFFFFFC001FFFFFF000FFFFFFFFFFFFFFFFFFFFFFFFFFFFFFFFFFFFFFFFFFFF
310
FFFFFFFFFFFFFFFFFFFFFFFFFFFFFFFFFFFFFFFFFFFFFFFFFFFFFFFFFFFFFFFF
310
FFFFFFFFFFFFFFFFFFFFFFFFFFFFFFFFFFFFFFFFFFFFFFFFFFFFFFFFFFFFFFFF
310
F000FFFFFFFFFFFFFFFFFFFFFFFFFFFFFFFFFFFFFFFFFFFFFFFFFFFFFFFFFFFF
310
FFFFFFFFFFFFFFFFFFFFFFFFFFFFFFFFFFFFFFFFFFFFFFFFFFFFFFFFFFFFFFFF
310
FFFFFFFFFFFFFFFFFFFFFFFFFFFFFFFFFFFFFFFFFFFFFFFFF000FFFFFFFFFFFF
310
FFFFFFFFFFFFFFFFFFFFFFFFFFFFFFFFFFFFFFFFFFFFFFFFFFFFFFFFFFFFFFFF
310
FFFFFFFFFFFFFFFFFFFFFFFFFFFFFFFFFFFFFFFFFFFFFFFFFFFFFFFFFFFFFFFF
310
FFFFFFFFFFFFFFFFFFFFFFFFFFFFFFFFF000FFFFFFFFFFFFFFFFFFFFFFFFFFFF
310
FFFFFFFFFFFFFFFFFFFFFFFFFFFFFFFFFFFFFFFFFFFFFFFFFFFFFFFFFFFFFFFF
310
FFFFFFFFFFFFFFFFFFFFFFFFFFFFFFFFFFFFFFFFFFFFFFFFFFFFFFFFFFFFFFFF
310
FFFFFFFFFFFFFFFFF000FFFFFFFFFFFFFFFFFFFFFFFFFFFFFFFFFFFFFFFFFFFF
310
FFFFFFFFFFFFFFFFFFFFFFFFFFFFFFFFFFFFFFFFFFFFFFFFFFFFFFFFFFFFFFFF
310
FFFFFFFFFFFFFFFFFFFFFFFFFFFFFFFFFFFFFFFFFFFFFFFFFFFFFFFFFFFFFFFF
310
F000FFFFFFFFFFFFFFFFFFFFFFFFFFFFFFFFFFFFFFFFFFFFFFFFFFFFFFFFFFFF
310
FFFFFFFFFFFFFFFFFFFFFFFFFFFFFFFFFFFFFFFFFFFFFFFFFFFFFFFFFFFFFFFF
310
FFFFFFFFFFFFFFFFFFFFFFFFFFFFFFFFFFFFFFFFFFFFFFFFF000FFFFFFFFFFFF
310
FFFFFFFFFFFFFFFFFFFFFFFFFFFFFFFFFFFFFFFFFFFFFFFFFFFFFFFFFFFFFFFF
310
FFFFFFFFFFFFFFFFFFFFFFFFFFFFFFFFFFFFFFFFFFFFFFFFFFFFFFFFFFFFFFFF
310
FFFFFFFFFFFFFFFFFFFFFFFFFFFFFFFFF000FFFFFFFFFFFFFFFFFFFFFFFFFFFF
310
FFFFFFFFFFFFFFFFFFFFFFFFFFFFFFFFFFFFFFFFFFFFFFFFFFFFFFFFFFFFFFFF
310
FFFFFFFFFFFFFFFFFFFFFFFFFFFFFFFFFFFFFFFFFFFFFFFFFFFFFFFFFFFFFFFF
310
FFFFFFFFFFFFFFFFF000FFFFFFFFFFFFFFFFFFFFFFFFFFFFFFFFFFFFFFFFFFFF
310
FFFFFFFFFFFFFFFFFFFFFFFFFFFFFFFFFFFFFFFFFFFFFFFFFFFFFFFFFFFFFFFF
310
FFFFFFFFFFFFFFFFFFFFFFFFFFFFFFFFFFFFFFFFFFFFFFFFFFFFFFFFFFFFFFFF
310
F000FFFFFFFFFFFFFFFFFFFFFFFFFFFFFFFFFFFFFFFFFFFFFFFFFFFFFFFFFFFF
310
FFFFFFFFFFFFFFFFFFFFFFFFFFFFFFFFFFFFFFFFFFFFFFFFFFFFFFFFFFFFFFFF
310
FFFFFFFFFFFFFFFFFFFFFFFFFFFFFFFFFFFFFFFFFFFFFFFFF000FFFFFFFFFFFF
310
FFFFFFFFFFFFFFFFFFFFFFFFFFFFFFFFFFFFFFFFFFFFFFFFFFFFFFFFFFFFFFFF
310
FFFFFFFFFFFFFFFFFFFFFFFFFFFFFFFFFFFFFFFFFFFFFFFFFFFFFFFFFFFFFFFF
310
FFFFFFFFFFFFFFFFFFFFFFFFFFFFFFFFF000FFFFFFFFFFFFFFFFFFFFFFFFFFFF
310
FFFFFFFFFFFFFFFFFFFFFFFFFFFFFFFFFFFFFFFFFFFFFFFFFFFFFFFFFFFFFFFF
310
FFFFFFFFFFFFFFFFFFFFFFFFFFFFFFFFFFFFFFFFFFFFFFFFFFFFFFFFFFFFFFFF
310
FFFFFFFFFFFFFFFFF000FFFFFFFFFFFFFFFFFFFFFFFFFFFFFFFFFFFFFFFFFFFF
310
FFFFFFFFFFFFFFFFFFFFFFFFFFFFFFFFFFFFFFFFFFFFFFFFFFFFFFFFFFFFFFFF
310
FFFFFFFFFFFFFFFFFFFFFFFFFFFFFFFFFFFFFFFFFFFFFFFFFFFFFFFFFFFFFFFF
310
F000FFFFFFFFFFFFFFFFFFFFFFFFFFFFFFFFFFFFFFFFFFFFFFFFFFFFFFFFFFFF
310
FFFFFFFFFFFFFFFFFFFFFFFFFFFFFFFFFFFFFFFFFFFFFFFFFFFFFFFFFFFFFFFF
310
FFFFFFFFFFFFFFFFFFFFFFFFFFFFFFFFFFFFFFFFFFFFFFFFF000FFFFFFFFFFFF
310
FFFFFFFFFFFFFFFFFFFFFFFFFFFFFFFFFFFFFFFFFFFFFFFFFFFFFFFFFFFFFFFF
310
FFFFFFFFFFFFFFFFFFFFFFFFFFFFFFFFFFFFFFFFFFFFFFFFFFFFFFFFFFFFFFFF
310
FFFFFFFFFFFFFFFFFFFFFFFFFFFFFFFFF000FFFFFFFFFFFFFFFFFFFFFFFFFFFF
310
FFFFFFFFFFFFFFFFFFFFFFFFFFFFFFFFFFFFFFFFFFFFFFFFFFFFFFFFFFFFFFFF
310
FFFFFFFFFFFFFFFFFFFFFFFFFFFFFFFFFFFFFFFFFFFFFFFFFFFFFFFFFFFFFFFF
310
FFFFFFFFFFFFFFFFF000FFFFFFFFFFFFFFFFFFFFFFFFFFFFFFFFFFFFFFFFFFFF
310
FFFFFFFFFFFFFFFFFFFFFFFFFFFFFFFFFFFFFFFFFFFFFFFFFFFFFFFFFFFFFFFF
310
FFFFFFFFFFFFFFFFFFFFFFFFFFFFFFFFFFFFFFFFFFFFFFFFFFFFFFFFFFFFFFFF
310
F000FFFFFFFFFFFFFFFFFFFFFFFFFFFFFFFFFFFFFFFFFFFFFFFFFFFFFFFFFFFF
310
FFFFFFFFFFFFFFFFFFFFFFFFFFFFFFFFFFFFFFFFFFFFFFFFFFFFFFFFFFFFFFFF
310
FFFFFFFFFFFFFFFFFFFFFFFFFFFFFFFFFFFFFFFFFFFFFFFFF000FFFFFFFFFFFF
310
FFFFFFFFFFFFFFFFFFFFFFFFFFFFFFFFFFFFFFFFFFFFFFFFFFFFFFFFFFFFFFFF
310
FFFFFFFFFFFFFFFFFFFFFFFFFFFFFFFFFFFFFFFFFFFFFFFFFFFFFFFFFFFFFFFF
310
FFFFFFFFFFFFFFFFFFFFFFFFFFFFFFFFF000FFFFFFFFFFFFFFFFFFFFFFFFFFFF
310
FFFFFFFFFFFFFFFFFFFFFFFFFFFFFFFFFFFFFFFFFFFFFFFFFFFFFFFFFFFFFFFF
310
FFFFFFFFFFFFFFFFFFFFFFFFFFFFFFFFFFFFFFFFFFFFFFFFFFFFFFFFFFFFFFFF
310
FFFFFFFFFFFFFFFFF000FFFFFFFFFFFFFFFFFFFFFFFFFFFFFFFFFFFFFFFFFFFF
310
FFFFFFFFFFFFFFFFFFFFFFFFFFFFFFFFFFFFFFFFFFFFFFFFFFFFFFFFFFFFFFFF
310
FFFFFFFFFFFFFFFFFFFFFFFFFFFFFFFFFFFFFFFFFFFFFFFFFFFFFFFFFFFFFFFF
310
F000FFFFFFFFFFFFFFFFFFFFFFFFFFFFFFFFFFFFFFFFFFFFFFFFFFFFFFFFFFFF
310
FFFFFFFFFFFFFFFFFFFFFFFFFFFFFFFFFFFFFFFFFFFFFFFFFFFFFFFFFFFFFFFF
310
FFFFFFFFFFFFFFFFFFFFFFFFFFFFFFFFFFFFFFFFFFFFFFFFF000FFFFFFFFFFFF
310
FFFFFFFFFFFFFFFFFFFFFFFFFFFFFFFFFFFFFFFFFFFFFFFFFFFFFFFFFFFFFFFF
310
FFFFFFFFFFFFFFFFFFFFFFFFFFFFFFFFFFFFFFFFFFFFFFFFFFFFFFFFFFFFFFFF
310
FFFFFFFFFFFFFFFFFFFFFFFFFFFFFFFFF0000000000000000000000000000000
310
0000000001000000010000000100000001000000010000000000000001000000
310
0100000001000000010000000100000001000000000000000100000001000000
310
0100000001000000010000000100000001000000010000000000000001000000
310
0100000000000000010000000000000001000000010000000000000001000000
310
0100000000000000010000000100000001000000010000000100000001000000
310
0100000001000000000000000100000000000000010000000000000001000000
310
0100000000000000010000000100000001000000010000000100000001000000
310
0100000001000000000000000100000001000000010000000100000001000000
310
0100000001000000000000000100000001000000010000000100000001000000
310
0100000001000000010000000100000001000000010000000100000001000000
310
0100000001000000010000000100000001000000010000000100000001000000
310
0100000001000000000000000100000001000000010000000100000001000000
310
0100000001000000010000000100000001000000010000000100000000000000
310
0100000001000000010000000100000001000000010000000100000001000000
310
0100000001000000010000000100000001000000000000000100000001000000
  1
OLE
  0
ENDSEC
  0
SECTION
  2
OBJECTS
  0
DICTIONARY
  5
C
330
0
100
AcDbDictionary
281
     1
  3
ACAD_GROUP
350
D
  3
ACAD_LAYOUT
350
1A
  3
ACAD_MLEADERSTYLE
350
23B
  3
ACAD_MLINESTYLE
350
17
  3
ACAD_PLOTSETTINGS
350
19
  3
ACAD_PLOTSTYLENAME
350
E
  3
ACAD_TABLESTYLE
350
23A
  3
ACAD_VISUALSTYLE
350
2A
  3
AcDbVariableDictionary
350
23C
  0
DICTIONARY
  5
D
102
{ACAD_REACTORS
330
C
102
}
330
C
100
AcDbDictionary
281
     1
  0
DICTIONARY
  5
1A
102
{ACAD_REACTORS
330
C
102
}
330
C
100
AcDbDictionary
281
     1
  3
Layout1
350
1E
  3
Layout2
350
26
  3
Model
350
22
  0
DICTIONARY
  5
23B
102
{ACAD_REACTORS
330
C
102
}
330
C
100
AcDbDictionary
281
     1
  0
DICTIONARY
  5
17
102
{ACAD_REACTORS
330
C
102
}
330
C
100
AcDbDictionary
281
     1
  3
Standard
350
18
  0
DICTIONARY
  5
19
102
{ACAD_REACTORS
330
C
102
}
330
C
100
AcDbDictionary
281
     1
  0
ACDBDICTIONARYWDFLT
  5
E
102
{ACAD_REACTORS
330
C
102
}
330
C
100
AcDbDictionary
281
     1
  3
Normal
350
F
100
AcDbDictionaryWithDefault
340
F
  0
DICTIONARY
  5
23A
102
{ACAD_REACTORS
330
C
102
}
330
C
100
AcDbDictionary
281
     1
  0
DICTIONARY
  5
2A
102
{ACAD_REACTORS
330
C
102
}
330
C
100
AcDbDictionary
281
     1
  3
2dWireframe
350
2F
  3
3D Hidden
350
31
  3
3dWireframe
350
30
  3
Basic
350
32
  3
Brighten
350
36
  3
ColorChange
350
3A
  3
Conceptual
350
34
  3
Dim
350
35
  3
Facepattern
350
39
  3
Flat
350
2B
  3
FlatWithEdges
350
2C
  3
Gouraud
350
2D
  3
GouraudWithEdges
350
2E
  3
Linepattern
350
38
  3
Realistic
350
33
  3
Thicken
350
37
  0
DICTIONARY
  5
23C
102
{ACAD_REACTORS
330
C
102
}
330
C
100
AcDbDictionary
281
     1
  3
PSOLHEIGHT
350
23E
  3
PSOLWIDTH
350
23D
  0
LAYOUT
  5
1E
102
{ACAD_REACTORS
330
1A
102
}
330
1A
100
AcDbPlotSettings
  1

  2
none_device
  4

  6

 40
0.0
 41
0.0
 42
0.0
 43
0.0
 44
0.0
 45
0.0
 46
0.0
 47
0.0
 48
0.0
 49
0.0
140
0.0
141
0.0
142
1.0
143
1.0
 70
   688
 72
     0
 73
     0
 74
     5
  7

 75
    16
147
1.0
148
0.0
149
0.0
100
AcDbLayout
  1
Layout1
 70
     1
 71
     1
 10
0.0
 20
0.0
 11
420.0
 21
297.0
 12
0.0
 22
0.0
 32
0.0
 14
1.0000000000E+20
 24
1.0000000000E+20
 34
1.0000000000E+20
 15
-1.0000000000E+20
 25
-1.0000000000E+20
 35
-1.0000000000E+20
146
0.0
 13
0.0
 23
0.0
 33
0.0
 16
1.0
 26
0.0
 36
0.0
 17
0.0
 27
1.0
 37
0.0
 76
     0
330
1B
  0
LAYOUT
  5
26
102
{ACAD_REACTORS
330
1A
102
}
330
1A
100
AcDbPlotSettings
  1

  2
none_device
  4

  6

 40
0.0
 41
0.0
 42
0.0
 43
0.0
 44
0.0
 45
0.0
 46
0.0
 47
0.0
 48
0.0
 49
0.0
140
0.0
141
0.0
142
1.0
143
1.0
 70
   688
 72
     0
 73
     0
 74
     5
  7

 75
    16
147
1.0
148
0.0
149
0.0
100
AcDbLayout
  1
Layout2
 70
     1
 71
     2
 10
0.0
 20
0.0
 11
0.0
 21
0.0
 12
0.0
 22
0.0
 32
0.0
 14
0.0
 24
0.0
 34
0.0
 15
0.0
 25
0.0
 35
0.0
146
0.0
 13
0.0
 23
0.0
 33
0.0
 16
1.0
 26
0.0
 36
0.0
 17
0.0
 27
1.0
 37
0.0
 76
     0
330
23
  0
LAYOUT
  5
22
102
{ACAD_REACTORS
330
1A
102
}
330
1A
100
AcDbPlotSettings
  1

  2
none_device
  4

  6

 40
0.0
 41
0.0
 42
0.0
 43
0.0
 44
0.0
 45
0.0
 46
0.0
 47
0.0
 48
0.0
 49
0.0
140
0.0
141
0.0
142
1.0
143
1.0
 70
  1712
 72
     0
 73
     0
 74
     0
  7

 75
     0
147
1.0
148
0.0
149
0.0
100
AcDbLayout
  1
Model
 70
     1
 71
     0
 10
0.0
 20
0.0
 11
297.0
 21
210.0
 12
0.0
 22
0.0
 32
0.0
 14
0.0
 24
0.0
 34
0.0
 15
297.0
 25
210.0
 35
0.0
146
0.0
 13
0.0
 23
0.0
 33
0.0
 16
1.0
 26
0.0
 36
0.0
 17
0.0
 27
1.0
 37
0.0
 76
     0
330
1F
331
29
  0
MLINESTYLE
  5
18
102
{ACAD_REACTORS
330
17
102
}
330
17
100
AcDbMlineStyle
  2
Standard
 70
     0
  3

 62
   256
 51
90.0
 52
90.0
 71
     2
 49
0.5
 62
   256
  6
BYLAYER
 49
-0.5
 62
   256
  6
BYLAYER
  0
ACDBPLACEHOLDER
  5
F
102
{ACAD_REACTORS
330
E
102
}
330
E
  0
VISUALSTYLE
  5
2F
102
{ACAD_REACTORS
330
2A
102
}
330
2A
100
AcDbVisualStyle
  2
2dWireframe
 70
     4
 71
     0
 72
     2
 73
     0
 90
        0
 40
-0.6
 41
-30.0
 62
     5
 63
     7
 74
     1
 91
        4
 64
     7
 65
   257
 75
     1
175
     1
 42
1.0
 92
        0
 66
   257
 43
1.0
 76
     1
 77
     6
 78
     2
 67
     7
 79
     5
170
     0
171
     0
290
     0
174
     0
 93
        1
 44
0.0
173
     0
291
     0
 45
0.0
1001
ACAD
1000
AcDbSavedByObjectVersion
1070
     0
  0
VISUALSTYLE
  5
31
102
{ACAD_REACTORS
330
2A
102
}
330
2A
100
AcDbVisualStyle
  2
3D Hidden
 70
     6
 71
     1
 72
     2
 73
     2
 90
        0
 40
-0.6
 41
-30.0
 62
     5
 63
     7
 74
     2
 91
        2
 64
     7
 65
   257
 75
     2
175
     1
 42
40.0
 92
        0
 66
   257
 43
1.0
 76
     1
 77
     6
 78
     2
 67
     7
 79
     3
170
     0
171
     0
290
     0
174
     0
 93
        1
 44
0.0
173
     0
291
     0
 45
0.0
1001
ACAD
1000
AcDbSavedByObjectVersion
1070
     0
  0
VISUALSTYLE
  5
30
102
{ACAD_REACTORS
330
2A
102
}
330
2A
100
AcDbVisualStyle
  2
3dWireframe
 70
     5
 71
     0
 72
     2
 73
     0
 90
        0
 40
-0.6
 41
-30.0
 62
     5
 63
     7
 74
     1
 91
        4
 64
     7
 65
   257
 75
     1
175
     1
 42
1.0
 92
        0
 66
   257
 43
1.0
 76
     1
 77
     6
 78
     2
 67
     7
 79
     5
170
     0
171
     0
290
     0
174
     0
 93
        1
 44
0.0
173
     0
291
     0
 45
0.0
1001
ACAD
1000
AcDbSavedByObjectVersion
1070
     0
  0
VISUALSTYLE
  5
32
102
{ACAD_REACTORS
330
2A
102
}
330
2A
100
AcDbVisualStyle
  2
Basic
 70
     7
 71
     1
 72
     0
 73
     1
 90
        0
 40
-0.6
 41
-30.0
 62
     5
 63
     7
 74
     0
 91
        4
 64
     7
 65
   257
 75
     1
175
     1
 42
1.0
 92
        8
 66
     7
 43
1.0
 76
     1
 77
     6
 78
     2
 67
     7
 79
     5
170
     0
171
     0
290
     0
174
     0
 93
        1
 44
0.0
173
     0
291
     1
 45
0.0
1001
ACAD
1000
AcDbSavedByObjectVersion
1070
     0
  0
VISUALSTYLE
  5
36
102
{ACAD_REACTORS
330
2A
102
}
330
2A
100
AcDbVisualStyle
  2
Brighten
 70
    12
 71
     2
 72
     2
 73
     0
 90
        0
 40
-0.6
 41
-30.0
 62
     5
 63
     7
 74
     1
 91
        4
 64
     7
 65
   257
 75
     1
175
     1
 42
1.0
 92
        8
 66
     7
 43
1.0
 76
     1
 77
     6
 78
     2
 67
     7
 79
     5
170
     0
171
     0
290
     0
174
     0
 93
        1
 44
50.0
173
     0
291
     1
 45
0.0
1001
ACAD
1000
AcDbSavedByObjectVersion
1070
     0
  0
VISUALSTYLE
  5
3A
102
{ACAD_REACTORS
330
2A
102
}
330
2A
100
AcDbVisualStyle
  2
ColorChange
 70
    16
 71
     2
 72
     2
 73
     3
 90
        0
 40
-0.6
 41
-30.0
 62
     5
 63
     8
 74
     1
 91
        4
 64
     7
 65
   257
 75
     1
175
     1
 42
1.0
 92
        8
 66
     8
 43
1.0
 76
     1
 77
     6
 78
     2
 67
     7
 79
     5
170
     0
171
     0
290
     0
174
     0
 93
        1
 44
0.0
173
     0
291
     1
 45
0.0
1001
ACAD
1000
AcDbSavedByObjectVersion
1070
     0
  0
VISUALSTYLE
  5
34
102
{ACAD_REACTORS
330
2A
102
}
330
2A
100
AcDbVisualStyle
  2
Conceptual
 70
     9
 71
     3
 72
     2
 73
     0
 90
        0
 40
-0.6
 41
-30.0
 62
     5
 63
     7
 74
     2
 91
        2
 64
     7
 65
   257
 75
     1
175
     1
 42
40.0
 92
        8
 66
     7
 43
1.0
 76
     1
 77
     6
 78
     2
 67
     7
 79
     3
170
     0
171
     0
290
     0
174
     0
 93
        1
 44
0.0
173
     0
291
     0
 45
0.0
1001
ACAD
1000
AcDbSavedByObjectVersion
1070
     0
  0
VISUALSTYLE
  5
35
102
{ACAD_REACTORS
330
2A
102
}
330
2A
100
AcDbVisualStyle
  2
Dim
 70
    11
 71
     2
 72
     2
 73
     0
 90
        0
 40
-0.6
 41
-30.0
 62
     5
 63
     7
 74
     1
 91
        4
 64
     7
 65
   257
 75
     1
175
     1
 42
1.0
 92
        8
 66
     7
 43
1.0
 76
     1
 77
     6
 78
     2
 67
     7
 79
     5
170
     0
171
     0
290
     0
174
     0
 93
        1
 44
-50.0
173
     0
291
     1
 45
0.0
1001
ACAD
1000
AcDbSavedByObjectVersion
1070
     0
  0
VISUALSTYLE
  5
39
102
{ACAD_REACTORS
330
2A
102
}
330
2A
100
AcDbVisualStyle
  2
Facepattern
 70
    15
 71
     2
 72
     2
 73
     0
 90
        0
 40
-0.6
 41
-30.0
 62
     5
 63
     7
 74
     1
 91
        4
 64
     7
 65
   257
 75
     1
175
     1
 42
1.0
 92
        8
 66
     7
 43
1.0
 76
     1
 77
     6
 78
     2
 67
     7
 79
     5
170
     0
171
     0
290
     0
174
     0
 93
        1
 44
0.0
173
     0
291
     1
 45
0.0
1001
ACAD
1000
AcDbSavedByObjectVersion
1070
     0
  0
VISUALSTYLE
  5
2B
102
{ACAD_REACTORS
330
2A
102
}
330
2A
100
AcDbVisualStyle
  2
Flat
 70
     0
 71
     2
 72
     1
 73
     1
 90
        2
 40
-0.6
 41
30.0
 62
     5
 63
     7
 74
     0
 91
        4
 64
     7
 65
   257
 75
     1
175
     1
 42
1.0
 92
        8
 66
     7
 43
1.0
 76
     1
 77
     6
 78
     2
 67
     7
 79
     5
170
     0
171
     0
290
     0
174
     0
 93
       13
 44
0.0
173
     0
291
     1
 45
0.0
1001
ACAD
1000
AcDbSavedByObjectVersion
1070
     0
  0
VISUALSTYLE
  5
2C
102
{ACAD_REACTORS
330
2A
102
}
330
2A
100
AcDbVisualStyle
  2
FlatWithEdges
 70
     1
 71
     2
 72
     1
 73
     1
 90
        2
 40
-0.6
 41
30.0
 62
     5
 63
     7
 74
     1
 91
        4
 64
     7
 65
   257
 75
     1
175
     1
 42
1.0
 92
        0
 66
   257
 43
1.0
 76
     1
 77
     6
 78
     2
 67
     7
 79
     5
170
     0
171
     0
290
     0
174
     0
 93
       13
 44
0.0
173
     0
291
     1
 45
0.0
1001
ACAD
1000
AcDbSavedByObjectVersion
1070
     0
  0
VISUALSTYLE
  5
2D
102
{ACAD_REACTORS
330
2A
102
}
330
2A
100
AcDbVisualStyle
  2
Gouraud
 70
     2
 71
     2
 72
     2
 73
     1
 90
        2
 40
-0.6
 41
30.0
 62
     5
 63
     7
 74
     0
 91
        4
 64
     7
 65
   257
 75
     1
175
     1
 42
1.0
 92
        0
 66
     7
 43
1.0
 76
     1
 77
     6
 78
     2
 67
     7
 79
     5
170
     0
171
     0
290
     0
174
     0
 93
       13
 44
0.0
173
     0
291
     1
 45
0.0
1001
ACAD
1000
AcDbSavedByObjectVersion
1070
     0
  0
VISUALSTYLE
  5
2E
102
{ACAD_REACTORS
330
2A
102
}
330
2A
100
AcDbVisualStyle
  2
GouraudWithEdges
 70
     3
 71
     2
 72
     2
 73
     1
 90
        2
 40
-0.6
 41
30.0
 62
     5
 63
     7
 74
     1
 91
        4
 64
     7
 65
   257
 75
     1
175
     1
 42
1.0
 92
        0
 66
   257
 43
1.0
 76
     1
 77
     6
 78
     2
 67
     7
 79
     5
170
     0
171
     0
290
     0
174
     0
 93
       13
 44
0.0
173
     0
291
     1
 45
0.0
1001
ACAD
1000
AcDbSavedByObjectVersion
1070
     0
  0
VISUALSTYLE
  5
38
102
{ACAD_REACTORS
330
2A
102
}
330
2A
100
AcDbVisualStyle
  2
Linepattern
 70
    14
 71
     2
 72
     2
 73
     0
 90
        0
 40
-0.6
 41
-30.0
 62
     5
 63
     7
 74
     1
 91
        4
 64
     7
 65
   257
 75
     7
175
     7
 42
1.0
 92
        8
 66
     7
 43
1.0
 76
     1
 77
     6
 78
     2
 67
     7
 79
     5
170
     0
171
     0
290
     0
174
     0
 93
        1
 44
0.0
173
     0
291
     1
 45
0.0
1001
ACAD
1000
AcDbSavedByObjectVersion
1070
     0
  0
VISUALSTYLE
  5
33
102
{ACAD_REACTORS
330
2A
102
}
330
2A
100
AcDbVisualStyle
  2
Realistic
 70
     8
 71
     2
 72
     2
 73
     0
 90
        0
 40
-0.6
 41
-30.0
 62
     5
 63
     7
 74
     1
 91
        0
 64
     7
 65
   257
 75
     1
175
     1
 42
1.0
 92
        8
 66
     8
 43
1.0
 76
     1
 77
     6
 78
     2
 67
     7
 79
     5
170
     0
171
     0
290
     0
174
     0
 93
       13
 44
0.0
173
     0
291
     0
 45
0.0
1001
ACAD
1000
AcDbSavedByObjectVersion
1070
     0
  0
VISUALSTYLE
  5
37
102
{ACAD_REACTORS
330
2A
102
}
330
2A
100
AcDbVisualStyle
  2
Thicken
 70
    13
 71
     2
 72
     2
 73
     0
 90
        0
 40
-0.6
 41
-30.0
 62
     5
 63
     7
 74
     1
 91
        4
 64
     7
 65
   257
 75
     1
175
     1
 42
1.0
 92
       12
 66
     7
 43
1.0
 76
     1
 77
     6
 78
     2
 67
     7
 79
     5
170
     0
171
     0
290
     0
174
     0
 93
        1
 44
0.0
173
     0
291
     1
 45
0.0
1001
ACAD
1000
AcDbSavedByObjectVersion
1070
     0
  0
DICTIONARYVAR
  5
23E
102
{ACAD_REACTORS
330
23C
102
}
330
23C
100
DictionaryVariables
280
     0
  1
80.000000
  0
DICTIONARYVAR
  5
23D
102
{ACAD_REACTORS
330
23C
102
}
330
23C
100
DictionaryVariables
280
     0
  1
5.000000
  0
ENDSEC
  0
EOF
