  0
SECTION
  2
HEADER
  9
$ACADVER
  1
AC1015
  9
$ACADMAINTVER
 70
     6
  9
$DWGCODEPAGE
  3
ANSI_1252
  9
$INSBASE
 10
0.0
 20
0.0
 30
0.0
  9
$EXTMIN
 10
0.0
 20
0.0
 30
0.0
  9
$EXTMAX
 10
297.0
 20
210.0
 30
0.0
  9
$LIMMIN
 10
0.0
 20
0.0
  9
$LIMMAX
 10
297.0
 20
210.0
  9
$ORTHOMODE
 70
     0
  9
$REGENMODE
 70
     1
  9
$FILLMODE
 70
     1
  9
$QTEXTMODE
 70
     0
  9
$MIRRTEXT
 70
     1
  9
$LTSCALE
 40
1.0
  9
$ATTMODE
 70
     1
  9
$TEXTSIZE
 40
2.0
  9
$TRACEWID
 40
1.0
  9
$TEXTSTYLE
  7
Standard
  9
$CLAYER
  8
0
  9
$CELTYPE
  6
ByLayer
  9
$CECOLOR
 62
   256
  9
$CELTSCALE
 40
1.0
  9
$DISPSILH
 70
     0
  9
$DIMSCALE
 40
1.0
  9
$DIMASZ
 40
3.0
  9
$DIMEXO
 40
0.0
  9
$DIMDLI
 40
3.75
  9
$DIMRND
 40
0.0
  9
$DIMDLE
 40
0.0
  9
$DIMEXE
 40
1.0
  9
$DIMTP
 40
0.0
  9
$DIMTM
 40
0.0
  9
$DIMTXT
 40
2.0
  9
$DIMCEN
 40
2.5
  9
$DIMTSZ
 40
0.0
  9
$DIMTOL
 70
     0
  9
$DIMLIM
 70
     0
  9
$DIMTIH
 70
     1
  9
$DIMTOH
 70
     1
  9
$DIMSE1
 70
     0
  9
$DIMSE2
 70
     0
  9
$DIMTAD
 70
     1
  9
$DIMZIN
 70
     0
  9
$DIMBLK
  1

  9
$DIMASO
 70
     1
  9
$DIMSHO
 70
     1
  9
$DIMPOST
  1

  9
$DIMAPOST
  1

  9
$DIMALT
 70
     0
  9
$DIMALTD
 70
     3
  9
$DIMALTF
 40
0.0393700787
  9
$DIMLFAC
 40
2.0
  9
$DIMTOFL
 70
     1
  9
$DIMTVP
 40
0.0
  9
$DIMTIX
 70
     0
  9
$DIMSOXD
 70
     0
  9
$DIMSAH
 70
     0
  9
$DIMBLK1
  1

  9
$DIMBLK2
  1

  9
$DIMSTYLE
  2
ISO-25
  9
$DIMCLRD
 70
     0
  9
$DIMCLRE
 70
     0
  9
$DIMCLRT
 70
     0
  9
$DIMTFAC
 40
1.0
  9
$DIMGAP
 40
1.524
  9
$DIMJUST
 70
     0
  9
$DIMSD1
 70
     0
  9
$DIMSD2
 70
     0
  9
$DIMTOLJ
 70
     0
  9
$DIMTZIN
 70
     0
  9
$DIMALTZ
 70
     0
  9
$DIMALTTZ
 70
     0
  9
$DIMUPT
 70
     0
  9
$DIMDEC
 70
     2
  9
$DIMTDEC
 70
     3
  9
$DIMALTU
 70
     2
  9
$DIMALTTD
 70
     3
  9
$DIMTXSTY
  7
Standard
  9
$DIMAUNIT
 70
     0
  9
$DIMADEC
 70
     2
  9
$DIMALTRND
 40
0.0
  9
$DIMAZIN
 70
     0
  9
$DIMDSEP
 70
    44
  9
$DIMATFIT
 70
     3
  9
$DIMFRAC
 70
     0
  9
$DIMLDRBLK
  1

  9
$DIMLUNIT
 70
     2
  9
$DIMLWD
 70
    -2
  9
$DIMLWE
 70
    -2
  9
$DIMTMOVE
 70
     0
  9
$LUNITS
 70
     2
  9
$LUPREC
 70
     2
  9
$SKETCHINC
 40
1.0
  9
$FILLETRAD
 40
10.0
  9
$AUNITS
 70
     0
  9
$AUPREC
 70
     2
  9
$MENU
  1
.
  9
$ELEVATION
 40
0.0
  9
$PELEVATION
 40
0.0
  9
$THICKNESS
 40
0.0
  9
$LIMCHECK
 70
     0
  9
$CHAMFERA
 40
0.0
  9
$CHAMFERB
 40
0.0
  9
$CHAMFERC
 40
0.0
  9
$CHAMFERD
 40
0.0
  9
$SKPOLY
 70
     0
  9
$TDCREATE
 40
2458169.355219421
  9
$TDUCREATE
 40
2458169.313552754
  9
$TDUPDATE
 40
2458169.355221366
  9
$TDUUPDATE
 40
2458169.313554699
  9
$TDINDWG
 40
0.0000000116
  9
$TDUSRTIMER
 40
0.0000000116
  9
$USRTIMER
 70
     1
  9
$ANGBASE
 50
0.0
  9
$ANGDIR
 70
     0
  9
$PDMODE
 70
     0
  9
$PDSIZE
 40
-1.0
  9
$PLINEWID
 40
0.0
  9
$SPLFRAME
 70
     0
  9
$SPLINETYPE
 70
     6
  9
$SPLINESEGS
 70
     8
  9
$HANDSEED
  5
276
  9
$SURFTAB1
 70
     6
  9
$SURFTAB2
 70
     6
  9
$SURFTYPE
 70
     6
  9
$SURFU
 70
     6
  9
$SURFV
 70
     6
  9
$UCSBASE
  2

  9
$UCSNAME
  2

  9
$UCSORG
 10
0.0
 20
0.0
 30
0.0
  9
$UCSXDIR
 10
1.0
 20
0.0
 30
0.0
  9
$UCSYDIR
 10
0.0
 20
1.0
 30
0.0
  9
$UCSORTHOREF
  2

  9
$UCSORTHOVIEW
 70
     0
  9
$UCSORGTOP
 10
0.0
 20
0.0
 30
0.0
  9
$UCSORGBOTTOM
 10
0.0
 20
0.0
 30
0.0
  9
$UCSORGLEFT
 10
0.0
 20
0.0
 30
0.0
  9
$UCSORGRIGHT
 10
0.0
 20
0.0
 30
0.0
  9
$UCSORGFRONT
 10
0.0
 20
0.0
 30
0.0
  9
$UCSORGBACK
 10
0.0
 20
0.0
 30
0.0
  9
$PUCSBASE
  2

  9
$PUCSNAME
  2

  9
$PUCSORG
 10
0.0
 20
0.0
 30
0.0
  9
$PUCSXDIR
 10
1.0
 20
0.0
 30
0.0
  9
$PUCSYDIR
 10
0.0
 20
1.0
 30
0.0
  9
$PUCSORTHOREF
  2

  9
$PUCSORTHOVIEW
 70
     0
  9
$PUCSORGTOP
 10
0.0
 20
0.0
 30
0.0
  9
$PUCSORGBOTTOM
 10
0.0
 20
0.0
 30
0.0
  9
$PUCSORGLEFT
 10
0.0
 20
0.0
 30
0.0
  9
$PUCSORGRIGHT
 10
0.0
 20
0.0
 30
0.0
  9
$PUCSORGFRONT
 10
0.0
 20
0.0
 30
0.0
  9
$PUCSORGBACK
 10
0.0
 20
0.0
 30
0.0
  9
$USERI1
 70
     0
  9
$USERI2
 70
     0
  9
$USERI3
 70
     0
  9
$USERI4
 70
     0
  9
$USERI5
 70
     0
  9
$USERR1
 40
0.0
  9
$USERR2
 40
0.0
  9
$USERR3
 40
0.0
  9
$USERR4
 40
0.0
  9
$USERR5
 40
0.0
  9
$WORLDVIEW
 70
     1
  9
$SHADEDGE
 70
     3
  9
$SHADEDIF
 70
    70
  9
$TILEMODE
 70
     1
  9
$MAXACTVP
 70
    64
  9
$PINSBASE
 10
0.0
 20
0.0
 30
0.0
  9
$PLIMCHECK
 70
     0
  9
$PEXTMIN
 10
1.0000000000E+20
 20
1.0000000000E+20
 30
1.0000000000E+20
  9
$PEXTMAX
 10
-1.0000000000E+20
 20
-1.0000000000E+20
 30
-1.0000000000E+20
  9
$PLIMMIN
 10
0.0
 20
0.0
  9
$PLIMMAX
 10
420.0
 20
297.0
  9
$UNITMODE
 70
     0
  9
$VISRETAIN
 70
     1
  9
$PLINEGEN
 70
     0
  9
$PSLTSCALE
 70
     1
  9
$TREEDEPTH
 70
  3020
  9
$CMLSTYLE
  2
Standard
  9
$CMLJUST
 70
     0
  9
$CMLSCALE
 40
20.0
  9
$PROXYGRAPHICS
 70
     1
  9
$MEASUREMENT
 70
     1
  9
$CELWEIGHT
370
    -1
  9
$ENDCAPS
280
     0
  9
$JOINSTYLE
280
     0
  9
$LWDISPLAY
290
     1
  9
$INSUNITS
 70
     4
  9
$HYPERLINKBASE
  1

  9
$STYLESHEET
  1

  9
$XEDIT
290
     1
  9
$CEPSNTYPE
380
     0
  9
$PSTYLEMODE
290
     1
  9
$FINGERPRINTGUID
  2
{883292A3-A895-43B2-B476-89E76EE4642D}
  9
$VERSIONGUID
  2
{FAEB1C32-E019-11D5-929B-00C0DF256EC4}
  9
$EXTNAMES
290
     1
  9
$PSVPSCALE
 40
0.0
  9
$OLESTARTUP
290
     0
  0
ENDSEC
  0
SECTION
  2
CLASSES
  0
CLASS
  1
ACDBDICTIONARYWDFLT
  2
AcDbDictionaryWithDefault
  3
ObjectDBX Classes
 90
        0
280
     0
281
     0
  0
CLASS
  1
VISUALSTYLE
  2
AcDbVisualStyle
  3
ObjectDBX Classes
 90
     4095
280
     0
281
     0
  0
CLASS
  1
MATERIAL
  2
AcDbMaterial
  3
ObjectDBX Classes
 90
     1153
280
     0
281
     0
  0
CLASS
  1
SCALE
  2
AcDbScale
  3
ObjectDBX Classes
 90
     1153
280
     0
281
     0
  0
CLASS
  1
TABLESTYLE
  2
AcDbTableStyle
  3
ObjectDBX Classes
 90
     4095
280
     0
281
     0
  0
CLASS
  1
MLEADERSTYLE
  2
AcDbMLeaderStyle
  3
ACDB_MLEADERSTYLE_CLASS
 90
     4095
280
     0
281
     0
  0
CLASS
  1
SUN
  2
AcDbSun
  3
SCENEOE
 90
     1153
280
     0
281
     0
  0
CLASS
  1
ACDBPLACEHOLDER
  2
AcDbPlaceHolder
  3
ObjectDBX Classes
 90
        0
280
     0
281
     0
  0
CLASS
  1
LAYOUT
  2
AcDbLayout
  3
ObjectDBX Classes
 90
        0
280
     0
281
     0
  0
ENDSEC
  0
SECTION
  2
TABLES
  0
TABLE
  2
VPORT
  5
8
330
0
100
AcDbSymbolTable
 70
     1
  0
VPORT
  5
29
330
8
100
AcDbSymbolTableRecord
100
AcDbViewportTableRecord
  2
*Active
 70
     0
 10
0.0
 20
0.0
 11
1.0
 21
1.0
 12
148.5
 22
105.0
 13
0.0
 23
0.0
 14
10.0
 24
10.0
 15
10.0
 25
10.0
 16
0.0
 26
0.0
 36
1.0
 17
0.0
 27
0.0
 37
0.0
 40
210.0
 41
1.4142857143
 42
50.0
 43
0.0
 44
0.0
 50
0.0
 51
0.0
 71
     0
 72
  2000
 73
     1
 74
     3
 75
     0
 76
     0
 77
     0
 78
     0
281
     0
 65
     1
110
0.0
120
0.0
130
0.0
111
1.0
121
0.0
131
0.0
112
0.0
122
1.0
132
0.0
 79
     0
146
0.0
  0
ENDTAB
  0
TABLE
  2
LTYPE
  5
5
330
0
100
AcDbSymbolTable
 70
     6
  0
LTYPE
  5
14
330
5
100
AcDbSymbolTableRecord
100
AcDbLinetypeTableRecord
  2
ByBlock
 70
     0
  3

 72
    65
 73
     0
 40
0.0
  0
LTYPE
  5
15
330
5
100
AcDbSymbolTableRecord
100
AcDbLinetypeTableRecord
  2
ByLayer
 70
     0
  3

 72
    65
 73
     0
 40
0.0
  0
LTYPE
  5
16
330
5
100
AcDbSymbolTableRecord
100
AcDbLinetypeTableRecord
  2
Continuous
 70
     0
  3
Solid line
 72
    65
 73
     0
 40
0.0
  0
LTYPE
  5
6E
330
5
100
AcDbSymbolTableRecord
100
AcDbLinetypeTableRecord
  2
HIDDEN
 70
     0
  3
Hidden __ __ __ __ __ __ __ __ __ __ __ __ __ __
 72
    65
 73
     2
 40
1.905
 49
1.27
 74
     0
 49
-0.635
 74
     0
  0
LTYPE
  5
6F
330
5
100
AcDbSymbolTableRecord
100
AcDbLinetypeTableRecord
  2
PHANTOM
 70
     0
  3
Phantom ______  __  __  ______  __  __  ______
 72
    65
 73
     6
 40
12.7
 49
6.35
 74
     0
 49
-1.27
 74
     0
 49
1.27
 74
     0
 49
-1.27
 74
     0
 49
1.27
 74
     0
 49
-1.27
 74
     0
  0
LTYPE
  5
70
330
5
100
AcDbSymbolTableRecord
100
AcDbLinetypeTableRecord
  2
CENTER
 70
     0
  3
Center ____ _ ____ _ ____ _ ____ _ ____ _ ____
 72
    65
 73
     4
 40
10.16
 49
6.35
 74
     0
 49
-1.27
 74
     0
 49
1.27
 74
     0
 49
-1.27
 74
     0
  0
LTYPE
  5
71
330
5
100
AcDbSymbolTableRecord
100
AcDbLinetypeTableRecord
  2
CENTERX2
 70
     0
  3
Center (2x) ________  __  ________  __  _____
 72
    65
 73
     4
 40
20.32
 49
12.7
 74
     0
 49
-2.54
 74
     0
 49
2.54
 74
     0
 49
-2.54
 74
     0
  0
LTYPE
  5
72
330
5
100
AcDbSymbolTableRecord
100
AcDbLinetypeTableRecord
  2
DOT2
 70
     0
  3
Dot (.5x) ........................................
 72
    65
 73
     2
 40
0.635
 49
0.0
 74
     0
 49
-0.635
 74
     0
  0
ENDTAB
  0
TABLE
  2
LAYER
  5
2
330
0
100
AcDbSymbolTable
 70
     5
  0
LAYER
  5
10
330
2
100
AcDbSymbolTableRecord
100
AcDbLayerTableRecord
  2
0
 70
     0
 62
     7
  6
Continuous
370
    -3
390
F
  0
LAYER
  5
73
330
2
100
AcDbSymbolTableRecord
100
AcDbLayerTableRecord
  2
FORMAT
 70
     0
 62
     7
  6
Continuous
370
    -3
390
F
  0
LAYER
  5
74
330
2
100
AcDbSymbolTableRecord
100
AcDbLayerTableRecord
  2
VERMASSUNG
 70
     0
 62
     7
  6
Continuous
370
    -3
390
F
  0
LAYER
  5
75
330
2
100
AcDbSymbolTableRecord
100
AcDbLayerTableRecord
  2
KOPF_DÜNN
 70
     0
 62
     7
  6
Continuous
370
    -3
390
F
  0
LAYER
  5
76
330
2
100
AcDbSymbolTableRecord
100
AcDbLayerTableRecord
  2
KOPF_DICK
 70
     0
 62
     7
  6
Continuous
370
    25
390
F
  0
ENDTAB
  0
TABLE
  2
STYLE
  5
3
330
0
100
AcDbSymbolTable
 70
     3
  0
STYLE
  5
11
330
3
100
AcDbSymbolTableRecord
100
AcDbTextStyleTableRecord
  2
Standard
 70
     0
 40
0.0
 41
1.0
 50
0.0
 71
     0
 42
2.0
  3
txt
  4

  0
STYLE
  5
77
330
3
100
AcDbSymbolTableRecord
100
AcDbTextStyleTableRecord
  2
SLDTEXTSTYLE0
 70
     0
 40
0.0
 41
0.7
 50
0.0
 71
     0
 42
2.0
  3
TXT
  4

  0
STYLE
  5
7B
330
3
100
AcDbSymbolTableRecord
100
AcDbTextStyleTableRecord
  2
SLDTEXTSTYLE1
 70
     0
 40
0.0
 41
0.6428571429
 50
0.0
 71
     0
 42
2.0
  3
TXT
  4

  0
ENDTAB
  0
TABLE
  2
VIEW
  5
6
330
0
100
AcDbSymbolTable
 70
     0
  0
ENDTAB
  0
TABLE
  2
UCS
  5
7
330
0
100
AcDbSymbolTable
 70
     0
  0
ENDTAB
  0
TABLE
  2
APPID
  5
9
330
0
100
AcDbSymbolTable
 70
     1
  0
APPID
  5
12
330
9
100
AcDbSymbolTableRecord
100
AcDbRegAppTableRecord
  2
ACAD
 70
     0
  0
ENDTAB
  0
TABLE
  2
DIMSTYLE
  5
A
330
0
100
AcDbSymbolTable
 70
     3
100
AcDbDimStyleTable
  0
DIMSTYLE
105
27
330
A
100
AcDbSymbolTableRecord
100
AcDbDimStyleTableRecord
  2
ISO-25
 70
     0
 41
2.5
 42
0.625
 43
3.75
 44
1.25
 73
     0
 74
     0
 77
     1
 78
     8
140
2.5
141
2.5
143
0.0393700787
147
0.625
171
     3
172
     1
178
     0
271
     2
272
     2
274
     3
278
    44
283
     0
284
     8
340
11
  0
DIMSTYLE
105
12D
102
{ACAD_REACTORS
330
12C
330
138
330
143
330
14E
330
158
330
162
330
16E
102
}
330
A
100
AcDbSymbolTableRecord
100
AcDbDimStyleTableRecord
  2
SLDDIMSTYLE0
 70
     0
 41
3.0
 44
0.0
 45
0.000000001
 73
     0
 74
     0
 77
     1
 78
    12
 79
     3
140
2.0
147
0.5
173
     1
178
     0
271
     2
272
     3
276
     2
284
    12
340
77
  0
DIMSTYLE
105
179
102
{ACAD_REACTORS
330
178
102
}
330
A
100
AcDbSymbolTableRecord
100
AcDbDimStyleTableRecord
  2
SLDDIMSTYLE1
 70
     0
 41
3.0
 44
0.0
 45
0.000000001
 73
     0
 74
     0
 77
     1
 78
    12
 79
     3
140
2.0
147
0.5
173
     1
178
     0
271
     0
272
     3
276
     2
284
    12
340
77
  0
ENDTAB
  0
TABLE
  2
BLOCK_RECORD
  5
1
330
0
100
AcDbSymbolTable
 70
     9
  0
BLOCK_RECORD
  5
1F
330
1
100
AcDbSymbolTableRecord
100
AcDbBlockTableRecord
  2
*Model_Space
340
22
  0
BLOCK_RECORD
  5
1B
330
1
100
AcDbSymbolTableRecord
100
AcDbBlockTableRecord
  2
*Paper_Space
340
1E
  0
BLOCK_RECORD
  5
23
330
1
100
AcDbSymbolTableRecord
100
AcDbBlockTableRecord
  2
*Paper_Space0
340
26
  0
BLOCK_RECORD
  5
12E
330
1
100
AcDbSymbolTableRecord
100
AcDbBlockTableRecord
  2
_D
340
0
  0
BLOCK_RECORD
  5
139
330
1
100
AcDbSymbolTableRecord
100
AcDbBlockTableRecord
  2
_D_1
340
0
  0
BLOCK_RECORD
  5
144
330
1
100
AcDbSymbolTableRecord
100
AcDbBlockTableRecord
  2
_D_2
340
0
  0
BLOCK_RECORD
  5
14F
330
1
100
AcDbSymbolTableRecord
100
AcDbBlockTableRecord
  2
_D_3
340
0
  0
BLOCK_RECORD
  5
159
330
1
100
AcDbSymbolTableRecord
100
AcDbBlockTableRecord
  2
_D_4
340
0
  0
BLOCK_RECORD
  5
163
330
1
100
AcDbSymbolTableRecord
100
AcDbBlockTableRecord
  2
_D_5
340
0
  0
BLOCK_RECORD
  5
16F
330
1
100
AcDbSymbolTableRecord
100
AcDbBlockTableRecord
  2
_D_6
340
0
  0
BLOCK_RECORD
  5
17A
330
1
100
AcDbSymbolTableRecord
100
AcDbBlockTableRecord
  2
_D_7
340
0
  0
ENDTAB
  0
ENDSEC
  0
SECTION
  2
BLOCKS
  0
BLOCK
  5
20
330
1F
100
AcDbEntity
  8
0
100
AcDbBlockBegin
  2
*Model_Space
 70
     0
 10
0.0
 20
0.0
 30
0.0
  3
*Model_Space
  1

  0
ENDBLK
  5
21
330
1F
100
AcDbEntity
  8
0
100
AcDbBlockEnd
  0
BLOCK
  5
1C
330
1B
100
AcDbEntity
 67
     1
  8
0
100
AcDbBlockBegin
  2
*Paper_Space
 70
     0
 10
0.0
 20
0.0
 30
0.0
  3
*Paper_Space
  1

  0
ENDBLK
  5
1D
330
1B
100
AcDbEntity
 67
     1
  8
0
100
AcDbBlockEnd
  0
BLOCK
  5
24
330
23
100
AcDbEntity
  8
0
100
AcDbBlockBegin
  2
*Paper_Space0
 70
     0
 10
0.0
 20
0.0
 30
0.0
  3
*Paper_Space0
  1

  0
ENDBLK
  5
25
330
23
100
AcDbEntity
  8
0
100
AcDbBlockEnd
  0
BLOCK
  5
12F
330
12E
100
AcDbEntity
  8
0
100
AcDbBlockBegin
  2
_D
 70
     0
 10
0.0
 20
0.0
 30
0.0
  3
_D
  1

  0
SOLID
  5
131
330
12E
100
AcDbEntity
  8
VERMASSUNG
100
AcDbTrace
 10
281.5147363289
 20
107.1089251368
 30
0.0
 11
281.9647363289
 21
110.1089251368
 31
0.0
 12
281.0647363289
 22
110.1089251368
 32
0.0
 13
281.0647363289
 23
110.1089251368
 33
0.0
  0
SOLID
  5
132
330
12E
100
AcDbEntity
  8
VERMASSUNG
100
AcDbTrace
 10
281.5147363289
 20
147.1089251368
 30
0.0
 11
281.0647363289
 21
144.1089251368
 31
0.0
 12
281.9647363289
 22
144.1089251368
 32
0.0
 13
281.9647363289
 23
144.1089251368
 33
0.0
  0
LINE
  5
133
330
12E
100
AcDbEntity
  8
VERMASSUNG
100
AcDbLine
 10
234.6357059286
 20
107.1089251368
 30
0.0
 11
282.5147363289
 21
107.1089251368
 31
0.0
  0
LINE
  5
134
330
12E
100
AcDbEntity
  8
VERMASSUNG
100
AcDbLine
 10
234.6357059286
 20
147.1089251368
 30
0.0
 11
282.5147363289
 21
147.1089251368
 31
0.0
  0
LINE
  5
135
330
12E
100
AcDbEntity
  8
VERMASSUNG
100
AcDbLine
 10
281.5147363289
 20
107.1089251368
 30
0.0
 11
281.5147363289
 21
147.1089251368
 31
0.0
  0
MTEXT
  5
136
330
12E
100
AcDbEntity
  8
VERMASSUNG
100
AcDbMText
 10
278.936601024
 20
123.8039251166
 30
0.0
 40
2.0
 41
0.0
 71
     1
 72
     1
  1
%%c
  7
SLDTEXTSTYLE0
 11
6.123233995736766E-17
 21
1.0
 31
0.0
 73
     1
 44
1.0
  0
MTEXT
  5
137
330
12E
100
AcDbEntity
  8
VERMASSUNG
100
AcDbMText
 10
278.7366010727
 20
127.4139251309
 30
0.0
 40
2.0
 41
0.0
 71
     1
 72
     1
  1
40
  7
SLDTEXTSTYLE0
 11
6.123233995736766E-17
 21
1.0
 31
0.0
 73
     1
 44
1.0
  0
ENDBLK
  5
130
330
12E
100
AcDbEntity
  8
0
100
AcDbBlockEnd
  0
BLOCK
  5
13A
330
139
100
AcDbEntity
  8
0
100
AcDbBlockBegin
  2
_D_1
 70
     0
 10
0.0
 20
0.0
 30
0.0
  3
_D_1
  1

  0
SOLID
  5
13C
330
139
100
AcDbEntity
  8
VERMASSUNG
100
AcDbTrace
 10
290.3402438765
 20
167.1089251368
 30
0.0
 11
289.8902438765
 21
164.1089251368
 31
0.0
 12
290.7902438765
 22
164.1089251368
 32
0.0
 13
290.7902438765
 23
164.1089251368
 33
0.0
  0
SOLID
  5
13D
330
139
100
AcDbEntity
  8
VERMASSUNG
100
AcDbTrace
 10
290.3402438765
 20
87.1089251368
 30
0.0
 11
290.7902438765
 21
90.1089251368
 31
0.0
 12
289.8902438765
 22
90.1089251368
 32
0.0
 13
289.8902438765
 23
90.1089251368
 33
0.0
  0
LINE
  5
13E
330
139
100
AcDbEntity
  8
VERMASSUNG
100
AcDbLine
 10
207.6357059286
 20
167.1089251368
 30
0.0
 11
291.3402438765
 21
167.1089251368
 31
0.0
  0
LINE
  5
13F
330
139
100
AcDbEntity
  8
VERMASSUNG
100
AcDbLine
 10
207.6357059286
 20
87.1089251368
 30
0.0
 11
291.3402438765
 21
87.1089251368
 31
0.0
  0
LINE
  5
140
330
139
100
AcDbEntity
  8
VERMASSUNG
100
AcDbLine
 10
290.3402438765
 20
167.1089251368
 30
0.0
 11
290.3402438765
 21
87.1089251368
 31
0.0
  0
MTEXT
  5
141
330
139
100
AcDbEntity
  8
VERMASSUNG
100
AcDbMText
 10
287.7621085716
 20
123.9039251795
 30
0.0
 40
2.0
 41
0.0
 71
     1
 72
     1
  1
%%c
  7
SLDTEXTSTYLE0
 11
-7.044195017643634E-15
 21
1.0
 31
0.0
 73
     1
 44
1.0
  0
MTEXT
  5
142
330
139
100
AcDbEntity
  8
VERMASSUNG
100
AcDbMText
 10
287.5621086203
 20
127.5139251938
 30
0.0
 40
2.0
 41
0.0
 71
     1
 72
     1
  1
80
  7
SLDTEXTSTYLE0
 11
-7.044195017643634E-15
 21
1.0
 31
0.0
 73
     1
 44
1.0
  0
ENDBLK
  5
13B
330
139
100
AcDbEntity
  8
0
100
AcDbBlockEnd
  0
BLOCK
  5
145
330
144
100
AcDbEntity
  8
0
100
AcDbBlockBegin
  2
_D_2
 70
     0
 10
0.0
 20
0.0
 30
0.0
  3
_D_2
  1

  0
SOLID
  5
147
330
144
100
AcDbEntity
  8
VERMASSUNG
100
AcDbTrace
 10
7.90972648
 20
95.6089251368
 30
0.0
 11
8.35972648
 21
98.6089251368
 31
0.0
 12
7.45972648
 22
98.6089251368
 32
0.0
 13
7.45972648
 23
98.6089251368
 33
0.0
  0
SOLID
  5
148
330
144
100
AcDbEntity
  8
VERMASSUNG
100
AcDbTrace
 10
7.90972648
 20
158.6089251368
 30
0.0
 11
7.45972648
 21
155.6089251368
 31
0.0
 12
8.35972648
 22
155.6089251368
 32
0.0
 13
8.35972648
 23
155.6089251368
 33
0.0
  0
LINE
  5
149
330
144
100
AcDbEntity
  8
VERMASSUNG
100
AcDbLine
 10
48.9357059286
 20
95.6089251368
 30
0.0
 11
6.90972648
 21
95.6089251368
 31
0.0
  0
LINE
  5
14A
330
144
100
AcDbEntity
  8
VERMASSUNG
100
AcDbLine
 10
48.9357059286
 20
158.6089251368
 30
0.0
 11
6.90972648
 21
158.6089251368
 31
0.0
  0
LINE
  5
14B
330
144
100
AcDbEntity
  8
VERMASSUNG
100
AcDbLine
 10
7.90972648
 20
95.6089251368
 30
0.0
 11
7.90972648
 21
158.6089251368
 31
0.0
  0
MTEXT
  5
14C
330
144
100
AcDbEntity
  8
VERMASSUNG
100
AcDbMText
 10
5.3315911751
 20
123.9039251795
 30
0.0
 40
2.0
 41
0.0
 71
     1
 72
     1
  1
%%c
  7
SLDTEXTSTYLE0
 11
6.123233995736766E-17
 21
1.0
 31
0.0
 73
     1
 44
1.0
  0
MTEXT
  5
14D
330
144
100
AcDbEntity
  8
VERMASSUNG
100
AcDbMText
 10
5.1315912238
 20
127.5139251938
 30
0.0
 40
2.0
 41
0.0
 71
     1
 72
     1
  1
63
  7
SLDTEXTSTYLE0
 11
6.123233995736766E-17
 21
1.0
 31
0.0
 73
     1
 44
1.0
  0
ENDBLK
  5
146
330
144
100
AcDbEntity
  8
0
100
AcDbBlockEnd
  0
BLOCK
  5
150
330
14F
100
AcDbEntity
  8
0
100
AcDbBlockBegin
  2
_D_3
 70
     0
 10
0.0
 20
0.0
 30
0.0
  3
_D_3
  1

  0
SOLID
  5
152
330
14F
100
AcDbEntity
  8
VERMASSUNG
100
AcDbTrace
 10
74.5857059286
 20
177.1089251368
 30
0.0
 11
77.5857059286
 21
176.6589251368
 31
0.0
 12
77.5857059286
 22
177.5589251368
 32
0.0
 13
77.5857059286
 23
177.5589251368
 33
0.0
  0
SOLID
  5
153
330
14F
100
AcDbEntity
  8
VERMASSUNG
100
AcDbTrace
 10
208.6357059286
 20
177.1089251368
 30
0.0
 11
205.6357059286
 21
177.5589251368
 31
0.0
 12
205.6357059286
 22
176.6589251368
 32
0.0
 13
205.6357059286
 23
176.6589251368
 33
0.0
  0
LINE
  5
154
330
14F
100
AcDbEntity
  8
VERMASSUNG
100
AcDbLine
 10
74.5857059286
 20
156.9553654605
 30
0.0
 11
74.5857059286
 21
178.1089251368
 31
0.0
  0
LINE
  5
155
330
14F
100
AcDbEntity
  8
VERMASSUNG
100
AcDbLine
 10
208.6357059286
 20
166.1089251368
 30
0.0
 11
208.6357059286
 21
178.1089251368
 31
0.0
  0
LINE
  5
156
330
14F
100
AcDbEntity
  8
VERMASSUNG
100
AcDbLine
 10
74.5857059286
 20
177.1089251368
 30
0.0
 11
208.6357059286
 21
177.1089251368
 31
0.0
  0
MTEXT
  5
157
330
14F
100
AcDbEntity
  8
VERMASSUNG
100
AcDbMText
 10
137.9107059274
 20
179.6870607327
 30
0.0
 40
2.0
 41
0.0
 71
     1
 72
     1
  1
134.05
  7
SLDTEXTSTYLE0
 73
     1
 44
1.0
  0
ENDBLK
  5
151
330
14F
100
AcDbEntity
  8
0
100
AcDbBlockEnd
  0
BLOCK
  5
15A
330
159
100
AcDbEntity
  8
0
100
AcDbBlockBegin
  2
_D_4
 70
     0
 10
0.0
 20
0.0
 30
0.0
  3
_D_4
  1

  0
SOLID
  5
15C
330
159
100
AcDbEntity
  8
VERMASSUNG
100
AcDbTrace
 10
48.6357059286
 20
186.6115080662
 30
0.0
 11
51.6357059286
 21
186.1615080662
 31
0.0
 12
51.6357059286
 22
187.0615080662
 32
0.0
 13
51.6357059286
 23
187.0615080662
 33
0.0
  0
SOLID
  5
15D
330
159
100
AcDbEntity
  8
VERMASSUNG
100
AcDbTrace
 10
208.6357059286
 20
186.6115080662
 30
0.0
 11
205.6357059286
 21
187.0615080662
 31
0.0
 12
205.6357059286
 22
186.1615080662
 32
0.0
 13
205.6357059286
 23
186.1615080662
 33
0.0
  0
LINE
  5
15E
330
159
100
AcDbEntity
  8
VERMASSUNG
100
AcDbLine
 10
48.6357059286
 20
158.3089251368
 30
0.0
 11
48.6357059286
 21
187.6115080662
 31
0.0
  0
LINE
  5
15F
330
159
100
AcDbEntity
  8
VERMASSUNG
100
AcDbLine
 10
208.6357059286
 20
166.1089251368
 30
0.0
 11
208.6357059286
 21
187.6115080662
 31
0.0
  0
LINE
  5
160
330
159
100
AcDbEntity
  8
VERMASSUNG
100
AcDbLine
 10
48.6357059286
 20
186.6115080662
 30
0.0
 11
208.6357059286
 21
186.6115080662
 31
0.0
  0
MTEXT
  5
161
330
159
100
AcDbEntity
  8
VERMASSUNG
100
AcDbMText
 10
126.7357058965
 20
189.1896436621
 30
0.0
 40
2.0
 41
0.0
 71
     1
 72
     1
  1
160
  7
SLDTEXTSTYLE0
 73
     1
 44
1.0
  0
ENDBLK
  5
15B
330
159
100
AcDbEntity
  8
0
100
AcDbBlockEnd
  0
BLOCK
  5
164
330
163
100
AcDbEntity
  8
0
100
AcDbBlockBegin
  2
_D_5
 70
     0
 10
0.0
 20
0.0
 30
0.0
  3
_D_5
  1

  0
ARC
  5
166
330
163
100
AcDbEntity
  8
VERMASSUNG
100
AcDbCircle
 10
139.2857061026
 20
197.0089254016
 30
0.0
 40
4.24852922888762
100
AcDbArc
 50
153.4349488229
 51
206.5650511771
  0
ARC
  5
167
330
163
100
AcDbEntity
  8
VERMASSUNG
100
AcDbCircle
 10
138.0857058127
 20
197.0089254016
 30
0.0
 40
4.24852922888762
100
AcDbArc
 50
333.4349488229
 51
26.5650511771
  0
SOLID
  5
168
330
163
100
AcDbEntity
  8
VERMASSUNG
100
AcDbTrace
 10
16.7357059286
 20
195.1089251368
 30
0.0
 11
19.7357059286
 21
194.6589251368
 31
0.0
 12
19.7357059286
 22
195.5589251368
 32
0.0
 13
19.7357059286
 23
195.5589251368
 33
0.0
  0
SOLID
  5
169
330
163
100
AcDbEntity
  8
VERMASSUNG
100
AcDbTrace
 10
260.6357059286
 20
195.1089251368
 30
0.0
 11
257.6357059286
 21
195.5589251368
 31
0.0
 12
257.6357059286
 22
194.6589251368
 32
0.0
 13
257.6357059286
 23
194.6589251368
 33
0.0
  0
LINE
  5
16A
330
163
100
AcDbEntity
  8
VERMASSUNG
100
AcDbLine
 10
16.7357059286
 20
146.7996028832
 30
0.0
 11
16.7357059286
 21
196.1089251368
 31
0.0
  0
LINE
  5
16B
330
163
100
AcDbEntity
  8
VERMASSUNG
100
AcDbLine
 10
260.6357059286
 20
141.1089251368
 30
0.0
 11
260.6357059286
 21
196.1089251368
 31
0.0
  0
LINE
  5
16C
330
163
100
AcDbEntity
  8
VERMASSUNG
100
AcDbLine
 10
16.7357059286
 20
195.1089251368
 30
0.0
 11
260.6357059286
 21
195.1089251368
 31
0.0
  0
MTEXT
  5
16D
330
163
100
AcDbEntity
  8
VERMASSUNG
100
AcDbMText
 10
135.4857060385
 20
197.6870609656
 30
0.0
 40
2.0
 41
0.0
 71
     1
 72
     1
  1
243.9
  7
SLDTEXTSTYLE0
 73
     1
 44
1.0
  0
ENDBLK
  5
165
330
163
100
AcDbEntity
  8
0
100
AcDbBlockEnd
  0
BLOCK
  5
170
330
16F
100
AcDbEntity
  8
0
100
AcDbBlockBegin
  2
_D_6
 70
     0
 10
0.0
 20
0.0
 30
0.0
  3
_D_6
  1

  0
SOLID
  5
172
330
16F
100
AcDbEntity
  8
VERMASSUNG
100
AcDbTrace
 10
208.6357059286
 20
177.1089251368
 30
0.0
 11
211.6357059286
 21
176.6589251368
 31
0.0
 12
211.6357059286
 22
177.5589251368
 32
0.0
 13
211.6357059286
 23
177.5589251368
 33
0.0
  0
SOLID
  5
173
330
16F
100
AcDbEntity
  8
VERMASSUNG
100
AcDbTrace
 10
235.6357059286
 20
177.1089251368
 30
0.0
 11
232.6357059286
 21
177.5589251368
 31
0.0
 12
232.6357059286
 22
176.6589251368
 32
0.0
 13
232.6357059286
 23
176.6589251368
 33
0.0
  0
LINE
  5
174
330
16F
100
AcDbEntity
  8
VERMASSUNG
100
AcDbLine
 10
208.6357059286
 20
166.1089251368
 30
0.0
 11
208.6357059286
 21
178.1089251368
 31
0.0
  0
LINE
  5
175
330
16F
100
AcDbEntity
  8
VERMASSUNG
100
AcDbLine
 10
235.6357059286
 20
146.1089251368
 30
0.0
 11
235.6357059286
 21
178.1089251368
 31
0.0
  0
LINE
  5
176
330
16F
100
AcDbEntity
  8
VERMASSUNG
100
AcDbLine
 10
208.6357059286
 20
177.1089251368
 30
0.0
 11
235.6357059286
 21
177.1089251368
 31
0.0
  0
MTEXT
  5
177
330
16F
100
AcDbEntity
  8
VERMASSUNG
100
AcDbMText
 10
220.7357059785
 20
179.6870607327
 30
0.0
 40
2.0
 41
0.0
 71
     1
 72
     1
  1
27
  7
SLDTEXTSTYLE0
 73
     1
 44
1.0
  0
ENDBLK
  5
171
330
16F
100
AcDbEntity
  8
0
100
AcDbBlockEnd
  0
BLOCK
  5
17B
330
17A
100
AcDbEntity
  8
0
100
AcDbBlockBegin
  2
_D_7
 70
     0
 10
0.0
 20
0.0
 30
0.0
  3
_D_7
  1

  0
SOLID
  5
17D
330
17A
100
AcDbEntity
  8
VERMASSUNG
100
AcDbTrace
 10
272.8959546437
 20
135.7239251368
 30
0.0
 11
272.4459546437
 21
132.7239251368
 31
0.0
 12
273.3459546437
 22
132.7239251368
 32
0.0
 13
273.3459546437
 23
132.7239251368
 33
0.0
  0
SOLID
  5
17E
330
17A
100
AcDbEntity
  8
VERMASSUNG
100
AcDbTrace
 10
272.8959546437
 20
118.4939251368
 30
0.0
 11
273.3459546437
 21
121.4939251368
 31
0.0
 12
272.4459546437
 22
121.4939251368
 32
0.0
 13
272.4459546437
 23
121.4939251368
 33
0.0
  0
LINE
  5
17F
330
17A
100
AcDbEntity
  8
VERMASSUNG
100
AcDbLine
 10
260.6357059286
 20
135.7239251368
 30
0.0
 11
273.8959546437
 21
135.7239251368
 31
0.0
  0
LINE
  5
180
330
17A
100
AcDbEntity
  8
VERMASSUNG
100
AcDbLine
 10
260.6357059286
 20
118.4939251368
 30
0.0
 11
273.8959546437
 21
118.4939251368
 31
0.0
  0
LINE
  5
181
330
17A
100
AcDbEntity
  8
VERMASSUNG
100
AcDbLine
 10
272.8959546437
 20
135.7239251368
 30
0.0
 11
272.8959546437
 21
118.4939251368
 31
0.0
  0
MTEXT
  5
182
330
17A
100
AcDbEntity
  8
VERMASSUNG
100
AcDbMText
 10
270.3178190477
 20
124.0089250477
 30
0.0
 40
2.0
 41
0.0
 71
     1
 72
     1
  1
SW
  7
SLDTEXTSTYLE0
 11
-7.044195017643634E-15
 21
1.0
 31
0.0
 73
     1
 44
1.0
  0
MTEXT
  5
183
330
17A
100
AcDbEntity
  8
VERMASSUNG
100
AcDbMText
 10
270.3178190477
 20
127.8089251118
 30
0.0
 40
2.0
 41
0.0
 71
     1
 72
     1
  1
17
  7
SLDTEXTSTYLE0
 11
-7.044195017643634E-15
 21
1.0
 31
0.0
 73
     1
 44
1.0
  0
ENDBLK
  5
17C
330
17A
100
AcDbEntity
  8
0
100
AcDbBlockEnd
  0
ENDSEC
  0
SECTION
  2
ENTITIES
  0
MTEXT
  5
78
330
1F
100
AcDbEntity
  8
KOPF_DÜNN
100
AcDbMText
 10
13.8892156294
 20
23.8442973028
 30
0.0
 40
3.0
 41
0.0
 71
     1
 72
     1
  1
HA6.D40.K01.160
  7
SLDTEXTSTYLE0
 73
     1
 44
1.0
  0
MTEXT
  5
79
330
1F
100
AcDbEntity
  8
VERMASSUNG
100
AcDbMText
 10
13.9329988022
 20
28.8834360957
 30
0.0
 40
3.0
 41
0.0
 71
     1
 72
     1
  1
Fräsdorn Typ S_Milling arbor type S
  7
SLDTEXTSTYLE0
 73
     1
 44
1.0
  0
MTEXT
  5
7A
330
1F
100
AcDbEntity
  8
VERMASSUNG
100
AcDbMText
 10
98.8601118557
 20
13.8365368761
 30
0.0
 40
2.0
 41
0.0
 71
     1
 72
     1
  1
Datum: 19.02.2018
  7
SLDTEXTSTYLE0
 73
     1
 44
1.0
  0
MTEXT
  5
7C
330
1F
100
AcDbEntity
  8
VERMASSUNG
100
AcDbMText
 10
13.933048693
 20
18.0482802738
 30
0.0
 40
2.0
 41
0.0
 71
     1
 72
     1
  1
HSK A 63 / Ø40
  7
SLDTEXTSTYLE1
 73
     1
 44
1.0
  0
MTEXT
  5
7D
330
1F
100
AcDbEntity
  8
VERMASSUNG
100
AcDbMText
 10
13.9808475933
 20
13.9090974274
 30
0.0
 40
2.0
 41
0.0
 71
     1
 72
     1
  1
Gewicht: 5752g
  7
SLDTEXTSTYLE0
 73
     1
 44
1.0
  0
LINE
  5
7E
330
1F
100
AcDbEntity
  8
0
  6
Continuous
 62
     7
370
    25
100
AcDbLine
 10
208.6357023523
 20
89.1089263587
 30
0.0
 11
215.1357080743
 21
89.1089263587
 31
0.0
  0
LINE
  5
7F
330
1F
100
AcDbEntity
  8
0
  6
Continuous
 62
     7
370
    25
100
AcDbLine
 10
215.1357080743
 20
105.108925256
 30
0.0
 11
208.6357023523
 21
105.108925256
 31
0.0
  0
ARC
  5
80
330
1F
100
AcDbEntity
  8
0
  6
Continuous
 62
     7
370
    25
100
AcDbCircle
 10
215.1357059286
 20
89.6089251368
 30
0.0
 40
0.5
100
AcDbArc
 50
270.0
 51
0.0
  0
ARC
  5
81
330
1F
100
AcDbEntity
  8
0
  6
Continuous
 62
     7
370
    25
100
AcDbCircle
 10
215.1357059286
 20
104.6089251368
 30
0.0
 40
0.5
100
AcDbArc
 50
0.0
 51
90.0
  0
ARC
  5
82
330
1F
100
AcDbEntity
  8
0
  6
Continuous
 62
     7
370
    25
100
AcDbCircle
 10
215.1357059286
 20
149.6089251368
 30
0.0
 40
0.5
100
AcDbArc
 50
270.0
 51
0.0
  0
ARC
  5
83
330
1F
100
AcDbEntity
  8
0
  6
Continuous
 62
     7
370
    25
100
AcDbCircle
 10
215.1357059286
 20
164.6089251368
 30
0.0
 40
0.5
100
AcDbArc
 50
0.0
 51
90.0
  0
LINE
  5
84
330
1F
100
AcDbEntity
  8
0
  6
Continuous
 62
     7
370
    25
100
AcDbLine
 10
208.6357023523
 20
149.1089250176
 30
0.0
 11
215.1357080743
 21
149.1089250176
 31
0.0
  0
LINE
  5
85
330
1F
100
AcDbEntity
  8
0
  6
Continuous
 62
     7
370
    25
100
AcDbLine
 10
215.1357080743
 20
165.1089239149
 30
0.0
 11
208.6357023523
 21
165.1089239149
 31
0.0
  0
LINE
  5
86
330
1F
100
AcDbEntity
  8
0
  6
Continuous
 62
     7
370
    25
100
AcDbLine
 10
259.6357013986
 20
142.1089248015
 30
0.0
 11
240.6357075975
 21
142.1089248015
 31
0.0
  0
LINE
  5
87
330
1F
100
AcDbEntity
  8
0
  6
Continuous
 62
     7
370
    25
100
AcDbLine
 10
240.6357075975
 20
112.108925472
 30
0.0
 11
259.6357013986
 21
112.108925472
 31
0.0
  0
ARC
  5
88
330
1F
100
AcDbEntity
  8
0
  6
Continuous
 62
     7
370
    25
100
AcDbCircle
 10
259.6357059286
 20
141.1089251368
 30
0.0
 40
1.0
100
AcDbArc
 50
0.0
 51
90.0
  0
ARC
  5
89
330
1F
100
AcDbEntity
  8
0
  6
Continuous
 62
     7
370
    25
100
AcDbCircle
 10
259.6357059286
 20
113.1089251368
 30
0.0
 40
1.0
100
AcDbArc
 50
270.0
 51
0.0
  0
ARC
  5
8A
330
1F
100
AcDbEntity
  8
0
  6
Continuous
 62
     7
370
    25
100
AcDbCircle
 10
239.8357059286
 20
116.3089251368
 30
0.0
 40
0.8000000000000114
100
AcDbArc
 50
0.0
 51
90.0
  0
ARC
  5
8B
330
1F
100
AcDbEntity
  8
0
  6
Continuous
 62
     7
370
    25
100
AcDbCircle
 10
239.8357059286
 20
137.9089251368
 30
0.0
 40
0.8000000000000114
100
AcDbArc
 50
270.0
 51
0.0
  0
LINE
  5
8C
330
1F
100
AcDbEntity
  8
0
  6
Continuous
 62
     7
370
    25
100
AcDbLine
 10
239.8357089565
 20
137.1089249132
 30
0.0
 11
235.6357123659
 21
137.1089249132
 31
0.0
  0
LINE
  5
8D
330
1F
100
AcDbEntity
  8
0
  6
Continuous
 62
     7
370
    25
100
AcDbLine
 10
235.6357123659
 20
117.1089253603
 30
0.0
 11
239.8357089565
 21
117.1089253603
 31
0.0
  0
LINE
  5
8E
330
1F
100
AcDbEntity
  8
0
  6
Continuous
 62
     7
370
    25
100
AcDbLine
 10
99.2959584997
 20
87.1089260308
 30
0.0
 11
207.6357003257
 21
87.1089260308
 31
0.0
  0
LINE
  5
8F
330
1F
100
AcDbEntity
  8
0
  6
Continuous
 62
     7
370
    25
100
AcDbLine
 10
207.6357003257
 20
167.1089242427
 30
0.0
 11
99.2959584997
 21
167.1089242427
 31
0.0
  0
ARC
  5
90
330
1F
100
AcDbEntity
  8
0
  6
Continuous
 62
     7
370
    25
100
AcDbCircle
 10
207.6357059286
 20
88.1089251368
 30
0.0
 40
1.0
100
AcDbArc
 50
270.0
 51
0.0
  0
ARC
  5
91
330
1F
100
AcDbEntity
  8
0
  6
Continuous
 62
     7
370
    25
100
AcDbCircle
 10
207.6357059286
 20
166.1089251368
 30
0.0
 40
1.0
100
AcDbArc
 50
0.0
 51
90.0
  0
ARC
  5
92
330
1F
100
AcDbEntity
  8
0
  6
Continuous
 62
     7
370
    25
100
AcDbCircle
 10
99.2959599664
 20
88.1089251368
 30
0.0
 40
1.0
100
AcDbArc
 50
210.0
 51
270.0
  0
ARC
  5
93
330
1F
100
AcDbEntity
  8
0
  6
Continuous
 62
     7
370
    25
100
AcDbCircle
 10
99.2959599664
 20
166.1089251368
 30
0.0
 40
1.0
100
AcDbArc
 50
90.0
 51
150.0
  0
LINE
  5
94
330
1F
100
AcDbEntity
  8
0
  6
Continuous
 62
     7
370
    25
100
AcDbLine
 10
98.4299328134
 20
166.6089269547
 30
0.0
 11
90.9243818328
 21
153.6089248238
 31
0.0
  0
LINE
  5
95
330
1F
100
AcDbEntity
  8
0
  6
Continuous
 62
     7
370
    25
100
AcDbLine
 10
90.9243818328
 20
100.6089254497
 30
0.0
 11
98.4299328134
 21
87.6089233188
 31
0.0
  0
ARC
  5
96
330
1F
100
AcDbEntity
  8
0
  6
Continuous
 62
     7
370
    25
100
AcDbCircle
 10
48.9357059286
 20
95.9089251368
 30
0.0
 40
0.2999999999999972
100
AcDbArc
 50
180.0
 51
270.0
  0
ARC
  5
97
330
1F
100
AcDbEntity
  8
0
  6
Continuous
 62
     7
370
    25
100
AcDbCircle
 10
48.9357059286
 20
158.3089251368
 30
0.0
 40
0.2999999999999901
100
AcDbArc
 50
90.0
 51
180.0
  0
LINE
  5
98
330
1F
100
AcDbEntity
  8
0
  6
Continuous
 62
     7
370
    25
100
AcDbLine
 10
48.9357059428
 20
95.6089246301
 30
0.0
 11
53.5857059017
 21
95.6089246301
 31
0.0
  0
LINE
  5
99
330
1F
100
AcDbEntity
  8
0
  6
Continuous
 62
     7
370
    25
100
AcDbLine
 10
53.6801182621
 20
158.6089256434
 30
0.0
 11
48.9357059428
 21
158.6089256434
 31
0.0
  0
ARC
  5
9A
330
1F
100
AcDbEntity
  8
0
  6
Continuous
 62
     7
370
    25
100
AcDbCircle
 10
75.5857059286
 20
100.1089251368
 30
0.0
 40
1.000000000000006
100
AcDbArc
 50
90.0
 51
143.1139143113
  0
ARC
  5
9B
330
1F
100
AcDbEntity
  8
0
  6
Continuous
 62
     7
370
    25
100
AcDbCircle
 10
75.5857059286
 20
154.1089251368
 30
0.0
 40
1.0
100
AcDbArc
 50
216.9203522444
 51
270.0
  0
ARC
  5
9C
330
1F
100
AcDbEntity
  8
0
  6
Continuous
 62
     7
370
    25
100
AcDbCircle
 10
90.0583556594
 20
100.1089251368
 30
0.0
 40
1.0
100
AcDbArc
 50
30.0
 51
90.0
  0
ARC
  5
9D
330
1F
100
AcDbEntity
  8
0
  6
Continuous
 62
     7
370
    25
100
AcDbCircle
 10
90.0583556594
 20
154.1089251368
 30
0.0
 40
1.0
100
AcDbArc
 50
270.0
 51
330.0
  0
LINE
  5
9E
330
1F
100
AcDbEntity
  8
0
  6
Continuous
 62
     7
370
    25
100
AcDbLine
 10
75.5857057825
 20
101.1089246003
 30
0.0
 11
90.0583561466
 21
101.1089246003
 31
0.0
  0
LINE
  5
9F
330
1F
100
AcDbEntity
  8
0
  6
Continuous
 62
     7
370
    25
100
AcDbLine
 10
90.0583561466
 20
153.1089256732
 30
0.0
 11
75.5857057825
 21
153.1089256732
 31
0.0
  0
ARC
  5
A0
330
1F
100
AcDbEntity
  8
0
  6
Continuous
 62
     7
370
    25
100
AcDbCircle
 10
48.1356991759
 20
102.5384875224
 30
0.0
 40
0.6000067526677223
100
AcDbArc
 50
33.5571153394
 51
90.0
  0
ARC
  5
A1
330
1F
100
AcDbEntity
  8
0
  6
Continuous
 62
     7
370
    25
100
AcDbCircle
 10
48.1356991759
 20
151.6793627512
 30
0.0
 40
0.6000067526677242
100
AcDbArc
 50
270.0
 51
326.4428846606
  0
LINE
  5
A2
330
1F
100
AcDbEntity
  8
0
  6
Continuous
 62
     7
370
    25
100
AcDbLine
 10
46.6357058336
 20
102.8884939133
 30
0.0
 11
47.4924187597
 21
103.1180500267
 31
0.0
  0
LINE
  5
A3
330
1F
100
AcDbEntity
  8
0
  6
Continuous
 62
     7
370
    25
100
AcDbLine
 10
47.4924187597
 20
151.0998002468
 30
0.0
 11
46.6357058336
 21
151.3293563603
 31
0.0
  0
LINE
  5
A4
330
1F
100
AcDbEntity
  8
0
  6
Continuous
 62
     7
370
    25
100
AcDbLine
 10
35.4052834169
 20
150.7667090027
 30
0.0
 11
22.8357050524
 21
150.1369710295
 31
0.0
  0
LINE
  5
A5
330
1F
100
AcDbEntity
  8
0
  6
Continuous
 62
     7
370
    25
100
AcDbLine
 10
46.6357058336
 20
151.3293563603
 30
0.0
 11
43.8170964785
 21
151.1881436436
 31
0.0
  0
LINE
  5
A6
330
1F
100
AcDbEntity
  8
0
  6
Continuous
 62
     7
370
    25
100
AcDbLine
 10
43.8173181333
 20
103.0296954541
 30
0.0
 11
46.6357058336
 21
102.8884939133
 31
0.0
  0
LINE
  5
A7
330
1F
100
AcDbEntity
  8
0
  6
Continuous
 62
     7
370
    25
100
AcDbLine
 10
26.835705708
 20
103.8804791151
 30
0.0
 11
35.4059828401
 21
103.4511058806
 31
0.0
  0
ARC
  5
A8
330
1F
100
AcDbEntity
  8
0
  6
Continuous
 62
     7
370
    25
100
AcDbCircle
 10
47.647710129
 20
102.538494275
 30
0.0
 40
0.6000000000000085
100
AcDbArc
 50
90.0
 51
105.0
  0
ARC
  5
A9
330
1F
100
AcDbEntity
  8
0
  6
Continuous
 62
     7
370
    25
100
AcDbCircle
 10
47.647710129
 20
151.6793559985
 30
0.0
 40
0.5999999999999971
100
AcDbArc
 50
255.0
 51
270.0
  0
LINE
  5
AA
330
1F
100
AcDbEntity
  8
0
  6
Continuous
 62
     7
370
    25
100
AcDbLine
 10
47.6477101634
 20
103.1384944199
 30
0.0
 11
48.1356991527
 21
103.1384944199
 31
0.0
  0
LINE
  5
AB
330
1F
100
AcDbEntity
  8
0
  6
Continuous
 62
     7
370
    25
100
AcDbLine
 10
48.1356991527
 20
151.0793558536
 30
0.0
 11
47.6477101634
 21
151.0793558536
 31
0.0
  0
ARC
  5
AC
330
1F
100
AcDbEntity
  8
0
  6
Continuous
 62
     7
370
    25
100
AcDbCircle
 10
209.0357059286
 20
106.8589251368
 30
0.0
 40
0.599999999999982
100
AcDbArc
 50
90.0
 51
131.8103148958
  0
ARC
  5
AD
330
1F
100
AcDbEntity
  8
0
  6
Continuous
 62
     7
370
    25
100
AcDbCircle
 10
209.0357059286
 20
147.3589251368
 30
0.0
 40
0.6000000000000031
100
AcDbArc
 50
228.1896851042
 51
270.0
  0
LINE
  5
AE
330
1F
100
AcDbEntity
  8
0
  6
Continuous
 62
     7
370
    25
100
AcDbLine
 10
211.1356999681
 20
107.1089255838
 30
0.0
 11
234.6357103393
 21
107.1089255838
 31
0.0
  0
LINE
  5
AF
330
1F
100
AcDbEntity
  8
0
  6
Continuous
 62
     7
370
    25
100
AcDbLine
 10
234.6357103393
 20
147.1089246897
 30
0.0
 11
211.1356999681
 21
147.1089246897
 31
0.0
  0
ARC
  5
B0
330
1F
100
AcDbEntity
  8
0
  6
Continuous
 62
     7
370
    25
100
AcDbCircle
 10
234.6357059286
 20
108.1089251368
 30
0.0
 40
1.0
100
AcDbArc
 50
270.0
 51
0.0
  0
ARC
  5
B1
330
1F
100
AcDbEntity
  8
0
  6
Continuous
 62
     7
370
    25
100
AcDbCircle
 10
234.6357059286
 20
146.1089251368
 30
0.0
 40
1.000000000000028
100
AcDbArc
 50
0.0
 51
90.0
  0
LINE
  5
B2
330
1F
100
AcDbEntity
  8
0
  6
Continuous
 62
     7
370
    25
100
AcDbLine
 10
211.1356999681
 20
147.1089246897
 30
0.0
 11
209.9057879255
 21
146.7793687461
 31
0.0
  0
LINE
  5
B3
330
1F
100
AcDbEntity
  8
0
  6
Continuous
 62
     7
370
    25
100
AcDbLine
 10
209.9057879255
 20
107.4384815274
 30
0.0
 11
211.1356999681
 21
107.1089255838
 31
0.0
  0
ARC
  5
B4
330
1F
100
AcDbEntity
  8
0
  6
Continuous
 62
     7
370
    25
100
AcDbCircle
 10
209.7504966473
 20
106.8589251368
 30
0.0
 40
0.5999999999999943
100
AcDbArc
 50
75.0
 51
90.0
  0
ARC
  5
B5
330
1F
100
AcDbEntity
  8
0
  6
Continuous
 62
     7
370
    25
100
AcDbCircle
 10
209.7504966473
 20
147.3589251368
 30
0.0
 40
0.6000000000000227
100
AcDbArc
 50
270.0
 51
285.0
  0
LINE
  5
B6
330
1F
100
AcDbEntity
  8
0
  6
Continuous
 62
     7
370
    25
100
AcDbLine
 10
209.0357091234
 20
107.4589259206
 30
0.0
 11
209.7505029247
 21
107.4589259206
 31
0.0
  0
LINE
  5
B7
330
1F
100
AcDbEntity
  8
0
  6
Continuous
 62
     7
370
    25
100
AcDbLine
 10
209.7505029247
 20
146.758924353
 30
0.0
 11
209.0357091234
 21
146.758924353
 31
0.0
  0
LINE
  5
B8
330
1F
100
AcDbEntity
  8
0
  6
Continuous
 62
     7
370
    25
100
AcDbLine
 10
17.8857050792
 20
106.2389250128
 30
0.0
 11
25.4357062236
 21
106.2389250128
 31
0.0
  0
ARC
  5
B9
330
1F
100
AcDbEntity
  8
0
  6
Continuous
 62
     7
370
    25
100
AcDbCircle
 10
25.4357059286
 20
104.8389251368
 30
0.0
 40
1.399999999999991
100
AcDbArc
 50
42.2465410162
 51
90.0
  0
LINE
  5
BA
330
1F
100
AcDbEntity
  8
0
  6
Continuous
 62
     7
370
    25
100
AcDbLine
 10
16.7367380068
 20
107.3878920852
 30
0.0
 11
17.8768686906
 21
106.2477614014
 31
0.0
  0
LINE
  5
BB
330
1F
100
AcDbEntity
  8
0
  6
Continuous
 62
     7
370
    25
100
AcDbLine
 10
17.8768686906
 20
147.9700888722
 30
0.0
 11
16.651890795
 21
146.7451091139
 31
0.0
  0
ARC
  5
BC
330
1F
100
AcDbEntity
  8
0
  6
Continuous
 62
     7
370
    25
100
AcDbCircle
 10
21.4357059286
 20
149.3789251368
 30
0.0
 40
1.400000000000006
100
AcDbArc
 50
270.0
 51
301.7485287426
  0
LINE
  5
BD
330
1F
100
AcDbEntity
  8
0
  6
Continuous
 62
     7
370
    25
100
AcDbLine
 10
21.4357055679
 20
147.9789252607
 30
0.0
 11
17.8857050792
 21
147.9789252607
 31
0.0
  0
LINE
  5
BE
330
1F
100
AcDbEntity
  8
0
  6
Continuous
 62
     7
370
    25
100
AcDbLine
 10
215.635701637
 20
89.6089236466
 30
0.0
 11
215.635701637
 21
104.6089242427
 31
0.0
  0
LINE
  5
BF
330
1F
100
AcDbEntity
  8
0
  6
Continuous
 62
     7
370
    25
100
AcDbLine
 10
215.635701637
 20
149.6089260308
 30
0.0
 11
215.635701637
 21
164.6089229016
 31
0.0
  0
LINE
  5
C0
330
1F
100
AcDbEntity
  8
0
  6
Continuous
 62
     7
370
    25
100
AcDbLine
 10
240.6357075975
 20
142.1089248015
 30
0.0
 11
240.6357075975
 21
112.108925472
 31
0.0
  0
LINE
  5
C1
330
1F
100
AcDbEntity
  8
0
  6
Continuous
 62
     7
370
    25
100
AcDbLine
 10
260.6357034252
 20
141.1089255689
 30
0.0
 11
260.6357034252
 21
113.108925636
 31
0.0
  0
SPLINE
  5
C2
330
1F
100
AcDbEntity
  8
0
  6
Continuous
 62
     7
370
    25
100
AcDbSpline
210
0.0
220
0.0
230
1.0
 70
    11
 71
     3
 72
    66
 73
    62
 74
     0
 42
0.000000001
 43
0.00000001
 40
0.0
 40
0.0
 40
0.0
 40
0.0
 40
0.0312499999999995
 40
0.0312499999999995
 40
0.062499999999999
 40
0.062499999999999
 40
0.1249999999999981
 40
0.1249999999999981
 40
0.1562499999999981
 40
0.1562499999999981
 40
0.1874999999999982
 40
0.1874999999999982
 40
0.2187499999999983
 40
0.2187499999999983
 40
0.2499999999999983
 40
0.2499999999999983
 40
0.2812499999999984
 40
0.2812499999999984
 40
0.3124999999999984
 40
0.3124999999999984
 40
0.3749999999999986
 40
0.3749999999999986
 40
0.4062499999999987
 40
0.4062499999999987
 40
0.4374999999999987
 40
0.4374999999999987
 40
0.4687499999999988
 40
0.4687499999999988
 40
0.4999999999999989
 40
0.4999999999999989
 40
0.531249999999999
 40
0.531249999999999
 40
0.562499999999999
 40
0.562499999999999
 40
0.5937499999999991
 40
0.5937499999999991
 40
0.6249999999999991
 40
0.6249999999999991
 40
0.6562499999999992
 40
0.6562499999999992
 40
0.6874999999999993
 40
0.6874999999999993
 40
0.7187499999999993
 40
0.7187499999999993
 40
0.7499999999999994
 40
0.7499999999999994
 40
0.7812499999999996
 40
0.7812499999999996
 40
0.8124999999999996
 40
0.8124999999999996
 40
0.8437499999999997
 40
0.8437499999999997
 40
0.8749999999999997
 40
0.8749999999999997
 40
0.9062499999999998
 40
0.9062499999999998
 40
0.9374999999999999
 40
0.9374999999999999
 40
0.9687499999999999
 40
0.9687499999999999
 40
1.0
 40
1.0
 40
1.0
 40
1.0
 10
116.0961981704708
 20
99.00366140981663
 30
0.0
 10
116.1147718737138
 20
99.16236876021274
 30
0.0
 10
116.1573658332375
 20
99.31821557910409
 30
0.0
 10
116.2882969653775
 20
99.62420050628289
 30
0.0
 10
116.3777310374213
 20
99.7750320905721
 30
0.0
 10
116.7023684395436
 20
100.1990504453175
 30
0.0
 10
117.0013238000604
 20
100.4536302102934
 30
0.0
 10
117.5245190117641
 20
100.7589619157325
 30
0.0
 10
117.7144141885801
 20
100.8498516295738
 30
0.0
 10
118.1089039843424
 20
101.0023384207406
 30
0.0
 10
118.3137618671648
 20
101.0645126278782
 30
0.0
 10
118.7383807617707
 20
101.1608796607362
 30
0.0
 10
118.9586882434891
 20
101.1947646289544
 30
0.0
 10
119.3974304572133
 20
101.2316545697734
 30
0.0
 10
119.6179480239083
 20
101.2352441071969
 30
0.0
 10
120.0613204437372
 20
101.2121108737492
 30
0.0
 10
120.2821660284993
 20
101.1851946034292
 30
0.0
 10
120.709287536854
 20
101.1029355229341
 30
0.0
 10
120.91751731713
 20
101.0475311786942
 30
0.0
 10
121.5253253527138
 20
100.8367335284759
 30
0.0
 10
121.8884667813212
 20
100.6443112615523
 30
0.0
 10
122.3509709080726
 20
100.2833114354902
 30
0.0
 10
122.4866111096949
 20
100.1544078542419
 30
0.0
 10
122.7209403328216
 20
99.88016710656655
 30
0.0
 10
122.820518400615
 20
99.73292335333826
 30
0.0
 10
122.9734983281923
 20
99.43051959991416
 30
0.0
 10
123.0269857493667
 20
99.27656777769934
 30
0.0
 10
123.087390178848
 20
98.96342919852127
 30
0.0
 10
123.0935697094867
 20
98.80345041476534
 30
0.0
 10
123.0573348605606
 20
98.4941420067631
 30
0.0
 10
123.0154159303427
 20
98.34242525981385
 30
0.0
 10
122.8837344976786
 20
98.04713281746405
 30
0.0
 10
122.7961320359254
 20
97.90806616847583
 30
0.0
 10
122.5801467428162
 20
97.64548784748905
 30
0.0
 10
122.4502244508389
 20
97.52118197433879
 30
0.0
 10
122.1604596128774
 20
97.29705060481237
 30
0.0
 10
121.9999718074914
 20
97.19596377666655
 30
0.0
 10
121.6483058259716
 20
97.01463972425934
 30
0.0
 10
121.4602025449963
 20
96.93619070112346
 30
0.0
 10
121.0672847018748
 20
96.80427532584041
 30
0.0
 10
120.8597911785157
 20
96.75000720715138
 30
0.0
 10
120.4335212541266
 20
96.66716731189818
 30
0.0
 10
120.2171607601363
 20
96.63882239459265
 30
0.0
 10
119.7782012623679
 20
96.60713382698343
 30
0.0
 10
119.5533779149316
 20
96.60398734651895
 30
0.0
 10
119.1113583000304
 20
96.62351787413341
 30
0.0
 10
118.8936979303831
 20
96.64586237979763
 30
0.0
 10
118.4650899104741
 20
96.71599220324595
 30
0.0
 10
118.252511012501
 20
96.7644642188443
 30
0.0
 10
117.8506906643757
 20
96.884682793845
 30
0.0
 10
117.6596847874293
 20
96.95649320091411
 30
0.0
 10
117.2981759642889
 20
97.12498991786362
 30
0.0
 10
117.1273614878912
 20
97.22239642265403
 30
0.0
 10
116.822874747234
 20
97.43542639889333
 30
0.0
 10
116.6869962279754
 20
97.5518771299085
 30
0.0
 10
116.4501584404775
 20
97.80672354033464
 30
0.0
 10
116.3510154717793
 20
97.94393186328838
 30
0.0
 10
116.1989714180913
 20
98.22851521156839
 30
0.0
 10
116.1445253224391
 20
98.37813401824305
 30
0.0
 10
116.0836527548977
 20
98.68796021625718
 30
0.0
 10
116.0776244672277
 20
98.8449540594205
 30
0.0
 10
116.0961981704708
 20
99.00366140981663
 30
0.0
  0
SPLINE
  5
C3
330
1F
100
AcDbEntity
  8
0
  6
Continuous
 62
     7
370
    25
100
AcDbSpline
210
0.0
220
0.0
230
1.0
 70
    11
 71
     3
 72
    68
 73
    64
 74
     0
 42
0.000000001
 43
0.00000001
 40
0.0
 40
0.0
 40
0.0
 40
0.0
 40
0.0312499999999999
 40
0.0312499999999999
 40
0.0624999999999999
 40
0.0624999999999999
 40
0.0937499999999998
 40
0.0937499999999998
 40
0.1249999999999998
 40
0.1249999999999998
 40
0.1562499999999997
 40
0.1562499999999997
 40
0.1874999999999997
 40
0.1874999999999997
 40
0.2187499999999996
 40
0.2187499999999996
 40
0.2499999999999996
 40
0.2499999999999996
 40
0.2812499999999995
 40
0.2812499999999995
 40
0.3124999999999994
 40
0.3124999999999994
 40
0.3437499999999994
 40
0.3437499999999994
 40
0.3749999999999993
 40
0.3749999999999993
 40
0.4062499999999993
 40
0.4062499999999993
 40
0.4374999999999992
 40
0.4374999999999992
 40
0.4687499999999992
 40
0.4687499999999992
 40
0.4999999999999991
 40
0.4999999999999991
 40
0.5312499999999991
 40
0.5312499999999991
 40
0.562499999999999
 40
0.562499999999999
 40
0.6250000000000008
 40
0.6250000000000008
 40
0.6562500000000007
 40
0.6562500000000007
 40
0.6875000000000007
 40
0.6875000000000007
 40
0.7187500000000006
 40
0.7187500000000006
 40
0.7500000000000006
 40
0.7500000000000006
 40
0.7812500000000004
 40
0.7812500000000004
 40
0.8125000000000004
 40
0.8125000000000004
 40
0.8437500000000003
 40
0.8437500000000003
 40
0.8750000000000003
 40
0.8750000000000003
 40
0.9062500000000002
 40
0.9062500000000002
 40
0.9375000000000002
 40
0.9375000000000002
 40
0.9687500000000001
 40
0.9687500000000001
 40
1.0
 40
1.0
 40
1.0
 40
1.0
 10
116.9124355685755
 20
156.8438232669893
 30
0.0
 10
117.0623503793935
 20
156.9548374599886
 30
0.0
 10
117.2261416248282
 20
157.0532985996536
 30
0.0
 10
117.5793240062889
 20
157.2277830471501
 30
0.0
 10
117.7707085003509
 20
157.3043633598386
 30
0.0
 10
118.1697827148175
 20
157.4318682264028
 30
0.0
 10
118.3761579509435
 20
157.482725225466
 30
0.0
 10
118.8021317957568
 20
157.5599906194762
 30
0.0
 10
119.0234797505987
 20
157.5863177540263
 30
0.0
 10
119.4636950340292
 20
157.6126465616464
 30
0.0
 10
119.6841072541926
 20
157.6131162225422
 30
0.0
 10
120.1255448086349
 20
157.5885057531238
 30
0.0
 10
120.3468219303532
 20
157.5630551966061
 30
0.0
 10
120.7723822945488
 20
157.4877806533084
 30
0.0
 10
120.9789629716454
 20
157.4379279742415
 30
0.0
 10
121.3792140452576
 20
157.3122875403836
 30
0.0
 10
121.5713753039601
 20
157.2366054422289
 30
0.0
 10
121.9259133344458
 20
157.0641206152158
 30
0.0
 10
122.0903947835128
 20
156.9667336741717
 30
0.0
 10
122.391802433339
 20
156.7471735153136
 30
0.0
 10
122.52517788028
 20
156.6272604530592
 30
0.0
 10
122.7517551656461
 20
156.3712758210963
 30
0.0
 10
122.8465427515279
 20
156.2333156389508
 30
0.0
 10
122.9912921906889
 20
155.9427574312564
 30
0.0
 10
123.0401067612222
 20
155.7933019595573
 30
0.0
 10
123.0909062971972
 20
155.4857765669447
 30
0.0
 10
123.0922327250174
 20
155.3260331333292
 30
0.0
 10
123.0463693825017
 20
155.0125266460357
 30
0.0
 10
122.9998886657803
 20
154.8573197092498
 30
0.0
 10
122.8593498366481
 20
154.5503249774098
 30
0.0
 10
122.7670115703097
 20
154.4027232825263
 30
0.0
 10
122.5432930382334
 20
154.1227227444851
 30
0.0
 10
122.409847807222
 20
153.9884647460655
 30
0.0
 10
122.1130596474905
 20
153.7436848164363
 30
0.0
 10
121.9496989655532
 20
153.63242538001
 30
0.0
 10
121.5939090021282
 20
153.4321805418968
 30
0.0
 10
121.4025607980193
 20
153.3442127858132
 30
0.0
 10
120.8076673240414
 20
153.1238388251844
 30
0.0
 10
120.3708218125094
 20
153.0311170780653
 30
0.0
 10
119.711826499788
 20
152.9841987763168
 30
0.0
 10
119.4878808468725
 20
152.9834790870541
 30
0.0
 10
119.0451329176575
 20
153.0125583188
 30
0.0
 10
118.8280058797239
 20
153.0419341046353
 30
0.0
 10
118.4021518687119
 20
153.1298131747748
 30
0.0
 10
118.1912951644282
 20
153.1891950078569
 30
0.0
 10
117.7918535806585
 20
153.3343882350175
 30
0.0
 10
117.6029486945077
 20
153.4198336412901
 30
0.0
 10
117.2472101672598
 20
153.6163653265666
 30
0.0
 10
117.0790163957899
 20
153.7288579399834
 30
0.0
 10
116.7802600175992
 20
153.9711040295506
 30
0.0
 10
116.6480661275753
 20
154.1013697667701
 30
0.0
 10
116.419745105184
 20
154.3804283216281
 30
0.0
 10
116.3242339925602
 20
154.529546816517
 30
0.0
 10
116.1809624598409
 20
154.831717343102
 30
0.0
 10
116.1315304360722
 20
154.9865261759118
 30
0.0
 10
116.0801283774732
 20
155.3037882147908
 30
0.0
 10
116.0791673690776
 20
155.4604103724813
 30
0.0
 10
116.1248185959462
 20
155.7687093273271
 30
0.0
 10
116.1725140033582
 20
155.9222283838627
 30
0.0
 10
116.3121713477306
 20
156.2123863217826
 30
0.0
 10
116.4036996320651
 20
156.350013325087
 30
0.0
 10
116.6294907662523
 20
156.6111453112906
 30
0.0
 10
116.7625207577575
 20
156.73280907399
 30
0.0
 10
116.9124355685755
 20
156.8438232669893
 30
0.0
  0
SPLINE
  5
C4
330
1F
100
AcDbEntity
  8
0
  6
Continuous
 62
     7
370
    25
100
AcDbSpline
210
0.0
220
0.0
230
1.0
 70
    11
 71
     3
 72
    91
 73
    87
 74
     0
 42
0.000000001
 43
0.00000001
 40
0.0
 40
0.0
 40
0.0
 40
0.0
 40
0.0312500000000015
 40
0.0312500000000015
 40
0.0468750000000023
 40
0.0468750000000023
 40
0.0625000000000031
 40
0.0625000000000031
 40
0.093750000000003
 40
0.093750000000003
 40
0.1250000000000028
 40
0.1250000000000028
 40
0.1562500000000027
 40
0.1562500000000027
 40
0.1718750000000026
 40
0.1718750000000026
 40
0.1875000000000026
 40
0.1875000000000026
 40
0.2187500000000017
 40
0.2187500000000017
 40
0.2500000000000009
 40
0.2500000000000009
 40
0.2656250000000004
 40
0.2656250000000004
 40
0.28125
 40
0.28125
 40
0.3124999999999994
 40
0.3124999999999994
 40
0.3281249999999992
 40
0.3281249999999992
 40
0.343749999999999
 40
0.343749999999999
 40
0.3749999999999985
 40
0.3749999999999985
 40
0.406249999999998
 40
0.406249999999998
 40
0.4374999999999974
 40
0.4374999999999974
 40
0.4687499999999969
 40
0.4687499999999969
 40
0.4843749999999958
 40
0.4843749999999958
 40
0.4999999999999946
 40
0.4999999999999946
 40
0.5312499999999923
 40
0.5312499999999923
 40
0.5468749999999921
 40
0.5468749999999921
 40
0.5624999999999919
 40
0.5624999999999919
 40
0.593749999999993
 40
0.593749999999993
 40
0.624999999999994
 40
0.624999999999994
 40
0.6406249999999939
 40
0.6406249999999939
 40
0.6562499999999938
 40
0.6562499999999938
 40
0.6874999999999937
 40
0.6874999999999937
 40
0.7187499999999934
 40
0.7187499999999934
 40
0.7499999999999933
 40
0.7499999999999933
 40
0.7656249999999932
 40
0.7656249999999932
 40
0.7812499999999931
 40
0.796874999999993
 40
0.796874999999993
 40
0.8124999999999929
 40
0.8124999999999929
 40
0.843749999999992
 40
0.843749999999992
 40
0.8593749999999921
 40
0.8593749999999921
 40
0.8749999999999921
 40
0.8749999999999921
 40
0.9062499999999937
 40
0.9062499999999937
 40
0.9374999999999952
 40
0.9374999999999952
 40
0.9531249999999969
 40
0.9531249999999969
 40
0.9687499999999986
 40
0.9687499999999986
 40
1.0
 40
1.0
 40
1.0
 40
1.0
 10
184.6357059285512
 20
134.2791685590233
 30
0.0
 10
185.1197903297054
 20
134.2791685590233
 30
0.0
 10
185.5962157987606
 20
134.2346359338646
 30
0.0
 10
186.2998031617036
 20
134.1034670989697
 30
0.0
 10
186.5324773798842
 20
134.0489373881437
 30
0.0
 10
186.9940323870698
 20
133.9177294422769
 30
0.0
 10
187.2240307061065
 20
133.8405487841648
 30
0.0
 10
187.8954303176718
 20
133.5792859821084
 30
0.0
 10
188.3209050980121
 20
133.3655525304286
 30
0.0
 10
189.1278944506367
 20
132.8588906927749
 30
0.0
 10
189.5128823029549
 20
132.5620072258748
 30
0.0
 10
190.2072624449577
 20
131.9075650108939
 30
0.0
 10
190.5194783078021
 20
131.5494571849839
 30
0.0
 10
190.9341364586521
 20
130.9644834664785
 30
0.0
 10
191.06403169817
 20
130.7601791519207
 30
0.0
 10
191.3007978140406
 20
130.3418591955944
 30
0.0
 10
191.4077158264264
 20
130.1281387823246
 30
0.0
 10
191.6947634546947
 20
129.4735242886399
 30
0.0
 10
191.84154349966
 20
129.0193172582222
 30
0.0
 10
192.0412973962448
 20
128.0732728330262
 30
0.0
 10
192.0909664917283
 20
127.5953915324042
 30
0.0
 10
192.0918725651901
 20
126.8788784915647
 30
0.0
 10
192.0798993930441
 20
126.639683626002
 30
0.0
 10
192.0308026345641
 20
126.1605623721674
 30
0.0
 10
191.9934338851643
 20
125.9203141061877
 30
0.0
 10
191.8460934828009
 20
125.215447946809
 30
0.0
 10
191.7008950689633
 20
124.7608169246257
 30
0.0
 10
191.4133829036055
 20
124.1014375771212
 30
0.0
 10
191.3051351003003
 20
123.8843302062274
 30
0.0
 10
191.0691510900977
 20
123.4660666405828
 30
0.0
 10
190.9413077217848
 20
123.2643065160746
 30
0.0
 10
190.5291046885843
 20
122.680397157611
 30
0.0
 10
190.2147011534632
 20
122.3178876610376
 30
0.0
 10
189.5148492938856
 20
121.6571132644946
 30
0.0
 10
189.1375207337664
 20
121.365872097919
 30
0.0
 10
188.3305274728938
 20
120.8574908092351
 30
0.0
 10
187.8960950888828
 20
120.6389872754426
 30
0.0
 10
187.0041069012467
 20
120.2915587219661
 30
0.0
 10
186.5453023271658
 20
120.1606982518593
 30
0.0
 10
185.8379820661825
 20
120.0280203074018
 30
0.0
 10
185.5977295452392
 20
119.9943875150202
 30
0.0
 10
185.1179182903185
 20
119.9498473046558
 30
0.0
 10
184.8785102980384
 20
119.9388013082137
 30
0.0
 10
184.161740419209
 20
119.938445424009
 30
0.0
 10
183.685819209512
 20
119.9816050070351
 30
0.0
 10
182.9749153164046
 20
120.1135845164741
 30
0.0
 10
182.7390763844534
 20
120.1688900448786
 30
0.0
 10
182.278278840057
 20
120.2998477035179
 30
0.0
 10
182.0520928193863
 20
120.3757046659415
 30
0.0
 10
181.3860454854732
 20
120.6341850582837
 30
0.0
 10
180.9569246081575
 20
120.8484410949053
 30
0.0
 10
180.1409281189599
 20
121.3604133057489
 30
0.0
 10
179.764042789758
 20
121.6514338214008
 30
0.0
 10
179.2444744652259
 20
122.1399490040497
 30
0.0
 10
179.0789652039427
 20
122.3115121673268
 30
0.0
 10
178.7638307529593
 20
122.6727640949175
 30
0.0
 10
178.6138843710656
 20
122.8631402322472
 30
0.0
 10
178.1985966691041
 20
123.4490140258375
 30
0.0
 10
177.9638210509746
 20
123.8628195794494
 30
0.0
 10
177.5790032582717
 20
124.7375370085178
 30
0.0
 10
177.4292277910257
 20
125.2021826800436
 30
0.0
 10
177.2315207220699
 20
126.1373037892138
 30
0.0
 10
177.1807899258115
 20
126.6124243332865
 30
0.0
 10
177.1793784665747
 20
127.3368584752883
 30
0.0
 10
177.1916062705115
 20
127.5790090297307
 30
0.0
 10
177.2404713288301
 20
128.0560158722452
 30
0.0
 10
177.3137077835317
 20
128.5282891435845
 30
0.0
 10
177.4350283899239
 20
128.9912348885426
 30
0.0
 10
177.5808050466259
 20
129.4494463514422
 30
0.0
 10
177.6663381292715
 20
129.6767968957537
 30
0.0
 10
177.953999967395
 20
130.3364977967412
 30
0.0
 10
178.1881531220108
 20
130.7517218547323
 30
0.0
 10
178.601723684364
 20
131.3386712890094
 30
0.0
 10
178.7509551378922
 20
131.5292705267974
 30
0.0
 10
179.065625193216
 20
131.8920173704805
 30
0.0
 10
179.2309813198383
 20
132.0643443183488
 30
0.0
 10
179.750340318349
 20
132.5551751506805
 30
0.0
 10
180.1277820171415
 20
132.8480038151907
 30
0.0
 10
180.944214941221
 20
133.3625829955517
 30
0.0
 10
181.371014906668
 20
133.5767642665921
 30
0.0
 10
182.0376987865351
 20
133.8370676042977
 30
0.0
 10
182.2643735454489
 20
133.9135962258355
 30
0.0
 10
182.7267662948951
 20
134.0458911675174
 30
0.0
 10
182.9629775699085
 20
134.1016449711288
 30
0.0
 10
183.6728017632557
 20
134.2346069187797
 30
0.0
 10
184.151621527397
 20
134.2791685590233
 30
0.0
 10
184.6357059285512
 20
134.2791685590233
 30
0.0
  0
LINE
  5
C5
330
1F
100
AcDbEntity
  8
0
  6
Continuous
 62
     7
370
    25
100
AcDbLine
 10
208.6357023523
 20
88.1089243321
 30
0.0
 11
208.6357023523
 21
166.1089259414
 31
0.0
  0
LINE
  5
C6
330
1F
100
AcDbEntity
  8
0
  6
Continuous
 62
     7
370
    25
100
AcDbLine
 10
74.5857056186
 20
97.5486478983
 30
0.0
 11
74.5857056186
 21
146.9589258759
 31
0.0
  0
SPLINE
  5
C7
330
1F
100
AcDbEntity
  8
0
  6
Continuous
 62
     7
370
    25
100
AcDbSpline
210
0.0
220
0.0
230
1.0
 70
     8
 71
     3
 72
    10
 73
     6
 74
     0
 42
0.000000001
 43
0.00000001
 40
0.0
 40
0.0
 40
0.0
 40
0.0
 40
0.5
 40
0.5
 40
1.0
 40
1.0
 40
1.0
 40
1.0
 10
74.58570592855126
 20
97.54864773616887
 30
0.0
 10
74.58570592855126
 20
97.38876046797522
 30
0.0
 10
74.52439627731542
 20
97.22763321246062
 30
0.0
 10
74.30529663978034
 20
96.99353421410578
 30
0.0
 10
74.14724843346686
 20
96.92200744051456
 30
0.0
 10
73.98570592855125
 20
96.92200744051456
 30
0.0
  0
SPLINE
  5
C8
330
1F
100
AcDbEntity
  8
0
  6
Continuous
 62
     7
370
    25
100
AcDbSpline
210
0.0
220
0.0
230
1.0
 70
    24
 71
     3
 72
    12
 73
     8
 74
     0
 42
0.000000001
 43
0.00000001
 40
0.0
 40
0.0
 40
0.0
 40
0.0
 40
0.2500000000000033
 40
0.2500000000000033
 40
0.5000000000000067
 40
0.5000000000000067
 40
1.0
 40
1.0
 40
1.0
 40
1.0
 10
73.98570592855125
 20
146.9589251367617
 30
0.0
 10
74.0759449962383
 20
146.9589251367617
 30
0.0
 10
74.1668431103448
 20
146.9589251367617
 30
0.0
 10
74.32144014683334
 20
146.9589251367617
 30
0.0
 10
74.38641856294143
 20
146.9589251367617
 30
0.0
 10
74.53825359087767
 20
146.9589251367617
 30
0.0
 10
74.58570592855126
 20
146.9589251367617
 30
0.0
 10
74.58570592855126
 20
146.9589251367617
 30
0.0
  0
LINE
  5
C9
330
1F
100
AcDbEntity
  8
0
  6
Continuous
 62
     7
370
    25
100
AcDbLine
 10
64.7257059768
 20
99.6110878168
 30
0.0
 11
64.7257059768
 21
146.9589258759
 31
0.0
  0
SPLINE
  5
CA
330
1F
100
AcDbEntity
  8
0
  6
Continuous
 62
     7
370
    25
100
AcDbSpline
210
0.0
220
0.0
230
1.0
 70
     8
 71
     3
 72
     8
 73
     4
 74
     0
 42
0.000000001
 43
0.00000001
 40
0.0
 40
0.0
 40
0.0
 40
0.0
 40
1.0
 40
1.0
 40
1.0
 40
1.0
 10
64.72570592855126
 20
99.61108797770686
 30
0.0
 10
64.23336680577007
 20
98.71381794350016
 30
0.0
 10
63.73925275772795
 20
97.81753352844791
 30
0.0
 10
63.24377309706221
 20
96.92200744051456
 30
0.0
  0
LINE
  5
CB
330
1F
100
AcDbEntity
  8
0
  6
Continuous
 62
     7
370
    25
100
AcDbLine
 10
63.2437733889
 20
96.9220075039
 30
0.0
 11
63.2437733889
 21
146.9589258759
 31
0.0
  0
SPLINE
  5
CC
330
1F
100
AcDbEntity
  8
0
  6
Continuous
 62
     7
370
    25
100
AcDbSpline
210
0.0
220
0.0
230
1.0
 70
    24
 71
     3
 72
     8
 73
     4
 74
     0
 42
0.000000001
 43
0.00000001
 40
0.0
 40
0.0
 40
0.0
 40
0.0
 40
1.0
 40
1.0
 40
1.0
 40
1.0
 10
63.24377309706218
 20
146.9589251367617
 30
0.0
 10
63.75045320521272
 20
146.9589251367617
 30
0.0
 10
64.24575393418635
 20
146.9589251367617
 30
0.0
 10
64.72570592855126
 20
146.9589251367617
 30
0.0
  0
LINE
  5
CD
330
1F
100
AcDbEntity
  8
0
  6
Continuous
 62
     7
370
    25
100
AcDbLine
 10
70.0276378498
 20
96.9220075039
 30
0.0
 11
70.0276378498
 21
146.9589258759
 31
0.0
  0
SPLINE
  5
CE
330
1F
100
AcDbEntity
  8
0
  6
Continuous
 62
     7
370
    25
100
AcDbSpline
210
0.0
220
0.0
230
1.0
 70
     8
 71
     3
 72
     8
 73
     4
 74
     0
 42
0.000000001
 43
0.00000001
 40
0.0
 40
0.0
 40
0.0
 40
0.0
 40
1.0
 40
1.0
 40
1.0
 40
1.0
 10
70.02763876004032
 20
96.92200744051456
 30
0.0
 10
69.53215909937457
 20
97.81753352844792
 30
0.0
 10
69.03804505133245
 20
98.71381794350017
 30
0.0
 10
68.54570592855124
 20
99.61108797770687
 30
0.0
  0
LINE
  5
CF
330
1F
100
AcDbEntity
  8
0
  6
Continuous
 62
     7
370
    25
100
AcDbLine
 10
68.5457061932
 20
99.6110878168
 30
0.0
 11
68.5457061932
 21
146.9589258759
 31
0.0
  0
SPLINE
  5
D0
330
1F
100
AcDbEntity
  8
0
  6
Continuous
 62
     7
370
    25
100
AcDbSpline
210
0.0
220
0.0
230
1.0
 70
    24
 71
     3
 72
     8
 73
     4
 74
     0
 42
0.000000001
 43
0.00000001
 40
0.0
 40
0.0
 40
0.0
 40
0.0
 40
1.0
 40
1.0
 40
1.0
 40
1.0
 10
68.54570592855124
 20
146.9589251367617
 30
0.0
 10
69.02565792291615
 20
146.9589251367617
 30
0.0
 10
69.52095865188979
 20
146.9589251367617
 30
0.0
 10
70.02763876004032
 20
146.9589251367617
 30
0.0
  0
LINE
  5
D1
330
1F
100
AcDbEntity
  8
0
  6
Continuous
 62
     7
370
    25
100
AcDbLine
 10
73.9857066378
 20
96.9220075039
 30
0.0
 11
70.0276378498
 21
96.9220075039
 31
0.0
  0
LINE
  5
D2
330
1F
100
AcDbEntity
  8
0
  6
Continuous
 62
     7
370
    25
100
AcDbLine
 10
70.0276378498
 20
146.9589258759
 30
0.0
 11
73.9857066378
 21
146.9589258759
 31
0.0
  0
LINE
  5
D3
330
1F
100
AcDbEntity
  8
0
  6
Continuous
 62
     7
370
    25
100
AcDbLine
 10
48.6357059286
 20
95.9089259831
 30
0.0
 11
48.6357059286
 21
158.3089242904
 31
0.0
  0
LINE
  5
D4
330
1F
100
AcDbEntity
  8
0
  6
Continuous
 62
     7
370
    25
100
AcDbLine
 10
53.5857059017
 20
146.9589258759
 30
0.0
 11
63.2437733889
 21
146.9589258759
 31
0.0
  0
LINE
  5
D5
330
1F
100
AcDbEntity
  8
0
  6
Continuous
 62
     7
370
    25
100
AcDbLine
 10
63.2437733889
 20
96.9220075039
 30
0.0
 11
61.5857062817
 21
96.9220075039
 31
0.0
  0
SPLINE
  5
D6
330
1F
100
AcDbEntity
  8
0
  6
Continuous
 62
     7
370
    25
100
AcDbSpline
210
0.0
220
0.0
230
1.0
 70
     8
 71
     3
 72
    28
 73
    24
 74
     0
 42
0.000000001
 43
0.00000001
 40
0.0
 40
0.0
 40
0.0
 40
0.0
 40
0.1250000000000001
 40
0.1250000000000001
 40
0.1875000000000001
 40
0.1875000000000001
 40
0.2500000000000001
 40
0.2500000000000001
 40
0.3749999999999999
 40
0.3749999999999999
 40
0.4375
 40
0.4375
 40
0.4999999999999999
 40
0.4999999999999999
 40
0.6249999999999999
 40
0.6249999999999999
 40
0.7499999999999997
 40
0.7499999999999997
 40
0.8124999999999998
 40
0.8124999999999998
 40
0.8749999999999998
 40
0.8749999999999998
 40
1.0
 40
1.0
 40
1.0
 40
1.0
 10
61.58570592855126
 20
96.92200744051456
 30
0.0
 10
61.05399817105833
 20
96.92200744051458
 30
0.0
 10
60.531759605748
 20
96.90622272656435
 30
0.0
 10
59.76188911947298
 20
96.86122731248814
 30
0.0
 10
59.50752954728166
 20
96.84267231741242
 30
0.0
 10
59.00340796658314
 20
96.7988195949659
 30
0.0
 10
58.75368514915522
 20
96.77347498801372
 30
0.0
 10
58.02809519770881
 20
96.69007291026361
 30
0.0
 10
57.56973493612727
 20
96.62420735111252
 30
0.0
 10
56.9192369927334
 20
96.51523701062074
 30
0.0
 10
56.70755494194093
 20
96.47699737485408
 30
0.0
 10
56.30348345280294
 20
96.39923863743472
 30
0.0
 10
56.11097693898206
 20
96.35973767525938
 30
0.0
 10
55.56114196796079
 20
96.24082993289338
 30
0.0
 10
55.23121318965197
 20
96.16101225146876
 30
0.0
 10
54.64674192108329
 20
96.0076690896727
 30
0.0
 10
54.40046478306987
 20
95.93633533640345
 30
0.0
 10
54.10062199037178
 20
95.84239182932883
 30
0.0
 10
54.01216513329961
 20
95.8131980359689
 30
0.0
 10
53.85880377999447
 20
95.7597314617055
 30
0.0
 10
53.79371556576825
 20
95.7353721274303
 30
0.0
 10
53.63812154982746
 20
95.67178198198556
 30
0.0
 10
53.58570592855126
 20
95.64167904689631
 30
0.0
 10
53.58570592855126
 20
95.6248021538994
 30
0.0
  0
LINE
  5
D7
330
1F
100
AcDbEntity
  8
0
  6
Continuous
 62
     7
370
    25
100
AcDbLine
 10
53.5857059017
 20
95.6248018174
 30
0.0
 11
53.5857059017
 21
95.6089246301
 31
0.0
  0
SPLINE
  5
D8
330
1F
100
AcDbEntity
  8
0
  6
Continuous
 62
     7
370
    25
100
AcDbSpline
210
0.0
220
0.0
230
1.0
 70
     8
 71
     3
 72
    12
 73
     8
 74
     0
 42
0.000000001
 43
0.00000001
 40
0.0
 40
0.0
 40
0.0
 40
0.0
 40
0.2100882752265391
 40
0.4200095997074502
 40
0.6342356546940832
 40
0.8514896020996039
 40
1.0
 40
1.0
 40
1.0
 40
1.0
 10
61.58570628170879
 20
157.5761205731202
 30
0.0
 10
60.70287967594059
 20
157.5991240393235
 30
0.0
 10
58.93792801978577
 20
157.6451126915771
 30
0.0
 10
56.57008867070854
 20
157.9659959135277
 30
0.0
 10
54.76217589406757
 20
158.3184994437572
 30
0.0
 10
53.69907278414071
 20
158.5798020574287
 30
0.0
 10
53.68559188030957
 20
158.5836274345648
 30
0.0
 10
53.68011826206953
 20
158.5851806430388
 30
0.0
  0
LINE
  5
D9
330
1F
100
AcDbEntity
  8
0
  6
Continuous
 62
     7
370
    25
100
AcDbLine
 10
63.2437733889
 20
157.5761205731
 30
0.0
 11
61.5857062817
 21
157.5761205731
 31
0.0
  0
LINE
  5
DA
330
1F
100
AcDbEntity
  8
0
  6
Continuous
 62
     7
370
    25
100
AcDbLine
 10
63.2437733889
 20
151.5676147519
 30
0.0
 11
63.2437733889
 21
157.5761205731
 31
0.0
  0
LINE
  5
DB
330
1F
100
AcDbEntity
  8
0
  6
Continuous
 62
     7
370
    25
100
AcDbLine
 10
60.8313266144
 20
151.5676147519
 30
0.0
 11
63.2437733889
 21
151.5676147519
 31
0.0
  0
SPLINE
  5
DC
330
1F
100
AcDbEntity
  8
0
  6
Continuous
 62
     7
370
    25
100
AcDbSpline
210
0.0
220
0.0
230
1.0
 70
     8
 71
     3
 72
    20
 73
    16
 74
     0
 42
0.000000001
 43
0.00000001
 40
0.0
 40
0.0
 40
0.0
 40
0.0
 40
0.2499999999999997
 40
0.2499999999999997
 40
0.3749999999999997
 40
0.3749999999999997
 40
0.4999999999999998
 40
0.4999999999999998
 40
0.6249999999999998
 40
0.6249999999999998
 40
0.7499999999999999
 40
0.7499999999999999
 40
0.8749999999999999
 40
0.8749999999999999
 40
1.0
 40
1.0
 40
1.0
 40
1.0
 10
53.58570592855126
 20
146.9589251367617
 30
0.0
 10
53.83407966283932
 20
147.6127875650591
 30
0.0
 10
54.15364975518458
 20
148.2165733470563
 30
0.0
 10
54.77595598838926
 20
149.0434120832249
 30
0.0
 10
55.00738024882003
 20
149.3058407211778
 30
0.0
 10
55.52859458846974
 20
149.8025033752828
 30
0.0
 10
55.81521507110482
 20
150.0330902543043
 30
0.0
 10
56.43469981241242
 20
150.4496444788869
 30
0.0
 10
56.76900019189939
 20
150.6371422808544
 30
0.0
 10
57.49426066452418
 20
150.9685392584909
 30
0.0
 10
57.87617572191464
 20
151.1080432459861
 30
0.0
 10
58.67096389808633
 20
151.3334967534571
 30
0.0
 10
59.08512209229272
 20
151.4201228650007
 30
0.0
 10
59.9506684328741
 20
151.5381036538548
 30
0.0
 10
60.38855604788591
 20
151.5676147991292
 30
0.0
 10
60.83132627424054
 20
151.5676147991292
 30
0.0
  0
SPLINE
  5
DD
330
1F
100
AcDbEntity
  8
0
  6
Continuous
 62
     7
370
    25
100
AcDbSpline
210
0.0
220
0.0
230
1.0
 70
    11
 71
     3
 72
    70
 73
    66
 74
     0
 42
0.000000001
 43
0.00000001
 40
0.0
 40
0.0
 40
0.0
 40
0.0
 40
0.0312499999999999
 40
0.0312499999999999
 40
0.0624999999999998
 40
0.0624999999999998
 40
0.0937499999999997
 40
0.0937499999999997
 40
0.1249999999999996
 40
0.1249999999999996
 40
0.1562499999999994
 40
0.1562499999999994
 40
0.1874999999999993
 40
0.1874999999999993
 40
0.2187499999999992
 40
0.2187499999999992
 40
0.2499999999999991
 40
0.2499999999999991
 40
0.281249999999999
 40
0.281249999999999
 40
0.3124999999999989
 40
0.3124999999999989
 40
0.3437499999999988
 40
0.3437499999999988
 40
0.3749999999999987
 40
0.3749999999999987
 40
0.4062499999999986
 40
0.4062499999999986
 40
0.4374999999999984
 40
0.4374999999999984
 40
0.4687499999999983
 40
0.4687499999999983
 40
0.4999999999999982
 40
0.4999999999999982
 40
0.5312499999999983
 40
0.5312499999999983
 40
0.5624999999999984
 40
0.5624999999999984
 40
0.5937499999999986
 40
0.5937499999999986
 40
0.6249999999999987
 40
0.6249999999999987
 40
0.6562499999999988
 40
0.6562499999999988
 40
0.6874999999999989
 40
0.6874999999999989
 40
0.718749999999999
 40
0.718749999999999
 40
0.7499999999999991
 40
0.7499999999999991
 40
0.7812499999999992
 40
0.7812499999999992
 40
0.8124999999999993
 40
0.8124999999999993
 40
0.8437499999999994
 40
0.8437499999999994
 40
0.8749999999999996
 40
0.8749999999999996
 40
0.9062499999999997
 40
0.9062499999999997
 40
0.9374999999999998
 40
0.9374999999999998
 40
0.9687499999999999
 40
0.9687499999999999
 40
1.0
 40
1.0
 40
1.0
 40
1.0
 10
56.63570592855126
 20
137.7298320227451
 30
0.0
 10
56.37116058989111
 20
137.7298320227451
 30
0.0
 10
56.11108992251401
 20
137.7545093175302
 30
0.0
 10
55.5995152426786
 20
137.8509809905722
 30
0.0
 10
55.34533995893841
 20
137.9239619065522
 30
0.0
 10
54.8610693288767
 20
138.1137025094908
 30
0.0
 10
54.63142823699555
 20
138.2295631678846
 30
0.0
 10
54.19682388876205
 20
138.5021810138423
 30
0.0
 10
53.99125811211544
 20
138.6602200958961
 30
0.0
 10
53.62270097152021
 20
139.0037629468667
 30
0.0
 10
53.45721998878472
 20
139.1905253909684
 30
0.0
 10
53.16479547934961
 20
139.5940685653652
 30
0.0
 10
53.04069450272313
 20
139.8075655617943
 30
0.0
 10
52.84111530597341
 20
140.2469488757168
 30
0.0
 10
52.76418172011513
 20
140.4760888628625
 30
0.0
 10
52.66132466159476
 20
140.9420629856225
 30
0.0
 10
52.63585175213563
 20
141.1749454312987
 30
0.0
 10
52.63556134156786
 20
141.6403429663785
 30
0.0
 10
52.66158597534359
 20
141.8752187237728
 30
0.0
 10
52.76373425983559
 20
142.3267118710191
 30
0.0
 10
52.83931070741876
 20
142.5447583464305
 30
0.0
 10
53.03980823856369
 20
142.9658528714683
 30
0.0
 10
53.16493708007207
 20
143.1677742559866
 30
0.0
 10
53.45429588109366
 20
143.5398037385055
 30
0.0
 10
53.61970686814912
 20
143.7124320420858
 30
0.0
 10
53.99269742629695
 20
144.0297500466318
 30
0.0
 10
54.19443045938605
 20
144.1695369801335
 30
0.0
 10
54.62728971021392
 20
144.4137132336853
 30
0.0
 10
54.8612082431033
 20
144.5189427447268
 30
0.0
 10
55.34539197824591
 20
144.6870998911019
 30
0.0
 10
55.59470760420142
 20
144.7503507816958
 30
0.0
 10
56.10774012862914
 20
144.8359299907983
 30
0.0
 10
56.37303395153378
 20
144.8578021557208
 30
0.0
 10
56.89536857140354
 20
144.8579658053647
 30
0.0
 10
57.15512223388527
 20
144.8369641132687
 30
0.0
 10
57.67173404953051
 20
144.7515617581911
 30
0.0
 10
57.92410009003078
 20
144.6875555749041
 30
0.0
 10
58.40562521156362
 20
144.5207410548629
 30
0.0
 10
58.63847594367717
 20
144.4166078914638
 30
0.0
 10
59.07556579211594
 20
144.1706212389688
 30
0.0
 10
59.27688678077311
 20
144.0308714080199
 30
0.0
 10
59.64597280607302
 20
143.7177333382954
 30
0.0
 10
59.81495755712472
 20
143.5422771790253
 30
0.0
 10
60.10541361378392
 20
143.1694369149251
 30
0.0
 10
60.22848542514605
 20
142.9713151048141
 30
0.0
 10
60.42982166656807
 20
142.5506037620804
 30
0.0
 10
60.50703421251031
 20
142.3286137414129
 30
0.0
 10
60.60923775541037
 20
141.8787488017045
 30
0.0
 10
60.63546610686269
 20
141.6484933885878
 30
0.0
 10
60.6359425061798
 20
141.1771774460387
 30
0.0
 10
60.61020009368183
 20
140.9439400303246
 30
0.0
 10
60.50888931731797
 20
140.4822634908265
 30
0.0
 10
60.43205667792703
 20
140.2513661037144
 30
0.0
 10
60.23165283871185
 20
139.8090900899227
 30
0.0
 10
60.10898134041981
 20
139.5980276586368
 30
0.0
 10
59.81903405125558
 20
139.1965291479042
 30
0.0
 10
59.65046307189034
 20
139.0056226258282
 30
0.0
 10
59.28219347777718
 20
138.6618972938311
 30
0.0
 10
59.08113162050687
 20
138.5067601076171
 30
0.0
 10
58.64410070192194
 20
138.2316827475373
 30
0.0
 10
58.41195248879233
 20
138.1145665181153
 30
0.0
 10
57.93094220729348
 20
137.9256400330508
 30
0.0
 10
57.67884212446305
 20
137.8525650626565
 30
0.0
 10
57.16177263820403
 20
137.754513003522
 30
0.0
 10
56.9002512672114
 20
137.7298320227451
 30
0.0
 10
56.63570592855126
 20
137.7298320227451
 30
0.0
  0
SPLINE
  5
DE
330
1F
100
AcDbEntity
  8
0
  6
Continuous
 62
     7
370
    25
100
AcDbSpline
210
0.0
220
0.0
230
1.0
 70
    11
 71
     3
 72
    70
 73
    66
 74
     0
 42
0.000000001
 43
0.00000001
 40
0.0
 40
0.0
 40
0.0
 40
0.0
 40
0.0312500000000003
 40
0.0312500000000003
 40
0.0625000000000006
 40
0.0625000000000006
 40
0.0937500000000009
 40
0.0937500000000009
 40
0.1250000000000012
 40
0.1250000000000012
 40
0.1562500000000014
 40
0.1562500000000014
 40
0.1875000000000017
 40
0.1875000000000017
 40
0.2187500000000021
 40
0.2187500000000021
 40
0.2500000000000023
 40
0.2500000000000023
 40
0.2812500000000024
 40
0.2812500000000024
 40
0.3125000000000026
 40
0.3125000000000026
 40
0.3437500000000027
 40
0.3437500000000027
 40
0.3750000000000028
 40
0.3750000000000028
 40
0.4062500000000029
 40
0.4062500000000029
 40
0.4375000000000031
 40
0.4375000000000031
 40
0.4687500000000032
 40
0.4687500000000032
 40
0.5000000000000033
 40
0.5000000000000033
 40
0.5312500000000032
 40
0.5312500000000032
 40
0.562500000000003
 40
0.562500000000003
 40
0.5937500000000029
 40
0.5937500000000029
 40
0.6250000000000027
 40
0.6250000000000027
 40
0.6562500000000026
 40
0.6562500000000026
 40
0.6875000000000024
 40
0.6875000000000024
 40
0.7187500000000022
 40
0.7187500000000022
 40
0.7500000000000021
 40
0.7500000000000021
 40
0.7812500000000019
 40
0.7812500000000019
 40
0.8125000000000016
 40
0.8125000000000016
 40
0.8437500000000013
 40
0.8437500000000013
 40
0.875000000000001
 40
0.875000000000001
 40
0.9062500000000008
 40
0.9062500000000008
 40
0.9375000000000006
 40
0.9375000000000006
 40
0.9687500000000002
 40
0.9687500000000002
 40
1.0
 40
1.0
 40
1.0
 40
1.0
 10
56.63570592855127
 20
152.1678885315409
 30
0.0
 10
56.37116058989113
 20
152.1678885315409
 30
0.0
 10
56.11108992251403
 20
152.1837889719557
 30
0.0
 10
55.5995152426786
 20
152.24573332213
 30
0.0
 10
55.34533995893841
 20
152.2925355562213
 30
0.0
 10
54.86106932887672
 20
152.4135125396763
 30
0.0
 10
54.63142823699555
 20
152.4871148674832
 30
0.0
 10
54.19682388876205
 20
152.6589391384613
 30
0.0
 10
53.99125811211544
 20
152.7579425613887
 30
0.0
 10
53.62270097152021
 20
152.9710389753015
 30
0.0
 10
53.45721998878472
 20
153.0859386914312
 30
0.0
 10
53.16479547934961
 20
153.3313055901215
 30
0.0
 10
53.04069450272313
 20
153.4597454905918
 30
0.0
 10
52.84111530597341
 20
153.7206376386777
 30
0.0
 10
52.76418172011514
 20
153.8550188100172
 30
0.0
 10
52.66132466159476
 20
154.1243387611235
 30
0.0
 10
52.63585175213564
 20
154.2570200253416
 30
0.0
 10
52.63556134156787
 20
154.5182064994727
 30
0.0
 10
52.66158597534361
 20
154.6479715376374
 30
0.0
 10
52.7637342598356
 20
154.89355417191
 30
0.0
 10
52.83931070741876
 20
155.0102157092189
 30
0.0
 10
53.03980823856369
 20
155.2321208993735
 30
0.0
 10
53.16493708007207
 20
155.3367321532965
 30
0.0
 10
53.45429588109366
 20
155.5267785649045
 30
0.0
 10
53.61970686814912
 20
155.6135382363542
 30
0.0
 10
53.99269742629695
 20
155.7710426121058
 30
0.0
 10
54.19443045938605
 20
155.839367876893
 30
0.0
 10
54.62728971021391
 20
155.9575976005122
 30
0.0
 10
54.8612082431033
 20
156.007892516616
 30
0.0
 10
55.34539197824591
 20
156.0877580535057
 30
0.0
 10
55.59470760420142
 20
156.1174991813053
 30
0.0
 10
56.10774012862914
 20
156.1576519228135
 30
0.0
 10
56.37303395153377
 20
156.1678501922233
 30
0.0
 10
56.89536857140352
 20
156.1679266506081
 30
0.0
 10
57.15512223388526
 20
156.158135638999
 30
0.0
 10
57.67173404953049
 20
156.1180688002602
 30
0.0
 10
57.92410009003078
 20
156.0879716334035
 30
0.0
 10
58.4056252115636
 20
156.0087494235732
 30
0.0
 10
58.63847594367716
 20
155.9589919441099
 30
0.0
 10
59.07556579211592
 20
155.8399000016595
 30
0.0
 10
59.27688678077311
 20
155.7715847401122
 30
0.0
 10
59.645972806073
 20
155.6161837731787
 30
0.0
 10
59.81495755712471
 20
155.5280314311118
 30
0.0
 10
60.10541361378392
 20
155.3375920419954
 30
0.0
 10
60.22848542514604
 20
155.2349674642963
 30
0.0
 10
60.42982166656806
 20
155.0133271176882
 30
0.0
 10
60.50703421251031
 20
154.8945730421407
 30
0.0
 10
60.60923775541037
 20
154.6499071032231
 30
0.0
 10
60.63546610686269
 20
154.5227503777745
 30
0.0
 10
60.63594250617979
 20
154.2583022319189
 30
0.0
 10
60.61020009368182
 20
154.1254015516618
 30
0.0
 10
60.50888931731796
 20
153.8586092781797
 30
0.0
 10
60.43205667792702
 20
153.7232453767112
 30
0.0
 10
60.23165283871185
 20
153.4606655814086
 30
0.0
 10
60.10898134041981
 20
153.3336904216548
 30
0.0
 10
59.81903405125556
 20
153.0896110355724
 30
0.0
 10
59.65046307189033
 20
152.9721859108186
 30
0.0
 10
59.28219347777718
 20
152.7589894498701
 30
0.0
 10
59.08113162050687
 20
152.6618153314452
 30
0.0
 10
58.64410070192193
 20
152.4884604442311
 30
0.0
 10
58.41195248879233
 20
152.4140608925744
 30
0.0
 10
57.93094220729348
 20
152.2936080130697
 30
0.0
 10
57.67884212446303
 20
152.2467496378037
 30
0.0
 10
57.16177263820403
 20
152.18379214082
 30
0.0
 10
56.9002512672114
 20
152.1678885315409
 30
0.0
 10
56.63570592855127
 20
152.1678885315409
 30
0.0
  0
LWPOLYLINE
  5
DF
330
1F
100
AcDbEntity
  8
0
  6
Continuous
 62
     7
370
    25
100
AcDbPolyline
 90
       20
 70
   128
 43
0.0
 10
119.5857074067
 20
153.2171807466
 10
120.3974556134
 20
153.3129635481
 10
121.1212348149
 20
153.5899314313
 10
121.6786201999
 20
154.0180715947
 10
122.0092099116
 20
154.5509874104
 10
122.0771666572
 20
155.1309294282
 10
121.8751367137
 20
155.6950520007
 10
121.4250173375
 20
156.1822249769
 10
120.7755725787
 20
156.5396535425
 10
119.9971955225
 20
156.7286058543
 10
119.174219291
 20
156.7286058543
 10
118.3958347843
 20
156.5396535425
 10
117.7463974759
 20
156.1822249769
 10
117.2962706492
 20
155.6950520007
 10
117.0942481563
 20
155.1309294282
 10
117.1622049019
 20
154.5509874104
 10
117.492787163
 20
154.0180715947
 10
118.050172548
 20
153.5899314313
 10
118.7739592001
 20
153.3129635481
 10
119.5857074067
 20
153.2171807466
  0
LWPOLYLINE
  5
E0
330
1F
100
AcDbEntity
  8
0
  6
Continuous
 62
     7
370
    25
100
AcDbPolyline
 90
       20
 70
   128
 43
0.0
 10
119.5857074067
 20
97.4651343404
 10
120.3974556134
 20
97.5609171419
 10
121.1212348149
 20
97.837885025
 10
121.6786201999
 20
98.2660251884
 10
122.0092099116
 20
98.7989410041
 10
122.0771666572
 20
99.3788830219
 10
121.8751367137
 20
99.9430055944
 10
121.4250173375
 20
100.4301785706
 10
120.7755725787
 20
100.7876071362
 10
119.9971955225
 20
100.9765594481
 10
119.174219291
 20
100.9765594481
 10
118.3958347843
 20
100.7876071362
 10
117.7463974759
 20
100.4301785706
 10
117.2962706492
 20
99.9430055944
 10
117.0942481563
 20
99.3788830219
 10
117.1622049019
 20
98.7989410041
 10
117.492787163
 20
98.2660251884
 10
118.050172548
 20
97.837885025
 10
118.7739592001
 20
97.5609171419
 10
119.5857074067
 20
97.4651343404
  0
ARC
  5
E1
330
1F
100
AcDbEntity
  8
0
  6
Continuous
 62
     7
370
    25
100
AcDbCircle
 10
56.6327605208
 20
139.0122943789
 30
0.0
 40
4.113256976714303
100
AcDbArc
 50
19.2676967187
 51
159.4030184579
  0
SPLINE
  5
E2
330
1F
100
AcDbEntity
  8
0
  6
Continuous
 62
     7
370
    25
100
AcDbSpline
210
0.0
220
0.0
230
1.0
 70
    24
 71
     3
 72
    14
 73
    10
 74
     0
 42
0.000000001
 43
0.00000001
 40
0.0
 40
0.0
 40
0.0
 40
0.0
 40
0.4999999999999984
 40
0.4999999999999984
 40
0.7499999999999992
 40
0.7499999999999992
 40
0.8749999999999996
 40
0.8749999999999996
 40
1.0
 40
1.0
 40
1.0
 40
1.0
 10
68.44803112621898
 20
100.7089251367617
 30
0.0
 10
68.40124642117077
 20
100.7089251367617
 30
0.0
 10
68.33919522439113
 20
100.7089251367617
 30
0.0
 10
68.19580358584054
 20
100.7089251367617
 30
0.0
 10
68.13965993228938
 20
100.7089251367617
 30
0.0
 10
68.02670891015319
 20
100.7089251367617
 30
0.0
 10
67.98370814811506
 20
100.7089251367617
 30
0.0
 10
67.87964543780859
 20
100.7089251367617
 30
0.0
 10
67.81431319945166
 20
100.7089251367617
 30
0.0
 10
67.74570592855126
 20
100.7089251367617
 30
0.0
  0
SPLINE
  5
E3
330
1F
100
AcDbEntity
  8
0
  6
Continuous
 62
     7
370
    25
100
AcDbSpline
210
0.0
220
0.0
230
1.0
 70
    24
 71
     3
 72
    12
 73
     8
 74
     0
 42
0.000000001
 43
0.00000001
 40
0.0
 40
0.0
 40
0.0
 40
0.0
 40
0.5000000000000017
 40
0.5000000000000017
 40
0.7500000000000008
 40
0.7500000000000008
 40
1.0
 40
1.0
 40
1.0
 40
1.0
 10
68.15140839686029
 20
153.5089251367617
 30
0.0
 10
68.10832284724934
 20
153.5089251367617
 30
0.0
 10
68.05917064550002
 20
153.5089251367617
 30
0.0
 10
67.9626980512121
 20
153.5089251367617
 30
0.0
 10
67.92659646607753
 20
153.5089251367617
 30
0.0
 10
67.84349070821627
 20
153.5089251367617
 30
0.0
 10
67.79549411124997
 20
153.5089251367617
 30
0.0
 10
67.74570592855126
 20
153.5089251367617
 30
0.0
  0
SPLINE
  5
E4
330
1F
100
AcDbEntity
  8
0
  6
Continuous
 62
     7
370
    25
100
AcDbSpline
210
0.0
220
0.0
230
1.0
 70
     8
 71
     3
 72
    10
 73
     6
 74
     0
 42
0.000000001
 43
0.00000001
 40
0.0
 40
0.0
 40
0.0
 40
0.0
 40
0.5
 40
0.5
 40
1.0
 40
1.0
 40
1.0
 40
1.0
 10
68.54570592855124
 20
154.2285789877975
 30
0.0
 10
68.54570592855126
 20
154.0848089299795
 30
0.0
 10
68.50965686983237
 20
153.9423895674843
 30
0.0
 10
68.37414800905836
 20
153.6924952741271
 30
0.0
 10
68.2742720159622
 20
153.5844649378789
 30
0.0
 10
68.15140839686026
 20
153.5089251367617
 30
0.0
  0
SPLINE
  5
E5
330
1F
100
AcDbEntity
  8
0
  6
Continuous
 62
     7
370
    25
100
AcDbSpline
210
0.0
220
0.0
230
1.0
 70
     8
 71
     3
 72
    10
 73
     6
 74
     0
 42
0.000000001
 43
0.00000001
 40
0.0
 40
0.0
 40
0.0
 40
0.0
 40
0.5
 40
0.5
 40
1.0
 40
1.0
 40
1.0
 40
1.0
 10
68.51955830539113
 20
146.9589251367617
 30
0.0
 10
68.52824794830279
 20
147.0058039860799
 30
0.0
 10
68.53478701305329
 20
147.0532264514812
 30
0.0
 10
68.54354564744634
 20
147.149163250068
 30
0.0
 10
68.54570592855126
 20
147.1970785380785
 30
0.0
 10
68.54570592855126
 20
147.2447917682231
 30
0.0
  0
SPLINE
  5
E6
330
1F
100
AcDbEntity
  8
0
  6
Continuous
 62
     7
370
    25
100
AcDbSpline
210
0.0
220
0.0
230
1.0
 70
     8
 71
     3
 72
    10
 73
     6
 74
     0
 42
0.000000001
 43
0.00000001
 40
0.0
 40
0.0
 40
0.0
 40
0.0
 40
0.5
 40
0.5
 40
1.0
 40
1.0
 40
1.0
 40
1.0
 10
65.12000346024222
 20
153.5089251367617
 30
0.0
 10
64.99846319657371
 20
153.5836513039735
 30
0.0
 10
64.89712883622477
 20
153.6925963198903
 30
0.0
 10
64.76148989333635
 20
153.9430268006519
 30
0.0
 10
64.72570592855126
 20
154.0854461627508
 30
0.0
 10
64.72570592855126
 20
154.2285789877975
 30
0.0
  0
SPLINE
  5
E7
330
1F
100
AcDbEntity
  8
0
  6
Continuous
 62
     7
370
    25
100
AcDbSpline
210
0.0
220
0.0
230
1.0
 70
    24
 71
     3
 72
    12
 73
     8
 74
     0
 42
0.000000001
 43
0.00000001
 40
0.0
 40
0.0
 40
0.0
 40
0.0
 40
0.2500000000000037
 40
0.2500000000000037
 40
0.5000000000000074
 40
0.5000000000000074
 40
1.0
 40
1.0
 40
1.0
 40
1.0
 10
65.52570592855126
 20
153.5089251367617
 30
0.0
 10
65.47582924623381
 20
153.5089251367617
 30
0.0
 10
65.42782605283021
 20
153.5089251367617
 30
0.0
 10
65.34477795011826
 20
153.5089251367617
 30
0.0
 10
65.3086483706504
 20
153.5089251367617
 30
0.0
 10
65.21273633970618
 20
153.5089251367617
 30
0.0
 10
65.16297767173738
 20
153.5089251367617
 30
0.0
 10
65.12000346024222
 20
153.5089251367617
 30
0.0
  0
SPLINE
  5
E8
330
1F
100
AcDbEntity
  8
0
  6
Continuous
 62
     7
370
    25
100
AcDbSpline
210
0.0
220
0.0
230
1.0
 70
    24
 71
     3
 72
    14
 73
    10
 74
     0
 42
0.000000001
 43
0.00000001
 40
0.0
 40
0.0
 40
0.0
 40
0.0
 40
0.1249999999999991
 40
0.1249999999999991
 40
0.2499999999999982
 40
0.2499999999999982
 40
0.4999999999999998
 40
0.4999999999999998
 40
1.0
 40
1.0
 40
1.0
 40
1.0
 10
65.52570592855125
 20
100.7089251367617
 30
0.0
 10
65.4572680806648
 20
100.7089251367617
 30
0.0
 10
65.39171804189975
 20
100.7089251367617
 30
0.0
 10
65.28729140249182
 20
100.7089251367617
 30
0.0
 10
65.24474679273038
 20
100.7089251367617
 30
0.0
 10
65.13213733219013
 20
100.7089251367617
 30
0.0
 10
65.07659828517065
 20
100.7089251367617
 30
0.0
 10
64.93398658970683
 20
100.7089251367617
 30
0.0
 10
64.8705812347111
 20
100.7089251367617
 30
0.0
 10
64.82338073088353
 20
100.7089251367617
 30
0.0
  0
SPLINE
  5
E9
330
1F
100
AcDbEntity
  8
0
  6
Continuous
 62
     7
370
    25
100
AcDbSpline
210
0.0
220
0.0
230
1.0
 70
     8
 71
     3
 72
    10
 73
     6
 74
     0
 42
0.000000001
 43
0.00000001
 40
0.0
 40
0.0
 40
0.0
 40
0.0
 40
0.5
 40
0.5
 40
1.0
 40
1.0
 40
1.0
 40
1.0
 10
64.72570592855126
 20
147.2447917682231
 30
0.0
 10
64.72570592855126
 20
147.1970202602298
 30
0.0
 10
64.72786717214842
 20
147.1493105381681
 30
0.0
 10
64.73653854600857
 20
147.0540154206199
 30
0.0
 10
64.74306772896458
 20
147.0063228566532
 30
0.0
 10
64.75185355171139
 20
146.9589251367617
 30
0.0
  0
LINE
  5
EA
330
1F
100
AcDbEntity
  8
0
  6
Continuous
 62
     7
370
    25
100
AcDbLine
 10
67.7457056895
 20
153.5089249937
 30
0.0
 11
65.5257064805
 21
153.5089249937
 31
0.0
  0
LINE
  5
EB
330
1F
100
AcDbEntity
  8
0
  6
Continuous
 62
     7
370
    25
100
AcDbLine
 10
67.7457056895
 20
100.7089252798
 30
0.0
 11
65.5257064805
 21
100.7089252798
 31
0.0
  0
LINE
  5
EC
330
1F
100
AcDbEntity
  8
0
  6
Continuous
 62
     7
370
    25
100
AcDbLine
 10
46.6357058336
 20
102.8884939133
 30
0.0
 11
46.6357058336
 21
151.3293563603
 31
0.0
  0
LINE
  5
ED
330
1F
100
AcDbEntity
  8
0
  6
Continuous
 62
     7
370
    25
100
AcDbLine
 10
26.835705708
 20
103.8804791151
 30
0.0
 11
26.835705708
 21
105.1451872317
 31
0.0
  0
SPLINE
  5
EE
330
1F
100
AcDbEntity
  8
0
  6
Continuous
 62
     7
370
    25
100
AcDbSpline
210
0.0
220
0.0
230
1.0
 70
     8
 71
     3
 72
    14
 73
    10
 74
     0
 42
0.000000001
 43
0.00000001
 40
0.0
 40
0.0
 40
0.0
 40
0.0
 40
0.25
 40
0.25
 40
0.5
 40
0.5
 40
0.75
 40
0.75
 40
1.0
 40
1.0
 40
1.0
 40
1.0
 10
26.05741881063556
 20
106.2757738132018
 30
0.0
 10
26.11404548583762
 20
106.1680763593649
 30
0.0
 10
26.20856814612735
 20
106.0652867776456
 30
0.0
 10
26.39161312168958
 20
105.8669294654254
 30
0.0
 10
26.4832396986443
 20
105.7708699567472
 30
0.0
 10
26.6420930163375
 20
105.5833409140379
 30
0.0
 10
26.70998362395921
 20
105.4919319412544
 30
0.0
 10
26.80690064966679
 20
105.3135557203442
 30
0.0
 10
26.83570592855184
 20
105.2263338140981
 30
0.0
 10
26.83570592855184
 20
105.1451876055638
 30
0.0
  0
SPLINE
  5
EF
330
1F
100
AcDbEntity
  8
0
  6
Continuous
 62
     7
370
    25
100
AcDbSpline
210
0.0
220
0.0
230
1.0
 70
     8
 71
     3
 72
    14
 73
    10
 74
     0
 42
0.000000001
 43
0.00000001
 40
0.0
 40
0.0
 40
0.0
 40
0.0
 40
0.1249999999999975
 40
0.1249999999999975
 40
0.249999999999995
 40
0.249999999999995
 40
0.4999999999999953
 40
0.4999999999999953
 40
1.0
 40
1.0
 40
1.0
 40
1.0
 10
25.43570592855126
 20
106.7224556754811
 30
0.0
 10
25.48425033720843
 20
106.7282039887614
 30
0.0
 10
25.53716569199334
 20
106.7251031001051
 30
0.0
 10
25.63246103697639
 20
106.7029082559428
 30
0.0
 10
25.67271203426133
 20
106.685676028847
 30
0.0
 10
25.7769820477743
 20
106.6293481123949
 30
0.0
 10
25.82730402292763
 20
106.5851617664491
 30
0.0
 10
25.95498697045301
 20
106.4541538675985
 30
0.0
 10
26.01107241751527
 20
106.3639193473682
 30
0.0
 10
26.057418810637
 20
106.2757738132023
 30
0.0
  0
SPLINE
  5
F0
330
1F
100
AcDbEntity
  8
0
  6
Continuous
 62
     7
370
    25
100
AcDbSpline
210
0.0
220
0.0
230
1.0
 70
     8
 71
     3
 72
     8
 73
     4
 74
     0
 42
0.000000001
 43
0.00000001
 40
0.0
 40
0.0
 40
0.0
 40
0.0
 40
1.0
 40
1.0
 40
1.0
 40
1.0
 10
23.16718083560504
 20
106.4126103888983
 30
0.0
 10
23.90175786208799
 20
106.5312353999673
 30
0.0
 10
24.66523293148365
 20
106.6312212721035
 30
0.0
 10
25.43570592855126
 20
106.7224556754811
 30
0.0
  0
SPLINE
  5
F1
330
1F
100
AcDbEntity
  8
0
  6
Continuous
 62
     7
370
    25
100
AcDbSpline
210
0.0
220
0.0
230
1.0
 70
     8
 71
     3
 72
    14
 73
    10
 74
     0
 42
0.000000001
 43
0.00000001
 40
0.0
 40
0.0
 40
0.0
 40
0.0
 40
0.500000000000001
 40
0.500000000000001
 40
0.7500000000000004
 40
0.7500000000000004
 40
0.8750000000000003
 40
0.8750000000000003
 40
1.0
 40
1.0
 40
1.0
 40
1.0
 10
17.88570592855126
 20
106.2389873713666
 30
0.0
 10
18.77785205910484
 20
106.238265145166
 30
0.0
 10
19.66782849489844
 20
106.2428513516235
 30
0.0
 10
20.99442366197404
 20
106.270576356015
 30
0.0
 10
21.43527059047279
 20
106.2831828936392
 30
0.0
 10
22.0917108278952
 20
106.3141990416466
 30
0.0
 10
22.30972448448708
 20
106.3265422142734
 30
0.0
 10
22.74243333816986
 20
106.3595662694367
 30
0.0
 10
22.95770980333464
 20
106.3787834345751
 30
0.0
 10
23.16718083560505
 20
106.4126103888983
 30
0.0
  0
SPLINE
  5
F2
330
1F
100
AcDbEntity
  8
0
  6
Continuous
 62
     7
370
    25
100
AcDbSpline
210
0.0
220
0.0
230
1.0
 70
     8
 71
     3
 72
     8
 73
     4
 74
     0
 42
0.000000001
 43
0.00000001
 40
0.0000005163856712
 40
0.0000005163856712
 40
0.0000005163856712
 40
0.0000005163856712
 40
0.000026289209185
 40
0.000026289209185
 40
0.000026289209185
 40
0.000026289209185
 10
17.87566099813258
 20
106.2489712444745
 30
0.0
 10
17.87898873634405
 20
106.2456369976017
 30
0.0
 10
17.88233718932335
 20
106.2423090403227
 30
0.0
 10
17.88570592855124
 20
106.2389873713666
 30
0.0
  0
SPLINE
  5
F3
330
1F
100
AcDbEntity
  8
0
  6
Continuous
 62
     7
370
    25
100
AcDbSpline
210
0.0
220
0.0
230
1.0
 70
     8
 71
     3
 72
     8
 73
     4
 74
     0
 42
0.000000001
 43
0.00000001
 40
0.0000005099763573
 40
0.0000005099763573
 40
0.0000005099763573
 40
0.0000005099763573
 40
0.0000262827998699
 40
0.0000262827998699
 40
0.0000262827998699
 40
0.0000262827998699
 10
17.88570592855124
 20
147.9788629021568
 30
0.0
 10
17.88233718932351
 20
147.9755412332009
 30
0.0
 10
17.87898873634437
 20
147.9722132759221
 30
0.0
 10
17.87566099813305
 20
147.9688790290494
 30
0.0
  0
SPLINE
  5
F4
330
1F
100
AcDbEntity
  8
0
  6
Continuous
 62
     7
370
    25
100
AcDbSpline
210
0.0
220
0.0
230
1.0
 70
     8
 71
     3
 72
    10
 73
     6
 74
     0
 42
0.000000001
 43
0.00000001
 40
0.0
 40
0.0
 40
0.0
 40
0.0
 40
0.5
 40
0.5
 40
1.0
 40
1.0
 40
1.0
 40
1.0
 10
21.43570592855126
 20
147.9320125285894
 30
0.0
 10
20.84812038146068
 20
147.9530780488259
 30
0.0
 10
20.25737398800029
 20
147.9638365346981
 30
0.0
 10
19.07335482270144
 20
147.9772013152338
 30
0.0
 10
18.47994083449597
 20
147.9793439578984
 30
0.0
 10
17.88570592855126
 20
147.9788629021568
 30
0.0
  0
SPLINE
  5
F5
330
1F
100
AcDbEntity
  8
0
  6
Continuous
 62
     7
370
    25
100
AcDbSpline
210
0.0
220
0.0
230
1.0
 70
     8
 71
     3
 72
    18
 73
    14
 74
     0
 42
0.000000001
 43
0.00000001
 40
0.0
 40
0.0
 40
0.0
 40
0.0
 40
0.2500000000000009
 40
0.2500000000000009
 40
0.500000000000001
 40
0.500000000000001
 40
0.7500000000000011
 40
0.7500000000000011
 40
0.875000000000001
 40
0.875000000000001
 40
0.9375000000000006
 40
0.9375000000000006
 40
1.0
 40
1.0
 40
1.0
 40
1.0
 10
22.83570592855127
 20
148.9530328091247
 30
0.0
 10
22.83570592855127
 20
148.8698259002675
 30
0.0
 10
22.79985682861301
 20
148.781089244954
 30
0.0
 10
22.67498509257909
 20
148.5989640543937
 30
0.0
 10
22.58458467493121
 20
148.5038340057671
 30
0.0
 10
22.36234202018904
 20
148.3146524966428
 30
0.0
 10
22.23257723374328
 20
148.2197073285481
 30
0.0
 10
21.99193977643175
 20
148.0814286209681
 30
0.0
 10
21.90417247829431
 20
148.0357181876657
 30
0.0
 10
21.7496483910875
 20
147.9778948824443
 30
0.0
 10
21.69303750503275
 20
147.9601801184064
 30
0.0
 10
21.56899347412615
 20
147.9356408151735
 30
0.0
 10
21.50127879910786
 20
147.9296616766352
 30
0.0
 10
21.43570592855126
 20
147.9320125285894
 30
0.0
  0
LINE
  5
F6
330
1F
100
AcDbEntity
  8
0
  6
Continuous
 62
     7
370
    25
100
AcDbLine
 10
22.8357050524
 20
148.9530327944
 30
0.0
 11
22.8357050524
 21
150.1369710295
 31
0.0
  0
SPLINE
  5
F7
330
1F
100
AcDbEntity
  8
0
  6
Continuous
 62
     7
370
    25
100
AcDbSpline
210
0.0
220
0.0
230
1.0
 70
     8
 71
     3
 72
    18
 73
    14
 74
     0
 42
0.000000001
 43
0.00000001
 40
0.0
 40
0.0
 40
0.0
 40
0.0
 40
0.001067142096085
 40
0.1270947925777493
 40
0.2524053537361832
 40
0.3766468838452861
 40
0.4391416358858051
 40
0.5008278334298175
 40
0.5624255844801763
 40
0.6253162510714301
 40
0.7499985254815132
 40
0.8752758926324193
 40
1.0
 40
1.0
 40
1.0
 40
1.0
 10
35.40600705449493
 20
103.4515864430237
 30
0.0
 10
35.40509497921219
 20
103.4514712751317
 30
0.0
 10
35.29646837803169
 20
103.437754976802
 30
0.0
 10
35.68414985007443
 20
103.4887412381836
 30
0.0
 10
36.55009831018396
 20
103.5882982740581
 30
0.0
 10
37.75050610390677
 20
103.6574289036772
 30
0.0
 10
38.80808165376451
 20
103.6613796039439
 30
0.0
 10
39.63521601788776
 20
103.6338927360197
 30
0.0
 10
40.4604876539356
 20
103.5753502472074
 30
0.0
 10
41.5148528610444
 20
103.4618316452477
 30
0.0
 10
42.67668906729781
 20
103.2786774894141
 30
0.0
 10
43.62892378797095
 20
103.074077340748
 30
0.0
 10
43.75462889067959
 20
103.0447906707389
 30
0.0
 10
43.81734234769852
 20
103.0301797418166
 30
0.0
  0
SPLINE
  5
F8
330
1F
100
AcDbEntity
  8
0
  6
Continuous
 62
     7
370
    25
100
AcDbSpline
210
0.0
220
0.0
230
1.0
 70
     8
 71
     3
 72
    18
 73
    14
 74
     0
 42
0.000000001
 43
0.00000001
 40
0.0
 40
0.0
 40
0.0
 40
0.0
 40
0.1248907819469273
 40
0.2505384063477967
 40
0.3748721756041158
 40
0.4374907331267689
 40
0.4990776026247599
 40
0.5607931145009658
 40
0.6233901196104445
 40
0.7478191009174896
 40
0.8731941046696081
 40
0.9991614615322162
 40
0.9999999999999999
 40
0.9999999999999999
 40
0.9999999999999999
 40
0.9999999999999999
 10
43.81712348689349
 20
151.1876053391266
 30
0.0
 10
43.75338265492577
 20
151.1729438728996
 30
0.0
 10
43.62551471934621
 20
151.1435320914536
 30
0.0
 10
42.6735158827577
 20
150.938578132096
 30
0.0
 10
41.51297181190505
 20
150.7553168702324
 30
0.0
 10
40.46070804024168
 20
150.6422863158573
 30
0.0
 10
39.6364807412234
 20
150.5840255083847
 30
0.0
 10
38.80887699589873
 20
150.5565783722625
 30
0.0
 10
37.7500596662045
 20
150.5605631661372
 30
0.0
 10
36.54783992657866
 20
150.6296559506331
 30
0.0
 10
35.68265915557978
 20
150.7292646878202
 30
0.0
 10
35.29651040794209
 20
150.7801222934635
 30
0.0
 10
35.4045882803057
 20
150.7664214860401
 30
0.0
 10
35.40530297462852
 20
150.7663308857251
 30
0.0
  0
SPLINE
  5
F9
330
1F
100
AcDbEntity
  8
0
  6
Continuous
 62
     7
370
    25
100
AcDbSpline
210
0.0
220
0.0
230
1.0
 70
     8
 71
     3
 72
     9
 73
     5
 74
     0
 42
0.000000001
 43
0.00000001
 40
0.0
 40
0.0
 40
0.0
 40
0.0
 40
0.7009339503679092
 40
0.9999999999999999
 40
0.9999999999999999
 40
0.9999999999999999
 40
0.9999999999999999
 10
16.75648949597985
 20
107.4076454369593
 30
0.0
 10
16.7656301669297
 20
107.3898161531984
 30
0.0
 10
16.7786708691885
 20
107.3643796855376
 30
0.0
 10
16.79383433245676
 20
107.4182590450112
 30
0.0
 10
16.79836920951516
 20
107.4343725322056
 30
0.0
  0
LINE
  5
FA
330
1F
100
AcDbEntity
  8
0
  6
Continuous
 62
     7
370
    25
100
AcDbLine
 10
16.7357061014
 20
107.4182476131
 30
0.0
 11
16.7357061014
 21
146.7996026604
 31
0.0
  0
SPLINE
  5
FB
330
1F
100
AcDbEntity
  8
0
  6
Continuous
 62
     7
370
    25
100
AcDbSpline
210
0.0
220
0.0
230
1.0
 70
     8
 71
     3
 72
    10
 73
     6
 74
     0
 42
0.000000001
 43
0.00000001
 40
0.0
 40
0.0
 40
0.0
 40
0.0
 40
0.5
 40
0.5
 40
1.0
 40
1.0
 40
1.0
 40
1.0
 10
16.79836930327466
 20
146.7834776815425
 30
0.0
 10
16.78946501416592
 20
146.8292192007556
 30
0.0
 10
16.77294963397294
 20
146.8464100402246
 30
0.0
 10
16.74584168791132
 20
146.8460867632889
 30
0.0
 10
16.73570592855128
 20
146.8282092209924
 30
0.0
 10
16.73570592855127
 20
146.7996028832399
 30
0.0
  0
SPLINE
  5
FC
330
1F
100
AcDbEntity
  8
0
  6
Continuous
 62
     7
370
    25
100
AcDbSpline
210
0.0
220
0.0
230
1.0
 70
     8
 71
     3
 72
    26
 73
    22
 74
     0
 42
0.000000001
 43
0.00000001
 40
0.0
 40
0.0
 40
0.0
 40
0.0
 40
0.2500000000000165
 40
0.2500000000000165
 40
0.3750000000000256
 40
0.3750000000000256
 40
0.4375000000000291
 40
0.4375000000000291
 40
0.4687500000000291
 40
0.4687500000000291
 40
0.5000000000000292
 40
0.5000000000000292
 40
0.5312500000000293
 40
0.5312500000000293
 40
0.5625000000000293
 40
0.5625000000000293
 40
0.625000000000026
 40
0.625000000000026
 40
0.7500000000000173
 40
0.7500000000000173
 40
1.0
 40
1.0
 40
1.0
 40
1.0
 10
17.55985957465578
 20
147.4990444703596
 30
0.0
 10
17.52125905178731
 20
147.3812697740041
 30
0.0
 10
17.47496204923305
 20
147.2568800878422
 30
0.0
 10
17.38102270079911
 20
147.0516607554887
 30
0.0
 10
17.34571123388566
 20
146.9800878890423
 30
0.0
 10
17.27953125814
 20
146.8641346564418
 30
0.0
 10
17.25499289147175
 20
146.8235501216316
 30
0.0
 10
17.21162014591797
 20
146.7594084397598
 30
0.0
 10
17.19611174449276
 20
146.7375420144748
 30
0.0
 10
17.16106909990575
 20
146.6919477461316
 30
0.0
 10
17.14151880918598
 20
146.6682774551642
 30
0.0
 10
17.09959152881538
 20
146.6236608958242
 30
0.0
 10
17.07693941858374
 20
146.6027808833063
 30
0.0
 10
17.03596570449709
 20
146.5719074695555
 30
0.0
 10
17.01836640460166
 20
146.5620685997231
 30
0.0
 10
16.97373941874553
 20
146.5430789840269
 30
0.0
 10
16.95318019609218
 20
146.5427546593735
 30
0.0
 10
16.90205475659552
 20
146.5519781002497
 30
0.0
 10
16.88114334360699
 20
146.5732249964666
 30
0.0
 10
16.82969343604605
 20
146.6471938752974
 30
0.0
 10
16.8120281367415
 20
146.7133119686122
 30
0.0
 10
16.79836930327466
 20
146.7834776815425
 30
0.0
  0
SPLINE
  5
FD
330
1F
100
AcDbEntity
  8
0
  6
Continuous
 62
     7
370
    25
100
AcDbSpline
210
0.0
220
0.0
230
1.0
 70
     8
 71
     3
 72
    10
 73
     6
 74
     0
 42
0.000000001
 43
0.00000001
 40
0.0
 40
0.0
 40
0.0
 40
0.0
 40
0.5
 40
0.5
 40
1.0
 40
1.0
 40
1.0
 40
1.0
 10
17.87566099813306
 20
147.9688790290494
 30
0.0
 10
17.80810174321483
 20
147.9011876362396
 30
0.0
 10
17.74446508787833
 20
147.826480471486
 30
0.0
 10
17.63424433330646
 20
147.6675143390593
 30
0.0
 10
17.58742804008384
 20
147.5831590730513
 30
0.0
 10
17.55985957465578
 20
147.4990444703596
 30
0.0
  0
SPLINE
  5
FE
330
1F
100
AcDbEntity
  8
0
  6
Continuous
 62
     7
370
    25
100
AcDbSpline
210
0.0
220
0.0
230
1.0
 70
     8
 71
     3
 72
    10
 73
     6
 74
     0
 42
0.000000001
 43
0.00000001
 40
0.0
 40
0.0
 40
0.0
 40
0.0
 40
0.5
 40
0.5
 40
1.0
 40
1.0
 40
1.0
 40
1.0
 10
17.55985957465581
 20
106.7188058031638
 30
0.0
 10
17.58733698940902
 20
106.6349690066982
 30
0.0
 10
17.63404561969669
 20
106.5506585191113
 30
0.0
 10
17.74432408243863
 20
106.3915372886285
 30
0.0
 10
17.80821162105027
 20
106.3165525445404
 30
0.0
 10
17.87566099813261
 20
106.2489712444745
 30
0.0
  0
SPLINE
  5
FF
330
1F
100
AcDbEntity
  8
0
  6
Continuous
 62
     7
370
    25
100
AcDbSpline
210
0.0
220
0.0
230
1.0
 70
     8
 71
     3
 72
    24
 73
    20
 74
     0
 42
0.000000001
 43
0.00000001
 40
0.0
 40
0.0
 40
0.0
 40
0.0
 40
0.25
 40
0.25
 40
0.374999999999999
 40
0.374999999999999
 40
0.4374999999999993
 40
0.4374999999999993
 40
0.4687499999999994
 40
0.4687499999999994
 40
0.4999999999999995
 40
0.4999999999999995
 40
0.5624999999999971
 40
0.5624999999999971
 40
0.6249999999999947
 40
0.6249999999999947
 40
0.7499999999999947
 40
0.7499999999999947
 40
1.0
 40
1.0
 40
1.0
 40
1.0
 10
16.79836930327466
 20
107.434372591981
 30
0.0
 10
16.81212242194491
 20
107.5050226499713
 30
0.0
 10
16.82989498935077
 20
107.5716207627362
 30
0.0
 10
16.88214608090613
 20
107.6457187829694
 30
0.0
 10
16.90318115648767
 20
107.666976590131
 30
0.0
 10
16.95608156411613
 20
107.6751225162772
 30
0.0
 10
16.97718723699404
 20
107.6741827128814
 30
0.0
 10
17.02323940567199
 20
107.6531667213041
 30
0.0
 10
17.04160987765539
 20
107.6422579151965
 30
0.0
 10
17.0831615127211
 20
107.6096230042491
 30
0.0
 10
17.10572818547801
 20
107.5881310238777
 30
0.0
 10
17.16850920193802
 20
107.5196650802914
 30
0.0
 10
17.20163896290591
 20
107.4735906220863
 30
0.0
 10
17.25855664939094
 20
107.3885827337516
 30
0.0
 10
17.28274267489471
 20
107.3483024325703
 30
0.0
 10
17.34795062527447
 20
107.2333662061043
 30
0.0
 10
17.3826666854657
 20
107.1627832209573
 30
0.0
 10
17.47588195579658
 20
106.9585774618787
 30
0.0
 10
17.52155449115726
 20
106.8356790795514
 30
0.0
 10
17.55985957465581
 20
106.7188058031638
 30
0.0
  0
LINE
  5
100
330
1F
100
AcDbEntity
  8
0
  6
Continuous
 62
     7
370
    25
100
AcDbLine
 10
211.1356999681
 20
107.1089255838
 30
0.0
 11
211.1356999681
 21
147.1089246897
 31
0.0
  0
LINE
  5
101
330
1F
100
AcDbEntity
  8
0
  6
Continuous
 62
     7
370
    25
100
AcDbLine
 10
235.6357123659
 20
108.1089257477
 30
0.0
 11
235.6357123659
 21
146.1089245258
 31
0.0
  0
SPLINE
  5
102
330
1F
100
AcDbEntity
  8
0
  6
Continuous
 62
     7
370
    25
100
AcDbSpline
210
0.0
220
0.0
230
1.0
 70
     8
 71
     3
 72
     8
 73
     4
 74
     0
 42
0.000000001
 43
0.00000001
 40
0.0
 40
0.0
 40
0.0
 40
0.0
 40
1.0
 40
1.0
 40
1.0
 40
1.0
 10
64.72570592855126
 20
154.9141593279333
 30
0.0
 10
64.23299583170551
 20
155.8021783260597
 30
0.0
 10
63.73891312642653
 20
156.6894409617457
 30
0.0
 10
63.24377309706221
 20
157.576120609926
 30
0.0
  0
LINE
  5
103
330
1F
100
AcDbEntity
  8
0
  6
Continuous
 62
     7
370
    25
100
AcDbLine
 10
64.7257059768
 20
148.1590691237
 30
0.0
 11
64.7257059768
 21
154.914158511
 31
0.0
  0
SPLINE
  5
104
330
1F
100
AcDbEntity
  8
0
  6
Continuous
 62
     7
370
    25
100
AcDbSpline
210
0.0
220
0.0
230
1.0
 70
     8
 71
     3
 72
     8
 73
     4
 74
     0
 42
0.000000001
 43
0.00000001
 40
0.0
 40
0.0
 40
0.0
 40
0.0
 40
1.0
 40
1.0
 40
1.0
 40
1.0
 10
63.24377309706221
 20
151.5676147991292
 30
0.0
 10
63.75085993882148
 20
150.4364644449655
 30
0.0
 10
64.24642777796143
 20
149.3000800341976
 30
0.0
 10
64.72570592855126
 20
148.1590688043451
 30
0.0
  0
LINE
  5
105
330
1F
100
AcDbEntity
  8
0
  6
Continuous
 62
     7
370
    25
100
AcDbLine
 10
73.9857066378
 20
157.5761205731
 30
0.0
 11
70.0276378498
 21
157.5761205731
 31
0.0
  0
LINE
  5
106
330
1F
100
AcDbEntity
  8
0
  6
Continuous
 62
     7
370
    25
100
AcDbLine
 10
70.0276378498
 20
151.5676147519
 30
0.0
 11
73.9857066378
 21
151.5676147519
 31
0.0
  0
LINE
  5
107
330
1F
100
AcDbEntity
  8
0
  6
Continuous
 62
     7
370
    25
100
AcDbLine
 10
70.0276378498
 20
151.5676147519
 30
0.0
 11
70.0276378498
 21
157.5761205731
 31
0.0
  0
SPLINE
  5
108
330
1F
100
AcDbEntity
  8
0
  6
Continuous
 62
     7
370
    25
100
AcDbSpline
210
0.0
220
0.0
230
1.0
 70
     8
 71
     3
 72
     8
 73
     4
 74
     0
 42
0.000000001
 43
0.00000001
 40
0.0
 40
0.0
 40
0.0
 40
0.0
 40
1.0
 40
1.0
 40
1.0
 40
1.0
 10
68.54570592855126
 20
148.1590688043451
 30
0.0
 10
69.0249840791411
 20
149.3000800341976
 30
0.0
 10
69.52055191828104
 20
150.4364644449655
 30
0.0
 10
70.02763876004032
 20
151.5676147991292
 30
0.0
  0
SPLINE
  5
109
330
1F
100
AcDbEntity
  8
0
  6
Continuous
 62
     7
370
    25
100
AcDbSpline
210
0.0
220
0.0
230
1.0
 70
     8
 71
     3
 72
    12
 73
     8
 74
     0
 42
0.000000001
 43
0.00000001
 40
0.0
 40
0.0
 40
0.0
 40
0.0
 40
0.25
 40
0.25
 40
0.5
 40
0.5
 40
1.0
 40
1.0
 40
1.0
 40
1.0
 10
73.98570592855125
 20
151.5676147991292
 30
0.0
 10
74.07690565037691
 20
151.5676147991292
 30
0.0
 10
74.16750065951294
 20
151.5393951005413
 30
0.0
 10
74.32091338595959
 20
151.4449520932932
 30
0.0
 10
74.38612225328328
 20
151.3786651165879
 30
0.0
 10
74.5389067826232
 20
151.1530402932996
 30
0.0
 10
74.58570592855126
 20
150.970614030267
 30
0.0
 10
74.58570592855126
 20
150.7898773980201
 30
0.0
  0
LINE
  5
10A
330
1F
100
AcDbEntity
  8
0
  6
Continuous
 62
     7
370
    25
100
AcDbLine
 10
68.5457061932
 20
147.2447916148
 30
0.0
 11
68.5457061932
 21
148.1590691237
 31
0.0
  0
LINE
  5
10B
330
1F
100
AcDbEntity
  8
0
  6
Continuous
 62
     7
370
    25
100
AcDbLine
 10
74.5857056186
 20
150.7898765831
 30
0.0
 11
74.5857056186
 21
146.9589258759
 31
0.0
  0
SPLINE
  5
10C
330
1F
100
AcDbEntity
  8
0
  6
Continuous
 62
     7
370
    25
100
AcDbSpline
210
0.0
220
0.0
230
1.0
 70
     8
 71
     3
 72
    10
 73
     6
 74
     0
 42
0.000000001
 43
0.00000001
 40
0.0
 40
0.0
 40
0.0
 40
0.0
 40
0.5
 40
0.5
 40
1.0
 40
1.0
 40
1.0
 40
1.0
 10
74.58570592855126
 20
156.9553654605256
 30
0.0
 10
74.58570592855125
 20
157.1157707268764
 30
0.0
 10
74.5234680974444
 20
157.274832539865
 30
0.0
 10
74.30433317370183
 20
157.5057450054954
 30
0.0
 10
74.14674447870998
 20
157.576120609926
 30
0.0
 10
73.98570592855127
 20
157.576120609926
 30
0.0
  0
LINE
  5
10D
330
1F
100
AcDbEntity
  8
0
  6
Continuous
 62
     7
370
    25
100
AcDbLine
 10
74.5857056186
 20
150.7898765831
 30
0.0
 11
74.5857056186
 21
156.9553661375
 31
0.0
  0
LINE
  5
10E
330
1F
100
AcDbEntity
  8
0
  6
Continuous
 62
     7
370
    25
100
AcDbLine
 10
64.7257059768
 20
148.1590691237
 30
0.0
 11
64.7257059768
 21
147.2447916148
 31
0.0
  0
SPLINE
  5
10F
330
1F
100
AcDbEntity
  8
0
  6
Continuous
 62
     7
370
    25
100
AcDbSpline
210
0.0
220
0.0
230
1.0
 70
     8
 71
     3
 72
     8
 73
     4
 74
     0
 42
0.000000001
 43
0.00000001
 40
0.0
 40
0.0
 40
0.0
 40
0.0
 40
1.0
 40
1.0
 40
1.0
 40
1.0
 10
70.02763876004032
 20
157.576120609926
 30
0.0
 10
69.532498730676
 20
156.6894409617457
 30
0.0
 10
69.03841602539701
 20
155.8021783260597
 30
0.0
 10
68.54570592855124
 20
154.9141593279333
 30
0.0
  0
LINE
  5
110
330
1F
100
AcDbEntity
  8
0
  6
Continuous
 62
     7
370
    25
100
AcDbLine
 10
68.5457061932
 20
148.1590691237
 30
0.0
 11
68.5457061932
 21
154.914158511
 31
0.0
  0
ARC
  5
111
330
1F
100
AcDbEntity
  8
0
  6
Continuous
 62
     7
370
    25
100
AcDbCircle
 10
56.6358794206
 20
145.9050716834
 30
0.0
 40
7.163997191273161
100
AcDbArc
 50
70.7239682776
 51
109.3392437014
  0
LINE
  5
112
330
1F
100
AcDbEntity
  8
0
  6
HIDDEN
 62
     7
370
    18
100
AcDbLine
 10
240.6357075975
 20
112.108925472
 30
0.0
 11
240.6357075975
 21
142.1089248015
 31
0.0
  0
LINE
  5
113
330
1F
100
AcDbEntity
  8
0
  6
HIDDEN
 62
     7
370
    18
100
AcDbLine
 10
260.6357034252
 20
113.108925636
 30
0.0
 11
260.6357034252
 21
141.1089255689
 31
0.0
  0
LINE
  5
114
330
1F
100
AcDbEntity
  8
0
  6
HIDDEN
 62
     7
370
    18
100
AcDbLine
 10
240.6357075975
 20
116.3089248566
 30
0.0
 11
240.6357075975
 21
137.8739039628
 31
0.0
  0
LINE
  5
115
330
1F
100
AcDbEntity
  8
0
  6
HIDDEN
 62
     7
370
    18
100
AcDbLine
 10
200.635701041
 20
118.4829251124
 30
0.0
 11
200.635701041
 21
135.7349251611
 31
0.0
  0
LINE
  5
116
330
1F
100
AcDbEntity
  8
0
  6
HIDDEN
 62
     7
370
    18
100
AcDbLine
 10
202.0097073123
 20
117.1089253603
 30
0.0
 11
202.0097073123
 21
137.1089249132
 31
0.0
  0
LINE
  5
117
330
1F
100
AcDbEntity
  8
0
  6
HIDDEN
 62
     7
370
    18
100
AcDbLine
 10
260.6357034252
 20
127.1089251368
 30
0.0
 11
260.6357034252
 21
118.4939249633
 31
0.0
  0
LINE
  5
118
330
1F
100
AcDbEntity
  8
0
  6
HIDDEN
 62
     7
370
    18
100
AcDbLine
 10
250.6357129619
 20
127.1089251368
 30
0.0
 11
250.6357129619
 21
122.80142505
 31
0.0
  0
LINE
  5
119
330
1F
100
AcDbEntity
  8
0
  6
HIDDEN
 62
     7
370
    18
100
AcDbLine
 10
250.6357129619
 20
127.1089251368
 30
0.0
 11
250.6357129619
 21
131.4164252235
 31
0.0
  0
LINE
  5
11A
330
1F
100
AcDbEntity
  8
0
  6
HIDDEN
 62
     7
370
    18
100
AcDbLine
 10
250.6357129619
 20
127.1089251368
 30
0.0
 11
260.6357034252
 21
127.1089251368
 31
0.0
  0
LINE
  5
11B
330
1F
100
AcDbEntity
  8
0
  6
HIDDEN
 62
     7
370
    18
100
AcDbLine
 10
260.6357034252
 20
127.1089251368
 30
0.0
 11
260.6357034252
 21
135.7239253102
 31
0.0
  0
LINE
  5
11C
330
1F
100
AcDbEntity
  8
0
  6
HIDDEN
 62
     7
370
    18
100
AcDbLine
 10
250.6357129619
 20
131.4164252235
 30
0.0
 11
250.6357129619
 21
135.7239253102
 31
0.0
  0
LINE
  5
11D
330
1F
100
AcDbEntity
  8
0
  6
HIDDEN
 62
     7
370
    18
100
AcDbLine
 10
250.6357129619
 20
122.80142505
 30
0.0
 11
250.6357129619
 21
131.4164252235
 31
0.0
  0
LINE
  5
11E
330
1F
100
AcDbEntity
  8
0
  6
HIDDEN
 62
     7
370
    18
100
AcDbLine
 10
250.6357129619
 20
118.4939249633
 30
0.0
 11
250.6357129619
 21
122.80142505
 31
0.0
  0
LINE
  5
11F
330
1F
100
AcDbEntity
  8
0
  6
HIDDEN
 62
     7
370
    18
100
AcDbLine
 10
250.6357129619
 20
122.80142505
 30
0.0
 11
250.6357129619
 21
118.4939249633
 31
0.0
  0
LINE
  5
120
330
1F
100
AcDbEntity
  8
0
  6
HIDDEN
 62
     7
370
    18
100
AcDbLine
 10
250.6357129619
 20
135.7239253102
 30
0.0
 11
250.6357129619
 21
131.4164252235
 31
0.0
  0
LINE
  5
121
330
1F
100
AcDbEntity
  8
0
  6
HIDDEN
 62
     7
370
    18
100
AcDbLine
 10
250.6357129619
 20
131.4164252235
 30
0.0
 11
250.6357129619
 21
122.80142505
 31
0.0
  0
LINE
  5
122
330
1F
100
AcDbEntity
  8
0
  6
HIDDEN
 62
     7
370
    18
100
AcDbLine
 10
250.6357129619
 20
122.80142505
 30
0.0
 11
250.6357129619
 21
118.4939249633
 31
0.0
  0
LINE
  5
123
330
1F
100
AcDbEntity
  8
0
  6
HIDDEN
 62
     7
370
    18
100
AcDbLine
 10
250.6357129619
 20
131.4164252235
 30
0.0
 11
250.6357129619
 21
135.7239253102
 31
0.0
  0
LINE
  5
124
330
1F
100
AcDbEntity
  8
0
  6
HIDDEN
 62
     7
370
    18
100
AcDbLine
 10
250.6357129619
 20
118.4939249633
 30
0.0
 11
260.6357034252
 21
118.4939249633
 31
0.0
  0
LINE
  5
125
330
1F
100
AcDbEntity
  8
0
  6
HIDDEN
 62
     7
370
    18
100
AcDbLine
 10
250.6357129619
 20
135.7239253102
 30
0.0
 11
260.6357034252
 21
135.7239253102
 31
0.0
  0
LINE
  5
126
330
1F
100
AcDbEntity
  8
0
  6
HIDDEN
 62
     7
370
    18
100
AcDbLine
 10
202.0097073123
 20
137.1089249132
 30
0.0
 11
200.635701041
 21
135.7349251611
 31
0.0
  0
LINE
  5
127
330
1F
100
AcDbEntity
  8
0
  6
HIDDEN
 62
     7
370
    18
100
AcDbLine
 10
200.635701041
 20
118.4829251124
 30
0.0
 11
202.0097073123
 21
117.1089253603
 31
0.0
  0
LINE
  5
128
330
1F
100
AcDbEntity
  8
0
  6
HIDDEN
 62
     7
370
    18
100
AcDbLine
 10
235.6357123659
 20
137.1089249132
 30
0.0
 11
202.0097073123
 21
137.1089249132
 31
0.0
  0
LINE
  5
129
330
1F
100
AcDbEntity
  8
0
  6
HIDDEN
 62
     7
370
    18
100
AcDbLine
 10
202.0097073123
 20
117.1089253603
 30
0.0
 11
235.6357123659
 21
117.1089253603
 31
0.0
  0
LINE
  5
12A
330
1F
100
AcDbEntity
  8
0
  6
HIDDEN
 62
     7
370
    18
100
AcDbLine
 10
250.6357129619
 20
135.7239253102
 30
0.0
 11
245.6618394658
 21
127.1089251368
 31
0.0
  0
LINE
  5
12B
330
1F
100
AcDbEntity
  8
0
  6
HIDDEN
 62
     7
370
    18
100
AcDbLine
 10
245.6618394658
 20
127.1089251368
 30
0.0
 11
250.6357129619
 21
118.4939249633
 31
0.0
  0
DIMENSION
  5
12C
330
1F
100
AcDbEntity
  8
VERMASSUNG
100
AcDbDimension
  2
_D
 10
281.5147363289
 20
147.1089251368
 30
0.0
 11
281.5147363289
 21
127.1089251368
 31
0.0
 70
   160
  1
%%c<>
 71
     2
 42
-1.0
  3
SLDDIMSTYLE0
100
AcDbAlignedDimension
 13
234.6357059286
 23
107.1089251368
 33
0.0
 14
234.6357059286
 24
147.1089251368
 34
0.0
 50
90.0
100
AcDbRotatedDimension
  0
DIMENSION
  5
138
330
1F
100
AcDbEntity
  8
VERMASSUNG
100
AcDbDimension
  2
_D_1
 10
290.3402438765
 20
87.1089251368
 30
0.0
 11
290.3402438765
 21
127.1089251368
 31
0.0
 70
   160
  1
%%c<>
 71
     2
 42
-1.0
  3
SLDDIMSTYLE0
100
AcDbAlignedDimension
 13
207.6357059286
 23
167.1089251368
 33
0.0
 14
207.6357059286
 24
87.1089251368
 34
0.0
 50
90.0
100
AcDbRotatedDimension
  0
DIMENSION
  5
143
330
1F
100
AcDbEntity
  8
VERMASSUNG
100
AcDbDimension
  2
_D_2
 10
7.90972648
 20
158.6089251368
 30
0.0
 11
7.90972648
 21
127.1089251368
 31
0.0
 70
   160
  1
%%c<>
 71
     2
 42
-1.0
  3
SLDDIMSTYLE0
100
AcDbAlignedDimension
 13
48.9357059286
 23
95.6089251368
 33
0.0
 14
48.9357059286
 24
158.6089251368
 34
0.0
 50
90.0
100
AcDbRotatedDimension
  0
DIMENSION
  5
14E
330
1F
100
AcDbEntity
  8
VERMASSUNG
100
AcDbDimension
  2
_D_3
 10
208.6357059286
 20
177.1089251368
 30
0.0
 11
141.6107059286
 21
177.1089251368
 31
0.0
 70
   160
  1
<>
 71
     2
 42
-1.0
  3
SLDDIMSTYLE0
100
AcDbAlignedDimension
 13
74.5857059286
 23
156.9553654605
 33
0.0
 14
208.6357059286
 24
166.1089251368
 34
0.0
100
AcDbRotatedDimension
  0
DIMENSION
  5
158
330
1F
100
AcDbEntity
  8
VERMASSUNG
100
AcDbDimension
  2
_D_4
 10
208.6357059286
 20
186.6115080662
 30
0.0
 11
128.6357059286
 21
186.6115080662
 31
0.0
 70
   160
  1
<>
 71
     2
 42
-1.0
  3
SLDDIMSTYLE0
100
AcDbAlignedDimension
 13
48.6357059286
 23
158.3089251368
 33
0.0
 14
208.6357059286
 24
166.1089251368
 34
0.0
100
AcDbRotatedDimension
  0
DIMENSION
  5
162
330
1F
100
AcDbEntity
  8
VERMASSUNG
100
AcDbDimension
  2
_D_5
 10
260.6357059286
 20
195.1089251368
 30
0.0
 11
138.6857059286
 21
195.1089251368
 31
0.0
 70
   160
  1
(<>)
 71
     2
 42
-1.0
  3
SLDDIMSTYLE0
100
AcDbAlignedDimension
 13
16.7357059286
 23
146.7996028832
 33
0.0
 14
260.6357059286
 24
141.1089251368
 34
0.0
100
AcDbRotatedDimension
  0
DIMENSION
  5
16E
330
1F
100
AcDbEntity
  8
VERMASSUNG
100
AcDbDimension
  2
_D_6
 10
235.6357059286
 20
177.1089251368
 30
0.0
 11
222.1357059286
 21
177.1089251368
 31
0.0
 70
   160
  1
<>
 71
     2
 42
-1.0
  3
SLDDIMSTYLE0
100
AcDbAlignedDimension
 13
208.6357059286
 23
166.1089251368
 33
0.0
 14
235.6357059286
 24
146.1089251368
 34
0.0
100
AcDbRotatedDimension
  0
DIMENSION
  5
178
330
1F
100
AcDbEntity
  8
VERMASSUNG
100
AcDbDimension
  2
_D_7
 10
272.8959546437
 20
118.4939251368
 30
0.0
 11
272.8959546437
 21
127.1089251368
 31
0.0
 70
   160
  1
SW<>
 71
     2
 42
-1.0
  3
SLDDIMSTYLE1
100
AcDbAlignedDimension
 13
260.6357059286
 23
135.7239251368
 33
0.0
 14
260.6357059286
 24
118.4939251368
 34
0.0
 50
90.0
100
AcDbRotatedDimension
  0
LINE
  5
184
330
1F
100
AcDbEntity
  8
VERMASSUNG
  6
CENTERX2
370
    18
100
AcDbLine
 10
265.9457159374
 20
127.1089251368
 30
0.0
 11
12.1727836066
 21
127.1089251368
 31
0.0
  0
LINE
  5
185
330
1F
100
AcDbEntity
  8
0
  6
Continuous
 62
     7
370
    25
100
AcDbLine
 10
247.1585756093
 20
17.2751141889
 30
0.0
 11
249.4566746712
 21
15.9484498394
 31
0.0
  0
LINE
  5
186
330
1F
100
AcDbEntity
  8
0
  6
Continuous
 62
     7
370
    25
100
AcDbLine
 10
253.4563500088
 20
22.8768409142
 30
0.0
 11
251.1582509469
 21
24.2035052637
 31
0.0
  0
LINE
  5
187
330
1F
100
AcDbEntity
  8
0
  6
Continuous
 62
     7
370
    25
100
AcDbLine
 10
274.6695542873
 20
35.1229630781
 30
0.0
 11
272.3714552254
 21
36.4496274277
 31
0.0
  0
SPLINE
  5
188
330
1F
100
AcDbEntity
  8
0
  6
Continuous
 62
     7
370
    25
100
AcDbSpline
210
0.0
220
0.0
230
1.0
 70
     8
 71
     3
 72
    24
 73
    20
 74
     0
 42
0.000000001
 43
0.00000001
 40
0.0
 40
0.0
 40
0.0
 40
0.0
 40
0.0495778296440222
 40
0.1080517233550121
 40
0.1668549855626212
 40
0.2267549209881674
 40
0.2878625930666233
 40
0.349790878177561
 40
0.4120661276741192
 40
0.4743422759085
 40
0.5365186105913483
 40
0.5985951787266005
 40
0.6606071481672077
 40
0.7226026660838304
 40
0.7846294548169552
 40
0.8467303577258701
 40
0.9089612857236169
 40
0.9713733344559513
 40
1.0
 40
1.0
 40
1.0
 40
1.0
 10
273.9319462427928
 20
10.04029411689177
 30
0.0
 10
274.0944583574611
 20
9.943328260572756
 30
0.0
 10
274.4486431651072
 20
9.731997350020755
 30
0.0
 10
275.0806550267299
 20
9.577306048477368
 30
0.0
 10
275.7876106928396
 20
9.54459038780539
 30
0.0
 10
276.5355752796776
 20
9.659204054260877
 30
0.0
 10
277.3112842010716
 20
9.91609117298056
 30
0.0
 10
278.1003758738016
 20
10.31344842064379
 30
0.0
 10
278.8843115871566
 20
10.84242433314068
 30
0.0
 10
279.6450353200204
 20
11.49027242013765
 30
0.0
 10
280.3661806245114
 20
12.24164710321979
 30
0.0
 10
281.0332779943126
 20
13.08004810476297
 30
0.0
 10
281.6331039915381
 20
13.98783298775426
 30
0.0
 10
282.1537040330109
 20
14.94633589649363
 30
0.0
 10
282.5842826627705
 20
15.93599165792138
 30
0.0
 10
282.9161712726217
 20
16.93722228846358
 30
0.0
 10
283.1399831370633
 20
17.92920490955091
 30
0.0
 10
283.2354727974109
 20
18.72083081249915
 30
0.0
 10
283.243470152576
 20
19.16951115979664
 30
0.0
 10
283.2459848806604
 20
19.3105964369819
 30
0.0
  0
SPLINE
  5
189
330
1F
100
AcDbEntity
  8
0
  6
Continuous
 62
     7
370
    25
100
AcDbSpline
210
0.0
220
0.0
230
1.0
 70
     8
 71
     3
 72
    13
 73
     9
 74
     0
 42
0.000000001
 43
0.00000001
 40
0.0
 40
0.0
 40
0.0
 40
0.0
 40
0.0991218191473213
 40
0.2869870827543152
 40
0.4748492477379461
 40
0.6609359260848884
 40
0.8434063596804153
 40
1.0
 40
1.0
 40
1.0
 40
1.0
 10
283.2459848806604
 20
19.3105964369819
 30
0.0
 10
283.2426571336138
 20
19.47066607744466
 30
0.0
 10
283.2330223183404
 20
19.93411519035553
 30
0.0
 10
283.1249729926658
 20
20.65132707584651
 30
0.0
 10
282.8822644102235
 20
21.42037540692602
 30
0.0
 10
282.5175635968728
 20
22.07884768104761
 30
0.0
 10
282.0718595896278
 20
22.60387423511719
 30
0.0
 10
281.7070666471233
 20
22.83570268389557
 30
0.0
 10
281.5385903642483
 20
22.94277053188272
 30
0.0
  0
LINE
  5
18A
330
1F
100
AcDbEntity
  8
0
  6
Continuous
 62
     7
370
    25
100
AcDbLine
 10
281.5459331355
 20
22.9485338534
 30
0.0
 11
274.8284209059
 21
26.8264711194
 31
0.0
  0
LINE
  5
18B
330
1F
100
AcDbEntity
  8
0
  6
Continuous
 62
     7
370
    25
100
AcDbLine
 10
267.3290306357
 20
13.835738567
 30
0.0
 11
274.0465428653
 21
9.957801301
 31
0.0
  0
LINE
  5
18C
330
1F
100
AcDbEntity
  8
0
  6
Continuous
 62
     7
370
    25
100
AcDbLine
 10
270.7832118254
 20
26.2750475471
 30
0.0
 11
270.7561008651
 21
26.2906983714
 31
0.0
  0
LINE
  5
18D
330
1F
100
AcDbEntity
  8
0
  6
Continuous
 62
     7
370
    25
100
AcDbLine
 10
265.7328313595
 20
17.6438778624
 30
0.0
 11
265.7836183119
 21
17.6145591789
 31
0.0
  0
SPLINE
  5
18E
330
1F
100
AcDbEntity
  8
0
  6
Continuous
 62
     7
370
    25
100
AcDbSpline
210
0.0
220
0.0
230
1.0
 70
     8
 71
     3
 72
    17
 73
    13
 74
     0
 42
0.000000001
 43
0.00000001
 40
0.0
 40
0.0
 40
0.0
 40
0.0
 40
0.0783610268246975
 40
0.1911384150925909
 40
0.3045321035430693
 40
0.4184217551238002
 40
0.5326459208647494
 40
0.6470565095219563
 40
0.7615428879707774
 40
0.8760212519548242
 40
0.9904573226768871
 40
1.0
 40
1.0
 40
1.0
 40
1.0
 10
252.44593002366
 20
8.81727914729072
 30
0.0
 10
252.7043525236639
 20
8.79398132929629
 30
0.0
 10
253.3346973401697
 20
8.737153232638864
 30
0.0
 10
254.3914042874791
 20
8.81476342712803
 30
0.0
 10
255.5990989543593
 20
9.026013611927745
 30
0.0
 10
256.8395696471418
 20
9.386650577879532
 30
0.0
 10
258.1002791978168
 20
9.886859404099765
 30
0.0
 10
259.3709996645994
 20
10.52532318310102
 30
0.0
 10
260.64225096958
 20
11.29212743119181
 30
0.0
 10
261.8993405531794
 20
12.19526068953213
 30
0.0
 10
262.7673936774559
 20
12.87453122633128
 30
0.0
 10
263.2033116459699
 20
13.28019789007415
 30
0.0
 10
263.2368643683394
 20
13.31142216144227
 30
0.0
  0
SPLINE
  5
18F
330
1F
100
AcDbEntity
  8
0
  6
Continuous
 62
     7
370
    25
100
AcDbSpline
210
0.0
220
0.0
230
1.0
 70
     8
 71
     3
 72
    13
 73
     9
 74
     0
 42
0.000000001
 43
0.00000001
 40
0.0
 40
0.0
 40
0.0
 40
0.0
 40
0.1517430034181964
 40
0.3369012850936475
 40
0.521967029785946
 40
0.7067467717845429
 40
0.8909769362125365
 40
1.0
 40
1.0
 40
1.0
 40
1.0
 10
273.6793285695307
 20
35.69460791217335
 30
0.0
 10
273.6608550650757
 20
36.08582778062645
 30
0.0
 10
273.6198400116573
 20
36.95441791965763
 30
0.0
 10
273.4184701595567
 20
38.21134880901583
 30
0.0
 10
273.104125817899
 20
39.47046332879873
 30
0.0
 10
272.6700569925788
 20
40.62447812884015
 30
0.0
 10
272.2163380657229
 20
41.54703938075239
 30
0.0
 10
271.8655851211927
 20
42.03371667166456
 30
0.0
 10
271.7351853268652
 20
42.21464920445852
 30
0.0
  0
LINE
  5
190
330
1F
100
AcDbEntity
  8
0
  6
Continuous
 62
     7
370
    25
100
AcDbLine
 10
219.5036298822
 20
27.0113894113
 30
0.0
 11
249.4122742834
 21
9.7454965134
 31
0.0
  0
LINE
  5
191
330
1F
100
AcDbEntity
  8
0
  6
Continuous
 62
     7
370
    25
100
AcDbLine
 10
211.1083912248
 20
31.8578575283
 30
0.0
 11
217.0570869857
 21
28.4237485626
 31
0.0
  0
LINE
  5
192
330
1F
100
AcDbEntity
  8
0
  6
Continuous
 62
     7
370
    25
100
AcDbLine
 10
237.056683298
 20
63.0649964408
 30
0.0
 11
231.1067652785
 21
66.4998110013
 31
0.0
  0
LINE
  5
193
330
1F
100
AcDbEntity
  8
0
  6
Continuous
 62
     7
370
    25
100
AcDbLine
 10
269.4106483371
 20
44.3874499864
 30
0.0
 11
239.5169423596
 21
61.644719116
 31
0.0
  0
SPLINE
  5
194
330
1F
100
AcDbEntity
  8
0
  6
Continuous
 62
     7
370
    25
100
AcDbSpline
210
0.0
220
0.0
230
1.0
 70
     8
 71
     3
 72
    14
 73
    10
 74
     0
 42
0.000000001
 43
0.00000001
 40
0.0
 40
0.0
 40
0.0
 40
0.0
 40
0.0894218863889766
 40
0.2531603420896869
 40
0.4169901276545128
 40
0.5824433927048646
 40
0.7502795315251436
 40
0.9202366647980014
 40
0.9999999999999999
 40
0.9999999999999999
 40
0.9999999999999999
 40
0.9999999999999999
 10
263.7972228536321
 20
13.0172462268563
 30
0.0
 10
263.9117358825461
 20
12.93870774791629
 30
0.0
 10
264.2359312081455
 20
12.71635918204991
 30
0.0
 10
264.855955478907
 20
12.50206993256908
 30
0.0
 10
265.6310423952409
 20
12.36926942386084
 30
0.0
 10
266.4584126520359
 20
12.38544067024995
 30
0.0
 10
267.3239442695794
 20
12.55152905776491
 30
0.0
 10
268.0567997926269
 20
12.78342718114258
 30
0.0
 10
268.497418128374
 20
13.00820082741675
 30
0.0
 10
268.6381562433751
 20
13.07999588611515
 30
0.0
  0
SPLINE
  5
195
330
1F
100
AcDbEntity
  8
0
  6
Continuous
 62
     7
370
    25
100
AcDbSpline
210
0.0
220
0.0
230
1.0
 70
     8
 71
     3
 72
    14
 73
    10
 74
     0
 42
0.000000001
 43
0.00000001
 40
0.0
 40
0.0
 40
0.0
 40
0.0
 40
0.0107876158343916
 40
0.1929799204246369
 40
0.3750077893009242
 40
0.5560752388215188
 40
0.7351239345163023
 40
0.9113678368288065
 40
1.0
 40
1.0
 40
1.0
 40
1.0
 10
276.1496936551009
 20
26.06371682277772
 30
0.0
 10
276.1493563842636
 20
26.08433241457797
 30
0.0
 10
276.1433229381022
 20
26.45312523462218
 30
0.0
 10
276.022023386851
 20
27.10805258094845
 30
0.0
 10
275.7758811192869
 20
28.0026062331461
 30
0.0
 10
275.402250708115
 20
28.78959409037025
 30
0.0
 10
274.9188404101108
 20
29.45250130611513
 30
0.0
 10
274.4439250898127
 20
29.92039045241393
 30
0.0
 10
274.1037431453043
 20
30.11022229074132
 30
0.0
 10
273.9899123182022
 20
30.17374334327204
 30
0.0
  0
LINE
  5
196
330
1F
100
AcDbEntity
  8
0
  6
Continuous
 62
     7
370
    25
100
AcDbLine
 10
255.6493045375
 20
17.6916278568
 30
0.0
 11
263.9578128832
 21
12.895228083
 31
0.0
  0
LINE
  5
197
330
1F
100
AcDbEntity
  8
0
  6
Continuous
 62
     7
370
    25
100
AcDbLine
 10
273.9569999101
 20
30.2162048196
 30
0.0
 11
265.6484915643
 21
35.0126045933
 31
0.0
  0
SPLINE
  5
198
330
1F
100
AcDbEntity
  8
0
  6
Continuous
 62
     7
370
    25
100
AcDbSpline
210
0.0
220
0.0
230
1.0
 70
     8
 71
     3
 72
    24
 73
    20
 74
     0
 42
0.000000001
 43
0.00000001
 40
0.0
 40
0.0
 40
0.0
 40
0.0
 40
0.0182294973267497
 40
0.0864695967923922
 40
0.1522758326331214
 40
0.1910591685525509
 40
0.2248115234869821
 40
0.2896614676615677
 40
0.3547602920883974
 40
0.4200722558118236
 40
0.4855413579560677
 40
0.5510799988415762
 40
0.6165811007335708
 40
0.6819225547410843
 40
0.7470071668221848
 40
0.8117581151647465
 40
0.8761722860839259
 40
0.9404442983717967
 40
1.0
 40
1.0
 40
1.0
 40
1.0
 10
265.8097506750955
 20
17.53745051255771
 30
0.0
 10
265.7834824954612
 20
17.5718875716258
 30
0.0
 10
265.6588823015696
 20
17.7352359382296
 30
0.0
 10
265.5106454648202
 20
18.15130425248632
 30
0.0
 10
265.407642302364
 20
18.69459935170114
 30
0.0
 10
265.3862757709516
 20
19.18643572989596
 30
0.0
 10
265.4050927456447
 20
19.70284091472147
 30
0.0
 10
265.4948013663108
 20
20.35876404020903
 30
0.0
 10
265.7057593977939
 20
21.17647309358471
 30
0.0
 10
266.0165159707008
 20
22.00722835307186
 30
0.0
 10
266.4186351910532
 20
22.82470383098919
 30
0.0
 10
266.9001689145109
 20
23.60324628325549
 30
0.0
 10
267.4459011965245
 20
24.31831713269249
 30
0.0
 10
268.037944814567
 20
24.94775628303043
 30
0.0
 10
268.6559778534223
 20
25.47237155066068
 30
0.0
 10
269.2789555851998
 20
25.87839312535855
 30
0.0
 10
269.8824391719874
 20
26.15306710187002
 30
0.0
 10
270.4378829903631
 20
26.3021269773972
 30
0.0
 10
270.7511294130304
 20
26.29821219800696
 30
0.0
 10
270.9017872092094
 20
26.2963293607492
 30
0.0
  0
LINE
  5
199
330
1F
100
AcDbEntity
  8
0
  6
Continuous
 62
     7
370
    25
100
AcDbLine
 10
264.6104206124
 20
35.4026882821
 30
0.0
 11
264.1103038031
 21
35.5045824386
 31
0.0
  0
LINE
  5
19A
330
1F
100
AcDbEntity
  8
0
  6
Continuous
 62
     7
370
    25
100
AcDbLine
 10
254.4540436213
 20
18.7776362982
 30
0.0
 11
254.7923807404
 21
18.3955014612
 31
0.0
  0
SPLINE
  5
19B
330
1F
100
AcDbEntity
  8
0
  6
Continuous
 62
     7
370
    25
100
AcDbSpline
210
0.0
220
0.0
230
1.0
 70
     8
 71
     3
 72
    12
 73
     8
 74
     0
 42
0.000000001
 43
0.00000001
 40
0.0
 40
0.0
 40
0.0
 40
0.0
 40
0.0788549446255747
 40
0.3077592776890265
 40
0.537946674659513
 40
0.7692147603379347
 40
1.0
 40
1.0
 40
1.0
 40
1.0
 10
227.9520512769867
 20
67.43726990278026
 30
0.0
 10
227.8251816548664
 20
67.45181068221464
 30
0.0
 10
227.3300281365956
 20
67.50856121063123
 30
0.0
 10
226.4156360034135
 20
67.45869229447301
 30
0.0
 10
225.218068243998
 20
67.28427534150315
 30
0.0
 10
223.986680194966
 20
66.96603150134398
 30
0.0
 10
223.1508057995951
 20
66.63729117641286
 30
0.0
 10
222.7333053465447
 20
66.47309278087072
 30
0.0
  0
SPLINE
  5
19C
330
1F
100
AcDbEntity
  8
0
  6
Continuous
 62
     7
370
    25
100
AcDbSpline
210
0.0
220
0.0
230
1.0
 70
     8
 71
     3
 72
    14
 73
    10
 74
     0
 42
0.000000001
 43
0.00000001
 40
0.0
 40
0.0
 40
0.0
 40
0.0
 40
0.0912602332449062
 40
0.2644870285786758
 40
0.437793271084545
 40
0.6109753474473887
 40
0.7838349129350402
 40
0.9561132124152074
 40
1.0
 40
1.0
 40
1.0
 40
1.0
 10
206.8189971334308
 20
41.21885501029455
 30
0.0
 10
206.8221906174936
 20
40.96259662576199
 30
0.0
 10
206.8314458547481
 20
40.21991806508482
 30
0.0
 10
206.9342223960911
 20
39.04112737275298
 30
0.0
 10
207.1655029165652
 20
37.71800302265933
 30
0.0
 10
207.509505045516
 20
36.48257954217357
 30
0.0
 10
207.9724283226947
 20
35.35688270653937
 30
0.0
 10
208.3788928755744
 20
34.56580029872039
 30
0.0
 10
208.6624893019733
 20
34.19134245440711
 30
0.0
 10
208.7200662969181
 20
34.11531837440433
 30
0.0
  0
LINE
  5
19D
330
1F
100
AcDbEntity
  8
0
  6
Continuous
 62
     7
370
    25
100
AcDbLine
 10
206.2252665759
 20
42.7595096687
 30
0.0
 11
206.8672315674
 21
42.3889111676
 31
0.0
  0
LINE
  5
19E
330
1F
100
AcDbEntity
  8
0
  6
Continuous
 62
     7
370
    25
100
AcDbLine
 10
219.8661744389
 20
64.9061816855
 30
0.0
 11
219.2242094475
 21
65.2767801867
 31
0.0
  0
LINE
  5
19F
330
1F
100
AcDbEntity
  8
0
  6
Continuous
 62
     7
370
    25
100
AcDbLine
 10
195.4281799644
 20
45.8171943798
 30
0.0
 11
200.4868457228
 21
42.8968887979
 31
0.0
  0
LINE
  5
1A0
330
1F
100
AcDbEntity
  8
0
  6
Continuous
 62
     7
370
    25
100
AcDbLine
 10
213.3702010269
 20
71.8315680304
 30
0.0
 11
211.1769004537
 21
73.0977335002
 31
0.0
  0
LINE
  5
1A1
330
1F
100
AcDbEntity
  8
0
  6
Continuous
 62
     7
370
    25
100
AcDbLine
 10
202.8853040043
 20
41.5122883041
 30
0.0
 11
204.2846926445
 21
40.7044384377
 31
0.0
  0
LINE
  5
1A2
330
1F
100
AcDbEntity
  8
0
  6
Continuous
 62
     7
370
    25
100
AcDbLine
 10
204.0006064219
 20
72.6870560564
 30
0.0
 11
197.8102241681
 21
75.771275376
 31
0.0
  0
LINE
  5
1A3
330
1F
100
AcDbEntity
  8
0
  6
Continuous
 62
     7
370
    25
100
AcDbLine
 10
186.4285263382
 20
56.0554599955
 30
0.0
 11
192.1950884445
 21
52.2370824204
 31
0.0
  0
SPLINE
  5
1A4
330
1F
100
AcDbEntity
  8
0
  6
Continuous
 62
     7
370
    25
100
AcDbSpline
210
0.0
220
0.0
230
1.0
 70
     8
 71
     3
 72
    10
 73
     6
 74
     0
 42
0.000000001
 43
0.00000001
 40
0.0
 40
0.0
 40
0.0
 40
0.0
 40
0.0534103344428489
 40
0.5951623566862274
 40
1.0
 40
1.0
 40
1.0
 40
1.0
 10
222.0035504452804
 20
66.07035583092258
 30
0.0
 10
221.9871575539356
 20
66.09966839355481
 30
0.0
 10
221.8044881895243
 20
66.42630431596001
 30
0.0
 10
221.4171651825171
 20
66.88786717968404
 30
0.0
 10
221.0037774308971
 20
67.25601883517355
 30
0.0
 10
220.8269796807947
 20
67.41347000331271
 30
0.0
  0
SPLINE
  5
1A5
330
1F
100
AcDbEntity
  8
0
  6
Continuous
 62
     7
370
    25
100
AcDbSpline
210
0.0
220
0.0
230
1.0
 70
     8
 71
     3
 72
    23
 73
    19
 74
     0
 42
0.000000001
 43
0.00000001
 40
0.0
 40
0.0
 40
0.0
 40
0.0
 40
0.0529770568720367
 40
0.1160882610781189
 40
0.1797338988687253
 40
0.244254914235558
 40
0.3096401990467687
 40
0.375643481581055
 40
0.4419704576705037
 40
0.5083915405856563
 40
0.5747678328318692
 40
0.641065695756131
 40
0.7072858419796298
 40
0.7734456323921217
 40
0.8395698272873742
 40
0.9056863262601731
 40
0.9718208146536208
 40
1.0
 40
1.0
 40
1.0
 40
1.0
 10
197.7756657279153
 20
75.77648997988308
 30
0.0
 10
197.5675334005159
 20
75.87096447669065
 30
0.0
 10
197.1114544601494
 20
76.07798579305239
 30
0.0
 10
196.3289979941485
 20
76.22542416330882
 30
0.0
 10
195.4593427109699
 20
76.25152568762228
 30
0.0
 10
194.5453083589743
 20
76.12899834647291
 30
0.0
 10
193.5995798469697
 20
75.8629074661084
 30
0.0
 10
192.6343694569975
 20
75.45425970508869
 30
0.0
 10
191.6644610446495
 20
74.90914204362558
 30
0.0
 10
190.704562711231
 20
74.2361154616677
 30
0.0
 10
189.7685196481865
 20
73.44587750736837
 30
0.0
 10
188.8691534986446
 20
72.55034739722916
 30
0.0
 10
188.0181444656475
 20
71.56237630226605
 30
0.0
 10
187.2271814387085
 20
70.49569741784491
 30
0.0
 10
186.5046640256855
 20
69.3650923687421
 30
0.0
 10
185.8677283084579
 20
68.18529760343102
 30
0.0
 10
185.4063016166009
 20
67.20632649791503
 30
0.0
 10
185.1956787168427
 20
66.62322208901344
 30
0.0
 10
185.1327484810123
 20
66.44900125163988
 30
0.0
  0
LINE
  5
1A6
330
1F
100
AcDbEntity
  8
0
  6
Continuous
 62
     7
370
    25
100
AcDbLine
 10
185.244340165
 20
64.6116004136
 30
0.0
 11
187.7979004953
 21
63.1374614129
 31
0.0
  0
LINE
  5
1A7
330
1F
100
AcDbEntity
  8
0
  6
Continuous
 62
     7
370
    25
100
AcDbLine
 10
184.9460478203
 20
65.739910087
 30
0.0
 11
184.9460478203
 21
65.2745041176
 31
0.0
  0
LINE
  5
1A8
330
1F
100
AcDbEntity
  8
0
  6
Continuous
 62
     7
370
    25
100
AcDbLine
 10
184.9460478203
 20
58.2685614222
 30
0.0
 11
184.9460478203
 21
57.8031554528
 31
0.0
  0
SPLINE
  5
1A9
330
1F
100
AcDbEntity
  8
0
  6
Continuous
 62
     7
370
    25
100
AcDbSpline
210
0.0
220
0.0
230
1.0
 70
     8
 71
     3
 72
    10
 73
     6
 74
     0
 42
0.000000001
 43
0.00000001
 40
0.0
 40
0.0
 40
0.0
 40
0.0
 40
0.3656128593700252
 40
0.7789908532345667
 40
1.0
 40
1.0
 40
1.0
 40
1.0
 10
185.059756066292
 20
57.51705830993063
 30
0.0
 10
185.2008325522749
 20
57.30108839591551
 30
0.0
 10
185.5014163237989
 20
56.84093338965693
 30
0.0
 10
185.9855788597162
 20
56.35274065599351
 30
0.0
 10
186.3478309306843
 20
56.12780591511662
 30
0.0
 10
186.4740330807455
 20
56.04944266974924
 30
0.0
  0
LWPOLYLINE
  5
1AA
330
1F
100
AcDbEntity
  8
0
  6
Continuous
 62
     7
370
    25
100
AcDbPolyline
 90
       23
 70
   128
 43
0.0
 10
251.7646802181
 20
22.8372660331
 10
251.9141013328
 20
22.8999422918
 10
252.5034216178
 20
23.0512029495
 10
253.0437896552
 20
23.0323285072
 10
253.5099384096
 20
22.8442017615
 10
253.8800707161
 20
22.4956189408
 10
254.1368806837
 20
22.0028800046
 10
254.2683597533
 20
21.3890247072
 10
254.2683597533
 20
20.6827559662
 10
254.1368806837
 20
19.9170981663
 10
253.8800707161
 20
19.1278527528
 10
253.5099384096
 20
18.3519242673
 10
253.0437896552
 20
17.6255936258
 10
252.5034216178
 20
16.9828235274
 10
251.9141013328
 20
16.4536694672
 10
251.3033849368
 20
16.0628735616
 10
250.6998288952
 20
15.8287097159
 10
250.1316538159
 20
15.762126328
 10
249.6254280185
 20
15.8662372818
 10
249.2048209096
 20
16.1361737741
 10
248.8895018966
 20
16.5593154084
 10
248.6942131569
 20
17.115875458
 10
248.646185506
 20
17.4213639204
  0
LWPOLYLINE
  5
1AB
330
1F
100
AcDbEntity
  8
0
  6
Continuous
 62
     7
370
    25
100
AcDbPolyline
 90
       12
 70
   128
 43
0.0
 10
246.3299870068
 20
19.1064939954
 10
246.396114095
 20
19.8467968942
 10
246.5914028347
 20
20.6288325232
 10
246.9067218477
 20
21.4160337406
 10
247.3273289565
 20
22.171592864
 10
247.833554754
 20
22.8601796827
 10
248.4017298333
 20
23.449597278
 10
249.0052858749
 20
23.912284405
 10
249.6160022709
 20
24.2266066414
 10
250.2053225558
 20
24.3778672991
 10
250.7456905933
 20
24.3589928568
 10
251.1582509469
 20
24.2035052637
  0
ARC
  5
1AC
330
1F
100
AcDbEntity
  8
0
  6
Continuous
 62
     7
370
    25
100
AcDbCircle
 10
248.2970041442
 20
18.8933172685
 30
0.0
 40
1.978534997332688
100
AcDbArc
 50
173.8146743793
 51
234.8730766847
  0
LWPOLYLINE
  5
1AD
330
1F
100
AcDbEntity
  8
0
  6
Continuous
 62
     7
370
    25
100
AcDbPolyline
 90
       18
 70
   128
 43
0.0
 10
250.6079816927
 20
18.7186996605
 10
250.6772184281
 20
19.1863736119
 10
250.8755773023
 20
19.6708242815
 10
251.1762700417
 20
20.106624669
 10
251.5386842066
 20
20.4349163333
 10
251.913875452
 20
20.6113624165
 10
252.2511714123
 20
20.6121326751
 10
252.5050192467
 20
20.4371234928
 10
252.6411344696
 20
20.1099703026
 10
252.6411344696
 20
19.6748572483
 10
252.5050192467
 20
19.1905487669
 10
252.2511714123
 20
18.7224531135
 10
251.913875452
 20
18.3337897457
 10
251.5386842066
 20
18.0770492375
 10
251.1762700417
 20
17.9869064136
 10
250.8755773023
 20
18.0755343539
 10
250.6772184281
 20
18.3309647424
 10
250.6079816927
 20
18.7186996605
  0
SPLINE
  5
1AE
330
1F
100
AcDbEntity
  8
0
  6
Continuous
 62
     7
370
    25
100
AcDbSpline
210
0.0
220
0.0
230
1.0
 70
     8
 71
     3
 72
    10
 73
     6
 74
     0
 42
0.000000001
 43
0.00000001
 40
0.0
 40
0.0
 40
0.0
 40
0.0
 40
0.2693781539236057
 40
0.9660839691629729
 40
1.0
 40
1.0
 40
1.0
 40
1.0
 10
250.7447205572668
 20
18.21375727006402
 30
0.0
 10
250.7250413926309
 20
18.27479175215739
 30
0.0
 10
250.6544650477996
 20
18.49368268246382
 30
0.0
 10
250.5872365516266
 20
18.73963261284526
 30
0.0
 10
250.6101413510468
 20
18.8735861688446
 30
0.0
 10
250.6112046095404
 20
18.87980439645495
 30
0.0
  0
SPLINE
  5
1AF
330
1F
100
AcDbEntity
  8
0
  6
Continuous
 62
     7
370
    25
100
AcDbSpline
210
0.0
220
0.0
230
1.0
 70
     8
 71
     3
 72
    10
 73
     6
 74
     0
 42
0.000000001
 43
0.00000001
 40
0.0
 40
0.0
 40
0.0
 40
0.0
 40
0.4391259271787122
 40
0.7513739080116174
 40
1.0
 40
1.0
 40
1.0
 40
1.0
 10
251.6286038493575
 20
18.13472464363183
 30
0.0
 10
251.4415282320344
 20
18.18098664177919
 30
0.0
 10
251.1214293060045
 20
18.26014402281504
 30
0.0
 10
250.8527352355334
 20
18.26170628899409
 30
0.0
 10
250.7778956800182
 20
18.2284841073267
 30
0.0
 10
250.7447205572668
 20
18.21375727006402
 30
0.0
  0
SPLINE
  5
1B0
330
1F
100
AcDbEntity
  8
0
  6
Continuous
 62
     7
370
    25
100
AcDbSpline
210
0.0
220
0.0
230
1.0
 70
     8
 71
     3
 72
    10
 73
     6
 74
     0
 42
0.000000001
 43
0.00000001
 40
0.0
 40
0.0
 40
0.0
 40
0.0
 40
0.4391253862650267
 40
0.7513738763982162
 40
1.0
 40
1.0
 40
1.0
 40
1.0
 10
252.5124871414482
 20
19.23426719694739
 30
0.0
 10
252.3254118266547
 20
19.11180351643325
 30
0.0
 10
252.0053130374446
 20
18.90225969768812
 30
0.0
 10
251.7366185416954
 20
18.48414759231979
 30
0.0
 10
251.6617789571856
 20
18.24204471046167
 30
0.0
 10
251.6286038493575
 20
18.13472464363182
 30
0.0
  0
SPLINE
  5
1B1
330
1F
100
AcDbEntity
  8
0
  6
Continuous
 62
     7
370
    25
100
AcDbSpline
210
0.0
220
0.0
230
1.0
 70
     8
 71
     3
 72
    11
 73
     7
 74
     0
 42
0.000000001
 43
0.00000001
 40
0.0
 40
0.0
 40
0.0
 40
0.0
 40
0.184242170012749
 40
0.5169671357221616
 40
0.8653134660992956
 40
1.0
 40
1.0
 40
1.0
 40
1.0
 10
252.5124871414482
 20
20.41284237669516
 30
0.0
 10
252.485004658347
 20
20.36036176929821
 30
0.0
 10
252.4078912560765
 20
20.21310585451452
 30
0.0
 10
252.3504356544382
 20
19.88911681903557
 30
0.0
 10
252.4190442826061
 20
19.51640955639724
 30
0.0
 10
252.4921130123334
 20
19.29578505857344
 30
0.0
 10
252.5124871414482
 20
19.2342671969474
 30
0.0
  0
SPLINE
  5
1B2
330
1F
100
AcDbEntity
  8
0
  6
Continuous
 62
     7
370
    25
100
AcDbSpline
210
0.0
220
0.0
230
1.0
 70
     8
 71
     3
 72
    10
 73
     6
 74
     0
 42
0.000000001
 43
0.00000001
 40
0.0
 40
0.0
 40
0.0
 40
0.0
 40
0.439125404033696
 40
0.7513739128717637
 40
1.0
 40
1.0
 40
1.0
 40
1.0
 10
251.6286038493575
 20
20.49187500312735
 30
0.0
 10
251.6946034038382
 20
20.51550832417424
 30
0.0
 10
251.8075332025753
 20
20.55594656970968
 30
0.0
 10
252.168315789842
 20
20.5012237737842
 30
0.0
 10
252.406780033056
 20
20.43998740744322
 30
0.0
 10
252.5124871414482
 20
20.41284237669516
 30
0.0
  0
SPLINE
  5
1B3
330
1F
100
AcDbEntity
  8
0
  6
Continuous
 62
     7
370
    25
100
AcDbSpline
210
0.0
220
0.0
230
1.0
 70
     8
 71
     3
 72
     9
 73
     5
 74
     0
 42
0.000000001
 43
0.00000001
 40
0.0
 40
0.0
 40
0.0
 40
0.0
 40
0.3723144479594982
 40
1.0
 40
1.0
 40
1.0
 40
1.0
 10
250.6706593248101
 20
19.11130379347184
 30
0.0
 10
250.7322414960624
 20
19.2234311941009
 30
0.0
 10
250.8976451530784
 20
19.52459436744423
 30
0.0
 10
251.1828653717556
 20
19.75430465853578
 30
0.0
 10
251.3618939821691
 20
19.89849048940897
 30
0.0
  0
SPLINE
  5
1B4
330
1F
100
AcDbEntity
  8
0
  6
Continuous
 62
     7
370
    25
100
AcDbSpline
210
0.0
220
0.0
230
1.0
 70
     8
 71
     3
 72
     9
 73
     5
 74
     0
 42
0.000000001
 43
0.00000001
 40
0.0
 40
0.0
 40
0.0
 40
0.0
 40
0.4011294918046385
 40
1.0
 40
1.0
 40
1.0
 40
1.0
 10
251.3618939821691
 20
19.89849048940897
 30
0.0
 10
251.3506122982345
 20
19.94649821520237
 30
0.0
 10
251.3224875052063
 20
20.0661795818788
 30
0.0
 10
251.3191227437021
 20
20.17673258739877
 30
0.0
 10
251.3171076872702
 20
20.24293952199703
 30
0.0
  0
LINE
  5
1B5
330
1F
100
AcDbEntity
  8
0
  6
Continuous
 62
     7
370
    25
100
AcDbLine
 10
250.6079915709
 20
18.7239115708
 30
0.0
 11
251.6286038494
 21
18.1347246436
 31
0.0
  0
LINE
  5
1B6
330
1F
100
AcDbEntity
  8
0
  6
Continuous
 62
     7
370
    25
100
AcDbLine
 10
251.3618939822
 20
19.8984904894
 30
0.0
 11
252.5124871414
 21
19.2342671969
 31
0.0
  0
ARC
  5
1B7
330
1F
100
AcDbEntity
  8
0
  6
Continuous
 62
     7
370
    25
100
AcDbCircle
 10
273.8637675481
 20
33.3912782362
 30
0.0
 40
1.909980277609392
100
AcDbArc
 50
65.0465222987
 51
117.6337902993
  0
LWPOLYLINE
  5
1B8
330
1F
100
AcDbEntity
  8
0
  6
Continuous
 62
     7
370
    25
100
AcDbPolyline
 90
       10
 70
   128
 43
0.0
 10
268.0916765424
 20
33.602184079
 10
268.1199261262
 20
33.6621559045
 10
268.540531918
 20
34.4177142677
 10
269.0467577155
 20
35.1063010863
 10
269.6149327948
 20
35.6957186816
 10
270.2184894949
 20
36.1584061888
 10
270.8292058909
 20
36.4727284252
 10
271.4185255173
 20
36.6239887028
 10
271.9588942133
 20
36.6051146406
 10
272.3714552254
 20
36.4496274277
  0
LWPOLYLINE
  5
1B9
330
1F
100
AcDbEntity
  8
0
  6
Continuous
 62
     7
370
    25
100
AcDbPolyline
 90
       13
 70
   128
 43
0.0
 10
271.8848850059
 20
31.4124117575
 10
271.8904220481
 20
31.4324953956
 10
272.0887809223
 20
31.9169460653
 10
272.3894730031
 20
32.3527460726
 10
272.751887168
 20
32.6810377369
 10
273.1270784135
 20
32.8574838201
 10
273.4643743738
 20
32.8582540787
 10
273.7182222082
 20
32.6832448964
 10
273.8543380896
 20
32.3560920864
 10
273.8543380896
 20
31.920979032
 10
273.7182222082
 20
31.4366701705
 10
273.4643743738
 20
30.9685745171
 10
273.202406027
 20
30.651823148
  0
SPLINE
  5
1BA
330
1F
100
AcDbEntity
  8
0
  6
Continuous
 62
     7
370
    25
100
AcDbSpline
210
0.0
220
0.0
230
1.0
 70
     8
 71
     3
 72
     9
 73
     5
 74
     0
 42
0.000000001
 43
0.00000001
 40
0.0
 40
0.0
 40
0.0
 40
0.0
 40
0.6311978020354347
 40
1.0
 40
1.0
 40
1.0
 40
1.0
 10
273.7256901028927
 20
31.48038860056586
 30
0.0
 10
273.5340588097645
 20
31.35922644889819
 30
0.0
 10
273.2304593794273
 20
31.16727053384753
 30
0.0
 10
273.0625067331609
 20
30.87582780167702
 30
0.0
 10
273.0005654280639
 20
30.76834308147174
 30
0.0
  0
SPLINE
  5
1BB
330
1F
100
AcDbEntity
  8
0
  6
Continuous
 62
     7
370
    25
100
AcDbSpline
210
0.0
220
0.0
230
1.0
 70
     8
 71
     3
 72
    11
 73
     7
 74
     0
 42
0.000000001
 43
0.00000001
 40
0.0
 40
0.0
 40
0.0
 40
0.0
 40
0.184242170012749
 40
0.5169671357221616
 40
0.8653134660992956
 40
1.0
 40
1.0
 40
1.0
 40
1.0
 10
273.7256901028927
 20
32.65896378031362
 30
0.0
 10
273.6982076197914
 20
32.60648317291668
 30
0.0
 10
273.6210942175209
 20
32.45922725813298
 30
0.0
 10
273.5636386158826
 20
32.13523822265403
 30
0.0
 10
273.6322472440506
 20
31.7625309600157
 30
0.0
 10
273.7053159737778
 20
31.54190646219189
 30
0.0
 10
273.7256901028927
 20
31.48038860056586
 30
0.0
  0
SPLINE
  5
1BC
330
1F
100
AcDbEntity
  8
0
  6
Continuous
 62
     7
370
    25
100
AcDbSpline
210
0.0
220
0.0
230
1.0
 70
     8
 71
     3
 72
    10
 73
     6
 74
     0
 42
0.000000001
 43
0.00000001
 40
0.0
 40
0.0
 40
0.0
 40
0.0
 40
0.4391259271787122
 40
0.7513739080116174
 40
1.0
 40
1.0
 40
1.0
 40
1.0
 10
272.8418068108019
 20
32.73799640674581
 30
0.0
 10
272.90780660039
 20
32.76162999618052
 30
0.0
 10
273.0207366661443
 20
32.80206865250851
 30
0.0
 10
273.3815189246079
 20
32.74734500697321
 30
0.0
 10
273.6199829779879
 20
32.6861087766271
 30
0.0
 10
273.7256901028927
 20
32.65896378031362
 30
0.0
  0
SPLINE
  5
1BD
330
1F
100
AcDbEntity
  8
0
  6
Continuous
 62
     7
370
    25
100
AcDbSpline
210
0.0
220
0.0
230
1.0
 70
     8
 71
     3
 72
     9
 73
     5
 74
     0
 42
0.000000001
 43
0.00000001
 40
0.0
 40
0.0
 40
0.0
 40
0.0
 40
0.3415403854636713
 40
1.0
 40
1.0
 40
1.0
 40
1.0
 10
271.9091411757379
 20
31.39840889101168
 30
0.0
 10
271.9633925641288
 20
31.49622223548491
 30
0.0
 10
272.1222358245452
 20
31.78261104523117
 30
0.0
 10
272.3952971129233
 20
32.00088639219974
 30
0.0
 10
272.5750969436135
 20
32.14461189302743
 30
0.0
  0
SPLINE
  5
1BE
330
1F
100
AcDbEntity
  8
0
  6
Continuous
 62
     7
370
    25
100
AcDbSpline
210
0.0
220
0.0
230
1.0
 70
     8
 71
     3
 72
     9
 73
     5
 74
     0
 42
0.000000001
 43
0.00000001
 40
0.0
 40
0.0
 40
0.0
 40
0.0
 40
0.4011294918046385
 40
1.0
 40
1.0
 40
1.0
 40
1.0
 10
272.5750969436135
 20
32.14461189302743
 30
0.0
 10
272.5638152596789
 20
32.19261961882084
 30
0.0
 10
272.5356904666506
 20
32.31230098549725
 30
0.0
 10
272.5323257051465
 20
32.42285399101723
 30
0.0
 10
272.5303106487146
 20
32.48906092561549
 30
0.0
  0
LINE
  5
1BF
330
1F
100
AcDbEntity
  8
0
  6
Continuous
 62
     7
370
    25
100
AcDbLine
 10
272.5750969436
 20
32.144611893
 30
0.0
 11
273.7256901029
 21
31.4803886006
 31
0.0
  0
LINE
  5
1C0
330
1F
100
AcDbEntity
  8
0
  6
Continuous
 62
     7
370
    25
100
AcDbLine
 10
274.0465428653
 20
9.957801301
 30
0.0
 11
273.9402198667
 21
10.0227633638
 31
0.0
  0
LWPOLYLINE
  5
1C1
330
1F
100
AcDbEntity
  8
0
  6
Continuous
 62
     7
370
    25
100
AcDbPolyline
 90
       22
 70
   128
 43
0.0
 10
274.8284209059
 20
26.8264711194
 10
274.2937216195
 20
27.0575004881
 10
273.6122176158
 20
27.1737167773
 10
272.8713310075
 20
27.1295480794
 10
272.0884271192
 20
26.926029751
 10
271.2818566848
 20
26.5679318206
 10
270.470525056
 20
26.0636483215
 10
269.6734490841
 20
25.4249985204
 10
268.9093117387
 20
24.6669519327
 10
268.1960235783
 20
23.8072770658
 10
267.550303566
 20
22.866123762
 10
266.9872865366
 20
21.8655517246
 10
266.5201693925
 20
20.8290133416
 10
266.1599010949
 20
19.780804565
 10
265.9149258306
 20
18.7454943029
 10
265.7909857786
 20
17.7473494331
 10
265.7909857786
 20
16.8097656089
 10
265.9149258306
 20
15.9547188773
 10
266.1599010949
 20
15.2022510348
 10
266.5201693925
 20
14.5699991807
 10
266.9872865366
 20
14.0727827724
 10
267.3290306357
 20
13.835738567
  0
LINE
  5
1C2
330
1F
100
AcDbEntity
  8
0
  6
Continuous
 62
     7
370
    25
100
AcDbLine
 10
278.1497921075
 20
20.3104350779
 30
0.0
 11
275.1039295862
 21
16.5214111005
 31
0.0
  0
LINE
  5
1C3
330
1F
100
AcDbEntity
  8
0
  6
Continuous
 62
     7
370
    25
100
AcDbLine
 10
275.1039295862
 20
16.5214111005
 30
0.0
 11
275.1039295862
 21
12.4600411583
 31
0.0
  0
LINE
  5
1C4
330
1F
100
AcDbEntity
  8
0
  6
Continuous
 62
     7
370
    25
100
AcDbLine
 10
278.1497921075
 20
12.1876951934
 30
0.0
 11
275.1039295862
 21
12.4600411583
 31
0.0
  0
LINE
  5
1C5
330
1F
100
AcDbEntity
  8
0
  6
Continuous
 62
     7
370
    25
100
AcDbLine
 10
281.1956546288
 20
15.9767191708
 30
0.0
 11
278.1497921075
 21
12.1876951934
 31
0.0
  0
LINE
  5
1C6
330
1F
100
AcDbEntity
  8
0
  6
Continuous
 62
     7
370
    25
100
AcDbLine
 10
281.1956546288
 20
15.9767191708
 30
0.0
 11
281.1956546288
 21
20.038089113
 31
0.0
  0
LINE
  5
1C7
330
1F
100
AcDbEntity
  8
0
  6
Continuous
 62
     7
370
    25
100
AcDbLine
 10
278.1497921075
 20
20.3104350779
 30
0.0
 11
281.1956546288
 21
20.038089113
 31
0.0
  0
ARC
  5
1C8
330
1F
100
AcDbEntity
  8
0
  6
Continuous
 62
     7
370
    25
100
AcDbCircle
 10
270.9097080204
 20
20.4356673204
 30
0.0
 40
6.776706559957288
100
AcDbArc
 50
320.4788893947
 51
353.6116582221
  0
ARC
  5
1C9
330
1F
100
AcDbEntity
  8
0
  6
Continuous
 62
     7
370
    25
100
AcDbCircle
 10
271.3831472872
 20
19.8965153782
 30
0.0
 40
6.069486423961902
100
AcDbArc
 50
307.8090166298
 51
321.5609398537
  0
LINE
  5
1CA
330
1F
100
AcDbEntity
  8
0
  6
Continuous
 62
     7
370
    25
100
AcDbLine
 10
275.1039289277
 20
13.9460345798
 30
0.0
 11
278.1497921075
 21
12.1876951934
 31
0.0
  0
LINE
  5
1CB
330
1F
100
AcDbEntity
  8
0
  6
Continuous
 62
     7
370
    25
100
AcDbLine
 10
277.6601240946
 20
18.0177375039
 30
0.0
 11
281.1956546288
 21
15.9767191708
 31
0.0
  0
LINE
  5
1CC
330
1F
100
AcDbEntity
  8
0
  6
Continuous
 62
     7
370
    25
100
AcDbLine
 10
277.6601240946
 20
18.0177375039
 30
0.0
 11
277.6601240946
 21
19.7012865408
 31
0.0
  0
LINE
  5
1CD
330
1F
100
AcDbEntity
  8
0
  6
Continuous
 62
     7
370
    25
100
AcDbLine
 10
276.137192834
 20
16.1232255152
 30
0.0
 11
275.1039330024
 21
14.8378600238
 31
0.0
  0
LINE
  5
1CE
330
1F
100
AcDbEntity
  8
0
  6
Continuous
 62
     7
370
    25
100
AcDbLine
 10
277.6601240946
 20
18.0177375039
 30
0.0
 11
276.137192834
 21
16.1232255152
 31
0.0
  0
ARC
  5
1CF
330
1F
100
AcDbEntity
  8
0
  6
Continuous
 62
     7
370
    25
100
AcDbCircle
 10
265.9211474387
 20
38.3451409677
 30
0.0
 40
6.969714669152862
100
AcDbArc
 50
34.8091027508
 51
86.0743647002
  0
ARC
  5
1D0
330
1F
100
AcDbEntity
  8
0
  6
Continuous
 62
     7
370
    25
100
AcDbCircle
 10
252.9016536978
 20
15.7921938565
 30
0.0
 40
6.973049226094412
100
AcDbArc
 50
213.97873128
 51
265.1496595311
  0
ARC
  5
1D1
330
1F
100
AcDbEntity
  8
0
  6
Continuous
 62
     7
370
    25
100
AcDbCircle
 10
227.6097915381
 20
60.3728670825
 30
0.0
 40
7.054662793155951
100
AcDbArc
 50
60.2842916738
 51
86.0608740678
  0
ARC
  5
1D2
330
1F
100
AcDbEntity
  8
0
  6
Continuous
 62
     7
370
    25
100
AcDbCircle
 10
214.6921637736
 20
37.978519315
 30
0.0
 40
7.09266708574645
100
AcDbArc
 50
214.0480398563
 51
239.650155047
  0
SPLINE
  5
1D3
330
1F
100
AcDbEntity
  8
0
  6
Continuous
 62
     7
370
    25
100
AcDbSpline
210
0.0
220
0.0
230
1.0
 70
    11
 71
     3
 72
    66
 73
    62
 74
     0
 42
0.000000001
 43
0.00000001
 40
0.0
 40
0.0
 40
0.0
 40
0.0
 40
0.0312499999999995
 40
0.0312499999999995
 40
0.062499999999999
 40
0.062499999999999
 40
0.1249999999999981
 40
0.1249999999999981
 40
0.1562499999999981
 40
0.1562499999999981
 40
0.1874999999999982
 40
0.1874999999999982
 40
0.2187499999999983
 40
0.2187499999999983
 40
0.2499999999999983
 40
0.2499999999999983
 40
0.2812499999999984
 40
0.2812499999999984
 40
0.3124999999999984
 40
0.3124999999999984
 40
0.3749999999999986
 40
0.3749999999999986
 40
0.4062499999999987
 40
0.4062499999999987
 40
0.4374999999999987
 40
0.4374999999999987
 40
0.4687499999999988
 40
0.4687499999999988
 40
0.4999999999999989
 40
0.4999999999999989
 40
0.531249999999999
 40
0.531249999999999
 40
0.562499999999999
 40
0.562499999999999
 40
0.5937499999999991
 40
0.5937499999999991
 40
0.6249999999999991
 40
0.6249999999999991
 40
0.6562499999999992
 40
0.6562499999999992
 40
0.6874999999999993
 40
0.6874999999999993
 40
0.7187499999999993
 40
0.7187499999999993
 40
0.7499999999999994
 40
0.7499999999999994
 40
0.7812499999999996
 40
0.7812499999999996
 40
0.8124999999999996
 40
0.8124999999999996
 40
0.8437499999999997
 40
0.8437499999999997
 40
0.8749999999999997
 40
0.8749999999999997
 40
0.9062499999999998
 40
0.9062499999999998
 40
0.9374999999999999
 40
0.9374999999999999
 40
0.9687499999999999
 40
0.9687499999999999
 40
1.0
 40
1.0
 40
1.0
 40
1.0
 10
217.1106486658727
 20
51.6337848625125
 30
0.0
 10
217.1733269834748
 20
51.72636946136325
 30
0.0
 10
217.2434863935154
 20
51.81124549024023
 30
0.0
 10
217.3979595476922
 20
51.96637486504653
 30
0.0
 10
217.4829062851318
 20
52.03678827882404
 30
0.0
 10
217.7475960663596
 20
52.21754096924083
 30
0.0
 10
217.94330028679
 20
52.30166029802816
 30
0.0
 10
218.2362287875436
 20
52.36708921558264
 30
0.0
 10
218.3355012376629
 20
52.37921763114695
 30
0.0
 10
218.5288866645468
 20
52.38372752090474
 30
0.0
 10
218.6232967653494
 20
52.37638533652976
 30
0.0
 10
218.8074931064556
 20
52.34303223786427
 30
0.0
 10
218.8973637089939
 20
52.31673879178196
 30
0.0
 10
219.0655250699078
 20
52.24751314170376
 30
0.0
 10
219.144758896425
 20
52.20447846848002
 30
0.0
 10
219.2933358856302
 20
52.10124683010686
 30
0.0
 10
219.3619002522866
 20
52.0413527385597
 30
0.0
 10
219.4838275329446
 20
51.90872865468908
 30
0.0
 10
219.5378594840241
 20
51.83556752528093
 30
0.0
 10
219.6782238518708
 20
51.59422694628188
 30
0.0
 10
219.7385821903233
 20
51.41244220106785
 30
0.0
 10
219.7744693799918
 20
51.11219354216829
 30
0.0
 10
219.7768511349662
 20
51.01047107545868
 30
0.0
 10
219.7627402801383
 20
50.80359780474317
 30
0.0
 10
219.7458879154378
 20
50.69713791058211
 30
0.0
 10
219.6930586151743
 20
50.48708805992827
 30
0.0
 10
219.6575390855525
 20
50.38421623284157
 30
0.0
 10
219.5681840700085
 20
50.18275908978313
 30
0.0
 10
219.5138078225982
 20
50.08380628396553
 30
0.0
 10
219.3916398325146
 20
49.90020480578196
 30
0.0
 10
219.3231792823123
 20
49.81401507206376
 30
0.0
 10
219.1722212211064
 20
49.65450525383909
 30
0.0
 10
219.092081588461
 20
49.58360023577768
 30
0.0
 10
218.9228838000828
 20
49.45846734798608
 30
0.0
 10
218.8330005703176
 20
49.40401766049713
 30
0.0
 10
218.6513108237473
 20
49.31598373903878
 30
0.0
 10
218.5588302251689
 20
49.2817272497347
 30
0.0
 10
218.3703897915215
 20
49.23252993091783
 30
0.0
 10
218.2761493206326
 20
49.21815438405424
 30
0.0
 10
218.0905927567697
 20
49.20922928034936
 30
0.0
 10
217.9980460406963
 20
49.21468370403201
 30
0.0
 10
217.8180485377775
 20
49.2452281034528
 30
0.0
 10
217.7315321099173
 20
49.26998366100625
 30
0.0
 10
217.5651328906269
 20
49.33787791410649
 30
0.0
 10
217.4845333850196
 20
49.38160531774739
 30
0.0
 10
217.3351609357207
 20
49.48520243467311
 30
0.0
 10
217.2661063497728
 20
49.54493877338999
 30
0.0
 10
217.1393651679604
 20
49.68028661576911
 30
0.0
 10
217.0813446232771
 20
49.75669622233166
 30
0.0
 10
216.9817833615918
 20
49.92012712173366
 30
0.0
 10
216.9396413990733
 20
50.00755577087797
 30
0.0
 10
216.871401314504
 20
50.19414103274266
 30
0.0
 10
216.8454476772457
 20
50.29382656768337
 30
0.0
 10
216.813112828093
 20
50.49644185727101
 30
0.0
 10
216.8062440676878
 20
50.60038423849712
 30
0.0
 10
216.812611077384
 20
50.81376793056577
 30
0.0
 10
216.8260692124452
 20
50.92204298798868
 30
0.0
 10
216.8729289294351
 20
51.1336638761197
 30
0.0
 10
216.906577564109
 20
51.23875992706884
 30
0.0
 10
216.9945959642631
 20
51.44356259704898
 30
0.0
 10
217.0479703482706
 20
51.54120026366174
 30
0.0
 10
217.1106486658727
 20
51.6337848625125
 30
0.0
  0
SPLINE
  5
1D4
330
1F
100
AcDbEntity
  8
0
  6
Continuous
 62
     7
370
    25
100
AcDbSpline
210
0.0
220
0.0
230
1.0
 70
     8
 71
     3
 72
    20
 73
    16
 74
     0
 42
0.000000001
 43
0.00000001
 40
0.0
 40
0.0
 40
0.0
 40
0.0
 40
0.0690599182167303
 40
0.1355667845346496
 40
0.2146367772018829
 40
0.2895839933618922
 40
0.3632591369066081
 40
0.4394474551506478
 40
0.5204967578273373
 40
0.6066159180901265
 40
0.696043504602102
 40
0.785932758624358
 40
0.8730563506327779
 40
0.9547515521970596
 40
0.9999999999999999
 40
0.9999999999999999
 40
0.9999999999999999
 40
0.9999999999999999
 10
218.2987252402503
 20
27.76012874943849
 30
0.0
 10
218.156649181304
 20
27.83507493271084
 30
0.0
 10
217.8777494234119
 20
27.98219664008806
 30
0.0
 10
217.4611210023697
 20
28.20082957839297
 30
0.0
 10
217.1047599968641
 20
28.39409145344742
 30
0.0
 10
216.868106620592
 20
28.53446718539876
 30
0.0
 10
216.7840632305325
 20
28.60091448174452
 30
0.0
 10
216.8510651395526
 20
28.58764638939519
 30
0.0
 10
217.0698208453495
 20
28.48520403692725
 30
0.0
 10
217.431999560999
 20
28.28781048205278
 30
0.0
 10
217.9049841509181
 20
28.00719874823211
 30
0.0
 10
218.4326041197269
 20
27.67785934186952
 30
0.0
 10
218.9324962547801
 20
27.36086358369331
 30
0.0
 10
219.3103748087131
 20
27.1241655309978
 30
0.0
 10
219.4534655323643
 20
27.04209337630233
 30
0.0
 10
219.5044695264395
 20
27.01283915502913
 30
0.0
  0
LINE
  5
1D5
330
1F
100
AcDbEntity
  8
0
  6
Continuous
 62
     7
370
    25
100
AcDbLine
 10
237.8488188278
 20
62.575547295
 30
0.0
 11
238.2534252808
 21
62.320882881
 31
0.0
  0
LWPOLYLINE
  5
1D6
330
1F
100
AcDbEntity
  8
0
  6
Continuous
 62
     7
370
    25
100
AcDbPolyline
 90
       14
 70
   128
 43
0.0
 10
239.5169028469
 20
61.6446491571
 10
239.2042450123
 20
61.8180046129
 10
238.7982878845
 20
62.0334753148
 10
238.3289451893
 20
62.2803629524
 10
237.8335715468
 20
62.5461488726
 10
237.371254863
 20
62.806518712
 10
237.0127056958
 20
63.0254868977
 10
236.8164324321
 20
63.1641277105
 10
236.8071416862
 20
63.1949500129
 10
236.9652068561
 20
63.1169915895
 10
237.2457481335
 20
62.9522888871
 10
237.6129966737
 20
62.72434201
 10
237.8488188278
 20
62.575547295
 10
237.8488188278
 20
62.575547295
  0
SPLINE
  5
1D7
330
1F
100
AcDbEntity
  8
0
  6
Continuous
 62
     7
370
    25
100
AcDbSpline
210
0.0
220
0.0
230
1.0
 70
    11
 71
     3
 72
    91
 73
    87
 74
     0
 42
0.000000001
 43
0.00000001
 40
0.0
 40
0.0
 40
0.0
 40
0.0
 40
0.0312500000000015
 40
0.0312500000000015
 40
0.0468750000000023
 40
0.0468750000000023
 40
0.0625000000000031
 40
0.0625000000000031
 40
0.093750000000003
 40
0.093750000000003
 40
0.1250000000000028
 40
0.1250000000000028
 40
0.1562500000000027
 40
0.1562500000000027
 40
0.1718750000000026
 40
0.1718750000000026
 40
0.1875000000000026
 40
0.1875000000000026
 40
0.2187500000000017
 40
0.2187500000000017
 40
0.2500000000000009
 40
0.2500000000000009
 40
0.2656250000000004
 40
0.2656250000000004
 40
0.28125
 40
0.28125
 40
0.3124999999999994
 40
0.3124999999999994
 40
0.3281249999999992
 40
0.3281249999999992
 40
0.343749999999999
 40
0.343749999999999
 40
0.3749999999999985
 40
0.3749999999999985
 40
0.406249999999998
 40
0.406249999999998
 40
0.4374999999999974
 40
0.4374999999999974
 40
0.4687499999999969
 40
0.4687499999999969
 40
0.4843749999999958
 40
0.4843749999999958
 40
0.4999999999999946
 40
0.4999999999999946
 40
0.5312499999999923
 40
0.5312499999999923
 40
0.5468749999999921
 40
0.5468749999999921
 40
0.5624999999999919
 40
0.5624999999999919
 40
0.593749999999993
 40
0.593749999999993
 40
0.624999999999994
 40
0.624999999999994
 40
0.6406249999999939
 40
0.6406249999999939
 40
0.6562499999999938
 40
0.6562499999999938
 40
0.6874999999999937
 40
0.6874999999999937
 40
0.7187499999999934
 40
0.7187499999999934
 40
0.7499999999999933
 40
0.7499999999999933
 40
0.7656249999999932
 40
0.7656249999999932
 40
0.7812499999999931
 40
0.796874999999993
 40
0.796874999999993
 40
0.8124999999999929
 40
0.8124999999999929
 40
0.843749999999992
 40
0.843749999999992
 40
0.8593749999999921
 40
0.8593749999999921
 40
0.8749999999999921
 40
0.8749999999999921
 40
0.9062499999999937
 40
0.9062499999999937
 40
0.9374999999999952
 40
0.9374999999999952
 40
0.9531249999999969
 40
0.9531249999999969
 40
0.9687499999999986
 40
0.9687499999999986
 40
1.0
 40
1.0
 40
1.0
 40
1.0
 10
253.8147991808353
 20
49.29057695620483
 30
0.0
 10
253.9859488621967
 20
49.19177434822754
 30
0.0
 10
254.1386460415293
 20
49.08878882241351
 30
0.0
 10
254.3410265529591
 20
48.92798562765346
 30
0.0
 10
254.4040101475499
 20
48.87331746746919
 30
0.0
 10
254.5208054711516
 20
48.7616786550393
 30
0.0
 10
254.574834673314
 20
48.70441162556646
 30
0.0
 10
254.719839932923
 20
48.53202160538994
 30
0.0
 10
254.7947017975997
 20
48.41579706453523
 30
0.0
 10
254.9008836088061
 20
48.17907915835951
 30
0.0
 10
254.9320332129969
 20
48.05727293427534
 30
0.0
 10
254.9461534025087
 20
47.81649958958914
 30
0.0
 10
254.9299281433659
 20
47.69691369085785
 30
0.0
 10
254.8697124969505
 20
47.51719632077416
 30
0.0
 10
254.8434049161792
 20
47.45687605391093
 30
0.0
 10
254.7792159403108
 20
47.33792305619285
 30
0.0
 10
254.7414555893548
 20
47.2793394629995
 30
0.0
 10
254.6115010778171
 20
47.10590528944351
 30
0.0
 10
254.5028092247505
 20
46.99333253646812
 30
0.0
 10
254.2389556779924
 20
46.77336105863065
 30
0.0
 10
254.0875598009723
 20
46.66924670980185
 30
0.0
 10
253.8345545313237
 20
46.52288430495283
 30
0.0
 10
253.7457532199831
 20
46.47565610976235
 30
0.0
 10
253.5589999507569
 20
46.38442045597767
 30
0.0
 10
253.460847513683
 20
46.3403804466048
 30
0.0
 10
253.1595469942933
 20
46.21634011079745
 30
0.0
 10
252.9474752634104
 20
46.14319221813309
 30
0.0
 10
252.612698558514
 20
46.04848610563132
 30
0.0
 10
252.4976681335289
 20
46.01931868967575
 30
0.0
 10
252.2663566848006
 20
45.96740177375085
 30
0.0
 10
252.1498242523624
 20
45.94454208990753
 30
0.0
 10
251.7976453388775
 20
45.88529954928162
 30
0.0
 10
251.5583204413851
 20
45.85809435282065
 30
0.0
 10
251.0772664152035
 20
45.8312427364574
 30
0.0
 10
250.8408913214826
 20
45.83177798075693
 30
0.0
 10
250.3758361895867
 20
45.86125025726419
 30
0.0
 10
250.1449884820072
 20
45.89077216790109
 30
0.0
 10
249.7067884908288
 20
45.97802686914417
 30
0.0
 10
249.4983104151419
 20
46.03550974927169
 30
0.0
 10
249.201326201516
 20
46.14311529546328
 30
0.0
 10
249.1044931203563
 20
46.18280318429567
 30
0.0
 10
248.9191068819422
 20
46.26834550564997
 30
0.0
 10
248.8305580250419
 20
46.31413095262329
 30
0.0
 10
248.5770157800393
 20
46.46032602759922
 30
0.0
 10
248.4240114396112
 20
46.56951366798459
 30
0.0
 10
248.2193307608681
 20
46.75118078744463
 30
0.0
 10
248.1555025639288
 20
46.8146107622179
 30
0.0
 10
248.0388865539665
 20
46.94471688774751
 30
0.0
 10
247.9857372057186
 20
47.01170047601339
 30
0.0
 10
247.8416405316324
 20
47.21818231559703
 30
0.0
 10
247.7656743386858
 20
47.3637903119358
 30
0.0
 10
247.6581855242511
 20
47.66656799574853
 30
0.0
 10
247.6278277282877
 20
47.81990761564801
 30
0.0
 10
247.6168487846864
 20
48.05146075976894
 30
0.0
 10
247.6189891622626
 20
48.1289046828869
 30
0.0
 10
247.6352941524827
 20
48.28409411961434
 30
0.0
 10
247.649588229598
 20
48.36206779514179
 30
0.0
 10
247.7098995206815
 20
48.59075347275979
 30
0.0
 10
247.7731961613889
 20
48.73796356186937
 30
0.0
 10
247.9464018388764
 20
49.02017588541305
 30
0.0
 10
248.0577252671963
 20
49.15587538926243
 30
0.0
 10
248.3184405013852
 20
49.40083317094378
 30
0.0
 10
248.468484935658
 20
49.51179393679546
 30
0.0
 10
248.7241120566254
 20
49.66004064727389
 30
0.0
 10
248.8140483877239
 20
49.70609853001276
 30
0.0
 10
248.9999721812812
 20
49.79003252280489
 30
0.0
 10
249.1928389945245
 20
49.86631873513905
 30
0.0
 10
249.399408344054
 20
49.9276682744195
 30
0.0
 10
249.6129503916172
 20
49.98154828311117
 30
0.0
 10
249.723571458789
 20
50.00476716248671
 30
0.0
 10
250.0585147673234
 20
50.06188412518533
 30
0.0
 10
250.2881042826146
 20
50.0840258066346
 30
0.0
 10
250.6418415197796
 20
50.09512125865356
 30
0.0
 10
250.7619898129221
 20
50.09507362653233
 30
0.0
 10
251.0014928544112
 20
50.08773459275844
 30
0.0
 10
251.1208818503433
 20
50.08049722524918
 30
0.0
 10
251.4780378901805
 20
50.04881667112268
 30
0.0
 10
251.7150142497403
 20
50.01445397183141
 30
0.0
 10
252.185598092186
 20
49.92099100987136
 30
0.0
 10
252.4122191816527
 20
49.86332087235984
 30
0.0
 10
252.7399586554622
 20
49.76248425573938
 30
0.0
 10
252.8471572386602
 20
49.72645980353289
 30
0.0
 10
253.0574110882026
 20
49.64966851174374
 30
0.0
 10
253.1606363316853
 20
49.6087989816721
 30
0.0
 10
253.4586062293802
 20
49.48135887630679
 30
0.0
 10
253.6436494994739
 20
49.38937956418211
 30
0.0
 10
253.8147991808353
 20
49.29057695620483
 30
0.0
  0
LWPOLYLINE
  5
1D8
330
1F
100
AcDbEntity
  8
0
  6
Continuous
 62
     7
370
    25
100
AcDbPolyline
 90
       22
 70
   128
 43
0.0
 10
252.1536468976
 20
23.6288759696
 10
252.3386840749
 20
24.8240421061
 10
252.6486840239
 20
26.0811690145
 10
253.0755334762
 20
27.3511225227
 10
253.6122242011
 20
28.6130512057
 10
254.2499438854
 20
29.8462338471
 10
254.9782206835
 20
31.0304216333
 10
255.7850967443
 20
32.1461698899
 10
256.6573228108
 20
33.1751584079
 10
257.580576857
 20
34.1004910457
 10
258.5396996
 20
34.9069738939
 10
259.5189419067
 20
35.581364565
 10
260.5022247955
 20
36.1125899706
 10
261.4734026896
 20
36.4919264307
 10
262.4165288103
 20
36.7131467992
 10
263.3161172364
 20
36.7726169937
 10
264.1573966501
 20
36.6693611104
 10
264.9265532571
 20
36.4050746617
 10
265.6109578201
 20
35.9840978438
 10
266.1993719478
 20
35.4133422277
 10
266.6821338044
 20
34.702179714
 10
266.879351421
 20
34.3020447989
  0
ARC
  5
1D9
330
1F
100
AcDbEntity
  8
0
  6
Continuous
 62
     7
370
    25
100
AcDbCircle
 10
256.3235874984
 20
20.9042963107
 30
0.0
 40
3.962512061503221
100
AcDbArc
 50
222.9784608651
 51
278.0744963249
  0
LINE
  5
1DA
330
1F
100
AcDbEntity
  8
0
  6
Continuous
 62
     7
370
    25
100
AcDbLine
 10
263.9578128832
 20
12.895228083
 30
0.0
 11
263.8027272979
 21
12.9904908024
 31
0.0
  0
ARC
  5
1DB
330
1F
100
AcDbEntity
  8
0
  6
Continuous
 62
     7
370
    25
100
AcDbCircle
 10
257.6417424274
 20
20.9792544546
 30
0.0
 40
3.844255115327647
100
AcDbArc
 50
200.8997354189
 51
238.7824012387
  0
LWPOLYLINE
  5
1DC
330
1F
100
AcDbEntity
  8
0
  6
Continuous
 62
     7
370
    25
100
AcDbPolyline
 90
       19
 70
   128
 43
0.0
 10
253.5916025384
 20
22.7874059153
 10
253.6077981235
 20
23.0383349062
 10
253.7584777167
 20
24.2082564709
 10
254.0334839276
 20
25.4168605752
 10
254.4278552818
 20
26.6423401279
 10
254.934476206
 20
27.862583437
 10
255.5442041267
 20
29.0555719672
 10
256.2460387165
 20
30.1997814685
 10
257.0273161644
 20
31.2745654208
 10
257.8739390082
 20
32.2605314421
 10
258.7706319788
 20
33.139889366
 10
259.7012152961
 20
33.8967725119
 10
260.6488980509
 20
34.5175241614
 10
261.5965808056
 20
34.9909437304
 10
262.527164123
 20
35.3084892129
 10
263.4238570936
 20
35.4644309558
 10
264.2704799374
 20
35.4559548636
 10
265.0517573853
 20
35.2832146521
 10
265.6484915643
 20
35.0126045933
  0
LWPOLYLINE
  5
1DD
330
1F
100
AcDbEntity
  8
0
  6
Continuous
 62
     7
370
    25
100
AcDbPolyline
 90
       17
 70
   128
 43
0.0
 10
266.3823439295
 20
24.0634937758
 10
266.3150624128
 20
24.4152487772
 10
266.1234605345
 20
24.6357707659
 10
265.8367081945
 20
24.6914869406
 10
265.4984606374
 20
24.5739149945
 10
265.1602130803
 20
24.3009546239
 10
264.8734604111
 20
23.9141610545
 10
264.6818585328
 20
23.472420246
 10
264.6145770161
 20
23.0429836588
 10
264.6818585328
 20
22.6912286573
 10
264.8734604111
 20
22.4707070489
 10
265.1602130803
 20
22.4149910643
 10
265.4984606374
 20
22.5325630104
 10
265.8367081945
 20
22.805523381
 10
266.1234605345
 20
23.1923167603
 10
266.3150624128
 20
23.6340571886
 10
266.3823439295
 20
24.0634937758
  0
ARC
  5
1DE
330
1F
100
AcDbEntity
  8
0
  6
Continuous
 62
     7
370
    25
100
AcDbCircle
 10
268.23148959
 20
21.9142893268
 30
0.0
 40
15.79220561095143
100
AcDbArc
 50
122.5692405987
 51
169.410191744
  0
LWPOLYLINE
  5
1DF
330
1F
100
AcDbEntity
  8
0
  6
Continuous
 62
     7
370
    25
100
AcDbPolyline
 90
       18
 70
   128
 43
0.0
 10
253.2678179358
 20
22.9856786615
 10
253.3215584603
 20
23.6945971357
 10
253.5066068329
 20
24.8527307246
 10
253.8113509382
 20
26.0421010727
 10
254.2303505399
 20
27.2414826501
 10
254.7561301702
 20
28.4294735006
 10
255.3793062283
 20
29.5848733697
 10
256.0887588609
 20
30.6870642999
 10
256.8718275499
 20
31.7163769661
 10
257.7145383101
 20
32.6544446487
 10
258.601853113
 20
33.484526693
 10
259.5179377498
 20
34.1918099121
 10
260.4464446763
 20
34.7636730116
 10
261.3708046657
 20
35.1899119916
 10
262.2745225775
 20
35.4629192556
 10
263.1414712329
 20
35.5778236035
 10
263.9561803513
 20
35.5325749006
 10
264.1103038031
 20
35.5045824386
  0
LWPOLYLINE
  5
1E0
330
1F
100
AcDbEntity
  8
0
  6
Continuous
 62
     7
370
    25
100
AcDbPolyline
 90
        3
 70
   128
 43
0.0
 10
254.4540436213
 20
18.7776362982
 10
254.2303505399
 20
19.0561627534
 10
253.9908912445
 20
19.4256116312
  0
ARC
  5
1E1
330
1F
100
AcDbEntity
  8
0
  6
Continuous
 62
     7
370
    25
100
AcDbCircle
 10
262.9473123295
 20
31.6698045478
 30
0.0
 40
4.0845161948164
100
AcDbArc
 50
66.1185152111
 51
105.2945562305
  0
ARC
  5
1E2
330
1F
100
AcDbEntity
  8
0
  6
Continuous
 62
     7
370
    25
100
AcDbCircle
 10
256.8042965781
 20
21.3221114741
 30
0.0
 40
3.549126634048632
100
AcDbArc
 50
215.8062121449
 51
235.3411848348
  0
ARC
  5
1E3
330
1F
100
AcDbEntity
  8
0
  6
Continuous
 62
     7
370
    25
100
AcDbCircle
 10
263.2169859777
 20
31.1910552006
 30
0.0
 40
4.41063701018826
100
AcDbArc
 50
75.5957203884
 51
104.3663991275
  0
LWPOLYLINE
  5
1E4
330
1F
100
AcDbEntity
  8
0
  6
Continuous
 62
     7
370
    25
100
AcDbPolyline
 90
        3
 70
   128
 43
0.0
 10
254.5919737928
 20
18.6218520014
 10
254.1816682957
 20
19.0957007083
 10
253.9814602286
 20
19.3983848659
  0
LWPOLYLINE
  5
1E5
330
1F
100
AcDbEntity
  8
0
  6
Continuous
 62
     7
370
    25
100
AcDbPolyline
 90
       17
 70
   128
 43
0.0
 10
217.8004250259
 20
49.6465256646
 10
218.1862478139
 20
49.5336629834
 10
218.6084815277
 20
49.602788045
 10
219.0028489307
 20
49.8433773041
 10
219.3093078859
 20
50.218803225
 10
219.481203149
 20
50.6719111117
 10
219.4923654784
 20
51.133719951
 10
219.3410971464
 20
51.5339206964
 10
219.0504254787
 20
51.8115899519
 10
218.6646033493
 20
51.9244522528
 10
218.2423663427
 20
51.8553290922
 10
217.8479995983
 20
51.6147394528
 10
217.5415399846
 20
51.2393139122
 10
217.36964538
 20
50.7862056452
 10
217.3584823921
 20
50.3243971862
 10
217.5097540168
 20
49.9241945398
 10
217.8004250259
 20
49.6465256646
  0
LWPOLYLINE
  5
1E6
330
1F
100
AcDbEntity
  8
0
  6
Continuous
 62
     7
370
    25
100
AcDbPolyline
 90
       19
 70
   128
 43
0.0
 10
206.8360323628
 20
41.2935613883
 10
206.8992697577
 20
42.8630060889
 10
207.0884050575
 20
44.4912474726
 10
207.4017286806
 20
46.1635419404
 10
207.8364009831
 20
47.8647437143
 10
208.388486503
 20
49.5794467559
 10
209.0529842533
 20
51.292122502
 10
209.82387843
 20
52.9872607355
 10
210.6941864856
 20
54.6495102672
 10
211.6560269594
 20
56.2638177132
 10
212.7006892833
 20
57.8155620905
 10
213.8187121484
 20
59.2906920735
 10
214.9999724083
 20
60.6758480394
 10
216.2337703612
 20
61.9584865865
 10
217.5089337996
 20
63.1269915518
 10
218.8139141577
 20
64.1707797063
 10
220.1368934016
 20
65.0804004845
 10
221.4658904663
 20
65.8476141594
 10
222.6117166277
 20
66.391282216
  0
LINE
  5
1E7
330
1F
100
AcDbEntity
  8
0
  6
Continuous
 62
     7
370
    25
100
AcDbLine
 10
219.0637419072
 20
65.3649519045
 30
0.0
 11
219.2242094475
 21
65.2767801867
 31
0.0
  0
LINE
  5
1E8
330
1F
100
AcDbEntity
  8
0
  6
Continuous
 62
     7
370
    25
100
AcDbLine
 10
206.2252665759
 20
42.7595096687
 30
0.0
 11
206.0742623202
 21
42.8508303359
 31
0.0
  0
LWPOLYLINE
  5
1E9
330
1F
100
AcDbEntity
  8
0
  6
Continuous
 62
     7
370
    25
100
AcDbPolyline
 90
       14
 70
   128
 43
0.0
 10
201.9848148539
 20
52.1379847979
 10
202.3308194067
 20
53.3985697648
 10
202.8620857006
 20
54.9436565539
 10
203.5074698551
 20
56.4800857917
 10
204.2592273869
 20
57.9894185006
 10
205.1083362363
 20
59.4535416815
 10
206.044606744
 20
60.854883894
 10
207.0568024943
 20
62.1766283658
 10
208.1327756462
 20
63.4029112696
 10
209.2596141172
 20
64.5190184799
 10
210.4237945314
 20
65.5115537156
 10
211.6113455378
 20
66.368606587
 10
212.8080153276
 20
67.0798903667
 10
213.3181156717
 20
67.3369745878
  0
SPLINE
  5
1EA
330
1F
100
AcDbEntity
  8
0
  6
Continuous
 62
     7
370
    25
100
AcDbSpline
210
0.0
220
0.0
230
1.0
 70
     8
 71
     3
 72
    10
 73
     6
 74
     0
 42
0.000000001
 43
0.00000001
 40
0.0
 40
0.0
 40
0.0
 40
0.0
 40
0.5
 40
0.5
 40
1.0
 40
1.0
 40
1.0
 40
1.0
 10
201.9200483708686
 20
51.86336801495148
 30
0.0
 10
201.863519685086
 20
51.83073469926885
 30
0.0
 10
201.7848763625113
 20
51.81036172380988
 30
0.0
 10
201.6246464481802
 20
51.80730032384853
 30
0.0
 10
201.5434794356395
 20
51.82495952372877
 30
0.0
 10
201.4863655353016
 20
51.85793067658309
 30
0.0
  0
SPLINE
  5
1EB
330
1F
100
AcDbEntity
  8
0
  6
Continuous
 62
     7
370
    25
100
AcDbSpline
210
0.0
220
0.0
230
1.0
 70
     8
 71
     3
 72
    12
 73
     8
 74
     0
 42
0.000000001
 43
0.00000001
 40
0.0
 40
0.0
 40
0.0
 40
0.0
 40
0.2500000000000033
 40
0.2500000000000033
 40
0.5000000000000067
 40
0.5000000000000067
 40
1.0
 40
1.0
 40
1.0
 40
1.0
 10
219.1770874416464
 20
68.3818925548382
 30
0.0
 10
219.2089917699911
 20
68.36347457812244
 30
0.0
 10
219.241129106432
 20
68.33356003749037
 30
0.0
 10
219.2957874128582
 20
68.26316261754748
 30
0.0
 10
219.3187607521886
 20
68.22278192087164
 30
0.0
 10
219.3724425411263
 20
68.10025809083625
 30
0.0
 10
219.3892194760024
 20
68.01545676923057
 30
0.0
 10
219.3892194760024
 20
67.94190417359697
 30
0.0
  0
LINE
  5
1EC
330
1F
100
AcDbEntity
  8
0
  6
Continuous
 62
     7
370
    25
100
AcDbLine
 10
201.4863658085
 20
51.8579303866
 30
0.0
 11
200.0869771683
 21
52.665780253
 31
0.0
  0
LWPOLYLINE
  5
1ED
330
1F
100
AcDbEntity
  8
0
  6
Continuous
 62
     7
370
    25
100
AcDbPolyline
 90
       19
 70
   128
 43
0.0
 10
200.0869771683
 20
52.665780253
 10
200.4966577067
 20
54.2217097238
 10
201.0282519557
 20
55.7886962925
 10
201.675445132
 20
57.3481263211
 10
202.4305487285
 20
58.8814752749
 10
203.2845940274
 20
60.370529008
 10
204.2274348337
 20
61.7975982043
 10
205.2478719393
 20
63.1457316761
 10
206.3337831863
 20
64.398914642
 10
207.4722690048
 20
65.5422607303
 10
208.6498056895
 20
66.5621886773
 10
209.8524053433
 20
67.4465808213
 10
211.0657822427
 20
68.1849346567
 10
212.2755227416
 20
68.7684768873
 10
213.4672564933
 20
69.1902767194
 10
214.6268269313
 20
69.4453229853
 10
215.7404596094
 20
69.5305863428
 10
216.7949256854
 20
69.4450543362
 10
217.7776993135
 20
69.1897424081
  0
LINE
  5
1EE
330
1F
100
AcDbEntity
  8
0
  6
Continuous
 62
     7
370
    25
100
AcDbLine
 10
217.7776993135
 20
69.1897424081
 30
0.0
 11
219.1770879537
 21
68.3818925416
 31
0.0
  0
LINE
  5
1EF
330
1F
100
AcDbEntity
  8
0
  6
Continuous
 62
     7
370
    25
100
AcDbLine
 10
203.0373751021
 20
51.1449226394
 30
0.0
 11
203.0373751021
 21
52.5083869756
 31
0.0
  0
LINE
  5
1F0
330
1F
100
AcDbEntity
  8
0
  6
Continuous
 62
     7
370
    25
100
AcDbLine
 10
203.0373751021
 20
52.5083869756
 30
0.0
 11
201.9200483186
 21
51.8633679531
 31
0.0
  0
LINE
  5
1F1
330
1F
100
AcDbEntity
  8
0
  6
Continuous
 62
     7
370
    25
100
AcDbLine
 10
219.3892196277
 20
67.941904055
 30
0.0
 11
219.3892196277
 21
66.3778402546
 31
0.0
  0
LINE
  5
1F2
330
1F
100
AcDbEntity
  8
0
  6
Continuous
 62
     7
370
    25
100
AcDbLine
 10
220.7436652395
 20
67.1597450629
 30
0.0
 11
219.3892196277
 21
66.3778402546
 31
0.0
  0
SPLINE
  5
1F3
330
1F
100
AcDbEntity
  8
0
  6
Continuous
 62
     7
370
    25
100
AcDbSpline
210
0.0
220
0.0
230
1.0
 70
     8
 71
     3
 72
    20
 73
    16
 74
     0
 42
0.000000001
 43
0.00000001
 40
0.0
 40
0.0
 40
0.0
 40
0.0
 40
0.2499999999999999
 40
0.2499999999999999
 40
0.3749999999999999
 40
0.3749999999999999
 40
0.4374999999999999
 40
0.4374999999999999
 40
0.4687499999999999
 40
0.4687499999999999
 40
0.4999999999999999
 40
0.4999999999999999
 40
0.7499999999999999
 40
0.7499999999999999
 40
1.0
 40
1.0
 40
1.0
 40
1.0
 10
203.0373751610635
 20
46.52298420396379
 30
0.0
 10
203.0373751610635
 20
46.91536638048435
 30
0.0
 10
203.0578209403735
 20
47.2955430149504
 30
0.0
 10
203.0849945160929
 20
47.86789443676861
 30
0.0
 10
203.0935748958869
 20
48.05896328513621
 30
0.0
 10
203.1024312736307
 20
48.34796291479793
 30
0.0
 10
203.1047230805532
 20
48.44469031612708
 30
0.0
 10
203.1069173142407
 20
48.59052373793556
 30
0.0
 10
203.1074430560693
 20
48.63925765725377
 30
0.0
 10
203.1080627885677
 20
48.73698323891106
 30
0.0
 10
203.1081518966159
 20
48.78622829192145
 30
0.0
 10
203.1071132906989
 20
49.21289098380414
 30
0.0
 10
203.091600050427
 20
49.60014733018681
 30
0.0
 10
203.0564625715046
 20
50.37682959288838
 30
0.0
 10
203.0373751610635
 20
50.76598344950613
 30
0.0
 10
203.0373751610635
 20
51.14492257169439
 30
0.0
  0
LWPOLYLINE
  5
1F4
330
1F
100
AcDbEntity
  8
0
  6
Continuous
 62
     7
370
    25
100
AcDbPolyline
 90
       18
 70
   128
 43
0.0
 10
199.1631946401
 20
54.2967620456
 10
199.5784583188
 20
55.7649601911
 10
200.109714076
 20
57.2390125227
 10
200.750340905
 20
58.700548019
 10
201.4923546123
 20
60.1313501604
 10
202.3265065987
 20
61.5135873401
 10
203.2424004223
 20
62.8300318666
 10
204.2286221894
 20
64.0642770636
 10
205.2728798378
 20
65.2009401102
 10
206.3621578935
 20
66.2258532833
 10
207.482880791
 20
67.1262441713
 10
208.6210807395
 20
67.8908896169
 10
209.7625717229
 20
68.5102610324
 10
210.8931271838
 20
68.9766376203
 10
211.9986564717
 20
69.2842074749
 10
213.0653813537
 20
69.4291375402
 10
214.0800064748
 20
69.4096210631
 10
214.2782606404
 20
69.3855935061
  0
SPLINE
  5
1F5
330
1F
100
AcDbEntity
  8
0
  6
Continuous
 62
     7
370
    25
100
AcDbSpline
210
0.0
220
0.0
230
1.0
 70
     8
 71
     3
 72
     8
 73
     4
 74
     0
 42
0.000000001
 43
0.00000001
 40
0.0
 40
0.0
 40
0.0
 40
0.0
 40
1.0
 40
1.0
 40
1.0
 40
1.0
 10
199.1631946799106
 20
54.29676224642975
 30
0.0
 10
198.6718936508581
 20
54.21411502622586
 30
0.0
 10
198.1803135599554
 20
54.13203123873542
 30
0.0
 10
197.6885187612035
 20
54.05038095165368
 30
0.0
  0
LWPOLYLINE
  5
1F6
330
1F
100
AcDbEntity
  8
0
  6
Continuous
 62
     7
370
    25
100
AcDbPolyline
 90
       19
 70
   128
 43
0.0
 10
197.6885188868
 20
54.0503807469
 10
198.0981994252
 20
55.6063102177
 10
198.6297936742
 20
57.1732967864
 10
199.2769868505
 20
58.732726815
 10
200.032090447
 20
60.2660757687
 10
200.886135746
 20
61.7551295018
 10
201.8289765522
 20
63.1821986982
 10
202.8494136579
 20
64.53033217
 10
203.9353249048
 20
65.7835151358
 10
205.0738107233
 20
66.9268612241
 10
206.251347408
 20
67.9467891711
 10
207.4539470618
 20
68.8311813152
 10
208.6673239612
 20
69.5695351505
 10
209.8770644601
 20
70.1530773811
 10
211.0687982119
 20
70.5748772132
 10
212.2283686499
 20
70.8299234791
 10
213.3420013279
 20
70.9151868367
 10
214.3964674039
 20
70.82965483
 10
215.379241032
 20
70.5743429019
  0
LINE
  5
1F7
330
1F
100
AcDbEntity
  8
0
  6
Continuous
 62
     7
370
    25
100
AcDbLine
 10
215.379241032
 20
70.5743429019
 30
0.0
 11
215.7219792041
 21
69.4670004069
 31
0.0
  0
LINE
  5
1F8
330
1F
100
AcDbEntity
  8
0
  6
Continuous
 62
     7
370
    25
100
AcDbLine
 10
211.9645985254
 20
72.5455740622
 30
0.0
 11
215.379241032
 21
70.5743429019
 31
0.0
  0
LINE
  5
1F9
330
1F
100
AcDbEntity
  8
0
  6
Continuous
 62
     7
370
    25
100
AcDbLine
 10
197.6885188868
 20
54.0503807469
 30
0.0
 11
197.1023036392
 21
54.3887956059
 31
0.0
  0
SPLINE
  5
1FA
330
1F
100
AcDbEntity
  8
0
  6
Continuous
 62
     7
370
    25
100
AcDbSpline
210
0.0
220
0.0
230
1.0
 70
     8
 71
     3
 72
    28
 73
    24
 74
     0
 42
0.000000001
 43
0.00000001
 40
0.0
 40
0.0
 40
0.0
 40
0.0
 40
0.1250000000000001
 40
0.1250000000000001
 40
0.1875000000000001
 40
0.1875000000000001
 40
0.2500000000000001
 40
0.2500000000000001
 40
0.3749999999999999
 40
0.3749999999999999
 40
0.4375
 40
0.4375
 40
0.4999999999999999
 40
0.4999999999999999
 40
0.6249999999999999
 40
0.6249999999999999
 40
0.7499999999999997
 40
0.7499999999999997
 40
0.8124999999999998
 40
0.8124999999999998
 40
0.8749999999999998
 40
0.8749999999999998
 40
1.0
 40
1.0
 40
1.0
 40
1.0
 10
197.102303491945
 20
54.38879582323349
 30
0.0
 10
196.9143164114787
 20
54.49731845481757
 30
0.0
 10
196.724096456878
 20
54.57926217536548
 30
0.0
 10
196.43599785493
 20
54.66441990540394
 30
0.0
 10
196.3395079843304
 20
54.68646983580774
 30
0.0
 10
196.1457698114955
 20
54.7177436592667
 30
0.0
 10
196.0485187909642
 20
54.72687091059013
 30
0.0
 10
195.7624969160788
 20
54.73465375269853
 30
0.0
 10
195.5771550997222
 20
54.71434720906147
 30
0.0
 10
195.3086425129064
 20
54.64712655592833
 30
0.0
 10
195.2202818532406
 20
54.61834019832273
 30
0.0
 10
195.049929142951
 20
54.54932830822759
 30
0.0
 10
194.9679021131695
 20
54.50918841831746
 30
0.0
 10
194.7314658594169
 20
54.37256865055424
 30
0.0
 10
194.5865986092946
 20
54.26005416086517
 30
0.0
 10
194.3257418158105
 20
53.99179719586571
 30
0.0
 10
194.2134494083081
 20
53.83964380948843
 30
0.0
 10
194.0742249268543
 20
53.58772742179012
 30
0.0
 10
194.0326291404885
 20
53.49968513611374
 30
0.0
 10
193.9595044254273
 20
53.31534408106192
 30
0.0
 10
193.9278799413743
 20
53.21855531838014
 30
0.0
 10
193.8503866379521
 20
52.92054023948332
 30
0.0
 10
193.8212119225623
 20
52.7110673623468
 30
0.0
 10
193.8152450398206
 20
52.49068656966293
 30
0.0
  0
ARC
  5
1FB
330
1F
100
AcDbEntity
  8
0
  6
Continuous
 62
     7
370
    25
100
AcDbCircle
 10
208.6597948776
 20
52.0824161005
 30
0.0
 40
14.85016324623446
100
AcDbArc
 50
178.4245883564
 51
181.5754116436
  0
SPLINE
  5
1FC
330
1F
100
AcDbEntity
  8
0
  6
Continuous
 62
     7
370
    25
100
AcDbSpline
210
0.0
220
0.0
230
1.0
 70
     8
 71
     3
 72
    30
 73
    26
 74
     0
 42
0.000000001
 43
0.00000001
 40
0.0
 40
0.0
 40
0.0
 40
0.0
 40
0.1250000000000003
 40
0.1250000000000003
 40
0.1875000000000005
 40
0.1875000000000005
 40
0.2500000000000007
 40
0.2500000000000007
 40
0.3750000000000011
 40
0.3750000000000011
 40
0.4375000000000012
 40
0.4375000000000012
 40
0.5000000000000012
 40
0.5000000000000012
 40
0.6250000000000014
 40
0.6250000000000014
 40
0.6875000000000012
 40
0.6875000000000012
 40
0.7500000000000011
 40
0.7500000000000011
 40
0.8125000000000009
 40
0.8125000000000009
 40
0.8750000000000008
 40
0.8750000000000008
 40
1.0
 40
1.0
 40
1.0
 40
1.0
 10
193.8152450398206
 20
51.67414575777718
 30
0.0
 10
193.821212638512
 20
51.46062856500247
 30
0.0
 10
193.8503578585114
 20
51.24307866698334
 30
0.0
 10
193.9267925197703
 20
50.91077963744775
 30
0.0
 10
193.9577585033477
 20
50.79900533614818
 30
0.0
 10
194.0307284441633
 20
50.57330346261318
 30
0.0
 10
194.072864642722
 20
50.45921569004066
 30
0.0
 10
194.2127564320864
 20
50.12105296267948
 30
0.0
 10
194.3246003566286
 20
49.8985427434067
 30
0.0
 10
194.5183869537732
 20
49.56793248745714
 30
0.0
 10
194.5877275913764
 20
49.45770584775099
 30
0.0
 10
194.7332199758231
 20
49.24097584729746
 30
0.0
 10
194.8091072665422
 20
49.13477891166673
 30
0.0
 10
195.0454952150136
 20
48.82214073841712
 30
0.0
 10
195.2146407172645
 20
48.62159819058196
 30
0.0
 10
195.4845067145986
 20
48.33149335115962
 30
0.0
 10
195.5766982206494
 20
48.23714993478717
 30
0.0
 10
195.7622968156841
 20
48.05584490672678
 30
0.0
 10
195.8561256959709
 20
47.96842557323262
 30
0.0
 10
196.0455757464363
 20
47.79981802290797
 30
0.0
 10
196.141197161642
 20
47.71862983713863
 30
0.0
 10
196.3340588510684
 20
47.56246715759049
 30
0.0
 10
196.4317937599668
 20
47.48714017789378
 30
0.0
 10
196.7230497150871
 20
47.27384994444994
 30
0.0
 10
196.9143071060603
 20
47.14845651974952
 30
0.0
 10
197.102303491945
 20
47.03992851626175
 30
0.0
  0
LINE
  5
1FD
330
1F
100
AcDbEntity
  8
0
  6
Continuous
 62
     7
370
    25
100
AcDbLine
 10
197.1023036392
 20
47.0399286153
 30
0.0
 11
197.6885188868
 21
46.7015137562
 31
0.0
  0
ARC
  5
1FE
330
1F
100
AcDbEntity
  8
0
  6
Continuous
 62
     7
370
    25
100
AcDbCircle
 10
203.5397097765
 20
48.1210378221
 30
0.0
 40
6.020920477864439
100
AcDbArc
 50
193.6367383156
 51
252.9854397177
  0
LINE
  5
1FF
330
1F
100
AcDbEntity
  8
0
  6
Continuous
 62
     7
370
    25
100
AcDbLine
 10
217.0086586104
 20
69.6333943694
 30
0.0
 11
217.3429707055
 21
69.326065649
 31
0.0
  0
LINE
  5
200
330
1F
100
AcDbEntity
  8
0
  6
Continuous
 62
     7
370
    25
100
AcDbLine
 10
216.1557298736
 20
70.1257796485
 30
0.0
 11
217.0086586104
 21
69.6333943694
 31
0.0
  0
SPLINE
  5
201
330
1F
100
AcDbEntity
  8
0
  6
Continuous
 62
     7
370
    25
100
AcDbSpline
210
0.0
220
0.0
230
1.0
 70
     8
 71
     3
 72
    20
 73
    16
 74
     0
 42
0.000000001
 43
0.00000001
 40
0.0
 40
0.0
 40
0.0
 40
0.0
 40
0.2499999999999997
 40
0.2499999999999997
 40
0.3749999999999997
 40
0.3749999999999997
 40
0.4999999999999998
 40
0.4999999999999998
 40
0.6249999999999998
 40
0.6249999999999998
 40
0.7499999999999999
 40
0.7499999999999999
 40
0.8749999999999999
 40
0.8749999999999999
 40
1.0
 40
1.0
 40
1.0
 40
1.0
 10
211.9645982735437
 20
72.54557392513394
 30
0.0
 10
212.2835869279416
 20
72.41168353587415
 30
0.0
 10
212.6100425280396
 20
72.25178718881214
 30
0.0
 10
213.1223926454227
 20
71.97386826134264
 30
0.0
 10
213.2969960121005
 20
71.87486924853233
 30
0.0
 10
213.6568698744494
 20
71.66392854363363
 30
0.0
 10
213.8397302908029
 20
71.55337272642359
 30
0.0
 10
214.2060253799802
 20
71.32795485741276
 30
0.0
 10
214.3905088962388
 20
71.2124742560333
 30
0.0
 10
214.7640937204743
 20
70.97764191173752
 30
0.0
 10
214.9484431917136
 20
70.86131198646227
 30
0.0
 10
215.30915309819
 20
70.63561729966288
 30
0.0
 10
215.4862070874438
 20
70.5258073255662
 30
0.0
 10
215.8339364387962
 20
70.3144125620303
 30
0.0
 10
215.9991868552545
 20
70.21614972688728
 30
0.0
 10
216.1557297700359
 20
70.1257794257699
 30
0.0
  0
SPLINE
  5
202
330
1F
100
AcDbEntity
  8
0
  6
Continuous
 62
     7
370
    25
100
AcDbSpline
210
0.0
220
0.0
230
1.0
 70
    11
 71
     3
 72
    70
 73
    66
 74
     0
 42
0.000000001
 43
0.00000001
 40
0.0
 40
0.0
 40
0.0
 40
0.0
 40
0.0312499999999999
 40
0.0312499999999999
 40
0.0624999999999998
 40
0.0624999999999998
 40
0.0937499999999997
 40
0.0937499999999997
 40
0.1249999999999996
 40
0.1249999999999996
 40
0.1562499999999994
 40
0.1562499999999994
 40
0.1874999999999993
 40
0.1874999999999993
 40
0.2187499999999992
 40
0.2187499999999992
 40
0.2499999999999991
 40
0.2499999999999991
 40
0.281249999999999
 40
0.281249999999999
 40
0.3124999999999989
 40
0.3124999999999989
 40
0.3437499999999988
 40
0.3437499999999988
 40
0.3749999999999987
 40
0.3749999999999987
 40
0.4062499999999986
 40
0.4062499999999986
 40
0.4374999999999984
 40
0.4374999999999984
 40
0.4687499999999983
 40
0.4687499999999983
 40
0.4999999999999982
 40
0.4999999999999982
 40
0.5312499999999983
 40
0.5312499999999983
 40
0.5624999999999984
 40
0.5624999999999984
 40
0.5937499999999986
 40
0.5937499999999986
 40
0.6249999999999987
 40
0.6249999999999987
 40
0.6562499999999988
 40
0.6562499999999988
 40
0.6874999999999989
 40
0.6874999999999989
 40
0.718749999999999
 40
0.718749999999999
 40
0.7499999999999991
 40
0.7499999999999991
 40
0.7812499999999992
 40
0.7812499999999992
 40
0.8124999999999993
 40
0.8124999999999993
 40
0.8437499999999994
 40
0.8437499999999994
 40
0.8749999999999996
 40
0.8749999999999996
 40
0.9062499999999997
 40
0.9062499999999997
 40
0.9374999999999998
 40
0.9374999999999998
 40
0.9687499999999999
 40
0.9687499999999999
 40
1.0
 40
1.0
 40
1.0
 40
1.0
 10
209.7799589522915
 20
72.16107385480814
 30
0.0
 10
209.6864280508426
 20
72.2150680949149
 30
0.0
 10
209.6032039258395
 20
72.26959081028936
 30
0.0
 10
209.4564428503422
 20
72.37947887460292
 30
0.0
 10
209.3923809672642
 20
72.43545410854209
 30
0.0
 10
209.2882488775433
 20
72.54442114294734
 30
0.0
 10
209.2480214195007
 20
72.59727284140632
 30
0.0
 10
209.1907505423907
 20
72.69903089355806
 30
0.0
 10
209.1739473183737
 20
72.74810176716107
 30
0.0
 10
209.1651034314637
 20
72.83720444296898
 30
0.0
 10
209.1726275642865
 20
72.87781470850838
 30
0.0
 10
209.2119139450419
 20
72.95009415440597
 30
0.0
 10
209.2435202109487
 20
72.98105768574358
 30
0.0
 10
209.3283037696533
 20
73.03080821798372
 30
0.0
 10
209.3821168588985
 20
73.04995677435787
 30
0.0
 10
209.5104981281426
 20
73.07499383612426
 30
0.0
 10
209.5838284729136
 20
73.08077591536701
 30
0.0
 10
209.7482686737739
 20
73.0790267349353
 30
0.0
 10
209.8405108916792
 20
73.07126569118236
 30
0.0
 10
210.0362526970432
 20
73.04281518434179
 30
0.0
 10
210.1400640770238
 20
73.02226327867287
 30
0.0
 10
210.3598300560531
 20
72.9688971131102
 30
0.0
 10
210.4754597723591
 20
72.93604475137721
 30
0.0
 10
210.7092958425035
 20
72.86149195416567
 30
0.0
 10
210.8288107798616
 20
72.81947331890504
 30
0.0
 10
211.0728717127575
 20
72.72668642267053
 30
0.0
 10
211.193617254901
 20
72.67737941359506
 30
0.0
 10
211.4329854530264
 20
72.57398673953844
 30
0.0
 10
211.5528923938713
 20
72.51926712291065
 30
0.0
 10
211.7835297243545
 20
72.4089167269488
 30
0.0
 10
211.8940386760664
 20
72.35347032545225
 30
0.0
 10
212.105679884105
 20
72.24252334649344
 30
0.0
 10
212.2072083927643
 20
72.1867346625054
 30
0.0
 10
212.39193942753
 20
72.08011293953939
 30
0.0
 10
212.4763509961707
 20
72.02867406943973
 30
0.0
 10
212.6288065630102
 20
71.92945785609767
 30
0.0
 10
212.6954018291797
 20
71.88256380094849
 30
0.0
 10
212.8066688293927
 20
71.795723258122
 30
0.0
 10
212.8521773622406
 20
71.75511170607032
 30
0.0
 10
212.9197425451198
 20
71.68106832914222
 30
0.0
 10
212.9415112366903
 20
71.64810294062262
 30
0.0
 10
212.9612918260807
 20
71.5892325375704
 30
0.0
 10
212.9590038377632
 20
71.56315700456595
 30
0.0
 10
212.9298766218911
 20
71.51941807211118
 30
0.0
 10
212.9033424403694
 20
71.50148820201375
 30
0.0
 10
212.8257816294889
 20
71.47287511952472
 30
0.0
 10
212.7745950624183
 20
71.46234822813003
 30
0.0
 10
212.6516781967983
 20
71.44908597938371
 30
0.0
 10
212.579543737374
 20
71.44617561474641
 30
0.0
 10
212.413076820439
 20
71.44795466466113
 30
0.0
 10
212.3215136240793
 20
71.45261197152763
 30
0.0
 10
212.1224675496954
 20
71.46931610300585
 30
0.0
 10
212.0136685554378
 20
71.48156102990632
 30
0.0
 10
211.7864469143413
 20
71.51341093864556
 30
0.0
 10
211.668454151983
 20
71.5328784978071
 30
0.0
 10
211.4239911450179
 20
71.57955933592211
 30
0.0
 10
211.2968966555414
 20
71.60699615490613
 30
0.0
 10
211.0451684353299
 20
71.66828379065599
 30
0.0
 10
210.91923305578
 20
71.70234563378725
 30
0.0
 10
210.6674647593885
 20
71.77838699074913
 30
0.0
 10
210.5439811315107
 20
71.81972290320634
 30
0.0
 10
210.3071227162091
 20
71.90781887979588
 30
0.0
 10
210.1921559736052
 20
71.95517332408119
 30
0.0
 10
209.9746776656044
 20
72.05514514771636
 30
0.0
 10
209.8734898537405
 20
72.10707961470139
 30
0.0
 10
209.7799589522915
 20
72.16107385480814
 30
0.0
  0
LINE
  5
203
330
1F
100
AcDbEntity
  8
0
  6
Continuous
 62
     7
370
    25
100
AcDbLine
 10
200.297809534
 20
53.5225033793
 30
0.0
 11
199.834181688
 21
53.7901500378
 31
0.0
  0
LINE
  5
204
330
1F
100
AcDbEntity
  8
0
  6
Continuous
 62
     7
370
    25
100
AcDbLine
 10
199.4083635164
 20
54.4382950252
 30
0.0
 11
199.1631946401
 21
54.2967620456
 31
0.0
  0
SPLINE
  5
205
330
1F
100
AcDbEntity
  8
0
  6
Continuous
 62
     7
370
    25
100
AcDbSpline
210
0.0
220
0.0
230
1.0
 70
     8
 71
     3
 72
    14
 73
    10
 74
     0
 42
0.000000001
 43
0.00000001
 40
0.0
 40
0.0
 40
0.0
 40
0.0
 40
0.1249999999999991
 40
0.1249999999999991
 40
0.2499999999999982
 40
0.2499999999999982
 40
0.4999999999999998
 40
0.4999999999999998
 40
1.0
 40
1.0
 40
1.0
 40
1.0
 10
199.8341814422884
 20
53.79015010560776
 30
0.0
 10
199.8099850091232
 20
53.80411840915031
 30
0.0
 10
199.7868095706643
 20
53.83148358514786
 30
0.0
 10
199.7498891782334
 20
53.88928535427339
 30
0.0
 10
199.7348473872008
 20
53.92025583338975
 30
0.0
 10
199.6950339306139
 20
54.01328230631896
 30
0.0
 10
199.6753979122298
 20
54.07589336060373
 30
0.0
 10
199.6249770637603
 20
54.26022411151872
 30
0.0
 10
199.6025598855198
 20
54.3817683464194
 30
0.0
 10
199.5858719873539
 20
54.50089741172176
 30
0.0
  0
SPLINE
  5
206
330
1F
100
AcDbEntity
  8
0
  6
Continuous
 62
     7
370
    25
100
AcDbSpline
210
0.0
220
0.0
230
1.0
 70
     8
 71
     3
 72
    10
 73
     6
 74
     0
 42
0.000000001
 43
0.00000001
 40
0.0
 40
0.0
 40
0.0
 40
0.0
 40
0.5
 40
0.5
 40
1.0
 40
1.0
 40
1.0
 40
1.0
 10
199.5858719873539
 20
54.50089741172176
 30
0.0
 10
199.5524819691661
 20
54.49474764252152
 30
0.0
 10
199.520242617738
 20
54.48620103467345
 30
0.0
 10
199.4602547234757
 20
54.46496506090453
 30
0.0
 10
199.4329928502266
 20
54.45251341489634
 30
0.0
 10
199.4083632842768
 20
54.43829506911948
 30
0.0
  0
LWPOLYLINE
  5
207
330
1F
100
AcDbEntity
  8
0
  6
Continuous
 62
     7
370
    25
100
AcDbPolyline
 90
       21
 70
   128
 43
0.0
 10
192.1656086996
 20
53.1507114518
 10
192.2281006221
 20
54.540757608
 10
192.4148684544
 20
55.9872057118
 10
192.7237962929
 20
57.4736670358
 10
193.1513839736
 20
58.9832993664
 10
193.6927865845
 20
60.4989978764
 10
194.3418697835
 20
62.0035892277
 10
195.0912789456
 20
63.4800260532
 10
195.9325234564
 20
64.9115793464
 10
196.8560715428
 20
66.2820285676
 10
197.8514586032
 20
67.5758466168
 10
198.9074067336
 20
68.778374539
 10
200.0119521559
 20
69.8759863417
 10
201.1525790673
 20
70.8562453537
 10
202.3163643548
 20
71.7080455614
 10
203.4901215907
 20
72.4217358014
 10
204.6605516541
 20
72.9892295253
 10
205.8143930841
 20
73.4040969211
 10
206.9385726817
 20
73.6616366436
 10
208.0203525497
 20
73.7589310414
 10
208.9479734046
 20
73.7084848163
  0
ARC
  5
208
330
1F
100
AcDbEntity
  8
0
  6
Continuous
 62
     7
370
    25
100
AcDbCircle
 10
201.2670879079
 20
52.6574406304
 30
0.0
 40
9.114836250991988
100
AcDbArc
 50
176.897788515
 51
215.6828298483
  0
LINE
  5
209
330
1F
100
AcDbEntity
  8
0
  6
Continuous
 62
     7
370
    25
100
AcDbLine
 10
198.4411812588
 20
47.8128462131
 30
0.0
 11
199.5858722129
 21
47.1520301911
 31
0.0
  0
ARC
  5
20A
330
1F
100
AcDbEntity
  8
0
  6
Continuous
 62
     7
370
    25
100
AcDbCircle
 10
201.753617289
 20
52.9912685454
 30
0.0
 40
6.147218094902222
100
AcDbArc
 50
182.6054747885
 51
237.394528727
  0
LINE
  5
20B
330
1F
100
AcDbEntity
  8
0
  6
Continuous
 62
     7
370
    25
100
AcDbLine
 10
195.6127539997
 20
53.5283664349
 30
0.0
 11
195.6127539997
 21
52.7118255842
 31
0.0
  0
ARC
  5
20C
330
1F
100
AcDbEntity
  8
0
  6
Continuous
 62
     7
370
    25
100
AcDbCircle
 10
198.1697081525
 20
53.6207015319
 30
0.0
 40
2.558620782671169
100
AcDbArc
 50
154.7300572726
 51
182.0681299793
  0
LINE
  5
20D
330
1F
100
AcDbEntity
  8
0
  6
Continuous
 62
     7
370
    25
100
AcDbLine
 10
203.0373751021
 20
45.159519985
 30
0.0
 11
203.0373751021
 21
46.5229843211
 31
0.0
  0
LINE
  5
20E
330
1F
100
AcDbEntity
  8
0
  6
Continuous
 62
     7
370
    25
100
AcDbLine
 10
200.8673794106
 20
46.412231833
 30
0.0
 11
203.0373751021
 21
45.159519985
 31
0.0
  0
SPLINE
  5
20F
330
1F
100
AcDbEntity
  8
0
  6
Continuous
 62
     7
370
    25
100
AcDbSpline
210
0.0
220
0.0
230
1.0
 70
     8
 71
     3
 72
    14
 73
    10
 74
     0
 42
0.000000001
 43
0.00000001
 40
0.0
 40
0.0
 40
0.0
 40
0.0
 40
0.1249999999999997
 40
0.1249999999999997
 40
0.2499999999999993
 40
0.2499999999999993
 40
0.4999999999999996
 40
0.4999999999999996
 40
1.0
 40
1.0
 40
1.0
 40
1.0
 10
200.6190699694055
 20
47.12297891454587
 30
0.0
 10
200.6434993180493
 20
47.10887615175956
 30
0.0
 10
200.6664778721153
 20
47.08159402189988
 30
0.0
 10
200.7033609856071
 20
47.02384061839338
 30
0.0
 10
200.718486131924
 20
46.99269303672278
 30
0.0
 10
200.7582034923832
 20
46.8998559351668
 30
0.0
 10
200.7776656102723
 20
46.83790546535004
 30
0.0
 10
200.8285337314663
 20
46.65199075985254
 30
0.0
 10
200.8508179588815
 20
46.53045811487925
 30
0.0
 10
200.86737942434
 20
46.4122316084317
 30
0.0
  0
LINE
  5
210
330
1F
100
AcDbEntity
  8
0
  6
Continuous
 62
     7
370
    25
100
AcDbLine
 10
199.834181688
 20
47.5760853175
 30
0.0
 11
200.6190699355
 21
47.1229789769
 31
0.0
  0
SPLINE
  5
211
330
1F
100
AcDbEntity
  8
0
  6
Continuous
 62
     7
370
    25
100
AcDbSpline
210
0.0
220
0.0
230
1.0
 70
     8
 71
     3
 72
    14
 73
    10
 74
     0
 42
0.000000001
 43
0.00000001
 40
0.0
 40
0.0
 40
0.0
 40
0.0
 40
0.4999999999999968
 40
0.4999999999999968
 40
0.7499999999999967
 40
0.7499999999999967
 40
0.8749999999999983
 40
0.8749999999999983
 40
1.0
 40
1.0
 40
1.0
 40
1.0
 10
199.5858719873538
 20
47.15203010474977
 30
0.0
 10
199.6024960688076
 20
47.25150984897989
 30
0.0
 10
199.6249134704119
 20
47.34734498237587
 30
0.0
 10
199.6753445282606
 20
47.47356093194951
 30
0.0
 10
199.6948792221918
 20
47.51339448064376
 30
0.0
 10
199.7348223795273
 20
47.56065481211562
 30
0.0
 10
199.7498393466929
 20
47.57425742572087
 30
0.0
 10
199.7869007142146
 20
47.58947782729658
 30
0.0
 10
199.8098843765629
 20
47.59011181409048
 30
0.0
 10
199.8341814422884
 20
47.57608541660745
 30
0.0
  0
LINE
  5
212
330
1F
100
AcDbEntity
  8
0
  6
Continuous
 62
     7
370
    25
100
AcDbLine
 10
201.9200483186
 20
44.5145009625
 30
0.0
 11
203.0373751021
 21
45.159519985
 31
0.0
  0
ARC
  5
213
330
1F
100
AcDbEntity
  8
0
  6
Continuous
 62
     7
370
    25
100
AcDbCircle
 10
207.1742508608
 20
45.7975844619
 30
0.0
 40
5.832008479586849
100
AcDbArc
 50
192.764220618
 51
266.7209432703
  0
SPLINE
  5
214
330
1F
100
AcDbEntity
  8
0
  6
Continuous
 62
     7
370
    25
100
AcDbSpline
210
0.0
220
0.0
230
1.0
 70
     8
 71
     3
 72
    12
 73
     8
 74
     0
 42
0.000000001
 43
0.00000001
 40
0.0
 40
0.0
 40
0.0
 40
0.0
 40
0.2499999999999962
 40
0.2499999999999962
 40
0.4999999999999925
 40
0.4999999999999925
 40
1.0
 40
1.0
 40
1.0
 40
1.0
 10
201.4863655353016
 20
44.50906336961134
 30
0.0
 10
201.514607735374
 20
44.49275949454732
 30
0.0
 10
201.5491538672794
 20
44.47980370113732
 30
0.0
 10
201.6238779269771
 20
44.46309196294477
 30
0.0
 10
201.6641683182788
 20
44.45920505415732
 30
0.0
 10
201.7852813357151
 20
44.46146845204662
 30
0.0
 10
201.863398898133
 20
44.48179766347337
 30
0.0
 10
201.9200483708686
 20
44.51450070797973
 30
0.0
  0
ARC
  5
215
330
1F
100
AcDbEntity
  8
0
  6
Continuous
 62
     7
370
    25
100
AcDbCircle
 10
206.255103782
 20
46.9222047749
 30
0.0
 40
6.373597631102489
100
AcDbArc
 50
194.5879504137
 51
238.0815053162
  0
LINE
  5
216
330
1F
100
AcDbEntity
  8
0
  6
Continuous
 62
     7
370
    25
100
AcDbLine
 10
200.0869771683
 20
45.3169132624
 30
0.0
 11
201.4863658085
 21
44.509063396
 31
0.0
  0
SPLINE
  5
217
330
1F
100
AcDbEntity
  8
0
  6
Continuous
 62
     7
370
    25
100
AcDbSpline
210
0.0
220
0.0
230
1.0
 70
     8
 71
     3
 72
     8
 73
     4
 74
     0
 42
0.000000001
 43
0.00000001
 40
0.0
 40
0.0
 40
0.0
 40
0.0
 40
1.0
 40
1.0
 40
1.0
 40
1.0
 10
200.5137686319769
 20
46.16822519266732
 30
0.0
 10
200.3706039352865
 20
45.88460314566031
 30
0.0
 10
200.2284152384339
 20
45.6008199996763
 30
0.0
 10
200.0869774676787
 20
45.31691290548921
 30
0.0
  0
LINE
  5
218
330
1F
100
AcDbEntity
  8
0
  6
Continuous
 62
     7
370
    25
100
AcDbLine
 10
200.758937545
 20
46.3097582437
 30
0.0
 11
200.5137686687
 21
46.168225264
 31
0.0
  0
SPLINE
  5
219
330
1F
100
AcDbEntity
  8
0
  6
Continuous
 62
     7
370
    25
100
AcDbSpline
210
0.0
220
0.0
230
1.0
 70
     8
 71
     3
 72
    10
 73
     6
 74
     0
 42
0.000000001
 43
0.00000001
 40
0.0
 40
0.0
 40
0.0
 40
0.0
 40
0.5
 40
0.5
 40
1.0
 40
1.0
 40
1.0
 40
1.0
 10
200.86737942434
 20
46.4122316084317
 30
0.0
 10
200.85672655737
 20
46.39295596122558
 30
0.0
 10
200.8419217942179
 20
46.37434457980054
 30
0.0
 10
200.805136022887
 20
46.33971430556903
 30
0.0
 10
200.783566802293
 20
46.32397636113394
 30
0.0
 10
200.7589372363432
 20
46.30975801535708
 30
0.0
  0
SPLINE
  5
21A
330
1F
100
AcDbEntity
  8
0
  6
Continuous
 62
     7
370
    25
100
AcDbSpline
210
0.0
220
0.0
230
1.0
 70
     8
 71
     3
 72
    14
 73
    10
 74
     0
 42
0.000000001
 43
0.00000001
 40
0.0
 40
0.0
 40
0.0
 40
0.0
 40
0.500000000000001
 40
0.500000000000001
 40
0.7500000000000004
 40
0.7500000000000004
 40
0.8750000000000003
 40
0.8750000000000003
 40
1.0
 40
1.0
 40
1.0
 40
1.0
 10
184.9460701676613
 20
57.80729095556851
 30
0.0
 10
185.2612361115011
 20
57.58020296467265
 30
0.0
 10
185.5775117667671
 20
57.35035658962451
 30
0.0
 10
186.0563362553381
 20
56.9950479876354
 30
0.0
 10
186.2166562657622
 20
56.87490967343985
 30
0.0
 10
186.4597088017159
 20
56.68864083919605
 30
0.0
 10
186.5411522397325
 20
56.62554759796903
 30
0.0
 10
186.7058136887659
 20
56.49520235555689
 30
0.0
 10
186.7887197068321
 20
56.42867791357964
 30
0.0
 10
186.8747385349168
 20
56.35488444225609
 30
0.0
  0
SPLINE
  5
21B
330
1F
100
AcDbEntity
  8
0
  6
Continuous
 62
     7
370
    25
100
AcDbSpline
210
0.0
220
0.0
230
1.0
 70
     8
 71
     3
 72
     8
 73
     4
 74
     0
 42
0.000000001
 43
0.00000001
 40
0.0
 40
0.0
 40
0.0
 40
0.0
 40
1.0
 40
1.0
 40
1.0
 40
1.0
 10
186.8747385349168
 20
56.35488444225609
 30
0.0
 10
187.1763910081543
 20
56.09610408417426
 30
0.0
 10
187.4816705516777
 20
55.84852906876959
 30
0.0
 10
187.7863301248044
 20
55.60755621220307
 30
0.0
  0
SPLINE
  5
21C
330
1F
100
AcDbEntity
  8
0
  6
Continuous
 62
     7
370
    25
100
AcDbSpline
210
0.0
220
0.0
230
1.0
 70
     8
 71
     3
 72
    14
 73
    10
 74
     0
 42
0.000000001
 43
0.00000001
 40
0.0
 40
0.0
 40
0.0
 40
0.0
 40
0.1249999999999988
 40
0.1249999999999988
 40
0.2499999999999976
 40
0.2499999999999976
 40
0.4999999999999982
 40
0.4999999999999982
 40
1.0
 40
1.0
 40
1.0
 40
1.0
 10
187.7863301248044
 20
55.60755621220302
 30
0.0
 10
187.80552550073
 20
55.59237348046682
 30
0.0
 10
187.8231375741304
 20
55.58100566197004
 30
0.0
 10
187.8489825040496
 20
55.56973719275759
 30
0.0
 10
187.8571208682972
 20
55.56935372252054
 30
0.0
 10
187.8740709592653
 20
55.57512951521493
 30
0.0
 10
187.8762402317751
 20
55.58779494083296
 30
0.0
 10
187.8750646839605
 20
55.63223176787672
 30
0.0
 10
187.8629911633563
 20
55.67271503865017
 30
0.0
 10
187.8482129353163
 20
55.71671870853267
 30
0.0
  0
SPLINE
  5
21D
330
1F
100
AcDbEntity
  8
0
  6
Continuous
 62
     7
370
    25
100
AcDbSpline
210
0.0
220
0.0
230
1.0
 70
     8
 71
     3
 72
    14
 73
    10
 74
     0
 42
0.000000001
 43
0.00000001
 40
0.0
 40
0.0
 40
0.0
 40
0.0
 40
0.25
 40
0.25
 40
0.5
 40
0.5
 40
0.75
 40
0.75
 40
1.0
 40
1.0
 40
1.0
 40
1.0
 10
187.8482129353156
 20
55.71671870853337
 30
0.0
 10
187.830156688369
 20
55.77048301152014
 30
0.0
 10
187.8272338902678
 20
55.8150336206172
 30
0.0
 10
187.8218201617245
 20
55.90729497046191
 30
0.0
 10
187.8202528836834
 20
55.95458937338216
 30
0.0
 10
187.8101144838762
 20
56.05935042820994
 30
0.0
 10
187.801799486132
 20
56.11661163524495
 30
0.0
 10
187.7729993114732
 20
56.24623299261937
 30
0.0
 10
187.7523459148026
 20
56.31902719223242
 30
0.0
 10
187.7236563976415
 20
56.39871389119218
 30
0.0
  0
ARC
  5
21E
330
1F
100
AcDbEntity
  8
0
  6
Continuous
 62
     7
370
    25
100
AcDbCircle
 10
198.078626726
 20
59.4852753579
 30
0.0
 40
10.8051967356647
100
AcDbArc
 50
163.4019784234
 51
196.5980215766
  0
SPLINE
  5
21F
330
1F
100
AcDbEntity
  8
0
  6
Continuous
 62
     7
370
    25
100
AcDbSpline
210
0.0
220
0.0
230
1.0
 70
     8
 71
     3
 72
    14
 73
    10
 74
     0
 42
0.000000001
 43
0.00000001
 40
0.0
 40
0.0
 40
0.0
 40
0.0
 40
0.25
 40
0.25
 40
0.5
 40
0.5
 40
0.75
 40
0.75
 40
1.0
 40
1.0
 40
1.0
 40
1.0
 10
187.8482129353156
 20
64.03304190345636
 30
0.0
 10
187.830156688369
 20
63.9121998245118
 30
0.0
 10
187.8272338902678
 20
63.7871055579457
 30
0.0
 10
187.8218201617245
 20
63.53915424729434
 30
0.0
 10
187.8202528836834
 20
63.41524562298058
 30
0.0
 10
187.8101144838762
 20
63.16908988374037
 30
0.0
 10
187.801799486132
 20
63.04680194187896
 30
0.0
 10
187.7729993114732
 20
62.80480476467018
 30
0.0
 10
187.7523459148026
 20
62.68464779749058
 30
0.0
 10
187.7236563976415
 20
62.57183688708531
 30
0.0
  0
SPLINE
  5
220
330
1F
100
AcDbEntity
  8
0
  6
Continuous
 62
     7
370
    25
100
AcDbSpline
210
0.0
220
0.0
230
1.0
 70
     8
 71
     3
 72
    14
 73
    10
 74
     0
 42
0.000000001
 43
0.00000001
 40
0.0
 40
0.0
 40
0.0
 40
0.0
 40
0.1249999999999975
 40
0.1249999999999975
 40
0.249999999999995
 40
0.249999999999995
 40
0.4999999999999953
 40
0.4999999999999953
 40
1.0
 40
1.0
 40
1.0
 40
1.0
 10
187.7863301248045
 20
64.57832746775038
 30
0.0
 10
187.80552550073
 20
64.57604065977655
 30
0.0
 10
187.8231375741304
 20
64.56454242050374
 30
0.0
 10
187.8489825040497
 20
64.52785091797722
 30
0.0
 10
187.8571208682973
 20
64.50476950287515
 30
0.0
 10
187.8740709592653
 20
64.43343698379806
 30
0.0
 10
187.8762402317751
 20
64.38219287818997
 30
0.0
 10
187.8750646839605
 20
64.23215739842838
 30
0.0
 10
187.8629911633563
 20
64.1319457235453
 30
0.0
 10
187.8482129353163
 20
64.03304190345668
 30
0.0
  0
SPLINE
  5
221
330
1F
100
AcDbEntity
  8
0
  6
Continuous
 62
     7
370
    25
100
AcDbSpline
210
0.0
220
0.0
230
1.0
 70
     8
 71
     3
 72
     8
 73
     4
 74
     0
 42
0.000000001
 43
0.00000001
 40
0.0
 40
0.0
 40
0.0
 40
0.0
 40
1.0
 40
1.0
 40
1.0
 40
1.0
 10
186.8747385349168
 20
64.63054027888647
 30
0.0
 10
187.1763910081543
 20
64.63788652602958
 30
0.0
 10
187.4816705516778
 20
64.61462256005962
 30
0.0
 10
187.7863301248045
 20
64.57832746775037
 30
0.0
  0
SPLINE
  5
222
330
1F
100
AcDbEntity
  8
0
  6
Continuous
 62
     7
370
    25
100
AcDbSpline
210
0.0
220
0.0
230
1.0
 70
     8
 71
     3
 72
    14
 73
    10
 74
     0
 42
0.000000001
 43
0.00000001
 40
0.0
 40
0.0
 40
0.0
 40
0.0
 40
0.500000000000001
 40
0.500000000000001
 40
0.7500000000000004
 40
0.7500000000000004
 40
0.8750000000000003
 40
0.8750000000000003
 40
1.0
 40
1.0
 40
1.0
 40
1.0
 10
184.9460701676613
 20
65.26317962387147
 30
0.0
 10
185.2612361115011
 20
65.12579513014532
 30
0.0
 10
185.5775117667671
 20
64.99422162251417
 30
0.0
 10
186.0563362553381
 20
64.81932615599341
 30
0.0
 10
186.2166562657622
 20
64.7646550057289
 30
0.0
 10
186.4597088017159
 20
64.69562319000885
 30
0.0
 10
186.5411522397325
 20
64.67476090550007
 30
0.0
 10
186.7058136887659
 20
64.64195319207042
 30
0.0
 10
186.7887197068321
 20
64.62844543257778
 30
0.0
 10
186.8747385349168
 20
64.63054027888647
 30
0.0
  0
SPLINE
  5
223
330
1F
100
AcDbEntity
  8
0
  6
Continuous
 62
     7
370
    25
100
AcDbSpline
210
0.0
220
0.0
230
1.0
 70
     8
 71
     3
 72
     8
 73
     4
 74
     0
 42
0.000000001
 43
0.00000001
 40
0.0000005163856712
 40
0.0000005163856712
 40
0.0000005163856712
 40
0.0000005163856712
 40
0.000026289209185
 40
0.000026289209185
 40
0.000026289209185
 40
0.000026289209185
 10
184.946048580642
 20
65.27605873507692
 30
0.0
 10
184.9460462794827
 20
65.27176590004564
 30
0.0
 10
184.946053525807
 20
65.26747283236534
 30
0.0
 10
184.9460701676612
 20
65.26317962387147
 30
0.0
  0
SPLINE
  5
224
330
1F
100
AcDbEntity
  8
0
  6
Continuous
 62
     7
370
    25
100
AcDbSpline
210
0.0
220
0.0
230
1.0
 70
     8
 71
     3
 72
     8
 73
     4
 74
     0
 42
0.000000001
 43
0.00000001
 40
0.0000005163856716
 40
0.0000005163856716
 40
0.0000005163856716
 40
0.0000005163856716
 40
0.0000262892091854
 40
0.0000262892091854
 40
0.0000262892091854
 40
0.0000262892091854
 10
184.946048580642
 20
57.80258768319764
 30
0.0
 10
184.9460462794827
 20
57.80416106889709
 30
0.0
 10
184.946053525807
 20
57.80572879883102
 30
0.0
 10
184.9460701676612
 20
57.80729095556852
 30
0.0
  0
SPLINE
  5
225
330
1F
100
AcDbEntity
  8
0
  6
Continuous
 62
     7
370
    25
100
AcDbSpline
210
0.0
220
0.0
230
1.0
 70
     8
 71
     3
 72
    18
 73
    14
 74
     0
 42
0.000000001
 43
0.00000001
 40
0.0
 40
0.0
 40
0.0
 40
0.0
 40
0.1234382664044115
 40
0.2475506354299754
 40
0.3716403394438376
 40
0.4950239809267309
 40
0.6173550300143352
 40
0.6788887906889897
 40
0.7396264301333654
 40
0.8002769831393556
 40
0.8622005703261102
 40
0.9849655863221305
 40
1.0
 40
1.0
 40
1.0
 40
1.0
 10
190.6349171504385
 20
55.92961658687562
 30
0.0
 10
190.5018702770328
 20
56.1745513408524
 30
0.0
 10
190.235049954511
 20
56.66575844989577
 30
0.0
 10
190.1103545329312
 20
57.41777949897254
 30
0.0
 10
190.2461811727526
 20
58.04246655574524
 30
0.0
 10
190.6132567158569
 20
58.45933167947881
 30
0.0
 10
191.0558976837962
 20
58.55331533935892
 30
0.0
 10
191.4321206632293
 20
58.47137092088754
 30
0.0
 10
191.7143514071408
 20
58.32909837828829
 30
0.0
 10
191.986703943596
 20
58.11240051496593
 30
0.0
 10
192.3130986766408
 20
57.73465669596541
 30
0.0
 10
192.5680981400646
 20
57.35186059534593
 30
0.0
 10
192.6598283743219
 20
57.05681070137899
 30
0.0
 10
192.6698364729901
 20
57.02461969614762
 30
0.0
  0
SPLINE
  5
226
330
1F
100
AcDbEntity
  8
0
  6
Continuous
 62
     7
370
    25
100
AcDbSpline
210
0.0
220
0.0
230
1.0
 70
     8
 71
     3
 72
    13
 73
     9
 74
     0
 42
0.000000001
 43
0.00000001
 40
0.0
 40
0.0
 40
0.0
 40
0.0
 40
0.0538060323801026
 40
0.2128168713670997
 40
0.3692065480887288
 40
0.5257129792001635
 40
0.6844786229119996
 40
1.0
 40
1.0
 40
1.0
 40
1.0
 10
192.2926172397338
 20
54.60294887426971
 30
0.0
 10
192.2700067094129
 20
54.59833503110972
 30
0.0
 10
192.1805761732817
 20
54.58008607977745
 30
0.0
 10
191.9741500027591
 20
54.66631862049864
 30
0.0
 10
191.7065583125032
 20
54.80337157262286
 30
0.0
 10
191.4235865843534
 20
55.01430794966817
 30
0.0
 10
191.0439070388587
 20
55.36234567623255
 30
0.0
 10
190.7983049456994
 20
55.70299694167215
 30
0.0
 10
190.6349171504385
 20
55.92961658687562
 30
0.0
  0
ARC
  5
227
330
1F
100
AcDbEntity
  8
0
  6
Continuous
 62
     7
370
    25
100
AcDbCircle
 10
205.3344440007
 20
48.9416749332
 30
0.0
 40
6.485327815417783
100
AcDbArc
 50
197.9043770853
 51
217.5646516782
  0
SPLINE
  5
228
330
1F
100
AcDbEntity
  8
0
  6
Continuous
 62
     7
370
    25
100
AcDbSpline
210
0.0
220
0.0
230
1.0
 70
     8
 71
     3
 72
     8
 73
     4
 74
     0
 42
0.000000001
 43
0.00000001
 40
0.0
 40
0.0
 40
0.0
 40
0.0
 40
1.0
 40
1.0
 40
1.0
 40
1.0
 10
197.6885187612035
 20
46.70151364468193
 30
0.0
 10
198.1803135599554
 20
46.78316393176367
 30
0.0
 10
198.6718936508581
 20
46.86524771925411
 30
0.0
 10
199.1631946799106
 20
46.947894939458
 30
0.0
  0
SPLINE
  5
229
330
1F
100
AcDbEntity
  8
0
  6
Continuous
 62
     7
370
    25
100
AcDbSpline
210
0.0
220
0.0
230
1.0
 70
     8
 71
     3
 72
    10
 73
     6
 74
     0
 42
0.000000001
 43
0.00000001
 40
0.0
 40
0.0
 40
0.0
 40
0.0
 40
0.5
 40
0.5
 40
1.0
 40
1.0
 40
1.0
 40
1.0
 10
199.4083632842768
 20
47.08942776214778
 30
0.0
 10
199.4331955876288
 20
47.10376314573562
 30
0.0
 10
199.4608705851222
 20
47.11635858587171
 30
0.0
 10
199.5209955945767
 20
47.13755648401198
 30
0.0
 10
199.5526899947714
 20
47.14591864967864
 30
0.0
 10
199.5858719873531
 20
47.15203010474988
 30
0.0
  0
LINE
  5
22A
330
1F
100
AcDbEntity
  8
0
  6
Continuous
 62
     7
370
    25
100
AcDbLine
 10
199.1631946401
 20
46.9478950549
 30
0.0
 11
199.4083635164
 21
47.0894280346
 31
0.0
  0
SPLINE
  5
22B
330
1F
100
AcDbEntity
  8
0
  6
Continuous
 62
     7
370
    25
100
AcDbSpline
210
0.0
220
0.0
230
1.0
 70
     8
 71
     3
 72
    12
 73
     8
 74
     0
 42
0.000000001
 43
0.00000001
 40
0.0
 40
0.0
 40
0.0
 40
0.0
 40
0.0816327807181052
 40
0.3411438783762716
 40
0.5998061822282001
 40
0.8620254669379399
 40
1.0
 40
1.0
 40
1.0
 40
1.0
 10
191.6537434562045
 20
58.24841350904939
 30
0.0
 10
191.6402905977536
 20
58.20202383516247
 30
0.0
 10
191.5840710219067
 20
58.00816111081106
 30
0.0
 10
191.6622300187134
 20
57.57495763824319
 30
0.0
 10
191.8856820379395
 20
57.02705974321162
 30
0.0
 10
192.1867756441761
 20
56.57181436515488
 30
0.0
 10
192.4114988026934
 20
56.35891078132376
 30
0.0
 10
192.4889764434957
 20
56.28550816673593
 30
0.0
  0
LINE
  5
22C
330
1F
100
AcDbEntity
  8
0
  6
Continuous
 62
     7
370
    25
100
AcDbLine
 10
219.4071168918
 20
68.2487938756
 30
0.0
 11
220.806505532
 21
67.4409440092
 31
0.0
  0
SPLINE
  5
22D
330
1F
100
AcDbEntity
  8
0
  6
Continuous
 62
     7
370
    25
100
AcDbSpline
210
0.0
220
0.0
230
1.0
 70
     8
 71
     3
 72
    12
 73
     8
 74
     0
 42
0.000000001
 43
0.00000001
 40
0.0
 40
0.0
 40
0.0
 40
0.0
 40
0.25
 40
0.25
 40
0.5
 40
0.5
 40
1.0
 40
1.0
 40
1.0
 40
1.0
 10
220.8065052979686
 20
67.4409438618262
 30
0.0
 10
220.8387492688412
 20
67.42232981365258
 30
0.0
 10
220.8608022713748
 20
67.39807949085517
 30
0.0
 10
220.8816512155398
 20
67.34749163296762
 30
0.0
 10
220.8812700463125
 20
67.32065306453357
 30
0.0
 10
220.8555171134153
 20
67.24341894826475
 30
0.0
 10
220.8075656863066
 20
67.19663357743691
 30
0.0
 10
220.7436656371713
 20
67.15974486426946
 30
0.0
  0
SPLINE
  5
22E
330
1F
100
AcDbEntity
  8
0
  6
Continuous
 62
     7
370
    25
100
AcDbSpline
210
0.0
220
0.0
230
1.0
 70
     8
 71
     3
 72
    12
 73
     8
 74
     0
 42
0.000000001
 43
0.00000001
 40
0.0
 40
0.0
 40
0.0
 40
0.0
 40
0.1903791572983248
 40
0.3659797326694775
 40
0.6720725730789537
 40
0.945945269543123
 40
1.0
 40
1.0
 40
1.0
 40
1.0
 10
190.9261864472355
 20
56.11253974513691
 30
0.0
 10
191.0057443553321
 20
55.99812777289834
 30
0.0
 10
191.1586843218187
 20
55.77818529805878
 30
0.0
 10
191.4834709495835
 20
55.42444288102409
 30
0.0
 10
191.8684451254262
 20
55.1196803543227
 30
0.0
 10
192.1694670574486
 20
54.95222427231446
 30
0.0
 10
192.2999794381855
 20
54.9358144287058
 30
0.0
 10
192.3214927700475
 20
54.93310947144915
 30
0.0
  0
SPLINE
  5
22F
330
1F
100
AcDbEntity
  8
0
  6
Continuous
 62
     7
370
    25
100
AcDbSpline
210
0.0
220
0.0
230
1.0
 70
     8
 71
     3
 72
    17
 73
    13
 74
     0
 42
0.000000001
 43
0.00000001
 40
0.0
 40
0.0
 40
0.0
 40
0.0
 40
0.0289205793805721
 40
0.176534351245403
 40
0.2609407339662907
 40
0.3522904554096046
 40
0.4560998252287951
 40
0.544751751749871
 40
0.6761039505363914
 40
0.8084226272206628
 40
0.8968638283576633
 40
1.0
 40
1.0
 40
1.0
 40
1.0
 10
191.9694780107452
 20
58.11091292181099
 30
0.0
 10
191.9422210984193
 20
58.13695379318407
 30
0.0
 10
191.7758419512008
 20
58.29591009461977
 30
0.0
 10
191.488070807328
 20
58.3743914157846
 30
0.0
 10
191.167797485658
 20
58.37803744429493
 30
0.0
 10
190.9138523888026
 20
58.28698608310794
 30
0.0
 10
190.7053727147155
 20
58.1061858635774
 30
0.0
 10
190.5422782763116
 20
57.81406022140434
 30
0.0
 10
190.4652742480454
 20
57.40427260485813
 30
0.0
 10
190.5406659308204
 20
56.93967608572743
 30
0.0
 10
190.6994108321272
 20
56.49773696404286
 30
0.0
 10
190.8468254229228
 20
56.24734103689021
 30
0.0
 10
190.9261864472355
 20
56.11253974513691
 30
0.0
  0
SPLINE
  5
230
330
1F
100
AcDbEntity
  8
0
  6
Continuous
 62
     7
370
    25
100
AcDbSpline
210
0.0
220
0.0
230
1.0
 70
     8
 71
     3
 72
     9
 73
     5
 74
     0
 42
0.000000001
 43
0.00000001
 40
0.0
 40
0.0
 40
0.0
 40
0.0
 40
0.9554139175548232
 40
1.0
 40
1.0
 40
1.0
 40
1.0
 10
217.0086586103532
 20
69.63339436944068
 30
0.0
 10
216.957227431867
 20
69.554732380226
 30
0.0
 10
216.9033961263552
 20
69.4723994899788
 30
0.0
 10
216.847102371619
 20
69.39062159013037
 30
0.0
 10
216.8445924536292
 20
69.38697543394551
 30
0.0
  0
LINE
  5
231
330
1F
100
AcDbEntity
  8
0
  6
Continuous
 62
     7
370
    25
100
AcDbLine
 10
186.7858255879
 20
59.9822721758
 30
0.0
 11
187.2862087785
 21
59.6934071085
 31
0.0
  0
SPLINE
  5
232
330
1F
100
AcDbEntity
  8
0
  6
Continuous
 62
     7
370
    25
100
AcDbSpline
210
0.0
220
0.0
230
1.0
 70
     8
 71
     3
 72
     9
 73
     5
 74
     0
 42
0.000000001
 43
0.00000001
 40
0.0
 40
0.0
 40
0.0
 40
0.0
 40
0.7009339503679092
 40
0.9999999999999999
 40
0.9999999999999999
 40
0.9999999999999999
 40
0.9999999999999999
 10
184.9600148907465
 20
65.7396507691067
 30
0.0
 10
184.9569430022276
 20
65.79365475346071
 30
0.0
 10
184.9525604373407
 20
65.8707005069524
 30
0.0
 10
184.9769707614172
 20
65.96033324736668
 30
0.0
 10
184.984271060609
 20
65.98713935696007
 30
0.0
  0
SPLINE
  5
233
330
1F
100
AcDbEntity
  8
0
  6
Continuous
 62
     7
370
    25
100
AcDbSpline
210
0.0
220
0.0
230
1.0
 70
     8
 71
     3
 72
    10
 73
     6
 74
     0
 42
0.000000001
 43
0.00000001
 40
0.0
 40
0.0
 40
0.0
 40
0.0
 40
0.5
 40
0.5
 40
1.0
 40
1.0
 40
1.0
 40
1.0
 10
185.0005075178601
 20
65.7920009141843
 30
0.0
 10
184.9805814673639
 20
65.70804044016857
 30
0.0
 10
184.9672872032232
 20
65.6225945776572
 30
0.0
 10
184.9500186770824
 20
65.45018110672471
 30
0.0
 10
184.9460952224601
 20
65.36306950046081
 30
0.0
 10
184.946048580642
 20
65.27605873507692
 30
0.0
  0
SPLINE
  5
234
330
1F
100
AcDbEntity
  8
0
  6
Continuous
 62
     7
370
    25
100
AcDbSpline
210
0.0
220
0.0
230
1.0
 70
     8
 71
     3
 72
    24
 73
    20
 74
     0
 42
0.000000001
 43
0.00000001
 40
0.0
 40
0.0
 40
0.0
 40
0.0
 40
0.25
 40
0.25
 40
0.374999999999999
 40
0.374999999999999
 40
0.4374999999999993
 40
0.4374999999999993
 40
0.4687499999999994
 40
0.4687499999999994
 40
0.4999999999999995
 40
0.4999999999999995
 40
0.5624999999999971
 40
0.5624999999999971
 40
0.6249999999999947
 40
0.6249999999999947
 40
0.7499999999999947
 40
0.7499999999999947
 40
1.0
 40
1.0
 40
1.0
 40
1.0
 10
184.9842711148918
 20
65.98713926490055
 30
0.0
 10
185.0141121441769
 20
66.0944183214568
 30
0.0
 10
185.043941684218
 20
66.20030289482746
 30
0.0
 10
185.0886128410893
 20
66.35025093807775
 30
0.0
 10
185.1035656331811
 20
66.3992512008407
 30
0.0
 10
185.1251487714704
 20
66.46240148274343
 30
0.0
 10
185.1322784830001
 20
66.48204166697195
 30
0.0
 10
185.1411301083015
 20
66.49975159645996
 30
0.0
 10
185.1437682055713
 20
66.50346796294562
 30
0.0
 10
185.1469207436164
 20
66.50131961456343
 30
0.0
 10
185.1473007047531
 20
66.49515720549684
 30
0.0
 10
185.1452907794923
 20
66.46651212214411
 30
0.0
 10
185.1407141378939
 20
66.43821111715592
 30
0.0
 10
185.1307827517875
 20
66.38183210700663
 30
0.0
 10
185.1250925660526
 20
66.35236235905057
 30
0.0
 10
185.1075109654339
 20
66.26450793848423
 30
0.0
 10
185.0948300925056
 20
66.20528294543492
 30
0.0
 10
185.0555890288853
 20
66.02678963830513
 30
0.0
 10
185.0282855688488
 20
65.9090466041314
 30
0.0
 10
185.0005075178601
 20
65.79200091418431
 30
0.0
  0
ARC
  5
235
330
1F
100
AcDbEntity
  8
0
  6
Continuous
 62
     7
370
    25
100
AcDbCircle
 10
185.6631855452
 20
65.1973920832
 30
0.0
 40
0.7201273031245108
100
AcDbArc
 50
174.7584203609
 51
234.4349513408
  0
ARC
  5
236
330
1F
100
AcDbEntity
  8
0
  6
Continuous
 62
     7
370
    25
100
AcDbCircle
 10
187.1585203127
 20
57.6974943469
 30
0.0
 40
2.21517351110249
100
AcDbArc
 50
122.6235856257
 51
177.1589283586
  0
LINE
  5
237
330
1F
100
AcDbEntity
  8
0
  6
Continuous
 62
     7
370
    25
100
AcDbLine
 10
185.964281436
 20
59.5631811346
 30
0.0
 11
186.7083682414
 21
59.9927333041
 31
0.0
  0
SPLINE
  5
238
330
1F
100
AcDbEntity
  8
0
  6
Continuous
 62
     7
370
    25
100
AcDbSpline
210
0.0
220
0.0
230
1.0
 70
     8
 71
     3
 72
     8
 73
     4
 74
     0
 42
0.000000001
 43
0.00000001
 40
0.0
 40
0.0
 40
0.0
 40
0.0
 40
0.000159097695343
 40
0.000159097695343
 40
0.000159097695343
 40
0.000159097695343
 10
186.7858260139599
 20
59.98227215817163
 30
0.0
 10
186.7600058843942
 20
59.98575670763353
 30
0.0
 10
186.7341867398417
 20
59.98924369037107
 30
0.0
 10
186.7083685601855
 20
59.99273305149048
 30
0.0
  0
ARC
  5
239
330
1F
100
AcDbEntity
  8
0
  6
Continuous
 62
     7
370
    25
100
AcDbCircle
 10
186.2931402627
 20
58.1921531039
 30
0.0
 40
1.353479563765708
100
AcDbArc
 50
122.9135810547
 51
170.975405912
  0
LINE
  5
23A
330
1F
100
AcDbEntity
  8
0
  6
Continuous
 62
     7
370
    25
100
AcDbLine
 10
185.964281436
 20
59.5631811346
 30
0.0
 11
185.5576953982
 21
59.3283871383
 31
0.0
  0
SPLINE
  5
23B
330
1F
100
AcDbEntity
  8
0
  6
Continuous
 62
     7
370
    25
100
AcDbSpline
210
0.0
220
0.0
230
1.0
 70
     8
 71
     3
 72
    10
 73
     6
 74
     0
 42
0.000000001
 43
0.00000001
 40
0.0
 40
0.0
 40
0.0
 40
0.0
 40
0.5
 40
0.5
 40
1.0
 40
1.0
 40
1.0
 40
1.0
 10
185.0005075178601
 20
57.60734529848032
 30
0.0
 10
184.9805814673639
 20
57.64586685999596
 30
0.0
 10
184.9672872032232
 20
57.67783018718904
 30
0.0
 10
184.9500186770824
 20
57.74027361068588
 30
0.0
 10
184.9460952224601
 20
57.77069698789808
 30
0.0
 10
184.946048580642
 20
57.80258768319763
 30
0.0
  0
LINE
  5
23C
330
1F
100
AcDbEntity
  8
0
  6
Continuous
 62
     7
370
    25
100
AcDbLine
 10
184.9564152865
 20
58.4044577612
 30
0.0
 11
184.9600148907
 21
58.2688215005
 31
0.0
  0
LINE
  5
23D
330
1F
100
AcDbEntity
  8
0
  6
Continuous
 62
     7
370
    25
100
AcDbLine
 10
185.0549598866
 20
57.5128486634
 30
0.0
 11
185.0005074755
 21
57.6073454762
 31
0.0
  0
LWPOLYLINE
  5
23E
330
1F
100
AcDbEntity
  8
0
  6
Continuous
 62
     7
370
    18
100
AcDbPolyline
 90
       30
 70
   128
 43
0.0
 10
248.9816362245
 20
17.7798304061
 10
249.0436302874
 20
18.4738643262
 10
249.2267148803
 20
19.2070235363
 10
249.5223262903
 20
19.9450245588
 10
249.9166456195
 20
20.6533614034
 10
250.3912323046
 20
21.2989116528
 10
250.9238960299
 20
21.8514902444
 10
251.4897299835
 20
22.2852593666
 10
252.0622764813
 20
22.5799367246
 10
252.6147643719
 20
22.7217433417
 10
253.1213589543
 20
22.7040483144
 10
253.5583736996
 20
22.5276797279
 10
253.9053726546
 20
22.2008832979
 10
254.146131917
 20
21.7389405274
 10
254.2693936681
 20
21.1634512588
 10
254.2693936681
 20
20.5013243469
 10
254.146131917
 20
19.7835200896
 10
253.9053726546
 20
19.0436025917
 10
253.5583736996
 20
18.3161696959
 10
253.1213589543
 20
17.6352346245
 10
252.6147643719
 20
17.0326379424
 10
252.0622764813
 20
16.5365556189
 10
251.4897299835
 20
16.1701848613
 10
250.9238960299
 20
15.9506560065
 10
250.3912323046
 20
15.8882341516
 10
249.9166456195
 20
15.9858382777
 10
249.5223262903
 20
16.2389037155
 10
249.2267148803
 20
16.6355990689
 10
249.0436302874
 20
17.1573733076
 10
248.9816362245
 20
17.7798304061
  0
ARC
  5
23F
330
1F
100
AcDbEntity
  8
0
  6
Continuous
 62
     7
370
    18
100
AcDbCircle
 10
254.5117564243
 20
17.6497193382
 30
0.0
 40
5.870014343625146
100
AcDbArc
 50
117.9035506976
 51
182.229484163
  0
LWPOLYLINE
  5
240
330
1F
100
AcDbEntity
  8
0
  6
Continuous
 62
     7
370
    18
100
AcDbPolyline
 90
       18
 70
   128
 43
0.0
 10
270.6931183269
 20
32.1004042854
 10
270.7355299103
 20
32.1911463426
 10
271.1298485809
 20
32.899482807
 10
271.6044352661
 20
33.5450330564
 10
272.1370989914
 20
34.0976116481
 10
272.702932945
 20
34.5313807702
 10
273.2754801013
 20
34.8260585084
 10
273.8279673333
 20
34.9678647453
 10
274.3345619157
 20
34.950169718
 10
274.7715773196
 20
34.7738015117
 10
275.1185762746
 20
34.4470050817
 10
275.3593361955
 20
33.9850626914
 10
275.4825972881
 20
33.4095730426
 10
275.4825972881
 20
32.7474461307
 10
275.3593361955
 20
32.0296422535
 10
275.1185762746
 20
31.2897243755
 10
274.7715773196
 20
30.5622914797
 10
274.3670531847
 20
29.9259604018
  0
ARC
  5
241
330
1F
100
AcDbEntity
  8
0
  6
Continuous
 62
     7
370
    18
100
AcDbCircle
 10
275.6868055639
 20
29.9897737141
 30
0.0
 40
5.769156024863423
100
AcDbArc
 50
118.0052607
 51
156.6590947667
  0
LWPOLYLINE
  5
242
330
1F
100
AcDbEntity
  8
0
  6
Continuous
 62
     7
370
    18
100
AcDbPolyline
 90
       40
 70
   128
 43
0.0
 10
283.0995397286
 20
19.1064936152
 10
283.035441616
 20
19.9863670771
 10
282.8448077982
 20
20.7694464368
 10
282.5325757126
 20
21.435450351
 10
282.1068319566
 20
21.9671295269
 10
281.57860287
 20
22.3507139886
 10
280.9615690565
 20
22.5762689061
 10
280.2717120743
 20
22.6379524247
 10
279.5268983181
 20
22.5341674643
 10
278.7464182441
 20
22.2676014255
 10
277.9504858759
 20
21.8451581751
 10
277.1597154677
 20
21.2777795051
 10
276.3945874245
 20
20.5801596294
 10
275.674918297
 20
19.7703665938
 10
275.0193471174
 20
18.8693734991
 10
274.4448529743
 20
17.9005161227
 10
273.9663146928
 20
16.888887203
 10
273.5961260808
 20
15.8606867556
 10
273.3438752168
 20
14.8425453865
 10
273.2160951917
 20
13.8608321987
 10
273.2160951917
 20
12.9409728634
 10
273.3438752168
 20
12.1067913522
 10
273.5961260808
 20
11.3798926313
 10
273.9663146928
 20
10.7791028578
 10
274.4448529743
 20
10.3199824773
 10
275.0193471174
 20
10.0144219199
 10
275.674918297
 20
9.870335198
 10
276.3945874245
 20
9.8914544505
 10
277.1597154677
 20
10.0772326099
 10
277.9504858759
 20
10.4228580194
 10
278.7464182441
 20
10.9193787205
 10
279.5268983181
 20
11.5539357942
 10
280.2717120743
 20
12.3100944923
 10
280.9615690565
 20
13.1682699288
 10
281.57860287
 20
14.1062369232
 10
282.1068319566
 20
15.0997017066
 10
282.5325757126
 20
16.1229341602
 10
282.8448077982
 20
17.1494335671
 10
283.035441616
 20
18.1526140478
 10
283.0995397286
 20
19.1064936152
  0
LWPOLYLINE
  5
243
330
1F
100
AcDbEntity
  8
0
  6
Continuous
 62
     7
370
    18
100
AcDbPolyline
 90
       22
 70
   128
 43
0.0
 10
273.9402198667
 20
10.0227633638
 10
273.7047987662
 20
10.1948455064
 10
273.2376816222
 20
10.6920619148
 10
272.8774133245
 20
11.3243137689
 10
272.6324380603
 20
12.0767816113
 10
272.5084980082
 20
12.931828343
 10
272.5084980082
 20
13.8694121671
 10
272.6324380603
 20
14.8675570369
 10
272.8774133245
 20
15.902867299
 10
273.2376816222
 20
16.9510760756
 10
273.7047987662
 20
17.9876144587
 10
274.2678157957
 20
18.988186496
 10
274.9135358079
 20
19.9293397998
 10
275.6268239684
 20
20.7890146667
 10
276.3909613138
 20
21.5470612544
 10
277.1880372856
 20
22.1857110555
 10
277.9993689145
 20
22.6899945547
 10
278.8059393489
 20
23.0480924851
 10
279.5888432371
 20
23.2516108134
 10
280.3297298454
 20
23.2957795114
 10
281.0112338492
 20
23.1795632222
 10
281.5429262213
 20
22.9502672305
  0
LWPOLYLINE
  5
244
330
1F
100
AcDbEntity
  8
0
  6
Continuous
 62
     7
370
    18
100
AcDbPolyline
 90
       34
 70
   128
 43
0.0
 10
245.9764328997
 20
18.9023915538
 10
246.0388695045
 20
20.4519696167
 10
246.2256103365
 20
22.0596002092
 10
246.5349682045
 20
23.710726614
 10
246.9641377091
 20
25.3903937359
 10
247.5092347547
 20
27.0833919212
 10
248.1653215746
 20
28.7743884199
 10
248.9264574388
 20
30.4480695877
 10
249.7857493618
 20
32.0892781449
 10
250.7354146648
 20
33.683150814
 10
251.7668527565
 20
35.2152532955
 10
252.8707241585
 20
36.6717102993
 10
254.0370315069
 20
38.0393336754
 10
255.2552117475
 20
39.3057349536
 10
256.5142339308
 20
40.4594494797
 10
257.8026955231
 20
41.490025476
 10
259.1089282682
 20
42.3881307814
 10
260.4211025665
 20
43.14563288
 10
261.7273353116
 20
43.7556718003
 10
263.0157969039
 20
44.2127218934
 10
264.2748190872
 20
44.5126434386
 10
265.4929993278
 20
44.6527231285
 10
266.6593066762
 20
44.6316895538
 10
267.7631780782
 20
44.4497353423
 10
268.7946161699
 20
44.1085059329
 10
269.7442814729
 20
43.6110934838
 10
270.6035733959
 20
42.9620022632
 10
271.3647092601
 20
42.1671098586
 10
272.02079608
 20
41.2336150783
 10
272.5658931256
 20
40.1699725457
 10
272.9950626302
 20
38.9858139865
 10
273.3044204982
 20
37.6918645735
 10
273.4911613302
 20
36.2998403563
 10
273.5277382092
 20
35.7821182555
  0
LWPOLYLINE
  5
245
330
1F
100
AcDbEntity
  8
0
  6
Continuous
 62
     7
370
    18
100
AcDbPolyline
 90
       21
 70
   128
 43
0.0
 10
263.1364363309
 20
13.3693984531
 10
263.0157969039
 20
13.265292137
 10
261.7273353116
 20
12.2347161406
 10
260.4211025665
 20
11.3366108352
 10
259.1089282682
 20
10.5791087367
 10
257.8026955231
 20
9.9690698163
 10
256.5142339308
 20
9.5120197233
 10
255.2552117475
 20
9.2120981781
 10
254.0370315069
 20
9.0720184881
 10
252.8707241585
 20
9.0930520628
 10
251.7668527565
 20
9.2750062744
 10
250.7354146648
 20
9.6162356837
 10
249.7857493618
 20
10.1136481328
 10
248.9264574388
 20
10.7627393534
 10
248.1653215746
 20
11.557631758
 10
247.5092347547
 20
12.4911265383
 10
246.9641377091
 20
13.554769071
 10
246.5349682045
 20
14.7389276301
 10
246.2256103365
 20
16.0328770431
 10
246.0388695045
 20
17.4249012604
 10
245.9764328997
 20
18.9023915538
  0
LWPOLYLINE
  5
246
330
1F
100
AcDbEntity
  8
0
  6
Continuous
 62
     7
370
    18
100
AcDbPolyline
 90
       24
 70
   128
 43
0.0
 10
245.2693260026
 20
18.9023923142
 10
245.3314662624
 20
20.467507042
 10
245.517343084
 20
22.0906144662
 10
245.8253206427
 20
23.7574489318
 10
246.252694955
 20
25.4533642724
 10
246.7957083658
 20
27.1634548171
 10
247.4495890615
 20
28.8726935066
 10
248.2085919
 20
30.5660590763
 10
249.0660458254
 20
32.2286698933
 10
250.0144157713
 20
33.8459158912
 10
251.04536654
 20
35.4035828994
 10
252.1498398518
 20
36.8879845766
 10
253.318128102
 20
38.2860734312
 10
254.5399642525
 20
39.5855634375
 10
255.8046117229
 20
40.7750351614
 10
257.1009564223
 20
41.8440375585
 10
258.4176059421
 20
42.7831726142
 10
259.7429893673
 20
43.5841879442
 10
261.0654593916
 20
44.2400463908
 10
262.3733939804
 20
44.7449831913
 10
263.6552989389
 20
45.094559105
 10
264.8999088756
 20
45.2857050103
 10
266.0962860247
 20
45.3167394094
 10
266.3983057313
 20
45.2985029267
  0
ARC
  5
247
330
1F
100
AcDbEntity
  8
0
  6
Continuous
 62
     7
370
    18
100
AcDbCircle
 10
257.4697273646
 20
18.3754780722
 30
0.0
 40
12.2117743187555
100
AcDbArc
 50
177.527031125
 51
212.0507096469
  0
LWPOLYLINE
  5
248
330
1F
100
AcDbEntity
  8
0
  6
Continuous
 62
     7
370
    18
100
AcDbPolyline
 90
       24
 70
   128
 43
0.0
 10
206.965442944
 20
41.0147533291
 10
207.0275832038
 20
42.5798680569
 10
207.2134600254
 20
44.2029754811
 10
207.5214375841
 20
45.8698099467
 10
207.9488118964
 20
47.5657252872
 10
208.4918253072
 20
49.275815832
 10
209.1457060029
 20
50.9850545215
 10
209.9047088414
 20
52.6784200912
 10
210.7621627668
 20
54.3410309082
 10
211.7105327127
 20
55.9582769061
 10
212.7414834814
 20
57.5159439143
 10
213.8459567932
 20
59.0003455915
 10
215.0142450434
 20
60.3984344461
 10
216.2360811939
 20
61.6979244524
 10
217.5007286643
 20
62.8873961762
 10
218.7970733637
 20
63.9563985734
 10
220.1137228835
 20
64.8955336291
 10
221.4391063087
 20
65.6965489591
 10
222.761576333
 20
66.3524074057
 10
224.0695109218
 20
66.8573442061
 10
225.3514158803
 20
67.2069201199
 10
226.596025817
 20
67.3980660252
 10
227.7924029661
 20
67.4291004243
 10
228.0944226727
 20
67.4108639416
  0
ARC
  5
249
330
1F
100
AcDbEntity
  8
0
  6
Continuous
 62
     7
370
    18
100
AcDbCircle
 10
219.165844306
 20
40.4878390871
 30
0.0
 40
12.21177431875575
100
AcDbArc
 50
177.527031125
 51
212.0507096469
  0
LWPOLYLINE
  5
24A
330
1F
100
AcDbEntity
  8
0
  6
Continuous
 62
     7
370
    18
100
AcDbPolyline
 90
       24
 70
   128
 43
0.0
 10
262.5934462984
 20
17.4736756033
 10
262.656013295
 20
18.5660582306
 10
262.8425499782
 20
19.7103308178
 10
263.14958055
 20
20.8851772508
 10
263.5713855513
 20
22.0687120393
 10
264.1001088755
 20
23.2388895308
 10
264.7259000139
 20
24.3739102699
 10
265.43710207
 20
25.45263106
 10
266.220467104
 20
26.4549579121
 10
267.0614019343
 20
27.3622191244
 10
267.9442417626
 20
28.1575144989
 10
268.8525411274
 20
28.8260277927
 10
269.76937988
 20
29.3553075386
 10
270.6776792448
 20
29.7354943691
 10
271.5605190731
 20
29.9595041639
 10
272.4014539034
 20
30.0231656399
 10
273.1848189374
 20
29.9252928042
 10
273.8960209935
 20
29.6677084298
 10
274.5218121319
 20
29.2552107597
 10
275.0505354561
 20
28.6954842245
 10
275.4723404574
 20
27.9989551244
 10
275.7793710292
 20
27.178598644
 10
275.9659077124
 20
26.2496967269
 10
275.9763686919
 20
26.1637753208
  0
LWPOLYLINE
  5
24B
330
1F
100
AcDbEntity
  8
0
  6
Continuous
 62
     7
370
    18
100
AcDbPolyline
 90
       12
 70
   128
 43
0.0
 10
268.4769780924
 20
13.1730421981
 10
267.9442417626
 20
12.9677336504
 10
267.0614019343
 20
12.7437238555
 10
266.220467104
 20
12.6800623795
 10
265.43710207
 20
12.7779352152
 10
264.7259000139
 20
13.0355195897
 10
264.1001088755
 20
13.4480172598
 10
263.5713855513
 20
14.007743795
 10
263.14958055
 20
14.7042728951
 10
262.8425499782
 20
15.5246293754
 10
262.656013295
 20
16.4535312926
 10
262.5934462984
 20
17.4736756033
  0
LWPOLYLINE
  5
24C
330
1F
100
AcDbEntity
  8
0
  6
Continuous
 62
     7
370
    18
100
AcDbPolyline
 90
       19
 70
   128
 43
0.0
 10
261.8863387428
 20
17.4736759834
 10
261.9494305994
 20
18.5984404973
 10
262.1375793995
 20
19.7759773862
 10
262.4474285418
 20
20.9852740446
 10
262.873448228
 20
22.2047500051
 10
263.4080368788
 20
23.4126445749
 10
264.0416535016
 20
24.5874014274
 10
264.762992204
 20
25.7080583232
 10
265.5591800874
 20
26.7546161061
 10
266.4160097126
 20
27.7084002813
 10
267.3181903346
 20
28.5523889414
 10
268.2496230097
 20
29.2715217742
 10
269.1936859716
 20
29.8529659474
 10
270.1335325612
 20
30.2863458962
 10
271.0523910698
 20
30.5639270645
 10
271.9338645829
 20
30.6807570625
 10
272.7622233534
 20
30.634750038
 10
273.522684868
 20
30.4267274423
 10
273.9954335554
 20
30.1936742111
  0
LWPOLYLINE
  5
24D
330
1F
100
AcDbEntity
  8
0
  6
Continuous
 62
     7
370
    18
100
AcDbPolyline
 90
        7
 70
   128
 43
0.0
 10
263.8027272979
 20
12.9904908024
 10
263.4080368788
 20
13.2916226629
 10
262.873448228
 20
13.8822943143
 10
262.4474285418
 20
14.6098984149
 10
262.1375793995
 20
15.4614508684
 10
261.9494305994
 20
16.4217557766
 10
261.8863387428
 20
17.4736759834
  0
LWPOLYLINE
  5
24E
330
1F
100
AcDbEntity
  8
0
  6
Continuous
 62
     7
370
    18
100
AcDbPolyline
 90
       13
 70
   128
 43
0.0
 10
265.245096504
 20
19.0044406837
 10
265.3104366315
 20
19.8805049137
 10
265.5043569157
 20
20.8038517868
 10
265.820624562
 20
21.744804253
 10
266.2490742774
 20
22.673119277
 10
266.7759357317
 20
23.5589597732
 10
267.3842749467
 20
24.3738547444
 10
268.0545394066
 20
25.0916120711
 10
268.7651863097
 20
25.6891629467
 10
269.4933748011
 20
26.1473014218
 10
270.2157003943
 20
26.4513026752
 10
270.9089469051
 20
26.5913954993
 10
271.3285905634
 20
26.5926021413
  0
ARC
  5
24F
330
1F
100
AcDbEntity
  8
0
  6
Continuous
 62
     7
370
    18
100
AcDbCircle
 10
268.7629273963
 20
18.8562559344
 30
0.0
 40
3.520950568698337
100
AcDbArc
 50
177.5879044528
 51
212.1337778826
  0
LWPOLYLINE
  5
250
330
1F
100
AcDbEntity
  8
0
  6
Continuous
 62
     7
370
    18
100
AcDbPolyline
 90
        3
 70
   128
 43
0.0
 10
252.529289246
 20
23.4120217226
 10
252.5715335591
 20
23.8954106058
 10
252.7082559601
 20
24.8165256591
  0
LWPOLYLINE
  5
251
330
1F
100
AcDbEntity
  8
0
  6
Continuous
 62
     7
370
    18
100
AcDbPolyline
 90
        9
 70
   128
 43
0.0
 10
259.7302541892
 20
35.2230366277
 10
259.9365883229
 20
35.3376077823
 10
260.8921070165
 20
35.7782137355
 10
261.8262877155
 20
36.0604242098
 10
262.7224601066
 20
36.17920199
 10
263.5646315189
 20
36.1324273129
 10
264.3377739665
 20
35.920936577
 10
265.0280902835
 20
35.5485018321
 10
265.6134820212
 20
35.0325346189
  0
ARC
  5
252
330
1F
100
AcDbEntity
  8
0
  6
Continuous
 62
     7
370
    18
100
AcDbCircle
 10
256.3470943898
 20
21.1008375394
 30
0.0
 40
3.467131636058506
100
AcDbArc
 50
221.3294503025
 51
257.8022683589
  0
LWPOLYLINE
  5
253
330
1F
100
AcDbEntity
  8
0
  6
Continuous
 62
     7
370
    18
100
AcDbPolyline
 90
       15
 70
   128
 43
0.0
 10
252.9671008302
 20
23.1592788918
 10
253.0211027969
 20
23.8752049119
 10
253.2059588745
 20
25.0321348963
 10
253.5103862198
 20
26.2202691416
 10
253.9289505237
 20
27.4184041711
 10
254.454183562
 20
28.6051604614
 10
255.0767119416
 20
29.75935905
 10
255.7854273336
 20
30.860404222
 10
256.5676820616
 20
31.8886477536
 10
257.4095169576
 20
32.8257398445
 10
258.2959094689
 20
33.6549594204
 10
259.2110419327
 20
34.3615074088
 10
260.1385838445
 20
34.9327761545
 10
261.0619830998
 20
35.358571542
 10
261.8698929108
 20
35.6096573295
  0
LWPOLYLINE
  5
254
330
1F
100
AcDbEntity
  8
0
  6
Continuous
 62
     7
370
    18
100
AcDbPolyline
 90
       15
 70
   128
 43
0.0
 10
253.2198186022
 20
23.0133880274
 10
253.273820569
 20
23.7293140475
 10
253.4586766465
 20
24.8862440318
 10
253.7631039919
 20
26.0743782772
 10
254.1816682957
 20
27.2725133067
 10
254.706901334
 20
28.459269597
 10
255.3294297136
 20
29.6134681856
 10
256.0381451056
 20
30.7145133576
 10
256.8203998336
 20
31.7427568892
 10
257.6622347296
 20
32.6798489801
 10
258.5486272409
 20
33.5090685559
 10
259.4637597047
 20
34.2156165444
 10
260.3913016165
 20
34.7868852901
 10
261.3147008718
 20
35.2126806776
 10
262.1226106828
 20
35.4637664651
  0
LWPOLYLINE
  5
255
330
1F
100
AcDbEntity
  8
0
  6
Continuous
 62
     7
370
    18
100
AcDbPolyline
 90
       22
 70
   128
 43
0.0
 10
203.5323496666
 20
48.7114920914
 10
203.5945057314
 20
49.9797038539
 10
203.7801316475
 20
51.3025280803
 10
204.0867190189
 20
52.6620771126
 10
204.5101196736
 20
54.0399638228
 10
205.0446095428
 20
55.4175556961
 10
205.682960442
 20
56.7762232104
 10
206.4165381941
 20
58.0975924915
 10
207.2354244603
 20
59.3637939722
 10
208.1285438391
 20
60.5577045884
 10
209.0838189535
 20
61.6631787549
 10
210.0883313005
 20
62.6652674588
 10
211.1284965886
 20
63.5504191001
 10
212.1902481836
 20
64.3066621996
 10
213.2592278397
 20
64.9237710196
 10
214.3209794348
 20
65.3934002182
 10
215.3611447229
 20
65.7091978556
 10
216.3656570698
 20
65.8668944209
 10
217.3209321842
 20
65.8643574247
 10
218.214051563
 20
65.7016204941
 10
219.0329378293
 20
65.3808849716
 10
219.0637419072
 20
65.3649519045
  0
LWPOLYLINE
  5
256
330
1F
100
AcDbEntity
  8
0
  6
Continuous
 62
     7
370
    18
100
AcDbPolyline
 90
        8
 70
   128
 43
0.0
 10
206.0742623202
 20
42.8508303359
 10
205.682960442
 20
43.1298033205
 10
205.0446095428
 20
43.7514465747
 10
204.5101196736
 20
44.5119295804
 10
204.0867190189
 20
45.4009683001
 10
203.7801316475
 20
46.4065390882
 10
203.5945057314
 20
47.5150441938
 10
203.5323496666
 20
48.7114920914
  0
LINE
  5
257
330
1F
100
AcDbEntity
  8
0
  6
Continuous
 62
     7
370
    18
100
AcDbLine
 10
201.9200483186
 20
51.8633679531
 30
0.0
 11
201.9848148539
 21
52.1379847979
 31
0.0
  0
ARC
  5
258
330
1F
100
AcDbEntity
  8
0
  6
Continuous
 62
     7
370
    18
100
AcDbCircle
 10
217.0672428365
 20
60.4779612076
 30
0.0
 40
7.816778047753774
100
AcDbArc
 50
72.7194728121
 51
118.6609547535
  0
LWPOLYLINE
  5
259
330
1F
100
AcDbEntity
  8
0
  6
Continuous
 62
     7
370
    18
100
AcDbPolyline
 90
       19
 70
   128
 43
0.0
 10
201.4863658085
 20
51.8579303866
 10
201.8960463469
 20
53.4138598574
 10
202.4276405959
 20
54.9808464261
 10
203.0748337722
 20
56.5402764547
 10
203.8299373687
 20
58.0736254085
 10
204.6839826677
 20
59.5626791415
 10
205.6268234739
 20
60.9897483379
 10
206.6472605796
 20
62.3378818097
 10
207.7331718265
 20
63.5910647756
 10
208.871657645
 20
64.7344108638
 10
210.0491943297
 20
65.7543388109
 10
211.2517939835
 20
66.6387309549
 10
212.4651708829
 20
67.3770847903
 10
213.6749113818
 20
67.9606270208
 10
214.8666451336
 20
68.3824268529
 10
216.0262155716
 20
68.6374731189
 10
217.1398482496
 20
68.7227364764
 10
218.1943143256
 20
68.6372044697
 10
219.1770879537
 20
68.3818925416
  0
LWPOLYLINE
  5
25A
330
1F
100
AcDbEntity
  8
0
  6
Continuous
 62
     7
370
    18
100
AcDbPolyline
 90
       21
 70
   128
 43
0.0
 10
203.0373751021
 20
51.1449226394
 10
203.3385755793
 20
52.5739714513
 10
203.7658787688
 20
54.0260310643
 10
204.3133195743
 20
55.4808307592
 10
204.9732542697
 20
56.9180585288
 10
205.736470476
 20
58.317651565
 10
206.5923136014
 20
59.6600688724
 10
207.5288336975
 20
60.9265699643
 10
208.5329573386
 20
62.0994722632
 10
209.5906657585
 20
63.1624029879
 10
210.6871927429
 20
64.1005206191
 10
211.8072295193
 20
64.9007297586
 10
212.9351396069
 20
65.5518583925
 10
214.0551763834
 20
66.0448161892
 10
215.1517033678
 20
66.3727216663
 10
216.2094117877
 20
66.5309950891
 10
217.2135354288
 20
66.5174292689
 10
218.1500555249
 20
66.3322112642
 10
219.0058986503
 20
65.9779293965
 10
219.7691148566
 20
65.4595270354
 10
220.1580881215
 20
65.0937820313
  0
ARC
  5
25B
330
1F
100
AcDbEntity
  8
0
  6
Continuous
 62
     7
370
    18
100
AcDbCircle
 10
217.1746919948
 20
62.7421302508
 30
0.0
 40
5.679162847636326
100
AcDbArc
 50
35.2851185315
 51
51.0653948038
  0
ARC
  5
25C
330
1F
100
AcDbEntity
  8
0
  6
Continuous
 62
     7
370
    18
100
AcDbCircle
 10
208.3950107663
 20
47.2196466752
 30
0.0
 40
5.402739892553535
100
AcDbArc
 50
187.4086969575
 51
253.3916223936
  0
LWPOLYLINE
  5
25D
330
1F
100
AcDbEntity
  8
0
  6
Continuous
 62
     7
370
    18
100
AcDbPolyline
 90
       24
 70
   128
 43
0.0
 10
192.1656082262
 20
53.028249956
 10
192.2287007414
 20
54.4316617615
 10
192.4172650831
 20
55.8920183728
 10
192.7291636158
 20
57.3927726983
 10
193.1608625899
 20
58.9169207391
 10
193.7074709951
 20
60.4471937924
 10
194.3627952205
 20
61.9662519844
 10
195.1194108351
 20
63.4568855957
 10
195.9687435896
 20
64.9022032686
 10
196.9011721486
 20
66.2858300982
 10
197.9061301656
 20
67.5920889927
 10
198.9722317352
 20
68.8061788003
 10
200.0873978342
 20
69.9143446413
 10
201.2389923104
 20
70.9040294172
 10
202.4139678331
 20
71.7640204238
 10
203.5990111431
 20
72.4845727467
 10
204.7806953822
 20
73.0575230548
 10
205.9456314763
 20
73.4763792731
 10
207.0806202588
 20
73.7363954744
 10
208.1728021666
 20
73.8346255963
 10
209.2098016666
 20
73.7699573873
 10
210.1798699955
 20
73.5431225646
 10
211.0720147285
 20
73.1566910032
 10
211.1769004537
 20
73.0977335002
  0
LWPOLYLINE
  5
25E
330
1F
100
AcDbEntity
  8
0
  6
Continuous
 62
     7
370
    18
100
AcDbPolyline
 90
        9
 70
   128
 43
0.0
 10
195.4281799644
 20
45.8171943798
 10
195.1194108351
 20
46.0100022164
 10
194.3627952205
 20
46.6270660335
 10
193.7074709951
 20
47.38950298
 10
193.1608625899
 20
48.2886754019
 10
192.7291636158
 20
49.3143944167
 10
192.4172650831
 20
50.4550383614
 10
192.2287007414
 20
51.6976832179
 10
192.1656082262
 20
53.028249956
  0
LWPOLYLINE
  5
25F
330
1F
100
AcDbEntity
  8
0
  6
Continuous
 62
     7
370
    18
100
AcDbPolyline
 90
       14
 70
   128
 43
0.0
 10
199.834181688
 20
53.7901500378
 10
200.2131529789
 20
55.2488248899
 10
200.7151647501
 20
56.7188023636
 10
201.3333187478
 20
58.1798848315
 10
202.059122382
 20
59.6119961099
 10
202.8826019962
 20
60.9954593967
 10
203.7924437957
 20
62.3112664627
 10
204.7761459716
 20
63.5413369548
 10
205.8201925563
 20
64.6687700931
 10
206.9102383104
 20
65.6780745982
 10
208.0313056266
 20
66.555383504
 10
209.1679911491
 20
67.2886403562
 10
210.3046766715
 20
67.8677726732
 10
210.9802447197
 20
68.1378904359
  0
LWPOLYLINE
  5
260
330
1F
100
AcDbEntity
  8
0
  6
Continuous
 62
     7
370
    18
100
AcDbPolyline
 90
       17
 70
   128
 43
0.0
 10
199.4083635164
 20
54.4382950252
 10
199.8255139252
 20
55.884487479
 10
200.3572161755
 20
57.3351076257
 10
200.9967485035
 20
58.7718144916
 10
201.7360233242
 20
60.1764406165
 10
202.5656932568
 20
61.5312262669
 10
203.4752680165
 20
62.8190416695
 10
204.4532464528
 20
64.0236031611
 10
205.4872634047
 20
65.1296796402
 10
206.5642436357
 20
66.1232856149
 10
207.6705700917
 20
66.9918574248
 10
208.7922540114
 20
67.7244138011
 10
209.9151124453
 20
68.3116902859
 10
211.0249478733
 20
68.7462634557
 10
212.107726918
 20
69.0226365994
 10
213.1497590151
 20
69.1373154865
 10
213.2996407817
 20
69.140436621
  0
LINE
  5
261
330
1F
100
AcDbEntity
  8
0
  6
Continuous
 62
     7
370
    18
100
AcDbLine
 10
193.8152449114
 20
52.4906865258
 30
0.0
 11
195.6127539997
 21
53.5283664349
 31
0.0
  0
ARC
  5
262
330
1F
100
AcDbEntity
  8
0
  6
Continuous
 62
     7
370
    18
100
AcDbCircle
 10
207.5616743414
 20
45.9183963454
 30
0.0
 40
5.813679250458122
100
AcDbArc
 50
193.9739900696
 51
262.7344039851
  0
LWPOLYLINE
  5
263
330
1F
100
AcDbEntity
  8
0
  6
Continuous
 62
     7
370
    18
100
AcDbPolyline
 90
       16
 70
   128
 43
0.0
 10
184.9460491374
 20
65.2760588038
 10
185.4219101061
 20
66.6120508733
 10
186.0116986162
 20
67.9345819456
 10
186.7056754529
 20
69.2218132005
 10
187.4923812832
 20
70.4524881141
 10
188.3588249996
 20
71.6062849147
 10
189.2906987349
 20
72.6641505966
 10
190.2726144442
 20
73.6086169649
 10
191.2883580208
 20
74.4240872591
 10
192.3211562538
 20
75.0970967285
 10
193.3539544868
 20
75.6165307171
 10
194.3696980634
 20
75.9738129937
 10
195.3516137727
 20
76.1630423719
 10
196.283487508
 20
76.1810952032
 10
197.1499312244
 20
76.027673024
 10
197.8102241681
 20
75.771275376
  0
ARC
  5
264
330
1F
100
AcDbEntity
  8
0
  6
Continuous
 62
     7
370
    18
100
AcDbCircle
 10
188.8373055995
 20
59.601884952
 30
0.0
 40
4.287114122711666
100
AcDbArc
 50
204.8155819511
 51
235.815128571
  0
LINE
  5
265
330
1F
100
AcDbEntity
  8
0
  6
Continuous
 62
     7
370
    18
100
AcDbLine
 10
193.8152449114
 20
51.6741456752
 30
0.0
 11
195.6127539997
 21
52.7118255842
 31
0.0
  0
LINE
  5
266
330
1F
100
AcDbEntity
  8
0
  6
Continuous
 62
     7
370
    18
100
AcDbLine
 10
197.1023036392
 20
47.0399286153
 30
0.0
 11
198.4411812588
 21
47.8128462131
 31
0.0
  0
LINE
  5
267
330
1F
100
AcDbEntity
  8
0
  6
Continuous
 62
     7
370
    18
100
AcDbLine
 10
200.8561103969
 20
46.4324727794
 30
0.0
 11
200.6190699355
 21
47.1229789769
 31
0.0
  0
LWPOLYLINE
  5
268
330
1F
100
AcDbEntity
  8
0
  6
Continuous
 62
     7
370
    18
100
AcDbPolyline
 90
        3
 70
   128
 43
0.0
 10
200.4522711483
 20
46.087132615
 10
200.2131529789
 20
46.5549614044
 10
199.834181688
 20
47.5760853175
  0
LWPOLYLINE
  5
269
330
1F
100
AcDbEntity
  8
0
  6
Continuous
 62
     7
370
    18
100
AcDbPolyline
 90
        3
 70
   128
 43
0.0
 10
200.1772517665
 20
45.5379750872
 10
199.8362356883
 20
46.1045994687
 10
199.4083635164
 20
47.0894280346
  0
LINE
  5
26A
330
1F
100
AcDbEntity
  8
0
  6
Continuous
 62
     7
370
    18
100
AcDbLine
 10
216.1557298736
 20
70.1257796485
 30
0.0
 11
215.6147408286
 21
69.8134733204
 31
0.0
  0
ARC
  5
26B
330
1F
100
AcDbEntity
  8
0
  6
Continuous
 62
     7
370
    18
100
AcDbCircle
 10
188.7084882104
 20
63.7799678352
 30
0.0
 40
1.102097410650232
100
AcDbArc
 50
159.4112025223
 51
213.191486534
  0
ARC
  5
26C
330
1F
100
AcDbEntity
  8
0
  6
Continuous
 62
     7
370
    18
100
AcDbCircle
 10
187.3766635531
 20
63.6084700501
 30
0.0
 40
0.6345234148784297
100
AcDbArc
 50
41.9991509505
 51
61.7717641965
  0
LINE
  5
26D
330
1F
100
AcDbEntity
  8
0
  6
Continuous
 62
     7
370
    18
100
AcDbLine
 10
187.6767836236
 20
64.1675298925
 30
0.0
 11
187.7863305269
 21
64.5783277509
 31
0.0
  0
LINE
  5
26E
330
1F
100
AcDbEntity
  8
0
  6
Continuous
 62
     7
370
    18
100
AcDbLine
 10
187.6767836236
 20
64.1675298925
 30
0.0
 11
186.8747389746
 21
64.6305404129
 31
0.0
  0
LINE
  5
26F
330
1F
100
AcDbEntity
  8
0
  6
Continuous
 62
     7
370
    18
100
AcDbLine
 10
185.0005074755
 20
65.7920007283
 30
0.0
 11
184.9842710606
 21
65.987139357
 31
0.0
  0
ARC
  5
270
330
1F
100
AcDbEntity
  8
0
  6
Continuous
 62
     7
370
    18
100
AcDbCircle
 10
187.4668199725
 20
55.5149080839
 30
0.0
 40
0.4314949854783575
100
AcDbArc
 50
27.885175929
 51
60.8829215863
  0
ARC
  5
271
330
1F
100
AcDbEntity
  8
0
  6
Continuous
 62
     7
370
    18
100
AcDbCircle
 10
188.9165186627
 20
56.2869688166
 30
0.0
 40
1.301169858631156
100
AcDbArc
 50
165.9701496118
 51
197.6767200265
  0
LINE
  5
272
330
1F
100
AcDbEntity
  8
0
  6
Continuous
 62
     7
370
    18
100
AcDbLine
 10
187.2850122031
 20
58.8007394918
 30
0.0
 11
185.964281436
 21
59.5631811346
 31
0.0
  0
LINE
  5
273
330
1F
100
AcDbEntity
  8
0
  6
Continuous
 62
     7
370
    18
100
AcDbLine
 10
187.6767836236
 20
55.8918738485
 30
0.0
 11
186.8747389746
 21
56.3548843689
 31
0.0
  0
LINE
  5
274
330
1F
100
AcDbEntity
  8
0
  6
Continuous
 62
     7
370
    18
100
AcDbLine
 10
187.6767836236
 20
55.8918738485
 30
0.0
 11
187.7863305269
 21
55.6075561524
 31
0.0
  0
OLE2FRAME
  5
275
330
1F
100
AcDbEntity
  8
0
100
AcDbOle2Frame
 70
     2
  3
Paintbrush-Bild
 10
13.8511154363
 20
38.264191557
 30
0.0
 11
51.6290888628
 21
31.9806341108
 31
0.0
 71
     2
 72
     0
 73
     1
 90
    12928
310
80552BED0767C5B32B40DDAF6807D121434000000000000000006FFBDDFB85D0
310
4940DDAF6807D121434000000000000000006FFBDDFB85D04940416F4BD60AFB
310
3F4000000000000000002BED0767C5B32B40416F4BD60AFB3F40000000000000
310
0000000000000100000000010000010000000100000000000100000000320000
310
D0CF11E0A1B11AE1000000000000000000000000000000003E000300FEFF0900
310
0600000000000000000000000100000001000000000000000010000002000000
310
01000000FEFFFFFF0000000000000000FFFFFFFFFFFFFFFFFFFFFFFFFFFFFFFF
310
FFFFFFFFFFFFFFFFFFFFFFFFFFFFFFFFFFFFFFFFFFFFFFFFFFFFFFFFFFFFFFFF
310
FFFFFFFFFFFFFFFFFFFFFFFFFFFFFFFFFFFFFFFFFFFFFFFFFFFFFFFFFFFFFFFF
310
FFFFFFFFFFFFFFFFFFFFFFFFFFFFFFFFFFFFFFFFFFFFFFFFFFFFFFFFFFFFFFFF
310
FFFFFFFFFFFFFFFFFFFFFFFFFFFFFFFFFFFFFFFFFFFFFFFFFFFFFFFFFFFFFFFF
310
FFFFFFFFFFFFFFFFFFFFFFFFFFFFFFFFFFFFFFFFFFFFFFFFFFFFFFFFFFFFFFFF
310
FFFFFFFFFFFFFFFFFFFFFFFFFFFFFFFFFFFFFFFFFFFFFFFFFFFFFFFFFFFFFFFF
310
FFFFFFFFFFFFFFFFFFFFFFFFFFFFFFFFFFFFFFFFFFFFFFFFFFFFFFFFFFFFFFFF
310
FFFFFFFFFFFFFFFFFFFFFFFFFFFFFFFFFFFFFFFFFFFFFFFFFFFFFFFFFFFFFFFF
310
FFFFFFFFFFFFFFFFFFFFFFFFFFFFFFFFFFFFFFFFFFFFFFFFFFFFFFFFFFFFFFFF
310
FFFFFFFFFFFFFFFFFFFFFFFFFFFFFFFFFFFFFFFFFFFFFFFFFFFFFFFFFFFFFFFF
310
FFFFFFFFFFFFFFFFFFFFFFFFFFFFFFFFFFFFFFFFFFFFFFFFFFFFFFFFFFFFFFFF
310
FFFFFFFFFFFFFFFFFFFFFFFFFFFFFFFFFFFFFFFFFFFFFFFFFFFFFFFFFFFFFFFF
310
FFFFFFFFFFFFFFFFFFFFFFFFFFFFFFFFFFFFFFFFFFFFFFFFFFFFFFFFFFFFFFFF
310
FDFFFFFFFEFFFFFFFEFFFFFFFEFFFFFF05000000060000000700000008000000
310
090000000A0000000B0000000C0000000D0000000E0000000F00000010000000
310
11000000120000001300000014000000150000001600000017000000FEFFFFFF
310
FFFFFFFFFFFFFFFFFFFFFFFFFFFFFFFFFFFFFFFFFFFFFFFFFFFFFFFFFFFFFFFF
310
FFFFFFFFFFFFFFFFFFFFFFFFFFFFFFFFFFFFFFFFFFFFFFFFFFFFFFFFFFFFFFFF
310
FFFFFFFFFFFFFFFFFFFFFFFFFFFFFFFFFFFFFFFFFFFFFFFFFFFFFFFFFFFFFFFF
310
FFFFFFFFFFFFFFFFFFFFFFFFFFFFFFFFFFFFFFFFFFFFFFFFFFFFFFFFFFFFFFFF
310
FFFFFFFFFFFFFFFFFFFFFFFFFFFFFFFFFFFFFFFFFFFFFFFFFFFFFFFFFFFFFFFF
310
FFFFFFFFFFFFFFFFFFFFFFFFFFFFFFFFFFFFFFFFFFFFFFFFFFFFFFFFFFFFFFFF
310
FFFFFFFFFFFFFFFFFFFFFFFFFFFFFFFFFFFFFFFFFFFFFFFFFFFFFFFFFFFFFFFF
310
FFFFFFFFFFFFFFFFFFFFFFFFFFFFFFFFFFFFFFFFFFFFFFFFFFFFFFFFFFFFFFFF
310
FFFFFFFFFFFFFFFFFFFFFFFFFFFFFFFFFFFFFFFFFFFFFFFFFFFFFFFFFFFFFFFF
310
FFFFFFFFFFFFFFFFFFFFFFFFFFFFFFFFFFFFFFFFFFFFFFFFFFFFFFFFFFFFFFFF
310
FFFFFFFFFFFFFFFFFFFFFFFFFFFFFFFFFFFFFFFFFFFFFFFFFFFFFFFFFFFFFFFF
310
FFFFFFFFFFFFFFFFFFFFFFFFFFFFFFFFFFFFFFFFFFFFFFFFFFFFFFFFFFFFFFFF
310
FFFFFFFFFFFFFFFFFFFFFFFFFFFFFFFFFFFFFFFFFFFFFFFFFFFFFFFFFFFFFFFF
310
52006F006F007400200045006E00740072007900000000000000000000000000
310
0000000000000000000000000000000000000000000000000000000000000000
310
16000500FFFFFFFFFFFFFFFF020000000A00030000000000C000000000000046
310
00000000000000000000000050DE46A953A9D30103000000C000000000000000
310
01004F006C006500000000000000000000000000000000000000000000000000
310
0000000000000000000000000000000000000000000000000000000000000000
310
0A000200FFFFFFFFFFFFFFFFFFFFFFFF00000000000000000000000000000000
310
0000000000000000000000000000000000000000000000001400000000000000
310
010043006F006D0070004F0062006A0000000000000000000000000000000000
310
0000000000000000000000000000000000000000000000000000000000000000
310
120002010100000003000000FFFFFFFF00000000000000000000000000000000
310
0000000000000000000000000000000000000000010000004D00000000000000
310
01004F006C006500310030004E00610074006900760065000000000000000000
310
0000000000000000000000000000000000000000000000000000000000000000
310
1A000200FFFFFFFFFFFFFFFFFFFFFFFF00000000000000000000000000000000
310
0000000000000000000000000000000000000000040000002426000000000000
310
FEFFFFFF02000000FEFFFFFFFFFFFFFFFFFFFFFFFFFFFFFFFFFFFFFFFFFFFFFF
310
FFFFFFFFFFFFFFFFFFFFFFFFFFFFFFFFFFFFFFFFFFFFFFFFFFFFFFFFFFFFFFFF
310
FFFFFFFFFFFFFFFFFFFFFFFFFFFFFFFFFFFFFFFFFFFFFFFFFFFFFFFFFFFFFFFF
310
FFFFFFFFFFFFFFFFFFFFFFFFFFFFFFFFFFFFFFFFFFFFFFFFFFFFFFFFFFFFFFFF
310
FFFFFFFFFFFFFFFFFFFFFFFFFFFFFFFFFFFFFFFFFFFFFFFFFFFFFFFFFFFFFFFF
310
FFFFFFFFFFFFFFFFFFFFFFFFFFFFFFFFFFFFFFFFFFFFFFFFFFFFFFFFFFFFFFFF
310
FFFFFFFFFFFFFFFFFFFFFFFFFFFFFFFFFFFFFFFFFFFFFFFFFFFFFFFFFFFFFFFF
310
FFFFFFFFFFFFFFFFFFFFFFFFFFFFFFFFFFFFFFFFFFFFFFFFFFFFFFFFFFFFFFFF
310
FFFFFFFFFFFFFFFFFFFFFFFFFFFFFFFFFFFFFFFFFFFFFFFFFFFFFFFFFFFFFFFF
310
FFFFFFFFFFFFFFFFFFFFFFFFFFFFFFFFFFFFFFFFFFFFFFFFFFFFFFFFFFFFFFFF
310
FFFFFFFFFFFFFFFFFFFFFFFFFFFFFFFFFFFFFFFFFFFFFFFFFFFFFFFFFFFFFFFF
310
FFFFFFFFFFFFFFFFFFFFFFFFFFFFFFFFFFFFFFFFFFFFFFFFFFFFFFFFFFFFFFFF
310
FFFFFFFFFFFFFFFFFFFFFFFFFFFFFFFFFFFFFFFFFFFFFFFFFFFFFFFFFFFFFFFF
310
FFFFFFFFFFFFFFFFFFFFFFFFFFFFFFFFFFFFFFFFFFFFFFFFFFFFFFFFFFFFFFFF
310
FFFFFFFFFFFFFFFFFFFFFFFFFFFFFFFFFFFFFFFFFFFFFFFFFFFFFFFFFFFFFFFF
310
FFFFFFFFFFFFFFFFFFFFFFFFFFFFFFFFFFFFFFFFFFFFFFFFFFFFFFFFFFFFFFFF
310
0100000200000000000000000000000000000000000000000000000000000000
310
0000000000000000000000000000000000000000000000000000000000000000
310
0100FEFF030A0000FFFFFFFF0A00030000000000C00000000000004607000000
310
5042727573680007000000504272757368000700000050427275736800F439B2
310
7100000000000000000000000000000000000000000000000000000000000000
310
0000000000000000000000000000000000000000000000000000000000000000
310
0000000000000000000000000000000000000000000000000000000000000000
310
0000000000000000000000000000000000000000000000000000000000000000
310
0000000000000000000000000000000000000000000000000000000000000000
310
0000000000000000000000000000000000000000000000000000000000000000
310
0000000000000000000000000000000000000000000000000000000000000000
310
0000000000000000000000000000000000000000000000000000000000000000
310
0000000000000000000000000000000000000000000000000000000000000000
310
0000000000000000000000000000000000000000000000000000000000000000
310
0000000000000000000000000000000000000000000000000000000000000000
310
0000000000000000000000000000000000000000000000000000000000000000
310
20260000424D0E260000000000003E00000028000000B40200006E0000000100
310
01000000000000000000130B0000130B00000200000002000000000000FFFFFF
310
FFFFFFFFFFFFFFFFFFFFFFFFFFFFFFFFFFFFFFFFFFFFFFFFFFFFFFFFFFFFFFFF
310
FFFFFFFFFFFFFFFFFFFFFFFFFFFFFFFFFFFFFFFFFFFFFFFFFFFFFFFFFFFFFFFF
310
FFFFFFFFFFFFFFFFFFFFFFFFFFFFFFFFFFFFFFFFFFFFFFFFF000FFFFFFFFFFFF
310
FFFFFFFFFFFFFFFFFFFFFFFFFFFFFFFFFFFFFFFFFFFFFFFFFFFFFFFFFFFFFFFF
310
FFFFFFFFFFFFFFFFFFFFFFFFFFFFFFFFFFFFFFFFFFFFFFFFFFFFFFFFFFFFFFFF
310
FFFFFFFFFFFFFFFFFFFFFFFFFFFFFFFFF000FFFFFFFFFFFFFFFFFFFFFFFFFFFF
310
FFFFFFFFFFFFFFFFFFFFFFFFFFFFFFFFFFFFFFFFFFFFFFFFFFFFFFFFFFFFFFFF
310
FFFFFFFFFFFFFFFFFFFFFFFFFFFFFFFFFFFFFFFFFFFFFFFFFFFFFFFFFFFFFFFF
310
FFFFFFFFFFFFFFFFF000FFFFFFFFFFFFFFFFFFFFFFFFFFFFFFFFFFFFFFFFFFFF
310
FFFFFFFFFFFFFFFFFFFFFFFFFFFFFFFFFFFFFFFFFFFFFFFFFFFFFFFFFFFFFFFF
310
FFFFFFFFFFFFFFFFFFFFFFFFFFFFFFFFFFFFFFFFFFFFFFFFFFFFFFFFFFFFFFFF
310
F000FFFFFFFFFFFFFFFFFFFFFFFFFFFFFFFFFFFFFFFFFFFFFFFFFFFFFFFFFFFF
310
FFFFFFFFFFFFFFFFFFFFFFFFFFFFFFFFFFFFFFFFFFFFFFFFFFFFFFFFFFFFFFFF
310
FFFFFFFFFFFFFFFFFFFFFFFFFFFFFFFFFFFFFFFFFFFFFFFFF000FFFFFFFFFFFF
310
FFFFFFFFFFFFFFFFFFFFFFFFFFFFFFFFFFFFFFFFFFFFFFFFFFFFFFFFFFFFFFFF
310
FFFFFFFFFFFFFFFFFFFFFFFFFFFFFFFFFFFFFFFFFFFFFFFFFFFFFFFFFFFFFFFF
310
FFFFFFFFFFFFFFFFFFFFFFFFFFFFFFFFF000FFFFFFFFFFFFFFFFFFFFFFFFFFFF
310
FFFFFFFFFFFFFFFFFFFFFFFFFFFFFFFFFFFFFFFFFFFFFFFFFFFFFFFFFFFFFFFF
310
FFFFFFFFFFFFFFFFFFFFFFFFFFFFFFFFFFFFFFFFFFFFFFFFFFFFFFFFFFFFFFFF
310
FFFFFFFFFFFFFFFFF000FFFFFFFFFFFFFFFFFFFFFFFFFFFFFFFFFFFFFFFFFFFF
310
FFFFFFFFFFFFFFFFFFFFFFFFFFFFFFFFFFFFFFFFFFFFFFFFFFFFFFFFFFFFFFFF
310
FFFFFFFFFFFFFFFFFFFFFFFFFFFFFFFFFFFFFFFFFFFFFFFFFFFFFFFFFFFFFFFF
310
F000FFFFFFFFFFFFFFFFFFFFFFFFFFFFFFFFFFFFFFFFFFFFFFFFFFFFFFFFFFFF
310
FFFFFFFFFFFFFFFFFFFFFFFFFFFFFFFFFFFFFFFFFFFFFFFFFFFFFFFFFFFFFFFF
310
FFFFFFFFFFFFFFFFFFFFFFFFFFFFFFFFFFFFFFFFFFFFFFFFF000FFFFFFFFFFFF
310
FFFFFFFFFFFFFFFFFFFFFFFFFFFFFFFFFFFFFFFFFFFFFFFFFFFFFFFFFFFFFFFF
310
FFFFFFFFFFFFFFFFFFFFFFFFFFFFFFFFFFFFFFFFFFFFFFFFFFFFFFFFFFFFFFFF
310
FFFFFFFFFFFFFFFFFFFFFFFFFFFFFFFFF000FFFFFFFFFFFFFFFFFFFFFFFFFFFF
310
FFFFFFFFFFFFFFFFFFFFFFFFFFFFFFFFFFFFFFFFFFFFFFFFFFFFFFFFFFFFFFFF
310
FFFFFFFFFFFFFFFFFFFFFFFFFFFFFFFFFFFFFFFFFFFFFFFFFFFFFFFFFFFFFFFF
310
FFFFFFFFFFFFFFFFF000FFFFFFFFFFFFFFFFFFFFFFFFFFFFFFFFFFFFFFFFFFFF
310
FFFFFFFFFFFFFFFFFFFFFFFFFFFFFFFFFFFFFFFFFFFFFFFFFFFFFFFFFFFFFFFF
310
FFFFFFFFFFFFFFFFFFFFFFFFFFFFFFFFFFFFFFFFFFFFFFFFFFFFFFFFFFFFFFFF
310
F000FFFFFFFFFFFFFFFFFFFFFFFFFFFFFFFFFFFFFFFFFFFFFFFFFFFFFFFFFFFF
310
FFFFFFFFFFFFFFFFFFFFFFFFFFFFFFFFFFFFFFFFFFFFFFFFFFFFFFFFFFFFFFFF
310
FFFFFFFFFFFFFFFFFFFFFFFFFFFFFFFFFFFFFFFFFFFFFFFFF000FFFFFFFFFFFF
310
FFFFFFFFFFFFFFFFFFFFFFFFFFFFFFFFFFFFFFFFFFFFFFFFFFFFFFFFFFFFFFFF
310
FFFFFFFFFFFFFFFFFFFFFFFFFFFFFFFFFFFFFFFFFFFFFFFFFFFFFFFFFFFFFFFF
310
FFFFFFFFFFFFFFFFFFFFFFFFFFFFFFFFF000FFFFFFFFFFFFFFFFFFFFFFFFFFFF
310
FFFFFFFFFFFFFFFFFFFFFFFFFFFFFFFFFFFFFFFFFFFFFFFFFFFFFFFFFFFFFFFF
310
FFFFFFFFFFFFFFFFFFFFFFFFFFFFFFFFFFFFFFFFFFFFFFFFFFFFFFFFFFFFFFFF
310
FFFFFFFFFFFFFFFFF000FFFFFFFFFFFFFFFFFFFFFFFFFFFFFFFFFFFFFFFFFFFF
310
FFFFFFFFFFFFFFFFFFFFFFFFFFFFFFFFFFFFFFFFFFFFFFFFFFFFFFFFFFFFFFFF
310
FFFFFFFFFFFFFFFFFFFFFFFFFFFFFFFFFFFFFFFFFFFFFFFFFFFFFFFFFFFFFFFF
310
F000FFFFFFFFFFFFFFFFFFFFFFFFFFFFFFFFFFFFFFFFFFFFFFFFFFFFFFFFFFFF
310
FFFFFFFFFFFFFFFFFFFFFFFFFFFFFFFFFFFFFFFFFFFFFFFFFFFFFFFFFFFFFFFF
310
FFFFFFFFFFFFFFFFFFFFFFFFFFFFFFFFFFFFFFFFFFFFFFFFF000FFFFFFFFFFFF
310
FFFFFFFFFFFFFFFFFFFFFFFFFFFFFFFFFFFFFFFFFFFFFFFFFFFFFFFFFFFFFFFF
310
FFFFFFFFFFFFFFFFFFFFFFFFFFFFFFFFFFFFFFFFFFFFFFFFFFFFFFFFFFFFFFFF
310
FFFFFFFFFFFFFFFFFFFFFFFFFFFFFFFFF000FFFFFFFFFFFFFFFFFFFFFFFFFFFF
310
FFFFFFFFFFFFFFFFFFFFFFFFFFFFFFFFFFFFFFFFFFFFFFFFFFFFFFFFFFFFFFFF
310
FFFFFFFFFFFFFFFFFFFFFFFFFFFFFFFFFFFFFFFFFFFFFFFFFFFFFFFFFFFFFFFF
310
FFFFFFFFFFFFFFFFF000FFFFF80003FFFFFFFFFFFFFFFFFFFFFFFFFFFFFFFFFF
310
FFFFF00007FFFFFFFFFF00007FFFFFF800000000000000007FFFFFFFFFFFFFFF
310
FFFFFFFC001FFFFFFFFFFFFFFC001FFFFFFFFFFFFFFFFFFFFFFFFFFE0007FFFF
310
F000FFFF8000007FFFFFFFF8000FFFFFC0007FFFFF80007FFFFF0000007FFFFF
310
FFF8000007FFFFF800000000000000007FFFFFF0001FFFFFFFFFFFC00001FFFF
310
FFFFFFFFC00001FFFFFFFF000000000003FFFFE000007FFFF000FFFE0000000F
310
FFFFFFF0000FFFFF80007FFFFF80007FFFFC0000001FFFFFFFC0000001FFFFF8
310
00000000000000007FFFFFF0001FFFFFFFFFFE0000003FFFFFFFFFFE0000003F
310
FFFFFF000000000003FFFF0000000FFFF000FFF800000003FFFFFFF00007FFFF
310
80007FFFFF80007FFFF000000007FFFFFF000000003FFFF80000000000000000
310
7FFFFFF0001FFFFFFFFFF80000000FFFFFFFFFF80000000FFFFFFF0000000000
310
03FFFC00000003FFF000FFE000000000FFFFFFF00007FFFF80003FFFFF80007F
310
FFC000000001FFFFFC000000001FFFF800000000000000007FFFFFF0001FFFFF
310
FFFFE000000003FFFFFFFFE000000003FFFFFF000000000003FFF000000000FF
310
F000FF80000000007FFFFFF00007FFFF80003FFFFF80007FFF8000000000FFFF
310
F80000000007FFF800000000000000007FFFFFF0001FFFFFFFFFC000000001FF
310
FFFFFFC000000001FFFFFF000000000003FFC0000000007FF000FF0000000000
310
3FFFFFE00007FFFF00003FFFFF80007FFE00000000003FFFF00000000003FFF8
310
00000000000000007FFFFFF0001FFFFFFFFF8000000000FFFFFFFF8000000000
310
FFFFFF000000000003FF80000000003FF000FE00000000001FFFFFE00003FFFF
310
00003FFFFF80007FFC00000000001FFFE00000000001FFF8000001FFFE000000
310
7FFFFFF0001FFFFFFFFE00000000003FFFFFFE00000000003FFFFF0000000000
310
03FF00000000001FF000FC00000000000FFFFFE00003FFFF00001FFFFF80007F
310
F800000000001FFFC00000000000FFF8000001FFFE0000007FFFFFF0001FFFFF
310
FFFC00000000001FFFFFFC00000000001FFFFF000000000003FE00000000000F
310
F000F8000000000007FFFFE00003FFFF00001FFFFF80007FF800000000000FFF
310
800000000000FFF8000001FFFE0000007FFFFFF0001FFFFFFFF800000000000F
310
FFFFF800000000000FFFFF000000000003FC000000000007F000F80000000000
310
03FFFFC00003FFFE00001FFFFF80007FF0000000000007FF0000000000007FF8
310
000001FFFE0000007FFFFFF0001FFFFFFFF0000000000007FFFFF00000000000
310
07FFFF000000000003F8000000000003F000F0000000000003FFFFC00001FFFE
310
00001FFFFF80007FE0000000000007FE0000000000003FF8000001FFFE000000
310
7FFFFFF0001FFFFFFFF0000000000007FFFFF0000000000007FFFF0000000000
310
03F800001F800003F000E00001FFF00001FFFFC00001FFFE00000FFFFF80007F
310
E00001FFE00003FE00001FFF00003FF8000001FFFE0000007FFFFFF0001FFFFF
310
FFE000003E000003FFFFE000003E000003FFFF000000000003F00001FFF80001
310
F000E00007FFFC0001FFFFC00001FFFE00000FFFFF80007FC0000FFFFC0003FC
310
0000FFFFC0001FF8000001FFFE0000007FFFFFF0001FFFFFFFC00003FFE00001
310
FFFFC00003FFE00001FFFF0001FFFFFFFFF00007FFFE0001F000E0000FFFFF00
310
00FFFF800001FFFC00000FFFFF80007FC0001FFFFE0001FC0001FFFFE0001FF8
310
000001FFFE0000007FFFFFF0001FFFFFFF80000FFFF80000FFFF80000FFFF800
310
00FFFF0003FFFFFFFFE0000FFFFF8000F000C0003FFFFF8000FFFF800000FFFC
310
000007FFFF80007F80003FFFFF0001FC0003FFFFF0001FF8000001FFFE000000
310
7FFFFFF0001FFFFFFF80003FFFFE0000FFFF80003FFFFE0000FFFF0003FFFFFF
310
FFE0003FFFFF8000F000C0003FFFFF8000FFFF800000FFFC000007FFFF80007F
310
80007FFFFF8001F80007FFFFF8000FF8000001FFFE0000007FFFFFF0001FFFFF
310
FF00007FFFFF00007FFF00007FFFFF00007FFF0003FFFFFFFFE0003FFFFFC000
310
F000C0007FFFFFC000FFFF000000FFFC000007FFFF80007F8000FFFFFF8000F8
310
000FFFFFF8000FF8000001FFFE0000007FFFFFF0001FFFFFFF0000FFFFFF8000
310
7FFF0000FFFFFF80007FFF0003FFFFFFFFC0007FFFFFC00070008000FFFFFFC0
310
00FFFF000000FFF8000007FFFF80007F8000FFFFFF8000F8000FFFFFF8000FF8
310
000001FFFE0000007FFFFFF0001FFFFFFE0001FFFFFFC0003FFE0001FFFFFFC0
310
003FFF0003FFFFFFFFC0007FFFFFE00070008000FFFFFFC0007FFF0000007FF8
310
000003FFFF80007F0001FFFFFF8000F8000FFFFFF8000FF8000001FFFE000000
310
7FFFFFF0001FFFFFFE0001FFFFFFC0003FFE0001FFFFFFC0003FFF0003FFFFFF
310
FFC000FFFFFFE00070008000FFFFFFC0007FFF0000007FF8000003FFFF80007F
310
0001FFFFFF8000F8001FFFFFF8000FF8000001FFFE0000007FFFFFF0001FFFFF
310
FE0003FFFFFFE0003FFE0003FFFFFFE0003FFF0003FFFFFFFFC000FFFFFFE000
310
70008000FFFFFFC0007FFE0000007FF8000003FFFF80007F0001FFFFFF8000F0
310
001FFFFFF8000FF8000001FFFE0000007FFFFFF0001FFFFFFC0003FFFFFFE000
310
1FFC0003FFFFFFE0001FFF0003FFFFFFFFC000FFFFFFC00070008000FFFFFF80
310
007FFE0000007FF0000003FFFF80007F0001FFFFFF0000F0001FFFFFF8000FF8
310
000001FFFE0000007FFFFFF0001FFFFFFC0007FFFFFFF0001FFC0007FFFFFFF0
310
001FFF0003FFFFFFFFC000FFFFFFC00070008001FFFFFF0000FFFE0000003FF0
310
000001FFFF80007F0001FFFFFF0000F8001FFFFFF0000FF8000001FFFE000000
310
7FFFFFF0001FFFFFFC0007FFFFFFF0001FFC0007FFFFFFF0001FFF0003FFFFFF
310
FFC001FFFFFF80007000FFFFFFFFFE0000FFFE0008003FF0008001FFFF80007F
310
FFFFFFFFFC0000FFFFFFFFFFE0000FF8000001FFFE0000007FFFFFF0001FFFFF
310
F8000FFFFFFFF8000FF8000FFFFFFFF8000FFF0003FFFFFFFFFFFFFFFFFF0000
310
7000FFFFFFFFFC0000FFFC0008003FF0008001FFFF80007FFFFFFFFFF80001FF
310
FFFFFFFF80000FF8000001FFFE0000007FFFFFF0001FFFFFF8000FFFFFFFF800
310
0FF8000FFFFFFFF8000FFF0003FFFFFFFFFFFFFFFFFE0000F000FFFFFFFFE000
310
00FFFC000C003FE000C001FFFF80007FFFFFFFFFC00001FFFFFFFFFE00001FF8
310
000001FFFE0000007FFFFFF0001FFFFFF8000FFFFFFFF8000FF8000FFFFFFFF8
310
000FFF0003FFFFFFFFFFFFFFFFF00000F000FFFFFFFE000001FFFC000C001FE0
310
00C000FFFF80007FFFFFFFFE000001FFFFFFFFE000001FF80FFFFFFFFFFFFFC0
310
7FFFFFF0001FFFFFF8000FFFFFFFF8000FF8000FFFFFFFF8000FFF0003FFFFFF
310
FFFFFFFFFF800000F000FFFFFFC0000001FFFC001C001FE001C000FFFF80007F
310
FFFFFF80000003FFFFFFF80000001FF80FFFFFFFFFFFFFC07FFFFFF0001FFFFF
310
F8001FFFFFFFFC000FF8001FFFFFFFFC000FFF0003FFFFFFFFFFFFFFF0000001
310
F000FFFFF800000001FFF8001C001FE001C000FFFF80007FFFFFF800000003FF
310
FFFF800000003FF80FFFFFFFFFFFFFC07FFFFFF0001FFFFFF8001FFFFFFFFC00
310
0FF8001FFFFFFFFC000FFF0003FFFFFFFFFFFFFE00000001F000FFFFC0000000
310
03FFF8001E001FC001E000FFFF80007FFFFF8000000007FFFFFC000000003FF8
310
0FFFFFFFFFFFFFC07FFFFFF0001FFFFFF8001FFFFFFFFC000FF8001FFFFFFFFC
310
000FFF0003FFFFFFFFFFFFE000000003F000FFFE0000000007FFF8001E000FC0
310
01E0007FFF80007FFFFE0000000007FFFFE0000000007FF80FFFFFFFFFFFFFC0
310
7FFFFFF0001FFFFFF0001FFFFFFFFC0007F0001FFFFFFFFC0007FF0003FFFFFF
310
FFFFFF0000000003F000FFF80000000007FFF8001E000FC003E0007FFF80007F
310
FFF0000000000FFFFF8000000000FFF80FFFFFFFFFFFFFC07FFFFFF0001FFFFF
310
F0001FFFFFFFFC0007F0001FFFFFFFFC0007FF0003FFFFFFFFFFFC0000000007
310
F000FFE0000000000FFFF0003E000FC003E0007FFF80007FFFC0000000001FFF
310
FE0000000001FFF80FFFFFFFFFFFFFC07FFFFFF0001FFFFFF0001FFFFFFFFC00
310
07F0001FFFFFFFFC0007FF0003FFFFFFFFFFF0000000000FF000FFC000000000
310
1FFFF0003F000F8003F0003FFF80007FFF80000000003FFFF80000000003FFF8
310
0FFFFFFFFFFFFFC07FFFFFF0001FFFFFF0001FFFFFFFFC0007F0001FFFFFFFFC
310
0007FF0003FFFFFFFFFFE0000000001FF000FF00000000007FFFF0003F000780
310
03F0003FFF80007FFF00000000007FFFF00000000007FFF80FFFFFFFFFFFFFC0
310
7FFFFFF0001FFFFFF0001FFFFFFFFC0007F0001FFFFFFFFC0007FF0003FFFFFF
310
FFFF80000000007FF000FE0000000000FFFFE0003F00078007F0003FFF80007F
310
FE0000000001FFFFE0000000001FFFF80FFFFFFFFFFFFFC07FFFFFF0001FFFFF
310
F0001FFFFFFFFC0007F0001FFFFFFFFC0007FF0003FFFFFFFFFF0000000000FF
310
F000FC0000000003FFFFE0007F00078007F0003FFF80007FFC0000000007FFFF
310
C0000000007FFFF80FFFFFFFFFFFFFC07FFFFFF0001FFFFFF8001FFFFFFFFC00
310
0FF8001FFFFFFFFC000FFF0003FFFFFFFFFE0000000003FFF000FC000000000F
310
FFFFE0007F80070007F8001FFF80007FF8000000001FFFFF8000000001FFFFF8
310
0FFFFFFFFFFFFFC07FFFFFF0001FFFFFF8001FFFFFFFFC000FF8001FFFFFFFFC
310
000FFF0003FFFFFFFFFC000000000FFFF000F8000000007FFFFFE0007F800700
310
07F8001FFF80007FF000000000FFFFFF800000000FFFFFF80FFFFFFFFFFFFFC0
310
7FFFFFF0001FFFFFF8000FFFFFFFF8000FF8000FFFFFFFF8000FFF0003FFFFFF
310
FFFC000000007FFFF000F800000007FFFFFFC0007F8003000FF8001FFF80007F
310
F000000007FFFFFF000000007FFFFFF80FFFFFFFFFFFFFC07FFFFFF0001FFFFF
310
F8000FFFFFFFF8000FF8000FFFFFFFF8000FFF0003FFFFFFFFF80000000FFFFF
310
F000F0000000FFFFFFFFC000FF8003000FF8001FFF80007FE0000000FFFFFFFF
310
0000000FFFFFFFF8000001FFFE0000007FFFFFF0001FFFFFF8000FFFFFFFF800
310
0FF8000FFFFFFFF8000FFF0003FFFFFFFFF8000000FFFFFFF000F000000FFFFF
310
FFFFC000FFC002000FF8000FFF80007FE000001FFFFFFFFE000001FFFFFFFFF8
310
000001FFFE0000007FFFFFF0001FFFFFF8000FFFFFFFF8000FF8000FFFFFFFF8
310
000FFF0003FFFFFFFFF000001FFFFFFFF000E00000FFFFFFFFFFC000FFC00200
310
0FFC000FFF80007FE00001FFFFFFFFFE00001FFFFFFFFFF8000001FFFE000000
310
7FFFFFF0001FFFFFFC000FFFFFFFF8001FFC000FFFFFFFF8001FFF0003FFFFFF
310
FFF00001FFFFFFFFF000E00007FFFFFFFFFF8000FFC000001FFC000FFF80007F
310
C0000FFFFFFFFFFE0000FFFFFFFFFFF8000001FFFE0000007FFFFFF0001FFFFF
310
FC0007FFFFFFF0001FFC0007FFFFFFF0001FFF0003FFFFFFFFF00007FFFFFFFF
310
F000E0001FFFFFFFFFFF8000FFC000001FFC000FFF80007FC0003FFFFFFFFFFE
310
0001FFFFFFFFFFF8000001FFFE0000007FFFFFF0001FFFFFFC0007FFFFFFF000
310
1FFC0007FFFFFFF0001FFF0003FFFFFFFFF0001FFFFFFFFFF000E0003FFFFF00
310
03FF8001FFE000001FFC0007FF80007FC0007FFFFF0007FC0003FFFFF0003FF8
310
000001FFFE0000007FFFFFF0001FFFFFFC0003FFFFFFE0001FFC0003FFFFFFE0
310
001FFF0003FFFFFFFFF0003FFFFFFFFFF000E0003FFFFF0001FF8001FFE00000
310
1FFE0007FF80007FC0007FFFFE0003FC0007FFFFE0003FF8000001FFFE000000
310
7FFFFFF0001FFFFFFE0003FFFFFFE0003FFE0003FFFFFFE0003FFF0003FFFFFF
310
FFF0003FFFFF8001F000E0003FFFFF0001FF0001FFE000001FFE0007FF80007F
310
C0007FFFFE0003FC0007FFFFE0003FF8000001FFFE0000007FFFFFF0001FFFFF
310
FE0001FFFFFFC0003FFE0001FFFFFFC0003FFF0003FFFFFFFFF0003FFFFF0001
310
F000E0003FFFFF0003FF0001FFE000003FFE0007FF80007FC0007FFFFE0003FC
310
0007FFFFE0003FF8000001FFFE0000007FFFFFF0001FFFFFFF0001FFFFFFC000
310
7FFF0001FFFFFFC0007FFF0003FFFFFFFFF0003FFFFF0001F000E0003FFFFE00
310
03FF0003FFF000003FFE0003FF80007FC0007FFFFC0003FE0007FFFFE0003FF8
310
000001FFFE0000007FFFFFF0001FFFFFFF0000FFFFFF80007FFF0000FFFFFF80
310
007FFF0003FFFFFFFFF0003FFFFF0001F000E0003FFFFE0003FF0003FFF00000
310
3FFF0003FF80007FC0007FFFFC0007FE0007FFFFC0003FF8000001FFFE000000
310
7FFFFFF0001FFFFFFF80007FFFFF0000FFFF80007FFFFF0000FFFF0003FFFFFF
310
FFF0003FFFFF0003F000E0003FFFFC0003FE0003FFF000003FFF0003FF80007F
310
E0003FFFF80007FE0003FFFFC0007FF8000001FFFE0000007FFFFFF0001FFFFF
310
FF80003FFFFE0000FFFF80003FFFFE0000FFFF0003FFFFFFFFF0001FFFFE0003
310
F000F0001FFFF80003FE0003FFF000007FFF0001FF80007FE0003FFFF00007FE
310
0001FFFF80007FF8000001FFFE0000007FFFFFF0001FFFFFFFC0000FFFF80001
310
FFFFC0000FFFF80001FFFF0003FFFFFFFFF0001FFFFC0003F000F0000FFFF000
310
07FE0007FFF800007FFF0001FF80007FE0001FFFE00007FF0000FFFE00007FF8
310
000001FFFE0000007FFFFFF0001FFFFFFFC00003FFE00001FFFFC00003FFE000
310
01FFFF0003FFFFFFFFF8000FFFF80003F000F00003FFC00007FC0007FFF80000
310
7FFF8001FF80007FF00007FF80000FFF00007FF80000FFF8000001FFFE000000
310
7F80000000000001FFE000003E000003FFFFE000003E000003FFFF0003FFFFFF
310
FFF80003FFE00007F000F800000000000FFC0007FFF800007FFF8001FF80007F
310
F000000000000FFF000000000000FFF8000001FFFE0000007F80000000000001
310
FFF0000000000007FFFFF0000000000007FFFF0003FFFFFFFFFC00007E000007
310
F000F800000000000FFC0007FFF80000FFFF8000FF80007FF800000000001FFF
310
800000000001FFF8000001FFFE0000007F80000000000001FFF800000000000F
310
FFFFF800000000000FFFFF0003FFFFFFFFFC00000000000FF000FC0000000000
310
1FFC0007FFFC0000FFFF8000FF80007FF800000000003FFFC00000000001FFF8
310
000001FFFE0000007F80000000000001FFF800000000000FFFFFF80000000000
310
0FFFFF0003FFFFFFFFFE00000000001FF000FE00000000003FF8000FFFFC0000
310
FFFF8000FF80007FFC00000000003FFFC00000000003FFF8000001FFFE000000
310
7F80000000000001FFFC00000000001FFFFFFC00000000001FFFFF0003FFFFFF
310
FFFF00000000001FF000FF00000000003FF8000FFFFC0000FFFFC000FF80007F
310
FE00000000007FFFE00000000007FFF8000001FFFE0000007F80000000000001
310
FFFE00000000003FFFFFFE00000000003FFFFF0003FFFFFFFFFF80000000003F
310
F000FF80000000007FF8000FFFFC0001FFFFC0007F80007FFF0000000000FFFF
310
F0000000000FFFF800000000000000007F80000000000001FFFF8000000000FF
310
FFFFFF8000000000FFFFFF0003FFFFFFFFFFC0000000007FF000FFC000000000
310
FFF8000FFFFE0001FFFFC0007F80007FFF8000000001FFFFF8000000001FFFF8
310
00000000000000007F80000000000001FFFFC000000001FFFFFFFFC000000001
310
FFFFFF0003FFFFFFFFFFE000000000FFF000FFE000000003FFF0001FFFFE0001
310
FFFFC0007F80007FFFC000000007FFFFFE000000003FFFF80000000000000000
310
7F80000000000001FFFFE000000003FFFFFFFFE000000003FFFFFF0003FFFFFF
310
FFFFF000000003FFF000FFF80000000FFFF0001FFFFE0001FFFFE0007F80007F
310
FFF00000000FFFFFFF00000000FFFFF800000000000000007F80000000000001
310
FFFFF80000000FFFFFFFFFF80000000FFFFFFF0003FFFFFFFFFFFC0000000FFF
310
F000FFFE0000003FFFF0001FFFFE0003FFFFE0003F80007FFFFC0000003FFFFF
310
FFC0000003FFFFF800000000000000007F80000000000001FFFFFE0000003FFF
310
FFFFFFFE0000003FFFFFFF0003FFFFFFFFFFFF0000003FFFF000FFFF800000FF
310
FFF0001FFFFF0003FFFFE0003F80007FFFFF000001FFFFFFFFF800001FFFFFF8
310
00000000000000007F80000000000001FFFFFFC00001FFFFFFFFFFFFC00001FF
310
FFFFFF0003FFFFFFFFFFFFC00000FFFFF000FFFFF8000FFFFFFFFFFFFFFFFFFF
310
FFFFFFFFFFFFFFFFFFFFF0001FFFFFFFFFFF0000FFFFFFF80000000000000000
310
7FFFFFFFFFFFFFFFFFFFFFFC001FFFFFFFFFFFFFFC001FFFFFFFFFFFFFFFFFFF
310
FFFFFFFC001FFFFFF000FFFFFFFFFFFFFFFFFFFFFFFFFFFFFFFFFFFFFFFFFFFF
310
FFFFFFFFFFFFFFFFFFFFFFFFFFFFFFFFFFFFFFFFFFFFFFFFFFFFFFFFFFFFFFFF
310
FFFFFFFFFFFFFFFFFFFFFFFFFFFFFFFFFFFFFFFFFFFFFFFFFFFFFFFFFFFFFFFF
310
F000FFFFFFFFFFFFFFFFFFFFFFFFFFFFFFFFFFFFFFFFFFFFFFFFFFFFFFFFFFFF
310
FFFFFFFFFFFFFFFFFFFFFFFFFFFFFFFFFFFFFFFFFFFFFFFFFFFFFFFFFFFFFFFF
310
FFFFFFFFFFFFFFFFFFFFFFFFFFFFFFFFFFFFFFFFFFFFFFFFF000FFFFFFFFFFFF
310
FFFFFFFFFFFFFFFFFFFFFFFFFFFFFFFFFFFFFFFFFFFFFFFFFFFFFFFFFFFFFFFF
310
FFFFFFFFFFFFFFFFFFFFFFFFFFFFFFFFFFFFFFFFFFFFFFFFFFFFFFFFFFFFFFFF
310
FFFFFFFFFFFFFFFFFFFFFFFFFFFFFFFFF000FFFFFFFFFFFFFFFFFFFFFFFFFFFF
310
FFFFFFFFFFFFFFFFFFFFFFFFFFFFFFFFFFFFFFFFFFFFFFFFFFFFFFFFFFFFFFFF
310
FFFFFFFFFFFFFFFFFFFFFFFFFFFFFFFFFFFFFFFFFFFFFFFFFFFFFFFFFFFFFFFF
310
FFFFFFFFFFFFFFFFF000FFFFFFFFFFFFFFFFFFFFFFFFFFFFFFFFFFFFFFFFFFFF
310
FFFFFFFFFFFFFFFFFFFFFFFFFFFFFFFFFFFFFFFFFFFFFFFFFFFFFFFFFFFFFFFF
310
FFFFFFFFFFFFFFFFFFFFFFFFFFFFFFFFFFFFFFFFFFFFFFFFFFFFFFFFFFFFFFFF
310
F000FFFFFFFFFFFFFFFFFFFFFFFFFFFFFFFFFFFFFFFFFFFFFFFFFFFFFFFFFFFF
310
FFFFFFFFFFFFFFFFFFFFFFFFFFFFFFFFFFFFFFFFFFFFFFFFFFFFFFFFFFFFFFFF
310
FFFFFFFFFFFFFFFFFFFFFFFFFFFFFFFFFFFFFFFFFFFFFFFFF000FFFFFFFFFFFF
310
FFFFFFFFFFFFFFFFFFFFFFFFFFFFFFFFFFFFFFFFFFFFFFFFFFFFFFFFFFFFFFFF
310
FFFFFFFFFFFFFFFFFFFFFFFFFFFFFFFFFFFFFFFFFFFFFFFFFFFFFFFFFFFFFFFF
310
FFFFFFFFFFFFFFFFFFFFFFFFFFFFFFFFF000FFFFFFFFFFFFFFFFFFFFFFFFFFFF
310
FFFFFFFFFFFFFFFFFFFFFFFFFFFFFFFFFFFFFFFFFFFFFFFFFFFFFFFFFFFFFFFF
310
FFFFFFFFFFFFFFFFFFFFFFFFFFFFFFFFFFFFFFFFFFFFFFFFFFFFFFFFFFFFFFFF
310
FFFFFFFFFFFFFFFFF000FFFFFFFFFFFFFFFFFFFFFFFFFFFFFFFFFFFFFFFFFFFF
310
FFFFFFFFFFFFFFFFFFFFFFFFFFFFFFFFFFFFFFFFFFFFFFFFFFFFFFFFFFFFFFFF
310
FFFFFFFFFFFFFFFFFFFFFFFFFFFFFFFFFFFFFFFFFFFFFFFFFFFFFFFFFFFFFFFF
310
F000FFFFFFFFFFFFFFFFFFFFFFFFFFFFFFFFFFFFFFFFFFFFFFFFFFFFFFFFFFFF
310
FFFFFFFFFFFFFFFFFFFFFFFFFFFFFFFFFFFFFFFFFFFFFFFFFFFFFFFFFFFFFFFF
310
FFFFFFFFFFFFFFFFFFFFFFFFFFFFFFFFFFFFFFFFFFFFFFFFF000FFFFFFFFFFFF
310
FFFFFFFFFFFFFFFFFFFFFFFFFFFFFFFFFFFFFFFFFFFFFFFFFFFFFFFFFFFFFFFF
310
FFFFFFFFFFFFFFFFFFFFFFFFFFFFFFFFFFFFFFFFFFFFFFFFFFFFFFFFFFFFFFFF
310
FFFFFFFFFFFFFFFFFFFFFFFFFFFFFFFFF000FFFFFFFFFFFFFFFFFFFFFFFFFFFF
310
FFFFFFFFFFFFFFFFFFFFFFFFFFFFFFFFFFFFFFFFFFFFFFFFFFFFFFFFFFFFFFFF
310
FFFFFFFFFFFFFFFFFFFFFFFFFFFFFFFFFFFFFFFFFFFFFFFFFFFFFFFFFFFFFFFF
310
FFFFFFFFFFFFFFFFF000FFFFFFFFFFFFFFFFFFFFFFFFFFFFFFFFFFFFFFFFFFFF
310
FFFFFFFFFFFFFFFFFFFFFFFFFFFFFFFFFFFFFFFFFFFFFFFFFFFFFFFFFFFFFFFF
310
FFFFFFFFFFFFFFFFFFFFFFFFFFFFFFFFFFFFFFFFFFFFFFFFFFFFFFFFFFFFFFFF
310
F000FFFFFFFFFFFFFFFFFFFFFFFFFFFFFFFFFFFFFFFFFFFFFFFFFFFFFFFFFFFF
310
FFFFFFFFFFFFFFFFFFFFFFFFFFFFFFFFFFFFFFFFFFFFFFFFFFFFFFFFFFFFFFFF
310
FFFFFFFFFFFFFFFFFFFFFFFFFFFFFFFFFFFFFFFFFFFFFFFFF000FFFFFFFFFFFF
310
FFFFFFFFFFFFFFFFFFFFFFFFFFFFFFFFFFFFFFFFFFFFFFFFFFFFFFFFFFFFFFFF
310
FFFFFFFFFFFFFFFFFFFFFFFFFFFFFFFFFFFFFFFFFFFFFFFFFFFFFFFFFFFFFFFF
310
FFFFFFFFFFFFFFFFFFFFFFFFFFFFFFFFF000FFFFFFFFFFFFFFFFFFFFFFFFFFFF
310
FFFFFFFFFFFFFFFFFFFFFFFFFFFFFFFFFFFFFFFFFFFFFFFFFFFFFFFFFFFFFFFF
310
FFFFFFFFFFFFFFFFFFFFFFFFFFFFFFFFFFFFFFFFFFFFFFFFFFFFFFFFFFFFFFFF
310
FFFFFFFFFFFFFFFFF000FFFFFFFFFFFFFFFFFFFFFFFFFFFFFFFFFFFFFFFFFFFF
310
FFFFFFFFFFFFFFFFFFFFFFFFFFFFFFFFFFFFFFFFFFFFFFFFFFFFFFFFFFFFFFFF
310
FFFFFFFFFFFFFFFFFFFFFFFFFFFFFFFFFFFFFFFFFFFFFFFFFFFFFFFFFFFFFFFF
310
F000FFFFFFFFFFFFFFFFFFFFFFFFFFFFFFFFFFFFFFFFFFFFFFFFFFFFFFFFFFFF
310
FFFFFFFFFFFFFFFFFFFFFFFFFFFFFFFFFFFFFFFFFFFFFFFFFFFFFFFFFFFFFFFF
310
FFFFFFFFFFFFFFFFFFFFFFFFFFFFFFFFFFFFFFFFFFFFFFFFF000FFFFFFFFFFFF
310
FFFFFFFFFFFFFFFFFFFFFFFFFFFFFFFFFFFFFFFFFFFFFFFFFFFFFFFFFFFFFFFF
310
FFFFFFFFFFFFFFFFFFFFFFFFFFFFFFFFFFFFFFFFFFFFFFFFFFFFFFFFFFFFFFFF
310
FFFFFFFFFFFFFFFFFFFFFFFFFFFFFFFFF000FFFFFFFFFFFFFFFFFFFFFFFFFFFF
310
FFFFFFFFFFFFFFFFFFFFFFFFFFFFFFFFFFFFFFFFFFFFFFFFFFFFFFFFFFFFFFFF
310
FFFFFFFFFFFFFFFFFFFFFFFFFFFFFFFFFFFFFFFFFFFFFFFFFFFFFFFFFFFFFFFF
310
FFFFFFFFFFFFFFFFF000FFFFFFFFFFFFFFFFFFFFFFFFFFFFFFFFFFFFFFFFFFFF
310
FFFFFFFFFFFFFFFFFFFFFFFFFFFFFFFFFFFFFFFFFFFFFFFFFFFFFFFFFFFFFFFF
310
FFFFFFFFFFFFFFFFFFFFFFFFFFFFFFFFFFFFFFFFFFFFFFFFFFFFFFFFFFFFFFFF
310
F000FFFFFFFFFFFFFFFFFFFFFFFFFFFFFFFFFFFFFFFFFFFFFFFFFFFFFFFFFFFF
310
FFFFFFFFFFFFFFFFFFFFFFFFFFFFFFFFFFFFFFFFFFFFFFFFFFFFFFFFFFFFFFFF
310
FFFFFFFFFFFFFFFFFFFFFFFFFFFFFFFFFFFFFFFFFFFFFFFFF000FFFFFFFFFFFF
310
FFFFFFFFFFFFFFFFFFFFFFFFFFFFFFFFFFFFFFFFFFFFFFFFFFFFFFFFFFFFFFFF
310
FFFFFFFFFFFFFFFFFFFFFFFFFFFFFFFFFFFFFFFFFFFFFFFFFFFFFFFFFFFFFFFF
310
FFFFFFFFFFFFFFFFFFFFFFFFFFFFFFFFF0000000000000000000000000000000
310
0000000000000000000000000000000000000000000000000000000000000000
310
0000000000000000000000000000000000000000000000000000000000000000
310
0000000000000000000000000000000000000000000000000000000000000000
310
0000000000000000000000000000000000000000000000000000000000000000
310
0000000000000000000000000000000000000000000000000000000000000000
310
0000000000000000000000000000000000000000000000000000000000000000
310
0000000000000000000000000000000000000000000000000000000000000000
310
0000000000000000000000000000000000000000000000000000000000000000
310
0000000000000000000000000000000000000000000000000000000000000000
310
0000000000000000000000000000000000000000000000000000000000000000
310
0000000000000000000000000000000000000000000000000000000000000000
310
0000000000000000000000000000000000000000000000000000000000000000
310
0000000000000000000000000000000000000000000000000000000000000000
310
0000000000000000000000000000000000000000000000000000000000000000
310
0000000000000000000000000000000000000000000000000000000000000000
  1
OLE
  0
ENDSEC
  0
SECTION
  2
OBJECTS
  0
DICTIONARY
  5
C
330
0
100
AcDbDictionary
281
     1
  3
ACAD_GROUP
350
D
  3
ACAD_LAYOUT
350
1A
  3
ACAD_MLINESTYLE
350
17
  3
ACAD_PLOTSETTINGS
350
19
  3
ACAD_PLOTSTYLENAME
350
E
  3
ACAD_SCALELIST
350
47
  0
DICTIONARY
  5
D
102
{ACAD_REACTORS
330
C
102
}
330
C
100
AcDbDictionary
281
     1
  0
DICTIONARY
  5
1A
102
{ACAD_REACTORS
330
C
102
}
330
C
100
AcDbDictionary
281
     1
  3
Layout1
350
1E
  3
Layout2
350
26
  3
Model
350
22
  0
DICTIONARY
  5
17
102
{ACAD_REACTORS
330
C
102
}
330
C
100
AcDbDictionary
281
     1
  3
Standard
350
18
  0
DICTIONARY
  5
19
102
{ACAD_REACTORS
330
C
102
}
330
C
100
AcDbDictionary
281
     1
  0
ACDBDICTIONARYWDFLT
  5
E
102
{ACAD_REACTORS
330
C
102
}
330
C
100
AcDbDictionary
281
     1
  3
Normal
350
F
100
AcDbDictionaryWithDefault
340
F
  0
DICTIONARY
  5
47
102
{ACAD_REACTORS
330
C
102
}
330
C
100
AcDbDictionary
281
     1
  3
A0
350
48
  3
A1
350
49
  3
A2
350
4A
  3
A3
350
4B
  3
A4
350
4C
  3
A5
350
4D
  3
A6
350
4E
  3
A7
350
4F
  3
A8
350
50
  3
A9
350
51
  3
B0
350
52
  3
B1
350
53
  3
B2
350
54
  3
B3
350
55
  3
B4
350
56
  3
B5
350
57
  3
B6
350
58
  3
B7
350
59
  3
B8
350
5A
  3
B9
350
5B
  3
C0
350
5C
  3
C1
350
5D
  3
C2
350
5E
  3
C3
350
5F
  3
C4
350
60
  3
C5
350
61
  3
C6
350
62
  3
C7
350
63
  3
C8
350
64
  3
C9
350
65
  3
D0
350
66
  3
D1
350
67
  3
D2
350
68
  0
LAYOUT
  5
1E
102
{ACAD_REACTORS
330
1A
102
}
330
1A
100
AcDbPlotSettings
  1

  2
none_device
  4

  6

 40
0.0
 41
0.0
 42
0.0
 43
0.0
 44
0.0
 45
0.0
 46
0.0
 47
0.0
 48
0.0
 49
0.0
140
0.0
141
0.0
142
1.0
143
1.0
 70
   688
 72
     1
 73
     0
 74
     5
  7

 75
    16
147
1.0
148
0.0
149
0.0
100
AcDbLayout
  1
Layout1
 70
     1
 71
     1
 10
0.0
 20
0.0
 11
420.0
 21
297.0
 12
0.0
 22
0.0
 32
0.0
 14
1.0000000000E+20
 24
1.0000000000E+20
 34
1.0000000000E+20
 15
-1.0000000000E+20
 25
-1.0000000000E+20
 35
-1.0000000000E+20
146
0.0
 13
0.0
 23
0.0
 33
0.0
 16
1.0
 26
0.0
 36
0.0
 17
0.0
 27
1.0
 37
0.0
 76
     0
330
1B
  0
LAYOUT
  5
26
102
{ACAD_REACTORS
330
1A
102
}
330
1A
100
AcDbPlotSettings
  1

  2
none_device
  4

  6

 40
0.0
 41
0.0
 42
0.0
 43
0.0
 44
0.0
 45
0.0
 46
0.0
 47
0.0
 48
0.0
 49
0.0
140
0.0
141
0.0
142
1.0
143
1.0
 70
   688
 72
     1
 73
     0
 74
     5
  7

 75
    16
147
1.0
148
0.0
149
0.0
100
AcDbLayout
  1
Layout2
 70
     1
 71
     2
 10
0.0
 20
0.0
 11
0.0
 21
0.0
 12
0.0
 22
0.0
 32
0.0
 14
0.0
 24
0.0
 34
0.0
 15
0.0
 25
0.0
 35
0.0
146
0.0
 13
0.0
 23
0.0
 33
0.0
 16
1.0
 26
0.0
 36
0.0
 17
0.0
 27
1.0
 37
0.0
 76
     0
330
23
  0
LAYOUT
  5
22
102
{ACAD_REACTORS
330
1A
102
}
330
1A
100
AcDbPlotSettings
  1

  2
none_device
  4
Letter_(8.50_x_11.00_Inches)
  6

 40
6.35
 41
6.35
 42
6.35000508
 43
6.35000508
 44
215.9
 45
279.4
 46
0.0
 47
0.0
 48
0.0
 49
0.0
140
0.0
141
0.0
142
1.0
143
1.0
 70
  1712
 72
     1
 73
     0
 74
     0
  7

 75
     0
147
1.0
148
0.0
149
0.0
100
AcDbLayout
  1
Model
 70
     1
 71
     0
 10
0.0
 20
0.0
 11
297.0
 21
210.0
 12
0.0
 22
0.0
 32
0.0
 14
0.0
 24
0.0
 34
0.0
 15
297.0
 25
210.0
 35
0.0
146
0.0
 13
0.0
 23
0.0
 33
0.0
 16
1.0
 26
0.0
 36
0.0
 17
0.0
 27
1.0
 37
0.0
 76
     0
330
1F
331
29
  0
MLINESTYLE
  5
18
102
{ACAD_REACTORS
330
17
102
}
330
17
100
AcDbMlineStyle
  2
Standard
 70
     0
  3

 62
   256
 51
90.0
 52
90.0
 71
     2
 49
0.5
 62
   256
  6
BYLAYER
 49
-0.5
 62
   256
  6
BYLAYER
  0
ACDBPLACEHOLDER
  5
F
102
{ACAD_REACTORS
330
E
102
}
330
E
  0
SCALE
  5
48
102
{ACAD_REACTORS
330
47
102
}
330
47
100
AcDbScale
 70
     0
300
1:1
140
1.0
141
1.0
290
     1
  0
SCALE
  5
49
102
{ACAD_REACTORS
330
47
102
}
330
47
100
AcDbScale
 70
     0
300
1:2
140
1.0
141
2.0
290
     0
  0
SCALE
  5
4A
102
{ACAD_REACTORS
330
47
102
}
330
47
100
AcDbScale
 70
     0
300
1:4
140
1.0
141
4.0
290
     0
  0
SCALE
  5
4B
102
{ACAD_REACTORS
330
47
102
}
330
47
100
AcDbScale
 70
     0
300
1:5
140
1.0
141
5.0
290
     0
  0
SCALE
  5
4C
102
{ACAD_REACTORS
330
47
102
}
330
47
100
AcDbScale
 70
     0
300
1:8
140
1.0
141
8.0
290
     0
  0
SCALE
  5
4D
102
{ACAD_REACTORS
330
47
102
}
330
47
100
AcDbScale
 70
     0
300
1:10
140
1.0
141
10.0
290
     0
  0
SCALE
  5
4E
102
{ACAD_REACTORS
330
47
102
}
330
47
100
AcDbScale
 70
     0
300
1:16
140
1.0
141
16.0
290
     0
  0
SCALE
  5
4F
102
{ACAD_REACTORS
330
47
102
}
330
47
100
AcDbScale
 70
     0
300
1:20
140
1.0
141
20.0
290
     0
  0
SCALE
  5
50
102
{ACAD_REACTORS
330
47
102
}
330
47
100
AcDbScale
 70
     0
300
1:30
140
1.0
141
30.0
290
     0
  0
SCALE
  5
51
102
{ACAD_REACTORS
330
47
102
}
330
47
100
AcDbScale
 70
     0
300
1:40
140
1.0
141
40.0
290
     0
  0
SCALE
  5
52
102
{ACAD_REACTORS
330
47
102
}
330
47
100
AcDbScale
 70
     0
300
1:50
140
1.0
141
50.0
290
     0
  0
SCALE
  5
53
102
{ACAD_REACTORS
330
47
102
}
330
47
100
AcDbScale
 70
     0
300
1:100
140
1.0
141
100.0
290
     0
  0
SCALE
  5
54
102
{ACAD_REACTORS
330
47
102
}
330
47
100
AcDbScale
 70
     0
300
2:1
140
2.0
141
1.0
290
     0
  0
SCALE
  5
55
102
{ACAD_REACTORS
330
47
102
}
330
47
100
AcDbScale
 70
     0
300
4:1
140
4.0
141
1.0
290
     0
  0
SCALE
  5
56
102
{ACAD_REACTORS
330
47
102
}
330
47
100
AcDbScale
 70
     0
300
8:1
140
8.0
141
1.0
290
     0
  0
SCALE
  5
57
102
{ACAD_REACTORS
330
47
102
}
330
47
100
AcDbScale
 70
     0
300
10:1
140
10.0
141
1.0
290
     0
  0
SCALE
  5
58
102
{ACAD_REACTORS
330
47
102
}
330
47
100
AcDbScale
 70
     0
300
100:1
140
100.0
141
1.0
290
     0
  0
SCALE
  5
59
102
{ACAD_REACTORS
330
47
102
}
330
47
100
AcDbScale
 70
     0
300
1/128" = 1'-0"
140
0.0078125
141
12.0
290
     0
  0
SCALE
  5
5A
102
{ACAD_REACTORS
330
47
102
}
330
47
100
AcDbScale
 70
     0
300
1/64" = 1'-0"
140
0.015625
141
12.0
290
     0
  0
SCALE
  5
5B
102
{ACAD_REACTORS
330
47
102
}
330
47
100
AcDbScale
 70
     0
300
1/32" = 1'-0"
140
0.03125
141
12.0
290
     0
  0
SCALE
  5
5C
102
{ACAD_REACTORS
330
47
102
}
330
47
100
AcDbScale
 70
     0
300
1/16" = 1'-0"
140
0.0625
141
12.0
290
     0
  0
SCALE
  5
5D
102
{ACAD_REACTORS
330
47
102
}
330
47
100
AcDbScale
 70
     0
300
3/32" = 1'-0"
140
0.09375
141
12.0
290
     0
  0
SCALE
  5
5E
102
{ACAD_REACTORS
330
47
102
}
330
47
100
AcDbScale
 70
     0
300
1/8" = 1'-0"
140
0.125
141
12.0
290
     0
  0
SCALE
  5
5F
102
{ACAD_REACTORS
330
47
102
}
330
47
100
AcDbScale
 70
     0
300
3/16" = 1'-0"
140
0.1875
141
12.0
290
     0
  0
SCALE
  5
60
102
{ACAD_REACTORS
330
47
102
}
330
47
100
AcDbScale
 70
     0
300
1/4" = 1'-0"
140
0.25
141
12.0
290
     0
  0
SCALE
  5
61
102
{ACAD_REACTORS
330
47
102
}
330
47
100
AcDbScale
 70
     0
300
3/8" = 1'-0"
140
0.375
141
12.0
290
     0
  0
SCALE
  5
62
102
{ACAD_REACTORS
330
47
102
}
330
47
100
AcDbScale
 70
     0
300
1/2" = 1'-0"
140
0.5
141
12.0
290
     0
  0
SCALE
  5
63
102
{ACAD_REACTORS
330
47
102
}
330
47
100
AcDbScale
 70
     0
300
3/4" = 1'-0"
140
0.75
141
12.0
290
     0
  0
SCALE
  5
64
102
{ACAD_REACTORS
330
47
102
}
330
47
100
AcDbScale
 70
     0
300
1" = 1'-0"
140
1.0
141
12.0
290
     0
  0
SCALE
  5
65
102
{ACAD_REACTORS
330
47
102
}
330
47
100
AcDbScale
 70
     0
300
1-1/2" = 1'-0"
140
1.5
141
12.0
290
     0
  0
SCALE
  5
66
102
{ACAD_REACTORS
330
47
102
}
330
47
100
AcDbScale
 70
     0
300
3" = 1'-0"
140
3.0
141
12.0
290
     0
  0
SCALE
  5
67
102
{ACAD_REACTORS
330
47
102
}
330
47
100
AcDbScale
 70
     0
300
6" = 1'-0"
140
6.0
141
12.0
290
     0
  0
SCALE
  5
68
102
{ACAD_REACTORS
330
47
102
}
330
47
100
AcDbScale
 70
     0
300
1'-0" = 1'-0"
140
12.0
141
12.0
290
     0
  0
ENDSEC
  0
EOF
