  0
SECTION
  2
HEADER
  9
$ACADVER
  1
AC1015
  9
$ACADMAINTVER
 70
     6
  9
$DWGCODEPAGE
  3
ANSI_1252
  9
$INSBASE
 10
0.0
 20
0.0
 30
0.0
  9
$EXTMIN
 10
0.0
 20
0.0
 30
0.0
  9
$EXTMAX
 10
297.0
 20
210.0
 30
0.0
  9
$LIMMIN
 10
0.0
 20
0.0
  9
$LIMMAX
 10
297.0
 20
210.0
  9
$ORTHOMODE
 70
     0
  9
$REGENMODE
 70
     1
  9
$FILLMODE
 70
     1
  9
$QTEXTMODE
 70
     0
  9
$MIRRTEXT
 70
     1
  9
$LTSCALE
 40
1.0
  9
$ATTMODE
 70
     1
  9
$TEXTSIZE
 40
2.0
  9
$TRACEWID
 40
1.0
  9
$TEXTSTYLE
  7
Standard
  9
$CLAYER
  8
0
  9
$CELTYPE
  6
ByLayer
  9
$CECOLOR
 62
   256
  9
$CELTSCALE
 40
1.0
  9
$DISPSILH
 70
     0
  9
$DIMSCALE
 40
1.0
  9
$DIMASZ
 40
3.0
  9
$DIMEXO
 40
0.0
  9
$DIMDLI
 40
3.75
  9
$DIMRND
 40
0.0
  9
$DIMDLE
 40
0.0
  9
$DIMEXE
 40
1.0
  9
$DIMTP
 40
0.0
  9
$DIMTM
 40
0.0
  9
$DIMTXT
 40
2.0
  9
$DIMCEN
 40
2.5
  9
$DIMTSZ
 40
0.0
  9
$DIMTOL
 70
     0
  9
$DIMLIM
 70
     0
  9
$DIMTIH
 70
     1
  9
$DIMTOH
 70
     1
  9
$DIMSE1
 70
     0
  9
$DIMSE2
 70
     0
  9
$DIMTAD
 70
     1
  9
$DIMZIN
 70
     0
  9
$DIMBLK
  1

  9
$DIMASO
 70
     1
  9
$DIMSHO
 70
     1
  9
$DIMPOST
  1

  9
$DIMAPOST
  1

  9
$DIMALT
 70
     0
  9
$DIMALTD
 70
     3
  9
$DIMALTF
 40
0.0393700787
  9
$DIMLFAC
 40
2.0
  9
$DIMTOFL
 70
     1
  9
$DIMTVP
 40
0.0
  9
$DIMTIX
 70
     0
  9
$DIMSOXD
 70
     0
  9
$DIMSAH
 70
     0
  9
$DIMBLK1
  1

  9
$DIMBLK2
  1

  9
$DIMSTYLE
  2
ISO-25
  9
$DIMCLRD
 70
     0
  9
$DIMCLRE
 70
     0
  9
$DIMCLRT
 70
     0
  9
$DIMTFAC
 40
1.0
  9
$DIMGAP
 40
1.524
  9
$DIMJUST
 70
     0
  9
$DIMSD1
 70
     0
  9
$DIMSD2
 70
     0
  9
$DIMTOLJ
 70
     0
  9
$DIMTZIN
 70
     0
  9
$DIMALTZ
 70
     0
  9
$DIMALTTZ
 70
     0
  9
$DIMUPT
 70
     0
  9
$DIMDEC
 70
     2
  9
$DIMTDEC
 70
     3
  9
$DIMALTU
 70
     2
  9
$DIMALTTD
 70
     3
  9
$DIMTXSTY
  7
Standard
  9
$DIMAUNIT
 70
     0
  9
$DIMADEC
 70
     2
  9
$DIMALTRND
 40
0.0
  9
$DIMAZIN
 70
     0
  9
$DIMDSEP
 70
    44
  9
$DIMATFIT
 70
     3
  9
$DIMFRAC
 70
     0
  9
$DIMLDRBLK
  1

  9
$DIMLUNIT
 70
     2
  9
$DIMLWD
 70
    -2
  9
$DIMLWE
 70
    -2
  9
$DIMTMOVE
 70
     0
  9
$LUNITS
 70
     2
  9
$LUPREC
 70
     2
  9
$SKETCHINC
 40
1.0
  9
$FILLETRAD
 40
10.0
  9
$AUNITS
 70
     0
  9
$AUPREC
 70
     2
  9
$MENU
  1
.
  9
$ELEVATION
 40
0.0
  9
$PELEVATION
 40
0.0
  9
$THICKNESS
 40
0.0
  9
$LIMCHECK
 70
     0
  9
$CHAMFERA
 40
0.0
  9
$CHAMFERB
 40
0.0
  9
$CHAMFERC
 40
0.0
  9
$CHAMFERD
 40
0.0
  9
$SKPOLY
 70
     0
  9
$TDCREATE
 40
2458166.673621921
  9
$TDUCREATE
 40
2458166.631955255
  9
$TDUPDATE
 40
2458166.673623947
  9
$TDUUPDATE
 40
2458166.63195728
  9
$TDINDWG
 40
0.0000000116
  9
$TDUSRTIMER
 40
0.0000000116
  9
$USRTIMER
 70
     1
  9
$ANGBASE
 50
0.0
  9
$ANGDIR
 70
     0
  9
$PDMODE
 70
     0
  9
$PDSIZE
 40
-1.0
  9
$PLINEWID
 40
0.0
  9
$SPLFRAME
 70
     0
  9
$SPLINETYPE
 70
     6
  9
$SPLINESEGS
 70
     8
  9
$HANDSEED
  5
247
  9
$SURFTAB1
 70
     6
  9
$SURFTAB2
 70
     6
  9
$SURFTYPE
 70
     6
  9
$SURFU
 70
     6
  9
$SURFV
 70
     6
  9
$UCSBASE
  2

  9
$UCSNAME
  2

  9
$UCSORG
 10
0.0
 20
0.0
 30
0.0
  9
$UCSXDIR
 10
1.0
 20
0.0
 30
0.0
  9
$UCSYDIR
 10
0.0
 20
1.0
 30
0.0
  9
$UCSORTHOREF
  2

  9
$UCSORTHOVIEW
 70
     0
  9
$UCSORGTOP
 10
0.0
 20
0.0
 30
0.0
  9
$UCSORGBOTTOM
 10
0.0
 20
0.0
 30
0.0
  9
$UCSORGLEFT
 10
0.0
 20
0.0
 30
0.0
  9
$UCSORGRIGHT
 10
0.0
 20
0.0
 30
0.0
  9
$UCSORGFRONT
 10
0.0
 20
0.0
 30
0.0
  9
$UCSORGBACK
 10
0.0
 20
0.0
 30
0.0
  9
$PUCSBASE
  2

  9
$PUCSNAME
  2

  9
$PUCSORG
 10
0.0
 20
0.0
 30
0.0
  9
$PUCSXDIR
 10
1.0
 20
0.0
 30
0.0
  9
$PUCSYDIR
 10
0.0
 20
1.0
 30
0.0
  9
$PUCSORTHOREF
  2

  9
$PUCSORTHOVIEW
 70
     0
  9
$PUCSORGTOP
 10
0.0
 20
0.0
 30
0.0
  9
$PUCSORGBOTTOM
 10
0.0
 20
0.0
 30
0.0
  9
$PUCSORGLEFT
 10
0.0
 20
0.0
 30
0.0
  9
$PUCSORGRIGHT
 10
0.0
 20
0.0
 30
0.0
  9
$PUCSORGFRONT
 10
0.0
 20
0.0
 30
0.0
  9
$PUCSORGBACK
 10
0.0
 20
0.0
 30
0.0
  9
$USERI1
 70
     0
  9
$USERI2
 70
     0
  9
$USERI3
 70
     0
  9
$USERI4
 70
     0
  9
$USERI5
 70
     0
  9
$USERR1
 40
0.0
  9
$USERR2
 40
0.0
  9
$USERR3
 40
0.0
  9
$USERR4
 40
0.0
  9
$USERR5
 40
0.0
  9
$WORLDVIEW
 70
     1
  9
$SHADEDGE
 70
     3
  9
$SHADEDIF
 70
    70
  9
$TILEMODE
 70
     1
  9
$MAXACTVP
 70
    64
  9
$PINSBASE
 10
0.0
 20
0.0
 30
0.0
  9
$PLIMCHECK
 70
     0
  9
$PEXTMIN
 10
1.0000000000E+20
 20
1.0000000000E+20
 30
1.0000000000E+20
  9
$PEXTMAX
 10
-1.0000000000E+20
 20
-1.0000000000E+20
 30
-1.0000000000E+20
  9
$PLIMMIN
 10
0.0
 20
0.0
  9
$PLIMMAX
 10
420.0
 20
297.0
  9
$UNITMODE
 70
     0
  9
$VISRETAIN
 70
     1
  9
$PLINEGEN
 70
     0
  9
$PSLTSCALE
 70
     1
  9
$TREEDEPTH
 70
  3020
  9
$CMLSTYLE
  2
Standard
  9
$CMLJUST
 70
     0
  9
$CMLSCALE
 40
20.0
  9
$PROXYGRAPHICS
 70
     1
  9
$MEASUREMENT
 70
     1
  9
$CELWEIGHT
370
    -1
  9
$ENDCAPS
280
     0
  9
$JOINSTYLE
280
     0
  9
$LWDISPLAY
290
     1
  9
$INSUNITS
 70
     4
  9
$HYPERLINKBASE
  1

  9
$STYLESHEET
  1

  9
$XEDIT
290
     1
  9
$CEPSNTYPE
380
     0
  9
$PSTYLEMODE
290
     1
  9
$FINGERPRINTGUID
  2
{92B42714-1DB4-400E-A3CB-3887724DACF5}
  9
$VERSIONGUID
  2
{FAEB1C32-E019-11D5-929B-00C0DF256EC4}
  9
$EXTNAMES
290
     1
  9
$PSVPSCALE
 40
0.0
  9
$OLESTARTUP
290
     0
  0
ENDSEC
  0
SECTION
  2
CLASSES
  0
CLASS
  1
ACDBDICTIONARYWDFLT
  2
AcDbDictionaryWithDefault
  3
ObjectDBX Classes
 90
        0
280
     0
281
     0
  0
CLASS
  1
VISUALSTYLE
  2
AcDbVisualStyle
  3
ObjectDBX Classes
 90
     4095
280
     0
281
     0
  0
CLASS
  1
MATERIAL
  2
AcDbMaterial
  3
ObjectDBX Classes
 90
     1153
280
     0
281
     0
  0
CLASS
  1
SCALE
  2
AcDbScale
  3
ObjectDBX Classes
 90
     1153
280
     0
281
     0
  0
CLASS
  1
TABLESTYLE
  2
AcDbTableStyle
  3
ObjectDBX Classes
 90
     4095
280
     0
281
     0
  0
CLASS
  1
MLEADERSTYLE
  2
AcDbMLeaderStyle
  3
ACDB_MLEADERSTYLE_CLASS
 90
     4095
280
     0
281
     0
  0
CLASS
  1
SUN
  2
AcDbSun
  3
SCENEOE
 90
     1153
280
     0
281
     0
  0
CLASS
  1
ACDBPLACEHOLDER
  2
AcDbPlaceHolder
  3
ObjectDBX Classes
 90
        0
280
     0
281
     0
  0
CLASS
  1
LAYOUT
  2
AcDbLayout
  3
ObjectDBX Classes
 90
        0
280
     0
281
     0
  0
ENDSEC
  0
SECTION
  2
TABLES
  0
TABLE
  2
VPORT
  5
8
330
0
100
AcDbSymbolTable
 70
     1
  0
VPORT
  5
29
330
8
100
AcDbSymbolTableRecord
100
AcDbViewportTableRecord
  2
*Active
 70
     0
 10
0.0
 20
0.0
 11
1.0
 21
1.0
 12
148.5
 22
105.0
 13
0.0
 23
0.0
 14
10.0
 24
10.0
 15
10.0
 25
10.0
 16
0.0
 26
0.0
 36
1.0
 17
0.0
 27
0.0
 37
0.0
 40
210.0
 41
1.4142857143
 42
50.0
 43
0.0
 44
0.0
 50
0.0
 51
0.0
 71
     0
 72
  2000
 73
     1
 74
     3
 75
     0
 76
     0
 77
     0
 78
     0
281
     0
 65
     1
110
0.0
120
0.0
130
0.0
111
1.0
121
0.0
131
0.0
112
0.0
122
1.0
132
0.0
 79
     0
146
0.0
  0
ENDTAB
  0
TABLE
  2
LTYPE
  5
5
330
0
100
AcDbSymbolTable
 70
     6
  0
LTYPE
  5
14
330
5
100
AcDbSymbolTableRecord
100
AcDbLinetypeTableRecord
  2
ByBlock
 70
     0
  3

 72
    65
 73
     0
 40
0.0
  0
LTYPE
  5
15
330
5
100
AcDbSymbolTableRecord
100
AcDbLinetypeTableRecord
  2
ByLayer
 70
     0
  3

 72
    65
 73
     0
 40
0.0
  0
LTYPE
  5
16
330
5
100
AcDbSymbolTableRecord
100
AcDbLinetypeTableRecord
  2
Continuous
 70
     0
  3
Solid line
 72
    65
 73
     0
 40
0.0
  0
LTYPE
  5
6E
330
5
100
AcDbSymbolTableRecord
100
AcDbLinetypeTableRecord
  2
HIDDEN
 70
     0
  3
Hidden __ __ __ __ __ __ __ __ __ __ __ __ __ __
 72
    65
 73
     2
 40
1.905
 49
1.27
 74
     0
 49
-0.635
 74
     0
  0
LTYPE
  5
6F
330
5
100
AcDbSymbolTableRecord
100
AcDbLinetypeTableRecord
  2
PHANTOM
 70
     0
  3
Phantom ______  __  __  ______  __  __  ______
 72
    65
 73
     6
 40
12.7
 49
6.35
 74
     0
 49
-1.27
 74
     0
 49
1.27
 74
     0
 49
-1.27
 74
     0
 49
1.27
 74
     0
 49
-1.27
 74
     0
  0
LTYPE
  5
70
330
5
100
AcDbSymbolTableRecord
100
AcDbLinetypeTableRecord
  2
CENTER
 70
     0
  3
Center ____ _ ____ _ ____ _ ____ _ ____ _ ____
 72
    65
 73
     4
 40
10.16
 49
6.35
 74
     0
 49
-1.27
 74
     0
 49
1.27
 74
     0
 49
-1.27
 74
     0
  0
LTYPE
  5
71
330
5
100
AcDbSymbolTableRecord
100
AcDbLinetypeTableRecord
  2
CENTERX2
 70
     0
  3
Center (2x) ________  __  ________  __  _____
 72
    65
 73
     4
 40
20.32
 49
12.7
 74
     0
 49
-2.54
 74
     0
 49
2.54
 74
     0
 49
-2.54
 74
     0
  0
LTYPE
  5
72
330
5
100
AcDbSymbolTableRecord
100
AcDbLinetypeTableRecord
  2
DOT2
 70
     0
  3
Dot (.5x) ........................................
 72
    65
 73
     2
 40
0.635
 49
0.0
 74
     0
 49
-0.635
 74
     0
  0
ENDTAB
  0
TABLE
  2
LAYER
  5
2
330
0
100
AcDbSymbolTable
 70
     5
  0
LAYER
  5
10
330
2
100
AcDbSymbolTableRecord
100
AcDbLayerTableRecord
  2
0
 70
     0
 62
     7
  6
Continuous
370
    -3
390
F
  0
LAYER
  5
73
330
2
100
AcDbSymbolTableRecord
100
AcDbLayerTableRecord
  2
FORMAT
 70
     0
 62
     7
  6
Continuous
370
    -3
390
F
  0
LAYER
  5
74
330
2
100
AcDbSymbolTableRecord
100
AcDbLayerTableRecord
  2
VERMASSUNG
 70
     0
 62
     7
  6
Continuous
370
    -3
390
F
  0
LAYER
  5
75
330
2
100
AcDbSymbolTableRecord
100
AcDbLayerTableRecord
  2
KOPF_DÜNN
 70
     0
 62
     7
  6
Continuous
370
    -3
390
F
  0
LAYER
  5
76
330
2
100
AcDbSymbolTableRecord
100
AcDbLayerTableRecord
  2
KOPF_DICK
 70
     0
 62
     7
  6
Continuous
370
    25
390
F
  0
ENDTAB
  0
TABLE
  2
STYLE
  5
3
330
0
100
AcDbSymbolTable
 70
     3
  0
STYLE
  5
11
330
3
100
AcDbSymbolTableRecord
100
AcDbTextStyleTableRecord
  2
Standard
 70
     0
 40
0.0
 41
1.0
 50
0.0
 71
     0
 42
2.0
  3
txt
  4

  0
STYLE
  5
77
330
3
100
AcDbSymbolTableRecord
100
AcDbTextStyleTableRecord
  2
SLDTEXTSTYLE0
 70
     0
 40
0.0
 41
0.7
 50
0.0
 71
     0
 42
2.0
  3
TXT
  4

  0
STYLE
  5
7B
330
3
100
AcDbSymbolTableRecord
100
AcDbTextStyleTableRecord
  2
SLDTEXTSTYLE1
 70
     0
 40
0.0
 41
0.6428571429
 50
0.0
 71
     0
 42
2.0
  3
TXT
  4

  0
ENDTAB
  0
TABLE
  2
VIEW
  5
6
330
0
100
AcDbSymbolTable
 70
     0
  0
ENDTAB
  0
TABLE
  2
UCS
  5
7
330
0
100
AcDbSymbolTable
 70
     0
  0
ENDTAB
  0
TABLE
  2
APPID
  5
9
330
0
100
AcDbSymbolTable
 70
     1
  0
APPID
  5
12
330
9
100
AcDbSymbolTableRecord
100
AcDbRegAppTableRecord
  2
ACAD
 70
     0
  0
ENDTAB
  0
TABLE
  2
DIMSTYLE
  5
A
330
0
100
AcDbSymbolTable
 70
     2
100
AcDbDimStyleTable
  0
DIMSTYLE
105
27
330
A
100
AcDbSymbolTableRecord
100
AcDbDimStyleTableRecord
  2
ISO-25
 70
     0
 41
2.5
 42
0.625
 43
3.75
 44
1.25
 73
     0
 74
     0
 77
     1
 78
     8
140
2.5
141
2.5
143
0.0393700787
147
0.625
171
     3
172
     1
178
     0
271
     2
272
     2
274
     3
278
    44
283
     0
284
     8
340
11
  0
DIMSTYLE
105
129
102
{ACAD_REACTORS
330
128
330
133
330
13D
330
147
330
151
330
15C
102
}
330
A
100
AcDbSymbolTableRecord
100
AcDbDimStyleTableRecord
  2
SLDDIMSTYLE0
 70
     0
 41
3.0
 44
0.0
 45
0.000000001
 73
     0
 74
     0
 77
     1
 78
    12
 79
     3
140
2.0
147
0.5
173
     1
178
     0
271
     2
272
     3
276
     2
284
    12
340
77
  0
ENDTAB
  0
TABLE
  2
BLOCK_RECORD
  5
1
330
0
100
AcDbSymbolTable
 70
     7
  0
BLOCK_RECORD
  5
1F
330
1
100
AcDbSymbolTableRecord
100
AcDbBlockTableRecord
  2
*Model_Space
340
22
  0
BLOCK_RECORD
  5
1B
330
1
100
AcDbSymbolTableRecord
100
AcDbBlockTableRecord
  2
*Paper_Space
340
1E
  0
BLOCK_RECORD
  5
23
330
1
100
AcDbSymbolTableRecord
100
AcDbBlockTableRecord
  2
*Paper_Space0
340
26
  0
BLOCK_RECORD
  5
12A
330
1
100
AcDbSymbolTableRecord
100
AcDbBlockTableRecord
  2
_D
340
0
  0
BLOCK_RECORD
  5
134
330
1
100
AcDbSymbolTableRecord
100
AcDbBlockTableRecord
  2
_D_1
340
0
  0
BLOCK_RECORD
  5
13E
330
1
100
AcDbSymbolTableRecord
100
AcDbBlockTableRecord
  2
_D_2
340
0
  0
BLOCK_RECORD
  5
148
330
1
100
AcDbSymbolTableRecord
100
AcDbBlockTableRecord
  2
_D_3
340
0
  0
BLOCK_RECORD
  5
152
330
1
100
AcDbSymbolTableRecord
100
AcDbBlockTableRecord
  2
_D_4
340
0
  0
BLOCK_RECORD
  5
15D
330
1
100
AcDbSymbolTableRecord
100
AcDbBlockTableRecord
  2
_D_5
340
0
  0
ENDTAB
  0
ENDSEC
  0
SECTION
  2
BLOCKS
  0
BLOCK
  5
20
330
1F
100
AcDbEntity
  8
0
100
AcDbBlockBegin
  2
*Model_Space
 70
     0
 10
0.0
 20
0.0
 30
0.0
  3
*Model_Space
  1

  0
ENDBLK
  5
21
330
1F
100
AcDbEntity
  8
0
100
AcDbBlockEnd
  0
BLOCK
  5
1C
330
1B
100
AcDbEntity
 67
     1
  8
0
100
AcDbBlockBegin
  2
*Paper_Space
 70
     0
 10
0.0
 20
0.0
 30
0.0
  3
*Paper_Space
  1

  0
ENDBLK
  5
1D
330
1B
100
AcDbEntity
 67
     1
  8
0
100
AcDbBlockEnd
  0
BLOCK
  5
24
330
23
100
AcDbEntity
  8
0
100
AcDbBlockBegin
  2
*Paper_Space0
 70
     0
 10
0.0
 20
0.0
 30
0.0
  3
*Paper_Space0
  1

  0
ENDBLK
  5
25
330
23
100
AcDbEntity
  8
0
100
AcDbBlockEnd
  0
BLOCK
  5
12B
330
12A
100
AcDbEntity
  8
0
100
AcDbBlockBegin
  2
_D
 70
     0
 10
0.0
 20
0.0
 30
0.0
  3
_D
  1

  0
SOLID
  5
12D
330
12A
100
AcDbEntity
  8
VERMASSUNG
100
AcDbTrace
 10
151.8299672278
 20
162.6481134028
 30
0.0
 11
154.8299672278
 21
162.1981134028
 31
0.0
 12
154.8299672278
 22
163.0981134028
 32
0.0
 13
154.8299672278
 23
163.0981134028
 33
0.0
  0
SOLID
  5
12E
330
12A
100
AcDbEntity
  8
VERMASSUNG
100
AcDbTrace
 10
185.8799672278
 20
162.6481134028
 30
0.0
 11
182.8799672278
 21
163.0981134028
 31
0.0
 12
182.8799672278
 22
162.1981134028
 32
0.0
 13
182.8799672278
 23
162.1981134028
 33
0.0
  0
LINE
  5
12F
330
12A
100
AcDbEntity
  8
VERMASSUNG
100
AcDbLine
 10
151.8299672278
 20
146.4945537265
 30
0.0
 11
151.8299672278
 21
163.6481134028
 31
0.0
  0
LINE
  5
130
330
12A
100
AcDbEntity
  8
VERMASSUNG
100
AcDbLine
 10
185.8799672278
 20
151.6481134028
 30
0.0
 11
185.8799672278
 21
163.6481134028
 31
0.0
  0
LINE
  5
131
330
12A
100
AcDbEntity
  8
VERMASSUNG
100
AcDbLine
 10
151.8299672278
 20
162.6481134028
 30
0.0
 11
185.8799672278
 21
162.6481134028
 31
0.0
  0
MTEXT
  5
132
330
12A
100
AcDbEntity
  8
VERMASSUNG
100
AcDbMText
 10
165.6549673086
 20
165.2262489987
 30
0.0
 40
2.0
 41
0.0
 71
     1
 72
     1
  1
34.05
  7
SLDTEXTSTYLE0
 73
     1
 44
1.0
  0
ENDBLK
  5
12C
330
12A
100
AcDbEntity
  8
0
100
AcDbBlockEnd
  0
BLOCK
  5
135
330
134
100
AcDbEntity
  8
0
100
AcDbBlockBegin
  2
_D_1
 70
     0
 10
0.0
 20
0.0
 30
0.0
  3
_D_1
  1

  0
SOLID
  5
137
330
134
100
AcDbEntity
  8
VERMASSUNG
100
AcDbTrace
 10
185.8799672278
 20
162.6481134028
 30
0.0
 11
188.8799672278
 21
162.1981134028
 31
0.0
 12
188.8799672278
 22
163.0981134028
 32
0.0
 13
188.8799672278
 23
163.0981134028
 33
0.0
  0
SOLID
  5
138
330
134
100
AcDbEntity
  8
VERMASSUNG
100
AcDbTrace
 10
209.8799672278
 20
162.6481134028
 30
0.0
 11
206.8799672278
 21
163.0981134028
 31
0.0
 12
206.8799672278
 22
162.1981134028
 32
0.0
 13
206.8799672278
 23
162.1981134028
 33
0.0
  0
LINE
  5
139
330
134
100
AcDbEntity
  8
VERMASSUNG
100
AcDbLine
 10
185.8799672278
 20
151.6481134028
 30
0.0
 11
185.8799672278
 21
163.6481134028
 31
0.0
  0
LINE
  5
13A
330
134
100
AcDbEntity
  8
VERMASSUNG
100
AcDbLine
 10
209.8799672278
 20
131.6481134028
 30
0.0
 11
209.8799672278
 21
163.6481134028
 31
0.0
  0
LINE
  5
13B
330
134
100
AcDbEntity
  8
VERMASSUNG
100
AcDbLine
 10
185.8799672278
 20
162.6481134028
 30
0.0
 11
209.8799672278
 21
162.6481134028
 31
0.0
  0
MTEXT
  5
13C
330
134
100
AcDbEntity
  8
VERMASSUNG
100
AcDbMText
 10
196.3799672147
 20
165.2262489987
 30
0.0
 40
2.0
 41
0.0
 71
     1
 72
     1
  1
24
  7
SLDTEXTSTYLE0
 73
     1
 44
1.0
  0
ENDBLK
  5
136
330
134
100
AcDbEntity
  8
0
100
AcDbBlockEnd
  0
BLOCK
  5
13F
330
13E
100
AcDbEntity
  8
0
100
AcDbBlockBegin
  2
_D_2
 70
     0
 10
0.0
 20
0.0
 30
0.0
  3
_D_2
  1

  0
SOLID
  5
141
330
13E
100
AcDbEntity
  8
VERMASSUNG
100
AcDbTrace
 10
125.8799672278
 20
170.2265126283
 30
0.0
 11
128.8799672278
 21
169.7765126283
 31
0.0
 12
128.8799672278
 22
170.6765126283
 32
0.0
 13
128.8799672278
 23
170.6765126283
 33
0.0
  0
SOLID
  5
142
330
13E
100
AcDbEntity
  8
VERMASSUNG
100
AcDbTrace
 10
185.8799672278
 20
170.2265126283
 30
0.0
 11
182.8799672278
 21
170.6765126283
 31
0.0
 12
182.8799672278
 22
169.7765126283
 32
0.0
 13
182.8799672278
 23
169.7765126283
 33
0.0
  0
LINE
  5
143
330
13E
100
AcDbEntity
  8
VERMASSUNG
100
AcDbLine
 10
125.8799672278
 20
147.8481134028
 30
0.0
 11
125.8799672278
 21
171.2265126283
 31
0.0
  0
LINE
  5
144
330
13E
100
AcDbEntity
  8
VERMASSUNG
100
AcDbLine
 10
185.8799672278
 20
151.6481134028
 30
0.0
 11
185.8799672278
 21
171.2265126283
 31
0.0
  0
LINE
  5
145
330
13E
100
AcDbEntity
  8
VERMASSUNG
100
AcDbLine
 10
125.8799672278
 20
170.2265126283
 30
0.0
 11
185.8799672278
 21
170.2265126283
 31
0.0
  0
MTEXT
  5
146
330
13E
100
AcDbEntity
  8
VERMASSUNG
100
AcDbMText
 10
154.4799672777
 20
172.8046482243
 30
0.0
 40
2.0
 41
0.0
 71
     1
 72
     1
  1
60
  7
SLDTEXTSTYLE0
 73
     1
 44
1.0
  0
ENDBLK
  5
140
330
13E
100
AcDbEntity
  8
0
100
AcDbBlockEnd
  0
BLOCK
  5
149
330
148
100
AcDbEntity
  8
0
100
AcDbBlockBegin
  2
_D_3
 70
     0
 10
0.0
 20
0.0
 30
0.0
  3
_D_3
  1

  0
SOLID
  5
14B
330
148
100
AcDbEntity
  8
VERMASSUNG
100
AcDbTrace
 10
93.9799672278
 20
177.3600768933
 30
0.0
 11
96.9799672278
 21
176.9100768933
 31
0.0
 12
96.9799672278
 22
177.8100768933
 32
0.0
 13
96.9799672278
 23
177.8100768933
 33
0.0
  0
SOLID
  5
14C
330
148
100
AcDbEntity
  8
VERMASSUNG
100
AcDbTrace
 10
209.8799672278
 20
177.3600768933
 30
0.0
 11
206.8799672278
 21
177.8100768933
 31
0.0
 12
206.8799672278
 22
176.9100768933
 32
0.0
 13
206.8799672278
 23
176.9100768933
 33
0.0
  0
LINE
  5
14D
330
148
100
AcDbEntity
  8
VERMASSUNG
100
AcDbLine
 10
93.9799672278
 20
136.3387911493
 30
0.0
 11
93.9799672278
 21
178.3600768933
 31
0.0
  0
LINE
  5
14E
330
148
100
AcDbEntity
  8
VERMASSUNG
100
AcDbLine
 10
209.8799672278
 20
131.6481134028
 30
0.0
 11
209.8799672278
 21
178.3600768933
 31
0.0
  0
LINE
  5
14F
330
148
100
AcDbEntity
  8
VERMASSUNG
100
AcDbLine
 10
93.9799672278
 20
177.3600768933
 30
0.0
 11
209.8799672278
 21
177.3600768933
 31
0.0
  0
MTEXT
  5
150
330
148
100
AcDbEntity
  8
VERMASSUNG
100
AcDbMText
 10
149.2299671578
 20
179.9382124893
 30
0.0
 40
2.0
 41
0.0
 71
     1
 72
     1
  1
115.9
  7
SLDTEXTSTYLE0
 73
     1
 44
1.0
  0
ENDBLK
  5
14A
330
148
100
AcDbEntity
  8
0
100
AcDbBlockEnd
  0
BLOCK
  5
153
330
152
100
AcDbEntity
  8
0
100
AcDbBlockBegin
  2
_D_4
 70
     0
 10
0.0
 20
0.0
 30
0.0
  3
_D_4
  1

  0
SOLID
  5
155
330
152
100
AcDbEntity
  8
VERMASSUNG
100
AcDbTrace
 10
83.8346633854
 20
85.1481134028
 30
0.0
 11
84.2846633854
 21
88.1481134028
 31
0.0
 12
83.3846633854
 22
88.1481134028
 32
0.0
 13
83.3846633854
 23
88.1481134028
 33
0.0
  0
SOLID
  5
156
330
152
100
AcDbEntity
  8
VERMASSUNG
100
AcDbTrace
 10
83.8346633854
 20
148.1481134028
 30
0.0
 11
83.3846633854
 21
145.1481134028
 31
0.0
 12
84.2846633854
 22
145.1481134028
 32
0.0
 13
84.2846633854
 23
145.1481134028
 33
0.0
  0
LINE
  5
157
330
152
100
AcDbEntity
  8
VERMASSUNG
100
AcDbLine
 10
126.1799672278
 20
85.1481134028
 30
0.0
 11
82.8346633854
 21
85.1481134028
 31
0.0
  0
LINE
  5
158
330
152
100
AcDbEntity
  8
VERMASSUNG
100
AcDbLine
 10
126.1799672278
 20
148.1481134028
 30
0.0
 11
82.8346633854
 21
148.1481134028
 31
0.0
  0
LINE
  5
159
330
152
100
AcDbEntity
  8
VERMASSUNG
100
AcDbLine
 10
83.8346633854
 20
85.1481134028
 30
0.0
 11
83.8346633854
 21
148.1481134028
 31
0.0
  0
MTEXT
  5
15A
330
152
100
AcDbEntity
  8
VERMASSUNG
100
AcDbMText
 10
81.2565280805
 20
113.4431134455
 30
0.0
 40
2.0
 41
0.0
 71
     1
 72
     1
  1
%%c
  7
SLDTEXTSTYLE0
 11
6.123233995736766E-17
 21
1.0
 31
0.0
 73
     1
 44
1.0
  0
MTEXT
  5
15B
330
152
100
AcDbEntity
  8
VERMASSUNG
100
AcDbMText
 10
81.0565281292
 20
117.0531134598
 30
0.0
 40
2.0
 41
0.0
 71
     1
 72
     1
  1
63
  7
SLDTEXTSTYLE0
 11
6.123233995736766E-17
 21
1.0
 31
0.0
 73
     1
 44
1.0
  0
ENDBLK
  5
154
330
152
100
AcDbEntity
  8
0
100
AcDbBlockEnd
  0
BLOCK
  5
15E
330
15D
100
AcDbEntity
  8
0
100
AcDbBlockBegin
  2
_D_5
 70
     0
 10
0.0
 20
0.0
 30
0.0
  3
_D_5
  1

  0
SOLID
  5
160
330
15D
100
AcDbEntity
  8
VERMASSUNG
100
AcDbTrace
 10
223.4486712841
 20
100.6481134028
 30
0.0
 11
223.8986712841
 21
103.6481134028
 31
0.0
 12
222.9986712841
 22
103.6481134028
 32
0.0
 13
222.9986712841
 23
103.6481134028
 33
0.0
  0
SOLID
  5
161
330
15D
100
AcDbEntity
  8
VERMASSUNG
100
AcDbTrace
 10
223.4486712841
 20
132.6481134028
 30
0.0
 11
222.9986712841
 21
129.6481134028
 31
0.0
 12
223.8986712841
 22
129.6481134028
 32
0.0
 13
223.8986712841
 23
129.6481134028
 33
0.0
  0
LINE
  5
162
330
15D
100
AcDbEntity
  8
VERMASSUNG
100
AcDbLine
 10
208.8799672278
 20
100.6481134028
 30
0.0
 11
224.4486712841
 21
100.6481134028
 31
0.0
  0
LINE
  5
163
330
15D
100
AcDbEntity
  8
VERMASSUNG
100
AcDbLine
 10
208.8799672278
 20
132.6481134028
 30
0.0
 11
224.4486712841
 21
132.6481134028
 31
0.0
  0
LINE
  5
164
330
15D
100
AcDbEntity
  8
VERMASSUNG
100
AcDbLine
 10
223.4486712841
 20
100.6481134028
 30
0.0
 11
223.4486712841
 21
132.6481134028
 31
0.0
  0
MTEXT
  5
165
330
15D
100
AcDbEntity
  8
VERMASSUNG
100
AcDbMText
 10
220.8705359792
 20
113.4431134455
 30
0.0
 40
2.0
 41
0.0
 71
     1
 72
     1
  1
%%c
  7
SLDTEXTSTYLE0
 11
6.123233995736766E-17
 21
1.0
 31
0.0
 73
     1
 44
1.0
  0
MTEXT
  5
166
330
15D
100
AcDbEntity
  8
VERMASSUNG
100
AcDbMText
 10
220.6705360279
 20
117.0531134598
 30
0.0
 40
2.0
 41
0.0
 71
     1
 72
     1
  1
32
  7
SLDTEXTSTYLE0
 11
6.123233995736766E-17
 21
1.0
 31
0.0
 73
     1
 44
1.0
  0
ENDBLK
  5
15F
330
15D
100
AcDbEntity
  8
0
100
AcDbBlockEnd
  0
ENDSEC
  0
SECTION
  2
ENTITIES
  0
MTEXT
  5
78
330
1F
100
AcDbEntity
  8
KOPF_DÜNN
100
AcDbMText
 10
13.8892156294
 20
23.8442973028
 30
0.0
 40
3.0
 41
0.0
 71
     1
 72
     1
  1
HA6.D32.K01.060
  7
SLDTEXTSTYLE0
 73
     1
 44
1.0
  0
MTEXT
  5
79
330
1F
100
AcDbEntity
  8
VERMASSUNG
100
AcDbMText
 10
13.9329988022
 20
28.8834360957
 30
0.0
 40
3.0
 41
0.0
 71
     1
 72
     1
  1
Fräsdorn Typ S_Milling arbor type S
  7
SLDTEXTSTYLE0
 73
     1
 44
1.0
  0
MTEXT
  5
7A
330
1F
100
AcDbEntity
  8
VERMASSUNG
100
AcDbMText
 10
98.8601118557
 20
13.8365368761
 30
0.0
 40
2.0
 41
0.0
 71
     1
 72
     1
  1
Datum: 16.02.2018
  7
SLDTEXTSTYLE0
 73
     1
 44
1.0
  0
MTEXT
  5
7C
330
1F
100
AcDbEntity
  8
VERMASSUNG
100
AcDbMText
 10
13.933048693
 20
18.0482802738
 30
0.0
 40
2.0
 41
0.0
 71
     1
 72
     1
  1
HSK A 63 / Ø32
  7
SLDTEXTSTYLE1
 73
     1
 44
1.0
  0
MTEXT
  5
7D
330
1F
100
AcDbEntity
  8
VERMASSUNG
100
AcDbMText
 10
13.9808475933
 20
13.9090974274
 30
0.0
 40
2.0
 41
0.0
 71
     1
 72
     1
  1
Gewicht: 1630g
  7
SLDTEXTSTYLE0
 73
     1
 44
1.0
  0
ARC
  5
7E
330
1F
100
AcDbEntity
  8
0
  6
Continuous
 62
     7
370
    25
100
AcDbCircle
 10
192.3799672278
 20
137.1481134028
 30
0.0
 40
0.5
100
AcDbArc
 50
270.0
 51
0.0
  0
ARC
  5
7F
330
1F
100
AcDbEntity
  8
0
  6
Continuous
 62
     7
370
    25
100
AcDbCircle
 10
192.3799672278
 20
150.1481134028
 30
0.0
 40
0.5
100
AcDbArc
 50
0.0
 51
90.0
  0
LINE
  5
80
330
1F
100
AcDbEntity
  8
0
  6
Continuous
 62
     7
370
    25
100
AcDbLine
 10
185.8799658867
 20
136.6481129557
 30
0.0
 11
192.3799678834
 21
136.6481129557
 31
0.0
  0
LINE
  5
81
330
1F
100
AcDbEntity
  8
0
  6
Continuous
 62
     7
370
    25
100
AcDbLine
 10
192.3799678834
 20
150.6481152505
 30
0.0
 11
185.8799658867
 21
150.6481152505
 31
0.0
  0
LINE
  5
82
330
1F
100
AcDbEntity
  8
0
  6
Continuous
 62
     7
370
    25
100
AcDbLine
 10
185.8799658867
 20
82.648111555
 30
0.0
 11
192.3799678834
 21
82.648111555
 31
0.0
  0
LINE
  5
83
330
1F
100
AcDbEntity
  8
0
  6
Continuous
 62
     7
370
    25
100
AcDbLine
 10
192.3799678834
 20
96.6481138498
 30
0.0
 11
185.8799658867
 21
96.6481138498
 31
0.0
  0
ARC
  5
84
330
1F
100
AcDbEntity
  8
0
  6
Continuous
 62
     7
370
    25
100
AcDbCircle
 10
192.3799672278
 20
83.1481134028
 30
0.0
 40
0.5
100
AcDbArc
 50
270.0
 51
0.0
  0
ARC
  5
85
330
1F
100
AcDbEntity
  8
0
  6
Continuous
 62
     7
370
    25
100
AcDbCircle
 10
192.3799672278
 20
96.1481134028
 30
0.0
 40
0.5
100
AcDbArc
 50
0.0
 51
90.0
  0
ARC
  5
86
330
1F
100
AcDbEntity
  8
0
  6
Continuous
 62
     7
370
    25
100
AcDbCircle
 10
168.8799672278
 20
81.6481134028
 30
0.0
 40
1.0
100
AcDbArc
 50
180.0
 51
270.0
  0
ARC
  5
87
330
1F
100
AcDbEntity
  8
0
  6
Continuous
 62
     7
370
    25
100
AcDbCircle
 10
168.8799672278
 20
151.6481134028
 30
0.0
 40
1.0
100
AcDbArc
 50
90.0
 51
180.0
  0
LINE
  5
88
330
1F
100
AcDbEntity
  8
0
  6
Continuous
 62
     7
370
    25
100
AcDbLine
 10
168.8799686881
 20
80.6481149525
 30
0.0
 11
184.8799675854
 21
80.6481149525
 31
0.0
  0
LINE
  5
89
330
1F
100
AcDbEntity
  8
0
  6
Continuous
 62
     7
370
    25
100
AcDbLine
 10
184.8799675854
 20
152.6481118531
 30
0.0
 11
168.8799686881
 21
152.6481118531
 31
0.0
  0
ARC
  5
8A
330
1F
100
AcDbEntity
  8
0
  6
Continuous
 62
     7
370
    25
100
AcDbCircle
 10
184.8799672278
 20
81.6481134028
 30
0.0
 40
1.0
100
AcDbArc
 50
270.0
 51
0.0
  0
ARC
  5
8B
330
1F
100
AcDbEntity
  8
0
  6
Continuous
 62
     7
370
    25
100
AcDbCircle
 10
184.8799672278
 20
151.6481134028
 30
0.0
 40
1.0
100
AcDbArc
 50
0.0
 51
90.0
  0
LINE
  5
8C
330
1F
100
AcDbEntity
  8
0
  6
Continuous
 62
     7
370
    25
100
AcDbLine
 10
126.179967242
 20
85.1481128961
 30
0.0
 11
130.829967201
 21
85.1481128961
 31
0.0
  0
LINE
  5
8D
330
1F
100
AcDbEntity
  8
0
  6
Continuous
 62
     7
370
    25
100
AcDbLine
 10
130.8579557726
 20
148.1481139094
 30
0.0
 11
126.179967242
 21
148.1481139094
 31
0.0
  0
ARC
  5
8E
330
1F
100
AcDbEntity
  8
0
  6
Continuous
 62
     7
370
    25
100
AcDbCircle
 10
126.1799672278
 20
85.4481134028
 30
0.0
 40
0.3000000000000114
100
AcDbArc
 50
180.0
 51
270.0
  0
ARC
  5
8F
330
1F
100
AcDbEntity
  8
0
  6
Continuous
 62
     7
370
    25
100
AcDbCircle
 10
126.1799672278
 20
147.8481134028
 30
0.0
 40
0.3000000000000114
100
AcDbArc
 50
90.0
 51
180.0
  0
ARC
  5
90
330
1F
100
AcDbEntity
  8
0
  6
Continuous
 62
     7
370
    25
100
AcDbCircle
 10
152.8299672278
 20
89.6481134028
 30
0.0
 40
1.0
100
AcDbArc
 50
90.0
 51
143.1139143113
  0
ARC
  5
91
330
1F
100
AcDbEntity
  8
0
  6
Continuous
 62
     7
370
    25
100
AcDbCircle
 10
152.8299672278
 20
143.6481134028
 30
0.0
 40
1.000000000000003
100
AcDbArc
 50
216.9014364392
 51
270.0
  0
LINE
  5
92
330
1F
100
AcDbEntity
  8
0
  6
Continuous
 62
     7
370
    25
100
AcDbLine
 10
152.8299670818
 20
90.6481128663
 30
0.0
 11
163.0058005603
 21
90.6481128663
 31
0.0
  0
LINE
  5
93
330
1F
100
AcDbEntity
  8
0
  6
Continuous
 62
     7
370
    25
100
AcDbLine
 10
163.0058005603
 20
142.6481139392
 30
0.0
 11
152.8299670818
 21
142.6481139392
 31
0.0
  0
ARC
  5
94
330
1F
100
AcDbEntity
  8
0
  6
Continuous
 62
     7
370
    25
100
AcDbCircle
 10
125.3799604751
 20
92.0776757884
 30
0.0
 40
0.6000067526677242
100
AcDbArc
 50
33.5571153394
 51
90.0
  0
ARC
  5
95
330
1F
100
AcDbEntity
  8
0
  6
Continuous
 62
     7
370
    25
100
AcDbCircle
 10
125.3799604751
 20
141.2185510172
 30
0.0
 40
0.6000067526677045
100
AcDbArc
 50
270.0
 51
326.4428846606
  0
LINE
  5
96
330
1F
100
AcDbEntity
  8
0
  6
Continuous
 62
     7
370
    25
100
AcDbLine
 10
123.8799671328
 20
92.4276821793
 30
0.0
 11
124.736680059
 21
92.6572382927
 31
0.0
  0
LINE
  5
97
330
1F
100
AcDbEntity
  8
0
  6
Continuous
 62
     7
370
    25
100
AcDbLine
 10
124.736680059
 20
140.6389885128
 30
0.0
 11
123.8799671328
 21
140.8685446263
 31
0.0
  0
LINE
  5
98
330
1F
100
AcDbEntity
  8
0
  6
Continuous
 62
     7
370
    25
100
AcDbLine
 10
112.648458794
 20
140.305843252
 30
0.0
 11
100.0799663516
 21
139.6761592955
 31
0.0
  0
LINE
  5
99
330
1F
100
AcDbEntity
  8
0
  6
Continuous
 62
     7
370
    25
100
AcDbLine
 10
123.8799671328
 20
140.8685446263
 30
0.0
 11
121.0629657062
 21
140.7274120033
 31
0.0
  0
LINE
  5
9A
330
1F
100
AcDbEntity
  8
0
  6
Continuous
 62
     7
370
    25
100
AcDbLine
 10
121.0630215856
 20
92.5688129396
 30
0.0
 11
123.8799671328
 21
92.4276821793
 31
0.0
  0
LINE
  5
9B
330
1F
100
AcDbEntity
  8
0
  6
Continuous
 62
     7
370
    25
100
AcDbLine
 10
104.0799670072
 20
93.4196673811
 30
0.0
 11
112.6488611253
 21
92.9903630645
 31
0.0
  0
ARC
  5
9C
330
1F
100
AcDbEntity
  8
0
  6
Continuous
 62
     7
370
    25
100
AcDbCircle
 10
124.8919714282
 20
92.077682541
 30
0.0
 40
0.6000000000000085
100
AcDbArc
 50
90.0
 51
105.0
  0
ARC
  5
9D
330
1F
100
AcDbEntity
  8
0
  6
Continuous
 62
     7
370
    25
100
AcDbCircle
 10
124.8919714282
 20
141.2185442645
 30
0.0
 40
0.6000000000000208
100
AcDbArc
 50
255.0
 51
270.0
  0
LINE
  5
9E
330
1F
100
AcDbEntity
  8
0
  6
Continuous
 62
     7
370
    25
100
AcDbLine
 10
124.8919714626
 20
92.6776826859
 30
0.0
 11
125.3799604519
 21
92.6776826859
 31
0.0
  0
LINE
  5
9F
330
1F
100
AcDbEntity
  8
0
  6
Continuous
 62
     7
370
    25
100
AcDbLine
 10
125.3799604519
 20
140.6185441196
 30
0.0
 11
124.8919714626
 21
140.6185441196
 31
0.0
  0
ARC
  5
A0
330
1F
100
AcDbEntity
  8
0
  6
Continuous
 62
     7
370
    25
100
AcDbCircle
 10
186.2799672278
 20
100.3981134028
 30
0.0
 40
0.600000000000035
100
AcDbArc
 50
90.0
 51
131.8103148958
  0
ARC
  5
A1
330
1F
100
AcDbEntity
  8
0
  6
Continuous
 62
     7
370
    25
100
AcDbCircle
 10
186.2799672278
 20
132.8981134028
 30
0.0
 40
0.6000000000000455
100
AcDbArc
 50
228.1896851042
 51
270.0
  0
LINE
  5
A2
330
1F
100
AcDbEntity
  8
0
  6
Continuous
 62
     7
370
    25
100
AcDbLine
 10
188.3799672278
 20
100.6481126428
 30
0.0
 11
208.8799640687
 21
100.6481126428
 31
0.0
  0
LINE
  5
A3
330
1F
100
AcDbEntity
  8
0
  6
Continuous
 62
     7
370
    25
100
AcDbLine
 10
208.8799640687
 20
132.6481141627
 30
0.0
 11
188.3799672278
 21
132.6481141627
 31
0.0
  0
ARC
  5
A4
330
1F
100
AcDbEntity
  8
0
  6
Continuous
 62
     7
370
    25
100
AcDbCircle
 10
208.8799672278
 20
101.6481134028
 30
0.0
 40
1.0
100
AcDbArc
 50
270.0
 51
0.0
  0
ARC
  5
A5
330
1F
100
AcDbEntity
  8
0
  6
Continuous
 62
     7
370
    25
100
AcDbCircle
 10
208.8799672278
 20
131.6481134028
 30
0.0
 40
1.0
100
AcDbArc
 50
360.0
 51
90.0
  0
LINE
  5
A6
330
1F
100
AcDbEntity
  8
0
  6
Continuous
 62
     7
370
    25
100
AcDbLine
 10
188.3799672278
 20
132.6481141627
 30
0.0
 11
187.1500477346
 21
132.3185582191
 31
0.0
  0
LINE
  5
A7
330
1F
100
AcDbEntity
  8
0
  6
Continuous
 62
     7
370
    25
100
AcDbLine
 10
187.1500477346
 20
100.9776685864
 30
0.0
 11
188.3799672278
 21
100.6481126428
 31
0.0
  0
ARC
  5
A8
330
1F
100
AcDbEntity
  8
0
  6
Continuous
 62
     7
370
    25
100
AcDbCircle
 10
186.9947579466
 20
100.3981134028
 30
0.0
 40
0.6000000000000227
100
AcDbArc
 50
75.0
 51
90.0
  0
ARC
  5
A9
330
1F
100
AcDbEntity
  8
0
  6
Continuous
 62
     7
370
    25
100
AcDbCircle
 10
186.9947579466
 20
132.8981134028
 30
0.0
 40
0.6000000000000227
100
AcDbArc
 50
270.0
 51
285.0
  0
LINE
  5
AA
330
1F
100
AcDbEntity
  8
0
  6
Continuous
 62
     7
370
    25
100
AcDbLine
 10
186.2799689325
 20
100.9981129796
 30
0.0
 11
186.9947590085
 21
100.9981129796
 31
0.0
  0
LINE
  5
AB
330
1F
100
AcDbEntity
  8
0
  6
Continuous
 62
     7
370
    25
100
AcDbLine
 10
186.9947590085
 20
132.298113826
 30
0.0
 11
186.2799689325
 21
132.298113826
 31
0.0
  0
LINE
  5
AC
330
1F
100
AcDbEntity
  8
0
  6
Continuous
 62
     7
370
    25
100
AcDbLine
 10
95.2633038314
 20
95.7781132788
 30
0.0
 11
102.6799675228
 21
95.7781132788
 31
0.0
  0
ARC
  5
AD
330
1F
100
AcDbEntity
  8
0
  6
Continuous
 62
     7
370
    25
100
AcDbCircle
 10
102.6799672278
 20
94.3781134028
 30
0.0
 40
1.400000000000007
100
AcDbArc
 50
42.2465410162
 51
90.0
  0
LINE
  5
AE
330
1F
100
AcDbEntity
  8
0
  6
Continuous
 62
     7
370
    25
100
AcDbLine
 10
93.9809993061
 20
96.9270803512
 30
0.0
 11
95.1211299898
 21
95.7869496674
 31
0.0
  0
LINE
  5
AF
330
1F
100
AcDbEntity
  8
0
  6
Continuous
 62
     7
370
    25
100
AcDbLine
 10
95.1211299898
 20
137.5092771382
 30
0.0
 11
93.9898692223
 21
136.3780145079
 31
0.0
  0
ARC
  5
B0
330
1F
100
AcDbEntity
  8
0
  6
Continuous
 62
     7
370
    25
100
AcDbCircle
 10
98.6799672278
 20
138.9181134028
 30
0.0
 40
1.400000000000025
100
AcDbArc
 50
270.0
 51
301.7485287426
  0
LINE
  5
B1
330
1F
100
AcDbEntity
  8
0
  6
Continuous
 62
     7
370
    25
100
AcDbLine
 10
98.6799668672
 20
137.5181135268
 30
0.0
 11
95.2542327496
 21
137.5181135268
 31
0.0
  0
LINE
  5
B2
330
1F
100
AcDbEntity
  8
0
  6
Continuous
 62
     7
370
    25
100
AcDbLine
 10
192.8799688967
 20
137.148113969
 30
0.0
 11
192.8799688967
 21
150.1481142372
 31
0.0
  0
LINE
  5
B3
330
1F
100
AcDbEntity
  8
0
  6
Continuous
 62
     7
370
    25
100
AcDbLine
 10
192.8799688967
 20
83.1481125683
 30
0.0
 11
192.8799688967
 21
96.1481128365
 31
0.0
  0
LINE
  5
B4
330
1F
100
AcDbEntity
  8
0
  6
Continuous
 62
     7
370
    25
100
AcDbLine
 10
167.8799666615
 20
81.6481132538
 30
0.0
 11
167.8799666615
 21
151.6481135518
 31
0.0
  0
SPLINE
  5
B5
330
1F
100
AcDbEntity
  8
0
  6
Continuous
 62
     7
370
    25
100
AcDbSpline
210
0.0
220
0.0
230
1.0
 70
    11
 71
     3
 72
    92
 73
    88
 74
     0
 42
0.000000001
 43
0.00000001
 40
0.0
 40
0.0
 40
0.0
 40
0.0
 40
0.0312500000000005
 40
0.0312500000000005
 40
0.0468750000000004
 40
0.0468750000000004
 40
0.0625000000000004
 40
0.0625000000000004
 40
0.09375
 40
0.09375
 40
0.109375
 40
0.109375
 40
0.1249999999999999
 40
0.1249999999999999
 40
0.1562499999999998
 40
0.1562499999999998
 40
0.1874999999999996
 40
0.1874999999999996
 40
0.2187499999999994
 40
0.2187499999999994
 40
0.2343749999999993
 40
0.2343749999999993
 40
0.2499999999999993
 40
0.2656249999999992
 40
0.2656249999999992
 40
0.2812499999999992
 40
0.2812499999999992
 40
0.3124999999999991
 40
0.3124999999999991
 40
0.3281249999999991
 40
0.3281249999999991
 40
0.343749999999999
 40
0.343749999999999
 40
0.3749999999999989
 40
0.3749999999999989
 40
0.4062499999999988
 40
0.4062499999999988
 40
0.4374999999999987
 40
0.4374999999999987
 40
0.4687499999999986
 40
0.4687499999999986
 40
0.4843749999999988
 40
0.4843749999999988
 40
0.4999999999999989
 40
0.4999999999999989
 40
0.5312499999999998
 40
0.5312499999999998
 40
0.5468750000000002
 40
0.5468750000000002
 40
0.5625000000000007
 40
0.5625000000000007
 40
0.5937500000000011
 40
0.5937500000000011
 40
0.6250000000000016
 40
0.6250000000000016
 40
0.6406250000000016
 40
0.6406250000000016
 40
0.6562500000000016
 40
0.6562500000000016
 40
0.6875000000000013
 40
0.6875000000000013
 40
0.7187500000000011
 40
0.7187500000000011
 40
0.7500000000000009
 40
0.7500000000000009
 40
0.7656250000000008
 40
0.7656250000000008
 40
0.7812500000000006
 40
0.7968750000000003
 40
0.7968750000000003
 40
0.8125000000000001
 40
0.8125000000000001
 40
0.8437499999999997
 40
0.8437499999999997
 40
0.8593749999999996
 40
0.8593749999999996
 40
0.8749999999999994
 40
0.8749999999999994
 40
0.9062499999999997
 40
0.9062499999999997
 40
0.9374999999999999
 40
0.9374999999999999
 40
0.9531249999999998
 40
0.9531249999999998
 40
0.9687499999999997
 40
0.9687499999999997
 40
1.0
 40
1.0
 40
1.0
 40
1.0
 10
176.8799672277858
 20
104.523931581462
 30
0.0
 10
176.4259910334223
 20
104.523931581462
 30
0.0
 10
175.9790054795344
 20
104.5630137664125
 30
0.0
 10
175.3186304604553
 20
104.6783264640427
 30
0.0
 10
175.1002011024341
 20
104.726282142378
 30
0.0
 10
174.6668108725368
 20
104.841748342169
 30
0.0
 10
174.4507390248283
 20
104.9097066083832
 30
0.0
 10
173.818682759642
 20
105.1404430803379
 30
0.0
 10
173.4177449870508
 20
105.3295526188232
 30
0.0
 10
172.8468528804321
 20
105.6667694240536
 30
0.0
 10
172.6616753405576
 20
105.7881618126723
 30
0.0
 10
172.3019803868478
 20
106.0498320119866
 30
0.0
 10
172.1279133900779
 20
106.1899699903079
 30
0.0
 10
171.6336853902272
 20
106.6298298304442
 30
0.0
 10
171.3371429321441
 20
106.9516382759601
 30
0.0
 10
170.8114734786611
 20
107.6549929965737
 30
0.0
 10
170.5820446574486
 20
108.0396677177353
 30
0.0
 10
170.2156971521576
 20
108.8361899506148
 30
0.0
 10
170.0752019601601
 20
109.2517801315309
 30
0.0
 10
169.9315707794111
 20
109.9028902199512
 30
0.0
 10
169.8953062009461
 20
110.1238476875214
 30
0.0
 10
169.8472116807525
 20
110.5642114738437
 30
0.0
 10
169.822924893148
 20
111.0056269975334
 30
0.0
 10
169.845742262054
 20
111.4491441046382
 30
0.0
 10
169.8926028322281
 20
111.8937239990095
 30
0.0
 10
169.9283654251977
 20
112.117406340144
 30
0.0
 10
170.0695266525992
 20
112.7744268245451
 30
0.0
 10
170.208575097789
 20
113.1985717083269
 30
0.0
 10
170.4832430731957
 20
113.8141780918784
 30
0.0
 10
170.5865823283976
 20
114.0169785904468
 30
0.0
 10
170.8117245052787
 20
114.4079237102568
 30
0.0
 10
170.9335840899286
 20
114.5965471857059
 30
0.0
 10
171.3260877438778
 20
115.1425234871381
 30
0.0
 10
171.6252840488214
 20
115.4818870942666
 30
0.0
 10
172.288239447242
 20
116.0991051828417
 30
0.0
 10
172.6451513742984
 20
116.3713056057513
 30
0.0
 10
173.4073271507945
 20
116.8464531628888
 30
0.0
 10
173.8167563870615
 20
117.0504780663072
 30
0.0
 10
174.6555669253667
 20
117.3746582087728
 30
0.0
 10
175.0867600882822
 20
117.4968521247269
 30
0.0
 10
175.7511137211738
 20
117.620731365797
 30
0.0
 10
175.9766664125945
 20
117.6521208345316
 30
0.0
 10
176.426563600659
 20
117.6936786822149
 30
0.0
 10
176.6510800655479
 20
117.704010272251
 30
0.0
 10
177.3233654102094
 20
117.7044469323809
 30
0.0
 10
177.7698817629671
 20
117.664273864572
 30
0.0
 10
178.4370650872476
 20
117.5413580043605
 30
0.0
 10
178.65860696603
 20
117.4898127259391
 30
0.0
 10
179.0916603511465
 20
117.3677242380676
 30
0.0
 10
179.3043270582432
 20
117.2969928901231
 30
0.0
 10
179.9308487016256
 20
117.0559859248992
 30
0.0
 10
180.3337666383248
 20
116.856925332889
 30
0.0
 10
181.105426060635
 20
116.3783664119048
 30
0.0
 10
181.4621674198993
 20
116.1064018491376
 30
0.0
 10
181.9544452606238
 20
115.6504014150761
 30
0.0
 10
182.1113489662234
 20
115.4903363648822
 30
0.0
 10
182.4102810604083
 20
115.15353203548
 30
0.0
 10
182.553029740388
 20
114.9756856493715
 30
0.0
 10
182.949494364762
 20
114.4272398867493
 30
0.0
 10
183.1736536519271
 20
114.0405774242425
 30
0.0
 10
183.5413351143856
 20
113.225316366991
 30
0.0
 10
183.6852188812141
 20
112.7917490648481
 30
0.0
 10
183.8753444383071
 20
111.9201876083515
 30
0.0
 10
183.9240917666291
 20
111.4789628375053
 30
0.0
 10
183.9257876066247
 20
110.8088339059987
 30
0.0
 10
183.9141560067099
 20
110.5841131727701
 30
0.0
 10
183.8673922149092
 20
110.1429504465615
 30
0.0
 10
183.7972260180505
 20
109.7072281579021
 30
0.0
 10
183.6811032314842
 20
109.2821198971345
 30
0.0
 10
183.5417047672261
 20
108.8623296756269
 30
0.0
 10
183.4598914929893
 20
108.6543220934944
 30
0.0
 10
183.1848486283176
 20
108.0519302625616
 30
0.0
 10
182.9613074839482
 20
107.6747716249321
 30
0.0
 10
182.567400667916
 20
107.1439270429177
 30
0.0
 10
182.4254061594083
 20
106.971981067839
 30
0.0
 10
182.1265090102143
 20
106.6456207924434
 30
0.0
 10
181.9695773923049
 20
106.4909182002187
 30
0.0
 10
181.477120640145
 20
106.0510996764493
 30
0.0
 10
181.1191071401653
 20
105.7894462424064
 30
0.0
 10
180.3490654623626
 20
105.3326616916213
 30
0.0
 10
179.9469213942582
 20
105.1431068138564
 30
0.0
 10
179.3193571090142
 20
104.9131283415904
 30
0.0
 10
179.1060809108376
 20
104.8455991228533
 30
0.0
 10
178.6712273621523
 20
104.7289676158124
 30
0.0
 10
178.4494847204224
 20
104.6799455317909
 30
0.0
 10
177.7833185553708
 20
104.5630578132439
 30
0.0
 10
177.3339434221493
 20
104.523931581462
 30
0.0
 10
176.8799672277858
 20
104.523931581462
 30
0.0
  0
LINE
  5
B6
330
1F
100
AcDbEntity
  8
0
  6
Continuous
 62
     7
370
    25
100
AcDbLine
 10
185.8799658867
 20
81.6481132538
 30
0.0
 11
185.8799658867
 21
151.6481135518
 31
0.0
  0
LINE
  5
B7
330
1F
100
AcDbEntity
  8
0
  6
Continuous
 62
     7
370
    25
100
AcDbLine
 10
151.8299669178
 20
87.0878361643
 30
0.0
 11
151.8299669178
 21
136.4981141419
 31
0.0
  0
SPLINE
  5
B8
330
1F
100
AcDbEntity
  8
0
  6
Continuous
 62
     7
370
    25
100
AcDbSpline
210
0.0
220
0.0
230
1.0
 70
     8
 71
     3
 72
    10
 73
     6
 74
     0
 42
0.000000001
 43
0.00000001
 40
0.0
 40
0.0
 40
0.0
 40
0.0
 40
0.5
 40
0.5
 40
1.0
 40
1.0
 40
1.0
 40
1.0
 10
151.8299672277859
 20
87.08783600218017
 30
0.0
 10
151.8299672277859
 20
86.92794873398651
 30
0.0
 10
151.76865757655
 20
86.76682147847193
 30
0.0
 10
151.5495579390149
 20
86.53272248011709
 30
0.0
 10
151.3915097327015
 20
86.46119570652586
 30
0.0
 10
151.2299672277858
 20
86.46119570652586
 30
0.0
  0
SPLINE
  5
B9
330
1F
100
AcDbEntity
  8
0
  6
Continuous
 62
     7
370
    25
100
AcDbSpline
210
0.0
220
0.0
230
1.0
 70
    24
 71
     3
 72
    12
 73
     8
 74
     0
 42
0.000000001
 43
0.00000001
 40
0.0
 40
0.0
 40
0.0
 40
0.0
 40
0.2500000000000006
 40
0.2500000000000006
 40
0.5000000000000012
 40
0.5000000000000012
 40
1.0
 40
1.0
 40
1.0
 40
1.0
 10
151.2299672277858
 20
136.498113402773
 30
0.0
 10
151.3202062954729
 20
136.498113402773
 30
0.0
 10
151.4111044095794
 20
136.498113402773
 30
0.0
 10
151.5657014460679
 20
136.498113402773
 30
0.0
 10
151.630679862176
 20
136.498113402773
 30
0.0
 10
151.7825148901123
 20
136.498113402773
 30
0.0
 10
151.8299672277858
 20
136.498113402773
 30
0.0
 10
151.8299672277859
 20
136.498113402773
 30
0.0
  0
LINE
  5
BA
330
1F
100
AcDbEntity
  8
0
  6
Continuous
 62
     7
370
    25
100
AcDbLine
 10
151.2299679371
 20
86.46119577
 30
0.0
 11
147.271899149
 21
86.46119577
 31
0.0
  0
LINE
  5
BB
330
1F
100
AcDbEntity
  8
0
  6
Continuous
 62
     7
370
    25
100
AcDbLine
 10
147.271899149
 20
86.46119577
 30
0.0
 11
147.271899149
 21
136.4981141419
 31
0.0
  0
LINE
  5
BC
330
1F
100
AcDbEntity
  8
0
  6
Continuous
 62
     7
370
    25
100
AcDbLine
 10
147.271899149
 20
136.4981141419
 30
0.0
 11
151.2299679371
 21
136.4981141419
 31
0.0
  0
LINE
  5
BD
330
1F
100
AcDbEntity
  8
0
  6
Continuous
 62
     7
370
    25
100
AcDbLine
 10
141.9699672761
 20
89.1502760828
 30
0.0
 11
141.9699672761
 21
136.4981141419
 31
0.0
  0
SPLINE
  5
BE
330
1F
100
AcDbEntity
  8
0
  6
Continuous
 62
     7
370
    25
100
AcDbSpline
210
0.0
220
0.0
230
1.0
 70
     8
 71
     3
 72
     8
 73
     4
 74
     0
 42
0.000000001
 43
0.00000001
 40
0.0
 40
0.0
 40
0.0
 40
0.0
 40
1.0
 40
1.0
 40
1.0
 40
1.0
 10
141.9699672277858
 20
89.15027624371815
 30
0.0
 10
141.4776281050047
 20
88.25300620951145
 30
0.0
 10
140.9835140569625
 20
87.35672179445922
 30
0.0
 10
140.4880343962968
 20
86.46119570652586
 30
0.0
  0
LINE
  5
BF
330
1F
100
AcDbEntity
  8
0
  6
Continuous
 62
     7
370
    25
100
AcDbLine
 10
140.4880346881
 20
86.46119577
 30
0.0
 11
140.4880346881
 21
136.4981141419
 31
0.0
  0
SPLINE
  5
C0
330
1F
100
AcDbEntity
  8
0
  6
Continuous
 62
     7
370
    25
100
AcDbSpline
210
0.0
220
0.0
230
1.0
 70
    24
 71
     3
 72
     8
 73
     4
 74
     0
 42
0.000000001
 43
0.00000001
 40
0.0
 40
0.0
 40
0.0
 40
0.0
 40
1.0
 40
1.0
 40
1.0
 40
1.0
 10
140.4880343962968
 20
136.498113402773
 30
0.0
 10
140.9947145044473
 20
136.498113402773
 30
0.0
 10
141.4900152334209
 20
136.498113402773
 30
0.0
 10
141.9699672277858
 20
136.498113402773
 30
0.0
  0
LINE
  5
C1
330
1F
100
AcDbEntity
  8
0
  6
Continuous
 62
     7
370
    25
100
AcDbLine
 10
130.829967201
 20
136.4981141419
 30
0.0
 11
140.4880346881
 21
136.4981141419
 31
0.0
  0
LINE
  5
C2
330
1F
100
AcDbEntity
  8
0
  6
Continuous
 62
     7
370
    25
100
AcDbLine
 10
140.4880346881
 20
86.46119577
 30
0.0
 11
138.8299675809
 21
86.46119577
 31
0.0
  0
SPLINE
  5
C3
330
1F
100
AcDbEntity
  8
0
  6
Continuous
 62
     7
370
    25
100
AcDbSpline
210
0.0
220
0.0
230
1.0
 70
     8
 71
     3
 72
    28
 73
    24
 74
     0
 42
0.000000001
 43
0.00000001
 40
0.0
 40
0.0
 40
0.0
 40
0.0
 40
0.1250000000000005
 40
0.1250000000000005
 40
0.1875000000000004
 40
0.1875000000000004
 40
0.2500000000000004
 40
0.2500000000000004
 40
0.3750000000000003
 40
0.3750000000000003
 40
0.4375000000000004
 40
0.4375000000000004
 40
0.5000000000000003
 40
0.5000000000000003
 40
0.6250000000000001
 40
0.6250000000000001
 40
0.7499999999999999
 40
0.7499999999999999
 40
0.8125
 40
0.8125
 40
0.875
 40
0.875
 40
1.0
 40
1.0
 40
1.0
 40
1.0
 10
138.8299672277859
 20
86.46119570652586
 30
0.0
 10
138.2982594702929
 20
86.46119570652586
 30
0.0
 10
137.7760209049826
 20
86.44541099257563
 30
0.0
 10
137.0061504187076
 20
86.40041557849943
 30
0.0
 10
136.7517908465163
 20
86.38186058342372
 30
0.0
 10
136.2476692658177
 20
86.33800786097721
 30
0.0
 10
135.9979464483898
 20
86.31266325402503
 30
0.0
 10
135.2723564969434
 20
86.2292611762749
 30
0.0
 10
134.8139962353619
 20
86.1633956171238
 30
0.0
 10
134.163498291968
 20
86.05442527663205
 30
0.0
 10
133.9518162411755
 20
86.01618564086539
 30
0.0
 10
133.5477447520375
 20
85.93842690344604
 30
0.0
 10
133.3552382382167
 20
85.89892594127068
 30
0.0
 10
132.8054032671954
 20
85.78001819890467
 30
0.0
 10
132.4754744888866
 20
85.70020051748006
 30
0.0
 10
131.8910032203179
 20
85.54685735568398
 30
0.0
 10
131.6447260823045
 20
85.47552360241475
 30
0.0
 10
131.3448832896064
 20
85.38158009534013
 30
0.0
 10
131.2564264325342
 20
85.35238630198019
 30
0.0
 10
131.1030650792291
 20
85.29891972771678
 30
0.0
 10
131.0379768650029
 20
85.27456039344159
 30
0.0
 10
130.8823828490621
 20
85.21097024799685
 30
0.0
 10
130.8299672277858
 20
85.18086731290762
 30
0.0
 10
130.8299672277858
 20
85.16399041991069
 30
0.0
  0
LINE
  5
C4
330
1F
100
AcDbEntity
  8
0
  6
Continuous
 62
     7
370
    25
100
AcDbLine
 10
130.829967201
 20
85.1639900834
 30
0.0
 11
130.829967201
 21
85.1481128961
 31
0.0
  0
SPLINE
  5
C5
330
1F
100
AcDbEntity
  8
0
  6
Continuous
 62
     7
370
    25
100
AcDbSpline
210
0.0
220
0.0
230
1.0
 70
     8
 71
     3
 72
    17
 73
    13
 74
     0
 42
0.000000001
 43
0.00000001
 40
0.0
 40
0.0
 40
0.0
 40
0.0
 40
0.1034797280380778
 40
0.2100239090909901
 40
0.3134862262879433
 40
0.4198361712144981
 40
0.5254127947779869
 40
0.6339610881168427
 40
0.7409508662120068
 40
0.8511696072047016
 40
0.9558996557845765
 40
1.0
 40
1.0
 40
1.0
 40
1.0
 10
138.8299675809434
 20
147.1153088391315
 30
0.0
 10
138.3947190892175
 20
147.1207568307692
 30
0.0
 10
137.5113326386405
 20
147.1318141510978
 30
0.0
 10
136.2305047764177
 20
147.2181729114728
 30
0.0
 10
135.0130885809758
 20
147.3460440546058
 30
0.0
 10
133.90528196465
 20
147.5049884619243
 30
0.0
 10
132.9170434853211
 20
147.6794830349089
 30
0.0
 10
132.0923203855053
 20
147.8486494680957
 30
0.0
 10
131.4433667280067
 20
147.9965302765634
 30
0.0
 10
131.0263314245271
 20
148.098321028086
 30
0.0
 10
130.8277346816491
 20
148.1486779277205
 30
0.0
 10
130.851047798637
 20
148.142768322745
 30
0.0
 10
130.8579557726374
 20
148.141017231394
 30
0.0
  0
LINE
  5
C6
330
1F
100
AcDbEntity
  8
0
  6
Continuous
 62
     7
370
    25
100
AcDbLine
 10
140.4880346881
 20
147.1153088391
 30
0.0
 11
138.8299675809
 21
147.1153088391
 31
0.0
  0
LINE
  5
C7
330
1F
100
AcDbEntity
  8
0
  6
Continuous
 62
     7
370
    25
100
AcDbLine
 10
140.4880346881
 20
141.1068030179
 30
0.0
 11
140.4880346881
 21
147.1153088391
 31
0.0
  0
LINE
  5
C8
330
1F
100
AcDbEntity
  8
0
  6
Continuous
 62
     7
370
    25
100
AcDbLine
 10
138.0755879136
 20
141.1068030179
 30
0.0
 11
140.4880346881
 21
141.1068030179
 31
0.0
  0
SPLINE
  5
C9
330
1F
100
AcDbEntity
  8
0
  6
Continuous
 62
     7
370
    25
100
AcDbSpline
210
0.0
220
0.0
230
1.0
 70
     8
 71
     3
 72
    20
 73
    16
 74
     0
 42
0.000000001
 43
0.00000001
 40
0.0
 40
0.0
 40
0.0
 40
0.0
 40
0.2499999999999995
 40
0.2499999999999995
 40
0.3749999999999996
 40
0.3749999999999996
 40
0.4999999999999997
 40
0.4999999999999997
 40
0.6249999999999998
 40
0.6249999999999998
 40
0.7499999999999998
 40
0.7499999999999998
 40
0.8749999999999999
 40
0.8749999999999999
 40
1.0
 40
1.0
 40
1.0
 40
1.0
 10
130.8299672277858
 20
136.498113402773
 30
0.0
 10
131.0783409620739
 20
137.1519758310704
 30
0.0
 10
131.3979110544192
 20
137.7557616130676
 30
0.0
 10
132.0202172876239
 20
138.5826003492362
 30
0.0
 10
132.2516415480546
 20
138.8450289871891
 30
0.0
 10
132.7728558877043
 20
139.3416916412941
 30
0.0
 10
133.0594763703394
 20
139.5722785203156
 30
0.0
 10
133.678961111647
 20
139.9888327448982
 30
0.0
 10
134.013261491134
 20
140.1763305468657
 30
0.0
 10
134.7385219637588
 20
140.5077275245021
 30
0.0
 10
135.1204370211492
 20
140.6472315119974
 30
0.0
 10
135.9152251973209
 20
140.8726850194684
 30
0.0
 10
136.3293833915273
 20
140.959311131012
 30
0.0
 10
137.1949297321087
 20
141.0772919198661
 30
0.0
 10
137.6328173471205
 20
141.1068030651404
 30
0.0
 10
138.0755875734751
 20
141.1068030651404
 30
0.0
  0
SPLINE
  5
CA
330
1F
100
AcDbEntity
  8
0
  6
Continuous
 62
     7
370
    25
100
AcDbSpline
210
0.0
220
0.0
230
1.0
 70
    11
 71
     3
 72
    70
 73
    66
 74
     0
 42
0.000000001
 43
0.00000001
 40
0.0
 40
0.0
 40
0.0
 40
0.0
 40
0.03125
 40
0.03125
 40
0.0625
 40
0.0625
 40
0.09375
 40
0.09375
 40
0.125
 40
0.125
 40
0.15625
 40
0.15625
 40
0.1874999999999999
 40
0.1874999999999999
 40
0.2187499999999999
 40
0.2187499999999999
 40
0.2499999999999999
 40
0.2499999999999999
 40
0.2812499999999999
 40
0.2812499999999999
 40
0.3124999999999999
 40
0.3124999999999999
 40
0.3437499999999999
 40
0.3437499999999999
 40
0.3749999999999999
 40
0.3749999999999999
 40
0.4062499999999999
 40
0.4062499999999999
 40
0.4374999999999999
 40
0.4374999999999999
 40
0.4687499999999999
 40
0.4687499999999999
 40
0.4999999999999999
 40
0.4999999999999999
 40
0.5312500000000001
 40
0.5312500000000001
 40
0.5625000000000003
 40
0.5625000000000003
 40
0.5937500000000006
 40
0.5937500000000006
 40
0.6250000000000008
 40
0.6250000000000008
 40
0.656250000000001
 40
0.656250000000001
 40
0.6875000000000012
 40
0.6875000000000012
 40
0.7187500000000011
 40
0.7187500000000011
 40
0.7500000000000009
 40
0.7500000000000009
 40
0.7812500000000008
 40
0.7812500000000008
 40
0.8125000000000007
 40
0.8125000000000007
 40
0.8437500000000006
 40
0.8437500000000006
 40
0.8750000000000004
 40
0.8750000000000004
 40
0.9062500000000003
 40
0.9062500000000003
 40
0.9375000000000002
 40
0.9375000000000002
 40
0.9687500000000001
 40
0.9687500000000001
 40
1.0
 40
1.0
 40
1.0
 40
1.0
 10
133.8799672277859
 20
127.2690202887564
 30
0.0
 10
133.6154218891257
 20
127.2690202887564
 30
0.0
 10
133.3553512217486
 20
127.2936975835416
 30
0.0
 10
132.8437765419132
 20
127.3901692565835
 30
0.0
 10
132.589601258173
 20
127.4631501725635
 30
0.0
 10
132.1053306281113
 20
127.6528907755022
 30
0.0
 10
131.8756895362301
 20
127.7687514338959
 30
0.0
 10
131.4410851879966
 20
128.0413692798536
 30
0.0
 10
131.23551941135
 20
128.1994083619074
 30
0.0
 10
130.8669622707548
 20
128.542951212878
 30
0.0
 10
130.7014812880193
 20
128.7297136569797
 30
0.0
 10
130.4090567785842
 20
129.1332568313765
 30
0.0
 10
130.2849558019577
 20
129.3467538278057
 30
0.0
 10
130.085376605208
 20
129.7861371417281
 30
0.0
 10
130.0084430193497
 20
130.0152771288738
 30
0.0
 10
129.9055859608293
 20
130.4812512516338
 30
0.0
 10
129.8801130513702
 20
130.71413369731
 30
0.0
 10
129.8798226408024
 20
131.1795312323898
 30
0.0
 10
129.9058472745782
 20
131.4144069897841
 30
0.0
 10
130.0079955590702
 20
131.8659001370304
 30
0.0
 10
130.0835720066534
 20
132.0839466124417
 30
0.0
 10
130.2840695377983
 20
132.5050411374795
 30
0.0
 10
130.4091983793066
 20
132.7069625219979
 30
0.0
 10
130.6985571803282
 20
133.0789920045168
 30
0.0
 10
130.8639681673837
 20
133.2516203080972
 30
0.0
 10
131.2369587255315
 20
133.5689383126431
 30
0.0
 10
131.4386917586206
 20
133.7087252461448
 30
0.0
 10
131.8715510094485
 20
133.9529014996966
 30
0.0
 10
132.1054695423379
 20
134.0581310107381
 30
0.0
 10
132.5896532774805
 20
134.2262881571132
 30
0.0
 10
132.838968903436
 20
134.2895390477071
 30
0.0
 10
133.3520014278637
 20
134.3751182568097
 30
0.0
 10
133.6172952507684
 20
134.3969904217321
 30
0.0
 10
134.1396298706381
 20
134.397154071376
 30
0.0
 10
134.3993835331199
 20
134.37615237928
 30
0.0
 10
134.9159953487651
 20
134.2907500242023
 30
0.0
 10
135.1683613892654
 20
134.2267438409154
 30
0.0
 10
135.6498865107982
 20
134.0599293208742
 30
0.0
 10
135.8827372429118
 20
133.9557961574751
 30
0.0
 10
136.3198270913505
 20
133.7098095049801
 30
0.0
 10
136.5211480800077
 20
133.5700596740312
 30
0.0
 10
136.8902341053076
 20
133.2569216043067
 30
0.0
 10
137.0592188563593
 20
133.0814654450366
 30
0.0
 10
137.3496749130185
 20
132.7086251809363
 30
0.0
 10
137.4727467243806
 20
132.5105033708254
 30
0.0
 10
137.6740829658027
 20
132.0897920280917
 30
0.0
 10
137.7512955117449
 20
131.8678020074242
 30
0.0
 10
137.8534990546449
 20
131.4179370677159
 30
0.0
 10
137.8797274060973
 20
131.1876816545991
 30
0.0
 10
137.8802038054144
 20
130.71636571205
 30
0.0
 10
137.8544613929164
 20
130.4831282963359
 30
0.0
 10
137.7531506165525
 20
130.0214517568378
 30
0.0
 10
137.6763179771616
 20
129.7905543697257
 30
0.0
 10
137.4759141379464
 20
129.348278355934
 30
0.0
 10
137.3532426396544
 20
129.1372159246481
 30
0.0
 10
137.0632953504902
 20
128.7357174139154
 30
0.0
 10
136.8947243711249
 20
128.5448108918395
 30
0.0
 10
136.5264547770118
 20
128.2010855598424
 30
0.0
 10
136.3253929197415
 20
128.0459483736283
 30
0.0
 10
135.8883620011565
 20
127.7708710135486
 30
0.0
 10
135.6562137880269
 20
127.6537547841266
 30
0.0
 10
135.175203506528
 20
127.464828299062
 30
0.0
 10
134.9231034236976
 20
127.3917533286678
 30
0.0
 10
134.4060339374386
 20
127.2937012695333
 30
0.0
 10
134.144512566446
 20
127.2690202887564
 30
0.0
 10
133.8799672277859
 20
127.2690202887564
 30
0.0
  0
SPLINE
  5
CB
330
1F
100
AcDbEntity
  8
0
  6
Continuous
 62
     7
370
    25
100
AcDbSpline
210
0.0
220
0.0
230
1.0
 70
    11
 71
     3
 72
    70
 73
    66
 74
     0
 42
0.000000001
 43
0.00000001
 40
0.0
 40
0.0
 40
0.0
 40
0.0
 40
0.0312500000000001
 40
0.0312500000000001
 40
0.0625000000000002
 40
0.0625000000000002
 40
0.0937500000000003
 40
0.0937500000000003
 40
0.1250000000000004
 40
0.1250000000000004
 40
0.1562500000000005
 40
0.1562500000000005
 40
0.1875000000000006
 40
0.1875000000000006
 40
0.2187500000000007
 40
0.2187500000000007
 40
0.2500000000000008
 40
0.2500000000000008
 40
0.2812500000000007
 40
0.2812500000000007
 40
0.3125000000000006
 40
0.3125000000000006
 40
0.3437500000000006
 40
0.3437500000000006
 40
0.3750000000000005
 40
0.3750000000000005
 40
0.4062500000000004
 40
0.4062500000000004
 40
0.4375000000000003
 40
0.4375000000000003
 40
0.4687500000000003
 40
0.4687500000000003
 40
0.5000000000000002
 40
0.5000000000000002
 40
0.5312500000000001
 40
0.5312500000000001
 40
0.5625
 40
0.5625
 40
0.5937499999999999
 40
0.5937499999999999
 40
0.6249999999999997
 40
0.6249999999999997
 40
0.6562499999999996
 40
0.6562499999999996
 40
0.6874999999999994
 40
0.6874999999999994
 40
0.7187499999999993
 40
0.7187499999999993
 40
0.7499999999999992
 40
0.7499999999999992
 40
0.7812499999999993
 40
0.7812499999999993
 40
0.8124999999999994
 40
0.8124999999999994
 40
0.8437499999999996
 40
0.8437499999999996
 40
0.8749999999999996
 40
0.8749999999999996
 40
0.9062499999999997
 40
0.9062499999999997
 40
0.9374999999999998
 40
0.9374999999999998
 40
0.9687499999999999
 40
0.9687499999999999
 40
1.0
 40
1.0
 40
1.0
 40
1.0
 10
133.8799672277859
 20
141.7070767975522
 30
0.0
 10
133.6154218891257
 20
141.7070767975522
 30
0.0
 10
133.3553512217486
 20
141.722977237967
 30
0.0
 10
132.8437765419132
 20
141.7849215881413
 30
0.0
 10
132.589601258173
 20
141.8317238222326
 30
0.0
 10
132.1053306281113
 20
141.9527008056876
 30
0.0
 10
131.8756895362301
 20
142.0263031334945
 30
0.0
 10
131.4410851879967
 20
142.1981274044726
 30
0.0
 10
131.23551941135
 20
142.2971308274
 30
0.0
 10
130.8669622707548
 20
142.5102272413129
 30
0.0
 10
130.7014812880193
 20
142.6251269574425
 30
0.0
 10
130.4090567785842
 20
142.8704938561328
 30
0.0
 10
130.2849558019577
 20
142.9989337566031
 30
0.0
 10
130.085376605208
 20
143.259825904689
 30
0.0
 10
130.0084430193497
 20
143.3942070760285
 30
0.0
 10
129.9055859608293
 20
143.6635270271348
 30
0.0
 10
129.8801130513702
 20
143.7962082913529
 30
0.0
 10
129.8798226408024
 20
144.057394765484
 30
0.0
 10
129.9058472745782
 20
144.1871598036487
 30
0.0
 10
130.0079955590702
 20
144.4327424379213
 30
0.0
 10
130.0835720066534
 20
144.5494039752302
 30
0.0
 10
130.2840695377983
 20
144.7713091653848
 30
0.0
 10
130.4091983793067
 20
144.8759204193078
 30
0.0
 10
130.6985571803282
 20
145.0659668309158
 30
0.0
 10
130.8639681673837
 20
145.1527265023655
 30
0.0
 10
131.2369587255315
 20
145.3102308781171
 30
0.0
 10
131.4386917586206
 20
145.3785561429043
 30
0.0
 10
131.8715510094485
 20
145.4967858665235
 30
0.0
 10
132.1054695423379
 20
145.5470807826273
 30
0.0
 10
132.5896532774805
 20
145.626946319517
 30
0.0
 10
132.838968903436
 20
145.6566874473166
 30
0.0
 10
133.3520014278637
 20
145.6968401888248
 30
0.0
 10
133.6172952507684
 20
145.7070384582346
 30
0.0
 10
134.1396298706381
 20
145.7071149166194
 30
0.0
 10
134.3993835331199
 20
145.6973239050103
 30
0.0
 10
134.9159953487651
 20
145.6572570662716
 30
0.0
 10
135.1683613892654
 20
145.6271598994148
 30
0.0
 10
135.6498865107982
 20
145.5479376895846
 30
0.0
 10
135.8827372429118
 20
145.4981802101212
 30
0.0
 10
136.3198270913505
 20
145.3790882676708
 30
0.0
 10
136.5211480800077
 20
145.3107730061235
 30
0.0
 10
136.8902341053076
 20
145.15537203919
 30
0.0
 10
137.0592188563593
 20
145.0672196971231
 30
0.0
 10
137.3496749130185
 20
144.8767803080067
 30
0.0
 10
137.4727467243806
 20
144.7741557303076
 30
0.0
 10
137.6740829658027
 20
144.5525153836995
 30
0.0
 10
137.7512955117449
 20
144.433761308152
 30
0.0
 10
137.8534990546449
 20
144.1890953692344
 30
0.0
 10
137.8797274060973
 20
144.0619386437858
 30
0.0
 10
137.8802038054144
 20
143.7974904979303
 30
0.0
 10
137.8544613929164
 20
143.6645898176731
 30
0.0
 10
137.7531506165525
 20
143.397797544191
 30
0.0
 10
137.6763179771616
 20
143.2624336427224
 30
0.0
 10
137.4759141379464
 20
142.9998538474199
 30
0.0
 10
137.3532426396544
 20
142.8728786876661
 30
0.0
 10
137.0632953504901
 20
142.6287993015837
 30
0.0
 10
136.8947243711249
 20
142.5113741768299
 30
0.0
 10
136.5264547770118
 20
142.2981777158814
 30
0.0
 10
136.3253929197414
 20
142.2010035974565
 30
0.0
 10
135.8883620011565
 20
142.0276487102424
 30
0.0
 10
135.6562137880269
 20
141.9532491585857
 30
0.0
 10
135.175203506528
 20
141.832796279081
 30
0.0
 10
134.9231034236976
 20
141.785937903815
 30
0.0
 10
134.4060339374386
 20
141.7229804068313
 30
0.0
 10
134.144512566446
 20
141.7070767975522
 30
0.0
 10
133.8799672277859
 20
141.7070767975522
 30
0.0
  0
SPLINE
  5
CC
330
1F
100
AcDbEntity
  8
0
  6
Continuous
 62
     7
370
    25
100
AcDbSpline
210
0.0
220
0.0
230
1.0
 70
     8
 71
     3
 72
     8
 73
     4
 74
     0
 42
0.000000001
 43
0.00000001
 40
0.0
 40
0.0
 40
0.0
 40
0.0
 40
1.0
 40
1.0
 40
1.0
 40
1.0
 10
147.2719000592749
 20
86.46119570652586
 30
0.0
 10
146.7764203986092
 20
87.35672179445922
 30
0.0
 10
146.282306350567
 20
88.25300620951145
 30
0.0
 10
145.7899672277858
 20
89.15027624371817
 30
0.0
  0
LINE
  5
CD
330
1F
100
AcDbEntity
  8
0
  6
Continuous
 62
     7
370
    25
100
AcDbLine
 10
145.7899674924
 20
89.1502760828
 30
0.0
 11
145.7899674924
 21
136.4981141419
 31
0.0
  0
SPLINE
  5
CE
330
1F
100
AcDbEntity
  8
0
  6
Continuous
 62
     7
370
    25
100
AcDbSpline
210
0.0
220
0.0
230
1.0
 70
    24
 71
     3
 72
     8
 73
     4
 74
     0
 42
0.000000001
 43
0.00000001
 40
0.0
 40
0.0
 40
0.0
 40
0.0
 40
1.0
 40
1.0
 40
1.0
 40
1.0
 10
145.7899672277858
 20
136.498113402773
 30
0.0
 10
146.2699192221507
 20
136.498113402773
 30
0.0
 10
146.7652199511244
 20
136.498113402773
 30
0.0
 10
147.2719000592749
 20
136.498113402773
 30
0.0
  0
LINE
  5
CF
330
1F
100
AcDbEntity
  8
0
  6
Continuous
 62
     7
370
    25
100
AcDbLine
 10
125.8799672278
 20
85.4481142492
 30
0.0
 11
125.8799672278
 21
147.8481125564
 31
0.0
  0
ARC
  5
D0
330
1F
100
AcDbEntity
  8
0
  6
Continuous
 62
     7
370
    25
100
AcDbCircle
 10
133.8791031982
 20
128.5613920323
 30
0.0
 40
4.108854136008304
100
AcDbArc
 50
19.3396343817
 51
160.2622374373
  0
SPLINE
  5
D1
330
1F
100
AcDbEntity
  8
0
  6
Continuous
 62
     7
370
    25
100
AcDbSpline
210
0.0
220
0.0
230
1.0
 70
     8
 71
     3
 72
    10
 73
     6
 74
     0
 42
0.000000001
 43
0.00000001
 40
0.0
 40
0.0
 40
0.0
 40
0.0
 40
0.5
 40
0.5
 40
1.0
 40
1.0
 40
1.0
 40
1.0
 10
142.3642647594768
 20
143.048113402773
 30
0.0
 10
142.2427244958083
 20
143.1228395699848
 30
0.0
 10
142.1413901354593
 20
143.2317845859016
 30
0.0
 10
142.005751192571
 20
143.4822150666632
 30
0.0
 10
141.9699672277858
 20
143.6246344287621
 30
0.0
 10
141.9699672277858
 20
143.7677672538088
 30
0.0
  0
SPLINE
  5
D2
330
1F
100
AcDbEntity
  8
0
  6
Continuous
 62
     7
370
    25
100
AcDbSpline
210
0.0
220
0.0
230
1.0
 70
    24
 71
     3
 72
    12
 73
     8
 74
     0
 42
0.000000001
 43
0.00000001
 40
0.0
 40
0.0
 40
0.0
 40
0.0
 40
0.2500000000000037
 40
0.2500000000000037
 40
0.5000000000000074
 40
0.5000000000000074
 40
1.0
 40
1.0
 40
1.0
 40
1.0
 10
142.7699672277859
 20
143.048113402773
 30
0.0
 10
142.7200905454684
 20
143.048113402773
 30
0.0
 10
142.6720873520648
 20
143.048113402773
 30
0.0
 10
142.5890392493529
 20
143.048113402773
 30
0.0
 10
142.552909669885
 20
143.048113402773
 30
0.0
 10
142.4569976389408
 20
143.048113402773
 30
0.0
 10
142.407238970972
 20
143.048113402773
 30
0.0
 10
142.3642647594768
 20
143.048113402773
 30
0.0
  0
SPLINE
  5
D3
330
1F
100
AcDbEntity
  8
0
  6
Continuous
 62
     7
370
    25
100
AcDbSpline
210
0.0
220
0.0
230
1.0
 70
    24
 71
     3
 72
    14
 73
    10
 74
     0
 42
0.000000001
 43
0.00000001
 40
0.0
 40
0.0
 40
0.0
 40
0.0
 40
0.1249999999999996
 40
0.1249999999999996
 40
0.2499999999999992
 40
0.2499999999999992
 40
0.4999999999999984
 40
0.4999999999999984
 40
1.0
 40
1.0
 40
1.0
 40
1.0
 10
142.7699672277859
 20
90.24811340277303
 30
0.0
 10
142.7015293798994
 20
90.24811340277303
 30
0.0
 10
142.6359793411343
 20
90.24811340277303
 30
0.0
 10
142.5315527017264
 20
90.24811340277303
 30
0.0
 10
142.489008091965
 20
90.24811340277303
 30
0.0
 10
142.3763986314247
 20
90.24811340277303
 30
0.0
 10
142.3208595844052
 20
90.24811340277301
 30
0.0
 10
142.1782478889414
 20
90.24811340277301
 30
0.0
 10
142.1148425339457
 20
90.24811340277301
 30
0.0
 10
142.0676420301181
 20
90.24811340277303
 30
0.0
  0
SPLINE
  5
D4
330
1F
100
AcDbEntity
  8
0
  6
Continuous
 62
     7
370
    25
100
AcDbSpline
210
0.0
220
0.0
230
1.0
 70
     8
 71
     3
 72
    10
 73
     6
 74
     0
 42
0.000000001
 43
0.00000001
 40
0.0
 40
0.0
 40
0.0
 40
0.0
 40
0.5
 40
0.5
 40
1.0
 40
1.0
 40
1.0
 40
1.0
 10
141.9699672277858
 20
136.7839800342344
 30
0.0
 10
141.9699672277858
 20
136.7362085262411
 30
0.0
 10
141.972128471383
 20
136.6884988041794
 30
0.0
 10
141.9807998452432
 20
136.5932036866311
 30
0.0
 10
141.9873290281992
 20
136.5455111226645
 30
0.0
 10
141.996114850946
 20
136.498113402773
 30
0.0
  0
SPLINE
  5
D5
330
1F
100
AcDbEntity
  8
0
  6
Continuous
 62
     7
370
    25
100
AcDbSpline
210
0.0
220
0.0
230
1.0
 70
    24
 71
     3
 72
    14
 73
    10
 74
     0
 42
0.000000001
 43
0.00000001
 40
0.0
 40
0.0
 40
0.0
 40
0.0
 40
0.5
 40
0.5
 40
0.75
 40
0.75
 40
0.875
 40
0.875
 40
1.0
 40
1.0
 40
1.0
 40
1.0
 10
145.6922924254536
 20
90.24811340277303
 30
0.0
 10
145.6455077204054
 20
90.24811340277303
 30
0.0
 10
145.5834565236258
 20
90.24811340277303
 30
0.0
 10
145.4400648850751
 20
90.24811340277301
 30
0.0
 10
145.383921231524
 20
90.24811340277303
 30
0.0
 10
145.2709702093878
 20
90.24811340277301
 30
0.0
 10
145.2279694473496
 20
90.24811340277303
 30
0.0
 10
145.1239067370432
 20
90.24811340277301
 30
0.0
 10
145.0585744986863
 20
90.24811340277301
 30
0.0
 10
144.9899672277859
 20
90.24811340277303
 30
0.0
  0
SPLINE
  5
D6
330
1F
100
AcDbEntity
  8
0
  6
Continuous
 62
     7
370
    25
100
AcDbSpline
210
0.0
220
0.0
230
1.0
 70
    24
 71
     3
 72
    12
 73
     8
 74
     0
 42
0.000000001
 43
0.00000001
 40
0.0
 40
0.0
 40
0.0
 40
0.0
 40
0.5
 40
0.5
 40
0.75
 40
0.75
 40
1.0
 40
1.0
 40
1.0
 40
1.0
 10
145.3956696960949
 20
143.048113402773
 30
0.0
 10
145.3525841464839
 20
143.048113402773
 30
0.0
 10
145.3034319447346
 20
143.048113402773
 30
0.0
 10
145.2069593504467
 20
143.048113402773
 30
0.0
 10
145.1708577653121
 20
143.048113402773
 30
0.0
 10
145.0877520074509
 20
143.048113402773
 30
0.0
 10
145.0397554104846
 20
143.048113402773
 30
0.0
 10
144.9899672277859
 20
143.048113402773
 30
0.0
  0
SPLINE
  5
D7
330
1F
100
AcDbEntity
  8
0
  6
Continuous
 62
     7
370
    25
100
AcDbSpline
210
0.0
220
0.0
230
1.0
 70
     8
 71
     3
 72
    10
 73
     6
 74
     0
 42
0.000000001
 43
0.00000001
 40
0.0
 40
0.0
 40
0.0
 40
0.0
 40
0.5
 40
0.5
 40
1.0
 40
1.0
 40
1.0
 40
1.0
 10
145.7899672277858
 20
143.7677672538088
 30
0.0
 10
145.7899672277858
 20
143.6239971959908
 30
0.0
 10
145.753918169067
 20
143.4815778334956
 30
0.0
 10
145.6184093082929
 20
143.2316835401384
 30
0.0
 10
145.5185333151968
 20
143.1236532038902
 30
0.0
 10
145.3956696960948
 20
143.048113402773
 30
0.0
  0
SPLINE
  5
D8
330
1F
100
AcDbEntity
  8
0
  6
Continuous
 62
     7
370
    25
100
AcDbSpline
210
0.0
220
0.0
230
1.0
 70
     8
 71
     3
 72
    10
 73
     6
 74
     0
 42
0.000000001
 43
0.00000001
 40
0.0
 40
0.0
 40
0.0
 40
0.0
 40
0.5
 40
0.5
 40
1.0
 40
1.0
 40
1.0
 40
1.0
 10
145.7638196046257
 20
136.498113402773
 30
0.0
 10
145.7725092475374
 20
136.5449922520912
 30
0.0
 10
145.7790483122879
 20
136.5924147174925
 30
0.0
 10
145.7878069466809
 20
136.6883515160793
 30
0.0
 10
145.7899672277859
 20
136.7362668040898
 30
0.0
 10
145.7899672277859
 20
136.7839800342344
 30
0.0
  0
LINE
  5
D9
330
1F
100
AcDbEntity
  8
0
  6
Continuous
 62
     7
370
    25
100
AcDbLine
 10
144.9899669888
 20
143.0481132597
 30
0.0
 11
142.7699677797
 21
143.0481132597
 31
0.0
  0
LINE
  5
DA
330
1F
100
AcDbEntity
  8
0
  6
Continuous
 62
     7
370
    25
100
AcDbLine
 10
144.9899669888
 20
90.2481135458
 30
0.0
 11
142.7699677797
 21
90.2481135458
 31
0.0
  0
LINE
  5
DB
330
1F
100
AcDbEntity
  8
0
  6
Continuous
 62
     7
370
    25
100
AcDbLine
 10
152.0299665781
 20
143.0481132597
 30
0.0
 11
151.9972529413
 21
143.0481132597
 31
0.0
  0
LINE
  5
DC
330
1F
100
AcDbEntity
  8
0
  6
Continuous
 62
     7
370
    25
100
AcDbLine
 10
152.0299665781
 20
90.2481135458
 30
0.0
 11
151.9990336301
 21
90.2481135458
 31
0.0
  0
SPLINE
  5
DD
330
1F
100
AcDbEntity
  8
0
  6
Continuous
 62
     7
370
    25
100
AcDbSpline
210
0.0
220
0.0
230
1.0
 70
     8
 71
     3
 72
    14
 73
    10
 74
     0
 42
0.000000001
 43
0.00000001
 40
0.0
 40
0.0
 40
0.0
 40
0.0
 40
0.25
 40
0.25
 40
0.5
 40
0.5
 40
0.75
 40
0.75
 40
1.0
 40
1.0
 40
1.0
 40
1.0
 10
166.8799672277859
 20
90.74533562499525
 30
0.0
 10
167.0112075882991
 20
90.74533562499525
 30
0.0
 10
167.1434289502637
 20
90.71979256404862
 30
0.0
 10
167.3842024532269
 20
90.6231279008941
 30
0.0
 10
167.4940554103965
 20
90.55210714111917
 30
0.0
 10
167.6787218315333
 20
90.3726297563447
 30
0.0
 10
167.7521717478533
 20
90.26604326606555
 30
0.0
 10
167.8538237257294
 20
90.02563651471843
 30
0.0
 10
167.8799672277859
 20
89.89555610929854
 30
0.0
 10
167.8799672277859
 20
89.76385414351375
 30
0.0
  0
SPLINE
  5
DE
330
1F
100
AcDbEntity
  8
0
  6
Continuous
 62
     7
370
    25
100
AcDbSpline
210
0.0
220
0.0
230
1.0
 70
     8
 71
     3
 72
    14
 73
    10
 74
     0
 42
0.000000001
 43
0.00000001
 40
0.0
 40
0.0
 40
0.0
 40
0.0
 40
0.25
 40
0.25
 40
0.5
 40
0.5
 40
0.75
 40
0.75
 40
1.0
 40
1.0
 40
1.0
 40
1.0
 10
167.8799672277859
 20
143.5323726620323
 30
0.0
 10
167.8799672277859
 20
143.4010860319225
 30
0.0
 10
167.8536289851554
 20
143.2700621195705
 30
0.0
 10
167.752214089906
 20
143.0303513901987
 30
0.0
 10
167.678732029696
 20
142.923557613269
 30
0.0
 10
167.4936614392404
 20
142.7437862136499
 30
0.0
 10
167.3842267931724
 20
142.6730833766877
 30
0.0
 10
167.1430640117512
 20
142.5763130632389
 30
0.0
 10
167.01125218288
 20
142.5508911805508
 30
0.0
 10
166.8799672277859
 20
142.5508911805508
 30
0.0
  0
LINE
  5
DF
330
1F
100
AcDbEntity
  8
0
  6
Continuous
 62
     7
370
    25
100
AcDbLine
 10
166.8799683603
 20
142.550891313
 30
0.0
 11
163.8799660059
 21
142.550891313
 31
0.0
  0
LINE
  5
E0
330
1F
100
AcDbEntity
  8
0
  6
Continuous
 62
     7
370
    25
100
AcDbLine
 10
163.8799660059
 20
90.7453354925
 30
0.0
 11
166.8799683603
 21
90.7453354925
 31
0.0
  0
SPLINE
  5
E1
330
1F
100
AcDbEntity
  8
0
  6
Continuous
 62
     7
370
    25
100
AcDbSpline
210
0.0
220
0.0
230
1.0
 70
     8
 71
     3
 72
    11
 73
     7
 74
     0
 42
0.000000001
 43
0.00000001
 40
0.0
 40
0.0
 40
0.0
 40
0.0
 40
0.147224524718949
 40
0.4288961083076602
 40
0.7174047484665025
 40
1.0
 40
1.0
 40
1.0
 40
1.0
 10
163.0058005603245
 20
90.64982836251366
 30
0.0
 10
163.0038558981818
 20
90.64966545201861
 30
0.0
 10
162.9981906869911
 20
90.64919085936864
 30
0.0
 10
163.240387434605
 20
90.66622879180201
 30
0.0
 10
163.5410289223955
 20
90.6967242915733
 30
0.0
 10
163.7677695592567
 20
90.72924399862991
 30
0.0
 10
163.8799660058907
 20
90.74533549254048
 30
0.0
  0
SPLINE
  5
E2
330
1F
100
AcDbEntity
  8
0
  6
Continuous
 62
     7
370
    25
100
AcDbSpline
210
0.0
220
0.0
230
1.0
 70
     8
 71
     3
 72
    11
 73
     7
 74
     0
 42
0.000000001
 43
0.00000001
 40
0.0
 40
0.0
 40
0.0
 40
0.0
 40
0.2825992606872283
 40
0.5659976257990348
 40
0.8527733866197965
 40
1.0
 40
1.0
 40
1.0
 40
1.0
 10
163.8799660058907
 20
142.5508913130056
 30
0.0
 10
163.7677582129742
 20
142.5669843974404
 30
0.0
 10
163.5430253377629
 20
142.5992160726392
 30
0.0
 10
163.2422206834919
 20
142.6298487808173
 30
0.0
 10
162.9982485617283
 20
142.64703504396
 30
0.0
 10
163.0038876220483
 20
142.646559695483
 30
0.0
 10
163.0058005603245
 20
142.6463984430324
 30
0.0
  0
SPLINE
  5
E3
330
1F
100
AcDbEntity
  8
0
  6
Continuous
 62
     7
370
    25
100
AcDbSpline
210
0.0
220
0.0
230
1.0
 70
    11
 71
     3
 72
    68
 73
    64
 74
     0
 42
0.000000001
 43
0.00000001
 40
0.0
 40
0.0
 40
0.0
 40
0.0
 40
0.0312499999999994
 40
0.0312499999999994
 40
0.0624999999999988
 40
0.0624999999999988
 40
0.0937499999999982
 40
0.0937499999999982
 40
0.1249999999999979
 40
0.1249999999999979
 40
0.1562499999999976
 40
0.1562499999999976
 40
0.1874999999999974
 40
0.1874999999999974
 40
0.2187499999999971
 40
0.2187499999999971
 40
0.2499999999999968
 40
0.2499999999999968
 40
0.2812499999999966
 40
0.2812499999999966
 40
0.3124999999999963
 40
0.3124999999999963
 40
0.343749999999996
 40
0.343749999999996
 40
0.3749999999999957
 40
0.3749999999999957
 40
0.4374999999999957
 40
0.4374999999999957
 40
0.4687499999999958
 40
0.4687499999999958
 40
0.4999999999999959
 40
0.4999999999999959
 40
0.531249999999996
 40
0.531249999999996
 40
0.562499999999996
 40
0.562499999999996
 40
0.5937499999999961
 40
0.5937499999999961
 40
0.6249999999999961
 40
0.6249999999999961
 40
0.6562499999999962
 40
0.6562499999999962
 40
0.6874999999999962
 40
0.6874999999999962
 40
0.7187499999999963
 40
0.7187499999999963
 40
0.7499999999999963
 40
0.7499999999999963
 40
0.7812499999999964
 40
0.7812499999999964
 40
0.8124999999999966
 40
0.8124999999999966
 40
0.8437499999999966
 40
0.8437499999999966
 40
0.8749999999999967
 40
0.8749999999999967
 40
0.9062499999999974
 40
0.9062499999999974
 40
0.9374999999999983
 40
0.9374999999999983
 40
0.9687499999999991
 40
0.9687499999999991
 40
1.0
 40
1.0
 40
1.0
 40
1.0
 10
156.3413508535255
 20
98.4438181392702
 30
0.0
 10
156.3610722881999
 20
98.60067145126023
 30
0.0
 10
156.4056680279562
 20
98.75480265553487
 30
0.0
 10
156.5414186789731
 20
99.05757996472632
 30
0.0
 10
156.6338403125835
 20
99.20712172050281
 30
0.0
 10
156.8559388387059
 20
99.48699878073324
 30
0.0
 10
156.9865790376136
 20
99.61945197932688
 30
0.0
 10
157.2830429538768
 20
99.86626104480472
 30
0.0
 10
157.4452102270423
 20
99.97774169315888
 30
0.0
 10
157.7951972196222
 20
100.1778656808518
 30
0.0
 10
157.9847850384529
 20
100.2669680388501
 30
0.0
 10
158.3765346922674
 20
100.4160821654342
 30
0.0
 10
158.579603088927
 20
100.476897229348
 30
0.0
 10
158.9998324338248
 20
100.5710197592932
 30
0.0
 10
159.2168219474003
 20
100.6039179412338
 30
0.0
 10
159.6490809739134
 20
100.6396176056321
 30
0.0
 10
159.8663224995622
 20
100.6429309478628
 30
0.0
 10
160.3030745755204
 20
100.6198635477903
 30
0.0
 10
160.5207044444103
 20
100.5933012762456
 30
0.0
 10
160.9422197066508
 20
100.5123261242222
 30
0.0
 10
161.1479562242619
 20
100.4578551554806
 30
0.0
 10
161.5488420704458
 20
100.3199771871284
 30
0.0
 10
161.7413006490128
 20
100.2372077295909
 30
0.0
 10
162.0998132599614
 20
100.0490137551671
 30
0.0
 10
162.2675352623253
 20
99.94306414657916
 30
0.0
 10
162.7327748853283
 20
99.5876519816451
 30
0.0
 10
162.9767842278814
 20
99.3129449121382
 30
0.0
 10
163.2143989565177
 20
98.86062182610245
 30
0.0
 10
163.2695679318993
 20
98.70787019785051
 30
0.0
 10
163.3317644495451
 20
98.39890133289634
 30
0.0
 10
163.3381472893797
 20
98.24081376842815
 30
0.0
 10
163.3000621313994
 20
97.93662687078996
 30
0.0
 10
163.256462160965
 20
97.78910526630433
 30
0.0
 10
163.1199149323472
 20
97.50283399983297
 30
0.0
 10
163.0292778061955
 20
97.36901782210518
 30
0.0
 10
162.8076772696382
 20
97.11878170800681
 30
0.0
 10
162.6751791377338
 20
97.00155612273625
 30
0.0
 10
162.3815225874186
 20
96.79169300327733
 30
0.0
 10
162.2195787915564
 20
96.6977876048944
 30
0.0
 10
161.8663254562504
 20
96.53031140171024
 30
0.0
 10
161.6792777459589
 20
96.45882642632293
 30
0.0
 10
161.2883184606056
 20
96.33856460380086
 30
0.0
 10
161.0821279640209
 20
96.28932878808197
 30
0.0
 10
160.6611448185895
 20
96.21467491509388
 30
0.0
 10
160.4476049660335
 20
96.18921985248794
 30
0.0
 10
160.0146116832649
 20
96.16093179305038
 30
0.0
 10
159.7930867602198
 20
96.15827838689329
 30
0.0
 10
159.3575513465457
 20
96.17626172276282
 30
0.0
 10
159.1429307579895
 20
96.19661314091547
 30
0.0
 10
158.7200000770654
 20
96.26042643450006
 30
0.0
 10
158.5098338115262
 20
96.30453111183435
 30
0.0
 10
158.1110191876529
 20
96.41455440933736
 30
0.0
 10
157.921104873066
 20
96.48041588186372
 30
0.0
 10
157.5609328398812
 20
96.63555153902087
 30
0.0
 10
157.3893277986922
 20
96.72596809077788
 30
0.0
 10
157.0820506072851
 20
96.92547365881121
 30
0.0
 10
156.94464467796
 20
97.03497974911093
 30
0.0
 10
156.7045477635896
 20
97.27594907841718
 30
0.0
 10
156.6021320822242
 20
97.40825717065695
 30
0.0
 10
156.4459344534286
 20
97.68332715394456
 30
0.0
 10
156.3902726871336
 20
97.82760557585603
 30
0.0
 10
156.3275726030344
 20
98.13132025441334
 30
0.0
 10
156.321629418851
 20
98.28696482728016
 30
0.0
 10
156.3413508535255
 20
98.4438181392702
 30
0.0
  0
SPLINE
  5
E4
330
1F
100
AcDbEntity
  8
0
  6
Continuous
 62
     7
370
    25
100
AcDbSpline
210
0.0
220
0.0
230
1.0
 70
    11
 71
     3
 72
    68
 73
    64
 74
     0
 42
0.000000001
 43
0.00000001
 40
0.0
 40
0.0
 40
0.0
 40
0.0
 40
0.0312499999999999
 40
0.0312499999999999
 40
0.0624999999999998
 40
0.0624999999999998
 40
0.0937499999999998
 40
0.0937499999999998
 40
0.1249999999999997
 40
0.1249999999999997
 40
0.1562499999999996
 40
0.1562499999999996
 40
0.1874999999999996
 40
0.1874999999999996
 40
0.2187499999999995
 40
0.2187499999999995
 40
0.2499999999999994
 40
0.2499999999999994
 40
0.2812499999999993
 40
0.2812499999999993
 40
0.3124999999999992
 40
0.3124999999999992
 40
0.3437499999999992
 40
0.3437499999999992
 40
0.3749999999999991
 40
0.3749999999999991
 40
0.406249999999999
 40
0.406249999999999
 40
0.4374999999999989
 40
0.4374999999999989
 40
0.4687499999999988
 40
0.4687499999999988
 40
0.4999999999999988
 40
0.4999999999999988
 40
0.5312499999999987
 40
0.5312499999999987
 40
0.5624999999999987
 40
0.5624999999999987
 40
0.6249999999999984
 40
0.6249999999999984
 40
0.6562499999999984
 40
0.6562499999999984
 40
0.6874999999999983
 40
0.6874999999999983
 40
0.7187499999999982
 40
0.7187499999999982
 40
0.7499999999999982
 40
0.7499999999999982
 40
0.7812499999999981
 40
0.7812499999999981
 40
0.8124999999999983
 40
0.8124999999999983
 40
0.8437499999999986
 40
0.8437499999999986
 40
0.8749999999999989
 40
0.8749999999999989
 40
0.9062499999999991
 40
0.9062499999999991
 40
0.9374999999999993
 40
0.9374999999999993
 40
0.9687499999999997
 40
0.9687499999999997
 40
1.0
 40
1.0
 40
1.0
 40
1.0
 10
157.1418311951757
 20
136.4068901414611
 30
0.0
 10
157.2908483708836
 20
136.5123535493532
 30
0.0
 10
157.4533826421483
 20
136.6053116781927
 30
0.0
 10
157.8029605808109
 20
136.7696063843451
 30
0.0
 10
157.9918299505244
 20
136.8414208725333
 30
0.0
 10
158.3855300895034
 20
136.961320295564
 30
0.0
 10
158.5888576524069
 20
137.0092466318724
 30
0.0
 10
159.0079340604432
 20
137.0827653900851
 30
0.0
 10
159.2255225478009
 20
137.1083345985619
 30
0.0
 10
159.6589830922882
 20
137.1356919539725
 30
0.0
 10
159.8760074036891
 20
137.1378728565893
 30
0.0
 10
160.3106432400541
 20
137.1193090000779
 30
0.0
 10
160.5295327903611
 20
137.0981757158217
 30
0.0
 10
160.9517380956389
 20
137.033540061475
 30
0.0
 10
161.1569483602115
 20
136.9901011004644
 30
0.0
 10
161.5552283156923
 20
136.8796263630634
 30
0.0
 10
161.7490926379739
 20
136.8119412174353
 30
0.0
 10
162.1077294635868
 20
136.656335164438
 30
0.0
 10
162.2746407666966
 20
136.5679976851315
 30
0.0
 10
162.5819792588328
 20
136.3677263384314
 30
0.0
 10
162.7221231574074
 20
136.2552563787452
 30
0.0
 10
162.9597266416966
 20
136.0150128119867
 30
0.0
 10
163.0593116072192
 20
135.8860811974596
 30
0.0
 10
163.2163436845767
 20
135.6079838916512
 30
0.0
 10
163.2716489977805
 20
135.461588565641
 30
0.0
 10
163.3323435188396
 20
135.1623172624518
 30
0.0
 10
163.3381153189862
 20
135.0060297125504
 30
0.0
 10
163.2985405375402
 20
134.6947370499691
 30
0.0
 10
163.2541179530882
 20
134.5407072210684
 30
0.0
 10
163.1172426500199
 20
134.236197072999
 30
0.0
 10
163.025064215558
 20
134.0875797660402
 30
0.0
 10
162.8026649610858
 20
133.8077810878677
 30
0.0
 10
162.6700577194935
 20
133.6737443190419
 30
0.0
 10
162.3747745117982
 20
133.4284937685719
 30
0.0
 10
162.212565413943
 20
133.3170199966282
 30
0.0
 10
161.8604766299292
 20
133.1161598363894
 30
0.0
 10
161.6712994827393
 20
133.0275888365314
 30
0.0
 10
161.0842566956977
 20
132.8047583639736
 30
0.0
 10
160.6545284549973
 20
132.7093303502323
 30
0.0
 10
160.0059275545601
 20
132.6564256228244
 30
0.0
 10
159.7862211629197
 20
132.65333258016
 30
0.0
 10
159.348456154083
 20
132.6771737273727
 30
0.0
 10
159.1336264852186
 20
132.703733493779
 30
0.0
 10
158.7119133080458
 20
132.7852910264677
 30
0.0
 10
158.5033735113877
 20
132.8408778969547
 30
0.0
 10
158.1027685191605
 20
132.9795852278526
 30
0.0
 10
157.9129364928989
 20
133.0616315967586
 30
0.0
 10
157.5544233368257
 20
133.2505944011191
 30
0.0
 10
157.3840439259555
 20
133.3588513723435
 30
0.0
 10
157.0758173224311
 20
133.5957383716839
 30
0.0
 10
156.9389052565756
 20
133.7230927403803
 30
0.0
 10
156.700812434911
 20
133.9953684616663
 30
0.0
 10
156.598752686934
 20
134.1424430700563
 30
0.0
 10
156.4431410610018
 20
134.4417353904053
 30
0.0
 10
156.3884063484338
 20
134.5943913230221
 30
0.0
 10
156.3273011563338
 20
134.9055175635566
 30
0.0
 10
156.3219503290082
 20
135.0629127362452
 30
0.0
 10
156.361536611503
 20
135.3663972576928
 30
0.0
 10
156.4068701018624
 20
135.516306672976
 30
0.0
 10
156.5443878382573
 20
135.8003687185821
 30
0.0
 10
156.6354068227884
 20
135.9337101636627
 30
0.0
 10
156.859732076104
 20
136.184684785068
 30
0.0
 10
156.9928140194679
 20
136.3014267335691
 30
0.0
 10
157.1418311951757
 20
136.4068901414611
 30
0.0
  0
LINE
  5
E5
330
1F
100
AcDbEntity
  8
0
  6
Continuous
 62
     7
370
    25
100
AcDbLine
 10
123.8799671328
 20
92.4276821793
 30
0.0
 11
123.8799671328
 21
140.8685446263
 31
0.0
  0
LINE
  5
E6
330
1F
100
AcDbEntity
  8
0
  6
Continuous
 62
     7
370
    25
100
AcDbLine
 10
104.0799670072
 20
93.4196673811
 30
0.0
 11
104.0799670072
 21
94.6843754977
 31
0.0
  0
SPLINE
  5
E7
330
1F
100
AcDbEntity
  8
0
  6
Continuous
 62
     7
370
    25
100
AcDbSpline
210
0.0
220
0.0
230
1.0
 70
     8
 71
     3
 72
    14
 73
    10
 74
     0
 42
0.000000001
 43
0.00000001
 40
0.0
 40
0.0
 40
0.0
 40
0.0
 40
0.25
 40
0.25
 40
0.5
 40
0.5
 40
0.75
 40
0.75
 40
1.0
 40
1.0
 40
1.0
 40
1.0
 10
103.3016801098701
 20
95.81496207921307
 30
0.0
 10
103.3583067850722
 20
95.70726462537621
 30
0.0
 10
103.452829445362
 20
95.60447504365689
 30
0.0
 10
103.6358744209242
 20
95.40611773143674
 30
0.0
 10
103.7275009978789
 20
95.3100582227585
 30
0.0
 10
103.8863543155721
 20
95.12252918004926
 30
0.0
 10
103.9542449231938
 20
95.0311202072657
 30
0.0
 10
104.0511619489014
 20
94.85274398635555
 30
0.0
 10
104.0799672277864
 20
94.76552208010936
 30
0.0
 10
104.0799672277864
 20
94.6843758715751
 30
0.0
  0
SPLINE
  5
E8
330
1F
100
AcDbEntity
  8
0
  6
Continuous
 62
     7
370
    25
100
AcDbSpline
210
0.0
220
0.0
230
1.0
 70
     8
 71
     3
 72
    14
 73
    10
 74
     0
 42
0.000000001
 43
0.00000001
 40
0.0
 40
0.0
 40
0.0
 40
0.0
 40
0.1250000000000015
 40
0.1250000000000015
 40
0.2500000000000031
 40
0.2500000000000031
 40
0.4999999999999997
 40
0.4999999999999997
 40
1.0
 40
1.0
 40
1.0
 40
1.0
 10
102.6799672277859
 20
96.2616439414924
 30
0.0
 10
102.728511636443
 20
96.26739225477269
 30
0.0
 10
102.7814269912279
 20
96.26429136611644
 30
0.0
 10
102.876722336211
 20
96.24209652195412
 30
0.0
 10
102.9169733334959
 20
96.22486429485825
 30
0.0
 10
103.0212433470089
 20
96.16853637840619
 30
0.0
 10
103.0715653221622
 20
96.1243500324604
 30
0.0
 10
103.1992482696876
 20
95.99334213360977
 30
0.0
 10
103.2553337167499
 20
95.90310761337948
 30
0.0
 10
103.3016801098716
 20
95.8149620792136
 30
0.0
  0
SPLINE
  5
E9
330
1F
100
AcDbEntity
  8
0
  6
Continuous
 62
     7
370
    25
100
AcDbSpline
210
0.0
220
0.0
230
1.0
 70
     8
 71
     3
 72
     8
 73
     4
 74
     0
 42
0.000000001
 43
0.00000001
 40
0.0
 40
0.0
 40
0.0
 40
0.0
 40
1.0
 40
1.0
 40
1.0
 40
1.0
 10
100.4114421348396
 20
95.95179865490961
 30
0.0
 10
101.1460191613226
 20
96.07042366597857
 30
0.0
 10
101.9094942307182
 20
96.17040953811484
 30
0.0
 10
102.6799672277859
 20
96.2616439414924
 30
0.0
  0
SPLINE
  5
EA
330
1F
100
AcDbEntity
  8
0
  6
Continuous
 62
     7
370
    25
100
AcDbSpline
210
0.0
220
0.0
230
1.0
 70
     8
 71
     3
 72
    14
 73
    10
 74
     0
 42
0.000000001
 43
0.00000001
 40
0.0
 40
0.0
 40
0.0
 40
0.0
 40
0.5000000000000002
 40
0.5000000000000002
 40
0.7499999999999993
 40
0.7499999999999993
 40
0.8749999999999997
 40
0.8749999999999997
 40
1.0
 40
1.0
 40
1.0
 40
1.0
 10
95.12996722778585
 20
95.77817563737796
 30
0.0
 10
96.02211335833944
 20
95.7774534111773
 30
0.0
 10
96.91208979413302
 20
95.78203961763477
 30
0.0
 10
98.23868496120863
 20
95.80976462202631
 30
0.0
 10
98.67953188970738
 20
95.82237115965047
 30
0.0
 10
99.3359721271298
 20
95.85338730765793
 30
0.0
 10
99.55398578372169
 20
95.8657304802847
 30
0.0
 10
99.98669463740445
 20
95.89875453544796
 30
0.0
 10
100.2019711025692
 20
95.9179717005864
 30
0.0
 10
100.4114421348396
 20
95.9517986549096
 30
0.0
  0
SPLINE
  5
EB
330
1F
100
AcDbEntity
  8
0
  6
Continuous
 62
     7
370
    25
100
AcDbSpline
210
0.0
220
0.0
230
1.0
 70
     8
 71
     3
 72
     8
 73
     4
 74
     0
 42
0.000000001
 43
0.00000001
 40
0.0000005163856712
 40
0.0000005163856712
 40
0.0000005163856712
 40
0.0000005163856712
 40
0.000026289209185
 40
0.000026289209185
 40
0.000026289209185
 40
0.000026289209185
 10
95.11992229736718
 20
95.78815951048581
 30
0.0
 10
95.12325003557866
 20
95.784825263613
 30
0.0
 10
95.12659848855795
 20
95.78149730633397
 30
0.0
 10
95.12996722778584
 20
95.77817563737796
 30
0.0
  0
SPLINE
  5
EC
330
1F
100
AcDbEntity
  8
0
  6
Continuous
 62
     7
370
    25
100
AcDbSpline
210
0.0
220
0.0
230
1.0
 70
     8
 71
     3
 72
     8
 73
     4
 74
     0
 42
0.000000001
 43
0.00000001
 40
0.0000005099763573
 40
0.0000005099763573
 40
0.0000005099763573
 40
0.0000005099763573
 40
0.0000262827998699
 40
0.0000262827998699
 40
0.0000262827998699
 40
0.0000262827998699
 10
95.12996722778583
 20
137.5180511681681
 30
0.0
 10
95.1265984885581
 20
137.5147294992122
 30
0.0
 10
95.12325003557896
 20
137.5114015419334
 30
0.0
 10
95.11992229736764
 20
137.5080672950607
 30
0.0
  0
SPLINE
  5
ED
330
1F
100
AcDbEntity
  8
0
  6
Continuous
 62
     7
370
    25
100
AcDbSpline
210
0.0
220
0.0
230
1.0
 70
     8
 71
     3
 72
    10
 73
     6
 74
     0
 42
0.000000001
 43
0.00000001
 40
0.0
 40
0.0
 40
0.0
 40
0.0
 40
0.5
 40
0.5
 40
1.0
 40
1.0
 40
1.0
 40
1.0
 10
98.67996722778587
 20
137.4712007946008
 30
0.0
 10
98.09238168069527
 20
137.4922663148372
 30
0.0
 10
97.50163528723488
 20
137.5030248007094
 30
0.0
 10
96.31761612193603
 20
137.5163895812451
 30
0.0
 10
95.72420213373056
 20
137.5185322239096
 30
0.0
 10
95.12996722778585
 20
137.5180511681681
 30
0.0
  0
SPLINE
  5
EE
330
1F
100
AcDbEntity
  8
0
  6
Continuous
 62
     7
370
    25
100
AcDbSpline
210
0.0
220
0.0
230
1.0
 70
     8
 71
     3
 72
    18
 73
    14
 74
     0
 42
0.000000001
 43
0.00000001
 40
0.0
 40
0.0
 40
0.0
 40
0.0
 40
0.2500000000000004
 40
0.2500000000000004
 40
0.5000000000000009
 40
0.5000000000000009
 40
0.7500000000000013
 40
0.7500000000000013
 40
0.8750000000000016
 40
0.8750000000000016
 40
0.9375000000000008
 40
0.9375000000000008
 40
1.0
 40
1.0
 40
1.0
 40
1.0
 10
100.0799672277859
 20
138.492221075136
 30
0.0
 10
100.0799672277859
 20
138.4090141662788
 30
0.0
 10
100.0441181278476
 20
138.3202775109653
 30
0.0
 10
99.91924639181369
 20
138.138152320405
 30
0.0
 10
99.82884597416582
 20
138.0430222717784
 30
0.0
 10
99.60660331942364
 20
137.853840762654
 30
0.0
 10
99.47683853297785
 20
137.7588955945594
 30
0.0
 10
99.23620107566636
 20
137.6206168869794
 30
0.0
 10
99.14843377752891
 20
137.574906453677
 30
0.0
 10
98.99390969032208
 20
137.5170831484556
 30
0.0
 10
98.93729880426736
 20
137.4993683844177
 30
0.0
 10
98.81325477336075
 20
137.4748290811848
 30
0.0
 10
98.74554009834246
 20
137.4688499426465
 30
0.0
 10
98.67996722778585
 20
137.4712007946008
 30
0.0
  0
LINE
  5
EF
330
1F
100
AcDbEntity
  8
0
  6
Continuous
 62
     7
370
    25
100
AcDbLine
 10
100.0799663516
 20
138.4922210604
 30
0.0
 11
100.0799663516
 21
139.6761592955
 31
0.0
  0
SPLINE
  5
F0
330
1F
100
AcDbEntity
  8
0
  6
Continuous
 62
     7
370
    25
100
AcDbSpline
210
0.0
220
0.0
230
1.0
 70
     8
 71
     3
 72
    24
 73
    20
 74
     0
 42
0.000000001
 43
0.00000001
 40
0.0
 40
0.0
 40
0.0
 40
0.0
 40
0.0010489815523775
 40
0.0637843212772741
 40
0.1272220630088516
 40
0.1903789073370505
 40
0.2526748662763491
 40
0.3146354150030102
 40
0.3770891884518245
 40
0.4393540587943444
 40
0.5008133488401828
 40
0.5621845177353679
 40
0.6248438462901906
 40
0.6874304788646655
 40
0.7496743245911356
 40
0.811984857412469
 40
0.8750960476811308
 40
0.9384412548145236
 40
1.0
 40
1.0
 40
1.0
 40
1.0
 10
112.6488732325127
 20
92.99060520832646
 30
0.0
 10
112.648426566762
 20
92.99054656335997
 30
0.0
 10
112.6212666308384
 20
92.98698060037928
 30
0.0
 10
112.7168965539702
 20
92.9998452098545
 30
0.0
 10
112.9504497299907
 20
93.02907969219456
 30
0.0
 10
113.3460056822251
 20
93.07569890293597
 30
0.0
 10
113.8730456825952
 20
93.12587970236113
 30
0.0
 10
114.5165761244314
 20
93.17025837580418
 30
0.0
 10
115.2552499587012
 20
93.19720157231498
 30
0.0
 10
116.05276462882
 20
93.20067332061711
 30
0.0
 10
116.8793436785846
 20
93.17304787432369
 30
0.0
 10
117.7048665000032
 20
93.11456673134505
 30
0.0
 10
118.4969929709189
 20
93.02912366794646
 30
0.0
 10
119.2295653497562
 20
92.92738849945395
 30
0.0
 10
119.865205531577
 20
92.81954484840603
 30
0.0
 10
120.3871164621232
 20
92.7179134531312
 30
0.0
 10
120.7687452997621
 20
92.63543148883869
 30
0.0
 10
121.0195599756955
 20
92.57927938133179
 30
0.0
 10
121.0486812914028
 20
92.57243053041891
 30
0.0
 10
121.0630336927464
 20
92.5690550834428
 30
0.0
  0
SPLINE
  5
F1
330
1F
100
AcDbEntity
  8
0
  6
Continuous
 62
     7
370
    25
100
AcDbSpline
210
0.0
220
0.0
230
1.0
 70
     8
 71
     3
 72
    24
 73
    20
 74
     0
 42
0.000000001
 43
0.00000001
 40
0.0
 40
0.0
 40
0.0
 40
0.0
 40
0.061438429114026
 40
0.1250736777967296
 40
0.1884253375120635
 40
0.2508623992448768
 40
0.3129665476325514
 40
0.3753451442328022
 40
0.4377328732174486
 40
0.499092717251918
 40
0.560580729454827
 40
0.622946985474185
 40
0.6854686070210457
 40
0.7475477863222202
 40
0.8098225081553685
 40
0.873068419947611
 40
0.936404185690527
 40
0.9991757203144552
 40
1.0
 40
1.0
 40
1.0
 40
1.0
 10
121.0629792103758
 20
140.7271419197809
 30
0.0
 10
121.0483784019236
 20
140.7237737619079
 30
0.0
 10
121.0186547120726
 20
140.7169170128235
 30
0.0
 10
120.7659167120867
 20
140.6605791929274
 30
0.0
 10
120.3829214130655
 20
140.5777213800422
 30
0.0
 10
119.8605654561826
 20
140.4758146318211
 30
0.0
 10
119.2257811114809
 20
140.3679760619321
 30
0.0
 10
118.4955573748668
 20
140.2665098087031
 30
0.0
 10
117.7050892799557
 20
140.1814477301359
 30
0.0
 10
116.880605552498
 20
140.1232463731793
 30
0.0
 10
116.0535691720179
 20
140.0956619254947
 30
0.0
 10
115.2552447130275
 20
140.0991558540289
 30
0.0
 10
114.5154209620278
 20
140.1261095127025
 30
0.0
 10
113.8711660905682
 20
140.1704650133159
 30
0.0
 10
113.3437592334706
 20
140.2206701970387
 30
0.0
 10
112.9490939931576
 20
140.2672776570839
 30
0.0
 10
112.7165653075694
 20
140.2964808339222
 30
0.0
 10
112.6211860789031
 20
140.3092389726394
 30
0.0
 10
112.6481190232299
 20
140.3056991427207
 30
0.0
 10
112.6484681071928
 20
140.3056532621871
 30
0.0
  0
SPLINE
  5
F2
330
1F
100
AcDbEntity
  8
0
  6
Continuous
 62
     7
370
    25
100
AcDbSpline
210
0.0
220
0.0
230
1.0
 70
     8
 71
     3
 72
     9
 73
     5
 74
     0
 42
0.000000001
 43
0.00000001
 40
0.0
 40
0.0
 40
0.0
 40
0.0
 40
0.7009339503679092
 40
0.9999999999999999
 40
0.9999999999999999
 40
0.9999999999999999
 40
0.9999999999999999
 10
94.00075079521444
 20
96.94683370297062
 30
0.0
 10
94.00989146616429
 20
96.92900441920972
 30
0.0
 10
94.02293216842308
 20
96.90356795154892
 30
0.0
 10
94.03809563169135
 20
96.95744731102248
 30
0.0
 10
94.04263050874975
 20
96.97356079821694
 30
0.0
  0
LINE
  5
F3
330
1F
100
AcDbEntity
  8
0
  6
Continuous
 62
     7
370
    25
100
AcDbLine
 10
93.9799674006
 20
96.9574358792
 30
0.0
 11
93.9799674006
 21
136.3387909264
 31
0.0
  0
SPLINE
  5
F4
330
1F
100
AcDbEntity
  8
0
  6
Continuous
 62
     7
370
    25
100
AcDbSpline
210
0.0
220
0.0
230
1.0
 70
     8
 71
     3
 72
    10
 73
     6
 74
     0
 42
0.000000001
 43
0.00000001
 40
0.0
 40
0.0
 40
0.0
 40
0.0
 40
0.5
 40
0.5
 40
1.0
 40
1.0
 40
1.0
 40
1.0
 10
94.04263060250925
 20
136.3226659475538
 30
0.0
 10
94.0337263134005
 20
136.3684074667669
 30
0.0
 10
94.01721093320752
 20
136.3855983062359
 30
0.0
 10
93.99010298714592
 20
136.3852750293002
 30
0.0
 10
93.97996722778588
 20
136.3673974870038
 30
0.0
 10
93.97996722778586
 20
136.3387911492512
 30
0.0
  0
SPLINE
  5
F5
330
1F
100
AcDbEntity
  8
0
  6
Continuous
 62
     7
370
    25
100
AcDbSpline
210
0.0
220
0.0
230
1.0
 70
     8
 71
     3
 72
    26
 73
    22
 74
     0
 42
0.000000001
 43
0.00000001
 40
0.0
 40
0.0
 40
0.0
 40
0.0
 40
0.2500000000000085
 40
0.2500000000000085
 40
0.375000000000013
 40
0.375000000000013
 40
0.4375000000000147
 40
0.4375000000000147
 40
0.4687500000000138
 40
0.4687500000000138
 40
0.5000000000000129
 40
0.5000000000000129
 40
0.5312500000000121
 40
0.5312500000000121
 40
0.5625000000000112
 40
0.5625000000000112
 40
0.6250000000000088
 40
0.6250000000000088
 40
0.7500000000000059
 40
0.7500000000000059
 40
1.0
 40
1.0
 40
1.0
 40
1.0
 10
94.80412087389037
 20
137.0382327363709
 30
0.0
 10
94.7655203510219
 20
136.9204580400154
 30
0.0
 10
94.71922334846764
 20
136.7960683538535
 30
0.0
 10
94.6252840000337
 20
136.5908490215
 30
0.0
 10
94.58997253312026
 20
136.5192761550536
 30
0.0
 10
94.5237925573746
 20
136.4033229224531
 30
0.0
 10
94.49925419070635
 20
136.3627383876429
 30
0.0
 10
94.45588144515256
 20
136.2985967057711
 30
0.0
 10
94.44037304372738
 20
136.2767302804861
 30
0.0
 10
94.40533039914034
 20
136.2311360121429
 30
0.0
 10
94.38578010842055
 20
136.2074657211755
 30
0.0
 10
94.34385282804996
 20
136.1628491618355
 30
0.0
 10
94.32120071781833
 20
136.1419691493176
 30
0.0
 10
94.28022700373171
 20
136.1110957355668
 30
0.0
 10
94.26262770383629
 20
136.1012568657344
 30
0.0
 10
94.21800071798012
 20
136.0822672500382
 30
0.0
 10
94.1974414953268
 20
136.0819429253848
 30
0.0
 10
94.14631605583013
 20
136.091166366261
 30
0.0
 10
94.12540464284159
 20
136.112413262478
 30
0.0
 10
94.07395473528062
 20
136.1863821413087
 30
0.0
 10
94.05628943597607
 20
136.2525002346235
 30
0.0
 10
94.04263060250925
 20
136.3226659475538
 30
0.0
  0
SPLINE
  5
F6
330
1F
100
AcDbEntity
  8
0
  6
Continuous
 62
     7
370
    25
100
AcDbSpline
210
0.0
220
0.0
230
1.0
 70
     8
 71
     3
 72
    10
 73
     6
 74
     0
 42
0.000000001
 43
0.00000001
 40
0.0
 40
0.0
 40
0.0
 40
0.0
 40
0.5
 40
0.5
 40
1.0
 40
1.0
 40
1.0
 40
1.0
 10
95.11992229736765
 20
137.5080672950607
 30
0.0
 10
95.0523630424494
 20
137.4403759022509
 30
0.0
 10
94.98872638711292
 20
137.3656687374973
 30
0.0
 10
94.87850563254106
 20
137.2067026050707
 30
0.0
 10
94.83168933931843
 20
137.1223473390627
 30
0.0
 10
94.80412087389037
 20
137.0382327363709
 30
0.0
  0
SPLINE
  5
F7
330
1F
100
AcDbEntity
  8
0
  6
Continuous
 62
     7
370
    25
100
AcDbSpline
210
0.0
220
0.0
230
1.0
 70
     8
 71
     3
 72
    10
 73
     6
 74
     0
 42
0.000000001
 43
0.00000001
 40
0.0
 40
0.0
 40
0.0
 40
0.0
 40
0.5
 40
0.5
 40
1.0
 40
1.0
 40
1.0
 40
1.0
 10
94.80412087389041
 20
96.25799406917506
 30
0.0
 10
94.83159828864362
 20
96.17415727270946
 30
0.0
 10
94.87830691893127
 20
96.08984678512263
 30
0.0
 10
94.98858538167323
 20
95.93072555463978
 30
0.0
 10
95.05247292028487
 20
95.8557408105517
 30
0.0
 10
95.1199222973672
 20
95.78815951048581
 30
0.0
  0
SPLINE
  5
F8
330
1F
100
AcDbEntity
  8
0
  6
Continuous
 62
     7
370
    25
100
AcDbSpline
210
0.0
220
0.0
230
1.0
 70
     8
 71
     3
 72
    24
 73
    20
 74
     0
 42
0.000000001
 43
0.00000001
 40
0.0
 40
0.0
 40
0.0
 40
0.0
 40
0.249999999999992
 40
0.249999999999992
 40
0.3749999999999863
 40
0.3749999999999863
 40
0.4374999999999842
 40
0.4374999999999842
 40
0.4687499999999817
 40
0.4687499999999817
 40
0.4999999999999792
 40
0.4999999999999792
 40
0.5624999999999816
 40
0.5624999999999816
 40
0.624999999999984
 40
0.624999999999984
 40
0.7499999999999905
 40
0.7499999999999905
 40
1.0
 40
1.0
 40
1.0
 40
1.0
 10
94.04263060250925
 20
96.97356085799227
 30
0.0
 10
94.0563837211795
 20
97.04421091598257
 30
0.0
 10
94.07415628858534
 20
97.1108090287475
 30
0.0
 10
94.12640738014072
 20
97.18490704898069
 30
0.0
 10
94.14744245572227
 20
97.20616485614225
 30
0.0
 10
94.20034286335071
 20
97.21431078228849
 30
0.0
 10
94.22144853622864
 20
97.21337097889271
 30
0.0
 10
94.2675007049066
 20
97.19235498731538
 30
0.0
 10
94.28587117688998
 20
97.18144618120776
 30
0.0
 10
94.32742281195569
 20
97.14881127026038
 30
0.0
 10
94.34998948471261
 20
97.12731928988902
 30
0.0
 10
94.41277050117264
 20
97.0588533463027
 30
0.0
 10
94.44590026214053
 20
97.01277888809761
 30
0.0
 10
94.50281794862552
 20
96.92777099976296
 30
0.0
 10
94.52700397412927
 20
96.88749069858156
 30
0.0
 10
94.59221192450906
 20
96.77255447211563
 30
0.0
 10
94.62692798470032
 20
96.7019714869686
 30
0.0
 10
94.72014325503119
 20
96.49776572789
 30
0.0
 10
94.76581579039187
 20
96.37486734556265
 30
0.0
 10
94.8041208738904
 20
96.25799406917507
 30
0.0
  0
LWPOLYLINE
  5
F9
330
1F
100
AcDbEntity
  8
0
  6
Continuous
 62
     7
370
    25
100
AcDbPolyline
 90
       26
 70
   128
 43
0.0
 10
159.8299682291
 20
132.8568738431
 10
160.4516931029
 20
132.9124123335
 10
161.0343508573
 20
133.0755353451
 10
161.5413367899
 20
133.3359946043
 10
161.9407884928
 20
133.6774249107
 10
162.2076086851
 20
134.0783723176
 10
162.3250335606
 20
134.5136426867
 10
162.2856870445
 20
134.9558886618
 10
162.0920352789
 20
135.3773195774
 10
161.7562487873
 20
135.7514579326
 10
161.2994313391
 20
136.0547952831
 10
160.7502788456
 20
136.2682693184
 10
160.1432986709
 20
136.3784689934
 10
159.5166340621
 20
136.3784689934
 10
158.9096576127
 20
136.2682693184
 10
158.3605051192
 20
136.0547952831
 10
157.9036839457
 20
135.7514579326
 10
157.5679011794
 20
135.3773195774
 10
157.3742494138
 20
134.9558886618
 10
157.3348991724
 20
134.5136426867
 10
157.4523277732
 20
134.0783723176
 10
157.7191479655
 20
133.6774249107
 10
158.1185996684
 20
133.3359946043
 10
158.6255818757
 20
133.0755353451
 10
159.2082433554
 20
132.9124123335
 10
159.8299682291
 20
132.8568738431
  0
LWPOLYLINE
  5
FA
330
1F
100
AcDbEntity
  8
0
  6
Continuous
 62
     7
370
    25
100
AcDbPolyline
 90
       26
 70
   128
 43
0.0
 10
159.8299682291
 20
96.9038177759
 10
160.4516931029
 20
96.9593562663
 10
161.0343508573
 20
97.1224792779
 10
161.5413367899
 20
97.3829385371
 10
161.9407884928
 20
97.7243688435
 10
162.2076086851
 20
98.1253162504
 10
162.3250335606
 20
98.5605866194
 10
162.2856870445
 20
99.0028325946
 10
162.0920352789
 20
99.4242635102
 10
161.7562487873
 20
99.7984018654
 10
161.2994313391
 20
100.1017392159
 10
160.7502788456
 20
100.3152132512
 10
160.1432986709
 20
100.4254129261
 10
159.5166340621
 20
100.4254129261
 10
158.9096576127
 20
100.3152132512
 10
158.3605051192
 20
100.1017392159
 10
157.9036839457
 20
99.7984018654
 10
157.5679011794
 20
99.4242635102
 10
157.3742494138
 20
99.0028325946
 10
157.3348991724
 20
98.5605866194
 10
157.4523277732
 20
98.1253162504
 10
157.7191479655
 20
97.7243688435
 10
158.1185996684
 20
97.3829385371
 10
158.6255818757
 20
97.1224792779
 10
159.2082433554
 20
96.9593562663
 10
159.8299682291
 20
96.9038177759
  0
SPLINE
  5
FB
330
1F
100
AcDbEntity
  8
0
  6
Continuous
 62
     7
370
    25
100
AcDbSpline
210
0.0
220
0.0
230
1.0
 70
     8
 71
     3
 72
     8
 73
     4
 74
     0
 42
0.000000001
 43
0.00000001
 40
0.0
 40
0.0
 40
0.0
 40
0.0
 40
1.0
 40
1.0
 40
1.0
 40
1.0
 10
141.9699672277858
 20
144.4533475939446
 30
0.0
 10
141.4772571309401
 20
145.341366592071
 30
0.0
 10
140.9831744256611
 20
146.228629227757
 30
0.0
 10
140.4880343962968
 20
147.1153088759373
 30
0.0
  0
LINE
  5
FC
330
1F
100
AcDbEntity
  8
0
  6
Continuous
 62
     7
370
    25
100
AcDbLine
 10
141.9699672761
 20
137.6982573897
 30
0.0
 11
141.9699672761
 21
144.453346777
 31
0.0
  0
SPLINE
  5
FD
330
1F
100
AcDbEntity
  8
0
  6
Continuous
 62
     7
370
    25
100
AcDbSpline
210
0.0
220
0.0
230
1.0
 70
     8
 71
     3
 72
     8
 73
     4
 74
     0
 42
0.000000001
 43
0.00000001
 40
0.0
 40
0.0
 40
0.0
 40
0.0
 40
1.0
 40
1.0
 40
1.0
 40
1.0
 10
140.4880343962968
 20
141.1068030651404
 30
0.0
 10
140.9951212380561
 20
139.9756527109768
 30
0.0
 10
141.490689077196
 20
138.8392683002089
 30
0.0
 10
141.9699672277858
 20
137.6982570703564
 30
0.0
  0
SPLINE
  5
FE
330
1F
100
AcDbEntity
  8
0
  6
Continuous
 62
     7
370
    25
100
AcDbSpline
210
0.0
220
0.0
230
1.0
 70
     8
 71
     3
 72
    10
 73
     6
 74
     0
 42
0.000000001
 43
0.00000001
 40
0.0
 40
0.0
 40
0.0
 40
0.0
 40
0.5
 40
0.5
 40
1.0
 40
1.0
 40
1.0
 40
1.0
 10
151.8299672277859
 20
146.4945537265369
 30
0.0
 10
151.8299672277858
 20
146.6549589928877
 30
0.0
 10
151.767729396679
 20
146.8140208058763
 30
0.0
 10
151.5485944729364
 20
147.0449332715066
 30
0.0
 10
151.3910057779446
 20
147.1153088759373
 30
0.0
 10
151.2299672277858
 20
147.1153088759373
 30
0.0
  0
SPLINE
  5
FF
330
1F
100
AcDbEntity
  8
0
  6
Continuous
 62
     7
370
    25
100
AcDbSpline
210
0.0
220
0.0
230
1.0
 70
     8
 71
     3
 72
    12
 73
     8
 74
     0
 42
0.000000001
 43
0.00000001
 40
0.0
 40
0.0
 40
0.0
 40
0.0
 40
0.25
 40
0.25
 40
0.5
 40
0.5
 40
1.0
 40
1.0
 40
1.0
 40
1.0
 10
151.2299672277858
 20
141.1068030651405
 30
0.0
 10
151.3211669496115
 20
141.1068030651404
 30
0.0
 10
151.4117619587475
 20
141.0785833665526
 30
0.0
 10
151.5651746851942
 20
140.9841403593045
 30
0.0
 10
151.6303835525179
 20
140.9178533825992
 30
0.0
 10
151.7831680818578
 20
140.6922285593108
 30
0.0
 10
151.8299672277859
 20
140.5098022962783
 30
0.0
 10
151.8299672277859
 20
140.3290656640314
 30
0.0
  0
LINE
  5
100
330
1F
100
AcDbEntity
  8
0
  6
Continuous
 62
     7
370
    25
100
AcDbLine
 10
151.8299669178
 20
140.3290648491
 30
0.0
 11
151.8299669178
 21
146.4945544035
 31
0.0
  0
SPLINE
  5
101
330
1F
100
AcDbEntity
  8
0
  6
Continuous
 62
     7
370
    25
100
AcDbSpline
210
0.0
220
0.0
230
1.0
 70
     8
 71
     3
 72
     8
 73
     4
 74
     0
 42
0.000000001
 43
0.00000001
 40
0.0
 40
0.0
 40
0.0
 40
0.0
 40
1.0
 40
1.0
 40
1.0
 40
1.0
 10
147.2719000592749
 20
147.1153088759373
 30
0.0
 10
146.7767600299106
 20
146.228629227757
 30
0.0
 10
146.2826773246316
 20
145.341366592071
 30
0.0
 10
145.7899672277858
 20
144.4533475939446
 30
0.0
  0
LINE
  5
102
330
1F
100
AcDbEntity
  8
0
  6
Continuous
 62
     7
370
    25
100
AcDbLine
 10
147.271899149
 20
141.1068030179
 30
0.0
 11
147.271899149
 21
147.1153088391
 31
0.0
  0
SPLINE
  5
103
330
1F
100
AcDbEntity
  8
0
  6
Continuous
 62
     7
370
    25
100
AcDbSpline
210
0.0
220
0.0
230
1.0
 70
     8
 71
     3
 72
     8
 73
     4
 74
     0
 42
0.000000001
 43
0.00000001
 40
0.0
 40
0.0
 40
0.0
 40
0.0
 40
1.0
 40
1.0
 40
1.0
 40
1.0
 10
145.7899672277859
 20
137.6982570703564
 30
0.0
 10
146.2692453783757
 20
138.8392683002089
 30
0.0
 10
146.7648132175156
 20
139.9756527109768
 30
0.0
 10
147.2719000592749
 20
141.1068030651404
 30
0.0
  0
LINE
  5
104
330
1F
100
AcDbEntity
  8
0
  6
Continuous
 62
     7
370
    25
100
AcDbLine
 10
145.7899674924
 20
137.6982573897
 30
0.0
 11
145.7899674924
 21
144.453346777
 31
0.0
  0
LINE
  5
105
330
1F
100
AcDbEntity
  8
0
  6
Continuous
 62
     7
370
    25
100
AcDbLine
 10
145.7899674924
 20
136.7839798809
 30
0.0
 11
145.7899674924
 21
137.6982573897
 31
0.0
  0
LINE
  5
106
330
1F
100
AcDbEntity
  8
0
  6
Continuous
 62
     7
370
    25
100
AcDbLine
 10
147.271899149
 20
141.1068030179
 30
0.0
 11
151.2299679371
 21
141.1068030179
 31
0.0
  0
LINE
  5
107
330
1F
100
AcDbEntity
  8
0
  6
Continuous
 62
     7
370
    25
100
AcDbLine
 10
151.8299669178
 20
140.3290648491
 30
0.0
 11
151.8299669178
 21
136.4981141419
 31
0.0
  0
LINE
  5
108
330
1F
100
AcDbEntity
  8
0
  6
Continuous
 62
     7
370
    25
100
AcDbLine
 10
151.2299679371
 20
147.1153088391
 30
0.0
 11
147.271899149
 21
147.1153088391
 31
0.0
  0
LINE
  5
109
330
1F
100
AcDbEntity
  8
0
  6
Continuous
 62
     7
370
    25
100
AcDbLine
 10
141.9699672761
 20
137.6982573897
 30
0.0
 11
141.9699672761
 21
136.7839798809
 31
0.0
  0
ARC
  5
10A
330
1F
100
AcDbEntity
  8
0
  6
Continuous
 62
     7
370
    25
100
AcDbCircle
 10
133.8801347181
 20
135.3527624886
 30
0.0
 40
7.250427948254446
100
AcDbArc
 50
70.9613575653
 51
109.0859649046
  0
LINE
  5
10B
330
1F
100
AcDbEntity
  8
0
  6
Continuous
 62
     7
370
    25
100
AcDbLine
 10
188.3799672278
 20
100.6481126428
 30
0.0
 11
188.3799672278
 21
132.6481141627
 31
0.0
  0
LINE
  5
10C
330
1F
100
AcDbEntity
  8
0
  6
Continuous
 62
     7
370
    25
100
AcDbLine
 10
209.8799660953
 20
101.648113738
 30
0.0
 11
209.8799660953
 21
131.6481130675
 31
0.0
  0
LINE
  5
10D
330
1F
100
AcDbEntity
  8
0
  6
Continuous
 62
     7
370
    18
100
AcDbLine
 10
192.3799678834
 20
136.6481129557
 30
0.0
 11
192.3799678834
 21
150.6481152505
 31
0.0
  0
LINE
  5
10E
330
1F
100
AcDbEntity
  8
0
  6
Continuous
 62
     7
370
    18
100
AcDbLine
 10
192.3799678834
 20
82.648111555
 30
0.0
 11
192.3799678834
 21
96.6481138498
 31
0.0
  0
LINE
  5
10F
330
1F
100
AcDbEntity
  8
0
  6
Continuous
 62
     7
370
    18
100
AcDbLine
 10
168.8799686881
 20
80.6481149525
 30
0.0
 11
168.8799686881
 21
152.6481118531
 31
0.0
  0
LINE
  5
110
330
1F
100
AcDbEntity
  8
0
  6
Continuous
 62
     7
370
    18
100
AcDbLine
 10
184.8799675854
 20
80.6481149525
 30
0.0
 11
184.8799675854
 21
152.6481118531
 31
0.0
  0
LINE
  5
111
330
1F
100
AcDbEntity
  8
0
  6
Continuous
 62
     7
370
    18
100
AcDbLine
 10
151.2299679371
 20
86.46119577
 30
0.0
 11
151.2299679371
 21
136.4981141419
 31
0.0
  0
LINE
  5
112
330
1F
100
AcDbEntity
  8
0
  6
Continuous
 62
     7
370
    18
100
AcDbLine
 10
126.179967242
 20
85.1481128961
 30
0.0
 11
126.179967242
 21
148.1481139094
 31
0.0
  0
LINE
  5
113
330
1F
100
AcDbEntity
  8
0
  6
Continuous
 62
     7
370
    18
100
AcDbLine
 10
142.7699677797
 20
90.2481135458
 30
0.0
 11
142.7699677797
 21
143.0481132597
 31
0.0
  0
LINE
  5
114
330
1F
100
AcDbEntity
  8
0
  6
Continuous
 62
     7
370
    18
100
AcDbLine
 10
144.9899669888
 20
90.2481135458
 30
0.0
 11
144.9899669888
 21
143.0481132597
 31
0.0
  0
LINE
  5
115
330
1F
100
AcDbEntity
  8
0
  6
Continuous
 62
     7
370
    18
100
AcDbLine
 10
152.8299670818
 20
90.6481128663
 30
0.0
 11
152.8299670818
 21
142.6481139392
 31
0.0
  0
LINE
  5
116
330
1F
100
AcDbEntity
  8
0
  6
Continuous
 62
     7
370
    18
100
AcDbLine
 10
166.8799683603
 20
90.7453354925
 30
0.0
 11
166.8799683603
 21
142.550891313
 31
0.0
  0
LINE
  5
117
330
1F
100
AcDbEntity
  8
0
  6
Continuous
 62
     7
370
    18
100
AcDbLine
 10
138.0755879136
 20
141.1068030179
 30
0.0
 11
138.0755879136
 21
136.4981141419
 31
0.0
  0
LINE
  5
118
330
1F
100
AcDbEntity
  8
0
  6
Continuous
 62
     7
370
    18
100
AcDbLine
 10
125.3799604519
 20
92.6776826859
 30
0.0
 11
125.3799604519
 21
140.6185441196
 31
0.0
  0
LINE
  5
119
330
1F
100
AcDbEntity
  8
0
  6
Continuous
 62
     7
370
    18
100
AcDbLine
 10
124.736680059
 20
92.6572382927
 30
0.0
 11
124.736680059
 21
140.6389885128
 31
0.0
  0
LINE
  5
11A
330
1F
100
AcDbEntity
  8
0
  6
Continuous
 62
     7
370
    18
100
AcDbLine
 10
95.1199229958
 20
95.7881603867
 30
0.0
 11
95.1199229958
 21
137.5080664188
 31
0.0
  0
LINE
  5
11B
330
1F
100
AcDbEntity
  8
0
  6
Continuous
 62
     7
370
    18
100
AcDbLine
 10
124.8919714626
 20
92.6776826859
 30
0.0
 11
124.8919714626
 21
140.6185441196
 31
0.0
  0
LINE
  5
11C
330
1F
100
AcDbEntity
  8
0
  6
Continuous
 62
     7
370
    18
100
AcDbLine
 10
151.2299679371
 20
141.1068030179
 30
0.0
 11
151.2299679371
 21
147.1153088391
 31
0.0
  0
LINE
  5
11D
330
1F
100
AcDbEntity
  8
0
  6
Continuous
 62
     7
370
    18
100
AcDbLine
 10
186.2799689325
 20
100.9981129796
 30
0.0
 11
186.2799689325
 21
132.298113826
 31
0.0
  0
LINE
  5
11E
330
1F
100
AcDbEntity
  8
0
  6
Continuous
 62
     7
370
    18
100
AcDbLine
 10
208.8799640687
 20
100.6481126428
 30
0.0
 11
208.8799640687
 21
132.6481141627
 31
0.0
  0
LINE
  5
11F
330
1F
100
AcDbEntity
  8
0
  6
Continuous
 62
     7
370
    18
100
AcDbLine
 10
187.1500477346
 20
100.9776685864
 30
0.0
 11
187.1500477346
 21
132.3185582191
 31
0.0
  0
LINE
  5
120
330
1F
100
AcDbEntity
  8
0
  6
Continuous
 62
     7
370
    18
100
AcDbLine
 10
186.9947590085
 20
100.9981129796
 30
0.0
 11
186.9947590085
 21
132.298113826
 31
0.0
  0
LINE
  5
121
330
1F
100
AcDbEntity
  8
0
  6
Continuous
 62
     7
370
    18
100
AcDbLine
 10
102.6799675228
 20
95.951799351
 30
0.0
 11
100.4114426824
 21
95.951799351
 31
0.0
  0
LINE
  5
122
330
1F
100
AcDbEntity
  8
0
  6
Continuous
 62
     7
370
    18
100
AcDbLine
 10
102.6799675228
 20
95.7781132788
 30
0.0
 11
102.6799675228
 21
95.951799351
 31
0.0
  0
LINE
  5
123
330
1F
100
AcDbEntity
  8
0
  6
Continuous
 62
     7
370
    18
100
AcDbLine
 10
94.0426305087
 20
136.3226660073
 30
0.0
 11
94.8041208239
 21
137.0382328064
 31
0.0
  0
LINE
  5
124
330
1F
100
AcDbEntity
  8
0
  6
Continuous
 62
     7
370
    18
100
AcDbLine
 10
94.8041208239
 20
96.2579939992
 30
0.0
 11
94.0426305087
 21
96.9735607982
 31
0.0
  0
ARC
  5
125
330
1F
100
AcDbEntity
  8
0
  6
Continuous
 62
     7
370
    18
100
AcDbCircle
 10
102.6814831598
 20
94.4779128274
 30
0.0
 40
1.473887302894129
100
AcDbArc
 50
65.1155624511
 51
90.0589187627
  0
LINE
  5
126
330
1F
100
AcDbEntity
  8
0
  6
Continuous
 62
     7
370
    18
100
AcDbLine
 10
102.6799675228
 20
95.951799351
 30
0.0
 11
102.6799675228
 21
96.2616447837
 31
0.0
  0
LINE
  5
127
330
1F
100
AcDbEntity
  8
0
  6
Continuous
 62
     7
370
    18
100
AcDbLine
 10
98.6799668672
 20
137.5181135268
 30
0.0
 11
98.6799668672
 21
137.471200946
 31
0.0
  0
DIMENSION
  5
128
330
1F
100
AcDbEntity
  8
VERMASSUNG
100
AcDbDimension
  2
_D
 10
185.8799672278
 20
162.6481134028
 30
0.0
 11
168.8549672278
 21
162.6481134028
 31
0.0
 70
   160
  1
<>
 71
     2
 42
-1.0
  3
SLDDIMSTYLE0
100
AcDbAlignedDimension
 13
151.8299672278
 23
146.4945537265
 33
0.0
 14
185.8799672278
 24
151.6481134028
 34
0.0
100
AcDbRotatedDimension
  0
DIMENSION
  5
133
330
1F
100
AcDbEntity
  8
VERMASSUNG
100
AcDbDimension
  2
_D_1
 10
209.8799672278
 20
162.6481134028
 30
0.0
 11
197.8799672278
 21
162.6481134028
 31
0.0
 70
   160
  1
<>
 71
     2
 42
-1.0
  3
SLDDIMSTYLE0
100
AcDbAlignedDimension
 13
185.8799672278
 23
151.6481134028
 33
0.0
 14
209.8799672278
 24
131.6481134028
 34
0.0
100
AcDbRotatedDimension
  0
DIMENSION
  5
13D
330
1F
100
AcDbEntity
  8
VERMASSUNG
100
AcDbDimension
  2
_D_2
 10
185.8799672278
 20
170.2265126283
 30
0.0
 11
155.8799672278
 21
170.2265126283
 31
0.0
 70
   160
  1
<>
 71
     2
 42
-1.0
  3
SLDDIMSTYLE0
100
AcDbAlignedDimension
 13
125.8799672278
 23
147.8481134028
 33
0.0
 14
185.8799672278
 24
151.6481134028
 34
0.0
100
AcDbRotatedDimension
  0
DIMENSION
  5
147
330
1F
100
AcDbEntity
  8
VERMASSUNG
100
AcDbDimension
  2
_D_3
 10
209.8799672278
 20
177.3600768933
 30
0.0
 11
151.9299672278
 21
177.3600768933
 31
0.0
 70
   160
  1
<>
 71
     2
 42
-1.0
  3
SLDDIMSTYLE0
100
AcDbAlignedDimension
 13
93.9799672278
 23
136.3387911493
 33
0.0
 14
209.8799672278
 24
131.6481134028
 34
0.0
100
AcDbRotatedDimension
  0
DIMENSION
  5
151
330
1F
100
AcDbEntity
  8
VERMASSUNG
100
AcDbDimension
  2
_D_4
 10
83.8346633854
 20
148.1481134028
 30
0.0
 11
83.8346633854
 21
116.6481134028
 31
0.0
 70
   160
  1
%%c<>
 71
     2
 42
-1.0
  3
SLDDIMSTYLE0
100
AcDbAlignedDimension
 13
126.1799672278
 23
85.1481134028
 33
0.0
 14
126.1799672278
 24
148.1481134028
 34
0.0
 50
90.0
100
AcDbRotatedDimension
  0
DIMENSION
  5
15C
330
1F
100
AcDbEntity
  8
VERMASSUNG
100
AcDbDimension
  2
_D_5
 10
223.4486712841
 20
132.6481134028
 30
0.0
 11
223.4486712841
 21
116.6481134028
 31
0.0
 70
   160
  1
%%c<>
 71
     2
 42
-1.0
  3
SLDDIMSTYLE0
100
AcDbAlignedDimension
 13
208.8799672278
 23
100.6481134028
 33
0.0
 14
208.8799672278
 24
132.6481134028
 34
0.0
 50
90.0
100
AcDbRotatedDimension
  0
LINE
  5
167
330
1F
100
AcDbEntity
  8
VERMASSUNG
  6
CENTERX2
370
    18
100
AcDbLine
 10
213.8413533835
 20
116.6481134028
 30
0.0
 11
90.1249690049
 21
116.6481134028
 31
0.0
  0
SPLINE
  5
168
330
1F
100
AcDbEntity
  8
0
  6
Continuous
 62
     7
370
    25
100
AcDbSpline
210
0.0
220
0.0
230
1.0
 70
     8
 71
     3
 72
    19
 73
    15
 74
     0
 42
0.000000001
 43
0.00000001
 40
0.0
 40
0.0
 40
0.0
 40
0.0
 40
0.0792755013650999
 40
0.1644502022743418
 40
0.2495284624967705
 40
0.3346161467154732
 40
0.4198050995024532
 40
0.505207718536241
 40
0.5909424737611583
 40
0.6770762228546104
 40
0.7634408636744285
 40
0.8491483100210009
 40
0.9328721297658087
 40
0.9999999999999999
 40
0.9999999999999999
 40
0.9999999999999999
 40
0.9999999999999999
 10
271.4323668853559
 20
42.94372389958312
 30
0.0
 10
271.5619997465409
 20
43.06942130003459
 30
0.0
 10
271.8309119561919
 20
43.33016973522144
 30
0.0
 10
272.1964169157086
 20
43.80518764836268
 30
0.0
 10
272.5244990981178
 20
44.33101109656648
 30
0.0
 10
272.7936328705912
 20
44.88791779505668
 30
0.0
 10
272.9962718593918
 20
45.45718886582389
 30
0.0
 10
273.1254925044886
 20
46.02268166245039
 30
0.0
 10
273.176244674558
 20
46.56805976357479
 30
0.0
 10
273.1445894922782
 20
47.0772474843441
 30
0.0
 10
273.0288197610467
 20
47.5349095774282
 30
0.0
 10
272.8277199563198
 20
47.91976277357573
 30
0.0
 10
272.5711123256827
 20
48.21128484968825
 30
0.0
 10
272.3577408667938
 20
48.32242063978406
 30
0.0
 10
272.2627921684666
 20
48.37187523254975
 30
0.0
  0
LINE
  5
169
330
1F
100
AcDbEntity
  8
0
  6
Continuous
 62
     7
370
    25
100
AcDbLine
 10
272.3648257374
 20
48.327561235
 30
0.0
 11
270.0667279926
 21
49.6542248243
 31
0.0
  0
SPLINE
  5
16A
330
1F
100
AcDbEntity
  8
0
  6
Continuous
 62
     7
370
    25
100
AcDbSpline
210
0.0
220
0.0
230
1.0
 70
     8
 71
     3
 72
    25
 73
    21
 74
     0
 42
0.000000001
 43
0.00000001
 40
0.0
 40
0.0
 40
0.0
 40
0.0
 40
0.0512582663864712
 40
0.1046232532003037
 40
0.1590084446181869
 40
0.2148163332027091
 40
0.2715557961233923
 40
0.3285835505917301
 40
0.3855362312363115
 40
0.4423792658115571
 40
0.4991578750298844
 40
0.5559428372820558
 40
0.6127954231287889
 40
0.6697905373060146
 40
0.727007346741755
 40
0.7844904212409739
 40
0.8421276044159363
 40
0.8993261772788507
 40
0.9552009373862776
 40
1.0
 40
1.0
 40
1.0
 40
1.0
 10
249.8239088029428
 20
31.21835764612634
 30
0.0
 10
249.9365441678846
 20
31.16958814962829
 30
0.0
 10
250.1664442237463
 20
31.07004472492299
 30
0.0
 10
250.5636210885642
 20
31.0444518254412
 30
0.0
 10
250.9872054394326
 20
31.10931434043854
 30
0.0
 10
251.4294637954952
 20
31.27412291064516
 30
0.0
 10
251.8770930992203
 20
31.53341094891907
 30
0.0
 10
252.3151846380286
 20
31.8798512257538
 30
0.0
 10
252.7287562914307
 20
32.30096991135049
 30
0.0
 10
253.1049058842004
 20
32.7826478672112
 30
0.0
 10
253.4325159611618
 20
33.30977748900656
 30
0.0
 10
253.7017758320189
 20
33.86633407697416
 30
0.0
 10
253.9043821438727
 20
34.4356991945904
 30
0.0
 10
254.0336103823951
 20
35.00116649901931
 30
0.0
 10
254.0843614739699
 20
35.54655181931278
 30
0.0
 10
254.0527068438886
 20
36.05573789903399
 30
0.0
 10
253.9369359440417
 20
36.51339964265652
 30
0.0
 10
253.7358364600013
 20
36.89825305681473
 30
0.0
 10
253.4792287324869
 20
37.18977474862408
 30
0.0
 10
253.2658576848038
 20
37.30091103861888
 30
0.0
 10
253.1709092397488
 20
37.35036581722527
 30
0.0
  0
LINE
  5
16B
330
1F
100
AcDbEntity
  8
0
  6
Continuous
 62
     7
370
    25
100
AcDbLine
 10
247.4751294728
 20
32.570373171
 30
0.0
 11
249.7732272176
 21
31.2437095817
 31
0.0
  0
LINE
  5
16C
330
1F
100
AcDbEntity
  8
0
  6
Continuous
 62
     7
370
    25
100
AcDbLine
 10
253.2729428087
 20
37.3060518197
 30
0.0
 11
250.9748450639
 21
38.632715409
 31
0.0
  0
SPLINE
  5
16D
330
1F
100
AcDbEntity
  8
0
  6
Continuous
 62
     7
370
    25
100
AcDbSpline
210
0.0
220
0.0
230
1.0
 70
     8
 71
     3
 72
    20
 73
    16
 74
     0
 42
0.000000001
 43
0.00000001
 40
0.0
 40
0.0
 40
0.0
 40
0.0
 40
0.0173559730316968
 40
0.099178854591052
 40
0.181398498012515
 40
0.2640708443715578
 40
0.3471681354141712
 40
0.4306085688267579
 40
0.5142909683875451
 40
0.5981206909840591
 40
0.6820227303597838
 40
0.7659400428904101
 40
0.8498365632389353
 40
0.933697944701518
 40
1.0
 40
1.0
 40
1.0
 40
1.0
 10
251.1435338738085
 20
25.05078314627353
 30
0.0
 10
251.2010884402822
 20
25.03403540970529
 30
0.0
 10
251.5299778646277
 20
24.93833225743618
 30
0.0
 10
252.1717983490756
 20
24.86110901330112
 30
0.0
 10
253.0650220997492
 20
24.82474578267883
 30
0.0
 10
253.9948194160425
 20
24.89750233340223
 30
0.0
 10
254.9511942464657
 20
25.06851927503966
 30
0.0
 10
255.9294459283369
 20
25.34002535599734
 30
0.0
 10
256.9229125642699
 20
25.70965756826486
 30
0.0
 10
257.9252578521118
 20
26.17516562503449
 30
0.0
 10
258.9299607035363
 20
26.73353680975756
 30
0.0
 10
259.9309947931021
 20
27.38026906875954
 30
0.0
 10
260.9212634240041
 20
28.11384838974388
 30
0.0
 10
261.8304598258931
 20
28.8630900832409
 30
0.0
 10
262.3966745781868
 20
29.40031909327588
 30
0.0
 10
262.6466768598816
 20
29.63752322431854
 30
0.0
  0
SPLINE
  5
16E
330
1F
100
AcDbEntity
  8
0
  6
Continuous
 62
     7
370
    25
100
AcDbSpline
210
0.0
220
0.0
230
1.0
 70
     8
 71
     3
 72
    15
 73
    11
 74
     0
 42
0.000000001
 43
0.00000001
 40
0.0
 40
0.0
 40
0.0
 40
0.0
 40
0.1222926657994613
 40
0.2578329226683472
 40
0.3933198331264391
 40
0.5286418657651955
 40
0.663647540081279
 40
0.7981580968134144
 40
0.9320021883320744
 40
0.9999999999999999
 40
0.9999999999999999
 40
0.9999999999999999
 40
0.9999999999999999
 10
271.2809075754204
 20
48.95329311691552
 30
0.0
 10
271.2658287778834
 20
49.29414976081777
 30
0.0
 10
271.2340377427147
 20
50.01278700806166
 30
0.0
 10
271.0876552898037
 20
51.04736524429133
 30
0.0
 10
270.8644772199033
 20
52.06278061228194
 30
0.0
 10
270.5609712457289
 20
53.01184564067833
 30
0.0
 10
270.1824523641815
 20
53.891004758178
 30
0.0
 10
269.7263234158477
 20
54.68791412236885
 30
0.0
 10
269.2959623282768
 20
55.29996951503509
 30
0.0
 10
268.9928169067963
 20
55.61129835380212
 30
0.0
 10
268.8906913077388
 20
55.71618083564091
 30
0.0
  0
LINE
  5
16F
330
1F
100
AcDbEntity
  8
0
  6
Continuous
 62
     7
370
    25
100
AcDbLine
 10
243.761253232
 20
28.9931530778
 30
0.0
 11
249.4181070917
 21
25.7275208556
 31
0.0
  0
LINE
  5
170
330
1F
100
AcDbEntity
  8
0
  6
Continuous
 62
     7
370
    25
100
AcDbLine
 10
267.4166447937
 20
56.9052805022
 30
0.0
 11
261.7597909341
 21
60.1709127244
 31
0.0
  0
SPLINE
  5
171
330
1F
100
AcDbEntity
  8
0
  6
Continuous
 62
     7
370
    25
100
AcDbSpline
210
0.0
220
0.0
230
1.0
 70
     8
 71
     3
 72
    35
 73
    31
 74
     0
 42
0.000000001
 43
0.00000001
 40
0.0
 40
0.0
 40
0.0
 40
0.0
 40
0.0182885349623519
 40
0.0538797725014191
 40
0.0896618054642399
 40
0.1259354648957579
 40
0.1627963762966011
 40
0.2001494018559068
 40
0.2378089678151235
 40
0.2756020992350343
 40
0.3134006789542998
 40
0.3511548510716869
 40
0.3888552087644732
 40
0.4265086806471035
 40
0.4641298116505323
 40
0.5017364793562943
 40
0.5393478942018093
 40
0.5769782839443738
 40
0.6146470925195716
 40
0.6523744086328195
 40
0.6901786239053805
 40
0.7280727338479277
 40
0.766056357078314
 40
0.8040996901904494
 40
0.8420819378209871
 40
0.8798221822944848
 40
0.917088814039396
 40
0.9537091622659785
 40
0.9897096387015748
 40
1.0
 40
1.0
 40
1.0
 40
1.0
 10
263.0558410994033
 20
29.42245786913383
 30
0.0
 10
263.1421887636
 20
29.37598381353006
 30
0.0
 10
263.3965772377189
 20
29.2390668025008
 30
0.0
 10
263.8719666015949
 20
29.11780434932494
 30
0.0
 10
264.4665486901795
 20
29.05427115386204
 30
0.0
 10
265.0949655241618
 20
29.09564784934496
 30
0.0
 10
265.7479932198663
 20
29.2359315475402
 30
0.0
 10
266.4186513291106
 20
29.47628946737463
 30
0.0
 10
267.0969928704657
 20
29.81348769965702
 30
0.0
 10
267.7726729136419
 20
30.242510082705
 30
0.0
 10
268.4356866056668
 20
30.75639610883434
 30
0.0
 10
269.0768411300875
 20
31.34715655206983
 30
0.0
 10
269.6877897613712
 20
32.00616723570663
 30
0.0
 10
270.2607164770153
 20
32.72424695591799
 30
0.0
 10
270.7883062944928
 20
33.4916341197388
 30
0.0
 10
271.263751699237
 20
34.29807318068782
 30
0.0
 10
271.6807846660463
 20
35.13287775332213
 30
0.0
 10
272.0337973899205
 20
35.98507372152213
 30
0.0
 10
272.3178735150724
 20
36.8435710859979
 30
0.0
 10
272.5288493329134
 20
37.69733535146193
 30
0.0
 10
272.6632530384671
 20
38.53549043698965
 30
0.0
 10
272.7182937083664
 20
39.34735308308461
 30
0.0
 10
272.6918248654761
 20
40.12241956554241
 30
0.0
 10
272.582396310216
 20
40.8498444946208
 30
0.0
 10
272.3898477752654
 20
41.51865416273741
 30
0.0
 10
272.115495257523
 20
42.1165809625392
 30
0.0
 10
271.7651078221905
 20
42.63522105283184
 30
0.0
 10
271.3413824914745
 20
43.05551172597995
 30
0.0
 10
270.9818053602177
 20
43.32454418785836
 30
0.0
 10
270.7516591104846
 20
43.41935391887535
 30
0.0
 10
270.7004980562208
 20
43.440429933796
 30
0.0
  0
LINE
  5
172
330
1F
100
AcDbEntity
  8
0
  6
Continuous
 62
     7
370
    25
100
AcDbLine
 10
255.655137675
 20
33.6736527693
 30
0.0
 11
262.9029810653
 21
29.489561841
 31
0.0
  0
LINE
  5
173
330
1F
100
AcDbEntity
  8
0
  6
Continuous
 62
     7
370
    25
100
AcDbLine
 10
270.9023310819
 20
43.3463436104
 30
0.0
 11
263.6544876917
 21
47.5304345387
 31
0.0
  0
SPLINE
  5
174
330
1F
100
AcDbEntity
  8
0
  6
Continuous
 62
     7
370
    25
100
AcDbSpline
210
0.0
220
0.0
230
1.0
 70
     8
 71
     3
 72
    36
 73
    32
 74
     0
 42
0.000000001
 43
0.00000001
 40
0.0
 40
0.0
 40
0.0
 40
0.0
 40
0.0012146944563165
 40
0.0362878299466808
 40
0.0715218176602116
 40
0.1069484692105226
 40
0.142562003893083
 40
0.1783306134715613
 40
0.2142114995535673
 40
0.2501629028134538
 40
0.286150816696392
 40
0.3221498223329596
 40
0.3581416909598945
 40
0.3941193410017715
 40
0.4300798337417049
 40
0.4660229885410063
 40
0.5019502087123021
 40
0.5378639900783084
 40
0.5737672963534526
 40
0.6096634047492318
 40
0.6455558092453167
 40
0.6814480402892341
 40
0.7173429802510107
 40
0.753243763346284
 40
0.7891540616380921
 40
0.825077457504625
 40
0.8610174355287022
 40
0.8969771946869861
 40
0.9329593391190643
 40
0.968965424880284
 40
1.0
 40
1.0
 40
1.0
 40
1.0
 10
260.0505485418052
 20
60.85103152444085
 30
0.0
 10
260.0412265438238
 20
60.85391410952542
 30
0.0
 10
259.7627408096104
 20
60.94002856967784
 30
0.0
 10
259.1748992298933
 20
61.01805835034979
 30
0.0
 10
258.2897546622586
 20
61.07630677566738
 30
0.0
 10
257.3656478397391
 20
61.02243414401924
 30
0.0
 10
256.4142530101853
 20
60.87108351950556
 30
0.0
 10
255.439688370948
 20
60.61881255999683
 30
0.0
 10
254.4486876495128
 20
60.26811303835238
 30
0.0
 10
253.4475663479792
 20
59.82094966177492
 30
0.0
 10
252.4427908392439
 20
59.28041739285925
 30
0.0
 10
251.4406795112896
 20
58.65016378581371
 30
0.0
 10
250.4473915008651
 20
57.93438629879765
 30
0.0
 10
249.4688788834605
 20
57.13773055553715
 30
0.0
 10
248.5109083117494
 20
56.26523154860001
 30
0.0
 10
247.5790954033137
 20
55.32230470735735
 30
0.0
 10
246.6788921932666
 20
54.31474492671704
 30
0.0
 10
245.8155789374702
 20
53.24867838715077
 30
0.0
 10
244.9942287146791
 20
52.13055635311158
 30
0.0
 10
244.2196885698304
 20
50.96710978902873
 30
0.0
 10
243.4965498703455
 20
49.76531968142569
 30
0.0
 10
242.8291246319683
 20
48.53238479035477
 30
0.0
 10
242.2214228947485
 20
47.27567768914398
 30
0.0
 10
241.6771127119623
 20
46.00269638222932
 30
0.0
 10
241.1995266851428
 20
44.72101194714693
 30
0.0
 10
240.7915797458669
 20
43.4382009169102
 30
0.0
 10
240.4559824239154
 20
42.16191777800218
 30
0.0
 10
240.1944426524763
 20
40.89943290603392
 30
0.0
 10
240.0105628592071
 20
39.65916888348338
 30
0.0
 10
239.9042126319388
 20
38.50095455983145
 30
0.0
 10
239.8918680271053
 20
37.77467377226573
 30
0.0
 10
239.8861534419417
 20
37.43846265257308
 30
0.0
  0
SPLINE
  5
175
330
1F
100
AcDbEntity
  8
0
  6
Continuous
 62
     7
370
    25
100
AcDbSpline
210
0.0
220
0.0
230
1.0
 70
     8
 71
     3
 72
    16
 73
    12
 74
     0
 42
0.000000001
 43
0.00000001
 40
0.0
 40
0.0
 40
0.0
 40
0.0
 40
0.0673226320780573
 40
0.1950426528078189
 40
0.3228178598312262
 40
0.4505253988232102
 40
0.578052606239316
 40
0.705250268419339
 40
0.8319476793446229
 40
0.9579907971138776
 40
1.0
 40
1.0
 40
1.0
 40
1.0
 10
239.8861534419417
 20
37.43846265257308
 30
0.0
 10
239.8883676577631
 20
37.23573101899824
 30
0.0
 10
239.8947825365991
 20
36.64839041153873
 30
0.0
 10
239.9661380790739
 20
35.71089219931571
 30
0.0
 10
240.1263106173859
 20
34.64870576263908
 30
0.0
 10
240.3664720126675
 20
33.64633349286825
 30
0.0
 10
240.6845720844244
 20
32.71045184560593
 30
0.0
 10
241.0775372671966
 20
31.84561035035011
 30
0.0
 10
241.5485487072054
 20
31.06569090790923
 30
0.0
 10
241.9566238943927
 20
30.50555895965986
 30
0.0
 10
242.2289898120658
 20
30.23681581438326
 30
0.0
 10
242.2970750074988
 20
30.16963622846531
 30
0.0
  0
SPLINE
  5
176
330
1F
100
AcDbEntity
  8
0
  6
Continuous
 62
     7
370
    25
100
AcDbSpline
210
0.0
220
0.0
230
1.0
 70
     8
 71
     3
 72
    13
 73
     9
 74
     0
 42
0.000000001
 43
0.00000001
 40
0.0
 40
0.0
 40
0.0
 40
0.0
 40
0.0616390170871902
 40
0.2803431287398922
 40
0.4686105553654155
 40
0.669253301826505
 40
0.8624398159158286
 40
0.9999999999999999
 40
0.9999999999999999
 40
0.9999999999999999
 40
0.9999999999999999
 10
264.8329020514982
 20
32.71838140271853
 30
0.0
 10
264.8030950346729
 20
32.73048150896109
 30
0.0
 10
264.6675284284858
 20
32.78551453515826
 30
0.0
 10
264.4890267777874
 20
32.95967925864874
 30
0.0
 10
264.282913803482
 20
33.25653080564479
 30
0.0
 10
264.1373106521351
 20
33.63691871249621
 30
0.0
 10
264.0561474316248
 20
34.05561631747405
 30
0.0
 10
264.0474981636772
 20
34.3546230868577
 30
0.0
 10
264.0439008643008
 20
34.47898238194961
 30
0.0
  0
SPLINE
  5
177
330
1F
100
AcDbEntity
  8
0
  6
Continuous
 62
     7
370
    25
100
AcDbSpline
210
0.0
220
0.0
230
1.0
 70
     8
 71
     3
 72
    23
 73
    19
 74
     0
 42
0.000000001
 43
0.00000001
 40
0.0
 40
0.0
 40
0.0
 40
0.0
 40
0.0338096073776243
 40
0.0987910166291739
 40
0.1640483139861685
 40
0.2295623794222468
 40
0.295279871134222
 40
0.3611129862212004
 40
0.426962898560255
 40
0.4926976028142454
 40
0.5582103406710753
 40
0.6234053895317151
 40
0.6882167028695896
 40
0.7526662801855001
 40
0.8169814360342643
 40
0.8816003023554068
 40
0.9477713442189805
 40
0.9999999999999999
 40
0.9999999999999999
 40
0.9999999999999999
 40
0.9999999999999999
 10
264.0439008643008
 20
34.47898238194961
 30
0.0
 10
264.0458057485926
 20
34.57190338038483
 30
0.0
 10
264.0513717835256
 20
34.84341673453542
 30
0.0
 10
264.1146395301888
 20
35.32964793786464
 30
0.0
 10
264.2579839190342
 20
35.93495207543117
 30
0.0
 10
264.4717254940035
 20
36.55487830365846
 30
0.0
 10
264.7500572123375
 20
37.1716306043937
 30
0.0
 10
265.0864717876071
 20
37.76874105414745
 30
0.0
 10
265.4719418933735
 20
38.32987435199244
 30
0.0
 10
265.8957034722048
 20
38.83991330771251
 30
0.0
 10
266.3454195991401
 20
39.28538930599805
 30
0.0
 10
266.8075503889537
 20
39.65510010649623
 30
0.0
 10
267.2677439672128
 20
39.9407407744663
 30
0.0
 10
267.7112596615297
 20
40.13724414125157
 30
0.0
 10
268.1244215663052
 20
40.24462105299069
 30
0.0
 10
268.4943641091517
 20
40.26362038126445
 30
0.0
 10
268.795019102842
 20
40.21669290899565
 30
0.0
 10
268.9511865564905
 20
40.13070828971845
 30
0.0
 10
269.020075382586
 20
40.09277862290316
 30
0.0
  0
LINE
  5
178
330
1F
100
AcDbEntity
  8
0
  6
Continuous
 62
     7
370
    25
100
AcDbLine
 10
262.8240307984
 20
47.8425014898
 30
0.0
 11
262.3239113549
 21
47.944397167
 31
0.0
  0
LINE
  5
179
330
1F
100
AcDbEntity
  8
0
  6
Continuous
 62
     7
370
    25
100
AcDbLine
 10
254.6312590158
 20
34.6188883908
 30
0.0
 11
254.9695987691
 21
34.2367516528
 31
0.0
  0
LINE
  5
17A
330
1F
100
AcDbEntity
  8
0
  6
Continuous
 62
     7
370
    25
100
AcDbLine
 10
229.7894315488
 20
39.6569202297
 30
0.0
 11
234.8480973072
 21
36.7366146479
 31
0.0
  0
LINE
  5
17B
330
1F
100
AcDbEntity
  8
0
  6
Continuous
 62
     7
370
    25
100
AcDbLine
 10
247.7314526114
 20
65.6712938803
 30
0.0
 11
245.5381520381
 21
66.9374593502
 31
0.0
  0
LINE
  5
17C
330
1F
100
AcDbEntity
  8
0
  6
Continuous
 62
     7
370
    25
100
AcDbLine
 10
237.2465555887
 20
35.352014154
 30
0.0
 11
238.6459442289
 21
34.5441642876
 31
0.0
  0
LINE
  5
17D
330
1F
100
AcDbEntity
  8
0
  6
Continuous
 62
     7
370
    25
100
AcDbLine
 10
238.3618580064
 20
66.5267819063
 30
0.0
 11
232.1714757525
 21
69.6110012259
 31
0.0
  0
LINE
  5
17E
330
1F
100
AcDbEntity
  8
0
  6
Continuous
 62
     7
370
    25
100
AcDbLine
 10
220.7897779226
 20
49.8951858455
 30
0.0
 11
230.5852600933
 21
43.4090245206
 31
0.0
  0
SPLINE
  5
17F
330
1F
100
AcDbEntity
  8
0
  6
Continuous
 62
     7
370
    25
100
AcDbSpline
210
0.0
220
0.0
230
1.0
 70
     8
 71
     3
 72
     9
 73
     5
 74
     0
 42
0.000000001
 43
0.00000001
 40
0.0
 40
0.0
 40
0.0
 40
0.0
 40
0.3940130989225747
 40
1.0
 40
1.0
 40
1.0
 40
1.0
 10
255.7659552399264
 20
60.68753882414413
 30
0.0
 10
255.6968114344501
 20
60.77090479375894
 30
0.0
 10
255.5213253765872
 20
60.98248651488139
 30
0.0
 10
255.3151941422157
 20
61.15276290498328
 30
0.0
 10
255.1902813142837
 20
61.25594816694777
 30
0.0
  0
SPLINE
  5
180
330
1F
100
AcDbEntity
  8
0
  6
Continuous
 62
     7
370
    25
100
AcDbSpline
210
0.0
220
0.0
230
1.0
 70
     8
 71
     3
 72
    27
 73
    23
 74
     0
 42
0.000000001
 43
0.00000001
 40
0.0
 40
0.0
 40
0.0
 40
0.0
 40
0.0010396697035234
 40
0.0537045116752036
 40
0.1064444816000037
 40
0.159596345883871
 40
0.2133551865720677
 40
0.2677414362240713
 40
0.3226394343855074
 40
0.3778750818423438
 40
0.4332850411789262
 40
0.4887455071598881
 40
0.5441763705499607
 40
0.5995527814174078
 40
0.6548696553708858
 40
0.7101330719511816
 40
0.7653549621141635
 40
0.8205500689874002
 40
0.8757345312432331
 40
0.9309250766449982
 40
0.9861332393047221
 40
1.0
 40
1.0
 40
1.0
 40
1.0
 10
232.1025225205157
 20
69.64340395608781
 30
0.0
 10
232.0986647032794
 20
69.64562960781997
 30
0.0
 10
231.8993877693577
 20
69.76059644683663
 30
0.0
 10
231.4566613964091
 20
69.900138042818
 30
0.0
 10
230.7804958802482
 20
70.05114862589686
 30
0.0
 10
230.0612703795116
 20
70.09079171507175
 30
0.0
 10
229.3118995507349
 20
70.03315962708965
 30
0.0
 10
228.5359961729837
 20
69.87388113881275
 30
0.0
 10
227.7413854279152
 20
69.61470013473081
 30
0.0
 10
226.9361334197206
 20
69.25755689442259
 30
0.0
 10
226.1288727590113
 20
68.80634633704052
 30
0.0
 10
225.3280038708378
 20
68.2661659822476
 30
0.0
 10
224.5414493274431
 20
67.64301715809937
 30
0.0
 10
223.7766063761177
 20
66.94349813572917
 30
0.0
 10
223.0404099571828
 20
66.17465191482935
 30
0.0
 10
222.3395267422898
 20
65.34399866498867
 30
0.0
 10
221.6801459878484
 20
64.45951593137038
 30
0.0
 10
221.068755942331
 20
63.52954726858384
 30
0.0
 10
220.5090911886577
 20
62.56293727021081
 30
0.0
 10
220.0133867360715
 20
61.56825291544646
 30
0.0
 10
219.6733543282185
 20
60.80921854678656
 30
0.0
 10
219.5221292589059
 20
60.38374261543017
 30
0.0
 10
219.4917708922884
 20
60.29832850803555
 30
0.0
  0
LINE
  5
181
330
1F
100
AcDbEntity
  8
0
  6
Continuous
 62
     7
370
    25
100
AcDbLine
 10
219.6055917494
 20
58.4513262636
 30
0.0
 11
222.1591520798
 21
56.9771872628
 31
0.0
  0
LINE
  5
182
330
1F
100
AcDbEntity
  8
0
  6
Continuous
 62
     7
370
    25
100
AcDbLine
 10
219.3072994047
 20
59.5796359369
 30
0.0
 11
219.3072994047
 21
59.1142299676
 31
0.0
  0
SPLINE
  5
183
330
1F
100
AcDbEntity
  8
0
  6
Continuous
 62
     7
370
    25
100
AcDbSpline
210
0.0
220
0.0
230
1.0
 70
     8
 71
     3
 72
    10
 73
     6
 74
     0
 42
0.000000001
 43
0.00000001
 40
0.0
 40
0.0
 40
0.0
 40
0.0
 40
0.216287904649165
 40
0.8970336400517624
 40
1.0
 40
1.0
 40
1.0
 40
1.0
 10
222.188789875349
 20
49.73783952592289
 30
0.0
 10
222.1860660501237
 20
49.75971956267844
 30
0.0
 10
222.1747692424694
 20
49.8504649469251
 30
0.0
 10
222.1823346718209
 20
49.99935551691264
 30
0.0
 10
222.2156257399342
 20
50.12557546205707
 30
0.0
 10
222.2199996166713
 20
50.14215860321501
 30
0.0
  0
LINE
  5
184
330
1F
100
AcDbEntity
  8
0
  6
Continuous
 62
     7
370
    25
100
AcDbLine
 10
219.3072994047
 20
52.1082872721
 30
0.0
 11
219.3072994047
 21
51.6428813028
 31
0.0
  0
SPLINE
  5
185
330
1F
100
AcDbEntity
  8
0
  6
Continuous
 62
     7
370
    25
100
AcDbSpline
210
0.0
220
0.0
230
1.0
 70
     8
 71
     3
 72
    11
 73
     7
 74
     0
 42
0.000000001
 43
0.00000001
 40
0.0
 40
0.0
 40
0.0
 40
0.0
 40
0.255743099165518
 40
0.5999292738146317
 40
0.9397220894931101
 40
1.0
 40
1.0
 40
1.0
 40
1.0
 10
219.4234495337632
 20
51.35630070427257
 30
0.0
 10
219.5187209719915
 20
51.20110427484028
 30
0.0
 10
219.7422113611285
 20
50.83704017492227
 30
0.0
 10
220.1843213889723
 20
50.36720059750323
 30
0.0
 10
220.5627448957135
 20
50.02797495459971
 30
0.0
 10
220.7976359228812
 20
49.8963702952194
 30
0.0
 10
220.8330265160633
 20
49.87654166652653
 30
0.0
  0
LINE
  5
186
330
1F
100
AcDbEntity
  8
0
  6
Continuous
 62
     7
370
    25
100
AcDbLine
 10
272.2785511385
 20
48.3726811299
 30
0.0
 11
272.3648257374
 21
48.327561235
 31
0.0
  0
LWPOLYLINE
  5
187
330
1F
100
AcDbEntity
  8
0
  6
Continuous
 62
     7
370
    25
100
AcDbPolyline
 90
       13
 70
   128
 43
0.0
 10
265.9739943892
 20
46.1914114216
 10
266.0192765681
 20
46.3588526411
 10
266.2348741618
 20
46.9662364607
 10
266.5257196852
 20
47.5612164387
 10
266.8813027679
 20
48.1222890966
 10
267.2887705968
 20
48.6291752358
 10
267.7333967995
 20
49.063554976
 10
268.1991109145
 20
49.4097285479
 10
268.6690818612
 20
49.6551848743
 10
269.126322484
 20
49.7910517078
 10
269.554307267
 20
49.8124187692
 10
269.9375676583
 20
49.7185137389
 10
270.0667279926
 20
49.6542248243
  0
LWPOLYLINE
  5
188
330
1F
100
AcDbEntity
  8
0
  6
Continuous
 62
     7
370
    25
100
AcDbPolyline
 90
       22
 70
   128
 43
0.0
 10
269.7664402581
 20
44.6024430692
 10
269.8119917817
 20
44.9777248553
 10
269.9445982794
 20
45.3722535358
 10
270.1524777316
 20
45.750973875
 10
270.4171592817
 20
46.0802349844
 10
270.7151236712
 20
46.3307798333
 10
271.0198967524
 20
46.4803473091
 10
271.3043971995
 20
46.5156470616
 10
271.5433467815
 20
46.4335431275
 10
271.7155127064
 20
46.2413301481
 10
271.8055983023
 20
45.9560876303
 10
271.8055983023
 20
45.6031602721
 10
271.7155127064
 20
45.2139071391
 10
271.5433467815
 20
44.8229156139
 10
271.3043971995
 20
44.4649263648
 10
271.0198967524
 20
44.171748893
 10
270.7151236712
 20
43.9694328593
 10
270.4171592817
 20
43.8759553468
 10
270.1524777316
 20
43.8996216431
 10
269.9445982794
 20
44.0383294757
 10
269.8119917817
 20
44.2797539528
 10
269.7664402581
 20
44.6024430692
  0
SPLINE
  5
189
330
1F
100
AcDbEntity
  8
0
  6
Continuous
 62
     7
370
    25
100
AcDbSpline
210
0.0
220
0.0
230
1.0
 70
     8
 71
     3
 72
    10
 73
     6
 74
     0
 42
0.000000001
 43
0.00000001
 40
0.0
 40
0.0
 40
0.0
 40
0.0
 40
0.2693778725034243
 40
0.9660840045951541
 40
1.0
 40
1.0
 40
1.0
 40
1.0
 10
269.9031778055264
 20
44.09749991840992
 30
0.0
 10
269.8834987218002
 20
44.15853437442803
 30
0.0
 10
269.8129225908197
 20
44.37742544792375
 30
0.0
 10
269.7456910995047
 20
44.62337660085891
 30
0.0
 10
269.7685959636443
 20
44.7573303383361
 30
0.0
 10
269.7696592236219
 20
44.76354856547945
 30
0.0
  0
SPLINE
  5
18A
330
1F
100
AcDbEntity
  8
0
  6
Continuous
 62
     7
370
    25
100
AcDbSpline
210
0.0
220
0.0
230
1.0
 70
     8
 71
     3
 72
    10
 73
     6
 74
     0
 42
0.000000001
 43
0.00000001
 40
0.0
 40
0.0
 40
0.0
 40
0.0
 40
0.4391257080004486
 40
0.751373532982911
 40
1.0
 40
1.0
 40
1.0
 40
1.0
 10
270.7870617561616
 20
44.01846767214738
 30
0.0
 10
270.5999861140004
 20
44.06472965616333
 30
0.0
 10
270.2798871454708
 20
44.1438870130194
 30
0.0
 10
270.0111931746728
 20
44.14544941298783
 30
0.0
 10
269.936353166161
 20
44.11222691316485
 30
0.0
 10
269.9031778055264
 20
44.09749991840992
 30
0.0
  0
SPLINE
  5
18B
330
1F
100
AcDbEntity
  8
0
  6
Continuous
 62
     7
370
    25
100
AcDbSpline
210
0.0
220
0.0
230
1.0
 70
     8
 71
     3
 72
    10
 73
     6
 74
     0
 42
0.000000001
 43
0.00000001
 40
0.0
 40
0.0
 40
0.0
 40
0.0
 40
0.4391253862650267
 40
0.7513738763982162
 40
1.0
 40
1.0
 40
1.0
 40
1.0
 10
271.6709450482523
 20
45.11801022546294
 30
0.0
 10
271.4838697334588
 20
44.99554654494881
 30
0.0
 10
271.1637709442486
 20
44.78600272620368
 30
0.0
 10
270.8950764484995
 20
44.36789062083533
 30
0.0
 10
270.8202368639896
 20
44.12578773897722
 30
0.0
 10
270.7870617561616
 20
44.01846767214737
 30
0.0
  0
SPLINE
  5
18C
330
1F
100
AcDbEntity
  8
0
  6
Continuous
 62
     7
370
    25
100
AcDbSpline
210
0.0
220
0.0
230
1.0
 70
     8
 71
     3
 72
    11
 73
     7
 74
     0
 42
0.000000001
 43
0.00000001
 40
0.0
 40
0.0
 40
0.0
 40
0.0
 40
0.184241996819023
 40
0.5169670674472885
 40
0.8653135927090866
 40
0.9999999999999999
 40
0.9999999999999999
 40
0.9999999999999999
 40
0.9999999999999999
 10
271.6709450482523
 20
46.29658540521071
 30
0.0
 10
271.6434627150327
 20
46.24410469535447
 30
0.0
 10
271.5663496710123
 20
46.09684837410119
 30
0.0
 10
271.5088888432053
 20
45.77286249353614
 30
0.0
 10
271.5775024989633
 20
45.40015265711931
 30
0.0
 10
271.6505710038603
 20
45.17952805081343
 30
0.0
 10
271.6709450482523
 20
45.11801022546295
 30
0.0
  0
SPLINE
  5
18D
330
1F
100
AcDbEntity
  8
0
  6
Continuous
 62
     7
370
    25
100
AcDbSpline
210
0.0
220
0.0
230
1.0
 70
     8
 71
     3
 72
    10
 73
     6
 74
     0
 42
0.000000001
 43
0.00000001
 40
0.0
 40
0.0
 40
0.0
 40
0.0
 40
0.439125404033696
 40
0.7513739128717637
 40
1.0
 40
1.0
 40
1.0
 40
1.0
 10
270.7870617561616
 20
46.37561803164289
 30
0.0
 10
270.8530613106423
 20
46.39925135268979
 30
0.0
 10
270.9659911093793
 20
46.43968959822522
 30
0.0
 10
271.3267736966461
 20
46.38496680229975
 30
0.0
 10
271.5652379398601
 20
46.32373043595877
 30
0.0
 10
271.6709450482523
 20
46.29658540521071
 30
0.0
  0
SPLINE
  5
18E
330
1F
100
AcDbEntity
  8
0
  6
Continuous
 62
     7
370
    25
100
AcDbSpline
210
0.0
220
0.0
230
1.0
 70
     8
 71
     3
 72
     9
 73
     5
 74
     0
 42
0.000000001
 43
0.00000001
 40
0.0
 40
0.0
 40
0.0
 40
0.0
 40
0.3723142283607826
 40
1.0
 40
1.0
 40
1.0
 40
1.0
 10
269.8291145974362
 20
44.995048342666
 30
0.0
 10
269.8906966919419
 20
45.10717581325297
 30
0.0
 10
270.0561002403823
 20
45.40833935212879
 30
0.0
 10
270.3413221527931
 20
45.63804841041907
 30
0.0
 10
270.5203518889732
 20
45.78223351792452
 30
0.0
  0
SPLINE
  5
18F
330
1F
100
AcDbEntity
  8
0
  6
Continuous
 62
     7
370
    25
100
AcDbSpline
210
0.0
220
0.0
230
1.0
 70
     8
 71
     3
 72
     9
 73
     5
 74
     0
 42
0.000000001
 43
0.00000001
 40
0.0
 40
0.0
 40
0.0
 40
0.0
 40
0.4011309834308498
 40
1.0
 40
1.0
 40
1.0
 40
1.0
 10
270.5203518889732
 20
45.78223351792452
 30
0.0
 10
270.5090691500826
 20
45.83024179795886
 30
0.0
 10
270.480941831684
 20
45.94992410128963
 30
0.0
 10
270.4775776588017
 20
46.0604772285751
 30
0.0
 10
270.4755629598962
 20
46.12668407119118
 30
0.0
  0
LINE
  5
190
330
1F
100
AcDbEntity
  8
0
  6
Continuous
 62
     7
370
    25
100
AcDbLine
 10
269.7922354464
 20
44.5927686764
 30
0.0
 11
270.7870617562
 21
44.0184676721
 31
0.0
  0
LINE
  5
191
330
1F
100
AcDbEntity
  8
0
  6
Continuous
 62
     7
370
    25
100
AcDbLine
 10
270.520351889
 20
45.7822335179
 30
0.0
 11
271.6709450483
 21
45.1180102255
 31
0.0
  0
LINE
  5
192
330
1F
100
AcDbEntity
  8
0
  6
Continuous
 62
     7
370
    25
100
AcDbLine
 10
253.1866682098
 20
37.3511717145
 30
0.0
 11
253.2729428087
 21
37.3060518197
 31
0.0
  0
LINE
  5
193
330
1F
100
AcDbEntity
  8
0
  6
Continuous
 62
     7
370
    25
100
AcDbLine
 10
249.8161485145
 20
31.2201180867
 30
0.0
 11
249.7732272176
 21
31.2437095817
 31
0.0
  0
LWPOLYLINE
  5
194
330
1F
100
AcDbEntity
  8
0
  6
Continuous
 62
     7
370
    25
100
AcDbPolyline
 90
       14
 70
   128
 43
0.0
 10
246.7501127993
 20
34.17282967
 10
246.794837191
 20
34.7395083038
 10
246.9273942979
 20
35.337343606
 10
247.1429912331
 20
35.9447270454
 10
247.4338374151
 20
36.5397074036
 10
247.7894198392
 20
37.1007796813
 10
248.1968876681
 20
37.6076658205
 10
248.6415138708
 20
38.0420455607
 10
249.1072279858
 20
38.3882191326
 10
249.5771982739
 20
38.6336750788
 10
250.0344388967
 20
38.7695419123
 10
250.4624243383
 20
38.7909093539
 10
250.8456847296
 20
38.6970043236
 10
250.9748450639
 20
38.632715409
  0
ARC
  5
195
330
1F
100
AcDbEntity
  8
0
  6
Continuous
 62
     7
370
    25
100
AcDbCircle
 10
248.4743142714
 20
33.9876869292
 30
0.0
 40
1.734113188670602
100
AcDbArc
 50
173.8711298319
 51
234.8167412924
  0
LWPOLYLINE
  5
196
330
1F
100
AcDbEntity
  8
0
  6
Continuous
 62
     7
370
    25
100
AcDbPolyline
 90
       22
 70
   128
 43
0.0
 10
250.6745573293
 20
33.5809336539
 10
250.720108853
 20
33.95621544
 10
250.8527153507
 20
34.3507441205
 10
251.0605948028
 20
34.7294644597
 10
251.3252763529
 20
35.058725569
 10
251.6232407425
 20
35.3092704179
 10
251.9280138237
 20
35.4588378938
 10
252.2125142708
 20
35.4941376463
 10
252.4514638528
 20
35.4120337122
 10
252.6236297777
 20
35.2198207327
 10
252.7137147151
 20
34.9345778348
 10
252.7137147151
 20
34.5816504766
 10
252.6236297777
 20
34.1923977238
 10
252.4514638528
 20
33.8014061986
 10
252.2125142708
 20
33.4434169495
 10
251.9280138237
 20
33.1502394777
 10
251.6232407425
 20
32.947923444
 10
251.3252763529
 20
32.8544459314
 10
251.0605948028
 20
32.8781122278
 10
250.8527153507
 20
33.0168200604
 10
250.720108853
 20
33.2582445375
 10
250.6745573293
 20
33.5809336539
  0
SPLINE
  5
197
330
1F
100
AcDbEntity
  8
0
  6
Continuous
 62
     7
370
    25
100
AcDbSpline
210
0.0
220
0.0
230
1.0
 70
     8
 71
     3
 72
    10
 73
     6
 74
     0
 42
0.000000001
 43
0.00000001
 40
0.0
 40
0.0
 40
0.0
 40
0.0
 40
0.2693778725034243
 40
0.9660840045951541
 40
1.0
 40
1.0
 40
1.0
 40
1.0
 10
250.8112948768086
 20
33.07599050308544
 30
0.0
 10
250.7916157930823
 20
33.13702495910355
 30
0.0
 10
250.721039662102
 20
33.35591603259927
 30
0.0
 10
250.6538081707869
 20
33.60186718553445
 30
0.0
 10
250.6767130349266
 20
33.73582092301161
 30
0.0
 10
250.6777762949041
 20
33.74203915015497
 30
0.0
  0
SPLINE
  5
198
330
1F
100
AcDbEntity
  8
0
  6
Continuous
 62
     7
370
    25
100
AcDbSpline
210
0.0
220
0.0
230
1.0
 70
     8
 71
     3
 72
    10
 73
     6
 74
     0
 42
0.000000001
 43
0.00000001
 40
0.0
 40
0.0
 40
0.0
 40
0.0
 40
0.439125404033696
 40
0.7513739128717637
 40
1.0
 40
1.0
 40
1.0
 40
1.0
 10
251.6951781688994
 20
32.99695787665324
 30
0.0
 10
251.5081028525313
 20
33.04322010517535
 30
0.0
 10
251.1880040580412
 20
33.12237797521322
 30
0.0
 10
250.9193095892546
 20
33.12393943191108
 30
0.0
 10
250.8444699881687
 20
33.0907173029571
 30
0.0
 10
250.8112948768086
 20
33.07599050308544
 30
0.0
  0
SPLINE
  5
199
330
1F
100
AcDbEntity
  8
0
  6
Continuous
 62
     7
370
    25
100
AcDbSpline
210
0.0
220
0.0
230
1.0
 70
     8
 71
     3
 72
    10
 73
     6
 74
     0
 42
0.000000001
 43
0.00000001
 40
0.0
 40
0.0
 40
0.0
 40
0.0
 40
0.4391256902318468
 40
0.7513734965094317
 40
0.9999999999999999
 40
0.9999999999999999
 40
0.9999999999999999
 40
0.9999999999999999
 10
252.5790621195346
 20
34.09650081013847
 30
0.0
 10
252.3919864789478
 20
33.97403710223114
 30
0.0
 10
252.0718875156982
 20
33.76449348760625
 30
0.0
 10
251.8031935179376
 20
33.3463806149211
 30
0.0
 10
251.7283535260019
 20
33.10427803277009
 30
0.0
 10
251.6951781688994
 20
32.99695787665324
 30
0.0
  0
SPLINE
  5
19A
330
1F
100
AcDbEntity
  8
0
  6
Continuous
 62
     7
370
    25
100
AcDbSpline
210
0.0
220
0.0
230
1.0
 70
     8
 71
     3
 72
    11
 73
     7
 74
     0
 42
0.000000001
 43
0.00000001
 40
0.0
 40
0.0
 40
0.0
 40
0.0
 40
0.184241996819023
 40
0.5169670674472885
 40
0.8653135927090866
 40
0.9999999999999999
 40
0.9999999999999999
 40
0.9999999999999999
 40
0.9999999999999999
 10
252.5790621195346
 20
35.27507598988623
 30
0.0
 10
252.551579786315
 20
35.22259528002999
 30
0.0
 10
252.4744667422945
 20
35.07533895877671
 30
0.0
 10
252.4170059144874
 20
34.75135307821166
 30
0.0
 10
252.4856195702455
 20
34.37864324179483
 30
0.0
 10
252.5586880751425
 20
34.15801863548895
 30
0.0
 10
252.5790621195346
 20
34.09650081013847
 30
0.0
  0
SPLINE
  5
19B
330
1F
100
AcDbEntity
  8
0
  6
Continuous
 62
     7
370
    25
100
AcDbSpline
210
0.0
220
0.0
230
1.0
 70
     8
 71
     3
 72
    10
 73
     6
 74
     0
 42
0.000000001
 43
0.00000001
 40
0.0
 40
0.0
 40
0.0
 40
0.0
 40
0.4391257080004486
 40
0.751373532982911
 40
1.0
 40
1.0
 40
1.0
 40
1.0
 10
251.6951781688994
 20
35.35410823614877
 30
0.0
 10
251.7611779588772
 20
35.37774185382859
 30
0.0
 10
251.8741080252985
 20
35.41818055848587
 30
0.0
 10
252.2348904601682
 20
35.363456619784
 30
0.0
 10
252.473354765017
 20
35.30222082393298
 30
0.0
 10
252.5790621195346
 20
35.27507598988623
 30
0.0
  0
SPLINE
  5
19C
330
1F
100
AcDbEntity
  8
0
  6
Continuous
 62
     7
370
    25
100
AcDbSpline
210
0.0
220
0.0
230
1.0
 70
     8
 71
     3
 72
     9
 73
     5
 74
     0
 42
0.000000001
 43
0.00000001
 40
0.0
 40
0.0
 40
0.0
 40
0.0
 40
0.3723142283607826
 40
1.0
 40
1.0
 40
1.0
 40
1.0
 10
250.7372316687184
 20
33.97353892734152
 30
0.0
 10
250.798813763224
 20
34.08566639792848
 30
0.0
 10
250.9642173116645
 20
34.38682993680431
 30
0.0
 10
251.2494392240753
 20
34.61653899509459
 30
0.0
 10
251.4284689602553
 20
34.76072410260004
 30
0.0
  0
SPLINE
  5
19D
330
1F
100
AcDbEntity
  8
0
  6
Continuous
 62
     7
370
    25
100
AcDbSpline
210
0.0
220
0.0
230
1.0
 70
     8
 71
     3
 72
     9
 73
     5
 74
     0
 42
0.000000001
 43
0.00000001
 40
0.0
 40
0.0
 40
0.0
 40
0.0
 40
0.4011309834308498
 40
1.0
 40
1.0
 40
1.0
 40
1.0
 10
251.4284689602553
 20
34.76072410260004
 30
0.0
 10
251.4171862213648
 20
34.80873238263438
 30
0.0
 10
251.3890589029662
 20
34.92841468596516
 30
0.0
 10
251.385694730084
 20
35.03896781325061
 30
0.0
 10
251.3836800311784
 20
35.1051746558667
 30
0.0
  0
LINE
  5
19E
330
1F
100
AcDbEntity
  8
0
  6
Continuous
 62
     7
370
    25
100
AcDbLine
 10
250.7003518592
 20
33.5712588809
 30
0.0
 11
251.6951781689
 21
32.9969578767
 31
0.0
  0
LINE
  5
19F
330
1F
100
AcDbEntity
  8
0
  6
Continuous
 62
     7
370
    25
100
AcDbLine
 10
251.4284689603
 20
34.7607241026
 30
0.0
 11
252.5790621195
 21
34.0965008101
 31
0.0
  0
ARC
  5
1A0
330
1F
100
AcDbEntity
  8
0
  6
Continuous
 62
     7
370
    25
100
AcDbCircle
 10
264.3574237786
 20
51.6055306428
 30
0.0
 40
6.117952606408754
100
AcDbArc
 50
43.1065062809
 51
76.4151890582
  0
ARC
  5
1A1
330
1F
100
AcDbEntity
  8
0
  6
Continuous
 62
     7
370
    25
100
AcDbCircle
 10
252.477310877
 20
31.0269991401
 30
0.0
 40
6.117714592349401
100
AcDbArc
 50
223.2462492713
 51
256.5374621024
  0
ARC
  5
1A2
330
1F
100
AcDbEntity
  8
0
  6
Continuous
 62
     7
370
    25
100
AcDbCircle
 10
258.6930413369
 20
54.8392765844
 30
0.0
 40
6.150715163422418
100
AcDbArc
 50
60.0925476919
 51
76.4167878808
  0
ARC
  5
1A3
330
1F
100
AcDbEntity
  8
0
  6
Continuous
 62
     7
370
    25
100
AcDbCircle
 10
246.8472601956
 20
34.3188602127
 30
0.0
 40
6.155208807648399
100
AcDbArc
 50
223.2531534422
 51
239.9096436345
  0
SPLINE
  5
1A4
330
1F
100
AcDbEntity
  8
0
  6
Continuous
 62
     7
370
    25
100
AcDbSpline
210
0.0
220
0.0
230
1.0
 70
    11
 71
     3
 72
    92
 73
    88
 74
     0
 42
0.000000001
 43
0.00000001
 40
0.0
 40
0.0
 40
0.0
 40
0.0
 40
0.0312500000000005
 40
0.0312500000000005
 40
0.0468750000000004
 40
0.0468750000000004
 40
0.0625000000000004
 40
0.0625000000000004
 40
0.09375
 40
0.09375
 40
0.109375
 40
0.109375
 40
0.1249999999999999
 40
0.1249999999999999
 40
0.1562499999999998
 40
0.1562499999999998
 40
0.1874999999999996
 40
0.1874999999999996
 40
0.2187499999999994
 40
0.2187499999999994
 40
0.2343749999999993
 40
0.2343749999999993
 40
0.2499999999999993
 40
0.2656249999999992
 40
0.2656249999999992
 40
0.2812499999999992
 40
0.2812499999999992
 40
0.3124999999999991
 40
0.3124999999999991
 40
0.3281249999999991
 40
0.3281249999999991
 40
0.343749999999999
 40
0.343749999999999
 40
0.3749999999999989
 40
0.3749999999999989
 40
0.4062499999999988
 40
0.4062499999999988
 40
0.4374999999999987
 40
0.4374999999999987
 40
0.4687499999999986
 40
0.4687499999999986
 40
0.4843749999999988
 40
0.4843749999999988
 40
0.4999999999999989
 40
0.4999999999999989
 40
0.5312499999999998
 40
0.5312499999999998
 40
0.5468750000000002
 40
0.5468750000000002
 40
0.5625000000000007
 40
0.5625000000000007
 40
0.5937500000000011
 40
0.5937500000000011
 40
0.6250000000000016
 40
0.6250000000000016
 40
0.6406250000000016
 40
0.6406250000000016
 40
0.6562500000000016
 40
0.6562500000000016
 40
0.6875000000000013
 40
0.6875000000000013
 40
0.7187500000000011
 40
0.7187500000000011
 40
0.7500000000000009
 40
0.7500000000000009
 40
0.7656250000000008
 40
0.7656250000000008
 40
0.7812500000000006
 40
0.7968750000000003
 40
0.7968750000000003
 40
0.8125000000000001
 40
0.8125000000000001
 40
0.8437499999999997
 40
0.8437499999999997
 40
0.8593749999999996
 40
0.8593749999999996
 40
0.8749999999999994
 40
0.8749999999999994
 40
0.9062499999999997
 40
0.9062499999999997
 40
0.9374999999999999
 40
0.9374999999999999
 40
0.9531249999999998
 40
0.9531249999999998
 40
0.9687499999999997
 40
0.9687499999999997
 40
1.0
 40
1.0
 40
1.0
 40
1.0
 10
251.3024031004292
 20
54.3137744124997
 30
0.0
 10
251.1418982776633
 20
54.4064318744129
 30
0.0
 10
250.9976826585411
 20
54.51137608171792
 30
0.0
 10
250.8049740267082
 20
54.68635320926452
 30
0.0
 10
250.7447024792483
 20
54.74762245617131
 30
0.0
 10
250.6322993604531
 20
54.87610027686686
 30
0.0
 10
250.5799333015229
 20
54.94368947905315
 30
0.0
 10
250.4380453279137
 20
55.15204152368366
 30
0.0
 10
250.3631527375221
 20
55.29845545619553
 30
0.0
 10
250.2805360424184
 20
55.52839871193474
 30
0.0
 10
250.2579845859224
 20
55.60677673232108
 30
0.0
 10
250.2233276016438
 20
55.76695371106012
 30
0.0
 10
250.2113318821318
 20
55.84860821305912
 30
0.0
 10
250.1921098349245
 20
56.09294470772108
 30
0.0
 10
250.2010427104481
 20
56.2567844358225
 30
0.0
 10
250.2638639391006
 20
56.5848165761908
 30
0.0
 10
250.3187516534032
 20
56.74995261747251
 30
0.0
 10
250.4708413868897
 20
57.0634685787093
 30
0.0
 10
250.568102152957
 20
57.21379626364616
 30
0.0
 10
250.7475230414188
 20
57.42840412222241
 30
0.0
 10
250.8128218385804
 20
57.49782502846729
 30
0.0
 10
250.9515099676458
 20
57.62949767222899
 30
0.0
 10
251.0989872466026
 20
57.7548739681974
 30
0.0
 10
251.2638613817468
 20
57.86774464742007
 30
0.0
 10
251.4376118242615
 20
57.9742551984008
 30
0.0
 10
251.5293394603863
 20
58.02447616717303
 30
0.0
 10
251.8115393109037
 20
58.16212422405268
 30
0.0
 10
252.010658221921
 20
58.23787427959897
 30
0.0
 10
252.325417740089
 20
58.32875424099051
 30
0.0
 10
252.4336544880298
 20
58.35533433928872
 30
0.0
 10
252.6514742406765
 20
58.39999872603461
 30
0.0
 10
252.7612465792962
 20
58.41819446048046
 30
0.0
 10
253.0930493495251
 20
58.46111027063051
 30
0.0
 10
253.3188143715351
 20
58.47424028282323
 30
0.0
 10
253.7714240484101
 20
58.47091003670585
 30
0.0
 10
253.9938488528047
 20
58.45467462412586
 30
0.0
 10
254.431308712671
 20
58.39630299803557
 30
0.0
 10
254.6481975037303
 20
58.35351354831615
 30
0.0
 10
255.0593768021451
 20
58.24640098110996
 30
0.0
 10
255.25502868019
 20
58.18213151056303
 30
0.0
 10
255.5337110853563
 20
58.07051073919816
 30
0.0
 10
255.6245538572655
 20
58.0305224488741
 30
0.0
 10
255.7983094514783
 20
57.94669638267218
 30
0.0
 10
255.8813407775713
 20
57.90285519863802
 30
0.0
 10
256.119183923292
 20
57.76572428777212
 30
0.0
 10
256.2628479694304
 20
57.66690041244381
 30
0.0
 10
256.4552755767417
 20
57.50694227485931
 30
0.0
 10
256.5153784511886
 20
57.45172349283349
 30
0.0
 10
256.6253211449651
 20
57.3394990495153
 30
0.0
 10
256.6755028724384
 20
57.28222136715215
 30
0.0
 10
256.8118028940248
 20
57.10671116947125
 30
0.0
 10
256.8838773494369
 20
56.98472047798585
 30
0.0
 10
256.9875040254653
 20
56.72938302339207
 30
0.0
 10
257.0174771493105
 20
56.60001110158829
 30
0.0
 10
257.0303031494382
 20
56.40209083566642
 30
0.0
 10
257.029185445338
 20
56.33546956561705
 30
0.0
 10
257.0157955881676
 20
56.20064549718762
 30
0.0
 10
257.0033866751637
 20
56.1320435316482
 30
0.0
 10
256.9496532284298
 20
55.92763074046708
 30
0.0
 10
256.8921996798056
 20
55.7925400975747
 30
0.0
 10
256.7339563965061
 20
55.52312336231488
 30
0.0
 10
256.6315378003967
 20
55.38742153494968
 30
0.0
 10
256.3906138276906
 20
55.12799967342782
 30
0.0
 10
256.2518520971548
 20
55.00306598379797
 30
0.0
 10
256.0155253112663
 20
54.82273630113421
 30
0.0
 10
255.9319621425088
 20
54.7638595888416
 30
0.0
 10
255.7594540677063
 20
54.65142886232444
 30
0.0
 10
255.5805954783893
 20
54.54354551056078
 30
0.0
 10
255.38924140651
 20
54.44472441268277
 30
0.0
 10
255.1915383506762
 20
54.350602610031
 30
0.0
 10
255.0890712042421
 20
54.30574996050792
 30
0.0
 10
254.778851192587
 20
54.18144570338725
 30
0.0
 10
254.5664717479326
 20
54.11113799763693
 30
0.0
 10
254.2395227556974
 20
54.02505143860633
 30
0.0
 10
254.1285280332809
 20
53.99950827780998
 30
0.0
 10
253.9074661508237
 20
53.95604424373557
 30
0.0
 10
253.7972868192059
 20
53.93804614708043
 30
0.0
 10
253.4676777344348
 20
53.89515127705239
 30
0.0
 10
253.2485923888726
 20
53.88125682386924
 30
0.0
 10
252.8148438160866
 20
53.88482445832598
 30
0.0
 10
252.605646647564
 20
53.90216504915268
 30
0.0
 10
252.3024594980677
 20
53.95117454239845
 30
0.0
 10
252.2031797908209
 20
53.97136834702535
 30
0.0
 10
252.0082003795074
 20
54.01970206869208
 30
0.0
 10
251.9124705926649
 20
54.04790326067281
 30
0.0
 10
251.6356192371014
 20
54.14312862265718
 30
0.0
 10
251.462907923195
 20
54.2211169505865
 30
0.0
 10
251.3024031004292
 20
54.3137744124997
 30
0.0
  0
LWPOLYLINE
  5
1A5
330
1F
100
AcDbEntity
  8
0
  6
Continuous
 62
     7
370
    25
100
AcDbPolyline
 90
       25
 70
   128
 43
0.0
 10
252.5113723052
 20
37.7456970457
 10
252.5516804974
 20
38.3774167502
 10
252.6829461986
 20
39.2966000744
 10
252.8996738547
 20
40.2412717991
 10
253.1988203316
 20
41.1981704973
 10
253.5761877374
 20
42.1538641268
 10
254.0264774229
 20
43.0949361478
 10
254.5433690072
 20
44.0081765822
 10
255.1196063177
 20
44.8807648965
 10
255.7471004521
 20
45.7004526939
 10
256.4170420606
 20
46.4557323356
 10
257.1200272923
 20
47.1360028058
 10
257.846187446
 20
47.7317126185
 10
258.5853290143
 20
48.2345011198
 10
259.3270759905
 20
48.6373091577
 10
260.0610158598
 20
48.9344823726
 10
260.7768457551
 20
49.1218494872
 10
261.4645170282
 20
49.19677991
 10
262.1143759926
 20
49.1582220188
 10
262.71730049
 20
49.0067173586
 10
263.264826577
 20
48.7443920272
 10
263.7492680514
 20
48.3749287172
 10
264.1638247827
 20
47.9035144234
 10
264.5026768836
 20
47.3367660994
 10
264.6717825522
 20
46.9431629665
  0
ARC
  5
1A6
330
1F
100
AcDbEntity
  8
0
  6
Continuous
 62
     7
370
    25
100
AcDbCircle
 10
255.9960821183
 20
36.3340761176
 30
0.0
 40
3.317374662852443
100
AcDbArc
 50
226.291897293
 51
281.764014993
  0
LWPOLYLINE
  5
1A7
330
1F
100
AcDbEntity
  8
0
  6
Continuous
 62
     7
370
    25
100
AcDbPolyline
 90
        3
 70
   128
 43
0.0
 10
270.7273228789
 20
43.4388965786
 10
270.8405843025
 20
43.3809054084
 10
270.9023310819
 20
43.3463436104
  0
LINE
  5
1A8
330
1F
100
AcDbEntity
  8
0
  6
Continuous
 62
     7
370
    25
100
AcDbLine
 10
263.0330966185
 20
29.4191826697
 30
0.0
 11
262.9029810653
 21
29.489561841
 31
0.0
  0
LWPOLYLINE
  5
1A9
330
1F
100
AcDbEntity
  8
0
  6
Continuous
 62
     7
370
    25
100
AcDbPolyline
 90
       27
 70
   128
 43
0.0
 10
255.655137675
 20
33.6736527693
 10
255.278831843
 20
33.936248729
 10
254.864847387
 20
34.3617602883
 10
254.5260832017
 20
34.8852675434
 10
254.2678583512
 20
35.4985486308
 10
254.0942288112
 20
36.1919734284
 10
254.0079206265
 20
36.9546524935
 10
254.0102894111
 20
37.7746089548
 10
254.1012976279
 20
38.6389663969
 10
254.2795165646
 20
39.5341514754
 10
254.5421474072
 20
40.4461062507
 10
254.8850656912
 20
41.3605099777
 10
255.3028864982
 20
42.2630029606
 10
255.7890484202
 20
43.1394124978
 10
256.3359169505
 20
43.9759764483
 10
256.9349045042
 20
44.7595570055
 10
257.5766044315
 20
45.4778496218
 10
258.2509398489
 20
46.1195742509
 10
258.9473211139
 20
46.6746533293
 10
259.6548126833
 20
47.1343704594
 10
260.3623042527
 20
47.4915057082
 10
261.0586855178
 20
47.7404513242
 10
261.7330209352
 20
47.8772977957
 10
262.3747208625
 20
47.8998961452
 10
262.9737084162
 20
47.8078918968
 10
263.5205769465
 20
47.6027289117
 10
263.6544876917
 20
47.5304345387
  0
LWPOLYLINE
  5
1AA
330
1F
100
AcDbEntity
  8
0
  6
Continuous
 62
     7
370
    25
100
AcDbPolyline
 90
       21
 70
   128
 43
0.0
 10
270.3187101704
 20
35.466007936
 10
270.5918451271
 20
35.5737300126
 10
270.8382438353
 20
35.5709966025
 10
271.0337867732
 20
35.4580751803
 10
271.1593333445
 20
35.2460195395
 10
271.2025937918
 20
34.9555870975
 10
271.1593333445
 20
34.6152072062
 10
271.0337867732
 20
34.2581985795
 10
270.8382438353
 20
33.9195082771
 10
270.5918451271
 20
33.6322887838
 10
270.3187101704
 20
33.4246557618
 10
270.0455752138
 20
33.3169338753
 10
269.7991765056
 20
33.3196674756
 10
269.6036334031
 20
33.4325886125
 10
269.4780869964
 20
33.6446443484
 10
269.4348267137
 20
33.9350768855
 10
269.4780869964
 20
34.2754566817
 10
269.6036334031
 20
34.6324652134
 10
269.7991765056
 20
34.971155801
 10
270.0455752138
 20
35.2583751041
 10
270.3187101704
 20
35.466007936
  0
LWPOLYLINE
  5
1AB
330
1F
100
AcDbEntity
  8
0
  6
Continuous
 62
     7
370
    25
100
AcDbPolyline
 90
       21
 70
   128
 43
0.0
 10
265.0775936477
 20
38.4926236828
 10
265.0343333651
 20
38.7830562198
 10
264.9087869583
 20
38.9951119557
 10
264.7132438559
 20
39.1080330927
 10
264.4668451477
 20
39.1107666929
 10
264.193710191
 20
39.0030448064
 10
263.9205752343
 20
38.7954117844
 10
263.6741765261
 20
38.5081922912
 10
263.4786335882
 20
38.1695019887
 10
263.3530870169
 20
37.812493362
 10
263.3098265696
 20
37.4721134707
 10
263.3530870169
 20
37.1816810287
 10
263.4786335882
 20
36.9696253879
 10
263.6741765261
 20
36.8567039658
 10
263.9205752343
 20
36.8539705557
 10
264.193710191
 20
36.9616926322
 10
264.4668451477
 20
37.1693254641
 10
264.7132438559
 20
37.4565447673
 10
264.9087869583
 20
37.7952353548
 10
265.0343333651
 20
38.1522438865
 10
265.0775936477
 20
38.4926236828
  0
LINE
  5
1AC
330
1F
100
AcDbEntity
  8
0
  6
Continuous
 62
     7
370
    25
100
AcDbLine
 10
264.8431160768
 20
32.7018031834
 30
0.0
 11
264.7778287975
 21
32.7372450741
 31
0.0
  0
LWPOLYLINE
  5
1AD
330
1F
100
AcDbEntity
  8
0
  6
Continuous
 62
     7
370
    25
100
AcDbPolyline
 90
       15
 70
   128
 43
0.0
 10
267.973832058
 20
40.2156316516
 10
268.0431254282
 20
39.9917890763
 10
268.1292683182
 20
39.4613811069
 10
268.1292683182
 20
38.8727773632
 10
268.0431254282
 20
38.2429109301
 10
267.8733180804
 20
37.5899020746
 10
267.6247311935
 20
36.9325365049
 10
267.3045160667
 20
36.2897255015
 10
266.9218847501
 20
35.6799615168
 10
266.4878448149
 20
35.1207864464
 10
266.0148829238
 20
34.6282865208
 10
265.5166052234
 20
34.2166305249
 10
265.0073463449
 20
33.8976604261
 10
264.50175665
 20
33.6805527158
 10
264.1606219514
 20
33.593158442
  0
LWPOLYLINE
  5
1AE
330
1F
100
AcDbEntity
  8
0
  6
Continuous
 62
     7
370
    25
100
AcDbPolyline
 90
       14
 70
   128
 43
0.0
 10
267.1652949833
 20
39.8781231085
 10
267.1908608335
 20
39.7984195407
 10
267.2799042828
 20
39.316321748
 10
267.2799042828
 20
38.7730017635
 10
267.1908608335
 20
38.1880965925
 10
267.0159924066
 20
37.5827464214
 10
266.7616190537
 20
36.9788299586
 10
266.43693455
 20
36.3981743831
 10
266.0536738295
 20
35.8617661339
 10
265.6256887995
 20
35.3889923403
 10
265.1684481767
 20
34.9969403878
 10
264.6984776931
 20
34.6997800764
 10
264.2327633209
 20
34.508251428
 10
264.031710053
 20
34.4590174171
  0
ARC
  5
1AF
330
1F
100
AcDbEntity
  8
0
  6
Continuous
 62
     7
370
    25
100
AcDbCircle
 10
261.6627211539
 20
44.0796205123
 30
0.0
 40
3.920927323014741
100
AcDbArc
 50
80.291763427
 51
112.7049709938
  0
ARC
  5
1B0
330
1F
100
AcDbEntity
  8
0
  6
Continuous
 62
     7
370
    25
100
AcDbCircle
 10
257.2326957295
 20
36.8643023778
 30
0.0
 40
3.43647449410718
100
AcDbArc
 50
201.7409421316
 51
220.7989152214
  0
LINE
  5
1B1
330
1F
100
AcDbEntity
  8
0
  6
Continuous
 62
     7
370
    25
100
AcDbLine
 10
262.6532573659
 20
47.8980647853
 30
0.0
 11
262.7231661459
 21
47.8630512669
 31
0.0
  0
SPLINE
  5
1B2
330
1F
100
AcDbEntity
  8
0
  6
Continuous
 62
     7
370
    25
100
AcDbSpline
210
0.0
220
0.0
230
1.0
 70
     8
 71
     3
 72
    13
 73
     9
 74
     0
 42
0.000000001
 43
0.00000001
 40
0.0
 40
0.0
 40
0.0
 40
0.0
 40
0.1475159720365026
 40
0.297997391536702
 40
0.4605883631242667
 40
0.639242987966994
 40
0.831240696205868
 40
0.9999999999999999
 40
0.9999999999999999
 40
0.9999999999999999
 40
0.9999999999999999
 10
241.8912607838891
 20
51.00458549182025
 30
0.0
 10
241.99250317799
 20
51.12743424353593
 30
0.0
 10
242.1970231966597
 20
51.37560132035765
 30
0.0
 10
242.6216806029905
 20
51.613552753703
 30
0.0
 10
243.0988570842779
 20
51.72869687659944
 30
0.0
 10
243.5977614045919
 20
51.68164996284606
 30
0.0
 10
244.0455591248178
 20
51.48069126389344
 30
0.0
 10
244.2340755318195
 20
51.22263884849368
 30
0.0
 10
244.3222620300392
 20
51.10192395034147
 30
0.0
  0
SPLINE
  5
1B3
330
1F
100
AcDbEntity
  8
0
  6
Continuous
 62
     7
370
    25
100
AcDbSpline
210
0.0
220
0.0
230
1.0
 70
     8
 71
     3
 72
    14
 73
    10
 74
     0
 42
0.000000001
 43
0.00000001
 40
0.0
 40
0.0
 40
0.0
 40
0.0
 40
0.0388870765457284
 40
0.2137050266555394
 40
0.3964382902573553
 40
0.5792972459268199
 40
0.753344468631415
 40
0.9106372048400744
 40
0.9999999999999999
 40
0.9999999999999999
 40
0.9999999999999999
 40
0.9999999999999999
 10
242.895522060772
 20
48.63269281969503
 30
0.0
 10
242.8578644982771
 20
48.62956087106819
 30
0.0
 10
242.6509163007879
 20
48.6123491589973
 30
0.0
 10
242.2965671321889
 20
48.7679807124439
 30
0.0
 10
241.8967956145837
 20
49.10713582610188
 30
0.0
 10
241.6402626772643
 20
49.61586130951249
 30
0.0
 10
241.5781510812723
 20
50.18665944224227
 30
0.0
 10
241.6889000175857
 20
50.67060118784485
 30
0.0
 10
241.8374441916194
 20
50.91576391628245
 30
0.0
 10
241.8912614424336
 20
51.0045858719899
 30
0.0
  0
LWPOLYLINE
  5
1B4
330
1F
100
AcDbEntity
  8
0
  6
Continuous
 62
     7
370
    25
100
AcDbPolyline
 90
       19
 70
   128
 43
0.0
 10
253.6319569083
 20
37.6905706368
 10
253.6755871283
 20
38.5165659359
 10
253.8057899387
 20
39.3799094253
 10
254.0205116682
 20
40.2669853047
 10
254.3163657519
 20
41.163803751
 10
254.6886870603
 20
42.056221638
 10
255.1316036815
 20
42.9301652496
 10
255.6381301046
 20
43.7718514711
 10
256.2002788431
 20
44.5680071724
 10
256.8091837478
 20
45.3060755664
 10
257.4552424165
 20
45.9744170539
 10
258.1282660957
 20
46.5624919571
 10
258.8176407352
 20
47.0610261201
 10
259.5124945062
 20
47.4621566638
 10
260.2018691458
 20
47.7595575177
 10
260.8748928249
 20
47.9485392143
 10
261.5209514937
 20
48.0261211883
 10
262.1298563984
 20
47.9910794329
 10
262.4990529132
 20
47.9087128949
  0
ARC
  5
1B5
330
1F
100
AcDbEntity
  8
0
  6
Continuous
 62
     7
370
    25
100
AcDbCircle
 10
256.9275027705
 20
36.7422374529
 30
0.0
 40
3.136472113437182
100
AcDbArc
 50
202.8055553773
 51
226.0258760717
  0
LWPOLYLINE
  5
1B6
330
1F
100
AcDbEntity
  8
0
  6
Continuous
 62
     7
370
    25
100
AcDbPolyline
 90
        3
 70
   128
 43
0.0
 10
253.6812588429
 20
36.8679832823
 10
253.6755871283
 20
36.9149497175
 10
253.6319569083
 20
37.6905706368
  0
SPLINE
  5
1B7
330
1F
100
AcDbEntity
  8
0
  6
Continuous
 62
     7
370
    25
100
AcDbSpline
210
0.0
220
0.0
230
1.0
 70
     8
 71
     3
 72
    10
 73
     6
 74
     0
 42
0.000000001
 43
0.00000001
 40
0.0
 40
0.0
 40
0.0
 40
0.0
 40
0.5
 40
0.5
 40
1.0
 40
1.0
 40
1.0
 40
1.0
 10
236.2812999553042
 20
45.70309386488586
 30
0.0
 10
236.2247712695216
 20
45.67046054920324
 30
0.0
 10
236.1461279469469
 20
45.65008757374427
 30
0.0
 10
235.9858980326158
 20
45.64702617378292
 30
0.0
 10
235.9047310200751
 20
45.66468537366316
 30
0.0
 10
235.8476171197373
 20
45.69765652651747
 30
0.0
  0
SPLINE
  5
1B8
330
1F
100
AcDbEntity
  8
0
  6
Continuous
 62
     7
370
    25
100
AcDbSpline
210
0.0
220
0.0
230
1.0
 70
     8
 71
     3
 72
    12
 73
     8
 74
     0
 42
0.000000001
 43
0.00000001
 40
0.0
 40
0.0
 40
0.0
 40
0.0
 40
0.2500000000000006
 40
0.2500000000000006
 40
0.5000000000000012
 40
0.5000000000000012
 40
1.0
 40
1.0
 40
1.0
 40
1.0
 10
253.538339026082
 20
62.22161840477258
 30
0.0
 10
253.5702433544268
 20
62.20320042805682
 30
0.0
 10
253.6023806908676
 20
62.17328588742476
 30
0.0
 10
253.6570389972939
 20
62.10288846748185
 30
0.0
 10
253.6800123366242
 20
62.06250777080602
 30
0.0
 10
253.733694125562
 20
61.93998394077064
 30
0.0
 10
253.750471060438
 20
61.85518261916496
 30
0.0
 10
253.750471060438
 20
61.78163002353135
 30
0.0
  0
LINE
  5
1B9
330
1F
100
AcDbEntity
  8
0
  6
Continuous
 62
     7
370
    25
100
AcDbLine
 10
235.8476173929
 20
45.6976562365
 30
0.0
 11
234.4482287527
 21
46.5055061029
 31
0.0
  0
LWPOLYLINE
  5
1BA
330
1F
100
AcDbEntity
  8
0
  6
Continuous
 62
     7
370
    25
100
AcDbPolyline
 90
       23
 70
   128
 43
0.0
 10
234.4482287527
 20
46.5055061029
 10
234.7741918206
 20
47.7771721343
 10
235.1824591225
 20
49.0585039109
 10
235.6697827169
 20
50.3393084931
 10
236.2322870695
 20
51.6093987034
 10
236.8654967117
 20
52.8586706911
 10
237.5643757537
 20
54.0771868197
 10
238.3233634457
 20
55.2552539904
 10
239.1364235687
 20
56.3835023459
 10
239.9970878985
 20
57.4529559891
 10
240.8985105357
 20
58.4551076936
 10
241.8335205892
 20
59.3819865802
 10
242.7946807866
 20
60.2262193281
 10
243.7743452615
 20
60.9810909118
 10
244.7647211686
 20
61.6405953803
 10
245.7579305046
 20
62.1994867539
 10
246.7460726287
 20
62.6533212011
 10
247.7212871537
 20
62.9984865003
 10
248.6758167957
 20
63.2322375619
 10
249.6020685365
 20
63.3527157663
 10
250.4926745802
 20
63.3589613405
 10
251.3405499757
 20
63.2509260895
 10
252.1389508979
 20
63.029468258
  0
LINE
  5
1BB
330
1F
100
AcDbEntity
  8
0
  6
Continuous
 62
     7
370
    25
100
AcDbLine
 10
252.1389508979
 20
63.029468258
 30
0.0
 11
253.5383395382
 21
62.2216183916
 31
0.0
  0
LINE
  5
1BC
330
1F
100
AcDbEntity
  8
0
  6
Continuous
 62
     7
370
    25
100
AcDbLine
 10
237.3986266865
 20
44.9846484894
 30
0.0
 11
237.3986266865
 21
46.3481128255
 31
0.0
  0
LINE
  5
1BD
330
1F
100
AcDbEntity
  8
0
  6
Continuous
 62
     7
370
    25
100
AcDbLine
 10
237.3986266865
 20
46.3481128255
 30
0.0
 11
236.281299903
 21
45.7030938031
 31
0.0
  0
LINE
  5
1BE
330
1F
100
AcDbEntity
  8
0
  6
Continuous
 62
     7
370
    25
100
AcDbLine
 10
253.7504712122
 20
61.7816299049
 30
0.0
 11
253.7504712122
 21
60.2175661045
 31
0.0
  0
LINE
  5
1BF
330
1F
100
AcDbEntity
  8
0
  6
Continuous
 62
     7
370
    25
100
AcDbLine
 10
255.1049168239
 20
60.9994709129
 30
0.0
 11
253.7504712122
 21
60.2175661045
 31
0.0
  0
SPLINE
  5
1C0
330
1F
100
AcDbEntity
  8
0
  6
Continuous
 62
     7
370
    25
100
AcDbSpline
210
0.0
220
0.0
230
1.0
 70
     8
 71
     3
 72
    20
 73
    16
 74
     0
 42
0.000000001
 43
0.00000001
 40
0.0
 40
0.0
 40
0.0
 40
0.0
 40
0.2499999999999999
 40
0.2499999999999999
 40
0.3749999999999998
 40
0.3749999999999998
 40
0.4374999999999998
 40
0.4374999999999998
 40
0.4687499999999998
 40
0.4687499999999998
 40
0.4999999999999998
 40
0.4999999999999998
 40
0.7499999999999999
 40
0.7499999999999999
 40
1.0
 40
1.0
 40
1.0
 40
1.0
 10
237.3986267454991
 20
40.36271005389818
 30
0.0
 10
237.3986267454991
 20
40.75509223041874
 30
0.0
 10
237.4190725248091
 20
41.13526886488478
 30
0.0
 10
237.4462461005286
 20
41.707620286703
 30
0.0
 10
237.4548264803225
 20
41.8986891350706
 30
0.0
 10
237.4636828580663
 20
42.18768876473231
 30
0.0
 10
237.4659746649888
 20
42.28441616606148
 30
0.0
 10
237.4681688986763
 20
42.43024958786995
 30
0.0
 10
237.4686946405049
 20
42.47898350718816
 30
0.0
 10
237.4693143730034
 20
42.57670908884545
 30
0.0
 10
237.4694034810515
 20
42.62595414185585
 30
0.0
 10
237.4683648751346
 20
43.05261683373854
 30
0.0
 10
237.4528516348626
 20
43.4398731801212
 30
0.0
 10
237.4177141559402
 20
44.21655544282277
 30
0.0
 10
237.3986267454991
 20
44.60570929944051
 30
0.0
 10
237.3986267454991
 20
44.98464842162878
 30
0.0
  0
LWPOLYLINE
  5
1C1
330
1F
100
AcDbEntity
  8
0
  6
Continuous
 62
     7
370
    25
100
AcDbPolyline
 90
        3
 70
   128
 43
0.0
 10
242.5802010722
 20
49.0168627746
 10
242.8839264091
 20
48.9121686525
 10
243.0486033658
 20
48.9031679068
  0
LWPOLYLINE
  5
1C2
330
1F
100
AcDbEntity
  8
0
  6
Continuous
 62
     7
370
    25
100
AcDbPolyline
 90
       14
 70
   128
 43
0.0
 10
244.1622126655
 20
50.8344260299
 10
244.07274676
 20
50.9712658953
 10
243.8302015249
 20
51.1819270619
 10
243.526476188
 20
51.2866211839
 10
243.1913033753
 20
51.275102111
 10
242.8574904569
 20
51.1484960154
 10
242.5577137529
 20
50.9191963069
 10
242.3213173479
 20
50.6096502618
 10
242.1714431546
 20
50.2501560072
 10
242.1227589348
 20
49.8759036929
 10
242.1800318921
 20
49.523528527
 10
242.3376558372
 20
49.2275239412
 10
242.5802010722
 20
49.0168627746
 10
242.5802010722
 20
49.0168627746
  0
LWPOLYLINE
  5
1C3
330
1F
100
AcDbEntity
  8
0
  6
Continuous
 62
     7
370
    25
100
AcDbPolyline
 90
       20
 70
   128
 43
0.0
 10
233.5244462245
 20
48.1364878955
 10
233.8731481757
 20
49.3941562341
 10
234.3077019402
 20
50.6580553545
 10
234.8241279335
 20
51.9166091036
 10
235.417695172
 20
53.1582889276
 10
236.0829673707
 20
54.3717229942
 10
236.8138510172
 20
55.54579733
 10
237.6036520067
 20
56.6697577165
 10
238.445136557
 20
57.7333102563
 10
239.3305970632
 20
58.7267133825
 10
240.2519232204
 20
59.6408675868
 10
241.2006762746
 20
60.4674001091
 10
242.1681668134
 20
61.198741024
 10
243.1455331634
 20
61.8281913126
 10
244.1238233074
 20
62.3499868823
 10
245.0940770166
 20
62.7593467418
 10
246.0474072844
 20
63.0525222923
 10
246.9750824692
 20
63.2268287784
 10
247.868605865
 20
63.2806684093
 10
248.6395122248
 20
63.225319356
  0
SPLINE
  5
1C4
330
1F
100
AcDbEntity
  8
0
  6
Continuous
 62
     7
370
    25
100
AcDbSpline
210
0.0
220
0.0
230
1.0
 70
     8
 71
     3
 72
     8
 73
     4
 74
     0
 42
0.000000001
 43
0.00000001
 40
0.0
 40
0.0
 40
0.0
 40
0.0
 40
1.0
 40
1.0
 40
1.0
 40
1.0
 10
233.5244462643463
 20
48.13648809636414
 30
0.0
 10
233.0331452352937
 20
48.05384087616025
 30
0.0
 10
232.5415651443911
 20
47.9717570886698
 30
0.0
 10
232.0497703456391
 20
47.89010680158806
 30
0.0
  0
LWPOLYLINE
  5
1C5
330
1F
100
AcDbEntity
  8
0
  6
Continuous
 62
     7
370
    25
100
AcDbPolyline
 90
       23
 70
   128
 43
0.0
 10
232.0497704712
 20
47.8901065968
 10
232.3757335391
 20
49.1617726281
 10
232.784000841
 20
50.4431044048
 10
233.2713244354
 20
51.723908987
 10
233.833828788
 20
52.9939991972
 10
234.4670384302
 20
54.243271185
 10
235.1659174722
 20
55.4617873136
 10
235.9249051642
 20
56.6398544843
 10
236.7379652872
 20
57.7681028397
 10
237.598629617
 20
58.8375564829
 10
238.5000522543
 20
59.8397081875
 10
239.4350623078
 20
60.766587074
 10
240.3962225052
 20
61.6108198219
 10
241.37588698
 20
62.3656914057
 10
242.3662628871
 20
63.0251958741
 10
243.3594722231
 20
63.5840872477
 10
244.3476143472
 20
64.0379216949
 10
245.3228288722
 20
64.3830869942
 10
246.2773585142
 20
64.6168380557
 10
247.2036102551
 20
64.7373162602
 10
248.0942162988
 20
64.7435618344
 10
248.9420916942
 20
64.6355265833
 10
249.7404926165
 20
64.4140687518
  0
LINE
  5
1C6
330
1F
100
AcDbEntity
  8
0
  6
Continuous
 62
     7
370
    25
100
AcDbLine
 10
249.7404926165
 20
64.4140687518
 30
0.0
 11
250.0679357631
 21
63.356142552
 31
0.0
  0
LINE
  5
1C7
330
1F
100
AcDbEntity
  8
0
  6
Continuous
 62
     7
370
    25
100
AcDbLine
 10
246.3258501098
 20
66.3852999121
 30
0.0
 11
249.7404926165
 21
64.4140687518
 31
0.0
  0
LINE
  5
1C8
330
1F
100
AcDbEntity
  8
0
  6
Continuous
 62
     7
370
    25
100
AcDbLine
 10
232.0497704712
 20
47.8901065968
 30
0.0
 11
231.4635552237
 21
48.2285214559
 31
0.0
  0
SPLINE
  5
1C9
330
1F
100
AcDbEntity
  8
0
  6
Continuous
 62
     7
370
    25
100
AcDbSpline
210
0.0
220
0.0
230
1.0
 70
     8
 71
     3
 72
    28
 73
    24
 74
     0
 42
0.000000001
 43
0.00000001
 40
0.0
 40
0.0
 40
0.0
 40
0.0
 40
0.1250000000000005
 40
0.1250000000000005
 40
0.1875000000000004
 40
0.1875000000000004
 40
0.2500000000000004
 40
0.2500000000000004
 40
0.3750000000000003
 40
0.3750000000000003
 40
0.4375000000000004
 40
0.4375000000000004
 40
0.5000000000000003
 40
0.5000000000000003
 40
0.6250000000000001
 40
0.6250000000000001
 40
0.7499999999999999
 40
0.7499999999999999
 40
0.8125
 40
0.8125
 40
0.875
 40
0.875
 40
1.0
 40
1.0
 40
1.0
 40
1.0
 10
231.4635550763807
 20
48.22852167316787
 30
0.0
 10
231.2755679959143
 20
48.33704430475195
 30
0.0
 10
231.0853480413136
 20
48.41898802529985
 30
0.0
 10
230.7972494393656
 20
48.50414575533832
 30
0.0
 10
230.700759568766
 20
48.52619568574212
 30
0.0
 10
230.5070213959312
 20
48.55746950920108
 30
0.0
 10
230.4097703753998
 20
48.56659676052451
 30
0.0
 10
230.1237485005144
 20
48.57437960263292
 30
0.0
 10
229.9384066841579
 20
48.55407305899585
 30
0.0
 10
229.669894097342
 20
48.48685240586271
 30
0.0
 10
229.5815334376763
 20
48.45806604825712
 30
0.0
 10
229.4111807273866
 20
48.38905415816197
 30
0.0
 10
229.3291536976051
 20
48.34891426825184
 30
0.0
 10
229.0927174438525
 20
48.21229450048862
 30
0.0
 10
228.9478501937302
 20
48.09978001079955
 30
0.0
 10
228.6869934002461
 20
47.83152304580009
 30
0.0
 10
228.5747009927437
 20
47.6793696594228
 30
0.0
 10
228.4354765112899
 20
47.4274532717245
 30
0.0
 10
228.3938807249241
 20
47.33941098604812
 30
0.0
 10
228.3207560098629
 20
47.15506993099631
 30
0.0
 10
228.28913152581
 20
47.05828116831452
 30
0.0
 10
228.2116382223878
 20
46.7602660894177
 30
0.0
 10
228.1824635069979
 20
46.55079321228119
 30
0.0
 10
228.1764966242561
 20
46.33041241959732
 30
0.0
  0
ARC
  5
1CA
330
1F
100
AcDbEntity
  8
0
  6
Continuous
 62
     7
370
    25
100
AcDbCircle
 10
243.0210464621
 20
45.9221419504
 30
0.0
 40
14.85016324632611
100
AcDbArc
 50
178.4245883564
 51
181.5754116436
  0
SPLINE
  5
1CB
330
1F
100
AcDbEntity
  8
0
  6
Continuous
 62
     7
370
    25
100
AcDbSpline
210
0.0
220
0.0
230
1.0
 70
     8
 71
     3
 72
    30
 73
    26
 74
     0
 42
0.000000001
 43
0.00000001
 40
0.0
 40
0.0
 40
0.0
 40
0.0
 40
0.1250000000000001
 40
0.1250000000000001
 40
0.1875000000000001
 40
0.1875000000000001
 40
0.2500000000000002
 40
0.2500000000000002
 40
0.3750000000000001
 40
0.3750000000000001
 40
0.4375000000000002
 40
0.4375000000000002
 40
0.5000000000000001
 40
0.5000000000000001
 40
0.625
 40
0.625
 40
0.6875000000000001
 40
0.6875000000000001
 40
0.7500000000000001
 40
0.7500000000000001
 40
0.8125000000000002
 40
0.8125000000000002
 40
0.8750000000000003
 40
0.8750000000000003
 40
1.0
 40
1.0
 40
1.0
 40
1.0
 10
228.1764966242561
 20
45.51387160771156
 30
0.0
 10
228.1824642229477
 20
45.30035441493685
 30
0.0
 10
228.2116094429471
 20
45.08280451691772
 30
0.0
 10
228.288044104206
 20
44.75050548738213
 30
0.0
 10
228.3190100877833
 20
44.63873118608256
 30
0.0
 10
228.3919800285989
 20
44.41302931254756
 30
0.0
 10
228.4341162271576
 20
44.29894153997505
 30
0.0
 10
228.574008016522
 20
43.96077881261387
 30
0.0
 10
228.6858519410642
 20
43.73826859334109
 30
0.0
 10
228.8796385382088
 20
43.40765833739152
 30
0.0
 10
228.9489791758121
 20
43.29743169768538
 30
0.0
 10
229.0944715602587
 20
43.08070169723182
 30
0.0
 10
229.1703588509778
 20
42.97450476160111
 30
0.0
 10
229.4067467994492
 20
42.6618665883515
 30
0.0
 10
229.5758923017001
 20
42.46132404051634
 30
0.0
 10
229.8457582990342
 20
42.171219201094
 30
0.0
 10
229.937949805085
 20
42.07687578472154
 30
0.0
 10
230.1235484001197
 20
41.89557075666115
 30
0.0
 10
230.2173772804066
 20
41.808151423167
 30
0.0
 10
230.406827330872
 20
41.63954387284235
 30
0.0
 10
230.5024487460776
 20
41.55835568707301
 30
0.0
 10
230.695310435504
 20
41.40219300752486
 30
0.0
 10
230.7930453444024
 20
41.32686602782816
 30
0.0
 10
231.0843012995228
 20
41.11357579438432
 30
0.0
 10
231.2755586904959
 20
40.98818236968389
 30
0.0
 10
231.4635550763807
 20
40.87965436619613
 30
0.0
  0
LINE
  5
1CC
330
1F
100
AcDbEntity
  8
0
  6
Continuous
 62
     7
370
    25
100
AcDbLine
 10
231.4635552237
 20
40.8796544652
 30
0.0
 11
232.0497704712
 21
40.5412396062
 31
0.0
  0
ARC
  5
1CD
330
1F
100
AcDbEntity
  8
0
  6
Continuous
 62
     7
370
    25
100
AcDbCircle
 10
237.8411223063
 20
41.9043523299
 30
0.0
 40
5.949607749634569
100
AcDbArc
 50
193.2446605253
 51
253.3775175081
  0
LINE
  5
1CE
330
1F
100
AcDbEntity
  8
0
  6
Continuous
 62
     7
370
    25
100
AcDbLine
 10
251.3699101948
 20
63.4731202194
 30
0.0
 11
251.7042222899
 21
63.165791499
 31
0.0
  0
LINE
  5
1CF
330
1F
100
AcDbEntity
  8
0
  6
Continuous
 62
     7
370
    25
100
AcDbLine
 10
250.516981458
 20
63.9655054984
 30
0.0
 11
251.3699101948
 21
63.4731202194
 31
0.0
  0
SPLINE
  5
1D0
330
1F
100
AcDbEntity
  8
0
  6
Continuous
 62
     7
370
    25
100
AcDbSpline
210
0.0
220
0.0
230
1.0
 70
     8
 71
     3
 72
    20
 73
    16
 74
     0
 42
0.000000001
 43
0.00000001
 40
0.0
 40
0.0
 40
0.0
 40
0.0
 40
0.2499999999999995
 40
0.2499999999999995
 40
0.3749999999999996
 40
0.3749999999999996
 40
0.4999999999999997
 40
0.4999999999999997
 40
0.6249999999999998
 40
0.6249999999999998
 40
0.7499999999999998
 40
0.7499999999999998
 40
0.8749999999999999
 40
0.8749999999999999
 40
1.0
 40
1.0
 40
1.0
 40
1.0
 10
246.3258498579793
 20
66.38529977506832
 30
0.0
 10
246.6448385123772
 20
66.25140938580853
 30
0.0
 10
246.9712941124752
 20
66.09151303874653
 30
0.0
 10
247.4836442298583
 20
65.813594111277
 30
0.0
 10
247.6582475965362
 20
65.71459509846672
 30
0.0
 10
248.018121458885
 20
65.50365439356801
 30
0.0
 10
248.2009818752385
 20
65.39309857635797
 30
0.0
 10
248.5672769644158
 20
65.16768070734713
 30
0.0
 10
248.7517604806744
 20
65.05220010596769
 30
0.0
 10
249.1253453049099
 20
64.8173677616719
 30
0.0
 10
249.3096947761492
 20
64.70103783639665
 30
0.0
 10
249.6704046826256
 20
64.47534314959726
 30
0.0
 10
249.8474586718794
 20
64.36553317550059
 30
0.0
 10
250.1951880232318
 20
64.15413841196468
 30
0.0
 10
250.3604384396901
 20
64.05587557682166
 30
0.0
 10
250.5169813544715
 20
63.9655052757043
 30
0.0
  0
SPLINE
  5
1D1
330
1F
100
AcDbEntity
  8
0
  6
Continuous
 62
     7
370
    25
100
AcDbSpline
210
0.0
220
0.0
230
1.0
 70
    11
 71
     3
 72
    70
 73
    66
 74
     0
 42
0.000000001
 43
0.00000001
 40
0.0
 40
0.0
 40
0.0
 40
0.0
 40
0.03125
 40
0.03125
 40
0.0625
 40
0.0625
 40
0.09375
 40
0.09375
 40
0.125
 40
0.125
 40
0.15625
 40
0.15625
 40
0.1874999999999999
 40
0.1874999999999999
 40
0.2187499999999999
 40
0.2187499999999999
 40
0.2499999999999999
 40
0.2499999999999999
 40
0.2812499999999999
 40
0.2812499999999999
 40
0.3124999999999999
 40
0.3124999999999999
 40
0.3437499999999999
 40
0.3437499999999999
 40
0.3749999999999999
 40
0.3749999999999999
 40
0.4062499999999999
 40
0.4062499999999999
 40
0.4374999999999999
 40
0.4374999999999999
 40
0.4687499999999999
 40
0.4687499999999999
 40
0.4999999999999999
 40
0.4999999999999999
 40
0.5312500000000001
 40
0.5312500000000001
 40
0.5625000000000003
 40
0.5625000000000003
 40
0.5937500000000006
 40
0.5937500000000006
 40
0.6250000000000008
 40
0.6250000000000008
 40
0.656250000000001
 40
0.656250000000001
 40
0.6875000000000012
 40
0.6875000000000012
 40
0.7187500000000011
 40
0.7187500000000011
 40
0.7500000000000009
 40
0.7500000000000009
 40
0.7812500000000008
 40
0.7812500000000008
 40
0.8125000000000007
 40
0.8125000000000007
 40
0.8437500000000006
 40
0.8437500000000006
 40
0.8750000000000004
 40
0.8750000000000004
 40
0.9062500000000003
 40
0.9062500000000003
 40
0.9375000000000002
 40
0.9375000000000002
 40
0.9687500000000001
 40
0.9687500000000001
 40
1.0
 40
1.0
 40
1.0
 40
1.0
 10
244.1412105367272
 20
66.00079970474253
 30
0.0
 10
244.0476796352782
 20
66.05479394484928
 30
0.0
 10
243.9644555102751
 20
66.10931666022374
 30
0.0
 10
243.8176944347778
 20
66.2192047245373
 30
0.0
 10
243.7536325516998
 20
66.27517995847647
 30
0.0
 10
243.649500461979
 20
66.38414699288172
 30
0.0
 10
243.6092730039363
 20
66.4369986913407
 30
0.0
 10
243.5520021268264
 20
66.53875674349244
 30
0.0
 10
243.5351989028093
 20
66.58782761709547
 30
0.0
 10
243.5263550158993
 20
66.67693029290336
 30
0.0
 10
243.5338791487221
 20
66.71754055844275
 30
0.0
 10
243.5731655294775
 20
66.78982000434036
 30
0.0
 10
243.6047717953843
 20
66.82078353567796
 30
0.0
 10
243.6895553540889
 20
66.8705340679181
 30
0.0
 10
243.7433684433341
 20
66.88968262429225
 30
0.0
 10
243.8717497125783
 20
66.91471968605863
 30
0.0
 10
243.9450800573492
 20
66.9205017653014
 30
0.0
 10
244.1095202582095
 20
66.91875258486968
 30
0.0
 10
244.2017624761148
 20
66.91099154111676
 30
0.0
 10
244.3975042814788
 20
66.88254103427616
 30
0.0
 10
244.5013156614594
 20
66.86198912860725
 30
0.0
 10
244.7210816404887
 20
66.80862296304458
 30
0.0
 10
244.8367113567947
 20
66.77577060131159
 30
0.0
 10
245.0705474269391
 20
66.70121780410004
 30
0.0
 10
245.1900623642971
 20
66.65919916883942
 30
0.0
 10
245.4341232971931
 20
66.56641227260491
 30
0.0
 10
245.5548688393366
 20
66.51710526352946
 30
0.0
 10
245.7942370374621
 20
66.41371258947282
 30
0.0
 10
245.9141439783069
 20
66.35899297284504
 30
0.0
 10
246.1447813087901
 20
66.24864257688317
 30
0.0
 10
246.2552902605021
 20
66.19319617538663
 30
0.0
 10
246.4669314685406
 20
66.08224919642782
 30
0.0
 10
246.5684599771999
 20
66.0264605124398
 30
0.0
 10
246.7531910119656
 20
65.91983878947379
 30
0.0
 10
246.8376025806063
 20
65.86839991937413
 30
0.0
 10
246.9900581474459
 20
65.76918370603205
 30
0.0
 10
247.0566534136153
 20
65.72228965088287
 30
0.0
 10
247.1679204138283
 20
65.63544910805638
 30
0.0
 10
247.2134289466762
 20
65.5948375560047
 30
0.0
 10
247.2809941295554
 20
65.5207941790766
 30
0.0
 10
247.3027628211259
 20
65.487828790557
 30
0.0
 10
247.3225434105163
 20
65.42895838750479
 30
0.0
 10
247.3202554221988
 20
65.40288285450033
 30
0.0
 10
247.2911282063267
 20
65.35914392204556
 30
0.0
 10
247.264594024805
 20
65.34121405194811
 30
0.0
 10
247.1870332139245
 20
65.31260096945911
 30
0.0
 10
247.1358466468539
 20
65.30207407806441
 30
0.0
 10
247.0129297812339
 20
65.28881182931808
 30
0.0
 10
246.9407953218096
 20
65.2859014646808
 30
0.0
 10
246.7743284048746
 20
65.28768051459551
 30
0.0
 10
246.682765208515
 20
65.29233782146201
 30
0.0
 10
246.483719134131
 20
65.30904195294023
 30
0.0
 10
246.3749201398734
 20
65.3212868798407
 30
0.0
 10
246.1476984987769
 20
65.35313678857996
 30
0.0
 10
246.0297057364186
 20
65.37260434774149
 30
0.0
 10
245.7852427294536
 20
65.4192851858565
 30
0.0
 10
245.658148239977
 20
65.4467220048405
 30
0.0
 10
245.4064200197656
 20
65.50800964059036
 30
0.0
 10
245.2804846402156
 20
65.54207148372163
 30
0.0
 10
245.0287163438241
 20
65.6181128406835
 30
0.0
 10
244.9052327159463
 20
65.65944875314072
 30
0.0
 10
244.6683743006448
 20
65.74754472973027
 30
0.0
 10
244.5534075580408
 20
65.79489917401557
 30
0.0
 10
244.33592925004
 20
65.89487099765073
 30
0.0
 10
244.2347414381761
 20
65.94680546463577
 30
0.0
 10
244.1412105367271
 20
66.00079970474252
 30
0.0
  0
LINE
  5
1D2
330
1F
100
AcDbEntity
  8
0
  6
Continuous
 62
     7
370
    25
100
AcDbLine
 10
234.6590611184
 20
47.3622292293
 30
0.0
 11
234.1954332724
 21
47.6298758877
 31
0.0
  0
LINE
  5
1D3
330
1F
100
AcDbEntity
  8
0
  6
Continuous
 62
     7
370
    25
100
AcDbLine
 10
233.7696151009
 20
48.2780208752
 30
0.0
 11
233.5244462245
 21
48.1364878955
 31
0.0
  0
SPLINE
  5
1D4
330
1F
100
AcDbEntity
  8
0
  6
Continuous
 62
     7
370
    25
100
AcDbSpline
210
0.0
220
0.0
230
1.0
 70
     8
 71
     3
 72
    14
 73
    10
 74
     0
 42
0.000000001
 43
0.00000001
 40
0.0
 40
0.0
 40
0.0
 40
0.0
 40
0.1249999999999996
 40
0.1249999999999996
 40
0.2499999999999992
 40
0.2499999999999992
 40
0.4999999999999984
 40
0.4999999999999984
 40
1.0
 40
1.0
 40
1.0
 40
1.0
 10
234.195433026724
 20
47.62987595554215
 30
0.0
 10
234.1712365935589
 20
47.6438442590847
 30
0.0
 10
234.1480611551
 20
47.67120943508224
 30
0.0
 10
234.111140762669
 20
47.72901120420777
 30
0.0
 10
234.0960989716364
 20
47.75998168332413
 30
0.0
 10
234.0562855150495
 20
47.85300815625335
 30
0.0
 10
234.0366494966654
 20
47.91561921053811
 30
0.0
 10
233.9862286481959
 20
48.09994996145309
 30
0.0
 10
233.9638114699555
 20
48.22149419635377
 30
0.0
 10
233.9471235717895
 20
48.34062326165614
 30
0.0
  0
SPLINE
  5
1D5
330
1F
100
AcDbEntity
  8
0
  6
Continuous
 62
     7
370
    25
100
AcDbSpline
210
0.0
220
0.0
230
1.0
 70
     8
 71
     3
 72
    10
 73
     6
 74
     0
 42
0.000000001
 43
0.00000001
 40
0.0
 40
0.0
 40
0.0
 40
0.0
 40
0.5
 40
0.5
 40
1.0
 40
1.0
 40
1.0
 40
1.0
 10
233.9471235717895
 20
48.34062326165615
 30
0.0
 10
233.9137335536017
 20
48.33447349245591
 30
0.0
 10
233.8814942021736
 20
48.32592688460783
 30
0.0
 10
233.8215063079113
 20
48.30469091083891
 30
0.0
 10
233.7942444346622
 20
48.29223926483073
 30
0.0
 10
233.7696148687124
 20
48.27802091905387
 30
0.0
  0
LWPOLYLINE
  5
1D6
330
1F
100
AcDbEntity
  8
0
  6
Continuous
 62
     7
370
    25
100
AcDbPolyline
 90
       21
 70
   128
 43
0.0
 10
226.526860284
 20
46.9904373018
 10
226.5700259009
 20
48.1411452609
 10
226.6991849181
 20
49.3326854304
 10
226.9133271285
 20
50.5557324436
 10
227.2107765362
 20
51.8007146065
 10
227.5892045279
 20
53.0578877561
 10
228.045649629
 20
54.3174133014
 10
228.5765392353
 20
55.5694329369
 10
229.1777192483
 20
56.8041484878
 10
229.8444843674
 20
58.0118968136
 10
230.5716156273
 20
59.1832247095
 10
231.3534232036
 20
60.3089660897
 10
232.1837875713
 20
61.3803106153
 10
233.0562102134
 20
62.3888717507
 10
233.9638633402
 20
63.3267580529
 10
234.8996433969
 20
64.1866283944
 10
235.8562265453
 20
64.961753651
 10
236.8261261222
 20
65.6460673621
 10
237.8017515378
 20
66.2342126602
 10
238.775467092
 20
66.7215883917
 10
239.6564583859
 20
67.0753534815
  0
LINE
  5
1D7
330
1F
100
AcDbEntity
  8
0
  6
Continuous
 62
     7
370
    25
100
AcDbLine
 10
232.8024328432
 20
41.652572063
 30
0.0
 11
233.9471237973
 21
40.991756041
 31
0.0
  0
ARC
  5
1D8
330
1F
100
AcDbEntity
  8
0
  6
Continuous
 62
     7
370
    25
100
AcDbCircle
 10
236.0888966912
 20
46.8159993479
 30
0.0
 40
6.120606665202602
100
AcDbArc
 50
182.4763014998
 51
237.5237020156
  0
LINE
  5
1D9
330
1F
100
AcDbEntity
  8
0
  6
Continuous
 62
     7
370
    25
100
AcDbLine
 10
229.9740055841
 20
47.3680922848
 30
0.0
 11
229.9740055841
 21
46.5515514342
 31
0.0
  0
ARC
  5
1DA
330
1F
100
AcDbEntity
  8
0
  6
Continuous
 62
     7
370
    25
100
AcDbCircle
 10
232.5711342156
 20
47.4516280853
 30
0.0
 40
2.598471735188661
100
AcDbArc
 50
154.6817141721
 51
181.842265034
  0
LINE
  5
1DB
330
1F
100
AcDbEntity
  8
0
  6
Continuous
 62
     7
370
    25
100
AcDbLine
 10
237.3986266865
 20
38.9992458349
 30
0.0
 11
237.3986266865
 21
40.3627101711
 31
0.0
  0
LINE
  5
1DC
330
1F
100
AcDbEntity
  8
0
  6
Continuous
 62
     7
370
    25
100
AcDbLine
 10
235.228630995
 20
40.2519576829
 30
0.0
 11
237.3986266865
 21
38.9992458349
 31
0.0
  0
SPLINE
  5
1DD
330
1F
100
AcDbEntity
  8
0
  6
Continuous
 62
     7
370
    25
100
AcDbSpline
210
0.0
220
0.0
230
1.0
 70
     8
 71
     3
 72
    14
 73
    10
 74
     0
 42
0.000000001
 43
0.00000001
 40
0.0
 40
0.0
 40
0.0
 40
0.0
 40
0.1249999999999983
 40
0.1249999999999983
 40
0.2499999999999966
 40
0.2499999999999966
 40
0.4999999999999968
 40
0.4999999999999968
 40
1.0
 40
1.0
 40
1.0
 40
1.0
 10
234.9803215538411
 20
40.96270476448025
 30
0.0
 10
235.0047509024849
 20
40.94860200169393
 30
0.0
 10
235.027729456551
 20
40.92131987183426
 30
0.0
 10
235.0646125700427
 20
40.86356646832776
 30
0.0
 10
235.0797377163596
 20
40.83241888665717
 30
0.0
 10
235.1194550768188
 20
40.73958178510117
 30
0.0
 10
235.1389171947079
 20
40.67763131528442
 30
0.0
 10
235.1897853159019
 20
40.49171660978692
 30
0.0
 10
235.2120695433171
 20
40.37018396481363
 30
0.0
 10
235.2286310087756
 20
40.25195745836609
 30
0.0
  0
LINE
  5
1DE
330
1F
100
AcDbEntity
  8
0
  6
Continuous
 62
     7
370
    25
100
AcDbLine
 10
234.1954332724
 20
41.4158111674
 30
0.0
 11
234.9803215199
 21
40.9627048268
 31
0.0
  0
SPLINE
  5
1DF
330
1F
100
AcDbEntity
  8
0
  6
Continuous
 62
     7
370
    25
100
AcDbSpline
210
0.0
220
0.0
230
1.0
 70
     8
 71
     3
 72
    14
 73
    10
 74
     0
 42
0.000000001
 43
0.00000001
 40
0.0
 40
0.0
 40
0.0
 40
0.0
 40
0.5000000000000032
 40
0.5000000000000032
 40
0.7500000000000032
 40
0.7500000000000032
 40
0.8750000000000017
 40
0.8750000000000017
 40
1.0
 40
1.0
 40
1.0
 40
1.0
 10
233.9471235717895
 20
40.99175595468415
 30
0.0
 10
233.9637476532432
 20
41.09123569891426
 30
0.0
 10
233.9861650548475
 20
41.18707083231025
 30
0.0
 10
234.0365961126962
 20
41.3132867818839
 30
0.0
 10
234.0561308066275
 20
41.35312033057814
 30
0.0
 10
234.0960739639629
 20
41.40038066205
 30
0.0
 10
234.1110909311285
 20
41.41398327565526
 30
0.0
 10
234.1481522986502
 20
41.42920367723097
 30
0.0
 10
234.1711359609986
 20
41.42983766402486
 30
0.0
 10
234.195433026724
 20
41.41581126654184
 30
0.0
  0
LINE
  5
1E0
330
1F
100
AcDbEntity
  8
0
  6
Continuous
 62
     7
370
    25
100
AcDbLine
 10
236.281299903
 20
38.3542268124
 30
0.0
 11
237.3986266865
 21
38.9992458349
 31
0.0
  0
ARC
  5
1E1
330
1F
100
AcDbEntity
  8
0
  6
Continuous
 62
     7
370
    25
100
AcDbCircle
 10
241.4444770469
 20
39.3941470861
 30
0.0
 40
5.586711474110624
100
AcDbArc
 50
209.4830369262
 51
258.1705415547
  0
SPLINE
  5
1E2
330
1F
100
AcDbEntity
  8
0
  6
Continuous
 62
     7
370
    25
100
AcDbSpline
210
0.0
220
0.0
230
1.0
 70
     8
 71
     3
 72
    12
 73
     8
 74
     0
 42
0.000000001
 43
0.00000001
 40
0.0
 40
0.0
 40
0.0
 40
0.0
 40
0.2499999999999999
 40
0.2499999999999999
 40
0.4999999999999998
 40
0.4999999999999998
 40
1.0
 40
1.0
 40
1.0
 40
1.0
 10
235.8476171197373
 20
38.34878921954572
 30
0.0
 10
235.8758593198096
 20
38.3324853444817
 30
0.0
 10
235.910405451715
 20
38.3195295510717
 30
0.0
 10
235.9851295114127
 20
38.30281781287917
 30
0.0
 10
236.0254199027144
 20
38.29893090409171
 30
0.0
 10
236.1465329201507
 20
38.30119430198101
 30
0.0
 10
236.2246504825686
 20
38.32152351340775
 30
0.0
 10
236.2812999553042
 20
38.35422655791411
 30
0.0
  0
ARC
  5
1E3
330
1F
100
AcDbEntity
  8
0
  6
Continuous
 62
     7
370
    25
100
AcDbCircle
 10
240.5889991011
 20
40.7418099106
 30
0.0
 40
6.342068032718605
100
AcDbArc
 50
194.4742818894
 51
238.1951738406
  0
LINE
  5
1E4
330
1F
100
AcDbEntity
  8
0
  6
Continuous
 62
     7
370
    25
100
AcDbLine
 10
234.4482287527
 20
39.1566391123
 30
0.0
 11
235.8476173929
 21
38.3487892459
 31
0.0
  0
SPLINE
  5
1E5
330
1F
100
AcDbEntity
  8
0
  6
Continuous
 62
     7
370
    25
100
AcDbSpline
210
0.0
220
0.0
230
1.0
 70
     8
 71
     3
 72
     8
 73
     4
 74
     0
 42
0.000000001
 43
0.00000001
 40
0.0
 40
0.0
 40
0.0
 40
0.0
 40
1.0
 40
1.0
 40
1.0
 40
1.0
 10
234.8750202164126
 20
40.0079510426017
 30
0.0
 10
234.731855519722
 20
39.7243289955947
 30
0.0
 10
234.5896668228695
 20
39.44054584961067
 30
0.0
 10
234.4482290521143
 20
39.15663875542359
 30
0.0
  0
LINE
  5
1E6
330
1F
100
AcDbEntity
  8
0
  6
Continuous
 62
     7
370
    25
100
AcDbLine
 10
235.1201891294
 20
40.1494840936
 30
0.0
 11
234.8750202531
 21
40.0079511139
 31
0.0
  0
SPLINE
  5
1E7
330
1F
100
AcDbEntity
  8
0
  6
Continuous
 62
     7
370
    25
100
AcDbSpline
210
0.0
220
0.0
230
1.0
 70
     8
 71
     3
 72
    10
 73
     6
 74
     0
 42
0.000000001
 43
0.00000001
 40
0.0
 40
0.0
 40
0.0
 40
0.0
 40
0.5
 40
0.5
 40
1.0
 40
1.0
 40
1.0
 40
1.0
 10
235.2286310087756
 20
40.25195745836609
 30
0.0
 10
235.2179781418056
 20
40.23268181115997
 30
0.0
 10
235.2031733786535
 20
40.21407042973492
 30
0.0
 10
235.1663876073226
 20
40.17944015550341
 30
0.0
 10
235.1448183867286
 20
40.16370221106832
 30
0.0
 10
235.1201888207788
 20
40.14948386529147
 30
0.0
  0
SPLINE
  5
1E8
330
1F
100
AcDbEntity
  8
0
  6
Continuous
 62
     7
370
    25
100
AcDbSpline
210
0.0
220
0.0
230
1.0
 70
     8
 71
     3
 72
    14
 73
    10
 74
     0
 42
0.000000001
 43
0.00000001
 40
0.0
 40
0.0
 40
0.0
 40
0.0
 40
0.5000000000000002
 40
0.5000000000000002
 40
0.7499999999999993
 40
0.7499999999999993
 40
0.8749999999999997
 40
0.8749999999999997
 40
1.0
 40
1.0
 40
1.0
 40
1.0
 10
219.3073217520969
 20
51.64701680550289
 30
0.0
 10
219.6224876959368
 20
51.41992881460703
 30
0.0
 10
219.9387633512027
 20
51.19008243955889
 30
0.0
 10
220.4175878397738
 20
50.83477383756978
 30
0.0
 10
220.5779078501978
 20
50.71463552337424
 30
0.0
 10
220.8209603861515
 20
50.52836668913042
 30
0.0
 10
220.9024038241681
 20
50.46527344790341
 30
0.0
 10
221.0670652732015
 20
50.33492820549127
 30
0.0
 10
221.1499712912677
 20
50.26840376351402
 30
0.0
 10
221.2359901193524
 20
50.19461029219047
 30
0.0
  0
SPLINE
  5
1E9
330
1F
100
AcDbEntity
  8
0
  6
Continuous
 62
     7
370
    25
100
AcDbSpline
210
0.0
220
0.0
230
1.0
 70
     8
 71
     3
 72
     8
 73
     4
 74
     0
 42
0.000000001
 43
0.00000001
 40
0.0
 40
0.0
 40
0.0
 40
0.0
 40
1.0
 40
1.0
 40
1.0
 40
1.0
 10
221.2359901193524
 20
50.19461029219047
 30
0.0
 10
221.5376425925899
 20
49.93582993410864
 30
0.0
 10
221.8429221361133
 20
49.68825491870398
 30
0.0
 10
222.14758170924
 20
49.44728206213745
 30
0.0
  0
SPLINE
  5
1EA
330
1F
100
AcDbEntity
  8
0
  6
Continuous
 62
     7
370
    25
100
AcDbSpline
210
0.0
220
0.0
230
1.0
 70
     8
 71
     3
 72
    14
 73
    10
 74
     0
 42
0.000000001
 43
0.00000001
 40
0.0
 40
0.0
 40
0.0
 40
0.0
 40
0.1250000000000007
 40
0.1250000000000007
 40
0.2500000000000015
 40
0.2500000000000015
 40
0.4999999999999998
 40
0.4999999999999998
 40
1.0
 40
1.0
 40
1.0
 40
1.0
 10
222.14758170924
 20
49.4472820621374
 30
0.0
 10
222.1667770851656
 20
49.4320993304012
 30
0.0
 10
222.184389158566
 20
49.42073151190441
 30
0.0
 10
222.2102340884852
 20
49.40946304269197
 30
0.0
 10
222.2183724527329
 20
49.40907957245493
 30
0.0
 10
222.235322543701
 20
49.41485536514931
 30
0.0
 10
222.2374918162107
 20
49.42752079076735
 30
0.0
 10
222.2363162683961
 20
49.47195761781111
 30
0.0
 10
222.2242427477919
 20
49.51244088858456
 30
0.0
 10
222.2094645197519
 20
49.55644455846705
 30
0.0
  0
SPLINE
  5
1EB
330
1F
100
AcDbEntity
  8
0
  6
Continuous
 62
     7
370
    25
100
AcDbSpline
210
0.0
220
0.0
230
1.0
 70
     8
 71
     3
 72
    14
 73
    10
 74
     0
 42
0.000000001
 43
0.00000001
 40
0.0
 40
0.0
 40
0.0
 40
0.0
 40
0.25
 40
0.25
 40
0.5
 40
0.5
 40
0.75
 40
0.75
 40
1.0
 40
1.0
 40
1.0
 40
1.0
 10
222.2094645197512
 20
49.55644455846775
 30
0.0
 10
222.1914082728046
 20
49.61020886145452
 30
0.0
 10
222.1884854747034
 20
49.65475947055157
 30
0.0
 10
222.1830717461601
 20
49.74702082039629
 30
0.0
 10
222.181504468119
 20
49.79431522331654
 30
0.0
 10
222.1713660683118
 20
49.89907627814432
 30
0.0
 10
222.1630510705677
 20
49.95633748517933
 30
0.0
 10
222.1342508959088
 20
50.08595884255375
 30
0.0
 10
222.1135974992382
 20
50.1587530421668
 30
0.0
 10
222.0849079820772
 20
50.23843974112656
 30
0.0
  0
ARC
  5
1EC
330
1F
100
AcDbEntity
  8
0
  6
Continuous
 62
     7
370
    25
100
AcDbCircle
 10
232.4398783104
 20
53.3250012078
 30
0.0
 40
10.80519673566391
100
AcDbArc
 50
163.4019784234
 51
196.5980215766
  0
SPLINE
  5
1ED
330
1F
100
AcDbEntity
  8
0
  6
Continuous
 62
     7
370
    25
100
AcDbSpline
210
0.0
220
0.0
230
1.0
 70
     8
 71
     3
 72
    14
 73
    10
 74
     0
 42
0.000000001
 43
0.00000001
 40
0.0
 40
0.0
 40
0.0
 40
0.0
 40
0.25
 40
0.25
 40
0.5
 40
0.5
 40
0.75
 40
0.75
 40
1.0
 40
1.0
 40
1.0
 40
1.0
 10
222.2094645197512
 20
57.87276775339075
 30
0.0
 10
222.1914082728046
 20
57.75192567444618
 30
0.0
 10
222.1884854747034
 20
57.62683140788008
 30
0.0
 10
222.1830717461601
 20
57.37888009722872
 30
0.0
 10
222.181504468119
 20
57.25497147291496
 30
0.0
 10
222.1713660683118
 20
57.00881573367476
 30
0.0
 10
222.1630510705677
 20
56.88652779181334
 30
0.0
 10
222.1342508959088
 20
56.64453061460456
 30
0.0
 10
222.1135974992382
 20
56.52437364742497
 30
0.0
 10
222.0849079820772
 20
56.41156273701969
 30
0.0
  0
SPLINE
  5
1EE
330
1F
100
AcDbEntity
  8
0
  6
Continuous
 62
     7
370
    25
100
AcDbSpline
210
0.0
220
0.0
230
1.0
 70
     8
 71
     3
 72
    14
 73
    10
 74
     0
 42
0.000000001
 43
0.00000001
 40
0.0
 40
0.0
 40
0.0
 40
0.0
 40
0.1250000000000015
 40
0.1250000000000015
 40
0.2500000000000031
 40
0.2500000000000031
 40
0.4999999999999997
 40
0.4999999999999997
 40
1.0
 40
1.0
 40
1.0
 40
1.0
 10
222.1475817092401
 20
58.41805331768477
 30
0.0
 10
222.1667770851656
 20
58.41576650971094
 30
0.0
 10
222.1843891585661
 20
58.40426827043811
 30
0.0
 10
222.2102340884853
 20
58.3675767679116
 30
0.0
 10
222.2183724527329
 20
58.34449535280952
 30
0.0
 10
222.235322543701
 20
58.27316283373243
 30
0.0
 10
222.2374918162107
 20
58.22191872812435
 30
0.0
 10
222.2363162683961
 20
58.07188324836277
 30
0.0
 10
222.2242427477919
 20
57.97167157347969
 30
0.0
 10
222.2094645197519
 20
57.87276775339107
 30
0.0
  0
SPLINE
  5
1EF
330
1F
100
AcDbEntity
  8
0
  6
Continuous
 62
     7
370
    25
100
AcDbSpline
210
0.0
220
0.0
230
1.0
 70
     8
 71
     3
 72
     8
 73
     4
 74
     0
 42
0.000000001
 43
0.00000001
 40
0.0
 40
0.0
 40
0.0
 40
0.0
 40
1.0
 40
1.0
 40
1.0
 40
1.0
 10
221.2359901193524
 20
58.47026612882085
 30
0.0
 10
221.5376425925899
 20
58.47761237596396
 30
0.0
 10
221.8429221361134
 20
58.45434840999401
 30
0.0
 10
222.1475817092401
 20
58.41805331768477
 30
0.0
  0
SPLINE
  5
1F0
330
1F
100
AcDbEntity
  8
0
  6
Continuous
 62
     7
370
    25
100
AcDbSpline
210
0.0
220
0.0
230
1.0
 70
     8
 71
     3
 72
    14
 73
    10
 74
     0
 42
0.000000001
 43
0.00000001
 40
0.0
 40
0.0
 40
0.0
 40
0.0
 40
0.5000000000000002
 40
0.5000000000000002
 40
0.7499999999999993
 40
0.7499999999999993
 40
0.8749999999999997
 40
0.8749999999999997
 40
1.0
 40
1.0
 40
1.0
 40
1.0
 10
219.3073217520969
 20
59.10290547380583
 30
0.0
 10
219.6224876959368
 20
58.96552098007971
 30
0.0
 10
219.9387633512027
 20
58.83394747244856
 30
0.0
 10
220.4175878397738
 20
58.6590520059278
 30
0.0
 10
220.5779078501978
 20
58.60438085566327
 30
0.0
 10
220.8209603861515
 20
58.53534903994322
 30
0.0
 10
220.9024038241681
 20
58.51448675543443
 30
0.0
 10
221.0670652732015
 20
58.4816790420048
 30
0.0
 10
221.1499712912677
 20
58.46817128251215
 30
0.0
 10
221.2359901193524
 20
58.47026612882084
 30
0.0
  0
SPLINE
  5
1F1
330
1F
100
AcDbEntity
  8
0
  6
Continuous
 62
     7
370
    25
100
AcDbSpline
210
0.0
220
0.0
230
1.0
 70
     8
 71
     3
 72
     8
 73
     4
 74
     0
 42
0.000000001
 43
0.00000001
 40
0.0000005163856712
 40
0.0000005163856712
 40
0.0000005163856712
 40
0.0000005163856712
 40
0.000026289209185
 40
0.000026289209185
 40
0.000026289209185
 40
0.000026289209185
 10
219.3073001650776
 20
59.1157845850113
 30
0.0
 10
219.3072978639183
 20
59.11149174998001
 30
0.0
 10
219.3073051102427
 20
59.10719868229972
 30
0.0
 10
219.3073217520969
 20
59.10290547380584
 30
0.0
  0
LINE
  5
1F2
330
1F
100
AcDbEntity
  8
0
  6
Continuous
 62
     7
370
    25
100
AcDbLine
 10
232.1091385879
 20
69.641355248
 30
0.0
 11
232.1714757525
 21
69.6110012259
 31
0.0
  0
SPLINE
  5
1F3
330
1F
100
AcDbEntity
  8
0
  6
Continuous
 62
     7
370
    25
100
AcDbSpline
210
0.0
220
0.0
230
1.0
 70
     8
 71
     3
 72
     8
 73
     4
 74
     0
 42
0.000000001
 43
0.00000001
 40
0.0000005163856716
 40
0.0000005163856716
 40
0.0000005163856716
 40
0.0000005163856716
 40
0.0000262892091854
 40
0.0000262892091854
 40
0.0000262892091854
 40
0.0000262892091854
 10
219.3073001650776
 20
51.64231353313201
 30
0.0
 10
219.3072978639183
 20
51.64388691883148
 30
0.0
 10
219.3073051102427
 20
51.64545464876539
 30
0.0
 10
219.3073217520969
 20
51.6470168055029
 30
0.0
  0
SPLINE
  5
1F4
330
1F
100
AcDbEntity
  8
0
  6
Continuous
 62
     7
370
    25
100
AcDbSpline
210
0.0
220
0.0
230
1.0
 70
     8
 71
     3
 72
    18
 73
    14
 74
     0
 42
0.000000001
 43
0.00000001
 40
0.0
 40
0.0
 40
0.0
 40
0.0
 40
0.1239878930269469
 40
0.2486528902138535
 40
0.3732951214698361
 40
0.4972281463499507
 40
0.6201038920158508
 40
0.6819116406039509
 40
0.7429197231175708
 40
0.8038403314279218
 40
0.8660396422866957
 40
0.989351287161044
 40
1.0
 40
1.0
 40
1.0
 40
1.0
 10
224.9961687348741
 20
49.76934243681001
 30
0.0
 10
224.8631218563569
 20
50.01427718890906
 30
0.0
 10
224.5963015235842
 20
50.50548429418674
 30
0.0
 10
224.4716061792034
 20
51.25750537162276
 30
0.0
 10
224.6074325259472
 20
51.88219232073263
 30
0.0
 10
224.9745091550275
 20
52.29905784340237
 30
0.0
 10
225.417146771167
 20
52.3930402719899
 30
0.0
 10
225.793376579844
 20
52.31109836225938
 30
0.0
 10
226.0755867096025
 20
52.16881824699635
 30
0.0
 10
226.3480168577011
 20
51.95214889451709
 30
0.0
 10
226.6740184904188
 20
51.57426066906841
 30
0.0
 10
226.9252489755679
 20
51.200655421314
 30
0.0
 10
227.0148197677201
 20
50.91538795875024
 30
0.0
 10
227.0219398863931
 20
50.89271161372555
 30
0.0
  0
SPLINE
  5
1F5
330
1F
100
AcDbEntity
  8
0
  6
Continuous
 62
     7
370
    25
100
AcDbSpline
210
0.0
220
0.0
230
1.0
 70
     8
 71
     3
 72
    13
 73
     9
 74
     0
 42
0.000000001
 43
0.00000001
 40
0.0
 40
0.0
 40
0.0
 40
0.0
 40
0.0383556769645681
 40
0.1999629962308162
 40
0.3589063524001677
 40
0.5179683694360943
 40
0.6793264896454231
 40
1.0
 40
1.0
 40
1.0
 40
1.0
 10
226.6330504212746
 20
48.43983897416256
 30
0.0
 10
226.6170877877183
 20
48.43684069004737
 30
0.0
 10
226.5338683978843
 20
48.4212094739492
 30
0.0
 10
226.3350040519614
 20
48.50695908273937
 30
0.0
 10
226.067915505806
 20
48.64285444744083
 30
0.0
 10
225.7848101538512
 20
48.8540982537812
 30
0.0
 10
225.4051741615631
 20
49.20203577715471
 30
0.0
 10
225.1595627375341
 20
49.54270851019651
 30
0.0
 10
224.9961687348741
 20
49.76934243681001
 30
0.0
  0
ARC
  5
1F6
330
1F
100
AcDbEntity
  8
0
  6
Continuous
 62
     7
370
    25
100
AcDbCircle
 10
239.7659913952
 20
42.8183609431
 30
0.0
 40
6.563595906303851
100
AcDbArc
 50
198.0227400511
 51
217.4462887124
  0
SPLINE
  5
1F7
330
1F
100
AcDbEntity
  8
0
  6
Continuous
 62
     7
370
    25
100
AcDbSpline
210
0.0
220
0.0
230
1.0
 70
     8
 71
     3
 72
     8
 73
     4
 74
     0
 42
0.000000001
 43
0.00000001
 40
0.0
 40
0.0
 40
0.0
 40
0.0
 40
1.0
 40
1.0
 40
1.0
 40
1.0
 10
232.0497703456391
 20
40.54123949461631
 30
0.0
 10
232.5415651443911
 20
40.62288978169806
 30
0.0
 10
233.0331452352937
 20
40.7049735691885
 30
0.0
 10
233.5244462643463
 20
40.78762078939239
 30
0.0
  0
SPLINE
  5
1F8
330
1F
100
AcDbEntity
  8
0
  6
Continuous
 62
     7
370
    25
100
AcDbSpline
210
0.0
220
0.0
230
1.0
 70
     8
 71
     3
 72
    10
 73
     6
 74
     0
 42
0.000000001
 43
0.00000001
 40
0.0
 40
0.0
 40
0.0
 40
0.0
 40
0.5
 40
0.5
 40
1.0
 40
1.0
 40
1.0
 40
1.0
 10
233.7696148687125
 20
40.92915361208216
 30
0.0
 10
233.7944471720644
 20
40.94348899567
 30
0.0
 10
233.8221221695578
 20
40.9560844358061
 30
0.0
 10
233.8822471790123
 20
40.97728233394637
 30
0.0
 10
233.9139415792071
 20
40.98564449961302
 30
0.0
 10
233.9471235717887
 20
40.99175595468427
 30
0.0
  0
LINE
  5
1F9
330
1F
100
AcDbEntity
  8
0
  6
Continuous
 62
     7
370
    25
100
AcDbLine
 10
233.5244462245
 20
40.7876209049
 30
0.0
 11
233.7696151009
 21
40.9291538846
 31
0.0
  0
SPLINE
  5
1FA
330
1F
100
AcDbEntity
  8
0
  6
Continuous
 62
     7
370
    25
100
AcDbSpline
210
0.0
220
0.0
230
1.0
 70
     8
 71
     3
 72
    12
 73
     8
 74
     0
 42
0.000000001
 43
0.00000001
 40
0.0
 40
0.0
 40
0.0
 40
0.0
 40
0.0825029315482773
 40
0.3398997308333674
 40
0.5964546516363803
 40
0.85653757373175
 40
1.0
 40
1.0
 40
1.0
 40
1.0
 10
226.0156512802423
 20
52.09083533765921
 30
0.0
 10
226.0019158284644
 20
52.04357967774661
 30
0.0
 10
225.9453278227465
 20
51.84889343104948
 30
0.0
 10
226.0234269689286
 20
51.41476009999554
 30
0.0
 10
226.2468698412353
 20
50.86664463886611
 30
0.0
 10
226.5513323674044
 20
50.40733272247952
 30
0.0
 10
226.7799446565002
 20
50.19110054471334
 30
0.0
 10
226.8612174894083
 20
50.11422890442459
 30
0.0
  0
LINE
  5
1FB
330
1F
100
AcDbEntity
  8
0
  6
Continuous
 62
     7
370
    25
100
AcDbLine
 10
253.6733602601
 20
62.0674712526
 30
0.0
 11
253.7683684763
 21
62.0885197255
 31
0.0
  0
LINE
  5
1FC
330
1F
100
AcDbEntity
  8
0
  6
Continuous
 62
     7
370
    25
100
AcDbLine
 10
253.7683684763
 20
62.0885197255
 30
0.0
 11
255.1677571165
 21
61.2806698591
 31
0.0
  0
SPLINE
  5
1FD
330
1F
100
AcDbEntity
  8
0
  6
Continuous
 62
     7
370
    25
100
AcDbSpline
210
0.0
220
0.0
230
1.0
 70
     8
 71
     3
 72
    12
 73
     8
 74
     0
 42
0.000000001
 43
0.00000001
 40
0.0
 40
0.0
 40
0.0
 40
0.0
 40
0.25
 40
0.25
 40
0.5
 40
0.5
 40
1.0
 40
1.0
 40
1.0
 40
1.0
 10
255.1677568824042
 20
61.28066971176057
 30
0.0
 10
255.2000008532769
 20
61.26205566358696
 30
0.0
 10
255.2220538558105
 20
61.23780534078955
 30
0.0
 10
255.2429027999754
 20
61.18721748290201
 30
0.0
 10
255.2425216307481
 20
61.16037891446795
 30
0.0
 10
255.2167686978509
 20
61.08314479819913
 30
0.0
 10
255.1688172707422
 20
61.0363594273713
 30
0.0
 10
255.1049172216069
 20
60.99947071420384
 30
0.0
  0
SPLINE
  5
1FE
330
1F
100
AcDbEntity
  8
0
  6
Continuous
 62
     7
370
    25
100
AcDbSpline
210
0.0
220
0.0
230
1.0
 70
     8
 71
     3
 72
    12
 73
     8
 74
     0
 42
0.000000001
 43
0.00000001
 40
0.0
 40
0.0
 40
0.0
 40
0.0
 40
0.1944095570927462
 40
0.3737276640094723
 40
0.6863006072756234
 40
0.9659712937886569
 40
1.0
 40
1.0
 40
1.0
 40
1.0
 10
225.2874380316711
 20
49.9522655950713
 30
0.0
 10
225.3669914874235
 20
49.83786603544352
 30
0.0
 10
225.5199228948442
 20
49.61794742227058
 30
0.0
 10
225.8447844501487
 20
49.2639961160889
 30
0.0
 10
226.2292837800537
 20
48.96055740387806
 30
0.0
 10
226.5217218056611
 20
48.79506679885103
 30
0.0
 10
226.6444193652844
 20
48.7784786312241
 30
0.0
 10
226.657729047439
 20
48.77667922103761
 30
0.0
  0
SPLINE
  5
1FF
330
1F
100
AcDbEntity
  8
0
  6
Continuous
 62
     7
370
    25
100
AcDbSpline
210
0.0
220
0.0
230
1.0
 70
     8
 71
     3
 72
    16
 73
    12
 74
     0
 42
0.000000001
 43
0.00000001
 40
0.0
 40
0.0
 40
0.0
 40
0.0
 40
0.1460145305939677
 40
0.2335492376916815
 40
0.3282846220575775
 40
0.4359414424092971
 40
0.5278790444189856
 40
0.6640995040190557
 40
0.8013222617507234
 40
0.8930413283347902
 40
1.0
 40
1.0
 40
1.0
 40
1.0
 10
226.2270453843938
 20
52.03423460245553
 30
0.0
 10
226.0801844978646
 20
52.10770539580808
 30
0.0
 10
225.8452815196742
 20
52.22522142459158
 30
0.0
 10
225.5284315603015
 20
52.21525184584437
 30
0.0
 10
225.2753017665104
 20
52.12751636983105
 30
0.0
 10
225.0665781089005
 20
51.94572385506488
 30
0.0
 10
224.9035477805151
 20
51.6538589520813
 30
0.0
 10
224.8265201486428
 20
51.2439753382906
 30
0.0
 10
224.9019184786266
 20
50.77940585374618
 30
0.0
 10
225.0606621772357
 20
50.33746184062
 30
0.0
 10
225.208076923605
 20
50.08706654619437
 30
0.0
 10
225.2874380316711
 20
49.9522655950713
 30
0.0
  0
SPLINE
  5
200
330
1F
100
AcDbEntity
  8
0
  6
Continuous
 62
     7
370
    25
100
AcDbSpline
210
0.0
220
0.0
230
1.0
 70
     8
 71
     3
 72
     9
 73
     5
 74
     0
 42
0.000000001
 43
0.00000001
 40
0.0
 40
0.0
 40
0.0
 40
0.0
 40
0.9331730927426785
 40
1.0
 40
1.0
 40
1.0
 40
1.0
 10
251.3699101947888
 20
63.47312021937505
 30
0.0
 10
251.3184615029601
 20
63.39446217761925
 30
0.0
 10
251.2633284389778
 20
63.31017123270503
 30
0.0
 10
251.2056744837304
 20
63.22644844899053
 30
0.0
 10
251.20182164821
 20
63.22085351428791
 30
0.0
  0
LINE
  5
201
330
1F
100
AcDbEntity
  8
0
  6
Continuous
 62
     7
370
    25
100
AcDbLine
 10
221.1470771723
 20
53.8219980257
 30
0.0
 11
221.6474603629
 21
53.5331329584
 31
0.0
  0
SPLINE
  5
202
330
1F
100
AcDbEntity
  8
0
  6
Continuous
 62
     7
370
    25
100
AcDbSpline
210
0.0
220
0.0
230
1.0
 70
     8
 71
     3
 72
     9
 73
     5
 74
     0
 42
0.000000001
 43
0.00000001
 40
0.0
 40
0.0
 40
0.0
 40
0.0
 40
0.7009339503679092
 40
0.9999999999999999
 40
0.9999999999999999
 40
0.9999999999999999
 40
0.9999999999999999
 10
219.3212664751821
 20
59.57937661904108
 30
0.0
 10
219.3181945866632
 20
59.63338060339509
 30
0.0
 10
219.3138120217763
 20
59.71042635688678
 30
0.0
 10
219.3382223458528
 20
59.80005909730106
 30
0.0
 10
219.3455226450446
 20
59.82686520689445
 30
0.0
  0
SPLINE
  5
203
330
1F
100
AcDbEntity
  8
0
  6
Continuous
 62
     7
370
    25
100
AcDbSpline
210
0.0
220
0.0
230
1.0
 70
     8
 71
     3
 72
    10
 73
     6
 74
     0
 42
0.000000001
 43
0.00000001
 40
0.0
 40
0.0
 40
0.0
 40
0.0
 40
0.5
 40
0.5
 40
1.0
 40
1.0
 40
1.0
 40
1.0
 10
219.3617591022957
 20
59.63172676411868
 30
0.0
 10
219.3418330517995
 20
59.54776629010296
 30
0.0
 10
219.3285387876588
 20
59.46232042759157
 30
0.0
 10
219.311270261518
 20
59.28990695665909
 30
0.0
 10
219.3073468068958
 20
59.2027953503952
 30
0.0
 10
219.3073001650776
 20
59.1157845850113
 30
0.0
  0
SPLINE
  5
204
330
1F
100
AcDbEntity
  8
0
  6
Continuous
 62
     7
370
    25
100
AcDbSpline
210
0.0
220
0.0
230
1.0
 70
     8
 71
     3
 72
    24
 73
    20
 74
     0
 42
0.000000001
 43
0.00000001
 40
0.0
 40
0.0
 40
0.0
 40
0.0
 40
0.249999999999992
 40
0.249999999999992
 40
0.3749999999999863
 40
0.3749999999999863
 40
0.4374999999999842
 40
0.4374999999999842
 40
0.4687499999999817
 40
0.4687499999999817
 40
0.4999999999999792
 40
0.4999999999999792
 40
0.5624999999999816
 40
0.5624999999999816
 40
0.624999999999984
 40
0.624999999999984
 40
0.7499999999999905
 40
0.7499999999999905
 40
1.0
 40
1.0
 40
1.0
 40
1.0
 10
219.3455226993274
 20
59.82686511483492
 30
0.0
 10
219.3753637286125
 20
59.93414417139117
 30
0.0
 10
219.4051932686536
 20
60.04002874476186
 30
0.0
 10
219.4498644255249
 20
60.18997678801215
 30
0.0
 10
219.4648172176167
 20
60.23897705077508
 30
0.0
 10
219.486400355906
 20
60.30212733267783
 30
0.0
 10
219.4935300674357
 20
60.32176751690633
 30
0.0
 10
219.5023816927371
 20
60.33947744639433
 30
0.0
 10
219.5050197900069
 20
60.34319381288002
 30
0.0
 10
219.508172328052
 20
60.34104546449781
 30
0.0
 10
219.5085522891887
 20
60.33488305543122
 30
0.0
 10
219.5065423639279
 20
60.30623797207847
 30
0.0
 10
219.5019657223295
 20
60.27793696709028
 30
0.0
 10
219.4920343362231
 20
60.22155795694099
 30
0.0
 10
219.4863441504882
 20
60.19208820898496
 30
0.0
 10
219.4687625498696
 20
60.10423378841863
 30
0.0
 10
219.4560816769413
 20
60.0450087953693
 30
0.0
 10
219.4168406133209
 20
59.86651548823951
 30
0.0
 10
219.3895371532844
 20
59.7487724540658
 30
0.0
 10
219.3617591022957
 20
59.6317267641187
 30
0.0
  0
ARC
  5
205
330
1F
100
AcDbEntity
  8
0
  6
Continuous
 62
     7
370
    25
100
AcDbCircle
 10
220.0244371297
 20
59.0371179332
 30
0.0
 40
0.7201273031244582
100
AcDbArc
 50
174.7584203609
 51
234.4349513408
  0
ARC
  5
206
330
1F
100
AcDbEntity
  8
0
  6
Continuous
 62
     7
370
    25
100
AcDbCircle
 10
221.5197718971
 20
51.5372201969
 30
0.0
 40
2.215173511102327
100
AcDbArc
 50
122.6235856257
 51
177.1589283586
  0
LINE
  5
207
330
1F
100
AcDbEntity
  8
0
  6
Continuous
 62
     7
370
    25
100
AcDbLine
 10
220.3255330204
 20
53.4029069845
 30
0.0
 11
221.0696198258
 21
53.832459154
 31
0.0
  0
SPLINE
  5
208
330
1F
100
AcDbEntity
  8
0
  6
Continuous
 62
     7
370
    25
100
AcDbSpline
210
0.0
220
0.0
230
1.0
 70
     8
 71
     3
 72
     8
 73
     4
 74
     0
 42
0.000000001
 43
0.00000001
 40
0.0
 40
0.0
 40
0.0
 40
0.0
 40
0.0001590976914349
 40
0.0001590976914349
 40
0.0001590976914349
 40
0.0001590976914349
 10
221.1470775972232
 20
53.82199800878276
 30
0.0
 10
221.1212574682921
 20
53.82548255815993
 30
0.0
 10
221.0954383243742
 20
53.82896954081262
 30
0.0
 10
221.0696201453524
 20
53.83245890184707
 30
0.0
  0
ARC
  5
209
330
1F
100
AcDbEntity
  8
0
  6
Continuous
 62
     7
370
    25
100
AcDbCircle
 10
220.6543918471
 20
52.0318789538
 30
0.0
 40
1.353479563765781
100
AcDbArc
 50
122.9135810547
 51
170.975405912
  0
LINE
  5
20A
330
1F
100
AcDbEntity
  8
0
  6
Continuous
 62
     7
370
    25
100
AcDbLine
 10
220.3255330204
 20
53.4029069845
 30
0.0
 11
219.9189469826
 21
53.1681129882
 31
0.0
  0
SPLINE
  5
20B
330
1F
100
AcDbEntity
  8
0
  6
Continuous
 62
     7
370
    25
100
AcDbSpline
210
0.0
220
0.0
230
1.0
 70
     8
 71
     3
 72
    10
 73
     6
 74
     0
 42
0.000000001
 43
0.00000001
 40
0.0
 40
0.0
 40
0.0
 40
0.0
 40
0.5
 40
0.5
 40
1.0
 40
1.0
 40
1.0
 40
1.0
 10
219.3617591022957
 20
51.4470711484147
 30
0.0
 10
219.3418330517995
 20
51.48559270993032
 30
0.0
 10
219.3285387876588
 20
51.51755603712342
 30
0.0
 10
219.311270261518
 20
51.57999946062026
 30
0.0
 10
219.3073468068958
 20
51.61042283783246
 30
0.0
 10
219.3073001650776
 20
51.64231353313201
 30
0.0
  0
LINE
  5
20C
330
1F
100
AcDbEntity
  8
0
  6
Continuous
 62
     7
370
    25
100
AcDbLine
 10
219.3176668709
 20
52.2441836111
 30
0.0
 11
219.3212664752
 21
52.1085473504
 31
0.0
  0
LINE
  5
20D
330
1F
100
AcDbEntity
  8
0
  6
Continuous
 62
     7
370
    25
100
AcDbLine
 10
219.4169167722
 20
51.3513507786
 30
0.0
 11
219.3617590599
 21
51.4470713261
 31
0.0
  0
LWPOLYLINE
  5
20E
330
1F
100
AcDbEntity
  8
0
  6
Continuous
 62
     7
370
    18
100
AcDbPolyline
 90
       23
 70
   128
 43
0.0
 10
268.5895145381
 20
44.6815045235
 10
268.6685800503
 20
44.984210908
 10
268.8809474832
 20
45.5656077323
 10
269.166745263
 20
46.1327366107
 10
269.5149908428
 20
46.6638032321
 10
269.9123012811
 20
47.1383991689
 10
270.3434088822
 20
47.5382863413
 10
270.7917453247
 20
47.8480967787
 10
271.2400817672
 20
48.0559245796
 10
271.6711887097
 20
48.1537832684
 10
272.0684991481
 20
48.1379121995
 10
272.4167453865
 20
48.0089217463
 10
272.7025431662
 20
47.7717679606
 10
272.9149092821
 20
47.4355645949
 10
273.0456843675
 20
47.0132328219
 10
273.089842411
 20
46.5210022944
 10
273.0456843675
 20
45.9777879751
 10
272.9149092821
 20
45.4044665024
 10
272.7025431662
 20
44.8230704384
 10
272.4167453865
 20
44.2559415599
 10
272.0684991481
 20
43.7248745583
 10
271.6711887097
 20
43.2502786216
 10
271.3790616587
 20
42.9677592775
  0
LWPOLYLINE
  5
20F
330
1F
100
AcDbEntity
  8
0
  6
Continuous
 62
     7
370
    18
100
AcDbPolyline
 90
       13
 70
   128
 43
0.0
 10
268.272092134
 20
44.8647478323
 10
268.3173743129
 20
45.0321890519
 10
268.5329719066
 20
45.6395728715
 10
268.82381743
 20
46.2345528495
 10
269.1794005128
 20
46.7956255073
 10
269.5868683416
 20
47.3025116465
 10
270.0314945444
 20
47.7368913867
 10
270.4972086593
 20
48.0830649586
 10
270.967179606
 20
48.3285212851
 10
271.4244202288
 20
48.4643881186
 10
271.8524050118
 20
48.4857551799
 10
272.2356654031
 20
48.3918501496
 10
272.2785511385
 20
48.3726811299
  0
LWPOLYLINE
  5
210
330
1F
100
AcDbEntity
  8
0
  6
Continuous
 62
     7
370
    18
100
AcDbPolyline
 90
       33
 70
   128
 43
0.0
 10
249.4017646512
 20
32.8461660807
 10
249.4459226946
 20
33.3893804
 10
249.5766977801
 20
33.9627018728
 10
249.7890638959
 20
34.5440979368
 10
250.0748616757
 20
35.1112268153
 10
250.423107914
 20
35.6422938168
 10
250.8204183524
 20
36.1168897536
 10
251.2515252949
 20
36.5167765458
 10
251.6998617374
 20
36.8265869832
 10
252.1481981799
 20
37.0344147841
 10
252.579305781
 20
37.132273853
 10
252.9766162194
 20
37.1164027842
 10
253.3248617992
 20
36.9874119508
 10
253.6106595789
 20
36.7502581651
 10
253.8230270119
 20
36.4140555598
 10
253.9538014388
 20
35.9917234066
 10
253.9979588237
 20
35.4994924989
 10
253.9538014388
 20
34.9562785598
 10
253.8230270119
 20
34.3829574672
 10
253.6106595789
 20
33.8015606429
 10
253.3248617992
 20
33.2344317644
 10
252.9766162194
 20
32.703365143
 10
252.579305781
 20
32.2287692063
 10
252.1481981799
 20
31.8288820338
 10
251.6998617374
 20
31.5190715965
 10
251.2515252949
 20
31.3112437956
 10
250.8204183524
 20
31.2133851068
 10
250.423107914
 20
31.2292561756
 10
250.0748616757
 20
31.3582466288
 10
249.7890638959
 20
31.5954004145
 10
249.5766977801
 20
31.9316037802
 10
249.4459226946
 20
32.3539355532
 10
249.4017646512
 20
32.8461660807
  0
LWPOLYLINE
  5
211
330
1F
100
AcDbEntity
  8
0
  6
Continuous
 62
     7
370
    18
100
AcDbPolyline
 90
       14
 70
   128
 43
0.0
 10
249.0482105441
 20
32.8461660807
 10
249.0929349358
 20
33.4128447146
 10
249.2254920427
 20
34.0106800167
 10
249.4410889779
 20
34.6180634562
 10
249.7319351599
 20
35.2130438143
 10
250.087517584
 20
35.774116092
 10
250.4949854129
 20
36.2810022312
 10
250.9396116156
 20
36.7153819714
 10
251.4053257306
 20
37.0615555433
 10
251.8752960187
 20
37.3070114896
 10
252.3325366415
 20
37.4428783231
 10
252.7605220831
 20
37.4642457646
 10
253.1437824744
 20
37.3703407343
 10
253.1866682098
 20
37.3511717145
  0
ARC
  5
212
330
1F
100
AcDbEntity
  8
0
  6
Continuous
 62
     7
370
    18
100
AcDbCircle
 10
250.7724120163
 20
32.6610233399
 30
0.0
 40
1.734113188670871
100
AcDbArc
 50
173.8711298319
 51
234.8167412923
  0
LWPOLYLINE
  5
213
330
1F
100
AcDbEntity
  8
0
  6
Continuous
 62
     7
370
    18
100
AcDbPolyline
 90
       38
 70
   128
 43
0.0
 10
246.3965600093
 20
33.9687279888
 10
246.4399580923
 20
35.1894927144
 10
246.5698507282
 20
36.4518025374
 10
246.785323857
 20
37.746801953
 10
247.0848667777
 20
39.0654073737
 10
247.4663800505
 20
40.3983706272
 10
247.9271866918
 20
41.7363420733
 10
248.4640539066
 20
43.0699356219
 10
249.0732167961
 20
44.3897979328
 10
249.750402065
 20
45.6866711515
 10
250.4908596316
 20
46.9514579258
 10
251.289396214
 20
48.1752879434
 10
252.1404102326
 20
49.349576104
 10
253.03793264
 20
50.4660848731
 10
253.9756680799
 20
51.5169837846
 10
254.9470386806
 20
52.494902099
 10
255.9452308113
 20
53.3929786086
 10
256.9632434854
 20
54.2049161972
 10
257.993935693
 20
54.9250182892
 10
259.0300779533
 20
55.5482322991
 10
260.0644025073
 20
56.0701907742
 10
261.0896542318
 20
56.4872286198
 10
262.098641718
 20
56.7964232317
 10
263.0842879172
 20
56.9956054833
 10
264.0396786062
 20
57.0833770568
 10
264.9581130944
 20
57.0591237468
 10
265.8331488411
 20
56.9230138398
 10
266.6586482113
 20
56.6760038136
 10
267.4288206231
 20
56.3198254053
 10
268.1382646947
 20
55.8569772424
 10
268.7820031465
 20
55.2907054474
 10
269.355521656
 20
54.624982722
 10
269.8547965162
 20
53.8644783055
 10
270.2763255874
 20
53.0145260331
 10
270.6171526633
 20
52.0810882112
 10
270.8748872274
 20
51.0707120794
 10
271.0477222335
 20
49.9904857014
 10
271.125986297
 20
49.0427282854
  0
LWPOLYLINE
  5
214
330
1F
100
AcDbEntity
  8
0
  6
Continuous
 62
     7
370
    18
100
AcDbPolyline
 90
       24
 70
   128
 43
0.0
 10
262.5540772703
 20
29.6909792302
 10
262.098641718
 20
29.270270395
 10
261.0896542318
 20
28.4145128521
 10
260.0644025073
 20
27.6478202529
 10
259.0300779533
 20
26.9755730175
 10
257.993935693
 20
26.4024826377
 10
256.9632434854
 20
25.9325728369
 10
255.9452308113
 20
25.5691380105
 10
254.9470386806
 20
25.3147264174
 10
253.9756680799
 20
25.1711241084
 10
253.03793264
 20
25.1393367266
 10
252.1404102326
 20
25.2195881815
 10
251.289396214
 20
25.4113164706
 10
250.4908596316
 20
25.7131757749
 10
249.750402065
 20
26.1230484401
 10
249.0732167961
 20
26.6380601898
 10
248.4640539066
 20
27.2545979991
 10
247.9271866918
 20
27.9683378554
 10
247.4663800505
 20
28.7742732782
 10
247.0848667777
 20
29.666750683
 10
246.785323857
 20
30.639511209
 10
246.5698507282
 20
31.6857306454
 10
246.4399580923
 20
32.7980696233
 10
246.3965600093
 20
33.9687279888
  0
LWPOLYLINE
  5
215
330
1F
100
AcDbEntity
  8
0
  6
Continuous
 62
     7
370
    18
100
AcDbPolyline
 90
       28
 70
   128
 43
0.0
 10
245.6894544293
 20
33.9687279888
 10
245.7329262693
 20
35.2075530358
 10
245.8630467616
 20
36.4881083383
 10
246.0789255538
 20
37.8016453296
 10
246.3790875064
 20
39.1391911613
 10
246.7614845458
 20
40.4916103946
 10
247.2235022505
 20
41.8496632707
 10
247.7619861921
 20
43.2040739591
 10
248.3732570826
 20
44.5455898727
 10
249.0531390912
 20
45.8650466851
 10
249.7969888205
 20
47.1534322057
 10
250.5997242827
 20
48.4019441734
 10
251.4558624362
 20
49.6020552718
 10
252.359554747
 20
50.745567119
 10
253.3046280192
 20
51.8246672985
 10
254.2846265408
 20
52.8319863899
 10
255.2928558776
 20
53.7606407409
 10
256.3224288065
 20
54.6042894028
 10
257.3663124839
 20
55.3571689643
 10
258.4173759427
 20
56.0141346601
 10
259.4684394015
 20
56.5707010031
 10
260.5123230789
 20
57.0230638812
 10
261.5418960078
 20
57.3681348205
 10
262.5501253447
 20
57.6035572836
 10
263.5301238662
 20
57.7277204009
 10
264.4751971384
 20
57.7397785955
 10
265.3788894493
 20
57.6396476815
 10
265.7944356436
 20
57.5523231391
  0
LWPOLYLINE
  5
216
330
1F
100
AcDbEntity
  8
0
  6
Continuous
 62
     7
370
    18
100
AcDbPolyline
 90
        9
 70
   128
 43
0.0
 10
248.0210707724
 20
26.8355368697
 10
247.7619861921
 20
27.1262762577
 10
247.2235022505
 20
27.8589666207
 10
246.7614845458
 20
28.6835852094
 10
246.3790875064
 20
29.5944982188
 10
246.0789255538
 20
30.5854844367
 10
245.8630467616
 20
31.6497730799
 10
245.7329262693
 20
32.7800944599
 10
245.6894544293
 20
33.9687279888
  0
LWPOLYLINE
  5
217
330
1F
100
AcDbEntity
  8
0
  6
Continuous
 62
     7
370
    18
100
AcDbPolyline
 90
       28
 70
   128
 43
0.0
 10
240.0326005696
 20
37.234360211
 10
240.0760724097
 20
38.473185258
 10
240.2061929019
 20
39.7537405605
 10
240.4220716942
 20
41.0672775518
 10
240.7222336467
 20
42.4048233835
 10
241.1046306862
 20
43.7572426169
 10
241.5666483908
 20
45.1152954929
 10
242.1051323325
 20
46.4697061813
 10
242.716403223
 20
47.811222095
 10
243.3962852315
 20
49.1306789073
 10
244.1401349609
 20
50.419064428
 10
244.9428704231
 20
51.6675763957
 10
245.7990085765
 20
52.8676874941
 10
246.7027008874
 20
54.0111993412
 10
247.6477741595
 20
55.0902995207
 10
248.6277726811
 20
56.0976186121
 10
249.6360020179
 20
57.0262729632
 10
250.6655749469
 20
57.869921625
 10
251.7094586242
 20
58.6228011866
 10
252.7605220831
 20
59.2797668823
 10
253.8115855419
 20
59.8363332254
 10
254.8554692193
 20
60.2886961034
 10
255.8850421482
 20
60.6337670427
 10
256.893271485
 20
60.8691895058
 10
257.8732700066
 20
60.9933526232
 10
258.8183432787
 20
61.0054108178
 10
259.7220355896
 20
60.9052799038
 10
260.137581784
 20
60.8179553613
  0
LWPOLYLINE
  5
218
330
1F
100
AcDbEntity
  8
0
  6
Continuous
 62
     7
370
    18
100
AcDbPolyline
 90
        9
 70
   128
 43
0.0
 10
242.3642169128
 20
30.1011690919
 10
242.1051323325
 20
30.3919084799
 10
241.5666483908
 20
31.1245988429
 10
241.1046306862
 20
31.9492174317
 10
240.7222336467
 20
32.860130441
 10
240.4220716942
 20
33.851116659
 10
240.2061929019
 20
34.9154053021
 10
240.0760724097
 20
36.0457266821
 10
240.0326005696
 20
37.234360211
  0
LWPOLYLINE
  5
219
330
1F
100
AcDbEntity
  8
0
  6
Continuous
 62
     7
370
    18
100
AcDbPolyline
 90
       50
 70
   128
 43
0.0
 10
261.9529094403
 20
33.1523199332
 10
261.9964494398
 20
33.9605819591
 10
262.126354588
 20
34.8058425719
 10
262.3404918593
 20
35.674222621
 10
262.6353449553
 20
36.5514634243
 10
263.006072586
 20
37.423160368
 10
263.4465874954
 20
38.2750009708
 10
263.9496562305
 20
39.0929970064
 10
264.5070185029
 20
39.8637178594
 10
265.109522355
 20
40.5745079095
 10
265.7472748019
 20
41.2136963105
 10
266.4098039157
 20
41.770787138
 10
267.0862310249
 20
42.2366329432
 10
267.7654491897
 20
42.6035853137
 10
268.43630564
 20
42.8656180632
 10
269.0877849533
 20
43.0184291756
 10
269.7091898559
 20
43.059509058
 10
270.290317024
 20
42.9881838518
 10
270.8216241476
 20
42.8056240444
 10
271.294387323
 20
42.5148273436
 10
271.7008436275
 20
42.120569044
 10
272.0343190418
 20
41.6293222618
 10
272.2893384269
 20
41.0491537404
 10
272.4617137689
 20
40.3895897164
 10
272.5486149729
 20
39.6614601596
 10
272.5486149729
 20
38.8767209165
 10
272.4617137689
 20
38.0482573652
 10
272.2893384269
 20
37.1896730075
 10
272.0343190418
 20
36.3150653715
 10
271.7008436275
 20
35.4387960713
 10
271.294387323
 20
34.5752533115
 10
270.8216241476
 20
33.738615867
 10
270.290317024
 20
32.942621912
 10
269.7091898559
 20
32.2003415592
 10
269.0877849533
 20
31.5239626125
 10
268.43630564
 20
30.9245917206
 10
267.7654491897
 20
30.4120700994
 10
267.0862310249
 20
29.9948138691
 10
266.4098039157
 20
29.6796735578
 10
265.7472748019
 20
29.4718245526
 10
265.109522355
 20
29.3746796517
 10
264.5070185029
 20
29.3898335613
 10
263.9496562305
 20
29.5170376322
 10
263.4465874954
 20
29.7542028696
 10
263.006072586
 20
30.0974357841
 10
262.6353449553
 20
30.5410997162
 10
262.3404918593
 20
31.0779103812
 10
262.126354588
 20
31.6990527994
 10
261.9964494398
 20
32.3943281206
 10
261.9529094403
 20
33.1523199332
  0
LWPOLYLINE
  5
21A
330
1F
100
AcDbEntity
  8
0
  6
Continuous
 62
     7
370
    18
100
AcDbPolyline
 90
       20
 70
   128
 43
0.0
 10
261.2458015554
 20
33.1523201233
 10
261.2886780713
 20
33.9798186431
 10
261.4166563182
 20
34.8442765144
 10
261.6277965535
 20
35.7325896227
 10
261.91889858
 20
36.6312923717
 10
262.2855491617
 20
37.5267610074
 10
262.722190183
 20
38.4054210283
 10
263.2222032716
 20
39.2539533579
 10
263.7780079216
 20
40.0594947171
 10
264.3811792085
 20
40.809833908
 10
265.0225734065
 20
41.4935968798
 10
265.6924677645
 20
42.1004179148
 10
266.3807074025
 20
42.6210985747
 10
267.0768592265
 20
43.0477467448
 10
267.770370287
 20
43.3738931475
 10
268.4507277648
 20
43.5945947266
 10
269.1076180089
 20
43.7065055458
 10
269.7310833327
 20
43.7079296615
 10
270.3116723053
 20
43.5988451469
 10
270.7273228789
 20
43.4388965786
  0
ARC
  5
21B
330
1F
100
AcDbEntity
  8
0
  6
Continuous
 62
     7
370
    18
100
AcDbCircle
 10
265.3099628293
 20
32.7848439784
 30
0.0
 40
4.080740812307543
100
AcDbArc
 50
174.8334398217
 51
233.8543867338
  0
LWPOLYLINE
  5
21C
330
1F
100
AcDbEntity
  8
0
  6
Continuous
 62
     7
370
    18
100
AcDbPolyline
 90
       40
 70
   128
 43
0.0
 10
263.8974530781
 20
34.2748810809
 10
263.9409479672
 20
34.9221563489
 10
264.0703065234
 20
35.6028858284
 10
264.2821784016
 20
36.2994390245
 10
264.571076115
 20
36.9937756582
 10
264.9295172809
 20
37.6679123397
 10
265.348218562
 20
38.3043898073
 10
265.8163358705
 20
38.8867232886
 10
266.3217452374
 20
39.399830615
 10
266.8513567324
 20
39.8304231416
 10
267.3914536965
 20
40.1673481611
 10
267.9280479035
 20
40.4018794861
 10
268.447241924
 20
40.5279429876
 10
268.935588732
 20
40.5422740007
 10
269.3804406509
 20
40.4445010852
 10
269.7702761152
 20
40.237156523
 10
270.0949983205
 20
39.9256103198
 10
270.3461978182
 20
39.5179316807
 10
270.5173680238
 20
39.0246789127
 10
270.604075945
 20
38.4586271866
 10
270.604075945
 20
37.8344369165
 10
270.5173680238
 20
37.1682743555
 10
270.3461978182
 20
36.4773926748
 10
270.0949983205
 20
35.7796852691
 10
269.7702761152
 20
35.0932227879
 10
269.3804406509
 20
34.4357837792
 10
268.935588732
 20
33.8243957708
 10
268.447241924
 20
33.2748935608
 10
267.9280479035
 20
32.8015084058
 10
267.3914536965
 20
32.4165012467
 10
266.8513567324
 20
32.1298435848
 10
266.3217452374
 20
31.9489596949
 10
265.8163358705
 20
31.8785337872
 10
265.348218562
 20
31.9203905284
 10
264.9295172809
 20
32.0734457868
 10
264.571076115
 20
32.3337351072
 10
264.2821784016
 20
32.6945175409
 10
264.0703065234
 20
33.1464486734
 10
263.9409479672
 20
33.6778239429
 10
263.8974530781
 20
34.2748810809
  0
LWPOLYLINE
  5
21D
330
1F
100
AcDbEntity
  8
0
  6
Continuous
 62
     7
370
    18
100
AcDbPolyline
 90
       21
 70
   128
 43
0.0
 10
269.0233760077
 20
40.1010223802
 10
269.0722813338
 20
40.0716851215
 10
269.3924964606
 20
39.7985866339
 10
269.6410833475
 20
39.4282333746
 10
269.8108906953
 20
38.9712799098
 10
269.8970335853
 20
38.4408719403
 10
269.8970335853
 20
37.8522681967
 10
269.8108906953
 20
37.2224017635
 10
269.6410833475
 20
36.5693929081
 10
269.3924964606
 20
35.9120273383
 10
269.0722813338
 20
35.2692163349
 10
268.6896500172
 20
34.6594523503
 10
268.255610082
 20
34.1002772798
 10
267.7826481908
 20
33.6077773543
 10
267.2843704905
 20
33.1961213584
 10
266.775111612
 20
32.8771512595
 10
266.2695219171
 20
32.6600435493
 10
265.7821463799
 20
32.5510442734
 10
265.3270058556
 20
32.553288901
 10
264.9171939375
 20
32.6667129423
 10
264.8431160768
 20
32.7018031834
  0
LWPOLYLINE
  5
21E
330
1F
100
AcDbEntity
  8
0
  6
Continuous
 62
     7
370
    18
100
AcDbPolyline
 90
       22
 70
   128
 43
0.0
 10
252.927517775
 20
37.8182259035
 10
252.9712872772
 20
38.6629723984
 10
253.101933288
 20
39.5454490925
 10
253.3174749054
 20
40.4522783938
 10
253.6146444318
 20
41.3697136262
 10
253.9889374225
 20
42.2838472966
 10
254.4346801874
 20
43.1808222122
 10
254.9451150721
 20
44.0470413604
 10
255.5125051664
 20
44.8693732234
 10
256.1282488912
 20
45.6353529107
 10
256.7830123659
 20
46.3333680791
 10
257.4668699253
 20
46.952837391
 10
258.1694552147
 20
47.4843715047
 10
258.8801176141
 20
47.9199120455
 10
259.5880842617
 20
48.2528566994
 10
260.2826230838
 20
48.4781590316
 10
260.9532054561
 20
48.5924026168
 10
261.5896661679
 20
48.5938561218
 10
262.1823572129
 20
48.4824978282
 10
262.7222939037
 20
48.2600155709
 10
263.2012911907
 20
47.9297820104
 10
263.5301801718
 20
47.5978680336
  0
ARC
  5
21F
330
1F
100
AcDbEntity
  8
0
  6
Continuous
 62
     7
370
    18
100
AcDbCircle
 10
256.0232259534
 20
36.5106520805
 30
0.0
 40
2.805949990727368
100
AcDbArc
 50
221.4248811599
 51
259.9709722375
  0
LINE
  5
220
330
1F
100
AcDbEntity
  8
0
  6
Continuous
 62
     7
370
    18
100
AcDbLine
 10
252.934190148
 20
37.5016096183
 30
0.0
 11
252.927517775
 21
37.8182259035
 31
0.0
  0
LWPOLYLINE
  5
221
330
1F
100
AcDbEntity
  8
0
  6
Continuous
 62
     7
370
    18
100
AcDbPolyline
 90
       15
 70
   128
 43
0.0
 10
253.6796315794
 20
37.6547031508
 10
253.7233187636
 20
38.4817775414
 10
253.8536914783
 20
39.3462486862
 10
254.0686937479
 20
40.2344833897
 10
254.3649347264
 20
41.132473673
 10
254.73774237
 20
42.0260576842
 10
255.1812371933
 20
42.9011426964
 10
255.6884257828
 20
43.7439286752
 10
256.2513084692
 20
44.5411240505
 10
256.8610088957
 20
45.2801566369
 10
257.5079116538
 20
45.9493713417
 10
258.1818144899
 20
46.5382146102
 10
258.8720897302
 20
47.0373998588
 10
259.5678512225
 20
47.4390544188
 10
260.1492977847
 20
47.6966940225
  0
LWPOLYLINE
  5
222
330
1F
100
AcDbEntity
  8
0
  6
Continuous
 62
     7
370
    18
100
AcDbPolyline
 90
        3
 70
   128
 43
0.0
 10
253.738991135
 20
36.7549551507
 10
253.7233187636
 20
36.8780689094
 10
253.6796315794
 20
37.6547031508
  0
LWPOLYLINE
  5
223
330
1F
100
AcDbEntity
  8
0
  6
Continuous
 62
     7
370
    18
100
AcDbPolyline
 90
       20
 70
   128
 43
0.0
 10
253.3792404534
 20
37.8364607409
 10
253.4228706734
 20
38.66245604
 10
253.5530734837
 20
39.5257995294
 10
253.7677952133
 20
40.4128754087
 10
254.0636492969
 20
41.3096938551
 10
254.4359706054
 20
42.2021117421
 10
254.8788872266
 20
43.0760553537
 10
255.3854136496
 20
43.9177415752
 10
255.9475623882
 20
44.7138972764
 10
256.5564672929
 20
45.4519656705
 10
257.2025259616
 20
46.1203071579
 10
257.8755496407
 20
46.7083820612
 10
258.5649242803
 20
47.2069162242
 10
259.2597780513
 20
47.6080467679
 10
259.9491526909
 20
47.9054476218
 10
260.62217637
 20
48.0944293183
 10
261.2682350387
 20
48.1720112924
 10
261.8771399434
 20
48.136969537
 10
262.439288682
 20
47.989856954
 10
262.6532573659
 20
47.8980647853
  0
ARC
  5
224
330
1F
100
AcDbEntity
  8
0
  6
Continuous
 62
     7
370
    18
100
AcDbCircle
 10
256.453391236
 20
36.7025901716
 30
0.0
 40
2.848685408865523
100
AcDbArc
 50
211.0611052279
 51
236.9874420684
  0
LINE
  5
225
330
1F
100
AcDbEntity
  8
0
  6
Continuous
 62
     7
370
    18
100
AcDbLine
 10
253.4107745279
 20
37.1734832866
 30
0.0
 11
253.3792404534
 21
37.8364607409
 31
0.0
  0
LWPOLYLINE
  5
226
330
1F
100
AcDbEntity
  8
0
  6
Continuous
 62
     7
370
    18
100
AcDbPolyline
 90
       25
 70
   128
 43
0.0
 10
237.893601251
 20
42.5512179413
 10
237.9365146454
 20
43.6004894901
 10
238.0648544333
 20
44.6895113539
 10
238.2774220637
 20
45.8081150204
 10
238.5722326836
 20
46.9458567638
 10
238.9465342354
 20
48.0921137461
 10
239.3968311649
 20
49.2361837306
 10
239.9189199825
 20
50.3673845093
 10
240.5079261417
 20
51.4751548508
 10
241.1583494788
 20
52.549151835
 10
241.8641178842
 20
53.5793476176
 10
242.6186413029
 20
54.556122581
 10
243.4148752845
 20
55.4703590561
 10
244.2453855198
 20
56.3135188827
 10
245.1024174828
 20
57.0777307619
 10
245.9779696106
 20
57.755859118
 10
246.8638670611
 20
58.3415732944
 10
247.7518383917
 20
58.8294032257
 10
248.6335928975
 20
59.2147954915
 10
249.5008978255
 20
59.4941510469
 10
250.3456555066
 20
59.6648621451
 10
251.1599783887
 20
59.7253336
 10
251.9362634107
 20
59.6750021465
 10
252.6672629611
 20
59.5143378605
 10
252.7717746331
 20
59.4810680686
  0
LWPOLYLINE
  5
227
330
1F
100
AcDbEntity
  8
0
  6
Continuous
 62
     7
370
    18
100
AcDbPolyline
 90
        8
 70
   128
 43
0.0
 10
239.8823654939
 20
37.1052352716
 10
239.3968311649
 20
37.6018444674
 10
238.9465342354
 20
38.2260126836
 10
238.5722326836
 20
38.9401102929
 10
238.2774220637
 20
39.7374709398
 10
238.0648544333
 20
40.6106492442
 10
237.9365146454
 20
41.5514931429
 10
237.893601251
 20
42.5512179413
  0
LWPOLYLINE
  5
228
330
1F
100
AcDbEntity
  8
0
  6
Continuous
 62
     7
370
    18
100
AcDbPolyline
 90
       23
 70
   128
 43
0.0
 10
236.281299903
 20
45.7030938031
 10
236.6082593487
 20
46.9578903926
 10
237.0165799927
 20
48.2215592729
 10
237.5029816249
 20
49.4839459106
 10
238.0635538078
 20
50.7349045767
 10
238.6937927558
 20
51.9643831349
 10
239.3886336029
 20
53.1625002253
 10
240.1424918917
 20
54.3196273909
 10
240.9493090127
 20
55.42646626
 10
241.8026019246
 20
56.4741205952
 10
242.6955128741
 20
57.4541721457
 10
243.6208657016
 20
58.3587443299
 10
244.5712246166
 20
59.1805673449
 10
245.5389516552
 20
59.9130379527
 10
246.5162701064
 20
60.5502682624
 10
247.4953257158
 20
61.0871385529
 10
248.4682504815
 20
61.5193333414
 10
249.4272254636
 20
61.8433799236
 10
250.3645442095
 20
62.0566735818
 10
251.2726741226
 20
62.1575008442
 10
252.1443167186
 20
62.1450506967
 10
252.972467389
 20
62.0194239875
 10
253.7504712122
 20
61.7816299049
  0
LWPOLYLINE
  5
229
330
1F
100
AcDbEntity
  8
0
  6
Continuous
 62
     7
370
    18
100
AcDbPolyline
 90
       23
 70
   128
 43
0.0
 10
235.8476173929
 20
45.6976562365
 10
236.1735804608
 20
46.9693222678
 10
236.5818477627
 20
48.2506540445
 10
237.0691713571
 20
49.5314586267
 10
237.6316757097
 20
50.8015488369
 10
238.2648853519
 20
52.0508208247
 10
238.9637643939
 20
53.2693369533
 10
239.7227520859
 20
54.447404124
 10
240.5358122089
 20
55.5756524795
 10
241.3964765387
 20
56.6451061226
 10
242.297899176
 20
57.6472578272
 10
243.2329092295
 20
58.5741367138
 10
244.1940694268
 20
59.4183694616
 10
245.1737339017
 20
60.1732410454
 10
246.1641098088
 20
60.8327455138
 10
247.1573191448
 20
61.3916368874
 10
248.1454612689
 20
61.8454713347
 10
249.1206757939
 20
62.1906366339
 10
250.0752054359
 20
62.4243876954
 10
251.0014571768
 20
62.5448658999
 10
251.8920632205
 20
62.5511114741
 10
252.7399386159
 20
62.4430762231
 10
253.5383395382
 20
62.2216183916
  0
LWPOLYLINE
  5
22A
330
1F
100
AcDbEntity
  8
0
  6
Continuous
 62
     7
370
    18
100
AcDbPolyline
 90
       23
 70
   128
 43
0.0
 10
237.3986266865
 20
44.9846484894
 10
237.6366483793
 20
46.1562416735
 10
237.9603842496
 20
47.3457931308
 10
238.3667845778
 20
48.5420939245
 10
238.8520192691
 20
49.7338705515
 10
239.4115153903
 20
50.9098914042
 10
240.0400012928
 20
52.0590751315
 10
240.7315533686
 20
53.170591777
 10
241.4796553199
 20
54.2339669559
 10
242.2772570983
 20
55.2391793794
 10
243.1168427356
 20
56.1767570468
 10
243.9905003132
 20
57.0378647871
 10
244.8899965431
 20
57.8143876177
 10
245.8068552167
 20
58.499007972
 10
246.7324361476
 20
59.0852740854
 10
247.6580170785
 20
59.5676609679
 10
248.5748757521
 20
59.9416231056
 10
249.474371982
 20
60.2036365161
 10
250.3480295596
 20
60.3512323441
 10
251.1876151968
 20
60.3830196199
 10
251.9852169753
 20
60.2986986081
 10
252.7333189265
 20
60.0990635569
 10
253.3933675502
 20
59.8034112176
  0
LWPOLYLINE
  5
22B
330
1F
100
AcDbEntity
  8
0
  6
Continuous
 62
     7
370
    18
100
AcDbPolyline
 90
        3
 70
   128
 43
0.0
 10
255.1049168239
 20
60.9994709129
 10
255.4745637831
 20
60.6745052634
 10
255.4967949286
 20
60.652963066
  0
ARC
  5
22C
330
1F
100
AcDbEntity
  8
0
  6
Continuous
 62
     7
370
    18
100
AcDbCircle
 10
243.1411156782
 20
41.2398798784
 30
0.0
 40
5.80909687603985
100
AcDbArc
 50
188.6848433364
 51
236.0144928245
  0
LWPOLYLINE
  5
22D
330
1F
100
AcDbEntity
  8
0
  6
Continuous
 62
     7
370
    18
100
AcDbPolyline
 90
       28
 70
   128
 43
0.0
 10
226.5268598107
 20
46.8679758059
 10
226.5704409691
 20
48.0297485562
 10
226.7008420013
 20
49.2327458381
 10
226.9170434804
 20
50.4675530266
 10
227.2173522884
 20
51.724506128
 10
227.599419397
 20
52.9937676345
 10
228.0602530386
 20
54.2654035198
 10
228.596247682
 20
55.5294615643
 10
229.2032083987
 20
56.7760496799
 10
229.8763844486
 20
57.9954108132
 10
230.6105074756
 20
59.1780016491
 10
231.3998323374
 20
60.3145678934
 10
232.2381808987
 20
61.3962129002
 10
233.11899241
 20
62.4144723823
 10
234.0353728979
 20
63.3613771455
 10
234.9801509775
 20
64.2295157261
 10
235.945932017
 20
65.0120937966
 10
236.925157572
 20
65.702986728
 10
237.9101639747
 20
66.2967886214
 10
238.8932422002
 20
66.7888499101
 10
239.8666982468
 20
67.1753205817
 10
240.8229137627
 20
67.4531760514
 10
241.7544045544
 20
67.6202425727
 10
242.6538808633
 20
67.6752107424
 10
243.514303178
 20
67.6176525099
 10
244.3289372224
 20
67.4480164199
 10
245.0914072977
 20
67.1676310288
 10
245.5381520381
 20
66.9374593502
  0
LWPOLYLINE
  5
22E
330
1F
100
AcDbEntity
  8
0
  6
Continuous
 62
     7
370
    18
100
AcDbPolyline
 90
       10
 70
   128
 43
0.0
 10
229.7894315488
 20
39.6569202297
 10
229.2032083987
 20
40.0499482382
 10
228.596247682
 20
40.595754427
 10
228.0602530386
 20
41.2409662287
 10
227.599419397
 20
41.9805349168
 10
227.2173522884
 20
42.8086711292
 10
226.9170434804
 20
43.7188950612
 10
226.7008420013
 20
44.7040813353
 10
226.5704409691
 20
45.7565207901
 10
226.5268598107
 20
46.8679758059
  0
LWPOLYLINE
  5
22F
330
1F
100
AcDbEntity
  8
0
  6
Continuous
 62
     7
370
    18
100
AcDbPolyline
 90
       17
 70
   128
 43
0.0
 10
234.1954332724
 20
47.6298758877
 10
234.4947634833
 20
48.8169721993
 10
234.8765408324
 20
50.0140532569
 10
235.3372822777
 20
51.2101957183
 10
235.8727823542
 20
52.3944827728
 10
236.478154003
 20
53.5561071804
 10
237.1478733527
 20
54.6844682263
 10
237.8758284519
 20
55.7692679156
 10
238.6553759034
 20
56.8006079259
 10
239.479401451
 20
57.7690740141
 10
240.3403855041
 20
58.6658308774
 10
241.2304708038
 20
59.4826931551
 10
242.1415342033
 20
60.212205651
 10
243.0652618254
 20
60.8477125759
 10
243.9932236417
 20
61.3834135298
 10
244.9169512637
 20
61.8144198159
 10
245.3414963041
 20
61.9776162859
  0
LWPOLYLINE
  5
230
330
1F
100
AcDbEntity
  8
0
  6
Continuous
 62
     7
370
    18
100
AcDbPolyline
 90
       19
 70
   128
 43
0.0
 10
233.7696151009
 20
48.2780208752
 10
234.1200200481
 20
49.5169151264
 10
234.5552297229
 20
50.7609896781
 10
235.0712000035
 20
51.9986843531
 10
235.6631360272
 20
53.2184983604
 10
236.3255376304
 20
54.409096376
 10
237.052250056
 20
55.5594165239
 10
237.8365196009
 20
56.6587675194
 10
238.6710591408
 20
57.6969356991
 10
239.5481139849
 20
58.6642732276
 10
240.4595343156
 20
59.5517923881
 10
241.3968509213
 20
60.3512450445
 10
242.3513538922
 20
61.0552030519
 10
243.3141738481
 20
61.6571241605
 10
244.2763640297
 20
62.1514161358
 10
245.2289836457
 20
62.5334863954
 10
246.1631803967
 20
62.7997828039
 10
247.0702737607
 20
62.9478326277
 10
247.6608923661
 20
62.9801624709
  0
LINE
  5
231
330
1F
100
AcDbEntity
  8
0
  6
Continuous
 62
     7
370
    18
100
AcDbLine
 10
228.1764964958
 20
46.3304123758
 30
0.0
 11
229.9740055841
 21
47.3680922848
 31
0.0
  0
ARC
  5
232
330
1F
100
AcDbEntity
  8
0
  6
Continuous
 62
     7
370
    18
100
AcDbCircle
 10
241.93369405
 20
39.7348728254
 30
0.0
 40
5.818568810783752
100
AcDbArc
 50
193.7262214171
 51
253.2292132715
  0
LWPOLYLINE
  5
233
330
1F
100
AcDbEntity
  8
0
  6
Continuous
 62
     7
370
    18
100
AcDbPolyline
 90
        3
 70
   128
 43
0.0
 10
236.5812366334
 20
36.6445584305
 10
236.174678913
 20
37.4509214663
 10
235.8476173929
 20
38.3487892459
  0
LWPOLYLINE
  5
234
330
1F
100
AcDbEntity
  8
0
  6
Continuous
 62
     7
370
    18
100
AcDbPolyline
 90
       20
 70
   128
 43
0.0
 10
219.3073007218
 20
59.1157846537
 10
219.68791113
 20
60.2092246148
 10
220.1458754932
 20
61.2963317873
 10
220.6761289456
 20
62.3650837279
 10
221.2728074776
 20
63.4036609222
 10
221.9293118147
 20
64.4005775777
 10
222.6383815037
 20
65.3448084241
 10
223.3921752551
 20
66.2259103802
 10
224.1823565541
 20
67.0341407973
 10
225.0001863503
 20
67.7605588777
 10
225.8366201935
 20
68.3971334611
 10
226.6824078382
 20
68.9368225785
 10
227.528195483
 20
69.3736590898
 10
228.3646293262
 20
69.7028104657
 10
229.1824591224
 20
69.9206385691
 10
229.9726404214
 20
70.0247320604
 10
230.7264341728
 20
70.0139418447
 10
231.4355038618
 20
69.8883854352
 10
232.0920081989
 20
69.6494525532
 10
232.1091385879
 20
69.641355248
  0
ARC
  5
235
330
1F
100
AcDbEntity
  8
0
  6
Continuous
 62
     7
370
    18
100
AcDbCircle
 10
223.1838538581
 20
53.4291346988
 30
0.0
 40
4.268535355723978
100
AcDbArc
 50
204.74641238
 51
235.8842981422
  0
LINE
  5
236
330
1F
100
AcDbEntity
  8
0
  6
Continuous
 62
     7
370
    18
100
AcDbLine
 10
228.1764964958
 20
45.5138715251
 30
0.0
 11
229.9740055841
 21
46.5515514342
 31
0.0
  0
LINE
  5
237
330
1F
100
AcDbEntity
  8
0
  6
Continuous
 62
     7
370
    18
100
AcDbLine
 10
231.4635552237
 20
40.8796544652
 30
0.0
 11
232.8024328432
 21
41.652572063
 31
0.0
  0
LINE
  5
238
330
1F
100
AcDbEntity
  8
0
  6
Continuous
 62
     7
370
    18
100
AcDbLine
 10
235.1834021582
 20
40.3589303272
 30
0.0
 11
234.9803215199
 21
40.9627048268
 31
0.0
  0
LWPOLYLINE
  5
239
330
1F
100
AcDbEntity
  8
0
  6
Continuous
 62
     7
370
    18
100
AcDbPolyline
 90
        3
 70
   128
 43
0.0
 10
234.8192830216
 20
39.9166909159
 10
234.4947634833
 20
40.5743141611
 10
234.1954332724
 20
41.4158111674
  0
ARC
  5
23A
330
1F
100
AcDbEntity
  8
0
  6
Continuous
 62
     7
370
    18
100
AcDbCircle
 10
239.924006164
 20
43.0130859811
 30
0.0
 40
6.497638212573499
100
AcDbArc
 50
198.7065620989
 51
214.0929742737
  0
LINE
  5
23B
330
1F
100
AcDbEntity
  8
0
  6
Continuous
 62
     7
370
    18
100
AcDbLine
 10
250.516981458
 20
63.9655054984
 30
0.0
 11
249.9759924131
 21
63.6531991704
 31
0.0
  0
ARC
  5
23C
330
1F
100
AcDbEntity
  8
0
  6
Continuous
 62
     7
370
    18
100
AcDbCircle
 10
223.0697397948
 20
57.6196936852
 30
0.0
 40
1.102097410650181
100
AcDbArc
 50
159.4112025223
 51
213.191486534
  0
ARC
  5
23D
330
1F
100
AcDbEntity
  8
0
  6
Continuous
 62
     7
370
    18
100
AcDbCircle
 10
221.7379151376
 20
57.4481959001
 30
0.0
 40
0.6345234148784754
100
AcDbArc
 50
41.9991509505
 51
61.7717641965
  0
LINE
  5
23E
330
1F
100
AcDbEntity
  8
0
  6
Continuous
 62
     7
370
    18
100
AcDbLine
 10
222.038035208
 20
58.0072557424
 30
0.0
 11
222.1475821113
 21
58.4180536008
 31
0.0
  0
LINE
  5
23F
330
1F
100
AcDbEntity
  8
0
  6
Continuous
 62
     7
370
    18
100
AcDbLine
 10
222.038035208
 20
58.0072557424
 30
0.0
 11
221.235990559
 21
58.4702662628
 31
0.0
  0
LINE
  5
240
330
1F
100
AcDbEntity
  8
0
  6
Continuous
 62
     7
370
    18
100
AcDbLine
 10
219.3617590599
 20
59.6317265782
 30
0.0
 11
219.345522645
 21
59.8268652069
 31
0.0
  0
ARC
  5
241
330
1F
100
AcDbEntity
  8
0
  6
Continuous
 62
     7
370
    18
100
AcDbCircle
 10
221.8280715569
 20
49.3546339338
 30
0.0
 40
0.431494985478334
100
AcDbArc
 50
27.885175929
 51
60.8829215863
  0
ARC
  5
242
330
1F
100
AcDbEntity
  8
0
  6
Continuous
 62
     7
370
    18
100
AcDbCircle
 10
223.2777702472
 20
50.1266946665
 30
0.0
 40
1.301169858631101
100
AcDbArc
 50
165.9701496118
 51
197.6767200265
  0
LINE
  5
243
330
1F
100
AcDbEntity
  8
0
  6
Continuous
 62
     7
370
    18
100
AcDbLine
 10
221.6462637875
 20
52.6404653417
 30
0.0
 11
220.3255330204
 21
53.4029069845
 31
0.0
  0
LINE
  5
244
330
1F
100
AcDbEntity
  8
0
  6
Continuous
 62
     7
370
    18
100
AcDbLine
 10
222.038035208
 20
49.7315996984
 30
0.0
 11
221.235990559
 21
50.1946102188
 31
0.0
  0
LINE
  5
245
330
1F
100
AcDbEntity
  8
0
  6
Continuous
 62
     7
370
    18
100
AcDbLine
 10
222.038035208
 20
49.7315996984
 30
0.0
 11
222.1475821113
 21
49.4472820023
 31
0.0
  0
OLE2FRAME
  5
246
330
1F
100
AcDbEntity
  8
0
100
AcDbOle2Frame
 70
     2
  3
Paintbrush-Bild
 10
13.8511154363
 20
38.264191557
 30
0.0
 11
51.6290888628
 21
31.9806341108
 31
0.0
 71
     2
 72
     0
 73
     1
 90
    12928
310
80552BED0767C5B32B40DDAF6807D121434000000000000000006FFBDDFB85D0
310
4940DDAF6807D121434000000000000000006FFBDDFB85D04940416F4BD60AFB
310
3F4000000000000000002BED0767C5B32B40416F4BD60AFB3F40000000000000
310
0000000000000100000000010000010000000100000000000100000000320000
310
D0CF11E0A1B11AE1000000000000000000000000000000003E000300FEFF0900
310
0600000000000000000000000100000001000000000000000010000002000000
310
01000000FEFFFFFF0000000000000000FFFFFFFFFFFFFFFFFFFFFFFFFFFFFFFF
310
FFFFFFFFFFFFFFFFFFFFFFFFFFFFFFFFFFFFFFFFFFFFFFFFFFFFFFFFFFFFFFFF
310
FFFFFFFFFFFFFFFFFFFFFFFFFFFFFFFFFFFFFFFFFFFFFFFFFFFFFFFFFFFFFFFF
310
FFFFFFFFFFFFFFFFFFFFFFFFFFFFFFFFFFFFFFFFFFFFFFFFFFFFFFFFFFFFFFFF
310
FFFFFFFFFFFFFFFFFFFFFFFFFFFFFFFFFFFFFFFFFFFFFFFFFFFFFFFFFFFFFFFF
310
FFFFFFFFFFFFFFFFFFFFFFFFFFFFFFFFFFFFFFFFFFFFFFFFFFFFFFFFFFFFFFFF
310
FFFFFFFFFFFFFFFFFFFFFFFFFFFFFFFFFFFFFFFFFFFFFFFFFFFFFFFFFFFFFFFF
310
FFFFFFFFFFFFFFFFFFFFFFFFFFFFFFFFFFFFFFFFFFFFFFFFFFFFFFFFFFFFFFFF
310
FFFFFFFFFFFFFFFFFFFFFFFFFFFFFFFFFFFFFFFFFFFFFFFFFFFFFFFFFFFFFFFF
310
FFFFFFFFFFFFFFFFFFFFFFFFFFFFFFFFFFFFFFFFFFFFFFFFFFFFFFFFFFFFFFFF
310
FFFFFFFFFFFFFFFFFFFFFFFFFFFFFFFFFFFFFFFFFFFFFFFFFFFFFFFFFFFFFFFF
310
FFFFFFFFFFFFFFFFFFFFFFFFFFFFFFFFFFFFFFFFFFFFFFFFFFFFFFFFFFFFFFFF
310
FFFFFFFFFFFFFFFFFFFFFFFFFFFFFFFFFFFFFFFFFFFFFFFFFFFFFFFFFFFFFFFF
310
FFFFFFFFFFFFFFFFFFFFFFFFFFFFFFFFFFFFFFFFFFFFFFFFFFFFFFFFFFFFFFFF
310
FDFFFFFFFEFFFFFFFEFFFFFFFEFFFFFF05000000060000000700000008000000
310
090000000A0000000B0000000C0000000D0000000E0000000F00000010000000
310
11000000120000001300000014000000150000001600000017000000FEFFFFFF
310
FFFFFFFFFFFFFFFFFFFFFFFFFFFFFFFFFFFFFFFFFFFFFFFFFFFFFFFFFFFFFFFF
310
FFFFFFFFFFFFFFFFFFFFFFFFFFFFFFFFFFFFFFFFFFFFFFFFFFFFFFFFFFFFFFFF
310
FFFFFFFFFFFFFFFFFFFFFFFFFFFFFFFFFFFFFFFFFFFFFFFFFFFFFFFFFFFFFFFF
310
FFFFFFFFFFFFFFFFFFFFFFFFFFFFFFFFFFFFFFFFFFFFFFFFFFFFFFFFFFFFFFFF
310
FFFFFFFFFFFFFFFFFFFFFFFFFFFFFFFFFFFFFFFFFFFFFFFFFFFFFFFFFFFFFFFF
310
FFFFFFFFFFFFFFFFFFFFFFFFFFFFFFFFFFFFFFFFFFFFFFFFFFFFFFFFFFFFFFFF
310
FFFFFFFFFFFFFFFFFFFFFFFFFFFFFFFFFFFFFFFFFFFFFFFFFFFFFFFFFFFFFFFF
310
FFFFFFFFFFFFFFFFFFFFFFFFFFFFFFFFFFFFFFFFFFFFFFFFFFFFFFFFFFFFFFFF
310
FFFFFFFFFFFFFFFFFFFFFFFFFFFFFFFFFFFFFFFFFFFFFFFFFFFFFFFFFFFFFFFF
310
FFFFFFFFFFFFFFFFFFFFFFFFFFFFFFFFFFFFFFFFFFFFFFFFFFFFFFFFFFFFFFFF
310
FFFFFFFFFFFFFFFFFFFFFFFFFFFFFFFFFFFFFFFFFFFFFFFFFFFFFFFFFFFFFFFF
310
FFFFFFFFFFFFFFFFFFFFFFFFFFFFFFFFFFFFFFFFFFFFFFFFFFFFFFFFFFFFFFFF
310
FFFFFFFFFFFFFFFFFFFFFFFFFFFFFFFFFFFFFFFFFFFFFFFFFFFFFFFFFFFFFFFF
310
52006F006F007400200045006E00740072007900000000000000000000000000
310
0000000000000000000000000000000000000000000000000000000000000000
310
16000500FFFFFFFFFFFFFFFF020000000A00030000000000C000000000000046
310
00000000000000000000000040E5433738A7D30103000000C000000000000000
310
01004F006C006500000000000000000000000000000000000000000000000000
310
0000000000000000000000000000000000000000000000000000000000000000
310
0A000200FFFFFFFFFFFFFFFFFFFFFFFF00000000000000000000000000000000
310
0000000000000000000000000000000000000000000000001400000000000000
310
010043006F006D0070004F0062006A0000000000000000000000000000000000
310
0000000000000000000000000000000000000000000000000000000000000000
310
120002010100000003000000FFFFFFFF00000000000000000000000000000000
310
0000000000000000000000000000000000000000010000004D00000000000000
310
01004F006C006500310030004E00610074006900760065000000000000000000
310
0000000000000000000000000000000000000000000000000000000000000000
310
1A000200FFFFFFFFFFFFFFFFFFFFFFFF00000000000000000000000000000000
310
0000000000000000000000000000000000000000040000002426000000000000
310
FEFFFFFF02000000FEFFFFFFFFFFFFFFFFFFFFFFFFFFFFFFFFFFFFFFFFFFFFFF
310
FFFFFFFFFFFFFFFFFFFFFFFFFFFFFFFFFFFFFFFFFFFFFFFFFFFFFFFFFFFFFFFF
310
FFFFFFFFFFFFFFFFFFFFFFFFFFFFFFFFFFFFFFFFFFFFFFFFFFFFFFFFFFFFFFFF
310
FFFFFFFFFFFFFFFFFFFFFFFFFFFFFFFFFFFFFFFFFFFFFFFFFFFFFFFFFFFFFFFF
310
FFFFFFFFFFFFFFFFFFFFFFFFFFFFFFFFFFFFFFFFFFFFFFFFFFFFFFFFFFFFFFFF
310
FFFFFFFFFFFFFFFFFFFFFFFFFFFFFFFFFFFFFFFFFFFFFFFFFFFFFFFFFFFFFFFF
310
FFFFFFFFFFFFFFFFFFFFFFFFFFFFFFFFFFFFFFFFFFFFFFFFFFFFFFFFFFFFFFFF
310
FFFFFFFFFFFFFFFFFFFFFFFFFFFFFFFFFFFFFFFFFFFFFFFFFFFFFFFFFFFFFFFF
310
FFFFFFFFFFFFFFFFFFFFFFFFFFFFFFFFFFFFFFFFFFFFFFFFFFFFFFFFFFFFFFFF
310
FFFFFFFFFFFFFFFFFFFFFFFFFFFFFFFFFFFFFFFFFFFFFFFFFFFFFFFFFFFFFFFF
310
FFFFFFFFFFFFFFFFFFFFFFFFFFFFFFFFFFFFFFFFFFFFFFFFFFFFFFFFFFFFFFFF
310
FFFFFFFFFFFFFFFFFFFFFFFFFFFFFFFFFFFFFFFFFFFFFFFFFFFFFFFFFFFFFFFF
310
FFFFFFFFFFFFFFFFFFFFFFFFFFFFFFFFFFFFFFFFFFFFFFFFFFFFFFFFFFFFFFFF
310
FFFFFFFFFFFFFFFFFFFFFFFFFFFFFFFFFFFFFFFFFFFFFFFFFFFFFFFFFFFFFFFF
310
FFFFFFFFFFFFFFFFFFFFFFFFFFFFFFFFFFFFFFFFFFFFFFFFFFFFFFFFFFFFFFFF
310
FFFFFFFFFFFFFFFFFFFFFFFFFFFFFFFFFFFFFFFFFFFFFFFFFFFFFFFFFFFFFFFF
310
0100000200000000000000000000000000000000000000000000000000000000
310
0000000000000000000000000000000000000000000000000000000000000000
310
0100FEFF030A0000FFFFFFFF0A00030000000000C00000000000004607000000
310
5042727573680007000000504272757368000700000050427275736800F439B2
310
7100000000000000000000000000000000000000000000000000000000000000
310
0000000000000000000000000000000000000000000000000000000000000000
310
0000000000000000000000000000000000000000000000000000000000000000
310
0000000000000000000000000000000000000000000000000000000000000000
310
0000000000000000000000000000000000000000000000000000000000000000
310
0000000000000000000000000000000000000000000000000000000000000000
310
0000000000000000000000000000000000000000000000000000000000000000
310
0000000000000000000000000000000000000000000000000000000000000000
310
0000000000000000000000000000000000000000000000000000000000000000
310
0000000000000000000000000000000000000000000000000000000000000000
310
0000000000000000000000000000000000000000000000000000000000000000
310
0000000000000000000000000000000000000000000000000000000000000000
310
20260000424D0E260000000000003E00000028000000B40200006E0000000100
310
01000000000000000000130B0000130B00000200000002000000000000FFFFFF
310
FFFFFFFFFFFFFFFFFFFFFFFFFFFFFFFFFFFFFFFFFFFFFFFFFFFFFFFFFFFFFFFF
310
FFFFFFFFFFFFFFFFFFFFFFFFFFFFFFFFFFFFFFFFFFFFFFFFFFFFFFFFFFFFFFFF
310
FFFFFFFFFFFFFFFFFFFFFFFFFFFFFFFFFFFFFFFFFFFFFFFFF000FFFFFFFFFFFF
310
FFFFFFFFFFFFFFFFFFFFFFFFFFFFFFFFFFFFFFFFFFFFFFFFFFFFFFFFFFFFFFFF
310
FFFFFFFFFFFFFFFFFFFFFFFFFFFFFFFFFFFFFFFFFFFFFFFFFFFFFFFFFFFFFFFF
310
FFFFFFFFFFFFFFFFFFFFFFFFFFFFFFFFF000FFFFFFFFFFFFFFFFFFFFFFFFFFFF
310
FFFFFFFFFFFFFFFFFFFFFFFFFFFFFFFFFFFFFFFFFFFFFFFFFFFFFFFFFFFFFFFF
310
FFFFFFFFFFFFFFFFFFFFFFFFFFFFFFFFFFFFFFFFFFFFFFFFFFFFFFFFFFFFFFFF
310
FFFFFFFFFFFFFFFFF000FFFFFFFFFFFFFFFFFFFFFFFFFFFFFFFFFFFFFFFFFFFF
310
FFFFFFFFFFFFFFFFFFFFFFFFFFFFFFFFFFFFFFFFFFFFFFFFFFFFFFFFFFFFFFFF
310
FFFFFFFFFFFFFFFFFFFFFFFFFFFFFFFFFFFFFFFFFFFFFFFFFFFFFFFFFFFFFFFF
310
F000FFFFFFFFFFFFFFFFFFFFFFFFFFFFFFFFFFFFFFFFFFFFFFFFFFFFFFFFFFFF
310
FFFFFFFFFFFFFFFFFFFFFFFFFFFFFFFFFFFFFFFFFFFFFFFFFFFFFFFFFFFFFFFF
310
FFFFFFFFFFFFFFFFFFFFFFFFFFFFFFFFFFFFFFFFFFFFFFFFF000FFFFFFFFFFFF
310
FFFFFFFFFFFFFFFFFFFFFFFFFFFFFFFFFFFFFFFFFFFFFFFFFFFFFFFFFFFFFFFF
310
FFFFFFFFFFFFFFFFFFFFFFFFFFFFFFFFFFFFFFFFFFFFFFFFFFFFFFFFFFFFFFFF
310
FFFFFFFFFFFFFFFFFFFFFFFFFFFFFFFFF000FFFFFFFFFFFFFFFFFFFFFFFFFFFF
310
FFFFFFFFFFFFFFFFFFFFFFFFFFFFFFFFFFFFFFFFFFFFFFFFFFFFFFFFFFFFFFFF
310
FFFFFFFFFFFFFFFFFFFFFFFFFFFFFFFFFFFFFFFFFFFFFFFFFFFFFFFFFFFFFFFF
310
FFFFFFFFFFFFFFFFF000FFFFFFFFFFFFFFFFFFFFFFFFFFFFFFFFFFFFFFFFFFFF
310
FFFFFFFFFFFFFFFFFFFFFFFFFFFFFFFFFFFFFFFFFFFFFFFFFFFFFFFFFFFFFFFF
310
FFFFFFFFFFFFFFFFFFFFFFFFFFFFFFFFFFFFFFFFFFFFFFFFFFFFFFFFFFFFFFFF
310
F000FFFFFFFFFFFFFFFFFFFFFFFFFFFFFFFFFFFFFFFFFFFFFFFFFFFFFFFFFFFF
310
FFFFFFFFFFFFFFFFFFFFFFFFFFFFFFFFFFFFFFFFFFFFFFFFFFFFFFFFFFFFFFFF
310
FFFFFFFFFFFFFFFFFFFFFFFFFFFFFFFFFFFFFFFFFFFFFFFFF000FFFFFFFFFFFF
310
FFFFFFFFFFFFFFFFFFFFFFFFFFFFFFFFFFFFFFFFFFFFFFFFFFFFFFFFFFFFFFFF
310
FFFFFFFFFFFFFFFFFFFFFFFFFFFFFFFFFFFFFFFFFFFFFFFFFFFFFFFFFFFFFFFF
310
FFFFFFFFFFFFFFFFFFFFFFFFFFFFFFFFF000FFFFFFFFFFFFFFFFFFFFFFFFFFFF
310
FFFFFFFFFFFFFFFFFFFFFFFFFFFFFFFFFFFFFFFFFFFFFFFFFFFFFFFFFFFFFFFF
310
FFFFFFFFFFFFFFFFFFFFFFFFFFFFFFFFFFFFFFFFFFFFFFFFFFFFFFFFFFFFFFFF
310
FFFFFFFFFFFFFFFFF000FFFFFFFFFFFFFFFFFFFFFFFFFFFFFFFFFFFFFFFFFFFF
310
FFFFFFFFFFFFFFFFFFFFFFFFFFFFFFFFFFFFFFFFFFFFFFFFFFFFFFFFFFFFFFFF
310
FFFFFFFFFFFFFFFFFFFFFFFFFFFFFFFFFFFFFFFFFFFFFFFFFFFFFFFFFFFFFFFF
310
F000FFFFFFFFFFFFFFFFFFFFFFFFFFFFFFFFFFFFFFFFFFFFFFFFFFFFFFFFFFFF
310
FFFFFFFFFFFFFFFFFFFFFFFFFFFFFFFFFFFFFFFFFFFFFFFFFFFFFFFFFFFFFFFF
310
FFFFFFFFFFFFFFFFFFFFFFFFFFFFFFFFFFFFFFFFFFFFFFFFF000FFFFFFFFFFFF
310
FFFFFFFFFFFFFFFFFFFFFFFFFFFFFFFFFFFFFFFFFFFFFFFFFFFFFFFFFFFFFFFF
310
FFFFFFFFFFFFFFFFFFFFFFFFFFFFFFFFFFFFFFFFFFFFFFFFFFFFFFFFFFFFFFFF
310
FFFFFFFFFFFFFFFFFFFFFFFFFFFFFFFFF000FFFFFFFFFFFFFFFFFFFFFFFFFFFF
310
FFFFFFFFFFFFFFFFFFFFFFFFFFFFFFFFFFFFFFFFFFFFFFFFFFFFFFFFFFFFFFFF
310
FFFFFFFFFFFFFFFFFFFFFFFFFFFFFFFFFFFFFFFFFFFFFFFFFFFFFFFFFFFFFFFF
310
FFFFFFFFFFFFFFFFF000FFFFFFFFFFFFFFFFFFFFFFFFFFFFFFFFFFFFFFFFFFFF
310
FFFFFFFFFFFFFFFFFFFFFFFFFFFFFFFFFFFFFFFFFFFFFFFFFFFFFFFFFFFFFFFF
310
FFFFFFFFFFFFFFFFFFFFFFFFFFFFFFFFFFFFFFFFFFFFFFFFFFFFFFFFFFFFFFFF
310
F000FFFFFFFFFFFFFFFFFFFFFFFFFFFFFFFFFFFFFFFFFFFFFFFFFFFFFFFFFFFF
310
FFFFFFFFFFFFFFFFFFFFFFFFFFFFFFFFFFFFFFFFFFFFFFFFFFFFFFFFFFFFFFFF
310
FFFFFFFFFFFFFFFFFFFFFFFFFFFFFFFFFFFFFFFFFFFFFFFFF000FFFFFFFFFFFF
310
FFFFFFFFFFFFFFFFFFFFFFFFFFFFFFFFFFFFFFFFFFFFFFFFFFFFFFFFFFFFFFFF
310
FFFFFFFFFFFFFFFFFFFFFFFFFFFFFFFFFFFFFFFFFFFFFFFFFFFFFFFFFFFFFFFF
310
FFFFFFFFFFFFFFFFFFFFFFFFFFFFFFFFF000FFFFFFFFFFFFFFFFFFFFFFFFFFFF
310
FFFFFFFFFFFFFFFFFFFFFFFFFFFFFFFFFFFFFFFFFFFFFFFFFFFFFFFFFFFFFFFF
310
FFFFFFFFFFFFFFFFFFFFFFFFFFFFFFFFFFFFFFFFFFFFFFFFFFFFFFFFFFFFFFFF
310
FFFFFFFFFFFFFFFFF000FFFFF80003FFFFFFFFFFFFFFFFFFFFFFFFFFFFFFFFFF
310
FFFFF00007FFFFFFFFFF00007FFFFFF800000000000000007FFFFFFFFFFFFFFF
310
FFFFFFFC001FFFFFFFFFFFFFFC001FFFFFFFFFFFFFFFFFFFFFFFFFFE0007FFFF
310
F000FFFF8000007FFFFFFFF8000FFFFFC0007FFFFF80007FFFFF0000007FFFFF
310
FFF8000007FFFFF800000000000000007FFFFFF0001FFFFFFFFFFFC00001FFFF
310
FFFFFFFFC00001FFFFFFFF000000000003FFFFE000007FFFF000FFFE0000000F
310
FFFFFFF0000FFFFF80007FFFFF80007FFFFC0000001FFFFFFFC0000001FFFFF8
310
00000000000000007FFFFFF0001FFFFFFFFFFE0000003FFFFFFFFFFE0000003F
310
FFFFFF000000000003FFFF0000000FFFF000FFF800000003FFFFFFF00007FFFF
310
80007FFFFF80007FFFF000000007FFFFFF000000003FFFF80000000000000000
310
7FFFFFF0001FFFFFFFFFF80000000FFFFFFFFFF80000000FFFFFFF0000000000
310
03FFFC00000003FFF000FFE000000000FFFFFFF00007FFFF80003FFFFF80007F
310
FFC000000001FFFFFC000000001FFFF800000000000000007FFFFFF0001FFFFF
310
FFFFE000000003FFFFFFFFE000000003FFFFFF000000000003FFF000000000FF
310
F000FF80000000007FFFFFF00007FFFF80003FFFFF80007FFF8000000000FFFF
310
F80000000007FFF800000000000000007FFFFFF0001FFFFFFFFFC000000001FF
310
FFFFFFC000000001FFFFFF000000000003FFC0000000007FF000FF0000000000
310
3FFFFFE00007FFFF00003FFFFF80007FFE00000000003FFFF00000000003FFF8
310
00000000000000007FFFFFF0001FFFFFFFFF8000000000FFFFFFFF8000000000
310
FFFFFF000000000003FF80000000003FF000FE00000000001FFFFFE00003FFFF
310
00003FFFFF80007FFC00000000001FFFE00000000001FFF8000001FFFE000000
310
7FFFFFF0001FFFFFFFFE00000000003FFFFFFE00000000003FFFFF0000000000
310
03FF00000000001FF000FC00000000000FFFFFE00003FFFF00001FFFFF80007F
310
F800000000001FFFC00000000000FFF8000001FFFE0000007FFFFFF0001FFFFF
310
FFFC00000000001FFFFFFC00000000001FFFFF000000000003FE00000000000F
310
F000F8000000000007FFFFE00003FFFF00001FFFFF80007FF800000000000FFF
310
800000000000FFF8000001FFFE0000007FFFFFF0001FFFFFFFF800000000000F
310
FFFFF800000000000FFFFF000000000003FC000000000007F000F80000000000
310
03FFFFC00003FFFE00001FFFFF80007FF0000000000007FF0000000000007FF8
310
000001FFFE0000007FFFFFF0001FFFFFFFF0000000000007FFFFF00000000000
310
07FFFF000000000003F8000000000003F000F0000000000003FFFFC00001FFFE
310
00001FFFFF80007FE0000000000007FE0000000000003FF8000001FFFE000000
310
7FFFFFF0001FFFFFFFF0000000000007FFFFF0000000000007FFFF0000000000
310
03F800001F800003F000E00001FFF00001FFFFC00001FFFE00000FFFFF80007F
310
E00001FFE00003FE00001FFF00003FF8000001FFFE0000007FFFFFF0001FFFFF
310
FFE000003E000003FFFFE000003E000003FFFF000000000003F00001FFF80001
310
F000E00007FFFC0001FFFFC00001FFFE00000FFFFF80007FC0000FFFFC0003FC
310
0000FFFFC0001FF8000001FFFE0000007FFFFFF0001FFFFFFFC00003FFE00001
310
FFFFC00003FFE00001FFFF0001FFFFFFFFF00007FFFE0001F000E0000FFFFF00
310
00FFFF800001FFFC00000FFFFF80007FC0001FFFFE0001FC0001FFFFE0001FF8
310
000001FFFE0000007FFFFFF0001FFFFFFF80000FFFF80000FFFF80000FFFF800
310
00FFFF0003FFFFFFFFE0000FFFFF8000F000C0003FFFFF8000FFFF800000FFFC
310
000007FFFF80007F80003FFFFF0001FC0003FFFFF0001FF8000001FFFE000000
310
7FFFFFF0001FFFFFFF80003FFFFE0000FFFF80003FFFFE0000FFFF0003FFFFFF
310
FFE0003FFFFF8000F000C0003FFFFF8000FFFF800000FFFC000007FFFF80007F
310
80007FFFFF8001F80007FFFFF8000FF8000001FFFE0000007FFFFFF0001FFFFF
310
FF00007FFFFF00007FFF00007FFFFF00007FFF0003FFFFFFFFE0003FFFFFC000
310
F000C0007FFFFFC000FFFF000000FFFC000007FFFF80007F8000FFFFFF8000F8
310
000FFFFFF8000FF8000001FFFE0000007FFFFFF0001FFFFFFF0000FFFFFF8000
310
7FFF0000FFFFFF80007FFF0003FFFFFFFFC0007FFFFFC00070008000FFFFFFC0
310
00FFFF000000FFF8000007FFFF80007F8000FFFFFF8000F8000FFFFFF8000FF8
310
000001FFFE0000007FFFFFF0001FFFFFFE0001FFFFFFC0003FFE0001FFFFFFC0
310
003FFF0003FFFFFFFFC0007FFFFFE00070008000FFFFFFC0007FFF0000007FF8
310
000003FFFF80007F0001FFFFFF8000F8000FFFFFF8000FF8000001FFFE000000
310
7FFFFFF0001FFFFFFE0001FFFFFFC0003FFE0001FFFFFFC0003FFF0003FFFFFF
310
FFC000FFFFFFE00070008000FFFFFFC0007FFF0000007FF8000003FFFF80007F
310
0001FFFFFF8000F8001FFFFFF8000FF8000001FFFE0000007FFFFFF0001FFFFF
310
FE0003FFFFFFE0003FFE0003FFFFFFE0003FFF0003FFFFFFFFC000FFFFFFE000
310
70008000FFFFFFC0007FFE0000007FF8000003FFFF80007F0001FFFFFF8000F0
310
001FFFFFF8000FF8000001FFFE0000007FFFFFF0001FFFFFFC0003FFFFFFE000
310
1FFC0003FFFFFFE0001FFF0003FFFFFFFFC000FFFFFFC00070008000FFFFFF80
310
007FFE0000007FF0000003FFFF80007F0001FFFFFF0000F0001FFFFFF8000FF8
310
000001FFFE0000007FFFFFF0001FFFFFFC0007FFFFFFF0001FFC0007FFFFFFF0
310
001FFF0003FFFFFFFFC000FFFFFFC00070008001FFFFFF0000FFFE0000003FF0
310
000001FFFF80007F0001FFFFFF0000F8001FFFFFF0000FF8000001FFFE000000
310
7FFFFFF0001FFFFFFC0007FFFFFFF0001FFC0007FFFFFFF0001FFF0003FFFFFF
310
FFC001FFFFFF80007000FFFFFFFFFE0000FFFE0008003FF0008001FFFF80007F
310
FFFFFFFFFC0000FFFFFFFFFFE0000FF8000001FFFE0000007FFFFFF0001FFFFF
310
F8000FFFFFFFF8000FF8000FFFFFFFF8000FFF0003FFFFFFFFFFFFFFFFFF0000
310
7000FFFFFFFFFC0000FFFC0008003FF0008001FFFF80007FFFFFFFFFF80001FF
310
FFFFFFFF80000FF8000001FFFE0000007FFFFFF0001FFFFFF8000FFFFFFFF800
310
0FF8000FFFFFFFF8000FFF0003FFFFFFFFFFFFFFFFFE0000F000FFFFFFFFE000
310
00FFFC000C003FE000C001FFFF80007FFFFFFFFFC00001FFFFFFFFFE00001FF8
310
000001FFFE0000007FFFFFF0001FFFFFF8000FFFFFFFF8000FF8000FFFFFFFF8
310
000FFF0003FFFFFFFFFFFFFFFFF00000F000FFFFFFFE000001FFFC000C001FE0
310
00C000FFFF80007FFFFFFFFE000001FFFFFFFFE000001FF80FFFFFFFFFFFFFC0
310
7FFFFFF0001FFFFFF8000FFFFFFFF8000FF8000FFFFFFFF8000FFF0003FFFFFF
310
FFFFFFFFFF800000F000FFFFFFC0000001FFFC001C001FE001C000FFFF80007F
310
FFFFFF80000003FFFFFFF80000001FF80FFFFFFFFFFFFFC07FFFFFF0001FFFFF
310
F8001FFFFFFFFC000FF8001FFFFFFFFC000FFF0003FFFFFFFFFFFFFFF0000001
310
F000FFFFF800000001FFF8001C001FE001C000FFFF80007FFFFFF800000003FF
310
FFFF800000003FF80FFFFFFFFFFFFFC07FFFFFF0001FFFFFF8001FFFFFFFFC00
310
0FF8001FFFFFFFFC000FFF0003FFFFFFFFFFFFFE00000001F000FFFFC0000000
310
03FFF8001E001FC001E000FFFF80007FFFFF8000000007FFFFFC000000003FF8
310
0FFFFFFFFFFFFFC07FFFFFF0001FFFFFF8001FFFFFFFFC000FF8001FFFFFFFFC
310
000FFF0003FFFFFFFFFFFFE000000003F000FFFE0000000007FFF8001E000FC0
310
01E0007FFF80007FFFFE0000000007FFFFE0000000007FF80FFFFFFFFFFFFFC0
310
7FFFFFF0001FFFFFF0001FFFFFFFFC0007F0001FFFFFFFFC0007FF0003FFFFFF
310
FFFFFF0000000003F000FFF80000000007FFF8001E000FC003E0007FFF80007F
310
FFF0000000000FFFFF8000000000FFF80FFFFFFFFFFFFFC07FFFFFF0001FFFFF
310
F0001FFFFFFFFC0007F0001FFFFFFFFC0007FF0003FFFFFFFFFFFC0000000007
310
F000FFE0000000000FFFF0003E000FC003E0007FFF80007FFFC0000000001FFF
310
FE0000000001FFF80FFFFFFFFFFFFFC07FFFFFF0001FFFFFF0001FFFFFFFFC00
310
07F0001FFFFFFFFC0007FF0003FFFFFFFFFFF0000000000FF000FFC000000000
310
1FFFF0003F000F8003F0003FFF80007FFF80000000003FFFF80000000003FFF8
310
0FFFFFFFFFFFFFC07FFFFFF0001FFFFFF0001FFFFFFFFC0007F0001FFFFFFFFC
310
0007FF0003FFFFFFFFFFE0000000001FF000FF00000000007FFFF0003F000780
310
03F0003FFF80007FFF00000000007FFFF00000000007FFF80FFFFFFFFFFFFFC0
310
7FFFFFF0001FFFFFF0001FFFFFFFFC0007F0001FFFFFFFFC0007FF0003FFFFFF
310
FFFF80000000007FF000FE0000000000FFFFE0003F00078007F0003FFF80007F
310
FE0000000001FFFFE0000000001FFFF80FFFFFFFFFFFFFC07FFFFFF0001FFFFF
310
F0001FFFFFFFFC0007F0001FFFFFFFFC0007FF0003FFFFFFFFFF0000000000FF
310
F000FC0000000003FFFFE0007F00078007F0003FFF80007FFC0000000007FFFF
310
C0000000007FFFF80FFFFFFFFFFFFFC07FFFFFF0001FFFFFF8001FFFFFFFFC00
310
0FF8001FFFFFFFFC000FFF0003FFFFFFFFFE0000000003FFF000FC000000000F
310
FFFFE0007F80070007F8001FFF80007FF8000000001FFFFF8000000001FFFFF8
310
0FFFFFFFFFFFFFC07FFFFFF0001FFFFFF8001FFFFFFFFC000FF8001FFFFFFFFC
310
000FFF0003FFFFFFFFFC000000000FFFF000F8000000007FFFFFE0007F800700
310
07F8001FFF80007FF000000000FFFFFF800000000FFFFFF80FFFFFFFFFFFFFC0
310
7FFFFFF0001FFFFFF8000FFFFFFFF8000FF8000FFFFFFFF8000FFF0003FFFFFF
310
FFFC000000007FFFF000F800000007FFFFFFC0007F8003000FF8001FFF80007F
310
F000000007FFFFFF000000007FFFFFF80FFFFFFFFFFFFFC07FFFFFF0001FFFFF
310
F8000FFFFFFFF8000FF8000FFFFFFFF8000FFF0003FFFFFFFFF80000000FFFFF
310
F000F0000000FFFFFFFFC000FF8003000FF8001FFF80007FE0000000FFFFFFFF
310
0000000FFFFFFFF8000001FFFE0000007FFFFFF0001FFFFFF8000FFFFFFFF800
310
0FF8000FFFFFFFF8000FFF0003FFFFFFFFF8000000FFFFFFF000F000000FFFFF
310
FFFFC000FFC002000FF8000FFF80007FE000001FFFFFFFFE000001FFFFFFFFF8
310
000001FFFE0000007FFFFFF0001FFFFFF8000FFFFFFFF8000FF8000FFFFFFFF8
310
000FFF0003FFFFFFFFF000001FFFFFFFF000E00000FFFFFFFFFFC000FFC00200
310
0FFC000FFF80007FE00001FFFFFFFFFE00001FFFFFFFFFF8000001FFFE000000
310
7FFFFFF0001FFFFFFC000FFFFFFFF8001FFC000FFFFFFFF8001FFF0003FFFFFF
310
FFF00001FFFFFFFFF000E00007FFFFFFFFFF8000FFC000001FFC000FFF80007F
310
C0000FFFFFFFFFFE0000FFFFFFFFFFF8000001FFFE0000007FFFFFF0001FFFFF
310
FC0007FFFFFFF0001FFC0007FFFFFFF0001FFF0003FFFFFFFFF00007FFFFFFFF
310
F000E0001FFFFFFFFFFF8000FFC000001FFC000FFF80007FC0003FFFFFFFFFFE
310
0001FFFFFFFFFFF8000001FFFE0000007FFFFFF0001FFFFFFC0007FFFFFFF000
310
1FFC0007FFFFFFF0001FFF0003FFFFFFFFF0001FFFFFFFFFF000E0003FFFFF00
310
03FF8001FFE000001FFC0007FF80007FC0007FFFFF0007FC0003FFFFF0003FF8
310
000001FFFE0000007FFFFFF0001FFFFFFC0003FFFFFFE0001FFC0003FFFFFFE0
310
001FFF0003FFFFFFFFF0003FFFFFFFFFF000E0003FFFFF0001FF8001FFE00000
310
1FFE0007FF80007FC0007FFFFE0003FC0007FFFFE0003FF8000001FFFE000000
310
7FFFFFF0001FFFFFFE0003FFFFFFE0003FFE0003FFFFFFE0003FFF0003FFFFFF
310
FFF0003FFFFF8001F000E0003FFFFF0001FF0001FFE000001FFE0007FF80007F
310
C0007FFFFE0003FC0007FFFFE0003FF8000001FFFE0000007FFFFFF0001FFFFF
310
FE0001FFFFFFC0003FFE0001FFFFFFC0003FFF0003FFFFFFFFF0003FFFFF0001
310
F000E0003FFFFF0003FF0001FFE000003FFE0007FF80007FC0007FFFFE0003FC
310
0007FFFFE0003FF8000001FFFE0000007FFFFFF0001FFFFFFF0001FFFFFFC000
310
7FFF0001FFFFFFC0007FFF0003FFFFFFFFF0003FFFFF0001F000E0003FFFFE00
310
03FF0003FFF000003FFE0003FF80007FC0007FFFFC0003FE0007FFFFE0003FF8
310
000001FFFE0000007FFFFFF0001FFFFFFF0000FFFFFF80007FFF0000FFFFFF80
310
007FFF0003FFFFFFFFF0003FFFFF0001F000E0003FFFFE0003FF0003FFF00000
310
3FFF0003FF80007FC0007FFFFC0007FE0007FFFFC0003FF8000001FFFE000000
310
7FFFFFF0001FFFFFFF80007FFFFF0000FFFF80007FFFFF0000FFFF0003FFFFFF
310
FFF0003FFFFF0003F000E0003FFFFC0003FE0003FFF000003FFF0003FF80007F
310
E0003FFFF80007FE0003FFFFC0007FF8000001FFFE0000007FFFFFF0001FFFFF
310
FF80003FFFFE0000FFFF80003FFFFE0000FFFF0003FFFFFFFFF0001FFFFE0003
310
F000F0001FFFF80003FE0003FFF000007FFF0001FF80007FE0003FFFF00007FE
310
0001FFFF80007FF8000001FFFE0000007FFFFFF0001FFFFFFFC0000FFFF80001
310
FFFFC0000FFFF80001FFFF0003FFFFFFFFF0001FFFFC0003F000F0000FFFF000
310
07FE0007FFF800007FFF0001FF80007FE0001FFFE00007FF0000FFFE00007FF8
310
000001FFFE0000007FFFFFF0001FFFFFFFC00003FFE00001FFFFC00003FFE000
310
01FFFF0003FFFFFFFFF8000FFFF80003F000F00003FFC00007FC0007FFF80000
310
7FFF8001FF80007FF00007FF80000FFF00007FF80000FFF8000001FFFE000000
310
7F80000000000001FFE000003E000003FFFFE000003E000003FFFF0003FFFFFF
310
FFF80003FFE00007F000F800000000000FFC0007FFF800007FFF8001FF80007F
310
F000000000000FFF000000000000FFF8000001FFFE0000007F80000000000001
310
FFF0000000000007FFFFF0000000000007FFFF0003FFFFFFFFFC00007E000007
310
F000F800000000000FFC0007FFF80000FFFF8000FF80007FF800000000001FFF
310
800000000001FFF8000001FFFE0000007F80000000000001FFF800000000000F
310
FFFFF800000000000FFFFF0003FFFFFFFFFC00000000000FF000FC0000000000
310
1FFC0007FFFC0000FFFF8000FF80007FF800000000003FFFC00000000001FFF8
310
000001FFFE0000007F80000000000001FFF800000000000FFFFFF80000000000
310
0FFFFF0003FFFFFFFFFE00000000001FF000FE00000000003FF8000FFFFC0000
310
FFFF8000FF80007FFC00000000003FFFC00000000003FFF8000001FFFE000000
310
7F80000000000001FFFC00000000001FFFFFFC00000000001FFFFF0003FFFFFF
310
FFFF00000000001FF000FF00000000003FF8000FFFFC0000FFFFC000FF80007F
310
FE00000000007FFFE00000000007FFF8000001FFFE0000007F80000000000001
310
FFFE00000000003FFFFFFE00000000003FFFFF0003FFFFFFFFFF80000000003F
310
F000FF80000000007FF8000FFFFC0001FFFFC0007F80007FFF0000000000FFFF
310
F0000000000FFFF800000000000000007F80000000000001FFFF8000000000FF
310
FFFFFF8000000000FFFFFF0003FFFFFFFFFFC0000000007FF000FFC000000000
310
FFF8000FFFFE0001FFFFC0007F80007FFF8000000001FFFFF8000000001FFFF8
310
00000000000000007F80000000000001FFFFC000000001FFFFFFFFC000000001
310
FFFFFF0003FFFFFFFFFFE000000000FFF000FFE000000003FFF0001FFFFE0001
310
FFFFC0007F80007FFFC000000007FFFFFE000000003FFFF80000000000000000
310
7F80000000000001FFFFE000000003FFFFFFFFE000000003FFFFFF0003FFFFFF
310
FFFFF000000003FFF000FFF80000000FFFF0001FFFFE0001FFFFE0007F80007F
310
FFF00000000FFFFFFF00000000FFFFF800000000000000007F80000000000001
310
FFFFF80000000FFFFFFFFFF80000000FFFFFFF0003FFFFFFFFFFFC0000000FFF
310
F000FFFE0000003FFFF0001FFFFE0003FFFFE0003F80007FFFFC0000003FFFFF
310
FFC0000003FFFFF800000000000000007F80000000000001FFFFFE0000003FFF
310
FFFFFFFE0000003FFFFFFF0003FFFFFFFFFFFF0000003FFFF000FFFF800000FF
310
FFF0001FFFFF0003FFFFE0003F80007FFFFF000001FFFFFFFFF800001FFFFFF8
310
00000000000000007F80000000000001FFFFFFC00001FFFFFFFFFFFFC00001FF
310
FFFFFF0003FFFFFFFFFFFFC00000FFFFF000FFFFF8000FFFFFFFFFFFFFFFFFFF
310
FFFFFFFFFFFFFFFFFFFFF0001FFFFFFFFFFF0000FFFFFFF80000000000000000
310
7FFFFFFFFFFFFFFFFFFFFFFC001FFFFFFFFFFFFFFC001FFFFFFFFFFFFFFFFFFF
310
FFFFFFFC001FFFFFF000FFFFFFFFFFFFFFFFFFFFFFFFFFFFFFFFFFFFFFFFFFFF
310
FFFFFFFFFFFFFFFFFFFFFFFFFFFFFFFFFFFFFFFFFFFFFFFFFFFFFFFFFFFFFFFF
310
FFFFFFFFFFFFFFFFFFFFFFFFFFFFFFFFFFFFFFFFFFFFFFFFFFFFFFFFFFFFFFFF
310
F000FFFFFFFFFFFFFFFFFFFFFFFFFFFFFFFFFFFFFFFFFFFFFFFFFFFFFFFFFFFF
310
FFFFFFFFFFFFFFFFFFFFFFFFFFFFFFFFFFFFFFFFFFFFFFFFFFFFFFFFFFFFFFFF
310
FFFFFFFFFFFFFFFFFFFFFFFFFFFFFFFFFFFFFFFFFFFFFFFFF000FFFFFFFFFFFF
310
FFFFFFFFFFFFFFFFFFFFFFFFFFFFFFFFFFFFFFFFFFFFFFFFFFFFFFFFFFFFFFFF
310
FFFFFFFFFFFFFFFFFFFFFFFFFFFFFFFFFFFFFFFFFFFFFFFFFFFFFFFFFFFFFFFF
310
FFFFFFFFFFFFFFFFFFFFFFFFFFFFFFFFF000FFFFFFFFFFFFFFFFFFFFFFFFFFFF
310
FFFFFFFFFFFFFFFFFFFFFFFFFFFFFFFFFFFFFFFFFFFFFFFFFFFFFFFFFFFFFFFF
310
FFFFFFFFFFFFFFFFFFFFFFFFFFFFFFFFFFFFFFFFFFFFFFFFFFFFFFFFFFFFFFFF
310
FFFFFFFFFFFFFFFFF000FFFFFFFFFFFFFFFFFFFFFFFFFFFFFFFFFFFFFFFFFFFF
310
FFFFFFFFFFFFFFFFFFFFFFFFFFFFFFFFFFFFFFFFFFFFFFFFFFFFFFFFFFFFFFFF
310
FFFFFFFFFFFFFFFFFFFFFFFFFFFFFFFFFFFFFFFFFFFFFFFFFFFFFFFFFFFFFFFF
310
F000FFFFFFFFFFFFFFFFFFFFFFFFFFFFFFFFFFFFFFFFFFFFFFFFFFFFFFFFFFFF
310
FFFFFFFFFFFFFFFFFFFFFFFFFFFFFFFFFFFFFFFFFFFFFFFFFFFFFFFFFFFFFFFF
310
FFFFFFFFFFFFFFFFFFFFFFFFFFFFFFFFFFFFFFFFFFFFFFFFF000FFFFFFFFFFFF
310
FFFFFFFFFFFFFFFFFFFFFFFFFFFFFFFFFFFFFFFFFFFFFFFFFFFFFFFFFFFFFFFF
310
FFFFFFFFFFFFFFFFFFFFFFFFFFFFFFFFFFFFFFFFFFFFFFFFFFFFFFFFFFFFFFFF
310
FFFFFFFFFFFFFFFFFFFFFFFFFFFFFFFFF000FFFFFFFFFFFFFFFFFFFFFFFFFFFF
310
FFFFFFFFFFFFFFFFFFFFFFFFFFFFFFFFFFFFFFFFFFFFFFFFFFFFFFFFFFFFFFFF
310
FFFFFFFFFFFFFFFFFFFFFFFFFFFFFFFFFFFFFFFFFFFFFFFFFFFFFFFFFFFFFFFF
310
FFFFFFFFFFFFFFFFF000FFFFFFFFFFFFFFFFFFFFFFFFFFFFFFFFFFFFFFFFFFFF
310
FFFFFFFFFFFFFFFFFFFFFFFFFFFFFFFFFFFFFFFFFFFFFFFFFFFFFFFFFFFFFFFF
310
FFFFFFFFFFFFFFFFFFFFFFFFFFFFFFFFFFFFFFFFFFFFFFFFFFFFFFFFFFFFFFFF
310
F000FFFFFFFFFFFFFFFFFFFFFFFFFFFFFFFFFFFFFFFFFFFFFFFFFFFFFFFFFFFF
310
FFFFFFFFFFFFFFFFFFFFFFFFFFFFFFFFFFFFFFFFFFFFFFFFFFFFFFFFFFFFFFFF
310
FFFFFFFFFFFFFFFFFFFFFFFFFFFFFFFFFFFFFFFFFFFFFFFFF000FFFFFFFFFFFF
310
FFFFFFFFFFFFFFFFFFFFFFFFFFFFFFFFFFFFFFFFFFFFFFFFFFFFFFFFFFFFFFFF
310
FFFFFFFFFFFFFFFFFFFFFFFFFFFFFFFFFFFFFFFFFFFFFFFFFFFFFFFFFFFFFFFF
310
FFFFFFFFFFFFFFFFFFFFFFFFFFFFFFFFF000FFFFFFFFFFFFFFFFFFFFFFFFFFFF
310
FFFFFFFFFFFFFFFFFFFFFFFFFFFFFFFFFFFFFFFFFFFFFFFFFFFFFFFFFFFFFFFF
310
FFFFFFFFFFFFFFFFFFFFFFFFFFFFFFFFFFFFFFFFFFFFFFFFFFFFFFFFFFFFFFFF
310
FFFFFFFFFFFFFFFFF000FFFFFFFFFFFFFFFFFFFFFFFFFFFFFFFFFFFFFFFFFFFF
310
FFFFFFFFFFFFFFFFFFFFFFFFFFFFFFFFFFFFFFFFFFFFFFFFFFFFFFFFFFFFFFFF
310
FFFFFFFFFFFFFFFFFFFFFFFFFFFFFFFFFFFFFFFFFFFFFFFFFFFFFFFFFFFFFFFF
310
F000FFFFFFFFFFFFFFFFFFFFFFFFFFFFFFFFFFFFFFFFFFFFFFFFFFFFFFFFFFFF
310
FFFFFFFFFFFFFFFFFFFFFFFFFFFFFFFFFFFFFFFFFFFFFFFFFFFFFFFFFFFFFFFF
310
FFFFFFFFFFFFFFFFFFFFFFFFFFFFFFFFFFFFFFFFFFFFFFFFF000FFFFFFFFFFFF
310
FFFFFFFFFFFFFFFFFFFFFFFFFFFFFFFFFFFFFFFFFFFFFFFFFFFFFFFFFFFFFFFF
310
FFFFFFFFFFFFFFFFFFFFFFFFFFFFFFFFFFFFFFFFFFFFFFFFFFFFFFFFFFFFFFFF
310
FFFFFFFFFFFFFFFFFFFFFFFFFFFFFFFFF000FFFFFFFFFFFFFFFFFFFFFFFFFFFF
310
FFFFFFFFFFFFFFFFFFFFFFFFFFFFFFFFFFFFFFFFFFFFFFFFFFFFFFFFFFFFFFFF
310
FFFFFFFFFFFFFFFFFFFFFFFFFFFFFFFFFFFFFFFFFFFFFFFFFFFFFFFFFFFFFFFF
310
FFFFFFFFFFFFFFFFF000FFFFFFFFFFFFFFFFFFFFFFFFFFFFFFFFFFFFFFFFFFFF
310
FFFFFFFFFFFFFFFFFFFFFFFFFFFFFFFFFFFFFFFFFFFFFFFFFFFFFFFFFFFFFFFF
310
FFFFFFFFFFFFFFFFFFFFFFFFFFFFFFFFFFFFFFFFFFFFFFFFFFFFFFFFFFFFFFFF
310
F000FFFFFFFFFFFFFFFFFFFFFFFFFFFFFFFFFFFFFFFFFFFFFFFFFFFFFFFFFFFF
310
FFFFFFFFFFFFFFFFFFFFFFFFFFFFFFFFFFFFFFFFFFFFFFFFFFFFFFFFFFFFFFFF
310
FFFFFFFFFFFFFFFFFFFFFFFFFFFFFFFFFFFFFFFFFFFFFFFFF000FFFFFFFFFFFF
310
FFFFFFFFFFFFFFFFFFFFFFFFFFFFFFFFFFFFFFFFFFFFFFFFFFFFFFFFFFFFFFFF
310
FFFFFFFFFFFFFFFFFFFFFFFFFFFFFFFFFFFFFFFFFFFFFFFFFFFFFFFFFFFFFFFF
310
FFFFFFFFFFFFFFFFFFFFFFFFFFFFFFFFF000FFFFFFFFFFFFFFFFFFFFFFFFFFFF
310
FFFFFFFFFFFFFFFFFFFFFFFFFFFFFFFFFFFFFFFFFFFFFFFFFFFFFFFFFFFFFFFF
310
FFFFFFFFFFFFFFFFFFFFFFFFFFFFFFFFFFFFFFFFFFFFFFFFFFFFFFFFFFFFFFFF
310
FFFFFFFFFFFFFFFFF000FFFFFFFFFFFFFFFFFFFFFFFFFFFFFFFFFFFFFFFFFFFF
310
FFFFFFFFFFFFFFFFFFFFFFFFFFFFFFFFFFFFFFFFFFFFFFFFFFFFFFFFFFFFFFFF
310
FFFFFFFFFFFFFFFFFFFFFFFFFFFFFFFFFFFFFFFFFFFFFFFFFFFFFFFFFFFFFFFF
310
F000FFFFFFFFFFFFFFFFFFFFFFFFFFFFFFFFFFFFFFFFFFFFFFFFFFFFFFFFFFFF
310
FFFFFFFFFFFFFFFFFFFFFFFFFFFFFFFFFFFFFFFFFFFFFFFFFFFFFFFFFFFFFFFF
310
FFFFFFFFFFFFFFFFFFFFFFFFFFFFFFFFFFFFFFFFFFFFFFFFF000FFFFFFFFFFFF
310
FFFFFFFFFFFFFFFFFFFFFFFFFFFFFFFFFFFFFFFFFFFFFFFFFFFFFFFFFFFFFFFF
310
FFFFFFFFFFFFFFFFFFFFFFFFFFFFFFFFFFFFFFFFFFFFFFFFFFFFFFFFFFFFFFFF
310
FFFFFFFFFFFFFFFFFFFFFFFFFFFFFFFFF0000000000000000000000000000000
310
0000000000000000000000000000000000000000000000000000000000000000
310
0000000000000000000000000000000000000000000000000000000000000000
310
0000000000000000000000000000000000000000000000000000000000000000
310
0000000000000000000000000000000000000000000000000000000000000000
310
0000000000000000000000000000000000000000000000000000000000000000
310
0000000000000000000000000000000000000000000000000000000000000000
310
0000000000000000000000000000000000000000000000000000000000000000
310
0000000000000000000000000000000000000000000000000000000000000000
310
0000000000000000000000000000000000000000000000000000000000000000
310
0000000000000000000000000000000000000000000000000000000000000000
310
0000000000000000000000000000000000000000000000000000000000000000
310
0000000000000000000000000000000000000000000000000000000000000000
310
0000000000000000000000000000000000000000000000000000000000000000
310
0000000000000000000000000000000000000000000000000000000000000000
310
0000000000000000000000000000000000000000000000000000000000000000
  1
OLE
  0
ENDSEC
  0
SECTION
  2
OBJECTS
  0
DICTIONARY
  5
C
330
0
100
AcDbDictionary
281
     1
  3
ACAD_GROUP
350
D
  3
ACAD_LAYOUT
350
1A
  3
ACAD_MLINESTYLE
350
17
  3
ACAD_PLOTSETTINGS
350
19
  3
ACAD_PLOTSTYLENAME
350
E
  3
ACAD_SCALELIST
350
47
  0
DICTIONARY
  5
D
102
{ACAD_REACTORS
330
C
102
}
330
C
100
AcDbDictionary
281
     1
  0
DICTIONARY
  5
1A
102
{ACAD_REACTORS
330
C
102
}
330
C
100
AcDbDictionary
281
     1
  3
Layout1
350
1E
  3
Layout2
350
26
  3
Model
350
22
  0
DICTIONARY
  5
17
102
{ACAD_REACTORS
330
C
102
}
330
C
100
AcDbDictionary
281
     1
  3
Standard
350
18
  0
DICTIONARY
  5
19
102
{ACAD_REACTORS
330
C
102
}
330
C
100
AcDbDictionary
281
     1
  0
ACDBDICTIONARYWDFLT
  5
E
102
{ACAD_REACTORS
330
C
102
}
330
C
100
AcDbDictionary
281
     1
  3
Normal
350
F
100
AcDbDictionaryWithDefault
340
F
  0
DICTIONARY
  5
47
102
{ACAD_REACTORS
330
C
102
}
330
C
100
AcDbDictionary
281
     1
  3
A0
350
48
  3
A1
350
49
  3
A2
350
4A
  3
A3
350
4B
  3
A4
350
4C
  3
A5
350
4D
  3
A6
350
4E
  3
A7
350
4F
  3
A8
350
50
  3
A9
350
51
  3
B0
350
52
  3
B1
350
53
  3
B2
350
54
  3
B3
350
55
  3
B4
350
56
  3
B5
350
57
  3
B6
350
58
  3
B7
350
59
  3
B8
350
5A
  3
B9
350
5B
  3
C0
350
5C
  3
C1
350
5D
  3
C2
350
5E
  3
C3
350
5F
  3
C4
350
60
  3
C5
350
61
  3
C6
350
62
  3
C7
350
63
  3
C8
350
64
  3
C9
350
65
  3
D0
350
66
  3
D1
350
67
  3
D2
350
68
  0
LAYOUT
  5
1E
102
{ACAD_REACTORS
330
1A
102
}
330
1A
100
AcDbPlotSettings
  1

  2
none_device
  4

  6

 40
0.0
 41
0.0
 42
0.0
 43
0.0
 44
0.0
 45
0.0
 46
0.0
 47
0.0
 48
0.0
 49
0.0
140
0.0
141
0.0
142
1.0
143
1.0
 70
   688
 72
     1
 73
     0
 74
     5
  7

 75
    16
147
1.0
148
0.0
149
0.0
100
AcDbLayout
  1
Layout1
 70
     1
 71
     1
 10
0.0
 20
0.0
 11
420.0
 21
297.0
 12
0.0
 22
0.0
 32
0.0
 14
1.0000000000E+20
 24
1.0000000000E+20
 34
1.0000000000E+20
 15
-1.0000000000E+20
 25
-1.0000000000E+20
 35
-1.0000000000E+20
146
0.0
 13
0.0
 23
0.0
 33
0.0
 16
1.0
 26
0.0
 36
0.0
 17
0.0
 27
1.0
 37
0.0
 76
     0
330
1B
  0
LAYOUT
  5
26
102
{ACAD_REACTORS
330
1A
102
}
330
1A
100
AcDbPlotSettings
  1

  2
none_device
  4

  6

 40
0.0
 41
0.0
 42
0.0
 43
0.0
 44
0.0
 45
0.0
 46
0.0
 47
0.0
 48
0.0
 49
0.0
140
0.0
141
0.0
142
1.0
143
1.0
 70
   688
 72
     1
 73
     0
 74
     5
  7

 75
    16
147
1.0
148
0.0
149
0.0
100
AcDbLayout
  1
Layout2
 70
     1
 71
     2
 10
0.0
 20
0.0
 11
0.0
 21
0.0
 12
0.0
 22
0.0
 32
0.0
 14
0.0
 24
0.0
 34
0.0
 15
0.0
 25
0.0
 35
0.0
146
0.0
 13
0.0
 23
0.0
 33
0.0
 16
1.0
 26
0.0
 36
0.0
 17
0.0
 27
1.0
 37
0.0
 76
     0
330
23
  0
LAYOUT
  5
22
102
{ACAD_REACTORS
330
1A
102
}
330
1A
100
AcDbPlotSettings
  1

  2
none_device
  4
Letter_(8.50_x_11.00_Inches)
  6

 40
6.35
 41
6.35
 42
6.35000508
 43
6.35000508
 44
215.9
 45
279.4
 46
0.0
 47
0.0
 48
0.0
 49
0.0
140
0.0
141
0.0
142
1.0
143
1.0
 70
  1712
 72
     1
 73
     0
 74
     0
  7

 75
     0
147
1.0
148
0.0
149
0.0
100
AcDbLayout
  1
Model
 70
     1
 71
     0
 10
0.0
 20
0.0
 11
297.0
 21
210.0
 12
0.0
 22
0.0
 32
0.0
 14
0.0
 24
0.0
 34
0.0
 15
297.0
 25
210.0
 35
0.0
146
0.0
 13
0.0
 23
0.0
 33
0.0
 16
1.0
 26
0.0
 36
0.0
 17
0.0
 27
1.0
 37
0.0
 76
     0
330
1F
331
29
  0
MLINESTYLE
  5
18
102
{ACAD_REACTORS
330
17
102
}
330
17
100
AcDbMlineStyle
  2
Standard
 70
     0
  3

 62
   256
 51
90.0
 52
90.0
 71
     2
 49
0.5
 62
   256
  6
BYLAYER
 49
-0.5
 62
   256
  6
BYLAYER
  0
ACDBPLACEHOLDER
  5
F
102
{ACAD_REACTORS
330
E
102
}
330
E
  0
SCALE
  5
48
102
{ACAD_REACTORS
330
47
102
}
330
47
100
AcDbScale
 70
     0
300
1:1
140
1.0
141
1.0
290
     1
  0
SCALE
  5
49
102
{ACAD_REACTORS
330
47
102
}
330
47
100
AcDbScale
 70
     0
300
1:2
140
1.0
141
2.0
290
     0
  0
SCALE
  5
4A
102
{ACAD_REACTORS
330
47
102
}
330
47
100
AcDbScale
 70
     0
300
1:4
140
1.0
141
4.0
290
     0
  0
SCALE
  5
4B
102
{ACAD_REACTORS
330
47
102
}
330
47
100
AcDbScale
 70
     0
300
1:5
140
1.0
141
5.0
290
     0
  0
SCALE
  5
4C
102
{ACAD_REACTORS
330
47
102
}
330
47
100
AcDbScale
 70
     0
300
1:8
140
1.0
141
8.0
290
     0
  0
SCALE
  5
4D
102
{ACAD_REACTORS
330
47
102
}
330
47
100
AcDbScale
 70
     0
300
1:10
140
1.0
141
10.0
290
     0
  0
SCALE
  5
4E
102
{ACAD_REACTORS
330
47
102
}
330
47
100
AcDbScale
 70
     0
300
1:16
140
1.0
141
16.0
290
     0
  0
SCALE
  5
4F
102
{ACAD_REACTORS
330
47
102
}
330
47
100
AcDbScale
 70
     0
300
1:20
140
1.0
141
20.0
290
     0
  0
SCALE
  5
50
102
{ACAD_REACTORS
330
47
102
}
330
47
100
AcDbScale
 70
     0
300
1:30
140
1.0
141
30.0
290
     0
  0
SCALE
  5
51
102
{ACAD_REACTORS
330
47
102
}
330
47
100
AcDbScale
 70
     0
300
1:40
140
1.0
141
40.0
290
     0
  0
SCALE
  5
52
102
{ACAD_REACTORS
330
47
102
}
330
47
100
AcDbScale
 70
     0
300
1:50
140
1.0
141
50.0
290
     0
  0
SCALE
  5
53
102
{ACAD_REACTORS
330
47
102
}
330
47
100
AcDbScale
 70
     0
300
1:100
140
1.0
141
100.0
290
     0
  0
SCALE
  5
54
102
{ACAD_REACTORS
330
47
102
}
330
47
100
AcDbScale
 70
     0
300
2:1
140
2.0
141
1.0
290
     0
  0
SCALE
  5
55
102
{ACAD_REACTORS
330
47
102
}
330
47
100
AcDbScale
 70
     0
300
4:1
140
4.0
141
1.0
290
     0
  0
SCALE
  5
56
102
{ACAD_REACTORS
330
47
102
}
330
47
100
AcDbScale
 70
     0
300
8:1
140
8.0
141
1.0
290
     0
  0
SCALE
  5
57
102
{ACAD_REACTORS
330
47
102
}
330
47
100
AcDbScale
 70
     0
300
10:1
140
10.0
141
1.0
290
     0
  0
SCALE
  5
58
102
{ACAD_REACTORS
330
47
102
}
330
47
100
AcDbScale
 70
     0
300
100:1
140
100.0
141
1.0
290
     0
  0
SCALE
  5
59
102
{ACAD_REACTORS
330
47
102
}
330
47
100
AcDbScale
 70
     0
300
1/128" = 1'-0"
140
0.0078125
141
12.0
290
     0
  0
SCALE
  5
5A
102
{ACAD_REACTORS
330
47
102
}
330
47
100
AcDbScale
 70
     0
300
1/64" = 1'-0"
140
0.015625
141
12.0
290
     0
  0
SCALE
  5
5B
102
{ACAD_REACTORS
330
47
102
}
330
47
100
AcDbScale
 70
     0
300
1/32" = 1'-0"
140
0.03125
141
12.0
290
     0
  0
SCALE
  5
5C
102
{ACAD_REACTORS
330
47
102
}
330
47
100
AcDbScale
 70
     0
300
1/16" = 1'-0"
140
0.0625
141
12.0
290
     0
  0
SCALE
  5
5D
102
{ACAD_REACTORS
330
47
102
}
330
47
100
AcDbScale
 70
     0
300
3/32" = 1'-0"
140
0.09375
141
12.0
290
     0
  0
SCALE
  5
5E
102
{ACAD_REACTORS
330
47
102
}
330
47
100
AcDbScale
 70
     0
300
1/8" = 1'-0"
140
0.125
141
12.0
290
     0
  0
SCALE
  5
5F
102
{ACAD_REACTORS
330
47
102
}
330
47
100
AcDbScale
 70
     0
300
3/16" = 1'-0"
140
0.1875
141
12.0
290
     0
  0
SCALE
  5
60
102
{ACAD_REACTORS
330
47
102
}
330
47
100
AcDbScale
 70
     0
300
1/4" = 1'-0"
140
0.25
141
12.0
290
     0
  0
SCALE
  5
61
102
{ACAD_REACTORS
330
47
102
}
330
47
100
AcDbScale
 70
     0
300
3/8" = 1'-0"
140
0.375
141
12.0
290
     0
  0
SCALE
  5
62
102
{ACAD_REACTORS
330
47
102
}
330
47
100
AcDbScale
 70
     0
300
1/2" = 1'-0"
140
0.5
141
12.0
290
     0
  0
SCALE
  5
63
102
{ACAD_REACTORS
330
47
102
}
330
47
100
AcDbScale
 70
     0
300
3/4" = 1'-0"
140
0.75
141
12.0
290
     0
  0
SCALE
  5
64
102
{ACAD_REACTORS
330
47
102
}
330
47
100
AcDbScale
 70
     0
300
1" = 1'-0"
140
1.0
141
12.0
290
     0
  0
SCALE
  5
65
102
{ACAD_REACTORS
330
47
102
}
330
47
100
AcDbScale
 70
     0
300
1-1/2" = 1'-0"
140
1.5
141
12.0
290
     0
  0
SCALE
  5
66
102
{ACAD_REACTORS
330
47
102
}
330
47
100
AcDbScale
 70
     0
300
3" = 1'-0"
140
3.0
141
12.0
290
     0
  0
SCALE
  5
67
102
{ACAD_REACTORS
330
47
102
}
330
47
100
AcDbScale
 70
     0
300
6" = 1'-0"
140
6.0
141
12.0
290
     0
  0
SCALE
  5
68
102
{ACAD_REACTORS
330
47
102
}
330
47
100
AcDbScale
 70
     0
300
1'-0" = 1'-0"
140
12.0
141
12.0
290
     0
  0
ENDSEC
  0
EOF
